  0
SECTION
  2
HEADER
  9
$ACADVER
  1
AC1024
  9
$DWGCODEPAGE
  3
ANSI_1252
  9
$EXTMAX
 10
420.0
 20
297.0
 30
0.0
  9
$EXTMIN
 10
0.0
 20
0.0
 30
0.0
  9
$LIMMIN
 10
0.0
 20
0.0
  9
$LIMMAX
 10
420.0
 20
297.0
  9
$VIEWCTR
 10
210.0
 20
148.5
  9
$VIEWSIZE
 40
297.0
  9
$CLAYER
  8
0
  9
$LTSCALE
 40
23.1
  9
$CELTYPE
  6
BYLAYER
  9
$DIMSCALE
 40
1.0
  9
$DIMASZ
 40
3.0
  9
$DIMEXO
 40
0.5
  9
$DIMDLI
 40
15.96
  9
$DIMEXE
 40
1.5
  9
$DIMCEN
 40
3.78
  9
$DIMLFAC
 40
1.0
  9
$DIMBLK
  1
_FILLED
  9
$DIMALT
 70
0
  9
$DIMALTF
 40
0.0393700787
  9
$DIMTXT
 40
3.0
  9
$DIMTOL
 70
1
  9
$DIMLIM
 70
0
  9
$DIMTFAC
 40
1.0
  9
$DIMTP
 40
0.01
  9
$DIMTM
 40
0.01
  9
$DIMGAP
 40
0.625
  9
$DIMDSEP
 70
44
  9
$AUNITS
 70
0
  9
$PDMODE
 70
3
  9
$PDSIZE
 40
3.0
  9
$HANDSEED
  5
70E
  9
$TILEMODE
 70
1
  9
$MEASUREMENT
 70
1
  9
$INSUNITS
 70
4
  0
ENDSEC
  0
SECTION
  2
CLASSES
  0
CLASS
  1
ACDBDICTIONARYWDFLT
  2
AcDbDictionaryWithDefault
  3
AutoCAD 2000
 90
0
 91
1
280
0
281
0
  0
CLASS
  1
ACDBPLACEHOLDER
  2
AcDbPlaceHolder
  3
AutoCAD 2000
 90
0
 91
1
280
0
281
0
  0
CLASS
  1
LAYOUT
  2
AcDbLayout
  3
AutoCAD 2000
 90
0
 91
0
280
0
281
0
  0
ENDSEC
  0
SECTION
  2
TABLES
  0
TABLE
  2
VPORT
  5
8
100
AcDbSymbolTable
 70
2
  0
VPORT
  5
1F4
100
AcDbSymbolTableRecord
100
AcDbViewportTableRecord
  2
*ACTIVE
 70
0
 10
0.0
 20
0.0
 11
1.0
 21
1.0
 12
210.0
 22
148.5
 13
0.0
 23
0.0
 14
1.0
 24
1.0
 15
0.0
 25
0.0
 16
0.0
 26
0.0
 36
1.0
 17
0.0
 27
0.0
 37
0.0
 40
297.0
 41
1.4141414141
 42
50.0
 43
0.0
 44
0.0
 50
0.0
 51
0.0
 71
0
 72
100
 73
1
 74
1
 75
0
 76
0
 77
0
 78
0
  0
ENDTAB
  0
TABLE
  2
LTYPE
  5
5
100
AcDbSymbolTable
 70
6
  0
LTYPE
  5
14
100
AcDbSymbolTableRecord
100
AcDbLinetypeTableRecord
  2
BYBLOCK
 70
0
  3

 72
65
 73
0
 40
0.0
  0
LTYPE
  5
15
100
AcDbSymbolTableRecord
100
AcDbLinetypeTableRecord
  2
BYLAYER
 70
0
  3

 72
65
 73
0
 40
0.0
  0
LTYPE
  5
16
100
AcDbSymbolTableRecord
100
AcDbLinetypeTableRecord
  2
CONTINUOUS
 70
64
  3
Solid line
 72
65
 73
0
 40
0.0
  0
LTYPE
  5
1F5
100
AcDbSymbolTableRecord
100
AcDbLinetypeTableRecord
  2
CENTER
 70
64
  3
____ _ ____ _ ____ _ ____ _ ____ _ ____ _ ____
 72
65
 73
4
 40
0.6
 49
0.375
 74
0
 49
-0.075
 74
0
 49
0.075
 74
0
 49
-0.075
 74
0
  0
LTYPE
  5
1F6
100
AcDbSymbolTableRecord
100
AcDbLinetypeTableRecord
  2
HIDDEN
 70
64
  3
- - - - - - - - - - - - - - - - - - - -
 72
65
 73
2
 40
0.2
 49
0.1
 74
0
 49
-0.1
 74
0
  0
LTYPE
  5
1F7
100
AcDbSymbolTableRecord
100
AcDbLinetypeTableRecord
  2
PHANTOM
 70
64
  3
_____ _ _ _____ _ _ _____ _ _ _____
 72
65
 73
6
 40
0.8
 49
0.45
 74
0
 49
-0.05
 74
0
 49
0.1
 74
0
 49
-0.05
 74
0
 49
0.1
 74
0
 49
-0.05
 74
0
  0
LTYPE
  5
1F8
100
AcDbSymbolTableRecord
100
AcDbLinetypeTableRecord
  2
DOT
 70
64
  3
. . . . . . . . . . . . . . . . . . . .
 72
65
 73
2
 40
0.2
 49
0.1
 74
0
 49
-0.1
 74
0
  0
LTYPE
  5
1F9
100
AcDbSymbolTableRecord
100
AcDbLinetypeTableRecord
  2
DASHED
 70
64
  3
- - - - - - - - - - - - - - - - - - - -
 72
65
 73
2
 40
0.2
 49
0.1
 74
0
 49
-0.1
 74
0
  0
ENDTAB
  0
TABLE
  2
LAYER
  5
2
100
AcDbSymbolTable
 70
36
  0
LAYER
  5
10
100
AcDbSymbolTableRecord
100
AcDbLayerTableRecord
  2
0
 70
0
 62
7
  6
CONTINUOUS
370
-3
390
F
  0
LAYER
  5
1FA
100
AcDbSymbolTableRecord
100
AcDbLayerTableRecord
  2
DEFAULT_1
 70
0
 62
7
  6
CENTER
370
-3
390
F
  0
LAYER
  5
1FB
100
AcDbSymbolTableRecord
100
AcDbLayerTableRecord
  2
DEFAULT_2
 70
0
 62
7
  6
HIDDEN
370
-3
390
F
  0
LAYER
  5
1FC
100
AcDbSymbolTableRecord
100
AcDbLayerTableRecord
  2
DEFAULT_3
 70
0
 62
7
  6
PHANTOM
370
-3
390
F
  0
LAYER
  5
1FD
100
AcDbSymbolTableRecord
100
AcDbLayerTableRecord
  2
ASSI
 70
0
 62
7
  6
CONTINUOUS
370
-3
390
F
  0
LAYER
  5
1FE
100
AcDbSymbolTableRecord
100
AcDbLayerTableRecord
  2
COLOR5
 70
0
 62
7
  6
CONTINUOUS
370
-3
390
F
  0
LAYER
  5
1FF
100
AcDbSymbolTableRecord
100
AcDbLayerTableRecord
  2
COORDINATE
 70
0
 62
7
  6
CONTINUOUS
370
-3
390
F
  0
LAYER
  5
200
100
AcDbSymbolTableRecord
100
AcDbLayerTableRecord
  2
COORD_ORIGINE
 70
0
 62
7
  6
CONTINUOUS
370
-3
390
F
  0
LAYER
  5
201
100
AcDbSymbolTableRecord
100
AcDbLayerTableRecord
  2
COPY-PUBBLISH
 70
0
 62
7
  6
CONTINUOUS
370
-3
390
F
  0
LAYER
  5
202
100
AcDbSymbolTableRecord
100
AcDbLayerTableRecord
  2
COSMETICI
 70
0
 62
7
  6
CONTINUOUS
370
-3
390
F
  0
LAYER
  5
203
100
AcDbSymbolTableRecord
100
AcDbLayerTableRecord
  2
CURVE
 70
0
 62
7
  6
CONTINUOUS
370
-3
390
F
  0
LAYER
  5
204
100
AcDbSymbolTableRecord
100
AcDbLayerTableRecord
  2
DRAFT
 70
0
 62
7
  6
CONTINUOUS
370
-3
390
F
  0
LAYER
  5
205
100
AcDbSymbolTableRecord
100
AcDbLayerTableRecord
  2
IGES
 70
0
 62
7
  6
CONTINUOUS
370
-3
390
F
  0
LAYER
  5
206
100
AcDbSymbolTableRecord
100
AcDbLayerTableRecord
  2
INTF_52
 70
0
 62
7
  6
CONTINUOUS
370
-3
390
F
  0
LAYER
  5
207
100
AcDbSymbolTableRecord
100
AcDbLayerTableRecord
  2
INTF_GREEN
 70
0
 62
7
  6
CONTINUOUS
370
-3
390
F
  0
LAYER
  5
208
100
AcDbSymbolTableRecord
100
AcDbLayerTableRecord
  2
INTF_RED
 70
0
 62
7
  6
CONTINUOUS
370
-3
390
F
  0
LAYER
  5
209
100
AcDbSymbolTableRecord
100
AcDbLayerTableRecord
  2
INTF_YELLOW
 70
0
 62
7
  6
CONTINUOUS
370
-3
390
F
  0
LAYER
  5
20A
100
AcDbSymbolTableRecord
100
AcDbLayerTableRecord
  2
NOTE
 70
0
 62
7
  6
CONTINUOUS
370
-3
390
F
  0
LAYER
  5
20B
100
AcDbSymbolTableRecord
100
AcDbLayerTableRecord
  2
PIANI
 70
0
 62
7
  6
CONTINUOUS
370
-3
390
F
  0
LAYER
  5
20C
100
AcDbSymbolTableRecord
100
AcDbLayerTableRecord
  2
PIANI-RIFERIMENTO
 70
0
 62
7
  6
CONTINUOUS
370
-3
390
F
  0
LAYER
  5
20D
100
AcDbSymbolTableRecord
100
AcDbLayerTableRecord
  2
PIANI_ORIGINE
 70
0
 62
7
  6
CONTINUOUS
370
-3
390
F
  0
LAYER
  5
20E
100
AcDbSymbolTableRecord
100
AcDbLayerTableRecord
  2
PUNTI
 70
0
 62
7
  6
CONTINUOUS
370
-3
390
F
  0
LAYER
  5
20F
100
AcDbSymbolTableRecord
100
AcDbLayerTableRecord
  2
RACCORDO
 70
0
 62
7
  6
CONTINUOUS
370
-3
390
F
  0
LAYER
  5
210
100
AcDbSymbolTableRecord
100
AcDbLayerTableRecord
  2
SIMBOLI
 70
0
 62
7
  6
CONTINUOUS
370
-3
390
F
  0
LAYER
  5
211
100
AcDbSymbolTableRecord
100
AcDbLayerTableRecord
  2
SMUSSO
 70
0
 62
7
  6
CONTINUOUS
370
-3
390
F
  0
LAYER
  5
212
100
AcDbSymbolTableRecord
100
AcDbLayerTableRecord
  2
SOLIDO
 70
0
 62
7
  6
CONTINUOUS
370
-3
390
F
  0
LAYER
  5
213
100
AcDbSymbolTableRecord
100
AcDbLayerTableRecord
  2
SUPERFICI
 70
0
 62
7
  6
CONTINUOUS
370
-3
390
F
  0
LAYER
  5
214
100
AcDbSymbolTableRecord
100
AcDbLayerTableRecord
  2
TRASH
 70
0
 62
7
  6
CONTINUOUS
370
-3
390
F
  0
LAYER
  5
215
100
AcDbSymbolTableRecord
100
AcDbLayerTableRecord
  2
XSEC_DATUMS
 70
0
 62
7
  6
CONTINUOUS
370
-3
390
F
  0
ENDTAB
  0
TABLE
  2
STYLE
  5
3
100
AcDbSymbolTable
 70
1
  0
STYLE
  5
11
100
AcDbSymbolTableRecord
100
AcDbTextStyleTableRecord
  2
STANDARD
 70
0
 40
0.0
 41
0.8
 50
0.0
 71
0
 42
0.2
  3
txt
  4

  0
STYLE
  5
216
100
AcDbSymbolTableRecord
100
AcDbTextStyleTableRecord
  2
TEXTSTYLE_1
 70
0
 40
0.0
 41
0.8
 50
0.0
 71
0
 42
0.2
  3
gdt
  4

  0
ENDTAB
  0
TABLE
  2
VIEW
  5
6
100
AcDbSymbolTable
 70
0
  0
ENDTAB
  0
TABLE
  2
UCS
  5
7
100
AcDbSymbolTable
 70
0
  0
ENDTAB
  0
TABLE
  2
APPID
  5
9
100
AcDbSymbolTable
 70
1
  0
APPID
  5
217
100
AcDbSymbolTableRecord
100
AcDbRegAppTableRecord
  2
ACAD
 70
0
  0
ENDTAB
  0
TABLE
  2
BLOCK_RECORD
  5
1
100
AcDbSymbolTable
 70
0
  0
BLOCK_RECORD
  5
218
100
AcDbSymbolTableRecord
100
AcDbBlockTableRecord
  2
*Model_Space
  0
BLOCK_RECORD
  5
219
100
AcDbSymbolTableRecord
100
AcDbBlockTableRecord
  2
*Paper_Space
  0
BLOCK_RECORD
  5
21A
100
AcDbSymbolTableRecord
100
AcDbBlockTableRecord
  2
_FILLED
  0
BLOCK_RECORD
  5
21B
100
AcDbSymbolTableRecord
100
AcDbBlockTableRecord
  2
*D0
  0
BLOCK_RECORD
  5
21C
100
AcDbSymbolTableRecord
100
AcDbBlockTableRecord
  2
*D1
  0
BLOCK_RECORD
  5
21D
100
AcDbSymbolTableRecord
100
AcDbBlockTableRecord
  2
*D2
  0
ENDTAB
  0
TABLE
  2
DIMSTYLE
  5
A
100
AcDbSymbolTable
 70
1
100
AcDbDimStyleTable
 71
0
  0
DIMSTYLE
105
21E
100
AcDbSymbolTableRecord
100
AcDbDimStyleTableRecord
  2
STANDARD
 70
0
  3

  4

 40
1.0
 41
3.0
 42
0.5
 43
0.38
 44
1.5
 45
0.0
 46
0.0
 47
0.01
 48
0.01
140
3.0
141
0.09
142
0.0
143
25.4
144
1.0
145
0.0
146
1.0
147
0.625
 71
1
 72
0
 73
0
 74
0
 75
0
 76
0
 77
1
 78
8
 79
2
170
0
171
1
172
0
173
0
174
0
175
0
176
0
177
0
178
0
270
2
179
2
271
2
272
2
273
2
274
2
275
0
280
0
281
0
282
0
283
1
284
8
285
0
286
0
287
3
288
0
340
11
278
44
341
21A
342
21A
343
21A
344
21A
  0
DIMSTYLE
105
21F
100
AcDbSymbolTableRecord
100
AcDbDimStyleTableRecord
  2
DIMSTYLE_1
 70
0
  3

  4

 40
1.0
 41
3.0
 42
0.5
 43
0.38
 44
1.5
 45
0.0
 46
0.0
 47
0.0
 48
0.0
140
3.0
141
0.09
142
0.0
143
25.4
144
1.0
145
0.0
146
1.0
147
0.75
 71
0
 72
0
 73
0
 74
0
 75
0
 76
0
 77
1
 78
8
 79
2
170
0
171
1
172
0
173
0
174
0
175
0
176
0
177
0
178
0
270
2
179
2
271
1
272
1
273
2
274
2
275
0
280
0
281
0
282
0
283
1
284
8
285
0
286
0
287
3
288
0
340
11
278
44
341
21A
342
21A
343
21A
344
21A
  0
DIMSTYLE
105
220
100
AcDbSymbolTableRecord
100
AcDbDimStyleTableRecord
  2
DIMSTYLE_2
 70
0
  3

  4

 40
1.0
 41
3.0
 42
0.5
 43
0.38
 44
1.5
 45
0.0
 46
0.0
 47
0.0
 48
0.0
140
3.0
141
0.09
142
0.0
143
25.4
144
1.0
145
0.0
146
1.0
147
0.75
 71
0
 72
0
 73
0
 74
0
 75
0
 76
0
 77
1
 78
8
 79
2
170
0
171
1
172
0
173
0
174
0
175
0
176
0
177
0
178
0
270
2
179
2
271
2
272
2
273
2
274
2
275
0
280
0
281
0
282
0
283
1
284
8
285
0
286
0
287
3
288
0
340
11
278
44
341
21A
342
21A
343
21A
344
21A
  0
ENDTAB
  0
ENDSEC
  0
SECTION
  2
BLOCKS
  0
BLOCK
  5
20
100
AcDbEntity
  8
0
100
AcDbBlockBegin
  2
*Model_Space
 70
0
 10
0.0
 20
0.0
 30
0.0
  3
*Model_Space
  1

  0
ENDBLK
  5
21
100
AcDbEntity
  8
0
100
AcDbBlockEnd
  0
BLOCK
  5
1C
100
AcDbEntity
  8
0
100
AcDbBlockBegin
  2
*Paper_Space
 70
0
 10
0.0
 20
0.0
 30
0.0
  3
*Paper_Space
  1

  0
ENDBLK
  5
1D
100
AcDbEntity
  8
0
100
AcDbBlockEnd
  0
BLOCK
  5
221
100
AcDbEntity
  8
0
100
AcDbBlockBegin
  2
_FILLED
 70
64
 10
0.0
 20
0.0
  3
_FILLED
  1

  0
SOLID
  5
222
100
AcDbEntity
  8
0
  6
BYBLOCK
 62
0
100
AcDbTrace
 10
0.0
 20
0.0
 11
-1.0
 21
0.3166666667
 12
-1.0
 22
-0.3166666667
 13
-1.0
 23
-0.3166666667
  0
ENDBLK
  5
223
100
AcDbEntity
  8
0
  6
BYBLOCK
 62
0
100
AcDbBlockEnd
  0
BLOCK
  5
224
100
AcDbEntity
  8
0
100
AcDbBlockBegin
 62
7
  6
CONTINUOUS
  2
*D0
 70
65
 10
0.0
 20
0.0
  3
*D0
  1

  0
LINE
  5
225
100
AcDbEntity
  8
0
100
AcDbLine
 62
7
  6
CONTINUOUS
 10
40.3401889845
 20
-20.3096662325
 11
40.3401889845
 21
36.8955674434
  0
LINE
  5
226
100
AcDbEntity
  8
0
100
AcDbLine
 62
7
  6
CONTINUOUS
 10
63.3723895616
 20
-20.3096662322
 11
63.3723895616
 21
36.8955674434
  0
LINE
  5
227
100
AcDbEntity
  8
0
100
AcDbLine
 62
7
  6
CONTINUOUS
 10
40.3401889845
 20
35.3955674434
 11
51.8562892731
 21
35.3955674434
  0
LINE
  5
228
100
AcDbEntity
  8
0
100
AcDbLine
 62
7
  6
CONTINUOUS
 10
63.3723895616
 20
35.3955674434
 11
51.8562892731
 21
35.3955674434
  0
INSERT
  5
229
100
AcDbEntity
  8
0
100
AcDbBlockReference
 62
7
  6
CONTINUOUS
  2
_FILLED
 10
40.3401889845
 20
35.3955674434
 41
3.0
 42
3.0
 43
3.0
 50
180.0
  0
INSERT
  5
22A
100
AcDbEntity
  8
0
100
AcDbBlockReference
 62
7
  6
CONTINUOUS
  2
_FILLED
 10
63.3723895616
 20
35.3955674434
 41
3.0
 42
3.0
 43
3.0
  0
ENDBLK
  5
22B
100
AcDbEntity
  8
0
  6
BYBLOCK
 62
0
100
AcDbBlockEnd
  0
BLOCK
  5
22C
100
AcDbEntity
  8
0
100
AcDbBlockBegin
 62
7
  6
CONTINUOUS
  2
*D1
 70
65
 10
0.0
 20
0.0
  3
*D1
  1

  0
LINE
  5
22D
100
AcDbEntity
  8
0
100
AcDbLine
 62
7
  6
CONTINUOUS
 10
19.4177540476
 20
27.5826701117
 11
19.4177540476
 21
39.0412397785
  0
LINE
  5
22E
100
AcDbEntity
  8
0
100
AcDbLine
 62
7
  6
CONTINUOUS
 10
-21.3813922055
 20
27.5826701117
 11
-21.3813922055
 21
39.0412397785
  0
LINE
  5
22F
100
AcDbEntity
  8
0
100
AcDbLine
 62
7
  6
CONTINUOUS
 10
19.4177540476
 20
37.5412397785
 11
-0.981819079
 21
37.5412397785
  0
LINE
  5
230
100
AcDbEntity
  8
0
100
AcDbLine
 62
7
  6
CONTINUOUS
 10
-21.3813922055
 20
37.5412397785
 11
-0.981819079
 21
37.5412397785
  0
INSERT
  5
231
100
AcDbEntity
  8
0
100
AcDbBlockReference
 62
7
  6
CONTINUOUS
  2
_FILLED
 10
19.4177540476
 20
37.5412397785
 41
3.0
 42
3.0
 43
3.0
 50
0.0
  0
INSERT
  5
232
100
AcDbEntity
  8
0
100
AcDbBlockReference
 62
7
  6
CONTINUOUS
  2
_FILLED
 10
-21.3813922055
 20
37.5412397785
 41
3.0
 42
3.0
 43
3.0
 50
180.0
  0
ENDBLK
  5
233
100
AcDbEntity
  8
0
  6
BYBLOCK
 62
0
100
AcDbBlockEnd
  0
BLOCK
  5
234
100
AcDbEntity
  8
0
100
AcDbBlockBegin
 62
7
  6
CONTINUOUS
  2
*D2
 70
65
 10
0.0
 20
0.0
  3
*D2
  1

  0
LINE
  5
235
100
AcDbEntity
  8
0
100
AcDbLine
 62
7
  6
CONTINUOUS
 10
-14.4818190789
 20
27.7111288094
 11
-33.2979211119
 21
27.7111288094
  0
LINE
  5
236
100
AcDbEntity
  8
0
100
AcDbLine
 62
7
  6
CONTINUOUS
 10
-5.9818190789
 20
-34.188871242
 11
-33.2979211119
 21
-34.188871242
  0
LINE
  5
237
100
AcDbEntity
  8
0
100
AcDbLine
 62
7
  6
CONTINUOUS
 10
-31.7979211119
 20
27.7111288094
 11
-31.7979211119
 21
-3.2388712163
  0
LINE
  5
238
100
AcDbEntity
  8
0
100
AcDbLine
 62
7
  6
CONTINUOUS
 10
-31.7979211119
 20
-34.188871242
 11
-31.7979211119
 21
-3.2388712163
  0
INSERT
  5
239
100
AcDbEntity
  8
0
100
AcDbBlockReference
 62
7
  6
CONTINUOUS
  2
_FILLED
 10
-31.7979211119
 20
27.7111288094
 41
3.0
 42
3.0
 43
3.0
 50
90.0
  0
INSERT
  5
23A
100
AcDbEntity
  8
0
100
AcDbBlockReference
 62
7
  6
CONTINUOUS
  2
_FILLED
 10
-31.7979211119
 20
-34.188871242
 41
3.0
 42
3.0
 43
3.0
 50
270.0
  0
ENDBLK
  5
23B
100
AcDbEntity
  8
0
  6
BYBLOCK
 62
0
100
AcDbBlockEnd
  0
ENDSEC
  0
SECTION
  2
ENTITIES
  0
DIMENSION
  5
23C
100
AcDbEntity
  8
0
100
AcDbDimension
 62
7
  6
CONTINUOUS
  2
*D0
 10
63.3723895616
 20
35.3955674434
 11
49.6062892731
 21
35.3955674434
 70
160
 71
2
 72
2
 41
0.9
 42
23.0322005771
  3
DIMSTYLE_1
100
AcDbAlignedDimension
 13
40.3401889845
 23
-20.8096662325
 14
63.3723895616
 24
-20.8096662322
100
AcDbRotatedDimension
  0
DIMENSION
  5
23D
100
AcDbEntity
  8
0
100
AcDbDimension
 62
7
  6
CONTINUOUS
  2
*D1
 10
-21.3813922055
 20
37.5412397785
 11
-5.3746762218
 21
37.5412397785
 70
160
 71
2
 72
2
 41
0.9
 42
40.799146253
  3
DIMSTYLE_2
100
AcDbAlignedDimension
 13
19.4177540476
 23
27.0826701117
 14
-21.3813922055
 24
27.0826701117
 50
180.0
100
AcDbRotatedDimension
  0
DIMENSION
  5
23E
100
AcDbEntity
  8
0
100
AcDbDimension
 62
7
  6
CONTINUOUS
  2
*D2
 10
-31.7979211119
 20
-34.188871242
 11
-31.7979211119
 21
-7.3102997877
 70
160
 71
2
 72
2
 41
0.9
 42
61.9000000514
  3
DIMSTYLE_2
100
AcDbAlignedDimension
 13
-13.9818190789
 23
27.7111288094
 14
-5.4818190789
 24
-34.188871242
 50
270.0
100
AcDbRotatedDimension
  0
LINE
  5
23F
100
AcDbEntity
  8
0
100
AcDbLine
 62
7
  6
CONTINUOUS
 10
3.5197080338
 20
-34.188871242
 11
-5.4833689792
 21
-34.188871242
  0
LINE
  5
240
100
AcDbEntity
  8
0
100
AcDbLine
 62
250
  6
CONTINUOUS
 10
4.3181809211
 20
-33.388871242
 11
-6.2818190789
 21
-33.388871242
  0
LINE
  5
241
100
AcDbEntity
  8
0
100
AcDbLine
 62
250
  6
CONTINUOUS
 10
4.3181809211
 20
-32.8191440557
 11
-6.2818190789
 21
-32.8191440557
  0
LINE
  5
242
100
AcDbEntity
  8
0
100
AcDbLine
 62
250
  6
CONTINUOUS
 10
4.4366019737
 20
-32.6725058271
 11
-6.4002401316
 21
-32.6725058271
  0
LWPOLYLINE
  5
243
100
AcDbEntity
  8
0
100
AcDbPolyline
 62
250
  6
CONTINUOUS
 90
13
 70
0
 10
8.7474342297
 20
-29.4417995935
 10
9.019224426
 20
-29.4095521898
 10
9.2848249647
 20
-29.3609583883
 10
9.5436760842
 20
-29.2965675733
 10
9.7949966665
 20
-29.217065584
 10
10.0383683073
 20
-29.122996209
 10
10.2737976683
 20
-29.0145903488
 10
10.5009771932
 20
-28.8923976092
 10
10.7191197411
 20
-28.7569955473
 10
10.9275488295
 20
-28.6086276949
 10
11.1257333097
 20
-28.4478408759
 10
11.313312136
 20
-28.2754205719
 10
11.489963649
 20
-28.0920217321
  0
LWPOLYLINE
  5
244
100
AcDbEntity
  8
0
100
AcDbPolyline
 62
7
  6
CONTINUOUS
 90
25
 70
0
 10
9.0277227951
 20
-30.7706940459
 10
9.2334966002
 20
-30.749124163
 10
9.4375223435
 20
-30.7192398298
 10
9.6398000251
 20
-30.6810410463
 10
9.840672065
 20
-30.6344356319
 10
10.0397960431
 20
-30.5795157672
 10
10.2361446992
 20
-30.516557994
 10
10.4296844272
 20
-30.4455280263
 10
10.620448833
 20
-30.3664601501
 10
10.8075114742
 20
-30.2797337658
 10
10.9908804876
 20
-30.1852979829
 10
11.1705477363
 20
-30.0832036919
 10
11.3455623665
 20
-29.9739829641
 10
11.5158986834
 20
-29.857593424
 10
11.6815823818
 20
-29.7340774471
 10
11.8417396919
 20
-29.6040942322
 10
11.9963187109
 20
-29.4676322721
 10
12.1453713417
 20
-29.324703074
 10
12.2881795237
 20
-29.1760003572
 10
12.4247406924
 20
-29.0214561116
 10
12.5550574123
 20
-28.8611383474
 10
12.6784193159
 20
-28.6959448146
 10
12.7945896141
 20
-28.5261747632
 10
12.903805096
 20
-28.3515289432
 10
13.0060657617
 20
-28.1720073546
  0
LINE
  5
245
100
AcDbEntity
  8
0
100
AcDbLine
 62
250
  6
CONTINUOUS
 10
8.7474342297
 20
-29.4417995935
 11
8.6831823879
 21
-29.4486128427
  0
LWPOLYLINE
  5
246
100
AcDbEntity
  8
0
100
AcDbPolyline
 62
250
  6
CONTINUOUS
 90
5
 70
0
 10
8.6831823879
 20
-29.4486128427
 10
8.6156059517
 20
-29.4551820345
 10
8.5805398703
 20
-29.4583388074
 10
8.5453726016
 20
-29.4612495148
 10
8.5103299281
 20
-29.4638645749
  0
LINE
  5
247
100
AcDbEntity
  8
0
100
AcDbLine
 62
250
  6
CONTINUOUS
 10
8.4404989707
 20
-29.470511788
 11
8.1249197911
 21
-29.4947803993
  0
LINE
  5
248
100
AcDbEntity
  8
0
100
AcDbLine
 62
250
  6
CONTINUOUS
 10
8.1249197911
 20
-29.4947803993
 11
7.7075502881
 21
-29.5256976647
  0
LINE
  5
249
100
AcDbEntity
  8
0
100
AcDbLine
 62
250
  6
CONTINUOUS
 10
7.7075502881
 20
-29.5256976647
 11
7.3967894749
 21
-29.5477668486
  0
LINE
  5
24A
100
AcDbEntity
  8
0
100
AcDbLine
 62
250
  6
CONTINUOUS
 10
8.7197487998
 20
-30.27864024
 11
8.336947943
 21
-30.3051116275
  0
LINE
  5
24B
100
AcDbEntity
  8
0
100
AcDbLine
 62
250
  6
CONTINUOUS
 10
7.3967894749
 20
-29.5477668486
 11
6.9992106428
 21
-29.574676995
  0
LWPOLYLINE
  5
24C
100
AcDbEntity
  8
0
100
AcDbPolyline
 62
250
  6
CONTINUOUS
 90
10
 70
0
 10
8.336947943
 20
-30.3051116275
 10
7.8494307424
 20
-30.3373775359
 10
7.4094619689
 20
-30.3649875796
 10
6.9691726494
 20
-30.3911792567
 10
6.5285551402
 20
-30.4159524892
 10
6.087624838
 20
-30.4393060205
 10
5.6464201964
 20
-30.4612378498
 10
5.2049565891
 20
-30.4817471012
 10
4.7632262976
 20
-30.5008335893
 10
4.3212331207
 20
-30.5184965679
  0
LINE
  5
24D
100
AcDbEntity
  8
0
100
AcDbLine
 62
250
  6
CONTINUOUS
 10
8.5103299281
 20
-29.4638645749
 11
8.4399768954
 21
-29.4685586663
  0
LINE
  5
24E
100
AcDbEntity
  8
0
100
AcDbLine
 62
250
  6
CONTINUOUS
 10
6.9992106428
 20
-29.574676995
 11
6.7150686887
 21
-29.5930860716
  0
LINE
  5
24F
100
AcDbEntity
  8
0
100
AcDbLine
 62
250
  6
CONTINUOUS
 10
6.7150686887
 20
-29.5930860716
 11
6.3683067556
 21
-29.6145373791
  0
LINE
  5
250
100
AcDbEntity
  8
0
100
AcDbLine
 62
250
  6
CONTINUOUS
 10
-7.0318190789
 20
-31.1787413439
 11
-7.0195713501
 21
-31.1780054468
  0
LINE
  5
251
100
AcDbEntity
  8
0
100
AcDbLine
 62
250
  6
CONTINUOUS
 10
6.3683067556
 20
-29.6145373791
 11
5.9151568014
 21
-29.6411536314
  0
LINE
  5
252
100
AcDbEntity
  8
0
100
AcDbLine
 62
250
  6
CONTINUOUS
 10
5.9151568014
 20
-29.6411536314
 11
5.4683928355
 21
-29.6659611142
  0
LINE
  5
253
100
AcDbEntity
  8
0
100
AcDbLine
 62
250
  6
CONTINUOUS
 10
5.4683928355
 20
-29.6659611142
 11
5.0980925236
 21
-29.6851806043
  0
LINE
  5
254
100
AcDbEntity
  8
0
100
AcDbLine
 62
250
  6
CONTINUOUS
 10
-7.0195713501
 20
-31.1780054468
 11
-6.5953035093
 21
-31.1564389817
  0
LINE
  5
255
100
AcDbEntity
  8
0
100
AcDbLine
 62
250
  6
CONTINUOUS
 10
-7.1739475436
 20
-31.0289825159
 11
-6.7278730221
 21
-31.0067502181
  0
LINE
  5
256
100
AcDbEntity
  8
0
100
AcDbLine
 62
250
  6
CONTINUOUS
 10
5.0980925236
 20
-29.6851806043
 11
4.7502188465
 21
-29.7022358249
  0
LINE
  5
257
100
AcDbEntity
  8
0
100
AcDbLine
 62
250
  6
CONTINUOUS
 10
-6.5953035093
 20
-31.1564389817
 11
-6.2666178285
 21
-31.1407034187
  0
LINE
  5
258
100
AcDbEntity
  8
0
100
AcDbLine
 62
250
  6
CONTINUOUS
 10
-6.7278730221
 20
-31.0067502181
 11
-6.3908884072
 21
-30.9911653299
  0
LINE
  5
259
100
AcDbEntity
  8
0
100
AcDbLine
 62
250
  6
CONTINUOUS
 10
4.7502188465
 20
-29.7022358249
 11
4.3351270371
 21
-29.7214079752
  0
LWPOLYLINE
  5
25A
100
AcDbEntity
  8
0
100
AcDbPolyline
 62
250
  6
CONTINUOUS
 90
6
 70
0
 10
4.3351270371
 20
-29.7214079752
 10
3.6329780306
 20
-29.7523196761
 10
2.9723417641
 20
-29.7768788123
 10
2.3532977977
 20
-29.7956652897
 10
1.7942924712
 20
-29.8080339581
 10
1.2770261997
 20
-29.8158010228
  0
LWPOLYLINE
  5
25B
100
AcDbEntity
  8
0
100
AcDbPolyline
 62
250
  6
CONTINUOUS
 90
3
 70
0
 10
-6.2666178285
 20
-31.1407034187
 10
-5.8601359949
 20
-31.1227433734
 10
-5.6309841334
 20
-31.1130930463
  0
LINE
  5
25C
100
AcDbEntity
  8
0
100
AcDbLine
 62
250
  6
CONTINUOUS
 10
-6.3908884072
 20
-30.9911653299
 11
-5.9754681838
 21
-30.9731920746
  0
LWPOLYLINE
  5
25D
100
AcDbEntity
  8
0
100
AcDbPolyline
 62
250
  6
CONTINUOUS
 90
3
 70
0
 10
-5.9754681838
 20
-30.9731920746
 10
-5.4964158201
 20
-30.9541599722
 10
-5.2461447563
 20
-30.9449668071
  0
LWPOLYLINE
  5
25E
100
AcDbEntity
  8
0
100
AcDbPolyline
 62
250
  6
CONTINUOUS
 90
4
 70
0
 10
-5.6309841334
 20
-31.1130930463
 10
-5.1467177777
 20
-31.0945158693
 10
-4.8962973758
 20
-31.0855890195
 10
-4.644957172
 20
-31.0772322014
  0
LWPOLYLINE
  5
25F
100
AcDbEntity
  8
0
100
AcDbPolyline
 62
250
  6
CONTINUOUS
 90
10
 70
0
 10
4.3212331207
 20
-30.5184965679
 10
3.7330163655
 20
-30.5397164436
 10
3.1445269355
 20
-30.5584579777
 10
2.5557730205
 20
-30.574721497
 10
1.9667462005
 20
-30.5885247176
 10
1.3774709463
 20
-30.5998490516
 10
0.7880055022
 20
-30.6086401512
 10
0.1983755083
 20
-30.6148793629
 10
-0.3914268624
 20
-30.6185831818
 10
-0.9813927961
 20
-30.619749941
  0
LWPOLYLINE
  5
260
100
AcDbEntity
  8
0
100
AcDbPolyline
 62
250
  6
CONTINUOUS
 90
3
 70
0
 10
-5.2461447563
 20
-30.9449668071
 10
-4.7316727281
 20
-30.9278287885
 10
-4.479770698
 20
-30.9200739839
  0
LINE
  5
261
100
AcDbEntity
  8
0
100
AcDbLine
 62
250
  6
CONTINUOUS
 10
-4.644957172
 20
-31.0772322014
 11
-4.1537754694
 21
-31.0625095381
  0
LWPOLYLINE
  5
262
100
AcDbEntity
  8
0
100
AcDbPolyline
 62
250
  6
CONTINUOUS
 90
4
 70
0
 10
-4.479770698
 20
-30.9200739839
 10
-3.9772146161
 20
-30.9066102923
 10
-3.7253554469
 20
-30.9004907279
 10
-3.4724532153
 20
-30.8949910556
  0
LWPOLYLINE
  5
263
100
AcDbEntity
  8
0
100
AcDbPolyline
 62
250
  6
CONTINUOUS
 90
3
 70
0
 10
-4.1537754694
 20
-31.0625095381
 10
-3.6613534269
 20
-31.0498751581
 10
-3.4147879474
 20
-31.0443170939
  0
LWPOLYLINE
  5
264
100
AcDbEntity
  8
0
100
AcDbPolyline
 62
250
  6
CONTINUOUS
 90
14
 70
0
 10
-3.4147879474
 20
-31.0443170939
 10
-2.9028816437
 20
-31.0345572881
 10
-2.6384385135
 20
-31.0303555465
 10
-2.361505326
 20
-31.0267223732
 10
-2.0703740544
 20
-31.0235941125
 10
-1.7674245105
 20
-31.0210344202
 10
-1.4516249996
 20
-31.0193350186
 10
-1.1155427822
 20
-31.0186012353
 10
-0.7681880831
 20
-31.0187277429
 10
-0.4334108844
 20
-31.0196902804
 10
-0.1205145406
 20
-31.021578894
 10
0.1783463903
 20
-31.0243035376
 10
0.4653063384
 20
-31.0275698123
 10
0.7383893942
 20
-31.031311443
  0
LWPOLYLINE
  5
265
100
AcDbEntity
  8
0
100
AcDbPolyline
 62
250
  6
CONTINUOUS
 90
15
 70
0
 10
-3.4724532153
 20
-30.8949910556
 10
-2.9485680783
 20
-30.8852602092
 10
-2.6775795143
 20
-30.8810617098
 10
-2.3941380672
 20
-30.8774919641
 10
-2.0960913009
 20
-30.8743819639
 10
-1.7855823788
 20
-30.8717862944
 10
-1.4627597755
 20
-30.8701303678
 10
-1.1190120699
 20
-30.8695316758
 10
-0.7629271877
 20
-30.8696600645
 10
-0.4204482246
 20
-30.870484269
 10
-0.1005687857
 20
-30.8723217721
 10
0.2057268714
 20
-30.875083866
 10
0.499504379
 20
-30.8783361046
 10
0.7790226405
 20
-30.8820148251
 10
1.046031046
 20
-30.886294485
  0
LWPOLYLINE
  5
266
100
AcDbEntity
  8
0
100
AcDbPolyline
 62
250
  6
CONTINUOUS
 90
4
 70
0
 10
1.2770261997
 20
-29.8158010228
 10
0.1838504355
 20
-29.8292399103
 10
-0.3921881737
 20
-29.8344879634
 10
-0.981819079
 20
-29.8381806472
  0
LINE
  5
267
100
AcDbEntity
  8
0
100
AcDbLine
 62
250
  6
CONTINUOUS
 10
5.0681809211
 20
-31.8904352747
 11
-7.0318190789
 21
-31.8904352748
  0
LWPOLYLINE
  5
268
100
AcDbEntity
  8
0
100
AcDbPolyline
 62
250
  6
CONTINUOUS
 90
3
 70
0
 10
-2.1474885933
 20
-29.8292399103
 10
-1.5714499842
 20
-29.8344879634
 10
-0.981819079
 20
-29.8381806472
  0
LWPOLYLINE
  5
269
100
AcDbEntity
  8
0
100
AcDbPolyline
 62
250
  6
CONTINUOUS
 90
3
 70
0
 10
0.7383893942
 20
-31.031311443
 10
1.2539743349
 20
-31.0403240238
 10
1.5029715234
 20
-31.0454541829
  0
LWPOLYLINE
  5
26A
100
AcDbEntity
  8
0
100
AcDbPolyline
 62
250
  6
CONTINUOUS
 90
3
 70
0
 10
1.046031046
 20
-30.886294485
 10
1.5618375737
 20
-30.8961246903
 10
1.8106407091
 20
-30.901643835
  0
LINE
  5
26B
100
AcDbEntity
  8
0
100
AcDbLine
 62
250
  6
CONTINUOUS
 10
1.5029715234
 20
-31.0454541829
 11
1.9880242259
 21
-31.05709275
  0
LWPOLYLINE
  5
26C
100
AcDbEntity
  8
0
100
AcDbPolyline
 62
250
  6
CONTINUOUS
 90
3
 70
0
 10
1.8106407091
 20
-30.901643835
 10
2.3056427178
 20
-30.9142514072
 10
2.5518458795
 20
-30.9211517193
  0
LINE
  5
26D
100
AcDbEntity
  8
0
100
AcDbLine
 62
250
  6
CONTINUOUS
 10
1.9880242259
 20
-31.05709275
 11
2.4690447717
 21
-31.0706630947
  0
LWPOLYLINE
  5
26E
100
AcDbEntity
  8
0
100
AcDbPolyline
 62
250
  6
CONTINUOUS
 90
4
 70
0
 10
2.5518458795
 20
-30.9211517193
 10
3.0506407787
 20
-30.9371174614
 10
3.3032320908
 20
-30.9457301302
 10
3.5487077936
 20
-30.9547922381
  0
LINE
  5
26F
100
AcDbEntity
  8
0
100
AcDbLine
 62
250
  6
CONTINUOUS
 10
2.4690447717
 20
-31.0706630947
 11
2.9579851296
 21
-31.0864880149
  0
LWPOLYLINE
  5
270
100
AcDbEntity
  8
0
100
AcDbPolyline
 62
250
  6
CONTINUOUS
 90
10
 70
0
 10
-6.2840175187
 20
-30.5184965679
 10
-5.6958007635
 20
-30.5397164436
 10
-5.1073113335
 20
-30.5584579777
 10
-4.5185574184
 20
-30.574721497
 10
-3.9295305543
 20
-30.5885247187
 10
-3.3402552558
 20
-30.5998490534
 10
-2.7507899002
 20
-30.6086401512
 10
-2.1611601717
 20
-30.6148793603
 10
-1.5713581991
 20
-30.6185831785
 10
-0.9813927961
 20
-30.619749941
  0
LWPOLYLINE
  5
271
100
AcDbEntity
  8
0
100
AcDbPolyline
 62
250
  6
CONTINUOUS
 90
6
 70
0
 10
-5.5966161884
 20
-29.7523196761
 10
-4.935979922
 20
-29.7768788123
 10
-4.3169359555
 20
-29.7956652897
 10
-3.7579306289
 20
-29.8080339581
 10
-3.2406643575
 20
-29.8158010228
 10
-2.1474885933
 20
-29.8292399103
  0
LWPOLYLINE
  5
272
100
AcDbEntity
  8
0
100
AcDbPolyline
 62
250
  6
CONTINUOUS
 90
3
 70
0
 10
2.9579851296
 20
-31.0864880149
 10
3.4439507186
 20
-31.1042887843
 10
3.6786625334
 20
-31.113591246
  0
LINE
  5
273
100
AcDbEntity
  8
0
100
AcDbLine
 62
250
  6
CONTINUOUS
 10
3.5487077936
 20
-30.9547922381
 11
4.0195849515
 21
-30.9735369678
  0
LINE
  5
274
100
AcDbEntity
  8
0
100
AcDbLine
 62
250
  6
CONTINUOUS
 10
3.6786625334
 20
-31.113591246
 11
4.1137159341
 21
-31.1322075572
  0
LINE
  5
275
100
AcDbEntity
  8
0
100
AcDbLine
 62
250
  6
CONTINUOUS
 10
4.0195849515
 20
-30.9735369678
 11
4.4297914785
 21
-30.9913222819
  0
LINE
  5
276
100
AcDbEntity
  8
0
100
AcDbLine
 62
250
  6
CONTINUOUS
 10
-6.5149474425
 20
-29.7115802385
 11
-5.5966161884
 21
-29.7523196761
  0
LINE
  5
277
100
AcDbEntity
  8
0
100
AcDbLine
 62
250
  6
CONTINUOUS
 10
4.4297914785
 20
-30.9913222819
 11
4.7645473313
 21
-31.006805991
  0
LINE
  5
278
100
AcDbEntity
  8
0
100
AcDbLine
 62
250
  6
CONTINUOUS
 10
4.1137159341
 20
-31.1322075572
 11
4.4789516583
 21
-31.149110678
  0
LINE
  5
279
100
AcDbEntity
  8
0
100
AcDbLine
 62
250
  6
CONTINUOUS
 10
-7.0617306815
 20
-29.6851806043
 11
-6.5149474425
 21
-29.7115802385
  0
LINE
  5
27A
100
AcDbEntity
  8
0
100
AcDbLine
 62
250
  6
CONTINUOUS
 10
4.4789516583
 20
-31.149110678
 11
4.8727962336
 21
-31.1685791561
  0
LINE
  5
27B
100
AcDbEntity
  8
0
100
AcDbLine
 62
250
  6
CONTINUOUS
 10
4.7645473313
 20
-31.006805991
 11
5.210300026
 21
-31.0290271132
  0
LWPOLYLINE
  5
27C
100
AcDbEntity
  8
0
100
AcDbPolyline
 62
250
  6
CONTINUOUS
 90
3
 70
0
 10
4.8727962336
 20
-31.1685791561
 10
5.0559213401
 20
-31.1780468516
 10
5.0681809211
 20
-31.1787854982
  0
LINE
  5
27D
100
AcDbEntity
  8
0
100
AcDbLine
 62
250
  6
CONTINUOUS
 10
-7.6317075045
 20
-29.6550476687
 11
-7.0617306815
 21
-29.6851806043
  0
LINE
  5
27E
100
AcDbEntity
  8
0
100
AcDbLine
 62
250
  6
CONTINUOUS
 10
-8.1656924393
 20
-29.6244866709
 11
-7.6317075045
 21
-29.6550476687
  0
LWPOLYLINE
  5
27F
100
AcDbEntity
  8
0
100
AcDbPolyline
 62
250
  6
CONTINUOUS
 90
9
 70
0
 10
-9.8122151404
 20
-30.3373775359
 10
-9.3722463668
 20
-30.3649875796
 10
-8.9319570474
 20
-30.3911792567
 10
-8.4913395382
 20
-30.4159524892
 10
-8.050409236
 20
-30.4393060205
 10
-7.6092045944
 20
-30.4612378498
 10
-7.1677409871
 20
-30.4817471012
 10
-6.7260106955
 20
-30.5008335893
 10
-6.2840175187
 20
-30.5184965679
  0
LINE
  5
280
100
AcDbEntity
  8
0
100
AcDbLine
 62
250
  6
CONTINUOUS
 10
-8.6787068466
 20
-29.5930860716
 11
-8.1656924393
 21
-29.6244866709
  0
LINE
  5
281
100
AcDbEntity
  8
0
100
AcDbLine
 62
250
  6
CONTINUOUS
 10
-9.2300164396
 20
-29.5567381764
 11
-8.6787068466
 21
-29.5930860716
  0
LINE
  5
282
100
AcDbEntity
  8
0
100
AcDbLine
 62
250
  6
CONTINUOUS
 10
-10.6825331978
 20
-30.27864024
 11
-9.8122151404
 21
-30.3373775359
  0
LINE
  5
283
100
AcDbEntity
  8
0
100
AcDbLine
 62
250
  6
CONTINUOUS
 10
-9.7824535992
 20
-29.517573196
 11
-9.2300164396
 21
-29.5567381764
  0
LINE
  5
284
100
AcDbEntity
  8
0
100
AcDbLine
 62
250
  6
CONTINUOUS
 10
-9.7824535992
 20
-29.517573196
 11
-10.4041371286
 21
-29.470511788
  0
LWPOLYLINE
  5
285
100
AcDbEntity
  8
0
100
AcDbPolyline
 62
250
  6
CONTINUOUS
 90
5
 70
0
 10
-10.5792441096
 20
-29.4551820345
 10
-10.5441780282
 20
-29.4583388074
 10
-10.5090107595
 20
-29.4612495148
 10
-10.473968086
 20
-29.4638645749
 10
-10.4036150533
 20
-29.4685586663
  0
LINE
  5
286
100
AcDbEntity
  8
0
100
AcDbLine
 62
250
  6
CONTINUOUS
 10
-10.6468205458
 20
-29.4486128427
 11
-10.5792441096
 21
-29.4551820345
  0
LINE
  5
287
100
AcDbEntity
  8
0
100
AcDbLine
 62
250
  6
CONTINUOUS
 10
-10.7110723876
 20
-29.4417995935
 11
-10.6468205458
 21
-29.4486128427
  0
LWPOLYLINE
  5
288
100
AcDbEntity
  8
0
100
AcDbPolyline
 62
250
  6
CONTINUOUS
 90
13
 70
0
 10
-10.7110723876
 20
-29.4417995935
 10
-10.9828625839
 20
-29.4095521898
 10
-11.2484631226
 20
-29.3609583883
 10
-11.5073142421
 20
-29.2965675733
 10
-11.7586348244
 20
-29.217065584
 10
-12.0020064652
 20
-29.122996209
 10
-12.2374358262
 20
-29.0145903488
 10
-12.4646153511
 20
-28.8923976092
 10
-12.682757899
 20
-28.7569955473
 10
-12.8911869874
 20
-28.6086276949
 10
-13.0893714676
 20
-28.4478408759
 10
-13.2769502939
 20
-28.2754205719
 10
-13.4536018069
 20
-28.0920217321
  0
LWPOLYLINE
  5
289
100
AcDbEntity
  8
0
100
AcDbPolyline
 62
250
  6
CONTINUOUS
 90
25
 70
0
 10
-0.9818190789
 20
-20.0873383735
 10
-0.251254825
 20
-20.0696084107
 10
0.477570952
 20
-20.0153816874
 10
1.2026390876
 20
-19.9248529901
 10
1.9222638651
 20
-19.7982913844
 10
2.634864635
 20
-19.6360030605
 10
3.3393933155
 20
-19.4381178352
 10
4.0340970266
 20
-19.2048376114
 10
4.7172966203
 20
-18.9366529988
 10
5.3880885177
 20
-18.6340250973
 10
6.0449919836
 20
-18.2973407655
 10
6.6858277334
 20
-17.9272949322
 10
7.3085150754
 20
-17.5249817705
 10
7.9115204152
 20
-17.0912115762
 10
8.493018423
 20
-16.6269544502
 10
9.0506661964
 20
-16.1340122509
 10
9.5832436439
 20
-15.6134827282
 10
10.0892632934
 20
-15.066667969
 10
10.5663094475
 20
-14.49602134
 10
11.0133462022
 20
-13.9031660648
 10
11.4295223693
 20
-13.2894324626
 10
11.8131014919
 20
-12.6572406688
 10
12.1631175619
 20
-12.008652549
 10
12.4792994532
 20
-11.3450634923
 10
12.7611404927
 20
-10.6682878672
  0
LWPOLYLINE
  5
28A
100
AcDbEntity
  8
0
100
AcDbPolyline
 62
250
  6
CONTINUOUS
 90
25
 70
0
 10
-0.9818190789
 20
-20.0873383736
 10
-1.7123833329
 20
-20.0696084107
 10
-2.4412091099
 20
-20.0153816874
 10
-3.1662772456
 20
-19.9248529901
 10
-3.885902023
 20
-19.7982913844
 10
-4.5985027929
 20
-19.6360030605
 10
-5.3030314734
 20
-19.4381178352
 10
-5.9977351845
 20
-19.2048376114
 10
-6.6809347782
 20
-18.9366529987
 10
-7.3517266756
 20
-18.6340250973
 10
-8.0086301415
 20
-18.2973407655
 10
-8.6494658913
 20
-17.9272949322
 10
-9.2721532333
 20
-17.5249817705
 10
-9.8751585731
 20
-17.0912115761
 10
-10.4566565809
 20
-16.6269544502
 10
-11.0143043543
 20
-16.1340122509
 10
-11.5468818018
 20
-15.6134827282
 10
-12.0529014513
 20
-15.066667969
 10
-12.5299476054
 20
-14.49602134
 10
-12.9769843601
 20
-13.9031660648
 10
-13.3931605272
 20
-13.2894324626
 10
-13.7767396498
 20
-12.6572406688
 10
-14.1267557198
 20
-12.008652549
 10
-14.4429376111
 20
-11.3450634923
 10
-14.7247786506
 20
-10.6682878672
  0
LWPOLYLINE
  5
28B
100
AcDbEntity
  8
0
100
AcDbPolyline
 62
7
  6
CONTINUOUS
 90
10
 70
0
 43
0.3499999917
 10
-35.5479217529
 20
-6.2388713837
 10
-34.9050627136
 20
-6.8817288208
 10
-34.0479226685
 20
-7.3103004456
 10
-32.9764920044
 20
-7.3103004456
 10
-32.5479203796
 20
-6.8817288208
 10
-32.5479203796
 20
-6.2388713837
 10
-32.9764920044
 20
-5.8102997589
 10
-33.8336352539
 20
-5.8102997589
 10
-34.2622068787
 20
-6.2388713837
 10
-34.2622068787
 20
-7.1674427032
  0
LWPOLYLINE
  5
28C
100
AcDbEntity
  8
0
100
AcDbPolyline
 62
250
  6
CONTINUOUS
 90
13
 70
0
 10
-14.0461419555
 20
-28.5919000385
 10
-13.8298527375
 20
-28.8266762403
 10
-13.5986778728
 20
-29.0468333911
 10
-13.3531543723
 20
-29.2517530152
 10
-13.0945483842
 20
-29.4403132619
 10
-12.8240235749
 20
-29.6115913064
 10
-12.5423131627
 20
-29.765137408
 10
-12.250497268
 20
-29.9002377658
 10
-11.9499701392
 20
-30.0161031057
 10
-11.6419367256
 20
-30.1122719383
 10
-11.3274558357
 20
-30.1883471823
 10
-11.007333012
 20
-30.2439516831
 10
-10.6825355525
 20
-30.2786691972
  0
LWPOLYLINE
  5
28D
100
AcDbEntity
  8
0
100
AcDbPolyline
 62
250
  6
CONTINUOUS
 90
37
 70
0
 10
-0.9818190789
 20
-17.5236580115
 10
-0.6287704827
 20
-17.5129428667
 10
-0.2757212222
 20
-17.4945168981
 10
0.0773309541
 20
-17.4683799109
 10
0.4263878417
 20
-17.4356448336
 10
0.7754517194
 20
-17.3951981469
 10
1.1365270362
 20
-17.343699677
 10
1.518236707
 20
-17.2788630793
 10
1.9119658061
 20
-17.2029728418
 10
2.3038616704
 20
-17.1195449702
 10
2.6893766192
 20
-17.0301208842
 10
3.0730609824
 20
-16.9331575735
 10
3.4547076575
 20
-16.8275445137
 10
3.8345951706
 20
-16.7128596453
 10
4.2124484137
 20
-16.5895225564
 10
4.5872300016
 20
-16.4576849549
 10
4.9603949007
 20
-16.3165559695
 10
5.3304904519
 20
-16.1669235441
 10
5.6921166801
 20
-16.0113080112
 10
6.0420323454
 20
-15.8510843611
 10
6.3834780964
 20
-15.6848756517
 10
6.7207762253
 20
-15.5110744361
 10
7.0580353891
 20
-15.3273866462
 10
7.3911468169
 20
-15.1361030768
 10
7.7121058067
 20
-14.9424943901
 10
8.0158862106
 20
-14.7498033472
 10
8.3075111654
 20
-14.5547870389
 10
8.5940494727
 20
-14.3529878316
 10
8.8806937456
 20
-14.1402564306
 10
9.1622493685
 20
-13.9207388893
 10
9.4302041659
 20
-13.7024214862
 10
9.6790861499
 20
-13.4902357022
 10
9.9143644667
 20
-13.2792519078
 10
10.1439384036
 20
-13.0626651015
 10
10.3704399731
 20
-12.8382056687
 10
10.5912340872
 20
-12.6081410291
 10
10.8063190461
 20
-12.3724702747
  0
LWPOLYLINE
  5
28E
100
AcDbEntity
  8
0
100
AcDbPolyline
 62
250
  6
CONTINUOUS
 90
37
 70
0
 10
-0.9818190789
 20
-17.5236464273
 10
-1.3348700241
 20
-17.5129362713
 10
-1.687921026
 20
-17.4945140162
 10
-2.0409743369
 20
-17.4683794671
 10
-2.3900315537
 20
-17.4356451244
 10
-2.7390951551
 20
-17.3951978969
 10
-3.1001701865
 20
-17.3436988948
 10
-3.4818797686
 20
-17.2788622006
 10
-3.8756087698
 20
-17.2029718753
 10
-4.2675045065
 20
-17.1195439286
 10
-4.6530192811
 20
-17.0301197837
 10
-5.0367034403
 20
-16.9331564267
 10
-5.4183499113
 20
-16.8275433265
 10
-5.798237232
 20
-16.7128584192
 10
-6.1760902824
 20
-16.5895212971
 10
-6.5508716713
 20
-16.4576836737
 10
-6.9240363596
 20
-16.3165546809
 10
-7.2941316934
 20
-16.1669222593
 10
-7.6557577084
 20
-16.0113067377
 10
-8.0056731683
 20
-15.8510831045
 10
-8.347118718
 20
-15.6848744196
 10
-8.6844166479
 20
-15.5110732379
 10
-9.0216756131
 20
-15.3273854932
 10
-9.3547868446
 20
-15.1361019785
 10
-9.6757456447
 20
-14.9424933514
 10
-9.9795258671
 20
-14.7498023714
 10
-10.2711506469
 20
-14.5547861312
 10
-10.5576887863
 20
-14.3529869974
 10
-10.8443328982
 20
-14.1402556769
 10
-11.1258883672
 20
-13.9207382218
 10
-11.3938430189
 20
-13.7024209076
 10
-11.6427248656
 20
-13.4902352145
 10
-11.8780030534
 20
-13.2792515138
 10
-12.1075768701
 20
-13.0626648033
 10
-12.334078328
 20
-12.8382054679
 10
-12.5548723393
 20
-12.6081409277
 10
-12.769957204
 20
-12.3724702747
  0
LWPOLYLINE
  5
28F
100
AcDbEntity
  8
0
100
AcDbPolyline
 62
250
  6
CONTINUOUS
 90
10
 70
0
 10
-7.1116818461
 20
-19.5327696806
 10
-6.4630990108
 20
-19.7968522291
 10
-5.8028406513
 20
-20.0314791671
 10
-5.1323323998
 20
-20.2360953621
 10
-4.451954839
 20
-20.4105615054
 10
-3.7635155468
 20
-20.5541497894
 10
-3.0705755628
 20
-20.6658916078
 10
-2.3753642011
 20
-20.7455760897
 10
-1.6786108941
 20
-20.7934606346
 10
-0.9818190784
 20
-20.8096662322
  0
LWPOLYLINE
  5
290
100
AcDbEntity
  8
0
100
AcDbPolyline
 62
250
  6
CONTINUOUS
 90
3
 70
0
 10
-7.7990323243
 20
-19.214511528
 10
-7.451342064
 20
-19.3805954958
 10
-7.1116818461
 20
-19.5327696806
  0
LWPOLYLINE
  5
291
100
AcDbEntity
  8
0
100
AcDbPolyline
 62
250
  6
CONTINUOUS
 90
5
 70
0
 10
12.8490562824
 20
-27.1320465225
 10
12.8891910696
 20
-27.1515316909
 10
12.9219255792
 20
-27.1671287622
 10
12.9470163532
 20
-27.1787220871
 10
12.9641714429
 20
-27.1861723112
  0
LWPOLYLINE
  5
292
100
AcDbEntity
  8
0
100
AcDbPolyline
 62
250
  6
CONTINUOUS
 90
13
 70
0
 10
12.0023809576
 20
-27.3864082257
 10
12.090825789
 20
-27.4302111221
 10
12.175446779
 20
-27.4715227787
 10
12.2557162552
 20
-27.5100911381
 10
12.3311710984
 20
-27.5456941645
 10
12.4011819801
 20
-27.5780309738
 10
12.4650124092
 20
-27.606756652
 10
12.5221898117
 20
-27.6316545763
 10
12.5723875583
 20
-27.6525879626
 10
12.6151997235
 20
-27.6693959293
 10
12.6503607882
 20
-27.681982429
 10
12.6776815372
 20
-27.6902800567
 10
12.6969357835
 20
-27.6942065114
  0
LINE
  5
293
100
AcDbEntity
  8
0
100
AcDbLine
 62
250
  6
CONTINUOUS
 10
12.7480425783
 20
-27.0821105711
 11
12.8490562824
 21
-27.1320465225
  0
LINE
  5
294
100
AcDbEntity
  8
0
100
AcDbLine
 62
250
  6
CONTINUOUS
 10
12.6225848132
 20
-27.0191403158
 11
12.7480425783
 21
-27.0821105711
  0
LWPOLYLINE
  5
295
100
AcDbEntity
  8
0
100
AcDbPolyline
 62
250
  6
CONTINUOUS
 90
3
 70
0
 10
12.3104700336
 20
-26.8602760866
 10
12.3950630987
 20
-26.9035552799
 10
12.6225848132
 20
-27.0191403158
  0
LWPOLYLINE
  5
296
100
AcDbEntity
  8
0
100
AcDbPolyline
 62
7
  6
CONTINUOUS
 90
5
 70
0
 10
-8.8803572826
 20
-18.6277644166
 10
-8.7393226266
 20
-18.7113292527
 10
-8.4278208182
 20
-18.8872445543
 10
-8.1098642631
 20
-19.0573174463
 10
-7.7990323243
 20
-19.214511528
  0
LWPOLYLINE
  5
297
100
AcDbEntity
  8
0
100
AcDbPolyline
 62
250
  6
CONTINUOUS
 90
4
 70
0
 10
-9.6852625629
 20
-18.1150914238
 10
-9.3534266195
 20
-18.3358783165
 10
-9.0475806122
 20
-18.5277684733
 10
-8.8803572826
 20
-18.6277644166
  0
LINE
  5
298
100
AcDbEntity
  8
0
100
AcDbLine
 62
7
  6
CONTINUOUS
 10
-9.9550061384
 20
-17.9280757899
 11
-9.6852625629
 21
-18.1150914238
  0
LWPOLYLINE
  5
299
100
AcDbEntity
  8
0
100
AcDbPolyline
 62
7
  6
CONTINUOUS
 90
3
 70
0
 43
0.3499999917
 10
-34.6907785034
 20
-4.9531565094
 10
-35.5479217529
 20
-4.0960148621
 10
-32.5479203796
 20
-4.0960148621
  0
LWPOLYLINE
  5
29A
100
AcDbEntity
  8
0
100
AcDbPolyline
 62
7
  6
CONTINUOUS
 90
10
 70
0
 43
0.3499999917
 10
-32.5479203796
 20
-1.0960134888
 10
-33.4050636292
 20
-0.2388702393
 10
-34.2622068787
 20
-0.0245860291
 10
-35.1193501282
 20
-0.0245860291
 10
-35.5479217529
 20
-0.4531576538
 10
-35.5479217529
 20
-1.0960134888
 10
-35.1193501282
 20
-1.5245851135
 10
-34.2622068787
 20
-1.5245851135
 10
-33.8336352539
 20
-1.0960134888
 10
-33.8336352539
 20
-0.1674421692
  0
LWPOLYLINE
  5
29B
100
AcDbEntity
  8
0
100
AcDbPolyline
 62
250
  6
CONTINUOUS
 90
7
 70
0
 10
-13.4536018069
 20
-28.0920217321
 10
-13.548379988
 20
-27.9828697405
 10
-13.6394841203
 20
-27.8701598167
 10
-13.726855411
 20
-27.7540245209
 10
-13.8104369906
 20
-27.6345987579
 10
-13.8901748928
 20
-27.5120160656
 10
-13.9660191155
 20
-27.3864082257
  0
LINE
  5
29C
100
AcDbEntity
  8
0
100
AcDbLine
 62
250
  6
CONTINUOUS
 10
-18.7035876319
 20
-14.5627662764
 11
-18.9026260878
 21
-14.6056640456
  0
LWPOLYLINE
  5
29D
100
AcDbEntity
  8
0
100
AcDbPolyline
 62
250
  6
CONTINUOUS
 90
10
 70
0
 10
-18.9026260878
 20
-14.6056640456
 10
-19.08173156
 20
-14.6432024431
 10
-19.1621221778
 20
-14.6596042408
 10
-19.2352083366
 20
-14.6741782447
 10
-19.3003930638
 20
-14.6868032479
 10
-19.3573054888
 20
-14.6974116972
 10
-19.4054875991
 20
-14.705923808
 10
-19.4446270163
 20
-14.712289545
 10
-19.4744890012
 20
-14.7164721329
 10
-19.4948024101
 20
-14.7184281348
  0
LWPOLYLINE
  5
29E
100
AcDbEntity
  8
0
100
AcDbPolyline
 62
250
  6
CONTINUOUS
 90
8
 70
0
 10
17.1984840199
 20
-14.6596042408
 10
17.2715701787
 20
-14.6741782447
 10
17.3367549059
 20
-14.6868032479
 10
17.3936673309
 20
-14.6974116972
 10
17.4418494412
 20
-14.705923808
 10
17.4809888584
 20
-14.712289545
 10
17.5108508433
 20
-14.7164721329
 10
17.5311642522
 20
-14.7184281348
  0
LINE
  5
29F
100
AcDbEntity
  8
0
100
AcDbLine
 62
250
  6
CONTINUOUS
 10
17.0313303494
 20
-14.6251664243
 11
17.1984840199
 21
-14.6596042408
  0
LWPOLYLINE
  5
2A0
100
AcDbEntity
  8
0
100
AcDbPolyline
 62
250
  6
CONTINUOUS
 90
3
 70
0
 10
16.739949474
 20
-14.5627662764
 10
16.8416411006
 20
-14.5848174696
 10
17.0313303494
 20
-14.6251664243
  0
LWPOLYLINE
  5
2A1
100
AcDbEntity
  8
0
100
AcDbPolyline
 62
250
  6
CONTINUOUS
 90
8
 70
0
 10
16.0642311109
 20
-18.8980449581
 10
16.1316832181
 20
-18.9171331649
 10
16.1917829828
 20
-18.9337301312
 10
16.2442349068
 20
-18.9477591046
 10
16.2886702747
 20
-18.9591280029
 10
16.3248407817
 20
-18.9677795125
 10
16.3525622725
 20
-18.9736722686
 10
16.3716202487
 20
-18.9767569029
  0
LINE
  5
2A2
100
AcDbEntity
  8
0
100
AcDbLine
 62
250
  6
CONTINUOUS
 10
15.9097607378
 20
-18.853118104
 11
16.0642311109
 21
-18.8980449581
  0
LWPOLYLINE
  5
2A3
100
AcDbEntity
  8
0
100
AcDbPolyline
 62
250
  6
CONTINUOUS
 90
3
 70
0
 10
15.6400079401
 20
-18.7720816105
 10
15.7342158728
 20
-18.8006787624
 10
15.9097607378
 20
-18.853118104
  0
LWPOLYLINE
  5
2A4
100
AcDbEntity
  8
0
100
AcDbPolyline
 62
7
  6
CONTINUOUS
 90
3
 70
0
 43
0.3499999917
 10
-32.8336358643
 20
-2.5245861053
 10
-32.6193484497
 20
-2.5960141754
 10
-32.3336361694
 20
-2.7388719177
  0
LINE
  5
2A5
100
AcDbEntity
  8
0
100
AcDbLine
 62
7
  6
CONTINUOUS
 10
-10.3339005911
 20
-17.6491310258
 11
-9.9550061384
 21
-17.9280757899
  0
LWPOLYLINE
  5
2A6
100
AcDbEntity
  8
0
100
AcDbPolyline
 62
250
  6
CONTINUOUS
 90
4
 70
0
 10
-14.1555796853
 20
-27.0616725365
 10
-14.109816458
 20
-27.1364812603
 10
-14.0848619605
 20
-27.179548108
 10
-14.0115370746
 20
-27.3079494638
  0
LINE
  5
2A7
100
AcDbEntity
  8
0
100
AcDbLine
 62
250
  6
CONTINUOUS
 10
-14.0115370746
 20
-27.3079494638
 11
-13.9660191155
 21
-27.3864082257
  0
LWPOLYLINE
  5
2A8
100
AcDbEntity
  8
0
100
AcDbPolyline
 62
7
  6
CONTINUOUS
 90
25
 70
0
 10
-14.9697039196
 20
-28.1720073545
 10
-14.8674350239
 20
-28.3515423319
 10
-14.7582110077
 20
-28.5262000888
 10
-14.6420318709
 20
-28.6959806253
 10
-14.5186609376
 20
-28.8611829571
 10
-14.3883348837
 20
-29.0215080684
 10
-14.2517637372
 20
-29.176058912
 10
-14.108945062
 20
-29.3247675614
 10
-13.9598812942
 20
-29.4677019433
 10
-13.8052897691
 20
-29.6041687899
 10
-13.6451185145
 20
-29.7341568089
 10
-13.4794195027
 20
-29.8576772927
 10
-13.3090659857
 20
-29.9740708519
 10
-13.1340319426
 20
-30.083295312
 10
-12.9543433944
 20
-30.1853928475
 10
-12.7709516561
 20
-30.279830593
 10
-12.5838646566
 20
-30.366557607
 10
-12.393074467
 20
-30.445624831
 10
-12.1995086155
 20
-30.5166522243
 10
-12.0031043018
 20
-30.5796096117
 10
-11.8039243264
 20
-30.6345271683
 10
-11.6030846181
 20
-30.6811153795
 10
-11.4009571533
 20
-30.7192777402
 10
-11.1971699557
 20
-30.7491107554
 10
-10.9917230253
 20
-30.770614425
  0
LINE
  5
2A9
100
AcDbEntity
  8
0
100
AcDbLine
 62
250
  6
CONTINUOUS
 10
-19.2762575001
 20
-11.3500758485
 11
-19.5896918135
 21
-11.3988310206
  0
LINE
  5
2AA
100
AcDbEntity
  8
0
100
AcDbLine
 62
250
  6
CONTINUOUS
 10
-19.5896918135
 20
-11.3988310206
 11
-19.7704142872
 21
-11.4260102424
  0
LWPOLYLINE
  5
2AB
100
AcDbEntity
  8
0
100
AcDbPolyline
 62
250
  6
CONTINUOUS
 90
7
 70
0
 10
-19.7704142872
 20
-11.4260102424
 10
-19.9200558404
 20
-11.4476341246
 10
-19.9815858631
 20
-11.4561245861
 10
-20.0335782208
 20
-11.4629785248
 10
-20.0756697551
 20
-11.4681518975
 10
-20.1075882296
 20
-11.4716123111
 10
-20.1290198344
 20
-11.4733217227
  0
LINE
  5
2AC
100
AcDbEntity
  8
0
100
AcDbLine
 62
250
  6
CONTINUOUS
 10
-19.5539341678
 20
-9.0833190275
 11
-19.9025459542
 21
-9.1237254209
  0
LINE
  5
2AD
100
AcDbEntity
  8
0
100
AcDbLine
 62
250
  6
CONTINUOUS
 10
-19.9025459542
 20
-9.1237254209
 11
-20.1886153836
 21
-9.155913239
  0
LWPOLYLINE
  5
2AE
100
AcDbEntity
  8
0
100
AcDbPolyline
 62
250
  6
CONTINUOUS
 90
6
 70
0
 10
-20.1886153836
 20
-9.155913239
 10
-20.3426745544
 20
-9.1724447187
 10
-20.3808952664
 20
-9.1763335807
 10
-20.4120982249
 20
-9.1793667162
 10
-20.4362011995
 20
-9.1815370694
 10
-20.4530657853
 20
-9.1828317714
  0
LWPOLYLINE
  5
2AF
100
AcDbEntity
  8
0
100
AcDbPolyline
 62
250
  6
CONTINUOUS
 90
3
 70
0
 10
-19.7333105598
 20
-6.6986668505
 10
-20.0192543886
 20
-6.7205329233
 10
-20.6864856419
 20
-6.7707474892
  0
LINE
  5
2B0
100
AcDbEntity
  8
0
100
AcDbLine
 62
250
  6
CONTINUOUS
 10
-16.1616978827
 20
-5.9696299649
 11
-16.3072624729
 21
-5.9751166729
  0
LINE
  5
2B1
100
AcDbEntity
  8
0
100
AcDbLine
 62
250
  6
CONTINUOUS
 10
-16.119874007
 20
-5.968184696
 11
-16.1616978827
 21
-5.9696299649
  0
LINE
  5
2B2
100
AcDbEntity
  8
0
100
AcDbLine
 62
250
  6
CONTINUOUS
 10
14.1562358491
 20
-5.968184696
 11
14.3023267644
 21
-5.973487253
  0
LINE
  5
2B3
100
AcDbEntity
  8
0
100
AcDbLine
 62
250
  6
CONTINUOUS
 10
14.3023267644
 20
-5.973487253
 11
14.343624315
 21
-5.9751166729
  0
LINE
  5
2B4
100
AcDbEntity
  8
0
100
AcDbLine
 62
250
  6
CONTINUOUS
 10
17.7696724019
 20
-6.6986668505
 11
18.722847484
 21
-6.7707474892
  0
LWPOLYLINE
  5
2B5
100
AcDbEntity
  8
0
100
AcDbPolyline
 62
250
  6
CONTINUOUS
 90
4
 70
0
 10
18.4172571085
 20
-9.1763335807
 10
18.448460067
 20
-9.1793667162
 10
18.4725630416
 20
-9.1815370694
 10
18.4894276274
 20
-9.1828317714
  0
LINE
  5
2B6
100
AcDbEntity
  8
0
100
AcDbLine
 62
250
  6
CONTINUOUS
 10
18.3339901773
 20
-9.1677181767
 11
18.4172571085
 21
-9.1763335807
  0
LINE
  5
2B7
100
AcDbEntity
  8
0
100
AcDbLine
 62
250
  6
CONTINUOUS
 10
18.1615247279
 20
-9.1488892528
 11
18.3339901773
 21
-9.1677181767
  0
LWPOLYLINE
  5
2B8
100
AcDbEntity
  8
0
100
AcDbPolyline
 62
250
  6
CONTINUOUS
 90
3
 70
0
 10
17.5902960099
 20
-9.0833190275
 10
17.6799883914
 20
-9.0938013958
 10
18.1615247279
 20
-9.1488892528
  0
LWPOLYLINE
  5
2B9
100
AcDbEntity
  8
0
100
AcDbPolyline
 62
250
  6
CONTINUOUS
 90
6
 70
0
 10
17.9564176825
 20
-11.4476341246
 10
18.0179477052
 20
-11.4561245861
 10
18.0699400629
 20
-11.4629785248
 10
18.1120315972
 20
-11.4681518975
 10
18.1439500717
 20
-11.4716123111
 10
18.1653816765
 20
-11.4733217227
  0
LINE
  5
2BA
100
AcDbEntity
  8
0
100
AcDbLine
 62
250
  6
CONTINUOUS
 10
17.8067761293
 20
-11.4260102424
 11
17.9564176825
 21
-11.4476341246
  0
LINE
  5
2BB
100
AcDbEntity
  8
0
100
AcDbLine
 62
250
  6
CONTINUOUS
 10
17.6260536556
 20
-11.3988310206
 11
17.8067761293
 21
-11.4260102424
  0
LINE
  5
2BC
100
AcDbEntity
  8
0
100
AcDbLine
 62
250
  6
CONTINUOUS
 10
17.3126193422
 20
-11.3500758485
 11
17.6260536556
 21
-11.3988310206
  0
LWPOLYLINE
  5
2BD
100
AcDbEntity
  8
0
100
AcDbPolyline
 62
250
  6
CONTINUOUS
 90
3
 70
0
 10
12.043917937
 20
-28.560754959
 10
12.0666885048
 20
-28.5793285066
 10
12.0825035317
 20
-28.5918998116
  0
LINE
  5
2BE
100
AcDbEntity
  8
0
100
AcDbLine
 62
250
  6
CONTINUOUS
 10
11.9780128271
 20
-28.5060148902
 11
12.043917937
 21
-28.560754959
  0
LINE
  5
2BF
100
AcDbEntity
  8
0
100
AcDbLine
 62
250
  6
CONTINUOUS
 10
11.8318441522
 20
-28.382914196
 11
11.9780128271
 21
-28.5060148902
  0
LINE
  5
2C0
100
AcDbEntity
  8
0
100
AcDbLine
 62
250
  6
CONTINUOUS
 10
11.4897271439
 20
-28.091807866
 11
11.8318441522
 21
-28.382914196
  0
LWPOLYLINE
  5
2C1
100
AcDbEntity
  8
0
100
AcDbPolyline
 62
250
  6
CONTINUOUS
 90
40
 70
0
 10
-13.1772458926
 20
-12.7489921605
 10
-12.9414522478
 20
-12.9977344836
 10
-12.7004834569
 20
-13.2402705232
 10
-12.4545380454
 20
-13.4765099761
 10
-12.2067337206
 20
-13.7036373023
 10
-11.9544799296
 20
-13.9244695083
 10
-11.6889295448
 20
-14.1466525707
 10
-11.4040998241
 20
-14.3735745349
 10
-11.105319048
 20
-14.5997883113
 10
-10.8005862127
 20
-14.8196075361
 10
-10.4940213319
 20
-15.0301293577
 10
-10.1818947675
 20
-15.2340042303
 10
-9.8605348185
 20
-15.4342370009
 10
-9.5277650704
 20
-15.631421108
 10
-9.1855906846
 20
-15.8235863578
 10
-8.8364240723
 20
-16.0097403888
 10
-8.4783130401
 20
-16.1905764168
 10
-8.1131252047
 20
-16.3643663535
 10
-7.7492334645
 20
-16.5275065509
 10
-7.3898374603
 20
-16.6792582075
 10
-7.0321283566
 20
-16.8212044324
 10
-6.6756116056
 20
-16.9539591237
 10
-6.3198072598
 20
-17.0780459162
 10
-5.9653643511
 20
-17.1933780033
 10
-5.6134558596
 20
-17.2997133397
 10
-5.2621730828
 20
-17.3978604176
 10
-4.913665981
 20
-17.4877405437
 10
-4.5753099633
 20
-17.5685386245
 10
-4.2532554419
 20
-17.6404541281
 10
-3.941664313
 20
-17.705651151
 10
-3.6298672478
 20
-17.7660086358
 10
-3.3104451143
 20
-17.8229473092
 10
-2.9907059577
 20
-17.8746706503
 10
-2.6822584903
 20
-17.9182546605
 10
-2.3938367301
 20
-17.9535549885
 10
-2.1172893897
 20
-17.9827252777
 10
-1.8390870848
 20
-18.0061849555
 10
-1.5547701193
 20
-18.0235051085
 10
-1.2689816124
 20
-18.0344867871
 10
-0.981819079
 20
-18.0389159283
  0
LWPOLYLINE
  5
2C2
100
AcDbEntity
  8
0
100
AcDbPolyline
 62
250
  6
CONTINUOUS
 90
4
 70
0
 10
-14.2735134308
 20
-26.8599437685
 10
-14.2296052064
 20
-26.9369179459
 10
-14.1901410045
 20
-27.0040665426
 10
-14.1555796853
 20
-27.0616725365
  0
LWPOLYLINE
  5
2C3
100
AcDbEntity
  8
0
100
AcDbPolyline
 62
250
  6
CONTINUOUS
 90
7
 70
0
 10
-14.3014966505
 20
-26.8134562418
 10
-14.2970376468
 20
-26.8212878043
 10
-14.2925387839
 20
-26.8291079051
 10
-14.287998218
 20
-26.8369166649
 10
-14.2834141272
 20
-26.8447142032
 10
-14.2787847114
 20
-26.8525006382
 10
-14.2741081915
 20
-26.8602760866
  0
LWPOLYLINE
  5
2C4
100
AcDbEntity
  8
0
100
AcDbPolyline
 62
250
  6
CONTINUOUS
 90
10
 70
0
 10
-14.6606281189
 20
-27.694103196
 10
-14.6022324337
 20
-27.8006291958
 10
-14.5412811396
 20
-27.905580267
 10
-14.4778049324
 20
-28.0089126947
 10
-14.4118196679
 20
-28.110604726
 10
-14.3433704431
 20
-28.2105893616
 10
-14.2725367587
 20
-28.3087581685
 10
-14.199371191
 20
-28.4050492715
 10
-14.123894226
 20
-28.4994435375
 10
-14.0461419555
 20
-28.5919000385
  0
LINE
  5
2C5
100
AcDbEntity
  8
0
100
AcDbLine
 62
250
  6
CONTINUOUS
 10
-14.7800024552
 20
-27.4688309143
 11
-14.6605197944
 21
-27.6943097936
  0
LWPOLYLINE
  5
2C6
100
AcDbEntity
  8
0
100
AcDbPolyline
 62
250
  6
CONTINUOUS
 90
3
 70
0
 10
-14.9278096488
 20
-27.1861723307
 10
-14.8983858596
 20
-27.2427756328
 10
-14.7800024552
 20
-27.4688309143
  0
LWPOLYLINE
  5
2C7
100
AcDbEntity
  8
0
100
AcDbPolyline
 62
250
  6
CONTINUOUS
 90
4
 70
0
 10
-16.3411739392
 20
-4.2556749812
 10
-16.7679799889
 20
-4.3226020352
 10
-17.1768953541
 20
-4.3853435214
 10
-17.5734499423
 20
-4.4452108988
  0
LINE
  5
2C8
100
AcDbEntity
  8
0
100
AcDbLine
 62
250
  6
CONTINUOUS
 10
-19.4596423812
 20
-4.7255144753
 11
-19.8227974549
 21
-4.7802753169
  0
LWPOLYLINE
  5
2C9
100
AcDbEntity
  8
0
100
AcDbPolyline
 62
250
  6
CONTINUOUS
 90
3
 70
0
 10
-17.5734499423
 20
-4.4452108988
 10
-18.3537231489
 20
-4.5613005153
 10
-19.4596423812
 20
-4.7255144753
  0
LWPOLYLINE
  5
2CA
100
AcDbEntity
  8
0
100
AcDbPolyline
 62
7
  6
CONTINUOUS
 90
10
 70
0
 10
-16.3222174746
 20
-4.9572656344
 10
-16.3171924277
 20
-4.9567491737
 10
-16.3120587872
 20
-4.9569948547
 10
-16.3069551388
 20
-4.9580760816
 10
-16.3019877642
 20
-4.9599774981
 10
-16.2972242136
 20
-4.9626335744
 10
-16.2926680359
 20
-4.9658999978
 10
-16.2883190051
 20
-4.9696509262
 10
-16.2841762084
 20
-4.9738495111
 10
-16.2801979612
 20
-4.9784336236
  0
LWPOLYLINE
  5
2CB
100
AcDbEntity
  8
0
100
AcDbPolyline
 62
250
  6
CONTINUOUS
 90
3
 70
0
 10
-20.7506371672
 20
-4.8417026007
 10
-20.7764600182
 20
-4.8432619485
 10
-20.7942996474
 20
-4.8445279613
  0
LWPOLYLINE
  5
2CC
100
AcDbEntity
  8
0
100
AcDbPolyline
 62
250
  6
CONTINUOUS
 90
4
 70
0
 10
-20.7347340454
 20
-4.2901646975
 10
-20.7684967422
 20
-4.2919592694
 10
-20.7944053035
 20
-4.2935541991
 10
-20.8122905038
 20
-4.294939857
  0
LINE
  5
2CD
100
AcDbEntity
  8
0
100
AcDbLine
 62
250
  6
CONTINUOUS
 10
-20.6756604542
 20
-4.8377396451
 11
-20.7506371672
 21
-4.8417026007
  0
LINE
  5
2CE
100
AcDbEntity
  8
0
100
AcDbLine
 62
250
  6
CONTINUOUS
 10
-20.5086873337
 20
-4.8298901583
 11
-20.6756604542
 21
-4.8377396451
  0
LINE
  5
2CF
100
AcDbEntity
  8
0
100
AcDbLine
 62
250
  6
CONTINUOUS
 10
-20.6441945396
 20
-4.286009754
 11
-20.7347340454
 21
-4.2901646975
  0
LWPOLYLINE
  5
2D0
100
AcDbEntity
  8
0
100
AcDbPolyline
 62
250
  6
CONTINUOUS
 90
3
 70
0
 10
-19.8221003492
 20
-4.8013621004
 10
-19.9203465858
 20
-4.8052493751
 10
-20.5086873337
 20
-4.8298901583
  0
LINE
  5
2D1
100
AcDbEntity
  8
0
100
AcDbLine
 62
250
  6
CONTINUOUS
 10
-20.4563612803
 20
-4.2786245928
 11
-20.6441945396
 21
-4.286009754
  0
LINE
  5
2D2
100
AcDbEntity
  8
0
100
AcDbLine
 62
250
  6
CONTINUOUS
 10
-20.0303870841
 20
-4.2642391462
 11
-20.4563612803
 21
-4.2786245928
  0
LINE
  5
2D3
100
AcDbEntity
  8
0
100
AcDbLine
 62
250
  6
CONTINUOUS
 10
-19.8354511357
 20
-4.2582563855
 11
-20.0303870841
 21
-4.2642391462
  0
LWPOLYLINE
  5
2D4
100
AcDbEntity
  8
0
100
AcDbPolyline
 62
250
  6
CONTINUOUS
 90
4
 70
0
 10
-20.7538456642
 20
-2.911094516
 10
-20.788076207
 20
-2.9120046579
 10
-20.8143484312
 20
-2.9129278448
 10
-20.8324937296
 20
-2.9138611285
  0
LINE
  5
2D5
100
AcDbEntity
  8
0
100
AcDbLine
 62
250
  6
CONTINUOUS
 10
-20.6624407776
 20
-2.9093194438
 11
-20.7538456642
 21
-2.911094516
  0
LINE
  5
2D6
100
AcDbEntity
  8
0
100
AcDbLine
 62
250
  6
CONTINUOUS
 10
-20.4726578767
 20
-2.9068758942
 11
-20.6624407776
 21
-2.9093194438
  0
LINE
  5
2D7
100
AcDbEntity
  8
0
100
AcDbLine
 62
250
  6
CONTINUOUS
 10
-20.0446528998
 20
-2.9037204791
 11
-20.4726578767
 21
-2.9068758942
  0
LINE
  5
2D8
100
AcDbEntity
  8
0
100
AcDbLine
 62
250
  6
CONTINUOUS
 10
-19.8468824026
 20
-2.9028711885
 11
-20.0446528998
 21
-2.9037204791
  0
LINE
  5
2D9
100
AcDbEntity
  8
0
100
AcDbLine
 62
250
  6
CONTINUOUS
 10
-21.3813922055
 20
-2.902871191
 11
-20.8325014656
 21
-2.902871191
  0
LINE
  5
2DA
100
AcDbEntity
  8
0
100
AcDbLine
 62
7
  6
CONTINUOUS
 10
-20.8325014594
 20
-2.902871191
 11
-19.8468824026
 21
-2.9028711885
  0
LINE
  5
2DB
100
AcDbEntity
  8
0
100
AcDbLine
 62
250
  6
CONTINUOUS
 10
-19.8468824026
 20
-2.9028711885
 11
-16.3716943107
 21
-2.902871191
  0
LINE
  5
2DC
100
AcDbEntity
  8
0
100
AcDbLine
 62
250
  6
CONTINUOUS
 10
19.4177540476
 20
-2.902871191
 11
18.8688633077
 21
-2.902871191
  0
LINE
  5
2DD
100
AcDbEntity
  8
0
100
AcDbLine
 62
7
  6
CONTINUOUS
 10
18.8688633015
 20
-2.902871191
 11
17.8832442447
 21
-2.9028711885
  0
LINE
  5
2DE
100
AcDbEntity
  8
0
100
AcDbLine
 62
250
  6
CONTINUOUS
 10
17.8832442447
 20
-2.9028711885
 11
14.4080561529
 21
-2.902871191
  0
LINE
  5
2DF
100
AcDbEntity
  8
0
100
AcDbLine
 62
250
  6
CONTINUOUS
 10
17.9834263785
 20
-2.9032644022
 11
18.3520789428
 21
-2.9054542242
  0
LINE
  5
2E0
100
AcDbEntity
  8
0
100
AcDbLine
 62
250
  6
CONTINUOUS
 10
18.3520789428
 20
-2.9054542242
 11
18.5788105448
 21
-2.9076559456
  0
LINE
  5
2E1
100
AcDbEntity
  8
0
100
AcDbLine
 62
250
  6
CONTINUOUS
 10
18.5788105448
 20
-2.9076559456
 11
18.6988026197
 21
-2.9093194438
  0
LWPOLYLINE
  5
2E2
100
AcDbEntity
  8
0
100
AcDbPolyline
 62
250
  6
CONTINUOUS
 90
5
 70
0
 10
18.6988026197
 20
-2.9093194438
 10
18.7902075063
 20
-2.911094516
 10
18.8244380491
 20
-2.9120046579
 10
18.8507102733
 20
-2.9129278448
 10
18.8688555717
 20
-2.9138611285
  0
LINE
  5
2E3
100
AcDbEntity
  8
0
100
AcDbLine
 62
250
  6
CONTINUOUS
 10
17.8718129778
 20
-4.2582563855
 11
18.2503663871
 21
-4.2701778156
  0
LINE
  5
2E4
100
AcDbEntity
  8
0
100
AcDbLine
 62
250
  6
CONTINUOUS
 10
18.2503663871
 20
-4.2701778156
 11
18.561814875
 21
-4.2812200882
  0
LINE
  5
2E5
100
AcDbEntity
  8
0
100
AcDbLine
 62
250
  6
CONTINUOUS
 10
18.561814875
 20
-4.2812200882
 11
18.6805563817
 21
-4.286009754
  0
LINE
  5
2E6
100
AcDbEntity
  8
0
100
AcDbLine
 62
250
  6
CONTINUOUS
 10
17.8584621913
 20
-4.8013621004
 11
18.3209739047
 21
-4.8201579599
  0
LINE
  5
2E7
100
AcDbEntity
  8
0
100
AcDbLine
 62
250
  6
CONTINUOUS
 10
18.3209739047
 20
-4.8201579599
 11
18.6074082919
 21
-4.8327325301
  0
LWPOLYLINE
  5
2E8
100
AcDbEntity
  8
RACCORDO
100
AcDbPolyline
 62
250
  6
CONTINUOUS
 90
22
 70
0
 10
-0.9818198392
 20
-1.4888649608
 10
-1.2535543943
 20
-1.476383341
 10
-1.5165872644
 20
-1.4465014236
 10
-1.7709180623
 20
-1.3992192088
 10
-2.0167208613
 20
-1.3337263266
 10
-2.2538210571
 20
-1.2508331468
 10
-2.4816953728
 20
-1.1529707788
 10
-2.7003067768
 20
-1.0407640615
 10
-2.9096922045
 20
-0.9135881563
 10
-3.1094394423
 20
-0.7719996563
 10
-3.2999657447
 20
-0.6164641697
 10
-3.4808540754
 20
-0.4465160889
 10
-3.6504409115
 20
-0.2613151837
 10
-3.8096511734
 20
-0.0604559281
 10
-3.9575604405
 20
0.1556561516
 10
-4.0897314064
 20
0.3866447067
 10
-4.2066411803
 20
0.635091746
 10
-4.3078134579
 20
0.8984152605
 10
-4.3873810674
 20
1.1684928751
 10
-4.4433885925
 20
1.4426171314
 10
-4.477792199
 20
1.7234954878
 10
-4.4905920793
 20
2.0111279443
  0
LWPOLYLINE
  5
2E9
100
AcDbEntity
  8
0
100
AcDbPolyline
 62
250
  6
CONTINUOUS
 90
5
 70
0
 10
18.6805563817
 20
-4.286009754
 10
18.7710958875
 20
-4.2901646975
 10
18.8048585844
 20
-4.2919592694
 10
18.8307671456
 20
-4.2935541991
 10
18.8486523459
 20
-4.294939857
  0
LWPOLYLINE
  5
2EA
100
AcDbEntity
  8
0
100
AcDbPolyline
 62
250
  6
CONTINUOUS
 90
5
 70
0
 10
18.6074082919
 20
-4.8327325301
 10
18.7533638882
 20
-4.8398596684
 10
18.7869990093
 20
-4.8417026007
 10
18.8128218603
 20
-4.8432619485
 10
18.8306614895
 20
-4.8445279613
  0
LWPOLYLINE
  5
2EB
100
AcDbEntity
  8
0
100
AcDbPolyline
 62
7
  6
CONTINUOUS
 90
10
 70
0
 10
14.3585793168
 20
-4.9572656344
 10
14.3535542698
 20
-4.9567491737
 10
14.3484206293
 20
-4.9569948547
 10
14.3433169809
 20
-4.9580760816
 10
14.3383496063
 20
-4.9599774981
 10
14.3335860557
 20
-4.9626335744
 10
14.329029878
 20
-4.9658999978
 10
14.3246808472
 20
-4.9696509262
 10
14.3205380505
 20
-4.9738495111
 10
14.3165598033
 20
-4.9784336236
  0
LWPOLYLINE
  5
2EC
100
AcDbEntity
  8
0
100
AcDbPolyline
 62
250
  6
CONTINUOUS
 90
3
 70
0
 10
17.1344014793
 20
-4.6715539315
 10
17.4960042233
 20
-4.7255144753
 10
17.859159297
 20
-4.7802753169
  0
LWPOLYLINE
  5
2ED
100
AcDbEntity
  8
0
100
AcDbPolyline
 62
250
  6
CONTINUOUS
 90
5
 70
0
 10
14.3775357813
 20
-4.2556749812
 10
14.804341831
 20
-4.3226020352
 10
15.2132571962
 20
-4.3853435214
 10
15.6098117845
 20
-4.4452108988
 10
17.1344014793
 20
-4.6715539315
  0
LINE
  5
2EE
100
AcDbEntity
  8
0
100
AcDbLine
 62
250
  6
CONTINUOUS
 10
13.7753066062
 20
-6.6907517765
 11
14.0154413569
 21
-6.7656443927
  0
LWPOLYLINE
  5
2EF
100
AcDbEntity
  8
0
100
AcDbPolyline
 62
250
  6
CONTINUOUS
 90
10
 70
0
 10
-16.2801979612
 20
-4.9784336236
 10
-16.2691746117
 20
-4.9934197209
 10
-16.2590001108
 20
-5.0096779377
 10
-16.2495383214
 20
-5.0271228644
 10
-16.2405354749
 20
-5.045473445
 10
-16.2317727543
 20
-5.0645084635
 10
-16.2231819989
 20
-5.0842479245
 10
-16.2147062704
 20
-5.1047238806
 10
-16.206351322
 20
-5.1259351251
 10
-16.198166363
 20
-5.1478606901
  0
LWPOLYLINE
  5
2F0
100
AcDbEntity
  8
0
100
AcDbPolyline
 62
250
  6
CONTINUOUS
 90
10
 70
0
 10
-14.7247786506
 20
-10.6682878672
 10
-14.5748836996
 20
-10.9151961032
 10
-14.4193002472
 20
-11.1584304567
 10
-14.2581256266
 20
-11.3978187178
 10
-14.0915538821
 20
-11.6330872016
 10
-13.9196088715
 20
-11.8642368668
 10
-13.7421296238
 20
-12.0914994191
 10
-13.5591246424
 20
-12.3148589204
 10
-13.370794857
 20
-12.5340696654
 10
-13.1772458926
 20
-12.7489921605
  0
LWPOLYLINE
  5
2F1
100
AcDbEntity
  8
0
100
AcDbPolyline
 62
250
  6
CONTINUOUS
 90
10
 70
0
 10
-14.1912887502
 20
-10.3709922422
 10
-14.0558978066
 20
-10.6071967875
 10
-13.9147634541
 20
-10.8400956881
 10
-13.7678910979
 20
-11.0696891678
 10
-13.6151586719
 20
-11.2961778993
 10
-13.4567004288
 20
-11.5193616994
 10
-13.292906688
 20
-11.7386396535
 10
-13.1239117275
 20
-11.953811795
 10
-12.949593602
 20
-12.165078979
 10
-12.769957619
 20
-12.3724416648
  0
LWPOLYLINE
  5
2F2
100
AcDbEntity
  8
0
100
AcDbPolyline
 62
250
  6
CONTINUOUS
 90
10
 70
0
 10
-18.3352584238
 20
-18.9767569004
 10
-18.0259700753
 20
-19.9189075181
 10
-17.6993836573
 20
-20.8530956263
 10
-17.355729415
 20
-21.7790142599
 10
-16.995873687
 20
-22.6947538593
 10
-16.6194850753
 20
-23.6016538197
 10
-16.224733279
 20
-24.5041820772
 10
-15.8108781313
 20
-25.403512297
 10
-15.3785707621
 20
-26.2976444649
 10
-14.9278096488
 20
-27.1861723307
  0
LINE
  5
2F3
100
AcDbEntity
  8
0
100
AcDbLine
 62
7
  6
CONTINUOUS
 10
0.8680158014
 20
1.7829552812
 11
0.612644178
 21
1.7264634897
  0
LINE
  5
2F4
100
AcDbEntity
  8
0
100
AcDbLine
 62
7
  6
CONTINUOUS
 10
-2.8316539592
 20
2.2393023385
 11
-2.5762823342
 21
2.2957941304
  0
LINE
  5
2F5
100
AcDbEntity
  8
0
100
AcDbLine
 62
7
  6
CONTINUOUS
 10
0.612644178
 20
1.7264634897
 11
0.3519402095
 21
1.6699972232
  0
LINE
  5
2F6
100
AcDbEntity
  8
0
100
AcDbLine
 62
7
  6
CONTINUOUS
 10
-2.5762823342
 20
2.2957941304
 11
-2.3155783727
 21
2.3522603955
  0
LINE
  5
2F7
100
AcDbEntity
  8
0
100
AcDbLine
 62
7
  6
CONTINUOUS
 10
0.3519402095
 20
1.6699972232
 11
0.2238991584
 21
1.6427018386
  0
LINE
  5
2F8
100
AcDbEntity
  8
0
100
AcDbLine
 62
7
  6
CONTINUOUS
 10
-2.3155783727
 20
2.3522603955
 11
-2.1875373141
 21
2.3795557817
  0
LINE
  5
2F9
100
AcDbEntity
  8
0
100
AcDbLine
 62
7
  6
CONTINUOUS
 10
0.1631888452
 20
1.7829360645
 11
0.8680158014
 21
1.7829552812
  0
LINE
  5
2FA
100
AcDbEntity
  8
0
100
AcDbLine
 62
7
  6
CONTINUOUS
 10
-2.8316539592
 20
2.2393023385
 11
-2.1268270021
 21
2.2393215494
  0
LINE
  5
2FB
100
AcDbEntity
  8
0
100
AcDbLine
 62
7
  6
CONTINUOUS
 10
-2.1268586621
 20
1.7827755383
 11
-2.8316772657
 21
1.7831443086
  0
LINE
  5
2FC
100
AcDbEntity
  8
0
100
AcDbLine
 62
7
  6
CONTINUOUS
 10
0.1632205042
 20
2.2394820805
 11
0.8680391078
 21
2.2391133102
  0
LINE
  5
2FD
100
AcDbEntity
  8
0
100
AcDbLine
 62
7
  6
CONTINUOUS
 10
0.2236938035
 20
2.3796979818
 11
0.5116496654
 21
2.3176820942
  0
LINE
  5
2FE
100
AcDbEntity
  8
0
100
AcDbLine
 62
7
  6
CONTINUOUS
 10
-2.5293619014
 20
1.7163648672
 11
-2.1873319614
 21
1.642559637
  0
LINE
  5
2FF
100
AcDbEntity
  8
0
100
AcDbLine
 62
7
  6
CONTINUOUS
 10
0.5116496654
 20
2.3176820942
 11
0.7991083593
 21
2.2544728542
  0
LINE
  5
300
100
AcDbEntity
  8
0
100
AcDbLine
 62
7
  6
CONTINUOUS
 10
-2.8316772657
 20
1.7831443086
 11
-2.5293619014
 21
1.7163648672
  0
LINE
  5
301
100
AcDbEntity
  8
0
100
AcDbLine
 62
7
  6
CONTINUOUS
 10
0.7991083593
 20
2.2544728542
 11
0.8680391078
 21
2.2391133102
  0
LWPOLYLINE
  5
302
100
AcDbEntity
  8
0
100
AcDbPolyline
 62
250
  6
CONTINUOUS
 90
5
 70
0
 10
15.9411433025
 20
-6.5540573911
 10
15.556691759
 20
-6.4211569807
 10
15.1668148793
 20
-6.2846505071
 10
14.7641503624
 20
-6.1410293639
 10
14.3433590967
 20
-5.9871242015
  0
LWPOLYLINE
  5
303
100
AcDbEntity
  8
0
100
AcDbPolyline
 62
250
  6
CONTINUOUS
 90
4
 70
0
 10
17.7536162584
 20
-7.1791475356
 10
17.4022903789
 20
-7.0561642055
 10
17.0485570465
 20
-6.9338278642
 10
15.9411433025
 20
-6.5540573911
  0
LINE
  5
304
100
AcDbEntity
  8
0
100
AcDbLine
 62
250
  6
CONTINUOUS
 10
14.2888905151
 20
-5.1687262949
 11
14.2345282051
 21
-5.1478606901
  0
LWPOLYLINE
  5
305
100
AcDbEntity
  8
0
100
AcDbPolyline
 62
7
  6
CONTINUOUS
 90
7
 70
0
 10
-0.7123470364
 20
0.8487332302
 10
-0.7191514081
 20
0.8517584608
 10
-0.7259889521
 20
0.854733486
 10
-0.7328596684
 20
0.8576583057
 10
-0.7397635569
 20
0.8605329201
 10
-0.7467006177
 20
0.863357329
 10
-0.7536708509
 20
0.8661315325
  0
LINE
  5
306
100
AcDbEntity
  8
0
100
AcDbLine
 62
7
  6
CONTINUOUS
 10
-0.6989597233
 20
0.8685343522
 11
-0.7429966965
 21
0.8890225157
  0
LINE
  5
307
100
AcDbEntity
  8
TRASH
100
AcDbLine
 62
7
  6
CONTINUOUS
 10
-1.5015425628
 20
1.4914053255
 11
-2.1268163558
 21
1.7829805813
  0
LINE
  5
308
100
AcDbEntity
  8
0
100
AcDbLine
 62
7
  6
CONTINUOUS
 10
-1.5818190789
 20
1.4525140031
 11
-1.5540726767
 21
1.4388752076
  0
LINE
  5
309
100
AcDbEntity
  8
0
100
AcDbLine
 62
7
  6
CONTINUOUS
 10
-1.6383152952
 20
1.3546325878
 11
-1.6992696261
 21
1.3852030599
  0
LINE
  5
30A
100
AcDbEntity
  8
0
100
AcDbLine
 62
7
  6
CONTINUOUS
 10
-1.6992696261
 20
1.3852030599
 11
-1.7800092383
 21
1.426215803
  0
LINE
  5
30B
100
AcDbEntity
  8
0
100
AcDbLine
 62
7
  6
CONTINUOUS
 10
-1.7800092383
 20
1.426215803
 11
-1.8804353343
 21
1.477930107
  0
LINE
  5
30C
100
AcDbEntity
  8
0
100
AcDbLine
 62
7
  6
CONTINUOUS
 10
-1.8804353343
 20
1.477930107
 11
-2.0350286158
 21
1.5588429957
  0
LWPOLYLINE
  5
30D
100
AcDbEntity
  8
0
100
AcDbPolyline
 62
7
  6
CONTINUOUS
 90
3
 70
0
 10
-2.0350286158
 20
1.5588429957
 10
-2.1408638031
 20
1.6148741321
 10
-2.1699809758
 20
1.630549764
  0
LINE
  5
30E
100
AcDbEntity
  8
0
100
AcDbLine
 62
250
  6
CONTINUOUS
 10
12.2276505923
 20
-10.3709922422
 11
12.760870562
 21
-10.6691297474
  0
LWPOLYLINE
  5
30F
100
AcDbEntity
  8
0
100
AcDbPolyline
 62
250
  6
CONTINUOUS
 90
3
 70
0
 10
9.028515474
 20
-30.7706498681
 10
9.0261573087
 20
-30.7672082136
 10
9.0195565667
 20
-30.7569241195
  0
LWPOLYLINE
  5
310
100
AcDbEntity
  8
0
100
AcDbPolyline
 62
250
  6
CONTINUOUS
 90
10
 70
0
 10
-16.2974518997
 20
-4.9931870214
 10
-16.2905458948
 20
-5.0104144632
 10
-16.2847252075
 20
-5.029198075
 10
-16.2795429595
 20
-5.0485682607
 10
-16.2746771111
 20
-5.0679072728
 10
-16.2699519746
 20
-5.087476602
 10
-16.2653769993
 20
-5.107352076
 10
-16.2609572316
 20
-5.1275349094
 10
-16.2566712615
 20
-5.1479924294
 10
-16.252528673
 20
-5.1687262949
  0
LWPOLYLINE
  5
311
100
AcDbEntity
  8
0
100
AcDbPolyline
 62
250
  6
CONTINUOUS
 90
22
 70
0
 10
-17.603646098
 20
-18.7720816105
 10
-17.4347336051
 20
-19.3082336112
 10
-17.266341872
 20
-19.8221834467
 10
-17.0991650649
 20
-20.3139222664
 10
-16.9321624405
 20
-20.7878411386
 10
-16.7675854968
 20
-21.239545392
 10
-16.6114151392
 20
-21.6559649264
 10
-16.4691480106
 20
-22.0256844853
 10
-16.3372467175
 20
-22.360396398
 10
-16.2079441127
 20
-22.6817067746
 10
-16.0819313696
 20
-22.9887730351
 10
-15.9590640485
 20
-23.2825022456
 10
-15.8293580078
 20
-23.586934726
 10
-15.6891077106
 20
-23.9100566233
 10
-15.5414459149
 20
-24.2436843961
 10
-15.3861615492
 20
-24.5874918528
 10
-15.2222753673
 20
-24.9429215744
 10
-15.050206853
 20
-25.308361832
 10
-14.8719523549
 20
-25.6789309646
 10
-14.6881421582
 20
-26.0529478416
 10
-14.4978941751
 20
-26.4319153941
 10
-14.3010302333
 20
-26.8156925237
  0
LWPOLYLINE
  5
312
100
AcDbEntity
  8
0
100
AcDbPolyline
 62
250
  6
CONTINUOUS
 90
5
 70
0
 10
-17.8593364564
 20
-17.915906446
 10
-17.7994669207
 20
-18.1231826139
 10
-17.736708588
 20
-18.3353059889
 10
-17.671455335
 20
-18.5516124955
 10
-17.603646098
 20
-18.7720816105
  0
LINE
  5
313
100
AcDbEntity
  8
0
100
AcDbLine
 62
250
  6
CONTINUOUS
 10
-18.0840808827
 20
-17.1208370744
 11
-17.8593364564
 21
-17.915906446
  0
LWPOLYLINE
  5
314
100
AcDbEntity
  8
0
100
AcDbPolyline
 62
250
  6
CONTINUOUS
 90
3
 70
0
 10
-18.1911214788
 20
-16.7204252989
 10
-18.1386489069
 20
-16.9213834938
 10
-18.0840808827
 20
-17.1208370744
  0
LWPOLYLINE
  5
315
100
AcDbEntity
  8
0
100
AcDbPolyline
 62
250
  6
CONTINUOUS
 90
10
 70
0
 10
-19.4948024365
 20
-14.7184281363
 10
-19.3836321659
 20
-15.1961541305
 10
-19.2680213329
 20
-15.6728282244
 10
-19.1479798363
 20
-16.148409344
 10
-19.023518891
 20
-16.6228526991
 10
-18.8946482797
 20
-17.0961212268
 10
-18.7613759952
 20
-17.5681855068
 10
-18.623712071
 20
-18.0390085455
 10
-18.4816689375
 20
-18.5085458679
 10
-18.3352584238
 20
-18.9767569004
  0
LWPOLYLINE
  5
316
100
AcDbEntity
  8
0
100
AcDbPolyline
 62
250
  6
CONTINUOUS
 90
8
 70
0
 10
-18.7035876319
 20
-14.5627662764
 10
-18.637560914
 20
-14.8651713295
 10
-18.5709103078
 20
-15.1615520814
 10
-18.5037497259
 20
-15.4518980616
 10
-18.4347612759
 20
-15.7416036909
 10
-18.3654176958
 20
-16.0252487657
 10
-18.3003086226
 20
-16.2866382734
 10
-18.1911214788
 20
-16.7204252989
  0
LWPOLYLINE
  5
317
100
AcDbEntity
  8
0
100
AcDbPolyline
 62
250
  6
CONTINUOUS
 90
3
 70
0
 10
-19.4621766362
 20
-9.9218872333
 10
-19.4550046004
 20
-9.9883368455
 10
-19.4420267191
 20
-10.1001920543
  0
LINE
  5
318
100
AcDbEntity
  8
0
100
AcDbLine
 62
250
  6
CONTINUOUS
 10
-19.6691067908
 20
-7.7301411185
 11
-19.6293783693
 21
-8.1397853708
  0
LWPOLYLINE
  5
319
100
AcDbEntity
  8
0
100
AcDbPolyline
 62
250
  6
CONTINUOUS
 90
10
 70
0
 10
-20.6864803498
 20
-6.7707465054
 10
-20.6659017652
 20
-7.0392444804
 10
-20.6439826819
 20
-7.307635468
 10
-20.6207236417
 20
-7.5759129749
 10
-20.5961252106
 20
-7.8440705111
 10
-20.5701879856
 20
-8.1121015868
 10
-20.542912594
 20
-8.3799997127
 10
-20.5142996859
 20
-8.6477584038
 10
-20.4843499332
 20
-8.9153711797
 10
-20.4530640368
 20
-9.1828315615
  0
LWPOLYLINE
  5
31A
100
AcDbEntity
  8
RACCORDO
100
AcDbPolyline
 62
250
  6
CONTINUOUS
 90
22
 70
0
 10
-0.9818196514
 20
5.5111267928
 10
-0.7102662678
 20
5.4986927609
 10
-0.4473266874
 20
5.4688322846
 10
-0.1930012971
 20
5.421545364
 10
0.0529012259
 20
5.3560327344
 10
0.2901890256
 20
5.2730936605
 10
0.5182870736
 20
5.1751259356
 10
0.7371623088
 20
5.0627389834
 10
0.9468476928
 20
4.9353233802
 10
1.1468673458
 20
4.793448648
 10
1.3376415964
 20
4.6375504758
 10
1.5187503337
 20
4.4671931747
 10
1.6884571494
 20
4.2816392003
 10
1.8476530587
 20
4.0804750649
 10
1.9954475521
 20
3.8641142561
 10
2.1274321619
 20
3.6330596931
 10
2.2440482491
 20
3.3848138805
 10
2.3448552605
 20
3.1218743133
 10
2.4241221077
 20
2.8522363959
 10
2.4799387332
 20
2.5785652627
 10
2.5142159404
 20
2.2981957789
 10
2.5269539214
 20
2.0111279443
  0
LWPOLYLINE
  5
31B
100
AcDbEntity
  8
0
100
AcDbPolyline
 62
7
  6
CONTINUOUS
 90
7
 70
0
 10
-1.2512911215
 20
3.1735243886
 10
-1.2444867498
 20
3.170499158
 10
-1.2376492058
 20
3.1675241328
 10
-1.2307784895
 20
3.164599313
 10
-1.223874601
 20
3.1617246987
 10
-1.2169375401
 20
3.1589002898
 10
-1.209967307
 20
3.1561260863
  0
LINE
  5
31C
100
AcDbEntity
  8
0
100
AcDbLine
 62
7
  6
CONTINUOUS
 10
-1.2646784346
 20
3.1537232666
 11
-1.2206414614
 21
3.1332351031
  0
LINE
  5
31D
100
AcDbEntity
  8
TRASH
100
AcDbLine
 62
7
  6
CONTINUOUS
 10
-0.4620955951
 20
2.5308522932
 11
0.1631781979
 21
2.2392770375
  0
LINE
  5
31E
100
AcDbEntity
  8
0
100
AcDbLine
 62
7
  6
CONTINUOUS
 10
-0.3818190789
 20
2.5697436157
 11
-0.4095654812
 21
2.5833824111
  0
LINE
  5
31F
100
AcDbEntity
  8
0
100
AcDbLine
 62
7
  6
CONTINUOUS
 10
-0.3253228627
 20
2.667625031
 11
-0.2643685318
 21
2.6370545588
  0
LINE
  5
320
100
AcDbEntity
  8
0
100
AcDbLine
 62
7
  6
CONTINUOUS
 10
-0.2643685318
 20
2.6370545588
 11
-0.1836289196
 21
2.5960418158
  0
LINE
  5
321
100
AcDbEntity
  8
0
100
AcDbLine
 62
7
  6
CONTINUOUS
 10
-0.1836289196
 20
2.5960418158
 11
-0.0832028236
 21
2.5443275117
  0
LINE
  5
322
100
AcDbEntity
  8
0
100
AcDbLine
 62
7
  6
CONTINUOUS
 10
-0.0832028236
 20
2.5443275117
 11
0.0713904579
 21
2.4634146231
  0
LWPOLYLINE
  5
323
100
AcDbEntity
  8
0
100
AcDbPolyline
 62
7
  6
CONTINUOUS
 90
3
 70
0
 10
0.0713904579
 20
2.4634146231
 10
0.1772256452
 20
2.4073834867
 10
0.2063428179
 20
2.3917078548
  0
LINE
  5
324
100
AcDbEntity
  8
0
100
AcDbLine
 62
7
  6
CONTINUOUS
 10
-2.1873319614
 20
1.642559637
 11
-2.1699809758
 21
1.630549764
  0
LINE
  5
325
100
AcDbEntity
  8
0
100
AcDbLine
 62
7
  6
CONTINUOUS
 10
0.2063428179
 20
2.3917078548
 11
0.2236938035
 21
2.3796979818
  0
LWPOLYLINE
  5
326
100
AcDbEntity
  8
0
100
AcDbPolyline
 62
250
  6
CONTINUOUS
 90
6
 70
0
 10
11.2136078087
 20
-12.7489920802
 10
11.1267976906
 20
-12.6713040558
 10
11.0819641349
 20
-12.6306296942
 10
11.0364859795
 20
-12.5887110275
 10
10.9907020887
 20
-12.54564945
 10
10.8989987009
 20
-12.4581851201
  0
LWPOLYLINE
  5
327
100
AcDbEntity
  8
0
100
AcDbPolyline
 62
250
  6
CONTINUOUS
 90
3
 70
0
 10
10.8989987009
 20
-12.4581851201
 10
10.8528473277
 20
-12.4148521014
 10
10.8063193347
 20
-12.3724560422
  0
LINE
  5
328
100
AcDbEntity
  8
0
100
AcDbLine
 62
250
  6
CONTINUOUS
 10
9.0195565667
 20
-30.7569241195
 11
8.9936645955
 21
-30.715837571
  0
LINE
  5
329
100
AcDbEntity
  8
0
100
AcDbLine
 62
250
  6
CONTINUOUS
 10
8.9936645955
 20
-30.715837571
 11
8.7197487998
 21
-30.27864024
  0
LWPOLYLINE
  5
32A
100
AcDbEntity
  8
0
100
AcDbPolyline
 62
250
  6
CONTINUOUS
 90
5
 70
0
 10
-16.1981663605
 20
-5.1478606973
 10
-16.15998762
 20
-5.2636790207
 10
-16.1221724822
 20
-5.381938572
 10
-16.0847208213
 20
-5.5026391817
 10
-16.047864311
 20
-5.6258547731
  0
LWPOLYLINE
  5
32B
100
AcDbEntity
  8
0
100
AcDbPolyline
 62
250
  6
CONTINUOUS
 90
10
 70
0
 10
-15.7389447675
 20
-6.6907517653
 10
-15.5920658591
 20
-7.1504752232
 10
-15.4389919688
 20
-7.5967931581
 10
-15.2797324472
 20
-8.0297058183
 10
-15.1144226878
 20
-8.4482776793
 10
-14.9429425854
 20
-8.8534459833
 10
-14.7649161832
 20
-9.248019953
 10
-14.5802244337
 20
-9.6329363086
 10
-14.3890086811
 20
-10.0072600013
 10
-14.1912887502
 20
-10.3709922422
  0
LWPOLYLINE
  5
32C
100
AcDbEntity
  8
0
100
AcDbPolyline
 62
250
  6
CONTINUOUS
 90
3
 70
0
 10
-15.861375152
 20
-6.2760923145
 10
-15.8215942869
 20
-6.4123177907
 10
-15.7389447675
 20
-6.6907517653
  0
LINE
  5
32D
100
AcDbEntity
  8
0
100
AcDbLine
 62
250
  6
CONTINUOUS
 10
-16.047864311
 20
-5.6258547731
 11
-15.9745451931
 21
-5.8793853899
  0
LINE
  5
32E
100
AcDbEntity
  8
0
100
AcDbLine
 62
250
  6
CONTINUOUS
 10
-15.9745451931
 20
-5.8793853899
 11
-15.861375152
 21
-6.2760923145
  0
LWPOLYLINE
  5
32F
100
AcDbEntity
  8
0
100
AcDbPolyline
 62
250
  6
CONTINUOUS
 90
10
 70
0
 10
-15.9790812137
 20
-6.7656463383
 10
-15.8823040242
 20
-7.2353626244
 10
-15.7739609067
 20
-7.6950460804
 10
-15.6547791434
 20
-8.1445406104
 10
-15.5263869751
 20
-8.5821000329
 10
-15.3887762655
 20
-9.0094765151
 10
-15.2398114248
 20
-9.4316017567
 10
-15.0787802986
 20
-9.8498733006
 10
-14.9069105625
 20
-10.262442237
 10
-14.7245047517
 20
-10.6691317028
  0
LWPOLYLINE
  5
330
100
AcDbEntity
  8
0
100
AcDbPolyline
 62
250
  6
CONTINUOUS
 90
3
 70
0
 10
-18.8068383754
 20
-14.0572039434
 10
-18.7581605646
 20
-14.2981836567
 10
-18.7035876319
 20
-14.5627662764
  0
LWPOLYLINE
  5
331
100
AcDbEntity
  8
0
100
AcDbPolyline
 62
250
  6
CONTINUOUS
 90
4
 70
0
 10
-18.9491745948
 20
-13.3289313341
 10
-18.9190260064
 20
-13.4868558588
 10
-18.8869482957
 20
-13.6515592593
 10
-18.8068383754
 20
-14.0572039434
  0
LWPOLYLINE
  5
332
100
AcDbEntity
  8
0
100
AcDbPolyline
 62
250
  6
CONTINUOUS
 90
4
 70
0
 10
-19.0583733477
 20
-12.72412957
 10
-19.0312794639
 20
-12.8791296526
 10
-19.0046347796
 20
-13.0281634237
 10
-18.9491745948
 20
-13.3289313341
  0
LINE
  5
333
100
AcDbEntity
  8
0
100
AcDbLine
 62
250
  6
CONTINUOUS
 10
-19.1114201173
 20
-12.4109704478
 11
-19.0583733477
 21
-12.72412957
  0
LWPOLYLINE
  5
334
100
AcDbEntity
  8
0
100
AcDbPolyline
 62
250
  6
CONTINUOUS
 90
10
 70
0
 10
-20.1290198506
 20
-11.4733217236
 10
-20.0684571462
 20
-11.8357675889
 10
-20.0054107688
 20
-12.1977821285
 10
-19.9398836912
 20
-12.5593486939
 10
-19.8718790869
 20
-12.9204499983
 10
-19.8014000409
 20
-13.2810700852
 10
-19.7284495032
 20
-13.6411943212
 10
-19.6530306964
 20
-14.0008067761
 10
-19.5751471615
 20
-14.3598902299
 10
-19.4948024365
 20
-14.7184281363
  0
LWPOLYLINE
  5
335
100
AcDbEntity
  8
0
100
AcDbPolyline
 62
250
  6
CONTINUOUS
 90
6
 70
0
 10
-19.2762575001
 20
-11.3500758485
 10
-19.2446412417
 20
-11.5660257857
 10
-19.2144290881
 20
-11.7663332594
 10
-19.1858230418
 20
-11.9509889344
 10
-19.1598885421
 20
-12.1144591125
 10
-19.1114201173
 20
-12.4109704478
  0
LWPOLYLINE
  5
336
100
AcDbEntity
  8
0
100
AcDbPolyline
 62
250
  6
CONTINUOUS
 90
3
 70
0
 10
-19.3411099423
 20
-10.8903122631
 10
-19.3113433008
 20
-11.1053199835
 10
-19.2762575001
 20
-11.3500758485
  0
LINE
  5
337
100
AcDbEntity
  8
0
100
AcDbLine
 62
250
  6
CONTINUOUS
 10
-19.385710578
 20
-10.5538495602
 11
-19.3411099423
 21
-10.8903122631
  0
LINE
  5
338
100
AcDbEntity
  8
0
100
AcDbLine
 62
250
  6
CONTINUOUS
 10
-19.4253072572
 20
-10.2388499924
 11
-19.385710578
 21
-10.5538495602
  0
LWPOLYLINE
  5
339
100
AcDbEntity
  8
0
100
AcDbPolyline
 62
250
  6
CONTINUOUS
 90
10
 70
0
 10
-20.4530640368
 20
-9.1828315615
 10
-20.4219576676
 20
-9.4380006341
 10
-20.3896248711
 20
-9.6930154062
 10
-20.3560663921
 20
-9.9478701
 10
-20.3212830379
 20
-10.202558635
 10
-20.2852755693
 20
-10.4570755464
 10
-20.2480446854
 20
-10.711415984
 10
-20.2095911763
 20
-10.9655744871
 10
-20.1699159373
 20
-11.2195449867
 10
-20.1290198506
 20
-11.4733217236
  0
LWPOLYLINE
  5
33A
100
AcDbEntity
  8
0
100
AcDbPolyline
 62
250
  6
CONTINUOUS
 90
5
 70
0
 10
-19.5559952586
 20
-9.0835658549
 10
-19.5092591934
 20
-9.4713104516
 10
-19.4912974757
 20
-9.6245054683
 10
-19.4784532048
 20
-9.7460454246
 10
-19.4621766362
 20
-9.9218872333
  0
LINE
  5
33B
100
AcDbEntity
  8
0
100
AcDbLine
 62
250
  6
CONTINUOUS
 10
-19.4420267191
 20
-10.1001920543
 11
-19.4253072572
 21
-10.2388499924
  0
LWPOLYLINE
  5
33C
100
AcDbEntity
  8
0
100
AcDbPolyline
 62
250
  6
CONTINUOUS
 90
3
 70
0
 10
-19.6293783693
 20
-8.1397853708
 10
-19.6211171695
 20
-8.2298123796
 10
-19.6132868599
 20
-8.3231299191
  0
LINE
  5
33D
100
AcDbEntity
  8
0
100
AcDbLine
 62
250
  6
CONTINUOUS
 10
-19.6925561918
 20
-7.4727103222
 11
-19.6691067908
 21
-7.7301411185
  0
LINE
  5
33E
100
AcDbEntity
  8
0
100
AcDbLine
 62
250
  6
CONTINUOUS
 10
-19.7172544163
 20
-7.1791475356
 11
-19.6925561918
 21
-7.4727103222
  0
LINE
  5
33F
100
AcDbEntity
  8
0
100
AcDbLine
 62
250
  6
CONTINUOUS
 10
-19.6132868599
 20
-8.3231299191
 11
-19.5987857608
 21
-8.5100075408
  0
LINE
  5
340
100
AcDbEntity
  8
0
100
AcDbLine
 62
250
  6
CONTINUOUS
 10
-19.5987857608
 20
-8.5100075408
 11
-19.5559952586
 21
-9.0835658549
  0
LWPOLYLINE
  5
341
100
AcDbEntity
  8
0
100
AcDbPolyline
 62
250
  6
CONTINUOUS
 90
3
 70
0
 10
-19.7570753581
 20
-6.276990139
 10
-19.744353166
 20
-6.4877908876
 10
-19.731053018
 20
-6.6985503706
  0
LINE
  5
342
100
AcDbEntity
  8
0
100
AcDbLine
 62
250
  6
CONTINUOUS
 10
-19.7172030257
 20
-7.0158653149
 11
-19.7086642764
 21
-7.1761180023
  0
LINE
  5
343
100
AcDbEntity
  8
0
100
AcDbLine
 62
250
  6
CONTINUOUS
 10
-19.7246585527
 20
-6.8566689422
 11
-19.7172030257
 21
-7.0158653149
  0
LWPOLYLINE
  5
344
100
AcDbEntity
  8
0
100
AcDbPolyline
 62
250
  6
CONTINUOUS
 90
9
 70
0
 10
-20.7857518136
 20
-5.0587257326
 10
-20.7763455792
 20
-5.2728878551
 10
-20.7660810938
 20
-5.4870109596
 10
-20.7549585284
 20
-5.7010914969
 10
-20.7429780462
 20
-5.9151262802
 10
-20.7301397955
 20
-6.1291124851
 10
-20.7164439535
 20
-6.3430469253
 10
-20.7018907335
 20
-6.5569260539
 10
-20.6864803498
 20
-6.7707465054
  0
LINE
  5
345
100
AcDbEntity
  8
0
100
AcDbLine
 62
250
  6
CONTINUOUS
 10
-19.731053018
 20
-6.6985503706
 11
-19.7246585527
 21
-6.8566689422
  0
LINE
  5
346
100
AcDbEntity
  8
0
100
AcDbLine
 62
250
  6
CONTINUOUS
 10
-20.7987867755
 20
-4.7224132897
 11
-20.7857518136
 21
-5.0587257326
  0
LINE
  5
347
100
AcDbEntity
  8
0
100
AcDbLine
 62
250
  6
CONTINUOUS
 10
-20.8069224973
 20
-4.4781555967
 11
-20.7987867755
 21
-4.7224132897
  0
LWPOLYLINE
  5
348
100
AcDbEntity
  8
0
100
AcDbPolyline
 62
250
  6
CONTINUOUS
 90
7
 70
0
 10
-19.8249087472
 20
-4.7984338417
 10
-19.8184871135
 20
-5.0101595524
 10
-19.8109185743
 20
-5.2217324473
 10
-19.8022051564
 20
-5.4331336105
 10
-19.7921612896
 20
-5.6443038903
 10
-19.7809783577
 20
-5.8552620489
 10
-19.7570753581
 20
-6.276990139
  0
LINE
  5
349
100
AcDbEntity
  8
0
100
AcDbLine
 62
250
  6
CONTINUOUS
 10
-20.812290501
 20
-4.294939857
 11
-20.8069224973
 21
-4.4781555967
  0
LWPOLYLINE
  5
34A
100
AcDbEntity
  8
0
100
AcDbPolyline
 62
250
  6
CONTINUOUS
 90
6
 70
0
 10
-19.8338434158
 20
-4.345504493
 10
-19.8315749766
 20
-4.4325935372
 10
-19.8288412063
 20
-4.5195522822
 10
-19.82657491
 20
-4.6065094504
 10
-19.825672658
 20
-4.693588158
 10
-19.8227974549
 20
-4.7802753169
  0
LINE
  5
34B
100
AcDbEntity
  8
0
100
AcDbLine
 62
250
  6
CONTINUOUS
 10
-20.8198710831
 20
-3.9880817765
 11
-20.812290501
 21
-4.294939857
  0
LWPOLYLINE
  5
34C
100
AcDbEntity
  8
0
100
AcDbPolyline
 62
250
  6
CONTINUOUS
 90
3
 70
0
 10
-19.8479012816
 20
-2.9028711855
 10
-19.8448569468
 20
-3.0545874156
 10
-19.8430506527
 20
-3.2060142095
  0
LINE
  5
34D
100
AcDbEntity
  8
0
100
AcDbLine
 62
250
  6
CONTINUOUS
 10
-20.8256852022
 20
-3.6811881561
 11
-20.8198710831
 21
-3.9880817765
  0
LWPOLYLINE
  5
34E
100
AcDbEntity
  8
0
100
AcDbPolyline
 62
250
  6
CONTINUOUS
 90
3
 70
0
 10
-19.8400130801
 20
-3.9589614005
 10
-19.8381452244
 20
-4.1087435135
 10
-19.8338434158
 20
-4.345504493
  0
LINE
  5
34F
100
AcDbEntity
  8
0
100
AcDbLine
 62
250
  6
CONTINUOUS
 10
-20.8297327089
 20
-3.3742687242
 11
-20.8256852022
 21
-3.6811881561
  0
LWPOLYLINE
  5
350
100
AcDbEntity
  8
0
100
AcDbPolyline
 62
250
  6
CONTINUOUS
 90
3
 70
0
 10
-20.8324913741
 20
-2.9138611227
 10
-20.8320135118
 20
-3.0673324161
 10
-20.8297327089
 20
-3.3742687242
  0
LWPOLYLINE
  5
351
100
AcDbEntity
  8
0
100
AcDbPolyline
 62
250
  6
CONTINUOUS
 90
4
 70
0
 10
-19.8430506527
 20
-3.2060142095
 10
-19.8417030959
 20
-3.5080173832
 10
-19.8414470989
 20
-3.6586025704
 10
-19.8400130801
 20
-3.9589614005
  0
LINE
  5
352
100
AcDbEntity
  8
0
100
AcDbLine
 62
7
  6
CONTINUOUS
 10
-20.8325014594
 20
-2.902871191
 11
-20.8324937296
 21
-2.9138611285
  0
LINE
  5
353
100
AcDbEntity
  8
0
100
AcDbLine
 62
7
  6
CONTINUOUS
 10
-21.3813922055
 20
27.0827233878
 11
-21.3813922055
 21
-2.9028752493
  0
LINE
  5
354
100
AcDbEntity
  8
0
100
AcDbLine
 62
250
  6
CONTINUOUS
 10
-20.8325017845
 20
-2.902871191
 11
-20.8325017828
 21
27.0125952293
  0
LINE
  5
355
100
AcDbEntity
  8
0
100
AcDbLine
 62
250
  6
CONTINUOUS
 10
-19.8468824785
 20
27.0067475422
 11
-19.846882479
 21
-2.9028711885
  0
LINE
  5
356
100
AcDbEntity
  8
0
100
AcDbLine
 62
7
  6
CONTINUOUS
 10
-19.0818190789
 20
27.4826486769
 11
-19.0818190789
 21
27.5041473151
  0
LWPOLYLINE
  5
357
100
AcDbEntity
  8
0
100
AcDbPolyline
 62
250
  6
CONTINUOUS
 90
16
 70
0
 10
-19.8468823762
 20
27.006747557
 10
-19.8461340288
 20
27.0593538607
 10
-19.8440998806
 20
27.1109460582
 10
-19.8408297915
 20
27.1611771695
 10
-19.8363748158
 20
27.2097412289
 10
-19.8307886316
 20
27.256188394
 10
-19.824143507
 20
27.2998923816
 10
-19.8165422055
 20
27.3402379622
 10
-19.808045813
 20
27.3768711638
 10
-19.7986801569
 20
27.4096116813
 10
-19.7885241771
 20
27.4382035696
 10
-19.7777228647
 20
27.4621927329
 10
-19.7664159616
 20
27.4811879675
 10
-19.7547198392
 20
27.4950047473
 10
-19.7427280029
 20
27.5035553387
 10
-19.7305407511
 20
27.5067285131
  0
LWPOLYLINE
  5
358
100
AcDbEntity
  8
0
100
AcDbPolyline
 62
7
  6
CONTINUOUS
 90
13
 70
0
 10
14.3583987463
 20
-4.9723230679
 10
14.3557917037
 20
-4.970478077
 10
14.352674795
 20
-4.9693526233
 10
14.3495178655
 20
-4.9692283497
 10
14.3466351241
 20
-4.9703378872
 10
14.3441394519
 20
-4.9725438168
 10
14.3421332425
 20
-4.9753486353
 10
14.3406273256
 20
-4.978199535
 10
14.3393870865
 20
-4.9810304038
 10
14.3381315624
 20
-4.9840196128
 10
14.3367529933
 20
-4.9871185862
 10
14.3353156613
 20
-4.9901737123
 10
14.3338137418
 20
-4.9931870214
  0
LINE
  5
359
100
AcDbEntity
  8
0
100
AcDbLine
 62
7
  6
CONTINUOUS
 10
-0.4620955948
 20
1.4914053252
 11
-0.4095654983
 21
1.4388753131
  0
LINE
  5
35A
100
AcDbEntity
  8
0
100
AcDbLine
 62
7
  6
CONTINUOUS
 10
-1.5015425631
 20
2.5308522936
 11
-1.5540726596
 21
2.5833823057
  0
LINE
  5
35B
100
AcDbEntity
  8
0
100
AcDbLine
 62
7
  6
CONTINUOUS
 10
-0.3818190789
 20
1.4111289512
 11
-0.3253230386
 21
1.3546329313
  0
LINE
  5
35C
100
AcDbEntity
  8
0
100
AcDbLine
 62
7
  6
CONTINUOUS
 10
-1.5818190789
 20
2.6111286676
 11
-1.6383151193
 21
2.6676246875
  0
LWPOLYLINE
  5
35D
100
AcDbEntity
  8
0
100
AcDbPolyline
 62
7
  6
CONTINUOUS
 90
10
 70
0
 10
-21.3813922055
 20
27.0826701117
 10
-21.3746052643
 20
27.0748573715
 10
-21.3542460935
 20
27.0670499622
 10
-21.3203194667
 20
27.0592478838
 10
-21.2728331517
 20
27.0514493635
 10
-21.2117980964
 20
27.0436561741
 10
-21.1372286155
 20
27.035873634
 10
-21.0491420466
 20
27.0281035162
 10
-20.9475585583
 20
27.0203440477
 10
-20.8325014658
 20
27.0125952287
  0
LWPOLYLINE
  5
35E
100
AcDbEntity
  8
0
100
AcDbPolyline
 62
250
  6
CONTINUOUS
 90
3
 70
0
 10
12.6968816365
 20
-27.6943097936
 10
13.0039421311
 20
-28.1686316582
 10
13.0060665291
 20
-28.1720057549
  0
LWPOLYLINE
  5
35F
100
AcDbEntity
  8
0
100
AcDbPolyline
 62
250
  6
CONTINUOUS
 90
5
 70
0
 10
-16.251990833
 20
-5.1712910692
 10
-16.2362644161
 20
-5.2554608975
 10
-16.2208870809
 20
-5.3408195727
 10
-16.2058617684
 20
-5.4273654745
 10
-16.1912649466
 20
-5.5152875972
  0
LWPOLYLINE
  5
360
100
AcDbEntity
  8
0
100
AcDbPolyline
 62
250
  6
CONTINUOUS
 90
3
 70
0
 10
-16.0285121209
 20
-6.5039588579
 10
-16.0123235471
 20
-6.5916547485
 10
-15.9790812137
 20
-6.7656463383
  0
LINE
  5
361
100
AcDbEntity
  8
0
100
AcDbLine
 62
250
  6
CONTINUOUS
 10
-16.0599489266
 20
-6.3271585013
 11
-16.0285121209
 21
-6.5039588579
  0
LINE
  5
362
100
AcDbEntity
  8
0
100
AcDbLine
 62
250
  6
CONTINUOUS
 10
-16.0903852818
 20
-6.1485510607
 11
-16.0599489266
 21
-6.3271585013
  0
LINE
  5
363
100
AcDbEntity
  8
0
100
AcDbLine
 62
250
  6
CONTINUOUS
 10
-16.1198896874
 20
-5.9681856541
 11
-16.0903852818
 21
-6.1485510607
  0
LINE
  5
364
100
AcDbEntity
  8
0
100
AcDbLine
 62
250
  6
CONTINUOUS
 10
-16.1912649466
 20
-5.5152875972
 11
-16.119874007
 21
-5.968184696
  0
LWPOLYLINE
  5
365
100
AcDbEntity
  8
0
100
AcDbPolyline
 62
250
  6
CONTINUOUS
 90
22
 70
0
 10
-16.3069972546
 20
-5.9871242015
 10
-16.2776386281
 20
-6.6753402783
 10
-16.2181248187
 20
-7.3535611964
 10
-16.1296745844
 20
-8.0202087995
 10
-16.0142185031
 20
-8.6706037676
 10
-15.8725027562
 20
-9.3065970692
 10
-15.7029730805
 20
-9.9356996485
 10
-15.504791767
 20
-10.5578006634
 10
-15.2790145279
 20
-11.1695368679
 10
-15.0255152912
 20
-11.773195695
 10
-14.7437369872
 20
-12.3680115959
 10
-14.4339764708
 20
-12.9515368992
 10
-14.0970352162
 20
-13.5238495998
 10
-13.7326456803
 20
-14.0842273341
 10
-13.3410289083
 20
-14.6305076104
 10
-12.923994222
 20
-15.1611005822
 10
-12.481247363
 20
-15.6759021049
 10
-12.0137562665
 20
-16.1725274003
 10
-11.525904098
 20
-16.6469127394
 10
-11.0199922756
 20
-17.0975965245
 10
-10.4960294194
 20
-17.5248105069
 10
-10.3339005911
 20
-17.6491310258
  0
LINE
  5
366
100
AcDbEntity
  8
0
100
AcDbLine
 62
250
  6
CONTINUOUS
 10
-16.3413692949
 20
-4.2556846024
 11
-16.3360015836
 21
-4.4083570726
  0
LINE
  5
367
100
AcDbEntity
  8
0
100
AcDbLine
 62
250
  6
CONTINUOUS
 10
-16.3360015836
 20
-4.4083570726
 11
-16.3312972521
 21
-4.5628943083
  0
LINE
  5
368
100
AcDbEntity
  8
0
100
AcDbLine
 62
250
  6
CONTINUOUS
 10
-16.3638630596
 20
-3.4164199677
 11
-16.3466292011
 21
-3.9694905873
  0
LINE
  5
369
100
AcDbEntity
  8
0
100
AcDbLine
 62
250
  6
CONTINUOUS
 10
-16.3312972521
 20
-4.5628943083
 11
-16.3253256077
 21
-4.7981567434
  0
LWPOLYLINE
  5
36A
100
AcDbEntity
  8
0
100
AcDbPolyline
 62
7
  6
CONTINUOUS
 90
4
 70
0
 10
-16.3220618176
 20
-4.9653500766
 10
-16.3219826434
 20
-4.9687349233
 10
-16.3219569921
 20
-4.9704965578
 10
-16.3220369042
 20
-4.9723230679
  0
LINE
  5
36B
100
AcDbEntity
  8
0
100
AcDbLine
 62
250
  6
CONTINUOUS
 10
-16.3072624742
 20
-5.9751166729
 11
-16.3069972545
 21
-5.9871242015
  0
LINE
  5
36C
100
AcDbEntity
  8
0
100
AcDbLine
 62
250
  6
CONTINUOUS
 10
-16.3253256077
 20
-4.7981567434
 11
-16.3219052254
 21
-4.9572618216
  0
LWPOLYLINE
  5
36D
100
AcDbEntity
  8
0
100
AcDbPolyline
 62
250
  6
CONTINUOUS
 90
3
 70
0
 10
-16.3466292011
 20
-3.9694905873
 10
-16.3425233522
 20
-4.1638714595
 10
-16.3411739392
 20
-4.2556749812
  0
LINE
  5
36E
100
AcDbEntity
  8
0
100
AcDbLine
 62
250
  6
CONTINUOUS
 10
-16.3220369044
 20
-4.9723230123
 11
-16.3161178603
 21
-5.3142800413
  0
LINE
  5
36F
100
AcDbEntity
  8
0
100
AcDbLine
 62
250
  6
CONTINUOUS
 10
-16.3161178603
 20
-5.3142800413
 11
-16.3072624742
 21
-5.9751166729
  0
LWPOLYLINE
  5
370
100
AcDbEntity
  8
0
100
AcDbPolyline
 62
250
  6
CONTINUOUS
 90
5
 70
0
 10
-16.3716943107
 20
-2.902871191
 10
-16.3708168187
 20
-3.0366447195
 10
-16.36925924
 20
-3.1668168993
 10
-16.3670262517
 20
-3.293352998
 10
-16.3638630596
 20
-3.4164199677
  0
LINE
  5
371
100
AcDbEntity
  8
0
100
AcDbLine
 62
250
  6
CONTINUOUS
 10
-19.8249087472
 20
-4.7984338417
 11
-19.8227974549
 21
-4.7802753169
  0
LINE
  5
372
100
AcDbEntity
  8
0
100
AcDbLine
 62
7
  6
CONTINUOUS
 10
7.1193929211
 20
14.7360328094
 11
8.0768219211
 21
14.7360438094
  0
LINE
  5
373
100
AcDbEntity
  8
0
100
AcDbLine
 62
7
  6
CONTINUOUS
 10
0.5295869211
 20
14.7360228094
 11
1.3796189211
 21
14.7360328094
  0
LINE
  5
374
100
AcDbEntity
  8
0
100
AcDbLine
 62
7
  6
CONTINUOUS
 10
-4.1944900789
 20
14.7360228094
 11
-3.3444580789
 21
14.7360228094
  0
LINE
  5
375
100
AcDbEntity
  8
0
100
AcDbLine
 62
7
  6
CONTINUOUS
 10
-0.8871290789
 20
14.7360228094
 11
-0.0370970789
 21
14.7360228094
  0
LINE
  5
376
100
AcDbEntity
  8
0
100
AcDbLine
 62
7
  6
CONTINUOUS
 10
4.6755259211
 20
14.7360328094
 11
5.5255689211
 21
14.7360328094
  0
LINE
  5
377
100
AcDbEntity
  8
0
100
AcDbLine
 62
7
  6
CONTINUOUS
 10
-2.5408040789
 20
14.7360228094
 11
-1.6907930789
 21
14.7360328094
  0
LINE
  5
378
100
AcDbEntity
  8
0
100
AcDbLine
 62
7
  6
CONTINUOUS
 10
-5.8945320789
 20
14.7360118094
 11
-5.0445000789
 21
14.7360228094
  0
LINE
  5
379
100
AcDbEntity
  8
0
100
AcDbLine
 62
7
  6
CONTINUOUS
 10
3.2587989211
 20
14.7360328094
 11
4.1088419211
 21
14.7360228094
  0
LINE
  5
37A
100
AcDbEntity
  8
0
100
AcDbLine
 62
7
  6
CONTINUOUS
 10
-8.6758700789
 20
14.7360118094
 11
-7.8258070789
 21
14.7360228094
  0
LINE
  5
37B
100
AcDbEntity
  8
0
100
AcDbLine
 62
7
  6
CONTINUOUS
 10
1.6479749211
 20
15.5718598094
 11
2.9904539211
 21
15.5718598094
  0
LINE
  5
37C
100
AcDbEntity
  8
0
100
AcDbLine
 62
7
  6
CONTINUOUS
 10
1.9072569211
 20
16.3793908094
 11
2.7311619211
 21
16.3793908094
  0
LINE
  5
37D
100
AcDbEntity
  8
0
100
AcDbLine
 62
7
  6
CONTINUOUS
 10
5.5256639211
 20
16.3794018094
 11
6.2675549211
 21
16.3793908094
  0
LINE
  5
37E
100
AcDbEntity
  8
0
100
AcDbLine
 62
7
  6
CONTINUOUS
 10
6.5480299211
 20
17.1656838094
 11
5.5138489211
 21
17.1656838094
  0
LINE
  5
37F
100
AcDbEntity
  8
0
100
AcDbLine
 62
7
  6
CONTINUOUS
 10
6.5480299211
 20
18.1999428094
 11
5.5138389211
 21
18.1999428094
  0
LINE
  5
380
100
AcDbEntity
  8
0
100
AcDbLine
 62
250
  6
CONTINUOUS
 10
-20.8734408268
 20
27.5746494189
 11
-20.8814425589
 21
27.5826891252
  0
LINE
  5
381
100
AcDbEntity
  8
0
100
AcDbLine
 62
7
  6
CONTINUOUS
 10
-1.2646784826
 20
0.8685344448
 11
-1.2510832114
 21
0.8484257328
  0
LINE
  5
382
100
AcDbEntity
  8
0
100
AcDbLine
 62
7
  6
CONTINUOUS
 10
-0.6989596753
 20
3.153723174
 11
-0.7125549398
 21
3.1738318761
  0
LWPOLYLINE
  5
383
100
AcDbEntity
  8
0
100
AcDbPolyline
 62
250
  6
CONTINUOUS
 90
9
 70
0
 10
10.1119133544
 20
-22.3874069745
 10
9.7828841118
 20
-21.7652954972
 10
9.4684647341
 20
-21.1624616115
 10
9.1737578011
 20
-20.5849615728
 10
8.898196104
 20
-20.0283886372
 10
8.6394880881
 20
-19.4841987697
 10
8.3991431375
 20
-18.9505165749
 10
8.181546264
 20
-18.4304406076
 10
7.9913679805
 20
-17.9280757899
  0
LINE
  5
384
100
AcDbEntity
  8
0
100
AcDbLine
 62
7
  6
CONTINUOUS
 10
-1.3631628247
 20
1.0594273408
 11
-1.2646784826
 21
0.8685344448
  0
LINE
  5
385
100
AcDbEntity
  8
0
100
AcDbLine
 62
7
  6
CONTINUOUS
 10
-1.4357088861
 20
1.201715822
 11
-1.3631628247
 21
1.0594273408
  0
LINE
  5
386
100
AcDbEntity
  8
0
100
AcDbLine
 62
7
  6
CONTINUOUS
 10
-1.5818190789
 20
1.2425061622
 11
-1.6003954494
 21
1.2791766176
  0
LWPOLYLINE
  5
387
100
AcDbEntity
  8
0
100
AcDbPolyline
 62
7
  6
CONTINUOUS
 90
3
 70
0
 10
-1.6003954494
 20
1.2791766176
 10
-1.628774967
 20
1.3354697158
 10
-1.6383152952
 20
1.3546325878
  0
LINE
  5
388
100
AcDbEntity
  8
0
100
AcDbLine
 62
7
  6
CONTINUOUS
 10
-1.4834338938
 20
1.2964375352
 11
-1.4357088861
 21
1.201715822
  0
LINE
  5
389
100
AcDbEntity
  8
0
100
AcDbLine
 62
7
  6
CONTINUOUS
 10
-1.5306366241
 20
1.3912795726
 11
-1.4834338938
 21
1.2964375352
  0
LINE
  5
38A
100
AcDbEntity
  8
0
100
AcDbLine
 62
7
  6
CONTINUOUS
 10
-1.5540726767
 20
1.4388752076
 11
-1.5306366241
 21
1.3912795726
  0
LINE
  5
38B
100
AcDbEntity
  8
0
100
AcDbLine
 62
7
  6
CONTINUOUS
 10
-2.1039253659
 20
2.249951182
 11
-2.1699808838
 21
2.391707904
  0
LINE
  5
38C
100
AcDbEntity
  8
TRASH
100
AcDbLine
 62
7
  6
CONTINUOUS
 10
-1.4549498428
 20
1.39144873
 11
-1.5015425628
 21
1.4914053255
  0
LINE
  5
38D
100
AcDbEntity
  8
TRASH
100
AcDbLine
 62
7
  6
CONTINUOUS
 10
-1.2099672971
 20
0.8661315393
 11
-1.4549498428
 21
1.39144873
  0
LWPOLYLINE
  5
38E
100
AcDbEntity
  8
0
100
AcDbPolyline
 62
250
  6
CONTINUOUS
 90
5
 70
0
 10
-12.769957204
 20
-12.3724702747
 10
-12.7772008559
 20
-9.4072524356
 10
-12.7812684103
 20
-6.4023408998
 10
-12.7821612005
 20
-3.3587052026
 10
-12.7821607392
 20
26.9988520775
  0
LINE
  5
38F
100
AcDbEntity
  8
RACCORDO
100
AcDbLine
 62
250
  6
CONTINUOUS
 10
-13.9818190789
 20
27.7111288094
 11
-13.9818190789
 21
27.5128738506
  0
LWPOLYLINE
  5
390
100
AcDbEntity
  8
0
100
AcDbPolyline
 62
250
  6
CONTINUOUS
 90
11
 70
0
 10
-10.729892271
 20
-29.5483756732
 10
-10.7314504662
 20
-29.7491275151
 10
-10.7309866549
 20
-29.8408588101
 10
-10.7288842978
 20
-29.9259696897
 10
-10.7254475179
 20
-30.0035580913
 10
-10.7209255985
 20
-30.07286763
 10
-10.7153492806
 20
-30.1333611513
 10
-10.7087023348
 20
-30.1845139624
 10
-10.7009819971
 20
-30.2259146937
 10
-10.6922379645
 20
-30.2573564454
 10
-10.6825360373
 20
-30.2786545049
  0
LWPOLYLINE
  5
391
100
AcDbEntity
  8
0
100
AcDbPolyline
 62
7
  6
CONTINUOUS
 90
6
 70
0
 10
-16.3222174746
 20
-4.9572656344
 10
-16.3223302873
 20
-4.9588285475
 10
-16.3223092088
 20
-4.9604283533
 10
-16.3222336014
 20
-4.9620576877
 10
-16.3221435542
 20
-4.9637019099
 10
-16.3220618176
 20
-4.9653500766
  0
LINE
  5
392
100
AcDbEntity
  8
0
100
AcDbLine
 62
7
  6
CONTINUOUS
 10
-10.0404600789
 20
18.9862138094
 11
-9.1904180789
 21
18.9862138094
  0
LINE
  5
393
100
AcDbEntity
  8
0
100
AcDbLine
 62
7
  6
CONTINUOUS
 10
-7.3112480789
 20
18.9862138094
 11
-6.4612060789
 21
18.9862138094
  0
LINE
  5
394
100
AcDbEntity
  8
0
100
AcDbLine
 62
7
  6
CONTINUOUS
 10
-5.8945220789
 20
18.9862138094
 11
-5.0444900789
 21
18.9862138094
  0
LINE
  5
395
100
AcDbEntity
  8
0
100
AcDbLine
 62
7
  6
CONTINUOUS
 10
-4.1944900789
 20
18.9862138094
 11
-2.9094700789
 21
18.9862138094
  0
LINE
  5
396
100
AcDbEntity
  8
0
100
AcDbLine
 62
7
  6
CONTINUOUS
 10
-1.3221170789
 20
18.9862138094
 11
-0.0370970789
 21
18.9862138094
  0
LINE
  5
397
100
AcDbEntity
  8
0
100
AcDbLine
 62
7
  6
CONTINUOUS
 10
1.8941669211
 20
18.9862248094
 11
2.7442409211
 21
18.9862248094
  0
LINE
  5
398
100
AcDbEntity
  8
0
100
AcDbLine
 62
7
  6
CONTINUOUS
 10
4.6755259211
 20
18.9862248094
 11
6.6660129211
 21
18.9862248094
  0
LINE
  5
399
100
AcDbEntity
  8
0
100
AcDbLine
 62
7
  6
CONTINUOUS
 10
-0.6004753332
 20
2.962830278
 11
-0.6989596753
 21
3.153723174
  0
LINE
  5
39A
100
AcDbEntity
  8
0
100
AcDbLine
 62
7
  6
CONTINUOUS
 10
-0.5279292718
 20
2.8205417968
 11
-0.6004753332
 21
2.962830278
  0
LINE
  5
39B
100
AcDbEntity
  8
0
100
AcDbLine
 62
7
  6
CONTINUOUS
 10
-0.3818190789
 20
2.7797514566
 11
-0.3632427085
 21
2.7430810012
  0
LINE
  5
39C
100
AcDbEntity
  8
0
100
AcDbLine
 62
7
  6
CONTINUOUS
 10
-0.4802042641
 20
2.7258200835
 11
-0.5279292718
 21
2.8205417968
  0
LWPOLYLINE
  5
39D
100
AcDbEntity
  8
0
100
AcDbPolyline
 62
7
  6
CONTINUOUS
 90
3
 70
0
 10
-0.3632427085
 20
2.7430810012
 10
-0.3348631908
 20
2.686787903
 10
-0.3253228627
 20
2.667625031
  0
LINE
  5
39E
100
AcDbEntity
  8
0
100
AcDbLine
 62
7
  6
CONTINUOUS
 10
-0.4330015338
 20
2.6309780462
 11
-0.4802042641
 21
2.7258200835
  0
LINE
  5
39F
100
AcDbEntity
  8
0
100
AcDbLine
 62
7
  6
CONTINUOUS
 10
-0.4095654812
 20
2.5833824111
 11
-0.4330015338
 21
2.6309780462
  0
LINE
  5
3A0
100
AcDbEntity
  8
0
100
AcDbLine
 62
7
  6
CONTINUOUS
 10
0.140287208
 20
1.7723064368
 11
0.2063427259
 21
1.6305497148
  0
LINE
  5
3A1
100
AcDbEntity
  8
TRASH
100
AcDbLine
 62
7
  6
CONTINUOUS
 10
-0.5086883151
 20
2.6308088888
 11
-0.4620955951
 21
2.5308522932
  0
LINE
  5
3A2
100
AcDbEntity
  8
TRASH
100
AcDbLine
 62
7
  6
CONTINUOUS
 10
-0.7536708608
 20
3.1561260795
 11
-0.5086883151
 21
2.6308088888
  0
LWPOLYLINE
  5
3A3
100
AcDbEntity
  8
0
100
AcDbPolyline
 62
250
  6
CONTINUOUS
 90
7
 70
0
 10
12.3360287013
 20
-26.812411549
 10
12.0754720245
 20
-26.2168376699
 10
11.7860946757
 20
-25.6044500877
 10
11.4739508917
 20
-24.9768483475
 10
11.1408896238
 20
-24.3297299271
 10
10.7944975416
 20
-23.6709252927
 10
10.1119133544
 20
-22.3874069745
  0
LINE
  5
3A4
100
AcDbEntity
  8
0
100
AcDbLine
 62
7
  6
CONTINUOUS
 10
-2.1268163491
 20
2.2392770275
 11
-2.1875373141
 21
2.3795557817
  0
LINE
  5
3A5
100
AcDbEntity
  8
0
100
AcDbLine
 62
7
  6
CONTINUOUS
 10
0.1631781912
 20
1.7829805912
 11
0.2238991584
 21
1.6427018386
  0
LINE
  5
3A6
100
AcDbEntity
  8
0
100
AcDbLine
 62
7
  6
CONTINUOUS
 10
-10.0404600789
 20
18.9862138094
 11
-8.6758700789
 21
14.7360118094
  0
LINE
  5
3A7
100
AcDbEntity
  8
0
100
AcDbLine
 62
7
  6
CONTINUOUS
 10
-9.1904180789
 20
18.9862138094
 11
-8.2508280789
 21
16.0597278094
  0
LINE
  5
3A8
100
AcDbEntity
  8
RACCORDO
100
AcDbLine
 62
7
  6
CONTINUOUS
 10
-7.0318190789
 20
-31.8904352708
 11
-7.0318190789
 21
-31.1787758941
  0
LINE
  5
3A9
100
AcDbEntity
  8
0
100
AcDbLine
 62
7
  6
CONTINUOUS
 10
-7.0318190789
 20
-31.8904352708
 11
-7.0318190789
 21
-31.1787758941
  0
LINE
  5
3AA
100
AcDbEntity
  8
RACCORDO
100
AcDbLine
 62
7
  6
CONTINUOUS
 10
-6.2818190789
 20
-33.388871242
 11
-6.2818190789
 21
-32.8191440557
  0
LINE
  5
3AB
100
AcDbEntity
  8
0
100
AcDbLine
 62
7
  6
CONTINUOUS
 10
-6.2818190789
 20
-33.388871242
 11
-6.2818190789
 21
-32.8191440557
  0
LINE
  5
3AC
100
AcDbEntity
  8
0
100
AcDbLine
 62
7
  6
CONTINUOUS
 10
-5.8945320789
 20
14.7360118094
 11
-5.8945220789
 21
18.9862138094
  0
LINE
  5
3AD
100
AcDbEntity
  8
0
100
AcDbLine
 62
7
  6
CONTINUOUS
 10
-5.0445000789
 20
14.7360228094
 11
-5.0444900789
 21
18.9862138094
  0
LWPOLYLINE
  5
3AE
100
AcDbEntity
  8
0
100
AcDbPolyline
 62
250
  6
CONTINUOUS
 90
13
 70
0
 10
-6.298765195
 20
-29.7214079754
 10
-6.3006144147
 20
-29.8241080222
 10
-6.301904116
 20
-29.9223682404
 10
-6.3026285993
 20
-30.0155282348
 10
-6.30278198
 20
-30.103015435
 10
-6.3023573061
 20
-30.1840321521
 10
-6.3013533316
 20
-30.257637888
 10
-6.2997744029
 20
-30.3232370442
 10
-6.2976370271
 20
-30.3804697286
 10
-6.2949682192
 20
-30.4288873403
 10
-6.2917942961
 20
-30.4681871698
 10
-6.2881364652
 20
-30.4981440874
 10
-6.2840175189
 20
-30.5184965704
  0
LWPOLYLINE
  5
3AF
100
AcDbEntity
  8
0
100
AcDbPolyline
 62
250
  6
CONTINUOUS
 90
13
 70
0
 10
-10.2732468159
 20
-29.4806956153
 10
-10.2770288483
 20
-29.5870350978
 10
-10.2798110327
 20
-29.6888886311
 10
-10.2815795896
 20
-29.7855456939
 10
-10.2823210122
 20
-29.8763773375
 10
-10.2820191874
 20
-29.9605509442
 10
-10.2806660434
 20
-30.0371027188
 10
-10.2782644194
 20
-30.1053956933
 10
-10.2748424812
 20
-30.1650052303
 10
-10.2704475075
 20
-30.2154223808
 10
-10.2651263403
 20
-30.2562999217
 10
-10.2589167902
 20
-30.2873763686
 10
-10.251859442
 20
-30.3083493496
  0
LINE
  5
3B0
100
AcDbEntity
  8
0
100
AcDbLine
 62
250
  6
CONTINUOUS
 10
-10.7218979374
 20
-29.4411925668
 11
-10.729892271
 21
-29.5483756732
  0
LWPOLYLINE
  5
3B1
100
AcDbEntity
  8
0
100
AcDbPolyline
 62
250
  6
CONTINUOUS
 90
9
 70
0
 10
18.372670841
 20
27.5125277004
 10
18.4852277331
 20
27.5200768672
 10
18.5848607719
 20
27.52768799
 10
18.6715699574
 20
27.535361069
 10
18.7454523176
 20
27.5430965299
 10
18.8064108244
 20
27.5508939469
 10
18.8541543945
 20
27.5587520426
 10
18.8885860001
 20
27.5666703914
 10
18.9098026689
 20
27.5746494189
  0
LWPOLYLINE
  5
3B2
100
AcDbEntity
  8
0
100
AcDbPolyline
 62
250
  6
CONTINUOUS
 90
3
 70
0
 10
18.8688636249
 20
27.0125952293
 10
18.850697937
 20
27.0120393559
 10
18.8243941414
 20
27.0114998403
  0
LWPOLYLINE
  5
3B3
100
AcDbEntity
  8
0
100
AcDbPolyline
 62
250
  6
CONTINUOUS
 90
4
 70
0
 10
18.305778807
 20
27.5105673732
 10
18.3353641902
 20
27.5111962962
 10
18.3576615349
 20
27.5118497386
 10
18.372670841
 20
27.5125277004
  0
LINE
  5
3B4
100
AcDbEntity
  8
0
100
AcDbLine
 62
250
  6
CONTINUOUS
 10
18.2238287038
 20
27.509368404
 11
18.305778807
 21
27.5105673732
  0
LINE
  5
3B5
100
AcDbEntity
  8
0
100
AcDbLine
 62
250
  6
CONTINUOUS
 10
18.8243941414
 20
27.0114998403
 11
18.7481109778
 21
27.010466742
  0
LINE
  5
3B6
100
AcDbEntity
  8
0
100
AcDbLine
 62
250
  6
CONTINUOUS
 10
18.0537834409
 20
27.5078909753
 11
18.2238287038
 21
27.509368404
  0
LINE
  5
3B7
100
AcDbEntity
  8
0
100
AcDbLine
 62
250
  6
CONTINUOUS
 10
18.7481109778
 20
27.010466742
 11
18.5087402535
 21
27.0086480954
  0
LINE
  5
3B8
100
AcDbEntity
  8
0
100
AcDbLine
 62
250
  6
CONTINUOUS
 10
17.7703775018
 20
27.5067358019
 11
18.0537834409
 21
27.5078909753
  0
LINE
  5
3B9
100
AcDbEntity
  8
0
100
AcDbLine
 62
250
  6
CONTINUOUS
 10
18.5087402535
 20
27.0086480954
 11
18.0808547795
 21
27.0070965815
  0
LINE
  5
3BA
100
AcDbEntity
  8
0
100
AcDbLine
 62
250
  6
CONTINUOUS
 10
17.7703775018
 20
27.5067358019
 11
17.1181809211
 21
27.5054414908
  0
LINE
  5
3BB
100
AcDbEntity
  8
0
100
AcDbLine
 62
250
  6
CONTINUOUS
 10
14.8737707482
 20
27.0019469695
 11
18.0808547795
 21
27.0070965815
  0
LINE
  5
3BC
100
AcDbEntity
  8
0
100
AcDbLine
 62
250
  6
CONTINUOUS
 10
16.3850611717
 20
27.5041473151
 11
14.4401482806
 21
27.5015191844
  0
LINE
  5
3BD
100
AcDbEntity
  8
0
100
AcDbLine
 62
7
  6
CONTINUOUS
 10
-19.5813922055
 20
27.5826891252
 11
-20.8729028301
 21
27.5815806431
  0
LINE
  5
3BE
100
AcDbEntity
  8
0
100
AcDbLine
 62
250
  6
CONTINUOUS
 10
10.8185220424
 20
26.9988710691
 11
14.8737707482
 21
27.0019469695
  0
LINE
  5
3BF
100
AcDbEntity
  8
0
100
AcDbLine
 62
250
  6
CONTINUOUS
 10
14.4401482806
 20
27.5015191844
 11
11.384793249
 21
27.4991792551
  0
LINE
  5
3C0
100
AcDbEntity
  8
0
100
AcDbLine
 62
250
  6
CONTINUOUS
 10
11.384793249
 20
27.4991792551
 11
6.3518186996
 21
27.4969948602
  0
LINE
  5
3C1
100
AcDbEntity
  8
0
100
AcDbLine
 62
250
  6
CONTINUOUS
 10
0.4389146994
 20
26.9958896109
 11
10.8185220424
 21
26.9988710691
  0
LINE
  5
3C2
100
AcDbEntity
  8
0
100
AcDbLine
 62
250
  6
CONTINUOUS
 10
6.3518186996
 20
27.4969948602
 11
1.1929727045
 21
27.4959214928
  0
LINE
  5
3C3
100
AcDbEntity
  8
0
100
AcDbLine
 62
7
  6
CONTINUOUS
 10
17.1181809211
 20
27.5041473151
 11
16.3850611717
 21
27.5041473151
  0
LINE
  5
3C4
100
AcDbEntity
  8
0
100
AcDbLine
 62
7
  6
CONTINUOUS
 10
-18.3486993285
 20
27.504147315
 11
-19.0818190789
 21
27.5041473151
  0
LINE
  5
3C5
100
AcDbEntity
  8
0
100
AcDbLine
 62
7
  6
CONTINUOUS
 10
17.1181809211
 20
27.5128738506
 11
-19.0818190789
 21
27.5128738506
  0
LINE
  5
3C6
100
AcDbEntity
  8
RACCORDO
100
AcDbLine
 62
7
  6
CONTINUOUS
 10
-17.402044291
 20
27.7111288094
 11
15.4384061331
 21
27.7111288094
  0
LINE
  5
3C7
100
AcDbEntity
  8
0
100
AcDbLine
 62
250
  6
CONTINUOUS
 10
0.4389146994
 20
26.9958896109
 11
-3.7953815083
 21
26.9960167824
  0
LINE
  5
3C8
100
AcDbEntity
  8
0
100
AcDbLine
 62
250
  6
CONTINUOUS
 10
1.1929727045
 20
27.4959214928
 11
-0.9818190789
 21
27.4958505236
  0
LINE
  5
3C9
100
AcDbEntity
  8
0
100
AcDbLine
 62
250
  6
CONTINUOUS
 10
-3.7953815083
 20
26.9960167824
 11
-10.3444979969
 21
26.9977484419
  0
LINE
  5
3CA
100
AcDbEntity
  8
0
100
AcDbLine
 62
250
  6
CONTINUOUS
 10
-10.3444979969
 20
26.9977484419
 11
-15.2785665336
 21
27.0004909102
  0
LINE
  5
3CB
100
AcDbEntity
  8
0
100
AcDbLine
 62
7
  6
CONTINUOUS
 10
18.9092645731
 20
27.5815728075
 11
17.6177540476
 21
27.5826891252
  0
LINE
  5
3CC
100
AcDbEntity
  8
0
100
AcDbLine
 62
250
  6
CONTINUOUS
 10
-15.2785665336
 20
27.0004909102
 11
-17.5995394421
 21
27.0029058427
  0
LINE
  5
3CD
100
AcDbEntity
  8
0
100
AcDbLine
 62
250
  6
CONTINUOUS
 10
-18.3486993296
 20
27.5041473151
 11
-0.9818190789
 21
27.4958505236
  0
LINE
  5
3CE
100
AcDbEntity
  8
0
100
AcDbLine
 62
250
  6
CONTINUOUS
 10
-17.5995394421
 20
27.0029058427
 11
-19.9469768182
 21
27.0069024205
  0
LINE
  5
3CF
100
AcDbEntity
  8
0
100
AcDbLine
 62
250
  6
CONTINUOUS
 10
-19.0818190789
 20
27.5054414908
 11
-19.9512113426
 21
27.507506944
  0
LINE
  5
3D0
100
AcDbEntity
  8
0
100
AcDbLine
 62
250
  6
CONTINUOUS
 10
-20.5421937516
 20
27.009063836
 11
-19.9469768182
 21
27.0069024205
  0
LINE
  5
3D1
100
AcDbEntity
  8
0
100
AcDbLine
 62
250
  6
CONTINUOUS
 10
-19.9512113426
 20
27.507506944
 11
-20.136932584
 21
27.5088277208
  0
LINE
  5
3D2
100
AcDbEntity
  8
0
100
AcDbLine
 62
250
  6
CONTINUOUS
 10
-20.7117491357
 20
27.010466742
 11
-20.5421937516
 21
27.009063836
  0
LWPOLYLINE
  5
3D3
100
AcDbEntity
  8
0
100
AcDbPolyline
 62
250
  6
CONTINUOUS
 90
6
 70
0
 10
-20.136932584
 20
27.5088277208
 10
-20.2320859326
 20
27.5099556289
 10
-20.2694169649
 20
27.5105673732
 10
-20.2990023481
 20
27.5111962962
 10
-20.3212996928
 20
27.5118497386
 10
-20.3363089989
 20
27.5125277004
  0
LWPOLYLINE
  5
3D4
100
AcDbEntity
  8
0
100
AcDbPolyline
 62
250
  6
CONTINUOUS
 90
4
 70
0
 10
-20.8325017828
 20
27.0125952293
 10
-20.8143360949
 20
27.0120393559
 10
-20.7880322993
 20
27.0114998403
 10
-20.7117491357
 20
27.010466742
  0
LWPOLYLINE
  5
3D5
100
AcDbEntity
  8
0
100
AcDbPolyline
 62
250
  6
CONTINUOUS
 90
9
 70
0
 10
-20.3363089989
 20
27.5125277004
 10
-20.448865891
 20
27.5200768672
 10
-20.5484989298
 20
27.52768799
 10
-20.6352081153
 20
27.535361069
 10
-20.7090904755
 20
27.5430965299
 10
-20.7700489823
 20
27.5508939469
 10
-20.8177925524
 20
27.5587520426
 10
-20.852224158
 20
27.5666703914
 10
-20.8734408268
 20
27.5746494189
  0
LINE
  5
3D6
100
AcDbEntity
  8
0
100
AcDbLine
 62
7
  6
CONTINUOUS
 10
-3.3444580789
 20
17.5387378094
 11
-2.5408040789
 21
14.7360228094
  0
LINE
  5
3D7
100
AcDbEntity
  8
0
100
AcDbLine
 62
7
  6
CONTINUOUS
 10
-2.9094700789
 20
18.9862138094
 11
-2.1157930789
 21
16.2183378094
  0
LWPOLYLINE
  5
3D8
100
AcDbEntity
  8
0
100
AcDbPolyline
 62
250
  6
CONTINUOUS
 90
16
 70
0
 10
8.4404989707
 20
-29.470511788
 10
8.2708817413
 20
-28.872850147
 10
8.0769539594
 20
-28.2497695858
 10
7.8621642243
 20
-27.6022910244
 10
7.6281291406
 20
-26.9274580173
 10
7.3790539151
 20
-26.2302910888
 10
7.1224104132
 20
-25.524379289
 10
6.8600841994
 20
-24.8076870836
 10
6.5959205667
 20
-24.0838330582
 10
6.3405385032
 20
-23.3752025175
 10
6.0990185248
 20
-22.6897582859
 10
5.8711667198
 20
-22.0210971509
 10
5.6594275843
 20
-21.3700629675
 10
5.4663837581
 20
-20.7376942442
 10
5.2947014239
 20
-20.1242255969
 10
5.1480436882
 20
-19.5327696806
  0
LINE
  5
3D9
100
AcDbEntity
  8
0
100
AcDbLine
 62
250
  6
CONTINUOUS
 10
-0.9818300166
 20
-17.5236100598
 11
-0.9815635501
 21
-17.5825542022
  0
LINE
  5
3DA
100
AcDbEntity
  8
0
100
AcDbLine
 62
7
  6
CONTINUOUS
 10
-1.2100118181
 20
0.8661208864
 11
-1.2099279707
 21
0.6384043153
  0
LINE
  5
3DB
100
AcDbEntity
  8
0
100
AcDbLine
 62
7
  6
CONTINUOUS
 10
-0.7537101825
 20
3.3838533027
 11
-0.7536263327
 21
3.1561367338
  0
LWPOLYLINE
  5
3DC
100
AcDbEntity
  8
0
100
AcDbPolyline
 62
7
  6
CONTINUOUS
 90
2
 70
0
 43
0.3499999917
 10
-4.3746760941
 20
38.2912399292
 10
-4.3746760941
 20
39.7912390137
  0
LINE
  5
3DD
100
AcDbEntity
  8
0
100
AcDbLine
 62
7
  6
CONTINUOUS
 10
-4.1944900789
 20
14.7360228094
 11
-4.1944900789
 21
18.9862138094
  0
LINE
  5
3DE
100
AcDbEntity
  8
0
100
AcDbLine
 62
7
  6
CONTINUOUS
 10
-3.3444580789
 20
14.7360228094
 11
-3.3444580789
 21
17.5387378094
  0
LWPOLYLINE
  5
3DF
100
AcDbEntity
  8
0
100
AcDbPolyline
 62
7
  6
CONTINUOUS
 90
13
 70
0
 43
0.3499999917
 10
-3.01753335
 20
39.1483831787
 10
-3.01753335
 20
40.4340948486
 10
-2.8032477379
 20
40.8626696777
 10
-2.3746763134
 20
41.2912380981
 10
-2.160390501
 20
41.2912380981
 10
-1.7318190765
 20
40.8626696777
 10
-1.5175333643
 20
40.4340948486
 10
-1.5175333643
 20
39.1483831787
 10
-1.7318190765
 20
38.7198083496
 10
-2.160390501
 20
38.2912399292
 10
-2.3746763134
 20
38.2912399292
 10
-2.8032477379
 20
38.7198083496
 10
-3.01753335
 20
39.1483831787
  0
LINE
  5
3E0
100
AcDbEntity
  8
0
100
AcDbLine
 62
7
  6
CONTINUOUS
 10
-1.5818190789
 20
-0.5828963672
 11
-1.5818190789
 21
1.4525140031
  0
LINE
  5
3E1
100
AcDbEntity
  8
0
100
AcDbLine
 62
7
  6
CONTINUOUS
 10
-1.5818190789
 20
2.5697432458
 11
-1.5818190789
 21
4.605153986
  0
LINE
  5
3E2
100
AcDbEntity
  8
0
100
AcDbLine
 62
250
  6
CONTINUOUS
 10
-0.9818190789
 20
27.4958187128
 11
-0.9818190789
 21
26.9958468838
  0
LINE
  5
3E3
100
AcDbEntity
  8
ASSI
100
AcDbLine
 62
250
  6
CONTINUOUS
 10
-0.9818190789
 20
26.9958468838
 11
-0.9818192906
 21
18.9862138094
  0
LINE
  5
3E4
100
AcDbEntity
  8
ASSI
100
AcDbLine
 62
250
  6
CONTINUOUS
 10
-0.9818193374
 20
17.2085479999
 11
-0.9818196514
 21
5.5111267928
  0
LINE
  5
3E5
100
AcDbEntity
  8
RACCORDO
100
AcDbLine
 62
250
  6
CONTINUOUS
 10
-0.981819119
 20
5.5111267309
 11
-0.9818195806
 21
5.0110847888
  0
LINE
  5
3E6
100
AcDbEntity
  8
RACCORDO
100
AcDbLine
 62
250
  6
CONTINUOUS
 10
-0.9818190789
 20
-17.5236580115
 11
-0.981819724
 21
-0.9888218838
  0
LINE
  5
3E7
100
AcDbEntity
  8
0
100
AcDbLine
 62
7
  6
CONTINUOUS
 10
-0.8871290789
 20
14.7360228094
 11
-0.8871400789
 21
17.5387378094
  0
LINE
  5
3E8
100
AcDbEntity
  8
0
100
AcDbLine
 62
7
  6
CONTINUOUS
 10
-0.3818190789
 20
4.605153986
 11
-0.3818190789
 21
2.5697436157
  0
LINE
  5
3E9
100
AcDbEntity
  8
0
100
AcDbLine
 62
7
  6
CONTINUOUS
 10
-0.3818190789
 20
1.452514373
 11
-0.3818190789
 21
-0.5828963672
  0
LINE
  5
3EA
100
AcDbEntity
  8
0
100
AcDbLine
 62
7
  6
CONTINUOUS
 10
-1.2101723501
 20
3.1561683925
 11
-1.2098720682
 21
3.3838625917
  0
LINE
  5
3EB
100
AcDbEntity
  8
0
100
AcDbLine
 62
7
  6
CONTINUOUS
 10
-0.7534658078
 20
0.8660892263
 11
-0.7537660897
 21
0.638395027
  0
LINE
  5
3EC
100
AcDbEntity
  8
0
100
AcDbLine
 62
250
  6
CONTINUOUS
 10
-0.9815635501
 20
-17.5825542022
 11
-0.9818190789
 21
-30.6197503957
  0
LWPOLYLINE
  5
3ED
100
AcDbEntity
  8
RACCORDO
100
AcDbPolyline
 62
250
  6
CONTINUOUS
 90
22
 70
0
 10
-4.4905920793
 20
2.0111279443
 10
-4.4785457192
 20
2.29416788
 10
-4.4450320558
 20
2.5714549033
 10
-4.3900509017
 20
2.8429890143
 10
-4.3118970726
 20
3.1114947811
 10
-4.2122750214
 20
3.3742476359
 10
-4.0962989906
 20
3.6230738745
 10
-3.9641621677
 20
3.8556891679
 10
-3.8156705211
 20
4.0743778454
 10
-3.6553576981
 20
4.2778191893
 10
-3.4839882464
 20
4.4654616582
 10
-3.3007970808
 20
4.6378567937
 10
-3.1080236512
 20
4.7953385032
 10
-2.9060937069
 20
4.9381843094
 10
-2.6945812921
 20
5.0661166897
 10
-2.4744484625
 20
5.1786369837
 10
-2.2457468492
 20
5.2762449275
 10
-2.0084249574
 20
5.3584407849
 10
-1.7632902831
 20
5.423226687
 10
-1.5106121788
 20
5.4699366775
 10
-1.2501218409
 20
5.4992367125
 10
-0.9818196514
 20
5.5111267923
  0
LINE
  5
3EE
100
AcDbEntity
  8
0
100
AcDbLine
 62
7
  6
CONTINUOUS
 10
-8.2508280789
 20
16.0597278094
 11
-7.3112480789
 21
18.9862138094
  0
LINE
  5
3EF
100
AcDbEntity
  8
0
100
AcDbLine
 62
7
  6
CONTINUOUS
 10
-7.8258070789
 20
14.7360228094
 11
-6.4612060789
 21
18.9862138094
  0
LWPOLYLINE
  5
3F0
100
AcDbEntity
  8
0
100
AcDbPolyline
 62
7
  6
CONTINUOUS
 90
3
 70
0
 43
0.3499999917
 10
0.0538952047
 20
38.5769522095
 10
-0.0175333645
 20
38.3626712036
 10
-0.1603905076
 20
38.0769525146
  0
LWPOLYLINE
  5
3F1
100
AcDbEntity
  8
0
100
AcDbPolyline
 62
7
  6
CONTINUOUS
 90
16
 70
0
 10
-20.8729028301
 20
27.5815806431
 10
-20.9297109366
 20
27.5775486015
 10
-20.9839441754
 20
27.5686081823
 10
-21.0356025464
 20
27.5547593855
 10
-21.0848983853
 20
27.5358294815
 10
-21.1316193564
 20
27.5119911998
 10
-21.1751284534
 20
27.4837627291
 10
-21.2156204528
 20
27.4508781659
 10
-21.252900578
 20
27.4136034137
 10
-21.2857474926
 20
27.3732543719
 10
-21.31397248
 20
27.3297699864
 10
-21.3377642567
 20
27.2832113113
 10
-21.3564676363
 20
27.2350774077
 10
-21.3698642232
 20
27.1858679628
 10
-21.3781724129
 20
27.1350832895
 10
-21.3813922055
 20
27.0827233878
  0
LINE
  5
3F2
100
AcDbEntity
  8
0
100
AcDbLine
 62
7
  6
CONTINUOUS
 10
-19.0818190789
 20
27.4826486769
 11
-18.9623592142
 21
27.4893792407
  0
LWPOLYLINE
  5
3F3
100
AcDbEntity
  8
0
100
AcDbPolyline
 62
250
  6
CONTINUOUS
 90
16
 70
0
 10
-20.3370695656
 20
27.5154481089
 10
-20.3890632481
 20
27.5126236079
 10
-20.4404690269
 20
27.5043107487
 10
-20.4907201131
 20
27.4906058876
 10
-20.5392593682
 20
27.4716664901
 10
-20.5855574797
 20
27.4477047924
 10
-20.6291167525
 20
27.4189812986
 10
-20.6694640754
 20
27.3858077138
 10
-20.7061477622
 20
27.3485540158
 10
-20.7387557302
 20
27.3076397134
 10
-20.766925771
 20
27.2635275503
 10
-20.7903592148
 20
27.2166968611
 10
-20.8088085699
 20
27.1676429682
 10
-20.8220694144
 20
27.116897151
 10
-20.8299897408
 20
27.0650243042
 10
-20.8324792212
 20
27.0125953679
  0
LWPOLYLINE
  5
3F4
100
AcDbEntity
  8
0
100
AcDbPolyline
 62
7
  6
CONTINUOUS
 90
5
 70
0
 10
-18.9623592142
 20
27.4893792407
 10
-18.8418086453
 20
27.4948508215
 10
-18.7201673723
 20
27.4990634194
 10
-18.5974353952
 20
27.5020170343
 10
-18.4736127139
 20
27.5037116661
  0
LWPOLYLINE
  5
3F5
100
AcDbEntity
  8
0
100
AcDbPolyline
 62
7
  6
CONTINUOUS
 90
6
 70
0
 10
16.5097872485
 20
27.5037169944
 10
16.6334975453
 20
27.5020255594
 10
16.756192061
 20
27.4990730102
 10
16.8778707955
 20
27.4948593467
 10
16.9985337488
 20
27.4893845689
 10
17.1181809211
 20
27.4826486769
  0
LWPOLYLINE
  5
3F6
100
AcDbEntity
  8
0
100
AcDbPolyline
 62
250
  6
CONTINUOUS
 90
16
 70
0
 10
18.3734314077
 20
27.5154481089
 10
18.4254250902
 20
27.5126236079
 10
18.476830869
 20
27.5043107487
 10
18.5270819552
 20
27.4906058876
 10
18.5756212103
 20
27.4716664901
 10
18.6219193218
 20
27.4477047924
 10
18.6654785946
 20
27.4189812986
 10
18.7058259175
 20
27.3858077138
 10
18.7425096043
 20
27.3485540158
 10
18.7751175723
 20
27.3076397134
 10
18.8032876131
 20
27.2635275503
 10
18.8267210569
 20
27.2166968611
 10
18.845170412
 20
27.1676429682
 10
18.8584312565
 20
27.116897151
 10
18.8663515829
 20
27.0650243042
 10
18.8688410633
 20
27.0125953679
  0
LINE
  5
3F7
100
AcDbEntity
  8
0
100
AcDbLine
 62
7
  6
CONTINUOUS
 10
6.2675549211
 20
16.3793908094
 11
7.1193929211
 21
14.7360328094
  0
LINE
  5
3F8
100
AcDbEntity
  8
0
100
AcDbLine
 62
7
  6
CONTINUOUS
 10
7.1720065325
 20
16.4816174882
 11
8.0768219211
 21
14.7360438094
  0
LINE
  5
3F9
100
AcDbEntity
  8
0
100
AcDbLine
 62
7
  6
CONTINUOUS
 10
2.3191989211
 20
17.6625088094
 11
2.7311619211
 21
16.3793908094
  0
LINE
  5
3FA
100
AcDbEntity
  8
0
100
AcDbLine
 62
7
  6
CONTINUOUS
 10
2.9904539211
 20
15.5718598094
 11
3.2587989211
 21
14.7360328094
  0
LINE
  5
3FB
100
AcDbEntity
  8
0
100
AcDbLine
 62
7
  6
CONTINUOUS
 10
2.7442409211
 20
18.9862248094
 11
4.1088419211
 21
14.7360228094
  0
LWPOLYLINE
  5
3FC
100
AcDbEntity
  8
0
100
AcDbPolyline
 62
250
  6
CONTINUOUS
 90
3
 70
0
 10
8.7582597795
 20
-29.4411925668
 10
8.7662541131
 20
-29.5483756732
 10
8.7678123083
 20
-29.7491275151
  0
LWPOLYLINE
  5
3FD
100
AcDbEntity
  8
0
100
AcDbPolyline
 62
250
  6
CONTINUOUS
 90
13
 70
0
 10
4.3351270372
 20
-29.7214079754
 10
4.3369762568
 20
-29.8241080222
 10
4.3382659581
 20
-29.9223682404
 10
4.3389904414
 20
-30.0155282348
 10
4.3391438222
 20
-30.103015435
 10
4.3387191482
 20
-30.1840321521
 10
4.3377151737
 20
-30.257637888
 10
4.336136245
 20
-30.3232370442
 10
4.3339988692
 20
-30.3804697286
 10
4.3313300613
 20
-30.4288873403
 10
4.3281561382
 20
-30.4681871698
 10
4.3244983073
 20
-30.4981440874
 10
4.320379361
 20
-30.5184965704
  0
LINE
  5
3FE
100
AcDbEntity
  8
0
100
AcDbLine
 62
7
  6
CONTINUOUS
 10
-0.0370970789
 20
14.7360228094
 11
-0.0370970789
 21
18.9862138094
  0
LWPOLYLINE
  5
3FF
100
AcDbEntity
  8
0
100
AcDbPolyline
 62
7
  6
CONTINUOUS
 90
4
 70
0
 43
0.3499999917
 10
1.0538951826
 20
38.7198083496
 10
1.0538951826
 20
39.5769515991
 10
1.4824666071
 20
40.0055264282
 10
2.1253237438
 20
40.0055264282
  0
LWPOLYLINE
  5
400
100
AcDbEntity
  8
RACCORDO
100
AcDbPolyline
 62
250
  6
CONTINUOUS
 90
22
 70
0
 10
2.5269539214
 20
2.0111279443
 10
2.5149638782
 20
1.7286733455
 10
2.4815828239
 20
1.4519279577
 10
2.4268105738
 20
1.1808917809
 10
2.3489893811
 20
0.9128911325
 10
2.2497762686
 20
0.6505996949
 10
2.1341431754
 20
0.402038516
 10
2.0022514462
 20
0.1694007394
 10
1.8539388879
 20
-0.0495067782
 10
1.6936923606
 20
-0.2532424198
 10
1.522239401
 20
-0.4412521198
 10
1.3388519241
 20
-0.6140899434
 10
1.1458336091
 20
-0.7719764686
 10
0.9436058638
 20
-0.9151609784
 10
0.7317470695
 20
-1.0433941894
 10
0.5112965349
 20
-1.1561488304
 10
0.2823071297
 20
-1.2539049665
 10
0.0447261236
 20
-1.3361825324
 10
-0.2005654419
 20
-1.4010140612
 10
-0.4532736966
 20
-1.4477437305
 10
-0.7136919567
 20
-1.4770273627
 10
-0.9818198392
 20
-1.4888649579
  0
LINE
  5
401
100
AcDbEntity
  8
0
100
AcDbLine
 62
7
  6
CONTINUOUS
 10
-2.1157930789
 20
16.2183378094
 11
-1.3221170789
 21
18.9862138094
  0
LINE
  5
402
100
AcDbEntity
  8
0
100
AcDbLine
 62
7
  6
CONTINUOUS
 10
-1.6907930789
 20
14.7360328094
 11
-0.8871400789
 21
17.5387378094
  0
LWPOLYLINE
  5
403
100
AcDbEntity
  8
0
100
AcDbPolyline
 62
7
  6
CONTINUOUS
 90
10
 70
0
 43
0.3499999917
 10
-0.0175333645
 20
38.791239624
 10
0.0538952047
 20
38.6483834839
 10
0.0538952047
 20
38.5769522095
 10
-0.0889619368
 20
38.4340960693
 10
-0.1603905076
 20
38.4340960693
 10
-0.2318190908
 20
38.5055273437
 10
-0.2318190908
 20
38.5769522095
 10
-0.1603905076
 20
38.7198083496
 10
-0.0889619368
 20
38.791239624
 10
-0.0175333645
 20
38.791239624
  0
LWPOLYLINE
  5
404
100
AcDbEntity
  8
0
100
AcDbPolyline
 62
250
  6
CONTINUOUS
 90
13
 70
0
 10
8.309608658
 20
-29.4806956153
 10
8.3133906904
 20
-29.5870350978
 10
8.3161728748
 20
-29.6888886311
 10
8.3179414317
 20
-29.7855456939
 10
8.3186828544
 20
-29.8763773375
 10
8.3183810295
 20
-29.9605509442
 10
8.3170278855
 20
-30.0371027188
 10
8.3146262615
 20
-30.1053956933
 10
8.3112043233
 20
-30.1650052303
 10
8.3068093496
 20
-30.2154223808
 10
8.3014881824
 20
-30.2562999217
 10
8.2952786323
 20
-30.2873763686
 10
8.2882212841
 20
-30.3083493496
  0
LINE
  5
405
100
AcDbEntity
  8
RACCORDO
100
AcDbLine
 62
7
  6
CONTINUOUS
 10
4.3181809211
 20
-33.388871242
 11
4.3181809211
 21
-32.8191440557
  0
LINE
  5
406
100
AcDbEntity
  8
0
100
AcDbLine
 62
7
  6
CONTINUOUS
 10
4.3181809211
 20
-33.388871242
 11
4.3181809211
 21
-32.8191440557
  0
LINE
  5
407
100
AcDbEntity
  8
0
100
AcDbLine
 62
7
  6
CONTINUOUS
 10
4.6755259211
 20
14.7360328094
 11
4.6755259211
 21
18.9862248094
  0
LINE
  5
408
100
AcDbEntity
  8
RACCORDO
100
AcDbLine
 62
7
  6
CONTINUOUS
 10
5.0681809211
 20
-31.8904352708
 11
5.0681809211
 21
-31.1788200088
  0
LINE
  5
409
100
AcDbEntity
  8
0
100
AcDbLine
 62
7
  6
CONTINUOUS
 10
5.0681809211
 20
-31.8904352708
 11
5.0681809211
 21
-31.1788200088
  0
LINE
  5
40A
100
AcDbEntity
  8
0
100
AcDbLine
 62
7
  6
CONTINUOUS
 10
5.5138389211
 20
18.1999428094
 11
5.5138489211
 21
17.1656838094
  0
LINE
  5
40B
100
AcDbEntity
  8
0
100
AcDbLine
 62
7
  6
CONTINUOUS
 10
5.5255689211
 20
14.7360328094
 11
5.5256639211
 21
16.3794018094
  0
LINE
  5
40C
100
AcDbEntity
  8
0
100
AcDbLine
 62
7
  6
CONTINUOUS
 10
-1.2098720682
 20
3.3838625917
 11
-1.2512911215
 21
3.1735243886
  0
LINE
  5
40D
100
AcDbEntity
  8
0
100
AcDbLine
 62
7
  6
CONTINUOUS
 10
-0.7537660897
 20
0.638395027
 11
-0.7123470364
 21
0.8487332302
  0
LWPOLYLINE
  5
40E
100
AcDbEntity
  8
0
100
AcDbPolyline
 62
250
  6
CONTINUOUS
 90
16
 70
0
 10
-10.4041371286
 20
-29.470511788
 10
-10.2345198991
 20
-28.872850147
 10
-10.0405921173
 20
-28.2497695858
 10
-9.8258023822
 20
-27.6022910244
 10
-9.5917672985
 20
-26.9274580173
 10
-9.342692073
 20
-26.2302910888
 10
-9.0860485711
 20
-25.524379289
 10
-8.8237223573
 20
-24.8076870836
 10
-8.5595587246
 20
-24.0838330582
 10
-8.3041766611
 20
-23.3752025175
 10
-8.0626566827
 20
-22.6897582859
 10
-7.8348048777
 20
-22.0210971509
 10
-7.6230657422
 20
-21.3700629675
 10
-7.430021916
 20
-20.7376942442
 10
-7.2583395818
 20
-20.1242255969
 10
-7.1116818461
 20
-19.5327696806
  0
LINE
  5
40F
100
AcDbEntity
  8
0
100
AcDbLine
 62
7
  6
CONTINUOUS
 10
0.5295869211
 20
14.7360228094
 11
1.8941669211
 21
18.9862248094
  0
LINE
  5
410
100
AcDbEntity
  8
0
100
AcDbLine
 62
7
  6
CONTINUOUS
 10
1.9072569211
 20
16.3793908094
 11
2.3191989211
 21
17.6625088094
  0
LINE
  5
411
100
AcDbEntity
  8
0
100
AcDbLine
 62
7
  6
CONTINUOUS
 10
1.3796189211
 20
14.7360328094
 11
1.6479749211
 21
15.5718598094
  0
LWPOLYLINE
  5
412
100
AcDbEntity
  8
0
100
AcDbPolyline
 62
7
  6
CONTINUOUS
 90
3
 70
0
 43
0.3499999917
 10
-3.8746763992
 20
38.9340957642
 10
-5.3746762848
 20
38.9340957642
 10
-4.7318192482
 20
41.2912380981
  0
LWPOLYLINE
  5
413
100
AcDbEntity
  8
0
100
AcDbPolyline
 62
7
  6
CONTINUOUS
 90
13
 70
0
 43
0.3499999917
 10
1.4824666071
 20
40.0055264282
 10
1.1967523241
 20
40.2198138428
 10
1.1967523241
 20
40.8626696777
 10
1.4824666071
 20
41.2912380981
 10
2.1253237438
 20
41.2912380981
 10
2.4110380268
 20
40.8626696777
 10
2.4110380268
 20
40.2198138428
 10
2.1253237438
 20
40.0055264282
 10
2.5538951683
 20
39.5769515991
 10
2.5538951683
 20
38.7198083496
 10
2.1253237438
 20
38.2912399292
 10
1.4824666071
 20
38.2912399292
 10
1.0538951826
 20
38.7198083496
  0
LWPOLYLINE
  5
414
100
AcDbEntity
  8
0
100
AcDbPolyline
 62
7
  6
CONTINUOUS
 90
7
 70
0
 10
14.3585793168
 20
-4.9572656344
 10
14.3586921294
 20
-4.9588285475
 10
14.3586710509
 20
-4.9604283533
 10
14.3585954435
 20
-4.9620576877
 10
14.3585053963
 20
-4.9637019099
 10
14.3584236597
 20
-4.9653500766
 10
14.3583444855
 20
-4.9687349233
  0
LINE
  5
415
100
AcDbEntity
  8
0
100
AcDbLine
 62
250
  6
CONTINUOUS
 10
10.8185230427
 20
-3.3587052026
 11
10.8185225813
 21
26.9988520775
  0
LINE
  5
416
100
AcDbEntity
  8
RACCORDO
100
AcDbLine
 62
250
  6
CONTINUOUS
 10
12.0181809211
 20
27.7111288094
 11
12.0181809211
 21
27.5128738506
  0
LWPOLYLINE
  5
417
100
AcDbEntity
  8
0
100
AcDbPolyline
 62
250
  6
CONTINUOUS
 90
4
 70
0
 10
10.8063190461
 20
-12.3724702747
 10
10.813562698
 20
-9.4072524356
 10
10.8176302524
 20
-6.4023408998
 10
10.8185230427
 20
-3.3587052026
  0
LWPOLYLINE
  5
418
100
AcDbEntity
  8
0
100
AcDbPolyline
 62
250
  6
CONTINUOUS
 90
10
 70
0
 10
8.7678123083
 20
-29.7491275151
 10
8.767348497
 20
-29.8408588101
 10
8.7652461399
 20
-29.9259696897
 10
8.76180936
 20
-30.0035580913
 10
8.7572874406
 20
-30.07286763
 10
8.7517111227
 20
-30.1333611513
 10
8.7450641769
 20
-30.1845139624
 10
8.7373438392
 20
-30.2259146937
 10
8.7285998066
 20
-30.2573564454
 10
8.7188978794
 20
-30.2786545049
  0
LINE
  5
419
100
AcDbEntity
  8
0
100
AcDbLine
 62
7
  6
CONTINUOUS
 10
-2.1467781752
 20
1.7360621184
 11
-2.1268163558
 21
1.7829805813
  0
LINE
  5
41A
100
AcDbEntity
  8
0
100
AcDbLine
 62
7
  6
CONTINUOUS
 10
0.1831400173
 20
2.2861955004
 11
0.1631781979
 21
2.2392770375
  0
LINE
  5
41B
100
AcDbEntity
  8
0
100
AcDbLine
 62
7
  6
CONTINUOUS
 10
-2.1669500437
 20
1.6892551369
 11
-2.1467781752
 21
1.7360621184
  0
LINE
  5
41C
100
AcDbEntity
  8
0
100
AcDbLine
 62
7
  6
CONTINUOUS
 10
0.2033118859
 20
2.3330024819
 11
0.1831400173
 21
2.2861955004
  0
LWPOLYLINE
  5
41D
100
AcDbEntity
  8
0
100
AcDbPolyline
 62
250
  6
CONTINUOUS
 90
6
 70
0
 10
-14.2996668592
 20
-26.812411549
 10
-14.0391101824
 20
-26.2168376699
 10
-13.7497328336
 20
-25.6044500877
 10
-13.4375890496
 20
-24.9768483475
 10
-13.1045277817
 20
-24.3297299271
 10
-12.7581356995
 20
-23.6709252927
  0
LINE
  5
41E
100
AcDbEntity
  8
0
100
AcDbLine
 62
7
  6
CONTINUOUS
 10
-2.1873319614
 20
1.642559637
 11
-2.1669500437
 21
1.6892551369
  0
LINE
  5
41F
100
AcDbEntity
  8
0
100
AcDbLine
 62
7
  6
CONTINUOUS
 10
0.2236938035
 20
2.3796979818
 11
0.2033118859
 21
2.3330024819
  0
LINE
  5
420
100
AcDbEntity
  8
0
100
AcDbLine
 62
7
  6
CONTINUOUS
 10
-2.1699809758
 20
1.630549764
 11
-2.1039253727
 21
1.7723064269
  0
LINE
  5
421
100
AcDbEntity
  8
0
100
AcDbLine
 62
7
  6
CONTINUOUS
 10
0.2063428179
 20
2.3917078548
 11
0.1402872148
 21
2.2499511919
  0
LINE
  5
422
100
AcDbEntity
  8
TRASH
100
AcDbLine
 62
7
  6
CONTINUOUS
 10
-1.5015365139
 20
2.5308555916
 11
-1.209967307
 21
3.1561260863
  0
LINE
  5
423
100
AcDbEntity
  8
TRASH
100
AcDbLine
 62
7
  6
CONTINUOUS
 10
-0.462101644
 20
1.4914020271
 11
-0.7536708509
 21
0.8661315325
  0
LINE
  5
424
100
AcDbEntity
  8
0
100
AcDbLine
 62
7
  6
CONTINUOUS
 10
-1.5073659022
 20
2.6778998644
 11
-1.5540726596
 21
2.5833823057
  0
LINE
  5
425
100
AcDbEntity
  8
0
100
AcDbLine
 62
7
  6
CONTINUOUS
 10
-0.4562722557
 20
1.3443577544
 11
-0.4095654983
 21
1.4388753131
  0
LINE
  5
426
100
AcDbEntity
  8
0
100
AcDbLine
 62
7
  6
CONTINUOUS
 10
-1.4602764007
 20
2.7719103884
 11
-1.5073659022
 21
2.6778998644
  0
LINE
  5
427
100
AcDbEntity
  8
0
100
AcDbLine
 62
7
  6
CONTINUOUS
 10
-0.5033617572
 20
1.2503472304
 11
-0.4562722557
 21
1.3443577544
  0
LINE
  5
428
100
AcDbEntity
  8
0
100
AcDbLine
 62
7
  6
CONTINUOUS
 10
-1.6383151193
 20
2.6676246875
 11
-1.6101577772
 21
2.7237928806
  0
LINE
  5
429
100
AcDbEntity
  8
0
100
AcDbLine
 62
7
  6
CONTINUOUS
 10
-0.3253230386
 20
1.3546329313
 11
-0.3534803807
 21
1.2984647381
  0
LINE
  5
42A
100
AcDbEntity
  8
0
100
AcDbLine
 62
7
  6
CONTINUOUS
 10
-1.6101577772
 20
2.7237928806
 11
-1.5818190789
 21
2.7797533089
  0
LINE
  5
42B
100
AcDbEntity
  8
0
100
AcDbLine
 62
7
  6
CONTINUOUS
 10
-0.3534803807
 20
1.2984647381
 11
-0.3818190789
 21
1.2425043099
  0
LINE
  5
42C
100
AcDbEntity
  8
0
100
AcDbLine
 62
7
  6
CONTINUOUS
 10
-1.4003649875
 20
2.8900839237
 11
-1.4602764007
 21
2.7719103884
  0
LINE
  5
42D
100
AcDbEntity
  8
0
100
AcDbLine
 62
7
  6
CONTINUOUS
 10
-0.5632731704
 20
1.1321736951
 11
-0.5033617572
 21
1.2503472304
  0
LINE
  5
42E
100
AcDbEntity
  8
0
100
AcDbLine
 62
7
  6
CONTINUOUS
 10
-1.3144140567
 20
3.0575828217
 11
-1.4003649875
 21
2.8900839237
  0
LINE
  5
42F
100
AcDbEntity
  8
0
100
AcDbLine
 62
7
  6
CONTINUOUS
 10
-0.6492241012
 20
0.9646747971
 11
-0.5632731704
 21
1.1321736951
  0
LINE
  5
430
100
AcDbEntity
  8
0
100
AcDbLine
 62
7
  6
CONTINUOUS
 10
-0.6740573438
 20
0.9166096108
 11
-0.6492241012
 21
0.9646747971
  0
LINE
  5
431
100
AcDbEntity
  8
0
100
AcDbLine
 62
7
  6
CONTINUOUS
 10
-1.2646784346
 20
3.1537232666
 11
-1.3144140567
 21
3.0575828217
  0
LWPOLYLINE
  5
432
100
AcDbEntity
  8
0
100
AcDbPolyline
 62
250
  6
CONTINUOUS
 90
16
 70
0
 10
17.8832442183
 20
27.006747557
 10
17.8824958709
 20
27.0593538607
 10
17.8804617227
 20
27.1109460582
 10
17.8771916336
 20
27.1611771695
 10
17.8727366579
 20
27.2097412289
 10
17.8671504737
 20
27.256188394
 10
17.8605053491
 20
27.2998923816
 10
17.8529040476
 20
27.3402379622
 10
17.8444076551
 20
27.3768711638
 10
17.835041999
 20
27.4096116813
 10
17.8248860192
 20
27.4382035696
 10
17.8140847068
 20
27.4621927329
 10
17.8027778037
 20
27.4811879675
 10
17.7910816813
 20
27.4950047473
 10
17.779089845
 20
27.5035553387
 10
17.7669025932
 20
27.5067285131
  0
LINE
  5
433
100
AcDbEntity
  8
0
100
AcDbLine
 62
7
  6
CONTINUOUS
 10
17.1181809211
 20
27.4826486769
 11
17.1181809211
 21
27.5041473151
  0
LINE
  5
434
100
AcDbEntity
  8
0
100
AcDbLine
 62
250
  6
CONTINUOUS
 10
17.8832443206
 20
27.0067475422
 11
17.8832443211
 21
-2.9028711885
  0
LWPOLYLINE
  5
435
100
AcDbEntity
  8
0
100
AcDbPolyline
 62
250
  6
CONTINUOUS
 90
4
 70
0
 10
17.8784809859
 20
-3.3571560439
 10
17.8773614807
 20
-3.8089158272
 10
17.8763749222
 20
-3.9589614005
 10
17.8745070665
 20
-4.1087435135
  0
LWPOLYLINE
  5
436
100
AcDbEntity
  8
0
100
AcDbPolyline
 62
250
  6
CONTINUOUS
 90
5
 70
0
 10
14.4080561529
 20
-2.902871191
 10
14.4071786608
 20
-3.0366447195
 10
14.4056210821
 20
-3.1668168993
 10
14.4033880938
 20
-3.293352998
 10
14.4002249017
 20
-3.4164199677
  0
LWPOLYLINE
  5
437
100
AcDbEntity
  8
0
100
AcDbPolyline
 62
7
  6
CONTINUOUS
 90
3
 70
0
 10
14.3583444855
 20
-4.9687349233
 10
14.3583188342
 20
-4.9704965578
 10
14.3583987463
 20
-4.9723230679
  0
LWPOLYLINE
  5
438
100
AcDbEntity
  8
0
100
AcDbPolyline
 62
250
  6
CONTINUOUS
 90
3
 70
0
 10
14.3583987465
 20
-4.9723230123
 10
14.3562403555
 20
-5.0871779865
 10
14.3436243163
 20
-5.9751166729
  0
LINE
  5
439
100
AcDbEntity
  8
0
100
AcDbLine
 62
250
  6
CONTINUOUS
 10
14.3436243163
 20
-5.9751166729
 11
14.3433590967
 21
-5.9871242015
  0
LWPOLYLINE
  5
43A
100
AcDbEntity
  8
0
100
AcDbPolyline
 62
250
  6
CONTINUOUS
 90
3
 70
0
 10
14.3829910432
 20
-3.9694905873
 10
14.3807033641
 20
-4.0684801385
 10
14.3775357813
 20
-4.2556749812
  0
LINE
  5
43B
100
AcDbEntity
  8
0
100
AcDbLine
 62
250
  6
CONTINUOUS
 10
14.3635718847
 20
-4.7192847671
 11
14.3582670675
 21
-4.9572618216
  0
LINE
  5
43C
100
AcDbEntity
  8
0
100
AcDbLine
 62
250
  6
CONTINUOUS
 10
14.3699227066
 20
-4.4853911614
 11
14.3635718847
 21
-4.7192847671
  0
LINE
  5
43D
100
AcDbEntity
  8
0
100
AcDbLine
 62
250
  6
CONTINUOUS
 10
14.4002249017
 20
-3.4164199677
 11
14.3829910432
 21
-3.9694905873
  0
LWPOLYLINE
  5
43E
100
AcDbEntity
  8
0
100
AcDbPolyline
 62
250
  6
CONTINUOUS
 90
3
 70
0
 10
14.377731137
 20
-4.2556846024
 10
14.3749661119
 20
-4.3317882162
 10
14.3699227066
 20
-4.4853911614
  0
LWPOLYLINE
  5
43F
100
AcDbEntity
  8
0
100
AcDbPolyline
 62
250
  6
CONTINUOUS
 90
22
 70
0
 10
14.3433590967
 20
-5.9871242015
 10
14.3140004702
 20
-6.6753402783
 10
14.2544866608
 20
-7.3535611964
 10
14.1660364265
 20
-8.0202087995
 10
14.0505803452
 20
-8.6706037676
 10
13.9088645983
 20
-9.3065970692
 10
13.7393349226
 20
-9.9356996485
 10
13.5411536091
 20
-10.5578006634
 10
13.31537637
 20
-11.1695368679
 10
13.0618771333
 20
-11.773195695
 10
12.7800988293
 20
-12.3680115959
 10
12.4703383129
 20
-12.9515368992
 10
12.1333970583
 20
-13.5238495998
 10
11.7690075224
 20
-14.0842273341
 10
11.3773907504
 20
-14.6305076104
 10
10.9603560641
 20
-15.1611005822
 10
10.5176092051
 20
-15.6759021049
 10
10.0501181086
 20
-16.1725274003
 10
9.5622659401
 20
-16.6469127394
 10
9.0563541177
 20
-17.0975965245
 10
8.5323912615
 20
-17.5248105069
 10
8.3702624332
 20
-17.6491310258
  0
LINE
  5
440
100
AcDbEntity
  8
0
100
AcDbLine
 62
7
  6
CONTINUOUS
 10
-0.6989597233
 20
0.8685343522
 11
-0.6740573438
 21
0.9166096108
  0
LWPOLYLINE
  5
441
100
AcDbEntity
  8
0
100
AcDbPolyline
 62
250
  6
CONTINUOUS
 90
10
 70
0
 10
-12.7581356995
 20
-23.6709252927
 10
-12.0755515123
 20
-22.3874069745
 10
-11.7465222697
 20
-21.7652954972
 10
-11.432102892
 20
-21.1624616115
 10
-11.137395959
 20
-20.5849615728
 10
-10.8618342619
 20
-20.0283886372
 10
-10.603126246
 20
-19.4841987697
 10
-10.3627812954
 20
-18.9505165749
 10
-10.1451844219
 20
-18.4304406076
 10
-9.9550061384
 20
-17.9280757899
  0
LINE
  5
442
100
AcDbEntity
  8
0
100
AcDbLine
 62
7
  6
CONTINUOUS
 10
-1.2512911215
 20
3.1735243886
 11
-1.2646784346
 21
3.1537232666
  0
LINE
  5
443
100
AcDbEntity
  8
0
100
AcDbLine
 62
7
  6
CONTINUOUS
 10
-0.7123470364
 20
0.8487332302
 11
-0.6989597233
 21
0.8685343522
  0
LWPOLYLINE
  5
444
100
AcDbEntity
  8
0
100
AcDbPolyline
 62
7
  6
CONTINUOUS
 90
10
 70
0
 10
19.4177540476
 20
27.0826701117
 10
19.4109671064
 20
27.0748573715
 10
19.3906079356
 20
27.0670499622
 10
19.3566813089
 20
27.0592478838
 10
19.3091949938
 20
27.0514493635
 10
19.2481599385
 20
27.0436561741
 10
19.1735904576
 20
27.035873634
 10
19.0855038887
 20
27.0281035162
 10
18.9839204004
 20
27.0203440477
 10
18.8688633079
 20
27.0125952287
  0
LINE
  5
445
100
AcDbEntity
  8
0
100
AcDbLine
 62
250
  6
CONTINUOUS
 10
18.9098026689
 20
27.5746494189
 11
18.917804401
 21
27.5826891252
  0
LWPOLYLINE
  5
446
100
AcDbEntity
  8
0
100
AcDbPolyline
 62
7
  6
CONTINUOUS
 90
10
 70
0
 43
0.3499999917
 10
-33.0479200745
 20
-2.5960141754
 10
-32.9050639343
 20
-2.5245861053
 10
-32.8336358643
 20
-2.5245861053
 10
-32.6907797241
 20
-2.6674422455
 10
-32.6907797241
 20
-2.7388719177
 10
-32.7622077942
 20
-2.8102999878
 10
-32.8336358643
 20
-2.8102999878
 10
-32.9764920044
 20
-2.7388719177
 10
-33.0479200745
 20
-2.6674422455
 10
-33.0479200745
 20
-2.5960141754
  0
LINE
  5
447
100
AcDbEntity
  8
0
100
AcDbLine
 62
250
  6
CONTINUOUS
 10
17.8612705893
 20
-4.7984338417
 11
17.859159297
 21
-4.7802753169
  0
LWPOLYLINE
  5
448
100
AcDbEntity
  8
0
100
AcDbPolyline
 62
7
  6
CONTINUOUS
 90
16
 70
0
 10
19.4177540476
 20
27.0827217306
 10
19.4144466537
 20
27.1356901445
 10
19.4059623655
 20
27.1870087489
 10
19.3923011831
 20
27.2366775439
 10
19.373193403
 20
27.2852304124
 10
19.3489087286
 20
27.3321334713
 10
19.3202562703
 20
27.3757850721
 10
19.2870603305
 20
27.4160551419
 10
19.2494966069
 20
27.4530737535
 10
19.2089013033
 20
27.4856294761
 10
19.1655373813
 20
27.5134387761
 10
19.1191418793
 20
27.536785187
 10
19.0702621156
 20
27.5553078786
 10
19.0190805298
 20
27.5688865742
 10
18.9654146823
 20
27.5776415505
 10
18.9092645731
 20
27.5815728075
  0
LINE
  5
449
100
AcDbEntity
  8
0
100
AcDbLine
 62
250
  6
CONTINUOUS
 10
18.8688636266
 20
-2.902871191
 11
18.8688636249
 21
27.0125952293
  0
LINE
  5
44A
100
AcDbEntity
  8
0
100
AcDbLine
 62
7
  6
CONTINUOUS
 10
19.4177540476
 20
-2.9028752493
 11
19.4177540476
 21
27.0827217306
  0
LINE
  5
44B
100
AcDbEntity
  8
0
100
AcDbLine
 62
7
  6
CONTINUOUS
 10
18.8688633015
 20
-2.902871191
 11
18.8688555717
 21
-2.9138611285
  0
LINE
  5
44C
100
AcDbEntity
  8
0
100
AcDbLine
 62
250
  6
CONTINUOUS
 10
18.8688532162
 20
-2.9138611227
 11
18.8674557965
 21
-3.220802033
  0
LINE
  5
44D
100
AcDbEntity
  8
0
100
AcDbLine
 62
250
  6
CONTINUOUS
 10
18.8674557965
 20
-3.220802033
 11
18.8642916296
 21
-3.5277311523
  0
LINE
  5
44E
100
AcDbEntity
  8
0
100
AcDbLine
 62
250
  6
CONTINUOUS
 10
18.8642916296
 20
-3.5277311523
 11
18.8593608045
 21
-3.8346387511
  0
LWPOLYLINE
  5
44F
100
AcDbEntity
  8
0
100
AcDbPolyline
 62
250
  6
CONTINUOUS
 90
7
 70
0
 10
17.8745070665
 20
-4.1087435135
 10
17.8702052579
 20
-4.345504493
 10
17.8679368187
 20
-4.4325935372
 10
17.8652030485
 20
-4.5195522822
 10
17.8629367521
 20
-4.6065094504
 10
17.8620345001
 20
-4.693588158
 10
17.859159297
 20
-4.7802753169
  0
LWPOLYLINE
  5
450
100
AcDbEntity
  8
0
100
AcDbPolyline
 62
250
  6
CONTINUOUS
 90
4
 70
0
 10
17.8842631238
 20
-2.9028711855
 10
17.8812187889
 20
-3.0545874156
 10
17.8794124948
 20
-3.2060142095
 10
17.8784809859
 20
-3.3571560439
  0
LINE
  5
451
100
AcDbEntity
  8
0
100
AcDbLine
 62
250
  6
CONTINUOUS
 10
18.8593608045
 20
-3.8346387511
 11
18.8526634299
 21
-4.1415158948
  0
LINE
  5
452
100
AcDbEntity
  8
0
100
AcDbLine
 62
250
  6
CONTINUOUS
 10
18.8526634299
 20
-4.1415158948
 11
18.8451435623
 21
-4.4170856948
  0
LWPOLYLINE
  5
453
100
AcDbEntity
  8
0
100
AcDbPolyline
 62
250
  6
CONTINUOUS
 90
6
 70
0
 10
17.8612705893
 20
-4.7984338417
 10
17.8548489556
 20
-5.0101595524
 10
17.8472804164
 20
-5.2217324473
 10
17.8385669985
 20
-5.4331336105
 10
17.8285231317
 20
-5.6443038903
 10
17.8173401998
 20
-5.8552620489
  0
LINE
  5
454
100
AcDbEntity
  8
0
100
AcDbLine
 62
250
  6
CONTINUOUS
 10
18.8451435623
 20
-4.4170856948
 11
18.8372873683
 21
-4.6613522924
  0
LINE
  5
455
100
AcDbEntity
  8
0
100
AcDbLine
 62
250
  6
CONTINUOUS
 10
18.8372873683
 20
-4.6613522924
 11
18.8306614911
 21
-4.8445279614
  0
LWPOLYLINE
  5
456
100
AcDbEntity
  8
0
100
AcDbPolyline
 62
250
  6
CONTINUOUS
 90
10
 70
0
 10
18.8306614911
 20
-4.8445279614
 10
18.8221136557
 20
-5.0587257326
 10
18.8127074213
 20
-5.2728878551
 10
18.8024429359
 20
-5.4870109596
 10
18.7913203705
 20
-5.7010914969
 10
18.7793398884
 20
-5.9151262802
 10
18.7665016376
 20
-6.1291124851
 10
18.7528057956
 20
-6.3430469253
 10
18.7382525756
 20
-6.5569260539
 10
18.7228421919
 20
-6.7707465054
  0
LINE
  5
457
100
AcDbEntity
  8
0
100
AcDbLine
 62
250
  6
CONTINUOUS
 10
17.7674148601
 20
-6.6985503706
 11
17.7610203948
 21
-6.8566689422
  0
LINE
  5
458
100
AcDbEntity
  8
0
100
AcDbLine
 62
250
  6
CONTINUOUS
 10
17.7610203948
 20
-6.8566689422
 11
17.7535648678
 21
-7.0158653149
  0
LINE
  5
459
100
AcDbEntity
  8
0
100
AcDbLine
 62
250
  6
CONTINUOUS
 10
17.7535648678
 20
-7.0158653149
 11
17.7450261185
 21
-7.1761180023
  0
LWPOLYLINE
  5
45A
100
AcDbEntity
  8
0
100
AcDbPolyline
 62
250
  6
CONTINUOUS
 90
4
 70
0
 10
17.8173401998
 20
-5.8552620489
 10
17.7934372002
 20
-6.276990139
 10
17.7807150081
 20
-6.4877908876
 10
17.7674148601
 20
-6.6985503706
  0
LINE
  5
45B
100
AcDbEntity
  8
0
100
AcDbLine
 62
250
  6
CONTINUOUS
 10
17.6351476029
 20
-8.5100075408
 11
17.6077176153
 21
-8.8828201655
  0
LWPOLYLINE
  5
45C
100
AcDbEntity
  8
0
100
AcDbPolyline
 62
250
  6
CONTINUOUS
 90
10
 70
0
 10
18.7228421919
 20
-6.7707465054
 10
18.7022636073
 20
-7.0392444804
 10
18.680344524
 20
-7.307635468
 10
18.6570854838
 20
-7.5759129749
 10
18.6324870527
 20
-7.8440705111
 10
18.6065498277
 20
-8.1121015868
 10
18.5792744361
 20
-8.3799997127
 10
18.550661528
 20
-8.6477584038
 10
18.5207117753
 20
-8.9153711797
 10
18.4894258789
 20
-9.1828315615
  0
LINE
  5
45D
100
AcDbEntity
  8
0
100
AcDbLine
 62
250
  6
CONTINUOUS
 10
17.6077176153
 20
-8.8828201655
 11
17.5923571007
 21
-9.0835658549
  0
LINE
  5
45E
100
AcDbEntity
  8
0
100
AcDbLine
 62
250
  6
CONTINUOUS
 10
17.7536162584
 20
-7.1791475356
 11
17.7289180339
 21
-7.4727103222
  0
LWPOLYLINE
  5
45F
100
AcDbEntity
  8
0
100
AcDbPolyline
 62
250
  6
CONTINUOUS
 90
4
 70
0
 10
17.6657402114
 20
-8.1397853708
 10
17.6574790117
 20
-8.2298123796
 10
17.649648702
 20
-8.3231299191
 10
17.6351476029
 20
-8.5100075408
  0
LINE
  5
460
100
AcDbEntity
  8
0
100
AcDbLine
 62
250
  6
CONTINUOUS
 10
17.7289180339
 20
-7.4727103222
 11
17.7054686329
 21
-7.7301411185
  0
LWPOLYLINE
  5
461
100
AcDbEntity
  8
0
100
AcDbPolyline
 62
250
  6
CONTINUOUS
 90
3
 70
0
 10
17.5148150469
 20
-9.7460454246
 10
17.4985384783
 20
-9.9218872333
 10
17.4913664425
 20
-9.9883368455
  0
LINE
  5
462
100
AcDbEntity
  8
0
100
AcDbLine
 62
250
  6
CONTINUOUS
 10
17.7054686329
 20
-7.7301411185
 11
17.6657402114
 21
-8.1397853708
  0
LINE
  5
463
100
AcDbEntity
  8
0
100
AcDbLine
 62
250
  6
CONTINUOUS
 10
17.5276593179
 20
-9.6245054683
 11
17.5148150469
 21
-9.7460454246
  0
LINE
  5
464
100
AcDbEntity
  8
0
100
AcDbLine
 62
250
  6
CONTINUOUS
 10
17.4913664425
 20
-9.9883368455
 11
17.4783885612
 21
-10.1001920543
  0
LWPOLYLINE
  5
465
100
AcDbEntity
  8
0
100
AcDbPolyline
 62
250
  6
CONTINUOUS
 90
3
 70
0
 10
17.5923571007
 20
-9.0835658549
 10
17.5672942424
 20
-9.291017768
 10
17.5276593179
 20
-9.6245054683
  0
LINE
  5
466
100
AcDbEntity
  8
0
100
AcDbLine
 62
250
  6
CONTINUOUS
 10
17.4783885612
 20
-10.1001920543
 11
17.4507088911
 21
-10.327575149
  0
LINE
  5
467
100
AcDbEntity
  8
0
100
AcDbLine
 62
250
  6
CONTINUOUS
 10
17.4507088911
 20
-10.327575149
 11
17.4220724201
 21
-10.5538495602
  0
LINE
  5
468
100
AcDbEntity
  8
0
100
AcDbLine
 62
250
  6
CONTINUOUS
 10
14.1562515295
 20
-5.9681856541
 11
14.1267471239
 21
-6.1485510607
  0
LINE
  5
469
100
AcDbEntity
  8
0
100
AcDbLine
 62
250
  6
CONTINUOUS
 10
14.1267471239
 20
-6.1485510607
 11
14.0963107687
 21
-6.3271585013
  0
LINE
  5
46A
100
AcDbEntity
  8
0
100
AcDbLine
 62
250
  6
CONTINUOUS
 10
14.0963107687
 20
-6.3271585013
 11
14.064873963
 21
-6.5039588579
  0
LWPOLYLINE
  5
46B
100
AcDbEntity
  8
0
100
AcDbPolyline
 62
250
  6
CONTINUOUS
 90
6
 70
0
 10
14.2883526751
 20
-5.1712910692
 10
14.2726262582
 20
-5.2554608975
 10
14.257248923
 20
-5.3408195727
 10
14.2422236105
 20
-5.4273654745
 10
14.2276267887
 20
-5.5152875972
 10
14.1562358491
 20
-5.968184696
  0
LWPOLYLINE
  5
46C
100
AcDbEntity
  8
0
100
AcDbPolyline
 62
250
  6
CONTINUOUS
 90
3
 70
0
 10
14.064873963
 20
-6.5039588579
 10
14.032206074
 20
-6.678883258
 10
14.0154430558
 20
-6.7656463383
  0
LWPOLYLINE
  5
46D
100
AcDbEntity
  8
0
100
AcDbPolyline
 62
250
  6
CONTINUOUS
 90
10
 70
0
 10
14.0154430558
 20
-6.7656463383
 10
13.9186658664
 20
-7.2353626244
 10
13.8103227488
 20
-7.6950460804
 10
13.6911409855
 20
-8.1445406104
 10
13.5627488172
 20
-8.5821000329
 10
13.4251381076
 20
-9.0094765151
 10
13.2761732669
 20
-9.4316017567
 10
13.1151421407
 20
-9.8498733006
 10
12.9432724046
 20
-10.262442237
 10
12.7608665938
 20
-10.6691317028
  0
LINE
  5
46E
100
AcDbEntity
  8
0
100
AcDbLine
 62
250
  6
CONTINUOUS
 10
-14.967580289
 20
-28.1686316582
 11
-14.969704687
 21
-28.1720057549
  0
LINE
  5
46F
100
AcDbEntity
  8
0
100
AcDbLine
 62
250
  6
CONTINUOUS
 10
-14.6605197944
 20
-27.6943097936
 11
-14.967580289
 21
-28.1686316582
  0
LINE
  5
470
100
AcDbEntity
  8
0
100
AcDbLine
 62
7
  6
CONTINUOUS
 10
-1.5540726767
 20
1.4388752076
 11
-1.5015425631
 21
1.4914053252
  0
LINE
  5
471
100
AcDbEntity
  8
0
100
AcDbLine
 62
7
  6
CONTINUOUS
 10
-0.4620955948
 20
2.5308522936
 11
-0.4095654812
 21
2.5833824111
  0
LINE
  5
472
100
AcDbEntity
  8
0
100
AcDbLine
 62
7
  6
CONTINUOUS
 10
-1.6383152952
 20
1.3546325878
 11
-1.5818190789
 21
1.411128803
  0
LINE
  5
473
100
AcDbEntity
  8
0
100
AcDbLine
 62
7
  6
CONTINUOUS
 10
-0.3818190789
 20
2.6111288157
 11
-0.3253228627
 21
2.667625031
  0
LWPOLYLINE
  5
474
100
AcDbEntity
  8
0
100
AcDbPolyline
 62
7
  6
CONTINUOUS
 90
13
 70
0
 10
-16.3220369042
 20
-4.9723230679
 10
-16.3194298616
 20
-4.970478077
 10
-16.3163129529
 20
-4.9693526233
 10
-16.3131560233
 20
-4.9692283497
 10
-16.310273282
 20
-4.9703378872
 10
-16.3077776098
 20
-4.9725438168
 10
-16.3057714004
 20
-4.9753486353
 10
-16.3042654834
 20
-4.978199535
 10
-16.3030252444
 20
-4.9810304038
 10
-16.3017697202
 20
-4.9840196128
 10
-16.3003911512
 20
-4.9871185862
 10
-16.2989538192
 20
-4.9901737123
 10
-16.2974518997
 20
-4.9931870214
  0
LINE
  5
475
100
AcDbEntity
  8
0
100
AcDbLine
 62
7
  6
CONTINUOUS
 10
-2.1875373141
 20
2.3795557817
 11
-2.1699808838
 21
2.391707904
  0
LWPOLYLINE
  5
476
100
AcDbEntity
  8
0
100
AcDbPolyline
 62
250
  6
CONTINUOUS
 90
10
 70
0
 10
18.4894258789
 20
-9.1828315615
 10
18.4583195097
 20
-9.4380006341
 10
18.4259867132
 20
-9.6930154062
 10
18.3924282342
 20
-9.9478701
 10
18.35764488
 20
-10.202558635
 10
18.3216374114
 20
-10.4570755464
 10
18.2844065275
 20
-10.711415984
 10
18.2459530184
 20
-10.9655744871
 10
18.2062777794
 20
-11.2195449867
 10
18.1653816927
 20
-11.4733217236
  0
LWPOLYLINE
  5
477
100
AcDbEntity
  8
0
100
AcDbPolyline
 62
250
  6
CONTINUOUS
 90
4
 70
0
 10
17.4220724201
 20
-10.5538495602
 10
17.3774717844
 20
-10.8903122631
 10
17.347705143
 20
-11.1053199835
 10
17.3126193422
 20
-11.3500758485
  0
LWPOLYLINE
  5
478
100
AcDbEntity
  8
0
100
AcDbPolyline
 62
250
  6
CONTINUOUS
 90
4
 70
0
 10
17.3126193422
 20
-11.3500758485
 10
17.2810030838
 20
-11.5660257857
 10
17.2507909302
 20
-11.7663332594
 10
17.2221848839
 20
-11.9509889344
  0
LINE
  5
479
100
AcDbEntity
  8
0
100
AcDbLine
 62
250
  6
CONTINUOUS
 10
17.2221848839
 20
-11.9509889344
 11
17.1723130711
 21
-12.2622612308
  0
LWPOLYLINE
  5
47A
100
AcDbEntity
  8
0
100
AcDbPolyline
 62
250
  6
CONTINUOUS
 90
10
 70
0
 10
18.1653816927
 20
-11.4733217236
 10
18.1048189883
 20
-11.8357675889
 10
18.0417726109
 20
-12.1977821285
 10
17.9762455333
 20
-12.5593486939
 10
17.908240929
 20
-12.9204499983
 10
17.837761883
 20
-13.2810700852
 10
17.7648113453
 20
-13.6411943212
 10
17.6893925385
 20
-14.0008067761
 10
17.6115090037
 20
-14.3598902299
 10
17.5311642786
 20
-14.7184281363
  0
LWPOLYLINE
  5
47B
100
AcDbEntity
  8
0
100
AcDbPolyline
 62
250
  6
CONTINUOUS
 90
4
 70
0
 10
17.1723130711
 20
-12.2622612308
 10
17.121584695
 20
-12.5670950797
 10
17.0947351898
 20
-12.72412957
 10
17.067641306
 20
-12.8791296526
  0
LWPOLYLINE
  5
47C
100
AcDbEntity
  8
0
100
AcDbPolyline
 62
250
  6
CONTINUOUS
 90
4
 70
0
 10
17.067641306
 20
-12.8791296526
 10
17.0141720746
 20
-13.1751528352
 10
16.9855364369
 20
-13.3289313341
 10
16.9553878485
 20
-13.4868558588
  0
LWPOLYLINE
  5
47D
100
AcDbEntity
  8
0
100
AcDbPolyline
 62
250
  6
CONTINUOUS
 90
5
 70
0
 10
16.9553878485
 20
-13.4868558588
 10
16.8863372443
 20
-13.8398061828
 10
16.8432002175
 20
-14.0572039434
 10
16.7945224067
 20
-14.2981836567
 10
16.739949474
 20
-14.5627662764
  0
LWPOLYLINE
  5
47E
100
AcDbEntity
  8
0
100
AcDbPolyline
 62
250
  6
CONTINUOUS
 90
6
 70
0
 10
16.739949474
 20
-14.5627662764
 10
16.6739227561
 20
-14.8651713295
 10
16.6072721499
 20
-15.1615520814
 10
16.540111568
 20
-15.4518980616
 10
16.471123118
 20
-15.7416036909
 10
16.4017795379
 20
-16.0252487657
  0
LINE
  5
47F
100
AcDbEntity
  8
0
100
AcDbLine
 62
250
  6
CONTINUOUS
 10
14.0109070352
 20
-5.8793853899
 11
13.9362570986
 21
-6.14178746
  0
LINE
  5
480
100
AcDbEntity
  8
0
100
AcDbLine
 62
250
  6
CONTINUOUS
 10
13.9362570986
 20
-6.14178746
 11
13.8977369941
 21
-6.2760923145
  0
LWPOLYLINE
  5
481
100
AcDbEntity
  8
0
100
AcDbPolyline
 62
250
  6
CONTINUOUS
 90
3
 70
0
 10
13.8977369941
 20
-6.2760923145
 10
13.8171460829
 20
-6.5505376915
 10
13.7753066096
 20
-6.6907517653
  0
LWPOLYLINE
  5
482
100
AcDbEntity
  8
0
100
AcDbPolyline
 62
250
  6
CONTINUOUS
 90
10
 70
0
 10
13.7753066096
 20
-6.6907517653
 10
13.6284277012
 20
-7.1504752232
 10
13.4753538109
 20
-7.5967931581
 10
13.3160942893
 20
-8.0297058183
 10
13.1507845299
 20
-8.4482776793
 10
12.9793044275
 20
-8.8534459833
 10
12.8012780253
 20
-9.248019953
 10
12.6165862758
 20
-9.6329363086
 10
12.4253705232
 20
-10.0072600013
 10
12.2276505923
 20
-10.3709922422
  0
LWPOLYLINE
  5
483
100
AcDbEntity
  8
0
100
AcDbPolyline
 62
250
  6
CONTINUOUS
 90
6
 70
0
 10
14.2345282026
 20
-5.1478606973
 10
14.1963494621
 20
-5.2636790207
 10
14.1585343243
 20
-5.381938572
 10
14.1210826634
 20
-5.5026391817
 10
14.0842261531
 20
-5.6258547731
 10
14.0109070352
 20
-5.8793853899
  0
LWPOLYLINE
  5
484
100
AcDbEntity
  8
0
100
AcDbPolyline
 62
250
  6
CONTINUOUS
 90
10
 70
0
 10
14.3338137418
 20
-4.9931870214
 10
14.3269077369
 20
-5.0104144632
 10
14.3210870496
 20
-5.029198075
 10
14.3159048016
 20
-5.0485682607
 10
14.3110389532
 20
-5.0679072728
 10
14.3063138167
 20
-5.087476602
 10
14.3017388414
 20
-5.107352076
 10
14.2973190737
 20
-5.1275349094
 10
14.2930331036
 20
-5.1479924294
 10
14.2888905151
 20
-5.1687262949
  0
LINE
  5
485
100
AcDbEntity
  8
0
100
AcDbLine
 62
250
  6
CONTINUOUS
 10
-10.9917237815
 20
-30.7706143829
 11
-10.9879319331
 21
-30.7644800606
  0
LINE
  5
486
100
AcDbEntity
  8
0
100
AcDbLine
 62
250
  6
CONTINUOUS
 10
-10.9879319331
 20
-30.7644800606
 11
-10.9306812271
 21
-30.6731833216
  0
LWPOLYLINE
  5
487
100
AcDbEntity
  8
0
100
AcDbPolyline
 62
250
  6
CONTINUOUS
 90
3
 70
0
 10
-10.9306812271
 20
-30.6731833216
 10
-10.8046841015
 20
-30.4727410674
 10
-10.6825331978
 20
-30.27864024
  0
LWPOLYLINE
  5
488
100
AcDbEntity
  8
0
100
AcDbPolyline
 62
250
  6
CONTINUOUS
 90
4
 70
0
 10
-12.9543402466
 20
-12.54564945
 10
-12.8626368588
 20
-12.4581851201
 10
-12.8164854856
 20
-12.4148521014
 10
-12.7699574926
 20
-12.3724560422
  0
LWPOLYLINE
  5
489
100
AcDbEntity
  8
0
100
AcDbPolyline
 62
250
  6
CONTINUOUS
 90
4
 70
0
 10
-13.0904358485
 20
-12.6713040558
 10
-13.0456022928
 20
-12.6306296942
 10
-13.0001241374
 20
-12.5887110275
 10
-12.9543402466
 20
-12.54564945
  0
LINE
  5
48A
100
AcDbEntity
  8
0
100
AcDbLine
 62
250
  6
CONTINUOUS
 10
-13.1772459666
 20
-12.7489920802
 11
-13.0904358485
 21
-12.6713040558
  0
LINE
  5
48B
100
AcDbEntity
  8
0
100
AcDbLine
 62
7
  6
CONTINUOUS
 10
0.2063427259
 20
1.6305497148
 11
0.2238991584
 21
1.6427018386
  0
LINE
  5
48C
100
AcDbEntity
  8
0
100
AcDbLine
 62
7
  6
CONTINUOUS
 10
-2.1699808838
 20
2.391707904
 11
-2.1190224059
 21
2.4189447762
  0
LINE
  5
48D
100
AcDbEntity
  8
0
100
AcDbLine
 62
7
  6
CONTINUOUS
 10
0.2063427259
 20
1.6305497148
 11
0.155384248
 21
1.6033128426
  0
LINE
  5
48E
100
AcDbEntity
  8
0
100
AcDbLine
 62
7
  6
CONTINUOUS
 10
-2.1190224059
 20
2.4189447762
 11
-1.9243664762
 21
2.5214796331
  0
LINE
  5
48F
100
AcDbEntity
  8
0
100
AcDbLine
 62
7
  6
CONTINUOUS
 10
0.155384248
 20
1.6033128426
 11
-0.0392716817
 21
1.5007779857
  0
LINE
  5
490
100
AcDbEntity
  8
0
100
AcDbLine
 62
7
  6
CONTINUOUS
 10
-1.9243664762
 20
2.5214796331
 11
-1.7989080398
 21
2.5863725652
  0
LINE
  5
491
100
AcDbEntity
  8
0
100
AcDbLine
 62
7
  6
CONTINUOUS
 10
-0.0392716817
 20
1.5007779857
 11
-0.1647301181
 21
1.4358850536
  0
LINE
  5
492
100
AcDbEntity
  8
0
100
AcDbLine
 62
7
  6
CONTINUOUS
 10
-1.7989080398
 20
2.5863725652
 11
-1.7279377089
 21
2.6225637375
  0
LINE
  5
493
100
AcDbEntity
  8
0
100
AcDbLine
 62
7
  6
CONTINUOUS
 10
-0.1647301181
 20
1.4358850536
 11
-0.235700449
 21
1.3996938813
  0
LWPOLYLINE
  5
494
100
AcDbEntity
  8
0
100
AcDbPolyline
 62
7
  6
CONTINUOUS
 90
3
 70
0
 10
-1.7279377089
 20
2.6225637375
 10
-1.6563004724
 20
2.6586509547
 10
-1.6383151193
 20
2.6676246875
  0
LWPOLYLINE
  5
495
100
AcDbEntity
  8
0
100
AcDbPolyline
 62
7
  6
CONTINUOUS
 90
3
 70
0
 10
-0.235700449
 20
1.3996938813
 10
-0.3073376855
 20
1.3636066641
 10
-0.3253230386
 20
1.3546329313
  0
LINE
  5
496
100
AcDbEntity
  8
0
100
AcDbLine
 62
7
  6
CONTINUOUS
 10
-1.5540726596
 20
2.5833823057
 11
-1.5818190789
 21
2.5697432458
  0
LINE
  5
497
100
AcDbEntity
  8
0
100
AcDbLine
 62
7
  6
CONTINUOUS
 10
-0.4095654983
 20
1.4388753131
 11
-0.3818190789
 21
1.452514373
  0
LINE
  5
498
100
AcDbEntity
  8
0
100
AcDbLine
 62
7
  6
CONTINUOUS
 10
-0.7429967064
 20
3.1332350964
 11
-0.6989596753
 21
3.153723174
  0
LINE
  5
499
100
AcDbEntity
  8
0
100
AcDbLine
 62
7
  6
CONTINUOUS
 10
-1.2206414515
 20
0.8890225224
 11
-1.2646784826
 21
0.8685344448
  0
LINE
  5
49A
100
AcDbEntity
  8
TRASH
100
AcDbLine
 62
7
  6
CONTINUOUS
 10
-1.6015207073
 20
2.4842318312
 11
-1.5015458612
 21
2.5308462443
  0
LINE
  5
49B
100
AcDbEntity
  8
TRASH
100
AcDbLine
 62
7
  6
CONTINUOUS
 10
-0.3621174504
 20
1.5380257877
 11
-0.4620922967
 21
1.4914113744
  0
LINE
  5
49C
100
AcDbEntity
  8
TRASH
100
AcDbLine
 62
7
  6
CONTINUOUS
 10
-2.1268163491
 20
2.2392770275
 11
-1.6015207073
 21
2.4842318312
  0
LINE
  5
49D
100
AcDbEntity
  8
TRASH
100
AcDbLine
 62
7
  6
CONTINUOUS
 10
0.1631781912
 20
1.7829805912
 11
-0.3621174504
 21
1.5380257877
  0
LINE
  5
49E
100
AcDbEntity
  8
0
100
AcDbLine
 62
7
  6
CONTINUOUS
 10
-1.2374054448
 20
0.85437221
 11
-1.2510832114
 21
0.8484257328
  0
LINE
  5
49F
100
AcDbEntity
  8
0
100
AcDbLine
 62
7
  6
CONTINUOUS
 10
-0.7330819147
 20
3.1649288607
 11
-0.7125549398
 21
3.1738318761
  0
LINE
  5
4A0
100
AcDbEntity
  8
0
100
AcDbLine
 62
7
  6
CONTINUOUS
 10
-0.7536708608
 20
3.1561260795
 11
-0.7330819147
 21
3.1649288607
  0
LWPOLYLINE
  5
4A1
100
AcDbEntity
  8
0
100
AcDbPolyline
 62
250
  6
CONTINUOUS
 90
10
 70
0
 10
17.5311642786
 20
-14.7184281363
 10
17.419994008
 20
-15.1961541305
 10
17.304383175
 20
-15.6728282244
 10
17.1843416784
 20
-16.148409344
 10
17.0598807331
 20
-16.6228526991
 10
16.9310101218
 20
-17.0961212268
 10
16.7977378373
 20
-17.5681855068
 10
16.6600739131
 20
-18.0390085455
 10
16.5180307796
 20
-18.5085458679
 10
16.3716202659
 20
-18.9767569004
  0
LWPOLYLINE
  5
4A2
100
AcDbEntity
  8
0
100
AcDbPolyline
 62
250
  6
CONTINUOUS
 90
5
 70
0
 10
16.4017795379
 20
-16.0252487657
 10
16.2795523263
 20
-16.5146228432
 10
16.2274833209
 20
-16.7204252989
 10
16.175010749
 20
-16.9213834938
 10
16.1204427248
 20
-17.1208370744
  0
LINE
  5
4A3
100
AcDbEntity
  8
0
100
AcDbLine
 62
250
  6
CONTINUOUS
 10
16.1204427248
 20
-17.1208370744
 11
15.8956982985
 21
-17.915906446
  0
LWPOLYLINE
  5
4A4
100
AcDbEntity
  8
0
100
AcDbPolyline
 62
250
  6
CONTINUOUS
 90
5
 70
0
 10
15.8956982985
 20
-17.915906446
 10
15.8358287629
 20
-18.1231826139
 10
15.7730704301
 20
-18.3353059889
 10
15.7078171771
 20
-18.5516124955
 10
15.6400079401
 20
-18.7720816105
  0
LWPOLYLINE
  5
4A5
100
AcDbEntity
  8
0
100
AcDbPolyline
 62
250
  6
CONTINUOUS
 90
22
 70
0
 10
15.6400079401
 20
-18.7720816105
 10
15.4710954472
 20
-19.3082336112
 10
15.3027037141
 20
-19.8221834467
 10
15.135526907
 20
-20.3139222664
 10
14.9685242826
 20
-20.7878411386
 10
14.8039473389
 20
-21.239545392
 10
14.6477769813
 20
-21.6559649264
 10
14.5055098527
 20
-22.0256844853
 10
14.3736085597
 20
-22.360396398
 10
14.2443059548
 20
-22.6817067746
 10
14.1182932117
 20
-22.9887730351
 10
13.9954258906
 20
-23.2825022456
 10
13.8657198499
 20
-23.586934726
 10
13.7254695527
 20
-23.9100566233
 10
13.577807757
 20
-24.2436843961
 10
13.4225233913
 20
-24.5874918528
 10
13.2586372094
 20
-24.9429215744
 10
13.0865686951
 20
-25.308361832
 10
12.908314197
 20
-25.6789309646
 10
12.7245040003
 20
-26.0529478416
 10
12.5342560172
 20
-26.4319153941
 10
12.3373920754
 20
-26.8156925237
  0
LWPOLYLINE
  5
4A6
100
AcDbEntity
  8
0
100
AcDbPolyline
 62
250
  6
CONTINUOUS
 90
10
 70
0
 10
16.3716202659
 20
-18.9767569004
 10
16.0623319174
 20
-19.9189075181
 10
15.7357454994
 20
-20.8530956263
 10
15.3920912571
 20
-21.7790142599
 10
15.0322355291
 20
-22.6947538593
 10
14.6558469174
 20
-23.6016538197
 10
14.2610951211
 20
-24.5041820772
 10
13.8472399734
 20
-25.403512297
 10
13.4149326042
 20
-26.2976444649
 10
12.9641714909
 20
-27.1861723307
  0
LWPOLYLINE
  5
4A7
100
AcDbEntity
  8
0
100
AcDbPolyline
 62
250
  6
CONTINUOUS
 90
10
 70
0
 10
12.2276505923
 20
-10.3709922422
 10
12.0922596487
 20
-10.6071967875
 10
11.9511252962
 20
-10.8400956881
 10
11.80425294
 20
-11.0696891678
 10
11.651520514
 20
-11.2961778993
 10
11.4930622709
 20
-11.5193616994
 10
11.3292685301
 20
-11.7386396535
 10
11.1602735696
 20
-11.953811795
 10
10.9859554442
 20
-12.165078979
 10
10.8063194611
 20
-12.3724416648
  0
LINE
  5
4A8
100
AcDbEntity
  8
0
100
AcDbLine
 62
250
  6
CONTINUOUS
 10
-14.1912887502
 20
-10.3709922422
 11
-14.6148330108
 21
-10.6079793924
  0
LINE
  5
4A9
100
AcDbEntity
  8
0
100
AcDbLine
 62
250
  6
CONTINUOUS
 10
-14.6148330108
 20
-10.6079793924
 11
-14.7245087199
 21
-10.6691297474
  0
LWPOLYLINE
  5
4AA
100
AcDbEntity
  8
0
100
AcDbPolyline
 62
7
  6
CONTINUOUS
 90
3
 70
0
 10
-1.2099672971
 20
0.8661315393
 10
-1.2168371608
 20
0.8632084101
 10
-1.2374054448
 20
0.85437221
  0
LINE
  5
4AB
100
AcDbEntity
  8
0
100
AcDbLine
 62
250
  6
CONTINUOUS
 10
-16.252528673
 20
-5.1687262949
 11
-16.198166363
 21
-5.1478606901
  0
LWPOLYLINE
  5
4AC
100
AcDbEntity
  8
0
100
AcDbPolyline
 62
250
  6
CONTINUOUS
 90
3
 70
0
 10
-19.7172544163
 20
-7.1791475356
 10
-19.3659285368
 20
-7.0561642055
 10
-19.0121952044
 20
-6.9338278642
  0
LWPOLYLINE
  5
4AD
100
AcDbEntity
  8
0
100
AcDbPolyline
 62
250
  6
CONTINUOUS
 90
5
 70
0
 10
-17.9047814604
 20
-6.5540573911
 10
-17.5203299169
 20
-6.4211569807
 10
-17.1304530372
 20
-6.2846505071
 10
-16.7277885203
 20
-6.1410293639
 10
-16.3069972546
 20
-5.9871242015
  0
LINE
  5
4AE
100
AcDbEntity
  8
0
100
AcDbLine
 62
250
  6
CONTINUOUS
 10
-19.0121952044
 20
-6.9338278642
 11
-17.9047814604
 21
-6.5540573911
  0
LINE
  5
4AF
100
AcDbEntity
  8
0
100
AcDbLine
 62
250
  6
CONTINUOUS
 10
-15.7389447641
 20
-6.6907517765
 11
-15.9790795148
 21
-6.7656443927
  0
LWPOLYLINE
  5
4B0
100
AcDbEntity
  8
0
100
AcDbPolyline
 62
250
  6
CONTINUOUS
 90
10
 70
0
 10
12.7611404927
 20
-10.6682878672
 10
12.6112455417
 20
-10.9151961032
 10
12.4556620893
 20
-11.1584304567
 10
12.2944874687
 20
-11.3978187178
 10
12.1279157242
 20
-11.6330872016
 10
11.9559707136
 20
-11.8642368668
 10
11.7784914659
 20
-12.0914994191
 10
11.5954864845
 20
-12.3148589204
 10
11.4071566991
 20
-12.5340696654
 10
11.2136077347
 20
-12.7489921605
  0
LWPOLYLINE
  5
4B1
100
AcDbEntity
  8
0
100
AcDbPolyline
 62
250
  6
CONTINUOUS
 90
10
 70
0
 10
14.3165598033
 20
-4.9784336236
 10
14.3055364538
 20
-4.9934197209
 10
14.2953619529
 20
-5.0096779377
 10
14.2859001635
 20
-5.0271228644
 10
14.276897317
 20
-5.045473445
 10
14.2681345964
 20
-5.0645084635
 10
14.2595438411
 20
-5.0842479245
 10
14.2510681125
 20
-5.1047238806
 10
14.2427131641
 20
-5.1259351251
 10
14.2345282051
 20
-5.1478606901
  0
LINE
  5
4B2
100
AcDbEntity
  8
0
100
AcDbLine
 62
250
  6
CONTINUOUS
 10
-13.4533653018
 20
-28.091807866
 11
-13.5296351253
 21
-28.1569231587
  0
LINE
  5
4B3
100
AcDbEntity
  8
0
100
AcDbLine
 62
250
  6
CONTINUOUS
 10
12.9641714909
 20
-27.1861723307
 11
12.8460632976
 21
-27.4123709523
  0
LWPOLYLINE
  5
4B4
100
AcDbEntity
  8
0
100
AcDbPolyline
 62
250
  6
CONTINUOUS
 90
3
 70
0
 10
12.8460632976
 20
-27.4123709523
 10
12.7268552121
 20
-27.6379943881
 10
12.6968816365
 20
-27.6943097936
  0
LWPOLYLINE
  5
4B5
100
AcDbEntity
  8
0
100
AcDbPolyline
 62
250
  6
CONTINUOUS
 90
10
 70
0
 10
12.696989961
 20
-27.694103196
 10
12.6385942758
 20
-27.8006291958
 10
12.5776429818
 20
-27.905580267
 10
12.5141667745
 20
-28.0089126947
 10
12.44818151
 20
-28.110604726
 10
12.3797322852
 20
-28.2105893616
 10
12.3088986008
 20
-28.3087581685
 10
12.2357330331
 20
-28.4050492715
 10
12.1602560681
 20
-28.4994435375
 10
12.0825037976
 20
-28.5919000385
  0
LWPOLYLINE
  5
4B6
100
AcDbEntity
  8
0
100
AcDbPolyline
 62
250
  6
CONTINUOUS
 90
7
 70
0
 10
12.3378584926
 20
-26.8134562418
 10
12.3333994889
 20
-26.8212878043
 10
12.328900626
 20
-26.8291079051
 10
12.3243600601
 20
-26.8369166649
 10
12.3197759694
 20
-26.8447142032
 10
12.3151465535
 20
-26.8525006382
 10
12.3104700336
 20
-26.8602760866
  0
LWPOLYLINE
  5
4B7
100
AcDbEntity
  8
0
100
AcDbPolyline
 62
250
  6
CONTINUOUS
 90
5
 70
0
 10
12.3098752729
 20
-26.8599437685
 10
12.2659670485
 20
-26.9369179459
 10
12.2265028466
 20
-27.0040665426
 10
12.1919415274
 20
-27.0616725365
 10
12.1461783001
 20
-27.1364812603
  0
LWPOLYLINE
  5
4B8
100
AcDbEntity
  8
0
100
AcDbPolyline
 62
250
  6
CONTINUOUS
 90
3
 70
0
 10
12.1212238026
 20
-27.179548108
 10
12.0478989167
 20
-27.3079494638
 10
12.0023809576
 20
-27.3864082257
  0
LINE
  5
4B9
100
AcDbEntity
  8
0
100
AcDbLine
 62
250
  6
CONTINUOUS
 10
12.1461783001
 20
-27.1364812603
 11
12.1212238026
 21
-27.179548108
  0
LWPOLYLINE
  5
4BA
100
AcDbEntity
  8
0
100
AcDbPolyline
 62
250
  6
CONTINUOUS
 90
37
 70
0
 10
11.2136077347
 20
-12.7489921605
 10
10.9584395627
 20
-13.0176215693
 10
10.696650145
 20
-13.2796077356
 10
10.4284504522
 20
-13.5347841992
 10
10.1572606075
 20
-13.7799945188
 10
9.880247214
 20
-14.0182739064
 10
9.5876732922
 20
-14.2578869814
 10
9.2723512793
 20
-14.5026546473
 10
8.9406753796
 20
-14.7461030287
 10
8.6031946861
 20
-14.9811150606
 10
8.2660269835
 20
-15.2037740253
 10
7.9236438685
 20
-15.4179643042
 10
7.5691729951
 20
-15.6286014614
 10
7.1974230761
 20
-15.8374268873
 10
6.813171551
 20
-16.0404367294
 10
6.4243474363
 20
-16.2340231686
 10
6.0306707831
 20
-16.4185739055
 10
5.6325192179
 20
-16.5932735919
 10
5.2392548744
 20
-16.7544967368
 10
4.8570588815
 20
-16.9009369239
 10
4.4803916574
 20
-17.0357123128
 10
4.1010563383
 20
-17.1619597218
 10
3.7105693
 20
-17.281951293
 10
3.3172571636
 20
-17.3927108546
 10
2.9383278522
 20
-17.4904542499
 10
2.5852511613
 20
-17.5746261677
 10
2.2472318944
 20
-17.6496447328
 10
1.908092145
 20
-17.7194052591
 10
1.5575832358
 20
-17.7861475058
 10
1.205738037
 20
-17.8470569412
 10
0.8669302586
 20
-17.8982262461
 10
0.5513245819
 20
-17.9394891918
 10
0.249480708
 20
-17.9735659153
 10
-0.0533777575
 20
-18.0009010848
 10
-0.3621195141
 20
-18.0210061676
 10
-0.6716397589
 20
-18.0337418114
 10
-0.981819079
 20
-18.038915932
  0
LINE
  5
4BB
100
AcDbEntity
  8
0
100
AcDbLine
 62
250
  6
CONTINUOUS
 10
-13.5296351253
 20
-28.1569231587
 11
-13.79548231
 21
-28.382914196
  0
LINE
  5
4BC
100
AcDbEntity
  8
0
100
AcDbLine
 62
250
  6
CONTINUOUS
 10
-13.79548231
 20
-28.382914196
 11
-13.941650985
 21
-28.5060148902
  0
LWPOLYLINE
  5
4BD
100
AcDbEntity
  8
0
100
AcDbPolyline
 62
250
  6
CONTINUOUS
 90
4
 70
0
 10
-13.941650985
 20
-28.5060148902
 10
-14.0075560949
 20
-28.560754959
 10
-14.0303266627
 20
-28.5793285066
 10
-14.0461416896
 20
-28.5918998116
  0
LINE
  5
4BE
100
AcDbEntity
  8
0
100
AcDbLine
 62
7
  6
CONTINUOUS
 10
8.3702624332
 20
-17.6491310258
 11
7.9913679805
 21
-17.9280757899
  0
LINE
  5
4BF
100
AcDbEntity
  8
0
100
AcDbLine
 62
7
  6
CONTINUOUS
 10
7.9913679805
 20
-17.9280757899
 11
7.721624405
 21
-18.1150914238
  0
LWPOLYLINE
  5
4C0
100
AcDbEntity
  8
0
100
AcDbPolyline
 62
250
  6
CONTINUOUS
 90
4
 70
0
 10
7.721624405
 20
-18.1150914238
 10
7.3897884616
 20
-18.3358783165
 10
7.0839424543
 20
-18.5277684733
 10
6.9167191247
 20
-18.6277644166
  0
LINE
  5
4C1
100
AcDbEntity
  8
0
100
AcDbLine
 62
250
  6
CONTINUOUS
 10
-14.2741081915
 20
-26.8602760866
 11
-14.5152404522
 21
-26.9832323399
  0
LINE
  5
4C2
100
AcDbEntity
  8
0
100
AcDbLine
 62
250
  6
CONTINUOUS
 10
-14.5152404522
 20
-26.9832323399
 11
-14.6517999061
 21
-27.052149527
  0
LWPOLYLINE
  5
4C3
100
AcDbEntity
  8
0
100
AcDbPolyline
 62
250
  6
CONTINUOUS
 90
7
 70
0
 10
-14.6517999061
 20
-27.052149527
 10
-14.7654840782
 20
-27.1088280179
 10
-14.8126944403
 20
-27.1320465225
 10
-14.8528292275
 20
-27.1515316909
 10
-14.8855637371
 20
-27.1671287622
 10
-14.9106545111
 20
-27.1787220871
 10
-14.9278096008
 20
-27.1861723112
  0
LINE
  5
4C4
100
AcDbEntity
  8
0
100
AcDbLine
 62
250
  6
CONTINUOUS
 10
-17.603646098
 20
-18.7720816105
 11
-17.7879732023
 21
-18.8277512214
  0
LWPOLYLINE
  5
4C5
100
AcDbEntity
  8
0
100
AcDbPolyline
 62
250
  6
CONTINUOUS
 90
10
 70
0
 10
-17.7879732023
 20
-18.8277512214
 10
-17.9536077988
 20
-18.8766221596
 10
-18.0278692688
 20
-18.8980449581
 10
-18.095321376
 20
-18.9171331649
 10
-18.1554211407
 20
-18.9337301312
 10
-18.2078730647
 20
-18.9477591046
 10
-18.2523084326
 20
-18.9591280029
 10
-18.2884789396
 20
-18.9677795125
 10
-18.3162004304
 20
-18.9736722686
 10
-18.3352584066
 20
-18.9767569029
  0
LWPOLYLINE
  5
4C6
100
AcDbEntity
  8
0
100
AcDbPolyline
 62
250
  6
CONTINUOUS
 90
7
 70
0
 10
11.489963649
 20
-28.0920217321
 10
11.5847418301
 20
-27.9828697405
 10
11.6758459624
 20
-27.8701598167
 10
11.7632172531
 20
-27.7540245209
 10
11.8467988327
 20
-27.6345987579
 10
11.9265367349
 20
-27.5120160656
 10
12.0023809576
 20
-27.3864082257
  0
LWPOLYLINE
  5
4C7
100
AcDbEntity
  8
0
100
AcDbPolyline
 62
250
  6
CONTINUOUS
 90
13
 70
0
 10
12.0825037976
 20
-28.5919000385
 10
11.8662145796
 20
-28.8266762403
 10
11.6350397149
 20
-29.0468333911
 10
11.3895162144
 20
-29.2517530152
 10
11.1309102263
 20
-29.4403132619
 10
10.860385417
 20
-29.6115913064
 10
10.5786750048
 20
-29.765137408
 10
10.2868591101
 20
-29.9002377658
 10
9.9863319813
 20
-30.0161031057
 10
9.6782985677
 20
-30.1122719383
 10
9.3638176778
 20
-30.1883471823
 10
9.0436948541
 20
-30.2439516831
 10
8.7188973946
 20
-30.2786691972
  0
LWPOLYLINE
  5
4C8
100
AcDbEntity
  8
0
100
AcDbPolyline
 62
7
  6
CONTINUOUS
 90
5
 70
0
 10
6.9167191247
 20
-18.6277644166
 10
6.7756844687
 20
-18.7113292527
 10
6.4641826603
 20
-18.8872445543
 10
6.1462261052
 20
-19.0573174463
 10
5.8353941664
 20
-19.214511528
  0
LWPOLYLINE
  5
4C9
100
AcDbEntity
  8
0
100
AcDbPolyline
 62
250
  6
CONTINUOUS
 90
13
 70
0
 10
-13.9660191155
 20
-27.3864082257
 10
-14.0544639469
 20
-27.4302111221
 10
-14.1390849369
 20
-27.4715227787
 10
-14.2193544131
 20
-27.5100911381
 10
-14.2948092563
 20
-27.5456941645
 10
-14.364820138
 20
-27.5780309738
 10
-14.4286505671
 20
-27.606756652
 10
-14.4858279696
 20
-27.6316545763
 10
-14.5360257162
 20
-27.6525879626
 10
-14.5788378814
 20
-27.6693959293
 10
-14.6139989461
 20
-27.681982429
 10
-14.6413196951
 20
-27.6902800567
 10
-14.6605739414
 20
-27.6942065114
  0
LWPOLYLINE
  5
4CA
100
AcDbEntity
  8
0
100
AcDbPolyline
 62
250
  6
CONTINUOUS
 90
3
 70
0
 10
5.8353941664
 20
-19.214511528
 10
5.4877039061
 20
-19.3805954958
 10
5.1480436882
 20
-19.5327696806
  0
LWPOLYLINE
  5
4CB
100
AcDbEntity
  8
0
100
AcDbPolyline
 62
250
  6
CONTINUOUS
 90
10
 70
0
 10
5.1480436882
 20
-19.5327696806
 10
4.4994608529
 20
-19.7968522292
 10
3.8392024933
 20
-20.0314791671
 10
3.1686942418
 20
-20.2360953621
 10
2.4883166809
 20
-20.4105615054
 10
1.7998773886
 20
-20.5541497895
 10
1.1069374047
 20
-20.6658916078
 10
0.4117260433
 20
-20.7455760898
 10
-0.2850272633
 20
-20.7934606347
 10
-0.9818190784
 20
-20.8096662325
  0
LINE
  5
4CC
100
AcDbEntity
  8
0
100
AcDbLine
 62
7
  6
CONTINUOUS
 10
56.3562892731
 20
-34.188871242
 11
51.8562892731
 21
-34.188871242
  0
LINE
  5
4CD
100
AcDbEntity
  8
RACCORDO
100
AcDbLine
 62
7
  6
CONTINUOUS
 10
51.8562892731
 20
-34.188871242
 11
47.3562892731
 21
-34.188871242
  0
LINE
  5
4CE
100
AcDbEntity
  8
0
100
AcDbLine
 62
250
  6
CONTINUOUS
 10
57.1562892731
 20
-33.388871242
 11
51.8562892731
 21
-33.388871242
  0
LINE
  5
4CF
100
AcDbEntity
  8
RACCORDO
100
AcDbLine
 62
250
  6
CONTINUOUS
 10
46.5562892731
 20
-33.388871242
 11
51.8562892731
 21
-33.388871242
  0
LINE
  5
4D0
100
AcDbEntity
  8
0
100
AcDbLine
 62
250
  6
CONTINUOUS
 10
57.1562892731
 20
-32.8191440557
 11
51.8562892731
 21
-32.8191440557
  0
LINE
  5
4D1
100
AcDbEntity
  8
RACCORDO
100
AcDbLine
 62
250
  6
CONTINUOUS
 10
46.5562892731
 20
-32.8191440557
 11
51.8562892731
 21
-32.8191440557
  0
LINE
  5
4D2
100
AcDbEntity
  8
0
100
AcDbLine
 62
250
  6
CONTINUOUS
 10
57.2747103257
 20
-32.6725058271
 11
51.8562892731
 21
-32.6725058271
  0
LINE
  5
4D3
100
AcDbEntity
  8
RACCORDO
100
AcDbLine
 62
250
  6
CONTINUOUS
 10
46.4378682205
 20
-32.6725058271
 11
51.8562892731
 21
-32.6725058271
  0
LINE
  5
4D4
100
AcDbEntity
  8
0
100
AcDbLine
 62
250
  6
CONTINUOUS
 10
57.9062892731
 20
-31.8904352747
 11
51.8562892731
 21
-31.8904352748
  0
LINE
  5
4D5
100
AcDbEntity
  8
RACCORDO
100
AcDbLine
 62
250
  6
CONTINUOUS
 10
45.8062892731
 20
-31.8904352747
 11
51.8562892731
 21
-31.8904352748
  0
LWPOLYLINE
  5
4D6
100
AcDbEntity
  8
RACCORDO
100
AcDbPolyline
 62
7
  6
CONTINUOUS
 90
10
 70
0
 10
45.6717687243
 20
-30.8691706793
 10
45.6899982695
 20
-30.8722038268
 10
45.7149314008
 20
-30.8803009891
 10
45.7380740403
 20
-30.8926152967
 10
45.7587193274
 20
-30.9087706181
 10
45.7762366915
 20
-30.9282735117
 10
45.7900911039
 20
-30.9505283051
 10
45.7998594008
 20
-30.9748552702
 10
45.8052432132
 20
-31.0005113696
 10
45.8063102401
 20
-31.0183709906
  0
LWPOLYLINE
  5
4D7
100
AcDbEntity
  8
0
100
AcDbPolyline
 62
250
  6
CONTINUOUS
 90
13
 70
0
 10
59.5770478738
 20
-27.6943097936
 10
58.9370952577
 20
-27.7704022508
 10
58.2962896885
 20
-27.8399586779
 10
57.6547050648
 20
-27.9029508289
 10
57.0124278077
 20
-27.9593468544
 10
56.369519637
 20
-28.0091301728
 10
55.7260174548
 20
-28.0522988802
 10
55.0819951891
 20
-28.0888256672
 10
54.4375274391
 20
-28.1187040613
 10
53.792652113
 20
-28.141966328
 10
53.147431502
 20
-28.1586166439
 10
52.5019523351
 20
-28.1686316582
 10
51.8562892724
 20
-28.1720057549
  0
LINE
  5
4D8
100
AcDbEntity
  8
0
100
AcDbLine
 62
250
  6
CONTINUOUS
 10
57.1515752205
 20
-31.0559416405
 11
57.8880205666
 21
-31.0193350186
  0
LINE
  5
4D9
100
AcDbEntity
  8
0
100
AcDbLine
 62
7
  6
CONTINUOUS
 10
57.2691023587
 20
-30.9066102923
 11
58.0221493524
 21
-30.8701303678
  0
LWPOLYLINE
  5
4DA
100
AcDbEntity
  8
0
100
AcDbPolyline
 62
250
  6
CONTINUOUS
 90
3
 70
0
 10
57.8880205666
 20
-31.0193350186
 10
57.9048112389
 20
-31.0186012353
 10
57.9062892727
 20
-31.0185494153
  0
LINE
  5
4DB
100
AcDbEntity
  8
0
100
AcDbLine
 62
250
  6
CONTINUOUS
 10
56.6712575296
 20
-31.0772322014
 11
57.1515752205
 21
-31.0559416405
  0
LINE
  5
4DC
100
AcDbEntity
  8
0
100
AcDbLine
 62
7
  6
CONTINUOUS
 10
56.7778972942
 20
-30.9278287885
 11
57.2691023587
 21
-30.9066102923
  0
LINE
  5
4DD
100
AcDbEntity
  8
0
100
AcDbLine
 62
7
  6
CONTINUOUS
 10
58.0221493524
 20
-30.8701303678
 11
58.0365348469
 21
-30.8695316758
  0
LINE
  5
4DE
100
AcDbEntity
  8
0
100
AcDbLine
 62
250
  6
CONTINUOUS
 10
56.2444687166
 20
-31.0945158693
 11
56.6712575296
 21
-31.0772322014
  0
LINE
  5
4DF
100
AcDbEntity
  8
0
100
AcDbLine
 62
7
  6
CONTINUOUS
 10
56.3412026254
 20
-30.9449668071
 11
56.7778972942
 21
-30.9278287885
  0
LWPOLYLINE
  5
4E0
100
AcDbEntity
  8
0
100
AcDbPolyline
 62
250
  6
CONTINUOUS
 90
3
 70
0
 10
55.4346302389
 20
-31.1227433734
 10
55.7276926744
 20
-31.1130930463
 10
56.2444687166
 20
-31.0945158693
  0
LWPOLYLINE
  5
4E1
100
AcDbEntity
  8
0
100
AcDbPolyline
 62
7
  6
CONTINUOUS
 90
4
 70
0
 10
55.2274883485
 20
-30.9815031805
 10
55.5122446878
 20
-30.9731920746
 10
55.812077697
 20
-30.9637134435
 10
56.3412026254
 20
-30.9449668071
  0
LINE
  5
4E2
100
AcDbEntity
  8
0
100
AcDbLine
 62
7
  6
CONTINUOUS
 10
58.0365348469
 20
-30.8695316758
 11
58.0375743334
 21
-30.8695031689
  0
LWPOLYLINE
  5
4E3
100
AcDbEntity
  8
0
100
AcDbPolyline
 62
250
  6
CONTINUOUS
 90
10
 70
0
 10
51.8562892731
 20
-30.7706143829
 10
52.7313815635
 20
-30.7644800606
 10
53.6061755643
 20
-30.7461923194
 10
54.4804856314
 20
-30.7157579269
 10
55.3541211672
 20
-30.6731833216
 10
56.2269021942
 20
-30.6184795229
 10
57.098659345
 20
-30.5516613167
 10
57.9692131914
 20
-30.4727410674
 10
58.838374333
 20
-30.3817295392
 10
59.7059589359
 20
-30.27864024
  0
LWPOLYLINE
  5
4E4
100
AcDbEntity
  8
0
100
AcDbPolyline
 62
250
  6
CONTINUOUS
 90
11
 70
0
 10
51.8562892731
 20
-31.1787413439
 10
52.2410586997
 20
-31.1780054468
 10
52.6244089244
 20
-31.1760770843
 10
53.0047841564
 20
-31.1729562566
 10
53.3812509867
 20
-31.1685400995
 10
53.7516424521
 20
-31.1629314772
 10
54.112678546
 20
-31.1564389817
 10
54.4629978405
 20
-31.1490131368
 10
54.8013533092
 20
-31.1407034187
 10
55.1250103404
 20
-31.1319668486
 10
55.4346302389
 20
-31.1227433734
  0
LWPOLYLINE
  5
4E5
100
AcDbEntity
  8
0
100
AcDbPolyline
 62
250
  6
CONTINUOUS
 90
10
 70
0
 10
51.8562892731
 20
-31.0289825159
 10
52.2514237018
 20
-31.0283133483
 10
52.6421993742
 20
-31.0263634277
 10
53.0286005747
 20
-31.0231944964
 10
53.4127566793
 20
-31.0188347828
 10
53.7925093035
 20
-31.0133029265
 10
54.1614162125
 20
-31.0067502181
 10
54.5189891611
 20
-30.9993517213
 10
54.8657049528
 20
-30.9911653299
 10
55.2274883485
 20
-30.9815031805
  0
LWPOLYLINE
  5
4E6
100
AcDbEntity
  8
RACCORDO
100
AcDbPolyline
 62
250
  6
CONTINUOUS
 90
9
 70
0
 10
51.8562892731
 20
-31.0289825159
 10
51.4611548444
 20
-31.0283133483
 10
51.070379172
 20
-31.0263634277
 10
50.6839779714
 20
-31.0231944964
 10
50.2998218668
 20
-31.0188347828
 10
49.9200692426
 20
-31.0133029265
 10
49.5511623337
 20
-31.0067502181
 10
49.193589385
 20
-30.9993517213
 10
48.8659024519
 20
-30.9916416636
  0
LWPOLYLINE
  5
4E7
100
AcDbEntity
  8
RACCORDO
100
AcDbPolyline
 62
250
  6
CONTINUOUS
 90
9
 70
0
 10
51.8562892731
 20
-31.1787413439
 10
51.4715198464
 20
-31.1780054468
 10
51.0881696217
 20
-31.1760770843
 10
50.7077943898
 20
-31.1729562566
 10
50.3313275595
 20
-31.1685400995
 10
49.9609360941
 20
-31.1629314772
 10
49.5999000002
 20
-31.1564389817
 10
49.2495807057
 20
-31.1490131368
 10
48.9112252369
 20
-31.1407034187
  0
LWPOLYLINE
  5
4E8
100
AcDbEntity
  8
0
100
AcDbPolyline
 62
250
  6
CONTINUOUS
 90
10
 70
0
 10
51.8562892731
 20
-30.7706143829
 10
50.9811969826
 20
-30.7644800606
 10
50.1064029818
 20
-30.7461923194
 10
49.2320929147
 20
-30.7157579269
 10
48.358457379
 20
-30.6731833216
 10
47.485676352
 20
-30.6184795229
 10
46.6139192012
 20
-30.5516613167
 10
45.7433653548
 20
-30.4727410674
 10
44.8742042132
 20
-30.3817295392
 10
44.0066196102
 20
-30.27864024
  0
LINE
  5
4E9
100
AcDbEntity
  8
SUPERFICI
100
AcDbLine
 62
7
  6
CONTINUOUS
 10
53.8562892731
 20
-27.2539610608
 11
52.8562892731
 21
-27.2365059958
  0
LWPOLYLINE
  5
4EA
100
AcDbEntity
  8
RACCORDO
100
AcDbPolyline
 62
7
  6
CONTINUOUS
 90
4
 70
0
 10
48.8659024519
 20
-30.9916416636
 10
48.5159987978
 20
-30.9823723417
 10
48.2003338584
 20
-30.9731920746
 10
47.9005008492
 20
-30.9637134435
  0
LINE
  5
4EB
100
AcDbEntity
  8
RACCORDO
100
AcDbLine
 62
250
  6
CONTINUOUS
 10
48.9112252369
 20
-31.1407034187
 11
48.5875682058
 21
-31.1319668486
  0
LINE
  5
4EC
100
AcDbEntity
  8
RACCORDO
100
AcDbLine
 62
7
  6
CONTINUOUS
 10
45.6760436993
 20
-30.8695316758
 11
45.6750042405
 21
-30.8695031719
  0
LINE
  5
4ED
100
AcDbEntity
  8
RACCORDO
100
AcDbLine
 62
250
  6
CONTINUOUS
 10
48.5875682058
 20
-31.1319668486
 11
48.2779483073
 21
-31.1227433734
  0
LWPOLYLINE
  5
4EE
100
AcDbEntity
  8
RACCORDO
100
AcDbPolyline
 62
250
  6
CONTINUOUS
 90
3
 70
0
 10
48.2779483073
 20
-31.1227433734
 10
47.7146867858
 20
-31.1036530474
 10
47.4681098295
 20
-31.0945158693
  0
LINE
  5
4EF
100
AcDbEntity
  8
RACCORDO
100
AcDbLine
 62
7
  6
CONTINUOUS
 10
47.9005008492
 20
-30.9637134435
 11
47.3713759207
 21
-30.9449668071
  0
LINE
  5
4F0
100
AcDbEntity
  8
RACCORDO
100
AcDbLine
 62
7
  6
CONTINUOUS
 10
47.3713759207
 20
-30.9449668071
 11
46.934681252
 21
-30.9278287885
  0
LINE
  5
4F1
100
AcDbEntity
  8
RACCORDO
100
AcDbLine
 62
250
  6
CONTINUOUS
 10
47.4681098295
 20
-31.0945158693
 11
47.0413210166
 21
-31.0772322014
  0
LINE
  5
4F2
100
AcDbEntity
  8
RACCORDO
100
AcDbLine
 62
7
  6
CONTINUOUS
 10
45.6904291938
 20
-30.8701303678
 11
45.6760436993
 21
-30.8695316758
  0
LWPOLYLINE
  5
4F3
100
AcDbEntity
  8
RACCORDO
100
AcDbPolyline
 62
250
  6
CONTINUOUS
 90
3
 70
0
 10
45.8245579796
 20
-31.0193350186
 10
45.8077673073
 20
-31.0186012353
 10
45.8062892734
 20
-31.0185494153
  0
LINE
  5
4F4
100
AcDbEntity
  8
RACCORDO
100
AcDbLine
 62
7
  6
CONTINUOUS
 10
46.934681252
 20
-30.9278287885
 11
46.4434761875
 21
-30.9066102923
  0
LINE
  5
4F5
100
AcDbEntity
  8
RACCORDO
100
AcDbLine
 62
250
  6
CONTINUOUS
 10
47.0413210166
 20
-31.0772322014
 11
46.7044747717
 21
-31.0625095381
  0
LINE
  5
4F6
100
AcDbEntity
  8
RACCORDO
100
AcDbLine
 62
250
  6
CONTINUOUS
 10
46.7044747717
 20
-31.0625095381
 11
46.317050834
 21
-31.0443170939
  0
LINE
  5
4F7
100
AcDbEntity
  8
RACCORDO
100
AcDbLine
 62
7
  6
CONTINUOUS
 10
46.4434761875
 20
-30.9066102923
 11
45.9914478795
 21
-30.8852602092
  0
LINE
  5
4F8
100
AcDbEntity
  8
RACCORDO
100
AcDbLine
 62
7
  6
CONTINUOUS
 10
45.9914478795
 20
-30.8852602092
 11
45.6904291938
 21
-30.8701303678
  0
LINE
  5
4F9
100
AcDbEntity
  8
RACCORDO
100
AcDbLine
 62
250
  6
CONTINUOUS
 10
46.317050834
 20
-31.0443170939
 11
45.8245579796
 21
-31.0193350186
  0
LWPOLYLINE
  5
4FA
100
AcDbEntity
  8
0
100
AcDbPolyline
 62
250
  6
CONTINUOUS
 90
13
 70
0
 10
44.1355306724
 20
-27.6943097936
 10
44.7754832885
 20
-27.7704022508
 10
45.4162888577
 20
-27.8399586779
 10
46.0578734814
 20
-27.9029508289
 10
46.7001507385
 20
-27.9593468544
 10
47.3430589092
 20
-28.0091301728
 10
47.9865610913
 20
-28.0522988802
 10
48.6305833571
 20
-28.0888256672
 10
49.2750511071
 20
-28.1187040613
 10
49.9199264332
 20
-28.141966328
 10
50.5651470441
 20
-28.1586166439
 10
51.2106262111
 20
-28.1686316582
 10
51.8562892738
 20
-28.1720057549
  0
LWPOLYLINE
  5
4FB
100
AcDbEntity
  8
0
100
AcDbPolyline
 62
7
  6
CONTINUOUS
 90
7
 70
0
 10
43.0520451678
 20
-30.4017469113
 10
43.091598385
 20
-30.4280109915
 10
43.1883584543
 20
-30.4840512489
 10
43.2893182438
 20
-30.5314526896
 10
43.3939861492
 20
-30.5700334266
 10
43.5017935362
 20
-30.5995516869
 10
43.6121532912
 20
-30.6197503957
  0
LWPOLYLINE
  5
4FC
100
AcDbEntity
  8
0
100
AcDbPolyline
 62
250
  6
CONTINUOUS
 90
13
 70
0
 10
43.1116034449
 20
-26.8602760866
 10
43.1619456779
 20
-26.9035552799
 10
43.2199566812
 20
-26.944616746
 10
43.2852502398
 20
-26.9832323399
 10
43.3573669945
 20
-27.0191403158
 10
43.4359777818
 20
-27.052149527
 10
43.5209431202
 20
-27.0821105711
 10
43.612047731
 20
-27.1088280179
 10
43.708417185
 20
-27.1320465225
 10
43.8089121213
 20
-27.1515316909
 10
43.912570694
 20
-27.1671287622
 10
44.0186587646
 20
-27.1787220871
 10
44.1263327689
 20
-27.1861723112
  0
LWPOLYLINE
  5
4FD
100
AcDbEntity
  8
0
100
AcDbPolyline
 62
250
  6
CONTINUOUS
 90
13
 70
0
 10
43.1178754053
 20
-27.3864082257
 10
43.1670979503
 20
-27.4302111221
 10
43.2245407805
 20
-27.4715227787
 10
43.2897827475
 20
-27.5100911381
 10
43.3624709629
 20
-27.5456941645
 10
43.4421047985
 20
-27.5780309738
 10
43.5279708537
 20
-27.606756652
 10
43.6195225373
 20
-27.6316545763
 10
43.7161034025
 20
-27.6525879626
 10
43.816739876
 20
-27.6693959293
 10
43.9206147415
 20
-27.681982429
 10
44.0271093655
 20
-27.6902800567
 10
44.1355281186
 20
-27.6942065114
  0
LINE
  5
4FE
100
AcDbEntity
  8
SUPERFICI
100
AcDbLine
 62
7
  6
CONTINUOUS
 10
52.8562892731
 20
-19.9412363854
 11
53.8562892731
 21
-19.9237813205
  0
LWPOLYLINE
  5
4FF
100
AcDbEntity
  8
0
100
AcDbPolyline
 62
250
  6
CONTINUOUS
 90
13
 70
0
 10
42.8008586969
 20
-14.5627662764
 10
42.8478744117
 20
-14.5848174696
 10
42.9038992547
 20
-14.6056640456
 10
42.9684821018
 20
-14.6251664243
 10
43.0412503749
 20
-14.6432024431
 10
43.1216635862
 20
-14.6596042408
 10
43.2089314735
 20
-14.6741782447
 10
43.3024311051
 20
-14.6868032479
 10
43.401451169
 20
-14.6974116972
 10
43.5049606807
 20
-14.705923808
 10
43.6120728186
 20
-14.712289545
 10
43.7220866749
 20
-14.7164721329
 10
43.8342327902
 20
-14.7184281348
  0
LWPOLYLINE
  5
500
100
AcDbEntity
  8
0
100
AcDbPolyline
 62
250
  6
CONTINUOUS
 90
13
 70
0
 10
42.930681763
 20
-18.7720816105
 10
42.9799003385
 20
-18.8006787624
 10
43.0373695706
 20
-18.8277512214
 10
43.10264729
 20
-18.853118104
 10
43.1753727102
 20
-18.8766221596
 10
43.2550119584
 20
-18.8980449581
 10
43.3407820614
 20
-18.9171331649
 10
43.4320790632
 20
-18.9337301312
 10
43.5282820776
 20
-18.9477591046
 10
43.6284880296
 20
-18.9591280029
 10
43.7319216036
 20
-18.9677795125
 10
43.8379687853
 20
-18.9736722686
 10
43.9459556751
 20
-18.9767569029
  0
LWPOLYLINE
  5
501
100
AcDbEntity
  8
0
100
AcDbPolyline
 62
250
  6
CONTINUOUS
 90
13
 70
0
 10
43.1309058879
 20
-28.091807866
 10
43.1789857646
 20
-28.1569231587
 10
43.2352647876
 20
-28.2188466523
 10
43.2995010271
 20
-28.2773512868
 10
43.3714128286
 20
-28.3321846719
 10
43.4504522495
 20
-28.382914196
 10
43.535959956
 20
-28.4290498214
 10
43.6273057337
 20
-28.4701791714
 10
43.7237335294
 20
-28.5060148902
 10
43.824366552
 20
-28.5362796875
 10
43.9284302442
 20
-28.560754959
 10
44.0354041421
 20
-28.5793285066
 10
44.1447844357
 20
-28.5918998116
  0
LWPOLYLINE
  5
502
100
AcDbEntity
  8
0
100
AcDbPolyline
 62
250
  6
CONTINUOUS
 90
16
 70
0
 10
42.6545966136
 20
-6.6986668505
 10
42.6851320708
 20
-6.7061896456
 10
42.7234406296
 20
-6.7136954563
 10
42.7684086514
 20
-6.7205329233
 10
42.8202887001
 20
-6.7269289574
 10
42.8791657912
 20
-6.733110927
 10
42.9443683212
 20
-6.7389996403
 10
43.0152936507
 20
-6.7445079925
 10
43.0916711493
 20
-6.7495786701
 10
43.1731217115
 20
-6.754173187
 10
43.2593012266
 20
-6.7582812415
 10
43.3495398083
 20
-6.7618769199
 10
43.4428805743
 20
-6.7649307197
 10
43.5386168263
 20
-6.7674301583
 10
43.6363500773
 20
-6.7693717944
 10
43.7355547937
 20
-6.7707474892
  0
LWPOLYLINE
  5
503
100
AcDbEntity
  8
0
100
AcDbPolyline
 62
250
  6
CONTINUOUS
 90
16
 70
0
 10
42.676800191
 20
-9.0833190275
 10
42.7084317655
 20
-9.0938013958
 10
42.7477893337
 20
-9.1042079964
 10
42.793937035
 20
-9.1142076883
 10
42.8466577248
 20
-9.1237254209
 10
42.9057826211
 20
-9.1327422423
 10
42.9706852517
 20
-9.1411542556
 10
43.0408369773
 20
-9.1488892528
 10
43.116018621
 20
-9.155913239
 10
43.1959030002
 20
-9.1621949917
 10
43.280177497
 20
-9.1677181767
 10
43.3682150091
 20
-9.1724447187
 10
43.459122002
 20
-9.1763335807
 10
43.5522418681
 20
-9.1793667162
 10
43.6472067426
 20
-9.1815370694
 10
43.743528063
 20
-9.1828317714
  0
LWPOLYLINE
  5
504
100
AcDbEntity
  8
0
100
AcDbPolyline
 62
250
  6
CONTINUOUS
 90
13
 70
0
 10
42.7167814794
 20
-11.3500758485
 10
42.7609922963
 20
-11.3672379425
 10
42.8151897978
 20
-11.3835293106
 10
42.8788917753
 20
-11.3988310206
 10
42.9517034145
 20
-11.4130393174
 10
43.0330430276
 20
-11.4260102424
 10
43.1220402118
 20
-11.4375766407
 10
43.2180026539
 20
-11.4476341246
 10
43.3201359437
 20
-11.4561245861
 10
43.4272838079
 20
-11.4629785248
 10
43.5384489385
 20
-11.4681518975
 10
43.6528432454
 20
-11.4716123111
 10
43.769603988
 20
-11.4733217227
  0
LWPOLYLINE
  5
505
100
AcDbEntity
  8
0
100
AcDbPolyline
 62
250
  6
CONTINUOUS
 90
9
 70
0
 10
59.9805193899
 20
-30.5184965679
 10
60.0280521826
 20
-30.5584579777
 10
60.0471794148
 20
-30.574721497
 10
60.0630880332
 20
-30.5885247187
 10
60.0759047923
 20
-30.5998490534
 10
60.0860091576
 20
-30.6086401512
 10
60.0935277147
 20
-30.6148793603
 10
60.098334206
 20
-30.6185831785
 10
60.1004287226
 20
-30.619749941
  0
LINE
  5
506
100
AcDbEntity
  8
0
100
AcDbLine
 62
250
  6
CONTINUOUS
 10
59.7059589359
 20
-30.27864024
 11
59.7254437148
 21
-30.2953031338
  0
LINE
  5
507
100
AcDbEntity
  8
0
100
AcDbLine
 62
250
  6
CONTINUOUS
 10
59.7254437148
 20
-30.2953031338
 11
59.7405709721
 21
-30.3083495801
  0
LINE
  5
508
100
AcDbEntity
  8
0
100
AcDbLine
 62
250
  6
CONTINUOUS
 10
59.9380056176
 20
-30.4817471012
 11
59.9805193899
 21
-30.5184965679
  0
LINE
  5
509
100
AcDbEntity
  8
0
100
AcDbLine
 62
250
  6
CONTINUOUS
 10
59.8626426952
 20
-30.4159524892
 11
59.9380056176
 21
-30.4817471012
  0
LINE
  5
50A
100
AcDbEntity
  8
0
100
AcDbLine
 62
250
  6
CONTINUOUS
 10
59.7405709721
 20
-30.3083495801
 11
59.8626426952
 21
-30.4159524892
  0
LINE
  5
50B
100
AcDbEntity
  8
SUPERFICI
100
AcDbLine
 62
7
  6
CONTINUOUS
 10
53.3562892731
 20
-26.0888711906
 11
53.8562892731
 21
-26.5888711906
  0
LWPOLYLINE
  5
50C
100
AcDbEntity
  8
0
100
AcDbPolyline
 62
250
  6
CONTINUOUS
 90
16
 70
0
 10
61.0579819326
 20
-6.6986668505
 10
61.0274464754
 20
-6.7061896456
 10
60.9891379166
 20
-6.7136954563
 10
60.9441698948
 20
-6.7205329233
 10
60.8922898461
 20
-6.7269289574
 10
60.833412755
 20
-6.733110927
 10
60.768210225
 20
-6.7389996403
 10
60.6972848954
 20
-6.7445079925
 10
60.6209073969
 20
-6.7495786701
 10
60.5394568346
 20
-6.754173187
 10
60.4532773195
 20
-6.7582812415
 10
60.3630387379
 20
-6.7618769199
 10
60.2696979719
 20
-6.7649307197
 10
60.1739617199
 20
-6.7674301583
 10
60.0762284689
 20
-6.7693717944
 10
59.9770237524
 20
-6.7707474892
  0
LWPOLYLINE
  5
50D
100
AcDbEntity
  8
0
100
AcDbPolyline
 62
250
  6
CONTINUOUS
 90
10
 70
0
 10
61.0559262726
 20
-4.8013621004
 10
61.0271433301
 20
-4.8052493751
 10
60.9905478526
 20
-4.8090931494
 10
60.946361944
 20
-4.8128717515
 10
60.8947039933
 20
-4.816570362
 10
60.8359017631
 20
-4.8201579599
 10
60.7706301514
 20
-4.8235901941
 10
60.6994490482
 20
-4.8268382068
 10
60.6225791031
 20
-4.8298901583
 10
60.540379338
 20
-4.8327325301
  0
LWPOLYLINE
  5
50E
100
AcDbEntity
  8
0
100
AcDbPolyline
 62
250
  6
CONTINUOUS
 90
8
 70
0
 10
61.0529631623
 20
-4.2582563855
 10
61.024396791
 20
-4.2612453928
 10
60.9879634073
 20
-4.2642391462
 10
60.943886063
 20
-4.2672204694
 10
60.8922819971
 20
-4.2701778156
 10
60.8334821576
 20
-4.2730864745
 10
60.7681728824
 20
-4.2759100882
 10
60.6969207241
 20
-4.2786245928
  0
LINE
  5
50F
100
AcDbEntity
  8
0
100
AcDbLine
 62
250
  6
CONTINUOUS
 10
60.6969207241
 20
-4.2786245928
 11
60.5376322257
 21
-4.2836846859
  0
LINE
  5
510
100
AcDbEntity
  8
0
100
AcDbLine
 62
250
  6
CONTINUOUS
 10
60.540379338
 20
-4.8327325301
 11
60.3617833551
 21
-4.8377396451
  0
LINE
  5
511
100
AcDbEntity
  8
0
100
AcDbLine
 62
250
  6
CONTINUOUS
 10
60.5376322257
 20
-4.2836846859
 11
60.3587613891
 21
-4.2881771523
  0
LINE
  5
512
100
AcDbEntity
  8
0
100
AcDbLine
 62
250
  6
CONTINUOUS
 10
60.3617833551
 20
-4.8377396451
 11
60.1699646819
 21
-4.8417026007
  0
LINE
  5
513
100
AcDbEntity
  8
0
100
AcDbLine
 62
250
  6
CONTINUOUS
 10
60.3587613891
 20
-4.2881771523
 11
60.1665996142
 21
-4.2919592694
  0
LINE
  5
514
100
AcDbEntity
  8
0
100
AcDbLine
 62
250
  6
CONTINUOUS
 10
60.1665996142
 20
-4.2919592694
 11
59.9662532483
 21
-4.294939857
  0
LINE
  5
515
100
AcDbEntity
  8
0
100
AcDbLine
 62
250
  6
CONTINUOUS
 10
60.1699646819
 20
-4.8417026007
 11
59.9700297572
 21
-4.8445279613
  0
LINE
  5
516
100
AcDbEntity
  8
0
100
AcDbLine
 62
250
  6
CONTINUOUS
 10
61.042426276
 20
-2.9028711885
 11
60.5286743136
 21
-2.9084712399
  0
LINE
  5
517
100
AcDbEntity
  8
0
100
AcDbLine
 62
250
  6
CONTINUOUS
 10
60.5286743136
 20
-2.9084712399
 11
59.9535968835
 21
-2.9138611285
  0
LINE
  5
518
100
AcDbEntity
  8
0
100
AcDbLine
 62
7
  6
CONTINUOUS
 10
43.7590299616
 20
-2.902871191
 11
42.6701522701
 21
-2.9028711885
  0
LINE
  5
519
100
AcDbEntity
  8
0
100
AcDbLine
 62
250
  6
CONTINUOUS
 10
42.6703960975
 20
-2.9028711855
 11
42.052217917
 21
-2.902871191
  0
LINE
  5
51A
100
AcDbEntity
  8
0
100
AcDbLine
 62
250
  6
CONTINUOUS
 10
43.7590299608
 20
-2.902871191
 11
59.9535485854
 21
-2.902871191
  0
LINE
  5
51B
100
AcDbEntity
  8
0
100
AcDbLine
 62
7
  6
CONTINUOUS
 10
59.9535485846
 20
-2.902871191
 11
61.042426276
 21
-2.9028711885
  0
LINE
  5
51C
100
AcDbEntity
  8
0
100
AcDbLine
 62
250
  6
CONTINUOUS
 10
61.0421824487
 20
-2.9028711855
 11
61.6603606292
 21
-2.902871191
  0
LWPOLYLINE
  5
51D
100
AcDbEntity
  8
0
100
AcDbPolyline
 62
250
  6
CONTINUOUS
 90
3
 70
0
 10
42.6701522701
 20
-2.9028711885
 10
42.6984037271
 20
-2.9032644022
 10
43.7589816627
 20
-2.9138611285
  0
LINE
  5
51E
100
AcDbEntity
  8
0
100
AcDbLine
 62
250
  6
CONTINUOUS
 10
43.5426138643
 20
-4.8417026007
 11
43.742548789
 21
-4.8445279613
  0
LINE
  5
51F
100
AcDbEntity
  8
0
100
AcDbLine
 62
250
  6
CONTINUOUS
 10
43.545978932
 20
-4.2919592694
 11
43.7463252979
 21
-4.294939857
  0
LINE
  5
520
100
AcDbEntity
  8
0
100
AcDbLine
 62
250
  6
CONTINUOUS
 10
43.353817157
 20
-4.2881771523
 11
43.545978932
 21
-4.2919592694
  0
LINE
  5
521
100
AcDbEntity
  8
0
100
AcDbLine
 62
250
  6
CONTINUOUS
 10
43.350795191
 20
-4.8377396451
 11
43.5426138643
 21
-4.8417026007
  0
LINE
  5
522
100
AcDbEntity
  8
0
100
AcDbLine
 62
250
  6
CONTINUOUS
 10
43.1749463204
 20
-4.2836846859
 11
43.353817157
 21
-4.2881771523
  0
LWPOLYLINE
  5
523
100
AcDbEntity
  8
0
100
AcDbPolyline
 62
250
  6
CONTINUOUS
 90
9
 70
0
 10
42.6596153838
 20
-4.2582563855
 10
42.6881817552
 20
-4.2612453928
 10
42.7246151389
 20
-4.2642391462
 10
42.7686924832
 20
-4.2672204694
 10
42.820296549
 20
-4.2701778156
 10
42.8790963886
 20
-4.2730864745
 10
42.9444056638
 20
-4.2759100882
 10
43.0156578221
 20
-4.2786245928
 10
43.1749463204
 20
-4.2836846859
  0
LWPOLYLINE
  5
524
100
AcDbEntity
  8
0
100
AcDbPolyline
 62
250
  6
CONTINUOUS
 90
11
 70
0
 10
42.6566522736
 20
-4.8013621004
 10
42.6854352161
 20
-4.8052493751
 10
42.7220306936
 20
-4.8090931494
 10
42.7662166022
 20
-4.8128717515
 10
42.8178745529
 20
-4.816570362
 10
42.876676783
 20
-4.8201579599
 10
42.9419483948
 20
-4.8235901941
 10
43.013129498
 20
-4.8268382068
 10
43.0899994431
 20
-4.8298901583
 10
43.1721992081
 20
-4.8327325301
 10
43.350795191
 20
-4.8377396451
  0
LWPOLYLINE
  5
525
100
AcDbEntity
  8
0
100
AcDbPolyline
 62
7
  6
CONTINUOUS
 90
10
 70
0
 10
42.0493381911
 20
-4.9572656344
 10
42.0487778646
 20
-4.9567491737
 10
42.0482033462
 20
-4.9569948547
 10
42.0476326201
 20
-4.9580760816
 10
42.0470771243
 20
-4.9599774981
 10
42.0465467125
 20
-4.9626335744
 10
42.0460463425
 20
-4.9658999978
 10
42.0455769515
 20
-4.9696509262
 10
42.0451363788
 20
-4.9738495111
 10
42.0447193462
 20
-4.9784336236
  0
LINE
  5
526
100
AcDbEntity
  8
SUPERFICI
100
AcDbLine
 62
7
  6
CONTINUOUS
 10
53.3562892731
 20
-21.0888711906
 11
53.8562892731
 21
-21.5888711906
  0
LWPOLYLINE
  5
527
100
AcDbEntity
  8
0
100
AcDbPolyline
 62
250
  6
CONTINUOUS
 90
3
 70
0
 10
60.9545860762
 20
-29.6659611142
 10
60.9976279934
 20
-29.7115802385
 10
61.0068113643
 20
-29.7214079752
  0
LINE
  5
528
100
AcDbEntity
  8
0
100
AcDbLine
 62
250
  6
CONTINUOUS
 10
60.8770046101
 20
-29.5836329038
 11
60.9415451847
 21
-29.6519903601
  0
LINE
  5
529
100
AcDbEntity
  8
0
100
AcDbLine
 62
250
  6
CONTINUOUS
 10
60.9415451847
 20
-29.6519903601
 11
60.9545860762
 21
-29.6659611142
  0
LINE
  5
52A
100
AcDbEntity
  8
0
100
AcDbLine
 62
250
  6
CONTINUOUS
 10
60.8356417168
 20
-29.5392998456
 11
60.8770046101
 21
-29.5836329038
  0
LINE
  5
52B
100
AcDbEntity
  8
0
100
AcDbLine
 62
250
  6
CONTINUOUS
 10
60.7723150702
 20
-29.470511788
 11
60.8356417168
 21
-29.5392998456
  0
LWPOLYLINE
  5
52C
100
AcDbEntity
  8
0
100
AcDbPolyline
 62
250
  6
CONTINUOUS
 90
10
 70
0
 10
61.0068113643
 20
-29.7214079752
 10
61.0334875397
 20
-29.7523196761
 10
61.055436688
 20
-29.7768788123
 10
61.0733178991
 20
-29.7956652897
 10
61.0876718395
 20
-29.8080339581
 10
61.0993424849
 20
-29.8158010228
 10
61.1086457718
 20
-29.8225875355
 10
61.1152161867
 20
-29.8292399103
 10
61.1188350938
 20
-29.8344879634
 10
61.1192847111
 20
-29.8381806472
  0
LWPOLYLINE
  5
52D
100
AcDbEntity
  8
0
100
AcDbPolyline
 62
250
  6
CONTINUOUS
 90
8
 70
0
 10
42.6604004795
 20
-7.1791475356
 10
42.5657862973
 20
-7.0561642055
 10
42.4796503236
 20
-6.9338278642
 10
42.4005907987
 20
-6.8106953169
 10
42.3268964152
 20
-6.6843070098
 10
42.2582206547
 20
-6.5540573911
 10
42.1950060138
 20
-6.4211569807
 10
42.1364285281
 20
-6.2846505071
  0
LWPOLYLINE
  5
52E
100
AcDbEntity
  8
0
100
AcDbPolyline
 62
7
  6
CONTINUOUS
 90
8
 70
0
 10
42.5932938351
 20
-29.8381806472
 10
42.6414815276
 20
-29.9396109801
 10
42.6980197857
 20
-30.0361814676
 10
42.7625006109
 20
-30.1273737758
 10
42.8345310398
 20
-30.2126791266
 10
42.9137949069
 20
-30.2916506799
 10
42.9997588341
 20
-30.363681352
 10
43.0520153507
 20
-30.4017263188
  0
LWPOLYLINE
  5
52F
100
AcDbEntity
  8
0
100
AcDbPolyline
 62
250
  6
CONTINUOUS
 90
13
 70
0
 10
42.705767182
 20
-29.7214079754
 10
42.7531306815
 20
-29.8241080222
 10
42.8093038855
 20
-29.9223682404
 10
42.8738413492
 20
-30.0155282348
 10
42.9463781001
 20
-30.103015435
 10
43.02637774
 20
-30.1840321521
 10
43.113050619
 20
-30.257637888
 10
43.2057803338
 20
-30.3232370442
 10
43.3038806684
 20
-30.3804697286
 10
43.4063506615
 20
-30.4288873403
 10
43.512331903
 20
-30.4681871698
 10
43.6211490226
 20
-30.4981440874
 10
43.7320591554
 20
-30.5184965704
  0
LWPOLYLINE
  5
530
100
AcDbEntity
  8
0
100
AcDbPolyline
 62
250
  6
CONTINUOUS
 90
13
 70
0
 10
42.9309105976
 20
-29.4806956153
 10
42.9770527455
 20
-29.5870350978
 10
43.0325229202
 20
-29.6888886311
 10
43.0968583016
 20
-29.7855456939
 10
43.1696672248
 20
-29.8763773375
 10
43.2504077692
 20
-29.9605509442
 10
43.338310688
 20
-30.0371027188
 10
43.4327581281
 20
-30.1053956933
 10
43.5329859497
 20
-30.1650052303
 10
43.6378967428
 20
-30.2154223808
 10
43.74654629
 20
-30.2562999217
 10
43.858189671
 20
-30.2873763686
 10
43.972007473
 20
-30.3083493496
  0
LWPOLYLINE
  5
531
100
AcDbEntity
  8
0
100
AcDbPolyline
 62
250
  6
CONTINUOUS
 90
13
 70
0
 10
42.9644952803
 20
-29.4411925668
 10
43.0106019915
 20
-29.5483756732
 10
43.0655554903
 20
-29.6515229807
 10
43.129600345
 20
-29.7491275151
 10
43.2022735678
 20
-29.8408588101
 10
43.2829516954
 20
-29.9259696897
 10
43.3709296723
 20
-30.0035580913
 10
43.4655256896
 20
-30.07286763
 10
43.5658677503
 20
-30.1333611513
 10
43.6709278455
 20
-30.1845139624
 10
43.7798007408
 20
-30.2259146937
 10
43.8918893816
 20
-30.2573564454
 10
44.0066177543
 20
-30.2786545049
  0
LWPOLYLINE
  5
532
100
AcDbEntity
  8
0
100
AcDbPolyline
 62
250
  6
CONTINUOUS
 90
8
 70
0
 10
42.940263476
 20
-29.470511788
 10
42.7089050501
 20
-28.872850147
 10
42.485716538
 20
-28.2497695858
 10
42.2699667176
 20
-27.6022910244
 10
42.0601800679
 20
-26.9274580173
 10
41.8577196228
 20
-26.2302910888
 10
41.6661243968
 20
-25.524379289
 10
41.4844563929
 20
-24.8076870836
  0
LINE
  5
533
100
AcDbEntity
  8
0
100
AcDbLine
 62
7
  6
CONTINUOUS
 10
41.4135960964
 20
-1.6484241906
 11
41.3835949968
 21
-1.6484241906
  0
LINE
  5
534
100
AcDbEntity
  8
0
100
AcDbLine
 62
7
  6
CONTINUOUS
 10
41.4158599364
 20
-1.2990881906
 11
41.3858584989
 21
-1.2990881906
  0
LINE
  5
535
100
AcDbEntity
  8
0
100
AcDbLine
 62
7
  6
CONTINUOUS
 10
41.4094205966
 20
-0.7441971413
 11
41.3794201276
 21
-0.7441971413
  0
LWPOLYLINE
  5
536
100
AcDbEntity
  8
0
100
AcDbPolyline
 62
250
  6
CONTINUOUS
 90
10
 70
0
 10
42.0501208266
 20
-4.2556749812
 10
42.1028682623
 20
-4.3226020352
 10
42.1577045768
 20
-4.3853435214
 10
42.2154511721
 20
-4.4452108988
 10
42.2775179236
 20
-4.503752106
 10
42.3443428052
 20
-4.5613005153
 10
42.4150451746
 20
-4.6171561653
 10
42.4896978007
 20
-4.6715539315
 10
42.5695806691
 20
-4.7255144753
 10
42.6567514735
 20
-4.7802753169
  0
LWPOLYLINE
  5
537
100
AcDbEntity
  8
0
100
AcDbPolyline
 62
250
  6
CONTINUOUS
 90
9
 70
0
 10
60.7517148107
 20
-29.4452346271
 10
60.7542972705
 20
-29.4486128427
 10
60.756915069
 20
-29.4519193371
 10
60.7595771952
 20
-29.4551820345
 10
60.7622743927
 20
-29.4583388074
 10
60.7649793157
 20
-29.4612495148
 10
60.7676831544
 20
-29.4638645749
 10
60.7703932117
 20
-29.4662571381
 10
60.7731025799
 20
-29.4685586663
  0
LWPOLYLINE
  5
538
100
AcDbEntity
  8
0
100
AcDbPolyline
 62
250
  6
CONTINUOUS
 90
13
 70
0
 10
60.7517148107
 20
-29.4452346271
 10
60.7253242777
 20
-29.4095521898
 10
60.7029152552
 20
-29.3609583883
 10
60.6820597509
 20
-29.2965675733
 10
60.662874152
 20
-29.217065584
 10
60.6454651176
 20
-29.122996209
 10
60.6299277893
 20
-29.0145903488
 10
60.6162920953
 20
-28.8923976092
 10
60.6046919557
 20
-28.7569955473
 10
60.5953563612
 20
-28.6086276949
 10
60.588388531
 20
-28.4478408759
 10
60.5837704863
 20
-28.2754205719
 10
60.581511537
 20
-28.0920217321
  0
LWPOLYLINE
  5
539
100
AcDbEntity
  8
0
100
AcDbPolyline
 62
250
  6
CONTINUOUS
 90
16
 70
0
 10
43.1113909558
 20
-26.812411549
 10
42.8790756323
 20
-26.2168376699
 10
42.6558531048
 20
-25.6044500877
 10
42.4408552125
 20
-24.9768483475
 10
42.2319766041
 20
-24.3297299271
 10
42.0314396542
 20
-23.6709252927
 10
41.8449892182
 20
-23.0215117876
 10
41.6733433534
 20
-22.3874069745
 10
41.5148912855
 20
-21.7652954972
 10
41.370944306
 20
-21.1624616115
 10
41.2423034389
 20
-20.5849615728
 10
41.1274813848
 20
-20.0283886372
 10
41.0247080596
 20
-19.4841987697
 10
40.9340750406
 20
-18.9505165749
 10
40.8569078809
 20
-18.4304406076
 10
40.7945462042
 20
-17.9280757899
  0
LINE
  5
53A
100
AcDbEntity
  8
0
100
AcDbLine
 62
7
  6
CONTINUOUS
 10
41.4062909819
 20
4.9847037418
 11
41.3762909818
 21
4.9847037418
  0
LWPOLYLINE
  5
53B
100
AcDbEntity
  8
0
100
AcDbPolyline
 62
250
  6
CONTINUOUS
 90
3
 70
0
 10
42.1364285281
 20
-6.2846505071
 10
42.0807487523
 20
-6.1410293639
 10
42.0266624667
 20
-5.9871242015
  0
LWPOLYLINE
  5
53C
100
AcDbEntity
  8
0
100
AcDbPolyline
 62
250
  6
CONTINUOUS
 90
9
 70
0
 10
41.4844563929
 20
-24.8076870836
 10
41.3135438516
 20
-24.0838330582
 10
41.1582323854
 20
-23.3752025175
 10
41.0193768391
 20
-22.6897582859
 10
40.8950408075
 20
-22.0210971509
 10
40.7851493696
 20
-21.3700629675
 10
40.68984091
 20
-20.7376942442
 10
40.6094203178
 20
-20.1242255969
 10
40.5447037838
 20
-19.5327696806
  0
LWPOLYLINE
  5
53D
100
AcDbEntity
  8
0
100
AcDbPolyline
 62
250
  6
CONTINUOUS
 90
8
 70
0
 10
42.018224444
 20
-5.9700614045
 10
42.0182558976
 20
-5.970374314
 10
42.0186396314
 20
-5.9711329303
 10
42.0194581037
 20
-5.9719052571
 10
42.0207095086
 20
-5.9726902356
 10
42.0223916084
 20
-5.973487253
 10
42.0245030659
 20
-5.9742961853
 10
42.0270422258
 20
-5.9751166729
  0
LWPOLYLINE
  5
53E
100
AcDbEntity
  8
0
100
AcDbPolyline
 62
7
  6
CONTINUOUS
 90
16
 70
0
 10
40.3401889845
 20
-20.8096662325
 10
40.3928897741
 20
-21.3471371574
 10
40.4572345894
 20
-21.8985304762
 10
40.5347079043
 20
-22.4692384816
 10
40.6268183768
 20
-23.0605473941
 10
40.7346901603
 20
-23.6712478786
 10
40.858516465
 20
-24.2956241902
 10
41.0020164066
 20
-24.9450392593
 10
41.1655292236
 20
-25.6131466302
 10
41.3421746875
 20
-26.2697193098
 10
41.5320044738
 20
-26.9167243721
 10
41.7365572153
 20
-27.5599922555
 10
41.9471195442
 20
-28.1748163622
 10
42.1592300412
 20
-28.7539568841
 10
42.3750002302
 20
-29.3081915954
 10
42.5932938351
 20
-29.8381806472
  0
LINE
  5
53F
100
AcDbEntity
  8
0
100
AcDbLine
 62
7
  6
CONTINUOUS
 10
62.2759395969
 20
14.7360118094
 11
62.2459452179
 21
14.7360118094
  0
LINE
  5
540
100
AcDbEntity
  8
0
100
AcDbLine
 62
7
  6
CONTINUOUS
 10
62.1882419458
 20
14.7360118094
 11
62.1582344048
 21
14.7360118094
  0
LINE
  5
541
100
AcDbEntity
  8
0
100
AcDbLine
 62
7
  6
CONTINUOUS
 10
62.3104792195
 20
14.7360228094
 11
62.2804900211
 21
14.7360228094
  0
LINE
  5
542
100
AcDbEntity
  8
0
100
AcDbLine
 62
7
  6
CONTINUOUS
 10
41.4710853019
 20
14.7360228094
 11
41.4410755755
 21
14.7360228094
  0
LINE
  5
543
100
AcDbEntity
  8
0
100
AcDbLine
 62
7
  6
CONTINUOUS
 10
41.4202233658
 20
14.7360328094
 11
41.3902212706
 21
14.7360328094
  0
LINE
  5
544
100
AcDbEntity
  8
0
100
AcDbLine
 62
7
  6
CONTINUOUS
 10
41.5121840367
 20
14.7360328094
 11
41.4821681411
 21
14.7360328094
  0
LINE
  5
545
100
AcDbEntity
  8
0
100
AcDbLine
 62
7
  6
CONTINUOUS
 10
41.6115489721
 20
14.7360438094
 11
41.5404109638
 21
14.7360328094
  0
LINE
  5
546
100
AcDbEntity
  8
0
100
AcDbLine
 62
7
  6
CONTINUOUS
 10
41.4242961082
 20
14.7360311426
 11
41.4212413239
 21
14.7360328094
  0
LWPOLYLINE
  5
547
100
AcDbEntity
  8
0
100
AcDbPolyline
 62
7
  6
CONTINUOUS
 90
13
 70
0
 10
41.5225534141
 20
18.9862274464
 10
41.5267665389
 20
18.9817479317
 10
41.5309461508
 20
18.9683395831
 10
41.5350922499
 20
18.9460936827
 10
41.5392365297
 20
18.9151726792
 10
41.5433472967
 20
18.8757828989
 10
41.5473294702
 20
18.8281484617
 10
41.5511848285
 20
18.7725379138
 10
41.5549115933
 20
18.7093413745
 10
41.5584093497
 20
18.6390491417
 10
41.5616721581
 20
18.5621785796
 10
41.5647059581
 20
18.4792376822
 10
41.5674281537
 20
18.390790381
  0
LWPOLYLINE
  5
548
100
AcDbEntity
  8
0
100
AcDbPolyline
 62
7
  6
CONTINUOUS
 90
9
 70
0
 10
42.0482244475
 20
-4.9723230679
 10
42.0479292559
 20
-4.970478077
 10
42.047572688
 20
-4.9693526233
 10
42.0472092923
 20
-4.9692283497
 10
42.0468762293
 20
-4.9703378872
 10
42.046586184
 20
-4.9725438168
 10
42.046349643
 20
-4.9753486353
 10
42.0461657513
 20
-4.978199535
 10
42.0455266953
 20
-4.9901737123
  0
LWPOLYLINE
  5
549
100
AcDbEntity
  8
0
100
AcDbPolyline
 62
250
  6
CONTINUOUS
 90
5
 70
0
 10
42.0396941539
 20
-5.1687262949
 10
42.0390369369
 20
-5.1639113136
 10
42.0387502709
 20
-5.1615450624
 10
42.0385152558
 20
-5.1592094078
 10
42.038098407
 20
-5.1546141385
  0
LWPOLYLINE
  5
54A
100
AcDbEntity
  8
0
100
AcDbPolyline
 62
250
  6
CONTINUOUS
 90
4
 70
0
 10
42.038098407
 20
-5.1546141385
 10
42.0378482378
 20
-5.1523438684
 10
42.0374879444
 20
-5.1500929193
 10
42.0369451479
 20
-5.1478606901
  0
LWPOLYLINE
  5
54B
100
AcDbEntity
  8
0
100
AcDbPolyline
 62
250
  6
CONTINUOUS
 90
10
 70
0
 10
42.8562892732
 20
27.479314091
 10
42.8560473034
 20
27.4847265376
 10
42.8559530282
 20
27.4894456295
 10
42.8559923297
 20
27.4934842519
 10
42.8562260355
 20
27.4968686369
 10
42.856568845
 20
27.4995934755
 10
42.8567835722
 20
27.5016478297
 10
42.8567796281
 20
27.5030624412
 10
42.8566186385
 20
27.5038837785
 10
42.8562892731
 20
27.504147315
  0
LINE
  5
54C
100
AcDbEntity
  8
0
100
AcDbLine
 62
250
  6
CONTINUOUS
 10
42.852395689
 20
-16.2866382734
 11
42.8734615523
 21
-16.9213834938
  0
LINE
  5
54D
100
AcDbEntity
  8
0
100
AcDbLine
 62
250
  6
CONTINUOUS
 10
42.6573436833
 20
-4.7984338417
 11
42.6567514735
 21
-4.7802753169
  0
LINE
  5
54E
100
AcDbEntity
  8
0
100
AcDbLine
 62
250
  6
CONTINUOUS
 10
42.8904955437
 20
-17.5121013813
 11
42.9171105326
 21
-18.3353059889
  0
LINE
  5
54F
100
AcDbEntity
  8
0
100
AcDbLine
 62
250
  6
CONTINUOUS
 10
42.9171105326
 20
-18.3353059889
 11
42.9631440856
 21
-19.8221834467
  0
LINE
  5
550
100
AcDbEntity
  8
0
100
AcDbLine
 62
250
  6
CONTINUOUS
 10
42.8270015191
 20
-15.4518980616
 11
42.852395689
 21
-16.2866382734
  0
LINE
  5
551
100
AcDbEntity
  8
0
100
AcDbLine
 62
250
  6
CONTINUOUS
 10
42.9631440856
 20
-19.8221834467
 11
42.9915595779
 21
-20.7878411386
  0
LINE
  5
552
100
AcDbEntity
  8
0
100
AcDbLine
 62
250
  6
CONTINUOUS
 10
42.8734615523
 20
-16.9213834938
 11
42.8904955437
 21
-17.5121013813
  0
LINE
  5
553
100
AcDbEntity
  8
0
100
AcDbLine
 62
250
  6
CONTINUOUS
 10
42.9915595779
 20
-20.7878411386
 11
43.0154126996
 21
-21.6559649264
  0
LINE
  5
554
100
AcDbEntity
  8
0
100
AcDbLine
 62
250
  6
CONTINUOUS
 10
43.9070539878
 20
-17.5681855068
 11
43.9725833638
 21
-19.9189075181
  0
LWPOLYLINE
  5
555
100
AcDbEntity
  8
0
100
AcDbPolyline
 62
250
  6
CONTINUOUS
 90
9
 70
0
 10
43.9725833638
 20
-19.9189075181
 10
43.9974388423
 20
-20.8530956263
 10
44.0205220835
 20
-21.7790142599
 10
44.0416646009
 20
-22.6947538593
 10
44.0610343373
 20
-23.6016538197
 10
44.0791357369
 20
-24.5041820772
 10
44.0961368776
 20
-25.403512297
 10
44.1118693978
 20
-26.2976444649
 10
44.1263331652
 20
-27.1861723307
  0
LINE
  5
556
100
AcDbEntity
  8
0
100
AcDbLine
 62
250
  6
CONTINUOUS
 10
42.7696893045
 20
-13.4868558588
 11
42.8270015191
 21
-15.4518980616
  0
LINE
  5
557
100
AcDbEntity
  8
0
100
AcDbLine
 62
250
  6
CONTINUOUS
 10
42.7537362504
 20
-12.8791296526
 11
42.7696893045
 21
-13.4868558588
  0
LINE
  5
558
100
AcDbEntity
  8
0
100
AcDbLine
 62
250
  6
CONTINUOUS
 10
43.8698190848
 20
-16.148409344
 11
43.9070539878
 21
-17.5681855068
  0
LINE
  5
559
100
AcDbEntity
  8
0
100
AcDbLine
 62
250
  6
CONTINUOUS
 10
43.0154126996
 20
-21.6559649264
 11
43.0335656517
 21
-22.360396398
  0
LWPOLYLINE
  5
55A
100
AcDbEntity
  8
0
100
AcDbPolyline
 62
7
  6
CONTINUOUS
 90
12
 70
0
 10
41.6008524991
 20
18.2540338223
 10
41.5980135175
 20
18.3698769328
 10
41.5947491992
 20
18.4786205281
 10
41.5910470512
 20
18.5791142425
 10
41.5869195665
 20
18.6703680804
 10
41.5825230429
 20
18.7515558113
 10
41.5778440726
 20
18.8219036617
 10
41.5728960634
 20
18.8805008353
 10
41.5678755367
 20
18.9265587508
 10
41.5628479996
 20
18.9596514238
 10
41.5577479451
 20
18.9795807395
 10
41.552575373
 20
18.9862274464
  0
LINE
  5
55B
100
AcDbEntity
  8
0
100
AcDbLine
 62
250
  6
CONTINUOUS
 10
43.0335656517
 20
-22.360396398
 11
43.0486739934
 21
-22.9887730351
  0
LINE
  5
55C
100
AcDbEntity
  8
0
100
AcDbLine
 62
250
  6
CONTINUOUS
 10
42.7261811579
 20
-11.7663332594
 11
42.7537362504
 21
-12.8791296526
  0
LINE
  5
55D
100
AcDbEntity
  8
0
100
AcDbLine
 62
250
  6
CONTINUOUS
 10
43.8170840134
 20
-14.0008067761
 11
43.8698190848
 21
-16.148409344
  0
LINE
  5
55E
100
AcDbEntity
  8
0
100
AcDbLine
 62
250
  6
CONTINUOUS
 10
41.8324128887
 20
-9.1347188622
 11
41.7698373153
 21
-6.4023408998
  0
LINE
  5
55F
100
AcDbEntity
  8
0
100
AcDbLine
 62
7
  6
CONTINUOUS
 10
41.6115489721
 20
14.7360438094
 11
41.5893927032
 21
15.7057408958
  0
LINE
  5
560
100
AcDbEntity
  8
0
100
AcDbLine
 62
7
  6
CONTINUOUS
 10
41.5508577527
 20
16.0936659063
 11
41.5815181509
 21
14.7360438094
  0
LINE
  5
561
100
AcDbEntity
  8
0
100
AcDbLine
 62
250
  6
CONTINUOUS
 10
43.0486739934
 20
-22.9887730351
 11
43.062003745
 21
-23.586934726
  0
LINE
  5
562
100
AcDbEntity
  8
0
100
AcDbLine
 62
7
  6
CONTINUOUS
 10
41.5674281537
 20
18.390790381
 11
41.5719223339
 21
18.1998458005
  0
LINE
  5
563
100
AcDbEntity
  8
0
100
AcDbLine
 62
7
  6
CONTINUOUS
 10
41.5425524254
 20
16.4816174882
 11
41.5508577527
 21
16.0936659063
  0
LINE
  5
564
100
AcDbEntity
  8
0
100
AcDbLine
 62
7
  6
CONTINUOUS
 10
41.5893927032
 20
15.7057408958
 11
41.5725773902
 21
16.4816174882
  0
LINE
  5
565
100
AcDbEntity
  8
0
100
AcDbLine
 62
250
  6
CONTINUOUS
 10
43.8015286509
 20
-13.2810700852
 11
43.8170840134
 21
-14.0008067761
  0
LINE
  5
566
100
AcDbEntity
  8
0
100
AcDbLine
 62
250
  6
CONTINUOUS
 10
42.7072776088
 20
-10.8903122631
 11
42.7261811579
 21
-11.7663332594
  0
LINE
  5
567
100
AcDbEntity
  8
0
100
AcDbLine
 62
7
  6
CONTINUOUS
 10
41.5404109638
 20
14.7360328094
 11
41.5217909138
 21
15.6489564534
  0
LINE
  5
568
100
AcDbEntity
  8
0
100
AcDbLine
 62
250
  6
CONTINUOUS
 10
43.062003745
 20
-23.586934726
 11
43.0754522291
 21
-24.2436843961
  0
LINE
  5
569
100
AcDbEntity
  8
0
100
AcDbLine
 62
250
  6
CONTINUOUS
 10
42.6872290678
 20
-9.8405713327
 11
42.6904286675
 21
-9.9883368455
  0
LINE
  5
56A
100
AcDbEntity
  8
0
100
AcDbLine
 62
7
  6
CONTINUOUS
 10
41.5217909138
 20
15.6489564534
 11
41.50770104
 21
16.3793908094
  0
LINE
  5
56B
100
AcDbEntity
  8
0
100
AcDbLine
 62
250
  6
CONTINUOUS
 10
43.7875661115
 20
-12.5593486939
 11
43.8015286509
 21
-13.2810700852
  0
LINE
  5
56C
100
AcDbEntity
  8
0
100
AcDbLine
 62
250
  6
CONTINUOUS
 10
44.1263331652
 20
-27.1861723307
 11
44.1398980276
 21
-27.905580267
  0
LINE
  5
56D
100
AcDbEntity
  8
0
100
AcDbLine
 62
250
  6
CONTINUOUS
 10
42.6904286675
 20
-9.9883368455
 11
42.7072776088
 21
-10.8903122631
  0
LWPOLYLINE
  5
56E
100
AcDbEntity
  8
0
100
AcDbPolyline
 62
250
  6
CONTINUOUS
 90
3
 70
0
 10
42.6828875678
 20
-9.6245054683
 10
42.6850265437
 20
-9.7460454246
 10
42.6872290678
 20
-9.8405713327
  0
LINE
  5
56F
100
AcDbEntity
  8
0
100
AcDbLine
 62
250
  6
CONTINUOUS
 10
43.0754522291
 20
-24.2436843961
 11
43.0881639166
 21
-24.9429215744
  0
LINE
  5
570
100
AcDbEntity
  8
0
100
AcDbLine
 62
250
  6
CONTINUOUS
 10
43.7751938069
 20
-11.8357675889
 11
43.7875661115
 21
-12.5593486939
  0
LINE
  5
571
100
AcDbEntity
  8
0
100
AcDbLine
 62
250
  6
CONTINUOUS
 10
42.6669749371
 20
-8.5100075408
 11
42.6774395501
 21
-9.0835658549
  0
LWPOLYLINE
  5
572
100
AcDbEntity
  8
0
100
AcDbPolyline
 62
250
  6
CONTINUOUS
 90
5
 70
0
 10
43.0881639166
 20
-24.9429215744
 10
43.0995794564
 20
-25.6789309646
 10
43.10452659
 20
-26.0529478416
 10
43.1089252378
 20
-26.4319153941
 10
43.1127182779
 20
-26.8156925237
  0
LINE
  5
573
100
AcDbEntity
  8
0
100
AcDbLine
 62
250
  6
CONTINUOUS
 10
43.7625851025
 20
-10.9655744871
 11
43.7751938069
 21
-11.8357675889
  0
LINE
  5
574
100
AcDbEntity
  8
0
100
AcDbLine
 62
250
  6
CONTINUOUS
 10
44.1398980276
 20
-27.905580267
 11
44.1429450465
 21
-28.110604726
  0
LINE
  5
575
100
AcDbEntity
  8
0
100
AcDbLine
 62
7
  6
CONTINUOUS
 10
41.4113321395
 20
4.6240970194
 11
41.4062909819
 21
4.9847037418
  0
LINE
  5
576
100
AcDbEntity
  8
0
100
AcDbLine
 62
7
  6
CONTINUOUS
 10
41.5719223339
 20
18.1998458005
 11
41.5749811628
 21
17.9946122676
  0
LINE
  5
577
100
AcDbEntity
  8
0
100
AcDbLine
 62
7
  6
CONTINUOUS
 10
41.3762909818
 20
4.9847037418
 11
41.3829685168
 21
4.4948517159
  0
LINE
  5
578
100
AcDbEntity
  8
0
100
AcDbLine
 62
7
  6
CONTINUOUS
 10
41.3794201276
 20
-0.7441971413
 11
41.3842909382
 21
-1.1483396782
  0
LINE
  5
579
100
AcDbEntity
  8
0
100
AcDbLine
 62
250
  6
CONTINUOUS
 10
43.750646233
 20
-9.9478701
 11
43.7625851025
 21
-10.9655744871
  0
LINE
  5
57A
100
AcDbEntity
  8
0
100
AcDbLine
 62
7
  6
CONTINUOUS
 10
41.4158599364
 20
-1.2990881906
 11
41.4094205966
 21
-0.7441971413
  0
LINE
  5
57B
100
AcDbEntity
  8
0
100
AcDbLine
 62
7
  6
CONTINUOUS
 10
41.3842909382
 20
-1.1483396782
 11
41.3858584989
 21
-1.2990881906
  0
LINE
  5
57C
100
AcDbEntity
  8
0
100
AcDbLine
 62
7
  6
CONTINUOUS
 10
41.3829685168
 20
4.4948517159
 11
41.3883763803
 21
4.0120080454
  0
LINE
  5
57D
100
AcDbEntity
  8
0
100
AcDbLine
 62
7
  6
CONTINUOUS
 10
41.4184185007
 20
4.0078273524
 11
41.4113321395
 21
4.6240970194
  0
LINE
  5
57E
100
AcDbEntity
  8
0
100
AcDbLine
 62
250
  6
CONTINUOUS
 10
42.6634913083
 20
-8.2298123796
 11
42.6669749371
 21
-8.5100075408
  0
LWPOLYLINE
  5
57F
100
AcDbEntity
  8
0
100
AcDbPolyline
 62
7
  6
CONTINUOUS
 90
4
 70
0
 10
41.6060593157
 20
17.8756544722
 10
41.6048753982
 20
18.0056501318
 10
41.6031473251
 20
18.1322371055
 10
41.6008524991
 20
18.2540338223
  0
LINE
  5
580
100
AcDbEntity
  8
0
100
AcDbLine
 62
250
  6
CONTINUOUS
 10
43.7435275843
 20
-9.1828315615
 11
43.750646233
 21
-9.9478701
  0
LINE
  5
581
100
AcDbEntity
  8
0
100
AcDbLine
 62
7
  6
CONTINUOUS
 10
41.3883763803
 20
4.0120080454
 11
41.3921570213
 21
3.5903607673
  0
LWPOLYLINE
  5
582
100
AcDbEntity
  8
0
100
AcDbPolyline
 62
250
  6
CONTINUOUS
 90
3
 70
0
 10
42.6774395501
 20
-9.0835658549
 10
42.6791273938
 20
-9.291017768
 10
42.6828875678
 20
-9.6245054683
  0
LINE
  5
583
100
AcDbEntity
  8
0
100
AcDbLine
 62
250
  6
CONTINUOUS
 10
42.6539904957
 20
-6.6985503706
 11
42.657970249
 21
-7.1761180023
  0
LINE
  5
584
100
AcDbEntity
  8
0
100
AcDbLine
 62
7
  6
CONTINUOUS
 10
41.4236047304
 20
3.394852549
 11
41.4184185007
 21
4.0078273524
  0
LINE
  5
585
100
AcDbEntity
  8
0
100
AcDbLine
 62
250
  6
CONTINUOUS
 10
44.1429450465
 20
-28.110604726
 11
44.1446671026
 21
-28.3087581685
  0
LINE
  5
586
100
AcDbEntity
  8
0
100
AcDbLine
 62
7
  6
CONTINUOUS
 10
41.3921570213
 20
3.5903607673
 11
41.3949947072
 21
3.180911255
  0
LINE
  5
587
100
AcDbEntity
  8
0
100
AcDbLine
 62
7
  6
CONTINUOUS
 10
41.4212413239
 20
14.7360328094
 11
41.4157314709
 21
15.5718598094
  0
LINE
  5
588
100
AcDbEntity
  8
0
100
AcDbLine
 62
7
  6
CONTINUOUS
 10
41.4563092456
 20
16.6610305249
 11
41.4458805185
 21
18.1994845921
  0
LINE
  5
589
100
AcDbEntity
  8
0
100
AcDbLine
 62
7
  6
CONTINUOUS
 10
41.4109967776
 20
18.9862248094
 11
41.4410755755
 21
14.7360228094
  0
LINE
  5
58A
100
AcDbEntity
  8
0
100
AcDbLine
 62
7
  6
CONTINUOUS
 10
41.4458805185
 20
18.1994845921
 11
41.4410019878
 21
18.9862248094
  0
LINE
  5
58B
100
AcDbEntity
  8
0
100
AcDbLine
 62
7
  6
CONTINUOUS
 10
41.4107498421
 20
16.3793908094
 11
41.4035268591
 21
17.6625088094
  0
LINE
  5
58C
100
AcDbEntity
  8
0
100
AcDbLine
 62
7
  6
CONTINUOUS
 10
41.4262459948
 20
2.9421344151
 11
41.4236047304
 21
3.394852549
  0
LINE
  5
58D
100
AcDbEntity
  8
0
100
AcDbLine
 62
7
  6
CONTINUOUS
 10
41.5749811628
 20
17.9946122676
 11
41.5765169401
 21
17.7807532817
  0
LWPOLYLINE
  5
58E
100
AcDbEntity
  8
0
100
AcDbPolyline
 62
250
  6
CONTINUOUS
 90
3
 70
0
 10
41.7698373153
 20
-6.4023408998
 10
41.7547326242
 20
-3.3587052026
 10
41.7547404288
 20
26.9988520775
  0
LINE
  5
58F
100
AcDbEntity
  8
0
100
AcDbLine
 62
7
  6
CONTINUOUS
 10
41.3949947072
 20
3.180911255
 11
41.3971667391
 21
2.7099375527
  0
LINE
  5
590
100
AcDbEntity
  8
0
100
AcDbLine
 62
250
  6
CONTINUOUS
 10
43.7355533898
 20
-6.7707465054
 11
43.7435275843
 21
-9.1828315615
  0
LINE
  5
591
100
AcDbEntity
  8
0
100
AcDbLine
 62
250
  6
CONTINUOUS
 10
42.6617173679
 20
-7.8452685653
 11
42.6634913083
 21
-8.2298123796
  0
LWPOLYLINE
  5
592
100
AcDbEntity
  8
0
100
AcDbPolyline
 62
250
  6
CONTINUOUS
 90
5
 70
0
 10
43.1105751351
 20
-27.1035831291
 10
43.1106768061
 20
-27.1364812603
 10
43.1114571185
 20
-27.179548108
 10
43.1130197215
 20
-27.2389059738
 10
43.1221978007
 20
-27.5120160656
  0
LINE
  5
593
100
AcDbEntity
  8
0
100
AcDbLine
 62
7
  6
CONTINUOUS
 10
41.42790222
 20
2.4600470342
 11
41.4262459948
 21
2.9421344151
  0
LINE
  5
594
100
AcDbEntity
  8
0
100
AcDbLine
 62
250
  6
CONTINUOUS
 10
42.661175152
 20
-7.6060885164
 11
42.6617173679
 21
-7.8452685653
  0
LINE
  5
595
100
AcDbEntity
  8
0
100
AcDbLine
 62
7
  6
CONTINUOUS
 10
41.3971667391
 20
2.7099375527
 11
41.3983066785
 21
2.2167947804
  0
LINE
  5
596
100
AcDbEntity
  8
0
100
AcDbLine
 62
250
  6
CONTINUOUS
 10
42.6604004795
 20
-7.1791475356
 11
42.661175152
 21
-7.6060885164
  0
LWPOLYLINE
  5
597
100
AcDbEntity
  8
0
100
AcDbPolyline
 62
250
  6
CONTINUOUS
 90
6
 70
0
 10
43.1310670092
 20
-28.0920217321
 10
43.1310121312
 20
-27.9828697405
 10
43.1300924767
 20
-27.8701598167
 10
43.1283129138
 20
-27.7540245209
 10
43.1256792716
 20
-27.6345987579
 10
43.1221978007
 20
-27.5120160656
  0
LINE
  5
598
100
AcDbEntity
  8
0
100
AcDbLine
 62
7
  6
CONTINUOUS
 10
41.4284030771
 20
1.9671681524
 11
41.42790222
 21
2.4600470342
  0
LWPOLYLINE
  5
599
100
AcDbEntity
  8
0
100
AcDbPolyline
 62
250
  6
CONTINUOUS
 90
3
 70
0
 10
44.1446671026
 20
-28.3087581685
 10
44.145075351
 20
-28.4994435375
 10
44.1447846124
 20
-28.5919000385
  0
LINE
  5
59A
100
AcDbEntity
  8
0
100
AcDbLine
 62
7
  6
CONTINUOUS
 10
41.3785151555
 20
18.9862138094
 11
41.3785108581
 21
15.5718598562
  0
LINE
  5
59B
100
AcDbEntity
  8
0
100
AcDbLine
 62
7
  6
CONTINUOUS
 10
41.4062769638
 20
14.7360228094
 11
41.4062909819
 21
4.9847037418
  0
LINE
  5
59C
100
AcDbEntity
  8
0
100
AcDbLine
 62
7
  6
CONTINUOUS
 10
41.4062915378
 20
26.9958468838
 11
41.4062822146
 21
18.9862138094
  0
LWPOLYLINE
  5
59D
100
AcDbEntity
  8
0
100
AcDbPolyline
 62
7
  6
CONTINUOUS
 90
7
 70
0
 10
41.4062849785
 20
-1.6484241397
 10
41.4062764251
 20
-2.8755617206
 10
41.4073226862
 20
-4.768483447
 10
41.4248516864
 20
-6.6411167184
 10
41.4633889888
 20
-8.4899357436
 10
41.5222664328
 20
-10.3179218189
 10
41.5841073322
 20
-11.740113722
  0
LINE
  5
59E
100
AcDbEntity
  8
0
100
AcDbLine
 62
7
  6
CONTINUOUS
 10
41.4563068218
 20
14.7360328094
 11
41.4563121734
 21
18.9862248094
  0
LINE
  5
59F
100
AcDbEntity
  8
0
100
AcDbLine
 62
7
  6
CONTINUOUS
 10
41.4817908215
 20
18.1999428094
 11
41.4817896787
 21
17.1656838094
  0
LINE
  5
5A0
100
AcDbEntity
  8
0
100
AcDbLine
 62
7
  6
CONTINUOUS
 10
41.4821729205
 20
16.3794018094
 11
41.4821681411
 21
14.7360328094
  0
LINE
  5
5A1
100
AcDbEntity
  8
0
100
AcDbLine
 62
7
  6
CONTINUOUS
 10
41.5118055164
 20
17.1656838094
 11
41.5118066588
 21
18.1999428094
  0
LINE
  5
5A2
100
AcDbEntity
  8
0
100
AcDbLine
 62
7
  6
CONTINUOUS
 10
41.5121840367
 20
14.7360328094
 11
41.5121881284
 21
16.1429414568
  0
LINE
  5
5A3
100
AcDbEntity
  8
0
100
AcDbLine
 62
250
  6
CONTINUOUS
 10
42.6701519528
 20
27.0067475422
 11
42.6701519507
 21
-2.9028711885
  0
LINE
  5
5A4
100
AcDbEntity
  8
0
100
AcDbLine
 62
250
  6
CONTINUOUS
 10
43.7590299173
 20
-2.902871191
 11
43.7589380146
 21
27.0650243042
  0
LINE
  5
5A5
100
AcDbEntity
  8
0
100
AcDbLine
 62
250
  6
CONTINUOUS
 10
42.6538556559
 20
-6.0661362397
 11
42.6539904957
 21
-6.6985503706
  0
LINE
  5
5A6
100
AcDbEntity
  8
0
100
AcDbLine
 62
7
  6
CONTINUOUS
 10
41.3983066785
 20
2.2167947804
 11
41.3981966462
 21
1.7239699255
  0
LWPOLYLINE
  5
5A7
100
AcDbEntity
  8
0
100
AcDbPolyline
 62
250
  6
CONTINUOUS
 90
3
 70
0
 10
42.6573310872
 20
-4.6065094504
 10
42.6572448772
 20
-4.693588158
 10
42.6567514735
 20
-4.7802753169
  0
LINE
  5
5A8
100
AcDbEntity
  8
0
100
AcDbLine
 62
7
  6
CONTINUOUS
 10
41.4277018709
 20
1.4764928116
 11
41.4284030771
 21
1.9671681524
  0
LINE
  5
5A9
100
AcDbEntity
  8
0
100
AcDbLine
 62
250
  6
CONTINUOUS
 10
42.052217917
 20
-2.902871191
 11
42.0517844316
 21
-3.4164199677
  0
LINE
  5
5AA
100
AcDbEntity
  8
0
100
AcDbLine
 62
7
  6
CONTINUOUS
 10
41.5765169401
 20
17.7807532817
 11
41.5764319692
 21
17.564178344
  0
LINE
  5
5AB
100
AcDbEntity
  8
0
100
AcDbLine
 62
250
  6
CONTINUOUS
 10
42.0502400728
 20
-4.4083570726
 11
42.0502638529
 21
-4.9572618216
  0
LINE
  5
5AC
100
AcDbEntity
  8
0
100
AcDbLine
 62
250
  6
CONTINUOUS
 10
42.0511260331
 20
-3.6508208105
 11
42.0501208266
 21
-4.2556749812
  0
LINE
  5
5AD
100
AcDbEntity
  8
0
100
AcDbLine
 62
250
  6
CONTINUOUS
 10
42.0517844316
 20
-3.4164199677
 11
42.0511260331
 21
-3.6508208105
  0
LINE
  5
5AE
100
AcDbEntity
  8
0
100
AcDbLine
 62
7
  6
CONTINUOUS
 10
41.3842097125
 20
15.5719478413
 11
41.386690179
 21
16.3794251132
  0
LINE
  5
5AF
100
AcDbEntity
  8
0
100
AcDbLine
 62
7
  6
CONTINUOUS
 10
41.3981966462
 20
1.7239699255
 11
41.396900727
 21
1.2351819894
  0
LINE
  5
5B0
100
AcDbEntity
  8
0
100
AcDbLine
 62
250
  6
CONTINUOUS
 10
42.6573436833
 20
-4.7984338417
 11
42.6538556559
 21
-6.0661362397
  0
LINE
  5
5B1
100
AcDbEntity
  8
0
100
AcDbLine
 62
250
  6
CONTINUOUS
 10
42.0507445868
 20
-4.2556846024
 11
42.0502400728
 21
-4.4083570726
  0
LINE
  5
5B2
100
AcDbEntity
  8
0
100
AcDbLine
 62
250
  6
CONTINUOUS
 10
43.1113199871
 20
-26.8599437685
 11
43.1105751351
 21
-27.1035831291
  0
LINE
  5
5B3
100
AcDbEntity
  8
0
100
AcDbLine
 62
250
  6
CONTINUOUS
 10
43.7425488003
 20
-4.8445279614
 11
43.7355533898
 21
-6.7707465054
  0
LINE
  5
5B4
100
AcDbEntity
  8
0
100
AcDbLine
 62
7
  6
CONTINUOUS
 10
41.4202233658
 20
14.7360328094
 11
41.420591027
 21
14.8320634101
  0
LINE
  5
5B5
100
AcDbEntity
  8
0
100
AcDbLine
 62
7
  6
CONTINUOUS
 10
41.3935709463
 20
15.5718598094
 11
41.3902212706
 21
14.7360328094
  0
LINE
  5
5B6
100
AcDbEntity
  8
0
100
AcDbLine
 62
7
  6
CONTINUOUS
 10
43.7590299616
 20
-2.902871191
 11
43.7589816627
 21
-2.9138611285
  0
LINE
  5
5B7
100
AcDbEntity
  8
0
100
AcDbLine
 62
7
  6
CONTINUOUS
 10
41.3913114694
 20
17.6625577952
 11
41.396964556
 21
18.9862248094
  0
LWPOLYLINE
  5
5B8
100
AcDbEntity
  8
0
100
AcDbPolyline
 62
7
  6
CONTINUOUS
 90
4
 70
0
 10
41.6059887728
 20
17.4803485169
 10
41.6066160029
 20
17.6116403001
 10
41.6066480498
 20
17.7438067865
 10
41.6060593157
 20
17.8756544722
  0
LINE
  5
5B9
100
AcDbEntity
  8
0
100
AcDbLine
 62
7
  6
CONTINUOUS
 10
41.4035268591
 20
17.6625088094
 11
41.3971495732
 21
16.3793908094
  0
LINE
  5
5BA
100
AcDbEntity
  8
0
100
AcDbLine
 62
7
  6
CONTINUOUS
 10
41.396900727
 20
1.2351819894
 11
41.3945267398
 21
0.7645029883
  0
LINE
  5
5BB
100
AcDbEntity
  8
0
100
AcDbLine
 62
7
  6
CONTINUOUS
 10
41.4245184792
 20
0.7627420475
 11
41.4277018709
 21
1.4764928116
  0
LINE
  5
5BC
100
AcDbEntity
  8
0
100
AcDbLine
 62
7
  6
CONTINUOUS
 10
41.3858584989
 20
-1.2990881906
 11
41.3835949968
 21
-1.6484241906
  0
LINE
  5
5BD
100
AcDbEntity
  8
0
100
AcDbLine
 62
7
  6
CONTINUOUS
 10
41.4135960964
 20
-1.6484241906
 11
41.4158599364
 21
-1.2990881906
  0
LINE
  5
5BE
100
AcDbEntity
  8
0
100
AcDbLine
 62
250
  6
CONTINUOUS
 10
43.7463253042
 20
-4.294939857
 11
43.7425488003
 21
-4.8445279614
  0
LINE
  5
5BF
100
AcDbEntity
  8
0
100
AcDbLine
 62
7
  6
CONTINUOUS
 10
41.3945267398
 20
0.7645029883
 11
41.39126152
 21
0.3229537513
  0
LINE
  5
5C0
100
AcDbEntity
  8
0
100
AcDbLine
 62
250
  6
CONTINUOUS
 10
42.6668430591
 20
-3.2060142095
 11
42.6573310872
 21
-4.6065094504
  0
LINE
  5
5C1
100
AcDbEntity
  8
0
100
AcDbLine
 62
7
  6
CONTINUOUS
 10
41.4196130684
 20
0.1352209031
 11
41.4245184792
 21
0.7627420475
  0
LINE
  5
5C2
100
AcDbEntity
  8
0
100
AcDbLine
 62
250
  6
CONTINUOUS
 10
43.7589819837
 20
-2.9138611227
 11
43.7463253042
 21
-4.294939857
  0
LINE
  5
5C3
100
AcDbEntity
  8
0
100
AcDbLine
 62
7
  6
CONTINUOUS
 10
41.5764319692
 20
17.564178344
 11
41.574759623
 21
17.3508893231
  0
LINE
  5
5C4
100
AcDbEntity
  8
0
100
AcDbLine
 62
7
  6
CONTINUOUS
 10
41.39126152
 20
0.3229537513
 11
41.3859103638
 21
-0.223083801
  0
LWPOLYLINE
  5
5C5
100
AcDbEntity
  8
0
100
AcDbPolyline
 62
250
  6
CONTINUOUS
 90
13
 70
0
 10
44.1447846124
 20
-28.5919000385
 10
44.1421436523
 20
-28.8266762403
 10
44.1376396319
 20
-29.0468333911
 10
44.1312869849
 20
-29.2517530152
 10
44.1230024583
 20
-29.4403132619
 10
44.1129209704
 20
-29.6115913064
 10
44.1013868755
 20
-29.765137408
 10
44.0884150396
 20
-29.9002377658
 10
44.0740312448
 20
-30.0161031057
 10
44.0585969026
 20
-30.1122719383
 10
44.0422465453
 20
-30.1883471823
 10
44.024904021
 20
-30.2439516831
 10
44.0066156578
 20
-30.2786691972
  0
LINE
  5
5C6
100
AcDbEntity
  8
0
100
AcDbLine
 62
250
  6
CONTINUOUS
 10
42.6703960975
 20
-2.9028711855
 11
42.6668430591
 21
-3.2060142095
  0
LINE
  5
5C7
100
AcDbEntity
  8
0
100
AcDbLine
 62
250
  6
CONTINUOUS
 10
43.1123142613
 20
-26.8134562418
 11
43.1120354845
 21
-26.8369166649
  0
LWPOLYLINE
  5
5C8
100
AcDbEntity
  8
0
100
AcDbPolyline
 62
7
  6
CONTINUOUS
 90
3
 70
0
 10
41.6030013037
 20
17.224784925
 10
41.6047921243
 20
17.3509971892
 10
41.6059887728
 20
17.4803485169
  0
LINE
  5
5C9
100
AcDbEntity
  8
0
100
AcDbLine
 62
7
  6
CONTINUOUS
 10
41.3859103638
 20
-0.223083801
 11
41.3794201276
 21
-0.7441971413
  0
LWPOLYLINE
  5
5CA
100
AcDbEntity
  8
0
100
AcDbPolyline
 62
7
  6
CONTINUOUS
 90
3
 70
0
 10
41.4094205966
 20
-0.7441971413
 10
41.4108932449
 20
-0.6412118125
 10
41.4196130684
 20
0.1352209031
  0
LINE
  5
5CB
100
AcDbEntity
  8
0
100
AcDbLine
 62
250
  6
CONTINUOUS
 10
42.0482244481
 20
-4.9723230123
 11
42.0451609804
 21
-5.201161761
  0
LWPOLYLINE
  5
5CC
100
AcDbEntity
  8
0
100
AcDbPolyline
 62
7
  6
CONTINUOUS
 90
3
 70
0
 10
41.574759623
 20
17.3508893231
 10
41.5715484023
 20
17.1467820834
 10
41.5694070592
 20
17.0499489733
  0
LWPOLYLINE
  5
5CD
100
AcDbEntity
  8
0
100
AcDbPolyline
 62
250
  6
CONTINUOUS
 90
3
 70
0
 10
43.1120354845
 20
-26.8369166649
 10
43.1117654824
 20
-26.8525006382
 10
43.1116034449
 20
-26.8602760866
  0
LINE
  5
5CE
100
AcDbEntity
  8
0
100
AcDbLine
 62
250
  6
CONTINUOUS
 10
42.0451609804
 20
-5.201161761
 11
42.0410993627
 21
-5.4265342142
  0
LINE
  5
5CF
100
AcDbEntity
  8
0
100
AcDbLine
 62
250
  6
CONTINUOUS
 10
42.0236527706
 20
-5.6258547731
 11
42.0145543899
 21
-6.0624997707
  0
LINE
  5
5D0
100
AcDbEntity
  8
0
100
AcDbLine
 62
250
  6
CONTINUOUS
 10
42.0410993627
 20
-5.4265342142
 11
42.0361395493
 21
-5.6484974635
  0
LINE
  5
5D1
100
AcDbEntity
  8
0
100
AcDbLine
 62
250
  6
CONTINUOUS
 10
42.0396315905
 20
-5.1712910692
 11
42.0301676797
 21
-5.5543055057
  0
LINE
  5
5D2
100
AcDbEntity
  8
0
100
AcDbLine
 62
250
  6
CONTINUOUS
 10
42.029914053
 20
-5.381938572
 11
42.0236527706
 21
-5.6258547731
  0
LWPOLYLINE
  5
5D3
100
AcDbEntity
  8
0
100
AcDbPolyline
 62
7
  6
CONTINUOUS
 90
9
 70
0
 10
41.5694070592
 20
17.0499489733
 10
41.566914912
 20
16.9574952958
 10
41.5641419484
 20
16.8700581504
 10
41.5610816668
 20
16.7882415682
 10
41.5577405686
 20
16.7126091213
 10
41.5542081461
 20
16.643679889
 10
41.5505142302
 20
16.5819290199
 10
41.5466289899
 20
16.5277836571
 10
41.5425524254
 20
16.4816174882
  0
LINE
  5
5D4
100
AcDbEntity
  8
0
100
AcDbLine
 62
7
  6
CONTINUOUS
 10
42.0301676797
 20
-5.5543055057
 11
42.0244426495
 21
-5.7702698679
  0
LINE
  5
5D5
100
AcDbEntity
  8
0
100
AcDbLine
 62
250
  6
CONTINUOUS
 10
42.0361395493
 20
-5.6484974635
 11
42.0302772842
 21
-5.8670938793
  0
LINE
  5
5D6
100
AcDbEntity
  8
0
100
AcDbLine
 62
250
  6
CONTINUOUS
 10
42.0425398877
 20
-5.0679072728
 11
42.0396941539
 21
-5.1687262949
  0
LINE
  5
5D7
100
AcDbEntity
  8
0
100
AcDbLine
 62
250
  6
CONTINUOUS
 10
42.0302772842
 20
-5.8670938793
 11
42.0266624667
 21
-5.9871242015
  0
LINE
  5
5D8
100
AcDbEntity
  8
0
100
AcDbLine
 62
250
  6
CONTINUOUS
 10
42.0376568033
 20
-5.1259351251
 11
42.029914053
 21
-5.381938572
  0
LINE
  5
5D9
100
AcDbEntity
  8
0
100
AcDbLine
 62
7
  6
CONTINUOUS
 10
42.0244426495
 20
-5.7702698679
 11
42.018224444
 21
-5.9700614045
  0
LINE
  5
5DA
100
AcDbEntity
  8
0
100
AcDbLine
 62
250
  6
CONTINUOUS
 10
42.0391670581
 20
-5.0842479245
 11
42.0376568033
 21
-5.1259351251
  0
LINE
  5
5DB
100
AcDbEntity
  8
0
100
AcDbLine
 62
250
  6
CONTINUOUS
 10
42.0266624667
 20
-5.9871242015
 11
42.0007828429
 21
-6.6753402783
  0
LINE
  5
5DC
100
AcDbEntity
  8
0
100
AcDbLine
 62
7
  6
CONTINUOUS
 10
42.0181869072
 20
-5.9700432215
 11
41.9924171216
 21
-6.6259479974
  0
LWPOLYLINE
  5
5DD
100
AcDbEntity
  8
0
100
AcDbPolyline
 62
250
  6
CONTINUOUS
 90
4
 70
0
 10
42.0453575368
 20
-4.9931870214
 10
42.0445168195
 20
-5.0104144632
 10
42.0437982015
 20
-5.029198075
 10
42.0425398877
 20
-5.0679072728
  0
LWPOLYLINE
  5
5DE
100
AcDbEntity
  8
0
100
AcDbPolyline
 62
250
  6
CONTINUOUS
 90
19
 70
0
 10
42.0007828429
 20
-6.6753402783
 10
41.9676085727
 20
-7.3535611964
 10
41.9284081427
 20
-8.0202087995
 10
41.8844621551
 20
-8.6706037676
 10
41.836432899
 20
-9.3065970692
 10
41.7842510218
 20
-9.9356996485
 10
41.7281654843
 20
-10.5578006634
 10
41.6688339585
 20
-11.1695368679
 10
41.6065700191
 20
-11.773195695
 10
41.5416552858
 20
-12.3680115959
 10
41.4745603315
 20
-12.9515368992
 10
41.4058517214
 20
-13.5238495998
 10
41.3358737517
 20
-14.0842273341
 10
41.2650694595
 20
-14.6305076104
 10
41.1941635132
 20
-15.1611005822
 10
41.1234805785
 20
-15.6759021049
 10
41.0535227916
 20
-16.1725274003
 10
40.9852487891
 20
-16.6469127394
 10
40.9191959317
 20
-17.0975965245
  0
LWPOLYLINE
  5
5DF
100
AcDbEntity
  8
0
100
AcDbPolyline
 62
250
  6
CONTINUOUS
 90
16
 70
0
 10
42.6701522699
 20
27.006747557
 10
42.672809554
 20
27.0593538607
 10
42.6807361939
 20
27.1109460582
 10
42.6938136937
 20
27.1611771695
 10
42.7119421856
 20
27.2097412289
 10
42.7349334056
 20
27.256188394
 10
42.7624192492
 20
27.2998923816
 10
42.7939711566
 20
27.3402379622
 10
42.8293343922
 20
27.3768711638
 10
42.868327833
 20
27.4096116813
 10
42.9106197597
 20
27.4382035696
 10
42.9556034218
 20
27.4621927329
 10
43.0026287093
 20
27.4811879675
 10
43.0512438233
 20
27.4950047473
 10
43.1011671755
 20
27.5035553387
 10
43.1520652717
 20
27.5067285131
  0
LWPOLYLINE
  5
5E0
100
AcDbEntity
  8
0
100
AcDbPolyline
 62
7
  6
CONTINUOUS
 90
16
 70
0
 10
41.9924171216
 20
-6.6259479974
 10
41.9472736479
 20
-7.4949377581
 10
41.8920230607
 20
-8.3493030384
 10
41.8288633626
 20
-9.1814869531
 10
41.7591099626
 20
-9.993476694
 10
41.6828390061
 20
-10.7961627015
 10
41.6005864176
 20
-11.5917390067
 10
41.5139186979
 20
-12.3720795371
 10
41.4241958234
 20
-13.1322191276
 10
41.3325105107
 20
-13.8698640612
 10
41.2399560774
 20
-14.5823442922
 10
41.1479145559
 20
-15.2647604108
 10
41.0573970469
 20
-15.9148778572
 10
40.9692688249
 20
-16.530849457
 10
40.8846666222
 20
-17.1087963117
 10
40.8045718662
 20
-17.6453116914
  0
LINE
  5
5E1
100
AcDbEntity
  8
0
100
AcDbLine
 62
7
  6
CONTINUOUS
 10
42.0455266953
 20
-4.9901737123
 11
42.0453575368
 21
-4.9931870214
  0
LINE
  5
5E2
100
AcDbEntity
  8
0
100
AcDbLine
 62
7
  6
CONTINUOUS
 10
42.0493381911
 20
-4.9572656344
 11
42.0482244475
 21
-4.9723230679
  0
LWPOLYLINE
  5
5E3
100
AcDbEntity
  8
0
100
AcDbPolyline
 62
250
  6
CONTINUOUS
 90
6
 70
0
 10
42.0447193462
 20
-4.9784336236
 10
42.0435875099
 20
-4.9934197209
 10
42.0425672406
 20
-5.0096779377
 10
42.0416423555
 20
-5.0271228644
 10
42.0407818144
 20
-5.045473445
 10
42.0391670581
 20
-5.0842479245
  0
LWPOLYLINE
  5
5E4
100
AcDbEntity
  8
0
100
AcDbPolyline
 62
7
  6
CONTINUOUS
 90
9
 70
0
 10
41.5725773902
 20
16.4816174882
 10
41.577567399
 20
16.5390221395
 10
41.5822436739
 20
16.608230277
 10
41.5866062149
 20
16.6885514598
 10
41.5907069079
 20
16.7791934442
 10
41.5944938669
 20
16.8792275855
 10
41.5978114339
 20
16.9875838988
 10
41.6006410648
 20
17.1031759975
 10
41.6030013037
 20
17.224784925
  0
LINE
  5
5E5
100
AcDbEntity
  8
0
100
AcDbLine
 62
7
  6
CONTINUOUS
 10
41.4157314709
 20
15.5718598094
 11
41.3935709463
 21
15.5718598094
  0
LINE
  5
5E6
100
AcDbEntity
  8
0
100
AcDbLine
 62
7
  6
CONTINUOUS
 10
41.3971495732
 20
16.3793908094
 11
41.4107498421
 21
16.3793908094
  0
LINE
  5
5E7
100
AcDbEntity
  8
0
100
AcDbLine
 62
7
  6
CONTINUOUS
 10
41.5725773902
 20
16.4816174882
 11
41.5425524254
 21
16.4816174882
  0
LINE
  5
5E8
100
AcDbEntity
  8
0
100
AcDbLine
 62
7
  6
CONTINUOUS
 10
41.4817896787
 20
17.1656838094
 11
41.5180711813
 21
17.1656838094
  0
LINE
  5
5E9
100
AcDbEntity
  8
0
100
AcDbLine
 62
7
  6
CONTINUOUS
 10
62.3104792195
 20
18.9862138094
 11
62.2804846723
 21
18.9862138094
  0
LINE
  5
5EA
100
AcDbEntity
  8
0
100
AcDbLine
 62
7
  6
CONTINUOUS
 10
62.2759398426
 20
18.9862138094
 11
62.2459401139
 21
18.9862138094
  0
LINE
  5
5EB
100
AcDbEntity
  8
0
100
AcDbLine
 62
7
  6
CONTINUOUS
 10
62.2361092566
 20
18.9862138094
 11
62.2061035504
 21
18.9862138094
  0
LINE
  5
5EC
100
AcDbEntity
  8
0
100
AcDbLine
 62
7
  6
CONTINUOUS
 10
62.1310457054
 20
18.9862138094
 11
62.1010242205
 21
18.9862138094
  0
LINE
  5
5ED
100
AcDbEntity
  8
0
100
AcDbLine
 62
7
  6
CONTINUOUS
 10
41.4085154926
 20
18.9862138094
 11
41.3785151555
 21
18.9862138094
  0
LINE
  5
5EE
100
AcDbEntity
  8
0
100
AcDbLine
 62
7
  6
CONTINUOUS
 10
62.3248152558
 20
18.9862138094
 11
62.3269944758
 21
18.9862138094
  0
LINE
  5
5EF
100
AcDbEntity
  8
0
100
AcDbLine
 62
7
  6
CONTINUOUS
 10
41.4410019878
 20
18.9862248094
 11
41.4109967776
 21
18.9862248094
  0
LINE
  5
5F0
100
AcDbEntity
  8
0
100
AcDbLine
 62
7
  6
CONTINUOUS
 10
41.4563121734
 20
18.9862248094
 11
41.552575373
 21
18.9862248094
  0
LINE
  5
5F1
100
AcDbEntity
  8
0
100
AcDbLine
 62
7
  6
CONTINUOUS
 10
41.50770104
 20
16.3793908094
 11
41.4821729205
 21
16.3794018094
  0
LINE
  5
5F2
100
AcDbEntity
  8
0
100
AcDbLine
 62
7
  6
CONTINUOUS
 10
45.8062892731
 20
-31.0183709913
 11
45.8062892731
 21
-31.8904352747
  0
LINE
  5
5F3
100
AcDbEntity
  8
0
100
AcDbLine
 62
7
  6
CONTINUOUS
 10
46.5562892731
 20
-32.8191440557
 11
46.5562892731
 21
-33.388871242
  0
LWPOLYLINE
  5
5F4
100
AcDbEntity
  8
SUPERFICI
100
AcDbPolyline
 62
7
  6
CONTINUOUS
 90
10
 70
0
 10
41.5841073219
 20
-11.7401134843
 10
41.5139208046
 20
-12.3720611682
 10
41.4241982622
 20
-13.1321990215
 10
41.3325132599
 20
-13.8698424513
 10
41.2399591078
 20
-14.5823214246
 10
41.1479178268
 20
-15.2647365631
 10
41.0574005138
 20
-15.9148533152
 10
40.9692724346
 20
-16.5308245312
 10
40.8846703171
 20
-17.1087713329
 10
40.8045718972
 20
-17.6453117
  0
LWPOLYLINE
  5
5F5
100
AcDbEntity
  8
0
100
AcDbPolyline
 62
7
  6
CONTINUOUS
 90
4
 70
0
 10
40.3485218156
 20
-20.5655787766
 10
40.3397759602
 20
-20.6378105884
 10
40.3362705296
 20
-20.7236310861
 10
40.3401864025
 20
-20.8096664619
  0
LINE
  5
5F6
100
AcDbEntity
  8
0
100
AcDbLine
 62
250
  6
CONTINUOUS
 10
40.7660956586
 20
-18.1133398287
 11
40.7628201959
 21
-18.1360633229
  0
LINE
  5
5F7
100
AcDbEntity
  8
0
100
AcDbLine
 62
250
  6
CONTINUOUS
 10
40.9191959317
 20
-17.0975965245
 11
40.8366021181
 21
-17.6500933907
  0
LINE
  5
5F8
100
AcDbEntity
  8
SUPERFICI
100
AcDbLine
 62
7
  6
CONTINUOUS
 10
40.8045718972
 20
-17.6453117
 11
40.7288256554
 21
-18.1446031233
  0
LINE
  5
5F9
100
AcDbEntity
  8
0
100
AcDbLine
 62
7
  6
CONTINUOUS
 10
40.8045718662
 20
-17.6453116914
 11
40.7288219821
 21
-18.1446271641
  0
LINE
  5
5FA
100
AcDbEntity
  8
0
100
AcDbLine
 62
7
  6
CONTINUOUS
 10
40.8366021181
 20
-17.6500933907
 11
40.7660956586
 21
-18.1133398287
  0
LINE
  5
5FB
100
AcDbEntity
  8
SUPERFICI
100
AcDbLine
 62
7
  6
CONTINUOUS
 10
40.7288256554
 20
-18.1446031233
 11
40.6547490433
 21
-18.6261450417
  0
LINE
  5
5FC
100
AcDbEntity
  8
SUPERFICI
100
AcDbLine
 62
7
  6
CONTINUOUS
 10
40.6547490433
 20
-18.6261450417
 11
40.5957297454
 21
-19.0058219276
  0
LINE
  5
5FD
100
AcDbEntity
  8
0
100
AcDbLine
 62
7
  6
CONTINUOUS
 10
40.7288219821
 20
-18.1446271641
 11
40.6547490594
 21
-18.6261450415
  0
LINE
  5
5FE
100
AcDbEntity
  8
0
100
AcDbLine
 62
7
  6
CONTINUOUS
 10
40.6547490594
 20
-18.6261450415
 11
40.5389490797
 21
-19.3677858218
  0
LINE
  5
5FF
100
AcDbEntity
  8
0
100
AcDbLine
 62
250
  6
CONTINUOUS
 10
40.7628201959
 20
-18.1360633229
 11
40.6862539436
 21
-18.6310423561
  0
LWPOLYLINE
  5
600
100
AcDbEntity
  8
0
100
AcDbPolyline
 62
7
  6
CONTINUOUS
 90
3
 70
0
 10
40.6862539436
 20
-18.6310423561
 10
40.6197456241
 20
-19.0573174463
 10
40.5958933435
 20
-19.2086889879
  0
LINE
  5
601
100
AcDbEntity
  8
0
100
AcDbLine
 62
7
  6
CONTINUOUS
 10
40.5389490797
 20
-19.3677858218
 11
40.4462703215
 21
-19.9528351543
  0
LINE
  5
602
100
AcDbEntity
  8
0
100
AcDbLine
 62
250
  6
CONTINUOUS
 10
40.5958933435
 20
-19.2086889879
 11
40.5027344714
 21
-19.7968522291
  0
LINE
  5
603
100
AcDbEntity
  8
0
100
AcDbLine
 62
7
  6
CONTINUOUS
 10
40.3488463547
 20
-20.5635426201
 11
40.3485221561
 21
-20.5655766261
  0
LINE
  5
604
100
AcDbEntity
  8
0
100
AcDbLine
 62
7
  6
CONTINUOUS
 10
40.4462703215
 20
-19.9528351543
 11
40.3485221561
 21
-20.5655766262
  0
LINE
  5
605
100
AcDbEntity
  8
SUPERFICI
100
AcDbLine
 62
7
  6
CONTINUOUS
 10
40.4110157724
 20
-20.173891556
 11
40.3836384436
 21
-20.3453662982
  0
LINE
  5
606
100
AcDbEntity
  8
0
100
AcDbLine
 62
250
  6
CONTINUOUS
 10
40.5027344714
 20
-19.7968522291
 11
40.3632875667
 21
-20.6658916078
  0
LINE
  5
607
100
AcDbEntity
  8
0
100
AcDbLine
 62
250
  6
CONTINUOUS
 10
40.3632875667
 20
-20.6658916078
 11
40.3401889845
 21
-20.8096662322
  0
LWPOLYLINE
  5
608
100
AcDbEntity
  8
0
100
AcDbPolyline
 62
7
  6
CONTINUOUS
 90
25
 70
0
 10
41.5180711813
 20
17.1656808094
 10
41.5206842963
 20
17.1700469731
 10
41.5231940389
 20
17.1831282877
 10
41.5256004091
 20
17.2047862429
 10
41.527948983
 20
17.2348094849
 10
41.5301941846
 20
17.2727158439
 10
41.5321992847
 20
17.3175856245
 10
41.5339442961
 20
17.3683419766
 10
41.5354492061
 20
17.424232826
 10
41.5366372476
 20
17.4846243914
 10
41.5374947105
 20
17.548692971
 10
41.5380353048
 20
17.6152021944
 10
41.5382233931
 20
17.6828675334
 10
41.538035226
 20
17.7505183629
 10
41.5374945529
 20
17.8169990383
 10
41.5366369852
 20
17.8810469038
 10
41.5354488879
 20
17.9414317471
 10
41.533943896
 20
17.9973218958
 10
41.5321985256
 20
18.048081583
 10
41.5301923092
 20
18.092962875
 10
41.5279457142
 20
18.130877367
 10
41.5255966589
 20
18.1608898754
 10
41.523191116
 20
18.1825241943
 10
41.5206831128
 20
18.1955840083
 10
41.5180726493
 20
18.1999408094
  0
LWPOLYLINE
  5
609
100
AcDbEntity
  8
0
100
AcDbPolyline
 62
7
  6
CONTINUOUS
 90
5
 70
0
 43
0.3499999917
 10
52.8205755615
 20
37.8598516846
 10
53.1777191162
 20
38.0741390991
 10
53.1777191162
 20
38.7169949341
 10
52.8205755615
 20
39.1455697632
 10
51.963432312
 20
39.1455697632
  0
LINE
  5
60A
100
AcDbEntity
  8
0
100
AcDbLine
 62
7
  6
CONTINUOUS
 10
51.8562892731
 20
27.5826891252
 11
51.8562892731
 21
-34.188871242
  0
LINE
  5
60B
100
AcDbEntity
  8
RACCORDO
100
AcDbLine
 62
7
  6
CONTINUOUS
 10
51.8562892731
 20
-30.770614425
 11
51.8562892731
 21
-34.188871242
  0
LINE
  5
60C
100
AcDbEntity
  8
SUPERFICI
100
AcDbLine
 62
7
  6
CONTINUOUS
 10
52.8562892731
 20
-19.9412363854
 11
52.8562892731
 21
-27.2365059958
  0
LINE
  5
60D
100
AcDbEntity
  8
SUPERFICI
100
AcDbLine
 62
7
  6
CONTINUOUS
 10
53.8562892731
 20
-19.9237813205
 11
53.8562892731
 21
-20.5888711906
  0
LINE
  5
60E
100
AcDbEntity
  8
SUPERFICI
100
AcDbLine
 62
7
  6
CONTINUOUS
 10
53.8562892731
 20
-21.5888711906
 11
53.8562892731
 21
-25.5888711906
  0
LINE
  5
60F
100
AcDbEntity
  8
SUPERFICI
100
AcDbLine
 62
7
  6
CONTINUOUS
 10
53.8562892731
 20
-26.5888711906
 11
53.8562892731
 21
-27.2539610608
  0
LINE
  5
610
100
AcDbEntity
  8
0
100
AcDbLine
 62
7
  6
CONTINUOUS
 10
57.1562892731
 20
-33.388871242
 11
57.1562892731
 21
-32.8191440557
  0
LWPOLYLINE
  5
611
100
AcDbEntity
  8
0
100
AcDbPolyline
 62
250
  6
CONTINUOUS
 90
15
 70
0
 10
43.822121865
 20
27.5154481089
 10
43.8150409874
 20
27.5126236079
 10
43.8080947958
 20
27.5043107487
 10
43.8013597583
 20
27.4906058876
 10
43.7949106566
 20
27.4716664901
 10
43.7888178183
 20
27.4477047924
 10
43.7831466507
 20
27.4189812986
 10
43.7779642738
 20
27.3858077138
 10
43.7733241668
 20
27.3485540158
 10
43.7692633864
 20
27.3076397134
 10
43.7658225898
 20
27.2635275503
 10
43.7630436214
 20
27.2166968611
 10
43.7609554485
 20
27.1676429682
 10
43.7595814202
 20
27.116897151
 10
43.7589380146
 20
27.0650243042
  0
LWPOLYLINE
  5
612
100
AcDbEntity
  8
0
100
AcDbPolyline
 62
7
  6
CONTINUOUS
 90
16
 70
0
 10
41.9019260039
 20
27.4958187128
 10
41.8498281652
 20
27.4926599079
 10
41.7986584036
 20
27.4841598267
 10
41.7487635104
 20
27.4704106788
 10
41.7004770736
 20
27.4514985289
 10
41.6542282273
 20
27.4275796885
 10
41.6105905291
 20
27.3989557717
 10
41.5701007177
 20
27.3659260857
 10
41.533290558
 20
27.3287943403
 10
41.5006140793
 20
27.2880184034
 10
41.4723703322
 20
27.2441323754
 10
41.4488542254
 20
27.1976757393
 10
41.4303627409
 20
27.1492253787
 10
41.4170484307
 20
27.0992121114
 10
41.4089942467
 20
27.0479700764
 10
41.4062892673
 20
26.9958468838
  0
LWPOLYLINE
  5
613
100
AcDbEntity
  8
0
100
AcDbPolyline
 62
250
  6
CONTINUOUS
 90
7
 70
0
 10
43.0154050702
 20
27.5055358976
 10
42.9849400713
 20
27.5043906897
 10
42.9560437447
 20
27.5016615802
 10
42.9287316225
 20
27.4975794542
 10
42.9030075372
 20
27.4923610021
 10
42.8788651276
 20
27.4862092541
 10
42.8562892732
 20
27.479314091
  0
LINE
  5
614
100
AcDbEntity
  8
0
100
AcDbLine
 62
7
  6
CONTINUOUS
 10
41.9055711381
 20
27.4958505236
 11
51.8562892731
 21
27.5826891252
  0
LINE
  5
615
100
AcDbEntity
  8
0
100
AcDbLine
 62
7
  6
CONTINUOUS
 10
51.8562892731
 20
27.0826701117
 11
43.7590299622
 21
27.0125952287
  0
LINE
  5
616
100
AcDbEntity
  8
0
100
AcDbLine
 62
250
  6
CONTINUOUS
 10
41.4062892673
 20
26.9958468838
 11
42.6701522699
 21
27.006747557
  0
LINE
  5
617
100
AcDbEntity
  8
0
100
AcDbLine
 62
250
  6
CONTINUOUS
 10
43.7590299205
 20
27.0125952293
 11
42.6701519528
 21
27.0067475422
  0
LINE
  5
618
100
AcDbEntity
  8
RACCORDO
100
AcDbLine
 62
7
  6
CONTINUOUS
 10
48.4360085819
 20
27.7111288094
 11
55.2765699643
 21
27.7111288094
  0
LINE
  5
619
100
AcDbEntity
  8
0
100
AcDbLine
 62
250
  6
CONTINUOUS
 10
59.9535486256
 20
27.0125952293
 11
61.0424265934
 21
27.0067475422
  0
LINE
  5
61A
100
AcDbEntity
  8
0
100
AcDbLine
 62
7
  6
CONTINUOUS
 10
51.8562892731
 20
27.0826701117
 11
59.953548584
 21
27.0125952287
  0
LINE
  5
61B
100
AcDbEntity
  8
0
100
AcDbLine
 62
250
  6
CONTINUOUS
 10
62.3062892789
 20
26.9958468838
 11
61.0424262763
 21
27.006747557
  0
LINE
  5
61C
100
AcDbEntity
  8
0
100
AcDbLine
 62
7
  6
CONTINUOUS
 10
51.8562892731
 20
27.5826891252
 11
61.8070074081
 21
27.4958505236
  0
LWPOLYLINE
  5
61D
100
AcDbEntity
  8
0
100
AcDbPolyline
 62
7
  6
CONTINUOUS
 90
7
 70
0
 10
60.7079914281
 20
27.5054414908
 10
60.7336727255
 20
27.504545186
 10
60.7589680269
 20
27.5024878822
 10
60.7838773324
 20
27.4992695794
 10
60.8084006419
 20
27.4948902776
 10
60.8325379555
 20
27.4893499768
 10
60.8562892731
 20
27.4826486769
  0
LWPOLYLINE
  5
61E
100
AcDbEntity
  8
0
100
AcDbPolyline
 62
7
  6
CONTINUOUS
 90
16
 70
0
 10
61.8106525423
 20
27.4958187128
 10
61.862750381
 20
27.4926599079
 10
61.9139201426
 20
27.4841598267
 10
61.9638150357
 20
27.4704106788
 10
62.0121014726
 20
27.4514985289
 10
62.0583503189
 20
27.4275796885
 10
62.101988017
 20
27.3989557717
 10
62.1424778285
 20
27.3659260857
 10
62.1792879882
 20
27.3287943403
 10
62.2119644669
 20
27.2880184034
 10
62.240208214
 20
27.2441323754
 10
62.2637243208
 20
27.1976757393
 10
62.2822158052
 20
27.1492253787
 10
62.2955301154
 20
27.0992121114
 10
62.3035842995
 20
27.0479700764
 10
62.3062892789
 20
26.9958468838
  0
LWPOLYLINE
  5
61F
100
AcDbEntity
  8
0
100
AcDbPolyline
 62
250
  6
CONTINUOUS
 90
16
 70
0
 10
59.8904566812
 20
27.5154481089
 10
59.8975375588
 20
27.5126236079
 10
59.9044837504
 20
27.5043107487
 10
59.9112187878
 20
27.4906058876
 10
59.9176678896
 20
27.4716664901
 10
59.9237607278
 20
27.4477047924
 10
59.9294318955
 20
27.4189812986
 10
59.9346142724
 20
27.3858077138
 10
59.9392543794
 20
27.3485540158
 10
59.9433151598
 20
27.3076397134
 10
59.9467559564
 20
27.2635275503
 10
59.9495349248
 20
27.2166968611
 10
59.9516230977
 20
27.1676429682
 10
59.952997126
 20
27.116897151
 10
59.9536405316
 20
27.0650243042
 10
59.9535486288
 20
-2.902871191
  0
LINE
  5
620
100
AcDbEntity
  8
0
100
AcDbLine
 62
7
  6
CONTINUOUS
 10
63.3640563795
 20
-20.5655765595
 11
63.2235318361
 21
-19.6836170022
  0
LINE
  5
621
100
AcDbEntity
  8
0
100
AcDbLine
 62
250
  6
CONTINUOUS
 10
63.3082037744
 20
-20.4105615054
 11
63.3723895616
 21
-20.8096662322
  0
LINE
  5
622
100
AcDbEntity
  8
0
100
AcDbLine
 62
7
  6
CONTINUOUS
 10
63.2235318361
 20
-19.6836170022
 11
63.1168529231
 21
-19.0058483144
  0
LWPOLYLINE
  5
623
100
AcDbEntity
  8
0
100
AcDbPolyline
 62
250
  6
CONTINUOUS
 90
3
 70
0
 10
63.1161467392
 20
-19.2052710028
 10
63.1187527993
 20
-19.2219670805
 10
63.3082037744
 20
-20.4105615054
  0
LINE
  5
624
100
AcDbEntity
  8
0
100
AcDbLine
 62
7
  6
CONTINUOUS
 10
63.1168529231
 20
-19.0058483144
 11
63.0534731191
 21
-18.5981201568
  0
LINE
  5
625
100
AcDbEntity
  8
0
100
AcDbLine
 62
7
  6
CONTINUOUS
 10
63.0265797238
 20
-18.6326869204
 11
63.1161467392
 21
-19.2052710028
  0
LINE
  5
626
100
AcDbEntity
  8
0
100
AcDbLine
 62
7
  6
CONTINUOUS
 10
63.0534731191
 20
-18.5981201568
 11
62.9782128509
 21
-18.1080871766
  0
LINE
  5
627
100
AcDbEntity
  8
0
100
AcDbLine
 62
7
  6
CONTINUOUS
 10
62.9782128509
 20
-18.1080871766
 11
62.9082888592
 21
-17.6472017494
  0
LINE
  5
628
100
AcDbEntity
  8
0
100
AcDbLine
 62
7
  6
CONTINUOUS
 10
62.8760514757
 20
-17.6505919064
 11
62.9464169521
 21
-18.1129111437
  0
LWPOLYLINE
  5
629
100
AcDbEntity
  8
0
100
AcDbPolyline
 62
7
  6
CONTINUOUS
 90
15
 70
0
 10
62.9082888592
 20
-17.6472017494
 10
62.8279145281
 20
-17.1088139167
 10
62.743312867
 20
-16.5308711792
 10
62.6551851873
 20
-15.9149039651
 10
62.564668199
 20
-15.2647910959
 10
62.472627099
 20
-14.5823792331
 10
62.3800730318
 20
-13.8699033341
 10
62.2883882036
 20
-13.132264314
 10
62.1986665039
 20
-12.3721375707
 10
62.1119999649
 20
-11.5918120044
 10
62.029747009
 20
-10.7962378924
 10
61.9534730887
 20
-9.9935264233
 10
61.8837159307
 20
-9.1814961654
 10
61.8205541092
 20
-8.3492835262
 10
61.7653033486
 20
-7.4949113183
  0
LWPOLYLINE
  5
62A
100
AcDbEntity
  8
0
100
AcDbPolyline
 62
250
  6
CONTINUOUS
 90
3
 70
0
 10
62.9464169521
 20
-18.1129111437
 10
62.9497583503
 20
-18.1360633229
 10
63.0265797238
 20
-18.6326869204
  0
LWPOLYLINE
  5
62B
100
AcDbEntity
  8
0
100
AcDbPolyline
 62
7
  6
CONTINUOUS
 90
4
 70
0
 10
63.36405672
 20
-20.5655787098
 10
63.3728025859
 20
-20.6378105884
 10
63.3763080165
 20
-20.7236310861
 10
63.3723921436
 20
-20.8096664619
  0
LWPOLYLINE
  5
62C
100
AcDbEntity
  8
0
100
AcDbPolyline
 62
250
  6
CONTINUOUS
 90
4
 70
0
 10
61.6678592
 20
-4.9784336236
 10
61.6689910363
 20
-4.9934197209
 10
61.6700113055
 20
-5.0096779377
 10
61.6709361907
 20
-5.0271228644
  0
LINE
  5
62D
100
AcDbEntity
  8
0
100
AcDbLine
 62
7
  6
CONTINUOUS
 10
61.6632403551
 20
-4.9572656344
 11
61.6643540986
 21
-4.9723230679
  0
LINE
  5
62E
100
AcDbEntity
  8
0
100
AcDbLine
 62
7
  6
CONTINUOUS
 10
61.7653033486
 20
-7.4949113183
 11
61.7201605247
 21
-6.6259279973
  0
LINE
  5
62F
100
AcDbEntity
  8
0
100
AcDbLine
 62
7
  6
CONTINUOUS
 10
61.6664127949
 20
-4.978199535
 11
61.6672210093
 21
-4.9931870214
  0
LWPOLYLINE
  5
630
100
AcDbEntity
  8
0
100
AcDbPolyline
 62
250
  6
CONTINUOUS
 90
16
 70
0
 10
61.0424262763
 20
27.006747557
 10
61.0397689922
 20
27.0593538607
 10
61.0318423523
 20
27.1109460582
 10
61.0187648525
 20
27.1611771695
 10
61.0006363606
 20
27.2097412289
 10
60.9776451406
 20
27.256188394
 10
60.950159297
 20
27.2998923816
 10
60.9186073896
 20
27.3402379622
 10
60.883244154
 20
27.3768711638
 10
60.8442507131
 20
27.4096116813
 10
60.8019587865
 20
27.4382035696
 10
60.7569751244
 20
27.4621927329
 10
60.7099498369
 20
27.4811879675
 10
60.6613347229
 20
27.4950047473
 10
60.6114113707
 20
27.5035553387
 10
60.5605132744
 20
27.5067285131
  0
LWPOLYLINE
  5
631
100
AcDbEntity
  8
0
100
AcDbPolyline
 62
250
  6
CONTINUOUS
 90
20
 70
0
 10
61.7117957032
 20
-6.6753402783
 10
61.7449699735
 20
-7.3535611964
 10
61.7841704035
 20
-8.0202087995
 10
61.828116391
 20
-8.6706037676
 10
61.8761456472
 20
-9.3065970692
 10
61.9283275243
 20
-9.9356996485
 10
61.9844130619
 20
-10.5578006634
 10
62.0437445877
 20
-11.1695368679
 10
62.1060085271
 20
-11.773195695
 10
62.1709232603
 20
-12.3680115959
 10
62.2380182146
 20
-12.9515368992
 10
62.3067268247
 20
-13.5238495998
 10
62.3767047945
 20
-14.0842273341
 10
62.4475090867
 20
-14.6305076104
 10
62.518415033
 20
-15.1611005822
 10
62.5890979676
 20
-15.6759021049
 10
62.6590557545
 20
-16.1725274003
 10
62.7273297571
 20
-16.6469127394
 10
62.7933826145
 20
-17.0975965245
 10
62.8760514757
 20
-17.6505919064
  0
LWPOLYLINE
  5
632
100
AcDbEntity
  8
0
100
AcDbPolyline
 62
250
  6
CONTINUOUS
 90
3
 70
0
 10
61.6672210093
 20
-4.9931870214
 10
61.6680617267
 20
-5.0104144632
 10
61.6687803446
 20
-5.029198075
  0
LINE
  5
633
100
AcDbEntity
  8
0
100
AcDbLine
 62
250
  6
CONTINUOUS
 10
61.6709361907
 20
-5.0271228644
 11
61.6726193747
 21
-5.0645084635
  0
LINE
  5
634
100
AcDbEntity
  8
0
100
AcDbLine
 62
7
  6
CONTINUOUS
 10
61.7201605247
 20
-6.6259279973
 11
61.694391639
 21
-5.9700432211
  0
LINE
  5
635
100
AcDbEntity
  8
0
100
AcDbLine
 62
250
  6
CONTINUOUS
 10
61.6859160795
 20
-5.9871242015
 11
61.7117957032
 21
-6.6753402783
  0
LINE
  5
636
100
AcDbEntity
  8
0
100
AcDbLine
 62
250
  6
CONTINUOUS
 10
61.6726193747
 20
-5.0645084635
 11
61.6741792065
 21
-5.1047238806
  0
LINE
  5
637
100
AcDbEntity
  8
0
100
AcDbLine
 62
250
  6
CONTINUOUS
 10
61.6741792065
 20
-5.1047238806
 11
61.6792398912
 21
-5.2636790207
  0
LINE
  5
638
100
AcDbEntity
  8
0
100
AcDbLine
 62
7
  6
CONTINUOUS
 10
61.6943541021
 20
-5.9700614045
 11
61.6881358966
 21
-5.7702698679
  0
LINE
  5
639
100
AcDbEntity
  8
0
100
AcDbLine
 62
250
  6
CONTINUOUS
 10
61.6687803446
 20
-5.029198075
 11
61.6712134892
 21
-5.107352076
  0
LINE
  5
63A
100
AcDbEntity
  8
0
100
AcDbLine
 62
250
  6
CONTINUOUS
 10
61.6792651358
 20
-5.7582187153
 11
61.6859160795
 21
-5.9871242015
  0
LINE
  5
63B
100
AcDbEntity
  8
0
100
AcDbLine
 62
250
  6
CONTINUOUS
 10
61.6792398912
 20
-5.2636790207
 11
61.6859032213
 21
-5.5026391817
  0
LINE
  5
63C
100
AcDbEntity
  8
0
100
AcDbLine
 62
250
  6
CONTINUOUS
 10
61.6712134892
 20
-5.107352076
 11
61.6728843923
 21
-5.1687262949
  0
LINE
  5
63D
100
AcDbEntity
  8
0
100
AcDbLine
 62
7
  6
CONTINUOUS
 10
61.6881358966
 20
-5.7702698679
 11
61.6824108665
 21
-5.5543055057
  0
LINE
  5
63E
100
AcDbEntity
  8
0
100
AcDbLine
 62
250
  6
CONTINUOUS
 10
61.6729469557
 20
-5.1712910692
 11
61.6824108665
 21
-5.5543055057
  0
LINE
  5
63F
100
AcDbEntity
  8
0
100
AcDbLine
 62
250
  6
CONTINUOUS
 10
61.6738427996
 20
-5.5379357309
 11
61.6792651358
 21
-5.7582187153
  0
LINE
  5
640
100
AcDbEntity
  8
0
100
AcDbLine
 62
250
  6
CONTINUOUS
 10
61.6859032213
 20
-5.5026391817
 11
61.6917544111
 21
-5.7515110277
  0
LINE
  5
641
100
AcDbEntity
  8
0
100
AcDbLine
 62
250
  6
CONTINUOUS
 10
60.6006692472
 20
-26.8447142032
 11
60.6009751012
 21
-26.8602760866
  0
LINE
  5
642
100
AcDbEntity
  8
0
100
AcDbLine
 62
250
  6
CONTINUOUS
 10
61.6917544111
 20
-5.7515110277
 11
61.6980241706
 21
-6.0625005438
  0
LINE
  5
643
100
AcDbEntity
  8
0
100
AcDbLine
 62
250
  6
CONTINUOUS
 10
61.6674175657
 20
-5.201161761
 11
61.6738427996
 21
-5.5379357309
  0
LINE
  5
644
100
AcDbEntity
  8
RACCORDO
100
AcDbLine
 62
7
  6
CONTINUOUS
 10
62.3062955897
 20
-1.4888649608
 11
62.2989029755
 21
-1.0407640615
  0
LINE
  5
645
100
AcDbEntity
  8
ASSI
100
AcDbLine
 62
7
  6
CONTINUOUS
 10
62.1010242205
 20
18.9862138094
 11
62.1211306297
 21
17.5695703389
  0
LINE
  5
646
100
AcDbEntity
  8
RACCORDO
100
AcDbLine
 62
7
  6
CONTINUOUS
 10
62.2989029755
 20
-1.0407640615
 11
62.2928448808
 21
-0.6164641697
  0
LINE
  5
647
100
AcDbEntity
  8
ASSI
100
AcDbLine
 62
7
  6
CONTINUOUS
 10
62.1211306297
 20
17.5695703389
 11
62.1414191038
 21
16.0589140235
  0
LINE
  5
648
100
AcDbEntity
  8
ASSI
100
AcDbLine
 62
7
  6
CONTINUOUS
 10
62.1414191038
 20
16.0589140235
 11
62.1582344048
 21
14.7360118094
  0
LINE
  5
649
100
AcDbEntity
  8
0
100
AcDbLine
 62
250
  6
CONTINUOUS
 10
61.6643540981
 20
-4.9723230123
 11
61.6674175657
 21
-5.201161761
  0
LWPOLYLINE
  5
64A
100
AcDbEntity
  8
0
100
AcDbPolyline
 62
250
  6
CONTINUOUS
 90
13
 70
0
 10
59.5677939337
 20
-28.5919000385
 10
59.5704348939
 20
-28.8266762403
 10
59.5749389142
 20
-29.0468333911
 10
59.5812915613
 20
-29.2517530152
 10
59.5895760879
 20
-29.4403132619
 10
59.5996575758
 20
-29.6115913064
 10
59.6111916707
 20
-29.765137408
 10
59.6241635066
 20
-29.9002377658
 10
59.6385473013
 20
-30.0161031057
 10
59.6539816436
 20
-30.1122719383
 10
59.6703320009
 20
-30.1883471823
 10
59.6876745252
 20
-30.2439516831
 10
59.7059628884
 20
-30.2786691972
  0
LINE
  5
64B
100
AcDbEntity
  8
RACCORDO
100
AcDbLine
 62
7
  6
CONTINUOUS
 10
62.2928448808
 20
-0.6164641697
 11
62.2862813034
 21
-0.0604559281
  0
LINE
  5
64C
100
AcDbEntity
  8
0
100
AcDbLine
 62
250
  6
CONTINUOUS
 10
61.0421824487
 20
-2.9028711855
 11
61.045735487
 21
-3.2060142095
  0
LWPOLYLINE
  5
64D
100
AcDbEntity
  8
0
100
AcDbPolyline
 62
250
  6
CONTINUOUS
 90
3
 70
0
 10
60.6002642848
 20
-26.8134562418
 10
60.6003411883
 20
-26.8212878043
 10
60.6006692472
 20
-26.8447142032
  0
LINE
  5
64E
100
AcDbEntity
  8
0
100
AcDbLine
 62
250
  6
CONTINUOUS
 10
59.9535965625
 20
-2.9138611227
 11
59.9662532419
 21
-4.294939857
  0
LINE
  5
64F
100
AcDbEntity
  8
RACCORDO
100
AcDbLine
 62
7
  6
CONTINUOUS
 10
62.2862813034
 20
-0.0604559281
 11
62.2821213963
 21
0.3866447067
  0
LINE
  5
650
100
AcDbEntity
  8
0
100
AcDbLine
 62
250
  6
CONTINUOUS
 10
59.9662532419
 20
-4.294939857
 11
59.9700297459
 21
-4.8445279614
  0
LINE
  5
651
100
AcDbEntity
  8
RACCORDO
100
AcDbLine
 62
7
  6
CONTINUOUS
 10
62.2821213963
 20
0.3866447067
 11
62.2786108878
 21
0.8984152605
  0
LINE
  5
652
100
AcDbEntity
  8
0
100
AcDbLine
 62
250
  6
CONTINUOUS
 10
61.045735487
 20
-3.2060142095
 11
61.0490196228
 21
-3.6586025704
  0
LWPOLYLINE
  5
653
100
AcDbEntity
  8
0
100
AcDbPolyline
 62
250
  6
CONTINUOUS
 90
4
 70
0
 10
61.0490196228
 20
-3.6586025704
 10
61.055247459
 20
-4.6065094504
 10
61.055333669
 20
-4.693588158
 10
61.0558270726
 20
-4.7802753169
  0
LINE
  5
654
100
AcDbEntity
  8
0
100
AcDbLine
 62
7
  6
CONTINUOUS
 10
59.9535485846
 20
-2.902871191
 11
59.9535968835
 21
-2.9138611285
  0
LINE
  5
655
100
AcDbEntity
  8
0
100
AcDbLine
 62
250
  6
CONTINUOUS
 10
59.9700297459
 20
-4.8445279614
 11
59.9770251563
 21
-6.7707465054
  0
LINE
  5
656
100
AcDbEntity
  8
RACCORDO
100
AcDbLine
 62
7
  6
CONTINUOUS
 10
62.2786108878
 20
0.8984152605
 11
62.2763090538
 21
1.4426171314
  0
LINE
  5
657
100
AcDbEntity
  8
0
100
AcDbLine
 62
250
  6
CONTINUOUS
 10
60.6012585591
 20
-26.8599437685
 11
60.6020034111
 21
-27.1035831291
  0
LINE
  5
658
100
AcDbEntity
  8
0
100
AcDbLine
 62
250
  6
CONTINUOUS
 10
61.0552348629
 20
-4.7984338417
 11
61.0587228902
 21
-6.0661362397
  0
LINE
  5
659
100
AcDbEntity
  8
0
100
AcDbLine
 62
250
  6
CONTINUOUS
 10
61.6618339594
 20
-4.2556846024
 11
61.6626124874
 21
-4.5628943083
  0
LINE
  5
65A
100
AcDbEntity
  8
RACCORDO
100
AcDbLine
 62
7
  6
CONTINUOUS
 10
62.2763090538
 20
1.4426171314
 11
62.2754867403
 21
2.0111279443
  0
LINE
  5
65B
100
AcDbEntity
  8
0
100
AcDbLine
 62
7
  6
CONTINUOUS
 10
57.9062892731
 20
-31.8904352747
 11
57.9062892731
 21
-31.0183709913
  0
LINE
  5
65C
100
AcDbEntity
  8
0
100
AcDbLine
 62
7
  6
CONTINUOUS
 10
60.8562892731
 20
27.4826486769
 11
60.8562892731
 21
27.5041473151
  0
LINE
  5
65D
100
AcDbEntity
  8
0
100
AcDbLine
 62
250
  6
CONTINUOUS
 10
61.0424265934
 20
27.0067475422
 11
61.0424265955
 21
-2.9028711885
  0
LINE
  5
65E
100
AcDbEntity
  8
0
100
AcDbLine
 62
250
  6
CONTINUOUS
 10
61.957845922
 20
-3.3587052026
 11
61.9578381173
 21
26.9988520775
  0
LINE
  5
65F
100
AcDbEntity
  8
ASSI
100
AcDbLine
 62
7
  6
CONTINUOUS
 10
62.2459420981
 20
17.3339536521
 11
62.2459452179
 21
14.7360118094
  0
LINE
  5
660
100
AcDbEntity
  8
0
100
AcDbLine
 62
7
  6
CONTINUOUS
 10
62.2759395969
 20
14.7360118094
 11
62.2759398426
 21
18.9862138094
  0
LINE
  5
661
100
AcDbEntity
  8
0
100
AcDbLine
 62
7
  6
CONTINUOUS
 10
62.2950168266
 20
14.7360228094
 11
62.2950170297
 21
18.9862138094
  0
LINE
  5
662
100
AcDbEntity
  8
ASSI
100
AcDbLine
 62
7
  6
CONTINUOUS
 10
62.3062870084
 20
26.9958468838
 11
62.3062963316
 21
18.9862138094
  0
LWPOLYLINE
  5
663
100
AcDbEntity
  8
RACCORDO
100
AcDbPolyline
 62
7
  6
CONTINUOUS
 90
7
 70
0
 10
62.3062955897
 20
-1.4888649579
 10
62.3062954546
 20
-3.3302863104
 10
62.3033974784
 20
-5.1561500176
 10
62.2824792457
 20
-6.9663207838
 10
62.2418178451
 20
-8.7590787869
 10
62.1819217958
 20
-10.5356532555
 10
62.1282202041
 20
-11.7378553046
  0
LINE
  5
664
100
AcDbEntity
  8
ASSI
100
AcDbLine
 62
7
  6
CONTINUOUS
 10
62.3063015725
 20
14.7360228094
 11
62.3062898622
 21
5.5111267928
  0
LINE
  5
665
100
AcDbEntity
  8
0
100
AcDbLine
 62
7
  6
CONTINUOUS
 10
62.3104792195
 20
14.7360228094
 11
62.3104792195
 21
18.9862138094
  0
LWPOLYLINE
  5
666
100
AcDbEntity
  8
0
100
AcDbPolyline
 62
250
  6
CONTINUOUS
 90
3
 70
0
 10
61.0587228902
 20
-6.0661362397
 10
61.058824919
 20
-6.4877908876
 10
61.0585880505
 20
-6.6985503706
  0
LINE
  5
667
100
AcDbEntity
  8
0
100
AcDbLine
 62
250
  6
CONTINUOUS
 10
59.5675424531
 20
-28.4050492715
 11
59.5677939337
 21
-28.5919000385
  0
LWPOLYLINE
  5
668
100
AcDbEntity
  8
0
100
AcDbPolyline
 62
250
  6
CONTINUOUS
 90
6
 70
0
 10
60.581511537
 20
-28.0920217321
 10
60.5815664149
 20
-27.9828697405
 10
60.5824860694
 20
-27.8701598167
 10
60.5842656324
 20
-27.7540245209
 10
60.5868992745
 20
-27.6345987579
 10
60.5903807455
 20
-27.5120160656
  0
LINE
  5
669
100
AcDbEntity
  8
0
100
AcDbLine
 62
250
  6
CONTINUOUS
 10
61.6603606292
 20
-2.902871191
 11
61.6624577196
 21
-4.2556749812
  0
LINE
  5
66A
100
AcDbEntity
  8
0
100
AcDbLine
 62
250
  6
CONTINUOUS
 10
61.6626124874
 20
-4.5628943083
 11
61.6623146932
 21
-4.9572618216
  0
LINE
  5
66B
100
AcDbEntity
  8
RACCORDO
100
AcDbLine
 62
7
  6
CONTINUOUS
 10
62.2754867403
 20
2.0111279443
 11
62.2762824556
 21
2.5714549033
  0
LWPOLYLINE
  5
66C
100
AcDbEntity
  8
0
100
AcDbPolyline
 62
250
  6
CONTINUOUS
 90
4
 70
0
 10
60.6020034111
 20
-27.1035831291
 10
60.60190174
 20
-27.1364812603
 10
60.6011214276
 20
-27.179548108
 10
60.5995588246
 20
-27.2389059738
  0
LINE
  5
66D
100
AcDbEntity
  8
0
100
AcDbLine
 62
250
  6
CONTINUOUS
 10
61.0521780666
 20
-7.1791475356
 11
61.0505228251
 21
-7.9526698294
  0
LINE
  5
66E
100
AcDbEntity
  8
0
100
AcDbLine
 62
250
  6
CONTINUOUS
 10
59.9770251563
 20
-6.7707465054
 11
59.9690509619
 21
-9.1828315615
  0
LINE
  5
66F
100
AcDbEntity
  8
RACCORDO
100
AcDbLine
 62
7
  6
CONTINUOUS
 10
62.2762824556
 20
2.5714549033
 11
62.2785461135
 21
3.1114947811
  0
LINE
  5
670
100
AcDbEntity
  8
0
100
AcDbLine
 62
250
  6
CONTINUOUS
 10
61.9427412308
 20
-6.4023408998
 11
61.957845922
 21
-3.3587052026
  0
LINE
  5
671
100
AcDbEntity
  8
0
100
AcDbLine
 62
250
  6
CONTINUOUS
 10
59.568608325
 20
-28.2105893616
 11
59.5675424531
 21
-28.4050492715
  0
LINE
  5
672
100
AcDbEntity
  8
0
100
AcDbLine
 62
250
  6
CONTINUOUS
 10
61.0505228251
 20
-7.9526698294
 11
61.0490872378
 21
-8.2298123796
  0
LINE
  5
673
100
AcDbEntity
  8
RACCORDO
100
AcDbLine
 62
7
  6
CONTINUOUS
 10
62.2785461135
 20
3.1114947811
 11
62.2820228887
 21
3.6230738745
  0
LINE
  5
674
100
AcDbEntity
  8
0
100
AcDbLine
 62
250
  6
CONTINUOUS
 10
61.0585880505
 20
-6.6985503706
 11
61.0546082972
 21
-7.1761180023
  0
LINE
  5
675
100
AcDbEntity
  8
RACCORDO
100
AcDbLine
 62
7
  6
CONTINUOUS
 10
62.2820228887
 20
3.6230738745
 11
62.2861993147
 21
4.0743778454
  0
LINE
  5
676
100
AcDbEntity
  8
0
100
AcDbLine
 62
250
  6
CONTINUOUS
 10
59.9690509619
 20
-9.1828315615
 11
59.9619323131
 21
-9.9478701
  0
LWPOLYLINE
  5
677
100
AcDbEntity
  8
0
100
AcDbPolyline
 62
250
  6
CONTINUOUS
 90
5
 70
0
 10
61.0351389961
 20
-9.0835658549
 10
61.0316257402
 20
-9.4713104516
 10
61.0296909784
 20
-9.6245054683
 10
61.0275520025
 20
-9.7460454246
 10
61.0234580756
 20
-9.9218872333
  0
LWPOLYLINE
  5
678
100
AcDbEntity
  8
ASSI
100
AcDbPolyline
 62
7
  6
CONTINUOUS
 90
3
 70
0
 10
62.2061035504
 20
18.9862138094
 10
62.1888932847
 20
17.3602483667
 10
62.1887147035
 20
17.3441431521
  0
LINE
  5
679
100
AcDbEntity
  8
0
100
AcDbLine
 62
250
  6
CONTINUOUS
 10
59.9619323131
 20
-9.9478701
 11
59.9532405465
 21
-10.711415984
  0
LINE
  5
67A
100
AcDbEntity
  8
RACCORDO
100
AcDbLine
 62
7
  6
CONTINUOUS
 10
62.2861993147
 20
4.0743778454
 11
62.2928363793
 21
4.6378567937
  0
LWPOLYLINE
  5
67B
100
AcDbEntity
  8
0
100
AcDbPolyline
 62
250
  6
CONTINUOUS
 90
4
 70
0
 10
60.6129990898
 20
-25.6789309646
 10
60.6080519562
 20
-26.0529478416
 10
60.6036533084
 20
-26.4319153941
 10
60.5998602682
 20
-26.8156925237
  0
LINE
  5
67C
100
AcDbEntity
  8
0
100
AcDbLine
 62
250
  6
CONTINUOUS
 10
59.5709905101
 20
-28.0089126947
 11
59.568608325
 21
-28.2105893616
  0
LINE
  5
67D
100
AcDbEntity
  8
0
100
AcDbLine
 62
250
  6
CONTINUOUS
 10
59.9532405465
 20
-10.711415984
 11
59.942974444
 21
-11.4733217236
  0
LINE
  5
67E
100
AcDbEntity
  8
0
100
AcDbLine
 62
250
  6
CONTINUOUS
 10
61.0490872378
 20
-8.2298123796
 11
61.045603609
 21
-8.5100075408
  0
LINE
  5
67F
100
AcDbEntity
  8
RACCORDO
100
AcDbLine
 62
7
  6
CONTINUOUS
 10
62.2928363793
 20
4.6378567937
 11
62.3007153171
 21
5.1786369837
  0
LINE
  5
680
100
AcDbEntity
  8
0
100
AcDbLine
 62
250
  6
CONTINUOUS
 10
60.6244146296
 20
-24.9429215744
 11
60.6129990898
 21
-25.6789309646
  0
LINE
  5
681
100
AcDbEntity
  8
0
100
AcDbLine
 62
250
  6
CONTINUOUS
 10
59.942974444
 20
-11.4733217236
 11
59.9313974083
 21
-12.1977821285
  0
LINE
  5
682
100
AcDbEntity
  8
RACCORDO
100
AcDbLine
 62
7
  6
CONTINUOUS
 10
62.3007153171
 20
5.1786369837
 11
62.3062898622
 21
5.5111267923
  0
LINE
  5
683
100
AcDbEntity
  8
0
100
AcDbLine
 62
250
  6
CONTINUOUS
 10
61.045603609
 20
-8.5100075408
 11
61.0390746265
 21
-8.8828201655
  0
LINE
  5
684
100
AcDbEntity
  8
0
100
AcDbLine
 62
250
  6
CONTINUOUS
 10
59.9313974083
 20
-12.1977821285
 11
59.9182300041
 21
-12.9204499983
  0
LINE
  5
685
100
AcDbEntity
  8
0
100
AcDbLine
 62
250
  6
CONTINUOUS
 10
60.6371263171
 20
-24.2436843961
 11
60.6244146296
 21
-24.9429215744
  0
LINE
  5
686
100
AcDbEntity
  8
0
100
AcDbLine
 62
250
  6
CONTINUOUS
 10
61.0234580756
 20
-9.9218872333
 11
61.0089526883
 21
-10.7050443805
  0
LINE
  5
687
100
AcDbEntity
  8
0
100
AcDbLine
 62
250
  6
CONTINUOUS
 10
61.0390746265
 20
-8.8828201655
 11
61.0351389961
 21
-9.0835658549
  0
LINE
  5
688
100
AcDbEntity
  8
0
100
AcDbLine
 62
250
  6
CONTINUOUS
 10
60.6505748012
 20
-23.586934726
 11
60.6371263171
 21
-24.2436843961
  0
LINE
  5
689
100
AcDbEntity
  8
0
100
AcDbLine
 62
250
  6
CONTINUOUS
 10
61.0089526883
 20
-10.7050443805
 11
60.9957970668
 21
-11.3500758485
  0
LINE
  5
68A
100
AcDbEntity
  8
0
100
AcDbLine
 62
250
  6
CONTINUOUS
 10
59.9182300041
 20
-12.9204499983
 11
59.9034714794
 21
-13.6411943212
  0
LINE
  5
68B
100
AcDbEntity
  8
0
100
AcDbLine
 62
250
  6
CONTINUOUS
 10
59.586245381
 20
-27.1861723307
 11
59.5709905101
 21
-28.0089126947
  0
LINE
  5
68C
100
AcDbEntity
  8
0
100
AcDbLine
 62
250
  6
CONTINUOUS
 10
61.8801656693
 20
-9.1347183447
 11
61.9427412308
 21
-6.4023408998
  0
LINE
  5
68D
100
AcDbEntity
  8
0
100
AcDbLine
 62
250
  6
CONTINUOUS
 10
59.9034714794
 20
-13.6411943212
 11
59.8871192371
 21
-14.3598902299
  0
LINE
  5
68E
100
AcDbEntity
  8
0
100
AcDbLine
 62
250
  6
CONTINUOUS
 10
60.9957970668
 20
-11.3500758485
 11
60.9820687388
 21
-11.9509889344
  0
LINE
  5
68F
100
AcDbEntity
  8
0
100
AcDbLine
 62
250
  6
CONTINUOUS
 10
60.6711634439
 20
-22.6817067746
 11
60.6505748012
 21
-23.586934726
  0
LINE
  5
690
100
AcDbEntity
  8
0
100
AcDbLine
 62
250
  6
CONTINUOUS
 10
59.8871192371
 20
-14.3598902299
 11
59.8548046775
 21
-15.6728282244
  0
LINE
  5
691
100
AcDbEntity
  8
0
100
AcDbLine
 62
250
  6
CONTINUOUS
 10
60.6874646436
 20
-22.0256844853
 11
60.6711634439
 21
-22.6817067746
  0
LINE
  5
692
100
AcDbEntity
  8
0
100
AcDbLine
 62
250
  6
CONTINUOUS
 10
60.9820687388
 20
-11.9509889344
 11
60.9669219653
 21
-12.5670950797
  0
LINE
  5
693
100
AcDbEntity
  8
0
100
AcDbLine
 62
250
  6
CONTINUOUS
 10
59.8548046775
 20
-15.6728282244
 11
59.8305317073
 21
-16.6228526991
  0
LINE
  5
694
100
AcDbEntity
  8
0
100
AcDbLine
 62
250
  6
CONTINUOUS
 10
60.9669219653
 20
-12.5670950797
 11
60.951094293
 21
-13.1751528352
  0
LINE
  5
695
100
AcDbEntity
  8
0
100
AcDbLine
 62
250
  6
CONTINUOUS
 10
59.8305317073
 20
-16.6228526991
 11
59.8055245584
 21
-17.5681855068
  0
LINE
  5
696
100
AcDbEntity
  8
0
100
AcDbLine
 62
250
  6
CONTINUOUS
 10
60.7084320401
 20
-21.239545392
 11
60.6874646436
 21
-22.0256844853
  0
LINE
  5
697
100
AcDbEntity
  8
0
100
AcDbLine
 62
250
  6
CONTINUOUS
 10
59.8055245584
 20
-17.5681855068
 11
59.7797751732
 21
-18.5085458679
  0
LINE
  5
698
100
AcDbEntity
  8
0
100
AcDbLine
 62
250
  6
CONTINUOUS
 10
60.951094293
 20
-13.1751528352
 11
60.9333403302
 21
-13.8398061828
  0
LWPOLYLINE
  5
699
100
AcDbEntity
  8
0
100
AcDbPolyline
 62
250
  6
CONTINUOUS
 90
10
 70
0
 10
59.7797751732
 20
-18.5085458679
 10
59.7399951824
 20
-19.9189075181
 10
59.7151397039
 20
-20.8530956263
 10
59.6920564626
 20
-21.7790142599
 10
59.6709139453
 20
-22.6947538593
 10
59.6515442089
 20
-23.6016538197
 10
59.6334428092
 20
-24.5041820772
 10
59.6164416686
 20
-25.403512297
 10
59.6007091484
 20
-26.2976444649
 10
59.586245381
 20
-27.1861723307
  0
LINE
  5
69A
100
AcDbEntity
  8
0
100
AcDbLine
 62
250
  6
CONTINUOUS
 10
60.7347224245
 20
-20.3139222664
 11
60.7084320401
 21
-21.239545392
  0
LINE
  5
69B
100
AcDbEntity
  8
0
100
AcDbLine
 62
250
  6
CONTINUOUS
 10
60.8391169939
 20
-16.9213834938
 11
60.8220830024
 21
-17.5121013813
  0
LWPOLYLINE
  5
69C
100
AcDbEntity
  8
0
100
AcDbPolyline
 62
250
  6
CONTINUOUS
 90
3
 70
0
 10
60.9333403302
 20
-13.8398061828
 10
60.9198660725
 20
-14.2981836567
 10
60.876892441
 20
-15.7416036909
  0
LINE
  5
69D
100
AcDbEntity
  8
0
100
AcDbLine
 62
250
  6
CONTINUOUS
 10
60.876892441
 20
-15.7416036909
 11
60.8601828571
 21
-16.2866382734
  0
LWPOLYLINE
  5
69E
100
AcDbEntity
  8
0
100
AcDbPolyline
 62
250
  6
CONTINUOUS
 90
3
 70
0
 10
60.7886982811
 20
-18.5516124955
 10
60.7651792512
 20
-19.3082336112
 10
60.7347224245
 20
-20.3139222664
  0
LINE
  5
69F
100
AcDbEntity
  8
0
100
AcDbLine
 62
250
  6
CONTINUOUS
 10
61.0552348629
 20
-4.7984338417
 11
61.0558270726
 21
-4.7802753169
  0
LINE
  5
6A0
100
AcDbEntity
  8
0
100
AcDbLine
 62
250
  6
CONTINUOUS
 10
60.8220830024
 20
-17.5121013813
 11
60.7886982811
 21
-18.5516124955
  0
LINE
  5
6A1
100
AcDbEntity
  8
0
100
AcDbLine
 62
250
  6
CONTINUOUS
 10
60.8601828571
 20
-16.2866382734
 11
60.8391169939
 21
-16.9213834938
  0
LINE
  5
6A2
100
AcDbEntity
  8
0
100
AcDbLine
 62
250
  6
CONTINUOUS
 10
60.5995588246
 20
-27.2389059738
 11
60.5903807455
 21
-27.5120160656
  0
LWPOLYLINE
  5
6A3
100
AcDbEntity
  8
0
100
AcDbPolyline
 62
7
  6
CONTINUOUS
 90
10
 70
0
 10
57.9062683061
 20
-31.0183709906
 10
57.9068030141
 20
-31.0057169492
 10
57.9114580956
 20
-30.9792559504
 10
57.9207590925
 20
-30.9540498607
 10
57.9344077812
 20
-30.9309071276
 10
57.9519661919
 20
-30.9105705426
 10
57.9728702752
 20
-30.8936930628
 10
57.9964488466
 20
-30.8808159095
 10
58.021945521
 20
-30.8723515724
 10
58.0408098219
 20
-30.8691706793
  0
LWPOLYLINE
  5
6A4
100
AcDbEntity
  8
0
100
AcDbPolyline
 62
7
  6
CONTINUOUS
 90
7
 70
0
 43
0.3499999917
 10
51.1062890625
 20
36.1455651855
 10
49.606289978
 20
36.1455651855
 10
51.1062890625
 20
38.2884265137
 10
51.1062890625
 20
38.7169949341
 10
50.6777174377
 20
39.1455697632
 10
50.0348616028
 20
39.1455697632
 10
49.606289978
 20
38.5027075195
  0
LWPOLYLINE
  5
6A5
100
AcDbEntity
  8
0
100
AcDbPolyline
 62
7
  6
CONTINUOUS
 90
6
 70
0
 43
0.3499999917
 10
51.963432312
 20
36.1455651855
 10
53.0348597717
 20
36.1455651855
 10
53.2491471863
 20
36.3598526001
 10
53.2491471863
 20
37.4312832642
 10
52.8205755615
 20
37.8598516846
 10
52.3920039368
 20
37.8598516846
  0
LWPOLYLINE
  5
6A6
100
AcDbEntity
  8
0
100
AcDbPolyline
 62
250
  6
CONTINUOUS
 90
5
 70
0
 10
61.6740632904
 20
-5.1592094078
 10
61.6744801392
 20
-5.1546141385
 10
61.6747303084
 20
-5.1523438684
 10
61.6750906017
 20
-5.1500929193
 10
61.6756333983
 20
-5.1478606901
  0
LWPOLYLINE
  5
6A7
100
AcDbEntity
  8
0
100
AcDbPolyline
 62
7
  6
CONTINUOUS
 90
16
 70
0
 10
63.3723895616
 20
-20.8096662325
 10
63.3196887721
 20
-21.3471371574
 10
63.2553439568
 20
-21.8985304762
 10
63.1778706418
 20
-22.4692384816
 10
63.0857601694
 20
-23.0605473941
 10
62.9778883858
 20
-23.6712478786
 10
62.8540620812
 20
-24.2956241902
 10
62.7105621396
 20
-24.9450392593
 10
62.5470493226
 20
-25.6131466302
 10
62.3704038587
 20
-26.2697193098
 10
62.1805740724
 20
-26.9167243721
 10
61.9760213309
 20
-27.5599922555
 10
61.765459002
 20
-28.1748163622
 10
61.553348505
 20
-28.7539568841
 10
61.337578316
 20
-29.3081915954
 10
61.1192847111
 20
-29.8381806472
  0
LWPOLYLINE
  5
6A8
100
AcDbEntity
  8
0
100
AcDbPolyline
 62
250
  6
CONTINUOUS
 90
8
 70
0
 10
61.6943541021
 20
-5.9700614045
 10
61.6943226486
 20
-5.970374314
 10
61.6939389147
 20
-5.9711329303
 10
61.6931204425
 20
-5.9719052571
 10
61.6918690376
 20
-5.9726902356
 10
61.6901869377
 20
-5.973487253
 10
61.6880754803
 20
-5.9742961853
 10
61.6855363204
 20
-5.9751166729
  0
LWPOLYLINE
  5
6A9
100
AcDbEntity
  8
0
100
AcDbPolyline
 62
250
  6
CONTINUOUS
 90
3
 70
0
 10
61.6735416093
 20
-5.1639113136
 10
61.6738282752
 20
-5.1615450624
 10
61.6740632904
 20
-5.1592094078
  0
LINE
  5
6AA
100
AcDbEntity
  8
0
100
AcDbLine
 62
250
  6
CONTINUOUS
 10
61.6728843923
 20
-5.1687262949
 11
61.6735416093
 21
-5.1639113136
  0
LWPOLYLINE
  5
6AB
100
AcDbEntity
  8
0
100
AcDbPolyline
 62
7
  6
CONTINUOUS
 90
8
 70
0
 10
61.6643540986
 20
-4.9723230679
 10
61.6646492902
 20
-4.970478077
 10
61.6650058582
 20
-4.9693526233
 10
61.6653692539
 20
-4.9692283497
 10
61.6657023169
 20
-4.9703378872
 10
61.6659923621
 20
-4.9725438168
 10
61.6662289032
 20
-4.9753486353
 10
61.6664127949
 20
-4.978199535
  0
LINE
  5
6AC
100
AcDbEntity
  8
0
100
AcDbLine
 62
250
  6
CONTINUOUS
 10
61.6318297939
 20
-6.1410293639
 11
61.6859160795
 21
-5.9871242015
  0
LWPOLYLINE
  5
6AD
100
AcDbEntity
  8
0
100
AcDbPolyline
 62
250
  6
CONTINUOUS
 90
12
 70
0
 10
42.9872542685
 20
-29.4095521898
 10
43.009663291
 20
-29.3609583883
 10
43.0305187952
 20
-29.2965675733
 10
43.0497043942
 20
-29.217065584
 10
43.0671134285
 20
-29.122996209
 10
43.0826507569
 20
-29.0145903488
 10
43.0962864509
 20
-28.8923976092
 10
43.1078865905
 20
-28.7569955473
 10
43.117222185
 20
-28.6086276949
 10
43.1241900151
 20
-28.4478408759
 10
43.1288080599
 20
-28.2754205719
 10
43.1310670092
 20
-28.0920217321
  0
LWPOLYLINE
  5
6AE
100
AcDbEntity
  8
0
100
AcDbPolyline
 62
250
  6
CONTINUOUS
 90
16
 70
0
 10
60.7723150702
 20
-29.470511788
 10
61.003673496
 20
-28.872850147
 10
61.2268620081
 20
-28.2497695858
 10
61.4426118286
 20
-27.6022910244
 10
61.6523984783
 20
-26.9274580173
 10
61.8548589234
 20
-26.2302910888
 10
62.0464541494
 20
-25.524379289
 10
62.2281221533
 20
-24.8076870836
 10
62.3990346946
 20
-24.0838330582
 10
62.5543461607
 20
-23.3752025175
 10
62.693201707
 20
-22.6897582859
 10
62.8175377387
 20
-22.0210971509
 10
62.9274291766
 20
-21.3700629675
 10
63.0227376361
 20
-20.7376942442
 10
63.1031582283
 20
-20.1242255969
 10
63.1678747623
 20
-19.5327696806
  0
LWPOLYLINE
  5
6AF
100
AcDbEntity
  8
0
100
AcDbPolyline
 62
250
  6
CONTINUOUS
 90
16
 70
0
 10
60.6011875904
 20
-26.812411549
 10
60.8335029138
 20
-26.2168376699
 10
61.0567254414
 20
-25.6044500877
 10
61.2717233337
 20
-24.9768483475
 10
61.4806019421
 20
-24.3297299271
 10
61.681138892
 20
-23.6709252927
 10
61.867589328
 20
-23.0215117876
 10
62.0392351927
 20
-22.3874069745
 10
62.1976872606
 20
-21.7652954972
 10
62.3416342401
 20
-21.1624616115
 10
62.4702751073
 20
-20.5849615728
 10
62.5850971614
 20
-20.0283886372
 10
62.6878704866
 20
-19.4841987697
 10
62.7785035056
 20
-18.9505165749
 10
62.8556706653
 20
-18.4304406076
 10
62.918032342
 20
-17.9280757899
  0
LWPOLYLINE
  5
6B0
100
AcDbEntity
  8
0
100
AcDbPolyline
 62
250
  6
CONTINUOUS
 90
13
 70
0
 10
60.7480832659
 20
-29.4411925668
 10
60.7019765546
 20
-29.5483756732
 10
60.6470230559
 20
-29.6515229807
 10
60.5829782012
 20
-29.7491275151
 10
60.5103049784
 20
-29.8408588101
 10
60.4296268508
 20
-29.9259696897
 10
60.3416488738
 20
-30.0035580913
 10
60.2470528566
 20
-30.07286763
 10
60.1467107959
 20
-30.1333611513
 10
60.0416507007
 20
-30.1845139624
 10
59.9327778054
 20
-30.2259146937
 10
59.8206891645
 20
-30.2573564454
 10
59.7059607918
 20
-30.2786545049
  0
LWPOLYLINE
  5
6B1
100
AcDbEntity
  8
0
100
AcDbPolyline
 62
250
  6
CONTINUOUS
 90
13
 70
0
 10
60.7816679486
 20
-29.4806956153
 10
60.7355258007
 20
-29.5870350978
 10
60.680055626
 20
-29.6888886311
 10
60.6157202445
 20
-29.7855456939
 10
60.5429113213
 20
-29.8763773375
 10
60.4621707769
 20
-29.9605509442
 10
60.3742678582
 20
-30.0371027188
 10
60.2798204181
 20
-30.1053956933
 10
60.1795925965
 20
-30.1650052303
 10
60.0746818033
 20
-30.2154223808
 10
59.9660322562
 20
-30.2562999217
 10
59.8543888752
 20
-30.2873763686
 10
59.7405710732
 20
-30.3083493496
  0
LWPOLYLINE
  5
6B2
100
AcDbEntity
  8
0
100
AcDbPolyline
 62
250
  6
CONTINUOUS
 90
13
 70
0
 10
61.0068113642
 20
-29.7214079754
 10
60.9594478646
 20
-29.8241080222
 10
60.9032746607
 20
-29.9223682404
 10
60.8387371969
 20
-30.0155282348
 10
60.766200446
 20
-30.103015435
 10
60.6862008062
 20
-30.1840321521
 10
60.5995279271
 20
-30.257637888
 10
60.5067982124
 20
-30.3232370442
 10
60.4086978778
 20
-30.3804697286
 10
60.3062278846
 20
-30.4288873403
 10
60.2002466432
 20
-30.4681871698
 10
60.0914295236
 20
-30.4981440874
 10
59.9805193908
 20
-30.5184965704
  0
LWPOLYLINE
  5
6B3
100
AcDbEntity
  8
0
100
AcDbPolyline
 62
250
  6
CONTINUOUS
 90
10
 70
0
 10
42.9872542685
 20
-29.4095521898
 10
42.9608637355
 20
-29.4452346271
 10
42.9582812757
 20
-29.4486128427
 10
42.9556634771
 20
-29.4519193371
 10
42.9530013509
 20
-29.4551820345
 10
42.9503041534
 20
-29.4583388074
 10
42.9475992304
 20
-29.4612495148
 10
42.9448953918
 20
-29.4638645749
 10
42.9421853344
 20
-29.4662571381
 10
42.9394759663
 20
-29.4685586663
  0
LWPOLYLINE
  5
6B4
100
AcDbEntity
  8
0
100
AcDbPolyline
 62
250
  6
CONTINUOUS
 90
9
 70
0
 10
61.0521780666
 20
-7.1791475356
 10
61.1467922489
 20
-7.0561642055
 10
61.2329282226
 20
-6.9338278642
 10
61.3119877475
 20
-6.8106953169
 10
61.385682131
 20
-6.6843070098
 10
61.4543578915
 20
-6.5540573911
 10
61.5175725324
 20
-6.4211569807
 10
61.5761500181
 20
-6.2846505071
 10
61.6318297939
 20
-6.1410293639
  0
LWPOLYLINE
  5
6B5
100
AcDbEntity
  8
0
100
AcDbPolyline
 62
250
  6
CONTINUOUS
 90
10
 70
0
 10
61.6624577196
 20
-4.2556749812
 10
61.6097102838
 20
-4.3226020352
 10
61.5548739693
 20
-4.3853435214
 10
61.4971273741
 20
-4.4452108988
 10
61.4350606226
 20
-4.503752106
 10
61.368235741
 20
-4.5613005153
 10
61.2975333716
 20
-4.6171561653
 10
61.2228807455
 20
-4.6715539315
 10
61.1429978771
 20
-4.7255144753
 10
61.0558270726
 20
-4.7802753169
  0
LWPOLYLINE
  5
6B6
100
AcDbEntity
  8
0
100
AcDbPolyline
 62
250
  6
CONTINUOUS
 90
10
 70
0
 10
42.7057671819
 20
-29.7214079752
 10
42.6790910064
 20
-29.7523196761
 10
42.6571418582
 20
-29.7768788123
 10
42.6392606471
 20
-29.7956652897
 10
42.6249067067
 20
-29.8080339581
 10
42.6132360613
 20
-29.8158010228
 10
42.6039327744
 20
-29.8225875355
 10
42.5973623595
 20
-29.8292399103
 10
42.5937434524
 20
-29.8344879634
 10
42.5932938351
 20
-29.8381806472
  0
LWPOLYLINE
  5
6B7
100
AcDbEntity
  8
0
100
AcDbPolyline
 62
7
  6
CONTINUOUS
 90
13
 70
0
 10
61.1192847111
 20
-29.8381806472
 10
61.0710970186
 20
-29.9396109801
 10
61.0145587605
 20
-30.0361814676
 10
60.9500779353
 20
-30.1273737758
 10
60.8780475064
 20
-30.2126791266
 10
60.7987836393
 20
-30.2916506799
 10
60.7128197121
 20
-30.363681352
 10
60.6209801612
 20
-30.4280109915
 10
60.5242200919
 20
-30.4840512489
 10
60.4232603023
 20
-30.5314526896
 10
60.3185923969
 20
-30.5700334266
 10
60.2107850099
 20
-30.5995516869
 10
60.100425255
 20
-30.6197503957
  0
LINE
  5
6B8
100
AcDbEntity
  8
0
100
AcDbLine
 62
250
  6
CONTINUOUS
 10
42.940263476
 20
-29.470511788
 11
42.8769368294
 21
-29.5392998456
  0
LINE
  5
6B9
100
AcDbEntity
  8
0
100
AcDbLine
 62
250
  6
CONTINUOUS
 10
42.7237302274
 20
-29.7022358249
 11
42.7057671819
 21
-29.7214079752
  0
LINE
  5
6BA
100
AcDbEntity
  8
0
100
AcDbLine
 62
250
  6
CONTINUOUS
 10
42.8769368294
 20
-29.5392998456
 11
42.8266908604
 21
-29.5930860716
  0
LINE
  5
6BB
100
AcDbEntity
  8
0
100
AcDbLine
 62
250
  6
CONTINUOUS
 10
42.7812205052
 20
-29.6411536314
 11
42.7532277047
 21
-29.6710252722
  0
LINE
  5
6BC
100
AcDbEntity
  8
0
100
AcDbLine
 62
250
  6
CONTINUOUS
 10
42.7532277047
 20
-29.6710252722
 11
42.7237302274
 21
-29.7022358249
  0
LINE
  5
6BD
100
AcDbEntity
  8
0
100
AcDbLine
 62
250
  6
CONTINUOUS
 10
42.8266908604
 20
-29.5930860716
 11
42.7812205052
 21
-29.6411536314
  0
LINE
  5
6BE
100
AcDbEntity
  8
SUPERFICI
100
AcDbLine
 62
7
  6
CONTINUOUS
 10
53.3562892731
 20
-21.0888711906
 11
53.8562892731
 21
-20.5888711906
  0
LWPOLYLINE
  5
6BF
100
AcDbEntity
  8
0
100
AcDbPolyline
 62
7
  6
CONTINUOUS
 90
10
 70
0
 10
61.6632403551
 20
-4.9572656344
 10
61.6638006816
 20
-4.9567491737
 10
61.6643752
 20
-4.9569948547
 10
61.6649459261
 20
-4.9580760816
 10
61.6655014219
 20
-4.9599774981
 10
61.6660318337
 20
-4.9626335744
 10
61.6665322037
 20
-4.9658999978
 10
61.6670015947
 20
-4.9696509262
 10
61.6674421673
 20
-4.9738495111
 10
61.6678592
 20
-4.9784336236
  0
LWPOLYLINE
  5
6C0
100
AcDbEntity
  8
0
100
AcDbPolyline
 62
250
  6
CONTINUOUS
 90
13
 70
0
 10
60.5816726582
 20
-28.091807866
 10
60.5335927816
 20
-28.1569231587
 10
60.4773137586
 20
-28.2188466523
 10
60.4130775191
 20
-28.2773512868
 10
60.3411657176
 20
-28.3321846719
 10
60.2621262967
 20
-28.382914196
 10
60.1766185902
 20
-28.4290498214
 10
60.0852728125
 20
-28.4701791714
 10
59.9888450168
 20
-28.5060148902
 10
59.8882119942
 20
-28.5362796875
 10
59.784148302
 20
-28.560754959
 10
59.677174404
 20
-28.5793285066
 10
59.5677941105
 20
-28.5918998116
  0
LINE
  5
6C1
100
AcDbEntity
  8
SUPERFICI
100
AcDbLine
 62
7
  6
CONTINUOUS
 10
53.3562892731
 20
-26.0888711906
 11
53.8562892731
 21
-25.5888711906
  0
LINE
  5
6C2
100
AcDbEntity
  8
0
100
AcDbLine
 62
250
  6
CONTINUOUS
 10
43.9720075741
 20
-30.3083495801
 11
43.8499358509
 21
-30.4159524892
  0
LINE
  5
6C3
100
AcDbEntity
  8
0
100
AcDbLine
 62
250
  6
CONTINUOUS
 10
43.8499358509
 20
-30.4159524892
 11
43.7745729286
 21
-30.4817471012
  0
LWPOLYLINE
  5
6C4
100
AcDbEntity
  8
0
100
AcDbPolyline
 62
250
  6
CONTINUOUS
 90
7
 70
0
 10
43.6653991313
 20
-30.574721497
 10
43.6494905129
 20
-30.5885247187
 10
43.6366737539
 20
-30.5998490534
 10
43.6265693885
 20
-30.6086401512
 10
43.6190508315
 20
-30.6148793603
 10
43.6142443402
 20
-30.6185831785
 10
43.6121498236
 20
-30.619749941
  0
LINE
  5
6C5
100
AcDbEntity
  8
0
100
AcDbLine
 62
250
  6
CONTINUOUS
 10
43.7745729286
 20
-30.4817471012
 11
43.7320591563
 21
-30.5184965679
  0
LINE
  5
6C6
100
AcDbEntity
  8
0
100
AcDbLine
 62
250
  6
CONTINUOUS
 10
43.9909806285
 20
-30.2920020909
 11
43.9720075741
 21
-30.3083495801
  0
LINE
  5
6C7
100
AcDbEntity
  8
0
100
AcDbLine
 62
250
  6
CONTINUOUS
 10
44.0066196102
 20
-30.27864024
 11
43.9909806285
 21
-30.2920020909
  0
LWPOLYLINE
  5
6C8
100
AcDbEntity
  8
0
100
AcDbPolyline
 62
250
  6
CONTINUOUS
 90
3
 70
0
 10
43.7320591563
 20
-30.5184965679
 10
43.7067462145
 20
-30.5397164436
 10
43.6653991313
 20
-30.574721497
  0
LWPOLYLINE
  5
6C9
100
AcDbEntity
  8
0
100
AcDbPolyline
 62
250
  6
CONTINUOUS
 90
16
 70
0
 10
61.0357783552
 20
-9.0833190275
 10
61.0041467807
 20
-9.0938013958
 10
60.9647892125
 20
-9.1042079964
 10
60.9186415112
 20
-9.1142076883
 10
60.8659208214
 20
-9.1237254209
 10
60.8067959251
 20
-9.1327422423
 10
60.7418932945
 20
-9.1411542556
 10
60.6717415688
 20
-9.1488892528
 10
60.5965599252
 20
-9.155913239
 10
60.5166755459
 20
-9.1621949917
 10
60.4324010492
 20
-9.1677181767
 10
60.344363537
 20
-9.1724447187
 10
60.2534565442
 20
-9.1763335807
 10
60.1603366781
 20
-9.1793667162
 10
60.0653718036
 20
-9.1815370694
 10
59.9690504832
 20
-9.1828317714
  0
LWPOLYLINE
  5
6CA
100
AcDbEntity
  8
0
100
AcDbPolyline
 62
250
  6
CONTINUOUS
 90
13
 70
0
 10
60.5947031408
 20
-27.3864082257
 10
60.5454805959
 20
-27.4302111221
 10
60.4880377656
 20
-27.4715227787
 10
60.4227957987
 20
-27.5100911381
 10
60.3501075832
 20
-27.5456941645
 10
60.2704737477
 20
-27.5780309738
 10
60.1846076925
 20
-27.606756652
 10
60.0930560088
 20
-27.6316545763
 10
59.9964751437
 20
-27.6525879626
 10
59.8958386702
 20
-27.6693959293
 10
59.7919638046
 20
-27.681982429
 10
59.6854691807
 20
-27.6902800567
 10
59.5770504275
 20
-27.6942065114
  0
LWPOLYLINE
  5
6CB
100
AcDbEntity
  8
0
100
AcDbPolyline
 62
250
  6
CONTINUOUS
 90
13
 70
0
 10
60.6009751012
 20
-26.8602760866
 10
60.5506328683
 20
-26.9035552799
 10
60.4926218649
 20
-26.944616746
 10
60.4273283064
 20
-26.9832323399
 10
60.3552115517
 20
-27.0191403158
 10
60.2766007643
 20
-27.052149527
 10
60.1916354259
 20
-27.0821105711
 10
60.1005308152
 20
-27.1088280179
 10
60.0041613612
 20
-27.1320465225
 10
59.9036664249
 20
-27.1515316909
 10
59.8000078522
 20
-27.1671287622
 10
59.6939197816
 20
-27.1787220871
 10
59.5862457773
 20
-27.1861723112
  0
LWPOLYLINE
  5
6CC
100
AcDbEntity
  8
0
100
AcDbPolyline
 62
250
  6
CONTINUOUS
 90
13
 70
0
 10
60.7818967832
 20
-18.7720816105
 10
60.7326782077
 20
-18.8006787624
 10
60.6752089755
 20
-18.8277512214
 10
60.6099312561
 20
-18.853118104
 10
60.537205836
 20
-18.8766221596
 10
60.4575665878
 20
-18.8980449581
 10
60.3717964848
 20
-18.9171331649
 10
60.280499483
 20
-18.9337301312
 10
60.1842964686
 20
-18.9477591046
 10
60.0840905166
 20
-18.9591280029
 10
59.9806569426
 20
-18.9677795125
 10
59.8746097609
 20
-18.9736722686
 10
59.7666228711
 20
-18.9767569029
  0
LWPOLYLINE
  5
6CD
100
AcDbEntity
  8
0
100
AcDbPolyline
 62
250
  6
CONTINUOUS
 90
13
 70
0
 10
60.9117198492
 20
-14.5627662764
 10
60.8647041345
 20
-14.5848174696
 10
60.8086792915
 20
-14.6056640456
 10
60.7440964444
 20
-14.6251664243
 10
60.6713281712
 20
-14.6432024431
 10
60.59091496
 20
-14.6596042408
 10
60.5036470727
 20
-14.6741782447
 10
60.410147441
 20
-14.6868032479
 10
60.3111273772
 20
-14.6974116972
 10
60.2076178655
 20
-14.705923808
 10
60.1005057276
 20
-14.712289545
 10
59.9904918713
 20
-14.7164721329
 10
59.878345756
 20
-14.7184281348
  0
LWPOLYLINE
  5
6CE
100
AcDbEntity
  8
0
100
AcDbPolyline
 62
250
  6
CONTINUOUS
 90
13
 70
0
 10
60.9957970668
 20
-11.3500758485
 10
60.9515862498
 20
-11.3672379425
 10
60.8973887483
 20
-11.3835293106
 10
60.8336867709
 20
-11.3988310206
 10
60.7608751317
 20
-11.4130393174
 10
60.6795355186
 20
-11.4260102424
 10
60.5905383344
 20
-11.4375766407
 10
60.4945758922
 20
-11.4476341246
 10
60.3924426025
 20
-11.4561245861
 10
60.2852947383
 20
-11.4629785248
 10
60.1741296076
 20
-11.4681518975
 10
60.0597353007
 20
-11.4716123111
 10
59.9429745582
 20
-11.4733217227
  0
ARC
  5
6CF
100
AcDbEntity
  8
0
100
AcDbCircle
 62
7
  6
CONTINUOUS
 10
-33.5822459594
 20
-2.902871191
 40
53.0000002088
100
AcDbArc
 50
331.5249418055
 51
359.9999956127
  0
ARC
  5
6D0
100
AcDbEntity
  8
0
100
AcDbCircle
 62
7
  6
CONTINUOUS
 10
-6.2318190789
 20
-31.8904352747
 40
0.8
100
AcDbArc
 50
179.9999997244
 51
257.846802531
  0
ARC
  5
6D1
100
AcDbEntity
  8
0
100
AcDbCircle
 62
7
  6
CONTINUOUS
 10
-5.4818190789
 20
-33.388871242
 40
0.8
100
AcDbArc
 50
180.0
 51
270.0
  0
ARC
  5
6D2
100
AcDbEntity
  8
RACCORDO
100
AcDbCircle
 62
7
  6
CONTINUOUS
 10
-17.4020997702
 20
27.4111288094
 40
0.3
100
AcDbArc
 50
90.0
 51
160.1578584031
  0
ARC
  5
6D3
100
AcDbEntity
  8
RACCORDO
100
AcDbCircle
 62
7
  6
CONTINUOUS
 10
-6.4318190789
 20
-32.8191440557
 40
0.15
100
AcDbArc
 50
0.0
 51
77.846802531
  0
ARC
  5
6D4
100
AcDbEntity
  8
0
100
AcDbCircle
 62
7
  6
CONTINUOUS
 10
-6.4318190789
 20
-32.8191440557
 40
0.15
100
AcDbArc
 50
0.0
 51
77.846802531
  0
ARC
  5
6D5
100
AcDbEntity
  8
RACCORDO
100
AcDbCircle
 62
7
  6
CONTINUOUS
 10
-7.1818072696
 20
-31.1787747299
 40
0.1499997143
100
AcDbArc
 50
359.9995553765
 51
87.046574822
  0
ARC
  5
6D6
100
AcDbEntity
  8
0
100
AcDbCircle
 62
7
  6
CONTINUOUS
 10
-7.1818072696
 20
-31.1787747299
 40
0.1499997143
100
AcDbArc
 50
359.9995553765
 51
87.046574822
  0
ARC
  5
6D7
100
AcDbEntity
  8
RACCORDO
100
AcDbCircle
 62
7
  6
CONTINUOUS
 10
4.2681809211
 20
-31.8904352747
 40
0.8
100
AcDbArc
 50
282.153197469
 51
0.0000002756
  0
ARC
  5
6D8
100
AcDbEntity
  8
0
100
AcDbCircle
 62
7
  6
CONTINUOUS
 10
3.5181809211
 20
-33.388871242
 40
0.8
100
AcDbArc
 50
270.0
 51
360.0
  0
ARC
  5
6D9
100
AcDbEntity
  8
0
100
AcDbCircle
 62
7
  6
CONTINUOUS
 10
4.2681809211
 20
-31.8904352747
 40
0.8
100
AcDbArc
 50
282.153197469
 51
0.0000002756
  0
ARC
  5
6DA
100
AcDbEntity
  8
RACCORDO
100
AcDbCircle
 62
7
  6
CONTINUOUS
 10
4.4681809211
 20
-32.8191440557
 40
0.15
100
AcDbArc
 50
102.153197469
 51
180.0
  0
ARC
  5
6DB
100
AcDbEntity
  8
0
100
AcDbCircle
 62
7
  6
CONTINUOUS
 10
4.4681809211
 20
-32.8191440557
 40
0.15
100
AcDbArc
 50
102.153197469
 51
180.0
  0
ARC
  5
6DC
100
AcDbEntity
  8
RACCORDO
100
AcDbCircle
 62
7
  6
CONTINUOUS
 10
5.2181690279
 20
-31.1788188397
 40
0.1499997123
100
AcDbArc
 50
92.9529842482
 51
180.000446441
  0
ARC
  5
6DD
100
AcDbEntity
  8
0
100
AcDbCircle
 62
7
  6
CONTINUOUS
 10
5.2181690279
 20
-31.1788188397
 40
0.1499997123
100
AcDbArc
 50
92.9529842482
 51
180.000446441
  0
CIRCLE
  5
6DE
100
AcDbEntity
  8
RACCORDO
100
AcDbCircle
 62
7
  6
CONTINUOUS
 10
-0.9818190789
 20
2.0111288094
 40
3.0
  0
CIRCLE
  5
6DF
100
AcDbEntity
  8
0
100
AcDbCircle
 62
7
  6
CONTINUOUS
 10
-0.9818190789
 20
2.0111288094
 40
2.75
  0
ARC
  5
6E0
100
AcDbEntity
  8
0
100
AcDbCircle
 62
7
  6
CONTINUOUS
 10
-0.9818190789
 20
2.0111288094
 40
2.6625113365
100
AcDbArc
 50
256.9764719153
 51
283.0235280847
  0
ARC
  5
6E1
100
AcDbEntity
  8
0
100
AcDbCircle
 62
7
  6
CONTINUOUS
 10
-0.9818190789
 20
2.0111288094
 40
2.6625113365
100
AcDbArc
 50
76.9764719153
 51
103.0235280847
  0
ARC
  5
6E2
100
AcDbEntity
  8
0
100
AcDbCircle
 62
250
  6
CONTINUOUS
 10
-0.9818190789
 20
2.0111288094
 40
2.6122131027
100
AcDbArc
 50
103.2788388525
 51
256.7211611475
  0
ARC
  5
6E3
100
AcDbEntity
  8
0
100
AcDbCircle
 62
250
  6
CONTINUOUS
 10
-0.9818190789
 20
2.0111288094
 40
2.6122131027
100
AcDbArc
 50
283.2788388525
 51
76.7211611475
  0
ARC
  5
6E4
100
AcDbEntity
  8
0
100
AcDbCircle
 62
250
  6
CONTINUOUS
 10
-0.9818190789
 20
2.0111288094
 40
2.4839439914
100
AcDbArc
 50
103.978119812
 51
256.021880188
  0
ARC
  5
6E5
100
AcDbEntity
  8
0
100
AcDbCircle
 62
250
  6
CONTINUOUS
 10
-0.9818190789
 20
2.0111288094
 40
2.4839439914
100
AcDbArc
 50
283.978119812
 51
76.021880188
  0
ARC
  5
6E6
100
AcDbEntity
  8
0
100
AcDbCircle
 62
7
  6
CONTINUOUS
 10
-0.9818190789
 20
2.0111288094
 40
1.8638541369
100
AcDbArc
 50
172.968196018
 51
187.0259491591
  0
ARC
  5
6E7
100
AcDbEntity
  8
0
100
AcDbCircle
 62
7
  6
CONTINUOUS
 10
-0.9818190789
 20
2.0111288094
 40
1.8638541369
100
AcDbArc
 50
352.9681960448
 51
7.0259491591
  0
ARC
  5
6E8
100
AcDbEntity
  8
0
100
AcDbCircle
 62
7
  6
CONTINUOUS
 10
-0.9818190789
 20
2.0111288094
 40
1.3915481318
100
AcDbArc
 50
260.5652353034
 51
279.4324314084
  0
ARC
  5
6E9
100
AcDbEntity
  8
0
100
AcDbCircle
 62
7
  6
CONTINUOUS
 10
-0.9818190789
 20
2.0111288094
 40
1.3915481318
100
AcDbArc
 50
80.5652351046
 51
99.4324314084
  0
ARC
  5
6EA
100
AcDbEntity
  8
0
100
AcDbCircle
 62
7
  6
CONTINUOUS
 10
6.6660129211
 20
17.6828108094
 40
1.303416637
100
AcDbArc
 50
292.8428913314
 51
90.0
  0
ARC
  5
6EB
100
AcDbEntity
  8
TRASH
100
AcDbCircle
 62
7
  6
CONTINUOUS
 10
-0.9818190789
 20
2.0111288094
 40
1.1472328625
100
AcDbArc
 50
347.9845776281
 51
12.0153200785
  0
ARC
  5
6EC
100
AcDbEntity
  8
TRASH
100
AcDbCircle
 62
7
  6
CONTINUOUS
 10
-0.9818190789
 20
2.0111288094
 40
1.1472328625
100
AcDbArc
 50
167.9845776281
 51
192.0153200785
  0
ARC
  5
6ED
100
AcDbEntity
  8
TRASH
100
AcDbCircle
 62
7
  6
CONTINUOUS
 10
-0.9818190789
 20
2.0111288094
 40
1.1472328182
100
AcDbArc
 50
77.9846799215
 51
102.0154223719
  0
ARC
  5
6EE
100
AcDbEntity
  8
TRASH
100
AcDbCircle
 62
7
  6
CONTINUOUS
 10
-0.9818190789
 20
2.0111288094
 40
1.1472328182
100
AcDbArc
 50
257.9846799215
 51
282.0154223719
  0
ARC
  5
6EF
100
AcDbEntity
  8
0
100
AcDbCircle
 62
7
  6
CONTINUOUS
 10
6.5480299211
 20
17.6828108094
 40
0.51713
100
AcDbArc
 50
270.0
 51
90.0
  0
ARC
  5
6F0
100
AcDbEntity
  8
0
100
AcDbCircle
 62
7
  6
CONTINUOUS
 10
31.6186078015
 20
-2.902871191
 40
53.0000002088
100
AcDbArc
 50
180.0000043873
 51
208.4750581944
  0
ARC
  5
6F1
100
AcDbEntity
  8
RACCORDO
100
AcDbCircle
 62
7
  6
CONTINUOUS
 10
15.4384616123
 20
27.4111288094
 40
0.3
100
AcDbArc
 50
19.8421415969
 51
90.0
  0
ARC
  5
6F2
100
AcDbEntity
  8
RACCORDO
100
AcDbCircle
 62
7
  6
CONTINUOUS
 10
-0.9813921989
 20
88.8111658229
 40
120.0000370649
100
AcDbArc
 50
265.2148597924
 51
267.0418969231
  0
ARC
  5
6F3
100
AcDbEntity
  8
RACCORDO
100
AcDbCircle
 62
7
  6
CONTINUOUS
 10
-0.9813921989
 20
88.8111658229
 40
120.0000370649
100
AcDbArc
 50
272.9576954041
 51
274.7845585425
  0
ARC
  5
6F4
100
AcDbEntity
  8
0
100
AcDbCircle
 62
7
  6
CONTINUOUS
 10
-0.9813921989
 20
88.8111658229
 40
120.0000370649
100
AcDbArc
 50
265.2148597924
 51
267.0418969231
  0
ARC
  5
6F5
100
AcDbEntity
  8
0
100
AcDbCircle
 62
7
  6
CONTINUOUS
 10
-0.9813921989
 20
88.8111658229
 40
120.0000370649
100
AcDbArc
 50
272.9576954041
 51
274.7845585425
  0
ARC
  5
6F6
100
AcDbEntity
  8
0
100
AcDbCircle
 62
7
  6
CONTINUOUS
 10
51.8526938315
 20
28.8589751888
 40
60.0478465384
100
AcDbArc
 50
275.9150078878
 51
277.8946830695
  0
ARC
  5
6F7
100
AcDbEntity
  8
0
100
AcDbCircle
 62
7
  6
CONTINUOUS
 10
51.8598847147
 20
28.8589751888
 40
60.0478465384
100
AcDbArc
 50
262.1053169305
 51
264.0849921122
  0
ARC
  5
6F8
100
AcDbEntity
  8
0
100
AcDbCircle
 62
7
  6
CONTINUOUS
 10
56.3562892731
 20
-33.388871242
 40
0.8
100
AcDbArc
 50
270.0
 51
360.0
  0
ARC
  5
6F9
100
AcDbEntity
  8
0
100
AcDbCircle
 62
7
  6
CONTINUOUS
 10
57.1062892731
 20
-31.8904352747
 40
0.8
100
AcDbArc
 50
282.153197469
 51
360.0
  0
ARC
  5
6FA
100
AcDbEntity
  8
RACCORDO
100
AcDbCircle
 62
7
  6
CONTINUOUS
 10
47.3562892731
 20
-33.388871242
 40
0.8
100
AcDbArc
 50
180.0
 51
270.0
  0
ARC
  5
6FB
100
AcDbEntity
  8
RACCORDO
100
AcDbCircle
 62
7
  6
CONTINUOUS
 10
46.6062892731
 20
-31.8904352747
 40
0.8
100
AcDbArc
 50
180.0
 51
257.846802531
  0
ARC
  5
6FC
100
AcDbEntity
  8
RACCORDO
100
AcDbCircle
 62
7
  6
CONTINUOUS
 10
61.8062933575
 20
-1.4888136661
 40
0.4999917822
100
AcDbArc
 50
359.9941291687
 51
89.999744174
  0
ARC
  5
6FD
100
AcDbEntity
  8
RACCORDO
100
AcDbCircle
 62
7
  6
CONTINUOUS
 10
55.2765699643
 20
27.4111288094
 40
0.3
100
AcDbArc
 50
27.7477519834
 51
90.0
  0
ARC
  5
6FE
100
AcDbEntity
  8
RACCORDO
100
AcDbCircle
 62
7
  6
CONTINUOUS
 10
48.4360085819
 20
27.4111288094
 40
0.3
100
AcDbArc
 50
90.0
 51
152.2522477581
  0
ARC
  5
6FF
100
AcDbEntity
  8
0
100
AcDbCircle
 62
7
  6
CONTINUOUS
 10
57.3062892731
 20
-32.8191440557
 40
0.15
100
AcDbArc
 50
102.153197469
 51
180.0
  0
ARC
  5
700
100
AcDbEntity
  8
RACCORDO
100
AcDbCircle
 62
7
  6
CONTINUOUS
 10
46.4062892731
 20
-32.8191440557
 40
0.15
100
AcDbArc
 50
0.0
 51
77.846802531
  0
ELLIPSE
  5
701
100
AcDbEntity
  8
0
100
AcDbEllipse
 62
7
  6
CONTINUOUS
 10
523.9907473167
 20
102.6632792435
 30
0.0
 11
-535.1140690522
 21
-0.0000119097
 31
0.0
 40
0.9951246675
 41
0.1923842608
 42
0.1927860921
  0
ELLIPSE
  5
702
100
AcDbEntity
  8
0
100
AcDbEllipse
 62
7
  6
CONTINUOUS
 10
-525.9543851526
 20
-98.6410216649
 30
0.0
 11
535.1140688131
 21
-0.0000279813
 31
0.0
 40
0.9951246679
 41
0.1923843358
 42
0.1927861671
  0
ELLIPSE
  5
703
100
AcDbEntity
  8
0
100
AcDbEllipse
 62
7
  6
CONTINUOUS
 10
-40.5822459524
 20
27.5826891252
 30
0.0
 11
58.2
 21
-0.0
 31
0.0
 40
0.0087268678
 41
6.1520667429
 42
6.2831853072
  0
ELLIPSE
  5
704
100
AcDbEntity
  8
0
100
AcDbEllipse
 62
7
  6
CONTINUOUS
 10
38.6186077945
 20
27.5826891252
 30
0.0
 11
58.2
 21
-0.0
 31
0.0
 40
0.0087268678
 41
3.1415926536
 42
3.2727112179
  0
ELLIPSE
  5
705
100
AcDbEntity
  8
0
100
AcDbEllipse
 62
7
  6
CONTINUOUS
 10
-137.6937107058
 20
12.2622184175
 30
0.0
 11
-0.0
 21
697.5863354411
 31
0.0
 40
0.2867458658
 41
-1.5632322638
 42
-1.5611572339
  0
ELLIPSE
  5
706
100
AcDbEntity
  8
0
100
AcDbEllipse
 62
7
  6
CONTINUOUS
 10
-137.6937107058
 20
36.0536610963
 30
0.0
 11
-0.0
 21
623.014123554
 31
0.0
 40
0.3210681591
 41
4.6781653578
 42
4.6849905922
  0
ELLIPSE
  5
707
100
AcDbEntity
  8
0
100
AcDbEllipse
 62
7
  6
CONTINUOUS
 10
-137.6937107058
 20
-6.5819588106
 30
0.0
 11
-0.0
 21
623.0217306393
 31
0.0
 40
0.3210642388
 41
-1.5344465939
 42
-1.5297458244
  0
ELLIPSE
  5
708
100
AcDbEntity
  8
0
100
AcDbEllipse
 62
7
  6
CONTINUOUS
 10
-137.6937107058
 20
20.1744621859
 30
0.0
 11
-0.0
 21
697.587214372
 31
0.0
 40
0.2867455045
 41
4.7086106068
 42
4.7106856106
  0
ELLIPSE
  5
709
100
AcDbEntity
  8
0
100
AcDbEllipse
 62
7
  6
CONTINUOUS
 10
-137.6937107058
 20
9.2976288392
 30
0.0
 11
-0.0
 21
697.5975669184
 31
0.0
 40
0.2867412491
 41
-1.5630003577
 42
-1.560875416
  0
ELLIPSE
  5
70A
100
AcDbEntity
  8
0
100
AcDbEllipse
 62
7
  6
CONTINUOUS
 10
-137.6937107058
 20
38.701655406
 30
0.0
 11
-0.0
 21
623.0283614928
 31
0.0
 40
0.3210608218
 41
-1.6071460597
 42
-1.6024461436
  0
ELLIPSE
  5
70B
100
AcDbEntity
  8
0
100
AcDbEllipse
 62
7
  6
CONTINUOUS
 10
-137.6937107058
 20
-9.229490851
 30
0.0
 11
-0.0
 21
623.0207581368
 31
0.0
 40
0.32106474
 41
-1.5323202142
 42
-1.5254922843
  0
ENDSEC
  0
SECTION
  2
OBJECTS
  0
DICTIONARY
  5
C
100
AcDbDictionary
280
0
281
1
  3
ACAD_GROUP
350
D
  3
ACAD_MLINESTYLE
350
17
  3
ACAD_LAYOUT
350
1A
  3
ACAD_PLOTSETTINGS
350
19
  3
ACAD_PLOTSTYLENAME
350
E
  0
DICTIONARY
  5
D
102
{ACAD_REACTORS
330
C
102
}
100
AcDbDictionary
280
0
281
1
  0
ACDBDICTIONARYWDFLT
  5
E
102
{ACAD_REACTORS
330
C
102
}
100
AcDbDictionary
281
1
  3
Normal
350
F
100
AcDbDictionaryWithDefault
340
F
  0
DICTIONARY
  5
17
102
{ACAD_REACTORS
330
C
102
}
100
AcDbDictionary
280
0
281
1
  3
Standard
350
18
  0
DICTIONARY
  5
19
102
{ACAD_REACTORS
330
C
102
}
100
AcDbDictionary
281
1
  0
DICTIONARY
  5
1A
102
{ACAD_REACTORS
330
C
102
}
100
AcDbDictionary
281
1
  3
Model
350
70C
  3
Layout1
350
70D
  0
ACDBPLACEHOLDER
  5
F
102
{ACAD_REACTORS
330
E
102
}
  0
MLINESTYLE
  5
18
102
{ACAD_REACTORS
330
17
102
}
100
AcDbMlineStyle
  2
STANDARD
 70
0
  3

 62
256
 51
90.0
 52
90.0
 71
2
 49
0.5
 62
256
  6
BYLAYER
 49
-0.5
 62
256
  6
BYLAYER
  0
LAYOUT
  5
70C
102
{ACAD_REACTORS
330
1A
102
}
100
AcDbPlotSettings
  1

  2
none_device
  4
ISO_A3_(420.00_x_297.00_MM)
  6

 40
0.0
 41
0.0
 42
0.0
 43
0.0
 44
420.0
 45
297.0
 46
0.0
 47
0.0
 48
0.0
 49
0.0
140
0.0
141
0.0
142
1.0
143
1.0
 70
1024
 72
1
 73
0
 74
0
  7

 75
0
147
1.0
148
0.0
149
0.0
100
AcDbLayout
  1
Model
 70
0
 71
0
 10
0.0
 20
0.0
 11
420.0
 21
297.0
 12
0.0
 22
0.0
 32
0.0
 14
0.0
 24
0.0
 34
0.0
 15
0.0
 25
0.0
 35
0.0
146
0.0
 13
0.0
 23
0.0
 33
0.0
 16
1.0
 26
0.0
 36
0.0
 17
0.0
 27
1.0
 37
0.0
 76
0
330
218
345
0
346
0
  0
LAYOUT
  5
70D
102
{ACAD_REACTORS
330
1A
102
}
100
AcDbPlotSettings
  1

  2
none_device
  4
ISO_A3_(420.00_x_297.00_MM)
  6

 40
0.0
 41
0.0
 42
0.0
 43
0.0
 44
420.0
 45
297.0
 46
0.0
 47
0.0
 48
0.0
 49
0.0
140
0.0
141
0.0
142
1.0
143
1.0
 70
0
 72
1
 73
0
 74
0
  7

 75
0
147
1.0
148
0.0
149
0.0
100
AcDbLayout
  1
Layout1
 70
0
 71
1
 10
0.0
 20
0.0
 11
420.0
 21
297.0
 12
0.0
 22
0.0
 32
0.0
 14
0.0
 24
0.0
 34
0.0
 15
0.0
 25
0.0
 35
0.0
146
0.0
 13
0.0
 23
0.0
 33
0.0
 16
1.0
 26
0.0
 36
0.0
 17
0.0
 27
1.0
 37
0.0
 76
0
330
219
345
0
346
0
  0
ENDSEC
  0
EOF
