  0
SECTION
  2
HEADER
  9
$ACADVER
  1
AC1024
  9
$DWGCODEPAGE
  3
ANSI_1252
  9
$EXTMAX
 10
297.0
 20
210.0
 30
0.0
  9
$EXTMIN
 10
0.0
 20
0.0
 30
0.0
  9
$LIMMIN
 10
0.0
 20
0.0
  9
$LIMMAX
 10
297.0
 20
210.0
  9
$VIEWCTR
 10
148.5
 20
105.0
  9
$VIEWSIZE
 40
210.0
  9
$CLAYER
  8
0
  9
$LTSCALE
 40
16.335
  9
$CELTYPE
  6
BYLAYER
  9
$DIMSCALE
 40
1.0
  9
$DIMASZ
 40
3.0
  9
$DIMEXO
 40
0.5
  9
$DIMDLI
 40
11.286
  9
$DIMEXE
 40
1.5
  9
$DIMCEN
 40
2.673
  9
$DIMLFAC
 40
1.0
  9
$DIMBLK
  1
_FILLED
  9
$DIMALT
 70
0
  9
$DIMALTF
 40
0.0393700787
  9
$DIMTXT
 40
3.0
  9
$DIMTOL
 70
1
  9
$DIMLIM
 70
0
  9
$DIMTFAC
 40
1.0
  9
$DIMTP
 40
0.01
  9
$DIMTM
 40
0.01
  9
$DIMGAP
 40
0.625
  9
$DIMDSEP
 70
44
  9
$AUNITS
 70
0
  9
$PDMODE
 70
3
  9
$PDSIZE
 40
3.0
  9
$HANDSEED
  5
4A3
  9
$TILEMODE
 70
1
  9
$MEASUREMENT
 70
1
  9
$INSUNITS
 70
4
  0
ENDSEC
  0
SECTION
  2
CLASSES
  0
CLASS
  1
ACDBDICTIONARYWDFLT
  2
AcDbDictionaryWithDefault
  3
AutoCAD 2000
 90
0
 91
1
280
0
281
0
  0
CLASS
  1
ACDBPLACEHOLDER
  2
AcDbPlaceHolder
  3
AutoCAD 2000
 90
0
 91
1
280
0
281
0
  0
CLASS
  1
LAYOUT
  2
AcDbLayout
  3
AutoCAD 2000
 90
0
 91
0
280
0
281
0
  0
ENDSEC
  0
SECTION
  2
TABLES
  0
TABLE
  2
VPORT
  5
8
100
AcDbSymbolTable
 70
2
  0
VPORT
  5
1F4
100
AcDbSymbolTableRecord
100
AcDbViewportTableRecord
  2
*ACTIVE
 70
0
 10
0.0
 20
0.0
 11
1.0
 21
1.0
 12
148.5
 22
105.0
 13
0.0
 23
0.0
 14
1.0
 24
1.0
 15
0.0
 25
0.0
 16
0.0
 26
0.0
 36
1.0
 17
0.0
 27
0.0
 37
0.0
 40
210.0
 41
1.4142857143
 42
50.0
 43
0.0
 44
0.0
 50
0.0
 51
0.0
 71
0
 72
100
 73
1
 74
1
 75
0
 76
0
 77
0
 78
0
  0
ENDTAB
  0
TABLE
  2
LTYPE
  5
5
100
AcDbSymbolTable
 70
6
  0
LTYPE
  5
14
100
AcDbSymbolTableRecord
100
AcDbLinetypeTableRecord
  2
BYBLOCK
 70
0
  3

 72
65
 73
0
 40
0.0
  0
LTYPE
  5
15
100
AcDbSymbolTableRecord
100
AcDbLinetypeTableRecord
  2
BYLAYER
 70
0
  3

 72
65
 73
0
 40
0.0
  0
LTYPE
  5
16
100
AcDbSymbolTableRecord
100
AcDbLinetypeTableRecord
  2
CONTINUOUS
 70
64
  3
Solid line
 72
65
 73
0
 40
0.0
  0
LTYPE
  5
1F5
100
AcDbSymbolTableRecord
100
AcDbLinetypeTableRecord
  2
CENTER
 70
64
  3
____ _ ____ _ ____ _ ____ _ ____ _ ____ _ ____
 72
65
 73
4
 40
0.6
 49
0.375
 74
0
 49
-0.075
 74
0
 49
0.075
 74
0
 49
-0.075
 74
0
  0
LTYPE
  5
1F6
100
AcDbSymbolTableRecord
100
AcDbLinetypeTableRecord
  2
HIDDEN
 70
64
  3
- - - - - - - - - - - - - - - - - - - -
 72
65
 73
2
 40
0.2
 49
0.1
 74
0
 49
-0.1
 74
0
  0
LTYPE
  5
1F7
100
AcDbSymbolTableRecord
100
AcDbLinetypeTableRecord
  2
PHANTOM
 70
64
  3
_____ _ _ _____ _ _ _____ _ _ _____
 72
65
 73
6
 40
0.8
 49
0.45
 74
0
 49
-0.05
 74
0
 49
0.1
 74
0
 49
-0.05
 74
0
 49
0.1
 74
0
 49
-0.05
 74
0
  0
LTYPE
  5
1F8
100
AcDbSymbolTableRecord
100
AcDbLinetypeTableRecord
  2
DOT
 70
64
  3
. . . . . . . . . . . . . . . . . . . .
 72
65
 73
2
 40
0.2
 49
0.1
 74
0
 49
-0.1
 74
0
  0
LTYPE
  5
1F9
100
AcDbSymbolTableRecord
100
AcDbLinetypeTableRecord
  2
DASHED
 70
64
  3
- - - - - - - - - - - - - - - - - - - -
 72
65
 73
2
 40
0.2
 49
0.1
 74
0
 49
-0.1
 74
0
  0
ENDTAB
  0
TABLE
  2
LAYER
  5
2
100
AcDbSymbolTable
 70
36
  0
LAYER
  5
10
100
AcDbSymbolTableRecord
100
AcDbLayerTableRecord
  2
0
 70
0
 62
7
  6
CONTINUOUS
370
-3
390
F
  0
LAYER
  5
1FA
100
AcDbSymbolTableRecord
100
AcDbLayerTableRecord
  2
DEFAULT_1
 70
0
 62
7
  6
CENTER
370
-3
390
F
  0
LAYER
  5
1FB
100
AcDbSymbolTableRecord
100
AcDbLayerTableRecord
  2
DEFAULT_2
 70
0
 62
7
  6
HIDDEN
370
-3
390
F
  0
LAYER
  5
1FC
100
AcDbSymbolTableRecord
100
AcDbLayerTableRecord
  2
DEFAULT_3
 70
0
 62
7
  6
PHANTOM
370
-3
390
F
  0
LAYER
  5
1FD
100
AcDbSymbolTableRecord
100
AcDbLayerTableRecord
  2
ASSI
 70
0
 62
7
  6
CONTINUOUS
370
-3
390
F
  0
LAYER
  5
1FE
100
AcDbSymbolTableRecord
100
AcDbLayerTableRecord
  2
COORDINATE
 70
0
 62
7
  6
CONTINUOUS
370
-3
390
F
  0
LAYER
  5
1FF
100
AcDbSymbolTableRecord
100
AcDbLayerTableRecord
  2
COORD_ORIGINE
 70
0
 62
7
  6
CONTINUOUS
370
-3
390
F
  0
LAYER
  5
200
100
AcDbSymbolTableRecord
100
AcDbLayerTableRecord
  2
COPY-PUBBLISH
 70
0
 62
7
  6
CONTINUOUS
370
-3
390
F
  0
LAYER
  5
201
100
AcDbSymbolTableRecord
100
AcDbLayerTableRecord
  2
COPY_PUBLISH
 70
0
 62
7
  6
CONTINUOUS
370
-3
390
F
  0
LAYER
  5
202
100
AcDbSymbolTableRecord
100
AcDbLayerTableRecord
  2
COSMETIC
 70
0
 62
7
  6
CONTINUOUS
370
-3
390
F
  0
LAYER
  5
203
100
AcDbSymbolTableRecord
100
AcDbLayerTableRecord
  2
COSMETICHE
 70
0
 62
7
  6
CONTINUOUS
370
-3
390
F
  0
LAYER
  5
204
100
AcDbSymbolTableRecord
100
AcDbLayerTableRecord
  2
COSMETICI
 70
0
 62
7
  6
CONTINUOUS
370
-3
390
F
  0
LAYER
  5
205
100
AcDbSymbolTableRecord
100
AcDbLayerTableRecord
  2
CURVE
 70
0
 62
7
  6
CONTINUOUS
370
-3
390
F
  0
LAYER
  5
206
100
AcDbSymbolTableRecord
100
AcDbLayerTableRecord
  2
DRAFT
 70
0
 62
7
  6
CONTINUOUS
370
-3
390
F
  0
LAYER
  5
207
100
AcDbSymbolTableRecord
100
AcDbLayerTableRecord
  2
IMPORT_IGES
 70
0
 62
7
  6
CONTINUOUS
370
-3
390
F
  0
LAYER
  5
208
100
AcDbSymbolTableRecord
100
AcDbLayerTableRecord
  2
INTF_1
 70
0
 62
7
  6
CONTINUOUS
370
-3
390
F
  0
LAYER
  5
209
100
AcDbSymbolTableRecord
100
AcDbLayerTableRecord
  2
INTF_11
 70
0
 62
7
  6
CONTINUOUS
370
-3
390
F
  0
LAYER
  5
20A
100
AcDbSymbolTableRecord
100
AcDbLayerTableRecord
  2
INTF_2
 70
0
 62
7
  6
CONTINUOUS
370
-3
390
F
  0
LAYER
  5
20B
100
AcDbSymbolTableRecord
100
AcDbLayerTableRecord
  2
INTF_3
 70
0
 62
7
  6
CONTINUOUS
370
-3
390
F
  0
LAYER
  5
20C
100
AcDbSymbolTableRecord
100
AcDbLayerTableRecord
  2
INTF_4
 70
0
 62
7
  6
CONTINUOUS
370
-3
390
F
  0
LAYER
  5
20D
100
AcDbSymbolTableRecord
100
AcDbLayerTableRecord
  2
INTF_MAGENTA
 70
0
 62
7
  6
CONTINUOUS
370
-3
390
F
  0
LAYER
  5
20E
100
AcDbSymbolTableRecord
100
AcDbLayerTableRecord
  2
NOTE
 70
0
 62
7
  6
CONTINUOUS
370
-3
390
F
  0
LAYER
  5
20F
100
AcDbSymbolTableRecord
100
AcDbLayerTableRecord
  2
PIANI
 70
0
 62
7
  6
CONTINUOUS
370
-3
390
F
  0
LAYER
  5
210
100
AcDbSymbolTableRecord
100
AcDbLayerTableRecord
  2
PIANI-RIFERIMENTO
 70
0
 62
7
  6
CONTINUOUS
370
-3
390
F
  0
LAYER
  5
211
100
AcDbSymbolTableRecord
100
AcDbLayerTableRecord
  2
PIANI_ORIGINE
 70
0
 62
7
  6
CONTINUOUS
370
-3
390
F
  0
LAYER
  5
212
100
AcDbSymbolTableRecord
100
AcDbLayerTableRecord
  2
PIANI_SFORMI
 70
0
 62
7
  6
CONTINUOUS
370
-3
390
F
  0
LAYER
  5
213
100
AcDbSymbolTableRecord
100
AcDbLayerTableRecord
  2
PUNTI
 70
0
 62
7
  6
CONTINUOUS
370
-3
390
F
  0
LAYER
  5
214
100
AcDbSymbolTableRecord
100
AcDbLayerTableRecord
  2
RACCORDO
 70
0
 62
7
  6
CONTINUOUS
370
-3
390
F
  0
LAYER
  5
215
100
AcDbSymbolTableRecord
100
AcDbLayerTableRecord
  2
RGB__255__255__255__
 70
0
 62
7
  6
CONTINUOUS
370
-3
390
F
  0
LAYER
  5
216
100
AcDbSymbolTableRecord
100
AcDbLayerTableRecord
  2
SIMBOLI
 70
0
 62
7
  6
CONTINUOUS
370
-3
390
F
  0
LAYER
  5
217
100
AcDbSymbolTableRecord
100
AcDbLayerTableRecord
  2
SMUSSO
 70
0
 62
7
  6
CONTINUOUS
370
-3
390
F
  0
LAYER
  5
218
100
AcDbSymbolTableRecord
100
AcDbLayerTableRecord
  2
SUPERFICI
 70
0
 62
7
  6
CONTINUOUS
370
-3
390
F
  0
LAYER
  5
219
100
AcDbSymbolTableRecord
100
AcDbLayerTableRecord
  2
TRASH
 70
0
 62
7
  6
CONTINUOUS
370
-3
390
F
  0
LAYER
  5
21A
100
AcDbSymbolTableRecord
100
AcDbLayerTableRecord
  2
WHITE
 70
0
 62
7
  6
CONTINUOUS
370
-3
390
F
  0
LAYER
  5
21B
100
AcDbSymbolTableRecord
100
AcDbLayerTableRecord
  2
XSEC_DATUMS
 70
0
 62
7
  6
CONTINUOUS
370
-3
390
F
  0
ENDTAB
  0
TABLE
  2
STYLE
  5
3
100
AcDbSymbolTable
 70
1
  0
STYLE
  5
11
100
AcDbSymbolTableRecord
100
AcDbTextStyleTableRecord
  2
STANDARD
 70
0
 40
0.0
 41
0.8
 50
0.0
 71
0
 42
0.2
  3
txt
  4

  0
STYLE
  5
21C
100
AcDbSymbolTableRecord
100
AcDbTextStyleTableRecord
  2
TEXTSTYLE_1
 70
0
 40
0.0
 41
0.8
 50
0.0
 71
0
 42
0.2
  3
gdt
  4

  0
ENDTAB
  0
TABLE
  2
VIEW
  5
6
100
AcDbSymbolTable
 70
0
  0
ENDTAB
  0
TABLE
  2
UCS
  5
7
100
AcDbSymbolTable
 70
0
  0
ENDTAB
  0
TABLE
  2
APPID
  5
9
100
AcDbSymbolTable
 70
1
  0
APPID
  5
21D
100
AcDbSymbolTableRecord
100
AcDbRegAppTableRecord
  2
ACAD
 70
0
  0
ENDTAB
  0
TABLE
  2
BLOCK_RECORD
  5
1
100
AcDbSymbolTable
 70
0
  0
BLOCK_RECORD
  5
21E
100
AcDbSymbolTableRecord
100
AcDbBlockTableRecord
  2
*Model_Space
  0
BLOCK_RECORD
  5
21F
100
AcDbSymbolTableRecord
100
AcDbBlockTableRecord
  2
*Paper_Space
  0
BLOCK_RECORD
  5
220
100
AcDbSymbolTableRecord
100
AcDbBlockTableRecord
  2
_FILLED
  0
BLOCK_RECORD
  5
221
100
AcDbSymbolTableRecord
100
AcDbBlockTableRecord
  2
*D0
  0
BLOCK_RECORD
  5
222
100
AcDbSymbolTableRecord
100
AcDbBlockTableRecord
  2
*D1
  0
BLOCK_RECORD
  5
223
100
AcDbSymbolTableRecord
100
AcDbBlockTableRecord
  2
*D2
  0
ENDTAB
  0
TABLE
  2
DIMSTYLE
  5
A
100
AcDbSymbolTable
 70
1
100
AcDbDimStyleTable
 71
0
  0
DIMSTYLE
105
224
100
AcDbSymbolTableRecord
100
AcDbDimStyleTableRecord
  2
STANDARD
 70
0
  3

  4

 40
1.0
 41
3.0
 42
0.5
 43
0.38
 44
1.5
 45
0.0
 46
0.0
 47
0.01
 48
0.01
140
3.0
141
0.09
142
0.0
143
25.4
144
1.0
145
0.0
146
1.0
147
0.625
 71
1
 72
0
 73
0
 74
0
 75
0
 76
0
 77
1
 78
8
 79
2
170
0
171
1
172
0
173
0
174
0
175
0
176
0
177
0
178
0
270
2
179
2
271
2
272
2
273
2
274
2
275
0
280
0
281
0
282
0
283
1
284
8
285
0
286
0
287
3
288
0
340
11
278
44
341
220
342
220
343
220
344
220
  0
DIMSTYLE
105
225
100
AcDbSymbolTableRecord
100
AcDbDimStyleTableRecord
  2
DIMSTYLE_1
 70
0
  3

  4

 40
1.0
 41
3.0
 42
0.5
 43
0.38
 44
1.5
 45
0.0
 46
0.0
 47
0.0
 48
0.0
140
3.0
141
0.09
142
0.0
143
25.4
144
1.0
145
0.0
146
1.0
147
0.75
 71
0
 72
0
 73
0
 74
0
 75
0
 76
0
 77
1
 78
8
 79
2
170
0
171
1
172
0
173
0
174
0
175
0
176
0
177
0
178
0
270
2
179
2
271
2
272
2
273
2
274
2
275
0
280
0
281
0
282
0
283
1
284
8
285
0
286
0
287
3
288
0
340
11
278
44
341
220
342
220
343
220
344
220
  0
DIMSTYLE
105
226
100
AcDbSymbolTableRecord
100
AcDbDimStyleTableRecord
  2
DIMSTYLE_2
 70
0
  3

  4

 40
1.0
 41
3.0
 42
0.5
 43
0.38
 44
1.5
 45
0.0
 46
0.0
 47
0.0
 48
0.0
140
3.0
141
0.09
142
0.0
143
25.4
144
1.0
145
0.0
146
1.0
147
0.75
 71
0
 72
0
 73
0
 74
0
 75
0
 76
0
 77
1
 78
8
 79
2
170
0
171
1
172
0
173
0
174
0
175
0
176
0
177
0
178
0
270
2
179
2
271
1
272
1
273
2
274
2
275
0
280
0
281
0
282
0
283
1
284
8
285
0
286
0
287
3
288
0
340
11
278
44
341
220
342
220
343
220
344
220
  0
ENDTAB
  0
ENDSEC
  0
SECTION
  2
BLOCKS
  0
BLOCK
  5
20
100
AcDbEntity
  8
0
100
AcDbBlockBegin
  2
*Model_Space
 70
0
 10
0.0
 20
0.0
 30
0.0
  3
*Model_Space
  1

  0
ENDBLK
  5
21
100
AcDbEntity
  8
0
100
AcDbBlockEnd
  0
BLOCK
  5
1C
100
AcDbEntity
  8
0
100
AcDbBlockBegin
  2
*Paper_Space
 70
0
 10
0.0
 20
0.0
 30
0.0
  3
*Paper_Space
  1

  0
ENDBLK
  5
1D
100
AcDbEntity
  8
0
100
AcDbBlockEnd
  0
BLOCK
  5
227
100
AcDbEntity
  8
0
100
AcDbBlockBegin
  2
_FILLED
 70
64
 10
0.0
 20
0.0
  3
_FILLED
  1

  0
SOLID
  5
228
100
AcDbEntity
  8
0
  6
BYBLOCK
 62
0
100
AcDbTrace
 10
0.0
 20
0.0
 11
-1.0
 21
0.3166666667
 12
-1.0
 22
-0.3166666667
 13
-1.0
 23
-0.3166666667
  0
ENDBLK
  5
229
100
AcDbEntity
  8
0
  6
BYBLOCK
 62
0
100
AcDbBlockEnd
  0
BLOCK
  5
22A
100
AcDbEntity
  8
0
100
AcDbBlockBegin
 62
7
  6
CONTINUOUS
  2
*D0
 70
65
 10
0.0
 20
0.0
  3
*D0
  1

  0
LINE
  5
22B
100
AcDbEntity
  8
0
100
AcDbLine
 62
7
  6
CONTINUOUS
 10
-11.7487727796
 20
30.0089555099
 11
19.1119669362
 21
30.0089555099
  0
LINE
  5
22C
100
AcDbEntity
  8
0
100
AcDbLine
 62
7
  6
CONTINUOUS
 10
7.6464857677
 20
-35.9910444901
 11
19.1119669362
 21
-35.9910444901
  0
LINE
  5
22D
100
AcDbEntity
  8
0
100
AcDbLine
 62
7
  6
CONTINUOUS
 10
17.6119669362
 20
30.0089555099
 11
17.6119669362
 21
-2.9910444901
  0
LINE
  5
22E
100
AcDbEntity
  8
0
100
AcDbLine
 62
7
  6
CONTINUOUS
 10
17.6119669362
 20
-35.9910444901
 11
17.6119669362
 21
-2.9910444901
  0
INSERT
  5
22F
100
AcDbEntity
  8
0
100
AcDbBlockReference
 62
7
  6
CONTINUOUS
  2
_FILLED
 10
17.6119669362
 20
30.0089555099
 41
3.0
 42
3.0
 43
3.0
 50
90.0
  0
INSERT
  5
230
100
AcDbEntity
  8
0
100
AcDbBlockReference
 62
7
  6
CONTINUOUS
  2
_FILLED
 10
17.6119669362
 20
-35.9910444901
 41
3.0
 42
3.0
 43
3.0
 50
270.0
  0
ENDBLK
  5
231
100
AcDbEntity
  8
0
  6
BYBLOCK
 62
0
100
AcDbBlockEnd
  0
BLOCK
  5
232
100
AcDbEntity
  8
0
100
AcDbBlockBegin
 62
7
  6
CONTINUOUS
  2
*D1
 70
65
 10
0.0
 20
0.0
  3
*D1
  1

  0
LINE
  5
233
100
AcDbEntity
  8
0
100
AcDbLine
 62
7
  6
CONTINUOUS
 10
71.0943285935
 20
-22.9910444901
 11
71.0943285935
 21
41.5613987748
  0
LINE
  5
234
100
AcDbEntity
  8
0
100
AcDbLine
 62
7
  6
CONTINUOUS
 10
115.1023475578
 20
-22.9910444901
 11
115.1023475578
 21
41.5613987748
  0
LINE
  5
235
100
AcDbEntity
  8
0
100
AcDbLine
 62
7
  6
CONTINUOUS
 10
71.0943285935
 20
40.0613987748
 11
93.0983380757
 21
40.0613987748
  0
LINE
  5
236
100
AcDbEntity
  8
0
100
AcDbLine
 62
7
  6
CONTINUOUS
 10
115.1023475578
 20
40.0613987748
 11
93.0983380757
 21
40.0613987748
  0
INSERT
  5
237
100
AcDbEntity
  8
0
100
AcDbBlockReference
 62
7
  6
CONTINUOUS
  2
_FILLED
 10
71.0943285935
 20
40.0613987748
 41
3.0
 42
3.0
 43
3.0
 50
180.0
  0
INSERT
  5
238
100
AcDbEntity
  8
0
100
AcDbBlockReference
 62
7
  6
CONTINUOUS
  2
_FILLED
 10
115.1023475578
 20
40.0613987748
 41
3.0
 42
3.0
 43
3.0
  0
ENDBLK
  5
239
100
AcDbEntity
  8
0
  6
BYBLOCK
 62
0
100
AcDbBlockEnd
  0
BLOCK
  5
23A
100
AcDbEntity
  8
0
100
AcDbBlockBegin
 62
7
  6
CONTINUOUS
  2
*D2
 70
65
 10
0.0
 20
0.0
  3
*D2
  1

  0
LINE
  5
23B
100
AcDbEntity
  8
0
100
AcDbLine
 62
7
  6
CONTINUOUS
 10
-41.248772772
 20
-22.9910444901
 11
-41.248772772
 21
39.956666572
  0
LINE
  5
23C
100
AcDbEntity
  8
0
100
AcDbLine
 62
7
  6
CONTINUOUS
 10
7.7512272115
 20
-22.9910444901
 11
7.7512272115
 21
39.956666572
  0
LINE
  5
23D
100
AcDbEntity
  8
0
100
AcDbLine
 62
7
  6
CONTINUOUS
 10
-41.248772772
 20
38.456666572
 11
-16.7487727803
 21
38.456666572
  0
LINE
  5
23E
100
AcDbEntity
  8
0
100
AcDbLine
 62
7
  6
CONTINUOUS
 10
7.7512272115
 20
38.456666572
 11
-16.7487727803
 21
38.456666572
  0
INSERT
  5
23F
100
AcDbEntity
  8
0
100
AcDbBlockReference
 62
7
  6
CONTINUOUS
  2
_FILLED
 10
-41.248772772
 20
38.456666572
 41
3.0
 42
3.0
 43
3.0
 50
180.0
  0
INSERT
  5
240
100
AcDbEntity
  8
0
100
AcDbBlockReference
 62
7
  6
CONTINUOUS
  2
_FILLED
 10
7.7512272115
 20
38.456666572
 41
3.0
 42
3.0
 43
3.0
  0
ENDBLK
  5
241
100
AcDbEntity
  8
0
  6
BYBLOCK
 62
0
100
AcDbBlockEnd
  0
ENDSEC
  0
SECTION
  2
ENTITIES
  0
DIMENSION
  5
242
100
AcDbEntity
  8
0
100
AcDbDimension
 62
7
  6
CONTINUOUS
  2
*D0
 10
17.6119669362
 20
-35.9910444901
 11
17.6119669362
 21
-5.3481873473
 70
160
 71
2
 72
2
 41
0.9
 42
66.0
  3
DIMSTYLE_1
100
AcDbAlignedDimension
 13
-12.2487727796
 23
30.0089555099
 14
7.1464857677
 24
-35.9910444901
 50
270.0
100
AcDbRotatedDimension
  0
DIMENSION
  5
243
100
AcDbEntity
  8
0
100
AcDbDimension
 62
7
  6
CONTINUOUS
  2
*D1
 10
115.1023475578
 20
40.0613987748
 11
90.7411952185
 21
40.0613987748
 70
160
 71
2
 72
2
 41
0.9
 42
44.0080189643
  3
DIMSTYLE_2
100
AcDbAlignedDimension
 13
71.0943285935
 23
-23.4910444901
 14
115.1023475578
 24
-23.4910444901
100
AcDbRotatedDimension
  0
DIMENSION
  5
244
100
AcDbEntity
  8
0
100
AcDbDimension
 62
7
  6
CONTINUOUS
  2
*D2
 10
7.7512272115
 20
38.456666572
 11
-19.1059156374
 21
38.456666572
 70
160
 71
2
 72
2
 41
0.9
 42
48.9999999835
  3
DIMSTYLE_1
100
AcDbAlignedDimension
 13
-41.248772772
 23
-23.4910444901
 14
7.7512272115
 24
-23.4910444901
100
AcDbRotatedDimension
  0
LWPOLYLINE
  5
245
100
AcDbEntity
  8
ASSI
100
AcDbPolyline
 62
250
  6
CONTINUOUS
 90
19
 70
0
 10
-30.3723016918
 20
25.307976629
 10
-30.5052126374
 20
25.2692789201
 10
-30.6361293287
 20
25.2225449415
 10
-30.7646875224
 20
25.1679047189
 10
-30.890529537
 20
25.1055102754
 10
-31.0133052481
 20
25.0355352081
 10
-31.1326730627
 20
24.9581742053
 10
-31.2483008691
 20
24.8736425051
 10
-31.3598669616
 20
24.7821752959
 10
-31.4670609349
 20
24.6840270628
 10
-31.5695845484
 20
24.579470879
 10
-31.6671525553
 20
24.4687976463
 10
-31.7594934967
 20
24.3523152857
 10
-31.8463504567
 20
24.2303478807
 10
-31.9274817773
 20
24.1032347755
 10
-32.0026617305
 20
23.971329631
 10
-32.0716811467
 20
23.8349994406
 10
-32.1343479964
 20
23.6946235097
 10
-32.1904879245
 20
23.5505923995
  0
LWPOLYLINE
  5
246
100
AcDbEntity
  8
0
100
AcDbPolyline
 62
7
  6
CONTINUOUS
 90
10
 70
0
 43
0.3500000006
 10
-16.32020121
 20
39.2066644135
 10
-15.4630587387
 20
40.0638114166
 10
-15.2487731209
 20
40.9209538879
 10
-15.2487731209
 20
41.7780963593
 10
-15.6773443565
 20
42.206665329
 10
-16.32020121
 20
42.206665329
 10
-16.7487724457
 20
41.7780963593
 10
-16.7487724457
 20
40.9209538879
 10
-16.32020121
 20
40.4923803864
 10
-15.3916298218
 20
40.4923803864
  0
LWPOLYLINE
  5
247
100
AcDbEntity
  8
ASSI
100
AcDbPolyline
 62
250
  6
CONTINUOUS
 90
22
 70
0
 10
-21.4440553017
 20
25.3952207127
 10
-21.4923259897
 20
25.3559399375
 10
-21.5398543008
 20
25.3080553473
 10
-21.5864988146
 20
25.2517094222
 10
-21.6321207409
 20
25.1870698192
 10
-21.6765843318
 20
25.114328873
 10
-21.7197572863
 20
25.0337030237
 10
-21.7615111434
 20
24.9454321731
 10
-21.8017216649
 20
24.8497789705
 10
-21.8402692047
 20
24.7470280314
 10
-21.8770390647
 20
24.6374850904
 10
-21.9119218365
 20
24.5214760919
 10
-21.9448137267
 20
24.3993462198
 10
-21.9756168655
 20
24.2714588708
 10
-22.0042395986
 20
24.1381945729
 10
-22.0305967591
 20
23.9999498531
 10
-22.0546099215
 20
23.8571360576
 10
-22.0762076348
 20
23.7101781279
 10
-22.095325635
 20
23.5595133364
 10
-22.1119070368
 20
23.4055899853
 10
-22.1259025023
 20
23.2488660723
 10
-22.137270388
 20
23.0898079285
  0
LWPOLYLINE
  5
248
100
AcDbEntity
  8
ASSI
100
AcDbPolyline
 62
250
  6
CONTINUOUS
 90
22
 70
0
 10
-22.9101287026
 20
25.3903036142
 10
-22.9721854946
 20
25.3513536163
 10
-23.0332887137
 20
25.3039482336
 10
-23.0932596916
 20
25.2482260812
 10
-23.1519230708
 20
25.1843500931
 10
-23.2091073173
 20
25.1125070451
 10
-23.264645222
 20
25.0329070092
 10
-23.31837439
 20
24.9457827389
 10
-23.3701377149
 20
24.8513889892
 10
-23.4197838388
 20
24.7500017711
 10
-23.4671675945
 20
24.6419175448
 10
-23.5121504299
 20
24.527452353
 10
-23.5546008135
 20
24.4069408963
 10
-23.5943946186
 20
24.2807355552
 10
-23.6314154867
 20
24.1492053589
 10
-23.6655551671
 20
24.012734907
 10
-23.6967138341
 20
23.8717232446
 10
-23.7248003786
 20
23.7265826954
 10
-23.7497326743
 20
23.577737656
 10
-23.7714378183
 20
23.4256233553
 10
-23.7898523439
 20
23.2706845815
 10
-23.8049224061
 20
23.1133743818
  0
LWPOLYLINE
  5
249
100
AcDbEntity
  8
ASSI
100
AcDbPolyline
 62
250
  6
CONTINUOUS
 90
16
 70
0
 10
-39.4657532619
 20
-1.0401605189
 10
-39.51217302
 20
-1.0714999533
 10
-39.5551022775
 20
-1.1081675985
 10
-39.5943303684
 20
-1.1499835163
 10
-39.6296647891
 20
-1.1967425043
 10
-39.6609321435
 20
-1.2482151033
 10
-39.6879789937
 20
-1.3041487228
 10
-39.710672613
 20
-1.364268881
 10
-39.7289016371
 20
-1.4282805515
 10
-39.7425766109
 20
-1.4958696111
 10
-39.7516304273
 20
-1.5667043813
 10
-39.7560186562
 20
-1.640437256
 10
-39.7557197632
 20
-1.7167064071
 10
-39.7507352149
 20
-1.7951375604
 10
-39.7410894715
 20
-1.8753458321
 10
-39.7268298674
 20
-1.9569376175
  0
LWPOLYLINE
  5
24A
100
AcDbEntity
  8
ASSI
100
AcDbPolyline
 62
250
  6
CONTINUOUS
 90
37
 70
0
 10
-39.7268298674
 20
-1.9569376175
 10
-39.32809576
 20
-1.7210785261
 10
-38.9388286563
 20
-1.4782582238
 10
-38.5597011264
 20
-1.2284609265
 10
-38.1929440767
 20
-0.9722476674
 10
-37.8375573907
 20
-0.7090207812
 10
-37.4891650329
 20
-0.4370388863
 10
-37.1465460402
 20
-0.1554614807
 10
-36.8116118157
 20
0.1348796895
 10
-36.4845034472
 20
0.4332072764
 10
-36.1655392909
 20
0.7394535226
 10
-35.8549485415
 20
1.0537081718
 10
-35.5526861134
 20
1.3754338345
 10
-35.2588763951
 20
1.7046677529
 10
-34.973793738
 20
2.0414024023
 10
-34.69757728
 20
2.3850364929
 10
-34.4302719941
 20
2.7356717598
 10
-34.1721065789
 20
3.0932436511
 10
-33.9234688662
 20
3.4568959197
 10
-33.6844217646
 20
3.8266565543
 10
-33.4550734712
 20
4.2024921479
 10
-33.2358591599
 20
4.5834441814
 10
-33.0267448176
 20
4.9696855787
 10
-32.8278247679
 20
5.3610294506
 10
-32.6397062412
 20
5.7559799226
 10
-32.4628067063
 20
6.1531403089
 10
-32.2966643192
 20
6.5538905184
 10
-32.140529885
 20
6.9608934631
 10
-31.9936132057
 20
7.3753668828
 10
-31.8564972127
 20
7.7960444743
 10
-31.7304401907
 20
8.2218552702
 10
-31.6151721389
 20
8.6535577032
 10
-31.5105928352
 20
9.0903321229
 10
-31.4181812972
 20
9.5287487571
 10
-31.338266044
 20
9.967649534
 10
-31.2700117761
 20
10.40813633
 10
-31.2131213061
 20
10.8501750522
  0
LINE
  5
24B
100
AcDbEntity
  8
ASSI
100
AcDbLine
 62
250
  6
CONTINUOUS
 10
-39.815888802
 20
-2.0027635924
 11
-39.7268298674
 21
-1.9569376175
  0
LWPOLYLINE
  5
24C
100
AcDbEntity
  8
ASSI
100
AcDbPolyline
 62
250
  6
CONTINUOUS
 90
3
 70
0
 10
-39.9012862695
 20
-2.0459925374
 10
-39.8732221068
 20
-2.0318715981
 10
-39.815888802
 20
-2.0027635924
  0
LINE
  5
24D
100
AcDbEntity
  8
ASSI
100
AcDbLine
 62
7
  6
CONTINUOUS
 10
-34.5491760051
 20
23.0963803467
 11
-34.3868505771
 21
23.4139215626
  0
LINE
  5
24E
100
AcDbEntity
  8
ASSI
100
AcDbLine
 62
7
  6
CONTINUOUS
 10
-34.3868505771
 20
23.4139215626
 11
-34.223425814
 21
23.7308927245
  0
LWPOLYLINE
  5
24F
100
AcDbEntity
  8
ASSI
100
AcDbPolyline
 62
250
  6
CONTINUOUS
 90
13
 70
0
 10
-40.2521485468
 20
-2.1285165369
 10
-40.2486747823
 20
-2.118153676
 10
-40.2402927545
 20
-2.108488259
 10
-40.2270436366
 20
-2.0994572928
 10
-40.2089328355
 20
-2.0908903026
 10
-40.1860077547
 20
-2.0828375603
 10
-40.1584125619
 20
-2.0755451078
 10
-40.1262470321
 20
-2.0688976857
 10
-40.0895835206
 20
-2.062823678
 10
-40.0486088798
 20
-2.0575999988
 10
-40.0034939493
 20
-2.0532386341
 10
-39.9543664632
 20
-2.049493482
 10
-39.9013980733
 20
-2.0462373546
  0
LWPOLYLINE
  5
250
100
AcDbEntity
  8
ASSI
100
AcDbPolyline
 62
250
  6
CONTINUOUS
 90
13
 70
0
 10
-40.4196852949
 20
-4.003077416
 10
-40.4161932691
 20
-3.9939972045
 10
-40.4073189751
 20
-3.9854148576
 10
-40.3930993873
 20
-3.9773661332
 10
-40.3735937513
 20
-3.969884566
 10
-40.3488833364
 20
-3.9630013275
 10
-40.3190710978
 20
-3.9567450964
 10
-40.2842812469
 20
-3.951141939
 10
-40.2446587341
 20
-3.9462152006
 10
-40.2003686449
 20
-3.941985408
 10
-40.151595512
 20
-3.9384701846
 10
-40.0985425465
 20
-3.9356841763
 10
-40.0414307912
 20
-3.9336389909
  0
LWPOLYLINE
  5
251
100
AcDbEntity
  8
ASSI
100
AcDbPolyline
 62
250
  6
CONTINUOUS
 90
7
 70
0
 10
-33.2516305739
 20
21.01190839
 10
-33.0792583573
 20
21.4367143958
 10
-32.9050895649
 20
21.8608517847
 10
-32.7291261332
 20
22.2843144363
 10
-32.5513700483
 20
22.7070962122
 10
-32.3718233457
 20
23.1291909552
 10
-32.1904881101
 20
23.5505924899
  0
LWPOLYLINE
  5
252
100
AcDbEntity
  8
ASSI
100
AcDbPolyline
 62
250
  6
CONTINUOUS
 90
13
 70
0
 10
-40.5111205373
 20
-5.1072341356
 10
-40.5076549613
 20
-5.0987810955
 10
-40.4986677148
 20
-5.0908091914
 10
-40.4841971965
 20
-5.0833524839
 10
-40.4643052326
 20
-5.0764428321
 10
-40.4390768128
 20
-5.0701097582
 10
-40.4086197271
 20
-5.0643803204
 10
-40.3730641054
 20
-5.0592789982
 10
-40.3325618614
 20
-5.0548275874
 10
-40.2872860435
 20
-5.0510451068
 10
-40.2374300956
 20
-5.0479477174
 10
-40.1832070304
 20
-5.0455486529
 10
-40.1248485195
 20
-5.0438581636
  0
LWPOLYLINE
  5
253
100
AcDbEntity
  8
ASSI
100
AcDbPolyline
 62
250
  6
CONTINUOUS
 90
7
 70
0
 10
-40.0414307912
 20
-3.9336389909
 10
-39.9913732524
 20
-3.6033567056
 10
-39.9403670942
 20
-3.2734169869
 10
-39.8884109964
 20
-2.9438125264
 10
-39.8355036393
 20
-2.6145360163
 10
-39.7816437029
 20
-2.2855801491
 10
-39.7268298674
 20
-1.9569376175
  0
LWPOLYLINE
  5
254
100
AcDbEntity
  8
ASSI
100
AcDbPolyline
 62
250
  6
CONTINUOUS
 90
16
 70
0
 10
-31.7671807804
 20
10.7660104332
 10
-31.7631906067
 20
10.7773369292
 10
-31.7540841471
 20
10.7879903101
 10
-31.73989762
 20
10.7979282073
 10
-31.7206874488
 20
10.8071110963
 10
-31.6965300371
 20
10.8155024555
 10
-31.667521465
 20
10.8230689114
 10
-31.6337771079
 20
10.8297803653
 10
-31.5954311758
 20
10.8356101238
 10
-31.5526361796
 20
10.8405350086
 10
-31.5055623181
 20
10.844535425
 10
-31.4543968243
 20
10.847595458
 10
-31.3993432265
 20
10.8497029491
 10
-31.3406205044
 20
10.8508495173
 10
-31.2784622113
 20
10.8510305895
 10
-31.2131155728
 20
10.8502454383
  0
LWPOLYLINE
  5
255
100
AcDbEntity
  8
ASSI
100
AcDbPolyline
 62
250
  6
CONTINUOUS
 90
18
 70
0
 10
-40.7675594006
 20
-23.4910444898
 10
-40.7686225763
 20
-22.7283707117
 10
-40.767862513
 20
-21.935533657
 10
-40.7646320512
 20
-21.1125305405
 10
-40.7578399018
 20
-20.2589220298
 10
-40.7471951768
 20
-19.3751846813
 10
-40.7332153768
 20
-18.4627116392
 10
-40.7150514877
 20
-17.5215406943
 10
-40.6920058788
 20
-16.5517742803
 10
-40.6647835542
 20
-15.5549286588
 10
-40.6324033729
 20
-14.5346347485
 10
-40.5941637602
 20
-13.4875262344
 10
-40.5508071528
 20
-12.4046584303
 10
-40.5004565132
 20
-11.2872686685
 10
-40.4422983588
 20
-10.1345738835
 10
-40.3776848417
 20
-8.9346828485
 10
-40.3053218053
 20
-7.6839179385
 10
-40.2218724294
 20
-6.3867980606
  0
LINE
  5
256
100
AcDbEntity
  8
0
100
AcDbLine
 62
7
  6
CONTINUOUS
 10
-41.1225526016
 20
-23.4910444901
 11
-41.1225526016
 21
-35.6360182451
  0
LINE
  5
257
100
AcDbEntity
  8
ASSI
100
AcDbLine
 62
250
  6
CONTINUOUS
 10
-40.0414307912
 20
-3.9336389909
 11
-39.9966569158
 21
-3.3100456856
  0
LINE
  5
258
100
AcDbEntity
  8
ASSI
100
AcDbLine
 62
250
  6
CONTINUOUS
 10
-40.2218724294
 20
-6.3867980606
 11
-40.1067393095
 21
-4.7971366566
  0
LWPOLYLINE
  5
259
100
AcDbEntity
  8
ASSI
100
AcDbPolyline
 62
250
  6
CONTINUOUS
 90
4
 70
0
 10
-39.9966569158
 20
-3.3100456856
 10
-39.9500556182
 20
-2.6808353705
 10
-39.9259635537
 20
-2.3641190675
 10
-39.9012862695
 20
-2.0459925374
  0
LINE
  5
25A
100
AcDbEntity
  8
ASSI
100
AcDbLine
 62
250
  6
CONTINUOUS
 10
-40.1067393095
 20
-4.7971366566
 11
-40.0697884699
 21
-4.3037049788
  0
LINE
  5
25B
100
AcDbEntity
  8
ASSI
100
AcDbLine
 62
250
  6
CONTINUOUS
 10
-40.0697884699
 20
-4.3037049788
 11
-40.0414307912
 21
-3.9336389909
  0
LWPOLYLINE
  5
25C
100
AcDbEntity
  8
ASSI
100
AcDbPolyline
 62
250
  6
CONTINUOUS
 90
12
 70
0
 10
0.8159981626
 20
22.7548631152
 10
0.7494374311
 20
22.6554776508
 10
0.6756662406
 20
22.543807808
 10
0.5945196891
 20
22.4196144648
 10
0.5065428659
 20
22.2830496644
 10
0.4125705143
 20
22.1346457305
 10
0.3129349157
 20
21.9738784553
 10
0.2078905542
 20
21.8011624003
 10
0.0987345864
 20
21.6184507441
 10
-0.0135169125
 20
21.4263699689
 10
-0.1285856586
 20
21.2242046008
 10
-0.2459149814
 20
21.0119083804
  0
LINE
  5
25D
100
AcDbEntity
  8
ASSI
100
AcDbLine
 62
250
  6
CONTINUOUS
 10
0.9705008849
 20
22.9806012476
 11
0.8159981626
 21
22.7548631152
  0
LWPOLYLINE
  5
25E
100
AcDbEntity
  8
ASSI
100
AcDbPolyline
 62
250
  6
CONTINUOUS
 90
42
 70
0
 10
-31.2131209577
 20
10.8501750439
 10
-31.1777413434
 20
11.2066408907
 10
-31.1493735362
 20
11.5496369891
 10
-31.1280351937
 20
11.8791517456
 10
-31.11443155
 20
12.1939693116
 10
-31.107883138
 20
12.495297066
 10
-31.1063185867
 20
12.7867590298
 10
-31.1092271915
 20
13.0670991911
 10
-31.1171345658
 20
13.3375746353
 10
-31.1294211084
 20
13.6055596994
 10
-31.1454604502
 20
13.8718016422
 10
-31.165673272
 20
14.1355239346
 10
-31.1908085779
 20
14.4017822882
 10
-31.2208132101
 20
14.6734490278
 10
-31.2552444559
 20
14.9475801555
 10
-31.2942056136
 20
15.2205011573
 10
-31.3379531478
 20
15.4926516475
 10
-31.3858125828
 20
15.7635442187
 10
-31.4366784055
 20
16.0281494368
 10
-31.4905924264
 20
16.285339445
 10
-31.5473774254
 20
16.5362495706
 10
-31.6058174457
 20
16.7792799813
 10
-31.6656344998
 20
17.0132754769
 10
-31.727137983
 20
17.2394275451
 10
-31.7900372788
 20
17.4596595653
 10
-31.8539327743
 20
17.6735755629
 10
-31.9191722768
 20
17.8815956294
 10
-31.9864374519
 20
18.0868436057
 10
-32.0556184193
 20
18.290126924
 10
-32.1265003902
 20
18.4906351943
 10
-32.1994446811
 20
18.6890451479
 10
-32.2740942854
 20
18.8853227082
 10
-32.3503805243
 20
19.079499954
 10
-32.4289685932
 20
19.2723429127
 10
-32.5090913774
 20
19.4634266685
 10
-32.5909109513
 20
19.6531666323
 10
-32.6761823405
 20
19.8435685121
 10
-32.7639900809
 20
20.0349349963
 10
-32.8540744481
 20
20.2269233935
 10
-32.9486398964
 20
20.420543511
 10
-33.04762236
 20
20.6161058249
 10
-33.2516305742
 20
21.0119083893
  0
LWPOLYLINE
  5
25F
100
AcDbEntity
  8
ASSI
100
AcDbPolyline
 62
250
  6
CONTINUOUS
 90
10
 70
0
 10
-25.6317097944
 20
10.7046114155
 10
-25.4691084746
 20
12.0542336833
 10
-25.295900615
 20
13.4140708959
 10
-25.1123003058
 20
14.7828630825
 10
-24.9185278651
 20
16.1594038847
 10
-24.714861099
 20
17.542176546
 10
-24.5016205459
 20
18.9294440068
 10
-24.2789074094
 20
20.3204660827
 10
-24.0466804224
 20
21.7151718181
 10
-23.8049224067
 20
23.1133743821
  0
LWPOLYLINE
  5
260
100
AcDbEntity
  8
ASSI
100
AcDbPolyline
 62
250
  6
CONTINUOUS
 90
43
 70
0
 10
-0.2459149858
 20
21.0119083913
 10
-0.3279650223
 20
20.8555533949
 10
-0.4101522979
 20
20.6965777929
 10
-0.4921448166
 20
20.534976255
 10
-0.5732572507
 20
20.3712848267
 10
-0.6535110182
 20
20.2049609351
 10
-0.7337996733
 20
20.034371845
 10
-0.8145773176
 20
19.8583637042
 10
-0.8951570568
 20
19.6780585049
 10
-0.9747695001
 20
19.4952375155
 10
-1.0528176552
 20
19.3105341151
 10
-1.129400545
 20
19.1233129208
 10
-1.2047240886
 20
18.9334615835
 10
-1.2784665893
 20
18.7417169061
 10
-1.3505524744
 20
18.547339651
 10
-1.4217015302
 20
18.3479891216
 10
-1.4920728794
 20
18.1438194273
 10
-1.5613737601
 20
17.9346464619
 10
-1.6298496526
 20
17.7175972827
 10
-1.697998383
 20
17.4915424621
 10
-1.7654055819
 20
17.2575614991
 10
-1.8309823968
 20
17.0160881452
 10
-1.8947733234
 20
16.7658763857
 10
-1.9566949001
 20
16.5081396215
 10
-2.0152523877
 20
16.2470307482
 10
-2.0698603957
 20
15.9823327189
 10
-2.1207393989
 20
15.7142877749
 10
-2.1673354272
 20
15.4477840676
 10
-2.2088714808
 20
15.1853201212
 10
-2.2455422243
 20
14.9244718583
 10
-2.2782307426
 20
14.6627527235
 10
-2.3070645204
 20
14.4021758685
 10
-2.3315775109
 20
14.1407723015
 10
-2.3519989574
 20
13.8700442647
 10
-2.3690370885
 20
13.5886034384
 10
-2.3820052715
 20
13.2978264058
 10
-2.3892179357
 20
12.9933289958
 10
-2.3910819602
 20
12.6743482846
 10
-2.3872650637
 20
12.3416341336
 10
-2.3749703514
 20
11.9930651489
 10
-2.3532548572
 20
11.6279376948
 10
-2.3230680187
 20
11.2469687832
 10
-2.2844248959
 20
10.8501750369
  0
LWPOLYLINE
  5
261
100
AcDbEntity
  8
ASSI
100
AcDbPolyline
 62
250
  6
CONTINUOUS
 90
5
 70
0
 10
1.0516304507
 20
23.0963803374
 10
1.0467489902
 20
23.0879182394
 10
1.0310104659
 20
23.0658639874
 10
1.0052650818
 20
23.0302396625
 10
0.9705008849
 20
22.9806012476
  0
LWPOLYLINE
  5
262
100
AcDbEntity
  8
ASSI
100
AcDbPolyline
 62
250
  6
CONTINUOUS
 90
16
 70
0
 10
-39.9013980733
 20
-2.0462373546
 10
-39.9133015668
 20
-1.9643196366
 10
-39.9210461173
 20
-1.8838533666
 10
-39.9243249769
 20
-1.8052105468
 10
-39.9226526473
 20
-1.7287004936
 10
-39.9160508471
 20
-1.6546839739
 10
-39.9049975706
 20
-1.5836088709
 10
-39.8893189397
 20
-1.5157786744
 10
-39.8688994704
 20
-1.4514727416
 10
-39.8442608013
 20
-1.3911201307
 10
-39.8152714858
 20
-1.3349386188
 10
-39.7819076684
 20
-1.283143811
 10
-39.7447699172
 20
-1.23615939
 10
-39.7039950669
 20
-1.1942149003
 10
-39.6593531854
 20
-1.1573145751
 10
-39.6108743874
 20
-1.1255010908
  0
LWPOLYLINE
  5
263
100
AcDbEntity
  8
ASSI
100
AcDbPolyline
 62
250
  6
CONTINUOUS
 90
10
 70
0
 10
-26.8628615886
 20
-23.4910444901
 10
-26.9419369393
 20
-21.4426038033
 10
-27.0015656806
 20
-19.3981807801
 10
-27.0418774797
 20
-17.3586705972
 10
-27.0630034265
 20
-15.3248495932
 10
-27.0650724221
 20
-13.2976766037
 10
-27.0482205674
 20
-11.2782932206
 10
-27.0125915596
 20
-9.2676216025
 10
-26.9583272746
 20
-7.2663645531
 10
-26.8855707367
 20
-5.275306936
  0
LWPOLYLINE
  5
264
100
AcDbEntity
  8
ASSI
100
AcDbPolyline
 62
250
  6
CONTINUOUS
 90
10
 70
0
 10
-24.4756020479
 20
-23.4910444901
 10
-24.5396595574
 20
-21.4457866809
 10
-24.5884862793
 20
-19.4055648884
 10
-24.6221890375
 20
-17.3711312536
 10
-24.6408755862
 20
-15.3431913963
 10
-24.6446536542
 20
-13.3224948876
 10
-24.6336331427
 20
-11.3098354165
 10
-24.6079263378
 20
-9.3059303233
 10
-24.5676456866
 20
-7.3114207425
 10
-24.5129043886
 20
-5.3269620858
  0
LINE
  5
265
100
AcDbEntity
  8
ASSI
100
AcDbLine
 62
7
  6
CONTINUOUS
 10
-26.5004245196
 20
-23.4910444901
 11
-26.4584778699
 21
-35.4954077579
  0
LINE
  5
266
100
AcDbEntity
  8
ASSI
100
AcDbLine
 62
250
  6
CONTINUOUS
 10
-24.4756020174
 20
-23.4910444901
 11
-24.4388080889
 21
-35.4954077577
  0
LWPOLYLINE
  5
267
100
AcDbEntity
  8
ASSI
100
AcDbPolyline
 62
250
  6
CONTINUOUS
 90
10
 70
0
 10
-24.5129043886
 20
-5.3269620858
 10
-24.4510175377
 20
-3.5276229999
 10
-24.3781360478
 20
-1.7366016468
 10
-24.2940922147
 20
0.0471274762
 10
-24.198755099
 20
1.8239639381
 10
-24.0919407879
 20
3.595501986
 10
-23.973535979
 20
5.3637601617
 10
-23.8436424928
 20
7.1287313931
 10
-23.7024557551
 20
8.8891438039
 10
-23.5501317038
 20
10.6443437388
  0
LWPOLYLINE
  5
268
100
AcDbEntity
  8
ASSI
100
AcDbPolyline
 62
250
  6
CONTINUOUS
 90
10
 70
0
 10
-26.8855707367
 20
-5.275306936
 10
-26.8038303008
 20
-3.4695605775
 10
-26.7080023703
 20
-1.6741016697
 10
-26.5979060137
 20
0.1123462275
 10
-26.4734277905
 20
1.8901710781
 10
-26.3343509739
 20
3.6614582277
 10
-26.1804824958
 20
5.4290463714
 10
-26.0119207795
 20
7.1930610667
 10
-25.8289320227
 20
8.9518438115
 10
-25.6317097944
 20
10.7046114155
  0
LWPOLYLINE
  5
269
100
AcDbEntity
  8
ASSI
100
AcDbPolyline
 62
250
  6
CONTINUOUS
 90
10
 70
0
 10
-23.5501317038
 20
10.6443437388
 10
-23.4237176807
 20
12.003688674
 10
-23.2891605148
 20
13.3711771713
 10
-23.1466829811
 20
14.7457686369
 10
-22.9965306094
 20
16.1263173918
 10
-22.8389524627
 20
17.5117527686
 10
-22.6741799039
 20
18.9011483924
 10
-22.5022987654
 20
20.294079121
 10
-22.3233246369
 20
21.6903448069
 10
-22.1372704119
 20
23.0898079452
  0
LWPOLYLINE
  5
26A
100
AcDbEntity
  8
ASSI
100
AcDbPolyline
 62
250
  6
CONTINUOUS
 90
16
 70
0
 10
-0.1162299719
 20
19.950479194
 10
-0.0870033141
 20
20.0144246999
 10
-0.0630416156
 20
20.0806934643
 10
-0.0444510285
 20
20.1489919115
 10
-0.0313139108
 20
20.2190174741
 10
-0.0236884609
 20
20.2904599333
 10
-0.0216084603
 20
20.3630027936
 10
-0.0250831237
 20
20.4363246844
 10
-0.0340970581
 20
20.5101007841
 10
-0.0486103312
 20
20.5840042587
 10
-0.068558648
 20
20.6577077096
 10
-0.0938536361
 20
20.7308846252
 10
-0.1243832376
 20
20.8032108277
 10
-0.1600122045
 20
20.8743659067
 10
-0.200582698
 20
20.944034639
 10
-0.2459149881
 20
21.0119083865
  0
LINE
  5
26B
100
AcDbEntity
  8
ASSI
100
AcDbLine
 62
7
  6
CONTINUOUS
 10
-22.7987727796
 20
26.8844340413
 11
-22.7987727796
 21
27.7840195434
  0
LINE
  5
26C
100
AcDbEntity
  8
ASSI
100
AcDbLine
 62
7
  6
CONTINUOUS
 10
-22.0487727796
 20
28.7127283245
 11
-22.0487727796
 21
29.2089555099
  0
LWPOLYLINE
  5
26D
100
AcDbEntity
  8
0
100
AcDbPolyline
 62
7
  6
CONTINUOUS
 90
2
 70
0
 43
0.3500000006
 10
-18.1059162025
 20
39.2066644135
 10
-18.1059162025
 20
40.7066648712
  0
LINE
  5
26E
100
AcDbEntity
  8
ASSI
100
AcDbLine
 62
7
  6
CONTINUOUS
 10
-16.7487727796
 20
-23.4910444901
 11
-16.7487727796
 21
30.0089555099
  0
LINE
  5
26F
100
AcDbEntity
  8
ASSI
100
AcDbLine
 62
7
  6
CONTINUOUS
 10
-11.4487727796
 20
28.6011866224
 11
-11.4487727796
 21
29.2089555099
  0
LINE
  5
270
100
AcDbEntity
  8
ASSI
100
AcDbLine
 62
7
  6
CONTINUOUS
 10
-10.6987727796
 20
26.8844340413
 11
-10.6987727796
 21
27.6724778413
  0
LINE
  5
271
100
AcDbEntity
  8
ASSI
100
AcDbLine
 62
250
  6
CONTINUOUS
 10
-9.0219435271
 20
-23.4910444905
 11
-9.0587374556
 21
-35.4954077581
  0
LWPOLYLINE
  5
272
100
AcDbEntity
  8
ASSI
100
AcDbPolyline
 62
250
  6
CONTINUOUS
 90
10
 70
0
 10
-9.0219435113
 20
-23.4910444901
 10
-8.9578860018
 20
-21.4457866809
 10
-8.90905928
 20
-19.4055648884
 10
-8.8753565217
 20
-17.3711312536
 10
-8.856669973
 20
-15.3431913963
 10
-8.852891905
 20
-13.3224948876
 10
-8.8639124165
 20
-11.3098354165
 10
-8.8896192214
 20
-9.3059303233
 10
-8.9298998726
 20
-7.3114207425
 10
-8.9846411706
 20
-5.3269620858
  0
LWPOLYLINE
  5
273
100
AcDbEntity
  8
ASSI
100
AcDbPolyline
 62
250
  6
CONTINUOUS
 90
10
 70
0
 10
-9.9474138554
 20
10.6443437388
 10
-10.0738278781
 20
12.0036886699
 10
-10.2083850435
 20
13.3711771631
 10
-10.3508625768
 20
14.7457686246
 10
-10.5010149478
 20
16.1263173739
 10
-10.6585930938
 20
17.5117527452
 10
-10.8233656523
 20
18.9011483677
 10
-10.9952467912
 20
20.2940791005
 10
-11.1742209207
 20
21.6903447946
 10
-11.3602751474
 20
23.0898079452
  0
LWPOLYLINE
  5
274
100
AcDbEntity
  8
ASSI
100
AcDbPolyline
 62
250
  6
CONTINUOUS
 90
10
 70
0
 10
-6.6119748225
 20
-5.275306936
 10
-6.6937152585
 20
-3.4695605775
 10
-6.7895431889
 20
-1.6741016697
 10
-6.8996395455
 20
0.1123462275
 10
-7.0241177687
 20
1.8901710781
 10
-7.1631945853
 20
3.6614582277
 10
-7.3170630634
 20
5.4290463714
 10
-7.4856247798
 20
7.1930610667
 10
-7.6686135365
 20
8.9518438115
 10
-7.8658357648
 20
10.7046114155
  0
LWPOLYLINE
  5
275
100
AcDbEntity
  8
ASSI
100
AcDbPolyline
 62
250
  6
CONTINUOUS
 90
10
 70
0
 10
-8.9846411706
 20
-5.3269620858
 10
-9.0465280215
 20
-3.5276229999
 10
-9.1194095114
 20
-1.7366016468
 10
-9.2034533445
 20
0.0471274762
 10
-9.2987904602
 20
1.8239639381
 10
-9.4056047713
 20
3.595501986
 10
-9.5240095802
 20
5.3637601617
 10
-9.6539030664
 20
7.1287313931
 10
-9.7950898041
 20
8.8891438039
 10
-9.9474138554
 20
10.6443437388
  0
LINE
  5
276
100
AcDbEntity
  8
ASSI
100
AcDbLine
 62
7
  6
CONTINUOUS
 10
-6.9971210396
 20
-23.4910444901
 11
-7.0390676894
 21
-35.4954077579
  0
LWPOLYLINE
  5
277
100
AcDbEntity
  8
ASSI
100
AcDbPolyline
 62
250
  6
CONTINUOUS
 90
10
 70
0
 10
-6.6346839706
 20
-23.4910444901
 10
-6.5556086199
 20
-21.4426038033
 10
-6.4959798786
 20
-19.3981807801
 10
-6.4556680795
 20
-17.3586705972
 10
-6.4345421327
 20
-15.3248495932
 10
-6.4324731371
 20
-13.2976766037
 10
-6.4493249918
 20
-11.2782932206
 10
-6.4849539996
 20
-9.2676216025
 10
-6.5392182847
 20
-7.2663645531
 10
-6.6119748225
 20
-5.275306936
  0
LWPOLYLINE
  5
278
100
AcDbEntity
  8
ASSI
100
AcDbPolyline
 62
7
  6
CONTINUOUS
 90
19
 70
0
 10
-7.2384893864
 20
-35.9910444901
 10
-7.2212042988
 20
-35.9891629078
 10
-7.2040493044
 20
-35.9835323223
 10
-7.1871535173
 20
-35.9741951111
 10
-7.170644101
 20
-35.9612215493
 10
-7.1546453105
 20
-35.9447092801
 10
-7.1392775582
 20
-35.9247825802
 10
-7.1246565067
 20
-35.9015914246
 10
-7.110892199
 20
-35.8753103575
 10
-7.0980882297
 20
-35.846137179
 10
-7.0863409657
 20
-35.8142914558
 10
-7.0757388209
 20
-35.7800128695
 10
-7.0663615905
 20
-35.7435594119
 10
-7.0582798505
 20
-35.7052054438
 10
-7.0515544269
 20
-35.6652396299
 10
-7.0462359373
 20
-35.6239627659
 10
-7.0423644106
 20
-35.5816855151
 10
-7.039968985
 20
-35.5387260701
 10
-7.0390676894
 20
-35.4954077579
  0
LWPOLYLINE
  5
279
100
AcDbEntity
  8
ASSI
100
AcDbPolyline
 62
250
  6
CONTINUOUS
 90
22
 70
0
 10
-9.234340532
 20
-35.9910444901
 10
-9.2212899707
 20
-35.9896618744
 10
-9.208311585
 20
-35.9855216705
 10
-9.1954771517
 20
-35.9786467758
 10
-9.1828576509
 20
-35.9690752116
 10
-9.1705228747
 20
-35.9568599132
 10
-9.15854104
 20
-35.9420684369
 10
-9.146978412
 20
-35.9247825865
 10
-9.1358989375
 20
-35.9050979609
 10
-9.1253638912
 20
-35.8831234254
 10
-9.1154315368
 20
-35.8589805093
 10
-9.1061568049
 20
-35.8328027344
 10
-9.0975909891
 20
-35.804734876
 10
-9.0897814624
 20
-35.7749321625
 10
-9.0827714152
 20
-35.7435594171
 10
-9.0765996163
 20
-35.7107901455
 10
-9.0713001986
 20
-35.6768055774
 10
-9.0669024705
 20
-35.6417936633
 10
-9.0634307533
 20
-35.6059480355
 10
-9.0609042474
 20
-35.5694669372
 10
-9.0593369255
 20
-35.532552126
 10
-9.0587374556
 20
-35.4954077581
  0
LINE
  5
27A
100
AcDbEntity
  8
ASSI
100
AcDbLine
 62
7
  6
CONTINUOUS
 10
-17.4358415874
 20
-35.9891521901
 11
-17.9823778588
 21
-35.9910444901
  0
LINE
  5
27B
100
AcDbEntity
  8
ASSI
100
AcDbLine
 62
7
  6
CONTINUOUS
 10
-16.8863475837
 20
-35.9883411674
 11
-17.4358415874
 21
-35.9891521901
  0
LINE
  5
27C
100
AcDbEntity
  8
ASSI
100
AcDbLine
 62
7
  6
CONTINUOUS
 10
7.1464857677
 20
-35.9910444901
 11
-15.5151884236
 21
-35.9910444901
  0
LINE
  5
27D
100
AcDbEntity
  8
ASSI
100
AcDbLine
 62
7
  6
CONTINUOUS
 10
-17.9823571357
 20
-35.9910444901
 11
-40.6440313269
 21
-35.9910444901
  0
LINE
  5
27E
100
AcDbEntity
  8
0
100
AcDbLine
 62
250
  6
CONTINUOUS
 10
7.6250070424
 20
-35.4954077579
 11
-7.0390676894
 21
-35.4954077579
  0
LINE
  5
27F
100
AcDbEntity
  8
ASSI
100
AcDbLine
 62
250
  6
CONTINUOUS
 10
-7.0390676894
 20
-35.4954077579
 11
-26.4584778699
 21
-35.4954077579
  0
LINE
  5
280
100
AcDbEntity
  8
0
100
AcDbLine
 62
250
  6
CONTINUOUS
 10
-26.4584778699
 20
-35.4954077579
 11
-41.1225526016
 21
-35.4954077579
  0
LINE
  5
281
100
AcDbEntity
  8
ASSI
100
AcDbLine
 62
7
  6
CONTINUOUS
 10
-16.3362530398
 20
-35.988611447
 11
-16.8863475837
 21
-35.9883411674
  0
LWPOLYLINE
  5
282
100
AcDbEntity
  8
ASSI
100
AcDbPolyline
 62
7
  6
CONTINUOUS
 90
3
 70
0
 10
-15.5151677004
 20
-35.9910444901
 10
-15.7879308873
 20
-35.9899631293
 10
-16.3362530398
 20
-35.988611447
  0
LWPOLYLINE
  5
283
100
AcDbEntity
  8
ASSI
100
AcDbPolyline
 62
250
  6
CONTINUOUS
 90
22
 70
0
 10
-24.2632050272
 20
-35.9910444901
 10
-24.2762555884
 20
-35.9896618713
 10
-24.2892339738
 20
-35.9855216644
 10
-24.3020684068
 20
-35.9786467667
 10
-24.314687907
 20
-35.9690751998
 10
-24.3270226826
 20
-35.956859899
 10
-24.3390045165
 20
-35.9420684206
 10
-24.3505671435
 20
-35.9247825685
 10
-24.3616466171
 20
-35.9050979415
 10
-24.3721816624
 20
-35.883123405
 10
-24.3821140157
 20
-35.8589804885
 10
-24.3913887465
 20
-35.8328027135
 10
-24.3999545612
 20
-35.8047348555
 10
-24.4077640868
 20
-35.774932143
 10
-24.414774133
 20
-35.7435593988
 10
-24.4209459311
 20
-35.710790129
 10
-24.4262453479
 20
-35.676805563
 10
-24.4306430754
 20
-35.6417936513
 10
-24.434114792
 20
-35.6059480262
 10
-24.4366412975
 20
-35.5694669307
 10
-24.4382086191
 20
-35.5325521225
 10
-24.4388080889
 20
-35.4954077577
  0
LWPOLYLINE
  5
284
100
AcDbEntity
  8
ASSI
100
AcDbPolyline
 62
7
  6
CONTINUOUS
 90
19
 70
0
 10
-26.2575110146
 20
-35.9910444901
 10
-26.2749300232
 20
-35.9891629094
 10
-26.2922179317
 20
-35.9835323283
 10
-26.3092446258
 20
-35.9741951235
 10
-26.325881957
 20
-35.9612215693
 10
-26.3420047072
 20
-35.9447093081
 10
-26.3574915311
 20
-35.9247826161
 10
-26.3722258697
 20
-35.9015914677
 10
-26.3860968273
 20
-35.8753104063
 10
-26.3990000062
 20
-35.8461372318
 10
-26.4108382928
 20
-35.8142915107
 10
-26.421522588
 20
-35.7800129241
 10
-26.4309724781
 20
-35.7435594642
 10
-26.4391168398
 20
-35.7052054915
 10
-26.445894376
 20
-35.6652396706
 10
-26.4512540766
 20
-35.6239627982
 10
-26.4551556027
 20
-35.5816855378
 10
-26.4575695899
 20
-35.538726082
 10
-26.4584778699
 20
-35.4954077579
  0
LWPOLYLINE
  5
285
100
AcDbEntity
  8
ASSI
100
AcDbPolyline
 62
250
  6
CONTINUOUS
 90
16
 70
0
 10
-33.3813155874
 20
19.950479194
 10
-33.4105422445
 20
20.0144246983
 10
-33.4345039429
 20
20.0806934617
 10
-33.4530945301
 20
20.1489919082
 10
-33.4662316483
 20
20.2190174708
 10
-33.4738570986
 20
20.2904599308
 10
-33.4759370995
 20
20.363002792
 10
-33.4724624363
 20
20.436324684
 10
-33.4634485018
 20
20.510100785
 10
-33.4489352284
 20
20.5840042608
 10
-33.4289869111
 20
20.6577077126
 10
-33.4036919225
 20
20.7308846289
 10
-33.3731623207
 20
20.8032108314
 10
-33.3375333537
 20
20.8743659097
 10
-33.2969628605
 20
20.9440346406
 10
-33.2516305714
 20
21.0119083861
  0
LWPOLYLINE
  5
286
100
AcDbEntity
  8
ASSI
100
AcDbPolyline
 62
250
  6
CONTINUOUS
 90
11
 70
0
 10
-33.2516305739
 20
21.01190839
 10
-33.3636449398
 20
21.2153215025
 10
-33.4744595897
 20
21.4101822656
 10
-33.5833789668
 20
21.5965243776
 10
-33.6896059506
 20
21.7749718831
 10
-33.7924367877
 20
21.944968237
 10
-33.8914203708
 20
22.1047858421
 10
-33.9859484821
 20
22.2543906206
 10
-34.0752230117
 20
22.3939008387
 10
-34.1587520019
 20
22.5218297488
 10
-34.3060191009
 20
22.7432061236
  0
LWPOLYLINE
  5
287
100
AcDbEntity
  8
ASSI
100
AcDbPolyline
 62
250
  6
CONTINUOUS
 90
37
 70
0
 10
-2.2844240988
 20
10.8501750559
 10
-2.2301660233
 20
10.4278375439
 10
-2.1659600482
 20
10.0081924198
 10
-2.0915372224
 20
9.59127371
 10
-2.006645527
 20
9.1777525626
 10
-1.91106776
 20
8.7670182546
 10
-1.8046440601
 20
8.3571717472
 10
-1.6871033748
 20
7.9471592185
 10
-1.5584333157
 20
7.5380647134
 10
-1.4189066556
 20
7.1311904099
 10
-1.2684310697
 20
6.7265985452
 10
-1.1069197452
 20
6.3242536042
 10
-0.9346730365
 20
5.9253142677
 10
-0.7516549768
 20
5.5298117251
 10
-0.5578369932
 20
5.1377346705
 10
-0.3535517092
 20
4.7501802192
 10
-0.1388555246
 20
4.3672117328
 10
0.0862602278
 20
3.9887787303
 10
0.3215378587
 20
3.615808848
 10
0.5668142482
 20
3.2483771508
 10
0.8220907227
 20
2.8864136688
 10
1.0873300652
 20
2.530622595
 10
1.3623369814
 20
2.1809744952
 10
1.6470305608
 20
1.8374574201
 10
1.9415111229
 20
1.5007903274
 10
2.2449823722
 20
1.1713532298
 10
2.5578278857
 20
0.8487297673
 10
2.8818420054
 20
0.5324422507
 10
3.2174150306
 20
0.2216415196
 10
3.5634988155
 20
-0.0828665157
 10
3.9196361699
 20
-0.379075533
 10
4.2858354223
 20
-0.6671235692
 10
4.6612069868
 20
-0.9468996163
 10
5.0439001758
 20
-1.2160092166
 10
5.4329547199
 20
-1.4736513079
 10
5.8282783866
 20
-1.7206275417
 10
6.2292843082
 20
-1.9569376175
  0
LWPOLYLINE
  5
288
100
AcDbEntity
  8
ASSI
100
AcDbPolyline
 62
250
  6
CONTINUOUS
 90
10
 70
0
 10
-7.8658357648
 20
10.7046114155
 10
-8.0284370846
 20
12.0542336832
 10
-8.2016449441
 20
13.4140708956
 10
-8.3852452533
 20
14.782863082
 10
-8.579017694
 20
16.159403884
 10
-8.7826844601
 20
17.5421765452
 10
-8.9959250131
 20
18.9294440059
 10
-9.2186381496
 20
20.3204660819
 10
-9.4508651367
 20
21.7151718177
 10
-9.6926231525
 20
23.1133743821
  0
LINE
  5
289
100
AcDbEntity
  8
ASSI
100
AcDbLine
 62
250
  6
CONTINUOUS
 10
6.4038145005
 20
-2.0462067606
 11
6.4492880459
 21
-2.6394691488
  0
LINE
  5
28A
100
AcDbEntity
  8
ASSI
100
AcDbLine
 62
250
  6
CONTINUOUS
 10
6.543885232
 20
-3.9336389909
 11
6.5816146671
 21
-4.4276206243
  0
LWPOLYLINE
  5
28B
100
AcDbEntity
  8
ASSI
100
AcDbPolyline
 62
250
  6
CONTINUOUS
 90
4
 70
0
 10
6.4492880459
 20
-2.6394691488
 10
6.4961861497
 20
-3.2685307055
 10
6.5199755231
 20
-3.5965623759
 10
6.543885232
 20
-3.9336389909
  0
LINE
  5
28C
100
AcDbEntity
  8
ASSI
100
AcDbLine
 62
250
  6
CONTINUOUS
 10
6.5816146671
 20
-4.4276206243
 11
6.6182942543
 21
-4.9207203938
  0
LWPOLYLINE
  5
28D
100
AcDbEntity
  8
ASSI
100
AcDbPolyline
 62
250
  6
CONTINUOUS
 90
22
 70
0
 10
6.6182942543
 20
-4.9207203938
 10
6.7086436229
 20
-6.1733726816
 10
6.7811653574
 20
-7.2761865522
 10
6.8462129775
 20
-8.3519912218
 10
6.9057773887
 20
-9.399642607
 10
6.9603891203
 20
-10.4197691577
 10
7.0089425828
 20
-11.4147732654
 10
7.0523074802
 20
-12.3876397115
 10
7.0913880796
 20
-13.3350459156
 10
7.12503599
 20
-14.2499622402
 10
7.1539741696
 20
-15.1287797801
 10
7.1793668557
 20
-15.97488755
 10
7.200676174
 20
-16.7917752858
 10
7.218282358
 20
-17.5749795049
 10
7.2332336229
 20
-18.3288571177
 10
7.2454857313
 20
-19.0701351214
 10
7.255002455
 20
-19.7966953747
 10
7.262399219
 20
-20.51058341
 10
7.2678210638
 20
-21.2347358114
 10
7.2710142916
 20
-21.976739889
 10
7.2718028544
 20
-22.7288673842
 10
7.2700138096
 20
-23.4910444898
  0
LINE
  5
28E
100
AcDbEntity
  8
0
100
AcDbLine
 62
7
  6
CONTINUOUS
 10
7.6250070424
 20
-23.4910444901
 11
7.6250070424
 21
-35.6360182451
  0
LINE
  5
28F
100
AcDbEntity
  8
0
100
AcDbLine
 62
7
  6
CONTINUOUS
 10
-41.1225526016
 20
-23.4910444901
 11
-40.7675588908
 21
-23.4910444901
  0
LINE
  5
290
100
AcDbEntity
  8
0
100
AcDbLine
 62
7
  6
CONTINUOUS
 10
-38.2487727796
 20
-23.4910444901
 11
-26.5004245196
 21
-23.4910444901
  0
LINE
  5
291
100
AcDbEntity
  8
ASSI
100
AcDbLine
 62
7
  6
CONTINUOUS
 10
7.7512272115
 20
-23.4910444901
 11
7.5957963886
 21
-23.4910444901
  0
LINE
  5
292
100
AcDbEntity
  8
0
100
AcDbLine
 62
7
  6
CONTINUOUS
 10
-6.9971210396
 20
-23.4910444901
 11
4.7512272204
 21
-23.4910444901
  0
LINE
  5
293
100
AcDbEntity
  8
0
100
AcDbLine
 62
7
  6
CONTINUOUS
 10
7.2700132561
 20
-23.4910444901
 11
7.6250070424
 21
-23.4910444901
  0
LINE
  5
294
100
AcDbEntity
  8
ASSI
100
AcDbLine
 62
7
  6
CONTINUOUS
 10
7.4041808361
 20
-23.4910444901
 11
-40.9017262261
 21
-23.4910444901
  0
LINE
  5
295
100
AcDbEntity
  8
ASSI
100
AcDbLine
 62
7
  6
CONTINUOUS
 10
-41.1717773815
 20
-23.4910444901
 11
-41.248772772
 21
-23.4910444901
  0
LWPOLYLINE
  5
296
100
AcDbEntity
  8
ASSI
100
AcDbPolyline
 62
250
  6
CONTINUOUS
 90
6
 70
0
 10
-34.3682490626
 20
22.8349898857
 10
-34.4671682682
 20
22.9788834507
 10
-34.5026376754
 20
23.0299917091
 10
-34.5284104636
 20
23.0664194046
 10
-34.5440727232
 20
23.0885555181
 10
-34.5491760051
 20
23.0963803467
  0
LINE
  5
297
100
AcDbEntity
  8
ASSI
100
AcDbLine
 62
250
  6
CONTINUOUS
 10
-34.3060191009
 20
22.7432061236
 11
-34.3682490626
 21
22.8349898857
  0
LWPOLYLINE
  5
298
100
AcDbEntity
  8
ASSI
100
AcDbPolyline
 62
250
  6
CONTINUOUS
 90
7
 70
0
 10
6.543885232
 20
-3.9336389909
 10
6.493827772
 20
-3.6033572205
 10
6.4428216634
 20
-3.2734178098
 10
6.3908655844
 20
-2.9438134513
 10
6.3379582133
 20
-2.6145368377
 10
6.2840982285
 20
-2.285580662
 10
6.2292843082
 20
-1.9569376175
  0
LINE
  5
299
100
AcDbEntity
  8
ASSI
100
AcDbLine
 62
7
  6
CONTINUOUS
 10
7.6944485675
 20
-16.4910444901
 11
7.6444252883
 21
-16.4910444901
  0
LINE
  5
29A
100
AcDbEntity
  8
ASSI
100
AcDbLine
 62
7
  6
CONTINUOUS
 10
-41.1777421114
 20
-16.0386335863
 11
-41.1277157234
 21
-16.0386335863
  0
LINE
  5
29B
100
AcDbEntity
  8
ASSI
100
AcDbLine
 62
7
  6
CONTINUOUS
 10
-41.1773268681
 20
-16.0258636962
 11
-41.1273003895
 21
-16.0258636962
  0
LINE
  5
29C
100
AcDbEntity
  8
ASSI
100
AcDbLine
 62
7
  6
CONTINUOUS
 10
7.6615307477
 20
-15.4847241195
 11
7.6115002875
 21
-15.4847241195
  0
LINE
  5
29D
100
AcDbEntity
  8
ASSI
100
AcDbLine
 62
7
  6
CONTINUOUS
 10
-41.150980497
 20
-15.2560693756
 11
-41.1009482705
 21
-15.2560693756
  0
LINE
  5
29E
100
AcDbEntity
  8
ASSI
100
AcDbLine
 62
7
  6
CONTINUOUS
 10
7.6240287561
 20
-14.4742437374
 11
7.5739901125
 21
-14.4742437374
  0
LINE
  5
29F
100
AcDbEntity
  8
ASSI
100
AcDbLine
 62
7
  6
CONTINUOUS
 10
7.6207798107
 20
-14.3919896049
 11
7.570740458
 21
-14.3919896049
  0
LINE
  5
2A0
100
AcDbEntity
  8
ASSI
100
AcDbLine
 62
7
  6
CONTINUOUS
 10
-41.0971524805
 20
-13.8731930396
 11
-41.0471085063
 21
-13.8731930396
  0
LINE
  5
2A1
100
AcDbEntity
  8
ASSI
100
AcDbLine
 62
7
  6
CONTINUOUS
 10
-41.0638191547
 20
-13.1089199179
 11
-41.0137679029
 21
-13.1089199179
  0
LINE
  5
2A2
100
AcDbEntity
  8
ASSI
100
AcDbLine
 62
7
  6
CONTINUOUS
 10
7.5564988065
 20
-12.8952693906
 11
7.5064454202
 21
-12.8952693906
  0
LINE
  5
2A3
100
AcDbEntity
  8
ASSI
100
AcDbLine
 62
7
  6
CONTINUOUS
 10
-40.9970161041
 20
-11.7260431324
 11
-40.946950261
 21
-11.7260431324
  0
LINE
  5
2A4
100
AcDbEntity
  8
ASSI
100
AcDbLine
 62
7
  6
CONTINUOUS
 10
7.4638798393
 20
-11.0520475581
 11
7.4138062189
 21
-11.0520475581
  0
LINE
  5
2A5
100
AcDbEntity
  8
ASSI
100
AcDbLine
 62
7
  6
CONTINUOUS
 10
-40.9562053638
 20
-10.9562492613
 11
-40.9061306025
 21
-10.9562492613
  0
LINE
  5
2A6
100
AcDbEntity
  8
ASSI
100
AcDbLine
 62
7
  6
CONTINUOUS
 10
-40.9054315863
 20
-10.9434793712
 11
-40.9555065004
 21
-10.9434793712
  0
LINE
  5
2A7
100
AcDbEntity
  8
ASSI
100
AcDbLine
 62
7
  6
CONTINUOUS
 10
7.3789930897
 20
-9.5760459508
 11
7.32890091
 21
-9.5760459508
  0
LINE
  5
2A8
100
AcDbEntity
  8
ASSI
100
AcDbLine
 62
7
  6
CONTINUOUS
 10
7.3690614614
 20
-9.4134979659
 11
7.3189671094
 21
-9.4134979659
  0
LINE
  5
2A9
100
AcDbEntity
  8
ASSI
100
AcDbLine
 62
7
  6
CONTINUOUS
 10
7.3678838629
 20
-9.394349324
 11
7.3177892533
 21
-9.394349324
  0
LWPOLYLINE
  5
2AA
100
AcDbEntity
  8
ASSI
100
AcDbPolyline
 62
250
  6
CONTINUOUS
 90
13
 70
0
 10
6.9221397357
 20
-4.003077416
 10
6.9186477103
 20
-3.9939972047
 10
6.9097734173
 20
-3.9854148579
 10
6.8955538309
 20
-3.9773661335
 10
6.8760481964
 20
-3.9698845662
 10
6.8513377831
 20
-3.9630013277
 10
6.8215255458
 20
-3.9567450964
 10
6.7867356957
 20
-3.9511419389
 10
6.7471131831
 20
-3.9462152003
 10
6.7028230933
 20
-3.9419854077
 10
6.654049959
 20
-3.9384701843
 10
6.600996991
 20
-3.9356841761
 10
6.543885232
 20
-3.9336389909
  0
LWPOLYLINE
  5
2AB
100
AcDbEntity
  8
ASSI
100
AcDbPolyline
 62
250
  6
CONTINUOUS
 90
16
 70
0
 10
-1.7303647788
 20
10.7660104332
 10
-1.7343532481
 20
10.7773230209
 10
-1.743458053
 20
10.787962947
 10
-1.7576429813
 20
10.7978878908
 10
-1.7768516157
 20
10.8070583771
 10
-1.8010075587
 20
10.8154379315
 10
-1.830014736
 20
10.8229932247
 10
-1.8637577792
 20
10.8296942127
 10
-1.9021024837
 20
10.8355142435
 10
-1.944896342
 20
10.8404301615
 10
-1.9919691437
 20
10.8444224215
 10
-2.0431336763
 20
10.8474751498
 10
-2.0981864759
 20
10.8495761924
 10
-2.1569086008
 20
10.8507171922
 10
-2.2190664954
 20
10.8508936235
 10
-2.2844129475
 20
10.8501047918
  0
LINE
  5
2AC
100
AcDbEntity
  8
ASSI
100
AcDbLine
 62
250
  6
CONTINUOUS
 10
-14.7362763261
 20
-5.4613082342
 11
-16.7487727796
 21
-5.5117570513
  0
LINE
  5
2AD
100
AcDbEntity
  8
ASSI
100
AcDbLine
 62
250
  6
CONTINUOUS
 10
-12.7595529381
 20
-5.4136342124
 11
-14.7362763261
 21
-5.4613082342
  0
LINE
  5
2AE
100
AcDbEntity
  8
ASSI
100
AcDbLine
 62
250
  6
CONTINUOUS
 10
-10.2108532441
 20
-5.3545503556
 11
-12.7595529381
 21
-5.4136342124
  0
LINE
  5
2AF
100
AcDbEntity
  8
ASSI
100
AcDbLine
 62
250
  6
CONTINUOUS
 10
-6.6119748225
 20
-5.275306936
 11
-10.2108532441
 21
-5.3545503556
  0
LWPOLYLINE
  5
2B0
100
AcDbEntity
  8
ASSI
100
AcDbPolyline
 62
250
  6
CONTINUOUS
 90
7
 70
0
 10
-0.7250264701
 20
-5.159177604
 10
-1.6494975388
 20
-5.1761817872
 10
-2.5948248946
 20
-5.1940630214
 10
-3.5637472273
 20
-5.212892727
 10
-4.5570213595
 20
-5.2327091982
 10
-5.5732265715
 20
-5.2535084661
 10
-6.6119748225
 20
-5.275306936
  0
LWPOLYLINE
  5
2B1
100
AcDbEntity
  8
ASSI
100
AcDbPolyline
 62
250
  6
CONTINUOUS
 90
9
 70
0
 10
6.6273029603
 20
-5.0438581636
 10
5.9020627646
 20
-5.0533662988
 10
5.1527856742
 20
-5.0636916793
 10
4.3797738604
 20
-5.0748411071
 10
3.5828849178
 20
-5.0868283468
 10
2.7628663112
 20
-5.099654197
 10
1.9214707457
 20
-5.11330199
 10
1.0602130156
 20
-5.1277561067
 10
-0.7250264701
 20
-5.159177604
  0
LWPOLYLINE
  5
2B2
100
AcDbEntity
  8
ASSI
100
AcDbPolyline
 62
250
  6
CONTINUOUS
 90
7
 70
0
 10
-40.1248485195
 20
-5.0438581636
 10
-39.3996083278
 20
-5.0533662988
 10
-38.6503312404
 20
-5.0636916792
 10
-37.8773194285
 20
-5.074841107
 10
-37.0804304863
 20
-5.0868283466
 10
-36.2604118786
 20
-5.0996541968
 10
-35.4190163121
 20
-5.1133019898
  0
LWPOLYLINE
  5
2B3
100
AcDbEntity
  8
ASSI
100
AcDbPolyline
 62
250
  6
CONTINUOUS
 90
7
 70
0
 10
-35.4190163121
 20
-5.1133019898
 10
-33.6760453973
 20
-5.143035794
 10
-32.7725190943
 20
-5.1591776039
 10
-31.8480480248
 20
-5.1761817871
 10
-30.9027206683
 20
-5.1940630213
 10
-29.9337983347
 20
-5.2128927269
 10
-28.9405242016
 20
-5.2327091982
  0
LINE
  5
2B4
100
AcDbEntity
  8
ASSI
100
AcDbLine
 62
250
  6
CONTINUOUS
 10
-28.9405242016
 20
-5.2327091982
 11
-27.9243189886
 21
-5.253508466
  0
LINE
  5
2B5
100
AcDbEntity
  8
ASSI
100
AcDbLine
 62
250
  6
CONTINUOUS
 10
-27.9243189886
 20
-5.253508466
 11
-26.1061405338
 21
-5.2920001984
  0
LINE
  5
2B6
100
AcDbEntity
  8
ASSI
100
AcDbLine
 62
250
  6
CONTINUOUS
 10
-26.1061405338
 20
-5.2920001984
 11
-23.9041368234
 21
-5.3405958254
  0
LINE
  5
2B7
100
AcDbEntity
  8
ASSI
100
AcDbLine
 62
250
  6
CONTINUOUS
 10
-23.9041368234
 20
-5.3405958254
 11
-22.0271049394
 21
-5.3834383908
  0
LINE
  5
2B8
100
AcDbEntity
  8
ASSI
100
AcDbLine
 62
250
  6
CONTINUOUS
 10
-22.0271049394
 20
-5.3834383908
 11
-20.7379926211
 21
-5.4136342124
  0
LINE
  5
2B9
100
AcDbEntity
  8
ASSI
100
AcDbLine
 62
250
  6
CONTINUOUS
 10
-20.7379926211
 20
-5.4136342124
 11
-19.4249859521
 21
-5.4451050824
  0
LINE
  5
2BA
100
AcDbEntity
  8
ASSI
100
AcDbLine
 62
250
  6
CONTINUOUS
 10
-19.4249859521
 20
-5.4451050824
 11
-18.0937880458
 21
-5.4778145251
  0
LINE
  5
2BB
100
AcDbEntity
  8
ASSI
100
AcDbLine
 62
250
  6
CONTINUOUS
 10
-18.0937880458
 20
-5.4778145251
 11
-16.7487727796
 21
-5.5117570513
  0
LWPOLYLINE
  5
2BC
100
AcDbEntity
  8
ASSI
100
AcDbPolyline
 62
250
  6
CONTINUOUS
 90
13
 70
0
 10
7.0135749781
 20
-5.1072341356
 10
7.0101094021
 20
-5.0987810955
 10
7.0011221555
 20
-5.0908091914
 10
6.9866516371
 20
-5.0833524838
 10
6.9667596731
 20
-5.0764428321
 10
6.9415312532
 20
-5.0701097581
 10
6.9110741674
 20
-5.0643803204
 10
6.8755185456
 20
-5.0592789982
 10
6.8350163016
 20
-5.0548275874
 10
6.7897404837
 20
-5.0510451068
 10
6.7398845359
 20
-5.0479477174
 10
6.6856614709
 20
-5.0455486529
 10
6.6273029603
 20
-5.0438581636
  0
LWPOLYLINE
  5
2BD
100
AcDbEntity
  8
ASSI
100
AcDbPolyline
 62
250
  6
CONTINUOUS
 90
7
 70
0
 10
-0.2459149814
 20
21.0119083804
 10
-0.4182871733
 20
21.4367143258
 10
-0.5924559508
 20
21.8608516793
 10
-0.7684193776
 20
22.2843143205
 10
-0.9461754679
 20
22.7070961106
 10
-1.1257221866
 20
23.1291908923
 10
-1.3070574491
 20
23.5505924899
  0
LWPOLYLINE
  5
2BE
100
AcDbEntity
  8
ASSI
100
AcDbPolyline
 62
250
  6
CONTINUOUS
 90
13
 70
0
 10
6.4038525141
 20
-2.0462373546
 10
6.4567764198
 20
-2.0489400633
 10
6.505910116
 20
-2.05279516
 10
6.5510633066
 20
-2.0575999108
 10
6.5920278008
 20
-2.062938132
 10
6.6286613086
 20
-2.0687909499
 10
6.6608669862
 20
-2.0755449897
 10
6.6884715442
 20
-2.0829618599
 10
6.7113572416
 20
-2.09080146
 10
6.729498067
 20
-2.0994572043
 10
6.7428122194
 20
-2.1089020405
 10
6.7511944859
 20
-2.1186732902
 10
6.7546029876
 20
-2.1285165369
  0
LINE
  5
2BF
100
AcDbEntity
  8
ASSI
100
AcDbLine
 62
250
  6
CONTINUOUS
 10
6.3169724751
 20
-2.0020627767
 11
6.4038145005
 21
-2.0462067606
  0
LINE
  5
2C0
100
AcDbEntity
  8
ASSI
100
AcDbLine
 62
250
  6
CONTINUOUS
 10
6.2292843082
 20
-1.9569376175
 11
6.3169724751
 21
-2.0020627767
  0
LWPOLYLINE
  5
2C1
100
AcDbEntity
  8
ASSI
100
AcDbPolyline
 62
250
  6
CONTINUOUS
 90
16
 70
0
 10
6.1133288282
 20
-1.1255010908
 10
6.1614502915
 20
-1.1571234104
 10
6.206154595
 20
-1.1940694359
 10
6.2472238797
 20
-1.2361591177
 10
6.2844580005
 20
-1.2831873391
 10
6.3176755041
 20
-1.3349249181
 10
6.3467145144
 20
-1.3911197238
 10
6.3714335162
 20
-1.4514979032
 10
6.3917120453
 20
-1.5157652154
 10
6.4074512787
 20
-1.5836084675
 10
6.4185745157
 20
-1.6546970407
 10
6.4250275491
 20
-1.7286844997
 10
6.4267789294
 20
-1.8052102813
 10
6.4238201219
 20
-1.8839014537
 10
6.4161655485
 20
-1.9643745338
 10
6.4038525141
 20
-2.0462373546
  0
LWPOLYLINE
  5
2C2
100
AcDbEntity
  8
ASSI
100
AcDbPolyline
 62
250
  6
CONTINUOUS
 90
16
 70
0
 10
5.9682077027
 20
-1.0401605189
 10
6.0146274643
 20
-1.0714999559
 10
6.0575567244
 20
-1.1081676042
 10
6.0967848169
 20
-1.1499835252
 10
6.1321192384
 20
-1.1967425165
 10
6.163386593
 20
-1.2482151185
 10
6.1904334427
 20
-1.3041487406
 10
6.2131270609
 20
-1.3642689009
 10
6.2313560837
 20
-1.4282805727
 10
6.2450310559
 20
-1.4958696327
 10
6.2540848707
 20
-1.5667044025
 10
6.2584730981
 20
-1.6404372756
 10
6.2581742039
 20
-1.7167064233
 10
6.2531896551
 20
-1.7951375708
 10
6.2435439122
 20
-1.8753458347
 10
6.2292843097
 20
-1.9569376101
  0
LWPOLYLINE
  5
2C3
100
AcDbEntity
  8
0
100
AcDbPolyline
 62
7
  6
CONTINUOUS
 90
10
 70
0
 43
0.3500000006
 10
13.861967205
 20
-4.2767588539
 10
14.5048240585
 20
-4.9196157074
 10
15.3619665298
 20
-5.3481869431
 10
16.433395752
 20
-5.3481869431
 10
16.8619669876
 20
-4.9196157074
 10
16.8619669876
 20
-4.2767588539
 10
16.433395752
 20
-3.8481876183
 10
15.5762521477
 20
-3.8481876183
 10
15.147680912
 20
-4.2767588539
 10
15.147680912
 20
-5.2053302422
  0
LINE
  5
2C4
100
AcDbEntity
  8
ASSI
100
AcDbLine
 62
7
  6
CONTINUOUS
 10
0.9435357388
 20
23.3081376382
 11
0.7258802548
 21
23.7308927245
  0
LINE
  5
2C5
100
AcDbEntity
  8
ASSI
100
AcDbLine
 62
7
  6
CONTINUOUS
 10
1.0516304507
 20
23.0963803374
 11
0.9435357388
 21
23.3081376382
  0
LWPOLYLINE
  5
2C6
100
AcDbEntity
  8
ASSI
100
AcDbPolyline
 62
250
  6
CONTINUOUS
 90
3
 70
0
 10
-15.1829918174
 20
10.4796716237
 10
-15.9632835843
 20
10.4533657438
 10
-16.7487727796
 20
10.4263601914
  0
LINE
  5
2C7
100
AcDbEntity
  8
ASSI
100
AcDbLine
 62
250
  6
CONTINUOUS
 10
-13.6411808512
 20
10.5302129198
 11
-15.1829918174
 21
10.4796716237
  0
LINE
  5
2C8
100
AcDbEntity
  8
ASSI
100
AcDbLine
 62
250
  6
CONTINUOUS
 10
-12.1312357491
 20
10.5779876027
 11
-13.6411808512
 21
10.5302129198
  0
LINE
  5
2C9
100
AcDbEntity
  8
ASSI
100
AcDbLine
 62
250
  6
CONTINUOUS
 10
-10.6636407773
 20
10.6229190838
 11
-12.1312357491
 21
10.5779876027
  0
LINE
  5
2CA
100
AcDbEntity
  8
ASSI
100
AcDbLine
 62
250
  6
CONTINUOUS
 10
-9.0099752234
 20
10.6718649861
 11
-10.6636407773
 21
10.6229190838
  0
LINE
  5
2CB
100
AcDbEntity
  8
ASSI
100
AcDbLine
 62
250
  6
CONTINUOUS
 10
-7.8658357648
 20
10.7046114155
 11
-9.0099752234
 21
10.6718649861
  0
LINE
  5
2CC
100
AcDbEntity
  8
ASSI
100
AcDbLine
 62
250
  6
CONTINUOUS
 10
-6.5292959847
 20
10.7416598577
 11
-7.8658357648
 21
10.7046114155
  0
LINE
  5
2CD
100
AcDbEntity
  8
ASSI
100
AcDbLine
 62
250
  6
CONTINUOUS
 10
-5.2529532371
 20
10.775781556
 11
-6.5292959847
 21
10.7416598577
  0
LINE
  5
2CE
100
AcDbEntity
  8
ASSI
100
AcDbLine
 62
250
  6
CONTINUOUS
 10
-4.0336184299
 20
10.8072014756
 11
-5.2529532371
 21
10.775781556
  0
LWPOLYLINE
  5
2CF
100
AcDbEntity
  8
ASSI
100
AcDbPolyline
 62
250
  6
CONTINUOUS
 90
3
 70
0
 10
-2.2844240988
 20
10.8501750559
 10
-2.8557376043
 20
10.8364200401
 10
-4.0336184299
 20
10.8072014756
  0
LINE
  5
2D0
100
AcDbEntity
  8
ASSI
100
AcDbLine
 62
7
  6
CONTINUOUS
 10
-32.7472310526
 20
7.0215523979
 11
-32.6937252758
 21
7.0215523979
  0
LINE
  5
2D1
100
AcDbEntity
  8
ASSI
100
AcDbLine
 62
250
  6
CONTINUOUS
 10
-32.3779979722
 20
8.1039650886
 11
-32.3257814522
 21
8.1039650886
  0
LINE
  5
2D2
100
AcDbEntity
  8
ASSI
100
AcDbLine
 62
7
  6
CONTINUOUS
 10
-32.1630846255
 20
8.8884892565
 11
-32.1115903578
 21
8.8884892565
  0
LINE
  5
2D3
100
AcDbEntity
  8
ASSI
100
AcDbLine
 62
7
  6
CONTINUOUS
 10
-32.1572731093
 20
8.9121228872
 11
-32.1057980953
 21
8.9121228872
  0
LINE
  5
2D4
100
AcDbEntity
  8
ASSI
100
AcDbLine
 62
250
  6
CONTINUOUS
 10
-31.7980396415
 20
10.9322284667
 11
-31.7477274991
 21
10.9322284667
  0
LINE
  5
2D5
100
AcDbEntity
  8
ASSI
100
AcDbLine
 62
7
  6
CONTINUOUS
 10
-31.7331418446
 20
11.0680131158
 11
-31.7834077331
 21
11.0680131158
  0
LINE
  5
2D6
100
AcDbEntity
  8
ASSI
100
AcDbLine
 62
7
  6
CONTINUOUS
 10
-1.7188192858
 20
11.1139245099
 11
-1.7690703933
 21
11.1139245099
  0
LINE
  5
2D7
100
AcDbEntity
  8
ASSI
100
AcDbLine
 62
250
  6
CONTINUOUS
 10
-31.2131213061
 20
10.8501750522
 11
-30.0586180793
 21
10.8220956759
  0
LINE
  5
2D8
100
AcDbEntity
  8
ASSI
100
AcDbLine
 62
250
  6
CONTINUOUS
 10
-30.0586180793
 20
10.8220956759
 11
-28.8596087142
 21
10.7917755396
  0
LINE
  5
2D9
100
AcDbEntity
  8
ASSI
100
AcDbLine
 62
250
  6
CONTINUOUS
 10
-28.8596087142
 20
10.7917755396
 11
-27.6146091867
 21
10.759094938
  0
LINE
  5
2DA
100
AcDbEntity
  8
ASSI
100
AcDbLine
 62
250
  6
CONTINUOUS
 10
-27.6146091867
 20
10.759094938
 11
-26.3072173114
 21
10.7235031099
  0
LINE
  5
2DB
100
AcDbEntity
  8
ASSI
100
AcDbLine
 62
250
  6
CONTINUOUS
 10
-26.3072173114
 20
10.7235031099
 11
-24.9488549164
 21
10.6851785428
  0
LINE
  5
2DC
100
AcDbEntity
  8
ASSI
100
AcDbLine
 62
250
  6
CONTINUOUS
 10
-24.9488549164
 20
10.6851785428
 11
-23.7863255575
 21
10.6513368464
  0
LINE
  5
2DD
100
AcDbEntity
  8
ASSI
100
AcDbLine
 62
250
  6
CONTINUOUS
 10
-23.7863255575
 20
10.6513368464
 11
-22.833904782
 21
10.6229190838
  0
LINE
  5
2DE
100
AcDbEntity
  8
ASSI
100
AcDbLine
 62
250
  6
CONTINUOUS
 10
-22.833904782
 20
10.6229190838
 11
-21.3663098101
 21
10.5779876027
  0
LINE
  5
2DF
100
AcDbEntity
  8
ASSI
100
AcDbLine
 62
250
  6
CONTINUOUS
 10
-21.3663098101
 20
10.5779876027
 11
-19.856364708
 21
10.5302129198
  0
LWPOLYLINE
  5
2E0
100
AcDbEntity
  8
ASSI
100
AcDbPolyline
 62
250
  6
CONTINUOUS
 90
4
 70
0
 10
-19.856364708
 20
10.5302129198
 10
-18.3145537418
 20
10.4796716237
 10
-17.5342619749
 20
10.4533657438
 10
-16.7487727796
 20
10.4263601914
  0
LWPOLYLINE
  5
2E1
100
AcDbEntity
  8
ASSI
100
AcDbPolyline
 62
250
  6
CONTINUOUS
 90
22
 70
0
 10
-12.0534902561
 20
25.3952207327
 10
-12.0052195668
 20
25.355939961
 10
-11.9576912545
 20
25.3080553737
 10
-11.9110467392
 20
25.2517094512
 10
-11.8654248116
 20
25.1870698502
 10
-11.8209612194
 20
25.1143289057
 10
-11.7777882636
 20
25.0337030577
 10
-11.7360344051
 20
24.9454322079
 10
-11.6958238823
 20
24.8497790057
 10
-11.6572763414
 20
24.7470280667
 10
-11.6205064802
 20
24.6374851254
 10
-11.5856237072
 20
24.5214761263
 10
-11.552731816
 20
24.3993462534
 10
-11.5219286761
 20
24.2714589033
 10
-11.4933059421
 20
24.1381946039
 10
-11.4669487807
 20
23.9999498825
 10
-11.4429356175
 20
23.8571360851
 10
-11.4213379036
 20
23.7101781534
 10
-11.4022199027
 20
23.5595133598
 10
-11.3856385003
 20
23.4055900063
 10
-11.3716430344
 20
23.2488660909
 10
-11.3602751482
 20
23.0898079446
  0
LWPOLYLINE
  5
2E2
100
AcDbEntity
  8
0
100
AcDbPolyline
 62
7
  6
CONTINUOUS
 90
10
 70
0
 43
0.3500000006
 10
13.861967205
 20
-1.9196159248
 10
14.5048240585
 20
-2.5624727783
 10
15.3619665298
 20
-2.991044014
 10
16.433395752
 20
-2.991044014
 10
16.8619669876
 20
-2.5624727783
 10
16.8619669876
 20
-1.9196159248
 10
16.433395752
 20
-1.4910446892
 10
15.5762521477
 20
-1.4910446892
 10
15.147680912
 20
-1.9196159248
 10
15.147680912
 20
-2.8481873131
  0
LINE
  5
2E3
100
AcDbEntity
  8
ASSI
100
AcDbLine
 62
7
  6
CONTINUOUS
 10
-1.7987527442
 20
12.6836745099
 11
-1.8487528068
 21
12.6836745099
  0
LINE
  5
2E4
100
AcDbEntity
  8
ASSI
100
AcDbLine
 62
7
  6
CONTINUOUS
 10
-1.7960792296
 20
13.0020715099
 11
-1.8460876484
 21
13.0020715099
  0
LINE
  5
2E5
100
AcDbEntity
  8
ASSI
100
AcDbLine
 62
7
  6
CONTINUOUS
 10
-1.8281591119
 20
13.5208744971
 11
-1.7780944085
 21
13.5208744971
  0
LINE
  5
2E6
100
AcDbEntity
  8
ASSI
100
AcDbLine
 62
7
  6
CONTINUOUS
 10
-0.9420476967
 20
18.0186685227
 11
-0.8890336723
 21
18.0186685227
  0
LWPOLYLINE
  5
2E7
100
AcDbEntity
  8
ASSI
100
AcDbPolyline
 62
250
  6
CONTINUOUS
 90
22
 70
0
 10
-10.587416861
 20
25.3903035653
 10
-10.5253600723
 20
25.3513535538
 10
-10.4642568571
 20
25.3039481587
 10
-10.4042858835
 20
25.2482259952
 10
-10.345622509
 20
25.1843499972
 10
-10.2884382678
 20
25.1125069405
 10
-10.2329003687
 20
25.0329068971
 10
-10.1791712069
 20
24.9457826206
 10
-10.1274078885
 20
24.8513888659
 10
-10.0777617716
 20
24.7500016441
 10
-10.0303780233
 20
24.6419174152
 10
-9.9853951956
 20
24.527452222
 10
-9.9429448202
 20
24.406940765
 10
-9.9031510235
 20
24.2807354247
 10
-9.8661301643
 20
24.1492052303
 10
-9.831990493
 20
24.0127347813
 10
-9.8008318353
 20
23.8717231227
 10
-9.7727453006
 20
23.7265825781
 10
-9.7478130148
 20
23.5777375443
 10
-9.726107881
 20
23.4256232498
 10
-9.7076933658
 20
23.270684483
 10
-9.6926233142
 20
23.1133742909
  0
LWPOLYLINE
  5
2E8
100
AcDbEntity
  8
ASSI
100
AcDbPolyline
 62
250
  6
CONTINUOUS
 90
5
 70
0
 10
-1.3070574491
 20
23.5505924899
 10
-1.0583035245
 20
23.576037747
 10
-0.8232219019
 20
23.5992313201
 10
-0.6022818813
 20
23.6201784553
 10
-0.3954423591
 20
23.6387133143
  0
LINE
  5
2E9
100
AcDbEntity
  8
ASSI
100
AcDbLine
 62
250
  6
CONTINUOUS
 10
-0.3954423591
 20
23.6387133143
 11
-0.0293955441
 21
23.6695787392
  0
LINE
  5
2EA
100
AcDbEntity
  8
ASSI
100
AcDbLine
 62
250
  6
CONTINUOUS
 10
-0.0293955441
 20
23.6695787392
 11
0.2665769213
 21
23.6937347331
  0
LWPOLYLINE
  5
2EB
100
AcDbEntity
  8
ASSI
100
AcDbPolyline
 62
250
  6
CONTINUOUS
 90
3
 70
0
 10
0.2665769213
 20
23.6937347331
 10
0.7164082752
 20
23.7301941194
 10
0.7258802548
 20
23.7308927245
  0
LWPOLYLINE
  5
2EC
100
AcDbEntity
  8
ASSI
100
AcDbPolyline
 62
250
  6
CONTINUOUS
 90
21
 70
0
 10
-9.1835427846
 20
23.1237301443
 10
-8.6814030752
 20
23.1355120219
 10
-8.1867558151
 20
23.1487103211
 10
-7.6993630672
 20
23.1633948754
 10
-7.2206159037
 20
23.1794776881
 10
-6.7533684668
 20
23.1967175411
 10
-6.298885449
 20
23.215098279
 10
-5.8566803304
 20
23.2346319711
 10
-5.4268315725
 20
23.2551255039
 10
-5.0100582028
 20
23.2766000459
 10
-4.6064184905
 20
23.2990346579
 10
-4.2150383377
 20
23.3221741771
 10
-3.8358546108
 20
23.3460391871
 10
-3.4696989801
 20
23.3706109419
 10
-3.1170480381
 20
23.3955771506
 10
-2.7780951476
 20
23.4209368405
 10
-2.4533329511
 20
23.4466985858
 10
-2.143565038
 20
23.4725682939
 10
-1.8491837782
 20
23.4984530179
 10
-1.5702677327
 20
23.524458887
 10
-1.3070574491
 20
23.5505924899
  0
LINE
  5
2ED
100
AcDbEntity
  8
ASSI
100
AcDbLine
 62
250
  6
CONTINUOUS
 10
-9.8742001947
 20
23.1100843793
 11
-9.1835427846
 21
23.1237301443
  0
LINE
  5
2EE
100
AcDbEntity
  8
ASSI
100
AcDbLine
 62
250
  6
CONTINUOUS
 10
-31.0085005362
 20
25.2963756825
 11
-29.8779561215
 21
25.3173112072
  0
LINE
  5
2EF
100
AcDbEntity
  8
ASSI
100
AcDbLine
 62
250
  6
CONTINUOUS
 10
-29.8779561215
 20
25.3173112072
 11
-29.3312056255
 21
25.3266868698
  0
LINE
  5
2F0
100
AcDbEntity
  8
ASSI
100
AcDbLine
 62
250
  6
CONTINUOUS
 10
-32.2225217381
 20
25.2772724158
 11
-31.0085005362
 21
25.2963756825
  0
LINE
  5
2F1
100
AcDbEntity
  8
ASSI
100
AcDbLine
 62
250
  6
CONTINUOUS
 10
-29.3312056255
 20
25.3266868698
 11
-28.73389932
 21
25.3360351981
  0
LINE
  5
2F2
100
AcDbEntity
  8
ASSI
100
AcDbLine
 62
250
  6
CONTINUOUS
 10
-10.4246802339
 20
23.1012121567
 11
-9.8742001947
 21
23.1100843793
  0
LINE
  5
2F3
100
AcDbEntity
  8
ASSI
100
AcDbLine
 62
250
  6
CONTINUOUS
 10
-28.73389932
 20
25.3360351981
 11
-28.0907084597
 21
25.345105576
  0
LINE
  5
2F4
100
AcDbEntity
  8
ASSI
100
AcDbLine
 62
250
  6
CONTINUOUS
 10
-28.0907084597
 20
25.345105576
 11
-27.4047649064
 21
25.353837145
  0
LINE
  5
2F5
100
AcDbEntity
  8
ASSI
100
AcDbLine
 62
250
  6
CONTINUOUS
 10
-10.9833978293
 20
23.0938544117
 11
-10.4246802339
 21
23.1012121567
  0
LINE
  5
2F6
100
AcDbEntity
  8
ASSI
100
AcDbLine
 62
250
  6
CONTINUOUS
 10
-27.4047649064
 20
25.353837145
 11
-26.6774314955
 21
25.3621632844
  0
LINE
  5
2F7
100
AcDbEntity
  8
ASSI
100
AcDbLine
 62
250
  6
CONTINUOUS
 10
-11.3602751474
 20
23.0898079452
 11
-10.9833978293
 21
23.0938544117
  0
LINE
  5
2F8
100
AcDbEntity
  8
ASSI
100
AcDbLine
 62
250
  6
CONTINUOUS
 10
-26.6774314955
 20
25.3621632844
 11
-25.9052040817
 21
25.3699976604
  0
LINE
  5
2F9
100
AcDbEntity
  8
ASSI
100
AcDbLine
 62
250
  6
CONTINUOUS
 10
-25.9052040817
 20
25.3699976604
 11
-25.0902300535
 21
25.3770539182
  0
LINE
  5
2FA
100
AcDbEntity
  8
ASSI
100
AcDbLine
 62
250
  6
CONTINUOUS
 10
-25.0902300535
 20
25.3770539182
 11
-24.2369582882
 21
25.3831924478
  0
LINE
  5
2FB
100
AcDbEntity
  8
ASSI
100
AcDbLine
 62
250
  6
CONTINUOUS
 10
-24.2369582882
 20
25.3831924478
 11
-23.3585040356
 21
25.3882038274
  0
LINE
  5
2FC
100
AcDbEntity
  8
ASSI
100
AcDbLine
 62
250
  6
CONTINUOUS
 10
-23.3585040356
 20
25.3882038274
 11
-22.4286492929
 21
25.3922403654
  0
LINE
  5
2FD
100
AcDbEntity
  8
ASSI
100
AcDbLine
 62
250
  6
CONTINUOUS
 10
-22.4286492929
 20
25.3922403654
 11
-21.6100621149
 21
25.3948091086
  0
LINE
  5
2FE
100
AcDbEntity
  8
ASSI
100
AcDbLine
 62
250
  6
CONTINUOUS
 10
-21.6100621149
 20
25.3948091086
 11
-20.2595512103
 21
25.3975788909
  0
LINE
  5
2FF
100
AcDbEntity
  8
ASSI
100
AcDbLine
 62
250
  6
CONTINUOUS
 10
-20.2595512103
 20
25.3975788909
 11
-19.1205265359
 21
25.3988559736
  0
LINE
  5
300
100
AcDbEntity
  8
ASSI
100
AcDbLine
 62
250
  6
CONTINUOUS
 10
-16.7487727796
 20
25.3981021601
 11
-15.6256882193
 21
25.3990196944
  0
LINE
  5
301
100
AcDbEntity
  8
ASSI
100
AcDbLine
 62
250
  6
CONTINUOUS
 10
-22.9355154738
 20
26.7350210438
 11
-10.5620300854
 21
26.7350210438
  0
LINE
  5
302
100
AcDbEntity
  8
ASSI
100
AcDbLine
 62
250
  6
CONTINUOUS
 10
-22.7987727796
 20
26.8844340413
 11
-10.6987727796
 21
26.8844340413
  0
LINE
  5
303
100
AcDbEntity
  8
ASSI
100
AcDbLine
 62
250
  6
CONTINUOUS
 10
-19.1205265359
 20
25.3988559736
 11
-17.9717085521
 21
25.3990540588
  0
LINE
  5
304
100
AcDbEntity
  8
ASSI
100
AcDbLine
 62
250
  6
CONTINUOUS
 10
-15.6256882193
 20
25.3990196944
 11
-14.506956136
 21
25.3989338081
  0
LINE
  5
305
100
AcDbEntity
  8
ASSI
100
AcDbLine
 62
250
  6
CONTINUOUS
 10
-17.9717085521
 20
25.3990540588
 11
-16.7487727796
 21
25.3981021601
  0
LINE
  5
306
100
AcDbEntity
  8
ASSI
100
AcDbLine
 62
250
  6
CONTINUOUS
 10
-14.506956136
 20
25.3989338081
 11
-13.3424630557
 21
25.397739194
  0
LINE
  5
307
100
AcDbEntity
  8
ASSI
100
AcDbLine
 62
250
  6
CONTINUOUS
 10
-13.3424630557
 20
25.397739194
 11
-12.0534902559
 21
25.3952207361
  0
LINE
  5
308
100
AcDbEntity
  8
ASSI
100
AcDbLine
 62
250
  6
CONTINUOUS
 10
-12.0534902559
 20
25.3952207361
 11
-11.2310389386
 21
25.3928212416
  0
LINE
  5
309
100
AcDbEntity
  8
ASSI
100
AcDbLine
 62
250
  6
CONTINUOUS
 10
-11.2310389386
 20
25.3928212416
 11
-10.5874168565
 21
25.3903036155
  0
LWPOLYLINE
  5
30A
100
AcDbEntity
  8
ASSI
100
AcDbPolyline
 62
250
  6
CONTINUOUS
 90
13
 70
0
 10
-16.7487727799
 20
23.0759992993
 10
-16.3186595438
 20
23.0739965124
 10
-15.8887356446
 20
23.0725500305
 10
-15.4592716927
 20
23.0716545074
 10
-15.0330510954
 20
23.0712950482
 10
-14.6078175171
 20
23.0714773375
 10
-14.1763475121
 20
23.072222897
 10
-13.7405150094
 20
23.0734599838
 10
-13.299180057
 20
23.0752428679
 10
-12.8408951385
 20
23.0777688398
 10
-12.3624318786
 20
23.0810867015
 10
-11.8685829641
 20
23.0851066369
 10
-11.3602751474
 20
23.0898079452
  0
LINE
  5
30B
100
AcDbEntity
  8
ASSI
100
AcDbLine
 62
250
  6
CONTINUOUS
 10
-10.5874168565
 20
25.3903036155
 11
-9.6966384782
 21
25.3858336324
  0
LINE
  5
30C
100
AcDbEntity
  8
ASSI
100
AcDbLine
 62
250
  6
CONTINUOUS
 10
-9.6966384782
 20
25.3858336324
 11
-8.8303864531
 21
25.3802593791
  0
LWPOLYLINE
  5
30D
100
AcDbEntity
  8
ASSI
100
AcDbPolyline
 62
250
  6
CONTINUOUS
 90
12
 70
0
 10
-21.6786302916
 20
23.0854637001
 10
-21.224961892
 20
23.0816951683
 10
-20.7768218356
 20
23.0785132362
 10
-20.3375282288
 20
23.0759561962
 10
-19.9047819039
 20
23.0740084823
 10
-19.4705214705
 20
23.0725942843
 10
-19.0352722422
 20
23.0716647207
 10
-18.5991004084
 20
23.0712785182
 10
-18.1530365705
 20
23.0715111172
 10
-17.6942281958
 20
23.0723863761
 10
-17.2260350382
 20
23.0738818102
 10
-16.7487727787
 20
23.0759992993
  0
LINE
  5
30E
100
AcDbEntity
  8
ASSI
100
AcDbLine
 62
250
  6
CONTINUOUS
 10
-8.8303864531
 20
25.3802593791
 11
-7.9942944309
 21
25.3736361394
  0
LINE
  5
30F
100
AcDbEntity
  8
ASSI
100
AcDbLine
 62
250
  6
CONTINUOUS
 10
-7.9942944309
 20
25.3736361394
 11
-7.2008341943
 21
25.3661455094
  0
LINE
  5
310
100
AcDbEntity
  8
ASSI
100
AcDbLine
 62
250
  6
CONTINUOUS
 10
-7.2008341943
 20
25.3661455094
 11
-6.4508674854
 21
25.3580656897
  0
LINE
  5
311
100
AcDbEntity
  8
ASSI
100
AcDbLine
 62
250
  6
CONTINUOUS
 10
-22.5141477305
 20
23.0938544117
 11
-21.6786302916
 21
23.0854637001
  0
LINE
  5
312
100
AcDbEntity
  8
ASSI
100
AcDbLine
 62
250
  6
CONTINUOUS
 10
-6.4508674854
 20
25.3580656897
 11
-5.7448356612
 21
25.3495162401
  0
LINE
  5
313
100
AcDbEntity
  8
ASSI
100
AcDbLine
 62
250
  6
CONTINUOUS
 10
-5.7448356612
 20
25.3495162401
 11
-5.0795827915
 21
25.3406018816
  0
LINE
  5
314
100
AcDbEntity
  8
ASSI
100
AcDbLine
 62
250
  6
CONTINUOUS
 10
-23.0728653256
 20
23.1012121567
 11
-22.5141477305
 21
23.0938544117
  0
LINE
  5
315
100
AcDbEntity
  8
ASSI
100
AcDbLine
 62
250
  6
CONTINUOUS
 10
-5.0795827915
 20
25.3406018816
 11
-4.4590957943
 21
25.3313927774
  0
LINE
  5
316
100
AcDbEntity
  8
ASSI
100
AcDbLine
 62
250
  6
CONTINUOUS
 10
-1.2837510959
 20
25.2774189308
 11
-1.2750238211
 21
25.2772724158
  0
LINE
  5
317
100
AcDbEntity
  8
ASSI
100
AcDbLine
 62
250
  6
CONTINUOUS
 10
-4.4590957943
 20
25.3313927774
 11
-3.8863730662
 21
25.3219854126
  0
LINE
  5
318
100
AcDbEntity
  8
ASSI
100
AcDbLine
 62
250
  6
CONTINUOUS
 10
-23.6233453644
 20
23.1100843793
 11
-23.0728653256
 21
23.1012121567
  0
LINE
  5
319
100
AcDbEntity
  8
ASSI
100
AcDbLine
 62
250
  6
CONTINUOUS
 10
-2.6893570419
 20
25.2998943851
 11
-1.2837510959
 21
25.2774189308
  0
LWPOLYLINE
  5
31A
100
AcDbEntity
  8
ASSI
100
AcDbPolyline
 62
250
  6
CONTINUOUS
 90
3
 70
0
 10
-3.8863730662
 20
25.3219854126
 10
-3.3658448257
 20
25.3126416058
 10
-2.6893570419
 20
25.2998943851
  0
LINE
  5
31B
100
AcDbEntity
  8
ASSI
100
AcDbLine
 62
250
  6
CONTINUOUS
 10
-34.223425814
 20
23.7308927245
 11
-34.2139538339
 21
23.7301941191
  0
LINE
  5
31C
100
AcDbEntity
  8
ASSI
100
AcDbLine
 62
250
  6
CONTINUOUS
 10
-34.2139538339
 20
23.7301941191
 11
-33.6249050105
 21
23.6825161212
  0
LWPOLYLINE
  5
31D
100
AcDbEntity
  8
ASSI
100
AcDbPolyline
 62
250
  6
CONTINUOUS
 90
7
 70
0
 10
-33.6249050105
 20
23.6825161212
 10
-33.2937066516
 20
23.6550087216
 10
-33.1021031148
 20
23.6387133114
 10
-32.8952635799
 20
23.620178455
 10
-32.6743235699
 20
23.5992313207
 10
-32.4392419788
 20
23.5760377477
 10
-32.1904881101
 20
23.5505924899
  0
LWPOLYLINE
  5
31E
100
AcDbEntity
  8
ASSI
100
AcDbPolyline
 62
250
  6
CONTINUOUS
 90
22
 70
0
 10
-32.1904881101
 20
23.5505924899
 10
-31.9272778183
 20
23.5244588869
 10
-31.6483617662
 20
23.4984530174
 10
-31.3539805019
 20
23.4725682931
 10
-31.0442125876
 20
23.4466985844
 10
-30.7194503929
 20
23.4209368384
 10
-30.3804975037
 20
23.3955771481
 10
-30.0278465613
 20
23.3706109398
 10
-29.6616909296
 20
23.3460391858
 10
-29.2825072018
 20
23.3221741764
 10
-28.8911270484
 20
23.2990346573
 10
-28.4874873356
 20
23.2766000451
 10
-28.0707139656
 20
23.255125503
 10
-27.6408652077
 20
23.2346319699
 10
-27.1986600894
 20
23.2150982775
 10
-26.7441770712
 20
23.1967175397
 10
-26.2769296314
 20
23.1794776871
 10
-25.7981824643
 20
23.1633948751
 10
-25.3107897163
 20
23.1487103214
 10
-24.8161424615
 20
23.1355120222
 10
-24.3140027613
 20
23.1237301446
 10
-23.6233453644
 20
23.1100843793
  0
LWPOLYLINE
  5
31F
100
AcDbEntity
  8
ASSI
100
AcDbPolyline
 62
250
  6
CONTINUOUS
 90
19
 70
0
 10
-3.1252438794
 20
25.3079765689
 10
-2.9923329365
 20
25.2692788531
 10
-2.861416248
 20
25.2225448689
 10
-2.732858057
 20
25.167904642
 10
-2.6070160451
 20
25.1055101954
 10
-2.4842403366
 20
25.0355351262
 10
-2.3648725245
 20
24.9581741227
 10
-2.2492447203
 20
24.8736424229
 10
-2.1376786298
 20
24.7821752153
 10
-2.0304846581
 20
24.6840269849
 10
-1.9279610459
 20
24.5794708048
 10
-1.8303930399
 20
24.4687975769
 10
-1.738052099
 20
24.352315222
 10
-1.651195139
 20
24.2303478235
 10
-1.5700638179
 20
24.1032347256
 10
-1.4948838636
 20
23.9713295892
 10
-1.4258644458
 20
23.8349994076
 10
-1.3631975939
 20
23.694623486
 10
-1.307057663
 20
23.5505923857
  0
LINE
  5
320
100
AcDbEntity
  8
ASSI
100
AcDbLine
 62
250
  6
CONTINUOUS
 10
-16.7487727796
 20
27.6724778413
 11
-10.6987727796
 21
27.6724778413
  0
LINE
  5
321
100
AcDbEntity
  8
ASSI
100
AcDbLine
 62
250
  6
CONTINUOUS
 10
-22.7987727796
 20
27.7840195434
 11
-16.7487727796
 21
27.7840195434
  0
LINE
  5
322
100
AcDbEntity
  8
ASSI
100
AcDbLine
 62
250
  6
CONTINUOUS
 10
-16.7487727796
 20
28.4545483938
 11
-11.330351727
 21
28.4545483938
  0
LINE
  5
323
100
AcDbEntity
  8
ASSI
100
AcDbLine
 62
250
  6
CONTINUOUS
 10
-22.1671938322
 20
28.5660900959
 11
-16.7487727796
 21
28.5660900959
  0
LINE
  5
324
100
AcDbEntity
  8
ASSI
100
AcDbLine
 62
250
  6
CONTINUOUS
 10
-16.7487727796
 20
28.6011866224
 11
-11.4487727796
 21
28.6011866224
  0
LINE
  5
325
100
AcDbEntity
  8
ASSI
100
AcDbLine
 62
250
  6
CONTINUOUS
 10
-22.0487727796
 20
28.7127283245
 11
-16.7487727796
 21
28.7127283245
  0
LINE
  5
326
100
AcDbEntity
  8
ASSI
100
AcDbLine
 62
250
  6
CONTINUOUS
 10
-22.0487727796
 20
29.2089555099
 11
-11.4487727796
 21
29.2089555099
  0
LINE
  5
327
100
AcDbEntity
  8
ASSI
100
AcDbLine
 62
7
  6
CONTINUOUS
 10
-21.2487727796
 20
30.0089555099
 11
-12.2487727796
 21
30.0089555099
  0
LWPOLYLINE
  5
328
100
AcDbEntity
  8
0
100
AcDbPolyline
 62
7
  6
CONTINUOUS
 90
3
 70
0
 43
0.3500000006
 10
-17.60591605
 20
39.8495223999
 10
-19.1059153748
 20
39.8495223999
 10
-18.4630585213
 20
42.206665329
  0
LWPOLYLINE
  5
329
100
AcDbEntity
  8
ASSI
100
AcDbPolyline
 62
7
  6
CONTINUOUS
 90
12
 70
0
 10
76.7789764006
 20
24.6772617065
 10
76.8878429706
 20
24.7724373427
 10
77.0006705174
 20
24.8619636328
 10
77.1172821259
 20
24.9456753396
 10
77.2378546487
 20
25.0237376456
 10
77.3619531228
 20
25.0958710368
 10
77.48987856
 20
25.1621861628
 10
77.6213299483
 20
25.2225723738
 10
77.7549692892
 20
25.2764182068
 10
77.8903505829
 20
25.3235198405
 10
78.027919829
 20
25.3640810962
 10
78.1676770276
 20
25.3981019737
  0
LWPOLYLINE
  5
32A
100
AcDbEntity
  8
ASSI
100
AcDbPolyline
 62
250
  6
CONTINUOUS
 90
19
 70
0
 10
86.0525470967
 20
25.3079765689
 10
85.975882583
 20
25.2692788531
 10
85.9002715062
 20
25.2225448689
 10
85.8259242352
 20
25.167904642
 10
85.7530476231
 20
25.1055101954
 10
85.6818444311
 20
25.0355351262
 10
85.6125127644
 20
24.9581741227
 10
85.5452455214
 20
24.8736424229
 10
85.4802298565
 20
24.7821752153
 10
85.4176466597
 20
24.6840269849
 10
85.3576700535
 20
24.5794708048
 10
85.3004669079
 20
24.4687975768
 10
85.2461963765
 20
24.3523152219
 10
85.1950094537
 20
24.2303478235
 10
85.1470485545
 20
24.1032347256
 10
85.1024471183
 20
23.9713295892
 10
85.0613292375
 20
23.8349994076
 10
85.0238093125
 20
23.694623486
 10
84.9899917333
 20
23.5505923857
  0
LWPOLYLINE
  5
32B
100
AcDbEntity
  8
ASSI
100
AcDbPolyline
 62
7
  6
CONTINUOUS
 90
7
 70
0
 10
76.6750364521
 20
24.577211911
 10
76.5760896942
 20
24.4722214137
 10
76.4820693719
 20
24.3623565805
 10
76.3937400868
 20
24.2485909439
 10
76.3112651409
 20
24.131103201
 10
76.2344812323
 20
24.0097146548
 10
76.1636630567
 20
23.884862747
  0
LINE
  5
32C
100
AcDbEntity
  8
ASSI
100
AcDbLine
 62
7
  6
CONTINUOUS
 10
76.6750361419
 20
24.577211622
 11
76.7789763381
 21
24.6772616519
  0
LWPOLYLINE
  5
32D
100
AcDbEntity
  8
ASSI
100
AcDbPolyline
 62
250
  6
CONTINUOUS
 90
43
 70
0
 10
84.7537851051
 20
21.0119083913
 10
84.5102747017
 20
20.8555533949
 10
84.2743029656
 20
20.6965777929
 10
84.0457688651
 20
20.534976255
 10
83.8254204471
 20
20.3712848267
 10
83.6122922413
 20
20.2049609351
 10
83.4037569885
 20
20.034371845
 10
83.1983471672
 20
19.8583637042
 10
82.997426126
 20
19.6780585049
 10
82.8026293111
 20
19.4952375155
 10
82.6146106411
 20
19.3105341151
 10
82.4325278674
 20
19.1233129208
 10
82.2557548325
 20
18.9334615835
 10
82.0846940693
 20
18.7417169061
 10
81.9187834576
 20
18.547339651
 10
81.7559920142
 20
18.3479891216
 10
81.5961093871
 20
18.1438194273
 10
81.439258062
 20
17.9346464619
 10
81.2839559055
 20
17.7175972827
 10
81.129295201
 20
17.4915424621
 10
80.9761427216
 20
17.2575614991
 10
80.8256757161
 20
17.0160881452
 10
80.6773458143
 20
16.7658763857
 10
80.5316181217
 20
16.5081396215
 10
80.391131119
 20
16.2470307482
 10
80.2560798326
 20
15.9823327189
 10
80.1261151587
 20
15.7142877749
 10
80.0030046327
 20
15.4477840676
 10
79.8878238316
 20
15.1853201212
 10
79.779324641
 20
14.9244718583
 10
79.6757951305
 20
14.6627527235
 10
79.5775267015
 20
14.4021758685
 10
79.4841297668
 20
14.1407723015
 10
79.3929188549
 20
13.8700442647
 10
79.3029631879
 20
13.5886034384
 10
79.2151707935
 20
13.2978264058
 10
79.1296433372
 20
12.9933289958
 10
79.0459068118
 20
12.6743482846
 10
78.9644382124
 20
12.3416341336
 10
78.886769914
 20
11.9930651489
 10
78.8134248738
 20
11.6279376948
 10
78.743922473
 20
11.2469687832
 10
78.6783011851
 20
10.8501750369
  0
LWPOLYLINE
  5
32E
100
AcDbEntity
  8
ASSI
100
AcDbPolyline
 62
250
  6
CONTINUOUS
 90
43
 70
0
 10
85.3911655766
 20
19.950479194
 10
85.16641253
 20
19.8133186409
 10
84.948351964
 20
19.673587388
 10
84.7369838783
 20
19.5312713374
 10
84.5331695374
 20
19.3868215125
 10
84.3360476769
 20
19.2397653917
 10
84.1430345041
 20
19.0886856392
 10
83.9528092132
 20
18.9325437471
 10
83.76669261
 20
18.7723111069
 10
83.5860633183
 20
18.6095898329
 10
83.4116232082
 20
18.4449501995
 10
83.2426704097
 20
18.277820078
 10
83.078477936
 20
18.1081104187
 10
82.9194690444
 20
17.9364833652
 10
82.7652204777
 20
17.7622800413
 10
82.6137354777
 20
17.5834062905
 10
82.4648314197
 20
17.3999899147
 10
82.3186909284
 20
17.2118642196
 10
82.1738651199
 20
17.0164443717
 10
82.0295263021
 20
16.8126917507
 10
81.886502167
 20
16.6015613468
 10
81.7458269065
 20
16.3834415139
 10
81.6070540491
 20
16.1572086366
 10
81.4706300664
 20
15.9239431292
 10
81.3389285643
 20
15.6873882333
 10
81.2122260812
 20
15.4473780616
 10
81.0902460788
 20
15.2041425557
 10
80.9745325487
 20
14.9620925932
 10
80.8661676425
 20
14.723541962
 10
80.7640692086
 20
14.4863202246
 10
80.6665347841
 20
14.2481289744
 10
80.5738564902
 20
14.010849805
 10
80.4857422057
 20
13.7727073952
 10
80.3996131039
 20
13.5258804335
 10
80.3145788626
 20
13.2691873934
 10
80.2315298041
 20
13.003892617
 10
80.1505580679
 20
12.725829957
 10
80.0711965981
 20
12.4344558552
 10
79.9939124506
 20
12.1304941539
 10
79.9201989327
 20
11.8117142764
 10
79.8505538135
 20
11.4774994407
 10
79.7844793238
 20
11.1288468008
 10
79.7219754637
 20
10.7660104332
  0
LWPOLYLINE
  5
32F
100
AcDbEntity
  8
ASSI
100
AcDbPolyline
 62
7
  6
CONTINUOUS
 90
3
 70
0
 10
76.0397082832
 20
23.62416384
 10
76.0987025984
 20
23.7562447623
 10
76.1636626554
 20
23.8848623462
  0
LWPOLYLINE
  5
330
100
AcDbEntity
  8
ASSI
100
AcDbPolyline
 62
250
  6
CONTINUOUS
 90
16
 70
0
 10
84.1876569322
 20
-1.1255010908
 10
84.1175127417
 20
-1.1571234082
 10
84.0477103757
 20
-1.1940694316
 10
83.9785899994
 20
-1.2361591115
 10
83.9104884535
 20
-1.2831873314
 10
83.8437376159
 20
-1.3349249092
 10
83.7786627847
 20
-1.3911197141
 10
83.7155810884
 20
-1.451497893
 10
83.654799941
 20
-1.5157652051
 10
83.5966155467
 20
-1.5836084575
 10
83.5413114558
 20
-1.6546970314
 10
83.4891571807
 20
-1.7286844914
 10
83.4404068823
 20
-1.8052102745
 10
83.3952981353
 20
-1.8839014488
 10
83.3540507701
 20
-1.9643745313
 10
83.3168657989
 20
-2.0462373546
  0
LWPOLYLINE
  5
331
100
AcDbEntity
  8
ASSI
100
AcDbPolyline
 62
250
  6
CONTINUOUS
 90
16
 70
0
 10
84.0422211019
 20
-1.0401605189
 10
83.9704133493
 20
-1.0714999559
 10
83.8989579773
 20
-1.1081676042
 10
83.8282056377
 20
-1.1499835252
 10
83.7585035322
 20
-1.1967425165
 10
83.6901937087
 20
-1.2482151185
 10
83.623611383
 20
-1.3041487406
 10
83.5590832933
 20
-1.3642689009
 10
83.4969260973
 20
-1.4282805727
 10
83.437444818
 20
-1.4958696327
 10
83.3809313466
 20
-1.5667044025
 10
83.3276630111
 20
-1.6404372757
 10
83.2779012149
 20
-1.7167064233
 10
83.2318901532
 20
-1.7951375707
 10
83.1898556151
 20
-1.8753458342
 10
83.152003876
 20
-1.9569376093
  0
LWPOLYLINE
  5
332
100
AcDbEntity
  8
ASSI
100
AcDbPolyline
 62
7
  6
CONTINUOUS
 90
5
 70
0
 10
76.0397086391
 20
23.6241640514
 10
75.9872776243
 20
23.4899642962
 10
75.941609135
 20
23.3540940258
 10
75.9025039733
 20
23.2161050288
 10
75.869962139
 20
23.0759973051
  0
LWPOLYLINE
  5
333
100
AcDbEntity
  8
ASSI
100
AcDbPolyline
 62
250
  6
CONTINUOUS
 90
16
 70
0
 10
100.8055105747
 20
19.950479194
 10
100.8559447483
 20
20.0144246983
 10
100.9061554954
 20
20.0806934617
 10
100.9559203785
 20
20.1489919082
 10
101.0050189353
 20
20.2190174708
 10
101.0532336554
 20
20.2904599308
 10
101.1003509434
 20
20.363002792
 10
101.1461620661
 20
20.436324684
 10
101.1904640765
 20
20.510100785
 10
101.233060713
 20
20.5840042608
 10
101.2737632688
 20
20.6577077126
 10
101.3123914288
 20
20.7308846289
 10
101.3487740676
 20
20.8032108314
 10
101.3827500075
 20
20.8743659097
 10
101.4141687319
 20
20.9440346406
 10
101.4428910533
 20
21.0119083861
  0
LWPOLYLINE
  5
334
100
AcDbEntity
  8
ASSI
100
AcDbPolyline
 62
250
  6
CONTINUOUS
 90
8
 70
0
 10
103.044672279
 20
-1.9569376175
 10
103.4017188529
 20
-1.7210785261
 10
103.7388989621
 20
-1.4782582238
 10
104.056625601
 20
-1.2284609265
 10
104.353908327
 20
-0.9722476674
 10
104.6325795427
 20
-0.7090207812
 10
104.8971309895
 20
-0.4370388863
 10
105.1490557482
 20
-0.1554614807
  0
LWPOLYLINE
  5
335
100
AcDbEntity
  8
ASSI
100
AcDbPolyline
 62
250
  6
CONTINUOUS
 90
37
 70
0
 10
102.1544550494
 20
-1.0401605189
 10
102.4985097347
 20
-0.819970281
 10
102.8241995257
 20
-0.5927944825
 10
103.1315244225
 20
-0.3590694919
 10
103.4188400356
 20
-0.1200760356
 10
103.6877907545
 20
0.1245568787
 10
103.9433097476
 20
0.3771374243
 10
104.1867226204
 20
0.6384803803
 10
104.4167037673
 20
0.9074984333
 10
104.6342095405
 20
1.1838849263
 10
104.8392442893
 20
1.4673618203
 10
105.0318036643
 20
1.7578218501
 10
105.212830969
 20
2.0552073011
 10
105.3824051563
 20
2.3593456173
 10
105.5404472733
 20
2.6700243252
 10
105.6876637647
 20
2.9871347782
 10
105.8241247468
 20
3.3105531817
 10
105.9497601033
 20
3.6400061114
 10
106.0650659303
 20
3.9751527244
 10
106.17006581
 20
4.3157974759
 10
106.2647361602
 20
4.661700119
 10
106.3495023309
 20
5.012431748
 10
106.4243888194
 20
5.3679017616
 10
106.4893711284
 20
5.7277338205
 10
106.5448011162
 20
6.0910339672
 10
106.5906718146
 20
6.456303432
 10
106.6269901917
 20
6.8244928749
 10
106.6541290104
 20
7.1984535677
 10
106.672341878
 20
7.5792085514
 10
106.6813751872
 20
7.965398024
 10
106.6808408791
 20
8.356366686
 10
106.6706554626
 20
8.7525748516
 10
106.650902429
 20
9.1531321406
 10
106.6214441931
 20
9.5552867891
 10
106.5822348935
 20
9.9579169352
 10
106.5333203916
 20
10.3615825212
 10
106.4747006876
 20
10.7660104332
  0
LWPOLYLINE
  5
336
100
AcDbEntity
  8
ASSI
100
AcDbPolyline
 62
250
  6
CONTINUOUS
 90
7
 70
0
 10
102.0087162876
 20
-1.1255010908
 10
102.0327200448
 20
-1.1119013558
 10
102.0568382166
 20
-1.0980545462
 10
102.081070803
 20
-1.0839588775
 10
102.1054178039
 20
-1.0696125415
 10
102.1298792194
 20
-1.0550137068
 10
102.1544550494
 20
-1.0401605189
  0
LWPOLYLINE
  5
337
100
AcDbEntity
  8
ASSI
100
AcDbPolyline
 62
250
  6
CONTINUOUS
 90
7
 70
0
 10
102.8798743437
 20
-2.0459925374
 10
102.9068965656
 20
-2.0318715981
 10
102.9340995486
 20
-2.0174619202
 10
102.9614809774
 20
-2.0027635924
 10
102.9890385029
 20
-1.9877767049
 10
103.0167697424
 20
-1.972501349
 10
103.044672279
 20
-1.9569376175
  0
LWPOLYLINE
  5
338
100
AcDbEntity
  8
ASSI
100
AcDbPolyline
 62
7
  6
CONTINUOUS
 90
10
 70
0
 10
73.6154146476
 20
10.4263601914
 10
73.3587049674
 20
8.6620304956
 10
73.1157369293
 20
6.8959814914
 10
72.8865105331
 20
5.1282131787
 10
72.6710142044
 20
3.3586238862
 10
72.4692595178
 20
1.5873152854
 10
72.2812811964
 20
-0.1854076102
 10
72.1070908147
 20
-1.9594431292
 10
71.9466767983
 20
-3.7348929429
 10
71.8000391471
 20
-5.5117570513
  0
LINE
  5
339
100
AcDbEntity
  8
ASSI
100
AcDbLine
 62
7
  6
CONTINUOUS
 10
73.8309120477
 20
11.8379987591
 11
73.6154146476
 21
10.4263601914
  0
LINE
  5
33A
100
AcDbEntity
  8
ASSI
100
AcDbLine
 62
7
  6
CONTINUOUS
 10
74.0551689864
 20
13.2481481018
 11
73.8309120477
 21
11.8379987591
  0
LINE
  5
33B
100
AcDbEntity
  8
ASSI
100
AcDbLine
 62
7
  6
CONTINUOUS
 10
74.2881854637
 20
14.6568082196
 11
74.0551689864
 21
13.2481481018
  0
LWPOLYLINE
  5
33C
100
AcDbEntity
  8
ASSI
100
AcDbPolyline
 62
7
  6
CONTINUOUS
 90
4
 70
0
 10
75.0397921269
 20
18.8738532236
 10
74.7805172132
 20
17.4697716686
 10
74.529971563
 20
16.0640345198
 10
74.2881854637
 20
14.6568082196
  0
LINE
  5
33D
100
AcDbEntity
  8
ASSI
100
AcDbLine
 62
7
  6
CONTINUOUS
 10
75.307786226
 20
20.2762236977
 11
75.0397921269
 21
18.8738532236
  0
LWPOLYLINE
  5
33E
100
AcDbEntity
  8
ASSI
100
AcDbPolyline
 62
7
  6
CONTINUOUS
 90
3
 70
0
 10
75.307786226
 20
20.2762236977
 10
75.5845095543
 20
21.6769383426
 10
75.869962139
 20
23.0759973051
  0
LINE
  5
33F
100
AcDbEntity
  8
ASSI
100
AcDbLine
 62
7
  6
CONTINUOUS
 10
71.2030985668
 20
-35.4954077579
 11
71.0983380757
 21
-23.4910444901
  0
LINE
  5
340
100
AcDbEntity
  8
ASSI
100
AcDbLine
 62
7
  6
CONTINUOUS
 10
71.0943285935
 20
-23.4910444901
 11
71.1030811654
 21
-21.4910453833
  0
LWPOLYLINE
  5
341
100
AcDbEntity
  8
ASSI
100
AcDbPolyline
 62
250
  6
CONTINUOUS
 90
10
 70
0
 10
72.4958793932
 20
-23.4910444901
 10
72.5201337418
 20
-21.4457866809
 10
72.5578827388
 20
-19.4055648884
 10
72.6091257619
 20
-17.3711312536
 10
72.6738603894
 20
-15.3431913963
 10
72.7520796546
 20
-13.3224948876
 10
72.843770025
 20
-11.3098354165
 10
72.9489160719
 20
-9.3059303233
 10
73.0675025559
 20
-7.3114207425
 10
73.1995102445
 20
-5.3269620858
  0
LWPOLYLINE
  5
342
100
AcDbEntity
  8
ASSI
100
AcDbPolyline
 62
250
  6
CONTINUOUS
 90
10
 70
0
 10
74.1126781904
 20
-5.275306936
 10
74.233461266
 20
-3.4695605775
 10
74.3647463396
 20
-1.6741016697
 10
74.5065127649
 20
0.1123462275
 10
74.6586619695
 20
1.8901710781
 10
74.8212382105
 20
3.6614582277
 10
74.994445853
 20
5.4290463714
 10
75.1783291975
 20
7.1930610667
 10
75.3727546278
 20
8.9518438115
 10
75.5776715375
 20
10.7046114155
  0
LWPOLYLINE
  5
343
100
AcDbEntity
  8
ASSI
100
AcDbPolyline
 62
250
  6
CONTINUOUS
 90
10
 70
0
 10
73.1995102445
 20
-5.3269620858
 10
73.3316042922
 20
-3.5276229999
 10
73.4750339062
 20
-1.7366016468
 10
73.6297805464
 20
0.0471274762
 10
73.7957657234
 20
1.8239639381
 10
73.9730210474
 20
3.595501986
 10
74.1616991661
 20
5.3637601617
 10
74.3618271862
 20
7.1287313931
 10
74.5732953703
 20
8.8891438039
 10
74.7960578499
 20
10.6443437388
  0
LWPOLYLINE
  5
344
100
AcDbEntity
  8
ASSI
100
AcDbPolyline
 62
7
  6
CONTINUOUS
 90
9
 70
0
 10
71.8000391471
 20
-5.5117570513
 10
71.6520010499
 20
-7.5062910641
 10
71.5213651688
 20
-9.501724236
 10
71.4081315037
 20
-11.4980565668
 10
71.312294405
 20
-13.4954320715
 10
71.2338595224
 20
-15.4937067351
 10
71.172843805
 20
-17.4924485132
 10
71.1292529026
 20
-19.491513391
 10
71.1030811654
 20
-21.4910453833
  0
LWPOLYLINE
  5
345
100
AcDbEntity
  8
ASSI
100
AcDbPolyline
 62
250
  6
CONTINUOUS
 90
10
 70
0
 10
75.5776715375
 20
10.7046114155
 10
75.7430740382
 20
12.0542336832
 10
75.9163018704
 20
13.4140708956
 10
76.0974539083
 20
14.782863082
 10
76.2866432855
 20
16.1594038841
 10
76.483947816
 20
17.5421765452
 10
76.6893999006
 20
18.9294440059
 10
76.9030168111
 20
20.320466082
 10
77.1248227706
 20
21.7151718177
 10
77.3548175803
 20
23.1133743821
  0
LWPOLYLINE
  5
346
100
AcDbEntity
  8
ASSI
100
AcDbPolyline
 62
250
  6
CONTINUOUS
 90
10
 70
0
 10
74.7960578499
 20
10.6443437388
 10
74.9767855989
 20
12.0036886651
 10
75.1657131233
 20
13.3711771533
 10
75.3629298207
 20
14.7457686098
 10
75.5685142155
 20
16.1263173525
 10
75.7825606719
 20
17.511752717
 10
76.0051785489
 20
18.9011483379
 10
76.2364237519
 20
20.2940790757
 10
76.4763101914
 20
21.6903447799
 10
76.7248563965
 20
23.0898079452
  0
LWPOLYLINE
  5
347
100
AcDbEntity
  8
ASSI
100
AcDbPolyline
 62
250
  6
CONTINUOUS
 90
37
 70
0
 10
78.6783017519
 20
10.8501750559
 10
78.6195354659
 20
10.4278375439
 10
78.5699573242
 20
10.0081924198
 10
78.5296008076
 20
9.59127371
 10
78.4986566232
 20
9.1777525626
 10
78.477042017
 20
8.7670182545
 10
78.4644051449
 20
8.3571717472
 10
78.4606982728
 20
7.9471592185
 10
78.46616859
 20
7.5380647133
 10
78.4809231041
 20
7.1311904099
 10
78.5050882669
 20
6.7265985452
 10
78.5387932024
 20
6.3242536042
 10
78.5821520528
 20
5.9253142676
 10
78.6353114859
 20
5.5298117251
 10
78.6984295124
 20
5.1377346705
 10
78.7716372398
 20
4.7501802192
 10
78.8550812302
 20
4.3672117328
 10
78.9489562534
 20
3.9887787303
 10
79.0534651478
 20
3.6158088479
 10
79.168736629
 20
3.2483771508
 10
79.2950166712
 20
2.8864136688
 10
79.4326900382
 20
2.530622595
 10
79.5819067854
 20
2.1809744952
 10
79.7429307845
 20
1.8374574201
 10
79.9163336929
 20
1.5007903274
 10
80.1019277273
 20
1.1713532298
 10
80.3003529612
 20
0.8487297673
 10
80.5134921872
 20
0.5324422507
 10
80.742093892
 20
0.2216415196
 10
80.9860311173
 20
-0.0828665158
 10
81.2459383346
 20
-0.379075533
 10
81.5225041385
 20
-0.6671235692
 10
81.8156946905
 20
-0.9468996163
 10
82.1250296875
 20
-1.2160092166
 10
82.4505286986
 20
-1.4736513079
 10
82.792754032
 20
-1.7206275417
 10
83.1520038724
 20
-1.9569376175
  0
LWPOLYLINE
  5
348
100
AcDbEntity
  8
ASSI
100
AcDbPolyline
 62
250
  6
CONTINUOUS
 90
37
 70
0
 10
79.7219754637
 20
10.7660104332
 10
79.6658909
 20
10.3795372282
 10
79.6186393064
 20
9.9949978058
 10
79.5802206827
 20
9.6126135212
 10
79.5506832497
 20
9.233396349
 10
79.5299787868
 20
8.8567592243
 10
79.5179626315
 20
8.4805610087
 10
79.5144688348
 20
8.1041300109
 10
79.5196633459
 20
7.7286708617
 10
79.5338993494
 20
7.3548948071
 10
79.5571594425
 20
6.983106949
 10
79.5894610282
 20
6.6135272956
 10
79.6312094998
 20
6.2467244899
 10
79.6823859349
 20
5.8829723672
 10
79.7430092558
 20
5.5225172481
 10
79.8135416227
 20
5.1658700475
 10
79.893951203
 20
4.8133294187
 10
79.9842698292
 20
4.4651002046
 10
80.0850551594
 20
4.1215381837
 10
80.1962392391
 20
3.7829655805
 10
80.3178900228
 20
3.4495481148
 10
80.450769032
 20
3.1214067813
 10
80.5948043562
 20
2.7988004781
 10
80.750067906
 20
2.481965503
 10
80.9175369338
 20
2.1710027553
 10
81.0967606165
 20
1.8666045762
 10
81.2881897772
 20
1.5685635588
 10
81.4941541387
 20
1.2757429726
 10
81.7150300292
 20
0.9877922803
 10
81.9504411204
 20
0.7058257515
 10
82.2015881502
 20
0.4309484406
 10
82.4688382317
 20
0.163195618
 10
82.7518242517
 20
-0.0968449079
 10
83.0506456088
 20
-0.3474612931
 10
83.365335436
 20
-0.588061597
 10
83.6958606003
 20
-0.8190023581
 10
84.0422211019
 20
-1.0401605189
  0
LINE
  5
349
100
AcDbEntity
  8
ASSI
100
AcDbLine
 62
7
  6
CONTINUOUS
 10
86.8892900757
 20
8.2680765099
 11
87.6749580757
 21
11.0210645099
  0
LINE
  5
34A
100
AcDbEntity
  8
ASSI
100
AcDbLine
 62
7
  6
CONTINUOUS
 10
88.5092430757
 20
11.0210645099
 11
87.2236400757
 21
7.0215525099
  0
LINE
  5
34B
100
AcDbEntity
  8
ASSI
100
AcDbLine
 62
250
  6
CONTINUOUS
 10
72.4998888694
 20
-23.4910444901
 11
72.5979753992
 21
-35.4954077581
  0
LINE
  5
34C
100
AcDbEntity
  8
ASSI
100
AcDbLine
 62
7
  6
CONTINUOUS
 10
73.3193889864
 20
-23.4910444901
 11
73.4153851855
 21
-35.4954077579
  0
LWPOLYLINE
  5
34D
100
AcDbEntity
  8
ASSI
100
AcDbPolyline
 62
250
  6
CONTINUOUS
 90
10
 70
0
 10
73.4750371504
 20
-23.4910444901
 10
73.4967198351
 20
-21.4426038033
 10
73.5305780183
 20
-19.3981807801
 10
73.5766687284
 20
-17.3586705972
 10
73.6350486637
 20
-15.3248495932
 10
73.7057659053
 20
-13.2976766037
 10
73.7888537035
 20
-11.2782932206
 10
73.8843444074
 20
-9.2676216025
 10
73.9922757502
 20
-7.2663645531
 10
74.1126781904
 20
-5.275306936
  0
LWPOLYLINE
  5
34E
100
AcDbEntity
  8
ASSI
100
AcDbPolyline
 62
250
  6
CONTINUOUS
 90
7
 70
0
 10
83.3168260842
 20
-2.0462058369
 10
83.2737710371
 20
-2.3380291978
 10
83.2305593153
 20
-2.6389121371
 10
83.1872039907
 20
-2.948883266
 10
83.1437186704
 20
-3.2679729666
 10
83.100117497
 20
-3.5962134789
 10
83.0564151486
 20
-3.9336389909
  0
LINE
  5
34F
100
AcDbEntity
  8
ASSI
100
AcDbLine
 62
7
  6
CONTINUOUS
 10
92.1246790757
 20
8.8005225099
 11
92.9595340757
 21
11.0210645099
  0
LINE
  5
350
100
AcDbEntity
  8
ASSI
100
AcDbLine
 62
7
  6
CONTINUOUS
 10
92.1786640757
 20
7.0215525099
 11
93.1713070757
 21
9.6222715099
  0
LWPOLYLINE
  5
351
100
AcDbEntity
  8
ASSI
100
AcDbPolyline
 62
250
  6
CONTINUOUS
 90
30
 70
0
 10
105.1490557482
 20
-0.1554614807
 10
105.3873161013
 20
0.1348796895
 10
105.612450807
 20
0.4332072764
 10
105.8246751446
 20
0.7394535226
 10
106.0242269081
 20
1.0537081718
 10
106.2116589182
 20
1.3754338345
 10
106.3872434847
 20
1.7046677529
 10
106.5511182282
 20
2.0414024023
 10
106.7036187575
 20
2.3850364929
 10
106.8450008958
 20
2.7356717598
 10
106.9753880985
 20
3.0932436511
 10
107.0949159297
 20
3.4568959197
 10
107.2037867225
 20
3.8266565543
 10
107.3021593896
 20
4.2024921479
 10
107.3901105683
 20
4.5834441814
 10
107.467832257
 20
4.9696855787
 10
107.5354690596
 20
5.3610294506
 10
107.5930362629
 20
5.7559799226
 10
107.640662903
 20
6.1531403089
 10
107.6785387327
 20
6.5538905184
 10
107.706754413
 20
6.9608934631
 10
107.7256625033
 20
7.3753668828
 10
107.7351287751
 20
7.7960444743
 10
107.7345025923
 20
8.2218552702
 10
107.7237909787
 20
8.6535577032
 10
107.7031787129
 20
9.0903321229
 10
107.6723012872
 20
9.5287487571
 10
107.6310945074
 20
9.967649534
 10
107.5797705381
 20
10.40813633
 10
107.5183745091
 20
10.8501750522
  0
LINE
  5
352
100
AcDbEntity
  8
0
100
AcDbLine
 62
7
  6
CONTINUOUS
 10
82.3126462546
 20
-23.4910444901
 11
82.4484640756
 21
-35.4954077579
  0
LINE
  5
353
100
AcDbEntity
  8
0
100
AcDbLine
 62
7
  6
CONTINUOUS
 10
83.0983380757
 20
-23.4910444901
 11
83.0983380757
 21
-23.9191115374
  0
LINE
  5
354
100
AcDbEntity
  8
ASSI
100
AcDbLine
 62
250
  6
CONTINUOUS
 10
83.0564151486
 20
-3.9336389909
 11
83.0876358554
 21
-3.2734178055
  0
LINE
  5
355
100
AcDbEntity
  8
ASSI
100
AcDbLine
 62
250
  6
CONTINUOUS
 10
83.0876358554
 20
-3.2734178055
 11
83.1194980617
 21
-2.6145368334
  0
LWPOLYLINE
  5
356
100
AcDbEntity
  8
0
100
AcDbPolyline
 62
7
  6
CONTINUOUS
 90
5
 70
0
 10
83.5983380757
 20
-23.5595263496
 10
83.5993871949
 20
-23.5382691921
 10
83.6018532212
 20
-23.5178914061
 10
83.6057361546
 20
-23.4983929916
 10
83.6078383291
 20
-23.4910444901
  0
LINE
  5
357
100
AcDbEntity
  8
ASSI
100
AcDbLine
 62
250
  6
CONTINUOUS
 10
83.1194980617
 20
-2.6145368334
 11
83.1520038724
 21
-1.9569376175
  0
LINE
  5
358
100
AcDbEntity
  8
ASSI
100
AcDbLine
 62
250
  6
CONTINUOUS
 10
84.7537851042
 20
21.0119083804
 11
84.8314491951
 21
21.8608516794
  0
LINE
  5
359
100
AcDbEntity
  8
ASSI
100
AcDbLine
 62
250
  6
CONTINUOUS
 10
84.8314491951
 20
21.8608516794
 11
84.9101968146
 21
22.7070961106
  0
LINE
  5
35A
100
AcDbEntity
  8
ASSI
100
AcDbLine
 62
250
  6
CONTINUOUS
 10
84.9101968146
 20
22.7070961106
 11
84.9899916118
 21
23.5505924899
  0
LWPOLYLINE
  5
35B
100
AcDbEntity
  8
ASSI
100
AcDbPolyline
 62
250
  6
CONTINUOUS
 90
22
 70
0
 10
83.8416689943
 20
-5.1072341356
 10
83.7325724025
 20
-6.2352654359
 10
83.6334233168
 20
-7.3363019559
 10
83.5442217371
 20
-8.410289303
 10
83.4658403228
 20
-9.4563685031
 10
83.3974064146
 20
-10.4753022959
 10
83.3363020345
 20
-11.4694770378
 10
83.2821644745
 20
-12.4422589904
 10
83.2353564427
 20
-13.3902133104
 10
83.1943480858
 20
-14.3055269467
 10
83.1591876535
 20
-15.1844467854
 10
83.129826896
 20
-16.0306662825
 10
83.104591211
 20
-16.8475444536
 10
83.0833510582
 20
-17.6308966542
 10
83.0662359779
 20
-18.3848692486
 10
83.0519599879
 20
-19.1253265572
 10
83.0402584512
 20
-19.851050358
 10
83.0313960049
 20
-20.5632387816
 10
83.0248805782
 20
-21.28138838
 10
83.0205481476
 20
-22.0119946513
 10
83.0185627366
 20
-22.748549126
 10
83.0189243452
 20
-23.4910444901
  0
LWPOLYLINE
  5
35C
100
AcDbEntity
  8
ASSI
100
AcDbPolyline
 62
250
  6
CONTINUOUS
 90
22
 70
0
 10
82.9280751194
 20
-5.0438581636
 10
82.8094757758
 20
-6.1772702203
 10
82.7018404943
 20
-7.2837606477
 10
82.6050035511
 20
-8.3630177166
 10
82.5195932809
 20
-9.4137461194
 10
82.4446471417
 20
-10.4367204355
 10
82.3776373252
 20
-11.4347876162
 10
82.3180393996
 20
-12.4112530277
 10
82.2661168128
 20
-13.3624721382
 10
82.2205267479
 20
-14.2808965053
 10
82.1811841374
 20
-15.162728653
 10
82.1478768856
 20
-16.0115444604
 10
82.1190746741
 20
-16.8308779653
 10
82.0945914692
 20
-17.6165251386
 10
82.0743871337
 20
-18.3725832482
 10
82.057221357
 20
-19.1150454379
 10
82.0428359685
 20
-19.8426531339
 10
82.031383687
 20
-20.556593741
 10
82.0223377012
 20
-21.276498292
 10
82.0155417083
 20
-22.0088597643
 10
82.0111560442
 20
-22.7470624815
 10
82.0091755827
 20
-23.49104449
  0
LINE
  5
35D
100
AcDbEntity
  8
ASSI
100
AcDbLine
 62
250
  6
CONTINUOUS
 10
83.8930191741
 20
-4.6169976173
 11
83.8416689943
 21
-5.1072341356
  0
LINE
  5
35E
100
AcDbEntity
  8
ASSI
100
AcDbLine
 62
250
  6
CONTINUOUS
 10
83.9464343569
 20
-4.1259612579
 11
83.8930191741
 21
-4.6169976173
  0
LINE
  5
35F
100
AcDbEntity
  8
ASSI
100
AcDbLine
 62
250
  6
CONTINUOUS
 10
82.9837251547
 20
-4.5509784825
 11
82.9280751194
 21
-5.0438581636
  0
LWPOLYLINE
  5
360
100
AcDbEntity
  8
ASSI
100
AcDbPolyline
 62
250
  6
CONTINUOUS
 90
3
 70
0
 10
83.0564151486
 20
-3.9336389909
 10
83.0415946321
 20
-4.0572175537
 10
82.9837251547
 20
-4.5509784825
  0
LWPOLYLINE
  5
361
100
AcDbEntity
  8
ASSI
100
AcDbPolyline
 62
250
  6
CONTINUOUS
 90
7
 70
0
 10
84.1876077329
 20
-2.1285165369
 10
84.1499306642
 20
-2.4181896142
 10
84.1121583384
 20
-2.7169605279
 10
84.0742907555
 20
-3.0248320219
 10
84.0363279156
 20
-3.3418068427
 10
83.9982698186
 20
-3.6678877313
 10
83.9464343569
 20
-4.1259612579
  0
LINE
  5
362
100
AcDbEntity
  8
ASSI
100
AcDbLine
 62
7
  6
CONTINUOUS
 10
95.5175750757
 20
8.4378305099
 11
95.9332630757
 21
9.9221005099
  0
LINE
  5
363
100
AcDbEntity
  8
ASSI
100
AcDbLine
 62
7
  6
CONTINUOUS
 10
95.1164330757
 20
7.0215525099
 11
95.3468010757
 21
7.8199975099
  0
LINE
  5
364
100
AcDbEntity
  8
ASSI
100
AcDbLine
 62
7
  6
CONTINUOUS
 10
94.2906350757
 20
7.0215525099
 11
95.5451370757
 21
11.0210645099
  0
LWPOLYLINE
  5
365
100
AcDbEntity
  8
0
100
AcDbPolyline
 62
7
  6
CONTINUOUS
 90
16
 70
0
 10
84.0983380757
 20
-23.7944081465
 10
84.0992439305
 20
-23.8091719841
 10
84.1012721695
 20
-23.8232084408
 10
84.1044227928
 20
-23.8365175164
 10
84.1088192954
 20
-23.8492040789
 10
84.1143381822
 20
-23.8611632605
 10
84.1206089681
 20
-23.8720804575
 10
84.1276277869
 20
-23.881894961
 10
84.1353985047
 20
-23.89066748
 10
84.1435622342
 20
-23.8982655384
 10
84.1520638651
 20
-23.9046380783
 10
84.1609585076
 20
-23.9098361576
 10
84.1700526056
 20
-23.9138804734
 10
84.1792816402
 20
-23.9167779249
 10
84.1887101302
 20
-23.9185216128
 10
84.1983380757
 20
-23.9191115374
  0
LINE
  5
366
100
AcDbEntity
  8
0
100
AcDbLine
 62
7
  6
CONTINUOUS
 10
83.5983380757
 20
-23.7944081465
 11
83.5983380757
 21
-23.5595263496
  0
LINE
  5
367
100
AcDbEntity
  8
0
100
AcDbLine
 62
7
  6
CONTINUOUS
 10
84.0983380757
 20
-23.7944081465
 11
84.0983380757
 21
-23.5595263496
  0
LINE
  5
368
100
AcDbEntity
  8
ASSI
100
AcDbLine
 62
250
  6
CONTINUOUS
 10
84.1876569322
 20
-2.1285165369
 11
84.1876569322
 21
-1.1255010908
  0
LINE
  5
369
100
AcDbEntity
  8
ASSI
100
AcDbLine
 62
7
  6
CONTINUOUS
 10
87.0483380757
 20
26.8844340413
 11
87.0483380757
 21
27.7840195434
  0
LINE
  5
36A
100
AcDbEntity
  8
ASSI
100
AcDbLine
 62
7
  6
CONTINUOUS
 10
87.7983380757
 20
28.7127283245
 11
87.7983380757
 21
29.2089555099
  0
LINE
  5
36B
100
AcDbEntity
  8
ASSI
100
AcDbLine
 62
7
  6
CONTINUOUS
 10
90.9020280757
 20
7.0215525099
 11
91.0821900757
 21
9.6331585099
  0
LINE
  5
36C
100
AcDbEntity
  8
ASSI
100
AcDbLine
 62
7
  6
CONTINUOUS
 10
90.1033440757
 20
7.0215525099
 11
90.4644760757
 21
11.0210645099
  0
LWPOLYLINE
  5
36D
100
AcDbEntity
  8
0
100
AcDbPolyline
 62
7
  6
CONTINUOUS
 90
7
 70
0
 10
82.4763048885
 20
-35.6360182451
 10
82.4681044832
 20
-35.6133227616
 10
82.4613281858
 20
-35.5903314389
 10
82.4559759963
 20
-35.5670442773
 10
82.4520479148
 20
-35.5434612765
 10
82.4495439412
 20
-35.5195824367
 10
82.4484640756
 20
-35.4954077579
  0
LINE
  5
36E
100
AcDbEntity
  8
ASSI
100
AcDbLine
 62
7
  6
CONTINUOUS
 10
88.8190600757
 20
7.0215525099
 11
88.8190600757
 21
11.0213045099
  0
LINE
  5
36F
100
AcDbEntity
  8
ASSI
100
AcDbLine
 62
7
  6
CONTINUOUS
 10
89.6539150757
 20
11.0213045099
 11
89.6539150757
 21
7.0215525099
  0
LWPOLYLINE
  5
370
100
AcDbEntity
  8
0
100
AcDbPolyline
 62
7
  6
CONTINUOUS
 90
2
 70
0
 43
0.3500000006
 10
91.7411954041
 20
40.8114006958
 10
91.7411954041
 20
42.3113966217
  0
LINE
  5
371
100
AcDbEntity
  8
ASSI
100
AcDbLine
 62
7
  6
CONTINUOUS
 10
92.3337480757
 20
-10.9562492613
 11
92.3337480757
 21
-11.7260431324
  0
LINE
  5
372
100
AcDbEntity
  8
ASSI
100
AcDbLine
 62
7
  6
CONTINUOUS
 10
92.3337480757
 20
-15.2560698251
 11
92.3337480757
 21
-16.0258636962
  0
LINE
  5
373
100
AcDbEntity
  8
ASSI
100
AcDbLine
 62
250
  6
CONTINUOUS
 10
93.0983380757
 20
21.7704254764
 11
93.0983380757
 21
25.2772723788
  0
LWPOLYLINE
  5
374
100
AcDbEntity
  8
0
100
AcDbPolyline
 62
7
  6
CONTINUOUS
 90
5
 70
0
 10
84.0888175466
 20
-23.4910444901
 10
84.0911071347
 20
-23.4990708111
 10
84.0949635823
 20
-23.5184788372
 10
84.097373896
 20
-23.5386306833
 10
84.0983380757
 20
-23.5595263496
  0
LINE
  5
375
100
AcDbEntity
  8
ASSI
100
AcDbLine
 62
7
  6
CONTINUOUS
 10
93.3428310757
 20
7.0215525099
 11
93.1713070757
 21
9.6222715099
  0
LWPOLYLINE
  5
376
100
AcDbEntity
  8
0
100
AcDbPolyline
 62
7
  6
CONTINUOUS
 90
2
 70
0
 43
0.3500000006
 10
94.0983338013
 20
40.8114006958
 10
94.0983338013
 20
42.3113966217
  0
LINE
  5
377
100
AcDbEntity
  8
ASSI
100
AcDbLine
 62
7
  6
CONTINUOUS
 10
96.1587480757
 20
-13.1089199179
 11
96.1587480757
 21
-13.8731930396
  0
LINE
  5
378
100
AcDbEntity
  8
ASSI
100
AcDbLine
 62
7
  6
CONTINUOUS
 10
96.6687480757
 20
-10.9562492613
 11
96.6687480757
 21
-11.7260431324
  0
LINE
  5
379
100
AcDbEntity
  8
ASSI
100
AcDbLine
 62
7
  6
CONTINUOUS
 10
96.6687480757
 20
-15.2560693756
 11
96.6687480757
 21
-16.0258636962
  0
LINE
  5
37A
100
AcDbEntity
  8
ASSI
100
AcDbLine
 62
7
  6
CONTINUOUS
 10
97.8250627559
 20
7.0215523979
 11
97.8250627559
 21
10.9743371184
  0
LINE
  5
37B
100
AcDbEntity
  8
ASSI
100
AcDbLine
 62
7
  6
CONTINUOUS
 10
98.3983380757
 20
28.7127283245
 11
98.3983380757
 21
29.2089555099
  0
LINE
  5
37C
100
AcDbEntity
  8
ASSI
100
AcDbLine
 62
7
  6
CONTINUOUS
 10
98.6288761273
 20
9.2417640486
 11
98.6288761273
 21
10.3397081515
  0
LINE
  5
37D
100
AcDbEntity
  8
ASSI
100
AcDbLine
 62
7
  6
CONTINUOUS
 10
98.6565586669
 20
7.0215523979
 11
98.6565586669
 21
8.5867405781
  0
LINE
  5
37E
100
AcDbEntity
  8
ASSI
100
AcDbLine
 62
7
  6
CONTINUOUS
 10
99.1483380757
 20
26.8844340413
 11
99.1483380757
 21
27.7840195434
  0
LINE
  5
37F
100
AcDbEntity
  8
ASSI
100
AcDbLine
 62
7
  6
CONTINUOUS
 10
93.7855410757
 20
11.0210645099
 11
94.1595410757
 21
7.0215525099
  0
LWPOLYLINE
  5
380
100
AcDbEntity
  8
0
100
AcDbPolyline
 62
7
  6
CONTINUOUS
 90
16
 70
0
 10
102.5983380757
 20
-23.7944081465
 10
102.5992439305
 20
-23.8091719841
 10
102.6012721695
 20
-23.8232084408
 10
102.6044227928
 20
-23.8365175164
 10
102.6088192954
 20
-23.8492040789
 10
102.6143381822
 20
-23.8611632605
 10
102.6206089681
 20
-23.8720804575
 10
102.6276277869
 20
-23.881894961
 10
102.6353985047
 20
-23.89066748
 10
102.6435622342
 20
-23.8982655384
 10
102.6520638651
 20
-23.9046380783
 10
102.6609585076
 20
-23.9098361576
 10
102.6700526056
 20
-23.9138804734
 10
102.6792816402
 20
-23.9167779249
 10
102.6887101302
 20
-23.9185216128
 10
102.6983380757
 20
-23.9191115374
  0
LWPOLYLINE
  5
381
100
AcDbEntity
  8
ASSI
100
AcDbPolyline
 62
7
  6
CONTINUOUS
 90
22
 70
0
 10
99.7545053845
 20
9.8631166175
 10
99.7529482765
 20
9.8958998031
 10
99.7491313965
 20
9.928691995
 10
99.7430547445
 20
9.9614930467
 10
99.7347529797
 20
9.994488688
 10
99.724191443
 20
10.0274930294
 10
99.7112661568
 20
10.0599478942
 10
99.6959566711
 20
10.0919297739
 10
99.678283436
 20
10.1233607976
 10
99.6582038243
 20
10.1534499
 10
99.6355295879
 20
10.1821730848
 10
99.610448975
 20
10.2095516681
 10
99.5834841027
 20
10.2348613021
 10
99.5545576594
 20
10.257906437
 10
99.5237469568
 20
10.2788794102
 10
99.4918060469
 20
10.2976372564
 10
99.4588028001
 20
10.3141341093
 10
99.4246693461
 20
10.3284134962
 10
99.3899561263
 20
10.3404666921
 10
99.3548466212
 20
10.3502903207
 10
99.3191573503
 20
10.3578863534
 10
99.2828883137
 20
10.3632543079
  0
LWPOLYLINE
  5
382
100
AcDbEntity
  8
ASSI
100
AcDbPolyline
 62
250
  6
CONTINUOUS
 90
19
 70
0
 10
104.1875006952
 20
-23.4910444898
 10
104.1859759251
 20
-22.7283707117
 10
104.1809988717
 20
-21.935533657
 10
104.1724696846
 20
-21.1125305405
 10
104.160617312
 20
-20.2589220298
 10
104.1449941715
 20
-19.3751846813
 10
104.1244760371
 20
-18.4627116392
 10
104.0990146785
 20
-17.5215406943
 10
104.0684027099
 20
-16.5517742803
 10
104.0312682222
 20
-15.5549286588
 10
103.9878413577
 20
-14.5346347485
 10
103.93761452
 20
-13.4875262344
 10
103.87805573
 20
-12.4046584303
 10
103.8095731581
 20
-11.2872686685
 10
103.7313495975
 20
-10.1345738835
 10
103.6388834851
 20
-8.9346828485
 10
103.5304351168
 20
-7.6839179385
 10
103.4071130843
 20
-6.3867980606
 10
103.2686010319
 20
-5.0438581636
  0
LINE
  5
383
100
AcDbEntity
  8
ASSI
100
AcDbLine
 62
7
  6
CONTINUOUS
 10
99.9714343065
 20
8.8884892565
 11
99.9714343065
 21
8.9121228872
  0
LINE
  5
384
100
AcDbEntity
  8
ASSI
100
AcDbLine
 62
250
  6
CONTINUOUS
 10
102.0090192191
 20
-1.1255010908
 11
102.0090192191
 21
-2.1285165369
  0
LINE
  5
385
100
AcDbEntity
  8
0
100
AcDbLine
 62
7
  6
CONTINUOUS
 10
102.0983380757
 20
-23.7944081465
 11
102.0983380757
 21
-23.5595263496
  0
LINE
  5
386
100
AcDbEntity
  8
0
100
AcDbLine
 62
7
  6
CONTINUOUS
 10
102.5983380757
 20
-23.7944081465
 11
102.5983380757
 21
-23.5595263496
  0
LINE
  5
387
100
AcDbEntity
  8
0
100
AcDbLine
 62
7
  6
CONTINUOUS
 10
103.0983380757
 20
-23.4910444901
 11
103.0983380757
 21
-23.9191115374
  0
LWPOLYLINE
  5
388
100
AcDbEntity
  8
ASSI
100
AcDbPolyline
 62
250
  6
CONTINUOUS
 90
19
 70
0
 10
103.1777520971
 20
-23.4910444901
 10
103.1787730488
 20
-22.7300907676
 10
103.1763535251
 20
-21.9391062422
 10
103.1704935258
 20
-21.1181019004
 10
103.1616252752
 20
-20.2666045917
 10
103.149316549
 20
-19.3851166246
 10
103.1322706752
 20
-18.4751156864
 10
103.1105725929
 20
-17.5365432936
 10
103.0841373629
 20
-16.5695031672
 10
103.0514134957
 20
-15.5757199567
 10
103.012777309
 20
-14.5586492567
 10
102.967852485
 20
-13.5148975795
 10
102.9139585818
 20
-12.4359253384
 10
102.8517530982
 20
-11.3226744791
 10
102.7805785353
 20
-10.1743020187
 10
102.6957819537
 20
-8.9796137809
 10
102.5958123735
 20
-7.7349371603
 10
102.4822207746
 20
-6.4441113852
 10
102.355007157
 20
-5.1072341356
  0
LINE
  5
389
100
AcDbEntity
  8
0
100
AcDbLine
 62
7
  6
CONTINUOUS
 10
103.7482120757
 20
-35.4954077579
 11
103.8840298967
 21
-23.4910444901
  0
LWPOLYLINE
  5
38A
100
AcDbEntity
  8
0
100
AcDbPolyline
 62
7
  6
CONTINUOUS
 90
7
 70
0
 10
103.7482120757
 20
-35.4954077579
 10
103.7471344078
 20
-35.5195714196
 10
103.7446317528
 20
-35.5434436491
 10
103.7407041108
 20
-35.5670244464
 10
103.7353514818
 20
-35.5903138115
 10
103.7285738658
 20
-35.6133117444
 10
103.7203712628
 20
-35.6360182451
  0
LWPOLYLINE
  5
38B
100
AcDbEntity
  8
0
100
AcDbPolyline
 62
7
  6
CONTINUOUS
 90
5
 70
0
 10
102.0983380757
 20
-23.5595263496
 10
102.0993871949
 20
-23.5382691921
 10
102.1018532212
 20
-23.5178914061
 10
102.1057361546
 20
-23.4983929916
 10
102.1078383291
 20
-23.4910444901
  0
LWPOLYLINE
  5
38C
100
AcDbEntity
  8
0
100
AcDbPolyline
 62
7
  6
CONTINUOUS
 90
19
 70
0
 10
103.7203712628
 20
-35.6360182451
 10
103.7152839716
 20
-35.6676859262
 10
103.7091869539
 20
-35.6987779565
 10
103.7020802099
 20
-35.7291349046
 10
103.6939398349
 20
-35.7585957483
 10
103.6847897335
 20
-35.7869984739
 10
103.6747016195
 20
-35.8141810407
 10
103.6636619936
 20
-35.8399747804
 10
103.6516843551
 20
-35.8642302697
 10
103.6388809159
 20
-35.8868125389
 10
103.6252265446
 20
-35.9075746642
 10
103.6107463726
 20
-35.9263526436
 10
103.595628007
 20
-35.9429916997
 10
103.5798345307
 20
-35.9573703693
 10
103.5634028608
 20
-35.9693440339
 10
103.5466313561
 20
-35.9787675165
 10
103.5296194694
 20
-35.9855582787
 10
103.512267748
 20
-35.989666707
 10
103.4945761916
 20
-35.9910444901
  0
LWPOLYLINE
  5
38D
100
AcDbEntity
  8
ASSI
100
AcDbPolyline
 62
7
  6
CONTINUOUS
 90
19
 70
0
 10
112.3234773739
 20
-35.9910444901
 10
112.3631588367
 20
-35.9891629094
 10
112.4025416465
 20
-35.9835323283
 10
112.4413293953
 20
-35.9741951235
 10
112.479230154
 20
-35.9612215693
 10
112.5159586687
 20
-35.9447093081
 10
112.5512385083
 20
-35.9247826161
 10
112.5848041449
 20
-35.9015914677
 10
112.6164029522
 20
-35.8753104063
 10
112.6457971065
 20
-35.8461372318
 10
112.6727653775
 20
-35.8142915107
 10
112.6971047925
 20
-35.7800129241
 10
112.7186321646
 20
-35.7435594642
 10
112.7371854712
 20
-35.7052054915
 10
112.7526250737
 20
-35.6652396706
 10
112.764834768
 20
-35.6239627982
 10
112.7737226596
 20
-35.5816855378
 10
112.7792218552
 20
-35.538726082
 10
112.7812909658
 20
-35.4954077579
  0
LWPOLYLINE
  5
38E
100
AcDbEntity
  8
ASSI
100
AcDbPolyline
 62
250
  6
CONTINUOUS
 90
22
 70
0
 10
113.1305719852
 20
-35.9910444901
 10
113.1653626237
 20
-35.9896618713
 10
113.1999608533
 20
-35.9855216644
 10
113.2341753295
 20
-35.9786467667
 10
113.2678168304
 20
-35.9690751998
 10
113.3006993026
 20
-35.956859899
 10
113.3326408907
 20
-35.9420684206
 10
113.3634649427
 20
-35.9247825685
 10
113.3930009871
 20
-35.9050979415
 10
113.421085676
 20
-35.883123405
 10
113.4475636877
 20
-35.8589804885
 10
113.4722885865
 20
-35.8328027135
 10
113.4951236322
 20
-35.8047348555
 10
113.5159425363
 20
-35.774932143
 10
113.5346301605
 20
-35.7435593988
 10
113.5510831535
 20
-35.710790129
 10
113.5652105226
 20
-35.676805563
 10
113.5769341369
 20
-35.6417936513
 10
113.5861891593
 20
-35.6059480262
 10
113.5929244052
 20
-35.5694669307
 10
113.5971026256
 20
-35.5325521225
 10
113.5987007129
 20
-35.4954077577
  0
LINE
  5
38F
100
AcDbEntity
  8
ASSI
100
AcDbLine
 62
7
  6
CONTINUOUS
 10
114.5490236519
 20
-35.9883073589
 11
114.4580034947
 21
-35.9910444901
  0
LINE
  5
390
100
AcDbEntity
  8
ASSI
100
AcDbLine
 62
7
  6
CONTINUOUS
 10
71.7386706746
 20
-35.9910444901
 11
114.4580054767
 21
-35.9910444901
  0
LINE
  5
391
100
AcDbEntity
  8
0
100
AcDbLine
 62
7
  6
CONTINUOUS
 10
82.4763048885
 20
-35.6360182451
 11
103.7203712628
 21
-35.6360182451
  0
LINE
  5
392
100
AcDbEntity
  8
ASSI
100
AcDbLine
 62
7
  6
CONTINUOUS
 10
71.7386726566
 20
-35.9910444901
 11
71.6476524994
 21
-35.9883073589
  0
LWPOLYLINE
  5
393
100
AcDbEntity
  8
ASSI
100
AcDbPolyline
 62
250
  6
CONTINUOUS
 90
22
 70
0
 10
73.0661041661
 20
-35.9910444901
 10
73.0313135274
 20
-35.9896618744
 10
72.9967152972
 20
-35.9855216705
 10
72.9625008198
 20
-35.9786467758
 10
72.9288593175
 20
-35.9690752116
 10
72.8959768435
 20
-35.9568599132
 10
72.8640352533
 20
-35.9420684369
 10
72.8332111989
 20
-35.9247825865
 10
72.8036751518
 20
-35.9050979609
 10
72.7755904602
 20
-35.8831234254
 10
72.7491124456
 20
-35.8589805093
 10
72.7243875439
 20
-35.8328027344
 10
72.7015524953
 20
-35.804734876
 10
72.6807335885
 20
-35.7749321625
 10
72.6620459617
 20
-35.7435594171
 10
72.6455929662
 20
-35.7107901455
 10
72.6314655949
 20
-35.6768055774
 10
72.6197419788
 20
-35.6417936633
 10
72.6104869549
 20
-35.6059480355
 10
72.6037517079
 20
-35.5694669372
 10
72.5995734868
 20
-35.532552126
 10
72.5979753992
 20
-35.4954077581
  0
LWPOLYLINE
  5
394
100
AcDbEntity
  8
ASSI
100
AcDbPolyline
 62
7
  6
CONTINUOUS
 90
19
 70
0
 10
73.8738739516
 20
-35.9910444901
 10
73.8341339502
 20
-35.9891629078
 10
73.7946930452
 20
-35.9835323223
 10
73.7558480816
 20
-35.9741951111
 10
73.7178914196
 20
-35.9612215493
 10
73.6811087335
 20
-35.9447092801
 10
73.6457768618
 20
-35.9247825802
 10
73.612161724
 20
-35.9015914246
 10
73.5805163185
 20
-35.8753103575
 10
73.5510788191
 20
-35.846137179
 10
73.5240707822
 20
-35.8142914558
 10
73.4996954792
 20
-35.7800128695
 10
73.4781363666
 20
-35.7435594119
 10
73.4595557054
 20
-35.7052054438
 10
73.4440933399
 20
-35.6652396299
 10
73.4318656448
 20
-35.6239627659
 10
73.4229646498
 20
-35.5816855151
 10
73.4174573468
 20
-35.5387260701
 10
73.4153851855
 20
-35.4954077579
  0
LWPOLYLINE
  5
395
100
AcDbEntity
  8
0
100
AcDbPolyline
 62
7
  6
CONTINUOUS
 90
19
 70
0
 10
82.7020999597
 20
-35.9910444901
 10
82.6844084034
 20
-35.989666707
 10
82.6670566819
 20
-35.9855582787
 10
82.6500447952
 20
-35.9787675165
 10
82.6332732905
 20
-35.9693440339
 10
82.6168416206
 20
-35.9573703693
 10
82.6010481443
 20
-35.9429916997
 10
82.5859297787
 20
-35.9263526436
 10
82.5714496068
 20
-35.9075746642
 10
82.5577952354
 20
-35.8868125389
 10
82.5449917962
 20
-35.8642302697
 10
82.5330141577
 20
-35.8399747804
 10
82.5219745318
 20
-35.8141810407
 10
82.5118864178
 20
-35.7869984739
 10
82.5027363164
 20
-35.7585957483
 10
82.4945959414
 20
-35.7291349046
 10
82.4874891974
 20
-35.6987779565
 10
82.4813921798
 20
-35.6676859262
 10
82.4763048885
 20
-35.6360182451
  0
LINE
  5
396
100
AcDbEntity
  8
ASSI
100
AcDbLine
 62
7
  6
CONTINUOUS
 10
86.4879230757
 20
7.0215525099
 11
85.2200000757
 21
11.0210645099
  0
LINE
  5
397
100
AcDbEntity
  8
ASSI
100
AcDbLine
 62
7
  6
CONTINUOUS
 10
86.1269100757
 20
11.0210645099
 11
86.8892900757
 21
8.2680765099
  0
LWPOLYLINE
  5
398
100
AcDbEntity
  8
ASSI
100
AcDbPolyline
 62
7
  6
CONTINUOUS
 90
34
 70
0
 10
94.6702120757
 20
-13.8731930396
 10
94.6894099526
 20
-13.9519716707
 10
94.7120654424
 20
-14.0295241222
 10
94.738178545
 20
-14.1058503334
 10
94.7678152618
 20
-14.1811085819
 10
94.8009095915
 20
-14.2551404783
 10
94.8372635304
 20
-14.3274709458
 10
94.8769106797
 20
-14.3980999777
 10
94.9198174383
 20
-14.4670274397
 10
94.9656849994
 20
-14.5337780319
 10
95.0145012711
 20
-14.5982999516
 10
95.0662783453
 20
-14.6606448436
 10
95.1207536908
 20
-14.7204925581
 10
95.17798768
 20
-14.7778715412
 10
95.2379199405
 20
-14.8327531932
 10
95.3001068232
 20
-14.8847317805
 10
95.3645089393
 20
-14.9337471926
 10
95.4311656776
 20
-14.9798593902
 10
95.4997515562
 20
-15.0228427381
 10
95.5703404976
 20
-15.0627139463
 10
95.6428585793
 20
-15.099456177
 10
95.7167585512
 20
-15.1327934711
 10
95.7919886179
 20
-15.1626767657
 10
95.8686005749
 20
-15.1891550193
 10
95.9462025584
 20
-15.2120993076
 10
96.0248453937
 20
-15.2315029521
 10
96.1044782557
 20
-15.2473725602
 10
96.1845568053
 20
-15.259599142
 10
96.2650681442
 20
-15.2681525424
 10
96.3460251708
 20
-15.2730628809
 10
96.4269222416
 20
-15.2743115885
 10
96.5075908087
 20
-15.2718924763
 10
96.5881994201
 20
-15.2658117352
 10
96.6687480757
 20
-15.2560693756
  0
LINE
  5
399
100
AcDbEntity
  8
ASSI
100
AcDbLine
 62
250
  6
CONTINUOUS
 10
102.3166327235
 20
-4.7391313852
 11
102.2637503056
 21
-4.2484062415
  0
LINE
  5
39A
100
AcDbEntity
  8
ASSI
100
AcDbLine
 62
250
  6
CONTINUOUS
 10
102.355007157
 20
-5.1072341356
 11
102.3166327235
 21
-4.7391313852
  0
LINE
  5
39B
100
AcDbEntity
  8
ASSI
100
AcDbLine
 62
250
  6
CONTINUOUS
 10
101.2864793271
 20
22.7070962122
 11
101.2066845396
 21
23.5505924899
  0
LINE
  5
39C
100
AcDbEntity
  8
ASSI
100
AcDbLine
 62
250
  6
CONTINUOUS
 10
101.3652269465
 20
21.8608517847
 11
101.2864793271
 21
22.7070962122
  0
LINE
  5
39D
100
AcDbEntity
  8
ASSI
100
AcDbLine
 62
250
  6
CONTINUOUS
 10
101.4428910463
 20
21.01190839
 11
101.3652269465
 21
21.8608517847
  0
LINE
  5
39E
100
AcDbEntity
  8
ASSI
100
AcDbLine
 62
250
  6
CONTINUOUS
 10
103.0931894673
 20
-2.9438125264
 11
103.044672279
 21
-1.9569376175
  0
LINE
  5
39F
100
AcDbEntity
  8
ASSI
100
AcDbLine
 62
250
  6
CONTINUOUS
 10
103.1402610027
 20
-3.9336389909
 11
103.0931894673
 21
-2.9438125264
  0
LINE
  5
3A0
100
AcDbEntity
  8
ASSI
100
AcDbLine
 62
250
  6
CONTINUOUS
 10
114.9935775845
 20
-35.4954077579
 11
112.7812909658
 21
-35.4954077579
  0
LINE
  5
3A1
100
AcDbEntity
  8
0
100
AcDbLine
 62
250
  6
CONTINUOUS
 10
112.7812909658
 20
-35.4954077579
 11
103.7482120757
 21
-35.4954077579
  0
LINE
  5
3A2
100
AcDbEntity
  8
0
100
AcDbLine
 62
250
  6
CONTINUOUS
 10
82.4484640756
 20
-35.4954077579
 11
73.4153851855
 21
-35.4954077579
  0
LINE
  5
3A3
100
AcDbEntity
  8
ASSI
100
AcDbLine
 62
250
  6
CONTINUOUS
 10
73.4153851855
 20
-35.4954077579
 11
71.2030985668
 21
-35.4954077579
  0
LWPOLYLINE
  5
3A4
100
AcDbEntity
  8
0
100
AcDbPolyline
 62
7
  6
CONTINUOUS
 90
5
 70
0
 10
102.5888175466
 20
-23.4910444901
 10
102.5911071347
 20
-23.4990708111
 10
102.5949635823
 20
-23.5184788372
 10
102.597373896
 20
-23.5386306833
 10
102.5983380757
 20
-23.5595263496
  0
LWPOLYLINE
  5
3A5
100
AcDbEntity
  8
ASSI
100
AcDbPolyline
 62
250
  6
CONTINUOUS
 90
7
 70
0
 10
103.1402610027
 20
-3.9336389909
 10
103.1001470818
 20
-3.6225435777
 10
103.0587277041
 20
-3.3100456856
 10
103.015996697
 20
-2.9961435749
 10
102.9719480239
 20
-2.6808353705
 10
102.9265758062
 20
-2.3641190675
 10
102.8798743437
 20
-2.0459925374
  0
LINE
  5
3A6
100
AcDbEntity
  8
ASSI
100
AcDbLine
 62
250
  6
CONTINUOUS
 10
103.1986306772
 20
-4.4270616967
 11
103.1402610027
 21
-3.9336389909
  0
LWPOLYLINE
  5
3A7
100
AcDbEntity
  8
ASSI
100
AcDbPolyline
 62
250
  6
CONTINUOUS
 90
6
 70
0
 10
102.2015665518
 20
-3.6939723172
 10
102.1654085102
 20
-3.383537104
 10
102.1280855618
 20
-3.0717728348
 10
102.0895977069
 20
-2.7586805854
 10
102.0499449452
 20
-2.4442614492
 10
102.009127277
 20
-2.1285165369
  0
LWPOLYLINE
  5
3A8
100
AcDbEntity
  8
ASSI
100
AcDbPolyline
 62
250
  6
CONTINUOUS
 90
3
 70
0
 10
103.2686010319
 20
-5.0438581636
 10
103.2548690929
 20
-4.920496648
 10
103.1986306772
 20
-4.4270616967
  0
LINE
  5
3A9
100
AcDbEntity
  8
ASSI
100
AcDbLine
 62
250
  6
CONTINUOUS
 10
102.2637503056
 20
-4.2484062415
 11
102.2015665518
 21
-3.6939723172
  0
LWPOLYLINE
  5
3AA
100
AcDbEntity
  8
ASSI
100
AcDbPolyline
 62
250
  6
CONTINUOUS
 90
10
 70
0
 10
112.083997961
 20
-5.275306936
 10
111.9632148853
 20
-3.4695605775
 10
111.8319298117
 20
-1.6741016697
 10
111.6901633864
 20
0.1123462275
 10
111.5380141818
 20
1.8901710781
 10
111.3754379408
 20
3.6614582277
 10
111.2022302983
 20
5.4290463714
 10
111.0183469538
 20
7.1930610667
 10
110.8239215235
 20
8.9518438115
 10
110.6190046139
 20
10.7046114155
  0
LWPOLYLINE
  5
3AB
100
AcDbEntity
  8
ASSI
100
AcDbPolyline
 62
250
  6
CONTINUOUS
 90
10
 70
0
 10
113.7007967581
 20
-23.4910444901
 10
113.6765424095
 20
-21.4457866809
 10
113.6387934125
 20
-19.4055648884
 10
113.5875503894
 20
-17.3711312536
 10
113.5228157619
 20
-15.3431913963
 10
113.4445964967
 20
-13.3224948876
 10
113.3529061263
 20
-11.3098354165
 10
113.2477600794
 20
-9.3059303233
 10
113.1291735954
 20
-7.3114207425
 10
112.9971659068
 20
-5.3269620858
  0
LWPOLYLINE
  5
3AC
100
AcDbEntity
  8
ASSI
100
AcDbPolyline
 62
250
  6
CONTINUOUS
 90
10
 70
0
 10
112.7216390009
 20
-23.4910444901
 10
112.6999563162
 20
-21.4426038033
 10
112.666098133
 20
-19.3981807801
 10
112.6200074229
 20
-17.3586705972
 10
112.5616274876
 20
-15.3248495932
 10
112.490910246
 20
-13.2976766037
 10
112.4078224478
 20
-11.2782932206
 10
112.3123317439
 20
-9.2676216025
 10
112.2044004011
 20
-7.2663645531
 10
112.083997961
 20
-5.275306936
  0
LINE
  5
3AD
100
AcDbEntity
  8
ASSI
100
AcDbLine
 62
7
  6
CONTINUOUS
 10
112.8772871649
 20
-23.4910444901
 11
112.7812909658
 21
-35.4954077579
  0
LINE
  5
3AE
100
AcDbEntity
  8
ASSI
100
AcDbLine
 62
250
  6
CONTINUOUS
 10
113.6967872427
 20
-23.4910444901
 11
113.5987007129
 21
-35.4954077577
  0
LINE
  5
3AF
100
AcDbEntity
  8
ASSI
100
AcDbLine
 62
7
  6
CONTINUOUS
 10
114.9935775845
 20
-35.4954077579
 11
115.0983380757
 21
-23.4910444901
  0
LINE
  5
3B0
100
AcDbEntity
  8
ASSI
100
AcDbLine
 62
7
  6
CONTINUOUS
 10
92.0615760757
 20
7.0215525099
 11
91.0821900757
 21
9.6331585099
  0
LINE
  5
3B1
100
AcDbEntity
  8
ASSI
100
AcDbLine
 62
7
  6
CONTINUOUS
 10
91.2986420757
 20
11.0210645099
 11
92.1246790757
 21
8.8005225099
  0
LINE
  5
3B2
100
AcDbEntity
  8
ASSI
100
AcDbLine
 62
7
  6
CONTINUOUS
 10
96.3527590757
 20
11.0210645099
 11
97.5799090757
 21
7.0215525099
  0
LINE
  5
3B3
100
AcDbEntity
  8
ASSI
100
AcDbLine
 62
7
  6
CONTINUOUS
 10
99.7123480102
 20
7.7911473285
 11
99.6834908276
 21
7.8901010002
  0
LINE
  5
3B4
100
AcDbEntity
  8
ASSI
100
AcDbLine
 62
7
  6
CONTINUOUS
 10
99.9350241191
 20
7.0215523979
 11
99.8276144308
 21
7.3893806885
  0
LINE
  5
3B5
100
AcDbEntity
  8
ASSI
100
AcDbLine
 62
7
  6
CONTINUOUS
 10
99.8276144308
 20
7.3893806885
 11
99.7549710131
 21
7.6418488338
  0
LINE
  5
3B6
100
AcDbEntity
  8
ASSI
100
AcDbLine
 62
7
  6
CONTINUOUS
 10
99.7549710131
 20
7.6418488338
 11
99.7123480102
 21
7.7911473285
  0
LINE
  5
3B7
100
AcDbEntity
  8
ASSI
100
AcDbLine
 62
7
  6
CONTINUOUS
 10
96.7000060757
 20
7.0215525099
 11
96.4837340757
 21
7.8199975099
  0
LINE
  5
3B8
100
AcDbEntity
  8
ASSI
100
AcDbLine
 62
7
  6
CONTINUOUS
 10
100.4526779432
 20
8.1039650443
 11
100.5198637266
 21
7.8533994122
  0
LINE
  5
3B9
100
AcDbEntity
  8
ASSI
100
AcDbLine
 62
7
  6
CONTINUOUS
 10
100.6463044958
 20
7.369132795
 11
100.7380577007
 21
7.0215523979
  0
LWPOLYLINE
  5
3BA
100
AcDbEntity
  8
ASSI
100
AcDbPolyline
 62
7
  6
CONTINUOUS
 90
3
 70
0
 10
100.5198637266
 20
7.8533994122
 10
100.5842628709
 20
7.6084232776
 10
100.6463044958
 20
7.369132795
  0
LINE
  5
3BB
100
AcDbEntity
  8
ASSI
100
AcDbLine
 62
7
  6
CONTINUOUS
 10
96.3168890757
 20
8.4378305099
 11
95.9332630757
 21
9.9221005099
  0
LINE
  5
3BC
100
AcDbEntity
  8
ASSI
100
AcDbLine
 62
7
  6
CONTINUOUS
 10
114.249999353
 20
-3.7348929429
 11
114.3966370042
 21
-5.5117570513
  0
LINE
  5
3BD
100
AcDbEntity
  8
ASSI
100
AcDbLine
 62
7
  6
CONTINUOUS
 10
114.3966370042
 20
-5.5117570513
 11
114.5446751014
 21
-7.5062910641
  0
LWPOLYLINE
  5
3BE
100
AcDbEntity
  8
ASSI
100
AcDbPolyline
 62
250
  6
CONTINUOUS
 90
10
 70
0
 10
112.9971659068
 20
-5.3269620858
 10
112.8650718591
 20
-3.5276229999
 10
112.7216422451
 20
-1.7366016468
 10
112.5668956049
 20
0.0471274762
 10
112.400910428
 20
1.8239639381
 10
112.2236551039
 20
3.595501986
 10
112.0349769852
 20
5.3637601617
 10
111.8348489651
 20
7.1287313931
 10
111.623380781
 20
8.8891438039
 10
111.4006183015
 20
10.6443437388
  0
LWPOLYLINE
  5
3BF
100
AcDbEntity
  8
ASSI
100
AcDbPolyline
 62
7
  6
CONTINUOUS
 90
7
 70
0
 10
114.5446751014
 20
-7.5062910641
 10
114.6753109825
 20
-9.501724236
 10
114.7885446476
 20
-11.4980565668
 10
114.8843817463
 20
-13.4954320715
 10
114.962816629
 20
-15.4937067351
 10
115.0238323464
 20
-17.4924485132
 10
115.0674232488
 20
-19.491513391
  0
LWPOLYLINE
  5
3C0
100
AcDbEntity
  8
ASSI
100
AcDbPolyline
 62
7
  6
CONTINUOUS
 90
3
 70
0
 10
115.1023475578
 20
-23.4910444901
 10
115.0935949859
 20
-21.4910453833
 10
115.0674232488
 20
-19.491513391
  0
LWPOLYLINE
  5
3C1
100
AcDbEntity
  8
0
100
AcDbPolyline
 62
7
  6
CONTINUOUS
 90
16
 70
0
 10
101.9983380757
 20
-23.9191115374
 10
102.0079719712
 20
-23.9185206378
 10
102.0174057096
 20
-23.9167749692
 10
102.026639291
 20
-23.9138745316
 10
102.0357362466
 20
-23.9098277155
 10
102.0446330451
 20
-23.9046261305
 10
102.0531390929
 20
-23.8982446042
 10
102.0613139704
 20
-23.8906246048
 10
102.0690980971
 20
-23.8818246643
 10
102.0761221379
 20
-23.8719952067
 10
102.0823825304
 20
-23.8610860513
 10
102.087882837
 20
-23.849147379
 10
102.0922644096
 20
-23.8364801557
 10
102.095407699
 20
-23.8231847035
 10
102.0974322543
 20
-23.8091607004
 10
102.0983380757
 20
-23.7944081465
  0
LWPOLYLINE
  5
3C2
100
AcDbEntity
  8
0
100
AcDbPolyline
 62
7
  6
CONTINUOUS
 90
16
 70
0
 10
83.4983380757
 20
-23.9191115374
 10
83.5079719712
 20
-23.9185206378
 10
83.5174057096
 20
-23.9167749692
 10
83.526639291
 20
-23.9138745316
 10
83.5357362466
 20
-23.9098277155
 10
83.5446330451
 20
-23.9046261305
 10
83.5531390929
 20
-23.8982446042
 10
83.5613139704
 20
-23.8906246048
 10
83.5690980971
 20
-23.8818246643
 10
83.5761221379
 20
-23.8719952067
 10
83.5823825304
 20
-23.8610860513
 10
83.587882837
 20
-23.849147379
 10
83.5922644096
 20
-23.8364801557
 10
83.595407699
 20
-23.8231847035
 10
83.5974322543
 20
-23.8091607004
 10
83.5983380757
 20
-23.7944081465
  0
LINE
  5
3C3
100
AcDbEntity
  8
0
100
AcDbLine
 62
7
  6
CONTINUOUS
 10
83.0983380757
 20
-23.9191115374
 11
83.4983380757
 21
-23.9191115374
  0
LINE
  5
3C4
100
AcDbEntity
  8
0
100
AcDbLine
 62
7
  6
CONTINUOUS
 10
84.1983380757
 20
-23.9191115374
 11
101.9983380757
 21
-23.9191115374
  0
LINE
  5
3C5
100
AcDbEntity
  8
0
100
AcDbLine
 62
7
  6
CONTINUOUS
 10
102.6983380757
 20
-23.9191115374
 11
103.0983380757
 21
-23.9191115374
  0
LINE
  5
3C6
100
AcDbEntity
  8
ASSI
100
AcDbLine
 62
250
  6
CONTINUOUS
 10
83.0983380757
 20
-23.8616349676
 11
83.5820675261
 21
-23.8616349676
  0
LINE
  5
3C7
100
AcDbEntity
  8
ASSI
100
AcDbLine
 62
250
  6
CONTINUOUS
 10
84.1146091286
 20
-23.8616349676
 11
102.0820675261
 21
-23.8616349676
  0
LINE
  5
3C8
100
AcDbEntity
  8
ASSI
100
AcDbLine
 62
250
  6
CONTINUOUS
 10
102.6146091286
 20
-23.8616349676
 11
103.0983380757
 21
-23.8616349676
  0
LINE
  5
3C9
100
AcDbEntity
  8
ASSI
100
AcDbLine
 62
7
  6
CONTINUOUS
 10
103.794155571
 20
-23.4910444901
 11
103.1777517266
 21
-23.4910444901
  0
LINE
  5
3CA
100
AcDbEntity
  8
ASSI
100
AcDbLine
 62
7
  6
CONTINUOUS
 10
83.0189244862
 20
-23.4910444901
 11
82.4025206427
 21
-23.4910444901
  0
LINE
  5
3CB
100
AcDbEntity
  8
0
100
AcDbLine
 62
7
  6
CONTINUOUS
 10
73.3193889864
 20
-23.4910444901
 11
73.4750371504
 21
-23.4910444901
  0
LINE
  5
3CC
100
AcDbEntity
  8
ASSI
100
AcDbLine
 62
7
  6
CONTINUOUS
 10
71.0943285935
 20
-23.4910444901
 11
82.1349268092
 21
-23.4910444901
  0
LINE
  5
3CD
100
AcDbEntity
  8
0
100
AcDbLine
 62
7
  6
CONTINUOUS
 10
82.0091753849
 20
-23.4910444901
 11
82.4601661956
 21
-23.4910444901
  0
LINE
  5
3CE
100
AcDbEntity
  8
0
100
AcDbLine
 62
7
  6
CONTINUOUS
 10
83.0189244862
 20
-23.4910444901
 11
103.1777517266
 21
-23.4910444901
  0
LINE
  5
3CF
100
AcDbEntity
  8
0
100
AcDbLine
 62
7
  6
CONTINUOUS
 10
103.7365102232
 20
-23.4910444901
 11
104.1875012093
 21
-23.4910444901
  0
LINE
  5
3D0
100
AcDbEntity
  8
0
100
AcDbLine
 62
7
  6
CONTINUOUS
 10
112.7216390009
 20
-23.4910444901
 11
112.8772871649
 21
-23.4910444901
  0
LINE
  5
3D1
100
AcDbEntity
  8
ASSI
100
AcDbLine
 62
7
  6
CONTINUOUS
 10
104.0617484565
 20
-23.4910444901
 11
115.1023475578
 21
-23.4910444901
  0
LWPOLYLINE
  5
3D2
100
AcDbEntity
  8
ASSI
100
AcDbPolyline
 62
250
  6
CONTINUOUS
 90
16
 70
0
 10
102.8798103524
 20
-2.0462373546
 10
102.8430760041
 20
-1.9643196366
 10
102.801744284
 20
-1.8838533666
 10
102.7562687877
 20
-1.8052105468
 10
102.7074210159
 20
-1.7287004936
 10
102.6554552919
 20
-1.6546839739
 10
102.6000598737
 20
-1.5836088709
 10
102.5417875045
 20
-1.5157786744
 10
102.4812061456
 20
-1.4514727416
 10
102.4180126327
 20
-1.3911201307
 10
102.3528492372
 20
-1.3349386188
 10
102.2863210231
 20
-1.283143811
 10
102.2180856649
 20
-1.23615939
 10
102.1484898088
 20
-1.1942149003
 10
102.0785647674
 20
-1.1573145751
 10
102.0090192191
 20
-1.1255010908
  0
LWPOLYLINE
  5
3D3
100
AcDbEntity
  8
ASSI
100
AcDbPolyline
 62
7
  6
CONTINUOUS
 90
19
 70
0
 10
99.5698658077
 20
8.2345929315
 10
99.5544405838
 20
8.2712721992
 10
99.5377290508
 20
8.305935592
 10
99.5197312085
 20
8.3385789378
 10
99.5003876826
 20
8.3691628195
 10
99.4797578475
 20
8.3977191436
 10
99.4580198266
 20
8.4243513184
 10
99.4353089345
 20
8.4490803537
 10
99.4114898566
 20
8.4718796921
 10
99.3863347724
 20
8.4927819586
 10
99.3597365569
 20
8.51188073
 10
99.3318023352
 20
8.5290783516
 10
99.3026256622
 20
8.5441207352
 10
99.2721441389
 20
8.5569882928
 10
99.2404201643
 20
8.5676974006
 10
99.2077344909
 20
8.5760479613
 10
99.1741807029
 20
8.5819726417
 10
99.139665216
 20
8.5855369936
 10
99.1041880303
 20
8.5867405781
  0
LWPOLYLINE
  5
3D4
100
AcDbEntity
  8
ASSI
100
AcDbPolyline
 62
7
  6
CONTINUOUS
 90
8
 70
0
 10
99.6834908276
 20
7.8901010002
 10
99.6686579605
 20
7.9394596979
 10
99.653482293
 20
7.9887618078
 10
99.63796163
 20
8.0379993896
 10
99.6218629519
 20
8.0871992792
 10
99.6051085856
 20
8.1363699497
 10
99.5877762042
 20
8.185501419
 10
99.5698658077
 20
8.2345929315
  0
LWPOLYLINE
  5
3D5
100
AcDbEntity
  8
ASSI
100
AcDbPolyline
 62
250
  6
CONTINUOUS
 90
43
 70
0
 10
106.4747006876
 20
10.7660104332
 10
106.4190719075
 20
11.0920164952
 10
106.3605967653
 20
11.4059218175
 10
106.2992752611
 20
11.7075351093
 10
106.2349031456
 20
11.9954841081
 10
106.1676846681
 20
12.2708469133
 10
106.0982325759
 20
12.5371567975
 10
106.0272393232
 20
12.7932413048
 10
105.9540124558
 20
13.0401228885
 10
105.877087359
 20
13.2846523759
 10
105.79667372
 20
13.5275016132
 10
105.7125618515
 20
13.7678922034
 10
105.6226580775
 20
14.010487714
 10
105.5260550459
 20
14.2578738058
 10
105.4236601088
 20
14.5073240229
 10
105.3161016454
 20
14.7555319722
 10
105.2028848664
 20
15.0028665584
 10
105.0845045611
 20
15.2488460095
 10
104.963073477
 20
15.4889377626
 10
104.8388331975
 20
15.7221159032
 10
104.7115421392
 20
15.9493885661
 10
104.5825882993
 20
16.1693280501
 10
104.4526040152
 20
16.3809016375
 10
104.3209569496
 20
16.5851879605
 10
104.187138088
 20
16.7839310242
 10
104.051649035
 20
16.9767787459
 10
103.913988186
 20
17.1641202647
 10
103.7721417129
 20
17.3487712035
 10
103.6257753645
 20
17.5314495727
 10
103.4752233918
 20
17.7114235048
 10
103.3194747203
 20
17.8893001023
 10
103.158720551
 20
18.0650441141
 10
102.9927696829
 20
18.238676295
 10
102.820037437
 20
18.4108737977
 10
102.6412954174
 20
18.5812504919
 10
102.4557720201
 20
18.7501691068
 10
102.2595677547
 20
18.9193978016
 10
102.0530396199
 20
19.0891875342
 10
101.835830617
 20
19.2592080099
 10
101.6029702596
 20
19.4303157095
 10
101.3528017191
 20
19.6027522651
 10
101.0869818241
 20
19.7761598945
 10
100.8055105747
 20
19.950479194
  0
LWPOLYLINE
  5
3D6
100
AcDbEntity
  8
ASSI
100
AcDbPolyline
 62
250
  6
CONTINUOUS
 90
43
 70
0
 10
107.5183747568
 20
10.8501750439
 10
107.4599688718
 20
11.2066408907
 10
107.3984693488
 20
11.5496369891
 10
107.3339068521
 20
11.8791517456
 10
107.2661031158
 20
12.1939693116
 10
107.1952753806
 20
12.495297066
 10
107.1220343086
 20
12.7867590298
 10
107.0470892194
 20
13.0670991911
 10
106.9697319484
 20
13.3375746353
 10
106.8884252871
 20
13.6055596994
 10
106.8033385963
 20
13.8718016422
 10
106.7142513283
 20
14.1355239346
 10
106.6190042857
 20
14.4017822882
 10
106.5165578669
 20
14.6734490278
 10
106.4078295693
 20
14.9475801555
 10
106.2935764844
 20
15.2205011573
 10
106.173211558
 20
15.4926516475
 10
106.0471842069
 20
15.7635442187
 10
105.9178350643
 20
16.0281494368
 10
105.7853946606
 20
16.285339445
 10
105.6495365387
 20
16.5362495706
 10
105.5118146083
 20
16.7792799813
 10
105.372884705
 20
17.0132754769
 10
105.2320354427
 20
17.2394275451
 10
105.0887887219
 20
17.4596595653
 10
104.9436277011
 20
17.6735755629
 10
104.7960008135
 20
17.8815956294
 10
104.643846045
 20
18.0868436057
 10
104.486707782
 20
18.290126924
 10
104.32490328
 20
18.4906351943
 10
104.1574857113
 20
18.6890451479
 10
103.9845473989
 20
18.8853227082
 10
103.8058264978
 20
19.079499954
 10
103.619802152
 20
19.2723429127
 10
103.4271278678
 20
19.4634266685
 10
103.2269277725
 20
19.6531666323
 10
103.015285304
 20
19.8435685121
 10
102.7922698176
 20
20.0349349963
 10
102.5574242676
 20
20.2269233935
 10
102.305859118
 20
20.420543511
 10
102.0356855342
 20
20.6161058249
 10
101.7481359998
 20
20.8132366598
 10
101.4428910464
 20
21.0119083893
  0
LWPOLYLINE
  5
3D7
100
AcDbEntity
  8
ASSI
100
AcDbPolyline
 62
7
  6
CONTINUOUS
 90
8
 70
0
 10
112.8379711839
 20
8.6620304956
 10
113.0809392221
 20
6.8959814914
 10
113.3101656182
 20
5.1282131787
 10
113.5256619469
 20
3.3586238862
 10
113.7274166335
 20
1.5873152854
 10
113.9153949549
 20
-0.1854076102
 10
114.0895853366
 20
-1.9594431292
 10
114.249999353
 20
-3.7348929429
  0
LWPOLYLINE
  5
3D8
100
AcDbEntity
  8
ASSI
100
AcDbPolyline
 62
250
  6
CONTINUOUS
 90
10
 70
0
 10
111.4006183015
 20
10.6443437388
 10
111.2198905512
 20
12.003688674
 10
111.0309630255
 20
13.3711771713
 10
110.8337463267
 20
14.7457686369
 10
110.6281619299
 20
16.1263173918
 10
110.4141154713
 20
17.5117527686
 10
110.1914975935
 20
18.9011483924
 10
109.9602523918
 20
20.294079121
 10
109.7203659552
 20
21.6903448069
 10
109.4718197548
 20
23.0898079452
  0
LWPOLYLINE
  5
3D9
100
AcDbEntity
  8
ASSI
100
AcDbPolyline
 62
250
  6
CONTINUOUS
 90
10
 70
0
 10
110.6190046139
 20
10.7046114155
 10
110.4536021131
 20
12.0542336833
 10
110.2803742809
 20
13.4140708959
 10
110.099222243
 20
14.7828630825
 10
109.9100328657
 20
16.1594038847
 10
109.7127283352
 20
17.542176546
 10
109.5072762506
 20
18.9294440068
 10
109.2936593401
 20
20.3204660827
 10
109.0718533806
 20
21.7151718181
 10
108.841858571
 20
23.1133743821
  0
LWPOLYLINE
  5
3DA
100
AcDbEntity
  8
ASSI
100
AcDbPolyline
 62
7
  6
CONTINUOUS
 90
61
 70
0
 10
96.6687480757
 20
-16.0258636962
 10
96.5332511005
 20
-16.0357799029
 10
96.398192068
 20
-16.0385625944
 10
96.2635709782
 20
-16.0342117624
 10
96.1290255435
 20
-16.0226775426
 10
95.9949180514
 20
-16.0040098477
 10
95.8623353647
 20
-15.9783583653
 10
95.7312878902
 20
-15.9456725809
 10
95.601765221
 20
-15.9060031852
 10
95.4748229993
 20
-15.8596517
 10
95.350424764
 20
-15.8065251249
 10
95.2286069763
 20
-15.7467167559
 10
95.1105346616
 20
-15.6808075711
 10
94.9963428038
 20
-15.6088135978
 10
94.8858964191
 20
-15.5307191958
 10
94.7799555809
 20
-15.4470578377
 10
94.6784449052
 20
-15.3576831439
 10
94.581439776
 20
-15.2627419648
 10
94.4899264193
 20
-15.1632075855
 10
94.404063523
 20
-15.0591763712
 10
94.3236923992
 20
-14.9505524382
 10
94.2493232098
 20
-14.8380206421
 10
94.1809055482
 20
-14.7213816486
 10
94.118489821
 20
-14.6008352992
 10
94.0627374099
 20
-14.4776651191
 10
94.0137836759
 20
-14.3520438712
 10
93.971493258
 20
-14.2237991945
 10
93.9361214553
 20
-14.0936968109
 10
93.9076751967
 20
-13.961506147
 10
93.8861475533
 20
-13.8274581346
 10
93.8717730375
 20
-13.6930106027
 10
93.8646292591
 20
-13.5583852603
 10
93.8646386084
 20
-13.4233605406
 10
93.8718027684
 20
-13.2887291932
 10
93.8861998772
 20
-13.1542679654
 10
93.9077517966
 20
-13.0202001531
 10
93.9362257954
 20
-12.8879881505
 10
93.9716290525
 20
-12.7578631797
 10
94.013954389
 20
-12.6295937983
 10
94.0629475361
 20
-12.5039482242
 10
94.1187457413
 20
-12.3807516704
 10
94.1812117573
 20
-12.2601785974
 10
94.2496795731
 20
-12.1435209343
 10
94.3240976911
 20
-12.0309809454
 10
94.4045176089
 20
-11.9223558328
 10
94.490427808
 20
-11.8183297905
 10
94.5819896233
 20
-11.7188046283
 10
94.6790417198
 20
-11.6238779575
 10
94.7805885743
 20
-11.5345275759
 10
94.8865510541
 20
-11.4509032831
 10
94.9970082919
 20
-11.3728546402
 10
95.1112021629
 20
-11.3009090201
 10
95.2292699624
 20
-11.2350488365
 10
95.3510743952
 20
-11.1752911037
 10
95.4754454504
 20
-11.1222150772
 10
95.6023440824
 20
-11.0759148456
 10
95.7318093367
 20
-11.0362958541
 10
95.86278834
 20
-11.0036544055
 10
95.9952855883
 20
-10.9780399515
 10
96.1292965855
 20
-10.9594027509
 10
96.2637549691
 20
-10.9478903575
  0
LWPOLYLINE
  5
3DB
100
AcDbEntity
  8
ASSI
100
AcDbPolyline
 62
7
  6
CONTINUOUS
 90
61
 70
0
 10
92.3337480757
 20
-16.0258636962
 10
92.1982511005
 20
-16.0357799029
 10
92.063192068
 20
-16.0385625944
 10
91.9285709782
 20
-16.0342117624
 10
91.7940255435
 20
-16.0226775426
 10
91.6599180514
 20
-16.0040098477
 10
91.5273353647
 20
-15.9783583653
 10
91.3962878902
 20
-15.9456725809
 10
91.266765221
 20
-15.9060031852
 10
91.1398229993
 20
-15.8596517
 10
91.015424764
 20
-15.8065251249
 10
90.8936069763
 20
-15.7467167559
 10
90.7755346616
 20
-15.6808075711
 10
90.6613428038
 20
-15.6088135978
 10
90.5508964191
 20
-15.5307191958
 10
90.4449555809
 20
-15.4470578377
 10
90.3434449052
 20
-15.3576831439
 10
90.246439776
 20
-15.2627419648
 10
90.1549264193
 20
-15.1632075855
 10
90.069063523
 20
-15.0591763712
 10
89.9886923992
 20
-14.9505524382
 10
89.9143232098
 20
-14.8380206421
 10
89.8459055482
 20
-14.7213816486
 10
89.783489821
 20
-14.6008352992
 10
89.7277374099
 20
-14.4776651191
 10
89.6787836759
 20
-14.3520438712
 10
89.636493258
 20
-14.2237991945
 10
89.6011214553
 20
-14.0936968109
 10
89.5726751967
 20
-13.961506147
 10
89.5511475533
 20
-13.8274581346
 10
89.5367730375
 20
-13.6930106027
 10
89.5296292591
 20
-13.5583852603
 10
89.5296386084
 20
-13.4233605406
 10
89.5368027684
 20
-13.2887291932
 10
89.5511998772
 20
-13.1542679654
 10
89.5727517966
 20
-13.0202001531
 10
89.6012257954
 20
-12.8879881505
 10
89.6366290525
 20
-12.7578631797
 10
89.678954389
 20
-12.6295937983
 10
89.7279475361
 20
-12.5039482242
 10
89.7837457413
 20
-12.3807516704
 10
89.8462117573
 20
-12.2601785974
 10
89.9146795731
 20
-12.1435209343
 10
89.9890976911
 20
-12.0309809454
 10
90.0695176089
 20
-11.9223558328
 10
90.155427808
 20
-11.8183297905
 10
90.2469896233
 20
-11.7188046283
 10
90.3440417198
 20
-11.6238779575
 10
90.4455885743
 20
-11.5345275759
 10
90.5515510541
 20
-11.4509032831
 10
90.6620082919
 20
-11.3728546402
 10
90.7762021629
 20
-11.3009090201
 10
90.8942699624
 20
-11.2350488365
 10
91.0160743952
 20
-11.1752911037
 10
91.1404454504
 20
-11.1222150772
 10
91.2673440824
 20
-11.0759148456
 10
91.3968093367
 20
-11.0362958541
 10
91.52778834
 20
-11.0036544055
 10
91.6602855883
 20
-10.9780399515
 10
91.7942965855
 20
-10.9594027509
 10
91.9287549691
 20
-10.9478903575
  0
LWPOLYLINE
  5
3DC
100
AcDbEntity
  8
ASSI
100
AcDbPolyline
 62
7
  6
CONTINUOUS
 90
6
 70
0
 10
91.8330586518
 20
-15.2573399902
 10
91.9334318479
 20
-15.2683882072
 10
92.0338012451
 20
-15.2737951645
 10
92.1337873207
 20
-15.2735279861
 10
92.2337695976
 20
-15.2676195344
 10
92.3337480757
 20
-15.2560698251
  0
LINE
  5
3DD
100
AcDbEntity
  8
ASSI
100
AcDbLine
 62
7
  6
CONTINUOUS
 10
110.6121664777
 20
21.6769387843
 11
110.3267138194
 21
23.0759979858
  0
LINE
  5
3DE
100
AcDbEntity
  8
ASSI
100
AcDbLine
 62
7
  6
CONTINUOUS
 10
110.6121663234
 20
21.6769393497
 11
110.8888897857
 21
20.2762242605
  0
LINE
  5
3DF
100
AcDbEntity
  8
ASSI
100
AcDbLine
 62
7
  6
CONTINUOUS
 10
110.8888897857
 20
20.2762242605
 11
111.1568839615
 21
18.8738535601
  0
LWPOLYLINE
  5
3E0
100
AcDbEntity
  8
ASSI
100
AcDbPolyline
 62
7
  6
CONTINUOUS
 90
4
 70
0
 10
111.1568839615
 20
18.8738535601
 10
111.4161588965
 20
17.4697719958
 10
111.666704545
 20
16.0640348204
 10
111.9084906541
 20
14.6568084199
  0
LINE
  5
3E1
100
AcDbEntity
  8
ASSI
100
AcDbLine
 62
7
  6
CONTINUOUS
 10
111.9084906593
 20
14.6568083884
 11
112.1415071467
 21
13.2481482145
  0
LINE
  5
3E2
100
AcDbEntity
  8
ASSI
100
AcDbLine
 62
7
  6
CONTINUOUS
 10
112.1415071467
 20
13.2481482145
 11
112.3657640949
 21
11.8379988154
  0
LINE
  5
3E3
100
AcDbEntity
  8
ASSI
100
AcDbLine
 62
7
  6
CONTINUOUS
 10
112.3657640949
 20
11.8379988154
 11
112.5812615037
 21
10.4263601914
  0
LINE
  5
3E4
100
AcDbEntity
  8
ASSI
100
AcDbLine
 62
7
  6
CONTINUOUS
 10
112.5812615037
 20
10.4263601914
 11
112.8379711839
 21
8.6620304956
  0
LWPOLYLINE
  5
3E5
100
AcDbEntity
  8
ASSI
100
AcDbPolyline
 62
7
  6
CONTINUOUS
 90
4
 70
0
 10
96.2637549691
 20
-10.9478903575
 10
96.3983052849
 20
-10.9435519279
 10
96.5333029871
 20
-10.9463382244
 10
96.6687480757
 20
-10.9562492613
  0
LWPOLYLINE
  5
3E6
100
AcDbEntity
  8
ASSI
100
AcDbPolyline
 62
7
  6
CONTINUOUS
 90
4
 70
0
 10
91.9287549691
 20
-10.9478903575
 10
92.0633052849
 20
-10.9435519279
 10
92.1983029871
 20
-10.9463382244
 10
92.3337480757
 20
-10.9562492613
  0
LINE
  5
3E7
100
AcDbEntity
  8
ASSI
100
AcDbLine
 62
7
  6
CONTINUOUS
 10
94.6702120757
 20
-13.8731930396
 11
96.1587480757
 21
-13.8731930396
  0
LINE
  5
3E8
100
AcDbEntity
  8
ASSI
100
AcDbLine
 62
7
  6
CONTINUOUS
 10
94.6702116198
 20
-13.1089199179
 11
96.1587480757
 21
-13.1089199179
  0
LWPOLYLINE
  5
3E9
100
AcDbEntity
  8
ASSI
100
AcDbPolyline
 62
7
  6
CONTINUOUS
 90
56
 70
0
 10
92.3337480757
 20
-11.7260431324
 10
92.2337826161
 20
-11.7144957906
 10
92.1338175851
 20
-11.7085869178
 10
92.0338529825
 20
-11.7083164917
 10
91.9335105397
 20
-11.7137178079
 10
91.8331685254
 20
-11.7247575903
 10
91.7339617454
 20
-11.74133599
 10
91.6359666391
 20
-11.7635132264
 10
91.5391067672
 20
-11.7912292243
 10
91.4442876181
 20
-11.8242037175
 10
91.3515721075
 20
-11.8624489793
 10
91.2608973198
 20
-11.9059529844
 10
91.1729799964
 20
-11.9543990305
 10
91.0878720295
 20
-12.0077440141
 10
91.0055215269
 20
-12.0660313639
 10
90.9264895539
 20
-12.1290741818
 10
90.8505926137
 20
-12.1970995316
 10
90.7780142031
 20
-12.2698807492
 10
90.7098658771
 20
-12.3465503151
 10
90.6462640293
 20
-12.4271895588
 10
90.5870922661
 20
-12.5117175239
 10
90.5331129618
 20
-12.5990231731
 10
90.4845008286
 20
-12.6888714562
 10
90.4410811543
 20
-12.7814976941
 10
90.4030921765
 20
-12.8764963274
 10
90.3704626226
 20
-12.9738973534
 10
90.3432637652
 20
-13.0736710183
 10
90.3219476589
 20
-13.1753220855
 10
90.3065376239
 20
-13.2793138228
 10
90.2970103401
 20
-13.3851831666
 10
90.2937479012
 20
-13.4910452377
 10
90.2970064591
 20
-13.59689635
 10
90.306529862
 20
-13.7027401431
 10
90.3219317487
 20
-13.8067025003
 10
90.3432323955
 20
-13.9083188371
 10
90.3704115261
 20
-14.0080534651
 10
90.4030219495
 20
-14.1054254795
 10
90.4409933022
 20
-14.2004108423
 10
90.4843959478
 20
-14.2930333134
 10
90.5329937855
 20
-14.3828836469
 10
90.5869646846
 20
-14.4701987387
 10
90.6461307759
 20
-14.5547414184
 10
90.7097223506
 20
-14.6353912822
 10
90.77785199
 20
-14.7120614738
 10
90.8504071128
 20
-14.7848385191
 10
90.9262802672
 20
-14.8528620246
 10
91.0052849253
 20
-14.9159054417
 10
91.0876076149
 20
-14.9741949961
 10
91.1727004672
 20
-15.02754944
 10
91.2606221568
 20
-15.0760164561
 10
91.3513140092
 20
-15.1195481147
 10
91.4440521315
 20
-15.1578197571
 10
91.5388990596
 20
-15.1908171928
 10
91.6357922577
 20
-15.2185544321
 10
91.7338202254
 20
-15.2407491277
 10
91.8330586518
 20
-15.2573399902
  0
LWPOLYLINE
  5
3EA
100
AcDbEntity
  8
ASSI
100
AcDbPolyline
 62
7
  6
CONTINUOUS
 90
34
 70
0
 10
96.6687480757
 20
-11.7260431324
 10
96.5881657877
 20
-11.7162953506
 10
96.5075143578
 20
-11.7102143053
 10
96.4267937861
 20
-11.7077999815
 10
96.3458299509
 20
-11.7090587171
 10
96.2647969738
 20
-11.7139841714
 10
96.1842172199
 20
-11.7225573244
 10
96.1040810705
 20
-11.7348100813
 10
96.0243981443
 20
-11.7507105882
 10
95.9457196619
 20
-11.770144198
 10
95.8680983929
 20
-11.793118066
 10
95.7914815678
 20
-11.8196251369
 10
95.7162620995
 20
-11.8495294567
 10
95.6423939693
 20
-11.8828764084
 10
95.5699231959
 20
-11.9196207513
 10
95.4993807481
 20
-11.9594905982
 10
95.430836534
 20
-12.0024693632
 10
95.3642206454
 20
-12.0485737996
 10
95.2998543265
 20
-12.0975820239
 10
95.2376951952
 20
-12.1495566509
 10
95.1777856336
 20
-12.2044352529
 10
95.1205740326
 20
-12.2618083687
 10
95.0661228962
 20
-12.3216458182
 10
95.0143697204
 20
-12.3839779603
 10
94.9655753835
 20
-12.4484861196
 10
94.9197269665
 20
-12.5152232318
 10
94.8768373884
 20
-12.5841365318
 10
94.8372062857
 20
-12.6547487627
 10
94.8008681778
 20
-12.7270574868
 10
94.7677885452
 20
-12.8010652779
 10
94.7381634653
 20
-12.8763023556
 10
94.7120582974
 20
-12.952612149
 10
94.6894076822
 20
-13.0301513203
 10
94.6702116198
 20
-13.1089199179
  0
LWPOLYLINE
  5
3EB
100
AcDbEntity
  8
ASSI
100
AcDbPolyline
 62
250
  6
CONTINUOUS
 90
7
 70
0
 10
83.1520038724
 20
-1.9569376175
 10
83.1791499085
 20
-1.9720675293
 10
83.206425551
 20
-1.9870967029
 10
83.2338308979
 20
-2.0020251294
 10
83.2613660433
 20
-2.0168527998
 10
83.2890310769
 20
-2.0315797053
 10
83.3168260842
 20
-2.0462058369
  0
LWPOLYLINE
  5
3EC
100
AcDbEntity
  8
ASSI
100
AcDbPolyline
 62
250
  6
CONTINUOUS
 90
7
 70
0
 10
84.0422211019
 20
-1.0401605189
 10
84.0661607207
 20
-1.0546182733
 10
84.0902200387
 20
-1.0689817463
 10
84.1143990558
 20
-1.0832513517
 10
84.138697772
 20
-1.0974275026
 10
84.1631161873
 20
-1.1115106117
 10
84.1876543017
 20
-1.1255010908
  0
LWPOLYLINE
  5
3ED
100
AcDbEntity
  8
ASSI
100
AcDbPolyline
 62
250
  6
CONTINUOUS
 90
16
 70
0
 10
85.3911655766
 20
19.950479194
 10
85.3407314011
 20
20.0144246999
 10
85.2905206526
 20
20.0806934643
 10
85.2407557687
 20
20.1489919115
 10
85.1916572116
 20
20.2190174741
 10
85.1434424918
 20
20.2904599333
 10
85.0963252043
 20
20.3630027936
 10
85.0505140823
 20
20.4363246844
 10
85.0062120727
 20
20.5101007841
 10
84.963615437
 20
20.5840042587
 10
84.9229128818
 20
20.6577077096
 10
84.8842847225
 20
20.7308846252
 10
84.8479020839
 20
20.8032108277
 10
84.8139261441
 20
20.8743659067
 10
84.7825074195
 20
20.944034639
 10
84.7537850979
 20
21.0119083865
  0
LWPOLYLINE
  5
3EE
100
AcDbEntity
  8
ASSI
100
AcDbPolyline
 62
250
  6
CONTINUOUS
 90
13
 70
0
 10
102.0090192191
 20
-2.1285165369
 10
102.0887975487
 20
-2.118153676
 10
102.1680829402
 20
-2.108488259
 10
102.2466749239
 20
-2.0994572928
 10
102.3244258714
 20
-2.0908903026
 10
102.401065789
 20
-2.0828375603
 10
102.4761807234
 20
-2.0755451078
 10
102.5494678062
 20
-2.0688976857
 10
102.6207283752
 20
-2.062823678
 10
102.6896662084
 20
-2.0575999988
 10
102.7559968517
 20
-2.0532386341
 10
102.8194652182
 20
-2.049493482
 10
102.8798103524
 20
-2.0462373546
  0
LWPOLYLINE
  5
3EF
100
AcDbEntity
  8
ASSI
100
AcDbPolyline
 62
250
  6
CONTINUOUS
 90
13
 70
0
 10
102.2365596868
 20
-4.003077416
 10
102.3199063212
 20
-3.9939972045
 10
102.4029056947
 20
-3.9854148576
 10
102.4852119943
 20
-3.9773661332
 10
102.5664822946
 20
-3.969884566
 10
102.6463779869
 20
-3.9630013275
 10
102.7245661896
 20
-3.9567450964
 10
102.8007211353
 20
-3.951141939
 10
102.8745255282
 20
-3.9462152006
 10
102.9456718658
 20
-3.941985408
 10
103.0138637205
 20
-3.9384701846
 10
103.0788169743
 20
-3.9356841763
 10
103.1402610027
 20
-3.9336389909
  0
LWPOLYLINE
  5
3F0
100
AcDbEntity
  8
ASSI
100
AcDbPolyline
 62
250
  6
CONTINUOUS
 90
13
 70
0
 10
102.355007157
 20
-5.1072341356
 10
102.4394889292
 20
-5.0987810955
 10
102.5236097475
 20
-5.0908091914
 10
102.6070102004
 20
-5.0833524839
 10
102.6893339541
 20
-5.0764428321
 10
102.7702292749
 20
-5.0701097582
 10
102.8493505325
 20
-5.0643803204
 10
102.9263596762
 20
-5.0592789982
 10
103.0009276794
 20
-5.0548275874
 10
103.0727359455
 20
-5.0510451068
 10
103.1414776691
 20
-5.0479477174
 10
103.2068591468
 20
-5.0455486529
 10
103.2686010319
 20
-5.0438581636
  0
LWPOLYLINE
  5
3F1
100
AcDbEntity
  8
ASSI
100
AcDbPolyline
 62
250
  6
CONTINUOUS
 90
12
 70
0
 10
72.9972519304
 20
-5.3405958254
 10
72.8097260929
 20
-5.3545503556
 10
72.637175974
 20
-5.3688285603
 10
72.4797958395
 20
-5.3834383908
 10
72.3378957073
 20
-5.3983778847
 10
72.2118463608
 20
-5.4136342124
 10
72.1018517238
 20
-5.4292091707
 10
72.0081132397
 20
-5.4451050824
 10
71.9309026173
 20
-5.4613082342
 10
71.8703945558
 20
-5.4778145251
 10
71.8267202138
 20
-5.494630379
 10
71.8000391471
 20
-5.5117570513
  0
LINE
  5
3F2
100
AcDbEntity
  8
ASSI
100
AcDbLine
 62
250
  6
CONTINUOUS
 10
73.2938443216
 20
-5.3209846198
 11
72.9972519304
 21
-5.3405958254
  0
LINE
  5
3F3
100
AcDbEntity
  8
ASSI
100
AcDbLine
 62
250
  6
CONTINUOUS
 10
73.587594567
 20
-5.3034148341
 11
73.2938443216
 21
-5.3209846198
  0
LINE
  5
3F4
100
AcDbEntity
  8
ASSI
100
AcDbLine
 62
250
  6
CONTINUOUS
 10
73.8973198209
 20
-5.2863784596
 11
73.587594567
 21
-5.3034148341
  0
LINE
  5
3F5
100
AcDbEntity
  8
ASSI
100
AcDbLine
 62
250
  6
CONTINUOUS
 10
74.1126781904
 20
-5.275306936
 11
73.8973198209
 21
-5.2863784596
  0
LWPOLYLINE
  5
3F6
100
AcDbEntity
  8
ASSI
100
AcDbPolyline
 62
250
  6
CONTINUOUS
 90
16
 70
0
 10
82.9280751194
 20
-5.0438581636
 10
82.2231309532
 20
-5.0533662988
 10
81.5320074179
 20
-5.0636916793
 10
80.8553716098
 20
-5.0748411072
 10
80.193534115
 20
-5.0868283468
 10
79.5475673279
 20
-5.099654197
 10
78.9192046602
 20
-5.11330199
 10
78.3098001489
 20
-5.1277561067
 10
77.7191717703
 20
-5.1430357941
 10
77.1467153945
 20
-5.159177604
 10
76.5932620944
 20
-5.1761817872
 10
76.0591575749
 20
-5.1940630214
 10
75.5433421411
 20
-5.212892727
 10
75.0461240492
 20
-5.2327091982
 10
74.5689430829
 20
-5.2535084661
 10
74.1126781904
 20
-5.275306936
  0
LWPOLYLINE
  5
3F7
100
AcDbEntity
  8
ASSI
100
AcDbPolyline
 62
250
  6
CONTINUOUS
 90
15
 70
0
 10
103.2686010319
 20
-5.0438581636
 10
103.973545194
 20
-5.0533662988
 10
104.6646687266
 20
-5.0636916792
 10
105.3413045332
 20
-5.074841107
 10
106.0031420282
 20
-5.0868283466
 10
106.6491088166
 20
-5.0996541968
 10
107.2774714854
 20
-5.1133019898
 10
107.8868759975
 20
-5.1277561066
 10
108.4775043769
 20
-5.143035794
 10
109.0499607534
 20
-5.1591776039
 10
109.6034140541
 20
-5.1761817871
 10
110.1375185742
 20
-5.1940630213
 10
110.6533340086
 20
-5.2128927269
 10
111.1505521011
 20
-5.2327091982
 10
111.627733068
 20
-5.253508466
  0
LINE
  5
3F8
100
AcDbEntity
  8
ASSI
100
AcDbLine
 62
250
  6
CONTINUOUS
 10
111.627733068
 20
-5.253508466
 11
112.1925559357
 21
-5.2808140804
  0
LINE
  5
3F9
100
AcDbEntity
  8
ASSI
100
AcDbLine
 62
250
  6
CONTINUOUS
 10
112.1925559357
 20
-5.2808140804
 11
112.5076295229
 21
-5.2976787179
  0
LINE
  5
3FA
100
AcDbEntity
  8
ASSI
100
AcDbLine
 62
250
  6
CONTINUOUS
 10
112.5076295229
 20
-5.2976787179
 11
112.7087706169
 21
-5.3092108235
  0
LINE
  5
3FB
100
AcDbEntity
  8
ASSI
100
AcDbLine
 62
250
  6
CONTINUOUS
 10
112.7087706169
 20
-5.3092108235
 11
112.9028318297
 21
-5.3209846198
  0
LWPOLYLINE
  5
3FC
100
AcDbEntity
  8
ASSI
100
AcDbPolyline
 62
250
  6
CONTINUOUS
 90
13
 70
0
 10
112.9028318297
 20
-5.3209846198
 10
113.1994242209
 20
-5.3405958254
 10
113.3869500584
 20
-5.3545503556
 10
113.5595001773
 20
-5.3688285603
 10
113.7168803118
 20
-5.3834383908
 10
113.858780444
 20
-5.3983778847
 10
113.9848297905
 20
-5.4136342124
 10
114.0948244275
 20
-5.4292091707
 10
114.1885629116
 20
-5.4451050824
 10
114.2657735341
 20
-5.4613082342
 10
114.3262815955
 20
-5.4778145251
 10
114.3699559376
 20
-5.494630379
 10
114.3966370042
 20
-5.5117570513
  0
LWPOLYLINE
  5
3FD
100
AcDbEntity
  8
ASSI
100
AcDbPolyline
 62
250
  6
CONTINUOUS
 90
13
 70
0
 10
83.8416689943
 20
-5.1072341356
 10
83.7571872217
 20
-5.0987810955
 10
83.6730664031
 20
-5.0908091914
 10
83.5896659499
 20
-5.0833524838
 10
83.5073421961
 20
-5.0764428321
 10
83.4264468752
 20
-5.0701097581
 10
83.3473256176
 20
-5.0643803204
 10
83.270316474
 20
-5.0592789982
 10
83.1957484709
 20
-5.0548275874
 10
83.123940205
 20
-5.0510451068
 10
83.0551984816
 20
-5.0479477174
 10
82.9898170042
 20
-5.0455486529
 10
82.9280751194
 20
-5.0438581636
  0
LWPOLYLINE
  5
3FE
100
AcDbEntity
  8
ASSI
100
AcDbPolyline
 62
250
  6
CONTINUOUS
 90
13
 70
0
 10
83.9601164645
 20
-4.003077416
 10
83.8767698359
 20
-3.9939972047
 10
83.7937704671
 20
-3.9854148579
 10
83.7114641711
 20
-3.9773661335
 10
83.630193873
 20
-3.9698845662
 10
83.5502981819
 20
-3.9630013277
 10
83.4721099792
 20
-3.9567450964
 10
83.3959550325
 20
-3.9511419389
 10
83.3221506376
 20
-3.9462152003
 10
83.2510042972
 20
-3.9419854077
 10
83.182812439
 20
-3.9384701843
 10
83.1178591813
 20
-3.9356841761
 10
83.0564151486
 20
-3.9336389909
  0
LWPOLYLINE
  5
3FF
100
AcDbEntity
  8
ASSI
100
AcDbPolyline
 62
7
  6
CONTINUOUS
 90
5
 70
0
 10
110.1569673321
 20
23.6241639568
 10
110.2093983385
 20
23.4899642539
 10
110.2550668234
 20
23.3540941436
 10
110.2941719837
 20
23.2161053876
 10
110.3267138194
 20
23.0759979858
  0
LINE
  5
400
100
AcDbEntity
  8
ASSI
100
AcDbLine
 62
250
  6
CONTINUOUS
 10
84.1876077329
 20
-2.1285165369
 11
102.009127277
 21
-2.1285165369
  0
LINE
  5
401
100
AcDbEntity
  8
ASSI
100
AcDbLine
 62
250
  6
CONTINUOUS
 10
84.1876543017
 20
-1.1255010908
 11
102.0087162876
 21
-1.1255010908
  0
LWPOLYLINE
  5
402
100
AcDbEntity
  8
ASSI
100
AcDbPolyline
 62
250
  6
CONTINUOUS
 90
7
 70
0
 10
83.3168657989
 20
-2.0462373546
 10
83.3772930375
 20
-2.0489400635
 10
83.4407424034
 20
-2.0527951604
 10
83.5070099452
 20
-2.0575999113
 10
83.5758940523
 20
-2.0629381326
 10
83.6471572022
 20
-2.0687909506
 10
83.7204954294
 20
-2.0755449904
  0
LWPOLYLINE
  5
403
100
AcDbEntity
  8
ASSI
100
AcDbPolyline
 62
250
  6
CONTINUOUS
 90
3
 70
0
 10
83.7204954294
 20
-2.0755449904
 10
83.8721758535
 20
-2.0908014606
 10
83.9500012277
 20
-2.0994572048
  0
LINE
  5
404
100
AcDbEntity
  8
ASSI
100
AcDbLine
 62
250
  6
CONTINUOUS
 10
83.9500012277
 20
-2.0994572048
 11
84.1876569322
 21
-2.1285165369
  0
LWPOLYLINE
  5
405
100
AcDbEntity
  8
ASSI
100
AcDbPolyline
 62
250
  6
CONTINUOUS
 90
16
 70
0
 10
102.1544550494
 20
-1.0401605189
 10
102.2262627969
 20
-1.0714999533
 10
102.2977181644
 20
-1.1081675985
 10
102.3684705004
 20
-1.1499835163
 10
102.4381726032
 20
-1.1967425043
 10
102.5064824247
 20
-1.2482151033
 10
102.5730647494
 20
-1.3041487228
 10
102.6375928389
 20
-1.364268881
 10
102.6997500356
 20
-1.4282805515
 10
102.7592313163
 20
-1.4958696111
 10
102.8157447896
 20
-1.5667043813
 10
102.8690131275
 20
-1.640437256
 10
102.918774927
 20
-1.7167064071
 10
102.9647859929
 20
-1.7951375604
 10
103.0068205354
 20
-1.8753458321
 10
103.0446722789
 20
-1.9569376175
  0
LWPOLYLINE
  5
406
100
AcDbEntity
  8
ASSI
100
AcDbPolyline
 62
7
  6
CONTINUOUS
 90
21
 70
0
 10
110.1569672077
 20
23.6241635186
 10
110.0979729362
 20
23.7562445539
 10
110.0330129207
 20
23.8848622538
 10
109.9621947861
 20
24.00971417
 10
109.8854109076
 20
24.1311027509
 10
109.8029359836
 20
24.2485905357
 10
109.7146067105
 20
24.3623562188
 10
109.620586392
 20
24.4722211058
 10
109.5216396377
 20
24.5772116524
 10
109.4176994773
 20
24.6772616977
 10
109.3088328813
 20
24.7724374027
 10
109.1960053708
 20
24.8619637063
 10
109.0793937991
 20
24.9456754262
 10
108.958821313
 20
25.0237377448
 10
108.8347228747
 20
25.0958711485
 10
108.7067974942
 20
25.162186288
 10
108.5753461615
 20
25.2225725127
 10
108.4417068094
 20
25.2764183566
 10
108.3063254153
 20
25.3235199977
 10
108.1687560019
 20
25.3640812579
 10
108.028998569
 20
25.3981021373
  0
LINE
  5
407
100
AcDbEntity
  8
ASSI
100
AcDbLine
 62
7
  6
CONTINUOUS
 10
86.4879230757
 20
7.0215525099
 11
87.2236400757
 21
7.0215525099
  0
LINE
  5
408
100
AcDbEntity
  8
ASSI
100
AcDbLine
 62
7
  6
CONTINUOUS
 10
88.8190600757
 20
7.0215525099
 11
89.6539150757
 21
7.0215525099
  0
LINE
  5
409
100
AcDbEntity
  8
ASSI
100
AcDbLine
 62
7
  6
CONTINUOUS
 10
90.1033440757
 20
7.0215525099
 11
90.9020280757
 21
7.0215525099
  0
LINE
  5
40A
100
AcDbEntity
  8
ASSI
100
AcDbLine
 62
7
  6
CONTINUOUS
 10
92.0615760757
 20
7.0215525099
 11
92.1786640757
 21
7.0215525099
  0
LINE
  5
40B
100
AcDbEntity
  8
ASSI
100
AcDbLine
 62
7
  6
CONTINUOUS
 10
93.3428310757
 20
7.0215525099
 11
94.1595410757
 21
7.0215525099
  0
LINE
  5
40C
100
AcDbEntity
  8
ASSI
100
AcDbLine
 62
7
  6
CONTINUOUS
 10
94.2906350757
 20
7.0215525099
 11
95.1164330757
 21
7.0215525099
  0
LINE
  5
40D
100
AcDbEntity
  8
ASSI
100
AcDbLine
 62
7
  6
CONTINUOUS
 10
96.7000060757
 20
7.0215525099
 11
97.5799090757
 21
7.0215525099
  0
LINE
  5
40E
100
AcDbEntity
  8
ASSI
100
AcDbLine
 62
7
  6
CONTINUOUS
 10
97.8250627559
 20
7.0215523979
 11
98.6565586669
 21
7.0215523979
  0
LINE
  5
40F
100
AcDbEntity
  8
ASSI
100
AcDbLine
 62
7
  6
CONTINUOUS
 10
99.9350241191
 20
7.0215523979
 11
100.7380577007
 21
7.0215523979
  0
LINE
  5
410
100
AcDbEntity
  8
ASSI
100
AcDbLine
 62
7
  6
CONTINUOUS
 10
99.9714343065
 20
8.8884892565
 11
100.0014077818
 21
8.8753527054
  0
LWPOLYLINE
  5
411
100
AcDbEntity
  8
ASSI
100
AcDbPolyline
 62
7
  6
CONTINUOUS
 90
21
 70
0
 10
100.0014077818
 20
8.8753527054
 10
100.0310498782
 20
8.8594994492
 10
100.0603605958
 20
8.8409315789
 10
100.0895549379
 20
8.8195489652
 10
100.1184179012
 20
8.7954571386
 10
100.1463044756
 20
8.7689668968
 10
100.172978754
 20
8.7401573573
 10
100.1986766435
 20
8.7089561039
 10
100.2234608554
 20
8.675446647
 10
100.2473448881
 20
8.6396489749
 10
100.2703152432
 20
8.6015516226
 10
100.292394138
 20
8.5611912512
 10
100.3136166547
 20
8.5185444281
 10
100.3339477111
 20
8.4736452007
 10
100.3533042766
 20
8.4266166688
 10
100.3715155396
 20
8.3773682606
 10
100.3887523118
 20
8.3260030147
 10
100.4054439978
 20
8.2729335806
 10
100.4217337325
 20
8.2183009979
 10
100.437478381
 20
8.1619759934
 10
100.4526779432
 20
8.1039650443
  0
LWPOLYLINE
  5
412
100
AcDbEntity
  8
ASSI
100
AcDbPolyline
 62
7
  6
CONTINUOUS
 90
31
 70
0
 10
97.8250627559
 20
10.9743371184
 10
97.9198920151
 20
10.9879987487
 10
98.0114909892
 20
11.0005071132
 10
98.099859678
 20
11.0118619084
 10
98.1847770388
 20
11.022028997
 10
98.2664641143
 20
11.0310419981
 10
98.345584033
 20
11.0390023075
 10
98.4221463552
 20
11.0459017004
 10
98.4961415205
 20
11.0517480856
 10
98.5682039762
 20
11.0566671277
 10
98.6383481083
 20
11.0606701054
 10
98.7065595307
 20
11.0637455769
 10
98.7734295318
 20
11.065985172
 10
98.8389556734
 20
11.0674182098
 10
98.9031403937
 20
11.0680153118
 10
98.9665822957
 20
11.0677800879
 10
99.0292827172
 20
11.0667529632
 10
99.0912403205
 20
11.0648935327
 10
99.1530496952
 20
11.0620841859
 10
99.214859001
 20
11.05834421
 10
99.2765200782
 20
11.0536544395
 10
99.3381830375
 20
11.0478396317
 10
99.3999584325
 20
11.0409487215
 10
99.4617357096
 20
11.0329330554
 10
99.5233333186
 20
11.023471116
 10
99.5848176071
 20
11.0125847336
 10
99.6461222274
 20
11.0002526757
 10
99.7068665866
 20
10.9860890492
 10
99.7669238203
 20
10.9699656569
 10
99.8264207928
 20
10.9520118928
 10
99.8853575043
 20
10.9322284667
  0
LWPOLYLINE
  5
413
100
AcDbEntity
  8
ASSI
100
AcDbPolyline
 62
250
  6
CONTINUOUS
 90
16
 70
0
 10
106.4747006876
 20
10.7660104332
 10
106.55580165
 20
10.7773369292
 10
106.6365800819
 20
10.7879903101
 10
106.7167147057
 20
10.7979282073
 10
106.7958868046
 20
10.8071110963
 10
106.8737814901
 20
10.8155024555
 10
106.9500889542
 20
10.8230689114
 10
107.0245057026
 20
10.8297803653
 10
107.0967357601
 20
10.8356101238
 10
107.1664918476
 20
10.8405350086
 10
107.2334965396
 20
10.844535425
 10
107.2974833279
 20
10.847595458
 10
107.3581976858
 20
10.8497029491
 10
107.4153981319
 20
10.8508495173
 10
107.4688571847
 20
10.8510305895
 10
107.5183622314
 20
10.8502454383
  0
LWPOLYLINE
  5
414
100
AcDbEntity
  8
ASSI
100
AcDbPolyline
 62
250
  6
CONTINUOUS
 90
13
 70
0
 10
74.7960578499
 20
10.6443437388
 10
74.6261805886
 20
10.6283718797
 10
74.4686429414
 20
10.6120035406
 10
74.3236365011
 20
10.5952352515
 10
74.191318547
 20
10.578058563
 10
74.0719276665
 20
10.5604747498
 10
73.9657454652
 20
10.5424958096
 10
73.8729366338
 20
10.5241194015
 10
73.7936641201
 20
10.5053426441
 10
73.728140829
 20
10.4861784731
 10
73.6765118579
 20
10.4666304017
 10
73.6388916022
 20
10.4466915661
 10
73.6154146476
 20
10.4263601914
  0
LINE
  5
415
100
AcDbEntity
  8
ASSI
100
AcDbLine
 62
250
  6
CONTINUOUS
 10
74.9567194083
 20
10.6582547247
 11
74.7960578499
 21
10.6443437388
  0
LINE
  5
416
100
AcDbEntity
  8
ASSI
100
AcDbLine
 62
250
  6
CONTINUOUS
 10
75.1248761237
 20
10.6718649861
 11
74.9567194083
 21
10.6582547247
  0
LINE
  5
417
100
AcDbEntity
  8
ASSI
100
AcDbLine
 62
250
  6
CONTINUOUS
 10
75.3004427981
 20
10.6851785428
 11
75.1248761237
 21
10.6718649861
  0
LINE
  5
418
100
AcDbEntity
  8
ASSI
100
AcDbLine
 62
250
  6
CONTINUOUS
 10
75.5776715375
 20
10.7046114155
 11
75.3004427981
 21
10.6851785428
  0
LWPOLYLINE
  5
419
100
AcDbEntity
  8
ASSI
100
AcDbPolyline
 62
250
  6
CONTINUOUS
 90
10
 70
0
 10
78.6783017519
 20
10.8501750559
 10
78.2826482118
 20
10.8364200401
 10
77.8996883198
 20
10.8220956768
 10
77.5296799429
 20
10.8072014756
 10
77.1737393597
 20
10.7917755393
 10
76.8312002837
 20
10.775781556
 10
76.4999490437
 20
10.759094938
 10
76.1798031096
 20
10.7416598577
 10
75.872176153
 20
10.7235031099
 10
75.5776715375
 20
10.7046114155
  0
LWPOLYLINE
  5
41A
100
AcDbEntity
  8
ASSI
100
AcDbPolyline
 62
7
  6
CONTINUOUS
 90
34
 70
0
 10
99.1059875453
 20
9.2417640486
 10
99.1372358773
 20
9.2427574152
 10
99.1683705438
 20
9.2446687275
 10
99.1993915448
 20
9.2474980607
 10
99.2303403935
 20
9.2511890892
 10
99.2611755768
 20
9.2557983894
 10
99.2917725546
 20
9.2614954768
 10
99.3221457068
 20
9.2682704496
 10
99.3522806535
 20
9.2761337839
 10
99.3820097149
 20
9.2852857373
 10
99.4114019755
 20
9.295714859
 10
99.4403883509
 20
9.3074336554
 10
99.468593908
 20
9.3206786037
 10
99.496039847
 20
9.3355253342
 10
99.5227049679
 20
9.3519000138
 10
99.548150737
 20
9.3698151834
 10
99.5723248088
 20
9.3893560213
 10
99.5952795288
 20
9.4104397075
 10
99.6167334012
 20
9.4328267133
 10
99.6366219987
 20
9.4565689382
 10
99.6550097484
 20
9.4816168258
 10
99.6718084355
 20
9.5075781422
 10
99.6870013671
 20
9.5344282263
 10
99.700605236
 20
9.5621934503
 10
99.7125819066
 20
9.5905574224
 10
99.7228614186
 20
9.6195005788
 10
99.7315137323
 20
9.6490435662
 10
99.7387105917
 20
9.6789296842
 10
99.7444042568
 20
9.7091412221
 10
99.7486424677
 20
9.7396963961
 10
99.7517401894
 20
9.770391879
 10
99.7538024102
 20
9.8011598109
 10
99.754724142
 20
9.8320680502
 10
99.7545053845
 20
9.8631166175
  0
LINE
  5
41B
100
AcDbEntity
  8
ASSI
100
AcDbLine
 62
7
  6
CONTINUOUS
 10
95.3468010757
 20
7.8199975099
 11
96.4837340757
 21
7.8199975099
  0
LINE
  5
41C
100
AcDbEntity
  8
ASSI
100
AcDbLine
 62
7
  6
CONTINUOUS
 10
95.5175750757
 20
8.4378305099
 11
96.3168890757
 21
8.4378305099
  0
LINE
  5
41D
100
AcDbEntity
  8
ASSI
100
AcDbLine
 62
7
  6
CONTINUOUS
 10
98.6565586669
 20
8.5867405781
 11
99.1041880303
 21
8.5867405781
  0
LINE
  5
41E
100
AcDbEntity
  8
ASSI
100
AcDbLine
 62
7
  6
CONTINUOUS
 10
98.6288761273
 20
9.2417640486
 11
99.1059875453
 21
9.2417640486
  0
LINE
  5
41F
100
AcDbEntity
  8
ASSI
100
AcDbLine
 62
7
  6
CONTINUOUS
 10
85.2200000757
 20
11.0210645099
 11
86.1269100757
 21
11.0210645099
  0
LINE
  5
420
100
AcDbEntity
  8
ASSI
100
AcDbLine
 62
7
  6
CONTINUOUS
 10
87.6749580757
 20
11.0210645099
 11
88.5092430757
 21
11.0210645099
  0
LINE
  5
421
100
AcDbEntity
  8
ASSI
100
AcDbLine
 62
7
  6
CONTINUOUS
 10
90.4644760757
 20
11.0210645099
 11
91.2986420757
 21
11.0210645099
  0
LINE
  5
422
100
AcDbEntity
  8
ASSI
100
AcDbLine
 62
7
  6
CONTINUOUS
 10
92.9595340757
 20
11.0210645099
 11
93.7855410757
 21
11.0210645099
  0
LINE
  5
423
100
AcDbEntity
  8
ASSI
100
AcDbLine
 62
7
  6
CONTINUOUS
 10
95.5451370757
 20
11.0210645099
 11
96.3527590757
 21
11.0210645099
  0
LINE
  5
424
100
AcDbEntity
  8
ASSI
100
AcDbLine
 62
7
  6
CONTINUOUS
 10
88.8190600757
 20
11.0213045099
 11
89.6539150757
 21
11.0213045099
  0
LWPOLYLINE
  5
425
100
AcDbEntity
  8
ASSI
100
AcDbPolyline
 62
250
  6
CONTINUOUS
 90
9
 70
0
 10
107.5183745091
 20
10.8501750522
 10
107.9140279984
 20
10.8364200379
 10
108.2969878541
 20
10.8220956759
 10
108.6669962082
 20
10.8072014756
 10
109.0229367843
 20
10.7917755396
 10
109.3654758641
 20
10.7757815562
 10
109.6967271075
 20
10.759094938
 10
110.0168730416
 20
10.7416598577
 10
110.3244999983
 20
10.7235031099
  0
LINE
  5
426
100
AcDbEntity
  8
ASSI
100
AcDbLine
 62
250
  6
CONTINUOUS
 10
110.3244999983
 20
10.7235031099
 11
110.7132448865
 21
10.6982055253
  0
LINE
  5
427
100
AcDbEntity
  8
ASSI
100
AcDbLine
 62
250
  6
CONTINUOUS
 10
110.7132448865
 20
10.6982055253
 11
110.8962333532
 21
10.6851785428
  0
LINE
  5
428
100
AcDbEntity
  8
ASSI
100
AcDbLine
 62
250
  6
CONTINUOUS
 10
110.8962333532
 20
10.6851785428
 11
111.0718000276
 21
10.6718649861
  0
LINE
  5
429
100
AcDbEntity
  8
ASSI
100
AcDbLine
 62
250
  6
CONTINUOUS
 10
111.0718000276
 20
10.6718649861
 11
111.239956743
 21
10.6582547247
  0
LINE
  5
42A
100
AcDbEntity
  8
ASSI
100
AcDbLine
 62
250
  6
CONTINUOUS
 10
111.239956743
 20
10.6582547247
 11
111.4006183015
 21
10.6443437388
  0
LWPOLYLINE
  5
42B
100
AcDbEntity
  8
ASSI
100
AcDbPolyline
 62
250
  6
CONTINUOUS
 90
10
 70
0
 10
111.4006183015
 20
10.6443437388
 10
111.6247890888
 20
10.6229190838
 10
111.8266744034
 20
10.6008026446
 10
112.0058714623
 20
10.5779876027
 10
112.1620363385
 20
10.5544566921
 10
112.2946737163
 20
10.5302129198
 10
112.4032423291
 20
10.5052822982
 10
112.4873877351
 20
10.4796716237
 10
112.5468368372
 20
10.4533657438
 10
112.5812615037
 20
10.4263601914
  0
LWPOLYLINE
  5
42C
100
AcDbEntity
  8
ASSI
100
AcDbPolyline
 62
7
  6
CONTINUOUS
 90
10
 70
0
 10
99.2828883137
 20
10.3632543079
 10
99.2117230458
 20
10.3704570715
 10
99.1401113533
 20
10.3751576211
 10
99.0680532361
 20
10.377355625
 10
98.9954543792
 20
10.3769874144
 10
98.9224090977
 20
10.3741165281
 10
98.8492003372
 20
10.3689336961
 10
98.7759224129
 20
10.3615027615
 10
98.7024810096
 20
10.3517606991
 10
98.6288761273
 20
10.3397081515
  0
LWPOLYLINE
  5
42D
100
AcDbEntity
  8
ASSI
100
AcDbPolyline
 62
250
  6
CONTINUOUS
 90
16
 70
0
 10
79.7219754637
 20
10.7660104332
 10
79.6408725224
 20
10.7773230209
 10
79.5600921763
 20
10.787962947
 10
79.4799557096
 20
10.7978878908
 10
79.4007818458
 20
10.8070583771
 10
79.3228854797
 20
10.8154379315
 10
79.2465764253
 20
10.8229932247
 10
79.1721581842
 20
10.8296942127
 10
79.0999267373
 20
10.8355142435
 10
79.0301693667
 20
10.8404301615
 10
78.9631635293
 20
10.8444224215
 10
78.899175712
 20
10.8474751498
 10
78.838460376
 20
10.8495761924
 10
78.7812589979
 20
10.8507171922
 10
78.7277991034
 20
10.8508936235
 10
78.678293325
 20
10.8501047918
  0
LWPOLYLINE
  5
42E
100
AcDbEntity
  8
ASSI
100
AcDbPolyline
 62
7
  6
CONTINUOUS
 90
61
 70
0
 10
99.8853575043
 20
10.9322284667
 10
99.931885488
 20
10.9133786455
 10
99.9787521925
 20
10.8903545663
 10
100.0259576178
 20
10.8631583561
 10
100.0737929115
 20
10.8319463286
 10
100.121966926
 20
10.7965676983
 10
100.1696062183
 20
10.7565650256
 10
100.2171454644
 20
10.7116044302
 10
100.2641499884
 20
10.6620298593
 10
100.3084423193
 20
10.608401381
 10
100.3498363286
 20
10.5503383212
 10
100.3885181449
 20
10.488234611
 10
100.4228686836
 20
10.4238098576
 10
100.4524514496
 20
10.3565990936
 10
100.4777029379
 20
10.2870786858
 10
100.4983135494
 20
10.2183718457
 10
100.5137162961
 20
10.1509258852
 10
100.5244781659
 20
10.0842922829
 10
100.5319905233
 20
10.0202405097
 10
100.5363726019
 20
9.9594578021
 10
100.5375051679
 20
9.9012476411
 10
100.5364218846
 20
9.845300731
 10
100.5332726464
 20
9.7915277677
 10
100.5279075589
 20
9.7400109966
 10
100.5209106016
 20
9.6906991487
 10
100.5123155181
 20
9.6436233631
 10
100.5020885648
 20
9.5987456483
 10
100.4907124907
 20
9.5559114594
 10
100.478204084
 20
9.5151331085
 10
100.4645465564
 20
9.4763923415
 10
100.4501722914
 20
9.439489428
 10
100.4351112586
 20
9.4044352904
 10
100.4193334883
 20
9.3712141145
 10
100.4031814553
 20
9.3395868021
 10
100.3867159637
 20
9.3095235832
 10
100.3698762093
 20
9.281050445
 10
100.3528222544
 20
9.2540125306
 10
100.335556004
 20
9.2284076073
 10
100.3180755531
 20
9.2042348564
 10
100.3005352493
 20
9.1813419772
 10
100.2829281164
 20
9.1597504379
 10
100.2652611306
 20
9.1394363739
 10
100.247709568
 20
9.1201799225
 10
100.230278278
 20
9.1019935516
 10
100.2129624112
 20
9.0848630858
 10
100.1959226953
 20
9.0685291536
 10
100.1791832304
 20
9.0529728588
 10
100.1627199164
 20
9.0382119964
 10
100.1466211799
 20
9.0240426037
 10
100.130942546
 20
9.0104011031
 10
100.1156284897
 20
8.9973503708
 10
100.1006008619
 20
8.9848762903
 10
100.0859087159
 20
8.9728642869
 10
100.0715029986
 20
8.9614283412
 10
100.0571584019
 20
8.9508970222
 10
100.0428179504
 20
8.9412023175
 10
100.0285386197
 20
8.9324114133
 10
100.0142660281
 20
8.9250553376
 10
99.9999820484
 20
8.9193107116
 10
99.9857048079
 20
8.9149999922
 10
99.9714343065
 20
8.9121228872
  0
LWPOLYLINE
  5
42F
100
AcDbEntity
  8
ASSI
100
AcDbPolyline
 62
250
  6
CONTINUOUS
 90
9
 70
0
 10
75.8699627041
 20
23.0759992993
 10
75.8766579188
 20
23.0739955848
 10
75.8938002616
 20
23.0725484422
 10
75.9213449754
 20
23.0716526125
 10
75.9589796741
 20
23.0712932547
 10
76.006800656
 20
23.0714762374
 10
76.0659372388
 20
23.0722231759
 10
76.1366772204
 20
23.0734629483
 10
76.3182257529
 20
23.0777761037
  0
LWPOLYLINE
  5
430
100
AcDbEntity
  8
ASSI
100
AcDbPolyline
 62
250
  6
CONTINUOUS
 90
19
 70
0
 10
100.8055105747
 20
19.950479194
 10
100.4941211874
 20
20.1279422695
 10
100.1668188495
 20
20.2978798541
 10
99.823603561
 20
20.4603897663
 10
99.4640810131
 20
20.6161799489
 10
99.0886455147
 20
20.7647325199
 10
98.6984799928
 20
20.9043406246
 10
98.2933655351
 20
21.0351084443
 10
97.8735210539
 20
21.1571879041
 10
97.4407862135
 20
21.2690002373
 10
96.9946586481
 20
21.3707122963
 10
96.5356407235
 20
21.4624310014
 10
96.0670792008
 20
21.5425254518
 10
95.5887433694
 20
21.610960425
 10
95.1008639399
 20
21.6680154162
 10
94.6074798064
 20
21.7125409319
 10
94.1099372669
 20
21.7442067318
 10
93.6068900233
 20
21.7634892451
 10
93.0983380757
 20
21.7704254764
  0
LWPOLYLINE
  5
431
100
AcDbEntity
  8
ASSI
100
AcDbPolyline
 62
250
  6
CONTINUOUS
 90
19
 70
0
 10
101.4428910463
 20
21.01190839
 10
101.0991789559
 20
21.2153215025
 10
100.7393361833
 20
21.4101822656
 10
100.3632555113
 20
21.5965243776
 10
99.970420736
 20
21.7749718831
 10
99.5612094624
 20
21.944968237
 10
99.1369133809
 20
22.1047858421
 10
98.6974608528
 20
22.2543906206
 10
98.2429723267
 20
22.3939008387
 10
97.7750933276
 20
22.5218297488
 10
97.2933982194
 20
22.6382704325
 10
96.7984829246
 20
22.7432061236
 10
96.2935126676
 20
22.8349898857
 10
95.7782621464
 20
22.9134889791
 10
95.2530533452
 20
22.9788834507
 10
94.7219421597
 20
23.0299917091
 10
94.1863707109
 20
23.0664194046
 10
93.6451332373
 20
23.0885555181
 10
93.0983380757
 20
23.0963803467
  0
LWPOLYLINE
  5
432
100
AcDbEntity
  8
ASSI
100
AcDbPolyline
 62
250
  6
CONTINUOUS
 90
19
 70
0
 10
93.0983380757
 20
23.0963803374
 10
92.5484705578
 20
23.0879182394
 10
92.0082434274
 20
23.0658639874
 10
91.4777511154
 20
23.0302396624
 10
90.9568997648
 20
22.9806012476
 10
90.4459327477
 20
22.9174055769
 10
89.9454494843
 20
22.8420112518
 10
89.4565334129
 20
22.7548631152
 10
88.9781624206
 20
22.6554776508
 10
88.5078118644
 20
22.543807808
 10
88.043935253
 20
22.4196144648
 10
87.5883981798
 20
22.2830496644
 10
87.1438476779
 20
22.1346457305
 10
86.7098617418
 20
21.9738784553
 10
86.2871181094
 20
21.8011624003
 10
85.879758823
 20
21.6184507441
 10
85.4891114259
 20
21.4263699689
 10
85.1138013335
 20
21.2242046008
 10
84.7537851042
 20
21.0119083804
  0
LWPOLYLINE
  5
433
100
AcDbEntity
  8
ASSI
100
AcDbPolyline
 62
250
  6
CONTINUOUS
 90
19
 70
0
 10
93.0983380757
 20
21.7704254764
 10
92.5869831183
 20
21.7629359422
 10
92.0848704598
 20
21.7437247972
 10
91.5920001003
 20
21.7127570456
 10
91.1081176847
 20
21.6695146473
 10
90.633477568
 20
21.6143801973
 10
90.1688428148
 20
21.5486503116
 10
89.7150987049
 20
21.472602006
 10
89.2713599585
 20
21.3857445072
 10
88.8357338015
 20
21.2882160607
 10
88.4065944275
 20
21.1796637952
 10
87.985567643
 20
21.0601512361
 10
87.5756380927
 20
20.93044252
 10
87.1764638593
 20
20.7900003645
 10
86.7883868601
 20
20.639046399
 10
86.4154174925
 20
20.479528
 10
86.0588925556
 20
20.3120276704
 10
85.7174752503
 20
20.1357200146
 10
85.3911655766
 20
19.950479194
  0
LWPOLYLINE
  5
434
100
AcDbEntity
  8
ASSI
100
AcDbPolyline
 62
250
  6
CONTINUOUS
 90
19
 70
0
 10
100.1441290608
 20
25.307976629
 10
100.220793576
 20
25.2692789201
 10
100.2964046545
 20
25.2225449415
 10
100.3707519271
 20
25.1679047189
 10
100.4436285408
 20
25.1055102754
 10
100.5148317344
 20
25.0355352081
 10
100.5841634025
 20
24.9581742053
 10
100.6514306469
 20
24.8736425051
 10
100.716446313
 20
24.7821752959
 10
100.7790295108
 20
24.6840270628
 10
100.8390061178
 20
24.579470879
 10
100.896209264
 20
24.4687976463
 10
100.9504797957
 20
24.3523152857
 10
101.0016667185
 20
24.2303478807
 10
101.0496276175
 20
24.1032347755
 10
101.0942290531
 20
23.971329631
 10
101.1353469329
 20
23.8349994406
 10
101.1728668566
 20
23.6946235097
 10
101.2066844341
 20
23.5505923995
  0
LWPOLYLINE
  5
435
100
AcDbEntity
  8
ASSI
100
AcDbPolyline
 62
250
  6
CONTINUOUS
 90
22
 70
0
 10
79.4590960085
 20
25.3903035653
 10
79.3143610647
 20
25.3513535538
 10
79.1717585472
 20
25.3039481587
 10
79.0317054314
 20
25.2482259952
 10
78.8946112381
 20
25.1843499972
 10
78.7608768362
 20
25.1125069405
 10
78.6308932703
 20
25.0329068971
 10
78.5050406174
 20
24.9457826206
 10
78.3836868756
 20
24.8513888659
 10
78.2671868881
 20
24.750001644
 10
78.1558813054
 20
24.6419174152
 10
78.0500955894
 20
24.527452222
 10
77.9501390617
 20
24.406940765
 10
77.8563039991
 20
24.2807354247
 10
77.7688647789
 20
24.1492052303
 10
77.6880770771
 20
24.0127347813
 10
77.6141771198
 20
23.8717231227
 10
77.5473809936
 20
23.7265825781
 10
77.4878840128
 20
23.5777375442
 10
77.4358601491
 20
23.4256232498
 10
77.3914615222
 20
23.270684483
 10
77.3548179555
 20
23.1133742909
  0
LWPOLYLINE
  5
436
100
AcDbEntity
  8
ASSI
100
AcDbPolyline
 62
250
  6
CONTINUOUS
 90
22
 70
0
 10
78.9112647194
 20
25.3952207327
 10
78.7599161042
 20
25.355939961
 10
78.6108269778
 20
25.3080553737
 10
78.4644409539
 20
25.2517094512
 10
78.3211936032
 20
25.1870698502
 10
78.1815111571
 20
25.1143289057
 10
78.04580924
 20
25.0337030577
 10
77.9144916321
 20
24.9454322079
 10
77.7879490679
 20
24.8497790057
 10
77.6665580741
 20
24.7470280667
 10
77.5506798488
 20
24.6374851254
 10
77.4406591869
 20
24.5214761263
 10
77.3368234543
 20
24.3993462534
 10
77.2394816133
 20
24.2714589033
 10
77.148923304
 20
24.1381946039
 10
77.0654179822
 20
23.9999498825
 10
76.9892141173
 20
23.8571360851
 10
76.9205384535
 20
23.7101781534
 10
76.8595953348
 20
23.5595133598
 10
76.8065660969
 20
23.4055900063
 10
76.7616085281
 20
23.2488660909
 10
76.7248563993
 20
23.0898079446
  0
LWPOLYLINE
  5
437
100
AcDbEntity
  8
ASSI
100
AcDbPolyline
 62
250
  6
CONTINUOUS
 90
4
 70
0
 10
78.1676776598
 20
25.3981021601
 10
78.1743013374
 20
25.3985197916
 10
78.1898324982
 20
25.398825762
 10
78.2142645191
 20
25.3990201027
  0
LINE
  5
438
100
AcDbEntity
  8
ASSI
100
AcDbLine
 62
250
  6
CONTINUOUS
 10
79.6311881932
 20
23.234633301
 11
82.2991154142
 21
23.3955784616
  0
LINE
  5
439
100
AcDbEntity
  8
ASSI
100
AcDbLine
 62
250
  6
CONTINUOUS
 10
82.2991154142
 20
23.3955784616
 11
83.1621956956
 21
23.446699528
  0
LINE
  5
43A
100
AcDbEntity
  8
ASSI
100
AcDbLine
 62
250
  6
CONTINUOUS
 10
78.9775773516
 20
23.1967187115
 11
79.6311881932
 21
23.234633301
  0
LINE
  5
43B
100
AcDbEntity
  8
ASSI
100
AcDbLine
 62
250
  6
CONTINUOUS
 10
83.1621956956
 20
23.446699528
 11
84.0606690605
 21
23.4984535431
  0
LINE
  5
43C
100
AcDbEntity
  8
ASSI
100
AcDbLine
 62
250
  6
CONTINUOUS
 10
84.0606690605
 20
23.4984535431
 11
84.9899916118
 21
23.5505924899
  0
LWPOLYLINE
  5
43D
100
AcDbEntity
  8
ASSI
100
AcDbPolyline
 62
250
  6
CONTINUOUS
 90
16
 70
0
 10
84.9899916118
 20
23.5505924899
 10
85.4690446518
 20
23.5760392759
 10
85.9609866905
 20
23.599233907
 10
86.4654373609
 20
23.6201816383
 10
86.983126528
 20
23.6387164947
 10
87.5125261909
 20
23.6550114608
 10
88.0496946263
 20
23.6695810184
 10
88.593085654
 20
23.6825181007
 10
89.1430261245
 20
23.6937363943
 10
89.698266419
 20
23.7034830401
 10
90.2585009717
 20
23.7118671013
 10
90.8230049207
 20
23.718781581
 10
91.3899137939
 20
23.7241496807
 10
91.9582390218
 20
23.7279456799
 10
92.5278907944
 20
23.7301940446
 10
93.0983380757
 20
23.7308927245
  0
LWPOLYLINE
  5
43E
100
AcDbEntity
  8
ASSI
100
AcDbPolyline
 62
250
  6
CONTINUOUS
 90
5
 70
0
 10
77.5860551153
 20
23.1237308212
 10
77.833265318
 20
23.1355131705
 10
78.0962373867
 20
23.1487117457
 10
78.3752430429
 20
23.1633963084
 10
78.9775773516
 20
23.1967187115
  0
LINE
  5
43F
100
AcDbEntity
  8
ASSI
100
AcDbLine
 62
250
  6
CONTINUOUS
 10
77.2009837138
 20
23.1069606013
 11
77.5860551153
 21
23.1237308212
  0
LINE
  5
440
100
AcDbEntity
  8
ASSI
100
AcDbLine
 62
250
  6
CONTINUOUS
 10
76.91694659
 20
23.0961353354
 11
77.2009837138
 21
23.1069606013
  0
LINE
  5
441
100
AcDbEntity
  8
ASSI
100
AcDbLine
 62
250
  6
CONTINUOUS
 10
76.7248563965
 20
23.0898079452
 11
76.91694659
 21
23.0961353354
  0
LINE
  5
442
100
AcDbEntity
  8
ASSI
100
AcDbLine
 62
250
  6
CONTINUOUS
 10
76.3182257529
 20
23.0777761037
 11
76.7248563965
 21
23.0898079452
  0
LINE
  5
443
100
AcDbEntity
  8
ASSI
100
AcDbLine
 62
250
  6
CONTINUOUS
 10
101.3377931017
 20
25.3219854126
 11
105.5972664526
 21
25.3770539182
  0
LINE
  5
444
100
AcDbEntity
  8
ASSI
100
AcDbLine
 62
250
  6
CONTINUOUS
 10
100.1441290634
 20
25.3079766537
 11
101.3377931017
 21
25.3219854126
  0
LINE
  5
445
100
AcDbEntity
  8
ASSI
100
AcDbLine
 62
250
  6
CONTINUOUS
 10
105.5972664526
 20
25.3770539182
 11
106.3221779119
 21
25.3858336324
  0
LINE
  5
446
100
AcDbEntity
  8
ASSI
100
AcDbLine
 62
250
  6
CONTINUOUS
 10
106.3221779119
 20
25.3858336324
 11
106.9354387531
 21
25.3922403654
  0
LINE
  5
447
100
AcDbEntity
  8
ASSI
100
AcDbLine
 62
250
  6
CONTINUOUS
 10
99.3177027254
 20
25.2998943854
 11
100.1441290634
 21
25.3079766537
  0
LINE
  5
448
100
AcDbEntity
  8
ASSI
100
AcDbLine
 62
250
  6
CONTINUOUS
 10
106.9354387531
 20
25.3922403654
 11
107.4070349021
 21
25.3961270293
  0
LINE
  5
449
100
AcDbEntity
  8
ASSI
100
AcDbLine
 62
250
  6
CONTINUOUS
 10
98.4391890607
 20
25.2932282356
 11
99.3177027254
 21
25.2998943854
  0
LINE
  5
44A
100
AcDbEntity
  8
ASSI
100
AcDbLine
 62
250
  6
CONTINUOUS
 10
97.5148412192
 20
25.2879218771
 11
98.4391890607
 21
25.2932282356
  0
LINE
  5
44B
100
AcDbEntity
  8
ASSI
100
AcDbLine
 62
250
  6
CONTINUOUS
 10
107.4070349021
 20
25.3961270293
 11
107.8359192436
 21
25.3988559736
  0
LINE
  5
44C
100
AcDbEntity
  8
ASSI
100
AcDbLine
 62
250
  6
CONTINUOUS
 10
96.5622750434
 20
25.2837449666
 11
97.5148412192
 21
25.2879218771
  0
LINE
  5
44D
100
AcDbEntity
  8
ASSI
100
AcDbLine
 62
250
  6
CONTINUOUS
 10
95.5870481288
 20
25.2806110479
 11
96.5622750434
 21
25.2837449666
  0
LINE
  5
44E
100
AcDbEntity
  8
ASSI
100
AcDbLine
 62
250
  6
CONTINUOUS
 10
94.5959964868
 20
25.2784933373
 11
95.5870481288
 21
25.2806110479
  0
LWPOLYLINE
  5
44F
100
AcDbEntity
  8
ASSI
100
AcDbPolyline
 62
250
  6
CONTINUOUS
 90
6
 70
0
 10
107.8359192436
 20
25.3988559736
 10
107.9370897819
 20
25.3991131561
 10
107.9744547921
 20
25.3990540588
 10
108.0027859473
 20
25.3988645599
 10
108.02117487
 20
25.3985472728
 10
108.0289984915
 20
25.3981021601
  0
LINE
  5
450
100
AcDbEntity
  8
ASSI
100
AcDbLine
 62
250
  6
CONTINUOUS
 10
93.5983445467
 20
25.2774189308
 11
94.5959964868
 21
25.2784933373
  0
LINE
  5
451
100
AcDbEntity
  8
ASSI
100
AcDbLine
 62
250
  6
CONTINUOUS
 10
86.9115953814
 20
26.7350210438
 11
99.2850807699
 21
26.7350210438
  0
LINE
  5
452
100
AcDbEntity
  8
ASSI
100
AcDbLine
 62
250
  6
CONTINUOUS
 10
87.0483380757
 20
26.8844340413
 11
99.1483380757
 21
26.8844340413
  0
LINE
  5
453
100
AcDbEntity
  8
ASSI
100
AcDbLine
 62
250
  6
CONTINUOUS
 10
87.0483380757
 20
27.7840195434
 11
99.1483380757
 21
27.7840195434
  0
LINE
  5
454
100
AcDbEntity
  8
ASSI
100
AcDbLine
 62
250
  6
CONTINUOUS
 10
87.679917023
 20
28.5660900959
 11
98.5167591283
 21
28.5660900959
  0
LINE
  5
455
100
AcDbEntity
  8
ASSI
100
AcDbLine
 62
250
  6
CONTINUOUS
 10
87.7983380757
 20
28.7127283245
 11
98.3983380757
 21
28.7127283245
  0
LINE
  5
456
100
AcDbEntity
  8
ASSI
100
AcDbLine
 62
250
  6
CONTINUOUS
 10
87.7983380757
 20
29.2089555099
 11
98.3983380757
 21
29.2089555099
  0
LINE
  5
457
100
AcDbEntity
  8
ASSI
100
AcDbLine
 62
7
  6
CONTINUOUS
 10
88.5983380757
 20
30.0089555099
 11
97.5983380757
 21
30.0089555099
  0
LWPOLYLINE
  5
458
100
AcDbEntity
  8
0
100
AcDbPolyline
 62
7
  6
CONTINUOUS
 90
3
 70
0
 43
0.3500000006
 10
94.5983339539
 20
41.4542541504
 10
93.0983425598
 20
41.4542541504
 10
93.7411960144
 20
43.8113970795
  0
LWPOLYLINE
  5
459
100
AcDbEntity
  8
0
100
AcDbPolyline
 62
7
  6
CONTINUOUS
 90
3
 70
0
 43
0.3500000006
 10
92.2411955566
 20
41.4542541504
 10
90.7411950989
 20
41.4542541504
 10
91.3840485535
 20
43.8113970795
  0
LINE
  5
45A
100
AcDbEntity
  8
ASSI
100
AcDbLine
 62
250
  6
CONTINUOUS
 10
92.5983307963
 20
25.2774189444
 11
93.5983445467
 21
25.2774189308
  0
LINE
  5
45B
100
AcDbEntity
  8
ASSI
100
AcDbLine
 62
250
  6
CONTINUOUS
 10
78.2142645191
 20
25.3990201027
 11
78.2892654056
 21
25.3990817006
  0
LWPOLYLINE
  5
45C
100
AcDbEntity
  8
ASSI
100
AcDbPolyline
 62
250
  6
CONTINUOUS
 90
16
 70
0
 10
93.0983380757
 20
23.7308927245
 10
93.668784441
 20
23.7301941191
 10
94.238441132
 20
23.7279457162
 10
94.8067770584
 20
23.7241495624
 10
95.3737062447
 20
23.7187811396
 10
95.9382360335
 20
23.7118662111
 10
96.4984901521
 20
23.7034817214
 10
97.0537386212
 20
23.6937347301
 10
97.603681222
 20
23.6825161212
 10
98.1470723622
 20
23.6695787312
 10
98.6842426236
 20
23.6550087216
 10
99.2136421193
 20
23.6387133114
 10
99.7313221872
 20
23.620178455
 10
100.2357529132
 20
23.5992313207
 10
100.7276669826
 20
23.5760377477
 10
101.2066845396
 20
23.5505924899
  0
LINE
  5
45D
100
AcDbEntity
  8
ASSI
100
AcDbLine
 62
250
  6
CONTINUOUS
 10
91.6006925007
 20
25.2784933165
 11
92.5983307963
 21
25.2774189444
  0
LINE
  5
45E
100
AcDbEntity
  8
ASSI
100
AcDbLine
 62
250
  6
CONTINUOUS
 10
90.6096811901
 20
25.2806108947
 11
91.6006925007
 21
25.2784933165
  0
LINE
  5
45F
100
AcDbEntity
  8
ASSI
100
AcDbLine
 62
250
  6
CONTINUOUS
 10
89.6344783523
 20
25.2837446805
 11
90.6096811901
 21
25.2806108947
  0
LINE
  5
460
100
AcDbEntity
  8
ASSI
100
AcDbLine
 62
250
  6
CONTINUOUS
 10
88.6819137725
 20
25.2879214816
 11
89.6344783523
 21
25.2837446805
  0
LINE
  5
461
100
AcDbEntity
  8
ASSI
100
AcDbLine
 62
250
  6
CONTINUOUS
 10
87.757566682
 20
25.2932276941
 11
88.6819137725
 21
25.2879214816
  0
LINE
  5
462
100
AcDbEntity
  8
ASSI
100
AcDbLine
 62
250
  6
CONTINUOUS
 10
78.2892654056
 20
25.3990817006
 11
78.5599650124
 21
25.397737743
  0
LINE
  5
463
100
AcDbEntity
  8
ASSI
100
AcDbLine
 62
250
  6
CONTINUOUS
 10
86.8790277186
 20
25.2998939522
 11
87.757566682
 21
25.2932276941
  0
LINE
  5
464
100
AcDbEntity
  8
ASSI
100
AcDbLine
 62
250
  6
CONTINUOUS
 10
78.5599650124
 20
25.397737743
 11
79.1377467828
 21
25.3933695355
  0
LINE
  5
465
100
AcDbEntity
  8
ASSI
100
AcDbLine
 62
250
  6
CONTINUOUS
 10
86.0525470879
 20
25.3079766537
 11
86.8790277186
 21
25.2998939522
  0
LINE
  5
466
100
AcDbEntity
  8
ASSI
100
AcDbLine
 62
250
  6
CONTINUOUS
 10
79.1377467828
 20
25.3933695355
 11
79.6599758822
 21
25.3882036955
  0
LINE
  5
467
100
AcDbEntity
  8
ASSI
100
AcDbLine
 62
250
  6
CONTINUOUS
 10
79.6599758822
 20
25.3882036955
 11
80.3443841515
 21
25.3802590913
  0
LINE
  5
468
100
AcDbEntity
  8
ASSI
100
AcDbLine
 62
250
  6
CONTINUOUS
 10
80.3443841515
 20
25.3802590913
 11
82.0370664621
 21
25.3580653536
  0
LINE
  5
469
100
AcDbEntity
  8
ASSI
100
AcDbLine
 62
250
  6
CONTINUOUS
 10
82.0370664621
 20
25.3580653536
 11
86.0525470879
 21
25.3079766537
  0
LWPOLYLINE
  5
46A
100
AcDbEntity
  8
ASSI
100
AcDbPolyline
 62
250
  6
CONTINUOUS
 90
7
 70
0
 10
110.107816509
 20
23.0725942843
 10
110.1711876146
 20
23.0716647207
 10
110.2237605383
 20
23.0712785182
 10
110.2662927487
 20
23.0715111172
 10
110.2982690856
 20
23.0723863761
 10
110.3186516226
 20
23.0738818102
 10
110.3267134472
 20
23.0759992993
  0
LINE
  5
46B
100
AcDbEntity
  8
ASSI
100
AcDbLine
 62
250
  6
CONTINUOUS
 10
109.9486064585
 20
23.0759561962
 11
110.107816509
 21
23.0725942843
  0
LINE
  5
46C
100
AcDbEntity
  8
ASSI
100
AcDbLine
 62
250
  6
CONTINUOUS
 10
109.6127621609
 20
23.0854637001
 11
109.9486064585
 21
23.0759561962
  0
LINE
  5
46D
100
AcDbEntity
  8
ASSI
100
AcDbLine
 62
250
  6
CONTINUOUS
 10
109.2797303447
 20
23.0961353078
 11
109.6127621609
 21
23.0854637001
  0
LINE
  5
46E
100
AcDbEntity
  8
ASSI
100
AcDbLine
 62
250
  6
CONTINUOUS
 10
108.9956931177
 20
23.1069605747
 11
109.2797303447
 21
23.0961353078
  0
LINE
  5
46F
100
AcDbEntity
  8
ASSI
100
AcDbLine
 62
250
  6
CONTINUOUS
 10
108.841858571
 20
23.1133743821
 11
108.9956931177
 21
23.1069605747
  0
LWPOLYLINE
  5
470
100
AcDbEntity
  8
ASSI
100
AcDbPolyline
 62
250
  6
CONTINUOUS
 90
5
 70
0
 10
107.8214612703
 20
23.1633948751
 10
108.1004663955
 20
23.1487103214
 10
108.3634321756
 20
23.1355120222
 10
108.6106329263
 20
23.1237301446
 10
108.841858571
 20
23.1133743821
  0
LINE
  5
471
100
AcDbEntity
  8
ASSI
100
AcDbLine
 62
250
  6
CONTINUOUS
 10
107.2191194292
 20
23.1967175397
 11
107.8214612703
 21
23.1633948751
  0
LINE
  5
472
100
AcDbEntity
  8
ASSI
100
AcDbLine
 62
250
  6
CONTINUOUS
 10
101.2066845396
 20
23.5505924899
 11
102.1360163084
 21
23.4984530174
  0
LINE
  5
473
100
AcDbEntity
  8
ASSI
100
AcDbLine
 62
250
  6
CONTINUOUS
 10
102.1360163084
 20
23.4984530174
 11
103.0344965411
 21
23.4466985844
  0
LINE
  5
474
100
AcDbEntity
  8
ASSI
100
AcDbLine
 62
250
  6
CONTINUOUS
 10
106.5655104271
 20
23.2346319699
 11
107.2191194292
 21
23.1967175397
  0
LINE
  5
475
100
AcDbEntity
  8
ASSI
100
AcDbLine
 62
250
  6
CONTINUOUS
 10
103.0344965411
 20
23.4466985844
 11
103.8975826757
 21
23.3955771481
  0
LWPOLYLINE
  5
476
100
AcDbEntity
  8
ASSI
100
AcDbPolyline
 62
250
  6
CONTINUOUS
 90
3
 70
0
 10
103.8975826757
 20
23.3955771481
 10
105.8625837367
 20
23.2766000451
 10
106.5655104271
 20
23.2346319699
  0
LWPOLYLINE
  5
477
100
AcDbEntity
  8
ASSI
100
AcDbPolyline
 62
250
  6
CONTINUOUS
 90
22
 70
0
 10
107.2854114278
 20
25.3952207127
 10
107.4367600388
 20
25.3559399375
 10
107.585849161
 20
25.3080553473
 10
107.7322351806
 20
25.2517094222
 10
107.8754825271
 20
25.1870698192
 10
108.0151649688
 20
25.114328873
 10
108.1508668817
 20
25.0337030237
 10
108.2821844856
 20
24.9454321731
 10
108.4087270457
 20
24.8497789705
 10
108.5301180356
 20
24.7470280314
 10
108.6459962572
 20
24.6374850904
 10
108.7560169155
 20
24.5214760919
 10
108.8598526449
 20
24.3993462198
 10
108.9571944827
 20
24.2714588708
 10
109.047752789
 20
24.1381945729
 10
109.1312581082
 20
23.9999498531
 10
109.2074619706
 20
23.8571360576
 10
109.2761376322
 20
23.7101781279
 10
109.337080749
 20
23.5595133364
 10
109.3901099852
 20
23.4055899853
 10
109.4350675526
 20
23.2488660723
 10
109.4718196802
 20
23.0898079285
  0
LWPOLYLINE
  5
478
100
AcDbEntity
  8
ASSI
100
AcDbPolyline
 62
250
  6
CONTINUOUS
 90
22
 70
0
 10
106.7375801525
 20
25.3903036142
 10
106.8823151159
 20
25.3513536163
 10
107.0249176534
 20
25.3039482336
 10
107.1649707895
 20
25.2482260812
 10
107.3020650034
 20
25.1843500931
 10
107.435799426
 20
25.1125070451
 10
107.5657830127
 20
25.0329070092
 10
107.6916356862
 20
24.9457827389
 10
107.8129894484
 20
24.8513889892
 10
107.9294894559
 20
24.7500017711
 10
108.0407950583
 20
24.6419175448
 10
108.1465807934
 20
24.527452353
 10
108.2465373396
 20
24.4069408963
 10
108.34037242
 20
24.2807355552
 10
108.4278116571
 20
24.1492053589
 10
108.508599375
 20
24.012734907
 10
108.5824993473
 20
23.8717232446
 10
108.6492954876
 20
23.7265826954
 10
108.7087924812
 20
23.577737656
 10
108.7608163565
 20
23.4256233553
 10
108.8052149938
 20
23.2706845815
 10
108.8418585696
 20
23.1133743818
  0
ARC
  5
479
100
AcDbEntity
  8
ASSI
100
AcDbCircle
 62
7
  6
CONTINUOUS
 10
-221.6987727796
 20
-23.4910444901
 40
229.5
100
AcDbArc
 50
2.2516672419
 51
3.5215245254
  0
ARC
  5
47A
100
AcDbEntity
  8
ASSI
100
AcDbCircle
 62
7
  6
CONTINUOUS
 10
-221.6987727796
 20
-23.4910444901
 40
229.5
100
AcDbArc
 50
1.74785477
 51
1.9992220706
  0
ARC
  5
47B
100
AcDbEntity
  8
ASSI
100
AcDbCircle
 62
7
  6
CONTINUOUS
 10
-221.6987727796
 20
-23.4910444901
 40
229.45
100
AcDbArc
 50
0.0
 51
5.3421569561
  0
ARC
  5
47C
100
AcDbEntity
  8
0
100
AcDbCircle
 62
7
  6
CONTINUOUS
 10
-40.6440313269
 20
-35.4910444901
 40
0.5
100
AcDbArc
 50
196.8548135492
 51
270.0
  0
ARC
  5
47D
100
AcDbEntity
  8
ASSI
100
AcDbCircle
 62
7
  6
CONTINUOUS
 10
-47.6487727796
 20
12.7089555099
 40
16.0
100
AcDbArc
 50
300.1568327113
 51
34.4955253364
  0
ARC
  5
47E
100
AcDbEntity
  8
ASSI
100
AcDbCircle
 62
7
  6
CONTINUOUS
 10
-47.6487727796
 20
12.7089555099
 40
15.95
100
AcDbArc
 50
339.1098740854
 51
354.0950164065
  0
ARC
  5
47F
100
AcDbEntity
  8
ASSI
100
AcDbCircle
 62
7
  6
CONTINUOUS
 10
-31.5593608494
 20
22.3514874179
 40
2.9999999984
100
AcDbArc
 50
102.7709250987
 51
152.6256845359
  0
ARC
  5
480
100
AcDbEntity
  8
ASSI
100
AcDbCircle
 62
7
  6
CONTINUOUS
 10
-38.9577951431
 20
-2.2495506897
 40
1.3
100
AcDbArc
 50
120.1568327113
 51
174.6578430439
  0
ARC
  5
481
100
AcDbEntity
  8
ASSI
100
AcDbCircle
 62
7
  6
CONTINUOUS
 10
-33.3906244947
 20
22.5066699113
 40
1.3000000002
100
AcDbArc
 50
153.0235903511
 51
214.4955253364
  0
ARC
  5
482
100
AcDbEntity
  8
ASSI
100
AcDbCircle
 62
7
  6
CONTINUOUS
 10
-21.2487727796
 20
29.2089555099
 40
0.8
100
AcDbArc
 50
90.0
 51
180.0
  0
ARC
  5
483
100
AcDbEntity
  8
ASSI
100
AcDbCircle
 62
7
  6
CONTINUOUS
 10
-21.9987727796
 20
27.7840195434
 40
0.8
100
AcDbArc
 50
102.153197469
 51
180.0
  0
ARC
  5
484
100
AcDbEntity
  8
ASSI
100
AcDbCircle
 62
7
  6
CONTINUOUS
 10
-22.1987727796
 20
28.7127283245
 40
0.15
100
AcDbArc
 50
282.153197469
 51
360.0
  0
ARC
  5
485
100
AcDbEntity
  8
ASSI
100
AcDbCircle
 62
7
  6
CONTINUOUS
 10
-22.9487727796
 20
26.8844340413
 40
0.15
100
AcDbArc
 50
275.0705337743
 51
360.0
  0
ARC
  5
486
100
AcDbEntity
  8
ASSI
100
AcDbCircle
 62
7
  6
CONTINUOUS
 10
188.2012272204
 20
-23.4910444901
 40
229.5
100
AcDbArc
 50
176.8658848429
 51
178.1391356263
  0
ARC
  5
487
100
AcDbEntity
  8
ASSI
100
AcDbCircle
 62
7
  6
CONTINUOUS
 10
188.2012272204
 20
-23.4910444901
 40
229.45
100
AcDbArc
 50
174.6578430439
 51
180.0
  0
ARC
  5
488
100
AcDbEntity
  8
ASSI
100
AcDbCircle
 62
7
  6
CONTINUOUS
 10
-16.7487727796
 20
-42.9910444901
 40
70.0
100
AcDbArc
 50
77.2290792193
 51
84.9294662257
  0
ARC
  5
489
100
AcDbEntity
  8
ASSI
100
AcDbCircle
 62
7
  6
CONTINUOUS
 10
-16.7487727796
 20
-42.9910444901
 40
70.0
100
AcDbArc
 50
95.0705337743
 51
102.7709207807
  0
ARC
  5
48A
100
AcDbEntity
  8
0
100
AcDbCircle
 62
7
  6
CONTINUOUS
 10
7.1464857677
 20
-35.4910444901
 40
0.5
100
AcDbArc
 50
270.0
 51
343.1451864508
  0
ARC
  5
48B
100
AcDbEntity
  8
ASSI
100
AcDbCircle
 62
7
  6
CONTINUOUS
 10
14.1512272204
 20
12.7089555099
 40
16.0
100
AcDbArc
 50
145.5044746636
 51
239.8431672887
  0
ARC
  5
48C
100
AcDbEntity
  8
ASSI
100
AcDbCircle
 62
7
  6
CONTINUOUS
 10
14.1512272204
 20
12.7089555099
 40
15.95
100
AcDbArc
 50
180.0908147466
 51
185.7392823968
  0
ARC
  5
48D
100
AcDbEntity
  8
ASSI
100
AcDbCircle
 62
7
  6
CONTINUOUS
 10
14.1512272204
 20
12.7089555099
 40
15.95
100
AcDbArc
 50
160.5551870529
 51
178.9470059468
  0
ARC
  5
48E
100
AcDbEntity
  8
ASSI
100
AcDbCircle
 62
7
  6
CONTINUOUS
 10
-1.9381847097
 20
22.3514874179
 40
2.9999999984
100
AcDbArc
 50
27.3743154645
 51
77.229074902
  0
ARC
  5
48F
100
AcDbEntity
  8
ASSI
100
AcDbCircle
 62
7
  6
CONTINUOUS
 10
5.4602495839
 20
-2.2495506897
 40
1.3
100
AcDbArc
 50
5.3421569561
 51
59.8431672887
  0
ARC
  5
490
100
AcDbEntity
  8
ASSI
100
AcDbCircle
 62
7
  6
CONTINUOUS
 10
-0.1069210645
 20
22.5066699113
 40
1.3000000002
100
AcDbArc
 50
325.5044746636
 51
26.9764096489
  0
ARC
  5
491
100
AcDbEntity
  8
ASSI
100
AcDbCircle
 62
7
  6
CONTINUOUS
 10
-12.2487727796
 20
29.2089555099
 40
0.8
100
AcDbArc
 50
0.0
 51
90.0
  0
ARC
  5
492
100
AcDbEntity
  8
ASSI
100
AcDbCircle
 62
7
  6
CONTINUOUS
 10
-11.4987727796
 20
27.6724778413
 40
0.8
100
AcDbArc
 50
0.0
 51
77.846802531
  0
ARC
  5
493
100
AcDbEntity
  8
ASSI
100
AcDbCircle
 62
7
  6
CONTINUOUS
 10
-11.2987727796
 20
28.6011866224
 40
0.15
100
AcDbArc
 50
180.0
 51
257.846802531
  0
ARC
  5
494
100
AcDbEntity
  8
ASSI
100
AcDbCircle
 62
7
  6
CONTINUOUS
 10
-10.5487727796
 20
26.8844340413
 40
0.15
100
AcDbArc
 50
180.0
 51
264.9294662257
  0
ARC
  5
495
100
AcDbEntity
  8
ASSI
100
AcDbCircle
 62
7
  6
CONTINUOUS
 10
71.7030795283
 20
-35.4910444901
 40
0.5
100
AcDbArc
 50
180.5
 51
263.6361414499
  0
ARC
  5
496
100
AcDbEntity
  8
ASSI
100
AcDbCircle
 62
7
  6
CONTINUOUS
 10
88.5983380757
 20
29.2089555099
 40
0.8
100
AcDbArc
 50
90.0
 51
180.0
  0
ARC
  5
497
100
AcDbEntity
  8
ASSI
100
AcDbCircle
 62
7
  6
CONTINUOUS
 10
87.8483380757
 20
27.7840195434
 40
0.8
100
AcDbArc
 50
102.153197469
 51
180.0
  0
ARC
  5
498
100
AcDbEntity
  8
ASSI
100
AcDbCircle
 62
7
  6
CONTINUOUS
 10
87.6483380757
 20
28.7127283245
 40
0.15
100
AcDbArc
 50
282.1531974689
 51
360.0
  0
ARC
  5
499
100
AcDbEntity
  8
ASSI
100
AcDbCircle
 62
7
  6
CONTINUOUS
 10
86.8983380757
 20
26.8844340413
 40
0.15
100
AcDbArc
 50
275.0705337743
 51
360.0
  0
ARC
  5
49A
100
AcDbEntity
  8
ASSI
100
AcDbCircle
 62
7
  6
CONTINUOUS
 10
93.0983380757
 20
-42.9910444901
 40
70.0
100
AcDbArc
 50
95.0705337743
 51
102.3155271664
  0
ARC
  5
49B
100
AcDbEntity
  8
ASSI
100
AcDbCircle
 62
7
  6
CONTINUOUS
 10
93.0983380757
 20
-42.9910444901
 40
70.0
100
AcDbArc
 50
77.6844733026
 51
84.9294662257
  0
ARC
  5
49C
100
AcDbEntity
  8
ASSI
100
AcDbCircle
 62
7
  6
CONTINUOUS
 10
114.493596623
 20
-35.4910444901
 40
0.5
100
AcDbArc
 50
276.3638585501
 51
359.5
  0
ARC
  5
49D
100
AcDbEntity
  8
ASSI
100
AcDbCircle
 62
7
  6
CONTINUOUS
 10
98.3483380757
 20
27.7840195434
 40
0.8
100
AcDbArc
 50
0.0
 51
77.846802531
  0
ARC
  5
49E
100
AcDbEntity
  8
ASSI
100
AcDbCircle
 62
7
  6
CONTINUOUS
 10
97.5983380757
 20
29.2089555099
 40
0.8
100
AcDbArc
 50
0.0
 51
90.0
  0
ARC
  5
49F
100
AcDbEntity
  8
ASSI
100
AcDbCircle
 62
7
  6
CONTINUOUS
 10
99.2983380757
 20
26.8844340413
 40
0.15
100
AcDbArc
 50
180.0
 51
264.9294662257
  0
ARC
  5
4A0
100
AcDbEntity
  8
ASSI
100
AcDbCircle
 62
7
  6
CONTINUOUS
 10
98.5483380757
 20
28.7127283245
 40
0.15
100
AcDbArc
 50
180.0
 51
257.8468025311
  0
ENDSEC
  0
SECTION
  2
OBJECTS
  0
DICTIONARY
  5
C
100
AcDbDictionary
280
0
281
1
  3
ACAD_GROUP
350
D
  3
ACAD_MLINESTYLE
350
17
  3
ACAD_LAYOUT
350
1A
  3
ACAD_PLOTSETTINGS
350
19
  3
ACAD_PLOTSTYLENAME
350
E
  0
DICTIONARY
  5
D
102
{ACAD_REACTORS
330
C
102
}
100
AcDbDictionary
280
0
281
1
  0
ACDBDICTIONARYWDFLT
  5
E
102
{ACAD_REACTORS
330
C
102
}
100
AcDbDictionary
281
1
  3
Normal
350
F
100
AcDbDictionaryWithDefault
340
F
  0
DICTIONARY
  5
17
102
{ACAD_REACTORS
330
C
102
}
100
AcDbDictionary
280
0
281
1
  3
Standard
350
18
  0
DICTIONARY
  5
19
102
{ACAD_REACTORS
330
C
102
}
100
AcDbDictionary
281
1
  0
DICTIONARY
  5
1A
102
{ACAD_REACTORS
330
C
102
}
100
AcDbDictionary
281
1
  3
Model
350
4A1
  3
Layout1
350
4A2
  0
ACDBPLACEHOLDER
  5
F
102
{ACAD_REACTORS
330
E
102
}
  0
MLINESTYLE
  5
18
102
{ACAD_REACTORS
330
17
102
}
100
AcDbMlineStyle
  2
STANDARD
 70
0
  3

 62
256
 51
90.0
 52
90.0
 71
2
 49
0.5
 62
256
  6
BYLAYER
 49
-0.5
 62
256
  6
BYLAYER
  0
LAYOUT
  5
4A1
102
{ACAD_REACTORS
330
1A
102
}
100
AcDbPlotSettings
  1

  2
none_device
  4
ISO_A4_(297.00_x_210.00_MM)
  6

 40
0.0
 41
0.0
 42
0.0
 43
0.0
 44
297.0
 45
210.0
 46
0.0
 47
0.0
 48
0.0
 49
0.0
140
0.0
141
0.0
142
1.0
143
1.0
 70
1024
 72
1
 73
0
 74
0
  7

 75
0
147
1.0
148
0.0
149
0.0
100
AcDbLayout
  1
Model
 70
0
 71
0
 10
0.0
 20
0.0
 11
297.0
 21
210.0
 12
0.0
 22
0.0
 32
0.0
 14
0.0
 24
0.0
 34
0.0
 15
0.0
 25
0.0
 35
0.0
146
0.0
 13
0.0
 23
0.0
 33
0.0
 16
1.0
 26
0.0
 36
0.0
 17
0.0
 27
1.0
 37
0.0
 76
0
330
21E
345
0
346
0
  0
LAYOUT
  5
4A2
102
{ACAD_REACTORS
330
1A
102
}
100
AcDbPlotSettings
  1

  2
none_device
  4
ISO_A4_(297.00_x_210.00_MM)
  6

 40
0.0
 41
0.0
 42
0.0
 43
0.0
 44
297.0
 45
210.0
 46
0.0
 47
0.0
 48
0.0
 49
0.0
140
0.0
141
0.0
142
1.0
143
1.0
 70
0
 72
1
 73
0
 74
0
  7

 75
0
147
1.0
148
0.0
149
0.0
100
AcDbLayout
  1
Layout1
 70
0
 71
1
 10
0.0
 20
0.0
 11
297.0
 21
210.0
 12
0.0
 22
0.0
 32
0.0
 14
0.0
 24
0.0
 34
0.0
 15
0.0
 25
0.0
 35
0.0
146
0.0
 13
0.0
 23
0.0
 33
0.0
 16
1.0
 26
0.0
 36
0.0
 17
0.0
 27
1.0
 37
0.0
 76
0
330
21F
345
0
346
0
  0
ENDSEC
  0
EOF
