  0
SECTION
  2
HEADER
  9
$ACADVER
  1
AC1024
  9
$DWGCODEPAGE
  3
ANSI_1252
  9
$EXTMAX
 10
297.0
 20
210.0
 30
0.0
  9
$EXTMIN
 10
0.0
 20
0.0
 30
0.0
  9
$LIMMIN
 10
0.0
 20
0.0
  9
$LIMMAX
 10
297.0
 20
210.0
  9
$VIEWCTR
 10
148.5
 20
105.0
  9
$VIEWSIZE
 40
210.0
  9
$CLAYER
  8
0
  9
$LTSCALE
 40
16.335
  9
$CELTYPE
  6
BYLAYER
  9
$DIMSCALE
 40
1.0
  9
$DIMASZ
 40
3.0
  9
$DIMEXO
 40
0.5
  9
$DIMDLI
 40
11.286
  9
$DIMEXE
 40
1.5
  9
$DIMCEN
 40
2.673
  9
$DIMLFAC
 40
1.0
  9
$DIMBLK
  1
_FILLED
  9
$DIMALT
 70
0
  9
$DIMALTF
 40
0.0393700787
  9
$DIMTXT
 40
3.0
  9
$DIMTOL
 70
1
  9
$DIMLIM
 70
0
  9
$DIMTFAC
 40
1.0
  9
$DIMTP
 40
0.01
  9
$DIMTM
 40
0.01
  9
$DIMGAP
 40
0.625
  9
$DIMDSEP
 70
44
  9
$AUNITS
 70
0
  9
$PDMODE
 70
3
  9
$PDSIZE
 40
3.0
  9
$HANDSEED
  5
35E
  9
$TILEMODE
 70
1
  9
$MEASUREMENT
 70
1
  9
$INSUNITS
 70
4
  0
ENDSEC
  0
SECTION
  2
CLASSES
  0
CLASS
  1
ACDBDICTIONARYWDFLT
  2
AcDbDictionaryWithDefault
  3
AutoCAD 2000
 90
0
 91
1
280
0
281
0
  0
CLASS
  1
ACDBPLACEHOLDER
  2
AcDbPlaceHolder
  3
AutoCAD 2000
 90
0
 91
1
280
0
281
0
  0
CLASS
  1
LAYOUT
  2
AcDbLayout
  3
AutoCAD 2000
 90
0
 91
0
280
0
281
0
  0
ENDSEC
  0
SECTION
  2
TABLES
  0
TABLE
  2
VPORT
  5
8
100
AcDbSymbolTable
 70
2
  0
VPORT
  5
1F4
100
AcDbSymbolTableRecord
100
AcDbViewportTableRecord
  2
*ACTIVE
 70
0
 10
0.0
 20
0.0
 11
1.0
 21
1.0
 12
148.5
 22
105.0
 13
0.0
 23
0.0
 14
1.0
 24
1.0
 15
0.0
 25
0.0
 16
0.0
 26
0.0
 36
1.0
 17
0.0
 27
0.0
 37
0.0
 40
210.0
 41
1.4142857143
 42
50.0
 43
0.0
 44
0.0
 50
0.0
 51
0.0
 71
0
 72
100
 73
1
 74
1
 75
0
 76
0
 77
0
 78
0
  0
ENDTAB
  0
TABLE
  2
LTYPE
  5
5
100
AcDbSymbolTable
 70
6
  0
LTYPE
  5
14
100
AcDbSymbolTableRecord
100
AcDbLinetypeTableRecord
  2
BYBLOCK
 70
0
  3

 72
65
 73
0
 40
0.0
  0
LTYPE
  5
15
100
AcDbSymbolTableRecord
100
AcDbLinetypeTableRecord
  2
BYLAYER
 70
0
  3

 72
65
 73
0
 40
0.0
  0
LTYPE
  5
16
100
AcDbSymbolTableRecord
100
AcDbLinetypeTableRecord
  2
CONTINUOUS
 70
64
  3
Solid line
 72
65
 73
0
 40
0.0
  0
LTYPE
  5
1F5
100
AcDbSymbolTableRecord
100
AcDbLinetypeTableRecord
  2
CENTER
 70
64
  3
____ _ ____ _ ____ _ ____ _ ____ _ ____ _ ____
 72
65
 73
4
 40
0.6
 49
0.375
 74
0
 49
-0.075
 74
0
 49
0.075
 74
0
 49
-0.075
 74
0
  0
LTYPE
  5
1F6
100
AcDbSymbolTableRecord
100
AcDbLinetypeTableRecord
  2
HIDDEN
 70
64
  3
- - - - - - - - - - - - - - - - - - - -
 72
65
 73
2
 40
0.2
 49
0.1
 74
0
 49
-0.1
 74
0
  0
LTYPE
  5
1F7
100
AcDbSymbolTableRecord
100
AcDbLinetypeTableRecord
  2
PHANTOM
 70
64
  3
_____ _ _ _____ _ _ _____ _ _ _____
 72
65
 73
6
 40
0.8
 49
0.45
 74
0
 49
-0.05
 74
0
 49
0.1
 74
0
 49
-0.05
 74
0
 49
0.1
 74
0
 49
-0.05
 74
0
  0
LTYPE
  5
1F8
100
AcDbSymbolTableRecord
100
AcDbLinetypeTableRecord
  2
DOT
 70
64
  3
. . . . . . . . . . . . . . . . . . . .
 72
65
 73
2
 40
0.2
 49
0.1
 74
0
 49
-0.1
 74
0
  0
LTYPE
  5
1F9
100
AcDbSymbolTableRecord
100
AcDbLinetypeTableRecord
  2
DASHED
 70
64
  3
- - - - - - - - - - - - - - - - - - - -
 72
65
 73
2
 40
0.2
 49
0.1
 74
0
 49
-0.1
 74
0
  0
ENDTAB
  0
TABLE
  2
LAYER
  5
2
100
AcDbSymbolTable
 70
36
  0
LAYER
  5
10
100
AcDbSymbolTableRecord
100
AcDbLayerTableRecord
  2
0
 70
0
 62
7
  6
CONTINUOUS
370
-3
390
F
  0
LAYER
  5
1FA
100
AcDbSymbolTableRecord
100
AcDbLayerTableRecord
  2
DEFAULT_1
 70
0
 62
7
  6
CENTER
370
-3
390
F
  0
LAYER
  5
1FB
100
AcDbSymbolTableRecord
100
AcDbLayerTableRecord
  2
DEFAULT_2
 70
0
 62
7
  6
HIDDEN
370
-3
390
F
  0
LAYER
  5
1FC
100
AcDbSymbolTableRecord
100
AcDbLayerTableRecord
  2
DEFAULT_3
 70
0
 62
7
  6
PHANTOM
370
-3
390
F
  0
LAYER
  5
1FD
100
AcDbSymbolTableRecord
100
AcDbLayerTableRecord
  2
ALTRI_PIANI
 70
0
 62
7
  6
CONTINUOUS
370
-3
390
F
  0
LAYER
  5
1FE
100
AcDbSymbolTableRecord
100
AcDbLayerTableRecord
  2
ASSI
 70
0
 62
7
  6
CONTINUOUS
370
-3
390
F
  0
LAYER
  5
1FF
100
AcDbSymbolTableRecord
100
AcDbLayerTableRecord
  2
COLOR5
 70
0
 62
7
  6
CONTINUOUS
370
-3
390
F
  0
LAYER
  5
200
100
AcDbSymbolTableRecord
100
AcDbLayerTableRecord
  2
COORDINATE
 70
0
 62
7
  6
CONTINUOUS
370
-3
390
F
  0
LAYER
  5
201
100
AcDbSymbolTableRecord
100
AcDbLayerTableRecord
  2
COORD_ORIGINE
 70
0
 62
7
  6
CONTINUOUS
370
-3
390
F
  0
LAYER
  5
202
100
AcDbSymbolTableRecord
100
AcDbLayerTableRecord
  2
COSMETICHE
 70
0
 62
7
  6
CONTINUOUS
370
-3
390
F
  0
LAYER
  5
203
100
AcDbSymbolTableRecord
100
AcDbLayerTableRecord
  2
COSMETICI
 70
0
 62
7
  6
CONTINUOUS
370
-3
390
F
  0
LAYER
  5
204
100
AcDbSymbolTableRecord
100
AcDbLayerTableRecord
  2
CURVE
 70
0
 62
7
  6
CONTINUOUS
370
-3
390
F
  0
LAYER
  5
205
100
AcDbSymbolTableRecord
100
AcDbLayerTableRecord
  2
DRAFT
 70
0
 62
7
  6
CONTINUOUS
370
-3
390
F
  0
LAYER
  5
206
100
AcDbSymbolTableRecord
100
AcDbLayerTableRecord
  2
IGES
 70
0
 62
7
  6
CONTINUOUS
370
-3
390
F
  0
LAYER
  5
207
100
AcDbSymbolTableRecord
100
AcDbLayerTableRecord
  2
INTF_1
 70
0
 62
7
  6
CONTINUOUS
370
-3
390
F
  0
LAYER
  5
208
100
AcDbSymbolTableRecord
100
AcDbLayerTableRecord
  2
INTF_11
 70
0
 62
7
  6
CONTINUOUS
370
-3
390
F
  0
LAYER
  5
209
100
AcDbSymbolTableRecord
100
AcDbLayerTableRecord
  2
INTF_12
 70
0
 62
7
  6
CONTINUOUS
370
-3
390
F
  0
LAYER
  5
20A
100
AcDbSymbolTableRecord
100
AcDbLayerTableRecord
  2
INTF_2
 70
0
 62
7
  6
CONTINUOUS
370
-3
390
F
  0
LAYER
  5
20B
100
AcDbSymbolTableRecord
100
AcDbLayerTableRecord
  2
INTF_YELLOW
 70
0
 62
7
  6
CONTINUOUS
370
-3
390
F
  0
LAYER
  5
20C
100
AcDbSymbolTableRecord
100
AcDbLayerTableRecord
  2
NOTE
 70
0
 62
7
  6
CONTINUOUS
370
-3
390
F
  0
LAYER
  5
20D
100
AcDbSymbolTableRecord
100
AcDbLayerTableRecord
  2
PIANI
 70
0
 62
7
  6
CONTINUOUS
370
-3
390
F
  0
LAYER
  5
20E
100
AcDbSymbolTableRecord
100
AcDbLayerTableRecord
  2
PIANI_ORIGINE
 70
0
 62
7
  6
CONTINUOUS
370
-3
390
F
  0
LAYER
  5
20F
100
AcDbSymbolTableRecord
100
AcDbLayerTableRecord
  2
PIANI_SFORMI
 70
0
 62
7
  6
CONTINUOUS
370
-3
390
F
  0
LAYER
  5
210
100
AcDbSymbolTableRecord
100
AcDbLayerTableRecord
  2
PUNTI
 70
0
 62
7
  6
CONTINUOUS
370
-3
390
F
  0
LAYER
  5
211
100
AcDbSymbolTableRecord
100
AcDbLayerTableRecord
  2
RACCORDO
 70
0
 62
7
  6
CONTINUOUS
370
-3
390
F
  0
LAYER
  5
212
100
AcDbSymbolTableRecord
100
AcDbLayerTableRecord
  2
RGB__255__255__255__
 70
0
 62
7
  6
CONTINUOUS
370
-3
390
F
  0
LAYER
  5
213
100
AcDbSymbolTableRecord
100
AcDbLayerTableRecord
  2
RGB____0____0____0__
 70
0
 62
7
  6
CONTINUOUS
370
-3
390
F
  0
LAYER
  5
214
100
AcDbSymbolTableRecord
100
AcDbLayerTableRecord
  2
SIMBOLI
 70
0
 62
7
  6
CONTINUOUS
370
-3
390
F
  0
LAYER
  5
215
100
AcDbSymbolTableRecord
100
AcDbLayerTableRecord
  2
SMUSSO
 70
0
 62
7
  6
CONTINUOUS
370
-3
390
F
  0
LAYER
  5
216
100
AcDbSymbolTableRecord
100
AcDbLayerTableRecord
  2
SNAPLINE
 70
0
 62
7
  6
CONTINUOUS
370
-3
390
F
  0
LAYER
  5
217
100
AcDbSymbolTableRecord
100
AcDbLayerTableRecord
  2
SUPERFICI
 70
0
 62
7
  6
CONTINUOUS
370
-3
390
F
  0
LAYER
  5
218
100
AcDbSymbolTableRecord
100
AcDbLayerTableRecord
  2
TRASH
 70
0
 62
7
  6
CONTINUOUS
370
-3
390
F
  0
LAYER
  5
219
100
AcDbSymbolTableRecord
100
AcDbLayerTableRecord
  2
XSEC_DATUMS
 70
0
 62
7
  6
CONTINUOUS
370
-3
390
F
  0
ENDTAB
  0
TABLE
  2
STYLE
  5
3
100
AcDbSymbolTable
 70
1
  0
STYLE
  5
11
100
AcDbSymbolTableRecord
100
AcDbTextStyleTableRecord
  2
STANDARD
 70
0
 40
0.0
 41
0.8
 50
0.0
 71
0
 42
0.2
  3
txt
  4

  0
STYLE
  5
21A
100
AcDbSymbolTableRecord
100
AcDbTextStyleTableRecord
  2
TEXTSTYLE_1
 70
0
 40
0.0
 41
0.8
 50
0.0
 71
0
 42
0.2
  3
gdt
  4

  0
ENDTAB
  0
TABLE
  2
VIEW
  5
6
100
AcDbSymbolTable
 70
0
  0
ENDTAB
  0
TABLE
  2
UCS
  5
7
100
AcDbSymbolTable
 70
0
  0
ENDTAB
  0
TABLE
  2
APPID
  5
9
100
AcDbSymbolTable
 70
1
  0
APPID
  5
21B
100
AcDbSymbolTableRecord
100
AcDbRegAppTableRecord
  2
ACAD
 70
0
  0
ENDTAB
  0
TABLE
  2
BLOCK_RECORD
  5
1
100
AcDbSymbolTable
 70
0
  0
BLOCK_RECORD
  5
21C
100
AcDbSymbolTableRecord
100
AcDbBlockTableRecord
  2
*Model_Space
  0
BLOCK_RECORD
  5
21D
100
AcDbSymbolTableRecord
100
AcDbBlockTableRecord
  2
*Paper_Space
  0
BLOCK_RECORD
  5
21E
100
AcDbSymbolTableRecord
100
AcDbBlockTableRecord
  2
_FILLED
  0
BLOCK_RECORD
  5
21F
100
AcDbSymbolTableRecord
100
AcDbBlockTableRecord
  2
*D0
  0
BLOCK_RECORD
  5
220
100
AcDbSymbolTableRecord
100
AcDbBlockTableRecord
  2
*D1
  0
ENDTAB
  0
TABLE
  2
DIMSTYLE
  5
A
100
AcDbSymbolTable
 70
1
100
AcDbDimStyleTable
 71
0
  0
DIMSTYLE
105
221
100
AcDbSymbolTableRecord
100
AcDbDimStyleTableRecord
  2
STANDARD
 70
0
  3

  4

 40
1.0
 41
3.0
 42
0.5
 43
0.38
 44
1.5
 45
0.0
 46
0.0
 47
0.01
 48
0.01
140
3.0
141
0.09
142
0.0
143
25.4
144
1.0
145
0.0
146
1.0
147
0.625
 71
1
 72
0
 73
0
 74
0
 75
0
 76
0
 77
1
 78
8
 79
2
170
0
171
1
172
0
173
0
174
0
175
0
176
0
177
0
178
0
270
2
179
2
271
2
272
2
273
2
274
2
275
0
280
0
281
0
282
0
283
1
284
8
285
0
286
0
287
3
288
0
340
11
278
44
341
21E
342
21E
343
21E
344
21E
  0
DIMSTYLE
105
222
100
AcDbSymbolTableRecord
100
AcDbDimStyleTableRecord
  2
DIMSTYLE_1
 70
0
  3

  4

 40
1.0
 41
3.0
 42
0.5
 43
0.38
 44
1.5
 45
0.0
 46
0.0
 47
0.0
 48
0.0
140
3.0
141
0.09
142
0.0
143
25.4
144
1.0
145
0.0
146
1.0
147
0.75
 71
0
 72
0
 73
0
 74
0
 75
0
 76
0
 77
1
 78
8
 79
2
170
0
171
1
172
0
173
0
174
0
175
0
176
0
177
0
178
0
270
2
179
2
271
2
272
2
273
2
274
2
275
0
280
0
281
0
282
0
283
1
284
8
285
0
286
0
287
3
288
0
340
11
278
44
341
21E
342
21E
343
21E
344
21E
  0
DIMSTYLE
105
223
100
AcDbSymbolTableRecord
100
AcDbDimStyleTableRecord
  2
DIMSTYLE_2
 70
0
  3

  4

 40
1.0
 41
3.0
 42
0.5
 43
0.38
 44
1.5
 45
0.0
 46
0.0
 47
0.0
 48
0.0
140
3.0
141
0.09
142
0.0
143
25.4
144
1.0
145
0.0
146
1.0
147
0.75
 71
0
 72
0
 73
0
 74
0
 75
0
 76
0
 77
1
 78
8
 79
2
170
0
171
1
172
0
173
0
174
0
175
0
176
0
177
0
178
0
270
2
179
2
271
1
272
1
273
2
274
2
275
0
280
0
281
0
282
0
283
1
284
8
285
0
286
0
287
3
288
0
340
11
278
44
341
21E
342
21E
343
21E
344
21E
  0
ENDTAB
  0
ENDSEC
  0
SECTION
  2
BLOCKS
  0
BLOCK
  5
20
100
AcDbEntity
  8
0
100
AcDbBlockBegin
  2
*Model_Space
 70
0
 10
0.0
 20
0.0
 30
0.0
  3
*Model_Space
  1

  0
ENDBLK
  5
21
100
AcDbEntity
  8
0
100
AcDbBlockEnd
  0
BLOCK
  5
1C
100
AcDbEntity
  8
0
100
AcDbBlockBegin
  2
*Paper_Space
 70
0
 10
0.0
 20
0.0
 30
0.0
  3
*Paper_Space
  1

  0
ENDBLK
  5
1D
100
AcDbEntity
  8
0
100
AcDbBlockEnd
  0
BLOCK
  5
224
100
AcDbEntity
  8
0
100
AcDbBlockBegin
  2
_FILLED
 70
64
 10
0.0
 20
0.0
  3
_FILLED
  1

  0
SOLID
  5
225
100
AcDbEntity
  8
0
  6
BYBLOCK
 62
0
100
AcDbTrace
 10
0.0
 20
0.0
 11
-1.0
 21
0.3166666667
 12
-1.0
 22
-0.3166666667
 13
-1.0
 23
-0.3166666667
  0
ENDBLK
  5
226
100
AcDbEntity
  8
0
  6
BYBLOCK
 62
0
100
AcDbBlockEnd
  0
BLOCK
  5
227
100
AcDbEntity
  8
0
100
AcDbBlockBegin
 62
7
  6
CONTINUOUS
  2
*D0
 70
65
 10
0.0
 20
0.0
  3
*D0
  1

  0
LINE
  5
228
100
AcDbEntity
  8
0
100
AcDbLine
 62
7
  6
CONTINUOUS
 10
5.7766858177
 20
57.1820549924
 11
30.9478019576
 21
57.1820549924
  0
LINE
  5
229
100
AcDbEntity
  8
0
100
AcDbLine
 62
7
  6
CONTINUOUS
 10
11.7516407616
 20
-7.3179450076
 11
30.9478019576
 21
-7.3179450076
  0
LINE
  5
22A
100
AcDbEntity
  8
0
100
AcDbLine
 62
7
  6
CONTINUOUS
 10
29.4478019576
 20
57.1820549924
 11
29.4478019576
 21
24.9320549924
  0
LINE
  5
22B
100
AcDbEntity
  8
0
100
AcDbLine
 62
7
  6
CONTINUOUS
 10
29.4478019576
 20
-7.3179450076
 11
29.4478019576
 21
24.9320549924
  0
INSERT
  5
22C
100
AcDbEntity
  8
0
100
AcDbBlockReference
 62
7
  6
CONTINUOUS
  2
_FILLED
 10
29.4478019576
 20
57.1820549924
 41
3.0
 42
3.0
 43
3.0
 50
90.0
  0
INSERT
  5
22D
100
AcDbEntity
  8
0
100
AcDbBlockReference
 62
7
  6
CONTINUOUS
  2
_FILLED
 10
29.4478019576
 20
-7.3179450076
 41
3.0
 42
3.0
 43
3.0
 50
270.0
  0
ENDBLK
  5
22E
100
AcDbEntity
  8
0
  6
BYBLOCK
 62
0
100
AcDbBlockEnd
  0
BLOCK
  5
22F
100
AcDbEntity
  8
0
100
AcDbBlockBegin
 62
7
  6
CONTINUOUS
  2
*D1
 70
65
 10
0.0
 20
0.0
  3
*D1
  1

  0
LINE
  5
230
100
AcDbEntity
  8
0
100
AcDbLine
 62
7
  6
CONTINUOUS
 10
-76.2401060193
 20
12.1820549924
 11
-76.2401060193
 21
66.855703439
  0
LINE
  5
231
100
AcDbEntity
  8
0
100
AcDbLine
 62
7
  6
CONTINUOUS
 10
-39.8276081648
 20
12.1820549924
 11
-39.8276081648
 21
66.855703439
  0
LINE
  5
232
100
AcDbEntity
  8
0
100
AcDbLine
 62
7
  6
CONTINUOUS
 10
-76.2401060193
 20
65.355703439
 11
-58.033857092
 21
65.355703439
  0
LINE
  5
233
100
AcDbEntity
  8
0
100
AcDbLine
 62
7
  6
CONTINUOUS
 10
-39.8276081648
 20
65.355703439
 11
-58.033857092
 21
65.355703439
  0
INSERT
  5
234
100
AcDbEntity
  8
0
100
AcDbBlockReference
 62
7
  6
CONTINUOUS
  2
_FILLED
 10
-76.2401060193
 20
65.355703439
 41
3.0
 42
3.0
 43
3.0
 50
180.0
  0
INSERT
  5
235
100
AcDbEntity
  8
0
100
AcDbBlockReference
 62
7
  6
CONTINUOUS
  2
_FILLED
 10
-39.8276081648
 20
65.355703439
 41
3.0
 42
3.0
 43
3.0
  0
ENDBLK
  5
236
100
AcDbEntity
  8
0
  6
BYBLOCK
 62
0
100
AcDbBlockEnd
  0
ENDSEC
  0
SECTION
  2
ENTITIES
  0
DIMENSION
  5
237
100
AcDbEntity
  8
0
100
AcDbDimension
 62
7
  6
CONTINUOUS
  2
*D0
 10
29.4478019576
 20
-7.3179450076
 11
29.4478019576
 21
20.6463407067
 70
160
 71
2
 72
2
 41
0.9
 42
64.5
  3
DIMSTYLE_1
100
AcDbAlignedDimension
 13
5.2766858177
 23
57.1820549924
 14
11.2516407616
 24
-7.3179450076
 50
270.0
100
AcDbRotatedDimension
  0
DIMENSION
  5
238
100
AcDbEntity
  8
0
100
AcDbDimension
 62
7
  6
CONTINUOUS
  2
*D1
 10
-39.8276081648
 20
65.355703439
 11
-62.3195713778
 21
65.355703439
 70
160
 71
2
 72
2
 41
0.9
 42
36.4124978544
  3
DIMSTYLE_2
100
AcDbAlignedDimension
 13
-76.2401060193
 23
11.6820549924
 14
-39.8276081648
 24
11.6820549924
100
AcDbRotatedDimension
  0
LINE
  5
239
100
AcDbEntity
  8
ASSI
100
AcDbLine
 62
7
  6
CONTINUOUS
 10
-14.7662733615
 20
50.8810646705
 11
-14.9675581005
 21
50.0967664459
  0
LINE
  5
23A
100
AcDbEntity
  8
ASSI
100
AcDbLine
 62
7
  6
CONTINUOUS
 10
-18.3
 20
17.6820549924
 11
-18.3
 21
11.6820549924
  0
LINE
  5
23B
100
AcDbEntity
  8
0
100
AcDbLine
 62
250
  6
CONTINUOUS
 10
-18.2259199995
 20
11.6820549924
 11
-18.2259199995
 21
17.6820549924
  0
LINE
  5
23C
100
AcDbEntity
  8
0
100
AcDbLine
 62
250
  6
CONTINUOUS
 10
-17.7279440432
 20
11.6820549924
 11
-17.7279440432
 21
18.1820549924
  0
LINE
  5
23D
100
AcDbEntity
  8
0
100
AcDbLine
 62
7
  6
CONTINUOUS
 10
-11.9
 20
-5.5179450076
 11
-11.9
 21
11.6820549924
  0
LINE
  5
23E
100
AcDbEntity
  8
0
100
AcDbLine
 62
7
  6
CONTINUOUS
 10
-7.1
 20
-5.5179450076
 11
-7.1
 21
11.6820549924
  0
LINE
  5
23F
100
AcDbEntity
  8
0
100
AcDbLine
 62
250
  6
CONTINUOUS
 10
-6.356155
 20
11.6820549924
 11
-6.356155
 21
11.6320549924
  0
LINE
  5
240
100
AcDbEntity
  8
0
100
AcDbLine
 62
7
  6
CONTINUOUS
 10
-6.224396
 20
11.6820549924
 11
-6.224396
 21
11.6320549924
  0
LINE
  5
241
100
AcDbEntity
  8
0
100
AcDbLine
 62
7
  6
CONTINUOUS
 10
-6.05
 20
54.8836190268
 11
-6.05
 21
54.0575335238
  0
LINE
  5
242
100
AcDbEntity
  8
0
100
AcDbLine
 62
7
  6
CONTINUOUS
 10
-5.3
 20
56.3820549924
 11
-5.3
 21
55.8123278079
  0
LINE
  5
243
100
AcDbEntity
  8
0
100
AcDbLine
 62
7
  6
CONTINUOUS
 10
11.9
 20
-5.5179450076
 11
7.1
 21
-5.5179450076
  0
LINE
  5
244
100
AcDbEntity
  8
0
100
AcDbLine
 62
7
  6
CONTINUOUS
 10
-7.1
 20
-5.5179450076
 11
-11.9
 21
-5.5179450076
  0
LINE
  5
245
100
AcDbEntity
  8
0
100
AcDbLine
 62
7
  6
CONTINUOUS
 10
-4.692353
 20
11.6820549924
 11
-4.692353
 21
11.6320549924
  0
LINE
  5
246
100
AcDbEntity
  8
0
100
AcDbLine
 62
7
  6
CONTINUOUS
 10
-4.3000088809
 20
11.6820549924
 11
-4.300009
 21
11.6320549924
  0
LINE
  5
247
100
AcDbEntity
  8
0
100
AcDbLine
 62
7
  6
CONTINUOUS
 10
-4.067613
 20
11.6820549924
 11
-4.067613
 21
11.6320549924
  0
LINE
  5
248
100
AcDbEntity
  8
0
100
AcDbLine
 62
7
  6
CONTINUOUS
 10
-3.5216160578
 20
11.6820549924
 11
-3.5216160578
 21
11.6320549924
  0
LINE
  5
249
100
AcDbEntity
  8
0
100
AcDbLine
 62
250
  6
CONTINUOUS
 10
-2.9873328642
 20
11.6820549924
 11
-2.9873328642
 21
11.6320549924
  0
LINE
  5
24A
100
AcDbEntity
  8
0
100
AcDbLine
 62
7
  6
CONTINUOUS
 10
-2.5611101086
 20
11.6820549924
 11
-2.561111
 21
11.6320549924
  0
LINE
  5
24B
100
AcDbEntity
  8
0
100
AcDbLine
 62
7
  6
CONTINUOUS
 10
-2.5328676094
 20
11.6820549924
 11
-2.5328676094
 21
11.6320549924
  0
LINE
  5
24C
100
AcDbEntity
  8
0
100
AcDbLine
 62
7
  6
CONTINUOUS
 10
-1.830713
 20
11.6820549924
 11
-1.830713
 21
11.6320549924
  0
LINE
  5
24D
100
AcDbEntity
  8
0
100
AcDbLine
 62
7
  6
CONTINUOUS
 10
-1.382654
 20
11.6820549924
 11
-1.382654
 21
11.6320549924
  0
LINE
  5
24E
100
AcDbEntity
  8
0
100
AcDbLine
 62
7
  6
CONTINUOUS
 10
-1.151264
 20
11.6820549924
 11
-1.151264
 21
11.6320549924
  0
LINE
  5
24F
100
AcDbEntity
  8
0
100
AcDbLine
 62
7
  6
CONTINUOUS
 10
-0.2424691688
 20
11.6820549924
 11
-0.242469
 21
11.6320549924
  0
LINE
  5
250
100
AcDbEntity
  8
0
100
AcDbLine
 62
7
  6
CONTINUOUS
 10
-0.2266078958
 20
11.6820549924
 11
-0.226608
 21
11.6320549924
  0
LINE
  5
251
100
AcDbEntity
  8
RACCORDO
100
AcDbLine
 62
7
  6
CONTINUOUS
 10
0.0
 20
30.6820549924
 11
0.0
 21
57.1820549924
  0
LINE
  5
252
100
AcDbEntity
  8
0
100
AcDbLine
 62
250
  6
CONTINUOUS
 10
0.2428180594
 20
11.6820549924
 11
0.2428180594
 21
11.6320549924
  0
LINE
  5
253
100
AcDbEntity
  8
0
100
AcDbLine
 62
7
  6
CONTINUOUS
 10
0.7362255761
 20
11.6820549924
 11
0.7362255761
 21
11.6320549924
  0
LINE
  5
254
100
AcDbEntity
  8
DRAFT
100
AcDbLine
 62
7
  6
CONTINUOUS
 10
-1.85
 20
11.6820549924
 11
-1.699897874
 21
28.8820549924
  0
LINE
  5
255
100
AcDbEntity
  8
RACCORDO
100
AcDbLine
 62
250
  6
CONTINUOUS
 10
1.1999885765
 20
13.4820549924
 11
1.0655948125
 21
28.8820549924
  0
LINE
  5
256
100
AcDbEntity
  8
RACCORDO
100
AcDbLine
 62
7
  6
CONTINUOUS
 10
1.5
 20
13.4820549924
 11
1.365606236
 21
28.8820549924
  0
LINE
  5
257
100
AcDbEntity
  8
DRAFT
100
AcDbLine
 62
7
  6
CONTINUOUS
 10
1.85
 20
11.6820549924
 11
1.699897874
 21
28.8820549924
  0
LINE
  5
258
100
AcDbEntity
  8
RACCORDO
100
AcDbLine
 62
7
  6
CONTINUOUS
 10
1.5441171683
 20
28.0800195784
 11
1.5970685421
 21
13.4820549924
  0
LINE
  5
259
100
AcDbEntity
  8
0
100
AcDbLine
 62
7
  6
CONTINUOUS
 10
5.75
 20
11.6820549924
 11
5.683677219
 21
30.6820549924
  0
LINE
  5
25A
100
AcDbEntity
  8
0
100
AcDbLine
 62
7
  6
CONTINUOUS
 10
0.738329
 20
11.6820549924
 11
0.738329
 21
11.6320549924
  0
LINE
  5
25B
100
AcDbEntity
  8
0
100
AcDbLine
 62
7
  6
CONTINUOUS
 10
1.1798076542
 20
11.6820549924
 11
1.179808
 21
11.6320549924
  0
LINE
  5
25C
100
AcDbEntity
  8
0
100
AcDbLine
 62
7
  6
CONTINUOUS
 10
1.224282
 20
11.6820549924
 11
1.224282
 21
11.6320549924
  0
LINE
  5
25D
100
AcDbEntity
  8
0
100
AcDbLine
 62
7
  6
CONTINUOUS
 10
1.323272
 20
11.6820549924
 11
1.323272
 21
11.6320549924
  0
LINE
  5
25E
100
AcDbEntity
  8
0
100
AcDbLine
 62
7
  6
CONTINUOUS
 10
1.5
 20
28.3820549924
 11
1.5
 21
28.8820549924
  0
LINE
  5
25F
100
AcDbEntity
  8
0
100
AcDbLine
 62
7
  6
CONTINUOUS
 10
2.112106
 20
11.6820549924
 11
2.112106
 21
11.6320549924
  0
LINE
  5
260
100
AcDbEntity
  8
0
100
AcDbLine
 62
7
  6
CONTINUOUS
 10
2.1685620114
 20
11.6820549924
 11
2.1685620114
 21
11.6320549924
  0
LINE
  5
261
100
AcDbEntity
  8
0
100
AcDbLine
 62
7
  6
CONTINUOUS
 10
2.6098478397
 20
11.6820549924
 11
2.6098478397
 21
11.6320549924
  0
LINE
  5
262
100
AcDbEntity
  8
0
100
AcDbLine
 62
250
  6
CONTINUOUS
 10
3.1071221864
 20
11.6820549924
 11
3.1071221864
 21
11.6320549924
  0
LINE
  5
263
100
AcDbEntity
  8
0
100
AcDbLine
 62
7
  6
CONTINUOUS
 10
3.6047832162
 20
11.6820549924
 11
3.6047832162
 21
11.6320549924
  0
LINE
  5
264
100
AcDbEntity
  8
0
100
AcDbLine
 62
7
  6
CONTINUOUS
 10
3.8481649401
 20
11.6820549924
 11
3.848165
 21
11.6320549924
  0
LINE
  5
265
100
AcDbEntity
  8
0
100
AcDbLine
 62
250
  6
CONTINUOUS
 10
4.0857464975
 20
11.6820549924
 11
4.0857464975
 21
11.6320549924
  0
LINE
  5
266
100
AcDbEntity
  8
0
100
AcDbLine
 62
250
  6
CONTINUOUS
 10
4.4904338029
 20
11.6820549924
 11
4.4904338029
 21
11.6320549924
  0
LINE
  5
267
100
AcDbEntity
  8
0
100
AcDbLine
 62
7
  6
CONTINUOUS
 10
4.6579038497
 20
11.6820549924
 11
4.657904
 21
11.6320549924
  0
LINE
  5
268
100
AcDbEntity
  8
0
100
AcDbLine
 62
7
  6
CONTINUOUS
 10
4.7261986978
 20
11.6820549924
 11
4.726199
 21
11.6320549924
  0
LINE
  5
269
100
AcDbEntity
  8
0
100
AcDbLine
 62
7
  6
CONTINUOUS
 10
5.3
 20
55.812327808
 11
5.3
 21
56.3820549924
  0
LINE
  5
26A
100
AcDbEntity
  8
0
100
AcDbLine
 62
7
  6
CONTINUOUS
 10
6.05
 20
54.0575335238
 11
6.05
 21
54.8836190269
  0
LINE
  5
26B
100
AcDbEntity
  8
0
100
AcDbLine
 62
7
  6
CONTINUOUS
 10
6.6759700482
 20
11.6820549924
 11
6.6759700482
 21
11.6320549924
  0
LINE
  5
26C
100
AcDbEntity
  8
0
100
AcDbLine
 62
7
  6
CONTINUOUS
 10
7.1
 20
-5.5179450076
 11
7.1
 21
11.6820549924
  0
LINE
  5
26D
100
AcDbEntity
  8
0
100
AcDbLine
 62
7
  6
CONTINUOUS
 10
7.1
 20
11.6320549924
 11
6.6759701771
 21
11.6320549924
  0
LINE
  5
26E
100
AcDbEntity
  8
0
100
AcDbLine
 62
7
  6
CONTINUOUS
 10
4.7261986982
 20
11.6320549924
 11
3.8481649242
 21
11.6320549924
  0
LINE
  5
26F
100
AcDbEntity
  8
0
100
AcDbLine
 62
7
  6
CONTINUOUS
 10
3.6047832162
 20
11.6320549924
 11
2.6098478397
 21
11.6320549924
  0
LINE
  5
270
100
AcDbEntity
  8
0
100
AcDbLine
 62
7
  6
CONTINUOUS
 10
2.1685620114
 20
11.6320549924
 11
1.1798076688
 21
11.6320549924
  0
LINE
  5
271
100
AcDbEntity
  8
0
100
AcDbLine
 62
7
  6
CONTINUOUS
 10
0.7362255761
 20
11.6320549924
 11
-0.2424692521
 21
11.6320549924
  0
LINE
  5
272
100
AcDbEntity
  8
0
100
AcDbLine
 62
7
  6
CONTINUOUS
 10
-1.151264
 20
11.6320549924
 11
-1.830713
 21
11.6320549924
  0
LINE
  5
273
100
AcDbEntity
  8
0
100
AcDbLine
 62
7
  6
CONTINUOUS
 10
-2.5328676094
 20
11.6320549924
 11
-3.5216160578
 21
11.6320549924
  0
LINE
  5
274
100
AcDbEntity
  8
0
100
AcDbLine
 62
7
  6
CONTINUOUS
 10
-4.067613
 20
11.6320549924
 11
-4.692353
 21
11.6320549924
  0
LINE
  5
275
100
AcDbEntity
  8
0
100
AcDbLine
 62
7
  6
CONTINUOUS
 10
-6.2243961615
 20
11.6320549924
 11
-7.1
 21
11.6320549924
  0
LINE
  5
276
100
AcDbEntity
  8
DRAFT
100
AcDbLine
 62
7
  6
CONTINUOUS
 10
-1.85
 20
11.6820549924
 11
1.85
 21
11.6820549924
  0
LINE
  5
277
100
AcDbEntity
  8
0
100
AcDbLine
 62
7
  6
CONTINUOUS
 10
1.85
 20
11.6820549924
 11
5.75
 21
11.6820549924
  0
LINE
  5
278
100
AcDbEntity
  8
0
100
AcDbLine
 62
7
  6
CONTINUOUS
 10
-1.85
 20
11.6820549924
 11
-5.75
 21
11.6820549924
  0
LINE
  5
279
100
AcDbEntity
  8
RACCORDO
100
AcDbLine
 62
7
  6
CONTINUOUS
 10
-5.75
 20
11.6820549924
 11
-18.3
 21
11.6820549924
  0
LINE
  5
27A
100
AcDbEntity
  8
RACCORDO
100
AcDbLine
 62
7
  6
CONTINUOUS
 10
5.75
 20
11.6820549924
 11
18.3
 21
11.6820549924
  0
LINE
  5
27B
100
AcDbEntity
  8
0
100
AcDbLine
 62
7
  6
CONTINUOUS
 10
11.9
 20
-5.5179450076
 11
11.9
 21
11.6820549924
  0
LINE
  5
27C
100
AcDbEntity
  8
RACCORDO
100
AcDbLine
 62
7
  6
CONTINUOUS
 10
1.834291638
 20
13.4820549924
 11
1.1999885765
 21
13.4820549924
  0
LINE
  5
27D
100
AcDbEntity
  8
0
100
AcDbLine
 62
250
  6
CONTINUOUS
 10
17.7279440432
 20
18.1820549924
 11
17.7279440432
 21
11.6820549924
  0
LINE
  5
27E
100
AcDbEntity
  8
0
100
AcDbLine
 62
250
  6
CONTINUOUS
 10
18.2259199995
 20
17.6820549924
 11
18.2259199995
 21
11.6820549924
  0
LINE
  5
27F
100
AcDbEntity
  8
0
100
AcDbLine
 62
7
  6
CONTINUOUS
 10
18.3
 20
11.6820549924
 11
18.3
 21
17.6820549924
  0
LINE
  5
280
100
AcDbEntity
  8
0
100
AcDbLine
 62
250
  6
CONTINUOUS
 10
-18.3
 20
17.6820549924
 11
-16.0749974685
 21
17.6820549924
  0
LINE
  5
281
100
AcDbEntity
  8
0
100
AcDbLine
 62
250
  6
CONTINUOUS
 10
16.0749974685
 20
17.6820549924
 11
18.3
 21
17.6820549924
  0
LINE
  5
282
100
AcDbEntity
  8
0
100
AcDbLine
 62
7
  6
CONTINUOUS
 10
-17.8
 20
18.1820549924
 11
-16.0671840131
 21
18.1820549924
  0
LINE
  5
283
100
AcDbEntity
  8
0
100
AcDbLine
 62
7
  6
CONTINUOUS
 10
16.0671840131
 20
18.1820549924
 11
17.8
 21
18.1820549924
  0
LINE
  5
284
100
AcDbEntity
  8
0
100
AcDbLine
 62
7
  6
CONTINUOUS
 10
14.9675581005
 20
50.0967664459
 11
14.7662733615
 21
50.8810646705
  0
LINE
  5
285
100
AcDbEntity
  8
RACCORDO
100
AcDbLine
 62
7
  6
CONTINUOUS
 10
1.5
 20
28.3820549924
 11
1.5430215916
 21
28.3820549924
  0
LINE
  5
286
100
AcDbEntity
  8
RACCORDO
100
AcDbLine
 62
7
  6
CONTINUOUS
 10
1.5
 20
28.6820549924
 11
1.7016432476
 21
28.6820549924
  0
LINE
  5
287
100
AcDbEntity
  8
DRAFT
100
AcDbLine
 62
7
  6
CONTINUOUS
 10
-1.699897874
 20
28.8820549924
 11
1.699897874
 21
28.8820549924
  0
LINE
  5
288
100
AcDbEntity
  8
0
100
AcDbLine
 62
7
  6
CONTINUOUS
 10
-5.75
 20
30.6820549924
 11
5.683677219
 21
30.6820549924
  0
LINE
  5
289
100
AcDbEntity
  8
RACCORDO
100
AcDbLine
 62
250
  6
CONTINUOUS
 10
5.683677219
 20
30.6820549924
 11
15.0252353347
 21
30.6820549924
  0
LINE
  5
28A
100
AcDbEntity
  8
RACCORDO
100
AcDbLine
 62
250
  6
CONTINUOUS
 10
-5.75
 20
30.6820549924
 11
-15.0252353347
 21
30.6820549924
  0
LINE
  5
28B
100
AcDbEntity
  8
0
100
AcDbLine
 62
7
  6
CONTINUOUS
 10
12.3408276398
 20
36.0769379924
 11
12.2881313105
 21
36.0769379924
  0
LINE
  5
28C
100
AcDbEntity
  8
0
100
AcDbLine
 62
7
  6
CONTINUOUS
 10
11.650000898
 20
40.3271399924
 11
11.6000008947
 21
40.3271399924
  0
LINE
  5
28D
100
AcDbEntity
  8
ASSI
100
AcDbLine
 62
7
  6
CONTINUOUS
 10
-6.1867426942
 20
53.9081205263
 11
-12.3947374577
 21
53.0759624397
  0
LINE
  5
28E
100
AcDbEntity
  8
RACCORDO
100
AcDbLine
 62
250
  6
CONTINUOUS
 10
-14.7662733615
 20
50.8810646705
 11
14.7662733615
 21
50.8810646705
  0
LINE
  5
28F
100
AcDbEntity
  8
RACCORDO
100
AcDbLine
 62
250
  6
CONTINUOUS
 10
-12.3947374577
 20
53.0759624397
 11
12.3947374577
 21
53.0759624397
  0
LINE
  5
290
100
AcDbEntity
  8
RACCORDO
100
AcDbLine
 62
250
  6
CONTINUOUS
 10
-6.1867426942
 20
53.9081205263
 11
6.1867426942
 21
53.9081205263
  0
LINE
  5
291
100
AcDbEntity
  8
RACCORDO
100
AcDbLine
 62
250
  6
CONTINUOUS
 10
-6.05
 20
54.0575335238
 11
6.05
 21
54.0575335238
  0
LINE
  5
292
100
AcDbEntity
  8
RACCORDO
100
AcDbLine
 62
250
  6
CONTINUOUS
 10
-6.05
 20
54.8836190268
 11
6.05
 21
54.8836190269
  0
LINE
  5
293
100
AcDbEntity
  8
RACCORDO
100
AcDbLine
 62
250
  6
CONTINUOUS
 10
5.4184210526
 20
55.6656895794
 11
-5.4184210526
 21
55.6656895793
  0
LINE
  5
294
100
AcDbEntity
  8
0
100
AcDbLine
 62
7
  6
CONTINUOUS
 10
12.3947374577
 20
53.0759624397
 11
6.1867426942
 21
53.9081205263
  0
LINE
  5
295
100
AcDbEntity
  8
RACCORDO
100
AcDbLine
 62
250
  6
CONTINUOUS
 10
5.3
 20
55.812327808
 11
-5.3
 21
55.8123278079
  0
LINE
  5
296
100
AcDbEntity
  8
RACCORDO
100
AcDbLine
 62
250
  6
CONTINUOUS
 10
-5.3
 20
56.3820549924
 11
5.3
 21
56.3820549924
  0
LINE
  5
297
100
AcDbEntity
  8
RACCORDO
100
AcDbLine
 62
7
  6
CONTINUOUS
 10
-4.4999999645
 20
57.1820549924
 11
4.5
 21
57.1820549924
  0
LWPOLYLINE
  5
298
100
AcDbEntity
  8
0
100
AcDbPolyline
 62
7
  6
CONTINUOUS
 90
5
 70
0
 43
0.3500000006
 10
-61.4624269867
 20
67.8199922791
 10
-61.105284668
 20
68.0342767639
 10
-61.105284668
 20
68.6771302185
 10
-61.4624269867
 20
69.1056991882
 10
-62.319569458
 20
69.1056991882
  0
LWPOLYLINE
  5
299
100
AcDbEntity
  8
0
100
AcDbPolyline
 62
7
  6
CONTINUOUS
 90
10
 70
0
 43
0.3500000006
 10
-59.1052840576
 20
69.1056991882
 10
-59.7481420441
 20
68.4628457336
 10
-60.1767155457
 20
67.6057077942
 10
-60.1767155457
 20
66.5342763062
 10
-59.7481420441
 20
66.1057073364
 10
-59.1052840576
 20
66.1057073364
 10
-58.6767150879
 20
66.5342763062
 10
-58.6767150879
 20
67.3914142456
 10
-59.1052840576
 20
67.8199922791
 10
-60.0338577118
 20
67.8199922791
  0
LWPOLYLINE
  5
29A
100
AcDbEntity
  8
0
100
AcDbPolyline
 62
7
  6
CONTINUOUS
 90
3
 70
0
 43
0.3500000006
 10
-57.1052834473
 20
66.3914139404
 10
-57.1767146301
 20
66.1771294556
 10
-57.319572464
 20
65.8914137878
  0
LINE
  5
29B
100
AcDbEntity
  8
DRAFT
100
AcDbLine
 62
7
  6
CONTINUOUS
 10
-76.2401060193
 20
11.6820549924
 11
-76.1944326254
 21
28.8820549924
  0
LINE
  5
29C
100
AcDbEntity
  8
DRAFT
100
AcDbLine
 62
7
  6
CONTINUOUS
 10
-76.2738175219
 20
28.8820549924
 11
-76.2675343111
 21
30.6820549924
  0
LINE
  5
29D
100
AcDbEntity
  8
0
100
AcDbLine
 62
7
  6
CONTINUOUS
 10
-64.852866092
 20
37.4006539924
 11
-63.913286092
 21
40.3271399924
  0
LINE
  5
29E
100
AcDbEntity
  8
0
100
AcDbLine
 62
7
  6
CONTINUOUS
 10
-64.427845092
 20
36.0769489924
 11
-63.063244092
 21
40.3271399924
  0
LINE
  5
29F
100
AcDbEntity
  8
RACCORDO
100
AcDbLine
 62
250
  6
CONTINUOUS
 10
-66.2502477735
 20
31.0112105435
 11
-66.2502477735
 21
30.1737457397
  0
LINE
  5
2A0
100
AcDbEntity
  8
0
100
AcDbLine
 62
7
  6
CONTINUOUS
 10
-58.717831092
 20
37.5592639924
 11
-57.924155092
 21
40.3271399924
  0
LINE
  5
2A1
100
AcDbEntity
  8
0
100
AcDbLine
 62
7
  6
CONTINUOUS
 10
-58.292831092
 20
36.0769589924
 11
-57.489178092
 21
38.8796639924
  0
LINE
  5
2A2
100
AcDbEntity
  8
0
100
AcDbLine
 62
7
  6
CONTINUOUS
 10
-56.072451092
 20
36.0769489924
 11
-54.707871092
 21
40.3271509924
  0
LINE
  5
2A3
100
AcDbEntity
  8
0
100
AcDbLine
 62
7
  6
CONTINUOUS
 10
-55.222419092
 20
36.0769589924
 11
-54.954063092
 21
36.9127859924
  0
LINE
  5
2A4
100
AcDbEntity
  8
0
100
AcDbLine
 62
7
  6
CONTINUOUS
 10
-54.694781092
 20
37.7203169924
 11
-54.282839092
 21
39.0034349924
  0
LINE
  5
2A5
100
AcDbEntity
  8
RACCORDO
100
AcDbLine
 62
7
  6
CONTINUOUS
 10
-64.083857092
 20
54.0575335238
 11
-64.083857092
 21
54.8836190212
  0
LINE
  5
2A6
100
AcDbEntity
  8
RACCORDO
100
AcDbLine
 62
7
  6
CONTINUOUS
 10
-63.333857092
 20
55.8123278079
 11
-63.333857092
 21
56.3820549924
  0
LINE
  5
2A7
100
AcDbEntity
  8
0
100
AcDbLine
 62
7
  6
CONTINUOUS
 10
-62.496570092
 20
36.0769379924
 11
-62.496560092
 21
40.3271399924
  0
LINE
  5
2A8
100
AcDbEntity
  8
0
100
AcDbLine
 62
7
  6
CONTINUOUS
 10
-61.646538092
 20
36.0769489924
 11
-61.646528092
 21
40.3271399924
  0
LINE
  5
2A9
100
AcDbEntity
  8
0
100
AcDbLine
 62
7
  6
CONTINUOUS
 10
-55.633857092
 20
-5.5179450076
 11
-60.433857092
 21
-5.5179450076
  0
LINE
  5
2AA
100
AcDbEntity
  8
0
100
AcDbLine
 62
7
  6
CONTINUOUS
 10
-60.796528092
 20
36.0769489924
 11
-60.796528092
 21
40.3271399924
  0
LINE
  5
2AB
100
AcDbEntity
  8
0
100
AcDbLine
 62
7
  6
CONTINUOUS
 10
-60.433857092
 20
11.6820549924
 11
-60.433857092
 21
-5.5179450076
  0
LINE
  5
2AC
100
AcDbEntity
  8
0
100
AcDbLine
 62
7
  6
CONTINUOUS
 10
-60.133857092
 20
17.6820549924
 11
-60.133857092
 21
11.6820549924
  0
LINE
  5
2AD
100
AcDbEntity
  8
0
100
AcDbLine
 62
7
  6
CONTINUOUS
 10
-59.946496092
 20
36.0769489924
 11
-59.946496092
 21
38.8796639924
  0
LINE
  5
2AE
100
AcDbEntity
  8
0
100
AcDbLine
 62
250
  6
CONTINUOUS
 10
-59.6788009123
 20
17.6820549924
 11
-59.6788009123
 21
11.6820549924
  0
LINE
  5
2AF
100
AcDbEntity
  8
0
100
AcDbLine
 62
7
  6
CONTINUOUS
 10
-57.489167092
 20
36.0769489924
 11
-57.489178092
 21
38.8796639924
  0
LINE
  5
2B0
100
AcDbEntity
  8
0
100
AcDbLine
 62
7
  6
CONTINUOUS
 10
-56.639135092
 20
36.0769489924
 11
-56.639135092
 21
40.3271399924
  0
LINE
  5
2B1
100
AcDbEntity
  8
0
100
AcDbLine
 62
250
  6
CONTINUOUS
 10
-56.3889132718
 20
17.6820549924
 11
-56.3889132718
 21
11.6820549924
  0
LINE
  5
2B2
100
AcDbEntity
  8
0
100
AcDbLine
 62
7
  6
CONTINUOUS
 10
-55.933857092
 20
17.6820549924
 11
-55.933857092
 21
11.6820549924
  0
LINE
  5
2B3
100
AcDbEntity
  8
0
100
AcDbLine
 62
7
  6
CONTINUOUS
 10
-55.633857092
 20
11.6820549924
 11
-55.633857092
 21
-5.5179450076
  0
LWPOLYLINE
  5
2B4
100
AcDbEntity
  8
0
100
AcDbPolyline
 62
7
  6
CONTINUOUS
 90
2
 70
0
 43
0.3500000006
 10
-55.1052873688
 20
66.1057073364
 10
-55.1052873688
 20
67.6057077942
  0
LINE
  5
2B5
100
AcDbEntity
  8
0
100
AcDbLine
 62
7
  6
CONTINUOUS
 10
-65.277908092
 20
36.0769379924
 11
-66.642498092
 21
40.3271399924
  0
LINE
  5
2B6
100
AcDbEntity
  8
RACCORDO
100
AcDbLine
 62
7
  6
CONTINUOUS
 10
-52.733857092
 20
55.8123278079
 11
-52.733857092
 21
56.3820549924
  0
LINE
  5
2B7
100
AcDbEntity
  8
0
100
AcDbLine
 62
7
  6
CONTINUOUS
 10
-52.4340284729
 20
11.6820549924
 11
-52.4340284729
 21
11.6320549924
  0
LINE
  5
2B8
100
AcDbEntity
  8
0
100
AcDbLine
 62
250
  6
CONTINUOUS
 10
-52.281643092
 20
11.6820549924
 11
-52.281643092
 21
11.6320549924
  0
LINE
  5
2B9
100
AcDbEntity
  8
0
100
AcDbLine
 62
7
  6
CONTINUOUS
 10
-52.2578870438
 20
11.6820549924
 11
-52.2578870438
 21
11.6320549924
  0
LINE
  5
2BA
100
AcDbEntity
  8
RACCORDO
100
AcDbLine
 62
7
  6
CONTINUOUS
 10
-51.983857092
 20
54.0575335238
 11
-51.983857092
 21
54.8836190212
  0
LINE
  5
2BB
100
AcDbEntity
  8
0
100
AcDbLine
 62
7
  6
CONTINUOUS
 10
-51.926512092
 20
36.0769589924
 11
-51.926512092
 21
40.3271509924
  0
LINE
  5
2BC
100
AcDbEntity
  8
0
100
AcDbLine
 62
7
  6
CONTINUOUS
 10
-51.088189092
 20
38.5066099924
 11
-51.088199092
 21
39.5408689924
  0
LINE
  5
2BD
100
AcDbEntity
  8
RACCORDO
100
AcDbLine
 62
250
  6
CONTINUOUS
 10
-49.8174664106
 20
31.0112105435
 11
-49.8174664106
 21
30.1737457397
  0
LINE
  5
2BE
100
AcDbEntity
  8
0
100
AcDbLine
 62
7
  6
CONTINUOUS
 10
-51.076469092
 20
36.0769589924
 11
-51.076374092
 21
37.7203279924
  0
LINE
  5
2BF
100
AcDbEntity
  8
0
100
AcDbLine
 62
7
  6
CONTINUOUS
 10
-64.852866092
 20
37.4006539924
 11
-65.792456092
 21
40.3271399924
  0
LINE
  5
2C0
100
AcDbEntity
  8
0
100
AcDbLine
 62
7
  6
CONTINUOUS
 10
-48.3583829652
 20
11.6820549924
 11
-48.358383092
 21
11.6320549924
  0
LINE
  5
2C1
100
AcDbEntity
  8
0
100
AcDbLine
 62
7
  6
CONTINUOUS
 10
-47.980684092
 20
11.6820549924
 11
-47.980684092
 21
11.6320549924
  0
LINE
  5
2C2
100
AcDbEntity
  8
0
100
AcDbLine
 62
7
  6
CONTINUOUS
 10
-47.742901092
 20
11.6820549924
 11
-47.742901092
 21
11.6320549924
  0
LINE
  5
2C3
100
AcDbEntity
  8
0
100
AcDbLine
 62
7
  6
CONTINUOUS
 10
-47.742901092
 20
11.6320549924
 11
-52.4340284729
 21
11.6320549924
  0
LINE
  5
2C4
100
AcDbEntity
  8
0
100
AcDbLine
 62
7
  6
CONTINUOUS
 10
-39.8276081648
 20
11.6820549924
 11
-40.6606737338
 21
11.6820549924
  0
LINE
  5
2C5
100
AcDbEntity
  8
RACCORDO
100
AcDbLine
 62
7
  6
CONTINUOUS
 10
-40.6606737338
 20
11.6820549924
 11
-75.4070404503
 21
11.6820549924
  0
LINE
  5
2C6
100
AcDbEntity
  8
0
100
AcDbLine
 62
7
  6
CONTINUOUS
 10
-75.4070404503
 20
11.6820549924
 11
-76.2401060193
 21
11.6820549924
  0
LINE
  5
2C7
100
AcDbEntity
  8
0
100
AcDbLine
 62
7
  6
CONTINUOUS
 10
-59.142842092
 20
36.0769489924
 11
-59.946496092
 21
38.8796639924
  0
LINE
  5
2C8
100
AcDbEntity
  8
0
100
AcDbLine
 62
7
  6
CONTINUOUS
 10
-58.717831092
 20
37.5592639924
 11
-59.511508092
 21
40.3271399924
  0
LWPOLYLINE
  5
2C9
100
AcDbEntity
  8
0
100
AcDbPolyline
 62
7
  6
CONTINUOUS
 90
10
 70
0
 43
0.3500000006
 10
28.19780159
 20
26.003483551
 10
28.3406594238
 20
26.074910202
 10
28.4120883408
 20
26.074910202
 10
28.5549439087
 20
25.9320569
 10
28.5549439087
 20
25.8606257172
 10
28.4835172577
 20
25.7891990662
 10
28.4120883408
 20
25.7891990662
 10
28.2692305069
 20
25.8606257172
 10
28.19780159
 20
25.9320569
 10
28.19780159
 20
26.003483551
  0
LINE
  5
2CA
100
AcDbEntity
  8
0
100
AcDbLine
 62
7
  6
CONTINUOUS
 10
-53.343239092
 20
36.0769589924
 11
-53.611584092
 21
36.9127859924
  0
LINE
  5
2CB
100
AcDbEntity
  8
0
100
AcDbLine
 62
7
  6
CONTINUOUS
 10
-53.870876092
 20
37.7203169924
 11
-54.282839092
 21
39.0034349924
  0
LINE
  5
2CC
100
AcDbEntity
  8
0
100
AcDbLine
 62
7
  6
CONTINUOUS
 10
-52.493196092
 20
36.0769489924
 11
-53.857797092
 21
40.3271509924
  0
LINE
  5
2CD
100
AcDbEntity
  8
DRAFT
100
AcDbLine
 62
7
  6
CONTINUOUS
 10
-39.7938966622
 20
28.8820549924
 11
-39.800179873
 21
30.6820549924
  0
LINE
  5
2CE
100
AcDbEntity
  8
DRAFT
100
AcDbLine
 62
7
  6
CONTINUOUS
 10
-39.8276081648
 20
11.6820549924
 11
-39.8732815587
 21
28.8820549924
  0
LINE
  5
2CF
100
AcDbEntity
  8
0
100
AcDbLine
 62
250
  6
CONTINUOUS
 10
-60.133857092
 20
17.6820549924
 11
-55.933857092
 21
17.6820549924
  0
LINE
  5
2D0
100
AcDbEntity
  8
0
100
AcDbLine
 62
7
  6
CONTINUOUS
 10
-59.633857092
 20
18.1820549924
 11
-56.433857092
 21
18.1820549924
  0
LWPOLYLINE
  5
2D1
100
AcDbEntity
  8
0
100
AcDbPolyline
 62
7
  6
CONTINUOUS
 90
2
 70
0
 43
0.3500000006
 10
28.6978017426
 20
24.0034829407
 10
27.1978012848
 20
24.0034829407
  0
LINE
  5
2D2
100
AcDbEntity
  8
0
100
AcDbLine
 62
7
  6
CONTINUOUS
 10
-49.482645092
 20
36.0769589924
 11
-50.334483092
 21
37.7203169924
  0
LINE
  5
2D3
100
AcDbEntity
  8
0
100
AcDbLine
 62
7
  6
CONTINUOUS
 10
-48.525216092
 20
36.0769699924
 11
-49.4300314806
 21
37.8225436712
  0
LINE
  5
2D4
100
AcDbEntity
  8
DRAFT
100
AcDbLine
 62
7
  6
CONTINUOUS
 10
-76.2738175219
 20
28.8820549924
 11
-76.1944326254
 21
28.8820549924
  0
LINE
  5
2D5
100
AcDbEntity
  8
DRAFT
100
AcDbLine
 62
7
  6
CONTINUOUS
 10
-39.8732815587
 20
28.8820549924
 11
-39.7938966622
 21
28.8820549924
  0
LINE
  5
2D6
100
AcDbEntity
  8
RACCORDO
100
AcDbLine
 62
250
  6
CONTINUOUS
 10
-66.250392254
 20
30.1737457397
 11
-49.8173246606
 21
30.1737457397
  0
LINE
  5
2D7
100
AcDbEntity
  8
RACCORDO
100
AcDbLine
 62
250
  6
CONTINUOUS
 10
-74.9513174285
 20
30.6820549924
 11
-67.6677079991
 21
30.6820549924
  0
LINE
  5
2D8
100
AcDbEntity
  8
RACCORDO
100
AcDbLine
 62
250
  6
CONTINUOUS
 10
-48.400006185
 20
30.6820549924
 11
-41.1163967555
 21
30.6820549924
  0
LINE
  5
2D9
100
AcDbEntity
  8
0
100
AcDbLine
 62
7
  6
CONTINUOUS
 10
-39.800179873
 20
30.6820549924
 11
-41.0866219145
 21
30.6820549924
  0
LINE
  5
2DA
100
AcDbEntity
  8
0
100
AcDbLine
 62
7
  6
CONTINUOUS
 10
-74.9810922696
 20
30.6820549924
 11
-76.2675343111
 21
30.6820549924
  0
LINE
  5
2DB
100
AcDbEntity
  8
RACCORDO
100
AcDbLine
 62
250
  6
CONTINUOUS
 10
-66.2502753234
 20
31.0112105435
 11
-49.8174388614
 21
31.0112105435
  0
LWPOLYLINE
  5
2DC
100
AcDbEntity
  8
0
100
AcDbPolyline
 62
7
  6
CONTINUOUS
 90
10
 70
0
 43
0.3500000006
 10
-57.1767146301
 20
66.605707489
 10
-57.1052834473
 20
66.4628451233
 10
-57.1052834473
 20
66.3914139404
 10
-57.2481412811
 20
66.2485606384
 10
-57.319572464
 20
66.2485606384
 10
-57.390999115
 20
66.3199918213
 10
-57.390999115
 20
66.3914139404
 10
-57.319572464
 20
66.5342763062
 10
-57.2481412811
 20
66.605707489
 10
-57.1767146301
 20
66.605707489
  0
LINE
  5
2DD
100
AcDbEntity
  8
0
100
AcDbLine
 62
7
  6
CONTINUOUS
 10
-49.482645092
 20
36.0769589924
 11
-48.525216092
 21
36.0769699924
  0
LINE
  5
2DE
100
AcDbEntity
  8
0
100
AcDbLine
 62
7
  6
CONTINUOUS
 10
-56.072451092
 20
36.0769489924
 11
-55.222419092
 21
36.0769589924
  0
LINE
  5
2DF
100
AcDbEntity
  8
0
100
AcDbLine
 62
7
  6
CONTINUOUS
 10
-60.796528092
 20
36.0769489924
 11
-59.946496092
 21
36.0769489924
  0
LINE
  5
2E0
100
AcDbEntity
  8
0
100
AcDbLine
 62
7
  6
CONTINUOUS
 10
-57.489167092
 20
36.0769489924
 11
-56.639135092
 21
36.0769489924
  0
LINE
  5
2E1
100
AcDbEntity
  8
0
100
AcDbLine
 62
7
  6
CONTINUOUS
 10
-51.926512092
 20
36.0769589924
 11
-51.076469092
 21
36.0769589924
  0
LINE
  5
2E2
100
AcDbEntity
  8
0
100
AcDbLine
 62
7
  6
CONTINUOUS
 10
-59.142842092
 20
36.0769489924
 11
-58.292831092
 21
36.0769589924
  0
LINE
  5
2E3
100
AcDbEntity
  8
0
100
AcDbLine
 62
7
  6
CONTINUOUS
 10
-62.496570092
 20
36.0769379924
 11
-61.646538092
 21
36.0769489924
  0
LINE
  5
2E4
100
AcDbEntity
  8
0
100
AcDbLine
 62
7
  6
CONTINUOUS
 10
-53.343239092
 20
36.0769589924
 11
-52.493196092
 21
36.0769489924
  0
LINE
  5
2E5
100
AcDbEntity
  8
0
100
AcDbLine
 62
7
  6
CONTINUOUS
 10
-65.277908092
 20
36.0769379924
 11
-64.427845092
 21
36.0769489924
  0
LINE
  5
2E6
100
AcDbEntity
  8
0
100
AcDbLine
 62
7
  6
CONTINUOUS
 10
-54.954063092
 20
36.9127859924
 11
-53.611584092
 21
36.9127859924
  0
LINE
  5
2E7
100
AcDbEntity
  8
0
100
AcDbLine
 62
7
  6
CONTINUOUS
 10
-54.694781092
 20
37.7203169924
 11
-53.870876092
 21
37.7203169924
  0
LINE
  5
2E8
100
AcDbEntity
  8
0
100
AcDbLine
 62
7
  6
CONTINUOUS
 10
-51.076374092
 20
37.7203279924
 11
-50.334483092
 21
37.7203169924
  0
LINE
  5
2E9
100
AcDbEntity
  8
0
100
AcDbLine
 62
7
  6
CONTINUOUS
 10
-51.088189092
 20
38.5066099924
 11
-50.054008092
 21
38.5066099924
  0
LINE
  5
2EA
100
AcDbEntity
  8
0
100
AcDbLine
 62
7
  6
CONTINUOUS
 10
-51.088199092
 20
39.5408689924
 11
-50.054008092
 21
39.5408689924
  0
LINE
  5
2EB
100
AcDbEntity
  8
0
100
AcDbLine
 62
7
  6
CONTINUOUS
 10
-66.642498092
 20
40.3271399924
 11
-65.792456092
 21
40.3271399924
  0
LINE
  5
2EC
100
AcDbEntity
  8
0
100
AcDbLine
 62
7
  6
CONTINUOUS
 10
-63.913286092
 20
40.3271399924
 11
-63.063244092
 21
40.3271399924
  0
LINE
  5
2ED
100
AcDbEntity
  8
0
100
AcDbLine
 62
7
  6
CONTINUOUS
 10
-62.496560092
 20
40.3271399924
 11
-61.646528092
 21
40.3271399924
  0
LINE
  5
2EE
100
AcDbEntity
  8
0
100
AcDbLine
 62
7
  6
CONTINUOUS
 10
-60.796528092
 20
40.3271399924
 11
-59.511508092
 21
40.3271399924
  0
LINE
  5
2EF
100
AcDbEntity
  8
0
100
AcDbLine
 62
7
  6
CONTINUOUS
 10
-57.924155092
 20
40.3271399924
 11
-56.639135092
 21
40.3271399924
  0
LINE
  5
2F0
100
AcDbEntity
  8
0
100
AcDbLine
 62
7
  6
CONTINUOUS
 10
-54.707871092
 20
40.3271509924
 11
-53.857797092
 21
40.3271509924
  0
LINE
  5
2F1
100
AcDbEntity
  8
0
100
AcDbLine
 62
7
  6
CONTINUOUS
 10
-51.926512092
 20
40.3271509924
 11
-49.936025092
 21
40.3271509924
  0
LINE
  5
2F2
100
AcDbEntity
  8
RACCORDO
100
AcDbLine
 62
250
  6
CONTINUOUS
 10
-72.8001304536
 20
50.8810646705
 11
-43.2675837305
 21
50.8810646705
  0
LWPOLYLINE
  5
2F3
100
AcDbEntity
  8
0
100
AcDbPolyline
 62
7
  6
CONTINUOUS
 90
3
 70
0
 43
0.3500000006
 10
28.4120883408
 20
26.074910202
 10
28.6263728256
 20
26.003483551
 10
28.9120884933
 20
25.8606257172
  0
LWPOLYLINE
  5
2F4
100
AcDbEntity
  8
0
100
AcDbPolyline
 62
7
  6
CONTINUOUS
 90
3
 70
0
 43
0.3500000006
 10
28.0549437561
 20
24.5034830933
 10
28.0549437561
 20
23.0034826355
 10
25.697800827
 20
23.6463406219
  0
LWPOLYLINE
  5
2F5
100
AcDbEntity
  8
0
100
AcDbPolyline
 62
7
  6
CONTINUOUS
 90
8
 70
0
 43
0.3500000006
 10
28.6978017426
 20
27.0749105072
 10
28.6978017426
 20
27.9320529785
 10
28.2692305069
 20
28.3606264801
 10
27.4120880356
 20
28.3606264801
 10
26.9835167999
 20
27.9320529785
 10
26.9835167999
 20
27.0749105072
 10
25.697800827
 20
27.0749105072
 10
25.697800827
 20
28.3606264801
  0
LINE
  5
2F6
100
AcDbEntity
  8
RACCORDO
100
AcDbLine
 62
250
  6
CONTINUOUS
 10
-70.4285945498
 20
53.0759624397
 11
-45.6391196343
 21
53.0759624397
  0
LINE
  5
2F7
100
AcDbEntity
  8
RACCORDO
100
AcDbLine
 62
250
  6
CONTINUOUS
 10
-64.2205997863
 20
53.9081205263
 11
-51.8471143978
 21
53.9081205263
  0
LINE
  5
2F8
100
AcDbEntity
  8
RACCORDO
100
AcDbLine
 62
250
  6
CONTINUOUS
 10
-64.083857092
 20
54.0575335238
 11
-51.983857092
 21
54.0575335238
  0
LINE
  5
2F9
100
AcDbEntity
  8
RACCORDO
100
AcDbLine
 62
250
  6
CONTINUOUS
 10
-64.083857092
 20
54.8836190269
 11
-51.983857092
 21
54.8836190268
  0
LINE
  5
2FA
100
AcDbEntity
  8
RACCORDO
100
AcDbLine
 62
250
  6
CONTINUOUS
 10
-52.6154360394
 20
55.6656895794
 11
-63.4522781447
 21
55.6656895794
  0
LINE
  5
2FB
100
AcDbEntity
  8
RACCORDO
100
AcDbLine
 62
250
  6
CONTINUOUS
 10
-52.733857092
 20
55.812327808
 11
-63.333857092
 21
55.812327808
  0
LINE
  5
2FC
100
AcDbEntity
  8
RACCORDO
100
AcDbLine
 62
250
  6
CONTINUOUS
 10
-63.333857092
 20
56.3820549924
 11
-52.733857092
 21
56.3820549924
  0
LINE
  5
2FD
100
AcDbEntity
  8
RACCORDO
100
AcDbLine
 62
7
  6
CONTINUOUS
 10
-62.5353948726
 20
57.1820549924
 11
-53.5320286541
 21
57.1820549924
  0
LWPOLYLINE
  5
2FE
100
AcDbEntity
  8
0
100
AcDbPolyline
 62
7
  6
CONTINUOUS
 90
6
 70
0
 43
0.3500000006
 10
-62.319569458
 20
66.1057073364
 10
-61.2481425018
 20
66.1057073364
 10
-61.033858017
 20
66.3199918213
 10
-61.033858017
 20
67.3914142456
 10
-61.4624269867
 20
67.8199922791
 10
-61.8910004883
 20
67.8199922791
  0
LWPOLYLINE
  5
2FF
100
AcDbEntity
  8
0
100
AcDbPolyline
 62
7
  6
CONTINUOUS
 90
3
 70
0
 43
0.3500000006
 10
-54.6052872162
 20
66.748560791
 10
-56.105287674
 20
66.748560791
 10
-55.4624296875
 20
69.1056991882
  0
LWPOLYLINE
  5
300
100
AcDbEntity
  8
0
100
AcDbPolyline
 62
7
  6
CONTINUOUS
 90
10
 70
0
 43
0.3500000006
 10
25.697800827
 20
21.7177711945
 10
26.3406588135
 20
21.074913208
 10
27.1978012848
 20
20.6463397064
 10
28.2692305069
 20
20.6463397064
 10
28.6978017426
 20
21.074913208
 10
28.6978017426
 20
21.7177711945
 10
28.2692305069
 20
22.1463401642
 10
27.4120880356
 20
22.1463401642
 10
26.9835167999
 20
21.7177711945
 10
26.9835167999
 20
20.7891975403
  0
ARC
  5
301
100
AcDbEntity
  8
RACCORDO
100
AcDbCircle
 62
7
  6
CONTINUOUS
 10
-383.88
 20
11.6820549924
 40
400.0
100
AcDbArc
 50
0.0
 51
2.6496839534
  0
ARC
  5
302
100
AcDbEntity
  8
RACCORDO
100
AcDbCircle
 62
250
  6
CONTINUOUS
 10
-380.2096375663
 20
11.68466026
 40
396.16291381
100
AcDbArc
 50
359.9996232084
 51
2.6749737378
  0
ARC
  5
303
100
AcDbEntity
  8
0
100
AcDbCircle
 62
7
  6
CONTINUOUS
 10
-9.5
 20
-4.8179450076
 40
2.5
100
AcDbArc
 50
196.2602047083
 51
343.7397952917
  0
ARC
  5
304
100
AcDbEntity
  8
0
100
AcDbCircle
 62
7
  6
CONTINUOUS
 10
-17.8
 20
17.6820549924
 40
0.5
100
AcDbArc
 50
90.0
 51
180.0
  0
ARC
  5
305
100
AcDbEntity
  8
0
100
AcDbCircle
 62
250
  6
CONTINUOUS
 10
-17.7272592278
 20
17.6826087184
 40
0.4994467434
100
AcDbArc
 50
90.0785610235
 51
105.0617490236
  0
ARC
  5
306
100
AcDbEntity
  8
RACCORDO
100
AcDbCircle
 62
250
  6
CONTINUOUS
 10
-26.209063356
 20
41.1042660483
 40
15.2872656974
100
AcDbArc
 50
314.3555645489
 51
317.0188511533
  0
ARC
  5
307
100
AcDbEntity
  8
RACCORDO
100
AcDbCircle
 62
250
  6
CONTINUOUS
 10
-26.2196270801
 20
41.0114658102
 40
15.2319117117
100
AcDbArc
 50
317.3013174534
 51
318.0867787648
  0
ARC
  5
308
100
AcDbEntity
  8
RACCORDO
100
AcDbCircle
 62
7
  6
CONTINUOUS
 10
-25.1
 20
40.3320549924
 40
13.5
100
AcDbArc
 50
316.3356118183
 51
39.6646013202
  0
ARC
  5
309
100
AcDbEntity
  8
RACCORDO
100
AcDbCircle
 62
7
  6
CONTINUOUS
 10
-11.8635344238
 20
50.1233664062
 40
3.0
100
AcDbArc
 50
100.1990067023
 51
165.3705878279
  0
ARC
  5
30A
100
AcDbEntity
  8
RACCORDO
100
AcDbCircle
 62
7
  6
CONTINUOUS
 10
-13.7070480089
 20
49.7787816748
 40
1.3000000003
100
AcDbArc
 50
165.8415869493
 51
219.6646013281
  0
ARC
  5
30B
100
AcDbEntity
  8
RACCORDO
100
AcDbCircle
 62
7
  6
CONTINUOUS
 10
-14.3937329885
 20
30.1136477447
 40
1.3
100
AcDbArc
 50
136.3356118183
 51
177.3503160466
  0
ARC
  5
30C
100
AcDbEntity
  8
RACCORDO
100
AcDbCircle
 62
7
  6
CONTINUOUS
 10
-5.25
 20
54.8836190268
 40
0.8
100
AcDbArc
 50
102.153197469
 51
180.0
  0
ARC
  5
30D
100
AcDbEntity
  8
RACCORDO
100
AcDbCircle
 62
7
  6
CONTINUOUS
 10
-4.5
 20
56.3820549924
 40
0.8
100
AcDbArc
 50
90.0
 51
180.0
  0
ARC
  5
30E
100
AcDbEntity
  8
RACCORDO
100
AcDbCircle
 62
7
  6
CONTINUOUS
 10
-6.2
 20
54.0575335238
 40
0.15
100
AcDbArc
 50
275.0705337743
 51
360.0
  0
ARC
  5
30F
100
AcDbEntity
  8
RACCORDO
100
AcDbCircle
 62
7
  6
CONTINUOUS
 10
-5.45
 20
55.8123278079
 40
0.15
100
AcDbArc
 50
282.153197469
 51
360.0
  0
ARC
  5
310
100
AcDbEntity
  8
RACCORDO
100
AcDbCircle
 62
7
  6
CONTINUOUS
 10
383.88
 20
11.6820549924
 40
400.0
100
AcDbArc
 50
177.3503160466
 51
180.0
  0
ARC
  5
311
100
AcDbEntity
  8
RACCORDO
100
AcDbCircle
 62
250
  6
CONTINUOUS
 10
380.2096552351
 20
11.6846367019
 40
396.1629311349
100
AcDbArc
 50
177.3250227689
 51
180.0003733844
  0
ARC
  5
312
100
AcDbEntity
  8
0
100
AcDbCircle
 62
7
  6
CONTINUOUS
 10
9.5
 20
-4.8179450076
 40
2.5
100
AcDbArc
 50
196.2602047083
 51
343.7397952917
  0
ARC
  5
313
100
AcDbEntity
  8
0
100
AcDbCircle
 62
7
  6
CONTINUOUS
 10
17.8
 20
17.6820549924
 40
0.5
100
AcDbArc
 50
0.0
 51
90.0
  0
ARC
  5
314
100
AcDbEntity
  8
0
100
AcDbCircle
 62
250
  6
CONTINUOUS
 10
17.7272565403
 20
17.6825860425
 40
0.4994694231
100
AcDbArc
 50
74.8980991804
 51
89.9211342513
  0
ARC
  5
315
100
AcDbEntity
  8
RACCORDO
100
AcDbCircle
 62
250
  6
CONTINUOUS
 10
26.2103129459
 20
41.105487717
 40
15.2890127521
100
AcDbArc
 50
222.9813055996
 51
225.6442954169
  0
ARC
  5
316
100
AcDbEntity
  8
RACCORDO
100
AcDbCircle
 62
7
  6
CONTINUOUS
 10
25.1
 20
40.3320549924
 40
13.5
100
AcDbArc
 50
140.3353986799
 51
223.6643881817
  0
ARC
  5
317
100
AcDbEntity
  8
0
100
AcDbCircle
 62
7
  6
CONTINUOUS
 10
25.1
 20
40.3320549924
 40
13.45
100
AcDbArc
 50
180.0209374545
 51
198.4432720785
  0
ARC
  5
318
100
AcDbEntity
  8
RACCORDO
100
AcDbCircle
 62
7
  6
CONTINUOUS
 10
11.8635344238
 20
50.1233664062
 40
3.0
100
AcDbArc
 50
14.6294121721
 51
79.8009932977
  0
ARC
  5
319
100
AcDbEntity
  8
RACCORDO
100
AcDbCircle
 62
7
  6
CONTINUOUS
 10
13.7070480089
 20
49.7787816748
 40
1.3000000003
100
AcDbArc
 50
320.3353986719
 51
14.1584130507
  0
ARC
  5
31A
100
AcDbEntity
  8
RACCORDO
100
AcDbCircle
 62
7
  6
CONTINUOUS
 10
14.3937329885
 20
30.1136477447
 40
1.3
100
AcDbArc
 50
2.6496839534
 51
43.6643881817
  0
ARC
  5
31B
100
AcDbEntity
  8
RACCORDO
100
AcDbCircle
 62
7
  6
CONTINUOUS
 10
5.25
 20
54.8836190269
 40
0.8
100
AcDbArc
 50
0.0
 51
77.846802531
  0
ARC
  5
31C
100
AcDbEntity
  8
RACCORDO
100
AcDbCircle
 62
7
  6
CONTINUOUS
 10
4.5
 20
56.3820549924
 40
0.8
100
AcDbArc
 50
0.0
 51
90.0
  0
ARC
  5
31D
100
AcDbEntity
  8
RACCORDO
100
AcDbCircle
 62
7
  6
CONTINUOUS
 10
1.4914828556
 20
27.7820549924
 40
0.6
100
AcDbArc
 50
69.1767645289
 51
85.0904644979
  0
ARC
  5
31E
100
AcDbEntity
  8
RACCORDO
100
AcDbCircle
 62
250
  6
CONTINUOUS
 10
1.4916403775
 20
27.7848889792
 40
0.2997355544
100
AcDbArc
 50
43.864051925
 51
79.9168457663
  0
ARC
  5
31F
100
AcDbEntity
  8
RACCORDO
100
AcDbCircle
 62
7
  6
CONTINUOUS
 10
6.2
 20
54.0575335238
 40
0.15
100
AcDbArc
 50
180.0
 51
264.9294662257
  0
ARC
  5
320
100
AcDbEntity
  8
RACCORDO
100
AcDbCircle
 62
7
  6
CONTINUOUS
 10
5.45
 20
55.812327808
 40
0.15
100
AcDbArc
 50
180.0
 51
257.846802531
  0
ARC
  5
321
100
AcDbEntity
  8
0
100
AcDbCircle
 62
7
  6
CONTINUOUS
 10
-420.4652811896
 20
12.6722462743
 40
379.805898221
100
AcDbArc
 50
359.8506241059
 51
2.7178965019
  0
ARC
  5
322
100
AcDbEntity
  8
RACCORDO
100
AcDbCircle
 62
7
  6
CONTINUOUS
 10
-58.033857092
 20
-15.8179450076
 40
70.0
100
AcDbArc
 50
79.8009932977
 51
84.9294662257
  0
ARC
  5
323
100
AcDbEntity
  8
RACCORDO
100
AcDbCircle
 62
7
  6
CONTINUOUS
 10
-58.033857092
 20
-15.8179450076
 40
70.0
100
AcDbArc
 50
95.0705337743
 51
100.1990067023
  0
ARC
  5
324
100
AcDbEntity
  8
RACCORDO
100
AcDbCircle
 62
250
  6
CONTINUOUS
 10
-49.4955748954
 20
5.740911243
 40
24.4349547921
100
AcDbArc
 50
89.2451977542
 51
90.7548022458
  0
ARC
  5
325
100
AcDbEntity
  8
RACCORDO
100
AcDbCircle
 62
250
  6
CONTINUOUS
 10
-66.5721392887
 20
5.74094017
 40
24.4349258675
100
AcDbArc
 50
89.2451968607
 51
90.7548031393
  0
ARC
  5
326
100
AcDbEntity
  8
0
100
AcDbCircle
 62
7
  6
CONTINUOUS
 10
-58.033857092
 20
-4.8179450076
 40
2.5
100
AcDbArc
 50
196.2602047083
 51
343.7397952917
  0
ARC
  5
327
100
AcDbEntity
  8
0
100
AcDbCircle
 62
7
  6
CONTINUOUS
 10
-56.433857092
 20
17.6820549924
 40
0.5
100
AcDbArc
 50
0.0
 51
90.0
  0
ARC
  5
328
100
AcDbEntity
  8
0
100
AcDbCircle
 62
7
  6
CONTINUOUS
 10
-59.633857092
 20
17.6820549924
 40
0.5
100
AcDbArc
 50
90.0
 51
180.0
  0
ARC
  5
329
100
AcDbEntity
  8
RACCORDO
100
AcDbCircle
 62
7
  6
CONTINUOUS
 10
-138.5741788507
 20
26.0033049924
 40
98.5
100
AcDbArc
 50
2.7225739834
 51
14.6294121721
  0
ARC
  5
32A
100
AcDbEntity
  8
RACCORDO
100
AcDbCircle
 62
7
  6
CONTINUOUS
 10
-69.8973915159
 20
50.1233664062
 40
3.0
100
AcDbArc
 50
100.1990067023
 51
165.3705878279
  0
ARC
  5
32B
100
AcDbEntity
  8
RACCORDO
100
AcDbCircle
 62
7
  6
CONTINUOUS
 10
-64.233857092
 20
54.0575335238
 40
0.15
100
AcDbArc
 50
275.0705337743
 51
360.0
  0
ARC
  5
32C
100
AcDbEntity
  8
RACCORDO
100
AcDbCircle
 62
7
  6
CONTINUOUS
 10
-63.483857092
 20
55.812327808
 40
0.15
100
AcDbArc
 50
282.153197469
 51
360.0
  0
ARC
  5
32D
100
AcDbEntity
  8
RACCORDO
100
AcDbCircle
 62
7
  6
CONTINUOUS
 10
-63.283857092
 20
54.8836190269
 40
0.8
100
AcDbArc
 50
102.153197469
 51
180.0000004059
  0
ARC
  5
32E
100
AcDbEntity
  8
RACCORDO
100
AcDbCircle
 62
7
  6
CONTINUOUS
 10
-62.533857092
 20
56.3820549924
 40
0.8
100
AcDbArc
 50
90.0
 51
180.0
  0
ARC
  5
32F
100
AcDbEntity
  8
RACCORDO
100
AcDbCircle
 62
7
  6
CONTINUOUS
 10
22.5064646666
 20
26.0033049924
 40
98.5
100
AcDbArc
 50
165.3705878279
 51
177.2774260166
  0
ARC
  5
330
100
AcDbEntity
  8
0
100
AcDbCircle
 62
7
  6
CONTINUOUS
 10
-49.936025092
 20
39.0237369924
 40
1.303416637
100
AcDbArc
 50
292.8428913314
 51
90.0
  0
ARC
  5
331
100
AcDbEntity
  8
0
100
AcDbCircle
 62
7
  6
CONTINUOUS
 10
-50.054008092
 20
39.0237369924
 40
0.51713
100
AcDbArc
 50
270.0
 51
90.0
  0
ARC
  5
332
100
AcDbEntity
  8
RACCORDO
100
AcDbCircle
 62
7
  6
CONTINUOUS
 10
-52.783857092
 20
54.8836190269
 40
0.8
100
AcDbArc
 50
359.9999995941
 51
77.846802531
  0
ARC
  5
333
100
AcDbEntity
  8
RACCORDO
100
AcDbCircle
 62
7
  6
CONTINUOUS
 10
-53.533857092
 20
56.3820549924
 40
0.8
100
AcDbArc
 50
0.0
 51
90.0
  0
ARC
  5
334
100
AcDbEntity
  8
RACCORDO
100
AcDbCircle
 62
7
  6
CONTINUOUS
 10
-51.833857092
 20
54.0575335238
 40
0.15
100
AcDbArc
 50
180.0
 51
264.9294662257
  0
ARC
  5
335
100
AcDbEntity
  8
RACCORDO
100
AcDbCircle
 62
7
  6
CONTINUOUS
 10
-52.583857092
 20
55.812327808
 40
0.15
100
AcDbArc
 50
180.0
 51
257.846802531
  0
ARC
  5
336
100
AcDbEntity
  8
RACCORDO
100
AcDbCircle
 62
7
  6
CONTINUOUS
 10
-46.1703226682
 20
50.1233664062
 40
3.0
100
AcDbArc
 50
14.6294121721
 51
79.8009932977
  0
LINE
  5
337
100
AcDbEntity
  8
0
100
AcDbLine
 62
250
  6
CONTINUOUS
 10
-5.6462807074
 20
11.6820549924
 11
-5.6463978086
 21
24.8050018375
  0
LINE
  5
338
100
AcDbEntity
  8
0
100
AcDbLine
 62
250
  6
CONTINUOUS
 10
-5.6463978086
 20
24.8050018375
 11
-5.6464504442
 21
30.6820549924
  0
LINE
  5
339
100
AcDbEntity
  8
0
100
AcDbLine
 62
250
  6
CONTINUOUS
 10
5.6462816288
 20
11.6820549924
 11
5.5795784557
 21
30.6820549924
  0
SPLINE
  5
33A
100
AcDbEntity
  8
RACCORDO
100
AcDbSpline
 62
7
  6
CONTINUOUS
 70
0
 71
3
 72
10
 73
6
 74
0
 42
0.0000001
 43
0.0000001
 44
0.0000000001
 40
0.0
 40
0.0
 40
0.0
 40
0.0
 40
0.549947561
 40
0.7861196953
 40
1.0
 40
1.0
 40
1.0
 40
1.0
 10
1.5441171683
 20
28.0800195784
 30
0.0
 10
1.5439175444
 20
28.135053125
 30
0.0
 10
1.5661762818
 20
28.2182041323
 30
0.0
 10
1.6400623058
 20
28.2887607586
 30
0.0
 10
1.6837009797
 20
28.3050272458
 30
0.0
 10
1.7048833425
 20
28.3080943171
 30
0.0
  0
SPLINE
  5
33B
100
AcDbEntity
  8
0
100
AcDbSpline
 62
250
  6
CONTINUOUS
 70
0
 71
3
 72
11
 73
7
 74
0
 42
0.0000001
 43
0.0000001
 44
0.0000000001
 40
0.0
 40
0.0
 40
0.0
 40
0.0
 40
0.2498072547
 40
0.4995089141
 40
0.7497915758
 40
1.0
 40
1.0
 40
1.0
 40
1.0
 10
-17.8570454065
 20
18.1648976332
 30
0.0
 10
-17.9093349746
 20
18.1508399333
 30
0.0
 10
-18.0099921184
 20
18.1050433521
 30
0.0
 10
-18.1302876683
 20
17.9916092839
 30
0.0
 10
-18.2080043669
 20
17.8455833434
 30
0.0
 10
-18.2259199995
 20
17.7362882103
 30
0.0
 10
-18.2259199995
 20
17.6820549924
 30
0.0
  0
SPLINE
  5
33C
100
AcDbEntity
  8
RACCORDO
100
AcDbSpline
 62
250
  6
CONTINUOUS
 70
0
 71
3
 72
34
 73
30
 74
0
 42
0.0000001
 43
0.0000001
 44
0.0000000001
 40
0.0
 40
0.0
 40
0.0
 40
0.0
 40
0.0000769016
 40
0.0003075027
 40
0.0006916671
 40
0.0012292593
 40
0.0019201449
 40
0.0027641899
 40
0.0049112275
 40
0.0076693199
 40
0.0110374282
 40
0.0150144987
 40
0.0195983957
 40
0.0305726251
 40
0.0439326277
 40
0.0596521107
 40
0.0776931123
 40
0.0980050289
 40
0.1205406255
 40
0.1452438718
 40
0.172038966
 40
0.2316089705
 40
0.2985699294
 40
0.3721517742
 40
0.4515097774
 40
0.5357698089
 40
0.6240627111
 40
0.8091423287
 40
1.0
 40
1.0
 40
1.0
 40
1.0
 10
-14.9675580982
 20
50.0967664453
 30
0.0
 10
-14.9672398986
 20
50.0969193363
 30
0.0
 10
-14.9664740537
 20
50.0948784399
 30
0.0
 10
-14.9641395525
 20
50.0935106475
 30
0.0
 10
-14.9606681123
 20
50.0890608176
 30
0.0
 10
-14.9556236218
 20
50.083843583
 30
0.0
 10
-14.9492278033
 20
50.0767219037
 30
0.0
 10
-14.9378416271
 20
50.0642671581
 30
0.0
 10
-14.9201244274
 20
50.0446812827
 30
0.0
 10
-14.8946938938
 20
50.0164835818
 30
0.0
 10
-14.8637365433
 20
49.9819432654
 30
0.0
 10
-14.8272904665
 20
49.9410723618
 30
0.0
 10
-14.7678246454
 20
49.8739445329
 30
0.0
 10
-14.6805146692
 20
49.7739413286
 30
0.0
 10
-14.5612042539
 20
49.6340296318
 30
0.0
 10
-14.4229691449
 20
49.4676423402
 30
0.0
 10
-14.2672180797
 20
49.2743473208
 30
0.0
 10
-14.0957509718
 20
49.0535821751
 30
0.0
 10
-13.910371356
 20
48.8049679876
 30
0.0
 10
-13.7131003204
 20
48.5281815353
 30
0.0
 10
-13.4271934956
 20
48.1059621204
 30
0.0
 10
-13.0561036605
 20
47.5074100622
 30
0.0
 10
-12.6191222543
 20
46.698670151
 30
0.0
 10
-12.1994736227
 20
45.7796200621
 30
0.0
 10
-11.8211267161
 20
44.7574390987
 30
0.0
 10
-11.5069737065
 20
43.6430807766
 30
0.0
 10
-11.1963602651
 20
42.0291983921
 30
0.0
 10
-11.0784536068
 20
39.8889389554
 30
0.0
 10
-11.3060661998
 20
38.1662657355
 30
0.0
 10
-11.5014379558
 20
37.312173317
 30
0.0
  0
SPLINE
  5
33D
100
AcDbEntity
  8
RACCORDO
100
AcDbSpline
 62
250
  6
CONTINUOUS
 70
0
 71
3
 72
11
 73
7
 74
0
 42
0.0000001
 43
0.0000001
 44
0.0000000001
 40
0.0
 40
0.0
 40
0.0
 40
0.0
 40
0.2742434702
 40
0.538097742
 40
0.7826974369
 40
1.0
 40
1.0
 40
1.0
 40
1.0
 10
-11.5014379558
 20
37.312173317
 30
0.0
 10
-11.6518749068
 20
36.6545190998
 30
0.0
 10
-12.0403799479
 20
35.3834895811
 30
0.0
 10
-12.8553876942
 20
33.632877516
 30
0.0
 10
-13.8125556765
 20
32.1205480523
 30
0.0
 10
-14.5275948506
 20
31.2342847665
 30
0.0
 10
-14.8846869388
 20
30.8364834325
 30
0.0
  0
SPLINE
  5
33E
100
AcDbEntity
  8
RACCORDO
100
AcDbSpline
 62
250
  6
CONTINUOUS
 70
0
 71
3
 72
14
 73
10
 74
0
 42
0.0000001
 43
0.0000001
 44
0.0000000001
 40
0.0
 40
0.0
 40
0.0
 40
0.0
 40
0.4310412961
 40
0.6028841409
 40
0.7444438632
 40
0.8552224039
 40
0.9347732153
 40
0.9828820249
 40
1.0
 40
1.0
 40
1.0
 40
1.0
 10
-15.5215324569
 20
30.1737457397
 30
0.0
 10
-15.5460979185
 20
30.1742733328
 30
0.0
 10
-15.5804913775
 20
30.1750749442
 30
0.0
 10
-15.6228443439
 20
30.1757038404
 30
0.0
 10
-15.6471884501
 20
30.1759197114
 30
0.0
 10
-15.6656812891
 20
30.1756401426
 30
0.0
 10
-15.68024289
 20
30.1757170054
 30
0.0
 10
-15.6867543509
 20
30.1745470543
 30
0.0
 10
-15.6922979934
 20
30.1747204914
 30
0.0
 10
-15.6923431036
 20
30.1737457397
 30
0.0
  0
SPLINE
  5
33F
100
AcDbEntity
  8
RACCORDO
100
AcDbSpline
 62
250
  6
CONTINUOUS
 70
0
 71
3
 72
11
 73
7
 74
0
 42
0.0000001
 43
0.0000001
 44
0.0000000001
 40
0.0
 40
0.0
 40
0.0
 40
0.0
 40
0.2707057997
 40
0.525036012
 40
0.7659555419
 40
1.0
 40
1.0
 40
1.0
 40
1.0
 10
-15.5215324569
 20
30.1737457397
 30
0.0
 10
-15.5384791878
 20
30.2524542849
 30
0.0
 10
-15.5598437868
 20
30.4083052198
 30
0.0
 10
-15.5389530471
 20
30.6373674658
 30
0.0
 10
-15.4655251119
 20
30.844029197
 30
0.0
 10
-15.3822084047
 20
30.96085593
 30
0.0
 10
-15.3341483341
 20
31.0112105435
 30
0.0
  0
SPLINE
  5
340
100
AcDbEntity
  8
RACCORDO
100
AcDbSpline
 62
250
  6
CONTINUOUS
 70
0
 71
3
 72
11
 73
7
 74
0
 42
0.0000001
 43
0.0000001
 44
0.0000000001
 40
0.0
 40
0.0
 40
0.0
 40
0.0
 40
0.2770729516
 40
0.5333635807
 40
0.7718911966
 40
1.0
 40
1.0
 40
1.0
 40
1.0
 10
-15.0252332902
 20
30.6820548769
 30
0.0
 10
-15.0481435629
 20
30.7554967431
 30
0.0
 10
-15.079502712
 20
30.9014216493
 30
0.0
 10
-15.0780690727
 20
31.117741879
 30
0.0
 10
-15.0247091825
 20
31.3138168961
 30
0.0
 10
-14.9546292406
 20
31.4255710279
 30
0.0
 10
-14.9130677665
 20
31.4733644381
 30
0.0
  0
SPLINE
  5
341
100
AcDbEntity
  8
RACCORDO
100
AcDbSpline
 62
250
  6
CONTINUOUS
 70
0
 71
3
 72
14
 73
10
 74
0
 42
0.0000001
 43
0.0000001
 44
0.0000000001
 40
0.0
 40
0.0
 40
0.0
 40
0.0
 40
0.4310412947
 40
0.6028841389
 40
0.7444438608
 40
0.8552224013
 40
0.9347732126
 40
0.9828820227
 40
1.0
 40
1.0
 40
1.0
 40
1.0
 10
15.5215324569
 20
30.1737457397
 30
0.0
 10
15.5460979185
 20
30.1742733335
 30
0.0
 10
15.5804913774
 20
30.1750749458
 30
0.0
 10
15.6228443438
 20
30.1757038427
 30
0.0
 10
15.6471884499
 20
30.1759197138
 30
0.0
 10
15.6656812891
 20
30.1756401452
 30
0.0
 10
15.6802428897
 20
30.1757170069
 30
0.0
 10
15.6867543513
 20
30.1745470565
 30
0.0
 10
15.6922979934
 20
30.1747204915
 30
0.0
 10
15.6923431036
 20
30.1737457397
 30
0.0
  0
SPLINE
  5
342
100
AcDbEntity
  8
RACCORDO
100
AcDbSpline
 62
250
  6
CONTINUOUS
 70
0
 71
3
 72
11
 73
7
 74
0
 42
0.0000001
 43
0.0000001
 44
0.0000000001
 40
0.0
 40
0.0
 40
0.0
 40
0.0
 40
0.270705792
 40
0.5250360004
 40
0.7659555326
 40
1.0
 40
1.0
 40
1.0
 40
1.0
 10
15.5215324569
 20
30.1737457397
 30
0.0
 10
15.5384791905
 20
30.2524542823
 30
0.0
 10
15.5598437938
 20
30.4083052141
 30
0.0
 10
15.5389530559
 20
30.6373674588
 30
0.0
 10
15.4655251176
 20
30.8440291924
 30
0.0
 10
15.3822084068
 20
30.9608559278
 30
0.0
 10
15.3341483341
 20
31.0112105435
 30
0.0
  0
SPLINE
  5
343
100
AcDbEntity
  8
RACCORDO
100
AcDbSpline
 62
250
  6
CONTINUOUS
 70
0
 71
3
 72
11
 73
7
 74
0
 42
0.0000001
 43
0.0000001
 44
0.0000000001
 40
0.0
 40
0.0
 40
0.0
 40
0.0
 40
0.2770734375
 40
0.5333645758
 40
0.7718921869
 40
1.0
 40
1.0
 40
1.0
 40
1.0
 10
15.0252156433
 20
30.6820538791
 30
0.0
 10
15.0481275105
 20
30.7554955075
 30
0.0
 10
15.079490042
 20
30.9014201449
 30
0.0
 10
15.0780622761
 20
31.117740928
 30
0.0
 10
15.0247086191
 20
31.3138177283
 30
0.0
 10
14.9546326239
 20
31.425574211
 30
0.0
 10
14.9130729036
 20
31.473368905
 30
0.0
  0
SPLINE
  5
344
100
AcDbEntity
  8
0
100
AcDbSpline
 62
250
  6
CONTINUOUS
 70
0
 71
3
 72
11
 73
7
 74
0
 42
0.0000001
 43
0.0000001
 44
0.0000000001
 40
0.0
 40
0.0
 40
0.0
 40
0.0
 40
0.249806705
 40
0.4995086459
 40
0.7497919169
 40
1.0
 40
1.0
 40
1.0
 40
1.0
 10
17.8573865749
 20
18.1648057835
 30
0.0
 10
17.9096380816
 20
18.150718835
 30
0.0
 10
18.0102100522
 20
18.1048843658
 30
0.0
 10
18.1303890182
 20
17.9914605293
 30
0.0
 10
18.2080237311
 20
17.8454947157
 30
0.0
 10
18.2259199995
 20
17.7362590597
 30
0.0
 10
18.2259199995
 20
17.6820549924
 30
0.0
  0
SPLINE
  5
345
100
AcDbEntity
  8
RACCORDO
100
AcDbSpline
 62
250
  6
CONTINUOUS
 70
0
 71
3
 72
39
 73
35
 74
0
 42
0.0000001
 43
0.0000001
 44
0.0000000001
 40
0.0
 40
0.0
 40
0.0
 40
0.0
 40
0.1401323626
 40
0.2206460231
 40
0.3051654714
 40
0.3914811934
 40
0.4776441606
 40
0.561973706
 40
0.6429385098
 40
0.7190298321
 40
0.7887068355
 40
0.8206700545
 40
0.8504603647
 40
0.8779138736
 40
0.902868242
 40
0.9251942566
 40
0.9447636402
 40
0.9614836378
 40
0.9687476214
 40
0.9752676431
 40
0.9810378635
 40
0.9860524527
 40
0.9903053107
 40
0.9937903771
 40
0.9952438256
 40
0.9965042409
 40
0.9975713928
 40
0.9984450492
 40
0.9991249757
 40
0.9996109357
 40
0.9997811039
 40
0.9999026908
 40
0.9999756662
 40
1.0
 40
1.0
 40
1.0
 40
1.0
 10
15.0252353347
 20
30.6820549924
 30
0.0
 10
14.3486043948
 20
31.4153489514
 30
0.0
 10
13.3934367468
 20
32.6798896364
 30
0.0
 10
12.3764496677
 20
34.6044317007
 30
0.0
 10
11.7374377202
 20
36.2815107418
 30
0.0
 10
11.3096058192
 20
38.0659964651
 30
0.0
 10
11.1194756243
 20
39.8899805963
 30
0.0
 10
11.1678688359
 20
41.684773697
 30
0.0
 10
11.4319197145
 20
43.3875784897
 30
0.0
 10
11.8692329376
 20
44.9452882113
 30
0.0
 10
12.343988303
 20
46.121021334
 30
0.0
 10
12.7589577374
 20
46.9601084596
 30
0.0
 10
13.0662977705
 20
47.5162208807
 30
0.0
 10
13.3706327724
 20
48.0163181065
 30
0.0
 10
13.6643631168
 20
48.4601650386
 30
0.0
 10
13.9405247771
 20
48.8479439836
 30
0.0
 10
14.1925816136
 20
49.1806543718
 30
0.0
 10
14.3862737082
 20
49.4228749164
 30
0.0
 10
14.5247412258
 20
49.5902115708
 30
0.0
 10
14.6144924108
 20
49.6966556915
 30
0.0
 10
14.6947466344
 20
49.7901507003
 30
0.0
 10
14.7651283629
 20
49.8708410272
 30
0.0
 10
14.8252822781
 20
49.9388580182
 30
0.0
 10
14.8688613817
 20
49.9876835325
 30
0.0
 10
14.898347045
 20
50.0205266223
 30
0.0
 10
14.9163698242
 20
50.0405278313
 30
0.0
 10
14.9316630636
 20
50.0574223638
 30
0.0
 10
14.9442037304
 20
50.0712591853
 30
0.0
 10
14.9539981515
 20
50.0819325405
 30
0.0
 10
14.9603967979
 20
50.0890725696
 30
0.0
 10
14.9641724629
 20
50.0929885002
 30
0.0
 10
14.9658791436
 20
50.0951690451
 30
0.0
 10
14.9670257391
 20
50.0958400466
 30
0.0
 10
14.9674019288
 20
50.0968414831
 30
0.0
 10
14.9675580982
 20
50.0967664453
 30
0.0
  0
LINE
  5
346
100
AcDbEntity
  8
0
100
AcDbLine
 62
250
  6
CONTINUOUS
 10
-40.7978044316
 20
22.8787875382
 11
-40.817648998
 21
30.6820549924
  0
LINE
  5
347
100
AcDbEntity
  8
0
100
AcDbLine
 62
250
  6
CONTINUOUS
 10
-40.6266889201
 20
11.6820549924
 11
-40.6748453349
 21
30.6820549924
  0
LINE
  5
348
100
AcDbEntity
  8
0
100
AcDbLine
 62
250
  6
CONTINUOUS
 10
-75.441025264
 20
11.6820549924
 11
-75.3928688492
 21
30.6820549924
  0
LINE
  5
349
100
AcDbEntity
  8
0
100
AcDbLine
 62
250
  6
CONTINUOUS
 10
-75.2699097525
 20
22.8787875403
 11
-75.250065186
 21
30.6820549924
  0
SPLINE
  5
34A
100
AcDbEntity
  8
0
100
AcDbSpline
 62
250
  6
CONTINUOUS
 70
0
 71
3
 72
14
 73
10
 74
0
 42
0.0000001
 43
0.0000001
 44
0.0000000001
 40
0.0
 40
0.0
 40
0.0
 40
0.0
 40
0.0257282838
 40
0.084340467
 40
0.1770315628
 40
0.3005993958
 40
0.4507112482
 40
0.6218222796
 40
1.0
 40
1.0
 40
1.0
 40
1.0
 10
-56.433857092
 20
18.1820549924
 30
0.0
 10
-56.4295178848
 20
18.1820549924
 30
0.0
 10
-56.4215201144
 20
18.165655693
 30
0.0
 10
-56.4153005123
 20
18.1395161391
 30
0.0
 10
-56.4075711337
 20
18.0921799328
 30
0.0
 10
-56.4013617673
 20
18.0313315026
 30
0.0
 10
-56.395926757
 20
17.956274012
 30
0.0
 10
-56.3904378372
 20
17.8385319522
 30
0.0
 10
-56.3889132718
 20
17.7458366081
 30
0.0
 10
-56.3889132718
 20
17.6820549924
 30
0.0
  0
SPLINE
  5
34B
100
AcDbEntity
  8
0
100
AcDbSpline
 62
250
  6
CONTINUOUS
 70
0
 71
3
 72
14
 73
10
 74
0
 42
0.0000001
 43
0.0000001
 44
0.0000000001
 40
0.0
 40
0.0
 40
0.0
 40
0.0
 40
0.0257282837
 40
0.084340467
 40
0.1770315629
 40
0.3005993959
 40
0.4507112481
 40
0.6218222793
 40
1.0
 40
1.0
 40
1.0
 40
1.0
 10
-59.633857092
 20
18.1820549924
 30
0.0
 10
-59.6381962993
 20
18.1820549924
 30
0.0
 10
-59.6461940697
 20
18.1656556931
 30
0.0
 10
-59.6524136717
 20
18.1395161392
 30
0.0
 10
-59.6601430504
 20
18.0921799328
 30
0.0
 10
-59.6663524168
 20
18.0313315026
 30
0.0
 10
-59.6717874271
 20
17.956274012
 30
0.0
 10
-59.6772763469
 20
17.8385319523
 30
0.0
 10
-59.6788009123
 20
17.7458366082
 30
0.0
 10
-59.6788009123
 20
17.6820549924
 30
0.0
  0
SPLINE
  5
34C
100
AcDbEntity
  8
RACCORDO
100
AcDbSpline
 62
250
  6
CONTINUOUS
 70
0
 71
3
 72
11
 73
7
 74
0
 42
0.0000001
 43
0.0000001
 44
0.0000000001
 40
0.0
 40
0.0
 40
0.0
 40
0.0
 40
0.2579681143
 40
0.5167772418
 40
0.7670939807
 40
1.0
 40
1.0
 40
1.0
 40
1.0
 10
-66.8940308039
 20
30.1737457397
 30
0.0
 10
-66.8551076541
 20
30.2564662413
 30
0.0
 10
-66.7639416313
 20
30.4159164064
 30
0.0
 10
-66.6090520829
 20
30.6396058687
 30
0.0
 10
-66.4383834212
 20
30.8404624743
 30
0.0
 10
-66.3126784115
 20
30.9572192408
 30
0.0
 10
-66.2502477735
 20
31.0112105435
 30
0.0
  0
SPLINE
  5
34D
100
AcDbEntity
  8
RACCORDO
100
AcDbSpline
 62
250
  6
CONTINUOUS
 70
0
 71
3
 72
9
 73
5
 74
0
 42
0.0000001
 43
0.0000001
 44
0.0000000001
 40
0.0
 40
0.0
 40
0.0
 40
0.0
 40
0.249883099
 40
1.0
 40
1.0
 40
1.0
 40
1.0
 10
-49.8173246606
 20
30.1737457397
 30
0.0
 10
-49.7984742642
 20
28.633573705
 30
0.0
 10
-49.7330200147
 20
22.4698850117
 30
0.0
 10
-49.7051713634
 20
16.3057994786
 30
0.0
 10
-49.7051717227
 20
11.6820549924
 30
0.0
  0
SPLINE
  5
34E
100
AcDbEntity
  8
RACCORDO
100
AcDbSpline
 62
250
  6
CONTINUOUS
 70
0
 71
3
 72
9
 73
5
 74
0
 42
0.0000001
 43
0.0000001
 44
0.0000000001
 40
0.0
 40
0.0
 40
0.0
 40
0.0
 40
0.2500840966
 40
1.0
 40
1.0
 40
1.0
 40
1.0
 10
-66.3625418688
 20
11.6820549924
 30
0.0
 10
-66.3625419876
 20
13.2235812843
 30
0.0
 10
-66.3532870737
 20
19.3876087304
 30
0.0
 10
-66.3069635511
 20
25.5515865386
 30
0.0
 10
-66.250392254
 20
30.1737457397
 30
0.0
  0
SPLINE
  5
34F
100
AcDbEntity
  8
RACCORDO
100
AcDbSpline
 62
250
  6
CONTINUOUS
 70
0
 71
3
 72
9
 73
5
 74
0
 42
0.0000001
 43
0.0000001
 44
0.0000000001
 40
0.0
 40
0.0
 40
0.0
 40
0.0
 40
0.2488320041
 40
1.0
 40
1.0
 40
1.0
 40
1.0
 10
-48.400006185
 20
30.6820549924
 30
0.0
 10
-48.4619731291
 20
30.6366639012
 30
0.0
 10
-48.7133903221
 20
30.4575203332
 30
0.0
 10
-48.9739660049
 20
30.2912849042
 30
0.0
 10
-49.1737881464
 20
30.1736407019
 30
0.0
  0
SPLINE
  5
350
100
AcDbEntity
  8
RACCORDO
100
AcDbSpline
 62
250
  6
CONTINUOUS
 70
0
 71
3
 72
9
 73
5
 74
0
 42
0.0000001
 43
0.0000001
 44
0.0000000001
 40
0.0
 40
0.0
 40
0.0
 40
0.0
 40
0.5098673366
 40
1.0
 40
1.0
 40
1.0
 40
1.0
 10
-48.400007558
 20
30.6820548714
 30
0.0
 10
-48.4899865985
 20
30.8386423679
 30
0.0
 10
-48.6994136838
 20
31.1273466764
 30
0.0
 10
-48.9601495226
 20
31.3717293869
 30
0.0
 10
-49.1008983011
 20
31.4733644588
 30
0.0
  0
SPLINE
  5
351
100
AcDbEntity
  8
RACCORDO
100
AcDbSpline
 62
250
  6
CONTINUOUS
 70
0
 71
3
 72
11
 73
7
 74
0
 42
0.0000001
 43
0.0000001
 44
0.0000000001
 40
0.0
 40
0.0
 40
0.0
 40
0.0
 40
0.2579681143
 40
0.5167772417
 40
0.7670939807
 40
1.0
 40
1.0
 40
1.0
 40
1.0
 10
-49.1736833802
 20
30.1737457397
 30
0.0
 10
-49.21260653
 20
30.2564662413
 30
0.0
 10
-49.3037725527
 20
30.4159164065
 30
0.0
 10
-49.458662101
 20
30.6396058687
 30
0.0
 10
-49.6293307628
 20
30.8404624744
 30
0.0
 10
-49.7550357725
 20
30.9572192408
 30
0.0
 10
-49.8174664106
 20
31.0112105435
 30
0.0
  0
SPLINE
  5
352
100
AcDbEntity
  8
RACCORDO
100
AcDbSpline
 62
250
  6
CONTINUOUS
 70
0
 71
3
 72
9
 73
5
 74
0
 42
0.0000001
 43
0.0000001
 44
0.0000000001
 40
0.0
 40
0.0
 40
0.0
 40
0.0
 40
0.5098653849
 40
1.0
 40
1.0
 40
1.0
 40
1.0
 10
-67.6676953706
 20
30.6820538791
 30
0.0
 10
-67.5777188553
 20
30.8386413524
 30
0.0
 10
-67.3682955183
 20
31.1273470012
 30
0.0
 10
-67.1075633424
 20
31.3717317891
 30
0.0
 10
-66.966815883
 20
31.473368905
 30
0.0
  0
SPLINE
  5
353
100
AcDbEntity
  8
RACCORDO
100
AcDbSpline
 62
250
  6
CONTINUOUS
 70
0
 71
3
 72
9
 73
5
 74
0
 42
0.0000001
 43
0.0000001
 44
0.0000000001
 40
0.0
 40
0.0
 40
0.0
 40
0.0
 40
0.2498807954
 40
1.0
 40
1.0
 40
1.0
 40
1.0
 10
-49.1737881464
 20
30.1736407019
 30
0.0
 10
-49.1561058635
 20
28.6334815792
 30
0.0
 10
-49.0942248825
 20
22.4698069602
 30
0.0
 10
-49.0682018327
 20
16.3057759597
 30
0.0
 10
-49.0682022141
 20
11.6820549924
 30
0.0
  0
SPLINE
  5
354
100
AcDbEntity
  8
RACCORDO
100
AcDbSpline
 62
250
  6
CONTINUOUS
 70
0
 71
3
 72
9
 73
5
 74
0
 42
0.0000001
 43
0.0000001
 44
0.0000000001
 40
0.0
 40
0.0
 40
0.0
 40
0.0
 40
0.2513138331
 40
1.0
 40
1.0
 40
1.0
 40
1.0
 10
-66.8939234208
 20
30.1736390873
 30
0.0
 10
-66.9607765316
 20
30.2129984927
 30
0.0
 10
-67.2249008827
 20
30.372793544
 30
0.0
 10
-67.4812623109
 20
30.5454826115
 30
0.0
 10
-67.6677079991
 20
30.6820549924
 30
0.0
  0
SPLINE
  5
355
100
AcDbEntity
  8
RACCORDO
100
AcDbSpline
 62
250
  6
CONTINUOUS
 70
0
 71
3
 72
9
 73
5
 74
0
 42
0.0000001
 43
0.0000001
 44
0.0000000001
 40
0.0
 40
0.0
 40
0.0
 40
0.0
 40
0.2500856233
 40
1.0
 40
1.0
 40
1.0
 40
1.0
 10
-66.9995125263
 20
11.6820549924
 30
0.0
 10
-66.999512653
 20
13.2235779584
 30
0.0
 10
-66.9907281034
 20
19.3875551473
 30
0.0
 10
-66.9469895012
 20
25.5514859207
 30
0.0
 10
-66.8939234208
 20
30.1736390873
 30
0.0
  0
SPLINE
  5
356
100
AcDbEntity
  8
RACCORDO
100
AcDbSpline
 62
250
  6
CONTINUOUS
 70
0
 71
3
 72
27
 73
23
 74
0
 42
0.0000001
 43
0.0000001
 44
0.0000000001
 40
0.0
 40
0.0
 40
0.0
 40
0.0
 40
0.0284418605
 40
0.0568218447
 40
0.0854420337
 40
0.114617482
 40
0.1752062881
 40
0.2067406743
 40
0.2388736449
 40
0.3039159187
 40
0.3685343803
 40
0.4316217744
 40
0.493356278
 40
0.5549075523
 40
0.6174731261
 40
0.6814818983
 40
0.7464891863
 40
0.811536796
 40
0.875647067
 40
0.9383199806
 40
0.9692338763
 40
1.0
 40
1.0
 40
1.0
 40
1.0
 10
-67.6677079991
 20
30.6820549924
 30
0.0
 10
-67.9547686385
 20
30.8945626494
 30
0.0
 10
-68.5023769097
 20
31.3557979437
 30
0.0
 10
-69.2229711143
 20
32.1553344762
 30
0.0
 10
-69.82785004
 20
33.0572376235
 30
0.0
 10
-70.4769844899
 20
34.3991939464
 30
0.0
 10
-70.8580021734
 20
35.8924622303
 30
0.0
 10
-70.9940421539
 20
37.4485187198
 30
0.0
 10
-70.9730047935
 20
39.0671303259
 30
0.0
 10
-70.6605746105
 20
41.0869388154
 30
0.0
 10
-69.8649624287
 20
43.3871605417
 30
0.0
 10
-68.6569085462
 20
45.4564375695
 30
0.0
 10
-67.0548100122
 20
47.1893987764
 30
0.0
 10
-65.1142681553
 20
48.5187916703
 30
0.0
 10
-62.9219529019
 20
49.4359607085
 30
0.0
 10
-60.5659568054
 20
49.9705784789
 30
0.0
 10
-58.1277738956
 20
50.1533956872
 30
0.0
 10
-55.6864458612
 20
49.9966359082
 30
0.0
 10
-53.3216892729
 20
49.4902511293
 30
0.0
 10
-51.4723397119
 20
48.7468800636
 30
0.0
 10
-50.1259085457
 20
47.9512056501
 30
0.0
 10
-49.5034021178
 20
47.4872135102
 30
0.0
 10
-49.2067987338
 20
47.2396442706
 30
0.0
  0
SPLINE
  5
357
100
AcDbEntity
  8
RACCORDO
100
AcDbSpline
 62
250
  6
CONTINUOUS
 70
0
 71
3
 72
28
 73
24
 74
0
 42
0.0000001
 43
0.0000001
 44
0.0000000001
 40
0.0
 40
0.0
 40
0.0
 40
0.0
 40
0.0287468383
 40
0.0574097699
 40
0.0862649951
 40
0.1156114872
 40
0.1762990305
 40
0.2077635477
 40
0.2397542925
 40
0.3043907516
 40
0.368666544
 40
0.4316770474
 40
0.4936166814
 40
0.5554736706
 40
0.6181941115
 40
0.6820672575
 40
0.7143541586
 40
0.7467457087
 40
0.8113955876
 40
0.8752962895
 40
0.9380467289
 40
0.9690844319
 40
1.0
 40
1.0
 40
1.0
 40
1.0
 10
-66.966815883
 20
31.473364114
 30
0.0
 10
-67.2338606299
 20
31.6655024877
 30
0.0
 10
-67.7438618141
 20
32.0832609531
 30
0.0
 10
-68.4158131951
 20
32.8109487455
 30
0.0
 10
-68.97871572
 20
33.6348076853
 30
0.0
 10
-69.577697697
 20
34.8609429862
 30
0.0
 10
-69.9204668057
 20
36.2267226627
 30
0.0
 10
-70.0289631157
 20
37.6449130227
 30
0.0
 10
-69.9884282852
 20
39.1126655667
 30
0.0
 10
-69.6693851457
 20
40.9380915684
 30
0.0
 10
-68.8958367759
 20
43.0074367337
 30
0.0
 10
-67.7439772473
 20
44.8599723729
 30
0.0
 10
-66.2379533672
 20
46.4019288598
 30
0.0
 10
-64.4365762386
 20
47.5764942917
 30
0.0
 10
-62.4228702195
 20
48.3808950588
 30
0.0
 10
-60.6382499993
 20
48.7669127061
 30
0.0
 10
-59.1742929786
 20
48.9217619287
 30
0.0
 10
-57.6941895582
 20
48.9748076322
 30
0.0
 10
-55.8499919041
 20
48.8532447494
 30
0.0
 10
-53.7005074191
 20
48.3976519284
 30
0.0
 10
-52.0112640689
 20
47.731665545
 30
0.0
 10
-50.7732252789
 20
47.0176002371
 30
0.0
 10
-50.1980204975
 20
46.6002967293
 30
0.0
 10
-49.9232790899
 20
46.3773764038
 30
0.0
  0
SPLINE
  5
358
100
AcDbEntity
  8
RACCORDO
100
AcDbSpline
 62
250
  6
CONTINUOUS
 70
0
 71
3
 72
9
 73
5
 74
0
 42
0.0000001
 43
0.0000001
 44
0.0000000001
 40
0.0
 40
0.0
 40
0.0
 40
0.0
 40
0.2511944423
 40
1.0
 40
1.0
 40
1.0
 40
1.0
 10
-66.2502753234
 20
31.0112105435
 30
0.0
 10
-66.312106013
 20
31.0469370458
 30
0.0
 10
-66.5565579923
 20
31.192068783
 30
0.0
 10
-66.7940018362
 20
31.3490662753
 30
0.0
 10
-66.966815883
 20
31.473364114
 30
0.0
  0
SPLINE
  5
359
100
AcDbEntity
  8
RACCORDO
100
AcDbSpline
 62
250
  6
CONTINUOUS
 70
0
 71
3
 72
9
 73
5
 74
0
 42
0.0000001
 43
0.0000001
 44
0.0000000001
 40
0.0
 40
0.0
 40
0.0
 40
0.0
 40
0.248938412
 40
1.0
 40
1.0
 40
1.0
 40
1.0
 10
-49.1008983011
 20
31.473364114
 30
0.0
 10
-49.1583502738
 20
31.4320413381
 30
0.0
 10
-49.3913016506
 20
31.2690672065
 30
0.0
 10
-49.6325662114
 20
31.1180321429
 30
0.0
 10
-49.8174388614
 20
31.0112105435
 30
0.0
  0
SPLINE
  5
35A
100
AcDbEntity
  8
RACCORDO
100
AcDbSpline
 62
250
  6
CONTINUOUS
 70
0
 71
3
 72
19
 73
15
 74
0
 42
0.0000001
 43
0.0000001
 44
0.0000000001
 40
0.0
 40
0.0
 40
0.0
 40
0.0
 40
0.0623943493
 40
0.1251873151
 40
0.2528319269
 40
0.3836584399
 40
0.5155073238
 40
0.5806992627
 40
0.6446952895
 40
0.7676436997
 40
0.8268182176
 40
0.8848414315
 40
0.942360073
 40
1.0
 40
1.0
 40
1.0
 40
1.0
 10
-49.2067987338
 20
47.2396442706
 30
0.0
 10
-48.9071565319
 20
46.989538587
 30
0.0
 10
-48.333476058
 20
46.4535604874
 30
0.0
 10
-47.3037294116
 20
45.2495718079
 30
0.0
 10
-46.2591340298
 20
43.513399091
 30
0.0
 10
-45.4344388905
 20
41.20086379
 30
0.0
 10
-45.1032557531
 20
39.164162655
 30
0.0
 10
-45.0706535295
 20
37.5290764003
 30
0.0
 10
-45.1979126511
 20
35.9553207525
 30
0.0
 10
-45.5740921086
 20
34.4435537545
 30
0.0
 10
-46.2238053433
 20
33.0844343724
 30
0.0
 10
-46.8316185784
 20
32.171401361
 30
0.0
 10
-47.5576016302
 20
31.3625973875
 30
0.0
 10
-48.110209291
 20
30.8965879044
 30
0.0
 10
-48.400006185
 20
30.6820549924
 30
0.0
  0
SPLINE
  5
35B
100
AcDbEntity
  8
RACCORDO
100
AcDbSpline
 62
250
  6
CONTINUOUS
 70
0
 71
3
 72
18
 73
14
 74
0
 42
0.0000001
 43
0.0000001
 44
0.0000000001
 40
0.0
 40
0.0
 40
0.0
 40
0.0
 40
0.1254492051
 40
0.2530408763
 40
0.3832175908
 40
0.5141723877
 40
0.5790027583
 40
0.6427725271
 40
0.7657659729
 40
0.8252324087
 40
0.8836953473
 40
0.9417632051
 40
1.0
 40
1.0
 40
1.0
 40
1.0
 10
-49.9232790899
 20
46.3773764038
 30
0.0
 10
-49.3711618184
 20
45.9293982015
 30
0.0
 10
-48.3537607561
 20
44.8992399595
 30
0.0
 10
-47.1906929458
 20
43.0467795927
 30
0.0
 10
-46.4074852957
 20
40.9734877903
 30
0.0
 10
-46.0824145303
 20
39.1429474579
 30
0.0
 10
-46.038069409
 20
37.6701275015
 30
0.0
 10
-46.1436389884
 20
36.2464699153
 30
0.0
 10
-46.4847463138
 20
34.8748985566
 30
0.0
 10
-47.0838528412
 20
33.6433628597
 30
0.0
 10
-47.64768346
 20
32.8159868955
 30
0.0
 10
-48.3213693318
 20
32.0853821434
 30
0.0
 10
-48.8329764682
 20
31.6661333463
 30
0.0
 10
-49.1008983011
 20
31.473364114
 30
0.0
  0
ENDSEC
  0
SECTION
  2
OBJECTS
  0
DICTIONARY
  5
C
100
AcDbDictionary
280
0
281
1
  3
ACAD_GROUP
350
D
  3
ACAD_MLINESTYLE
350
17
  3
ACAD_LAYOUT
350
1A
  3
ACAD_PLOTSETTINGS
350
19
  3
ACAD_PLOTSTYLENAME
350
E
  0
DICTIONARY
  5
D
102
{ACAD_REACTORS
330
C
102
}
100
AcDbDictionary
280
0
281
1
  0
ACDBDICTIONARYWDFLT
  5
E
102
{ACAD_REACTORS
330
C
102
}
100
AcDbDictionary
281
1
  3
Normal
350
F
100
AcDbDictionaryWithDefault
340
F
  0
DICTIONARY
  5
17
102
{ACAD_REACTORS
330
C
102
}
100
AcDbDictionary
280
0
281
1
  3
Standard
350
18
  0
DICTIONARY
  5
19
102
{ACAD_REACTORS
330
C
102
}
100
AcDbDictionary
281
1
  0
DICTIONARY
  5
1A
102
{ACAD_REACTORS
330
C
102
}
100
AcDbDictionary
281
1
  3
Model
350
35C
  3
Layout1
350
35D
  0
ACDBPLACEHOLDER
  5
F
102
{ACAD_REACTORS
330
E
102
}
  0
MLINESTYLE
  5
18
102
{ACAD_REACTORS
330
17
102
}
100
AcDbMlineStyle
  2
STANDARD
 70
0
  3

 62
256
 51
90.0
 52
90.0
 71
2
 49
0.5
 62
256
  6
BYLAYER
 49
-0.5
 62
256
  6
BYLAYER
  0
LAYOUT
  5
35C
102
{ACAD_REACTORS
330
1A
102
}
100
AcDbPlotSettings
  1

  2
none_device
  4
ISO_A4_(297.00_x_210.00_MM)
  6

 40
0.0
 41
0.0
 42
0.0
 43
0.0
 44
297.0
 45
210.0
 46
0.0
 47
0.0
 48
0.0
 49
0.0
140
0.0
141
0.0
142
1.0
143
1.0
 70
1024
 72
1
 73
0
 74
0
  7

 75
0
147
1.0
148
0.0
149
0.0
100
AcDbLayout
  1
Model
 70
0
 71
0
 10
0.0
 20
0.0
 11
297.0
 21
210.0
 12
0.0
 22
0.0
 32
0.0
 14
0.0
 24
0.0
 34
0.0
 15
0.0
 25
0.0
 35
0.0
146
0.0
 13
0.0
 23
0.0
 33
0.0
 16
1.0
 26
0.0
 36
0.0
 17
0.0
 27
1.0
 37
0.0
 76
0
330
21C
345
0
346
0
  0
LAYOUT
  5
35D
102
{ACAD_REACTORS
330
1A
102
}
100
AcDbPlotSettings
  1

  2
none_device
  4
ISO_A4_(297.00_x_210.00_MM)
  6

 40
0.0
 41
0.0
 42
0.0
 43
0.0
 44
297.0
 45
210.0
 46
0.0
 47
0.0
 48
0.0
 49
0.0
140
0.0
141
0.0
142
1.0
143
1.0
 70
0
 72
1
 73
0
 74
0
  7

 75
0
147
1.0
148
0.0
149
0.0
100
AcDbLayout
  1
Layout1
 70
0
 71
1
 10
0.0
 20
0.0
 11
297.0
 21
210.0
 12
0.0
 22
0.0
 32
0.0
 14
0.0
 24
0.0
 34
0.0
 15
0.0
 25
0.0
 35
0.0
146
0.0
 13
0.0
 23
0.0
 33
0.0
 16
1.0
 26
0.0
 36
0.0
 17
0.0
 27
1.0
 37
0.0
 76
0
330
21D
345
0
346
0
  0
ENDSEC
  0
EOF
