  0
SECTION
  2
HEADER
  9
$ACADVER
  1
AC1015
  9
$DWGCODEPAGE
  3
ANSI_1252
  9
$EXTMAX
 10
297.0
 20
210.0
 30
0.0
  9
$EXTMIN
 10
0.0
 20
0.0
 30
0.0
  9
$LIMMIN
 10
0.0
 20
0.0
  9
$LIMMAX
 10
297.0
 20
210.0
  9
$VIEWCTR
 10
148.5
 20
105.0
  9
$VIEWSIZE
 40
210.0
  9
$CLAYER
  8
0
  9
$LTSCALE
 40
16.335
  9
$CELTYPE
  6
BYLAYER
  9
$DIMSCALE
 40
1.0
  9
$DIMASZ
 40
3.0
  9
$DIMEXO
 40
0.5
  9
$DIMDLI
 40
11.286
  9
$DIMEXE
 40
1.5
  9
$DIMCEN
 40
2.673
  9
$DIMLFAC
 40
1.0
  9
$DIMBLK
  1
_FILLED
  9
$DIMTXT
 40
3.0
  9
$DIMTOL
 70
1
  9
$DIMLIM
 70
0
  9
$DIMTFAC
 40
1.0
  9
$DIMTP
 40
0.01
  9
$DIMTM
 40
0.01
  9
$DIMGAP
 40
0.625
  9
$DIMDSEP
 70
44
  9
$PDMODE
 70
3
  9
$PDSIZE
 40
3.0
  9
$HANDSEED
  5
3C5
  9
$TILEMODE
 70
1
  9
$MEASUREMENT
 70
1
  9
$INSUNITS
 70
4
  0
ENDSEC
  0
SECTION
  2
CLASSES
  0
CLASS
  1
ACDBDICTIONARYWDFLT
  2
AcDbDictionaryWithDefault
  3
AutoCAD 2000
 90
0
280
0
281
0
  0
CLASS
  1
ACDBPLACEHOLDER
  2
AcDbPlaceHolder
  3
AutoCAD 2000
 90
0
280
0
281
0
  0
CLASS
  1
LAYOUT
  2
AcDbLayout
  3
AutoCAD 2000
 90
0
280
0
281
0
  0
ENDSEC
  0
SECTION
  2
TABLES
  0
TABLE
  2
VPORT
  5
8
100
AcDbSymbolTable
 70
2
  0
VPORT
  5
1F4
100
AcDbSymbolTableRecord
100
AcDbViewportTableRecord
  2
*ACTIVE
 70
0
 10
0.0
 20
0.0
 11
1.0
 21
1.0
 12
148.5
 22
105.0
 13
0.0
 23
0.0
 14
1.0
 24
1.0
 15
0.0
 25
0.0
 16
0.0
 26
0.0
 36
1.0
 17
0.0
 27
0.0
 37
0.0
 40
210.0
 41
1.4142857143
 42
50.0
 43
0.0
 44
0.0
 50
0.0
 51
0.0
 71
0
 72
100
 73
1
 74
1
 75
0
 76
0
 77
0
 78
0
  0
ENDTAB
  0
TABLE
  2
LTYPE
  5
5
100
AcDbSymbolTable
 70
6
  0
LTYPE
  5
14
100
AcDbSymbolTableRecord
100
AcDbLinetypeTableRecord
  2
BYBLOCK
 70
0
  3

 72
65
 73
0
 40
0.0
  0
LTYPE
  5
15
100
AcDbSymbolTableRecord
100
AcDbLinetypeTableRecord
  2
BYLAYER
 70
0
  3

 72
65
 73
0
 40
0.0
  0
LTYPE
  5
16
100
AcDbSymbolTableRecord
100
AcDbLinetypeTableRecord
  2
CONTINUOUS
 70
64
  3
Solid line
 72
65
 73
0
 40
0.0
  0
LTYPE
  5
1F5
100
AcDbSymbolTableRecord
100
AcDbLinetypeTableRecord
  2
CENTER
 70
64
  3
____ _ ____ _ ____ _ ____ _ ____ _ ____ _ ____
 72
65
 73
4
 40
0.6
 49
0.375
 74
0
 49
-0.075
 74
0
 49
0.075
 74
0
 49
-0.075
 74
0
  0
LTYPE
  5
1F6
100
AcDbSymbolTableRecord
100
AcDbLinetypeTableRecord
  2
HIDDEN
 70
64
  3
- - - - - - - - - - - - - - - - - - - -
 72
65
 73
2
 40
0.2
 49
0.1
 74
0
 49
-0.1
 74
0
  0
LTYPE
  5
1F7
100
AcDbSymbolTableRecord
100
AcDbLinetypeTableRecord
  2
PHANTOM
 70
64
  3
_____ _ _ _____ _ _ _____ _ _ _____
 72
65
 73
6
 40
0.8
 49
0.45
 74
0
 49
-0.05
 74
0
 49
0.1
 74
0
 49
-0.05
 74
0
 49
0.1
 74
0
 49
-0.05
 74
0
  0
LTYPE
  5
1F8
100
AcDbSymbolTableRecord
100
AcDbLinetypeTableRecord
  2
DOT
 70
64
  3
. . . . . . . . . . . . . . . . . . . .
 72
65
 73
2
 40
0.2
 49
0.1
 74
0
 49
-0.1
 74
0
  0
LTYPE
  5
1F9
100
AcDbSymbolTableRecord
100
AcDbLinetypeTableRecord
  2
DASHED
 70
64
  3
- - - - - - - - - - - - - - - - - - - -
 72
65
 73
2
 40
0.2
 49
0.1
 74
0
 49
-0.1
 74
0
  0
ENDTAB
  0
TABLE
  2
LAYER
  5
2
100
AcDbSymbolTable
 70
36
  0
LAYER
  5
10
100
AcDbSymbolTableRecord
100
AcDbLayerTableRecord
  2
0
 70
0
 62
7
  6
CONTINUOUS
370
-3
390
F
  0
LAYER
  5
1FA
100
AcDbSymbolTableRecord
100
AcDbLayerTableRecord
  2
DEFAULT_1
 70
0
 62
7
  6
CENTER
370
-3
390
F
  0
LAYER
  5
1FB
100
AcDbSymbolTableRecord
100
AcDbLayerTableRecord
  2
DEFAULT_2
 70
0
 62
7
  6
HIDDEN
370
-3
390
F
  0
LAYER
  5
1FC
100
AcDbSymbolTableRecord
100
AcDbLayerTableRecord
  2
DEFAULT_3
 70
0
 62
7
  6
PHANTOM
370
-3
390
F
  0
LAYER
  5
1FD
100
AcDbSymbolTableRecord
100
AcDbLayerTableRecord
  2
ASSI
 70
0
 62
7
  6
CONTINUOUS
370
-3
390
F
  0
LAYER
  5
1FE
100
AcDbSymbolTableRecord
100
AcDbLayerTableRecord
  2
COLOR5
 70
0
 62
7
  6
CONTINUOUS
370
-3
390
F
  0
LAYER
  5
1FF
100
AcDbSymbolTableRecord
100
AcDbLayerTableRecord
  2
COORDINATE
 70
0
 62
7
  6
CONTINUOUS
370
-3
390
F
  0
LAYER
  5
200
100
AcDbSymbolTableRecord
100
AcDbLayerTableRecord
  2
COORD_ORIGINE
 70
0
 62
7
  6
CONTINUOUS
370
-3
390
F
  0
LAYER
  5
201
100
AcDbSymbolTableRecord
100
AcDbLayerTableRecord
  2
COSMETICHE
 70
0
 62
7
  6
CONTINUOUS
370
-3
390
F
  0
LAYER
  5
202
100
AcDbSymbolTableRecord
100
AcDbLayerTableRecord
  2
CURVE
 70
0
 62
7
  6
CONTINUOUS
370
-3
390
F
  0
LAYER
  5
203
100
AcDbSymbolTableRecord
100
AcDbLayerTableRecord
  2
DRAFT
 70
0
 62
7
  6
CONTINUOUS
370
-3
390
F
  0
LAYER
  5
204
100
AcDbSymbolTableRecord
100
AcDbLayerTableRecord
  2
IGES
 70
0
 62
7
  6
CONTINUOUS
370
-3
390
F
  0
LAYER
  5
205
100
AcDbSymbolTableRecord
100
AcDbLayerTableRecord
  2
INTF_1
 70
0
 62
7
  6
CONTINUOUS
370
-3
390
F
  0
LAYER
  5
206
100
AcDbSymbolTableRecord
100
AcDbLayerTableRecord
  2
INTF_2
 70
0
 62
7
  6
CONTINUOUS
370
-3
390
F
  0
LAYER
  5
207
100
AcDbSymbolTableRecord
100
AcDbLayerTableRecord
  2
INTF_YELLOW
 70
0
 62
7
  6
CONTINUOUS
370
-3
390
F
  0
LAYER
  5
208
100
AcDbSymbolTableRecord
100
AcDbLayerTableRecord
  2
NOTE
 70
0
 62
7
  6
CONTINUOUS
370
-3
390
F
  0
LAYER
  5
209
100
AcDbSymbolTableRecord
100
AcDbLayerTableRecord
  2
PIANI
 70
0
 62
7
  6
CONTINUOUS
370
-3
390
F
  0
LAYER
  5
20A
100
AcDbSymbolTableRecord
100
AcDbLayerTableRecord
  2
PIANI_ORIGINE
 70
0
 62
7
  6
CONTINUOUS
370
-3
390
F
  0
LAYER
  5
20B
100
AcDbSymbolTableRecord
100
AcDbLayerTableRecord
  2
PUNTI
 70
0
 62
7
  6
CONTINUOUS
370
-3
390
F
  0
LAYER
  5
20C
100
AcDbSymbolTableRecord
100
AcDbLayerTableRecord
  2
RACCORDO
 70
0
 62
7
  6
CONTINUOUS
370
-3
390
F
  0
LAYER
  5
20D
100
AcDbSymbolTableRecord
100
AcDbLayerTableRecord
  2
RGB__255__255__255__
 70
0
 62
7
  6
CONTINUOUS
370
-3
390
F
  0
LAYER
  5
20E
100
AcDbSymbolTableRecord
100
AcDbLayerTableRecord
  2
RGB____0____0____0__
 70
0
 62
7
  6
CONTINUOUS
370
-3
390
F
  0
LAYER
  5
20F
100
AcDbSymbolTableRecord
100
AcDbLayerTableRecord
  2
SMUSSO
 70
0
 62
7
  6
CONTINUOUS
370
-3
390
F
  0
LAYER
  5
210
100
AcDbSymbolTableRecord
100
AcDbLayerTableRecord
  2
SNAPLINE
 70
0
 62
7
  6
CONTINUOUS
370
-3
390
F
  0
LAYER
  5
211
100
AcDbSymbolTableRecord
100
AcDbLayerTableRecord
  2
SUPERFICI
 70
0
 62
7
  6
CONTINUOUS
370
-3
390
F
  0
LAYER
  5
212
100
AcDbSymbolTableRecord
100
AcDbLayerTableRecord
  2
TRASH
 70
0
 62
7
  6
CONTINUOUS
370
-3
390
F
  0
LAYER
  5
213
100
AcDbSymbolTableRecord
100
AcDbLayerTableRecord
  2
XSEC_DATUMS
 70
0
 62
7
  6
CONTINUOUS
370
-3
390
F
  0
ENDTAB
  0
TABLE
  2
STYLE
  5
3
100
AcDbSymbolTable
 70
1
  0
STYLE
  5
11
100
AcDbSymbolTableRecord
100
AcDbTextStyleTableRecord
  2
STANDARD
 70
0
 40
0.0
 41
0.8
 50
0.0
 71
0
 42
0.2
  3
txt
  4

  0
STYLE
  5
214
100
AcDbSymbolTableRecord
100
AcDbTextStyleTableRecord
  2
TEXTSTYLE_1
 70
0
 40
0.0
 41
0.8
 50
0.0
 71
0
 42
0.2
  3
gdt
  4

  0
ENDTAB
  0
TABLE
  2
VIEW
  5
6
100
AcDbSymbolTable
 70
0
  0
ENDTAB
  0
TABLE
  2
UCS
  5
7
100
AcDbSymbolTable
 70
0
  0
ENDTAB
  0
TABLE
  2
APPID
  5
9
100
AcDbSymbolTable
 70
1
  0
APPID
  5
215
100
AcDbSymbolTableRecord
100
AcDbRegAppTableRecord
  2
ACAD
 70
0
  0
ENDTAB
  0
TABLE
  2
BLOCK_RECORD
  5
1
100
AcDbSymbolTable
 70
0
  0
BLOCK_RECORD
  5
216
100
AcDbSymbolTableRecord
100
AcDbBlockTableRecord
  2
*Model_Space
  0
BLOCK_RECORD
  5
217
100
AcDbSymbolTableRecord
100
AcDbBlockTableRecord
  2
*Paper_Space
  0
BLOCK_RECORD
  5
218
100
AcDbSymbolTableRecord
100
AcDbBlockTableRecord
  2
_FILLED
  0
BLOCK_RECORD
  5
219
100
AcDbSymbolTableRecord
100
AcDbBlockTableRecord
  2
*D0
  0
BLOCK_RECORD
  5
21A
100
AcDbSymbolTableRecord
100
AcDbBlockTableRecord
  2
*D1
  0
BLOCK_RECORD
  5
21B
100
AcDbSymbolTableRecord
100
AcDbBlockTableRecord
  2
*D2
  0
ENDTAB
  0
TABLE
  2
DIMSTYLE
  5
A
100
AcDbSymbolTable
 70
1
100
AcDbDimStyleTable
 71
0
  0
DIMSTYLE
105
21C
100
AcDbSymbolTableRecord
100
AcDbDimStyleTableRecord
  2
STANDARD
 70
0
  3

  4

 40
1.0
 41
3.0
 42
0.5
 43
0.38
 44
1.5
 45
0.0
 46
0.0
 47
0.01
 48
0.01
140
3.0
141
0.09
142
0.0
143
25.4
144
1.0
145
0.0
146
1.0
147
0.625
 71
1.0
 72
0.0
 73
0
 74
0
 75
0
 76
0
 77
1
 78
8
170
0
171
2
172
0
173
0
174
0
175
0
176
0
177
0
178
0
270
2
271
2
272
2
273
2
274
2
275
0
280
0
281
0
282
0
283
1
284
8
285
0
286
0
287
3
288
0
340
11
278
44
341
218
342
218
343
218
344
218
  0
DIMSTYLE
105
21D
100
AcDbSymbolTableRecord
100
AcDbDimStyleTableRecord
  2
DIMSTYLE_1
 70
0
  3

  4

 40
1.0
 41
3.0
 42
0.5
 43
0.38
 44
1.5
 45
0.0
 46
0.0
 47
0.0
 48
0.0
140
3.0
141
0.09
142
0.0
143
25.4
144
1.0
145
0.0
146
1.0
147
0.75
 71
0.0
 72
0.0
 73
0
 74
0
 75
0
 76
0
 77
1
 78
8
170
0
171
2
172
0
173
0
174
0
175
0
176
0
177
0
178
0
270
2
271
1
272
1
273
2
274
2
275
0
280
0
281
0
282
0
283
1
284
8
285
0
286
0
287
3
288
0
340
11
278
44
341
218
342
218
343
218
344
218
  0
DIMSTYLE
105
21E
100
AcDbSymbolTableRecord
100
AcDbDimStyleTableRecord
  2
DIMSTYLE_2
 70
0
  3

  4

 40
1.0
 41
3.0
 42
0.5
 43
0.38
 44
1.5
 45
0.0
 46
0.0
 47
0.0
 48
0.0
140
3.0
141
0.09
142
0.0
143
25.4
144
1.0
145
0.0
146
1.0
147
0.75
 71
0.0
 72
0.0
 73
0
 74
0
 75
0
 76
0
 77
1
 78
8
170
0
171
2
172
0
173
0
174
0
175
0
176
0
177
0
178
0
270
2
271
2
272
2
273
2
274
2
275
0
280
0
281
0
282
0
283
1
284
8
285
0
286
0
287
3
288
0
340
11
278
44
341
218
342
218
343
218
344
218
  0
ENDTAB
  0
ENDSEC
  0
SECTION
  2
BLOCKS
  0
BLOCK
  5
20
100
AcDbEntity
  8
0
100
AcDbBlockBegin
  2
*Model_Space
 70
0
 10
0.0
 20
0.0
 30
0.0
  3
*Model_Space
  1

  0
ENDBLK
  5
21
100
AcDbEntity
  8
0
100
AcDbBlockEnd
  0
BLOCK
  5
1C
100
AcDbEntity
  8
0
100
AcDbBlockBegin
  2
*Paper_Space
 70
0
 10
0.0
 20
0.0
 30
0.0
  3
*Paper_Space
  1

  0
ENDBLK
  5
1D
100
AcDbEntity
  8
0
100
AcDbBlockEnd
  0
BLOCK
  5
21F
100
AcDbEntity
  8
0
100
AcDbBlockBegin
  2
_FILLED
 70
64
 10
0.0
 20
0.0
  3
_FILLED
  1

  0
SOLID
  5
220
100
AcDbEntity
  8
0
  6
BYBLOCK
 62
0
100
AcDbTrace
 10
0.0
 20
0.0
 11
-1.0
 21
0.3166666667
 12
-1.0
 22
-0.3166666667
 13
-1.0
 23
-0.3166666667
  0
ENDBLK
  5
221
100
AcDbEntity
  8
0
  6
BYBLOCK
 62
0
100
AcDbBlockEnd
  0
BLOCK
  5
222
100
AcDbEntity
  8
0
100
AcDbBlockBegin
 62
7
  6
CONTINUOUS
  2
*D0
 70
65
 10
0.0
 20
0.0
  3
*D0
  1

  0
MTEXT
  5
223
100
AcDbEntity
  8
0
100
AcDbMText
 62
7
  6
CONTINUOUS
  7
STANDARD
 71
2
 72
1
 10
112.9430367842
 20
172.1667514317
 30
0.0
 11
1.0
 21
0.0
 31
0.0
 44
0.9
  1
36,4
 40
3.0
 41
8.5714285714
  0
LINE
  5
224
100
AcDbEntity
  8
0
100
AcDbLine
 62
7
  6
CONTINUOUS
 10
94.7366593364
 20
116.8779509265
 11
94.7366593364
 21
169.9167514317
  0
LINE
  5
225
100
AcDbEntity
  8
0
100
AcDbLine
 62
7
  6
CONTINUOUS
 10
131.1494142319
 20
117.9707148659
 11
131.1494142319
 21
169.9167514317
  0
LINE
  5
226
100
AcDbEntity
  8
0
100
AcDbLine
 62
7
  6
CONTINUOUS
 10
94.7366593364
 20
168.4167514317
 11
112.9430367842
 21
168.4167514317
  0
LINE
  5
227
100
AcDbEntity
  8
0
100
AcDbLine
 62
7
  6
CONTINUOUS
 10
131.1494142319
 20
168.4167514317
 11
112.9430367842
 21
168.4167514317
  0
INSERT
  5
228
100
AcDbEntity
  8
0
100
AcDbBlockReference
 62
7
  6
CONTINUOUS
  2
_FILLED
 10
94.7366593364
 20
168.4167514317
 41
3.0
 42
3.0
 43
3.0
 50
180.0
  0
INSERT
  5
229
100
AcDbEntity
  8
0
100
AcDbBlockReference
 62
7
  6
CONTINUOUS
  2
_FILLED
 10
131.1494142319
 20
168.4167514317
 41
3.0
 42
3.0
 43
3.0
  0
ENDBLK
  5
22A
100
AcDbEntity
  8
0
  6
BYBLOCK
 62
0
100
AcDbBlockEnd
  0
BLOCK
  5
22B
100
AcDbEntity
  8
0
100
AcDbBlockBegin
 62
7
  6
CONTINUOUS
  2
*D1
 70
65
 10
0.0
 20
0.0
  3
*D1
  1

  0
MTEXT
  5
22C
100
AcDbEntity
  8
0
100
AcDbMText
 62
7
  6
CONTINUOUS
  7
STANDARD
 71
2
 72
1
 10
177.9324730188
 20
172.1667514317
 30
0.0
 11
1.0
 21
0.0
 31
0.0
 44
0.9
  1
36,6
 40
3.0
 41
8.5714285714
  0
LINE
  5
22D
100
AcDbEntity
  8
0
100
AcDbLine
 62
7
  6
CONTINUOUS
 10
159.6327267144
 20
113.8672582519
 11
159.6327267144
 21
169.9167514317
  0
LINE
  5
22E
100
AcDbEntity
  8
0
100
AcDbLine
 62
7
  6
CONTINUOUS
 10
196.2322193232
 20
113.8672582519
 11
196.2322193232
 21
169.9167514317
  0
LINE
  5
22F
100
AcDbEntity
  8
0
100
AcDbLine
 62
7
  6
CONTINUOUS
 10
159.6327267144
 20
168.4167514317
 11
177.9324730188
 21
168.4167514317
  0
LINE
  5
230
100
AcDbEntity
  8
0
100
AcDbLine
 62
7
  6
CONTINUOUS
 10
196.2322193232
 20
168.4167514317
 11
177.9324730188
 21
168.4167514317
  0
INSERT
  5
231
100
AcDbEntity
  8
0
100
AcDbBlockReference
 62
7
  6
CONTINUOUS
  2
_FILLED
 10
159.6327267144
 20
168.4167514317
 41
3.0
 42
3.0
 43
3.0
 50
180.0
  0
INSERT
  5
232
100
AcDbEntity
  8
0
100
AcDbBlockReference
 62
7
  6
CONTINUOUS
  2
_FILLED
 10
196.2322193232
 20
168.4167514317
 41
3.0
 42
3.0
 43
3.0
  0
ENDBLK
  5
233
100
AcDbEntity
  8
0
  6
BYBLOCK
 62
0
100
AcDbBlockEnd
  0
BLOCK
  5
234
100
AcDbEntity
  8
0
100
AcDbBlockBegin
 62
7
  6
CONTINUOUS
  2
*D2
 70
65
 10
0.0
 20
0.0
  3
*D2
  1

  0
MTEXT
  5
235
100
AcDbEntity
  8
0
100
AcDbMText
 62
7
  6
CONTINUOUS
  7
STANDARD
 71
2
 72
1
 10
208.7010691052
 20
135.6667514317
 30
0.0
 11
0.0
 21
1.0
 31
0.0
 44
0.9
  1
45,5
 40
3.0
 41
8.3571428571
  0
LINE
  5
236
100
AcDbEntity
  8
0
100
AcDbLine
 62
7
  6
CONTINUOUS
 10
176.5824701366
 20
112.9167514317
 11
213.9510691052
 21
112.9167514317
  0
LINE
  5
237
100
AcDbEntity
  8
0
100
AcDbLine
 62
7
  6
CONTINUOUS
 10
178.4324730188
 20
158.4167514317
 11
213.9510691052
 21
158.4167514317
  0
LINE
  5
238
100
AcDbEntity
  8
0
100
AcDbLine
 62
7
  6
CONTINUOUS
 10
212.4510691052
 20
112.9167514317
 11
212.4510691052
 21
135.6667514317
  0
LINE
  5
239
100
AcDbEntity
  8
0
100
AcDbLine
 62
7
  6
CONTINUOUS
 10
212.4510691052
 20
158.4167514317
 11
212.4510691052
 21
135.6667514317
  0
INSERT
  5
23A
100
AcDbEntity
  8
0
100
AcDbBlockReference
 62
7
  6
CONTINUOUS
  2
_FILLED
 10
212.4510691052
 20
112.9167514317
 41
3.0
 42
3.0
 43
3.0
 50
270.0
  0
INSERT
  5
23B
100
AcDbEntity
  8
0
100
AcDbBlockReference
 62
7
  6
CONTINUOUS
  2
_FILLED
 10
212.4510691052
 20
158.4167514317
 41
3.0
 42
3.0
 43
3.0
 50
90.0
  0
ENDBLK
  5
23C
100
AcDbEntity
  8
0
  6
BYBLOCK
 62
0
100
AcDbBlockEnd
  0
ENDSEC
  0
SECTION
  2
ENTITIES
  0
DIMENSION
  5
23D
100
AcDbEntity
  8
0
100
AcDbDimension
 62
7
  6
CONTINUOUS
  2
*D0
 10
131.1494142319
 20
168.4167514317
 11
112.9430367842
 21
168.4167514317
 70
160
 71
2
 42
36.4127548955
  3
DIMSTYLE_1
100
AcDbAlignedDimension
 13
94.7366593364
 23
116.3779509265
 14
131.1494142319
 24
117.4707148659
100
AcDbRotatedDimension
  0
DIMENSION
  5
23E
100
AcDbEntity
  8
0
100
AcDbDimension
 62
7
  6
CONTINUOUS
  2
*D1
 10
196.2322193232
 20
168.4167514317
 11
177.9324730188
 21
168.4167514317
 70
160
 71
2
 42
36.5994926089
  3
DIMSTYLE_2
100
AcDbAlignedDimension
 13
159.6327267144
 23
113.3672582519
 14
196.2322193232
 24
113.3672582519
100
AcDbRotatedDimension
  0
DIMENSION
  5
23F
100
AcDbEntity
  8
0
100
AcDbDimension
 62
7
  6
CONTINUOUS
  2
*D2
 10
212.4510691052
 20
158.4167514317
 11
212.4510691052
 21
135.6667514317
 70
160
 71
2
 42
45.5
  3
DIMSTYLE_2
100
AcDbAlignedDimension
 13
176.0824701366
 23
112.9167514317
 14
177.9324730188
 24
158.4167514317
 50
90.0
100
AcDbRotatedDimension
  0
LWPOLYLINE
  5
240
100
AcDbEntity
  8
RACCORDO
100
AcDbPolyline
 62
253
  6
CONTINUOUS
 90
10
 70
0
 10
103.2946078565
 20
131.9167496677
 10
103.3562050371
 20
132.0180590282
 10
103.4234071179
 20
132.1179415336
 10
103.4956259107
 20
132.2155229649
 10
103.5722293182
 20
132.3099492435
 10
103.6525468668
 20
132.4003939062
 10
103.7358755748
 20
132.4860653389
 10
103.8214861053
 20
132.5662137054
 10
103.9086291497
 20
132.6401375098
 10
103.9965419861
 20
132.7071897369
  0
LINE
  5
241
100
AcDbEntity
  8
SUPERFICI
100
AcDbLine
 62
7
  6
CONTINUOUS
 10
95.0044500586
 20
129.9167514317
 11
95.0945416049
 21
131.9167514317
  0
LWPOLYLINE
  5
242
100
AcDbEntity
  8
RACCORDO
100
AcDbPolyline
 62
253
  6
CONTINUOUS
 90
10
 70
0
 10
104.0453213944
 20
131.4200387547
 10
104.10175316
 20
131.5272299949
 10
104.1634481963
 20
131.6329284106
 10
104.2298562143
 20
131.7361912435
 10
104.3003850414
 20
131.8360976862
 10
104.3744054559
 20
131.9317564494
 10
104.4512567313
 20
132.0223138085
 10
104.5302531813
 20
132.1069620606
 10
104.6106903427
 20
132.1849466232
 10
104.6918507655
 20
132.2555721851
  0
LWPOLYLINE
  5
243
100
AcDbEntity
  8
RACCORDO
100
AcDbPolyline
 62
253
  6
CONTINUOUS
 90
7
 70
0
 10
121.8895315821
 20
132.7071821749
 10
121.7779124636
 20
132.6284193977
 10
121.6649159104
 20
132.5510725023
 10
121.5505419225
 20
132.4751280051
 10
121.4347904999
 20
132.4005722922
 10
121.3176616426
 20
132.3273916314
 10
121.1991553507
 20
132.2555721836
  0
LWPOLYLINE
  5
244
100
AcDbEntity
  8
RACCORDO
100
AcDbPolyline
 62
7
  6
CONTINUOUS
 90
4
 70
0
 10
95.5687380314
 20
113.4173772139
 10
95.5715393405
 20
113.3658646317
 10
95.5798021646
 20
113.3155615653
 10
95.5935265038
 20
113.2664680147
  0
LWPOLYLINE
  5
245
100
AcDbEntity
  8
RACCORDO
100
AcDbPolyline
 62
7
  6
CONTINUOUS
 90
10
 70
0
 10
95.9840753325
 20
131.7871014833
 10
95.9837528982
 20
131.8059159388
 10
95.9826302217
 20
131.8241874844
 10
95.9806624824
 20
131.8416219658
 10
95.9778945009
 20
131.8578842701
 10
95.9744607396
 20
131.8726221689
 10
95.9703253018
 20
131.8855602662
 10
95.9655240842
 20
131.8964901763
 10
95.9602992397
 20
131.9052168674
 10
95.9547314859
 20
131.9115781927
  0
LWPOLYLINE
  5
246
100
AcDbEntity
  8
RACCORDO
100
AcDbPolyline
 62
7
  6
CONTINUOUS
 90
5
 70
0
 10
95.6436116271
 20
121.5738182726
 10
95.6084538276
 20
119.5341158715
 10
95.5842580619
 20
117.4949340456
 10
95.5710194632
 20
115.4560211598
 10
95.5688199168
 20
113.3672582519
  0
LWPOLYLINE
  5
247
100
AcDbEntity
  8
RACCORDO
100
AcDbPolyline
 62
7
  6
CONTINUOUS
 90
4
 70
0
 10
95.6430578132
 20
121.5459644251
 10
95.6079689897
 20
119.5006907798
 10
95.5839021757
 20
117.4559416625
 10
95.5708524847
 20
115.4114641532
  0
LINE
  5
248
100
AcDbEntity
  8
RACCORDO
100
AcDbLine
 62
7
  6
CONTINUOUS
 10
95.9835975246
 20
131.768060412
 11
95.9840753325
 21
131.7871014833
  0
LWPOLYLINE
  5
249
100
AcDbEntity
  8
RACCORDO
100
AcDbPolyline
 62
7
  6
CONTINUOUS
 90
3
 70
0
 10
95.7467841265
 20
125.6532749889
 10
95.6897265935
 20
123.6137896138
 10
95.6430578132
 20
121.5459644251
  0
LWPOLYLINE
  5
24A
100
AcDbEntity
  8
RACCORDO
100
AcDbPolyline
 62
7
  6
CONTINUOUS
 90
3
 70
0
 10
95.8147793593
 20
127.6920227627
 10
95.7462721702
 20
125.6365677798
 10
95.6891637598
 20
123.5915096785
  0
LINE
  5
24B
100
AcDbEntity
  8
RACCORDO
100
AcDbLine
 62
7
  6
CONTINUOUS
 10
95.8936090662
 20
129.7274935026
 11
95.8143781579
 21
127.6808858092
  0
LWPOLYLINE
  5
24C
100
AcDbEntity
  8
RACCORDO
100
AcDbPolyline
 62
7
  6
CONTINUOUS
 90
10
 70
0
 10
95.0853408531
 20
129.9167514317
 10
95.0127697781
 20
128.0836785315
 10
94.9486556453
 20
126.2505176278
 10
94.8929984545
 20
124.4172687207
 10
94.8457979006
 20
122.5838781063
 10
94.8070542888
 20
120.7503994884
 10
94.7767685349
 20
118.9169939791
 10
94.7549409442
 20
117.0837152822
 10
94.7415712114
 20
115.2505096938
 10
94.7366593364
 20
113.4173772139
  0
LINE
  5
24D
100
AcDbEntity
  8
RACCORDO
100
AcDbLine
 62
7
  6
CONTINUOUS
 10
95.9835975246
 20
131.768060412
 11
95.8934866094
 21
129.7247166866
  0
LINE
  5
24E
100
AcDbEntity
  8
0
100
AcDbLine
 62
7
  6
CONTINUOUS
 10
105.7240277842
 20
138.6353504317
 11
106.6636077842
 21
141.5618364317
  0
LINE
  5
24F
100
AcDbEntity
  8
0
100
AcDbLine
 62
7
  6
CONTINUOUS
 10
106.1490487842
 20
137.3116454317
 11
107.5136497842
 21
141.5618364317
  0
LWPOLYLINE
  5
250
100
AcDbEntity
  8
RACCORDO
100
AcDbPolyline
 62
253
  6
CONTINUOUS
 90
7
 70
0
 10
122.5914857518
 20
131.9167514317
 10
122.4717492053
 20
131.8303450465
 10
122.3498673855
 20
131.7453615
 10
122.2258277396
 20
131.6618008389
 10
122.0996181031
 20
131.5796631088
 10
121.9712267213
 20
131.4989483544
 10
121.840642271
 20
131.419656619
  0
LWPOLYLINE
  5
251
100
AcDbEntity
  8
RACCORDO
100
AcDbPolyline
 62
7
  6
CONTINUOUS
 90
10
 70
0
 10
129.9373334632
 20
131.9154500788
 10
129.9313420825
 20
131.9115781927
 10
129.9257743287
 20
131.9052168674
 10
129.9205494841
 20
131.8964901763
 10
129.9157482666
 20
131.8855602662
 10
129.9116128287
 20
131.8726221689
 10
129.9081790675
 20
131.8578842701
 10
129.905411086
 20
131.8416219658
 10
129.9034433466
 20
131.8241874844
 10
129.9023206702
 20
131.8059159388
  0
LINE
  5
252
100
AcDbEntity
  8
0
100
AcDbLine
 62
7
  6
CONTINUOUS
 10
97.5968843615
 20
112.6667514317
 11
97.5298970634
 21
112.9167514317
  0
LINE
  5
253
100
AcDbEntity
  8
0
100
AcDbLine
 62
7
  6
CONTINUOUS
 10
98.2730324399
 20
112.8479247633
 11
98.2545903897
 21
112.9167514317
  0
LWPOLYLINE
  5
254
100
AcDbEntity
  8
RACCORDO
100
AcDbPolyline
 62
253
  6
CONTINUOUS
 90
13
 70
0
 10
103.9392736903
 20
113.3672582425
 10
103.9411381584
 20
113.3084729867
 10
103.9467646895
 20
113.2506867233
 10
103.9560568045
 20
113.1948896485
 10
103.9688552288
 20
113.1420377942
 10
103.984940589
 20
113.0930368048
 10
104.0040371434
 20
113.0487263795
 10
104.0258175873
 20
113.0098656658
 10
104.049908661
 20
112.9771203636
 10
104.0758974787
 20
112.9510514179
 10
104.1033386782
 20
112.9321052938
 10
104.1317620647
 20
112.9206063703
 10
104.160680626
 20
112.9167514317
  0
LINE
  5
255
100
AcDbEntity
  8
RACCORDO
100
AcDbLine
 62
253
  6
CONTINUOUS
 10
104.5788937301
 20
113.3672582647
 11
104.5788937301
 21
112.9167514317
  0
LINE
  5
256
100
AcDbEntity
  8
RACCORDO
100
AcDbLine
 62
253
  6
CONTINUOUS
 10
104.6918507654
 20
132.2555721836
 11
104.6918507654
 21
131.4200387546
  0
LWPOLYLINE
  5
257
100
AcDbEntity
  8
RACCORDO
100
AcDbPolyline
 62
253
  6
CONTINUOUS
 90
10
 70
0
 10
103.9392736906
 20
113.3672582425
 10
103.9410964059
 20
115.535213864
 10
103.9459715999
 20
117.6627367122
 10
103.9535997613
 20
119.749772491
 10
103.9635705238
 20
121.7962678505
 10
103.9757384585
 20
123.8021869744
 10
103.9902184474
 20
125.7675112603
 10
104.0068832747
 20
127.6922164754
 10
104.0253668058
 20
129.576272462
 10
104.04543731
 20
131.4196597449
  0
LWPOLYLINE
  5
258
100
AcDbEntity
  8
RACCORDO
100
AcDbPolyline
 62
253
  6
CONTINUOUS
 90
10
 70
0
 10
104.57889373
 20
113.3672582647
 10
104.5813387802
 20
115.5352132181
 10
104.586422018
 20
117.6627359599
 10
104.5941434434
 20
119.7497721937
 10
104.6046579972
 20
121.7962550473
 10
104.6178107387
 20
123.8021622297
 10
104.6331368457
 20
125.767515695
 10
104.6504813773
 20
127.6923047067
 10
104.6699992745
 20
129.5764855615
 10
104.6916905372
 20
131.4200387546
  0
LINE
  5
259
100
AcDbEntity
  8
0
100
AcDbLine
 62
7
  6
CONTINUOUS
 10
111.8590627842
 20
138.7939604317
 11
112.6527387842
 21
141.5618364317
  0
LINE
  5
25A
100
AcDbEntity
  8
0
100
AcDbLine
 62
7
  6
CONTINUOUS
 10
112.2840627842
 20
137.3116554317
 11
113.0877157842
 21
140.1143604317
  0
LINE
  5
25B
100
AcDbEntity
  8
0
100
AcDbLine
 62
7
  6
CONTINUOUS
 10
114.5044427842
 20
137.3116454317
 11
115.8690227842
 21
141.5618474317
  0
LINE
  5
25C
100
AcDbEntity
  8
0
100
AcDbLine
 62
7
  6
CONTINUOUS
 10
115.3544747842
 20
137.3116554317
 11
115.6228307842
 21
138.1474824317
  0
LINE
  5
25D
100
AcDbEntity
  8
0
100
AcDbLine
 62
7
  6
CONTINUOUS
 10
115.8821127842
 20
138.9550134317
 11
116.2940547842
 21
140.2381314317
  0
LWPOLYLINE
  5
25E
100
AcDbEntity
  8
RACCORDO
100
AcDbPolyline
 62
253
  6
CONTINUOUS
 90
13
 70
0
 10
114.5930367842
 20
112.9167514317
 10
114.5984701828
 20
112.9206067588
 10
114.6038104813
 20
112.93210668
 10
114.6089661748
 20
112.9510541465
 10
114.6138489216
 20
112.9771244975
 10
114.6183750569
 20
113.0098710231
 10
114.6224670262
 20
113.0487326186
 10
114.6260547146
 20
113.0930433988
 10
114.6290766478
 20
113.1420441079
 10
114.6314810456
 20
113.1948951292
 10
114.6332267091
 20
113.2506908716
 10
114.6342837268
 20
113.3084752871
 10
114.634633987
 20
113.3672582519
  0
LINE
  5
25F
100
AcDbEntity
  8
0
100
AcDbLine
 62
7
  6
CONTINUOUS
 10
106.8930367842
 20
156.118315465
 11
106.8930367842
 21
155.2922299632
  0
LINE
  5
260
100
AcDbEntity
  8
RACCORDO
100
AcDbLine
 62
7
  6
CONTINUOUS
 10
106.8930367842
 20
155.2922299632
 11
106.8930367842
 21
156.1183154606
  0
LINE
  5
261
100
AcDbEntity
  8
0
100
AcDbLine
 62
7
  6
CONTINUOUS
 10
107.6430367842
 20
156.9167514317
 11
107.6430367842
 21
157.6167514317
  0
LINE
  5
262
100
AcDbEntity
  8
RACCORDO
100
AcDbLine
 62
7
  6
CONTINUOUS
 10
107.6430367842
 20
156.9167514317
 11
107.6430367842
 21
157.6167514317
  0
LINE
  5
263
100
AcDbEntity
  8
0
100
AcDbLine
 62
7
  6
CONTINUOUS
 10
108.0803237842
 20
137.3116344317
 11
108.0803337842
 21
141.5618364317
  0
LINE
  5
264
100
AcDbEntity
  8
0
100
AcDbLine
 62
7
  6
CONTINUOUS
 10
108.9303557842
 20
137.3116454317
 11
108.9303657842
 21
141.5618364317
  0
LWPOLYLINE
  5
265
100
AcDbEntity
  8
RACCORDO
100
AcDbPolyline
 62
7
  6
CONTINUOUS
 90
4
 70
0
 10
130.0263809877
 20
112.9522681937
 10
129.9681005526
 20
112.9333296949
 10
129.9064034736
 20
112.9214907742
 10
129.8412897507
 20
112.9167514317
  0
LINE
  5
266
100
AcDbEntity
  8
0
100
AcDbLine
 62
7
  6
CONTINUOUS
 10
110.5430367842
 20
95.7667514317
 11
115.3430367842
 21
95.7667514317
  0
LINE
  5
267
100
AcDbEntity
  8
0
100
AcDbLine
 62
7
  6
CONTINUOUS
 10
109.7803657842
 20
137.3116454317
 11
109.7803657842
 21
141.5618364317
  0
LINE
  5
268
100
AcDbEntity
  8
0
100
AcDbLine
 62
7
  6
CONTINUOUS
 10
110.5430367842
 20
112.9167514317
 11
110.5430367842
 21
95.7667514317
  0
LINE
  5
269
100
AcDbEntity
  8
0
100
AcDbLine
 62
7
  6
CONTINUOUS
 10
110.6303977842
 20
137.3116454317
 11
110.6303977842
 21
140.1143604317
  0
LINE
  5
26A
100
AcDbEntity
  8
RACCORDO
100
AcDbLine
 62
7
  6
CONTINUOUS
 10
110.8430367842
 20
113.3667514317
 11
110.8430367842
 21
118.9667514317
  0
LINE
  5
26B
100
AcDbEntity
  8
RACCORDO
100
AcDbLine
 62
253
  6
CONTINUOUS
 10
111.2514398134
 20
113.3672582519
 11
111.251337378
 21
118.9735653474
  0
LINE
  5
26C
100
AcDbEntity
  8
0
100
AcDbLine
 62
7
  6
CONTINUOUS
 10
113.0877267842
 20
137.3116454317
 11
113.0877157842
 21
140.1143604317
  0
LWPOLYLINE
  5
26D
100
AcDbEntity
  8
RACCORDO
100
AcDbPolyline
 62
253
  6
CONTINUOUS
 90
13
 70
0
 10
111.2513379054
 20
118.9735653474
 10
111.2517550099
 20
119.0305978729
 10
111.2528476151
 20
119.0869210312
 10
111.2546094368
 20
119.1415876128
 10
111.2570277946
 20
119.1937475853
 10
111.2600700231
 20
119.2423591014
 10
111.2636723503
 20
119.2862873164
 10
111.2677652393
 20
119.3247176985
 10
111.2722858041
 20
119.3570891208
 10
111.2771577778
 20
119.3828550391
 10
111.282298823
 20
119.4015787686
 10
111.2876218583
 20
119.4129419899
 10
111.2930367842
 20
119.4167514317
  0
LINE
  5
26E
100
AcDbEntity
  8
0
100
AcDbLine
 62
7
  6
CONTINUOUS
 10
113.9377587842
 20
137.3116454317
 11
113.9377587842
 21
141.5618364317
  0
LINE
  5
26F
100
AcDbEntity
  8
RACCORDO
100
AcDbLine
 62
253
  6
CONTINUOUS
 10
114.6347361904
 20
118.9735653474
 11
114.6346337519
 21
113.3672582519
  0
LINE
  5
270
100
AcDbEntity
  8
RACCORDO
100
AcDbLine
 62
7
  6
CONTINUOUS
 10
115.0430367842
 20
118.9667514317
 11
115.0430367842
 21
113.3667514317
  0
LINE
  5
271
100
AcDbEntity
  8
0
100
AcDbLine
 62
7
  6
CONTINUOUS
 10
115.3430367842
 20
112.9167514317
 11
115.3430367842
 21
95.7667514317
  0
LWPOLYLINE
  5
272
100
AcDbEntity
  8
RACCORDO
100
AcDbPolyline
 62
7
  6
CONTINUOUS
 90
10
 70
0
 10
95.8596925807
 20
112.9522681937
 10
95.8040133172
 20
112.9789248184
 10
95.7517506976
 20
113.0126810214
 10
95.705351139
 20
113.0516811589
 10
95.6651171872
 20
113.0962265005
 10
95.6307462965
 20
113.1460157767
 10
95.6037772461
 20
113.1982895352
 10
95.5847229626
 20
113.2521279585
 10
95.5730705195
 20
113.3084508641
 10
95.5688199168
 20
113.3672582519
  0
LINE
  5
273
100
AcDbEntity
  8
0
100
AcDbLine
 62
7
  6
CONTINUOUS
 10
105.2989857842
 20
137.3116344317
 11
103.9343957842
 21
141.5618364317
  0
LINE
  5
274
100
AcDbEntity
  8
0
100
AcDbLine
 62
7
  6
CONTINUOUS
 10
105.7240277842
 20
138.6353504317
 11
104.7844377842
 21
141.5618364317
  0
LINE
  5
275
100
AcDbEntity
  8
RACCORDO
100
AcDbLine
 62
7
  6
CONTINUOUS
 10
118.2430367842
 20
156.9167514317
 11
118.2430367842
 21
157.6167514317
  0
LINE
  5
276
100
AcDbEntity
  8
0
100
AcDbLine
 62
7
  6
CONTINUOUS
 10
118.5428654034
 20
112.9167514317
 11
118.5428654034
 21
112.8667514317
  0
LINE
  5
277
100
AcDbEntity
  8
0
100
AcDbLine
 62
7
  6
CONTINUOUS
 10
118.6503817842
 20
137.3116554317
 11
118.6503817842
 21
141.5618474317
  0
LINE
  5
278
100
AcDbEntity
  8
0
100
AcDbLine
 62
253
  6
CONTINUOUS
 10
118.6952507842
 20
112.9167514317
 11
118.6952507842
 21
112.8667514317
  0
LINE
  5
279
100
AcDbEntity
  8
0
100
AcDbLine
 62
7
  6
CONTINUOUS
 10
118.7190068324
 20
112.9167514317
 11
118.7190068324
 21
112.8667514317
  0
LINE
  5
27A
100
AcDbEntity
  8
RACCORDO
100
AcDbLine
 62
7
  6
CONTINUOUS
 10
118.9930367842
 20
155.2922299632
 11
118.9930367842
 21
156.1183154606
  0
LINE
  5
27B
100
AcDbEntity
  8
0
100
AcDbLine
 62
7
  6
CONTINUOUS
 10
119.4887047842
 20
139.7413064317
 11
119.4886947842
 21
140.7755654317
  0
LINE
  5
27C
100
AcDbEntity
  8
RACCORDO
100
AcDbLine
 62
253
  6
CONTINUOUS
 10
121.194222803
 20
131.4200387546
 11
121.194222803
 21
132.2555721836
  0
LINE
  5
27D
100
AcDbEntity
  8
0
100
AcDbLine
 62
7
  6
CONTINUOUS
 10
119.5004247842
 20
137.3116554317
 11
119.5005197842
 21
138.9550244317
  0
LWPOLYLINE
  5
27E
100
AcDbEntity
  8
RACCORDO
100
AcDbPolyline
 62
7
  6
CONTINUOUS
 90
3
 70
0
 10
95.9796700948
 20
112.9214907742
 10
95.9179730158
 20
112.9333296949
 10
95.8596925807
 20
112.9522681937
  0
LWPOLYLINE
  5
27F
100
AcDbEntity
  8
RACCORDO
100
AcDbPolyline
 62
253
  6
CONTINUOUS
 90
13
 70
0
 10
111.2930367842
 20
112.9167514317
 10
111.2875793752
 20
112.9206410566
 10
111.2822164219
 20
112.9322423633
 10
111.2770406219
 20
112.9513543226
 10
111.2721414792
 20
112.9776457826
 10
111.2676035965
 20
113.0106620291
 10
111.2635052561
 20
113.049833362
 10
111.2599108283
 20
113.0945752325
 10
111.2568911833
 20
113.1440405681
 10
111.2545107851
 20
113.1970507817
 10
111.2528019548
 20
113.2525261778
 10
111.25177654
 20
113.3095878738
 10
111.2514395814
 20
113.3672582519
  0
LINE
  5
280
100
AcDbEntity
  8
0
100
AcDbLine
 62
7
  6
CONTINUOUS
 10
111.4340517842
 20
137.3116454317
 11
110.6303977842
 21
140.1143604317
  0
LWPOLYLINE
  5
281
100
AcDbEntity
  8
RACCORDO
100
AcDbPolyline
 62
253
  6
CONTINUOUS
 90
10
 70
0
 10
121.194376848
 20
131.4200387546
 10
121.2161217505
 20
129.5711170357
 10
121.2356758569
 20
127.682908025
 10
121.2530391672
 20
125.755432205
 10
121.2683610324
 20
123.7887340981
 10
121.2814921014
 20
121.7828251549
 10
121.2919843218
 20
119.7376840112
 10
121.2996883426
 20
117.6533333068
 10
121.3047535148
 20
115.5298400004
 10
121.3071798384
 20
113.3672582646
  0
LWPOLYLINE
  5
282
100
AcDbEntity
  8
RACCORDO
100
AcDbPolyline
 62
253
  6
CONTINUOUS
 90
10
 70
0
 10
121.840642271
 20
131.419656619
 10
121.860773993
 20
129.5709021683
 10
121.8792844354
 20
127.6828190505
 10
121.8959513025
 20
125.7554277182
 10
121.9104234326
 20
123.7887590392
 10
121.9225782358
 20
121.7828380689
 10
121.9325247161
 20
119.7376843244
 10
121.9401224088
 20
117.653334079
 10
121.9449769494
 20
115.5298406609
 10
121.9467998774
 20
113.3672582424
  0
LINE
  5
283
100
AcDbEntity
  8
RACCORDO
100
AcDbLine
 62
253
  6
CONTINUOUS
 10
121.3071798383
 20
112.9167514317
 11
121.3071798383
 21
113.3672582646
  0
LINE
  5
284
100
AcDbEntity
  8
0
100
AcDbLine
 62
7
  6
CONTINUOUS
 10
122.767066736
 20
112.9167514317
 11
122.767066736
 21
112.8667514317
  0
LINE
  5
285
100
AcDbEntity
  8
0
100
AcDbLine
 62
7
  6
CONTINUOUS
 10
123.2339927842
 20
112.9167514317
 11
123.2339927842
 21
112.8667514317
  0
LINE
  5
286
100
AcDbEntity
  8
0
100
AcDbLine
 62
7
  6
CONTINUOUS
 10
127.6130411285
 20
112.8479247633
 11
127.6314831787
 21
112.9167514317
  0
LWPOLYLINE
  5
287
100
AcDbEntity
  8
RACCORDO
100
AcDbPolyline
 62
253
  6
CONTINUOUS
 90
13
 70
0
 10
121.7253929422
 20
112.9167514317
 10
121.7543109419
 20
112.9206062221
 10
121.7827339064
 20
112.9321047657
 10
121.810174837
 20
112.951050379
 10
121.8361635452
 20
112.9771187908
 10
121.8602546514
 20
113.0098636289
 10
121.882035235
 20
113.0487240089
 10
121.9011320122
 20
113.0930343013
 10
121.9172176406
 20
113.1420353997
 10
121.9300163259
 20
113.1948875722
 10
121.9393086613
 20
113.2506851537
 10
121.9449353479
 20
113.3084721182
 10
121.9467998775
 20
113.3672582424
  0
LINE
  5
288
100
AcDbEntity
  8
RACCORDO
100
AcDbLine
 62
253
  6
CONTINUOUS
 10
110.8430367842
 20
113.3667514317
 11
110.8464467687
 21
113.3668141477
  0
LINE
  5
289
100
AcDbEntity
  8
RACCORDO
100
AcDbLine
 62
253
  6
CONTINUOUS
 10
110.8464467687
 20
113.3668141477
 11
110.9257296932
 21
113.3670461318
  0
LINE
  5
28A
100
AcDbEntity
  8
0
100
AcDbLine
 62
7
  6
CONTINUOUS
 10
123.2339927842
 20
112.8667514317
 11
118.5428654034
 21
112.8667514317
  0
LINE
  5
28B
100
AcDbEntity
  8
RACCORDO
100
AcDbLine
 62
7
  6
CONTINUOUS
 10
130.6462717486
 20
112.9167514317
 11
129.8412897507
 21
112.9167514317
  0
LINE
  5
28C
100
AcDbEntity
  8
0
100
AcDbLine
 62
7
  6
CONTINUOUS
 10
104.4930367842
 20
112.9167514317
 11
104.160680626
 21
112.9167514317
  0
LINE
  5
28D
100
AcDbEntity
  8
RACCORDO
100
AcDbLine
 62
7
  6
CONTINUOUS
 10
95.2397772805
 20
112.9167514317
 11
129.8409323003
 21
112.9167514317
  0
LINE
  5
28E
100
AcDbEntity
  8
RACCORDO
100
AcDbLine
 62
253
  6
CONTINUOUS
 10
130.3172536516
 20
113.3672582519
 11
115.043036786
 21
113.3672582615
  0
LINE
  5
28F
100
AcDbEntity
  8
RACCORDO
100
AcDbLine
 62
253
  6
CONTINUOUS
 10
114.634633987
 20
113.3672582519
 11
110.9257296932
 21
113.3670461318
  0
LINE
  5
290
100
AcDbEntity
  8
RACCORDO
100
AcDbLine
 62
253
  6
CONTINUOUS
 10
95.5688199168
 20
113.3672582519
 11
110.8430367823
 21
113.3672582616
  0
LINE
  5
291
100
AcDbEntity
  8
RACCORDO
100
AcDbLine
 62
253
  6
CONTINUOUS
 10
131.1494142319
 20
113.4173772139
 11
130.317335537
 21
113.4173772139
  0
LINE
  5
292
100
AcDbEntity
  8
RACCORDO
100
AcDbLine
 62
253
  6
CONTINUOUS
 10
95.5687380314
 20
113.4173772139
 11
94.7366593364
 21
113.4173772139
  0
LWPOLYLINE
  5
293
100
AcDbEntity
  8
RACCORDO
100
AcDbPolyline
 62
253
  6
CONTINUOUS
 90
6
 70
0
 10
114.8818514753
 20
113.3666500388
 10
114.8372908121
 20
113.3671585301
 10
114.7901558152
 20
113.367276987
 10
114.7408821975
 20
113.366720205
 10
114.68914025
 20
113.366516169
 10
114.634633987
 20
113.3672582519
  0
LWPOLYLINE
  5
294
100
AcDbEntity
  8
RACCORDO
100
AcDbPolyline
 62
7
  6
CONTINUOUS
 90
16
 70
0
 10
95.2397500506
 20
112.9167514317
 10
95.1866327533
 20
112.9195892393
 10
95.1350106907
 20
112.9276928957
 10
95.0848838631
 20
112.9410624009
 10
95.0356227052
 20
112.9600117662
 10
94.9878567823
 20
112.9842269803
 10
94.9434747893
 20
113.0127660089
 10
94.9027787846
 20
113.0456500491
 10
94.86546671
 20
113.0828579039
 10
94.8325210863
 20
113.1233839478
 10
94.8039675137
 20
113.1675164434
 10
94.779780392
 20
113.2149671281
 10
94.7608654414
 20
113.2638655889
 10
94.7475245687
 20
113.3135883545
 10
94.739455867
 20
113.3647588962
 10
94.7366593364
 20
113.4173772139
  0
LINE
  5
295
100
AcDbEntity
  8
RACCORDO
100
AcDbLine
 62
7
  6
CONTINUOUS
 10
96.0447838176
 20
112.9167514317
 11
95.9796700948
 21
112.9214907742
  0
LWPOLYLINE
  5
296
100
AcDbEntity
  8
RACCORDO
100
AcDbPolyline
 62
253
  6
CONTINUOUS
 90
7
 70
0
 10
115.0430367842
 20
113.3667514317
 10
115.0396532538
 20
113.3682235624
 10
115.0293919789
 20
113.368054643
 10
115.0122305806
 20
113.3670158448
 10
114.9883005432
 20
113.3667190863
 10
114.9580888991
 20
113.3672162254
 10
114.8818514753
 20
113.3666500388
  0
LINE
  5
297
100
AcDbEntity
  8
0
100
AcDbLine
 62
7
  6
CONTINUOUS
 10
111.8590627842
 20
138.7939604317
 11
111.0653857842
 21
141.5618364317
  0
LINE
  5
298
100
AcDbEntity
  8
0
100
AcDbLine
 62
7
  6
CONTINUOUS
 10
128.2891892069
 20
112.6667514317
 11
128.356176505
 21
112.9167514317
  0
LINE
  5
299
100
AcDbEntity
  8
0
100
AcDbLine
 62
7
  6
CONTINUOUS
 10
97.5968843615
 20
112.6667514317
 11
98.2730324399
 21
112.8479247633
  0
LINE
  5
29A
100
AcDbEntity
  8
0
100
AcDbLine
 62
7
  6
CONTINUOUS
 10
128.2891892069
 20
112.6667514317
 11
127.6130411285
 21
112.8479247633
  0
LWPOLYLINE
  5
29B
100
AcDbEntity
  8
RACCORDO
100
AcDbPolyline
 62
7
  6
CONTINUOUS
 90
3
 70
0
 10
95.9547314859
 20
131.9115781927
 10
95.9487401051
 20
131.9154500788
 10
95.9423250975
 20
131.9167514317
  0
LWPOLYLINE
  5
29C
100
AcDbEntity
  8
RACCORDO
100
AcDbPolyline
 62
253
  6
CONTINUOUS
 90
13
 70
0
 10
114.5930367842
 20
119.4167514317
 10
114.5983274977
 20
119.4131154579
 10
114.6035632321
 20
119.4021805246
 10
114.6086560802
 20
119.3839979846
 10
114.6135271432
 20
119.3586888981
 10
114.6180790727
 20
119.3265887249
 10
114.6222051903
 20
119.2883709945
 10
114.6258291294
 20
119.2447712327
 10
114.628897586
 20
119.1964627573
 10
114.6313580764
 20
119.1442772272
 10
114.6331693072
 20
119.0891053963
 10
114.6343013739
 20
119.0318784738
 10
114.634735663
 20
118.9735653474
  0
LINE
  5
29D
100
AcDbEntity
  8
0
100
AcDbLine
 62
7
  6
CONTINUOUS
 10
117.2336547842
 20
137.3116554317
 11
116.9653097842
 21
138.1474824317
  0
LINE
  5
29E
100
AcDbEntity
  8
0
100
AcDbLine
 62
7
  6
CONTINUOUS
 10
116.7060177842
 20
138.9550134317
 11
116.2940547842
 21
140.2381314317
  0
LINE
  5
29F
100
AcDbEntity
  8
0
100
AcDbLine
 62
7
  6
CONTINUOUS
 10
118.0836977842
 20
137.3116454317
 11
116.7190967842
 21
141.5618474317
  0
LINE
  5
2A0
100
AcDbEntity
  8
SUPERFICI
100
AcDbLine
 62
7
  6
CONTINUOUS
 10
130.7915319634
 20
131.9167514317
 11
130.8816235097
 21
129.9167514317
  0
LINE
  5
2A1
100
AcDbEntity
  8
RACCORDO
100
AcDbLine
 62
7
  6
CONTINUOUS
 10
129.992586959
 20
129.7247166866
 11
129.9024760437
 21
131.768060412
  0
LINE
  5
2A2
100
AcDbEntity
  8
RACCORDO
100
AcDbLine
 62
7
  6
CONTINUOUS
 10
130.0716954105
 20
127.6808858092
 11
129.9924645022
 21
129.7274935025
  0
LINE
  5
2A3
100
AcDbEntity
  8
RACCORDO
100
AcDbLine
 62
7
  6
CONTINUOUS
 10
130.1398013982
 20
125.6365677798
 11
130.071294209
 21
127.692022763
  0
LWPOLYLINE
  5
2A4
100
AcDbEntity
  8
RACCORDO
100
AcDbPolyline
 62
7
  6
CONTINUOUS
 90
3
 70
0
 10
130.2430157552
 20
121.5459644251
 10
130.1969098086
 20
123.5915096785
 10
130.1398013982
 20
125.6365677798
  0
LWPOLYLINE
  5
2A5
100
AcDbEntity
  8
RACCORDO
100
AcDbPolyline
 62
7
  6
CONTINUOUS
 90
3
 70
0
 10
130.2424619413
 20
121.5738182732
 10
130.1963469748
 20
123.6137896143
 10
130.1392894418
 20
125.6532749894
  0
LINE
  5
2A6
100
AcDbEntity
  8
RACCORDO
100
AcDbLine
 62
7
  6
CONTINUOUS
 10
130.2781045787
 20
119.5006907798
 11
130.2424619413
 21
121.5738182732
  0
LWPOLYLINE
  5
2A7
100
AcDbEntity
  8
RACCORDO
100
AcDbPolyline
 62
7
  6
CONTINUOUS
 90
10
 70
0
 10
129.9024760437
 20
131.768060412
 10
129.9021073536
 20
131.7934801731
 10
129.9030750386
 20
131.8182062518
 10
129.9053790985
 20
131.8415060199
 10
129.9091498617
 20
131.8626441666
 10
129.914257
 20
131.8810127911
 10
129.9203095285
 20
131.896100771
 10
129.927177119
 20
131.9073782648
 10
129.9349900998
 20
131.9143706468
 10
129.9437484709
 20
131.9167514317
  0
LINE
  5
2A8
100
AcDbEntity
  8
RACCORDO
100
AcDbLine
 62
7
  6
CONTINUOUS
 10
130.3021713927
 20
117.4559416625
 11
130.2776197407
 21
119.534115872
  0
LINE
  5
2A9
100
AcDbEntity
  8
RACCORDO
100
AcDbLine
 62
7
  6
CONTINUOUS
 10
130.3152210837
 20
115.4114641532
 11
130.3018155064
 21
117.494934046
  0
LWPOLYLINE
  5
2AA
100
AcDbEntity
  8
RACCORDO
100
AcDbPolyline
 62
7
  6
CONTINUOUS
 90
10
 70
0
 10
131.1494142319
 20
113.4173772139
 10
131.144502357
 20
115.2505096938
 10
131.1311326242
 20
117.0837152822
 10
131.1093050334
 20
118.9169939791
 10
131.0790192795
 20
120.7503994884
 10
131.0402756677
 20
122.5838781063
 10
130.9930751138
 20
124.4172687207
 10
130.9374179231
 20
126.2505176278
 10
130.8733037902
 20
128.0836785315
 10
130.8007327153
 20
129.9167514317
  0
LINE
  5
2AB
100
AcDbEntity
  8
RACCORDO
100
AcDbLine
 62
7
  6
CONTINUOUS
 10
130.3172536516
 20
113.3672582519
 11
130.3150541052
 21
115.45602116
  0
LWPOLYLINE
  5
2AC
100
AcDbEntity
  8
RACCORDO
100
AcDbPolyline
 62
7
  6
CONTINUOUS
 90
3
 70
0
 10
129.9023206702
 20
131.8059159388
 10
129.9019982359
 20
131.7871014833
 10
129.9024760437
 20
131.768060412
  0
LWPOLYLINE
  5
2AD
100
AcDbEntity
  8
RACCORDO
100
AcDbPolyline
 62
7
  6
CONTINUOUS
 90
16
 70
0
 10
131.1494142319
 20
113.4173772139
 10
131.1466310416
 20
113.3647897899
 10
131.1385667396
 20
113.3136328425
 10
131.1252213261
 20
113.2639063718
 10
131.1062883118
 20
113.2149762345
 10
131.0820741858
 20
113.167476574
 10
131.0534984164
 20
113.1233098199
 10
131.0205364717
 20
113.0827779366
 10
130.9832128834
 20
113.0455789597
 10
130.9425207148
 20
113.0127094259
 10
130.8981721024
 20
112.9841923352
 10
130.8504549096
 20
112.9600046876
 10
130.8012257895
 20
112.9410740197
 10
130.7511036263
 20
112.9277095106
 10
130.6994695357
 20
112.9196019813
 10
130.6463235177
 20
112.9167514317
  0
LINE
  5
2AE
100
AcDbEntity
  8
RACCORDO
100
AcDbLine
 62
7
  6
CONTINUOUS
 10
130.3146314303
 20
113.3674001322
 11
130.317335537
 21
113.4173772139
  0
LWPOLYLINE
  5
2AF
100
AcDbEntity
  8
RACCORDO
100
AcDbPolyline
 62
7
  6
CONTINUOUS
 90
10
 70
0
 10
130.3172536516
 20
113.3672582519
 10
130.3130030488
 20
113.3084508641
 10
130.3013506057
 20
113.2521279585
 10
130.2822963222
 20
113.1982895352
 10
130.2553272719
 20
113.1460157767
 10
130.2209563811
 20
113.0962265005
 10
130.1807224294
 20
113.0516811589
 10
130.1343228708
 20
113.0126810214
 10
130.0820602512
 20
112.9789248184
 10
130.0263809877
 20
112.9522681937
  0
LWPOLYLINE
  5
2B0
100
AcDbEntity
  8
RACCORDO
100
AcDbPolyline
 62
253
  6
CONTINUOUS
 90
6
 70
0
 10
110.8430367842
 20
118.9667514317
 10
110.8464457232
 20
118.967592002
 10
110.8566208919
 20
118.9684198428
 10
110.873408128
 20
118.9692224237
 10
110.8965530907
 20
118.9699875976
 10
110.9257051144
 20
118.9707037761
  0
LINE
  5
2B1
100
AcDbEntity
  8
RACCORDO
100
AcDbLine
 62
253
  6
CONTINUOUS
 10
110.9257051144
 20
118.9707037761
 11
111.0001793141
 21
118.9719466356
  0
LINE
  5
2B2
100
AcDbEntity
  8
RACCORDO
100
AcDbLine
 62
253
  6
CONTINUOUS
 10
111.0001793141
 20
118.9719466356
 11
111.0923344356
 21
118.972875966
  0
LINE
  5
2B3
100
AcDbEntity
  8
RACCORDO
100
AcDbLine
 62
253
  6
CONTINUOUS
 10
111.0923344356
 20
118.972875966
 11
111.2513379054
 21
118.9735653474
  0
LINE
  5
2B4
100
AcDbEntity
  8
RACCORDO
100
AcDbLine
 62
253
  6
CONTINUOUS
 10
111.2513379054
 20
118.9735653474
 11
114.634735663
 21
118.9735653474
  0
LINE
  5
2B5
100
AcDbEntity
  8
RACCORDO
100
AcDbLine
 62
7
  6
CONTINUOUS
 10
114.5930367842
 20
119.4167514317
 11
111.2930367842
 21
119.4167514317
  0
LWPOLYLINE
  5
2B6
100
AcDbEntity
  8
RACCORDO
100
AcDbPolyline
 62
253
  6
CONTINUOUS
 90
7
 70
0
 10
114.634735663
 20
118.9735653474
 10
114.6892381893
 20
118.9720598842
 10
114.742939515
 20
118.9720612645
 10
114.7947614885
 20
118.9728097391
 10
114.8437373637
 20
118.972704947
 10
114.8887206429
 20
118.9717200134
 10
114.9632717726
 20
118.9711104507
  0
LWPOLYLINE
  5
2B7
100
AcDbEntity
  8
RACCORDO
100
AcDbPolyline
 62
253
  6
CONTINUOUS
 90
6
 70
0
 10
114.9632717726
 20
118.9711104507
 10
114.9918746496
 20
118.9699263318
 10
115.0140235025
 20
118.96911744
 10
115.0299015144
 20
118.9689483978
 10
115.039660612
 20
118.9683589786
 10
115.0430367842
 20
118.9667514317
  0
LWPOLYLINE
  5
2B8
100
AcDbEntity
  8
RACCORDO
100
AcDbPolyline
 62
253
  6
CONTINUOUS
 90
7
 70
0
 10
104.04543731
 20
131.4196597449
 10
103.914852473
 20
131.4989482011
 10
103.7864604505
 20
131.5796607798
 10
103.6602499251
 20
131.6617974373
 10
103.536209148
 20
131.7453581291
 10
103.4143259608
 20
131.8303428095
 10
103.2945878165
 20
131.9167514317
  0
LWPOLYLINE
  5
2B9
100
AcDbEntity
  8
RACCORDO
100
AcDbPolyline
 62
253
  6
CONTINUOUS
 90
57
 70
0
 10
103.9965419862
 20
132.7071821749
 10
103.5648364969
 20
133.0455363246
 10
103.1677117879
 20
133.403376713
 10
102.8051678592
 20
133.7811083976
 10
102.4776265399
 20
134.1808293173
 10
102.1846660009
 20
134.6011418658
 10
101.9250207547
 20
135.0367369883
 10
101.6995563166
 20
135.4851521434
 10
101.5074071713
 20
135.9482517873
 10
101.3447112854
 20
136.426825228
 10
101.210465567
 20
136.9215473042
 10
101.1056731079
 20
137.4310014858
 10
101.0294811498
 20
137.9527106206
 10
100.9816720174
 20
138.4862405014
 10
100.962463386
 20
139.0306762603
 10
100.9716555231
 20
139.5825758959
 10
101.0093840193
 20
140.1421724452
 10
101.075513284
 20
140.7074375906
 10
101.1694368126
 20
141.2713468549
 10
101.2914089016
 20
141.8327222644
 10
101.4411752544
 20
142.3907698499
 10
101.6173664768
 20
142.9390483655
 10
101.8193749653
 20
143.4754594357
 10
102.0478083233
 20
144.0005483919
 10
102.3031199664
 20
144.512024518
 10
102.584577043
 20
145.0093283172
 10
102.8929124049
 20
145.4920439047
 10
103.2307780224
 20
145.9583077393
 10
103.598047759
 20
146.4087388919
 10
103.9948477513
 20
146.8423302939
 10
104.4242083803
 20
147.2551187793
 10
104.8869407011
 20
147.6482776748
 10
105.3822336585
 20
148.0210544784
 10
105.9106844679
 20
148.3672094357
 10
106.4748886472
 20
148.6881635053
 10
107.0722506784
 20
148.9839576546
 10
107.6955812232
 20
149.2470973508
 10
108.346607059
 20
149.477842439
 10
109.0236014084
 20
149.6782621154
 10
109.7141946008
 20
149.8441297279
 10
110.4175985653
 20
149.975238786
 10
111.1346013729
 20
150.0738225441
 10
111.8551975654
 20
150.1392905875
 10
112.5784273706
 20
150.1717134927
 10
113.3052505607
 20
150.1717694753
 10
114.0285409944
 20
150.1394478528
 10
114.7492741398
 20
150.0740665301
 10
115.4664745288
 20
149.9755599282
 10
116.1700896158
 20
149.8445099196
 10
116.8609006413
 20
149.6786783783
 10
117.5381263647
 20
149.4782757371
 10
118.1893705193
 20
149.2475328933
 10
118.8128978716
 20
148.9843804168
 10
119.4104436549
 20
148.6885570295
 10
119.9748173026
 20
148.3675600076
 10
120.5034280523
 20
148.0213413912
 10
120.9988666662
 20
147.6484855742
  0
LWPOLYLINE
  5
2BA
100
AcDbEntity
  8
RACCORDO
100
AcDbPolyline
 62
253
  6
CONTINUOUS
 90
57
 70
0
 10
103.2945878165
 20
131.9167514317
 10
102.8265664837
 20
132.291960454
 10
102.3978270887
 20
132.6896377131
 10
102.007296201
 20
133.109762074
 10
101.6531195201
 20
133.5542203445
 10
101.3349857409
 20
134.021072315
 10
101.0538781291
 20
134.5045564467
 10
100.8094266976
 20
135.0026435676
 10
100.5993844802
 20
135.5173025089
 10
100.4218158593
 20
136.0487691066
 10
100.2748307983
 20
136.5983586088
 10
100.158392427
 20
137.1646709008
 10
100.0733731322
 20
137.7438690479
 10
100.0188353885
 20
138.3364556178
 10
99.9941084042
 20
138.9418344308
 10
100.0003377178
 20
139.5545335305
 10
100.0373312571
 20
140.1759664486
 10
100.1042681381
 20
140.804631005
 10
100.2012755555
 20
141.4307158935
 10
100.3287251445
 20
142.0539782916
 10
100.4859630958
 20
142.6746214139
 10
100.671575934
 20
143.2835562832
 10
100.8854575917
 20
143.8791097146
 10
101.1282343645
 20
144.4629800396
 10
101.3996799001
 20
145.031178015
 10
101.6999286077
 20
145.5833731675
 10
102.0301297006
 20
146.1199550584
 10
102.3917543171
 20
146.6380390744
 10
102.7858555499
 20
147.1381979708
 10
103.213311615
 20
147.6199432907
 10
103.6755367865
 20
148.078823513
 10
104.1745968055
 20
148.5154185008
 10
104.7107216431
 20
148.9292628458
 10
105.2826262234
 20
149.3143679251
 10
105.8937919257
 20
149.6709466614
 10
106.5427814989
 20
149.9989256249
 10
107.2204799075
 20
150.2919148363
 10
107.9284397843
 20
150.548678264
 10
108.6658178442
 20
150.7705929023
 10
109.4189891475
 20
150.9551971741
 10
110.1861335645
 20
151.1014524268
 10
110.9682588605
 20
151.2104928404
 10
111.7552434839
 20
151.2831046843
 10
112.5451113562
 20
151.3195640494
 10
113.3383456815
 20
151.3196260631
 10
114.1282807719
 20
151.2832793971
 10
114.9154159456
 20
151.2107645193
 10
115.6977573342
 20
151.1018097921
 10
116.4651333196
 20
150.9556195576
 10
117.2185441222
 20
150.7710553479
 10
117.9561753009
 20
150.5491600746
 10
118.6643735673
 20
150.2923987265
 10
119.3422873456
 20
149.9993949224
 10
119.9914777603
 20
149.6713840036
 10
120.6028278196
 20
149.3147574036
 10
121.1749065173
 20
148.929580632
 10
121.7111899666
 20
148.5156485662
  0
LWPOLYLINE
  5
2BB
100
AcDbEntity
  8
RACCORDO
100
AcDbPolyline
 62
7
  6
CONTINUOUS
 90
10
 70
0
 10
95.9423250975
 20
131.9167514317
 10
95.9510834686
 20
131.9143706468
 10
95.9588964494
 20
131.9073782648
 10
95.9657640399
 20
131.896100771
 10
95.9718165684
 20
131.8810127911
 10
95.9769237066
 20
131.8626441666
 10
95.9806944699
 20
131.8415060199
 10
95.9829985298
 20
131.8182062518
 10
95.9839662147
 20
131.7934801731
 10
95.9835975246
 20
131.768060412
  0
LWPOLYLINE
  5
2BC
100
AcDbEntity
  8
RACCORDO
100
AcDbPolyline
 62
253
  6
CONTINUOUS
 90
7
 70
0
 10
104.6869269055
 20
132.2555721836
 10
104.5684190249
 20
132.3273902027
 10
104.4512886352
 20
132.4005699906
 10
104.3355357365
 20
132.4751253979
 10
104.2211603288
 20
132.5510701689
 10
104.108162412
 20
132.6284179293
 10
103.9965419862
 20
132.7071821749
  0
LWPOLYLINE
  5
2BD
100
AcDbEntity
  8
RACCORDO
100
AcDbPolyline
 62
253
  6
CONTINUOUS
 90
10
 70
0
 10
122.5914595481
 20
131.9167491272
 10
122.5298641654
 20
132.018055725
 10
122.4626638289
 20
132.1179360826
 10
122.3904466065
 20
132.2155160127
 10
122.3138444951
 20
132.3099414427
 10
122.2335278749
 20
132.4003858842
 10
122.1501996431
 20
132.4860576675
 10
122.0645890847
 20
132.5662068798
 10
121.9774454902
 20
132.6401319311
 10
121.889531582
 20
132.7071856898
  0
LWPOLYLINE
  5
2BE
100
AcDbEntity
  8
RACCORDO
100
AcDbPolyline
 62
253
  6
CONTINUOUS
 90
10
 70
0
 10
121.8407521741
 20
131.4200387546
 10
121.7837051445
 20
131.5263795943
 10
121.7221553405
 20
131.6322287708
 10
121.6562524458
 20
131.7361391765
 10
121.5858497146
 20
131.8362078347
 10
121.5115841007
 20
131.9315612064
 10
121.4348351342
 20
132.022293241
 10
121.3562829174
 20
132.1075589659
 10
121.2759442465
 20
132.1856807672
 10
121.1942228029
 20
132.2555721849
  0
LINE
  5
2BF
100
AcDbEntity
  8
0
100
AcDbLine
 62
7
  6
CONTINUOUS
 10
121.0942487842
 20
137.3116554317
 11
120.2424107842
 21
138.9550134317
  0
LINE
  5
2C0
100
AcDbEntity
  8
RACCORDO
100
AcDbLine
 62
7
  6
CONTINUOUS
 10
129.9437484709
 20
131.9167514317
 11
129.9373334632
 21
131.9154500788
  0
LINE
  5
2C1
100
AcDbEntity
  8
DRAFT
100
AcDbLine
 62
7
  6
CONTINUOUS
 10
130.8816167396
 20
129.9167514317
 11
130.8007327153
 21
129.9167514317
  0
LINE
  5
2C2
100
AcDbEntity
  8
DRAFT
100
AcDbLine
 62
7
  6
CONTINUOUS
 10
95.0044568287
 20
129.9167514317
 11
95.0853408531
 21
129.9167514317
  0
LINE
  5
2C3
100
AcDbEntity
  8
0
100
AcDbLine
 62
7
  6
CONTINUOUS
 10
122.0516777842
 20
137.3116664317
 11
121.1468623956
 21
139.0572401105
  0
LWPOLYLINE
  5
2C4
100
AcDbEntity
  8
RACCORDO
100
AcDbPolyline
 62
253
  6
CONTINUOUS
 90
3
 70
0
 10
104.0453213944
 20
131.4200387547
 10
104.111522814
 20
131.4211614942
 10
104.1797346888
 20
131.421723736
  0
LINE
  5
2C5
100
AcDbEntity
  8
RACCORDO
100
AcDbLine
 62
253
  6
CONTINUOUS
 10
121.3442609246
 20
131.4214834032
 11
121.194222803
 21
131.4200387546
  0
LINE
  5
2C6
100
AcDbEntity
  8
RACCORDO
100
AcDbLine
 62
253
  6
CONTINUOUS
 10
121.4922934624
 20
131.4221059818
 11
121.3442609246
 21
131.4214834032
  0
LWPOLYLINE
  5
2C7
100
AcDbEntity
  8
RACCORDO
100
AcDbPolyline
 62
253
  6
CONTINUOUS
 90
3
 70
0
 10
104.1797346888
 20
131.421723736
 10
104.393733136
 20
131.4221609478
 10
104.4674042342
 20
131.421898308
  0
LINE
  5
2C8
100
AcDbEntity
  8
RACCORDO
100
AcDbLine
 62
253
  6
CONTINUOUS
 10
104.6918507654
 20
131.4200387546
 11
121.194222803
 21
131.4200387546
  0
LINE
  5
2C9
100
AcDbEntity
  8
RACCORDO
100
AcDbLine
 62
7
  6
CONTINUOUS
 10
130.7915319634
 20
131.9167514317
 11
129.9437484709
 21
131.9167514317
  0
LINE
  5
2CA
100
AcDbEntity
  8
RACCORDO
100
AcDbLine
 62
7
  6
CONTINUOUS
 10
95.0945416049
 20
131.9167514317
 11
95.9423250975
 21
131.9167514317
  0
LINE
  5
2CB
100
AcDbEntity
  8
RACCORDO
100
AcDbLine
 62
253
  6
CONTINUOUS
 10
95.9423250975
 20
131.9167514317
 11
103.2945878165
 21
131.9167514317
  0
LINE
  5
2CC
100
AcDbEntity
  8
RACCORDO
100
AcDbLine
 62
253
  6
CONTINUOUS
 10
122.5914857518
 20
131.9167514317
 11
129.9437484709
 21
131.9167514317
  0
LINE
  5
2CD
100
AcDbEntity
  8
RACCORDO
100
AcDbLine
 62
253
  6
CONTINUOUS
 10
104.6918507654
 20
132.2555721836
 11
121.194222803
 21
132.2555721836
  0
LINE
  5
2CE
100
AcDbEntity
  8
RACCORDO
100
AcDbLine
 62
253
  6
CONTINUOUS
 10
121.6363416544
 20
131.4218982256
 11
121.4922934624
 21
131.4221059818
  0
LINE
  5
2CF
100
AcDbEntity
  8
RACCORDO
100
AcDbLine
 62
253
  6
CONTINUOUS
 10
104.4674042342
 20
131.421898308
 11
104.6918507654
 21
131.4200387546
  0
LWPOLYLINE
  5
2D0
100
AcDbEntity
  8
RACCORDO
100
AcDbPolyline
 62
253
  6
CONTINUOUS
 90
3
 70
0
 10
121.8407521741
 20
131.4200387546
 10
121.7744799975
 20
131.4208628925
 10
121.6363416544
 20
131.4218982256
  0
LINE
  5
2D1
100
AcDbEntity
  8
0
100
AcDbLine
 62
7
  6
CONTINUOUS
 10
121.0942487842
 20
137.3116554317
 11
122.0516777842
 21
137.3116664317
  0
LINE
  5
2D2
100
AcDbEntity
  8
0
100
AcDbLine
 62
7
  6
CONTINUOUS
 10
114.5044427842
 20
137.3116454317
 11
115.3544747842
 21
137.3116554317
  0
LINE
  5
2D3
100
AcDbEntity
  8
0
100
AcDbLine
 62
7
  6
CONTINUOUS
 10
109.7803657842
 20
137.3116454317
 11
110.6303977842
 21
137.3116454317
  0
LINE
  5
2D4
100
AcDbEntity
  8
0
100
AcDbLine
 62
7
  6
CONTINUOUS
 10
113.0877267842
 20
137.3116454317
 11
113.9377587842
 21
137.3116454317
  0
LINE
  5
2D5
100
AcDbEntity
  8
0
100
AcDbLine
 62
7
  6
CONTINUOUS
 10
118.6503817842
 20
137.3116554317
 11
119.5004247842
 21
137.3116554317
  0
LINE
  5
2D6
100
AcDbEntity
  8
0
100
AcDbLine
 62
7
  6
CONTINUOUS
 10
111.4340517842
 20
137.3116454317
 11
112.2840627842
 21
137.3116554317
  0
LINE
  5
2D7
100
AcDbEntity
  8
0
100
AcDbLine
 62
7
  6
CONTINUOUS
 10
108.0803237842
 20
137.3116344317
 11
108.9303557842
 21
137.3116454317
  0
LINE
  5
2D8
100
AcDbEntity
  8
0
100
AcDbLine
 62
7
  6
CONTINUOUS
 10
117.2336547842
 20
137.3116554317
 11
118.0836977842
 21
137.3116454317
  0
LINE
  5
2D9
100
AcDbEntity
  8
0
100
AcDbLine
 62
7
  6
CONTINUOUS
 10
105.2989857842
 20
137.3116344317
 11
106.1490487842
 21
137.3116454317
  0
LINE
  5
2DA
100
AcDbEntity
  8
0
100
AcDbLine
 62
7
  6
CONTINUOUS
 10
115.6228307842
 20
138.1474824317
 11
116.9653097842
 21
138.1474824317
  0
LINE
  5
2DB
100
AcDbEntity
  8
0
100
AcDbLine
 62
7
  6
CONTINUOUS
 10
115.8821127842
 20
138.9550134317
 11
116.7060177842
 21
138.9550134317
  0
LINE
  5
2DC
100
AcDbEntity
  8
0
100
AcDbLine
 62
7
  6
CONTINUOUS
 10
119.5005197842
 20
138.9550244317
 11
120.2424107842
 21
138.9550134317
  0
LINE
  5
2DD
100
AcDbEntity
  8
0
100
AcDbLine
 62
7
  6
CONTINUOUS
 10
119.4887047842
 20
139.7413064317
 11
120.5228857842
 21
139.7413064317
  0
LINE
  5
2DE
100
AcDbEntity
  8
0
100
AcDbLine
 62
7
  6
CONTINUOUS
 10
119.4886947842
 20
140.7755654317
 11
120.5228857842
 21
140.7755654317
  0
LINE
  5
2DF
100
AcDbEntity
  8
0
100
AcDbLine
 62
7
  6
CONTINUOUS
 10
103.9343957842
 20
141.5618364317
 11
104.7844377842
 21
141.5618364317
  0
LINE
  5
2E0
100
AcDbEntity
  8
0
100
AcDbLine
 62
7
  6
CONTINUOUS
 10
106.6636077842
 20
141.5618364317
 11
107.5136497842
 21
141.5618364317
  0
LINE
  5
2E1
100
AcDbEntity
  8
0
100
AcDbLine
 62
7
  6
CONTINUOUS
 10
108.0803337842
 20
141.5618364317
 11
108.9303657842
 21
141.5618364317
  0
LINE
  5
2E2
100
AcDbEntity
  8
0
100
AcDbLine
 62
7
  6
CONTINUOUS
 10
109.7803657842
 20
141.5618364317
 11
111.0653857842
 21
141.5618364317
  0
LINE
  5
2E3
100
AcDbEntity
  8
0
100
AcDbLine
 62
7
  6
CONTINUOUS
 10
112.6527387842
 20
141.5618364317
 11
113.9377587842
 21
141.5618364317
  0
LINE
  5
2E4
100
AcDbEntity
  8
0
100
AcDbLine
 62
7
  6
CONTINUOUS
 10
115.8690227842
 20
141.5618474317
 11
116.7190967842
 21
141.5618474317
  0
LINE
  5
2E5
100
AcDbEntity
  8
0
100
AcDbLine
 62
7
  6
CONTINUOUS
 10
118.6503817842
 20
141.5618474317
 11
120.6408687842
 21
141.5618474317
  0
LWPOLYLINE
  5
2E6
100
AcDbEntity
  8
RACCORDO
100
AcDbPolyline
 62
253
  6
CONTINUOUS
 90
32
 70
0
 10
120.9988666662
 20
147.6484855742
 10
121.4617148645
 20
147.2552550663
 10
121.8911519355
 20
146.842409532
 10
122.2879985908
 20
146.408769793
 10
122.6552986858
 20
145.9583036443
 10
122.9931780208
 20
145.4920239855
 10
123.3015107954
 20
145.009307279
 10
123.5829634644
 20
144.51200596
 10
123.8382727322
 20
144.0005340614
 10
124.0667018943
 20
143.475453059
 10
124.2687072915
 20
142.9390477928
 10
124.4448978984
 20
142.3907699714
 10
124.5946647404
 20
141.8327208212
 10
124.7166372339
 20
141.2713443583
 10
124.8105606356
 20
140.7074357174
 10
124.8766896888
 20
140.1421717044
 10
124.9144180402
 20
139.5825760801
 10
124.9236101807
 20
139.0306769378
 10
124.9044016193
 20
138.4862414678
 10
124.8565925302
 20
137.9527116456
 10
124.7804005497
 20
137.4310022227
 10
124.6756080414
 20
136.9215475416
 10
124.5413622699
 20
136.4268250967
 10
124.3786663206
 20
135.9482515571
 10
124.186517108
 20
135.485151931
 10
123.96105264
 20
135.0367368045
 10
123.7014074337
 20
134.601141688
 10
123.4084469718
 20
134.1808291561
 10
123.0809057102
 20
133.7811082633
 10
122.7183618006
 20
133.4033766152
 10
122.3212370913
 20
133.0455362719
 10
121.8895315821
 20
132.7071821749
  0
LWPOLYLINE
  5
2E7
100
AcDbEntity
  8
RACCORDO
100
AcDbPolyline
 62
253
  6
CONTINUOUS
 90
32
 70
0
 10
121.7111899666
 20
148.5156485662
 10
122.2103746556
 20
148.0789749399
 10
122.6726816458
 20
147.6200314753
 10
123.1001886146
 20
147.1382320505
 10
123.4943226057
 20
146.6380345393
 10
123.855961401
 20
146.1199334328
 10
124.1861599203
 20
145.5833500514
 10
124.4864041728
 20
145.0311574091
 10
124.7578470892
 20
144.4629642253
 10
125.0006194024
 20
143.8791027145
 10
125.2144978447
 20
143.2835556517
 10
125.4001100657
 20
142.6746215232
 10
125.5573485214
 20
142.0539766743
 10
125.68479851
 20
141.4307131161
 10
125.7818057869
 20
140.8046289167
 10
125.8487424497
 20
140.1759656215
 10
125.8857358459
 20
139.5545337378
 10
125.8919651661
 20
138.9418351836
 10
125.8672382577
 20
138.3364566873
 10
125.812700565
 20
137.7438701876
 10
125.7276812473
 20
137.1646717287
 10
125.6112428133
 20
136.598358877
 10
125.4642576859
 20
136.0487689543
 10
125.2866890054
 20
135.5173022486
 10
125.0766467325
 20
135.0026433392
 10
124.8321952735
 20
134.5045562574
 10
124.5510876855
 20
134.0210721255
 10
124.2329539628
 20
133.554220162
 10
123.8787773297
 20
133.1097619132
 10
123.4882464653
 20
132.6896375912
 10
123.0595070831
 20
132.2919603857
 10
122.5914857518
 20
131.9167514317
  0
LINE
  5
2E8
100
AcDbEntity
  8
RACCORDO
100
AcDbLine
 62
253
  6
CONTINUOUS
 10
98.1767634227
 20
152.1157611098
 11
127.7093101457
 21
152.1157611098
  0
LINE
  5
2E9
100
AcDbEntity
  8
ASSI
100
AcDbLine
 62
7
  6
CONTINUOUS
 10
106.75629409
 20
155.1428169656
 11
100.5482993264
 21
154.310658879
  0
LINE
  5
2EA
100
AcDbEntity
  8
RACCORDO
100
AcDbLine
 62
253
  6
CONTINUOUS
 10
100.5482993264
 20
154.310658879
 11
125.3377742419
 21
154.310658879
  0
LINE
  5
2EB
100
AcDbEntity
  8
RACCORDO
100
AcDbLine
 62
253
  6
CONTINUOUS
 10
106.75629409
 20
155.1428169656
 11
119.1297794784
 21
155.1428169656
  0
LINE
  5
2EC
100
AcDbEntity
  8
RACCORDO
100
AcDbLine
 62
253
  6
CONTINUOUS
 10
106.8930367842
 20
155.2922299632
 11
118.9930367842
 21
155.2922299632
  0
LINE
  5
2ED
100
AcDbEntity
  8
RACCORDO
100
AcDbLine
 62
253
  6
CONTINUOUS
 10
106.8930367842
 20
156.1183154687
 11
118.9930367842
 21
156.1183154686
  0
LINE
  5
2EE
100
AcDbEntity
  8
RACCORDO
100
AcDbLine
 62
7
  6
CONTINUOUS
 10
107.6430367842
 20
156.9167514317
 11
118.2430367842
 21
156.9167514317
  0
LINE
  5
2EF
100
AcDbEntity
  8
RACCORDO
100
AcDbLine
 62
253
  6
CONTINUOUS
 10
107.6430367842
 20
157.6167514317
 11
118.2430367842
 21
157.6167514317
  0
LINE
  5
2F0
100
AcDbEntity
  8
RACCORDO
100
AcDbLine
 62
7
  6
CONTINUOUS
 10
108.4433622276
 20
158.4167514317
 11
117.442696395
 21
158.4167514317
  0
LINE
  5
2F1
100
AcDbEntity
  8
ASSI
100
AcDbLine
 62
7
  6
CONTINUOUS
 10
163.1661996573
 20
152.1157611098
 11
162.9629351592
 21
151.3236136455
  0
LINE
  5
2F2
100
AcDbEntity
  8
RACCORDO
100
AcDbLine
 62
253
  6
CONTINUOUS
 10
163.196087399
 20
132.2256957331
 11
162.9166076531
 21
131.9167514317
  0
LWPOLYLINE
  5
2F3
100
AcDbEntity
  8
RACCORDO
100
AcDbPolyline
 62
253
  6
CONTINUOUS
 90
7
 70
0
 10
162.9166076531
 20
131.9167514317
 10
162.835545808
 20
131.8303604607
 10
162.7546105861
 20
131.7453864169
 10
162.6738431588
 20
131.6618293468
 10
162.5932854404
 20
131.5796892959
 10
162.5129800886
 20
131.4989663086
 10
162.4329705059
 20
131.4196604282
  0
LINE
  5
2F4
100
AcDbEntity
  8
RACCORDO
100
AcDbLine
 62
253
  6
CONTINUOUS
 10
192.7998889668
 20
151.2104928404
 11
192.9018768194
 21
151.3241452408
  0
LWPOLYLINE
  5
2F5
100
AcDbEntity
  8
RACCORDO
100
AcDbPolyline
 62
253
  6
CONTINUOUS
 90
3
 70
0
 10
178.5431891514
 20
129.7070274864
 10
178.5205588476
 20
129.6949711515
 10
178.504131565
 20
129.6824368566
  0
LWPOLYLINE
  5
2F6
100
AcDbEntity
  8
RACCORDO
100
AcDbPolyline
 62
253
  6
CONTINUOUS
 90
10
 70
0
 10
160.0342981168
 20
119.3828550391
 10
159.9819537158
 20
119.3570891208
 10
159.9333848471
 20
119.3247176985
 10
159.889410919
 20
119.2862873164
 10
159.8507075789
 20
119.2423591014
 10
159.8180219289
 20
119.1937475853
 10
159.792039135
 20
119.1415876128
 10
159.7731101531
 20
119.0869210312
 10
159.7613712223
 20
119.0305978729
 10
159.7568898586
 20
118.9735653474
  0
LINE
  5
2F7
100
AcDbEntity
  8
RACCORDO
100
AcDbLine
 62
253
  6
CONTINUOUS
 10
160.1591516263
 20
112.9167514317
 11
160.1591516263
 21
113.3667514317
  0
LINE
  5
2F8
100
AcDbEntity
  8
RACCORDO
100
AcDbLine
 62
253
  6
CONTINUOUS
 10
160.2049018831
 20
118.9667514317
 11
160.2049018831
 21
119.4167514317
  0
LINE
  5
2F9
100
AcDbEntity
  8
SUPERFICI
100
AcDbLine
 62
7
  6
CONTINUOUS
 10
159.6327267144
 20
113.3672582519
 11
159.6783318911
 21
118.9735653474
  0
LWPOLYLINE
  5
2FA
100
AcDbEntity
  8
RACCORDO
100
AcDbPolyline
 62
253
  6
CONTINUOUS
 90
10
 70
0
 10
159.7568899064
 20
118.9735653474
 10
159.7479015508
 20
118.3506683083
 10
159.739887748
 20
117.7277621286
 10
159.7328485094
 20
117.1048483195
 10
159.7267838704
 20
116.4819295627
 10
159.7216938039
 20
115.8590061985
 10
159.7175782384
 20
115.2360762257
 10
159.7144371645
 20
114.6131399844
 10
159.7122706177
 20
113.9902001562
 10
159.7110786035
 20
113.3672582519
  0
LWPOLYLINE
  5
2FB
100
AcDbEntity
  8
RACCORDO
100
AcDbPolyline
 62
253
  6
CONTINUOUS
 90
10
 70
0
 10
160.2049019606
 20
118.9667514317
 10
160.195925553
 20
118.3445532434
 10
160.1879224168
 20
117.7223486069
 10
160.1808925519
 20
117.1001375223
 10
160.1748359746
 20
116.4779194033
 10
160.1697526687
 20
115.8556948362
 10
160.1656425855
 20
115.2334655796
 10
160.1625057086
 20
114.6112322198
 10
160.1603420544
 20
113.9889941705
 10
160.1591516228
 20
113.3667514317
  0
LWPOLYLINE
  5
2FC
100
AcDbEntity
  8
RACCORDO
100
AcDbPolyline
 62
253
  6
CONTINUOUS
 90
10
 70
0
 10
162.4329705059
 20
131.4196604282
 10
162.3509426762
 20
129.5750709312
 10
162.2761397865
 20
127.6901128038
 10
162.2090751393
 20
125.7648057399
 10
162.1502015053
 20
123.7991799908
 10
162.1001201522
 20
121.7932600388
 10
162.0595816791
 20
119.7470648866
 10
162.0292055854
 20
117.6606305186
 10
162.0094786113
 20
115.5340102146
 10
162.0009644522
 20
113.3672582432
  0
LWPOLYLINE
  5
2FD
100
AcDbEntity
  8
RACCORDO
100
AcDbPolyline
 62
253
  6
CONTINUOUS
 90
15
 70
0
 10
166.4574182558
 20
138.654192892
 10
166.3270497285
 20
138.1109151501
 10
166.1758122115
 20
137.576635353
 10
166.0052981524
 20
137.0528190936
 10
165.8162923789
 20
136.5394294131
 10
165.6090383947
 20
136.0365665282
 10
165.3845063653
 20
135.5459034299
 10
165.1426100062
 20
135.0659274434
 10
164.8854581539
 20
134.5982049561
 10
164.6173542489
 20
134.1490334806
 10
164.3380823563
 20
133.7183410506
 10
164.0504983965
 20
133.3062526948
 10
163.7629335096
 20
132.9193691137
 10
163.4785647356
 20
132.5599074323
 10
163.196087399
 20
132.2256957331
  0
LINE
  5
2FE
100
AcDbEntity
  8
0
100
AcDbLine
 62
7
  6
CONTINUOUS
 10
166.0324730188
 20
112.9167514317
 11
166.0324730188
 21
95.7667514317
  0
LINE
  5
2FF
100
AcDbEntity
  8
0
100
AcDbLine
 62
7
  6
CONTINUOUS
 10
170.8324730188
 20
112.9167514317
 11
170.8324730188
 21
95.7667514317
  0
LINE
  5
300
100
AcDbEntity
  8
0
100
AcDbLine
 62
253
  6
CONTINUOUS
 10
171.5763180188
 20
112.9167514317
 11
171.5763180188
 21
112.8667514317
  0
LINE
  5
301
100
AcDbEntity
  8
0
100
AcDbLine
 62
7
  6
CONTINUOUS
 10
171.7080770188
 20
112.9167514317
 11
171.7080770188
 21
112.8667514317
  0
LINE
  5
302
100
AcDbEntity
  8
0
100
AcDbLine
 62
7
  6
CONTINUOUS
 10
171.8824730188
 20
156.118315465
 11
171.8824730188
 21
155.2922299632
  0
LINE
  5
303
100
AcDbEntity
  8
0
100
AcDbLine
 62
7
  6
CONTINUOUS
 10
172.6324730188
 20
157.6167514317
 11
172.6324730188
 21
157.047024246
  0
LINE
  5
304
100
AcDbEntity
  8
RACCORDO
100
AcDbLine
 62
7
  6
CONTINUOUS
 10
172.1824730188
 20
112.9167514317
 11
172.3469858999
 21
131.768060412
  0
LINE
  5
305
100
AcDbEntity
  8
RACCORDO
100
AcDbLine
 62
253
  6
CONTINUOUS
 10
172.3469858999
 20
131.768060412
 11
172.3482835068
 21
131.9167514317
  0
LINE
  5
306
100
AcDbEntity
  8
0
100
AcDbLine
 62
7
  6
CONTINUOUS
 10
189.8324730188
 20
95.7667514317
 11
185.0324730188
 21
95.7667514317
  0
LINE
  5
307
100
AcDbEntity
  8
0
100
AcDbLine
 62
7
  6
CONTINUOUS
 10
170.8324730188
 20
95.7667514317
 11
166.0324730188
 21
95.7667514317
  0
LWPOLYLINE
  5
308
100
AcDbEntity
  8
RACCORDO
100
AcDbPolyline
 62
253
  6
CONTINUOUS
 90
10
 70
0
 10
162.9166245638
 20
131.9167504741
 10
162.8895383497
 20
132.0180588931
 10
162.8722506052
 20
132.1179405087
 10
162.8649126986
 20
132.2155211104
 10
162.8675889161
 20
132.3099466186
 10
162.8802558934
 20
132.4003905601
 10
162.9028028213
 20
132.4860613019
 10
162.935032418
 20
132.5662089802
 10
162.9766626534
 20
132.640132065
 10
163.0273292134
 20
132.7071835006
  0
LWPOLYLINE
  5
309
100
AcDbEntity
  8
RACCORDO
100
AcDbPolyline
 62
253
  6
CONTINUOUS
 90
10
 70
0
 10
162.4330498085
 20
131.4200387546
 10
162.4126298792
 20
131.5263794535
 10
162.4029340478
 20
131.632228409
 10
162.4038645135
 20
131.7361385397
 10
162.4148271429
 20
131.8362067563
 10
162.4356699414
 20
131.9315596872
 10
162.4668715476
 20
132.022291668
 10
162.5082051251
 20
132.1075577689
 10
162.5585685824
 20
132.1856801392
 10
162.6170560256
 20
132.2555721848
  0
LINE
  5
30A
100
AcDbEntity
  8
0
100
AcDbLine
 62
7
  6
CONTINUOUS
 10
173.2401200188
 20
112.9167514317
 11
173.2401200188
 21
112.8667514317
  0
LINE
  5
30B
100
AcDbEntity
  8
0
100
AcDbLine
 62
7
  6
CONTINUOUS
 10
173.6324641379
 20
112.9167514317
 11
173.6324640188
 21
112.8667514317
  0
LINE
  5
30C
100
AcDbEntity
  8
0
100
AcDbLine
 62
7
  6
CONTINUOUS
 10
173.8648600188
 20
112.9167514317
 11
173.8648600188
 21
112.8667514317
  0
LINE
  5
30D
100
AcDbEntity
  8
0
100
AcDbLine
 62
7
  6
CONTINUOUS
 10
174.410856961
 20
112.9167514317
 11
174.410856961
 21
112.8667514317
  0
LINE
  5
30E
100
AcDbEntity
  8
0
100
AcDbLine
 62
253
  6
CONTINUOUS
 10
174.9451401546
 20
112.9167514317
 11
174.9451401546
 21
112.8667514317
  0
LINE
  5
30F
100
AcDbEntity
  8
0
100
AcDbLine
 62
7
  6
CONTINUOUS
 10
175.3713629102
 20
112.9167514317
 11
175.3713620188
 21
112.8667514317
  0
LINE
  5
310
100
AcDbEntity
  8
0
100
AcDbLine
 62
7
  6
CONTINUOUS
 10
175.3996054094
 20
112.9167514317
 11
175.3996054094
 21
112.8667514317
  0
LINE
  5
311
100
AcDbEntity
  8
0
100
AcDbLine
 62
7
  6
CONTINUOUS
 10
176.1017600188
 20
112.9167514317
 11
176.1017600188
 21
112.8667514317
  0
LINE
  5
312
100
AcDbEntity
  8
0
100
AcDbLine
 62
253
  6
CONTINUOUS
 10
176.1324730188
 20
117.4167514317
 11
176.1324730188
 21
116.7167514317
  0
LINE
  5
313
100
AcDbEntity
  8
0
100
AcDbLine
 62
7
  6
CONTINUOUS
 10
176.2824730188
 20
129.1874621098
 11
176.2824730188
 21
128.5667514317
  0
LINE
  5
314
100
AcDbEntity
  8
RACCORDO
100
AcDbLine
 62
7
  6
CONTINUOUS
 10
176.2824730188
 20
114.6667514317
 11
176.2824730188
 21
115.75890818
  0
LINE
  5
315
100
AcDbEntity
  8
0
100
AcDbLine
 62
7
  6
CONTINUOUS
 10
176.2824730188
 20
129.1874621098
 11
176.2824730188
 21
129.6824368566
  0
LINE
  5
316
100
AcDbEntity
  8
0
100
AcDbLine
 62
7
  6
CONTINUOUS
 10
176.3324730188
 20
114.6667514317
 11
176.3324730188
 21
112.6667514317
  0
LINE
  5
317
100
AcDbEntity
  8
RACCORDO
100
AcDbLine
 62
7
  6
CONTINUOUS
 10
177.9324730188
 20
131.9167514317
 11
177.9324730188
 21
158.4167514317
  0
LINE
  5
318
100
AcDbEntity
  8
RACCORDO
100
AcDbLine
 62
7
  6
CONTINUOUS
 10
176.0824730188
 20
112.9167514317
 11
176.2308297712
 21
129.9167514317
  0
LWPOLYLINE
  5
319
100
AcDbEntity
  8
RACCORDO
100
AcDbPolyline
 62
253
  6
CONTINUOUS
 90
10
 70
0
 10
195.8781004313
 20
112.9513543226
 10
195.9308725757
 20
112.9776457826
 10
195.9797533321
 20
113.0106620291
 10
196.0238994662
 20
113.049833362
 10
196.0626175995
 20
113.0945752325
 10
196.0951443397
 20
113.1440405681
 10
196.1207852989
 20
113.1970507817
 10
196.139192323
 20
113.2525261778
 10
196.1502377934
 20
113.3095878738
 10
196.1538674141
 20
113.3672582519
  0
LINE
  5
31A
100
AcDbEntity
  8
RACCORDO
100
AcDbLine
 62
7
  6
CONTINUOUS
 10
179.7824730188
 20
112.9167514317
 11
179.6341162663
 21
129.9167514317
  0
LINE
  5
31B
100
AcDbEntity
  8
RACCORDO
100
AcDbLine
 62
7
  6
CONTINUOUS
 10
183.6824730188
 20
112.9167514317
 11
183.5179601376
 21
131.768060412
  0
LINE
  5
31C
100
AcDbEntity
  8
RACCORDO
100
AcDbLine
 62
253
  6
CONTINUOUS
 10
179.1777724784
 20
129.6824368566
 11
179.1777724804
 21
129.7167514317
  0
LINE
  5
31D
100
AcDbEntity
  8
RACCORDO
100
AcDbLine
 62
7
  6
CONTINUOUS
 10
179.4324730188
 20
129.6824368566
 11
179.4324730188
 21
129.9167514317
  0
LINE
  5
31E
100
AcDbEntity
  8
0
100
AcDbLine
 62
7
  6
CONTINUOUS
 10
179.5324730188
 20
112.6667514317
 11
179.5324730188
 21
114.6667514317
  0
LINE
  5
31F
100
AcDbEntity
  8
0
100
AcDbLine
 62
7
  6
CONTINUOUS
 10
179.5824730188
 20
129.1874621098
 11
179.5824730188
 21
128.5667514317
  0
LINE
  5
320
100
AcDbEntity
  8
RACCORDO
100
AcDbLine
 62
7
  6
CONTINUOUS
 10
179.5824730188
 20
114.6667514317
 11
179.5824730188
 21
115.75890818
  0
LINE
  5
321
100
AcDbEntity
  8
0
100
AcDbLine
 62
7
  6
CONTINUOUS
 10
179.5824730188
 20
129.1874621098
 11
179.5824730188
 21
129.6824368566
  0
LINE
  5
322
100
AcDbEntity
  8
0
100
AcDbLine
 62
253
  6
CONTINUOUS
 10
179.7324730188
 20
116.7167514317
 11
179.7324730188
 21
117.4167514317
  0
LINE
  5
323
100
AcDbEntity
  8
0
100
AcDbLine
 62
7
  6
CONTINUOUS
 10
180.0445790188
 20
112.9167514317
 11
180.0445790188
 21
112.8667514317
  0
LINE
  5
324
100
AcDbEntity
  8
0
100
AcDbLine
 62
7
  6
CONTINUOUS
 10
180.1010350302
 20
112.9167514317
 11
180.1010350302
 21
112.8667514317
  0
LINE
  5
325
100
AcDbEntity
  8
0
100
AcDbLine
 62
7
  6
CONTINUOUS
 10
180.5423208585
 20
112.9167514317
 11
180.5423208585
 21
112.8667514317
  0
LINE
  5
326
100
AcDbEntity
  8
0
100
AcDbLine
 62
253
  6
CONTINUOUS
 10
181.0395952052
 20
112.9167514317
 11
181.0395952052
 21
112.8667514317
  0
LINE
  5
327
100
AcDbEntity
  8
0
100
AcDbLine
 62
7
  6
CONTINUOUS
 10
181.5372562349
 20
112.9167514317
 11
181.5372562349
 21
112.8667514317
  0
LINE
  5
328
100
AcDbEntity
  8
0
100
AcDbLine
 62
7
  6
CONTINUOUS
 10
181.7806379588
 20
112.9167514317
 11
181.7806380188
 21
112.8667514317
  0
LINE
  5
329
100
AcDbEntity
  8
0
100
AcDbLine
 62
253
  6
CONTINUOUS
 10
182.0182195163
 20
112.9167514317
 11
182.0182195163
 21
112.8667514317
  0
LINE
  5
32A
100
AcDbEntity
  8
0
100
AcDbLine
 62
253
  6
CONTINUOUS
 10
182.4229068217
 20
112.9167514317
 11
182.4229068217
 21
112.8667514317
  0
LINE
  5
32B
100
AcDbEntity
  8
0
100
AcDbLine
 62
7
  6
CONTINUOUS
 10
182.5903768685
 20
112.9167514317
 11
182.5903770188
 21
112.8667514317
  0
LINE
  5
32C
100
AcDbEntity
  8
0
100
AcDbLine
 62
7
  6
CONTINUOUS
 10
182.6586717165
 20
112.9167514317
 11
182.6586720188
 21
112.8667514317
  0
LINE
  5
32D
100
AcDbEntity
  8
0
100
AcDbLine
 62
7
  6
CONTINUOUS
 10
183.2324730188
 20
156.9167514398
 11
183.2324730188
 21
157.6167514317
  0
LINE
  5
32E
100
AcDbEntity
  8
0
100
AcDbLine
 62
7
  6
CONTINUOUS
 10
183.9824730188
 20
155.2922299632
 11
183.9824730188
 21
156.1183154687
  0
LWPOLYLINE
  5
32F
100
AcDbEntity
  8
RACCORDO
100
AcDbPolyline
 62
253
  6
CONTINUOUS
 90
10
 70
0
 10
159.9868456062
 20
112.9513543226
 10
159.9340734619
 20
112.9776457826
 10
159.8851927055
 20
113.0106620291
 10
159.8410465714
 20
113.049833362
 10
159.8023284381
 20
113.0945752325
 10
159.7698016979
 20
113.1440405681
 10
159.7441607387
 20
113.1970507817
 10
159.7257537146
 20
113.2525261778
 10
159.7147082442
 20
113.3095878738
 10
159.7110786235
 20
113.3672582519
  0
LINE
  5
330
100
AcDbEntity
  8
0
100
AcDbLine
 62
7
  6
CONTINUOUS
 10
184.608443067
 20
112.9167514317
 11
184.608443067
 21
112.8667514317
  0
LINE
  5
331
100
AcDbEntity
  8
0
100
AcDbLine
 62
7
  6
CONTINUOUS
 10
185.0324730188
 20
112.9167514317
 11
185.0324730188
 21
95.7667514317
  0
LWPOLYLINE
  5
332
100
AcDbEntity
  8
RACCORDO
100
AcDbPolyline
 62
253
  6
CONTINUOUS
 90
10
 70
0
 10
193.4318962292
 20
131.4200387547
 10
193.451876177
 20
131.5272299949
 10
193.4616327979
 20
131.6329284106
 10
193.4610791683
 20
131.7361912435
 10
193.4502202854
 20
131.8360976862
 10
193.42915308
 20
131.9317564494
 10
193.3980657667
 20
132.0223138085
 10
193.3572359742
 20
132.1069620606
 10
193.3070280492
 20
132.1849466232
 10
193.2478900117
 20
132.2555721851
  0
LWPOLYLINE
  5
333
100
AcDbEntity
  8
RACCORDO
100
AcDbPolyline
 62
253
  6
CONTINUOUS
 90
10
 70
0
 10
192.9483072057
 20
131.9167496677
 10
192.9753959945
 20
132.0180590282
 10
192.9926861805
 20
132.1179415336
 10
193.0000264298
 20
132.2155229649
 10
192.997352495
 20
132.3099492435
 10
192.9846877778
 20
132.4003939062
 10
192.9621431241
 20
132.4860653389
 10
192.9299158537
 20
132.5662137054
 10
192.8882880337
 20
132.6401375098
 10
192.8376240093
 20
132.7071897369
  0
LWPOLYLINE
  5
334
100
AcDbEntity
  8
RACCORDO
100
AcDbPolyline
 62
253
  6
CONTINUOUS
 90
4
 70
0
 10
195.7057944113
 20
112.9167514317
 10
195.7645800378
 20
112.9206410566
 10
195.8223482153
 20
112.9322423633
 10
195.8781004313
 20
112.9513543226
  0
LINE
  5
335
100
AcDbEntity
  8
0
100
AcDbLine
 62
7
  6
CONTINUOUS
 10
176.3324730188
 20
112.6667514317
 11
179.5324730188
 21
112.6667514317
  0
LINE
  5
336
100
AcDbEntity
  8
0
100
AcDbLine
 62
7
  6
CONTINUOUS
 10
185.0324730188
 20
112.8667514317
 11
184.6084446411
 21
112.8667514317
  0
LINE
  5
337
100
AcDbEntity
  8
0
100
AcDbLine
 62
7
  6
CONTINUOUS
 10
182.658671717
 20
112.8667514317
 11
181.7806379424
 21
112.8667514317
  0
LINE
  5
338
100
AcDbEntity
  8
0
100
AcDbLine
 62
7
  6
CONTINUOUS
 10
181.5372562349
 20
112.8667514317
 11
180.5423208585
 21
112.8667514317
  0
LINE
  5
339
100
AcDbEntity
  8
0
100
AcDbLine
 62
7
  6
CONTINUOUS
 10
180.1010350302
 20
112.8667514317
 11
179.5324730188
 21
112.8667514317
  0
LINE
  5
33A
100
AcDbEntity
  8
0
100
AcDbLine
 62
7
  6
CONTINUOUS
 10
176.3324730188
 20
112.8667514317
 11
176.1017600188
 21
112.8667514317
  0
LINE
  5
33B
100
AcDbEntity
  8
0
100
AcDbLine
 62
7
  6
CONTINUOUS
 10
175.3996054094
 20
112.8667514317
 11
174.410856961
 21
112.8667514317
  0
LINE
  5
33C
100
AcDbEntity
  8
0
100
AcDbLine
 62
7
  6
CONTINUOUS
 10
173.8648600188
 20
112.8667514317
 11
173.6324642454
 21
112.8667514317
  0
LINE
  5
33D
100
AcDbEntity
  8
0
100
AcDbLine
 62
7
  6
CONTINUOUS
 10
173.6093211557
 20
112.8667514317
 11
173.2401200188
 21
112.8667514317
  0
LINE
  5
33E
100
AcDbEntity
  8
0
100
AcDbLine
 62
7
  6
CONTINUOUS
 10
171.7080558115
 20
112.8667514317
 11
170.8324730188
 21
112.8667514317
  0
LINE
  5
33F
100
AcDbEntity
  8
RACCORDO
100
AcDbLine
 62
7
  6
CONTINUOUS
 10
176.0824730188
 20
112.9167514317
 11
160.0827330018
 21
112.9167514317
  0
LINE
  5
340
100
AcDbEntity
  8
DRAFT
100
AcDbLine
 62
7
  6
CONTINUOUS
 10
176.0824730188
 20
112.9167514317
 11
176.3324730188
 21
112.9167514317
  0
LINE
  5
341
100
AcDbEntity
  8
DRAFT
100
AcDbLine
 62
7
  6
CONTINUOUS
 10
179.5324730188
 20
112.9167514317
 11
179.7824730188
 21
112.9167514317
  0
LINE
  5
342
100
AcDbEntity
  8
RACCORDO
100
AcDbLine
 62
7
  6
CONTINUOUS
 10
179.7824730188
 20
112.9167514317
 11
195.7822139724
 21
112.9167514317
  0
LINE
  5
343
100
AcDbEntity
  8
RACCORDO
100
AcDbLine
 62
253
  6
CONTINUOUS
 10
195.7057944147
 20
113.3667514317
 11
194.032220485
 21
113.3667514317
  0
LINE
  5
344
100
AcDbEntity
  8
RACCORDO
100
AcDbLine
 62
253
  6
CONTINUOUS
 10
161.8327255526
 20
113.3667514317
 11
160.1591516228
 21
113.3667514317
  0
LINE
  5
345
100
AcDbEntity
  8
RACCORDO
100
AcDbLine
 62
253
  6
CONTINUOUS
 10
196.2322193232
 20
113.3672582519
 11
195.7057944113
 21
113.3667514317
  0
LINE
  5
346
100
AcDbEntity
  8
RACCORDO
100
AcDbLine
 62
253
  6
CONTINUOUS
 10
172.1864045322
 20
113.3672582519
 11
161.8327601568
 21
113.3672582383
  0
LINE
  5
347
100
AcDbEntity
  8
RACCORDO
100
AcDbLine
 62
253
  6
CONTINUOUS
 10
183.6785415053
 20
113.3672582519
 11
194.0321754432
 21
113.3672582281
  0
LINE
  5
348
100
AcDbEntity
  8
RACCORDO
100
AcDbLine
 62
253
  6
CONTINUOUS
 10
183.6781041238
 20
113.4173772139
 11
179.7781041238
 21
113.4173772139
  0
LINE
  5
349
100
AcDbEntity
  8
RACCORDO
100
AcDbLine
 62
253
  6
CONTINUOUS
 10
176.0868419138
 20
113.4173772139
 11
172.1868419138
 21
113.4173772139
  0
LINE
  5
34A
100
AcDbEntity
  8
RACCORDO
100
AcDbLine
 62
253
  6
CONTINUOUS
 10
160.1591516263
 20
113.3667514317
 11
159.6327267144
 21
113.3672582519
  0
LWPOLYLINE
  5
34B
100
AcDbEntity
  8
RACCORDO
100
AcDbPolyline
 62
253
  6
CONTINUOUS
 90
4
 70
0
 10
160.1591516263
 20
112.9167514317
 10
160.1003659998
 20
112.9206410566
 10
160.0425978222
 20
112.9322423633
 10
159.9868456062
 20
112.9513543226
  0
LWPOLYLINE
  5
34C
100
AcDbEntity
  8
RACCORDO
100
AcDbPolyline
 62
253
  6
CONTINUOUS
 90
13
 70
0
 10
162.3927280361
 20
112.9167514317
 10
162.3415580252
 20
112.9206064733
 10
162.2912643634
 20
112.9321056612
 10
162.2427088004
 20
112.9510521413
 10
162.1967233193
 20
112.9771214604
 10
162.1540959363
 20
113.0098670888
 10
162.1155571809
 20
113.0487280381
 10
162.0817674803
 20
113.0930385593
 10
162.0533059293
 20
113.142039476
 10
162.030660371
 20
113.1948911096
 10
162.0142189298
 20
113.2506878296
 10
162.0042633988
 20
113.3084735997
 10
162.0009644543
 20
113.3672582432
  0
LWPOLYLINE
  5
34D
100
AcDbEntity
  8
RACCORDO
100
AcDbPolyline
 62
253
  6
CONTINUOUS
 90
10
 70
0
 10
193.8639815776
 20
113.3672582425
 10
193.8554583454
 20
115.535213864
 10
193.8357143353
 20
117.6627367122
 10
193.8053176684
 20
119.749772491
 10
193.7647584259
 20
121.7962678505
 10
193.7146611367
 20
123.8021869744
 10
193.6557830981
 20
125.7675112603
 10
193.5887302412
 20
127.6922164754
 10
193.5139579811
 20
129.576272462
 10
193.4319830092
 20
131.4196597449
  0
LINE
  5
34E
100
AcDbEntity
  8
0
100
AcDbLine
 62
7
  6
CONTINUOUS
 10
189.8324730188
 20
112.9167514317
 11
189.8324730188
 21
95.7667514317
  0
LWPOLYLINE
  5
34F
100
AcDbEntity
  8
RACCORDO
100
AcDbPolyline
 62
253
  6
CONTINUOUS
 90
13
 70
0
 10
193.8639815775
 20
113.3672582425
 10
193.8606825628
 20
113.3084729867
 10
193.8507268436
 20
113.2506867233
 10
193.8342851329
 20
113.1948896485
 10
193.811639255
 20
113.1420377942
 10
193.7831773759
 20
113.0930368048
 10
193.7493874022
 20
113.0487263795
 10
193.7108484759
 20
113.0098656658
 10
193.6682210533
 20
112.9771203636
 10
193.622235706
 20
112.9510514179
 10
193.5736804705
 20
112.9321052938
 10
193.5233873225
 20
112.9206063703
 10
193.4722179949
 20
112.9167514317
  0
LINE
  5
350
100
AcDbEntity
  8
RACCORDO
100
AcDbLine
 62
253
  6
CONTINUOUS
 10
195.6600441545
 20
118.9667514317
 11
196.108056179
 21
118.9735653474
  0
LINE
  5
351
100
AcDbEntity
  8
0
100
AcDbLine
 62
7
  6
CONTINUOUS
 10
176.0977450374
 20
114.6667514317
 11
176.3324730188
 21
114.6667514317
  0
LINE
  5
352
100
AcDbEntity
  8
0
100
AcDbLine
 62
7
  6
CONTINUOUS
 10
179.5324730188
 20
114.6667514317
 11
179.7672010002
 21
114.6667514317
  0
LINE
  5
353
100
AcDbEntity
  8
RACCORDO
100
AcDbLine
 62
253
  6
CONTINUOUS
 10
176.2824730188
 20
115.5777348484
 11
179.5824730188
 21
115.5777348484
  0
LINE
  5
354
100
AcDbEntity
  8
RACCORDO
100
AcDbLine
 62
253
  6
CONTINUOUS
 10
176.2824730188
 20
115.75890818
 11
179.5824730188
 21
115.75890818
  0
LINE
  5
355
100
AcDbEntity
  8
RACCORDO
100
AcDbLine
 62
253
  6
CONTINUOUS
 10
195.6600440746
 20
118.9667514317
 11
193.9867172768
 21
118.9667514317
  0
LINE
  5
356
100
AcDbEntity
  8
RACCORDO
100
AcDbLine
 62
253
  6
CONTINUOUS
 10
161.8782287608
 20
118.9667514317
 11
160.2049019606
 21
118.9667514317
  0
LINE
  5
357
100
AcDbEntity
  8
RACCORDO
100
AcDbLine
 62
253
  6
CONTINUOUS
 10
159.6783318911
 20
118.9735653474
 11
159.7568898586
 21
118.9735653474
  0
LINE
  5
358
100
AcDbEntity
  8
RACCORDO
100
AcDbLine
 62
253
  6
CONTINUOUS
 10
196.108056179
 20
118.9735653474
 11
196.1866141465
 21
118.9735653474
  0
LINE
  5
359
100
AcDbEntity
  8
RACCORDO
100
AcDbLine
 62
7
  6
CONTINUOUS
 10
195.7366657377
 20
119.4167514317
 11
193.9796570319
 21
119.4167514317
  0
LINE
  5
35A
100
AcDbEntity
  8
RACCORDO
100
AcDbLine
 62
7
  6
CONTINUOUS
 10
160.1282870242
 20
119.4167514317
 11
161.8852890057
 21
119.4167514317
  0
LINE
  5
35B
100
AcDbEntity
  8
RACCORDO
100
AcDbLine
 62
253
  6
CONTINUOUS
 10
159.7568898586
 20
118.9735653474
 11
160.2049018831
 21
118.9667514317
  0
LWPOLYLINE
  5
35C
100
AcDbEntity
  8
RACCORDO
100
AcDbPolyline
 62
253
  6
CONTINUOUS
 90
5
 70
0
 10
179.6419852483
 20
129.015055407
 10
179.6337656115
 20
129.0282170877
 10
179.6113856172
 20
129.0590602806
 10
179.5869464697
 20
129.0882079514
 10
179.5824730188
 20
129.0928423503
  0
LWPOLYLINE
  5
35D
100
AcDbEntity
  8
RACCORDO
100
AcDbPolyline
 62
253
  6
CONTINUOUS
 90
12
 70
0
 10
196.108056179
 20
118.9735653474
 10
196.1035748153
 20
119.0305978729
 10
196.0918358845
 20
119.0869210312
 10
196.0729069026
 20
119.1415876128
 10
196.0469241087
 20
119.1937475853
 10
196.0142384586
 20
119.2423591014
 10
195.9755351186
 20
119.2862873164
 10
195.9315611905
 20
119.3247176985
 10
195.8829923218
 20
119.3570891208
 10
195.8306479208
 20
119.3828550391
 10
195.7754126221
 20
119.4015787686
 10
195.718222023
 20
119.4129419899
  0
LINE
  5
35E
100
AcDbEntity
  8
SUPERFICI
100
AcDbLine
 62
7
  6
CONTINUOUS
 10
196.1866141465
 20
118.9735653474
 11
196.2322193232
 21
113.3672582519
  0
LWPOLYLINE
  5
35F
100
AcDbEntity
  8
RACCORDO
100
AcDbPolyline
 62
253
  6
CONTINUOUS
 90
10
 70
0
 10
195.7057944147
 20
113.3667514317
 10
195.7046039837
 20
113.9889940503
 10
195.7024403301
 20
114.6112320102
 10
195.6993034538
 20
115.2334653113
 10
195.6951933711
 20
115.855694541
 10
195.6901100658
 20
116.4779191121
 10
195.6840534884
 20
117.1001372628
 10
195.6770236225
 20
117.722348406
 10
195.6690204846
 20
118.344553129
 10
195.6600440746
 20
118.9667514317
  0
LWPOLYLINE
  5
360
100
AcDbEntity
  8
RACCORDO
100
AcDbPolyline
 62
253
  6
CONTINUOUS
 90
10
 70
0
 10
196.1538674357
 20
113.3672582519
 10
196.1526754208
 20
113.9902001282
 10
196.1505088736
 20
114.6131399339
 10
196.1473677996
 20
115.2360761583
 10
196.1432522342
 20
115.8590061177
 10
196.138162168
 20
116.4819294741
 10
196.1320975291
 20
117.1048482345
 10
196.1250582902
 20
117.7277620605
 10
196.1170444866
 20
118.3506682685
 10
196.1080561299
 20
118.9735653474
  0
LINE
  5
361
100
AcDbEntity
  8
RACCORDO
100
AcDbLine
 62
253
  6
CONTINUOUS
 10
195.6600441545
 20
118.9667514317
 11
195.6600441545
 21
119.4167514317
  0
LINE
  5
362
100
AcDbEntity
  8
RACCORDO
100
AcDbLine
 62
253
  6
CONTINUOUS
 10
195.7057944113
 20
112.9167514317
 11
195.7057944113
 21
113.3667514317
  0
LWPOLYLINE
  5
363
100
AcDbEntity
  8
RACCORDO
100
AcDbPolyline
 62
253
  6
CONTINUOUS
 90
4
 70
0
 10
160.2049018831
 20
119.4167514317
 10
160.1467240145
 20
119.4129419899
 10
160.0895334155
 20
119.4015787686
 10
160.0342981168
 20
119.3828550391
  0
LINE
  5
364
100
AcDbEntity
  8
RACCORDO
100
AcDbLine
 62
253
  6
CONTINUOUS
 10
195.718222023
 20
119.4129419899
 11
195.6600441545
 21
119.4167514317
  0
LINE
  5
365
100
AcDbEntity
  8
RACCORDO
100
AcDbLine
 62
253
  6
CONTINUOUS
 10
162.9629550045
 20
151.3236923402
 11
163.0183698811
 21
151.2626920037
  0
LWPOLYLINE
  5
366
100
AcDbEntity
  8
RACCORDO
100
AcDbPolyline
 62
253
  6
CONTINUOUS
 90
32
 70
0
 10
163.0183698811
 20
151.2626920037
 10
163.0865609118
 20
151.186725051
 10
163.1803136847
 20
151.0803106107
 10
163.2987344419
 20
150.9435872158
 10
163.4389329053
 20
150.7771621947
 10
163.5989718453
 20
150.5804026364
 10
163.7772115953
 20
150.353859205
 10
163.9692143956
 20
150.0999102741
 10
164.1719952419
 20
149.8175885791
 10
164.3835103031
 20
149.5077552406
 10
164.5990205378
 20
149.1755407039
 10
164.8144877636
 20
148.8214883127
 10
165.0281177697
 20
148.4449560997
 10
165.2378848088
 20
148.0493144769
 10
165.4412141304
 20
147.63486267
 10
165.6359388468
 20
147.2012140329
 10
165.8208277454
 20
146.7507252938
 10
165.9941222075
 20
146.2831331742
 10
166.153868821
 20
145.7986266116
 10
166.2987082208
 20
145.3002572376
 10
166.4271057958
 20
144.787958297
 10
166.5376147842
 20
144.2617458153
 10
166.6290862928
 20
143.724815659
 10
166.7003060453
 20
143.1763038503
 10
166.7502460651
 20
142.6170485439
 10
166.7780826073
 20
142.0528262115
 10
166.7824438697
 20
141.4826620901
 10
166.7631555821
 20
140.9075439963
 10
166.7212343497
 20
140.3362316153
 10
166.6558904498
 20
139.7699993677
 10
166.5671607444
 20
139.2076334793
 10
166.4574182558
 20
138.654192892
  0
LWPOLYLINE
  5
367
100
AcDbEntity
  8
RACCORDO
100
AcDbPolyline
 62
253
  6
CONTINUOUS
 90
3
 70
0
 10
178.5897106888
 20
129.7167514317
 10
178.5663233113
 20
129.71431386
 10
178.5431891514
 20
129.7070274864
  0
LINE
  5
368
100
AcDbEntity
  8
0
100
AcDbLine
 62
7
  6
CONTINUOUS
 10
179.6458975379
 20
128.5667514317
 11
179.5824730188
 21
128.5667514317
  0
LINE
  5
369
100
AcDbEntity
  8
0
100
AcDbLine
 62
7
  6
CONTINUOUS
 10
176.2824730188
 20
128.5667514317
 11
176.2190484997
 21
128.5667514317
  0
LINE
  5
36A
100
AcDbEntity
  8
0
100
AcDbLine
 62
253
  6
CONTINUOUS
 10
176.2824730188
 20
128.5667514317
 11
179.5824730188
 21
128.5667514317
  0
LINE
  5
36B
100
AcDbEntity
  8
0
100
AcDbLine
 62
253
  6
CONTINUOUS
 10
176.2824730188
 20
128.6021067708
 11
179.5824730188
 21
128.6021067708
  0
LINE
  5
36C
100
AcDbEntity
  8
0
100
AcDbLine
 62
7
  6
CONTINUOUS
 10
176.2824730188
 20
129.1874621098
 11
179.5824730188
 21
129.1874621098
  0
LINE
  5
36D
100
AcDbEntity
  8
SMUSSO
100
AcDbLine
 62
7
  6
CONTINUOUS
 10
176.2247211299
 20
129.2167704702
 11
176.2824730188
 21
129.2167704702
  0
LINE
  5
36E
100
AcDbEntity
  8
RACCORDO
100
AcDbLine
 62
7
  6
CONTINUOUS
 10
179.5824730188
 20
129.6667514317
 11
179.6362979833
 21
129.6667514317
  0
LINE
  5
36F
100
AcDbEntity
  8
0
100
AcDbLine
 62
7
  6
CONTINUOUS
 10
176.2824730188
 20
129.6824368566
 11
179.5824730188
 21
129.6824368566
  0
LINE
  5
370
100
AcDbEntity
  8
RACCORDO
100
AcDbLine
 62
7
  6
CONTINUOUS
 10
176.2290843977
 20
129.7167514317
 11
179.1777724804
 21
129.7167514317
  0
LINE
  5
371
100
AcDbEntity
  8
DRAFT
100
AcDbLine
 62
7
  6
CONTINUOUS
 10
176.2308297712
 20
129.9167514317
 11
179.6341162663
 21
129.9167514317
  0
LINE
  5
372
100
AcDbEntity
  8
RACCORDO
100
AcDbLine
 62
253
  6
CONTINUOUS
 10
178.6580093583
 20
129.7167514317
 11
178.6985198056
 21
129.7143135744
  0
LWPOLYLINE
  5
373
100
AcDbEntity
  8
RACCORDO
100
AcDbPolyline
 62
253
  6
CONTINUOUS
 90
3
 70
0
 10
178.6985198056
 20
129.7143135744
 10
178.7385913253
 20
129.7070264164
 10
178.7777897455
 20
129.6949689135
  0
LINE
  5
374
100
AcDbEntity
  8
RACCORDO
100
AcDbLine
 62
253
  6
CONTINUOUS
 10
178.7777897455
 20
129.6949689135
 11
178.8062359776
 21
129.6824368566
  0
LWPOLYLINE
  5
375
100
AcDbEntity
  8
RACCORDO
100
AcDbPolyline
 62
7
  6
CONTINUOUS
 90
5
 70
0
 10
178.910005151
 20
129.6832989548
 10
178.8859468191
 20
129.6980268767
 10
178.8616832211
 20
129.7084873944
 10
178.836961443
 20
129.714703232
 10
178.8117814846
 20
129.7167514317
  0
LWPOLYLINE
  5
376
100
AcDbEntity
  8
RACCORDO
100
AcDbPolyline
 62
253
  6
CONTINUOUS
 90
3
 70
0
 10
193.4318962292
 20
131.4200387547
 10
193.4673364694
 20
131.4211614942
 10
193.4989501425
 20
131.421723736
  0
LWPOLYLINE
  5
377
100
AcDbEntity
  8
RACCORDO
100
AcDbPolyline
 62
253
  6
CONTINUOUS
 90
7
 70
0
 10
193.4989501425
 20
131.421723736
 10
193.5501347668
 20
131.4220413893
 10
193.5694944076
 20
131.4221609478
 10
193.5846471969
 20
131.421898308
 10
193.5955320806
 20
131.4212472391
 10
193.6020831598
 20
131.4205671272
 10
193.6042792793
 20
131.4200387546
  0
LINE
  5
378
100
AcDbEntity
  8
RACCORDO
100
AcDbLine
 62
253
  6
CONTINUOUS
 10
172.3482835068
 20
131.9167514317
 11
162.9166076531
 21
131.9167514317
  0
LINE
  5
379
100
AcDbEntity
  8
RACCORDO
100
AcDbLine
 62
7
  6
CONTINUOUS
 10
172.4969801884
 20
131.9167514317
 11
183.3679658492
 21
131.9167514317
  0
LINE
  5
37A
100
AcDbEntity
  8
RACCORDO
100
AcDbLine
 62
253
  6
CONTINUOUS
 10
183.3679658492
 20
131.9167514317
 11
192.9483383845
 21
131.9167514317
  0
LWPOLYLINE
  5
37B
100
AcDbEntity
  8
RACCORDO
100
AcDbPolyline
 62
253
  6
CONTINUOUS
 90
8
 70
0
 10
162.3659527075
 20
131.4214842139
 10
162.338338028
 20
131.4218992749
 10
162.314806858
 20
131.4221071517
 10
162.295437899
 20
131.4221071517
 10
162.280295932
 20
131.4218992749
 10
162.2694316002
 20
131.4214842139
 10
162.2628812397
 20
131.4208633511
 10
162.2606667583
 20
131.4200387546
  0
LINE
  5
37C
100
AcDbEntity
  8
RACCORDO
100
AcDbLine
 62
253
  6
CONTINUOUS
 10
162.4330498085
 20
131.4200387546
 11
162.3659527075
 21
131.4214842139
  0
LWPOLYLINE
  5
37D
100
AcDbEntity
  8
RACCORDO
100
AcDbPolyline
 62
253
  6
CONTINUOUS
 90
7
 70
0
 10
193.4319830092
 20
131.4196597449
 10
193.3520213208
 20
131.4989482011
 10
193.2717453053
 20
131.5796607798
 10
193.1911975203
 20
131.6617974373
 10
193.1104198073
 20
131.7453581291
 10
193.0294532918
 20
131.8303428095
 10
192.9483383845
 20
131.9167514317
  0
LWPOLYLINE
  5
37E
100
AcDbEntity
  8
RACCORDO
100
AcDbPolyline
 62
253
  6
CONTINUOUS
 90
42
 70
0
 10
192.9483383845
 20
131.9167514317
 10
192.6145582211
 20
132.291960454
 10
192.28337098
 20
132.6896377131
 10
191.957392032
 20
133.109762074
 10
191.6382147506
 20
133.5542203445
 10
191.3286966543
 20
134.021072315
 10
191.0332066402
 20
134.5045564467
 10
190.7547056332
 20
135.0026435676
 10
190.4937378668
 20
135.5173025089
 10
190.2508415285
 20
136.0487691066
 10
190.0260184589
 20
136.5983586088
 10
189.8211982682
 20
137.1646709008
 10
189.6395388
 20
137.7438690479
 10
189.481409401
 20
138.3364556178
 10
189.3472743151
 20
138.9418344308
 10
189.2402613571
 20
139.5545335305
 10
189.1604568055
 20
140.1759664486
 10
189.1073490331
 20
140.804631005
 10
189.0829787395
 20
141.4307158935
 10
189.0873753075
 20
142.0539782916
 10
189.1188450693
 20
142.6746214139
 10
189.1767428191
 20
143.2835562832
 10
189.2599422919
 20
143.8791097146
 10
189.3669083641
 20
144.4629800396
 10
189.4963065426
 20
145.031178015
 10
189.6460153266
 20
145.5833731675
 10
189.8144170468
 20
146.1199550584
 10
190.0006769493
 20
146.6380390744
 10
190.2022958165
 20
147.1381979708
 10
190.4166069001
 20
147.6199432907
 10
190.6421453037
 20
148.078823513
 10
190.8761930461
 20
148.5154185008
 10
191.1146914363
 20
148.9292628458
 10
191.3541002595
 20
149.3143679251
 10
191.5919315903
 20
149.6709466614
 10
191.8227169278
 20
149.9989256249
 10
192.0397916462
 20
150.2919148363
 10
192.2408148916
 20
150.548678264
 10
192.421636099
 20
150.7705929023
 10
192.5760924411
 20
150.9551971741
 10
192.7026712024
 20
151.1014524268
 10
192.7998889668
 20
151.2104928404
  0
LINE
  5
37F
100
AcDbEntity
  8
0
100
AcDbLine
 62
7
  6
CONTINUOUS
 10
190.2699700646
 20
137.3116344317
 11
190.2172874307
 21
137.3116344317
  0
LINE
  5
380
100
AcDbEntity
  8
0
100
AcDbLine
 62
7
  6
CONTINUOUS
 10
189.58247398
 20
141.5618364317
 11
189.5324739765
 21
141.5618364317
  0
LINE
  5
381
100
AcDbEntity
  8
RACCORDO
100
AcDbLine
 62
253
  6
CONTINUOUS
 10
163.1661996577
 20
152.1157611098
 11
192.6987463803
 21
152.1157611098
  0
LINE
  5
382
100
AcDbEntity
  8
ASSI
100
AcDbLine
 62
7
  6
CONTINUOUS
 10
171.7457303246
 20
155.1428169656
 11
165.537735561
 21
154.310658879
  0
LINE
  5
383
100
AcDbEntity
  8
RACCORDO
100
AcDbLine
 62
253
  6
CONTINUOUS
 10
165.5377355614
 20
154.310658879
 11
190.3272104765
 21
154.310658879
  0
LINE
  5
384
100
AcDbEntity
  8
RACCORDO
100
AcDbLine
 62
253
  6
CONTINUOUS
 10
171.7457312991
 20
155.1428169656
 11
184.1192156563
 21
155.1428169656
  0
LINE
  5
385
100
AcDbEntity
  8
RACCORDO
100
AcDbLine
 62
253
  6
CONTINUOUS
 10
171.8824739718
 20
155.2922299632
 11
183.9824729634
 21
155.2922299632
  0
LINE
  5
386
100
AcDbEntity
  8
RACCORDO
100
AcDbLine
 62
253
  6
CONTINUOUS
 10
171.8824730188
 20
156.118315465
 11
183.9824730188
 21
156.1183154687
  0
LINE
  5
387
100
AcDbEntity
  8
RACCORDO
100
AcDbLine
 62
253
  6
CONTINUOUS
 10
172.514051969
 20
156.9003860174
 11
177.9324730188
 21
156.9003860174
  0
LINE
  5
388
100
AcDbEntity
  8
RACCORDO
100
AcDbLine
 62
7
  6
CONTINUOUS
 10
177.9324730188
 20
156.9167514317
 11
183.2324730188
 21
156.9167514398
  0
LINE
  5
389
100
AcDbEntity
  8
RACCORDO
100
AcDbLine
 62
253
  6
CONTINUOUS
 10
172.6324730215
 20
157.047024246
 11
177.9324730188
 21
157.047024246
  0
LINE
  5
38A
100
AcDbEntity
  8
RACCORDO
100
AcDbLine
 62
253
  6
CONTINUOUS
 10
172.6324730189
 20
157.6167514317
 11
183.2324730188
 21
157.6167514317
  0
LINE
  5
38B
100
AcDbEntity
  8
ASSI
100
AcDbLine
 62
7
  6
CONTINUOUS
 10
190.3272104765
 20
154.310658879
 11
184.119215713
 21
155.1428169656
  0
LINE
  5
38C
100
AcDbEntity
  8
RACCORDO
100
AcDbLine
 62
7
  6
CONTINUOUS
 10
173.4324730188
 20
158.4167514317
 11
182.4324730193
 21
158.4167514317
  0
ARC
  5
38D
100
AcDbEntity
  8
RACCORDO
100
AcDbCircle
 62
7
  6
CONTINUOUS
 10
111.2930367842
 20
118.9667514317
 40
0.45
100
AcDbArc
 50
90.0
 51
180.0
  0
ARC
  5
38E
100
AcDbEntity
  8
RACCORDO
100
AcDbCircle
 62
7
  6
CONTINUOUS
 10
111.2930367842
 20
113.3667514317
 40
0.45
100
AcDbArc
 50
180.0
 51
270.0
  0
ARC
  5
38F
100
AcDbEntity
  8
RACCORDO
100
AcDbCircle
 62
7
  6
CONTINUOUS
 10
32.4027150255
 20
127.2380014317
 40
98.5
100
AcDbArc
 50
2.7225739834
 51
14.6294121721
  0
ARC
  5
390
100
AcDbEntity
  8
RACCORDO
100
AcDbCircle
 62
7
  6
CONTINUOUS
 10
101.0795023603
 20
151.3580628455
 40
3.0
100
AcDbArc
 50
100.1990067023
 51
165.3705878279
  0
ARC
  5
391
100
AcDbEntity
  8
RACCORDO
100
AcDbCircle
 62
7
  6
CONTINUOUS
 10
106.7430367842
 20
155.2922299632
 40
0.15
100
AcDbArc
 50
275.0705337743
 51
360.0
  0
ARC
  5
392
100
AcDbEntity
  8
RACCORDO
100
AcDbCircle
 62
7
  6
CONTINUOUS
 10
107.4930367842
 20
157.047024246
 40
0.15
100
AcDbArc
 50
282.153197469
 51
360.0
  0
ARC
  5
393
100
AcDbEntity
  8
RACCORDO
100
AcDbCircle
 62
7
  6
CONTINUOUS
 10
107.6930367842
 20
156.1183154687
 40
0.8
100
AcDbArc
 50
93.5833217349
 51
180.0000005829
  0
ARC
  5
394
100
AcDbEntity
  8
RACCORDO
100
AcDbCircle
 62
7
  6
CONTINUOUS
 10
108.4430367842
 20
157.6167514317
 40
0.8
100
AcDbArc
 50
90.0
 51
180.0
  0
ARC
  5
395
100
AcDbEntity
  8
RACCORDO
100
AcDbCircle
 62
7
  6
CONTINUOUS
 10
112.9430367842
 20
85.4167514317
 40
70.0
100
AcDbArc
 50
95.0705337743
 51
100.1990067023
  0
ARC
  5
396
100
AcDbEntity
  8
RACCORDO
100
AcDbCircle
 62
7
  6
CONTINUOUS
 10
112.9430367842
 20
85.4167514317
 40
70.0
100
AcDbArc
 50
79.8009932977
 51
84.9294662257
  0
ARC
  5
397
100
AcDbEntity
  8
0
100
AcDbCircle
 62
7
  6
CONTINUOUS
 10
112.9430367842
 20
96.4667514317
 40
2.5
100
AcDbArc
 50
196.2602047083
 51
343.7397952917
  0
ARC
  5
398
100
AcDbEntity
  8
RACCORDO
100
AcDbCircle
 62
7
  6
CONTINUOUS
 10
114.5930367842
 20
113.3667514317
 40
0.45
100
AcDbArc
 50
270.0
 51
360.0
  0
ARC
  5
399
100
AcDbEntity
  8
RACCORDO
100
AcDbCircle
 62
7
  6
CONTINUOUS
 10
114.5930367842
 20
118.9667514317
 40
0.45
100
AcDbArc
 50
0.0
 51
90.0
  0
ARC
  5
39A
100
AcDbEntity
  8
0
100
AcDbCircle
 62
7
  6
CONTINUOUS
 10
120.6408687842
 20
140.2584334317
 40
1.303416637
100
AcDbArc
 50
292.8428913314
 51
90.0
  0
ARC
  5
39B
100
AcDbEntity
  8
0
100
AcDbCircle
 62
7
  6
CONTINUOUS
 10
120.5228857842
 20
140.2584334317
 40
0.51713
100
AcDbArc
 50
270.0
 51
90.0
  0
ARC
  5
39C
100
AcDbEntity
  8
RACCORDO
100
AcDbCircle
 62
7
  6
CONTINUOUS
 10
118.1930367842
 20
156.1183154687
 40
0.8
100
AcDbArc
 50
359.9999994171
 51
86.4166782651
  0
ARC
  5
39D
100
AcDbEntity
  8
RACCORDO
100
AcDbCircle
 62
7
  6
CONTINUOUS
 10
117.4430367842
 20
157.6167514317
 40
0.8
100
AcDbArc
 50
0.0
 51
90.0
  0
ARC
  5
39E
100
AcDbEntity
  8
RACCORDO
100
AcDbCircle
 62
7
  6
CONTINUOUS
 10
119.1430367842
 20
155.2922299632
 40
0.15
100
AcDbArc
 50
180.0
 51
264.9294662257
  0
ARC
  5
39F
100
AcDbEntity
  8
RACCORDO
100
AcDbCircle
 62
7
  6
CONTINUOUS
 10
118.3930367842
 20
157.047024246
 40
0.15
100
AcDbArc
 50
180.0
 51
257.846802531
  0
ARC
  5
3A0
100
AcDbEntity
  8
RACCORDO
100
AcDbCircle
 62
7
  6
CONTINUOUS
 10
124.806571208
 20
151.3580628455
 40
3.0
100
AcDbArc
 50
14.6294121721
 51
79.8009932977
  0
ARC
  5
3A1
100
AcDbEntity
  8
RACCORDO
100
AcDbCircle
 62
7
  6
CONTINUOUS
 10
193.4833585428
 20
127.2380014317
 40
98.5
100
AcDbArc
 50
165.3705878279
 51
177.2774260166
  0
ARC
  5
3A2
100
AcDbEntity
  8
ASSI
100
AcDbCircle
 62
7
  6
CONTINUOUS
 10
193.4833585428
 20
127.2380014317
 40
98.5
100
AcDbArc
 50
165.3705878279
 51
177.2774260166
  0
ARC
  5
3A3
100
AcDbEntity
  8
RACCORDO
100
AcDbCircle
 62
7
  6
CONTINUOUS
 10
-205.9675269812
 20
112.9167514317
 40
400.0
100
AcDbArc
 50
0.0645303641
 51
2.6513468194
  0
ARC
  5
3A4
100
AcDbEntity
  8
0
100
AcDbCircle
 62
7
  6
CONTINUOUS
 10
168.4324730188
 20
96.4667514317
 40
2.5
100
AcDbArc
 50
196.2602047083
 51
343.7397952917
  0
ARC
  5
3A5
100
AcDbEntity
  8
RACCORDO
100
AcDbCircle
 62
7
  6
CONTINUOUS
 10
160.082726429
 20
113.3667514317
 40
0.45
100
AcDbArc
 50
179.9354696378
 51
270.0
  0
ARC
  5
3A6
100
AcDbEntity
  8
RACCORDO
100
AcDbCircle
 62
7
  6
CONTINUOUS
 10
160.1282802999
 20
118.9667514317
 40
0.45
100
AcDbArc
 50
90.0
 51
179.1323921568
  0
ARC
  5
3A7
100
AcDbEntity
  8
RACCORDO
100
AcDbCircle
 62
7
  6
CONTINUOUS
 10
162.282726429
 20
113.3667514317
 40
0.45
100
AcDbArc
 50
179.9354681025
 51
270.0000020603
  0
ARC
  5
3A8
100
AcDbEntity
  8
ASSI
100
AcDbCircle
 62
7
  6
CONTINUOUS
 10
97.3921512601
 20
127.2380014317
 40
98.5
100
AcDbArc
 50
14.1294569669
 51
14.6294121721
  0
ARC
  5
3A9
100
AcDbEntity
  8
RACCORDO
100
AcDbCircle
 62
7
  6
CONTINUOUS
 10
152.8324730188
 20
141.5567514317
 40
13.5
100
AcDbArc
 50
316.4508760204
 51
39.6763301753
  0
ARC
  5
3AA
100
AcDbEntity
  8
RACCORDO
100
AcDbCircle
 62
7
  6
CONTINUOUS
 10
166.0689385949
 20
151.3580628455
 40
3.0
100
AcDbArc
 50
100.1990067023
 51
165.3705878279
  0
ARC
  5
3AB
100
AcDbEntity
  8
RACCORDO
100
AcDbCircle
 62
7
  6
CONTINUOUS
 10
164.2234909643
 20
151.0058101287
 40
1.3000000003
100
AcDbArc
 50
165.8462485005
 51
219.6763301695
  0
ARC
  5
3AC
100
AcDbEntity
  8
RACCORDO
100
AcDbCircle
 62
7
  6
CONTINUOUS
 10
163.5592751287
 20
131.3599030708
 40
1.3
100
AcDbArc
 50
136.4508760204
 51
177.3486531806
  0
ARC
  5
3AD
100
AcDbEntity
  8
RACCORDO
100
AcDbCircle
 62
7
  6
CONTINUOUS
 10
172.6824730188
 20
156.118315465
 40
0.8
100
AcDbArc
 50
102.153197469
 51
180.0
  0
ARC
  5
3AE
100
AcDbEntity
  8
RACCORDO
100
AcDbCircle
 62
7
  6
CONTINUOUS
 10
173.4324730188
 20
157.6167514317
 40
0.8
100
AcDbArc
 50
90.0
 51
180.0
  0
ARC
  5
3AF
100
AcDbEntity
  8
RACCORDO
100
AcDbCircle
 62
7
  6
CONTINUOUS
 10
172.4824730188
 20
157.047024246
 40
0.15
100
AcDbArc
 50
282.153197469
 51
360.0
  0
ARC
  5
3B0
100
AcDbEntity
  8
RACCORDO
100
AcDbCircle
 62
7
  6
CONTINUOUS
 10
171.7324730188
 20
155.2922299632
 40
0.15
100
AcDbArc
 50
275.0705337743
 51
360.0
  0
ARC
  5
3B1
100
AcDbEntity
  8
RACCORDO
100
AcDbCircle
 62
7
  6
CONTINUOUS
 10
172.4969801884
 20
131.7667514317
 40
0.15
100
AcDbArc
 50
90.0
 51
179.5000000001
  0
ARC
  5
3B2
100
AcDbEntity
  8
RACCORDO
100
AcDbCircle
 62
7
  6
CONTINUOUS
 10
561.8324730188
 20
112.9167514317
 40
400.0
100
AcDbArc
 50
177.3486531806
 51
179.935469636
  0
ARC
  5
3B3
100
AcDbEntity
  8
0
100
AcDbCircle
 62
7
  6
CONTINUOUS
 10
187.4324730188
 20
96.4667514317
 40
2.5
100
AcDbArc
 50
196.2602047083
 51
343.7397952917
  0
ARC
  5
3B4
100
AcDbEntity
  8
RACCORDO
100
AcDbCircle
 62
7
  6
CONTINUOUS
 10
195.7822196086
 20
113.3667514317
 40
0.45
100
AcDbArc
 50
270.0
 51
0.0645303622
  0
ARC
  5
3B5
100
AcDbEntity
  8
RACCORDO
100
AcDbCircle
 62
7
  6
CONTINUOUS
 10
195.7366657377
 20
118.9667514317
 40
0.45
100
AcDbArc
 50
0.8676078432
 51
90.0
  0
ARC
  5
3B6
100
AcDbEntity
  8
RACCORDO
100
AcDbCircle
 62
7
  6
CONTINUOUS
 10
193.5822196086
 20
113.3667514317
 40
0.45
100
AcDbArc
 50
269.9999976129
 51
0.0645319957
  0
ARC
  5
3B7
100
AcDbEntity
  8
RACCORDO
100
AcDbCircle
 62
7
  6
CONTINUOUS
 10
203.0324730188
 20
141.5567514317
 40
13.5
100
AcDbArc
 50
140.3239070752
 51
223.5491239796
  0
ARC
  5
3B8
100
AcDbEntity
  8
0
100
AcDbCircle
 62
7
  6
CONTINUOUS
 10
203.0324730188
 20
141.5567514317
 40
13.45
100
AcDbArc
 50
179.9783383609
 51
198.3983723798
  0
ARC
  5
3B9
100
AcDbEntity
  8
RACCORDO
100
AcDbCircle
 62
7
  6
CONTINUOUS
 10
189.7960074426
 20
151.3580628455
 40
3.0
100
AcDbArc
 50
14.6294121721
 51
79.8009932977
  0
ARC
  5
3BA
100
AcDbEntity
  8
RACCORDO
100
AcDbCircle
 62
7
  6
CONTINUOUS
 10
191.64136998
 20
151.0058596084
 40
1.3000085279
100
AcDbArc
 50
320.516647401
 51
14.1538021333
  0
ARC
  5
3BB
100
AcDbEntity
  8
RACCORDO
100
AcDbCircle
 62
7
  6
CONTINUOUS
 10
192.3056709089
 20
131.3599030708
 40
1.3
100
AcDbArc
 50
2.6513468194
 51
43.5491239796
  0
ARC
  5
3BC
100
AcDbEntity
  8
RACCORDO
100
AcDbCircle
 62
7
  6
CONTINUOUS
 10
179.1777724804
 20
128.7167514317
 40
1.0
100
AcDbArc
 50
62.6637112693
 51
66.1260213898
  0
ARC
  5
3BD
100
AcDbEntity
  8
RACCORDO
100
AcDbCircle
 62
7
  6
CONTINUOUS
 10
179.1777724804
 20
128.7167514317
 40
1.0
100
AcDbArc
 50
75.2370967032
 51
90.0
  0
ARC
  5
3BE
100
AcDbEntity
  8
RACCORDO
100
AcDbCircle
 62
7
  6
CONTINUOUS
 10
183.1824730188
 20
156.1183154687
 40
0.8
100
AcDbArc
 50
0.0
 51
86.4166783015
  0
ARC
  5
3BF
100
AcDbEntity
  8
RACCORDO
100
AcDbCircle
 62
7
  6
CONTINUOUS
 10
182.4324730188
 20
157.6167514317
 40
0.8
100
AcDbArc
 50
0.0
 51
90.0
  0
ARC
  5
3C0
100
AcDbEntity
  8
RACCORDO
100
AcDbCircle
 62
7
  6
CONTINUOUS
 10
184.1324730188
 20
155.2922299632
 40
0.15
100
AcDbArc
 50
180.0
 51
264.9294662257
  0
ARC
  5
3C1
100
AcDbEntity
  8
RACCORDO
100
AcDbCircle
 62
7
  6
CONTINUOUS
 10
183.3679658492
 20
131.7667514317
 40
0.15
100
AcDbArc
 50
0.4999999999
 51
90.0
  0
ELLIPSE
  5
3C2
100
AcDbEntity
  8
RACCORDO
100
AcDbEllipse
 62
7
  6
CONTINUOUS
 10
177.3340018837
 20
129.2667514317
 30
0.0
 11
-0.4379650781
 21
0.434667582
 31
0.0
 40
0.2659229987
 41
-0.2617911438
 42
0.1298032736
  0
ENDSEC
  0
SECTION
  2
OBJECTS
  0
DICTIONARY
  5
C
100
AcDbDictionary
280
0
281
1
  3
ACAD_GROUP
350
D
  3
ACAD_MLINESTYLE
350
17
  3
ACAD_LAYOUT
350
1A
  3
ACAD_PLOTSETTINGS
350
19
  3
ACAD_PLOTSTYLENAME
350
E
  0
DICTIONARY
  5
D
102
{ACAD_REACTORS
330
C
102
}
100
AcDbDictionary
280
0
281
1
  0
ACDBDICTIONARYWDFLT
  5
E
102
{ACAD_REACTORS
330
C
102
}
100
AcDbDictionary
281
1
  3
Normal
350
F
100
AcDbDictionaryWithDefault
340
F
  0
DICTIONARY
  5
17
102
{ACAD_REACTORS
330
C
102
}
100
AcDbDictionary
280
0
281
1
  3
Standard
350
18
  0
DICTIONARY
  5
19
102
{ACAD_REACTORS
330
C
102
}
100
AcDbDictionary
281
1
  0
DICTIONARY
  5
1A
102
{ACAD_REACTORS
330
C
102
}
100
AcDbDictionary
281
1
  3
Model
350
3C3
  3
Layout1
350
3C4
  0
ACDBPLACEHOLDER
  5
F
102
{ACAD_REACTORS
330
E
102
}
  0
MLINESTYLE
  5
18
102
{ACAD_REACTORS
330
17
102
}
100
AcDbMlineStyle
  2
STANDARD
 70
0
  3

 62
256
 51
90.0
 52
90.0
 71
2
 49
0.5
 62
256
  6
BYLAYER
 49
-0.5
 62
256
  6
BYLAYER
  0
LAYOUT
  5
3C3
102
{ACAD_REACTORS
330
1A
102
}
100
AcDbPlotSettings
  1

  2
none_device
  4
ISO_A4_(297.00_x_210.00_MM)
  6

 40
0.0
 41
0.0
 42
0.0
 43
0.0
 44
297.0
 45
210.0
 46
0.0
 47
0.0
 48
0.0
 49
0.0
140
0.0
141
0.0
142
1.0
143
1.0
 70
1024
 72
1
 73
0
 74
0
  7

 75
0
147
1.0
148
0.0
149
0.0
100
AcDbLayout
  1
Model
 70
0
 71
0
 10
0.0
 20
0.0
 11
297.0
 21
210.0
 12
0.0
 22
0.0
 32
0.0
 14
0.0
 24
0.0
 34
0.0
 15
0.0
 25
0.0
 35
0.0
146
0.0
 13
0.0
 23
0.0
 33
0.0
 16
1.0
 26
0.0
 36
0.0
 17
0.0
 27
1.0
 37
0.0
 76
0
330
216
345
0
346
0
  0
LAYOUT
  5
3C4
102
{ACAD_REACTORS
330
1A
102
}
100
AcDbPlotSettings
  1

  2
none_device
  4
ISO_A4_(297.00_x_210.00_MM)
  6

 40
0.0
 41
0.0
 42
0.0
 43
0.0
 44
297.0
 45
210.0
 46
0.0
 47
0.0
 48
0.0
 49
0.0
140
0.0
141
0.0
142
1.0
143
1.0
 70
0
 72
1
 73
0
 74
0
  7

 75
0
147
1.0
148
0.0
149
0.0
100
AcDbLayout
  1
Layout1
 70
0
 71
1
 10
0.0
 20
0.0
 11
297.0
 21
210.0
 12
0.0
 22
0.0
 32
0.0
 14
0.0
 24
0.0
 34
0.0
 15
0.0
 25
0.0
 35
0.0
146
0.0
 13
0.0
 23
0.0
 33
0.0
 16
1.0
 26
0.0
 36
0.0
 17
0.0
 27
1.0
 37
0.0
 76
0
330
217
345
0
346
0
  0
ENDSEC
  0
EOF
