  0
SECTION
  2
HEADER
  9
$ACADVER
  1
AC1024
  9
$DWGCODEPAGE
  3
ANSI_1252
  9
$EXTMAX
 10
558.8
 20
431.8
 30
0.0
  9
$EXTMIN
 10
0.0
 20
0.0
 30
0.0
  9
$LIMMIN
 10
0.0
 20
0.0
  9
$LIMMAX
 10
558.8
 20
431.8
  9
$VIEWCTR
 10
279.4
 20
215.9
  9
$VIEWSIZE
 40
431.8
  9
$CLAYER
  8
0
  9
$LTSCALE
 40
30.734
  9
$CELTYPE
  6
BYLAYER
  9
$DIMSCALE
 40
1.0
  9
$DIMASZ
 40
3.0
  9
$DIMEXO
 40
0.5
  9
$DIMDLI
 40
21.2344
  9
$DIMEXE
 40
1.5
  9
$DIMCEN
 40
5.0292
  9
$DIMLFAC
 40
1.0
  9
$DIMBLK
  1
_FILLED
  9
$DIMALT
 70
0
  9
$DIMALTF
 40
0.0393700787
  9
$DIMTXT
 40
3.0
  9
$DIMTOL
 70
1
  9
$DIMLIM
 70
0
  9
$DIMTFAC
 40
1.0
  9
$DIMTP
 40
0.01
  9
$DIMTM
 40
0.01
  9
$DIMGAP
 40
0.625
  9
$DIMDSEP
 70
44
  9
$AUNITS
 70
0
  9
$PDMODE
 70
3
  9
$PDSIZE
 40
3.0
  9
$HANDSEED
  5
42D
  9
$TILEMODE
 70
1
  9
$MEASUREMENT
 70
1
  9
$INSUNITS
 70
4
  0
ENDSEC
  0
SECTION
  2
CLASSES
  0
CLASS
  1
ACDBDICTIONARYWDFLT
  2
AcDbDictionaryWithDefault
  3
AutoCAD 2000
 90
0
 91
1
280
0
281
0
  0
CLASS
  1
ACDBPLACEHOLDER
  2
AcDbPlaceHolder
  3
AutoCAD 2000
 90
0
 91
1
280
0
281
0
  0
CLASS
  1
LAYOUT
  2
AcDbLayout
  3
AutoCAD 2000
 90
0
 91
0
280
0
281
0
  0
ENDSEC
  0
SECTION
  2
TABLES
  0
TABLE
  2
VPORT
  5
8
100
AcDbSymbolTable
 70
2
  0
VPORT
  5
1F4
100
AcDbSymbolTableRecord
100
AcDbViewportTableRecord
  2
*ACTIVE
 70
0
 10
0.0
 20
0.0
 11
1.0
 21
1.0
 12
279.4
 22
215.9
 13
0.0
 23
0.0
 14
1.0
 24
1.0
 15
0.0
 25
0.0
 16
0.0
 26
0.0
 36
1.0
 17
0.0
 27
0.0
 37
0.0
 40
431.8
 41
1.2941176471
 42
50.0
 43
0.0
 44
0.0
 50
0.0
 51
0.0
 71
0
 72
100
 73
1
 74
1
 75
0
 76
0
 77
0
 78
0
  0
ENDTAB
  0
TABLE
  2
LTYPE
  5
5
100
AcDbSymbolTable
 70
6
  0
LTYPE
  5
14
100
AcDbSymbolTableRecord
100
AcDbLinetypeTableRecord
  2
BYBLOCK
 70
0
  3

 72
65
 73
0
 40
0.0
  0
LTYPE
  5
15
100
AcDbSymbolTableRecord
100
AcDbLinetypeTableRecord
  2
BYLAYER
 70
0
  3

 72
65
 73
0
 40
0.0
  0
LTYPE
  5
16
100
AcDbSymbolTableRecord
100
AcDbLinetypeTableRecord
  2
CONTINUOUS
 70
64
  3
Solid line
 72
65
 73
0
 40
0.0
  0
LTYPE
  5
1F5
100
AcDbSymbolTableRecord
100
AcDbLinetypeTableRecord
  2
CENTER
 70
64
  3
____ _ ____ _ ____ _ ____ _ ____ _ ____ _ ____
 72
65
 73
4
 40
0.6
 49
0.375
 74
0
 49
-0.075
 74
0
 49
0.075
 74
0
 49
-0.075
 74
0
  0
LTYPE
  5
1F6
100
AcDbSymbolTableRecord
100
AcDbLinetypeTableRecord
  2
HIDDEN
 70
64
  3
- - - - - - - - - - - - - - - - - - - -
 72
65
 73
2
 40
0.2
 49
0.1
 74
0
 49
-0.1
 74
0
  0
LTYPE
  5
1F7
100
AcDbSymbolTableRecord
100
AcDbLinetypeTableRecord
  2
PHANTOM
 70
64
  3
_____ _ _ _____ _ _ _____ _ _ _____
 72
65
 73
6
 40
0.8
 49
0.45
 74
0
 49
-0.05
 74
0
 49
0.1
 74
0
 49
-0.05
 74
0
 49
0.1
 74
0
 49
-0.05
 74
0
  0
LTYPE
  5
1F8
100
AcDbSymbolTableRecord
100
AcDbLinetypeTableRecord
  2
DOT
 70
64
  3
. . . . . . . . . . . . . . . . . . . .
 72
65
 73
2
 40
0.2
 49
0.1
 74
0
 49
-0.1
 74
0
  0
LTYPE
  5
1F9
100
AcDbSymbolTableRecord
100
AcDbLinetypeTableRecord
  2
DASHED
 70
64
  3
- - - - - - - - - - - - - - - - - - - -
 72
65
 73
2
 40
0.2
 49
0.1
 74
0
 49
-0.1
 74
0
  0
ENDTAB
  0
TABLE
  2
LAYER
  5
2
100
AcDbSymbolTable
 70
36
  0
LAYER
  5
10
100
AcDbSymbolTableRecord
100
AcDbLayerTableRecord
  2
0
 70
0
 62
7
  6
CONTINUOUS
370
-3
390
F
  0
LAYER
  5
1FA
100
AcDbSymbolTableRecord
100
AcDbLayerTableRecord
  2
DEFAULT_1
 70
0
 62
7
  6
CENTER
370
-3
390
F
  0
LAYER
  5
1FB
100
AcDbSymbolTableRecord
100
AcDbLayerTableRecord
  2
DEFAULT_2
 70
0
 62
7
  6
HIDDEN
370
-3
390
F
  0
LAYER
  5
1FC
100
AcDbSymbolTableRecord
100
AcDbLayerTableRecord
  2
DEFAULT_3
 70
0
 62
7
  6
PHANTOM
370
-3
390
F
  0
LAYER
  5
1FD
100
AcDbSymbolTableRecord
100
AcDbLayerTableRecord
  2
ASSI
 70
0
 62
7
  6
CONTINUOUS
370
-3
390
F
  0
LAYER
  5
1FE
100
AcDbSymbolTableRecord
100
AcDbLayerTableRecord
  2
COLOR5
 70
0
 62
7
  6
CONTINUOUS
370
-3
390
F
  0
LAYER
  5
1FF
100
AcDbSymbolTableRecord
100
AcDbLayerTableRecord
  2
COORDINATE
 70
0
 62
7
  6
CONTINUOUS
370
-3
390
F
  0
LAYER
  5
200
100
AcDbSymbolTableRecord
100
AcDbLayerTableRecord
  2
COORD_ORIGINE
 70
0
 62
7
  6
CONTINUOUS
370
-3
390
F
  0
LAYER
  5
201
100
AcDbSymbolTableRecord
100
AcDbLayerTableRecord
  2
COSMETICHE
 70
0
 62
7
  6
CONTINUOUS
370
-3
390
F
  0
LAYER
  5
202
100
AcDbSymbolTableRecord
100
AcDbLayerTableRecord
  2
CURVE
 70
0
 62
7
  6
CONTINUOUS
370
-3
390
F
  0
LAYER
  5
203
100
AcDbSymbolTableRecord
100
AcDbLayerTableRecord
  2
DRAFT
 70
0
 62
7
  6
CONTINUOUS
370
-3
390
F
  0
LAYER
  5
204
100
AcDbSymbolTableRecord
100
AcDbLayerTableRecord
  2
INTF_1
 70
0
 62
7
  6
CONTINUOUS
370
-3
390
F
  0
LAYER
  5
205
100
AcDbSymbolTableRecord
100
AcDbLayerTableRecord
  2
INTF_10
 70
0
 62
7
  6
CONTINUOUS
370
-3
390
F
  0
LAYER
  5
206
100
AcDbSymbolTableRecord
100
AcDbLayerTableRecord
  2
INTF_11
 70
0
 62
7
  6
CONTINUOUS
370
-3
390
F
  0
LAYER
  5
207
100
AcDbSymbolTableRecord
100
AcDbLayerTableRecord
  2
INTF_12
 70
0
 62
7
  6
CONTINUOUS
370
-3
390
F
  0
LAYER
  5
208
100
AcDbSymbolTableRecord
100
AcDbLayerTableRecord
  2
INTF_2
 70
0
 62
7
  6
CONTINUOUS
370
-3
390
F
  0
LAYER
  5
209
100
AcDbSymbolTableRecord
100
AcDbLayerTableRecord
  2
INTF_8
 70
0
 62
7
  6
CONTINUOUS
370
-3
390
F
  0
LAYER
  5
20A
100
AcDbSymbolTableRecord
100
AcDbLayerTableRecord
  2
INTF_9
 70
0
 62
7
  6
CONTINUOUS
370
-3
390
F
  0
LAYER
  5
20B
100
AcDbSymbolTableRecord
100
AcDbLayerTableRecord
  2
INTF_YELLOW
 70
0
 62
7
  6
CONTINUOUS
370
-3
390
F
  0
LAYER
  5
20C
100
AcDbSymbolTableRecord
100
AcDbLayerTableRecord
  2
NOTE
 70
0
 62
7
  6
CONTINUOUS
370
-3
390
F
  0
LAYER
  5
20D
100
AcDbSymbolTableRecord
100
AcDbLayerTableRecord
  2
PIANI
 70
0
 62
7
  6
CONTINUOUS
370
-3
390
F
  0
LAYER
  5
20E
100
AcDbSymbolTableRecord
100
AcDbLayerTableRecord
  2
PIANI_ORIGINE
 70
0
 62
7
  6
CONTINUOUS
370
-3
390
F
  0
LAYER
  5
20F
100
AcDbSymbolTableRecord
100
AcDbLayerTableRecord
  2
PUNTI
 70
0
 62
7
  6
CONTINUOUS
370
-3
390
F
  0
LAYER
  5
210
100
AcDbSymbolTableRecord
100
AcDbLayerTableRecord
  2
RACCORDO
 70
0
 62
7
  6
CONTINUOUS
370
-3
390
F
  0
LAYER
  5
211
100
AcDbSymbolTableRecord
100
AcDbLayerTableRecord
  2
RGB__255__255__255__
 70
0
 62
7
  6
CONTINUOUS
370
-3
390
F
  0
LAYER
  5
212
100
AcDbSymbolTableRecord
100
AcDbLayerTableRecord
  2
RGB____0____0____0__
 70
0
 62
7
  6
CONTINUOUS
370
-3
390
F
  0
LAYER
  5
213
100
AcDbSymbolTableRecord
100
AcDbLayerTableRecord
  2
SMUSSO
 70
0
 62
7
  6
CONTINUOUS
370
-3
390
F
  0
LAYER
  5
214
100
AcDbSymbolTableRecord
100
AcDbLayerTableRecord
  2
SNAPLINE
 70
0
 62
7
  6
CONTINUOUS
370
-3
390
F
  0
LAYER
  5
215
100
AcDbSymbolTableRecord
100
AcDbLayerTableRecord
  2
SUPERFICI
 70
0
 62
7
  6
CONTINUOUS
370
-3
390
F
  0
LAYER
  5
216
100
AcDbSymbolTableRecord
100
AcDbLayerTableRecord
  2
TRASH
 70
0
 62
7
  6
CONTINUOUS
370
-3
390
F
  0
LAYER
  5
217
100
AcDbSymbolTableRecord
100
AcDbLayerTableRecord
  2
XSEC_DATUMS
 70
0
 62
7
  6
CONTINUOUS
370
-3
390
F
  0
ENDTAB
  0
TABLE
  2
STYLE
  5
3
100
AcDbSymbolTable
 70
1
  0
STYLE
  5
11
100
AcDbSymbolTableRecord
100
AcDbTextStyleTableRecord
  2
STANDARD
 70
0
 40
0.0
 41
0.8
 50
0.0
 71
0
 42
0.2
  3
txt
  4

  0
STYLE
  5
218
100
AcDbSymbolTableRecord
100
AcDbTextStyleTableRecord
  2
TEXTSTYLE_1
 70
0
 40
0.0
 41
0.8
 50
0.0
 71
0
 42
0.2
  3
gdt
  4

  0
ENDTAB
  0
TABLE
  2
VIEW
  5
6
100
AcDbSymbolTable
 70
0
  0
ENDTAB
  0
TABLE
  2
UCS
  5
7
100
AcDbSymbolTable
 70
0
  0
ENDTAB
  0
TABLE
  2
APPID
  5
9
100
AcDbSymbolTable
 70
1
  0
APPID
  5
219
100
AcDbSymbolTableRecord
100
AcDbRegAppTableRecord
  2
ACAD
 70
0
  0
ENDTAB
  0
TABLE
  2
BLOCK_RECORD
  5
1
100
AcDbSymbolTable
 70
0
  0
BLOCK_RECORD
  5
21A
100
AcDbSymbolTableRecord
100
AcDbBlockTableRecord
  2
*Model_Space
  0
BLOCK_RECORD
  5
21B
100
AcDbSymbolTableRecord
100
AcDbBlockTableRecord
  2
*Paper_Space
  0
BLOCK_RECORD
  5
21C
100
AcDbSymbolTableRecord
100
AcDbBlockTableRecord
  2
_FILLED
  0
BLOCK_RECORD
  5
21D
100
AcDbSymbolTableRecord
100
AcDbBlockTableRecord
  2
*D0
  0
BLOCK_RECORD
  5
21E
100
AcDbSymbolTableRecord
100
AcDbBlockTableRecord
  2
*D1
  0
BLOCK_RECORD
  5
21F
100
AcDbSymbolTableRecord
100
AcDbBlockTableRecord
  2
*D2
  0
BLOCK_RECORD
  5
220
100
AcDbSymbolTableRecord
100
AcDbBlockTableRecord
  2
*D3
  0
ENDTAB
  0
TABLE
  2
DIMSTYLE
  5
A
100
AcDbSymbolTable
 70
1
100
AcDbDimStyleTable
 71
0
  0
DIMSTYLE
105
221
100
AcDbSymbolTableRecord
100
AcDbDimStyleTableRecord
  2
STANDARD
 70
0
  3

  4

 40
1.0
 41
3.0
 42
0.5
 43
0.38
 44
1.5
 45
0.0
 46
0.0
 47
0.01
 48
0.01
140
3.0
141
0.09
142
0.0
143
25.4
144
1.0
145
0.0
146
1.0
147
0.625
 71
1
 72
0
 73
0
 74
0
 75
0
 76
0
 77
1
 78
8
 79
2
170
0
171
1
172
0
173
0
174
0
175
0
176
0
177
0
178
0
270
2
179
2
271
2
272
2
273
2
274
2
275
0
280
0
281
0
282
0
283
1
284
8
285
0
286
0
287
3
288
0
340
11
278
44
341
21C
342
21C
343
21C
344
21C
  0
DIMSTYLE
105
222
100
AcDbSymbolTableRecord
100
AcDbDimStyleTableRecord
  2
DIMSTYLE_1
 70
0
  3

  4

 40
1.0
 41
3.0
 42
0.5
 43
0.38
 44
1.5
 45
0.0
 46
0.0
 47
0.0
 48
0.0
140
3.0
141
0.09
142
0.0
143
25.4
144
1.0
145
0.0
146
1.0
147
0.75
 71
0
 72
0
 73
0
 74
0
 75
0
 76
0
 77
1
 78
8
 79
2
170
0
171
1
172
0
173
0
174
0
175
0
176
0
177
0
178
0
270
2
179
2
271
1
272
1
273
2
274
2
275
0
280
0
281
0
282
0
283
1
284
8
285
0
286
0
287
3
288
0
340
11
278
44
341
21C
342
21C
343
21C
344
21C
  0
DIMSTYLE
105
223
100
AcDbSymbolTableRecord
100
AcDbDimStyleTableRecord
  2
DIMSTYLE_2
 70
0
  3

  4

 40
1.0
 41
3.0
 42
0.5
 43
0.38
 44
1.5
 45
0.0
 46
0.0
 47
0.0
 48
0.0
140
3.0
141
0.09
142
0.0
143
25.4
144
1.0
145
0.0
146
1.0
147
0.75
 71
0
 72
0
 73
0
 74
0
 75
0
 76
0
 77
1
 78
8
 79
2
170
0
171
1
172
0
173
0
174
0
175
0
176
0
177
0
178
0
270
2
179
2
271
2
272
2
273
2
274
2
275
0
280
0
281
0
282
0
283
1
284
8
285
0
286
0
287
3
288
0
340
11
278
44
341
21C
342
21C
343
21C
344
21C
  0
ENDTAB
  0
ENDSEC
  0
SECTION
  2
BLOCKS
  0
BLOCK
  5
20
100
AcDbEntity
  8
0
100
AcDbBlockBegin
  2
*Model_Space
 70
0
 10
0.0
 20
0.0
 30
0.0
  3
*Model_Space
  1

  0
ENDBLK
  5
21
100
AcDbEntity
  8
0
100
AcDbBlockEnd
  0
BLOCK
  5
1C
100
AcDbEntity
  8
0
100
AcDbBlockBegin
  2
*Paper_Space
 70
0
 10
0.0
 20
0.0
 30
0.0
  3
*Paper_Space
  1

  0
ENDBLK
  5
1D
100
AcDbEntity
  8
0
100
AcDbBlockEnd
  0
BLOCK
  5
224
100
AcDbEntity
  8
0
100
AcDbBlockBegin
  2
_FILLED
 70
64
 10
0.0
 20
0.0
  3
_FILLED
  1

  0
SOLID
  5
225
100
AcDbEntity
  8
0
  6
BYBLOCK
 62
0
100
AcDbTrace
 10
0.0
 20
0.0
 11
-1.0
 21
0.3166666667
 12
-1.0
 22
-0.3166666667
 13
-1.0
 23
-0.3166666667
  0
ENDBLK
  5
226
100
AcDbEntity
  8
0
  6
BYBLOCK
 62
0
100
AcDbBlockEnd
  0
BLOCK
  5
227
100
AcDbEntity
  8
0
100
AcDbBlockBegin
 62
7
  6
CONTINUOUS
  2
*D0
 70
65
 10
0.0
 20
0.0
  3
*D0
  1

  0
LINE
  5
228
100
AcDbEntity
  8
0
100
AcDbLine
 62
7
  6
CONTINUOUS
 10
-37.1194316143
 20
-2.341945052
 11
-37.1194316143
 21
40.5483224998
  0
LINE
  5
229
100
AcDbEntity
  8
0
100
AcDbLine
 62
7
  6
CONTINUOUS
 10
-94.1694316143
 20
-2.341945052
 11
-94.1694316143
 21
40.5483224998
  0
LINE
  5
22A
100
AcDbEntity
  8
0
100
AcDbLine
 62
7
  6
CONTINUOUS
 10
-37.1194316143
 20
39.0483224998
 11
-65.6444316143
 21
39.0483224998
  0
LINE
  5
22B
100
AcDbEntity
  8
0
100
AcDbLine
 62
7
  6
CONTINUOUS
 10
-94.1694316143
 20
39.0483224998
 11
-65.6444316143
 21
39.0483224998
  0
INSERT
  5
22C
100
AcDbEntity
  8
0
100
AcDbBlockReference
 62
7
  6
CONTINUOUS
  2
_FILLED
 10
-37.1194316143
 20
39.0483224998
 41
3.0
 42
3.0
 43
3.0
  0
INSERT
  5
22D
100
AcDbEntity
  8
0
100
AcDbBlockReference
 62
7
  6
CONTINUOUS
  2
_FILLED
 10
-94.1694316143
 20
39.0483224998
 41
3.0
 42
3.0
 43
3.0
 50
180.0
  0
ENDBLK
  5
22E
100
AcDbEntity
  8
0
  6
BYBLOCK
 62
0
100
AcDbBlockEnd
  0
BLOCK
  5
22F
100
AcDbEntity
  8
0
100
AcDbBlockBegin
 62
7
  6
CONTINUOUS
  2
*D1
 70
65
 10
0.0
 20
0.0
  3
*D1
  1

  0
LINE
  5
230
100
AcDbEntity
  8
0
100
AcDbLine
 62
7
  6
CONTINUOUS
 10
-56.1694316143
 20
14.5245472486
 11
-56.1694316143
 21
30.5483224998
  0
LINE
  5
231
100
AcDbEntity
  8
0
100
AcDbLine
 62
7
  6
CONTINUOUS
 10
-94.1694316143
 20
-2.341945052
 11
-94.1694316143
 21
30.5483224998
  0
LINE
  5
232
100
AcDbEntity
  8
0
100
AcDbLine
 62
7
  6
CONTINUOUS
 10
-56.1694316143
 20
29.0483224998
 11
-75.1694316143
 21
29.0483224998
  0
LINE
  5
233
100
AcDbEntity
  8
0
100
AcDbLine
 62
7
  6
CONTINUOUS
 10
-94.1694316143
 20
29.0483224998
 11
-75.1694316143
 21
29.0483224998
  0
INSERT
  5
234
100
AcDbEntity
  8
0
100
AcDbBlockReference
 62
7
  6
CONTINUOUS
  2
_FILLED
 10
-56.1694316143
 20
29.0483224998
 41
3.0
 42
3.0
 43
3.0
  0
INSERT
  5
235
100
AcDbEntity
  8
0
100
AcDbBlockReference
 62
7
  6
CONTINUOUS
  2
_FILLED
 10
-94.1694316143
 20
29.0483224998
 41
3.0
 42
3.0
 43
3.0
 50
180.0
  0
ENDBLK
  5
236
100
AcDbEntity
  8
0
  6
BYBLOCK
 62
0
100
AcDbBlockEnd
  0
BLOCK
  5
237
100
AcDbEntity
  8
0
100
AcDbBlockBegin
 62
7
  6
CONTINUOUS
  2
*D2
 70
65
 10
0.0
 20
0.0
  3
*D2
  1

  0
LINE
  5
238
100
AcDbEntity
  8
0
100
AcDbLine
 62
7
  6
CONTINUOUS
 10
-18.2997113074
 20
-2.341945052
 11
-18.2997113074
 21
30.5483224998
  0
LINE
  5
239
100
AcDbEntity
  8
0
100
AcDbLine
 62
7
  6
CONTINUOUS
 10
18.2997113074
 20
-2.341945052
 11
18.2997113074
 21
30.5483224998
  0
LINE
  5
23A
100
AcDbEntity
  8
0
100
AcDbLine
 62
7
  6
CONTINUOUS
 10
-18.2997113074
 20
29.0483224998
 11
0.0
 21
29.0483224998
  0
LINE
  5
23B
100
AcDbEntity
  8
0
100
AcDbLine
 62
7
  6
CONTINUOUS
 10
18.2997113074
 20
29.0483224998
 11
0.0
 21
29.0483224998
  0
INSERT
  5
23C
100
AcDbEntity
  8
0
100
AcDbBlockReference
 62
7
  6
CONTINUOUS
  2
_FILLED
 10
-18.2997113074
 20
29.0483224998
 41
3.0
 42
3.0
 43
3.0
 50
180.0
  0
INSERT
  5
23D
100
AcDbEntity
  8
0
100
AcDbBlockReference
 62
7
  6
CONTINUOUS
  2
_FILLED
 10
18.2997113074
 20
29.0483224998
 41
3.0
 42
3.0
 43
3.0
  0
ENDBLK
  5
23E
100
AcDbEntity
  8
0
  6
BYBLOCK
 62
0
100
AcDbBlockEnd
  0
BLOCK
  5
23F
100
AcDbEntity
  8
0
100
AcDbBlockBegin
 62
7
  6
CONTINUOUS
  2
*D3
 70
65
 10
0.0
 20
0.0
  3
*D3
  1

  0
LINE
  5
240
100
AcDbEntity
  8
0
100
AcDbLine
 62
7
  6
CONTINUOUS
 10
2.345631105
 20
-21.0483224998
 11
33.35
 21
-21.0483224998
  0
LINE
  5
241
100
AcDbEntity
  8
0
100
AcDbLine
 62
7
  6
CONTINUOUS
 10
0.5
 20
21.0492569077
 11
33.35
 21
21.0492569077
  0
LINE
  5
242
100
AcDbEntity
  8
0
100
AcDbLine
 62
7
  6
CONTINUOUS
 10
31.85
 20
-21.0483224998
 11
31.85
 21
0.000467204
  0
LINE
  5
243
100
AcDbEntity
  8
0
100
AcDbLine
 62
7
  6
CONTINUOUS
 10
31.85
 20
21.0492569077
 11
31.85
 21
0.000467204
  0
INSERT
  5
244
100
AcDbEntity
  8
0
100
AcDbBlockReference
 62
7
  6
CONTINUOUS
  2
_FILLED
 10
31.85
 20
-21.0483224998
 41
3.0
 42
3.0
 43
3.0
 50
270.0
  0
INSERT
  5
245
100
AcDbEntity
  8
0
100
AcDbBlockReference
 62
7
  6
CONTINUOUS
  2
_FILLED
 10
31.85
 20
21.0492569077
 41
3.0
 42
3.0
 43
3.0
 50
90.0
  0
ENDBLK
  5
246
100
AcDbEntity
  8
0
  6
BYBLOCK
 62
0
100
AcDbBlockEnd
  0
ENDSEC
  0
SECTION
  2
ENTITIES
  0
DIMENSION
  5
247
100
AcDbEntity
  8
0
100
AcDbDimension
 62
7
  6
CONTINUOUS
  2
*D0
 10
-94.1694316143
 20
39.0483224998
 11
-69.6087173286
 21
39.0483224998
 70
160
 71
2
 72
2
 41
0.9
 42
57.05
  3
DIMSTYLE_1
100
AcDbAlignedDimension
 13
-37.1194316143
 23
-2.841945052
 14
-94.1694316143
 24
-2.841945052
 50
180.0
100
AcDbRotatedDimension
  0
DIMENSION
  5
248
100
AcDbEntity
  8
0
100
AcDbDimension
 62
7
  6
CONTINUOUS
  2
*D1
 10
-94.1694316143
 20
29.0483224998
 11
-77.4194316143
 21
29.0483224998
 70
160
 71
2
 72
2
 41
0.9
 42
38.0
  3
DIMSTYLE_2
100
AcDbAlignedDimension
 13
-56.1694316143
 23
14.0245472486
 14
-94.1694316143
 24
-2.841945052
 50
180.0
100
AcDbRotatedDimension
  0
DIMENSION
  5
249
100
AcDbEntity
  8
0
100
AcDbDimension
 62
7
  6
CONTINUOUS
  2
*D2
 10
18.2997113074
 20
29.0483224998
 11
-4.2857142857
 21
29.0483224998
 70
160
 71
2
 72
2
 41
0.9
 42
36.5994226149
  3
DIMSTYLE_2
100
AcDbAlignedDimension
 13
-18.2997113074
 23
-2.841945052
 14
18.2997113074
 24
-2.841945052
100
AcDbRotatedDimension
  0
DIMENSION
  5
24A
100
AcDbEntity
  8
0
100
AcDbDimension
 62
7
  6
CONTINUOUS
  2
*D3
 10
31.85
 20
21.0492569077
 11
31.85
 21
-4.0709613675
 70
160
 71
2
 72
2
 41
0.9
 42
42.0975794075
  3
DIMSTYLE_1
100
AcDbAlignedDimension
 13
1.845631105
 23
-21.0483224998
 14
-0.0
 24
21.0492569077
 50
90.0
100
AcDbRotatedDimension
  0
LWPOLYLINE
  5
24B
100
AcDbEntity
  8
0
100
AcDbPolyline
 62
7
  6
CONTINUOUS
 90
5
 70
0
 43
0.3500000087
 10
-3.4285714651
 20
31.5126098389
 10
-3.0714284876
 20
31.7268921082
 10
-3.0714284876
 20
32.3697517059
 10
-3.4285714651
 20
32.7983205078
 10
-4.285714398
 20
32.7983205078
  0
LWPOLYLINE
  5
24C
100
AcDbEntity
  8
0
100
AcDbPolyline
 62
7
  6
CONTINUOUS
 90
10
 70
0
 43
0.3500000087
 10
-1.0714285995
 20
32.7983205078
 10
-1.7142857326
 20
32.1554651733
 10
-2.142857199
 20
31.2983233063
 10
-2.142857199
 20
30.2268949066
 10
-1.7142857326
 20
29.7983218414
 10
-1.0714285995
 20
29.7983218414
 10
-0.6428571331
 20
30.2268949066
 10
-0.6428571331
 20
31.0840367737
 10
-1.0714285995
 20
31.5126098389
 10
-1.9999999547
 20
31.5126098389
  0
LWPOLYLINE
  5
24D
100
AcDbEntity
  8
0
100
AcDbPolyline
 62
7
  6
CONTINUOUS
 90
10
 70
0
 43
0.3500000087
 10
2.9999999987
 20
32.7983205078
 10
2.357142799
 20
32.1554651733
 10
1.9285714658
 20
31.2983233063
 10
1.9285714658
 20
30.2268949066
 10
2.357142799
 20
29.7983218414
 10
2.9999999987
 20
29.7983218414
 10
3.4285714651
 20
30.2268949066
 10
3.4285714651
 20
31.0840367737
 10
2.9999999987
 20
31.5126098389
 10
2.0714285769
 20
31.5126098389
  0
LINE
  5
24E
100
AcDbEntity
  8
RACCORDO
100
AcDbLine
 62
7
  6
CONTINUOUS
 10
5.7456395592
 20
-20.2162422849
 11
5.7458060707
 21
-20.2162118433
  0
LINE
  5
24F
100
AcDbEntity
  8
RACCORDO
100
AcDbLine
 62
7
  6
CONTINUOUS
 10
-5.7458060707
 20
-20.2162118433
 11
-5.7456394931
 21
-20.216191435
  0
LINE
  5
250
100
AcDbEntity
  8
RACCORDO
100
AcDbLine
 62
7
  6
CONTINUOUS
 10
5.7456395585
 20
-20.2161910268
 11
5.7458060707
 21
-20.2162118433
  0
LINE
  5
251
100
AcDbEntity
  8
RACCORDO
100
AcDbLine
 62
7
  6
CONTINUOUS
 10
-5.7458060707
 20
-20.2162118433
 11
-5.7456394938
 21
-20.2162422966
  0
LWPOLYLINE
  5
252
100
AcDbEntity
  8
RACCORDO
100
AcDbPolyline
 62
7
  6
CONTINUOUS
 90
12
 70
0
 10
-13.0278750942
 20
-13.8224483257
 10
-12.9299693444
 20
-13.9920924561
 10
-12.8862103229
 20
-14.0687804632
 10
-12.8459708689
 20
-14.1400803364
 10
-12.8095410997
 20
-14.2055436538
 10
-12.7768338418
 20
-14.2653541548
 10
-12.747880276
 20
-14.3194354001
 10
-12.7230793344
 20
-14.3669525368
 10
-12.7021649985
 20
-14.4082592293
 10
-12.6851569093
 20
-14.4431074198
 10
-12.6726598668
 20
-14.4698611043
 10
-12.6680453712
 20
-14.4801303627
  0
LINE
  5
253
100
AcDbEntity
  8
RACCORDO
100
AcDbLine
 62
250
  6
CONTINUOUS
 10
-16.2356311837
 20
-5.0857579036
 11
-16.2333291795
 21
-5.1077572917
  0
LINE
  5
254
100
AcDbEntity
  8
RACCORDO
100
AcDbLine
 62
250
  6
CONTINUOUS
 10
-17.7006642808
 20
-4.941945052
 11
-17.7006642808
 21
-4.461945052
  0
LINE
  5
255
100
AcDbEntity
  8
RACCORDO
100
AcDbLine
 62
250
  6
CONTINUOUS
 10
-17.7006642808
 20
-1.221945052
 11
-17.7006642808
 21
-0.741945052
  0
LINE
  5
256
100
AcDbEntity
  8
RACCORDO
100
AcDbLine
 62
7
  6
CONTINUOUS
 10
-16.0997113074
 20
5.5221888104
 11
-16.0997113074
 21
0.4053405796
  0
LINE
  5
257
100
AcDbEntity
  8
RACCORDO
100
AcDbLine
 62
7
  6
CONTINUOUS
 10
-16.0997113074
 20
-11.2060789145
 11
-16.0997113074
 21
-6.0889413089
  0
LINE
  5
258
100
AcDbEntity
  8
RACCORDO
100
AcDbLine
 62
250
  6
CONTINUOUS
 10
-15.7152927984
 20
5.4207899447
 11
-15.7152927984
 21
2.1138324401
  0
LINE
  5
259
100
AcDbEntity
  8
RACCORDO
100
AcDbLine
 62
250
  6
CONTINUOUS
 10
-15.7152927984
 20
-7.7978710135
 11
-15.7152927984
 21
-11.1046800487
  0
LINE
  5
25A
100
AcDbEntity
  8
RACCORDO
100
AcDbLine
 62
250
  6
CONTINUOUS
 10
-15.3870047753
 20
5.4207899447
 11
-15.3870047753
 21
3.1911887725
  0
LINE
  5
25B
100
AcDbEntity
  8
RACCORDO
100
AcDbLine
 62
250
  6
CONTINUOUS
 10
-15.3870047753
 20
-8.8750384959
 11
-15.3870047753
 21
-11.1046800487
  0
LINE
  5
25C
100
AcDbEntity
  8
RACCORDO
100
AcDbLine
 62
250
  6
CONTINUOUS
 10
-16.2333291795
 20
-0.5761328123
 11
-16.2356326503
 21
-0.5981429807
  0
LINE
  5
25D
100
AcDbEntity
  8
RACCORDO
100
AcDbLine
 62
250
  6
CONTINUOUS
 10
-16.2333291795
 20
-0.5761328123
 11
-16.2357482099
 21
-0.5980871312
  0
LWPOLYLINE
  5
25E
100
AcDbEntity
  8
RACCORDO
100
AcDbPolyline
 62
7
  6
CONTINUOUS
 90
10
 70
0
 10
-16.2498236214
 20
-0.5966454452
 10
-16.2872965401
 20
-0.931813881
 10
-16.3340907075
 20
-1.4724417037
 10
-16.3650006383
 20
-2.0148774904
 10
-16.3805159865
 20
-2.5592367331
 10
-16.3807949026
 20
-3.1046687802
 10
-16.3658285726
 20
-3.6493473042
 10
-16.335442124
 20
-4.1924207335
 10
-16.2891290929
 20
-4.7340020487
 10
-16.2498238571
 20
-5.0872437029
  0
LWPOLYLINE
  5
25F
100
AcDbEntity
  8
RACCORDO
100
AcDbPolyline
 62
7
  6
CONTINUOUS
 90
13
 70
0
 10
-12.6595242336
 20
8.8161702961
 10
-12.6589635879
 20
8.8177220982
 10
-12.6598819213
 20
8.815395851
 10
-12.6647336583
 20
8.8038091055
 10
-12.6733375065
 20
8.7844846479
 10
-12.6860850944
 20
8.7572762641
 10
-12.7033183872
 20
8.7220529172
 10
-12.7244340264
 20
8.6804309618
 10
-12.7494103895
 20
8.6326540128
 10
-12.778506802
 20
8.5783753535
 10
-12.811337253
 20
8.5184004891
 10
-12.8478741683
 20
8.4527966607
 10
-12.8881980861
 20
8.3813899294
  0
LWPOLYLINE
  5
260
100
AcDbEntity
  8
RACCORDO
100
AcDbPolyline
 62
7
  6
CONTINUOUS
 90
41
 70
0
 10
-13.3966368055
 20
7.5027368074
 10
-13.4668116087
 20
7.3801386019
 10
-13.539138245
 20
7.2527979096
 10
-13.6134758961
 20
7.1207182557
 10
-13.6895593407
 20
6.9841163624
 10
-13.7672022994
 20
6.8430747344
 10
-13.8462844675
 20
6.697571058
 10
-13.9266334768
 20
6.5476730665
 10
-14.0080657598
 20
6.3934640731
 10
-14.0904387015
 20
6.2349431011
 10
-14.1736365519
 20
6.0720452558
 10
-14.2574879888
 20
5.9048008928
 10
-14.3418065495
 20
5.7332635761
 10
-14.426466535
 20
5.5573914206
 10
-14.5113036136
 20
5.3772434439
 10
-14.5961652866
 20
5.1928479488
 10
-14.6809501642
 20
5.0041087751
 10
-14.765484822
 20
4.8110730539
 10
-14.8495874299
 20
4.6137982188
 10
-14.9331302622
 20
4.4121997127
 10
-15.0159202856
 20
4.2063341377
 10
-15.0977849617
 20
3.9962567043
 10
-15.1786214105
 20
3.7818742627
 10
-15.2582644272
 20
3.5632412994
 10
-15.3365465961
 20
3.340410777
 10
-15.413346321
 20
3.1132878592
 10
-15.4884806876
 20
2.881934238
 10
-15.561757755
 20
2.6464290766
 10
-15.6330253196
 20
2.406707453
 10
-15.702103461
 20
2.1628410571
 10
-15.76883334
 20
1.9148878072
 10
-15.8330911874
 20
1.6627588212
 10
-15.8947044613
 20
1.4065277094
 10
-15.9534977877
 20
1.1462717596
 10
-16.009324646
 20
0.881915538
 10
-16.0619949593
 20
0.6135512069
 10
-16.1113158563
 20
0.3412784286
 10
-16.1571381777
 20
0.0650296313
 10
-16.1993043315
 20
-0.2151608638
 10
-16.2376386033
 20
-0.4991448139
 10
-16.2497837157
 20
-0.5966620031
  0
LINE
  5
261
100
AcDbEntity
  8
RACCORDO
100
AcDbLine
 62
7
  6
CONTINUOUS
 10
-12.8881980861
 20
8.3813899294
 11
-12.9792902162
 21
8.222493824
  0
LINE
  5
262
100
AcDbEntity
  8
RACCORDO
100
AcDbLine
 62
7
  6
CONTINUOUS
 10
-13.2634064283
 20
7.7334647395
 11
-13.3966368055
 21
7.5027368074
  0
LINE
  5
263
100
AcDbEntity
  8
RACCORDO
100
AcDbLine
 62
7
  6
CONTINUOUS
 10
-12.9792902162
 20
8.222493824
 11
-13.2634064283
 21
7.7334647395
  0
LWPOLYLINE
  5
264
100
AcDbEntity
  8
RACCORDO
100
AcDbPolyline
 62
7
  6
CONTINUOUS
 90
43
 70
0
 10
-16.2497836774
 20
-5.0872284586
 10
-16.2397086643
 20
-5.1684152072
 10
-16.2015119718
 20
-5.4532212025
 10
-16.1594585385
 20
-5.7342168808
 10
-16.1137255698
 20
-6.0112524142
 10
-16.0644718456
 20
-6.2842933563
 10
-16.011846347
 20
-6.5534092018
 10
-15.9560432027
 20
-6.8184996126
 10
-15.8972540514
 20
-7.079471555
 10
-15.8356265806
 20
-7.3364014818
 10
-15.771337569
 20
-7.5892113156
 10
-15.7045608904
 20
-7.8378268678
 10
-15.6354211232
 20
-8.0823384309
 10
-15.5640781149
 20
-8.3226877422
 10
-15.4907120136
 20
-8.5588031087
 10
-15.4154757562
 20
-8.7907506517
 10
-15.3385627039
 20
-9.0184504063
 10
-15.2601570139
 20
-9.2418403407
 10
-15.1803807616
 20
-9.4610170236
 10
-15.0994024851
 20
-9.6759270361
 10
-15.0173884982
 20
-9.8865154116
 10
-14.93444189
 20
-10.0928769653
 10
-14.8507357474
 20
-10.2949563531
 10
-14.7664642797
 20
-10.4926963789
 10
-14.6817557808
 20
-10.6861826389
 10
-14.5967932607
 20
-10.8753571239
 10
-14.5117512326
 20
-11.0601722847
 10
-14.4267314086
 20
-11.2407254347
 10
-14.3418872774
 20
-11.4169878439
 10
-14.2573842125
 20
-11.588899956
 10
-14.1733484291
 20
-11.7565044824
 10
-14.0899675471
 20
-11.9197474136
 10
-14.0074141152
 20
-12.0785977485
 10
-13.9258045571
 20
-12.2331207326
 10
-13.8452813415
 20
-12.3833191303
 10
-13.7660304592
 20
-12.5291065843
 10
-13.6882287287
 20
-12.6704087693
 10
-13.6119982269
 20
-12.8072466469
 10
-13.5375256206
 20
-12.9395391993
 10
-13.4650781814
 20
-13.0670677532
 10
-13.3947975791
 20
-13.1898288079
 10
-13.3268229784
 20
-13.30781225
 10
-13.0278750942
 20
-13.8224483257
  0
LINE
  5
265
100
AcDbEntity
  8
RACCORDO
100
AcDbLine
 62
250
  6
CONTINUOUS
 10
-16.2357469911
 20
-5.08581406
 11
-16.2333291795
 21
-5.1077572917
  0
LINE
  5
266
100
AcDbEntity
  8
RACCORDO
100
AcDbLine
 62
250
  6
CONTINUOUS
 10
15.3870047753
 20
-11.1046800487
 11
15.7152927984
 21
-11.1046800487
  0
LINE
  5
267
100
AcDbEntity
  8
RACCORDO
100
AcDbLine
 62
250
  6
CONTINUOUS
 10
-15.3870047753
 20
-11.1046800487
 11
-15.7152927984
 21
-11.1046800487
  0
LWPOLYLINE
  5
268
100
AcDbEntity
  8
RACCORDO
100
AcDbPolyline
 62
7
  6
CONTINUOUS
 90
4
 70
0
 10
-6.6999724007
 20
13.3845589885
 10
-6.7006604595
 20
13.3669290414
 10
-6.7076014442
 20
13.3272402489
 10
-6.7153265572
 20
13.3052950596
  0
LWPOLYLINE
  5
269
100
AcDbEntity
  8
0
100
AcDbPolyline
 62
7
  6
CONTINUOUS
 90
3
 70
0
 43
0.3500000087
 10
0.9285714218
 20
30.0840357971
 10
0.8571428663
 20
29.8697492645
 10
0.7142856886
 20
29.5840353088
  0
LINE
  5
26A
100
AcDbEntity
  8
RACCORDO
100
AcDbLine
 62
250
  6
CONTINUOUS
 10
-15.5432865981
 20
-11.7505811351
 11
-15.9317646317
 21
-11.8457706645
  0
LINE
  5
26B
100
AcDbEntity
  8
RACCORDO
100
AcDbLine
 62
250
  6
CONTINUOUS
 10
-15.6226628072
 20
-11.7701586411
 11
-15.6930117589
 21
-11.7874020497
  0
LINE
  5
26C
100
AcDbEntity
  8
RACCORDO
100
AcDbLine
 62
250
  6
CONTINUOUS
 10
-15.8836905482
 20
-11.8340323806
 11
-15.9246383782
 21
-11.8440074894
  0
LINE
  5
26D
100
AcDbEntity
  8
RACCORDO
100
AcDbLine
 62
250
  6
CONTINUOUS
 10
15.9314732397
 20
-11.8456995105
 11
15.9237595406
 21
-11.8440057315
  0
LINE
  5
26E
100
AcDbEntity
  8
RACCORDO
100
AcDbLine
 62
250
  6
CONTINUOUS
 10
15.9314732397
 20
-11.8456995105
 11
15.5433899863
 21
-11.7504126673
  0
LINE
  5
26F
100
AcDbEntity
  8
RACCORDO
100
AcDbLine
 62
250
  6
CONTINUOUS
 10
15.7984286379
 20
-11.8132080899
 11
15.745701371
 21
-11.8002560139
  0
LINE
  5
270
100
AcDbEntity
  8
ASSI
100
AcDbLine
 62
7
  6
CONTINUOUS
 10
-6.7
 20
13.3845426684
 11
-6.7
 21
16.2004985996
  0
LINE
  5
271
100
AcDbEntity
  8
ASSI
100
AcDbLine
 62
7
  6
CONTINUOUS
 10
-6.05
 20
17.0711723733
 11
-6.05
 21
17.6371932053
  0
LINE
  5
272
100
AcDbEntity
  8
ASSI
100
AcDbLine
 62
7
  6
CONTINUOUS
 10
-5.3
 20
18.534257002
 11
-5.3
 21
19.0845712047
  0
LINE
  5
273
100
AcDbEntity
  8
RACCORDO
100
AcDbLine
 62
250
  6
CONTINUOUS
 10
-15.7152927984
 20
-11.1046486162
 11
-16.1000000033
 21
-11.2061544769
  0
LINE
  5
274
100
AcDbEntity
  8
RACCORDO
100
AcDbLine
 62
250
  6
CONTINUOUS
 10
-16.0523768232
 20
-11.1936597886
 11
-16.0997113074
 21
-11.2060789145
  0
LINE
  5
275
100
AcDbEntity
  8
RACCORDO
100
AcDbLine
 62
250
  6
CONTINUOUS
 10
18.2239333435
 20
-4.5055818597
 11
18.1786122018
 21
-4.5056883163
  0
LINE
  5
276
100
AcDbEntity
  8
RACCORDO
100
AcDbLine
 62
7
  6
CONTINUOUS
 10
17.7459213206
 20
-4.941945052
 11
16.2661686097
 21
-4.941945052
  0
LINE
  5
277
100
AcDbEntity
  8
RACCORDO
100
AcDbLine
 62
7
  6
CONTINUOUS
 10
-16.2659912532
 20
-4.941945052
 11
-17.7459213207
 21
-4.941945052
  0
LINE
  5
278
100
AcDbEntity
  8
RACCORDO
100
AcDbLine
 62
250
  6
CONTINUOUS
 10
17.7006482742
 20
-4.461945052
 11
16.312440566
 21
-4.461945052
  0
LINE
  5
279
100
AcDbEntity
  8
RACCORDO
100
AcDbLine
 62
250
  6
CONTINUOUS
 10
-16.3123938988
 20
-4.461945052
 11
-17.7006485679
 21
-4.461945052
  0
LINE
  5
27A
100
AcDbEntity
  8
RACCORDO
100
AcDbLine
 62
250
  6
CONTINUOUS
 10
-18.1786122024
 20
-4.5056883089
 11
-18.2239333423
 21
-4.5055818723
  0
LINE
  5
27B
100
AcDbEntity
  8
RACCORDO
100
AcDbLine
 62
250
  6
CONTINUOUS
 10
16.0997113074
 20
-11.2060789166
 11
15.7152927984
 21
-11.1047938602
  0
LWPOLYLINE
  5
27C
100
AcDbEntity
  8
RACCORDO
100
AcDbPolyline
 62
250
  6
CONTINUOUS
 90
3
 70
0
 10
16.0997113074
 20
-11.2060789166
 10
16.0921626494
 20
-11.2039043759
 10
16.0479141533
 20
-11.1924879803
  0
LINE
  5
27D
100
AcDbEntity
  8
0
100
AcDbLine
 62
7
  6
CONTINUOUS
 10
0.0
 20
20.8925880462
 11
0.0
 21
19.7334770546
  0
LINE
  5
27E
100
AcDbEntity
  8
RACCORDO
100
AcDbLine
 62
7
  6
CONTINUOUS
 10
0.0
 20
-20.6904402313
 11
0.0
 21
19.7334770546
  0
LINE
  5
27F
100
AcDbEntity
  8
RACCORDO
100
AcDbLine
 62
7
  6
CONTINUOUS
 10
0.0
 20
20.8925880462
 11
0.0
 21
21.0492566364
  0
LINE
  5
280
100
AcDbEntity
  8
RACCORDO
100
AcDbLine
 62
250
  6
CONTINUOUS
 10
16.0921641063
 20
5.5200150391
 11
16.0997113074
 21
5.5221888128
  0
LINE
  5
281
100
AcDbEntity
  8
RACCORDO
100
AcDbLine
 62
250
  6
CONTINUOUS
 10
-17.7006642808
 20
-4.461945052
 11
-18.178612249
 21
-4.5056878007
  0
LINE
  5
282
100
AcDbEntity
  8
RACCORDO
100
AcDbLine
 62
250
  6
CONTINUOUS
 10
17.7006642808
 20
-1.221945052
 11
18.178612249
 21
-1.1782023034
  0
LINE
  5
283
100
AcDbEntity
  8
RACCORDO
100
AcDbLine
 62
250
  6
CONTINUOUS
 10
-18.2239333422
 20
-1.1783082304
 11
-18.1786122031
 21
-1.178201802
  0
LWPOLYLINE
  5
284
100
AcDbEntity
  8
0
100
AcDbPolyline
 62
7
  6
CONTINUOUS
 90
2
 70
0
 43
0.3500000087
 10
31.100000528
 20
-3.0709611954
 10
29.5999990631
 20
-3.0709611954
  0
LINE
  5
285
100
AcDbEntity
  8
RACCORDO
100
AcDbLine
 62
250
  6
CONTINUOUS
 10
17.7006381414
 20
-1.221945052
 11
16.3124279854
 21
-1.221945052
  0
LINE
  5
286
100
AcDbEntity
  8
RACCORDO
100
AcDbLine
 62
250
  6
CONTINUOUS
 10
-16.3124089113
 20
-1.221945052
 11
-17.700639569
 21
-1.221945052
  0
LINE
  5
287
100
AcDbEntity
  8
RACCORDO
100
AcDbLine
 62
7
  6
CONTINUOUS
 10
17.7459213205
 20
-0.741945052
 11
16.2660915496
 21
-0.741945052
  0
LINE
  5
288
100
AcDbEntity
  8
RACCORDO
100
AcDbLine
 62
7
  6
CONTINUOUS
 10
-16.2660685889
 20
-0.741945052
 11
-17.7459213207
 21
-0.741945052
  0
LINE
  5
289
100
AcDbEntity
  8
RACCORDO
100
AcDbLine
 62
250
  6
CONTINUOUS
 10
18.1786122018
 20
-1.1782017878
 11
18.2239333437
 21
-1.1783082469
  0
LINE
  5
28A
100
AcDbEntity
  8
RACCORDO
100
AcDbLine
 62
250
  6
CONTINUOUS
 10
17.7006642808
 20
-4.461945052
 11
18.178612249
 21
-4.5056878007
  0
LINE
  5
28B
100
AcDbEntity
  8
RACCORDO
100
AcDbLine
 62
250
  6
CONTINUOUS
 10
-17.7006642808
 20
-1.221945052
 11
-18.178612249
 21
-1.1782023034
  0
LINE
  5
28C
100
AcDbEntity
  8
RACCORDO
100
AcDbLine
 62
250
  6
CONTINUOUS
 10
15.7152927984
 20
5.4209035142
 11
16.1000000034
 21
5.5222646124
  0
LWPOLYLINE
  5
28D
100
AcDbEntity
  8
RACCORDO
100
AcDbPolyline
 62
250
  6
CONTINUOUS
 90
3
 70
0
 10
16.0121719886
 20
5.4992445763
 10
16.0479226033
 20
5.5086000953
 10
16.0921641063
 20
5.5200150391
  0
LINE
  5
28E
100
AcDbEntity
  8
RACCORDO
100
AcDbLine
 62
250
  6
CONTINUOUS
 10
15.8558986398
 20
5.4581867161
 11
15.9157120267
 21
5.4738091889
  0
LINE
  5
28F
100
AcDbEntity
  8
RACCORDO
100
AcDbLine
 62
250
  6
CONTINUOUS
 10
15.5433897777
 20
6.0665227739
 11
15.9317647857
 21
6.1618802971
  0
LINE
  5
290
100
AcDbEntity
  8
RACCORDO
100
AcDbLine
 62
250
  6
CONTINUOUS
 10
15.9237612143
 20
6.1601156271
 11
15.9314732397
 21
6.1618094064
  0
LINE
  5
291
100
AcDbEntity
  8
0
100
AcDbLine
 62
7
  6
CONTINUOUS
 10
16.0572548521
 20
0.728464948
 11
16.0399246934
 21
0.728464948
  0
LINE
  5
292
100
AcDbEntity
  8
RACCORDO
100
AcDbLine
 62
250
  6
CONTINUOUS
 10
-15.931473242
 20
6.1618094024
 11
-15.5432865323
 21
6.0666910116
  0
LINE
  5
293
100
AcDbEntity
  8
RACCORDO
100
AcDbLine
 62
250
  6
CONTINUOUS
 10
-16.0997113074
 20
5.5221888104
 11
-15.7152927984
 21
5.4207585121
  0
LINE
  5
294
100
AcDbEntity
  8
RACCORDO
100
AcDbLine
 62
250
  6
CONTINUOUS
 10
-15.8635502632
 20
5.4600189758
 11
-15.7152927984
 21
5.4207585121
  0
LINE
  5
295
100
AcDbEntity
  8
RACCORDO
100
AcDbLine
 62
7
  6
CONTINUOUS
 10
5.5854871188
 20
-19.8013843116
 11
5.5943768539
 21
-19.8463145626
  0
LINE
  5
296
100
AcDbEntity
  8
RACCORDO
100
AcDbLine
 62
7
  6
CONTINUOUS
 10
5.584189512
 20
-19.7943964281
 11
5.5854871188
 21
-19.8010094709
  0
LINE
  5
297
100
AcDbEntity
  8
RACCORDO
100
AcDbLine
 62
7
  6
CONTINUOUS
 10
5.5854871188
 20
-19.8013843116
 11
5.594376327
 21
-19.8476835252
  0
LINE
  5
298
100
AcDbEntity
  8
RACCORDO
100
AcDbLine
 62
7
  6
CONTINUOUS
 10
5.584189512
 20
-19.7943964281
 11
5.5854869661
 21
-19.8013834952
  0
LINE
  5
299
100
AcDbEntity
  8
ASSI
100
AcDbLine
 62
7
  6
CONTINUOUS
 10
5.3
 20
19.0845712047
 11
5.3
 21
18.534257005
  0
LINE
  5
29A
100
AcDbEntity
  8
ASSI
100
AcDbLine
 62
7
  6
CONTINUOUS
 10
6.05
 20
17.6371932083
 11
6.05
 21
17.0711723819
  0
LINE
  5
29B
100
AcDbEntity
  8
ASSI
100
AcDbLine
 62
7
  6
CONTINUOUS
 10
6.7
 20
16.2004986082
 11
6.7
 21
13.3845030681
  0
LINE
  5
29C
100
AcDbEntity
  8
RACCORDO
100
AcDbLine
 62
7
  6
CONTINUOUS
 10
6.6999999348
 20
13.3844573676
 11
6.7
 21
13.3845461929
  0
LINE
  5
29D
100
AcDbEntity
  8
RACCORDO
100
AcDbLine
 62
250
  6
CONTINUOUS
 10
15.3870047753
 20
5.4207899447
 11
15.7152927984
 21
5.4207899447
  0
LINE
  5
29E
100
AcDbEntity
  8
RACCORDO
100
AcDbLine
 62
250
  6
CONTINUOUS
 10
-15.3870047753
 20
5.4207899447
 11
-15.7152927984
 21
5.4207899447
  0
LWPOLYLINE
  5
29F
100
AcDbEntity
  8
0
100
AcDbPolyline
 62
7
  6
CONTINUOUS
 90
3
 70
0
 43
0.3500000087
 10
30.8142865723
 20
1.3576093811
 10
31.0285709732
 20
1.286181958
 10
31.3142849289
 20
1.1433249802
  0
LINE
  5
2A0
100
AcDbEntity
  8
RACCORDO
100
AcDbLine
 62
250
  6
CONTINUOUS
 10
15.3870047753
 20
-11.1046800487
 11
15.3870047753
 21
-8.8751723664
  0
LINE
  5
2A1
100
AcDbEntity
  8
RACCORDO
100
AcDbLine
 62
250
  6
CONTINUOUS
 10
15.3870047753
 20
3.1912429073
 11
15.3870047753
 21
5.4207899447
  0
LWPOLYLINE
  5
2A2
100
AcDbEntity
  8
0
100
AcDbPolyline
 62
7
  6
CONTINUOUS
 90
10
 70
0
 43
0.3500000087
 10
30.6000000397
 20
1.286181958
 10
30.7428570175
 20
1.3576093811
 10
30.8142865723
 20
1.3576093811
 10
30.9571435501
 20
1.2147524033
 10
30.9571435501
 20
1.1433249802
 10
30.8857139954
 20
1.0718954254
 10
30.8142865723
 20
1.0718954254
 10
30.6714295944
 20
1.1433249802
 10
30.6000000397
 20
1.2147524033
 10
30.6000000397
 20
1.286181958
  0
LWPOLYLINE
  5
2A3
100
AcDbEntity
  8
RACCORDO
100
AcDbPolyline
 62
7
  6
CONTINUOUS
 90
10
 70
0
 10
6.6675445209
 20
13.3457764063
 10
6.6805833172
 20
13.334300506
 10
6.7026829329
 20
13.3133793478
 10
6.7160065293
 20
13.299219468
 10
6.7219037097
 20
13.2921057166
 10
6.7216053217
 20
13.2927907749
 10
6.7153558555
 20
13.3051902218
 10
6.7065355956
 20
13.3311897283
 10
6.7004820235
 20
13.3695966066
 10
6.6999950741
 20
13.3843661587
  0
LINE
  5
2A4
100
AcDbEntity
  8
RACCORDO
100
AcDbLine
 62
250
  6
CONTINUOUS
 10
12.7466978297
 20
8.5557950271
 11
12.7435068734
 21
8.5612081482
  0
LINE
  5
2A5
100
AcDbEntity
  8
RACCORDO
100
AcDbLine
 62
250
  6
CONTINUOUS
 10
12.7466978297
 20
8.5557950271
 11
12.7437096832
 21
8.5609260751
  0
LWPOLYLINE
  5
2A6
100
AcDbEntity
  8
RACCORDO
100
AcDbPolyline
 62
7
  6
CONTINUOUS
 90
12
 70
0
 10
13.0279589094
 20
8.1384040997
 10
12.930050862
 20
8.3080423217
 10
12.8863046679
 20
8.3847159867
 10
12.8460892132
 20
8.455992926
 10
12.8096666865
 20
8.5214599358
 10
12.776917431
 20
8.5813466078
 10
12.7478964212
 20
8.6355407343
 10
12.7230527322
 20
8.6831219265
 10
12.7021540093
 20
8.7243801999
 10
12.6851915124
 20
8.7591216977
 10
12.6727273736
 20
8.7858021163
 10
12.6681184783
 20
8.7960640527
  0
LWPOLYLINE
  5
2A7
100
AcDbEntity
  8
0
100
AcDbPolyline
 62
7
  6
CONTINUOUS
 90
10
 70
0
 43
0.3500000087
 10
0.8571428663
 20
30.2983223297
 10
0.9285714218
 20
30.1554674835
 10
0.9285714218
 20
30.0840357971
 10
0.7857143107
 20
29.9411809509
 10
0.7142856886
 20
29.9411809509
 10
0.6428571331
 20
30.012608374
 10
0.6428571331
 20
30.0840357971
 10
0.7142856886
 20
30.2268949066
 10
0.7857143107
 20
30.2983223297
 10
0.8571428663
 20
30.2983223297
  0
LINE
  5
2A8
100
AcDbEntity
  8
RACCORDO
100
AcDbLine
 62
250
  6
CONTINUOUS
 10
16.2354522156
 20
-0.5980562866
 11
16.2333291795
 21
-0.5761328123
  0
LINE
  5
2A9
100
AcDbEntity
  8
RACCORDO
100
AcDbLine
 62
250
  6
CONTINUOUS
 10
15.7152927984
 20
-11.1046800487
 11
15.7152927984
 21
-7.797643463
  0
LINE
  5
2AA
100
AcDbEntity
  8
RACCORDO
100
AcDbLine
 62
250
  6
CONTINUOUS
 10
15.7152927984
 20
2.1138980799
 11
15.7152927984
 21
5.4207899447
  0
LINE
  5
2AB
100
AcDbEntity
  8
RACCORDO
100
AcDbLine
 62
7
  6
CONTINUOUS
 10
16.0997113074
 20
5.5221888128
 11
16.0997113074
 21
0.404805394
  0
LINE
  5
2AC
100
AcDbEntity
  8
RACCORDO
100
AcDbLine
 62
7
  6
CONTINUOUS
 10
16.0997113074
 20
-11.2060789166
 11
16.0997113074
 21
-6.0889848343
  0
LINE
  5
2AD
100
AcDbEntity
  8
RACCORDO
100
AcDbLine
 62
250
  6
CONTINUOUS
 10
17.7006642808
 20
-4.941945052
 11
17.7006642808
 21
-4.461945052
  0
LINE
  5
2AE
100
AcDbEntity
  8
RACCORDO
100
AcDbLine
 62
250
  6
CONTINUOUS
 10
17.7006642808
 20
-1.221945052
 11
17.7006642808
 21
-0.741945052
  0
LINE
  5
2AF
100
AcDbEntity
  8
RACCORDO
100
AcDbLine
 62
250
  6
CONTINUOUS
 10
16.2333291795
 20
-5.1077572917
 11
16.2354484649
 21
-5.0858735373
  0
LINE
  5
2B0
100
AcDbEntity
  8
RACCORDO
100
AcDbLine
 62
250
  6
CONTINUOUS
 10
16.2333291795
 20
-5.1077572917
 11
16.23572581
 21
-5.086007051
  0
LWPOLYLINE
  5
2B1
100
AcDbEntity
  8
RACCORDO
100
AcDbPolyline
 62
7
  6
CONTINUOUS
 90
10
 70
0
 10
16.2499364679
 20
-5.087276597
 10
16.2873787052
 20
-4.7520442984
 10
16.3340999144
 20
-4.2112310019
 10
16.3650393906
 20
-3.668749173
 10
16.3805313944
 20
-3.1243995173
 10
16.3808023651
 20
-2.5789920234
 10
16.3658498327
 20
-2.0343734231
 10
16.3354278494
 20
-1.4913549406
 10
16.289189152
 20
-0.9497359844
 10
16.2499362744
 20
-0.5966087685
  0
LWPOLYLINE
  5
2B2
100
AcDbEntity
  8
RACCORDO
100
AcDbPolyline
 62
7
  6
CONTINUOUS
 90
14
 70
0
 10
12.6595606441
 20
-14.5000185368
 10
12.6590143545
 20
-14.5015312974
 10
12.6599548866
 20
-14.4991409727
 10
12.6648089252
 20
-14.4875270151
 10
12.6734035354
 20
-14.4682088289
 10
12.6861215122
 20
-14.4410675877
 10
12.7033141252
 20
-14.4059416136
 10
12.7244184325
 20
-14.3643603003
 10
12.7494404636
 20
-14.3165142232
 10
12.7786063829
 20
-14.262118973
 10
12.8114796661
 20
-14.2020660738
 10
12.8480088263
 20
-14.1364592924
 10
12.8883081698
 20
-14.0650772727
 10
12.9321179516
 20
-13.988326741
  0
LWPOLYLINE
  5
2B3
100
AcDbEntity
  8
RACCORDO
100
AcDbPolyline
 62
7
  6
CONTINUOUS
 90
41
 70
0
 10
13.396793484
 20
-13.1863491954
 10
13.4669638946
 20
-13.0637357909
 10
13.5392691053
 20
-12.9364143987
 10
13.6135807694
 20
-12.8043757849
 10
13.6896558489
 20
-12.6678064448
 10
13.7673153214
 20
-12.5267735782
 10
13.8464174025
 20
-12.3812683153
 10
13.9267675627
 20
-12.2313702028
 10
14.008180296
 20
-12.0771589663
 10
14.0905244335
 20
-11.9186330763
 10
14.1736887924
 20
-11.755743655
 10
14.2575053139
 20
-11.588542387
 10
14.3418107498
 20
-11.4170638752
 10
14.426494039
 20
-11.2412240556
 10
14.5113790998
 20
-11.061057758
 10
14.5962725044
 20
-10.8766270232
 10
14.6810425663
 20
-10.6878771663
 10
14.7655265079
 20
-10.4948650517
 10
14.849572161
 20
-10.2976230257
 10
14.9330785418
 20
-10.0960489825
 10
15.015872642
 20
-9.8901959058
 10
15.0977762472
 20
-9.680121065
 10
15.1786644653
 20
-9.4657280454
 10
15.2583459061
 20
-9.2470725933
 10
15.3366246448
 20
-9.0242314275
 10
15.4133838214
 20
-8.7971250132
 10
15.4884606252
 20
-8.5658126402
 10
15.5616922535
 20
-8.3303467484
 10
15.6329547588
 20
-8.0906362326
 10
15.7020686276
 20
-7.846750246
 10
15.768849032
 20
-7.5987671491
 10
15.8331451997
 20
-7.3466164258
 10
15.8947604953
 20
-7.0903858117
 10
15.9535238524
 20
-6.8301503493
 10
16.0093078645
 20
-6.5658254656
 10
16.0619433287
 20
-6.2974916865
 10
16.1112592205
 20
-6.0252319121
 10
16.1571073131
 20
-5.7489741449
 10
16.1993108647
 20
-5.4687635032
 10
16.237672948
 20
-5.1847622222
 10
16.2498241966
 20
-5.0872195926
  0
LINE
  5
2B4
100
AcDbEntity
  8
RACCORDO
100
AcDbLine
 62
7
  6
CONTINUOUS
 10
12.9321179516
 20
-13.988326741
 11
13.0300910946
 21
-13.8186190075
  0
LINE
  5
2B5
100
AcDbEntity
  8
RACCORDO
100
AcDbLine
 62
7
  6
CONTINUOUS
 10
13.2635568756
 20
-13.4171167752
 11
13.396793484
 21
-13.1863491954
  0
LINE
  5
2B6
100
AcDbEntity
  8
RACCORDO
100
AcDbLine
 62
7
  6
CONTINUOUS
 10
13.0300910946
 20
-13.8186190075
 11
13.2635568756
 21
-13.4171167752
  0
LWPOLYLINE
  5
2B7
100
AcDbEntity
  8
RACCORDO
100
AcDbPolyline
 62
7
  6
CONTINUOUS
 90
43
 70
0
 10
16.2498234306
 20
-0.5966645999
 10
16.2397416971
 20
-0.5154435198
 10
16.2015174417
 20
-0.2306189468
 10
16.1594260771
 20
0.0503983223
 10
16.1136660839
 20
0.3274443941
 10
16.0644155996
 20
0.600473971
 10
16.0118239641
 20
0.8695603364
 10
15.9560634946
 20
1.13461984
 10
15.897304654
 20
1.3955713069
 10
15.8356756368
 20
1.6525008493
 10
15.7713481725
 20
1.9053332095
 10
15.7045200802
 20
2.1539800634
 10
15.6353430424
 20
2.3985132142
 10
15.5640031531
 20
2.6388536936
 10
15.490681157
 20
2.8749317959
 10
15.4155016271
 20
3.1068400229
 10
15.338628432
 20
3.3345255039
 10
15.2602254285
 20
3.5579285181
 10
15.1804096721
 20
3.777130089
 10
15.0993780855
 20
3.9920530511
 10
15.017323325
 20
4.2026411829
 10
14.9343708044
 20
4.4089922381
 10
14.8506998784
 20
4.6110484353
 10
14.7664846442
 20
4.8087563524
 10
14.6818263669
 20
5.0022194676
 10
14.5968781578
 20
5.1914050702
 10
14.5118037705
 20
5.3762558121
 10
14.4267352772
 20
5.5568274193
 10
14.3418673326
 20
5.7330572872
 10
14.2573771717
 20
5.9049101395
 10
14.1733762367
 20
6.0724710607
 10
14.0900287375
 20
6.2357051872
 10
14.0075039594
 20
6.3945600236
 10
13.9259138607
 20
6.5490844637
 10
13.8453896311
 20
6.699281507
 10
13.7661192519
 20
6.8450688317
 10
13.6883014635
 20
6.9863609956
 10
13.6120796364
 20
7.1231657866
 10
13.537633212
 20
7.2554169481
 10
13.4652074369
 20
7.3829256799
 10
13.3949315166
 20
7.5057011916
 10
13.3269536255
 20
7.6237093585
 10
13.0279589094
 20
8.1384040997
  0
LINE
  5
2B8
100
AcDbEntity
  8
RACCORDO
100
AcDbLine
 62
250
  6
CONTINUOUS
 10
16.2357301041
 20
-0.5979222136
 11
16.2333291795
 21
-0.5761328123
  0
LWPOLYLINE
  5
2B9
100
AcDbEntity
  8
0
100
AcDbPolyline
 62
7
  6
CONTINUOUS
 90
3
 70
0
 43
0.3500000087
 10
28.9571437286
 20
2.3576103577
 10
28.0999997299
 20
3.2147522247
 10
31.100000528
 20
3.2147522247
  0
LWPOLYLINE
  5
2BA
100
AcDbEntity
  8
0
100
AcDbPolyline
 62
7
  6
CONTINUOUS
 90
6
 70
0
 43
0.3500000087
 10
-4.285714398
 20
29.7983218414
 10
-3.2142857319
 20
29.7983218414
 10
-2.9999999987
 20
30.012608374
 10
-2.9999999987
 20
31.0840367737
 10
-3.4285714651
 20
31.5126098389
 10
-3.8571429316
 20
31.5126098389
  0
LWPOLYLINE
  5
2BB
100
AcDbEntity
  8
0
100
AcDbPolyline
 62
7
  6
CONTINUOUS
 90
3
 70
0
 43
0.3500000087
 10
30.4571430618
 20
-2.5709617729
 10
30.4571430618
 20
-4.0709611061
 10
28.0999997299
 20
-3.4281047058
  0
LWPOLYLINE
  5
2BC
100
AcDbEntity
  8
0
100
AcDbPolyline
 62
7
  6
CONTINUOUS
 90
7
 70
0
 43
0.3500000087
 10
31.100000528
 20
-0.2138195068
 10
31.100000528
 20
-1.71381884
 10
28.9571437286
 20
-0.2138195068
 10
28.5285706635
 20
-0.2138195068
 10
28.0999997299
 20
-0.6423904404
 10
28.0999997299
 20
-1.2852479065
 10
28.742857196
 20
-1.71381884
  0
LINE
  5
2BD
100
AcDbEntity
  8
RACCORDO
100
AcDbLine
 62
250
  6
CONTINUOUS
 10
-92.7503851991
 20
-16.8652401502
 11
-92.7503851991
 21
11.1813500461
  0
LINE
  5
2BE
100
AcDbEntity
  8
RACCORDO
100
AcDbLine
 62
250
  6
CONTINUOUS
 10
-90.2454962739
 20
-19.2326400146
 11
-90.2454962739
 21
-5.1077572917
  0
LINE
  5
2BF
100
AcDbEntity
  8
RACCORDO
100
AcDbLine
 62
250
  6
CONTINUOUS
 10
-90.2454962739
 20
-0.5761328123
 11
-90.2454962739
 21
13.5487499106
  0
LWPOLYLINE
  5
2C0
100
AcDbEntity
  8
0
100
AcDbPolyline
 62
7
  6
CONTINUOUS
 90
3
 70
0
 43
0.3500000087
 10
-63.3944300873
 20
41.9411798798
 10
-62.5372882202
 20
42.7983217468
 10
-62.5372882202
 20
39.7983230804
  0
LWPOLYLINE
  5
2C1
100
AcDbEntity
  8
0
100
AcDbPolyline
 62
7
  6
CONTINUOUS
 90
5
 70
0
 43
0.3500000087
 10
-76.5622848633
 20
31.5126098389
 10
-76.2051477478
 20
31.7268921082
 10
-76.2051477478
 20
32.3697517059
 10
-76.5622848633
 20
32.7983205078
 10
-77.4194309937
 20
32.7983205078
  0
LINE
  5
2C2
100
AcDbEntity
  8
RACCORDO
100
AcDbLine
 62
7
  6
CONTINUOUS
 10
-89.2435420458
 20
14.4664109862
 11
-89.1313485107
 21
14.047699013
  0
LINE
  5
2C3
100
AcDbEntity
  8
0
100
AcDbLine
 62
7
  6
CONTINUOUS
 10
-82.6145276143
 20
0.059040948
 11
-82.6145276143
 21
0.909114948
  0
LINE
  5
2C4
100
AcDbEntity
  8
0
100
AcDbLine
 62
7
  6
CONTINUOUS
 10
-82.6145276143
 20
2.840399948
 11
-82.6145276143
 21
4.830886948
  0
LINE
  5
2C5
100
AcDbEntity
  8
0
100
AcDbLine
 62
7
  6
CONTINUOUS
 10
-82.6145166143
 20
-11.875586052
 11
-82.6145166143
 21
-11.025544052
  0
LINE
  5
2C6
100
AcDbEntity
  8
0
100
AcDbLine
 62
7
  6
CONTINUOUS
 10
-82.6145166143
 20
-9.146374052
 11
-82.6145166143
 21
-8.296332052
  0
LINE
  5
2C7
100
AcDbEntity
  8
0
100
AcDbLine
 62
7
  6
CONTINUOUS
 10
-82.6145166143
 20
-7.729648052
 11
-82.6145166143
 21
-6.879616052
  0
LINE
  5
2C8
100
AcDbEntity
  8
0
100
AcDbLine
 62
7
  6
CONTINUOUS
 10
-82.6145166143
 20
-6.029616052
 11
-82.6145166143
 21
-4.744596052
  0
LINE
  5
2C9
100
AcDbEntity
  8
0
100
AcDbLine
 62
7
  6
CONTINUOUS
 10
-82.6145166143
 20
-3.157243052
 11
-82.6145166143
 21
-1.872223052
  0
LINE
  5
2CA
100
AcDbEntity
  8
0
100
AcDbLine
 62
7
  6
CONTINUOUS
 10
-81.8282456143
 20
3.678712948
 11
-81.8282456143
 21
4.712903948
  0
LINE
  5
2CB
100
AcDbEntity
  8
0
100
AcDbLine
 62
7
  6
CONTINUOUS
 10
-80.7939866143
 20
3.678722948
 11
-80.7939866143
 21
4.712903948
  0
LINE
  5
2CC
100
AcDbEntity
  8
0
100
AcDbLine
 62
7
  6
CONTINUOUS
 10
-80.0077046143
 20
3.690537948
 11
-80.0076936143
 21
4.432428948
  0
LINE
  5
2CD
100
AcDbEntity
  8
0
100
AcDbLine
 62
7
  6
CONTINUOUS
 10
-80.0076936143
 20
0.072130948
 11
-80.0076936143
 21
0.896035948
  0
LINE
  5
2CE
100
AcDbEntity
  8
RACCORDO
100
AcDbLine
 62
7
  6
CONTINUOUS
 10
-89.00065142
 20
16.0713379783
 11
-88.8489865963
 21
15.5053171505
  0
LINE
  5
2CF
100
AcDbEntity
  8
RACCORDO
100
AcDbLine
 62
7
  6
CONTINUOUS
 10
-88.6640308175
 20
17.7128302657
 11
-88.5165745713
 21
17.162516063
  0
LINE
  5
2D0
100
AcDbEntity
  8
0
100
AcDbLine
 62
7
  6
CONTINUOUS
 10
-79.2001626143
 20
-0.187151052
 11
-79.2001626143
 21
1.155327948
  0
LINE
  5
2D1
100
AcDbEntity
  8
0
100
AcDbLine
 62
7
  6
CONTINUOUS
 10
-78.3643146143
 20
-10.510996052
 11
-78.3643256143
 21
-9.660933052
  0
LINE
  5
2D2
100
AcDbEntity
  8
0
100
AcDbLine
 62
7
  6
CONTINUOUS
 10
-78.3643146143
 20
-7.729658052
 11
-78.3643256143
 21
-6.879626052
  0
LINE
  5
2D3
100
AcDbEntity
  8
0
100
AcDbLine
 62
7
  6
CONTINUOUS
 10
-78.3643256143
 20
-4.375930052
 11
-78.3643356143
 21
-3.525919052
  0
LINE
  5
2D4
100
AcDbEntity
  8
0
100
AcDbLine
 62
7
  6
CONTINUOUS
 10
-78.3643356143
 20
1.423672948
 11
-78.3643256143
 21
2.273715948
  0
LINE
  5
2D5
100
AcDbEntity
  8
0
100
AcDbLine
 62
7
  6
CONTINUOUS
 10
-78.3643256143
 20
-1.305539052
 11
-78.3643356143
 21
-0.455507052
  0
LINE
  5
2D6
100
AcDbEntity
  8
0
100
AcDbLine
 62
7
  6
CONTINUOUS
 10
-78.3643356143
 20
2.840399948
 11
-78.3643356143
 21
3.690442948
  0
LINE
  5
2D7
100
AcDbEntity
  8
0
100
AcDbLine
 62
7
  6
CONTINUOUS
 10
-78.3643256143
 20
-6.029616052
 11
-78.3643256143
 21
-5.179584052
  0
LINE
  5
2D8
100
AcDbEntity
  8
0
100
AcDbLine
 62
7
  6
CONTINUOUS
 10
-78.3643256143
 20
-2.722255052
 11
-78.3643256143
 21
-1.872223052
  0
LINE
  5
2D9
100
AcDbEntity
  8
0
100
AcDbLine
 62
7
  6
CONTINUOUS
 10
-78.3643356143
 20
5.284266948
 11
-78.3643466143
 21
6.241695948
  0
LWPOLYLINE
  5
2DA
100
AcDbEntity
  8
0
100
AcDbPolyline
 62
7
  6
CONTINUOUS
 90
4
 70
0
 43
0.3500000087
 10
-75.2765741943
 20
30.2268949066
 10
-75.2765741943
 20
31.0840367737
 10
-74.8480011292
 20
31.5126098389
 10
-74.2051457947
 20
31.5126098389
  0
LINE
  5
2DB
100
AcDbEntity
  8
RACCORDO
100
AcDbLine
 62
7
  6
CONTINUOUS
 10
-75.1694316143
 20
15.0065501272
 11
-75.1694316143
 21
14.1587666347
  0
LINE
  5
2DC
100
AcDbEntity
  8
RACCORDO
100
AcDbLine
 62
7
  6
CONTINUOUS
 10
-75.1694316143
 20
-20.6904402313
 11
-75.1694316143
 21
-19.8426567387
  0
LINE
  5
2DD
100
AcDbEntity
  8
DRAFT
100
AcDbLine
 62
7
  6
CONTINUOUS
 10
-75.1694316143
 20
-20.6904402313
 11
-75.1694316143
 21
-19.7943964281
  0
LINE
  5
2DE
100
AcDbEntity
  8
RACCORDO
100
AcDbLine
 62
250
  6
CONTINUOUS
 10
-75.1694316143
 20
-19.7943964281
 11
-75.1694316143
 21
-13.4536616104
  0
LINE
  5
2DF
100
AcDbEntity
  8
RACCORDO
100
AcDbLine
 62
250
  6
CONTINUOUS
 10
-75.1694316143
 20
7.7697715064
 11
-75.1694316143
 21
14.110506324
  0
LINE
  5
2E0
100
AcDbEntity
  8
DRAFT
100
AcDbLine
 62
7
  6
CONTINUOUS
 10
-75.1694316143
 20
14.110506324
 11
-75.1694316143
 21
15.0065501272
  0
LINE
  5
2E1
100
AcDbEntity
  8
RACCORDO
100
AcDbLine
 62
250
  6
CONTINUOUS
 10
-74.5164530539
 20
-11.1046800487
 11
-74.5164530539
 21
5.4207899447
  0
LINE
  5
2E2
100
AcDbEntity
  8
RACCORDO
100
AcDbLine
 62
250
  6
CONTINUOUS
 10
-73.7084669822
 20
-11.1046800487
 11
-73.7084669822
 21
5.4207899447
  0
LINE
  5
2E3
100
AcDbEntity
  8
DRAFT
100
AcDbLine
 62
7
  6
CONTINUOUS
 10
-73.1694316143
 20
15.0966416735
 11
-73.1694316143
 21
15.0157508791
  0
LINE
  5
2E4
100
AcDbEntity
  8
DRAFT
100
AcDbLine
 62
7
  6
CONTINUOUS
 10
-73.1694316143
 20
-20.7805317776
 11
-73.1694316143
 21
-20.6996409831
  0
LWPOLYLINE
  5
2E5
100
AcDbEntity
  8
0
100
AcDbPolyline
 62
7
  6
CONTINUOUS
 90
3
 70
0
 43
0.3500000087
 10
-64.3944310638
 20
40.0840370361
 10
-64.4658584869
 20
39.8697505035
 10
-64.6087175964
 20
39.5840365479
  0
LINE
  5
2E6
100
AcDbEntity
  8
RACCORDO
100
AcDbLine
 62
7
  6
CONTINUOUS
 10
-78.4252170588
 20
20.4563121438
 11
-78.2777608126
 21
19.9059979411
  0
LINE
  5
2E7
100
AcDbEntity
  8
RACCORDO
100
AcDbLine
 62
7
  6
CONTINUOUS
 10
-77.3129489219
 20
19.203048424
 11
-77.1612840982
 21
18.6370275962
  0
LINE
  5
2E8
100
AcDbEntity
  8
RACCORDO
100
AcDbLine
 62
7
  6
CONTINUOUS
 10
-76.3001359736
 20
17.9345861906
 11
-75.573773086
 21
15.2237629896
  0
LINE
  5
2E9
100
AcDbEntity
  8
0
100
AcDbLine
 62
7
  6
CONTINUOUS
 10
-67.7017709859
 20
0.218464948
 11
-67.7017709859
 21
-1.2700715079
  0
LWPOLYLINE
  5
2EA
100
AcDbEntity
  8
0
100
AcDbPolyline
 62
7
  6
CONTINUOUS
 90
4
 70
0
 43
0.3500000087
 10
-67.4658614166
 20
42.1554664124
 10
-67.4658614166
 20
42.7983217468
 10
-65.9658599518
 20
42.7983217468
 10
-66.8230018188
 20
39.7983230804
  0
LINE
  5
2EB
100
AcDbEntity
  8
0
100
AcDbLine
 62
7
  6
CONTINUOUS
 10
-66.9370682521
 20
0.218464948
 11
-66.9370682521
 21
-1.270071052
  0
LINE
  5
2EC
100
AcDbEntity
  8
0
100
AcDbLine
 62
7
  6
CONTINUOUS
 10
-78.3643466143
 20
6.241695948
 11
-80.1099202931
 21
5.3368805594
  0
LINE
  5
2ED
100
AcDbEntity
  8
SUPERFICI
100
AcDbLine
 62
7
  6
CONTINUOUS
 10
-73.1694316143
 20
-20.7805317776
 11
-75.1694316143
 21
-20.6904402313
  0
LINE
  5
2EE
100
AcDbEntity
  8
RACCORDO
100
AcDbLine
 62
7
  6
CONTINUOUS
 10
-62.6694316143
 20
-4.461945052
 11
-62.6694316143
 21
-1.221945052
  0
LINE
  5
2EF
100
AcDbEntity
  8
RACCORDO
100
AcDbLine
 62
250
  6
CONTINUOUS
 10
-62.1966642935
 20
-4.5056878007
 11
-62.1966642935
 21
-1.1782023034
  0
LINE
  5
2F0
100
AcDbEntity
  8
0
100
AcDbLine
 62
7
  6
CONTINUOUS
 10
-78.3643356143
 20
5.284266948
 11
-80.0076936143
 21
4.432428948
  0
LINE
  5
2F1
100
AcDbEntity
  8
RACCORDO
100
AcDbLine
 62
7
  6
CONTINUOUS
 10
-75.0207405947
 20
-19.8013843116
 11
-74.0020778512
 21
-19.8463145626
  0
LINE
  5
2F2
100
AcDbEntity
  8
RACCORDO
100
AcDbLine
 62
7
  6
CONTINUOUS
 10
-75.0207405947
 20
-19.8013843116
 11
-74.002138229
 21
-19.8476835252
  0
LINE
  5
2F3
100
AcDbEntity
  8
0
100
AcDbLine
 62
7
  6
CONTINUOUS
 10
-79.6880306143
 20
-10.085954052
 11
-82.6145166143
 21
-9.146374052
  0
LINE
  5
2F4
100
AcDbEntity
  8
0
100
AcDbLine
 62
7
  6
CONTINUOUS
 10
-78.3643256143
 20
-9.660933052
 11
-82.6145166143
 21
-8.296332052
  0
LINE
  5
2F5
100
AcDbEntity
  8
0
100
AcDbLine
 62
7
  6
CONTINUOUS
 10
-55.9194316143
 20
12.5542073707
 11
-56.0747230414
 21
11.9746518749
  0
LINE
  5
2F6
100
AcDbEntity
  8
0
100
AcDbLine
 62
7
  6
CONTINUOUS
 10
-55.9194316143
 20
-18.1380974747
 11
-56.1694316143
 21
-18.2050847728
  0
LINE
  5
2F7
100
AcDbEntity
  8
0
100
AcDbLine
 62
7
  6
CONTINUOUS
 10
-55.9194316143
 20
-18.1380974747
 11
-56.0747230414
 21
-17.558541979
  0
LINE
  5
2F8
100
AcDbEntity
  8
RACCORDO
100
AcDbLine
 62
250
  6
CONTINUOUS
 10
-56.6494316143
 20
-4.941945052
 11
-56.6500083064
 21
-4.5055820903
  0
LINE
  5
2F9
100
AcDbEntity
  8
RACCORDO
100
AcDbLine
 62
250
  6
CONTINUOUS
 10
-56.6700573966
 20
15.3644323957
 11
-56.6700573966
 21
14.5323537008
  0
LINE
  5
2FA
100
AcDbEntity
  8
RACCORDO
100
AcDbLine
 62
250
  6
CONTINUOUS
 10
-56.6700573966
 20
-20.2162438048
 11
-56.6700573966
 21
-21.0483224998
  0
LINE
  5
2FB
100
AcDbEntity
  8
RACCORDO
100
AcDbLine
 62
250
  6
CONTINUOUS
 10
-56.6500083064
 20
14.5323217392
 11
-56.650008315
 21
-0.7419450506
  0
LINE
  5
2FC
100
AcDbEntity
  8
RACCORDO
100
AcDbLine
 62
250
  6
CONTINUOUS
 10
-56.6500083064
 20
-1.1783080138
 11
-56.6500083064
 21
-4.5055820903
  0
LINE
  5
2FD
100
AcDbEntity
  8
RACCORDO
100
AcDbLine
 62
250
  6
CONTINUOUS
 10
-56.6500083064
 20
-20.2162118433
 11
-56.650008315
 21
-4.9419450534
  0
LINE
  5
2FE
100
AcDbEntity
  8
RACCORDO
100
AcDbLine
 62
7
  6
CONTINUOUS
 10
-56.1694316143
 20
14.8612519712
 11
-56.1694316143
 21
14.0242766514
  0
LINE
  5
2FF
100
AcDbEntity
  8
RACCORDO
100
AcDbLine
 62
7
  6
CONTINUOUS
 10
-56.1694316143
 20
-19.7081945257
 11
-56.1694316143
 21
-20.5451037338
  0
LINE
  5
300
100
AcDbEntity
  8
0
100
AcDbLine
 62
7
  6
CONTINUOUS
 10
-56.1694316143
 20
-19.7081945257
 11
-56.1694316143
 21
-11.2060789166
  0
LINE
  5
301
100
AcDbEntity
  8
RACCORDO
100
AcDbLine
 62
7
  6
CONTINUOUS
 10
-56.1694316143
 20
-11.6095319077
 11
-56.1694316143
 21
5.9256418037
  0
LINE
  5
302
100
AcDbEntity
  8
0
100
AcDbLine
 62
7
  6
CONTINUOUS
 10
-56.1694316143
 20
5.9256418037
 11
-56.1694316143
 21
14.0242766514
  0
LINE
  5
303
100
AcDbEntity
  8
0
100
AcDbLine
 62
7
  6
CONTINUOUS
 10
-56.1194316143
 20
8.008054948
 11
-56.1194316143
 21
2.9340250319
  0
LINE
  5
304
100
AcDbEntity
  8
0
100
AcDbLine
 62
7
  6
CONTINUOUS
 10
-56.1194316143
 20
2.9247208862
 11
-56.1194316143
 21
1.9080549495
  0
LINE
  5
305
100
AcDbEntity
  8
RACCORDO
100
AcDbLine
 62
250
  6
CONTINUOUS
 10
-56.6494316143
 20
-0.741945052
 11
-56.6500083064
 21
-1.1783080138
  0
LINE
  5
306
100
AcDbEntity
  8
0
100
AcDbLine
 62
7
  6
CONTINUOUS
 10
-78.3643256143
 20
2.273715948
 11
-82.6145276143
 21
0.909114948
  0
LINE
  5
307
100
AcDbEntity
  8
0
100
AcDbLine
 62
7
  6
CONTINUOUS
 10
-80.0076936143
 20
0.896035948
 11
-81.2908116143
 21
0.484072948
  0
LINE
  5
308
100
AcDbEntity
  8
0
100
AcDbLine
 62
7
  6
CONTINUOUS
 10
-78.3643356143
 20
1.423672948
 11
-79.2001626143
 21
1.155327948
  0
LINE
  5
309
100
AcDbEntity
  8
0
100
AcDbLine
 62
7
  6
CONTINUOUS
 10
-56.0747230414
 20
-17.558541979
 11
-56.1694316143
 21
-17.5839190646
  0
LINE
  5
30A
100
AcDbEntity
  8
RACCORDO
100
AcDbLine
 62
250
  6
CONTINUOUS
 10
-56.6500083178
 20
-11.2060789166
 11
-56.1694316143
 21
-11.2060789166
  0
LINE
  5
30B
100
AcDbEntity
  8
RACCORDO
100
AcDbLine
 62
250
  6
CONTINUOUS
 10
-74.5164530539
 20
-11.1046800487
 11
-73.7084669822
 21
-11.1046800487
  0
LINE
  5
30C
100
AcDbEntity
  8
0
100
AcDbLine
 62
7
  6
CONTINUOUS
 10
-79.8466406143
 20
-3.950919052
 11
-82.6145166143
 21
-3.157243052
  0
LINE
  5
30D
100
AcDbEntity
  8
0
100
AcDbLine
 62
7
  6
CONTINUOUS
 10
-78.3643356143
 20
-3.525919052
 11
-81.1670406143
 21
-2.722266052
  0
LINE
  5
30E
100
AcDbEntity
  8
0
100
AcDbLine
 62
7
  6
CONTINUOUS
 10
-78.3643256143
 20
-1.305539052
 11
-82.6145276143
 21
0.059040948
  0
LINE
  5
30F
100
AcDbEntity
  8
0
100
AcDbLine
 62
7
  6
CONTINUOUS
 10
-78.3643356143
 20
-0.455507052
 11
-79.2001626143
 21
-0.187151052
  0
LINE
  5
310
100
AcDbEntity
  8
0
100
AcDbLine
 62
7
  6
CONTINUOUS
 10
-80.0076936143
 20
0.072130948
 11
-81.2908116143
 21
0.484072948
  0
LINE
  5
311
100
AcDbEntity
  8
0
100
AcDbLine
 62
7
  6
CONTINUOUS
 10
-78.3643146143
 20
-7.729658052
 11
-82.6145166143
 21
-7.729648052
  0
LINE
  5
312
100
AcDbEntity
  8
0
100
AcDbLine
 62
7
  6
CONTINUOUS
 10
-78.3643256143
 20
-6.879626052
 11
-82.6145166143
 21
-6.879616052
  0
LINE
  5
313
100
AcDbEntity
  8
0
100
AcDbLine
 62
7
  6
CONTINUOUS
 10
-79.8466406143
 20
-3.950919052
 11
-82.6145166143
 21
-4.744596052
  0
LINE
  5
314
100
AcDbEntity
  8
0
100
AcDbLine
 62
7
  6
CONTINUOUS
 10
-78.3643256143
 20
-4.375930052
 11
-81.1670406143
 21
-5.179584052
  0
LINE
  5
315
100
AcDbEntity
  8
0
100
AcDbLine
 62
7
  6
CONTINUOUS
 10
-78.3643256143
 20
-6.029616052
 11
-82.6145166143
 21
-6.029616052
  0
LINE
  5
316
100
AcDbEntity
  8
0
100
AcDbLine
 62
7
  6
CONTINUOUS
 10
-56.1694316143
 20
-5.241945052
 11
-38.9194316143
 21
-5.241945052
  0
LINE
  5
317
100
AcDbEntity
  8
0
100
AcDbLine
 62
7
  6
CONTINUOUS
 10
-78.3643256143
 20
-5.179584052
 11
-81.1670406143
 21
-5.179584052
  0
LINE
  5
318
100
AcDbEntity
  8
RACCORDO
100
AcDbLine
 62
7
  6
CONTINUOUS
 10
-56.6494316143
 20
-4.941945052
 11
-62.1894316143
 21
-4.941945052
  0
LINE
  5
319
100
AcDbEntity
  8
0
100
AcDbLine
 62
7
  6
CONTINUOUS
 10
-64.7831875396
 20
-3.606535052
 11
-65.553414126
 21
-3.606535052
  0
LINE
  5
31A
100
AcDbEntity
  8
0
100
AcDbLine
 62
7
  6
CONTINUOUS
 10
-69.085425112
 20
-3.606535052
 11
-69.8556516984
 21
-3.606535052
  0
LINE
  5
31B
100
AcDbEntity
  8
0
100
AcDbLine
 62
7
  6
CONTINUOUS
 10
-79.6880306143
 20
-10.085954052
 11
-82.6145166143
 21
-11.025544052
  0
LINE
  5
31C
100
AcDbEntity
  8
0
100
AcDbLine
 62
7
  6
CONTINUOUS
 10
-78.3643146143
 20
-10.510996052
 11
-82.6145166143
 21
-11.875586052
  0
LINE
  5
31D
100
AcDbEntity
  8
0
100
AcDbLine
 62
7
  6
CONTINUOUS
 10
-78.3643256143
 20
-2.722255052
 11
-81.1670406143
 21
-2.722266052
  0
LINE
  5
31E
100
AcDbEntity
  8
0
100
AcDbLine
 62
7
  6
CONTINUOUS
 10
-78.3643256143
 20
-1.872223052
 11
-82.6145166143
 21
-1.872223052
  0
LINE
  5
31F
100
AcDbEntity
  8
RACCORDO
100
AcDbLine
 62
7
  6
CONTINUOUS
 10
-62.1894316143
 20
-0.741945052
 11
-56.6494316143
 21
-0.741945052
  0
LINE
  5
320
100
AcDbEntity
  8
0
100
AcDbLine
 62
7
  6
CONTINUOUS
 10
-56.1694316143
 20
-0.441945052
 11
-38.9194316143
 21
-0.441945052
  0
LINE
  5
321
100
AcDbEntity
  8
0
100
AcDbLine
 62
7
  6
CONTINUOUS
 10
-66.9370682521
 20
0.218464948
 11
-67.7017709859
 21
0.218464948
  0
LWPOLYLINE
  5
322
100
AcDbEntity
  8
0
100
AcDbPolyline
 62
7
  6
CONTINUOUS
 90
10
 70
0
 43
0.3500000087
 10
-64.4658584869
 20
40.2983235687
 10
-64.3944310638
 20
40.1554644592
 10
-64.3944310638
 20
40.0840370361
 10
-64.5372901733
 20
39.9411779266
 10
-64.6087175964
 20
39.9411779266
 10
-64.6801450195
 20
40.012609613
 10
-64.6801450195
 20
40.0840370361
 10
-64.6087175964
 20
40.2268918823
 10
-64.5372901733
 20
40.2983235687
 10
-64.4658584869
 20
40.2983235687
  0
LINE
  5
323
100
AcDbEntity
  8
0
100
AcDbLine
 62
7
  6
CONTINUOUS
 10
-64.7831875396
 20
0.728464948
 11
-65.5534145757
 21
0.728464948
  0
LINE
  5
324
100
AcDbEntity
  8
0
100
AcDbLine
 62
7
  6
CONTINUOUS
 10
-69.085425112
 20
0.728464948
 11
-69.8556516984
 21
0.728464948
  0
LINE
  5
325
100
AcDbEntity
  8
0
100
AcDbLine
 62
7
  6
CONTINUOUS
 10
-56.1694316143
 20
1.9080549495
 11
-56.1194316143
 21
1.9080549495
  0
LINE
  5
326
100
AcDbEntity
  8
0
100
AcDbLine
 62
7
  6
CONTINUOUS
 10
-78.3643356143
 20
2.840399948
 11
-82.6145276143
 21
2.840399948
  0
LINE
  5
327
100
AcDbEntity
  8
0
100
AcDbLine
 62
7
  6
CONTINUOUS
 10
-56.1694316143
 20
2.9340249962
 11
-56.1194316143
 21
2.9340249962
  0
LINE
  5
328
100
AcDbEntity
  8
0
100
AcDbLine
 62
7
  6
CONTINUOUS
 10
-80.7939866143
 20
3.678722948
 11
-81.8282456143
 21
3.678712948
  0
LINE
  5
329
100
AcDbEntity
  8
0
100
AcDbLine
 62
7
  6
CONTINUOUS
 10
-78.3643356143
 20
3.690442948
 11
-80.0077046143
 21
3.690537948
  0
LINE
  5
32A
100
AcDbEntity
  8
0
100
AcDbLine
 62
7
  6
CONTINUOUS
 10
-38.9194316143
 20
-5.241945052
 11
-38.9194316143
 21
-0.441945052
  0
LINE
  5
32B
100
AcDbEntity
  8
RACCORDO
100
AcDbLine
 62
250
  6
CONTINUOUS
 10
-74.5164530539
 20
5.4207899447
 11
-73.7084669822
 21
5.4207899447
  0
LINE
  5
32C
100
AcDbEntity
  8
RACCORDO
100
AcDbLine
 62
250
  6
CONTINUOUS
 10
-56.1694316143
 20
5.5221888128
 11
-56.6500083177
 21
5.5221888128
  0
LINE
  5
32D
100
AcDbEntity
  8
0
100
AcDbLine
 62
7
  6
CONTINUOUS
 10
-56.1694316143
 20
6.8335290748
 11
-56.1194316143
 21
6.833528948
  0
LINE
  5
32E
100
AcDbEntity
  8
0
100
AcDbLine
 62
7
  6
CONTINUOUS
 10
-56.1694316143
 20
7.211227948
 11
-56.1194316143
 21
7.211227948
  0
LINE
  5
32F
100
AcDbEntity
  8
0
100
AcDbLine
 62
7
  6
CONTINUOUS
 10
-56.1694316143
 20
7.449010948
 11
-56.1194316143
 21
7.449010948
  0
LWPOLYLINE
  5
330
100
AcDbEntity
  8
0
100
AcDbPolyline
 62
7
  6
CONTINUOUS
 90
13
 70
0
 43
0.3500000087
 10
-74.8480011292
 20
31.5126098389
 10
-75.1337193481
 20
31.7268921082
 10
-75.1337193481
 20
32.3697517059
 10
-74.8480011292
 20
32.7983205078
 10
-74.2051457947
 20
32.7983205078
 10
-73.9194275757
 20
32.3697517059
 10
-73.9194275757
 20
31.7268921082
 10
-74.2051457947
 20
31.5126098389
 10
-73.7765727295
 20
31.0840367737
 10
-73.7765727295
 20
30.2268949066
 10
-74.2051457947
 20
29.7983218414
 10
-74.8480011292
 20
29.7983218414
 10
-75.2765741943
 20
30.2268949066
  0
LINE
  5
331
100
AcDbEntity
  8
0
100
AcDbLine
 62
7
  6
CONTINUOUS
 10
-56.1694316143
 20
8.008054948
 11
-56.1194316143
 21
8.008054948
  0
LINE
  5
332
100
AcDbEntity
  8
0
100
AcDbLine
 62
7
  6
CONTINUOUS
 10
-56.0747230414
 20
11.9746518749
 11
-56.1694316143
 21
12.0000289605
  0
LINE
  5
333
100
AcDbEntity
  8
0
100
AcDbLine
 62
7
  6
CONTINUOUS
 10
-55.9194316143
 20
12.5542073707
 11
-56.1694316143
 21
12.6211946688
  0
LINE
  5
334
100
AcDbEntity
  8
RACCORDO
100
AcDbLine
 62
7
  6
CONTINUOUS
 10
-74.0021382266
 20
14.1637934212
 11
-75.0207405947
 21
14.1174942075
  0
LINE
  5
335
100
AcDbEntity
  8
SUPERFICI
100
AcDbLine
 62
7
  6
CONTINUOUS
 10
-75.1694316143
 20
15.0065501272
 11
-73.1694316143
 21
15.0966416735
  0
LINE
  5
336
100
AcDbEntity
  8
RACCORDO
100
AcDbLine
 62
7
  6
CONTINUOUS
 10
-74.0020778488
 20
14.1624244587
 11
-75.0207405947
 21
14.1174942075
  0
LINE
  5
337
100
AcDbEntity
  8
RACCORDO
100
AcDbLine
 62
250
  6
CONTINUOUS
 10
-76.3001359789
 20
17.9345862103
 11
-89.243542051
 21
14.4664110055
  0
LINE
  5
338
100
AcDbEntity
  8
RACCORDO
100
AcDbLine
 62
250
  6
CONTINUOUS
 10
-88.9112848279
 20
15.3412793454
 11
-77.0253133444
 21
18.5261158057
  0
LINE
  5
339
100
AcDbEntity
  8
RACCORDO
100
AcDbLine
 62
250
  6
CONTINUOUS
 10
-88.8489865986
 20
15.505317159
 11
-77.1612841005
 21
18.6370276048
  0
LINE
  5
33A
100
AcDbEntity
  8
RACCORDO
100
AcDbLine
 62
250
  6
CONTINUOUS
 10
-77.3129489238
 20
19.2030484312
 11
-89.0006514219
 21
16.0713379853
  0
LINE
  5
33B
100
AcDbEntity
  8
RACCORDO
100
AcDbLine
 62
250
  6
CONTINUOUS
 10
-88.5930077589
 20
16.9902247901
 11
-78.125422094
 21
19.7950059157
  0
LINE
  5
33C
100
AcDbEntity
  8
RACCORDO
100
AcDbLine
 62
250
  6
CONTINUOUS
 10
-88.5165745721
 20
17.162516066
 11
-78.2777608134
 21
19.9059979441
  0
LINE
  5
33D
100
AcDbEntity
  8
RACCORDO
100
AcDbLine
 62
250
  6
CONTINUOUS
 10
-78.4252170588
 20
20.4563121438
 11
-88.6640308175
 21
17.7128302657
  0
LINE
  5
33E
100
AcDbEntity
  8
RACCORDO
100
AcDbLine
 62
7
  6
CONTINUOUS
 10
-79.4053179096
 20
21.0219158566
 11
-88.0980648929
 21
18.6927013225
  0
LWPOLYLINE
  5
33F
100
AcDbEntity
  8
0
100
AcDbPolyline
 62
7
  6
CONTINUOUS
 90
6
 70
0
 43
0.3500000087
 10
-77.4194309937
 20
29.7983218414
 10
-76.348002594
 20
29.7983218414
 10
-76.1337203247
 20
30.012608374
 10
-76.1337203247
 20
31.0840367737
 10
-76.5622848633
 20
31.5126098389
 10
-76.9908579285
 20
31.5126098389
  0
LWPOLYLINE
  5
340
100
AcDbEntity
  8
0
100
AcDbPolyline
 62
7
  6
CONTINUOUS
 90
8
 70
0
 43
0.3500000087
 10
-69.6087182159
 20
39.7983230804
 10
-68.7515763489
 20
39.7983230804
 10
-68.3230032837
 20
40.2268918823
 10
-68.3230032837
 20
41.0840380127
 10
-68.7515763489
 20
41.5126068146
 10
-69.6087182159
 20
41.5126068146
 10
-69.6087182159
 20
42.7983217468
 10
-68.3230032837
 20
42.7983217468
  0
ARC
  5
341
100
AcDbEntity
  8
RACCORDO
100
AcDbCircle
 62
250
  6
CONTINUOUS
 10
-37.1508252943
 20
-28.6216166999
 40
28.3266665558
100
AcDbArc
 50
30.2108338488
 51
30.6839170208
  0
ARC
  5
342
100
AcDbEntity
  8
RACCORDO
100
AcDbCircle
 62
7
  6
CONTINUOUS
 10
-9.3464934515
 20
-19.1039538371
 40
3.8251245602
100
AcDbArc
 50
348.1214072667
 51
349.4945631253
  0
ARC
  5
343
100
AcDbEntity
  8
RACCORDO
100
AcDbCircle
 62
7
  6
CONTINUOUS
 10
-6.5982643993
 20
-23.4730610561
 40
3.8120694156
100
AcDbArc
 50
72.2404094335
 51
73.2196314965
  0
ARC
  5
344
100
AcDbEntity
  8
RACCORDO
100
AcDbCircle
 62
250
  6
CONTINUOUS
 10
-14.4140827099
 20
-11.1040249568
 40
1.3012102534
100
AcDbArc
 50
180.0288454576
 51
209.7900137978
  0
ARC
  5
345
100
AcDbEntity
  8
RACCORDO
100
AcDbCircle
 62
7
  6
CONTINUOUS
 10
-14.7997122558
 20
-11.2060789238
 40
1.2999999999
100
AcDbArc
 50
179.9999996432
 51
209.4731876551
  0
ARC
  5
346
100
AcDbEntity
  8
RACCORDO
100
AcDbCircle
 62
250
  6
CONTINUOUS
 10
-17.6989897371
 20
-4.4613145287
 40
0.4816707808
100
AcDbArc
 50
185.2857911298
 51
195.1778220612
  0
ARC
  5
347
100
AcDbEntity
  8
RACCORDO
100
AcDbCircle
 62
250
  6
CONTINUOUS
 10
-17.6989897372
 20
-1.2225755754
 40
0.4816707808
100
AcDbArc
 50
164.8221779393
 51
174.7142088745
  0
ARC
  5
348
100
AcDbEntity
  8
RACCORDO
100
AcDbCircle
 62
7
  6
CONTINUOUS
 10
-17.7459213146
 20
-4.461945052
 40
0.48
100
AcDbArc
 50
185.2159931664
 51
269.9999995807
  0
ARC
  5
349
100
AcDbEntity
  8
RACCORDO
100
AcDbCircle
 62
7
  6
CONTINUOUS
 10
-17.7459213146
 20
-1.221945052
 40
0.48
100
AcDbArc
 50
90.0000004178
 51
174.7840068334
  0
ARC
  5
34A
100
AcDbEntity
  8
RACCORDO
100
AcDbCircle
 62
250
  6
CONTINUOUS
 10
-34.0574658286
 20
21.1194199832
 40
24.7385110342
100
AcDbArc
 50
329.2816270408
 51
329.8233152971
  0
ARC
  5
34B
100
AcDbEntity
  8
RACCORDO
100
AcDbCircle
 62
7
  6
CONTINUOUS
 10
-4.7184677959
 20
15.5427853407
 40
2.2402801543
100
AcDbArc
 50
126.497812694
 51
128.2519244793
  0
ARC
  5
34C
100
AcDbEntity
  8
RACCORDO
100
AcDbCircle
 62
250
  6
CONTINUOUS
 10
-14.4140827085
 20
5.4201348524
 40
1.3012102549
100
AcDbArc
 50
150.2099862192
 51
179.9711545251
  0
ARC
  5
34D
100
AcDbEntity
  8
RACCORDO
100
AcDbCircle
 62
7
  6
CONTINUOUS
 10
-14.7997122558
 20
5.5221888198
 40
1.2999999999
100
AcDbArc
 50
150.5268124497
 51
180.0000005554
  0
ARC
  5
34E
100
AcDbEntity
  8
RACCORDO
100
AcDbCircle
 62
250
  6
CONTINUOUS
 10
-5.8985560594
 20
12.3182682088
 40
1.2961383473
100
AcDbArc
 50
128.7722598983
 51
130.9261038105
  0
ARC
  5
34F
100
AcDbEntity
  8
RACCORDO
100
AcDbCircle
 62
7
  6
CONTINUOUS
 10
0.0
 20
-2.841945052
 40
18.2997113074
100
AcDbArc
 50
111.4812788887
 51
150.5268129617
  0
ARC
  5
350
100
AcDbEntity
  8
RACCORDO
100
AcDbCircle
 62
7
  6
CONTINUOUS
 10
0.0
 20
-2.841945052
 40
18.2997113074
100
AcDbArc
 50
174.7840067954
 51
185.2159932046
  0
ARC
  5
351
100
AcDbEntity
  8
RACCORDO
100
AcDbCircle
 62
7
  6
CONTINUOUS
 10
0.0
 20
-2.841945052
 40
18.2997113074
100
AcDbArc
 50
354.7840067954
 51
5.2159932046
  0
ARC
  5
352
100
AcDbEntity
  8
RACCORDO
100
AcDbCircle
 62
7
  6
CONTINUOUS
 10
0.0
 20
-2.841945052
 40
18.2997113074
100
AcDbArc
 50
29.4731870608
 51
68.5199350342
  0
ARC
  5
353
100
AcDbEntity
  8
RACCORDO
100
AcDbCircle
 62
7
  6
CONTINUOUS
 10
0.0
 20
-2.841945052
 40
18.2996867172
100
AcDbArc
 50
209.4731870515
 51
264.2115417218
  0
ARC
  5
354
100
AcDbEntity
  8
RACCORDO
100
AcDbCircle
 62
7
  6
CONTINUOUS
 10
0.0
 20
-2.841945052
 40
18.2996867172
100
AcDbArc
 50
275.7884582782
 51
330.5268129458
  0
ARC
  5
355
100
AcDbEntity
  8
RACCORDO
100
AcDbCircle
 62
250
  6
CONTINUOUS
 10
0.0
 20
-2.841945052
 40
18.254588005
100
AcDbArc
 50
174.7707443923
 51
185.2292556077
  0
ARC
  5
356
100
AcDbEntity
  8
RACCORDO
100
AcDbCircle
 62
250
  6
CONTINUOUS
 10
0.0
 20
-2.841945052
 40
18.254588005
100
AcDbArc
 50
354.7707443923
 51
5.2292556077
  0
ARC
  5
357
100
AcDbEntity
  8
DRAFT
100
AcDbCircle
 62
7
  6
CONTINUOUS
 10
0.0
 20
-2.841945052
 40
17.9385867256
100
AcDbArc
 50
264.5567735655
 51
275.4432264345
  0
ARC
  5
358
100
AcDbEntity
  8
RACCORDO
100
AcDbCircle
 62
250
  6
CONTINUOUS
 10
0.0
 20
-2.841945052
 40
17.8484951792
100
AcDbArc
 50
216.4801350729
 51
252.2698048591
  0
ARC
  5
359
100
AcDbEntity
  8
RACCORDO
100
AcDbCircle
 62
250
  6
CONTINUOUS
 10
0.0
 20
-2.841945052
 40
17.8484951792
100
AcDbArc
 50
112.055781383
 51
143.5198649271
  0
ARC
  5
35A
100
AcDbEntity
  8
RACCORDO
100
AcDbCircle
 62
7
  6
CONTINUOUS
 10
0.0
 20
-2.841945052
 40
17.8484951792
100
AcDbArc
 50
252.2698048591
 51
287.7301951409
  0
ARC
  5
35B
100
AcDbEntity
  8
DRAFT
100
AcDbCircle
 62
7
  6
CONTINUOUS
 10
0.0
 20
-2.841945052
 40
17.8484951792
100
AcDbArc
 50
270.0
 51
288.2320416287
  0
ARC
  5
35C
100
AcDbEntity
  8
RACCORDO
100
AcDbCircle
 62
250
  6
CONTINUOUS
 10
0.0
 20
-2.841945052
 40
17.8484951792
100
AcDbArc
 50
288.2320416287
 51
323.5198649271
  0
ARC
  5
35D
100
AcDbEntity
  8
RACCORDO
100
AcDbCircle
 62
250
  6
CONTINUOUS
 10
0.0
 20
-2.841945052
 40
17.8484951792
100
AcDbArc
 50
36.4801350729
 51
67.9455623301
  0
ARC
  5
35E
100
AcDbEntity
  8
RACCORDO
100
AcDbCircle
 62
250
  6
CONTINUOUS
 10
0.0
 20
-2.841945052
 40
17.7746424994
100
AcDbArc
 50
174.7707371323
 51
185.229260224
  0
ARC
  5
35F
100
AcDbEntity
  8
RACCORDO
100
AcDbCircle
 62
250
  6
CONTINUOUS
 10
0.0
 20
-2.841945052
 40
17.7746424994
100
AcDbArc
 50
354.7707396898
 51
5.2292632872
  0
ARC
  5
360
100
AcDbEntity
  8
RACCORDO
100
AcDbCircle
 62
250
  6
CONTINUOUS
 10
0.0
 20
-2.841945052
 40
16.3906949626
100
AcDbArc
 50
187.9458832938
 51
352.0541167062
  0
ARC
  5
361
100
AcDbEntity
  8
RACCORDO
100
AcDbCircle
 62
250
  6
CONTINUOUS
 10
0.0
 20
-2.841945052
 40
16.3906949626
100
AcDbArc
 50
7.9458832938
 51
172.0541167062
  0
CIRCLE
  5
362
100
AcDbEntity
  8
RACCORDO
100
AcDbCircle
 62
250
  6
CONTINUOUS
 10
0.0
 20
-2.841945052
 40
14.0232950982
  0
ARC
  5
363
100
AcDbEntity
  8
RACCORDO
100
AcDbCircle
 62
250
  6
CONTINUOUS
 10
0.0007368138
 20
5.0407497806
 40
15.9816684377
100
AcDbArc
 50
90.0026415465
 51
90.5910747376
  0
ARC
  5
364
100
AcDbEntity
  8
RACCORDO
100
AcDbCircle
 62
250
  6
CONTINUOUS
 10
1.0974840812
 20
-3.1880802964
 40
17.4368085624
100
AcDbArc
 50
185.6066902956
 51
186.2481585041
  0
ARC
  5
365
100
AcDbEntity
  8
RACCORDO
100
AcDbCircle
 62
250
  6
CONTINUOUS
 10
1.0955993002
 20
-2.4956115019
 40
17.4349133996
100
AcDbArc
 50
173.7518518533
 51
174.3909178822
  0
ARC
  5
366
100
AcDbEntity
  8
RACCORDO
100
AcDbCircle
 62
250
  6
CONTINUOUS
 10
28.3185124099
 20
-23.4456488364
 40
18.0895340769
100
AcDbArc
 50
149.4032640264
 51
150.1907583978
  0
ARC
  5
367
100
AcDbEntity
  8
RACCORDO
100
AcDbCircle
 62
250
  6
CONTINUOUS
 10
14.4140728931
 20
-11.104022343
 40
1.3012200716
100
AcDbArc
 50
330.2101010673
 51
359.9710396684
  0
ARC
  5
368
100
AcDbEntity
  8
RACCORDO
100
AcDbCircle
 62
7
  6
CONTINUOUS
 10
14.7997122552
 20
-11.2060789272
 40
1.2999999999
100
AcDbArc
 50
330.5268125678
 51
0.0000005462
  0
ARC
  5
369
100
AcDbEntity
  8
RACCORDO
100
AcDbCircle
 62
7
  6
CONTINUOUS
 10
17.7459213144
 20
-1.221945052
 40
0.48
100
AcDbArc
 50
5.2159931642
 51
89.9999995554
  0
ARC
  5
36A
100
AcDbEntity
  8
RACCORDO
100
AcDbCircle
 62
7
  6
CONTINUOUS
 10
17.7459213144
 20
-4.461945052
 40
0.48
100
AcDbArc
 50
270.0000004402
 51
354.7840068354
  0
ARC
  5
36B
100
AcDbEntity
  8
RACCORDO
100
AcDbCircle
 62
250
  6
CONTINUOUS
 10
-0.0000005075
 20
39.1101110853
 40
23.7688317399
100
AcDbArc
 50
270.0000012233
 51
270.1822108736
  0
ARC
  5
36C
100
AcDbEntity
  8
RACCORDO
100
AcDbCircle
 62
250
  6
CONTINUOUS
 10
0.0007267746
 20
34.6875426853
 40
15.9953299208
100
AcDbArc
 50
269.4115715538
 51
269.9973966704
  0
ARC
  5
36D
100
AcDbEntity
  8
RACCORDO
100
AcDbCircle
 62
7
  6
CONTINUOUS
 10
-3.8994203484
 20
16.6329075125
 40
2.5965006302
100
AcDbArc
 50
122.6745050509
 51
124.4438236254
  0
ARC
  5
36E
100
AcDbEntity
  8
RACCORDO
100
AcDbCircle
 62
7
  6
CONTINUOUS
 10
3.9011859059
 20
16.6357826715
 40
2.5931271566
100
AcDbArc
 50
55.5063142404
 51
57.3238807812
  0
ARC
  5
36F
100
AcDbEntity
  8
RACCORDO
100
AcDbCircle
 62
7
  6
CONTINUOUS
 10
4.7200922226
 20
15.5447918751
 40
2.2376891017
100
AcDbArc
 50
51.6399009509
 51
53.5036185446
  0
ARC
  5
370
100
AcDbEntity
  8
RACCORDO
100
AcDbCircle
 62
250
  6
CONTINUOUS
 10
14.4140882178
 20
5.4201363192
 40
1.3012047448
100
AcDbArc
 50
0.0287810063
 51
29.7900782562
  0
ARC
  5
371
100
AcDbEntity
  8
RACCORDO
100
AcDbCircle
 62
7
  6
CONTINUOUS
 10
14.7997122555
 20
5.5221888233
 40
1.2999999999
100
AcDbArc
 50
0.0000000717
 51
29.4731876395
  0
ARC
  5
372
100
AcDbEntity
  8
RACCORDO
100
AcDbCircle
 62
7
  6
CONTINUOUS
 10
-57.2608624114
 20
-365.3853263734
 40
379.9181552029
100
AcDbArc
 50
90.1997569471
 51
92.5255838171
  0
ARC
  5
373
100
AcDbEntity
  8
RACCORDO
100
AcDbCircle
 62
7
  6
CONTINUOUS
 10
-57.2625175181
 20
-365.3261680508
 40
379.8589836151
100
AcDbArc
 50
89.9076125366
 51
92.7019789743
  0
ARC
  5
374
100
AcDbEntity
  8
RACCORDO
100
AcDbCircle
 62
7
  6
CONTINUOUS
 10
-57.2645813084
 20
-364.7645707198
 40
379.2973903595
100
AcDbArc
 50
89.9101925671
 51
90.1995221029
  0
ARC
  5
375
100
AcDbEntity
  8
RACCORDO
100
AcDbCircle
 62
7
  6
CONTINUOUS
 10
-67.8069316143
 20
-139.8184917547
 40
155.0
100
AcDbArc
 50
92.7225739834
 51
92.7596257289
  0
ARC
  5
376
100
AcDbEntity
  8
RACCORDO
100
AcDbCircle
 62
7
  6
CONTINUOUS
 10
-67.8069316143
 20
-139.8184917547
 40
155.0
100
AcDbArc
 50
98.0002281027
 51
98.3236672369
  0
ARC
  5
377
100
AcDbEntity
  8
RACCORDO
100
AcDbCircle
 62
7
  6
CONTINUOUS
 10
-89.811201474
 20
-16.2642417888
 40
3.0
100
AcDbArc
 50
191.5564201866
 51
261.6763327631
  0
ARC
  5
378
100
AcDbEntity
  8
0
100
AcDbCircle
 62
7
  6
CONTINUOUS
 10
-67.3155618699
 20
0.4747762396
 40
2.5450496478
100
AcDbArc
 50
357.1876074207
 51
5.7207021163
  0
ARC
  5
379
100
AcDbEntity
  8
0
100
AcDbCircle
 62
7
  6
CONTINUOUS
 10
-67.3155618699
 20
-3.8602237604
 40
2.5450496478
100
AcDbArc
 50
357.1876074207
 51
5.7207021163
  0
ARC
  5
37A
100
AcDbEntity
  8
0
100
AcDbCircle
 62
7
  6
CONTINUOUS
 10
-67.3118380385
 20
-3.8610963099
 40
1.7917624121
100
AcDbArc
 50
171.8321740169
 51
188.0582124988
  0
ARC
  5
37B
100
AcDbEntity
  8
0
100
AcDbCircle
 62
7
  6
CONTINUOUS
 10
-67.3187863537
 20
0.4732899835
 40
1.7849540401
100
AcDbArc
 50
171.7809873868
 51
257.6099774453
  0
ARC
  5
37C
100
AcDbEntity
  8
0
100
AcDbCircle
 62
7
  6
CONTINUOUS
 10
-67.3200528841
 20
0.4732899835
 40
1.7849535949
100
AcDbArc
 50
282.3900256882
 51
8.2190146785
  0
ARC
  5
37D
100
AcDbEntity
  8
RACCORDO
100
AcDbCircle
 62
7
  6
CONTINUOUS
 10
-62.1894316143
 20
-1.221945052
 40
0.48
100
AcDbArc
 50
90.0
 51
180.0
  0
ARC
  5
37E
100
AcDbEntity
  8
RACCORDO
100
AcDbCircle
 62
7
  6
CONTINUOUS
 10
-62.1894316143
 20
-4.461945052
 40
0.48
100
AcDbArc
 50
180.0
 51
270.0
  0
ARC
  5
37F
100
AcDbEntity
  8
RACCORDO
100
AcDbCircle
 62
7
  6
CONTINUOUS
 10
-89.811201474
 20
10.5803516848
 40
3.0
100
AcDbArc
 50
98.3236672369
 51
168.4435798134
  0
ARC
  5
380
100
AcDbEntity
  8
RACCORDO
100
AcDbCircle
 62
7
  6
CONTINUOUS
 10
-88.4708013901
 20
14.6734662421
 40
0.8
100
AcDbArc
 50
123.4084801706
 51
195.0000014679
  0
ARC
  5
381
100
AcDbEntity
  8
RACCORDO
100
AcDbCircle
 62
7
  6
CONTINUOUS
 10
-88.2279107609
 20
16.2783932215
 40
0.8
100
AcDbArc
 50
117.153197469
 51
195.0000005295
  0
ARC
  5
382
100
AcDbEntity
  8
RACCORDO
100
AcDbCircle
 62
7
  6
CONTINUOUS
 10
-87.8912901565
 20
17.9198855018
 40
0.8
100
AcDbArc
 50
105.0
 51
195.0
  0
ARC
  5
383
100
AcDbEntity
  8
RACCORDO
100
AcDbCircle
 62
7
  6
CONTINUOUS
 10
-89.421101208
 20
13.9700432354
 40
0.2999990746
100
AcDbArc
 50
277.9957211396
 51
15.0030950897
  0
ARC
  5
384
100
AcDbEntity
  8
RACCORDO
100
AcDbCircle
 62
7
  6
CONTINUOUS
 10
-88.9938754725
 20
15.4664943023
 40
0.15
100
AcDbArc
 50
303.4084801706
 51
15.0
  0
ARC
  5
385
100
AcDbEntity
  8
RACCORDO
100
AcDbCircle
 62
7
  6
CONTINUOUS
 10
-88.661463446
 20
17.1236932092
 40
0.15
100
AcDbArc
 50
297.153197469
 51
15.0
  0
ARC
  5
386
100
AcDbEntity
  8
0
100
AcDbCircle
 62
7
  6
CONTINUOUS
 10
-81.3111136143
 20
4.830886948
 40
1.303416637
100
AcDbArc
 50
22.8428913314
 51
180.0
  0
ARC
  5
387
100
AcDbEntity
  8
0
100
AcDbCircle
 62
7
  6
CONTINUOUS
 10
-81.3111136143
 20
4.712903948
 40
0.51713
100
AcDbArc
 50
0.0
 51
180.0
  0
ARC
  5
388
100
AcDbEntity
  8
RACCORDO
100
AcDbCircle
 62
7
  6
CONTINUOUS
 10
-78.0856895849
 20
18.9959931951
 40
0.8
100
AcDbArc
 50
14.9999994705
 51
92.846802531
  0
ARC
  5
389
100
AcDbEntity
  8
RACCORDO
100
AcDbCircle
 62
7
  6
CONTINUOUS
 10
-79.1979577199
 20
20.2492569077
 40
0.8
100
AcDbArc
 50
15.0
 51
105.0
  0
ARC
  5
38A
100
AcDbEntity
  8
RACCORDO
100
AcDbCircle
 62
7
  6
CONTINUOUS
 10
-78.1328719395
 20
19.9448208008
 40
0.15
100
AcDbArc
 50
195.0
 51
272.846802531
  0
ARC
  5
38B
100
AcDbEntity
  8
RACCORDO
100
AcDbCircle
 62
7
  6
CONTINUOUS
 10
-75.04168138
 20
14.5653580594
 40
0.4483531491
100
AcDbArc
 50
270.2440749623
 51
272.6770309905
  0
ARC
  5
38C
100
AcDbEntity
  8
RACCORDO
100
AcDbCircle
 62
7
  6
CONTINUOUS
 10
-75.0417509588
 20
14.5526273773
 40
0.4356228965
100
AcDbArc
 50
267.7861250467
 51
270.2603591518
  0
ARC
  5
38D
100
AcDbEntity
  8
RACCORDO
100
AcDbCircle
 62
7
  6
CONTINUOUS
 10
-75.2840128324
 20
15.3013946887
 40
0.2999991203
100
AcDbArc
 50
194.9982792722
 51
272.7630945404
  0
ARC
  5
38E
100
AcDbEntity
  8
RACCORDO
100
AcDbCircle
 62
7
  6
CONTINUOUS
 10
-77.0728766399
 20
17.7275309743
 40
0.8
100
AcDbArc
 50
14.9999985321
 51
86.5915198294
  0
ARC
  5
38F
100
AcDbEntity
  8
RACCORDO
100
AcDbCircle
 62
7
  6
CONTINUOUS
 10
-77.0163952265
 20
18.6758504615
 40
0.15
100
AcDbArc
 50
195.0
 51
266.5915198294
  0
ARC
  5
390
100
AcDbEntity
  8
RACCORDO
100
AcDbCircle
 62
7
  6
CONTINUOUS
 10
-67.8069316143
 20
134.1346016507
 40
155.0
100
AcDbArc
 50
261.6763327631
 51
267.2774260166
  0
ARC
  5
391
100
AcDbEntity
  8
RACCORDO
100
AcDbCircle
 62
7
  6
CONTINUOUS
 10
-57.2608624114
 20
359.7014362712
 40
379.9181552047
100
AcDbArc
 50
267.4744161825
 51
269.8002430417
  0
ARC
  5
392
100
AcDbEntity
  8
RACCORDO
100
AcDbCircle
 62
7
  6
CONTINUOUS
 10
-57.2625175181
 20
359.6422779467
 40
379.8589836151
100
AcDbArc
 50
267.2980210257
 51
270.0923874634
  0
ARC
  5
393
100
AcDbEntity
  8
RACCORDO
100
AcDbCircle
 62
7
  6
CONTINUOUS
 10
-57.2645813084
 20
359.0806806203
 40
379.2973903642
100
AcDbArc
 50
269.8004778859
 51
270.0898074329
  0
ARC
  5
394
100
AcDbEntity
  8
RACCORDO
100
AcDbCircle
 62
250
  6
CONTINUOUS
 10
-56.257356068
 20
-1591.0984050114
 40
1597.2602626804
100
AcDbArc
 50
90.0140849405
 51
90.6260051317
  0
ARC
  5
395
100
AcDbEntity
  8
RACCORDO
100
AcDbCircle
 62
7
  6
CONTINUOUS
 10
-56.5184342182
 20
-382.3542453357
 40
397.7187066333
100
AcDbArc
 50
90.0218429967
 51
92.3994616839
  0
ARC
  5
396
100
AcDbEntity
  8
RACCORDO
100
AcDbCircle
 62
7
  6
CONTINUOUS
 10
-24.1694316143
 20
-2.841945052
 40
70.0
100
AcDbArc
 50
168.4435798134
 51
191.5564201866
  0
ARC
  5
397
100
AcDbEntity
  8
RACCORDO
100
AcDbCircle
 62
250
  6
CONTINUOUS
 10
-47.9743673133
 20
-11.427587906
 40
25.7361254903
100
AcDbArc
 50
179.2810983589
 51
180.7189016334
  0
ARC
  5
398
100
AcDbEntity
  8
0
100
AcDbCircle
 62
7
  6
CONTINUOUS
 10
-39.6194316143
 20
-2.841945052
 40
2.5
100
AcDbArc
 50
286.2602047083
 51
73.7397952917
  0
ARC
  5
399
100
AcDbEntity
  8
RACCORDO
100
AcDbCircle
 62
7
  6
CONTINUOUS
 10
-56.703491986
 20
-19.708381242
 40
0.5340603788
100
AcDbArc
 50
354.0372452511
 51
359.9906062158
  0
ARC
  5
39A
100
AcDbEntity
  8
RACCORDO
100
AcDbCircle
 62
7
  6
CONTINUOUS
 10
-56.6494316143
 20
-1.221945052
 40
0.48
100
AcDbArc
 50
0.0
 51
90.0
  0
ARC
  5
39B
100
AcDbEntity
  8
RACCORDO
100
AcDbCircle
 62
7
  6
CONTINUOUS
 10
-56.6494316143
 20
-4.461945052
 40
0.48
100
AcDbArc
 50
270.0
 51
360.0
  0
ARC
  5
39C
100
AcDbEntity
  8
RACCORDO
100
AcDbCircle
 62
7
  6
CONTINUOUS
 10
-56.671268866
 20
-19.7377820766
 40
0.4784632619
100
AcDbArc
 50
270.1450731227
 51
282.434750466
  0
ARC
  5
39D
100
AcDbEntity
  8
RACCORDO
100
AcDbCircle
 62
250
  6
CONTINUOUS
 10
-56.1912760576
 20
1597.2404311366
 40
1609.0861960368
100
AcDbArc
 50
269.3762428253
 51
269.9836656223
  0
ARC
  5
39E
100
AcDbEntity
  8
RACCORDO
100
AcDbCircle
 62
7
  6
CONTINUOUS
 10
-56.5184342182
 20
376.6703552317
 40
397.7187066333
100
AcDbArc
 50
267.6005383161
 51
269.9781570033
  0
ARC
  5
39F
100
AcDbEntity
  8
RACCORDO
100
AcDbCircle
 62
7
  6
CONTINUOUS
 10
-56.6708153666
 20
14.0636265331
 40
0.4687277805
100
AcDbArc
 50
87.4593690009
 51
89.9073481302
  0
SPLINE
  5
3A0
100
AcDbEntity
  8
RACCORDO
100
AcDbSpline
 62
7
  6
CONTINUOUS
 70
0
 71
3
 72
12
 73
8
 74
0
 42
0.0000001
 43
0.0000001
 44
0.0000000001
 40
0.0
 40
0.0
 40
0.0
 40
0.0
 40
0.0979350088
 40
0.1783702585
 40
0.2854000373
 40
0.5843104039
 40
1.0
 40
1.0
 40
1.0
 40
1.0
 10
-5.7456394938
 20
-20.2162422966
 30
0.0
 10
-5.7308706938
 20
-20.2188997122
 30
0.0
 10
-5.7040515635
 20
-20.198484683
 30
0.0
 10
-5.6832598905
 20
-20.1616054392
 30
0.0
 10
-5.6529897373
 20
-20.092609414
 30
0.0
 10
-5.6196089993
 20
-19.9712989473
 30
0.0
 10
-5.5971630192
 20
-19.8639985369
 30
0.0
 10
-5.5854871188
 20
-19.8013843116
 30
0.0
  0
SPLINE
  5
3A1
100
AcDbEntity
  8
RACCORDO
100
AcDbSpline
 62
7
  6
CONTINUOUS
 70
0
 71
3
 72
10
 73
6
 74
0
 42
0.0000001
 43
0.0000001
 44
0.0000000001
 40
0.0
 40
0.0
 40
0.0
 40
0.0
 40
0.4806695491
 40
0.7336659897
 40
1.0
 40
1.0
 40
1.0
 40
1.0
 10
-6.1054707766
 20
17.3020686895
 30
0.0
 10
-6.2678856938
 20
17.173962818
 30
0.0
 10
-6.4899460075
 20
16.9363184614
 30
0.0
 10
-6.6676811613
 20
16.540143902
 30
0.0
 10
-6.7
 20
16.3151157848
 30
0.0
 10
-6.7
 20
16.2004985996
 30
0.0
  0
SPLINE
  5
3A2
100
AcDbEntity
  8
RACCORDO
100
AcDbSpline
 62
7
  6
CONTINUOUS
 70
0
 71
3
 72
11
 73
7
 74
0
 42
0.0000001
 43
0.0000001
 44
0.0000000001
 40
0.0
 40
0.0
 40
0.0
 40
0.0
 40
0.2359873959
 40
0.4786212541
 40
0.7323625352
 40
1.0
 40
1.0
 40
1.0
 40
1.0
 10
-5.3679957556
 20
18.774192593
 30
0.0
 10
-5.4573673615
 20
18.7128809387
 30
0.0
 10
-5.6310187557
 20
18.5762277339
 30
0.0
 10
-5.8508161805
 20
18.3182422897
 30
0.0
 10
-6.0111899399
 20
18.0014945244
 30
0.0
 10
-6.05
 20
17.7601098073
 30
0.0
 10
-6.05
 20
17.6371932053
 30
0.0
  0
SPLINE
  5
3A3
100
AcDbEntity
  8
RACCORDO
100
AcDbSpline
 62
7
  6
CONTINUOUS
 70
0
 71
3
 72
17
 73
13
 74
0
 42
0.0000001
 43
0.0000001
 44
0.0000000001
 40
0.0
 40
0.0
 40
0.0
 40
0.0
 40
0.1591868782
 40
0.3126413187
 40
0.4551737961
 40
0.5829077028
 40
0.6944573055
 40
0.7933546708
 40
0.8415180402
 40
0.8916811181
 40
0.9444609087
 40
1.0
 40
1.0
 40
1.0
 40
1.0
 10
-0.0
 20
21.0492569077
 30
0.0
 10
-0.3234120087
 20
21.0492569077
 30
0.0
 10
-0.958727406
 20
21.0324654288
 30
0.0
 10
-1.8809176497
 20
20.957293666
 30
0.0
 10
-2.7336102656
 20
20.8345833031
 30
0.0
 10
-3.4918796387
 20
20.6661426997
 30
0.0
 10
-4.1453814549
 20
20.4497968041
 30
0.0
 10
-4.6156491555
 20
20.2058326982
 30
0.0
 10
-4.9276096809
 20
19.951435403
 30
0.0
 10
-5.1236745376
 20
19.7120565642
 30
0.0
 10
-5.2658785606
 20
19.4191393481
 30
0.0
 10
-5.3
 20
19.1974071953
 30
0.0
 10
-5.3
 20
19.0845712047
 30
0.0
  0
SPLINE
  5
3A4
100
AcDbEntity
  8
0
100
AcDbSpline
 62
7
  6
CONTINUOUS
 70
0
 71
3
 72
15
 73
11
 74
0
 42
0.0000001
 43
0.0000001
 44
0.0000000001
 40
0.0
 40
0.0
 40
0.0
 40
0.0
 40
0.1822204879
 40
0.3579629029
 40
0.5209293123
 40
0.6655970568
 40
0.7873652752
 40
0.8386852745
 40
0.8833482506
 40
1.0
 40
1.0
 40
1.0
 40
1.0
 10
0.0
 20
18.8220356854
 30
0.0
 10
-0.2601805727
 20
18.8220356854
 30
0.0
 10
-0.7713844199
 20
18.8348345281
 30
0.0
 10
-1.5133674448
 20
18.8920048647
 30
0.0
 10
-2.1976596072
 20
18.9844838004
 30
0.0
 10
-2.7990161001
 20
19.1090730804
 30
0.0
 10
-3.2332092404
 20
19.239895195
 30
0.0
 10
-3.5215616299
 20
19.3632178494
 30
0.0
 10
-3.7822120132
 20
19.5014630547
 30
0.0
 10
-4.0
 20
19.6907525544
 30
0.0
 10
-4.0
 20
19.8573118658
 30
0.0
  0
SPLINE
  5
3A5
100
AcDbEntity
  8
0
100
AcDbSpline
 62
7
  6
CONTINUOUS
 70
0
 71
3
 72
10
 73
6
 74
0
 42
0.0000001
 43
0.0000001
 44
0.0000000001
 40
0.0
 40
0.0
 40
0.0
 40
0.0
 40
0.5598151817
 40
0.8013360872
 40
1.0
 40
1.0
 40
1.0
 40
1.0
 10
0.0
 20
19.7334770546
 30
0.0
 10
-0.6267863208
 20
19.7334770546
 30
0.0
 10
-1.5265280714
 20
19.6830024562
 30
0.0
 10
-2.6302887028
 20
19.490982248
 30
0.0
 10
-3.1066393372
 20
19.3573821003
 30
0.0
 10
-3.3143493789
 20
19.2778098156
 30
0.0
  0
SPLINE
  5
3A6
100
AcDbEntity
  8
RACCORDO
100
AcDbSpline
 62
7
  6
CONTINUOUS
 70
0
 71
3
 72
9
 73
5
 74
0
 42
0.0000001
 43
0.0000001
 44
0.0000000001
 40
0.0
 40
0.0
 40
0.0
 40
0.0
 40
0.4999298068
 40
1.0
 40
1.0
 40
1.0
 40
1.0
 10
-17.7006642808
 20
-4.941945052
 30
0.0
 10
-17.8032933328
 20
-4.941945052
 30
0.0
 10
-18.0144517504
 20
-4.8720834435
 30
0.0
 10
-18.1370088477
 20
-4.6865078562
 30
0.0
 10
-18.1638588344
 20
-4.5874234639
 30
0.0
  0
SPLINE
  5
3A7
100
AcDbEntity
  8
RACCORDO
100
AcDbSpline
 62
7
  6
CONTINUOUS
 70
0
 71
3
 72
9
 73
5
 74
0
 42
0.0000001
 43
0.0000001
 44
0.0000000001
 40
0.0
 40
0.0
 40
0.0
 40
0.0
 40
0.4999298068
 40
1.0
 40
1.0
 40
1.0
 40
1.0
 10
-17.7006642808
 20
-0.741945052
 30
0.0
 10
-17.8032933328
 20
-0.741945052
 30
0.0
 10
-18.0144517504
 20
-0.8118066605
 30
0.0
 10
-18.1370088477
 20
-0.9973822478
 30
0.0
 10
-18.1638588344
 20
-1.0964666401
 30
0.0
  0
SPLINE
  5
3A8
100
AcDbEntity
  8
RACCORDO
100
AcDbSpline
 62
7
  6
CONTINUOUS
 70
0
 71
3
 72
13
 73
9
 74
0
 42
0.0000001
 43
0.0000001
 44
0.0000000001
 40
0.0
 40
0.0
 40
0.0
 40
0.0
 40
0.0209701141
 40
0.0796983341
 40
0.1746827049
 40
0.3010605855
 40
0.6249056514
 40
1.0
 40
1.0
 40
1.0
 40
1.0
 10
-5.5854871188
 20
-19.8013843116
 30
0.0
 10
-5.5852873389
 20
-19.8003129539
 30
0.0
 10
-5.5791125244
 20
-19.8017215181
 30
0.0
 10
-5.5720636185
 20
-19.8024538833
 30
0.0
 10
-5.5569133598
 20
-19.8064644464
 30
0.0
 10
-5.5301166051
 20
-19.8135730077
 30
0.0
 10
-5.4886198439
 20
-19.8259517638
 30
0.0
 10
-5.4540607016
 20
-19.8367201913
 30
0.0
 10
-5.4354928304
 20
-19.8426567387
 30
0.0
  0
SPLINE
  5
3A9
100
AcDbEntity
  8
RACCORDO
100
AcDbSpline
 62
250
  6
CONTINUOUS
 70
0
 71
3
 72
17
 73
13
 74
0
 42
0.0000001
 43
0.0000001
 44
0.0000000001
 40
0.0
 40
0.0
 40
0.0
 40
0.0
 40
0.0240046095
 40
0.0509232403
 40
0.0827994467
 40
0.1207286927
 40
0.2161755536
 40
0.3373987798
 40
0.4814127466
 40
0.6436616888
 40
0.8185864875
 40
1.0
 40
1.0
 40
1.0
 40
1.0
 10
-5.299995825
 20
18.5342570021
 30
0.0
 10
-5.2999863473
 20
18.4886378172
 30
0.0
 10
-5.2802286413
 20
18.3912248175
 30
0.0
 10
-5.1976193331
 20
18.254813793
 30
0.0
 10
-5.0665260151
 20
18.1242031717
 30
0.0
 10
-4.8088484237
 20
17.9428830568
 30
0.0
 10
-4.3651084867
 20
17.7418667422
 30
0.0
 10
-3.7085608089
 20
17.5423430109
 30
0.0
 10
-2.9119309468
 20
17.3778976719
 30
0.0
 10
-2.0052008892
 20
17.2551858735
 30
0.0
 10
-1.0220896952
 20
17.1794763686
 30
0.0
 10
-0.3447644814
 20
17.162516063
 30
0.0
 10
0.0
 20
17.162516063
 30
0.0
  0
SPLINE
  5
3AA
100
AcDbEntity
  8
RACCORDO
100
AcDbSpline
 62
250
  6
CONTINUOUS
 70
0
 71
3
 72
14
 73
10
 74
0
 42
0.0000001
 43
0.0000001
 44
0.0000000001
 40
0.0
 40
0.0
 40
0.0
 40
0.0
 40
0.0387982136
 40
0.1020701654
 40
0.1917436067
 40
0.3075218697
 40
0.4482160553
 40
0.6120572223
 40
1.0
 40
1.0
 40
1.0
 40
1.0
 10
-12.755469935
 20
-14.3047683762
 30
0.0
 10
-12.7854377516
 20
-14.3090851994
 30
0.0
 10
-12.8657571288
 20
-14.2840377673
 30
0.0
 10
-12.99348373
 20
-14.2088602511
 30
0.0
 10
-13.1612218059
 20
-14.0810529653
 30
0.0
 10
-13.3623968324
 20
-13.901006954
 30
0.0
 10
-13.5938730928
 20
-13.6682263537
 30
0.0
 10
-13.9555222549
 20
-13.2665468067
 30
0.0
 10
-14.2211407045
 20
-12.9267123985
 30
0.0
 10
-14.3988622269
 20
-12.6816267776
 30
0.0
  0
SPLINE
  5
3AB
100
AcDbEntity
  8
RACCORDO
100
AcDbSpline
 62
250
  6
CONTINUOUS
 70
0
 71
3
 72
9
 73
5
 74
0
 42
0.0000001
 43
0.0000001
 44
0.0000000001
 40
0.0
 40
0.0
 40
0.0
 40
0.0
 40
0.233048231
 40
1.0
 40
1.0
 40
1.0
 40
1.0
 10
-14.3988622269
 20
-12.6816267776
 30
0.0
 10
-14.4837566046
 20
-12.5645113033
 30
0.0
 10
-14.839526113
 20
-12.0558441827
 30
0.0
 10
-15.1604329254
 20
-11.5229349353
 30
0.0
 10
-15.3870047753
 20
-11.1042815925
 30
0.0
  0
SPLINE
  5
3AC
100
AcDbEntity
  8
RACCORDO
100
AcDbSpline
 62
250
  6
CONTINUOUS
 70
0
 71
3
 72
9
 73
5
 74
0
 42
0.0000001
 43
0.0000001
 44
0.0000000001
 40
0.0
 40
0.0
 40
0.0
 40
0.0
 40
0.4669295488
 40
1.0
 40
1.0
 40
1.0
 40
1.0
 10
-14.3513120931
 20
-13.4536592132
 30
0.0
 10
-14.4199905314
 20
-13.3506840192
 30
0.0
 10
-14.4994262724
 20
-13.0825456333
 30
0.0
 10
-14.4469971625
 20
-12.8144861038
 30
0.0
 10
-14.3988642429
 20
-12.6816267776
 30
0.0
  0
SPLINE
  5
3AD
100
AcDbEntity
  8
RACCORDO
100
AcDbSpline
 62
250
  6
CONTINUOUS
 70
0
 71
3
 72
9
 73
5
 74
0
 42
0.0000001
 43
0.0000001
 44
0.0000000001
 40
0.0
 40
0.0
 40
0.0
 40
0.0
 40
0.233391516
 40
1.0
 40
1.0
 40
1.0
 40
1.0
 10
-14.3513153351
 20
-13.4536616104
 30
0.0
 10
-14.4530317022
 20
-13.3278451443
 30
0.0
 10
-14.8796286157
 20
-12.7813676099
 30
0.0
 10
-15.2681452296
 20
-12.2052320611
 30
0.0
 10
-15.5432865981
 20
-11.7505811351
 30
0.0
  0
SPLINE
  5
3AE
100
AcDbEntity
  8
RACCORDO
100
AcDbSpline
 62
250
  6
CONTINUOUS
 70
0
 71
3
 72
11
 73
7
 74
0
 42
0.0000001
 43
0.0000001
 44
0.0000000001
 40
0.0
 40
0.0
 40
0.0
 40
0.0
 40
0.202056785
 40
0.429747024
 40
0.6950445729
 40
1.0
 40
1.0
 40
1.0
 40
1.0
 10
-15.5433407073
 20
-11.7504957596
 30
0.0
 10
-15.5635754855
 20
-11.7083889296
 30
0.0
 10
-15.5868640327
 20
-11.608712027
 30
0.0
 10
-15.5668192294
 20
-11.4470417527
 30
0.0
 10
-15.4988181899
 20
-11.2739544313
 30
0.0
 10
-15.4276749034
 20
-11.1622751902
 30
0.0
 10
-15.3870047742
 20
-11.1046800487
 30
0.0
  0
SPLINE
  5
3AF
100
AcDbEntity
  8
RACCORDO
100
AcDbSpline
 62
250
  6
CONTINUOUS
 70
0
 71
3
 72
12
 73
8
 74
0
 42
0.0000001
 43
0.0000001
 44
0.0000000001
 40
0.0
 40
0.0
 40
0.0
 40
0.0
 40
0.2904504979
 40
0.5665253669
 40
0.8115914235
 40
0.9147491782
 40
1.0
 40
1.0
 40
1.0
 40
1.0
 10
-16.2333291795
 20
-5.1077572917
 30
0.0
 10
-16.1177763995
 20
-6.0462232293
 30
0.0
 10
-15.7517377707
 20
-7.8622993484
 30
0.0
 10
-14.8633747958
 20
-10.3586614034
 30
0.0
 10
-13.9542608359
 20
-12.1805363152
 30
0.0
 10
-13.248409575
 20
-13.4025458033
 30
0.0
 10
-12.9315765284
 20
-13.9277599079
 30
0.0
 10
-12.7900181781
 20
-14.1664752337
 30
0.0
  0
SPLINE
  5
3B0
100
AcDbEntity
  8
RACCORDO
100
AcDbSpline
 62
250
  6
CONTINUOUS
 70
0
 71
3
 72
9
 73
5
 74
0
 42
0.0000001
 43
0.0000001
 44
0.0000000001
 40
0.0
 40
0.0
 40
0.0
 40
0.0
 40
0.274231527
 40
1.0
 40
1.0
 40
1.0
 40
1.0
 10
-12.6714958726
 20
-14.3681094394
 30
0.0
 10
-12.653786436
 20
-14.3985887692
 30
0.0
 10
-12.5895456065
 20
-14.5099245365
 30
0.0
 10
-12.5268368412
 20
-14.6221774071
 30
0.0
 10
-12.4834088202
 20
-14.7047460442
 30
0.0
  0
SPLINE
  5
3B1
100
AcDbEntity
  8
RACCORDO
100
AcDbSpline
 62
250
  6
CONTINUOUS
 70
0
 71
3
 72
24
 73
20
 74
0
 42
0.0000001
 43
0.0000001
 44
0.0000000001
 40
0.0
 40
0.0
 40
0.0
 40
0.0
 40
0.0562937049
 40
0.1006658112
 40
0.1331723326
 40
0.1452558296
 40
0.15494316
 40
0.1629393928
 40
0.170469163
 40
0.1892936024
 40
0.2183760204
 40
0.259489191
 40
0.3129989713
 40
0.3787918514
 40
0.4564380236
 40
0.5454182845
 40
0.6450562882
 40
0.7546333179
 40
1.0
 40
1.0
 40
1.0
 40
1.0
 10
-12.4834088202
 20
-14.7047460442
 30
0.0
 10
-12.4549065912
 20
-14.7589366369
 30
0.0
 10
-12.4054481964
 20
-14.8567297982
 30
0.0
 10
-12.3486271901
 20
-14.9899572085
 30
0.0
 10
-12.3205011808
 20
-15.0832405576
 30
0.0
 10
-12.3151487246
 20
-15.1422825414
 30
0.0
 10
-12.318888214
 20
-15.174777999
 30
0.0
 10
-12.3310584829
 20
-15.2002469863
 30
0.0
 10
-12.3621909039
 20
-15.2234763195
 30
0.0
 10
-12.4267708023
 20
-15.2216667244
 30
0.0
 10
-12.5171753965
 20
-15.1886163436
 30
0.0
 10
-12.6364259735
 20
-15.1247037249
 30
0.0
 10
-12.7816365818
 20
-15.0279948108
 30
0.0
 10
-12.9523639006
 20
-14.8983383123
 30
0.0
 10
-13.1459112325
 20
-14.7356179604
 30
0.0
 10
-13.3598164848
 20
-14.5402680414
 30
0.0
 10
-13.5911798477
 20
-14.3128658651
 30
0.0
 10
-13.9317416429
 20
-13.9543239574
 30
0.0
 10
-14.1834649327
 20
-13.6611472501
 30
0.0
 10
-14.3513153351
 20
-13.4536616104
 30
0.0
  0
SPLINE
  5
3B2
100
AcDbEntity
  8
RACCORDO
100
AcDbSpline
 62
250
  6
CONTINUOUS
 70
0
 71
3
 72
9
 73
5
 74
0
 42
0.0000001
 43
0.0000001
 44
0.0000000001
 40
0.0
 40
0.0
 40
0.0
 40
0.0
 40
0.3071617633
 40
1.0
 40
1.0
 40
1.0
 40
1.0
 10
-16.2333019562
 20
-5.1077534923
 30
0.0
 10
-16.2356273847
 20
-5.1063137709
 30
0.0
 10
-16.2428750229
 20
-5.1013366685
 30
0.0
 10
-16.2489623469
 20
-5.0933535578
 30
0.0
 10
-16.249699337
 20
-5.0872285559
 30
0.0
  0
SPLINE
  5
3B3
100
AcDbEntity
  8
RACCORDO
100
AcDbSpline
 62
250
  6
CONTINUOUS
 70
0
 71
3
 72
9
 73
5
 74
0
 42
0.0000001
 43
0.0000001
 44
0.0000000001
 40
0.0
 40
0.0
 40
0.0
 40
0.0
 40
0.3071711178
 40
1.0
 40
1.0
 40
1.0
 40
1.0
 10
-16.2333325431
 20
-0.576132343
 30
0.0
 10
-16.2356587288
 20
-0.577571958
 30
0.0
 10
-16.2429086057
 20
-0.582548623
 30
0.0
 10
-16.2490002031
 20
-0.5905299094
 30
0.0
 10
-16.2497405149
 20
-0.5966555732
 30
0.0
  0
SPLINE
  5
3B4
100
AcDbEntity
  8
RACCORDO
100
AcDbSpline
 62
250
  6
CONTINUOUS
 70
0
 71
3
 72
9
 73
5
 74
0
 42
0.0000001
 43
0.0000001
 44
0.0000000001
 40
0.0
 40
0.0
 40
0.0
 40
0.0
 40
0.4999984881
 40
1.0
 40
1.0
 40
1.0
 40
1.0
 10
-16.2558343277
 20
-0.7915116486
 30
0.0
 10
-16.3227280072
 20
-1.4723396338
 30
0.0
 10
-16.3815935418
 20
-2.8415722042
 30
0.0
 10
-16.3227726293
 20
-4.2108060905
 30
0.0
 10
-16.2559067658
 20
-4.8916409653
 30
0.0
  0
SPLINE
  5
3B5
100
AcDbEntity
  8
RACCORDO
100
AcDbSpline
 62
250
  6
CONTINUOUS
 70
0
 71
3
 72
24
 73
20
 74
0
 42
0.0000001
 43
0.0000001
 44
0.0000000001
 40
0.0
 40
0.0
 40
0.0
 40
0.0
 40
0.2453662617
 40
0.3549427821
 40
0.4545800463
 40
0.5435592786
 40
0.6212040984
 40
0.6869952993
 40
0.7405030738
 40
0.7816139895
 40
0.8106940389
 40
0.8295166185
 40
0.8370462575
 40
0.8450430884
 40
0.8547315524
 40
0.8668164994
 40
0.8993264364
 40
0.943702317
 40
1.0
 40
1.0
 40
1.0
 40
1.0
 10
-14.3513153351
 20
7.7697715064
 30
0.0
 10
-14.1834615963
 20
7.9772612399
 30
0.0
 10
-13.9317334191
 20
8.2704433886
 30
0.0
 10
-13.5911649005
 20
8.6289910759
 30
0.0
 10
-13.3597977351
 20
8.8563958053
 30
0.0
 10
-13.1458896819
 20
9.0517468643
 30
0.0
 10
-12.9523407391
 20
9.2144669001
 30
0.0
 10
-12.7816130927
 20
9.3441215327
 30
0.0
 10
-12.6364036887
 20
9.4408274161
 30
0.0
 10
-12.5171553391
 20
9.5047352038
 30
0.0
 10
-12.4267544385
 20
9.5377811479
 30
0.0
 10
-12.3621762463
 20
9.5395828452
 30
0.0
 10
-12.3310498596
 20
9.5163462359
 30
0.0
 10
-12.3188841376
 20
9.4908726977
 30
0.0
 10
-12.3151486259
 20
9.4583727538
 30
0.0
 10
-12.3205070848
 20
9.3993235443
 30
0.0
 10
-12.3486406067
 20
9.3060306934
 30
0.0
 10
-12.4054711735
 20
9.1727907319
 30
0.0
 10
-12.4549360131
 20
9.0749887779
 30
0.0
 10
-12.4834416101
 20
9.0207935803
 30
0.0
  0
SPLINE
  5
3B6
100
AcDbEntity
  8
RACCORDO
100
AcDbSpline
 62
250
  6
CONTINUOUS
 70
0
 71
3
 72
9
 73
5
 74
0
 42
0.0000001
 43
0.0000001
 44
0.0000000001
 40
0.0
 40
0.0
 40
0.0
 40
0.0
 40
0.2254854345
 40
1.0
 40
1.0
 40
1.0
 40
1.0
 10
-12.4834416101
 20
9.0207935803
 30
0.0
 10
-12.4969346049
 20
8.9951405299
 30
0.0
 10
-12.5577286366
 20
8.8818737668
 30
0.0
 10
-12.621514041
 20
8.7702411631
 30
0.0
 10
-12.6715320679
 20
8.6841570034
 30
0.0
  0
SPLINE
  5
3B7
100
AcDbEntity
  8
RACCORDO
100
AcDbSpline
 62
250
  6
CONTINUOUS
 70
0
 71
3
 72
12
 73
8
 74
0
 42
0.0000001
 43
0.0000001
 44
0.0000000001
 40
0.0
 40
0.0
 40
0.0
 40
0.0
 40
0.0852521124
 40
0.1884105697
 40
0.4334767337
 40
0.7095507437
 40
1.0
 40
1.0
 40
1.0
 40
1.0
 10
-12.7900520812
 20
8.4825279329
 30
0.0
 10
-12.9316120032
 20
8.2438108467
 30
0.0
 10
-13.2484459032
 20
7.7185945461
 30
0.0
 10
-13.9542931284
 20
6.4965858776
 30
0.0
 10
-14.8633953831
 20
4.6747207522
 30
0.0
 10
-15.7517445459
 20
2.1783799346
 30
0.0
 10
-16.1177775985
 20
0.362322728
 30
0.0
 10
-16.2333291795
 20
-0.5761328123
 30
0.0
  0
SPLINE
  5
3B8
100
AcDbEntity
  8
RACCORDO
100
AcDbSpline
 62
250
  6
CONTINUOUS
 70
0
 71
3
 72
14
 73
10
 74
0
 42
0.0000001
 43
0.0000001
 44
0.0000000001
 40
0.0
 40
0.0
 40
0.0
 40
0.0
 40
0.3879466211
 40
0.5517888937
 40
0.6924835001
 40
0.8082613962
 40
0.8979336776
 40
0.9612038121
 40
1.0
 40
1.0
 40
1.0
 40
1.0
 10
-14.3988622269
 20
6.9977366735
 30
0.0
 10
-14.2211383121
 20
7.2428255629
 30
0.0
 10
-13.9555163793
 20
7.582664095
 30
0.0
 10
-13.5938624926
 20
7.9843475426
 30
0.0
 10
-13.3623841681
 20
8.217129027
 30
0.0
 10
-13.1612084049
 20
8.3971742182
 30
0.0
 10
-12.993470551
 20
8.5249791023
 30
0.0
 10
-12.8657463059
 20
8.6001530759
 30
0.0
 10
-12.7854275074
 20
8.6251967896
 30
0.0
 10
-12.7554615988
 20
8.6208770726
 30
0.0
  0
SPLINE
  5
3B9
100
AcDbEntity
  8
RACCORDO
100
AcDbSpline
 62
250
  6
CONTINUOUS
 70
0
 71
3
 72
9
 73
5
 74
0
 42
0.0000001
 43
0.0000001
 44
0.0000000001
 40
0.0
 40
0.0
 40
0.0
 40
0.0
 40
0.4669298035
 40
1.0
 40
1.0
 40
1.0
 40
1.0
 10
-14.351308063
 20
7.7697661285
 30
0.0
 10
-14.41998822
 20
7.6667923534
 30
0.0
 10
-14.4994283221
 20
7.3986556648
 30
0.0
 10
-14.4470018619
 20
7.1305959997
 30
0.0
 10
-14.3988701278
 20
6.9977366733
 30
0.0
  0
SPLINE
  5
3BA
100
AcDbEntity
  8
RACCORDO
100
AcDbSpline
 62
250
  6
CONTINUOUS
 70
0
 71
3
 72
9
 73
5
 74
0
 42
0.0000001
 43
0.0000001
 44
0.0000000001
 40
0.0
 40
0.0
 40
0.0
 40
0.0
 40
0.2651965942
 40
1.0
 40
1.0
 40
1.0
 40
1.0
 10
-15.5432865323
 20
6.0666910116
 30
0.0
 10
-15.4481037391
 20
6.2239735812
 30
0.0
 10
-15.0790599675
 20
6.8108496815
 30
0.0
 10
-14.6715624107
 20
7.3736469536
 30
0.0
 10
-14.3513153351
 20
7.7697715064
 30
0.0
  0
SPLINE
  5
3BB
100
AcDbEntity
  8
RACCORDO
100
AcDbSpline
 62
250
  6
CONTINUOUS
 70
0
 71
3
 72
9
 73
5
 74
0
 42
0.0000001
 43
0.0000001
 44
0.0000000001
 40
0.0
 40
0.0
 40
0.0
 40
0.0
 40
0.2654240554
 40
1.0
 40
1.0
 40
1.0
 40
1.0
 10
-15.3870047753
 20
5.420389258
 30
0.0
 10
-15.3085924478
 20
5.5652774055
 30
0.0
 10
-15.0046152463
 20
6.1064605777
 30
0.0
 10
-14.6664559438
 20
6.6285795402
 30
0.0
 10
-14.3988622269
 20
6.9977366735
 30
0.0
  0
SPLINE
  5
3BC
100
AcDbEntity
  8
RACCORDO
100
AcDbSpline
 62
250
  6
CONTINUOUS
 70
0
 71
3
 72
11
 73
7
 74
0
 42
0.0000001
 43
0.0000001
 44
0.0000000001
 40
0.0
 40
0.0
 40
0.0
 40
0.0
 40
0.2020567865
 40
0.4297470258
 40
0.695044574
 40
1.0
 40
1.0
 40
1.0
 40
1.0
 10
-15.5433407073
 20
6.0666056556
 30
0.0
 10
-15.5635754857
 20
6.0244988252
 30
0.0
 10
-15.5868640335
 20
5.9248219222
 30
0.0
 10
-15.5668192304
 20
5.7631516474
 30
0.0
 10
-15.4988181907
 20
5.5900643262
 30
0.0
 10
-15.4276749037
 20
5.4783850857
 30
0.0
 10
-15.3870047742
 20
5.4207899447
 30
0.0
  0
SPLINE
  5
3BD
100
AcDbEntity
  8
RACCORDO
100
AcDbSpline
 62
250
  6
CONTINUOUS
 70
0
 71
3
 72
22
 73
18
 74
0
 42
0.0000001
 43
0.0000001
 44
0.0000000001
 40
0.0
 40
0.0
 40
0.0
 40
0.0
 40
0.0043178561
 40
0.0091575552
 40
0.0155975844
 40
0.0240933863
 40
0.0348005693
 40
0.0477612195
 40
0.0803851449
 40
0.121665019
 40
0.1711498015
 40
0.2283623372
 40
0.2928159612
 40
0.4415017055
 40
0.6129829794
 40
0.801709037
 40
1.0
 40
1.0
 40
1.0
 40
1.0
 10
-6.6999723606
 20
13.3845300534
 30
0.0
 10
-6.699966584
 20
13.3747655422
 30
0.0
 10
-6.6937368975
 20
13.3533781946
 30
0.0
 10
-6.6644906192
 20
13.3310763385
 30
0.0
 10
-6.6216158008
 20
13.3173843246
 30
0.0
 10
-6.5639362826
 20
13.3096856695
 30
0.0
 10
-6.4911492183
 20
13.3078864161
 30
0.0
 10
-6.3639050071
 20
13.3135359607
 30
0.0
 10
-6.1686255646
 20
13.3363876298
 30
0.0
 10
-5.893014475
 20
13.3799620914
 30
0.0
 10
-5.5636268641
 20
13.4391332613
 30
0.0
 10
-5.1831417985
 20
13.5100666524
 30
0.0
 10
-4.581897166
 20
13.6209327463
 30
0.0
 10
-3.7242384995
 20
13.766347652
 30
0.0
 10
-2.5829747398
 20
13.9171895211
 30
0.0
 10
-1.3238365186
 20
14.0226318308
 30
0.0
 10
-0.4484203814
 20
14.0477038564
 30
0.0
 10
0.0
 20
14.0477438886
 30
0.0
  0
SPLINE
  5
3BE
100
AcDbEntity
  8
RACCORDO
100
AcDbSpline
 62
250
  6
CONTINUOUS
 70
0
 71
3
 72
9
 73
5
 74
0
 42
0.0000001
 43
0.0000001
 44
0.0000000001
 40
0.0
 40
0.0
 40
0.0
 40
0.0
 40
0.2732639673
 40
1.0
 40
1.0
 40
1.0
 40
1.0
 10
-6.747636992
 20
13.2975721377
 30
0.0
 10
-6.7542985194
 20
13.2917870111
 30
0.0
 10
-6.7784224454
 20
13.2703329305
 30
0.0
 10
-6.8015328052
 20
13.2476899937
 30
0.0
 10
-6.8172698846
 20
13.2302855878
 30
0.0
  0
SPLINE
  5
3BF
100
AcDbEntity
  8
RACCORDO
100
AcDbSpline
 62
250
  6
CONTINUOUS
 70
0
 71
3
 72
14
 73
10
 74
0
 42
0.0000001
 43
0.0000001
 44
0.0000000001
 40
0.0
 40
0.0
 40
0.0
 40
0.0
 40
0.1420818546
 40
0.2484049776
 40
0.3294686054
 40
0.4065329364
 40
0.5029441758
 40
0.6314052143
 40
1.0
 40
1.0
 40
1.0
 40
1.0
 10
-6.8172698846
 20
13.2302855878
 30
0.0
 10
-6.8322447924
 20
13.2137241048
 30
0.0
 10
-6.8568422085
 20
13.1831722182
 30
0.0
 10
-6.8807614186
 20
13.1366318183
 30
0.0
 10
-6.8836944904
 20
13.0929257876
 30
0.0
 10
-6.8598092451
 20
13.0578200233
 30
0.0
 10
-6.8166759466
 20
13.0357127389
 30
0.0
 10
-6.7256948777
 20
13.0139262844
 30
0.0
 10
-6.6467631985
 20
13.012824812
 30
0.0
 10
-6.5888477217
 20
13.0138022189
 30
0.0
  0
SPLINE
  5
3C0
100
AcDbEntity
  8
RACCORDO
100
AcDbSpline
 62
250
  6
CONTINUOUS
 70
0
 71
3
 72
27
 73
23
 74
0
 42
0.0000001
 43
0.0000001
 44
0.0000000001
 40
0.0
 40
0.0
 40
0.0
 40
0.0
 40
0.0913076085
 40
0.1789351439
 40
0.2599291695
 40
0.3316521471
 40
0.3919570176
 40
0.439466393
 40
0.4583917679
 40
0.4743507145
 40
0.4878931199
 40
0.5000231845
 40
0.5121522081
 40
0.5256918174
 40
0.5416469673
 40
0.5605679245
 40
0.6080681957
 40
0.6683646714
 40
0.7400806427
 40
0.8210694052
 40
0.9086936603
 40
1.0
 40
1.0
 40
1.0
 40
1.0
 10
-0.1635425967
 20
18.6930562963
 30
0.0
 10
-0.4482261699
 20
18.6959671859
 30
0.0
 10
-1.0060844389
 20
18.715028044
 30
0.0
 10
-1.8140144589
 20
18.783821451
 30
0.0
 10
-2.5562376888
 20
18.8903867532
 30
0.0
 10
-3.2064024049
 20
19.0302819841
 30
0.0
 10
-3.741099179
 20
19.19812653
 30
0.0
 10
-4.1017969605
 20
19.3661530712
 30
0.0
 10
-4.3107980181
 20
19.5170131269
 30
0.0
 10
-4.4171644879
 20
19.625583806
 30
0.0
 10
-4.4840241316
 20
19.7389278125
 30
0.0
 10
-4.5075336269
 20
19.8572289247
 30
0.0
 10
-4.4840879383
 20
19.9755345662
 30
0.0
 10
-4.417285607
 20
20.0888864718
 30
0.0
 10
-4.3109722159
 20
20.1974621891
 30
0.0
 10
-4.1020451219
 20
20.3483332899
 30
0.0
 10
-3.7414265856
 20
20.5163726321
 30
0.0
 10
-3.2068155163
 20
20.6842347155
 30
0.0
 10
-2.5567209188
 20
20.8241512337
 30
0.0
 10
-1.8145503246
 20
20.9307426179
 30
0.0
 10
-1.0066529464
 20
20.9995590314
 30
0.0
 10
-0.448809839
 20
21.0186440015
 30
0.0
 10
-0.1641303545
 20
21.0215678094
 30
0.0
  0
SPLINE
  5
3C1
100
AcDbEntity
  8
0
100
AcDbSpline
 62
7
  6
CONTINUOUS
 70
0
 71
3
 72
15
 73
11
 74
0
 42
0.0000001
 43
0.0000001
 44
0.0000000001
 40
0.0
 40
0.0
 40
0.0
 40
0.0
 40
0.1166517494
 40
0.1613147255
 40
0.2126347248
 40
0.3344029432
 40
0.4790706877
 40
0.6420370971
 40
0.8177795121
 40
1.0
 40
1.0
 40
1.0
 40
1.0
 10
-4.0
 20
19.8573118658
 30
0.0
 10
-4.0
 20
20.0238711771
 30
0.0
 10
-3.7822120132
 20
20.2131606769
 30
0.0
 10
-3.5215616299
 20
20.3514058821
 30
0.0
 10
-3.2332092404
 20
20.4747285365
 30
0.0
 10
-2.7990161001
 20
20.6055506512
 30
0.0
 10
-2.1976596072
 20
20.7301399311
 30
0.0
 10
-1.5133674448
 20
20.8226188668
 30
0.0
 10
-0.7713844199
 20
20.8797892035
 30
0.0
 10
-0.2601805727
 20
20.8925880462
 30
0.0
 10
0.0
 20
20.8925880462
 30
0.0
  0
SPLINE
  5
3C2
100
AcDbEntity
  8
RACCORDO
100
AcDbSpline
 62
250
  6
CONTINUOUS
 70
0
 71
3
 72
13
 73
9
 74
0
 42
0.0000001
 43
0.0000001
 44
0.0000000001
 40
0.0
 40
0.0
 40
0.0
 40
0.0
 40
0.3292058928
 40
0.6233152152
 40
0.7475440126
 40
0.8525253878
 40
0.9365743253
 40
1.0
 40
1.0
 40
1.0
 40
1.0
 10
0.0
 20
17.7128302657
 30
0.0
 10
-0.5921143916
 20
17.7128302657
 30
0.0
 10
-1.713587138
 20
17.760608646
 30
0.0
 10
-3.0493058211
 20
17.9413471592
 30
0.0
 10
-3.964517373
 20
18.1643784954
 30
0.0
 10
-4.4988697477
 20
18.3474980627
 30
0.0
 10
-4.9066212675
 20
18.5491263764
 30
0.0
 10
-5.1185339643
 20
18.7172574412
 30
0.0
 10
-5.1898183729
 20
18.8063214401
 30
0.0
  0
SPLINE
  5
3C3
100
AcDbEntity
  8
RACCORDO
100
AcDbSpline
 62
250
  6
CONTINUOUS
 70
0
 71
3
 72
9
 73
5
 74
0
 42
0.0000001
 43
0.0000001
 44
0.0000000001
 40
0.0
 40
0.0
 40
0.0
 40
0.0
 40
0.5305973241
 40
1.0
 40
1.0
 40
1.0
 40
1.0
 10
-5.1898183729
 20
18.8063214401
 30
0.0
 10
-5.2233828647
 20
18.8482575089
 30
0.0
 10
-5.2784011222
 20
18.9352018925
 30
0.0
 10
-5.3000006091
 20
19.0370520024
 30
0.0
 10
-5.2999999911
 20
19.0845712047
 30
0.0
  0
SPLINE
  5
3C4
100
AcDbEntity
  8
RACCORDO
100
AcDbSpline
 62
250
  6
CONTINUOUS
 70
0
 71
3
 72
13
 73
9
 74
0
 42
0.0000001
 43
0.0000001
 44
0.0000000001
 40
0.0
 40
0.0
 40
0.0
 40
0.0
 40
0.3311906996
 40
0.6261867276
 40
0.7502515968
 40
0.8546327634
 40
0.937706413
 40
1.0
 40
1.0
 40
1.0
 40
1.0
 10
0.0
 20
16.0713379824
 30
0.0
 10
-0.6829178293
 20
16.0713379824
 30
0.0
 10
-1.9745414248
 20
16.1269240449
 30
0.0
 10
-3.5112467751
 20
16.3371128396
 30
0.0
 10
-4.5598580598
 20
16.5965370296
 30
0.0
 10
-5.1679106674
 20
16.8089916078
 30
0.0
 10
-5.6280193339
 20
17.0424059216
 30
0.0
 10
-5.8639695242
 20
17.2378613867
 30
0.0
 10
-5.940686828
 20
17.3408847994
 30
0.0
  0
SPLINE
  5
3C5
100
AcDbEntity
  8
RACCORDO
100
AcDbSpline
 62
250
  6
CONTINUOUS
 70
0
 71
3
 72
9
 73
5
 74
0
 42
0.0000001
 43
0.0000001
 44
0.0000000001
 40
0.0
 40
0.0
 40
0.0
 40
0.0
 40
0.5271478337
 40
1.0
 40
1.0
 40
1.0
 40
1.0
 10
-5.940686828
 20
17.3408847994
 30
0.0
 10
-5.9742733551
 20
17.3859880352
 30
0.0
 10
-6.0290131645
 20
17.4794402691
 30
0.0
 10
-6.0499999987
 20
17.5867504985
 30
0.0
 10
-6.05
 20
17.6371932053
 30
0.0
  0
SPLINE
  5
3C6
100
AcDbEntity
  8
RACCORDO
100
AcDbSpline
 62
250
  6
CONTINUOUS
 70
0
 71
3
 72
17
 73
13
 74
0
 42
0.0000001
 43
0.0000001
 44
0.0000000001
 40
0.0
 40
0.0
 40
0.0
 40
0.0
 40
0.1814212323
 40
0.3563418888
 40
0.5185898733
 40
0.6626027719
 40
0.7838247664
 40
0.8792707513
 40
0.91720208
 40
0.9490763241
 40
0.9759960378
 40
1.0
 40
1.0
 40
1.0
 40
1.0
 10
0.0
 20
14.4664109974
 30
0.0
 10
-0.4358534698
 20
14.4664109974
 30
0.0
 10
-1.2921046801
 20
14.4878512305
 30
0.0
 10
-2.5349127976
 20
14.5835655331
 30
0.0
 10
-3.6811442544
 20
14.7386894563
 30
0.0
 10
-4.6881944426
 20
14.9465783876
 30
0.0
 10
-5.5181732887
 20
15.1987925273
 30
0.0
 10
-6.0791054093
 20
15.4529363764
 30
0.0
 10
-6.4048793977
 20
15.6821147797
 30
0.0
 10
-6.57057417
 20
15.8472537344
 30
0.0
 10
-6.6750355602
 20
16.0196754951
 30
0.0
 10
-6.6999939176
 20
16.1428305411
 30
0.0
 10
-6.6999939167
 20
16.2004985996
 30
0.0
  0
SPLINE
  5
3C7
100
AcDbEntity
  8
RACCORDO
100
AcDbSpline
 62
250
  6
CONTINUOUS
 70
0
 71
3
 72
19
 73
15
 74
0
 42
0.0000001
 43
0.0000001
 44
0.0000000001
 40
0.0
 40
0.0
 40
0.0
 40
0.0
 40
0.0291085343
 40
0.0547509075
 40
0.0809650816
 40
0.1115412249
 40
0.1488017573
 40
0.1938091816
 40
0.2468612554
 40
0.3078352372
 40
0.4516364681
 40
0.6199510318
 40
0.8055150112
 40
1.0
 40
1.0
 40
1.0
 40
1.0
 10
-5.3023773044
 20
18.6812944691
 30
0.0
 10
-5.3399723178
 20
18.6350263468
 30
0.0
 10
-5.4012842349
 20
18.5383332181
 30
0.0
 10
-5.4301385565
 20
18.3697040975
 30
0.0
 10
-5.3806752437
 20
18.2030443616
 30
0.0
 10
-5.2629493313
 20
18.0472515459
 30
0.0
 10
-5.083753284
 20
17.8992300007
 30
0.0
 10
-4.8443127926
 20
17.7581100379
 30
0.0
 10
-4.5467173909
 20
17.624554155
 30
0.0
 10
-4.0482313319
 20
17.4489861529
 30
0.0
 10
-3.3043008108
 20
17.2673648864
 30
0.0
 10
-2.2964505386
 20
17.1100433317
 30
0.0
 10
-1.1768716321
 20
17.0122060745
 30
0.0
 10
-0.3983199387
 20
16.9902247871
 30
0.0
 10
0.0
 20
16.9902247871
 30
0.0
  0
SPLINE
  5
3C8
100
AcDbEntity
  8
RACCORDO
100
AcDbSpline
 62
250
  6
CONTINUOUS
 70
0
 71
3
 72
18
 73
14
 74
0
 42
0.0000001
 43
0.0000001
 44
0.0000000001
 40
0.0
 40
0.0
 40
0.0
 40
0.0
 40
0.0277936549
 40
0.0530160494
 40
0.1104046331
 40
0.1486986029
 40
0.1946618488
 40
0.2484950712
 40
0.310034981
 40
0.4542927508
 40
0.6222384963
 40
0.8068218291
 40
1.0
 40
1.0
 40
1.0
 40
1.0
 10
-6.0528297303
 20
17.2193332272
 30
0.0
 10
-6.0897372797
 20
17.1669229611
 30
0.0
 10
-6.1480573522
 20
17.0561230421
 30
0.0
 10
-6.1655123516
 20
16.7932325442
 30
0.0
 10
-5.9901844308
 20
16.5446894201
 30
0.0
 10
-5.7327309394
 20
16.3474331501
 30
0.0
 10
-5.4539119748
 20
16.1897607684
 30
0.0
 10
-5.1122091667
 20
16.0420593491
 30
0.0
 10
-4.5451268685
 20
15.8479327011
 30
0.0
 10
-3.705104744
 20
15.6472817419
 30
0.0
 10
-2.5717353052
 20
15.4734655725
 30
0.0
 10
-1.3169795147
 20
15.3655254243
 30
0.0
 10
-0.4455337707
 20
15.3412793368
 30
0.0
 10
0.0
 20
15.3412793368
 30
0.0
  0
SPLINE
  5
3C9
100
AcDbEntity
  8
RACCORDO
100
AcDbSpline
 62
250
  6
CONTINUOUS
 70
0
 71
3
 72
17
 73
13
 74
0
 42
0.0000001
 43
0.0000001
 44
0.0000000001
 40
0.0
 40
0.0
 40
0.0
 40
0.0
 40
0.0240045996
 40
0.0509232547
 40
0.0827994335
 40
0.1207287036
 40
0.2161755686
 40
0.3373987921
 40
0.4814128068
 40
0.6436617304
 40
0.8185865458
 40
1.0
 40
1.0
 40
1.0
 40
1.0
 10
-6.0499949701
 20
17.0711723734
 30
0.0
 10
-6.0499839676
 20
17.0190976656
 30
0.0
 10
-6.027431315
 20
16.9078996028
 30
0.0
 10
-5.9331310587
 20
16.752185565
 30
0.0
 10
-5.7834874062
 20
16.6030918308
 30
0.0
 10
-5.4893455187
 20
16.396113688
 30
0.0
 10
-4.9828124727
 20
16.166651327
 30
0.0
 10
-4.2333568845
 20
15.9388931728
 30
0.0
 10
-3.3239963694
 20
15.7511772741
 30
0.0
 10
-2.2889553613
 20
15.61110054
 30
0.0
 10
-1.1667247979
 20
15.5246775271
 30
0.0
 10
-0.3935517768
 20
15.5053171505
 30
0.0
 10
0.0
 20
15.5053171505
 30
0.0
  0
SPLINE
  5
3CA
100
AcDbEntity
  8
RACCORDO
100
AcDbSpline
 62
250
  6
CONTINUOUS
 70
0
 71
3
 72
14
 73
10
 74
0
 42
0.0000001
 43
0.0000001
 44
0.0000000001
 40
0.0
 40
0.0
 40
0.0
 40
0.0
 40
0.0593717123
 40
0.1419404266
 40
0.2458326732
 40
0.3690289317
 40
0.5093140484
 40
0.663922883
 40
1.0
 40
1.0
 40
1.0
 40
1.0
 10
-6.5888477217
 20
13.0138022189
 30
0.0
 10
-6.4576775021
 20
13.0160159048
 30
0.0
 10
-6.1450877407
 20
13.0495566712
 30
0.0
 10
-5.6082624593
 20
13.1307948341
 30
0.0
 10
-4.9329861753
 20
13.2417642993
 30
0.0
 10
-4.1307963552
 20
13.3659433338
 30
0.0
 10
-3.2148185809
 20
13.487181773
 30
0.0
 10
-1.8274891358
 20
13.6269717171
 30
0.0
 10
-0.7426025766
 20
13.6729163626
 30
0.0
 10
0.0
 20
13.6729271268
 30
0.0
  0
SPLINE
  5
3CB
100
AcDbEntity
  8
RACCORDO
100
AcDbSpline
 62
7
  6
CONTINUOUS
 70
0
 71
3
 72
10
 73
6
 74
0
 42
0.0000001
 43
0.0000001
 44
0.0000000001
 40
0.0
 40
0.0
 40
0.0
 40
0.0
 40
0.6961989458
 40
0.889770097
 40
1.0
 40
1.0
 40
1.0
 40
1.0
 10
1.7016432476
 20
-20.6996409831
 30
0.0
 10
1.7199754922
 20
-20.7876579878
 30
0.0
 10
1.7470536731
 20
-20.9016199414
 30
0.0
 10
1.7981777323
 20
-21.0179153848
 30
0.0
 10
1.8314092225
 20
-21.0477141242
 30
0.0
 10
1.845631105
 20
-21.0483224998
 30
0.0
  0
SPLINE
  5
3CC
100
AcDbEntity
  8
RACCORDO
100
AcDbSpline
 62
7
  6
CONTINUOUS
 70
0
 71
3
 72
10
 73
6
 74
0
 42
0.0000001
 43
0.0000001
 44
0.0000000001
 40
0.0
 40
0.0
 40
0.0
 40
0.0
 40
0.110229903
 40
0.3038010542
 40
1.0
 40
1.0
 40
1.0
 40
1.0
 10
-1.845631105
 20
-21.0483224998
 30
0.0
 10
-1.8314092225
 20
-21.0477141242
 30
0.0
 10
-1.7981777323
 20
-21.0179153848
 30
0.0
 10
-1.7470536731
 20
-20.9016199414
 30
0.0
 10
-1.7199754922
 20
-20.7876579878
 30
0.0
 10
-1.7016432476
 20
-20.6996409831
 30
0.0
  0
SPLINE
  5
3CD
100
AcDbEntity
  8
RACCORDO
100
AcDbSpline
 62
7
  6
CONTINUOUS
 70
0
 71
3
 72
13
 73
9
 74
0
 42
0.0000001
 43
0.0000001
 44
0.0000000001
 40
0.0
 40
0.0
 40
0.0
 40
0.0
 40
0.0209725708
 40
0.0797046792
 40
0.1746982767
 40
0.3010834911
 40
0.6249164981
 40
1.0
 40
1.0
 40
1.0
 40
1.0
 10
5.5854871188
 20
-19.8013843116
 30
0.0
 10
5.5852873156
 20
-19.8003128286
 30
0.0
 10
5.5791119503
 20
-19.8017218767
 30
0.0
 10
5.5720624287
 20
-19.8024539833
 30
0.0
 10
5.5569110612
 20
-19.8064651213
 30
0.0
 10
5.5301141123
 20
-19.8135736792
 30
0.0
 10
5.4886181644
 20
-19.8259523068
 30
0.0
 10
5.454060161
 20
-19.8367203642
 30
0.0
 10
5.4354928304
 20
-19.8426567387
 30
0.0
  0
SPLINE
  5
3CE
100
AcDbEntity
  8
RACCORDO
100
AcDbSpline
 62
7
  6
CONTINUOUS
 70
0
 71
3
 72
9
 73
5
 74
0
 42
0.0000001
 43
0.0000001
 44
0.0000000001
 40
0.0
 40
0.0
 40
0.0
 40
0.0
 40
0.2715969187
 40
1.0
 40
1.0
 40
1.0
 40
1.0
 10
-5.4977055892
 20
-19.8233153753
 30
0.0
 10
-5.5016900793
 20
-19.8221161074
 30
0.0
 10
-5.5163700575
 20
-19.8177320536
 30
0.0
 10
-5.5310870077
 20
-19.8134692287
 30
0.0
 10
-5.5418433875
 20
-19.8104963237
 30
0.0
  0
SPLINE
  5
3CF
100
AcDbEntity
  8
RACCORDO
100
AcDbSpline
 62
7
  6
CONTINUOUS
 70
0
 71
3
 72
9
 73
5
 74
0
 42
0.0000001
 43
0.0000001
 44
0.0000000001
 40
0.0
 40
0.0
 40
0.0
 40
0.0
 40
0.2959006668
 40
1.0
 40
1.0
 40
1.0
 40
1.0
 10
-5.5418433875
 20
-19.8104963237
 30
0.0
 10
-5.5447812097
 20
-19.8096843529
 30
0.0
 10
-5.5547204504
 20
-19.8069824426
 30
0.0
 10
-5.5646973378
 20
-19.8043999193
 30
0.0
 10
-5.5717804187
 20
-19.8028406801
 30
0.0
  0
LINE
  5
3D0
100
AcDbEntity
  8
RACCORDO
100
AcDbLine
 62
7
  6
CONTINUOUS
 10
-5.5717804187
 20
-19.8028406801
 11
-5.5794358735
 21
-19.8013465452
  0
LINE
  5
3D1
100
AcDbEntity
  8
RACCORDO
100
AcDbLine
 62
7
  6
CONTINUOUS
 10
-5.5794358735
 20
-19.8013465452
 11
-5.5839676458
 21
-19.8008962067
  0
SPLINE
  5
3D2
100
AcDbEntity
  8
RACCORDO
100
AcDbSpline
 62
7
  6
CONTINUOUS
 70
0
 71
3
 72
9
 73
5
 74
0
 42
0.0000001
 43
0.0000001
 44
0.0000000001
 40
0.0
 40
0.0
 40
0.0
 40
0.0
 40
0.6657918038
 40
1.0
 40
1.0
 40
1.0
 40
1.0
 10
-5.5839676458
 20
-19.8008962067
 30
0.0
 10
-5.5843351171
 20
-19.8009022647
 30
0.0
 10
-5.5848548582
 20
-19.8008894066
 30
0.0
 10
-5.5854533002
 20
-19.8012029528
 30
0.0
 10
-5.5854871188
 20
-19.8013843116
 30
0.0
  0
SPLINE
  5
3D3
100
AcDbEntity
  8
RACCORDO
100
AcDbSpline
 62
7
  6
CONTINUOUS
 70
0
 71
3
 72
11
 73
7
 74
0
 42
0.0000001
 43
0.0000001
 44
0.0000000001
 40
0.0
 40
0.0
 40
0.0
 40
0.0
 40
0.3880508033
 40
0.6807873418
 40
0.8812800106
 40
1.0
 40
1.0
 40
1.0
 40
1.0
 10
5.594376327
 20
-19.8476835252
 30
0.0
 10
5.6043431484
 20
-19.8980587388
 30
0.0
 10
5.6232929847
 20
-19.9859648613
 30
0.0
 10
5.6559963743
 20
-20.0987752355
 30
0.0
 10
5.6864909206
 20
-20.172476669
 30
0.0
 10
5.7143242018
 20
-20.2085877619
 30
0.0
 10
5.7289160525
 20
-20.2144099642
 30
0.0
  0
SPLINE
  5
3D4
100
AcDbEntity
  8
RACCORDO
100
AcDbSpline
 62
7
  6
CONTINUOUS
 70
0
 71
3
 72
8
 73
4
 74
0
 42
0.0000001
 43
0.0000001
 44
0.0000000001
 40
0.0
 40
0.0
 40
0.0
 40
0.0
 40
1.0
 40
1.0
 40
1.0
 40
1.0
 10
5.7289160525
 20
-20.2144099642
 30
0.0
 10
5.7341220589
 20
-20.2164871799
 30
0.0
 10
5.7401143004
 20
-20.2172348623
 30
0.0
 10
5.745631105
 20
-20.2162438048
 30
0.0
  0
SPLINE
  5
3D5
100
AcDbEntity
  8
RACCORDO
100
AcDbSpline
 62
7
  6
CONTINUOUS
 70
0
 71
3
 72
8
 73
4
 74
0
 42
0.0000001
 43
0.0000001
 44
0.0000000001
 40
0.0
 40
0.0
 40
0.0
 40
0.0
 40
1.0
 40
1.0
 40
1.0
 40
1.0
 10
-5.745631105
 20
-20.2162438048
 30
0.0
 10
-5.7425680545
 20
-20.2167940616
 30
0.0
 10
-5.7393768765
 20
-20.2168543659
 30
0.0
 10
-5.7362963737
 20
-20.2164121407
 30
0.0
  0
SPLINE
  5
3D6
100
AcDbEntity
  8
RACCORDO
100
AcDbSpline
 62
7
  6
CONTINUOUS
 70
0
 71
3
 72
10
 73
6
 74
0
 42
0.0000001
 43
0.0000001
 44
0.0000000001
 40
0.0
 40
0.0
 40
0.0
 40
0.0
 40
0.1139418074
 40
0.310038493
 40
1.0
 40
1.0
 40
1.0
 40
1.0
 10
-5.7362963737
 20
-20.2164121407
 30
0.0
 10
-5.7227784316
 20
-20.2144715563
 30
0.0
 10
-5.6932203722
 20
-20.1853635878
 30
0.0
 10
-5.6451819603
 20
-20.0775635445
 30
0.0
 10
-5.6203316508
 20
-19.9722304763
 30
0.0
 10
-5.6032802605
 20
-19.8913120195
 30
0.0
  0
LINE
  5
3D7
100
AcDbEntity
  8
0
100
AcDbLine
 62
7
  6
CONTINUOUS
 10
16.0574173753
 20
0.6366039631
 11
16.0572548521
 21
0.728464948
  0
SPLINE
  5
3D8
100
AcDbEntity
  8
RACCORDO
100
AcDbSpline
 62
7
  6
CONTINUOUS
 70
0
 71
3
 72
12
 73
8
 74
0
 42
0.0000001
 43
0.0000001
 44
0.0000000001
 40
0.0
 40
0.0
 40
0.0
 40
0.0
 40
0.4156898147
 40
0.7146001912
 40
0.8216298937
 40
0.9020651257
 40
1.0
 40
1.0
 40
1.0
 40
1.0
 10
5.5854869661
 20
-19.8013834952
 30
0.0
 10
5.5971628753
 20
-19.8639978781
 30
0.0
 10
5.6196089155
 20
-19.9712985252
 30
0.0
 10
5.6529896582
 20
-20.0926092726
 30
0.0
 10
5.6832598876
 20
-20.1616054072
 30
0.0
 10
5.7040515521
 20
-20.1984847111
 30
0.0
 10
5.7308707568
 20
-20.2188997344
 30
0.0
 10
5.7456395592
 20
-20.2162422849
 30
0.0
  0
SPLINE
  5
3D9
100
AcDbEntity
  8
0
100
AcDbSpline
 62
7
  6
CONTINUOUS
 70
0
 71
3
 72
15
 73
11
 74
0
 42
0.0000001
 43
0.0000001
 44
0.0000000001
 40
0.0
 40
0.0
 40
0.0
 40
0.0
 40
0.1822048321
 40
0.3579717837
 40
0.5209273911
 40
0.6656009091
 40
0.7873729819
 40
0.8386842839
 40
0.8833540325
 40
1.0
 40
1.0
 40
1.0
 40
1.0
 10
0.0
 20
18.8220356854
 30
0.0
 10
0.2601569583
 20
18.8220356854
 30
0.0
 10
0.771370621
 20
18.8348446335
 30
0.0
 10
1.5133481932
 20
18.8919990051
 30
0.0
 10
2.1976647913
 20
18.9844912799
 30
0.0
 10
2.7990122399
 20
19.1090810635
 30
0.0
 10
3.2332235826
 20
19.2398609635
 30
0.0
 10
3.52154955
 20
19.3632425438
 30
0.0
 10
3.7822190796
 20
19.5014281543
 30
0.0
 10
3.9999636785
 20
19.690761617
 30
0.0
 10
3.9999636785
 20
19.8573118658
 30
0.0
  0
SPLINE
  5
3DA
100
AcDbEntity
  8
RACCORDO
100
AcDbSpline
 62
7
  6
CONTINUOUS
 70
0
 71
3
 72
10
 73
6
 74
0
 42
0.0000001
 43
0.0000001
 44
0.0000000001
 40
0.0
 40
0.0
 40
0.0
 40
0.0
 40
0.4806865056
 40
0.7337108412
 40
1.0
 40
1.0
 40
1.0
 40
1.0
 10
6.1088062485
 20
17.2994217136
 30
0.0
 10
6.2704505985
 20
17.1714199989
 30
0.0
 10
6.491285161
 20
16.9340895316
 30
0.0
 10
6.6679102638
 20
16.5389996217
 30
0.0
 10
6.7
 20
16.3147217606
 30
0.0
 10
6.7
 20
16.2004986082
 30
0.0
  0
SPLINE
  5
3DB
100
AcDbEntity
  8
RACCORDO
100
AcDbSpline
 62
7
  6
CONTINUOUS
 70
0
 71
3
 72
11
 73
7
 74
0
 42
0.0000001
 43
0.0000001
 44
0.0000000001
 40
0.0
 40
0.0
 40
0.0
 40
0.0
 40
0.2359703077
 40
0.4786178061
 40
0.7323875982
 40
1.0
 40
1.0
 40
1.0
 40
1.0
 10
5.369713778
 20
18.7730085227
 30
0.0
 10
5.458890723
 20
18.7117152992
 30
0.0
 10
5.6321606191
 20
18.5751158713
 30
0.0
 10
5.8513942302
 20
18.3173079282
 30
0.0
 10
6.0113155373
 20
18.0009319459
 30
0.0
 10
6.05
 20
17.7599133795
 30
0.0
 10
6.05
 20
17.6371932083
 30
0.0
  0
SPLINE
  5
3DC
100
AcDbEntity
  8
RACCORDO
100
AcDbSpline
 62
7
  6
CONTINUOUS
 70
0
 71
3
 72
17
 73
13
 74
0
 42
0.0000001
 43
0.0000001
 44
0.0000000001
 40
0.0
 40
0.0
 40
0.0
 40
0.0
 40
0.1591855753
 40
0.3126380126
 40
0.4551696839
 40
0.582906009
 40
0.6944575395
 40
0.7933553619
 40
0.8415204805
 40
0.8916796486
 40
0.9444653468
 40
1.0
 40
1.0
 40
1.0
 40
1.0
 10
-0.0
 20
21.0492569077
 30
0.0
 10
0.3234093624
 20
21.0492569077
 30
0.0
 10
0.9587180875
 20
21.0324661629
 30
0.0
 10
1.8808998772
 20
20.9572949938
 30
0.0
 10
2.7335923746
 20
20.8345877572
 30
0.0
 10
3.4918678802
 20
20.6661441041
 30
0.0
 10
4.1453821597
 20
20.4498007308
 30
0.0
 10
4.6156504752
 20
20.2058224799
 30
0.0
 10
4.9276157546
 20
19.9514363217
 30
0.0
 10
5.12368311
 20
19.7120489337
 30
0.0
 10
5.2658773759
 20
19.419132167
 30
0.0
 10
5.3
 20
19.197398179
 30
0.0
 10
5.3
 20
19.0845712047
 30
0.0
  0
SPLINE
  5
3DD
100
AcDbEntity
  8
0
100
AcDbSpline
 62
7
  6
CONTINUOUS
 70
0
 71
3
 72
10
 73
6
 74
0
 42
0.0000001
 43
0.0000001
 44
0.0000000001
 40
0.0
 40
0.0
 40
0.0
 40
0.0
 40
0.5598220839
 40
0.8013272577
 40
1.0
 40
1.0
 40
1.0
 40
1.0
 10
0.0
 20
19.7334770546
 30
0.0
 10
0.6267699927
 20
19.7334770546
 30
0.0
 10
1.5264653645
 20
19.6830096303
 30
0.0
 10
2.6301894875
 20
19.4910030931
 30
0.0
 10
3.1065024508
 20
19.3573850734
 30
0.0
 10
3.3142263652
 20
19.2778452392
 30
0.0
  0
SPLINE
  5
3DE
100
AcDbEntity
  8
RACCORDO
100
AcDbSpline
 62
7
  6
CONTINUOUS
 70
0
 71
3
 72
9
 73
5
 74
0
 42
0.0000001
 43
0.0000001
 44
0.0000000001
 40
0.0
 40
0.0
 40
0.0
 40
0.0
 40
0.4999551089
 40
1.0
 40
1.0
 40
1.0
 40
1.0
 10
17.7006642808
 20
-0.741945052
 30
0.0
 10
17.8163293749
 20
-0.741945052
 30
0.0
 10
18.0561751514
 20
-0.8323460695
 30
0.0
 10
18.1681417869
 20
-1.0629912412
 30
0.0
 10
18.178612249
 20
-1.1782023034
 30
0.0
  0
SPLINE
  5
3DF
100
AcDbEntity
  8
RACCORDO
100
AcDbSpline
 62
7
  6
CONTINUOUS
 70
0
 71
3
 72
9
 73
5
 74
0
 42
0.0000001
 43
0.0000001
 44
0.0000000001
 40
0.0
 40
0.0
 40
0.0
 40
0.0
 40
0.4999551089
 40
1.0
 40
1.0
 40
1.0
 40
1.0
 10
17.7006642808
 20
-4.941945052
 30
0.0
 10
17.8163293748
 20
-4.941945052
 30
0.0
 10
18.0561751514
 20
-4.8515440345
 30
0.0
 10
18.1681417869
 20
-4.6208988629
 30
0.0
 10
18.178612249
 20
-4.5056878007
 30
0.0
  0
SPLINE
  5
3E0
100
AcDbEntity
  8
0
100
AcDbSpline
 62
7
  6
CONTINUOUS
 70
0
 71
3
 72
15
 73
11
 74
0
 42
0.0000001
 43
0.0000001
 44
0.0000000001
 40
0.0
 40
0.0
 40
0.0
 40
0.0
 40
0.1166459675
 40
0.1613157161
 40
0.2126270181
 40
0.3343990909
 40
0.4790726089
 40
0.6420282163
 40
0.8177951679
 40
1.0
 40
1.0
 40
1.0
 40
1.0
 10
3.9999636785
 20
19.8573118658
 30
0.0
 10
3.9999636785
 20
20.0238621145
 30
0.0
 10
3.7822190796
 20
20.2131955772
 30
0.0
 10
3.52154955
 20
20.3513811877
 30
0.0
 10
3.2332235826
 20
20.4747627681
 30
0.0
 10
2.7990122399
 20
20.6055426681
 30
0.0
 10
2.1976647913
 20
20.7301324516
 30
0.0
 10
1.5133481932
 20
20.8226247265
 30
0.0
 10
0.771370621
 20
20.8797790981
 30
0.0
 10
0.2601569583
 20
20.8925880462
 30
0.0
 10
0.0
 20
20.8925880462
 30
0.0
  0
SPLINE
  5
3E1
100
AcDbEntity
  8
RACCORDO
100
AcDbSpline
 62
250
  6
CONTINUOUS
 70
0
 71
3
 72
25
 73
21
 74
0
 42
0.0000001
 43
0.0000001
 44
0.0000000001
 40
0.0
 40
0.0
 40
0.0
 40
0.0
 40
0.2180598083
 40
0.4222044869
 40
0.5156299981
 40
0.6019106107
 40
0.6802827645
 40
0.7500516842
 40
0.8105828543
 40
0.8612501661
 40
0.9014685049
 40
0.9175156692
 40
0.9308128628
 40
0.9413920091
 40
0.9494179121
 40
0.9553783917
 40
0.9605113059
 40
0.96665554
 40
0.9750080835
 40
1.0
 40
1.0
 40
1.0
 40
1.0
 10
0.0
 20
13.6729143694
 30
0.0
 10
0.526727881
 20
13.6729038963
 30
0.0
 10
1.546830966
 20
13.6425899468
 30
0.0
 10
2.7882788465
 20
13.5353027792
 30
0.0
 10
3.7086890693
 20
13.422872265
 30
0.0
 10
4.3259758358
 20
13.335614919
 30
0.0
 10
4.885533971
 20
13.248747144
 30
0.0
 10
5.3830695551
 20
13.1679868678
 30
0.0
 10
5.8147256507
 20
13.098927433
 30
0.0
 10
6.176752045
 20
13.0468877899
 30
0.0
 10
6.4337649993
 20
13.0193794136
 30
0.0
 10
6.6017444707
 20
13.0125249174
 30
0.0
 10
6.698214417
 20
13.0147492371
 30
0.0
 10
6.7749799037
 20
13.0243793209
 30
0.0
 10
6.8319696467
 20
13.0415203107
 30
0.0
 10
6.8717193166
 20
13.0687320319
 30
0.0
 10
6.8861211083
 20
13.1109112203
 30
0.0
 10
6.8718713001
 20
13.1581035958
 30
0.0
 10
6.81864874
 20
13.2375844834
 30
0.0
 10
6.7568530358
 20
13.2912981798
 30
0.0
 10
6.7098076906
 20
13.3291279155
 30
0.0
  0
SPLINE
  5
3E2
100
AcDbEntity
  8
RACCORDO
100
AcDbSpline
 62
250
  6
CONTINUOUS
 70
0
 71
3
 72
22
 73
18
 74
0
 42
0.0000001
 43
0.0000001
 44
0.0000000001
 40
0.0
 40
0.0
 40
0.0
 40
0.0
 40
0.1982815573
 40
0.3870021386
 40
0.5584769327
 40
0.7071579201
 40
0.7716104345
 40
0.8288238843
 40
0.8783143764
 40
0.9195961748
 40
0.9522267364
 40
0.9651933483
 40
0.9759036315
 40
0.9844003516
 40
0.990844766
 40
0.9956857009
 40
1.0
 40
1.0
 40
1.0
 40
1.0
 10
0.0
 20
14.0477239567
 30
0.0
 10
0.4483917193
 20
14.0476691577
 30
0.0
 10
1.3237609285
 20
14.0226592997
 30
0.0
 10
2.5828296928
 20
13.9172014747
 30
0.0
 10
3.7240394757
 20
13.7663883168
 30
0.0
 10
4.5816552366
 20
13.6209713963
 30
0.0
 10
5.1828814167
 20
13.5101243949
 30
0.0
 10
5.5633682275
 20
13.4391627928
 30
0.0
 10
5.8927770768
 20
13.3800429498
 30
0.0
 10
6.1684032296
 20
13.3363645325
 30
0.0
 10
6.3637214021
 20
13.3136176144
 30
0.0
 10
6.4909938246
 20
13.3078794314
 30
0.0
 10
6.5638032715
 20
13.3096255253
 30
0.0
 10
6.6215043295
 20
13.3173794262
 30
0.0
 10
6.6643589521
 20
13.3311128638
 30
0.0
 10
6.6937047499
 20
13.3532780306
 30
0.0
 10
6.6999883912
 20
13.3746618041
 30
0.0
 10
6.6999951903
 20
13.3844181099
 30
0.0
  0
SPLINE
  5
3E3
100
AcDbEntity
  8
RACCORDO
100
AcDbSpline
 62
250
  6
CONTINUOUS
 70
0
 71
3
 72
17
 73
13
 74
0
 42
0.0000001
 43
0.0000001
 44
0.0000000001
 40
0.0
 40
0.0
 40
0.0
 40
0.0
 40
0.0240038906
 40
0.0509238686
 40
0.0827981557
 40
0.1207287493
 40
0.216175721
 40
0.3373973121
 40
0.4814095519
 40
0.6436593194
 40
0.818577481
 40
1.0
 40
1.0
 40
1.0
 40
1.0
 10
6.6999913058
 20
16.2004986082
 30
0.0
 10
6.6999913066
 20
16.1428307341
 30
0.0
 10
6.6750379655
 20
16.0196740325
 30
0.0
 10
6.5705700024
 20
15.8472544222
 30
0.0
 10
6.404876639
 20
15.682117157
 30
0.0
 10
6.0791078748
 20
15.4529294739
 30
0.0
 10
5.5181688331
 20
15.1987991373
 30
0.0
 10
4.6881943076
 20
14.9465772447
 30
0.0
 10
3.6811421109
 20
14.7386861118
 30
0.0
 10
2.5349133495
 20
14.5835707948
 30
0.0
 10
1.2921047506
 20
14.4878491668
 30
0.0
 10
0.4358564677
 20
14.4664110055
 30
0.0
 10
0.0
 20
14.4664110055
 30
0.0
  0
SPLINE
  5
3E4
100
AcDbEntity
  8
RACCORDO
100
AcDbSpline
 62
250
  6
CONTINUOUS
 70
0
 71
3
 72
17
 73
13
 74
0
 42
0.0000001
 43
0.0000001
 44
0.0000000001
 40
0.0
 40
0.0
 40
0.0
 40
0.0
 40
0.024003894
 40
0.0509238368
 40
0.0827980979
 40
0.1207286913
 40
0.2161757414
 40
0.3373973012
 40
0.4814095994
 40
0.6436594028
 40
0.8185775317
 40
1.0
 40
1.0
 40
1.0
 40
1.0
 10
6.0499920741
 20
17.6371932083
 30
0.0
 10
6.0499920752
 20
17.5851199714
 30
0.0
 10
6.0274597461
 20
17.4739113492
 30
0.0
 10
5.9331267721
 20
17.3182191143
 30
0.0
 10
5.7835082466
 20
17.1691027263
 30
0.0
 10
5.4893438825
 20
16.962149511
 30
0.0
 10
4.9828241819
 20
16.732673595
 30
0.0
 10
4.2333693769
 20
16.5049208723
 30
0.0
 10
3.3240161246
 20
16.3171983036
 30
0.0
 10
2.2889885304
 20
16.1771314677
 30
0.0
 10
1.1667510128
 20
16.0906963271
 30
0.0
 10
0.3935717751
 20
16.0713379853
 30
0.0
 10
0.0
 20
16.0713379853
 30
0.0
  0
SPLINE
  5
3E5
100
AcDbEntity
  8
RACCORDO
100
AcDbSpline
 62
250
  6
CONTINUOUS
 70
0
 71
3
 72
27
 73
23
 74
0
 42
0.0000001
 43
0.0000001
 44
0.0000000001
 40
0.0
 40
0.0
 40
0.0
 40
0.0
 40
0.0907018654
 40
0.1781770895
 40
0.2592935798
 40
0.3313021607
 40
0.3919121134
 40
0.4396356644
 40
0.4586009226
 40
0.474538641
 40
0.4879974886
 40
0.5000000131
 40
0.5120025409
 40
0.5254613947
 40
0.5413991262
 40
0.5603643933
 40
0.6080879738
 40
0.6686979583
 40
0.7407065632
 40
0.8218230727
 40
0.9092983031
 40
1.0
 40
1.0
 40
1.0
 40
1.0
 10
0.0
 20
21.0219158566
 30
0.0
 10
0.2927080667
 20
21.0219158566
 30
0.0
 10
0.8678210916
 20
21.0076012652
 30
0.0
 10
1.7025396496
 20
20.9433295025
 30
0.0
 10
2.4724172605
 20
20.8390988969
 30
0.0
 10
3.1487777289
 20
20.6995002206
 30
0.0
 10
3.7062198272
 20
20.5300803038
 30
0.0
 10
4.0829778982
 20
20.3594191302
 30
0.0
 10
4.3017637215
 20
20.205460529
 30
0.0
 10
4.4130785849
 20
20.0946023391
 30
0.0
 10
4.4831856432
 20
19.9786713105
 30
0.0
 10
4.5079263577
 20
19.8573116226
 30
0.0
 10
4.4831854392
 20
19.7359519662
 30
0.0
 10
4.4130782612
 20
19.6200209272
 30
0.0
 10
4.3017631889
 20
19.5091628149
 30
0.0
 10
4.0829772048
 20
19.3552041748
 30
0.0
 10
3.7062188615
 20
19.184543006
 30
0.0
 10
3.1487764031
 20
19.0151233892
 30
0.0
 10
2.4724158128
 20
18.8755241387
 30
0.0
 10
1.7025378306
 20
18.771294551
 30
0.0
 10
0.8678198613
 20
18.7070237088
 30
0.0
 10
0.292707523
 20
18.6927013225
 30
0.0
 10
0.0
 20
18.6927013225
 30
0.0
  0
SPLINE
  5
3E6
100
AcDbEntity
  8
RACCORDO
100
AcDbSpline
 62
250
  6
CONTINUOUS
 70
0
 71
3
 72
17
 73
13
 74
0
 42
0.0000001
 43
0.0000001
 44
0.0000000001
 40
0.0
 40
0.0
 40
0.0
 40
0.0
 40
0.0240051197
 40
0.0509229095
 40
0.0827984879
 40
0.1207291661
 40
0.216176764
 40
0.3373972972
 40
0.4814151291
 40
0.6436489624
 40
0.8185998623
 40
1.0
 40
1.0
 40
1.0
 40
1.0
 10
5.3
 20
19.0845712047
 30
0.0
 10
5.3000000014
 20
19.0389511383
 30
0.0
 10
5.2801962473
 20
18.9415461646
 30
0.0
 10
5.1976250795
 20
18.8051247543
 30
0.0
 10
5.0665199119
 20
18.6745178198
 30
0.0
 10
4.808837231
 20
18.4932065239
 30
0.0
 10
4.3650975086
 20
18.292192358
 30
0.0
 10
3.7085496755
 20
18.0926621694
 30
0.0
 10
2.9119448503
 20
17.9282347791
 30
0.0
 10
2.0051928369
 20
17.8054894257
 30
0.0
 10
1.0220857016
 20
17.7298037344
 30
0.0
 10
0.344738391
 20
17.7128302657
 30
0.0
 10
0.0
 20
17.7128302657
 30
0.0
  0
SPLINE
  5
3E7
100
AcDbEntity
  8
RACCORDO
100
AcDbSpline
 62
250
  6
CONTINUOUS
 70
0
 71
3
 72
14
 73
10
 74
0
 42
0.0000001
 43
0.0000001
 44
0.0000000001
 40
0.0
 40
0.0
 40
0.0
 40
0.0
 40
0.0387159255
 40
0.1018951545
 40
0.1915422912
 40
0.3073330283
 40
0.4480733469
 40
0.6119679679
 40
1.0
 40
1.0
 40
1.0
 40
1.0
 10
12.7549862107
 20
8.6208162975
 30
0.0
 10
12.7848703288
 20
8.6253025873
 30
0.0
 10
12.8651894578
 20
8.6004315662
 30
0.0
 10
12.9928294012
 20
8.5254179698
 30
0.0
 10
13.1605932479
 20
8.397684132
 30
0.0
 10
13.3618600997
 20
8.2176295466
 30
0.0
 10
13.5934507803
 20
7.9847426538
 30
0.0
 10
13.9553175795
 20
7.5829171081
 30
0.0
 10
14.2210765368
 20
7.2429369277
 30
0.0
 10
14.3988622269
 20
6.9977366735
 30
0.0
  0
SPLINE
  5
3E8
100
AcDbEntity
  8
RACCORDO
100
AcDbSpline
 62
250
  6
CONTINUOUS
 70
0
 71
3
 72
19
 73
15
 74
0
 42
0.0000001
 43
0.0000001
 44
0.0000000001
 40
0.0
 40
0.0
 40
0.0
 40
0.0
 40
0.1945998605
 40
0.3802084929
 40
0.5484894043
 40
0.6922302224
 40
0.7531690907
 40
0.8061916256
 40
0.851164528
 40
0.888395116
 40
0.9189477322
 40
0.9451575702
 40
0.9708279342
 40
1.0
 40
1.0
 40
1.0
 40
1.0
 10
0.0
 20
16.9902247901
 30
0.0
 10
0.3986689035
 20
16.9902247901
 30
0.0
 10
1.177769351
 20
17.0122452798
 30
0.0
 10
2.2979213025
 20
17.1101970248
 30
0.0
 10
3.3059364928
 20
17.2676847196
 30
0.0
 10
4.0498006861
 20
17.4494059841
 30
0.0
 10
4.5481234774
 20
17.6251185491
 30
0.0
 10
4.8455758838
 20
17.7587294736
 30
0.0
 10
5.0848191715
 20
17.8999654393
 30
0.0
 10
5.2637973789
 20
18.0480773671
 30
0.0
 10
5.3812324172
 20
18.2040380282
 30
0.0
 10
5.4302303367
 20
18.3709058948
 30
0.0
 10
5.4007859014
 20
18.5396706101
 30
0.0
 10
5.3390737444
 20
18.6363636933
 30
0.0
 10
5.3012720582
 20
18.6826532695
 30
0.0
  0
SPLINE
  5
3E9
100
AcDbEntity
  8
RACCORDO
100
AcDbSpline
 62
250
  6
CONTINUOUS
 70
0
 71
3
 72
17
 73
13
 74
0
 42
0.0000001
 43
0.0000001
 44
0.0000000001
 40
0.0
 40
0.0
 40
0.0
 40
0.0
 40
0.1814936795
 40
0.3564280777
 40
0.5186499346
 40
0.662618096
 40
0.7838098714
 40
0.8792488616
 40
0.9171820371
 40
0.9490608185
 40
0.9759879787
 40
1.0
 40
1.0
 40
1.0
 40
1.0
 10
0.0
 20
17.162516066
 30
0.0
 10
0.34491731
 20
17.162516066
 30
0.0
 10
1.0224144765
 20
17.1794846906
 30
0.0
 10
2.005643192
 20
17.2552356715
 30
0.0
 10
2.9122529624
 20
17.3779539432
 30
0.0
 10
3.708682038
 20
17.5423829589
 30
0.0
 10
4.3650827586
 20
17.741853131
 30
0.0
 10
4.8087461175
 20
17.9428515885
 30
0.0
 10
5.0664634083
 20
18.1241198788
 30
0.0
 10
5.1975607447
 20
18.2547607294
 30
0.0
 10
5.2802459852
 20
18.3911706442
 30
0.0
 10
5.2999898795
 20
18.4886236706
 30
0.0
 10
5.2999931374
 20
18.5342570051
 30
0.0
  0
SPLINE
  5
3EA
100
AcDbEntity
  8
RACCORDO
100
AcDbSpline
 62
250
  6
CONTINUOUS
 70
0
 71
3
 72
18
 73
14
 74
0
 42
0.0000001
 43
0.0000001
 44
0.0000000001
 40
0.0
 40
0.0
 40
0.0
 40
0.0
 40
0.1938307836
 40
0.3786730422
 40
0.5465326676
 40
0.6904750049
 40
0.7517955236
 40
0.80539517
 40
0.8511187731
 40
0.889204845
 40
0.9464290543
 40
0.9718416539
 40
1.0
 40
1.0
 40
1.0
 40
1.0
 10
0.0755885208
 20
15.3413995388
 30
0.0
 10
0.5182972172
 20
15.3428074282
 30
0.0
 10
1.3833075866
 20
15.3694875458
 30
0.0
 10
2.6274770037
 20
15.4802491659
 30
0.0
 10
3.7489874455
 20
15.6559825388
 30
0.0
 10
4.5787775419
 20
15.8575169871
 30
0.0
 10
5.1377416612
 20
16.0520099238
 30
0.0
 10
5.4738412976
 20
16.199651322
 30
0.0
 10
5.7473441807
 20
16.3572315293
 30
0.0
 10
5.9994200077
 20
16.5541997788
 30
0.0
 10
6.1683673087
 20
16.8035796659
 30
0.0
 10
6.1453749037
 20
17.0643554128
 30
0.0
 10
6.085465138
 20
17.1742488464
 30
0.0
 10
6.0477948425
 20
17.2263758324
 30
0.0
  0
SPLINE
  5
3EB
100
AcDbEntity
  8
RACCORDO
100
AcDbSpline
 62
250
  6
CONTINUOUS
 70
0
 71
3
 72
17
 73
13
 74
0
 42
0.0000001
 43
0.0000001
 44
0.0000000001
 40
0.0
 40
0.0
 40
0.0
 40
0.0
 40
0.1813232233
 40
0.3561786302
 40
0.5183885111
 40
0.6624017198
 40
0.7836583448
 40
0.8791623183
 40
0.9171250108
 40
0.9490272721
 40
0.9759735328
 40
1.0
 40
1.0
 40
1.0
 40
1.0
 10
0.0
 20
15.505317159
 30
0.0
 10
0.3933561386
 20
15.505317159
 30
0.0
 10
1.1661829721
 20
15.5246584193
 30
0.0
 10
2.2879860195
 20
15.6110084927
 30
0.0
 10
3.3228025967
 20
15.7509802279
 30
0.0
 10
4.2321642161
 20
15.9386017995
 30
0.0
 10
4.9818529062
 20
16.1662839781
 30
0.0
 10
5.4886591802
 20
16.3957596549
 30
0.0
 10
5.7831193742
 20
16.6027391552
 30
0.0
 10
5.9329106835
 20
16.7519430762
 30
0.0
 10
6.0274256627
 20
16.9077269118
 30
0.0
 10
6.0499791352
 20
17.0190502204
 30
0.0
 10
6.0499739957
 20
17.0711723817
 30
0.0
  0
SPLINE
  5
3EC
100
AcDbEntity
  8
RACCORDO
100
AcDbSpline
 62
250
  6
CONTINUOUS
 70
0
 71
3
 72
9
 73
5
 74
0
 42
0.0000001
 43
0.0000001
 44
0.0000000001
 40
0.0
 40
0.0
 40
0.0
 40
0.0
 40
0.2651941519
 40
1.0
 40
1.0
 40
1.0
 40
1.0
 10
15.5433899863
 20
-11.7504126673
 30
0.0
 10
15.4482002496
 20
-11.9077094635
 30
0.0
 10
15.0791274025
 20
-12.4946450967
 30
0.0
 10
14.671591512
 20
-13.0574961987
 30
0.0
 10
14.3513153351
 20
-13.4536616104
 30
0.0
  0
SPLINE
  5
3ED
100
AcDbEntity
  8
RACCORDO
100
AcDbSpline
 62
250
  6
CONTINUOUS
 70
0
 71
3
 72
9
 73
5
 74
0
 42
0.0000001
 43
0.0000001
 44
0.0000000001
 40
0.0
 40
0.0
 40
0.0
 40
0.0
 40
0.2654171799
 40
1.0
 40
1.0
 40
1.0
 40
1.0
 10
15.3870047753
 20
-11.1044087531
 30
0.0
 10
15.3085999833
 20
-11.2492849094
 30
0.0
 10
15.0045480392
 20
-11.7903839068
 30
0.0
 10
14.6664373687
 20
-12.3124846302
 30
0.0
 10
14.3988622269
 20
-12.6816267776
 30
0.0
  0
SPLINE
  5
3EE
100
AcDbEntity
  8
RACCORDO
100
AcDbSpline
 62
250
  6
CONTINUOUS
 70
0
 71
3
 72
10
 73
6
 74
0
 42
0.0000001
 43
0.0000001
 44
0.0000000001
 40
0.0
 40
0.0
 40
0.0
 40
0.0
 40
0.2013823208
 40
0.5570335954
 40
1.0
 40
1.0
 40
1.0
 40
1.0
 10
15.5433407072
 20
-11.7504957598
 30
0.0
 10
15.5631985143
 20
-11.7085033963
 30
0.0
 10
15.5931235852
 20
-11.5796613375
 30
0.0
 10
15.5413262587
 20
-11.3478601515
 30
0.0
 10
15.4488325667
 20
-11.1860251629
 30
0.0
 10
15.3870047743
 20
-11.1046800487
 30
0.0
  0
SPLINE
  5
3EF
100
AcDbEntity
  8
RACCORDO
100
AcDbSpline
 62
250
  6
CONTINUOUS
 70
0
 71
3
 72
24
 73
20
 74
0
 42
0.0000001
 43
0.0000001
 44
0.0000000001
 40
0.0
 40
0.0
 40
0.0
 40
0.0
 40
0.2447998761
 40
0.3537670003
 40
0.4525811741
 40
0.5404628339
 40
0.6167136384
 40
0.6808080924
 40
0.7323090994
 40
0.7711690899
 40
0.7979405661
 40
0.815076813
 40
0.8226453232
 40
0.8313749681
 40
0.8422598764
 40
0.8558133122
 40
0.891718175
 40
0.9397990555
 40
1.0
 40
1.0
 40
1.0
 40
1.0
 10
14.3513153351
 20
-13.4536616104
 30
0.0
 10
14.1801748004
 20
-13.6652233623
 30
0.0
 10
13.9236183023
 20
-13.9637469056
 30
0.0
 10
13.5764331677
 20
-14.3279299713
 30
0.0
 10
13.3414004017
 20
-14.557764216
 30
0.0
 10
13.1248094881
 20
-14.7541452837
 30
0.0
 10
12.9297405434
 20
-14.9164812263
 30
0.0
 10
12.7587781769
 20
-15.0441842143
 30
0.0
 10
12.6148071917
 20
-15.1379057765
 30
0.0
 10
12.4979577097
 20
-15.1967759946
 30
0.0
 10
12.4108773467
 20
-15.2258022369
 30
0.0
 10
12.3483174501
 20
-15.2186242681
 30
0.0
 10
12.3237779803
 20
-15.1885526655
 30
0.0
 10
12.3159831752
 20
-15.1587936918
 30
0.0
 10
12.3160870128
 20
-15.1216866811
 30
0.0
 10
12.3274593495
 20
-15.0553842419
 30
0.0
 10
12.3632151628
 20
-14.9524995386
 30
0.0
 10
12.4295620383
 20
-14.8065893795
 30
0.0
 10
12.4855184575
 20
-14.6999384436
 30
0.0
 10
12.517412099
 20
-14.6411090149
 30
0.0
  0
SPLINE
  5
3F0
100
AcDbEntity
  8
RACCORDO
100
AcDbSpline
 62
250
  6
CONTINUOUS
 70
0
 71
3
 72
9
 73
5
 74
0
 42
0.0000001
 43
0.0000001
 44
0.0000000001
 40
0.0
 40
0.0
 40
0.0
 40
0.0
 40
0.2362929635
 40
1.0
 40
1.0
 40
1.0
 40
1.0
 10
12.517412099
 20
-14.6411090149
 30
0.0
 10
12.5254977836
 20
-14.6261945624
 30
0.0
 10
12.559957354
 20
-14.5632065291
 30
0.0
 10
12.5952533291
 20
-14.5006788927
 30
0.0
 10
12.6224899336
 20
-14.4530896044
 30
0.0
  0
SPLINE
  5
3F1
100
AcDbEntity
  8
RACCORDO
100
AcDbSpline
 62
250
  6
CONTINUOUS
 70
0
 71
3
 72
12
 73
8
 74
0
 42
0.0000001
 43
0.0000001
 44
0.0000000001
 40
0.0
 40
0.0
 40
0.0
 40
0.0
 40
0.0835787101
 40
0.1858211544
 40
0.4307405274
 40
0.7079404866
 40
1.0
 40
1.0
 40
1.0
 40
1.0
 10
12.7475656265
 20
-14.2382138305
 30
0.0
 10
12.8869537214
 20
-14.0018471411
 30
0.0
 10
13.2024845536
 20
-13.479664808
 30
0.0
 10
13.9131692533
 20
-12.2569700381
 30
0.0
 10
14.8369838325
 20
-10.4228612766
 30
0.0
 10
15.7431858121
 20
-7.8996728641
 30
0.0
 10
16.1161434295
 20
-6.0594582921
 30
0.0
 10
16.2333291795
 20
-5.1077572917
 30
0.0
  0
SPLINE
  5
3F2
100
AcDbEntity
  8
RACCORDO
100
AcDbSpline
 62
250
  6
CONTINUOUS
 70
0
 71
3
 72
14
 73
10
 74
0
 42
0.0000001
 43
0.0000001
 44
0.0000000001
 40
0.0
 40
0.0
 40
0.0
 40
0.0
 40
0.3880354041
 40
0.5519309333
 40
0.6926716151
 40
0.8084619074
 40
0.8981081967
 40
0.9612856814
 40
1.0
 40
1.0
 40
1.0
 40
1.0
 10
14.3988622269
 20
-12.6816267776
 30
0.0
 10
14.2210744069
 20
-12.9268298968
 30
0.0
 10
13.955312539
 20
-13.2668137774
 30
0.0
 10
13.593441485
 20
-13.6686426248
 30
0.0
 10
13.3618489834
 20
-13.9015300843
 30
0.0
 10
13.1605815494
 20
-14.0815841068
 30
0.0
 10
12.9928179429
 20
-14.2093157413
 30
0.0
 10
12.8651799978
 20
-14.2843265006
 30
0.0
 10
12.784861337
 20
-14.3091941146
 30
0.0
 10
12.7549787697
 20
-14.3047053142
 30
0.0
  0
SPLINE
  5
3F3
100
AcDbEntity
  8
RACCORDO
100
AcDbSpline
 62
250
  6
CONTINUOUS
 70
0
 71
3
 72
9
 73
5
 74
0
 42
0.0000001
 43
0.0000001
 44
0.0000000001
 40
0.0
 40
0.0
 40
0.0
 40
0.0
 40
0.4669297833
 40
1.0
 40
1.0
 40
1.0
 40
1.0
 10
14.3513073835
 20
-13.4536557302
 30
0.0
 10
14.4199873039
 20
-13.350681923
 30
0.0
 10
14.4994269592
 20
-13.0825453833
 30
0.0
 10
14.4470004189
 20
-12.8144859875
 30
0.0
 10
14.39886868
 20
-12.6816267775
 30
0.0
  0
SPLINE
  5
3F4
100
AcDbEntity
  8
RACCORDO
100
AcDbSpline
 62
250
  6
CONTINUOUS
 70
0
 71
3
 72
9
 73
5
 74
0
 42
0.0000001
 43
0.0000001
 44
0.0000000001
 40
0.0
 40
0.0
 40
0.0
 40
0.0
 40
0.3070833852
 40
1.0
 40
1.0
 40
1.0
 40
1.0
 10
16.233473686
 20
-5.1077774607
 30
0.0
 10
16.2357958312
 20
-5.1063382809
 30
0.0
 10
16.2430350457
 20
-5.1013617485
 30
0.0
 10
16.2491136477
 20
-5.0933864481
 30
0.0
 10
16.2498533976
 20
-5.0872664821
 30
0.0
  0
SPLINE
  5
3F5
100
AcDbEntity
  8
RACCORDO
100
AcDbSpline
 62
250
  6
CONTINUOUS
 70
0
 71
3
 72
9
 73
5
 74
0
 42
0.0000001
 43
0.0000001
 44
0.0000000001
 40
0.0
 40
0.0
 40
0.0
 40
0.0
 40
0.4999995805
 40
1.0
 40
1.0
 40
1.0
 40
1.0
 10
16.23572581
 20
-5.086007051
 30
0.0
 10
16.3172903946
 20
-4.3414406924
 30
0.0
 10
16.387133512
 20
-2.8419654054
 30
0.0
 10
16.317293281
 20
-1.3424899907
 30
0.0
 10
16.2357301041
 20
-0.5979222136
 30
0.0
  0
SPLINE
  5
3F6
100
AcDbEntity
  8
RACCORDO
100
AcDbSpline
 62
250
  6
CONTINUOUS
 70
0
 71
3
 72
12
 73
8
 74
0
 42
0.0000001
 43
0.0000001
 44
0.0000000001
 40
0.0
 40
0.0
 40
0.0
 40
0.0
 40
0.2920942328
 40
0.5693185974
 40
0.8142345467
 40
0.9164571457
 40
1.0
 40
1.0
 40
1.0
 40
1.0
 10
16.2333291795
 20
-0.5761328123
 30
0.0
 10
16.1161078217
 20
0.3758458463
 30
0.0
 10
15.7430062504
 20
2.2165666896
 30
0.0
 10
14.8364296855
 20
4.740312565
 30
0.0
 10
13.9123109518
 20
6.5746695485
 30
0.0
 10
13.2015330689
 20
7.7973679685
 30
0.0
 10
12.8860366725
 20
8.319480862
 30
0.0
 10
12.7466978297
 20
8.5557950271
 30
0.0
  0
SPLINE
  5
3F7
100
AcDbEntity
  8
RACCORDO
100
AcDbSpline
 62
250
  6
CONTINUOUS
 70
0
 71
3
 72
9
 73
5
 74
0
 42
0.0000001
 43
0.0000001
 44
0.0000000001
 40
0.0
 40
0.0
 40
0.0
 40
0.0
 40
0.2746467149
 40
1.0
 40
1.0
 40
1.0
 40
1.0
 10
12.7435068734
 20
8.5612081482
 30
0.0
 10
12.7222573765
 20
8.5972648196
 30
0.0
 10
12.6452003882
 20
8.7287284327
 30
0.0
 10
12.5695329479
 20
8.8610399858
 30
0.0
 10
12.5168687924
 20
8.9582214728
 30
0.0
  0
SPLINE
  5
3F8
100
AcDbEntity
  8
RACCORDO
100
AcDbSpline
 62
250
  6
CONTINUOUS
 70
0
 71
3
 72
24
 73
20
 74
0
 42
0.0000001
 43
0.0000001
 44
0.0000000001
 40
0.0
 40
0.0
 40
0.0
 40
0.0
 40
0.0601420666
 40
0.1081665248
 40
0.1440193707
 40
0.1575498277
 40
0.168415361
 40
0.1771318476
 40
0.1846971371
 40
0.2018565433
 40
0.2286635172
 40
0.2675585898
 40
0.3190911728
 40
0.3832127463
 40
0.4594860543
 40
0.5473856452
 40
0.646213458
 40
0.7551903227
 40
1.0
 40
1.0
 40
1.0
 40
1.0
 10
12.5168687924
 20
8.9582214728
 30
0.0
 10
12.4850272565
 20
9.0169788531
 30
0.0
 10
12.4291711029
 20
9.1234918622
 30
0.0
 10
12.3629737518
 20
9.2692057514
 30
0.0
 10
12.3273356201
 20
9.3719397715
 30
0.0
 10
12.316056077
 20
9.4381296392
 30
0.0
 10
12.3160123957
 20
9.4751631979
 30
0.0
 10
12.3238719278
 20
9.5048582019
 30
0.0
 10
12.3485193784
 20
9.5348326522
 30
0.0
 10
12.4111199081
 20
9.5418539603
 30
0.0
 10
12.4982442211
 20
9.5127705063
 30
0.0
 10
12.6151357388
 20
9.4538180935
 30
0.0
 10
12.7591268854
 20
9.3600496081
 30
0.0
 10
12.9300882557
 20
9.2323139524
 30
0.0
 10
13.1251354841
 20
9.0699702511
 30
0.0
 10
13.3416861556
 20
8.8736031488
 30
0.0
 10
13.5766626111
 20
8.6438056247
 30
0.0
 10
13.9237454042
 20
8.2797103836
 30
0.0
 10
14.1802261169
 20
7.9812698102
 30
0.0
 10
14.3513153351
 20
7.7697715064
 30
0.0
  0
SPLINE
  5
3F9
100
AcDbEntity
  8
RACCORDO
100
AcDbSpline
 62
250
  6
CONTINUOUS
 70
0
 71
3
 72
9
 73
5
 74
0
 42
0.0000001
 43
0.0000001
 44
0.0000000001
 40
0.0
 40
0.0
 40
0.0
 40
0.0
 40
0.3071262823
 40
1.0
 40
1.0
 40
1.0
 40
1.0
 10
16.2333294795
 20
-0.5761327705
 30
0.0
 10
16.2356535278
 20
-0.5775710165
 30
0.0
 10
16.2428979667
 20
-0.5825438934
 30
0.0
 10
16.2489876834
 20
-0.5905128227
 30
0.0
 10
16.2497352565
 20
-0.5966331461
 30
0.0
  0
SPLINE
  5
3FA
100
AcDbEntity
  8
RACCORDO
100
AcDbSpline
 62
250
  6
CONTINUOUS
 70
0
 71
3
 72
9
 73
5
 74
0
 42
0.0000001
 43
0.0000001
 44
0.0000000001
 40
0.0
 40
0.0
 40
0.0
 40
0.0
 40
0.233051671
 40
1.0
 40
1.0
 40
1.0
 40
1.0
 10
14.3988622269
 20
6.9977366735
 30
0.0
 10
14.4837513811
 20
6.8806250114
 30
0.0
 10
14.8394992654
 20
6.3719871214
 30
0.0
 10
15.1604493052
 20
5.8391450149
 30
0.0
 10
15.3870047753
 20
5.4205162459
 30
0.0
  0
SPLINE
  5
3FB
100
AcDbEntity
  8
RACCORDO
100
AcDbSpline
 62
250
  6
CONTINUOUS
 70
0
 71
3
 72
9
 73
5
 74
0
 42
0.0000001
 43
0.0000001
 44
0.0000000001
 40
0.0
 40
0.0
 40
0.0
 40
0.0
 40
0.466929683
 40
1.0
 40
1.0
 40
1.0
 40
1.0
 10
14.3513091158
 20
7.7697669078
 30
0.0
 10
14.4199883267
 20
7.6667925042
 30
0.0
 10
14.4994261747
 20
7.3986552456
 30
0.0
 10
14.4469985388
 20
7.1305958913
 30
0.0
 10
14.3988663106
 20
6.9977366736
 30
0.0
  0
SPLINE
  5
3FC
100
AcDbEntity
  8
RACCORDO
100
AcDbSpline
 62
250
  6
CONTINUOUS
 70
0
 71
3
 72
9
 73
5
 74
0
 42
0.0000001
 43
0.0000001
 44
0.0000000001
 40
0.0
 40
0.0
 40
0.0
 40
0.0
 40
0.233391766
 40
1.0
 40
1.0
 40
1.0
 40
1.0
 10
14.3513153351
 20
7.7697715064
 30
0.0
 10
14.4530406998
 20
7.6439423614
 30
0.0
 10
14.8796789177
 20
7.0974136693
 30
0.0
 10
15.2682259548
 20
6.5212188155
 30
0.0
 10
15.5433897777
 20
6.0665227739
 30
0.0
  0
SPLINE
  5
3FD
100
AcDbEntity
  8
RACCORDO
100
AcDbSpline
 62
250
  6
CONTINUOUS
 70
0
 71
3
 72
11
 73
7
 74
0
 42
0.0000001
 43
0.0000001
 44
0.0000000001
 40
0.0
 40
0.0
 40
0.0
 40
0.0
 40
0.2015653397
 40
0.4296669613
 40
0.695277676
 40
1.0
 40
1.0
 40
1.0
 40
1.0
 10
15.5433407072
 20
6.0666056557
 30
0.0
 10
15.5634175452
 20
6.0245490253
 30
0.0
 10
15.5866283064
 20
5.9249393004
 30
0.0
 10
15.5668862195
 20
5.7631500264
 30
0.0
 10
15.4989261858
 20
5.5900083853
 30
0.0
 10
15.4284843379
 20
5.4777384738
 30
0.0
 10
15.3870047743
 20
5.4207899446
 30
0.0
  0
SPLINE
  5
3FE
100
AcDbEntity
  8
RACCORDO
100
AcDbSpline
 62
7
  6
CONTINUOUS
 70
0
 71
3
 72
11
 73
7
 74
0
 42
0.0000001
 43
0.0000001
 44
0.0000000001
 40
0.0
 40
0.0
 40
0.0
 40
0.0
 40
0.2500013338
 40
0.4999701717
 40
0.7499551125
 40
1.0
 40
1.0
 40
1.0
 40
1.0
 10
-56.6700573966
 20
15.3644323957
 30
0.0
 10
-56.6047844178
 20
15.364456763
 30
0.0
 10
-56.4727830159
 20
15.3381485638
 30
0.0
 10
-56.3064215444
 20
15.2257664888
 30
0.0
 10
-56.19533346
 20
15.058598785
 30
0.0
 10
-56.1694316143
 20
14.9266260363
 30
0.0
 10
-56.1694316143
 20
14.8613416815
 30
0.0
  0
SPLINE
  5
3FF
100
AcDbEntity
  8
RACCORDO
100
AcDbSpline
 62
7
  6
CONTINUOUS
 70
0
 71
3
 72
11
 73
7
 74
0
 42
0.0000001
 43
0.0000001
 44
0.0000000001
 40
0.0
 40
0.0
 40
0.0
 40
0.0
 40
0.2500447335
 40
0.5000310637
 40
0.7499984574
 40
1.0
 40
1.0
 40
1.0
 40
1.0
 10
-56.1694316143
 20
-20.5452317856
 30
0.0
 10
-56.1694316143
 20
-20.6105161005
 30
0.0
 10
-56.1953336335
 20
-20.7424891408
 30
0.0
 10
-56.3064217496
 20
-20.9096567963
 30
0.0
 10
-56.4727832472
 20
-21.0220388461
 30
0.0
 10
-56.6047843629
 20
-21.0483468671
 30
0.0
 10
-56.6700573966
 20
-21.0483224998
 30
0.0
  0
SPLINE
  5
400
100
AcDbEntity
  8
RACCORDO
100
AcDbSpline
 62
7
  6
CONTINUOUS
 70
0
 71
3
 72
10
 73
6
 74
0
 42
0.0000001
 43
0.0000001
 44
0.0000000001
 40
0.0
 40
0.0
 40
0.0
 40
0.0
 40
0.6374610468
 40
0.8592712092
 40
1.0
 40
1.0
 40
1.0
 40
1.0
 10
-75.0207405947
 20
-19.8013843116
 30
0.0
 10
-75.0538537824
 20
-19.7998346316
 30
0.0
 10
-75.0996264529
 20
-19.8019940356
 30
0.0
 10
-75.1489204081
 20
-19.8173571027
 30
0.0
 10
-75.1652542057
 20
-19.829658799
 30
0.0
 10
-75.1681139908
 20
-19.8363951148
 30
0.0
  0
SPLINE
  5
401
100
AcDbEntity
  8
RACCORDO
100
AcDbSpline
 62
7
  6
CONTINUOUS
 70
0
 71
3
 72
9
 73
5
 74
0
 42
0.0000001
 43
0.0000001
 44
0.0000000001
 40
0.0
 40
0.0
 40
0.0
 40
0.0
 40
0.5083597219
 40
1.0
 40
1.0
 40
1.0
 40
1.0
 10
-75.1681139908
 20
-19.8363951148
 30
0.0
 10
-75.1685398812
 20
-19.8373983134
 30
0.0
 10
-75.1692025629
 20
-19.8394531098
 30
0.0
 10
-75.1694316143
 20
-19.8416027252
 30
0.0
 10
-75.1694316143
 20
-19.8426567387
 30
0.0
  0
SPLINE
  5
402
100
AcDbEntity
  8
RACCORDO
100
AcDbSpline
 62
7
  6
CONTINUOUS
 70
0
 71
3
 72
8
 73
4
 74
0
 42
0.0000001
 43
0.0000001
 44
0.0000000001
 40
0.0
 40
0.0
 40
0.0
 40
0.0
 40
1.0
 40
1.0
 40
1.0
 40
1.0
 10
-56.4231564345
 20
14.4633081975
 30
0.0
 10
-56.4909293922
 20
14.5039153754
 30
0.0
 10
-56.5711081115
 20
14.5283948698
 30
0.0
 10
-56.6500376737
 20
14.531893572
 30
0.0
  0
SPLINE
  5
403
100
AcDbEntity
  8
RACCORDO
100
AcDbSpline
 62
7
  6
CONTINUOUS
 70
0
 71
3
 72
8
 73
4
 74
0
 42
0.0000001
 43
0.0000001
 44
0.0000000001
 40
0.0
 40
0.0
 40
0.0
 40
0.0
 40
1.0
 40
1.0
 40
1.0
 40
1.0
 10
-56.5682424966
 20
-20.2050214802
 30
0.0
 10
-56.5174056643
 20
-20.1938302799
 30
0.0
 10
-56.4678290347
 20
-20.1739620775
 30
0.0
 10
-56.4231754392
 20
-20.1472098273
 30
0.0
  0
SPLINE
  5
404
100
AcDbEntity
  8
RACCORDO
100
AcDbSpline
 62
7
  6
CONTINUOUS
 70
0
 71
3
 72
9
 73
5
 74
0
 42
0.0000001
 43
0.0000001
 44
0.0000000001
 40
0.0
 40
0.0
 40
0.0
 40
0.0
 40
0.3320487451
 40
1.0
 40
1.0
 40
1.0
 40
1.0
 10
-75.1694316143
 20
14.1587666347
 30
0.0
 10
-75.1694316143
 20
14.1451793158
 30
0.0
 10
-75.1224761224
 20
14.1203542345
 30
0.0
 10
-75.0858906459
 20
14.1183923499
 30
0.0
 10
-75.0585789812
 20
14.1173296336
 30
0.0
  0
SPLINE
  5
405
100
AcDbEntity
  8
0
100
AcDbSpline
 62
7
  6
CONTINUOUS
 70
0
 71
3
 72
15
 73
11
 74
0
 42
0.0000001
 43
0.0000001
 44
0.0000000001
 40
0.0
 40
0.0
 40
0.0
 40
0.0
 40
0.130818536
 40
0.2616370719
 40
0.3924556079
 40
0.5232741439
 40
0.6540926798
 40
0.7849112158
 40
0.9157297518
 40
1.0
 40
1.0
 40
1.0
 40
1.0
 10
-69.8556516984
 20
0.728464948
 30
0.0
 10
-69.8911458802
 20
0.3751650067
 30
0.0
 10
-69.812424825
 20
-0.3462735386
 30
0.0
 10
-69.2656016463
 20
-1.2876141993
 30
0.0
 10
-68.3840609677
 20
-1.9260321428
 30
0.0
 10
-67.319419619
 20
-2.1517865595
 30
0.0
 10
-66.2547782702
 20
-1.9260321428
 30
0.0
 10
-65.3732375917
 20
-1.2876141993
 30
0.0
 10
-64.8912718953
 20
-0.457923863
 30
0.0
 10
-64.7847513259
 20
0.1214318201
 30
0.0
 10
-64.7735776117
 20
0.3499013382
 30
0.0
  0
SPLINE
  5
406
100
AcDbEntity
  8
0
100
AcDbSpline
 62
7
  6
CONTINUOUS
 70
0
 71
3
 72
15
 73
11
 74
0
 42
0.0000001
 43
0.0000001
 44
0.0000000001
 40
0.0
 40
0.0
 40
0.0
 40
0.0
 40
0.130818536
 40
0.2616370719
 40
0.3924556079
 40
0.5232741439
 40
0.6540926798
 40
0.7849112158
 40
0.9157297518
 40
1.0
 40
1.0
 40
1.0
 40
1.0
 10
-69.8556516984
 20
-3.606535052
 30
0.0
 10
-69.8911458802
 20
-3.9598349933
 30
0.0
 10
-69.812424825
 20
-4.6812735386
 30
0.0
 10
-69.2656016463
 20
-5.6226141993
 30
0.0
 10
-68.3840609677
 20
-6.2610321428
 30
0.0
 10
-67.319419619
 20
-6.4867865595
 30
0.0
 10
-66.2547782702
 20
-6.2610321428
 30
0.0
 10
-65.3732375917
 20
-5.6226141993
 30
0.0
 10
-64.8912718953
 20
-4.792923863
 30
0.0
 10
-64.7847513259
 20
-4.2135681799
 30
0.0
 10
-64.7735776117
 20
-3.9850986618
 30
0.0
  0
SPLINE
  5
407
100
AcDbEntity
  8
0
100
AcDbSpline
 62
7
  6
CONTINUOUS
 70
0
 71
3
 72
15
 73
11
 74
0
 42
0.0000001
 43
0.0000001
 44
0.0000000001
 40
0.0
 40
0.0
 40
0.0
 40
0.0
 40
0.1363019739
 40
0.2726039479
 40
0.4089059218
 40
0.5452078957
 40
0.6815098697
 40
0.8178118436
 40
0.9541138175
 40
1.0
 40
1.0
 40
1.0
 40
1.0
 10
-65.553414126
 20
-3.606535052
 30
0.0
 10
-65.5170027229
 20
-3.8588987422
 30
0.0
 10
-65.5539732898
 20
-4.3793086817
 30
0.0
 10
-65.9286909795
 20
-5.0664148885
 30
0.0
 10
-66.5549267227
 20
-5.5355836322
 30
0.0
 10
-67.319419619
 20
-5.7020110236
 30
0.0
 10
-68.0839125153
 20
-5.5355836322
 30
0.0
 10
-68.7101482585
 20
-5.0664148885
 30
0.0
 10
-69.0020097344
 20
-4.5312391091
 30
0.0
 10
-69.0738978839
 20
-4.1972544021
 30
0.0
 10
-69.0859088713
 20
-4.1122640259
 30
0.0
  0
SPLINE
  5
408
100
AcDbEntity
  8
RACCORDO
100
AcDbSpline
 62
7
  6
CONTINUOUS
 70
0
 71
3
 72
9
 73
5
 74
0
 42
0.0000001
 43
0.0000001
 44
0.0000000001
 40
0.0
 40
0.0
 40
0.0
 40
0.0
 40
0.4995559111
 40
1.0
 40
1.0
 40
1.0
 40
1.0
 10
-56.6500083064
 20
14.5323217392
 30
0.0
 10
-56.5579760714
 20
14.5321725912
 30
0.0
 10
-56.3698039921
 20
14.4724196339
 30
0.0
 10
-56.248858006
 20
14.3190663602
 30
0.0
 10
-56.2124294867
 20
14.234372427
 30
0.0
  0
SPLINE
  5
409
100
AcDbEntity
  8
RACCORDO
100
AcDbSpline
 62
7
  6
CONTINUOUS
 70
0
 71
3
 72
8
 73
4
 74
0
 42
0.0000001
 43
0.0000001
 44
0.0000000001
 40
0.0
 40
0.0
 40
0.0
 40
0.0
 40
1.0
 40
1.0
 40
1.0
 40
1.0
 10
-56.2124294867
 20
14.234372427
 30
0.0
 10
-56.1842238552
 20
14.1687961722
 30
0.0
 10
-56.1694316143
 20
14.0959635908
 30
0.0
 10
-56.1694316143
 20
14.0245786985
 30
0.0
  0
SPLINE
  5
40A
100
AcDbEntity
  8
RACCORDO
100
AcDbSpline
 62
7
  6
CONTINUOUS
 70
0
 71
3
 72
8
 73
4
 74
0
 42
0.0000001
 43
0.0000001
 44
0.0000000001
 40
0.0
 40
0.0
 40
0.0
 40
0.0
 40
1.0
 40
1.0
 40
1.0
 40
1.0
 10
-56.1723210692
 20
-19.7638604756
 30
0.0
 10
-56.1778400832
 20
-19.8167487691
 30
0.0
 10
-56.1914187687
 20
-19.8694139812
 30
0.0
 10
-56.2124294867
 20
-19.9182625311
 30
0.0
  0
SPLINE
  5
40B
100
AcDbEntity
  8
RACCORDO
100
AcDbSpline
 62
7
  6
CONTINUOUS
 70
0
 71
3
 72
9
 73
5
 74
0
 42
0.0000001
 43
0.0000001
 44
0.0000000001
 40
0.0
 40
0.0
 40
0.0
 40
0.0
 40
0.5004440889
 40
1.0
 40
1.0
 40
1.0
 40
1.0
 10
-56.2124294867
 20
-19.9182625311
 30
0.0
 10
-56.248858006
 20
-20.0029564643
 30
0.0
 10
-56.3698039921
 20
-20.156309738
 30
0.0
 10
-56.5579760714
 20
-20.2160626953
 30
0.0
 10
-56.6500083064
 20
-20.2162118433
 30
0.0
  0
SPLINE
  5
40C
100
AcDbEntity
  8
RACCORDO
100
AcDbSpline
 62
250
  6
CONTINUOUS
 70
0
 71
3
 72
45
 73
41
 74
0
 42
0.0000001
 43
0.0000001
 44
0.0000000001
 40
0.0
 40
0.0
 40
0.0
 40
0.0
 40
0.0001744445
 40
0.0006928043
 40
0.0015530861
 40
0.0027532958
 40
0.006165526
 40
0.0109133921
 40
0.0169705708
 40
0.024294722
 40
0.0328421994
 40
0.0425692262
 40
0.0653634441
 40
0.0922600351
 40
0.1228469903
 40
0.1567287895
 40
0.1935306251
 40
0.2329108066
 40
0.3180977289
 40
0.4097385577
 40
0.5050396552
 40
0.600714066
 40
0.6930728012
 40
0.778431733
 40
0.8174340109
 40
0.8534826666
 40
0.8862276642
 40
0.9153579534
 40
0.9405756236
 40
0.9616211837
 40
0.9705019809
 40
0.9782545121
 40
0.9848567605
 40
0.9902865623
 40
0.9945242291
 40
0.9975603028
 40
0.9986255808
 40
0.9993878664
 40
0.9998462943
 40
1.0
 40
1.0
 40
1.0
 40
1.0
 10
-89.1313551944
 20
14.0477239567
 30
0.0
 10
-89.1307765046
 20
14.0471583974
 30
0.0
 10
-89.1271757364
 20
14.047209473
 30
0.0
 10
-89.1206697668
 20
14.0445891897
 30
0.0
 10
-89.1088163795
 20
14.0420871103
 30
0.0
 10
-89.0843772612
 20
14.0355390591
 30
0.0
 10
-89.0421671791
 20
14.0250976405
 30
0.0
 10
-88.9782641259
 20
14.0089321427
 30
0.0
 10
-88.8966361847
 20
13.988673611
 30
0.0
 10
-88.7978475426
 20
13.9644610332
 30
0.0
 10
-88.6823982016
 20
13.9366961344
 30
0.0
 10
-88.49698313
 20
13.8929887722
 30
0.0
 10
-88.2281968627
 20
13.8320089867
 30
0.0
 10
-87.8639728862
 20
13.754495494
 30
0.0
 10
-87.4480912601
 20
13.6728566586
 30
0.0
 10
-86.9855065238
 20
13.590988579
 30
0.0
 10
-86.480964774
 20
13.5127146666
 30
0.0
 10
-85.7387053205
 20
13.4157286863
 30
0.0
 10
-84.7391837006
 20
13.3265828515
 30
0.0
 10
-83.476368794
 20
13.2941750043
 30
0.0
 10
-82.1656086654
 20
13.3544323679
 30
0.0
 10
-80.8598486291
 20
13.5146194883
 30
0.0
 10
-79.6152491312
 20
13.7635513269
 30
0.0
 10
-78.64477629
 20
14.0285706703
 30
0.0
 10
-77.9366668933
 20
14.257305359
 30
0.0
 10
-77.4650909122
 20
14.4236897044
 30
0.0
 10
-77.0404156945
 20
14.5849339919
 30
0.0
 10
-76.6657802413
 20
14.7361557304
 30
0.0
 10
-76.3437880645
 20
14.8726475408
 30
0.0
 10
-76.109792737
 20
14.9759750955
 30
0.0
 10
-75.9505575498
 20
15.0480151233
 30
0.0
 10
-75.8525832694
 20
15.0929336406
 30
0.0
 10
-75.7693445092
 20
15.1315619447
 30
0.0
 10
-75.7009567665
 20
15.1635117928
 30
0.0
 10
-75.6477062877
 20
15.1886470682
 30
0.0
 10
-75.6125301074
 20
15.204939196
 30
0.0
 10
-75.5923772893
 20
15.2148291324
 30
0.0
 10
-75.5823876611
 20
15.2189461099
 30
0.0
 10
-75.5773462931
 20
15.2224224834
 30
0.0
 10
-75.5740366374
 20
15.2228718885
 30
0.0
 10
-75.57370317
 20
15.2235020593
 30
0.0
  0
SPLINE
  5
40D
100
AcDbEntity
  8
RACCORDO
100
AcDbSpline
 62
250
  6
CONTINUOUS
 70
0
 71
3
 72
14
 73
10
 74
0
 42
0.0000001
 43
0.0000001
 44
0.0000000001
 40
0.0
 40
0.0
 40
0.0
 40
0.0
 40
0.0194090985
 40
0.0749696208
 40
0.1656379829
 40
0.2880431407
 40
0.4381406971
 40
0.6109482532
 40
1.0
 40
1.0
 40
1.0
 40
1.0
 10
-62.1894316143
 20
-4.941945052
 30
0.0
 10
-62.1922561367
 20
-4.941945052
 30
0.0
 10
-62.1905668689
 20
-4.9249917306
 30
0.0
 10
-62.1927876173
 20
-4.9065487943
 30
0.0
 10
-62.1927526376
 20
-4.8643439316
 30
0.0
 10
-62.1946176459
 20
-4.8128294037
 30
0.0
 10
-62.19578706
 20
-4.747557449
 30
0.0
 10
-62.1963231425
 20
-4.6441622539
 30
0.0
 10
-62.1942671608
 20
-4.5622540536
 30
0.0
 10
-62.1966642935
 20
-4.5056878007
 30
0.0
  0
LINE
  5
40E
100
AcDbEntity
  8
RACCORDO
100
AcDbLine
 62
250
  6
CONTINUOUS
 10
-56.6500083064
 20
-4.5055818597
 11
-62.1966642935
 21
-4.5056883163
  0
SPLINE
  5
40F
100
AcDbEntity
  8
RACCORDO
100
AcDbSpline
 62
250
  6
CONTINUOUS
 70
0
 71
3
 72
14
 73
10
 74
0
 42
0.0000001
 43
0.0000001
 44
0.0000000001
 40
0.0
 40
0.0
 40
0.0
 40
0.0
 40
0.0258749123
 40
0.0843376074
 40
0.1767297783
 40
0.299946665
 40
0.4497738236
 40
0.6208193023
 40
1.0
 40
1.0
 40
1.0
 40
1.0
 10
-62.6694316143
 20
-4.461945052
 30
0.0
 10
-62.6694316143
 20
-4.4660734289
 30
0.0
 10
-62.6541179761
 20
-4.4738488018
 30
0.0
 10
-62.6293457644
 20
-4.4798268014
 30
0.0
 10
-62.5847856483
 20
-4.4873173362
 30
0.0
 10
-62.5273592462
 20
-4.493334215
 30
0.0
 10
-62.4564861236
 20
-4.4986335361
 30
0.0
 10
-62.3450012894
 20
-4.5040351503
 30
0.0
 10
-62.2571630234
 20
-4.505604707
 30
0.0
 10
-62.1966642935
 20
-4.5056878007
 30
0.0
  0
SPLINE
  5
410
100
AcDbEntity
  8
RACCORDO
100
AcDbSpline
 62
250
  6
CONTINUOUS
 70
0
 71
3
 72
31
 73
27
 74
0
 42
0.0000001
 43
0.0000001
 44
0.0000000001
 40
0.0
 40
0.0
 40
0.0
 40
0.0
 40
0.0007012561
 40
0.0027824392
 40
0.0062239438
 40
0.0110059895
 40
0.0244630489
 40
0.0428267082
 40
0.0657214924
 40
0.0927180372
 40
0.1233936183
 40
0.1573439009
 40
0.2335678342
 40
0.318638442
 40
0.4099750227
 40
0.5048210991
 40
0.691900289
 40
0.7771581348
 40
0.8523635356
 40
0.9145743015
 40
0.939986371
 40
0.9612212742
 40
0.9780229244
 40
0.9901844426
 40
0.9975346411
 40
1.0
 40
1.0
 40
1.0
 40
1.0
 10
-89.3797906281
 20
13.6729143694
 30
0.0
 10
-89.3764281767
 20
13.6725798759
 30
0.0
 10
-89.3635235668
 20
13.6685787582
 30
0.0
 10
-89.3341247752
 20
13.6628827818
 30
0.0
 10
-89.2857871062
 20
13.6513664209
 30
0.0
 10
-89.1838224404
 20
13.6287156396
 30
0.0
 10
-89.0116652965
 20
13.5903159307
 30
0.0
 10
-88.7537857365
 20
13.5354643638
 30
0.0
 10
-88.4314380764
 20
13.4701399358
 30
0.0
 10
-88.0499604032
 20
13.3980518293
 30
0.0
 10
-87.6149282983
 20
13.3226941054
 30
0.0
 10
-86.9441872049
 20
13.2188971584
 30
0.0
 10
-86.0099986328
 20
13.1046116669
 30
0.0
 10
-84.7951461487
 20
13.018147407
 30
0.0
 10
-83.4872068561
 20
13.0037269232
 30
0.0
 10
-81.6903267629
 20
13.104819902
 30
0.0
 10
-79.9375041781
 20
13.3925483848
 30
0.0
 10
-78.3197920213
 20
13.8282783507
 30
0.0
 10
-77.3003522047
 20
14.1645713241
 30
0.0
 10
-76.566856362
 20
14.4436632343
 30
0.0
 10
-76.0817025812
 20
14.643124206
 30
0.0
 10
-75.800672175
 20
14.7635327021
 30
0.0
 10
-75.5791603984
 20
14.8606959082
 30
0.0
 10
-75.4199861232
 20
14.9334037114
 30
0.0
 10
-75.3230958989
 20
14.9760970166
 30
0.0
 10
-75.2807568577
 20
14.9973123944
 30
0.0
 10
-75.2697364038
 20
15.0017476995
 30
0.0
  0
SPLINE
  5
411
100
AcDbEntity
  8
RACCORDO
100
AcDbSpline
 62
250
  6
CONTINUOUS
 70
0
 71
3
 72
14
 73
10
 74
0
 42
0.0000001
 43
0.0000001
 44
0.0000000001
 40
0.0
 40
0.0
 40
0.0
 40
0.0
 40
0.0258749123
 40
0.0843376074
 40
0.1767297783
 40
0.299946665
 40
0.4497738236
 40
0.6208193023
 40
1.0
 40
1.0
 40
1.0
 40
1.0
 10
-62.6694316143
 20
-1.221945052
 30
0.0
 10
-62.6694316143
 20
-1.2178166752
 30
0.0
 10
-62.6541179761
 20
-1.2100413023
 30
0.0
 10
-62.6293457644
 20
-1.2040633027
 30
0.0
 10
-62.5847856483
 20
-1.1965727679
 30
0.0
 10
-62.5273592462
 20
-1.1905558891
 30
0.0
 10
-62.4564861236
 20
-1.185256568
 30
0.0
 10
-62.3450012894
 20
-1.1798549538
 30
0.0
 10
-62.2571630234
 20
-1.178285397
 30
0.0
 10
-62.1966642935
 20
-1.1782023034
 30
0.0
  0
SPLINE
  5
412
100
AcDbEntity
  8
RACCORDO
100
AcDbSpline
 62
250
  6
CONTINUOUS
 70
0
 71
3
 72
14
 73
10
 74
0
 42
0.0000001
 43
0.0000001
 44
0.0000000001
 40
0.0
 40
0.0
 40
0.0
 40
0.0
 40
0.0194090983
 40
0.0749696207
 40
0.1656379828
 40
0.2880431406
 40
0.438140697
 40
0.6109482531
 40
1.0
 40
1.0
 40
1.0
 40
1.0
 10
-62.1894316143
 20
-0.741945052
 30
0.0
 10
-62.1922561367
 20
-0.741945052
 30
0.0
 10
-62.1905668684
 20
-0.7588983735
 30
0.0
 10
-62.192787617
 20
-0.7773413097
 30
0.0
 10
-62.192752637
 20
-0.8195461725
 30
0.0
 10
-62.1946176453
 20
-0.8710607004
 30
0.0
 10
-62.1957870595
 20
-0.936332655
 30
0.0
 10
-62.1963231421
 20
-1.0397278501
 30
0.0
 10
-62.1942671606
 20
-1.1216360504
 30
0.0
 10
-62.1966642935
 20
-1.1782023034
 30
0.0
  0
LINE
  5
413
100
AcDbEntity
  8
RACCORDO
100
AcDbLine
 62
250
  6
CONTINUOUS
 10
-62.1966642935
 20
-1.1782017878
 11
-56.6500083064
 21
-1.1783082469
  0
SPLINE
  5
414
100
AcDbEntity
  8
RACCORDO
100
AcDbSpline
 62
250
  6
CONTINUOUS
 70
0
 71
3
 72
11
 73
7
 74
0
 42
0.0000001
 43
0.0000001
 44
0.0000000001
 40
0.0
 40
0.0
 40
0.0
 40
0.0
 40
0.1694549658
 40
0.3941272514
 40
0.6791469958
 40
1.0
 40
1.0
 40
1.0
 40
1.0
 10
-56.1694316143
 20
5.9256418037
 30
0.0
 10
-56.1694316154
 20
5.9581635417
 30
0.0
 10
-56.2057386477
 20
6.0326725244
 30
0.0
 10
-56.318382777
 20
6.1037447245
 30
0.0
 10
-56.4716588289
 20
6.1513153434
 30
0.0
 10
-56.5884303116
 20
6.16184579
 30
0.0
 10
-56.6500082976
 20
6.1618094086
 30
0.0
  0
SPLINE
  5
415
100
AcDbEntity
  8
RACCORDO
100
AcDbSpline
 62
250
  6
CONTINUOUS
 70
0
 71
3
 72
9
 73
5
 74
0
 42
0.0000001
 43
0.0000001
 44
0.0000000001
 40
0.0
 40
0.0
 40
0.0
 40
0.0
 40
0.2348375215
 40
1.0
 40
1.0
 40
1.0
 40
1.0
 10
-73.7084669822
 20
6.0666056557
 30
0.0
 10
-73.7095720415
 20
6.0160629429
 30
0.0
 10
-73.711025516
 20
5.8007778235
 30
0.0
 10
-73.7092100354
 20
5.5855090916
 30
0.0
 10
-73.7084669822
 20
5.4207899447
 30
0.0
  0
SPLINE
  5
416
100
AcDbEntity
  8
RACCORDO
100
AcDbSpline
 62
250
  6
CONTINUOUS
 70
0
 71
3
 72
9
 73
5
 74
0
 42
0.0000001
 43
0.0000001
 44
0.0000000001
 40
0.0
 40
0.0
 40
0.0
 40
0.0
 40
0.2498957564
 40
1.0
 40
1.0
 40
1.0
 40
1.0
 10
-73.7084669822
 20
5.4209035142
 30
0.0
 10
-72.2875885813
 20
5.4374541039
 30
0.0
 10
-66.6016082438
 20
5.4951985335
 30
0.0
 10
-60.9153035036
 20
5.5208463139
 30
0.0
 10
-56.6500083177
 20
5.5221888128
 30
0.0
  0
SPLINE
  5
417
100
AcDbEntity
  8
RACCORDO
100
AcDbSpline
 62
250
  6
CONTINUOUS
 70
0
 71
3
 72
9
 73
5
 74
0
 42
0.0000001
 43
0.0000001
 44
0.0000000001
 40
0.0
 40
0.0
 40
0.0
 40
0.0
 40
0.5140138705
 40
1.0
 40
1.0
 40
1.0
 40
1.0
 10
-73.7084669822
 20
6.0666056557
 30
0.0
 10
-73.8659022493
 20
5.9834422246
 30
0.0
 10
-74.1569487854
 20
5.7919395038
 30
0.0
 10
-74.4099304439
 20
5.551143175
 30
0.0
 10
-74.516453055
 20
5.4207899446
 30
0.0
  0
SPLINE
  5
418
100
AcDbEntity
  8
RACCORDO
100
AcDbSpline
 62
250
  6
CONTINUOUS
 70
0
 71
3
 72
9
 73
5
 74
0
 42
0.0000001
 43
0.0000001
 44
0.0000000001
 40
0.0
 40
0.0
 40
0.0
 40
0.0
 40
0.4991446858
 40
1.0
 40
1.0
 40
1.0
 40
1.0
 10
-75.1694316143
 20
7.7697715064
 30
0.0
 10
-74.8850515665
 20
7.5262332722
 30
0.0
 10
-74.3536691326
 20
6.9918028929
 30
0.0
 10
-73.9095275975
 20
6.3838672917
 30
0.0
 10
-73.7084359927
 20
6.0665227739
 30
0.0
  0
SPLINE
  5
419
100
AcDbEntity
  8
RACCORDO
100
AcDbSpline
 62
250
  6
CONTINUOUS
 70
0
 71
3
 72
9
 73
5
 74
0
 42
0.0000001
 43
0.0000001
 44
0.0000000001
 40
0.0
 40
0.0
 40
0.0
 40
0.0
 40
0.4957856198
 40
1.0
 40
1.0
 40
1.0
 40
1.0
 10
-75.1694312468
 20
7.7697669078
 30
0.0
 10
-75.2987222488
 20
7.6642935129
 30
0.0
 10
-75.5369152148
 20
7.4234095413
 30
0.0
 10
-75.7306469117
 20
7.1457771096
 30
0.0
 10
-75.8135897173
 20
6.9977366736
 30
0.0
  0
SPLINE
  5
41A
100
AcDbEntity
  8
RACCORDO
100
AcDbSpline
 62
250
  6
CONTINUOUS
 70
0
 71
3
 72
9
 73
5
 74
0
 42
0.0000001
 43
0.0000001
 44
0.0000000001
 40
0.0
 40
0.0
 40
0.0
 40
0.0
 40
0.4989067298
 40
1.0
 40
1.0
 40
1.0
 40
1.0
 10
-75.8135870765
 20
6.9977366735
 30
0.0
 10
-75.5594639749
 20
6.771025216
 30
0.0
 10
-75.0863940704
 20
6.2744018723
 30
0.0
 10
-74.6939776954
 20
5.7128866245
 30
0.0
 10
-74.5164530539
 20
5.4205162459
 30
0.0
  0
SPLINE
  5
41B
100
AcDbEntity
  8
RACCORDO
100
AcDbSpline
 62
250
  6
CONTINUOUS
 70
0
 71
3
 72
9
 73
5
 74
0
 42
0.0000001
 43
0.0000001
 44
0.0000000001
 40
0.0
 40
0.0
 40
0.0
 40
0.0
 40
0.5384337211
 40
1.0
 40
1.0
 40
1.0
 40
1.0
 10
-90.2454963182
 20
-0.5761327705
 30
0.0
 10
-90.043674983
 20
-0.5963275853
 30
0.0
 10
-89.6699378905
 20
-0.6445065906
 30
0.0
 10
-89.2989805649
 20
-0.7127637375
 30
0.0
 10
-89.1300556411
 20
-0.7539488021
 30
0.0
  0
SPLINE
  5
41C
100
AcDbEntity
  8
RACCORDO
100
AcDbSpline
 62
250
  6
CONTINUOUS
 70
0
 71
3
 72
19
 73
15
 74
0
 42
0.0000001
 43
0.0000001
 44
0.0000000001
 40
0.0
 40
0.0
 40
0.0
 40
0.0
 40
0.1279019622
 40
0.2527436333
 40
0.3142151899
 40
0.3754002381
 40
0.4368048292
 40
0.498947093
 40
0.6260885114
 40
0.7553283535
 40
0.819003473
 40
0.8809987766
 40
0.9411747104
 40
1.0
 40
1.0
 40
1.0
 40
1.0
 10
-89.1300555312
 20
-0.7539488021
 30
0.0
 10
-89.0435443657
 20
0.0568688123
 30
0.0
 10
-88.7694372841
 20
1.6506630286
 30
0.0
 10
-88.099510719
 20
3.5541749713
 30
0.0
 10
-87.3240006728
 20
4.9327920406
 30
0.0
 10
-86.616530679
 20
5.8737891643
 30
0.0
 10
-85.7763448254
 20
6.7055448612
 30
0.0
 10
-84.4790048145
 20
7.6484967615
 30
0.0
 10
-82.5796080702
 20
8.4500472364
 30
0.0
 10
-80.5233975261
 20
8.6919051123
 30
0.0
 10
-78.9015686123
 20
8.5205128257
 30
0.0
 10
-77.7535098066
 20
8.2039217142
 30
0.0
 10
-76.7078014789
 20
7.7013466268
 30
0.0
 10
-76.0934844949
 20
7.2473489506
 30
0.0
 10
-75.8135870765
 20
6.9977366735
 30
0.0
  0
SPLINE
  5
41D
100
AcDbEntity
  8
RACCORDO
100
AcDbSpline
 62
250
  6
CONTINUOUS
 70
0
 71
3
 72
19
 73
15
 74
0
 42
0.0000001
 43
0.0000001
 44
0.0000000001
 40
0.0
 40
0.0
 40
0.0
 40
0.0
 40
0.1282781116
 40
0.2526320735
 40
0.3136669341
 40
0.3744345349
 40
0.4355713852
 40
0.4976830468
 40
0.6254772069
 40
0.7556680887
 40
0.8196119383
 40
0.8816491414
 40
0.9416188288
 40
1.0
 40
1.0
 40
1.0
 40
1.0
 10
-90.2454962739
 20
-0.5761328123
 30
0.0
 10
-90.1450044391
 20
0.3263891997
 30
0.0
 10
-89.8247840208
 20
2.0936044668
 30
0.0
 10
-89.0366602454
 20
4.1893341728
 30
0.0
 10
-88.1320884908
 20
5.6842734728
 30
0.0
 10
-87.3130661731
 20
6.6932496565
 30
0.0
 10
-86.3475953664
 20
7.5753355253
 30
0.0
 10
-84.8646222486
 20
8.5657507055
 30
0.0
 10
-82.7182377055
 20
9.3864972398
 30
0.0
 10
-80.4208762459
 20
9.6127084743
 30
0.0
 10
-78.6129661481
 20
9.4110245974
 30
0.0
 10
-77.3368369662
 20
9.0644073933
 30
0.0
 10
-76.1727569415
 20
8.5243116481
 30
0.0
 10
-75.4841077651
 20
8.037701656
 30
0.0
 10
-75.1694316143
 20
7.7697715064
 30
0.0
  0
SPLINE
  5
41E
100
AcDbEntity
  8
RACCORDO
100
AcDbSpline
 62
250
  6
CONTINUOUS
 70
0
 71
3
 72
9
 73
5
 74
0
 42
0.0000001
 43
0.0000001
 44
0.0000000001
 40
0.0
 40
0.0
 40
0.0
 40
0.0
 40
0.4999998491
 40
1.0
 40
1.0
 40
1.0
 40
1.0
 10
-89.1300555312
 20
-4.929941302
 30
0.0
 10
-89.2039882085
 20
-4.2369732804
 30
0.0
 10
-89.2688268505
 20
-2.8419452902
 30
0.0
 10
-89.2039887375
 20
-1.4469171902
 30
0.0
 10
-89.1300555312
 20
-0.7539488021
 30
0.0
  0
SPLINE
  5
41F
100
AcDbEntity
  8
RACCORDO
100
AcDbSpline
 62
250
  6
CONTINUOUS
 70
0
 71
3
 72
9
 73
5
 74
0
 42
0.0000001
 43
0.0000001
 44
0.0000000001
 40
0.0
 40
0.0
 40
0.0
 40
0.0
 40
0.4999996701
 40
1.0
 40
1.0
 40
1.0
 40
1.0
 10
-90.2454962739
 20
-5.1077572917
 30
0.0
 10
-90.3904366729
 20
-4.363205062
 30
0.0
 10
-90.521949709
 20
-2.8419457484
 30
0.0
 10
-90.3904387063
 20
-1.3206856658
 30
0.0
 10
-90.2454962739
 20
-0.5761328123
 30
0.0
  0
SPLINE
  5
420
100
AcDbEntity
  8
RACCORDO
100
AcDbSpline
 62
250
  6
CONTINUOUS
 70
0
 71
3
 72
9
 73
5
 74
0
 42
0.0000001
 43
0.0000001
 44
0.0000000001
 40
0.0
 40
0.0
 40
0.0
 40
0.0
 40
0.5384487216
 40
1.0
 40
1.0
 40
1.0
 40
1.0
 10
-90.2455175993
 20
-5.1077774607
 30
0.0
 10
-90.0436911864
 20
-5.0875702193
 30
0.0
 10
-89.6699547778
 20
-5.0393792232
 30
0.0
 10
-89.2989964542
 20
-4.9711226201
 30
0.0
 10
-89.130075869
 20
-4.9299413024
 30
0.0
  0
SPLINE
  5
421
100
AcDbEntity
  8
RACCORDO
100
AcDbSpline
 62
250
  6
CONTINUOUS
 70
0
 71
3
 72
9
 73
5
 74
0
 42
0.0000001
 43
0.0000001
 44
0.0000000001
 40
0.0
 40
0.0
 40
0.0
 40
0.0
 40
0.4957852496
 40
1.0
 40
1.0
 40
1.0
 40
1.0
 10
-75.1694311438
 20
-13.4536557302
 30
0.0
 10
-75.2987223382
 20
-13.3481827478
 30
0.0
 10
-75.5369158492
 20
-13.1072992576
 30
0.0
 10
-75.730648086
 20
-12.829667171
 30
0.0
 10
-75.8135912491
 20
-12.6816267775
 30
0.0
  0
SPLINE
  5
422
100
AcDbEntity
  8
RACCORDO
100
AcDbSpline
 62
250
  6
CONTINUOUS
 70
0
 71
3
 72
19
 73
15
 74
0
 42
0.0000001
 43
0.0000001
 44
0.0000000001
 40
0.0
 40
0.0
 40
0.0
 40
0.0
 40
0.0588253263
 40
0.1190013213
 40
0.1809966911
 40
0.2446718815
 40
0.3739118478
 40
0.5010533916
 40
0.563195724
 40
0.6246003278
 40
0.6857853188
 40
0.7472568048
 40
0.8720982121
 40
1.0
 40
1.0
 40
1.0
 40
1.0
 10
-75.8135870765
 20
-12.6816267776
 30
0.0
 10
-76.0934846542
 20
-12.9312392235
 30
0.0
 10
-76.7078021194
 20
-13.3852373327
 30
0.0
 10
-77.7535116405
 20
-13.8878123852
 30
0.0
 10
-78.9015717573
 20
-14.204403475
 30
0.0
 10
-80.5234024067
 20
-14.3757951536
 30
0.0
 10
-82.579614994
 20
-14.1339358452
 30
0.0
 10
-84.4790125581
 20
-13.3323821397
 30
0.0
 10
-85.7763530143
 20
-12.3894285866
 30
0.0
 10
-86.6165374676
 20
-11.5576711847
 30
0.0
 10
-87.3240054167
 20
-10.6166735422
 30
0.0
 10
-88.0995139778
 20
-9.2380585988
 30
0.0
 10
-88.7694388947
 20
-7.3345493019
 30
0.0
 10
-89.0435429259
 20
-5.7407576402
 30
0.0
 10
-89.1300555312
 20
-4.929941302
 30
0.0
  0
SPLINE
  5
423
100
AcDbEntity
  8
RACCORDO
100
AcDbSpline
 62
250
  6
CONTINUOUS
 70
0
 71
3
 72
19
 73
15
 74
0
 42
0.0000001
 43
0.0000001
 44
0.0000000001
 40
0.0
 40
0.0
 40
0.0
 40
0.0
 40
0.0583812068
 40
0.1183509586
 40
0.1803882275
 40
0.24433215
 40
0.3745231614
 40
0.5023174548
 40
0.5644291823
 40
0.6255660339
 40
0.6863336059
 40
0.7473683938
 40
0.8717220901
 40
1.0
 40
1.0
 40
1.0
 40
1.0
 10
-75.1694316143
 20
-13.4536616104
 30
0.0
 10
-75.4841078361
 20
-13.7215920645
 30
0.0
 10
-76.1727577577
 20
-14.2082023106
 30
0.0
 10
-77.3368390547
 20
-14.7482980876
 30
0.0
 10
-78.6129697602
 20
-15.094915209
 30
0.0
 10
-80.4208818372
 20
-15.2965984821
 30
0.0
 10
-82.7182456884
 20
-15.0703856271
 30
0.0
 10
-84.8646314375
 20
-14.2496357899
 30
0.0
 10
-86.3476050831
 20
-13.2592187058
 30
0.0
 10
-87.3130740975
 20
-12.3771304486
 30
0.0
 10
-88.1320948933
 20
-11.3681540284
 30
0.0
 10
-89.0366643943
 20
-9.8732165432
 30
0.0
 10
-89.8247877775
 20
-7.7774902557
 30
0.0
 10
-90.145000895
 20
-6.0102774712
 30
0.0
 10
-90.2454962739
 20
-5.1077572917
 30
0.0
  0
SPLINE
  5
424
100
AcDbEntity
  8
RACCORDO
100
AcDbSpline
 62
250
  6
CONTINUOUS
 70
0
 71
3
 72
11
 73
7
 74
0
 42
0.0000001
 43
0.0000001
 44
0.0000000001
 40
0.0
 40
0.0
 40
0.0
 40
0.0
 40
0.2560899114
 40
0.513992192
 40
0.7648261577
 40
1.0
 40
1.0
 40
1.0
 40
1.0
 10
-73.7084669822
 20
-11.7504957598
 30
0.0
 10
-73.7877594357
 20
-11.710484399
 30
0.0
 10
-73.9407171138
 20
-11.6180076041
 30
0.0
 10
-74.1556900848
 20
-11.4622604251
 30
0.0
 10
-74.3498642483
 20
-11.2915681046
 30
0.0
 10
-74.4635309004
 20
-11.1667407833
 30
0.0
 10
-74.516453055
 20
-11.1046800487
 30
0.0
  0
SPLINE
  5
425
100
AcDbEntity
  8
RACCORDO
100
AcDbSpline
 62
250
  6
CONTINUOUS
 70
0
 71
3
 72
9
 73
5
 74
0
 42
0.0000001
 43
0.0000001
 44
0.0000000001
 40
0.0
 40
0.0
 40
0.0
 40
0.0
 40
0.5010931466
 40
1.0
 40
1.0
 40
1.0
 40
1.0
 10
-74.5164530539
 20
-11.1044087531
 30
0.0
 10
-74.6939775556
 20
-11.3967787277
 30
0.0
 10
-75.0863955406
 20
-11.9582919894
 30
0.0
 10
-75.5594641213
 20
-12.454915528
 30
0.0
 10
-75.8135870765
 20
-12.6816267776
 30
0.0
  0
SPLINE
  5
426
100
AcDbEntity
  8
RACCORDO
100
AcDbSpline
 62
250
  6
CONTINUOUS
 70
0
 71
3
 72
9
 73
5
 74
0
 42
0.0000001
 43
0.0000001
 44
0.0000000001
 40
0.0
 40
0.0
 40
0.0
 40
0.0
 40
0.5008553627
 40
1.0
 40
1.0
 40
1.0
 40
1.0
 10
-73.7084342569
 20
-11.7504126673
 30
0.0
 10
-73.9095260647
 20
-12.067757329
 30
0.0
 10
-74.3536696495
 20
-12.6756918468
 30
0.0
 10
-74.8850513611
 20
-13.2101233752
 30
0.0
 10
-75.1694316143
 20
-13.4536616104
 30
0.0
  0
SPLINE
  5
427
100
AcDbEntity
  8
RACCORDO
100
AcDbSpline
 62
250
  6
CONTINUOUS
 70
0
 71
3
 72
9
 73
5
 74
0
 42
0.0000001
 43
0.0000001
 44
0.0000000001
 40
0.0
 40
0.0
 40
0.0
 40
0.0
 40
0.2500763395
 40
1.0
 40
1.0
 40
1.0
 40
1.0
 10
-56.6500083178
 20
-11.2060789166
 30
0.0
 10
-58.0720098438
 20
-11.2056313423
 30
0.0
 10
-63.7582737448
 20
-11.1958752632
 30
0.0
 10
-69.4444877965
 20
-11.1544612844
 30
0.0
 10
-73.7084669822
 20
-11.1047938602
 30
0.0
  0
SPLINE
  5
428
100
AcDbEntity
  8
RACCORDO
100
AcDbSpline
 62
250
  6
CONTINUOUS
 70
0
 71
3
 72
14
 73
10
 74
0
 42
0.0000001
 43
0.0000001
 44
0.0000000001
 40
0.0
 40
0.0
 40
0.0
 40
0.0
 40
0.0258398927
 40
0.0844905432
 40
0.1771992171
 40
0.30075816
 40
0.4508421579
 40
0.6219308203
 40
1.0
 40
1.0
 40
1.0
 40
1.0
 10
-56.1694316143
 20
-4.461945052
 30
0.0
 10
-56.1694316143
 20
-4.4661347733
 30
0.0
 10
-56.1851312888
 20
-4.4739371919
 30
0.0
 10
-56.2103280017
 20
-4.4799637336
 30
0.0
 10
-56.2558021534
 20
-4.4874819088
 30
0.0
 10
-56.3143038736
 20
-4.4935105853
 30
0.0
 10
-56.3864448231
 20
-4.4987898162
 30
0.0
 10
-56.4996137223
 20
-4.5041137466
 30
0.0
 10
-56.5887075691
 20
-4.5055887858
 30
0.0
 10
-56.6500083064
 20
-4.5055820903
 30
0.0
  0
SPLINE
  5
429
100
AcDbEntity
  8
RACCORDO
100
AcDbSpline
 62
250
  6
CONTINUOUS
 70
0
 71
3
 72
14
 73
10
 74
0
 42
0.0000001
 43
0.0000001
 44
0.0000000001
 40
0.0
 40
0.0
 40
0.0
 40
0.0
 40
0.0258511823
 40
0.0845131212
 40
0.1772255077
 40
0.3007879954
 40
0.4508669537
 40
0.6219451348
 40
1.0
 40
1.0
 40
1.0
 40
1.0
 10
-56.1694316143
 20
-1.221945052
 30
0.0
 10
-56.1694316143
 20
-1.2177535105
 30
0.0
 10
-56.1851410708
 20
-1.2099549041
 30
0.0
 10
-56.2103370402
 20
-1.2039223875
 30
0.0
 10
-56.2558163425
 20
-1.1964063363
 30
0.0
 10
-56.3143175716
 20
-1.1903783571
 30
0.0
 10
-56.386456705
 20
-1.1850998077
 30
0.0
 10
-56.499620381
 20
-1.1797760397
 30
0.0
 10
-56.5887100401
 20
-1.1783013186
 30
0.0
 10
-56.6500083064
 20
-1.1783080138
 30
0.0
  0
SPLINE
  5
42A
100
AcDbEntity
  8
RACCORDO
100
AcDbSpline
 62
250
  6
CONTINUOUS
 70
0
 71
3
 72
11
 73
7
 74
0
 42
0.0000001
 43
0.0000001
 44
0.0000000001
 40
0.0
 40
0.0
 40
0.0
 40
0.0
 40
0.3208529609
 40
0.6058726772
 40
0.8305449848
 40
1.0
 40
1.0
 40
1.0
 40
1.0
 10
-56.6500082976
 20
-11.8456995109
 30
0.0
 10
-56.5884303184
 20
-11.8457358989
 30
0.0
 10
-56.4716588453
 20
-11.8352054649
 30
0.0
 10
-56.3183827937
 20
-11.7876348621
 30
0.0
 10
-56.205738652
 20
-11.716562656
 30
0.0
 10
-56.1694316154
 20
-11.6420536559
 30
0.0
 10
-56.1694316143
 20
-11.6095319077
 30
0.0
  0
ENDSEC
  0
SECTION
  2
OBJECTS
  0
DICTIONARY
  5
C
100
AcDbDictionary
280
0
281
1
  3
ACAD_GROUP
350
D
  3
ACAD_MLINESTYLE
350
17
  3
ACAD_LAYOUT
350
1A
  3
ACAD_PLOTSETTINGS
350
19
  3
ACAD_PLOTSTYLENAME
350
E
  0
DICTIONARY
  5
D
102
{ACAD_REACTORS
330
C
102
}
100
AcDbDictionary
280
0
281
1
  0
ACDBDICTIONARYWDFLT
  5
E
102
{ACAD_REACTORS
330
C
102
}
100
AcDbDictionary
281
1
  3
Normal
350
F
100
AcDbDictionaryWithDefault
340
F
  0
DICTIONARY
  5
17
102
{ACAD_REACTORS
330
C
102
}
100
AcDbDictionary
280
0
281
1
  3
Standard
350
18
  0
DICTIONARY
  5
19
102
{ACAD_REACTORS
330
C
102
}
100
AcDbDictionary
281
1
  0
DICTIONARY
  5
1A
102
{ACAD_REACTORS
330
C
102
}
100
AcDbDictionary
281
1
  3
Model
350
42B
  3
Layout1
350
42C
  0
ACDBPLACEHOLDER
  5
F
102
{ACAD_REACTORS
330
E
102
}
  0
MLINESTYLE
  5
18
102
{ACAD_REACTORS
330
17
102
}
100
AcDbMlineStyle
  2
STANDARD
 70
0
  3

 62
256
 51
90.0
 52
90.0
 71
2
 49
0.5
 62
256
  6
BYLAYER
 49
-0.5
 62
256
  6
BYLAYER
  0
LAYOUT
  5
42B
102
{ACAD_REACTORS
330
1A
102
}
100
AcDbPlotSettings
  1

  2
none_device
  4
ANSI_C_(22.00_x_17.00_Inches)
  6

 40
0.0
 41
0.0
 42
0.0
 43
0.0
 44
558.8
 45
431.8
 46
0.0
 47
0.0
 48
0.0
 49
0.0
140
0.0
141
0.0
142
1.0
143
1.0
 70
1024
 72
1
 73
0
 74
0
  7

 75
0
147
1.0
148
0.0
149
0.0
100
AcDbLayout
  1
Model
 70
0
 71
0
 10
0.0
 20
0.0
 11
558.8
 21
431.8
 12
0.0
 22
0.0
 32
0.0
 14
0.0
 24
0.0
 34
0.0
 15
0.0
 25
0.0
 35
0.0
146
0.0
 13
0.0
 23
0.0
 33
0.0
 16
1.0
 26
0.0
 36
0.0
 17
0.0
 27
1.0
 37
0.0
 76
0
330
21A
345
0
346
0
  0
LAYOUT
  5
42C
102
{ACAD_REACTORS
330
1A
102
}
100
AcDbPlotSettings
  1

  2
none_device
  4
ANSI_C_(22.00_x_17.00_Inches)
  6

 40
0.0
 41
0.0
 42
0.0
 43
0.0
 44
558.8
 45
431.8
 46
0.0
 47
0.0
 48
0.0
 49
0.0
140
0.0
141
0.0
142
1.0
143
1.0
 70
0
 72
1
 73
0
 74
0
  7

 75
0
147
1.0
148
0.0
149
0.0
100
AcDbLayout
  1
Layout1
 70
0
 71
1
 10
0.0
 20
0.0
 11
558.8
 21
431.8
 12
0.0
 22
0.0
 32
0.0
 14
0.0
 24
0.0
 34
0.0
 15
0.0
 25
0.0
 35
0.0
146
0.0
 13
0.0
 23
0.0
 33
0.0
 16
1.0
 26
0.0
 36
0.0
 17
0.0
 27
1.0
 37
0.0
 76
0
330
21B
345
0
346
0
  0
ENDSEC
  0
EOF
