  0
SECTION
  2
HEADER
  9
$ACADVER
  1
AC1024
  9
$DWGCODEPAGE
  3
ANSI_1252
  9
$EXTMAX
 10
297.0
 20
210.0
 30
0.0
  9
$EXTMIN
 10
0.0
 20
0.0
 30
0.0
  9
$LIMMIN
 10
0.0
 20
0.0
  9
$LIMMAX
 10
297.0
 20
210.0
  9
$VIEWCTR
 10
148.5
 20
105.0
  9
$VIEWSIZE
 40
210.0
  9
$CLAYER
  8
0
  9
$LTSCALE
 40
16.335
  9
$CELTYPE
  6
BYLAYER
  9
$DIMSCALE
 40
1.0
  9
$DIMASZ
 40
3.0
  9
$DIMEXO
 40
0.5
  9
$DIMDLI
 40
11.286
  9
$DIMEXE
 40
1.5
  9
$DIMCEN
 40
2.673
  9
$DIMLFAC
 40
1.0
  9
$DIMBLK
  1
_FILLED
  9
$DIMALT
 70
0
  9
$DIMALTF
 40
0.0393700787
  9
$DIMTXT
 40
3.0
  9
$DIMTOL
 70
1
  9
$DIMLIM
 70
0
  9
$DIMTFAC
 40
1.0
  9
$DIMTP
 40
0.01
  9
$DIMTM
 40
0.01
  9
$DIMGAP
 40
0.625
  9
$DIMDSEP
 70
44
  9
$AUNITS
 70
0
  9
$PDMODE
 70
3
  9
$PDSIZE
 40
3.0
  9
$HANDSEED
  5
38A
  9
$TILEMODE
 70
1
  9
$MEASUREMENT
 70
1
  9
$INSUNITS
 70
4
  0
ENDSEC
  0
SECTION
  2
CLASSES
  0
CLASS
  1
ACDBDICTIONARYWDFLT
  2
AcDbDictionaryWithDefault
  3
AutoCAD 2000
 90
0
 91
1
280
0
281
0
  0
CLASS
  1
ACDBPLACEHOLDER
  2
AcDbPlaceHolder
  3
AutoCAD 2000
 90
0
 91
1
280
0
281
0
  0
CLASS
  1
LAYOUT
  2
AcDbLayout
  3
AutoCAD 2000
 90
0
 91
0
280
0
281
0
  0
ENDSEC
  0
SECTION
  2
TABLES
  0
TABLE
  2
VPORT
  5
8
100
AcDbSymbolTable
 70
2
  0
VPORT
  5
1F4
100
AcDbSymbolTableRecord
100
AcDbViewportTableRecord
  2
*ACTIVE
 70
0
 10
0.0
 20
0.0
 11
1.0
 21
1.0
 12
148.5
 22
105.0
 13
0.0
 23
0.0
 14
1.0
 24
1.0
 15
0.0
 25
0.0
 16
0.0
 26
0.0
 36
1.0
 17
0.0
 27
0.0
 37
0.0
 40
210.0
 41
1.4142857143
 42
50.0
 43
0.0
 44
0.0
 50
0.0
 51
0.0
 71
0
 72
100
 73
1
 74
1
 75
0
 76
0
 77
0
 78
0
  0
ENDTAB
  0
TABLE
  2
LTYPE
  5
5
100
AcDbSymbolTable
 70
6
  0
LTYPE
  5
14
100
AcDbSymbolTableRecord
100
AcDbLinetypeTableRecord
  2
BYBLOCK
 70
0
  3

 72
65
 73
0
 40
0.0
  0
LTYPE
  5
15
100
AcDbSymbolTableRecord
100
AcDbLinetypeTableRecord
  2
BYLAYER
 70
0
  3

 72
65
 73
0
 40
0.0
  0
LTYPE
  5
16
100
AcDbSymbolTableRecord
100
AcDbLinetypeTableRecord
  2
CONTINUOUS
 70
64
  3
Solid line
 72
65
 73
0
 40
0.0
  0
LTYPE
  5
1F5
100
AcDbSymbolTableRecord
100
AcDbLinetypeTableRecord
  2
CENTER
 70
64
  3
____ _ ____ _ ____ _ ____ _ ____ _ ____ _ ____
 72
65
 73
4
 40
0.6
 49
0.375
 74
0
 49
-0.075
 74
0
 49
0.075
 74
0
 49
-0.075
 74
0
  0
LTYPE
  5
1F6
100
AcDbSymbolTableRecord
100
AcDbLinetypeTableRecord
  2
HIDDEN
 70
64
  3
- - - - - - - - - - - - - - - - - - - -
 72
65
 73
2
 40
0.2
 49
0.1
 74
0
 49
-0.1
 74
0
  0
LTYPE
  5
1F7
100
AcDbSymbolTableRecord
100
AcDbLinetypeTableRecord
  2
PHANTOM
 70
64
  3
_____ _ _ _____ _ _ _____ _ _ _____
 72
65
 73
6
 40
0.8
 49
0.45
 74
0
 49
-0.05
 74
0
 49
0.1
 74
0
 49
-0.05
 74
0
 49
0.1
 74
0
 49
-0.05
 74
0
  0
LTYPE
  5
1F8
100
AcDbSymbolTableRecord
100
AcDbLinetypeTableRecord
  2
DOT
 70
64
  3
. . . . . . . . . . . . . . . . . . . .
 72
65
 73
2
 40
0.2
 49
0.1
 74
0
 49
-0.1
 74
0
  0
LTYPE
  5
1F9
100
AcDbSymbolTableRecord
100
AcDbLinetypeTableRecord
  2
DASHED
 70
64
  3
- - - - - - - - - - - - - - - - - - - -
 72
65
 73
2
 40
0.2
 49
0.1
 74
0
 49
-0.1
 74
0
  0
ENDTAB
  0
TABLE
  2
LAYER
  5
2
100
AcDbSymbolTable
 70
36
  0
LAYER
  5
10
100
AcDbSymbolTableRecord
100
AcDbLayerTableRecord
  2
0
 70
0
 62
7
  6
CONTINUOUS
370
-3
390
F
  0
LAYER
  5
1FA
100
AcDbSymbolTableRecord
100
AcDbLayerTableRecord
  2
DEFAULT_1
 70
0
 62
7
  6
CENTER
370
-3
390
F
  0
LAYER
  5
1FB
100
AcDbSymbolTableRecord
100
AcDbLayerTableRecord
  2
DEFAULT_2
 70
0
 62
7
  6
HIDDEN
370
-3
390
F
  0
LAYER
  5
1FC
100
AcDbSymbolTableRecord
100
AcDbLayerTableRecord
  2
DEFAULT_3
 70
0
 62
7
  6
PHANTOM
370
-3
390
F
  0
LAYER
  5
1FD
100
AcDbSymbolTableRecord
100
AcDbLayerTableRecord
  2
255013570
 70
0
 62
7
  6
CONTINUOUS
370
-3
390
F
  0
LAYER
  5
1FE
100
AcDbSymbolTableRecord
100
AcDbLayerTableRecord
  2
261013570
 70
0
 62
7
  6
CONTINUOUS
370
-3
390
F
  0
LAYER
  5
1FF
100
AcDbSymbolTableRecord
100
AcDbLayerTableRecord
  2
280013570
 70
0
 62
7
  6
CONTINUOUS
370
-3
390
F
  0
LAYER
  5
200
100
AcDbSymbolTableRecord
100
AcDbLayerTableRecord
  2
ASSI
 70
0
 62
7
  6
CONTINUOUS
370
-3
390
F
  0
LAYER
  5
201
100
AcDbSymbolTableRecord
100
AcDbLayerTableRecord
  2
COLOR5
 70
0
 62
7
  6
CONTINUOUS
370
-3
390
F
  0
LAYER
  5
202
100
AcDbSymbolTableRecord
100
AcDbLayerTableRecord
  2
COORDINATE
 70
0
 62
7
  6
CONTINUOUS
370
-3
390
F
  0
LAYER
  5
203
100
AcDbSymbolTableRecord
100
AcDbLayerTableRecord
  2
COORD_ORIGINE
 70
0
 62
7
  6
CONTINUOUS
370
-3
390
F
  0
LAYER
  5
204
100
AcDbSymbolTableRecord
100
AcDbLayerTableRecord
  2
COPY-PUBBLISH
 70
0
 62
7
  6
CONTINUOUS
370
-3
390
F
  0
LAYER
  5
205
100
AcDbSymbolTableRecord
100
AcDbLayerTableRecord
  2
COPY_PUBLISH
 70
0
 62
7
  6
CONTINUOUS
370
-3
390
F
  0
LAYER
  5
206
100
AcDbSymbolTableRecord
100
AcDbLayerTableRecord
  2
COSMETICHE
 70
0
 62
7
  6
CONTINUOUS
370
-3
390
F
  0
LAYER
  5
207
100
AcDbSymbolTableRecord
100
AcDbLayerTableRecord
  2
COSMETICI
 70
0
 62
7
  6
CONTINUOUS
370
-3
390
F
  0
LAYER
  5
208
100
AcDbSymbolTableRecord
100
AcDbLayerTableRecord
  2
CURVE
 70
0
 62
7
  6
CONTINUOUS
370
-3
390
F
  0
LAYER
  5
209
100
AcDbSymbolTableRecord
100
AcDbLayerTableRecord
  2
DRAFT
 70
0
 62
7
  6
CONTINUOUS
370
-3
390
F
  0
LAYER
  5
20A
100
AcDbSymbolTableRecord
100
AcDbLayerTableRecord
  2
IGES
 70
0
 62
7
  6
CONTINUOUS
370
-3
390
F
  0
LAYER
  5
20B
100
AcDbSymbolTableRecord
100
AcDbLayerTableRecord
  2
IMPORT_IGES
 70
0
 62
7
  6
CONTINUOUS
370
-3
390
F
  0
LAYER
  5
20C
100
AcDbSymbolTableRecord
100
AcDbLayerTableRecord
  2
INTF_1
 70
0
 62
7
  6
CONTINUOUS
370
-3
390
F
  0
LAYER
  5
20D
100
AcDbSymbolTableRecord
100
AcDbLayerTableRecord
  2
INTF_11
 70
0
 62
7
  6
CONTINUOUS
370
-3
390
F
  0
LAYER
  5
20E
100
AcDbSymbolTableRecord
100
AcDbLayerTableRecord
  2
INTF_2
 70
0
 62
7
  6
CONTINUOUS
370
-3
390
F
  0
LAYER
  5
20F
100
AcDbSymbolTableRecord
100
AcDbLayerTableRecord
  2
INTF_3
 70
0
 62
7
  6
CONTINUOUS
370
-3
390
F
  0
LAYER
  5
210
100
AcDbSymbolTableRecord
100
AcDbLayerTableRecord
  2
INTF_4
 70
0
 62
7
  6
CONTINUOUS
370
-3
390
F
  0
LAYER
  5
211
100
AcDbSymbolTableRecord
100
AcDbLayerTableRecord
  2
INTF_MAGENTA
 70
0
 62
7
  6
CONTINUOUS
370
-3
390
F
  0
LAYER
  5
212
100
AcDbSymbolTableRecord
100
AcDbLayerTableRecord
  2
LAY0001
 70
0
 62
7
  6
CONTINUOUS
370
-3
390
F
  0
LAYER
  5
213
100
AcDbSymbolTableRecord
100
AcDbLayerTableRecord
  2
NOTE
 70
0
 62
7
  6
CONTINUOUS
370
-3
390
F
  0
LAYER
  5
214
100
AcDbSymbolTableRecord
100
AcDbLayerTableRecord
  2
PIANI
 70
0
 62
7
  6
CONTINUOUS
370
-3
390
F
  0
LAYER
  5
215
100
AcDbSymbolTableRecord
100
AcDbLayerTableRecord
  2
PIANI_ORIGINE
 70
0
 62
7
  6
CONTINUOUS
370
-3
390
F
  0
LAYER
  5
216
100
AcDbSymbolTableRecord
100
AcDbLayerTableRecord
  2
PIANI_SFORMI
 70
0
 62
7
  6
CONTINUOUS
370
-3
390
F
  0
LAYER
  5
217
100
AcDbSymbolTableRecord
100
AcDbLayerTableRecord
  2
PUNTI
 70
0
 62
7
  6
CONTINUOUS
370
-3
390
F
  0
LAYER
  5
218
100
AcDbSymbolTableRecord
100
AcDbLayerTableRecord
  2
PUNZ
 70
0
 62
7
  6
CONTINUOUS
370
-3
390
F
  0
LAYER
  5
219
100
AcDbSymbolTableRecord
100
AcDbLayerTableRecord
  2
RACCORDO
 70
0
 62
7
  6
CONTINUOUS
370
-3
390
F
  0
LAYER
  5
21A
100
AcDbSymbolTableRecord
100
AcDbLayerTableRecord
  2
RGB__255__255__255__
 70
0
 62
7
  6
CONTINUOUS
370
-3
390
F
  0
LAYER
  5
21B
100
AcDbSymbolTableRecord
100
AcDbLayerTableRecord
  2
SIMBOLI
 70
0
 62
7
  6
CONTINUOUS
370
-3
390
F
  0
LAYER
  5
21C
100
AcDbSymbolTableRecord
100
AcDbLayerTableRecord
  2
SMUSSO
 70
0
 62
7
  6
CONTINUOUS
370
-3
390
F
  0
LAYER
  5
21D
100
AcDbSymbolTableRecord
100
AcDbLayerTableRecord
  2
SNAPLINE
 70
0
 62
7
  6
CONTINUOUS
370
-3
390
F
  0
LAYER
  5
21E
100
AcDbSymbolTableRecord
100
AcDbLayerTableRecord
  2
SUP-SCAVI-INCLINATI
 70
0
 62
7
  6
CONTINUOUS
370
-3
390
F
  0
LAYER
  5
21F
100
AcDbSymbolTableRecord
100
AcDbLayerTableRecord
  2
SUP-SCAVI-INCLINATI-SUP
 70
0
 62
7
  6
CONTINUOUS
370
-3
390
F
  0
LAYER
  5
220
100
AcDbSymbolTableRecord
100
AcDbLayerTableRecord
  2
SUPERFICI
 70
0
 62
7
  6
CONTINUOUS
370
-3
390
F
  0
LAYER
  5
221
100
AcDbSymbolTableRecord
100
AcDbLayerTableRecord
  2
SUP_COLORE
 70
0
 62
7
  6
CONTINUOUS
370
-3
390
F
  0
LAYER
  5
222
100
AcDbSymbolTableRecord
100
AcDbLayerTableRecord
  2
TRASH
 70
0
 62
7
  6
CONTINUOUS
370
-3
390
F
  0
LAYER
  5
223
100
AcDbSymbolTableRecord
100
AcDbLayerTableRecord
  2
XSEC_DATUMS
 70
0
 62
7
  6
CONTINUOUS
370
-3
390
F
  0
ENDTAB
  0
TABLE
  2
STYLE
  5
3
100
AcDbSymbolTable
 70
1
  0
STYLE
  5
11
100
AcDbSymbolTableRecord
100
AcDbTextStyleTableRecord
  2
STANDARD
 70
0
 40
0.0
 41
0.8
 50
0.0
 71
0
 42
0.2
  3
txt
  4

  0
STYLE
  5
224
100
AcDbSymbolTableRecord
100
AcDbTextStyleTableRecord
  2
TEXTSTYLE_1
 70
0
 40
0.0
 41
0.8
 50
0.0
 71
0
 42
0.2
  3
gdt
  4

  0
ENDTAB
  0
TABLE
  2
VIEW
  5
6
100
AcDbSymbolTable
 70
0
  0
ENDTAB
  0
TABLE
  2
UCS
  5
7
100
AcDbSymbolTable
 70
0
  0
ENDTAB
  0
TABLE
  2
APPID
  5
9
100
AcDbSymbolTable
 70
1
  0
APPID
  5
225
100
AcDbSymbolTableRecord
100
AcDbRegAppTableRecord
  2
ACAD
 70
0
  0
ENDTAB
  0
TABLE
  2
BLOCK_RECORD
  5
1
100
AcDbSymbolTable
 70
0
  0
BLOCK_RECORD
  5
226
100
AcDbSymbolTableRecord
100
AcDbBlockTableRecord
  2
*Model_Space
  0
BLOCK_RECORD
  5
227
100
AcDbSymbolTableRecord
100
AcDbBlockTableRecord
  2
*Paper_Space
  0
BLOCK_RECORD
  5
228
100
AcDbSymbolTableRecord
100
AcDbBlockTableRecord
  2
_FILLED
  0
BLOCK_RECORD
  5
229
100
AcDbSymbolTableRecord
100
AcDbBlockTableRecord
  2
*D0
  0
BLOCK_RECORD
  5
22A
100
AcDbSymbolTableRecord
100
AcDbBlockTableRecord
  2
*D1
  0
BLOCK_RECORD
  5
22B
100
AcDbSymbolTableRecord
100
AcDbBlockTableRecord
  2
*D2
  0
ENDTAB
  0
TABLE
  2
DIMSTYLE
  5
A
100
AcDbSymbolTable
 70
1
100
AcDbDimStyleTable
 71
0
  0
DIMSTYLE
105
22C
100
AcDbSymbolTableRecord
100
AcDbDimStyleTableRecord
  2
STANDARD
 70
0
  3

  4

 40
1.0
 41
3.0
 42
0.5
 43
0.38
 44
1.5
 45
0.0
 46
0.0
 47
0.01
 48
0.01
140
3.0
141
0.09
142
0.0
143
25.4
144
1.0
145
0.0
146
1.0
147
0.625
 71
1
 72
0
 73
0
 74
0
 75
0
 76
0
 77
1
 78
8
 79
2
170
0
171
1
172
0
173
0
174
0
175
0
176
0
177
0
178
0
270
2
179
2
271
2
272
2
273
2
274
2
275
0
280
0
281
0
282
0
283
1
284
8
285
0
286
0
287
3
288
0
340
11
278
44
341
228
342
228
343
228
344
228
  0
DIMSTYLE
105
22D
100
AcDbSymbolTableRecord
100
AcDbDimStyleTableRecord
  2
DIMSTYLE_1
 70
0
  3

  4

 40
1.0
 41
3.0
 42
0.5
 43
0.38
 44
1.5
 45
0.0
 46
0.0
 47
0.0
 48
0.0
140
3.0
141
0.09
142
0.0
143
25.4
144
1.0
145
0.0
146
1.0
147
0.75
 71
0
 72
0
 73
0
 74
0
 75
0
 76
0
 77
1
 78
8
 79
2
170
0
171
1
172
0
173
0
174
0
175
0
176
0
177
0
178
0
270
2
179
2
271
2
272
2
273
2
274
2
275
0
280
0
281
0
282
0
283
1
284
8
285
0
286
0
287
3
288
0
340
11
278
44
341
228
342
228
343
228
344
228
  0
ENDTAB
  0
ENDSEC
  0
SECTION
  2
BLOCKS
  0
BLOCK
  5
20
100
AcDbEntity
  8
0
100
AcDbBlockBegin
  2
*Model_Space
 70
0
 10
0.0
 20
0.0
 30
0.0
  3
*Model_Space
  1

  0
ENDBLK
  5
21
100
AcDbEntity
  8
0
100
AcDbBlockEnd
  0
BLOCK
  5
1C
100
AcDbEntity
  8
0
100
AcDbBlockBegin
  2
*Paper_Space
 70
0
 10
0.0
 20
0.0
 30
0.0
  3
*Paper_Space
  1

  0
ENDBLK
  5
1D
100
AcDbEntity
  8
0
100
AcDbBlockEnd
  0
BLOCK
  5
22E
100
AcDbEntity
  8
0
100
AcDbBlockBegin
  2
_FILLED
 70
64
 10
0.0
 20
0.0
  3
_FILLED
  1

  0
SOLID
  5
22F
100
AcDbEntity
  8
0
  6
BYBLOCK
 62
0
100
AcDbTrace
 10
0.0
 20
0.0
 11
-1.0
 21
0.3166666667
 12
-1.0
 22
-0.3166666667
 13
-1.0
 23
-0.3166666667
  0
ENDBLK
  5
230
100
AcDbEntity
  8
0
  6
BYBLOCK
 62
0
100
AcDbBlockEnd
  0
BLOCK
  5
231
100
AcDbEntity
  8
0
100
AcDbBlockBegin
 62
7
  6
CONTINUOUS
  2
*D0
 70
65
 10
0.0
 20
0.0
  3
*D0
  1

  0
LINE
  5
232
100
AcDbEntity
  8
0
100
AcDbLine
 62
7
  6
CONTINUOUS
 10
-21.9978135022
 20
-10.49109375
 11
-21.9978135022
 21
47.50890625
  0
LINE
  5
233
100
AcDbEntity
  8
0
100
AcDbLine
 62
7
  6
CONTINUOUS
 10
21.9978135022
 20
-10.49109375
 11
21.9978135022
 21
47.50890625
  0
LINE
  5
234
100
AcDbEntity
  8
0
100
AcDbLine
 62
7
  6
CONTINUOUS
 10
-21.9978135022
 20
46.00890625
 11
-0.0
 21
46.00890625
  0
LINE
  5
235
100
AcDbEntity
  8
0
100
AcDbLine
 62
7
  6
CONTINUOUS
 10
21.9978135022
 20
46.00890625
 11
-0.0
 21
46.00890625
  0
INSERT
  5
236
100
AcDbEntity
  8
0
100
AcDbBlockReference
 62
7
  6
CONTINUOUS
  2
_FILLED
 10
-21.9978135022
 20
46.00890625
 41
3.0
 42
3.0
 43
3.0
 50
180.0
  0
INSERT
  5
237
100
AcDbEntity
  8
0
100
AcDbBlockReference
 62
7
  6
CONTINUOUS
  2
_FILLED
 10
21.9978135022
 20
46.00890625
 41
3.0
 42
3.0
 43
3.0
  0
ENDBLK
  5
238
100
AcDbEntity
  8
0
  6
BYBLOCK
 62
0
100
AcDbBlockEnd
  0
BLOCK
  5
239
100
AcDbEntity
  8
0
100
AcDbBlockBegin
 62
7
  6
CONTINUOUS
  2
*D1
 70
65
 10
0.0
 20
0.0
  3
*D1
  1

  0
LINE
  5
23A
100
AcDbEntity
  8
0
100
AcDbLine
 62
7
  6
CONTINUOUS
 10
-84.9122203947
 20
-10.49109375
 11
-84.9122203947
 21
47.50890625
  0
LINE
  5
23B
100
AcDbEntity
  8
0
100
AcDbLine
 62
7
  6
CONTINUOUS
 10
-40.9122203947
 20
-10.49109375
 11
-40.9122203947
 21
47.50890625
  0
LINE
  5
23C
100
AcDbEntity
  8
0
100
AcDbLine
 62
7
  6
CONTINUOUS
 10
-84.9122203947
 20
46.00890625
 11
-62.9122203947
 21
46.00890625
  0
LINE
  5
23D
100
AcDbEntity
  8
0
100
AcDbLine
 62
7
  6
CONTINUOUS
 10
-40.9122203947
 20
46.00890625
 11
-62.9122203947
 21
46.00890625
  0
INSERT
  5
23E
100
AcDbEntity
  8
0
100
AcDbBlockReference
 62
7
  6
CONTINUOUS
  2
_FILLED
 10
-84.9122203947
 20
46.00890625
 41
3.0
 42
3.0
 43
3.0
 50
180.0
  0
INSERT
  5
23F
100
AcDbEntity
  8
0
100
AcDbBlockReference
 62
7
  6
CONTINUOUS
  2
_FILLED
 10
-40.9122203947
 20
46.00890625
 41
3.0
 42
3.0
 43
3.0
  0
ENDBLK
  5
240
100
AcDbEntity
  8
0
  6
BYBLOCK
 62
0
100
AcDbBlockEnd
  0
BLOCK
  5
241
100
AcDbEntity
  8
0
100
AcDbBlockBegin
 62
7
  6
CONTINUOUS
  2
*D2
 70
65
 10
0.0
 20
0.0
  3
*D2
  1

  0
LINE
  5
242
100
AcDbEntity
  8
0
100
AcDbLine
 62
7
  6
CONTINUOUS
 10
-67.9122203947
 20
38.00890625
 11
-94.4122203947
 21
38.00890625
  0
LINE
  5
243
100
AcDbEntity
  8
0
100
AcDbLine
 62
7
  6
CONTINUOUS
 10
-84.5804979971
 20
-30.49109375
 11
-94.4122203947
 21
-30.49109375
  0
LINE
  5
244
100
AcDbEntity
  8
0
100
AcDbLine
 62
7
  6
CONTINUOUS
 10
-92.9122203947
 20
38.00890625
 11
-92.9122203947
 21
3.75890625
  0
LINE
  5
245
100
AcDbEntity
  8
0
100
AcDbLine
 62
7
  6
CONTINUOUS
 10
-92.9122203947
 20
-30.49109375
 11
-92.9122203947
 21
3.75890625
  0
INSERT
  5
246
100
AcDbEntity
  8
0
100
AcDbBlockReference
 62
7
  6
CONTINUOUS
  2
_FILLED
 10
-92.9122203947
 20
38.00890625
 41
3.0
 42
3.0
 43
3.0
 50
90.0
  0
INSERT
  5
247
100
AcDbEntity
  8
0
100
AcDbBlockReference
 62
7
  6
CONTINUOUS
  2
_FILLED
 10
-92.9122203947
 20
-30.49109375
 41
3.0
 42
3.0
 43
3.0
 50
270.0
  0
ENDBLK
  5
248
100
AcDbEntity
  8
0
  6
BYBLOCK
 62
0
100
AcDbBlockEnd
  0
ENDSEC
  0
SECTION
  2
ENTITIES
  0
DIMENSION
  5
249
100
AcDbEntity
  8
0
100
AcDbDimension
 62
7
  6
CONTINUOUS
  2
*D0
 10
21.9978135022
 20
46.00890625
 11
-2.3571428571
 21
46.00890625
 70
160
 71
2
 72
2
 41
0.9
 42
43.9956270043
  3
DIMSTYLE_1
100
AcDbAlignedDimension
 13
-21.9978135022
 23
-10.99109375
 14
21.9978135022
 24
-10.99109375
100
AcDbRotatedDimension
  0
DIMENSION
  5
24A
100
AcDbEntity
  8
0
100
AcDbDimension
 62
7
  6
CONTINUOUS
  2
*D1
 10
-40.9122203947
 20
46.00890625
 11
-65.2693632519
 21
46.00890625
 70
160
 71
2
 72
2
 41
0.9
 42
44.0
  3
DIMSTYLE_1
100
AcDbAlignedDimension
 13
-84.9122203947
 23
-10.99109375
 14
-40.9122203947
 24
-10.99109375
100
AcDbRotatedDimension
  0
DIMENSION
  5
24B
100
AcDbEntity
  8
0
100
AcDbDimension
 62
7
  6
CONTINUOUS
  2
*D2
 10
-92.9122203947
 20
-30.49109375
 11
-92.9122203947
 21
-0.5268080357
 70
160
 71
2
 72
2
 41
0.9
 42
68.5
  3
DIMSTYLE_1
100
AcDbAlignedDimension
 13
-67.4122203947
 23
38.00890625
 14
-84.0804979971
 24
-30.49109375
 50
270.0
100
AcDbRotatedDimension
  0
LWPOLYLINE
  5
24C
100
AcDbEntity
  8
ASSI
100
AcDbPolyline
 62
250
  6
CONTINUOUS
 90
43
 70
0
 10
-55.4722206565
 20
-30.49109375
 10
-55.4612585711
 20
-30.4907518284
 10
-55.4503114783
 20
-30.4897265311
 10
-55.4393943504
 20
-30.4880192605
 10
-55.4285221185
 20
-30.4856323515
 10
-55.4177096524
 20
-30.4825690686
 10
-55.4069717402
 20
-30.4788336016
 10
-55.3963230681
 20
-30.4744310592
 10
-55.3857782
 20
-30.4693674628
 10
-55.375351558
 20
-30.4636497378
 10
-55.3650574026
 20
-30.4572857043
 10
-55.3549098128
 20
-30.4502840662
 10
-55.3449226675
 20
-30.4426543995
 10
-55.3351096259
 20
-30.4344071393
 10
-55.3254841091
 20
-30.4255535653
 10
-55.316059282
 20
-30.4161057862
 10
-55.3068480346
 20
-30.4060767237
 10
-55.2978629652
 20
-30.3954800945
 10
-55.2891163624
 20
-30.3843303913
 10
-55.2806201889
 20
-30.3726428635
 10
-55.2723860648
 20
-30.360433496
 10
-55.2644252518
 20
-30.3477189873
 10
-55.2567486378
 20
-30.3345167269
 10
-55.249366722
 20
-30.3208447713
 10
-55.2422896006
 20
-30.3067218195
 10
-55.2355269528
 20
-30.2921671873
 10
-55.2290880279
 20
-30.2772007809
 10
-55.2229816323
 20
-30.2618430695
 10
-55.2172161176
 20
-30.2461150578
 10
-55.2117993692
 20
-30.2300382567
 10
-55.2067387957
 20
-30.2136346542
 10
-55.2020413182
 20
-30.1969266855
 10
-55.1977133614
 20
-30.1799372016
 10
-55.1937608447
 20
-30.162689439
 10
-55.1901891738
 20
-30.1452069871
 10
-55.1870032337
 20
-30.1275137565
 10
-55.1842073818
 20
-30.1096339461
 10
-55.1818054418
 20
-30.0915920097
 10
-55.179800699
 20
-30.0734126231
 10
-55.1781958952
 20
-30.05512065
 10
-55.1769932251
 20
-30.0367411081
 10
-55.1761943338
 20
-30.0182991349
 10
-55.1758003139
 20
-29.9998199532
  0
LWPOLYLINE
  5
24D
100
AcDbEntity
  8
ASSI
100
AcDbPolyline
 62
250
  6
CONTINUOUS
 90
43
 70
0
 10
-49.515595601
 20
-30.49109375
 10
-49.5038952485
 20
-30.4907518283
 10
-49.4922108984
 20
-30.4897265308
 10
-49.4805585312
 20
-30.4880192599
 10
-49.4689540838
 20
-30.4856323504
 10
-49.4574134273
 20
-30.4825690671
 10
-49.4459523459
 20
-30.4788335994
 10
-49.4345865146
 20
-30.4744310563
 10
-49.4233314783
 20
-30.4693674592
 10
-49.4122026305
 20
-30.4636497335
 10
-49.4012151919
 20
-30.4572856991
 10
-49.3903841899
 20
-30.4502840602
 10
-49.3797244379
 20
-30.4426543927
 10
-49.369250515
 20
-30.4344071317
 10
-49.3589767465
 20
-30.4255535568
 10
-49.3489171834
 20
-30.416105777
 10
-49.3390855843
 20
-30.4060767138
 10
-49.3294953955
 20
-30.3954800839
 10
-49.3201597336
 20
-30.3843303801
 10
-49.3110913667
 20
-30.3726428517
 10
-49.3023026976
 20
-30.3604334837
 10
-49.2938057463
 20
-30.3477189746
 10
-49.2856121342
 20
-30.3345167139
 10
-49.2777330673
 20
-30.3208447581
 10
-49.270179322
 20
-30.3067218062
 10
-49.2629612292
 20
-30.292167174
 10
-49.2560886612
 20
-30.2772007676
 10
-49.2495710173
 20
-30.2618430564
 10
-49.2434172118
 20
-30.2461150449
 10
-49.2376356611
 20
-30.2300382442
 10
-49.2322342725
 20
-30.2136346423
 10
-49.2272204335
 20
-30.1969266741
 10
-49.2226010014
 20
-30.1799371909
 10
-49.2183822942
 20
-30.162689429
 10
-49.2145700817
 20
-30.145206978
 10
-49.2111695778
 20
-30.1275137484
 10
-49.2081854334
 20
-30.1096339389
 10
-49.2056217298
 20
-30.0915920035
 10
-49.2034819734
 20
-30.0734126181
 10
-49.2017690907
 20
-30.0551206462
 10
-49.2004854243
 20
-30.0367411055
 10
-49.1996327301
 20
-30.0182991336
 10
-49.199212174
 20
-29.9998199532
  0
LINE
  5
24E
100
AcDbEntity
  8
ASSI
100
AcDbLine
 62
250
  6
CONTINUOUS
 10
-55.1758003139
 20
-29.9998199532
 11
-55.4761796946
 21
-30.0002656073
  0
LINE
  5
24F
100
AcDbEntity
  8
ASSI
100
AcDbLine
 62
250
  6
CONTINUOUS
 10
-69.8779475848
 20
-29.9998199532
 11
-70.250749315
 21
-30.0002752294
  0
LINE
  5
250
100
AcDbEntity
  8
ASSI
100
AcDbLine
 62
7
  6
CONTINUOUS
 10
-41.7439427924
 20
-30.49109375
 11
-84.0804979971
 21
-30.49109375
  0
LINE
  5
251
100
AcDbEntity
  8
ASSI
100
AcDbLine
 62
250
  6
CONTINUOUS
 10
-41.2440189448
 20
-29.9998199532
 11
-55.1758003139
 21
-29.9998199532
  0
LINE
  5
252
100
AcDbEntity
  8
ASSI
100
AcDbLine
 62
250
  6
CONTINUOUS
 10
-55.4761796946
 20
-30.0002656073
 11
-55.8092505406
 21
-30.0000737461
  0
LINE
  5
253
100
AcDbEntity
  8
ASSI
100
AcDbLine
 62
250
  6
CONTINUOUS
 10
-70.250749315
 20
-30.0002752294
 11
-70.5632590151
 21
-30.0000195944
  0
LINE
  5
254
100
AcDbEntity
  8
ASSI
100
AcDbLine
 62
250
  6
CONTINUOUS
 10
-55.8092505406
 20
-30.0000737461
 11
-69.8779475848
 21
-29.9998199532
  0
LINE
  5
255
100
AcDbEntity
  8
ASSI
100
AcDbLine
 62
250
  6
CONTINUOUS
 10
-70.5632590151
 20
-30.0000195944
 11
-84.5804218447
 21
-29.9998199532
  0
LWPOLYLINE
  5
256
100
AcDbEntity
  8
ASSI
100
AcDbPolyline
 62
250
  6
CONTINUOUS
 90
43
 70
0
 10
-76.3088451884
 20
-30.49109375
 10
-76.3205455408
 20
-30.4907518283
 10
-76.3322298907
 20
-30.4897265309
 10
-76.3438822578
 20
-30.48801926
 10
-76.355486705
 20
-30.4856323506
 10
-76.3670273614
 20
-30.4825690673
 10
-76.3784884427
 20
-30.4788335997
 10
-76.3898542739
 20
-30.4744310568
 10
-76.40110931
 20
-30.4693674598
 10
-76.4122381577
 20
-30.4636497341
 10
-76.4232255963
 20
-30.4572856999
 10
-76.4340565982
 20
-30.4502840611
 10
-76.4447163502
 20
-30.4426543938
 10
-76.455190273
 20
-30.4344071329
 10
-76.4654640416
 20
-30.4255535581
 10
-76.4755236046
 20
-30.4161057784
 10
-76.4853552038
 20
-30.4060767153
 10
-76.4949453926
 20
-30.3954800854
 10
-76.5042810545
 20
-30.3843303818
 10
-76.5133494215
 20
-30.3726428535
 10
-76.5221380906
 20
-30.3604334855
 10
-76.5306350419
 20
-30.3477189765
 10
-76.5388286542
 20
-30.3345167158
 10
-76.5467077211
 20
-30.32084476
 10
-76.5542614665
 20
-30.3067218081
 10
-76.5614795593
 20
-30.2921671759
 10
-76.5683521275
 20
-30.2772007695
 10
-76.5748697714
 20
-30.2618430583
 10
-76.581023577
 20
-30.2461150468
 10
-76.5868051278
 20
-30.230038246
 10
-76.5922065164
 20
-30.213634644
 10
-76.5972203555
 20
-30.1969266757
 10
-76.6018397877
 20
-30.1799371924
 10
-76.606058495
 20
-30.1626894304
 10
-76.6098707075
 20
-30.1452069793
 10
-76.6132712115
 20
-30.1275137495
 10
-76.616255356
 20
-30.1096339399
 10
-76.6188190596
 20
-30.0915920044
 10
-76.620958816
 20
-30.0734126188
 10
-76.6226716988
 20
-30.0551206467
 10
-76.6239553651
 20
-30.0367411059
 10
-76.6248080594
 20
-30.0182991338
 10
-76.6252286154
 20
-29.9998199532
  0
LWPOLYLINE
  5
257
100
AcDbEntity
  8
ASSI
100
AcDbPolyline
 62
250
  6
CONTINUOUS
 90
43
 70
0
 10
-70.352220133
 20
-30.49109375
 10
-70.3631822195
 20
-30.4907518283
 10
-70.3741293133
 20
-30.4897265308
 10
-70.3850464422
 20
-30.4880192599
 10
-70.395918675
 20
-30.4856323505
 10
-70.4067311419
 20
-30.4825690671
 10
-70.4174690548
 20
-30.4788335995
 10
-70.4281177276
 20
-30.4744310565
 10
-70.4386625963
 20
-30.4693674594
 10
-70.4490892387
 20
-30.4636497337
 10
-70.4593833946
 20
-30.4572856993
 10
-70.4695309847
 20
-30.4502840604
 10
-70.4795181302
 20
-30.442654393
 10
-70.489331172
 20
-30.434407132
 10
-70.4989566889
 20
-30.4255535572
 10
-70.508381516
 20
-30.4161057773
 10
-70.5175927634
 20
-30.4060767142
 10
-70.5265778327
 20
-30.3954800843
 10
-70.5353244353
 20
-30.3843303805
 10
-70.5438206086
 20
-30.3726428522
 10
-70.5520547325
 20
-30.3604334842
 10
-70.5600155452
 20
-30.3477189751
 10
-70.5676921588
 20
-30.3345167144
 10
-70.5750740742
 20
-30.3208447586
 10
-70.5821511952
 20
-30.3067218067
 10
-70.5889138425
 20
-30.2921671745
 10
-70.595352767
 20
-30.2772007681
 10
-70.6014591621
 20
-30.2618430569
 10
-70.6072246763
 20
-30.2461150454
 10
-70.6126414242
 20
-30.2300382447
 10
-70.6177019973
 20
-30.2136346427
 10
-70.6223994743
 20
-30.1969266745
 10
-70.6267274306
 20
-30.1799371913
 10
-70.6306799469
 20
-30.1626894294
 10
-70.6342516174
 20
-30.1452069783
 10
-70.6374375571
 20
-30.1275137487
 10
-70.6402334087
 20
-30.1096339391
 10
-70.6426353484
 20
-30.0915920038
 10
-70.644640091
 20
-30.0734126183
 10
-70.6462448946
 20
-30.0551206463
 10
-70.6474475645
 20
-30.0367411056
 10
-70.6482464557
 20
-30.0182991336
 10
-70.6486404756
 20
-29.9998199532
  0
LWPOLYLINE
  5
258
100
AcDbEntity
  8
0
100
AcDbPolyline
 62
7
  6
CONTINUOUS
 90
8
 70
0
 43
0.3500000006
 10
-93.6622238159
 20
5.9017643738
 10
-93.6622238159
 20
6.7589068451
 10
-94.0907927856
 20
7.1874780807
 10
-94.9479307251
 20
7.1874780807
 10
-95.3765087585
 20
6.7589068451
 10
-95.3765087585
 20
5.9017643738
 10
-96.6622247314
 20
5.9017643738
 10
-96.6622247314
 20
7.1874780807
  0
LWPOLYLINE
  5
259
100
AcDbEntity
  8
0
100
AcDbPolyline
 62
7
  6
CONTINUOUS
 90
13
 70
0
 43
0.3500000006
 10
-95.3765087585
 20
2.2589054718
 10
-95.5907932434
 20
1.97319207
 10
-96.233646698
 20
1.97319207
 10
-96.6622247314
 20
2.2589054718
 10
-96.6622247314
 20
2.9017634583
 10
-96.233646698
 20
3.18747686
 10
-95.5907932434
 20
3.18747686
 10
-95.3765087585
 20
2.9017634583
 10
-94.9479307251
 20
3.3303346939
 10
-94.0907927856
 20
3.3303346939
 10
-93.6622238159
 20
2.9017634583
 10
-93.6622238159
 20
2.2589054718
 10
-94.0907927856
 20
1.8303342361
  0
LWPOLYLINE
  5
25A
100
AcDbEntity
  8
ASSI
100
AcDbPolyline
 62
250
  6
CONTINUOUS
 90
112
 70
0
 10
-67.6099835903
 20
28.8254853305
 10
-67.8021044238
 20
28.7584327731
 10
-67.9928828335
 20
28.6885329206
 10
-68.1823230263
 20
28.6157848803
 10
-68.3705851727
 20
28.5401329789
 10
-68.5575177437
 20
28.461630991
 10
-68.7426601847
 20
28.3804422052
 10
-68.9259851446
 20
28.2965587169
 10
-69.1075360512
 20
28.2099864749
 10
-69.2869631869
 20
28.1209096362
 10
-69.4642212318
 20
28.0293403629
 10
-69.6393774494
 20
27.9352645326
 10
-69.8122539889
 20
27.8388269739
 10
-69.9828514482
 20
27.7400240751
 10
-70.1511948636
 20
27.6388574782
 10
-70.3171447098
 20
27.5354799939
 10
-70.4807013075
 20
27.4298914872
 10
-70.6418930163
 20
27.3220901567
 10
-70.8006234032
 20
27.2122264298
 10
-70.9568865645
 20
27.1003095301
 10
-71.1107191848
 20
26.9863283593
 10
-71.2620890025
 20
26.8704029739
 10
-71.4109980605
 20
26.7525423637
 10
-71.5574759371
 20
26.6327357168
 10
-71.7015312991
 20
26.5110734797
 10
-71.8431762841
 20
26.3875593136
 10
-71.9824303029
 20
26.2621877734
 10
-72.1193122487
 20
26.135035723
 10
-72.253833746
 20
26.0061086656
 10
-72.3860141551
 20
25.875399354
 10
-72.5158831796
 20
25.7429655899
 10
-72.643456824
 20
25.6088090569
 10
-72.7687489979
 20
25.4729263557
 10
-72.8917854497
 20
25.3353677172
 10
-73.0125933905
 20
25.1961189858
 10
-73.1311741298
 20
25.0551926253
 10
-73.2475139517
 20
24.9126788718
 10
-73.3616322852
 20
24.768567147
 10
-73.4735368992
 20
24.6228664239
 10
-73.5831961836
 20
24.4756963847
 10
-73.6906143679
 20
24.3270656938
 10
-73.7958128603
 20
24.1769642199
 10
-73.8987852995
 20
24.0254835765
 10
-73.9995314176
 20
23.8726440774
 10
-74.0980749156
 20
23.7184240536
 10
-74.1944445649
 20
23.5628522175
 10
-74.2886603135
 20
23.4059169704
 10
-74.3807227908
 20
23.2476285798
 10
-74.4706309305
 20
23.0880486144
 10
-74.5584021094
 20
22.9271614689
 10
-74.6440366786
 20
22.7649814974
 10
-74.7275073492
 20
22.6016153139
 10
-74.808820832
 20
22.4370614976
 10
-74.8879851688
 20
22.2713203667
 10
-74.9649744071
 20
22.1045012814
 10
-75.0397918627
 20
21.9366080422
 10
-75.112445637
 20
21.7676358988
 10
-75.1829162043
 20
21.5976815179
 10
-75.2512063373
 20
21.426748478
 10
-75.3173209926
 20
21.2548323888
 10
-75.3812430839
 20
21.0820180827
 10
-75.4429814311
 20
20.9082842205
 10
-75.5025309337
 20
20.7336514443
 10
-75.5598528106
 20
20.5582677085
 10
-75.6149473864
 20
20.3821221867
 10
-75.6678139845
 20
20.2052252169
 10
-75.7184115931
 20
20.0277567096
 10
-75.7667322838
 20
19.8497281847
 10
-75.8127794454
 20
19.6711278852
 10
-75.8565283007
 20
19.4921010125
 10
-75.8979765342
 20
19.3126264213
 10
-75.9371174646
 20
19.1327252009
 10
-75.9739191157
 20
18.9526061256
 10
-76.0083726723
 20
18.7722528412
 10
-76.0404737015
 20
18.591681913
 10
-76.0701964654
 20
18.4111517784
 10
-76.0975255522
 20
18.2306668702
 10
-76.1224592603
 20
18.0502232869
 10
-76.144992409
 20
17.8700672624
 10
-76.1651086884
 20
17.6902018859
 10
-76.1828037708
 20
17.5106248782
 10
-76.1980907725
 20
17.3315746973
 10
-76.2109522058
 20
17.1530599421
 10
-76.2213819467
 20
16.9750730757
 10
-76.229410848
 20
16.7978286008
 10
-76.235022338
 20
16.6213599658
 10
-76.2382070286
 20
16.4456349947
 10
-76.2390073072
 20
16.2707699235
 10
-76.2374108867
 20
16.0967928352
 10
-76.233401723
 20
15.9236769942
 10
-76.2270169964
 20
15.7514564746
 10
-76.2182404285
 20
15.5800966403
 10
-76.2070571604
 20
15.409633437
 10
-76.1935072289
 20
15.2402068863
 10
-76.1775742552
 20
15.0718305076
 10
-76.1592422636
 20
14.9044921912
 10
-76.1385531488
 20
14.7382936193
 10
-76.1154958531
 20
14.5732654759
 10
-76.0900480728
 20
14.4093785262
 10
-76.0622356333
 20
14.2466446108
 10
-76.0320419069
 20
14.0850535179
 10
-75.9994482652
 20
13.9246168408
 10
-75.9644780615
 20
13.7653791359
 10
-75.9271141538
 20
13.6073387205
 10
-75.8873372753
 20
13.4504986357
 10
-75.8451683785
 20
13.2949105485
 10
-75.8005878984
 20
13.1405697378
 10
-75.7535781687
 20
12.9874822597
 10
-75.7041640382
 20
12.8357159788
 10
-75.6523417095
 20
12.6852939698
 10
-75.5980778024
 20
12.5361944872
 10
-75.5413532211
 20
12.3884181754
  0
LWPOLYLINE
  5
25B
100
AcDbEntity
  8
ASSI
100
AcDbPolyline
 62
250
  6
CONTINUOUS
 90
109
 70
0
 10
-67.2645535687
 20
27.910201603
 10
-67.4474713492
 20
27.8467305612
 10
-67.6291181632
 20
27.7805319233
 10
-67.8094940108
 20
27.7115893923
 10
-67.9887465531
 20
27.6398159932
 10
-68.1667281289
 20
27.5652646848
 10
-68.3429957546
 20
27.4881301153
 10
-68.5175087212
 20
27.4083918431
 10
-68.6903077378
 20
27.3260381708
 10
-68.8610719472
 20
27.2412799086
 10
-69.0297433223
 20
27.1541176126
 10
-69.1963798902
 20
27.0645216211
 10
-69.3608348754
 20
26.9726605933
 10
-69.5230958126
 20
26.8785205055
 10
-69.683175167
 20
26.7820893173
 10
-69.840963559
 20
26.6835417769
 10
-69.9964448256
 20
26.5828709583
 10
-70.1496351298
 20
26.48006161
 10
-70.3004735796
 20
26.3752792158
 10
-70.4489380465
 20
26.268528135
 10
-70.5950506591
 20
26.1597860453
 10
-70.7388169121
 20
26.049181318
 10
-70.8802245551
 20
25.9367183429
 10
-71.0192858386
 20
25.8223786212
 10
-71.1560430079
 20
25.706258558
 10
-71.29049386
 20
25.5883587373
 10
-71.4226405981
 20
25.4686680011
 10
-71.5525320773
 20
25.3472671229
 10
-71.6801651935
 20
25.2241607582
 10
-71.8055430508
 20
25.0993371703
 10
-71.9287238167
 20
24.9728542135
 10
-72.0497115823
 20
24.8447115564
 10
-72.1685022565
 20
24.7149056912
 10
-72.2851417339
 20
24.5834911625
 10
-72.3996453251
 20
24.4504531128
 10
-72.5119977195
 20
24.3158058429
 10
-72.6221988806
 20
24.1796493392
 10
-72.730250988
 20
24.0419822596
 10
-72.836151862
 20
23.90280945
 10
-72.9398949278
 20
23.7622421699
 10
-73.0414692041
 20
23.6203012733
 10
-73.1408856722
 20
23.4769735399
 10
-73.2381706999
 20
23.3323207723
 10
-73.3333165451
 20
23.1863682784
 10
-73.42633095
 20
23.0391017727
 10
-73.5172635098
 20
22.8905246659
 10
-73.6061330977
 20
22.7406196945
 10
-73.6929208404
 20
22.589417853
 10
-73.7776197133
 20
22.436995962
 10
-73.8602325842
 20
22.2833596703
 10
-73.9407565854
 20
22.1285206834
 10
-74.0191760888
 20
21.972566219
 10
-74.095491368
 20
21.8155084661
 10
-74.1697021495
 20
21.6573560754
 10
-74.2417919854
 20
21.4981921606
 10
-74.3117596319
 20
21.3380362491
 10
-74.3796063329
 20
21.1768928986
 10
-74.4453193717
 20
21.0148237706
 10
-74.5089019103
 20
20.8518411978
 10
-74.5703507868
 20
20.6879598702
 10
-74.6296437991
 20
20.5232458345
 10
-74.6867925934
 20
20.3576801231
 10
-74.7417855235
 20
20.1913115241
 10
-74.7945654482
 20
20.0243085106
 10
-74.8451244715
 20
19.8567091453
 10
-74.8934704893
 20
19.6885077416
 10
-74.9395700487
 20
19.5198077201
 10
-74.983426376
 20
19.350613381
 10
-75.0250362449
 20
19.1809547433
 10
-75.0643565238
 20
19.0109740724
 10
-75.101389512
 20
18.8406644089
 10
-75.1361329101
 20
18.6700683794
 10
-75.1685366883
 20
18.4994023756
 10
-75.1985954826
 20
18.3286849575
 10
-75.226314657
 20
18.1579333631
 10
-75.2516602739
 20
17.987361105
 10
-75.274626906
 20
17.8169878847
 10
-75.2952199804
 20
17.6468288406
 10
-75.3134218412
 20
17.4770892272
 10
-75.3292272901
 20
17.3077865265
 10
-75.3426415252
 20
17.1389361066
 10
-75.3536624846
 20
16.9707381534
 10
-75.3622854237
 20
16.8032322945
 10
-75.368515087
 20
16.6364086674
 10
-75.3723636457
 20
16.4703912814
 10
-75.3738323652
 20
16.3052343911
 10
-75.3729199803
 20
16.1409104529
 10
-75.3696348656
 20
15.9774197574
 10
-75.363977933
 20
15.8147382702
 10
-75.3559482707
 20
15.6529154606
 10
-75.3455515185
 20
15.4920607711
 10
-75.332786568
 20
15.3321885991
 10
-75.3176545275
 20
15.1733063922
 10
-75.3001643624
 20
15.0155111693
 10
-75.2803213644
 20
14.8588435188
 10
-75.2581202416
 20
14.7032808922
 10
-75.2335540836
 20
14.5488243719
 10
-75.2066248174
 20
14.3954727759
 10
-75.1773305159
 20
14.2432435079
 10
-75.1456584876
 20
14.0921648492
 10
-75.1116100173
 20
13.9422396077
 10
-75.0751838202
 20
13.793478599
 10
-75.0363633505
 20
13.6459210091
 10
-74.9951465679
 20
13.499562201
 10
-74.9515355126
 20
13.3544176224
 10
-74.9055197596
 20
13.2105549519
 10
-74.8570958338
 20
13.0679987794
 10
-74.8062672102
 20
12.9267314312
 10
-74.7530338889
 20
12.7867559034
  0
LWPOLYLINE
  5
25C
100
AcDbEntity
  8
0
100
AcDbPolyline
 62
7
  6
CONTINUOUS
 90
10
 70
0
 43
0.3500000006
 10
-96.6622247314
 20
0.5446205292
 10
-96.0193622131
 20
-0.0982374573
 10
-95.1622242737
 20
-0.5268086929
 10
-94.0907927856
 20
-0.5268086929
 10
-93.6622238159
 20
-0.0982374573
 10
-93.6622238159
 20
0.5446205292
 10
-94.0907927856
 20
0.9731917648
 10
-94.9479307251
 20
0.9731917648
 10
-95.3765087585
 20
0.5446205292
 10
-95.3765087585
 20
-0.3839508591
  0
LINE
  5
25D
100
AcDbEntity
  8
ASSI
100
AcDbLine
 62
7
  6
CONTINUOUS
 10
-84.5804218447
 20
-29.9998199532
 11
-84.9122203947
 21
-10.99109375
  0
LWPOLYLINE
  5
25E
100
AcDbEntity
  8
ASSI
100
AcDbPolyline
 62
7
  6
CONTINUOUS
 90
5
 70
0
 10
-48.8100611748
 20
-10.9762565115
 10
-48.8548731782
 20
-10.9827684777
 10
-48.8996934205
 20
-10.9874308795
 10
-48.9444788792
 20
-10.9902059703
 10
-48.9892293005
 20
-10.99109375
  0
LINE
  5
25F
100
AcDbEntity
  8
0
100
AcDbLine
 62
7
  6
CONTINUOUS
 10
-55.7622203947
 20
-12.39109375
 11
-70.0622203947
 21
-12.39109375
  0
LINE
  5
260
100
AcDbEntity
  8
ASSI
100
AcDbLine
 62
250
  6
CONTINUOUS
 10
-76.8352117216
 20
-10.99109375
 11
-76.6252286154
 21
-29.9998199532
  0
LWPOLYLINE
  5
261
100
AcDbEntity
  8
ASSI
100
AcDbPolyline
 62
7
  6
CONTINUOUS
 90
25
 70
0
 10
-75.5413524207
 20
12.3884186308
 10
-75.5137745733
 20
12.4080663539
 10
-75.4855427374
 20
12.4275628045
 10
-75.4566814105
 20
12.4468916952
 10
-75.4272158825
 20
12.4660374914
 10
-75.3971714798
 20
12.48498369
 10
-75.3665735464
 20
12.5037128532
 10
-75.335448679
 20
12.5222096207
 10
-75.3038238654
 20
12.5404586203
 10
-75.2717257367
 20
12.5584427843
 10
-75.2391822206
 20
12.576147508
 10
-75.2062215396
 20
12.593558221
 10
-75.172871367
 20
12.6106583616
 10
-75.1391607384
 20
12.627434207
 10
-75.1051189073
 20
12.6438721014
 10
-75.0707743671
 20
12.6599560998
 10
-75.0361570435
 20
12.6756734801
 10
-75.0012969956
 20
12.6910116039
 10
-74.9662233005
 20
12.705955227
 10
-74.9309664757
 20
12.7204925615
 10
-74.8955572286
 20
12.7346122564
 10
-74.8600251897
 20
12.7483003439
 10
-74.8244009152
 20
12.7615452622
 10
-74.7887158461
 20
12.7743378333
 10
-74.7530010801
 20
12.7866682977
  0
LWPOLYLINE
  5
262
100
AcDbEntity
  8
ASSI
100
AcDbPolyline
 62
7
  6
CONTINUOUS
 90
16
 70
0
 10
-75.5413532211
 20
12.3884181754
 10
-75.5439455271
 20
12.3866049491
 10
-75.5467162544
 20
12.3849207
 10
-75.5496653308
 20
12.3833654288
 10
-75.5528038516
 20
12.3819194755
 10
-75.5561205551
 20
12.380602501
 10
-75.5595818332
 20
12.3794734872
 10
-75.5631843712
 20
12.3785439308
 10
-75.5669313019
 20
12.3778023361
 10
-75.5707986995
 20
12.3772731968
 10
-75.5747838612
 20
12.3769627272
 10
-75.5788892969
 20
12.3768647134
 10
-75.5830989116
 20
12.3769850066
 10
-75.587407277
 20
12.3773255571
 10
-75.5918196221
 20
12.3778844145
 10
-75.6393178973
 20
12.3860542403
  0
LWPOLYLINE
  5
263
100
AcDbEntity
  8
0
100
AcDbPolyline
 62
7
  6
CONTINUOUS
 90
10
 70
0
 43
0.3500000006
 10
-94.1622239685
 20
4.8303351517
 10
-94.0193616028
 20
4.9017640686
 10
-93.9479304199
 20
4.9017640686
 10
-93.8050771179
 20
4.7589062347
 10
-93.8050771179
 20
4.6874773178
 10
-93.8765083008
 20
4.6160484009
 10
-93.9479304199
 20
4.6160484009
 10
-94.0907927856
 20
4.6874773178
 10
-94.1622239685
 20
4.7589062347
 10
-94.1622239685
 20
4.8303351517
  0
LINE
  5
264
100
AcDbEntity
  8
ASSI
100
AcDbLine
 62
7
  6
CONTINUOUS
 10
-40.9122203947
 20
-10.99109375
 11
-55.8365874699
 21
-10.99109375
  0
LINE
  5
265
100
AcDbEntity
  8
0
100
AcDbLine
 62
7
  6
CONTINUOUS
 10
-55.8365874652
 20
-10.99109375
 11
-55.9122203947
 21
-10.99109375
  0
LINE
  5
266
100
AcDbEntity
  8
ASSI
100
AcDbLine
 62
7
  6
CONTINUOUS
 10
-69.9878533196
 20
-10.99109375
 11
-84.9122203947
 21
-10.99109375
  0
LINE
  5
267
100
AcDbEntity
  8
0
100
AcDbLine
 62
7
  6
CONTINUOUS
 10
-69.9122203947
 20
-10.99109375
 11
-69.9878533243
 21
-10.99109375
  0
LINE
  5
268
100
AcDbEntity
  8
0
100
AcDbLine
 62
7
  6
CONTINUOUS
 10
-69.9122203947
 20
-10.3893318505
 11
-55.9122203947
 21
-10.3893318505
  0
LWPOLYLINE
  5
269
100
AcDbEntity
  8
ASSI
100
AcDbPolyline
 62
7
  6
CONTINUOUS
 90
135
 70
0
 10
-76.8352124022
 20
-10.99109375
 10
-76.879904238
 20
-10.9902082616
 10
-76.9246312585
 20
-10.9874403967
 10
-76.9693932107
 20
-10.9827901552
 10
-77.0141467453
 20
-10.9762953279
 10
-77.0589347325
 20
-10.967918124
 10
-77.103886109
 20
-10.9575451713
 10
-77.1490016068
 20
-10.9452035899
 10
-77.1942796981
 20
-10.9308662596
 10
-77.2398456406
 20
-10.9143384476
 10
-77.2857002107
 20
-10.8956501861
 10
-77.3318415145
 20
-10.8747714428
 10
-77.3783904891
 20
-10.851417388
 10
-77.4253479313
 20
-10.8256225439
 10
-77.4727115613
 20
-10.7973523881
 10
-77.520597356
 20
-10.7662185238
 10
-77.5690148509
 20
-10.7322532859
 10
-77.6179525988
 20
-10.6954243393
 10
-77.6674947492
 20
-10.6552462824
 10
-77.7176529305
 20
-10.6117501544
 10
-77.7684131767
 20
-10.5649049161
 10
-77.8198209262
 20
-10.5141320472
 10
-77.8718773308
 20
-10.4594782221
 10
-77.9245785077
 20
-10.4008967664
 10
-77.9779620256
 20
-10.3376691364
 10
-78.0320350953
 20
-10.269847201
 10
-78.086787303
 20
-10.1973790912
 10
-78.1422294426
 20
-10.1193906565
 10
-78.1983944081
 20
-10.035897944
 10
-78.255245584
 20
-9.9468849066
 10
-78.3126892953
 20
-9.8514292515
 10
-78.370760052
 20
-9.7495244683
 10
-78.4294193834
 20
-9.6411770674
 10
-78.4884642512
 20
-9.5254842872
 10
-78.547907895
 20
-9.402469569
 10
-78.6077332766
 20
-9.2721094715
 10
-78.6676923043
 20
-9.1334309087
 10
-78.727798221
 20
-8.9864691712
 10
-78.7880343198
 20
-8.8311889684
 10
-78.8481081068
 20
-8.6665113436
 10
-78.9080365925
 20
-8.4924858324
 10
-78.9677998328
 20
-8.3090628991
 10
-79.0270505959
 20
-8.1150149798
 10
-79.0858154758
 20
-7.9103981898
 10
-79.1440657009
 20
-7.6951564137
 10
-79.2013719235
 20
-7.4678937421
 10
-79.2577631965
 20
-7.2287346028
 10
-79.3132093958
 20
-6.9775545679
 10
-79.367193604
 20
-6.7125844446
 10
-79.4197897506
 20
-6.4338070576
 10
-79.4709241423
 20
-6.1412395821
 10
-79.5198601821
 20
-5.8331643511
 10
-79.5667221257
 20
-5.508899409
 10
-79.611388094
 20
-5.1691267114
 10
-79.6527555004
 20
-4.8141744579
 10
-79.6908309151
 20
-4.4433901865
 10
-79.7256144759
 20
-4.0574263593
 10
-79.7559982963
 20
-3.658568562
 10
-79.7818962901
 20
-3.2466012154
 10
-79.8034053496
 20
-2.8217398989
 10
-79.8196957473
 20
-2.3869169358
 10
-79.8306704014
 20
-1.9419118223
 10
-79.8364388353
 20
-1.4869450623
 10
-79.8364833358
 20
-1.0256104908
 10
-79.8306833702
 20
-0.5576300914
 10
-79.8191710221
 20
-0.0832818806
 10
-79.8018080231
 20
0.3930062574
 10
-79.7784507754
 20
0.8713666424
 10
-79.7492512076
 20
1.3516669546
 10
-79.7145135332
 20
1.8290823509
 10
-79.6740724941
 20
2.3037080882
 10
-79.6280968532
 20
2.7754489095
 10
-79.577390343
 20
3.2391942003
 10
-79.5217454917
 20
3.6950677242
 10
-79.4613681952
 20
4.1429457176
 10
-79.3976809437
 20
4.5773462748
 10
-79.3306118622
 20
4.9975564882
 10
-79.2602275427
 20
5.4042892654
 10
-79.1881580894
 20
5.794201423
 10
-79.1145994288
 20
6.1659657002
 10
-79.0393494508
 20
6.5209093578
 10
-78.9634424295
 20
6.8596709956
 10
-78.8870587528
 20
7.1817381535
 10
-78.8100127706
 20
7.4876232915
 10
-78.7327912759
 20
7.7795023895
 10
-78.655435265
 20
8.057523726
 10
-78.5778995802
 20
8.3215390224
 10
-78.5005431496
 20
8.5732794228
 10
-78.4233811539
 20
8.8128732347
 10
-78.3463953506
 20
9.0401921506
 10
-78.2698957287
 20
9.2565823925
 10
-78.1939123276
 20
9.462075892
 10
-78.1184131379
 20
9.6566407176
 10
-78.0436160996
 20
9.8415272967
 10
-77.9695384364
 20
10.0167816378
 10
-77.8961618698
 20
10.1823577326
 10
-77.8236519222
 20
10.3393679837
 10
-77.7520185666
 20
10.4878553704
 10
-77.6812515424
 20
10.6277769134
 10
-77.6114867152
 20
10.7601160779
 10
-77.5427322759
 20
10.884904879
 10
-77.4749803921
 20
11.0021113015
 10
-77.4083434774
 20
11.1126227646
 10
-77.3428383145
 20
11.2164522901
 10
-77.2784490157
 20
11.3135868561
 10
-77.2152394453
 20
11.4048748171
 10
-77.153243734
 20
11.4903141212
 10
-77.092429022
 20
11.5699068201
 10
-77.0327589445
 20
11.6445074237
 10
-76.974259946
 20
11.7141381841
 10
-76.9169069501
 20
11.7787768492
 10
-76.8605863453
 20
11.8392111713
 10
-76.8053044679
 20
11.8954873135
 10
-76.7510562394
 20
11.9475591128
 10
-76.697710829
 20
11.9960758321
 10
-76.6452642792
 20
12.0410843085
 10
-76.5937216372
 20
12.0825377051
 10
-76.5429654496
 20
12.1209447743
 10
-76.4929913863
 20
12.156342364
 10
-76.4438047115
 20
12.1886936264
 10
-76.3953022373
 20
12.2183967704
 10
-76.3474915132
 20
12.2454768656
 10
-76.3003657902
 20
12.2699088425
 10
-76.2538002848
 20
12.2920157007
 10
-76.2078021468
 20
12.3118239234
 10
-76.1623648388
 20
12.3293070274
 10
-76.1173428472
 20
12.3447085628
 10
-76.0727352392
 20
12.3580574816
 10
-76.0285433242
 20
12.3693248318
 10
-75.9846247254
 20
12.3786673066
 10
-75.940977683
 20
12.3861117038
 10
-75.8976040999
 20
12.3916312256
 10
-75.8543668601
 20
12.3953021723
 10
-75.8112652742
 20
12.3971500579
 10
-75.7682999401
 20
12.3971493684
  0
LINE
  5
26A
100
AcDbEntity
  8
ASSI
100
AcDbLine
 62
250
  6
CONTINUOUS
 10
-70.7567838094
 20
-10.99109375
 11
-70.6486404756
 21
-29.9998199532
  0
LINE
  5
26B
100
AcDbEntity
  8
ASSI
100
AcDbLine
 62
7
  6
CONTINUOUS
 10
-70.1812293947
 20
15.40750525
 11
-69.2416493947
 21
18.33399125
  0
LINE
  5
26C
100
AcDbEntity
  8
ASSI
100
AcDbLine
 62
7
  6
CONTINUOUS
 10
-69.7562083947
 20
14.08380025
 11
-68.3916073947
 21
18.33399125
  0
LWPOLYLINE
  5
26D
100
AcDbEntity
  8
ASSI
100
AcDbPolyline
 62
7
  6
CONTINUOUS
 90
55
 70
0
 10
-59.3418103947
 20
-4.2498845908
 10
-59.3909809351
 20
-4.2562673333
 10
-59.440233968
 20
-4.2612827741
 10
-59.4895694935
 20
-4.2649309133
 10
-59.5390255897
 20
-4.2672124533
 10
-59.5885641784
 20
-4.2681266917
 10
-59.6380710256
 20
-4.2676715209
 10
-59.6875460604
 20
-4.2658437806
 10
-59.7369893537
 20
-4.262646631
 10
-59.7862868841
 20
-4.2580874452
 10
-59.8354383152
 20
-4.2521630796
 10
-59.8844439834
 20
-4.2448766777
 10
-59.9331908765
 20
-4.2362450428
 10
-59.9816783973
 20
-4.2262650701
 10
-60.029907143
 20
-4.2149398643
 10
-60.0777658931
 20
-4.2022955425
 10
-60.1252537937
 20
-4.1883290604
 10
-60.1723716987
 20
-4.1730434623
 10
-60.2190109492
 20
-4.1564739984
 10
-60.2651704407
 20
-4.1386177056
 10
-60.3108512777
 20
-4.1194775471
 10
-60.3559481155
 20
-4.099097662
 10
-60.4004596064
 20
-4.0774751891
 10
-60.444387098
 20
-4.0546129897
 10
-60.4876292891
 20
-4.0305637862
 10
-60.530184598
 20
-4.0053248393
 10
-60.5720546063
 20
-3.9788988885
 10
-60.6131427574
 20
-3.9513468746
 10
-60.6534472469
 20
-3.922666199
 10
-60.6929698792
 20
-3.8928594603
 10
-60.731619511
 20
-3.8619953962
 10
-60.7693941276
 20
-3.8300715663
 10
-60.8062957436
 20
-3.7970904109
 10
-60.8422392601
 20
-3.763127988
 10
-60.877222466
 20
-3.7281820329
 10
-60.9112475724
 20
-3.6922548102
 10
-60.9442361139
 20
-3.655429172
 10
-60.9761856981
 20
-3.6177030446
 10
-61.0070987175
 20
-3.5790785017
 10
-61.0369038832
 20
-3.5396446154
 10
-61.0655986386
 20
-3.4993995178
 10
-61.0931855404
 20
-3.4583450768
 10
-61.1196009704
 20
-3.4165759683
 10
-61.1448422249
 20
-3.3740905428
 10
-61.1689120075
 20
-3.3308904498
 10
-61.1917548108
 20
-3.2870753131
 10
-61.2133678032
 20
-3.2426437134
 10
-61.2337538162
 20
-3.19759707
 10
-61.2528658377
 20
-3.1520392653
 10
-61.2707009274
 20
-3.1059691194
 10
-61.2872620256
 20
-3.0593878122
 10
-61.3025109405
 20
-3.012402765
 10
-61.3164349418
 20
-2.9650497849
 10
-61.3290467599
 20
-2.9172930647
 10
-61.3403463947
 20
-2.8691326046
  0
LWPOLYLINE
  5
26E
100
AcDbEntity
  8
ASSI
100
AcDbPolyline
 62
7
  6
CONTINUOUS
 90
63
 70
0
 10
-63.6768103947
 20
-4.2498850369
 10
-63.7262089751
 20
-4.2562941221
 10
-63.7756902866
 20
-4.261323224
 10
-63.8252543294
 20
-4.2649723427
 10
-63.8749397139
 20
-4.2672421685
 10
-63.9247078297
 20
-4.2681320111
 10
-63.9744428451
 20
-4.2676397994
 10
-64.0241446832
 20
-4.2657623142
 10
-64.073813421
 20
-4.2625027748
 10
-64.1233334584
 20
-4.2578687675
 10
-64.1727044489
 20
-4.2518570907
 10
-64.2219267389
 20
-4.244470946
 10
-64.2708857674
 20
-4.235727524
 10
-64.319580921
 20
-4.2256236633
 10
-64.3680128131
 20
-4.2141625254
 10
-64.4160687221
 20
-4.2013707851
 10
-64.4637477721
 20
-4.1872453432
 10
-64.511050839
 20
-4.171789299
 10
-64.5578678286
 20
-4.1550386252
 10
-64.6041976085
 20
-4.1369903063
 10
-64.650041311
 20
-4.1176473579
 10
-64.6952922384
 20
-4.0970547991
 10
-64.73994901
 20
-4.0752097194
 10
-64.7840130064
 20
-4.0521150293
 10
-64.8273816721
 20
-4.02782448
 10
-64.8700533875
 20
-4.002335286
 10
-64.9120297722
 20
-3.9756502328
 10
-64.9532131294
 20
-3.9478314279
 10
-64.9936016118
 20
-3.9188762304
 10
-65.0331970667
 20
-3.8887872811
 10
-65.0719073387
 20
-3.8576346098
 10
-65.1097303659
 20
-3.8254157387
 10
-65.1466682101
 20
-3.7921331456
 10
-65.1826349014
 20
-3.7578642932
 10
-65.2176281777
 20
-3.7226068842
 10
-65.251650301
 20
-3.6863632158
 10
-65.2846220875
 20
-3.6492176424
 10
-65.3165410906
 20
-3.6111680633
 10
-65.3474097568
 20
-3.5722165793
 10
-65.3771562418
 20
-3.5324538468
 10
-65.4057779315
 20
-3.4918779764
 10
-65.43327744
 20
-3.4504908576
 10
-65.4595907641
 20
-3.4083888158
 10
-65.484715141
 20
-3.3655701858
 10
-65.5086533335
 20
-3.3220366328
 10
-65.5313496274
 20
-3.2778894777
 10
-65.55280113
 20
-3.2331272915
 10
-65.5730107339
 20
-3.1877515033
 10
-65.5919314029
 20
-3.1418677217
 10
-65.6095601347
 20
-3.0954747637
 10
-65.6258999315
 20
-3.0485738123
 10
-65.6409127637
 20
-3.001274026
 10
-65.6545955405
 20
-2.9535744758
 10
-65.6669513527
 20
-2.9054760907
 10
-65.6779514431
 20
-2.857090816
 10
-65.687592654
 20
-2.8084179835
 10
-65.695878143
 20
-2.7594582614
 10
-65.7027886263
 20
-2.7103255996
 10
-65.7083209014
 20
-2.6610195955
 10
-65.7124781707
 20
-2.6115406519
 10
-65.7152507587
 20
-2.5620039271
 10
-65.7166354401
 20
-2.5124092866
 10
-65.7168105692
 20
-2.4875830758
  0
LWPOLYLINE
  5
26F
100
AcDbEntity
  8
0
100
AcDbPolyline
 62
7
  6
CONTINUOUS
 90
3
 70
0
 43
0.3500000006
 10
-93.9479304199
 20
4.9017640686
 10
-93.7336459351
 20
4.8303351517
 10
-93.4479302673
 20
4.6874773178
  0
LWPOLYLINE
  5
270
100
AcDbEntity
  8
ASSI
100
AcDbPolyline
 62
250
  6
CONTINUOUS
 90
37
 70
0
 10
-75.5963096413
 20
12.3786582044
 10
-75.5135047452
 20
12.2031969541
 10
-75.4276877276
 20
12.027890095
 10
-75.3388521125
 20
11.852737627
 10
-75.2470351091
 20
11.6777264976
 10
-75.1521861137
 20
11.5028697594
 10
-75.0541663702
 20
11.3282065698
 10
-74.9529655886
 20
11.153723298
 10
-74.8485789259
 20
10.9794335747
 10
-74.74087492
 20
10.8054174497
 10
-74.6298512029
 20
10.6316778456
 10
-74.5154933095
 20
10.4582118397
 10
-74.3976506743
 20
10.285090714
 10
-74.276322391
 20
10.1123178883
 10
-74.1514906023
 20
9.9398899428
 10
-74.0229781618
 20
9.7678679
 10
-73.8907728342
 20
9.5962408676
 10
-73.7548658377
 20
9.425019738
 10
-73.6150839205
 20
9.2542982113
 10
-73.4714106291
 20
9.0840647675
 10
-73.3238390614
 20
8.9143309266
 10
-73.1722090126
 20
8.7452249486
 10
-73.0165217779
 20
8.5767558666
 10
-72.8567504084
 20
8.4089146477
 10
-72.6926908777
 20
8.2418024522
 10
-72.5243581557
 20
8.075435956
 10
-72.3517088564
 20
7.9097984833
 10
-72.1744493655
 20
7.7449411678
 10
-71.992570539
 20
7.5808542205
 10
-71.8060493258
 20
7.4175474303
 10
-71.6145686346
 20
7.2551012978
 10
-71.4181064927
 20
7.0934936839
 10
-71.2166484766
 20
6.9327467278
 10
-71.0098860357
 20
6.7730073466
 10
-70.7977022368
 20
6.6143245128
 10
-70.5801730383
 20
6.456649254
 10
-70.3572775535
 20
6.2999815702
  0
LINE
  5
271
100
AcDbEntity
  8
0
100
AcDbLine
 62
250
  6
CONTINUOUS
 10
-69.9788415761
 20
-12.3911404618
 11
-69.8779475848
 21
-29.9998199532
  0
LINE
  5
272
100
AcDbEntity
  8
0
100
AcDbLine
 62
7
  6
CONTINUOUS
 10
-70.0622203947
 20
-10.99109375
 11
-70.0622203947
 21
-12.39109375
  0
LINE
  5
273
100
AcDbEntity
  8
0
100
AcDbLine
 62
7
  6
CONTINUOUS
 10
-69.9622203947
 20
-10.99109375
 11
-69.9622203947
 21
-10.3622684182
  0
LINE
  5
274
100
AcDbEntity
  8
0
100
AcDbLine
 62
7
  6
CONTINUOUS
 10
-69.9122203947
 20
-10.99109375
 11
-69.9122203947
 21
-10.3893318505
  0
LINE
  5
275
100
AcDbEntity
  8
ASSI
100
AcDbLine
 62
250
  6
CONTINUOUS
 10
-69.8779475848
 20
-30.49109375
 11
-69.8779475848
 21
-29.9998199532
  0
LINE
  5
276
100
AcDbEntity
  8
ASSI
100
AcDbLine
 62
250
  6
CONTINUOUS
 10
-69.5863279955
 20
7.1886404968
 11
-69.5863279955
 21
6.2998559874
  0
LINE
  5
277
100
AcDbEntity
  8
ASSI
100
AcDbLine
 62
7
  6
CONTINUOUS
 10
-68.9622203947
 20
34.8843847815
 11
-68.9622203947
 21
35.7104702788
  0
LINE
  5
278
100
AcDbEntity
  8
ASSI
100
AcDbLine
 62
7
  6
CONTINUOUS
 10
-68.2122203947
 20
36.6391790615
 11
-68.2122203947
 21
37.20890625
  0
LINE
  5
279
100
AcDbEntity
  8
ASSI
100
AcDbLine
 62
250
  6
CONTINUOUS
 10
-70.3572775535
 20
6.2999815702
 11
-70.7559753504
 21
-10.99109375
  0
LINE
  5
27A
100
AcDbEntity
  8
ASSI
100
AcDbLine
 62
250
  6
CONTINUOUS
 10
-69.5863278418
 20
6.2998559874
 11
-69.9878533243
 21
-10.99109375
  0
LWPOLYLINE
  5
27B
100
AcDbEntity
  8
ASSI
100
AcDbPolyline
 62
250
  6
CONTINUOUS
 90
34
 70
0
 10
-69.5863279955
 20
7.1886404968
 10
-69.6136448308
 20
7.1713649306
 10
-69.6409213052
 20
7.153262869
 10
-69.6681434522
 20
7.1343612026
 10
-69.6953062246
 20
7.1147008794
 10
-69.7223873482
 20
7.0942986609
 10
-69.7493466285
 20
7.0731457852
 10
-69.7761697735
 20
7.0512727855
 10
-69.80284358
 20
7.0287111915
 10
-69.829328656
 20
7.0054531422
 10
-69.8556111858
 20
6.9815312837
 10
-69.8816781138
 20
6.9569792706
 10
-69.9074906094
 20
6.9317901656
 10
-69.9330356049
 20
6.9059985898
 10
-69.9583005533
 20
6.8796400911
 10
-69.9832470725
 20
6.8527085686
 10
-70.0078631579
 20
6.8252404016
 10
-70.0321370674
 20
6.7972728385
 10
-70.0560307269
 20
6.7688005717
 10
-70.0795334791
 20
6.7398614986
 10
-70.1026346897
 20
6.7104943475
 10
-70.1252964847
 20
6.6806945762
 10
-70.1475098331
 20
6.6505012821
 10
-70.1692654807
 20
6.6199544497
 10
-70.1905256385
 20
6.5890503783
 10
-70.2112831258
 20
6.5578290134
 10
-70.23153035
 20
6.5263312978
 10
-70.2512295846
 20
6.4945544678
 10
-70.2703757679
 20
6.462538723
 10
-70.2889631291
 20
6.4303257654
 10
-70.3069538319
 20
6.3979143625
 10
-70.3243331045
 20
6.3653311835
 10
-70.3411092239
 20
6.3326313684
 10
-70.3572800081
 20
6.2998559874
  0
LINE
  5
27C
100
AcDbEntity
  8
ASSI
100
AcDbLine
 62
7
  6
CONTINUOUS
 10
-61.3403463947
 20
-2.8691326046
 11
-59.8518103947
 21
-2.8691326046
  0
LINE
  5
27D
100
AcDbEntity
  8
ASSI
100
AcDbLine
 62
7
  6
CONTINUOUS
 10
-59.8518103947
 20
-2.106033547
 11
-61.3403468548
 21
-2.106033547
  0
LWPOLYLINE
  5
27E
100
AcDbEntity
  8
ASSI
100
AcDbPolyline
 62
250
  6
CONTINUOUS
 90
37
 70
0
 10
-74.7530338889
 20
12.7867559034
 10
-74.6708481593
 20
12.6251668656
 10
-74.5857046672
 20
12.4636711539
 10
-74.4976034127
 20
12.3022980889
 10
-74.4065953233
 20
12.1410989579
 10
-74.3126294715
 20
11.9800822038
 10
-74.2155530745
 20
11.8192146404
 10
-74.1153629803
 20
11.6585165174
 10
-74.0120623409
 20
11.4980326931
 10
-73.9055078293
 20
11.3377692411
 10
-73.7957065838
 20
11.1777659994
 10
-73.6826514663
 20
11.0180520777
 10
-73.5661777352
 20
10.8586196291
 10
-73.4462942191
 20
10.6995109561
 10
-73.3229920894
 20
10.5407576678
 10
-73.19608012
 20
10.3823389125
 10
-73.0655573847
 20
10.2242875995
 10
-72.9314248097
 20
10.0666510257
 10
-72.7934939473
 20
9.9094330615
 10
-72.6517617577
 20
9.7526692148
 10
-72.5062312807
 20
9.5964097484
 10
-72.3567231887
 20
9.4406829497
 10
-72.203253032
 20
9.2855454239
 10
-72.0458052603
 20
9.1310306625
 10
-71.884153895
 20
8.9771351257
 10
-71.7183286348
 20
8.8239270162
 10
-71.548299781
 20
8.6714349391
 10
-71.3737522594
 20
8.5196018967
 10
-71.1946944273
 20
8.3684795829
 10
-71.0111179274
 20
8.2181249264
 10
-70.8226826135
 20
8.0684968581
 10
-70.6293905853
 20
7.9196465732
 10
-70.431239743
 20
7.7716437092
 10
-70.2278836409
 20
7.6244823102
 10
-70.019206797
 20
7.4782054755
 10
-69.8053246932
 20
7.3329024179
 10
-69.5862373296
 20
7.1886404968
  0
LWPOLYLINE
  5
27F
100
AcDbEntity
  8
ASSI
100
AcDbPolyline
 62
7
  6
CONTINUOUS
 90
67
 70
0
 10
-66.4818104299
 20
-2.4875830758
 10
-66.480992
 20
-2.5519619339
 10
-66.4785398502
 20
-2.6163407921
 10
-66.4744586907
 20
-2.6805959918
 10
-66.4687453905
 20
-2.7447272954
 10
-66.4614030805
 20
-2.8087349406
 10
-66.4524458637
 20
-2.8724959819
 10
-66.4418706365
 20
-2.9360099454
 10
-66.4296805025
 20
-2.999277305
 10
-66.4158988765
 20
-3.0621765372
 10
-66.4005226997
 20
-3.1247069346
 10
-66.3835550309
 20
-3.1868692047
 10
-66.3650284614
 20
-3.2485439465
 10
-66.3449399952
 20
-3.3097302232
 10
-66.3232926283
 20
-3.3704289717
 10
-66.300127941
 20
-3.4305236023
 10
-66.2754430168
 20
-3.4900129538
 10
-66.2492407721
 20
-3.5488981875
 10
-66.221571536
 20
-3.607066197
 10
-66.1924324889
 20
-3.6645156038
 10
-66.1618264504
 20
-3.7212477863
 10
-66.1298122083
 20
-3.7771537738
 10
-66.096387056
 20
-3.8322319785
 10
-66.0615537002
 20
-3.8864839881
 10
-66.0253790485
 20
-3.9398055959
 10
-65.9878605229
 20
-3.9921950136
 10
-65.9490007013
 20
-4.0436540295
 10
-65.9088742255
 20
-4.0940838014
 10
-65.867478661
 20
-4.1434823512
 10
-65.8248164421
 20
-4.191851657
 10
-65.7809695144
 20
-4.2390988115
 10
-65.7359356006
 20
-4.2852216578
 10
-65.6897169778
 20
-4.3302223528
 10
-65.6424024224
 20
-4.3740144594
 10
-65.5939898281
 20
-4.4165956548
 10
-65.5444813012
 20
-4.4579682618
 10
-65.4939719374
 20
-4.4980528122
 10
-65.4424598129
 20
-4.5368468304
 10
-65.3899468515
 20
-4.574352792
 10
-65.3365339197
 20
-4.6104986559
 10
-65.2822192876
 20
-4.6452818079
 10
-65.2270046851
 20
-4.6787048622
 10
-65.1709961679
 20
-4.71070362
 10
-65.1141922102
 20
-4.7412753438
 10
-65.0565943379
 20
-4.7704227711
 10
-64.9983131844
 20
-4.7980899157
 10
-64.9393474367
 20
-4.8242739326
 10
-64.8796984078
 20
-4.8489776668
 10
-64.8194806713
 20
-4.8721536675
 10
-64.7586931341
 20
-4.8937989985
 10
-64.6973368892
 20
-4.9139165962
 10
-64.6355297893
 20
-4.9324678186
 10
-64.5732709679
 20
-4.9494496553
 10
-64.5105612914
 20
-4.9648651169
 10
-64.4475212122
 20
-4.9786845934
 10
-64.3841500952
 20
-4.9909050174
 10
-64.3204485754
 20
-5.0015294563
 10
-64.2565390104
 20
-5.0105375028
 10
-64.1924210001
 20
-5.0179260502
 10
-64.1280949445
 20
-5.0236982051
 10
-64.0636844007
 20
-5.0278428806
 10
-63.9991892061
 20
-5.0303569485
 10
-63.9346095232
 20
-5.0312435369
 10
-63.8700693962
 20
-5.0305009429
 10
-63.8056101732
 20
-5.0281285987
 10
-63.741190506
 20
-5.0241270721
 10
-63.6768103947
 20
-5.018496363
  0
LINE
  5
280
100
AcDbEntity
  8
ASSI
100
AcDbLine
 62
7
  6
CONTINUOUS
 10
-67.8249333947
 20
14.08378925
 11
-67.8249233947
 21
18.33399125
  0
LINE
  5
281
100
AcDbEntity
  8
ASSI
100
AcDbLine
 62
7
  6
CONTINUOUS
 10
-66.9749013947
 20
14.08380025
 11
-66.9748913947
 21
18.33399125
  0
LINE
  5
282
100
AcDbEntity
  8
ASSI
100
AcDbLine
 62
7
  6
CONTINUOUS
 10
-66.1248913947
 20
14.08380025
 11
-66.1248913947
 21
18.33399125
  0
LINE
  5
283
100
AcDbEntity
  8
ASSI
100
AcDbLine
 62
7
  6
CONTINUOUS
 10
-65.2748593947
 20
14.08380025
 11
-65.2748593947
 21
16.88651525
  0
LWPOLYLINE
  5
284
100
AcDbEntity
  8
ASSI
100
AcDbPolyline
 62
7
  6
CONTINUOUS
 90
63
 70
0
 10
-65.7168105692
 20
-2.4875830758
 10
-65.7166354401
 20
-2.462756865
 10
-65.7152507587
 20
-2.4131622245
 10
-65.7124781707
 20
-2.3636254997
 10
-65.7083209014
 20
-2.314146556
 10
-65.7027886263
 20
-2.2648405519
 10
-65.695878143
 20
-2.2157078902
 10
-65.687592654
 20
-2.1667481681
 10
-65.6779514431
 20
-2.1180753356
 10
-65.6669513527
 20
-2.0696900609
 10
-65.6545955405
 20
-2.0215916758
 10
-65.6409127637
 20
-1.9738921256
 10
-65.6258999315
 20
-1.9265923393
 10
-65.6095601347
 20
-1.8796913879
 10
-65.5919314029
 20
-1.8332984298
 10
-65.5730107339
 20
-1.7874146483
 10
-65.55280113
 20
-1.7420388601
 10
-65.5313496274
 20
-1.6972766738
 10
-65.5086533335
 20
-1.6531295188
 10
-65.484715141
 20
-1.6095959658
 10
-65.4595907641
 20
-1.5667773357
 10
-65.43327744
 20
-1.524675294
 10
-65.4057779315
 20
-1.4832881752
 10
-65.3771562418
 20
-1.4427123048
 10
-65.3474097568
 20
-1.4029495723
 10
-65.3165410906
 20
-1.3639980882
 10
-65.2846220875
 20
-1.3259485092
 10
-65.251650301
 20
-1.2888029358
 10
-65.2176281777
 20
-1.2525592674
 10
-65.1826349014
 20
-1.2173018584
 10
-65.1466682101
 20
-1.1830330059
 10
-65.1097303659
 20
-1.1497504128
 10
-65.0719073387
 20
-1.1175315418
 10
-65.0331970667
 20
-1.0863788705
 10
-64.9936016118
 20
-1.0562899212
 10
-64.9532131294
 20
-1.0273347237
 10
-64.9120297722
 20
-0.9995159187
 10
-64.8700533875
 20
-0.9728308656
 10
-64.8273816721
 20
-0.9473416716
 10
-64.7840130064
 20
-0.9230511223
 10
-64.73994901
 20
-0.8999564322
 10
-64.6952922384
 20
-0.8781113525
 10
-64.650041311
 20
-0.8575187937
 10
-64.6041976085
 20
-0.8381758452
 10
-64.5578678286
 20
-0.8201275264
 10
-64.511050839
 20
-0.8033768526
 10
-64.4637477721
 20
-0.7879208083
 10
-64.4160687221
 20
-0.7737953665
 10
-64.3680128131
 20
-0.7610036262
 10
-64.319580921
 20
-0.7495424883
 10
-64.2708857674
 20
-0.7394386276
 10
-64.2219267389
 20
-0.7306952056
 10
-64.1727044489
 20
-0.7233090609
 10
-64.1233334584
 20
-0.7172973841
 10
-64.073813421
 20
-0.7126633768
 10
-64.0241446832
 20
-0.7094038374
 10
-63.9744428451
 20
-0.7075263522
 10
-63.9247078297
 20
-0.7070341405
 10
-63.8749397139
 20
-0.7079239831
 10
-63.8252543294
 20
-0.7101938089
 10
-63.7756902866
 20
-0.7138429276
 10
-63.7262089751
 20
-0.7188720295
 10
-63.6768103947
 20
-0.7252811147
  0
LINE
  5
285
100
AcDbEntity
  8
ASSI
100
AcDbLine
 62
7
  6
CONTINUOUS
 10
-64.0461943947
 20
15.56611525
 11
-63.2525183947
 21
18.33399125
  0
LINE
  5
286
100
AcDbEntity
  8
ASSI
100
AcDbLine
 62
7
  6
CONTINUOUS
 10
-63.6211943947
 20
14.08381025
 11
-62.8175413947
 21
16.88651525
  0
LWPOLYLINE
  5
287
100
AcDbEntity
  8
ASSI
100
AcDbPolyline
 62
7
  6
CONTINUOUS
 90
67
 70
0
 10
-63.6768103947
 20
0.0433302114
 10
-63.741190506
 20
0.0489609205
 10
-63.8056101732
 20
0.0529624471
 10
-63.8700693962
 20
0.0553347913
 10
-63.9346095232
 20
0.0560773853
 10
-63.9991892061
 20
0.0551907969
 10
-64.0636844007
 20
0.052676729
 10
-64.1280949445
 20
0.0485320536
 10
-64.1924210001
 20
0.0427598986
 10
-64.2565390104
 20
0.0353713512
 10
-64.3204485754
 20
0.0263633047
 10
-64.3841500952
 20
0.0157388658
 10
-64.4475212122
 20
0.0035184419
 10
-64.5105612914
 20
-0.0103010347
 10
-64.5732709679
 20
-0.0257164962
 10
-64.6355297893
 20
-0.042698333
 10
-64.6973368892
 20
-0.0612495554
 10
-64.7586931341
 20
-0.081367153
 10
-64.8194806713
 20
-0.1030124841
 10
-64.8796984078
 20
-0.1261884848
 10
-64.9393474367
 20
-0.150892219
 10
-64.9983131844
 20
-0.1770762359
 10
-65.0565943379
 20
-0.2047433805
 10
-65.1141922102
 20
-0.2338908078
 10
-65.1709961679
 20
-0.2644625316
 10
-65.2270046851
 20
-0.2964612894
 10
-65.2822192876
 20
-0.3298843437
 10
-65.3365339197
 20
-0.3646674957
 10
-65.3899468515
 20
-0.4008133596
 10
-65.4424598129
 20
-0.4383193212
 10
-65.4939719374
 20
-0.4771133394
 10
-65.5444813012
 20
-0.5171978898
 10
-65.5939898281
 20
-0.5585704968
 10
-65.6424024224
 20
-0.6011516921
 10
-65.6897169778
 20
-0.6449437988
 10
-65.7359356006
 20
-0.6899444937
 10
-65.7809695144
 20
-0.7360673401
 10
-65.8248164421
 20
-0.7833144945
 10
-65.867478661
 20
-0.8316838004
 10
-65.9088742255
 20
-0.8810823501
 10
-65.9490007013
 20
-0.9315121221
 10
-65.9878605229
 20
-0.982971138
 10
-66.0253790485
 20
-1.0353605557
 10
-66.0615537002
 20
-1.0886821635
 10
-66.096387056
 20
-1.1429341731
 10
-66.1298122083
 20
-1.1980123777
 10
-66.1618264504
 20
-1.2539183653
 10
-66.1924324889
 20
-1.3106505478
 10
-66.221571536
 20
-1.3680999546
 10
-66.2492407721
 20
-1.4262679641
 10
-66.2754430168
 20
-1.4851531978
 10
-66.300127941
 20
-1.5446425493
 10
-66.3232926283
 20
-1.6047371799
 10
-66.3449399952
 20
-1.6654359284
 10
-66.3650284614
 20
-1.7266222051
 10
-66.3835550309
 20
-1.7882969469
 10
-66.4005226997
 20
-1.850459217
 10
-66.4158988765
 20
-1.9129896144
 10
-66.4296805025
 20
-1.9758888466
 10
-66.4418706365
 20
-2.0391562062
 10
-66.4524458637
 20
-2.1026701697
 10
-66.4614030805
 20
-2.166431211
 10
-66.4687453905
 20
-2.2304388562
 10
-66.4744586907
 20
-2.2945701598
 10
-66.4785398502
 20
-2.3588253595
 10
-66.480992
 20
-2.4232042176
 10
-66.4818104299
 20
-2.4875830758
  0
LWPOLYLINE
  5
288
100
AcDbEntity
  8
ASSI
100
AcDbPolyline
 62
7
  6
CONTINUOUS
 90
67
 70
0
 10
-59.3418103947
 20
0.0433302114
 10
-59.406190506
 20
0.0489609205
 10
-59.4706101732
 20
0.0529624471
 10
-59.5350693962
 20
0.0553347913
 10
-59.5996095232
 20
0.0560773853
 10
-59.6641892061
 20
0.0551907969
 10
-59.7286844007
 20
0.052676729
 10
-59.7930949445
 20
0.0485320536
 10
-59.8574210001
 20
0.0427598986
 10
-59.9215390104
 20
0.0353713512
 10
-59.9854485754
 20
0.0263633047
 10
-60.0491500952
 20
0.0157388658
 10
-60.1125212122
 20
0.0035184419
 10
-60.1755612914
 20
-0.0103010347
 10
-60.2382709679
 20
-0.0257164962
 10
-60.3005297893
 20
-0.042698333
 10
-60.3623368892
 20
-0.0612495554
 10
-60.4236931341
 20
-0.081367153
 10
-60.4844806713
 20
-0.1030124841
 10
-60.5446984078
 20
-0.1261884848
 10
-60.6043474367
 20
-0.150892219
 10
-60.6633131844
 20
-0.1770762359
 10
-60.7215943379
 20
-0.2047433805
 10
-60.7791922102
 20
-0.2338908078
 10
-60.8359961679
 20
-0.2644625316
 10
-60.8920046851
 20
-0.2964612894
 10
-60.9472192876
 20
-0.3298843437
 10
-61.0015339197
 20
-0.3646674957
 10
-61.0549468515
 20
-0.4008133596
 10
-61.1074598129
 20
-0.4383193212
 10
-61.1589719374
 20
-0.4771133394
 10
-61.2094813012
 20
-0.5171978898
 10
-61.2589898281
 20
-0.5585704968
 10
-61.3074024224
 20
-0.6011516921
 10
-61.3547169778
 20
-0.6449437988
 10
-61.4009356006
 20
-0.6899444937
 10
-61.4459695144
 20
-0.7360673401
 10
-61.4898164421
 20
-0.7833144945
 10
-61.532478661
 20
-0.8316838004
 10
-61.5738742255
 20
-0.8810823501
 10
-61.6140007013
 20
-0.9315121221
 10
-61.6528605229
 20
-0.982971138
 10
-61.6903790485
 20
-1.0353605557
 10
-61.7265537002
 20
-1.0886821635
 10
-61.761387056
 20
-1.1429341731
 10
-61.7948122083
 20
-1.1980123777
 10
-61.8268264504
 20
-1.2539183653
 10
-61.8574324889
 20
-1.3106505478
 10
-61.886571536
 20
-1.3680999546
 10
-61.9142407721
 20
-1.4262679641
 10
-61.9404430168
 20
-1.4851531978
 10
-61.965127941
 20
-1.5446425493
 10
-61.9882926283
 20
-1.6047371799
 10
-62.0099399952
 20
-1.6654359284
 10
-62.0300284614
 20
-1.7266222051
 10
-62.0485550309
 20
-1.7882969469
 10
-62.0655226997
 20
-1.850459217
 10
-62.0808988765
 20
-1.9129896144
 10
-62.0946805025
 20
-1.9758888466
 10
-62.1068706365
 20
-2.0391562062
 10
-62.1174458637
 20
-2.1026701697
 10
-62.1264030805
 20
-2.166431211
 10
-62.1337453905
 20
-2.2304388562
 10
-62.1394586907
 20
-2.2945701598
 10
-62.1435398502
 20
-2.3588253595
 10
-62.145992
 20
-2.4232042176
 10
-62.1468104299
 20
-2.4875830758
  0
LINE
  5
289
100
AcDbEntity
  8
ASSI
100
AcDbLine
 62
7
  6
CONTINUOUS
 10
-70.6062713947
 20
14.08378925
 11
-71.9708613947
 21
18.33399125
  0
LINE
  5
28A
100
AcDbEntity
  8
ASSI
100
AcDbLine
 62
7
  6
CONTINUOUS
 10
-70.1812293947
 20
15.40750525
 11
-71.1208193947
 21
18.33399125
  0
LWPOLYLINE
  5
28B
100
AcDbEntity
  8
0
100
AcDbPolyline
 62
7
  6
CONTINUOUS
 90
2
 70
0
 43
0.3500000006
 10
-64.2693615875
 20
46.7589054565
 10
-64.2693615875
 20
48.2589059143
  0
LINE
  5
28C
100
AcDbEntity
  8
ASSI
100
AcDbLine
 62
7
  6
CONTINUOUS
 10
-63.6768103947
 20
-5.018496363
 11
-63.6768103947
 21
-4.2498850369
  0
LINE
  5
28D
100
AcDbEntity
  8
ASSI
100
AcDbLine
 62
7
  6
CONTINUOUS
 10
-63.6768103947
 20
-0.7252811147
 11
-63.6768103947
 21
0.0433302114
  0
LINE
  5
28E
100
AcDbEntity
  8
ASSI
100
AcDbLine
 62
7
  6
CONTINUOUS
 10
-62.8175303947
 20
14.08380025
 11
-62.8175413947
 21
16.88651525
  0
LINE
  5
28F
100
AcDbEntity
  8
ASSI
100
AcDbLine
 62
7
  6
CONTINUOUS
 10
-61.4008143947
 20
14.08380025
 11
-60.0362343947
 21
18.33400225
  0
LINE
  5
290
100
AcDbEntity
  8
ASSI
100
AcDbLine
 62
7
  6
CONTINUOUS
 10
-60.5507823947
 20
14.08381025
 11
-60.2824263947
 21
14.91963725
  0
LINE
  5
291
100
AcDbEntity
  8
ASSI
100
AcDbLine
 62
7
  6
CONTINUOUS
 10
-60.0231443947
 20
15.72716825
 11
-59.6112023947
 21
17.01028625
  0
LWPOLYLINE
  5
292
100
AcDbEntity
  8
0
100
AcDbPolyline
 62
7
  6
CONTINUOUS
 90
4
 70
0
 43
0.3500000006
 10
-94.0907927856
 20
1.8303342361
 10
-94.9479307251
 20
1.8303342361
 10
-95.3765087585
 20
2.2589054718
 10
-95.3765087585
 20
2.9017634583
  0
LWPOLYLINE
  5
293
100
AcDbEntity
  8
ASSI
100
AcDbPolyline
 62
7
  6
CONTINUOUS
 90
67
 70
0
 10
-62.1468104299
 20
-2.4875830758
 10
-62.145992
 20
-2.5519619339
 10
-62.1435398502
 20
-2.6163407921
 10
-62.1394586907
 20
-2.6805959918
 10
-62.1337453905
 20
-2.7447272954
 10
-62.1264030805
 20
-2.8087349406
 10
-62.1174458637
 20
-2.8724959819
 10
-62.1068706365
 20
-2.9360099454
 10
-62.0946805025
 20
-2.999277305
 10
-62.0808988765
 20
-3.0621765372
 10
-62.0655226997
 20
-3.1247069346
 10
-62.0485550309
 20
-3.1868692047
 10
-62.0300284614
 20
-3.2485439465
 10
-62.0099399952
 20
-3.3097302232
 10
-61.9882926283
 20
-3.3704289717
 10
-61.965127941
 20
-3.4305236023
 10
-61.9404430168
 20
-3.4900129538
 10
-61.9142407721
 20
-3.5488981875
 10
-61.886571536
 20
-3.607066197
 10
-61.8574324889
 20
-3.6645156038
 10
-61.8268264504
 20
-3.7212477863
 10
-61.7948122083
 20
-3.7771537738
 10
-61.761387056
 20
-3.8322319785
 10
-61.7265537002
 20
-3.8864839881
 10
-61.6903790485
 20
-3.9398055959
 10
-61.6528605229
 20
-3.9921950136
 10
-61.6140007013
 20
-4.0436540295
 10
-61.5738742255
 20
-4.0940838014
 10
-61.532478661
 20
-4.1434823512
 10
-61.4898164421
 20
-4.191851657
 10
-61.4459695144
 20
-4.2390988115
 10
-61.4009356006
 20
-4.2852216578
 10
-61.3547169778
 20
-4.3302223528
 10
-61.3074024224
 20
-4.3740144594
 10
-61.2589898281
 20
-4.4165956548
 10
-61.2094813012
 20
-4.4579682618
 10
-61.1589719374
 20
-4.4980528122
 10
-61.1074598129
 20
-4.5368468304
 10
-61.0549468515
 20
-4.574352792
 10
-61.0015339197
 20
-4.6104986559
 10
-60.9472192876
 20
-4.6452818079
 10
-60.8920046851
 20
-4.6787048622
 10
-60.8359961679
 20
-4.71070362
 10
-60.7791922102
 20
-4.7412753438
 10
-60.7215943379
 20
-4.7704227711
 10
-60.6633131844
 20
-4.7980899157
 10
-60.6043474367
 20
-4.8242739326
 10
-60.5446984078
 20
-4.8489776668
 10
-60.4844806713
 20
-4.8721536675
 10
-60.4236931341
 20
-4.8937989985
 10
-60.3623368892
 20
-4.9139165962
 10
-60.3005297893
 20
-4.9324678186
 10
-60.2382709679
 20
-4.9494496553
 10
-60.1755612914
 20
-4.9648651169
 10
-60.1125212122
 20
-4.9786845934
 10
-60.0491500952
 20
-4.9909050174
 10
-59.9854485754
 20
-5.0015294563
 10
-59.9215390104
 20
-5.0105375028
 10
-59.8574210001
 20
-5.0179260502
 10
-59.7930949445
 20
-5.0236982051
 10
-59.7286844007
 20
-5.0278428806
 10
-59.6641892061
 20
-5.0303569485
 10
-59.5996095232
 20
-5.0312435369
 10
-59.5350693962
 20
-5.0305009429
 10
-59.4706101732
 20
-5.0281285987
 10
-59.406190506
 20
-5.0241270721
 10
-59.3418103947
 20
-5.018496363
  0
LINE
  5
294
100
AcDbEntity
  8
ASSI
100
AcDbLine
 62
7
  6
CONTINUOUS
 10
-61.9674983947
 20
14.08380025
 11
-61.9674983947
 21
18.33399125
  0
LWPOLYLINE
  5
295
100
AcDbEntity
  8
0
100
AcDbPolyline
 62
7
  6
CONTINUOUS
 90
2
 70
0
 43
0.3500000006
 10
-61.9122186584
 20
46.7589054565
 10
-61.9122186584
 20
48.2589059143
  0
LINE
  5
296
100
AcDbEntity
  8
ASSI
100
AcDbLine
 62
7
  6
CONTINUOUS
 10
-59.8518103947
 20
-2.8691326046
 11
-59.8518103947
 21
-2.106033547
  0
LWPOLYLINE
  5
297
100
AcDbEntity
  8
ASSI
100
AcDbPolyline
 62
7
  6
CONTINUOUS
 90
55
 70
0
 10
-61.3403468548
 20
-2.106033547
 10
-61.3290472059
 20
-2.0578730325
 10
-61.3164353763
 20
-2.0101162687
 10
-61.302511366
 20
-1.9627632557
 10
-61.2872624454
 20
-1.9157781897
 10
-61.270701344
 20
-1.8691968744
 10
-61.2528662508
 20
-1.8231267206
 10
-61.2337542246
 20
-1.7775689045
 10
-61.2133682064
 20
-1.7325222498
 10
-61.1917552087
 20
-1.688090639
 10
-61.1689123997
 20
-1.6442754914
 10
-61.144842611
 20
-1.6010753876
 10
-61.1196013502
 20
-1.5585899516
 10
-61.0931859137
 20
-1.5168208326
 10
-61.065599005
 20
-1.4757663814
 10
-61.0369042425
 20
-1.4355212738
 10
-61.0070990693
 20
-1.3960873776
 10
-60.9761860422
 20
-1.357462825
 10
-60.94423645
 20
-1.3197366883
 10
-60.9112479003
 20
-1.2829110408
 10
-60.8772227854
 20
-1.2469838092
 10
-60.8422395708
 20
-1.2120378454
 10
-60.8062960453
 20
-1.178075414
 10
-60.76939442
 20
-1.1450942504
 10
-60.7316197941
 20
-1.1131704126
 10
-60.6929701526
 20
-1.0823063407
 10
-60.6534475105
 20
-1.0524995946
 10
-60.6131430109
 20
-1.0238189119
 10
-60.5720548495
 20
-0.9962668911
 10
-60.5301848308
 20
-0.9698409337
 10
-60.4876295113
 20
-0.9446019805
 10
-60.4443873094
 20
-0.920552771
 10
-60.4004598068
 20
-0.8976905659
 10
-60.3559483049
 20
-0.8760680876
 10
-60.3108514558
 20
-0.8556881974
 10
-60.2651706074
 20
-0.8365480341
 10
-60.2190111044
 20
-0.8186917369
 10
-60.1723718422
 20
-0.8021222689
 10
-60.1252539255
 20
-0.786836667
 10
-60.0777660131
 20
-0.7728701814
 10
-60.0299072511
 20
-0.7602258564
 10
-59.9816784933
 20
-0.7489006478
 10
-59.9331909604
 20
-0.7389206726
 10
-59.8844440552
 20
-0.7302890355
 10
-59.8354383747
 20
-0.7230026318
 10
-59.7862869314
 20
-0.7170782648
 10
-59.7369893887
 20
-0.7125190778
 10
-59.6875460831
 20
-0.7093219274
 10
-59.6380710359
 20
-0.7074941867
 10
-59.588564174
 20
-0.7070390159
 10
-59.5390255705
 20
-0.7079532548
 10
-59.4895694668
 20
-0.710234795
 10
-59.4402339431
 20
-0.7138829336
 10
-59.3909809191
 20
-0.7188983735
 10
-59.3418103947
 20
-0.7252811147
  0
LINE
  5
298
100
AcDbEntity
  8
ASSI
100
AcDbLine
 62
250
  6
CONTINUOUS
 10
-70.300858016
 20
6.3013198424
 11
-70.3572800081
 21
6.2998559874
  0
LINE
  5
299
100
AcDbEntity
  8
ASSI
100
AcDbLine
 62
250
  6
CONTINUOUS
 10
-70.242435508
 20
6.3025231718
 11
-70.300858016
 21
6.3013198424
  0
LINE
  5
29A
100
AcDbEntity
  8
ASSI
100
AcDbLine
 62
250
  6
CONTINUOUS
 10
-56.238112794
 20
6.2998559874
 11
-56.1350584505
 21
6.3019540978
  0
LINE
  5
29B
100
AcDbEntity
  8
ASSI
100
AcDbLine
 62
250
  6
CONTINUOUS
 10
-70.1821760535
 20
6.3034626065
 11
-70.242435508
 21
6.3025231718
  0
LINE
  5
29C
100
AcDbEntity
  8
ASSI
100
AcDbLine
 62
250
  6
CONTINUOUS
 10
-56.1350584505
 20
6.3019540978
 11
-56.0326512882
 21
6.3034627415
  0
LINE
  5
29D
100
AcDbEntity
  8
ASSI
100
AcDbLine
 62
250
  6
CONTINUOUS
 10
-70.1202483647
 20
6.3041355163
 11
-70.1821760535
 21
6.3034626065
  0
LINE
  5
29E
100
AcDbEntity
  8
ASSI
100
AcDbLine
 62
250
  6
CONTINUOUS
 10
-56.0326512882
 20
6.3034627415
 11
-55.9315376269
 21
6.3043714132
  0
LINE
  5
29F
100
AcDbEntity
  8
ASSI
100
AcDbLine
 62
250
  6
CONTINUOUS
 10
-70.0246093255
 20
6.3046412311
 11
-70.1202483647
 21
6.3041355163
  0
LINE
  5
2A0
100
AcDbEntity
  8
ASSI
100
AcDbLine
 62
250
  6
CONTINUOUS
 10
-55.9315376269
 20
6.3043714132
 11
-55.8323549122
 21
6.3046750601
  0
LINE
  5
2A1
100
AcDbEntity
  8
ASSI
100
AcDbLine
 62
250
  6
CONTINUOUS
 10
-69.5863278418
 20
6.2998559874
 11
-56.2381129477
 21
6.2998559874
  0
LINE
  5
2A2
100
AcDbEntity
  8
ASSI
100
AcDbLine
 62
250
  6
CONTINUOUS
 10
-69.9262101514
 20
6.3045400173
 11
-70.0246093255
 21
6.3046412311
  0
LINE
  5
2A3
100
AcDbEntity
  8
ASSI
100
AcDbLine
 62
250
  6
CONTINUOUS
 10
-55.8323549122
 20
6.3046750601
 11
-55.7357272528
 21
6.3043714184
  0
LINE
  5
2A4
100
AcDbEntity
  8
ASSI
100
AcDbLine
 62
250
  6
CONTINUOUS
 10
-69.8256705244
 20
6.3038325123
 11
-69.9262101514
 21
6.3045400173
  0
LINE
  5
2A5
100
AcDbEntity
  8
ASSI
100
AcDbLine
 62
250
  6
CONTINUOUS
 10
-55.7357272528
 20
6.3043714184
 11
-55.6730292911
 21
6.3038348505
  0
LINE
  5
2A6
100
AcDbEntity
  8
ASSI
100
AcDbLine
 62
250
  6
CONTINUOUS
 10
-55.6730292911
 20
6.3038348505
 11
-55.6119166752
 21
6.3030245037
  0
LINE
  5
2A7
100
AcDbEntity
  8
ASSI
100
AcDbLine
 62
250
  6
CONTINUOUS
 10
-69.7236236061
 20
6.3025231718
 11
-69.8256705244
 21
6.3038325123
  0
LINE
  5
2A8
100
AcDbEntity
  8
ASSI
100
AcDbLine
 62
250
  6
CONTINUOUS
 10
-55.6119166752
 20
6.3030245037
 11
-55.5525535676
 21
6.3019541735
  0
LWPOLYLINE
  5
2A9
100
AcDbEntity
  8
ASSI
100
AcDbPolyline
 62
250
  6
CONTINUOUS
 90
3
 70
0
 10
-69.5863279955
 20
6.2998559874
 10
-69.6207120504
 20
6.3006202414
 10
-69.7236236061
 20
6.3025231718
  0
LWPOLYLINE
  5
2AA
100
AcDbEntity
  8
ASSI
100
AcDbPolyline
 62
250
  6
CONTINUOUS
 90
3
 70
0
 10
-55.5525535676
 20
6.3019541735
 10
-55.4951153634
 20
6.3006094288
 10
-55.4671607813
 20
6.2998559874
  0
LINE
  5
2AB
100
AcDbEntity
  8
ASSI
100
AcDbLine
 62
7
  6
CONTINUOUS
 10
-64.4712053947
 20
14.08380025
 11
-65.2748593947
 21
16.88651525
  0
LINE
  5
2AC
100
AcDbEntity
  8
ASSI
100
AcDbLine
 62
7
  6
CONTINUOUS
 10
-64.0461943947
 20
15.56611525
 11
-64.8398713947
 21
18.33399125
  0
LINE
  5
2AD
100
AcDbEntity
  8
ASSI
100
AcDbLine
 62
7
  6
CONTINUOUS
 10
-59.3418103947
 20
-5.018496363
 11
-59.3418103947
 21
-4.2498845908
  0
LINE
  5
2AE
100
AcDbEntity
  8
ASSI
100
AcDbLine
 62
7
  6
CONTINUOUS
 10
-59.3418103947
 20
-0.7252811147
 11
-59.3418103947
 21
0.0433302114
  0
LINE
  5
2AF
100
AcDbEntity
  8
ASSI
100
AcDbLine
 62
7
  6
CONTINUOUS
 10
-57.6122203947
 20
37.20890625
 11
-57.6122203947
 21
36.6391790615
  0
LINE
  5
2B0
100
AcDbEntity
  8
ASSI
100
AcDbLine
 62
7
  6
CONTINUOUS
 10
-57.2548753947
 20
14.08381025
 11
-57.2548753947
 21
18.33400225
  0
LINE
  5
2B1
100
AcDbEntity
  8
ASSI
100
AcDbLine
 62
250
  6
CONTINUOUS
 10
-69.5862373296
 20
7.1886404968
 11
-56.238193609
 21
7.1886404968
  0
LINE
  5
2B2
100
AcDbEntity
  8
ASSI
100
AcDbLine
 62
250
  6
CONTINUOUS
 10
-55.8365874652
 20
-10.99109375
 11
-56.2381129477
 21
6.2998559874
  0
LINE
  5
2B3
100
AcDbEntity
  8
ASSI
100
AcDbLine
 62
250
  6
CONTINUOUS
 10
-55.068465439
 20
-10.99109375
 11
-55.4671629208
 21
6.299967956
  0
LINE
  5
2B4
100
AcDbEntity
  8
ASSI
100
AcDbLine
 62
7
  6
CONTINUOUS
 10
-56.8622203947
 20
35.7104702788
 11
-56.8622203947
 21
34.8843847815
  0
LINE
  5
2B5
100
AcDbEntity
  8
ASSI
100
AcDbLine
 62
7
  6
CONTINUOUS
 10
-56.4165523947
 20
16.51346125
 11
-56.4165623947
 21
17.54772025
  0
LINE
  5
2B6
100
AcDbEntity
  8
ASSI
100
AcDbLine
 62
250
  6
CONTINUOUS
 10
-56.238112794
 20
7.1886404968
 11
-56.238112794
 21
6.2998559874
  0
LINE
  5
2B7
100
AcDbEntity
  8
ASSI
100
AcDbLine
 62
250
  6
CONTINUOUS
 10
-55.9464932046
 20
-30.49109375
 11
-55.9464932046
 21
-29.9998199532
  0
LINE
  5
2B8
100
AcDbEntity
  8
0
100
AcDbLine
 62
7
  6
CONTINUOUS
 10
-55.9122203947
 20
-10.3893318505
 11
-55.9122203947
 21
-10.99109375
  0
LINE
  5
2B9
100
AcDbEntity
  8
0
100
AcDbLine
 62
7
  6
CONTINUOUS
 10
-55.8622203947
 20
-10.3785589245
 11
-55.8622203947
 21
-10.99109375
  0
LINE
  5
2BA
100
AcDbEntity
  8
0
100
AcDbLine
 62
7
  6
CONTINUOUS
 10
-55.7622203947
 20
-12.39109375
 11
-55.7622203947
 21
-10.99109375
  0
LINE
  5
2BB
100
AcDbEntity
  8
ASSI
100
AcDbLine
 62
7
  6
CONTINUOUS
 10
-56.4048323947
 20
14.08381025
 11
-56.4047373947
 21
15.72717925
  0
LINE
  5
2BC
100
AcDbEntity
  8
0
100
AcDbLine
 62
250
  6
CONTINUOUS
 10
-55.8455992134
 20
-12.3911404618
 11
-55.9464932046
 21
-29.9998199532
  0
LINE
  5
2BD
100
AcDbEntity
  8
ASSI
100
AcDbLine
 62
250
  6
CONTINUOUS
 10
-55.0676569801
 20
-10.99109375
 11
-55.1758003139
 21
-29.9998199532
  0
LWPOLYLINE
  5
2BE
100
AcDbEntity
  8
ASSI
100
AcDbPolyline
 62
250
  6
CONTINUOUS
 90
157
 70
0
 10
-51.0714300003
 20
12.786712407
 10
-51.0192696095
 20
12.9237829835
 10
-50.9694218521
 20
13.0620719099
 10
-50.9218867279
 20
13.2015761353
 10
-50.8766773263
 20
13.3422743547
 10
-50.833780558
 20
13.4841806581
 10
-50.7931571547
 20
13.6273452105
 10
-50.7547939878
 20
13.7717967672
 10
-50.7187041858
 20
13.9174988876
 10
-50.6848878667
 20
14.0644035469
 10
-50.6533428085
 20
14.2125182621
 10
-50.6240712333
 20
14.3618245515
 10
-50.5970799243
 20
14.5122335585
 10
-50.5723721288
 20
14.663716999
 10
-50.5499445997
 20
14.8162882031
 10
-50.5297943784
 20
14.9699192144
 10
-50.5119190419
 20
15.1246001962
 10
-50.4963210132
 20
15.2803237379
 10
-50.4830046028
 20
15.4370646886
 10
-50.4719671612
 20
15.5948345611
 10
-50.4632113379
 20
15.7536023742
 10
-50.4567493924
 20
15.9132779757
 10
-50.4525823006
 20
16.0738583697
 10
-50.4507090867
 20
16.2353238084
 10
-50.4511390832
 20
16.3975572201
 10
-50.4538738616
 20
16.5605455683
 10
-50.4589118503
 20
16.7242759479
 10
-50.466257667
 20
16.8886297535
 10
-50.4759123592
 20
17.0535915894
 10
-50.4878748795
 20
17.2191482553
 10
-50.5021467027
 20
17.3851829898
 10
-50.5187302335
 20
17.5516902759
 10
-50.5376230674
 20
17.7186449807
 10
-50.5588194651
 20
17.885899631
 10
-50.5823276186
 20
18.0534665774
 10
-50.608139336
 20
18.2213011149
 10
-50.6362243032
 20
18.3891688186
 10
-50.6665903755
 20
18.557057661
 10
-50.6992296976
 20
18.7249458195
 10
-50.7340883897
 20
18.8925830023
 10
-50.7711643207
 20
19.0599198906
 10
-50.8104596217
 20
19.2269716349
 10
-50.8519268056
 20
19.3935841997
 10
-50.8955610231
 20
19.559720126
 10
-50.9413671236
 20
19.7253838478
 10
-50.9893121678
 20
19.8904843534
 10
-51.0393951169
 20
20.055006286
 10
-51.0916170097
 20
20.2189337788
 10
-51.1459480236
 20
20.382175522
 10
-51.2023879066
 20
20.5447187099
 10
-51.2609369108
 20
20.7065470606
 10
-51.3215659691
 20
20.8675647038
 10
-51.3842731394
 20
21.0277554365
 10
-51.449060364
 20
21.187108865
 10
-51.5159044024
 20
21.3455386568
 10
-51.5848011919
 20
21.5030269996
 10
-51.6557547952
 20
21.6595678812
 10
-51.7287541604
 20
21.8150935914
 10
-51.8037976638
 20
21.96959441
 10
-51.8808869289
 20
22.1230591181
 10
-51.9600157744
 20
22.2754187577
 10
-52.0411859974
 20
22.4266702918
 10
-52.1243958006
 20
22.5767988557
 10
-52.209633611
 20
22.7257189221
 10
-52.2968966248
 20
22.8734201556
 10
-52.3861876458
 20
23.0198983448
 10
-52.4775035116
 20
23.1650784575
 10
-52.5708382323
 20
23.3089488338
 10
-52.6661977978
 20
23.4515099827
 10
-52.7635970151
 20
23.5927063919
 10
-52.8630333836
 20
23.7325348313
 10
-52.9645094038
 20
23.8709906048
 10
-53.0680473839
 20
24.0080172417
 10
-53.1736431715
 20
24.1436116291
 10
-53.2813009189
 20
24.2777722139
 10
-53.3910553923
 20
24.4104461401
 10
-53.502905652
 20
24.5416362017
 10
-53.6168526375
 20
24.6713381008
 10
-53.7329339338
 20
24.7994896979
 10
-53.8511552192
 20
24.9261011038
 10
-53.9715108153
 20
25.0511639263
 10
-54.0940212722
 20
25.1745899126
 10
-54.2186812691
 20
25.2963790776
 10
-54.3454961267
 20
25.4165367473
 10
-54.4745023567
 20
25.5349844359
 10
-54.6056945902
 20
25.6517256903
 10
-54.739078196
 20
25.7667656494
 10
-54.8747057919
 20
25.880029944
 10
-55.0125851695
 20
25.9915343624
 10
-55.1527085371
 20
26.1012749012
 10
-55.2951051372
 20
26.2091494262
 10
-55.4397733654
 20
26.3151669854
 10
-55.5867148261
 20
26.4193337674
 10
-55.7359635748
 20
26.5215454975
 10
-55.8875326158
 20
26.6218215665
 10
-56.0414089447
 20
26.7201609794
 10
-56.1975876035
 20
26.8164312389
 10
-56.3561422469
 20
26.9106794744
 10
-56.5169992201
 20
27.0028801513
 10
-56.6799326007
 20
27.0927951283
 10
-56.8449945776
 20
27.1804449594
 10
-57.0121329619
 20
27.2658353928
 10
-57.1809652647
 20
27.348710245
 10
-57.35147835
 20
27.4290562361
 10
-57.5236853539
 20
27.5069171927
 10
-57.6972431958
 20
27.5821259193
 10
-57.8720914457
 20
27.654660945
 10
-58.0482905337
 20
27.7245760373
 10
-58.2256786695
 20
27.7918183442
 10
-58.4042457823
 20
27.8563962092
 10
-58.584001943
 20
27.9183326056
 10
-58.764815574
 20
27.9775968726
 10
-58.9466907901
 20
28.034202618
 10
-59.1296234766
 20
28.0881656839
 10
-59.3134697122
 20
28.1394586173
 10
-59.4982304109
 20
28.1880926789
 10
-59.6839046587
 20
28.2340835376
 10
-59.870345793
 20
28.2774099494
 10
-60.0575535586
 20
28.3180816017
 10
-60.2455282106
 20
28.3561125554
 10
-60.4341238513
 20
28.3914874753
 10
-60.623339771
 20
28.4242144875
 10
-60.8131766794
 20
28.4543054684
 10
-61.0034908075
 20
28.4817498484
 10
-61.1942826211
 20
28.5065540889
 10
-61.3855516544
 20
28.5287275294
 10
-61.5771527411
 20
28.5482629011
 10
-61.7690853643
 20
28.5651644415
 10
-61.9613500409
 20
28.579439168
 10
-62.1538031554
 20
28.5910828519
 10
-62.3464447603
 20
28.6000975255
 10
-62.5392748031
 20
28.6064876234
 10
-62.7321495109
 20
28.6102513174
 10
-62.9250688093
 20
28.6113882192
 10
-63.1180327727
 20
28.6099002602
 10
-63.3108978515
 20
28.6057878566
 10
-63.5036640883
 20
28.5990481344
 10
-63.6963314404
 20
28.5896805548
 10
-63.8887562295
 20
28.5776878093
 10
-64.0809386996
 20
28.5630644787
 10
-64.2728786067
 20
28.5458076847
 10
-64.46443154
 20
28.5259227495
 10
-64.6555972313
 20
28.5034018271
 10
-64.8463759487
 20
28.4782397571
 10
-65.036624086
 20
28.4504447967
 10
-65.2263430029
 20
28.4200063743
 10
-65.4155313396
 20
28.386917625
 10
-65.6040414112
 20
28.3511914053
 10
-65.7918708743
 20
28.3128156275
 10
-65.9790220723
 20
28.2717809082
 10
-66.1653543503
 20
28.2281033714
 10
-66.3508695572
 20
28.1817679699
 10
-66.5355658441
 20
28.1327647192
 10
-66.7192970089
 20
28.0811167648
 10
-66.9020143176
 20
28.0268225795
 10
-67.0837665042
 20
27.9698557685
 10
-67.2645535687
 20
27.910201603
  0
LWPOLYLINE
  5
2BF
100
AcDbEntity
  8
ASSI
100
AcDbPolyline
 62
250
  6
CONTINUOUS
 90
37
 70
0
 10
-50.2281279997
 20
12.3786586082
 10
-50.3109347531
 20
12.2031962972
 10
-50.3967531376
 20
12.0278887037
 10
-50.4855896284
 20
11.8527358275
 10
-50.5774068144
 20
11.6777247871
 10
-50.6722554983
 20
11.5028684641
 10
-50.770275038
 20
11.3282055036
 10
-50.8714758851
 20
11.1537221461
 10
-50.9758627219
 20
10.9794321512
 10
-51.0835671311
 20
10.805415442
 10
-51.1945915599
 20
10.6316748206
 10
-51.308950396
 20
10.458207485
 10
-51.4267940901
 20
10.2850849519
 10
-51.548123478
 20
10.1123107497
 10
-51.6729564882
 20
9.9398813501
 10
-51.801470365
 20
9.7678576853
 10
-51.9336772968
 20
9.5962289039
 10
-52.0695861138
 20
9.4250058574
 10
-52.2093703097
 20
9.2542820319
 10
-52.3530463239
 20
9.0840458969
 10
-52.5006210759
 20
8.914308983
 10
-52.6522550616
 20
8.7451993682
 10
-52.8079477227
 20
8.5767253816
 10
-52.9677252793
 20
8.4088786942
 10
-53.1317898427
 20
8.2417623966
 10
-53.3001258827
 20
8.0753938385
 10
-53.4727773351
 20
7.9097556702
 10
-53.6500375556
 20
7.744898934
 10
-53.8319154845
 20
7.5808140011
 10
-54.0184343639
 20
7.4175105002
 10
-54.2099116193
 20
7.2550683603
 10
-54.4063692008
 20
7.0934659285
 10
-54.607821544
 20
6.9327248577
 10
-54.8145775898
 20
6.7729900362
 10
-55.0267544004
 20
6.6143097601
 10
-55.2442758828
 20
6.4566357334
 10
-55.4671629208
 20
6.299967956
  0
LWPOLYLINE
  5
2C0
100
AcDbEntity
  8
ASSI
100
AcDbPolyline
 62
250
  6
CONTINUOUS
 90
37
 70
0
 10
-51.0714300003
 20
12.786712407
 10
-51.1536062986
 20
12.6251413085
 10
-51.2387426514
 20
12.4636590802
 10
-51.3268390586
 20
12.3022951037
 10
-51.4178452871
 20
12.1410994342
 10
-51.51181157
 20
11.980081894
 10
-51.6088886068
 20
11.8192132142
 10
-51.7090788488
 20
11.6585149097
 10
-51.8123798446
 20
11.4980305712
 10
-51.9189349392
 20
11.3377663245
 10
-52.0287370573
 20
11.1777619365
 10
-52.1417932741
 20
11.0180466009
 10
-52.2582681605
 20
10.8586127497
 10
-52.3781527755
 20
10.6995028401
 10
-52.5014560601
 20
10.5407483258
 10
-52.6283694076
 20
10.3823281674
 10
-52.7588936986
 20
10.2242753128
 10
-52.8930280525
 20
10.0666370305
 10
-53.030961221
 20
9.9094169134
 10
-53.1726962872
 20
9.7526504177
 10
-53.318230168
 20
9.5963878863
 10
-53.4677423664
 20
9.4406575354
 10
-53.6212180304
 20
9.2855153502
 10
-53.778672012
 20
9.1309954897
 10
-53.9403283699
 20
8.9770962266
 10
-54.1061568217
 20
8.8238863402
 10
-54.2761876499
 20
8.6713937737
 10
-54.450735761
 20
8.5195614303
 10
-54.6297926372
 20
8.3684410856
 10
-54.8133667963
 20
8.2180895058
 10
-55.0017986991
 20
8.0684651719
 10
-55.1950866493
 20
7.9196192011
 10
-55.3932323431
 20
7.7716212533
 10
-55.596581331
 20
7.6244650947
 10
-55.8052487963
 20
7.4781937224
 10
-56.0191195557
 20
7.3328964108
 10
-56.238193609
 20
7.1886404968
  0
LWPOLYLINE
  5
2C1
100
AcDbEntity
  8
ASSI
100
AcDbPolyline
 62
7
  6
CONTINUOUS
 90
135
 70
0
 10
-50.2281279997
 20
12.3786586082
 10
-50.1851132246
 20
12.3860556672
 10
-50.1420977263
 20
12.3916032656
 10
-50.0990813332
 20
12.3953014035
 10
-50.056108803
 20
12.3971500127
 10
-50.0131350087
 20
12.3971491614
 10
-49.9700250755
 20
12.3952990538
 10
-49.9267798613
 20
12.3916252062
 10
-49.8833984161
 20
12.3861021022
 10
-49.8397433948
 20
12.3786533967
 10
-49.7958161884
 20
12.3693057021
 10
-49.7516155492
 20
12.3580324059
 10
-49.7070004058
 20
12.3446773256
 10
-49.6619738294
 20
12.3292702204
 10
-49.6165331221
 20
12.3117813311
 10
-49.5705287884
 20
12.2919651973
 10
-49.5239533466
 20
12.2698483569
 10
-49.4768148963
 20
12.245404272
 10
-49.4289875178
 20
12.2183078686
 10
-49.3804623365
 20
12.1885826153
 10
-49.3312490357
 20
12.1562050435
 10
-49.2812496774
 20
12.1207796739
 10
-49.2304706731
 20
12.0823435229
 10
-49.178906542
 20
12.040859574
 10
-49.1264416279
 20
11.995821299
 10
-49.073079862
 20
11.9472737646
 10
-49.0188183975
 20
11.8951719041
 10
-48.9635315352
 20
11.8388739892
 10
-48.9072177381
 20
11.7784298183
 10
-48.849879783
 20
11.7137895931
 10
-48.7913985387
 20
11.6441621896
 10
-48.7317491364
 20
11.5695714346
 10
-48.6709578077
 20
11.4899935013
 10
-48.6089820499
 20
11.4045657861
 10
-48.5457843232
 20
11.3132793228
 10
-48.481403448
 20
11.2161430776
 10
-48.4159112041
 20
11.1123213452
 10
-48.3492938055
 20
11.0018290074
 10
-48.2815659234
 20
10.8846511824
 10
-48.2128415578
 20
10.7599075203
 10
-48.1431133643
 20
10.6276302542
 10
-48.0723890352
 20
10.4877871508
 10
-48.0008045444
 20
10.3394011613
 10
-47.9283492397
 20
10.1825134706
 10
-47.8550334775
 20
10.0170828937
 10
-47.7810240521
 20
9.8420088266
 10
-47.706305732
 20
9.6573451383
 10
-47.6308926852
 20
9.4630379599
 10
-47.5549949792
 20
9.2578250805
 10
-47.4785895071
 20
9.0417742383
 10
-47.401697412
 20
8.8148176952
 10
-47.3245941445
 20
8.5754900256
 10
-47.2472457098
 20
8.3238791737
 10
-47.169683102
 20
8.0598971953
 10
-47.0922780663
 20
7.7818148319
 10
-47.0149817554
 20
7.4897584148
 10
-46.9378388724
 20
7.1836016127
 10
-46.8613600901
 20
6.8612361729
 10
-46.7853630589
 20
6.5221478603
 10
-46.7100248471
 20
6.16685091
 10
-46.6363936579
 20
5.7947797746
 10
-46.5642711287
 20
5.4046080447
 10
-46.4938494186
 20
4.9976621298
 10
-46.4267612933
 20
4.5773557109
 10
-46.363080015
 20
4.1430174074
 10
-46.3027270415
 20
3.6953185998
 10
-46.2471075274
 20
3.2396871115
 10
-46.1964253168
 20
2.7762629418
 10
-46.1504749951
 20
2.3049060913
 10
-46.1100491169
 20
1.8306243849
 10
-46.0753113051
 20
1.3534839053
 10
-46.0461014263
 20
0.8734185698
 10
-46.0227279084
 20
0.3952379553
 10
-46.0053423523
 20
-0.0809386213
 10
-45.993801474
 20
-0.5552304769
 10
-45.987972189
 20
-1.0231859856
 10
-45.9879875961
 20
-1.4845253261
 10
-45.9937261439
 20
-1.9395283195
 10
-46.0046722582
 20
-2.3845828034
 10
-46.0209379709
 20
-2.8194831492
 10
-46.0424236986
 20
-3.2444349855
 10
-46.0682943244
 20
-3.6564430352
 10
-46.0986470659
 20
-4.0552713302
 10
-46.1333954788
 20
-4.4411558387
 10
-46.1714252341
 20
-4.8118091875
 10
-46.2127300968
 20
-5.1665448561
 10
-46.2573229382
 20
-5.506049365
 10
-46.3041137709
 20
-5.8300949026
 10
-46.352984204
 20
-6.1380380131
 10
-46.4040550367
 20
-6.4305221521
 10
-46.4565918996
 20
-6.7092498752
 10
-46.5105223846
 20
-6.9742057188
 10
-46.5659191665
 20
-7.2254051464
 10
-46.6222637417
 20
-7.4645971039
 10
-46.679525273
 20
-7.6919004962
 10
-46.7377335409
 20
-7.9071964184
 10
-46.7964597667
 20
-8.1118771025
 10
-46.8556752865
 20
-8.3059985516
 10
-46.9154066033
 20
-8.4895047625
 10
-46.9753067562
 20
-8.6636199573
 10
-47.0353557547
 20
-8.8283932665
 10
-47.0955706714
 20
-8.9837755595
 10
-47.1556594453
 20
-9.1308436668
 10
-47.2156053827
 20
-9.2696327884
 10
-47.2754217287
 20
-9.4001077242
 10
-47.3348608096
 20
-9.5232397042
 10
-47.3939057646
 20
-9.6390523455
 10
-47.4525696707
 20
-9.7475220309
 10
-47.5106493965
 20
-9.8495491391
 10
-47.5681084145
 20
-9.9451292933
 10
-47.6249793054
 20
-10.0342668701
 10
-47.6811624833
 20
-10.1178753788
 10
-47.7366188025
 20
-10.1959665961
 10
-47.7913836757
 20
-10.2685287452
 10
-47.8454695509
 20
-10.3364400047
 10
-47.8988654117
 20
-10.3997523251
 10
-47.9515790687
 20
-10.4584137559
 10
-48.0036515566
 20
-10.513146624
 10
-48.055080288
 20
-10.5639993083
 10
-48.1058651278
 20
-10.61092343
 10
-48.1560511116
 20
-10.6544961791
 10
-48.2056241041
 20
-10.6947483804
 10
-48.254595908
 20
-10.7316492091
 10
-48.3030507854
 20
-10.7656833801
 10
-48.3509778462
 20
-10.796883452
 10
-48.3983860741
 20
-10.8252168663
 10
-48.4453898928
 20
-10.8510706619
 10
-48.4919865226
 20
-10.8744789674
 10
-48.5381772609
 20
-10.8954076542
 10
-48.584082991
 20
-10.9141413761
 10
-48.6297019992
 20
-10.9307102131
 10
-48.6750348829
 20
-10.9450840851
 10
-48.7202063056
 20
-10.9574574061
 10
-48.7652148686
 20
-10.9678572343
 10
-48.8100611748
 20
-10.9762565115
  0
LWPOLYLINE
  5
2C2
100
AcDbEntity
  8
ASSI
100
AcDbPolyline
 62
7
  6
CONTINUOUS
 90
4
 70
0
 10
-75.7682999401
 20
12.3971493684
 10
-75.7253354315
 20
12.3952998625
 10
-75.6823264367
 20
12.3916014596
 10
-75.6393178973
 20
12.3860542403
  0
LWPOLYLINE
  5
2C3
100
AcDbEntity
  8
ASSI
100
AcDbPolyline
 62
250
  6
CONTINUOUS
 90
34
 70
0
 10
-55.4671607813
 20
6.2998559874
 10
-55.4832756148
 20
6.3326647367
 10
-55.5000633209
 20
6.3653588292
 10
-55.5174880491
 20
6.3979163479
 10
-55.5354909717
 20
6.4303212639
 10
-55.5540561129
 20
6.4625472128
 10
-55.5732122989
 20
6.4945562332
 10
-55.5929230322
 20
6.5263263658
 10
-55.6131489088
 20
6.5578372726
 10
-55.6339162697
 20
6.5890519937
 10
-55.6551873216
 20
6.6199493147
 10
-55.6769221587
 20
6.650509312
 10
-55.699145314
 20
6.6806958832
 10
-55.7218175295
 20
6.7104889251
 10
-55.7448982545
 20
6.7398693015
 10
-55.7684109426
 20
6.7688015953
 10
-55.7923146866
 20
6.7972671683
 10
-55.8165681307
 20
6.8252480418
 10
-55.841194429
 20
6.8527093103
 10
-55.8661508504
 20
6.879634167
 10
-55.8913950592
 20
6.906006145
 10
-55.9169507023
 20
6.931790649
 10
-55.9427730744
 20
6.9569730812
 10
-55.9688186829
 20
6.9815388349
 10
-55.9951124334
 20
7.0054533824
 10
-56.0216075399
 20
7.0287047186
 10
-56.048259191
 20
7.0512804501
 10
-56.0750942561
 20
7.0731458416
 10
-56.1020638748
 20
7.0942918896
 10
-56.1291217528
 20
7.1147087465
 10
-56.1562972227
 20
7.1343611112
 10
-56.183566925
 20
7.153232825
 10
-56.2108553968
 20
7.1713274125
 10
-56.238112794
 20
7.1886404968
  0
LINE
  5
2C4
100
AcDbEntity
  8
ASSI
100
AcDbLine
 62
7
  6
CONTINUOUS
 10
-58.6716023947
 20
14.08381025
 11
-58.9399473947
 21
14.91963725
  0
LINE
  5
2C5
100
AcDbEntity
  8
ASSI
100
AcDbLine
 62
7
  6
CONTINUOUS
 10
-59.1992393947
 20
15.72716825
 11
-59.6112023947
 21
17.01028625
  0
LINE
  5
2C6
100
AcDbEntity
  8
ASSI
100
AcDbLine
 62
7
  6
CONTINUOUS
 10
-57.8215593947
 20
14.08380025
 11
-59.1861603947
 21
18.33400225
  0
LWPOLYLINE
  5
2C7
100
AcDbEntity
  8
ASSI
100
AcDbPolyline
 62
250
  6
CONTINUOUS
 90
157
 70
0
 10
-50.2830902984
 20
12.3884200034
 10
-50.2260233626
 20
12.5371152844
 10
-50.1714567801
 20
12.6871162204
 10
-50.1193708306
 20
12.8384221681
 10
-50.0697432592
 20
12.9910118295
 10
-50.022557709
 20
13.1449051884
 10
-49.9778039077
 20
13.3001634819
 10
-49.9354485938
 20
13.456824385
 10
-49.8954888869
 20
13.6148487693
 10
-49.8579598473
 20
13.7741826456
 10
-49.8228397591
 20
13.9348438594
 10
-49.7901144133
 20
14.0968130874
 10
-49.7598286142
 20
14.2599806404
 10
-49.7319676971
 20
14.4243269267
 10
-49.7065103727
 20
14.5898700976
 10
-49.683490198
 20
14.7565571344
 10
-49.6628880989
 20
14.9243832739
 10
-49.6446886107
 20
15.0933518157
 10
-49.6289299466
 20
15.2634218632
 10
-49.6155925929
 20
15.4346177149
 10
-49.6046633654
 20
15.6069135719
 10
-49.5961890322
 20
15.7801934522
 10
-49.5901548582
 20
15.9544688208
 10
-49.5865442922
 20
16.1297267708
 10
-49.5854002051
 20
16.3058148868
 10
-49.5867098515
 20
16.4827341713
 10
-49.5904564776
 20
16.6604822892
 10
-49.5966759795
 20
16.838901972
 10
-49.6053566089
 20
17.0179930945
 10
-49.6164830541
 20
17.1977545765
 10
-49.6300852542
 20
17.3780278817
 10
-49.6461543452
 20
17.558823084
 10
-49.6646751574
 20
17.7401290439
 10
-49.6856678215
 20
17.9217555977
 10
-49.7091311329
 20
18.1037337851
 10
-49.7350456604
 20
18.2860316885
 10
-49.7634039294
 20
18.4683649828
 10
-49.7942073796
 20
18.6507432208
 10
-49.8274374214
 20
18.8331563074
 10
-49.8630564127
 20
19.0152908039
 10
-49.9010575758
 20
19.1971123421
 10
-49.9414344103
 20
19.3786551498
 10
-49.9841499971
 20
19.5597090044
 10
-50.0291963926
 20
19.7402489228
 10
-50.0765727519
 20
19.9203000161
 10
-50.1262535283
 20
20.0997274198
 10
-50.1782372187
 20
20.2785305022
 10
-50.2325211969
 20
20.4567101983
 10
-50.2890790961
 20
20.634134166
 10
-50.3479125406
 20
20.810803726
 10
-50.4090202574
 20
20.9867180455
 10
-50.4723723857
 20
21.1617417251
 10
-50.5379709494
 20
21.3358711371
 10
-50.6058185283
 20
21.5091105902
 10
-50.6758869217
 20
21.6813367586
 10
-50.7481777216
 20
21.8525423186
 10
-50.8226979579
 20
22.0227354516
 10
-50.8994284135
 20
22.1918162353
 10
-50.9783747355
 20
22.3597840277
 10
-51.0595436991
 20
22.5266404696
 10
-51.1429185927
 20
22.6922891914
 10
-51.2285106964
 20
22.856735984
 10
-51.3163246618
 20
23.0199761886
 10
-51.4063345634
 20
23.1818978949
 10
-51.4985484559
 20
23.3424973133
 10
-51.5929773006
 20
23.5017795201
 10
-51.6896001739
 20
23.659646038
 10
-51.7884224884
 20
23.8160889267
 10
-51.889460602
 20
23.9711175423
 10
-51.9927106665
 20
24.1246594594
 10
-52.0981832281
 20
24.2767146842
 10
-52.2058920561
 20
24.4272847115
 10
-52.3158388313
 20
24.5762994341
 10
-52.4280334158
 20
24.7237572745
 10
-52.5424924832
 20
24.8696613902
 10
-52.6592286625
 20
25.0139488545
 10
-52.7782555834
 20
25.1566221914
 10
-52.8995881292
 20
25.297680517
 10
-53.0232415816
 20
25.4370558661
 10
-53.1492381262
 20
25.5747578166
 10
-53.2775857564
 20
25.710778487
 10
-53.408279125
 20
25.845023811
 10
-53.5413290076
 20
25.9774901748
 10
-53.6767558104
 20
26.1081829719
 10
-53.8145692305
 20
26.2370217366
 10
-53.9547794243
 20
26.3640041884
 10
-54.0974081788
 20
26.4891344375
 10
-54.242483383
 20
26.6123416765
 10
-54.3900302408
 20
26.7336359836
 10
-54.5400560871
 20
26.8530091335
 10
-54.6925627012
 20
26.9703629391
 10
-54.8475650032
 20
27.085698159
 10
-55.0050803933
 20
27.1990159327
 10
-55.1651149359
 20
27.3102187269
 10
-55.3276965474
 20
27.4193155082
 10
-55.4928290567
 20
27.526299229
 10
-55.6604827545
 20
27.6310484222
 10
-55.8307509579
 20
27.7336014332
 10
-56.003570837
 20
27.8339218532
 10
-56.1786771923
 20
27.9317762207
 10
-56.3561379998
 20
28.0271716074
 10
-56.5359111328
 20
28.1201029839
 10
-56.7175624484
 20
28.2103189145
 10
-56.901085786
 20
28.2977877807
 10
-57.086506172
 20
28.3825433152
 10
-57.2734313698
 20
28.4644322312
 10
-57.4617989199
 20
28.5434131971
 10
-57.651683614
 20
28.6195295956
 10
-57.842895187
 20
28.6927552302
 10
-58.0354242572
 20
28.7630830419
 10
-58.2292884527
 20
28.830521949
 10
-58.424335251
 20
28.895069679
 10
-58.6205695012
 20
28.9567265606
 10
-58.8179909395
 20
29.0154939147
 10
-59.0164368976
 20
29.0713709052
 10
-59.2159072336
 20
29.1243569357
 10
-59.4164031604
 20
29.1744540375
 10
-59.6177617639
 20
29.2216652618
 10
-59.8199802627
 20
29.2659902239
 10
-60.0230593706
 20
29.3074305219
 10
-60.2268394274
 20
29.3459921245
 10
-60.4313160359
 20
29.381675129
 10
-60.6364888503
 20
29.4144804257
 10
-60.842202638
 20
29.4444151147
 10
-61.048453483
 20
29.4714798642
 10
-61.2552383998
 20
29.4956747655
 10
-61.4624022623
 20
29.5170059958
 10
-61.66993955
 20
29.5354743106
 10
-61.8778472524
 20
29.5510794853
 10
-62.0859730947
 20
29.563826169
 10
-62.2943119393
 20
29.5737153062
 10
-62.5028593341
 20
29.5807462545
 10
-62.7114635087
 20
29.5849212251
 10
-62.9201192497
 20
29.5862411372
 10
-63.1288216999
 20
29.5847051449
 10
-63.3374194962
 20
29.5803127555
 10
-63.5459079056
 20
29.5730647565
 10
-63.7542816956
 20
29.5629602049
 10
-63.9623890245
 20
29.5499959545
 10
-64.1702260253
 20
29.5341725049
 10
-64.3777872887
 20
29.5154889723
 10
-64.5849193233
 20
29.4939400778
 10
-64.7916186243
 20
29.4695260144
 10
-64.9978806866
 20
29.442245976
 10
-65.203551568
 20
29.4120931272
 10
-65.4086307257
 20
29.3790668187
 10
-65.6131125083
 20
29.3431668583
 10
-65.8168367372
 20
29.304387037
 10
-66.0198002943
 20
29.2627269188
 10
-66.2220024766
 20
29.2181858711
 10
-66.4232884948
 20
29.1707573321
 10
-66.623661395
 20
29.1204391912
 10
-66.8231171108
 20
29.067232265
 10
-67.0214922687
 20
29.0111343252
 10
-67.2187336058
 20
28.9521441243
 10
-67.4148968854
 20
28.8902613963
 10
-67.6099835903
 20
28.8254853305
  0
LINE
  5
2C8
100
AcDbEntity
  8
ASSI
100
AcDbLine
 62
7
  6
CONTINUOUS
 10
-54.8110083947
 20
14.08381025
 11
-53.8535793947
 21
14.08382125
  0
LINE
  5
2C9
100
AcDbEntity
  8
ASSI
100
AcDbLine
 62
7
  6
CONTINUOUS
 10
-61.4008143947
 20
14.08380025
 11
-60.5507823947
 21
14.08381025
  0
LINE
  5
2CA
100
AcDbEntity
  8
ASSI
100
AcDbLine
 62
7
  6
CONTINUOUS
 10
-66.1248913947
 20
14.08380025
 11
-65.2748593947
 21
14.08380025
  0
LINE
  5
2CB
100
AcDbEntity
  8
ASSI
100
AcDbLine
 62
7
  6
CONTINUOUS
 10
-62.8175303947
 20
14.08380025
 11
-61.9674983947
 21
14.08380025
  0
LINE
  5
2CC
100
AcDbEntity
  8
ASSI
100
AcDbLine
 62
7
  6
CONTINUOUS
 10
-57.2548753947
 20
14.08381025
 11
-56.4048323947
 21
14.08381025
  0
LINE
  5
2CD
100
AcDbEntity
  8
ASSI
100
AcDbLine
 62
7
  6
CONTINUOUS
 10
-64.4712053947
 20
14.08380025
 11
-63.6211943947
 21
14.08381025
  0
LINE
  5
2CE
100
AcDbEntity
  8
ASSI
100
AcDbLine
 62
7
  6
CONTINUOUS
 10
-67.8249333947
 20
14.08378925
 11
-66.9749013947
 21
14.08380025
  0
LINE
  5
2CF
100
AcDbEntity
  8
ASSI
100
AcDbLine
 62
7
  6
CONTINUOUS
 10
-58.6716023947
 20
14.08381025
 11
-57.8215593947
 21
14.08380025
  0
LINE
  5
2D0
100
AcDbEntity
  8
ASSI
100
AcDbLine
 62
7
  6
CONTINUOUS
 10
-70.6062713947
 20
14.08378925
 11
-69.7562083947
 21
14.08380025
  0
LINE
  5
2D1
100
AcDbEntity
  8
ASSI
100
AcDbLine
 62
7
  6
CONTINUOUS
 10
-60.2824263947
 20
14.91963725
 11
-58.9399473947
 21
14.91963725
  0
LINE
  5
2D2
100
AcDbEntity
  8
ASSI
100
AcDbLine
 62
7
  6
CONTINUOUS
 10
-60.0231443947
 20
15.72716825
 11
-59.1992393947
 21
15.72716825
  0
LINE
  5
2D3
100
AcDbEntity
  8
ASSI
100
AcDbLine
 62
7
  6
CONTINUOUS
 10
-56.4047373947
 20
15.72717925
 11
-55.6628463947
 21
15.72716825
  0
LINE
  5
2D4
100
AcDbEntity
  8
ASSI
100
AcDbLine
 62
7
  6
CONTINUOUS
 10
-56.4165523947
 20
16.51346125
 11
-55.3823713947
 21
16.51346125
  0
LINE
  5
2D5
100
AcDbEntity
  8
ASSI
100
AcDbLine
 62
7
  6
CONTINUOUS
 10
-56.4165623947
 20
17.54772025
 11
-55.3823713947
 21
17.54772025
  0
LINE
  5
2D6
100
AcDbEntity
  8
ASSI
100
AcDbLine
 62
7
  6
CONTINUOUS
 10
-54.8110083947
 20
14.08381025
 11
-55.6628463947
 21
15.72716825
  0
LINE
  5
2D7
100
AcDbEntity
  8
ASSI
100
AcDbLine
 62
7
  6
CONTINUOUS
 10
-53.8535793947
 20
14.08382125
 11
-54.7583947833
 21
15.8293949288
  0
LINE
  5
2D8
100
AcDbEntity
  8
ASSI
100
AcDbLine
 62
250
  6
CONTINUOUS
 10
-48.9892290679
 20
-10.99109375
 11
-49.199212174
 21
-29.9998199532
  0
LINE
  5
2D9
100
AcDbEntity
  8
ASSI
100
AcDbLine
 62
7
  6
CONTINUOUS
 10
-71.9708613947
 20
18.33399125
 11
-71.1208193947
 21
18.33399125
  0
LINE
  5
2DA
100
AcDbEntity
  8
ASSI
100
AcDbLine
 62
7
  6
CONTINUOUS
 10
-69.2416493947
 20
18.33399125
 11
-68.3916073947
 21
18.33399125
  0
LINE
  5
2DB
100
AcDbEntity
  8
ASSI
100
AcDbLine
 62
7
  6
CONTINUOUS
 10
-67.8249233947
 20
18.33399125
 11
-66.9748913947
 21
18.33399125
  0
LINE
  5
2DC
100
AcDbEntity
  8
ASSI
100
AcDbLine
 62
7
  6
CONTINUOUS
 10
-66.1248913947
 20
18.33399125
 11
-64.8398713947
 21
18.33399125
  0
LINE
  5
2DD
100
AcDbEntity
  8
ASSI
100
AcDbLine
 62
7
  6
CONTINUOUS
 10
-63.2525183947
 20
18.33399125
 11
-61.9674983947
 21
18.33399125
  0
LINE
  5
2DE
100
AcDbEntity
  8
ASSI
100
AcDbLine
 62
7
  6
CONTINUOUS
 10
-60.0362343947
 20
18.33400225
 11
-59.1861603947
 21
18.33400225
  0
LINE
  5
2DF
100
AcDbEntity
  8
ASSI
100
AcDbLine
 62
7
  6
CONTINUOUS
 10
-57.2548753947
 20
18.33400225
 11
-55.2643883947
 21
18.33400225
  0
LWPOLYLINE
  5
2E0
100
AcDbEntity
  8
ASSI
100
AcDbPolyline
 62
7
  6
CONTINUOUS
 90
16
 70
0
 10
-50.2830902984
 20
12.3884200034
 10
-50.2804968949
 20
12.3866060476
 10
-50.2777253401
 20
12.3849212462
 10
-50.2747757062
 20
12.3833655996
 10
-50.2716369878
 20
12.381919506
 10
-50.2683203566
 20
12.3806025682
 10
-50.2648591504
 20
12.3794735938
 10
-50.2612565939
 20
12.3785440216
 10
-50.2575096442
 20
12.377802414
 10
-50.253642227
 20
12.3772732642
 10
-50.2496570926
 20
12.3769627827
 10
-50.2455516834
 20
12.3768647595
 10
-50.2413419513
 20
12.3769850577
 10
-50.2370332768
 20
12.3773256312
 10
-50.2326204788
 20
12.3778845258
 10
-50.2281036643
 20
12.3786617411
  0
LWPOLYLINE
  5
2E1
100
AcDbEntity
  8
ASSI
100
AcDbPolyline
 62
7
  6
CONTINUOUS
 90
25
 70
0
 10
-50.2830888741
 20
12.3884191381
 10
-50.3106673146
 20
12.4080651034
 10
-50.3388988365
 20
12.4275620473
 10
-50.367759385
 20
12.4468926262
 10
-50.3972246698
 20
12.4660389412
 10
-50.4272693197
 20
12.4849845724
 10
-50.4578669148
 20
12.5037145741
 10
-50.4889914952
 20
12.5222120231
 10
-50.520616564
 20
12.5404604004
 10
-50.552714263
 20
12.5584455888
 10
-50.5852574055
 20
12.5761511997
 10
-50.6182183342
 20
12.5935613048
 10
-50.6515679579
 20
12.6106627561
 10
-50.6852780821
 20
12.6274398029
 10
-50.7193200964
 20
12.6438772429
 10
-50.7536638682
 20
12.6599630825
 10
-50.7882804755
 20
12.6756821765
 10
-50.8231405139
 20
12.6910203105
 10
-50.8582128245
 20
12.7059672669
 10
-50.8934669354
 20
12.7205111541
 10
-50.9288739287
 20
12.7346362932
 10
-50.9644047659
 20
12.7483272655
 10
-51.0000297389
 20
12.7615704577
 10
-51.0357185044
 20
12.7743540514
 10
-51.0714409625
 20
12.7866658846
  0
LINE
  5
2E2
100
AcDbEntity
  8
ASSI
100
AcDbLine
 62
7
  6
CONTINUOUS
 10
-41.2440189448
 20
-29.9998199532
 11
-40.9122203947
 21
-10.99109375
  0
LINE
  5
2E3
100
AcDbEntity
  8
ASSI
100
AcDbLine
 62
250
  6
CONTINUOUS
 10
-79.4286505937
 20
31.3747237449
 11
-46.3957901957
 21
31.3747237449
  0
LINE
  5
2E4
100
AcDbEntity
  8
ASSI
100
AcDbLine
 62
250
  6
CONTINUOUS
 10
-77.1371529988
 20
33.5483204028
 11
-48.6872877907
 21
33.5483204028
  0
LINE
  5
2E5
100
AcDbEntity
  8
ASSI
100
AcDbLine
 62
250
  6
CONTINUOUS
 10
-69.098963089
 20
34.7349717839
 11
-56.7254777005
 21
34.7349717839
  0
LINE
  5
2E6
100
AcDbEntity
  8
ASSI
100
AcDbLine
 62
250
  6
CONTINUOUS
 10
-68.9622203947
 20
34.8843847815
 11
-56.8622203947
 21
34.8843847815
  0
LINE
  5
2E7
100
AcDbEntity
  8
ASSI
100
AcDbLine
 62
250
  6
CONTINUOUS
 10
-56.8622203947
 20
35.7104702804
 11
-68.9622203947
 21
35.7104702804
  0
LINE
  5
2E8
100
AcDbEntity
  8
ASSI
100
AcDbLine
 62
250
  6
CONTINUOUS
 10
-57.4937993421
 20
36.4925408329
 11
-68.3306414474
 21
36.4925408329
  0
LINE
  5
2E9
100
AcDbEntity
  8
ASSI
100
AcDbLine
 62
250
  6
CONTINUOUS
 10
-57.6122203947
 20
36.6391790614
 11
-68.2122203947
 21
36.6391790614
  0
LINE
  5
2EA
100
AcDbEntity
  8
ASSI
100
AcDbLine
 62
250
  6
CONTINUOUS
 10
-57.6122203947
 20
37.20890625
 11
-68.2122203947
 21
37.20890625
  0
LINE
  5
2EB
100
AcDbEntity
  8
ASSI
100
AcDbLine
 62
7
  6
CONTINUOUS
 10
-58.4122210968
 20
38.00890625
 11
-67.4122197324
 21
38.00890625
  0
LWPOLYLINE
  5
2EC
100
AcDbEntity
  8
0
100
AcDbPolyline
 62
7
  6
CONTINUOUS
 90
3
 70
0
 43
0.3500000006
 10
-61.4122185059
 20
47.401763443
 10
-62.9122189636
 20
47.401763443
 10
-62.269365509
 20
49.7589063721
  0
LWPOLYLINE
  5
2ED
100
AcDbEntity
  8
0
100
AcDbPolyline
 62
7
  6
CONTINUOUS
 90
3
 70
0
 43
0.3500000006
 10
-63.7693614349
 20
47.401763443
 10
-65.2693618927
 20
47.401763443
 10
-64.6265039063
 20
49.7589063721
  0
LWPOLYLINE
  5
2EE
100
AcDbEntity
  8
ASSI
100
AcDbPolyline
 62
250
  6
CONTINUOUS
 90
5
 70
0
 10
21.6682014499
 20
-29.9998199532
 10
21.6677456531
 20
-29.9998925554
 10
21.6663812478
 20
-29.9999591416
 10
21.6641092312
 20
-30.0000195918
 10
21.6609312605
 20
-30.0000737435
  0
LWPOLYLINE
  5
2EF
100
AcDbEntity
  8
ASSI
100
AcDbPolyline
 62
250
  6
CONTINUOUS
 90
43
 70
0
 10
16.3898267467
 20
-30.49109375
 10
16.4041413036
 20
-30.4907518283
 10
16.4184362827
 20
-30.4897265309
 10
16.4326921329
 20
-30.48801926
 10
16.4468893567
 20
-30.4856323506
 10
16.4610085368
 20
-30.4825690673
 10
16.4750303624
 20
-30.4788335997
 10
16.4889356562
 20
-30.4744310568
 10
16.5027054001
 20
-30.4693674598
 10
16.5163207614
 20
-30.4636497341
 10
16.5297631184
 20
-30.4572856999
 10
16.5430140864
 20
-30.4502840611
 10
16.5560555421
 20
-30.4426543938
 10
16.5688696488
 20
-30.4344071329
 10
16.5814388809
 20
-30.4255535581
 10
16.5937460477
 20
-30.4161057784
 10
16.6057743167
 20
-30.4060767153
 10
16.6175072371
 20
-30.3954800854
 10
16.6289287619
 20
-30.3843303818
 10
16.64002327
 20
-30.3726428535
 10
16.6507755877
 20
-30.3604334855
 10
16.6611710091
 20
-30.3477189765
 10
16.6711953165
 20
-30.3345167158
 10
16.6808347998
 20
-30.32084476
 10
16.6900762752
 20
-30.3067218081
 10
16.6989071033
 20
-30.2921671759
 10
16.7073152063
 20
-30.2772007695
 10
16.7152890845
 20
-30.2618430583
 10
16.7228178322
 20
-30.2461150468
 10
16.7298911523
 20
-30.230038246
 10
16.7364993708
 20
-30.213634644
 10
16.7426334498
 20
-30.1969266757
 10
16.7482849996
 20
-30.1799371924
 10
16.7534462908
 20
-30.1626894304
 10
16.7581102644
 20
-30.1452069793
 10
16.7622705414
 20
-30.1275137495
 10
16.765921432
 20
-30.1096339399
 10
16.7690579428
 20
-30.0915920044
 10
16.771675784
 20
-30.0734126188
 10
16.7737713754
 20
-30.0551206467
 10
16.7753418508
 20
-30.0367411059
 10
16.7763850622
 20
-30.0182991338
 10
16.7768995829
 20
-29.9998199532
  0
LWPOLYLINE
  5
2F0
100
AcDbEntity
  8
ASSI
100
AcDbPolyline
 62
250
  6
CONTINUOUS
 90
43
 70
0
 10
21.0125039523
 20
-30.49109375
 10
21.0273914454
 20
-30.4907518283
 10
21.0422585771
 20
-30.4897265308
 10
21.0570850139
 20
-30.4880192599
 10
21.0718504777
 20
-30.4856323505
 10
21.086534774
 20
-30.4825690671
 10
21.1011178194
 20
-30.4788335995
 10
21.1155796687
 20
-30.4744310565
 10
21.1299005428
 20
-30.4693674594
 10
21.144060855
 20
-30.4636497337
 10
21.1580412387
 20
-30.4572856993
 10
21.1718225729
 20
-30.4502840604
 10
21.1853860092
 20
-30.442654393
 10
21.1987129969
 20
-30.434407132
 10
21.211785309
 20
-30.4255535572
 10
21.2245850666
 20
-30.4161057773
 10
21.2370947637
 20
-30.4060767142
 10
21.2492972908
 20
-30.3954800843
 10
21.2611759589
 20
-30.3843303805
 10
21.2727145215
 20
-30.3726428522
 10
21.2838971976
 20
-30.3604334842
 10
21.2947086927
 20
-30.3477189751
 10
21.3051342201
 20
-30.3345167144
 10
21.3151595209
 20
-30.3208447586
 10
21.3247708837
 20
-30.3067218067
 10
21.3339551631
 20
-30.2921671745
 10
21.342699798
 20
-30.2772007681
 10
21.3509928283
 20
-30.2618430569
 10
21.3588229119
 20
-30.2461150454
 10
21.3661793395
 20
-30.2300382447
 10
21.3730520501
 20
-30.2136346427
 10
21.3794316437
 20
-30.1969266745
 10
21.3853093951
 20
-30.1799371913
 10
21.3906772655
 20
-30.1626894294
 10
21.3955279132
 20
-30.1452069783
 10
21.3998547041
 20
-30.1275137487
 10
21.4036517204
 20
-30.1096339391
 10
21.4069137692
 20
-30.0915920038
 10
21.4096363887
 20
-30.0734126183
 10
21.4118158555
 20
-30.0551206463
 10
21.4134491887
 20
-30.0367411056
 10
21.4145341543
 20
-30.0182991336
 10
21.4150692686
 20
-29.9998199532
  0
LINE
  5
2F1
100
AcDbEntity
  8
ASSI
100
AcDbLine
 62
250
  6
CONTINUOUS
 10
21.6609312605
 20
-30.0000737435
 11
21.651866992
 21
-30.0001630923
  0
LINE
  5
2F2
100
AcDbEntity
  8
ASSI
100
AcDbLine
 62
250
  6
CONTINUOUS
 10
21.651866992
 20
-30.0001630923
 11
21.6230061242
 21
-30.0002656073
  0
LINE
  5
2F3
100
AcDbEntity
  8
ASSI
100
AcDbLine
 62
7
  6
CONTINUOUS
 10
21.1682776023
 20
-30.49109375
 11
-21.1682776023
 21
-30.49109375
  0
LINE
  5
2F4
100
AcDbEntity
  8
ASSI
100
AcDbLine
 62
250
  6
CONTINUOUS
 10
-21.4150692686
 20
-29.9998199532
 11
-21.613583523
 21
-30.0002752298
  0
LINE
  5
2F5
100
AcDbEntity
  8
ASSI
100
AcDbLine
 62
250
  6
CONTINUOUS
 10
21.6230061242
 20
-30.0002656073
 11
21.454349107
 21
-29.999959144
  0
LINE
  5
2F6
100
AcDbEntity
  8
ASSI
100
AcDbLine
 62
250
  6
CONTINUOUS
 10
21.454349107
 20
-29.999959144
 11
-21.4150692686
 21
-29.9998199532
  0
LINE
  5
2F7
100
AcDbEntity
  8
ASSI
100
AcDbLine
 62
250
  6
CONTINUOUS
 10
-21.613583523
 20
-30.0002752298
 11
-21.6459867847
 21
-30.0001983086
  0
LWPOLYLINE
  5
2F8
100
AcDbEntity
  8
ASSI
100
AcDbPolyline
 62
250
  6
CONTINUOUS
 90
7
 70
0
 10
-21.6459867847
 20
-30.0001983086
 10
-21.6568495042
 20
-30.000121555
 10
-21.6609311806
 20
-30.0000737461
 10
-21.6641091698
 20
-30.0000195944
 10
-21.6663812145
 20
-29.999959144
 10
-21.6677456432
 20
-29.9998925569
 10
-21.6682014499
 20
-29.9998199532
  0
LWPOLYLINE
  5
2F9
100
AcDbEntity
  8
ASSI
100
AcDbPolyline
 62
250
  6
CONTINUOUS
 90
43
 70
0
 10
-21.0125039523
 20
-30.49109375
 10
-21.0273914439
 20
-30.4907518284
 10
-21.0422585743
 20
-30.4897265311
 10
-21.0570850097
 20
-30.4880192605
 10
-21.0718504723
 20
-30.4856323515
 10
-21.0865347676
 20
-30.4825690686
 10
-21.1011178119
 20
-30.4788336016
 10
-21.1155796604
 20
-30.4744310592
 10
-21.1299005337
 20
-30.4693674628
 10
-21.1440608453
 20
-30.4636497378
 10
-21.1580412284
 20
-30.4572857043
 10
-21.1718225622
 20
-30.4502840662
 10
-21.1853859981
 20
-30.4426543995
 10
-21.1987129856
 20
-30.4344071393
 10
-21.2117852976
 20
-30.4255535653
 10
-21.2245850552
 20
-30.4161057862
 10
-21.2370947523
 20
-30.4060767237
 10
-21.2492972796
 20
-30.3954800945
 10
-21.2611759479
 20
-30.3843303913
 10
-21.2727145108
 20
-30.3726428635
 10
-21.2838971872
 20
-30.360433496
 10
-21.2947086827
 20
-30.3477189873
 10
-21.3051342106
 20
-30.3345167269
 10
-21.315159512
 20
-30.3208447713
 10
-21.3247708753
 20
-30.3067218195
 10
-21.3339551554
 20
-30.2921671873
 10
-21.3426997908
 20
-30.2772007809
 10
-21.3509928218
 20
-30.2618430695
 10
-21.358822906
 20
-30.2461150578
 10
-21.3661793343
 20
-30.2300382567
 10
-21.3730520455
 20
-30.2136346542
 10
-21.3794316397
 20
-30.1969266855
 10
-21.3853093918
 20
-30.1799372016
 10
-21.3906772627
 20
-30.162689439
 10
-21.395527911
 20
-30.1452069871
 10
-21.3998547023
 20
-30.1275137565
 10
-21.4036517191
 20
-30.1096339461
 10
-21.4069137682
 20
-30.0915920097
 10
-21.4096363881
 20
-30.0734126231
 10
-21.4118158552
 20
-30.05512065
 10
-21.4134491885
 20
-30.0367411081
 10
-21.4145341543
 20
-30.0182991349
 10
-21.4150692686
 20
-29.9998199532
  0
LWPOLYLINE
  5
2FA
100
AcDbEntity
  8
ASSI
100
AcDbPolyline
 62
250
  6
CONTINUOUS
 90
43
 70
0
 10
-16.3898267467
 20
-30.49109375
 10
-16.4041413038
 20
-30.4907518283
 10
-16.4184362831
 20
-30.4897265308
 10
-16.4326921335
 20
-30.4880192599
 10
-16.4468893575
 20
-30.4856323504
 10
-16.4610085377
 20
-30.4825690671
 10
-16.4750303636
 20
-30.4788335994
 10
-16.4889356575
 20
-30.4744310563
 10
-16.5027054015
 20
-30.4693674592
 10
-16.5163207629
 20
-30.4636497335
 10
-16.52976312
 20
-30.4572856991
 10
-16.543014088
 20
-30.4502840602
 10
-16.5560555437
 20
-30.4426543927
 10
-16.5688696505
 20
-30.4344071317
 10
-16.5814388827
 20
-30.4255535568
 10
-16.5937460494
 20
-30.416105777
 10
-16.6057743184
 20
-30.4060767138
 10
-16.6175072388
 20
-30.3954800839
 10
-16.6289287636
 20
-30.3843303801
 10
-16.6400232716
 20
-30.3726428517
 10
-16.6507755892
 20
-30.3604334837
 10
-16.6611710105
 20
-30.3477189746
 10
-16.6711953179
 20
-30.3345167139
 10
-16.6808348011
 20
-30.3208447581
 10
-16.6900762764
 20
-30.3067218062
 10
-16.6989071045
 20
-30.292167174
 10
-16.7073152074
 20
-30.2772007676
 10
-16.7152890855
 20
-30.2618430564
 10
-16.722817833
 20
-30.2461150449
 10
-16.7298911531
 20
-30.2300382442
 10
-16.7364993715
 20
-30.2136346423
 10
-16.7426334503
 20
-30.1969266741
 10
-16.7482850001
 20
-30.1799371909
 10
-16.7534462912
 20
-30.162689429
 10
-16.7581102647
 20
-30.145206978
 10
-16.7622705417
 20
-30.1275137484
 10
-16.7659214322
 20
-30.1096339389
 10
-16.7690579429
 20
-30.0915920035
 10
-16.7716757841
 20
-30.0734126181
 10
-16.7737713755
 20
-30.0551206462
 10
-16.7753418508
 20
-30.0367411055
 10
-16.7763850622
 20
-30.0182991336
 10
-16.7768995829
 20
-29.9998199532
  0
LINE
  5
2FB
100
AcDbEntity
  8
0
100
AcDbLine
 62
7
  6
CONTINUOUS
 10
-21.9728859769
 20
-12.39109375
 11
-21.9978135022
 21
-10.99109375
  0
LINE
  5
2FC
100
AcDbEntity
  8
0
100
AcDbLine
 62
7
  6
CONTINUOUS
 10
-21.9755620937
 20
-12.3911404618
 11
-21.6682014499
 21
-29.9998199532
  0
LINE
  5
2FD
100
AcDbEntity
  8
ASSI
100
AcDbLine
 62
250
  6
CONTINUOUS
 10
-21.747432639
 20
-10.99109375
 11
-21.4150692686
 21
-29.9998199532
  0
LINE
  5
2FE
100
AcDbEntity
  8
0
100
AcDbLine
 62
7
  6
CONTINUOUS
 10
-21.9728859769
 20
-10.6071968154
 11
-21.9728859769
 21
-10.3893318505
  0
LINE
  5
2FF
100
AcDbEntity
  8
ASSI
100
AcDbLine
 62
7
  6
CONTINUOUS
 10
-21.7320479927
 20
-6.4875711056
 11
-21.6576533357
 21
-5.4342460164
  0
LINE
  5
300
100
AcDbEntity
  8
ASSI
100
AcDbLine
 62
7
  6
CONTINUOUS
 10
-21.5860781341
 20
-4.4208405013
 11
-21.2388392406
 21
0.4955802909
  0
LINE
  5
301
100
AcDbEntity
  8
0
100
AcDbLine
 62
7
  6
CONTINUOUS
 10
-21.9555870782
 20
-10.3622684182
 11
-21.9574985249
 21
-10.3893318505
  0
LINE
  5
302
100
AcDbEntity
  8
0
100
AcDbLine
 62
7
  6
CONTINUOUS
 10
-21.9728859769
 20
-10.6071968154
 11
-22.0
 21
-10.99109375
  0
LINE
  5
303
100
AcDbEntity
  8
ASSI
100
AcDbLine
 62
7
  6
CONTINUOUS
 10
-22.0
 20
-10.99109375
 11
-20.778768029
 21
6.2998559874
  0
LINE
  5
304
100
AcDbEntity
  8
ASSI
100
AcDbLine
 62
250
  6
CONTINUOUS
 10
-21.7480270124
 20
-10.99109375
 11
-20.5247028457
 21
6.2999320089
  0
LWPOLYLINE
  5
305
100
AcDbEntity
  8
ASSI
100
AcDbPolyline
 62
7
  6
CONTINUOUS
 90
25
 70
0
 10
-16.9767011281
 20
29.5862427066
 10
-16.9832159922
 20
29.5591044357
 10
-16.9920509496
 20
29.5173355903
 10
-16.9995095806
 20
29.4752993213
 10
-17.0055838568
 20
29.4330409681
 10
-17.0102672428
 20
29.3906061085
 10
-17.0135547036
 20
29.3480405099
 10
-17.0154427096
 20
29.30539008
 10
-17.0159292405
 20
29.2627008167
 10
-17.0150137876
 20
29.2200187594
 10
-17.012697354
 20
29.1773899376
 10
-17.008982454
 20
29.1348603244
 10
-17.0038731099
 20
29.0924757871
 10
-16.9973748486
 20
29.050282035
 10
-16.9894946936
 20
29.0083245662
 10
-16.9802411582
 20
28.9666486216
 10
-16.9696242387
 20
28.9252991479
 10
-16.9576553984
 20
28.884320726
 10
-16.9443475521
 20
28.8437575202
 10
-16.9297150511
 20
28.8036532367
 10
-16.9137736979
 20
28.7640511514
 10
-16.8965407297
 20
28.724994039
 10
-16.8780347617
 20
28.6865240325
 10
-16.8582757577
 20
28.6486825804
 10
-16.8372850424
 20
28.6115104768
  0
LINE
  5
306
100
AcDbEntity
  8
ASSI
100
AcDbLine
 62
250
  6
CONTINUOUS
 10
-17.0337991215
 20
-10.99109375
 11
-16.7768995829
 21
-29.9998199532
  0
LWPOLYLINE
  5
307
100
AcDbEntity
  8
ASSI
100
AcDbPolyline
 62
250
  6
CONTINUOUS
 90
106
 70
0
 10
-15.9562633902
 20
12.3884197932
 10
-15.8831809775
 20
12.5384999148
 10
-15.8112213809
 20
12.6898754494
 10
-15.7404068045
 20
12.8425457497
 10
-15.6707679312
 20
12.9964712742
 10
-15.6023152302
 20
13.1516902463
 10
-15.5350386344
 20
13.308318601
 10
-15.468923541
 20
13.4664205953
 10
-15.4040183381
 20
13.6259304547
 10
-15.3404061843
 20
13.7867690322
 10
-15.2780989769
 20
13.9489463292
 10
-15.2171135943
 20
14.1124508311
 10
-15.1575402808
 20
14.2771711822
 10
-15.0993972522
 20
14.4430909217
 10
-15.0426896727
 20
14.6102250315
 10
-14.9874875276
 20
14.7785093821
 10
-14.9338026116
 20
14.9479283482
 10
-14.8816403955
 20
15.1184960668
 10
-14.8310602651
 20
15.2901930736
 10
-14.7820559496
 20
15.463057895
 10
-14.7346443406
 20
15.6370504479
 10
-14.6889184301
 20
15.812033416
 10
-14.6448813737
 20
15.9880123469
 10
-14.6025342689
 20
16.1649802224
 10
-14.5619659294
 20
16.3427810154
 10
-14.5231775349
 20
16.5214156748
 10
-14.4861653833
 20
16.7008818929
 10
-14.4510096806
 20
16.8810189167
 10
-14.4177078956
 20
17.0618286788
 10
-14.3862529267
 20
17.2433080194
 10
-14.3567166792
 20
17.4252887201
 10
-14.3290927051
 20
17.6077777434
 10
-14.3033704767
 20
17.7907670544
 10
-14.2796142784
 20
17.9740661379
 10
-14.2578135536
 20
18.15771078
 10
-14.2379544395
 20
18.3416643097
 10
-14.2200951012
 20
18.5256278134
 10
-14.20422847
 20
18.7096147309
 10
-14.1903305375
 20
18.8936110952
 10
-14.1784336116
 20
19.0772772696
 10
-14.1685296464
 20
19.2605610593
 10
-14.1605900347
 20
19.4435145807
 10
-14.1546158918
 20
19.625954988
 10
-14.1505888223
 20
19.8078667227
 10
-14.1484844337
 20
19.9892654921
 10
-14.1482941289
 20
20.1700155524
 10
-14.1499952321
 20
20.3501185651
 10
-14.1535615383
 20
20.5295731992
 10
-14.1589784938
 20
20.7082394016
 10
-14.166220857
 20
20.8861167362
 10
-14.1752593521
 20
21.0632061683
 10
-14.1860729587
 20
21.2393699286
 10
-14.1986335099
 20
21.4146046146
 10
-14.2129094165
 20
21.5889143555
 10
-14.2288742875
 20
21.7621728535
 10
-14.2464959381
 20
21.9343705819
 10
-14.265741844
 20
22.1055179777
 10
-14.2865847666
 20
22.2755188362
 10
-14.3089904583
 20
22.4443746249
 10
-14.3329231764
 20
22.6120849222
 10
-14.3583530104
 20
22.7785508181
 10
-14.3852451752
 20
22.9437806382
 10
-14.4135593708
 20
23.10776724
 10
-14.4432574358
 20
23.2703886539
 10
-14.474299523
 20
23.4316356856
 10
-14.5066463355
 20
23.5915188837
 10
-14.540260698
 20
23.7499460299
 10
-14.5750992634
 20
23.9069101614
 10
-14.6111216034
 20
24.0624197137
 10
-14.6482944844
 20
24.2164056668
 10
-14.6865740208
 20
24.3688723214
 10
-14.7259148487
 20
24.5198169285
 10
-14.7662808541
 20
24.6691599839
 10
-14.8076219007
 20
24.8168939618
 10
-14.8498938584
 20
24.9630280331
 10
-14.8930684703
 20
25.107507817
 10
-14.9370966678
 20
25.2503420274
 10
-14.9819264881
 20
25.391523639
 10
-15.0275238743
 20
25.5309747362
 10
-15.0738388888
 20
25.668705283
 10
-15.1208142959
 20
25.8047070722
 10
-15.1684046475
 20
25.9388750308
 10
-15.2165496538
 20
26.0711974334
 10
-15.2651980569
 20
26.2016878579
 10
-15.314317045
 20
26.3302792746
 10
-15.363847036
 20
26.4569761855
 10
-15.4137284945
 20
26.5817759669
 10
-15.4639265702
 20
26.704600968
 10
-15.5143839835
 20
26.8254664041
 10
-15.5650309966
 20
26.9443589655
 10
-15.6158134684
 20
27.0611583023
 10
-15.666658656
 20
27.1758498426
 10
-15.7175084349
 20
27.2884501327
 10
-15.7683293239
 20
27.3988855812
 10
-15.8190665241
 20
27.5071884394
 10
-15.8696330469
 20
27.6133284086
 10
-15.9199483331
 20
27.7171381664
 10
-15.9699675746
 20
27.8186475526
 10
-16.0195932484
 20
27.9178287422
 10
-16.0686794524
 20
28.0144280798
 10
-16.1171912638
 20
28.1084553297
 10
-16.1650374234
 20
28.1999028472
 10
-16.2120171135
 20
28.2884910548
 10
-16.2580417701
 20
28.3741275391
 10
-16.3031133575
 20
28.4569069227
 10
-16.3471852318
 20
28.5368302493
  0
LWPOLYLINE
  5
308
100
AcDbEntity
  8
ASSI
100
AcDbPolyline
 62
250
  6
CONTINUOUS
 90
15
 70
0
 10
-20.778768029
 20
6.2998559874
 10
-20.7782573525
 20
6.3006229591
 10
-20.7768396183
 20
6.3013219182
 10
-20.7745163087
 20
6.3019540981
 10
-20.7712877267
 20
6.3025229719
 10
-20.7671555226
 20
6.3030274267
 10
-20.7621247046
 20
6.303462742
 10
-20.756197864
 20
6.303832237
 10
-20.749377382
 20
6.3041371561
 10
-20.7416712245
 20
6.3043714137
 10
-20.7330834395
 20
6.3045393385
 10
-20.7236177468
 20
6.3046431194
 10
-20.7132847372
 20
6.3046750607
 10
-20.7020900128
 20
6.3046402991
 10
-20.6900387589
 20
6.3045421056
  0
LWPOLYLINE
  5
309
100
AcDbEntity
  8
ASSI
100
AcDbPolyline
 62
250
  6
CONTINUOUS
 90
34
 70
0
 10
-20.3357362081
 20
7.1886404968
 10
-20.3547939681
 20
7.1713274135
 10
-20.3731015109
 20
7.1532328271
 10
-20.3906547237
 20
7.1343611142
 10
-20.4074629897
 20
7.1147087504
 10
-20.4235136514
 20
7.0942918943
 10
-20.4387689658
 20
7.0731458471
 10
-20.4532266379
 20
7.0512804563
 10
-20.4668881248
 20
7.0287047255
 10
-20.4797183152
 20
7.0054533898
 10
-20.4917170099
 20
6.9815388428
 10
-20.5028872094
 20
6.9569730896
 10
-20.5131961183
 20
6.9317906578
 10
-20.5226458807
 20
6.9060061541
 10
-20.5312413211
 20
6.8796341764
 10
-20.5389516511
 20
6.8527093199
 10
-20.5457816168
 20
6.8252480515
 10
-20.5517381241
 20
6.7972671782
 10
-20.5567920328
 20
6.7688016051
 10
-20.5609509535
 20
6.7398693111
 10
-20.5642241279
 20
6.7104889344
 10
-20.5665836576
 20
6.6806958921
 10
-20.5680402824
 20
6.6505093204
 10
-20.5686058333
 20
6.6199493226
 10
-20.568253197
 20
6.589052001
 10
-20.5669965055
 20
6.5578372793
 10
-20.5648504306
 20
6.5263263719
 10
-20.5617881493
 20
6.4945562385
 10
-20.5578274354
 20
6.4625472174
 10
-20.5529860511
 20
6.4303212677
 10
-20.5472369456
 20
6.3979163508
 10
-20.540584805
 20
6.3653588311
 10
-20.5330674119
 20
6.3326647376
 10
-20.5247085566
 20
6.2998559874
  0
LWPOLYLINE
  5
30A
100
AcDbEntity
  8
ASSI
100
AcDbPolyline
 62
250
  6
CONTINUOUS
 90
40
 70
0
 10
-20.5247028457
 20
6.2999320089
 10
-20.3594296952
 20
6.4445093509
 10
-20.1969163614
 20
6.5899524931
 10
-20.0371850794
 20
6.7362614352
 10
-19.8803105559
 20
6.8834754651
 10
-19.72626123
 20
7.031555295
 10
-19.5748980879
 20
7.1803830622
 10
-19.4262444823
 20
7.3299429101
 10
-19.2803148843
 20
7.4802506952
 10
-19.1369541515
 20
7.631236124
 10
-18.9961782621
 20
7.7828894799
 10
-18.8580043555
 20
7.9352204794
 10
-18.7222764311
 20
8.0881879789
 10
-18.5889943482
 20
8.2417995647
 10
-18.4581871528
 20
8.3960476506
 10
-18.3297404756
 20
8.5508683335
 10
-18.2036538501
 20
8.7062725753
 10
-18.0799533041
 20
8.8622494143
 10
-17.9585626136
 20
9.0187020627
 10
-17.8394923095
 20
9.1756285804
 10
-17.7227547306
 20
9.3330309077
 10
-17.608275075
 20
9.4908180768
 10
-17.4960675281
 20
9.6489804338
 10
-17.3861383019
 20
9.8075276327
 10
-17.2783994233
 20
9.9663976683
 10
-17.1728596497
 20
10.1255854474
 10
-17.0695282603
 20
10.2850960632
 10
-16.9683169238
 20
10.4448827906
 10
-16.8692282007
 20
10.6049492277
 10
-16.7722754283
 20
10.7652917765
 10
-16.6773854556
 20
10.9258529179
 10
-16.5845624226
 20
11.086633882
 10
-16.4938162471
 20
11.2476334387
 10
-16.4050816155
 20
11.408790379
 10
-16.3183689818
 20
11.570093598
 10
-16.2336803169
 20
11.7315542005
 10
-16.1509368222
 20
11.8931442925
 10
-16.0701157445
 20
12.054854576
 10
-15.9912506463
 20
12.2166943491
 10
-15.9143467035
 20
12.3786636116
  0
LWPOLYLINE
  5
30B
100
AcDbEntity
  8
ASSI
100
AcDbPolyline
 62
7
  6
CONTINUOUS
 90
59
 70
0
 10
-13.4593115909
 20
4.9975567299
 10
-13.4822162624
 20
5.4042895003
 10
-13.5081052855
 20
5.7942016508
 10
-13.5369272382
 20
6.1659659203
 10
-13.5687265237
 20
6.52090957
 10
-13.6025462727
 20
6.8596711999
 10
-13.6382751868
 20
7.1817383505
 10
-13.6760215647
 20
7.4876234814
 10
-13.7151610611
 20
7.7795025724
 10
-13.7556423862
 20
8.0575239023
 10
-13.7975157628
 20
8.3215391922
 10
-13.8403109338
 20
8.5732795864
 10
-13.8840019249
 20
8.812873392
 10
-13.9286151868
 20
9.0401923017
 10
-13.9737605298
 20
9.2565825377
 10
-14.0194094605
 20
9.4620760314
 10
-14.0655922858
 20
9.6566408512
 10
-14.1120081189
 20
9.8415274248
 10
-14.158638959
 20
10.0167817605
 10
-14.2055054717
 20
10.1823578499
 10
-14.2523655392
 20
10.3393680959
 10
-14.2992082509
 20
10.4878554775
 10
-14.3460477563
 20
10.6277770156
 10
-14.3926800965
 20
10.7601161753
 10
-14.4390973863
 20
10.8849049717
 10
-14.4853111446
 20
11.0021113896
 10
-14.5311469495
 20
11.1126228482
 10
-14.5765918312
 20
11.2164523693
 10
-14.6216626467
 20
11.3135869312
 10
-14.6662299847
 20
11.4048748881
 10
-14.7102679584
 20
11.4903141882
 10
-14.7538063813
 20
11.5699068833
 10
-14.7967993949
 20
11.6445074832
 10
-14.8392252555
 20
11.7141382402
 10
-14.8811093019
 20
11.7787769019
 10
-14.9224760233
 20
11.8392112208
 10
-14.9633179657
 20
11.89548736
 10
-15.0036456324
 20
11.9475591563
 10
-15.0435100518
 20
11.9960758729
 10
-15.082911937
 20
12.0410843466
 10
-15.121853097
 20
12.0825377406
 10
-15.1603858278
 20
12.1209448073
 10
-15.19851178
 20
12.1563423946
 10
-15.2362313964
 20
12.1886936547
 10
-15.2735948455
 20
12.2183967964
 10
-15.3105948089
 20
12.2454768895
 10
-15.3472403579
 20
12.2699088643
 10
-15.3836059407
 20
12.2920157204
 10
-15.4196841902
 20
12.3118239411
 10
-15.4554838564
 20
12.3293070432
 10
-15.4911032225
 20
12.3447085766
 10
-15.5265410619
 20
12.3580574936
 10
-15.5617995935
 20
12.3693248419
 10
-15.596981924
 20
12.3786673149
 10
-15.6320874301
 20
12.3861117102
 10
-15.6671173783
 20
12.3916312302
 10
-15.7021773867
 20
12.3953021751
 10
-15.7372671056
 20
12.3971498582
 10
-15.7723872097
 20
12.3971489663
  0
LWPOLYLINE
  5
30C
100
AcDbEntity
  8
ASSI
100
AcDbPolyline
 62
7
  6
CONTINUOUS
 90
10
 70
0
 10
-13.4566140605
 20
0.8713668892
 10
-13.4370497479
 20
1.3516672049
 10
-13.4225685845
 20
1.8290826037
 10
-13.4133019011
 20
2.3037083427
 10
-13.4091069964
 20
2.7754491648
 10
-13.409757758
 20
3.2391944553
 10
-13.4154156299
 20
3.6950679778
 10
-13.4259051282
 20
4.1429459687
 10
-13.440496846
 20
4.577346522
 10
-13.4593115909
 20
4.9975567299
  0
LINE
  5
30D
100
AcDbEntity
  8
ASSI
100
AcDbLine
 62
7
  6
CONTINUOUS
 10
-13.4810763068
 20
0.3930064999
 11
-13.4566140605
 21
0.8713668892
  0
LINE
  5
30E
100
AcDbEntity
  8
ASSI
100
AcDbLine
 62
7
  6
CONTINUOUS
 10
21.5793143823
 20
-5.0347692806
 11
21.6291901377
 21
-5.0312466362
  0
LWPOLYLINE
  5
30F
100
AcDbEntity
  8
ASSI
100
AcDbPolyline
 62
7
  6
CONTINUOUS
 90
67
 70
0
 10
-17.0337985652
 20
-10.99109375
 10
-16.9971734538
 20
-10.9902082616
 10
-16.9603189532
 20
-10.9874403966
 10
-16.9232350122
 20
-10.9827901551
 10
-16.8859603675
 20
-10.9762953277
 10
-16.8484562142
 20
-10.9679181237
 10
-16.8106060388
 20
-10.9575451708
 10
-16.7724111924
 20
-10.9452035892
 10
-16.7338699222
 20
-10.9308662587
 10
-16.6948607606
 20
-10.9143384464
 10
-16.655385008
 20
-10.8956501846
 10
-16.6154406615
 20
-10.874771441
 10
-16.5749010043
 20
-10.8514173857
 10
-16.5337674296
 20
-10.8256225412
 10
-16.4920375349
 20
-10.7973523849
 10
-16.4495786155
 20
-10.7662185201
 10
-16.4063842978
 20
-10.7322532815
 10
-16.3624596223
 20
-10.6954243343
 10
-16.3176887461
 20
-10.6552462766
 10
-16.2720631162
 20
-10.6117501479
 10
-16.2255896909
 20
-10.5649049086
 10
-16.1781757137
 20
-10.5141320387
 10
-16.1298225136
 20
-10.4594782126
 10
-16.0805270011
 20
-10.4008967557
 10
-16.0301896654
 20
-10.3376691244
 10
-15.9788069785
 20
-10.2698471875
 10
-15.9263805396
 20
-10.1973790762
 10
-15.8728184479
 20
-10.1193906398
 10
-15.8180920905
 20
-10.0358979255
 10
-15.7622280362
 20
-9.9468848861
 10
-15.7052172684
 20
-9.8514292288
 10
-15.6470276576
 20
-9.7495244433
 10
-15.5876895196
 20
-9.6411770399
 10
-15.527287952
 20
-9.525484257
 10
-15.4658117859
 20
-9.402469536
 10
-15.4032710088
 20
-9.2721094354
 10
-15.33978316
 20
-9.1334308694
 10
-15.2753386589
 20
-8.9864691283
 10
-15.209946707
 20
-8.8311889218
 10
-15.1437538854
 20
-8.666511293
 10
-15.0767494
 20
-8.4924857776
 10
-15.0089446339
 20
-8.3090628398
 10
-14.9405204682
 20
-8.1150149158
 10
-14.8714593909
 20
-7.9103981206
 10
-14.8017806299
 20
-7.6951563392
 10
-14.7317214068
 20
-7.4678936618
 10
-14.6612695103
 20
-7.2287345164
 10
-14.5904401822
 20
-6.9775544751
 10
-14.5195132579
 20
-6.7125843449
 10
-14.4484260358
 20
-6.4338069504
 10
-14.3772456083
 20
-6.1412394671
 10
-14.30644824
 20
-5.8331642279
 10
-14.2358674825
 20
-5.508899277
 10
-14.1656757477
 20
-5.1691265702
 10
-14.0968597411
 20
-4.8141743075
 10
-14.0293597154
 20
-4.443390027
 10
-13.9632429453
 20
-4.0574261906
 10
-13.8996885277
 20
-3.6585683844
 10
-13.8387594735
 20
-3.2466010292
 10
-13.780399964
 20
-2.8217397042
 10
-13.7256114738
 20
-2.386916733
 10
-13.6744657126
 20
-1.9419116117
 10
-13.626895279
 20
-1.4869448441
 10
-13.5836922968
 20
-1.0256102656
 10
-13.5449409472
 20
-0.5576298599
 10
-13.5105565166
 20
-0.0832816432
 10
-13.4810763068
 20
0.3930064999
  0
LINE
  5
310
100
AcDbEntity
  8
ASSI
100
AcDbLine
 62
7
  6
CONTINUOUS
 10
22.0
 20
-10.99109375
 11
-22.0
 21
-10.99109375
  0
LINE
  5
311
100
AcDbEntity
  8
0
100
AcDbLine
 62
7
  6
CONTINUOUS
 10
21.9728859769
 20
-10.3893318505
 11
21.9555870782
 21
-10.3893318505
  0
LINE
  5
312
100
AcDbEntity
  8
0
100
AcDbLine
 62
7
  6
CONTINUOUS
 10
-21.9728859769
 20
-10.3893318505
 11
-21.9574985249
 21
-10.3893318505
  0
LWPOLYLINE
  5
313
100
AcDbEntity
  8
ASSI
100
AcDbPolyline
 62
7
  6
CONTINUOUS
 90
135
 70
0
 10
17.0337985652
 20
-10.99109375
 10
16.9971734541
 20
-10.9902082616
 10
16.9603189538
 20
-10.9874403967
 10
16.923235013
 20
-10.9827901552
 10
16.8859603687
 20
-10.9762953279
 10
16.8484562157
 20
-10.967918124
 10
16.8106060405
 20
-10.9575451713
 10
16.7724111945
 20
-10.9452035899
 10
16.7338699246
 20
-10.9308662596
 10
16.6948607633
 20
-10.9143384476
 10
16.655385011
 20
-10.8956501861
 10
16.6154406649
 20
-10.8747714428
 10
16.574901008
 20
-10.851417388
 10
16.5337674337
 20
-10.8256225439
 10
16.4920375395
 20
-10.7973523881
 10
16.4495786205
 20
-10.7662185238
 10
16.4063843031
 20
-10.7322532859
 10
16.3624596281
 20
-10.6954243393
 10
16.3176887524
 20
-10.6552462824
 10
16.2720631229
 20
-10.6117501544
 10
16.2255896981
 20
-10.5649049161
 10
16.1781757214
 20
-10.5141320472
 10
16.1298225219
 20
-10.4594782221
 10
16.0805270099
 20
-10.4008967664
 10
16.0301896748
 20
-10.3376691364
 10
15.9788069884
 20
-10.269847201
 10
15.9263805501
 20
-10.1973790912
 10
15.8728184591
 20
-10.1193906565
 10
15.8180921024
 20
-10.035897944
 10
15.7622280488
 20
-9.9468849066
 10
15.7052172817
 20
-9.8514292515
 10
15.6470276715
 20
-9.7495244683
 10
15.5876895343
 20
-9.6411770674
 10
15.5272879675
 20
-9.5254842872
 10
15.465811802
 20
-9.402469569
 10
15.4032710257
 20
-9.2721094715
 10
15.3397831776
 20
-9.1334309087
 10
15.2753386773
 20
-8.9864691712
 10
15.2099467261
 20
-8.8311889684
 10
15.1437539054
 20
-8.6665113436
 10
15.0767494206
 20
-8.4924858324
 10
15.0089446553
 20
-8.3090628991
 10
14.9405204904
 20
-8.1150149798
 10
14.8714594138
 20
-7.9103981898
 10
14.8017806535
 20
-7.6951564137
 10
14.7317214311
 20
-7.4678937421
 10
14.6612695351
 20
-7.2287346028
 10
14.5904402077
 20
-6.9775545679
 10
14.519513284
 20
-6.7125844446
 10
14.4484260624
 20
-6.4338070576
 10
14.3772456355
 20
-6.1412395821
 10
14.3064482676
 20
-5.8331643511
 10
14.2358675104
 20
-5.508899409
 10
14.1656757759
 20
-5.1691267114
 10
14.0968597694
 20
-4.8141744579
 10
14.0293597436
 20
-4.4433901865
 10
13.9632429732
 20
-4.0574263593
 10
13.899688555
 20
-3.658568562
 10
13.8387595001
 20
-3.2466012154
 10
13.7803999897
 20
-2.8217398989
 10
13.7256114983
 20
-2.3869169358
 10
13.6744657357
 20
-1.9419118223
 10
13.6268953006
 20
-1.4869450623
 10
13.5836923167
 20
-1.0256104908
 10
13.5449409652
 20
-0.5576300914
 10
13.5105565325
 20
-0.0832818806
 10
13.4810763205
 20
0.3930062574
 10
13.4566140718
 20
0.8713666424
 10
13.4370497568
 20
1.3516669546
 10
13.4225685908
 20
1.8290823509
 10
13.4133019048
 20
2.3037080882
 10
13.4091069974
 20
2.7754489095
 10
13.4097577562
 20
3.2391942003
 10
13.4154156254
 20
3.6950677242
 10
13.425905121
 20
4.1429457176
 10
13.4404968363
 20
4.5773462748
 10
13.4593115788
 20
4.9975564882
 10
13.482216248
 20
5.4042892654
 10
13.508105269
 20
5.794201423
 10
13.5369272199
 20
6.1659657002
 10
13.5687265036
 20
6.5209093578
 10
13.6025462511
 20
6.8596709956
 10
13.6382751638
 20
7.1817381535
 10
13.6760215403
 20
7.4876232915
 10
13.7151610354
 20
7.7795023895
 10
13.7556423594
 20
8.057523726
 10
13.7975157349
 20
8.3215390224
 10
13.8403109049
 20
8.5732794228
 10
13.8840018951
 20
8.8128732347
 10
13.9286151562
 20
9.0401921506
 10
13.9737604985
 20
9.2565823925
 10
14.0194094285
 20
9.462075892
 10
14.0655922532
 20
9.6566407176
 10
14.1120080858
 20
9.8415272967
 10
14.1586389253
 20
10.0167816378
 10
14.2055054376
 20
10.1823577326
 10
14.2523655047
 20
10.3393679837
 10
14.2992082161
 20
10.4878553704
 10
14.3460477212
 20
10.6277769134
 10
14.3926800612
 20
10.7601160779
 10
14.4390973508
 20
10.884904879
 10
14.485311109
 20
11.0021113015
 10
14.5311469138
 20
11.1126227646
 10
14.5765917955
 20
11.2164522901
 10
14.621662611
 20
11.3135868561
 10
14.666229949
 20
11.4048748171
 10
14.7102679229
 20
11.4903141212
 10
14.7538063458
 20
11.5699068201
 10
14.7967993595
 20
11.6445074237
 10
14.8392252203
 20
11.7141381841
 10
14.8811092668
 20
11.7787768492
 10
14.9224759883
 20
11.8392111713
 10
14.9633179308
 20
11.8954873135
 10
15.0036455976
 20
11.9475591128
 10
15.0435100172
 20
11.9960758321
 10
15.0829119025
 20
12.0410843085
 10
15.1218530626
 20
12.0825377051
 10
15.1603857934
 20
12.1209447743
 10
15.1985117457
 20
12.156342364
 10
15.2362313621
 20
12.1886936264
 10
15.2735948113
 20
12.2183967704
 10
15.3105947747
 20
12.2454768656
 10
15.3472403238
 20
12.2699088425
 10
15.3836059065
 20
12.2920157007
 10
15.419684156
 20
12.3118239234
 10
15.4554838222
 20
12.3293070274
 10
15.4911031882
 20
12.3447085628
 10
15.5265410275
 20
12.3580574816
 10
15.561799559
 20
12.3693248318
 10
15.5969818892
 20
12.3786673066
 10
15.6320873951
 20
12.3861117038
 10
15.6671173431
 20
12.3916312256
 10
15.7021773512
 20
12.3953021723
 10
15.7372657811
 20
12.3971500579
 10
15.7723845975
 20
12.3971493684
  0
LINE
  5
314
100
AcDbEntity
  8
ASSI
100
AcDbLine
 62
7
  6
CONTINUOUS
 10
-21.6821722373
 20
-6.49109375
 11
-21.7320479927
 21
-6.4875711056
  0
LINE
  5
315
100
AcDbEntity
  8
ASSI
100
AcDbLine
 62
7
  6
CONTINUOUS
 10
-21.6077775803
 20
-5.4377686608
 11
-21.6576533357
 21
-5.4342460164
  0
LINE
  5
316
100
AcDbEntity
  8
ASSI
100
AcDbLine
 62
7
  6
CONTINUOUS
 10
-6.05
 20
34.8843847815
 11
-6.05
 21
35.7104702804
  0
LINE
  5
317
100
AcDbEntity
  8
ASSI
100
AcDbLine
 62
7
  6
CONTINUOUS
 10
-5.3
 20
36.6391790615
 11
-5.3
 21
37.20890625
  0
LINE
  5
318
100
AcDbEntity
  8
ASSI
100
AcDbLine
 62
7
  6
CONTINUOUS
 10
21.2200046496
 20
0.0525578402
 11
21.269880405
 21
0.0560804846
  0
LINE
  5
319
100
AcDbEntity
  8
ASSI
100
AcDbLine
 62
7
  6
CONTINUOUS
 10
-21.5362023787
 20
-4.4243631456
 11
-21.5860781341
 21
-4.4208405013
  0
LINE
  5
31A
100
AcDbEntity
  8
ASSI
100
AcDbLine
 62
7
  6
CONTINUOUS
 10
-21.5309582884
 20
-4.3501141061
 11
-21.5808340438
 21
-4.3465914617
  0
LINE
  5
31B
100
AcDbEntity
  8
ASSI
100
AcDbLine
 62
7
  6
CONTINUOUS
 10
-21.423914707
 20
-2.8345255616
 11
-21.4737904624
 21
-2.8310029172
  0
LINE
  5
31C
100
AcDbEntity
  8
ASSI
100
AcDbLine
 62
7
  6
CONTINUOUS
 10
-21.2964996731
 20
-1.0305055237
 11
-21.3463754285
 21
-1.0269828793
  0
LINE
  5
31D
100
AcDbEntity
  8
ASSI
100
AcDbLine
 62
7
  6
CONTINUOUS
 10
-21.259945615
 20
-0.512950795
 11
-21.3098213704
 21
-0.5094281506
  0
LINE
  5
31E
100
AcDbEntity
  8
ASSI
100
AcDbLine
 62
7
  6
CONTINUOUS
 10
-21.1972252135
 20
0.3750830398
 11
-21.2471009689
 21
0.3786056842
  0
LINE
  5
31F
100
AcDbEntity
  8
ASSI
100
AcDbLine
 62
7
  6
CONTINUOUS
 10
-21.1919811233
 20
0.4493320794
 11
-21.2418568787
 21
0.4528547238
  0
LINE
  5
320
100
AcDbEntity
  8
ASSI
100
AcDbLine
 62
7
  6
CONTINUOUS
 10
-21.1889634852
 20
0.4920576465
 11
-21.2388392406
 21
0.4955802909
  0
LWPOLYLINE
  5
321
100
AcDbEntity
  8
ASSI
100
AcDbPolyline
 62
7
  6
CONTINUOUS
 90
15
 70
0
 10
-15.9562633902
 20
12.3884197932
 10
-15.9545388538
 20
12.3866058953
 10
-15.952649187
 20
12.3849211414
 10
-15.9505942995
 20
12.3833655322
 10
-15.9483688477
 20
12.381919463
 10
-15.9459779715
 20
12.3806025393
 10
-15.9434373186
 20
12.3794735774
 10
-15.9407472263
 20
12.3785440191
 10
-15.9379071711
 20
12.3778024236
 10
-15.934931542
 20
12.3772732837
 10
-15.9318212474
 20
12.3769628091
 10
-15.9285752039
 20
12.3768647905
 10
-15.925204837
 20
12.3769850921
 10
-15.9217139041
 20
12.3773256685
 10
-15.9180984811
 20
12.3778845647
  0
LWPOLYLINE
  5
322
100
AcDbEntity
  8
ASSI
100
AcDbPolyline
 62
7
  6
CONTINUOUS
 90
25
 70
0
 10
-15.9562626571
 20
12.3884191351
 10
-15.9738149298
 20
12.4080649714
 10
-15.9904717054
 20
12.4275617756
 10
-16.0062190194
 20
12.4468922044
 10
-16.0210440047
 20
12.4660383608
 10
-16.0349340031
 20
12.4849838231
 10
-16.0478765789
 20
12.5037136391
 10
-16.0598610768
 20
12.5222108881
 10
-16.0708775777
 20
12.5404590488
 10
-16.0809160113
 20
12.5584439915
 10
-16.0899682672
 20
12.5761493334
 10
-16.0980269906
 20
12.5935591409
 10
-16.1050845425
 20
12.6106602364
 10
-16.1111354219
 20
12.6274368895
 10
-16.1161748914
 20
12.6438738784
 10
-16.1201977773
 20
12.6599591218
 10
-16.1232012594
 20
12.6756775932
 10
-16.1251832221
 20
12.6910149612
 10
-16.1261408819
 20
12.7059605706
 10
-16.126073612
 20
12.7205013095
 10
-16.1249824385
 20
12.7346227362
 10
-16.1228683933
 20
12.7483126567
 10
-16.1197337327
 20
12.7615585052
 10
-16.1155819324
 20
12.7743473648
 10
-16.1104171835
 20
12.7866670521
  0
LWPOLYLINE
  5
323
100
AcDbEntity
  8
0
100
AcDbPolyline
 62
7
  6
CONTINUOUS
 90
2
 70
0
 43
0.3500000006
 10
-1.3571429071
 20
46.7589054565
 10
-1.3571429071
 20
48.2589059143
  0
LINE
  5
324
100
AcDbEntity
  8
ASSI
100
AcDbLine
 62
7
  6
CONTINUOUS
 10
-0.0
 20
-10.99109375
 11
0.0
 21
38.00890625
  0
LINE
  5
325
100
AcDbEntity
  8
ASSI
100
AcDbLine
 62
250
  6
CONTINUOUS
 10
16.8845123958
 20
29.442245976
 11
16.8221852509
 21
29.3431668583
  0
LINE
  5
326
100
AcDbEntity
  8
ASSI
100
AcDbLine
 62
250
  6
CONTINUOUS
 10
16.9311640121
 20
29.5154889723
 11
16.8845123958
 21
29.442245976
  0
LINE
  5
327
100
AcDbEntity
  8
ASSI
100
AcDbLine
 62
250
  6
CONTINUOUS
 10
16.9767013167
 20
29.5862431778
 11
16.9311640121
 21
29.5154889723
  0
LINE
  5
328
100
AcDbEntity
  8
ASSI
100
AcDbLine
 62
250
  6
CONTINUOUS
 10
-16.9326731319
 20
29.5178393248
 11
-16.9767014163
 21
29.5862427816
  0
LINE
  5
329
100
AcDbEntity
  8
ASSI
100
AcDbLine
 62
250
  6
CONTINUOUS
 10
-16.8863070295
 20
29.4450692283
 11
-16.9326731319
 21
29.5178393248
  0
LINE
  5
32A
100
AcDbEntity
  8
ASSI
100
AcDbLine
 62
250
  6
CONTINUOUS
 10
-16.8465275949
 20
29.3820271119
 11
-16.8863070295
 21
29.4450692283
  0
LINE
  5
32B
100
AcDbEntity
  8
ASSI
100
AcDbLine
 62
250
  6
CONTINUOUS
 10
-16.7998650428
 20
29.3073371549
 11
-16.8465275949
 21
29.3820271119
  0
LINE
  5
32C
100
AcDbEntity
  8
ASSI
100
AcDbLine
 62
250
  6
CONTINUOUS
 10
-16.7465489343
 20
29.2209749248
 11
-16.7998650428
 21
29.3073371549
  0
LINE
  5
32D
100
AcDbEntity
  8
ASSI
100
AcDbLine
 62
250
  6
CONTINUOUS
 10
-16.6868117163
 20
29.1229260448
 11
-16.7465489343
 21
29.2209749248
  0
LINE
  5
32E
100
AcDbEntity
  8
ASSI
100
AcDbLine
 62
250
  6
CONTINUOUS
 10
-16.6209529028
 20
29.0131746795
 11
-16.6868117163
 21
29.1229260448
  0
LWPOLYLINE
  5
32F
100
AcDbEntity
  8
ASSI
100
AcDbPolyline
 62
250
  6
CONTINUOUS
 90
7
 70
0
 10
-16.3471852318
 20
28.5368302493
 10
-16.3900659109
 20
28.6136615029
 10
-16.4317490865
 20
28.687564241
 10
-16.4722015689
 20
28.7585394306
 10
-16.5114048639
 20
28.826589325
 10
-16.5493079451
 20
28.8917134984
 10
-16.6209529028
 20
29.0131746795
  0
LWPOLYLINE
  5
330
100
AcDbEntity
  8
0
100
AcDbPolyline
 62
7
  6
CONTINUOUS
 90
2
 70
0
 43
0.3500000006
 10
1.0000000219
 20
46.7589054565
 10
1.0000000219
 20
48.2589059143
  0
LINE
  5
331
100
AcDbEntity
  8
ASSI
100
AcDbLine
 62
7
  6
CONTINUOUS
 10
5.3
 20
37.20890625
 11
5.3
 21
36.6391790614
  0
LWPOLYLINE
  5
332
100
AcDbEntity
  8
ASSI
100
AcDbPolyline
 62
250
  6
CONTINUOUS
 90
111
 70
0
 10
16.4721164212
 20
28.7584327731
 10
16.432258628
 20
28.6885329206
 10
16.3912313219
 20
28.6157848803
 10
16.3490309913
 20
28.5401329789
 10
16.305725649
 20
28.461630991
 10
16.2614728812
 20
28.3804422052
 10
16.2163361281
 20
28.2965587169
 10
16.1703491963
 20
28.2099864749
 10
16.1236525928
 20
28.1209096362
 10
16.0763240777
 20
28.0293403629
 10
16.0284029115
 20
27.9352645326
 10
15.9799891351
 20
27.8388269739
 10
15.9311505137
 20
27.7400240751
 10
15.8819419848
 20
27.6388574782
 10
15.8324542604
 20
27.5354799939
 10
15.7827573205
 20
27.4298914872
 10
15.7329074859
 20
27.3220901567
 10
15.6829820221
 20
27.2122264298
 10
15.6330528804
 20
27.1003095301
 10
15.5831749071
 20
26.9863283593
 10
15.533403207
 20
26.8704029739
 10
15.4838044971
 20
26.7525423637
 10
15.4344348679
 20
26.6327357168
 10
15.385333696
 20
26.5110734797
 10
15.3365605953
 20
26.3875593136
 10
15.2881723686
 20
26.2621877734
 10
15.2402028791
 20
26.135035723
 10
15.1927082383
 20
26.0061086656
 10
15.1457422076
 20
25.875399354
 10
15.0993332634
 20
25.7429655899
 10
15.0535320454
 20
25.6088090569
 10
15.0083908005
 20
25.4729263557
 10
14.9639384009
 20
25.3353677172
 10
14.9202184613
 20
25.1961189858
 10
14.877283617
 20
25.0551926253
 10
14.8351754164
 20
24.9126788718
 10
14.793939065
 20
24.768567147
 10
14.7536214823
 20
24.6228664239
 10
14.7142673629
 20
24.4756963847
 10
14.6759254714
 20
24.3270656938
 10
14.6386359661
 20
24.1769642199
 10
14.6024309379
 20
24.0254835765
 10
14.5673564788
 20
23.8726440774
 10
14.5334506953
 20
23.7184240536
 10
14.5007324837
 20
23.5628522175
 10
14.4692366562
 20
23.4059169704
 10
14.4390058965
 20
23.2476285798
 10
14.4100694989
 20
23.0880486144
 10
14.382461582
 20
22.9271614689
 10
14.3562205546
 20
22.7649814974
 10
14.3313818786
 20
22.6016153139
 10
14.3079813671
 20
22.4370614976
 10
14.2860518625
 20
22.2713203667
 10
14.2656244961
 20
22.1045012814
 10
14.2467330922
 20
21.9366080422
 10
14.2294082164
 20
21.7676358988
 10
14.2136759339
 20
21.5976815179
 10
14.1995667167
 20
21.426748478
 10
14.1871096941
 20
21.2548323888
 10
14.1763284117
 20
21.0820180827
 10
14.1672502558
 20
20.9082842205
 10
14.1599022445
 20
20.7336514443
 10
14.1543070619
 20
20.5582677085
 10
14.1504928012
 20
20.3821221867
 10
14.148481248
 20
20.2052252169
 10
14.1482855967
 20
20.0277567096
 10
14.149931447
 20
19.8497281847
 10
14.1534383042
 20
19.6711278852
 10
14.1588098332
 20
19.4921010125
 10
14.1660699769
 20
19.3126264213
 10
14.175234135
 20
19.1327252009
 10
14.1862925544
 20
18.9526061256
 10
14.1992691811
 20
18.7722528412
 10
14.2141738097
 20
18.591681913
 10
14.230974923
 20
18.4111517784
 10
14.2496927774
 20
18.2306668702
 10
14.2703350266
 20
18.0502232869
 10
14.2928504935
 20
17.8700672624
 10
14.3172558259
 20
17.6902018859
 10
14.3435559093
 20
17.5106248782
 10
14.3716808979
 20
17.3315746973
 10
14.4016425862
 20
17.1530599421
 10
14.4334441437
 20
16.9750730757
 10
14.4670016377
 20
16.7978286008
 10
14.5023159348
 20
16.6213599658
 10
14.5393945572
 20
16.4456349947
 10
14.5781622609
 20
16.2707699235
 10
14.6186128798
 20
16.0967928352
 10
14.6607542622
 20
15.9236769942
 10
14.704530733
 20
15.7514564746
 10
14.7499489961
 20
15.5800966403
 10
14.7969972742
 20
15.409633437
 10
14.8455909671
 20
15.2402068863
 10
14.8957228341
 20
15.0718305076
 10
14.9473891649
 20
14.9044921912
 10
15.0005097975
 20
14.7382936193
 10
15.0550659572
 20
14.5732654759
 10
15.111059783
 20
14.4093785262
 10
15.1684415183
 20
14.2466446108
 10
15.2272019227
 20
14.0850535179
 10
15.2873276147
 20
13.9246168408
 10
15.3487616245
 20
13.7653791359
 10
15.4114900917
 20
13.6073387205
 10
15.4754986459
 20
13.4504986357
 10
15.5407287332
 20
13.2949105485
 10
15.6071659959
 20
13.1405697378
 10
15.6747911059
 20
12.9874822597
 10
15.7435374234
 20
12.8357159788
 10
15.8133700425
 20
12.6852939698
 10
15.8842852055
 20
12.5361944872
 10
15.9562619868
 20
12.3884181754
  0
LINE
  5
333
100
AcDbEntity
  8
ASSI
100
AcDbLine
 62
250
  6
CONTINUOUS
 10
16.5484779131
 20
28.8902613963
 11
16.4721164212
 21
28.7584327731
  0
LINE
  5
334
100
AcDbEntity
  8
ASSI
100
AcDbLine
 62
250
  6
CONTINUOUS
 10
16.6197426939
 20
29.0111343252
 11
16.5484779131
 21
28.8902613963
  0
LINE
  5
335
100
AcDbEntity
  8
ASSI
100
AcDbLine
 62
250
  6
CONTINUOUS
 10
16.6853124624
 20
29.1204391912
 11
16.6197426939
 21
29.0111343252
  0
LINE
  5
336
100
AcDbEntity
  8
ASSI
100
AcDbLine
 62
250
  6
CONTINUOUS
 10
16.7448297848
 20
29.2181858711
 11
16.6853124624
 21
29.1204391912
  0
LWPOLYLINE
  5
337
100
AcDbEntity
  8
ASSI
100
AcDbPolyline
 62
250
  6
CONTINUOUS
 90
3
 70
0
 10
16.8221852509
 20
29.3431668583
 10
16.7980360795
 20
29.304387037
 10
16.7448297848
 20
29.2181858711
  0
LWPOLYLINE
  5
338
100
AcDbEntity
  8
ASSI
100
AcDbPolyline
 62
7
  6
CONTINUOUS
 90
16
 70
0
 10
15.9562619868
 20
12.3884181754
 10
15.954538061
 20
12.3866049491
 10
15.9526488533
 20
12.3849207
 10
15.9505942736
 20
12.3833654288
 10
15.9483689279
 20
12.3819194755
 10
15.9459780061
 20
12.380602501
 10
15.9434373065
 20
12.3794734872
 10
15.9407472162
 20
12.3785439308
 10
15.9379071619
 20
12.3778023361
 10
15.9349315341
 20
12.3772731968
 10
15.9318211935
 20
12.3769627272
 10
15.9285751042
 20
12.3768647134
 10
15.9252048361
 20
12.3769850066
 10
15.921714195
 20
12.3773255571
 10
15.9180992087
 20
12.3778844145
 10
15.8786613283
 20
12.3860542403
  0
LINE
  5
339
100
AcDbEntity
  8
ASSI
100
AcDbLine
 62
250
  6
CONTINUOUS
 10
20.5825582261
 20
6.3019543006
 11
20.5247085566
 21
6.2998559874
  0
LINE
  5
33A
100
AcDbEntity
  8
ASSI
100
AcDbLine
 62
250
  6
CONTINUOUS
 10
20.6172948763
 20
6.3030260577
 11
20.5825582261
 21
6.3019543006
  0
LINE
  5
33B
100
AcDbEntity
  8
ASSI
100
AcDbLine
 62
250
  6
CONTINUOUS
 10
20.6488529636
 20
6.3038325123
 11
20.6172948763
 21
6.3030260577
  0
LINE
  5
33C
100
AcDbEntity
  8
ASSI
100
AcDbLine
 62
250
  6
CONTINUOUS
 10
-20.6900387589
 20
6.3045421056
 11
-20.6634127317
 21
6.3041342587
  0
LINE
  5
33D
100
AcDbEntity
  8
ASSI
100
AcDbLine
 62
250
  6
CONTINUOUS
 10
-20.6634127317
 20
6.3041342587
 11
-20.6334765825
 21
6.3034626906
  0
LINE
  5
33E
100
AcDbEntity
  8
ASSI
100
AcDbLine
 62
250
  6
CONTINUOUS
 10
-20.6334765825
 20
6.3034626906
 11
-20.6003171902
 21
6.3025255518
  0
LWPOLYLINE
  5
33F
100
AcDbEntity
  8
ASSI
100
AcDbPolyline
 62
250
  6
CONTINUOUS
 90
3
 70
0
 10
-20.6003171902
 20
6.3025255518
 10
-20.544743766
 20
6.3006094288
 10
-20.5247085566
 20
6.2998559874
  0
LINE
  5
340
100
AcDbEntity
  8
ASSI
100
AcDbLine
 62
7
  6
CONTINUOUS
 10
6.05
 20
35.7104702804
 11
6.05
 21
34.8843847815
  0
LWPOLYLINE
  5
341
100
AcDbEntity
  8
ASSI
100
AcDbPolyline
 62
7
  6
CONTINUOUS
 90
25
 70
0
 10
15.9562625333
 20
12.3884186308
 10
15.9738140352
 20
12.4080663539
 10
15.9904710577
 20
12.4275628045
 10
16.0062191438
 20
12.4468916952
 10
16.0210443136
 20
12.4660374914
 10
16.0349339584
 20
12.48498369
 10
16.047876833
 20
12.5037128532
 10
16.0598615571
 20
12.5222096207
 10
16.0708776648
 20
12.5404586203
 10
16.0809164643
 20
12.5584427843
 10
16.0899690107
 20
12.576147508
 10
16.0980273099
 20
12.593558221
 10
16.1050853103
 20
12.6106583616
 10
16.1111365694
 20
12.627434207
 10
16.1161756149
 20
12.6438721014
 10
16.1201990853
 20
12.6599560998
 10
16.1232030807
 20
12.6756734801
 10
16.1251846902
 20
12.6910116039
 10
16.1261432814
 20
12.705955227
 10
16.1260776017
 20
12.7204925615
 10
16.1249872377
 20
12.7346122564
 10
16.1228740655
 20
12.7483003439
 10
16.1197398646
 20
12.7615452622
 10
16.1155863437
 20
12.7743378333
 10
16.1104165483
 20
12.7866682977
  0
LWPOLYLINE
  5
342
100
AcDbEntity
  8
ASSI
100
AcDbPolyline
 62
7
  6
CONTINUOUS
 90
5
 70
0
 10
-15.7723872097
 20
12.3971489663
 10
-15.8076445511
 20
12.3952998596
 10
-15.8430746928
 20
12.3916026584
 10
-15.8786420715
 20
12.3860572423
 10
-15.9180984811
 20
12.3778845647
  0
LINE
  5
343
100
AcDbEntity
  8
ASSI
100
AcDbLine
 62
7
  6
CONTINUOUS
 10
15.5659801514
 20
14.08378925
 11
15.6193360171
 21
14.08378925
  0
LWPOLYLINE
  5
344
100
AcDbEntity
  8
ASSI
100
AcDbPolyline
 62
7
  6
CONTINUOUS
 90
4
 70
0
 10
15.7723845975
 20
12.3971493684
 10
15.8076445146
 20
12.3952998625
 10
15.843082377
 20
12.3916014596
 10
15.8786613283
 20
12.3860542403
  0
LINE
  5
345
100
AcDbEntity
  8
ASSI
100
AcDbLine
 62
7
  6
CONTINUOUS
 10
14.5827112177
 20
18.33399125
 11
14.6329564018
 21
18.33399125
  0
LWPOLYLINE
  5
346
100
AcDbEntity
  8
ASSI
100
AcDbPolyline
 62
250
  6
CONTINUOUS
 90
34
 70
0
 10
20.3357362081
 20
7.1886404968
 10
20.3547507109
 20
7.1713649306
 10
20.3730667469
 20
7.153262869
 10
20.3906546443
 20
7.1343612026
 10
20.4074722083
 20
7.1147008794
 10
20.4235057767
 20
7.0942986609
 10
20.4387690068
 20
7.0731457852
 10
20.4532356091
 20
7.0512727855
 10
20.4668804695
 20
7.0287111915
 10
20.4797184424
 20
7.0054531422
 10
20.4917257141
 20
6.9815312837
 10
20.5028796711
 20
6.9569792706
 10
20.5131963046
 20
6.9317901656
 10
20.5226543297
 20
6.9059985898
 10
20.5312337779
 20
6.8796400911
 10
20.5389518463
 20
6.8527085686
 10
20.5457898233
 20
6.8252404016
 10
20.5517304432
 20
6.7972728385
 10
20.5567921924
 20
6.7688005717
 10
20.5609589478
 20
6.7398614986
 10
20.5642161686
 20
6.7104943475
 10
20.5665837349
 20
6.6806945762
 10
20.5680481072
 20
6.6505012821
 10
20.5685974519
 20
6.6199544497
 10
20.5682531491
 20
6.5890503783
 10
20.5670042168
 20
6.5578290134
 10
20.5648414856
 20
6.5263312978
 10
20.5617879497
 20
6.4945544678
 10
20.5578351117
 20
6.462538723
 10
20.5529763891
 20
6.4303257654
 10
20.5472365641
 20
6.3979143625
 10
20.5406198388
 20
6.3653311835
 10
20.533111541
 20
6.3326313684
 10
20.5247085566
 20
6.2998559874
  0
LINE
  5
347
100
AcDbEntity
  8
ASSI
100
AcDbLine
 62
250
  6
CONTINUOUS
 10
20.5246993406
 20
6.2999815702
 11
21.7480270125
 21
-10.99109375
  0
LINE
  5
348
100
AcDbEntity
  8
0
100
AcDbLine
 62
7
  6
CONTINUOUS
 10
21.9555870782
 20
-10.3622684182
 11
21.9574985249
 21
-10.3893318505
  0
LINE
  5
349
100
AcDbEntity
  8
0
100
AcDbLine
 62
7
  6
CONTINUOUS
 10
21.9728859769
 20
-10.6071968154
 11
22.0
 21
-10.99109375
  0
LINE
  5
34A
100
AcDbEntity
  8
ASSI
100
AcDbLine
 62
7
  6
CONTINUOUS
 10
20.778768029
 20
6.2998559874
 11
22.0
 21
-10.99109375
  0
LINE
  5
34B
100
AcDbEntity
  8
ASSI
100
AcDbLine
 62
7
  6
CONTINUOUS
 10
21.269880405
 20
0.0560804846
 11
21.6291901377
 21
-5.0312466362
  0
LINE
  5
34C
100
AcDbEntity
  8
ASSI
100
AcDbLine
 62
250
  6
CONTINUOUS
 10
17.0337991215
 20
-10.99109375
 11
16.7768995829
 21
-29.9998199532
  0
LWPOLYLINE
  5
34D
100
AcDbEntity
  8
ASSI
100
AcDbPolyline
 62
250
  6
CONTINUOUS
 90
17
 70
0
 10
20.778768029
 20
6.2998559874
 10
20.7782578761
 20
6.3006202414
 10
20.776840259
 20
6.3013198424
 10
20.7745161701
 20
6.3019543006
 10
20.7712872366
 20
6.3025231718
 10
20.7671557188
 20
6.3030260577
 10
20.7621245091
 20
6.3034626065
 10
20.7561971296
 20
6.3038325123
 10
20.7493777298
 20
6.3041355163
 10
20.7416710839
 20
6.3043714063
 10
20.7330825869
 20
6.3045400173
 10
20.7236182514
 20
6.3046412311
 10
20.7132847029
 20
6.3046749769
 10
20.7020891756
 20
6.3046412311
 10
20.6900395071
 20
6.3045400173
 10
20.6771441329
 20
6.3043714063
 10
20.6488529636
 20
6.3038325123
  0
LWPOLYLINE
  5
34E
100
AcDbEntity
  8
ASSI
100
AcDbPolyline
 62
250
  6
CONTINUOUS
 90
37
 70
0
 10
15.9143813794
 20
12.3786582044
 10
15.9977549577
 20
12.2031969541
 10
16.0834415532
 20
12.027890095
 10
16.1714345264
 20
11.852737627
 10
16.261692704
 20
11.6777264976
 10
16.3542433407
 20
11.5028697594
 10
16.4491817575
 20
11.3282065698
 10
16.5465035219
 20
11.153723298
 10
16.6461969288
 20
10.9794335747
 10
16.7483453371
 20
10.8054174497
 10
16.8529346381
 20
10.6316778456
 10
16.9599605067
 20
10.4582118397
 10
17.0695197929
 20
10.285090714
 10
17.1815951459
 20
10.1123178883
 10
17.2961828505
 20
9.9398899428
 10
17.4133987803
 20
9.7678679
 10
17.5332334657
 20
9.5962408676
 10
17.6556722201
 20
9.425019738
 10
17.7808214615
 20
9.2542982113
 10
17.9086725036
 20
9.0840647675
 10
18.0392065262
 20
8.9143309266
 10
18.1725130379
 20
8.7452249486
 10
18.3085650455
 20
8.5767558666
 10
18.4473585401
 20
8.4089146477
 10
18.5890155345
 20
8.2418024522
 10
18.7334947785
 20
8.075435956
 10
18.8808023414
 20
7.9097984833
 10
19.0311285097
 20
7.7449411678
 10
19.1844488663
 20
7.5808542205
 10
19.3407471162
 20
7.4175474303
 10
19.5002222756
 20
7.2551012978
 10
19.6628560606
 20
7.0934936839
 10
19.8286196862
 20
6.9327467278
 10
19.9976925919
 20
6.7730073466
 10
20.1701159319
 20
6.6143245128
 10
20.3457942068
 20
6.456649254
 10
20.5246993406
 20
6.2999815702
  0
LINE
  5
34F
100
AcDbEntity
  8
0
100
AcDbLine
 62
7
  6
CONTINUOUS
 10
21.9728859769
 20
-10.6071968154
 11
21.9728859769
 21
-10.3893318505
  0
LINE
  5
350
100
AcDbEntity
  8
ASSI
100
AcDbLine
 62
250
  6
CONTINUOUS
 10
21.747432639
 20
-10.99109375
 11
21.4150692686
 21
-29.9998199532
  0
LINE
  5
351
100
AcDbEntity
  8
0
100
AcDbLine
 62
7
  6
CONTINUOUS
 10
21.9755620937
 20
-12.3911404618
 11
21.6682014499
 21
-29.9998199532
  0
LINE
  5
352
100
AcDbEntity
  8
0
100
AcDbLine
 62
7
  6
CONTINUOUS
 10
21.9978135022
 20
-10.99109375
 11
21.9728859769
 21
-12.39109375
  0
LINE
  5
353
100
AcDbEntity
  8
ASSI
100
AcDbLine
 62
7
  6
CONTINUOUS
 10
16.9767014091
 20
29.5862428103
 11
16.516430199
 21
31.3747237449
  0
LINE
  5
354
100
AcDbEntity
  8
ASSI
100
AcDbLine
 62
250
  6
CONTINUOUS
 10
-16.516430199
 20
31.3747237449
 11
16.516430199
 21
31.3747237449
  0
LINE
  5
355
100
AcDbEntity
  8
ASSI
100
AcDbLine
 62
250
  6
CONTINUOUS
 10
-14.2249326041
 20
33.5483204028
 11
14.2249326041
 21
33.5483204028
  0
LINE
  5
356
100
AcDbEntity
  8
ASSI
100
AcDbLine
 62
250
  6
CONTINUOUS
 10
-6.1867426942
 20
34.7349717839
 11
6.1867426942
 21
34.7349717839
  0
LINE
  5
357
100
AcDbEntity
  8
ASSI
100
AcDbLine
 62
250
  6
CONTINUOUS
 10
-6.05
 20
34.8843847815
 11
6.05
 21
34.8843847815
  0
LINE
  5
358
100
AcDbEntity
  8
ASSI
100
AcDbLine
 62
250
  6
CONTINUOUS
 10
6.05
 20
35.7104702804
 11
-6.05
 21
35.7104702804
  0
LINE
  5
359
100
AcDbEntity
  8
ASSI
100
AcDbLine
 62
250
  6
CONTINUOUS
 10
5.4184210526
 20
36.4925408329
 11
-5.4184210526
 21
36.4925408329
  0
LINE
  5
35A
100
AcDbEntity
  8
ASSI
100
AcDbLine
 62
250
  6
CONTINUOUS
 10
5.3
 20
36.6391790614
 11
-5.3
 21
36.6391790615
  0
LINE
  5
35B
100
AcDbEntity
  8
ASSI
100
AcDbLine
 62
250
  6
CONTINUOUS
 10
5.3
 20
37.20890625
 11
-5.3
 21
37.20890625
  0
LINE
  5
35C
100
AcDbEntity
  8
ASSI
100
AcDbLine
 62
7
  6
CONTINUOUS
 10
4.5
 20
38.00890625
 11
-4.5
 21
38.00890625
  0
LWPOLYLINE
  5
35D
100
AcDbEntity
  8
0
100
AcDbPolyline
 62
7
  6
CONTINUOUS
 90
3
 70
0
 43
0.3500000006
 10
1.5000000329
 20
47.401763443
 10
-0.0
 20
47.401763443
 10
0.6428571367
 20
49.7589063721
  0
LWPOLYLINE
  5
35E
100
AcDbEntity
  8
0
100
AcDbPolyline
 62
7
  6
CONTINUOUS
 90
3
 70
0
 43
0.3500000006
 10
-0.8571428254
 20
47.401763443
 10
-2.3571427875
 20
47.401763443
 10
-1.7142856507
 20
49.7589063721
  0
ARC
  5
35F
100
AcDbEntity
  8
ASSI
100
AcDbCircle
 62
7
  6
CONTINUOUS
 10
-207.3122203947
 20
-10.99109375
 40
166.4
100
AcDbArc
 50
0.0
 51
14.7500189828
  0
ARC
  5
360
100
AcDbEntity
  8
ASSI
100
AcDbCircle
 62
7
  6
CONTINUOUS
 10
-84.0804979971
 20
-29.99109375
 40
0.5
100
AcDbArc
 50
181.0
 51
270.0
  0
ARC
  5
361
100
AcDbEntity
  8
ASSI
100
AcDbCircle
 62
7
  6
CONTINUOUS
 10
-76.52751303
 20
30.6109169391
 40
3.0
100
AcDbArc
 50
101.7249286284
 51
165.2499810172
  0
ARC
  5
362
100
AcDbEntity
  8
ASSI
100
AcDbCircle
 62
7
  6
CONTINUOUS
 10
-67.4122203947
 20
37.20890625
 40
0.8
100
AcDbArc
 50
90.0
 51
180.0
  0
ARC
  5
363
100
AcDbEntity
  8
ASSI
100
AcDbCircle
 62
7
  6
CONTINUOUS
 10
-68.1622203947
 20
35.7104702804
 40
0.8
100
AcDbArc
 50
102.153197469
 51
180.0000001108
  0
ARC
  5
364
100
AcDbEntity
  8
ASSI
100
AcDbCircle
 62
7
  6
CONTINUOUS
 10
-69.1122203947
 20
34.8843847815
 40
0.15
100
AcDbArc
 50
275.0705337744
 51
360.0
  0
ARC
  5
365
100
AcDbEntity
  8
ASSI
100
AcDbCircle
 62
7
  6
CONTINUOUS
 10
-68.3622203947
 20
36.6391790614
 40
0.15
100
AcDbArc
 50
282.153197469
 51
360.0
  0
ARC
  5
366
100
AcDbEntity
  8
ASSI
100
AcDbCircle
 62
7
  6
CONTINUOUS
 10
81.4877796053
 20
-10.99109375
 40
166.4
100
AcDbArc
 50
165.2499810172
 51
180.0
  0
ARC
  5
367
100
AcDbEntity
  8
ASSI
100
AcDbCircle
 62
7
  6
CONTINUOUS
 10
-62.9122203947
 20
-34.99109375
 40
70.0
100
AcDbArc
 50
78.2750713716
 51
84.9294662257
  0
ARC
  5
368
100
AcDbEntity
  8
ASSI
100
AcDbCircle
 62
7
  6
CONTINUOUS
 10
-62.9122203947
 20
-34.99109375
 40
70.0
100
AcDbArc
 50
95.0705337743
 51
101.7249286284
  0
ARC
  5
369
100
AcDbEntity
  8
ASSI
100
AcDbCircle
 62
7
  6
CONTINUOUS
 10
-41.7439427924
 20
-29.99109375
 40
0.5
100
AcDbArc
 50
270.0
 51
359.0
  0
ARC
  5
36A
100
AcDbEntity
  8
ASSI
100
AcDbCircle
 62
7
  6
CONTINUOUS
 10
-49.2969277594
 20
30.6109169391
 40
3.0
100
AcDbArc
 50
14.7500189828
 51
78.2750713716
  0
ARC
  5
36B
100
AcDbEntity
  8
ASSI
100
AcDbCircle
 62
7
  6
CONTINUOUS
 10
-55.2643883947
 20
17.03058825
 40
1.303416637
100
AcDbArc
 50
292.8428913314
 51
90.0
  0
ARC
  5
36C
100
AcDbEntity
  8
ASSI
100
AcDbCircle
 62
7
  6
CONTINUOUS
 10
-57.6622203947
 20
35.7104702804
 40
0.8
100
AcDbArc
 50
359.9999998892
 51
77.846802531
  0
ARC
  5
36D
100
AcDbEntity
  8
ASSI
100
AcDbCircle
 62
7
  6
CONTINUOUS
 10
-58.4122203947
 20
37.20890625
 40
0.8
100
AcDbArc
 50
0.0
 51
90.0
  0
ARC
  5
36E
100
AcDbEntity
  8
ASSI
100
AcDbCircle
 62
7
  6
CONTINUOUS
 10
-55.3823713947
 20
17.03058825
 40
0.51713
100
AcDbArc
 50
270.0
 51
90.0
  0
ARC
  5
36F
100
AcDbEntity
  8
ASSI
100
AcDbCircle
 62
7
  6
CONTINUOUS
 10
-56.7122203947
 20
34.8843847815
 40
0.15
100
AcDbArc
 50
180.0
 51
264.9294662256
  0
ARC
  5
370
100
AcDbEntity
  8
ASSI
100
AcDbCircle
 62
7
  6
CONTINUOUS
 10
-57.4622203947
 20
36.6391790614
 40
0.15
100
AcDbArc
 50
180.0
 51
257.846802531
  0
ARC
  5
371
100
AcDbEntity
  8
ASSI
100
AcDbCircle
 62
7
  6
CONTINUOUS
 10
-0.0
 20
-34.99109375
 40
70.0
100
AcDbArc
 50
95.0705337743
 51
101.7249286284
  0
ARC
  5
372
100
AcDbEntity
  8
ASSI
100
AcDbCircle
 62
7
  6
CONTINUOUS
 10
-0.0
 20
-34.99109375
 40
70.0
100
AcDbArc
 50
78.2750713716
 51
84.9294662257
  0
ARC
  5
373
100
AcDbEntity
  8
ASSI
100
AcDbCircle
 62
7
  6
CONTINUOUS
 10
-21.1682776023
 20
-29.99109375
 40
0.5
100
AcDbArc
 50
181.0
 51
270.0
  0
ARC
  5
374
100
AcDbEntity
  8
ASSI
100
AcDbCircle
 62
7
  6
CONTINUOUS
 10
21.1682776023
 20
-29.99109375
 40
0.5
100
AcDbArc
 50
270.0
 51
359.0
  0
ARC
  5
375
100
AcDbEntity
  8
ASSI
100
AcDbCircle
 62
7
  6
CONTINUOUS
 10
-31.5
 20
20.00890625
 40
17.0
100
AcDbArc
 50
311.0503048193
 51
30.3996660711
  0
ARC
  5
376
100
AcDbEntity
  8
ASSI
100
AcDbCircle
 62
7
  6
CONTINUOUS
 10
31.5
 20
20.00890625
 40
17.0
100
AcDbArc
 50
149.6003366084
 51
228.9496951807
  0
ARC
  5
377
100
AcDbEntity
  8
ASSI
100
AcDbCircle
 62
7
  6
CONTINUOUS
 10
31.5
 20
20.00890625
 40
16.95
100
AcDbArc
 50
185.6709395485
 51
200.4606757091
  0
ARC
  5
378
100
AcDbEntity
  8
ASSI
100
AcDbCircle
 62
7
  6
CONTINUOUS
 10
-13.6152926353
 20
30.6109169391
 40
3.0
100
AcDbArc
 50
101.7249286284
 51
165.2499810172
  0
ARC
  5
379
100
AcDbEntity
  8
ASSI
100
AcDbCircle
 62
7
  6
CONTINUOUS
 10
13.6152926353
 20
30.6109169391
 40
3.0
100
AcDbArc
 50
14.7500189828
 51
78.2750713716
  0
ARC
  5
37A
100
AcDbEntity
  8
ASSI
100
AcDbCircle
 62
7
  6
CONTINUOUS
 10
15.7159454997
 20
29.2692323027
 40
1.3000000292
100
AcDbArc
 50
329.6003341001
 51
14.1141279946
  0
ARC
  5
37B
100
AcDbEntity
  8
ASSI
100
AcDbCircle
 62
7
  6
CONTINUOUS
 10
-19.4819983887
 20
6.2082672333
 40
1.3
100
AcDbArc
 50
131.0503048193
 51
175.96
  0
ARC
  5
37C
100
AcDbEntity
  8
ASSI
100
AcDbCircle
 62
7
  6
CONTINUOUS
 10
19.4819983887
 20
6.2082672333
 40
1.3
100
AcDbArc
 50
4.04
 51
48.9496951807
  0
ARC
  5
37D
100
AcDbEntity
  8
ASSI
100
AcDbCircle
 62
7
  6
CONTINUOUS
 10
-5.25
 20
35.7104702804
 40
0.8
100
AcDbArc
 50
102.153197469
 51
180.0
  0
ARC
  5
37E
100
AcDbEntity
  8
ASSI
100
AcDbCircle
 62
7
  6
CONTINUOUS
 10
-4.5
 20
37.20890625
 40
0.8
100
AcDbArc
 50
90.0
 51
180.0
  0
ARC
  5
37F
100
AcDbEntity
  8
ASSI
100
AcDbCircle
 62
7
  6
CONTINUOUS
 10
5.25
 20
35.7104702804
 40
0.8
100
AcDbArc
 50
0.0
 51
77.846802531
  0
ARC
  5
380
100
AcDbEntity
  8
ASSI
100
AcDbCircle
 62
7
  6
CONTINUOUS
 10
4.5
 20
37.20890625
 40
0.8
100
AcDbArc
 50
0.0
 51
90.0
  0
ARC
  5
381
100
AcDbEntity
  8
ASSI
100
AcDbCircle
 62
7
  6
CONTINUOUS
 10
-6.2
 20
34.8843847815
 40
0.15
100
AcDbArc
 50
275.0705337743
 51
360.0
  0
ARC
  5
382
100
AcDbEntity
  8
ASSI
100
AcDbCircle
 62
7
  6
CONTINUOUS
 10
-5.45
 20
36.6391790615
 40
0.15
100
AcDbArc
 50
282.153197469
 51
360.0
  0
ARC
  5
383
100
AcDbEntity
  8
ASSI
100
AcDbCircle
 62
7
  6
CONTINUOUS
 10
6.2
 20
34.8843847815
 40
0.15
100
AcDbArc
 50
180.0
 51
264.9294662257
  0
ARC
  5
384
100
AcDbEntity
  8
ASSI
100
AcDbCircle
 62
7
  6
CONTINUOUS
 10
5.45
 20
36.6391790614
 40
0.15
100
AcDbArc
 50
180.0
 51
257.846802531
  0
ARC
  5
385
100
AcDbEntity
  8
ASSI
100
AcDbCircle
 62
7
  6
CONTINUOUS
 10
144.4
 20
-10.99109375
 40
166.4
100
AcDbArc
 50
165.2499810172
 51
165.8858702075
  0
ELLIPSE
  5
386
100
AcDbEntity
  8
0
100
AcDbEllipse
 62
7
  6
CONTINUOUS
 10
-143.9187153873
 20
21.561719518
 30
0.0
 11
148.2
 21
-0.0
 31
0.0
 40
0.2679491924
 41
5.348169807
 42
5.3486265356
  0
ELLIPSE
  5
387
100
AcDbEntity
  8
0
100
AcDbEllipse
 62
7
  6
CONTINUOUS
 10
18.0942745978
 20
20.8216299918
 30
0.0
 11
145.9224965316
 21
-0.0
 31
0.0
 40
0.2679971882
 41
4.0645721044
 42
4.0657550988
  0
ENDSEC
  0
SECTION
  2
OBJECTS
  0
DICTIONARY
  5
C
100
AcDbDictionary
280
0
281
1
  3
ACAD_GROUP
350
D
  3
ACAD_MLINESTYLE
350
17
  3
ACAD_LAYOUT
350
1A
  3
ACAD_PLOTSETTINGS
350
19
  3
ACAD_PLOTSTYLENAME
350
E
  0
DICTIONARY
  5
D
102
{ACAD_REACTORS
330
C
102
}
100
AcDbDictionary
280
0
281
1
  0
ACDBDICTIONARYWDFLT
  5
E
102
{ACAD_REACTORS
330
C
102
}
100
AcDbDictionary
281
1
  3
Normal
350
F
100
AcDbDictionaryWithDefault
340
F
  0
DICTIONARY
  5
17
102
{ACAD_REACTORS
330
C
102
}
100
AcDbDictionary
280
0
281
1
  3
Standard
350
18
  0
DICTIONARY
  5
19
102
{ACAD_REACTORS
330
C
102
}
100
AcDbDictionary
281
1
  0
DICTIONARY
  5
1A
102
{ACAD_REACTORS
330
C
102
}
100
AcDbDictionary
281
1
  3
Model
350
388
  3
Layout1
350
389
  0
ACDBPLACEHOLDER
  5
F
102
{ACAD_REACTORS
330
E
102
}
  0
MLINESTYLE
  5
18
102
{ACAD_REACTORS
330
17
102
}
100
AcDbMlineStyle
  2
STANDARD
 70
0
  3

 62
256
 51
90.0
 52
90.0
 71
2
 49
0.5
 62
256
  6
BYLAYER
 49
-0.5
 62
256
  6
BYLAYER
  0
LAYOUT
  5
388
102
{ACAD_REACTORS
330
1A
102
}
100
AcDbPlotSettings
  1

  2
none_device
  4
ISO_A4_(297.00_x_210.00_MM)
  6

 40
0.0
 41
0.0
 42
0.0
 43
0.0
 44
297.0
 45
210.0
 46
0.0
 47
0.0
 48
0.0
 49
0.0
140
0.0
141
0.0
142
1.0
143
1.0
 70
1024
 72
1
 73
0
 74
0
  7

 75
0
147
1.0
148
0.0
149
0.0
100
AcDbLayout
  1
Model
 70
0
 71
0
 10
0.0
 20
0.0
 11
297.0
 21
210.0
 12
0.0
 22
0.0
 32
0.0
 14
0.0
 24
0.0
 34
0.0
 15
0.0
 25
0.0
 35
0.0
146
0.0
 13
0.0
 23
0.0
 33
0.0
 16
1.0
 26
0.0
 36
0.0
 17
0.0
 27
1.0
 37
0.0
 76
0
330
226
345
0
346
0
  0
LAYOUT
  5
389
102
{ACAD_REACTORS
330
1A
102
}
100
AcDbPlotSettings
  1

  2
none_device
  4
ISO_A4_(297.00_x_210.00_MM)
  6

 40
0.0
 41
0.0
 42
0.0
 43
0.0
 44
297.0
 45
210.0
 46
0.0
 47
0.0
 48
0.0
 49
0.0
140
0.0
141
0.0
142
1.0
143
1.0
 70
0
 72
1
 73
0
 74
0
  7

 75
0
147
1.0
148
0.0
149
0.0
100
AcDbLayout
  1
Layout1
 70
0
 71
1
 10
0.0
 20
0.0
 11
297.0
 21
210.0
 12
0.0
 22
0.0
 32
0.0
 14
0.0
 24
0.0
 34
0.0
 15
0.0
 25
0.0
 35
0.0
146
0.0
 13
0.0
 23
0.0
 33
0.0
 16
1.0
 26
0.0
 36
0.0
 17
0.0
 27
1.0
 37
0.0
 76
0
330
227
345
0
346
0
  0
ENDSEC
  0
EOF
