  0
SECTION
  2
HEADER
  9
$ACADVER
  1
AC1024
  9
$DWGCODEPAGE
  3
ANSI_1252
  9
$EXTMAX
 10
558.8
 20
431.8
 30
0.0
  9
$EXTMIN
 10
0.0
 20
0.0
 30
0.0
  9
$LIMMIN
 10
0.0
 20
0.0
  9
$LIMMAX
 10
558.8
 20
431.8
  9
$VIEWCTR
 10
279.4
 20
215.9
  9
$VIEWSIZE
 40
431.8
  9
$CLAYER
  8
0
  9
$LTSCALE
 40
30.734
  9
$CELTYPE
  6
BYLAYER
  9
$DIMSCALE
 40
1.0
  9
$DIMASZ
 40
3.0
  9
$DIMEXO
 40
0.5
  9
$DIMDLI
 40
21.2344
  9
$DIMEXE
 40
1.5
  9
$DIMCEN
 40
5.0292
  9
$DIMLFAC
 40
1.0
  9
$DIMBLK
  1
_FILLED
  9
$DIMALT
 70
0
  9
$DIMALTF
 40
0.0393700787
  9
$DIMTXT
 40
3.0
  9
$DIMTOL
 70
1
  9
$DIMLIM
 70
0
  9
$DIMTFAC
 40
1.0
  9
$DIMTP
 40
0.01
  9
$DIMTM
 40
0.01
  9
$DIMGAP
 40
0.625
  9
$DIMDSEP
 70
44
  9
$AUNITS
 70
0
  9
$PDMODE
 70
3
  9
$PDSIZE
 40
3.0
  9
$HANDSEED
  5
46B
  9
$TILEMODE
 70
1
  9
$MEASUREMENT
 70
1
  9
$INSUNITS
 70
4
  0
ENDSEC
  0
SECTION
  2
CLASSES
  0
CLASS
  1
ACDBDICTIONARYWDFLT
  2
AcDbDictionaryWithDefault
  3
AutoCAD 2000
 90
0
 91
1
280
0
281
0
  0
CLASS
  1
ACDBPLACEHOLDER
  2
AcDbPlaceHolder
  3
AutoCAD 2000
 90
0
 91
1
280
0
281
0
  0
CLASS
  1
LAYOUT
  2
AcDbLayout
  3
AutoCAD 2000
 90
0
 91
0
280
0
281
0
  0
ENDSEC
  0
SECTION
  2
TABLES
  0
TABLE
  2
VPORT
  5
8
100
AcDbSymbolTable
 70
2
  0
VPORT
  5
1F4
100
AcDbSymbolTableRecord
100
AcDbViewportTableRecord
  2
*ACTIVE
 70
0
 10
0.0
 20
0.0
 11
1.0
 21
1.0
 12
279.4
 22
215.9
 13
0.0
 23
0.0
 14
1.0
 24
1.0
 15
0.0
 25
0.0
 16
0.0
 26
0.0
 36
1.0
 17
0.0
 27
0.0
 37
0.0
 40
431.8
 41
1.2941176471
 42
50.0
 43
0.0
 44
0.0
 50
0.0
 51
0.0
 71
0
 72
100
 73
1
 74
1
 75
0
 76
0
 77
0
 78
0
  0
ENDTAB
  0
TABLE
  2
LTYPE
  5
5
100
AcDbSymbolTable
 70
6
  0
LTYPE
  5
14
100
AcDbSymbolTableRecord
100
AcDbLinetypeTableRecord
  2
BYBLOCK
 70
0
  3

 72
65
 73
0
 40
0.0
  0
LTYPE
  5
15
100
AcDbSymbolTableRecord
100
AcDbLinetypeTableRecord
  2
BYLAYER
 70
0
  3

 72
65
 73
0
 40
0.0
  0
LTYPE
  5
16
100
AcDbSymbolTableRecord
100
AcDbLinetypeTableRecord
  2
CONTINUOUS
 70
64
  3
Solid line
 72
65
 73
0
 40
0.0
  0
LTYPE
  5
1F5
100
AcDbSymbolTableRecord
100
AcDbLinetypeTableRecord
  2
CENTER
 70
64
  3
____ _ ____ _ ____ _ ____ _ ____ _ ____ _ ____
 72
65
 73
4
 40
0.6
 49
0.375
 74
0
 49
-0.075
 74
0
 49
0.075
 74
0
 49
-0.075
 74
0
  0
LTYPE
  5
1F6
100
AcDbSymbolTableRecord
100
AcDbLinetypeTableRecord
  2
HIDDEN
 70
64
  3
- - - - - - - - - - - - - - - - - - - -
 72
65
 73
2
 40
0.2
 49
0.1
 74
0
 49
-0.1
 74
0
  0
LTYPE
  5
1F7
100
AcDbSymbolTableRecord
100
AcDbLinetypeTableRecord
  2
PHANTOM
 70
64
  3
_____ _ _ _____ _ _ _____ _ _ _____
 72
65
 73
6
 40
0.8
 49
0.45
 74
0
 49
-0.05
 74
0
 49
0.1
 74
0
 49
-0.05
 74
0
 49
0.1
 74
0
 49
-0.05
 74
0
  0
LTYPE
  5
1F8
100
AcDbSymbolTableRecord
100
AcDbLinetypeTableRecord
  2
DOT
 70
64
  3
. . . . . . . . . . . . . . . . . . . .
 72
65
 73
2
 40
0.2
 49
0.1
 74
0
 49
-0.1
 74
0
  0
LTYPE
  5
1F9
100
AcDbSymbolTableRecord
100
AcDbLinetypeTableRecord
  2
DASHED
 70
64
  3
- - - - - - - - - - - - - - - - - - - -
 72
65
 73
2
 40
0.2
 49
0.1
 74
0
 49
-0.1
 74
0
  0
ENDTAB
  0
TABLE
  2
LAYER
  5
2
100
AcDbSymbolTable
 70
36
  0
LAYER
  5
10
100
AcDbSymbolTableRecord
100
AcDbLayerTableRecord
  2
0
 70
0
 62
7
  6
CONTINUOUS
370
-3
390
F
  0
LAYER
  5
1FA
100
AcDbSymbolTableRecord
100
AcDbLayerTableRecord
  2
DEFAULT_1
 70
0
 62
7
  6
CENTER
370
-3
390
F
  0
LAYER
  5
1FB
100
AcDbSymbolTableRecord
100
AcDbLayerTableRecord
  2
DEFAULT_2
 70
0
 62
7
  6
HIDDEN
370
-3
390
F
  0
LAYER
  5
1FC
100
AcDbSymbolTableRecord
100
AcDbLayerTableRecord
  2
DEFAULT_3
 70
0
 62
7
  6
PHANTOM
370
-3
390
F
  0
LAYER
  5
1FD
100
AcDbSymbolTableRecord
100
AcDbLayerTableRecord
  2
ASSI
 70
0
 62
7
  6
CONTINUOUS
370
-3
390
F
  0
LAYER
  5
1FE
100
AcDbSymbolTableRecord
100
AcDbLayerTableRecord
  2
COORDINATE
 70
0
 62
7
  6
CONTINUOUS
370
-3
390
F
  0
LAYER
  5
1FF
100
AcDbSymbolTableRecord
100
AcDbLayerTableRecord
  2
COORD_ORIGINE
 70
0
 62
7
  6
CONTINUOUS
370
-3
390
F
  0
LAYER
  5
200
100
AcDbSymbolTableRecord
100
AcDbLayerTableRecord
  2
COPY-PUBBLISH
 70
0
 62
7
  6
CONTINUOUS
370
-3
390
F
  0
LAYER
  5
201
100
AcDbSymbolTableRecord
100
AcDbLayerTableRecord
  2
CURVE
 70
0
 62
7
  6
CONTINUOUS
370
-3
390
F
  0
LAYER
  5
202
100
AcDbSymbolTableRecord
100
AcDbLayerTableRecord
  2
DRAFT
 70
0
 62
7
  6
CONTINUOUS
370
-3
390
F
  0
LAYER
  5
203
100
AcDbSymbolTableRecord
100
AcDbLayerTableRecord
  2
INTF_1
 70
0
 62
7
  6
CONTINUOUS
370
-3
390
F
  0
LAYER
  5
204
100
AcDbSymbolTableRecord
100
AcDbLayerTableRecord
  2
INTF_11
 70
0
 62
7
  6
CONTINUOUS
370
-3
390
F
  0
LAYER
  5
205
100
AcDbSymbolTableRecord
100
AcDbLayerTableRecord
  2
INTF_2
 70
0
 62
7
  6
CONTINUOUS
370
-3
390
F
  0
LAYER
  5
206
100
AcDbSymbolTableRecord
100
AcDbLayerTableRecord
  2
INTF_3
 70
0
 62
7
  6
CONTINUOUS
370
-3
390
F
  0
LAYER
  5
207
100
AcDbSymbolTableRecord
100
AcDbLayerTableRecord
  2
NOTE
 70
0
 62
7
  6
CONTINUOUS
370
-3
390
F
  0
LAYER
  5
208
100
AcDbSymbolTableRecord
100
AcDbLayerTableRecord
  2
PIANI
 70
0
 62
7
  6
CONTINUOUS
370
-3
390
F
  0
LAYER
  5
209
100
AcDbSymbolTableRecord
100
AcDbLayerTableRecord
  2
PIANI-RIFERIMENTO
 70
0
 62
7
  6
CONTINUOUS
370
-3
390
F
  0
LAYER
  5
20A
100
AcDbSymbolTableRecord
100
AcDbLayerTableRecord
  2
PIANI_ORIGINE
 70
0
 62
7
  6
CONTINUOUS
370
-3
390
F
  0
LAYER
  5
20B
100
AcDbSymbolTableRecord
100
AcDbLayerTableRecord
  2
PUNTI
 70
0
 62
7
  6
CONTINUOUS
370
-3
390
F
  0
LAYER
  5
20C
100
AcDbSymbolTableRecord
100
AcDbLayerTableRecord
  2
RACCORDO
 70
0
 62
7
  6
CONTINUOUS
370
-3
390
F
  0
LAYER
  5
20D
100
AcDbSymbolTableRecord
100
AcDbLayerTableRecord
  2
SMUSSO
 70
0
 62
7
  6
CONTINUOUS
370
-3
390
F
  0
LAYER
  5
20E
100
AcDbSymbolTableRecord
100
AcDbLayerTableRecord
  2
SNAPLINE
 70
0
 62
7
  6
CONTINUOUS
370
-3
390
F
  0
LAYER
  5
20F
100
AcDbSymbolTableRecord
100
AcDbLayerTableRecord
  2
SUPERFICI
 70
0
 62
7
  6
CONTINUOUS
370
-3
390
F
  0
LAYER
  5
210
100
AcDbSymbolTableRecord
100
AcDbLayerTableRecord
  2
TRASH
 70
0
 62
7
  6
CONTINUOUS
370
-3
390
F
  0
LAYER
  5
211
100
AcDbSymbolTableRecord
100
AcDbLayerTableRecord
  2
XSEC_DATUMS
 70
0
 62
7
  6
CONTINUOUS
370
-3
390
F
  0
ENDTAB
  0
TABLE
  2
STYLE
  5
3
100
AcDbSymbolTable
 70
1
  0
STYLE
  5
11
100
AcDbSymbolTableRecord
100
AcDbTextStyleTableRecord
  2
STANDARD
 70
0
 40
0.0
 41
0.8
 50
0.0
 71
0
 42
0.2
  3
txt
  4

  0
STYLE
  5
212
100
AcDbSymbolTableRecord
100
AcDbTextStyleTableRecord
  2
TEXTSTYLE_1
 70
0
 40
0.0
 41
0.8
 50
0.0
 71
0
 42
0.2
  3
gdt
  4

  0
ENDTAB
  0
TABLE
  2
VIEW
  5
6
100
AcDbSymbolTable
 70
0
  0
ENDTAB
  0
TABLE
  2
UCS
  5
7
100
AcDbSymbolTable
 70
0
  0
ENDTAB
  0
TABLE
  2
APPID
  5
9
100
AcDbSymbolTable
 70
1
  0
APPID
  5
213
100
AcDbSymbolTableRecord
100
AcDbRegAppTableRecord
  2
ACAD
 70
0
  0
ENDTAB
  0
TABLE
  2
BLOCK_RECORD
  5
1
100
AcDbSymbolTable
 70
0
  0
BLOCK_RECORD
  5
214
100
AcDbSymbolTableRecord
100
AcDbBlockTableRecord
  2
*Model_Space
  0
BLOCK_RECORD
  5
215
100
AcDbSymbolTableRecord
100
AcDbBlockTableRecord
  2
*Paper_Space
  0
BLOCK_RECORD
  5
216
100
AcDbSymbolTableRecord
100
AcDbBlockTableRecord
  2
_FILLED
  0
BLOCK_RECORD
  5
217
100
AcDbSymbolTableRecord
100
AcDbBlockTableRecord
  2
*D0
  0
BLOCK_RECORD
  5
218
100
AcDbSymbolTableRecord
100
AcDbBlockTableRecord
  2
*D1
  0
BLOCK_RECORD
  5
219
100
AcDbSymbolTableRecord
100
AcDbBlockTableRecord
  2
*D2
  0
BLOCK_RECORD
  5
21A
100
AcDbSymbolTableRecord
100
AcDbBlockTableRecord
  2
*D3
  0
ENDTAB
  0
TABLE
  2
DIMSTYLE
  5
A
100
AcDbSymbolTable
 70
1
100
AcDbDimStyleTable
 71
0
  0
DIMSTYLE
105
21B
100
AcDbSymbolTableRecord
100
AcDbDimStyleTableRecord
  2
STANDARD
 70
0
  3

  4

 40
1.0
 41
3.0
 42
0.5
 43
0.38
 44
1.5
 45
0.0
 46
0.0
 47
0.01
 48
0.01
140
3.0
141
0.09
142
0.0
143
25.4
144
1.0
145
0.0
146
1.0
147
0.625
 71
1
 72
0
 73
0
 74
0
 75
0
 76
0
 77
1
 78
8
 79
2
170
0
171
1
172
0
173
0
174
0
175
0
176
0
177
0
178
0
270
2
179
2
271
2
272
2
273
2
274
2
275
0
280
0
281
0
282
0
283
1
284
8
285
0
286
0
287
3
288
0
340
11
278
44
341
216
342
216
343
216
344
216
  0
DIMSTYLE
105
21C
100
AcDbSymbolTableRecord
100
AcDbDimStyleTableRecord
  2
DIMSTYLE_1
 70
0
  3

  4

 40
1.0
 41
3.0
 42
0.5
 43
0.38
 44
1.5
 45
0.0
 46
0.0
 47
0.0
 48
0.0
140
3.0
141
0.09
142
0.0
143
25.4
144
1.0
145
0.0
146
1.0
147
0.75
 71
0
 72
0
 73
0
 74
0
 75
0
 76
0
 77
1
 78
8
 79
2
170
0
171
1
172
0
173
0
174
0
175
0
176
0
177
0
178
0
270
2
179
2
271
1
272
1
273
2
274
2
275
0
280
0
281
0
282
0
283
1
284
8
285
0
286
0
287
3
288
0
340
11
278
44
341
216
342
216
343
216
344
216
  0
DIMSTYLE
105
21D
100
AcDbSymbolTableRecord
100
AcDbDimStyleTableRecord
  2
DIMSTYLE_2
 70
0
  3

  4

 40
1.0
 41
3.0
 42
0.5
 43
0.38
 44
1.5
 45
0.0
 46
0.0
 47
0.0
 48
0.0
140
3.0
141
0.09
142
0.0
143
25.4
144
1.0
145
0.0
146
1.0
147
0.75
 71
0
 72
0
 73
0
 74
0
 75
0
 76
0
 77
1
 78
8
 79
2
170
0
171
1
172
0
173
0
174
0
175
0
176
0
177
0
178
0
270
2
179
2
271
2
272
2
273
2
274
2
275
0
280
0
281
0
282
0
283
1
284
8
285
0
286
0
287
3
288
0
340
11
278
44
341
216
342
216
343
216
344
216
  0
ENDTAB
  0
ENDSEC
  0
SECTION
  2
BLOCKS
  0
BLOCK
  5
20
100
AcDbEntity
  8
0
100
AcDbBlockBegin
  2
*Model_Space
 70
0
 10
0.0
 20
0.0
 30
0.0
  3
*Model_Space
  1

  0
ENDBLK
  5
21
100
AcDbEntity
  8
0
100
AcDbBlockEnd
  0
BLOCK
  5
1C
100
AcDbEntity
  8
0
100
AcDbBlockBegin
  2
*Paper_Space
 70
0
 10
0.0
 20
0.0
 30
0.0
  3
*Paper_Space
  1

  0
ENDBLK
  5
1D
100
AcDbEntity
  8
0
100
AcDbBlockEnd
  0
BLOCK
  5
21E
100
AcDbEntity
  8
0
100
AcDbBlockBegin
  2
_FILLED
 70
64
 10
0.0
 20
0.0
  3
_FILLED
  1

  0
SOLID
  5
21F
100
AcDbEntity
  8
0
  6
BYBLOCK
 62
0
100
AcDbTrace
 10
0.0
 20
0.0
 11
-1.0
 21
0.3166666667
 12
-1.0
 22
-0.3166666667
 13
-1.0
 23
-0.3166666667
  0
ENDBLK
  5
220
100
AcDbEntity
  8
0
  6
BYBLOCK
 62
0
100
AcDbBlockEnd
  0
BLOCK
  5
221
100
AcDbEntity
  8
0
100
AcDbBlockBegin
 62
7
  6
CONTINUOUS
  2
*D0
 70
65
 10
0.0
 20
0.0
  3
*D0
  1

  0
MTEXT
  5
222
100
AcDbEntity
  8
0
100
AcDbMText
 62
7
  6
CONTINUOUS
  7
STANDARD
 71
2
 72
1
 10
162.1737672728
 20
249.5784693389
 30
0.0
 11
0.0
 21
1.0
 31
0.0
 73
2
 44
0.9
  1
{\ftxt;\W0.0001;\H0.0001;\~}{\ftxt;\W1.5714285714;\H3.0; }{\ftxt;\W0.0001;\H0.0001;\~}
 40
3.0
 41
7.0714285714
  0
LINE
  5
223
100
AcDbEntity
  8
0
100
AcDbLine
 62
7
  6
CONTINUOUS
 10
175.103276477
 20
259.5724543081
 11
164.4237672728
 21
259.5724543081
  0
LINE
  5
224
100
AcDbEntity
  8
0
100
AcDbLine
 62
7
  6
CONTINUOUS
 10
177.0248244325
 20
239.5844843696
 11
164.4237672728
 21
239.5844843696
  0
LINE
  5
225
100
AcDbEntity
  8
0
100
AcDbLine
 62
7
  6
CONTINUOUS
 10
165.9237672728
 20
259.5724543081
 11
165.9237672728
 21
249.5784693389
  0
LINE
  5
226
100
AcDbEntity
  8
0
100
AcDbLine
 62
7
  6
CONTINUOUS
 10
165.9237672728
 20
239.5844843696
 11
165.9237672728
 21
249.5784693389
  0
INSERT
  5
227
100
AcDbEntity
  8
0
100
AcDbBlockReference
 62
7
  6
CONTINUOUS
  2
_FILLED
 10
165.9237672728
 20
259.5724543081
 41
3.0
 42
3.0
 43
3.0
 50
90.0
  0
INSERT
  5
228
100
AcDbEntity
  8
0
100
AcDbBlockReference
 62
7
  6
CONTINUOUS
  2
_FILLED
 10
165.9237672728
 20
239.5844843696
 41
3.0
 42
3.0
 43
3.0
 50
270.0
  0
ENDBLK
  5
229
100
AcDbEntity
  8
0
  6
BYBLOCK
 62
0
100
AcDbBlockEnd
  0
BLOCK
  5
22A
100
AcDbEntity
  8
0
100
AcDbBlockBegin
 62
7
  6
CONTINUOUS
  2
*D1
 70
65
 10
0.0
 20
0.0
  3
*D1
  1

  0
MTEXT
  5
22B
100
AcDbEntity
  8
0
100
AcDbMText
 62
7
  6
CONTINUOUS
  7
STANDARD
 71
2
 72
1
 10
152.1737672728
 20
240.0724543081
 30
0.0
 11
0.0
 21
1.0
 31
0.0
 73
2
 44
0.9
  1
{\ftxt;\W0.0001;\H0.0001;\~}{\ftxt;\W1.5;\H3.0; }{\ftxt;\W0.0001;\H0.0001;\~}
 40
3.0
 41
6.75
  0
LINE
  5
22C
100
AcDbEntity
  8
0
100
AcDbLine
 62
7
  6
CONTINUOUS
 10
175.103276477
 20
259.5724543081
 11
154.4237672728
 21
259.5724543081
  0
LINE
  5
22D
100
AcDbEntity
  8
0
100
AcDbLine
 62
7
  6
CONTINUOUS
 10
180.4067731342
 20
220.5724543081
 11
154.4237672728
 21
220.5724543081
  0
LINE
  5
22E
100
AcDbEntity
  8
0
100
AcDbLine
 62
7
  6
CONTINUOUS
 10
155.9237672728
 20
259.5724543081
 11
155.9237672728
 21
240.0724543081
  0
LINE
  5
22F
100
AcDbEntity
  8
0
100
AcDbLine
 62
7
  6
CONTINUOUS
 10
155.9237672728
 20
220.5724543081
 11
155.9237672728
 21
240.0724543081
  0
INSERT
  5
230
100
AcDbEntity
  8
0
100
AcDbBlockReference
 62
7
  6
CONTINUOUS
  2
_FILLED
 10
155.9237672728
 20
259.5724543081
 41
3.0
 42
3.0
 43
3.0
 50
90.0
  0
INSERT
  5
231
100
AcDbEntity
  8
0
100
AcDbBlockReference
 62
7
  6
CONTINUOUS
  2
_FILLED
 10
155.9237672728
 20
220.5724543081
 41
3.0
 42
3.0
 43
3.0
 50
270.0
  0
ENDBLK
  5
232
100
AcDbEntity
  8
0
  6
BYBLOCK
 62
0
100
AcDbBlockEnd
  0
BLOCK
  5
233
100
AcDbEntity
  8
0
100
AcDbBlockBegin
 62
7
  6
CONTINUOUS
  2
*D2
 70
65
 10
0.0
 20
0.0
  3
*D2
  1

  0
MTEXT
  5
234
100
AcDbEntity
  8
0
100
AcDbMText
 62
7
  6
CONTINUOUS
  7
STANDARD
 71
2
 72
1
 10
195.9237672728
 20
271.5224543081
 30
0.0
 11
1.0
 21
0.0
 31
0.0
 73
2
 44
0.9
  1
{\ftxt;\W0.0001;\H0.0001;\~}{\ftxt;\W1.5714285714;\H3.0; }{\ftxt;\W0.0001;\H0.0001;\~}
 40
3.0
 41
7.0714285714
  0
LINE
  5
235
100
AcDbEntity
  8
0
100
AcDbLine
 62
7
  6
CONTINUOUS
 10
173.9237672728
 20
254.0724543081
 11
173.9237672728
 21
269.2724543081
  0
LINE
  5
236
100
AcDbEntity
  8
0
100
AcDbLine
 62
7
  6
CONTINUOUS
 10
217.9237672728
 20
254.0724543081
 11
217.9237672728
 21
269.2724543081
  0
LINE
  5
237
100
AcDbEntity
  8
0
100
AcDbLine
 62
7
  6
CONTINUOUS
 10
173.9237672728
 20
267.7724543081
 11
195.9237672728
 21
267.7724543081
  0
LINE
  5
238
100
AcDbEntity
  8
0
100
AcDbLine
 62
7
  6
CONTINUOUS
 10
217.9237672728
 20
267.7724543081
 11
195.9237672728
 21
267.7724543081
  0
INSERT
  5
239
100
AcDbEntity
  8
0
100
AcDbBlockReference
 62
7
  6
CONTINUOUS
  2
_FILLED
 10
173.9237672728
 20
267.7724543081
 41
3.0
 42
3.0
 43
3.0
 50
180.0
  0
INSERT
  5
23A
100
AcDbEntity
  8
0
100
AcDbBlockReference
 62
7
  6
CONTINUOUS
  2
_FILLED
 10
217.9237672728
 20
267.7724543081
 41
3.0
 42
3.0
 43
3.0
  0
ENDBLK
  5
23B
100
AcDbEntity
  8
0
  6
BYBLOCK
 62
0
100
AcDbBlockEnd
  0
BLOCK
  5
23C
100
AcDbEntity
  8
0
100
AcDbBlockBegin
 62
7
  6
CONTINUOUS
  2
*D3
 70
65
 10
0.0
 20
0.0
  3
*D3
  1

  0
MTEXT
  5
23D
100
AcDbEntity
  8
0
100
AcDbMText
 62
7
  6
CONTINUOUS
  7
STANDARD
 71
2
 72
1
 10
277.6033544104
 20
271.5224543081
 30
0.0
 11
1.0
 21
0.0
 31
0.0
 73
2
 44
0.9
  1
{\ftxt;\W0.0001;\H0.0001;\~}{\ftxt;\W2.8571428571;\H3.0; }{\ftxt;\W0.0001;\H0.0001;\~}
 40
3.0
 41
12.8571428571
  0
LINE
  5
23E
100
AcDbEntity
  8
0
100
AcDbLine
 62
7
  6
CONTINUOUS
 10
258.9283544104
 20
254.0724543081
 11
258.9283544104
 21
269.2724543081
  0
LINE
  5
23F
100
AcDbEntity
  8
0
100
AcDbLine
 62
7
  6
CONTINUOUS
 10
296.2783544104
 20
254.0724543081
 11
296.2783544104
 21
269.2724543081
  0
LINE
  5
240
100
AcDbEntity
  8
0
100
AcDbLine
 62
7
  6
CONTINUOUS
 10
258.9283544104
 20
267.7724543081
 11
277.6033544104
 21
267.7724543081
  0
LINE
  5
241
100
AcDbEntity
  8
0
100
AcDbLine
 62
7
  6
CONTINUOUS
 10
296.2783544104
 20
267.7724543081
 11
277.6033544104
 21
267.7724543081
  0
INSERT
  5
242
100
AcDbEntity
  8
0
100
AcDbBlockReference
 62
7
  6
CONTINUOUS
  2
_FILLED
 10
258.9283544104
 20
267.7724543081
 41
3.0
 42
3.0
 43
3.0
 50
180.0
  0
INSERT
  5
243
100
AcDbEntity
  8
0
100
AcDbBlockReference
 62
7
  6
CONTINUOUS
  2
_FILLED
 10
296.2783544104
 20
267.7724543081
 41
3.0
 42
3.0
 43
3.0
  0
ENDBLK
  5
244
100
AcDbEntity
  8
0
  6
BYBLOCK
 62
0
100
AcDbBlockEnd
  0
ENDSEC
  0
SECTION
  2
ENTITIES
  0
DIMENSION
  5
245
100
AcDbEntity
  8
0
100
AcDbDimension
 62
7
  6
CONTINUOUS
  2
*D0
 10
165.9237672728
 20
239.5844843696
 11
165.9237672728
 21
249.1498966784
 70
160
 71
2
 72
2
 41
0.9
 42
19.9879699385
  1
{\ftxt;\W0.0001;\H0.0001;\~}{\ftxt;\W1.5714285714;\H3.0; }{\ftxt;\W0.0001;\H0.0001;\~}
  3
DIMSTYLE_1
100
AcDbAlignedDimension
 13
175.603276477
 23
259.5724543081
 14
177.5248244325
 24
239.5844843696
 50
270.0
100
AcDbRotatedDimension
  0
DIMENSION
  5
246
100
AcDbEntity
  8
0
100
AcDbDimension
 62
7
  6
CONTINUOUS
  2
*D1
 10
155.9237672728
 20
220.5724543081
 11
155.9237672728
 21
239.6438863944
 70
160
 71
2
 72
2
 41
0.9
 42
39.0
  1
{\ftxt;\W0.0001;\H0.0001;\~}{\ftxt;\W1.5;\H3.0; }{\ftxt;\W0.0001;\H0.0001;\~}
  3
DIMSTYLE_2
100
AcDbAlignedDimension
 13
175.603276477
 23
259.5724543081
 14
180.9067731342
 24
220.5724543081
 50
270.0
100
AcDbRotatedDimension
  0
DIMENSION
  5
247
100
AcDbEntity
  8
0
100
AcDbDimension
 62
7
  6
CONTINUOUS
  2
*D2
 10
217.9237672728
 20
267.7724543081
 11
195.4951943237
 21
267.7724543081
 70
160
 71
2
 72
2
 41
0.9
 42
44.0
  1
{\ftxt;\W0.0001;\H0.0001;\~}{\ftxt;\W1.5714285714;\H3.0; }{\ftxt;\W0.0001;\H0.0001;\~}
  3
DIMSTYLE_2
100
AcDbAlignedDimension
 13
173.9237672728
 23
253.5724543081
 14
217.9237672728
 24
253.5724543081
100
AcDbRotatedDimension
  0
DIMENSION
  5
248
100
AcDbEntity
  8
0
100
AcDbDimension
 62
7
  6
CONTINUOUS
  2
*D3
 10
296.2783544104
 20
267.7724543081
 11
277.1747846619
 21
267.7724543081
 70
160
 71
2
 72
2
 41
0.9
 42
37.35
  1
{\ftxt;\W0.0001;\H0.0001;\~}{\ftxt;\W2.8571428571;\H3.0; }{\ftxt;\W0.0001;\H0.0001;\~}
  3
DIMSTYLE_1
100
AcDbAlignedDimension
 13
258.9283544104
 23
253.5724543081
 14
296.2783544104
 24
253.5724543081
100
AcDbRotatedDimension
  0
LWPOLYLINE
  5
249
100
AcDbEntity
  8
0
100
AcDbPolyline
 62
7
  6
CONTINUOUS
 90
6
 70
0
 43
0.3500000087
 10
155.1737702271
 20
237.8224463745
 10
155.1737702271
 20
238.8938833008
 10
154.9594794312
 20
239.1081740967
 10
153.8880595581
 20
239.1081740967
 10
153.4594779663
 20
238.6795925049
 10
153.4594779663
 20
238.2510279663
  0
LWPOLYLINE
  5
24A
100
AcDbEntity
  8
RACCORDO
100
AcDbPolyline
 62
250
  6
CONTINUOUS
 90
12
 70
0
 10
175.1368319564
 20
259.4878833696
 10
175.0451609327
 20
259.4413745719
 10
174.9587469413
 20
259.3855558911
 10
174.8785158544
 20
259.321025369
 10
174.8053273039
 20
259.2484743922
 10
174.7399654692
 20
259.1686802857
 10
174.6831306691
 20
259.0824979776
 10
174.6354318648
 20
258.9908508462
 10
174.5973801342
 20
258.8947208316
 10
174.5693831896
 20
258.7951379027
 10
174.5517410115
 20
258.6931690204
 10
174.5446426371
 20
258.5899067145
  0
LINE
  5
24B
100
AcDbEntity
  8
RACCORDO
100
AcDbLine
 62
250
  6
CONTINUOUS
 10
175.2327778171
 20
259.5245839917
 11
175.1368319564
 21
259.4878833696
  0
LWPOLYLINE
  5
24C
100
AcDbEntity
  8
0
100
AcDbPolyline
 62
7
  6
CONTINUOUS
 90
5
 70
0
 43
0.3500000087
 10
153.4594779663
 20
238.6795925049
 10
153.2452042236
 20
239.036738147
 10
152.6023318359
 20
239.036738147
 10
152.1737672974
 20
238.6795925049
 10
152.1737672974
 20
237.8224463745
  0
LWPOLYLINE
  5
24D
100
AcDbEntity
  8
0
100
AcDbPolyline
 62
7
  6
CONTINUOUS
 90
7
 70
0
 43
0.3500000087
 10
165.1737629395
 20
248.7213315063
 10
165.1737629395
 20
247.2213300415
 10
163.0309061401
 20
248.7213315063
 10
162.6023416016
 20
248.7213315063
 10
162.1737600098
 20
248.2927499146
 10
162.1737600098
 20
247.6498945801
 10
162.8166323975
 20
247.2213300415
  0
LWPOLYLINE
  5
24E
100
AcDbEntity
  8
RACCORDO
100
AcDbPolyline
 62
250
  6
CONTINUOUS
 90
3
 70
0
 10
174.7103282941
 20
247.520402227
 10
174.7240492168
 20
247.5488596155
 10
174.7421030951
 20
247.5777474168
  0
LWPOLYLINE
  5
24F
100
AcDbEntity
  8
RACCORDO
100
AcDbPolyline
 62
250
  6
CONTINUOUS
 90
7
 70
0
 10
174.7870106729
 20
247.5485930278
 10
174.7968904822
 20
247.5657806855
 10
174.8071562876
 20
247.5830726766
 10
174.817809093
 20
247.6004620483
 10
174.828849743
 20
247.6179417032
 10
174.8402789198
 20
247.6355044003
 10
174.85209714
 20
247.6531427564
  0
LINE
  5
250
100
AcDbEntity
  8
RACCORDO
100
AcDbLine
 62
250
  6
CONTINUOUS
 10
174.7044077545
 20
247.5829675667
 11
174.7215839629
 21
247.6110792562
  0
LINE
  5
251
100
AcDbEntity
  8
RACCORDO
100
AcDbLine
 62
250
  6
CONTINUOUS
 10
174.7263971449
 20
247.4789850881
 11
174.7425148566
 21
247.5012269505
  0
LINE
  5
252
100
AcDbEntity
  8
RACCORDO
100
AcDbLine
 62
250
  6
CONTINUOUS
 10
174.7215839629
 20
247.6110792562
 11
174.7430890089
 21
247.6392382625
  0
LINE
  5
253
100
AcDbEntity
  8
RACCORDO
100
AcDbLine
 62
250
  6
CONTINUOUS
 10
174.7421030951
 20
247.5777474168
 11
174.764382125
 21
247.6067155909
  0
LWPOLYLINE
  5
254
100
AcDbEntity
  8
RACCORDO
100
AcDbPolyline
 62
250
  6
CONTINUOUS
 90
4
 70
0
 10
174.685819995
 20
247.5814828876
 10
174.7007903313
 20
247.6004094546
 10
174.7199281356
 20
247.6197097514
 10
174.7430890089
 20
247.6392382625
  0
LINE
  5
255
100
AcDbEntity
  8
RACCORDO
100
AcDbLine
 62
250
  6
CONTINUOUS
 10
174.7425148566
 20
247.5012269505
 11
174.7627785751
 21
247.5243893936
  0
LINE
  5
256
100
AcDbEntity
  8
RACCORDO
100
AcDbLine
 62
250
  6
CONTINUOUS
 10
174.7627785751
 20
247.5243893936
 11
174.7870274193
 21
247.5482888605
  0
LINE
  5
257
100
AcDbEntity
  8
0
100
AcDbLine
 62
7
  6
CONTINUOUS
 10
184.0237672728
 20
203.3724543081
 11
188.8237672728
 21
203.3724543081
  0
LINE
  5
258
100
AcDbEntity
  8
0
100
AcDbLine
 62
7
  6
CONTINUOUS
 10
203.0237672728
 20
203.3724543081
 11
207.8237672728
 21
203.3724543081
  0
LWPOLYLINE
  5
259
100
AcDbEntity
  8
RACCORDO
100
AcDbPolyline
 62
250
  6
CONTINUOUS
 90
3
 70
0
 10
174.6960532481
 20
247.4663586139
 10
174.7009722484
 20
247.4928293726
 10
174.7103282941
 20
247.520402227
  0
LWPOLYLINE
  5
25A
100
AcDbEntity
  8
RACCORDO
100
AcDbPolyline
 62
250
  6
CONTINUOUS
 90
7
 70
0
 10
174.7648871832
 20
247.6069233756
 10
174.7783006945
 20
247.6144977202
 10
174.7921614384
 20
247.6221234973
 10
174.8064705853
 20
247.6298008087
 10
174.8212290449
 20
247.6375297529
 10
174.8364374583
 20
247.6453104253
 10
174.8520961903
 20
247.6531429175
  0
LWPOLYLINE
  5
25B
100
AcDbEntity
  8
RACCORDO
100
AcDbPolyline
 62
7
  6
CONTINUOUS
 90
7
 70
0
 10
173.9526918095
 20
251.9159327394
 10
173.952831001
 20
251.9090138734
 10
173.9545054561
 20
251.8663283294
 10
173.9575790988
 20
251.8237477404
 10
173.962045964
 20
251.7813178275
 10
173.9678985981
 20
251.7390840197
 10
173.975128076
 20
251.6970913819
  0
LINE
  5
25C
100
AcDbEntity
  8
DRAFT
100
AcDbLine
 62
7
  6
CONTINUOUS
 10
173.9237672728
 20
253.5724543081
 11
173.9526819673
 21
251.9159325734
  0
LINE
  5
25D
100
AcDbEntity
  8
RACCORDO
100
AcDbLine
 62
250
  6
CONTINUOUS
 10
174.4612422938
 20
253.5724543081
 11
174.5446426371
 21
258.5899067145
  0
LINE
  5
25E
100
AcDbEntity
  8
RACCORDO
100
AcDbLine
 62
250
  6
CONTINUOUS
 10
174.7526655074
 20
253.5724543081
 11
174.8369459253
 21
258.5899067145
  0
LINE
  5
25F
100
AcDbEntity
  8
DRAFT
100
AcDbLine
 62
7
  6
CONTINUOUS
 10
174.0113472303
 20
258.5899067145
 11
173.9237672728
 21
253.5724543081
  0
LWPOLYLINE
  5
260
100
AcDbEntity
  8
RACCORDO
100
AcDbPolyline
 62
250
  6
CONTINUOUS
 90
4
 70
0
 10
174.6668812802
 20
247.5283523946
 10
174.6688012577
 20
247.5453179561
 10
174.675130082
 20
247.5630727692
 10
174.685819995
 20
247.5814828876
  0
LWPOLYLINE
  5
261
100
AcDbEntity
  8
0
100
AcDbPolyline
 62
7
  6
CONTINUOUS
 90
10
 70
0
 43
0.3500000087
 10
155.1737702271
 20
240.3938847656
 10
154.3166240967
 20
241.251030896
 10
153.4594779663
 20
241.4653046387
 10
152.6023318359
 20
241.4653046387
 10
152.1737672974
 20
241.0367401001
 10
152.1737672974
 20
240.3938847656
 10
152.6023318359
 20
239.9653031738
 10
153.4594779663
 20
239.9653031738
 10
153.8880595581
 20
240.3938847656
 10
153.8880595581
 20
241.3224497925
  0
LWPOLYLINE
  5
262
100
AcDbEntity
  8
RACCORDO
100
AcDbPolyline
 62
250
  6
CONTINUOUS
 90
5
 70
0
 10
174.6804516585
 20
247.478074424
 10
174.6795950487
 20
247.5027394994
 10
174.6833701581
 20
247.5284511855
 10
174.6916622861
 20
247.555264817
 10
174.7044077545
 20
247.5829675667
  0
LINE
  5
263
100
AcDbEntity
  8
RACCORDO
100
AcDbLine
 62
250
  6
CONTINUOUS
 10
174.852096195
 20
247.6531426352
 11
174.7526655042
 21
253.5724543081
  0
LINE
  5
264
100
AcDbEntity
  8
RACCORDO
100
AcDbLine
 62
250
  6
CONTINUOUS
 10
174.5474925053
 20
248.3835580158
 11
174.461242294
 21
253.5724543081
  0
LWPOLYLINE
  5
265
100
AcDbEntity
  8
RACCORDO
100
AcDbPolyline
 62
250
  6
CONTINUOUS
 90
13
 70
0
 10
177.5310314498
 20
239.7540128895
 10
177.5291568549
 20
239.7395606427
 10
177.5275806519
 20
239.7248814368
 10
177.5262872845
 20
239.7100904784
 10
177.5252598989
 20
239.6953023305
 10
177.5244841153
 20
239.6806000931
 10
177.5239470526
 20
239.6660344579
 10
177.5236311071
 20
239.6516819828
 10
177.523520572
 20
239.6376013764
 10
177.5236025516
 20
239.6238014707
 10
177.5238597047
 20
239.6103145172
 10
177.5242726025
 20
239.5971975591
 10
177.5246427193
 20
239.5883034606
  0
LWPOLYLINE
  5
266
100
AcDbEntity
  8
RACCORDO
100
AcDbPolyline
 62
250
  6
CONTINUOUS
 90
5
 70
0
 10
177.5543881022
 20
239.8646765443
 10
177.5450914097
 20
239.816028709
 10
177.5410463451
 20
239.795947794
 10
177.5373722705
 20
239.7788448321
 10
177.5340451154
 20
239.7648320569
  0
LINE
  5
267
100
AcDbEntity
  8
RACCORDO
100
AcDbLine
 62
250
  6
CONTINUOUS
 10
177.5340451154
 20
239.7648320569
 11
177.5310402948
 21
239.7540217352
  0
LWPOLYLINE
  5
268
100
AcDbEntity
  8
RACCORDO
100
AcDbPolyline
 62
250
  6
CONTINUOUS
 90
5
 70
0
 10
174.580867188
 20
247.9946691833
 10
174.5697645767
 20
248.0827817709
 10
174.5596148901
 20
248.1835697528
 10
174.5522052084
 20
248.2838612932
 10
174.547492163
 20
248.3835589528
  0
LINE
  5
269
100
AcDbEntity
  8
RACCORDO
100
AcDbLine
 62
250
  6
CONTINUOUS
 10
174.6683504657
 20
247.5161976442
 11
174.6668812802
 21
247.5283523946
  0
LWPOLYLINE
  5
26A
100
AcDbEntity
  8
RACCORDO
100
AcDbPolyline
 62
7
  6
CONTINUOUS
 90
18
 70
0
 10
177.9199670952
 20
221.5567469908
 10
177.9247451187
 20
221.4714491672
 10
177.9368937074
 20
221.3874308303
 10
177.9564128613
 20
221.3046919801
 10
177.9836523582
 20
221.2222875558
 10
178.0182624202
 20
221.1411626182
 10
178.0591937139
 20
221.0641523498
 10
178.1064530433
 20
220.9918189111
 10
178.1600336043
 20
220.9236001417
 10
178.2188656508
 20
220.8606447424
 10
178.2829601313
 20
220.8029841947
 10
178.3523060974
 20
220.7505870172
 10
178.425800957
 20
220.7045074661
 10
178.5040397721
 20
220.6647397201
 10
178.5864274808
 20
220.6312896005
 10
178.6700763055
 20
220.6052288275
 10
178.7540236538
 20
220.5869146411
 10
178.8392321181
 20
220.5759898013
  0
LINE
  5
26B
100
AcDbEntity
  8
RACCORDO
100
AcDbLine
 62
7
  6
CONTINUOUS
 10
177.5234845173
 20
239.6111469681
 11
177.5248237781
 21
239.5844864317
  0
LINE
  5
26C
100
AcDbEntity
  8
RACCORDO
100
AcDbLine
 62
7
  6
CONTINUOUS
 10
177.5252369684
 20
239.5714795176
 11
177.524661682
 21
239.5873109442
  0
LINE
  5
26D
100
AcDbEntity
  8
RACCORDO
100
AcDbLine
 62
7
  6
CONTINUOUS
 10
177.5252141361
 20
239.5726298507
 11
177.5252461121
 21
239.5714798794
  0
LINE
  5
26E
100
AcDbEntity
  8
RACCORDO
100
AcDbLine
 62
7
  6
CONTINUOUS
 10
177.5255694263
 20
239.5563667981
 11
177.5255102964
 21
239.5585214553
  0
LINE
  5
26F
100
AcDbEntity
  8
RACCORDO
100
AcDbLine
 62
7
  6
CONTINUOUS
 10
177.5252461121
 20
239.5714798794
 11
177.5255699975
 21
239.5563668071
  0
LINE
  5
270
100
AcDbEntity
  8
RACCORDO
100
AcDbLine
 62
7
  6
CONTINUOUS
 10
177.8083047678
 20
221.5567469908
 11
177.5255102964
 21
239.5585214553
  0
LINE
  5
271
100
AcDbEntity
  8
RACCORDO
100
AcDbLine
 62
7
  6
CONTINUOUS
 10
177.6929697987
 20
236.5724543081
 11
177.9199670952
 21
221.5567469908
  0
LWPOLYLINE
  5
272
100
AcDbEntity
  8
RACCORDO
100
AcDbPolyline
 62
250
  6
CONTINUOUS
 90
3
 70
0
 10
174.617743434
 20
248.01254822
 10
174.6020401457
 20
248.0753164949
 10
174.5879046123
 20
248.1380164103
  0
LINE
  5
273
100
AcDbEntity
  8
RACCORDO
100
AcDbLine
 62
250
  6
CONTINUOUS
 10
174.6859691496
 20
247.4545578459
 11
174.6804516585
 21
247.478074424
  0
LINE
  5
274
100
AcDbEntity
  8
RACCORDO
100
AcDbLine
 62
7
  6
CONTINUOUS
 10
174.6523763069
 20
247.5882392962
 11
174.6683427423
 21
247.5161962715
  0
LWPOLYLINE
  5
275
100
AcDbEntity
  8
RACCORDO
100
AcDbPolyline
 62
250
  6
CONTINUOUS
 90
5
 70
0
 10
174.5879046123
 20
248.1380164103
 10
174.5753867742
 20
248.2002324622
 10
174.5644921155
 20
248.2618256598
 10
174.555197508
 20
248.322933824
 10
174.5474925329
 20
248.3835563582
  0
LINE
  5
276
100
AcDbEntity
  8
RACCORDO
100
AcDbLine
 62
250
  6
CONTINUOUS
 10
173.9526818597
 20
251.915938753
 11
174.0040683032
 21
251.6473977542
  0
LINE
  5
277
100
AcDbEntity
  8
RACCORDO
100
AcDbLine
 62
7
  6
CONTINUOUS
 10
173.975128076
 20
251.6970913819
 11
174.034950761
 21
251.377631311
  0
LINE
  5
278
100
AcDbEntity
  8
RACCORDO
100
AcDbLine
 62
250
  6
CONTINUOUS
 10
174.0040683032
 20
251.6473977542
 11
174.0738339475
 21
251.2738453877
  0
LINE
  5
279
100
AcDbEntity
  8
RACCORDO
100
AcDbLine
 62
7
  6
CONTINUOUS
 10
174.0350561167
 20
251.3770572435
 11
174.0912448733
 21
251.0697323991
  0
LINE
  5
27A
100
AcDbEntity
  8
RACCORDO
100
AcDbLine
 62
250
  6
CONTINUOUS
 10
174.0738339475
 20
251.2738453877
 11
174.1357605261
 21
250.9330341373
  0
LINE
  5
27B
100
AcDbEntity
  8
RACCORDO
100
AcDbLine
 62
7
  6
CONTINUOUS
 10
174.0910389914
 20
251.0708680483
 11
174.1640639053
 21
250.6601469486
  0
LWPOLYLINE
  5
27C
100
AcDbEntity
  8
RACCORDO
100
AcDbPolyline
 62
250
  6
CONTINUOUS
 90
9
 70
0
 10
174.1357605261
 20
250.9330341373
 10
174.2095851171
 20
250.5148029998
 10
174.2507240994
 20
250.2749106166
 10
174.2946285659
 20
250.0136387957
 10
174.3411550857
 20
249.7313011349
 10
174.3898814969
 20
249.4271945363
 10
174.4405489614
 20
249.1010846339
 10
174.4931301465
 20
248.7532057938
 10
174.5474925053
 20
248.3835580158
  0
LINE
  5
27D
100
AcDbEntity
  8
RACCORDO
100
AcDbLine
 62
7
  6
CONTINUOUS
 10
174.1637284692
 20
250.66206464
 11
174.2061570397
 21
250.4171031629
  0
LINE
  5
27E
100
AcDbEntity
  8
RACCORDO
100
AcDbLine
 62
7
  6
CONTINUOUS
 10
174.2057461868
 20
250.4194953081
 11
174.2516432424
 21
250.1489403694
  0
LINE
  5
27F
100
AcDbEntity
  8
RACCORDO
100
AcDbLine
 62
7
  6
CONTINUOUS
 10
174.2511543082
 20
250.151856336
 11
174.3002804679
 21
249.8554362507
  0
LINE
  5
280
100
AcDbEntity
  8
RACCORDO
100
AcDbLine
 62
7
  6
CONTINUOUS
 10
174.2997085777
 20
249.8589312103
 11
174.351693594
 21
249.536992082
  0
LINE
  5
281
100
AcDbEntity
  8
RACCORDO
100
AcDbLine
 62
7
  6
CONTINUOUS
 10
174.3510366047
 20
249.5411156385
 11
174.4054861429
 21
249.1940632551
  0
LINE
  5
282
100
AcDbEntity
  8
RACCORDO
100
AcDbLine
 62
7
  6
CONTINUOUS
 10
174.4047454993
 20
249.1988561143
 11
174.4613529495
 21
248.8264075291
  0
LINE
  5
283
100
AcDbEntity
  8
RACCORDO
100
AcDbLine
 62
7
  6
CONTINUOUS
 10
174.4605331985
 20
248.8318955361
 11
174.5184097318
 21
248.4375268595
  0
LWPOLYLINE
  5
284
100
AcDbEntity
  8
RACCORDO
100
AcDbPolyline
 62
250
  6
CONTINUOUS
 90
5
 70
0
 10
177.5967403374
 20
239.5088817525
 10
177.6039327833
 20
239.4584913894
 10
177.6091083194
 20
239.4078294954
 10
177.6122588191
 20
239.3569756214
 10
177.6133793355
 20
239.3060096198
  0
LWPOLYLINE
  5
285
100
AcDbEntity
  8
RACCORDO
100
AcDbPolyline
 62
7
  6
CONTINUOUS
 90
6
 70
0
 10
174.5179994794
 20
248.440435874
 10
174.5856949341
 20
247.9604373798
 10
174.6001148336
 20
247.8661759075
 10
174.6160624771
 20
247.772675717
 10
174.63349507
 20
247.6800224489
 10
174.6523763069
 20
247.5882392962
  0
LINE
  5
286
100
AcDbEntity
  8
RACCORDO
100
AcDbLine
 62
7
  6
CONTINUOUS
 10
179.907185229
 20
221.5602373073
 11
179.7237672728
 21
236.5724543081
  0
LINE
  5
287
100
AcDbEntity
  8
RACCORDO
100
AcDbLine
 62
7
  6
CONTINUOUS
 10
174.6977941302
 20
247.4213086726
 11
174.7031793467
 21
247.4067479514
  0
LWPOLYLINE
  5
288
100
AcDbEntity
  8
RACCORDO
100
AcDbPolyline
 62
250
  6
CONTINUOUS
 90
4
 70
0
 10
177.5310314498
 20
239.7540128895
 10
177.507870356
 20
239.8168237477
 10
177.4883195923
 20
239.8808211881
 10
177.4814224564
 20
239.9071138928
  0
LWPOLYLINE
  5
289
100
AcDbEntity
  8
RACCORDO
100
AcDbPolyline
 62
250
  6
CONTINUOUS
 90
6
 70
0
 10
177.531029456
 20
239.7540131031
 10
177.5480744289
 20
239.7061544052
 10
177.5631902021
 20
239.6576352884
 10
177.5763530405
 20
239.6085319389
 10
177.5875422755
 20
239.5589214603
 10
177.5967403374
 20
239.5088817525
  0
LWPOLYLINE
  5
28A
100
AcDbEntity
  8
RACCORDO
100
AcDbPolyline
 62
7
  6
CONTINUOUS
 90
3
 70
0
 10
174.6859525527
 20
247.4547290727
 10
174.6920649854
 20
247.4372271369
 10
174.6977941302
 20
247.4213086726
  0
LINE
  5
28B
100
AcDbEntity
  8
RACCORDO
100
AcDbLine
 62
7
  6
CONTINUOUS
 10
174.6860161156
 20
247.4544213917
 11
174.6859691496
 21
247.4545578459
  0
LWPOLYLINE
  5
28C
100
AcDbEntity
  8
RACCORDO
100
AcDbPolyline
 62
250
  6
CONTINUOUS
 90
10
 70
0
 10
174.764382125
 20
247.6067155909
 10
174.7665889995
 20
247.6002028899
 10
174.7688738031
 20
247.5936934588
 10
174.7712363334
 20
247.5871880417
 10
174.7736765748
 20
247.5806870861
 10
174.7761941612
 20
247.5741916289
 10
174.7787883267
 20
247.5677032765
 10
174.7814586462
 20
247.5612230335
 10
174.7842050833
 20
247.5547513235
 10
174.7870274193
 20
247.5482888605
  0
LWPOLYLINE
  5
28D
100
AcDbEntity
  8
RACCORDO
100
AcDbPolyline
 62
250
  6
CONTINUOUS
 90
4
 70
0
 10
174.7032211958
 20
247.4066043107
 10
174.6998925014
 20
247.4168651955
 10
174.6956916089
 20
247.4409697285
 10
174.6960532481
 20
247.4663586139
  0
LWPOLYLINE
  5
28E
100
AcDbEntity
  8
RACCORDO
100
AcDbPolyline
 62
250
  6
CONTINUOUS
 90
4
 70
0
 10
174.6740583352
 20
247.8242498645
 10
174.6538145967
 20
247.8867329721
 10
174.6350080599
 20
247.9496745761
 10
174.617743434
 20
248.01254822
  0
LWPOLYLINE
  5
28F
100
AcDbEntity
  8
RACCORDO
100
AcDbPolyline
 62
250
  6
CONTINUOUS
 90
6
 70
0
 10
174.7080890703
 20
247.3940652014
 10
174.7054320978
 20
247.4026127086
 10
174.7040291299
 20
247.4195017982
 10
174.7070776139
 20
247.437959785
 10
174.7145533929
 20
247.4578401319
 10
174.7263971449
 20
247.4789850881
  0
LWPOLYLINE
  5
290
100
AcDbEntity
  8
RACCORDO
100
AcDbPolyline
 62
250
  6
CONTINUOUS
 90
4
 70
0
 10
177.3952769416
 20
240.5015933416
 10
177.4677317684
 20
240.2183106584
 10
177.4995486164
 20
240.0908010218
 10
177.5284084756
 20
239.972920711
  0
LINE
  5
291
100
AcDbEntity
  8
RACCORDO
100
AcDbLine
 62
7
  6
CONTINUOUS
 10
177.4157087418
 20
240.1657099904
 11
177.4814168277
 21
239.9071671511
  0
LWPOLYLINE
  5
292
100
AcDbEntity
  8
RACCORDO
100
AcDbPolyline
 62
7
  6
CONTINUOUS
 90
9
 70
0
 10
177.4814224564
 20
239.9071138928
 10
177.483495235
 20
239.8986769717
 10
177.4900932584
 20
239.8697280769
 10
177.4967828527
 20
239.8365454923
 10
177.5033941499
 20
239.7988211529
 10
177.5096472104
 20
239.7567997321
 10
177.5152147118
 20
239.7113254072
 10
177.5198820173
 20
239.6627994296
 10
177.5234845173
 20
239.6111469681
  0
LINE
  5
293
100
AcDbEntity
  8
RACCORDO
100
AcDbLine
 62
250
  6
CONTINUOUS
 10
177.5284084756
 20
239.972920711
 11
177.5543892407
 21
239.864669726
  0
LINE
  5
294
100
AcDbEntity
  8
RACCORDO
100
AcDbLine
 62
250
  6
CONTINUOUS
 10
182.9237672728
 20
259.7724543081
 11
182.9237672728
 21
259.5724543081
  0
LINE
  5
295
100
AcDbEntity
  8
0
100
AcDbLine
 62
7
  6
CONTINUOUS
 10
184.0237672728
 20
220.5724543081
 11
184.0237672728
 21
203.3724543081
  0
LWPOLYLINE
  5
296
100
AcDbEntity
  8
RACCORDO
100
AcDbPolyline
 62
7
  6
CONTINUOUS
 90
17
 70
0
 10
213.0935108918
 20
220.5869146411
 10
213.1774582401
 20
220.6052288275
 10
213.2611070648
 20
220.6312896005
 10
213.3434947735
 20
220.6647397201
 10
213.4217335886
 20
220.7045074661
 10
213.4952284482
 20
220.7505870172
 10
213.5645744143
 20
220.8029841947
 10
213.6286688949
 20
220.8606447424
 10
213.6875009413
 20
220.9236001417
 10
213.7410815023
 20
220.9918189111
 10
213.7883408317
 20
221.0641523498
 10
213.8292721254
 20
221.1411626182
 10
213.8638821875
 20
221.2222875558
 10
213.8911216844
 20
221.3046919801
 10
213.9106408382
 20
221.3874308303
 10
213.9227894269
 20
221.4714491672
 10
213.9275674505
 20
221.5567469908
  0
LWPOLYLINE
  5
297
100
AcDbEntity
  8
RACCORDO
100
AcDbPolyline
 62
250
  6
CONTINUOUS
 90
10
 70
0
 10
177.5543886908
 20
239.8646697265
 10
177.5888867437
 20
239.8001370226
 10
177.6197290105
 20
239.7337396641
 10
177.6468171811
 20
239.6656889825
 10
177.6700648878
 20
239.5962013365
 10
177.689397964
 20
239.5254981591
 10
177.7047548206
 20
239.4538052932
 10
177.7160866038
 20
239.3813512598
 10
177.7233572127
 20
239.3083664929
 10
177.7265434942
 20
239.2350833682
  0
LWPOLYLINE
  5
298
100
AcDbEntity
  8
RACCORDO
100
AcDbPolyline
 62
7
  6
CONTINUOUS
 90
20
 70
0
 10
174.7885106859
 20
247.2131147067
 10
174.9365057427
 20
246.9065053658
 10
175.1869134018
 20
246.3724174944
 10
175.420969607
 20
245.8541731763
 10
175.6390350046
 20
245.3529108595
 10
175.8417846453
 20
244.8689501418
 10
176.0301559348
 20
244.4020184961
 10
176.2046316794
 20
243.953009437
 10
176.3657106185
 20
243.5226373408
 10
176.5142581813
 20
243.1106193792
 10
176.6507199769
 20
242.7179468155
 10
176.7755457265
 20
242.3454531032
 10
176.8894913581
 20
241.9929976963
 10
176.9929219849
 20
241.661752984
 10
177.0862042606
 20
241.3527297912
 10
177.1699521662
 20
241.0660856306
 10
177.244434126
 20
240.8031746122
 10
177.3099365493
 20
240.5651179993
 10
177.3669411947
 20
240.3522827263
 10
177.4157087418
 20
240.1657099904
  0
LINE
  5
299
100
AcDbEntity
  8
RACCORDO
100
AcDbLine
 62
7
  6
CONTINUOUS
 10
174.7651212851
 20
247.2622449828
 11
174.788526374
 21
247.2130657845
  0
LWPOLYLINE
  5
29A
100
AcDbEntity
  8
RACCORDO
100
AcDbPolyline
 62
250
  6
CONTINUOUS
 90
23
 70
0
 10
175.0822383945
 20
246.7907126221
 10
175.2779606231
 20
246.3706010797
 10
175.4625403881
 20
245.963185627
 10
175.6362534316
 20
245.5684662641
 10
175.7991926591
 20
245.1864216012
 10
175.9518501516
 20
244.8170730281
 10
176.0950670547
 20
244.4604847141
 10
176.2291193246
 20
244.116571964
 10
176.3542526184
 20
243.7854194731
 10
176.4711661999
 20
243.4673454969
 10
176.5800142424
 20
243.1624103393
 10
176.6810645936
 20
242.8705536964
 10
176.7750654291
 20
242.5919129112
 10
176.8620714553
 20
242.3266767244
 10
176.9423214383
 20
242.0746563954
 10
177.0167126807
 20
241.8354230448
 10
177.085278686
 20
241.6091698686
 10
177.1481598135
 20
241.3957036709
 10
177.2063151128
 20
241.1940159843
 10
177.2598244437
 20
241.0041747642
 10
177.3087143848
 20
240.8261120551
 10
177.3538187927
 20
240.6586155234
 10
177.3952769416
 20
240.5015933416
  0
LINE
  5
29B
100
AcDbEntity
  8
RACCORDO
100
AcDbLine
 62
7
  6
CONTINUOUS
 10
174.7426788518
 20
247.3119405328
 11
174.7651212851
 21
247.2622449828
  0
LINE
  5
29C
100
AcDbEntity
  8
RACCORDO
100
AcDbLine
 62
7
  6
CONTINUOUS
 10
174.7240965715
 20
247.3550724
 11
174.7440119117
 21
247.308846329
  0
LINE
  5
29D
100
AcDbEntity
  8
RACCORDO
100
AcDbLine
 62
7
  6
CONTINUOUS
 10
174.7080887386
 20
247.3940650063
 11
174.7240965715
 21
247.3550724
  0
LWPOLYLINE
  5
29E
100
AcDbEntity
  8
RACCORDO
100
AcDbPolyline
 62
250
  6
CONTINUOUS
 90
4
 70
0
 10
174.742941148
 20
247.6400747644
 10
174.7186457798
 20
247.7010088077
 10
174.6956719959
 20
247.7624003996
 10
174.6740583352
 20
247.8242498645
  0
LINE
  5
29F
100
AcDbEntity
  8
RACCORDO
100
AcDbLine
 62
7
  6
CONTINUOUS
 10
174.7032788538
 20
247.4064505213
 11
174.7032211958
 21
247.4066043107
  0
LINE
  5
2A0
100
AcDbEntity
  8
0
100
AcDbLine
 62
7
  6
CONTINUOUS
 10
184.8680752728
 20
259.5724543081
 11
184.8680752728
 21
259.6024543081
  0
LINE
  5
2A1
100
AcDbEntity
  8
0
100
AcDbLine
 62
7
  6
CONTINUOUS
 10
185.2260072728
 20
259.5724543081
 11
185.2260072728
 21
259.6024543081
  0
LINE
  5
2A2
100
AcDbEntity
  8
0
100
AcDbLine
 62
7
  6
CONTINUOUS
 10
186.2726732728
 20
259.5724543081
 11
186.2726732728
 21
259.6024543081
  0
LINE
  5
2A3
100
AcDbEntity
  8
0
100
AcDbLine
 62
7
  6
CONTINUOUS
 10
186.6525192728
 20
259.5724543081
 11
186.6525192728
 21
259.6024543081
  0
LWPOLYLINE
  5
2A4
100
AcDbEntity
  8
RACCORDO
100
AcDbPolyline
 62
7
  6
CONTINUOUS
 90
3
 70
0
 10
212.9218328471
 20
220.5724543081
 10
213.0083024275
 20
220.5759898013
 10
213.0935108918
 20
220.5869146411
  0
LINE
  5
2A5
100
AcDbEntity
  8
0
100
AcDbLine
 62
7
  6
CONTINUOUS
 10
197.5237672728
 20
220.2724543081
 11
194.3237672728
 21
220.2724543081
  0
LINE
  5
2A6
100
AcDbEntity
  8
0
100
AcDbLine
 62
7
  6
CONTINUOUS
 10
199.493357308
 20
220.5224543081
 11
197.5237672728
 21
220.5224543081
  0
LINE
  5
2A7
100
AcDbEntity
  8
0
100
AcDbLine
 62
7
  6
CONTINUOUS
 10
194.3237672728
 20
220.5224543081
 11
192.3533572728
 21
220.5224543081
  0
LINE
  5
2A8
100
AcDbEntity
  8
RACCORDO
100
AcDbLine
 62
7
  6
CONTINUOUS
 10
212.9218328471
 20
220.5724543081
 11
197.7750913155
 21
220.5724543081
  0
LINE
  5
2A9
100
AcDbEntity
  8
RACCORDO
100
AcDbLine
 62
7
  6
CONTINUOUS
 10
194.0724432301
 20
220.5724543081
 11
178.9257016985
 21
220.5724543081
  0
LINE
  5
2AA
100
AcDbEntity
  8
DRAFT
100
AcDbLine
 62
7
  6
CONTINUOUS
 10
194.0724432301
 20
220.5724543081
 11
194.3237672728
 21
220.5724543081
  0
LINE
  5
2AB
100
AcDbEntity
  8
DRAFT
100
AcDbLine
 62
7
  6
CONTINUOUS
 10
197.5237672728
 20
220.5724543081
 11
197.7750913155
 21
220.5724543081
  0
LINE
  5
2AC
100
AcDbEntity
  8
RACCORDO
100
AcDbLine
 62
7
  6
CONTINUOUS
 10
178.8392321181
 20
220.5759898013
 11
178.9257016985
 21
220.5724543081
  0
LWPOLYLINE
  5
2AD
100
AcDbEntity
  8
RACCORDO
100
AcDbPolyline
 62
250
  6
CONTINUOUS
 90
13
 70
0
 10
177.6133792893
 20
239.3060096191
 10
177.5978072908
 20
239.3312325693
 10
177.5840808195
 20
239.3556022368
 10
177.5720908864
 20
239.3791186215
 10
177.5617303841
 20
239.4017331489
 10
177.5528965011
 20
239.4234943936
 10
177.5454888301
 20
239.4445480792
 10
177.539406906
 20
239.4649404136
 10
177.5345532512
 20
239.4846251888
 10
177.5308337112
 20
239.5036095049
 10
177.5281559242
 20
239.5218957284
 10
177.5264300601
 20
239.5394814929
 10
177.5255694263
 20
239.5563667981
  0
LWPOLYLINE
  5
2AE
100
AcDbEntity
  8
RACCORDO
100
AcDbPolyline
 62
250
  6
CONTINUOUS
 90
13
 70
0
 10
175.0821765106
 20
246.7907637923
 10
175.0471963896
 20
246.8514151965
 10
175.0140771784
 20
246.912802344
 10
174.9828151929
 20
246.9748508914
 10
174.9533707936
 20
247.0375066379
 10
174.9257674403
 20
247.1006747538
 10
174.9000947154
 20
247.1642212563
 10
174.8763379271
 20
247.2280790653
 10
174.8544861089
 20
247.2921700156
 10
174.834634842
 20
247.3563455769
 10
174.8168041455
 20
247.4205090166
 10
174.8009368358
 20
247.4846149401
 10
174.7870106729
 20
247.5485930278
  0
LINE
  5
2AF
100
AcDbEntity
  8
0
100
AcDbLine
 62
7
  6
CONTINUOUS
 10
187.6887492728
 20
259.5724543081
 11
187.6887492728
 21
259.6024543081
  0
LINE
  5
2B0
100
AcDbEntity
  8
0
100
AcDbLine
 62
7
  6
CONTINUOUS
 10
188.0456382728
 20
259.5724543081
 11
188.0456382728
 21
259.6024543081
  0
LINE
  5
2B1
100
AcDbEntity
  8
0
100
AcDbLine
 62
7
  6
CONTINUOUS
 10
188.2089672728
 20
259.5724543081
 11
188.2089672728
 21
259.6024543081
  0
LINE
  5
2B2
100
AcDbEntity
  8
0
100
AcDbLine
 62
7
  6
CONTINUOUS
 10
188.5554212728
 20
259.5724543081
 11
188.5554212728
 21
259.6024543081
  0
LINE
  5
2B3
100
AcDbEntity
  8
0
100
AcDbLine
 62
7
  6
CONTINUOUS
 10
188.8237672728
 20
220.5724543081
 11
188.8237672728
 21
203.3724543081
  0
LINE
  5
2B4
100
AcDbEntity
  8
0
100
AcDbLine
 62
7
  6
CONTINUOUS
 10
188.8914382728
 20
259.5724543081
 11
188.8914382728
 21
259.6024543081
  0
LWPOLYLINE
  5
2B5
100
AcDbEntity
  8
0
100
AcDbPolyline
 62
7
  6
CONTINUOUS
 90
3
 70
0
 10
197.5237672728
 20
222.2027018348
 10
197.7101145858
 20
222.227264513
 10
197.7603035137
 20
222.2337410768
  0
LINE
  5
2B6
100
AcDbEntity
  8
RACCORDO
100
AcDbLine
 62
250
  6
CONTINUOUS
 10
214.0392297779
 20
221.5567469908
 11
213.9275674505
 21
221.5567469908
  0
LINE
  5
2B7
100
AcDbEntity
  8
RACCORDO
100
AcDbLine
 62
250
  6
CONTINUOUS
 10
211.940306657
 20
221.5567469908
 11
197.7663297186
 21
221.5567469908
  0
LINE
  5
2B8
100
AcDbEntity
  8
RACCORDO
100
AcDbLine
 62
250
  6
CONTINUOUS
 10
194.0812048271
 20
221.5567469908
 11
179.9072278886
 21
221.5567469908
  0
LINE
  5
2B9
100
AcDbEntity
  8
RACCORDO
100
AcDbLine
 62
250
  6
CONTINUOUS
 10
177.9199670952
 20
221.5567469908
 11
177.8083047678
 21
221.5567469908
  0
LINE
  5
2BA
100
AcDbEntity
  8
0
100
AcDbLine
 62
250
  6
CONTINUOUS
 10
197.5237672728
 20
221.744660594
 11
194.3237672728
 21
221.744660594
  0
LINE
  5
2BB
100
AcDbEntity
  8
DRAFT
100
AcDbLine
 62
7
  6
CONTINUOUS
 10
194.0857953515
 20
222.0724543081
 11
194.3237672728
 21
222.0724543081
  0
LINE
  5
2BC
100
AcDbEntity
  8
DRAFT
100
AcDbLine
 62
7
  6
CONTINUOUS
 10
197.5237672728
 20
222.0724543081
 11
197.7617391941
 21
222.0724543081
  0
LINE
  5
2BD
100
AcDbEntity
  8
0
100
AcDbLine
 62
250
  6
CONTINUOUS
 10
194.089694042
 20
222.5104398216
 11
197.7578405036
 21
222.5104398216
  0
LWPOLYLINE
  5
2BE
100
AcDbEntity
  8
0
100
AcDbPolyline
 62
7
  6
CONTINUOUS
 90
3
 70
0
 10
194.3237672728
 20
222.2027018348
 10
194.2608245725
 20
222.2111103465
 10
194.0872310319
 20
222.2337410768
  0
LWPOLYLINE
  5
2BF
100
AcDbEntity
  8
RACCORDO
100
AcDbPolyline
 62
250
  6
CONTINUOUS
 90
7
 70
0
 10
174.7648871832
 20
247.6069233756
 10
174.7610128495
 20
247.6120903967
 10
174.7572269735
 20
247.6174007423
 10
174.7535282002
 20
247.6228543818
 10
174.7499151877
 20
247.6284512851
 10
174.7463866081
 20
247.6341914224
 10
174.742941148
 20
247.6400747644
  0
LINE
  5
2C0
100
AcDbEntity
  8
0
100
AcDbLine
 62
7
  6
CONTINUOUS
 10
190.1478542728
 20
259.5724543081
 11
190.1478542728
 21
259.6024543081
  0
LINE
  5
2C1
100
AcDbEntity
  8
0
100
AcDbLine
 62
7
  6
CONTINUOUS
 10
190.4723932728
 20
259.5724543081
 11
190.4723932728
 21
259.6024543081
  0
LINE
  5
2C2
100
AcDbEntity
  8
0
100
AcDbLine
 62
7
  6
CONTINUOUS
 10
190.8355432728
 20
259.5724543081
 11
190.8355432728
 21
259.6024543081
  0
LINE
  5
2C3
100
AcDbEntity
  8
0
100
AcDbLine
 62
7
  6
CONTINUOUS
 10
190.9552052728
 20
259.5724543081
 11
190.9552052728
 21
259.6024543081
  0
LINE
  5
2C4
100
AcDbEntity
  8
0
100
AcDbLine
 62
7
  6
CONTINUOUS
 10
191.3413122728
 20
259.5724543081
 11
191.3413122728
 21
259.6024543081
  0
LWPOLYLINE
  5
2C5
100
AcDbEntity
  8
RACCORDO
100
AcDbPolyline
 62
250
  6
CONTINUOUS
 90
10
 70
0
 10
192.1253508327
 20
240.1997664955
 10
192.1191248346
 20
240.1485843833
 10
192.1131934248
 20
240.0975198912
 10
192.1075659541
 20
240.0466535878
 10
192.1022508737
 20
239.9960616165
 10
192.0972570342
 20
239.9458279717
 10
192.0925934075
 20
239.8960440488
 10
192.0882674362
 20
239.8467920168
 10
192.0842852885
 20
239.7981450213
 10
192.0806529763
 20
239.7501792407
  0
LWPOLYLINE
  5
2C6
100
AcDbEntity
  8
RACCORDO
100
AcDbPolyline
 62
250
  6
CONTINUOUS
 90
8
 70
0
 10
175.0822598149
 20
246.7906587869
 10
175.0275743963
 20
246.8521277939
 10
174.9764523248
 20
246.914654438
 10
174.9289262944
 20
246.9781933333
 10
174.8850189896
 20
247.0427331504
 10
174.844723928
 20
247.1081830563
 10
174.8080679601
 20
247.1744029592
 10
174.7885594596
 20
247.213014705
  0
LINE
  5
2C7
100
AcDbEntity
  8
0
100
AcDbLine
 62
7
  6
CONTINUOUS
 10
192.2283162728
 20
259.5724543081
 11
192.2283162728
 21
259.6024543081
  0
LINE
  5
2C8
100
AcDbEntity
  8
0
100
AcDbLine
 62
7
  6
CONTINUOUS
 10
192.3533572728
 20
220.5724543081
 11
192.3533572728
 21
220.5224543081
  0
LINE
  5
2C9
100
AcDbEntity
  8
0
100
AcDbLine
 62
7
  6
CONTINUOUS
 10
193.1194942728
 20
259.5724543081
 11
193.1194942728
 21
259.6024543081
  0
LINE
  5
2CA
100
AcDbEntity
  8
0
100
AcDbLine
 62
7
  6
CONTINUOUS
 10
193.5108202728
 20
259.5724543081
 11
193.5108202728
 21
259.6024543081
  0
LINE
  5
2CB
100
AcDbEntity
  8
RACCORDO
100
AcDbLine
 62
7
  6
CONTINUOUS
 10
194.0724432301
 20
220.5724543081
 11
194.2237672728
 21
237.5724543081
  0
LWPOLYLINE
  5
2CC
100
AcDbEntity
  8
RACCORDO
100
AcDbPolyline
 62
250
  6
CONTINUOUS
 90
10
 70
0
 10
190.1488570425
 20
239.8646635853
 10
190.1597034365
 20
239.8001289779
 10
190.1694004454
 20
239.7337303793
 10
190.1779172002
 20
239.6656791889
 10
190.1852265896
 20
239.5961920689
 10
190.1913053463
 20
239.5254902504
 10
190.1961341214
 20
239.4537988294
 10
190.1996975452
 20
239.3813460546
 10
190.2019842766
 20
239.3083626013
 10
190.2029870391
 20
239.235080833
  0
LWPOLYLINE
  5
2CD
100
AcDbEntity
  8
RACCORDO
100
AcDbPolyline
 62
250
  6
CONTINUOUS
 90
10
 70
0
 10
192.0805118036
 20
239.7498925773
 10
192.0868516883
 20
239.7015913355
 10
192.0928273375
 20
239.6526222283
 10
192.09842934
 20
239.6030622783
 10
192.1036488719
 20
239.552989439
 10
192.1084777126
 20
239.5024824672
 10
192.1129082576
 20
239.4516207983
 10
192.1169335274
 20
239.4004844296
 10
192.1205471776
 20
239.3491537941
 10
192.1237435125
 20
239.2977096283
  0
LINE
  5
2CE
100
AcDbEntity
  8
0
100
AcDbLine
 62
7
  6
CONTINUOUS
 10
194.3237672728
 20
220.2724543081
 11
194.3237672728
 21
222.2027018348
  0
LINE
  5
2CF
100
AcDbEntity
  8
0
100
AcDbLine
 62
250
  6
CONTINUOUS
 10
194.3237672728
 20
222.2027018348
 11
194.3237672728
 21
222.5104398216
  0
LWPOLYLINE
  5
2D0
100
AcDbEntity
  8
0
100
AcDbPolyline
 62
7
  6
CONTINUOUS
 90
2
 70
0
 43
0.3500000087
 10
194.5666292969
 20
268.5224593018
 10
194.5666292969
 20
270.0224607666
  0
LINE
  5
2D1
100
AcDbEntity
  8
0
100
AcDbLine
 62
7
  6
CONTINUOUS
 10
194.6637792728
 20
259.5724543081
 11
194.6637792728
 21
259.6024543081
  0
LINE
  5
2D2
100
AcDbEntity
  8
0
100
AcDbLine
 62
7
  6
CONTINUOUS
 10
195.5393042728
 20
259.5724543081
 11
195.5393042728
 21
259.6024543081
  0
LINE
  5
2D3
100
AcDbEntity
  8
0
100
AcDbLine
 62
7
  6
CONTINUOUS
 10
195.8972372728
 20
259.5724543081
 11
195.8972372728
 21
259.6024543081
  0
LINE
  5
2D4
100
AcDbEntity
  8
0
100
AcDbLine
 62
7
  6
CONTINUOUS
 10
196.2761618578
 20
259.5724543081
 11
196.2761612728
 21
259.6024543081
  0
LWPOLYLINE
  5
2D5
100
AcDbEntity
  8
RACCORDO
100
AcDbPolyline
 62
250
  6
CONTINUOUS
 90
25
 70
0
 10
175.0822383945
 20
246.7907126221
 10
175.6259207273
 20
246.3532503656
 10
176.1830996808
 20
245.9268243293
 10
176.7531761101
 20
245.5114345133
 10
177.3359086522
 20
245.1066200895
 10
177.9303582775
 20
244.7128418859
 10
178.5348788344
 20
244.3314823871
 10
179.1491351697
 20
243.9625117658
 10
179.7723462981
 20
243.6059598493
 10
180.4021477244
 20
243.2632986032
 10
181.0378016662
 20
242.9347596934
 10
181.6789419439
 20
242.6201114539
 10
182.3236933662
 20
242.3201308528
 10
182.9712816791
 20
242.0350414548
 10
183.6215131788
 20
241.7646196951
 10
184.2733662547
 20
241.5089718465
 10
184.9263114938
 20
241.2682059612
 10
185.5801299331
 20
241.0422139871
 10
186.2342771441
 20
240.8307780399
 10
186.8884916159
 20
240.6339269572
 10
187.5425041088
 20
240.4516319015
 10
188.1957626908
 20
240.2835884761
 10
188.8479505458
 20
240.1296952154
 10
189.4990201566
 20
239.9900535852
 10
190.148847054
 20
239.8646635853
  0
LWPOLYLINE
  5
2D6
100
AcDbEntity
  8
RACCORDO
100
AcDbPolyline
 62
250
  6
CONTINUOUS
 90
25
 70
0
 10
174.852096195
 20
247.6531426352
 10
175.4792285269
 20
247.1463177619
 10
176.1242415857
 20
246.6539803177
 10
176.7857698164
 20
246.1761303023
 10
177.462598122
 20
245.7120924143
 10
178.1532836741
 20
245.2625419552
 10
178.8561252982
 20
244.82950483
 10
179.5701700368
 20
244.4129606026
 10
180.2938301228
 20
244.0129297092
 10
181.0243751118
 20
243.6314993627
 10
181.7600896533
 20
243.2691011344
 10
182.5001602532
 20
242.9253034531
 10
183.2431727036
 20
242.6008988185
 10
183.9875577318
 20
242.2962019017
 10
184.7326302623
 20
242.0108980315
 10
185.4784085502
 20
241.744835694
 10
186.2239047603
 20
241.49809754
 10
186.9682283968
 20
241.2706009186
 10
187.7116860965
 20
241.0619463639
 10
188.4534708353
 20
240.8721909917
 10
189.1928192131
 20
240.7012776861
 10
189.9302185784
 20
240.5486356335
 10
190.6654016061
 20
240.4140745626
 10
191.3973174406
 20
240.2977847447
 10
192.1253483928
 20
240.1997661797
  0
LINE
  5
2D7
100
AcDbEntity
  8
RACCORDO
100
AcDbLine
 62
7
  6
CONTINUOUS
 10
197.7750913155
 20
220.5724543081
 11
197.6237672728
 21
237.5724543081
  0
LWPOLYLINE
  5
2D8
100
AcDbEntity
  8
0
100
AcDbPolyline
 62
7
  6
CONTINUOUS
 90
2
 70
0
 43
0.3500000087
 10
196.9237598389
 20
268.5224593018
 10
196.9237598389
 20
270.0224607666
  0
LINE
  5
2D9
100
AcDbEntity
  8
0
100
AcDbLine
 62
7
  6
CONTINUOUS
 10
197.5237672728
 20
220.2724543081
 11
197.5237672728
 21
222.2027018348
  0
LINE
  5
2DA
100
AcDbEntity
  8
0
100
AcDbLine
 62
250
  6
CONTINUOUS
 10
197.5237672728
 20
222.2027018348
 11
197.5237672728
 21
222.5104398216
  0
LINE
  5
2DB
100
AcDbEntity
  8
0
100
AcDbLine
 62
7
  6
CONTINUOUS
 10
198.3194262156
 20
259.6024543081
 11
198.3194262156
 21
259.5724543081
  0
LINE
  5
2DC
100
AcDbEntity
  8
0
100
AcDbLine
 62
7
  6
CONTINUOUS
 10
198.5764705054
 20
259.5724543081
 11
198.5764705054
 21
259.6024543081
  0
LWPOLYLINE
  5
2DD
100
AcDbEntity
  8
RACCORDO
100
AcDbPolyline
 62
250
  6
CONTINUOUS
 90
10
 70
0
 10
199.766795433
 20
239.7501770863
 10
199.7604776216
 20
239.7018432601
 10
199.7545249932
 20
239.6528414698
 10
199.7489469092
 20
239.6032488721
 10
199.7437521422
 20
239.5531435559
 10
199.7389488593
 20
239.5026044138
 10
199.7345446099
 20
239.451711017
 10
199.7305463165
 20
239.4005434987
 10
199.7269602644
 20
239.3491824273
 10
199.7237920886
 20
239.2977086742
  0
LINE
  5
2DE
100
AcDbEntity
  8
0
100
AcDbLine
 62
7
  6
CONTINUOUS
 10
199.493357308
 20
220.5724543081
 11
199.493357308
 21
220.5224543081
  0
LINE
  5
2DF
100
AcDbEntity
  8
0
100
AcDbLine
 62
250
  6
CONTINUOUS
 10
199.5793071544
 20
259.5724543081
 11
199.5793071544
 21
259.6024543081
  0
LINE
  5
2E0
100
AcDbEntity
  8
0
100
AcDbLine
 62
7
  6
CONTINUOUS
 10
200.6155369072
 20
259.5724543081
 11
200.6155369072
 21
259.6024543081
  0
LINE
  5
2E1
100
AcDbEntity
  8
0
100
AcDbLine
 62
7
  6
CONTINUOUS
 10
200.6166179178
 20
259.5724543081
 11
200.6166179178
 21
259.6024543081
  0
LINE
  5
2E2
100
AcDbEntity
  8
0
100
AcDbLine
 62
7
  6
CONTINUOUS
 10
200.8214718254
 20
259.5724543081
 11
200.8214718254
 21
259.6024543081
  0
LWPOLYLINE
  5
2E3
100
AcDbEntity
  8
RACCORDO
100
AcDbPolyline
 62
250
  6
CONTINUOUS
 90
10
 70
0
 10
201.6986776571
 20
239.8646636287
 10
201.687835019
 20
239.8001299405
 10
201.6781404834
 20
239.7337320189
 10
201.669624941
 20
239.6656812345
 10
201.662315128
 20
239.5961941493
 10
201.6562347321
 20
239.5254920504
 10
201.6514043011
 20
239.4538002575
 10
201.6478395998
 20
239.3813470995
 10
201.6455515779
 20
239.3083631758
 10
201.6445475154
 20
239.235080853
  0
LWPOLYLINE
  5
2E4
100
AcDbEntity
  8
RACCORDO
100
AcDbPolyline
 62
250
  6
CONTINUOUS
 90
10
 70
0
 10
199.7221826265
 20
240.1997666235
 10
199.7284130614
 20
240.1485792273
 10
199.7343489633
 20
240.0975084553
 10
199.739980965
 20
240.0466348997
 10
199.7452997638
 20
239.9960428983
 10
199.7502974338
 20
239.9458081735
 10
199.7549671778
 20
239.8959980253
 10
199.7593017188
 20
239.8466874844
 10
199.763293575
 20
239.7979588666
 10
199.7669361871
 20
239.7498896367
  0
LINE
  5
2E5
100
AcDbEntity
  8
0
100
AcDbLine
 62
250
  6
CONTINUOUS
 10
201.8243084744
 20
259.5724543081
 11
201.8243084744
 21
259.6024543081
  0
LINE
  5
2E6
100
AcDbEntity
  8
0
100
AcDbLine
 62
7
  6
CONTINUOUS
 10
202.8605382272
 20
259.5724543081
 11
202.8605382272
 21
259.6024543081
  0
LINE
  5
2E7
100
AcDbEntity
  8
0
100
AcDbLine
 62
7
  6
CONTINUOUS
 10
202.8616192379
 20
259.5724543081
 11
202.8616192379
 21
259.6024543081
  0
LINE
  5
2E8
100
AcDbEntity
  8
0
100
AcDbLine
 62
7
  6
CONTINUOUS
 10
203.0237672728
 20
220.5724543081
 11
203.0237672728
 21
203.3724543081
  0
LINE
  5
2E9
100
AcDbEntity
  8
0
100
AcDbLine
 62
7
  6
CONTINUOUS
 10
203.7369012728
 20
259.5724543081
 11
203.7369012728
 21
259.6024543081
  0
LINE
  5
2EA
100
AcDbEntity
  8
DRAFT
100
AcDbLine
 62
7
  6
CONTINUOUS
 10
177.6929697987
 20
236.5724543081
 11
179.7237672728
 21
236.5724543081
  0
LINE
  5
2EB
100
AcDbEntity
  8
DRAFT
100
AcDbLine
 62
7
  6
CONTINUOUS
 10
212.1237672728
 20
236.5724543081
 11
214.154564747
 21
236.5724543081
  0
LINE
  5
2EC
100
AcDbEntity
  8
DRAFT
100
AcDbLine
 62
7
  6
CONTINUOUS
 10
194.2237672728
 20
237.5724543081
 11
197.6237672728
 21
237.5724543081
  0
LWPOLYLINE
  5
2ED
100
AcDbEntity
  8
RACCORDO
100
AcDbPolyline
 62
250
  6
CONTINUOUS
 90
7
 70
0
 10
177.7265434944
 20
239.2350833682
 10
177.7046265315
 20
239.2370638436
 10
177.6839277726
 20
239.2429805455
 10
177.6644504886
 20
239.252833474
 10
177.6461978903
 20
239.2666226291
 10
177.6291731276
 20
239.2843480108
 10
177.6133792893
 20
239.3060096191
  0
LINE
  5
2EE
100
AcDbEntity
  8
0
100
AcDbLine
 62
7
  6
CONTINUOUS
 10
204.5362492728
 20
259.5724543081
 11
204.5362492728
 21
259.6024543081
  0
LINE
  5
2EF
100
AcDbEntity
  8
0
100
AcDbLine
 62
7
  6
CONTINUOUS
 10
204.9380102728
 20
259.5724543081
 11
204.9380102728
 21
259.6024543081
  0
LINE
  5
2F0
100
AcDbEntity
  8
0
100
AcDbLine
 62
7
  6
CONTINUOUS
 10
205.6157192728
 20
259.5724543081
 11
205.6157192728
 21
259.6024543081
  0
LINE
  5
2F1
100
AcDbEntity
  8
0
100
AcDbLine
 62
7
  6
CONTINUOUS
 10
206.3092142728
 20
259.5724543081
 11
206.3092142728
 21
259.6024543081
  0
LWPOLYLINE
  5
2F2
100
AcDbEntity
  8
RACCORDO
100
AcDbPolyline
 62
250
  6
CONTINUOUS
 90
7
 70
0
 10
217.1045070052
 20
247.6398571232
 10
217.1010974423
 20
247.6340822793
 10
217.0975986868
 20
247.6284203498
 10
217.094009292
 20
247.6228713666
 10
217.0903277927
 20
247.6174353624
 10
217.0865527051
 20
247.6121123704
 10
217.0826825278
 20
247.6069024243
  0
LWPOLYLINE
  5
2F3
100
AcDbEntity
  8
RACCORDO
100
AcDbPolyline
 62
250
  6
CONTINUOUS
 90
7
 70
0
 10
214.2341552847
 20
239.3060106943
 10
214.2183603228
 20
239.2843470445
 10
214.2013347012
 20
239.2666202792
 10
214.1830816054
 20
239.2528303986
 10
214.1636042818
 20
239.2429774026
 10
214.1429060375
 20
239.2370612912
 10
214.1209902392
 20
239.2350820644
  0
LWPOLYLINE
  5
2F4
100
AcDbEntity
  8
RACCORDO
100
AcDbPolyline
 62
250
  6
CONTINUOUS
 90
25
 70
0
 10
201.6986876878
 20
239.8646636287
 10
202.348467252
 20
239.9900429143
 10
202.9995004516
 20
240.1296755658
 10
203.6516627382
 20
240.2835615834
 10
204.3049071886
 20
240.4515991513
 10
204.9589160199
 20
240.6338900852
 10
205.6131349408
 20
240.8307398324
 10
206.267296419
 20
241.0421782261
 10
206.921136823
 20
241.2681754331
 10
207.5741039523
 20
241.5089474015
 10
208.2259770935
 20
241.7646018987
 10
208.8762285675
 20
242.0350311573
 10
209.5238345425
 20
242.3201278224
 10
210.1686004902
 20
242.6201151168
 10
210.8097531103
 20
242.9347698176
 10
211.4454177067
 20
243.2633149018
 10
212.0752288468
 20
243.6059824661
 10
212.6984480738
 20
243.9625404138
 10
213.3127092993
 20
244.331515432
 10
213.9172311056
 20
244.7128784021
 10
214.5116792213
 20
245.1066584427
 10
215.0944076175
 20
245.5114695963
 10
215.6644770665
 20
245.9268498771
 10
216.2216460938
 20
246.353261271
 10
216.7653154734
 20
246.7907037778
  0
LWPOLYLINE
  5
2F5
100
AcDbEntity
  8
RACCORDO
100
AcDbPolyline
 62
250
  6
CONTINUOUS
 90
25
 70
0
 10
199.7221861529
 20
240.1997661797
 10
200.4502394773
 20
240.2977897412
 10
201.1821621789
 20
240.4140808916
 10
201.9173367703
 20
240.5486396309
 10
202.6547019266
 20
240.7012731459
 10
203.3940015699
 20
240.8721742498
 10
204.1357552385
 20
241.0619213825
 10
204.879213399
 20
241.2705746075
 10
205.6235541206
 20
241.4980738613
 10
206.3690725763
 20
241.7448173938
 10
207.1148769271
 20
242.0108883171
 10
207.8599801881
 20
242.2962035192
 10
208.6043930309
 20
242.6009119135
 10
209.3474275958
 20
242.9253272695
 10
210.0875175031
 20
243.2691358178
 10
210.8232497319
 20
243.6315451639
 10
211.5538126301
 20
244.0129879369
 10
212.2774888762
 20
244.4130315078
 10
212.9915437384
 20
244.8295855947
 10
213.6943919705
 20
245.2626315044
 10
214.3850786473
 20
245.7121879301
 10
215.0618928364
 20
246.1762206696
 10
215.7233898539
 20
246.6540516555
 10
216.3683596488
 20
247.1463589552
 10
216.9954383495
 20
247.6531425686
  0
LWPOLYLINE
  5
2F6
100
AcDbEntity
  8
RACCORDO
100
AcDbPolyline
 62
250
  6
CONTINUOUS
 90
7
 70
0
 10
201.6986896377
 20
239.8646647947
 10
201.3844678382
 20
239.8378759289
 10
201.0669921439
 20
239.8140722877
 10
200.7463805949
 20
239.7933116063
 10
200.4227529733
 20
239.7756532801
 10
200.0962306038
 20
239.7611583767
 10
199.7669361871
 20
239.7498896367
  0
LWPOLYLINE
  5
2F7
100
AcDbEntity
  8
RACCORDO
100
AcDbPolyline
 62
250
  6
CONTINUOUS
 90
7
 70
0
 10
192.1237435106
 20
239.2977096282
 10
191.7962572471
 20
239.2787462832
 10
191.4716050695
 20
239.2631930232
 10
191.1498718796
 20
239.2510498482
 10
190.8311393556
 20
239.2423167582
 10
190.5154859748
 20
239.2369937531
 10
190.202987039
 20
239.235080833
  0
LWPOLYLINE
  5
2F8
100
AcDbEntity
  8
RACCORDO
100
AcDbPolyline
 62
250
  6
CONTINUOUS
 90
16
 70
0
 10
199.7668828781
 20
239.7501780264
 10
199.285072411
 20
239.7372937748
 10
198.7848872067
 20
239.7207200744
 10
198.2661457993
 20
239.7019766294
 10
197.7224924093
 20
239.6856390135
 10
197.1599902906
 20
239.6725395204
 10
196.5970052879
 20
239.6610673532
 10
196.0336856892
 20
239.6529832448
 10
195.4706669151
 20
239.654218926
 10
194.926556701
 20
239.6662401391
 10
194.4073240546
 20
239.6807590599
 10
193.9066009374
 20
239.6929430582
 10
193.4237619337
 20
239.7067922565
 10
192.958545228
 20
239.7232038936
 10
192.5108912
 20
239.7380398799
 10
192.0806529763
 20
239.7501792407
  0
LINE
  5
2F9
100
AcDbEntity
  8
RACCORDO
100
AcDbLine
 62
250
  6
CONTINUOUS
 10
190.202987039
 20
239.235080833
 11
177.7265434944
 21
239.2350833682
  0
LINE
  5
2FA
100
AcDbEntity
  8
RACCORDO
100
AcDbLine
 62
250
  6
CONTINUOUS
 10
214.1209902392
 20
239.2350820644
 11
201.6445475155
 21
239.235080853
  0
LINE
  5
2FB
100
AcDbEntity
  8
RACCORDO
100
AcDbLine
 62
250
  6
CONTINUOUS
 10
190.148847054
 20
239.8646635853
 11
177.5543892407
 21
239.864669726
  0
LINE
  5
2FC
100
AcDbEntity
  8
RACCORDO
100
AcDbLine
 62
250
  6
CONTINUOUS
 10
214.2931437954
 20
239.8646677601
 11
201.6986876878
 21
239.8646636287
  0
LWPOLYLINE
  5
2FD
100
AcDbEntity
  8
RACCORDO
100
AcDbPolyline
 62
250
  6
CONTINUOUS
 90
7
 70
0
 10
201.6445475155
 20
239.235080853
 10
201.3320473221
 20
239.236994182
 10
201.0163932486
 20
239.2423173671
 10
200.6976606064
 20
239.2510504085
 10
200.3759278822
 20
239.263193306
 10
200.051276762
 20
239.2787460596
 10
199.7237921545
 20
239.2977086695
  0
LWPOLYLINE
  5
2FE
100
AcDbEntity
  8
RACCORDO
100
AcDbPolyline
 62
250
  6
CONTINUOUS
 90
7
 70
0
 10
192.0805995167
 20
239.7498900657
 10
191.7513023199
 20
239.7611585479
 10
191.4247784525
 20
239.7756532662
 10
191.1011504438
 20
239.7933114782
 10
190.7805394502
 20
239.8140721131
 10
190.4630650881
 20
239.8378757716
 10
190.1488452334
 20
239.8646647122
  0
LWPOLYLINE
  5
2FF
100
AcDbEntity
  8
RACCORDO
100
AcDbPolyline
 62
250
  6
CONTINUOUS
 90
16
 70
0
 10
199.7237921545
 20
239.2977086695
 10
199.2507321032
 20
239.3275043889
 10
198.7578442114
 20
239.3551268722
 10
198.2452527509
 20
239.3805761193
 10
197.7072160933
 20
239.4057829071
 10
197.1499234547
 20
239.4288164586
 10
196.5916608168
 20
239.4438844436
 10
196.0329493924
 20
239.4484229231
 10
195.474325492
 20
239.4449958359
 10
194.9342213723
 20
239.4355026685
 10
194.4194231338
 20
239.4189930763
 10
193.9238479814
 20
239.3964174039
 10
193.4464796358
 20
239.3725261709
 10
192.9870699633
 20
239.3489028838
 10
192.5461410523
 20
239.3239640363
 10
192.1237435106
 20
239.2977096282
  0
LWPOLYLINE
  5
300
100
AcDbEntity
  8
RACCORDO
100
AcDbPolyline
 62
250
  6
CONTINUOUS
 90
19
 70
0
 10
192.1253483928
 20
240.1997661797
 10
192.6043219928
 20
240.139140822
 10
193.0680079268
 20
240.0833002358
 10
193.5161826428
 20
240.0322444211
 10
193.9466723002
 20
239.9847303457
 10
194.3612868433
 20
239.9420010417
 10
194.7658400586
 20
239.9077856058
 10
195.1587510869
 20
239.8826200576
 10
195.5414047866
 20
239.8659683775
 10
195.9241143823
 20
239.8599516025
 10
196.3068114918
 20
239.8659856758
 10
196.6894310108
 20
239.8826546543
 10
197.0822910809
 20
239.9078317457
 10
197.4867764616
 20
239.9420504232
 10
197.9013065033
 20
239.9847772137
 10
198.331700379
 20
240.0322849058
 10
198.7797699055
 20
240.0833310955
 10
199.2433396212
 20
240.1391581869
 10
199.7221861529
 20
240.1997661797
  0
LINE
  5
301
100
AcDbEntity
  8
0
100
AcDbLine
 62
7
  6
CONTINUOUS
 10
206.7120182728
 20
259.5724543081
 11
206.7120182728
 21
259.6024543081
  0
LINE
  5
302
100
AcDbEntity
  8
0
100
AcDbLine
 62
7
  6
CONTINUOUS
 10
207.5259752728
 20
259.5724543081
 11
207.5259752728
 21
259.6024543081
  0
LINE
  5
303
100
AcDbEntity
  8
0
100
AcDbLine
 62
7
  6
CONTINUOUS
 10
207.8237672728
 20
220.5724543081
 11
207.8237672728
 21
203.3724543081
  0
LINE
  5
304
100
AcDbEntity
  8
RACCORDO
100
AcDbLine
 62
7
  6
CONTINUOUS
 10
216.2049770843
 20
245.3446593908
 11
216.4265995344
 21
245.8542588515
  0
LINE
  5
305
100
AcDbEntity
  8
RACCORDO
100
AcDbLine
 62
7
  6
CONTINUOUS
 10
216.4228693084
 20
245.8458338436
 11
216.6606587778
 21
246.372484365
  0
LINE
  5
306
100
AcDbEntity
  8
RACCORDO
100
AcDbLine
 62
7
  6
CONTINUOUS
 10
216.6567500419
 20
246.3639987058
 11
216.9094995041
 21
246.9032503685
  0
LWPOLYLINE
  5
307
100
AcDbEntity
  8
RACCORDO
100
AcDbPolyline
 62
7
  6
CONTINUOUS
 90
6
 70
0
 10
216.9069775813
 20
246.8980240004
 10
217.0616378368
 20
247.2184775156
 10
217.0843493846
 20
247.2664311773
 10
217.1058011652
 20
247.3140233585
 10
217.1260058187
 20
247.3612164344
 10
217.1394432197
 20
247.3940649197
  0
LWPOLYLINE
  5
308
100
AcDbEntity
  8
RACCORDO
100
AcDbPolyline
 62
250
  6
CONTINUOUS
 90
8
 70
0
 10
217.0589809916
 20
247.2130329392
 10
217.039461309
 20
247.1743992218
 10
217.0028096422
 20
247.108188377
 10
216.9625181921
 20
247.042745297
 10
216.9186162478
 20
246.9782133294
 10
216.8710989023
 20
246.9146840424
 10
216.8199884588
 20
246.8521674401
 10
216.7653180625
 20
246.7907086458
  0
LWPOLYLINE
  5
309
100
AcDbEntity
  8
RACCORDO
100
AcDbPolyline
 62
250
  6
CONTINUOUS
 90
10
 70
0
 10
214.2931442396
 20
239.8646677606
 10
214.2586458955
 20
239.8001327717
 10
214.2278036821
 20
239.7337337955
 10
214.2007157876
 20
239.6656822391
 10
214.1774684497
 20
239.596194779
 10
214.1581356716
 20
239.5254926457
 10
214.1427789921
 20
239.4538009179
 10
214.1314472983
 20
239.3813478407
 10
214.1241766662
 20
239.3083641007
 10
214.1209902395
 20
239.2350820645
  0
LINE
  5
30A
100
AcDbEntity
  8
RACCORDO
100
AcDbLine
 62
250
  6
CONTINUOUS
 10
208.9237672728
 20
259.7724543081
 11
208.9237672729
 21
259.5724543081
  0
LINE
  5
30B
100
AcDbEntity
  8
RACCORDO
100
AcDbLine
 62
7
  6
CONTINUOUS
 10
214.5362654325
 20
240.5602065087
 11
214.6031002507
 21
240.8031770991
  0
LINE
  5
30C
100
AcDbEntity
  8
RACCORDO
100
AcDbLine
 62
7
  6
CONTINUOUS
 10
214.6016031542
 20
240.7978048731
 11
214.6775832142
 21
241.0660825629
  0
LINE
  5
30D
100
AcDbEntity
  8
RACCORDO
100
AcDbLine
 62
7
  6
CONTINUOUS
 10
214.6759211515
 20
241.0603012343
 11
214.7613310118
 21
241.3527211389
  0
LINE
  5
30E
100
AcDbEntity
  8
RACCORDO
100
AcDbLine
 62
7
  6
CONTINUOUS
 10
214.7595053354
 20
241.3465767708
 11
214.8546138992
 21
241.6617686492
  0
LWPOLYLINE
  5
30F
100
AcDbEntity
  8
RACCORDO
100
AcDbPolyline
 62
250
  6
CONTINUOUS
 90
6
 70
0
 10
217.1394429491
 20
247.3940651384
 10
217.142100229
 20
247.4026137606
 10
217.1435029288
 20
247.4195027993
 10
217.1404542694
 20
247.4379609388
 10
217.1329784122
 20
247.4578416489
 10
217.1211346796
 20
247.4789871771
  0
LINE
  5
310
100
AcDbEntity
  8
RACCORDO
100
AcDbLine
 62
7
  6
CONTINUOUS
 10
214.8526231086
 20
241.6552693219
 11
214.9580427617
 21
241.9929906966
  0
LINE
  5
311
100
AcDbEntity
  8
RACCORDO
100
AcDbLine
 62
7
  6
CONTINUOUS
 10
214.9558875796
 20
241.9862011657
 11
215.0719868236
 21
242.345432371
  0
LWPOLYLINE
  5
312
100
AcDbEntity
  8
RACCORDO
100
AcDbPolyline
 62
250
  6
CONTINUOUS
 90
4
 70
0
 10
217.1443073505
 20
247.4065948103
 10
217.1476397463
 20
247.416865861
 10
217.1518403063
 20
247.4409700957
 10
217.1514784108
 20
247.4663588603
  0
LINE
  5
313
100
AcDbEntity
  8
RACCORDO
100
AcDbLine
 62
7
  6
CONTINUOUS
 10
215.0696664812
 20
242.3383864974
 11
215.1968130732
 21
242.7179597987
  0
LWPOLYLINE
  5
314
100
AcDbEntity
  8
RACCORDO
100
AcDbPolyline
 62
250
  6
CONTINUOUS
 90
10
 70
0
 10
217.0831494054
 20
247.606717828
 10
217.0809426019
 20
247.6002054233
 10
217.0786578762
 20
247.5936962883
 10
217.0762954305
 20
247.5871911671
 10
217.0738552803
 20
247.5806905072
 10
217.0713377919
 20
247.5741953451
 10
217.0687437309
 20
247.5677072869
 10
217.0660735222
 20
247.5612273369
 10
217.0633272023
 20
247.5547559185
 10
217.0605049898
 20
247.548293746
  0
LINE
  5
315
100
AcDbEntity
  8
RACCORDO
100
AcDbLine
 62
7
  6
CONTINUOUS
 10
215.1943244298
 20
242.7106535062
 11
215.3332752616
 21
243.1106133162
  0
LWPOLYLINE
  5
316
100
AcDbEntity
  8
RACCORDO
100
AcDbPolyline
 62
250
  6
CONTINUOUS
 90
4
 70
0
 10
217.1733775726
 20
247.8239563435
 10
217.1517639993
 20
247.76212541
 10
217.1287941401
 20
247.7007591148
 10
217.1045070052
 20
247.6398571232
  0
LWPOLYLINE
  5
317
100
AcDbEntity
  8
RACCORDO
100
AcDbPolyline
 62
250
  6
CONTINUOUS
 90
6
 70
0
 10
214.316493833
 20
239.754022772
 10
214.2994500288
 20
239.7061629042
 10
214.2843354555
 20
239.6576426647
 10
214.2711738472
 20
239.6085382425
 10
214.2599858708
 20
239.5589267441
 10
214.2507890946
 20
239.5088860721
  0
LINE
  5
318
100
AcDbEntity
  8
RACCORDO
100
AcDbLine
 62
7
  6
CONTINUOUS
 10
215.330615922
 20
243.1030983108
 11
215.481822498
 21
243.5226161645
  0
LWPOLYLINE
  5
319
100
AcDbEntity
  8
RACCORDO
100
AcDbPolyline
 62
250
  6
CONTINUOUS
 90
4
 70
0
 10
214.3164941551
 20
239.7540233384
 10
214.3396557893
 20
239.8168314045
 10
214.3592074926
 20
239.8808264362
 10
214.366104538
 20
239.9071159953
  0
LWPOLYLINE
  5
31A
100
AcDbEntity
  8
RACCORDO
100
AcDbPolyline
 62
7
  6
CONTINUOUS
 90
5
 70
0
 10
217.1443524404
 20
247.4067390424
 10
217.1496512624
 20
247.4210607996
 10
217.1553891639
 20
247.4369950586
 10
217.1610326169
 20
247.4531264386
 10
217.1615918887
 20
247.454751042
  0
LINE
  5
31B
100
AcDbEntity
  8
RACCORDO
100
AcDbLine
 62
7
  6
CONTINUOUS
 10
215.478991404
 20
243.5149167416
 11
215.6429016689
 21
243.9530257753
  0
LINE
  5
31C
100
AcDbEntity
  8
RACCORDO
100
AcDbLine
 62
7
  6
CONTINUOUS
 10
217.1394423794
 20
247.3940637185
 11
217.144287441
 21
247.4065416478
  0
LINE
  5
31D
100
AcDbEntity
  8
RACCORDO
100
AcDbLine
 62
7
  6
CONTINUOUS
 10
215.639897657
 20
243.9451328452
 11
215.8173840218
 21
244.4020351662
  0
LINE
  5
31E
100
AcDbEntity
  8
RACCORDO
100
AcDbLine
 62
7
  6
CONTINUOUS
 10
215.8142014429
 20
244.393992271
 11
216.005764971
 21
244.8689656862
  0
LINE
  5
31F
100
AcDbEntity
  8
RACCORDO
100
AcDbLine
 62
7
  6
CONTINUOUS
 10
216.002400463
 20
244.8607941881
 11
216.2085233159
 21
245.3529765961
  0
LINE
  5
320
100
AcDbEntity
  8
RACCORDO
100
AcDbLine
 62
7
  6
CONTINUOUS
 10
212.1237672728
 20
236.5724543081
 11
211.9403493166
 21
221.5602373073
  0
LINE
  5
321
100
AcDbEntity
  8
RACCORDO
100
AcDbLine
 62
7
  6
CONTINUOUS
 10
214.3239285062
 20
239.6089745069
 11
214.3274720887
 21
239.6606149481
  0
LWPOLYLINE
  5
322
100
AcDbEntity
  8
RACCORDO
100
AcDbPolyline
 62
7
  6
CONTINUOUS
 90
8
 70
0
 10
214.3274720887
 20
239.6606149481
 10
214.3320857002
 20
239.70917429
 10
214.3376078764
 20
239.7547317375
 10
214.3438261386
 20
239.7968768602
 10
214.3504127995
 20
239.8347434556
 10
214.35708764
 20
239.8680782213
 10
214.363682116
 20
239.8971932043
 10
214.3661119521
 20
239.9071134239
  0
LWPOLYLINE
  5
323
100
AcDbEntity
  8
RACCORDO
100
AcDbPolyline
 62
250
  6
CONTINUOUS
 90
5
 70
0
 10
214.2507890946
 20
239.5088860721
 10
214.2435979599
 20
239.4584948031
 10
214.2384237587
 20
239.4078320642
 10
214.2352746162
 20
239.3569774087
 10
214.2341554774
 20
239.3060106913
  0
LINE
  5
324
100
AcDbEntity
  8
RACCORDO
100
AcDbLine
 62
250
  6
CONTINUOUS
 10
214.31935262
 20
239.5216426587
 11
214.3166519344
 21
239.5032783289
  0
LINE
  5
325
100
AcDbEntity
  8
RACCORDO
100
AcDbLine
 62
7
  6
CONTINUOUS
 10
217.7562883827
 20
251.0697212376
 11
217.8125854212
 21
251.3776354361
  0
LINE
  5
326
100
AcDbEntity
  8
RACCORDO
100
AcDbLine
 62
250
  6
CONTINUOUS
 10
217.7442692848
 20
251.1132735805
 11
217.8001030565
 21
251.4164371795
  0
LINE
  5
327
100
AcDbEntity
  8
RACCORDO
100
AcDbLine
 62
7
  6
CONTINUOUS
 10
217.8124775736
 20
251.3770573336
 11
217.8724064795
 21
251.697091442
  0
LINE
  5
328
100
AcDbEntity
  8
RACCORDO
100
AcDbLine
 62
250
  6
CONTINUOUS
 10
217.8001030565
 20
251.4164371795
 11
217.860328854
 21
251.7360981092
  0
LINE
  5
329
100
AcDbEntity
  8
RACCORDO
100
AcDbLine
 62
250
  6
CONTINUOUS
 10
217.860328854
 20
251.7360981092
 11
217.8948526708
 21
251.915937889
  0
LINE
  5
32A
100
AcDbEntity
  8
RACCORDO
100
AcDbLine
 62
250
  6
CONTINUOUS
 10
214.3166519344
 20
239.5032783289
 11
214.3129065343
 21
239.4842547571
  0
LWPOLYLINE
  5
32B
100
AcDbEntity
  8
RACCORDO
100
AcDbPolyline
 62
250
  6
CONTINUOUS
 90
13
 70
0
 10
217.0605242437
 20
247.5485971497
 10
217.0465955022
 20
247.4846135633
 10
217.0307263772
 20
247.4205049267
 10
217.0128948159
 20
247.3563415259
 10
216.99304418
 20
247.2921697024
 10
216.9711943748
 20
247.2280851104
 10
216.9474399599
 20
247.1642332567
 10
216.9217707989
 20
247.1006945632
 10
216.8941714333
 20
247.0375337812
 10
216.8647270162
 20
246.9748754213
 10
216.8334586337
 20
246.9128116159
 10
216.8003272092
 20
246.8514002485
 10
216.7653282534
 20
246.7907162141
  0
LWPOLYLINE
  5
32C
100
AcDbEntity
  8
RACCORDO
100
AcDbPolyline
 62
7
  6
CONTINUOUS
 90
6
 70
0
 10
217.179196689
 20
247.5162182483
 10
217.1967092918
 20
247.5954927082
 10
217.2152788777
 20
247.6863348112
 10
217.2324268841
 20
247.7780140321
 10
217.2481187116
 20
247.8705077022
 10
217.2623137223
 20
247.9637322819
  0
LWPOLYLINE
  5
32D
100
AcDbEntity
  8
RACCORDO
100
AcDbPolyline
 62
250
  6
CONTINUOUS
 90
4
 70
0
 10
217.2595832699
 20
248.1377983737
 10
217.2454295763
 20
248.0750442976
 10
217.2297101723
 20
248.0122398027
 10
217.2124352588
 20
247.9493569411
  0
LINE
  5
32E
100
AcDbEntity
  8
RACCORDO
100
AcDbLine
 62
250
  6
CONTINUOUS
 10
217.1616697665
 20
247.4548673219
 11
217.1670893697
 21
247.4781017881
  0
LINE
  5
32F
100
AcDbEntity
  8
RACCORDO
100
AcDbLine
 62
250
  6
CONTINUOUS
 10
214.2931437954
 20
239.8646677601
 11
214.3187847505
 21
239.9720556569
  0
LINE
  5
330
100
AcDbEntity
  8
RACCORDO
100
AcDbLine
 62
250
  6
CONTINUOUS
 10
214.3187847505
 20
239.9720556569
 11
214.3477422858
 21
240.090239796
  0
LWPOLYLINE
  5
331
100
AcDbEntity
  8
RACCORDO
100
AcDbPolyline
 62
250
  6
CONTINUOUS
 90
9
 70
0
 10
214.3129065343
 20
239.4842547571
 10
214.3080268943
 20
239.4645631555
 10
214.3019218182
 20
239.4441771607
 10
214.2944971501
 20
239.4231330037
 10
214.2856561094
 20
239.4013944536
 10
214.2753021064
 20
239.3788264532
 10
214.2633362562
 20
239.3553839838
 10
214.2496555461
 20
239.3311120641
 10
214.2341552847
 20
239.3060106943
  0
LWPOLYLINE
  5
332
100
AcDbEntity
  8
RACCORDO
100
AcDbPolyline
 62
250
  6
CONTINUOUS
 90
25
 70
0
 10
214.3477422858
 20
240.090239796
 10
214.4154612085
 20
240.3587665955
 10
214.4542328029
 20
240.5091092559
 10
214.4969981234
 20
240.6709387752
 10
214.5438489908
 20
240.8444034711
 10
214.5947707676
 20
241.0293550259
 10
214.6503525425
 20
241.2260391029
 10
214.7107377886
 20
241.4345385449
 10
214.7759677984
 20
241.654770509
 10
214.8465949116
 20
241.88673213
 10
214.9227900722
 20
242.1304184274
 10
215.0046742063
 20
242.3858343818
 10
215.0928288178
 20
242.6529920693
 10
215.1874316232
 20
242.9318343998
 10
215.2886795134
 20
243.2224184635
 10
215.3972657372
 20
243.5249276068
 10
215.5133930568
 20
243.8393442216
 10
215.637295001
 20
244.1656859161
 10
215.7697831697
 20
244.5041888619
 10
215.9111339429
 20
244.8549451672
 10
216.0615637776
 20
245.2178627239
 10
216.2218665449
 20
245.5929013786
 10
216.3925055638
 20
245.9800477469
 10
216.5735685552
 20
246.3793152133
 10
216.7653154734
 20
246.7907037778
  0
LINE
  5
333
100
AcDbEntity
  8
RACCORDO
100
AcDbLine
 62
7
  6
CONTINUOUS
 10
214.3661139354
 20
239.9071504944
 11
214.4318227034
 21
240.1656996734
  0
LINE
  5
334
100
AcDbEntity
  8
RACCORDO
100
AcDbLine
 62
7
  6
CONTINUOUS
 10
214.4308243168
 20
240.1618311841
 11
214.4805910334
 21
240.3522736964
  0
LINE
  5
335
100
AcDbEntity
  8
RACCORDO
100
AcDbLine
 62
7
  6
CONTINUOUS
 10
214.479425781
 20
240.3478662534
 11
214.537596129
 21
240.5651091813
  0
LWPOLYLINE
  5
336
100
AcDbEntity
  8
RACCORDO
100
AcDbPolyline
 62
250
  6
CONTINUOUS
 90
3
 70
0
 10
217.2124352588
 20
247.9493569411
 10
217.1936235234
 20
247.8864240025
 10
217.1733775726
 20
247.8239563435
  0
LWPOLYLINE
  5
337
100
AcDbEntity
  8
RACCORDO
100
AcDbPolyline
 62
250
  6
CONTINUOUS
 90
8
 70
0
 10
214.3238985504
 20
239.6519382685
 10
214.3235797292
 20
239.6663016913
 10
214.323039536
 20
239.6808573959
 10
214.3222613152
 20
239.6955327216
 10
214.3212330934
 20
239.7102797107
 10
214.3199412959
 20
239.7250173999
 10
214.3183696513
 20
239.7396328563
 10
214.3165033045
 20
239.7540134711
  0
LINE
  5
338
100
AcDbEntity
  8
RACCORDO
100
AcDbLine
 62
250
  6
CONTINUOUS
 10
214.3240117377
 20
239.63782809
 11
214.3238985504
 21
239.6519382685
  0
LINE
  5
339
100
AcDbEntity
  8
RACCORDO
100
AcDbLine
 62
250
  6
CONTINUOUS
 10
214.3239324129
 20
239.6239870166
 11
214.3240117377
 21
239.63782809
  0
LINE
  5
33A
100
AcDbEntity
  8
RACCORDO
100
AcDbLine
 62
7
  6
CONTINUOUS
 10
213.9275674505
 20
221.5567469908
 11
214.154564747
 21
236.5724543081
  0
LINE
  5
33B
100
AcDbEntity
  8
RACCORDO
100
AcDbLine
 62
7
  6
CONTINUOUS
 10
214.0392297779
 20
221.5567469908
 11
214.3220242492
 21
239.5585214553
  0
LINE
  5
33C
100
AcDbEntity
  8
RACCORDO
100
AcDbLine
 62
7
  6
CONTINUOUS
 10
214.3223032889
 20
239.571762426
 11
214.3219651543
 21
239.5563672287
  0
LINE
  5
33D
100
AcDbEntity
  8
RACCORDO
100
AcDbLine
 62
7
  6
CONTINUOUS
 10
214.3220242492
 20
239.5585214553
 11
214.3219651313
 21
239.556367229
  0
LINE
  5
33E
100
AcDbEntity
  8
RACCORDO
100
AcDbLine
 62
7
  6
CONTINUOUS
 10
214.3223278491
 20
239.5726292559
 11
214.3223032889
 21
239.571762426
  0
LINE
  5
33F
100
AcDbEntity
  8
RACCORDO
100
AcDbLine
 62
7
  6
CONTINUOUS
 10
214.3228729132
 20
239.5873129814
 11
214.3222976171
 21
239.5714814742
  0
LWPOLYLINE
  5
340
100
AcDbEntity
  8
RACCORDO
100
AcDbPolyline
 62
250
  6
CONTINUOUS
 90
4
 70
0
 10
214.3228941567
 20
239.5883545749
 10
214.3232644292
 20
239.5972709721
 10
214.3236772069
 20
239.6104497322
 10
214.3239324129
 20
239.6239870166
  0
LINE
  5
341
100
AcDbEntity
  8
RACCORDO
100
AcDbLine
 62
7
  6
CONTINUOUS
 10
214.322710782
 20
239.5844868957
 11
214.3228941567
 21
239.5883545749
  0
LWPOLYLINE
  5
342
100
AcDbEntity
  8
RACCORDO
100
AcDbPolyline
 62
250
  6
CONTINUOUS
 90
3
 70
0
 10
214.3219651313
 20
239.556367229
 10
214.3210956294
 20
239.5393389588
 10
214.31935262
 20
239.5216426587
  0
LINE
  5
343
100
AcDbEntity
  8
RACCORDO
100
AcDbLine
 62
250
  6
CONTINUOUS
 10
217.1791994676
 20
247.5162649015
 11
217.1806582981
 21
247.5283766869
  0
LWPOLYLINE
  5
344
100
AcDbEntity
  8
RACCORDO
100
AcDbPolyline
 62
250
  6
CONTINUOUS
 90
5
 70
0
 10
217.3000420129
 20
248.3835563679
 10
217.2923292397
 20
248.3228780305
 10
217.2830243274
 20
248.2617158253
 10
217.2721170251
 20
248.200070347
 10
217.2595832699
 20
248.1377983737
  0
LINE
  5
345
100
AcDbEntity
  8
RACCORDO
100
AcDbLine
 62
7
  6
CONTINUOUS
 10
217.2623137223
 20
247.9637322819
 11
217.3295277387
 21
248.4403844716
  0
LINE
  5
346
100
AcDbEntity
  8
RACCORDO
100
AcDbLine
 62
7
  6
CONTINUOUS
 10
217.3286514676
 20
248.4343023287
 11
217.3869907502
 21
248.8318215527
  0
LWPOLYLINE
  5
347
100
AcDbEntity
  8
RACCORDO
100
AcDbPolyline
 62
250
  6
CONTINUOUS
 90
8
 70
0
 10
217.3000420393
 20
248.3835579569
 10
217.3544098445
 20
248.7532412409
 10
217.4069958296
 20
249.1011503985
 10
217.457667447
 20
249.4272854296
 10
217.5063974126
 20
249.7314117248
 10
217.5529268315
 20
250.0137638935
 10
217.5968334203
 20
250.275045764
 10
217.6379741744
 20
250.514944953
  0
LINE
  5
348
100
AcDbEntity
  8
RACCORDO
100
AcDbLine
 62
7
  6
CONTINUOUS
 10
217.3861940429
 20
248.8264939789
 11
217.4427779619
 21
249.1987846514
  0
LINE
  5
349
100
AcDbEntity
  8
RACCORDO
100
AcDbLine
 62
7
  6
CONTINUOUS
 10
217.442061279
 20
249.1941463821
 11
217.4964894536
 21
249.5410638693
  0
LINE
  5
34A
100
AcDbEntity
  8
RACCORDO
100
AcDbLine
 62
7
  6
CONTINUOUS
 10
217.4958512117
 20
249.537054965
 11
217.5478215047
 21
249.8589026828
  0
LINE
  5
34B
100
AcDbEntity
  8
RACCORDO
100
AcDbLine
 62
7
  6
CONTINUOUS
 10
217.5472602575
 20
249.855475256
 11
217.5963789933
 21
250.1518471307
  0
LINE
  5
34C
100
AcDbEntity
  8
RACCORDO
100
AcDbLine
 62
7
  6
CONTINUOUS
 10
217.595894177
 20
250.1489593348
 11
217.6417881499
 21
250.4194975395
  0
LWPOLYLINE
  5
34D
100
AcDbEntity
  8
RACCORDO
100
AcDbPolyline
 62
7
  6
CONTINUOUS
 90
7
 70
0
 10
217.8724064795
 20
251.697091442
 10
217.8796359531
 20
251.739084066
 10
217.885488584
 20
251.7813178616
 10
217.889955447
 20
251.8237477639
 10
217.8930290883
 20
251.866328344
 10
217.8947035426
 20
251.9090138809
 10
217.8948427337
 20
251.9159327342
  0
LINE
  5
34E
100
AcDbEntity
  8
RACCORDO
100
AcDbLine
 62
7
  6
CONTINUOUS
 10
217.6413792739
 20
250.4171100236
 11
217.6838083779
 21
250.6620777722
  0
LWPOLYLINE
  5
34F
100
AcDbEntity
  8
RACCORDO
100
AcDbPolyline
 62
250
  6
CONTINUOUS
 90
3
 70
0
 10
217.6379741744
 20
250.514944953
 10
217.7117989958
 20
250.9331734141
 10
217.7442692848
 20
251.1132735805
  0
LINE
  5
350
100
AcDbEntity
  8
RACCORDO
100
AcDbLine
 62
7
  6
CONTINUOUS
 10
217.6834698154
 20
250.660142178
 11
217.7564980099
 21
251.0708856871
  0
LWPOLYLINE
  5
351
100
AcDbEntity
  8
0
100
AcDbPolyline
 62
7
  6
CONTINUOUS
 90
13
 70
0
 43
0.3500000087
 10
164.3166168091
 20
249.5784776367
 10
163.0309061401
 20
249.5784776367
 10
162.6023416016
 20
249.7927513794
 10
162.1737600098
 20
250.2213329712
 10
162.1737600098
 20
250.4356067139
 10
162.6023416016
 20
250.8641883057
 10
163.0309061401
 20
251.0784620483
 10
164.3166168091
 20
251.0784620483
 10
164.7451984009
 20
250.8641883057
 10
165.1737629395
 20
250.4356067139
 10
165.1737629395
 20
250.2213329712
 10
164.7451984009
 20
249.7927513794
 10
164.3166168091
 20
249.5784776367
  0
LWPOLYLINE
  5
352
100
AcDbEntity
  8
RACCORDO
100
AcDbPolyline
 62
250
  6
CONTINUOUS
 90
5
 70
0
 10
214.3164941551
 20
239.7540233384
 10
214.3134894239
 20
239.7648345246
 10
214.3101623131
 20
239.77884724
 10
214.3064882258
 20
239.7959494061
 10
214.3024430628
 20
239.8160289518
  0
LINE
  5
353
100
AcDbEntity
  8
RACCORDO
100
AcDbLine
 62
250
  6
CONTINUOUS
 10
214.3024430628
 20
239.8160289518
 11
214.2931457193
 21
239.8646728626
  0
LINE
  5
354
100
AcDbEntity
  8
DRAFT
100
AcDbLine
 62
7
  6
CONTINUOUS
 10
217.8361873153
 20
258.5899067145
 11
217.9237672728
 21
253.5724543081
  0
LINE
  5
355
100
AcDbEntity
  8
RACCORDO
100
AcDbLine
 62
250
  6
CONTINUOUS
 10
217.0948690382
 20
253.5724543081
 11
217.0105886203
 21
258.5899067145
  0
LINE
  5
356
100
AcDbEntity
  8
RACCORDO
100
AcDbLine
 62
250
  6
CONTINUOUS
 10
217.3862922519
 20
253.5724543081
 11
217.3028919085
 21
258.5899067145
  0
LINE
  5
357
100
AcDbEntity
  8
RACCORDO
100
AcDbLine
 62
250
  6
CONTINUOUS
 10
217.3000420393
 20
248.3835579569
 11
217.3862922516
 21
253.5724543081
  0
LINE
  5
358
100
AcDbEntity
  8
RACCORDO
100
AcDbLine
 62
250
  6
CONTINUOUS
 10
216.9954383495
 20
247.6531425686
 11
217.0948690418
 21
253.5724543081
  0
LINE
  5
359
100
AcDbEntity
  8
DRAFT
100
AcDbLine
 62
7
  6
CONTINUOUS
 10
217.9237672728
 20
253.5724543081
 11
217.8948525783
 21
251.9159325682
  0
LWPOLYLINE
  5
35A
100
AcDbEntity
  8
RACCORDO
100
AcDbPolyline
 62
250
  6
CONTINUOUS
 90
5
 70
0
 10
217.1670893697
 20
247.4781017881
 10
217.167919086
 20
247.5026963602
 10
217.1641929062
 20
247.5285512944
 10
217.1558754737
 20
247.5552948997
 10
217.1430284633
 20
247.5827145719
  0
LWPOLYLINE
  5
35B
100
AcDbEntity
  8
RACCORDO
100
AcDbPolyline
 62
250
  6
CONTINUOUS
 90
5
 70
0
 10
217.3000423854
 20
248.3835589781
 10
217.2953235468
 20
248.283766216
 10
217.2879039951
 20
248.1833905574
 10
217.2777411557
 20
248.0825295442
 10
217.2666743314
 20
247.9947198312
  0
LINE
  5
35C
100
AcDbEntity
  8
RACCORDO
100
AcDbLine
 62
7
  6
CONTINUOUS
 10
217.9237672728
 20
253.5724543081
 11
173.9237672728
 21
253.5724543081
  0
LWPOLYLINE
  5
35D
100
AcDbEntity
  8
RACCORDO
100
AcDbPolyline
 62
250
  6
CONTINUOUS
 90
7
 70
0
 10
216.9954383554
 20
247.6531429175
 10
217.0110930908
 20
247.6453124831
 10
217.0263018656
 20
247.6375316395
 10
217.0410647376
 20
247.6298003019
 10
217.0553820349
 20
247.6221183819
 10
217.0692543489
 20
247.6144857876
 10
217.0826825278
 20
247.6069024243
  0
LWPOLYLINE
  5
35E
100
AcDbEntity
  8
RACCORDO
100
AcDbPolyline
 62
250
  6
CONTINUOUS
 90
3
 70
0
 10
217.1514784108
 20
247.4663588603
 10
217.1465592339
 20
247.4928296837
 10
217.13720309
 20
247.5204027772
  0
LWPOLYLINE
  5
35F
100
AcDbEntity
  8
RACCORDO
100
AcDbPolyline
 62
250
  6
CONTINUOUS
 90
7
 70
0
 10
217.1806582981
 20
247.5283766869
 10
217.178733557
 20
247.5453265931
 10
217.1724081553
 20
247.5631055245
 10
217.1617172563
 20
247.5815081522
 10
217.1467425342
 20
247.6003927877
 10
217.1276067723
 20
247.6196822452
 10
217.1044535332
 20
247.639257721
  0
LINE
  5
360
100
AcDbEntity
  8
RACCORDO
100
AcDbLine
 62
250
  6
CONTINUOUS
 10
217.0847535611
 20
247.5243931934
 11
217.0605049898
 21
247.548293746
  0
LINE
  5
361
100
AcDbEntity
  8
RACCORDO
100
AcDbLine
 62
250
  6
CONTINUOUS
 10
217.1050170808
 20
247.5012298077
 11
217.0847535611
 21
247.5243931934
  0
LINE
  5
362
100
AcDbEntity
  8
RACCORDO
100
AcDbLine
 62
250
  6
CONTINUOUS
 10
217.1054283183
 20
247.5777489408
 11
217.0831494054
 21
247.606717828
  0
LINE
  5
363
100
AcDbEntity
  8
RACCORDO
100
AcDbLine
 62
250
  6
CONTINUOUS
 10
217.1258275757
 20
247.6107515431
 11
217.1044535332
 21
247.639257721
  0
LINE
  5
364
100
AcDbEntity
  8
RACCORDO
100
AcDbLine
 62
250
  6
CONTINUOUS
 10
217.1211346796
 20
247.4789871771
 11
217.1050170808
 21
247.5012298077
  0
LWPOLYLINE
  5
365
100
AcDbEntity
  8
RACCORDO
100
AcDbPolyline
 62
250
  6
CONTINUOUS
 90
7
 70
0
 10
216.995437413
 20
247.6531427225
 10
217.0072556416
 20
247.6355043721
 10
217.0186848334
 20
247.6179419569
 10
217.0297255155
 20
247.6004628594
 10
217.0403783811
 20
247.5830743193
 10
217.0506442855
 20
247.5657834325
 10
217.0605242437
 20
247.5485971497
  0
LINE
  5
366
100
AcDbEntity
  8
RACCORDO
100
AcDbLine
 62
250
  6
CONTINUOUS
 10
217.1430284633
 20
247.5827145719
 11
217.1258275757
 21
247.6107515431
  0
LWPOLYLINE
  5
367
100
AcDbEntity
  8
RACCORDO
100
AcDbPolyline
 62
250
  6
CONTINUOUS
 90
3
 70
0
 10
217.13720309
 20
247.5204027772
 10
217.1234821455
 20
247.5488605715
 10
217.1054283183
 20
247.5777489408
  0
LWPOLYLINE
  5
368
100
AcDbEntity
  8
RACCORDO
100
AcDbPolyline
 62
250
  6
CONTINUOUS
 90
3
 70
0
 10
174.5446426371
 20
258.5899067145
 10
174.5541551131
 20
258.5901267606
 10
174.5665107584
 20
258.5903073067
  0
LINE
  5
369
100
AcDbEntity
  8
RACCORDO
100
AcDbLine
 62
250
  6
CONTINUOUS
 10
174.5665107584
 20
258.5903073067
 11
174.5995968219
 21
258.590548461
  0
LINE
  5
36A
100
AcDbEntity
  8
RACCORDO
100
AcDbLine
 62
250
  6
CONTINUOUS
 10
217.0105886203
 20
258.5899067145
 11
217.17808496
 21
258.5906087026
  0
LINE
  5
36B
100
AcDbEntity
  8
RACCORDO
100
AcDbLine
 62
250
  6
CONTINUOUS
 10
174.0113472303
 20
258.5899067145
 11
174.5446426371
 21
258.5899067145
  0
LINE
  5
36C
100
AcDbEntity
  8
RACCORDO
100
AcDbLine
 62
250
  6
CONTINUOUS
 10
174.8369459253
 20
258.5899067145
 11
217.0105886203
 21
258.5899067145
  0
LINE
  5
36D
100
AcDbEntity
  8
RACCORDO
100
AcDbLine
 62
250
  6
CONTINUOUS
 10
217.3028919085
 20
258.5899067145
 11
217.8361873153
 21
258.5899067145
  0
LINE
  5
36E
100
AcDbEntity
  8
RACCORDO
100
AcDbLine
 62
7
  6
CONTINUOUS
 10
175.0111949264
 20
259.5724543081
 11
216.8363396193
 21
259.5724543081
  0
LINE
  5
36F
100
AcDbEntity
  8
0
100
AcDbLine
 62
7
  6
CONTINUOUS
 10
184.8680752728
 20
259.6024543081
 11
188.0456382728
 21
259.6024543081
  0
LINE
  5
370
100
AcDbEntity
  8
0
100
AcDbLine
 62
7
  6
CONTINUOUS
 10
188.2089672728
 20
259.6024543081
 11
190.8355432728
 21
259.6024543081
  0
LINE
  5
371
100
AcDbEntity
  8
0
100
AcDbLine
 62
7
  6
CONTINUOUS
 10
190.9552052728
 20
259.6024543081
 11
193.5108202728
 21
259.6024543081
  0
LINE
  5
372
100
AcDbEntity
  8
0
100
AcDbLine
 62
7
  6
CONTINUOUS
 10
194.6637792728
 20
259.6024543081
 11
195.8972372728
 21
259.6024543081
  0
LINE
  5
373
100
AcDbEntity
  8
0
100
AcDbLine
 62
7
  6
CONTINUOUS
 10
196.2761618695
 20
259.6024543081
 11
198.3194261961
 21
259.6024543081
  0
LINE
  5
374
100
AcDbEntity
  8
0
100
AcDbLine
 62
7
  6
CONTINUOUS
 10
198.5764705054
 20
259.6024543081
 11
200.6166179144
 21
259.6024543081
  0
LINE
  5
375
100
AcDbEntity
  8
0
100
AcDbLine
 62
7
  6
CONTINUOUS
 10
200.8214718254
 20
259.6024543081
 11
202.8616192345
 21
259.6024543081
  0
LINE
  5
376
100
AcDbEntity
  8
0
100
AcDbLine
 62
7
  6
CONTINUOUS
 10
203.7369012728
 20
259.6024543081
 11
207.5259752728
 21
259.6024543081
  0
LINE
  5
377
100
AcDbEntity
  8
RACCORDO
100
AcDbLine
 62
7
  6
CONTINUOUS
 10
179.5035420608
 20
259.7724543081
 11
212.3439924849
 21
259.7724543081
  0
LINE
  5
378
100
AcDbEntity
  8
RACCORDO
100
AcDbLine
 62
250
  6
CONTINUOUS
 10
174.5995968219
 20
258.590548461
 11
174.6695183257
 21
258.5906086294
  0
LINE
  5
379
100
AcDbEntity
  8
RACCORDO
100
AcDbLine
 62
250
  6
CONTINUOUS
 10
217.17808496
 20
258.5906087026
 11
217.2479835689
 21
258.5905483297
  0
LINE
  5
37A
100
AcDbEntity
  8
RACCORDO
100
AcDbLine
 62
250
  6
CONTINUOUS
 10
174.6695183257
 20
258.5906086294
 11
174.8369459253
 21
258.5899067145
  0
LWPOLYLINE
  5
37B
100
AcDbEntity
  8
RACCORDO
100
AcDbPolyline
 62
250
  6
CONTINUOUS
 90
4
 70
0
 10
217.2479835689
 20
258.5905483297
 10
217.2810450466
 20
258.5903071123
 10
217.2933888223
 20
258.590126617
 10
217.3028919085
 20
258.5899067145
  0
LWPOLYLINE
  5
37C
100
AcDbEntity
  8
RACCORDO
100
AcDbPolyline
 62
250
  6
CONTINUOUS
 90
16
 70
0
 10
175.6032765385
 20
259.5724543081
 10
175.5240480723
 20
259.5670971717
 10
175.4456684604
 20
259.5510831547
 10
175.3689774848
 20
259.5245838271
 10
175.2947968353
 20
259.4878831013
 10
175.2239213083
 20
259.4413741917
 10
175.1571102905
 20
259.3855554031
 10
175.095079618
 20
259.321024788
 10
175.0384939104
 20
259.2484737418
 10
174.9879594516
 20
259.1686795987
 10
174.9440176867
 20
259.0824972942
 10
174.9071394256
 20
258.9908502106
 10
174.8777197996
 20
258.8947202893
 10
174.8560740226
 20
258.795137499
 10
174.8424340159
 20
258.6931687989
 10
174.8369459253
 20
258.5899067145
  0
LWPOLYLINE
  5
37D
100
AcDbEntity
  8
RACCORDO
100
AcDbPolyline
 62
250
  6
CONTINUOUS
 90
4
 70
0
 10
175.5358219336
 20
259.5724543081
 10
175.4333472847
 20
259.567097193
 10
175.33197052
 20
259.551083234
 10
175.2327778171
 20
259.5245839917
  0
LWPOLYLINE
  5
37E
100
AcDbEntity
  8
RACCORDO
100
AcDbPolyline
 62
250
  6
CONTINUOUS
 90
4
 70
0
 10
216.3117126121
 20
259.5724543081
 10
216.4141875961
 20
259.5670971578
 10
216.5155646375
 20
259.551083104
 10
216.6147575517
 20
259.5245837244
  0
LWPOLYLINE
  5
37F
100
AcDbEntity
  8
RACCORDO
100
AcDbPolyline
 62
250
  6
CONTINUOUS
 90
16
 70
0
 10
216.2442580071
 20
259.5724543081
 10
216.323486312
 20
259.5670971931
 10
216.4018657881
 20
259.5510832343
 10
216.4785566568
 20
259.5245839924
 10
216.552737229
 20
259.4878833708
 10
216.6236127104
 20
259.4413745736
 10
216.6904237161
 20
259.3855558933
 10
216.7524544079
 20
259.3210253715
 10
216.809040161
 20
259.248474395
 10
216.8595746869
 20
259.1686802886
 10
216.9035165336
 20
259.0824979804
 10
216.9403948829
 20
258.9908508488
 10
216.9698145943
 20
258.8947208338
 10
216.991460445
 20
258.7951379043
 10
217.005100505
 20
258.6931690213
 10
217.01058862
 20
258.5899067145
  0
LWPOLYLINE
  5
380
100
AcDbEntity
  8
0
100
AcDbPolyline
 62
7
  6
CONTINUOUS
 90
3
 70
0
 43
0.3500000087
 10
197.4237603271
 20
269.165297583
 10
195.9237588623
 20
269.165297583
 10
196.56663125
 20
271.5224622314
  0
LWPOLYLINE
  5
381
100
AcDbEntity
  8
0
100
AcDbPolyline
 62
7
  6
CONTINUOUS
 90
3
 70
0
 43
0.3500000087
 10
195.0666297852
 20
269.165297583
 10
193.5666283203
 20
269.165297583
 10
194.2094836548
 20
271.5224622314
  0
LINE
  5
382
100
AcDbEntity
  8
RACCORDO
100
AcDbLine
 62
250
  6
CONTINUOUS
 10
216.6147575517
 20
259.5245837244
 11
216.7107035557
 21
259.4878829399
  0
LWPOLYLINE
  5
383
100
AcDbEntity
  8
RACCORDO
100
AcDbPolyline
 62
250
  6
CONTINUOUS
 90
12
 70
0
 10
216.7107035557
 20
259.4878829399
 10
216.802374654
 20
259.4413739721
 10
216.8887886532
 20
259.3855551315
 10
216.9690196866
 20
259.3210244769
 10
217.0422081333
 20
259.2484734084
 10
217.1075698281
 20
259.1686792606
 10
217.1644044649
 20
259.0824969718
 10
217.212103099
 20
258.9908499252
 10
217.2501546709
 20
258.8947200567
 10
217.2781514838
 20
258.7951373316
 10
217.2957935708
 20
258.6931687098
 10
217.3028919085
 20
258.5899067145
  0
LWPOLYLINE
  5
384
100
AcDbEntity
  8
0
100
AcDbPolyline
 62
7
  6
CONTINUOUS
 90
5
 70
0
 43
0.3500000087
 10
274.1747902588
 20
270.2367515625
 10
274.5319188477
 20
270.4510423584
 10
274.5319188477
 20
271.0938806396
 10
274.1747902588
 20
271.5224622314
 10
273.3176441284
 20
271.5224622314
  0
LWPOLYLINE
  5
385
100
AcDbEntity
  8
RACCORDO
100
AcDbPolyline
 62
250
  6
CONTINUOUS
 90
16
 70
0
 10
269.6523905654
 20
259.5724543081
 10
269.638808255
 20
259.5670971578
 10
269.6253714689
 20
259.551083104
 10
269.6122241729
 20
259.5245837244
 10
269.5995072311
 20
259.4878829399
 10
269.5873568968
 20
259.4413739721
 10
269.5759033526
 20
259.3855551315
 10
269.5652693153
 20
259.3210244769
 10
269.5555687215
 20
259.2484734084
 10
269.5469055064
 20
259.1686792606
 10
269.5393724905
 20
259.0824969718
 10
269.5330503851
 20
258.9908499252
 10
269.5280069272
 20
258.8947200567
 10
269.5242961543
 20
258.7951373316
 10
269.5219578246
 20
258.6931687098
 10
269.4837458494
 20
253.5724543081
  0
LINE
  5
386
100
AcDbEntity
  8
0
100
AcDbLine
 62
7
  6
CONTINUOUS
 10
275.2033544104
 20
203.3724543081
 11
280.0033544104
 21
203.3724543081
  0
LINE
  5
387
100
AcDbEntity
  8
DRAFT
100
AcDbLine
 62
7
  6
CONTINUOUS
 10
258.9283544104
 20
253.5724543081
 11
259.1658544705
 21
239.9660849778
  0
LINE
  5
388
100
AcDbEntity
  8
RACCORDO
100
AcDbLine
 62
7
  6
CONTINUOUS
 10
259.3151397532
 20
237.5724543081
 11
259.5818410055
 21
221.5567469908
  0
LINE
  5
389
100
AcDbEntity
  8
DRAFT
100
AcDbLine
 62
7
  6
CONTINUOUS
 10
259.2362970699
 20
237.5724543081
 11
259.2051593014
 21
239.554583183
  0
LINE
  5
38A
100
AcDbEntity
  8
DRAFT
100
AcDbLine
 62
7
  6
CONTINUOUS
 10
259.015934368
 20
258.5899067145
 11
258.9283544104
 21
253.5724543081
  0
LWPOLYLINE
  5
38B
100
AcDbEntity
  8
RACCORDO
100
AcDbPolyline
 62
250
  6
CONTINUOUS
 90
40
 70
0
 10
269.5222910722
 20
248.3835620899
 10
269.8921116823
 20
248.7533061302
 10
270.2693330991
 20
249.101277453
 10
270.6539519757
 20
249.427476058
 10
271.0470306003
 20
249.7316805142
 10
271.4474965943
 20
250.0141122527
 10
271.8521349778
 20
250.2754355673
 10
272.2602248673
 20
250.5153116492
 10
272.6724515885
 20
250.734079307
 10
273.087699299
 20
250.9334192604
 10
273.5056153396
 20
251.1134713736
 10
273.9265089195
 20
251.2740957823
 10
274.35025459
 20
251.4165536132
 10
274.7769752964
 20
251.5411297064
 10
275.2065007982
 20
251.6475392217
 10
275.6382645444
 20
251.7361887653
 10
276.0724999633
 20
251.8072140393
 10
276.5089209192
 20
251.8604793415
 10
276.9461794479
 20
251.8959841718
 10
277.3843236632
 20
251.9137274533
 10
277.8232483781
 20
251.9137102627
 10
278.2613746333
 20
251.8959353305
 10
278.698587519
 20
251.8604042521
 10
279.1349448961
 20
251.8071154321
 10
279.5691280013
 20
251.7360668142
 10
280.000853725
 20
251.6473977542
 10
280.4303524678
 20
251.5409688963
 10
280.8570777528
 20
251.416360118
 10
281.280884612
 20
251.2738453877
 10
281.7018706011
 20
251.113150737
 10
282.1198544011
 20
250.9330341373
 10
282.5351370108
 20
250.733629543
 10
282.9473740613
 20
250.5148029998
 10
283.3554187609
 20
250.2749106166
 10
283.7599222359
 20
250.0136387957
 10
284.160198142
 20
249.7313011349
 10
284.5531035703
 20
249.4271945363
 10
284.9375900699
 20
249.1010846339
 10
285.3146959119
 20
248.7532057938
 10
285.6844177184
 20
248.3835580158
  0
LINE
  5
38C
100
AcDbEntity
  8
RACCORDO
100
AcDbLine
 62
250
  6
CONTINUOUS
 10
259.1658567868
 20
239.9659522774
 11
259.2461267213
 21
240.0381707939
  0
LINE
  5
38D
100
AcDbEntity
  8
RACCORDO
100
AcDbLine
 62
250
  6
CONTINUOUS
 10
259.2461267213
 20
240.0381707939
 11
259.4269518731
 21
240.1999375583
  0
LWPOLYLINE
  5
38E
100
AcDbEntity
  8
RACCORDO
100
AcDbPolyline
 62
250
  6
CONTINUOUS
 90
22
 70
0
 10
259.4269518731
 20
240.1999375583
 10
259.819226602
 20
240.5480590609
 10
259.9921216315
 20
240.7001675026
 10
260.1868772169
 20
240.8704273726
 10
260.4044059011
 20
241.059543417
 10
260.6452860038
 20
241.2675817678
 10
260.910016493
 20
241.4944762931
 10
261.1996047242
 20
241.7407333437
 10
261.5147311006
 20
242.0065195619
 10
261.8558823484
 20
242.2916683055
 10
262.2238993935
 20
242.5961859991
 10
262.6194609242
 20
242.9203183216
 10
263.0429817386
 20
243.2638195941
 10
263.4948989031
 20
243.6259592047
 10
263.9758035003
 20
244.0070483197
 10
264.4859401453
 20
244.4067757727
 10
265.0250713758
 20
244.8234774534
 10
265.5935718374
 20
245.2574755453
 10
266.191447489
 20
245.7084478648
 10
266.8176144095
 20
246.1737637498
 10
267.471573318
 20
246.6525463128
 10
268.1535575329
 20
247.1456724414
  0
LWPOLYLINE
  5
38F
100
AcDbEntity
  8
RACCORDO
100
AcDbPolyline
 62
250
  6
CONTINUOUS
 90
3
 70
0
 10
259.9570894137
 20
239.8646946639
 10
260.4536885502
 20
240.2822903062
 10
260.6543836741
 20
240.4498067768
  0
LWPOLYLINE
  5
390
100
AcDbEntity
  8
RACCORDO
100
AcDbPolyline
 62
250
  6
CONTINUOUS
 90
20
 70
0
 10
260.6543836741
 20
240.4498067768
 10
261.1111293257
 20
240.8279077661
 10
261.3679600383
 20
241.0389537265
 10
261.644501385
 20
241.2646184421
 10
261.9408919487
 20
241.5050940228
 10
262.2576809112
 20
241.7605006461
 10
262.5954183969
 20
242.0307181346
 10
262.9541114052
 20
242.3155780655
 10
263.3342252013
 20
242.615239846
 10
263.7362389466
 20
242.929544069
 10
264.1599436345
 20
243.2578440909
 10
264.6056523508
 20
243.6003360323
 10
265.0736934585
 20
243.9568237726
 10
265.5635320319
 20
244.326072306
 10
266.0752214468
 20
244.7082750314
 10
266.6088912293
 20
245.10323855
 10
267.1636757778
 20
245.5091476591
 10
267.7390593875
 20
245.9253972913
 10
268.3351300846
 20
246.3525925141
 10
268.9516740202
 20
246.7907333274
  0
LINE
  5
391
100
AcDbEntity
  8
RACCORDO
100
AcDbLine
 62
250
  6
CONTINUOUS
 10
268.1535575329
 20
247.1456724414
 11
268.8633613289
 21
247.6531421354
  0
LINE
  5
392
100
AcDbEntity
  8
0
100
AcDbLine
 62
7
  6
CONTINUOUS
 10
262.3770320724
 20
220.5724543081
 11
262.5283962068
 21
220.2724543081
  0
LWPOLYLINE
  5
393
100
AcDbEntity
  8
RACCORDO
100
AcDbPolyline
 62
7
  6
CONTINUOUS
 90
5
 70
0
 10
259.2051874476
 20
239.5545836899
 10
259.2037260923
 20
239.5990565636
 10
259.1975512076
 20
239.6762523591
 10
259.1868007974
 20
239.7528454253
 10
259.1853295541
 20
239.7612875688
  0
LWPOLYLINE
  5
394
100
AcDbEntity
  8
RACCORDO
100
AcDbPolyline
 62
250
  6
CONTINUOUS
 90
13
 70
0
 10
269.5222910811
 20
248.3835608934
 10
269.4781191795
 20
248.3228895522
 10
269.4340164023
 20
248.2617332976
 10
269.3900406649
 20
248.200092725
 10
269.3462034509
 20
248.1378244757
 10
269.3026132058
 20
248.0750730794
 10
269.2594701861
 20
248.0122706313
 10
269.2168269843
 20
247.9493949055
 10
269.1747431544
 20
247.8864684655
 10
269.133417613
 20
247.8239899316
 10
269.0929444571
 20
247.7621251978
 10
269.0533203583
 20
247.7007077829
 10
269.0145889426
 20
247.6397373762
  0
LINE
  5
395
100
AcDbEntity
  8
RACCORDO
100
AcDbLine
 62
250
  6
CONTINUOUS
 10
268.9966179862
 20
246.8521850907
 11
268.9516803025
 21
246.7907173675
  0
LWPOLYLINE
  5
396
100
AcDbEntity
  8
RACCORDO
100
AcDbPolyline
 62
250
  6
CONTINUOUS
 90
3
 70
0
 10
269.389148878
 20
247.3772562954
 10
269.2366180134
 20
247.1744209522
 10
268.9966179862
 20
246.8521850907
  0
LWPOLYLINE
  5
397
100
AcDbEntity
  8
RACCORDO
100
AcDbPolyline
 62
250
  6
CONTINUOUS
 90
43
 70
0
 10
269.5935308438
 20
247.4271821146
 10
269.922371119
 20
247.8040790674
 10
270.2602230239
 20
248.1600079181
 10
270.6067827706
 20
248.4952278939
 10
270.962862432
 20
248.8102286285
 10
271.3271988019
 20
249.1050536016
 10
271.6964768524
 20
249.3793098458
 10
272.0702247537
 20
249.6328571805
 10
272.448835483
 20
249.8663892166
 10
272.8303917711
 20
250.080756427
 10
273.2146017439
 20
250.2761055624
 10
273.6019646825
 20
250.4527607635
 10
273.9918016975
 20
250.6117992599
 10
274.3843385276
 20
250.7536007097
 10
274.7797494982
 20
250.8781435327
 10
275.1773092675
 20
250.9858652882
 10
275.5776004306
 20
251.077049964
 10
275.9805952769
 20
251.1516614139
 10
276.3846899479
 20
251.2096271768
 10
276.7904137511
 20
251.2510055972
 10
277.1979137249
 20
251.2758684587
 10
277.6050425189
 20
251.2841330309
 10
278.0121562487
 20
251.2757323308
 10
278.4196216065
 20
251.2507331596
 10
278.8253069983
 20
251.2092208555
 10
279.2293562262
 20
251.151127285
 10
279.6323013847
 20
251.0763901514
 10
280.0325635526
 20
250.9850730941
 10
280.4301290098
 20
250.8772097942
 10
280.8255664296
 20
250.7525183183
 10
281.2181337623
 20
250.6105589837
 10
281.6080170294
 20
250.4513419267
 10
281.9954302399
 20
250.2744983576
 10
282.3796417912
 20
250.0789827553
 10
282.7611271735
 20
249.8644778489
 10
283.1396162847
 20
249.6308305524
 10
283.5132066408
 20
249.3772029644
 10
283.8823277239
 20
249.1028057491
 10
284.2464701835
 20
248.8078749433
 10
284.6022202512
 20
248.4931089984
 10
284.9482800894
 20
248.1585729181
 10
285.2854941813
 20
247.8036825908
 10
285.6135603418
 20
247.4281854065
  0
LWPOLYLINE
  5
398
100
AcDbEntity
  8
RACCORDO
100
AcDbPolyline
 62
250
  6
CONTINUOUS
 90
7
 70
0
 10
269.0145889426
 20
247.6397373762
 10
269.0093421257
 20
247.6340284306
 10
269.0039984085
 20
247.6284137897
 10
268.9985589557
 20
247.6228934882
 10
268.9930249694
 20
247.6174675612
 10
268.9873976902
 20
247.6121360446
 10
268.9816783978
 20
247.6068989749
  0
LWPOLYLINE
  5
399
100
AcDbEntity
  8
RACCORDO
100
AcDbPolyline
 62
250
  6
CONTINUOUS
 90
7
 70
0
 10
269.4252640741
 20
247.4133825412
 10
269.4187184607
 20
247.4063527554
 10
269.4123825179
 20
247.3997287102
 10
269.4062569719
 20
247.3935086864
 10
269.4003424728
 20
247.3876910137
 10
269.3946396018
 20
247.3822740725
 10
269.389148878
 20
247.3772562954
  0
LWPOLYLINE
  5
39A
100
AcDbEntity
  8
RACCORDO
100
AcDbPolyline
 62
250
  6
CONTINUOUS
 90
10
 70
0
 10
268.9823644752
 20
247.6067289882
 10
268.9793203496
 20
247.600217434
 10
268.9763291145
 20
247.5937091487
 10
268.9733909845
 20
247.5872048759
 10
268.9705059467
 20
247.5807050636
 10
268.9676744542
 20
247.5742107479
 10
268.9648974101
 20
247.5677235337
 10
268.9621752507
 20
247.5612444252
 10
268.9595079619
 20
247.5547738459
 10
268.9568957614
 20
247.5483125098
  0
LWPOLYLINE
  5
39B
100
AcDbEntity
  8
RACCORDO
100
AcDbPolyline
 62
250
  6
CONTINUOUS
 90
7
 70
0
 10
259.957129106
 20
239.8647153991
 10
259.878621709
 20
239.8389189893
 10
259.8021310517
 20
239.8153796536
 10
259.7280325428
 20
239.7943858203
 10
259.6567142554
 20
239.7762366378
 10
259.5885765545
 20
239.7612418017
 10
259.5240258015
 20
239.7497118016
  0
LWPOLYLINE
  5
39C
100
AcDbEntity
  8
RACCORDO
100
AcDbPolyline
 62
250
  6
CONTINUOUS
 90
10
 70
0
 10
259.5240400134
 20
239.7497173522
 10
259.5409162558
 20
239.7013965371
 10
259.5558930132
 20
239.6524077068
 10
259.5689467147
 20
239.6028279714
 10
259.5800568116
 20
239.5527353897
 10
259.5892058251
 20
239.5022087906
 10
259.5963793661
 20
239.4513276484
 10
259.6015661418
 20
239.4001720314
 10
259.6047579807
 20
239.3488224775
 10
259.6059498552
 20
239.2973598119
  0
LINE
  5
39D
100
AcDbEntity
  8
ASSI
100
AcDbLine
 62
7
  6
CONTINUOUS
 10
264.5582694104
 20
259.5724543081
 11
264.5582694104
 21
259.6024543081
  0
LINE
  5
39E
100
AcDbEntity
  8
RACCORDO
100
AcDbLine
 62
250
  6
CONTINUOUS
 10
269.4376669863
 20
247.4676218472
 11
269.4409285936
 21
247.483500013
  0
LINE
  5
39F
100
AcDbEntity
  8
RACCORDO
100
AcDbLine
 62
250
  6
CONTINUOUS
 10
269.4343200334
 20
247.4518871459
 11
269.4376669863
 21
247.4676218472
  0
LINE
  5
3A0
100
AcDbEntity
  8
RACCORDO
100
AcDbLine
 62
250
  6
CONTINUOUS
 10
269.4308928655
 20
247.4363066004
 11
269.4343200334
 21
247.4518871459
  0
LWPOLYLINE
  5
3A1
100
AcDbEntity
  8
RACCORDO
100
AcDbPolyline
 62
250
  6
CONTINUOUS
 90
3
 70
0
 10
269.4256054194
 20
247.4132528105
 10
269.4273862316
 20
247.4208937756
 10
269.4308928655
 20
247.4363066004
  0
LWPOLYLINE
  5
3A2
100
AcDbEntity
  8
RACCORDO
100
AcDbPolyline
 62
250
  6
CONTINUOUS
 90
10
 70
0
 10
285.8199933511
 20
247.3740644308
 10
285.8676506853
 20
247.3944643596
 10
285.9154140356
 20
247.4168651955
 10
285.9629562346
 20
247.4409697285
 10
286.0100005454
 20
247.4663586139
 10
286.0561741708
 20
247.4928293726
 10
286.101008196
 20
247.520402227
 10
286.1441456674
 20
247.5488596155
 10
286.1853457971
 20
247.5777474168
 10
286.2243359366
 20
247.6067155909
  0
LWPOLYLINE
  5
3A3
100
AcDbEntity
  8
RACCORDO
100
AcDbPolyline
 62
250
  6
CONTINUOUS
 90
10
 70
0
 10
285.7811404286
 20
247.4131969333
 10
285.8289166146
 20
247.4329257036
 10
285.8769636372
 20
247.4546545645
 10
285.9249532256
 20
247.478074424
 10
285.9726101007
 20
247.5027394994
 10
286.0195537468
 20
247.5284511855
 10
286.0652981029
 20
247.555264817
 10
286.1094759868
 20
247.5829675667
 10
286.1518435878
 20
247.6110792562
 10
286.1921205794
 20
247.6392382625
  0
LWPOLYLINE
  5
3A4
100
AcDbEntity
  8
RACCORDO
100
AcDbPolyline
 62
250
  6
CONTINUOUS
 90
7
 70
0
 10
286.2251067399
 20
247.6069233756
 10
286.2452206919
 20
247.6144977202
 10
286.2651869225
 20
247.6221234973
 10
286.2849941912
 20
247.6298008087
 10
286.3046311005
 20
247.6375297529
 10
286.3240861014
 20
247.6453104253
 10
286.3433474976
 20
247.6531429175
  0
LINE
  5
3A5
100
AcDbEntity
  8
RACCORDO
100
AcDbLine
 62
250
  6
CONTINUOUS
 10
285.7654977964
 20
247.4831536304
 11
285.7146371649
 21
247.4643178883
  0
LINE
  5
3A6
100
AcDbEntity
  8
RACCORDO
100
AcDbLine
 62
250
  6
CONTINUOUS
 10
285.7146371649
 20
247.4643178883
 11
285.6639620139
 21
247.4459698078
  0
LINE
  5
3A7
100
AcDbEntity
  8
RACCORDO
100
AcDbLine
 62
250
  6
CONTINUOUS
 10
285.6639620139
 20
247.4459698078
 11
285.613554985
 21
247.4281786278
  0
LWPOLYLINE
  5
3A8
100
AcDbEntity
  8
RACCORDO
100
AcDbPolyline
 62
7
  6
CONTINUOUS
 90
16
 70
0
 10
285.8157415234
 20
220.5724543081
 10
285.8420382324
 20
220.5776029683
 10
285.8675499117
 20
220.5930649902
 10
285.8922765612
 20
220.6187830332
 10
285.9164636046
 20
220.6545901116
 10
285.9398656181
 20
220.7002081157
 10
285.9617463309
 20
220.7552476045
 10
285.9820667529
 20
220.8192209553
 10
286.0008658741
 20
220.8915179392
 10
286.0175243929
 20
220.9713973463
 10
286.0319775484
 20
221.0579991005
 10
286.0442901015
 20
221.1504748552
 10
286.0540370337
 20
221.2479824288
 10
286.0610766721
 20
221.3495387491
 10
286.0655506896
 20
221.4540074457
 10
286.0674590861
 20
221.5602373073
  0
LWPOLYLINE
  5
3A9
100
AcDbEntity
  8
RACCORDO
100
AcDbPolyline
 62
7
  6
CONTINUOUS
 90
16
 70
0
 10
269.3909672975
 20
220.5724543081
 10
269.3645830897
 20
220.5776391426
 10
269.3390139495
 20
220.5931851994
 10
269.3142598767
 20
220.6189980595
 10
269.2900843219
 20
220.6548640211
 10
269.2667238346
 20
220.7004757158
 10
269.2448880636
 20
220.7554567128
 10
269.2246128549
 20
220.8193102167
 10
269.2058623626
 20
220.8914206744
 10
269.1892386978
 20
220.9711081784
 10
269.1747986596
 20
221.057525776
 10
269.1624854489
 20
221.1498378103
 10
269.1527307796
 20
221.2472908558
 10
269.1456785565
 20
221.3489443658
 10
269.1411848749
 20
221.4536440032
 10
269.1392497348
 20
221.5602373073
  0
LWPOLYLINE
  5
3AA
100
AcDbEntity
  8
RACCORDO
100
AcDbPolyline
 62
250
  6
CONTINUOUS
 90
10
 70
0
 10
259.9570938864
 20
239.8646946635
 10
259.9902347123
 20
239.8001620339
 10
260.0198637284
 20
239.7337653522
 10
260.0458866025
 20
239.6657160044
 10
260.0682205244
 20
239.5962306761
 10
260.0867943526
 20
239.5255305498
 10
260.1015488213
 20
239.4538405939
 10
260.1124368918
 20
239.3813890031
 10
260.1194239228
 20
239.3084064781
 10
260.1224876504
 20
239.2351253728
  0
LINE
  5
3AB
100
AcDbEntity
  8
RACCORDO
100
AcDbLine
 62
250
  6
CONTINUOUS
 10
268.8211680151
 20
253.5724543081
 11
268.8569305275
 21
258.5899067145
  0
LWPOLYLINE
  5
3AC
100
AcDbEntity
  8
RACCORDO
100
AcDbPolyline
 62
250
  6
CONTINUOUS
 90
13
 70
0
 10
268.9568619193
 20
247.5486094627
 10
268.9522478552
 20
247.4846337027
 10
268.9484080369
 20
247.4205314109
 10
268.9453197411
 20
247.3563728689
 10
268.942911928
 20
247.2922044407
 10
268.9412041208
 20
247.2281217742
 10
268.9403075244
 20
247.1642703465
 10
268.9401937069
 20
247.100729863
 10
268.9408295905
 20
247.0375658852
 10
268.9423188903
 20
246.9749051446
 10
268.9446731167
 20
246.9128404827
 10
268.947809805
 20
246.851429047
 10
268.9516898639
 20
246.7907457234
  0
LWPOLYLINE
  5
3AD
100
AcDbEntity
  8
RACCORDO
100
AcDbPolyline
 62
250
  6
CONTINUOUS
 90
10
 70
0
 10
269.5222918714
 20
248.3835628955
 10
269.5103878896
 20
248.2837805671
 10
269.4992749318
 20
248.1834135245
 10
269.4888879625
 20
248.0825592693
 10
269.4789990293
 20
247.980913713
 10
269.4696964856
 20
247.8789785411
 10
269.4613448732
 20
247.7780456112
 10
269.4539699319
 20
247.6785894324
 10
269.4472991025
 20
247.5802823097
 10
269.4412128468
 20
247.4831913907
  0
LWPOLYLINE
  5
3AE
100
AcDbEntity
  8
0
100
AcDbPolyline
 62
7
  6
CONTINUOUS
 90
3
 70
0
 43
0.3500000087
 10
278.5319227539
 20
268.8081689941
 10
278.4605038574
 20
268.5938781982
 10
278.317631958
 20
268.3081685059
  0
LINE
  5
3AF
100
AcDbEntity
  8
0
100
AcDbLine
 62
7
  6
CONTINUOUS
 10
285.8533649823
 20
220.5224543081
 11
285.0700579702
 21
220.5224543081
  0
LINE
  5
3B0
100
AcDbEntity
  8
0
100
AcDbLine
 62
7
  6
CONTINUOUS
 10
285.0300136493
 20
220.5224543081
 11
280.7533678386
 21
220.5224543081
  0
LINE
  5
3B1
100
AcDbEntity
  8
0
100
AcDbLine
 62
7
  6
CONTINUOUS
 10
275.2033544104
 20
220.5224543081
 11
272.0175174104
 21
220.5224543081
  0
LINE
  5
3B2
100
AcDbEntity
  8
RACCORDO
100
AcDbLine
 62
7
  6
CONTINUOUS
 10
294.6184893818
 20
220.5724543081
 11
260.5882165489
 21
220.5724543081
  0
LINE
  5
3B3
100
AcDbEntity
  8
RACCORDO
100
AcDbLine
 62
250
  6
CONTINUOUS
 10
295.6248678154
 20
221.5567469908
 11
286.0674224588
 21
221.5567469908
  0
LINE
  5
3B4
100
AcDbEntity
  8
RACCORDO
100
AcDbLine
 62
250
  6
CONTINUOUS
 10
279.6116275332
 20
221.5567469908
 11
275.5950812877
 21
221.5567469908
  0
LINE
  5
3B5
100
AcDbEntity
  8
RACCORDO
100
AcDbLine
 62
250
  6
CONTINUOUS
 10
269.1392863621
 20
221.5567469908
 11
259.5818410055
 21
221.5567469908
  0
LINE
  5
3B6
100
AcDbEntity
  8
RACCORDO
100
AcDbLine
 62
250
  6
CONTINUOUS
 10
286.0674590796
 20
221.5602373073
 11
279.6116488546
 21
221.5602373073
  0
LINE
  5
3B7
100
AcDbEntity
  8
RACCORDO
100
AcDbLine
 62
250
  6
CONTINUOUS
 10
275.5950599663
 20
221.5602373073
 11
269.1392497413
 21
221.5602373073
  0
LWPOLYLINE
  5
3B8
100
AcDbEntity
  8
RACCORDO
100
AcDbPolyline
 62
7
  6
CONTINUOUS
 90
19
 70
0
 10
260.5881882622
 20
220.5724543081
 10
260.5018679067
 20
220.5759782884
 10
260.4167797651
 20
220.5868890111
 10
260.3329238374
 20
220.6051864762
 10
260.24933616
 20
220.6312251272
 10
260.1669806966
 20
220.6646505206
 10
260.0887493384
 20
220.7043993255
 10
260.0152345277
 20
220.7504693183
 10
259.9458438222
 20
220.8028627226
 10
259.8816917859
 20
220.8605228782
 10
259.8227925885
 20
220.9234804956
 10
259.7691320602
 20
220.9917048642
 10
259.7217822556
 20
221.064047193
 10
259.6807491088
 20
221.1410702459
 10
259.6460266857
 20
221.2222112588
 10
259.6186692385
 20
221.3046331481
 10
259.5990281848
 20
221.3873902193
 10
259.5867521071
 20
221.4714281669
 10
259.5818410055
 20
221.5567469908
  0
LINE
  5
3B9
100
AcDbEntity
  8
RACCORDO
100
AcDbLine
 62
7
  6
CONTINUOUS
 10
268.9817549913
 20
236.5724543081
 11
269.1392497413
 21
221.5602373073
  0
LINE
  5
3BA
100
AcDbEntity
  8
RACCORDO
100
AcDbLine
 62
250
  6
CONTINUOUS
 10
269.5222910722
 20
248.3835620899
 11
269.4837458477
 21
253.5724543081
  0
LINE
  5
3BB
100
AcDbEntity
  8
RACCORDO
100
AcDbLine
 62
250
  6
CONTINUOUS
 10
268.8633613289
 20
247.6531421354
 11
268.8211680194
 21
253.5724543081
  0
LINE
  5
3BC
100
AcDbEntity
  8
ASSI
100
AcDbLine
 62
7
  6
CONTINUOUS
 10
268.8084714104
 20
259.5724543081
 11
268.8084714104
 21
259.6024543081
  0
LINE
  5
3BD
100
AcDbEntity
  8
RACCORDO
100
AcDbLine
 62
250
  6
CONTINUOUS
 10
278.0225550437
 20
239.7195009297
 11
277.6375677153
 21
239.5844843696
  0
LWPOLYLINE
  5
3BE
100
AcDbEntity
  8
RACCORDO
100
AcDbPolyline
 62
250
  6
CONTINUOUS
 90
7
 70
0
 10
279.3016954901
 20
240.144894109
 10
279.1250742923
 20
240.0891643461
 10
278.946429388
 20
240.0317266503
 10
278.765765377
 20
239.9725806646
 10
278.5831679571
 20
239.9116272861
 10
278.3985628597
 20
239.8489649914
 10
278.0225550437
 20
239.7195009297
  0
LINE
  5
3BF
100
AcDbEntity
  8
0
100
AcDbLine
 62
7
  6
CONTINUOUS
 10
272.0175174104
 20
220.5724543081
 11
272.0175174104
 21
220.5224543081
  0
LINE
  5
3C0
100
AcDbEntity
  8
0
100
AcDbLine
 62
7
  6
CONTINUOUS
 10
272.0919524104
 20
220.5724543081
 11
272.0919524104
 21
220.5224543081
  0
LINE
  5
3C1
100
AcDbEntity
  8
0
100
AcDbLine
 62
7
  6
CONTINUOUS
 10
272.3427230665
 20
220.5724543081
 11
272.3427230665
 21
220.5224543081
  0
LINE
  5
3C2
100
AcDbEntity
  8
RACCORDO
100
AcDbLine
 62
250
  6
CONTINUOUS
 10
275.8623216104
 20
240.0116254726
 11
275.905013374
 21
240.1448940655
  0
LWPOLYLINE
  5
3C3
100
AcDbEntity
  8
RACCORDO
100
AcDbPolyline
 62
250
  6
CONTINUOUS
 90
4
 70
0
 10
275.7762423182
 20
239.7540199618
 10
275.7976917013
 20
239.8168288339
 10
275.8192300409
 20
239.8808245875
 10
275.8623216104
 20
240.0116254726
  0
LWPOLYLINE
  5
3C4
100
AcDbEntity
  8
RACCORDO
100
AcDbPolyline
 62
250
  6
CONTINUOUS
 90
7
 70
0
 10
286.2498385395
 20
247.5485930278
 10
286.2660421448
 20
247.5657806855
 10
286.2820068127
 20
247.5830726766
 10
286.2977260423
 20
247.6004620483
 10
286.3131933555
 20
247.6179417032
 10
286.3284023014
 20
247.6355044003
 10
286.3433464598
 20
247.6531427564
  0
LINE
  5
3C5
100
AcDbEntity
  8
RACCORDO
100
AcDbLine
 62
7
  6
CONTINUOUS
 10
275.6010940643
 20
220.5724543081
 11
275.5033544104
 21
236.5724543081
  0
LINE
  5
3C6
100
AcDbEntity
  8
0
100
AcDbLine
 62
7
  6
CONTINUOUS
 10
275.2033544104
 20
203.3724543081
 11
275.2033544104
 21
220.5724543081
  0
LWPOLYLINE
  5
3C7
100
AcDbEntity
  8
0
100
AcDbPolyline
 62
7
  6
CONTINUOUS
 90
4
 70
0
 43
0.3500000087
 10
275.4605009277
 20
270.8795898438
 10
275.4605009277
 20
271.5224622314
 10
276.9605023926
 20
271.5224622314
 10
276.1033562622
 20
268.5224593018
  0
LINE
  5
3C8
100
AcDbEntity
  8
0
100
AcDbLine
 62
7
  6
CONTINUOUS
 10
292.0837199758
 20
220.5724543081
 11
292.6783126141
 21
220.2724543081
  0
LWPOLYLINE
  5
3C9
100
AcDbEntity
  8
RACCORDO
100
AcDbPolyline
 62
250
  6
CONTINUOUS
 90
10
 70
0
 10
274.9003336407
 20
239.8646708352
 10
274.9054114924
 20
239.8001358513
 10
274.9099513455
 20
239.7337368651
 10
274.9139387525
 20
239.6656852844
 10
274.9173610244
 20
239.5961977864
 10
274.9202072727
 20
239.5254956022
 10
274.9224684428
 20
239.4538038113
 10
274.924137342
 20
239.3813506599
 10
274.9252086627
 20
239.3083668351
 10
274.9256790001
 20
239.2350847046
  0
LINE
  5
3CA
100
AcDbEntity
  8
RACCORDO
100
AcDbLine
 62
250
  6
CONTINUOUS
 10
277.6375670632
 20
239.5844844158
 11
277.6338549323
 21
239.5563668071
  0
LWPOLYLINE
  5
3CB
100
AcDbEntity
  8
RACCORDO
100
AcDbPolyline
 62
250
  6
CONTINUOUS
 90
3
 70
0
 10
279.4304813204
 20
239.7540131031
 10
279.4219543458
 20
239.7061544052
 10
279.4051975961
 20
239.6085319389
  0
LWPOLYLINE
  5
3CC
100
AcDbEntity
  8
RACCORDO
100
AcDbPolyline
 62
250
  6
CONTINUOUS
 90
5
 70
0
 10
295.8900294913
 20
239.3964174039
 10
295.8311189599
 20
239.3725261709
 10
295.762388261
 20
239.3489028838
 10
295.6851665299
 20
239.3239640363
 10
295.600713516
 20
239.2977096282
  0
LINE
  5
3CD
100
AcDbEntity
  8
RACCORDO
100
AcDbLine
 62
250
  6
CONTINUOUS
 10
275.7762551552
 20
239.7540194827
 11
275.793209097
 21
239.6576396538
  0
LINE
  5
3CE
100
AcDbEntity
  8
RACCORDO
100
AcDbLine
 62
250
  6
CONTINUOUS
 10
275.793209097
 20
239.6576396538
 11
275.8097314262
 21
239.5589240057
  0
LINE
  5
3CF
100
AcDbEntity
  8
RACCORDO
100
AcDbLine
 62
250
  6
CONTINUOUS
 10
275.8097314262
 20
239.5589240057
 11
275.8257184216
 21
239.4584923285
  0
LWPOLYLINE
  5
3D0
100
AcDbEntity
  8
RACCORDO
100
AcDbPolyline
 62
250
  6
CONTINUOUS
 90
3
 70
0
 10
275.8257184216
 20
239.4584923285
 10
275.8410697229
 20
239.3569751864
 10
275.8484767001
 20
239.30600859
  0
LINE
  5
3D1
100
AcDbEntity
  8
0
100
AcDbLine
 62
7
  6
CONTINUOUS
 10
280.0033544104
 20
203.3724543081
 11
280.0033544104
 21
220.5724543081
  0
LINE
  5
3D2
100
AcDbEntity
  8
RACCORDO
100
AcDbLine
 62
7
  6
CONTINUOUS
 10
279.7033544104
 20
236.5724543081
 11
279.6056147566
 21
220.5724543081
  0
LWPOLYLINE
  5
3D3
100
AcDbEntity
  8
RACCORDO
100
AcDbPolyline
 62
250
  6
CONTINUOUS
 90
10
 70
0
 10
280.3063795858
 20
239.8646697265
 10
280.3013069543
 20
239.8001370226
 10
280.296770558
 20
239.7337396641
 10
280.2927848728
 20
239.6656889825
 10
280.2893620669
 20
239.5962013365
 10
280.2865136089
 20
239.5254981591
 10
280.2842502071
 20
239.4538052932
 10
280.2825795951
 20
239.3813512598
 10
280.2815065351
 20
239.3083664929
 10
280.2810344318
 20
239.2350833682
  0
LINE
  5
3D4
100
AcDbEntity
  8
RACCORDO
100
AcDbLine
 62
250
  6
CONTINUOUS
 10
279.37323731
 20
239.4078294954
 11
279.3582344542
 21
239.3060096198
  0
LINE
  5
3D5
100
AcDbEntity
  8
RACCORDO
100
AcDbLine
 62
250
  6
CONTINUOUS
 10
279.3889245244
 20
239.5088817525
 11
279.37323731
 21
239.4078294954
  0
LINE
  5
3D6
100
AcDbEntity
  8
RACCORDO
100
AcDbLine
 62
250
  6
CONTINUOUS
 10
279.4051975961
 20
239.6085319389
 11
279.3889245244
 21
239.5088817525
  0
LWPOLYLINE
  5
3D7
100
AcDbEntity
  8
RACCORDO
100
AcDbPolyline
 62
250
  6
CONTINUOUS
 90
25
 70
0
 10
285.6135603418
 20
247.4281854065
 10
285.4255513795
 20
246.8928858018
 10
285.2238549791
 20
246.3772341658
 10
285.0093114856
 20
245.8819927135
 10
284.7820853108
 20
245.408459753
 10
284.5435556776
 20
244.956616691
 10
284.2963112932
 20
244.5251031626
 10
284.0409524956
 20
244.113896712
 10
283.778123427
 20
243.723831959
 10
283.5104274836
 20
243.3547180461
 10
283.2384337409
 20
243.0069443669
 10
282.9625884697
 20
242.6806461453
 10
282.6852757802
 20
242.3751807266
 10
282.4075623254
 20
242.0913237638
 10
282.1291573229
 20
241.828616862
 10
281.8503320733
 20
241.5845091391
 10
281.5718439064
 20
241.359087383
 10
281.2934392099
 20
241.152433652
 10
281.0137766071
 20
240.9619487424
 10
280.7329582359
 20
240.7871792357
 10
280.4511886923
 20
240.6286642896
 10
280.1672154907
 20
240.485272348
 10
279.8806832896
 20
240.3566401111
 10
279.5921477852
 20
240.2431753545
 10
279.3016954901
 20
240.144894109
  0
LWPOLYLINE
  5
3D8
100
AcDbEntity
  8
RACCORDO
100
AcDbPolyline
 62
250
  6
CONTINUOUS
 90
28
 70
0
 10
286.2550760558
 20
246.7907126221
 10
286.0936021728
 20
246.3706010797
 10
285.923527774
 20
245.963185627
 10
285.7451234947
 20
245.5684662641
 10
285.5581122567
 20
245.1864216012
 10
285.3632270786
 20
244.8170730281
 10
285.1621722933
 20
244.4604847141
 10
284.9549739705
 20
244.116571964
 10
284.7418189259
 20
243.7854194731
 10
284.5245437956
 20
243.4673454969
 10
284.3031086549
 20
243.1624103393
 10
284.0775615451
 20
242.8705536964
 10
283.8497739805
 20
242.5919129112
 10
283.6197451968
 20
242.3266767244
 10
283.3873184877
 20
242.0746563954
 10
283.1540633026
 20
241.8354230448
 10
282.9200705285
 20
241.6091698686
 10
282.6849878067
 20
241.3957036709
 10
282.449695881
 20
241.1940159843
 10
282.2143131706
 20
241.0041747642
 10
281.9784230782
 20
240.8261120551
 10
281.7421196299
 20
240.6586155234
 10
281.5054095116
 20
240.5015933416
 10
281.267994113
 20
240.3551373371
 10
281.0295409703
 20
240.2183106584
 10
280.7898536828
 20
240.0908010218
 10
280.5488504195
 20
239.972920711
 10
280.3063833206
 20
239.864669726
  0
LWPOLYLINE
  5
3D9
100
AcDbEntity
  8
RACCORDO
100
AcDbPolyline
 62
250
  6
CONTINUOUS
 90
4
 70
0
 10
295.9998802232
 20
239.4483212188
 10
295.9943370385
 20
239.4449958359
 10
295.9730455325
 20
239.4355026685
 10
295.8900294913
 20
239.3964174039
  0
LINE
  5
3DA
100
AcDbEntity
  8
0
100
AcDbLine
 62
7
  6
CONTINUOUS
 10
263.122988845
 20
220.5724543081
 11
262.5283962068
 21
220.2724543081
  0
LWPOLYLINE
  5
3DB
100
AcDbEntity
  8
RACCORDO
100
AcDbPolyline
 62
250
  6
CONTINUOUS
 90
9
 70
0
 10
259.6059501169
 20
239.2973598161
 10
259.4950942948
 20
239.341908278
 10
259.4050068594
 20
239.3847805898
 10
259.333936397
 20
239.4259767515
 10
259.280482823
 20
239.4692428765
 10
259.242440341
 20
239.5108328515
 10
259.2179136224
 20
239.5395083361
 10
259.2063639356
 20
239.5513962425
 10
259.2051918374
 20
239.5525120681
  0
LINE
  5
3DC
100
AcDbEntity
  8
RACCORDO
100
AcDbLine
 62
250
  6
CONTINUOUS
 10
277.5691383955
 20
239.5844862931
 11
277.5728560379
 21
239.556367093
  0
LWPOLYLINE
  5
3DD
100
AcDbEntity
  8
0
100
AcDbPolyline
 62
7
  6
CONTINUOUS
 90
2
 70
0
 43
0.3500000087
 10
280.531924707
 20
268.5224593018
 10
280.531924707
 20
270.0224607666
  0
LINE
  5
3DE
100
AcDbEntity
  8
0
100
AcDbLine
 62
7
  6
CONTINUOUS
 10
280.7533663752
 20
220.5724543081
 11
280.7533663752
 21
220.5224543081
  0
LINE
  5
3DF
100
AcDbEntity
  8
0
100
AcDbLine
 62
7
  6
CONTINUOUS
 10
280.7661484104
 20
220.5724543081
 11
280.7661484104
 21
220.5224543081
  0
LINE
  5
3E0
100
AcDbEntity
  8
0
100
AcDbLine
 62
7
  6
CONTINUOUS
 10
281.5366744104
 20
220.5724543081
 11
281.5366744104
 21
220.5224543081
  0
LWPOLYLINE
  5
3E1
100
AcDbEntity
  8
RACCORDO
100
AcDbPolyline
 62
250
  6
CONTINUOUS
 90
7
 70
0
 10
295.600713516
 20
239.2977096282
 10
295.5281366184
 20
239.2787462832
 10
295.4500185144
 20
239.2631930232
 10
295.3664643069
 20
239.2510498482
 10
295.27757984
 20
239.2423167582
 10
295.1834716153
 20
239.2369937531
 10
295.0842467103
 20
239.235080833
  0
LWPOLYLINE
  5
3E2
100
AcDbEntity
  8
RACCORDO
100
AcDbPolyline
 62
250
  6
CONTINUOUS
 90
7
 70
0
 10
268.8633634541
 20
247.6531425171
 10
268.8783058093
 20
247.6355087994
 10
268.8935130053
 20
247.6179499986
 10
268.9089786507
 20
247.6004734955
 10
268.9246963227
 20
247.5830865304
 10
268.9406595703
 20
247.5657962012
 10
268.9568619193
 20
247.5486094627
  0
LINE
  5
3E3
100
AcDbEntity
  8
RACCORDO
100
AcDbLine
 62
250
  6
CONTINUOUS
 10
279.4304682717
 20
239.7540128895
 11
279.4090183232
 21
239.8168237477
  0
LINE
  5
3E4
100
AcDbEntity
  8
RACCORDO
100
AcDbLine
 62
250
  6
CONTINUOUS
 10
279.4090183232
 20
239.8168237477
 11
279.36591481
 21
239.9458181022
  0
LWPOLYLINE
  5
3E5
100
AcDbEntity
  8
RACCORDO
100
AcDbPolyline
 62
250
  6
CONTINUOUS
 90
3
 70
0
 10
279.36591481
 20
239.9458181022
 10
279.3229599244
 20
240.0780478193
 10
279.3016953629
 20
240.144893981
  0
LINE
  5
3E6
100
AcDbEntity
  8
0
100
AcDbLine
 62
7
  6
CONTINUOUS
 10
282.9208664104
 20
220.5724543081
 11
282.9208664104
 21
220.5224543081
  0
LINE
  5
3E7
100
AcDbEntity
  8
0
100
AcDbLine
 62
7
  6
CONTINUOUS
 10
283.6858664104
 20
220.5724543081
 11
283.6858664104
 21
220.5224543081
  0
LINE
  5
3E8
100
AcDbEntity
  8
DRAFT
100
AcDbLine
 62
7
  6
CONTINUOUS
 10
268.9817549913
 20
236.5724543081
 11
275.5033544104
 21
236.5724543081
  0
LINE
  5
3E9
100
AcDbEntity
  8
DRAFT
100
AcDbLine
 62
7
  6
CONTINUOUS
 10
279.7033544104
 20
236.5724543081
 11
286.2249538295
 21
236.5724543081
  0
LINE
  5
3EA
100
AcDbEntity
  8
DRAFT
100
AcDbLine
 62
7
  6
CONTINUOUS
 10
259.2362970699
 20
237.5724543081
 11
259.3151397532
 21
237.5724543081
  0
LINE
  5
3EB
100
AcDbEntity
  8
DRAFT
100
AcDbLine
 62
7
  6
CONTINUOUS
 10
295.8915690677
 20
237.5724543081
 11
295.9704117509
 21
237.5724543081
  0
LWPOLYLINE
  5
3EC
100
AcDbEntity
  8
RACCORDO
100
AcDbPolyline
 62
250
  6
CONTINUOUS
 90
10
 70
0
 10
285.7654977964
 20
247.4831536304
 10
285.7593991861
 20
247.5804370473
 10
285.7527178971
 20
247.6788794424
 10
285.7453350478
 20
247.7784116526
 10
285.7369806746
 20
247.8793417028
 10
285.7276808715
 20
247.98121127
 10
285.7177966302
 20
248.0827817709
 10
285.7074148088
 20
248.1835697528
 10
285.696309666
 20
248.2838612932
 10
285.6844167265
 20
248.3835589528
  0
LINE
  5
3ED
100
AcDbEntity
  8
RACCORDO
100
AcDbLine
 62
250
  6
CONTINUOUS
 10
285.7229629715
 20
253.5724543081
 11
285.6847509852
 21
258.6931690204
  0
LINE
  5
3EE
100
AcDbEntity
  8
RACCORDO
100
AcDbLine
 62
250
  6
CONTINUOUS
 10
286.3855408057
 20
253.5724543081
 11
286.3497782934
 21
258.5899067145
  0
LINE
  5
3EF
100
AcDbEntity
  8
0
100
AcDbLine
 62
7
  6
CONTINUOUS
 10
285.0700579606
 20
220.5724543081
 11
285.0700584104
 21
220.5224543081
  0
LINE
  5
3F0
100
AcDbEntity
  8
0
100
AcDbLine
 62
7
  6
CONTINUOUS
 10
285.8405844104
 20
220.5724543081
 11
285.8405844104
 21
220.5224543081
  0
LINE
  5
3F1
100
AcDbEntity
  8
0
100
AcDbLine
 62
7
  6
CONTINUOUS
 10
285.8533664456
 20
220.5724543081
 11
285.8533664456
 21
220.5224543081
  0
LINE
  5
3F2
100
AcDbEntity
  8
0
100
AcDbLine
 62
7
  6
CONTINUOUS
 10
286.2941684104
 20
259.5724543081
 11
286.2941684104
 21
259.6024543081
  0
LINE
  5
3F3
100
AcDbEntity
  8
RACCORDO
100
AcDbLine
 62
250
  6
CONTINUOUS
 10
286.3433474956
 20
247.6531426352
 11
286.3855408019
 21
253.5724543081
  0
LINE
  5
3F4
100
AcDbEntity
  8
RACCORDO
100
AcDbLine
 62
250
  6
CONTINUOUS
 10
285.6844177184
 20
248.3835580158
 11
285.722962973
 21
253.5724543081
  0
LINE
  5
3F5
100
AcDbEntity
  8
RACCORDO
100
AcDbLine
 62
7
  6
CONTINUOUS
 10
286.0674590796
 20
221.5602373073
 11
286.2249538295
 21
236.5724543081
  0
LWPOLYLINE
  5
3F6
100
AcDbEntity
  8
RACCORDO
100
AcDbPolyline
 62
250
  6
CONTINUOUS
 90
13
 70
0
 10
286.2549998638
 20
246.7907637923
 10
286.2588730511
 20
246.8514151965
 10
286.2620057147
 20
246.912802344
 10
286.2643584347
 20
246.9748508914
 10
286.2658488062
 20
247.0375066379
 10
286.2664874084
 20
247.1006747538
 10
286.2663764449
 20
247.1642212563
 10
286.265482411
 20
247.2280790653
 10
286.2637771532
 20
247.2921700156
 10
286.2613719291
 20
247.3563455769
 10
286.2582863769
 20
247.4205090166
 10
286.2544494703
 20
247.4846149401
 10
286.2498385395
 20
247.5485930278
  0
LWPOLYLINE
  5
3F7
100
AcDbEntity
  8
RACCORDO
100
AcDbPolyline
 62
250
  6
CONTINUOUS
 90
7
 70
0
 10
280.3063958052
 20
239.8646765443
 10
280.1638522453
 20
239.8389755279
 10
280.0198006975
 20
239.816028709
 10
279.8743375322
 20
239.795947794
 10
279.7275608061
 20
239.7788448321
 10
279.5795700735
 20
239.7648320569
 10
279.4304661971
 20
239.7540217352
  0
LINE
  5
3F8
100
AcDbEntity
  8
RACCORDO
100
AcDbLine
 62
250
  6
CONTINUOUS
 10
276.3332458661
 20
239.3788258276
 11
275.8484767182
 21
239.3060085929
  0
LINE
  5
3F9
100
AcDbEntity
  8
RACCORDO
100
AcDbLine
 62
250
  6
CONTINUOUS
 10
277.0625253586
 20
239.48425508
 11
276.3332458661
 21
239.3788258276
  0
LWPOLYLINE
  5
3FA
100
AcDbEntity
  8
RACCORDO
100
AcDbPolyline
 62
250
  6
CONTINUOUS
 90
7
 70
0
 10
275.8484767182
 20
239.3060085929
 10
275.6941211824
 20
239.2843475576
 10
275.5399758019
 20
239.2666226772
 10
275.386049764
 20
239.2528339517
 10
275.2323522174
 20
239.2429813811
 10
275.078892272
 20
239.2370649654
 10
274.9256789984
 20
239.2350847045
  0
LINE
  5
3FB
100
AcDbEntity
  8
RACCORDO
100
AcDbLine
 62
250
  6
CONTINUOUS
 10
277.5728560379
 20
239.5563670934
 11
277.0625253586
 21
239.48425508
  0
LINE
  5
3FC
100
AcDbEntity
  8
RACCORDO
100
AcDbLine
 62
250
  6
CONTINUOUS
 10
278.3048890743
 20
239.6516819828
 11
277.637572763
 21
239.5844864317
  0
LINE
  5
3FD
100
AcDbEntity
  8
RACCORDO
100
AcDbLine
 62
250
  6
CONTINUOUS
 10
278.7595121893
 20
239.6953023305
 11
278.3048890743
 21
239.6516819828
  0
LINE
  5
3FE
100
AcDbEntity
  8
RACCORDO
100
AcDbLine
 62
250
  6
CONTINUOUS
 10
279.085743841
 20
239.7248814368
 11
278.7595121893
 21
239.6953023305
  0
LINE
  5
3FF
100
AcDbEntity
  8
RACCORDO
100
AcDbLine
 62
250
  6
CONTINUOUS
 10
279.4304682717
 20
239.7540128895
 11
279.085743841
 21
239.7248814368
  0
LWPOLYLINE
  5
400
100
AcDbEntity
  8
RACCORDO
100
AcDbPolyline
 62
250
  6
CONTINUOUS
 90
7
 70
0
 10
277.6033544104
 20
239.5867545134
 10
277.5976023667
 20
239.586639853
 10
277.5918704521
 20
239.5864197384
 10
277.5861586644
 20
239.5860941695
 10
277.5804670016
 20
239.5856631461
 10
277.5747954615
 20
239.5851266681
 10
277.5691440421
 20
239.5844847352
  0
LWPOLYLINE
  5
401
100
AcDbEntity
  8
RACCORDO
100
AcDbPolyline
 62
250
  6
CONTINUOUS
 90
7
 70
0
 10
277.6033544104
 20
239.5585214553
 10
277.5982254045
 20
239.5584337749
 10
277.5931147737
 20
239.5582375426
 10
277.5880225199
 20
239.5579327583
 10
277.5829486448
 20
239.557519422
 10
277.5778931502
 20
239.5569975337
 10
277.5728560379
 20
239.5563670934
  0
LINE
  5
402
100
AcDbEntity
  8
RACCORDO
100
AcDbLine
 62
250
  6
CONTINUOUS
 10
274.9256789984
 20
239.2350847045
 11
260.1224876511
 21
239.2351253728
  0
LINE
  5
403
100
AcDbEntity
  8
RACCORDO
100
AcDbLine
 62
250
  6
CONTINUOUS
 10
295.0842467103
 20
239.235080833
 11
280.2810344335
 21
239.2350833682
  0
LINE
  5
404
100
AcDbEntity
  8
RACCORDO
100
AcDbLine
 62
250
  6
CONTINUOUS
 10
274.9003301854
 20
239.8646708347
 11
259.9570894137
 21
239.8646946639
  0
LINE
  5
405
100
AcDbEntity
  8
RACCORDO
100
AcDbLine
 62
250
  6
CONTINUOUS
 10
295.2496168869
 20
239.8646635853
 11
280.3063833206
 21
239.864669726
  0
LWPOLYLINE
  5
406
100
AcDbEntity
  8
RACCORDO
100
AcDbPolyline
 62
250
  6
CONTINUOUS
 90
7
 70
0
 10
260.1224876511
 20
239.2351253728
 10
260.0284804399
 20
239.2357386031
 10
259.9370197856
 20
239.2402555042
 10
259.848560328
 20
239.248676076
 10
259.7635710843
 20
239.2610003186
 10
259.6825352782
 20
239.277228232
 10
259.6059501169
 20
239.2973598161
  0
LWPOLYLINE
  5
407
100
AcDbEntity
  8
RACCORDO
100
AcDbPolyline
 62
250
  6
CONTINUOUS
 90
7
 70
0
 10
280.2810344335
 20
239.2350833682
 10
280.1278303337
 20
239.2370638436
 10
279.9743757596
 20
239.2429805455
 10
279.8206797675
 20
239.252833474
 10
279.6667514548
 20
239.2666226291
 10
279.5125999592
 20
239.2843480108
 10
279.3582344586
 20
239.3060096191
  0
LWPOLYLINE
  5
408
100
AcDbEntity
  8
RACCORDO
100
AcDbPolyline
 62
250
  6
CONTINUOUS
 90
7
 70
0
 10
275.7762423182
 20
239.7540199618
 10
275.6271522749
 20
239.7648269822
 10
275.4791720524
 20
239.7788378115
 10
275.3324011014
 20
239.7959403217
 10
275.1869375632
 20
239.8160224385
 10
275.0428780899
 20
239.8389722888
 10
274.9003176658
 20
239.8646783549
  0
LINE
  5
409
100
AcDbEntity
  8
RACCORDO
100
AcDbLine
 62
250
  6
CONTINUOUS
 10
276.1194320347
 20
239.7250173722
 11
275.7762405961
 21
239.7540123863
  0
LINE
  5
40A
100
AcDbEntity
  8
RACCORDO
100
AcDbLine
 62
250
  6
CONTINUOUS
 10
276.4447419617
 20
239.6955332927
 11
276.1194320347
 21
239.7250173722
  0
LINE
  5
40B
100
AcDbEntity
  8
RACCORDO
100
AcDbLine
 62
250
  6
CONTINUOUS
 10
276.8991450005
 20
239.6519392082
 11
276.4447419617
 21
239.6955332927
  0
LINE
  5
40C
100
AcDbEntity
  8
RACCORDO
100
AcDbLine
 62
250
  6
CONTINUOUS
 10
277.5691384473
 20
239.584486751
 11
276.8991450005
 21
239.6519392082
  0
LWPOLYLINE
  5
40D
100
AcDbEntity
  8
RACCORDO
100
AcDbPolyline
 62
250
  6
CONTINUOUS
 90
7
 70
0
 10
277.6375677153
 20
239.5844843696
 10
277.6318417593
 20
239.5851211475
 10
277.6261253015
 20
239.5856545569
 10
277.6204183398
 20
239.586084598
 10
277.6147208721
 20
239.5864112711
 10
277.6090328964
 20
239.5866345761
 10
277.6033544104
 20
239.5867545134
  0
LWPOLYLINE
  5
40E
100
AcDbEntity
  8
RACCORDO
100
AcDbPolyline
 62
250
  6
CONTINUOUS
 90
7
 70
0
 10
277.6338549332
 20
239.5563667981
 10
277.6287524564
 20
239.5569959915
 10
277.6236575996
 20
239.5575171514
 10
277.6185703649
 20
239.5579302777
 10
277.6134907539
 20
239.5582353705
 10
277.6084187685
 20
239.5584324297
 10
277.6033544104
 20
239.5585214553
  0
LINE
  5
40F
100
AcDbEntity
  8
RACCORDO
100
AcDbLine
 62
250
  6
CONTINUOUS
 10
278.5671591252
 20
239.4234943936
 11
277.6338549332
 21
239.5563667981
  0
LINE
  5
410
100
AcDbEntity
  8
RACCORDO
100
AcDbLine
 62
250
  6
CONTINUOUS
 10
279.029704338
 20
239.3556022368
 11
278.5671591252
 21
239.4234943936
  0
LINE
  5
411
100
AcDbEntity
  8
RACCORDO
100
AcDbLine
 62
250
  6
CONTINUOUS
 10
279.3582344586
 20
239.3060096191
 11
279.029704338
 21
239.3556022368
  0
LWPOLYLINE
  5
412
100
AcDbEntity
  8
RACCORDO
100
AcDbPolyline
 62
250
  6
CONTINUOUS
 90
5
 70
0
 10
276.6234760253
 20
239.9116487225
 10
276.4408633292
 20
239.9726071513
 10
276.2602090532
 20
240.0317499089
 10
276.0815908648
 20
240.089178775
 10
275.9050133308
 20
240.144894109
  0
LWPOLYLINE
  5
413
100
AcDbEntity
  8
RACCORDO
100
AcDbPolyline
 62
250
  6
CONTINUOUS
 90
25
 70
0
 10
275.9050133308
 20
240.144894109
 10
275.620772431
 20
240.2402596939
 10
275.3360677282
 20
240.3518999366
 10
275.0509935537
 20
240.4797982
 10
274.7659538791
 20
240.6232645082
 10
274.4807697663
 20
240.7829421986
 10
274.1946955298
 20
240.9608034926
 10
273.9072791176
 20
241.1570717323
 10
273.6193405548
 20
241.3714255404
 10
273.3320919046
 20
241.6049986553
 10
273.0455910499
 20
241.8579949547
 10
272.7603124188
 20
242.1300274647
 10
272.4781291163
 20
242.4213139796
 10
272.1995834336
 20
242.7315428311
 10
271.9248327033
 20
243.0607190006
 10
271.6552127769
 20
243.4094911792
 10
271.3911455183
 20
243.7774379368
 10
271.13312809
 20
244.1644848576
 10
270.8826764003
 20
244.571727477
 10
270.6400290286
 20
244.9988984853
 10
270.4061378296
 20
245.4454800962
 10
270.1836456076
 20
245.9120840055
 10
269.9738930625
 20
246.3985145392
 10
269.7769358015
 20
246.9037814125
 10
269.5935308438
 20
247.4271821146
  0
LINE
  5
414
100
AcDbEntity
  8
RACCORDO
100
AcDbLine
 62
250
  6
CONTINUOUS
 10
276.9949856254
 20
239.7848925019
 11
276.6234760253
 21
239.9116487225
  0
LWPOLYLINE
  5
415
100
AcDbEntity
  8
RACCORDO
100
AcDbPolyline
 62
250
  6
CONTINUOUS
 90
3
 70
0
 10
277.5691440421
 20
239.5844847352
 10
277.3755463448
 20
239.6526977326
 10
276.9949856254
 20
239.7848925019
  0
LWPOLYLINE
  5
416
100
AcDbEntity
  8
RACCORDO
100
AcDbPolyline
 62
250
  6
CONTINUOUS
 90
28
 70
0
 10
274.9003301854
 20
239.8646708347
 10
274.6587583078
 20
239.9721351987
 10
274.4171660156
 20
240.0903452925
 10
274.175374887
 20
240.2193011163
 10
273.9328739455
 20
240.3587699437
 10
273.6898299136
 20
240.5089845009
 10
273.4470788629
 20
240.6706429667
 10
273.204290961
 20
240.843878013
 10
272.9614597296
 20
241.0285569678
 10
272.7199136862
 20
241.2249799933
 10
272.4794949229
 20
241.433228144
 10
272.2400809704
 20
241.6532203653
 10
272.0030874294
 20
241.8850136556
 10
271.7684876486
 20
242.1286174035
 10
271.5361174058
 20
242.3840222204
 10
271.3072344044
 20
242.6512569381
 10
271.0818515583
 20
242.9302833334
 10
270.8598750384
 20
243.2211396295
 10
270.6424572802
 20
243.5239693278
 10
270.4295987518
 20
243.8387745335
 10
270.2213467662
 20
244.1655531413
 10
270.0189897999
 20
244.5044423371
 10
269.8225597625
 20
244.8555486233
 10
269.6322368813
 20
245.2187654974
 10
269.4496213927
 20
245.5939106371
 10
269.2754054199
 20
245.9809232682
 10
269.1093366809
 20
246.379864165
 10
268.9516740202
 20
246.7907333274
  0
LWPOLYLINE
  5
417
100
AcDbEntity
  8
RACCORDO
100
AcDbPolyline
 62
250
  6
CONTINUOUS
 90
10
 70
0
 10
295.2496201557
 20
239.8646635853
 10
295.2164804712
 20
239.8001289779
 10
295.1868529259
 20
239.7337303793
 10
295.1608318476
 20
239.6656791889
 10
295.1385000821
 20
239.5961920689
 10
295.1199287287
 20
239.5254902504
 10
295.1051769137
 20
239.4537988294
 10
295.0942916043
 20
239.3813460546
 10
295.0873074576
 20
239.3083626013
 10
295.0842467103
 20
239.235080833
  0
LWPOLYLINE
  5
418
100
AcDbEntity
  8
RACCORDO
100
AcDbPolyline
 62
250
  6
CONTINUOUS
 90
9
 70
0
 10
259.5240256368
 20
239.7497116402
 10
259.4301225419
 20
239.7388974777
 10
259.3542588336
 20
239.7344576581
 10
259.294607908
 20
239.7351873785
 10
259.2493713141
 20
239.7414902091
 10
259.2169671297
 20
239.7507309299
 10
259.1963452426
 20
239.7577013447
 10
259.186799919
 20
239.7605530778
 10
259.1858360467
 20
239.7608149913
  0
LINE
  5
419
100
AcDbEntity
  8
RACCORDO
100
AcDbLine
 62
250
  6
CONTINUOUS
 10
285.7811404286
 20
247.4131969333
 11
285.7775895317
 21
247.4285213229
  0
LINE
  5
41A
100
AcDbEntity
  8
RACCORDO
100
AcDbLine
 62
250
  6
CONTINUOUS
 10
285.7775895317
 20
247.4285213229
 11
285.7741156621
 21
247.4440170826
  0
LINE
  5
41B
100
AcDbEntity
  8
RACCORDO
100
AcDbLine
 62
250
  6
CONTINUOUS
 10
285.7741156621
 20
247.4440170826
 11
285.7707217358
 21
247.4596748108
  0
LWPOLYLINE
  5
41C
100
AcDbEntity
  8
RACCORDO
100
AcDbPolyline
 62
250
  6
CONTINUOUS
 90
3
 70
0
 10
285.7707217358
 20
247.4596748108
 10
285.7674101799
 20
247.4754800931
 10
285.7657864112
 20
247.4834359373
  0
LINE
  5
41D
100
AcDbEntity
  8
0
100
AcDbLine
 62
7
  6
CONTINUOUS
 10
290.4249684104
 20
259.5724543081
 11
290.4249684104
 21
259.6024543081
  0
LINE
  5
41E
100
AcDbEntity
  8
0
100
AcDbLine
 62
7
  6
CONTINUOUS
 10
290.5021649907
 20
259.6024543081
 11
290.5021649907
 21
259.5724543081
  0
LWPOLYLINE
  5
41F
100
AcDbEntity
  8
RACCORDO
100
AcDbPolyline
 62
250
  6
CONTINUOUS
 90
10
 70
0
 10
295.6827232597
 20
239.7498925773
 10
295.6658419476
 20
239.7015913355
 10
295.6508586123
 20
239.6526222283
 10
295.6377968179
 20
239.6030622783
 10
295.6266771061
 20
239.552989439
 10
295.6175169634
 20
239.5024824672
 10
295.6103307942
 20
239.4516207983
 10
295.605129899
 20
239.4004844296
 10
295.6019224559
 20
239.3491537941
 10
295.6007135072
 20
239.2977096283
  0
LWPOLYLINE
  5
420
100
AcDbEntity
  8
RACCORDO
100
AcDbPolyline
 62
250
  6
CONTINUOUS
 90
10
 70
0
 10
285.7657864112
 20
247.4834359373
 10
285.814744072
 20
247.4972941747
 10
285.8641674922
 20
247.5123040966
 10
285.9136838673
 20
247.5283523946
 10
285.9629196938
 20
247.5453179561
 10
286.0115035588
 20
247.5630727692
 10
286.0590689431
 20
247.5814828876
 10
286.1052570229
 20
247.6004094546
 10
286.1497193752
 20
247.6197097514
 10
286.1921205794
 20
247.6392382625
  0
LWPOLYLINE
  5
421
100
AcDbEntity
  8
RACCORDO
100
AcDbPolyline
 62
250
  6
CONTINUOUS
 90
10
 70
0
 10
285.8199933511
 20
247.3740644308
 10
285.8707193553
 20
247.3874266778
 10
285.9216282453
 20
247.4026127086
 10
285.9723161559
 20
247.4195017982
 10
286.0223809549
 20
247.437959785
 10
286.0714254168
 20
247.4578401319
 10
286.1190603757
 20
247.4789850881
 10
286.1649078349
 20
247.5012269505
 10
286.208603965
 20
247.5243893936
 10
286.2498019764
 20
247.5482888605
  0
LWPOLYLINE
  5
422
100
AcDbEntity
  8
RACCORDO
100
AcDbPolyline
 62
250
  6
CONTINUOUS
 90
7
 70
0
 10
295.68273923
 20
239.7498900657
 10
295.62167543
 20
239.7611585479
 10
295.5560516538
 20
239.7756532662
 10
295.4859494379
 20
239.7933114782
 10
295.4114523784
 20
239.8140721131
 10
295.3326462219
 20
239.8378757716
 10
295.24961895
 20
239.8646647122
  0
LWPOLYLINE
  5
423
100
AcDbEntity
  8
RACCORDO
100
AcDbPolyline
 62
250
  6
CONTINUOUS
 90
10
 70
0
 10
269.3867054107
 20
247.3740737868
 10
269.3359789859
 20
247.3874374379
 10
269.2850697191
 20
247.4026249558
 10
269.2343814912
 20
247.4195156014
 10
269.1843164492
 20
247.4379751977
 10
269.1352718323
 20
247.4578571908
 10
269.0876368185
 20
247.4790038127
 10
269.0417894158
 20
247.5012473416
 10
268.998093464
 20
247.5244114329
 10
268.9568957614
 20
247.5483125098
  0
LWPOLYLINE
  5
424
100
AcDbEntity
  8
RACCORDO
100
AcDbPolyline
 62
250
  6
CONTINUOUS
 90
10
 70
0
 10
269.4409285936
 20
247.483500013
 10
269.3920595647
 20
247.4975570944
 10
269.3426209303
 20
247.5125246428
 10
269.2930390915
 20
247.5284131495
 10
269.2437895807
 20
247.5453395698
 10
269.1952426106
 20
247.5631735801
 10
269.1476617692
 20
247.5815399588
 10
269.1014072318
 20
247.6003022667
 10
269.0569299411
 20
247.6195587574
 10
269.014618708
 20
247.6392907643
  0
LINE
  5
425
100
AcDbEntity
  8
RACCORDO
100
AcDbLine
 62
250
  6
CONTINUOUS
 10
269.5931575672
 20
247.4281888448
 11
269.5427701892
 21
247.4459993454
  0
LINE
  5
426
100
AcDbEntity
  8
RACCORDO
100
AcDbLine
 62
250
  6
CONTINUOUS
 10
269.5427701892
 20
247.4459993454
 11
269.4920945293
 21
247.4643565798
  0
LINE
  5
427
100
AcDbEntity
  8
RACCORDO
100
AcDbLine
 62
250
  6
CONTINUOUS
 10
269.4920945293
 20
247.4643565798
 11
269.4412128468
 21
247.4831913907
  0
LWPOLYLINE
  5
428
100
AcDbEntity
  8
RACCORDO
100
AcDbPolyline
 62
250
  6
CONTINUOUS
 90
7
 70
0
 10
268.8633613233
 20
247.6531429174
 10
268.8826135217
 20
247.6453161409
 10
268.9020676034
 20
247.6375372568
 10
268.9217122552
 20
247.6298061843
 10
268.9415362884
 20
247.6221228389
 10
268.9615286441
 20
247.6144871328
 10
268.9816783978
 20
247.6068989749
  0
LWPOLYLINE
  5
429
100
AcDbEntity
  8
RACCORDO
100
AcDbPolyline
 62
250
  6
CONTINUOUS
 90
10
 70
0
 10
269.4256054194
 20
247.4132528105
 10
269.3779200196
 20
247.4332016363
 10
269.3298532313
 20
247.4548852204
 10
269.2817895514
 20
247.4781300575
 10
269.2341134083
 20
247.5027501935
 10
269.1872062368
 20
247.5285486354
 10
269.1414434172
 20
247.555318915
 10
269.0971910709
 20
247.5828468558
 10
269.0548031417
 20
247.6109122961
 10
269.014618708
 20
247.6392907643
  0
LWPOLYLINE
  5
42A
100
AcDbEntity
  8
RACCORDO
100
AcDbPolyline
 62
250
  6
CONTINUOUS
 90
10
 70
0
 10
269.3867054107
 20
247.3740737868
 10
269.3390479988
 20
247.3944739024
 10
269.2912846256
 20
247.4168749711
 10
269.2437424662
 20
247.4409797993
 10
269.196698268
 20
247.4663690699
 10
269.1505248292
 20
247.4928403016
 10
269.1056910567
 20
247.5204136843
 10
269.0625539024
 20
247.5488716498
 10
269.0213541591
 20
247.5777600965
 10
268.9823644752
 20
247.6067289882
  0
LWPOLYLINE
  5
42B
100
AcDbEntity
  8
RACCORDO
100
AcDbPolyline
 62
250
  6
CONTINUOUS
 90
9
 70
0
 10
296.0186275948
 20
239.6523898669
 10
296.0139995854
 20
239.654218926
 10
295.9970107182
 20
239.6662401391
 10
295.9680300206
 20
239.6807590599
 10
295.9275121769
 20
239.6929430582
 10
295.8777480923
 20
239.7067922565
 10
295.8202632896
 20
239.7232038936
 10
295.755017895
 20
239.7380398799
 10
295.6826229682
 20
239.7501792407
  0
LWPOLYLINE
  5
42C
100
AcDbEntity
  8
RACCORDO
100
AcDbPolyline
 62
250
  6
CONTINUOUS
 90
13
 70
0
 10
286.1919101855
 20
247.6400747644
 10
286.1531955299
 20
247.7010088077
 10
286.1135828782
 20
247.7624003996
 10
286.0731154379
 20
247.8242498645
 10
286.0317834953
 20
247.8867329721
 10
285.9896866499
 20
247.9496745761
 10
285.9470421132
 20
248.01254822
 10
285.9039197103
 20
248.0753164949
 10
285.8603628173
 20
248.1380164103
 10
285.8165610864
 20
248.2002324622
 10
285.7726192081
 20
248.2618256598
 10
285.7285521469
 20
248.322933824
 10
285.6844177061
 20
248.3835563582
  0
LWPOLYLINE
  5
42D
100
AcDbEntity
  8
RACCORDO
100
AcDbPolyline
 62
250
  6
CONTINUOUS
 90
10
 70
0
 10
286.2243359366
 20
247.6067155909
 10
286.2273798074
 20
247.6002028899
 10
286.2303707775
 20
247.5936934588
 10
286.233308632
 20
247.5871880417
 10
286.2361933839
 20
247.5806870861
 10
286.2390245798
 20
247.5741916289
 10
286.2418013165
 20
247.5677032765
 10
286.2445231574
 20
247.5612230335
 10
286.2471901166
 20
247.5547513235
 10
286.2498019764
 20
247.5482888605
  0
LINE
  5
42E
100
AcDbEntity
  8
DRAFT
100
AcDbLine
 62
7
  6
CONTINUOUS
 10
295.9704117509
 20
237.5724543081
 11
295.9999050128
 21
239.4498992432
  0
LINE
  5
42F
100
AcDbEntity
  8
RACCORDO
100
AcDbLine
 62
7
  6
CONTINUOUS
 10
295.6248678154
 20
221.5567469908
 11
295.8915690677
 21
237.5724543081
  0
LINE
  5
430
100
AcDbEntity
  8
DRAFT
100
AcDbLine
 62
7
  6
CONTINUOUS
 10
296.2783544104
 20
253.5724543081
 11
296.0390017853
 21
239.8599515995
  0
LWPOLYLINE
  5
431
100
AcDbEntity
  8
RACCORDO
100
AcDbPolyline
 62
250
  6
CONTINUOUS
 90
10
 70
0
 10
295.7800279662
 20
240.1997664955
 10
295.777190138
 20
240.1485843833
 10
295.7723258921
 20
240.0975198912
 10
295.7654429022
 20
240.0466535878
 10
295.7565512202
 20
239.9960616165
 10
295.7456653557
 20
239.9458279717
 10
295.7328058731
 20
239.8960440488
 10
295.7179957847
 20
239.8467920168
 10
295.7012588914
 20
239.7981450213
 10
295.6826229682
 20
239.7501792407
  0
LWPOLYLINE
  5
432
100
AcDbEntity
  8
RACCORDO
100
AcDbPolyline
 62
7
  6
CONTINUOUS
 90
19
 70
0
 10
295.6248678154
 20
221.5567469908
 10
295.6199567137
 20
221.4714281669
 10
295.6076806361
 20
221.3873902193
 10
295.5880395824
 20
221.3046331481
 10
295.5606821352
 20
221.2222112588
 10
295.5259597121
 20
221.1410702459
 10
295.4849265653
 20
221.064047193
 10
295.4375767607
 20
220.9917048642
 10
295.3839162324
 20
220.9234804956
 10
295.325017035
 20
220.8605228782
 10
295.2608649986
 20
220.8028627226
 10
295.1914742932
 20
220.7504693183
 10
295.1179594825
 20
220.7043993255
 10
295.0397281243
 20
220.6646505206
 10
294.9573726608
 20
220.6312251272
 10
294.8737849835
 20
220.6051864762
 10
294.7899290558
 20
220.5868890111
 10
294.7048409142
 20
220.5759782884
 10
294.6185205586
 20
220.5724543081
  0
LWPOLYLINE
  5
433
100
AcDbEntity
  8
RACCORDO
100
AcDbPolyline
 62
7
  6
CONTINUOUS
 90
5
 70
0
 10
296.0196304458
 20
239.6560678563
 10
296.0180800182
 20
239.6471293618
 10
296.0074084139
 20
239.5705811465
 10
296.0013053998
 20
239.4935239615
 10
295.9998870844
 20
239.4498999426
  0
LINE
  5
434
100
AcDbEntity
  8
0
100
AcDbLine
 62
7
  6
CONTINUOUS
 10
292.8296767484
 20
220.5724543081
 11
292.6783126141
 21
220.2724543081
  0
LWPOLYLINE
  5
435
100
AcDbEntity
  8
RACCORDO
100
AcDbPolyline
 62
250
  6
CONTINUOUS
 90
7
 70
0
 10
269.5931564356
 20
247.4281902726
 10
269.5654925652
 20
247.4251529484
 10
269.5376860697
 20
247.4223373631
 10
269.5097484251
 20
247.4197481161
 10
269.4816911573
 20
247.4173896837
 10
269.453525837
 20
247.4152664171
 10
269.4252640741
 20
247.4133825412
  0
LWPOLYLINE
  5
436
100
AcDbEntity
  8
RACCORDO
100
AcDbPolyline
 62
250
  6
CONTINUOUS
 90
7
 70
0
 10
285.7815170071
 20
247.4133475687
 10
285.7532619243
 20
247.4152237915
 10
285.7250957822
 20
247.4173437209
 10
285.6970302947
 20
247.4197033401
 10
285.6690771574
 20
247.422298498
 10
285.6412480426
 20
247.4251249103
 10
285.6135545936
 20
247.4281781612
  0
LWPOLYLINE
  5
437
100
AcDbEntity
  8
RACCORDO
100
AcDbPolyline
 62
250
  6
CONTINUOUS
 90
19
 70
0
 10
286.2550760558
 20
246.7907126221
 10
286.8707121178
 20
246.3532503656
 10
287.4657157584
 20
245.9268243293
 10
288.0399027305
 20
245.5114345133
 10
288.5931806215
 20
245.1066200895
 10
289.12529669
 20
244.7128418859
 10
289.6359845635
 20
244.3314823871
 10
290.1255514297
 20
243.9625117658
 10
290.5937087493
 20
243.6059598493
 10
291.0396860473
 20
243.2632986032
 10
291.4637864899
 20
242.9347596934
 10
291.8662990384
 20
242.6201114539
 10
292.2468555315
 20
242.3201308528
 10
292.6058700229
 20
242.0350414548
 10
292.9438981615
 20
241.7646196951
 10
293.2610328891
 20
241.5089718465
 10
293.5577955025
 20
241.2682059612
 10
293.8347373533
 20
241.0422139871
 10
294.0920849699
 20
240.8307780399
  0
LWPOLYLINE
  5
438
100
AcDbEntity
  8
RACCORDO
100
AcDbPolyline
 62
250
  6
CONTINUOUS
 90
3
 70
0
 10
294.0920849699
 20
240.8307780399
 10
294.5501500683
 20
240.4516319015
 10
294.7514820866
 20
240.2835884761
  0
LINE
  5
439
100
AcDbEntity
  8
RACCORDO
100
AcDbLine
 62
250
  6
CONTINUOUS
 10
294.7514820866
 20
240.2835884761
 11
295.2496168869
 21
239.8646635853
  0
LWPOLYLINE
  5
43A
100
AcDbEntity
  8
RACCORDO
100
AcDbPolyline
 62
250
  6
CONTINUOUS
 90
7
 70
0
 10
286.2251067399
 20
247.6069233756
 10
286.219384824
 20
247.6120903967
 10
286.2137371318
 20
247.6174007423
 10
286.2081647649
 20
247.6228543818
 10
286.2026687949
 20
247.6284512851
 10
286.1972502639
 20
247.6341914224
 10
286.1919101855
 20
247.6400747644
  0
LWPOLYLINE
  5
43B
100
AcDbEntity
  8
RACCORDO
100
AcDbPolyline
 62
250
  6
CONTINUOUS
 90
7
 70
0
 10
285.8174729269
 20
247.3773453521
 10
285.8120180266
 20
247.3823011857
 10
285.8063472733
 20
247.387672654
 10
285.8004611821
 20
247.3934613508
 10
285.7943603303
 20
247.3996689254
 10
285.7880453643
 20
247.40629708
 10
285.7815170071
 20
247.4133475687
  0
LINE
  5
43C
100
AcDbEntity
  8
RACCORDO
100
AcDbLine
 62
250
  6
CONTINUOUS
 10
286.0196963959
 20
247.1081830563
 11
285.8174729269
 21
247.3773453521
  0
LWPOLYLINE
  5
43D
100
AcDbEntity
  8
RACCORDO
100
AcDbPolyline
 62
250
  6
CONTINUOUS
 90
3
 70
0
 10
286.2550502331
 20
246.7906587869
 10
286.2100959368
 20
246.8521277939
 10
286.0196963959
 20
247.1081830563
  0
LWPOLYLINE
  5
43E
100
AcDbEntity
  8
0
100
AcDbPolyline
 62
7
  6
CONTINUOUS
 90
10
 70
0
 43
0.3500000087
 10
278.4605038574
 20
269.02245979
 10
278.5319227539
 20
268.8795878906
 10
278.5319227539
 20
268.8081689941
 10
278.3890679077
 20
268.6652970947
 10
278.317631958
 20
268.6652970947
 10
278.2462130615
 20
268.7367500977
 10
278.2462130615
 20
268.8081689941
 10
278.317631958
 20
268.9510408936
 10
278.3890679077
 20
269.02245979
 10
278.4605038574
 20
269.02245979
  0
LINE
  5
43F
100
AcDbEntity
  8
DRAFT
100
AcDbLine
 62
7
  6
CONTINUOUS
 10
296.1907744529
 20
258.5899067145
 11
296.2783544104
 21
253.5724543081
  0
LWPOLYLINE
  5
440
100
AcDbEntity
  8
RACCORDO
100
AcDbPolyline
 62
250
  6
CONTINUOUS
 90
21
 70
0
 10
286.3433474956
 20
247.6531426352
 10
287.0522954372
 20
247.1463177619
 10
287.7332036868
 20
246.6539803177
 10
288.3858965706
 20
246.1761303023
 10
289.0103598615
 20
245.7120924143
 10
289.6064262016
 20
245.2625419552
 10
290.1738163457
 20
244.82950483
 10
290.7128743133
 20
244.4129606026
 10
291.2234673729
 20
244.0129297092
 10
291.7048590877
 20
243.6314993627
 10
292.1571767446
 20
243.2691011344
 10
292.5811277897
 20
242.9253034531
 10
292.9770763639
 20
242.6008988185
 10
293.345351652
 20
242.2962019017
 10
293.6867408612
 20
242.0108980315
 10
294.0022751447
 20
241.744835694
 10
294.2924756573
 20
241.49809754
 10
294.5579091903
 20
241.2706009186
 10
294.7995199578
 20
241.0619463639
 10
295.0178088936
 20
240.8721909917
 10
295.2132970867
 20
240.7012776861
  0
LINE
  5
441
100
AcDbEntity
  8
RACCORDO
100
AcDbLine
 62
250
  6
CONTINUOUS
 10
295.2132970867
 20
240.7012776861
 11
295.5388083718
 21
240.4140745626
  0
LINE
  5
442
100
AcDbEntity
  8
RACCORDO
100
AcDbLine
 62
250
  6
CONTINUOUS
 10
295.5388083718
 20
240.4140745626
 11
295.7800453639
 21
240.1997661797
  0
LWPOLYLINE
  5
443
100
AcDbEntity
  8
RACCORDO
100
AcDbPolyline
 62
250
  6
CONTINUOUS
 90
10
 70
0
 10
295.7800453639
 20
240.1997661797
 10
295.8418041726
 20
240.139140822
 10
295.8934791217
 20
240.0833002358
 10
295.9358880099
 20
240.0322444211
 10
295.9696590535
 20
239.9847303457
 10
295.9957857023
 20
239.9420010417
 10
296.0153242379
 20
239.9077856058
 10
296.0287004275
 20
239.8826200576
 10
296.0364349484
 20
239.8659683775
 10
296.0390017854
 20
239.8599516008
  0
LINE
  5
444
100
AcDbEntity
  8
RACCORDO
100
AcDbLine
 62
7
  6
CONTINUOUS
 10
296.2783544104
 20
253.5724543081
 11
258.9283544104
 21
253.5724543081
  0
LINE
  5
445
100
AcDbEntity
  8
RACCORDO
100
AcDbLine
 62
250
  6
CONTINUOUS
 10
285.6856918291
 20
258.5899067145
 11
286.0386115695
 21
258.5906287563
  0
LINE
  5
446
100
AcDbEntity
  8
RACCORDO
100
AcDbLine
 62
250
  6
CONTINUOUS
 10
268.8569305275
 20
258.5899067145
 11
269.1682402608
 21
258.590628756
  0
LINE
  5
447
100
AcDbEntity
  8
RACCORDO
100
AcDbLine
 62
250
  6
CONTINUOUS
 10
259.015934368
 20
258.5899067147
 11
268.8569305275
 21
258.5899067145
  0
LINE
  5
448
100
AcDbEntity
  8
RACCORDO
100
AcDbLine
 62
250
  6
CONTINUOUS
 10
286.3497782934
 20
258.5899067145
 11
296.1907744529
 21
258.5899067147
  0
LINE
  5
449
100
AcDbEntity
  8
RACCORDO
100
AcDbLine
 62
250
  6
CONTINUOUS
 10
269.1682402608
 20
258.590628756
 11
285.6856918291
 21
258.5899067145
  0
LINE
  5
44A
100
AcDbEntity
  8
RACCORDO
100
AcDbLine
 62
250
  6
CONTINUOUS
 10
286.0386115695
 20
258.5906287563
 11
286.3497782934
 21
258.5899067145
  0
LWPOLYLINE
  5
44B
100
AcDbEntity
  8
RACCORDO
100
AcDbPolyline
 62
250
  6
CONTINUOUS
 90
16
 70
0
 10
269.4991398428
 20
259.5724543081
 10
269.4327440075
 20
259.5670971931
 10
269.3670595185
 20
259.5510832343
 10
269.3027901371
 20
259.5245839924
 10
269.2406244645
 20
259.4878833708
 10
269.1812285638
 20
259.4413745736
 10
269.1252388235
 20
259.3855558933
 10
269.0732551387
 20
259.3210253715
 10
269.0258344861
 20
259.248474395
 10
268.9834849546
 20
259.1686802886
 10
268.946660298
 20
259.0824979804
 10
268.9157550771
 20
258.9908508488
 10
268.891100432
 20
258.8947208338
 10
268.8729605293
 20
258.7951379043
 10
268.8615297336
 20
258.6931690213
 10
268.8569305271
 20
258.5899067145
  0
LINE
  5
44C
100
AcDbEntity
  8
RACCORDO
100
AcDbLine
 62
7
  6
CONTINUOUS
 10
260.0157820631
 20
259.5724543081
 11
295.1909267478
 21
259.5724543081
  0
LINE
  5
44D
100
AcDbEntity
  8
ASSI
100
AcDbLine
 62
7
  6
CONTINUOUS
 10
264.5582694104
 20
259.6024543081
 11
268.8084714104
 21
259.6024543081
  0
LINE
  5
44E
100
AcDbEntity
  8
0
100
AcDbLine
 62
7
  6
CONTINUOUS
 10
286.2941684104
 20
259.6024543081
 11
290.502164984
 21
259.6024543081
  0
LINE
  5
44F
100
AcDbEntity
  8
RACCORDO
100
AcDbLine
 62
7
  6
CONTINUOUS
 10
274.1830737192
 20
259.7724543081
 11
281.0236351017
 21
259.7724543081
  0
LWPOLYLINE
  5
450
100
AcDbEntity
  8
RACCORDO
100
AcDbPolyline
 62
250
  6
CONTINUOUS
 90
16
 70
0
 10
285.7075689781
 20
259.5724543081
 10
285.7739649413
 20
259.5670971717
 10
285.8396495377
 20
259.5510831547
 10
285.9039190033
 20
259.5245838271
 10
285.9660847362
 20
259.4878831013
 10
286.0254806719
 20
259.4413741917
 10
286.0814704201
 20
259.3855554031
 10
286.1334540875
 20
259.321024788
 10
286.1808747019
 20
259.2484737418
 10
286.2232241782
 20
259.1686795987
 10
286.2600487683
 20
259.0824972942
 10
286.2909539186
 20
258.9908502106
 10
286.3156084964
 20
258.8947202893
 10
286.3337483427
 20
258.795137499
 10
286.3451790999
 20
258.6931687989
 10
286.3497782934
 20
258.5899067145
  0
LWPOLYLINE
  5
451
100
AcDbEntity
  8
RACCORDO
100
AcDbPolyline
 62
250
  6
CONTINUOUS
 90
15
 70
0
 10
285.5543182555
 20
259.5724543081
 10
285.5679005157
 20
259.567097193
 10
285.5813372602
 20
259.551083234
 10
285.5944845239
 20
259.5245839917
 10
285.6072014433
 20
259.4878833696
 10
285.619351765
 20
259.4413745719
 10
285.6308053063
 20
259.3855558911
 10
285.6414393498
 20
259.321025369
 10
285.6511399573
 20
259.2484743922
 10
285.6598031917
 20
259.1686802857
 10
285.6673362309
 20
259.0824979776
 10
285.6736583615
 20
258.9908508462
 10
285.6787018438
 20
258.8947208316
 10
285.6824126384
 20
258.7951379027
 10
285.6847509852
 20
258.6931690204
  0
LWPOLYLINE
  5
452
100
AcDbEntity
  8
0
100
AcDbPolyline
 62
7
  6
CONTINUOUS
 90
6
 70
0
 43
0.3500000087
 10
273.3176441284
 20
268.5224593018
 10
274.3890640015
 20
268.5224593018
 10
274.6033547974
 20
268.7367500977
 10
274.6033547974
 20
269.8081699707
 10
274.1747902588
 20
270.2367515625
 10
273.746208667
 20
270.2367515625
  0
LWPOLYLINE
  5
453
100
AcDbEntity
  8
0
100
AcDbPolyline
 62
7
  6
CONTINUOUS
 90
3
 70
0
 43
0.3500000087
 10
281.0319251953
 20
269.165297583
 10
279.5319237305
 20
269.165297583
 10
280.1747790649
 20
271.5224622314
  0
ARC
  5
454
100
AcDbEntity
  8
0
100
AcDbCircle
 62
7
  6
CONTINUOUS
 10
205.4237672728
 20
204.0724543081
 40
2.5
100
AcDbArc
 50
196.2602047083
 51
343.7397952917
  0
ARC
  5
455
100
AcDbEntity
  8
0
100
AcDbCircle
 62
7
  6
CONTINUOUS
 10
186.4237672728
 20
204.0724543081
 40
2.5
100
AcDbArc
 50
196.2602047083
 51
343.7397952917
  0
ARC
  5
456
100
AcDbEntity
  8
RACCORDO
100
AcDbCircle
 62
7
  6
CONTINUOUS
 10
176.2256735941
 20
239.5380193337
 40
1.299999893
100
AcDbArc
 50
0.9036426358
 51
1.6186285796
  0
ARC
  5
457
100
AcDbEntity
  8
RACCORDO
100
AcDbCircle
 62
7
  6
CONTINUOUS
 10
216.8363396201
 20
258.5724543081
 40
1.0
100
AcDbArc
 50
1.0
 51
90.0
  0
ARC
  5
458
100
AcDbEntity
  8
RACCORDO
100
AcDbCircle
 62
7
  6
CONTINUOUS
 10
175.0111949255
 20
258.5724543081
 40
1.0
100
AcDbArc
 50
90.0
 51
179.0
  0
ARC
  5
459
100
AcDbEntity
  8
RACCORDO
100
AcDbCircle
 62
7
  6
CONTINUOUS
 10
213.0393531454
 20
221.5724543081
 40
1.0
100
AcDbArc
 50
270.0
 51
359.1
  0
ARC
  5
45A
100
AcDbEntity
  8
RACCORDO
100
AcDbCircle
 62
7
  6
CONTINUOUS
 10
178.8081814002
 20
221.5724543081
 40
1.0
100
AcDbArc
 50
180.9
 51
270.0
  0
ARC
  5
45B
100
AcDbEntity
  8
RACCORDO
100
AcDbCircle
 62
7
  6
CONTINUOUS
 10
210.940423947
 20
221.5724543081
 40
1.0
100
AcDbArc
 50
270.0
 51
359.3
  0
ARC
  5
45C
100
AcDbEntity
  8
RACCORDO
100
AcDbCircle
 62
7
  6
CONTINUOUS
 10
180.9071105987
 20
221.5724543081
 40
1.0
100
AcDbArc
 50
180.7
 51
270.0
  0
ARC
  5
45D
100
AcDbEntity
  8
RACCORDO
100
AcDbCircle
 62
7
  6
CONTINUOUS
 10
216.5943066042
 20
247.6500570474
 40
0.6
100
AcDbArc
 50
341.0097427055
 51
347.1154705949
  0
ARC
  5
45E
100
AcDbEntity
  8
RACCORDO
100
AcDbCircle
 62
7
  6
CONTINUOUS
 10
175.2649484803
 20
247.6174652854
 40
0.6
100
AcDbArc
 50
200.5907958893
 51
201.8609609565
  0
ARC
  5
45F
100
AcDbEntity
  8
RACCORDO
100
AcDbCircle
 62
7
  6
CONTINUOUS
 10
175.2532323971
 20
247.6500375721
 40
0.6
100
AcDbArc
 50
192.8891369463
 51
199.0278050911
  0
ARC
  5
460
100
AcDbEntity
  8
RACCORDO
100
AcDbCircle
 62
7
  6
CONTINUOUS
 10
179.5034865816
 20
259.4724543081
 40
0.3
100
AcDbArc
 50
90.0
 51
160.5168838339
  0
ARC
  5
461
100
AcDbEntity
  8
RACCORDO
100
AcDbCircle
 62
7
  6
CONTINUOUS
 10
212.344047964
 20
259.4724543081
 40
0.3
100
AcDbArc
 50
19.4831161661
 51
90.0
  0
ARC
  5
462
100
AcDbEntity
  8
0
100
AcDbCircle
 62
7
  6
CONTINUOUS
 10
277.6033544104
 20
204.0724543081
 40
2.5
100
AcDbArc
 50
196.2602047083
 51
343.7397952917
  0
ARC
  5
463
100
AcDbEntity
  8
RACCORDO
100
AcDbCircle
 62
7
  6
CONTINUOUS
 10
294.739192127
 20
239.8826398591
 40
1.2999996137
100
AcDbArc
 50
349.9655451963
 51
359.000000002
  0
ARC
  5
464
100
AcDbEntity
  8
RACCORDO
100
AcDbCircle
 62
7
  6
CONTINUOUS
 10
260.4656912354
 20
239.9887737129
 40
1.2999982253
100
AcDbArc
 50
181.0000000001
 51
190.074773839
  0
ARC
  5
465
100
AcDbEntity
  8
RACCORDO
100
AcDbCircle
 62
7
  6
CONTINUOUS
 10
260.0157820631
 20
258.5724543081
 40
1.0
100
AcDbArc
 50
90.0
 51
179.0
  0
ARC
  5
466
100
AcDbEntity
  8
RACCORDO
100
AcDbCircle
 62
7
  6
CONTINUOUS
 10
295.1909267578
 20
258.5724543081
 40
1.0
100
AcDbArc
 50
1.0
 51
90.0
  0
ARC
  5
467
100
AcDbEntity
  8
RACCORDO
100
AcDbCircle
 62
7
  6
CONTINUOUS
 10
274.1830737192
 20
259.4724543081
 40
0.3
100
AcDbArc
 50
90.0
 51
160.4862341225
  0
ARC
  5
468
100
AcDbEntity
  8
RACCORDO
100
AcDbCircle
 62
7
  6
CONTINUOUS
 10
281.0236351017
 20
259.4724543081
 40
0.3
100
AcDbArc
 50
19.513765722
 51
90.0
  0
ENDSEC
  0
SECTION
  2
OBJECTS
  0
DICTIONARY
  5
C
100
AcDbDictionary
280
0
281
1
  3
ACAD_GROUP
350
D
  3
ACAD_MLINESTYLE
350
17
  3
ACAD_LAYOUT
350
1A
  3
ACAD_PLOTSETTINGS
350
19
  3
ACAD_PLOTSTYLENAME
350
E
  0
DICTIONARY
  5
D
102
{ACAD_REACTORS
330
C
102
}
100
AcDbDictionary
280
0
281
1
  0
ACDBDICTIONARYWDFLT
  5
E
102
{ACAD_REACTORS
330
C
102
}
100
AcDbDictionary
281
1
  3
Normal
350
F
100
AcDbDictionaryWithDefault
340
F
  0
DICTIONARY
  5
17
102
{ACAD_REACTORS
330
C
102
}
100
AcDbDictionary
280
0
281
1
  3
Standard
350
18
  0
DICTIONARY
  5
19
102
{ACAD_REACTORS
330
C
102
}
100
AcDbDictionary
281
1
  0
DICTIONARY
  5
1A
102
{ACAD_REACTORS
330
C
102
}
100
AcDbDictionary
281
1
  3
Model
350
469
  3
Layout1
350
46A
  0
ACDBPLACEHOLDER
  5
F
102
{ACAD_REACTORS
330
E
102
}
  0
MLINESTYLE
  5
18
102
{ACAD_REACTORS
330
17
102
}
100
AcDbMlineStyle
  2
STANDARD
 70
0
  3

 62
256
 51
90.0
 52
90.0
 71
2
 49
0.5
 62
256
  6
BYLAYER
 49
-0.5
 62
256
  6
BYLAYER
  0
LAYOUT
  5
469
102
{ACAD_REACTORS
330
1A
102
}
100
AcDbPlotSettings
  1

  2
none_device
  4
ANSI_C_(22.00_x_17.00_Inches)
  6

 40
0.0
 41
0.0
 42
0.0
 43
0.0
 44
558.8
 45
431.8
 46
0.0
 47
0.0
 48
0.0
 49
0.0
140
0.0
141
0.0
142
1.0
143
1.0
 70
1024
 72
1
 73
0
 74
0
  7

 75
0
147
1.0
148
0.0
149
0.0
100
AcDbLayout
  1
Model
 70
0
 71
0
 10
0.0
 20
0.0
 11
558.8
 21
431.8
 12
0.0
 22
0.0
 32
0.0
 14
0.0
 24
0.0
 34
0.0
 15
0.0
 25
0.0
 35
0.0
146
0.0
 13
0.0
 23
0.0
 33
0.0
 16
1.0
 26
0.0
 36
0.0
 17
0.0
 27
1.0
 37
0.0
 76
0
330
214
345
0
346
0
  0
LAYOUT
  5
46A
102
{ACAD_REACTORS
330
1A
102
}
100
AcDbPlotSettings
  1

  2
none_device
  4
ANSI_C_(22.00_x_17.00_Inches)
  6

 40
0.0
 41
0.0
 42
0.0
 43
0.0
 44
558.8
 45
431.8
 46
0.0
 47
0.0
 48
0.0
 49
0.0
140
0.0
141
0.0
142
1.0
143
1.0
 70
0
 72
1
 73
0
 74
0
  7

 75
0
147
1.0
148
0.0
149
0.0
100
AcDbLayout
  1
Layout1
 70
0
 71
1
 10
0.0
 20
0.0
 11
558.8
 21
431.8
 12
0.0
 22
0.0
 32
0.0
 14
0.0
 24
0.0
 34
0.0
 15
0.0
 25
0.0
 35
0.0
146
0.0
 13
0.0
 23
0.0
 33
0.0
 16
1.0
 26
0.0
 36
0.0
 17
0.0
 27
1.0
 37
0.0
 76
0
330
215
345
0
346
0
  0
ENDSEC
  0
EOF
