  0
SECTION
  2
HEADER
  9
$ACADVER
  1
AC1021
  9
$DWGCODEPAGE
  3
ANSI_1252
  9
$EXTMAX
 10
297.0
 20
210.0
 30
0.0
  9
$EXTMIN
 10
0.0
 20
0.0
 30
0.0
  9
$LIMMIN
 10
0.0
 20
0.0
  9
$LIMMAX
 10
297.0
 20
210.0
  9
$VIEWCTR
 10
148.5
 20
105.0
  9
$VIEWSIZE
 40
210.0
  9
$CLAYER
  8
0
  9
$LTSCALE
 40
16.335
  9
$CELTYPE
  6
BYLAYER
  9
$DIMSCALE
 40
1.0
  9
$DIMASZ
 40
3.0
  9
$DIMEXO
 40
0.5
  9
$DIMDLI
 40
11.286
  9
$DIMEXE
 40
1.5
  9
$DIMCEN
 40
2.673
  9
$DIMLFAC
 40
1.0
  9
$DIMBLK
  1
_FILLED
  9
$DIMALT
 70
0
  9
$DIMALTF
 40
25.4
  9
$DIMTXT
 40
3.0
  9
$DIMTOL
 70
1
  9
$DIMLIM
 70
0
  9
$DIMTFAC
 40
1.0
  9
$DIMTP
 40
0.01
  9
$DIMTM
 40
0.01
  9
$DIMGAP
 40
0.625
  9
$DIMDSEP
 70
44
  9
$AUNITS
 70
0
  9
$PDMODE
 70
3
  9
$PDSIZE
 40
3.0
  9
$HANDSEED
  5
794
  9
$TILEMODE
 70
1
  9
$MEASUREMENT
 70
1
  9
$INSUNITS
 70
4
  0
ENDSEC
  0
SECTION
  2
CLASSES
  0
CLASS
  1
ACDBDICTIONARYWDFLT
  2
AcDbDictionaryWithDefault
  3
AutoCAD 2000
 90
0
 91
1
280
0
281
0
  0
CLASS
  1
ACDBPLACEHOLDER
  2
AcDbPlaceHolder
  3
AutoCAD 2000
 90
0
 91
1
280
0
281
0
  0
CLASS
  1
LAYOUT
  2
AcDbLayout
  3
AutoCAD 2000
 90
0
 91
0
280
0
281
0
  0
ENDSEC
  0
SECTION
  2
TABLES
  0
TABLE
  2
VPORT
  5
8
100
AcDbSymbolTable
 70
2
  0
VPORT
  5
1F4
100
AcDbSymbolTableRecord
100
AcDbViewportTableRecord
  2
*ACTIVE
 70
0
 10
0.0
 20
0.0
 11
1.0
 21
1.0
 12
148.5
 22
105.0
 13
0.0
 23
0.0
 14
1.0
 24
1.0
 15
0.0
 25
0.0
 16
0.0
 26
0.0
 36
1.0
 17
0.0
 27
0.0
 37
0.0
 40
210.0
 41
1.4142857143
 42
50.0
 43
0.0
 44
0.0
 50
0.0
 51
0.0
 71
0
 72
100
 73
1
 74
1
 75
0
 76
0
 77
0
 78
0
  0
ENDTAB
  0
TABLE
  2
LTYPE
  5
5
100
AcDbSymbolTable
 70
6
  0
LTYPE
  5
14
100
AcDbSymbolTableRecord
100
AcDbLinetypeTableRecord
  2
BYBLOCK
 70
0
  3

 72
65
 73
0
 40
0.0
  0
LTYPE
  5
15
100
AcDbSymbolTableRecord
100
AcDbLinetypeTableRecord
  2
BYLAYER
 70
0
  3

 72
65
 73
0
 40
0.0
  0
LTYPE
  5
16
100
AcDbSymbolTableRecord
100
AcDbLinetypeTableRecord
  2
CONTINUOUS
 70
64
  3
Solid line
 72
65
 73
0
 40
0.0
  0
LTYPE
  5
1F5
100
AcDbSymbolTableRecord
100
AcDbLinetypeTableRecord
  2
CENTER
 70
64
  3
____ _ ____ _ ____ _ ____ _ ____ _ ____ _ ____
 72
65
 73
4
 40
0.6
 49
0.375
 74
0
 49
-0.075
 74
0
 49
0.075
 74
0
 49
-0.075
 74
0
  0
LTYPE
  5
1F6
100
AcDbSymbolTableRecord
100
AcDbLinetypeTableRecord
  2
HIDDEN
 70
64
  3
- - - - - - - - - - - - - - - - - - - -
 72
65
 73
2
 40
0.2
 49
0.1
 74
0
 49
-0.1
 74
0
  0
LTYPE
  5
1F7
100
AcDbSymbolTableRecord
100
AcDbLinetypeTableRecord
  2
PHANTOM
 70
64
  3
_____ _ _ _____ _ _ _____ _ _ _____
 72
65
 73
6
 40
0.8
 49
0.45
 74
0
 49
-0.05
 74
0
 49
0.1
 74
0
 49
-0.05
 74
0
 49
0.1
 74
0
 49
-0.05
 74
0
  0
LTYPE
  5
1F8
100
AcDbSymbolTableRecord
100
AcDbLinetypeTableRecord
  2
DOT
 70
64
  3
. . . . . . . . . . . . . . . . . . . .
 72
65
 73
2
 40
0.2
 49
0.1
 74
0
 49
-0.1
 74
0
  0
LTYPE
  5
1F9
100
AcDbSymbolTableRecord
100
AcDbLinetypeTableRecord
  2
DASHED
 70
64
  3
- - - - - - - - - - - - - - - - - - - -
 72
65
 73
2
 40
0.2
 49
0.1
 74
0
 49
-0.1
 74
0
  0
ENDTAB
  0
TABLE
  2
LAYER
  5
2
100
AcDbSymbolTable
 70
36
  0
LAYER
  5
10
100
AcDbSymbolTableRecord
100
AcDbLayerTableRecord
  2
0
 70
0
 62
7
  6
CONTINUOUS
370
-3
390
F
  0
LAYER
  5
1FA
100
AcDbSymbolTableRecord
100
AcDbLayerTableRecord
  2
DEFAULT_1
 70
0
 62
7
  6
CENTER
370
-3
390
F
  0
LAYER
  5
1FB
100
AcDbSymbolTableRecord
100
AcDbLayerTableRecord
  2
DEFAULT_2
 70
0
 62
7
  6
HIDDEN
370
-3
390
F
  0
LAYER
  5
1FC
100
AcDbSymbolTableRecord
100
AcDbLayerTableRecord
  2
DEFAULT_3
 70
0
 62
7
  6
PHANTOM
370
-3
390
F
  0
LAYER
  5
1FD
100
AcDbSymbolTableRecord
100
AcDbLayerTableRecord
  2
ASSI
 70
0
 62
7
  6
CONTINUOUS
370
-3
390
F
  0
LAYER
  5
1FE
100
AcDbSymbolTableRecord
100
AcDbLayerTableRecord
  2
COORDINATE
 70
0
 62
7
  6
CONTINUOUS
370
-3
390
F
  0
LAYER
  5
1FF
100
AcDbSymbolTableRecord
100
AcDbLayerTableRecord
  2
COPY_PUBLISH
 70
0
 62
7
  6
CONTINUOUS
370
-3
390
F
  0
LAYER
  5
200
100
AcDbSymbolTableRecord
100
AcDbLayerTableRecord
  2
COSMETICI
 70
0
 62
7
  6
CONTINUOUS
370
-3
390
F
  0
LAYER
  5
201
100
AcDbSymbolTableRecord
100
AcDbLayerTableRecord
  2
CURVE
 70
0
 62
7
  6
CONTINUOUS
370
-3
390
F
  0
LAYER
  5
202
100
AcDbSymbolTableRecord
100
AcDbLayerTableRecord
  2
DRAFT
 70
0
 62
7
  6
CONTINUOUS
370
-3
390
F
  0
LAYER
  5
203
100
AcDbSymbolTableRecord
100
AcDbLayerTableRecord
  2
IMPORT_IGES
 70
0
 62
7
  6
CONTINUOUS
370
-3
390
F
  0
LAYER
  5
204
100
AcDbSymbolTableRecord
100
AcDbLayerTableRecord
  2
NOTE
 70
0
 62
7
  6
CONTINUOUS
370
-3
390
F
  0
LAYER
  5
205
100
AcDbSymbolTableRecord
100
AcDbLayerTableRecord
  2
PIANI
 70
0
 62
7
  6
CONTINUOUS
370
-3
390
F
  0
LAYER
  5
206
100
AcDbSymbolTableRecord
100
AcDbLayerTableRecord
  2
PUNTI
 70
0
 62
7
  6
CONTINUOUS
370
-3
390
F
  0
LAYER
  5
207
100
AcDbSymbolTableRecord
100
AcDbLayerTableRecord
  2
RACCORDO
 70
0
 62
7
  6
CONTINUOUS
370
-3
390
F
  0
LAYER
  5
208
100
AcDbSymbolTableRecord
100
AcDbLayerTableRecord
  2
SIMBOLI
 70
0
 62
7
  6
CONTINUOUS
370
-3
390
F
  0
LAYER
  5
209
100
AcDbSymbolTableRecord
100
AcDbLayerTableRecord
  2
SMUSSO
 70
0
 62
7
  6
CONTINUOUS
370
-3
390
F
  0
LAYER
  5
20A
100
AcDbSymbolTableRecord
100
AcDbLayerTableRecord
  2
SNAPLINE
 70
0
 62
7
  6
CONTINUOUS
370
-3
390
F
  0
LAYER
  5
20B
100
AcDbSymbolTableRecord
100
AcDbLayerTableRecord
  2
SUPERFICI
 70
0
 62
7
  6
CONTINUOUS
370
-3
390
F
  0
LAYER
  5
20C
100
AcDbSymbolTableRecord
100
AcDbLayerTableRecord
  2
TRASH
 70
0
 62
7
  6
CONTINUOUS
370
-3
390
F
  0
ENDTAB
  0
TABLE
  2
STYLE
  5
3
100
AcDbSymbolTable
 70
1
  0
STYLE
  5
11
100
AcDbSymbolTableRecord
100
AcDbTextStyleTableRecord
  2
STANDARD
 70
0
 40
0.0
 41
0.8
 50
0.0
 71
0
 42
0.2
  3
txt
  4

  0
STYLE
  5
20D
100
AcDbSymbolTableRecord
100
AcDbTextStyleTableRecord
  2
TEXTSTYLE_1
 70
0
 40
0.0
 41
0.8
 50
0.0
 71
0
 42
0.2
  3
gdt
  4

  0
ENDTAB
  0
TABLE
  2
VIEW
  5
6
100
AcDbSymbolTable
 70
0
  0
ENDTAB
  0
TABLE
  2
UCS
  5
7
100
AcDbSymbolTable
 70
0
  0
ENDTAB
  0
TABLE
  2
APPID
  5
9
100
AcDbSymbolTable
 70
1
  0
APPID
  5
20E
100
AcDbSymbolTableRecord
100
AcDbRegAppTableRecord
  2
ACAD
 70
0
  0
ENDTAB
  0
TABLE
  2
BLOCK_RECORD
  5
1
100
AcDbSymbolTable
 70
0
  0
BLOCK_RECORD
  5
20F
100
AcDbSymbolTableRecord
100
AcDbBlockTableRecord
  2
*Model_Space
  0
BLOCK_RECORD
  5
210
100
AcDbSymbolTableRecord
100
AcDbBlockTableRecord
  2
*Paper_Space
  0
BLOCK_RECORD
  5
211
100
AcDbSymbolTableRecord
100
AcDbBlockTableRecord
  2
_FILLED
  0
BLOCK_RECORD
  5
212
100
AcDbSymbolTableRecord
100
AcDbBlockTableRecord
  2
*D0
  0
BLOCK_RECORD
  5
213
100
AcDbSymbolTableRecord
100
AcDbBlockTableRecord
  2
*D1
  0
BLOCK_RECORD
  5
214
100
AcDbSymbolTableRecord
100
AcDbBlockTableRecord
  2
*D2
  0
ENDTAB
  0
TABLE
  2
DIMSTYLE
  5
A
100
AcDbSymbolTable
 70
1
100
AcDbDimStyleTable
 71
0
  0
DIMSTYLE
105
215
100
AcDbSymbolTableRecord
100
AcDbDimStyleTableRecord
  2
STANDARD
 70
0
  3

  4

 40
1.0
 41
3.0
 42
0.5
 43
0.38
 44
1.5
 45
0.0
 46
0.0
 47
0.01
 48
0.01
140
3.0
141
0.09
142
0.0
143
25.4
144
1.0
145
0.0
146
1.0
147
0.625
 71
1.0
 72
0.0
 73
0
 74
0
 75
0
 76
0
 77
1
 78
8
170
0
171
1
172
0
173
0
174
0
175
0
176
0
177
0
178
0
270
2
271
2
272
2
273
2
274
2
275
0
280
0
281
0
282
0
283
1
284
8
285
0
286
0
287
3
288
0
340
11
278
44
341
211
342
211
343
211
344
211
  0
DIMSTYLE
105
216
100
AcDbSymbolTableRecord
100
AcDbDimStyleTableRecord
  2
DIMSTYLE_1
 70
0
  3

  4

 40
1.0
 41
3.0
 42
0.5
 43
0.38
 44
1.5
 45
0.0
 46
0.0
 47
0.0
 48
0.0
140
3.0
141
0.09
142
0.0
143
25.4
144
1.0
145
0.0
146
1.0
147
0.75
 71
0.0
 72
0.0
 73
0
 74
0
 75
0
 76
0
 77
1
 78
8
170
0
171
1
172
0
173
0
174
0
175
0
176
0
177
0
178
0
270
2
271
1
272
1
273
2
274
2
275
0
280
0
281
0
282
0
283
1
284
8
285
0
286
0
287
3
288
0
340
11
278
44
341
211
342
211
343
211
344
211
  0
DIMSTYLE
105
217
100
AcDbSymbolTableRecord
100
AcDbDimStyleTableRecord
  2
DIMSTYLE_2
 70
0
  3

  4

 40
1.0
 41
3.0
 42
0.5
 43
0.38
 44
1.5
 45
0.0
 46
0.0
 47
0.0
 48
0.0
140
3.0
141
0.09
142
0.0
143
25.4
144
1.0
145
0.0
146
1.0
147
0.75
 71
0.0
 72
0.0
 73
0
 74
0
 75
0
 76
0
 77
1
 78
8
170
0
171
1
172
0
173
0
174
0
175
0
176
0
177
0
178
0
270
2
271
2
272
2
273
2
274
2
275
0
280
0
281
0
282
0
283
1
284
8
285
0
286
0
287
3
288
0
340
11
278
44
341
211
342
211
343
211
344
211
  0
ENDTAB
  0
ENDSEC
  0
SECTION
  2
BLOCKS
  0
BLOCK
  5
20
100
AcDbEntity
  8
0
100
AcDbBlockBegin
  2
*Model_Space
 70
0
 10
0.0
 20
0.0
 30
0.0
  3
*Model_Space
  1

  0
ENDBLK
  5
21
100
AcDbEntity
  8
0
100
AcDbBlockEnd
  0
BLOCK
  5
1C
100
AcDbEntity
  8
0
100
AcDbBlockBegin
  2
*Paper_Space
 70
0
 10
0.0
 20
0.0
 30
0.0
  3
*Paper_Space
  1

  0
ENDBLK
  5
1D
100
AcDbEntity
  8
0
100
AcDbBlockEnd
  0
BLOCK
  5
218
100
AcDbEntity
  8
0
100
AcDbBlockBegin
  2
_FILLED
 70
64
 10
0.0
 20
0.0
  3
_FILLED
  1

  0
SOLID
  5
219
100
AcDbEntity
  8
0
  6
BYBLOCK
 62
0
100
AcDbTrace
 10
0.0
 20
0.0
 11
-1.0
 21
0.3166666667
 12
-1.0
 22
-0.3166666667
 13
-1.0
 23
-0.3166666667
  0
ENDBLK
  5
21A
100
AcDbEntity
  8
0
  6
BYBLOCK
 62
0
100
AcDbBlockEnd
  0
BLOCK
  5
21B
100
AcDbEntity
  8
0
100
AcDbBlockBegin
 62
7
  6
CONTINUOUS
  2
*D0
 70
65
 10
0.0
 20
0.0
  3
*D0
  1

  0
MTEXT
  5
21C
100
AcDbEntity
  8
0
100
AcDbMText
 62
7
  6
CONTINUOUS
  7
STANDARD
 71
2
 72
1
 10
-60.4817433031
 20
-0.173740799
 30
0.0
 11
0.0
 21
1.0
 31
0.0
 44
0.9
  1
46,3
 40
3.0
 41
12.8571428571
  0
LINE
  5
21D
100
AcDbEntity
  8
0
100
AcDbLine
 62
7
  6
CONTINUOUS
 10
-47.4937313095
 20
-23.298740799
 11
-58.2317433031
 21
-23.298740799
  0
LINE
  5
21E
100
AcDbEntity
  8
0
100
AcDbLine
 62
7
  6
CONTINUOUS
 10
-28.4319218752
 20
22.951259201
 11
-58.2317433031
 21
22.951259201
  0
LINE
  5
21F
100
AcDbEntity
  8
0
100
AcDbLine
 62
7
  6
CONTINUOUS
 10
-56.7317433031
 20
-23.298740799
 11
-56.7317433031
 21
-0.173740799
  0
LINE
  5
220
100
AcDbEntity
  8
0
100
AcDbLine
 62
7
  6
CONTINUOUS
 10
-56.7317433031
 20
22.951259201
 11
-56.7317433031
 21
-0.173740799
  0
INSERT
  5
221
100
AcDbEntity
  8
0
100
AcDbBlockReference
 62
7
  6
CONTINUOUS
  2
_FILLED
 10
-56.7317433031
 20
-23.298740799
 41
3.0
 42
3.0
 43
3.0
 50
270.0
  0
INSERT
  5
222
100
AcDbEntity
  8
0
100
AcDbBlockReference
 62
7
  6
CONTINUOUS
  2
_FILLED
 10
-56.7317433031
 20
22.951259201
 41
3.0
 42
3.0
 43
3.0
 50
90.0
  0
ENDBLK
  5
223
100
AcDbEntity
  8
0
  6
BYBLOCK
 62
0
100
AcDbBlockEnd
  0
BLOCK
  5
224
100
AcDbEntity
  8
0
100
AcDbBlockBegin
 62
7
  6
CONTINUOUS
  2
*D1
 70
65
 10
0.0
 20
0.0
  3
*D1
  1

  0
MTEXT
  5
225
100
AcDbEntity
  8
0
100
AcDbMText
 62
7
  6
CONTINUOUS
  7
STANDARD
 71
2
 72
1
 10
-27.7819131691
 20
34.715225999
 30
0.0
 11
1.0
 21
0.0
 31
0.0
 44
0.9
  1
41,3
 40
3.0
 41
11.8928571429
  0
LINE
  5
226
100
AcDbEntity
  8
0
100
AcDbLine
 62
7
  6
CONTINUOUS
 10
-48.431725886
 20
0.501259201
 11
-48.431725886
 21
32.465225999
  0
LINE
  5
227
100
AcDbEntity
  8
0
100
AcDbLine
 62
7
  6
CONTINUOUS
 10
-7.1321004521
 20
0.501259201
 11
-7.1321004521
 21
32.465225999
  0
LINE
  5
228
100
AcDbEntity
  8
0
100
AcDbLine
 62
7
  6
CONTINUOUS
 10
-48.431725886
 20
30.965225999
 11
-27.7819131691
 21
30.965225999
  0
LINE
  5
229
100
AcDbEntity
  8
0
100
AcDbLine
 62
7
  6
CONTINUOUS
 10
-7.1321004521
 20
30.965225999
 11
-27.7819131691
 21
30.965225999
  0
INSERT
  5
22A
100
AcDbEntity
  8
0
100
AcDbBlockReference
 62
7
  6
CONTINUOUS
  2
_FILLED
 10
-48.431725886
 20
30.965225999
 41
3.0
 42
3.0
 43
3.0
 50
180.0
  0
INSERT
  5
22B
100
AcDbEntity
  8
0
100
AcDbBlockReference
 62
7
  6
CONTINUOUS
  2
_FILLED
 10
-7.1321004521
 20
30.965225999
 41
3.0
 42
3.0
 43
3.0
  0
ENDBLK
  5
22C
100
AcDbEntity
  8
0
  6
BYBLOCK
 62
0
100
AcDbBlockEnd
  0
BLOCK
  5
22D
100
AcDbEntity
  8
0
100
AcDbBlockBegin
 62
7
  6
CONTINUOUS
  2
*D2
 70
65
 10
0.0
 20
0.0
  3
*D2
  1

  0
MTEXT
  5
22E
100
AcDbEntity
  8
0
100
AcDbMText
 62
7
  6
CONTINUOUS
  7
STANDARD
 71
2
 72
1
 10
32.8184697623
 20
34.715225999
 30
0.0
 11
1.0
 21
0.0
 31
0.0
 44
0.9
  1
49,9
 40
3.0
 41
13.1785714286
  0
LINE
  5
22F
100
AcDbEntity
  8
0
100
AcDbLine
 62
7
  6
CONTINUOUS
 10
55.1624363535
 20
4.3634634527
 11
55.1624363535
 21
32.465225999
  0
LINE
  5
230
100
AcDbEntity
  8
0
100
AcDbLine
 62
7
  6
CONTINUOUS
 10
5.2987975711
 20
0.501259201
 11
5.2987975711
 21
32.465225999
  0
LINE
  5
231
100
AcDbEntity
  8
0
100
AcDbLine
 62
7
  6
CONTINUOUS
 10
55.1624363535
 20
30.965225999
 11
30.2306169623
 21
30.965225999
  0
LINE
  5
232
100
AcDbEntity
  8
0
100
AcDbLine
 62
7
  6
CONTINUOUS
 10
5.2987975711
 20
30.965225999
 11
30.2306169623
 21
30.965225999
  0
INSERT
  5
233
100
AcDbEntity
  8
0
100
AcDbBlockReference
 62
7
  6
CONTINUOUS
  2
_FILLED
 10
55.1624363535
 20
30.965225999
 41
3.0
 42
3.0
 43
3.0
  0
INSERT
  5
234
100
AcDbEntity
  8
0
100
AcDbBlockReference
 62
7
  6
CONTINUOUS
  2
_FILLED
 10
5.2987975711
 20
30.965225999
 41
3.0
 42
3.0
 43
3.0
 50
180.0
  0
ENDBLK
  5
235
100
AcDbEntity
  8
0
  6
BYBLOCK
 62
0
100
AcDbBlockEnd
  0
ENDSEC
  0
SECTION
  2
ENTITIES
  0
DIMENSION
  5
236
100
AcDbEntity
  8
0
100
AcDbDimension
 62
7
  6
CONTINUOUS
  2
*D0
 10
-56.7317433031
 20
22.951259201
 11
-56.7317433031
 21
-0.6023134814
 70
160
 71
2
 42
46.25
  3
DIMSTYLE_1
100
AcDbAlignedDimension
 13
-46.9937313095
 23
-23.298740799
 14
-27.9319218752
 24
22.951259201
 50
90.0
100
AcDbRotatedDimension
  0
DIMENSION
  5
237
100
AcDbEntity
  8
0
100
AcDbDimension
 62
7
  6
CONTINUOUS
  2
*D1
 10
-7.1321004521
 20
30.965225999
 11
-28.2104840012
 21
30.965225999
 70
160
 71
2
 42
41.2996254339
  3
DIMSTYLE_2
100
AcDbAlignedDimension
 13
-48.431725886
 23
0.001259201
 14
-7.1321004521
 24
0.001259201
100
AcDbRotatedDimension
  0
DIMENSION
  5
238
100
AcDbEntity
  8
0
100
AcDbDimension
 62
7
  6
CONTINUOUS
  2
*D2
 10
5.2987975711
 20
30.965225999
 11
32.3898993073
 21
30.965225999
 70
160
 71
2
 42
49.8636387824
  3
DIMSTYLE_1
100
AcDbAlignedDimension
 13
55.1624363535
 23
3.8634634527
 14
5.2987975711
 24
0.001259201
 50
180.0
100
AcDbRotatedDimension
  0
LINE
  5
239
100
AcDbEntity
  8
IMPORT_IGES
100
AcDbLine
 62
7
  6
CONTINUOUS
 10
31.3566777388
 20
22.8330964496
 11
31.3645806702
 21
22.8358299549
  0
LINE
  5
23A
100
AcDbEntity
  8
IMPORT_IGES
100
AcDbLine
 62
253
  6
CONTINUOUS
 10
11.4970520646
 20
-40.298740799
 11
11.5490793076
 21
-40.298740799
  0
LINE
  5
23B
100
AcDbEntity
  8
IMPORT_IGES
100
AcDbLine
 62
253
  6
CONTINUOUS
 10
16.4450248215
 20
-40.298740799
 11
16.4970520646
 21
-40.298740799
  0
LINE
  5
23C
100
AcDbEntity
  8
IMPORT_IGES
100
AcDbLine
 62
7
  6
CONTINUOUS
 10
31.3452752952
 20
22.8272835511
 11
31.3502465131
 21
22.8302505609
  0
LINE
  5
23D
100
AcDbEntity
  8
IMPORT_IGES
100
AcDbLine
 62
7
  6
CONTINUOUS
 10
31.3502465777
 20
22.8302505609
 11
31.3566777388
 21
22.8330964496
  0
LINE
  5
23E
100
AcDbEntity
  8
IMPORT_IGES
100
AcDbLine
 62
253
  6
CONTINUOUS
 10
11.4970520646
 20
-39.798740799
 11
16.4970520646
 21
-39.798740799
  0
LINE
  5
23F
100
AcDbEntity
  8
IMPORT_IGES
100
AcDbLine
 62
7
  6
CONTINUOUS
 10
5.6848591389
 20
-22.3161932055
 11
5.2987975711
 21
-0.198740799
  0
LWPOLYLINE
  5
240
100
AcDbEntity
  8
IMPORT_IGES
100
AcDbPolyline
 62
253
  6
CONTINUOUS
 90
87
 70
0
 10
6.0400625635
 20
3.300307035
 10
6.0448884627
 20
3.5803853885
 10
6.0540626218
 20
3.8683852327
 10
6.0679167938
 20
4.164103225
 10
6.0868002578
 20
4.4677906582
 10
6.1110440832
 20
4.7787483333
 10
6.1408890043
 20
5.0953628704
 10
6.1765959452
 20
5.4174374887
 10
6.2184280531
 20
5.7447138927
 10
6.2664902182
 20
6.0755755096
 10
6.3210150385
 20
6.410003647
 10
6.38214808
 20
6.7476400929
 10
6.4497034375
 20
7.0864536666
 10
6.5238118792
 20
7.4263776014
 10
6.6045344466
 20
7.7671870146
 10
6.6913767227
 20
8.1066838351
 10
6.7840310513
 20
8.4437605763
 10
6.8827361743
 20
8.7793043433
 10
6.9877448673
 20
9.1141066491
 10
7.0988568497
 20
9.4473952517
 10
7.2163086621
 20
9.7796752019
 10
7.3411809259
 20
10.1135271504
 10
7.4738760317
 20
10.4493424975
 10
7.6142772891
 20
10.78619145
 10
7.7628433607
 20
11.1245747649
 10
7.9198980075
 20
11.4646332014
 10
8.0854297185
 20
11.8057644151
 10
8.2594273042
 20
12.1473948227
 10
8.4421469184
 20
12.4895123861
 10
8.6336418873
 20
12.8317065501
 10
8.8335285524
 20
13.1728591193
 10
9.0419957389
 20
13.5128943586
 10
9.2591156581
 20
13.8515539578
 10
9.4842300564
 20
14.1875329949
 10
9.717386582
 20
14.5206599311
 10
9.9587159071
 20
14.8508553386
 10
10.2075874429
 20
15.1770424464
 10
10.4641578451
 20
15.4992535747
 10
10.7284334727
 20
15.8172782387
 10
10.9994195992
 20
16.1297817344
 10
11.2767747644
 20
16.436313007
 10
11.5608531062
 20
16.7371953155
 10
11.8516017472
 20
17.032313247
 10
12.1496604747
 20
17.322233795
 10
12.4543804289
 20
17.6062623569
 10
12.7636618143
 20
17.8825430121
 10
13.0773031395
 20
18.1510994481
 10
13.395338963
 20
18.4120616116
 10
13.7157765598
 20
18.6639585243
 10
14.0381752523
 20
18.9066986328
 10
14.3626607694
 20
19.1406866365
 10
14.6879392852
 20
19.3653458993
 10
15.0139085132
 20
19.5809539693
 10
15.3402920191
 20
19.7875946352
 10
15.6654257491
 20
19.9845091269
 10
15.9878429896
 20
20.1712270095
 10
16.3084446315
 20
20.3487129855
 10
16.6291305142
 20
20.518337327
 10
16.951043701
 20
20.6808562888
 10
17.2728169244
 20
20.8357053064
 10
17.5925772255
 20
20.98223688
 10
17.9092518667
 20
21.1202838199
 10
18.2232404872
 20
21.2503578818
 10
18.5347780554
 20
21.3728838318
 10
18.8438216194
 20
21.4881481689
 10
19.1498943172
 20
21.5962474958
 10
19.4526072244
 20
21.6973233299
 10
19.7512801169
 20
21.7914454424
 10
20.0460252435
 20
21.8789570094
 10
20.3376688279
 20
21.9603722449
 10
20.627547912
 20
22.0362429443
 10
20.9138706684
 20
22.1062998367
 10
21.1927057892
 20
22.1699420615
 10
21.4598124972
 20
22.2267475226
 10
21.7187592494
 20
22.2779329294
 10
21.9774282641
 20
22.3251886245
 10
22.2368329843
 20
22.3686642536
 10
22.4956646695
 20
22.4081923604
 10
22.7585772112
 20
22.444458014
 10
23.0285388476
 20
22.4776247137
 10
23.3024833112
 20
22.5070609737
 10
23.576067067
 20
22.5322543943
 10
23.8498937581
 20
22.5532887311
 10
24.1230671286
 20
22.57006899
 10
24.388893218
 20
22.5823191054
 10
24.6447692576
 20
22.5903056683
 10
24.8923282752
 20
22.5944990644
  0
LINE
  5
241
100
AcDbEntity
  8
IMPORT_IGES
100
AcDbLine
 62
7
  6
CONTINUOUS
 10
5.3563826781
 20
3.3003077706
 11
5.2987975711
 21
0.001259201
  0
LWPOLYLINE
  5
242
100
AcDbEntity
  8
IMPORT_IGES
100
AcDbPolyline
 62
253
  6
CONTINUOUS
 90
22
 70
0
 10
6.0400603072
 20
3.3003076146
 10
6.0500196745
 20
3.3118643617
 10
6.0664907393
 20
3.3232396545
 10
6.0892842957
 20
3.3343372796
 10
6.1179023116
 20
3.3450041743
 10
6.1520408563
 20
3.3552243552
 10
6.1919889918
 20
3.3651093885
 10
6.2376225941
 20
3.3746087355
 10
6.2885032264
 20
3.3836256314
 10
6.3448465749
 20
3.3921868558
 10
6.4063134483
 20
3.4002194776
 10
6.4725059244
 20
3.4076604617
 10
6.5437630788
 20
3.4145264388
 10
6.6198513764
 20
3.4207605496
 10
6.7000753055
 20
3.4262812685
 10
6.7841336101
 20
3.4310509945
 10
6.8712291588
 20
3.4350139276
 10
6.9608007666
 20
3.4381425678
 10
7.0528644956
 20
3.4404298984
 10
7.1468885945
 20
3.4418490338
 10
7.24179367
 20
3.442379487
 10
7.336745016
 20
3.4420251525
  0
LINE
  5
243
100
AcDbEntity
  8
IMPORT_IGES
100
AcDbLine
 62
7
  6
CONTINUOUS
 10
16.3970520646
 20
-33.698740799
 11
16.4970520646
 21
-33.798740799
  0
LINE
  5
244
100
AcDbEntity
  8
IMPORT_IGES
100
AcDbLine
 62
7
  6
CONTINUOUS
 10
6.0055662194
 20
-0.6805746768
 11
6.3521540476
 21
-22.3162057592
  0
LINE
  5
245
100
AcDbEntity
  8
IMPORT_IGES
100
AcDbLine
 62
253
  6
CONTINUOUS
 10
7.6485985314
 20
-22.3196839485
 11
7.3006540187
 21
-0.6851476352
  0
LINE
  5
246
100
AcDbEntity
  8
IMPORT_IGES
100
AcDbLine
 62
253
  6
CONTINUOUS
 10
5.9976296754
 20
-0.198740799
 11
6.0056037162
 21
-0.6805837876
  0
LINE
  5
247
100
AcDbEntity
  8
IMPORT_IGES
100
AcDbLine
 62
7
  6
CONTINUOUS
 10
6.2970520646
 20
0.001259201
 11
6.2970520646
 21
-0.198740799
  0
LINE
  5
248
100
AcDbEntity
  8
IMPORT_IGES
100
AcDbLine
 62
253
  6
CONTINUOUS
 10
6.9933463704
 20
-0.198740799
 11
6.9933463704
 21
0.001259201
  0
LINE
  5
249
100
AcDbEntity
  8
IMPORT_IGES
100
AcDbLine
 62
253
  6
CONTINUOUS
 10
7.2928110642
 20
0.001259201
 11
7.2928110642
 21
-0.198740799
  0
LINE
  5
24A
100
AcDbEntity
  8
IMPORT_IGES
100
AcDbLine
 62
253
  6
CONTINUOUS
 10
7.2985452009
 20
-0.19874081
 11
7.2985452009
 21
-0.6851476352
  0
LINE
  5
24B
100
AcDbEntity
  8
IMPORT_IGES
100
AcDbLine
 62
253
  6
CONTINUOUS
 10
7.6487172215
 20
-22.3196839485
 11
7.6487172215
 21
-23.298740799
  0
LINE
  5
24C
100
AcDbEntity
  8
IMPORT_IGES
100
AcDbLine
 62
253
  6
CONTINUOUS
 10
6.0400601139
 20
3.3003077706
 11
6.0291941492
 21
2.2039453273
  0
LINE
  5
24D
100
AcDbEntity
  8
IMPORT_IGES
100
AcDbLine
 62
253
  6
CONTINUOUS
 10
7.3172545766
 20
1.5338356999
 11
7.3367450146
 21
3.4420246464
  0
LINE
  5
24E
100
AcDbEntity
  8
IMPORT_IGES
100
AcDbLine
 62
253
  6
CONTINUOUS
 10
6.0291941492
 20
2.2039453273
 11
6.0150545937
 21
1.1036248662
  0
LWPOLYLINE
  5
24F
100
AcDbEntity
  8
IMPORT_IGES
100
AcDbPolyline
 62
253
  6
CONTINUOUS
 90
3
 70
0
 10
6.0150545937
 20
1.1036248662
 10
6.0038046478
 20
0.3689416676
 10
5.9976303046
 20
0.001259201
  0
LINE
  5
250
100
AcDbEntity
  8
IMPORT_IGES
100
AcDbLine
 62
253
  6
CONTINUOUS
 10
7.2944691401
 20
0.0012591271
 11
7.3172545766
 21
1.5338356999
  0
LWPOLYLINE
  5
251
100
AcDbEntity
  8
IMPORT_IGES
100
AcDbPolyline
 62
253
  6
CONTINUOUS
 90
84
 70
0
 10
7.3367450146
 20
3.4420246464
 10
7.3420319121
 20
3.7482659847
 10
7.3532716564
 20
4.0560369751
 10
7.3704642475
 20
4.3652900373
 10
7.3935448012
 20
4.6759484056
 10
7.4225782017
 20
4.987989315
 10
7.457759102
 20
5.3014434257
 10
7.4990774012
 20
5.6162665628
 10
7.5465432003
 20
5.932392856
 10
7.6003814549
 20
6.2498171002
 10
7.660581004
 20
6.56848353
 10
7.7271530087
 20
6.8883271133
 10
7.8003559073
 20
7.2093254271
 10
7.8801670025
 20
7.5313874388
 10
7.9666089916
 20
7.8544723467
 10
8.0600084045
 20
8.1786287915
 10
8.1603422245
 20
8.503781765
 10
8.2676334684
 20
8.8298606145
 10
8.3822777157
 20
9.1569148241
 10
8.504236158
 20
9.4848274808
 10
8.6335476037
 20
9.8135548552
 10
8.7707240584
 20
10.1432481793
 10
8.9157630972
 20
10.4738191012
 10
9.0686671448
 20
10.8051746721
 10
9.2299554812
 20
11.1374485793
 10
9.3996665692
 20
11.4706420336
 10
9.5777619459
 20
11.8045482368
 10
9.7646455024
 20
12.1389824415
 10
9.9603475765
 20
12.4739203762
 10
10.1648378305
 20
12.809166949
 10
10.3784291422
 20
13.1442852527
 10
10.6012716672
 20
13.4793894259
 10
10.8332152499
 20
13.8141418808
 10
11.0741223009
 20
14.1474542758
 10
11.324098088
 20
14.4793453809
 10
11.5830373434
 20
14.8096102165
 10
11.8504866743
 20
15.1368795896
 10
12.1265444323
 20
15.4611746692
 10
12.4111122659
 20
15.7823542874
 10
12.7034417282
 20
16.0988823708
 10
13.0036958271
 20
16.4108040302
 10
13.3117115547
 20
16.7180476884
 10
13.6262514406
 20
17.0189971855
 10
13.9477962916
 20
17.3140081057
 10
14.275865301
 20
17.6028073772
 10
14.6077785769
 20
17.8829699652
 10
14.943777567
 20
18.1546523624
 10
15.2836208237
 20
18.4179637659
 10
15.6239041133
 20
18.6705735418
 10
15.9646370476
 20
18.9125118523
 10
16.3058100148
 20
19.1441868891
 10
16.6439899451
 20
19.3639744477
 10
16.9788933453
 20
19.571793379
 10
17.3108037085
 20
19.7682637463
 10
17.6371384445
 20
19.9528859569
 10
17.957144083
 20
20.1254431305
 10
18.2715740943
 20
20.286687944
 10
18.5801062981
 20
20.4375637353
 10
18.8825876181
 20
20.5782022758
 10
19.1791711307
 20
20.708899265
 10
19.4699938857
 20
20.8307879611
 10
19.7549694075
 20
20.9440280102
 10
20.0341841718
 20
21.0487833217
 10
20.3080346551
 20
21.146139528
 10
20.5764548347
 20
21.2362432389
 10
20.8395107333
 20
21.3191836596
 10
21.0977968946
 20
21.3959165152
 10
21.351257428
 20
21.4665629767
 10
21.5999482242
 20
21.5311689162
 10
21.8446314983
 20
21.5905443357
 10
22.0853278556
 20
21.6448027752
 10
22.3220166909
 20
21.6939456988
 10
22.5553984043
 20
21.7385921528
 10
22.7856243118
 20
21.778839233
 10
23.0125430974
 20
21.8146673354
 10
23.236401213
 20
21.8465057012
 10
23.4571867582
 20
21.8743940531
 10
23.6749116335
 20
21.8983431024
 10
23.8898579918
 20
21.9187287671
 10
24.1019618171
 20
21.9356016727
 10
24.3112871255
 20
21.9489400108
 10
24.5183081178
 20
21.9590043611
 10
24.7231828612
 20
21.9658853702
 10
24.9257532886
 20
21.9695045728
  0
LINE
  5
252
100
AcDbEntity
  8
IMPORT_IGES
100
AcDbLine
 62
7
  6
CONTINUOUS
 10
31.3421013208
 20
22.824178762
 11
31.3452752386
 21
22.827283551
  0
LINE
  5
253
100
AcDbEntity
  8
IMPORT_IGES
100
AcDbLine
 62
7
  6
CONTINUOUS
 10
16.4970520646
 20
-33.798740799
 11
11.4970520646
 21
-33.798740799
  0
LINE
  5
254
100
AcDbEntity
  8
IMPORT_IGES
100
AcDbLine
 62
7
  6
CONTINUOUS
 10
11.5970520646
 20
-33.698740799
 11
16.3970520646
 21
-33.698740799
  0
LINE
  5
255
100
AcDbEntity
  8
IMPORT_IGES
100
AcDbLine
 62
253
  6
CONTINUOUS
 10
25.1303711746
 20
22.5944814798
 11
25.3532834724
 21
22.951259201
  0
LINE
  5
256
100
AcDbEntity
  8
IMPORT_IGES
100
AcDbLine
 62
7
  6
CONTINUOUS
 10
11.4970520646
 20
-40.298740799
 11
11.4970520646
 21
-23.298740799
  0
LINE
  5
257
100
AcDbEntity
  8
IMPORT_IGES
100
AcDbLine
 62
7
  6
CONTINUOUS
 10
11.5970520646
 20
-23.298740799
 11
11.5970520646
 21
-33.698740799
  0
LINE
  5
258
100
AcDbEntity
  8
IMPORT_IGES
100
AcDbLine
 62
7
  6
CONTINUOUS
 10
16.3970520646
 20
-23.298740799
 11
16.3970520646
 21
-33.698740799
  0
LINE
  5
259
100
AcDbEntity
  8
IMPORT_IGES
100
AcDbLine
 62
7
  6
CONTINUOUS
 10
16.4970520646
 20
-40.298740799
 11
16.4970520646
 21
-23.298740799
  0
LWPOLYLINE
  5
25A
100
AcDbEntity
  8
IMPORT_IGES
100
AcDbPolyline
 62
253
  6
CONTINUOUS
 90
19
 70
0
 10
7.3495094688
 20
-23.2987410257
 10
7.2627715368
 20
-23.2949537332
 10
7.1776313359
 20
-23.2837860634
 10
7.0946878582
 20
-23.2655653059
 10
7.0149383603
 20
-23.2408218371
 10
6.9384019718
 20
-23.2098757517
 10
6.8642662706
 20
-23.1724635066
 10
6.7927593972
 20
-23.1285109321
 10
6.7248202314
 20
-23.0783953412
 10
6.6608565417
 20
-23.0222361337
 10
6.601330736
 20
-22.9601786436
 10
6.5469471607
 20
-22.89267184
 10
6.498420219
 20
-22.8203884315
 10
6.4562684602
 20
-22.7439724645
 10
6.4207973298
 20
-22.6638290636
 10
6.3923169647
 20
-22.5803723382
 10
6.3711694348
 20
-22.4941506361
 10
6.3576781541
 20
-22.4058632583
 10
6.3520899466
 20
-22.316193187
  0
LWPOLYLINE
  5
25B
100
AcDbEntity
  8
IMPORT_IGES
100
AcDbPolyline
 62
253
  6
CONTINUOUS
 90
8
 70
0
 10
6.3521540476
 20
-22.3162057592
 10
6.3619968179
 20
-22.3175670765
 10
6.3783983073
 20
-22.318836543
 10
6.4012796237
 20
-22.3200056575
 10
6.430534373
 20
-22.3210653519
 10
6.4660143956
 20
-22.3220096796
 10
6.507519729
 20
-22.3228361179
 10
6.6076832875
 20
-22.3241156712
  0
LINE
  5
25C
100
AcDbEntity
  8
IMPORT_IGES
100
AcDbLine
 62
7
  6
CONTINUOUS
 10
31.3407052485
 20
22.8211253511
 11
31.3421013224
 21
22.8241789144
  0
LWPOLYLINE
  5
25D
100
AcDbEntity
  8
IMPORT_IGES
100
AcDbPolyline
 62
253
  6
CONTINUOUS
 90
19
 70
0
 10
23.0725283434
 20
-21.5669494884
 10
22.9880738002
 20
-21.5707999235
 10
22.9035305471
 20
-21.5802038174
 10
22.8198904124
 20
-21.5951530376
 10
22.738475123
 20
-21.6154051032
 10
22.6598784907
 20
-21.6407273688
 10
22.5839874776
 20
-21.6711419066
 10
22.5116121583
 20
-21.7063587903
 10
22.4435669651
 20
-21.7459442938
 10
22.3798155993
 20
-21.7899144743
 10
22.321072703
 20
-21.8378162004
 10
22.2679448818
 20
-21.8891115021
 10
22.2204103548
 20
-21.9438278077
 10
22.1790522659
 20
-22.0013507879
 10
22.1442671774
 20
-22.0610650966
 10
22.1160244034
 20
-22.1230551868
 10
22.0946400104
 20
-22.1868703109
 10
22.0804589827
 20
-22.2515028996
 10
22.0735138937
 20
-22.3161926516
  0
LWPOLYLINE
  5
25E
100
AcDbEntity
  8
IMPORT_IGES
100
AcDbPolyline
 62
253
  6
CONTINUOUS
 90
10
 70
0
 10
22.5117734314
 20
-22.791927577
 10
22.4312480112
 20
-22.7947458568
 10
22.350715371
 20
-22.8041273999
 10
22.2710142657
 20
-22.8200697456
 10
22.1933416113
 20
-22.8423072162
 10
22.1181118374
 20
-22.8706161119
 10
22.045000218
 20
-22.9051346499
 10
21.9744327781
 20
-22.9458147539
 10
21.9074889571
 20
-22.9921191653
 10
21.8448160483
 20
-23.0435501199
  0
LWPOLYLINE
  5
25F
100
AcDbEntity
  8
IMPORT_IGES
100
AcDbPolyline
 62
253
  6
CONTINUOUS
 90
7
 70
0
 10
21.4865819823
 20
-22.3228366575
 10
21.5280895789
 20
-22.3220102663
 10
21.563572236
 20
-22.3210659875
 10
21.5928380316
 20
-22.3200060119
 10
21.6157348305
 20
-22.3188360329
 10
21.6321466721
 20
-22.317565103
 10
21.6419883674
 20
-22.3162016295
  0
LINE
  5
260
100
AcDbEntity
  8
IMPORT_IGES
100
AcDbLine
 62
253
  6
CONTINUOUS
 10
21.3864036459
 20
-22.3241161866
 11
21.4865819823
 21
-22.3228366575
  0
LINE
  5
261
100
AcDbEntity
  8
IMPORT_IGES
100
AcDbLine
 62
253
  6
CONTINUOUS
 10
7.281744951
 20
-22.3233557332
 11
7.6479115745
 21
-22.3196935668
  0
LINE
  5
262
100
AcDbEntity
  8
IMPORT_IGES
100
AcDbLine
 62
253
  6
CONTINUOUS
 10
21.2650681098
 20
-22.3248793122
 11
21.3864036459
 21
-22.3241161866
  0
LINE
  5
263
100
AcDbEntity
  8
IMPORT_IGES
100
AcDbLine
 62
253
  6
CONTINUOUS
 10
6.9451773578
 20
-22.3250241101
 11
7.281744951
 21
-22.3233557332
  0
LINE
  5
264
100
AcDbEntity
  8
IMPORT_IGES
100
AcDbLine
 62
7
  6
CONTINUOUS
 10
6.6847068341
 20
-23.298740799
 11
21.3093969255
 21
-23.298740799
  0
LINE
  5
265
100
AcDbEntity
  8
IMPORT_IGES
100
AcDbLine
 62
7
  6
CONTINUOUS
 10
22.069473439
 20
-23.148740799
 11
54.6992423012
 21
-23.148740799
  0
LINE
  5
266
100
AcDbEntity
  8
IMPORT_IGES
100
AcDbLine
 62
253
  6
CONTINUOUS
 10
54.6998339819
 20
-22.7919275729
 11
22.5117734326
 21
-22.7919275729
  0
LINE
  5
267
100
AcDbEntity
  8
IMPORT_IGES
100
AcDbLine
 62
253
  6
CONTINUOUS
 10
7.6485985314
 20
-22.3196839485
 11
20.3453858886
 21
-22.3196839485
  0
LINE
  5
268
100
AcDbEntity
  8
IMPORT_IGES
100
AcDbLine
 62
253
  6
CONTINUOUS
 10
5.6848591389
 20
-22.3161932055
 11
6.3521043248
 21
-22.3161932055
  0
LINE
  5
269
100
AcDbEntity
  8
IMPORT_IGES
100
AcDbLine
 62
253
  6
CONTINUOUS
 10
21.6420000596
 20
-22.3161932055
 11
22.0735139089
 21
-22.3161932055
  0
LINE
  5
26A
100
AcDbEntity
  8
IMPORT_IGES
100
AcDbLine
 62
253
  6
CONTINUOUS
 10
22.992698169
 20
-22.1670976618
 11
54.7060985501
 21
-22.1670976618
  0
LINE
  5
26B
100
AcDbEntity
  8
IMPORT_IGES
100
AcDbLine
 62
253
  6
CONTINUOUS
 10
21.0488646736
 20
-22.3250240589
 11
21.2650681098
 21
-22.3248793122
  0
LINE
  5
26C
100
AcDbEntity
  8
IMPORT_IGES
100
AcDbLine
 62
253
  6
CONTINUOUS
 10
6.7290017003
 20
-22.3248789397
 11
6.9451773578
 21
-22.3250241101
  0
LINE
  5
26D
100
AcDbEntity
  8
IMPORT_IGES
100
AcDbLine
 62
253
  6
CONTINUOUS
 10
20.7123114621
 20
-22.3233551217
 11
21.0488646736
 21
-22.3250240589
  0
LINE
  5
26E
100
AcDbEntity
  8
IMPORT_IGES
100
AcDbLine
 62
253
  6
CONTINUOUS
 10
6.6076832875
 20
-22.3241156712
 11
6.7290017003
 21
-22.3248789397
  0
LINE
  5
26F
100
AcDbEntity
  8
IMPORT_IGES
100
AcDbLine
 62
253
  6
CONTINUOUS
 10
20.3453913554
 20
-22.3196827813
 11
20.7123114621
 21
-22.3233551217
  0
LWPOLYLINE
  5
270
100
AcDbEntity
  8
IMPORT_IGES
100
AcDbPolyline
 62
253
  6
CONTINUOUS
 90
16
 70
0
 10
22.9926989746
 20
-22.1670986972
 10
22.9089402615
 20
-22.160497745
 10
22.8251798327
 20
-22.1596864514
 10
22.7423691913
 20
-22.164768778
 10
22.6617590443
 20
-22.1756607263
 10
22.5839224495
 20
-22.1922057714
 10
22.5088094349
 20
-22.2144063699
 10
22.4372608265
 20
-22.2420470247
 10
22.3700404363
 20
-22.2747925986
 10
22.3071099927
 20
-22.3126652552
 10
22.2492326511
 20
-22.3552507281
 10
22.1969941093
 20
-22.4020700861
 10
22.1503368784
 20
-22.4531966954
 10
22.1097134511
 20
-22.50828909
 10
22.0757821577
 20
-22.5664664834
 10
22.0488167304
 20
-22.6269908258
  0
LWPOLYLINE
  5
271
100
AcDbEntity
  8
IMPORT_IGES
100
AcDbPolyline
 62
253
  6
CONTINUOUS
 90
10
 70
0
 10
22.073513939
 20
-22.3161932055
 10
22.0757607975
 20
-22.3514631346
 10
22.0767461763
 20
-22.3866217522
 10
22.07647786
 20
-22.4216257221
 10
22.0749716489
 20
-22.4563951493
 10
22.072234357
 20
-22.4909251908
 10
22.0682508855
 20
-22.5252838029
 10
22.0630130067
 20
-22.5594632987
 10
22.0565322821
 20
-22.593382707
 10
22.0488140778
 20
-22.6269977799
  0
LINE
  5
272
100
AcDbEntity
  8
IMPORT_IGES
100
AcDbLine
 62
253
  6
CONTINUOUS
 10
21.9767556667
 20
-19.1619602165
 11
22.0735139089
 21
-22.3161932055
  0
LINE
  5
273
100
AcDbEntity
  8
IMPORT_IGES
100
AcDbLine
 62
253
  6
CONTINUOUS
 10
21.93824209
 20
-17.7706306201
 11
21.9767556667
 21
-19.1619602165
  0
LINE
  5
274
100
AcDbEntity
  8
IMPORT_IGES
100
AcDbLine
 62
253
  6
CONTINUOUS
 10
21.9015151121
 20
-16.3076342238
 11
21.93824209
 21
-17.7706306201
  0
LINE
  5
275
100
AcDbEntity
  8
IMPORT_IGES
100
AcDbLine
 62
253
  6
CONTINUOUS
 10
21.867729517
 20
-14.7739164423
 11
21.9015151121
 21
-16.3076342238
  0
LINE
  5
276
100
AcDbEntity
  8
IMPORT_IGES
100
AcDbLine
 62
253
  6
CONTINUOUS
 10
21.8382644586
 20
-13.1922596216
 11
21.867729517
 21
-14.7739164423
  0
LINE
  5
277
100
AcDbEntity
  8
IMPORT_IGES
100
AcDbLine
 62
253
  6
CONTINUOUS
 10
21.8142036824
 20
-11.5685697428
 11
21.8382644586
 21
-13.1922596216
  0
LINE
  5
278
100
AcDbEntity
  8
IMPORT_IGES
100
AcDbLine
 62
253
  6
CONTINUOUS
 10
20.3453868021
 20
-23.298740799
 11
20.3453868021
 21
-22.3196839485
  0
LINE
  5
279
100
AcDbEntity
  8
IMPORT_IGES
100
AcDbLine
 62
253
  6
CONTINUOUS
 10
20.6919662108
 20
-0.6851476352
 11
20.3453858886
 21
-22.3196839485
  0
LINE
  5
27A
100
AcDbEntity
  8
IMPORT_IGES
100
AcDbLine
 62
253
  6
CONTINUOUS
 10
21.6419883674
 20
-22.3162016295
 11
21.8141316612
 21
-11.5701860185
  0
LWPOLYLINE
  5
27B
100
AcDbEntity
  8
IMPORT_IGES
100
AcDbPolyline
 62
253
  6
CONTINUOUS
 90
12
 70
0
 10
20.6919609545
 20
-0.6851349587
 10
20.9952745354
 20
-2.8223605588
 10
21.1366453883
 20
-3.8427858854
 10
21.2674695837
 20
-4.8309446151
 10
21.3865107817
 20
-5.7869956023
 10
21.4936793267
 20
-6.7113729478
 10
21.5874289288
 20
-7.6051104542
 10
21.6661941362
 20
-8.4672013461
 10
21.7294393569
 20
-9.2949986488
 10
21.7759890382
 20
-10.0876306955
 10
21.8044954962
 20
-10.8460147394
 10
21.8141316612
 20
-11.5701860185
  0
LINE
  5
27C
100
AcDbEntity
  8
IMPORT_IGES
100
AcDbLine
 62
253
  6
CONTINUOUS
 10
23.0725101589
 20
-21.566960035
 11
23.0147568569
 21
-19.7984271337
  0
LINE
  5
27D
100
AcDbEntity
  8
IMPORT_IGES
100
AcDbLine
 62
253
  6
CONTINUOUS
 10
23.0147568569
 20
-19.7984271337
 11
22.9752072098
 21
-18.5233753904
  0
LINE
  5
27E
100
AcDbEntity
  8
IMPORT_IGES
100
AcDbLine
 62
253
  6
CONTINUOUS
 10
22.9752072098
 20
-18.5233753904
 11
22.9364940023
 21
-17.177185317
  0
LINE
  5
27F
100
AcDbEntity
  8
IMPORT_IGES
100
AcDbLine
 62
253
  6
CONTINUOUS
 10
22.9364940023
 20
-17.177185317
 11
22.8995291193
 21
-15.7650621003
  0
LINE
  5
280
100
AcDbEntity
  8
IMPORT_IGES
100
AcDbLine
 62
253
  6
CONTINUOUS
 10
22.8995291193
 20
-15.7650621003
 11
22.8656454548
 21
-14.2924410278
  0
LWPOLYLINE
  5
281
100
AcDbEntity
  8
IMPORT_IGES
100
AcDbPolyline
 62
253
  6
CONTINUOUS
 90
24
 70
0
 10
22.8115729988
 20
-11.1893967402
 10
22.8061114258
 20
-10.9341214188
 10
22.7950860047
 20
-10.6677582049
 10
22.7784967353
 20
-10.3902075966
 10
22.7565010015
 20
-10.1012779434
 10
22.7289414194
 20
-9.8009677743
 10
22.6953458382
 20
-9.4894705585
 10
22.6556416163
 20
-9.1667059795
 10
22.6099013952
 20
-8.8325918304
 10
22.5578709481
 20
-8.4873331491
 10
22.4994619551
 20
-8.1308266449
 10
22.434762736
 20
-7.7630551567
 10
22.3637840243
 20
-7.3843717152
 10
22.2863646931
 20
-6.9944504374
 10
22.2026658692
 20
-6.5935528573
 10
22.1131816665
 20
-6.1829454665
 10
22.0177639147
 20
-5.7625082923
 10
21.9165607841
 20
-5.3323843523
 10
21.810510899
 20
-4.894279277
 10
21.6994797482
 20
-4.4481341902
 10
21.5836018428
 20
-3.9941227387
 10
21.4642193408
 20
-3.5343443168
 10
21.3412260047
 20
-3.0688118835
 10
20.9567546507
 20
-1.6468755429
  0
LINE
  5
282
100
AcDbEntity
  8
IMPORT_IGES
100
AcDbLine
 62
253
  6
CONTINUOUS
 10
22.8656454548
 20
-14.2924410278
 11
22.8361900066
 21
-12.7652252257
  0
LINE
  5
283
100
AcDbEntity
  8
IMPORT_IGES
100
AcDbLine
 62
253
  6
CONTINUOUS
 10
22.8361900066
 20
-12.7652252257
 11
22.8115729988
 21
-11.1893967402
  0
LWPOLYLINE
  5
284
100
AcDbEntity
  8
IMPORT_IGES
100
AcDbPolyline
 62
253
  6
CONTINUOUS
 90
4
 70
0
 10
25.1260190328
 20
21.9699476714
 10
25.1296031109
 20
22.5375711902
 10
25.130010366
 20
22.572218823
 10
25.1303894661
 20
22.5946169016
  0
LWPOLYLINE
  5
285
100
AcDbEntity
  8
IMPORT_IGES
100
AcDbPolyline
 62
253
  6
CONTINUOUS
 90
19
 70
0
 10
21.641998084
 20
-22.3161960062
 10
21.6367135096
 20
-22.4030652536
 10
21.6240938217
 20
-22.4882043873
 10
21.604475869
 20
-22.5710187651
 10
21.578405531
 20
-22.6505181345
 10
21.5462030366
 20
-22.7266888846
 10
21.5075930025
 20
-22.8003406291
 10
21.4625059358
 20
-22.8712433962
 10
21.4113340319
 20
-22.9384627723
 10
21.354203498
 20
-23.001592145
 10
21.2912673616
 20
-23.0601705905
 10
21.2229857245
 20
-23.1134999938
 10
21.1500420256
 20
-23.160876064
 10
21.0730875361
 20
-23.2017902768
 10
20.9925318821
 20
-23.2359436087
 10
20.9087938279
 20
-23.2630325079
 10
20.8224260858
 20
-23.2827236478
 10
20.7341313971
 20
-23.294704989
 10
20.6445950294
 20
-23.298740998
  0
LINE
  5
286
100
AcDbEntity
  8
IMPORT_IGES
100
AcDbLine
 62
7
  6
CONTINUOUS
 10
31.2285597139
 20
22.9512925705
 11
31.2170662237
 21
22.9026441465
  0
LWPOLYLINE
  5
287
100
AcDbEntity
  8
IMPORT_IGES
100
AcDbPolyline
 62
253
  6
CONTINUOUS
 90
19
 70
0
 10
51.3521872573
 20
2.4126740843
 10
51.2637824141
 20
2.3854709066
 10
51.1780196927
 20
2.3520867301
 10
51.0948990931
 20
2.3125196425
 10
51.013883373
 20
2.266392424
 10
50.9355097746
 20
2.2140774912
 10
50.8613900248
 20
2.1566975177
 10
50.7917246994
 20
2.0943775735
 10
50.7263132226
 20
2.0269879394
 10
50.6661655938
 20
1.9552699271
 10
50.6113976005
 20
1.8790288921
 10
50.5618934551
 20
1.7984554097
 10
50.5183157952
 20
1.7148698804
 10
50.480655132
 20
1.6282087347
 10
50.4489209541
 20
1.53853355
 10
50.4238043655
 20
1.4473542654
 10
50.4055357339
 20
1.3551746951
 10
50.3938846916
 20
1.2614915625
 10
50.3888512385
 20
1.1663051672
  0
LINE
  5
288
100
AcDbEntity
  8
IMPORT_IGES
100
AcDbLine
 62
253
  6
CONTINUOUS
 10
20.9567546507
 20
-1.6468755429
 11
20.691959947
 21
-0.6851476352
  0
LINE
  5
289
100
AcDbEntity
  8
IMPORT_IGES
100
AcDbLine
 62
7
  6
CONTINUOUS
 10
27.5232150646
 20
22.965225999
 11
27.5232150646
 21
22.951259201
  0
LWPOLYLINE
  5
28A
100
AcDbEntity
  8
IMPORT_IGES
100
AcDbPolyline
 62
253
  6
CONTINUOUS
 90
10
 70
0
 10
22.9926992856
 20
-22.1670976618
 10
23.0113879849
 20
-22.1022567323
 10
23.0276246087
 20
-22.0369313592
 10
23.0414091571
 20
-21.9711199806
 10
23.0527458044
 20
-21.9047848492
 10
23.0616303763
 20
-21.8379602864
 10
23.0680503499
 20
-21.7707543856
 10
23.0720015511
 20
-21.7032038744
 10
23.0734881541
 20
-21.6352724118
 10
23.0725101589
 20
-21.566960035
  0
LINE
  5
28B
100
AcDbEntity
  8
IMPORT_IGES
100
AcDbLine
 62
7
  6
CONTINUOUS
 10
27.8798620646
 20
22.965225999
 11
27.8798620646
 21
22.951259201
  0
LINE
  5
28C
100
AcDbEntity
  8
IMPORT_IGES
100
AcDbLine
 62
7
  6
CONTINUOUS
 10
29.2688550646
 20
22.965225999
 11
29.2688550646
 21
22.951259201
  0
LINE
  5
28D
100
AcDbEntity
  8
IMPORT_IGES
100
AcDbLine
 62
7
  6
CONTINUOUS
 10
29.6942540646
 20
22.965225999
 11
29.6942540646
 21
22.951259201
  0
LWPOLYLINE
  5
28E
100
AcDbEntity
  8
IMPORT_IGES
100
AcDbPolyline
 62
253
  6
CONTINUOUS
 90
10
 70
0
 10
21.8448160484
 20
-23.0435501199
 10
21.8504019179
 20
-23.0323015203
 10
21.863239525
 20
-23.0131969727
 10
21.8826580015
 20
-22.9855930812
 10
21.9084583011
 20
-22.9475029865
 10
21.9383783332
 20
-22.8989533746
 10
21.968813833
 20
-22.8426366012
 10
21.9979923025
 20
-22.7793699163
 10
22.0251951524
 20
-22.7075665384
 10
22.0488140778
 20
-22.6269977799
  0
LWPOLYLINE
  5
28F
100
AcDbEntity
  8
IMPORT_IGES
100
AcDbPolyline
 62
253
  6
CONTINUOUS
 90
19
 70
0
 10
22.8115733091
 20
-11.1894506625
 10
22.7288305381
 20
-11.1916785359
 10
22.6460074173
 20
-11.196665229
 10
22.5640329274
 20
-11.2044027811
 10
22.4841446915
 20
-11.214771113
 10
22.4069019046
 20
-11.2276578367
 10
22.3322040861
 20
-11.2430734887
 10
22.2608171015
 20
-11.2608764852
 10
22.1935098003
 20
-11.2808572171
 10
22.1302489709
 20
-11.3030229235
 10
22.071713722
 20
-11.3271547521
 10
22.0184852857
 20
-11.352992946
 10
21.9705430643
 20
-11.3805495472
 10
21.9284466741
 20
-11.4095301688
 10
21.892588033
 20
-11.4396365903
 10
21.8629390451
 20
-11.4709042331
 10
21.8398059936
 20
-11.5031152255
 10
21.823542366
 20
-11.5357860827
 10
21.8142073231
 20
-11.5685495385
  0
LINE
  5
290
100
AcDbEntity
  8
IMPORT_IGES
100
AcDbLine
 62
7
  6
CONTINUOUS
 10
32.8469883862
 20
22.7308154191
 11
32.8470199016
 21
22.6806464646
  0
LINE
  5
291
100
AcDbEntity
  8
IMPORT_IGES
100
AcDbLine
 62
7
  6
CONTINUOUS
 10
31.0488720646
 20
22.965225999
 11
31.0488720646
 21
22.951259201
  0
LINE
  5
292
100
AcDbEntity
  8
IMPORT_IGES
100
AcDbLine
 62
7
  6
CONTINUOUS
 10
31.1101346632
 20
22.9645317846
 11
31.1101346632
 21
22.914513126
  0
LINE
  5
293
100
AcDbEntity
  8
IMPORT_IGES
100
AcDbLine
 62
7
  6
CONTINUOUS
 10
31.288786297
 20
22.9436918142
 11
31.288786297
 21
22.8936634631
  0
LINE
  5
294
100
AcDbEntity
  8
IMPORT_IGES
100
AcDbLine
 62
7
  6
CONTINUOUS
 10
31.3252029906
 20
22.9388736653
 11
31.3252029906
 21
22.8888424531
  0
LINE
  5
295
100
AcDbEntity
  8
IMPORT_IGES
100
AcDbLine
 62
7
  6
CONTINUOUS
 10
31.3436996334
 20
22.8139921645
 11
31.3436996334
 21
22.7638984384
  0
LINE
  5
296
100
AcDbEntity
  8
IMPORT_IGES
100
AcDbLine
 62
7
  6
CONTINUOUS
 10
31.3409218031
 20
22.8176562935
 11
31.3409321146
 21
22.7674528256
  0
LINE
  5
297
100
AcDbEntity
  8
IMPORT_IGES
100
AcDbLine
 62
7
  6
CONTINUOUS
 10
31.3561343958
 20
22.8063664059
 11
31.3561343958
 21
22.7562687692
  0
LINE
  5
298
100
AcDbEntity
  8
IMPORT_IGES
100
AcDbLine
 62
7
  6
CONTINUOUS
 10
31.3673794858
 20
22.8022951309
 11
31.3673794858
 21
22.7521954505
  0
LINE
  5
299
100
AcDbEntity
  8
IMPORT_IGES
100
AcDbLine
 62
7
  6
CONTINUOUS
 10
31.3824843204
 20
22.7980148938
 11
31.3824843204
 21
22.7479130647
  0
LINE
  5
29A
100
AcDbEntity
  8
IMPORT_IGES
100
AcDbLine
 62
7
  6
CONTINUOUS
 10
31.4013901176
 20
22.7935530661
 11
31.4013901176
 21
22.7434489968
  0
LINE
  5
29B
100
AcDbEntity
  8
IMPORT_IGES
100
AcDbLine
 62
7
  6
CONTINUOUS
 10
31.4252680036
 20
22.7890076356
 11
31.4252680036
 21
22.738901284
  0
LINE
  5
29C
100
AcDbEntity
  8
IMPORT_IGES
100
AcDbLine
 62
7
  6
CONTINUOUS
 10
31.4522510072
 20
22.9209182239
 11
31.4522510072
 21
22.8708781807
  0
LINE
  5
29D
100
AcDbEntity
  8
IMPORT_IGES
100
AcDbLine
 62
7
  6
CONTINUOUS
 10
31.4544476481
 20
22.7843624325
 11
31.4544476481
 21
22.7342537483
  0
LINE
  5
29E
100
AcDbEntity
  8
IMPORT_IGES
100
AcDbLine
 62
7
  6
CONTINUOUS
 10
31.4666446206
 20
22.9188195484
 11
31.4666446206
 21
22.8687782945
  0
LINE
  5
29F
100
AcDbEntity
  8
IMPORT_IGES
100
AcDbLine
 62
7
  6
CONTINUOUS
 10
31.4810702237
 20
22.9167632892
 11
31.4810702237
 21
22.8667210056
  0
LINE
  5
2A0
100
AcDbEntity
  8
IMPORT_IGES
100
AcDbLine
 62
7
  6
CONTINUOUS
 10
31.4885993814
 20
22.7796310254
 11
31.4885993814
 21
22.7295199651
  0
LINE
  5
2A1
100
AcDbEntity
  8
IMPORT_IGES
100
AcDbLine
 62
7
  6
CONTINUOUS
 10
31.4953803772
 20
22.9147562543
 11
31.4953803772
 21
22.8647129654
  0
LINE
  5
2A2
100
AcDbEntity
  8
IMPORT_IGES
100
AcDbLine
 62
7
  6
CONTINUOUS
 10
31.5097263638
 20
22.912796151
 11
31.5097263638
 21
22.8627518803
  0
LINE
  5
2A3
100
AcDbEntity
  8
IMPORT_IGES
100
AcDbLine
 62
7
  6
CONTINUOUS
 10
31.5245620311
 20
22.9108704726
 11
31.5245620311
 21
22.8608252373
  0
LINE
  5
2A4
100
AcDbEntity
  8
IMPORT_IGES
100
AcDbLine
 62
7
  6
CONTINUOUS
 10
31.5279053207
 20
22.7749640667
 11
31.5279053207
 21
22.7248506625
  0
LINE
  5
2A5
100
AcDbEntity
  8
IMPORT_IGES
100
AcDbLine
 62
7
  6
CONTINUOUS
 10
31.5399209649
 20
22.9089799242
 11
31.5399209649
 21
22.858933742
  0
LINE
  5
2A6
100
AcDbEntity
  8
IMPORT_IGES
100
AcDbLine
 62
7
  6
CONTINUOUS
 10
31.5557695794
 20
22.907127347
 11
31.5557695794
 21
22.8629517361
  0
LINE
  5
2A7
100
AcDbEntity
  8
IMPORT_IGES
100
AcDbLine
 62
7
  6
CONTINUOUS
 10
31.5724609653
 20
22.9053025167
 11
31.5724609653
 21
22.8615861044
  0
LINE
  5
2A8
100
AcDbEntity
  8
IMPORT_IGES
100
AcDbLine
 62
7
  6
CONTINUOUS
 10
31.572548998
 20
22.7703819318
 11
31.572548998
 21
22.720266226
  0
LINE
  5
2A9
100
AcDbEntity
  8
IMPORT_IGES
100
AcDbLine
 62
7
  6
CONTINUOUS
 10
31.5899682014
 20
22.9035050491
 11
31.5899682014
 21
22.8666558364
  0
LINE
  5
2AA
100
AcDbEntity
  8
IMPORT_IGES
100
AcDbLine
 62
7
  6
CONTINUOUS
 10
31.608318209
 20
22.9017379091
 11
31.608318209
 21
22.8688241633
  0
LINE
  5
2AB
100
AcDbEntity
  8
IMPORT_IGES
100
AcDbLine
 62
7
  6
CONTINUOUS
 10
31.6223468813
 20
22.7658716584
 11
31.6223468813
 21
22.7157536869
  0
LINE
  5
2AC
100
AcDbEntity
  8
IMPORT_IGES
100
AcDbLine
 62
7
  6
CONTINUOUS
 10
31.6279448419
 20
22.8999953081
 11
31.6279448419
 21
22.8698288012
  0
LINE
  5
2AD
100
AcDbEntity
  8
IMPORT_IGES
100
AcDbLine
 62
7
  6
CONTINUOUS
 10
31.6488429975
 20
22.8982709146
 11
31.6488429975
 21
22.8707840342
  0
LINE
  5
2AE
100
AcDbEntity
  8
IMPORT_IGES
100
AcDbLine
 62
7
  6
CONTINUOUS
 10
31.6710177785
 20
22.8965730071
 11
31.6710177785
 21
22.8677691499
  0
LINE
  5
2AF
100
AcDbEntity
  8
IMPORT_IGES
100
AcDbLine
 62
7
  6
CONTINUOUS
 10
31.676930492
 20
22.7615415526
 11
31.676930492
 21
22.7114214057
  0
LINE
  5
2B0
100
AcDbEntity
  8
IMPORT_IGES
100
AcDbLine
 62
7
  6
CONTINUOUS
 10
31.6949183472
 20
22.8949178583
 11
31.6949183472
 21
22.8688241633
  0
LINE
  5
2B1
100
AcDbEntity
  8
IMPORT_IGES
100
AcDbLine
 62
7
  6
CONTINUOUS
 10
31.7206434687
 20
22.8933026162
 11
31.7206434687
 21
22.8707840342
  0
LINE
  5
2B2
100
AcDbEntity
  8
IMPORT_IGES
100
AcDbLine
 62
7
  6
CONTINUOUS
 10
31.7367242237
 20
22.7573820509
 11
31.7367242237
 21
22.7072598142
  0
LINE
  5
2B3
100
AcDbEntity
  8
IMPORT_IGES
100
AcDbLine
 62
7
  6
CONTINUOUS
 10
31.7480943778
 20
22.8917326805
 11
31.7480943778
 21
22.8716899207
  0
LINE
  5
2B4
100
AcDbEntity
  8
IMPORT_IGES
100
AcDbLine
 62
7
  6
CONTINUOUS
 10
31.7774239425
 20
22.8902376081
 11
31.7774239425
 21
22.8733739219
  0
LINE
  5
2B5
100
AcDbEntity
  8
IMPORT_IGES
100
AcDbLine
 62
7
  6
CONTINUOUS
 10
31.8013036828
 20
22.7534143166
 11
31.8013036828
 21
22.7032900862
  0
LINE
  5
2B6
100
AcDbEntity
  8
IMPORT_IGES
100
AcDbLine
 62
7
  6
CONTINUOUS
 10
31.8087467601
 20
22.8888186961
 11
31.8087467601
 21
22.8748934545
  0
LINE
  5
2B7
100
AcDbEntity
  8
IMPORT_IGES
100
AcDbLine
 62
7
  6
CONTINUOUS
 10
31.8419482333
 20
22.8874780332
 11
31.8419482333
 21
22.8762622723
  0
LINE
  5
2B8
100
AcDbEntity
  8
IMPORT_IGES
100
AcDbLine
 62
7
  6
CONTINUOUS
 10
31.8690272108
 20
22.7497989468
 11
31.8690272108
 21
22.6996728996
  0
LINE
  5
2B9
100
AcDbEntity
  8
IMPORT_IGES
100
AcDbLine
 62
7
  6
CONTINUOUS
 10
31.8768374374
 20
22.886247348
 11
31.8768374374
 21
22.8774869724
  0
LINE
  5
2BA
100
AcDbEntity
  8
IMPORT_IGES
100
AcDbLine
 62
7
  6
CONTINUOUS
 10
31.913350731
 20
22.8851386458
 11
31.913350731
 21
22.8785756704
  0
LINE
  5
2BB
100
AcDbEntity
  8
IMPORT_IGES
100
AcDbLine
 62
7
  6
CONTINUOUS
 10
31.9393475881
 20
22.7465962761
 11
31.9393475881
 21
22.6964686195
  0
LINE
  5
2BC
100
AcDbEntity
  8
IMPORT_IGES
100
AcDbLine
 62
7
  6
CONTINUOUS
 10
31.9914405111
 20
22.8819389341
 11
31.9914405111
 21
22.8832637875
  0
LINE
  5
2BD
100
AcDbEntity
  8
IMPORT_IGES
100
AcDbLine
 62
7
  6
CONTINUOUS
 10
32.0128120343
 20
22.7437622836
 11
32.0128120343
 21
22.6936332027
  0
LINE
  5
2BE
100
AcDbEntity
  8
IMPORT_IGES
100
AcDbLine
 62
7
  6
CONTINUOUS
 10
32.0894205493
 20
22.7413033972
 11
32.0894205493
 21
22.6911730805
  0
LINE
  5
2BF
100
AcDbEntity
  8
IMPORT_IGES
100
AcDbLine
 62
7
  6
CONTINUOUS
 10
32.1810126426
 20
22.7391312001
 11
32.1810126426
 21
22.6889997915
  0
LINE
  5
2C0
100
AcDbEntity
  8
IMPORT_IGES
100
AcDbLine
 62
7
  6
CONTINUOUS
 10
32.2482681065
 20
22.8310816177
 11
32.2482681065
 21
22.8225616047
  0
LINE
  5
2C1
100
AcDbEntity
  8
IMPORT_IGES
100
AcDbLine
 62
7
  6
CONTINUOUS
 10
32.2558015676
 20
22.8338714205
 11
32.2558015676
 21
22.8140103897
  0
LINE
  5
2C2
100
AcDbEntity
  8
IMPORT_IGES
100
AcDbLine
 62
7
  6
CONTINUOUS
 10
32.2660107774
 20
22.8366176073
 11
32.2660107774
 21
22.8140103897
  0
LINE
  5
2C3
100
AcDbEntity
  8
IMPORT_IGES
100
AcDbLine
 62
7
  6
CONTINUOUS
 10
32.2736155277
 20
22.7372111896
 11
32.2736155277
 21
22.6870788159
  0
LINE
  5
2C4
100
AcDbEntity
  8
IMPORT_IGES
100
AcDbLine
 62
7
  6
CONTINUOUS
 10
32.2797122902
 20
22.8392788988
 11
32.2797122902
 21
22.8078714724
  0
LINE
  5
2C5
100
AcDbEntity
  8
IMPORT_IGES
100
AcDbLine
 62
7
  6
CONTINUOUS
 10
32.2972187131
 20
22.8418647968
 11
32.2972187131
 21
22.8078714724
  0
LINE
  5
2C6
100
AcDbEntity
  8
IMPORT_IGES
100
AcDbLine
 62
7
  6
CONTINUOUS
 10
32.3182174391
 20
22.8443686881
 11
32.3182174391
 21
22.8058956608
  0
LINE
  5
2C7
100
AcDbEntity
  8
IMPORT_IGES
100
AcDbLine
 62
7
  6
CONTINUOUS
 10
32.3425872011
 20
22.8467276525
 11
32.3425872011
 21
22.8021209619
  0
LINE
  5
2C8
100
AcDbEntity
  8
IMPORT_IGES
100
AcDbLine
 62
7
  6
CONTINUOUS
 10
32.3672292049
 20
22.7355462154
 11
32.3672292049
 21
22.6854130049
  0
LINE
  5
2C9
100
AcDbEntity
  8
IMPORT_IGES
100
AcDbLine
 62
7
  6
CONTINUOUS
 10
32.3704709308
 20
22.8489394596
 11
32.3704709308
 21
22.7988631835
  0
LINE
  5
2CA
100
AcDbEntity
  8
IMPORT_IGES
100
AcDbLine
 62
7
  6
CONTINUOUS
 10
32.4017256967
 20
22.8510119613
 11
32.4017256967
 21
22.8009367247
  0
LINE
  5
2CB
100
AcDbEntity
  8
IMPORT_IGES
100
AcDbLine
 62
7
  6
CONTINUOUS
 10
32.4358014371
 20
22.8528996654
 11
32.4358014371
 21
22.8028253754
  0
LINE
  5
2CC
100
AcDbEntity
  8
IMPORT_IGES
100
AcDbLine
 62
7
  6
CONTINUOUS
 10
32.4621035291
 20
22.7341611108
 11
32.4621035291
 21
22.684027204
  0
LINE
  5
2CD
100
AcDbEntity
  8
IMPORT_IGES
100
AcDbLine
 62
7
  6
CONTINUOUS
 10
32.4728214173
 20
22.8545908776
 11
32.4728214173
 21
22.8045174356
  0
LINE
  5
2CE
100
AcDbEntity
  8
IMPORT_IGES
100
AcDbLine
 62
7
  6
CONTINUOUS
 10
32.512662372
 20
22.8561036413
 11
32.512662372
 21
22.8060309579
  0
LINE
  5
2CF
100
AcDbEntity
  8
IMPORT_IGES
100
AcDbLine
 62
7
  6
CONTINUOUS
 10
32.5544044442
 20
22.8574376673
 11
32.5544044442
 21
22.8073656529
  0
LINE
  5
2D0
100
AcDbEntity
  8
IMPORT_IGES
100
AcDbLine
 62
7
  6
CONTINUOUS
 10
32.5579886454
 20
22.7330356762
 11
32.5579886454
 21
22.6829012037
  0
LINE
  5
2D1
100
AcDbEntity
  8
IMPORT_IGES
100
AcDbLine
 62
7
  6
CONTINUOUS
 10
32.5980441864
 20
22.8585849343
 11
32.5980441864
 21
22.8085134952
  0
LINE
  5
2D2
100
AcDbEntity
  8
IMPORT_IGES
100
AcDbLine
 62
7
  6
CONTINUOUS
 10
32.643585046
 20
22.8595579728
 11
32.643585046
 21
22.8094870216
  0
LINE
  5
2D3
100
AcDbEntity
  8
IMPORT_IGES
100
AcDbLine
 62
7
  6
CONTINUOUS
 10
32.6541349879
 20
22.7321042052
 11
32.6541349879
 21
22.6819692644
  0
LINE
  5
2D4
100
AcDbEntity
  8
IMPORT_IGES
100
AcDbLine
 62
7
  6
CONTINUOUS
 10
32.6901175081
 20
22.8603866191
 11
32.6901175081
 21
22.8103160835
  0
LINE
  5
2D5
100
AcDbEntity
  8
IMPORT_IGES
100
AcDbLine
 62
7
  6
CONTINUOUS
 10
32.7373981277
 20
22.8610721262
 11
32.7373981277
 21
22.8110019342
  0
LINE
  5
2D6
100
AcDbEntity
  8
IMPORT_IGES
100
AcDbLine
 62
7
  6
CONTINUOUS
 10
32.7504310739
 20
22.731361925
 11
32.7504310739
 21
22.681226611
  0
LINE
  5
2D7
100
AcDbEntity
  8
IMPORT_IGES
100
AcDbLine
 62
7
  6
CONTINUOUS
 10
32.7856703498
 20
22.8616155137
 11
32.7856703498
 21
22.8115455942
  0
LINE
  5
2D8
100
AcDbEntity
  8
IMPORT_IGES
100
AcDbLine
 62
7
  6
CONTINUOUS
 10
32.8347549947
 20
22.8620454955
 11
32.8347549947
 21
22.8119757916
  0
LINE
  5
2D9
100
AcDbEntity
  8
IMPORT_IGES
100
AcDbLine
 62
7
  6
CONTINUOUS
 10
32.8845923359
 20
22.8623718787
 11
32.8845923359
 21
22.8123023384
  0
LINE
  5
2DA
100
AcDbEntity
  8
IMPORT_IGES
100
AcDbLine
 62
7
  6
CONTINUOUS
 10
32.9352420998
 20
22.862585746
 11
32.9352420998
 21
22.8125163129
  0
LINE
  5
2DB
100
AcDbEntity
  8
IMPORT_IGES
100
AcDbLine
 62
7
  6
CONTINUOUS
 10
32.9433960727
 20
22.7304150944
 11
32.9433960727
 21
22.6802695181
  0
LINE
  5
2DC
100
AcDbEntity
  8
IMPORT_IGES
100
AcDbLine
 62
7
  6
CONTINUOUS
 10
32.9867042865
 20
22.8626873564
 11
32.9867042865
 21
22.8126179743
  0
LINE
  5
2DD
100
AcDbEntity
  8
IMPORT_IGES
100
AcDbLine
 62
7
  6
CONTINUOUS
 10
33.0394573633
 20
22.7301556265
 11
33.0394573633
 21
22.6800438875
  0
LINE
  5
2DE
100
AcDbEntity
  8
IMPORT_IGES
100
AcDbLine
 62
7
  6
CONTINUOUS
 10
33.1353781463
 20
22.7300431865
 11
33.1353781463
 21
22.6799261953
  0
LINE
  5
2DF
100
AcDbEntity
  8
IMPORT_IGES
100
AcDbLine
 62
7
  6
CONTINUOUS
 10
33.2312639499
 20
22.7300433366
 11
33.2312639499
 21
22.6799261107
  0
LINE
  5
2E0
100
AcDbEntity
  8
IMPORT_IGES
100
AcDbLine
 62
7
  6
CONTINUOUS
 10
33.3268702974
 20
22.730154403
 11
33.3268702974
 21
22.6800372718
  0
LINE
  5
2E1
100
AcDbEntity
  8
IMPORT_IGES
100
AcDbLine
 62
7
  6
CONTINUOUS
 10
32.9745015645
 20
22.9638298446
 11
32.9744855617
 21
22.951259201
  0
LINE
  5
2E2
100
AcDbEntity
  8
IMPORT_IGES
100
AcDbLine
 62
7
  6
CONTINUOUS
 10
31.3486902684
 20
22.810265134
 11
31.348489751
 21
22.7603187036
  0
LINE
  5
2E3
100
AcDbEntity
  8
IMPORT_IGES
100
AcDbLine
 62
7
  6
CONTINUOUS
 10
31.3407052485
 20
22.8211253511
 11
31.3405004541
 21
22.7761716128
  0
LWPOLYLINE
  5
2E4
100
AcDbEntity
  8
IMPORT_IGES
100
AcDbPolyline
 62
253
  6
CONTINUOUS
 90
4
 70
0
 10
21.7882807164
 20
-23.140358737
 10
21.8082902543
 20
-23.1133325548
 10
21.827424369
 20
-23.0812490035
 10
21.8448160484
 20
-23.0435501199
  0
LINE
  5
2E5
100
AcDbEntity
  8
IMPORT_IGES
100
AcDbLine
 62
7
  6
CONTINUOUS
 10
32.2409001691
 20
22.8225616047
 11
32.240678545
 21
22.8254702479
  0
LINE
  5
2E6
100
AcDbEntity
  8
IMPORT_IGES
100
AcDbLine
 62
7
  6
CONTINUOUS
 10
33.4224425296
 20
22.7303786719
 11
33.4224425296
 21
22.6802584872
  0
LINE
  5
2E7
100
AcDbEntity
  8
IMPORT_IGES
100
AcDbLine
 62
7
  6
CONTINUOUS
 10
33.5035474967
 20
22.9645315439
 11
33.5035474967
 21
22.8995285793
  0
LINE
  5
2E8
100
AcDbEntity
  8
IMPORT_IGES
100
AcDbLine
 62
7
  6
CONTINUOUS
 10
33.5188397065
 20
22.7306960574
 11
33.5188397065
 21
22.6805748023
  0
LINE
  5
2E9
100
AcDbEntity
  8
IMPORT_IGES
100
AcDbLine
 62
7
  6
CONTINUOUS
 10
33.5353824171
 20
22.8626873564
 11
33.5353824171
 21
22.7881579883
  0
LINE
  5
2EA
100
AcDbEntity
  8
IMPORT_IGES
100
AcDbLine
 62
7
  6
CONTINUOUS
 10
33.8138339088
 20
22.7321846067
 11
33.8138339088
 21
22.6820497063
  0
LINE
  5
2EB
100
AcDbEntity
  8
IMPORT_IGES
100
AcDbLine
 62
7
  6
CONTINUOUS
 10
33.9153644893
 20
22.7328651687
 11
33.9153644893
 21
22.6827306104
  0
LINE
  5
2EC
100
AcDbEntity
  8
IMPORT_IGES
100
AcDbLine
 62
7
  6
CONTINUOUS
 10
34.0186515305
 20
22.7336390332
 11
34.0186515305
 21
22.683504864
  0
LINE
  5
2ED
100
AcDbEntity
  8
IMPORT_IGES
100
AcDbLine
 62
7
  6
CONTINUOUS
 10
34.1246408043
 20
22.7345157462
 11
34.1246408043
 21
22.6843820176
  0
LINE
  5
2EE
100
AcDbEntity
  8
IMPORT_IGES
100
AcDbLine
 62
7
  6
CONTINUOUS
 10
34.2336475683
 20
22.7354981079
 11
34.2336475683
 21
22.6853648732
  0
LINE
  5
2EF
100
AcDbEntity
  8
IMPORT_IGES
100
AcDbLine
 62
7
  6
CONTINUOUS
 10
34.3453565649
 20
22.7365822212
 11
34.3453565649
 21
22.6864495314
  0
LINE
  5
2F0
100
AcDbEntity
  8
IMPORT_IGES
100
AcDbLine
 62
7
  6
CONTINUOUS
 10
34.4597677943
 20
22.6876353572
 11
34.4597677943
 21
22.9645315439
  0
LINE
  5
2F1
100
AcDbEntity
  8
IMPORT_IGES
100
AcDbLine
 62
7
  6
CONTINUOUS
 10
34.7416950646
 20
22.9645315353
 11
34.7416950646
 21
22.9145131647
  0
LINE
  5
2F2
100
AcDbEntity
  8
IMPORT_IGES
100
AcDbLine
 62
7
  6
CONTINUOUS
 10
33.6160346129
 20
22.7310990831
 11
33.6160109627
 21
22.6809377391
  0
LINE
  5
2F3
100
AcDbEntity
  8
IMPORT_IGES
100
AcDbLine
 62
7
  6
CONTINUOUS
 10
33.7140549367
 20
22.7315948586
 11
33.7140143863
 21
22.6814183409
  0
LINE
  5
2F4
100
AcDbEntity
  8
IMPORT_IGES
100
AcDbLine
 62
7
  6
CONTINUOUS
 10
11.5970520646
 20
-33.698740799
 11
11.4970520646
 21
-33.798740799
  0
LWPOLYLINE
  5
2F5
100
AcDbEntity
  8
IMPORT_IGES
100
AcDbPolyline
 62
253
  6
CONTINUOUS
 90
10
 70
0
 10
22.5502162236
 20
-22.7585607487
 10
22.61528518
 20
-22.6995471281
 10
22.6579568301
 20
-22.6595094259
 10
22.7033236645
 20
-22.6125038604
 10
22.7513561411
 20
-22.5588969346
 10
22.802083802
 20
-22.4982056215
 10
22.8519386364
 20
-22.4291848328
 10
22.8997313072
 20
-22.3510374022
 10
22.9466511514
 20
-22.2637750993
 10
22.992698169
 20
-22.1670976618
  0
LWPOLYLINE
  5
2F6
100
AcDbEntity
  8
IMPORT_IGES
100
AcDbPolyline
 62
253
  6
CONTINUOUS
 90
3
 70
0
 10
22.5117734326
 20
-22.7919275729
 10
22.5278189173
 20
-22.7782588577
 10
22.5502162236
 20
-22.7585607487
  0
LWPOLYLINE
  5
2F7
100
AcDbEntity
  8
IMPORT_IGES
100
AcDbPolyline
 62
253
  6
CONTINUOUS
 90
16
 70
0
 10
54.8634918814
 20
-4.1100415417
 10
54.894545185
 20
-4.1100599434
 10
54.9253122312
 20
-4.1096148072
 10
54.9554580569
 20
-4.1087082536
 10
54.9846696359
 20
-4.1073464373
 10
55.0126024118
 20
-4.1055420424
 10
55.0388935612
 20
-4.103316987
 10
55.0632407399
 20
-4.1006973971
 10
55.0853956289
 20
-4.0977105711
 10
55.1051163844
 20
-4.0943891133
 10
55.1221886198
 20
-4.0907690687
 10
55.1364247673
 20
-4.0868901369
 10
55.1476677616
 20
-4.0827953753
 10
55.1557960811
 20
-4.0785298162
 10
55.1607233807
 20
-4.0741398408
 10
55.162397567
 20
-4.0696733729
  0
LINE
  5
2F8
100
AcDbEntity
  8
IMPORT_IGES
100
AcDbLine
 62
7
  6
CONTINUOUS
 10
36.1529160646
 20
22.7338452015
 11
36.1529160646
 21
22.6837111359
  0
LINE
  5
2F9
100
AcDbEntity
  8
IMPORT_IGES
100
AcDbLine
 62
7
  6
CONTINUOUS
 10
37.0816820646
 20
22.7338452015
 11
37.0816820646
 21
22.6837111359
  0
LINE
  5
2FA
100
AcDbEntity
  8
IMPORT_IGES
100
AcDbLine
 62
7
  6
CONTINUOUS
 10
38.5243590646
 20
22.9645315353
 11
38.5243590646
 21
22.9145131647
  0
LINE
  5
2FB
100
AcDbEntity
  8
IMPORT_IGES
100
AcDbLine
 62
7
  6
CONTINUOUS
 10
38.6751180646
 20
22.9645315353
 11
38.6751180646
 21
22.9145131647
  0
LWPOLYLINE
  5
2FC
100
AcDbEntity
  8
IMPORT_IGES
100
AcDbPolyline
 62
253
  6
CONTINUOUS
 90
9
 70
0
 10
21.6894974125
 20
-23.2236861492
 10
21.6899686312
 20
-23.2234082748
 10
21.6940795035
 20
-23.2209347729
 10
21.7024651359
 20
-23.2157152251
 10
21.7147652262
 20
-23.2075787277
 10
21.7300514564
 20
-23.1964090134
 10
21.7479532551
 20
-23.1817125563
 10
21.7678563426
 20
-23.1630427238
 10
21.7882807164
 20
-23.140358737
  0
LINE
  5
2FD
100
AcDbEntity
  8
IMPORT_IGES
100
AcDbLine
 62
7
  6
CONTINUOUS
 10
54.343608488
 20
3.2229039288
 11
51.3521872573
 21
2.4126740843
  0
LINE
  5
2FE
100
AcDbEntity
  8
IMPORT_IGES
100
AcDbLine
 62
7
  6
CONTINUOUS
 10
51.4298345883
 20
2.0959888361
 11
54.421255486
 21
2.8975376499
  0
LWPOLYLINE
  5
2FF
100
AcDbEntity
  8
IMPORT_IGES
100
AcDbPolyline
 62
7
  6
CONTINUOUS
 90
16
 70
0
 10
53.5915027653
 20
-0.4988206802
 10
53.633811929
 20
-0.4962389011
 10
53.6746683085
 20
-0.4895593292
 10
53.7140719039
 20
-0.4787819645
 10
53.7523803794
 20
-0.4636989483
 10
53.7892360708
 20
-0.4445181393
 10
53.8235659855
 20
-0.4218631134
 10
53.8553151171
 20
-0.3956339175
 10
53.8845384721
 20
-0.3659305047
 10
53.9103280762
 20
-0.3336763107
 10
53.9325880298
 20
-0.2987973253
 10
53.9514142326
 20
-0.2613675587
 10
53.9661864101
 20
-0.2225324762
 10
53.9766978043
 20
-0.1826738997
 10
53.9831551734
 20
-0.1414100073
 10
53.9855585172
 20
-0.098740799
  0
LWPOLYLINE
  5
300
100
AcDbEntity
  8
IMPORT_IGES
100
AcDbPolyline
 62
253
  6
CONTINUOUS
 90
16
 70
0
 10
50.388851487
 20
-1.3637866862
 10
50.4203935209
 20
-1.3631620937
 10
50.4512709206
 20
-1.3624026523
 10
50.4811639152
 20
-1.3615208164
 10
50.5096040809
 20
-1.3605364221
 10
50.536521376
 20
-1.3594580367
 10
50.5621587622
 20
-1.3582764404
 10
50.5863499418
 20
-1.3569936821
 10
50.6086322513
 20
-1.3556281961
 10
50.6287287188
 20
-1.35419172
 10
50.6463701011
 20
-1.3526968996
 10
50.6612623492
 20
-1.3511609862
 10
50.6731328411
 20
-1.3496045669
 10
50.6817784155
 20
-1.3480466948
 10
50.6870452905
 20
-1.3465045441
 10
50.6888055478
 20
-1.3449969105
  0
LINE
  5
301
100
AcDbEntity
  8
IMPORT_IGES
100
AcDbLine
 62
7
  6
CONTINUOUS
 10
50.6888055458
 20
-1.298740799
 11
53.5909814425
 21
-1.298740799
  0
LINE
  5
302
100
AcDbEntity
  8
IMPORT_IGES
100
AcDbLine
 62
7
  6
CONTINUOUS
 10
31.3546058744
 20
22.9348885191
 11
31.3622621033
 21
22.8837972554
  0
LINE
  5
303
100
AcDbEntity
  8
IMPORT_IGES
100
AcDbLine
 62
7
  6
CONTINUOUS
 10
40.278746436
 20
22.9643031109
 11
40.2788526161
 21
22.951259201
  0
LINE
  5
304
100
AcDbEntity
  8
IMPORT_IGES
100
AcDbLine
 62
7
  6
CONTINUOUS
 10
39.1052170646
 20
22.7338452015
 11
39.1052170646
 21
22.6837111359
  0
LINE
  5
305
100
AcDbEntity
  8
IMPORT_IGES
100
AcDbLine
 62
7
  6
CONTINUOUS
 10
40.0551260646
 20
22.7338452015
 11
40.0551260646
 21
22.6837111359
  0
LINE
  5
306
100
AcDbEntity
  8
IMPORT_IGES
100
AcDbLine
 62
7
  6
CONTINUOUS
 10
41.0152090646
 20
22.8881298812
 11
41.0152090646
 21
22.8380732524
  0
LINE
  5
307
100
AcDbEntity
  8
IMPORT_IGES
100
AcDbLine
 62
7
  6
CONTINUOUS
 10
40.2897998812
 20
22.9619534782
 11
40.289798548
 21
22.951259201
  0
LWPOLYLINE
  5
308
100
AcDbEntity
  8
IMPORT_IGES
100
AcDbPolyline
 62
253
  6
CONTINUOUS
 90
13
 70
0
 10
22.0694734391
 20
-23.148740799
 10
22.0751380795
 20
-23.1462595807
 10
22.0906447089
 20
-23.1388160407
 10
22.1137574655
 20
-23.1264133294
 10
22.1451574614
 20
-23.1090570821
 10
22.1841635845
 20
-23.0867498182
 10
22.2264966371
 20
-23.0594909285
 10
22.2718423909
 20
-23.0272833724
 10
22.3205150742
 20
-22.9901285092
 10
22.369178174
 20
-22.9480178265
 10
22.4167195191
 20
-22.9009462883
 10
22.4642512806
 20
-22.8489163636
 10
22.5117734584
 20
-22.7919275435
  0
LINE
  5
309
100
AcDbEntity
  8
IMPORT_IGES
100
AcDbLine
 62
7
  6
CONTINUOUS
 10
21.708395741
 20
-23.2161544485
 11
21.737799592
 21
-23.2053006104
  0
LINE
  5
30A
100
AcDbEntity
  8
IMPORT_IGES
100
AcDbLine
 62
7
  6
CONTINUOUS
 10
21.737799592
 20
-23.2053006104
 11
21.7685708239
 21
-23.1950445146
  0
LWPOLYLINE
  5
30B
100
AcDbEntity
  8
IMPORT_IGES
100
AcDbPolyline
 62
7
  6
CONTINUOUS
 90
10
 70
0
 10
21.7685708239
 20
-23.1950445146
 10
21.800691627
 20
-23.1855030433
 10
21.834172208
 20
-23.1767864631
 10
21.8689357435
 20
-23.1690278629
 10
21.9048157085
 20
-23.1623680347
 10
21.9416610315
 20
-23.1569254366
 10
21.9794845669
 20
-23.1527860891
 10
22.0183470901
 20
-23.1500418204
 10
22.0581985018
 20
-23.1488028358
 10
22.0693416099
 20
-23.1487407492
  0
LINE
  5
30C
100
AcDbEntity
  8
IMPORT_IGES
100
AcDbLine
 62
253
  6
CONTINUOUS
 10
7.3013408251
 20
-0.6851286293
 11
7.0223131914
 21
-0.6889580847
  0
LINE
  5
30D
100
AcDbEntity
  8
IMPORT_IGES
100
AcDbLine
 62
253
  6
CONTINUOUS
 10
7.0223131914
 20
-0.6889580847
 11
6.7592421298
 21
-0.6913203691
  0
LINE
  5
30E
100
AcDbEntity
  8
IMPORT_IGES
100
AcDbLine
 62
253
  6
CONTINUOUS
 10
6.7592421298
 20
-0.6913203691
 11
6.5211095388
 21
-0.6921589043
  0
LINE
  5
30F
100
AcDbEntity
  8
IMPORT_IGES
100
AcDbLine
 62
253
  6
CONTINUOUS
 10
20.6919662108
 20
-0.6851476352
 11
7.3006540187
 21
-0.6851476352
  0
LINE
  5
310
100
AcDbEntity
  8
IMPORT_IGES
100
AcDbLine
 62
7
  6
CONTINUOUS
 10
53.5909996133
 20
-0.498740799
 11
50.6740340905
 21
-0.498740799
  0
LINE
  5
311
100
AcDbEntity
  8
IMPORT_IGES
100
AcDbLine
 62
7
  6
CONTINUOUS
 10
5.2987979774
 20
-0.198740799
 11
50.6687975706
 21
-0.198740799
  0
LINE
  5
312
100
AcDbEntity
  8
IMPORT_IGES
100
AcDbLine
 62
7
  6
CONTINUOUS
 10
49.6687975711
 20
-0.098740799
 11
43.6970520646
 21
-0.098740799
  0
LINE
  5
313
100
AcDbEntity
  8
IMPORT_IGES
100
AcDbLine
 62
7
  6
CONTINUOUS
 10
5.2987979774
 20
0.001259201
 11
50.6687975717
 21
0.001259201
  0
LINE
  5
314
100
AcDbEntity
  8
IMPORT_IGES
100
AcDbLine
 62
7
  6
CONTINUOUS
 10
50.6740340905
 20
0.301259201
 11
53.5909947384
 21
0.301259201
  0
LINE
  5
315
100
AcDbEntity
  8
IMPORT_IGES
100
AcDbLine
 62
7
  6
CONTINUOUS
 10
53.5909985405
 20
1.101259201
 11
50.6888055641
 21
1.101259201
  0
LINE
  5
316
100
AcDbEntity
  8
IMPORT_IGES
100
AcDbLine
 62
253
  6
CONTINUOUS
 10
6.5211095388
 20
-0.6921589043
 11
6.3815300819
 21
-0.6918513299
  0
LWPOLYLINE
  5
317
100
AcDbEntity
  8
IMPORT_IGES
100
AcDbPolyline
 62
253
  6
CONTINUOUS
 90
10
 70
0
 10
6.3815300819
 20
-0.6918513299
 10
6.2605851308
 20
-0.6908558271
 10
6.2078805008
 20
-0.6901057478
 10
6.160713233
 20
-0.6891919831
 10
6.119328267
 20
-0.6881190495
 10
6.0839400391
 20
-0.6868922456
 10
6.0547273026
 20
-0.685517322
 10
6.0318470556
 20
-0.6840009135
 10
6.0154286638
 20
-0.6823506294
 10
6.0055662194
 20
-0.6805746768
  0
LINE
  5
318
100
AcDbEntity
  8
IMPORT_IGES
100
AcDbLine
 62
7
  6
CONTINUOUS
 10
41.9651520646
 20
22.7338452015
 11
41.9651520646
 21
22.6837111359
  0
LINE
  5
319
100
AcDbEntity
  8
IMPORT_IGES
100
AcDbLine
 62
7
  6
CONTINUOUS
 10
42.9244420646
 20
22.7338452015
 11
42.9244420646
 21
22.6837111359
  0
LINE
  5
31A
100
AcDbEntity
  8
IMPORT_IGES
100
AcDbLine
 62
7
  6
CONTINUOUS
 10
43.3397450646
 20
22.9645315353
 11
43.3397450646
 21
22.9145131647
  0
LINE
  5
31B
100
AcDbEntity
  8
IMPORT_IGES
100
AcDbLine
 62
7
  6
CONTINUOUS
 10
43.4026380646
 20
22.965225999
 11
43.4026380646
 21
22.951259201
  0
LINE
  5
31C
100
AcDbEntity
  8
IMPORT_IGES
100
AcDbLine
 62
7
  6
CONTINUOUS
 10
43.8565880646
 20
22.9645315353
 11
43.8565880646
 21
22.6836909054
  0
LINE
  5
31D
100
AcDbEntity
  8
IMPORT_IGES
100
AcDbLine
 62
7
  6
CONTINUOUS
 10
43.6970520646
 20
-0.098740799
 11
43.6953065581
 21
-0.198740799
  0
LINE
  5
31E
100
AcDbEntity
  8
IMPORT_IGES
100
AcDbLine
 62
253
  6
CONTINUOUS
 10
6.0400601139
 20
3.3003077706
 11
5.3563826781
 21
3.3003077706
  0
LWPOLYLINE
  5
31F
100
AcDbEntity
  8
IMPORT_IGES
100
AcDbPolyline
 62
7
  6
CONTINUOUS
 90
19
 70
0
 10
53.5915011688
 20
1.1013258146
 10
53.6964859619
 20
1.0962740114
 10
53.7989767643
 20
1.0824747404
 10
53.8989735761
 20
1.0599280018
 10
53.9971527427
 20
1.0283193816
 10
54.0928379188
 20
0.9879632937
 10
54.1840000675
 20
0.93980298
 10
54.2705566905
 20
0.8836804683
 10
54.3525902863
 20
0.8197537309
 10
54.4283193135
 20
0.7494399267
 10
54.4976156348
 20
0.6726091565
 10
54.5606073876
 20
0.5893913196
 10
54.615897443
 20
0.5015932727
 10
54.6633323935
 20
0.4091126753
 10
54.7030656465
 20
0.3120518679
 10
54.7341602957
 20
0.212524729
 10
54.7563040387
 20
0.1112358846
 10
54.7698091778
 20
0.0074807086
 10
54.7746757129
 20
-0.098740799
  0
LINE
  5
320
100
AcDbEntity
  8
IMPORT_IGES
100
AcDbLine
 62
7
  6
CONTINUOUS
 10
54.4212557538
 20
-3.0950193197
 11
51.4298342457
 21
-2.2934703423
  0
LINE
  5
321
100
AcDbEntity
  8
IMPORT_IGES
100
AcDbLine
 62
7
  6
CONTINUOUS
 10
51.3521891298
 20
-2.6101564071
 11
54.3436099483
 21
-3.4203861706
  0
LWPOLYLINE
  5
322
100
AcDbEntity
  8
IMPORT_IGES
100
AcDbPolyline
 62
253
  6
CONTINUOUS
 90
16
 70
0
 10
54.3436099483
 20
-3.4203861706
 10
54.4028459254
 20
-3.4397190115
 10
54.4592514036
 20
-3.4635030629
 10
54.512826383
 20
-3.4917369277
 10
54.5638442656
 20
-3.5246494703
 10
54.6120316493
 20
-3.5620080971
 10
54.6565683283
 20
-3.6031191265
 10
54.6974520298
 20
-3.6480325931
 10
54.7346850266
 20
-3.6966938249
 10
54.7674539312
 20
-3.7482526281
 10
54.7957004749
 20
-3.8026685334
 10
54.8194829264
 20
-3.8599772599
 10
54.8381627034
 20
-3.9194438017
 10
54.8515269454
 20
-3.9808219368
 10
54.859788513
 20
-4.0443535444
 10
54.8629474061
 20
-4.1100361815
  0
LINE
  5
323
100
AcDbEntity
  8
IMPORT_IGES
100
AcDbLine
 62
7
  6
CONTINUOUS
 10
44.8166710646
 20
22.6836909054
 11
44.8166710646
 21
22.9645315353
  0
LINE
  5
324
100
AcDbEntity
  8
IMPORT_IGES
100
AcDbLine
 62
7
  6
CONTINUOUS
 10
45.1149780646
 20
22.965225999
 11
45.1149780646
 21
22.951259201
  0
LINE
  5
325
100
AcDbEntity
  8
IMPORT_IGES
100
AcDbLine
 62
7
  6
CONTINUOUS
 10
45.1729600646
 20
22.7338452015
 11
45.1729600646
 21
22.6837111359
  0
LINE
  5
326
100
AcDbEntity
  8
IMPORT_IGES
100
AcDbLine
 62
7
  6
CONTINUOUS
 10
45.5285600646
 20
22.965225999
 11
45.5285600646
 21
22.951259201
  0
LINE
  5
327
100
AcDbEntity
  8
IMPORT_IGES
100
AcDbLine
 62
7
  6
CONTINUOUS
 10
46.1323880646
 20
22.7338452015
 11
46.1323880646
 21
22.6837111359
  0
LINE
  5
328
100
AcDbEntity
  8
IMPORT_IGES
100
AcDbLine
 62
7
  6
CONTINUOUS
 10
47.0359070646
 20
22.9153935048
 11
47.0359070646
 21
22.8653505351
  0
LINE
  5
329
100
AcDbEntity
  8
IMPORT_IGES
100
AcDbLine
 62
7
  6
CONTINUOUS
 10
47.9126430646
 20
22.7338452015
 11
47.9126430646
 21
22.6837111359
  0
LINE
  5
32A
100
AcDbEntity
  8
IMPORT_IGES
100
AcDbLine
 62
7
  6
CONTINUOUS
 10
48.9253080646
 20
22.965225999
 11
48.9253080646
 21
22.951259201
  0
LINE
  5
32B
100
AcDbEntity
  8
IMPORT_IGES
100
AcDbLine
 62
7
  6
CONTINUOUS
 10
48.9555900646
 20
22.7338452015
 11
48.9555900646
 21
22.6837111359
  0
LINE
  5
32C
100
AcDbEntity
  8
IMPORT_IGES
100
AcDbLine
 62
7
  6
CONTINUOUS
 10
49.5258080646
 20
22.965225999
 11
49.5258080646
 21
22.951259201
  0
LINE
  5
32D
100
AcDbEntity
  8
IMPORT_IGES
100
AcDbLine
 62
7
  6
CONTINUOUS
 10
49.6687975711
 20
-0.098740799
 11
49.6687975711
 21
0.0012592007
  0
LINE
  5
32E
100
AcDbEntity
  8
IMPORT_IGES
100
AcDbLine
 62
253
  6
CONTINUOUS
 10
51.4099642556
 20
-2.387420316
 11
51.3978211231
 21
-2.4361276785
  0
LINE
  5
32F
100
AcDbEntity
  8
IMPORT_IGES
100
AcDbLine
 62
253
  6
CONTINUOUS
 10
51.3978211231
 20
-2.4361276785
 11
51.3834160616
 21
-2.4922952963
  0
LINE
  5
330
100
AcDbEntity
  8
IMPORT_IGES
100
AcDbLine
 62
253
  6
CONTINUOUS
 10
51.3834160616
 20
-2.4922952963
 11
51.3673682677
 21
-2.5534434297
  0
LINE
  5
331
100
AcDbEntity
  8
IMPORT_IGES
100
AcDbLine
 62
253
  6
CONTINUOUS
 10
51.3673682677
 20
-2.5534434297
 11
51.3521880495
 21
-2.6101562045
  0
LWPOLYLINE
  5
332
100
AcDbEntity
  8
IMPORT_IGES
100
AcDbPolyline
 62
7
  6
CONTINUOUS
 90
10
 70
0
 10
31.348489751
 20
22.7603187036
 10
31.3479959022
 20
22.7610741406
 10
31.3474874071
 20
22.7616457357
 10
31.3469642657
 20
22.7620334887
 10
31.3464197748
 20
22.7621114975
 10
31.3458606376
 20
22.7620056643
 10
31.3453069637
 20
22.7620936954
 10
31.3447654563
 20
22.762501493
 10
31.3442294121
 20
22.7631031549
 10
31.3436988312
 20
22.7638986811
  0
LWPOLYLINE
  5
333
100
AcDbEntity
  8
IMPORT_IGES
100
AcDbPolyline
 62
253
  6
CONTINUOUS
 90
4
 70
0
 10
50.4880570469
 20
-0.198740799
 10
50.4869657345
 20
-0.1819054753
 10
50.4853812143
 20
-0.1405521843
 10
50.4848511049
 20
-0.098740799
  0
LWPOLYLINE
  5
334
100
AcDbEntity
  8
IMPORT_IGES
100
AcDbPolyline
 62
253
  6
CONTINUOUS
 90
19
 70
0
 10
50.3888515516
 20
-1.3637904213
 10
50.3939584604
 20
-1.4591864859
 10
50.4056222845
 20
-1.5529318241
 10
50.423843024
 20
-1.6450262093
 10
50.4487998531
 20
-1.7358531451
 10
50.4803135975
 20
-1.8250288043
 10
50.5178467352
 20
-1.9114027587
 10
50.5614708526
 20
-1.9951191344
 10
50.6111143633
 20
-2.0760354655
 10
50.6660249857
 20
-2.1525731962
 10
50.7262945898
 20
-2.2244518552
 10
50.7918313056
 20
-2.2919560772
 10
50.8616072424
 20
-2.3543563752
 10
50.9358368658
 20
-2.4117850984
 10
51.0143057101
 20
-2.4641145856
 10
51.0953424875
 20
-2.5102261458
 10
51.1783901019
 20
-2.5497486965
 10
51.2640056493
 20
-2.5830581442
 10
51.3521891298
 20
-2.6101564071
  0
LINE
  5
335
100
AcDbEntity
  8
IMPORT_IGES
100
AcDbLine
 62
7
  6
CONTINUOUS
 10
50.6888055458
 20
-1.3449969066
 11
50.6687975714
 21
-0.1987408195
  0
LINE
  5
336
100
AcDbEntity
  8
IMPORT_IGES
100
AcDbLine
 62
253
  6
CONTINUOUS
 10
50.3687345114
 20
-0.19874081
 11
50.3888515516
 21
-1.3637904213
  0
LINE
  5
337
100
AcDbEntity
  8
IMPORT_IGES
100
AcDbLine
 62
253
  6
CONTINUOUS
 10
50.7751573796
 20
-1.298740799
 11
50.7751573796
 21
-0.498740799
  0
LINE
  5
338
100
AcDbEntity
  8
IMPORT_IGES
100
AcDbLine
 62
253
  6
CONTINUOUS
 10
50.7751573796
 20
0.301259201
 11
50.7751573796
 21
1.101259201
  0
LINE
  5
339
100
AcDbEntity
  8
IMPORT_IGES
100
AcDbLine
 62
7
  6
CONTINUOUS
 10
51.5786820646
 20
22.965225999
 11
51.5786820646
 21
22.951259201
  0
LINE
  5
33A
100
AcDbEntity
  8
IMPORT_IGES
100
AcDbLine
 62
7
  6
CONTINUOUS
 10
52.1963710646
 20
22.965225999
 11
52.1963710646
 21
22.951259201
  0
LINE
  5
33B
100
AcDbEntity
  8
IMPORT_IGES
100
AcDbLine
 62
253
  6
CONTINUOUS
 10
52.5792011517
 20
1.101259201
 11
52.5792011517
 21
0.301259201
  0
LINE
  5
33C
100
AcDbEntity
  8
IMPORT_IGES
100
AcDbLine
 62
253
  6
CONTINUOUS
 10
52.5792011517
 20
-0.498740799
 11
52.5792011517
 21
-1.298740799
  0
LWPOLYLINE
  5
33D
100
AcDbEntity
  8
IMPORT_IGES
100
AcDbPolyline
 62
253
  6
CONTINUOUS
 90
4
 70
0
 10
50.4848511049
 20
-0.098740799
 10
50.4853812143
 20
-0.0569294137
 10
50.4869657345
 20
-0.0155761227
 10
50.4880570469
 20
0.001259201
  0
LINE
  5
33E
100
AcDbEntity
  8
IMPORT_IGES
100
AcDbLine
 62
253
  6
CONTINUOUS
 10
50.3888512385
 20
1.1663051672
 11
50.368738163
 21
0.0012591271
  0
LINE
  5
33F
100
AcDbEntity
  8
IMPORT_IGES
100
AcDbLine
 62
7
  6
CONTINUOUS
 10
50.6687975714
 20
0.0012592215
 11
50.6888055641
 21
1.1475163517
  0
LWPOLYLINE
  5
340
100
AcDbEntity
  8
IMPORT_IGES
100
AcDbPolyline
 62
253
  6
CONTINUOUS
 90
10
 70
0
 10
54.3957541086
 20
-3.2194394496
 10
54.4014489729
 20
-3.195911511
 10
54.4065742444
 20
-3.1742024464
 10
54.4110617049
 20
-3.1545855645
 10
54.4148469065
 20
-3.1373225358
 10
54.4178620153
 20
-3.1226984846
 10
54.4200468704
 20
-3.1109801111
 10
54.421359462
 20
-3.1023653203
 10
54.4217700071
 20
-3.0970034308
 10
54.4212566887
 20
-3.0950195738
  0
LINE
  5
341
100
AcDbEntity
  8
IMPORT_IGES
100
AcDbLine
 62
253
  6
CONTINUOUS
 10
54.3830395899
 20
-3.2704393275
 11
54.3957541086
 21
-3.2194394496
  0
LINE
  5
342
100
AcDbEntity
  8
IMPORT_IGES
100
AcDbLine
 62
253
  6
CONTINUOUS
 10
54.368510165
 20
-3.3269065558
 11
54.3830395899
 21
-3.2704393275
  0
LINE
  5
343
100
AcDbEntity
  8
IMPORT_IGES
100
AcDbLine
 62
253
  6
CONTINUOUS
 10
54.3525653143
 20
-3.3871962309
 11
54.368510165
 21
-3.3269065558
  0
LINE
  5
344
100
AcDbEntity
  8
IMPORT_IGES
100
AcDbLine
 62
253
  6
CONTINUOUS
 10
54.3436090201
 20
-3.4203860168
 11
54.3525653143
 21
-3.3871962309
  0
LWPOLYLINE
  5
345
100
AcDbEntity
  8
IMPORT_IGES
100
AcDbPolyline
 62
253
  6
CONTINUOUS
 90
12
 70
0
 10
54.4212560823
 20
2.8975378031
 10
54.4217675548
 20
2.899409008
 10
54.4214149769
 20
2.9044218553
 10
54.4202306321
 20
2.9124175252
 10
54.4182698453
 20
2.9231336914
 10
54.4155748483
 20
2.9364046544
 10
54.4121263191
 20
2.9523319623
 10
54.4079176684
 20
2.9709201858
 10
54.4029953756
 20
2.99194237
 10
54.3973872119
 20
3.0152646643
 10
54.3911307226
 20
3.0407149817
 10
54.3769268137
 20
3.0969164406
  0
LWPOLYLINE
  5
346
100
AcDbEntity
  8
IMPORT_IGES
100
AcDbPolyline
 62
253
  6
CONTINUOUS
 90
16
 70
0
 10
50.6888055451
 20
1.1475153934
 10
50.6871575433
 20
1.1489736853
 10
50.6822538953
 20
1.1504576224
 10
50.6742544731
 20
1.1519499157
 10
50.6634243973
 20
1.1534248574
 10
50.6499334804
 20
1.1548763352
 10
50.6336801865
 20
1.1563170642
 10
50.6146596834
 20
1.1577394697
 10
50.5931016152
 20
1.1591193853
 10
50.5691403128
 20
1.1604430931
 10
50.5429558807
 20
1.1616951881
 10
50.5148082677
 20
1.1628581513
 10
50.4849962702
 20
1.1639152407
 10
50.4538387847
 20
1.1648511883
 10
50.4216682734
 20
1.165652158
 10
50.3888512386
 20
1.1663051759
  0
LINE
  5
347
100
AcDbEntity
  8
IMPORT_IGES
100
AcDbLine
 62
7
  6
CONTINUOUS
 10
31.3436996334
 20
22.8139921645
 11
31.3408448775
 21
22.8176562935
  0
LINE
  5
348
100
AcDbEntity
  8
IMPORT_IGES
100
AcDbLine
 62
7
  6
CONTINUOUS
 10
31.3436996334
 20
22.7638984384
 11
31.3409328526
 21
22.7674528256
  0
LWPOLYLINE
  5
349
100
AcDbEntity
  8
IMPORT_IGES
100
AcDbPolyline
 62
253
  6
CONTINUOUS
 90
9
 70
0
 10
51.429834834
 20
-2.2934704969
 10
51.4301138427
 20
-2.295277443
 10
51.4295347195
 20
-2.3002248582
 10
51.4281316869
 20
-2.3081561354
 10
51.4259629618
 20
-2.3188120076
 10
51.4230709432
 20
-2.3320279642
 10
51.4194347517
 20
-2.3479037259
 10
51.4150493582
 20
-2.3664428007
 10
51.4099642556
 20
-2.387420316
  0
LWPOLYLINE
  5
34A
100
AcDbEntity
  8
IMPORT_IGES
100
AcDbPolyline
 62
7
  6
CONTINUOUS
 90
16
 70
0
 10
53.9855585172
 20
-0.098740799
 10
53.9831497947
 20
-0.0560299697
 10
53.9766805028
 20
-0.0147289659
 10
53.9661506415
 20
0.0251622125
 10
53.9513525211
 20
0.0640261627
 10
53.9324938312
 20
0.1014802875
 10
53.9101976409
 20
0.1363767949
 10
53.8843678707
 20
0.1686412363
 10
53.8551006001
 20
0.1983480603
 10
53.8233071356
 20
0.2245728211
 10
53.788914125
 20
0.2472181122
 10
53.7519949206
 20
0.2663813401
 10
53.7136808864
 20
0.2814302784
 10
53.6743491437
 20
0.292154185
 10
53.6336225711
 20
0.298763802
 10
53.5915011688
 20
0.3012591295
  0
LINE
  5
34B
100
AcDbEntity
  8
IMPORT_IGES
100
AcDbLine
 62
7
  6
CONTINUOUS
 10
55.162398058
 20
3.8722150312
 11
54.9984929905
 21
22.6538769822
  0
LINE
  5
34C
100
AcDbEntity
  8
IMPORT_IGES
100
AcDbLine
 62
7
  6
CONTINUOUS
 10
54.7023941835
 20
22.4904257428
 11
54.862710202
 21
3.911204736
  0
LINE
  5
34D
100
AcDbEntity
  8
IMPORT_IGES
100
AcDbLine
 62
7
  6
CONTINUOUS
 10
53.5915011688
 20
1.1013258146
 11
53.5915011688
 21
0.3012591295
  0
LINE
  5
34E
100
AcDbEntity
  8
IMPORT_IGES
100
AcDbLine
 62
7
  6
CONTINUOUS
 10
53.5915027653
 20
-0.4988206802
 11
53.5915027653
 21
-1.2986734923
  0
LINE
  5
34F
100
AcDbEntity
  8
IMPORT_IGES
100
AcDbLine
 62
7
  6
CONTINUOUS
 10
54.699242303
 20
22.951259201
 11
54.699242303
 21
22.5944814798
  0
LINE
  5
350
100
AcDbEntity
  8
IMPORT_IGES
100
AcDbLine
 62
7
  6
CONTINUOUS
 10
54.6992423012
 20
-22.7919275435
 11
54.6992423012
 21
-23.148740799
  0
LINE
  5
351
100
AcDbEntity
  8
IMPORT_IGES
100
AcDbLine
 62
7
  6
CONTINUOUS
 10
54.8629474061
 20
-4.1100361815
 11
54.7037206796
 21
-22.5399881778
  0
LINE
  5
352
100
AcDbEntity
  8
IMPORT_IGES
100
AcDbLine
 62
7
  6
CONTINUOUS
 10
54.9984929915
 20
-22.8513585781
 11
55.1623980871
 21
-4.0696932971
  0
LINE
  5
353
100
AcDbEntity
  8
IMPORT_IGES
100
AcDbLine
 62
7
  6
CONTINUOUS
 10
54.7037206796
 20
-22.5399881778
 11
54.7020537137
 21
-22.6925350934
  0
LWPOLYLINE
  5
354
100
AcDbEntity
  8
IMPORT_IGES
100
AcDbPolyline
 62
7
  6
CONTINUOUS
 90
5
 70
0
 10
54.7020537137
 20
-22.6925350934
 10
54.701180108
 20
-22.7446920061
 10
54.7007364061
 20
-22.7645984261
 10
54.7002876974
 20
-22.7803509828
 10
54.6998339819
 20
-22.7919275729
  0
LWPOLYLINE
  5
355
100
AcDbEntity
  8
IMPORT_IGES
100
AcDbPolyline
 62
253
  6
CONTINUOUS
 90
16
 70
0
 10
54.862710202
 20
3.911204736
 10
54.8597952757
 20
3.8470623633
 10
54.8517988895
 20
3.7847242718
 10
54.8387210433
 20
3.7241925154
 10
54.8203845289
 20
3.6651597984
 10
54.7969665545
 20
3.6079370442
 10
54.7689987448
 20
3.5534542555
 10
54.7363853883
 20
3.5016924065
 10
54.6992221964
 20
3.4526750676
 10
54.6583279281
 20
3.4073973294
 10
54.613702864
 20
3.3659509156
 10
54.5653467234
 20
3.3282487885
 10
54.5140774238
 20
3.2950185661
 10
54.4601676043
 20
3.266504183
 10
54.4033446257
 20
3.242465497
 10
54.343608488
 20
3.2229039288
  0
LWPOLYLINE
  5
356
100
AcDbEntity
  8
IMPORT_IGES
100
AcDbPolyline
 62
7
  6
CONTINUOUS
 90
19
 70
0
 10
54.7746757129
 20
-0.098740799
 10
54.7698048387
 20
-0.205012021
 10
54.7562871906
 20
-0.3088144002
 10
54.7341227689
 20
-0.4101479364
 10
54.7029989152
 20
-0.5097183256
 10
54.6632282877
 20
-0.606819872
 10
54.6157488609
 20
-0.6993354876
 10
54.5604068771
 20
-0.7871627065
 10
54.4973560939
 20
-0.8704039946
 10
54.4279957591
 20
-0.9472496616
 10
54.3521974127
 20
-1.0175695807
 10
54.2700895147
 20
-1.0814938788
 10
54.1834566925
 20
-1.1376032464
 10
54.0921791125
 20
-1.185744351
 10
53.9963766083
 20
-1.2260705251
 10
53.8981933087
 20
-1.2576224574
 10
53.798343923
 20
-1.2800803775
 10
53.6961137419
 20
-1.2937640557
 10
53.5915027653
 20
-1.2986734923
  0
LINE
  5
357
100
AcDbEntity
  8
IMPORT_IGES
100
AcDbLine
 62
7
  6
CONTINUOUS
 10
32.2427229228
 20
22.8203460619
 11
32.2408441316
 21
22.8225616047
  0
LINE
  5
358
100
AcDbEntity
  8
IMPORT_IGES
100
AcDbLine
 62
253
  6
CONTINUOUS
 10
51.3521878799
 20
2.4126741805
 11
51.3670635118
 21
2.3571091654
  0
LINE
  5
359
100
AcDbEntity
  8
IMPORT_IGES
100
AcDbLine
 62
253
  6
CONTINUOUS
 10
51.3670635118
 20
2.3571091654
 11
51.3824970101
 21
2.298350781
  0
LINE
  5
35A
100
AcDbEntity
  8
IMPORT_IGES
100
AcDbLine
 62
253
  6
CONTINUOUS
 10
51.3824970101
 20
2.298350781
 11
51.396274752
 21
2.244745264
  0
LWPOLYLINE
  5
35B
100
AcDbEntity
  8
IMPORT_IGES
100
AcDbPolyline
 62
253
  6
CONTINUOUS
 90
10
 70
0
 10
51.396274752
 20
2.244745264
 10
51.4083756548
 20
2.1964067577
 10
51.4136566265
 20
2.1747525929
 10
51.4183182535
 20
2.1551927248
 10
51.4222948825
 20
2.1379879999
 10
51.4255165322
 20
2.123423704
 10
51.4279205782
 20
2.1117650457
 10
51.4294621828
 20
2.1032102104
 10
51.4301087636
 20
2.0979096204
 10
51.4298354414
 20
2.0959890707
  0
LWPOLYLINE
  5
35C
100
AcDbEntity
  8
IMPORT_IGES
100
AcDbPolyline
 62
253
  6
CONTINUOUS
 90
16
 70
0
 10
55.0065070106
 20
21.7355366081
 10
55.0046880399
 20
21.7601908365
 10
54.999614709
 20
21.7845502701
 10
54.9913423474
 20
21.8083490352
 10
54.9799611826
 20
21.8313274045
 10
54.9655954049
 20
21.8532345299
 10
54.9484018563
 20
21.8738311976
 10
54.9285682305
 20
21.8928925742
 10
54.9063109817
 20
21.9102106423
 10
54.8818730405
 20
21.925596381
 10
54.8555053903
 20
21.9388889106
 10
54.8275096933
 20
21.9499334998
 10
54.7982436957
 20
21.9585965178
 10
54.7680498765
 20
21.9647932852
 10
54.7372432397
 20
21.9684752687
 10
54.7061591451
 20
21.969615876
  0
LWPOLYLINE
  5
35D
100
AcDbEntity
  8
IMPORT_IGES
100
AcDbPolyline
 62
253
  6
CONTINUOUS
 90
16
 70
0
 10
55.0015975001
 20
22.298134372
 10
54.9997290259
 20
22.3289465738
 10
54.9946609344
 20
22.3594963391
 10
54.9864180907
 20
22.3894510045
 10
54.9750473034
 20
22.4185084964
 10
54.960651172
 20
22.4463102376
 10
54.9434177187
 20
22.4724603135
 10
54.9235573723
 20
22.4966485604
 10
54.9012709747
 20
22.5186382911
 10
54.8768021318
 20
22.5381891425
 10
54.8504561444
 20
22.5550658698
 10
54.8224876651
 20
22.5691134066
 10
54.7930770545
 20
22.5802183684
 10
54.762490394
 20
22.5882293305
 10
54.7310970255
 20
22.5930000642
 10
54.6992424947
 20
22.5944363652
  0
LWPOLYLINE
  5
35E
100
AcDbEntity
  8
IMPORT_IGES
100
AcDbPolyline
 62
7
  6
CONTINUOUS
 90
4
 70
0
 10
54.6998286693
 20
22.5943544047
 10
54.7007811107
 20
22.5719048244
 10
54.7016362825
 20
22.5372032019
 10
54.7023941835
 20
22.4904257428
  0
LWPOLYLINE
  5
35F
100
AcDbEntity
  8
IMPORT_IGES
100
AcDbPolyline
 62
253
  6
CONTINUOUS
 90
7
 70
0
 10
55.0016002258
 20
-22.4952775791
 10
54.9997045136
 20
-22.52664419
 10
54.9945229133
 20
-22.5576023114
 10
54.9861242195
 20
-22.5878126039
 10
54.9746174
 20
-22.6169345746
 10
54.9601368633
 20
-22.6446655114
 10
54.9428290108
 20
-22.6707377774
  0
LWPOLYLINE
  5
360
100
AcDbEntity
  8
IMPORT_IGES
100
AcDbPolyline
 62
253
  6
CONTINUOUS
 90
16
 70
0
 10
55.0065045912
 20
-21.9332707061
 10
55.0046728775
 20
-21.9577778403
 10
54.9996177889
 20
-21.9820198687
 10
54.9913830303
 20
-22.0057332772
 10
54.9800422326
 20
-22.0286673205
 10
54.9657108202
 20
-22.0505603921
 10
54.9485560852
 20
-22.071147353
 10
54.9287728763
 20
-22.0901970383
 10
54.9065705339
 20
-22.1075101822
 10
54.8821907171
 20
-22.1228983414
 10
54.8559120088
 20
-22.1361880841
 10
54.828008796
 20
-22.1472428765
 10
54.7987409653
 20
-22.1559534532
 10
54.7684076879
 20
-22.1622167195
 10
54.7373513164
 20
-22.1659483747
 10
54.7059106314
 20
-22.167096282
  0
LWPOLYLINE
  5
361
100
AcDbEntity
  8
IMPORT_IGES
100
AcDbPolyline
 62
253
  6
CONTINUOUS
 90
10
 70
0
 10
54.9428290108
 20
-22.6707377774
 10
54.9228746366
 20
-22.6948754783
 10
54.9004985172
 20
-22.7168036345
 10
54.8759455586
 20
-22.7362822432
 10
54.8494654258
 20
-22.7531088723
 10
54.8213647517
 20
-22.7670846233
 10
54.7920142098
 20
-22.7780365899
 10
54.7617628157
 20
-22.7858600166
 10
54.7309239601
 20
-22.7904984489
 10
54.699834003
 20
-22.791921882
  0
LINE
  5
362
100
AcDbEntity
  8
IMPORT_IGES
100
AcDbLine
 62
7
  6
CONTINUOUS
 10
31.3486902684
 20
22.810265134
 11
31.3436999607
 21
22.8139919245
  0
LINE
  5
363
100
AcDbEntity
  8
IMPORT_IGES
100
AcDbLine
 62
253
  6
CONTINUOUS
 10
54.3609817375
 20
3.1580917216
 11
54.3436093744
 21
3.2229040517
  0
LINE
  5
364
100
AcDbEntity
  8
IMPORT_IGES
100
AcDbLine
 62
253
  6
CONTINUOUS
 10
54.3769268137
 20
3.0969164406
 11
54.3609817375
 21
3.1580917216
  0
LINE
  5
365
100
AcDbEntity
  8
IMPORT_IGES
100
AcDbLine
 62
7
  6
CONTINUOUS
 10
31.3561343958
 20
22.8063664059
 11
31.3486902684
 21
22.810265134
  0
LINE
  5
366
100
AcDbEntity
  8
IMPORT_IGES
100
AcDbLine
 62
7
  6
CONTINUOUS
 10
31.3561343958
 20
22.7562687692
 11
31.3484022561
 21
22.7603187036
  0
LINE
  5
367
100
AcDbEntity
  8
IMPORT_IGES
100
AcDbLine
 62
7
  6
CONTINUOUS
 10
32.2466005726
 20
22.8182191043
 11
32.2427229228
 21
22.8203460619
  0
LWPOLYLINE
  5
368
100
AcDbEntity
  8
IMPORT_IGES
100
AcDbPolyline
 62
253
  6
CONTINUOUS
 90
16
 70
0
 10
55.1623978583
 20
3.8721945945
 10
55.1607832071
 20
3.8765812603
 10
55.1560099469
 20
3.8809086086
 10
55.1480941936
 20
3.8851297554
 10
55.1370390692
 20
3.8892107561
 10
55.1229554966
 20
3.8930913727
 10
55.1061721024
 20
3.8966944988
 10
55.0871686911
 20
3.8999597376
 10
55.0660215474
 20
3.9028952166
 10
55.0424241372
 20
3.9055183572
 10
55.0162125087
 20
3.9078073264
 10
54.9878654647
 20
3.9096864441
 10
54.9580094153
 20
3.9110879488
 10
54.92710533
 20
3.9119849151
 10
54.8953800486
 20
3.9123732811
 10
54.8631938066
 20
3.9122437892
  0
LINE
  5
369
100
AcDbEntity
  8
IMPORT_IGES
100
AcDbLine
 62
7
  6
CONTINUOUS
 10
31.3645806702
 20
22.8358299549
 11
31.3739438512
 21
22.8384471257
  0
LINE
  5
36A
100
AcDbEntity
  8
IMPORT_IGES
100
AcDbLine
 62
7
  6
CONTINUOUS
 10
31.3739438512
 20
22.8384471257
 11
31.3843965281
 21
22.8409459612
  0
LINE
  5
36B
100
AcDbEntity
  8
IMPORT_IGES
100
AcDbLine
 62
7
  6
CONTINUOUS
 10
31.3843965281
 20
22.8409459612
 11
31.3959247307
 21
22.8433256761
  0
LINE
  5
36C
100
AcDbEntity
  8
IMPORT_IGES
100
AcDbLine
 62
7
  6
CONTINUOUS
 10
31.3959247307
 20
22.8433256761
 11
31.4085424291
 21
22.8455915477
  0
LINE
  5
36D
100
AcDbEntity
  8
IMPORT_IGES
100
AcDbLine
 62
7
  6
CONTINUOUS
 10
31.4085424291
 20
22.8455915477
 11
31.4219207798
 21
22.8477505328
  0
LINE
  5
36E
100
AcDbEntity
  8
IMPORT_IGES
100
AcDbLine
 62
7
  6
CONTINUOUS
 10
31.4219207798
 20
22.8477505328
 11
31.436044617
 21
22.8498034981
  0
LINE
  5
36F
100
AcDbEntity
  8
IMPORT_IGES
100
AcDbLine
 62
7
  6
CONTINUOUS
 10
31.436044617
 20
22.8498034981
 11
31.4509291065
 21
22.8517533134
  0
LINE
  5
370
100
AcDbEntity
  8
IMPORT_IGES
100
AcDbLine
 62
7
  6
CONTINUOUS
 10
31.4509291065
 20
22.8517533134
 11
31.4662909027
 21
22.8536095601
  0
LINE
  5
371
100
AcDbEntity
  8
IMPORT_IGES
100
AcDbLine
 62
7
  6
CONTINUOUS
 10
31.4662909027
 20
22.8536095601
 11
31.482107484
 21
22.8553735434
  0
LINE
  5
372
100
AcDbEntity
  8
IMPORT_IGES
100
AcDbLine
 62
7
  6
CONTINUOUS
 10
31.482107484
 20
22.8553735434
 11
31.4984013719
 21
22.8570469351
  0
LINE
  5
373
100
AcDbEntity
  8
IMPORT_IGES
100
AcDbLine
 62
7
  6
CONTINUOUS
 10
31.4984013719
 20
22.8570469351
 11
31.5149567859
 21
22.8586394666
  0
LINE
  5
374
100
AcDbEntity
  8
IMPORT_IGES
100
AcDbLine
 62
7
  6
CONTINUOUS
 10
31.5149567859
 20
22.8586394666
 11
31.5317514457
 21
22.8601520523
  0
LINE
  5
375
100
AcDbEntity
  8
IMPORT_IGES
100
AcDbLine
 62
7
  6
CONTINUOUS
 10
31.5317514457
 20
22.8601520523
 11
31.5488076314
 21
22.8615861044
  0
LINE
  5
376
100
AcDbEntity
  8
IMPORT_IGES
100
AcDbLine
 62
7
  6
CONTINUOUS
 10
31.5488076314
 20
22.8615861044
 11
31.5832528312
 21
22.8642507732
  0
LINE
  5
377
100
AcDbEntity
  8
IMPORT_IGES
100
AcDbLine
 62
7
  6
CONTINUOUS
 10
31.5832528312
 20
22.8642507732
 11
31.6180092942
 21
22.8666558364
  0
LINE
  5
378
100
AcDbEntity
  8
IMPORT_IGES
100
AcDbLine
 62
7
  6
CONTINUOUS
 10
32.4017256967
 20
22.8510119613
 11
32.3704709308
 21
22.8489394596
  0
LINE
  5
379
100
AcDbEntity
  8
IMPORT_IGES
100
AcDbLine
 62
7
  6
CONTINUOUS
 10
31.6180092942
 20
22.8666558364
 11
31.6526469989
 21
22.8688241633
  0
LINE
  5
37A
100
AcDbEntity
  8
IMPORT_IGES
100
AcDbLine
 62
7
  6
CONTINUOUS
 10
31.6526469989
 20
22.8688241633
 11
31.6869354132
 21
22.8707840342
  0
LINE
  5
37B
100
AcDbEntity
  8
IMPORT_IGES
100
AcDbLine
 62
7
  6
CONTINUOUS
 10
32.4358014371
 20
22.8528996654
 11
32.4017256967
 21
22.8510119613
  0
LINE
  5
37C
100
AcDbEntity
  8
IMPORT_IGES
100
AcDbLine
 62
7
  6
CONTINUOUS
 10
31.6869354132
 20
22.8707840342
 11
31.7373435038
 21
22.8733739219
  0
LINE
  5
37D
100
AcDbEntity
  8
IMPORT_IGES
100
AcDbLine
 62
7
  6
CONTINUOUS
 10
32.4728214173
 20
22.8545908776
 11
32.4358014371
 21
22.8528996654
  0
LINE
  5
37E
100
AcDbEntity
  8
IMPORT_IGES
100
AcDbLine
 62
7
  6
CONTINUOUS
 10
31.7373435038
 20
22.8733739219
 11
31.7861262195
 21
22.8755966821
  0
LINE
  5
37F
100
AcDbEntity
  8
IMPORT_IGES
100
AcDbLine
 62
7
  6
CONTINUOUS
 10
31.7861262195
 20
22.8755966821
 11
31.8332408122
 21
22.8774869724
  0
LINE
  5
380
100
AcDbEntity
  8
IMPORT_IGES
100
AcDbLine
 62
7
  6
CONTINUOUS
 10
32.512662372
 20
22.8561036413
 11
32.4728214173
 21
22.8545908776
  0
LINE
  5
381
100
AcDbEntity
  8
IMPORT_IGES
100
AcDbLine
 62
7
  6
CONTINUOUS
 10
31.8332408122
 20
22.8774869724
 11
31.8786271754
 21
22.8790732282
  0
LINE
  5
382
100
AcDbEntity
  8
IMPORT_IGES
100
AcDbLine
 62
7
  6
CONTINUOUS
 10
32.5544044442
 20
22.8574376673
 11
32.512662372
 21
22.8561036413
  0
LINE
  5
383
100
AcDbEntity
  8
IMPORT_IGES
100
AcDbLine
 62
7
  6
CONTINUOUS
 10
31.8786271754
 20
22.8790732282
 11
31.8933360006
 21
22.8795406381
  0
LINE
  5
384
100
AcDbEntity
  8
IMPORT_IGES
100
AcDbLine
 62
7
  6
CONTINUOUS
 10
32.5980441864
 20
22.8585849343
 11
32.5544044442
 21
22.8574376673
  0
LINE
  5
385
100
AcDbEntity
  8
IMPORT_IGES
100
AcDbLine
 62
7
  6
CONTINUOUS
 10
31.9220906602
 20
22.8804212406
 11
31.9500834194
 21
22.8811958665
  0
LINE
  5
386
100
AcDbEntity
  8
IMPORT_IGES
100
AcDbLine
 62
7
  6
CONTINUOUS
 10
34.7369718568
 20
22.9592876185
 11
34.6509051171
 21
22.9570023603
  0
LINE
  5
387
100
AcDbEntity
  8
IMPORT_IGES
100
AcDbLine
 62
7
  6
CONTINUOUS
 10
32.2200371931
 20
22.9592878681
 11
32.1339711944
 21
22.9570027207
  0
LINE
  5
388
100
AcDbEntity
  8
IMPORT_IGES
100
AcDbLine
 62
7
  6
CONTINUOUS
 10
32.6367354874
 20
22.809340812
 11
32.643585046
 21
22.8094870216
  0
LINE
  5
389
100
AcDbEntity
  8
IMPORT_IGES
100
AcDbLine
 62
7
  6
CONTINUOUS
 10
34.7418036789
 20
22.9593902362
 11
34.7369718568
 21
22.9592876185
  0
LWPOLYLINE
  5
38A
100
AcDbEntity
  8
IMPORT_IGES
100
AcDbPolyline
 62
7
  6
CONTINUOUS
 90
40
 70
0
 10
25.353324965
 20
22.9512500053
 10
24.6270544526
 20
22.9379207843
 10
23.8280136968
 20
22.8925194998
 10
23.0313982289
 20
22.8151547617
 10
22.2384763646
 20
22.7060747079
 10
21.4505022014
 20
22.5655258193
 10
20.668716124
 20
22.3937500902
 10
19.8943695135
 20
22.1909890247
 10
19.1287361832
 20
21.9574895084
 10
18.3730907353
 20
21.6935005803
 10
17.6286834172
 20
21.3992639278
 10
16.8967377033
 20
21.0751623791
 10
16.1783964068
 20
20.7218885609
 10
15.4747630333
 20
20.3401696751
 10
14.7868888045
 20
19.930705856
 10
14.1158220865
 20
19.494189681
 10
13.4626393602
 20
19.0313275466
 10
12.8284239016
 20
18.5428304624
 10
12.2142382146
 20
18.0293921929
 10
11.6211443338
 20
17.4917009296
 10
11.0502382451
 20
16.930488494
 10
10.5024651697
 20
16.3466854468
 10
9.9785755163
 20
15.7413741143
 10
9.4792770349
 20
15.1156045939
 10
9.0052839746
 20
14.4704289018
 10
8.5573264428
 20
13.8069175941
 10
8.1361298737
 20
13.1261345915
 10
7.7424066776
 20
12.4291183119
 10
7.3768753123
 20
11.7169076857
 10
7.040282201
 20
10.9905934687
 10
6.7333396417
 20
10.2513093593
 10
6.4564489714
 20
9.5002732442
 10
6.2098733085
 20
8.7387311959
 10
5.9938842908
 20
7.9679560832
 10
5.8087503899
 20
7.1892174499
 10
5.6547343014
 20
6.4037624489
 10
5.532099373
 20
5.6128298637
 10
5.4411130636
 20
4.8176703137
 10
5.3820444743
 20
4.0195467394
 10
5.3564037641
 20
3.3003075069
  0
LINE
  5
38B
100
AcDbEntity
  8
IMPORT_IGES
100
AcDbLine
 62
7
  6
CONTINUOUS
 10
31.9500834194
 20
22.8811958665
 11
31.9777537233
 21
22.8817428209
  0
LINE
  5
38C
100
AcDbEntity
  8
IMPORT_IGES
100
AcDbLine
 62
7
  6
CONTINUOUS
 10
32.3159186714
 20
22.9611589836
 11
32.2200371931
 21
22.9592878681
  0
LINE
  5
38D
100
AcDbEntity
  8
IMPORT_IGES
100
AcDbLine
 62
7
  6
CONTINUOUS
 10
32.6901175081
 20
22.8603866191
 11
32.5980441864
 21
22.8585849343
  0
LINE
  5
38E
100
AcDbEntity
  8
IMPORT_IGES
100
AcDbLine
 62
7
  6
CONTINUOUS
 10
32.3673574875
 20
22.9619412975
 11
32.3614786332
 21
22.9618522785
  0
LINE
  5
38F
100
AcDbEntity
  8
IMPORT_IGES
100
AcDbLine
 62
7
  6
CONTINUOUS
 10
31.9777537233
 20
22.8817428209
 11
31.9914405111
 21
22.8819389341
  0
LINE
  5
390
100
AcDbEntity
  8
IMPORT_IGES
100
AcDbLine
 62
7
  6
CONTINUOUS
 10
32.7373981277
 20
22.8110019342
 11
32.7452884082
 21
22.8110908699
  0
LINE
  5
391
100
AcDbEntity
  8
IMPORT_IGES
100
AcDbLine
 62
7
  6
CONTINUOUS
 10
32.7856703498
 20
22.8616155137
 11
32.6901175081
 21
22.8603866191
  0
LINE
  5
392
100
AcDbEntity
  8
IMPORT_IGES
100
AcDbLine
 62
7
  6
CONTINUOUS
 10
32.4748671364
 20
22.963155175
 11
32.4645988361
 21
22.9630524541
  0
LINE
  5
393
100
AcDbEntity
  8
IMPORT_IGES
100
AcDbLine
 62
7
  6
CONTINUOUS
 10
33.703136564
 20
22.6813189219
 11
33.7360708634
 21
22.6816641031
  0
LINE
  5
394
100
AcDbEntity
  8
IMPORT_IGES
100
AcDbLine
 62
7
  6
CONTINUOUS
 10
33.6052130871
 20
22.680857099
 11
33.6378245944
 21
22.6811375574
  0
LINE
  5
395
100
AcDbEntity
  8
IMPORT_IGES
100
AcDbLine
 62
7
  6
CONTINUOUS
 10
33.2765109263
 20
22.7858794663
 11
33.5353824171
 21
22.7881579883
  0
LINE
  5
396
100
AcDbEntity
  8
IMPORT_IGES
100
AcDbLine
 62
7
  6
CONTINUOUS
 10
33.8138339088
 20
22.6820497063
 11
34.4597677943
 21
22.6876353572
  0
LINE
  5
397
100
AcDbEntity
  8
IMPORT_IGES
100
AcDbLine
 62
7
  6
CONTINUOUS
 10
33.8138339088
 20
22.7321846067
 11
34.4597677943
 21
22.7377674513
  0
LINE
  5
398
100
AcDbEntity
  8
IMPORT_IGES
100
AcDbLine
 62
7
  6
CONTINUOUS
 10
32.7856703498
 20
22.8115455942
 11
32.8845923359
 21
22.8123023384
  0
LINE
  5
399
100
AcDbEntity
  8
IMPORT_IGES
100
AcDbLine
 62
7
  6
CONTINUOUS
 10
32.7856703498
 20
22.8616155137
 11
32.8845923359
 21
22.8623718787
  0
LWPOLYLINE
  5
39A
100
AcDbEntity
  8
IMPORT_IGES
100
AcDbPolyline
 62
7
  6
CONTINUOUS
 90
3
 70
0
 10
33.7804090081
 20
22.6817343209
 10
33.7915346779
 20
22.6818044066
 10
33.8138339088
 20
22.6820497063
  0
LINE
  5
39B
100
AcDbEntity
  8
IMPORT_IGES
100
AcDbLine
 62
7
  6
CONTINUOUS
 10
33.7360708634
 20
22.6816641031
 11
33.7471277814
 21
22.6817343209
  0
LINE
  5
39C
100
AcDbEntity
  8
IMPORT_IGES
100
AcDbLine
 62
7
  6
CONTINUOUS
 10
33.6813760753
 20
22.6811946483
 11
33.703136564
 21
22.6813189219
  0
LINE
  5
39D
100
AcDbEntity
  8
IMPORT_IGES
100
AcDbLine
 62
7
  6
CONTINUOUS
 10
33.5836196492
 20
22.6807562988
 11
33.6052130871
 21
22.680857099
  0
LINE
  5
39E
100
AcDbEntity
  8
IMPORT_IGES
100
AcDbLine
 62
7
  6
CONTINUOUS
 10
33.4224434355
 20
22.6802584821
 11
33.5512352753
 21
22.6807562988
  0
LINE
  5
39F
100
AcDbEntity
  8
IMPORT_IGES
100
AcDbLine
 62
7
  6
CONTINUOUS
 10
33.1114108798
 20
22.7852831907
 11
33.2765109263
 21
22.7858794663
  0
LINE
  5
3A0
100
AcDbEntity
  8
IMPORT_IGES
100
AcDbLine
 62
7
  6
CONTINUOUS
 10
33.3268716588
 20
22.7301544082
 11
33.8138339088
 21
22.7321846067
  0
LINE
  5
3A1
100
AcDbEntity
  8
IMPORT_IGES
100
AcDbLine
 62
7
  6
CONTINUOUS
 10
32.7026910745
 20
22.9642810326
 11
32.5309379693
 21
22.9635919264
  0
LWPOLYLINE
  5
3A2
100
AcDbEntity
  8
IMPORT_IGES
100
AcDbPolyline
 62
7
  6
CONTINUOUS
 90
3
 70
0
 10
33.6378245944
 20
22.6811375574
 10
33.659612837
 20
22.6812053937
 10
33.6813760753
 20
22.6811946483
  0
LINE
  5
3A3
100
AcDbEntity
  8
IMPORT_IGES
100
AcDbLine
 62
253
  6
CONTINUOUS
 10
54.7061580763
 20
21.9696850795
 11
24.9257532886
 21
21.9695045728
  0
LINE
  5
3A4
100
AcDbEntity
  8
IMPORT_IGES
100
AcDbLine
 62
253
  6
CONTINUOUS
 10
24.8923282752
 20
22.5944990644
 11
54.6998286693
 21
22.5943544047
  0
LINE
  5
3A5
100
AcDbEntity
  8
IMPORT_IGES
100
AcDbLine
 62
7
  6
CONTINUOUS
 10
43.8565880646
 20
22.6836909054
 11
44.8166710646
 21
22.6836909054
  0
LINE
  5
3A6
100
AcDbEntity
  8
IMPORT_IGES
100
AcDbLine
 62
7
  6
CONTINUOUS
 10
36.1529160646
 20
22.6837111359
 11
37.0816820646
 21
22.6837111359
  0
LINE
  5
3A7
100
AcDbEntity
  8
IMPORT_IGES
100
AcDbLine
 62
7
  6
CONTINUOUS
 10
39.1052170646
 20
22.6837111359
 11
40.0551260646
 21
22.6837111359
  0
LINE
  5
3A8
100
AcDbEntity
  8
IMPORT_IGES
100
AcDbLine
 62
7
  6
CONTINUOUS
 10
41.9651520646
 20
22.6837111359
 11
42.9244420646
 21
22.6837111359
  0
LINE
  5
3A9
100
AcDbEntity
  8
IMPORT_IGES
100
AcDbLine
 62
7
  6
CONTINUOUS
 10
45.1729600646
 20
22.6837111359
 11
46.1323880646
 21
22.6837111359
  0
LINE
  5
3AA
100
AcDbEntity
  8
IMPORT_IGES
100
AcDbLine
 62
7
  6
CONTINUOUS
 10
47.9126430646
 20
22.6837111359
 11
48.9555900646
 21
22.6837111359
  0
LINE
  5
3AB
100
AcDbEntity
  8
IMPORT_IGES
100
AcDbLine
 62
7
  6
CONTINUOUS
 10
44.8166710646
 20
22.7338249811
 11
43.8565880646
 21
22.7338249811
  0
LINE
  5
3AC
100
AcDbEntity
  8
IMPORT_IGES
100
AcDbLine
 62
7
  6
CONTINUOUS
 10
48.9555900646
 20
22.7338452015
 11
47.9126430646
 21
22.7338452015
  0
LINE
  5
3AD
100
AcDbEntity
  8
IMPORT_IGES
100
AcDbLine
 62
7
  6
CONTINUOUS
 10
46.1323880646
 20
22.7338452015
 11
45.1729600646
 21
22.7338452015
  0
LINE
  5
3AE
100
AcDbEntity
  8
IMPORT_IGES
100
AcDbLine
 62
7
  6
CONTINUOUS
 10
42.9244420646
 20
22.7338452015
 11
41.9651520646
 21
22.7338452015
  0
LINE
  5
3AF
100
AcDbEntity
  8
IMPORT_IGES
100
AcDbLine
 62
7
  6
CONTINUOUS
 10
40.0551260646
 20
22.7338452015
 11
39.1052170646
 21
22.7338452015
  0
LINE
  5
3B0
100
AcDbEntity
  8
IMPORT_IGES
100
AcDbLine
 62
7
  6
CONTINUOUS
 10
37.0816820646
 20
22.7338452015
 11
36.1529160646
 21
22.7338452015
  0
LINE
  5
3B1
100
AcDbEntity
  8
IMPORT_IGES
100
AcDbLine
 62
7
  6
CONTINUOUS
 10
32.8845923359
 20
22.8123023384
 11
33.5353824171
 21
22.8126179743
  0
LINE
  5
3B2
100
AcDbEntity
  8
IMPORT_IGES
100
AcDbLine
 62
7
  6
CONTINUOUS
 10
36.4602285039
 20
22.8570623062
 11
36.8250822747
 21
22.8570623062
  0
LINE
  5
3B3
100
AcDbEntity
  8
IMPORT_IGES
100
AcDbLine
 62
7
  6
CONTINUOUS
 10
33.5353824171
 20
22.8626873564
 11
32.8845923359
 21
22.8623718787
  0
LINE
  5
3B4
100
AcDbEntity
  8
IMPORT_IGES
100
AcDbLine
 62
7
  6
CONTINUOUS
 10
37.1133790646
 20
22.9071094255
 11
36.1941670646
 21
22.9071094255
  0
LINE
  5
3B5
100
AcDbEntity
  8
IMPORT_IGES
100
AcDbLine
 62
7
  6
CONTINUOUS
 10
36.0022950646
 20
22.9354257233
 11
37.3097690646
 21
22.9354257233
  0
LINE
  5
3B6
100
AcDbEntity
  8
IMPORT_IGES
100
AcDbLine
 62
7
  6
CONTINUOUS
 10
25.3532834724
 20
22.951259201
 11
31.1101346632
 21
22.951259201
  0
LINE
  5
3B7
100
AcDbEntity
  8
IMPORT_IGES
100
AcDbLine
 62
7
  6
CONTINUOUS
 10
32.1704657242
 20
22.951259201
 11
33.5035474967
 21
22.951259201
  0
LINE
  5
3B8
100
AcDbEntity
  8
IMPORT_IGES
100
AcDbLine
 62
7
  6
CONTINUOUS
 10
34.4597677943
 20
22.951259201
 11
34.7416950646
 21
22.951259201
  0
LINE
  5
3B9
100
AcDbEntity
  8
IMPORT_IGES
100
AcDbLine
 62
7
  6
CONTINUOUS
 10
35.8758999107
 20
22.951259201
 11
37.4444026788
 21
22.951259201
  0
LINE
  5
3BA
100
AcDbEntity
  8
IMPORT_IGES
100
AcDbLine
 62
7
  6
CONTINUOUS
 10
38.5243590646
 20
22.951259201
 11
38.6751180646
 21
22.951259201
  0
LINE
  5
3BB
100
AcDbEntity
  8
IMPORT_IGES
100
AcDbLine
 62
7
  6
CONTINUOUS
 10
39.643883075
 20
22.951259201
 11
40.782129823
 21
22.951259201
  0
LINE
  5
3BC
100
AcDbEntity
  8
IMPORT_IGES
100
AcDbLine
 62
7
  6
CONTINUOUS
 10
41.2557937307
 20
22.951259201
 11
42.3903512039
 21
22.951259201
  0
LINE
  5
3BD
100
AcDbEntity
  8
IMPORT_IGES
100
AcDbLine
 62
7
  6
CONTINUOUS
 10
43.3397450646
 20
22.951259201
 11
43.8565880646
 21
22.951259201
  0
LINE
  5
3BE
100
AcDbEntity
  8
IMPORT_IGES
100
AcDbLine
 62
7
  6
CONTINUOUS
 10
44.8166710646
 20
22.951259201
 11
46.5075829925
 21
22.951259201
  0
LINE
  5
3BF
100
AcDbEntity
  8
IMPORT_IGES
100
AcDbLine
 62
7
  6
CONTINUOUS
 10
47.6393447689
 20
22.951259201
 11
54.699242303
 21
22.951259201
  0
LINE
  5
3C0
100
AcDbEntity
  8
IMPORT_IGES
100
AcDbLine
 62
7
  6
CONTINUOUS
 10
38.5610360646
 20
22.9621135227
 11
38.5243590646
 21
22.9621135227
  0
LINE
  5
3C1
100
AcDbEntity
  8
IMPORT_IGES
100
AcDbLine
 62
7
  6
CONTINUOUS
 10
37.5494276742
 20
22.9621135227
 11
36.9851250646
 21
22.9621135227
  0
LINE
  5
3C2
100
AcDbEntity
  8
IMPORT_IGES
100
AcDbLine
 62
7
  6
CONTINUOUS
 10
40.278746436
 20
22.9643031109
 11
39.9779590646
 21
22.9643031109
  0
LINE
  5
3C3
100
AcDbEntity
  8
IMPORT_IGES
100
AcDbLine
 62
7
  6
CONTINUOUS
 10
33.5035474967
 20
22.9645315439
 11
34.4597677943
 21
22.9645315439
  0
LINE
  5
3C4
100
AcDbEntity
  8
IMPORT_IGES
100
AcDbLine
 62
7
  6
CONTINUOUS
 10
34.7416950646
 20
22.9645315353
 11
35.7535830646
 21
22.9645315353
  0
LINE
  5
3C5
100
AcDbEntity
  8
IMPORT_IGES
100
AcDbLine
 62
7
  6
CONTINUOUS
 10
37.5746920646
 20
22.9645315353
 11
38.5243590646
 21
22.9645315353
  0
LINE
  5
3C6
100
AcDbEntity
  8
IMPORT_IGES
100
AcDbLine
 62
7
  6
CONTINUOUS
 10
38.6751180646
 20
22.9645315353
 11
39.6143350646
 21
22.9645315353
  0
LINE
  5
3C7
100
AcDbEntity
  8
IMPORT_IGES
100
AcDbLine
 62
7
  6
CONTINUOUS
 10
40.9531260646
 20
22.9645315353
 11
41.0877780646
 21
22.9645315353
  0
LINE
  5
3C8
100
AcDbEntity
  8
IMPORT_IGES
100
AcDbLine
 62
7
  6
CONTINUOUS
 10
43.8565880646
 20
22.9645315353
 11
44.8166710646
 21
22.9645315353
  0
LINE
  5
3C9
100
AcDbEntity
  8
IMPORT_IGES
100
AcDbLine
 62
7
  6
CONTINUOUS
 10
46.6514040646
 20
22.9645315353
 11
47.4974780646
 21
22.9645315353
  0
LINE
  5
3CA
100
AcDbEntity
  8
IMPORT_IGES
100
AcDbLine
 62
7
  6
CONTINUOUS
 10
52.1963710646
 20
22.965225999
 11
51.5786820646
 21
22.965225999
  0
LINE
  5
3CB
100
AcDbEntity
  8
IMPORT_IGES
100
AcDbLine
 62
7
  6
CONTINUOUS
 10
49.5258080646
 20
22.965225999
 11
48.9253080646
 21
22.965225999
  0
LINE
  5
3CC
100
AcDbEntity
  8
IMPORT_IGES
100
AcDbLine
 62
7
  6
CONTINUOUS
 10
45.5285600646
 20
22.965225999
 11
45.1149780646
 21
22.965225999
  0
LINE
  5
3CD
100
AcDbEntity
  8
IMPORT_IGES
100
AcDbLine
 62
7
  6
CONTINUOUS
 10
43.4026380646
 20
22.965225999
 11
42.4212570646
 21
22.9645315353
  0
LINE
  5
3CE
100
AcDbEntity
  8
IMPORT_IGES
100
AcDbLine
 62
7
  6
CONTINUOUS
 10
32.0333107635
 20
22.9645317846
 11
31.0488720646
 21
22.965225999
  0
LINE
  5
3CF
100
AcDbEntity
  8
IMPORT_IGES
100
AcDbLine
 62
7
  6
CONTINUOUS
 10
29.6942540646
 20
22.965225999
 11
29.2688550646
 21
22.965225999
  0
LINE
  5
3D0
100
AcDbEntity
  8
IMPORT_IGES
100
AcDbLine
 62
7
  6
CONTINUOUS
 10
27.8798620646
 20
22.965225999
 11
27.5232150646
 21
22.965225999
  0
LINE
  5
3D1
100
AcDbEntity
  8
IMPORT_IGES
100
AcDbLine
 62
7
  6
CONTINUOUS
 10
32.8791330431
 20
22.6804686502
 11
32.911250792
 21
22.6804686502
  0
LINE
  5
3D2
100
AcDbEntity
  8
IMPORT_IGES
100
AcDbLine
 62
7
  6
CONTINUOUS
 10
32.7827543824
 20
22.6809366452
 11
32.8149556443
 21
22.6809366452
  0
LINE
  5
3D3
100
AcDbEntity
  8
IMPORT_IGES
100
AcDbLine
 62
7
  6
CONTINUOUS
 10
33.4224425296
 20
22.6802584872
 11
33.0394596074
 21
22.680043895
  0
LINE
  5
3D4
100
AcDbEntity
  8
IMPORT_IGES
100
AcDbLine
 62
7
  6
CONTINUOUS
 10
33.5512352753
 20
22.6807562988
 11
33.5836196492
 21
22.6807562988
  0
LINE
  5
3D5
100
AcDbEntity
  8
IMPORT_IGES
100
AcDbLine
 62
7
  6
CONTINUOUS
 10
33.7471277814
 20
22.6817343209
 11
33.7804090081
 21
22.6817343209
  0
LINE
  5
3D6
100
AcDbEntity
  8
IMPORT_IGES
100
AcDbLine
 62
7
  6
CONTINUOUS
 10
33.1114115147
 20
22.7852813346
 11
32.9474106519
 21
22.7854548146
  0
LINE
  5
3D7
100
AcDbEntity
  8
IMPORT_IGES
100
AcDbLine
 62
7
  6
CONTINUOUS
 10
33.0394573633
 20
22.6800438875
 11
32.9433937247
 21
22.6802694871
  0
LINE
  5
3D8
100
AcDbEntity
  8
IMPORT_IGES
100
AcDbLine
 62
7
  6
CONTINUOUS
 10
33.3268702974
 20
22.730154403
 11
32.9433937247
 21
22.7304151069
  0
LINE
  5
3D9
100
AcDbEntity
  8
IMPORT_IGES
100
AcDbLine
 62
7
  6
CONTINUOUS
 10
33.5035474967
 20
22.8995296809
 11
32.939735304
 21
22.8996138568
  0
LINE
  5
3DA
100
AcDbEntity
  8
IMPORT_IGES
100
AcDbLine
 62
7
  6
CONTINUOUS
 10
32.7026894848
 20
22.9642810326
 11
32.9320090157
 21
22.964008148
  0
LINE
  5
3DB
100
AcDbEntity
  8
IMPORT_IGES
100
AcDbLine
 62
7
  6
CONTINUOUS
 10
32.9474106519
 20
22.7854548146
 11
32.7832436193
 21
22.7863843318
  0
LINE
  5
3DC
100
AcDbEntity
  8
IMPORT_IGES
100
AcDbLine
 62
7
  6
CONTINUOUS
 10
33.0583595562
 20
22.9632985815
 11
32.9320090157
 21
22.964008148
  0
LINE
  5
3DD
100
AcDbEntity
  8
IMPORT_IGES
100
AcDbLine
 62
7
  6
CONTINUOUS
 10
32.8470168734
 20
22.6806464646
 11
32.8791330431
 21
22.6804686502
  0
LINE
  5
3DE
100
AcDbEntity
  8
IMPORT_IGES
100
AcDbLine
 62
7
  6
CONTINUOUS
 10
32.9433960727
 20
22.7304150944
 11
32.6541349879
 21
22.7321042052
  0
LINE
  5
3DF
100
AcDbEntity
  8
IMPORT_IGES
100
AcDbLine
 62
7
  6
CONTINUOUS
 10
32.911250792
 20
22.6804686502
 11
32.9433960727
 21
22.6802695181
  0
LINE
  5
3E0
100
AcDbEntity
  8
IMPORT_IGES
100
AcDbLine
 62
7
  6
CONTINUOUS
 10
32.939735304
 20
22.8996138568
 11
32.8719928184
 21
22.9000807348
  0
LWPOLYLINE
  5
3E1
100
AcDbEntity
  8
IMPORT_IGES
100
AcDbPolyline
 62
7
  6
CONTINUOUS
 90
3
 70
0
 10
32.8149556443
 20
22.6809366452
 10
32.8363470386
 20
22.6807754338
 10
32.8470199016
 20
22.6806464646
  0
LINE
  5
3E2
100
AcDbEntity
  8
IMPORT_IGES
100
AcDbLine
 62
7
  6
CONTINUOUS
 10
32.6541349879
 20
22.7321042052
 11
32.4621035291
 21
22.7341611108
  0
LWPOLYLINE
  5
3E3
100
AcDbEntity
  8
IMPORT_IGES
100
AcDbPolyline
 62
7
  6
CONTINUOUS
 90
3
 70
0
 10
32.4621035291
 20
22.684027204
 10
32.7612190708
 20
22.6810977373
 10
32.7827543824
 20
22.6809366452
  0
LINE
  5
3E4
100
AcDbEntity
  8
IMPORT_IGES
100
AcDbLine
 62
7
  6
CONTINUOUS
 10
33.1788073152
 20
22.9620177408
 11
33.0583595562
 21
22.9632985815
  0
LINE
  5
3E5
100
AcDbEntity
  8
IMPORT_IGES
100
AcDbLine
 62
7
  6
CONTINUOUS
 10
32.7832436193
 20
22.7863843318
 11
32.708673446
 21
22.7872361323
  0
LINE
  5
3E6
100
AcDbEntity
  8
IMPORT_IGES
100
AcDbLine
 62
7
  6
CONTINUOUS
 10
32.8719928184
 20
22.9000807348
 11
32.815105989
 21
22.9007673341
  0
LINE
  5
3E7
100
AcDbEntity
  8
IMPORT_IGES
100
AcDbLine
 62
7
  6
CONTINUOUS
 10
32.2736155277
 20
22.6870788159
 11
32.4621035291
 21
22.684027204
  0
LINE
  5
3E8
100
AcDbEntity
  8
IMPORT_IGES
100
AcDbLine
 62
7
  6
CONTINUOUS
 10
32.4621035291
 20
22.7341611108
 11
32.2736155277
 21
22.7372111896
  0
LINE
  5
3E9
100
AcDbEntity
  8
IMPORT_IGES
100
AcDbLine
 62
7
  6
CONTINUOUS
 10
33.2527531208
 20
22.9608013827
 11
33.1788073152
 21
22.9620177408
  0
LINE
  5
3EA
100
AcDbEntity
  8
IMPORT_IGES
100
AcDbLine
 62
7
  6
CONTINUOUS
 10
32.7601497809
 20
22.9017289202
 11
32.815105989
 21
22.9007673341
  0
LINE
  5
3EB
100
AcDbEntity
  8
IMPORT_IGES
100
AcDbLine
 62
7
  6
CONTINUOUS
 10
32.6371791245
 20
22.7885877612
 11
32.708673446
 21
22.7872361323
  0
LINE
  5
3EC
100
AcDbEntity
  8
IMPORT_IGES
100
AcDbLine
 62
7
  6
CONTINUOUS
 10
33.3203062528
 20
22.9593161082
 11
33.2527531208
 21
22.9608013827
  0
LINE
  5
3ED
100
AcDbEntity
  8
IMPORT_IGES
100
AcDbLine
 62
7
  6
CONTINUOUS
 10
32.0894205493
 20
22.6911730805
 11
32.2736155277
 21
22.6870788159
  0
LINE
  5
3EE
100
AcDbEntity
  8
IMPORT_IGES
100
AcDbLine
 62
7
  6
CONTINUOUS
 10
32.2736155277
 20
22.7372111896
 11
32.0894205493
 21
22.7413033972
  0
LINE
  5
3EF
100
AcDbEntity
  8
IMPORT_IGES
100
AcDbLine
 62
7
  6
CONTINUOUS
 10
32.708217194
 20
22.9029522406
 11
32.7601497809
 21
22.9017289202
  0
LINE
  5
3F0
100
AcDbEntity
  8
IMPORT_IGES
100
AcDbLine
 62
7
  6
CONTINUOUS
 10
35.8691484614
 20
22.9584719395
 11
35.8042288322
 21
22.9600932359
  0
LINE
  5
3F1
100
AcDbEntity
  8
IMPORT_IGES
100
AcDbLine
 62
7
  6
CONTINUOUS
 10
32.5690362242
 20
22.7904280778
 11
32.6371791245
 21
22.7885877612
  0
LINE
  5
3F2
100
AcDbEntity
  8
IMPORT_IGES
100
AcDbLine
 62
7
  6
CONTINUOUS
 10
33.3829790844
 20
22.9575617443
 11
33.3203062528
 21
22.9593161082
  0
LINE
  5
3F3
100
AcDbEntity
  8
IMPORT_IGES
100
AcDbLine
 62
7
  6
CONTINUOUS
 10
32.0128120343
 20
22.6936332027
 11
32.0894205493
 21
22.6911730805
  0
LINE
  5
3F4
100
AcDbEntity
  8
IMPORT_IGES
100
AcDbLine
 62
7
  6
CONTINUOUS
 10
32.0894205493
 20
22.7413033972
 11
32.0128120343
 21
22.7437622836
  0
LINE
  5
3F5
100
AcDbEntity
  8
IMPORT_IGES
100
AcDbLine
 62
7
  6
CONTINUOUS
 10
32.6597829463
 20
22.9044212691
 11
32.708217194
 21
22.9029522406
  0
LINE
  5
3F6
100
AcDbEntity
  8
IMPORT_IGES
100
AcDbLine
 62
7
  6
CONTINUOUS
 10
33.4126193201
 20
22.9565811093
 11
33.3829790844
 21
22.9575617443
  0
LINE
  5
3F7
100
AcDbEntity
  8
IMPORT_IGES
100
AcDbLine
 62
7
  6
CONTINUOUS
 10
35.9295741983
 20
22.9565807846
 11
35.8691484614
 21
22.9584719395
  0
LINE
  5
3F8
100
AcDbEntity
  8
IMPORT_IGES
100
AcDbLine
 62
7
  6
CONTINUOUS
 10
32.536522366
 20
22.7915216155
 11
32.5690362242
 21
22.7904280778
  0
LINE
  5
3F9
100
AcDbEntity
  8
IMPORT_IGES
100
AcDbLine
 62
7
  6
CONTINUOUS
 10
32.5050760042
 20
22.7927295418
 11
32.536522366
 21
22.7915216155
  0
LINE
  5
3FA
100
AcDbEntity
  8
IMPORT_IGES
100
AcDbLine
 62
7
  6
CONTINUOUS
 10
31.9393475881
 20
22.6964686195
 11
32.0128120343
 21
22.6936332027
  0
LINE
  5
3FB
100
AcDbEntity
  8
IMPORT_IGES
100
AcDbLine
 62
7
  6
CONTINUOUS
 10
32.0128120343
 20
22.7437622836
 11
31.9393475881
 21
22.7465962761
  0
LINE
  5
3FC
100
AcDbEntity
  8
IMPORT_IGES
100
AcDbLine
 62
7
  6
CONTINUOUS
 10
32.6152726378
 20
22.9061027229
 11
32.6597829463
 21
22.9044212691
  0
LINE
  5
3FD
100
AcDbEntity
  8
IMPORT_IGES
100
AcDbLine
 62
7
  6
CONTINUOUS
 10
32.4751036665
 20
22.7940444864
 11
32.5050760042
 21
22.7927295418
  0
LINE
  5
3FE
100
AcDbEntity
  8
IMPORT_IGES
100
AcDbLine
 62
7
  6
CONTINUOUS
 10
32.5945378532
 20
22.9070157779
 11
32.6152726378
 21
22.9061027229
  0
LINE
  5
3FF
100
AcDbEntity
  8
IMPORT_IGES
100
AcDbLine
 62
7
  6
CONTINUOUS
 10
31.8690272108
 20
22.6996728996
 11
31.9393475881
 21
22.6964686195
  0
LINE
  5
400
100
AcDbEntity
  8
IMPORT_IGES
100
AcDbLine
 62
7
  6
CONTINUOUS
 10
31.9393475881
 20
22.7465962761
 11
31.8690272108
 21
22.7497989468
  0
LINE
  5
401
100
AcDbEntity
  8
IMPORT_IGES
100
AcDbLine
 62
7
  6
CONTINUOUS
 10
32.5748733751
 20
22.9079739023
 11
32.5945378532
 21
22.9070157779
  0
LINE
  5
402
100
AcDbEntity
  8
IMPORT_IGES
100
AcDbLine
 62
7
  6
CONTINUOUS
 10
32.4466252623
 20
22.7954680339
 11
32.4751036665
 21
22.7940444864
  0
LINE
  5
403
100
AcDbEntity
  8
IMPORT_IGES
100
AcDbLine
 62
7
  6
CONTINUOUS
 10
31.8013036828
 20
22.7032900862
 11
31.8690272108
 21
22.6996728996
  0
LINE
  5
404
100
AcDbEntity
  8
IMPORT_IGES
100
AcDbLine
 62
7
  6
CONTINUOUS
 10
31.8690272108
 20
22.7497989468
 11
31.8013036828
 21
22.7534143166
  0
LINE
  5
405
100
AcDbEntity
  8
IMPORT_IGES
100
AcDbLine
 62
7
  6
CONTINUOUS
 10
32.556245196
 20
22.9089764946
 11
32.5748733751
 21
22.9079739023
  0
LINE
  5
406
100
AcDbEntity
  8
IMPORT_IGES
100
AcDbLine
 62
7
  6
CONTINUOUS
 10
32.4196208821
 20
22.796996394
 11
32.4466252623
 21
22.7954680339
  0
LINE
  5
407
100
AcDbEntity
  8
IMPORT_IGES
100
AcDbLine
 62
7
  6
CONTINUOUS
 10
32.53861945
 20
22.9100172866
 11
32.556245196
 21
22.9089764946
  0
LINE
  5
408
100
AcDbEntity
  8
IMPORT_IGES
100
AcDbLine
 62
7
  6
CONTINUOUS
 10
31.7367242237
 20
22.7072598142
 11
31.8013036828
 21
22.7032900862
  0
LINE
  5
409
100
AcDbEntity
  8
IMPORT_IGES
100
AcDbLine
 62
7
  6
CONTINUOUS
 10
31.8013036828
 20
22.7534143166
 11
31.7367242237
 21
22.7573820509
  0
LINE
  5
40A
100
AcDbEntity
  8
IMPORT_IGES
100
AcDbLine
 62
7
  6
CONTINUOUS
 10
32.3944373254
 20
22.7986142151
 11
32.4196208821
 21
22.796996394
  0
LINE
  5
40B
100
AcDbEntity
  8
IMPORT_IGES
100
AcDbLine
 62
7
  6
CONTINUOUS
 10
32.5220113396
 20
22.9110943102
 11
32.53861945
 21
22.9100172866
  0
LINE
  5
40C
100
AcDbEntity
  8
IMPORT_IGES
100
AcDbLine
 62
7
  6
CONTINUOUS
 10
31.676930492
 20
22.7114214057
 11
31.7367242237
 21
22.7072598142
  0
LINE
  5
40D
100
AcDbEntity
  8
IMPORT_IGES
100
AcDbLine
 62
7
  6
CONTINUOUS
 10
31.7367242237
 20
22.7573820509
 11
31.676930492
 21
22.7615415526
  0
LINE
  5
40E
100
AcDbEntity
  8
IMPORT_IGES
100
AcDbLine
 62
7
  6
CONTINUOUS
 10
32.5064056624
 20
22.9122080298
 11
32.5220113396
 21
22.9110943102
  0
LINE
  5
40F
100
AcDbEntity
  8
IMPORT_IGES
100
AcDbLine
 62
7
  6
CONTINUOUS
 10
32.3711735925
 20
22.800324044
 11
32.3944373254
 21
22.7986142151
  0
LINE
  5
410
100
AcDbEntity
  8
IMPORT_IGES
100
AcDbLine
 62
7
  6
CONTINUOUS
 10
32.4917229456
 20
22.9133559004
 11
32.5064056624
 21
22.9122080298
  0
LINE
  5
411
100
AcDbEntity
  8
IMPORT_IGES
100
AcDbLine
 62
7
  6
CONTINUOUS
 10
31.6223468813
 20
22.7157536869
 11
31.676930492
 21
22.7114214057
  0
LINE
  5
412
100
AcDbEntity
  8
IMPORT_IGES
100
AcDbLine
 62
7
  6
CONTINUOUS
 10
31.676930492
 20
22.7615415526
 11
31.6223468813
 21
22.7658716584
  0
LINE
  5
413
100
AcDbEntity
  8
IMPORT_IGES
100
AcDbLine
 62
7
  6
CONTINUOUS
 10
32.3497306831
 20
22.8021209619
 11
32.3711735925
 21
22.800324044
  0
LINE
  5
414
100
AcDbEntity
  8
IMPORT_IGES
100
AcDbLine
 62
7
  6
CONTINUOUS
 10
32.4779366982
 20
22.9145365445
 11
32.4917229456
 21
22.9133559004
  0
LINE
  5
415
100
AcDbEntity
  8
IMPORT_IGES
100
AcDbLine
 62
7
  6
CONTINUOUS
 10
32.4650734111
 20
22.9157497159
 11
32.4779366982
 21
22.9145365445
  0
LINE
  5
416
100
AcDbEntity
  8
IMPORT_IGES
100
AcDbLine
 62
7
  6
CONTINUOUS
 10
32.3301583951
 20
22.8039788133
 11
32.3497306831
 21
22.8021209619
  0
LINE
  5
417
100
AcDbEntity
  8
IMPORT_IGES
100
AcDbLine
 62
7
  6
CONTINUOUS
 10
32.4531330844
 20
22.9169945561
 11
32.4650734111
 21
22.9157497159
  0
LINE
  5
418
100
AcDbEntity
  8
IMPORT_IGES
100
AcDbLine
 62
7
  6
CONTINUOUS
 10
31.1101885465
 20
22.9145123265
 11
31.1461768015
 21
22.9107019786
  0
LINE
  5
419
100
AcDbEntity
  8
IMPORT_IGES
100
AcDbLine
 62
7
  6
CONTINUOUS
 10
32.3124573538
 20
22.8058956608
 11
32.3301583951
 21
22.8039788133
  0
LINE
  5
41A
100
AcDbEntity
  8
IMPORT_IGES
100
AcDbLine
 62
7
  6
CONTINUOUS
 10
31.5724609653
 20
22.9053025167
 11
31.5557695794
 21
22.907127347
  0
LINE
  5
41B
100
AcDbEntity
  8
IMPORT_IGES
100
AcDbLine
 62
7
  6
CONTINUOUS
 10
31.1461768015
 20
22.9107019786
 11
31.1817770028
 21
22.9067462787
  0
LINE
  5
41C
100
AcDbEntity
  8
IMPORT_IGES
100
AcDbLine
 62
7
  6
CONTINUOUS
 10
31.5557695794
 20
22.907127347
 11
31.5399209649
 21
22.9089799242
  0
LINE
  5
41D
100
AcDbEntity
  8
IMPORT_IGES
100
AcDbLine
 62
7
  6
CONTINUOUS
 10
31.1817770028
 20
22.9067462787
 11
31.2170662237
 21
22.9026441465
  0
LINE
  5
41E
100
AcDbEntity
  8
IMPORT_IGES
100
AcDbLine
 62
7
  6
CONTINUOUS
 10
31.2171800159
 20
22.9026441465
 11
31.2492015202
 21
22.8987218582
  0
LINE
  5
41F
100
AcDbEntity
  8
IMPORT_IGES
100
AcDbLine
 62
7
  6
CONTINUOUS
 10
32.2966269338
 20
22.8078714724
 11
32.3124573538
 21
22.8058956608
  0
LWPOLYLINE
  5
420
100
AcDbEntity
  8
IMPORT_IGES
100
AcDbPolyline
 62
7
  6
CONTINUOUS
 90
3
 70
0
 10
31.2492015202
 20
22.8987218582
 10
31.2808981654
 20
22.8946900693
 10
31.288786297
 20
22.8936634631
  0
LINE
  5
421
100
AcDbEntity
  8
IMPORT_IGES
100
AcDbLine
 62
7
  6
CONTINUOUS
 10
31.5245620311
 20
22.9108704726
 11
31.5097263638
 21
22.912796151
  0
LINE
  5
422
100
AcDbEntity
  8
IMPORT_IGES
100
AcDbLine
 62
7
  6
CONTINUOUS
 10
31.3252029906
 20
22.8888424531
 11
31.3925900515
 21
22.8795766323
  0
LINE
  5
423
100
AcDbEntity
  8
IMPORT_IGES
100
AcDbLine
 62
7
  6
CONTINUOUS
 10
31.5097263638
 20
22.912796151
 11
31.4810702237
 21
22.9167632892
  0
LINE
  5
424
100
AcDbEntity
  8
IMPORT_IGES
100
AcDbLine
 62
7
  6
CONTINUOUS
 10
32.2827150573
 20
22.809883565
 11
32.2966269338
 21
22.8078714724
  0
LINE
  5
425
100
AcDbEntity
  8
IMPORT_IGES
100
AcDbLine
 62
7
  6
CONTINUOUS
 10
31.4810702237
 20
22.9167632892
 11
31.4522548502
 21
22.9209176566
  0
LINE
  5
426
100
AcDbEntity
  8
IMPORT_IGES
100
AcDbLine
 62
7
  6
CONTINUOUS
 10
31.3925900515
 20
22.8795766323
 11
31.4324520074
 21
22.873820429
  0
LINE
  5
427
100
AcDbEntity
  8
IMPORT_IGES
100
AcDbLine
 62
7
  6
CONTINUOUS
 10
31.4324520074
 20
22.873820429
 11
31.4522510072
 21
22.8708781807
  0
LINE
  5
428
100
AcDbEntity
  8
IMPORT_IGES
100
AcDbLine
 62
7
  6
CONTINUOUS
 10
32.2706904167
 20
22.8119295641
 11
32.2827150573
 21
22.809883565
  0
LINE
  5
429
100
AcDbEntity
  8
IMPORT_IGES
100
AcDbLine
 62
7
  6
CONTINUOUS
 10
32.2605843195
 20
22.8140103897
 11
32.2706904167
 21
22.8119295641
  0
LWPOLYLINE
  5
42A
100
AcDbEntity
  8
IMPORT_IGES
100
AcDbPolyline
 62
7
  6
CONTINUOUS
 90
10
 70
0
 10
31.1101885465
 20
22.9645327271
 10
31.123204444
 20
22.9617672735
 10
31.1362541225
 20
22.9596763433
 10
31.1493375821
 20
22.9582599364
 10
31.1624543793
 20
22.9579859759
 10
31.1756049575
 20
22.9583865387
 10
31.188790647
 20
22.9580578565
 10
31.2020118913
 20
22.9565320063
 10
31.2152682469
 20
22.954276911
 10
31.2285597139
 20
22.9512925705
  0
LINE
  5
42B
100
AcDbEntity
  8
IMPORT_IGES
100
AcDbLine
 62
7
  6
CONTINUOUS
 10
32.2605843195
 20
22.8140103897
 11
32.252538611
 21
22.8161088797
  0
LINE
  5
42C
100
AcDbEntity
  8
IMPORT_IGES
100
AcDbLine
 62
7
  6
CONTINUOUS
 10
32.252538611
 20
22.8161088797
 11
32.2466005726
 21
22.8182191043
  0
LINE
  5
42D
100
AcDbEntity
  8
IMPORT_IGES
100
AcDbLine
 62
7
  6
CONTINUOUS
 10
40.3340782794
 20
22.9562307475
 11
40.3225504716
 21
22.9573541962
  0
LINE
  5
42E
100
AcDbEntity
  8
IMPORT_IGES
100
AcDbLine
 62
7
  6
CONTINUOUS
 10
40.3126446519
 20
22.958488552
 11
40.3225504716
 21
22.9573541962
  0
LINE
  5
42F
100
AcDbEntity
  8
IMPORT_IGES
100
AcDbLine
 62
7
  6
CONTINUOUS
 10
40.3042073716
 20
22.9596341417
 11
40.3126446519
 21
22.958488552
  0
LINE
  5
430
100
AcDbEntity
  8
IMPORT_IGES
100
AcDbLine
 62
7
  6
CONTINUOUS
 10
40.2966570663
 20
22.9607895176
 11
40.3042073716
 21
22.9596341417
  0
LINE
  5
431
100
AcDbEntity
  8
IMPORT_IGES
100
AcDbLine
 62
253
  6
CONTINUOUS
 10
-36.3707047196
 20
22.5950402359
 11
-36.3714604075
 21
22.5948143918
  0
LINE
  5
432
100
AcDbEntity
  8
IMPORT_IGES
100
AcDbLine
 62
7
  6
CONTINUOUS
 10
-37.9649985102
 20
21.9698130659
 11
-37.9652510917
 21
21.9696158257
  0
LWPOLYLINE
  5
433
100
AcDbEntity
  8
IMPORT_IGES
100
AcDbPolyline
 62
253
  6
CONTINUOUS
 90
10
 70
0
 10
-37.7833513394
 20
21.733496428
 10
-37.6412998573
 20
21.8372332543
 10
-37.4944645414
 20
21.9308583972
 10
-37.3428453918
 20
22.0143718568
 10
-37.1860960499
 20
22.0879480341
 10
-37.0245628743
 20
22.151412528
 10
-36.8592849406
 20
22.2042421357
 10
-36.6906086074
 20
22.2462624559
 10
-36.5181875162
 20
22.2776478899
 10
-36.342021667
 20
22.2983984376
  0
LWPOLYLINE
  5
434
100
AcDbEntity
  8
IMPORT_IGES
100
AcDbPolyline
 62
253
  6
CONTINUOUS
 90
22
 70
0
 10
-37.1642030951
 20
20.9477406415
 10
-37.9152523831
 20
20.3389443088
 10
-38.641998336
 20
19.7052226705
 10
-39.3444409539
 20
19.0465757265
 10
-40.0234196868
 20
18.3620915726
 10
-40.6780950846
 20
17.6526821131
 10
-41.3059487975
 20
16.9210830604
 10
-41.9068894985
 20
16.1671953912
 10
-42.4810085146
 20
15.3911181288
 10
-43.026061476
 20
14.5958840553
 10
-43.5419344631
 20
13.7814180686
 10
-44.0287413956
 20
12.9477952708
 10
-44.4845796625
 20
12.0982737499
 10
-44.9093278697
 20
11.2327912036
 10
-45.3031074113
 20
10.3514099342
 10
-45.6643798583
 20
9.4575749375
 10
-45.9930175224
 20
8.5512386804
 10
-46.2891480919
 20
7.632448696
 10
-46.551616203
 20
6.7047925793
 10
-46.7800367344
 20
5.7694661955
 10
-46.9747948074
 20
4.8252736795
 10
-47.135890422
 20
3.8722150312
  0
LWPOLYLINE
  5
435
100
AcDbEntity
  8
IMPORT_IGES
100
AcDbPolyline
 62
253
  6
CONTINUOUS
 90
10
 70
0
 10
-37.1642030951
 20
20.9477406415
 10
-37.0755685799
 20
21.0125420633
 10
-36.9837066062
 20
21.0711006133
 10
-36.8886171742
 20
21.1234162914
 10
-36.7898551801
 20
21.1696579123
 10
-36.6878657276
 20
21.2096566613
 10
-36.5839841277
 20
21.2429060952
 10
-36.478655484
 20
21.2692373995
 10
-36.3714346928
 20
21.2888193886
 10
-36.2623217542
 20
21.3016520625
  0
LWPOLYLINE
  5
436
100
AcDbEntity
  8
IMPORT_IGES
100
AcDbPolyline
 62
253
  6
CONTINUOUS
 90
10
 70
0
 10
-36.8574582561
 20
20.5526289308
 10
-36.7947210106
 20
20.5983779575
 10
-36.7297404312
 20
20.6397212701
 10
-36.6625165179
 20
20.6766588686
 10
-36.592752238
 20
20.7093073884
 10
-36.5207446242
 20
20.737550194
 10
-36.4473847747
 20
20.7610373792
 10
-36.3729697221
 20
20.7796523085
 10
-36.2972024338
 20
20.7935116174
 10
-36.2200829098
 20
20.8026153058
  0
LINE
  5
437
100
AcDbEntity
  8
IMPORT_IGES
100
AcDbLine
 62
253
  6
CONTINUOUS
 10
-30.4319218752
 20
-40.298740799
 11
-25.4319218752
 21
-40.298740799
  0
LINE
  5
438
100
AcDbEntity
  8
IMPORT_IGES
100
AcDbLine
 62
253
  6
CONTINUOUS
 10
-43.4319218752
 20
-39.798740799
 11
-38.4319218752
 21
-39.798740799
  0
LINE
  5
439
100
AcDbEntity
  8
IMPORT_IGES
100
AcDbLine
 62
253
  6
CONTINUOUS
 10
-17.4319218752
 20
-39.798740799
 11
-12.4319218752
 21
-39.798740799
  0
LINE
  5
43A
100
AcDbEntity
  8
IMPORT_IGES
100
AcDbLine
 62
7
  6
CONTINUOUS
 10
-12.4319218752
 20
-33.798740799
 11
-17.4319218752
 21
-33.798740799
  0
LINE
  5
43B
100
AcDbEntity
  8
IMPORT_IGES
100
AcDbLine
 62
7
  6
CONTINUOUS
 10
-38.4319218752
 20
-33.798740799
 11
-43.4319218752
 21
-33.798740799
  0
LINE
  5
43C
100
AcDbEntity
  8
IMPORT_IGES
100
AcDbLine
 62
7
  6
CONTINUOUS
 10
-43.3319218752
 20
-33.698740799
 11
-38.5319218752
 21
-33.698740799
  0
LINE
  5
43D
100
AcDbEntity
  8
IMPORT_IGES
100
AcDbLine
 62
7
  6
CONTINUOUS
 10
-17.3319218752
 20
-33.698740799
 11
-12.5319218752
 21
-33.698740799
  0
LINE
  5
43E
100
AcDbEntity
  8
IMPORT_IGES
100
AcDbLine
 62
7
  6
CONTINUOUS
 10
-38.5319218752
 20
-33.698740799
 11
-38.4319218752
 21
-33.798740799
  0
LINE
  5
43F
100
AcDbEntity
  8
IMPORT_IGES
100
AcDbLine
 62
253
  6
CONTINUOUS
 10
-48.7257635758
 20
-0.6851349587
 11
-48.6916717675
 21
-1.7698074983
  0
LINE
  5
440
100
AcDbEntity
  8
IMPORT_IGES
100
AcDbLine
 62
7
  6
CONTINUOUS
 10
-48.7257806128
 20
-0.6851476352
 11
-48.2726016797
 21
-22.3196839485
  0
LWPOLYLINE
  5
441
100
AcDbEntity
  8
IMPORT_IGES
100
AcDbPolyline
 62
253
  6
CONTINUOUS
 90
10
 70
0
 10
-48.6201944813
 20
-2.5850569038
 10
-48.6201806009
 20
-2.5878450971
 10
-48.620138919
 20
-2.5906345678
 10
-48.6200693887
 20
-2.5934250563
 10
-48.619971938
 20
-2.5962169899
 10
-48.6198465388
 20
-2.5990094188
 10
-48.6196932753
 20
-2.6018000193
 10
-48.6195122207
 20
-2.6045878456
 10
-48.6193033683
 20
-2.6073733267
 10
-48.6190667483
 20
-2.6101562045
  0
LWPOLYLINE
  5
442
100
AcDbEntity
  8
IMPORT_IGES
100
AcDbPolyline
 62
253
  6
CONTINUOUS
 90
10
 70
0
 10
-48.4317219307
 20
0.0012592215
 10
-48.430944808
 20
0.1286704298
 10
-48.4295817513
 20
0.2560713532
 10
-48.4276327608
 20
0.3834619917
 10
-48.4250977695
 20
0.510845067
 10
-48.4219768444
 20
0.6382178574
 10
-48.418270186
 20
0.7655721976
 10
-48.4139778611
 20
0.8929053658
 10
-48.4090998029
 20
1.0202200839
 10
-48.4036360114
 20
1.1475163517
  0
LWPOLYLINE
  5
443
100
AcDbEntity
  8
IMPORT_IGES
100
AcDbPolyline
 62
253
  6
CONTINUOUS
 90
10
 70
0
 10
-48.5361742158
 20
3.1897148806
 10
-48.5361499185
 20
3.1934037591
 10
-48.5360769464
 20
3.1970946433
 10
-48.5359551927
 20
3.2007869309
 10
-48.535784496
 20
3.2044812099
 10
-48.5355647969
 20
3.2081756778
 10
-48.5352962964
 20
3.2118661516
 10
-48.5349791721
 20
3.2155508414
 10
-48.5346134202
 20
3.2192303405
 10
-48.5341991236
 20
3.2229040517
  0
LWPOLYLINE
  5
444
100
AcDbEntity
  8
IMPORT_IGES
100
AcDbPolyline
 62
253
  6
CONTINUOUS
 90
3
 70
0
 10
-48.5361760516
 20
-3.3871962309
 10
-48.5345173882
 20
-3.3567463792
 10
-48.5296257879
 20
-3.3269065558
  0
LWPOLYLINE
  5
445
100
AcDbEntity
  8
IMPORT_IGES
100
AcDbPolyline
 62
253
  6
CONTINUOUS
 90
4
 70
0
 10
-48.4036657283
 20
1.1475163517
 10
-48.3945112487
 20
1.2904567412
 10
-48.3896283461
 20
1.3609053728
 10
-48.3844896671
 20
1.4302101064
  0
LWPOLYLINE
  5
446
100
AcDbEntity
  8
IMPORT_IGES
100
AcDbPolyline
 62
253
  6
CONTINUOUS
 90
3
 70
0
 10
-48.3844896671
 20
1.4302101064
 10
-48.3737569876
 20
1.5638119602
 10
-48.3683194699
 20
1.6273161421
  0
LWPOLYLINE
  5
447
100
AcDbEntity
  8
IMPORT_IGES
100
AcDbPolyline
 62
253
  6
CONTINUOUS
 90
10
 70
0
 10
-48.6190649634
 20
2.4126741805
 10
-48.619301866
 20
2.4098877247
 10
-48.6195107907
 20
2.4071006445
 10
-48.6196917667
 20
2.404313203
 10
-48.6198447885
 20
2.4015264105
 10
-48.6199699427
 20
2.3987397814
 10
-48.6200673337
 20
2.3959513311
 10
-48.620136949
 20
2.3931605686
 10
-48.6201787339
 20
2.3903685007
 10
-48.6201926658
 20
2.3875753865
  0
LINE
  5
448
100
AcDbEntity
  8
IMPORT_IGES
100
AcDbLine
 62
253
  6
CONTINUOUS
 10
-48.2189340797
 20
3.101012662
 11
-48.2363180645
 21
2.8975376499
  0
LINE
  5
449
100
AcDbEntity
  8
IMPORT_IGES
100
AcDbLine
 62
253
  6
CONTINUOUS
 10
-48.3683194699
 20
1.6273161421
 11
-48.357455689
 21
1.7462409676
  0
LINE
  5
44A
100
AcDbEntity
  8
IMPORT_IGES
100
AcDbLine
 62
253
  6
CONTINUOUS
 10
-48.1870717124
 20
3.4534366729
 11
-48.2189340797
 21
3.101012662
  0
LINE
  5
44B
100
AcDbEntity
  8
IMPORT_IGES
100
AcDbLine
 62
253
  6
CONTINUOUS
 10
-48.3202741659
 20
2.0959888361
 11
-48.3036543036
 21
2.2741247512
  0
LINE
  5
44C
100
AcDbEntity
  8
IMPORT_IGES
100
AcDbLine
 62
253
  6
CONTINUOUS
 10
-48.1609949434
 20
3.7243883752
 11
-48.1870717124
 21
3.4534366729
  0
LINE
  5
44D
100
AcDbEntity
  8
IMPORT_IGES
100
AcDbLine
 62
253
  6
CONTINUOUS
 10
-47.2988258055
 20
2.2741258291
 11
-47.3160755082
 21
2.0959888361
  0
LINE
  5
44E
100
AcDbEntity
  8
IMPORT_IGES
100
AcDbLine
 62
253
  6
CONTINUOUS
 10
-47.1966422593
 20
3.2556419885
 11
-47.1650221101
 21
3.5829097337
  0
LWPOLYLINE
  5
44F
100
AcDbEntity
  8
IMPORT_IGES
100
AcDbPolyline
 62
253
  6
CONTINUOUS
 90
3
 70
0
 10
-47.349183575
 20
1.8010439926
 10
-47.3546487996
 20
1.7462421432
 10
-47.3659189161
 20
1.6272725677
  0
LINE
  5
450
100
AcDbEntity
  8
IMPORT_IGES
100
AcDbLine
 62
253
  6
CONTINUOUS
 10
-48.357455689
 20
1.7462409676
 11
-48.3470114886
 21
1.852517292
  0
LINE
  5
451
100
AcDbEntity
  8
IMPORT_IGES
100
AcDbLine
 62
253
  6
CONTINUOUS
 10
-48.146197427
 20
3.8721899882
 11
-48.1609949434
 21
3.7243883752
  0
LINE
  5
452
100
AcDbEntity
  8
IMPORT_IGES
100
AcDbLine
 62
253
  6
CONTINUOUS
 10
-48.3036543036
 20
2.2741247512
 11
-48.2858703218
 21
2.4522529932
  0
LINE
  5
453
100
AcDbEntity
  8
IMPORT_IGES
100
AcDbLine
 62
253
  6
CONTINUOUS
 10
-47.1650221101
 20
3.5829097337
 11
-47.1357986755
 21
3.8721899882
  0
LINE
  5
454
100
AcDbEntity
  8
IMPORT_IGES
100
AcDbLine
 62
253
  6
CONTINUOUS
 10
-47.2803679765
 20
2.4522545468
 11
-47.2988258055
 21
2.2741258291
  0
LINE
  5
455
100
AcDbEntity
  8
IMPORT_IGES
100
AcDbLine
 62
253
  6
CONTINUOUS
 10
-48.3470114886
 20
1.852517292
 11
-48.3374931324
 21
1.9439434641
  0
LINE
  5
456
100
AcDbEntity
  8
IMPORT_IGES
100
AcDbLine
 62
253
  6
CONTINUOUS
 10
-48.2858703218
 20
2.4522529932
 11
-48.2669222419
 21
2.6303733575
  0
LWPOLYLINE
  5
457
100
AcDbEntity
  8
IMPORT_IGES
100
AcDbPolyline
 62
253
  6
CONTINUOUS
 90
3
 70
0
 10
-47.3339597831
 20
1.9438079178
 10
-47.3387582744
 20
1.9000312197
 10
-47.349183575
 20
1.8010439926
  0
LWPOLYLINE
  5
458
100
AcDbEntity
  8
IMPORT_IGES
100
AcDbPolyline
 62
253
  6
CONTINUOUS
 90
4
 70
0
 10
-48.3374931324
 20
1.9439434641
 10
-48.3258085014
 20
2.0491842803
 10
-48.322823179
 20
2.0750124199
 10
-48.3202744336
 20
2.095988731
  0
LINE
  5
459
100
AcDbEntity
  8
IMPORT_IGES
100
AcDbLine
 62
253
  6
CONTINUOUS
 10
-47.2607020445
 20
2.6303747753
 11
-47.2803679765
 21
2.4522545468
  0
LWPOLYLINE
  5
45A
100
AcDbEntity
  8
IMPORT_IGES
100
AcDbPolyline
 62
253
  6
CONTINUOUS
 90
3
 70
0
 10
-48.2669222419
 20
2.6303733575
 10
-48.2468101493
 20
2.8084850257
 10
-48.2363175929
 20
2.8975376499
  0
LWPOLYLINE
  5
45B
100
AcDbEntity
  8
IMPORT_IGES
100
AcDbPolyline
 62
253
  6
CONTINUOUS
 90
3
 70
0
 10
-47.228938121
 20
2.8975376499
 10
-47.239828102
 20
2.8084856589
 10
-47.2607020445
 20
2.6303747753
  0
LWPOLYLINE
  5
45C
100
AcDbEntity
  8
IMPORT_IGES
100
AcDbPolyline
 62
253
  6
CONTINUOUS
 90
4
 70
0
 10
-47.3160755164
 20
2.095988731
 10
-47.3187208797
 20
2.0750135569
 10
-47.3218202816
 20
2.0491791544
 10
-47.3339597831
 20
1.9438079178
  0
LWPOLYLINE
  5
45D
100
AcDbEntity
  8
IMPORT_IGES
100
AcDbPolyline
 62
253
  6
CONTINUOUS
 90
22
 70
0
 10
-48.1461948654
 20
3.8722150312
 10
-47.9832096448
 20
4.8688502001
 10
-47.7847613575
 20
5.8563284516
 10
-47.5508500037
 20
6.8346497857
 10
-47.2810726685
 20
7.8050847179
 10
-46.9758322668
 20
8.7663627326
 10
-46.636337543
 20
9.7146722837
 10
-46.2624523671
 20
10.6499615689
 10
-45.8543128692
 20
11.5722823904
 10
-45.4135361838
 20
12.4779786081
 10
-44.9399925597
 20
13.36698415
 10
-44.4338117481
 20
14.2393650881
 10
-43.8970001372
 20
15.0916634982
 10
-43.32943597
 20
15.9237995309
 10
-42.7312410036
 20
16.7358530356
 10
-42.1047868976
 20
17.5246056364
 10
-41.4499016985
 20
18.2900167293
 10
-40.7667573599
 20
19.0321269182
 10
-40.0582414025
 20
19.747839639
 10
-39.3253163335
 20
20.4361227035
 10
-38.5670196458
 20
21.0980082998
 10
-37.7833513394
 20
21.733496428
  0
LWPOLYLINE
  5
45E
100
AcDbEntity
  8
IMPORT_IGES
100
AcDbPolyline
 62
253
  6
CONTINUOUS
 90
3
 70
0
 10
-48.6131103927
 20
-2.5224050036
 10
-48.6184055292
 20
-2.5534434297
 10
-48.6201944813
 20
-2.5850569038
  0
LWPOLYLINE
  5
45F
100
AcDbEntity
  8
IMPORT_IGES
100
AcDbPolyline
 62
253
  6
CONTINUOUS
 90
14
 70
0
 10
-48.5296257879
 20
-3.3269065558
 10
-48.5216515974
 20
-3.2979862002
 10
-48.5108509728
 20
-3.2704393275
 10
-48.497384686
 20
-3.2443352677
 10
-48.4811414252
 20
-3.2194394496
 10
-48.4620999931
 20
-3.195911511
 10
-48.4404893997
 20
-3.1742024464
 10
-48.4164663227
 20
-3.1545855645
 10
-48.3902078173
 20
-3.1373225358
 10
-48.3619814874
 20
-3.1226984846
 10
-48.3321404416
 20
-3.1109801111
 10
-48.3010289499
 20
-3.1023653203
 10
-48.2689665476
 20
-3.0970034308
 10
-48.2363191689
 20
-3.0950195738
  0
LINE
  5
460
100
AcDbEntity
  8
IMPORT_IGES
100
AcDbLine
 62
7
  6
CONTINUOUS
 10
-46.2461354375
 20
0.7870456386
 11
-46.1819158867
 21
0.8512651894
  0
LINE
  5
461
100
AcDbEntity
  8
IMPORT_IGES
100
AcDbLine
 62
253
  6
CONTINUOUS
 10
-48.3331381251
 20
-2.1810443919
 11
-48.342109994
 21
-2.0977466442
  0
LINE
  5
462
100
AcDbEntity
  8
IMPORT_IGES
100
AcDbLine
 62
253
  6
CONTINUOUS
 10
-47.2897493269
 20
-2.5606727871
 11
-47.2706876796
 21
-2.7387974065
  0
LINE
  5
463
100
AcDbEntity
  8
IMPORT_IGES
100
AcDbLine
 62
253
  6
CONTINUOUS
 10
-48.2669213788
 20
-2.8278549174
 11
-48.2858691809
 21
-2.6497345716
  0
LWPOLYLINE
  5
464
100
AcDbEntity
  8
IMPORT_IGES
100
AcDbPolyline
 62
253
  6
CONTINUOUS
 90
3
 70
0
 10
-47.349195996
 20
-1.9984029932
 10
-47.3438386055
 20
-2.0497935085
 10
-47.3339591372
 20
-2.141307561
  0
LINE
  5
465
100
AcDbEntity
  8
IMPORT_IGES
100
AcDbLine
 62
253
  6
CONTINUOUS
 10
-48.342109994
 20
-2.0977466442
 11
-48.3521785835
 21
-1.9985602476
  0
LINE
  5
466
100
AcDbEntity
  8
IMPORT_IGES
100
AcDbLine
 62
253
  6
CONTINUOUS
 10
-47.1358003003
 20
-4.0696715863
 11
-47.1714348794
 21
-3.7159832406
  0
LINE
  5
467
100
AcDbEntity
  8
IMPORT_IGES
100
AcDbLine
 62
253
  6
CONTINUOUS
 10
-48.2858691809
 20
-2.6497345716
 11
-48.3036539902
 21
-2.4716063204
  0
LINE
  5
468
100
AcDbEntity
  8
IMPORT_IGES
100
AcDbLine
 62
253
  6
CONTINUOUS
 10
-48.1678365333
 20
-3.8517470096
 11
-48.1461506486
 21
-4.0696715863
  0
LWPOLYLINE
  5
469
100
AcDbEntity
  8
IMPORT_IGES
100
AcDbPolyline
 62
253
  6
CONTINUOUS
 90
3
 70
0
 10
-47.3160747564
 20
-2.2934703423
 10
-47.3076018826
 20
-2.3825399192
 10
-47.2897493269
 20
-2.5606727871
  0
LINE
  5
46A
100
AcDbEntity
  8
IMPORT_IGES
100
AcDbLine
 62
253
  6
CONTINUOUS
 10
-47.1714348794
 20
-3.7159832406
 11
-47.19555421
 21
-3.464416617
  0
LWPOLYLINE
  5
46B
100
AcDbEntity
  8
IMPORT_IGES
100
AcDbPolyline
 62
253
  6
CONTINUOUS
 90
10
 70
0
 10
-48.5615813898
 20
-3.8427858854
 10
-48.4693692083
 20
-4.8309446151
 10
-48.3616443719
 20
-5.7869956023
 10
-48.239220298
 20
-6.7113729478
 10
-48.1036831247
 20
-7.6051104542
 10
-47.9571166906
 20
-8.4672013461
 10
-47.8004353315
 20
-9.2949986488
 10
-47.6352151013
 20
-10.0876306955
 10
-47.4639858616
 20
-10.8460147394
 10
-47.2890623599
 20
-11.5701860185
  0
LWPOLYLINE
  5
46C
100
AcDbEntity
  8
IMPORT_IGES
100
AcDbPolyline
 62
253
  6
CONTINUOUS
 90
3
 70
0
 10
-47.3659391415
 20
-1.8245248224
 10
-47.3602462641
 20
-1.8854827014
 10
-47.349195996
 20
-1.9984029932
  0
LWPOLYLINE
  5
46D
100
AcDbEntity
  8
IMPORT_IGES
100
AcDbPolyline
 62
253
  6
CONTINUOUS
 90
3
 70
0
 10
-48.3521785835
 20
-1.9985602476
 10
-48.3628314752
 20
-1.8856129407
 10
-48.3683133584
 20
-1.8247147078
  0
LINE
  5
46E
100
AcDbEntity
  8
IMPORT_IGES
100
AcDbLine
 62
253
  6
CONTINUOUS
 10
-48.1939503503
 20
-3.5764032439
 11
-48.1678365333
 21
-3.8517470096
  0
LINE
  5
46F
100
AcDbEntity
  8
IMPORT_IGES
100
AcDbLine
 62
253
  6
CONTINUOUS
 10
-48.3036539902
 20
-2.4716063204
 11
-48.3202757881
 21
-2.2934703423
  0
LINE
  5
470
100
AcDbEntity
  8
IMPORT_IGES
100
AcDbLine
 62
253
  6
CONTINUOUS
 10
-47.19555421
 20
-3.464416617
 11
-47.2249180674
 21
-3.1414285095
  0
LINE
  5
471
100
AcDbEntity
  8
IMPORT_IGES
100
AcDbLine
 62
253
  6
CONTINUOUS
 10
-48.2192992526
 20
-3.2942692267
 11
-48.1939503503
 21
-3.5764032439
  0
LINE
  5
472
100
AcDbEntity
  8
IMPORT_IGES
100
AcDbLine
 62
253
  6
CONTINUOUS
 10
-47.2249180674
 20
-3.1414285095
 11
-47.2289373883
 21
-3.0950193197
  0
LINE
  5
473
100
AcDbEntity
  8
IMPORT_IGES
100
AcDbLine
 62
253
  6
CONTINUOUS
 10
-48.2363189593
 20
-3.0950193197
 11
-48.2192992526
 21
-3.2942692267
  0
LWPOLYLINE
  5
474
100
AcDbEntity
  8
IMPORT_IGES
100
AcDbPolyline
 62
253
  6
CONTINUOUS
 90
4
 70
0
 10
-48.3683133584
 20
-1.8247147078
 10
-48.379134613
 20
-1.6953847616
 10
-48.3844739844
 20
-1.627607216
 10
-48.3896094338
 20
-1.5583090268
  0
LWPOLYLINE
  5
475
100
AcDbEntity
  8
IMPORT_IGES
100
AcDbPolyline
 62
253
  6
CONTINUOUS
 90
4
 70
0
 10
-47.3880264121
 20
-1.5582213412
 10
-47.382702137
 20
-1.6274655842
 10
-47.377167078
 20
-1.6951852007
 10
-47.3659391415
 20
-1.8245248224
  0
LINE
  5
476
100
AcDbEntity
  8
IMPORT_IGES
100
AcDbLine
 62
253
  6
CONTINUOUS
 10
-48.6364114065
 20
-2.8223605588
 11
-48.5615813898
 21
-3.8427858854
  0
LWPOLYLINE
  5
477
100
AcDbEntity
  8
IMPORT_IGES
100
AcDbPolyline
 62
253
  6
CONTINUOUS
 90
3
 70
0
 10
-48.3896094338
 20
-1.5583090268
 10
-48.3991645068
 20
-1.4166508847
 10
-48.4036361601
 20
-1.3449969092
  0
LWPOLYLINE
  5
478
100
AcDbEntity
  8
IMPORT_IGES
100
AcDbPolyline
 62
253
  6
CONTINUOUS
 90
3
 70
0
 10
-47.4025757564
 20
-1.3449969092
 10
-47.3979367589
 20
-1.4166287092
 10
-47.3880264121
 20
-1.5582213412
  0
LWPOLYLINE
  5
479
100
AcDbEntity
  8
IMPORT_IGES
100
AcDbPolyline
 62
253
  6
CONTINUOUS
 90
3
 70
0
 10
-48.6201926658
 20
2.3875753865
 10
-48.6185315319
 20
2.3571091654
 10
-48.6136335905
 20
2.3272644996
  0
LINE
  5
47A
100
AcDbEntity
  8
IMPORT_IGES
100
AcDbLine
 62
253
  6
CONTINUOUS
 10
-48.6916717675
 20
-1.7698074983
 11
-48.6364114065
 21
-2.8223605588
  0
LWPOLYLINE
  5
47B
100
AcDbEntity
  8
IMPORT_IGES
100
AcDbPolyline
 62
253
  6
CONTINUOUS
 90
10
 70
0
 10
-48.403636125
 20
-1.3449969066
 10
-48.40909991
 20
-1.2177006459
 10
-48.4139779613
 20
-1.0903859711
 10
-48.418270279
 20
-0.963052882
 10
-48.4219769295
 20
-0.8356986687
 10
-48.4250978464
 20
-0.7083260411
 10
-48.4276328305
 20
-0.5809431294
 10
-48.4295818155
 20
-0.4535526436
 10
-48.4309448676
 20
-0.3261518737
 10
-48.4317219869
 20
-0.1987408195
  0
LINE
  5
47C
100
AcDbEntity
  8
IMPORT_IGES
100
AcDbLine
 62
253
  6
CONTINUOUS
 10
-47.0639654215
 20
-22.3162016295
 11
-47.2890623599
 21
-11.5701860185
  0
LWPOLYLINE
  5
47D
100
AcDbEntity
  8
IMPORT_IGES
100
AcDbPolyline
 62
253
  6
CONTINUOUS
 90
10
 70
0
 10
-47.4317079978
 20
-0.1987408195
 10
-47.4309023698
 20
-0.3261556242
 10
-47.4294888643
 20
-0.4535593617
 10
-47.4274674812
 20
-0.5809520321
 10
-47.4248381466
 20
-0.7083365514
 10
-47.4216009344
 20
-0.8357100035
 10
-47.4177560671
 20
-0.96306364
 10
-47.4133036186
 20
-1.0903945445
 10
-47.408243515
 20
-1.2177056334
 10
-47.4025757563
 20
-1.3449969066
  0
LWPOLYLINE
  5
47E
100
AcDbEntity
  8
IMPORT_IGES
100
AcDbPolyline
 62
253
  6
CONTINUOUS
 90
19
 70
0
 10
-47.0636223752
 20
-22.3161960062
 10
-47.0631561576
 20
-22.4030652536
 10
-47.0622024466
 20
-22.4882043873
 10
-47.060785281
 20
-22.5710187651
 10
-47.0589501152
 20
-22.6505181345
 10
-47.0567101215
 20
-22.7266888846
 10
-47.0540224499
 20
-22.8003406291
 10
-47.0508751757
 20
-22.8712433962
 10
-47.0473031505
 20
-22.9384627723
 10
-47.0433151841
 20
-23.001592145
 10
-47.0389219584
 20
-23.0601705905
 10
-47.0341555906
 20
-23.1134999938
 10
-47.0290637877
 20
-23.160876064
 10
-47.023695367
 20
-23.2017902768
 10
-47.0180748237
 20
-23.2359436087
 10
-47.0122235516
 20
-23.2630325079
 10
-47.0061814833
 20
-23.2827236478
 10
-47.0000044117
 20
-23.294704989
 10
-46.9937439905
 20
-23.298740998
  0
LINE
  5
47F
100
AcDbEntity
  8
IMPORT_IGES
100
AcDbLine
 62
7
  6
CONTINUOUS
 10
-47.731921875
 20
-0.198740799
 11
-47.7319218757
 21
0.0012592007
  0
LINE
  5
480
100
AcDbEntity
  8
IMPORT_IGES
100
AcDbLine
 62
7
  6
CONTINUOUS
 10
-46.8319218752
 20
-1.598740799
 11
-46.8319218752
 21
-0.6271679238
  0
LINE
  5
481
100
AcDbEntity
  8
IMPORT_IGES
100
AcDbLine
 62
7
  6
CONTINUOUS
 10
-46.181909268
 20
1.9012589914
 11
-46.1819344823
 21
-2.0987409929
  0
LINE
  5
482
100
AcDbEntity
  8
IMPORT_IGES
100
AcDbLine
 62
7
  6
CONTINUOUS
 10
-46.9581044725
 20
-1.598740799
 11
-46.9319218752
 21
-0.0987407991
  0
LWPOLYLINE
  5
483
100
AcDbEntity
  8
IMPORT_IGES
100
AcDbPolyline
 62
253
  6
CONTINUOUS
 90
10
 70
0
 10
-47.402575796
 20
1.1475163517
 10
-47.4082435692
 20
1.0202248471
 10
-47.413303682
 20
0.8929135653
 10
-47.4177561344
 20
0.7655825062
 10
-47.421601
 20
0.6382287666
 10
-47.4248382051
 20
0.5108552498
 10
-47.4274675291
 20
0.3834706658
 10
-47.4294888982
 20
0.2560779182
 10
-47.4309023861
 20
0.1286741034
 10
-47.4317079927
 20
0.0012592215
  0
LWPOLYLINE
  5
484
100
AcDbEntity
  8
IMPORT_IGES
100
AcDbPolyline
 62
253
  6
CONTINUOUS
 90
4
 70
0
 10
-47.3826830894
 20
1.4302224119
 10
-47.3880099154
 20
1.3609523854
 10
-47.3930745988
 20
1.2905072362
 10
-47.4025757863
 20
1.1475163517
  0
LWPOLYLINE
  5
485
100
AcDbEntity
  8
IMPORT_IGES
100
AcDbPolyline
 62
253
  6
CONTINUOUS
 90
3
 70
0
 10
-47.3659189161
 20
1.6272725677
 10
-47.3715595069
 20
1.5637453952
 10
-47.3826830894
 20
1.4302224119
  0
LINE
  5
486
100
AcDbEntity
  8
IMPORT_IGES
100
AcDbLine
 62
253
  6
CONTINUOUS
 10
-47.2289381209
 20
2.8975376499
 11
-47.2068075428
 21
3.1458343494
  0
LINE
  5
487
100
AcDbEntity
  8
IMPORT_IGES
100
AcDbLine
 62
253
  6
CONTINUOUS
 10
-47.2068075428
 20
3.1458343494
 11
-47.1966422593
 21
3.2556419885
  0
LWPOLYLINE
  5
488
100
AcDbEntity
  8
IMPORT_IGES
100
AcDbPolyline
 62
253
  6
CONTINUOUS
 90
25
 70
0
 10
-46.8556076392
 20
1.9012589914
 10
-46.7704313385
 20
2.8066764383
 10
-46.654346193
 20
3.7064652106
 10
-46.5073522026
 20
4.6006253083
 10
-46.3291991869
 20
5.4902159121
 10
-46.1201373263
 20
6.3741778412
 10
-45.8809171617
 20
7.2493335535
 10
-45.611430031
 20
8.1156513554
 10
-45.3117845963
 20
8.9731629404
 10
-44.9830573851
 20
9.818785847
 10
-44.625143616
 20
10.6524772607
 10
-44.2381480703
 20
11.474279996
 10
-43.8234616195
 20
12.281240034
 10
-43.3809845001
 20
13.0733039004
 10
-42.9108164755
 20
13.8505250696
 10
-42.4146477073
 20
14.6101099464
 10
-41.892384532
 20
15.3519949761
 10
-41.3441206131
 20
16.0762437135
 10
-40.7718271021
 20
16.7802532274
 10
-40.175417666
 20
17.4639503862
 10
-39.5549786378
 20
18.1274083216
 10
-38.9127401676
 20
18.7682434974
 10
-38.249445639
 20
19.3856614014
 10
-37.5643516685
 20
19.9804565459
 10
-36.8574582561
 20
20.5526289308
  0
LWPOLYLINE
  5
489
100
AcDbEntity
  8
IMPORT_IGES
100
AcDbPolyline
 62
7
  6
CONTINUOUS
 90
12
 70
0
 10
-45.3522879996
 20
-0.4636989483
 10
-45.3461459767
 20
-0.4445181393
 10
-45.3404248761
 20
-0.4218631134
 10
-45.3351338644
 20
-0.3956339175
 10
-45.330263775
 20
-0.3659305047
 10
-45.3259659221
 20
-0.3336763107
 10
-45.3222562876
 20
-0.2987973253
 10
-45.3191188898
 20
-0.2613675587
 10
-45.3166570976
 20
-0.2225324762
 10
-45.3149053675
 20
-0.1826738997
 10
-45.3138292431
 20
-0.1414100073
 10
-45.3134287245
 20
-0.098740799
  0
LINE
  5
48A
100
AcDbEntity
  8
IMPORT_IGES
100
AcDbLine
 62
7
  6
CONTINUOUS
 10
-46.0149378752
 20
-1.4327123192
 11
-46.1819327193
 21
-1.819405237
  0
LINE
  5
48B
100
AcDbEntity
  8
IMPORT_IGES
100
AcDbLine
 62
7
  6
CONTINUOUS
 10
-47.1013468916
 20
-1.3681658155
 11
-46.9514635477
 21
-1.2182824716
  0
LINE
  5
48C
100
AcDbEntity
  8
IMPORT_IGES
100
AcDbLine
 62
253
  6
CONTINUOUS
 10
-30.5601272075
 20
11.257319807
 11
-30.305784756
 21
11.4164107161
  0
LWPOLYLINE
  5
48D
100
AcDbEntity
  8
IMPORT_IGES
100
AcDbPolyline
 62
253
  6
CONTINUOUS
 90
9
 70
0
 10
-48.2725844016
 20
-22.3196827813
 10
-48.2692325834
 20
-22.3207732384
 10
-48.2592447955
 20
-22.3217529974
 10
-48.2426815805
 20
-22.322615762
 10
-48.2196386317
 20
-22.3233551217
 10
-48.1902419586
 20
-22.3239673411
 10
-48.1546431433
 20
-22.3244512757
 10
-48.1130289722
 20
-22.3248044307
 10
-48.0126419801
 20
-22.3251097512
  0
LWPOLYLINE
  5
48E
100
AcDbEntity
  8
IMPORT_IGES
100
AcDbPolyline
 62
253
  6
CONTINUOUS
 90
16
 70
0
 10
-47.2894433264
 20
-11.5685697428
 10
-46.9233880092
 20
-12.385914897
 10
-46.5315557373
 20
-13.1922596216
 10
-46.1139428959
 20
-13.9876039166
 10
-45.669434729
 20
-14.7739164423
 10
-45.1991380091
 20
-15.5492285384
 10
-44.7063811745
 20
-16.3076342238
 10
-44.1918369284
 20
-17.0475856273
 10
-43.654824029
 20
-17.7706306201
 10
-43.0966401624
 20
-18.4755068346
 10
-42.5176190255
 20
-19.1619602165
 10
-41.9174189973
 20
-19.8302448202
 10
-41.2963251207
 20
-20.4798604413
 10
-40.6544301544
 20
-21.1106403452
 10
-39.9916346219
 20
-21.7227512666
 10
-39.3079356433
 20
-22.3161932055
  0
LWPOLYLINE
  5
48F
100
AcDbEntity
  8
IMPORT_IGES
100
AcDbPolyline
 62
253
  6
CONTINUOUS
 90
3
 70
0
 10
-48.5290897856
 20
3.127040975
 10
-48.5343849528
 20
3.1580917216
 10
-48.5361742158
 20
3.1897148806
  0
LWPOLYLINE
  5
490
100
AcDbEntity
  8
IMPORT_IGES
100
AcDbPolyline
 62
253
  6
CONTINUOUS
 90
22
 70
0
 10
-47.1358918679
 20
-4.0696932971
 10
-46.9747981355
 20
-5.0227487722
 10
-46.780042074
 20
-5.9669379936
 10
-46.5516236832
 20
-6.9022609614
 10
-46.2891578573
 20
-7.8299134754
 10
-45.9930297022
 20
-8.7486997358
 10
-45.6643945361
 20
-9.655032343
 10
-45.3031246575
 20
-10.5488638277
 10
-44.9093477681
 20
-11.4302416594
 10
-44.4846022904
 20
-12.2957208462
 10
-44.0287668305
 20
-13.1452390858
 10
-43.5419627825
 20
-13.9788586805
 10
-43.0260927511
 20
-14.7933215459
 10
-42.481042817
 20
-15.58855258
 10
-41.9069268995
 20
-16.3646268847
 10
-41.3059893625
 20
-17.1185116813
 10
-40.6781383908
 20
-17.8501083723
 10
-40.0234657995
 20
-18.5595155551
 10
-39.3444913977
 20
-19.2439962429
 10
-38.6420551217
 20
-19.9026381067
 10
-37.915317035
 20
-20.5363534754
 10
-37.1642771379
 20
-21.1451423491
  0
LINE
  5
491
100
AcDbEntity
  8
IMPORT_IGES
100
AcDbLine
 62
253
  6
CONTINUOUS
 10
-47.3187181408
 20
-2.272512134
 11
-47.316074755
 21
-2.2934703423
  0
LINE
  5
492
100
AcDbEntity
  8
IMPORT_IGES
100
AcDbLine
 62
253
  6
CONTINUOUS
 10
-48.3202753265
 20
-2.2934703423
 11
-48.3228218215
 21
-2.2725161463
  0
LINE
  5
493
100
AcDbEntity
  8
IMPORT_IGES
100
AcDbLine
 62
253
  6
CONTINUOUS
 10
-47.2504170263
 20
-2.9169129835
 11
-47.2289373886
 21
-3.0950193197
  0
LINE
  5
494
100
AcDbEntity
  8
IMPORT_IGES
100
AcDbLine
 62
253
  6
CONTINUOUS
 10
-47.3253700167
 20
-2.2161287445
 11
-47.3187181408
 21
-2.272512134
  0
LWPOLYLINE
  5
495
100
AcDbEntity
  8
IMPORT_IGES
100
AcDbPolyline
 62
253
  6
CONTINUOUS
 90
3
 70
0
 10
-48.2363191994
 20
-3.0950193197
 10
-48.257011385
 20
-2.9169118433
 10
-48.2669213788
 20
-2.8278549174
  0
LINE
  5
496
100
AcDbEntity
  8
IMPORT_IGES
100
AcDbLine
 62
253
  6
CONTINUOUS
 10
-47.3339591372
 20
-2.141307561
 11
-47.3253700167
 21
-2.2161287445
  0
LWPOLYLINE
  5
497
100
AcDbEntity
  8
IMPORT_IGES
100
AcDbPolyline
 62
253
  6
CONTINUOUS
 90
10
 70
0
 10
-48.534200906
 20
-3.4203860168
 10
-48.5346158502
 20
-3.416706253
 10
-48.5349817768
 20
-3.4130240582
 10
-48.5352987366
 20
-3.4093400443
 10
-48.5355667014
 20
-3.4056561348
 10
-48.5357858597
 20
-3.4019716267
 10
-48.535956443
 20
-3.3982831796
 10
-48.5360784131
 20
-3.3945900746
 10
-48.5361516351
 20
-3.3908942248
 10
-48.5361760516
 20
-3.3871962309
  0
LINE
  5
498
100
AcDbEntity
  8
IMPORT_IGES
100
AcDbLine
 62
253
  6
CONTINUOUS
 10
-47.2706876796
 20
-2.7387974065
 11
-47.2504170263
 21
-2.9169129835
  0
LINE
  5
499
100
AcDbEntity
  8
IMPORT_IGES
100
AcDbLine
 62
253
  6
CONTINUOUS
 10
-48.3228218215
 20
-2.2725161463
 11
-48.3331381251
 21
-2.1810443919
  0
LWPOLYLINE
  5
49A
100
AcDbEntity
  8
IMPORT_IGES
100
AcDbPolyline
 62
7
  6
CONTINUOUS
 90
16
 70
0
 10
-45.3134287245
 20
-0.098740799
 10
-45.3138301395
 20
-0.0560299697
 10
-45.3149082508
 20
-0.0147289659
 10
-45.3166630585
 20
0.0251622125
 10
-45.319129174
 20
0.0640261627
 10
-45.3222719859
 20
0.1014802875
 10
-45.3259876593
 20
0.1363767949
 10
-45.3302922058
 20
0.1686412363
 10
-45.3351696138
 20
0.1983480603
 10
-45.3404680136
 20
0.2245728211
 10
-45.3461996292
 20
0.2472181122
 10
-45.3523522365
 20
0.2663813401
 10
-45.3587372931
 20
0.2814302784
 10
-45.3652919514
 20
0.292154185
 10
-45.3720790589
 20
0.298763802
 10
-45.3790986156
 20
0.3012591295
  0
LINE
  5
49B
100
AcDbEntity
  8
IMPORT_IGES
100
AcDbLine
 62
7
  6
CONTINUOUS
 10
-45.3921152591
 20
1.101259097
 11
-45.3921152591
 21
0.301259201
  0
LINE
  5
49C
100
AcDbEntity
  8
IMPORT_IGES
100
AcDbLine
 62
7
  6
CONTINUOUS
 10
-45.3921152591
 20
-0.498740799
 11
-45.3921152591
 21
-1.298740695
  0
LINE
  5
49D
100
AcDbEntity
  8
IMPORT_IGES
100
AcDbLine
 62
7
  6
CONTINUOUS
 10
-45.3819344823
 20
-2.0987409929
 11
-45.3819294394
 21
-1.2987365462
  0
LINE
  5
49E
100
AcDbEntity
  8
IMPORT_IGES
100
AcDbLine
 62
7
  6
CONTINUOUS
 10
-45.3819143108
 20
1.1012634526
 11
-45.381909268
 21
1.9012589914
  0
LINE
  5
49F
100
AcDbEntity
  8
IMPORT_IGES
100
AcDbLine
 62
7
  6
CONTINUOUS
 10
-45.3790986156
 20
1.1013258146
 11
-45.3790986156
 21
0.3012591295
  0
LINE
  5
4A0
100
AcDbEntity
  8
IMPORT_IGES
100
AcDbLine
 62
7
  6
CONTINUOUS
 10
-45.3790983495
 20
-0.4988206802
 11
-45.3790983495
 21
-1.2986734923
  0
LINE
  5
4A1
100
AcDbEntity
  8
IMPORT_IGES
100
AcDbLine
 62
7
  6
CONTINUOUS
 10
-44.3819029645
 20
1.9012589914
 11
-44.3819029645
 21
1.101259201
  0
LINE
  5
4A2
100
AcDbEntity
  8
IMPORT_IGES
100
AcDbLine
 62
7
  6
CONTINUOUS
 10
-44.3819029645
 20
-1.298740799
 11
-44.3819029645
 21
-2.0987409929
  0
LINE
  5
4A3
100
AcDbEntity
  8
IMPORT_IGES
100
AcDbLine
 62
7
  6
CONTINUOUS
 10
-43.4319218752
 20
-39.798740799
 11
-43.4319218752
 21
-33.798740799
  0
LINE
  5
4A4
100
AcDbEntity
  8
IMPORT_IGES
100
AcDbLine
 62
7
  6
CONTINUOUS
 10
-43.3319218752
 20
-33.698740799
 11
-43.3319218752
 21
-23.298740799
  0
LWPOLYLINE
  5
4A5
100
AcDbEntity
  8
IMPORT_IGES
100
AcDbPolyline
 62
7
  6
CONTINUOUS
 90
19
 70
0
 10
-45.1819218752
 20
-0.098740799
 10
-45.1827336092
 20
-0.205012021
 10
-45.1849863333
 20
-0.3088144002
 10
-45.1886800474
 20
-0.4101479364
 10
-45.1938668561
 20
-0.5097183256
 10
-45.2004946547
 20
-0.606819872
 10
-45.2084071294
 20
-0.6993354876
 10
-45.2176299039
 20
-0.7871627065
 10
-45.2281373543
 20
-0.8704039946
 10
-45.2396962953
 20
-0.9472496616
 10
-45.2523281348
 20
-1.0175695807
 10
-45.2660114648
 20
-1.0814938788
 10
-45.280448876
 20
-1.1376032464
 10
-45.2956603389
 20
-1.185744351
 10
-45.3116258831
 20
-1.2260705251
 10
-45.3279881883
 20
-1.2576224574
 10
-45.3446281478
 20
-1.2800803775
 10
-45.3616648682
 20
-1.2937640557
 10
-45.3790983495
 20
-1.2986734923
  0
LINE
  5
4A6
100
AcDbEntity
  8
IMPORT_IGES
100
AcDbLine
 62
7
  6
CONTINUOUS
 10
-41.2051269559
 20
-0.048740799
 11
-41.2319218752
 21
-0.148740799
  0
LINE
  5
4A7
100
AcDbEntity
  8
IMPORT_IGES
100
AcDbLine
 62
253
  6
CONTINUOUS
 10
-25.3037165428
 20
11.045198595
 11
-25.5580589943
 21
10.8861076858
  0
LWPOLYLINE
  5
4A8
100
AcDbEntity
  8
IMPORT_IGES
100
AcDbPolyline
 62
253
  6
CONTINUOUS
 90
7
 70
0
 10
-48.7033297495
 20
-1.3637866862
 10
-48.7016929896
 20
-1.3631620937
 10
-48.6968180742
 20
-1.3624026523
 10
-48.6888569669
 20
-1.3615208164
 10
-48.6780674747
 20
-1.3605364221
 10
-48.6646119975
 20
-1.3594580367
 10
-48.6483804489
 20
-1.3582764404
  0
LINE
  5
4A9
100
AcDbEntity
  8
IMPORT_IGES
100
AcDbLine
 62
253
  6
CONTINUOUS
 10
-38.7145571197
 20
-22.5594632987
 11
-38.5442032755
 21
-22.6269977799
  0
LINE
  5
4AA
100
AcDbEntity
  8
IMPORT_IGES
100
AcDbLine
 62
253
  6
CONTINUOUS
 10
-38.9695459975
 20
-22.4563951493
 11
-38.7145571197
 21
-22.5594632987
  0
LINE
  5
4AB
100
AcDbEntity
  8
IMPORT_IGES
100
AcDbLine
 62
253
  6
CONTINUOUS
 10
-39.139003039
 20
-22.3866217522
 11
-38.9695459975
 21
-22.4563951493
  0
LINE
  5
4AC
100
AcDbEntity
  8
IMPORT_IGES
100
AcDbLine
 62
253
  6
CONTINUOUS
 10
-39.3079349157
 20
-22.3161932055
 11
-39.139003039
 21
-22.3866217522
  0
LWPOLYLINE
  5
4AD
100
AcDbEntity
  8
IMPORT_IGES
100
AcDbPolyline
 62
253
  6
CONTINUOUS
 90
16
 70
0
 10
-37.965249461
 20
-22.1670986972
 10
-37.9796040972
 20
-22.160497745
 10
-37.9984798338
 20
-22.1596864514
 10
-38.021736278
 20
-22.164768778
 10
-38.0490166014
 20
-22.1756607263
 10
-38.0800651055
 20
-22.1922057714
 10
-38.1148952911
 20
-22.2144063699
 10
-38.1531430592
 20
-22.2420470247
 10
-38.1943688454
 20
-22.2747925986
 10
-38.2385988549
 20
-22.3126652552
 10
-38.2853318406
 20
-22.3552507281
 10
-38.3340574266
 20
-22.4020700861
 10
-38.384846332
 20
-22.4531966954
 10
-38.4373265292
 20
-22.50828909
 10
-38.4906568649
 20
-22.5664664834
 10
-38.5441972277
 20
-22.6269908258
  0
LWPOLYLINE
  5
4AE
100
AcDbEntity
  8
IMPORT_IGES
100
AcDbPolyline
 62
253
  6
CONTINUOUS
 90
22
 70
0
 10
-37.7833504426
 20
-21.9309791285
 10
-38.5670191976
 20
-21.2954897964
 10
-39.3253161807
 20
-20.6336031831
 10
-40.0582413917
 20
-19.9453192888
 10
-40.7667572792
 20
-19.2296059759
 10
-41.4499013948
 20
-18.4874953819
 10
-42.1047863929
 20
-17.722083919
 10
-42.7312403761
 20
-16.9333309351
 10
-43.3294352419
 20
-16.1212770822
 10
-43.896999337
 20
-15.2891407295
 10
-44.4338109048
 20
-14.4368420278
 10
-44.9399917019
 20
-13.5644608263
 10
-45.4135353453
 20
-12.6754550411
 10
-45.8543120844
 20
-11.7697586007
 10
-46.2624516698
 20
-10.8474375767
 10
-46.6363369708
 20
-9.9121481005
 10
-46.9758318837
 20
-8.9638382424
 10
-47.2810725121
 20
-8.0025599321
 10
-47.550850037
 20
-7.0321250903
 10
-47.7847615184
 20
-6.0538043574
 10
-47.9832098961
 20
-5.066327093
 10
-48.1461951703
 20
-4.0696932971
  0
LWPOLYLINE
  5
4AF
100
AcDbEntity
  8
IMPORT_IGES
100
AcDbPolyline
 62
253
  6
CONTINUOUS
 90
14
 70
0
 10
-48.6136335905
 20
2.3272644996
 10
-48.6056508542
 20
2.298350781
 10
-48.5948411872
 20
2.2708215093
 10
-48.5813668416
 20
2.244745264
 10
-48.5651176132
 20
2.2198869331
 10
-48.5460746725
 20
2.1964067577
 10
-48.5244671643
 20
2.1747525929
 10
-48.5004478969
 20
2.1551927248
 10
-48.4741926408
 20
2.1379879999
 10
-48.445969224
 20
2.123423704
 10
-48.4161274377
 20
2.1117650457
 10
-48.3850099316
 20
2.1032102104
 10
-48.3529368591
 20
2.0979096204
 10
-48.3202741457
 20
2.0959890707
  0
LINE
  5
4B0
100
AcDbEntity
  8
IMPORT_IGES
100
AcDbLine
 62
7
  6
CONTINUOUS
 10
-42.4460210824
 20
0.7090022419
 11
-42.4496812043
 21
0.9186904858
  0
LINE
  5
4B1
100
AcDbEntity
  8
IMPORT_IGES
100
AcDbLine
 62
7
  6
CONTINUOUS
 10
-42.4496812917
 20
-1.1161770897
 11
-42.4460210824
 21
-0.90648384
  0
LWPOLYLINE
  5
4B2
100
AcDbEntity
  8
IMPORT_IGES
100
AcDbPolyline
 62
7
  6
CONTINUOUS
 90
5
 70
0
 10
-18.8833565635
 20
20.7085662162
 10
-18.8841067853
 20
20.7077872412
 10
-18.886186664
 20
20.7053036078
 10
-18.8895735961
 20
20.7011423095
 10
-18.9001075839
 20
20.6879853664
  0
LWPOLYLINE
  5
4B3
100
AcDbEntity
  8
IMPORT_IGES
100
AcDbPolyline
 62
7
  6
CONTINUOUS
 90
5
 70
0
 10
-45.3790983495
 20
-0.4988206802
 10
-45.3720475023
 20
-0.4962389011
 10
-45.3652387624
 20
-0.4895593292
 10
-45.3586721298
 20
-0.4787819645
 10
-45.3522879996
 20
-0.4636989483
  0
LWPOLYLINE
  5
4B4
100
AcDbEntity
  8
IMPORT_IGES
100
AcDbPolyline
 62
253
  6
CONTINUOUS
 90
10
 70
0
 10
-19.5218225219
 20
-22.4958801157
 10
-21.3869182984
 20
-22.6362417919
 10
-23.2535300399
 20
-22.7415295933
 10
-25.1216577464
 20
-22.81174352
 10
-26.9922442646
 20
-22.8468873804
 10
-28.8643467477
 20
-22.8469573661
 10
-30.7351366563
 20
-22.8119420517
 10
-32.6036711439
 20
-22.7418376287
 10
-34.4708930568
 20
-22.6366479057
 10
-36.3368023953
 20
-22.4963728826
  0
LWPOLYLINE
  5
4B5
100
AcDbEntity
  8
IMPORT_IGES
100
AcDbPolyline
 62
253
  6
CONTINUOUS
 90
22
 70
0
 10
-19.4281081684
 20
-23.0435501445
 10
-20.348095962
 20
-23.0808496786
 10
-21.2429458895
 20
-23.1126710459
 10
-22.1126601224
 20
-23.1395501857
 10
-22.9563767717
 20
-23.1621816243
 10
-23.7749876195
 20
-23.1808751113
 10
-24.5711431953
 20
-23.1956555108
 10
-25.3418035848
 20
-23.206976162
 10
-26.0900829543
 20
-23.2153030414
 10
-26.8278769224
 20
-23.2206992718
 10
-27.5523811838
 20
-23.223329346
 10
-28.2664886196
 20
-23.2234082748
 10
-28.9906444798
 20
-23.2209347729
 10
-29.7267263767
 20
-23.2157152251
 10
-30.4729451821
 20
-23.2075787277
 10
-31.2442436961
 20
-23.1964090134
 10
-32.0454288557
 20
-23.1817125563
 10
-32.8717719239
 20
-23.1630427238
 10
-33.7238992058
 20
-23.140358737
 10
-34.6020282205
 20
-23.1133325548
 10
-35.5059732653
 20
-23.0812490035
 10
-36.435736972
 20
-23.0435501199
  0
LWPOLYLINE
  5
4B6
100
AcDbEntity
  8
IMPORT_IGES
100
AcDbPolyline
 62
253
  6
CONTINUOUS
 90
7
 70
0
 10
-7.7092098473
 20
-22.3244513247
 10
-7.6736075483
 20
-22.3239673965
 10
-7.6442080745
 20
-22.323355169
 10
-7.6211637742
 20
-22.3226158129
 10
-7.6046001694
 20
-22.3217530913
 10
-7.5946119712
 20
-22.3207734235
 10
-7.5912590416
 20
-22.3196831204
  0
LINE
  5
4B7
100
AcDbEntity
  8
IMPORT_IGES
100
AcDbLine
 62
7
  6
CONTINUOUS
 10
-47.2728209883
 20
-23.298740799
 11
-8.5910227476
 21
-23.298740799
  0
LWPOLYLINE
  5
4B8
100
AcDbEntity
  8
IMPORT_IGES
100
AcDbPolyline
 62
253
  6
CONTINUOUS
 90
10
 70
0
 10
-36.435736972
 20
-23.0435501199
 10
-36.6511593907
 20
-23.0323015203
 10
-36.8755758645
 20
-23.0131969727
 10
-37.1089846221
 20
-22.9855930812
 10
-37.3570181702
 20
-22.9475029865
 10
-37.6140010457
 20
-22.8989533746
 10
-37.8629563772
 20
-22.8426366012
 10
-38.0981941298
 20
-22.7793699163
 10
-38.3252999967
 20
-22.7075665384
 10
-38.5442032755
 20
-22.6269977799
  0
LWPOLYLINE
  5
4B9
100
AcDbEntity
  8
IMPORT_IGES
100
AcDbPolyline
 62
253
  6
CONTINUOUS
 90
10
 70
0
 10
-36.3368023953
 20
-22.4963728826
 10
-36.5138840957
 20
-22.4757776417
 10
-36.6871369455
 20
-22.4444859233
 10
-36.8565609445
 20
-22.4024977274
 10
-37.0225023383
 20
-22.3496265132
 10
-37.1846148814
 20
-22.2860588215
 10
-37.3418598371
 20
-22.212354275
 10
-37.4938909597
 20
-22.1286994144
 10
-37.6410544949
 20
-22.0349076989
 10
-37.7833504426
 20
-21.9309791285
  0
LWPOLYLINE
  5
4BA
100
AcDbEntity
  8
IMPORT_IGES
100
AcDbPolyline
 62
253
  6
CONTINUOUS
 90
25
 70
0
 10
-36.8574130562
 20
-20.750145637
 10
-37.5643085046
 20
-20.1779737053
 10
-38.2494046697
 20
-19.5831787018
 10
-38.9127015514
 20
-18.9657606264
 10
-39.554942609
 20
-18.3249249026
 10
-40.1753843832
 20
-17.6614661069
 10
-40.7717964961
 20
-16.9777679691
 10
-41.3440925439
 20
-16.2737574179
 10
-41.8923589303
 20
-15.5495075244
 10
-42.4146244894
 20
-14.8076212317
 10
-42.9107955571
 20
-14.0480349842
 10
-43.3809657973
 20
-13.2708123375
 10
-43.8234450357
 20
-12.4787469
 10
-44.2381335082
 20
-11.6717851969
 10
-44.6251309788
 20
-10.849980703
 10
-44.9830465652
 20
-10.0162874522
 10
-45.3117754853
 20
-9.1706626297
 10
-45.6114225211
 20
-8.3131490501
 10
-45.8809111364
 20
-7.4468291915
 10
-46.1201326674
 20
-6.5716713662
 10
-46.3291957777
 20
-5.6877072617
 10
-46.5073499224
 20
-4.7981144182
 10
-46.6543449196
 20
-3.9039520155
 10
-46.7704309511
 20
-3.0041608738
 10
-46.8556080169
 20
-2.0987409929
  0
LINE
  5
4BB
100
AcDbEntity
  8
IMPORT_IGES
100
AcDbLine
 62
7
  6
CONTINUOUS
 10
-38.5319218752
 20
-33.698740799
 11
-38.5319218752
 21
-23.298740799
  0
LINE
  5
4BC
100
AcDbEntity
  8
IMPORT_IGES
100
AcDbLine
 62
7
  6
CONTINUOUS
 10
-38.4319218752
 20
-39.798740799
 11
-38.4319218752
 21
-33.798740799
  0
LWPOLYLINE
  5
4BD
100
AcDbEntity
  8
IMPORT_IGES
100
AcDbPolyline
 62
253
  6
CONTINUOUS
 90
4
 70
0
 10
-18.8741060757
 20
20.7212474843
 10
-18.8793353875
 20
20.7142755587
 10
-18.882425465
 20
20.7100387607
 10
-18.8833561206
 20
20.7085682755
  0
LINE
  5
4BE
100
AcDbEntity
  8
IMPORT_IGES
100
AcDbLine
 62
253
  6
CONTINUOUS
 10
-18.8578042714
 20
20.7426452147
 11
-18.8741060757
 21
20.7212474843
  0
LINE
  5
4BF
100
AcDbEntity
  8
IMPORT_IGES
100
AcDbLine
 62
253
  6
CONTINUOUS
 10
-18.7909760968
 20
20.8291210307
 11
-18.8578042714
 21
20.7426452147
  0
LINE
  5
4C0
100
AcDbEntity
  8
IMPORT_IGES
100
AcDbLine
 62
253
  6
CONTINUOUS
 10
-18.6991644998
 20
20.9474042027
 11
-18.7909760968
 21
20.8291210307
  0
LINE
  5
4C1
100
AcDbEntity
  8
IMPORT_IGES
100
AcDbLine
 62
253
  6
CONTINUOUS
 10
-18.0832382766
 20
21.7357891136
 11
-17.9602521915
 21
21.892601589
  0
LINE
  5
4C2
100
AcDbEntity
  8
IMPORT_IGES
100
AcDbLine
 62
7
  6
CONTINUOUS
 10
-18.924355127
 20
20.6573590382
 11
-19.0064527889
 21
20.552681919
  0
LINE
  5
4C3
100
AcDbEntity
  8
IMPORT_IGES
100
AcDbLine
 62
253
  6
CONTINUOUS
 10
-17.9602521915
 20
21.892601589
 11
-17.9237887056
 21
21.9386587756
  0
LINE
  5
4C4
100
AcDbEntity
  8
IMPORT_IGES
100
AcDbLine
 62
7
  6
CONTINUOUS
 10
-18.9001075839
 20
20.6879853664
 11
-18.924355127
 21
20.6573590382
  0
LWPOLYLINE
  5
4C5
100
AcDbEntity
  8
IMPORT_IGES
100
AcDbPolyline
 62
253
  6
CONTINUOUS
 90
5
 70
0
 10
-17.9237887056
 20
21.9386587756
 10
-17.9079402376
 20
21.9584542548
 10
-17.902834652
 20
21.9647272899
 10
-17.8997041131
 20
21.9684648563
 10
-17.8985917607
 20
21.9696146747
  0
LWPOLYLINE
  5
4C6
100
AcDbEntity
  8
IMPORT_IGES
100
AcDbPolyline
 62
253
  6
CONTINUOUS
 90
6
 70
0
 10
-46.4417673563
 20
-11.1894506625
 10
-46.4445408889
 20
-11.1916785359
 10
-46.453686951
 20
-11.196665229
 10
-46.4692153483
 20
-11.2044027811
 10
-46.4908855678
 20
-11.214771113
 10
-46.5184538317
 20
-11.2276578367
  0
LWPOLYLINE
  5
4C7
100
AcDbEntity
  8
IMPORT_IGES
100
AcDbPolyline
 62
253
  6
CONTINUOUS
 90
10
 70
0
 10
-19.6437608405
 20
-21.0000969038
 10
-21.4836111329
 20
-21.1385126198
 10
-23.3244432256
 20
-21.2423243998
 10
-25.1662571185
 20
-21.3115322438
 10
-27.0097072356
 20
-21.3461361581
 10
-28.854139153
 20
-21.3461361364
 10
-30.6975895985
 20
-21.3115321602
 10
-32.5394041481
 20
-21.2423242232
 10
-34.3802372259
 20
-21.1385123318
 10
-36.2200888319
 20
-21.0000964859
  0
LINE
  5
4C8
100
AcDbEntity
  8
IMPORT_IGES
100
AcDbLine
 62
253
  6
CONTINUOUS
 10
-47.5117447926
 20
-22.3220102663
 11
-47.0639654215
 21
-22.3162016295
  0
LINE
  5
4C9
100
AcDbEntity
  8
IMPORT_IGES
100
AcDbLine
 62
253
  6
CONTINUOUS
 10
-47.8231768531
 20
-22.3245633152
 11
-47.5117447926
 21
-22.3220102663
  0
LINE
  5
4CA
100
AcDbEntity
  8
IMPORT_IGES
100
AcDbLine
 62
253
  6
CONTINUOUS
 10
-7.7982438757
 20
-22.3250240548
 11
-7.7092098473
 21
-22.3244513247
  0
LINE
  5
4CB
100
AcDbEntity
  8
IMPORT_IGES
100
AcDbLine
 62
253
  6
CONTINUOUS
 10
-48.0126419801
 20
-22.3251097512
 11
-47.8231768531
 21
-22.3245633152
  0
LINE
  5
4CC
100
AcDbEntity
  8
IMPORT_IGES
100
AcDbLine
 62
253
  6
CONTINUOUS
 10
-47.0636225701
 20
-22.3161932055
 11
-39.3079356433
 21
-22.3161932055
  0
LINE
  5
4CD
100
AcDbEntity
  8
IMPORT_IGES
100
AcDbLine
 62
253
  6
CONTINUOUS
 10
-16.5559047755
 20
-22.3161932055
 11
-8.8003037377
 21
-22.3161932055
  0
LINE
  5
4CE
100
AcDbEntity
  8
IMPORT_IGES
100
AcDbLine
 62
253
  6
CONTINUOUS
 10
-7.9094932042
 20
-22.3250614745
 11
-7.7982438757
 21
-22.3250240548
  0
LINE
  5
4CF
100
AcDbEntity
  8
IMPORT_IGES
100
AcDbLine
 62
253
  6
CONTINUOUS
 10
-8.1129867667
 20
-22.3241158995
 11
-7.9094932042
 21
-22.3250614745
  0
LINE
  5
4D0
100
AcDbEntity
  8
IMPORT_IGES
100
AcDbLine
 62
253
  6
CONTINUOUS
 10
-8.4379927463
 20
-22.3210653441
 11
-8.1129867667
 21
-22.3241158995
  0
LINE
  5
4D1
100
AcDbEntity
  8
IMPORT_IGES
100
AcDbLine
 62
253
  6
CONTINUOUS
 10
-8.7999394781
 20
-22.3162009488
 11
-8.4379927463
 21
-22.3210653441
  0
LWPOLYLINE
  5
4D2
100
AcDbEntity
  8
IMPORT_IGES
100
AcDbPolyline
 62
253
  6
CONTINUOUS
 90
10
 70
0
 10
-36.262204054
 20
-21.499125735
 10
-34.4129861478
 20
-21.6381588128
 10
-32.5627837705
 20
-21.7424338414
 10
-30.7115969222
 20
-21.8119508206
 10
-28.8587692998
 20
-21.8467097508
 10
-27.0049572064
 20
-21.8467106317
 10
-25.152129551
 20
-21.8119534624
 10
-23.3009426366
 20
-21.7424382425
 10
-21.4507401602
 20
-21.6381649724
 10
-19.6015221219
 20
-21.499133652
  0
LWPOLYLINE
  5
4D3
100
AcDbEntity
  8
IMPORT_IGES
100
AcDbPolyline
 62
253
  6
CONTINUOUS
 90
10
 70
0
 10
-36.262204054
 20
-21.499125735
 10
-36.3713376063
 20
-21.4863227831
 10
-36.4785741391
 20
-21.4667646058
 10
-36.5839136525
 20
-21.4404512033
 10
-36.6877945235
 20
-21.4072184534
 10
-36.7897783751
 20
-21.3672304782
 10
-36.8885500754
 20
-21.3209796436
 10
-36.9836712474
 20
-21.2686300715
 10
-37.0755802682
 20
-21.21001764
 10
-37.1642771379
 20
-21.1451423491
  0
LWPOLYLINE
  5
4D4
100
AcDbEntity
  8
IMPORT_IGES
100
AcDbPolyline
 62
253
  6
CONTINUOUS
 90
10
 70
0
 10
-36.2200888319
 20
-21.0000964859
 10
-36.297200004
 20
-20.990993882
 10
-36.3729595734
 20
-20.9771364244
 10
-36.44736754
 20
-20.9585241131
 10
-36.5207208898
 20
-20.9350403807
 10
-36.5927226369
 20
-20.9068017947
 10
-36.6624818229
 20
-20.8741580571
 10
-36.7297014617
 20
-20.8372257353
 10
-36.7946785395
 20
-20.7958882619
 10
-36.8574130562
 20
-20.750145637
  0
LINE
  5
4D5
100
AcDbEntity
  8
IMPORT_IGES
100
AcDbLine
 62
7
  6
CONTINUOUS
 10
-46.014938689
 20
1.2352326054
 11
-46.1819115338
 21
1.6218776506
  0
LINE
  5
4D6
100
AcDbEntity
  8
IMPORT_IGES
100
AcDbLine
 62
253
  6
CONTINUOUS
 10
-36.2370912403
 20
-21.19918096
 11
-36.2369846249
 21
-21.1976455762
  0
LWPOLYLINE
  5
4D7
100
AcDbEntity
  8
IMPORT_IGES
100
AcDbPolyline
 62
253
  6
CONTINUOUS
 90
9
 70
0
 10
-38.7073499838
 20
-21.5669494884
 10
-38.7083155753
 20
-21.5707999235
 10
-38.7139282225
 20
-21.5802038174
 10
-38.7242077352
 20
-21.5951530376
 10
-38.7389865968
 20
-21.6154051032
 10
-38.7580859067
 20
-21.6407273688
 10
-38.781520986
 20
-21.6711419066
 10
-38.8090707992
 20
-21.7063587903
 10
-38.8403940555
 20
-21.7459442938
  0
LWPOLYLINE
  5
4D8
100
AcDbEntity
  8
IMPORT_IGES
100
AcDbPolyline
 62
7
  6
CONTINUOUS
 90
4
 70
0
 10
-29.0412316083
 20
1.2387466655
 10
-29.0031720596
 20
1.2887659161
 10
-28.9686787352
 20
1.3317136362
 10
-28.938019975
 20
1.3681387514
  0
LWPOLYLINE
  5
4D9
100
AcDbEntity
  8
IMPORT_IGES
100
AcDbPolyline
 62
7
  6
CONTINUOUS
 90
4
 70
0
 10
-28.938019975
 20
1.3681387514
 10
-28.9116430453
 20
1.3982723864
 10
-28.8898665118
 20
1.4223659927
 10
-28.8727665946
 20
1.440785517
  0
LWPOLYLINE
  5
4DA
100
AcDbEntity
  8
IMPORT_IGES
100
AcDbPolyline
 62
7
  6
CONTINUOUS
 90
8
 70
0
 10
-28.8512654106
 20
1.463386687
 10
-28.8109040393
 20
1.5094866288
 10
-28.775090473
 20
1.5600367342
 10
-28.744528607
 20
1.6143154597
 10
-28.7198812732
 20
1.6711427928
 10
-28.7013159343
 20
1.7298557204
 10
-28.6888169541
 20
1.7904834888
 10
-28.682632465
 20
1.8520500408
  0
LINE
  5
4DB
100
AcDbEntity
  8
IMPORT_IGES
100
AcDbLine
 62
7
  6
CONTINUOUS
 10
-28.8727665946
 20
1.440785517
 11
-28.86056576
 21
1.4536899028
  0
LINE
  5
4DC
100
AcDbEntity
  8
IMPORT_IGES
100
AcDbLine
 62
7
  6
CONTINUOUS
 10
-28.86056576
 20
1.4536899028
 11
-28.8512654106
 21
1.463386687
  0
LINE
  5
4DD
100
AcDbEntity
  8
IMPORT_IGES
100
AcDbLine
 62
7
  6
CONTINUOUS
 10
-28.8534033586
 20
1.461180059
 11
-28.8512654106
 21
1.463386687
  0
LWPOLYLINE
  5
4DE
100
AcDbEntity
  8
IMPORT_IGES
100
AcDbPolyline
 62
253
  6
CONTINUOUS
 90
6
 70
0
 10
-28.9119148238
 20
1.7085516771
 10
-28.8075276754
 20
1.7957180833
 10
-28.764003049
 20
1.8317396146
 10
-28.7289567839
 20
1.8586423677
 10
-28.7032731475
 20
1.8752645397
 10
-28.6873683662
 20
1.8827679336
  0
LWPOLYLINE
  5
4DF
100
AcDbEntity
  8
IMPORT_IGES
100
AcDbPolyline
 62
253
  6
CONTINUOUS
 90
10
 70
0
 10
-19.4918208741
 20
-22.7919276965
 10
-19.4864833912
 20
-22.7947239732
 10
-19.4805884542
 20
-22.8040461245
 10
-19.4741851767
 20
-22.8199155641
 10
-19.4673609904
 20
-22.8421244156
 10
-19.4601607016
 20
-22.870485523
 10
-19.4525697338
 20
-22.9050795585
 10
-19.444628984
 20
-22.9458016467
 10
-19.4364469981
 20
-22.9921292701
 10
-19.4281081247
 20
-23.0435501425
  0
LWPOLYLINE
  5
4E0
100
AcDbEntity
  8
IMPORT_IGES
100
AcDbPolyline
 62
7
  6
CONTINUOUS
 90
17
 70
0
 10
-45.3445226844
 20
1.0824747404
 10
-45.3278581563
 20
1.0599280018
 10
-45.3114965399
 20
1.0283193816
 10
-45.2955505485
 20
0.9879632937
 10
-45.2803583222
 20
0.93980298
 10
-45.2659336096
 20
0.8836804683
 10
-45.2522626622
 20
0.8197537309
 10
-45.2396423748
 20
0.7494399267
 10
-45.2280941017
 20
0.6726091565
 10
-45.2175964887
 20
0.5893913196
 10
-45.2083823681
 20
0.5015932727
 10
-45.2004773055
 20
0.4091126753
 10
-45.1938557352
 20
0.3120518679
 10
-45.1886737935
 20
0.212524729
 10
-45.1849835256
 20
0.1112358846
 10
-45.1827328861
 20
0.0074807086
 10
-45.1819218752
 20
-0.098740799
  0
LINE
  5
4E1
100
AcDbEntity
  8
IMPORT_IGES
100
AcDbLine
 62
7
  6
CONTINUOUS
 10
-36.236983227
 20
21.0001477502
 11
-36.2368893834
 21
20.9992212645
  0
LINE
  5
4E2
100
AcDbEntity
  8
IMPORT_IGES
100
AcDbLine
 62
253
  6
CONTINUOUS
 10
-36.3467040289
 20
22.298134372
 11
-36.3720252741
 21
22.5944363652
  0
LINE
  5
4E3
100
AcDbEntity
  8
IMPORT_IGES
100
AcDbLine
 62
7
  6
CONTINUOUS
 10
-36.2368893834
 20
20.9992212645
 11
-36.2300245967
 21
20.9194105344
  0
LINE
  5
4E4
100
AcDbEntity
  8
IMPORT_IGES
100
AcDbLine
 62
7
  6
CONTINUOUS
 10
-36.2300245967
 20
20.9194105344
 11
-36.2201024492
 21
20.8026126918
  0
LINE
  5
4E5
100
AcDbEntity
  8
IMPORT_IGES
100
AcDbLine
 62
253
  6
CONTINUOUS
 10
-36.2623217542
 20
21.3016520624
 11
-36.2369838611
 21
21.0001600376
  0
LINE
  5
4E6
100
AcDbEntity
  8
IMPORT_IGES
100
AcDbLine
 62
7
  6
CONTINUOUS
 10
-35.2937584181
 20
22.7300433366
 11
-35.2937584181
 21
22.6799261107
  0
LINE
  5
4E7
100
AcDbEntity
  8
IMPORT_IGES
100
AcDbLine
 62
7
  6
CONTINUOUS
 10
-35.2892187708
 20
22.7303786719
 11
-35.2892187708
 21
22.6802584872
  0
LINE
  5
4E8
100
AcDbEntity
  8
IMPORT_IGES
100
AcDbLine
 62
7
  6
CONTINUOUS
 10
-35.284913145
 20
22.7306960574
 11
-35.284913145
 21
22.6805748023
  0
LINE
  5
4E9
100
AcDbEntity
  8
IMPORT_IGES
100
AcDbLine
 62
7
  6
CONTINUOUS
 10
-35.2794420762
 20
22.7310990831
 11
-35.2794434075
 21
22.6809377391
  0
LINE
  5
4EA
100
AcDbEntity
  8
IMPORT_IGES
100
AcDbLine
 62
7
  6
CONTINUOUS
 10
-35.2646856915
 20
22.7321846067
 11
-35.2646856915
 21
22.6820497063
  0
LINE
  5
4EB
100
AcDbEntity
  8
IMPORT_IGES
100
AcDbLine
 62
7
  6
CONTINUOUS
 10
-35.2554190252
 20
22.7328651687
 11
-35.2554190252
 21
22.6827306104
  0
LINE
  5
4EC
100
AcDbEntity
  8
IMPORT_IGES
100
AcDbLine
 62
7
  6
CONTINUOUS
 10
-35.2420539573
 20
22.7338452015
 11
-35.2420539573
 21
22.6837111359
  0
LINE
  5
4ED
100
AcDbEntity
  8
IMPORT_IGES
100
AcDbLine
 62
7
  6
CONTINUOUS
 10
-35.2727063057
 20
22.7315948586
 11
-35.2727090922
 21
22.6814183409
  0
LINE
  5
4EE
100
AcDbEntity
  8
IMPORT_IGES
100
AcDbLine
 62
253
  6
CONTINUOUS
 10
-36.2621912838
 20
-21.4989734129
 11
-36.2370912403
 21
-21.19918096
  0
LWPOLYLINE
  5
4EF
100
AcDbEntity
  8
IMPORT_IGES
100
AcDbPolyline
 62
253
  6
CONTINUOUS
 90
4
 70
0
 10
-36.3466751121
 20
-22.4952775791
 10
-36.3714661762
 20
-22.7858600166
 10
-36.3718818979
 20
-22.7904984489
 10
-36.3720254818
 20
-22.791921882
  0
LWPOLYLINE
  5
4F0
100
AcDbEntity
  8
IMPORT_IGES
100
AcDbPolyline
 62
7
  6
CONTINUOUS
 90
4
 70
0
 10
-36.2369833409
 20
-21.1976227441
 10
-36.2368938599
 20
-21.1967511958
 10
-36.236616865
 20
-21.1936634558
 10
-36.2201025772
 20
-21.0000955151
  0
LWPOLYLINE
  5
4F1
100
AcDbEntity
  8
RACCORDO
100
AcDbPolyline
 62
253
  6
CONTINUOUS
 90
3
 70
0
 10
-30.4769791789
 20
14.0678978452
 10
-30.4845433915
 20
13.9988974346
 10
-30.4908796234
 20
13.8604987132
  0
LINE
  5
4F2
100
AcDbEntity
  8
IMPORT_IGES
100
AcDbLine
 62
7
  6
CONTINUOUS
 10
-29.0973364919
 20
1.1593068875
 11
-29.0892709395
 21
1.170874406
  0
LINE
  5
4F3
100
AcDbEntity
  8
IMPORT_IGES
100
AcDbLine
 62
253
  6
CONTINUOUS
 10
-46.5184538317
 20
-11.2276578367
 11
-46.5910409007
 21
-11.2608764852
  0
LINE
  5
4F4
100
AcDbEntity
  8
IMPORT_IGES
100
AcDbLine
 62
253
  6
CONTINUOUS
 10
-46.5910409007
 20
-11.2608764852
 11
-46.6847108208
 21
-11.3030229235
  0
LINE
  5
4F5
100
AcDbEntity
  8
IMPORT_IGES
100
AcDbLine
 62
253
  6
CONTINUOUS
 10
-46.6847108208
 20
-11.3030229235
 11
-46.85932492
 21
-11.3805495472
  0
LINE
  5
4F6
100
AcDbEntity
  8
IMPORT_IGES
100
AcDbLine
 62
253
  6
CONTINUOUS
 10
-46.85932492
 20
-11.3805495472
 11
-47.1388830692
 21
-11.5031152255
  0
LINE
  5
4F7
100
AcDbEntity
  8
IMPORT_IGES
100
AcDbLine
 62
253
  6
CONTINUOUS
 10
-47.1388830692
 20
-11.5031152255
 11
-47.2893967234
 21
-11.5685495385
  0
LWPOLYLINE
  5
4F8
100
AcDbEntity
  8
IMPORT_IGES
100
AcDbPolyline
 62
7
  6
CONTINUOUS
 90
6
 70
0
 10
-25.9143126757
 20
-2.0377192752
 10
-25.9512514907
 20
-2.0531944698
 10
-26.0125135547
 20
-2.0727934386
 10
-26.0749670712
 20
-2.0869127023
 10
-26.1384942382
 20
-2.0955618225
 10
-26.2028918506
 20
-2.098740799
  0
LINE
  5
4F9
100
AcDbEntity
  8
IMPORT_IGES
100
AcDbLine
 62
7
  6
CONTINUOUS
 10
-12.5319218752
 20
-33.698740799
 11
-12.4319218752
 21
-33.798740799
  0
LWPOLYLINE
  5
4FA
100
AcDbEntity
  8
IMPORT_IGES
100
AcDbPolyline
 62
253
  6
CONTINUOUS
 90
55
 70
0
 10
-32.0819189106
 20
-13.0960635671
 10
-32.0747880437
 20
-13.3382655552
 10
-32.0538295185
 20
-13.5782078664
 10
-32.019043335
 20
-13.8158905008
 10
-31.9702138863
 20
-14.052168297
 10
-31.9075567793
 20
-14.2861864163
 10
-31.8317188348
 20
-14.5153803431
 10
-31.7424825996
 20
-14.7397329809
 10
-31.640065527
 20
-14.9592614263
 10
-31.5257667972
 20
-15.1714524526
 10
-31.3997827309
 20
-15.3758473339
 10
-31.2619170074
 20
-15.5729047961
 10
-31.1128798443
 20
-15.7614877913
 10
-30.9522260617
 20
-15.9419904217
 10
-30.7804008395
 20
-16.114018585
 10
-30.5994499347
 20
-16.2752529256
 10
-30.4093209766
 20
-16.4254240076
 10
-30.2100663359
 20
-16.5648012669
 10
-30.0038888816
 20
-16.6918736548
 10
-29.7907501532
 20
-16.8064635746
 10
-29.5706886112
 20
-16.908748623
 10
-29.346022507
 20
-16.9977505415
 10
-29.1167355362
 20
-17.0733196953
 10
-28.882844003
 20
-17.1356057192
 10
-28.6467150715
 20
-17.1840792593
 10
-28.4083530814
 20
-17.2186072498
 10
-28.167753693
 20
-17.2393227566
 10
-27.9272710509
 20
-17.246095623
 10
-27.6869118489
 20
-17.2388025989
 10
-27.4466693933
 20
-17.2175669345
 10
-27.2088777472
 20
-17.1826282236
 10
-26.9735601714
 20
-17.1338661166
 10
-26.7406934052
 20
-17.0714009631
 10
-26.5125417299
 20
-16.9958334056
 10
-26.2891438495
 20
-16.9070470166
 10
-26.07046106
 20
-16.8051582236
 10
-25.8586415308
 20
-16.6911169508
 10
-25.6537110919
 20
-16.5647778108
 10
-25.4556439132
 20
-16.426286191
 10
-25.2665106733
 20
-16.2770281778
 10
-25.0863255723
 20
-16.1167403485
 10
-24.9150744102
 20
-15.9456861256
 10
-24.7547852656
 20
-15.7660418637
 10
-24.6058705714
 20
-15.5781793144
 10
-24.4679178947
 20
-15.3817267259
 10
-24.3417180153
 20
-15.1777451969
 10
-24.2270667689
 20
-14.965766143
 10
-24.1241683199
 20
-14.7462581486
 10
-24.0344259413
 20
-14.5216880654
 10
-23.9580529916
 20
-14.2920199012
 10
-23.8948361123
 20
-14.0572896481
 10
-23.8455385018
 20
-13.8200721356
 10
-23.8104145592
 20
-13.58122564
 10
-23.7892098854
 20
-13.3398918849
 10
-23.7819244802
 20
-13.0960708702
  0
LINE
  5
4FB
100
AcDbEntity
  8
IMPORT_IGES
100
AcDbLine
 62
253
  6
CONTINUOUS
 10
-32.0819193211
 20
-0.048740799
 11
-32.0819193211
 21
12.8985902895
  0
LINE
  5
4FC
100
AcDbEntity
  8
IMPORT_IGES
100
AcDbLine
 62
253
  6
CONTINUOUS
 10
-32.0819189106
 20
-13.0960635671
 11
-32.0819189106
 21
-0.148740799
  0
LINE
  5
4FD
100
AcDbEntity
  8
IMPORT_IGES
100
AcDbLine
 62
7
  6
CONTINUOUS
 10
-31.7819218752
 20
-13.0987407988
 11
-31.7819218752
 21
-0.148740799
  0
LINE
  5
4FE
100
AcDbEntity
  8
IMPORT_IGES
100
AcDbLine
 62
7
  6
CONTINUOUS
 10
-31.7819218752
 20
-0.048740799
 11
-31.7819218752
 21
12.9012592003
  0
LINE
  5
4FF
100
AcDbEntity
  8
IMPORT_IGES
100
AcDbLine
 62
7
  6
CONTINUOUS
 10
-31.6819218752
 20
-13.098740799
 11
-31.6819218752
 21
12.901259201
  0
LINE
  5
500
100
AcDbEntity
  8
IMPORT_IGES
100
AcDbLine
 62
253
  6
CONTINUOUS
 10
-31.3818488667
 20
12.901259201
 11
-31.3819073038
 21
-13.0992922637
  0
LINE
  5
501
100
AcDbEntity
  8
RACCORDO
100
AcDbLine
 62
7
  6
CONTINUOUS
 10
-30.6819218752
 20
13.4190714507
 11
-30.6819218752
 21
12.3756074764
  0
LINE
  5
502
100
AcDbEntity
  8
RACCORDO
100
AcDbLine
 62
7
  6
CONTINUOUS
 10
-30.6819218752
 20
9.9269109256
 11
-30.6819218752
 21
8.8768041201
  0
LINE
  5
503
100
AcDbEntity
  8
RACCORDO
100
AcDbLine
 62
7
  6
CONTINUOUS
 10
-30.6819218752
 20
-9.0722020538
 11
-30.6819218752
 21
-10.1252513131
  0
LINE
  5
504
100
AcDbEntity
  8
RACCORDO
100
AcDbLine
 62
7
  6
CONTINUOUS
 10
-30.6819218752
 20
-12.5722292027
 11
-30.6819218752
 21
-13.6252885485
  0
LINE
  5
505
100
AcDbEntity
  8
IMPORT_IGES
100
AcDbLine
 62
7
  6
CONTINUOUS
 10
-30.6426149573
 20
22.9645315353
 11
-30.6426149573
 21
22.9145131647
  0
LINE
  5
506
100
AcDbEntity
  8
RACCORDO
100
AcDbLine
 62
253
  6
CONTINUOUS
 10
-30.6408567776
 20
13.6026245348
 11
-30.6408567776
 21
12.1950046449
  0
LINE
  5
507
100
AcDbEntity
  8
RACCORDO
100
AcDbLine
 62
253
  6
CONTINUOUS
 10
-30.6408567776
 20
10.1075137571
 11
-30.6408567776
 21
8.6939559535
  0
LINE
  5
508
100
AcDbEntity
  8
RACCORDO
100
AcDbLine
 62
253
  6
CONTINUOUS
 10
-30.5998901486
 20
-13.9471424024
 11
-30.5998901486
 21
-12.2500203562
  0
LINE
  5
509
100
AcDbEntity
  8
RACCORDO
100
AcDbLine
 62
253
  6
CONTINUOUS
 10
-30.5998901486
 20
-10.4474463877
 11
-30.5998901486
 21
-8.7540805603
  0
LINE
  5
50A
100
AcDbEntity
  8
IMPORT_IGES
100
AcDbLine
 62
7
  6
CONTINUOUS
 10
-30.5381165654
 20
0.9238663495
 11
-30.5381165654
 21
-1.1173131803
  0
LINE
  5
50B
100
AcDbEntity
  8
RACCORDO
100
AcDbLine
 62
253
  6
CONTINUOUS
 10
-30.4908796234
 20
13.8604987132
 11
-30.4908796234
 21
11.7674234972
  0
LINE
  5
50C
100
AcDbEntity
  8
RACCORDO
100
AcDbLine
 62
253
  6
CONTINUOUS
 10
-30.4908796234
 20
10.5350949048
 11
-30.4908796234
 21
8.2686748621
  0
LINE
  5
50D
100
AcDbEntity
  8
IMPORT_IGES
100
AcDbLine
 62
7
  6
CONTINUOUS
 10
-30.4319218752
 20
-40.298740799
 11
-30.4319218752
 21
-23.298740799
  0
LINE
  5
50E
100
AcDbEntity
  8
IMPORT_IGES
100
AcDbLine
 62
7
  6
CONTINUOUS
 10
-30.4319218752
 20
-1.298740799
 11
-30.4319218752
 21
1.101259201
  0
LINE
  5
50F
100
AcDbEntity
  8
IMPORT_IGES
100
AcDbLine
 62
7
  6
CONTINUOUS
 10
-30.4291007423
 20
1.1640754944
 11
-30.4319218752
 21
1.101259201
  0
LWPOLYLINE
  5
510
100
AcDbEntity
  8
IMPORT_IGES
100
AcDbPolyline
 62
7
  6
CONTINUOUS
 90
14
 70
0
 10
-29.4773619989
 20
0.0444283179
 10
-29.4736137066
 20
0.094418849
 10
-29.4591018549
 20
0.2208276333
 10
-29.4378487537
 20
0.3444105338
 10
-29.4106133545
 20
0.4631821122
 10
-29.3783051272
 20
0.5761600362
 10
-29.3416522822
 20
0.6832658628
 10
-29.3015018517
 20
0.7840153884
 10
-29.2588843162
 20
0.8779301467
 10
-29.214716582
 20
0.9647471031
 10
-29.1698918559
 20
1.0443695589
 10
-29.1254303843
 20
1.1166240019
 10
-29.0822713056
 20
1.181376032
 10
-29.0412316083
 20
1.2387466655
  0
LINE
  5
511
100
AcDbEntity
  8
IMPORT_IGES
100
AcDbLine
 62
7
  6
CONTINUOUS
 10
-17.8988217565
 20
21.9699731493
 11
-17.8989246326
 21
21.9697108295
  0
LWPOLYLINE
  5
512
100
AcDbEntity
  8
IMPORT_IGES
100
AcDbPolyline
 62
7
  6
CONTINUOUS
 90
8
 70
0
 10
-27.0132801674
 20
-1.6615929856
 10
-27.0530843507
 20
-1.7071516039
 10
-27.0890070323
 20
-1.757919194
 10
-27.1196344685
 20
-1.8124411233
 10
-27.1442974312
 20
-1.8695229955
 10
-27.1628279423
 20
-1.9284937587
 10
-27.1752418278
 20
-1.9893829907
 10
-27.1812900904
 20
-2.0512022518
  0
LWPOLYLINE
  5
513
100
AcDbEntity
  8
IMPORT_IGES
100
AcDbPolyline
 62
253
  6
CONTINUOUS
 90
7
 70
0
 10
-7.1605140004
 20
1.1663050904
 10
-7.1621507606
 20
1.1656804979
 10
-7.167025675
 20
1.1649210566
 10
-7.1749867806
 20
1.1640392209
 10
-7.1857762711
 20
1.1630548266
 10
-7.1992317471
 20
1.1619764411
 10
-7.2154632941
 20
1.1607948449
  0
LWPOLYLINE
  5
514
100
AcDbEntity
  8
IMPORT_IGES
100
AcDbPolyline
 62
7
  6
CONTINUOUS
 90
5
 70
0
 10
-10.4847449931
 20
0.301339482
 10
-10.4917960216
 20
0.2987575252
 10
-10.4986048973
 20
0.29207782
 10
-10.5051716205
 20
0.2813003664
 10
-10.5115557809
 20
0.2662173206
  0
LWPOLYLINE
  5
515
100
AcDbEntity
  8
IMPORT_IGES
100
AcDbPolyline
 62
253
  6
CONTINUOUS
 90
5
 70
0
 10
-24.0819218752
 20
-13.0987407975
 10
-24.080254293
 20
-13.0984651484
 10
-24.0753396948
 20
-13.0981954077
 10
-24.0673342215
 20
-13.0979343697
 10
-24.0564993005
 20
-13.097686105
  0
LINE
  5
516
100
AcDbEntity
  8
IMPORT_IGES
100
AcDbLine
 62
253
  6
CONTINUOUS
 10
-24.0564993005
 20
-13.097686105
 11
-24.0267357254
 21
-13.0972276511
  0
LINE
  5
517
100
AcDbEntity
  8
IMPORT_IGES
100
AcDbLine
 62
253
  6
CONTINUOUS
 10
-24.0267357254
 20
-13.0972276511
 11
-23.9621046139
 21
-13.096647626
  0
LINE
  5
518
100
AcDbEntity
  8
IMPORT_IGES
100
AcDbLine
 62
253
  6
CONTINUOUS
 10
-23.9621046139
 20
-13.096647626
 11
-23.8467120557
 21
-13.0961846192
  0
LINE
  5
519
100
AcDbEntity
  8
IMPORT_IGES
100
AcDbLine
 62
253
  6
CONTINUOUS
 10
-23.8467120557
 20
-13.0961846192
 11
-23.7819218752
 21
-13.0961228369
  0
LINE
  5
51A
100
AcDbEntity
  8
RACCORDO
100
AcDbLine
 62
253
  6
CONTINUOUS
 10
-25.3027425873
 20
-14.0579803151
 11
-25.3729641269
 21
-14.0579803112
  0
LINE
  5
51B
100
AcDbEntity
  8
IMPORT_IGES
100
AcDbLine
 62
253
  6
CONTINUOUS
 10
-31.6819218752
 20
-13.098740799
 11
-31.3819218752
 21
-13.098740799
  0
LINE
  5
51C
100
AcDbEntity
  8
IMPORT_IGES
100
AcDbLine
 62
253
  6
CONTINUOUS
 10
-24.4819218752
 20
-13.098740799
 11
-24.1819218752
 21
-13.098740799
  0
LINE
  5
51D
100
AcDbEntity
  8
IMPORT_IGES
100
AcDbLine
 62
253
  6
CONTINUOUS
 10
-32.0819218752
 20
-13.0961228384
 11
-31.9341454975
 21
-13.0964624856
  0
LINE
  5
51E
100
AcDbEntity
  8
IMPORT_IGES
100
AcDbLine
 62
253
  6
CONTINUOUS
 10
-31.9341454975
 20
-13.0964624856
 11
-31.8621250297
 21
-13.0969590177
  0
LWPOLYLINE
  5
51F
100
AcDbEntity
  8
IMPORT_IGES
100
AcDbPolyline
 62
253
  6
CONTINUOUS
 90
7
 70
0
 10
-31.8621250297
 20
-13.0969590177
 10
-31.8244325625
 20
-13.0973973871
 10
-31.8095456063
 20
-13.0976435029
 10
-31.797666473
 20
-13.0979038307
 10
-31.7890011647
 20
-13.0981754261
 10
-31.7837088732
 20
-13.0984554793
 10
-31.7819218752
 20
-13.0987407989
  0
LINE
  5
520
100
AcDbEntity
  8
IMPORT_IGES
100
AcDbLine
 62
253
  6
CONTINUOUS
 10
-30.305784756
 20
-11.6138923142
 11
-30.5601272076
 21
-11.4548014052
  0
LINE
  5
521
100
AcDbEntity
  8
IMPORT_IGES
100
AcDbLine
 62
7
  6
CONTINUOUS
 10
-33.0087167944
 20
-0.048740799
 11
-32.9819218752
 21
-0.148740799
  0
LWPOLYLINE
  5
522
100
AcDbEntity
  8
IMPORT_IGES
100
AcDbPolyline
 62
7
  6
CONTINUOUS
 90
8
 70
0
 10
-28.6826324688
 20
-2.0495315538
 10
-28.6888169661
 20
-1.9879650055
 10
-28.7013159524
 20
-1.9273372476
 10
-28.719881293
 20
-1.8686243368
 10
-28.7445286221
 20
-1.8117970265
 10
-28.7750904755
 20
-1.7575183279
 10
-28.8109040204
 20
-1.7069682506
 10
-28.8491805856
 20
-1.6630282227
  0
LINE
  5
523
100
AcDbEntity
  8
IMPORT_IGES
100
AcDbLine
 62
7
  6
CONTINUOUS
 10
-30.4319218751
 20
-1.298740799
 11
-30.4289600891
 21
-1.3641405018
  0
LINE
  5
524
100
AcDbEntity
  8
IMPORT_IGES
100
AcDbLine
 62
7
  6
CONTINUOUS
 10
-28.6819260523
 20
-2.0786356319
 11
-28.6826324688
 21
-2.0495315538
  0
LINE
  5
525
100
AcDbEntity
  8
RACCORDO
100
AcDbLine
 62
253
  6
CONTINUOUS
 10
-29.9179764161
 20
8.401259201
 11
-29.9179764161
 21
14.8749717792
  0
LINE
  5
526
100
AcDbEntity
  8
RACCORDO
100
AcDbLine
 62
253
  6
CONTINUOUS
 10
-29.8498058648
 20
8.401259201
 11
-29.8498058648
 21
14.9388682389
  0
LINE
  5
527
100
AcDbEntity
  8
IMPORT_IGES
100
AcDbLine
 62
7
  6
CONTINUOUS
 10
-28.6819218752
 20
-2.098740799
 11
-28.6819218752
 21
-2.0786341237
  0
LINE
  5
528
100
AcDbEntity
  8
IMPORT_IGES
100
AcDbLine
 62
7
  6
CONTINUOUS
 10
-28.6819218752
 20
1.8811525493
 11
-28.6819218752
 21
1.901259201
  0
LINE
  5
529
100
AcDbEntity
  8
IMPORT_IGES
100
AcDbLine
 62
7
  6
CONTINUOUS
 10
-28.682632465
 20
1.8520500408
 11
-28.681926053
 21
1.8811363576
  0
LWPOLYLINE
  5
52A
100
AcDbEntity
  8
IMPORT_IGES
100
AcDbPolyline
 62
253
  6
CONTINUOUS
 90
4
 70
0
 10
-36.9897376851
 20
-20.9187290988
 10
-36.9845083661
 20
-20.9117571658
 10
-36.981418285
 20
-20.907520362
 10
-36.9804876297
 20
-20.9060498735
  0
LINE
  5
52B
100
AcDbEntity
  8
IMPORT_IGES
100
AcDbLine
 62
253
  6
CONTINUOUS
 10
-37.0060395146
 20
-20.9401268397
 11
-36.9897376851
 21
-20.9187290988
  0
LINE
  5
52C
100
AcDbEntity
  8
IMPORT_IGES
100
AcDbLine
 62
253
  6
CONTINUOUS
 10
-37.0728676995
 20
-21.026602725
 11
-37.0060395146
 21
-20.9401268397
  0
LINE
  5
52D
100
AcDbEntity
  8
IMPORT_IGES
100
AcDbLine
 62
253
  6
CONTINUOUS
 10
-37.1646796084
 20
-21.1448856816
 11
-37.0728676995
 21
-21.026602725
  0
LINE
  5
52E
100
AcDbEntity
  8
IMPORT_IGES
100
AcDbLine
 62
7
  6
CONTINUOUS
 10
-36.9395730494
 20
-20.854947667
 11
-36.8573909614
 21
-20.7501635171
  0
LINE
  5
52F
100
AcDbEntity
  8
IMPORT_IGES
100
AcDbLine
 62
253
  6
CONTINUOUS
 10
-37.7806054677
 20
-21.9332707061
 11
-37.9036813608
 21
-22.0901970383
  0
LINE
  5
530
100
AcDbEntity
  8
IMPORT_IGES
100
AcDbLine
 62
7
  6
CONTINUOUS
 10
-36.9638221356
 20
-20.8855749493
 11
-36.9395730494
 21
-20.854947667
  0
LINE
  5
531
100
AcDbEntity
  8
IMPORT_IGES
100
AcDbLine
 62
253
  6
CONTINUOUS
 10
-37.9036813608
 20
-22.0901970383
 11
-37.9400930243
 21
-22.1361880841
  0
LWPOLYLINE
  5
532
100
AcDbEntity
  8
IMPORT_IGES
100
AcDbPolyline
 62
253
  6
CONTINUOUS
 90
5
 70
0
 10
-37.9400930243
 20
-22.1361880841
 10
-37.9559177325
 20
-22.1559534532
 10
-37.9610155399
 20
-22.1622167195
 10
-37.9641413021
 20
-22.1659483747
 10
-37.9652519959
 20
-22.167096282
  0
LINE
  5
533
100
AcDbEntity
  8
IMPORT_IGES
100
AcDbLine
 62
253
  6
CONTINUOUS
 10
-38.8403940555
 20
-21.7459442938
 11
-38.9140378128
 21
-21.8378162004
  0
LINE
  5
534
100
AcDbEntity
  8
IMPORT_IGES
100
AcDbLine
 62
253
  6
CONTINUOUS
 10
-38.9140378128
 20
-21.8378162004
 11
-39.000103775
 21
-21.9438278077
  0
LINE
  5
535
100
AcDbEntity
  8
IMPORT_IGES
100
AcDbLine
 62
253
  6
CONTINUOUS
 10
-39.000103775
 20
-21.9438278077
 11
-39.1473696639
 21
-22.1230551868
  0
LINE
  5
536
100
AcDbEntity
  8
IMPORT_IGES
100
AcDbLine
 62
253
  6
CONTINUOUS
 10
-39.1473696639
 20
-22.1230551868
 11
-39.3079362431
 21
-22.3161926516
  0
LINE
  5
537
100
AcDbEntity
  8
IMPORT_IGES
100
AcDbLine
 62
253
  6
CONTINUOUS
 10
-30.5601272075
 20
-11.242680193
 11
-30.305784756
 21
-11.0835892839
  0
LINE
  5
538
100
AcDbEntity
  8
IMPORT_IGES
100
AcDbLine
 62
253
  6
CONTINUOUS
 10
-25.5580589943
 20
-11.0835892838
 11
-25.3037165427
 21
-11.2426801929
  0
LWPOLYLINE
  5
539
100
AcDbEntity
  8
IMPORT_IGES
100
AcDbPolyline
 62
7
  6
CONTINUOUS
 90
4
 70
0
 10
-18.8833546525
 20
-20.9060454249
 10
-18.884081558
 20
-20.9052979999
 10
-18.8861570309
 20
-20.9028213145
 10
-18.8895495323
 20
-20.8986537794
  0
LWPOLYLINE
  5
53A
100
AcDbEntity
  8
IMPORT_IGES
100
AcDbPolyline
 62
253
  6
CONTINUOUS
 90
4
 70
0
 10
-17.9078134047
 20
-22.1560933946
 10
-17.9027753113
 20
-22.1622816736
 10
-17.8996942486
 20
-22.1659585307
 10
-17.898593185
 20
-22.1670974738
  0
LINE
  5
53B
100
AcDbEntity
  8
IMPORT_IGES
100
AcDbLine
 62
253
  6
CONTINUOUS
 10
-17.9235726965
 20
-22.1364120876
 11
-17.9078134047
 21
-22.1560933946
  0
LINE
  5
53C
100
AcDbEntity
  8
IMPORT_IGES
100
AcDbLine
 62
7
  6
CONTINUOUS
 10
-18.8895495323
 20
-20.8986537794
 11
-18.9000800918
 21
-20.8855015796
  0
LINE
  5
53D
100
AcDbEntity
  8
IMPORT_IGES
100
AcDbLine
 62
253
  6
CONTINUOUS
 10
-17.9749469982
 20
-22.0714347898
 11
-17.9235726965
 21
-22.1364120876
  0
LINE
  5
53E
100
AcDbEntity
  8
IMPORT_IGES
100
AcDbLine
 62
7
  6
CONTINUOUS
 10
-18.9000800918
 20
-20.8855015796
 11
-18.9343191423
 21
-20.8421960535
  0
LINE
  5
53F
100
AcDbEntity
  8
IMPORT_IGES
100
AcDbLine
 62
253
  6
CONTINUOUS
 10
-18.0449878793
 20
-21.9821909902
 11
-17.9749469982
 21
-22.0714347898
  0
LINE
  5
540
100
AcDbEntity
  8
IMPORT_IGES
100
AcDbLine
 62
7
  6
CONTINUOUS
 10
-18.9343191423
 20
-20.8421960535
 11
-18.9809485044
 21
-20.7827826028
  0
LWPOLYLINE
  5
541
100
AcDbEntity
  8
IMPORT_IGES
100
AcDbPolyline
 62
7
  6
CONTINUOUS
 90
8
 70
0
 10
-27.1812900941
 20
1.8537207409
 10
-27.1752418396
 20
1.7919014733
 10
-27.1628279591
 20
1.7310122271
 10
-27.1442974476
 20
1.6720414427
 10
-27.1196344767
 20
1.6149595426
 10
-27.0890070225
 20
1.5604375811
 10
-27.0530843127
 20
1.5096699578
 10
-27.0125782961
 20
1.4633866419
  0
LWPOLYLINE
  5
542
100
AcDbEntity
  8
RACCORDO
100
AcDbPolyline
 62
253
  6
CONTINUOUS
 90
37
 70
0
 10
-26.0140378855
 20
-8.598740799
 10
-26.0184716899
 20
-8.5127052064
 10
-26.0313611267
 20
-8.4269871254
 10
-26.0526922796
 20
-8.3417433509
 10
-26.0834336488
 20
-8.2559817383
 10
-26.1226246572
 20
-8.1710200185
 10
-26.1671525334
 20
-8.0903893386
 10
-26.2166598087
 20
-8.0151173897
 10
-26.2710492545
 20
-7.9441867454
 10
-26.3273953356
 20
-7.8779157804
 10
-26.3839819737
 20
-7.8173938584
 10
-26.442116008
 20
-7.7613546491
 10
-26.5035393439
 20
-7.706669154
 10
-26.5691684152
 20
-7.6522647215
 10
-26.6380475712
 20
-7.5992975026
 10
-26.7092288567
 20
-7.5480875762
 10
-26.7828700153
 20
-7.4985491792
 10
-26.8587232013
 20
-7.4507676876
 10
-26.9351996814
 20
-7.4052655554
 10
-27.0120386799
 20
-7.3621287874
 10
-27.0893752425
 20
-7.3211709235
 10
-27.1661930276
 20
-7.2824591722
 10
-27.2413409099
 20
-7.2463882299
 10
-27.3158489651
 20
-7.2124123425
 10
-27.3920131398
 20
-7.1792588553
 10
-27.4701481606
 20
-7.1467384259
 10
-27.5499229581
 20
-7.1150760708
 10
-27.6327223755
 20
-7.0837445408
 10
-27.7190613456
 20
-7.0526056581
 10
-27.8084413845
 20
-7.0219236733
 10
-27.9007418958
 20
-6.991814716
 10
-27.9957767768
 20
-6.9623943145
 10
-28.0937336238
 20
-6.9336564503
 10
-28.1950532758
 20
-6.9055450377
 10
-28.2997490338
 20
-6.8781303678
 10
-28.4078124843
 20
-6.8514928896
 10
-28.4328730842
 20
-6.8456960559
  0
LWPOLYLINE
  5
543
100
AcDbEntity
  8
RACCORDO
100
AcDbPolyline
 62
253
  6
CONTINUOUS
 90
34
 70
0
 10
-25.9458673342
 20
-8.598740799
 10
-25.9503520675
 20
-8.5061552519
 10
-25.9633874859
 20
-8.41419132
 10
-25.9849735895
 20
-8.3228490033
 10
-26.0162360399
 20
-8.2307885194
 10
-26.0560491755
 20
-8.1393496508
 10
-26.1010360112
 20
-8.0525517449
 10
-26.1512000363
 20
-7.9716366154
 10
-26.2065377615
 20
-7.8953624486
 10
-26.263661734
 20
-7.8240231513
 10
-26.3209272415
 20
-7.7588574992
 10
-26.3799789962
 20
-7.6986267164
 10
-26.442363682
 20
-7.6399083826
 10
-26.5089451436
 20
-7.5814384483
 10
-26.5788595363
 20
-7.5244809629
 10
-26.6510620106
 20
-7.469405654
 10
-26.7257778384
 20
-7.4161661431
 10
-26.8027817477
 20
-7.3648088086
 10
-26.8803530728
 20
-7.3158425134
 10
-26.9583022456
 20
-7.2694528348
 10
-27.0368188343
 20
-7.2254541956
 10
-27.114750877
 20
-7.183798726
 10
-27.1909601696
 20
-7.1449453428
 10
-27.2665849162
 20
-7.1084351294
 10
-27.3438877679
 20
-7.0728434662
 10
-27.4231558738
 20
-7.0378589368
 10
-27.5041020848
 20
-7.0037929576
 10
-27.5881276052
 20
-6.9701551588
 10
-27.675737777
 20
-6.9366994262
 10
-27.7664272581
 20
-6.9036718739
 10
-27.860081227
 20
-6.8713204747
 10
-27.9565110209
 20
-6.8397005592
 10
-28.0559053026
 20
-6.8087567967
 10
-28.0723335538
 20
-6.8039333612
  0
LINE
  5
544
100
AcDbEntity
  8
IMPORT_IGES
100
AcDbLine
 62
7
  6
CONTINUOUS
 10
-27.1819176976
 20
1.881149393
 11
-27.1812900941
 21
1.8537207409
  0
LINE
  5
545
100
AcDbEntity
  8
IMPORT_IGES
100
AcDbLine
 62
7
  6
CONTINUOUS
 10
-27.1819218752
 20
-2.098740799
 11
-27.1819218752
 21
-2.0786341238
  0
LINE
  5
546
100
AcDbEntity
  8
IMPORT_IGES
100
AcDbLine
 62
7
  6
CONTINUOUS
 10
-27.1819218752
 20
1.8811525493
 11
-27.1819218752
 21
1.901259201
  0
LINE
  5
547
100
AcDbEntity
  8
RACCORDO
100
AcDbLine
 62
253
  6
CONTINUOUS
 10
-26.0140378855
 20
-15.1375118543
 11
-26.0140378855
 21
-8.598740799
  0
LINE
  5
548
100
AcDbEntity
  8
RACCORDO
100
AcDbLine
 62
253
  6
CONTINUOUS
 10
-25.9458673342
 20
-15.0701267862
 11
-25.9458673342
 21
-8.598740799
  0
LINE
  5
549
100
AcDbEntity
  8
IMPORT_IGES
100
AcDbLine
 62
7
  6
CONTINUOUS
 10
-25.4319218752
 20
1.101259201
 11
-25.4319218752
 21
-1.298740799
  0
LINE
  5
54A
100
AcDbEntity
  8
IMPORT_IGES
100
AcDbLine
 62
7
  6
CONTINUOUS
 10
-25.4319218752
 20
-40.298740799
 11
-25.4319218752
 21
-23.298740799
  0
LINE
  5
54B
100
AcDbEntity
  8
RACCORDO
100
AcDbLine
 62
253
  6
CONTINUOUS
 10
-25.3729641269
 20
-8.465765936
 11
-25.3729641269
 21
-10.7325765028
  0
LINE
  5
54C
100
AcDbEntity
  8
RACCORDO
100
AcDbLine
 62
253
  6
CONTINUOUS
 10
-25.3729641269
 20
-11.9649050952
 11
-25.3729641269
 21
-14.0579803112
  0
LINE
  5
54D
100
AcDbEntity
  8
IMPORT_IGES
100
AcDbLine
 62
7
  6
CONTINUOUS
 10
-25.3257271849
 20
-1.1213479476
 11
-25.3257271849
 21
0.9198315822
  0
LINE
  5
54E
100
AcDbEntity
  8
RACCORDO
100
AcDbLine
 62
253
  6
CONTINUOUS
 10
-25.2639536017
 20
13.7473797201
 11
-25.2639536017
 21
12.0525386337
  0
LINE
  5
54F
100
AcDbEntity
  8
RACCORDO
100
AcDbLine
 62
253
  6
CONTINUOUS
 10
-25.2639536017
 20
10.2499647897
 11
-25.2639536017
 21
8.5528482344
  0
LINE
  5
550
100
AcDbEntity
  8
IMPORT_IGES
100
AcDbLine
 62
7
  6
CONTINUOUS
 10
-25.2469739573
 20
22.965225999
 11
-25.2469739573
 21
22.9152079759
  0
LINE
  5
551
100
AcDbEntity
  8
RACCORDO
100
AcDbLine
 62
253
  6
CONTINUOUS
 10
-25.2229869727
 20
-8.8914375515
 11
-25.2229869727
 21
-10.3049953551
  0
LINE
  5
552
100
AcDbEntity
  8
RACCORDO
100
AcDbLine
 62
253
  6
CONTINUOUS
 10
-25.2229869727
 20
-12.3924862429
 11
-25.2229869727
 21
-13.7996275717
  0
LINE
  5
553
100
AcDbEntity
  8
RACCORDO
100
AcDbLine
 62
7
  6
CONTINUOUS
 10
-25.1958859271
 20
-9.0093080127
 11
-25.1958859271
 21
-10.1847767471
  0
LINE
  5
554
100
AcDbEntity
  8
DRAFT
100
AcDbLine
 62
7
  6
CONTINUOUS
 10
-25.1819218752
 20
-13.6155100674
 11
-25.1819218752
 21
-12.5730890744
  0
LINE
  5
555
100
AcDbEntity
  8
RACCORDO
100
AcDbLine
 62
7
  6
CONTINUOUS
 10
-25.1819218752
 20
8.8747204557
 11
-25.1819218752
 21
9.927769715
  0
LINE
  5
556
100
AcDbEntity
  8
RACCORDO
100
AcDbLine
 62
7
  6
CONTINUOUS
 10
-25.1819218752
 20
12.3747477535
 11
-25.1819218752
 21
13.4257142819
  0
LINE
  5
557
100
AcDbEntity
  8
IMPORT_IGES
100
AcDbLine
 62
7
  6
CONTINUOUS
 10
-27.1812900904
 20
-2.0512022518
 11
-27.1819176979
 21
-2.0786312956
  0
LWPOLYLINE
  5
558
100
AcDbEntity
  8
RACCORDO
100
AcDbPolyline
 62
253
  6
CONTINUOUS
 90
3
 70
0
 10
-25.3729641269
 20
-14.0579803112
 10
-25.3785800801
 20
-14.1906679152
 10
-25.3861358246
 20
-14.2622411569
  0
LINE
  5
559
100
AcDbEntity
  8
IMPORT_IGES
100
AcDbLine
 62
7
  6
CONTINUOUS
 10
-25.4319218752
 20
-1.298740799
 11
-25.435455349
 21
-1.3629209579
  0
LINE
  5
55A
100
AcDbEntity
  8
IMPORT_IGES
100
AcDbLine
 62
7
  6
CONTINUOUS
 10
-22.8551269559
 20
-0.048740799
 11
-22.8819218752
 21
-0.148740799
  0
LWPOLYLINE
  5
55B
100
AcDbEntity
  8
IMPORT_IGES
100
AcDbPolyline
 62
7
  6
CONTINUOUS
 90
5
 70
0
 10
-36.9804871881
 20
-20.9060478149
 10
-36.9797470611
 20
-20.9052804736
 10
-36.9776903671
 20
-20.902825652
 10
-36.9743309773
 20
-20.8986991723
 10
-36.9638221356
 20
-20.8855749493
  0
LINE
  5
55C
100
AcDbEntity
  8
IMPORT_IGES
100
AcDbLine
 62
253
  6
CONTINUOUS
 10
-25.3037165428
 20
-11.454801405
 11
-25.5580589943
 21
-11.6138923142
  0
LINE
  5
55D
100
AcDbEntity
  8
RACCORDO
100
AcDbLine
 62
253
  6
CONTINUOUS
 10
-25.9458673373
 20
-8.5987407997
 11
-30.5463679379
 21
-8.598740799
  0
LINE
  5
55E
100
AcDbEntity
  8
IMPORT_IGES
100
AcDbLine
 62
253
  6
CONTINUOUS
 10
-16.7216005434
 20
-22.1168494923
 11
-16.5559063557
 21
-22.3161809589
  0
LINE
  5
55F
100
AcDbEntity
  8
IMPORT_IGES
100
AcDbLine
 62
253
  6
CONTINUOUS
 10
-16.8705658916
 20
-21.9354581936
 11
-16.7216005434
 21
-22.1168494923
  0
LINE
  5
560
100
AcDbEntity
  8
IMPORT_IGES
100
AcDbLine
 62
253
  6
CONTINUOUS
 10
-16.9564580626
 20
-21.8295636808
 11
-16.8705658916
 21
-21.9354581936
  0
LINE
  5
561
100
AcDbEntity
  8
IMPORT_IGES
100
AcDbLine
 62
253
  6
CONTINUOUS
 10
-18.0834347106
 20
-21.9330182018
 11
-18.0449878793
 21
-21.9821909902
  0
LINE
  5
562
100
AcDbEntity
  8
IMPORT_IGES
100
AcDbLine
 62
7
  6
CONTINUOUS
 10
-18.9809485044
 20
-20.7827826028
 11
-19.0064532357
 21
-20.7501629023
  0
LINE
  5
563
100
AcDbEntity
  8
IMPORT_IGES
100
AcDbLine
 62
253
  6
CONTINUOUS
 10
-18.6994428925
 20
-21.1446740577
 11
-18.8469385724
 21
-20.9542783242
  0
LWPOLYLINE
  5
564
100
AcDbEntity
  8
IMPORT_IGES
100
AcDbPolyline
 62
253
  6
CONTINUOUS
 90
6
 70
0
 10
-18.8469385724
 20
-20.9542783242
 10
-18.8668051706
 20
-20.9283505466
 10
-18.8740623071
 20
-20.9187863537
 10
-18.8793136404
 20
-20.9117851668
 10
-18.8824194241
 20
-20.9075277786
 10
-18.8833560459
 20
-20.9060498151
  0
LINE
  5
565
100
AcDbEntity
  8
DRAFT
100
AcDbLine
 62
7
  6
CONTINUOUS
 10
-25.1954766804
 20
-10.1857647559
 11
-25.1958859271
 21
-10.1847767471
  0
LINE
  5
566
100
AcDbEntity
  8
IMPORT_IGES
100
AcDbLine
 62
7
  6
CONTINUOUS
 10
-37.9649496028
 20
21.9696850795
 11
-37.9650525856
 21
21.9699476714
  0
LINE
  5
567
100
AcDbEntity
  8
IMPORT_IGES
100
AcDbLine
 62
7
  6
CONTINUOUS
 10
-25.4355608838
 20
1.1681020183
 11
-25.4319218752
 21
1.101259201
  0
LWPOLYLINE
  5
568
100
AcDbEntity
  8
IMPORT_IGES
100
AcDbPolyline
 62
253
  6
CONTINUOUS
 90
55
 70
0
 10
-23.7819247179
 20
12.8985844034
 10
-23.7890557703
 20
13.1407863521
 10
-23.8100143394
 20
13.3807283263
 10
-23.8448004253
 20
13.6184103259
 10
-23.8936296013
 20
13.8546870142
 10
-23.9562862941
 20
14.0887037279
 10
-24.0321237834
 20
14.3178964771
 10
-24.1213596301
 20
14.5422484779
 10
-24.2237762733
 20
14.7617765142
 10
-24.33807431
 20
14.9739669471
 10
-24.46405746
 20
15.1783609366
 10
-24.6019220036
 20
15.3754173227
 10
-24.7509573785
 20
15.5639989871
 10
-24.911608186
 20
15.7444996128
 10
-25.0834298249
 20
15.9165255168
 10
-25.2643779299
 20
16.0777585315
 10
-25.4545054734
 20
16.2279298759
 10
-25.653759483
 20
16.367308331
 10
-25.8599366761
 20
16.4943820731
 10
-26.0730754053
 20
16.6089733148
 10
-26.293137318
 20
16.7112598435
 10
-26.5178040741
 20
16.8002631965
 10
-26.7470919925
 20
16.8758337094
 10
-26.9809847544
 20
16.9381210467
 10
-27.2171150625
 20
16.9865957396
 10
-27.4554785667
 20
17.0211246965
 10
-27.6960796171
 20
17.0418410089
 10
-27.9365639666
 20
17.0486144824
 10
-28.1769249213
 20
17.0413218505
 10
-28.4171691751
 20
17.0200863797
 10
-28.6549625619
 20
16.9851476747
 10
-28.8902818215
 20
16.9363853677
 10
-29.123150214
 20
16.8739198264
 10
-29.3513033537
 20
16.798351759
 10
-29.5747025306
 20
16.7095647164
 10
-29.7933864547
 20
16.6076751476
 10
-30.0052068697
 20
16.4936331083
 10
-30.2101380661
 20
16.3672930251
 10
-30.4082057536
 20
16.2288004713
 10
-30.597338805
 20
16.0795422233
 10
-30.7775224572
 20
15.9192554665
 10
-30.9487714733
 20
15.7482030155
 10
-31.1090590161
 20
15.5685600897
 10
-31.257973216
 20
15.3806979902
 10
-31.3959259426
 20
15.1842454159
 10
-31.5221259674
 20
14.980263683
 10
-31.6367773813
 20
14.7682840888
 10
-31.7396760935
 20
14.548775336
 10
-31.8294186021
 20
14.3242048494
 10
-31.905791409
 20
14.0945369586
 10
-31.9690080123
 20
13.8598073339
 10
-32.0183054058
 20
13.622590411
 10
-32.0534292541
 20
13.3837443353
 10
-32.0746338925
 20
13.1424109615
 10
-32.0819193211
 20
12.8985902895
  0
LINE
  5
569
100
AcDbEntity
  8
IMPORT_IGES
100
AcDbLine
 62
253
  6
CONTINUOUS
 10
-24.481988143
 20
-13.098740799
 11
-24.4819364465
 21
12.9018106656
  0
LINE
  5
56A
100
AcDbEntity
  8
IMPORT_IGES
100
AcDbLine
 62
7
  6
CONTINUOUS
 10
-24.1819218752
 20
12.901259201
 11
-24.1819218752
 21
-13.098740799
  0
LINE
  5
56B
100
AcDbEntity
  8
IMPORT_IGES
100
AcDbLine
 62
7
  6
CONTINUOUS
 10
-24.0819218752
 20
12.9012592008
 11
-24.0819218752
 21
-0.048740799
  0
LINE
  5
56C
100
AcDbEntity
  8
IMPORT_IGES
100
AcDbLine
 62
7
  6
CONTINUOUS
 10
-24.0819218752
 20
-0.148740799
 11
-24.0819218752
 21
-13.0987407983
  0
LINE
  5
56D
100
AcDbEntity
  8
IMPORT_IGES
100
AcDbLine
 62
253
  6
CONTINUOUS
 10
-23.7819247179
 20
12.8985844034
 11
-23.7819247179
 21
-0.048740799
  0
LINE
  5
56E
100
AcDbEntity
  8
IMPORT_IGES
100
AcDbLine
 62
253
  6
CONTINUOUS
 10
-23.7819244802
 20
-0.148740799
 11
-23.7819244802
 21
-13.0960708702
  0
LWPOLYLINE
  5
56F
100
AcDbEntity
  8
IMPORT_IGES
100
AcDbPolyline
 62
7
  6
CONTINUOUS
 90
4
 70
0
 10
-19.6268604095
 20
21.0001411461
 10
-19.6269498905
 20
20.9992695978
 10
-19.6272268854
 20
20.9961818578
 10
-19.6437411732
 20
20.8026139171
  0
LINE
  5
570
100
AcDbEntity
  8
IMPORT_IGES
100
AcDbLine
 62
7
  6
CONTINUOUS
 10
-19.6268605233
 20
-21.1976293483
 11
-19.6269543669
 21
-21.1967028626
  0
LINE
  5
571
100
AcDbEntity
  8
IMPORT_IGES
100
AcDbLine
 62
253
  6
CONTINUOUS
 10
-19.5171397207
 20
-22.49561597
 11
-19.4918184757
 21
-22.7919179623
  0
LINE
  5
572
100
AcDbEntity
  8
IMPORT_IGES
100
AcDbLine
 62
7
  6
CONTINUOUS
 10
-19.6269543669
 20
-21.1967028626
 11
-19.6338191536
 21
-21.1168921325
  0
LINE
  5
573
100
AcDbEntity
  8
IMPORT_IGES
100
AcDbLine
 62
7
  6
CONTINUOUS
 10
-19.6338191536
 20
-21.1168921325
 11
-19.6437413011
 21
-21.0000942899
  0
LINE
  5
574
100
AcDbEntity
  8
IMPORT_IGES
100
AcDbLine
 62
253
  6
CONTINUOUS
 10
-19.6015221219
 20
-21.499133652
 11
-19.6268598892
 21
-21.1976416356
  0
LINE
  5
575
100
AcDbEntity
  8
IMPORT_IGES
100
AcDbLine
 62
7
  6
CONTINUOUS
 10
-20.9276846921
 20
22.7557839555
 11
-20.927672859
 21
22.7056257303
  0
LINE
  5
576
100
AcDbEntity
  8
IMPORT_IGES
100
AcDbLine
 62
7
  6
CONTINUOUS
 10
-20.9946259573
 20
22.7604593047
 11
-20.9946259573
 21
22.7103386141
  0
LINE
  5
577
100
AcDbEntity
  8
IMPORT_IGES
100
AcDbLine
 62
7
  6
CONTINUOUS
 10
-20.9860054089
 20
22.7598597545
 11
-20.9860054089
 21
22.7097387626
  0
LINE
  5
578
100
AcDbEntity
  8
IMPORT_IGES
100
AcDbLine
 62
7
  6
CONTINUOUS
 10
-20.9704424747
 20
22.7587754738
 11
-20.9704424747
 21
22.7086539372
  0
LINE
  5
579
100
AcDbEntity
  8
IMPORT_IGES
100
AcDbLine
 62
7
  6
CONTINUOUS
 10
-20.9568723332
 20
22.7578280424
 11
-20.9568723332
 21
22.7077060297
  0
LINE
  5
57A
100
AcDbEntity
  8
IMPORT_IGES
100
AcDbLine
 62
7
  6
CONTINUOUS
 10
-20.9451862456
 20
22.7570106647
 11
-20.9451862456
 21
22.7068882414
  0
LINE
  5
57B
100
AcDbEntity
  8
IMPORT_IGES
100
AcDbLine
 62
7
  6
CONTINUOUS
 10
-20.9354928462
 20
22.7563316214
 11
-20.9354928462
 21
22.7062088568
  0
LINE
  5
57C
100
AcDbEntity
  8
IMPORT_IGES
100
AcDbLine
 62
7
  6
CONTINUOUS
 10
-20.9216721105
 20
22.7553618132
 11
-20.9216686373
 21
22.7052254763
  0
LINE
  5
57D
100
AcDbEntity
  8
IMPORT_IGES
100
AcDbLine
 62
7
  6
CONTINUOUS
 10
-20.917544487
 20
22.7550718028
 11
-20.9175459801
 21
22.7049722548
  0
LINE
  5
57E
100
AcDbEntity
  8
IMPORT_IGES
100
AcDbLine
 62
7
  6
CONTINUOUS
 10
-20.9154642434
 20
22.754923349
 11
-20.9154642434
 21
22.7048240754
  0
LINE
  5
57F
100
AcDbEntity
  8
IMPORT_IGES
100
AcDbLine
 62
253
  6
CONTINUOUS
 10
-19.626752509
 20
21.0016993611
 11
-19.6268591254
 21
21.0001639782
  0
LINE
  5
580
100
AcDbEntity
  8
IMPORT_IGES
100
AcDbLine
 62
253
  6
CONTINUOUS
 10
-19.6016526316
 20
21.301491827
 11
-19.626752509
 21
21.0016993611
  0
LWPOLYLINE
  5
581
100
AcDbEntity
  8
IMPORT_IGES
100
AcDbPolyline
 62
253
  6
CONTINUOUS
 90
4
 70
0
 10
-19.5171698083
 20
22.2977821778
 10
-19.4923775772
 20
22.5883783903
 10
-19.4919618556
 20
22.5930168223
 10
-19.4918182693
 20
22.5944402861
  0
LINE
  5
582
100
AcDbEntity
  8
IMPORT_IGES
100
AcDbLine
 62
7
  6
CONTINUOUS
 10
-43.3319218752
 20
-33.698740799
 11
-43.4319218752
 21
-33.798740799
  0
LWPOLYLINE
  5
583
100
AcDbEntity
  8
IMPORT_IGES
100
AcDbPolyline
 62
253
  6
CONTINUOUS
 90
10
 70
0
 10
-36.3720242871
 20
-22.791927577
 10
-36.3773821213
 20
-22.7947458568
 10
-36.3832963442
 20
-22.8041273999
 10
-36.3897134267
 20
-22.8200697456
 10
-36.3965347752
 20
-22.8423072162
 10
-36.4037150957
 20
-22.8706161119
 10
-36.4112867391
 20
-22.9051346499
 10
-36.41921855
 20
-22.9458147539
 10
-36.4273963995
 20
-22.9921191653
 10
-36.4357369758
 20
-23.0435501199
  0
LWPOLYLINE
  5
584
100
AcDbEntity
  8
IMPORT_IGES
100
AcDbPolyline
 62
253
  6
CONTINUOUS
 90
16
 70
0
 10
-8.5477682432
 20
-2.2934703455
 10
-8.5772742757
 20
-2.2946914192
 10
-8.6065751349
 20
-2.2987273934
 10
-8.6351972092
 20
-2.3055091349
 10
-8.6623994803
 20
-2.3147546284
 10
-8.6880983958
 20
-2.326269973
 10
-8.7128053336
 20
-2.3402570568
 10
-8.7362835805
 20
-2.3566919557
 10
-8.7580303152
 20
-2.3752958503
 10
-8.7780394702
 20
-2.3961472321
 10
-8.7959510939
 20
-2.4190018035
 10
-8.8114608768
 20
-2.4435491777
 10
-8.824508688
 20
-2.469827109
 10
-8.834845932
 20
-2.4975865078
 10
-8.8421975069
 20
-2.5262480286
 10
-8.8464666148
 20
-2.5553322909
  0
LWPOLYLINE
  5
585
100
AcDbEntity
  8
IMPORT_IGES
100
AcDbPolyline
 62
253
  6
CONTINUOUS
 90
16
 70
0
 10
-8.6349056273
 20
-3.0950192254
 10
-8.6637807136
 20
-3.0961260636
 10
-8.6924568974
 20
-3.0999287221
 10
-8.720499899
 20
-3.1063655324
 10
-8.7472265025
 20
-3.1151850875
 10
-8.7725606297
 20
-3.1262169358
 10
-8.7969699237
 20
-3.1396460476
 10
-8.8202235079
 20
-3.1554501356
 10
-8.8418468471
 20
-3.1733773674
 10
-8.8618267009
 20
-3.1934965633
 10
-8.8798151564
 20
-3.2155766919
 10
-8.8955210012
 20
-3.2393294082
 10
-8.9088881244
 20
-3.2647863625
 10
-8.9196787438
 20
-3.291710776
 10
-8.9276241392
 20
-3.3195578627
 10
-8.9326255666
 20
-3.3478749814
  0
LWPOLYLINE
  5
586
100
AcDbEntity
  8
IMPORT_IGES
100
AcDbPolyline
 62
7
  6
CONTINUOUS
 90
4
 70
0
 10
-26.0788761702
 20
-2.098740799
 10
-26.0258450743
 20
-2.0967066939
 10
-25.9713526223
 20
-2.089717081
 10
-25.9639207766
 20
-2.0881147977
  0
LINE
  5
587
100
AcDbEntity
  8
IMPORT_IGES
100
AcDbLine
 62
253
  6
CONTINUOUS
 10
-7.7176488834
 20
-4.069696625
 11
-8.7279535354
 21
-4.069696625
  0
LINE
  5
588
100
AcDbEntity
  8
IMPORT_IGES
100
AcDbLine
 62
253
  6
CONTINUOUS
 10
-47.1358918679
 20
-4.0696932971
 11
-48.1461951703
 21
-4.0696932971
  0
LINE
  5
589
100
AcDbEntity
  8
IMPORT_IGES
100
AcDbLine
 62
253
  6
CONTINUOUS
 10
-48.2363191994
 20
-3.0950193197
 11
-47.2289373886
 21
-3.0950193197
  0
LINE
  5
58A
100
AcDbEntity
  8
IMPORT_IGES
100
AcDbLine
 62
253
  6
CONTINUOUS
 10
-8.63490563
 20
-3.0950192479
 11
-7.6275261692
 21
-3.0950192479
  0
LINE
  5
58B
100
AcDbEntity
  8
IMPORT_IGES
100
AcDbLine
 62
253
  6
CONTINUOUS
 10
-7.5435695958
 20
-2.2934704288
 11
-8.5477682513
 21
-2.2934704288
  0
LINE
  5
58C
100
AcDbEntity
  8
IMPORT_IGES
100
AcDbLine
 62
253
  6
CONTINUOUS
 10
-47.3160747564
 20
-2.2934703423
 11
-48.3202757881
 21
-2.2934703423
  0
LINE
  5
58D
100
AcDbEntity
  8
IMPORT_IGES
100
AcDbLine
 62
7
  6
CONTINUOUS
 10
-47.0560550226
 20
-2.098740799
 11
-43.4495156544
 21
-2.0987409929
  0
LINE
  5
58E
100
AcDbEntity
  8
IMPORT_IGES
100
AcDbLine
 62
7
  6
CONTINUOUS
 10
-29.6609518997
 20
-2.098740799
 11
-28.6819684529
 21
-2.098740799
  0
LINE
  5
58F
100
AcDbEntity
  8
IMPORT_IGES
100
AcDbLine
 62
7
  6
CONTINUOUS
 10
-27.1818753792
 20
-2.098740799
 11
-26.2028918506
 21
-2.098740799
  0
LINE
  5
590
100
AcDbEntity
  8
IMPORT_IGES
100
AcDbLine
 62
7
  6
CONTINUOUS
 10
-12.4143156667
 20
-2.0987405884
 11
-8.8077887822
 21
-2.098740799
  0
LWPOLYLINE
  5
591
100
AcDbEntity
  8
IMPORT_IGES
100
AcDbPolyline
 62
253
  6
CONTINUOUS
 90
7
 70
0
 10
-48.4431014989
 20
-4.1100415417
 10
-48.4413564985
 20
-4.1100599434
 10
-48.4364264157
 20
-4.1096148072
 10
-48.4283460943
 20
-4.1087082536
 10
-48.4171769253
 20
-4.1073464373
 10
-48.4030273087
 20
-4.1055420424
 10
-48.3665053344
 20
-4.1006973971
  0
LWPOLYLINE
  5
592
100
AcDbEntity
  8
IMPORT_IGES
100
AcDbPolyline
 62
253
  6
CONTINUOUS
 90
16
 70
0
 10
-47.2289374007
 20
-3.0950192176
 10
-47.200113433
 20
-3.0961217727
 10
-47.1714855112
 20
-3.0999109098
 10
-47.1434800688
 20
-3.106327486
 10
-47.1167695058
 20
-3.1151269495
 10
-47.0914277279
 20
-3.1261459659
 10
-47.0669985149
 20
-3.139569713
 10
-47.0437179699
 20
-3.1553767274
 10
-47.0220610506
 20
-3.1733187934
 10
-47.0020507493
 20
-3.1934591419
 10
-46.984041561
 20
-3.2155590592
 10
-46.9683222023
 20
-3.239330332
 10
-46.9549471856
 20
-3.2648046385
 10
-46.9441551173
 20
-3.2917396917
 10
-46.9362139436
 20
-3.3195824904
 10
-46.9312181828
 20
-3.3478749885
  0
LWPOLYLINE
  5
593
100
AcDbEntity
  8
IMPORT_IGES
100
AcDbPolyline
 62
253
  6
CONTINUOUS
 90
16
 70
0
 10
-47.316074758
 20
-2.2934703266
 10
-47.2866103454
 20
-2.2946877596
 10
-47.2573526316
 20
-2.298711685
 10
-47.2287664628
 20
-2.3054745865
 10
-47.2015796469
 20
-2.3147013966
 10
-47.1758733709
 20
-2.3262053123
 10
-47.1511501117
 20
-2.340186652
 10
-47.1276534204
 20
-2.3566197378
 10
-47.1058823104
 20
-2.3752308604
 10
-47.0858476026
 20
-2.3960973379
 10
-47.0679140586
 20
-2.4189714479
 10
-47.0523872702
 20
-2.4435413509
 10
-47.039329282
 20
-2.4698404306
 10
-47.0289897287
 20
-2.4976123007
 10
-47.0216416039
 20
-2.5262711148
 10
-47.0173771371
 20
-2.5553322732
  0
LWPOLYLINE
  5
594
100
AcDbEntity
  8
IMPORT_IGES
100
AcDbPolyline
 62
7
  6
CONTINUOUS
 90
3
 70
0
 10
-29.7849675801
 20
-2.098740799
 10
-29.84257853
 20
-2.0960895995
 10
-29.9001484579
 20
-2.0882009183
  0
LWPOLYLINE
  5
595
100
AcDbEntity
  8
IMPORT_IGES
100
AcDbPolyline
 62
253
  6
CONTINUOUS
 90
14
 70
0
 10
-7.6275261882
 20
-3.0950194013
 10
-7.5958832887
 20
-3.0968906062
 10
-7.5649355032
 20
-3.1019034555
 10
-7.5350037404
 20
-3.1098991291
 10
-7.506555532
 20
-3.1206153001
 10
-7.4796585874
 20
-3.1338862688
 10
-7.454066483
 20
-3.1498135836
 10
-7.4299468141
 20
-3.1684018152
 10
-7.4077473608
 20
-3.1894240086
 10
-7.3877209863
 20
-3.2127463129
 10
-7.370135281
 20
-3.2381966411
 10
-7.3552805307
 20
-3.2655168761
 10
-7.343417055
 20
-3.2943981226
 10
-7.334753943
 20
-3.3245226681
  0
LWPOLYLINE
  5
596
100
AcDbEntity
  8
IMPORT_IGES
100
AcDbPolyline
 62
7
  6
CONTINUOUS
 90
3
 70
0
 10
-45.3790986156
 20
1.1013258146
 10
-45.3616028375
 20
1.0962740114
 10
-45.3445226844
 20
1.0824747404
  0
LWPOLYLINE
  5
597
100
AcDbEntity
  8
IMPORT_IGES
100
AcDbPolyline
 62
7
  6
CONTINUOUS
 90
6
 70
0
 10
-29.9521039802
 20
-2.0365207459
 10
-29.9116305874
 20
-2.0534303504
 10
-29.8501777328
 20
-2.0731108718
 10
-29.7874586006
 20
-2.087326504
 10
-29.7242240125
 20
-2.0958848346
 10
-29.6609518997
 20
-2.098740799
  0
LINE
  5
598
100
AcDbEntity
  8
IMPORT_IGES
100
AcDbLine
 62
253
  6
CONTINUOUS
 10
-8.938749649
 20
-11.4095509572
 11
-8.5744411655
 21
-11.5686336114
  0
LINE
  5
599
100
AcDbEntity
  8
IMPORT_IGES
100
AcDbLine
 62
253
  6
CONTINUOUS
 10
-9.1250317037
 20
-11.3271589015
 11
-8.938749649
 21
-11.4095509572
  0
LINE
  5
59A
100
AcDbEntity
  8
IMPORT_IGES
100
AcDbLine
 62
253
  6
CONTINUOUS
 10
-9.2285457911
 20
-11.2808539056
 11
-9.1250317037
 21
-11.3271589015
  0
LWPOLYLINE
  5
59B
100
AcDbEntity
  8
IMPORT_IGES
100
AcDbPolyline
 62
253
  6
CONTINUOUS
 90
4
 70
0
 10
-28.6819218752
 20
-2.0786341237
 10
-28.6859891871
 20
-2.0759462445
 10
-28.698278603
 20
-2.066423402
 10
-28.7188959719
 20
-2.0500655963
  0
LINE
  5
59C
100
AcDbEntity
  8
IMPORT_IGES
100
AcDbLine
 62
253
  6
CONTINUOUS
 10
-28.7188959719
 20
-2.0500655963
 11
-28.7853850018
 21
-1.997585145
  0
LWPOLYLINE
  5
59D
100
AcDbEntity
  8
IMPORT_IGES
100
AcDbPolyline
 62
253
  6
CONTINUOUS
 90
36
 70
0
 10
-28.7853850018
 20
-1.997585145
 10
-28.8857077592
 20
-1.9149949524
 10
-28.9484732198
 20
-1.862062467
 10
-29.018127623
 20
-1.7983938645
 10
-29.0951352227
 20
-1.722282563
 10
-29.178071526
 20
-1.6354351444
 10
-29.2611975933
 20
-1.5401802747
 10
-29.341536555
 20
-1.4361209698
 10
-29.419137466
 20
-1.3236542139
 10
-29.4918527638
 20
-1.2062996249
 10
-29.5580046305
 20
-1.0840864302
 10
-29.6173806842
 20
-0.9569854025
 10
-29.670232265
 20
-0.8284284778
 10
-29.7169285808
 20
-0.6994423346
 10
-29.7562372663
 20
-0.5690002945
 10
-29.7861645238
 20
-0.4374542581
 10
-29.8056012357
 20
-0.3043238809
 10
-29.8152179891
 20
-0.1700895075
 10
-29.8157821829
 20
-0.0365440725
 10
-29.8074572971
 20
0.0966234771
 10
-29.7901370309
 20
0.2291020882
 10
-29.764289893
 20
0.3581656677
 10
-29.7301173686
 20
0.4820779931
 10
-29.6878937341
 20
0.6025752868
 10
-29.6383011568
 20
0.7221401225
 10
-29.5812888986
 20
0.8434042015
 10
-29.5179561942
 20
0.9637358224
 10
-29.450725766
 20
1.0777224544
 10
-29.379825801
 20
1.1842557997
 10
-29.3064867001
 20
1.2844441562
 10
-29.2342667433
 20
1.3761998856
 10
-29.1647011592
 20
1.4585089841
 10
-29.0972372113
 20
1.5323854556
 10
-29.0320619365
 20
1.5987836739
 10
-28.9701093386
 20
1.6574068021
 10
-28.9119148238
 20
1.7085516771
  0
LWPOLYLINE
  5
59E
100
AcDbEntity
  8
IMPORT_IGES
100
AcDbPolyline
 62
7
  6
CONTINUOUS
 90
14
 70
0
 10
-26.8226112372
 20
1.2387454414
 10
-26.7815718383
 20
1.1813751558
 10
-26.7384131383
 20
1.1166236469
 10
-26.6939520736
 20
1.0443698627
 10
-26.6491277688
 20
0.9647482224
 10
-26.6049604292
 20
0.877932213
 10
-26.5623431791
 20
0.7840183898
 10
-26.5221929176
 20
0.6832697723
 10
-26.4855401158
 20
0.5761647854
 10
-26.4532317629
 20
0.4631874097
 10
-26.4259960872
 20
0.3444159647
 10
-26.4047426429
 20
0.2208328433
 10
-26.3902304476
 20
0.0944235322
 10
-26.3856801418
 20
0.0312355279
  0
LINE
  5
59F
100
AcDbEntity
  8
IMPORT_IGES
100
AcDbLine
 62
7
  6
CONTINUOUS
 10
-26.7746316879
 20
1.1709627659
 11
-26.7664489024
 21
1.1592175201
  0
LWPOLYLINE
  5
5A0
100
AcDbEntity
  8
IMPORT_IGES
100
AcDbPolyline
 62
253
  6
CONTINUOUS
 90
10
 70
0
 10
-17.1564592264
 20
-21.5669205672
 10
-17.1554778276
 20
-21.5708152915
 10
-17.1498667588
 20
-21.5802173515
 10
-17.1397409695
 20
-21.5949566881
 10
-17.1254937177
 20
-21.6145087737
 10
-17.1073975223
 20
-21.6385452411
 10
-17.0851624625
 20
-21.6674585175
 10
-17.0587708672
 20
-21.7012564406
 10
-17.028565458
 20
-21.7394915459
 10
-16.9564580626
 20
-21.8295636808
  0
LINE
  5
5A1
100
AcDbEntity
  8
IMPORT_IGES
100
AcDbLine
 62
7
  6
CONTINUOUS
 10
-17.4319218752
 20
-39.798740799
 11
-17.4319218752
 21
-33.798740799
  0
LINE
  5
5A2
100
AcDbEntity
  8
IMPORT_IGES
100
AcDbLine
 62
7
  6
CONTINUOUS
 10
-17.3319218752
 20
-33.698740799
 11
-17.3319218752
 21
-23.298740799
  0
LWPOLYLINE
  5
5A3
100
AcDbEntity
  8
IMPORT_IGES
100
AcDbPolyline
 62
253
  6
CONTINUOUS
 90
5
 70
0
 10
-46.8643795552
 20
-4.027397068
 10
-46.8532042143
 20
-4.0254601088
 10
-46.8451026123
 20
-4.023973837
 10
-46.8402725063
 20
-4.0229743321
 10
-46.8387099157
 20
-4.0224658409
  0
LWPOLYLINE
  5
5A4
100
AcDbEntity
  8
IMPORT_IGES
100
AcDbPolyline
 62
253
  6
CONTINUOUS
 90
5
 70
0
 10
-8.9994642061
 20
3.8299154662
 10
-9.0106395421
 20
3.827978508
 10
-9.0187411407
 20
3.8264922371
 10
-9.0235712446
 20
3.8254927332
 10
-9.0251338346
 20
3.8249842429
  0
LINE
  5
5A5
100
AcDbEntity
  8
IMPORT_IGES
100
AcDbLine
 62
253
  6
CONTINUOUS
 10
-46.8953751273
 20
-4.0325285879
 11
-46.8643795552
 21
-4.027397068
  0
LINE
  5
5A6
100
AcDbEntity
  8
IMPORT_IGES
100
AcDbLine
 62
253
  6
CONTINUOUS
 10
-8.968468647
 20
3.8350469841
 11
-8.9994642061
 21
3.8299154662
  0
LINE
  5
5A7
100
AcDbEntity
  8
IMPORT_IGES
100
AcDbLine
 62
253
  6
CONTINUOUS
 10
-46.9610258424
 20
-4.042970374
 11
-46.8953751273
 21
-4.0325285879
  0
LINE
  5
5A8
100
AcDbEntity
  8
IMPORT_IGES
100
AcDbLine
 62
253
  6
CONTINUOUS
 10
-8.902817958
 20
3.8454887678
 11
-8.968468647
 21
3.8350469841
  0
LINE
  5
5A9
100
AcDbEntity
  8
IMPORT_IGES
100
AcDbLine
 62
253
  6
CONTINUOUS
 10
-8.8200251455
 20
3.8582958669
 11
-8.902817958
 21
3.8454887678
  0
LWPOLYLINE
  5
5AA
100
AcDbEntity
  8
IMPORT_IGES
100
AcDbPolyline
 62
253
  6
CONTINUOUS
 90
3
 70
0
 10
-47.1362491667
 20
-4.0697857267
 10
-47.1052602714
 20
-4.0651188642
 10
-46.9610258424
 20
-4.042970374
  0
LINE
  5
5AB
100
AcDbEntity
  8
IMPORT_IGES
100
AcDbLine
 62
253
  6
CONTINUOUS
 10
-48.2943618977
 20
-4.0907690687
 11
-48.1461987016
 21
-4.0696733729
  0
LINE
  5
5AC
100
AcDbEntity
  8
IMPORT_IGES
100
AcDbLine
 62
253
  6
CONTINUOUS
 10
-48.3665053344
 20
-4.1006973971
 11
-48.2943618977
 21
-4.0907690687
  0
LINE
  5
5AD
100
AcDbEntity
  8
IMPORT_IGES
100
AcDbLine
 62
253
  6
CONTINUOUS
 10
-7.2154632941
 20
1.1607948449
 11
-7.2560822053
 21
1.1581466008
  0
LINE
  5
5AE
100
AcDbEntity
  8
IMPORT_IGES
100
AcDbLine
 62
253
  6
CONTINUOUS
 10
-48.6483804489
 20
-1.3582764404
 11
-48.6077615317
 21
-1.3556281961
  0
LWPOLYLINE
  5
5AF
100
AcDbEntity
  8
IMPORT_IGES
100
AcDbPolyline
 62
253
  6
CONTINUOUS
 90
14
 70
0
 10
-48.3202757738
 20
-2.2934704969
 10
-48.3519074661
 20
-2.295277443
 10
-48.3828492401
 20
-2.3002248582
 10
-48.4127802829
 20
-2.3081561354
 10
-48.4412341597
 20
-2.3188120076
 10
-48.4681411848
 20
-2.3320279642
 10
-48.4937434415
 20
-2.3479037259
 10
-48.5178714366
 20
-2.3664428007
 10
-48.5400791369
 20
-2.387420316
 10
-48.5601148808
 20
-2.4107047887
 10
-48.577711848
 20
-2.4361276785
 10
-48.5925766416
 20
-2.463429438
 10
-48.6044456524
 20
-2.4922952963
 10
-48.6131103927
 20
-2.5224050036
  0
LINE
  5
5B0
100
AcDbEntity
  8
IMPORT_IGES
100
AcDbLine
 62
253
  6
CONTINUOUS
 10
-48.6077615317
 20
-1.3556281961
 11
-48.5575125476
 21
-1.3526968996
  0
LINE
  5
5B1
100
AcDbEntity
  8
IMPORT_IGES
100
AcDbLine
 62
253
  6
CONTINUOUS
 10
-7.2560822053
 20
1.1581466008
 11
-7.3063311822
 21
1.1552153045
  0
LINE
  5
5B2
100
AcDbEntity
  8
IMPORT_IGES
100
AcDbLine
 62
253
  6
CONTINUOUS
 10
-48.5575125476
 20
-1.3526968996
 11
-48.4683577363
 21
-1.3480466948
  0
LINE
  5
5B3
100
AcDbEntity
  8
IMPORT_IGES
100
AcDbLine
 62
253
  6
CONTINUOUS
 10
-7.3063311822
 20
1.1552153045
 11
-7.3954859838
 21
1.1505651
  0
LINE
  5
5B4
100
AcDbEntity
  8
IMPORT_IGES
100
AcDbLine
 62
253
  6
CONTINUOUS
 10
-48.4683577363
 20
-1.3480466948
 11
-48.4036361248
 21
-1.3449969105
  0
LINE
  5
5B5
100
AcDbEntity
  8
IMPORT_IGES
100
AcDbLine
 62
253
  6
CONTINUOUS
 10
-7.3954859838
 20
1.1505651
 11
-7.4602075921
 21
1.1475153158
  0
LINE
  5
5B6
100
AcDbEntity
  8
IMPORT_IGES
100
AcDbLine
 62
253
  6
CONTINUOUS
 10
-47.4025757566
 20
-1.3449968994
 11
-47.3103113039
 21
-1.3409231414
  0
LINE
  5
5B7
100
AcDbEntity
  8
IMPORT_IGES
100
AcDbLine
 62
253
  6
CONTINUOUS
 10
-8.4612679742
 20
1.1475152641
 11
-8.5535324368
 21
1.1434415052
  0
LINE
  5
5B8
100
AcDbEntity
  8
IMPORT_IGES
100
AcDbLine
 62
253
  6
CONTINUOUS
 10
-47.3103113039
 20
-1.3409231414
 11
-47.2550474816
 21
-1.3387548203
  0
LINE
  5
5B9
100
AcDbEntity
  8
IMPORT_IGES
100
AcDbLine
 62
253
  6
CONTINUOUS
 10
-8.5535324368
 20
1.1434415052
 11
-8.6087962641
 21
1.1412731831
  0
LINE
  5
5BA
100
AcDbEntity
  8
IMPORT_IGES
100
AcDbLine
 62
253
  6
CONTINUOUS
 10
-47.2550474816
 20
-1.3387548203
 11
-47.2052860884
 21
-1.337036866
  0
LINE
  5
5BB
100
AcDbEntity
  8
IMPORT_IGES
100
AcDbLine
 62
253
  6
CONTINUOUS
 10
-8.6087962641
 20
1.1412731831
 11
-8.6585576607
 21
1.1395552274
  0
LWPOLYLINE
  5
5BC
100
AcDbEntity
  8
IMPORT_IGES
100
AcDbPolyline
 62
253
  6
CONTINUOUS
 90
8
 70
0
 10
-47.2052860884
 20
-1.337036866
 10
-47.1630585562
 20
-1.3358504197
 10
-47.1454303371
 20
-1.3354815129
 10
-47.1306147035
 20
-1.3352761262
 10
-47.1186934238
 20
-1.3352387765
 10
-47.1099535524
 20
-1.3353769443
 10
-47.1046719477
 20
-1.3356903612
 10
-47.1029052984
 20
-1.336170914
  0
LWPOLYLINE
  5
5BD
100
AcDbEntity
  8
IMPORT_IGES
100
AcDbPolyline
 62
253
  6
CONTINUOUS
 90
8
 70
0
 10
-8.6585576607
 20
1.1395552274
 10
-8.7007851945
 20
1.1383687794
 10
-8.7184134142
 20
1.1379998717
 10
-8.733229048
 20
1.137794484
 10
-8.7451503275
 20
1.1377571332
 10
-8.7538901984
 20
1.1378952998
 10
-8.759171802
 20
1.1382087157
 10
-8.7609384496
 20
1.1386892673
  0
LINE
  5
5BE
100
AcDbEntity
  8
IMPORT_IGES
100
AcDbLine
 62
7
  6
CONTINUOUS
 10
-8.7745699596
 20
-1.598740799
 11
-9.0319218752
 21
-1.598740799
  0
LINE
  5
5BF
100
AcDbEntity
  8
IMPORT_IGES
100
AcDbLine
 62
7
  6
CONTINUOUS
 10
-46.8319218752
 20
-1.598740799
 11
-47.0892737907
 21
-1.598740799
  0
LINE
  5
5C0
100
AcDbEntity
  8
IMPORT_IGES
100
AcDbLine
 62
253
  6
CONTINUOUS
 10
-9.8489050613
 20
-1.4327142034
 11
-10.4819028048
 21
-1.4327102133
  0
LINE
  5
5C1
100
AcDbEntity
  8
IMPORT_IGES
100
AcDbLine
 62
253
  6
CONTINUOUS
 10
-45.3819409455
 20
-1.4327103241
 11
-46.0149387368
 21
-1.4327143143
  0
LINE
  5
5C2
100
AcDbEntity
  8
IMPORT_IGES
100
AcDbLine
 62
253
  6
CONTINUOUS
 10
-8.4612680951
 20
-1.3449975885
 11
-7.4602077257
 21
-1.3449975885
  0
LINE
  5
5C3
100
AcDbEntity
  8
IMPORT_IGES
100
AcDbLine
 62
253
  6
CONTINUOUS
 10
-48.403636125
 20
-1.3449969066
 11
-47.4025757563
 21
-1.3449969066
  0
LINE
  5
5C4
100
AcDbEntity
  8
IMPORT_IGES
100
AcDbLine
 62
7
  6
CONTINUOUS
 10
-45.8902755416
 20
-1.298740799
 11
-43.3319497213
 21
-1.298740799
  0
LINE
  5
5C5
100
AcDbEntity
  8
IMPORT_IGES
100
AcDbLine
 62
253
  6
CONTINUOUS
 10
-30.4596507627
 20
-1.298740799
 11
-30.4319218752
 21
-1.298740799
  0
LINE
  5
5C6
100
AcDbEntity
  8
IMPORT_IGES
100
AcDbLine
 62
253
  6
CONTINUOUS
 10
-25.4319218752
 20
-1.298740799
 11
-25.4022535544
 21
-1.298740799
  0
LINE
  5
5C7
100
AcDbEntity
  8
IMPORT_IGES
100
AcDbLine
 62
7
  6
CONTINUOUS
 10
-9.9735682087
 20
-1.298740799
 11
-12.5318940928
 21
-1.298740799
  0
LINE
  5
5C8
100
AcDbEntity
  8
IMPORT_IGES
100
AcDbLine
 62
7
  6
CONTINUOUS
 10
-10.2819155716
 20
-0.498740799
 11
-10.4846728055
 21
-0.498740799
  0
LINE
  5
5C9
100
AcDbEntity
  8
IMPORT_IGES
100
AcDbLine
 62
7
  6
CONTINUOUS
 10
-45.3791738581
 20
-0.498740799
 11
-45.5819281787
 21
-0.498740799
  0
LINE
  5
5CA
100
AcDbEntity
  8
IMPORT_IGES
100
AcDbLine
 62
7
  6
CONTINUOUS
 10
-7.1321006084
 20
-0.198740799
 11
-8.7321112718
 21
-0.198740799
  0
LINE
  5
5CB
100
AcDbEntity
  8
IMPORT_IGES
100
AcDbLine
 62
7
  6
CONTINUOUS
 10
-47.1317324806
 20
-0.198740799
 11
-48.7317431392
 21
-0.198740799
  0
LINE
  5
5CC
100
AcDbEntity
  8
IMPORT_IGES
100
AcDbLine
 62
7
  6
CONTINUOUS
 10
-13.729738828
 20
-0.148740799
 11
-24.0819218752
 21
-0.148740799
  0
LINE
  5
5CD
100
AcDbEntity
  8
IMPORT_IGES
100
AcDbLine
 62
7
  6
CONTINUOUS
 10
-31.7819218752
 20
-0.148740799
 11
-42.1341049223
 21
-0.148740799
  0
LINE
  5
5CE
100
AcDbEntity
  8
IMPORT_IGES
100
AcDbLine
 62
7
  6
CONTINUOUS
 10
-8.1319218746
 20
-0.098740799
 11
-8.7319218752
 21
-0.098740799
  0
LINE
  5
5CF
100
AcDbEntity
  8
IMPORT_IGES
100
AcDbLine
 62
7
  6
CONTINUOUS
 10
-47.1319218752
 20
-0.098740799
 11
-47.7319218757
 21
-0.098740799
  0
LINE
  5
5D0
100
AcDbEntity
  8
IMPORT_IGES
100
AcDbLine
 62
7
  6
CONTINUOUS
 10
-13.729738828
 20
-0.048740799
 11
-24.0819218752
 21
-0.048740799
  0
LINE
  5
5D1
100
AcDbEntity
  8
IMPORT_IGES
100
AcDbLine
 62
7
  6
CONTINUOUS
 10
-31.7819218752
 20
-0.048740799
 11
-42.1341049223
 21
-0.048740799
  0
LINE
  5
5D2
100
AcDbEntity
  8
IMPORT_IGES
100
AcDbLine
 62
7
  6
CONTINUOUS
 10
-7.1321004521
 20
0.001259201
 11
-8.7321112698
 21
0.001259201
  0
LINE
  5
5D3
100
AcDbEntity
  8
IMPORT_IGES
100
AcDbLine
 62
7
  6
CONTINUOUS
 10
-47.1317324784
 20
0.001259201
 11
-48.731743298
 21
0.001259201
  0
LINE
  5
5D4
100
AcDbEntity
  8
IMPORT_IGES
100
AcDbLine
 62
7
  6
CONTINUOUS
 10
-45.5819155716
 20
0.301259201
 11
-45.3791140661
 21
0.301259201
  0
LINE
  5
5D5
100
AcDbEntity
  8
IMPORT_IGES
100
AcDbLine
 62
7
  6
CONTINUOUS
 10
-10.2819281788
 20
0.301259201
 11
-10.4846704858
 21
0.301259201
  0
LWPOLYLINE
  5
5D6
100
AcDbEntity
  8
IMPORT_IGES
100
AcDbPolyline
 62
253
  6
CONTINUOUS
 90
184
 70
0
 10
-45.5819281787
 20
-0.498740799
 10
-45.5989768119
 20
-0.4985697614
 10
-45.6155788753
 20
-0.4980727186
 10
-45.6317424174
 20
-0.4972735234
 10
-45.6474659894
 20
-0.4961972986
 10
-45.6627633641
 20
-0.4948661941
 10
-45.6776640841
 20
-0.4932954815
 10
-45.692173121
 20
-0.491502943
 10
-45.7062927928
 20
-0.4895076017
 10
-45.7200482667
 20
-0.4873204282
 10
-45.7334411346
 20
-0.4849565529
 10
-45.7464736208
 20
-0.4824314551
 10
-45.7591718066
 20
-0.47975231
 10
-45.7715370142
 20
-0.476931381
 10
-45.7835694685
 20
-0.4739817844
 10
-45.7952937965
 20
-0.470908649
 10
-45.8067107319
 20
-0.4677223056
 10
-45.8178195082
 20
-0.4644338094
 10
-45.8286427692
 20
-0.4610468993
 10
-45.8391794342
 20
-0.4575706069
 10
-45.8494294319
 20
-0.4540141364
 10
-45.8594172536
 20
-0.4503795162
 10
-45.8691423155
 20
-0.4466747183
 10
-45.8786033388
 20
-0.4429073029
 10
-45.8878242326
 20
-0.4390769194
 10
-45.8968047954
 20
-0.4351896592
 10
-45.9055430962
 20
-0.4312524289
 10
-45.9140609622
 20
-0.4272645925
 10
-45.9223582374
 20
-0.4232313701
 10
-45.9304327736
 20
-0.4191585835
 10
-45.9383038683
 20
-0.4150453296
 10
-45.9459710453
 20
-0.410895889
 10
-45.953432405
 20
-0.4067154296
 10
-45.9607054956
 20
-0.4025034862
 10
-45.9677894834
 20
-0.3982641491
 10
-45.9746827396
 20
-0.3940015594
 10
-45.9814019625
 20
-0.389714618
 10
-45.9879466028
 20
-0.3854070024
 10
-45.9943147634
 20
-0.3810821865
 10
-46.0005214912
 20
-0.3767381229
 10
-46.0065661967
 20
-0.3723778817
 10
-46.0124471529
 20
-0.3680045588
 10
-46.0181780982
 20
-0.363615558
 10
-46.0237583187
 20
-0.35921335
 10
-46.0291864015
 20
-0.3548007704
 10
-46.0344754197
 20
-0.3503752684
 10
-46.0396247821
 20
-0.3459390238
 10
-46.0446331368
 20
-0.3414944571
 10
-46.049512768
 20
-0.3370389612
 10
-46.0542632126
 20
-0.3325745035
 10
-46.0588831803
 20
-0.3281031228
 10
-46.0633840537
 20
-0.3236219602
 10
-46.0677661451
 20
-0.3191336634
 10
-46.0720275764
 20
-0.314639093
 10
-46.0761768884
 20
-0.3101323208
 10
-46.0802137285
 20
-0.3056144915
 10
-46.084137363
 20
-0.3010873688
 10
-46.0879562813
 20
-0.2965455586
 10
-46.0916704647
 20
-0.2919902139
 10
-46.095279239
 20
-0.2874226496
 10
-46.0987905917
 20
-0.2828373892
 10
-46.1022050167
 20
-0.2782359646
 10
-46.1055217147
 20
-0.2736189573
 10
-46.1087472669
 20
-0.2689791545
 10
-46.1118824467
 20
-0.2643178836
 10
-46.1149267073
 20
-0.2596355826
 10
-46.1178852993
 20
-0.2549233796
 10
-46.1207592968
 20
-0.250182698
 10
-46.1235485068
 20
-0.2454135668
 10
-46.1262570755
 20
-0.2406046833
 10
-46.1288873677
 20
-0.235758727
 10
-46.1314387256
 20
-0.2308741913
 10
-46.1339119019
 20
-0.2259330801
 10
-46.1363114896
 20
-0.2209422236
 10
-46.1386359057
 20
-0.2158956462
 10
-46.1408788201
 20
-0.2107554661
 10
-46.1430454186
 20
-0.2055246605
 10
-46.1451367224
 20
-0.2002004397
 10
-46.1471436025
 20
-0.1947353763
 10
-46.1490762554
 20
-0.1891366178
 10
-46.1509349017
 20
-0.1833967493
 10
-46.1527005508
 20
-0.1774454645
 10
-46.1543906272
 20
-0.1712920179
 10
-46.1560053269
 20
-0.1649265203
 10
-46.1575079895
 20
-0.1582487412
 10
-46.1589523979
 20
-0.1513062199
 10
-46.1603133261
 20
-0.1440511427
 10
-46.1614544249
 20
-0.1362383957
 10
-46.1624224754
 20
-0.1276897255
 10
-46.1632432827
 20
-0.1185834584
 10
-46.1637463975
 20
-0.1092106587
 10
-46.1638527166
 20
-0.0994221675
 10
-46.1636844852
 20
-0.0893770362
 10
-46.1633006992
 20
-0.0798305227
 10
-46.1626095594
 20
-0.0710516615
 10
-46.161624865
 20
-0.0627774355
 10
-46.1605153064
 20
-0.054962463
 10
-46.1592830141
 20
-0.0476542911
 10
-46.1578744005
 20
-0.0408051477
 10
-46.1563891155
 20
-0.0342270165
 10
-46.1548438877
 20
-0.0278879119
 10
-46.1531982902
 20
-0.021819396
 10
-46.1514805751
 20
-0.0159303994
 10
-46.1496908109
 20
-0.0102089101
 10
-46.1478148268
 20
-0.004666541
 10
-46.1458661864
 20
0.0007512686
 10
-46.1438436273
 20
0.0060479843
 10
-46.1417395004
 20
0.0112203122
 10
-46.1395618997
 20
0.0163117948
 10
-46.1373105023
 20
0.0213262698
 10
-46.1349805358
 20
0.0262595588
 10
-46.1325763469
 20
0.0311423906
 10
-46.1300987836
 20
0.0359781765
 10
-46.127544356
 20
0.0407626474
 10
-46.1249127925
 20
0.0455144025
 10
-46.1222057508
 20
0.0502365965
 10
-46.1194203471
 20
0.0549248076
 10
-46.1165504764
 20
0.0595859072
 10
-46.113595341
 20
0.06421782
 10
-46.1105549007
 20
0.0688212303
 10
-46.1074248754
 20
0.0734068438
 10
-46.1042065342
 20
0.0779753437
 10
-46.1008986281
 20
0.0825242314
 10
-46.097493748
 20
0.0870591101
 10
-46.0939924244
 20
0.0915788503
 10
-46.0903945104
 20
0.096082488
 10
-46.0866920526
 20
0.1005755913
 10
-46.0828857456
 20
0.105056882
 10
-46.0789756834
 20
0.1095251722
 10
-46.0749534907
 20
0.1139858378
 10
-46.07082018
 20
0.1184372218
 10
-46.0665759184
 20
0.1228780669
 10
-46.0622115636
 20
0.1273139624
 10
-46.0577291445
 20
0.1317437226
 10
-46.0531282509
 20
0.1361650393
 10
-46.0483965351
 20
0.1405814177
 10
-46.0435352061
 20
0.1449908858
 10
-46.0385449241
 20
0.14939137
 10
-46.0334128963
 20
0.1537858297
 10
-46.0281402852
 20
0.158172213
 10
-46.0227280271
 20
0.162547885
 10
-46.0171633197
 20
0.1669145275
 10
-46.0114476676
 20
0.1712690381
 10
-46.0055817598
 20
0.1756091911
 10
-45.9995519144
 20
0.1799375121
 10
-45.9933599617
 20
0.1842509422
 10
-45.9870064588
 20
0.18854634
 10
-45.9804761975
 20
0.192825531
 10
-45.973770997
 20
0.1970849242
 10
-45.9668915325
 20
0.2013209412
 10
-45.9598212462
 20
0.2055347847
 10
-45.9525621102
 20
0.2097223453
 10
-45.9451146795
 20
0.2138794559
 10
-45.9374606148
 20
0.2180065161
 10
-45.9296013798
 20
0.2220985297
 10
-45.9215379519
 20
0.2261509858
 10
-45.9132516134
 20
0.2301641626
 10
-45.904744034
 20
0.234132043
 10
-45.8960158385
 20
0.238049645
 10
-45.8870471715
 20
0.2419176677
 10
-45.8778405716
 20
0.2457295194
 10
-45.8683956491
 20
0.2494787989
 10
-45.8586886243
 20
0.2531650593
 10
-45.8487207972
 20
0.256780478
 10
-45.838492637
 20
0.2603175733
 10
-45.8279795515
 20
0.2637747027
 10
-45.8171817912
 20
0.2671427543
 10
-45.806100228
 20
0.2704127567
 10
-45.7947115671
 20
0.2735812478
 10
-45.7830163389
 20
0.276637298
 10
-45.7710140585
 20
0.2795705462
 10
-45.7586801868
 20
0.2823758833
 10
-45.7460144635
 20
0.2850402987
 10
-45.7330156242
 20
0.2875515395
 10
-45.719657805
 20
0.2899023552
 10
-45.7059387207
 20
0.2920773447
 10
-45.6918568626
 20
0.2940615181
 10
-45.6773874887
 20
0.2958439806
 10
-45.6625290197
 20
0.2974057773
 10
-45.6472757993
 20
0.2987293421
 10
-45.6315965918
 20
0.2997996343
 10
-45.6154771034
 20
0.3005945718
 10
-45.5989194238
 20
0.3010890322
 10
-45.5819155716
 20
0.301259201
  0
LWPOLYLINE
  5
5D7
100
AcDbEntity
  8
IMPORT_IGES
100
AcDbPolyline
 62
253
  6
CONTINUOUS
 90
184
 70
0
 10
-10.2819281788
 20
0.301259201
 10
-10.2648801102
 20
0.3010881748
 10
-10.2482785648
 20
0.3005911645
 10
-10.232115495
 20
0.2997920202
 10
-10.2163923507
 20
0.2987158623
 10
-10.2010953588
 20
0.297384838
 10
-10.186194975
 20
0.2958142159
 10
-10.1716862251
 20
0.2940217749
 10
-10.1575667938
 20
0.2920265362
 10
-10.143811519
 20
0.2898394706
 10
-10.130418808
 20
0.2874757087
 10
-10.1173864374
 20
0.2849507268
 10
-10.1046883342
 20
0.2822716962
 10
-10.092323169
 20
0.2794508748
 10
-10.0802907232
 20
0.2765013805
 10
-10.0685663984
 20
0.2734283499
 10
-10.0571494684
 20
0.2702421182
 10
-10.0460406926
 20
0.2669537368
 10
-10.0352174353
 20
0.2635669413
 10
-10.024680794
 20
0.2600907617
 10
-10.0144308228
 20
0.2565344029
 10
-10.0044429867
 20
0.2528998924
 10
-9.9947178595
 20
0.2491952103
 10
-9.9852567297
 20
0.2454279083
 10
-9.9760356726
 20
0.2415976087
 10
-9.9670548626
 20
0.2377103808
 10
-9.9583162536
 20
0.2337731467
 10
-9.949798077
 20
0.2297852983
 10
-9.9415005115
 20
0.2257520647
 10
-9.9334256825
 20
0.2216792591
 10
-9.9255542842
 20
0.2175659811
 10
-9.9178867923
 20
0.213416516
 10
-9.910425107
 20
0.2092360275
 10
-9.9031516734
 20
0.2050240404
 10
-9.8960673196
 20
0.2007846385
 10
-9.8891736786
 20
0.1965219681
 10
-9.8824540604
 20
0.1922349375
 10
-9.8759090145
 20
0.1879272292
 10
-9.8695404376
 20
0.1836023121
 10
-9.8633332896
 20
0.1792581316
 10
-9.8572881591
 20
0.1748977573
 10
-9.851406773
 20
0.1705242848
 10
-9.8456754006
 20
0.1661351115
 10
-9.8400947583
 20
0.1617327037
 10
-9.8346662549
 20
0.1573199001
 10
-9.8293768158
 20
0.1528941549
 10
-9.8242270342
 20
0.1484576455
 10
-9.8192182587
 20
0.1440127943
 10
-9.8143381972
 20
0.1395570056
 10
-9.8095873079
 20
0.1350922529
 10
-9.8049668858
 20
0.1306205695
 10
-9.8004655552
 20
0.1261390898
 10
-9.7960829997
 20
0.1216504663
 10
-9.7918211009
 20
0.117155555
 10
-9.7876713349
 20
0.1126484055
 10
-9.7836340622
 20
0.1081301486
 10
-9.7797100058
 20
0.1036025606
 10
-9.7758906649
 20
0.0990602653
 10
-9.7721760502
 20
0.0945044279
 10
-9.7685668432
 20
0.089936351
 10
-9.7650550681
 20
0.08535054
 10
-9.7616402412
 20
0.0807485066
 10
-9.7583231486
 20
0.0761308515
 10
-9.7550971859
 20
0.0714904028
 10
-9.7519615603
 20
0.0668285236
 10
-9.7489168394
 20
0.0621456173
 10
-9.7459578094
 20
0.0574327476
 10
-9.743083413
 20
0.0526913008
 10
-9.7402938209
 20
0.0479213412
 10
-9.7375848651
 20
0.043111609
 10
-9.7349541528
 20
0.0382648397
 10
-9.7324023696
 20
0.0333794715
 10
-9.7299288211
 20
0.0284373836
 10
-9.7275289434
 20
0.0234453223
 10
-9.7252042769
 20
0.0183973925
 10
-9.722961102
 20
0.0132558346
 10
-9.7207942025
 20
0.0080237137
 10
-9.7187025867
 20
0.0026981539
 10
-9.7166954232
 20
-0.0027684107
 10
-9.7147625151
 20
-0.0083688758
 10
-9.7129036249
 20
-0.014110615
 10
-9.71113775
 20
-0.0200639478
 10
-9.7094473938
 20
-0.0262195068
 10
-9.7078324144
 20
-0.0325872937
 10
-9.7063296466
 20
-0.0392678932
 10
-9.7048852226
 20
-0.0462137335
 10
-9.703524389
 20
-0.0534726628
 10
-9.7023837735
 20
-0.0612902534
 10
-9.7014166697
 20
-0.0698459646
 10
-9.7005969794
 20
-0.0789602607
 10
-9.7000950606
 20
-0.0883388991
 10
-9.6999904381
 20
-0.0981298675
 10
-9.7001607852
 20
-0.1081752557
 10
-9.7005464785
 20
-0.1177201033
 10
-9.7012392975
 20
-0.126494488
 10
-9.7022257293
 20
-0.13476235
 10
-9.7033366949
 20
-0.1425720866
 10
-9.7045696147
 20
-0.1498775159
 10
-9.7059783238
 20
-0.156725038
 10
-9.7074637192
 20
-0.1633015665
 10
-9.709009293
 20
-0.16963863
 10
-9.7106552576
 20
-0.1757051303
 10
-9.7123733008
 20
-0.1815924179
 10
-9.7141632844
 20
-0.1873127163
 10
-9.7160394133
 20
-0.1928541968
 10
-9.7179882254
 20
-0.1982710606
 10
-9.7200110498
 20
-0.2035665977
 10
-9.7221154767
 20
-0.2087376939
 10
-9.7242933341
 20
-0.2138280663
 10
-9.7265448901
 20
-0.2188416428
 10
-9.7288749596
 20
-0.2237741525
 10
-9.7312792618
 20
-0.228656224
 10
-9.7337569773
 20
-0.2334912269
 10
-9.7363115667
 20
-0.2382749346
 10
-9.7389432839
 20
-0.2430259729
 10
-9.7416504657
 20
-0.2477475032
 10
-9.7444359977
 20
-0.2524350962
 10
-9.7473059782
 20
-0.2570956286
 10
-9.7502611912
 20
-0.2617270483
 10
-9.7533016863
 20
-0.2663300148
 10
-9.756431774
 20
-0.2709151681
 10
-9.7596502012
 20
-0.2754831636
 10
-9.7629582028
 20
-0.2800315316
 10
-9.7663631745
 20
-0.2845658949
 10
-9.7698645809
 20
-0.2890851305
 10
-9.7734625735
 20
-0.293588268
 10
-9.777165106
 20
-0.2980808752
 10
-9.7809714888
 20
-0.3025616729
 10
-9.7848816227
 20
-0.3070294743
 10
-9.7889038676
 20
-0.3114896592
 10
-9.7930372015
 20
-0.3159405694
 10
-9.7972814665
 20
-0.3203809486
 10
-9.8016458172
 20
-0.3248163935
 10
-9.8061282256
 20
-0.329245729
 10
-9.8107290998
 20
-0.3336666354
 10
-9.8154607961
 20
-0.3380825927
 10
-9.8203221172
 20
-0.3424916216
 10
-9.8253123926
 20
-0.3468916569
 10
-9.8304443915
 20
-0.3512856575
 10
-9.8357169434
 20
-0.3556715682
 10
-9.8411291213
 20
-0.3600467586
 10
-9.8466937298
 20
-0.3644129213
 10
-9.8524092666
 20
-0.3687669579
 10
-9.8582750405
 20
-0.3731066389
 10
-9.8643047285
 20
-0.3774344896
 10
-9.8704964936
 20
-0.381747456
 10
-9.8768497854
 20
-0.3860423921
 10
-9.8833798267
 20
-0.3903211094
 10
-9.8900848108
 20
-0.3945800088
 10
-9.8969640517
 20
-0.3988155222
 10
-9.9040340872
 20
-0.4030288654
 10
-9.9112929347
 20
-0.4072159348
 10
-9.9187400498
 20
-0.4113725579
 10
-9.9263937829
 20
-0.4154991306
 10
-9.9342526829
 20
-0.4195906559
 10
-9.9423157603
 20
-0.4236426252
 10
-9.9506017075
 20
-0.4276553177
 10
-9.9591088404
 20
-0.4316227268
 10
-9.9678365486
 20
-0.4355398608
 10
-9.9768047068
 20
-0.439407393
 10
-9.9860107649
 20
-0.4432187047
 10
-9.9954551284
 20
-0.4469674298
 10
-10.0051616354
 20
-0.4506531854
 10
-10.0151290182
 20
-0.4542681772
 10
-10.0253567702
 20
-0.4578048866
 10
-10.0358694358
 20
-0.4612616353
 10
-10.046666785
 20
-0.464629311
 10
-10.0577479259
 20
-0.4678989439
 10
-10.069136048
 20
-0.4710670462
 10
-10.0808305661
 20
-0.4741226795
 10
-10.0928320236
 20
-0.4770555032
 10
-10.1051650255
 20
-0.479860429
 10
-10.1178298513
 20
-0.4825244538
 10
-10.130827746
 20
-0.4850353214
 10
-10.1441845809
 20
-0.4873857823
 10
-10.1579026475
 20
-0.4895604386
 10
-10.1719834478
 20
-0.4915443034
 10
-10.1864517118
 20
-0.4933264846
 10
-10.2013090232
 20
-0.4948880326
 10
-10.2165610327
 20
-0.4962113826
 10
-10.2322389485
 20
-0.4972814941
 10
-10.2483570548
 20
-0.4980762916
 10
-10.2649132693
 20
-0.498570662
 10
-10.2819155716
 20
-0.498740799
  0
LWPOLYLINE
  5
5D8
100
AcDbEntity
  8
IMPORT_IGES
100
AcDbPolyline
 62
253
  6
CONTINUOUS
 90
7
 70
0
 10
-8.7007849134
 20
-1.3358504462
 10
-8.7184132657
 20
-1.3354815358
 10
-8.7332289807
 20
-1.3352761476
 10
-8.7451504188
 20
-1.3352387983
 10
-8.7538904312
 20
-1.3353769737
 10
-8.7591720183
 20
-1.3356904081
 10
-8.7609384553
 20
-1.3361709876
  0
LWPOLYLINE
  5
5D9
100
AcDbEntity
  8
IMPORT_IGES
100
AcDbPolyline
 62
253
  6
CONTINUOUS
 90
7
 70
0
 10
-47.1630588835
 20
1.1383688516
 10
-47.1454305166
 20
1.1379999407
 10
-47.1306147895
 20
1.1377945521
 10
-47.1186933471
 20
1.1377572025
 10
-47.1099533344
 20
1.1378953775
 10
-47.1046717436
 20
1.138208811
 10
-47.102905295
 20
1.1386893892
  0
LINE
  5
5DA
100
AcDbEntity
  8
IMPORT_IGES
100
AcDbLine
 62
253
  6
CONTINUOUS
 10
-8.658556727
 20
-1.3370369146
 11
-8.7007849134
 21
-1.3358504462
  0
LINE
  5
5DB
100
AcDbEntity
  8
IMPORT_IGES
100
AcDbLine
 62
253
  6
CONTINUOUS
 10
-47.2052870949
 20
1.1395553212
 11
-47.1630588835
 21
1.1383688516
  0
LINE
  5
5DC
100
AcDbEntity
  8
IMPORT_IGES
100
AcDbLine
 62
253
  6
CONTINUOUS
 10
-8.6087949692
 20
-1.3387548869
 11
-8.658556727
 21
-1.3370369146
  0
LINE
  5
5DD
100
AcDbEntity
  8
IMPORT_IGES
100
AcDbLine
 62
253
  6
CONTINUOUS
 10
-47.2550488786
 20
1.1412732948
 11
-47.2052870949
 21
1.1395553212
  0
LINE
  5
5DE
100
AcDbEntity
  8
IMPORT_IGES
100
AcDbLine
 62
253
  6
CONTINUOUS
 10
-8.5233783534
 20
-1.3421970337
 11
-8.6087949692
 21
-1.3387548869
  0
LINE
  5
5DF
100
AcDbEntity
  8
IMPORT_IGES
100
AcDbLine
 62
253
  6
CONTINUOUS
 10
-47.3404655324
 20
1.1447154439
 11
-47.2550488786
 21
1.1412732948
  0
LINE
  5
5E0
100
AcDbEntity
  8
IMPORT_IGES
100
AcDbLine
 62
253
  6
CONTINUOUS
 10
-8.4612680659
 20
-1.3449969138
 11
-8.5233783534
 21
-1.3421970337
  0
LINE
  5
5E1
100
AcDbEntity
  8
IMPORT_IGES
100
AcDbLine
 62
253
  6
CONTINUOUS
 10
-47.4025758417
 20
1.1475153255
 11
-47.3404655324
 21
1.1447154439
  0
LINE
  5
5E2
100
AcDbEntity
  8
IMPORT_IGES
100
AcDbLine
 62
253
  6
CONTINUOUS
 10
-7.4602076917
 20
-1.3449969385
 11
-7.3677720121
 21
-1.3494314607
  0
LINE
  5
5E3
100
AcDbEntity
  8
IMPORT_IGES
100
AcDbLine
 62
253
  6
CONTINUOUS
 10
-48.403636057
 20
1.1475153934
 11
-48.4960717349
 21
1.1519499157
  0
LINE
  5
5E4
100
AcDbEntity
  8
IMPORT_IGES
100
AcDbLine
 62
253
  6
CONTINUOUS
 10
-7.3677720121
 20
-1.3494314607
 11
-7.3124526498
 21
-1.3523578802
  0
LINE
  5
5E5
100
AcDbEntity
  8
IMPORT_IGES
100
AcDbLine
 62
253
  6
CONTINUOUS
 10
-48.4960717349
 20
1.1519499157
 11
-48.5513910964
 21
1.1548763352
  0
LINE
  5
5E6
100
AcDbEntity
  8
IMPORT_IGES
100
AcDbLine
 62
253
  6
CONTINUOUS
 10
-7.3124526498
 20
-1.3523578802
 11
-7.262759797
 21
-1.3552210146
  0
LINE
  5
5E7
100
AcDbEntity
  8
IMPORT_IGES
100
AcDbLine
 62
253
  6
CONTINUOUS
 10
-48.5513910964
 20
1.1548763352
 11
-48.6010839489
 21
1.1577394697
  0
LWPOLYLINE
  5
5E8
100
AcDbEntity
  8
IMPORT_IGES
100
AcDbPolyline
 62
253
  6
CONTINUOUS
 90
8
 70
0
 10
-48.6010839489
 20
1.1577394697
 10
-48.6432955918
 20
1.1604430931
 10
-48.6608748043
 20
1.1616951881
 10
-48.675725538
 20
1.1628581513
 10
-48.687592932
 20
1.1639152407
 10
-48.6962624728
 20
1.1648511883
 10
-48.7015565461
 20
1.165652158
 10
-48.7033297342
 20
1.1663051759
  0
LWPOLYLINE
  5
5E9
100
AcDbEntity
  8
IMPORT_IGES
100
AcDbPolyline
 62
253
  6
CONTINUOUS
 90
8
 70
0
 10
-7.262759797
 20
-1.3552210146
 10
-7.2205481541
 20
-1.357924638
 10
-7.2029689416
 20
-1.359176733
 10
-7.1881182081
 20
-1.3603396962
 10
-7.1762508147
 20
-1.3613967855
 10
-7.1675812748
 20
-1.3623327331
 10
-7.1622872022
 20
-1.3631337028
 10
-7.1605140145
 20
-1.3637867206
  0
LWPOLYLINE
  5
5EA
100
AcDbEntity
  8
IMPORT_IGES
100
AcDbPolyline
 62
253
  6
CONTINUOUS
 90
6
 70
0
 10
-7.4629247519
 20
-4.1052889332
 10
-7.4481058781
 20
-4.1071680444
 10
-7.4363323813
 20
-4.1085695349
 10
-7.4277910447
 20
-4.1094664777
 10
-7.4225505235
 20
-4.1098548123
 10
-7.4206966375
 20
-4.109725281
  0
LINE
  5
5EB
100
AcDbEntity
  8
IMPORT_IGES
100
AcDbLine
 62
253
  6
CONTINUOUS
 10
-7.4998574311
 20
-4.1003768237
 11
-7.4629247519
 21
-4.1052889332
  0
LINE
  5
5EC
100
AcDbEntity
  8
IMPORT_IGES
100
AcDbLine
 62
253
  6
CONTINUOUS
 10
-7.6274118219
 20
-4.0826113554
 11
-7.4998574311
 21
-4.1003768237
  0
LINE
  5
5ED
100
AcDbEntity
  8
IMPORT_IGES
100
AcDbLine
 62
253
  6
CONTINUOUS
 10
-7.7176454724
 20
-4.0696761926
 11
-7.6274118219
 21
-4.0826113554
  0
LINE
  5
5EE
100
AcDbEntity
  8
IMPORT_IGES
100
AcDbLine
 62
253
  6
CONTINUOUS
 10
-8.7280451822
 20
-4.0697171747
 11
-8.8753990651
 21
-4.0472473218
  0
LINE
  5
5EF
100
AcDbEntity
  8
IMPORT_IGES
100
AcDbLine
 62
253
  6
CONTINUOUS
 10
-47.0451510958
 20
3.8585031406
 11
-46.938860944
 21
3.8420012722
  0
LINE
  5
5F0
100
AcDbEntity
  8
IMPORT_IGES
100
AcDbLine
 62
253
  6
CONTINUOUS
 10
-8.8753990651
 20
-4.0472473218
 11
-8.9462527468
 21
-4.0361015777
  0
LWPOLYLINE
  5
5F1
100
AcDbEntity
  8
IMPORT_IGES
100
AcDbPolyline
 62
253
  6
CONTINUOUS
 90
7
 70
0
 10
-8.9462527468
 20
-4.0361015777
 10
-8.9831643595
 20
-4.0301183111
 10
-8.9978908615
 20
-4.0276590254
 10
-9.0096981064
 20
-4.0256224385
 10
-9.0182953168
 20
-4.0240558826
 10
-9.0234551276
 20
-4.0229996772
 10
-9.0251338252
 20
-4.0224657783
  0
LWPOLYLINE
  5
5F2
100
AcDbEntity
  8
IMPORT_IGES
100
AcDbPolyline
 62
253
  6
CONTINUOUS
 90
7
 70
0
 10
-46.938860944
 20
3.8420012722
 10
-46.8806794402
 20
3.832636721
 10
-46.8659529248
 20
3.8301774334
 10
-46.8541456664
 20
3.8281408445
 10
-46.8455484442
 20
3.8265742867
 10
-46.8403886255
 20
3.8255180798
 10
-46.8387099251
 20
3.8249841803
  0
LWPOLYLINE
  5
5F3
100
AcDbEntity
  8
IMPORT_IGES
100
AcDbPolyline
 62
253
  6
CONTINUOUS
 90
46
 70
0
 10
-27.1454122922
 20
1.8567628873
 10
-27.1164403748
 20
1.8346997398
 10
-27.0789049731
 20
1.8056088679
 10
-27.0336425041
 20
1.769123705
 10
-26.9809112334
 20
1.7249458435
 10
-26.9212698818
 20
1.673373691
 10
-26.8570482047
 20
1.6149359043
 10
-26.7895725003
 20
1.5495691217
 10
-26.7194735023
 20
1.4773367049
 10
-26.6487553373
 20
1.3989573951
 10
-26.5792673561
 20
1.3156465951
 10
-26.5110810796
 20
1.2261889021
 10
-26.4434177861
 20
1.1276568492
 10
-26.3752022876
 20
1.0179976171
 10
-26.3083906691
 20
0.899264025
 10
-26.2467648363
 20
0.7746870639
 10
-26.1911580743
 20
0.643668909
 10
-26.141825047
 20
0.506807385
 10
-26.1019354054
 20
0.3691269569
 10
-26.0725679362
 20
0.2325630257
 10
-26.0533166463
 20
0.0951801904
 10
-26.0450895272
 20
-0.043803286
 10
-26.0483432911
 20
-0.1853022647
 10
-26.0626668429
 20
-0.3284018845
 10
-26.0875264377
 20
-0.4711392989
 10
-26.1231323691
 20
-0.6140376326
 10
-26.1686900522
 20
-0.756573761
 10
-26.2220590725
 20
-0.8952154635
 10
-26.2837096254
 20
-1.031112249
 10
-26.3519401686
 20
-1.1631146086
 10
-26.4216133224
 20
-1.2842417947
 10
-26.490056537
 20
-1.390859064
 10
-26.5591119902
 20
-1.4866011599
 10
-26.6304198412
 20
-1.5753915648
 10
-26.7044894201
 20
-1.6588088627
 10
-26.7784760051
 20
-1.7352744696
 10
-26.8489989342
 20
-1.8039761153
 10
-26.9151068445
 20
-1.8646396422
 10
-26.9760662193
 20
-1.9175392079
 10
-27.0298002782
 20
-1.9626850148
 10
-27.0757003366
 20
-1.9997885082
 10
-27.1137631535
 20
-2.0291382427
 10
-27.1435255675
 20
-2.0516100849
 10
-27.1648265557
 20
-2.0674959902
 10
-27.1776434869
 20
-2.0765040032
 10
-27.1819218752
 20
-2.0786341238
  0
LWPOLYLINE
  5
5F4
100
AcDbEntity
  8
IMPORT_IGES
100
AcDbPolyline
 62
253
  6
CONTINUOUS
 90
8
 70
0
 10
-9.4220788411
 20
-11.1894563363
 10
-9.4193042835
 20
-11.1916789994
 10
-9.4101562789
 20
-11.1966619
 10
-9.3946246464
 20
-11.2043973248
 10
-9.3729518432
 20
-11.2147645317
 10
-9.3453833927
 20
-11.2276503794
 10
-9.3118965403
 20
-11.2430661601
 10
-9.2285457911
 20
-11.2808539056
  0
LINE
  5
5F5
100
AcDbEntity
  8
IMPORT_IGES
100
AcDbLine
 62
7
  6
CONTINUOUS
 10
-27.0125782961
 20
1.4633866419
 11
-27.0104403367
 21
1.4611800019
  0
LINE
  5
5F6
100
AcDbEntity
  8
IMPORT_IGES
100
AcDbLine
 62
7
  6
CONTINUOUS
 10
-27.0125782961
 20
1.4633866419
 11
-27.0024788742
 21
1.4528436142
  0
LINE
  5
5F7
100
AcDbEntity
  8
IMPORT_IGES
100
AcDbLine
 62
7
  6
CONTINUOUS
 10
-27.0024788742
 20
1.4528436142
 11
-26.9910766698
 21
1.4407849997
  0
LWPOLYLINE
  5
5F8
100
AcDbEntity
  8
IMPORT_IGES
100
AcDbPolyline
 62
7
  6
CONTINUOUS
 90
7
 70
0
 10
-26.9951393577
 20
1.4451042996
 10
-26.9739764646
 20
1.4223651492
 10
-26.9521996787
 20
1.3982712341
 10
-26.9258225726
 20
1.368137353
 10
-26.8951637741
 20
1.3317121295
 10
-26.8606705674
 20
1.2887644817
 10
-26.8226112372
 20
1.2387454414
  0
LWPOLYLINE
  5
5F9
100
AcDbEntity
  8
IMPORT_IGES
100
AcDbPolyline
 62
7
  6
CONTINUOUS
 90
3
 70
0
 10
-26.9804402031
 20
1.4293695793
 10
-26.9612712411
 20
1.4083976761
 10
-26.937859367
 20
1.3820236449
  0
LINE
  5
5FA
100
AcDbEntity
  8
IMPORT_IGES
100
AcDbLine
 62
7
  6
CONTINUOUS
 10
-9.8489058751
 20
1.2352307211
 11
-9.6819304521
 21
1.621879032
  0
LWPOLYLINE
  5
5FB
100
AcDbEntity
  8
IMPORT_IGES
100
AcDbPolyline
 62
7
  6
CONTINUOUS
 90
4
 70
0
 10
-29.8999516636
 20
1.8906040543
 10
-29.8958404841
 20
1.8915049822
 10
-29.8397782521
 20
1.8988539321
 10
-29.7849675801
 20
1.901259201
  0
LINE
  5
5FC
100
AcDbEntity
  8
IMPORT_IGES
100
AcDbLine
 62
253
  6
CONTINUOUS
 10
-8.7275949921
 20
3.8723040741
 11
-8.8200251455
 21
3.8582958669
  0
LINE
  5
5FD
100
AcDbEntity
  8
IMPORT_IGES
100
AcDbLine
 62
253
  6
CONTINUOUS
 10
-7.5694818592
 20
3.8932874697
 11
-7.7176450424
 21
3.8721917759
  0
LINE
  5
5FE
100
AcDbEntity
  8
IMPORT_IGES
100
AcDbLine
 62
253
  6
CONTINUOUS
 10
-7.4973384274
 20
3.9032157973
 11
-7.5694818592
 21
3.8932874697
  0
LWPOLYLINE
  5
5FF
100
AcDbEntity
  8
IMPORT_IGES
100
AcDbPolyline
 62
253
  6
CONTINUOUS
 90
14
 70
0
 10
-7.5435679744
 20
2.0959888788
 10
-7.5119362966
 20
2.0977958233
 10
-7.4809945364
 20
2.102743234
 10
-7.4510635061
 20
2.1106745043
 10
-7.4226096401
 20
2.1213303672
 10
-7.395702624
 20
2.1345463125
 10
-7.3701003745
 20
2.150422061
 10
-7.3459723845
 20
2.1689611205
 10
-7.3237646869
 20
2.1899386189
 10
-7.3037289427
 20
2.2132230733
 10
-7.2861319719
 20
2.2386459441
 10
-7.2712671713
 20
2.2659476843
 10
-7.2593981501
 20
2.2948135227
 10
-7.2507333956
 20
2.32492321
  0
LWPOLYLINE
  5
600
100
AcDbEntity
  8
IMPORT_IGES
100
AcDbPolyline
 62
7
  6
CONTINUOUS
 90
6
 70
0
 10
-29.6609518997
 20
1.901259201
 10
-29.7251231146
 20
1.8983221192
 10
-29.7890584354
 20
1.8895547604
 10
-29.8522701538
 20
1.8750544843
 10
-29.9139599735
 20
1.8550852687
 10
-29.9497895666
 20
1.8399750821
  0
LWPOLYLINE
  5
601
100
AcDbEntity
  8
IMPORT_IGES
100
AcDbPolyline
 62
253
  6
CONTINUOUS
 90
16
 70
0
 10
-47.3160755147
 20
2.0959887671
 10
-47.2865694816
 20
2.09720984
 10
-47.2572686218
 20
2.1012458136
 10
-47.2286465467
 20
2.1080275546
 10
-47.2014442748
 20
2.1172730479
 10
-47.1757453585
 20
2.1287883924
 10
-47.1510384199
 20
2.1427754763
 10
-47.1275601721
 20
2.1592103754
 10
-47.1058134366
 20
2.1778142704
 10
-47.0858042809
 20
2.1986656528
 10
-47.0678926564
 20
2.221520225
 10
-47.0523828728
 20
2.2460676001
 10
-47.039335061
 20
2.2723455324
 10
-47.0289978166
 20
2.3001049324
 10
-47.0216462413
 20
2.3287664544
 10
-47.0173771331
 20
2.3578507178
  0
LINE
  5
602
100
AcDbEntity
  8
IMPORT_IGES
100
AcDbLine
 62
7
  6
CONTINUOUS
 10
-9.9735682087
 20
1.101259201
 11
-12.5307707626
 21
1.101259201
  0
LINE
  5
603
100
AcDbEntity
  8
IMPORT_IGES
100
AcDbLine
 62
253
  6
CONTINUOUS
 10
-25.4041929876
 20
1.101259201
 11
-25.4319218752
 21
1.101259201
  0
LINE
  5
604
100
AcDbEntity
  8
IMPORT_IGES
100
AcDbLine
 62
253
  6
CONTINUOUS
 10
-30.4319218752
 20
1.101259201
 11
-30.4615901959
 21
1.101259201
  0
LINE
  5
605
100
AcDbEntity
  8
IMPORT_IGES
100
AcDbLine
 62
7
  6
CONTINUOUS
 10
-43.3319496575
 20
1.101259201
 11
-45.8902755416
 21
1.101259201
  0
LINE
  5
606
100
AcDbEntity
  8
IMPORT_IGES
100
AcDbLine
 62
253
  6
CONTINUOUS
 10
-7.4602075913
 20
1.1475152968
 11
-8.4612679759
 21
1.1475152968
  0
LINE
  5
607
100
AcDbEntity
  8
IMPORT_IGES
100
AcDbLine
 62
253
  6
CONTINUOUS
 10
-47.402575796
 20
1.1475163517
 11
-48.4036360114
 21
1.1475163517
  0
LINE
  5
608
100
AcDbEntity
  8
IMPORT_IGES
100
AcDbLine
 62
253
  6
CONTINUOUS
 10
-46.014938689
 20
1.2352326054
 11
-45.3819141887
 21
1.2352286151
  0
LINE
  5
609
100
AcDbEntity
  8
IMPORT_IGES
100
AcDbLine
 62
253
  6
CONTINUOUS
 10
-10.4819295616
 20
1.2352287259
 11
-9.8489050135
 21
1.2352327163
  0
LINE
  5
60A
100
AcDbEntity
  8
IMPORT_IGES
100
AcDbLine
 62
7
  6
CONTINUOUS
 10
-8.8077887124
 20
1.901259201
 11
-12.4143113975
 21
1.90125943
  0
LINE
  5
60B
100
AcDbEntity
  8
IMPORT_IGES
100
AcDbLine
 62
7
  6
CONTINUOUS
 10
-26.2028918506
 20
1.901259201
 11
-27.1818753012
 21
1.901259201
  0
LINE
  5
60C
100
AcDbEntity
  8
IMPORT_IGES
100
AcDbLine
 62
7
  6
CONTINUOUS
 10
-28.6819683675
 20
1.901259201
 11
-29.6609518997
 21
1.901259201
  0
LINE
  5
60D
100
AcDbEntity
  8
IMPORT_IGES
100
AcDbLine
 62
7
  6
CONTINUOUS
 10
-43.4495071638
 20
1.9012589914
 11
-47.0560550061
 21
1.901259201
  0
LINE
  5
60E
100
AcDbEntity
  8
IMPORT_IGES
100
AcDbLine
 62
253
  6
CONTINUOUS
 10
-48.3202741659
 20
2.0959888361
 11
-47.3160755082
 21
2.0959888361
  0
LINE
  5
60F
100
AcDbEntity
  8
IMPORT_IGES
100
AcDbLine
 62
253
  6
CONTINUOUS
 10
-8.5477689018
 20
2.0959887392
 11
-7.5435679617
 21
2.0959887392
  0
LINE
  5
610
100
AcDbEntity
  8
IMPORT_IGES
100
AcDbLine
 62
253
  6
CONTINUOUS
 10
-7.6275245509
 20
2.8975377216
 11
-8.6349063632
 21
2.8975377216
  0
LINE
  5
611
100
AcDbEntity
  8
IMPORT_IGES
100
AcDbLine
 62
253
  6
CONTINUOUS
 10
-47.228938121
 20
2.8975376499
 11
-48.2363175929
 21
2.8975376499
  0
LWPOLYLINE
  5
612
100
AcDbEntity
  8
IMPORT_IGES
100
AcDbPolyline
 62
253
  6
CONTINUOUS
 90
16
 70
0
 10
-8.5477689009
 20
2.0959887307
 10
-8.5772333201
 20
2.0972061556
 10
-8.6064910412
 20
2.101230074
 10
-8.6350772178
 20
2.10799297
 10
-8.6622640415
 20
2.1172197758
 10
-8.687970325
 20
2.1287236883
 10
-8.7126935918
 20
2.142705026
 10
-8.7361902908
 20
2.159138111
 10
-8.7579614081
 20
2.1777492339
 10
-8.777996123
 20
2.1986157128
 10
-8.7959296735
 20
2.2214898255
 10
-8.8114564677
 20
2.2460597321
 10
-8.8245144607
 20
2.2723588165
 10
-8.8348540179
 20
2.3001306921
 10
-8.8422021453
 20
2.3287895123
 10
-8.8464666133
 20
2.3578506769
  0
LWPOLYLINE
  5
613
100
AcDbEntity
  8
IMPORT_IGES
100
AcDbPolyline
 62
7
  6
CONTINUOUS
 90
6
 70
0
 10
-26.2028918506
 20
1.901259201
 10
-26.1388588071
 20
1.8981754265
 10
-26.0755801993
 20
1.8895944932
 10
-26.0132506616
 20
1.8755164012
 10
-25.9519258874
 20
1.8559233895
 10
-25.9118720093
 20
1.8391854452
  0
LWPOLYLINE
  5
614
100
AcDbEntity
  8
IMPORT_IGES
100
AcDbPolyline
 62
253
  6
CONTINUOUS
 90
14
 70
0
 10
-48.236317574
 20
2.8975378031
 10
-48.2679604626
 20
2.899409008
 10
-48.2989082383
 20
2.9044218553
 10
-48.3288399926
 20
2.9124175252
 10
-48.3572881943
 20
2.9231336914
 10
-48.3841851339
 20
2.9364046544
 10
-48.4097772341
 20
2.9523319623
 10
-48.4338968997
 20
2.9709201858
 10
-48.4560963511
 20
2.99194237
 10
-48.4761227251
 20
3.0152646643
 10
-48.4937084316
 20
3.0407149817
 10
-48.5085631851
 20
3.0680352054
 10
-48.5204266661
 20
3.0969164406
 10
-48.5290897856
 20
3.127040975
  0
LWPOLYLINE
  5
615
100
AcDbEntity
  8
IMPORT_IGES
100
AcDbPolyline
 62
253
  6
CONTINUOUS
 90
6
 70
0
 10
-48.4009189861
 20
3.9078073264
 10
-48.4157378608
 20
3.9096864441
 10
-48.4275113573
 20
3.9110879488
 10
-48.4360526923
 20
3.9119849151
 10
-48.4412932115
 20
3.9123732811
 10
-48.4431470953
 20
3.9122437892
  0
LINE
  5
616
100
AcDbEntity
  8
IMPORT_IGES
100
AcDbLine
 62
253
  6
CONTINUOUS
 10
-48.3639863046
 20
3.9028952166
 11
-48.4009189861
 21
3.9078073264
  0
LINE
  5
617
100
AcDbEntity
  8
IMPORT_IGES
100
AcDbLine
 62
253
  6
CONTINUOUS
 10
-48.2364319189
 20
3.8851297554
 11
-48.3639863046
 21
3.9028952166
  0
LINE
  5
618
100
AcDbEntity
  8
IMPORT_IGES
100
AcDbLine
 62
253
  6
CONTINUOUS
 10
-48.1461982772
 20
3.8721945945
 11
-48.2364319189
 21
3.8851297554
  0
LINE
  5
619
100
AcDbEntity
  8
IMPORT_IGES
100
AcDbLine
 62
253
  6
CONTINUOUS
 10
-47.1357986756
 20
3.872235585
 11
-47.0451510958
 21
3.8585031406
  0
LWPOLYLINE
  5
61A
100
AcDbEntity
  8
IMPORT_IGES
100
AcDbPolyline
 62
7
  6
CONTINUOUS
 90
4
 70
0
 10
-25.9632779304
 20
1.890321224
 10
-25.9728865049
 20
1.8923411807
 10
-26.0264868557
 20
1.8991152473
 10
-26.0788761702
 20
1.901259201
  0
LWPOLYLINE
  5
61B
100
AcDbEntity
  8
IMPORT_IGES
100
AcDbPolyline
 62
253
  6
CONTINUOUS
 90
4
 70
0
 10
-27.1819218752
 20
1.8811525493
 10
-27.1779212026
 20
1.8800503864
 10
-27.1658018456
 20
1.8719204991
 10
-27.1454122922
 20
1.8567628873
  0
LWPOLYLINE
  5
61C
100
AcDbEntity
  8
IMPORT_IGES
100
AcDbPolyline
 62
7
  6
CONTINUOUS
 90
3
 70
0
 10
-10.4847454008
 20
-1.2988071977
 10
-10.5022410606
 20
-1.29375549
 10
-10.519321125
 20
-1.2799562907
  0
LINE
  5
61D
100
AcDbEntity
  8
IMPORT_IGES
100
AcDbLine
 62
253
  6
CONTINUOUS
 10
-28.6873683662
 20
1.8827679336
 11
-28.6819218752
 21
1.8811525493
  0
LWPOLYLINE
  5
61E
100
AcDbEntity
  8
IMPORT_IGES
100
AcDbPolyline
 62
253
  6
CONTINUOUS
 90
4
 70
0
 10
-37.9560179978
 20
21.9585965178
 10
-37.9610628507
 20
21.9647932852
 10
-37.964148057
 20
21.9684752687
 10
-37.9652505652
 20
21.969615876
  0
LINE
  5
61F
100
AcDbEntity
  8
IMPORT_IGES
100
AcDbLine
 62
7
  6
CONTINUOUS
 10
-36.974294213
 20
20.7011721751
 11
-36.9637636542
 21
20.688019976
  0
LINE
  5
620
100
AcDbEntity
  8
IMPORT_IGES
100
AcDbLine
 62
253
  6
CONTINUOUS
 10
-37.9402379516
 20
21.9388889106
 11
-37.9560179978
 21
21.9585965178
  0
LINE
  5
621
100
AcDbEntity
  8
IMPORT_IGES
100
AcDbLine
 62
7
  6
CONTINUOUS
 10
-36.9637636542
 20
20.688019976
 11
-36.9295246053
 21
20.6447144519
  0
LINE
  5
622
100
AcDbEntity
  8
IMPORT_IGES
100
AcDbLine
 62
253
  6
CONTINUOUS
 10
-37.8888007093
 20
21.8738311976
 11
-37.9402379516
 21
21.9388889106
  0
LINE
  5
623
100
AcDbEntity
  8
IMPORT_IGES
100
AcDbLine
 62
7
  6
CONTINUOUS
 10
-36.9295246053
 20
20.6447144519
 11
-36.857390521
 21
20.5526813124
  0
LINE
  5
624
100
AcDbEntity
  8
IMPORT_IGES
100
AcDbLine
 62
253
  6
CONTINUOUS
 10
-37.7804090435
 20
21.7355366081
 11
-37.8888007093
 21
21.8738311976
  0
LINE
  5
625
100
AcDbEntity
  8
IMPORT_IGES
100
AcDbLine
 62
253
  6
CONTINUOUS
 10
-37.164401352
 20
20.9471924542
 11
-37.0061245184
 21
20.7427615193
  0
LWPOLYLINE
  5
626
100
AcDbEntity
  8
IMPORT_IGES
100
AcDbPolyline
 62
253
  6
CONTINUOUS
 90
5
 70
0
 10
-37.0061245184
 20
20.7427615193
 10
-36.9897814379
 20
20.7213047516
 10
-36.9845301053
 20
20.7143035678
 10
-36.9814243236
 20
20.7100461812
 10
-36.9804877044
 20
20.7085682171
  0
LINE
  5
627
100
AcDbEntity
  8
IMPORT_IGES
100
AcDbLine
 62
7
  6
CONTINUOUS
 10
-13.4178226679
 20
-0.90648384
 11
-13.4141621773
 21
-1.1161932054
  0
LINE
  5
628
100
AcDbEntity
  8
IMPORT_IGES
100
AcDbLine
 62
7
  6
CONTINUOUS
 10
-12.5319218752
 20
-33.698740799
 11
-12.5319218752
 21
-23.298740799
  0
LINE
  5
629
100
AcDbEntity
  8
IMPORT_IGES
100
AcDbLine
 62
7
  6
CONTINUOUS
 10
-12.4319218752
 20
-39.798740799
 11
-12.4319218752
 21
-33.798740799
  0
LINE
  5
62A
100
AcDbEntity
  8
IMPORT_IGES
100
AcDbLine
 62
7
  6
CONTINUOUS
 10
-13.4141621773
 20
0.9187116074
 11
-13.4178226679
 21
0.7090022419
  0
LWPOLYLINE
  5
62B
100
AcDbEntity
  8
IMPORT_IGES
100
AcDbPolyline
 62
7
  6
CONTINUOUS
 90
12
 70
0
 10
-10.5115557809
 20
0.2662173206
 10
-10.5176977887
 20
0.2470365264
 10
-10.5234188742
 20
0.2243815154
 10
-10.5287098859
 20
0.1981523195
 10
-10.5335799753
 20
0.1684489067
 10
-10.5378778282
 20
0.1361947126
 10
-10.5415874627
 20
0.1013157273
 10
-10.5447248605
 20
0.0638859607
 10
-10.5471866527
 20
0.0250508782
 10
-10.5489383828
 20
-0.0148076984
 10
-10.5500145072
 20
-0.0560715908
 10
-10.5504150258
 20
-0.098740799
  0
LWPOLYLINE
  5
62C
100
AcDbEntity
  8
IMPORT_IGES
100
AcDbPolyline
 62
253
  6
CONTINUOUS
 90
22
 70
0
 10
-18.6996415916
 20
-21.1452227338
 10
-17.9485920846
 20
-20.5364262017
 10
-17.2218459662
 20
-19.9027044122
 10
-16.5194032363
 20
-19.2440573654
 10
-15.8404244632
 20
-18.5595731728
 10
-15.1857490787
 20
-17.8501637228
 10
-14.5578953783
 20
-17.1185646803
 10
-13.9569546706
 20
-16.3646770063
 10
-13.3828356469
 20
-15.5885997398
 10
-12.8377826768
 20
-14.7933656627
 10
-12.3219096799
 20
-13.9788996728
 10
-11.8351027365
 20
-13.1452768723
 10
-11.3792644575
 20
-12.295755349
 10
-10.9545162369
 20
-11.4302728004
 10
-10.5607366808
 20
-10.548891529
 10
-10.1994642179
 20
-9.6550565302
 10
-9.8708265365
 20
-8.7487202702
 10
-9.5746959484
 20
-7.8299302828
 10
-9.3122278178
 20
-6.9022741649
 10
-9.0838072662
 20
-5.9669477821
 10
-8.889049172
 20
-5.0227552688
 10
-8.7279535354
 20
-4.069696625
  0
LWPOLYLINE
  5
62D
100
AcDbEntity
  8
IMPORT_IGES
100
AcDbPolyline
 62
253
  6
CONTINUOUS
 90
10
 70
0
 10
-18.6996415916
 20
-21.1452227338
 10
-18.7882758641
 20
-21.2100240204
 10
-18.8801376584
 20
-21.268582462
 10
-18.9752269746
 20
-21.3208980585
 10
-19.0739889501
 20
-21.3671396336
 10
-19.1759784475
 20
-21.4071383637
 10
-19.2798600545
 20
-21.4403877777
 10
-19.3851886339
 20
-21.4667190519
 10
-19.4924093231
 20
-21.48630101
 10
-19.6015221219
 20
-21.499133652
  0
LWPOLYLINE
  5
62E
100
AcDbEntity
  8
IMPORT_IGES
100
AcDbPolyline
 62
253
  6
CONTINUOUS
 90
10
 70
0
 10
-18.0809351444
 20
-21.9312603218
 10
-18.2227898279
 20
-22.0348716672
 10
-18.3694775445
 20
-22.1284027006
 10
-18.5209982941
 20
-22.2118534221
 10
-18.6777148163
 20
-22.2854086864
 10
-18.8392643716
 20
-22.3488836388
 10
-19.0045587416
 20
-22.4017237144
 10
-19.173235187
 20
-22.4437440583
 10
-19.345656447
 20
-22.4751295254
 10
-19.5218225219
 20
-22.4958801157
  0
LWPOLYLINE
  5
62F
100
AcDbEntity
  8
IMPORT_IGES
100
AcDbPolyline
 62
253
  6
CONTINUOUS
 90
10
 70
0
 10
-19.0063850369
 20
-20.7501101631
 10
-19.0691222929
 20
-20.7958592492
 10
-19.1341028951
 20
-20.8372026178
 10
-19.2013268435
 20
-20.8741402689
 10
-19.2710911738
 20
-20.9067888398
 10
-19.3430988502
 20
-20.9350316932
 10
-19.4164587658
 20
-20.9585189175
 10
-19.4908738849
 20
-20.9771338754
 10
-19.5666412431
 20
-20.9909932042
 10
-19.6437608405
 20
-21.0000969038
  0
LWPOLYLINE
  5
630
100
AcDbEntity
  8
IMPORT_IGES
100
AcDbPolyline
 62
253
  6
CONTINUOUS
 90
16
 70
0
 10
-17.8985936087
 20
-22.1670981656
 10
-17.8841737988
 20
-22.1604839781
 10
-17.8653238939
 20
-22.1596929524
 10
-17.8422777364
 20
-22.1647188817
 10
-17.815606904
 20
-22.1753001756
 10
-17.785567027
 20
-22.1911653004
 10
-17.7517507452
 20
-22.2125106734
 10
-17.7142664654
 20
-22.2393549909
 10
-17.6736218601
 20
-22.2713845299
 10
-17.6297298692
 20
-22.308715156
 10
-17.583014906
 20
-22.3510466123
 10
-17.5339699716
 20
-22.3979618957
 10
-17.4825623772
 20
-22.4495338002
 10
-17.4291746453
 20
-22.5054417826
 10
-17.3746404949
 20
-22.5648435206
 10
-17.3196305956
 20
-22.6269956083
  0
LINE
  5
631
100
AcDbEntity
  8
IMPORT_IGES
100
AcDbLine
 62
253
  6
CONTINUOUS
 10
-16.8094906673
 20
-22.4216229852
 11
-16.5559089852
 21
-22.3161932055
  0
LINE
  5
632
100
AcDbEntity
  8
IMPORT_IGES
100
AcDbLine
 62
253
  6
CONTINUOUS
 10
-16.9792117012
 20
-22.4909223331
 11
-16.8094906673
 21
-22.4216229852
  0
LINE
  5
633
100
AcDbEntity
  8
IMPORT_IGES
100
AcDbLine
 62
253
  6
CONTINUOUS
 10
-17.1492763966
 20
-22.5594605481
 11
-16.9792117012
 21
-22.4909223331
  0
LINE
  5
634
100
AcDbEntity
  8
IMPORT_IGES
100
AcDbLine
 62
253
  6
CONTINUOUS
 10
-17.3196293041
 20
-22.6269950764
 11
-17.1492763966
 21
-22.5594605481
  0
LWPOLYLINE
  5
635
100
AcDbEntity
  8
IMPORT_IGES
100
AcDbPolyline
 62
253
  6
CONTINUOUS
 90
10
 70
0
 10
-17.3196293041
 20
-22.6269950764
 10
-17.5395139225
 20
-22.7078875269
 10
-17.7674213669
 20
-22.7799016257
 10
-18.0032799331
 20
-22.8432751952
 10
-18.2527598414
 20
-22.8995937427
 10
-18.5100853671
 20
-22.9480664007
 10
-18.7580240096
 20
-22.9860478111
 10
-18.9908153573
 20
-23.0135269612
 10
-19.2141772791
 20
-23.0324803295
 10
-19.4281081684
 20
-23.0435501445
  0
LWPOLYLINE
  5
636
100
AcDbEntity
  8
IMPORT_IGES
100
AcDbPolyline
 62
253
  6
CONTINUOUS
 90
16
 70
0
 10
-47.2289381237
 20
2.8975376274
 10
-47.2000630373
 20
2.8986444655
 10
-47.1713868535
 20
2.9024471239
 10
-47.1433438518
 20
2.9088839342
 10
-47.1166172483
 20
2.9177034893
 10
-47.0912831211
 20
2.9287353375
 10
-47.066873827
 20
2.9421644493
 10
-47.0436202427
 20
2.9579685373
 10
-47.0219969035
 20
2.9758957692
 10
-47.0020170496
 20
2.996014965
 10
-46.984028594
 20
3.0180950937
 10
-46.9683227492
 20
3.04184781
 10
-46.954955626
 20
3.0673047643
 10
-46.9441650066
 20
3.0942291778
 10
-46.9362196111
 20
3.1220762645
 10
-46.9312181837
 20
3.1503933832
  0
LINE
  5
637
100
AcDbEntity
  8
IMPORT_IGES
100
AcDbLine
 62
253
  6
CONTINUOUS
 10
-8.7279522105
 20
3.8722116953
 11
-7.7176487962
 21
3.8722116953
  0
LINE
  5
638
100
AcDbEntity
  8
IMPORT_IGES
100
AcDbLine
 62
253
  6
CONTINUOUS
 10
-48.1461948654
 20
3.8722150312
 11
-47.135890422
 21
3.8722150312
  0
LWPOLYLINE
  5
639
100
AcDbEntity
  8
IMPORT_IGES
100
AcDbPolyline
 62
253
  6
CONTINUOUS
 90
7
 70
0
 10
-7.4207422646
 20
3.9125599423
 10
-7.422487269
 20
3.9125783432
 10
-7.4274173516
 20
3.9121332068
 10
-7.4354976704
 20
3.9112266534
 10
-7.4466668375
 20
3.9098648374
 10
-7.4608164541
 20
3.9080604425
 10
-7.4973384274
 20
3.9032157973
  0
LWPOLYLINE
  5
63A
100
AcDbEntity
  8
IMPORT_IGES
100
AcDbPolyline
 62
253
  6
CONTINUOUS
 90
16
 70
0
 10
-8.6349063512
 20
2.8975376195
 10
-8.6637303187
 20
2.8986401748
 10
-8.6923582404
 20
2.902429312
 10
-8.7203636827
 20
2.9088458883
 10
-8.7470742455
 20
2.9176453519
 10
-8.7724160234
 20
2.9286643683
 10
-8.7968452362
 20
2.9420881155
 10
-8.8201257811
 20
2.9578951299
 10
-8.8417827003
 20
2.9758371959
 10
-8.8617930014
 20
2.9959775443
 10
-8.8798021897
 20
3.0180774616
 10
-8.8955215482
 20
3.0418487343
 10
-8.9088965648
 20
3.0673230407
 10
-8.9196886331
 20
3.0942580939
 10
-8.9276298068
 20
3.1221008925
 10
-8.9326255675
 20
3.1503933905
  0
LWPOLYLINE
  5
63B
100
AcDbEntity
  8
RACCORDO
100
AcDbPolyline
 62
253
  6
CONTINUOUS
 90
31
 70
0
 10
-27.7891200007
 20
6.6058487829
 10
-27.8653261995
 20
6.6288965299
 10
-27.9710560587
 20
6.662928963
 10
-28.0734865994
 20
6.6977749545
 10
-28.1727990986
 20
6.7334804969
 10
-28.2688122793
 20
6.7699995977
 10
-28.3615261575
 20
6.807114591
 10
-28.4499752346
 20
6.8442911239
 10
-28.5351250092
 20
6.8820635492
 10
-28.6198719931
 20
6.9218172588
 10
-28.7049686495
 20
6.9636659556
 10
-28.7896625151
 20
7.0074959367
 10
-28.8745927122
 20
7.0543514853
 10
-28.9606540747
 20
7.1046752768
 10
-29.0469517686
 20
7.1580246358
 10
-29.1314404138
 20
7.2141158192
 10
-29.2141842776
 20
7.2731819177
 10
-29.2951190926
 20
7.3349898407
 10
-29.3720066774
 20
7.398556573
 10
-29.4438577577
 20
7.462845989
 10
-29.5116616077
 20
7.5288942144
 10
-29.5761478686
 20
7.5988266108
 10
-29.6382844678
 20
7.6730195198
 10
-29.6971034779
 20
7.7510965997
 10
-29.7504307587
 20
7.8340541868
 10
-29.7987543166
 20
7.923521572
 10
-29.8415861452
 20
8.0178694643
 10
-29.8752880854
 20
8.1132063271
 10
-29.8986474174
 20
8.2082349813
 10
-29.912876861
 20
8.3042526059
 10
-29.9179764161
 20
8.401259201
  0
LWPOLYLINE
  5
63C
100
AcDbEntity
  8
IMPORT_IGES
100
AcDbPolyline
 62
7
  6
CONTINUOUS
 90
4
 70
0
 10
-36.9804890925
 20
20.7085638202
 10
-36.979762187
 20
20.7078163952
 10
-36.9776867142
 20
20.7053397099
 10
-36.974294213
 20
20.7011721751
  0
LINE
  5
63D
100
AcDbEntity
  8
IMPORT_IGES
100
AcDbLine
 62
7
  6
CONTINUOUS
 10
-14.6587167944
 20
-0.048740799
 11
-14.6319218752
 21
-0.148740799
  0
LWPOLYLINE
  5
63E
100
AcDbEntity
  8
IMPORT_IGES
100
AcDbPolyline
 62
7
  6
CONTINUOUS
 90
16
 70
0
 10
-10.5504150258
 20
-0.098740799
 10
-10.550012929
 20
-0.1414858006
 10
-10.5489331585
 20
-0.182817768
 10
-10.5471757142
 20
-0.2227367013
 10
-10.5447058809
 20
-0.2616259936
 10
-10.5415583739
 20
-0.2991022518
 10
-10.5378373393
 20
-0.3340152965
 10
-10.5335267229
 20
-0.3662904003
 10
-10.528642579
 20
-0.3960022907
 10
-10.5233372164
 20
-0.42222497
 10
-10.5175954294
 20
-0.4448635404
 10
-10.5114324237
 20
-0.4640128999
 10
-10.5050461254
 20
-0.4790317448
 10
-10.4985025098
 20
-0.4897063072
 10
-10.4917356016
 20
-0.4962503551
 10
-10.4847454008
 20
-0.4986638884
  0
LINE
  5
63F
100
AcDbEntity
  8
IMPORT_IGES
100
AcDbLine
 62
7
  6
CONTINUOUS
 10
-11.4819407858
 20
1.90125943
 11
-11.4819407858
 21
1.101259201
  0
LINE
  5
640
100
AcDbEntity
  8
IMPORT_IGES
100
AcDbLine
 62
7
  6
CONTINUOUS
 10
-11.4819407858
 20
-1.298740799
 11
-11.4819407858
 21
-2.0987405884
  0
LINE
  5
641
100
AcDbEntity
  8
IMPORT_IGES
100
AcDbLine
 62
7
  6
CONTINUOUS
 10
-10.4847454008
 20
-1.2988071977
 11
-10.4847454008
 21
-0.4986638884
  0
LINE
  5
642
100
AcDbEntity
  8
IMPORT_IGES
100
AcDbLine
 62
7
  6
CONTINUOUS
 10
-10.4847449931
 20
0.301339482
 11
-10.4847449931
 21
1.1011922216
  0
LINE
  5
643
100
AcDbEntity
  8
IMPORT_IGES
100
AcDbLine
 62
7
  6
CONTINUOUS
 10
-10.4819344823
 20
1.90125943
 11
-10.4819294395
 21
1.1012634525
  0
LINE
  5
644
100
AcDbEntity
  8
IMPORT_IGES
100
AcDbLine
 62
7
  6
CONTINUOUS
 10
-10.4819143109
 20
-1.2987365457
 11
-10.481909268
 21
-2.0987405884
  0
LINE
  5
645
100
AcDbEntity
  8
IMPORT_IGES
100
AcDbLine
 62
7
  6
CONTINUOUS
 10
-10.4717284912
 20
-1.298740695
 11
-10.4717284912
 21
-0.498740799
  0
LINE
  5
646
100
AcDbEntity
  8
IMPORT_IGES
100
AcDbLine
 62
7
  6
CONTINUOUS
 10
-10.4717284912
 20
0.301259201
 11
-10.4717284912
 21
1.101259097
  0
LINE
  5
647
100
AcDbEntity
  8
IMPORT_IGES
100
AcDbLine
 62
7
  6
CONTINUOUS
 10
-9.681909268
 20
-2.0987405884
 11
-9.6819344823
 21
1.90125943
  0
LWPOLYLINE
  5
648
100
AcDbEntity
  8
IMPORT_IGES
100
AcDbPolyline
 62
7
  6
CONTINUOUS
 90
19
 70
0
 10
-10.6819218752
 20
-0.098740799
 10
-10.6811101411
 20
0.007530423
 10
-10.678857417
 20
0.1113328021
 10
-10.6751637029
 20
0.2126663383
 10
-10.6699768942
 20
0.3122367276
 10
-10.6633490956
 20
0.409338274
 10
-10.6554366209
 20
0.5018538895
 10
-10.6462138464
 20
0.5896811084
 10
-10.635706396
 20
0.6729223965
 10
-10.624147455
 20
0.7497680636
 10
-10.6115156155
 20
0.8200879827
 10
-10.5978322855
 20
0.8840122808
 10
-10.5833948743
 20
0.9401216484
 10
-10.5681834265
 20
0.9882627408
 10
-10.5522178973
 20
1.0285889028
 10
-10.535855562
 20
1.0601408593
 10
-10.519215512
 20
1.0825988522
 10
-10.5021786557
 20
1.0962826396
 10
-10.4847449931
 20
1.1011922216
  0
LWPOLYLINE
  5
649
100
AcDbEntity
  8
IMPORT_IGES
100
AcDbPolyline
 62
253
  6
CONTINUOUS
 90
25
 70
0
 10
-9.008236131
 20
-2.0987405884
 10
-9.0934124282
 20
-3.0041580074
 10
-9.2094975684
 20
-3.9039467522
 10
-9.3564915518
 20
-4.7981068229
 10
-9.5346445584
 20
-5.6876974002
 10
-9.7437064081
 20
-6.5716593033
 10
-9.9829265601
 20
-7.4468149903
 10
-10.2524136763
 20
-8.3131327676
 10
-10.5520590948
 20
-9.1706443287
 10
-10.8807862882
 20
-10.0162672124
 10
-11.2387000378
 20
-10.8499586043
 10
-11.6256955623
 20
-11.6717613187
 10
-12.0403819904
 20
-12.4787213372
 10
-12.4828590857
 20
-13.2707851853
 10
-12.9530270845
 20
-14.0480063374
 10
-13.4491958258
 20
-14.8075911987
 10
-13.9714589728
 20
-15.5494762144
 10
-14.5197228621
 20
-16.2737249392
 10
-15.0920163425
 20
-16.9777344422
 10
-15.6884257449
 20
-17.6614315902
 10
-16.3088647384
 20
-18.3248895164
 10
-16.9511031788
 20
-18.9657246899
 10
-17.6143976846
 20
-19.5831426004
 10
-18.2994916373
 20
-20.1779377581
 10
-19.0063850369
 20
-20.7501101631
  0
LINE
  5
64A
100
AcDbEntity
  8
IMPORT_IGES
100
AcDbLine
 62
253
  6
CONTINUOUS
 10
-8.593157734
 20
-2.7387974046
 11
-8.5740958406
 21
-2.5606727868
  0
LWPOLYLINE
  5
64B
100
AcDbEntity
  8
IMPORT_IGES
100
AcDbPolyline
 62
253
  6
CONTINUOUS
 90
3
 70
0
 10
-8.5298853152
 20
-2.1413124723
 10
-8.52508575
 20
-2.0975274026
 10
-8.5146529135
 20
-1.9984662611
  0
LINE
  5
64C
100
AcDbEntity
  8
IMPORT_IGES
100
AcDbLine
 62
253
  6
CONTINUOUS
 10
-8.6134276716
 20
-2.9169129631
 11
-8.593157734
 21
-2.7387974046
  0
LINE
  5
64D
100
AcDbEntity
  8
IMPORT_IGES
100
AcDbLine
 62
253
  6
CONTINUOUS
 10
-8.63490563
 20
-3.0950192479
 11
-8.6134276716
 21
-2.9169129631
  0
LWPOLYLINE
  5
64E
100
AcDbEntity
  8
IMPORT_IGES
100
AcDbPolyline
 62
253
  6
CONTINUOUS
 90
4
 70
0
 10
-8.5477682573
 20
-2.2934704288
 10
-8.5451234702
 20
-2.2725013808
 10
-8.5420244308
 20
-2.2466732456
 10
-8.5298853152
 20
-2.1413124723
  0
LWPOLYLINE
  5
64F
100
AcDbEntity
  8
IMPORT_IGES
100
AcDbPolyline
 62
253
  6
CONTINUOUS
 90
3
 70
0
 10
-7.2507333956
 20
2.32492321
 10
-7.2454382411
 20
2.355961617
 10
-7.2436492669
 20
2.3875750731
  0
LWPOLYLINE
  5
650
100
AcDbEntity
  8
IMPORT_IGES
100
AcDbPolyline
 62
253
  6
CONTINUOUS
 90
14
 70
0
 10
-7.3342180016
 20
3.1294247787
 10
-7.3421922066
 20
3.100504441
 10
-7.3529928424
 20
3.0729575861
 10
-7.3664591375
 20
3.0468535441
 10
-7.3827024033
 20
3.021957744
 10
-7.4017438375
 20
2.9984298237
 10
-7.4233544299
 20
2.9767207767
 10
-7.4473775029
 20
2.9571039114
 10
-7.4736360011
 20
2.9398408981
 10
-7.5018623211
 20
2.9252168603
 10
-7.5317033547
 20
2.913498498
 10
-7.5628148324
 20
2.9048837155
 10
-7.594877219
 20
2.8995218311
 10
-7.6275245813
 20
2.897537976
  0
LWPOLYLINE
  5
651
100
AcDbEntity
  8
IMPORT_IGES
100
AcDbPolyline
 62
253
  6
CONTINUOUS
 90
16
 70
0
 10
-8.5744411643
 20
-11.5686336119
 10
-8.9530693608
 20
-12.4085584151
 10
-9.3518495606
 20
-13.2276655795
 10
-9.770785363
 20
-14.0259551051
 10
-10.2089096195
 20
-14.8013712153
 10
-10.6671972284
 20
-15.5559696868
 10
-11.1485650683
 20
-16.2959178494
 10
-11.6534087392
 20
-17.0227072931
 10
-12.1813409011
 20
-17.7348464279
 10
-12.7341042261
 20
-18.4340278144
 10
-13.3130209739
 20
-19.1224525038
 10
-13.9167772954
 20
-19.797919445
 10
-14.5431617565
 20
-20.455518045
 10
-15.1914396814
 20
-21.0936114396
 10
-15.862352991
 20
-21.7138364931
 10
-16.5559047755
 20
-22.3161932055
  0
LINE
  5
652
100
AcDbEntity
  8
RACCORDO
100
AcDbLine
 62
253
  6
CONTINUOUS
 10
-29.9179764161
 20
8.401259201
 11
-25.3168490312
 21
8.401259201
  0
LWPOLYLINE
  5
653
100
AcDbEntity
  8
RACCORDO
100
AcDbPolyline
 62
253
  6
CONTINUOUS
 90
34
 70
0
 10
-27.4277767786
 20
6.6475599983
 10
-27.4913242364
 20
6.6625294362
 10
-27.606892004
 20
6.6916592979
 10
-27.7186712923
 20
6.7217044635
 10
-27.8266541167
 20
6.7525697696
 10
-27.9308528771
 20
6.7841724351
 10
-28.0318011047
 20
6.8165926326
 10
-28.1296762982
 20
6.8498255788
 10
-28.2243003216
 20
6.8837500613
 10
-28.3156695327
 20
6.9182907258
 10
-28.4028141061
 20
6.9529474117
 10
-28.4867219916
 20
6.9880737765
 10
-28.5702826771
 20
7.024978795
 10
-28.6541340726
 20
7.0639122099
 10
-28.7375480127
 20
7.1047141097
 10
-28.8212873334
 20
7.1482331549
 10
-28.9061287082
 20
7.1949810029
 10
-28.9911175698
 20
7.2446353796
 10
-29.0744012468
 20
7.2968125448
 10
-29.15599365
 20
7.3516956883
 10
-29.2357185936
 20
7.409179019
 10
-29.3114930222
 20
7.4683500015
 10
-29.3822790355
 20
7.5282027383
 10
-29.4490582712
 20
7.5896361852
 10
-29.5127264013
 20
7.6546274318
 10
-29.5739618825
 20
7.7235907429
 10
-29.6317835827
 20
7.7961758369
 10
-29.6844470224
 20
7.8733159604
 10
-29.7322794255
 20
7.9564202115
 10
-29.7744517349
 20
8.0440815179
 10
-29.8076188262
 20
8.1329045472
 10
-29.8307288377
 20
8.2216064974
 10
-29.8448021934
 20
8.3111167243
 10
-29.8498058648
 20
8.401259201
  0
LINE
  5
654
100
AcDbEntity
  8
IMPORT_IGES
100
AcDbLine
 62
253
  6
CONTINUOUS
 10
-30.305784756
 20
10.8861076858
 11
-30.5601272076
 21
11.0451985948
  0
LINE
  5
655
100
AcDbEntity
  8
IMPORT_IGES
100
AcDbLine
 62
253
  6
CONTINUOUS
 10
-8.5740943989
 20
2.3631911892
 11
-8.5931560709
 21
2.5413158087
  0
LINE
  5
656
100
AcDbEntity
  8
IMPORT_IGES
100
AcDbLine
 62
253
  6
CONTINUOUS
 10
-8.7280435545
 20
3.8721899882
 11
-8.6924088435
 21
3.5185014358
  0
LWPOLYLINE
  5
657
100
AcDbEntity
  8
IMPORT_IGES
100
AcDbPolyline
 62
253
  6
CONTINUOUS
 90
3
 70
0
 10
-8.5477689018
 20
2.0959887392
 10
-8.5562418022
 20
2.1850583184
 10
-8.5740943989
 20
2.3631911892
  0
LINE
  5
658
100
AcDbEntity
  8
IMPORT_IGES
100
AcDbLine
 62
253
  6
CONTINUOUS
 10
-8.6924088435
 20
3.5185014358
 11
-8.6682895198
 21
3.266934755
  0
LWPOLYLINE
  5
659
100
AcDbEntity
  8
IMPORT_IGES
100
AcDbPolyline
 62
253
  6
CONTINUOUS
 90
4
 70
0
 10
-8.4990596513
 20
1.6395290202
 10
-8.5058056906
 20
1.7116551773
 10
-8.512533574
 20
1.7794331685
 10
-8.5250681604
 20
1.9001564843
  0
LINE
  5
65A
100
AcDbEntity
  8
IMPORT_IGES
100
AcDbLine
 62
253
  6
CONTINUOUS
 10
-8.6682895198
 20
3.266934755
 11
-8.6389256692
 21
2.9439467872
  0
LINE
  5
65B
100
AcDbEntity
  8
IMPORT_IGES
100
AcDbLine
 62
253
  6
CONTINUOUS
 10
-8.6389256692
 20
2.9439467872
 11
-8.6349063635
 21
2.8975377216
  0
LWPOLYLINE
  5
65C
100
AcDbEntity
  8
IMPORT_IGES
100
AcDbPolyline
 62
253
  6
CONTINUOUS
 90
3
 70
0
 10
-8.4790022033
 20
1.4024239638
 10
-8.4855219809
 20
1.4842808548
 10
-8.4990596513
 20
1.6395290202
  0
LWPOLYLINE
  5
65D
100
AcDbEntity
  8
IMPORT_IGES
100
AcDbPolyline
 62
253
  6
CONTINUOUS
 90
3
 70
0
 10
-8.4612679763
 20
1.1475152968
 10
-8.4669212497
 20
1.2334259821
 10
-8.4790022033
 20
1.4024239638
  0
LWPOLYLINE
  5
65E
100
AcDbEntity
  8
IMPORT_IGES
100
AcDbPolyline
 62
253
  6
CONTINUOUS
 90
3
 70
0
 10
-7.2436510844
 20
-2.5850570992
 10
-7.245312207
 20
-2.5545908672
 10
-7.2502101394
 20
-2.5247461899
  0
LWPOLYLINE
  5
65F
100
AcDbEntity
  8
IMPORT_IGES
100
AcDbPolyline
 62
253
  6
CONTINUOUS
 90
10
 70
0
 10
-7.4602075913
 20
1.1475152968
 10
-7.4547438065
 20
1.0202190395
 10
-7.4498657553
 20
0.8929043673
 10
-7.4455734376
 20
0.7655712803
 10
-7.4418667872
 20
0.638217068
 10
-7.4387458703
 20
0.5108444409
 10
-7.4362108863
 20
0.3834615296
 10
-7.4342619014
 20
0.2560710444
 10
-7.4328988493
 20
0.1286702751
 10
-7.4321217301
 20
0.0012592216
  0
LINE
  5
660
100
AcDbEntity
  8
IMPORT_IGES
100
AcDbLine
 62
7
  6
CONTINUOUS
 10
-8.9057392778
 20
-1.598740799
 11
-8.9319218752
 21
-0.0987407976
  0
LWPOLYLINE
  5
661
100
AcDbEntity
  8
IMPORT_IGES
100
AcDbPolyline
 62
253
  6
CONTINUOUS
 90
10
 70
0
 10
-8.432135554
 20
0.0012592216
 10
-8.4329412011
 20
0.1286740239
 10
-8.4343547259
 20
0.256077759
 10
-8.4363761284
 20
0.3834704268
 10
-8.4390054828
 20
0.5108549433
 10
-8.442242715
 20
0.6382283926
 10
-8.4460876026
 20
0.7655820273
 10
-8.4505400716
 20
0.8929129317
 10
-8.455600196
 20
1.0202240215
 10
-8.4612679759
 20
1.1475152968
  0
LWPOLYLINE
  5
662
100
AcDbEntity
  8
IMPORT_IGES
100
AcDbPolyline
 62
253
  6
CONTINUOUS
 90
10
 70
0
 10
-7.2436492669
 20
2.3875750731
 10
-7.2436631454
 20
2.3903632892
 10
-7.2437048258
 20
2.3931527829
 10
-7.2437743551
 20
2.3959432945
 10
-7.2438718053
 20
2.3987352514
 10
-7.2439972045
 20
2.4015277037
 10
-7.2441504684
 20
2.4043183275
 10
-7.244331524
 20
2.407106177
 10
-7.2445403777
 20
2.4098916813
 10
-7.2447769996
 20
2.4126745823
  0
LINE
  5
663
100
AcDbEntity
  8
IMPORT_IGES
100
AcDbLine
 62
7
  6
CONTINUOUS
 10
-9.0319218752
 20
-1.5987407991
 11
-9.0319218752
 21
-0.6271679238
  0
LINE
  5
664
100
AcDbEntity
  8
IMPORT_IGES
100
AcDbLine
 62
7
  6
CONTINUOUS
 10
-8.1319218753
 20
-0.198740799
 11
-8.1319218692
 21
0.001259201
  0
LWPOLYLINE
  5
665
100
AcDbEntity
  8
IMPORT_IGES
100
AcDbPolyline
 62
253
  6
CONTINUOUS
 90
10
 70
0
 10
-7.4321218198
 20
-0.1987408197
 10
-7.4328989427
 20
-0.3261520259
 10
-7.4342619995
 20
-0.4535529472
 10
-7.4362109901
 20
-0.5809435835
 10
-7.4387459818
 20
-0.7083266694
 10
-7.4418669074
 20
-0.8356994703
 10
-7.4455735648
 20
-0.963053783
 10
-7.4498658866
 20
-1.0903868731
 10
-7.4547439403
 20
-1.2177014749
 10
-7.4602077257
 20
-1.3449975885
  0
LWPOLYLINE
  5
666
100
AcDbEntity
  8
IMPORT_IGES
100
AcDbPolyline
 62
253
  6
CONTINUOUS
 90
10
 70
0
 10
-7.3276695345
 20
-3.3871965938
 10
-7.3276938331
 20
-3.3908854595
 10
-7.3277668062
 20
-3.3945763309
 10
-7.3278885605
 20
-3.3982686057
 10
-7.3280592576
 20
-3.4019628719
 10
-7.3282789567
 20
-3.405657327
 10
-7.3285474568
 20
-3.409347788
 10
-7.3288645805
 20
-3.413032465
 10
-7.3292303313
 20
-3.4167119514
 10
-7.3296446266
 20
-3.4203856499
  0
LINE
  5
667
100
AcDbEntity
  8
IMPORT_IGES
100
AcDbLine
 62
253
  6
CONTINUOUS
 10
-8.5748460483
 20
-11.5703528409
 11
-8.7999394781
 21
-22.3162009488
  0
LINE
  5
668
100
AcDbEntity
  8
IMPORT_IGES
100
AcDbLine
 62
7
  6
CONTINUOUS
 10
-7.5912420674
 20
-22.3196837952
 11
-7.1380652058
 21
-0.6852463738
  0
LINE
  5
669
100
AcDbEntity
  8
IMPORT_IGES
100
AcDbLine
 62
253
  6
CONTINUOUS
 10
-7.1722198771
 20
-1.7703140222
 11
-7.1380800345
 21
-0.6851432724
  0
LWPOLYLINE
  5
66A
100
AcDbEntity
  8
IMPORT_IGES
100
AcDbPolyline
 62
253
  6
CONTINUOUS
 90
10
 70
0
 10
-8.4612680951
 20
-1.3449975885
 10
-8.4556002846
 20
-1.2177061281
 10
-8.4505401344
 20
-1.0903948891
 10
-8.4460876444
 20
-0.9630638716
 10
-8.4422427411
 20
-0.8357101719
 10
-8.4390054981
 20
-0.7083366936
 10
-8.4363761362
 20
-0.5809521481
 10
-8.434354729
 20
-0.4535594391
 10
-8.432941203
 20
-0.326155663
 10
-8.4321355581
 20
-0.1987408197
  0
LINE
  5
66B
100
AcDbEntity
  8
IMPORT_IGES
100
AcDbLine
 62
253
  6
CONTINUOUS
 10
-7.2275683504
 20
-2.8232227825
 11
-7.1722198771
 21
-1.7703140222
  0
LWPOLYLINE
  5
66C
100
AcDbEntity
  8
IMPORT_IGES
100
AcDbPolyline
 62
253
  6
CONTINUOUS
 90
3
 70
0
 10
-7.3276676986
 20
3.1897144209
 10
-7.3293263834
 20
3.159264585
 10
-7.3342180016
 20
3.1294247787
  0
LWPOLYLINE
  5
66D
100
AcDbEntity
  8
IMPORT_IGES
100
AcDbPolyline
 62
253
  6
CONTINUOUS
 90
4
 70
0
 10
-7.4601779621
 20
-1.3449969092
 10
-7.4693343199
 20
-1.4879688365
 10
-7.4742175705
 20
-1.5584237615
 10
-7.4793564646
 20
-1.6277311195
  0
LINE
  5
66E
100
AcDbEntity
  8
IMPORT_IGES
100
AcDbLine
 62
253
  6
CONTINUOUS
 10
-7.3024885905
 20
-3.8438620765
 11
-7.2275683504
 21
-2.8232227825
  0
LWPOLYLINE
  5
66F
100
AcDbEntity
  8
IMPORT_IGES
100
AcDbPolyline
 62
253
  6
CONTINUOUS
 90
4
 70
0
 10
-8.4811543491
 20
-1.627652035
 10
-8.4758294349
 20
-1.5584022162
 10
-8.4707663499
 20
-1.4879710255
 10
-8.4612680587
 20
-1.3449969092
  0
LWPOLYLINE
  5
670
100
AcDbEntity
  8
IMPORT_IGES
100
AcDbPolyline
 62
253
  6
CONTINUOUS
 90
3
 70
0
 10
-7.4793564646
 20
-1.6277311195
 10
-7.4900876088
 20
-1.7613136863
 10
-7.4955215107
 20
-1.8247792506
  0
LWPOLYLINE
  5
671
100
AcDbEntity
  8
IMPORT_IGES
100
AcDbPolyline
 62
253
  6
CONTINUOUS
 90
10
 70
0
 10
-7.2447787868
 20
-2.6101557788
 10
-7.2445418852
 20
-2.6073693344
 10
-7.2443329612
 20
-2.604582266
 10
-7.2441519857
 20
-2.6017948368
 10
-7.2439989642
 20
-2.5990080571
 10
-7.24387381
 20
-2.5962214414
 10
-7.2437764187
 20
-2.5934330043
 10
-7.2437068029
 20
-2.590642255
 10
-7.2436650174
 20
-2.5878502003
 10
-7.2436510844
 20
-2.5850570992
  0
LINE
  5
672
100
AcDbEntity
  8
IMPORT_IGES
100
AcDbLine
 62
253
  6
CONTINUOUS
 10
-7.6449096674
 20
-3.2984942479
 11
-7.6275256916
 21
-3.0950192479
  0
LWPOLYLINE
  5
673
100
AcDbEntity
  8
IMPORT_IGES
100
AcDbPolyline
 62
253
  6
CONTINUOUS
 90
3
 70
0
 10
-8.4979140861
 20
-1.8246526059
 10
-8.4922744474
 20
-1.7611360794
 10
-8.4811543491
 20
-1.627652035
  0
LINE
  5
674
100
AcDbEntity
  8
IMPORT_IGES
100
AcDbLine
 62
253
  6
CONTINUOUS
 10
-8.6349056301
 20
-3.0950192479
 11
-8.6570362084
 21
-3.3433159495
  0
LINE
  5
675
100
AcDbEntity
  8
IMPORT_IGES
100
AcDbLine
 62
253
  6
CONTINUOUS
 10
-7.6767720612
 20
-3.6509185336
 11
-7.6449096674
 21
-3.2984942479
  0
LINE
  5
676
100
AcDbEntity
  8
IMPORT_IGES
100
AcDbLine
 62
253
  6
CONTINUOUS
 10
-7.4955215107
 20
-1.8247792506
 11
-7.5063769908
 21
-1.9436292564
  0
LINE
  5
677
100
AcDbEntity
  8
IMPORT_IGES
100
AcDbLine
 62
253
  6
CONTINUOUS
 10
-7.3947361052
 20
-4.8320467926
 11
-7.3024885905
 21
-3.8438620765
  0
LINE
  5
678
100
AcDbEntity
  8
IMPORT_IGES
100
AcDbLine
 62
253
  6
CONTINUOUS
 10
-7.5435695958
 20
-2.2934704288
 11
-7.5601894582
 21
-2.4716063447
  0
LINE
  5
679
100
AcDbEntity
  8
IMPORT_IGES
100
AcDbLine
 62
253
  6
CONTINUOUS
 10
-8.6570362084
 20
-3.3433159495
 11
-8.6852618814
 21
-3.6421344286
  0
LINE
  5
67A
100
AcDbEntity
  8
IMPORT_IGES
100
AcDbLine
 62
253
  6
CONTINUOUS
 10
-7.7028488302
 20
-3.9218702065
 11
-7.6767720612
 21
-3.6509185336
  0
LWPOLYLINE
  5
67B
100
AcDbEntity
  8
IMPORT_IGES
100
AcDbPolyline
 62
253
  6
CONTINUOUS
 90
3
 70
0
 10
-8.5146529135
 20
-1.9984662611
 10
-8.5091846166
 20
-1.943628871
 10
-8.4979140861
 20
-1.8246526059
  0
LINE
  5
67C
100
AcDbEntity
  8
IMPORT_IGES
100
AcDbLine
 62
253
  6
CONTINUOUS
 10
-7.5063769908
 20
-1.9436292564
 11
-7.5168200758
 21
-2.0499202211
  0
LINE
  5
67D
100
AcDbEntity
  8
IMPORT_IGES
100
AcDbLine
 62
253
  6
CONTINUOUS
 10
-7.7176463233
 20
-4.0696715863
 11
-7.7028488302
 21
-3.9218702065
  0
LWPOLYLINE
  5
67E
100
AcDbEntity
  8
IMPORT_IGES
100
AcDbPolyline
 62
253
  6
CONTINUOUS
 90
3
 70
0
 10
-8.6852618814
 20
-3.6421344286
 10
-8.7205018039
 20
-3.9967977687
 10
-8.7280451823
 20
-4.0696715863
  0
LINE
  5
67F
100
AcDbEntity
  8
IMPORT_IGES
100
AcDbLine
 62
253
  6
CONTINUOUS
 10
-7.5601894582
 20
-2.4716063447
 11
-7.57797344
 21
-2.6497345878
  0
LWPOLYLINE
  5
680
100
AcDbEntity
  8
IMPORT_IGES
100
AcDbPolyline
 62
253
  6
CONTINUOUS
 90
3
 70
0
 10
-8.5740958406
 20
-2.5606727868
 10
-8.5650179471
 20
-2.4716074202
 10
-8.5477682513
 20
-2.2934704288
  0
LINE
  5
681
100
AcDbEntity
  8
IMPORT_IGES
100
AcDbLine
 62
253
  6
CONTINUOUS
 10
-7.5168200758
 20
-2.0499202211
 11
-7.5263406933
 21
-2.1413803526
  0
LINE
  5
682
100
AcDbEntity
  8
IMPORT_IGES
100
AcDbLine
 62
253
  6
CONTINUOUS
 10
-7.57797344
 20
-2.6497345878
 11
-7.59692152
 21
-2.8278549534
  0
LWPOLYLINE
  5
683
100
AcDbEntity
  8
IMPORT_IGES
100
AcDbPolyline
 62
253
  6
CONTINUOUS
 90
4
 70
0
 10
-7.5263406933
 20
-2.1413803526
 10
-7.53803155
 20
-2.2466596425
 10
-7.5410187459
 20
-2.2724921602
 10
-7.5435693426
 20
-2.2934704288
  0
LWPOLYLINE
  5
684
100
AcDbEntity
  8
IMPORT_IGES
100
AcDbPolyline
 62
253
  6
CONTINUOUS
 90
3
 70
0
 10
-7.59692152
 20
-2.8278549534
 10
-7.6170336128
 20
-3.005966623
 10
-7.6275261692
 20
-3.0950192479
  0
LWPOLYLINE
  5
685
100
AcDbEntity
  8
IMPORT_IGES
100
AcDbPolyline
 62
253
  6
CONTINUOUS
 90
22
 70
0
 10
-7.7176488834
 20
-4.069696625
 10
-7.8806465127
 20
-5.0663997163
 10
-8.0791119637
 20
-6.0539443811
 10
-8.3130452364
 20
-7.0323306194
 10
-8.582849342
 20
-8.0028292013
 10
-8.8881212693
 20
-8.9641693566
 10
-9.227651985
 20
-9.9125387756
 10
-9.6015776553
 20
-10.8478856402
 10
-10.009762114
 20
-11.7702617684
 10
-10.4505878286
 20
-12.6760103043
 10
-10.9241845843
 20
-13.565065155
 10
-11.4304225959
 20
-14.4374924133
 10
-11.9672949759
 20
-15.2898335018
 10
-12.5349235123
 20
-16.1220085456
 10
-13.1331864171
 20
-16.9340974196
 10
-13.7597114391
 20
-17.7228811705
 10
-14.4146962124
 20
-18.4883415495
 10
-15.0979431029
 20
-19.2304968054
 10
-15.8064869567
 20
-19.9461827312
 10
-16.5393393893
 20
-20.6343445914
 10
-17.2974887852
 20
-21.2960371217
 10
-18.0809351444
 20
-21.9312603218
  0
LWPOLYLINE
  5
686
100
AcDbEntity
  8
IMPORT_IGES
100
AcDbPolyline
 62
253
  6
CONTINUOUS
 90
9
 70
0
 10
-8.5748460483
 20
-11.5703528409
 10
-8.3999994974
 20
-10.8463917897
 10
-8.2288231563
 20
-10.0881813721
 10
-8.0636311385
 20
-9.2956862412
 10
-7.9069395417
 20
-8.4679764191
 10
-7.7603445804
 20
-7.605935883
 10
-7.6248020568
 20
-6.7122494949
 10
-7.5024235224
 20
-5.7879840791
 10
-7.3947361052
 20
-4.8320467926
  0
LINE
  5
687
100
AcDbEntity
  8
IMPORT_IGES
100
AcDbLine
 62
253
  6
CONTINUOUS
 10
-25.5580589943
 20
11.4164107162
 11
-25.3037165427
 21
11.2573198071
  0
LINE
  5
688
100
AcDbEntity
  8
IMPORT_IGES
100
AcDbLine
 62
7
  6
CONTINUOUS
 10
-8.9123802026
 20
-1.2182824716
 11
-8.7624955829
 21
-1.3681670913
  0
LINE
  5
689
100
AcDbEntity
  8
IMPORT_IGES
100
AcDbLine
 62
7
  6
CONTINUOUS
 10
-9.6819278636
 20
0.8512651894
 11
-9.6177083128
 21
0.7870456387
  0
LWPOLYLINE
  5
68A
100
AcDbEntity
  8
IMPORT_IGES
100
AcDbPolyline
 62
7
  6
CONTINUOUS
 90
17
 70
0
 10
-10.519321125
 20
-1.2799562907
 10
-10.535985594
 20
-1.2574095999
 10
-10.5523471907
 20
-1.2258009955
 10
-10.568293192
 20
-1.1854448997
 10
-10.5834854281
 20
-1.1372845781
 10
-10.5979101407
 20
-1.0811620664
 10
-10.6115810881
 20
-1.0172353289
 10
-10.6242013755
 20
-0.9469215247
 10
-10.6357496486
 20
-0.8700907545
 10
-10.6462472616
 20
-0.7868729176
 10
-10.6554613822
 20
-0.6990748707
 10
-10.6633664448
 20
-0.6065942733
 10
-10.6699880151
 20
-0.5095334659
 10
-10.6751699568
 20
-0.410006327
 10
-10.6788602247
 20
-0.3087174826
 10
-10.6811108642
 20
-0.2049623066
 10
-10.6819218752
 20
-0.098740799
  0
LINE
  5
68B
100
AcDbEntity
  8
IMPORT_IGES
100
AcDbLine
 62
7
  6
CONTINUOUS
 10
-9.8489050613
 20
-1.4327142034
 11
-9.6819034707
 21
-1.8194210156
  0
LWPOLYLINE
  5
68C
100
AcDbEntity
  8
IMPORT_IGES
100
AcDbPolyline
 62
253
  6
CONTINUOUS
 90
3
 70
0
 10
-8.540578573
 20
2.037535487
 10
-8.5444755798
 20
2.0702394291
 10
-8.5477689014
 20
2.095988731
  0
LINE
  5
68D
100
AcDbEntity
  8
IMPORT_IGES
100
AcDbLine
 62
253
  6
CONTINUOUS
 10
-8.6134267328
 20
2.7194313854
 11
-8.6349063632
 21
2.8975377216
  0
LINE
  5
68E
100
AcDbEntity
  8
IMPORT_IGES
100
AcDbLine
 62
253
  6
CONTINUOUS
 10
-8.5931560709
 20
2.5413158087
 11
-8.6134267328
 21
2.7194313854
  0
LINE
  5
68F
100
AcDbEntity
  8
IMPORT_IGES
100
AcDbLine
 62
253
  6
CONTINUOUS
 10
-8.5250681604
 20
1.9001564843
 11
-8.540578573
 21
2.037535487
  0
LINE
  5
690
100
AcDbEntity
  8
IMPORT_IGES
100
AcDbLine
 62
253
  6
CONTINUOUS
 10
-7.5307042369
 20
1.9835410087
 11
-7.5217333262
 21
1.9002501573
  0
LINE
  5
691
100
AcDbEntity
  8
IMPORT_IGES
100
AcDbLine
 62
253
  6
CONTINUOUS
 10
-7.596922371
 20
2.6303733158
 11
-7.5779745687
 21
2.4522529671
  0
LINE
  5
692
100
AcDbEntity
  8
IMPORT_IGES
100
AcDbLine
 62
253
  6
CONTINUOUS
 10
-7.5217333262
 20
1.9002501573
 11
-7.511671931
 21
1.8011367427
  0
LINE
  5
693
100
AcDbEntity
  8
IMPORT_IGES
100
AcDbLine
 62
253
  6
CONTINUOUS
 10
-7.5779745687
 20
2.4522529671
 11
-7.5601897593
 21
2.2741247152
  0
LINE
  5
694
100
AcDbEntity
  8
IMPORT_IGES
100
AcDbLine
 62
253
  6
CONTINUOUS
 10
-7.696007231
 20
3.6542655612
 11
-7.7176930985
 21
3.8721899882
  0
LINE
  5
695
100
AcDbEntity
  8
IMPORT_IGES
100
AcDbLine
 62
253
  6
CONTINUOUS
 10
-7.6698933944
 20
3.3789215754
 11
-7.696007231
 21
3.6542655612
  0
LWPOLYLINE
  5
696
100
AcDbEntity
  8
IMPORT_IGES
100
AcDbPolyline
 62
253
  6
CONTINUOUS
 90
3
 70
0
 10
-7.511671931
 20
1.8011367427
 10
-7.5010228663
 20
1.6882363758
 10
-7.495540688
 20
1.6273345317
  0
LINE
  5
697
100
AcDbEntity
  8
IMPORT_IGES
100
AcDbLine
 62
253
  6
CONTINUOUS
 10
-7.5601897593
 20
2.2741247152
 11
-7.5435679617
 21
2.0959887392
  0
LINE
  5
698
100
AcDbEntity
  8
IMPORT_IGES
100
AcDbLine
 62
253
  6
CONTINUOUS
 10
-7.6445444973
 20
3.0967876366
 11
-7.6698933944
 21
3.3789215754
  0
LINE
  5
699
100
AcDbEntity
  8
IMPORT_IGES
100
AcDbLine
 62
253
  6
CONTINUOUS
 10
-7.6275247908
 20
2.8975377216
 11
-7.6445444973
 21
3.0967876366
  0
LWPOLYLINE
  5
69A
100
AcDbEntity
  8
IMPORT_IGES
100
AcDbPolyline
 62
253
  6
CONTINUOUS
 90
4
 70
0
 10
-7.495540688
 20
1.6273345317
 10
-7.4847172038
 20
1.4979785113
 10
-7.4793758978
 20
1.4301779403
 10
-7.4742386029
 20
1.3608592276
  0
LWPOLYLINE
  5
69B
100
AcDbEntity
  8
IMPORT_IGES
100
AcDbPolyline
 62
253
  6
CONTINUOUS
 90
3
 70
0
 10
-7.4742386029
 20
1.3608592276
 10
-7.4646805283
 20
1.2191761331
 10
-7.4602075076
 20
1.1475152968
  0
LWPOLYLINE
  5
69C
100
AcDbEntity
  8
IMPORT_IGES
100
AcDbPolyline
 62
253
  6
CONTINUOUS
 90
19
 70
0
 10
-8.8700972573
 20
-23.2987410263
 10
-8.8640328997
 20
-23.2949538613
 10
-8.8580772539
 20
-23.2837863012
 10
-8.8522755236
 20
-23.2655656364
 10
-8.8467032833
 20
-23.2408222448
 10
-8.8413629817
 20
-23.2098762225
 10
-8.8361909041
 20
-23.1724640259
 10
-8.8311993589
 20
-23.1285114841
 10
-8.8264568605
 20
-23.0783959102
 10
-8.8219918735
 20
-23.0222367037
 10
-8.8178366763
 20
-22.9601791981
 10
-8.8140404362
 20
-22.8926723634
 10
-8.8106530221
 20
-22.82038891
 10
-8.8077106313
 20
-22.7439728861
 10
-8.8052345856
 20
-22.6638294172
 10
-8.803246534
 20
-22.5803726138
 10
-8.8017703547
 20
-22.4941508253
 10
-8.8008286235
 20
-22.405863355
 10
-8.8004385698
 20
-22.316193187
  0
LWPOLYLINE
  5
69D
100
AcDbEntity
  8
IMPORT_IGES
100
AcDbPolyline
 62
253
  6
CONTINUOUS
 90
5
 70
0
 10
-31.7819218752
 20
12.9012591995
 10
-31.7835894579
 20
12.9009835503
 10
-31.7885040576
 20
12.9007138096
 10
-31.7965095333
 20
12.9004527716
 10
-31.8073444576
 20
12.9002045068
  0
LINE
  5
69E
100
AcDbEntity
  8
IMPORT_IGES
100
AcDbLine
 62
253
  6
CONTINUOUS
 10
-31.8073444576
 20
12.9002045068
 11
-31.8371080413
 21
12.8997460529
  0
LINE
  5
69F
100
AcDbEntity
  8
IMPORT_IGES
100
AcDbLine
 62
253
  6
CONTINUOUS
 10
-31.8371080413
 20
12.8997460529
 11
-31.9017391711
 21
12.8991660278
  0
LINE
  5
6A0
100
AcDbEntity
  8
IMPORT_IGES
100
AcDbLine
 62
253
  6
CONTINUOUS
 10
-31.9017391711
 20
12.8991660278
 11
-32.0171317417
 21
12.8987030211
  0
LINE
  5
6A1
100
AcDbEntity
  8
IMPORT_IGES
100
AcDbLine
 62
253
  6
CONTINUOUS
 10
-32.0171317417
 20
12.8987030211
 11
-32.0819218752
 21
12.8986412389
  0
LINE
  5
6A2
100
AcDbEntity
  8
IMPORT_IGES
100
AcDbLine
 62
253
  6
CONTINUOUS
 10
-24.1819218752
 20
12.901259201
 11
-24.4819218752
 21
12.901259201
  0
LINE
  5
6A3
100
AcDbEntity
  8
IMPORT_IGES
100
AcDbLine
 62
253
  6
CONTINUOUS
 10
-31.3819218752
 20
12.901259201
 11
-31.6819218752
 21
12.901259201
  0
LINE
  5
6A4
100
AcDbEntity
  8
IMPORT_IGES
100
AcDbLine
 62
253
  6
CONTINUOUS
 10
-23.7819218752
 20
12.8986412403
 11
-23.929698255
 21
12.8989808875
  0
LINE
  5
6A5
100
AcDbEntity
  8
IMPORT_IGES
100
AcDbLine
 62
253
  6
CONTINUOUS
 10
-23.929698255
 20
12.8989808875
 11
-24.0017187233
 21
12.8994774197
  0
LWPOLYLINE
  5
6A6
100
AcDbEntity
  8
IMPORT_IGES
100
AcDbPolyline
 62
253
  6
CONTINUOUS
 90
7
 70
0
 10
-24.0017187233
 20
12.8994774197
 10
-24.0394111906
 20
12.8999157891
 10
-24.0542981467
 20
12.9001619049
 10
-24.0661772793
 20
12.9004222327
 10
-24.0748425866
 20
12.9006938281
 10
-24.0801348773
 20
12.9009738813
 10
-24.0819218752
 20
12.9012592009
  0
LWPOLYLINE
  5
6A7
100
AcDbEntity
  8
IMPORT_IGES
100
AcDbPolyline
 62
253
  6
CONTINUOUS
 90
14
 70
0
 10
-7.2502101394
 20
-2.5247461899
 10
-7.2581928691
 20
-2.4958324595
 10
-7.2690025317
 20
-2.4683031762
 10
-7.2824768749
 20
-2.4422269198
 10
-7.298726103
 20
-2.4173685778
 10
-7.3177690455
 20
-2.3938883915
 10
-7.3393765575
 20
-2.3722342166
 10
-7.3633958307
 20
-2.3526743394
 10
-7.3896510953
 20
-2.3354696062
 10
-7.4178745224
 20
-2.3209053037
 10
-7.4477163173
 20
-2.3092466421
 10
-7.4788338286
 20
-2.3006918062
 10
-7.5109069036
 20
-2.2953912171
 10
-7.5435696165
 20
-2.2934706686
  0
LWPOLYLINE
  5
6A8
100
AcDbEntity
  8
IMPORT_IGES
100
AcDbPolyline
 62
253
  6
CONTINUOUS
 90
3
 70
0
 10
-7.334753943
 20
-3.3245226681
 10
-7.3294587855
 20
-3.3555734252
 10
-7.3276695345
 20
-3.3871965938
  0
LWPOLYLINE
  5
6A9
100
AcDbEntity
  8
IMPORT_IGES
100
AcDbPolyline
 62
253
  6
CONTINUOUS
 90
22
 70
0
 10
-8.7279522105
 20
3.8722116953
 10
-8.8890459616
 20
4.8252671521
 10
-9.0838020411
 20
5.769456359
 10
-9.3122204491
 20
6.7047793161
 10
-9.574686292
 20
7.6324318244
 10
-9.8708144633
 20
8.5512180828
 10
-10.199449644
 20
9.4575506881
 10
-10.5607195354
 20
10.3513821697
 10
-10.9544964363
 20
11.2327599982
 10
-11.379241924
 20
12.0982391822
 10
-11.8350773924
 20
12.9477574193
 10
-12.3218814476
 20
13.7813770119
 10
-12.8377514847
 20
14.5958398758
 10
-13.3828014235
 20
15.3910709091
 10
-13.9569173442
 20
16.1671452136
 10
-14.5578548834
 20
16.9210300108
 10
-15.1857058167
 20
17.6526266689
 10
-15.8403783685
 20
18.3620338197
 10
-16.5193528484
 20
19.0465145799
 10
-17.2217893596
 20
19.7051566549
 10
-17.9485277989
 20
20.3388723393
 10
-18.6995681662
 20
20.947661633
  0
LINE
  5
6AA
100
AcDbEntity
  8
IMPORT_IGES
100
AcDbLine
 62
253
  6
CONTINUOUS
 10
-7.543568422
 20
2.095988731
 11
-7.5410213436
 21
2.075028462
  0
LWPOLYLINE
  5
6AB
100
AcDbEntity
  8
IMPORT_IGES
100
AcDbPolyline
 62
253
  6
CONTINUOUS
 90
3
 70
0
 10
-7.6275245509
 20
2.8975377216
 10
-7.6068323649
 20
2.7194302428
 10
-7.596922371
 20
2.6303733158
  0
LWPOLYLINE
  5
6AC
100
AcDbEntity
  8
IMPORT_IGES
100
AcDbPolyline
 62
253
  6
CONTINUOUS
 90
10
 70
0
 10
-7.3296428442
 20
3.2229044186
 10
-7.3292278977
 20
3.2192246336
 10
-7.3288619694
 20
3.2155424167
 10
-7.3285450084
 20
3.2118583801
 10
-7.3282770429
 20
3.2081744468
 10
-7.3280578845
 20
3.2044899142
 10
-7.3278873017
 20
3.2008014426
 10
-7.3277653328
 20
3.1971083132
 10
-7.3276921126
 20
3.1934124392
 10
-7.3276676986
 20
3.1897144209
  0
LINE
  5
6AD
100
AcDbEntity
  8
IMPORT_IGES
100
AcDbLine
 62
253
  6
CONTINUOUS
 10
-7.5410213436
 20
2.075028462
 11
-7.5307042369
 21
1.9835410087
  0
LINE
  5
6AE
100
AcDbEntity
  8
IMPORT_IGES
100
AcDbLine
 62
7
  6
CONTINUOUS
 10
-17.3319218752
 20
-33.698740799
 11
-17.4319218752
 21
-33.798740799
  0
LINE
  5
6AF
100
AcDbEntity
  8
RACCORDO
100
AcDbLine
 62
253
  6
CONTINUOUS
 10
-30.4908796234
 20
13.8604987132
 11
-30.5619124198
 21
13.8604987132
  0
LWPOLYLINE
  5
6B0
100
AcDbEntity
  8
IMPORT_IGES
100
AcDbPolyline
 62
253
  6
CONTINUOUS
 90
10
 70
0
 10
-36.2200829098
 20
20.8026153058
 10
-34.3802326178
 20
20.9410310217
 10
-32.5394005255
 20
21.0448428017
 10
-30.697586633
 20
21.1140506458
 10
-28.8541365161
 20
21.14865456
 10
-27.009704599
 20
21.1486545384
 10
-25.1662541542
 20
21.1140505622
 10
-23.3244396057
 20
21.0448426254
 10
-21.4836065295
 20
20.9410307341
 10
-19.6437549255
 20
20.8026148883
  0
LINE
  5
6B1
100
AcDbEntity
  8
IMPORT_IGES
100
AcDbLine
 62
7
  6
CONTINUOUS
 10
-17.8985935565
 20
21.9696165269
 11
-17.8988766354
 21
21.9698375821
  0
LWPOLYLINE
  5
6B2
100
AcDbEntity
  8
IMPORT_IGES
100
AcDbPolyline
 62
253
  6
CONTINUOUS
 90
25
 70
0
 10
-19.0064400725
 20
20.5526712645
 10
-18.2995437632
 20
19.9804991047
 10
-17.6144468183
 20
19.3857039007
 10
-16.9511492377
 20
18.7682856524
 10
-16.3089075834
 20
18.1274498018
 10
-15.6884652934
 20
17.463990907
 10
-15.0920526824
 20
16.780292642
 10
-14.5197561322
 20
16.076281916
 10
-13.971489261
 20
15.3520318197
 10
-13.4492232389
 20
14.6101452994
 10
-12.9530517298
 20
13.8505587996
 10
-12.4828810697
 20
13.0733358758
 10
-12.0404014363
 20
12.2812701406
 10
-11.6257125938
 20
11.4743081187
 10
-11.238714778
 20
10.6525032853
 10
-10.8807988738
 20
9.8188096783
 10
-10.5520696636
 20
8.9731844829
 10
-10.252422365
 20
8.115670514
 10
-9.9829335165
 20
7.2493502538
 10
-9.7437117822
 20
6.3741920155
 10
-9.5346484979
 20
5.490227486
 10
-9.3564942099
 20
4.6006342084
 10
-9.2094991005
 20
3.7064713637
 10
-9.0934129874
 20
2.8066797709
 10
-9.0082358707
 20
1.90125943
  0
LWPOLYLINE
  5
6B3
100
AcDbEntity
  8
IMPORT_IGES
100
AcDbPolyline
 62
253
  6
CONTINUOUS
 90
22
 70
0
 10
-18.0809338186
 20
21.733777889
 10
-17.2974878823
 20
21.0985542581
 10
-16.5393388163
 20
20.4368612501
 10
-15.8064866208
 20
19.7486988651
 10
-15.0979428834
 20
19.0330123426
 10
-14.4146960164
 20
18.290856443
 10
-13.7597112565
 20
17.5253954473
 10
-13.1331862674
 20
16.7366111329
 10
-12.5349233855
 20
15.9245217224
 10
-11.9672948567
 20
15.0923461641
 10
-11.4304224686
 20
14.2400045834
 10
-10.9241844337
 20
13.3675768548
 10
-10.4505876351
 20
12.4785215502
 10
-10.0097618576
 20
11.572772577
 10
-9.6015773165
 20
10.6503960277
 10
-9.2276515409
 20
9.715048752
 10
-8.8881206415
 20
8.766678657
 10
-8.5828485077
 20
7.8053378357
 10
-8.3130443365
 20
6.8348394161
 10
-8.0791111937
 20
5.8564544408
 10
-7.8806460136
 20
4.8689118672
 10
-7.7176487962
 20
3.8722116953
  0
LINE
  5
6B4
100
AcDbEntity
  8
IMPORT_IGES
100
AcDbLine
 62
7
  6
CONTINUOUS
 10
-36.3700391333
 20
22.5951713688
 11
-36.3707047196
 21
22.5950402359
  0
LWPOLYLINE
  5
6B5
100
AcDbEntity
  8
IMPORT_IGES
100
AcDbPolyline
 62
7
  6
CONTINUOUS
 90
10
 70
0
 10
-36.3700391333
 20
22.5951713688
 10
-36.5768203857
 20
22.5704876475
 10
-36.764262297
 20
22.5353483349
 10
-36.9495070241
 20
22.4882505506
 10
-37.1313097691
 20
22.4294752997
 10
-37.3086151319
 20
22.3594131172
 10
-37.4815942106
 20
22.2779841265
 10
-37.6494698454
 20
22.1854437097
 10
-37.8107204122
 20
22.0826246389
 10
-37.964316409
 20
21.9703456938
  0
LWPOLYLINE
  5
6B6
100
AcDbEntity
  8
IMPORT_IGES
100
AcDbPolyline
 62
253
  6
CONTINUOUS
 90
10
 70
0
 10
-36.342021667
 20
22.2983984376
 10
-34.4761424147
 20
22.4388116465
 10
-32.6087472384
 20
22.5441215525
 10
-30.7398361382
 20
22.6143281556
 10
-28.8683984907
 20
22.6494314554
 10
-26.9954449193
 20
22.6494314523
 10
-25.1240072934
 20
22.6143281475
 10
-23.2550962364
 20
22.5441215414
 10
-21.3877011249
 20
22.4388116336
 10
-19.5218219591
 20
22.2983984241
  0
LINE
  5
6B7
100
AcDbEntity
  8
IMPORT_IGES
100
AcDbLine
 62
7
  6
CONTINUOUS
 10
-35.2922595865
 20
22.7301544082
 11
-35.2554190252
 21
22.7328651687
  0
LWPOLYLINE
  5
6B8
100
AcDbEntity
  8
IMPORT_IGES
100
AcDbPolyline
 62
7
  6
CONTINUOUS
 90
3
 70
0
 10
-35.2936306693
 20
22.6778672005
 10
-35.6532233245
 20
22.6532020488
 10
-36.3705215892
 20
22.5952639855
  0
LINE
  5
6B9
100
AcDbEntity
  8
IMPORT_IGES
100
AcDbLine
 62
7
  6
CONTINUOUS
 10
-20.204465373
 20
22.6527267495
 11
-20.9193227597
 21
22.7018041049
  0
LINE
  5
6BA
100
AcDbEntity
  8
IMPORT_IGES
100
AcDbLine
 62
7
  6
CONTINUOUS
 10
-20.9860054089
 20
22.7598597545
 11
-20.9154642434
 21
22.754923349
  0
LWPOLYLINE
  5
6BB
100
AcDbEntity
  8
IMPORT_IGES
100
AcDbPolyline
 62
253
  6
CONTINUOUS
 90
10
 70
0
 10
-19.6016398636
 20
21.3016441257
 10
-21.450857765
 20
21.4406772058
 10
-23.3010601375
 20
21.5449522365
 10
-25.1522469811
 20
21.6144692179
 10
-27.0050745989
 20
21.6492281503
 10
-28.8588866877
 20
21.6492290334
 10
-30.7117143386
 20
21.6144718663
 10
-32.5629012485
 20
21.5449566486
 10
-34.4131037203
 20
21.4406833807
 10
-36.2623217542
 20
21.3016520625
  0
LINE
  5
6BC
100
AcDbEntity
  8
IMPORT_IGES
100
AcDbLine
 62
7
  6
CONTINUOUS
 10
-19.4932138471
 20
22.5952548486
 11
-20.204465373
 21
22.6527267495
  0
LWPOLYLINE
  5
6BD
100
AcDbEntity
  8
IMPORT_IGES
100
AcDbPolyline
 62
253
  6
CONTINUOUS
 90
10
 70
0
 10
-19.6016398636
 20
21.3016441257
 10
-19.492506432
 20
21.2888411992
 10
-19.3852699874
 20
21.2692830482
 10
-19.2799305297
 20
21.2429696728
 10
-19.1760496272
 20
21.2097369275
 10
-19.0740657117
 20
21.1697489577
 10
-18.9752940783
 20
21.1234981998
 10
-18.8801731588
 20
21.0711487991
 10
-18.7882645214
 20
21.0125366101
 10
-18.6995681662
 20
20.947661633
  0
LWPOLYLINE
  5
6BE
100
AcDbEntity
  8
IMPORT_IGES
100
AcDbPolyline
 62
253
  6
CONTINUOUS
 90
10
 70
0
 10
-19.5218219591
 20
22.2983984241
 10
-19.3456557963
 20
22.2776478163
 10
-19.1732344756
 20
22.2462623258
 10
-19.0045579972
 20
22.2042419524
 10
-18.839263657
 20
22.151401855
 10
-18.6777141589
 20
22.0879268749
 10
-18.5209976149
 20
22.0143715358
 10
-18.3694767288
 20
21.9309206791
 10
-18.2227887967
 20
21.8373894635
 10
-18.0809338186
 20
21.733777889
  0
LWPOLYLINE
  5
6BF
100
AcDbEntity
  8
IMPORT_IGES
100
AcDbPolyline
 62
253
  6
CONTINUOUS
 90
10
 70
0
 10
-19.6437549255
 20
20.8026148883
 10
-19.566644988
 20
20.7935124736
 10
-19.4908865963
 20
20.7796553517
 10
-19.4164797505
 20
20.7610435228
 10
-19.343127453
 20
20.7375604103
 10
-19.2711267013
 20
20.7093225907
 10
-19.2013684882
 20
20.6766797934
 10
-19.1341498111
 20
20.6397485948
 10
-19.0691736725
 20
20.5984124185
 10
-19.0064400725
 20
20.5526712645
  0
LINE
  5
6C0
100
AcDbEntity
  8
IMPORT_IGES
100
AcDbLine
 62
7
  6
CONTINUOUS
 10
-19.2870257914
 20
22.5704882685
 11
-19.4940380519
 21
22.5951913443
  0
LINE
  5
6C1
100
AcDbEntity
  8
IMPORT_IGES
100
AcDbLine
 62
7
  6
CONTINUOUS
 10
-19.4932300155
 20
22.5950501085
 11
-19.4940380519
 21
22.5951913443
  0
LINE
  5
6C2
100
AcDbEntity
  8
IMPORT_IGES
100
AcDbLine
 62
7
  6
CONTINUOUS
 10
-19.0995838061
 20
22.535349048
 11
-19.2870257914
 21
22.5704882685
  0
LINE
  5
6C3
100
AcDbEntity
  8
IMPORT_IGES
100
AcDbLine
 62
7
  6
CONTINUOUS
 10
-18.9143389968
 20
22.488251354
 11
-19.0995838061
 21
22.535349048
  0
LINE
  5
6C4
100
AcDbEntity
  8
IMPORT_IGES
100
AcDbLine
 62
7
  6
CONTINUOUS
 10
-19.4922945633
 20
22.5948081444
 11
-19.4932300155
 21
22.5950501085
  0
LINE
  5
6C5
100
AcDbEntity
  8
IMPORT_IGES
100
AcDbLine
 62
7
  6
CONTINUOUS
 10
-18.7325361607
 20
22.4294761905
 11
-18.9143389968
 21
22.488251354
  0
LINE
  5
6C6
100
AcDbEntity
  8
IMPORT_IGES
100
AcDbLine
 62
7
  6
CONTINUOUS
 10
-18.5552306998
 20
22.359414092
 11
-18.7325361607
 21
22.4294761905
  0
LINE
  5
6C7
100
AcDbEntity
  8
IMPORT_IGES
100
AcDbLine
 62
7
  6
CONTINUOUS
 10
-18.3822515182
 20
22.2779851829
 11
-18.5552306998
 21
22.359414092
  0
LINE
  5
6C8
100
AcDbEntity
  8
IMPORT_IGES
100
AcDbLine
 62
7
  6
CONTINUOUS
 10
-18.2143757763
 20
22.1854448455
 11
-18.3822515182
 21
22.2779851829
  0
LINE
  5
6C9
100
AcDbEntity
  8
IMPORT_IGES
100
AcDbLine
 62
7
  6
CONTINUOUS
 10
-18.0531250981
 20
22.082625851
 11
-18.2143757763
 21
22.1854448455
  0
LINE
  5
6CA
100
AcDbEntity
  8
IMPORT_IGES
100
AcDbLine
 62
7
  6
CONTINUOUS
 10
-17.8995274062
 20
21.9703457445
 11
-18.0531250981
 21
22.082625851
  0
ARC
  5
6CB
100
AcDbEntity
  8
IMPORT_IGES
100
AcDbCircle
 62
7
  6
CONTINUOUS
 10
13.9970520646
 20
-40.298740799
 40
2.5
100
AcDbArc
 50
180.0
 51
360.0
  0
ARC
  5
6CC
100
AcDbEntity
  8
IMPORT_IGES
100
AcDbCircle
 62
7
  6
CONTINUOUS
 10
13.9970520646
 20
-39.798740799
 40
2.5
100
AcDbArc
 50
180.0
 51
360.0
  0
ARC
  5
6CD
100
AcDbEntity
  8
IMPORT_IGES
100
AcDbCircle
 62
7
  6
CONTINUOUS
 10
51.688653241
 20
1.1300629047
 40
1.0
100
AcDbArc
 50
105.0
 51
178.9999403693
  0
ARC
  5
6CE
100
AcDbEntity
  8
IMPORT_IGES
100
AcDbCircle
 62
7
  6
CONTINUOUS
 10
54.1624363535
 20
3.8634634527
 40
1.0
100
AcDbArc
 50
285.0000051824
 51
0.5
  0
ARC
  5
6CF
100
AcDbEntity
  8
IMPORT_IGES
100
AcDbCircle
 62
7
  6
CONTINUOUS
 10
6.6847068341
 20
-22.298740799
 40
1.0
100
AcDbArc
 50
181.0000000001
 51
270.0
  0
ARC
  5
6D0
100
AcDbEntity
  8
IMPORT_IGES
100
AcDbCircle
 62
7
  6
CONTINUOUS
 10
21.3093972951
 20
-22.298740799
 40
1.0
100
AcDbArc
 50
270.0
 51
292.3319393001
  0
ARC
  5
6D1
100
AcDbEntity
  8
IMPORT_IGES
100
AcDbCircle
 62
7
  6
CONTINUOUS
 10
51.688653241
 20
-1.3275445027
 40
1.0
100
AcDbArc
 50
181.0
 51
255.0000029489
  0
ARC
  5
6D2
100
AcDbEntity
  8
IMPORT_IGES
100
AcDbCircle
 62
7
  6
CONTINUOUS
 10
54.1624363535
 20
-4.0609450508
 40
1.0
100
AcDbArc
 50
359.5
 51
74.9999789301
  0
ARC
  5
6D3
100
AcDbEntity
  8
IMPORT_IGES
100
AcDbCircle
 62
7
  6
CONTINUOUS
 10
54.6985044137
 20
22.6512590367
 40
0.2999999998
100
AcDbArc
 50
0.5000304282
 51
89.8591122382
  0
ARC
  5
6D4
100
AcDbEntity
  8
IMPORT_IGES
100
AcDbCircle
 62
7
  6
CONTINUOUS
 10
54.6985044146
 20
-22.8487406347
 40
0.2999999998
100
AcDbArc
 50
270.1408831922
 51
359.4999695718
  0
ARC
  5
6D5
100
AcDbEntity
  8
IMPORT_IGES
100
AcDbCircle
 62
7
  6
CONTINUOUS
 10
-36.1188212618
 20
-19.8026319697
 40
3.0
100
AcDbArc
 50
232.0134476024
 51
265.1584176639
  0
ARC
  5
6D6
100
AcDbEntity
  8
IMPORT_IGES
100
AcDbCircle
 62
7
  6
CONTINUOUS
 10
-40.9319218752
 20
-39.798740799
 40
2.5
100
AcDbArc
 50
180.0
 51
360.0
  0
ARC
  5
6D7
100
AcDbEntity
  8
IMPORT_IGES
100
AcDbCircle
 62
7
  6
CONTINUOUS
 10
-44.8319218752
 20
-0.6271679238
 40
2.0
100
AcDbArc
 50
134.9999999998
 51
180.0
  0
ARC
  5
6D8
100
AcDbEntity
  8
IMPORT_IGES
100
AcDbCircle
 62
7
  6
CONTINUOUS
 10
-36.1188212618
 20
-19.8026319697
 40
1.4
100
AcDbArc
 50
232.0134746613
 51
265.1584176639
  0
ARC
  5
6D9
100
AcDbEntity
  8
IMPORT_IGES
100
AcDbCircle
 62
7
  6
CONTINUOUS
 10
-43.4495292681
 20
-1.098740799
 40
1.0
100
AcDbArc
 50
269.999799436
 51
359.0
  0
ARC
  5
6DA
100
AcDbEntity
  8
IMPORT_IGES
100
AcDbCircle
 62
7
  6
CONTINUOUS
 10
-47.2728202656
 20
-22.2987416184
 40
0.9999989224
100
AcDbArc
 50
181.1999939842
 51
269.9999572605
  0
ARC
  5
6DB
100
AcDbEntity
  8
IMPORT_IGES
100
AcDbCircle
 62
7
  6
CONTINUOUS
 10
-45.5819281787
 20
-1.098740799
 40
0.6
100
AcDbArc
 50
90.0000000001
 51
179.999638831
  0
ARC
  5
6DC
100
AcDbEntity
  8
IMPORT_IGES
100
AcDbCircle
 62
7
  6
CONTINUOUS
 10
-30.7296888419
 20
-11.348740799
 40
0.5
100
AcDbArc
 50
327.9740683493
 51
32.0259316466
  0
ARC
  5
6DD
100
AcDbEntity
  8
IMPORT_IGES
100
AcDbCircle
 62
253
  6
CONTINUOUS
 10
-30.7296888419
 20
-11.348740799
 40
0.2
100
AcDbArc
 50
327.9740683005
 51
32.025931603
  0
ARC
  5
6DE
100
AcDbEntity
  8
IMPORT_IGES
100
AcDbCircle
 62
7
  6
CONTINUOUS
 10
-43.3319218752
 20
-0.098740799
 40
1.2
100
AcDbArc
 50
270.0
 51
90.0
  0
ARC
  5
6DF
100
AcDbEntity
  8
IMPORT_IGES
100
AcDbCircle
 62
7
  6
CONTINUOUS
 10
-43.4495292681
 20
0.901259201
 40
1.0
100
AcDbArc
 50
0.9998662408
 51
90.0
  0
ARC
  5
6E0
100
AcDbEntity
  8
IMPORT_IGES
100
AcDbCircle
 62
7
  6
CONTINUOUS
 10
-45.5819155716
 20
0.901259201
 40
0.6
100
AcDbArc
 50
179.999638831
 51
270.0
  0
ARC
  5
6E1
100
AcDbEntity
  8
IMPORT_IGES
100
AcDbCircle
 62
7
  6
CONTINUOUS
 10
-35.1319218752
 20
-0.098740799
 40
28.0
100
AcDbArc
 50
0.2046282414
 51
52.0134837306
  0
ARC
  5
6E2
100
AcDbEntity
  8
IMPORT_IGES
100
AcDbCircle
 62
7
  6
CONTINUOUS
 10
-35.1319218752
 20
-0.098740799
 40
28.0
100
AcDbArc
 50
307.9865186022
 51
359.795371931
  0
ARC
  5
6E3
100
AcDbEntity
  8
IMPORT_IGES
100
AcDbCircle
 62
7
  6
CONTINUOUS
 10
-35.1319218752
 20
-0.098740799
 40
26.4
100
AcDbArc
 50
0.0
 51
52.0134857233
  0
ARC
  5
6E4
100
AcDbEntity
  8
IMPORT_IGES
100
AcDbCircle
 62
7
  6
CONTINUOUS
 10
-35.1319218752
 20
-0.098740799
 40
26.4
100
AcDbArc
 50
307.9865173465
 51
359.782970018
  0
ARC
  5
6E5
100
AcDbEntity
  8
IMPORT_IGES
100
AcDbCircle
 62
7
  6
CONTINUOUS
 10
-35.1319218752
 20
-0.098740799
 40
26.2
100
AcDbArc
 50
0.0
 51
4.3779835574
  0
ARC
  5
6E6
100
AcDbEntity
  8
IMPORT_IGES
100
AcDbCircle
 62
7
  6
CONTINUOUS
 10
-35.1319218752
 20
-0.098740799
 40
26.2
100
AcDbArc
 50
355.6220143969
 51
356.7179126179
  0
ARC
  5
6E7
100
AcDbEntity
  8
IMPORT_IGES
100
AcDbCircle
 62
7
  6
CONTINUOUS
 10
-28.6319218752
 20
-0.098740799
 40
2.25
100
AcDbArc
 50
316.0222355379
 51
43.6279229244
  0
ARC
  5
6E8
100
AcDbEntity
  8
IMPORT_IGES
100
AcDbCircle
 62
7
  6
CONTINUOUS
 10
-36.1187938353
 20
19.6050804379
 40
2.9999410656
100
AcDbArc
 50
94.8331889804
 51
127.9807981917
  0
ARC
  5
6E9
100
AcDbEntity
  8
IMPORT_IGES
100
AcDbCircle
 62
7
  6
CONTINUOUS
 10
-36.1188212618
 20
19.6051503717
 40
1.4
100
AcDbArc
 50
94.841616471
 51
127.9865136586
  0
ARC
  5
6EA
100
AcDbEntity
  8
IMPORT_IGES
100
AcDbCircle
 62
7
  6
CONTINUOUS
 10
-30.7296888419
 20
11.151259201
 40
0.5
100
AcDbArc
 50
327.9740683465
 51
32.025931647
  0
ARC
  5
6EB
100
AcDbEntity
  8
IMPORT_IGES
100
AcDbCircle
 62
253
  6
CONTINUOUS
 10
-30.7296888419
 20
11.151259201
 40
0.2
100
AcDbArc
 50
327.9740682901
 51
32.0259316094
  0
ARC
  5
6EC
100
AcDbEntity
  8
IMPORT_IGES
100
AcDbCircle
 62
7
  6
CONTINUOUS
 10
-27.9319218752
 20
-77.048740799
 40
100.05
100
AcDbArc
 50
86.0190696513
 51
86.0220282306
  0
ARC
  5
6ED
100
AcDbEntity
  8
IMPORT_IGES
100
AcDbCircle
 62
7
  6
CONTINUOUS
 10
-27.9319218752
 20
-77.048740799
 40
100.05
100
AcDbArc
 50
86.0240183186
 51
88.4622223418
  0
ARC
  5
6EE
100
AcDbEntity
  8
IMPORT_IGES
100
AcDbCircle
 62
7
  6
CONTINUOUS
 10
-27.9319218752
 20
-77.048740799
 40
100.05
100
AcDbArc
 50
91.5525265419
 51
94.1900377228
  0
ARC
  5
6EF
100
AcDbEntity
  8
IMPORT_IGES
100
AcDbCircle
 62
7
  6
CONTINUOUS
 10
-27.9319218752
 20
-77.048740799
 40
100.05
100
AcDbArc
 50
94.192296241
 51
94.1977120653
  0
ARC
  5
6F0
100
AcDbEntity
  8
IMPORT_IGES
100
AcDbCircle
 62
7
  6
CONTINUOUS
 10
-27.9319218752
 20
-77.048740799
 40
100.0
100
AcDbArc
 50
85.1586233329
 51
94.8413413043
  0
ARC
  5
6F1
100
AcDbEntity
  8
IMPORT_IGES
100
AcDbCircle
 62
7
  6
CONTINUOUS
 10
-27.9319218752
 20
-77.048740799
 40
98.4
100
AcDbArc
 50
85.1584171966
 51
94.8415828217
  0
ARC
  5
6F2
100
AcDbEntity
  8
IMPORT_IGES
100
AcDbCircle
 62
7
  6
CONTINUOUS
 10
-27.9319218752
 20
-40.298740799
 40
2.5
100
AcDbArc
 50
180.0
 51
360.0
  0
ARC
  5
6F3
100
AcDbEntity
  8
IMPORT_IGES
100
AcDbCircle
 62
7
  6
CONTINUOUS
 10
-27.9319218752
 20
-13.098740799
 40
3.85
100
AcDbArc
 50
179.9999999972
 51
360.0
  0
ARC
  5
6F4
100
AcDbEntity
  8
IMPORT_IGES
100
AcDbCircle
 62
7
  6
CONTINUOUS
 10
-27.9319218752
 20
-13.098740799
 40
3.75
100
AcDbArc
 50
180.0
 51
360.0
  0
ARC
  5
6F5
100
AcDbEntity
  8
IMPORT_IGES
100
AcDbCircle
 62
253
  6
CONTINUOUS
 10
-27.9319218752
 20
-13.098740799
 40
3.45
100
AcDbArc
 50
180.0091584724
 51
360.0
  0
ARC
  5
6F6
100
AcDbEntity
  8
IMPORT_IGES
100
AcDbCircle
 62
253
  6
CONTINUOUS
 10
-27.9319218752
 20
-9.598740799
 40
3.1
100
AcDbArc
 50
327.9740683535
 51
212.0259316531
  0
ARC
  5
6F7
100
AcDbEntity
  8
IMPORT_IGES
100
AcDbCircle
 62
253
  6
CONTINUOUS
 10
-27.9319218752
 20
-13.098740799
 40
3.1
100
AcDbArc
 50
147.974068353
 51
32.0259316527
  0
ARC
  5
6F8
100
AcDbEntity
  8
IMPORT_IGES
100
AcDbCircle
 62
7
  6
CONTINUOUS
 10
-19.7450224885
 20
-19.8026319697
 40
3.0
100
AcDbArc
 50
274.8415795426
 51
307.9865136586
  0
ARC
  5
6F9
100
AcDbEntity
  8
IMPORT_IGES
100
AcDbCircle
 62
7
  6
CONTINUOUS
 10
-27.9319218752
 20
-13.098740799
 40
2.8
100
AcDbArc
 50
147.97406835
 51
32.0259316507
  0
ARC
  5
6FA
100
AcDbEntity
  8
IMPORT_IGES
100
AcDbCircle
 62
7
  6
CONTINUOUS
 10
-27.9319218752
 20
-9.598740799
 40
2.8
100
AcDbArc
 50
327.9740683504
 51
212.0259316507
  0
ARC
  5
6FB
100
AcDbEntity
  8
IMPORT_IGES
100
AcDbCircle
 62
7
  6
CONTINUOUS
 10
-19.7450224885
 20
-19.8026319697
 40
1.4
100
AcDbArc
 50
274.841616471
 51
307.9865136586
  0
ARC
  5
6FC
100
AcDbEntity
  8
IMPORT_IGES
100
AcDbCircle
 62
7
  6
CONTINUOUS
 10
-25.1341549084
 20
-11.348740799
 40
0.5
100
AcDbArc
 50
147.9740683471
 51
212.0259316469
  0
ARC
  5
6FD
100
AcDbEntity
  8
IMPORT_IGES
100
AcDbCircle
 62
253
  6
CONTINUOUS
 10
-25.1341549084
 20
-11.348740799
 40
0.2
100
AcDbArc
 50
147.9740682887
 51
212.0259316094
  0
ARC
  5
6FE
100
AcDbEntity
  8
IMPORT_IGES
100
AcDbCircle
 62
7
  6
CONTINUOUS
 10
-14.9319218752
 20
-39.798740799
 40
2.5
100
AcDbArc
 50
180.0
 51
360.0
  0
ARC
  5
6FF
100
AcDbEntity
  8
IMPORT_IGES
100
AcDbCircle
 62
7
  6
CONTINUOUS
 10
-11.0319218752
 20
-0.6271679238
 40
2.0
100
AcDbArc
 50
0.0
 51
45.0000000002
  0
ARC
  5
700
100
AcDbEntity
  8
IMPORT_IGES
100
AcDbCircle
 62
7
  6
CONTINUOUS
 10
-12.4143144822
 20
-1.098740799
 40
1.0
100
AcDbArc
 50
181.0000000007
 51
270.0
  0
ARC
  5
701
100
AcDbEntity
  8
IMPORT_IGES
100
AcDbCircle
 62
7
  6
CONTINUOUS
 10
-8.5910234865
 20
-22.2987416181
 40
0.9999989238
100
AcDbArc
 50
270.0000428455
 51
358.8000147889
  0
ARC
  5
702
100
AcDbEntity
  8
IMPORT_IGES
100
AcDbCircle
 62
7
  6
CONTINUOUS
 10
-10.2819155716
 20
-1.098740799
 40
0.6
100
AcDbArc
 50
0.000361169
 51
90.0000000001
  0
ARC
  5
703
100
AcDbEntity
  8
IMPORT_IGES
100
AcDbCircle
 62
253
  6
CONTINUOUS
 10
-27.9319218752
 20
9.401259201
 40
3.1
100
AcDbArc
 50
147.9740683534
 51
32.0259316524
  0
CIRCLE
  5
704
100
AcDbEntity
  8
IMPORT_IGES
100
AcDbCircle
 62
253
  6
CONTINUOUS
 10
-27.9319218752
 20
-0.098740799
 40
3.1
  0
CIRCLE
  5
705
100
AcDbEntity
  8
IMPORT_IGES
100
AcDbCircle
 62
7
  6
CONTINUOUS
 10
-27.9319218752
 20
-0.098740799
 40
2.8
  0
ARC
  5
706
100
AcDbEntity
  8
IMPORT_IGES
100
AcDbCircle
 62
7
  6
CONTINUOUS
 10
-27.9319218752
 20
9.401259201
 40
2.8
100
AcDbArc
 50
147.9740683504
 51
32.0259316515
  0
ARC
  5
707
100
AcDbEntity
  8
IMPORT_IGES
100
AcDbCircle
 62
7
  6
CONTINUOUS
 10
-27.2319218752
 20
-0.098740799
 40
2.25
100
AcDbArc
 50
136.4287735954
 51
224.0278326728
  0
CIRCLE
  5
708
100
AcDbEntity
  8
IMPORT_IGES
100
AcDbCircle
 62
7
  6
CONTINUOUS
 10
-27.9319218752
 20
-0.098740799
 40
1.5
  0
CIRCLE
  5
709
100
AcDbEntity
  8
IMPORT_IGES
100
AcDbCircle
 62
7
  6
CONTINUOUS
 10
-27.9319218752
 20
-0.098740799
 40
1.25
  0
CIRCLE
  5
70A
100
AcDbEntity
  8
IMPORT_IGES
100
AcDbCircle
 62
253
  6
CONTINUOUS
 10
-27.9319218752
 20
-0.098740799
 40
1.05
  0
ARC
  5
70B
100
AcDbEntity
  8
IMPORT_IGES
100
AcDbCircle
 62
7
  6
CONTINUOUS
 10
-27.9319218752
 20
12.901259201
 40
3.85
100
AcDbArc
 50
0.0
 51
180.0000000107
  0
ARC
  5
70C
100
AcDbEntity
  8
IMPORT_IGES
100
AcDbCircle
 62
7
  6
CONTINUOUS
 10
-27.9319218752
 20
12.901259201
 40
3.75
100
AcDbArc
 50
0.0
 51
180.0
  0
ARC
  5
70D
100
AcDbEntity
  8
IMPORT_IGES
100
AcDbCircle
 62
253
  6
CONTINUOUS
 10
-27.9319218752
 20
12.901259201
 40
3.45
100
AcDbArc
 50
0.0091584724
 51
180.0
  0
ARC
  5
70E
100
AcDbEntity
  8
IMPORT_IGES
100
AcDbCircle
 62
253
  6
CONTINUOUS
 10
-27.9319218752
 20
12.901259201
 40
3.1
100
AcDbArc
 50
327.9740683517
 51
212.0259316527
  0
ARC
  5
70F
100
AcDbEntity
  8
IMPORT_IGES
100
AcDbCircle
 62
7
  6
CONTINUOUS
 10
-27.9319218752
 20
12.901259201
 40
2.8
100
AcDbArc
 50
327.9740683502
 51
212.0259316507
  0
ARC
  5
710
100
AcDbEntity
  8
IMPORT_IGES
100
AcDbCircle
 62
7
  6
CONTINUOUS
 10
-25.1341549084
 20
11.151259201
 40
0.5
100
AcDbArc
 50
147.9740683485
 51
212.0259316417
  0
ARC
  5
711
100
AcDbEntity
  8
IMPORT_IGES
100
AcDbCircle
 62
253
  6
CONTINUOUS
 10
-25.1341549084
 20
11.151259201
 40
0.2
100
AcDbArc
 50
147.9740683207
 51
212.025931614
  0
ARC
  5
712
100
AcDbEntity
  8
IMPORT_IGES
100
AcDbCircle
 62
7
  6
CONTINUOUS
 10
-20.7319218752
 20
-0.098740799
 40
28.0
100
AcDbArc
 50
127.9865186007
 51
179.7953719322
  0
ARC
  5
713
100
AcDbEntity
  8
IMPORT_IGES
100
AcDbCircle
 62
7
  6
CONTINUOUS
 10
-20.7319218752
 20
-0.098740799
 40
28.0
100
AcDbArc
 50
180.2046282415
 51
232.0134821908
  0
ARC
  5
714
100
AcDbEntity
  8
IMPORT_IGES
100
AcDbCircle
 62
7
  6
CONTINUOUS
 10
-20.7319218752
 20
-0.098740799
 40
26.4
100
AcDbArc
 50
127.9865173463
 51
180.0
  0
ARC
  5
715
100
AcDbEntity
  8
IMPORT_IGES
100
AcDbCircle
 62
7
  6
CONTINUOUS
 10
-20.7319218752
 20
-0.098740799
 40
26.4
100
AcDbArc
 50
180.2170299829
 51
232.013485722
  0
ARC
  5
716
100
AcDbEntity
  8
IMPORT_IGES
100
AcDbCircle
 62
7
  6
CONTINUOUS
 10
-20.7319218752
 20
-0.098740799
 40
26.2
100
AcDbArc
 50
175.6220161331
 51
180.0000000002
  0
ARC
  5
717
100
AcDbEntity
  8
IMPORT_IGES
100
AcDbCircle
 62
7
  6
CONTINUOUS
 10
-20.7319218752
 20
-0.098740799
 40
26.2
100
AcDbArc
 50
183.2820873821
 51
184.3779842496
  0
ARC
  5
718
100
AcDbEntity
  8
IMPORT_IGES
100
AcDbCircle
 62
7
  6
CONTINUOUS
 10
-19.7450496466
 20
19.6050811224
 40
2.9999419086
100
AcDbArc
 50
52.0199596678
 51
85.1656351721
  0
ARC
  5
719
100
AcDbEntity
  8
IMPORT_IGES
100
AcDbCircle
 62
7
  6
CONTINUOUS
 10
-19.7450224885
 20
19.6051503717
 40
1.4
100
AcDbArc
 50
52.0134746854
 51
85.1584176639
  0
ARC
  5
71A
100
AcDbEntity
  8
IMPORT_IGES
100
AcDbCircle
 62
7
  6
CONTINUOUS
 10
-27.9319218752
 20
76.851259201
 40
100.0
100
AcDbArc
 50
265.1584174641
 51
274.8415822523
  0
ARC
  5
71B
100
AcDbEntity
  8
IMPORT_IGES
100
AcDbCircle
 62
7
  6
CONTINUOUS
 10
-27.9319218752
 20
76.851259201
 40
98.4
100
AcDbArc
 50
265.1584171966
 51
274.8415828217
  0
ARC
  5
71C
100
AcDbEntity
  8
IMPORT_IGES
100
AcDbCircle
 62
7
  6
CONTINUOUS
 10
-12.5319218752
 20
-0.098740799
 40
1.2
100
AcDbArc
 50
90.0
 51
270.0
  0
ARC
  5
71D
100
AcDbEntity
  8
IMPORT_IGES
100
AcDbCircle
 62
7
  6
CONTINUOUS
 10
-12.4143144822
 20
0.901259201
 40
1.0
100
AcDbArc
 50
89.9997569188
 51
179.0
  0
ARC
  5
71E
100
AcDbEntity
  8
IMPORT_IGES
100
AcDbCircle
 62
7
  6
CONTINUOUS
 10
-10.2819281788
 20
0.901259201
 40
0.6
100
AcDbArc
 50
270.0000000001
 51
0.000361169
  0
ELLIPSE
  5
71F
100
AcDbEntity
  8
IMPORT_IGES
100
AcDbEllipse
 62
7
  6
CONTINUOUS
 10
34.7980540093
 20
-77.048740799
 30
0.0
 11
0.0
 21
100.05
 31
0.0
 40
0.895331312
 41
6.3129300965
 42
6.3130747754
  0
ELLIPSE
  5
720
100
AcDbEntity
  8
IMPORT_IGES
100
AcDbEllipse
 62
7
  6
CONTINUOUS
 10
37.5644594327
 20
-77.048740799
 30
0.0
 11
185.396819791
 21
-0.0
 31
0.0
 40
0.5396532697
 41
1.5988640359
 42
1.5991098766
  0
ELLIPSE
  5
721
100
AcDbEntity
  8
IMPORT_IGES
100
AcDbEllipse
 62
7
  6
CONTINUOUS
 10
38.5897854071
 20
-77.048740799
 30
0.0
 11
221.9733920622
 21
0.0
 31
0.0
 40
0.4507296981
 41
7.881778879
 42
7.882017621
  0
ELLIPSE
  5
722
100
AcDbEntity
  8
IMPORT_IGES
100
AcDbEllipse
 62
7
  6
CONTINUOUS
 10
40.0994533303
 20
-77.048740799
 30
0.0
 11
276.2903704044
 21
0.0
 31
0.0
 40
0.3621190266
 41
7.8816185961
 42
7.881778879
  0
ELLIPSE
  5
723
100
AcDbEntity
  8
IMPORT_IGES
100
AcDbEllipse
 62
7
  6
CONTINUOUS
 10
42.2323031094
 20
-77.048740799
 30
0.0
 11
353.5779556601
 21
-0.0
 31
0.0
 40
0.2829644733
 41
7.8814227757
 42
7.881581417
  0
ELLIPSE
  5
724
100
AcDbEntity
  8
IMPORT_IGES
100
AcDbEllipse
 62
7
  6
CONTINUOUS
 10
39.8921355855
 20
-77.048740799
 30
0.0
 11
0.0
 21
100.05
 31
0.0
 40
0.1418103145
 41
-0.0280316437
 42
-0.02761074
  0
ELLIPSE
  5
725
100
AcDbEntity
  8
IMPORT_IGES
100
AcDbEllipse
 62
7
  6
CONTINUOUS
 10
39.823182768
 20
-77.048740799
 30
0.0
 11
-0.0
 21
100.05
 31
0.0
 40
0.1663994487
 41
-0.0284436938
 42
-0.0280316437
  0
ELLIPSE
  5
726
100
AcDbEntity
  8
IMPORT_IGES
100
AcDbEllipse
 62
7
  6
CONTINUOUS
 10
46.4451077464
 20
-77.048740799
 30
0.0
 11
0.0
 21
100.05
 31
0.0
 40
0.4954024147
 41
0.0268392833
 42
0.031601976
  0
ELLIPSE
  5
727
100
AcDbEntity
  8
IMPORT_IGES
100
AcDbEllipse
 62
7
  6
CONTINUOUS
 10
42.038707153
 20
-77.048740799
 30
0.0
 11
-0.0
 21
100.05
 31
0.0
 40
0.5079915713
 41
-0.0316020186
 42
-0.0268392833
  0
ELLIPSE
  5
728
100
AcDbEntity
  8
IMPORT_IGES
100
AcDbEllipse
 62
7
  6
CONTINUOUS
 10
47.6039069678
 20
-77.048740799
 30
0.0
 11
0.0
 21
100.05
 31
0.0
 40
0.2680330961
 41
0.0268392833
 42
0.027076994
  0
ELLIPSE
  5
729
100
AcDbEntity
  8
IMPORT_IGES
100
AcDbEllipse
 62
7
  6
CONTINUOUS
 10
46.5906755517
 20
-77.048740799
 30
0.0
 11
0.0
 21
100.05
 31
0.0
 40
0.2677800594
 41
-0.0270770221
 42
-0.0268392833
  0
ELLIPSE
  5
72A
100
AcDbEntity
  8
IMPORT_IGES
100
AcDbEllipse
 62
7
  6
CONTINUOUS
 10
47.5227294421
 20
-77.048740799
 30
0.0
 11
0.0
 21
100.05
 31
0.0
 40
0.3214400713
 41
0.0270966999
 42
0.073129954
  0
ELLIPSE
  5
72B
100
AcDbEntity
  8
IMPORT_IGES
100
AcDbEllipse
 62
7
  6
CONTINUOUS
 10
46.6381354118
 20
-77.048740799
 30
0.0
 11
-0.0
 21
100.05
 31
0.0
 40
0.3170195322
 41
-0.073129954
 42
-0.0270966999
  0
ELLIPSE
  5
72C
100
AcDbEntity
  8
IMPORT_IGES
100
AcDbEllipse
 62
7
  6
CONTINUOUS
 10
42.6082543236
 20
-77.048740799
 30
0.0
 11
0.0
 21
100.05
 31
0.0
 40
0.0689850357
 41
0.0270966999
 42
0.0571429381
  0
ELLIPSE
  5
72D
100
AcDbEntity
  8
IMPORT_IGES
100
AcDbEllipse
 62
7
  6
CONTINUOUS
 10
41.9877435367
 20
-77.048740799
 30
0.0
 11
0.0
 21
100.05
 31
0.0
 40
0.3816800504
 41
0.0270966999
 42
0.0570175965
  0
ELLIPSE
  5
72E
100
AcDbEntity
  8
IMPORT_IGES
100
AcDbEllipse
 62
7
  6
CONTINUOUS
 10
40.0712339744
 20
-77.048740799
 30
0.0
 11
-0.0
 21
100.05
 31
0.0
 40
0.3750126109
 41
-0.0571429381
 42
-0.0270966999
  0
ELLIPSE
  5
72F
100
AcDbEntity
  8
IMPORT_IGES
100
AcDbEllipse
 62
7
  6
CONTINUOUS
 10
39.4355585483
 20
-77.048740799
 30
0.0
 11
0.0
 21
100.05
 31
0.0
 40
0.0659523269
 41
-0.0570175965
 42
-0.0270966999
  0
ELLIPSE
  5
730
100
AcDbEntity
  8
IMPORT_IGES
100
AcDbEllipse
 62
7
  6
CONTINUOUS
 10
35.0725946273
 20
-77.048740799
 30
0.0
 11
0.0
 21
100.05
 31
0.0
 40
0.2584617818
 41
6.2227154472
 42
6.2397992526
  0
ELLIPSE
  5
731
100
AcDbEntity
  8
IMPORT_IGES
100
AcDbEllipse
 62
7
  6
CONTINUOUS
 10
38.3286847158
 20
-77.048740799
 30
0.0
 11
-0.0
 21
100.05
 31
0.0
 40
0.2800622177
 41
0.0433860546
 42
0.06046986
  0
ELLIPSE
  5
732
100
AcDbEntity
  8
IMPORT_IGES
100
AcDbEllipse
 62
7
  6
CONTINUOUS
 10
38.356783483
 20
-77.048740799
 30
0.0
 11
-0.0
 21
100.05
 31
0.0
 40
0.2885208302
 41
0.0270966999
 42
0.036278863
  0
ELLIPSE
  5
733
100
AcDbEntity
  8
IMPORT_IGES
100
AcDbEllipse
 62
7
  6
CONTINUOUS
 10
35.0193488876
 20
-77.048740799
 30
0.0
 11
0.0
 21
100.05
 31
0.0
 40
0.2708658467
 41
-0.036278863
 42
-0.0270966999
  0
ELLIPSE
  5
734
100
AcDbEntity
  8
IMPORT_IGES
100
AcDbEllipse
 62
7
  6
CONTINUOUS
 10
39.832786704
 20
-77.048740799
 30
0.0
 11
161.004392846
 21
0.0
 31
0.0
 40
0.6214116164
 41
1.6199495345
 42
1.6201283468
  0
ELLIPSE
  5
735
100
AcDbEntity
  8
IMPORT_IGES
100
AcDbEllipse
 62
7
  6
CONTINUOUS
 10
31.2524522586
 20
-77.048740799
 30
0.0
 11
0.0
 21
100.05
 31
0.0
 40
0.2880665702
 41
-0.0287895394
 42
-0.0270966537
  0
ELLIPSE
  5
736
100
AcDbEntity
  8
IMPORT_IGES
100
AcDbEllipse
 62
7
  6
CONTINUOUS
 10
31.245615303
 20
-77.048740799
 30
0.0
 11
-0.0
 21
100.05
 31
0.0
 40
0.2904405168
 41
-0.0304461968
 42
-0.0287895394
  0
ELLIPSE
  5
737
100
AcDbEntity
  8
IMPORT_IGES
100
AcDbEllipse
 62
7
  6
CONTINUOUS
 10
31.2380618268
 20
-77.048740799
 30
0.0
 11
0.0
 21
100.05
 31
0.0
 40
0.2929205861
 41
-0.0320666691
 42
-0.0304461968
  0
ELLIPSE
  5
738
100
AcDbEntity
  8
IMPORT_IGES
100
AcDbEllipse
 62
7
  6
CONTINUOUS
 10
31.2326590823
 20
-77.048740799
 30
0.0
 11
-0.0
 21
100.05
 31
0.0
 40
0.2946048802
 41
-0.0336503886
 42
-0.0320666691
  0
ELLIPSE
  5
739
100
AcDbEntity
  8
IMPORT_IGES
100
AcDbEllipse
 62
7
  6
CONTINUOUS
 10
31.2235899575
 20
-77.048740799
 30
0.0
 11
0.0
 21
100.05
 31
0.0
 40
0.2972991443
 41
-0.0351979229
 42
-0.0336503886
  0
ELLIPSE
  5
73A
100
AcDbEntity
  8
IMPORT_IGES
100
AcDbEllipse
 62
7
  6
CONTINUOUS
 10
31.2036163682
 20
-77.048740799
 30
0.0
 11
-0.0
 21
100.05
 31
0.0
 40
0.3029721297
 41
-0.036710975
 42
-0.0351979229
  0
ELLIPSE
  5
73B
100
AcDbEntity
  8
IMPORT_IGES
100
AcDbEllipse
 62
7
  6
CONTINUOUS
 10
31.1782560667
 20
-77.048740799
 30
0.0
 11
-0.0
 21
100.05
 31
0.0
 40
0.3098783266
 41
-0.0381901125
 42
-0.036710975
  0
ELLIPSE
  5
73C
100
AcDbEntity
  8
IMPORT_IGES
100
AcDbEllipse
 62
7
  6
CONTINUOUS
 10
31.1544107433
 20
-77.048740799
 30
0.0
 11
0.0
 21
100.05
 31
0.0
 40
0.3161205709
 41
-0.0396347678
 42
-0.0381901125
  0
ELLIPSE
  5
73D
100
AcDbEntity
  8
IMPORT_IGES
100
AcDbEllipse
 62
7
  6
CONTINUOUS
 10
31.1284532149
 20
-77.048740799
 30
0.0
 11
-0.0
 21
100.05
 31
0.0
 40
0.3226681935
 41
-0.0410449409
 42
-0.0396347678
  0
ELLIPSE
  5
73E
100
AcDbEntity
  8
IMPORT_IGES
100
AcDbEllipse
 62
7
  6
CONTINUOUS
 10
30.4004567028
 20
-77.048740799
 30
0.0
 11
-0.0
 21
100.0
 31
0.0
 40
0.2617729752
 41
-0.035333622
 42
-0.0339416313
  0
ELLIPSE
  5
73F
100
AcDbEntity
  8
IMPORT_IGES
100
AcDbEllipse
 62
7
  6
CONTINUOUS
 10
30.3426149536
 20
-77.048740799
 30
0.0
 11
-0.0
 21
100.0
 31
0.0
 40
0.276806086
 41
-0.0406182834
 42
-0.0400977227
  0
ELLIPSE
  5
740
100
AcDbEntity
  8
IMPORT_IGES
100
AcDbEllipse
 62
7
  6
CONTINUOUS
 10
30.3022832595
 20
-77.048740799
 30
0.0
 11
0.0
 21
100.0
 31
0.0
 40
0.2867382601
 41
-0.041121797
 42
-0.0406182834
  0
ELLIPSE
  5
741
100
AcDbEntity
  8
IMPORT_IGES
100
AcDbEllipse
 62
7
  6
CONTINUOUS
 10
30.2685245739
 20
-77.048740799
 30
0.0
 11
-0.0
 21
100.0
 31
0.0
 40
0.2949500126
 41
-0.0416073845
 42
-0.041121797
  0
ELLIPSE
  5
742
100
AcDbEntity
  8
IMPORT_IGES
100
AcDbEllipse
 62
7
  6
CONTINUOUS
 10
30.2214579713
 20
-77.048740799
 30
0.0
 11
0.0
 21
100.0
 31
0.0
 40
0.3062653563
 41
-0.0420762117
 42
-0.0416073845
  0
ELLIPSE
  5
743
100
AcDbEntity
  8
IMPORT_IGES
100
AcDbEllipse
 62
7
  6
CONTINUOUS
 10
30.1386713479
 20
-77.048740799
 30
0.0
 11
-0.0
 21
100.0
 31
0.0
 40
0.3259465616
 41
-0.0425317758
 42
-0.0420762117
  0
ELLIPSE
  5
744
100
AcDbEntity
  8
IMPORT_IGES
100
AcDbEllipse
 62
7
  6
CONTINUOUS
 10
30.0475969731
 20
-77.048740799
 30
0.0
 11
-0.0
 21
100.0
 31
0.0
 40
0.3473662736
 41
-0.0427381924
 42
-0.0425317758
  0
ELLIPSE
  5
745
100
AcDbEntity
  8
IMPORT_IGES
100
AcDbEllipse
 62
7
  6
CONTINUOUS
 10
30.2728586223
 20
-77.048740799
 30
0.0
 11
0.0
 21
100.0
 31
0.0
 40
0.1735518285
 41
-0.0631078172
 42
-0.0624585997
  0
ELLIPSE
  5
746
100
AcDbEntity
  8
IMPORT_IGES
100
AcDbEllipse
 62
7
  6
CONTINUOUS
 10
29.9541609274
 20
-77.048740799
 30
0.0
 11
0.0
 21
100.0
 31
0.0
 40
0.2240858746
 41
-0.0637832407
 42
-0.0631078172
  0
ELLIPSE
  5
747
100
AcDbEntity
  8
IMPORT_IGES
100
AcDbEllipse
 62
7
  6
CONTINUOUS
 10
29.6489047697
 20
-77.048740799
 30
0.0
 11
-0.0
 21
100.0
 31
0.0
 40
0.2719767048
 41
-0.0644797983
 42
-0.0637832407
  0
ELLIPSE
  5
748
100
AcDbEntity
  8
IMPORT_IGES
100
AcDbEllipse
 62
7
  6
CONTINUOUS
 10
29.2049678671
 20
-77.048740799
 30
0.0
 11
-0.0
 21
100.0
 31
0.0
 40
0.3408734268
 41
-0.0651817642
 42
-0.0644797983
  0
ELLIPSE
  5
749
100
AcDbEntity
  8
IMPORT_IGES
100
AcDbEllipse
 62
7
  6
CONTINUOUS
 10
28.7412707627
 20
-77.048740799
 30
0.0
 11
0.0
 21
100.0
 31
0.0
 40
0.4120629108
 41
-0.0658914234
 42
-0.0651817642
  0
ELLIPSE
  5
74A
100
AcDbEntity
  8
IMPORT_IGES
100
AcDbEllipse
 62
7
  6
CONTINUOUS
 10
28.3028263901
 20
-77.048740799
 30
0.0
 11
0.0
 21
100.0
 31
0.0
 40
0.478651516
 41
-0.0666064909
 42
-0.0658914234
  0
ELLIPSE
  5
74B
100
AcDbEntity
  8
IMPORT_IGES
100
AcDbEllipse
 62
7
  6
CONTINUOUS
 10
27.7316350291
 20
-77.048740799
 30
0.0
 11
-0.0
 21
100.0
 31
0.0
 40
0.5644710679
 41
-0.0673043869
 42
-0.0666064909
  0
ELLIPSE
  5
74C
100
AcDbEntity
  8
IMPORT_IGES
100
AcDbEllipse
 62
7
  6
CONTINUOUS
 10
45.8882641963
 20
-77.048740799
 30
0.0
 11
0.0
 21
100.05
 31
0.0
 40
0.27692781
 41
-0.073129954
 42
-0.0414330939
  0
ELLIPSE
  5
74D
100
AcDbEntity
  8
IMPORT_IGES
100
AcDbEllipse
 62
7
  6
CONTINUOUS
 10
27.0910150218
 20
-77.048740799
 30
0.0
 11
-0.0
 21
100.0
 31
0.0
 40
0.6597254708
 41
-0.0679826389
 42
-0.0673043869
  0
ELLIPSE
  5
74E
100
AcDbEntity
  8
IMPORT_IGES
100
AcDbEllipse
 62
7
  6
CONTINUOUS
 10
26.4435318144
 20
-77.048740799
 30
0.0
 11
-0.0
 21
100.0
 31
0.0
 40
0.7550413082
 41
-0.0686437193
 42
-0.0679826389
  0
ELLIPSE
  5
74F
100
AcDbEntity
  8
IMPORT_IGES
100
AcDbEllipse
 62
7
  6
CONTINUOUS
 10
48.2186087407
 20
-77.048740799
 30
0.0
 11
-0.0
 21
100.05
 31
0.0
 40
0.2853875488
 41
0.0414330939
 42
0.073129954
  0
ELLIPSE
  5
750
100
AcDbEntity
  8
IMPORT_IGES
100
AcDbEllipse
 62
7
  6
CONTINUOUS
 10
45.8882641963
 20
-77.048740799
 30
0.0
 11
-0.0
 21
100.0
 31
0.0
 40
0.27692781
 41
-0.0731665844
 42
-0.0414538223
  0
ELLIPSE
  5
751
100
AcDbEntity
  8
IMPORT_IGES
100
AcDbEllipse
 62
7
  6
CONTINUOUS
 10
38.4216379371
 20
-77.048740799
 30
0.0
 11
0.0
 21
100.05
 31
0.0
 40
0.0935111869
 41
-0.073129954
 42
-0.0270966999
  0
ELLIPSE
  5
752
100
AcDbEntity
  8
IMPORT_IGES
100
AcDbEllipse
 62
7
  6
CONTINUOUS
 10
39.2457965448
 20
-77.048740799
 30
0.0
 11
0.0
 21
100.05
 31
0.0
 40
0.3719981375
 41
-0.073129954
 42
-0.047559247
  0
ELLIPSE
  5
753
100
AcDbEntity
  8
IMPORT_IGES
100
AcDbEllipse
 62
7
  6
CONTINUOUS
 10
43.5845051253
 20
-77.048740799
 30
0.0
 11
-0.0
 21
100.05
 31
0.0
 40
0.0902942728
 41
0.0270966999
 42
0.073129954
  0
ELLIPSE
  5
754
100
AcDbEntity
  8
IMPORT_IGES
100
AcDbEllipse
 62
7
  6
CONTINUOUS
 10
38.4216379371
 20
-77.048740799
 30
0.0
 11
0.0
 21
100.0
 31
0.0
 40
0.0935111869
 41
-0.0731665844
 42
-0.0271102516
  0
ELLIPSE
  5
755
100
AcDbEntity
  8
IMPORT_IGES
100
AcDbEllipse
 62
7
  6
CONTINUOUS
 10
42.8035088681
 20
-77.048740799
 30
0.0
 11
0.0
 21
100.05
 31
0.0
 40
0.3759689664
 41
0.047559247
 42
0.073129954
  0
ELLIPSE
  5
756
100
AcDbEntity
  8
IMPORT_IGES
100
AcDbEllipse
 62
7
  6
CONTINUOUS
 10
39.2457965448
 20
-77.048740799
 30
0.0
 11
0.0
 21
100.0
 31
0.0
 40
0.3719981375
 41
-0.0731665844
 42
-0.0475830446
  0
ELLIPSE
  5
757
100
AcDbEntity
  8
IMPORT_IGES
100
AcDbEllipse
 62
7
  6
CONTINUOUS
 10
33.9099877624
 20
-77.048740799
 30
0.0
 11
0.0
 21
100.05
 31
0.0
 40
0.3068245932
 41
-0.073129954
 42
-0.0270966999
  0
ELLIPSE
  5
758
100
AcDbEntity
  8
IMPORT_IGES
100
AcDbEllipse
 62
7
  6
CONTINUOUS
 10
33.9099877624
 20
-77.048740799
 30
0.0
 11
0.0
 21
100.0
 31
0.0
 40
0.3068245932
 41
-0.0731665844
 42
-0.0271102516
  0
ELLIPSE
  5
759
100
AcDbEntity
  8
IMPORT_IGES
100
AcDbEllipse
 62
7
  6
CONTINUOUS
 10
39.3746050541
 20
-77.048740799
 30
0.0
 11
-0.0
 21
100.05
 31
0.0
 40
0.3136636881
 41
0.0270966999
 42
0.073129954
  0
ELLIPSE
  5
75A
100
AcDbEntity
  8
IMPORT_IGES
100
AcDbEllipse
 62
7
  6
CONTINUOUS
 10
30.3799454668
 20
-77.048740799
 30
0.0
 11
-0.0
 21
100.05
 31
0.0
 40
0.2674937737
 41
-0.0400778161
 42
-0.0364265971
  0
ELLIPSE
  5
75B
100
AcDbEntity
  8
IMPORT_IGES
100
AcDbEllipse
 62
7
  6
CONTINUOUS
 10
26.4435318144
 20
-77.048740799
 30
0.0
 11
0.0
 21
100.05
 31
0.0
 40
0.7550413082
 41
-0.0686093607
 42
-0.0679486121
  0
ELLIPSE
  5
75C
100
AcDbEntity
  8
IMPORT_IGES
100
AcDbEllipse
 62
7
  6
CONTINUOUS
 10
27.0910150218
 20
-77.048740799
 30
0.0
 11
-0.0
 21
100.05
 31
0.0
 40
0.6597254708
 41
-0.0679486121
 42
-0.0672707007
  0
ELLIPSE
  5
75D
100
AcDbEntity
  8
IMPORT_IGES
100
AcDbEllipse
 62
7
  6
CONTINUOUS
 10
27.7316350291
 20
-77.048740799
 30
0.0
 11
-0.0
 21
100.05
 31
0.0
 40
0.5644710679
 41
-0.0672707007
 42
-0.066573155
  0
ELLIPSE
  5
75E
100
AcDbEntity
  8
IMPORT_IGES
100
AcDbEllipse
 62
7
  6
CONTINUOUS
 10
28.3028263901
 20
-77.048740799
 30
0.0
 11
0.0
 21
100.05
 31
0.0
 40
0.478651516
 41
-0.066573155
 42
-0.0658584464
  0
ELLIPSE
  5
75F
100
AcDbEntity
  8
IMPORT_IGES
100
AcDbEllipse
 62
7
  6
CONTINUOUS
 10
28.7412707627
 20
-77.048740799
 30
0.0
 11
-0.0
 21
100.05
 31
0.0
 40
0.4120629108
 41
-0.0658584464
 42
-0.0651491435
  0
ELLIPSE
  5
760
100
AcDbEntity
  8
IMPORT_IGES
100
AcDbEllipse
 62
7
  6
CONTINUOUS
 10
29.2049678671
 20
-77.048740799
 30
0.0
 11
0.0
 21
100.05
 31
0.0
 40
0.3408734268
 41
-0.0651491435
 42
-0.0644475298
  0
ELLIPSE
  5
761
100
AcDbEntity
  8
IMPORT_IGES
100
AcDbEllipse
 62
7
  6
CONTINUOUS
 10
29.6489047697
 20
-77.048740799
 30
0.0
 11
0.0
 21
100.05
 31
0.0
 40
0.2719767048
 41
-0.0644475298
 42
-0.0637513218
  0
ELLIPSE
  5
762
100
AcDbEntity
  8
IMPORT_IGES
100
AcDbEllipse
 62
7
  6
CONTINUOUS
 10
29.9541609274
 20
-77.048740799
 30
0.0
 11
0.0
 21
100.05
 31
0.0
 40
0.2240858746
 41
-0.0637513218
 42
-0.0630762372
  0
ELLIPSE
  5
763
100
AcDbEntity
  8
IMPORT_IGES
100
AcDbEllipse
 62
7
  6
CONTINUOUS
 10
30.2728586223
 20
-77.048740799
 30
0.0
 11
0.0
 21
100.05
 31
0.0
 40
0.1735518285
 41
-0.0630762372
 42
-0.0624273453
  0
ELLIPSE
  5
764
100
AcDbEntity
  8
IMPORT_IGES
100
AcDbEllipse
 62
7
  6
CONTINUOUS
 10
39.3746050541
 20
-77.048740799
 30
0.0
 11
-0.0
 21
100.0
 31
0.0
 40
0.3136636881
 41
0.0271102516
 42
0.0731665844
  0
ELLIPSE
  5
765
100
AcDbEntity
  8
IMPORT_IGES
100
AcDbEllipse
 62
7
  6
CONTINUOUS
 10
43.5845051253
 20
-77.048740799
 30
0.0
 11
0.0
 21
100.0
 31
0.0
 40
0.0902942728
 41
0.0271102516
 42
0.0731665844
  0
ELLIPSE
  5
766
100
AcDbEntity
  8
IMPORT_IGES
100
AcDbEllipse
 62
7
  6
CONTINUOUS
 10
42.8035088681
 20
-77.048740799
 30
0.0
 11
-0.0
 21
100.0
 31
0.0
 40
0.3759689664
 41
0.0475830446
 42
0.0731665844
  0
ELLIPSE
  5
767
100
AcDbEntity
  8
IMPORT_IGES
100
AcDbEllipse
 62
7
  6
CONTINUOUS
 10
48.2186087407
 20
-77.048740799
 30
0.0
 11
0.0
 21
100.0
 31
0.0
 40
0.2853875488
 41
0.0414538223
 42
0.0731665844
  0
ELLIPSE
  5
768
100
AcDbEntity
  8
IMPORT_IGES
100
AcDbEllipse
 62
7
  6
CONTINUOUS
 10
21.3060871578
 20
-77.048740799
 30
0.0
 11
220.0786733698
 21
-0.0
 31
0.0
 40
0.4546101559
 41
7.8054101126
 42
7.8055915736
  0
ELLIPSE
  5
769
100
AcDbEntity
  8
IMPORT_IGES
100
AcDbEllipse
 62
7
  6
CONTINUOUS
 10
22.9728716317
 20
-77.048740799
 30
0.0
 11
185.6204576245
 21
0.0
 31
0.0
 40
0.5390030888
 41
7.8055915736
 42
7.8057976155
  0
ELLIPSE
  5
76A
100
AcDbEntity
  8
IMPORT_IGES
100
AcDbEllipse
 62
7
  6
CONTINUOUS
 10
24.2787688044
 20
-77.048740799
 30
0.0
 11
158.5076789792
 21
-0.0
 31
0.0
 40
0.6311997037
 41
7.8057976155
 42
7.8060282385
  0
ELLIPSE
  5
76B
100
AcDbEntity
  8
IMPORT_IGES
100
AcDbEllipse
 62
7
  6
CONTINUOUS
 10
25.3695790713
 20
-77.048740799
 30
0.0
 11
135.7516587361
 21
-0.0
 31
0.0
 40
0.7370075691
 41
7.8060282385
 42
7.8062855403
  0
ELLIPSE
  5
76C
100
AcDbEntity
  8
IMPORT_IGES
100
AcDbEllipse
 62
7
  6
CONTINUOUS
 10
26.2198539732
 20
-77.048740799
 30
0.0
 11
117.9179682558
 21
-0.0
 31
0.0
 40
0.8484711998
 41
7.8062855403
 42
7.8065674231
  0
ELLIPSE
  5
76D
100
AcDbEntity
  8
IMPORT_IGES
100
AcDbEllipse
 62
7
  6
CONTINUOUS
 10
26.8573991462
 20
-77.048740799
 30
0.0
 11
104.4666399973
 21
0.0
 31
0.0
 40
0.9577220058
 41
7.8065674231
 42
7.806867594
  0
ELLIPSE
  5
76E
100
AcDbEntity
  8
IMPORT_IGES
100
AcDbEllipse
 62
7
  6
CONTINUOUS
 10
27.4338219296
 20
-77.048740799
 30
0.0
 11
-0.0
 21
100.05
 31
0.0
 40
0.9218139322
 41
6.2360712672
 42
6.2363896313
  0
ELLIPSE
  5
76F
100
AcDbEntity
  8
IMPORT_IGES
100
AcDbEllipse
 62
7
  6
CONTINUOUS
 10
27.9295768058
 20
-77.048740799
 30
0.0
 11
0.0
 21
100.05
 31
0.0
 40
0.8158879024
 41
6.2363896313
 42
6.2367262835
  0
ELLIPSE
  5
770
100
AcDbEntity
  8
IMPORT_IGES
100
AcDbEllipse
 62
7
  6
CONTINUOUS
 10
28.2929882977
 20
-77.048740799
 30
0.0
 11
0.0
 21
100.05
 31
0.0
 40
0.7376769222
 41
6.2367262835
 42
6.2370752145
  0
ELLIPSE
  5
771
100
AcDbEntity
  8
IMPORT_IGES
100
AcDbEllipse
 62
7
  6
CONTINUOUS
 10
28.6341407684
 20
-77.048740799
 30
0.0
 11
0.0
 21
100.05
 31
0.0
 40
0.6637011787
 41
6.2370752145
 42
6.2374355249
  0
ELLIPSE
  5
772
100
AcDbEntity
  8
IMPORT_IGES
100
AcDbEllipse
 62
7
  6
CONTINUOUS
 10
28.9463248458
 20
-77.048740799
 30
0.0
 11
-0.0
 21
100.05
 31
0.0
 40
0.595474201
 41
6.2374355249
 42
6.2378081141
  0
ELLIPSE
  5
773
100
AcDbEntity
  8
IMPORT_IGES
100
AcDbEllipse
 62
7
  6
CONTINUOUS
 10
29.1618139576
 20
-77.048740799
 30
0.0
 11
-0.0
 21
100.05
 31
0.0
 40
0.5479932224
 41
6.2378081141
 42
6.2381896709
  0
ELLIPSE
  5
774
100
AcDbEntity
  8
IMPORT_IGES
100
AcDbEllipse
 62
7
  6
CONTINUOUS
 10
29.3556274255
 20
-77.048740799
 30
0.0
 11
0.0
 21
100.05
 31
0.0
 40
0.5049263813
 41
6.2381896709
 42
6.2385785697
  0
ELLIPSE
  5
775
100
AcDbEntity
  8
IMPORT_IGES
100
AcDbEllipse
 62
7
  6
CONTINUOUS
 10
29.54966247
 20
-77.048740799
 30
0.0
 11
-0.0
 21
100.05
 31
0.0
 40
0.4614346542
 41
6.2385785697
 42
6.2389764361
  0
ELLIPSE
  5
776
100
AcDbEntity
  8
IMPORT_IGES
100
AcDbEllipse
 62
7
  6
CONTINUOUS
 10
29.6936080993
 20
-77.048740799
 30
0.0
 11
-0.0
 21
100.05
 31
0.0
 40
0.4288799734
 41
6.2389764361
 42
6.2393848358
  0
ELLIPSE
  5
777
100
AcDbEntity
  8
IMPORT_IGES
100
AcDbEllipse
 62
7
  6
CONTINUOUS
 10
30.0475969731
 20
-77.048740799
 30
0.0
 11
-0.0
 21
100.05
 31
0.0
 40
0.3473662736
 41
6.2402324628
 42
6.2406747995
  0
ELLIPSE
  5
778
100
AcDbEntity
  8
IMPORT_IGES
100
AcDbEllipse
 62
7
  6
CONTINUOUS
 10
30.3898476621
 20
-77.048740799
 30
0.0
 11
0.0
 21
100.05
 31
0.0
 40
0.2647761343
 41
-0.0364265971
 42
-0.0353159566
  0
ELLIPSE
  5
779
100
AcDbEntity
  8
IMPORT_IGES
100
AcDbEllipse
 62
7
  6
CONTINUOUS
 10
30.4004567028
 20
-77.048740799
 30
0.0
 11
-0.0
 21
100.05
 31
0.0
 40
0.2617729752
 41
-0.0353159566
 42
-0.0339246625
  0
ELLIPSE
  5
77A
100
AcDbEntity
  8
IMPORT_IGES
100
AcDbEllipse
 62
7
  6
CONTINUOUS
 10
30.4074364226
 20
-77.048740799
 30
0.0
 11
-0.0
 21
100.05
 31
0.0
 40
0.2597161913
 41
-0.0339246625
 42
-0.0316056378
  0
ELLIPSE
  5
77B
100
AcDbEntity
  8
IMPORT_IGES
100
AcDbEllipse
 62
7
  6
CONTINUOUS
 10
36.2278512059
 20
-77.048740799
 30
0.0
 11
-0.0
 21
100.05
 31
0.0
 40
0.6989661976
 41
6.3383726727
 42
6.3387720138
  0
ELLIPSE
  5
77C
100
AcDbEntity
  8
IMPORT_IGES
100
AcDbEllipse
 62
7
  6
CONTINUOUS
 10
35.5500724038
 20
-77.048740799
 30
0.0
 11
0.0
 21
100.05
 31
0.0
 40
0.5770325345
 41
6.3387720138
 42
6.3391947898
  0
ELLIPSE
  5
77D
100
AcDbEntity
  8
IMPORT_IGES
100
AcDbEllipse
 62
7
  6
CONTINUOUS
 10
34.9622795333
 20
-77.048740799
 30
0.0
 11
0.0
 21
100.05
 31
0.0
 40
0.4720848764
 41
6.3391947898
 42
6.3396400797
  0
ELLIPSE
  5
77E
100
AcDbEntity
  8
IMPORT_IGES
100
AcDbEllipse
 62
7
  6
CONTINUOUS
 10
34.4658737053
 20
-77.048740799
 30
0.0
 11
0.0
 21
100.05
 31
0.0
 40
0.3841522926
 41
6.3396400797
 42
6.3400963003
  0
ELLIPSE
  5
77F
100
AcDbEntity
  8
IMPORT_IGES
100
AcDbEllipse
 62
7
  6
CONTINUOUS
 10
33.9558030706
 20
-77.048740799
 30
0.0
 11
0.0
 21
100.05
 31
0.0
 40
0.2945226786
 41
6.3400963003
 42
6.3405620388
  0
ELLIPSE
  5
780
100
AcDbEntity
  8
IMPORT_IGES
100
AcDbEllipse
 62
7
  6
CONTINUOUS
 10
33.4962614756
 20
-77.048740799
 30
0.0
 11
-0.0
 21
100.05
 31
0.0
 40
0.2144267863
 41
6.3405620388
 42
6.3410387082
  0
ELLIPSE
  5
781
100
AcDbEntity
  8
IMPORT_IGES
100
AcDbEllipse
 62
7
  6
CONTINUOUS
 10
33.1643361027
 20
-77.048740799
 30
0.0
 11
-0.0
 21
100.05
 31
0.0
 40
0.1570499291
 41
0.057853401
 42
0.0583336572
  0
ELLIPSE
  5
782
100
AcDbEntity
  8
IMPORT_IGES
100
AcDbEllipse
 62
7
  6
CONTINUOUS
 10
32.870604731
 20
-77.048740799
 30
0.0
 11
0.0
 21
100.05
 31
0.0
 40
0.1066928691
 41
0.0583336572
 42
0.0588150522
  0
ELLIPSE
  5
783
100
AcDbEntity
  8
IMPORT_IGES
100
AcDbEllipse
 62
7
  6
CONTINUOUS
 10
32.5411072714
 20
-77.048740799
 30
0.0
 11
0.0
 21
100.05
 31
0.0
 40
0.0506659288
 41
0.0588150522
 42
0.059287877
  0
ELLIPSE
  5
784
100
AcDbEntity
  8
IMPORT_IGES
100
AcDbEllipse
 62
7
  6
CONTINUOUS
 10
57.6378858062
 20
-77.048740799
 30
0.0
 11
470.308150482
 21
0.0
 31
0.0
 40
0.2126265511
 41
1.6236633585
 42
1.6237493416
  0
ELLIPSE
  5
785
100
AcDbEntity
  8
IMPORT_IGES
100
AcDbEllipse
 62
7
  6
CONTINUOUS
 10
52.1125377268
 20
-77.048740799
 30
0.0
 11
365.9480965928
 21
-0.0
 31
0.0
 40
0.2732627958
 41
1.6237661419
 42
1.6238955242
  0
ELLIPSE
  5
786
100
AcDbEntity
  8
IMPORT_IGES
100
AcDbEllipse
 62
7
  6
CONTINUOUS
 10
48.5459103265
 20
-77.048740799
 30
0.0
 11
298.747382486
 21
0.0
 31
0.0
 40
0.3347309662
 41
1.6238955242
 42
1.6240515032
  0
ELLIPSE
  5
787
100
AcDbEntity
  8
IMPORT_IGES
100
AcDbEllipse
 62
7
  6
CONTINUOUS
 10
45.9397968074
 20
-77.048740799
 30
0.0
 11
249.7879014941
 21
-0.0
 31
0.0
 40
0.4003396458
 41
1.6240789637
 42
1.6242340811
  0
ELLIPSE
  5
788
100
AcDbEntity
  8
IMPORT_IGES
100
AcDbEllipse
 62
7
  6
CONTINUOUS
 10
43.4817201511
 20
-77.048740799
 30
0.0
 11
203.7671254288
 21
-0.0
 31
0.0
 40
0.4907562974
 41
1.6242340811
 42
1.6244485533
  0
ELLIPSE
  5
789
100
AcDbEntity
  8
IMPORT_IGES
100
AcDbEllipse
 62
7
  6
CONTINUOUS
 10
41.5822031598
 20
-77.048740799
 30
0.0
 11
168.3458813284
 21
0.0
 31
0.0
 40
0.5940151265
 41
1.6244485533
 42
1.6246968664
  0
ELLIPSE
  5
78A
100
AcDbEntity
  8
IMPORT_IGES
100
AcDbEllipse
 62
7
  6
CONTINUOUS
 10
40.183932659
 20
-77.048740799
 30
0.0
 11
142.3916367532
 21
-0.0
 31
0.0
 40
0.7022884369
 41
1.6246968664
 42
1.6249770739
  0
ELLIPSE
  5
78B
100
AcDbEntity
  8
IMPORT_IGES
100
AcDbEllipse
 62
7
  6
CONTINUOUS
 10
38.9170719999
 20
-77.048740799
 30
0.0
 11
118.9980742522
 21
0.0
 31
0.0
 40
0.8403497336
 41
1.6249770739
 42
1.625288631
  0
ELLIPSE
  5
78C
100
AcDbEntity
  8
IMPORT_IGES
100
AcDbEllipse
 62
7
  6
CONTINUOUS
 10
37.8130140514
 20
-77.048740799
 30
0.0
 11
0.0
 21
100.0
 31
0.0
 40
0.987272387
 41
0.0544923043
 42
0.0548379709
  0
ELLIPSE
  5
78D
100
AcDbEntity
  8
IMPORT_IGES
100
AcDbEllipse
 62
7
  6
CONTINUOUS
 10
36.9524197909
 20
-77.048740799
 30
0.0
 11
0.0
 21
100.0
 31
0.0
 40
0.8302596954
 41
0.0548379709
 42
0.0550845181
  0
ELLIPSE
  5
78E
100
AcDbEntity
  8
IMPORT_IGES
100
AcDbEllipse
 62
7
  6
CONTINUOUS
 10
-9.9735682087
 20
-2.298740799
 30
0.0
 11
0.0
 21
1.0
 31
0.0
 40
0.2493273241
 41
-0.5235926234
 42
-0.0
  0
ELLIPSE
  5
78F
100
AcDbEntity
  8
IMPORT_IGES
100
AcDbEllipse
 62
7
  6
CONTINUOUS
 10
-9.9735682087
 20
2.101259201
 30
0.0
 11
0.0
 21
1.0
 31
0.0
 40
0.2493273241
 41
-3.1415926536
 42
-2.6180000302
  0
ELLIPSE
  5
790
100
AcDbEntity
  8
IMPORT_IGES
100
AcDbEllipse
 62
7
  6
CONTINUOUS
 10
-45.8902755416
 20
-2.298740799
 30
0.0
 11
0.0
 21
1.0
 31
0.0
 40
0.2493273241
 41
0.0
 42
0.5235926234
  0
ELLIPSE
  5
791
100
AcDbEntity
  8
IMPORT_IGES
100
AcDbEllipse
 62
7
  6
CONTINUOUS
 10
-45.8902755416
 20
2.101259201
 30
0.0
 11
0.0
 21
1.0
 31
0.0
 40
0.2493273241
 41
-3.665185277
 42
-3.1415926536
  0
ENDSEC
  0
SECTION
  2
OBJECTS
  0
DICTIONARY
  5
C
100
AcDbDictionary
280
0
281
1
  3
ACAD_GROUP
350
D
  3
ACAD_MLINESTYLE
350
17
  3
ACAD_LAYOUT
350
1A
  3
ACAD_PLOTSETTINGS
350
19
  3
ACAD_PLOTSTYLENAME
350
E
  0
DICTIONARY
  5
D
102
{ACAD_REACTORS
330
C
102
}
100
AcDbDictionary
280
0
281
1
  0
ACDBDICTIONARYWDFLT
  5
E
102
{ACAD_REACTORS
330
C
102
}
100
AcDbDictionary
281
1
  3
Normal
350
F
100
AcDbDictionaryWithDefault
340
F
  0
DICTIONARY
  5
17
102
{ACAD_REACTORS
330
C
102
}
100
AcDbDictionary
280
0
281
1
  3
Standard
350
18
  0
DICTIONARY
  5
19
102
{ACAD_REACTORS
330
C
102
}
100
AcDbDictionary
281
1
  0
DICTIONARY
  5
1A
102
{ACAD_REACTORS
330
C
102
}
100
AcDbDictionary
281
1
  3
Model
350
792
  3
Layout1
350
793
  0
ACDBPLACEHOLDER
  5
F
102
{ACAD_REACTORS
330
E
102
}
  0
MLINESTYLE
  5
18
102
{ACAD_REACTORS
330
17
102
}
100
AcDbMlineStyle
  2
STANDARD
 70
0
  3

 62
256
 51
90.0
 52
90.0
 71
2
 49
0.5
 62
256
  6
BYLAYER
 49
-0.5
 62
256
  6
BYLAYER
  0
LAYOUT
  5
792
102
{ACAD_REACTORS
330
1A
102
}
100
AcDbPlotSettings
  1

  2
none_device
  4
ISO_A4_(297.00_x_210.00_MM)
  6

 40
0.0
 41
0.0
 42
0.0
 43
0.0
 44
297.0
 45
210.0
 46
0.0
 47
0.0
 48
0.0
 49
0.0
140
0.0
141
0.0
142
1.0
143
1.0
 70
1024
 72
1
 73
0
 74
0
  7

 75
0
147
1.0
148
0.0
149
0.0
100
AcDbLayout
  1
Model
 70
0
 71
0
 10
0.0
 20
0.0
 11
297.0
 21
210.0
 12
0.0
 22
0.0
 32
0.0
 14
0.0
 24
0.0
 34
0.0
 15
0.0
 25
0.0
 35
0.0
146
0.0
 13
0.0
 23
0.0
 33
0.0
 16
1.0
 26
0.0
 36
0.0
 17
0.0
 27
1.0
 37
0.0
 76
0
330
20F
345
0
346
0
  0
LAYOUT
  5
793
102
{ACAD_REACTORS
330
1A
102
}
100
AcDbPlotSettings
  1

  2
none_device
  4
ISO_A4_(297.00_x_210.00_MM)
  6

 40
0.0
 41
0.0
 42
0.0
 43
0.0
 44
297.0
 45
210.0
 46
0.0
 47
0.0
 48
0.0
 49
0.0
140
0.0
141
0.0
142
1.0
143
1.0
 70
0
 72
1
 73
0
 74
0
  7

 75
0
147
1.0
148
0.0
149
0.0
100
AcDbLayout
  1
Layout1
 70
0
 71
1
 10
0.0
 20
0.0
 11
297.0
 21
210.0
 12
0.0
 22
0.0
 32
0.0
 14
0.0
 24
0.0
 34
0.0
 15
0.0
 25
0.0
 35
0.0
146
0.0
 13
0.0
 23
0.0
 33
0.0
 16
1.0
 26
0.0
 36
0.0
 17
0.0
 27
1.0
 37
0.0
 76
0
330
210
345
0
346
0
  0
ENDSEC
  0
EOF
