  0
SECTION
  2
HEADER
  9
$ACADVER
  1
AC1015
  9
$DWGCODEPAGE
  3
ANSI_1252
  9
$EXTMAX
 10
297.0
 20
210.0
 30
0.0
  9
$EXTMIN
 10
0.0
 20
0.0
 30
0.0
  9
$LIMMIN
 10
0.0
 20
0.0
  9
$LIMMAX
 10
297.0
 20
210.0
  9
$VIEWCTR
 10
148.5
 20
105.0
  9
$VIEWSIZE
 40
210.0
  9
$CLAYER
  8
0
  9
$LTSCALE
 40
16.335
  9
$CELTYPE
  6
BYLAYER
  9
$DIMSCALE
 40
1.0
  9
$DIMASZ
 40
3.0
  9
$DIMEXO
 40
1.85625
  9
$DIMDLI
 40
11.286
  9
$DIMEXE
 40
5.346
  9
$DIMCEN
 40
2.673
  9
$DIMLFAC
 40
1.0
  9
$DIMBLK
  1
_FILLED
  9
$DIMTXT
 40
3.0
  9
$DIMTOL
 70
1
  9
$DIMLIM
 70
0
  9
$DIMTFAC
 40
1.0
  9
$DIMTP
 40
0.01
  9
$DIMTM
 40
0.01
  9
$PDMODE
 70
3
  9
$PDSIZE
 40
3.0
  9
$HANDSEED
  5
307
  9
$TILEMODE
 70
1
  9
$MEASUREMENT
 70
1
  9
$INSUNITS
 70
4
  0
ENDSEC
  0
SECTION
  2
CLASSES
  0
CLASS
  1
ACDBDICTIONARYWDFLT
  2
AcDbDictionaryWithDefault
  3
AutoCAD 2000
 90
0
280
0
281
0
  0
CLASS
  1
ACDBPLACEHOLDER
  2
AcDbPlaceHolder
  3
AutoCAD 2000
 90
0
280
0
281
0
  0
CLASS
  1
LAYOUT
  2
AcDbLayout
  3
AutoCAD 2000
 90
0
280
0
281
0
  0
ENDSEC
  0
SECTION
  2
TABLES
  0
TABLE
  2
VPORT
  5
8
100
AcDbSymbolTable
 70
2
  0
VPORT
  5
1F4
100
AcDbSymbolTableRecord
100
AcDbViewportTableRecord
  2
*ACTIVE
 70
0
 10
0.0
 20
0.0
 11
1.0
 21
1.0
 12
148.5
 22
105.0
 13
0.0
 23
0.0
 14
1.0
 24
1.0
 15
0.0
 25
0.0
 16
0.0
 26
0.0
 36
1.0
 17
0.0
 27
0.0
 37
0.0
 40
210.0
 41
1.4142857143
 42
50.0
 43
0.0
 44
0.0
 50
0.0
 51
0.0
 71
0
 72
100
 73
1
 74
1
 75
0
 76
0
 77
0
 78
0
  0
ENDTAB
  0
TABLE
  2
LTYPE
  5
5
100
AcDbSymbolTable
 70
6
  0
LTYPE
  5
14
100
AcDbSymbolTableRecord
100
AcDbLinetypeTableRecord
  2
BYBLOCK
 70
0
  3

 72
65
 73
0
 40
0.0
  0
LTYPE
  5
15
100
AcDbSymbolTableRecord
100
AcDbLinetypeTableRecord
  2
BYLAYER
 70
0
  3

 72
65
 73
0
 40
0.0
  0
LTYPE
  5
16
100
AcDbSymbolTableRecord
100
AcDbLinetypeTableRecord
  2
CONTINUOUS
 70
64
  3
Solid line
 72
65
 73
0
 40
0.0
  0
LTYPE
  5
1F5
100
AcDbSymbolTableRecord
100
AcDbLinetypeTableRecord
  2
CENTER
 70
64
  3
____ _ ____ _ ____ _ ____ _ ____ _ ____ _ ____
 72
65
 73
4
 40
0.6
 49
0.375
 74
0
 49
-0.075
 74
0
 49
0.075
 74
0
 49
-0.075
 74
0
  0
LTYPE
  5
1F6
100
AcDbSymbolTableRecord
100
AcDbLinetypeTableRecord
  2
HIDDEN
 70
64
  3
- - - - - - - - - - - - - - - - - - - -
 72
65
 73
2
 40
0.2
 49
0.1
 74
0
 49
-0.1
 74
0
  0
LTYPE
  5
1F7
100
AcDbSymbolTableRecord
100
AcDbLinetypeTableRecord
  2
PHANTOM
 70
64
  3
_____ _ _ _____ _ _ _____ _ _ _____
 72
65
 73
6
 40
0.8
 49
0.45
 74
0
 49
-0.05
 74
0
 49
0.1
 74
0
 49
-0.05
 74
0
 49
0.1
 74
0
 49
-0.05
 74
0
  0
LTYPE
  5
1F8
100
AcDbSymbolTableRecord
100
AcDbLinetypeTableRecord
  2
DOT
 70
64
  3
. . . . . . . . . . . . . . . . . . . .
 72
65
 73
2
 40
0.2
 49
0.1
 74
0
 49
-0.1
 74
0
  0
LTYPE
  5
1F9
100
AcDbSymbolTableRecord
100
AcDbLinetypeTableRecord
  2
DASHED
 70
64
  3
- - - - - - - - - - - - - - - - - - - -
 72
65
 73
2
 40
0.2
 49
0.1
 74
0
 49
-0.1
 74
0
  0
ENDTAB
  0
TABLE
  2
LAYER
  5
2
100
AcDbSymbolTable
 70
36
  0
LAYER
  5
10
100
AcDbSymbolTableRecord
100
AcDbLayerTableRecord
  2
0
 70
0
 62
7
  6
CONTINUOUS
370
-3
390
F
  0
LAYER
  5
1FA
100
AcDbSymbolTableRecord
100
AcDbLayerTableRecord
  2
DEFAULT_1
 70
0
 62
7
  6
CENTER
370
-3
390
F
  0
LAYER
  5
1FB
100
AcDbSymbolTableRecord
100
AcDbLayerTableRecord
  2
DEFAULT_2
 70
0
 62
7
  6
HIDDEN
370
-3
390
F
  0
LAYER
  5
1FC
100
AcDbSymbolTableRecord
100
AcDbLayerTableRecord
  2
DEFAULT_3
 70
0
 62
7
  6
PHANTOM
370
-3
390
F
  0
LAYER
  5
1FD
100
AcDbSymbolTableRecord
100
AcDbLayerTableRecord
  2
ASSI
 70
0
 62
7
  6
CONTINUOUS
370
-3
390
F
  0
LAYER
  5
1FE
100
AcDbSymbolTableRecord
100
AcDbLayerTableRecord
  2
COLOR5
 70
0
 62
7
  6
CONTINUOUS
370
-3
390
F
  0
LAYER
  5
1FF
100
AcDbSymbolTableRecord
100
AcDbLayerTableRecord
  2
COORDINATE
 70
0
 62
7
  6
CONTINUOUS
370
-3
390
F
  0
LAYER
  5
200
100
AcDbSymbolTableRecord
100
AcDbLayerTableRecord
  2
COORD_ORIGINE
 70
0
 62
7
  6
CONTINUOUS
370
-3
390
F
  0
LAYER
  5
201
100
AcDbSymbolTableRecord
100
AcDbLayerTableRecord
  2
CURVE
 70
0
 62
7
  6
CONTINUOUS
370
-3
390
F
  0
LAYER
  5
202
100
AcDbSymbolTableRecord
100
AcDbLayerTableRecord
  2
DRAFT
 70
0
 62
7
  6
CONTINUOUS
370
-3
390
F
  0
LAYER
  5
203
100
AcDbSymbolTableRecord
100
AcDbLayerTableRecord
  2
IMPORT
 70
0
 62
7
  6
CONTINUOUS
370
-3
390
F
  0
LAYER
  5
204
100
AcDbSymbolTableRecord
100
AcDbLayerTableRecord
  2
NOTE
 70
0
 62
7
  6
CONTINUOUS
370
-3
390
F
  0
LAYER
  5
205
100
AcDbSymbolTableRecord
100
AcDbLayerTableRecord
  2
PIANI
 70
0
 62
7
  6
CONTINUOUS
370
-3
390
F
  0
LAYER
  5
206
100
AcDbSymbolTableRecord
100
AcDbLayerTableRecord
  2
PIANI_ORIGINE
 70
0
 62
7
  6
CONTINUOUS
370
-3
390
F
  0
LAYER
  5
207
100
AcDbSymbolTableRecord
100
AcDbLayerTableRecord
  2
PUNTI
 70
0
 62
7
  6
CONTINUOUS
370
-3
390
F
  0
LAYER
  5
208
100
AcDbSymbolTableRecord
100
AcDbLayerTableRecord
  2
RACCORDO
 70
0
 62
7
  6
CONTINUOUS
370
-3
390
F
  0
LAYER
  5
209
100
AcDbSymbolTableRecord
100
AcDbLayerTableRecord
  2
SNAPLINE
 70
0
 62
7
  6
CONTINUOUS
370
-3
390
F
  0
LAYER
  5
20A
100
AcDbSymbolTableRecord
100
AcDbLayerTableRecord
  2
SUPERFICI
 70
0
 62
7
  6
CONTINUOUS
370
-3
390
F
  0
LAYER
  5
20B
100
AcDbSymbolTableRecord
100
AcDbLayerTableRecord
  2
TRASH
 70
0
 62
7
  6
CONTINUOUS
370
-3
390
F
  0
LAYER
  5
20C
100
AcDbSymbolTableRecord
100
AcDbLayerTableRecord
  2
XSEC_DATUMS
 70
0
 62
7
  6
CONTINUOUS
370
-3
390
F
  0
ENDTAB
  0
TABLE
  2
STYLE
  5
3
100
AcDbSymbolTable
 70
1
  0
STYLE
  5
11
100
AcDbSymbolTableRecord
100
AcDbTextStyleTableRecord
  2
STANDARD
 70
0
 40
0.0
 41
0.8
 50
0.0
 71
0
 42
0.2
  3
txt
  4

  0
STYLE
  5
20D
100
AcDbSymbolTableRecord
100
AcDbTextStyleTableRecord
  2
TEXTSTYLE_1
 70
0
 40
0.0
 41
0.8
 50
0.0
 71
0
 42
0.2
  3
gdt
  4

  0
ENDTAB
  0
TABLE
  2
VIEW
  5
6
100
AcDbSymbolTable
 70
0
  0
ENDTAB
  0
TABLE
  2
UCS
  5
7
100
AcDbSymbolTable
 70
0
  0
ENDTAB
  0
TABLE
  2
APPID
  5
9
100
AcDbSymbolTable
 70
1
  0
APPID
  5
20E
100
AcDbSymbolTableRecord
100
AcDbRegAppTableRecord
  2
ACAD
 70
0
  0
ENDTAB
  0
TABLE
  2
BLOCK_RECORD
  5
1
100
AcDbSymbolTable
 70
0
  0
BLOCK_RECORD
  5
20F
100
AcDbSymbolTableRecord
100
AcDbBlockTableRecord
  2
*Model_Space
  0
BLOCK_RECORD
  5
210
100
AcDbSymbolTableRecord
100
AcDbBlockTableRecord
  2
*Paper_Space
  0
BLOCK_RECORD
  5
211
100
AcDbSymbolTableRecord
100
AcDbBlockTableRecord
  2
_FILLED
  0
BLOCK_RECORD
  5
212
100
AcDbSymbolTableRecord
100
AcDbBlockTableRecord
  2
*D0
  0
BLOCK_RECORD
  5
213
100
AcDbSymbolTableRecord
100
AcDbBlockTableRecord
  2
*D1
  0
BLOCK_RECORD
  5
214
100
AcDbSymbolTableRecord
100
AcDbBlockTableRecord
  2
*D2
  0
ENDTAB
  0
TABLE
  2
DIMSTYLE
  5
A
100
AcDbSymbolTable
 70
1
100
AcDbDimStyleTable
 71
0
  0
DIMSTYLE
105
215
100
AcDbSymbolTableRecord
100
AcDbDimStyleTableRecord
  2
STANDARD
 70
0
  3

  4

 40
1.0
 41
3.0
 42
0.0625
 43
0.38
 44
0.18
 45
0.0
 46
0.0
 47
0.01
 48
0.01
140
3.0
141
0.09
142
0.0
143
25.4
144
1.0
145
0.0
146
1.0
147
0.09
 71
1.0
 72
0.0
 73
0
 74
0
 75
0
 76
0
 77
1
 78
8
170
0
171
2
172
0
173
0
174
0
175
0
176
0
177
0
178
0
270
2
271
2
272
2
273
2
274
2
275
0
280
0
281
0
282
0
283
1
284
8
285
0
286
0
287
3
288
0
340
11
341
211
342
211
343
211
344
211
  0
DIMSTYLE
105
216
100
AcDbSymbolTableRecord
100
AcDbDimStyleTableRecord
  2
DIMSTYLE_1
 70
0
  3

  4

 40
1.0
 41
3.0
 42
0.0625
 43
0.38
 44
0.18
 45
0.0
 46
0.0
 47
0.0
 48
0.0
140
3.0
141
0.09
142
0.0
143
25.4
144
1.0
145
0.0
146
1.0
147
0.09
 71
0.0
 72
0.0
 73
0
 74
0
 75
0
 76
0
 77
1
 78
8
170
0
171
2
172
0
173
0
174
0
175
0
176
0
177
0
178
0
270
2
271
2
272
2
273
2
274
2
275
0
280
0
281
0
282
0
283
1
284
8
285
0
286
0
287
3
288
0
340
11
341
211
342
211
343
211
344
211
  0
ENDTAB
  0
ENDSEC
  0
SECTION
  2
BLOCKS
  0
BLOCK
  5
20
100
AcDbEntity
  8
0
100
AcDbBlockBegin
  2
*Model_Space
 70
0
 10
0.0
 20
0.0
 30
0.0
  3
*Model_Space
  1

  0
ENDBLK
  5
21
100
AcDbEntity
  8
0
100
AcDbBlockEnd
  0
BLOCK
  5
1C
100
AcDbEntity
  8
0
100
AcDbBlockBegin
  2
*Paper_Space
 70
0
 10
0.0
 20
0.0
 30
0.0
  3
*Paper_Space
  1

  0
ENDBLK
  5
1D
100
AcDbEntity
  8
0
100
AcDbBlockEnd
  0
BLOCK
  5
217
100
AcDbEntity
  8
0
100
AcDbBlockBegin
  2
_FILLED
 70
64
 10
0.0
 20
0.0
  3
_FILLED
  1

  0
SOLID
  5
218
100
AcDbEntity
  8
0
  6
BYBLOCK
 62
0
100
AcDbTrace
 10
0.0
 20
0.0
 11
-1.0
 21
0.3166666667
 12
-1.0
 22
-0.3166666667
 13
-1.0
 23
-0.3166666667
  0
ENDBLK
  5
219
100
AcDbEntity
  8
0
  6
BYBLOCK
 62
0
100
AcDbBlockEnd
  0
BLOCK
  5
21A
100
AcDbEntity
  8
0
100
AcDbBlockBegin
 62
7
  6
CONTINUOUS
  2
*D0
 70
65
 10
0.0
 20
0.0
  3
*D0
  1

  0
LINE
  5
21B
100
AcDbEntity
  8
0
100
AcDbLine
 62
7
  6
CONTINUOUS
 10
-30.0
 20
39.5013704652
 11
-30.0
 21
49.5
  0
LINE
  5
21C
100
AcDbEntity
  8
0
100
AcDbLine
 62
7
  6
CONTINUOUS
 10
30.0
 20
39.5013704652
 11
30.0
 21
49.5
  0
LINE
  5
21D
100
AcDbEntity
  8
0
100
AcDbLine
 62
7
  6
CONTINUOUS
 10
-30.0
 20
48.0
 11
0.0
 21
48.0
  0
LINE
  5
21E
100
AcDbEntity
  8
0
100
AcDbLine
 62
7
  6
CONTINUOUS
 10
30.0
 20
48.0
 11
0.0
 21
48.0
  0
INSERT
  5
21F
100
AcDbEntity
  8
0
100
AcDbBlockReference
 62
7
  6
CONTINUOUS
  2
_FILLED
 10
-30.0
 20
48.0
 41
3.0
 42
3.0
 43
3.0
 50
180.0
  0
INSERT
  5
220
100
AcDbEntity
  8
0
100
AcDbBlockReference
 62
7
  6
CONTINUOUS
  2
_FILLED
 10
30.0
 20
48.0
 41
3.0
 42
3.0
 43
3.0
  0
ENDBLK
  5
221
100
AcDbEntity
  8
0
  6
BYBLOCK
 62
0
100
AcDbBlockEnd
  0
BLOCK
  5
222
100
AcDbEntity
  8
0
100
AcDbBlockBegin
 62
7
  6
CONTINUOUS
  2
*D1
 70
65
 10
0.0
 20
0.0
  3
*D1
  1

  0
LINE
  5
223
100
AcDbEntity
  8
0
100
AcDbLine
 62
7
  6
CONTINUOUS
 10
29.5013704652
 20
40.0
 11
39.5
 21
40.0
  0
LINE
  5
224
100
AcDbEntity
  8
0
100
AcDbLine
 62
7
  6
CONTINUOUS
 10
29.5013704652
 20
-40.0
 11
39.5
 21
-40.0
  0
LINE
  5
225
100
AcDbEntity
  8
0
100
AcDbLine
 62
7
  6
CONTINUOUS
 10
38.0
 20
40.0
 11
38.0
 21
0.0
  0
LINE
  5
226
100
AcDbEntity
  8
0
100
AcDbLine
 62
7
  6
CONTINUOUS
 10
38.0
 20
-40.0
 11
38.0
 21
0.0
  0
INSERT
  5
227
100
AcDbEntity
  8
0
100
AcDbBlockReference
 62
7
  6
CONTINUOUS
  2
_FILLED
 10
38.0
 20
40.0
 41
3.0
 42
3.0
 43
3.0
 50
90.0
  0
INSERT
  5
228
100
AcDbEntity
  8
0
100
AcDbBlockReference
 62
7
  6
CONTINUOUS
  2
_FILLED
 10
38.0
 20
-40.0
 41
3.0
 42
3.0
 43
3.0
 50
270.0
  0
ENDBLK
  5
229
100
AcDbEntity
  8
0
  6
BYBLOCK
 62
0
100
AcDbBlockEnd
  0
BLOCK
  5
22A
100
AcDbEntity
  8
0
100
AcDbBlockBegin
 62
7
  6
CONTINUOUS
  2
*D2
 70
65
 10
0.0
 20
0.0
  3
*D2
  1

  0
LINE
  5
22B
100
AcDbEntity
  8
0
100
AcDbLine
 62
7
  6
CONTINUOUS
 10
-64.5927255648
 20
0.5
 11
-64.5927255648
 21
49.5
  0
LINE
  5
22C
100
AcDbEntity
  8
0
100
AcDbLine
 62
7
  6
CONTINUOUS
 10
-50.5927255648
 20
39.5013704652
 11
-50.5927255648
 21
49.5
  0
LINE
  5
22D
100
AcDbEntity
  8
0
100
AcDbLine
 62
7
  6
CONTINUOUS
 10
-64.5927255648
 20
48.0
 11
-57.5927255648
 21
48.0
  0
LINE
  5
22E
100
AcDbEntity
  8
0
100
AcDbLine
 62
7
  6
CONTINUOUS
 10
-50.5927255648
 20
48.0
 11
-57.5927255648
 21
48.0
  0
INSERT
  5
22F
100
AcDbEntity
  8
0
100
AcDbBlockReference
 62
7
  6
CONTINUOUS
  2
_FILLED
 10
-64.5927255648
 20
48.0
 41
3.0
 42
3.0
 43
3.0
 50
180.0
  0
INSERT
  5
230
100
AcDbEntity
  8
0
100
AcDbBlockReference
 62
7
  6
CONTINUOUS
  2
_FILLED
 10
-50.5927255648
 20
48.0
 41
3.0
 42
3.0
 43
3.0
  0
ENDBLK
  5
231
100
AcDbEntity
  8
0
  6
BYBLOCK
 62
0
100
AcDbBlockEnd
  0
ENDSEC
  0
SECTION
  2
ENTITIES
  0
DIMENSION
  5
232
100
AcDbEntity
  8
0
100
AcDbDimension
 62
7
  6
CONTINUOUS
  2
*D0
 10
30.0
 20
48.0
 11
-2.3571428571
 21
48.75
 70
160
 71
2
 42
60.0
  3
DIMSTYLE_1
100
AcDbAlignedDimension
 13
-30.0
 23
39.5013704652
 14
30.0
 24
39.5013704652
100
AcDbRotatedDimension
  0
DIMENSION
  5
233
100
AcDbEntity
  8
0
100
AcDbDimension
 62
7
  6
CONTINUOUS
  2
*D1
 10
38.0
 20
-40.0
 11
37.25
 21
-2.3571428571
 70
160
 71
2
 42
80.0
  3
DIMSTYLE_1
100
AcDbAlignedDimension
 13
29.5013704652
 23
40.0
 14
29.5013704652
 24
-40.0
 50
270.0
100
AcDbRotatedDimension
  0
DIMENSION
  5
234
100
AcDbEntity
  8
0
100
AcDbDimension
 62
7
  6
CONTINUOUS
  2
*D2
 10
-50.5927255648
 20
48.0
 11
-59.6284398506
 21
48.75
 70
160
 71
2
 42
14.0
  3
DIMSTYLE_1
100
AcDbAlignedDimension
 13
-64.5927255648
 23
0.5
 14
-50.5927255648
 24
39.5013704652
100
AcDbRotatedDimension
  0
LINE
  5
235
100
AcDbEntity
  8
RACCORDO
100
AcDbLine
 62
7
  6
CONTINUOUS
 10
-29.0013704652
 20
-40.0
 11
29.0013704652
 21
-40.0
  0
LWPOLYLINE
  5
236
100
AcDbEntity
  8
0
100
AcDbPolyline
 62
7
  6
CONTINUOUS
 90
10
 70
0
 43
0.3500000006
 10
-1.2857142735
 20
51.7500018768
 10
-1.9285714102
 20
51.1071438904
 10
-2.3571427875
 20
50.2500014191
 10
-2.3571427875
 20
49.178569931
 10
-1.9285714102
 20
48.7500009613
 10
-1.2857142735
 20
48.7500009613
 10
-0.8571428254
 20
49.178569931
 10
-0.8571428254
 20
50.0357124023
 10
-1.2857142735
 20
50.4642859039
 10
-2.2142856617
 20
50.4642859039
  0
LINE
  5
237
100
AcDbEntity
  8
RACCORDO
100
AcDbLine
 62
253
  6
CONTINUOUS
 10
28.4144652397
 20
-39.4130947744
 11
-28.4144652397
 21
-39.4130947744
  0
LINE
  5
238
100
AcDbEntity
  8
RACCORDO
100
AcDbLine
 62
253
  6
CONTINUOUS
 10
28.4144625432
 20
-38.5107420949
 11
-28.4144625432
 21
-38.5107420949
  0
LINE
  5
239
100
AcDbEntity
  8
RACCORDO
100
AcDbLine
 62
7
  6
CONTINUOUS
 10
-30.0
 20
39.0013704652
 11
-30.0
 21
-39.0013704652
  0
LINE
  5
23A
100
AcDbEntity
  8
RACCORDO
100
AcDbLine
 62
253
  6
CONTINUOUS
 10
-28.4144652397
 20
39.4130947744
 11
-28.4144652397
 21
38.5107420949
  0
LINE
  5
23B
100
AcDbEntity
  8
RACCORDO
100
AcDbLine
 62
253
  6
CONTINUOUS
 10
-28.4144652397
 20
-39.4130947744
 11
-28.4144652397
 21
-38.5107420949
  0
LINE
  5
23C
100
AcDbEntity
  8
RACCORDO
100
AcDbLine
 62
253
  6
CONTINUOUS
 10
10.7965663899
 20
-22.6904032706
 11
-10.7965663899
 21
-22.6904032706
  0
LINE
  5
23D
100
AcDbEntity
  8
RACCORDO
100
AcDbLine
 62
253
  6
CONTINUOUS
 10
10.7965663899
 20
-22.5319857453
 11
-10.7965663899
 21
-22.5319857453
  0
LINE
  5
23E
100
AcDbEntity
  8
DRAFT
100
AcDbLine
 62
7
  6
CONTINUOUS
 10
-10.6825335917
 20
-22.4849739403
 11
10.6825335917
 21
-22.4849739403
  0
LINE
  5
23F
100
AcDbEntity
  8
DRAFT
100
AcDbLine
 62
7
  6
CONTINUOUS
 10
-10.8061038587
 20
-22.35
 11
-10.75
 21
-22.35
  0
LINE
  5
240
100
AcDbEntity
  8
DRAFT
100
AcDbLine
 62
7
  6
CONTINUOUS
 10
10.75
 20
-22.35
 11
10.8061038587
 21
-22.35
  0
LINE
  5
241
100
AcDbEntity
  8
DRAFT
100
AcDbLine
 62
7
  6
CONTINUOUS
 10
-10.75
 20
-22.2432753594
 11
-10.3607290949
 21
-22.2432753594
  0
LINE
  5
242
100
AcDbEntity
  8
DRAFT
100
AcDbLine
 62
7
  6
CONTINUOUS
 10
10.3607290949
 20
-22.2432753594
 11
10.75
 21
-22.2432753594
  0
LINE
  5
243
100
AcDbEntity
  8
DRAFT
100
AcDbLine
 62
7
  6
CONTINUOUS
 10
-10.3232035634
 20
-20.8
 11
10.3232035634
 21
-20.8
  0
LINE
  5
244
100
AcDbEntity
  8
DRAFT
100
AcDbLine
 62
7
  6
CONTINUOUS
 10
10.75
 20
-20.5
 11
-10.75
 21
-20.5
  0
LINE
  5
245
100
AcDbEntity
  8
DRAFT
100
AcDbLine
 62
7
  6
CONTINUOUS
 10
-10.6865277502
 20
-22.4769831887
 11
-10.75
 21
-22.35
  0
LINE
  5
246
100
AcDbEntity
  8
DRAFT
100
AcDbLine
 62
7
  6
CONTINUOUS
 10
-10.75
 20
-19.5
 11
10.75
 21
-19.5
  0
LINE
  5
247
100
AcDbEntity
  8
RACCORDO
100
AcDbLine
 62
7
  6
CONTINUOUS
 10
-11.8950189165
 20
-21.4909879013
 11
-12.2395898852
 21
-14.9161821484
  0
LINE
  5
248
100
AcDbEntity
  8
RACCORDO
100
AcDbLine
 62
253
  6
CONTINUOUS
 10
10.7499983637
 20
22.35
 11
11.114414245
 21
22.5319857453
  0
LINE
  5
249
100
AcDbEntity
  8
RACCORDO
100
AcDbLine
 62
253
  6
CONTINUOUS
 10
-10.7965663899
 20
-22.5319857453
 11
-10.8061038587
 21
-22.35
  0
LINE
  5
24A
100
AcDbEntity
  8
DRAFT
100
AcDbLine
 62
7
  6
CONTINUOUS
 10
-11.85
 20
14.35
 11
-11.85
 21
-21.5965062704
  0
LINE
  5
24B
100
AcDbEntity
  8
DRAFT
100
AcDbLine
 62
7
  6
CONTINUOUS
 10
-11.85
 20
14.963457922
 11
-11.85
 21
20.736542078
  0
LINE
  5
24C
100
AcDbEntity
  8
RACCORDO
100
AcDbLine
 62
253
  6
CONTINUOUS
 10
-11.114414245
 20
22.6904032706
 11
-11.114414245
 21
22.5319857453
  0
LINE
  5
24D
100
AcDbEntity
  8
DRAFT
100
AcDbLine
 62
7
  6
CONTINUOUS
 10
-10.85
 20
20.736542078
 11
-10.85
 21
14.963457922
  0
LINE
  5
24E
100
AcDbEntity
  8
RACCORDO
100
AcDbLine
 62
253
  6
CONTINUOUS
 10
-10.7965663899
 20
-22.6904032706
 11
-10.7965663857
 21
-22.5319857453
  0
LINE
  5
24F
100
AcDbEntity
  8
DRAFT
100
AcDbLine
 62
7
  6
CONTINUOUS
 10
-10.75
 20
-19.5
 11
-10.75
 21
-22.35
  0
LINE
  5
250
100
AcDbEntity
  8
DRAFT
100
AcDbLine
 62
7
  6
CONTINUOUS
 10
-10.4
 20
14.35
 11
-10.4
 21
21.35
  0
LINE
  5
251
100
AcDbEntity
  8
DRAFT
100
AcDbLine
 62
7
  6
CONTINUOUS
 10
-10.3607290949
 20
-22.4849739403
 11
-10.3607290949
 21
-22.2432753594
  0
LINE
  5
252
100
AcDbEntity
  8
DRAFT
100
AcDbLine
 62
7
  6
CONTINUOUS
 10
-10.3232035634
 20
-20.8
 11
-10.3232035634
 21
-22.4849739403
  0
LINE
  5
253
100
AcDbEntity
  8
DRAFT
100
AcDbLine
 62
7
  6
CONTINUOUS
 10
-10.3362318521
 20
-22.2187781165
 11
-10.3351486121
 21
-20.8
  0
LINE
  5
254
100
AcDbEntity
  8
DRAFT
100
AcDbLine
 62
7
  6
CONTINUOUS
 10
-3.1715439374
 20
12.8004321175
 11
-3.1716698335
 21
12.8
  0
LINE
  5
255
100
AcDbEntity
  8
RACCORDO
100
AcDbLine
 62
253
  6
CONTINUOUS
 10
28.4144652397
 20
39.4130947744
 11
29.0013704652
 21
40.0
  0
LINE
  5
256
100
AcDbEntity
  8
RACCORDO
100
AcDbLine
 62
253
  6
CONTINUOUS
 10
29.4130946818
 20
38.4144651471
 11
30.0
 21
39.0013704652
  0
LINE
  5
257
100
AcDbEntity
  8
DRAFT
100
AcDbLine
 62
7
  6
CONTINUOUS
 10
11.85
 20
-8.0
 11
-11.85
 21
-8.0
  0
LINE
  5
258
100
AcDbEntity
  8
DRAFT
100
AcDbLine
 62
7
  6
CONTINUOUS
 10
10.3607290949
 20
-22.2432753594
 11
10.3362318521
 21
-22.2187781165
  0
LINE
  5
259
100
AcDbEntity
  8
RACCORDO
100
AcDbLine
 62
253
  6
CONTINUOUS
 10
28.4144652397
 20
-39.4130947744
 11
29.0013704652
 21
-40.0
  0
LINE
  5
25A
100
AcDbEntity
  8
RACCORDO
100
AcDbLine
 62
253
  6
CONTINUOUS
 10
29.4130946858
 20
-38.414465151
 11
30.0
 21
-39.0013704652
  0
LINE
  5
25B
100
AcDbEntity
  8
RACCORDO
100
AcDbLine
 62
253
  6
CONTINUOUS
 10
1.158893602
 20
-7.8906723224
 11
1.01072319
 21
-7.712867828
  0
LINE
  5
25C
100
AcDbEntity
  8
RACCORDO
100
AcDbLine
 62
253
  6
CONTINUOUS
 10
-0.4257398158
 20
16.7206535405
 11
-0.4257398158
 21
16.6825202327
  0
LINE
  5
25D
100
AcDbEntity
  8
RACCORDO
100
AcDbLine
 62
253
  6
CONTINUOUS
 10
-0.175777892
 20
16.7438039759
 11
-0.175777892
 21
16.7039085887
  0
LWPOLYLINE
  5
25E
100
AcDbEntity
  8
0
100
AcDbPolyline
 62
7
  6
CONTINUOUS
 90
13
 70
0
 43
0.3500000006
 10
0.0
 20
49.6071434326
 10
0.0
 20
50.8928594055
 10
0.2142857063
 20
51.3214283752
 10
0.6428571367
 20
51.7500018768
 10
0.8571428254
 20
51.7500018768
 10
1.2857142735
 20
51.3214283752
 10
1.5000000329
 20
50.8928594055
 10
1.5000000329
 20
49.6071434326
 10
1.2857142735
 20
49.178569931
 10
0.8571428254
 20
48.7500009613
 10
0.6428571367
 20
48.7500009613
 10
0.2142857063
 20
49.178569931
 10
0.0
 20
49.6071434326
  0
LINE
  5
25F
100
AcDbEntity
  8
RACCORDO
100
AcDbLine
 62
253
  6
CONTINUOUS
 10
0.175777892
 20
16.7039085887
 11
0.175777892
 21
16.7438039759
  0
LINE
  5
260
100
AcDbEntity
  8
RACCORDO
100
AcDbLine
 62
253
  6
CONTINUOUS
 10
0.4257398158
 20
16.6825202327
 11
0.4257398158
 21
16.7206535405
  0
LINE
  5
261
100
AcDbEntity
  8
DRAFT
100
AcDbLine
 62
7
  6
CONTINUOUS
 10
3.1715439374
 20
14.1995678825
 11
3.1716698335
 21
14.2
  0
LWPOLYLINE
  5
262
100
AcDbEntity
  8
0
100
AcDbPolyline
 62
7
  6
CONTINUOUS
 90
4
 70
0
 43
0.3500000006
 10
36.8214288025
 20
-2.3571432495
 10
35.9642863312
 20
-2.3571432495
 10
35.5357150955
 20
-1.9285708809
 10
35.5357150955
 20
-1.2857140274
  0
LWPOLYLINE
  5
263
100
AcDbEntity
  8
0
100
AcDbPolyline
 62
7
  6
CONTINUOUS
 90
13
 70
0
 43
0.3500000006
 10
36.3928575668
 20
-0.0000003204
 10
35.1071438599
 20
-0.0000003204
 10
34.6785703583
 20
0.2142864304
 10
34.2499991226
 20
0.642857666
 10
34.2499991226
 20
0.8571421509
 10
34.6785703583
 20
1.2857133865
 10
35.1071438599
 20
1.5000001373
 10
36.3928575668
 20
1.5000001373
 10
36.8214288025
 20
1.2857133865
 10
37.2500000381
 20
0.8571421509
 10
37.2500000381
 20
0.642857666
 10
36.8214288025
 20
0.2142864304
 10
36.3928575668
 20
-0.0000003204
  0
LINE
  5
264
100
AcDbEntity
  8
DRAFT
100
AcDbLine
 62
7
  6
CONTINUOUS
 10
-3.1715439374
 20
14.1995678825
 11
-3.1716698335
 21
14.2
  0
LINE
  5
265
100
AcDbEntity
  8
RACCORDO
100
AcDbLine
 62
253
  6
CONTINUOUS
 10
-29.4130946858
 20
-38.414465151
 11
-30.0
 21
-39.0013704652
  0
LINE
  5
266
100
AcDbEntity
  8
RACCORDO
100
AcDbLine
 62
253
  6
CONTINUOUS
 10
1.01072319
 20
-7.712867828
 11
11.85
 21
1.319862847
  0
LINE
  5
267
100
AcDbEntity
  8
RACCORDO
100
AcDbLine
 62
253
  6
CONTINUOUS
 10
1.1387405693
 20
-7.8664886832
 11
11.85
 21
1.0595608424
  0
LINE
  5
268
100
AcDbEntity
  8
DRAFT
100
AcDbLine
 62
7
  6
CONTINUOUS
 10
1.158893602
 20
-7.8906723224
 11
11.85
 21
1.0185830092
  0
LINE
  5
269
100
AcDbEntity
  8
RACCORDO
100
AcDbLine
 62
253
  6
CONTINUOUS
 10
-29.4130946818
 20
38.4144651471
 11
-30.0
 21
39.0013704652
  0
LINE
  5
26A
100
AcDbEntity
  8
DRAFT
100
AcDbLine
 62
7
  6
CONTINUOUS
 10
3.1715439374
 20
12.8004321175
 11
3.1716698335
 21
12.8
  0
LINE
  5
26B
100
AcDbEntity
  8
DRAFT
100
AcDbLine
 62
7
  6
CONTINUOUS
 10
10.3362318521
 20
-22.2187781165
 11
10.3351486121
 21
-20.8
  0
LINE
  5
26C
100
AcDbEntity
  8
DRAFT
100
AcDbLine
 62
7
  6
CONTINUOUS
 10
10.3232035634
 20
-20.8
 11
10.3232035634
 21
-22.4849739403
  0
LINE
  5
26D
100
AcDbEntity
  8
DRAFT
100
AcDbLine
 62
7
  6
CONTINUOUS
 10
10.3607290949
 20
-22.4849739403
 11
10.3607290949
 21
-22.2432753594
  0
LINE
  5
26E
100
AcDbEntity
  8
DRAFT
100
AcDbLine
 62
7
  6
CONTINUOUS
 10
10.4
 20
21.35
 11
10.4
 21
14.35
  0
LINE
  5
26F
100
AcDbEntity
  8
RACCORDO
100
AcDbLine
 62
253
  6
CONTINUOUS
 10
-28.4144652397
 20
-39.4130947744
 11
-29.0013704652
 21
-40.0
  0
LINE
  5
270
100
AcDbEntity
  8
DRAFT
100
AcDbLine
 62
7
  6
CONTINUOUS
 10
-10.3607290949
 20
-22.2432753594
 11
-10.3362318521
 21
-22.2187781165
  0
LINE
  5
271
100
AcDbEntity
  8
DRAFT
100
AcDbLine
 62
7
  6
CONTINUOUS
 10
11.85
 20
-0.2831252701
 11
2.5897503241
 21
-8.0
  0
LINE
  5
272
100
AcDbEntity
  8
RACCORDO
100
AcDbLine
 62
253
  6
CONTINUOUS
 10
11.85
 20
-0.3241031033
 11
2.6389237239
 21
-8.0
  0
LINE
  5
273
100
AcDbEntity
  8
RACCORDO
100
AcDbLine
 62
253
  6
CONTINUOUS
 10
11.85
 20
-0.5844051078
 11
2.9512861294
 21
-8.0
  0
LINE
  5
274
100
AcDbEntity
  8
DRAFT
100
AcDbLine
 62
7
  6
CONTINUOUS
 10
11.85
 20
8.0
 11
-11.85
 21
8.0
  0
LINE
  5
275
100
AcDbEntity
  8
RACCORDO
100
AcDbLine
 62
253
  6
CONTINUOUS
 10
-28.4144652397
 20
39.4130947744
 11
-29.0013704652
 21
40.0
  0
LINE
  5
276
100
AcDbEntity
  8
DRAFT
100
AcDbLine
 62
7
  6
CONTINUOUS
 10
10.75
 20
-19.5
 11
10.75
 21
-22.35
  0
LINE
  5
277
100
AcDbEntity
  8
RACCORDO
100
AcDbLine
 62
253
  6
CONTINUOUS
 10
10.7965663899
 20
-22.6904032706
 11
10.7965663899
 21
-22.5319857453
  0
LINE
  5
278
100
AcDbEntity
  8
DRAFT
100
AcDbLine
 62
7
  6
CONTINUOUS
 10
10.85
 20
20.736542078
 11
10.85
 21
14.963457922
  0
LINE
  5
279
100
AcDbEntity
  8
RACCORDO
100
AcDbLine
 62
253
  6
CONTINUOUS
 10
11.114414245
 20
22.6904032706
 11
11.1144142535
 21
22.5319857453
  0
LINE
  5
27A
100
AcDbEntity
  8
DRAFT
100
AcDbLine
 62
7
  6
CONTINUOUS
 10
11.85
 20
-21.5965062704
 11
11.85
 21
14.35
  0
LINE
  5
27B
100
AcDbEntity
  8
DRAFT
100
AcDbLine
 62
7
  6
CONTINUOUS
 10
11.85
 20
14.963457922
 11
11.85
 21
20.736542078
  0
LINE
  5
27C
100
AcDbEntity
  8
RACCORDO
100
AcDbLine
 62
253
  6
CONTINUOUS
 10
10.8061038587
 20
-22.35
 11
10.7965663899
 21
-22.5319857453
  0
LINE
  5
27D
100
AcDbEntity
  8
RACCORDO
100
AcDbLine
 62
7
  6
CONTINUOUS
 10
12.2395898852
 20
-14.9161821484
 11
11.8950189165
 21
-21.4909879013
  0
LINE
  5
27E
100
AcDbEntity
  8
RACCORDO
100
AcDbLine
 62
7
  6
CONTINUOUS
 10
11.85
 20
14.35
 11
11.9573363253
 21
14.3767931924
  0
LINE
  5
27F
100
AcDbEntity
  8
DRAFT
100
AcDbLine
 62
7
  6
CONTINUOUS
 10
1.5
 20
11.8
 11
-1.5
 21
11.8
  0
LINE
  5
280
100
AcDbEntity
  8
DRAFT
100
AcDbLine
 62
7
  6
CONTINUOUS
 10
1.5
 20
11.8130903017
 11
-1.5
 21
11.8130903017
  0
LINE
  5
281
100
AcDbEntity
  8
DRAFT
100
AcDbLine
 62
7
  6
CONTINUOUS
 10
3.1874833803
 20
12.8785477922
 11
3.1479716113
 21
12.8785477922
  0
LINE
  5
282
100
AcDbEntity
  8
DRAFT
100
AcDbLine
 62
7
  6
CONTINUOUS
 10
-3.1479716113
 20
12.8785477922
 11
-3.1874833803
 21
12.8785477922
  0
LINE
  5
283
100
AcDbEntity
  8
RACCORDO
100
AcDbLine
 62
7
  6
CONTINUOUS
 10
-11.85
 20
14.35
 11
-11.9573363253
 21
14.3767931924
  0
LINE
  5
284
100
AcDbEntity
  8
RACCORDO
100
AcDbLine
 62
7
  6
CONTINUOUS
 10
11.9573363253
 20
20.3767931924
 11
11.85
 21
20.35
  0
LINE
  5
285
100
AcDbEntity
  8
RACCORDO
100
AcDbLine
 62
7
  6
CONTINUOUS
 10
3.1874833803
 20
14.1214522078
 11
3.1479716113
 21
14.1214522078
  0
LINE
  5
286
100
AcDbEntity
  8
DRAFT
100
AcDbLine
 62
7
  6
CONTINUOUS
 10
-3.1479716113
 20
14.1214522078
 11
-3.1874833803
 21
14.1214522078
  0
LINE
  5
287
100
AcDbEntity
  8
DRAFT
100
AcDbLine
 62
7
  6
CONTINUOUS
 10
-11.85
 20
14.35
 11
-10.4
 21
14.35
  0
LINE
  5
288
100
AcDbEntity
  8
DRAFT
100
AcDbLine
 62
7
  6
CONTINUOUS
 10
11.85
 20
14.35
 11
10.4
 21
14.35
  0
LINE
  5
289
100
AcDbEntity
  8
DRAFT
100
AcDbLine
 62
7
  6
CONTINUOUS
 10
10.85
 20
14.963457922
 11
11.9888391355
 21
14.963457922
  0
LINE
  5
28A
100
AcDbEntity
  8
DRAFT
100
AcDbLine
 62
7
  6
CONTINUOUS
 10
-10.85
 20
14.963457922
 11
-11.9888299641
 21
14.963457922
  0
LINE
  5
28B
100
AcDbEntity
  8
DRAFT
100
AcDbLine
 62
7
  6
CONTINUOUS
 10
-1.5
 20
15.1869096983
 11
1.5
 21
15.1869096983
  0
LINE
  5
28C
100
AcDbEntity
  8
DRAFT
100
AcDbLine
 62
7
  6
CONTINUOUS
 10
-1.5
 20
15.2
 11
1.5
 21
15.2
  0
LINE
  5
28D
100
AcDbEntity
  8
RACCORDO
100
AcDbLine
 62
7
  6
CONTINUOUS
 10
-11.85
 20
20.35
 11
-11.9573363253
 21
20.3767931924
  0
LINE
  5
28E
100
AcDbEntity
  8
RACCORDO
100
AcDbLine
 62
253
  6
CONTINUOUS
 10
-11.114414245
 20
22.5319857453
 11
-10.7499983637
 21
22.35
  0
LINE
  5
28F
100
AcDbEntity
  8
DRAFT
100
AcDbLine
 62
7
  6
CONTINUOUS
 10
10.6865277502
 20
-22.4769831887
 11
10.75
 21
-22.35
  0
LINE
  5
290
100
AcDbEntity
  8
RACCORDO
100
AcDbLine
 62
7
  6
CONTINUOUS
 10
-11.85
 20
15.35
 11
-11.9573363253
 21
15.3232068076
  0
LINE
  5
291
100
AcDbEntity
  8
RACCORDO
100
AcDbLine
 62
7
  6
CONTINUOUS
 10
11.9573363253
 20
15.3232068076
 11
11.85
 21
15.35
  0
LINE
  5
292
100
AcDbEntity
  8
DRAFT
100
AcDbLine
 62
7
  6
CONTINUOUS
 10
10.85
 20
20.736542078
 11
11.9888299641
 21
20.736542078
  0
LINE
  5
293
100
AcDbEntity
  8
DRAFT
100
AcDbLine
 62
7
  6
CONTINUOUS
 10
-10.85
 20
20.736542078
 11
-11.9888391355
 21
20.736542078
  0
LINE
  5
294
100
AcDbEntity
  8
DRAFT
100
AcDbLine
 62
7
  6
CONTINUOUS
 10
-11.8456203496
 20
21.35
 11
-10.4
 21
21.35
  0
LINE
  5
295
100
AcDbEntity
  8
DRAFT
100
AcDbLine
 62
7
  6
CONTINUOUS
 10
11.8456203496
 20
21.35
 11
10.4
 21
21.35
  0
LINE
  5
296
100
AcDbEntity
  8
RACCORDO
100
AcDbLine
 62
7
  6
CONTINUOUS
 10
-10.7499983637
 20
22.35
 11
10.7499983637
 21
22.35
  0
LINE
  5
297
100
AcDbEntity
  8
RACCORDO
100
AcDbLine
 62
253
  6
CONTINUOUS
 10
-11.114414245
 20
22.5319857453
 11
11.114414245
 21
22.5319857453
  0
LINE
  5
298
100
AcDbEntity
  8
RACCORDO
100
AcDbLine
 62
253
  6
CONTINUOUS
 10
-11.114414245
 20
22.6904032706
 11
11.114414245
 21
22.6904032706
  0
LINE
  5
299
100
AcDbEntity
  8
RACCORDO
100
AcDbLine
 62
253
  6
CONTINUOUS
 10
28.4144652397
 20
39.4130947744
 11
28.4144652397
 21
38.5107420949
  0
LINE
  5
29A
100
AcDbEntity
  8
RACCORDO
100
AcDbLine
 62
253
  6
CONTINUOUS
 10
28.4144652397
 20
-39.4130947744
 11
28.4144652397
 21
-38.5107420949
  0
LINE
  5
29B
100
AcDbEntity
  8
RACCORDO
100
AcDbLine
 62
7
  6
CONTINUOUS
 10
30.0
 20
-39.0013704652
 11
30.0
 21
39.0013704652
  0
LWPOLYLINE
  5
29C
100
AcDbEntity
  8
0
100
AcDbPolyline
 62
7
  6
CONTINUOUS
 90
13
 70
0
 43
0.3500000006
 10
35.5357150955
 20
-1.9285708809
 10
35.3214283447
 20
-2.2142854156
 10
34.6785703583
 20
-2.2142854156
 10
34.2499991226
 20
-1.9285708809
 10
34.2499991226
 20
-1.2857140274
 10
34.6785703583
 20
-1.0000006256
 10
35.3214283447
 20
-1.0000006256
 10
35.5357150955
 20
-1.2857140274
 10
35.9642863312
 20
-0.8571427917
 10
36.8214288025
 20
-0.8571427917
 10
37.2500000381
 20
-1.2857140274
 10
37.2500000381
 20
-1.9285708809
 10
36.8214288025
 20
-2.3571432495
  0
LINE
  5
29D
100
AcDbEntity
  8
RACCORDO
100
AcDbLine
 62
253
  6
CONTINUOUS
 10
-28.4144627604
 20
38.5107420949
 11
28.4144627604
 21
38.5107420949
  0
LINE
  5
29E
100
AcDbEntity
  8
RACCORDO
100
AcDbLine
 62
253
  6
CONTINUOUS
 10
-28.4144652397
 20
39.4130947744
 11
28.4144652397
 21
39.4130947744
  0
LINE
  5
29F
100
AcDbEntity
  8
RACCORDO
100
AcDbLine
 62
7
  6
CONTINUOUS
 10
29.0013704652
 20
40.0
 11
-29.0013704652
 21
40.0
  0
LINE
  5
2A0
100
AcDbEntity
  8
RACCORDO
100
AcDbLine
 62
7
  6
CONTINUOUS
 10
-61.7915443965
 20
-39.4130947744
 11
-50.5927255648
 21
-40.0
  0
LINE
  5
2A1
100
AcDbEntity
  8
RACCORDO
100
AcDbLine
 62
253
  6
CONTINUOUS
 10
-61.791546088
 20
-38.414465151
 11
-50.5927255648
 21
-39.0013704652
  0
LWPOLYLINE
  5
2A2
100
AcDbEntity
  8
0
100
AcDbPolyline
 62
7
  6
CONTINUOUS
 90
3
 70
0
 43
0.3500000006
 10
-59.6284420166
 20
50.8928594055
 10
-58.7712950134
 20
51.7500018768
 10
-58.7712950134
 20
48.7500009613
  0
LWPOLYLINE
  5
2A3
100
AcDbEntity
  8
0
100
AcDbPolyline
 62
7
  6
CONTINUOUS
 90
2
 70
0
 43
0.3500000006
 10
-56.9141522369
 20
48.7500009613
 10
-56.9141522369
 20
50.2500014191
  0
LINE
  5
2A4
100
AcDbEntity
  8
RACCORDO
100
AcDbLine
 62
7
  6
CONTINUOUS
 10
-50.5927255648
 20
-40.0
 11
-50.5927255648
 21
40.0
  0
LINE
  5
2A5
100
AcDbEntity
  8
RACCORDO
100
AcDbLine
 62
253
  6
CONTINUOUS
 10
-61.7915461635
 20
38.4144651471
 11
-50.5927255648
 21
39.0013704652
  0
LINE
  5
2A6
100
AcDbEntity
  8
RACCORDO
100
AcDbLine
 62
7
  6
CONTINUOUS
 10
-61.7915443965
 20
39.4130947744
 11
-50.5927255648
 21
40.0
  0
LWPOLYLINE
  5
2A7
100
AcDbEntity
  8
0
100
AcDbPolyline
 62
7
  6
CONTINUOUS
 90
3
 70
0
 43
0.3500000006
 10
-56.4141520844
 20
49.3928589478
 10
-57.9141525421
 20
49.3928589478
 10
-57.2712990875
 20
51.7500018768
  0
ARC
  5
2A8
100
AcDbEntity
  8
RACCORDO
100
AcDbCircle
 62
253
  6
CONTINUOUS
 10
-7658.0475985083
 20
-0.0000215228
 40
7629.730327149
100
AcDbArc
 50
359.7108009026
 51
0.2891994207
  0
ARC
  5
2A9
100
AcDbEntity
  8
RACCORDO
100
AcDbCircle
 62
253
  6
CONTINUOUS
 10
-5704.6730514742
 20
-0.0002893541
 40
5717.082499382
100
AcDbArc
 50
359.8504804936
 51
0.2149183226
  0
ARC
  5
2AA
100
AcDbEntity
  8
RACCORDO
100
AcDbCircle
 62
253
  6
CONTINUOUS
 10
-8.1
 20
-1.0
 40
10.2805838119
100
AcDbArc
 50
317.0779876724
 51
61.1350850947
  0
ARC
  5
2AB
100
AcDbEntity
  8
RACCORDO
100
AcDbCircle
 62
253
  6
CONTINUOUS
 10
-8.1
 20
-1.0
 40
10.0306225216
100
AcDbArc
 50
315.7243119303
 51
63.8274326401
  0
ARC
  5
2AC
100
AcDbEntity
  8
DRAFT
100
AcDbCircle
 62
7
  6
CONTINUOUS
 10
-8.1
 20
-1.0
 40
10.0
100
AcDbArc
 50
315.5634579182
 51
64.206995077
  0
ARC
  5
2AD
100
AcDbEntity
  8
RACCORDO
100
AcDbCircle
 62
253
  6
CONTINUOUS
 10
-10.7970425879
 20
-21.4408104691
 40
1.2495632279
100
AcDbArc
 50
183.0320548874
 51
270.0218344208
  0
ARC
  5
2AE
100
AcDbEntity
  8
RACCORDO
100
AcDbCircle
 62
7
  6
CONTINUOUS
 10
-10.7973051396
 20
-21.4326241345
 40
1.0993175551
100
AcDbArc
 50
183.0434635009
 51
270.0385016498
  0
ARC
  5
2AF
100
AcDbEntity
  8
RACCORDO
100
AcDbCircle
 62
253
  6
CONTINUOUS
 10
-28.4111630649
 20
-38.4111630649
 40
1.0019474641
100
AcDbArc
 50
180.1888352175
 51
269.8111647825
  0
ARC
  5
2B0
100
AcDbEntity
  8
RACCORDO
100
AcDbCircle
 62
253
  6
CONTINUOUS
 10
-7620.6447982212
 20
0.0000003891
 40
7591.3288986793
100
AcDbArc
 50
359.7100644471
 51
0.289935547
  0
ARC
  5
2B1
100
AcDbEntity
  8
RACCORDO
100
AcDbCircle
 62
253
  6
CONTINUOUS
 10
-5700.4147756474
 20
0.000083533
 40
5712.6745884003
100
AcDbArc
 50
359.850469374
 51
0.2149997604
  0
ARC
  5
2B2
100
AcDbEntity
  8
DRAFT
100
AcDbCircle
 62
7
  6
CONTINUOUS
 10
-1.5
 20
13.5
 40
1.7
100
AcDbArc
 50
90.0
 51
270.0
  0
ARC
  5
2B3
100
AcDbEntity
  8
DRAFT
100
AcDbCircle
 62
7
  6
CONTINUOUS
 10
-1.5
 20
13.5
 40
1.6869096983
100
AcDbArc
 50
90.0
 51
270.0
  0
ARC
  5
2B4
100
AcDbEntity
  8
RACCORDO
100
AcDbCircle
 62
253
  6
CONTINUOUS
 10
-28.4111630647
 20
38.4111630647
 40
1.0019474643
100
AcDbArc
 50
90.1888352274
 51
179.8111647726
  0
ARC
  5
2B5
100
AcDbEntity
  8
RACCORDO
100
AcDbCircle
 62
253
  6
CONTINUOUS
 10
7658.0336642632
 20
-0.0000215228
 40
7629.7163930813
100
AcDbArc
 50
179.7108000512
 51
180.2891996256
  0
ARC
  5
2B6
100
AcDbEntity
  8
RACCORDO
100
AcDbCircle
 62
253
  6
CONTINUOUS
 10
5704.6730532117
 20
-0.0002893555
 40
5717.0825011195
100
AcDbArc
 50
179.7850816774
 51
180.1495195063
  0
ARC
  5
2B7
100
AcDbEntity
  8
RACCORDO
100
AcDbCircle
 62
253
  6
CONTINUOUS
 10
5.0
 20
-12.5
 40
6.2314480753
100
AcDbArc
 50
129.8055710923
 51
133.7604443644
  0
ARC
  5
2B8
100
AcDbEntity
  8
RACCORDO
100
AcDbCircle
 62
253
  6
CONTINUOUS
 10
5.0
 20
-12.5
 40
6.031480043
100
AcDbArc
 50
129.8055710923
 51
131.7132349441
  0
ARC
  5
2B9
100
AcDbEntity
  8
DRAFT
100
AcDbCircle
 62
7
  6
CONTINUOUS
 10
5.0
 20
-12.5
 40
6.0
100
AcDbArc
 50
129.8055710923
 51
131.3760119892
  0
CIRCLE
  5
2BA
100
AcDbEntity
  8
RACCORDO
100
AcDbCircle
 62
253
  6
CONTINUOUS
 10
5.0
 20
-12.5
 40
3.9639910259
  0
CIRCLE
  5
2BB
100
AcDbEntity
  8
RACCORDO
100
AcDbCircle
 62
253
  6
CONTINUOUS
 10
5.0
 20
-12.5
 40
3.7640249774
  0
CIRCLE
  5
2BC
100
AcDbEntity
  8
DRAFT
100
AcDbCircle
 62
7
  6
CONTINUOUS
 10
5.0
 20
-12.5
 40
3.75
  0
CIRCLE
  5
2BD
100
AcDbEntity
  8
DRAFT
100
AcDbCircle
 62
7
  6
CONTINUOUS
 10
5.0
 20
-12.5
 40
3.5
  0
CIRCLE
  5
2BE
100
AcDbEntity
  8
RACCORDO
100
AcDbCircle
 62
7
  6
CONTINUOUS
 10
5.0
 20
-12.5
 40
3.454164905
  0
CIRCLE
  5
2BF
100
AcDbEntity
  8
RACCORDO
100
AcDbCircle
 62
253
  6
CONTINUOUS
 10
5.0
 20
-12.5
 40
3.2041712111
  0
ARC
  5
2C0
100
AcDbEntity
  8
RACCORDO
100
AcDbCircle
 62
253
  6
CONTINUOUS
 10
10.7970425849
 20
-21.4408104745
 40
1.2495632271
100
AcDbArc
 50
269.9781657156
 51
356.967945365
  0
ARC
  5
2C1
100
AcDbEntity
  8
RACCORDO
100
AcDbCircle
 62
7
  6
CONTINUOUS
 10
10.7973051466
 20
-21.4326241294
 40
1.0993175544
100
AcDbArc
 50
269.9614979858
 51
356.9565362113
  0
ARC
  5
2C2
100
AcDbEntity
  8
RACCORDO
100
AcDbCircle
 62
253
  6
CONTINUOUS
 10
28.4111622928
 20
-38.4111629364
 40
1.0019478049
100
AcDbArc
 50
270.1888793448
 51
359.8111575765
  0
ARC
  5
2C3
100
AcDbEntity
  8
RACCORDO
100
AcDbCircle
 62
253
  6
CONTINUOUS
 10
7620.6452074414
 20
0.0000003891
 40
7591.3293078943
100
AcDbArc
 50
179.7100644687
 51
180.2899355372
  0
ARC
  5
2C4
100
AcDbEntity
  8
RACCORDO
100
AcDbCircle
 62
253
  6
CONTINUOUS
 10
5700.4147761759
 20
0.000083532
 40
5712.6745889288
100
AcDbArc
 50
179.7850002396
 51
180.149530626
  0
CIRCLE
  5
2C5
100
AcDbEntity
  8
RACCORDO
100
AcDbCircle
 62
253
  6
CONTINUOUS
 10
-0.0
 20
13.5
 40
3.4639903991
  0
CIRCLE
  5
2C6
100
AcDbEntity
  8
RACCORDO
100
AcDbCircle
 62
253
  6
CONTINUOUS
 10
-0.0
 20
13.5
 40
3.2640249772
  0
CIRCLE
  5
2C7
100
AcDbEntity
  8
DRAFT
100
AcDbCircle
 62
7
  6
CONTINUOUS
 10
-0.0
 20
13.5
 40
3.25
  0
ARC
  5
2C8
100
AcDbEntity
  8
DRAFT
100
AcDbCircle
 62
7
  6
CONTINUOUS
 10
-0.0
 20
13.5
 40
3.2479977728
100
AcDbArc
 50
192.4458831507
 51
347.5541168493
  0
ARC
  5
2C9
100
AcDbEntity
  8
DRAFT
100
AcDbCircle
 62
7
  6
CONTINUOUS
 10
-0.0
 20
13.5
 40
3.2479977728
100
AcDbArc
 50
12.4458831507
 51
81.1446175495
  0
ARC
  5
2CA
100
AcDbEntity
  8
DRAFT
100
AcDbCircle
 62
7
  6
CONTINUOUS
 10
-0.0
 20
13.5
 40
3.2479977728
100
AcDbArc
 50
98.8553824505
 51
167.5541168493
  0
CIRCLE
  5
2CB
100
AcDbEntity
  8
DRAFT
100
AcDbCircle
 62
7
  6
CONTINUOUS
 10
-0.0
 20
13.5
 40
3.2
  0
ARC
  5
2CC
100
AcDbEntity
  8
DRAFT
100
AcDbCircle
 62
7
  6
CONTINUOUS
 10
1.5
 20
13.5
 40
1.7
100
AcDbArc
 50
270.0
 51
90.0
  0
ARC
  5
2CD
100
AcDbEntity
  8
DRAFT
100
AcDbCircle
 62
7
  6
CONTINUOUS
 10
1.5
 20
13.5
 40
1.6869096983
100
AcDbArc
 50
270.0
 51
90.0
  0
CIRCLE
  5
2CE
100
AcDbEntity
  8
DRAFT
100
AcDbCircle
 62
7
  6
CONTINUOUS
 10
-0.0
 20
13.5
 40
1.4674537356
  0
CIRCLE
  5
2CF
100
AcDbEntity
  8
DRAFT
100
AcDbCircle
 62
7
  6
CONTINUOUS
 10
-0.0
 20
13.5
 40
1.45
  0
CIRCLE
  5
2D0
100
AcDbEntity
  8
DRAFT
100
AcDbCircle
 62
7
  6
CONTINUOUS
 10
-0.0
 20
13.5
 40
1.25
  0
CIRCLE
  5
2D1
100
AcDbEntity
  8
DRAFT
100
AcDbCircle
 62
7
  6
CONTINUOUS
 10
-0.0
 20
13.5
 40
1.1845484916
  0
ARC
  5
2D2
100
AcDbEntity
  8
RACCORDO
100
AcDbCircle
 62
253
  6
CONTINUOUS
 10
28.4111629356
 20
38.4111623142
 40
1.001947803
100
AcDbArc
 50
0.1888781241
 51
89.81115753
  0
ARC
  5
2D3
100
AcDbEntity
  8
RACCORDO
100
AcDbCircle
 62
7
  6
CONTINUOUS
 10
335.4072744352
 20
-0.0
 40
400.0
100
AcDbArc
 50
174.475184874
 51
185.524815126
  0
ARC
  5
2D4
100
AcDbEntity
  8
RACCORDO
100
AcDbCircle
 62
253
  6
CONTINUOUS
 10
335.3563355267
 20
0.0000003884
 40
399.0013922704
100
AcDbArc
 50
174.4752042816
 51
185.524795831
  0
ARC
  5
2D5
100
AcDbEntity
  8
RACCORDO
100
AcDbCircle
 62
7
  6
CONTINUOUS
 10
-61.7392084403
 20
-38.4144652397
 40
1.0
100
AcDbArc
 50
185.524815126
 51
267.0
  0
ARC
  5
2D6
100
AcDbEntity
  8
RACCORDO
100
AcDbCircle
 62
7
  6
CONTINUOUS
 10
-61.7392084403
 20
38.4144652397
 40
1.0
100
AcDbArc
 50
93.0
 51
174.475184874
  0
SPLINE
  5
2D7
100
AcDbEntity
  8
RACCORDO
100
AcDbSpline
 62
253
  6
CONTINUOUS
 70
0
 71
3
 72
16
 73
12
 74
10
 42
0.0000001
 43
0.0000001
 44
0.0000000001
 12
-0.5892623643
 22
0.8197067733
 32
0.0
 13
-1.0094985203
 23
-0.0078781884
 33
0.0
 40
0.0
 40
0.0
 40
0.0
 40
0.0
 40
0.0122057777
 40
0.032582768
 40
0.0610461227
 40
0.0974183415
 40
0.1931218646
 40
0.3172727333
 40
0.4655342197
 40
0.6327580648
 40
1.0
 40
1.0
 40
1.0
 40
1.0
 10
29.4130947744
 20
38.4144652396
 30
0.0
 10
29.410697306
 20
38.4178002925
 30
0.0
 10
29.4013795906
 20
38.4242172595
 30
0.0
 10
29.3830411629
 20
38.4331899847
 30
0.0
 10
29.3558080315
 20
38.4426030986
 30
0.0
 10
29.303328328
 20
38.4554498647
 30
0.0
 10
29.2179496883
 20
38.4684034423
 30
0.0
 10
29.0948700351
 20
38.4822217815
 30
0.0
 10
28.9473434116
 20
38.4938859022
 30
0.0
 10
28.7179043722
 20
38.5054535607
 30
0.0
 10
28.5380419698
 20
38.5117064954
 30
0.0
 10
28.4144652397
 20
38.510742095
 30
0.0
 11
29.4130947744
 21
38.4144652396
 31
0.0
 11
29.4036503281
 21
38.4223795513
 31
0.0
 11
29.3853072028
 21
38.4316909801
 31
0.0
 11
29.3582443348
 21
38.4413490233
 31
0.0
 11
29.3226602458
 21
38.4504068541
 31
0.0
 11
29.2273814985
 21
38.466422986
 31
0.0
 11
29.1028626847
 21
38.480693943
 31
0.0
 11
28.9536718719
 21
38.4927147619
 31
0.0
 11
28.7850986281
 21
38.5017902263
 31
0.0
 11
28.4144652397
 21
38.510742095
 31
0.0
  0
SPLINE
  5
2D8
100
AcDbEntity
  8
RACCORDO
100
AcDbSpline
 62
253
  6
CONTINUOUS
 70
0
 71
3
 72
15
 73
11
 74
9
 42
0.0000001
 43
0.0000001
 44
0.0000000001
 12
-0.4809512018
 22
-0.8879622733
 32
0.0
 13
-1.0098331193
 23
-0.0053036388
 33
0.0
 40
0.0
 40
0.0
 40
0.0
 40
0.0
 40
0.0129808579
 40
0.0332307783
 40
0.0976509465
 40
0.1933560398
 40
0.3174770308
 40
0.4656870074
 40
0.6328615276
 40
1.0
 40
1.0
 40
1.0
 40
1.0
 10
29.4130947744
 20
-38.4144652396
 30
0.0
 10
29.4110137214
 20
-38.4183074103
 30
0.0
 10
29.4017745099
 20
-38.4255620035
 30
0.0
 10
29.3719335764
 20
-38.4389167193
 30
0.0
 10
29.3123660819
 20
-38.4532816196
 30
0.0
 10
29.2180997329
 20
-38.468579077
 30
0.0
 10
29.0948385493
 20
-38.4822265545
 30
0.0
 10
28.9473649426
 20
-38.4938288359
 30
0.0
 10
28.717914181
 20
-38.5060811344
 30
0.0
 10
28.5380481026
 20
-38.5100930384
 30
0.0
 10
28.4144652397
 20
-38.510742095
 30
0.0
 11
29.4130947744
 21
-38.4144652396
 31
0.0
 11
29.4036558124
 21
-38.4235615857
 31
0.0
 11
29.3853120613
 21
-38.4325993718
 31
0.0
 11
29.3226615552
 21
-38.4501209078
 31
0.0
 11
29.2273868126
 21
-38.4663524759
 31
0.0
 11
29.1028707906
 21
-38.4807289183
 31
0.0
 11
28.953684101
 21
-38.4927398753
 31
0.0
 11
28.7851145664
 21
-38.5019452649
 31
0.0
 11
28.4144652397
 21
-38.510742095
 31
0.0
  0
SPLINE
  5
2D9
100
AcDbEntity
  8
RACCORDO
100
AcDbSpline
 62
253
  6
CONTINUOUS
 70
0
 71
3
 72
16
 73
12
 74
10
 42
0.0000001
 43
0.0000001
 44
0.0000000001
 12
0.4019509231
 22
0.9269171635
 32
0.0
 13
1.0098760895
 23
0.0298371659
 33
0.0
 40
0.0
 40
0.0
 40
0.0
 40
0.0
 40
0.013802139
 40
0.0339160167
 40
0.0980062865
 40
0.1937022111
 40
0.3177725597
 40
0.4659166676
 40
0.633024577
 40
0.8133592007
 40
1.0
 40
1.0
 40
1.0
 40
1.0
 10
-29.4130947744
 20
38.4144652396
 30
0.0
 10
-29.4112455136
 20
38.4187297194
 30
0.0
 10
-29.4022511227
 20
38.4268997459
 30
0.0
 10
-29.3717062297
 20
38.4393017325
 30
0.0
 10
-29.3122476866
 20
38.4526047295
 30
0.0
 10
-29.2181381492
 20
38.4687631157
 30
0.0
 10
-29.0948432286
 20
38.4821671173
 30
0.0
 10
-28.9473711336
 20
38.4937906974
 30
0.0
 10
-28.7807141126
 20
38.503460528
 30
0.0
 10
-28.6008759667
 20
38.5074460251
 30
0.0
 10
-28.4772932665
 20
38.5088858175
 30
0.0
 10
-28.4144652397
 20
38.510742095
 30
0.0
 11
-29.4130947744
 21
38.4144652396
 31
0.0
 11
-29.4036639772
 21
38.4247370481
 31
0.0
 11
-29.3853214776
 21
38.4334841341
 31
0.0
 11
-29.3226671442
 21
38.4498300182
 31
0.0
 11
-29.2273960721
 21
38.466294023
 31
0.0
 11
-29.1028792866
 21
38.4807259774
 31
0.0
 11
-28.9536950451
 21
38.4928053927
 31
0.0
 11
-28.7851266025
 21
38.5022339875
 31
0.0
 11
-28.6029961092
 21
38.5070853558
 31
0.0
 11
-28.4144652397
 21
38.510742095
 31
0.0
  0
SPLINE
  5
2DA
100
AcDbEntity
  8
RACCORDO
100
AcDbSpline
 62
253
  6
CONTINUOUS
 70
0
 71
3
 72
16
 73
12
 74
10
 42
0.0000001
 43
0.0000001
 44
0.0000000001
 12
0.401950218
 22
-0.9269175057
 32
0.0
 13
1.0098761304
 23
-0.0298369144
 33
0.0
 40
0.0
 40
0.0
 40
0.0
 40
0.0
 40
0.0138021547
 40
0.03391604
 40
0.0980063152
 40
0.1937022397
 40
0.3177725849
 40
0.4659166875
 40
0.6330245904
 40
0.8133592072
 40
1.0
 40
1.0
 40
1.0
 40
1.0
 10
-29.4130947744
 20
-38.4144652396
 30
0.0
 10
-29.4112455147
 20
-38.4187297259
 30
0.0
 10
-29.4022511289
 20
-38.4268997699
 30
0.0
 10
-29.371706234
 20
-38.4393017868
 30
0.0
 10
-29.3122476899
 20
-38.4526048071
 30
0.0
 10
-29.218138151
 20
-38.4687632107
 30
0.0
 10
-29.0948432297
 20
-38.4821672171
 30
0.0
 10
-28.9473711343
 20
-38.4937907901
 30
0.0
 10
-28.7807141129
 20
-38.5034606013
 30
0.0
 10
-28.6008759669
 20
-38.5074460681
 30
0.0
 10
-28.4772932669
 20
-38.5088858332
 30
0.0
 10
-28.4144652397
 20
-38.510742095
 30
0.0
 11
-29.4130947744
 21
-38.4144652396
 31
0.0
 11
-29.4036639773
 21
-38.4247370704
 31
0.0
 11
-29.3853214778
 21
-38.4334841759
 31
0.0
 11
-29.3226671446
 21
-38.4498300906
 31
0.0
 11
-29.2273960725
 21
-38.4662941145
 31
0.0
 11
-29.1028792871
 21
-38.4807260753
 31
0.0
 11
-28.9536950456
 21
-38.4928054842
 31
0.0
 11
-28.7851266028
 21
-38.50223406
 31
0.0
 11
-28.6029961097
 21
-38.5070853976
 31
0.0
 11
-28.4144652397
 21
-38.510742095
 31
0.0
  0
SPLINE
  5
2DB
100
AcDbEntity
  8
RACCORDO
100
AcDbSpline
 62
7
  6
CONTINUOUS
 70
0
 71
3
 72
13
 73
9
 74
7
 42
0.0000001
 43
0.0000001
 44
0.0000000001
 12
-0.1308544386
 22
-0.0734229834
 32
0.0
 13
-0.1499895423
 23
-0.0041177421
 33
0.0
 40
0.0
 40
0.0
 40
0.0
 40
0.0
 40
0.0315731437
 40
0.0965627183
 40
0.1929288507
 40
0.3175910754
 40
0.6338869624
 40
1.0
 40
1.0
 40
1.0
 40
1.0
 10
-12.2403608766
 20
-14.9088380436
 30
0.0
 10
-12.2417380386
 20
-14.9096107751
 30
0.0
 10
-12.2466967824
 20
-14.910174934
 30
0.0
 10
-12.2561283414
 20
-14.911554991
 30
0.0
 10
-12.270455326
 20
-14.9126704569
 30
0.0
 10
-12.2972309872
 20
-14.9145459498
 30
0.0
 10
-12.3375774413
 20
-14.9164637652
 30
0.0
 10
-12.3716813813
 20
-14.917647649
 30
0.0
 10
-12.3899857569
 20
-14.9181501687
 30
0.0
 11
-12.2403608766
 21
-14.9088380436
 31
0.0
 11
-12.2449553013
 21
-14.9099932334
 31
0.0
 11
-12.2546260029
 21
-14.9112453926
 31
0.0
 11
-12.2690270279
 21
-14.9125428952
 31
0.0
 11
-12.2876872276
 21
-14.9138377994
 31
0.0
 11
-12.3350847665
 21
-14.9162513545
 31
0.0
 11
-12.3899857569
 21
-14.9181501687
 31
0.0
  0
SPLINE
  5
2DC
100
AcDbEntity
  8
RACCORDO
100
AcDbSpline
 62
253
  6
CONTINUOUS
 70
0
 71
3
 72
14
 73
10
 74
8
 42
0.0000001
 43
0.0000001
 44
0.0000000001
 12
0.1508883924
 22
0.0078848757
 32
0.0
 13
-0.007918484
 23
0.1508866324
 33
0.0
 40
0.0
 40
0.0
 40
0.0
 40
0.0
 40
0.380294365
 40
0.553088549
 40
0.7041191408
 40
0.8281983987
 40
0.9205066527
 40
0.978047812
 40
1.0
 40
1.0
 40
1.0
 40
1.0
 10
-12.0448133466
 20
-21.5069034159
 30
0.0
 10
-12.0256860115
 20
-21.5059038913
 30
0.0
 10
-11.9978587356
 20
-21.5041736403
 30
0.0
 10
-11.962561842
 20
-21.5013372455
 30
0.0
 10
-11.9399768659
 20
-21.4992104851
 30
0.0
 10
-11.9219446439
 20
-21.4970575419
 30
0.0
 10
-11.907444906
 20
-21.4951455219
 30
0.0
 10
-11.9005321662
 20
-21.4932371849
 30
0.0
 10
-11.8949609726
 20
-21.4920920212
 30
0.0
 10
-11.8950189153
 20
-21.490987924
 30
0.0
 11
-12.0448133466
 21
-21.5069034159
 31
0.0
 11
-11.9874668268
 21
-21.5032891874
 31
0.0
 11
-11.9614436935
 21
-21.5011831924
 31
0.0
 11
-11.9387294387
 21
-21.4989903633
 31
0.0
 11
-11.9201111504
 21
-21.4967916644
 31
0.0
 11
-11.9063265091
 21
-21.4946681306
 31
0.0
 11
-11.8978570206
 21
-21.4927045052
 31
0.0
 11
-11.8950189153
 21
-21.490987924
 31
0.0
  0
SPLINE
  5
2DD
100
AcDbEntity
  8
RACCORDO
100
AcDbSpline
 62
253
  6
CONTINUOUS
 70
0
 71
3
 72
14
 73
10
 74
8
 42
0.0000001
 43
0.0000001
 44
0.0000000001
 12
-0.1509423547
 22
0.0078843295
 32
0.0
 13
0.0079055541
 23
0.1509412445
 33
0.0
 40
0.0
 40
0.0
 40
0.0
 40
0.0
 40
0.3802562152
 40
0.5530493525
 40
0.7040866295
 40
0.8281765445
 40
0.9204956934
 40
0.9780450675
 40
1.0
 40
1.0
 40
1.0
 40
1.0
 10
12.044813341
 20
-21.5069026421
 30
0.0
 10
12.0256810848
 20
-21.505903287
 30
0.0
 10
11.9978458273
 20
-21.5041730884
 30
0.0
 10
11.9625379275
 20
-21.5013365357
 30
0.0
 10
11.939944017
 20
-21.4992094947
 30
0.0
 10
11.9219039671
 20
-21.4970559941
 30
0.0
 10
11.9073973049
 20
-21.4951438457
 30
0.0
 10
11.9004813579
 20
-21.4932344796
 30
0.0
 10
11.8949070674
 20
-21.4920897293
 30
0.0
 10
11.8949649227
 20
-21.4909850944
 30
0.0
 11
12.044813341
 21
-21.5069026421
 31
0.0
 11
11.9874520586
 21
-21.5032886816
 31
0.0
 11
11.9614197617
 21
-21.5011825027
 31
0.0
 11
11.9386963529
 21
-21.4989893264
 31
0.0
 11
11.9200697667
 21
-21.4967901749
 31
0.0
 11
11.9062785055
 21
-21.4946661436
 31
0.0
 11
11.8978046705
 21
-21.4927020459
 31
0.0
 11
11.8949649227
 21
-21.4909850944
 31
0.0
  0
SPLINE
  5
2DE
100
AcDbEntity
  8
RACCORDO
100
AcDbSpline
 62
7
  6
CONTINUOUS
 70
0
 71
3
 72
13
 73
9
 74
7
 42
0.0000001
 43
0.0000001
 44
0.0000000001
 12
0.130854439
 22
-0.0734229827
 32
0.0
 13
0.1499895423
 23
-0.0041177421
 33
0.0
 40
0.0
 40
0.0
 40
0.0
 40
0.0
 40
0.0315731437
 40
0.0965627183
 40
0.1929288506
 40
0.3175910753
 40
0.6338869624
 40
1.0
 40
1.0
 40
1.0
 40
1.0
 10
12.2403608765
 20
-14.9088380439
 30
0.0
 10
12.2417380385
 20
-14.9096107754
 30
0.0
 10
12.2466967824
 20
-14.9101749343
 30
0.0
 10
12.2561283414
 20
-14.9115549913
 30
0.0
 10
12.270455326
 20
-14.9126704572
 30
0.0
 10
12.2972309872
 20
-14.91454595
 30
0.0
 10
12.3375774413
 20
-14.9164637654
 30
0.0
 10
12.3716813813
 20
-14.9176476493
 30
0.0
 10
12.3899857569
 20
-14.918150169
 30
0.0
 11
12.2403608765
 21
-14.9088380439
 31
0.0
 11
12.2449553012
 21
-14.9099932337
 31
0.0
 11
12.2546260029
 21
-14.9112453929
 31
0.0
 11
12.2690270279
 21
-14.9125428955
 31
0.0
 11
12.2876872276
 21
-14.9138377996
 31
0.0
 11
12.3350847665
 21
-14.9162513547
 31
0.0
 11
12.3899857569
 21
-14.918150169
 31
0.0
  0
SPLINE
  5
2DF
100
AcDbEntity
  8
RACCORDO
100
AcDbSpline
 62
253
  6
CONTINUOUS
 70
0
 71
3
 72
11
 73
7
 74
5
 42
0.0000001
 43
0.0000001
 44
0.0000000001
 12
0.0066746764
 22
1.7163596913
 32
0.0
 13
1.7163724432
 23
-0.000881805
 33
0.0
 40
0.0
 40
0.0
 40
0.0
 40
0.0
 40
0.2498559319
 40
0.4997301797
 40
0.7497628513
 40
1.0
 40
1.0
 40
1.0
 40
1.0
 10
-12.2195929748
 20
21.4365801829
 30
0.0
 10
-12.2190370723
 20
21.579527733
 30
0.0
 10
-12.1603532766
 20
21.8683473289
 30
0.0
 10
-11.9135356244
 20
22.2322971004
 30
0.0
 10
-11.5469010337
 20
22.4752967749
 30
0.0
 10
-11.2575809604
 20
22.5320592988
 30
0.0
 10
-11.114414245
 20
22.5319857453
 30
0.0
 11
-12.2195929748
 21
21.4365801829
 31
0.0
 11
-12.1339012348
 21
21.8567774289
 31
0.0
 11
-11.8936593836
 21
22.2120514316
 31
0.0
 11
-11.5358071087
 21
22.4489286634
 31
0.0
 11
-11.114414245
 21
22.5319857453
 31
0.0
  0
SPLINE
  5
2E0
100
AcDbEntity
  8
RACCORDO
100
AcDbSpline
 62
253
  6
CONTINUOUS
 70
0
 71
3
 72
11
 73
7
 74
5
 42
0.0000001
 43
0.0000001
 44
0.0000000001
 12
1.7163724435
 22
0.0008817379
 32
0.0
 13
0.0066747246
 23
-1.7163596915
 33
0.0
 40
0.0
 40
0.0
 40
0.0
 40
0.0
 40
0.2502371486
 40
0.5002698203
 40
0.7501440682
 40
1.0
 40
1.0
 40
1.0
 40
1.0
 10
11.114414245
 20
22.5319857453
 30
0.0
 10
11.2575809604
 20
22.5320592932
 30
0.0
 10
11.5469010342
 20
22.4752967783
 30
0.0
 10
11.9135356237
 20
22.2322970995
 30
0.0
 10
12.1603532791
 20
21.8683473293
 30
0.0
 10
12.2190370682
 20
21.5795277329
 30
0.0
 10
12.2195929748
 20
21.4365801829
 30
0.0
 11
11.114414245
 21
22.5319857453
 31
0.0
 11
11.5358071087
 21
22.4489286639
 31
0.0
 11
11.8936593836
 21
22.2120514316
 31
0.0
 11
12.1339012352
 21
21.8567774289
 31
0.0
 11
12.2195929748
 21
21.4365801829
 31
0.0
  0
SPLINE
  5
2E1
100
AcDbEntity
  8
RACCORDO
100
AcDbSpline
 62
253
  6
CONTINUOUS
 70
0
 71
3
 72
13
 73
9
 74
7
 42
0.0000001
 43
0.0000001
 44
0.0000000001
 12
0.1501604857
 22
-0.000559595
 32
0.0
 13
0.1189038011
 23
-0.0917080732
 33
0.0
 40
0.0
 40
0.0
 40
0.0
 40
0.0
 40
0.3658011408
 40
0.6817862396
 40
0.8063438384
 40
0.9026885039
 40
0.9678222685
 40
1.0
 40
1.0
 40
1.0
 40
1.0
 10
-12.3692275797
 20
21.4446212204
 30
0.0
 10
-12.350917954
 20
21.4445529869
 30
0.0
 10
-12.316805269
 20
21.4440779618
 30
0.0
 10
-12.2764230417
 20
21.4427450251
 30
0.0
 10
-12.2496582827
 20
21.4410299707
 30
0.0
 10
-12.2352800399
 20
21.4398854586
 30
0.0
 10
-12.2259076084
 20
21.4383392339
 30
0.0
 10
-12.2208280116
 20
21.4375637157
 30
0.0
 10
-12.2195526601
 20
21.4365800632
 30
0.0
 11
-12.3692275797
 21
21.4446212204
 31
0.0
 11
-12.3143036578
 21
21.4438555602
 31
0.0
 11
-12.2668881138
 21
21.4420792388
 31
0.0
 11
-12.2482226361
 21
21.440883179
 31
0.0
 11
-12.2338186454
 21
21.4395316138
 31
0.0
 11
-12.2241468704
 21
21.4380767517
 31
0.0
 11
-12.2195526601
 21
21.4365800632
 31
0.0
  0
SPLINE
  5
2E2
100
AcDbEntity
  8
RACCORDO
100
AcDbSpline
 62
7
  6
CONTINUOUS
 70
0
 71
3
 72
9
 73
5
 74
3
 42
0.0000001
 43
0.0000001
 44
0.0000000001
 12
0.0064471592
 22
0.0036175285
 32
0.0
 13
0.0003868964
 23
-0.0073825934
 33
0.0
 40
0.0
 40
0.0
 40
0.0
 40
0.0
 40
0.3265377214
 40
1.0
 40
1.0
 40
1.0
 40
1.0
 10
-12.2403580644
 20
-14.9088477203
 30
0.0
 10
-12.2396563175
 20
-14.9084539672
 30
0.0
 10
-12.2402433171
 20
-14.913271839
 30
0.0
 10
-12.2396763804
 20
-14.9145316842
 30
0.0
 10
-12.239589527
 20
-14.9161889836
 30
0.0
 11
-12.2403580644
 21
-14.9088477203
 31
0.0
 11
-12.2399166319
 21
-14.9112210197
 31
0.0
 11
-12.239589527
 21
-14.9161889836
 31
0.0
  0
SPLINE
  5
2E3
100
AcDbEntity
  8
RACCORDO
100
AcDbSpline
 62
253
  6
CONTINUOUS
 70
0
 71
3
 72
13
 73
9
 74
7
 42
0.0000001
 43
0.0000001
 44
0.0000000001
 12
-0.1501202799
 22
-0.0005619781
 32
0.0
 13
-0.1188545609
 23
-0.0917060936
 33
0.0
 40
0.0
 40
0.0
 40
0.0
 40
0.0
 40
0.3658308948
 40
0.681813929
 40
0.8063640992
 40
0.9027003411
 40
0.9678267235
 40
1.0
 40
1.0
 40
1.0
 40
1.0
 10
12.3692275829
 20
21.4446218065
 30
0.0
 10
12.3509213708
 20
21.4445532769
 30
0.0
 10
12.3168164475
 20
21.4440778428
 30
0.0
 10
12.2764440137
 20
21.4427446019
 30
0.0
 10
12.2496873782
 20
21.441029514
 30
0.0
 10
12.2353141205
 20
21.4398850486
 30
0.0
 10
12.2259453506
 20
21.4383390347
 30
0.0
 10
12.2208676222
 20
21.4375635409
 30
0.0
 10
12.2195929754
 20
21.4365800458
 30
0.0
 11
12.3692275829
 21
21.4446218065
 31
0.0
 11
12.3143139095
 21
21.4438554139
 31
0.0
 11
12.266911398
 21
21.4420787772
 31
0.0
 11
12.2482520548
 21
21.4408827176
 31
0.0
 11
12.2338532154
 21
21.4395312445
 31
0.0
 11
12.2241851847
 21
21.4380765418
 31
0.0
 11
12.2195929754
 21
21.4365800458
 31
0.0
  0
SPLINE
  5
2E4
100
AcDbEntity
  8
RACCORDO
100
AcDbSpline
 62
253
  6
CONTINUOUS
 70
0
 71
3
 72
17
 73
13
 74
11
 42
0.0000001
 43
0.0000001
 44
0.0000000001
 12
0.263428247
 22
-0.1315535034
 32
0.0
 13
0.263428247
 23
-0.1315535034
 33
0.0
 40
0.0
 40
0.0
 40
0.0
 40
0.0
 40
0.2488936169
 40
0.3733407497
 40
0.4977805095
 40
0.6222658122
 40
0.6843595454
 40
0.7468770905
 40
0.8086746514
 40
0.8711139557
 40
0.9345315662
 40
1.0
 40
1.0
 40
1.0
 40
1.0
 10
-12.219592975
 20
21.4365801815
 30
0.0
 10
-12.1977377719
 20
21.4256659058
 30
0.0
 10
-12.1649512153
 20
21.4093005733
 30
0.0
 10
-12.1212513818
 20
21.3874559568
 30
0.0
 10
-12.088436391
 20
21.3711311273
 30
0.0
 10
-12.0612085148
 20
21.3573614043
 30
0.0
 10
-12.0391990997
 20
21.3466419874
 30
0.0
 10
-12.0230362761
 20
21.3382704371
 30
0.0
 10
-12.0063820066
 20
21.3298026412
 30
0.0
 10
-11.9900480515
 20
21.324294561
 30
0.0
 10
-11.9732723051
 20
21.3043064916
 30
0.0
 10
-11.9630850702
 20
21.3260776749
 30
0.0
 10
-11.9573363253
 20
21.3232068076
 30
0.0
 11
-12.219592975
 21
21.4365801815
 31
0.0
 11
-12.1540273834
 21
21.403837319
 31
0.0
 11
-12.1212445876
 21
21.3874656741
 31
0.0
 11
-12.0884617933
 21
21.3710988858
 31
0.0
 11
-12.0556789893
 21
21.354702117
 31
0.0
 11
-12.0392876193
 21
21.3466021658
 31
0.0
 11
-12.022896159
 21
21.3382245128
 31
0.0
 11
-12.0065048535
 21
21.3303232472
 31
0.0
 11
-11.9901134098
 21
21.3219963053
 31
0.0
 11
-11.9737217653
 21
21.3130516671
 31
0.0
 11
-11.9573363253
 21
21.3232068076
 31
0.0
  0
SPLINE
  5
2E5
100
AcDbEntity
  8
RACCORDO
100
AcDbSpline
 62
7
  6
CONTINUOUS
 70
0
 71
3
 72
9
 73
5
 74
3
 42
0.0000001
 43
0.0000001
 44
0.0000000001
 12
-0.006447159
 22
0.0036175283
 32
0.0
 13
-0.0003868964
 23
-0.0073825931
 33
0.0
 40
0.0
 40
0.0
 40
0.0
 40
0.0
 40
0.3265377144
 40
1.0
 40
1.0
 40
1.0
 40
1.0
 10
12.2403580644
 20
-14.9088477206
 30
0.0
 10
12.2396563175
 20
-14.9084539675
 30
0.0
 10
12.2402433171
 20
-14.9132718391
 30
0.0
 10
12.2396763804
 20
-14.9145316842
 30
0.0
 10
12.239589527
 20
-14.9161889836
 30
0.0
 11
12.2403580644
 21
-14.9088477206
 31
0.0
 11
12.2399166319
 21
-14.9112210198
 31
0.0
 11
12.239589527
 21
-14.9161889836
 31
0.0
  0
SPLINE
  5
2E6
100
AcDbEntity
  8
RACCORDO
100
AcDbSpline
 62
253
  6
CONTINUOUS
 70
0
 71
3
 72
20
 73
16
 74
14
 42
0.0000001
 43
0.0000001
 44
0.0000000001
 12
0.2649074462
 22
0.1322922011
 32
0.0
 13
0.2649074462
 23
0.1322922011
 33
0.0
 40
0.0
 40
0.0
 40
0.0
 40
0.0
 40
0.0328051717
 40
0.067770366
 40
0.0996682213
 40
0.1347672224
 40
0.1651839668
 40
0.195252259
 40
0.257557754
 40
0.3193323062
 40
0.3812176912
 40
0.5049761411
 40
0.62873546
 40
0.7524895515
 40
1.0
 40
1.0
 40
1.0
 40
1.0
 10
11.9573363253
 20
21.3232068076
 30
0.0
 10
11.9602331034
 20
21.3246534304
 30
0.0
 10
11.9658678008
 20
21.3173970331
 30
0.0
 10
11.9731337928
 20
21.3089486425
 30
0.0
 10
11.9825555469
 20
21.3168023012
 30
0.0
 10
11.9893158709
 20
21.3229246151
 30
0.0
 10
11.9983236124
 20
21.3264414185
 30
0.0
 10
12.009470751
 20
21.3310349605
 30
0.0
 10
12.0227533758
 20
21.3385919567
 30
0.0
 10
12.0393241396
 20
21.3464605841
 30
0.0
 10
12.0611189253
 20
21.3574875903
 30
0.0
 10
12.0884650924
 20
21.3710759919
 30
0.0
 10
12.1212394053
 20
21.3874696349
 30
0.0
 10
12.16495511
 20
21.4092905963
 30
0.0
 10
12.1977371881
 20
21.4256656142
 30
0.0
 10
12.219592975
 20
21.4365801815
 30
0.0
 11
11.9573363253
 21
21.3232068076
 31
0.0
 11
11.9655255643
 21
21.317982563
 31
0.0
 11
11.973714007
 21
21.3116469144
 31
0.0
 11
11.9819103517
 21
21.3163404328
 31
0.0
 11
11.9901079107
 21
21.3227289413
 31
0.0
 11
11.9983035685
 21
21.3264636734
 31
0.0
 11
12.0064990429
 21
21.3299426575
 31
0.0
 11
12.0228910719
 21
21.3384079978
 31
0.0
 11
12.0392828517
 21
21.346525512
 31
0.0
 11
12.0556746841
 21
21.3547166032
 31
0.0
 11
12.0884583433
 21
21.3710906346
 31
0.0
 11
12.1212420028
 21
21.387465241
 31
0.0
 11
12.1540256598
 21
21.4038363881
 31
0.0
 11
12.219592975
 21
21.4365801815
 31
0.0
  0
LINE
  5
2E7
100
AcDbEntity
  8
RACCORDO
100
AcDbLine
 62
253
  6
CONTINUOUS
 10
12.3899811036
 20
-14.9196148331
 11
12.0448133467
 21
-21.5069033836
  0
SPLINE
  5
2E8
100
AcDbEntity
  8
RACCORDO
100
AcDbSpline
 62
253
  6
CONTINUOUS
 70
0
 71
3
 72
11
 73
7
 74
5
 42
0.0000001
 43
0.0000001
 44
0.0000000001
 12
1.9502976396
 22
0.0007069713
 32
0.0
 13
0.0071403903
 23
-1.9502846965
 33
0.0
 40
0.0
 40
0.0
 40
0.0
 40
0.0
 40
0.2502027598
 40
0.5002506034
 40
0.7501530823
 40
1.0
 40
1.0
 40
1.0
 40
1.0
 10
11.114414245
 20
22.6904032706
 30
0.0
 10
11.2770708623
 20
22.6904622327
 30
0.0
 10
11.6057899417
 20
22.6256778728
 30
0.0
 10
12.0221110725
 20
22.3491120745
 30
0.0
 10
12.3020960031
 20
21.9352347322
 30
0.0
 10
12.3686329147
 20
21.6070459804
 30
0.0
 10
12.3692275829
 20
21.4446217737
 30
0.0
 11
11.114414245
 21
22.6904032706
 31
0.0
 11
11.5931115224
 21
22.5957273802
 31
0.0
 11
11.999484882
 21
22.3261341159
 31
0.0
 11
12.2720909237
 21
21.922117594
 31
0.0
 11
12.3692275829
 21
21.4446217737
 31
0.0
  0
SPLINE
  5
2E9
100
AcDbEntity
  8
RACCORDO
100
AcDbSpline
 62
253
  6
CONTINUOUS
 70
0
 71
3
 72
11
 73
7
 74
5
 42
0.0000001
 43
0.0000001
 44
0.0000000001
 12
0.0071402541
 22
1.9502846937
 32
0.0
 13
1.9502976362
 23
-0.0007071185
 33
0.0
 40
0.0
 40
0.0
 40
0.0
 40
0.0
 40
0.2498469193
 40
0.4997493965
 40
0.749797241
 40
1.0
 40
1.0
 40
1.0
 40
1.0
 10
-12.3692275829
 20
21.4446217759
 30
0.0
 10
-12.3686329261
 20
21.6070459834
 30
0.0
 10
-12.302095987
 20
21.9352347317
 30
0.0
 10
-12.0221110721
 20
22.3491120787
 30
0.0
 10
-11.6057899408
 20
22.6256778725
 30
0.0
 10
-11.2770708615
 20
22.6904622449
 30
0.0
 10
-11.114414245
 20
22.6904032706
 30
0.0
 11
-12.3692275829
 21
21.4446217759
 31
0.0
 11
-12.2720909163
 21
21.922117597
 31
0.0
 11
-11.9994848799
 21
22.3261341176
 31
0.0
 11
-11.5931115207
 21
22.5957273841
 31
0.0
 11
-11.114414245
 21
22.6904032706
 31
0.0
  0
LINE
  5
2EA
100
AcDbEntity
  8
RACCORDO
100
AcDbLine
 62
253
  6
CONTINUOUS
 10
-12.0448133467
 20
-21.5069033836
 11
-12.3899811036
 21
-14.9196148331
  0
SPLINE
  5
2EB
100
AcDbEntity
  8
RACCORDO
100
AcDbSpline
 62
253
  6
CONTINUOUS
 70
0
 71
3
 72
22
 73
18
 74
16
 42
0.0000001
 43
0.0000001
 44
0.0000000001
 12
-0.9454756259
 22
0.0689280376
 32
0.0
 13
-0.0912689981
 23
-0.9435810529
 33
0.0
 40
0.0
 40
0.0
 40
0.0
 40
0.0
 40
0.1976270996
 40
0.3865652918
 40
0.5593853747
 40
0.7101209604
 40
0.7755260213
 40
0.8334437419
 40
0.8833387138
 40
0.9248093669
 40
0.9574668037
 40
0.9703833252
 40
0.9809933135
 40
0.989277014
 40
0.9952139305
 40
0.9987852387
 40
1.0
 40
1.0
 40
1.0
 40
1.0
 10
-61.7915443965
 20
38.4144652396
 30
0.0
 10
-61.8538282651
 20
38.4190059223
 30
0.0
 10
-61.9754040245
 20
38.4311261218
 30
0.0
 10
-62.1511194544
 20
38.450283907
 30
0.0
 10
-62.3123430505
 20
38.4656073695
 30
0.0
 10
-62.4346367134
 20
38.477891585
 30
0.0
 10
-62.5207761795
 20
38.4868270289
 30
0.0
 10
-62.5752201854
 20
38.4924599505
 30
0.0
 10
-62.6221494297
 20
38.4972853562
 30
0.0
 10
-62.6611105612
 20
38.5014192541
 30
0.0
 10
-62.6884572932
 20
38.5046102871
 30
0.0
 10
-62.7060171843
 20
38.5069528056
 30
0.0
 10
-62.7160432075
 20
38.5084301971
 30
0.0
 10
-62.7236069722
 20
38.5094559415
 30
0.0
 10
-62.7296164237
 20
38.5105726677
 30
0.0
 10
-62.7321881977
 20
38.5104863741
 30
0.0
 10
-62.7345260773
 20
38.5111241702
 30
0.0
 10
-62.734563034
 20
38.510742095
 30
0.0
 11
-61.7915443965
 21
38.4144652396
 31
0.0
 11
-61.9780982938
 21
38.4316909801
 31
0.0
 11
-62.1562283067
 21
38.4504068541
 31
0.0
 11
-62.3192743736
 21
38.466422986
 31
0.0
 11
-62.4614550143
 21
38.480693943
 31
0.0
 11
-62.5231294943
 21
38.4870682039
 31
0.0
 11
-62.5777434909
 21
38.4927147619
 31
0.0
 11
-62.6247917527
 21
38.4975851248
 31
0.0
 11
-62.6638797602
 21
38.5017902263
 31
0.0
 11
-62.6946212217
 21
38.5054517879
 31
0.0
 11
-62.706756794
 21
38.5070826593
 31
0.0
 11
-62.7167134471
 21
38.5085076483
 31
0.0
 11
-62.7244817894
 21
38.5096564205
 31
0.0
 11
-62.7300524291
 21
38.5104586419
 31
0.0
 11
-62.7334159745
 21
38.5108439781
 31
0.0
 11
-62.734563034
 21
38.510742095
 31
0.0
  0
SPLINE
  5
2EC
100
AcDbEntity
  8
RACCORDO
100
AcDbSpline
 62
253
  6
CONTINUOUS
 70
0
 71
3
 72
22
 73
18
 74
16
 42
0.0000001
 43
0.0000001
 44
0.0000000001
 12
-0.9435643706
 22
-0.0912979005
 32
0.0
 13
0.0912676653
 23
-0.9435672957
 33
0.0
 40
0.0
 40
0.0
 40
0.0
 40
0.0
 40
0.1976381624
 40
0.3865532377
 40
0.5593767538
 40
0.7101171431
 40
0.7755227249
 40
0.8334406774
 40
0.8833380331
 40
0.9248110983
 40
0.9574653245
 40
0.9703761518
 40
0.9809793405
 40
0.9892579673
 40
0.9951955084
 40
0.9987769013
 40
1.0
 40
1.0
 40
1.0
 40
1.0
 10
-61.7915443965
 20
-38.4144652396
 30
0.0
 10
-61.8537058393
 20
-38.4204798894
 30
0.0
 10
-61.9752797102
 20
-38.4322998833
 30
0.0
 10
-62.1511900987
 20
-38.4495857802
 30
0.0
 10
-62.312332981
 20
-38.4656191266
 30
0.0
 10
-62.4346215059
 20
-38.4779672869
 30
0.0
 10
-62.5207714797
 20
-38.4868048201
 30
0.0
 10
-62.5752132484
 20
-38.49246203
 30
0.0
 10
-62.6221300704
 20
-38.4974139266
 30
0.0
 10
-62.6610831973
 20
-38.5016256719
 30
0.0
 10
-62.6884433936
 20
-38.5046568453
 30
0.0
 10
-62.706033524
 20
-38.5067262672
 30
0.0
 10
-62.7160911873
 20
-38.5078899453
 30
0.0
 10
-62.7236533167
 20
-38.5089868559
 30
0.0
 10
-62.7297194394
 20
-38.5095183682
 30
0.0
 10
-62.7321958029
 20
-38.5104813356
 30
0.0
 10
-62.7346002438
 20
-38.510357403
 30
0.0
 10
-62.734563034
 20
-38.510742095
 30
0.0
 11
-61.7915443965
 21
-38.4144652396
 31
0.0
 11
-61.9780199769
 21
-38.4325993718
 31
0.0
 11
-62.1562467879
 21
-38.4501209078
 31
0.0
 11
-62.3192724189
 21
-38.4663524759
 31
0.0
 11
-62.4614449151
 21
-38.4807289183
 31
0.0
 11
-62.5231233703
 21
-38.4870605835
 31
0.0
 11
-62.5777333888
 21
-38.4927398753
 31
0.0
 11
-62.6247722819
 21
-38.4977148579
 31
0.0
 11
-62.6638592822
 21
-38.5019452649
 31
0.0
 11
-62.6946220945
 21
-38.5053916371
 31
0.0
 11
-62.7067787702
 21
-38.5068095786
 31
0.0
 11
-62.7167571094
 21
-38.5080202439
 31
0.0
 11
-62.7245409087
 21
-38.5090212306
 31
0.0
 11
-62.7301139648
 21
-38.5098101364
 31
0.0
 11
-62.7334600743
 21
-38.5103845586
 31
0.0
 11
-62.734563034
 21
-38.510742095
 31
0.0
  0
SPLINE
  5
2ED
100
AcDbEntity
  8
RACCORDO
100
AcDbSpline
 62
253
  6
CONTINUOUS
 70
0
 71
3
 72
18
 73
14
 74
12
 42
0.0000001
 43
0.0000001
 44
0.0000000001
 12
-1.0007567137
 22
-0.052447437
 32
0.0
 13
0.0523041726
 23
-1.0007642116
 33
0.0
 40
0.0
 40
0.0
 40
0.0
 40
0.0
 40
0.0070016781
 40
0.0221887184
 40
0.0463922703
 40
0.07962879
 40
0.1216182994
 40
0.1719704546
 40
0.2959534948
 40
0.4468087816
 40
0.6188930426
 40
0.8058715165
 40
1.0
 40
1.0
 40
1.0
 40
1.0
 10
-61.7915443965
 20
39.4130947744
 30
0.0
 10
-61.7938800554
 20
39.4129723677
 30
0.0
 10
-61.7983256647
 20
39.4049040554
 30
0.0
 10
-61.8013686451
 20
39.3909255544
 30
0.0
 10
-61.8051385064
 20
39.3663030773
 30
0.0
 10
-61.8078855319
 20
39.3334579155
 30
0.0
 10
-61.8102601852
 20
39.2914741523
 30
0.0
 10
-61.8126323365
 20
39.2192915266
 30
0.0
 10
-61.8135489686
 20
39.1106265073
 30
0.0
 10
-61.8119711939
 20
38.9613498977
 30
0.0
 10
-61.807716011
 20
38.7910592685
 30
0.0
 10
-61.8009279102
 20
38.6063919614
 30
0.0
 10
-61.7949289731
 20
38.4792241859
 30
0.0
 10
-61.7915443965
 20
38.4144652397
 30
0.0
 11
-61.7915443965
 21
39.4130947744
 31
0.0
 11
-61.7963879489
 21
39.4080181053
 31
0.0
 11
-61.8006970979
 21
39.3934214936
 31
0.0
 11
-61.8044220157
 21
39.3694541149
 31
0.0
 11
-61.8075156837
 21
39.3362907833
 31
0.0
 11
-61.8099503702
 21
39.2942823266
 31
0.0
 11
-61.8117064423
 21
39.2438534827
 31
0.0
 11
-61.8131181172
 21
39.1196143663
 31
0.0
 11
-61.8117068624
 21
38.9684443302
 31
0.0
 11
-61.8075165144
 21
38.7960444305
 31
0.0
 11
-61.8006973234
 21
38.6087918005
 31
0.0
 11
-61.7915443965
 21
38.4144652397
 31
0.0
  0
SPLINE
  5
2EE
100
AcDbEntity
  8
RACCORDO
100
AcDbSpline
 62
253
  6
CONTINUOUS
 70
0
 71
3
 72
18
 73
14
 74
12
 42
0.0000001
 43
0.0000001
 44
0.0000000001
 12
-0.0523041458
 22
-1.0007636989
 32
0.0
 13
1.000756201
 23
-0.0524474101
 33
0.0
 40
0.0
 40
0.0
 40
0.0
 40
0.0
 40
0.1941187752
 40
0.3810810945
 40
0.5531675333
 40
0.7040286459
 40
0.8280144527
 40
0.8783693123
 40
0.9203624084
 40
0.9536006463
 40
0.9778067042
 40
0.9929970494
 40
1.0
 40
1.0
 40
1.0
 40
1.0
 10
-61.7915443965
 20
-38.4144652397
 30
0.0
 10
-61.7949288021
 20
-38.4792209142
 30
0.0
 10
-61.8009277205
 20
-38.6063799773
 30
0.0
 10
-61.807715158
 20
-38.7910392957
 30
0.0
 10
-61.8119707895
 20
-38.9613271035
 30
0.0
 10
-61.8135489331
 20
-39.110607222
 30
0.0
 10
-61.8126326332
 20
-39.2192759843
 30
0.0
 10
-61.8102607795
 20
-39.2914615699
 30
0.0
 10
-61.8078865794
 20
-39.3334480999
 30
0.0
 10
-61.8051390237
 20
-39.3662956181
 30
0.0
 10
-61.8013688348
 20
-39.3909210814
 30
0.0
 10
-61.7983254374
 20
-39.404900815
 30
0.0
 10
-61.7938804786
 20
-39.4129723456
 30
0.0
 10
-61.7915443965
 20
-39.4130947744
 30
0.0
 11
-61.7915443965
 21
-38.4144652397
 31
0.0
 11
-61.8006970861
 21
-38.6087819721
 31
0.0
 11
-61.8075156419
 21
-38.7960183295
 31
0.0
 11
-61.8117064238
 21
-38.9684203134
 31
0.0
 11
-61.8131181196
 21
-39.1195961063
 31
0.0
 11
-61.8117068748
 21
-39.2438379365
 31
0.0
 11
-61.8099510628
 21
-39.2942694755
 31
0.0
 11
-61.8075165306
 21
-39.3362815198
 31
0.0
 11
-61.8044225899
 21
-39.3694465383
 31
0.0
 11
-61.8006973272
 21
-39.3934163923
 31
0.0
 11
-61.7963879997
 21
-39.4080163964
 31
0.0
 11
-61.7915443965
 21
-39.4130947744
 31
0.0
  0
ELLIPSE
  5
2EF
100
AcDbEntity
  8
RACCORDO
100
AcDbEllipse
 62
7
  6
CONTINUOUS
 10
-1.9984241988
 20
13.5
 30
0.0
 11
3.9971528136
 21
0.0
 31
0.0
 40
0.8660473877
 41
7.4495991194
 42
7.4697219794
  0
ELLIPSE
  5
2F0
100
AcDbEntity
  8
RACCORDO
100
AcDbEllipse
 62
7
  6
CONTINUOUS
 10
1.9984241988
 20
13.5
 30
0.0
 11
3.9971528136
 21
-0.0
 31
0.0
 40
0.8660473877
 41
1.9550559814
 42
1.9751788413
  0
ELLIPSE
  5
2F1
100
AcDbEntity
  8
DRAFT
100
AcDbEllipse
 62
7
  6
CONTINUOUS
 10
-0.0
 20
15.4317710701
 30
0.0
 11
-0.0
 21
3.8638364032
 31
0.0
 40
0.8660473877
 41
-1.9167816692
 42
-1.8953720244
  0
ELLIPSE
  5
2F2
100
AcDbEntity
  8
DRAFT
100
AcDbEllipse
 62
7
  6
CONTINUOUS
 10
-0.0
 20
15.4317710701
 30
0.0
 11
0.0
 21
3.8638364032
 31
0.0
 40
0.8660473877
 41
-4.3878132828
 42
-4.366403638
  0
ELLIPSE
  5
2F3
100
AcDbEntity
  8
DRAFT
100
AcDbEllipse
 62
7
  6
CONTINUOUS
 10
-0.0
 20
11.5682289299
 30
0.0
 11
0.0
 21
3.8638364032
 31
0.0
 40
0.8660473877
 41
1.2248109844
 42
1.2462206292
  0
ELLIPSE
  5
2F4
100
AcDbEntity
  8
DRAFT
100
AcDbEllipse
 62
7
  6
CONTINUOUS
 10
-0.0
 20
11.5682289299
 30
0.0
 11
0.0
 21
3.8638364032
 31
0.0
 40
0.8660473877
 41
-1.2462206292
 42
-1.2248109844
  0
ELLIPSE
  5
2F5
100
AcDbEntity
  8
RACCORDO
100
AcDbEllipse
 62
7
  6
CONTINUOUS
 10
-11.9567587399
 20
20.85
 30
0.0
 11
-0.0
 21
0.4732788903
 31
0.0
 40
0.0699268119
 41
0.0174532925
 42
3.1241393611
  0
ELLIPSE
  5
2F6
100
AcDbEntity
  8
RACCORDO
100
AcDbEllipse
 62
7
  6
CONTINUOUS
 10
-11.9567587399
 20
14.85
 30
0.0
 11
0.0
 21
0.4732788903
 31
0.0
 40
0.0699268119
 41
0.0174532925
 42
3.1241393611
  0
ELLIPSE
  5
2F7
100
AcDbEntity
  8
RACCORDO
100
AcDbEllipse
 62
7
  6
CONTINUOUS
 10
11.9567587399
 20
20.85
 30
0.0
 11
-0.0
 21
0.4732788903
 31
0.0
 40
0.0699268119
 41
-3.1241393611
 42
-0.0174532925
  0
ELLIPSE
  5
2F8
100
AcDbEntity
  8
RACCORDO
100
AcDbEllipse
 62
7
  6
CONTINUOUS
 10
11.9567587399
 20
14.85
 30
0.0
 11
-0.0
 21
0.4732788903
 31
0.0
 40
0.0699268119
 41
-3.1241393611
 42
-0.0174532925
  0
ELLIPSE
  5
2F9
100
AcDbEntity
  8
RACCORDO
100
AcDbEllipse
 62
7
  6
CONTINUOUS
 10
28.998627654
 20
-38.998627654
 30
0.0
 11
0.7090462434
 21
-0.7090462434
 31
0.0
 40
0.9972646886
 41
-0.7840286355
 42
0.7840286355
  0
ELLIPSE
  5
2FA
100
AcDbEntity
  8
RACCORDO
100
AcDbEllipse
 62
7
  6
CONTINUOUS
 10
28.998627654
 20
38.998627654
 30
0.0
 11
0.7090462434
 21
0.7090462434
 31
0.0
 40
0.9972646886
 41
-0.7840286355
 42
0.7840286355
  0
ELLIPSE
  5
2FB
100
AcDbEntity
  8
RACCORDO
100
AcDbEllipse
 62
7
  6
CONTINUOUS
 10
-28.998627654
 20
38.998627654
 30
0.0
 11
0.7090462434
 21
-0.7090462434
 31
0.0
 40
0.9972646886
 41
2.3575640181
 42
3.9256212891
  0
ELLIPSE
  5
2FC
100
AcDbEntity
  8
RACCORDO
100
AcDbEllipse
 62
7
  6
CONTINUOUS
 10
-28.998627654
 20
-38.998627654
 30
0.0
 11
0.7090462434
 21
0.7090462434
 31
0.0
 40
0.9972646886
 41
-3.9256212891
 42
-2.3575640181
  0
ELLIPSE
  5
2FD
100
AcDbEntity
  8
RACCORDO
100
AcDbEllipse
 62
7
  6
CONTINUOUS
 10
-10.8817187786
 20
21.3164499838
 30
0.0
 11
1.8347344176
 21
0.2973345059
 31
0.0
 40
0.1170828712
 41
2.1048548748
 42
2.1780245041
  0
ELLIPSE
  5
2FE
100
AcDbEntity
  8
RACCORDO
100
AcDbEllipse
 62
7
  6
CONTINUOUS
 10
10.8817187786
 20
21.3164499838
 30
0.0
 11
1.8347344176
 21
-0.2973345059
 31
0.0
 40
0.1170828712
 41
0.9635681495
 42
1.0367377788
  0
ELLIPSE
  5
2FF
100
AcDbEntity
  8
RACCORDO
100
AcDbEllipse
 62
7
  6
CONTINUOUS
 10
-10.832796305
 20
-20.7413478734
 30
0.0
 11
0.82575909
 21
1.114151692
 31
0.0
 40
0.6134842669
 41
2.5025557702
 42
2.7711301736
  0
ELLIPSE
  5
300
100
AcDbEntity
  8
RACCORDO
100
AcDbEllipse
 62
7
  6
CONTINUOUS
 10
10.832796305
 20
-20.7413478734
 30
0.0
 11
-0.82575909
 21
1.114151692
 31
0.0
 40
0.6134842669
 41
3.5120551335
 42
3.780629537
  0
ELLIPSE
  5
301
100
AcDbEntity
  8
DRAFT
100
AcDbEllipse
 62
7
  6
CONTINUOUS
 10
10.7473139121
 20
21.2493295013
 30
0.0
 11
0.9871113036
 21
0.4929537803
 31
0.0
 40
0.9969593155
 41
-0.3727871651
 42
1.1064182732
  0
ELLIPSE
  5
302
100
AcDbEntity
  8
DRAFT
100
AcDbEllipse
 62
7
  6
CONTINUOUS
 10
-10.7473139121
 20
21.2493295013
 30
0.0
 11
0.9871113036
 21
-0.4929537803
 31
0.0
 40
0.9969593155
 41
2.0351743804
 42
3.5143798187
  0
ELLIPSE
  5
303
100
AcDbEntity
  8
RACCORDO
100
AcDbEllipse
 62
7
  6
CONTINUOUS
 10
10.806174116
 20
-21.2493295013
 30
0.0
 11
-0.0576047394
 21
-1.0991639066
 31
0.0
 40
0.9993891554
 41
6.3355132594
 42
7.5854072305
  0
ELLIPSE
  5
304
100
AcDbEntity
  8
RACCORDO
100
AcDbEllipse
 62
7
  6
CONTINUOUS
 10
-10.806174116
 20
-21.2493295013
 30
0.0
 11
-0.0576047394
 21
1.0991639066
 31
0.0
 40
0.9993891554
 41
8.1225560374
 42
9.3724500086
  0
ENDSEC
  0
SECTION
  2
OBJECTS
  0
DICTIONARY
  5
C
100
AcDbDictionary
280
0
281
1
  3
ACAD_GROUP
350
D
  3
ACAD_MLINESTYLE
350
17
  3
ACAD_LAYOUT
350
1A
  3
ACAD_PLOTSETTINGS
350
19
  3
ACAD_PLOTSTYLENAME
350
E
  0
DICTIONARY
  5
D
102
{ACAD_REACTORS
330
C
102
}
100
AcDbDictionary
280
0
281
1
  0
ACDBDICTIONARYWDFLT
  5
E
102
{ACAD_REACTORS
330
C
102
}
100
AcDbDictionary
281
1
  3
Normal
350
F
100
AcDbDictionaryWithDefault
340
F
  0
DICTIONARY
  5
17
102
{ACAD_REACTORS
330
C
102
}
100
AcDbDictionary
280
0
281
1
  3
Standard
350
18
  0
DICTIONARY
  5
19
102
{ACAD_REACTORS
330
C
102
}
100
AcDbDictionary
281
1
  0
DICTIONARY
  5
1A
102
{ACAD_REACTORS
330
C
102
}
100
AcDbDictionary
281
1
  3
Model
350
305
  3
Layout1
350
306
  0
ACDBPLACEHOLDER
  5
F
102
{ACAD_REACTORS
330
E
102
}
  0
MLINESTYLE
  5
18
102
{ACAD_REACTORS
330
17
102
}
100
AcDbMlineStyle
  2
STANDARD
 70
0
  3

 62
256
 51
90.0
 52
90.0
 71
2
 49
0.5
 62
256
  6
BYLAYER
 49
-0.5
 62
256
  6
BYLAYER
  0
LAYOUT
  5
305
102
{ACAD_REACTORS
330
1A
102
}
100
AcDbPlotSettings
  1

  2
none_device
  4
ISO_A4_(297.00_x_210.00_MM)
  6

 40
0.0
 41
0.0
 42
0.0
 43
0.0
 44
297.0
 45
210.0
 46
0.0
 47
0.0
 48
0.0
 49
0.0
140
0.0
141
0.0
142
1.0
143
1.0
 70
1024
 72
1
 73
0
 74
0
  7

 75
0
147
1.0
148
0.0
149
0.0
100
AcDbLayout
  1
Model
 70
0
 71
0
 10
0.0
 20
0.0
 11
297.0
 21
210.0
 12
0.0
 22
0.0
 32
0.0
 14
0.0
 24
0.0
 34
0.0
 15
0.0
 25
0.0
 35
0.0
146
0.0
 13
0.0
 23
0.0
 33
0.0
 16
1.0
 26
0.0
 36
0.0
 17
0.0
 27
1.0
 37
0.0
 76
0
330
20F
345
0
346
0
  0
LAYOUT
  5
306
102
{ACAD_REACTORS
330
1A
102
}
100
AcDbPlotSettings
  1

  2
none_device
  4
ISO_A4_(297.00_x_210.00_MM)
  6

 40
0.0
 41
0.0
 42
0.0
 43
0.0
 44
297.0
 45
210.0
 46
0.0
 47
0.0
 48
0.0
 49
0.0
140
0.0
141
0.0
142
1.0
143
1.0
 70
0
 72
1
 73
0
 74
0
  7

 75
0
147
1.0
148
0.0
149
0.0
100
AcDbLayout
  1
Layout1
 70
0
 71
1
 10
0.0
 20
0.0
 11
297.0
 21
210.0
 12
0.0
 22
0.0
 32
0.0
 14
0.0
 24
0.0
 34
0.0
 15
0.0
 25
0.0
 35
0.0
146
0.0
 13
0.0
 23
0.0
 33
0.0
 16
1.0
 26
0.0
 36
0.0
 17
0.0
 27
1.0
 37
0.0
 76
0
330
210
345
0
346
0
  0
ENDSEC
  0
EOF
