  0
SECTION
  2
HEADER
  9
$ACADVER
  1
AC1015
  9
$DWGCODEPAGE
  3
ANSI_1252
  9
$EXTMAX
 10
297.0
 20
210.0
 30
0.0
  9
$EXTMIN
 10
0.0
 20
0.0
 30
0.0
  9
$LIMMIN
 10
0.0
 20
0.0
  9
$LIMMAX
 10
297.0
 20
210.0
  9
$VIEWCTR
 10
148.5
 20
105.0
  9
$VIEWSIZE
 40
210.0
  9
$CLAYER
  8
0
  9
$LTSCALE
 40
16.335
  9
$CELTYPE
  6
BYLAYER
  9
$DIMSCALE
 40
1.0
  9
$DIMASZ
 40
3.0
  9
$DIMEXO
 40
1.85625
  9
$DIMDLI
 40
11.286
  9
$DIMEXE
 40
5.346
  9
$DIMCEN
 40
2.673
  9
$DIMLFAC
 40
1.0
  9
$DIMBLK
  1
_FILLED
  9
$DIMTXT
 40
3.0
  9
$DIMTOL
 70
1
  9
$DIMLIM
 70
0
  9
$DIMTFAC
 40
1.0
  9
$DIMTP
 40
0.01
  9
$DIMTM
 40
0.01
  9
$PDMODE
 70
3
  9
$PDSIZE
 40
3.0
  9
$HANDSEED
  5
44B
  9
$TILEMODE
 70
1
  9
$MEASUREMENT
 70
1
  9
$INSUNITS
 70
4
  0
ENDSEC
  0
SECTION
  2
CLASSES
  0
CLASS
  1
ACDBDICTIONARYWDFLT
  2
AcDbDictionaryWithDefault
  3
AutoCAD 2000
 90
0
280
0
281
0
  0
CLASS
  1
ACDBPLACEHOLDER
  2
AcDbPlaceHolder
  3
AutoCAD 2000
 90
0
280
0
281
0
  0
CLASS
  1
LAYOUT
  2
AcDbLayout
  3
AutoCAD 2000
 90
0
280
0
281
0
  0
ENDSEC
  0
SECTION
  2
TABLES
  0
TABLE
  2
VPORT
  5
8
100
AcDbSymbolTable
 70
2
  0
VPORT
  5
1F4
100
AcDbSymbolTableRecord
100
AcDbViewportTableRecord
  2
*ACTIVE
 70
0
 10
0.0
 20
0.0
 11
1.0
 21
1.0
 12
148.5
 22
105.0
 13
0.0
 23
0.0
 14
1.0
 24
1.0
 15
0.0
 25
0.0
 16
0.0
 26
0.0
 36
1.0
 17
0.0
 27
0.0
 37
0.0
 40
210.0
 41
1.4142857143
 42
50.0
 43
0.0
 44
0.0
 50
0.0
 51
0.0
 71
0
 72
100
 73
1
 74
1
 75
0
 76
0
 77
0
 78
0
  0
ENDTAB
  0
TABLE
  2
LTYPE
  5
5
100
AcDbSymbolTable
 70
6
  0
LTYPE
  5
14
100
AcDbSymbolTableRecord
100
AcDbLinetypeTableRecord
  2
BYBLOCK
 70
0
  3

 72
65
 73
0
 40
0.0
  0
LTYPE
  5
15
100
AcDbSymbolTableRecord
100
AcDbLinetypeTableRecord
  2
BYLAYER
 70
0
  3

 72
65
 73
0
 40
0.0
  0
LTYPE
  5
16
100
AcDbSymbolTableRecord
100
AcDbLinetypeTableRecord
  2
CONTINUOUS
 70
64
  3
Solid line
 72
65
 73
0
 40
0.0
  0
LTYPE
  5
1F5
100
AcDbSymbolTableRecord
100
AcDbLinetypeTableRecord
  2
CENTER
 70
64
  3
____ _ ____ _ ____ _ ____ _ ____ _ ____ _ ____
 72
65
 73
4
 40
0.6
 49
0.375
 74
0
 49
-0.075
 74
0
 49
0.075
 74
0
 49
-0.075
 74
0
  0
LTYPE
  5
1F6
100
AcDbSymbolTableRecord
100
AcDbLinetypeTableRecord
  2
HIDDEN
 70
64
  3
- - - - - - - - - - - - - - - - - - - -
 72
65
 73
2
 40
0.2
 49
0.1
 74
0
 49
-0.1
 74
0
  0
LTYPE
  5
1F7
100
AcDbSymbolTableRecord
100
AcDbLinetypeTableRecord
  2
PHANTOM
 70
64
  3
_____ _ _ _____ _ _ _____ _ _ _____
 72
65
 73
6
 40
0.8
 49
0.45
 74
0
 49
-0.05
 74
0
 49
0.1
 74
0
 49
-0.05
 74
0
 49
0.1
 74
0
 49
-0.05
 74
0
  0
LTYPE
  5
1F8
100
AcDbSymbolTableRecord
100
AcDbLinetypeTableRecord
  2
DOT
 70
64
  3
. . . . . . . . . . . . . . . . . . . .
 72
65
 73
2
 40
0.2
 49
0.1
 74
0
 49
-0.1
 74
0
  0
LTYPE
  5
1F9
100
AcDbSymbolTableRecord
100
AcDbLinetypeTableRecord
  2
DASHED
 70
64
  3
- - - - - - - - - - - - - - - - - - - -
 72
65
 73
2
 40
0.2
 49
0.1
 74
0
 49
-0.1
 74
0
  0
ENDTAB
  0
TABLE
  2
LAYER
  5
2
100
AcDbSymbolTable
 70
36
  0
LAYER
  5
10
100
AcDbSymbolTableRecord
100
AcDbLayerTableRecord
  2
0
 70
0
 62
7
  6
CONTINUOUS
370
-3
390
F
  0
LAYER
  5
1FA
100
AcDbSymbolTableRecord
100
AcDbLayerTableRecord
  2
DEFAULT_1
 70
0
 62
7
  6
CENTER
370
-3
390
F
  0
LAYER
  5
1FB
100
AcDbSymbolTableRecord
100
AcDbLayerTableRecord
  2
DEFAULT_2
 70
0
 62
7
  6
HIDDEN
370
-3
390
F
  0
LAYER
  5
1FC
100
AcDbSymbolTableRecord
100
AcDbLayerTableRecord
  2
DEFAULT_3
 70
0
 62
7
  6
PHANTOM
370
-3
390
F
  0
LAYER
  5
1FD
100
AcDbSymbolTableRecord
100
AcDbLayerTableRecord
  2
ASSI
 70
0
 62
7
  6
CONTINUOUS
370
-3
390
F
  0
LAYER
  5
1FE
100
AcDbSymbolTableRecord
100
AcDbLayerTableRecord
  2
COLORE
 70
0
 62
7
  6
CONTINUOUS
370
-3
390
F
  0
LAYER
  5
1FF
100
AcDbSymbolTableRecord
100
AcDbLayerTableRecord
  2
COORDINATE
 70
0
 62
7
  6
CONTINUOUS
370
-3
390
F
  0
LAYER
  5
200
100
AcDbSymbolTableRecord
100
AcDbLayerTableRecord
  2
COORD_ORIGINE
 70
0
 62
7
  6
CONTINUOUS
370
-3
390
F
  0
LAYER
  5
201
100
AcDbSymbolTableRecord
100
AcDbLayerTableRecord
  2
CURVE
 70
0
 62
7
  6
CONTINUOUS
370
-3
390
F
  0
LAYER
  5
202
100
AcDbSymbolTableRecord
100
AcDbLayerTableRecord
  2
DRAFT
 70
0
 62
7
  6
CONTINUOUS
370
-3
390
F
  0
LAYER
  5
203
100
AcDbSymbolTableRecord
100
AcDbLayerTableRecord
  2
IGES_SCRITTE
 70
0
 62
7
  6
CONTINUOUS
370
-3
390
F
  0
LAYER
  5
204
100
AcDbSymbolTableRecord
100
AcDbLayerTableRecord
  2
IMPORT
 70
0
 62
7
  6
CONTINUOUS
370
-3
390
F
  0
LAYER
  5
205
100
AcDbSymbolTableRecord
100
AcDbLayerTableRecord
  2
INTF_1
 70
0
 62
7
  6
CONTINUOUS
370
-3
390
F
  0
LAYER
  5
206
100
AcDbSymbolTableRecord
100
AcDbLayerTableRecord
  2
INTF_RED
 70
0
 62
7
  6
CONTINUOUS
370
-3
390
F
  0
LAYER
  5
207
100
AcDbSymbolTableRecord
100
AcDbLayerTableRecord
  2
INTF_YELLOW
 70
0
 62
7
  6
CONTINUOUS
370
-3
390
F
  0
LAYER
  5
208
100
AcDbSymbolTableRecord
100
AcDbLayerTableRecord
  2
NOTE
 70
0
 62
7
  6
CONTINUOUS
370
-3
390
F
  0
LAYER
  5
209
100
AcDbSymbolTableRecord
100
AcDbLayerTableRecord
  2
PIANI
 70
0
 62
7
  6
CONTINUOUS
370
-3
390
F
  0
LAYER
  5
20A
100
AcDbSymbolTableRecord
100
AcDbLayerTableRecord
  2
PIANI_DI_RIFERIMENTO
 70
0
 62
7
  6
CONTINUOUS
370
-3
390
F
  0
LAYER
  5
20B
100
AcDbSymbolTableRecord
100
AcDbLayerTableRecord
  2
PIANI_ORIGINE
 70
0
 62
7
  6
CONTINUOUS
370
-3
390
F
  0
LAYER
  5
20C
100
AcDbSymbolTableRecord
100
AcDbLayerTableRecord
  2
PUNTI
 70
0
 62
7
  6
CONTINUOUS
370
-3
390
F
  0
LAYER
  5
20D
100
AcDbSymbolTableRecord
100
AcDbLayerTableRecord
  2
RACCORDO
 70
0
 62
7
  6
CONTINUOUS
370
-3
390
F
  0
LAYER
  5
20E
100
AcDbSymbolTableRecord
100
AcDbLayerTableRecord
  2
RGB____0____0____0__
 70
0
 62
7
  6
CONTINUOUS
370
-3
390
F
  0
LAYER
  5
20F
100
AcDbSymbolTableRecord
100
AcDbLayerTableRecord
  2
SMUSSO
 70
0
 62
7
  6
CONTINUOUS
370
-3
390
F
  0
LAYER
  5
210
100
AcDbSymbolTableRecord
100
AcDbLayerTableRecord
  2
SNAPLINE
 70
0
 62
7
  6
CONTINUOUS
370
-3
390
F
  0
LAYER
  5
211
100
AcDbSymbolTableRecord
100
AcDbLayerTableRecord
  2
SUPERFICI
 70
0
 62
7
  6
CONTINUOUS
370
-3
390
F
  0
LAYER
  5
212
100
AcDbSymbolTableRecord
100
AcDbLayerTableRecord
  2
SUP_COSTRUZIONE
 70
0
 62
7
  6
CONTINUOUS
370
-3
390
F
  0
LAYER
  5
213
100
AcDbSymbolTableRecord
100
AcDbLayerTableRecord
  2
TRASH
 70
0
 62
7
  6
CONTINUOUS
370
-3
390
F
  0
LAYER
  5
214
100
AcDbSymbolTableRecord
100
AcDbLayerTableRecord
  2
XSEC_DATUMS
 70
0
 62
7
  6
CONTINUOUS
370
-3
390
F
  0
ENDTAB
  0
TABLE
  2
STYLE
  5
3
100
AcDbSymbolTable
 70
1
  0
STYLE
  5
11
100
AcDbSymbolTableRecord
100
AcDbTextStyleTableRecord
  2
STANDARD
 70
0
 40
0.0
 41
0.8
 50
0.0
 71
0
 42
0.2
  3
txt
  4

  0
STYLE
  5
215
100
AcDbSymbolTableRecord
100
AcDbTextStyleTableRecord
  2
TEXTSTYLE_1
 70
0
 40
0.0
 41
0.8
 50
0.0
 71
0
 42
0.2
  3
gdt
  4

  0
ENDTAB
  0
TABLE
  2
VIEW
  5
6
100
AcDbSymbolTable
 70
0
  0
ENDTAB
  0
TABLE
  2
UCS
  5
7
100
AcDbSymbolTable
 70
0
  0
ENDTAB
  0
TABLE
  2
APPID
  5
9
100
AcDbSymbolTable
 70
1
  0
APPID
  5
216
100
AcDbSymbolTableRecord
100
AcDbRegAppTableRecord
  2
ACAD
 70
0
  0
ENDTAB
  0
TABLE
  2
BLOCK_RECORD
  5
1
100
AcDbSymbolTable
 70
0
  0
BLOCK_RECORD
  5
217
100
AcDbSymbolTableRecord
100
AcDbBlockTableRecord
  2
*Model_Space
  0
BLOCK_RECORD
  5
218
100
AcDbSymbolTableRecord
100
AcDbBlockTableRecord
  2
*Paper_Space
  0
BLOCK_RECORD
  5
219
100
AcDbSymbolTableRecord
100
AcDbBlockTableRecord
  2
_FILLED
  0
BLOCK_RECORD
  5
21A
100
AcDbSymbolTableRecord
100
AcDbBlockTableRecord
  2
*D0
  0
BLOCK_RECORD
  5
21B
100
AcDbSymbolTableRecord
100
AcDbBlockTableRecord
  2
*D1
  0
BLOCK_RECORD
  5
21C
100
AcDbSymbolTableRecord
100
AcDbBlockTableRecord
  2
*D2
  0
BLOCK_RECORD
  5
21D
100
AcDbSymbolTableRecord
100
AcDbBlockTableRecord
  2
*D3
  0
BLOCK_RECORD
  5
21E
100
AcDbSymbolTableRecord
100
AcDbBlockTableRecord
  2
*D4
  0
BLOCK_RECORD
  5
21F
100
AcDbSymbolTableRecord
100
AcDbBlockTableRecord
  2
*D5
  0
BLOCK_RECORD
  5
220
100
AcDbSymbolTableRecord
100
AcDbBlockTableRecord
  2
*D6
  0
BLOCK_RECORD
  5
221
100
AcDbSymbolTableRecord
100
AcDbBlockTableRecord
  2
*D7
  0
BLOCK_RECORD
  5
222
100
AcDbSymbolTableRecord
100
AcDbBlockTableRecord
  2
*D8
  0
ENDTAB
  0
TABLE
  2
DIMSTYLE
  5
A
100
AcDbSymbolTable
 70
1
100
AcDbDimStyleTable
 71
0
  0
DIMSTYLE
105
223
100
AcDbSymbolTableRecord
100
AcDbDimStyleTableRecord
  2
STANDARD
 70
0
  3

  4

 40
1.0
 41
3.0
 42
0.0625
 43
0.38
 44
0.18
 45
0.0
 46
0.0
 47
0.01
 48
0.01
140
3.0
141
0.09
142
0.0
143
25.4
144
1.0
145
0.0
146
1.0
147
0.09
 71
1.0
 72
0.0
 73
0
 74
0
 75
0
 76
0
 77
1
 78
8
170
0
171
2
172
0
173
0
174
0
175
0
176
0
177
0
178
0
270
2
271
2
272
2
273
2
274
2
275
0
280
0
281
0
282
0
283
1
284
8
285
0
286
0
287
3
288
0
340
11
341
219
342
219
343
219
344
219
  0
DIMSTYLE
105
224
100
AcDbSymbolTableRecord
100
AcDbDimStyleTableRecord
  2
DIMSTYLE_1
 70
0
  3

  4

 40
1.0
 41
3.0
 42
0.0625
 43
0.38
 44
0.18
 45
0.0
 46
0.0
 47
0.0
 48
0.0
140
3.0
141
0.09
142
0.0
143
25.4
144
1.0
145
0.0
146
1.0
147
0.09
 71
0.0
 72
0.0
 73
0
 74
0
 75
0
 76
0
 77
1
 78
8
170
0
171
2
172
0
173
0
174
0
175
0
176
0
177
0
178
0
270
2
271
1
272
1
273
2
274
2
275
0
280
0
281
0
282
0
283
1
284
8
285
0
286
0
287
3
288
0
340
11
341
219
342
219
343
219
344
219
  0
DIMSTYLE
105
225
100
AcDbSymbolTableRecord
100
AcDbDimStyleTableRecord
  2
DIMSTYLE_2
 70
0
  3

  4

 40
1.0
 41
3.0
 42
0.0625
 43
0.38
 44
0.18
 45
0.0
 46
0.0
 47
0.0
 48
0.0
140
3.0
141
0.09
142
0.0
143
25.4
144
1.0
145
0.0
146
1.0
147
0.09
 71
0.0
 72
0.0
 73
0
 74
0
 75
0
 76
0
 77
1
 78
8
170
0
171
2
172
0
173
0
174
0
175
0
176
0
177
0
178
0
270
2
271
2
272
2
273
2
274
2
275
0
280
0
281
0
282
0
283
1
284
8
285
0
286
0
287
3
288
0
340
11
341
219
342
219
343
219
344
219
  0
ENDTAB
  0
ENDSEC
  0
SECTION
  2
BLOCKS
  0
BLOCK
  5
20
100
AcDbEntity
  8
0
100
AcDbBlockBegin
  2
*Model_Space
 70
0
 10
0.0
 20
0.0
 30
0.0
  3
*Model_Space
  1

  0
ENDBLK
  5
21
100
AcDbEntity
  8
0
100
AcDbBlockEnd
  0
BLOCK
  5
1C
100
AcDbEntity
  8
0
100
AcDbBlockBegin
  2
*Paper_Space
 70
0
 10
0.0
 20
0.0
 30
0.0
  3
*Paper_Space
  1

  0
ENDBLK
  5
1D
100
AcDbEntity
  8
0
100
AcDbBlockEnd
  0
BLOCK
  5
226
100
AcDbEntity
  8
0
100
AcDbBlockBegin
  2
_FILLED
 70
64
 10
0.0
 20
0.0
  3
_FILLED
  1

  0
SOLID
  5
227
100
AcDbEntity
  8
0
  6
BYBLOCK
 62
0
100
AcDbTrace
 10
0.0
 20
0.0
 11
-1.0
 21
0.3166666667
 12
-1.0
 22
-0.3166666667
 13
-1.0
 23
-0.3166666667
  0
ENDBLK
  5
228
100
AcDbEntity
  8
0
  6
BYBLOCK
 62
0
100
AcDbBlockEnd
  0
BLOCK
  5
229
100
AcDbEntity
  8
0
100
AcDbBlockBegin
 62
7
  6
CONTINUOUS
  2
*D0
 70
65
 10
0.0
 20
0.0
  3
*D0
  1

  0
LINE
  5
22A
100
AcDbEntity
  8
0
100
AcDbLine
 62
7
  6
CONTINUOUS
 10
-50.9584671002
 20
57.4986295348
 11
-50.9584671002
 21
76.5
  0
LINE
  5
22B
100
AcDbEntity
  8
0
100
AcDbLine
 62
7
  6
CONTINUOUS
 10
-136.5084671002
 20
4.8376028955
 11
-136.5084671002
 21
76.5
  0
LINE
  5
22C
100
AcDbEntity
  8
0
100
AcDbLine
 62
7
  6
CONTINUOUS
 10
-50.9584671002
 20
75.0
 11
-93.7334671002
 21
75.0
  0
LINE
  5
22D
100
AcDbEntity
  8
0
100
AcDbLine
 62
7
  6
CONTINUOUS
 10
-136.5084671002
 20
75.0
 11
-93.7334671002
 21
75.0
  0
INSERT
  5
22E
100
AcDbEntity
  8
0
100
AcDbBlockReference
 62
7
  6
CONTINUOUS
  2
_FILLED
 10
-50.9584671002
 20
75.0
 41
3.0
 42
3.0
 43
3.0
  0
INSERT
  5
22F
100
AcDbEntity
  8
0
100
AcDbBlockReference
 62
7
  6
CONTINUOUS
  2
_FILLED
 10
-136.5084671002
 20
75.0
 41
3.0
 42
3.0
 43
3.0
 50
180.0
  0
ENDBLK
  5
230
100
AcDbEntity
  8
0
  6
BYBLOCK
 62
0
100
AcDbBlockEnd
  0
BLOCK
  5
231
100
AcDbEntity
  8
0
100
AcDbBlockBegin
 62
7
  6
CONTINUOUS
  2
*D1
 70
65
 10
0.0
 20
0.0
  3
*D1
  1

  0
LINE
  5
232
100
AcDbEntity
  8
0
100
AcDbLine
 62
7
  6
CONTINUOUS
 10
-115.4584671002
 20
24.0
 11
-115.4584671002
 21
66.5
  0
LINE
  5
233
100
AcDbEntity
  8
0
100
AcDbLine
 62
7
  6
CONTINUOUS
 10
-50.9584671002
 20
57.4986295348
 11
-50.9584671002
 21
66.5
  0
LINE
  5
234
100
AcDbEntity
  8
0
100
AcDbLine
 62
7
  6
CONTINUOUS
 10
-115.4584671002
 20
65.0
 11
-83.2084671002
 21
65.0
  0
LINE
  5
235
100
AcDbEntity
  8
0
100
AcDbLine
 62
7
  6
CONTINUOUS
 10
-50.9584671002
 20
65.0
 11
-83.2084671002
 21
65.0
  0
INSERT
  5
236
100
AcDbEntity
  8
0
100
AcDbBlockReference
 62
7
  6
CONTINUOUS
  2
_FILLED
 10
-115.4584671002
 20
65.0
 41
3.0
 42
3.0
 43
3.0
 50
180.0
  0
INSERT
  5
237
100
AcDbEntity
  8
0
100
AcDbBlockReference
 62
7
  6
CONTINUOUS
  2
_FILLED
 10
-50.9584671002
 20
65.0
 41
3.0
 42
3.0
 43
3.0
  0
ENDBLK
  5
238
100
AcDbEntity
  8
0
  6
BYBLOCK
 62
0
100
AcDbBlockEnd
  0
BLOCK
  5
239
100
AcDbEntity
  8
0
100
AcDbBlockBegin
 62
7
  6
CONTINUOUS
  2
*D2
 70
65
 10
0.0
 20
0.0
  3
*D2
  1

  0
LINE
  5
23A
100
AcDbEntity
  8
0
100
AcDbLine
 62
7
  6
CONTINUOUS
 10
-31.5
 20
-55.2193200886
 11
-31.5
 21
-66.5
  0
LINE
  5
23B
100
AcDbEntity
  8
0
100
AcDbLine
 62
7
  6
CONTINUOUS
 10
31.5
 20
-55.2193200886
 11
31.5
 21
-66.5
  0
LINE
  5
23C
100
AcDbEntity
  8
0
100
AcDbLine
 62
7
  6
CONTINUOUS
 10
-31.5
 20
-65.0
 11
0.0
 21
-65.0
  0
LINE
  5
23D
100
AcDbEntity
  8
0
100
AcDbLine
 62
7
  6
CONTINUOUS
 10
31.5
 20
-65.0
 11
0.0
 21
-65.0
  0
INSERT
  5
23E
100
AcDbEntity
  8
0
100
AcDbBlockReference
 62
7
  6
CONTINUOUS
  2
_FILLED
 10
-31.5
 20
-65.0
 41
3.0
 42
3.0
 43
3.0
 50
180.0
  0
INSERT
  5
23F
100
AcDbEntity
  8
0
100
AcDbBlockReference
 62
7
  6
CONTINUOUS
  2
_FILLED
 10
31.5
 20
-65.0
 41
3.0
 42
3.0
 43
3.0
  0
ENDBLK
  5
240
100
AcDbEntity
  8
0
  6
BYBLOCK
 62
0
100
AcDbBlockEnd
  0
BLOCK
  5
241
100
AcDbEntity
  8
0
100
AcDbBlockBegin
 62
7
  6
CONTINUOUS
  2
*D3
 70
65
 10
0.0
 20
0.0
  3
*D3
  1

  0
LINE
  5
242
100
AcDbEntity
  8
0
100
AcDbLine
 62
7
  6
CONTINUOUS
 10
11.1623242824
 20
57.0
 11
51.0
 21
57.0
  0
LINE
  5
243
100
AcDbEntity
  8
0
100
AcDbLine
 62
7
  6
CONTINUOUS
 10
31.0013704652
 20
-57.0
 11
51.0
 21
-57.0
  0
LINE
  5
244
100
AcDbEntity
  8
0
100
AcDbLine
 62
7
  6
CONTINUOUS
 10
49.5
 20
57.0
 11
49.5
 21
0.0
  0
LINE
  5
245
100
AcDbEntity
  8
0
100
AcDbLine
 62
7
  6
CONTINUOUS
 10
49.5
 20
-57.0
 11
49.5
 21
0.0
  0
INSERT
  5
246
100
AcDbEntity
  8
0
100
AcDbBlockReference
 62
7
  6
CONTINUOUS
  2
_FILLED
 10
49.5
 20
57.0
 41
3.0
 42
3.0
 43
3.0
 50
90.0
  0
INSERT
  5
247
100
AcDbEntity
  8
0
100
AcDbBlockReference
 62
7
  6
CONTINUOUS
  2
_FILLED
 10
49.5
 20
-57.0
 41
3.0
 42
3.0
 43
3.0
 50
270.0
  0
ENDBLK
  5
248
100
AcDbEntity
  8
0
  6
BYBLOCK
 62
0
100
AcDbBlockEnd
  0
BLOCK
  5
249
100
AcDbEntity
  8
0
100
AcDbBlockBegin
 62
7
  6
CONTINUOUS
  2
*D4
 70
65
 10
0.0
 20
0.0
  3
*D4
  1

  0
LINE
  5
24A
100
AcDbEntity
  8
0
100
AcDbLine
 62
7
  6
CONTINUOUS
 10
31.0013704652
 20
6.0
 11
41.0
 21
6.0
  0
LINE
  5
24B
100
AcDbEntity
  8
0
100
AcDbLine
 62
7
  6
CONTINUOUS
 10
31.0013704652
 20
-57.0
 11
41.0
 21
-57.0
  0
LINE
  5
24C
100
AcDbEntity
  8
0
100
AcDbLine
 62
7
  6
CONTINUOUS
 10
39.5
 20
6.0
 11
39.5
 21
-25.5
  0
LINE
  5
24D
100
AcDbEntity
  8
0
100
AcDbLine
 62
7
  6
CONTINUOUS
 10
39.5
 20
-57.0
 11
39.5
 21
-25.5
  0
INSERT
  5
24E
100
AcDbEntity
  8
0
100
AcDbBlockReference
 62
7
  6
CONTINUOUS
  2
_FILLED
 10
39.5
 20
6.0
 41
3.0
 42
3.0
 43
3.0
 50
90.0
  0
INSERT
  5
24F
100
AcDbEntity
  8
0
100
AcDbBlockReference
 62
7
  6
CONTINUOUS
  2
_FILLED
 10
39.5
 20
-57.0
 41
3.0
 42
3.0
 43
3.0
 50
270.0
  0
ENDBLK
  5
250
100
AcDbEntity
  8
0
  6
BYBLOCK
 62
0
100
AcDbBlockEnd
  0
BLOCK
  5
251
100
AcDbEntity
  8
0
100
AcDbBlockBegin
 62
7
  6
CONTINUOUS
  2
*D5
 70
65
 10
0.0
 20
0.0
  3
*D5
  1

  0
LINE
  5
252
100
AcDbEntity
  8
0
100
AcDbLine
 62
7
  6
CONTINUOUS
 10
12.3
 20
56.5
 11
12.3
 21
66.5
  0
LINE
  5
253
100
AcDbEntity
  8
0
100
AcDbLine
 62
7
  6
CONTINUOUS
 10
-12.3
 20
56.5
 11
-12.3
 21
66.5
  0
LINE
  5
254
100
AcDbEntity
  8
0
100
AcDbLine
 62
7
  6
CONTINUOUS
 10
12.3
 20
65.0
 11
0.0
 21
65.0
  0
LINE
  5
255
100
AcDbEntity
  8
0
100
AcDbLine
 62
7
  6
CONTINUOUS
 10
-12.3
 20
65.0
 11
0.0
 21
65.0
  0
INSERT
  5
256
100
AcDbEntity
  8
0
100
AcDbBlockReference
 62
7
  6
CONTINUOUS
  2
_FILLED
 10
12.3
 20
65.0
 41
3.0
 42
3.0
 43
3.0
  0
INSERT
  5
257
100
AcDbEntity
  8
0
100
AcDbBlockReference
 62
7
  6
CONTINUOUS
  2
_FILLED
 10
-12.3
 20
65.0
 41
3.0
 42
3.0
 43
3.0
 50
180.0
  0
ENDBLK
  5
258
100
AcDbEntity
  8
0
  6
BYBLOCK
 62
0
100
AcDbBlockEnd
  0
BLOCK
  5
259
100
AcDbEntity
  8
0
100
AcDbBlockBegin
 62
7
  6
CONTINUOUS
  2
*D6
 70
65
 10
0.0
 20
0.0
  3
*D6
  1

  0
LINE
  5
25A
100
AcDbEntity
  8
0
100
AcDbLine
 62
7
  6
CONTINUOUS
 10
11.1623242824
 20
57.0
 11
41.0
 21
57.0
  0
LINE
  5
25B
100
AcDbEntity
  8
0
100
AcDbLine
 62
7
  6
CONTINUOUS
 10
18.4745488869
 20
12.5
 11
41.0
 21
12.5
  0
LINE
  5
25C
100
AcDbEntity
  8
0
100
AcDbLine
 62
7
  6
CONTINUOUS
 10
39.5
 20
57.0
 11
39.5
 21
34.75
  0
LINE
  5
25D
100
AcDbEntity
  8
0
100
AcDbLine
 62
7
  6
CONTINUOUS
 10
39.5
 20
12.5
 11
39.5
 21
34.75
  0
INSERT
  5
25E
100
AcDbEntity
  8
0
100
AcDbBlockReference
 62
7
  6
CONTINUOUS
  2
_FILLED
 10
39.5
 20
57.0
 41
3.0
 42
3.0
 43
3.0
 50
90.0
  0
INSERT
  5
25F
100
AcDbEntity
  8
0
100
AcDbBlockReference
 62
7
  6
CONTINUOUS
  2
_FILLED
 10
39.5
 20
12.5
 41
3.0
 42
3.0
 43
3.0
 50
270.0
  0
ENDBLK
  5
260
100
AcDbEntity
  8
0
  6
BYBLOCK
 62
0
100
AcDbBlockEnd
  0
BLOCK
  5
261
100
AcDbEntity
  8
0
100
AcDbBlockBegin
 62
7
  6
CONTINUOUS
  2
*D7
 70
65
 10
0.0
 20
0.0
  3
*D7
  1

  0
LINE
  5
262
100
AcDbEntity
  8
0
100
AcDbLine
 62
7
  6
CONTINUOUS
 10
-83.7084671002
 20
-54.6381514895
 11
-83.7084671002
 21
-66.5
  0
LINE
  5
263
100
AcDbEntity
  8
0
100
AcDbLine
 62
7
  6
CONTINUOUS
 10
-136.5084671002
 20
-55.8376028955
 11
-136.5084671002
 21
-66.5
  0
LINE
  5
264
100
AcDbEntity
  8
0
100
AcDbLine
 62
7
  6
CONTINUOUS
 10
-83.7084671002
 20
-65.0
 11
-110.1084671002
 21
-65.0
  0
LINE
  5
265
100
AcDbEntity
  8
0
100
AcDbLine
 62
7
  6
CONTINUOUS
 10
-136.5084671002
 20
-65.0
 11
-110.1084671002
 21
-65.0
  0
INSERT
  5
266
100
AcDbEntity
  8
0
100
AcDbBlockReference
 62
7
  6
CONTINUOUS
  2
_FILLED
 10
-83.7084671002
 20
-65.0
 41
3.0
 42
3.0
 43
3.0
  0
INSERT
  5
267
100
AcDbEntity
  8
0
100
AcDbBlockReference
 62
7
  6
CONTINUOUS
  2
_FILLED
 10
-136.5084671002
 20
-65.0
 41
3.0
 42
3.0
 43
3.0
 50
180.0
  0
ENDBLK
  5
268
100
AcDbEntity
  8
0
  6
BYBLOCK
 62
0
100
AcDbBlockEnd
  0
BLOCK
  5
269
100
AcDbEntity
  8
0
100
AcDbBlockBegin
 62
7
  6
CONTINUOUS
  2
*D8
 70
65
 10
0.0
 20
0.0
  3
*D8
  1

  0
LINE
  5
26A
100
AcDbEntity
  8
0
100
AcDbLine
 62
7
  6
CONTINUOUS
 10
19.5
 20
24.0
 11
19.5
 21
76.5
  0
LINE
  5
26B
100
AcDbEntity
  8
0
100
AcDbLine
 62
7
  6
CONTINUOUS
 10
-19.5
 20
24.0
 11
-19.5
 21
76.5
  0
LINE
  5
26C
100
AcDbEntity
  8
0
100
AcDbLine
 62
7
  6
CONTINUOUS
 10
19.5
 20
75.0
 11
0.0
 21
75.0
  0
LINE
  5
26D
100
AcDbEntity
  8
0
100
AcDbLine
 62
7
  6
CONTINUOUS
 10
-19.5
 20
75.0
 11
0.0
 21
75.0
  0
INSERT
  5
26E
100
AcDbEntity
  8
0
100
AcDbBlockReference
 62
7
  6
CONTINUOUS
  2
_FILLED
 10
19.5
 20
75.0
 41
3.0
 42
3.0
 43
3.0
  0
INSERT
  5
26F
100
AcDbEntity
  8
0
100
AcDbBlockReference
 62
7
  6
CONTINUOUS
  2
_FILLED
 10
-19.5
 20
75.0
 41
3.0
 42
3.0
 43
3.0
 50
180.0
  0
ENDBLK
  5
270
100
AcDbEntity
  8
0
  6
BYBLOCK
 62
0
100
AcDbBlockEnd
  0
ENDSEC
  0
SECTION
  2
ENTITIES
  0
DIMENSION
  5
271
100
AcDbEntity
  8
0
100
AcDbDimension
 62
7
  6
CONTINUOUS
  2
*D0
 10
-136.5084671002
 20
75.0
 11
-98.0191813859
 21
75.75
 70
160
 71
2
 42
85.55
  3
DIMSTYLE_1
100
AcDbAlignedDimension
 13
-50.9584671002
 23
57.4986295348
 14
-136.5084671002
 24
4.8376028955
 50
180.0
100
AcDbRotatedDimension
  0
DIMENSION
  5
272
100
AcDbEntity
  8
0
100
AcDbDimension
 62
7
  6
CONTINUOUS
  2
*D1
 10
-50.9584671002
 20
65.0
 11
-87.4941813859
 21
65.75
 70
160
 71
2
 42
64.5
  3
DIMSTYLE_2
100
AcDbAlignedDimension
 13
-115.4584671002
 23
24.0
 14
-50.9584671002
 24
57.4986295348
100
AcDbRotatedDimension
  0
DIMENSION
  5
273
100
AcDbEntity
  8
0
100
AcDbDimension
 62
7
  6
CONTINUOUS
  2
*D2
 10
31.5
 20
-65.0
 11
-2.25
 21
-64.25
 70
160
 71
2
 42
63.0
  3
DIMSTYLE_2
100
AcDbAlignedDimension
 13
-31.5
 23
-55.2193200886
 14
31.5
 24
-55.2193200886
100
AcDbRotatedDimension
  0
DIMENSION
  5
274
100
AcDbEntity
  8
0
100
AcDbDimension
 62
7
  6
CONTINUOUS
  2
*D3
 10
49.5
 20
-57.0
 11
48.75
 21
-2.8928571429
 70
160
 71
2
 42
114.0
  3
DIMSTYLE_2
100
AcDbAlignedDimension
 13
11.1623242824
 23
57.0
 14
31.0013704652
 24
-57.0
 50
270.0
100
AcDbRotatedDimension
  0
DIMENSION
  5
275
100
AcDbEntity
  8
0
100
AcDbDimension
 62
7
  6
CONTINUOUS
  2
*D4
 10
39.5
 20
-57.0
 11
38.75
 21
-27.75
 70
160
 71
2
 42
63.0
  3
DIMSTYLE_2
100
AcDbAlignedDimension
 13
31.0013704652
 23
6.0
 14
31.0013704652
 24
-57.0
 50
270.0
100
AcDbRotatedDimension
  0
DIMENSION
  5
276
100
AcDbEntity
  8
0
100
AcDbDimension
 62
7
  6
CONTINUOUS
  2
*D5
 10
-12.3
 20
65.0
 11
-4.3928571429
 21
65.75
 70
160
 71
2
 42
24.6
  3
DIMSTYLE_2
100
AcDbAlignedDimension
 13
12.3
 23
56.5
 14
-12.3
 24
56.5
 50
180.0
100
AcDbRotatedDimension
  0
DIMENSION
  5
277
100
AcDbEntity
  8
0
100
AcDbDimension
 62
7
  6
CONTINUOUS
  2
*D6
 10
39.5
 20
12.5
 11
38.75
 21
30.4642857143
 70
160
 71
2
 42
44.5
  3
DIMSTYLE_2
100
AcDbAlignedDimension
 13
11.1623242824
 23
57.0
 14
18.4745488869
 24
12.5
 50
270.0
100
AcDbRotatedDimension
  0
DIMENSION
  5
278
100
AcDbEntity
  8
0
100
AcDbDimension
 62
7
  6
CONTINUOUS
  2
*D7
 10
-136.5084671002
 20
-65.0
 11
-114.3941813859
 21
-64.25
 70
160
 71
2
 42
52.8
  3
DIMSTYLE_2
100
AcDbAlignedDimension
 13
-83.7084671002
 23
-54.6381514895
 14
-136.5084671002
 24
-55.8376028955
 50
180.0
100
AcDbRotatedDimension
  0
DIMENSION
  5
279
100
AcDbEntity
  8
0
100
AcDbDimension
 62
7
  6
CONTINUOUS
  2
*D8
 10
-19.5
 20
75.0
 11
-2.25
 21
75.75
 70
160
 71
2
 42
39.0
  3
DIMSTYLE_2
100
AcDbAlignedDimension
 13
19.5
 23
24.0
 14
-19.5
 24
24.0
 50
180.0
100
AcDbRotatedDimension
  0
LWPOLYLINE
  5
27A
100
AcDbEntity
  8
0
100
AcDbPolyline
 62
7
  6
CONTINUOUS
 90
5
 70
0
 43
0.3500000006
 10
-1.3928570824
 20
77.4642896118
 10
-1.035714268
 20
77.6785740967
 10
-1.035714268
 20
78.3214275513
 10
-1.3928570824
 20
78.749996521
 10
-2.2499999785
 20
78.749996521
  0
LWPOLYLINE
  5
27B
100
AcDbEntity
  8
0
100
AcDbPolyline
 62
7
  6
CONTINUOUS
 90
6
 70
0
 43
0.3500000006
 10
0.1071428532
 20
-64.2500018005
 10
1.1785713937
 20
-64.2500018005
 10
1.3928570824
 20
-64.0357127838
 10
1.3928570824
 20
-62.9642858276
 10
0.9642857051
 20
-62.535712326
 10
0.5357142924
 20
-62.535712326
  0
LINE
  5
27C
100
AcDbEntity
  8
RACCORDO
100
AcDbLine
 62
7
  6
CONTINUOUS
 10
-30.5013704652
 20
-57.0
 11
30.5013704652
 21
-57.0
  0
LWPOLYLINE
  5
27D
100
AcDbEntity
  8
0
100
AcDbPolyline
 62
7
  6
CONTINUOUS
 90
10
 70
0
 43
0.3500000006
 10
0.3214285684
 20
75.7499956055
 10
1.1785713937
 20
76.6071426086
 10
1.3928570824
 20
77.4642896118
 10
1.3928570824
 20
78.3214275513
 10
0.9642857051
 20
78.749996521
 10
0.3214285684
 20
78.749996521
 10
-0.1071428532
 20
78.3214275513
 10
-0.1071428532
 20
77.4642896118
 10
0.3214285684
 20
77.0357115784
 10
1.2499999566
 20
77.0357115784
  0
LINE
  5
27E
100
AcDbEntity
  8
RACCORDO
100
AcDbLine
 62
253
  6
CONTINUOUS
 10
-30.7366796218
 20
-55.2380500871
 11
-29.8910789913
 21
-55.2380500871
  0
LINE
  5
27F
100
AcDbEntity
  8
RACCORDO
100
AcDbLine
 62
253
  6
CONTINUOUS
 10
30.7366796218
 20
-55.2380500871
 11
29.8910789913
 21
-55.2380500871
  0
LINE
  5
280
100
AcDbEntity
  8
RACCORDO
100
AcDbLine
 62
253
  6
CONTINUOUS
 10
22.4278772895
 20
-49.2609302555
 11
22.636794178
 21
-49.2609302555
  0
LINE
  5
281
100
AcDbEntity
  8
RACCORDO
100
AcDbLine
 62
253
  6
CONTINUOUS
 10
-22.4278772895
 20
-49.2609302555
 11
-22.636794178
 21
-49.2609302555
  0
LINE
  5
282
100
AcDbEntity
  8
RACCORDO
100
AcDbLine
 62
253
  6
CONTINUOUS
 10
-22.216912867
 20
-47.9946366028
 11
22.216912867
 21
-47.9946366028
  0
LINE
  5
283
100
AcDbEntity
  8
RACCORDO
100
AcDbLine
 62
253
  6
CONTINUOUS
 10
-22.2060523471
 20
-47.7060218861
 11
22.2060523471
 21
-47.7060218861
  0
LINE
  5
284
100
AcDbEntity
  8
RACCORDO
100
AcDbLine
 62
7
  6
CONTINUOUS
 10
22.200030461
 20
-47.7
 11
-22.200030461
 21
-47.7
  0
LWPOLYLINE
  5
285
100
AcDbEntity
  8
0
100
AcDbPolyline
 62
7
  6
CONTINUOUS
 90
10
 70
0
 43
0.3500000006
 10
3.1071428747
 20
68.750002533
 10
2.464285738
 20
68.1071400146
 10
2.0357142191
 20
67.2500020752
 10
2.0357142191
 20
66.1785705872
 10
2.464285738
 20
65.7500016174
 10
3.1071428747
 20
65.7500016174
 10
3.5357143936
 20
66.1785705872
 10
3.5357143936
 20
67.0357175903
 10
3.1071428747
 20
67.4642865601
 10
2.1785714865
 20
67.4642865601
  0
LWPOLYLINE
  5
286
100
AcDbEntity
  8
RACCORDO
100
AcDbPolyline
 62
7
  6
CONTINUOUS
 90
13
 70
0
 10
-11.8084362944
 20
38.5472370556
 10
-11.7984636438
 20
38.5585800657
 10
-11.7915424013
 20
38.5656143604
 10
-11.8048326383
 20
38.5551177098
 10
-11.8391812236
 20
38.531586026
 10
-11.8975973692
 20
38.4967427374
 10
-11.98277947
 20
38.4521932212
 10
-12.093953357
 20
38.4007827874
 10
-12.2326363436
 20
38.343629427
 10
-12.401481005
 20
38.2812747758
 10
-12.6015028389
 20
38.2148007179
 10
-12.8345716319
 20
38.1448437083
 10
-13.1030569095
 20
38.0718612318
  0
LINE
  5
287
100
AcDbEntity
  8
RACCORDO
100
AcDbLine
 62
7
  6
CONTINUOUS
 10
-31.5
 20
5.0013704652
 11
-31.5
 21
-56.0013704652
  0
LINE
  5
288
100
AcDbEntity
  8
RACCORDO
100
AcDbLine
 62
253
  6
CONTINUOUS
 10
-30.7366796218
 20
-55.2380500871
 11
-30.7366796218
 21
4.2380500871
  0
LINE
  5
289
100
AcDbEntity
  8
RACCORDO
100
AcDbLine
 62
253
  6
CONTINUOUS
 10
-29.8910789913
 20
-55.2380500871
 11
-29.8910789913
 21
4.2380500871
  0
LINE
  5
28A
100
AcDbEntity
  8
RACCORDO
100
AcDbLine
 62
253
  6
CONTINUOUS
 10
-22.416882406
 20
-3.0898870495
 11
-22.4278772895
 21
-1.7390697445
  0
LINE
  5
28B
100
AcDbEntity
  8
RACCORDO
100
AcDbLine
 62
253
  6
CONTINUOUS
 10
-22.216912867
 20
-3.0053633972
 11
-22.2344186123
 21
-0.8546299472
  0
LINE
  5
28C
100
AcDbEntity
  8
RACCORDO
100
AcDbLine
 62
253
  6
CONTINUOUS
 10
-22.636794178
 20
-1.7390697445
 11
-22.636794178
 21
-49.2609302555
  0
LINE
  5
28D
100
AcDbEntity
  8
RACCORDO
100
AcDbLine
 62
253
  6
CONTINUOUS
 10
-22.4278772895
 20
-1.7390697445
 11
-22.4278772895
 21
-49.2609302555
  0
LINE
  5
28E
100
AcDbEntity
  8
RACCORDO
100
AcDbLine
 62
7
  6
CONTINUOUS
 10
-22.4
 20
-47.500030461
 11
-22.4
 21
-3.499969539
  0
LINE
  5
28F
100
AcDbEntity
  8
RACCORDO
100
AcDbLine
 62
253
  6
CONTINUOUS
 10
-22.416882406
 20
-47.9101129505
 11
-22.4278772895
 21
-49.2609302555
  0
LINE
  5
290
100
AcDbEntity
  8
RACCORDO
100
AcDbLine
 62
253
  6
CONTINUOUS
 10
-22.216912867
 20
-47.9946366028
 11
-22.2344186123
 21
-50.1453700528
  0
LINE
  5
291
100
AcDbEntity
  8
SUP_COSTRUZIONE
100
AcDbLine
 62
7
  6
CONTINUOUS
 10
-18.9731793923
 20
13.4476639748
 11
-19.5
 21
23.5
  0
LINE
  5
292
100
AcDbEntity
  8
RACCORDO
100
AcDbLine
 62
253
  6
CONTINUOUS
 10
-20.0830166356
 20
-3.6365700262
 11
-20.0830166356
 21
-3.7634299738
  0
LINE
  5
293
100
AcDbEntity
  8
RACCORDO
100
AcDbLine
 62
7
  6
CONTINUOUS
 10
-19.9365890646
 20
-3.6365700262
 11
-19.9365890646
 21
-3.7634299738
  0
LINE
  5
294
100
AcDbEntity
  8
RACCORDO
100
AcDbLine
 62
7
  6
CONTINUOUS
 10
-19.9114370805
 20
-3.788581958
 11
-19.9114370805
 21
-3.611418042
  0
LINE
  5
295
100
AcDbEntity
  8
RACCORDO
100
AcDbLine
 62
7
  6
CONTINUOUS
 10
-18.8826343694
 20
35.2797509494
 11
-18.8824795749
 21
35.2829914948
  0
LINE
  5
296
100
AcDbEntity
  8
DRAFT
100
AcDbLine
 62
7
  6
CONTINUOUS
 10
-19.5
 20
23.5
 11
-18.8824859408
 21
35.2828701704
  0
LWPOLYLINE
  5
297
100
AcDbEntity
  8
0
100
AcDbPolyline
 62
7
  6
CONTINUOUS
 90
3
 70
0
 43
0.3500000006
 10
1.035714268
 20
66.0357172852
 10
0.9642857051
 20
65.8214328003
 10
0.8214285793
 20
65.5357171326
  0
LINE
  5
298
100
AcDbEntity
  8
RACCORDO
100
AcDbLine
 62
253
  6
CONTINUOUS
 10
-30.7366796218
 20
4.2380500871
 11
-31.5
 21
5.0013704652
  0
LINE
  5
299
100
AcDbEntity
  8
RACCORDO
100
AcDbLine
 62
253
  6
CONTINUOUS
 10
29.737739942
 20
-56.2363694768
 11
30.5013704652
 21
-57.0
  0
LINE
  5
29A
100
AcDbEntity
  8
RACCORDO
100
AcDbLine
 62
253
  6
CONTINUOUS
 10
-22.4
 20
-3.499969539
 11
-22.4060218861
 21
-3.4939476529
  0
LINE
  5
29B
100
AcDbEntity
  8
RACCORDO
100
AcDbLine
 62
253
  6
CONTINUOUS
 10
-22.200030461
 20
-3.3
 11
-22.2060523471
 21
-3.2939781139
  0
LINE
  5
29C
100
AcDbEntity
  8
RACCORDO
100
AcDbLine
 62
253
  6
CONTINUOUS
 10
22.2060523471
 20
-47.7060218861
 11
22.200030461
 21
-47.7
  0
LINE
  5
29D
100
AcDbEntity
  8
RACCORDO
100
AcDbLine
 62
253
  6
CONTINUOUS
 10
22.4060218861
 20
-47.5060523471
 11
22.4
 21
-47.500030461
  0
LINE
  5
29E
100
AcDbEntity
  8
RACCORDO
100
AcDbLine
 62
253
  6
CONTINUOUS
 10
-20.4137141881
 20
-4.2862667734
 11
-20.4365700262
 21
-4.2634109354
  0
LINE
  5
29F
100
AcDbEntity
  8
RACCORDO
100
AcDbLine
 62
253
  6
CONTINUOUS
 10
-29.737739942
 20
5.2363694768
 11
-30.5013704652
 21
6.0
  0
LINE
  5
2A0
100
AcDbEntity
  8
RACCORDO
100
AcDbLine
 62
253
  6
CONTINUOUS
 10
30.7366796218
 20
-55.2380500871
 11
31.5
 21
-56.0013704652
  0
LINE
  5
2A1
100
AcDbEntity
  8
RACCORDO
100
AcDbLine
 62
253
  6
CONTINUOUS
 10
-12.5057538553
 20
-3.3
 11
-12.5057538553
 21
-47.7
  0
LINE
  5
2A2
100
AcDbEntity
  8
0
100
AcDbLine
 62
7
  6
CONTINUOUS
 10
-11.9835544171
 20
10.4280314749
 11
-12.2156177133
 21
6.0
  0
LWPOLYLINE
  5
2A3
100
AcDbEntity
  8
0
100
AcDbPolyline
 62
7
  6
CONTINUOUS
 90
10
 70
0
 43
0.3500000006
 10
38.2499980774
 20
35.8214281769
 10
38.3928559113
 20
35.8928593597
 10
38.4642870941
 20
35.8928593597
 10
38.607144928
 20
35.7500015259
 10
38.607144928
 20
35.678570343
 10
38.5357137451
 20
35.607143692
 10
38.4642870941
 20
35.607143692
 10
38.3214292603
 20
35.678570343
 10
38.2499980774
 20
35.7500015259
 10
38.2499980774
 20
35.8214281769
  0
LINE
  5
2A4
100
AcDbEntity
  8
RACCORDO
100
AcDbLine
 62
253
  6
CONTINUOUS
 10
-19.9114370805
 20
-3.788581958
 11
-19.9365890646
 21
-3.7634299738
  0
LINE
  5
2A5
100
AcDbEntity
  8
RACCORDO
100
AcDbLine
 62
7
  6
CONTINUOUS
 10
-12.3
 20
38.318751902
 11
-12.3
 21
56.0
  0
LINE
  5
2A6
100
AcDbEntity
  8
RACCORDO
100
AcDbLine
 62
253
  6
CONTINUOUS
 10
-10.6623242824
 20
57.0
 11
-10.6623242824
 21
56.139173101
  0
LINE
  5
2A7
100
AcDbEntity
  8
RACCORDO
100
AcDbLine
 62
253
  6
CONTINUOUS
 10
-19.9365890646
 20
-3.6365700262
 11
-19.9114370805
 21
-3.611418042
  0
LINE
  5
2A8
100
AcDbEntity
  8
RACCORDO
100
AcDbLine
 62
253
  6
CONTINUOUS
 10
22.4
 20
-3.7417232467
 11
20.0830166356
 21
-3.7634299738
  0
LINE
  5
2A9
100
AcDbEntity
  8
RACCORDO
100
AcDbLine
 62
253
  6
CONTINUOUS
 10
22.4
 20
-4.2462763416
 11
20.4365700262
 21
-4.2634109354
  0
LINE
  5
2AA
100
AcDbEntity
  8
RACCORDO
100
AcDbLine
 62
253
  6
CONTINUOUS
 10
-20.0830166356
 20
-3.7634299738
 11
-19.9365890646
 21
-3.7634299738
  0
LINE
  5
2AB
100
AcDbEntity
  8
RACCORDO
100
AcDbLine
 62
253
  6
CONTINUOUS
 10
19.9365890646
 20
-3.7634299738
 11
20.0830166356
 21
-3.7634299738
  0
LINE
  5
2AC
100
AcDbEntity
  8
RACCORDO
100
AcDbLine
 62
253
  6
CONTINUOUS
 10
-20.4365700262
 20
-4.2634109354
 11
-22.4
 21
-4.2462763416
  0
LINE
  5
2AD
100
AcDbEntity
  8
RACCORDO
100
AcDbLine
 62
253
  6
CONTINUOUS
 10
-20.0830166356
 20
-3.7634299738
 11
-22.4
 21
-3.7417232467
  0
LINE
  5
2AE
100
AcDbEntity
  8
DRAFT
100
AcDbLine
 62
7
  6
CONTINUOUS
 10
-2.25
 20
22.5
 11
-2.2674550649
 21
23.5
  0
LINE
  5
2AF
100
AcDbEntity
  8
DRAFT
100
AcDbLine
 62
7
  6
CONTINUOUS
 10
-2.25
 20
22.5
 11
-2.25
 21
23.5
  0
LWPOLYLINE
  5
2B0
100
AcDbEntity
  8
0
100
AcDbPolyline
 62
7
  6
CONTINUOUS
 90
2
 70
0
 43
0.3500000006
 10
-1.035714268
 20
65.7500016174
 10
-1.035714268
 20
67.2500020752
  0
LINE
  5
2B1
100
AcDbEntity
  8
RACCORDO
100
AcDbLine
 62
253
  6
CONTINUOUS
 10
-22.4
 20
-3.6582767533
 11
-20.0830166356
 21
-3.6365700262
  0
LINE
  5
2B2
100
AcDbEntity
  8
RACCORDO
100
AcDbLine
 62
253
  6
CONTINUOUS
 10
20.0830166356
 20
-3.6365700262
 11
19.9365890646
 21
-3.6365700262
  0
LINE
  5
2B3
100
AcDbEntity
  8
RACCORDO
100
AcDbLine
 62
253
  6
CONTINUOUS
 10
-19.9365890646
 20
-3.6365700262
 11
-20.0830166356
 21
-3.6365700262
  0
LINE
  5
2B4
100
AcDbEntity
  8
RACCORDO
100
AcDbLine
 62
7
  6
CONTINUOUS
 10
-22.200030461
 20
-3.3
 11
22.200030461
 21
-3.3
  0
LINE
  5
2B5
100
AcDbEntity
  8
RACCORDO
100
AcDbLine
 62
253
  6
CONTINUOUS
 10
22.2060523471
 20
-3.2939781139
 11
-22.2060523471
 21
-3.2939781139
  0
LINE
  5
2B6
100
AcDbEntity
  8
RACCORDO
100
AcDbLine
 62
253
  6
CONTINUOUS
 10
22.216912867
 20
-3.0053633972
 11
-22.216912867
 21
-3.0053633972
  0
LINE
  5
2B7
100
AcDbEntity
  8
RACCORDO
100
AcDbLine
 62
253
  6
CONTINUOUS
 10
22.4278772895
 20
-1.7390697445
 11
22.636794178
 21
-1.7390697445
  0
LINE
  5
2B8
100
AcDbEntity
  8
RACCORDO
100
AcDbLine
 62
253
  6
CONTINUOUS
 10
-22.4278772895
 20
-1.7390697445
 11
-22.636794178
 21
-1.7390697445
  0
LINE
  5
2B9
100
AcDbEntity
  8
RACCORDO
100
AcDbLine
 62
253
  6
CONTINUOUS
 10
20.0830166356
 20
-3.6365700262
 11
22.4
 21
-3.6582767533
  0
LINE
  5
2BA
100
AcDbEntity
  8
DRAFT
100
AcDbLine
 62
7
  6
CONTINUOUS
 10
2.25
 20
22.5
 11
2.25
 21
23.5
  0
LINE
  5
2BB
100
AcDbEntity
  8
DRAFT
100
AcDbLine
 62
7
  6
CONTINUOUS
 10
2.2674550649
 20
23.5
 11
2.25
 21
22.5
  0
LWPOLYLINE
  5
2BC
100
AcDbEntity
  8
0
100
AcDbPolyline
 62
7
  6
CONTINUOUS
 90
2
 70
0
 43
0.3500000006
 10
48.7500012817
 20
1.5357134628
 10
47.250000824
 20
1.5357134628
  0
LINE
  5
2BD
100
AcDbEntity
  8
RACCORDO
100
AcDbLine
 62
253
  6
CONTINUOUS
 10
-30.7366796218
 20
4.2380500871
 11
-29.8910789913
 21
4.2380500871
  0
LINE
  5
2BE
100
AcDbEntity
  8
RACCORDO
100
AcDbLine
 62
253
  6
CONTINUOUS
 10
30.7366796218
 20
4.2380500871
 11
29.8910789913
 21
4.2380500871
  0
LINE
  5
2BF
100
AcDbEntity
  8
RACCORDO
100
AcDbLine
 62
7
  6
CONTINUOUS
 10
-30.5013704652
 20
6.0
 11
30.5013704652
 21
6.0
  0
LWPOLYLINE
  5
2C0
100
AcDbEntity
  8
0
100
AcDbPolyline
 62
7
  6
CONTINUOUS
 90
10
 70
0
 43
0.3500000006
 10
35.7499995804
 20
-26.6785716362
 10
36.3928575668
 20
-27.3214284897
 10
37.2500000381
 20
-27.7499997253
 10
38.3214292603
 20
-27.7499997253
 10
38.74999823
 20
-27.3214284897
 10
38.74999823
 20
-26.6785716362
 10
38.3214292603
 20
-26.2499998341
 10
37.4642867889
 20
-26.2499998341
 10
37.0357132874
 20
-26.6785716362
 10
37.0357132874
 20
-27.6071430244
  0
LINE
  5
2C1
100
AcDbEntity
  8
0
100
AcDbLine
 62
7
  6
CONTINUOUS
 10
11.9835544171
 20
10.4280314749
 11
12.2156177133
 21
6.0
  0
LINE
  5
2C2
100
AcDbEntity
  8
RACCORDO
100
AcDbLine
 62
253
  6
CONTINUOUS
 10
10.6623242824
 20
56.139173101
 11
10.6623242824
 21
57.0
  0
LINE
  5
2C3
100
AcDbEntity
  8
RACCORDO
100
AcDbLine
 62
7
  6
CONTINUOUS
 10
12.3
 20
38.3187614989
 11
12.3
 21
56.0
  0
LINE
  5
2C4
100
AcDbEntity
  8
RACCORDO
100
AcDbLine
 62
253
  6
CONTINUOUS
 10
12.5057538553
 20
-3.3
 11
12.5057538553
 21
-47.7
  0
LINE
  5
2C5
100
AcDbEntity
  8
0
100
AcDbLine
 62
253
  6
CONTINUOUS
 10
11.9835544171
 20
10.4280314749
 11
-11.9835544171
 21
10.4280314749
  0
LINE
  5
2C6
100
AcDbEntity
  8
RACCORDO
100
AcDbLine
 62
7
  6
CONTINUOUS
 10
17.9748009626
 20
12.5
 11
-17.9745620562
 21
12.5
  0
LINE
  5
2C7
100
AcDbEntity
  8
RACCORDO
100
AcDbLine
 62
253
  6
CONTINUOUS
 10
18.9731792678
 20
13.4476638866
 11
-18.9731793918
 21
13.4476639748
  0
LINE
  5
2C8
100
AcDbEntity
  8
RACCORDO
100
AcDbLine
 62
253
  6
CONTINUOUS
 10
19.9114370805
 20
-3.611418042
 11
19.9365890646
 21
-3.6365700262
  0
LINE
  5
2C9
100
AcDbEntity
  8
RACCORDO
100
AcDbLine
 62
253
  6
CONTINUOUS
 10
19.9365890646
 20
-3.7634299738
 11
19.9114370805
 21
-3.788581958
  0
LINE
  5
2CA
100
AcDbEntity
  8
RACCORDO
100
AcDbLine
 62
253
  6
CONTINUOUS
 10
29.737739942
 20
5.2363694768
 11
30.5013704652
 21
6.0
  0
LINE
  5
2CB
100
AcDbEntity
  8
RACCORDO
100
AcDbLine
 62
253
  6
CONTINUOUS
 10
-30.7366796218
 20
-55.2380500871
 11
-31.5
 21
-56.0013704652
  0
LINE
  5
2CC
100
AcDbEntity
  8
RACCORDO
100
AcDbLine
 62
253
  6
CONTINUOUS
 10
20.4365700262
 20
-4.2634109354
 11
20.4137141881
 21
-4.2862667734
  0
LINE
  5
2CD
100
AcDbEntity
  8
RACCORDO
100
AcDbLine
 62
253
  6
CONTINUOUS
 10
-22.4
 20
-47.500030461
 11
-22.4060218861
 21
-47.5060523471
  0
LWPOLYLINE
  5
2CE
100
AcDbEntity
  8
RACCORDO
100
AcDbPolyline
 62
7
  6
CONTINUOUS
 90
21
 70
0
 10
18.8826272372
 20
35.2798217276
 10
18.8730217269
 20
35.3867776877
 10
18.8358407992
 20
35.5720142553
 10
18.7732782542
 20
35.7521346605
 10
18.6873203915
 20
35.923113059
 10
18.5838310412
 20
36.0782944592
 10
18.4678660437
 20
36.2167177975
 10
18.3404346823
 20
36.342147339
 10
18.2024839193
 20
36.4568311395
 10
18.0556241699
 20
36.5619132934
 10
17.899744146
 20
36.659415682
 10
17.7323659875
 20
36.7520285908
 10
17.5530294362
 20
36.84062356
 10
17.3616271912
 20
36.9257352556
 10
17.1560688256
 20
37.0085776849
 10
16.9356331592
 20
37.0895362705
 10
16.7001763079
 20
37.1687168686
 10
16.4487089487
 20
37.246460328
 10
16.1808082758
 20
37.322868924
 10
15.8963957489
 20
37.3979296046
 10
15.6641357359
 20
37.4552656928
  0
LINE
  5
2CF
100
AcDbEntity
  8
DRAFT
100
AcDbLine
 62
7
  6
CONTINUOUS
 10
19.5
 20
23.5
 11
18.882485905
 21
35.2828708533
  0
LINE
  5
2D0
100
AcDbEntity
  8
RACCORDO
100
AcDbLine
 62
7
  6
CONTINUOUS
 10
18.8824794831
 20
35.2829932415
 11
18.8826346322
 21
35.2797447315
  0
LINE
  5
2D1
100
AcDbEntity
  8
RACCORDO
100
AcDbLine
 62
253
  6
CONTINUOUS
 10
22.2344186123
 20
-50.1453700528
 11
22.216912867
 21
-47.9946366028
  0
LINE
  5
2D2
100
AcDbEntity
  8
RACCORDO
100
AcDbLine
 62
253
  6
CONTINUOUS
 10
22.4278772895
 20
-49.2609302555
 11
22.416882406
 21
-47.9101129505
  0
LINE
  5
2D3
100
AcDbEntity
  8
RACCORDO
100
AcDbLine
 62
7
  6
CONTINUOUS
 10
19.9114370805
 20
-3.788581958
 11
19.9114370805
 21
-3.611418042
  0
LINE
  5
2D4
100
AcDbEntity
  8
RACCORDO
100
AcDbLine
 62
7
  6
CONTINUOUS
 10
19.9365890646
 20
-3.6365700262
 11
19.9365890646
 21
-3.7634299738
  0
LINE
  5
2D5
100
AcDbEntity
  8
RACCORDO
100
AcDbLine
 62
253
  6
CONTINUOUS
 10
20.0830166356
 20
-3.6365700262
 11
20.0830166356
 21
-3.7634299738
  0
LINE
  5
2D6
100
AcDbEntity
  8
RACCORDO
100
AcDbLine
 62
253
  6
CONTINUOUS
 10
22.216912867
 20
-3.0053633972
 11
22.2344186123
 21
-0.8546299472
  0
LINE
  5
2D7
100
AcDbEntity
  8
SUP_COSTRUZIONE
100
AcDbLine
 62
7
  6
CONTINUOUS
 10
18.9731793877
 20
13.4476638864
 11
19.5
 21
23.5
  0
LINE
  5
2D8
100
AcDbEntity
  8
RACCORDO
100
AcDbLine
 62
253
  6
CONTINUOUS
 10
-22.200030461
 20
-47.7
 11
-22.2060523471
 21
-47.7060218861
  0
LINE
  5
2D9
100
AcDbEntity
  8
RACCORDO
100
AcDbLine
 62
253
  6
CONTINUOUS
 10
22.200030461
 20
-3.3
 11
22.2060523471
 21
-3.2939781139
  0
LINE
  5
2DA
100
AcDbEntity
  8
RACCORDO
100
AcDbLine
 62
253
  6
CONTINUOUS
 10
22.4
 20
-3.499969539
 11
22.4060218861
 21
-3.4939476529
  0
LINE
  5
2DB
100
AcDbEntity
  8
RACCORDO
100
AcDbLine
 62
253
  6
CONTINUOUS
 10
30.7366796218
 20
4.2380500871
 11
31.5
 21
5.0013704652
  0
LINE
  5
2DC
100
AcDbEntity
  8
RACCORDO
100
AcDbLine
 62
253
  6
CONTINUOUS
 10
-29.737739942
 20
-56.2363694768
 11
-30.5013704652
 21
-57.0
  0
LWPOLYLINE
  5
2DD
100
AcDbEntity
  8
0
100
AcDbPolyline
 62
7
  6
CONTINUOUS
 90
5
 70
0
 43
0.3500000006
 10
37.0357132874
 20
-24.535714325
 10
36.8214288025
 20
-24.1785714397
 10
36.178570816
 20
-24.1785714397
 10
35.7499995804
 20
-24.535714325
 10
35.7499995804
 20
-25.3928573627
  0
LINE
  5
2DE
100
AcDbEntity
  8
RACCORDO
100
AcDbLine
 62
7
  6
CONTINUOUS
 10
22.4
 20
-3.499969539
 11
22.4
 21
-47.500030461
  0
LINE
  5
2DF
100
AcDbEntity
  8
RACCORDO
100
AcDbLine
 62
253
  6
CONTINUOUS
 10
22.4278772895
 20
-49.2609302555
 11
22.4278772895
 21
-1.7390697445
  0
LINE
  5
2E0
100
AcDbEntity
  8
RACCORDO
100
AcDbLine
 62
253
  6
CONTINUOUS
 10
22.636794178
 20
-49.2609302555
 11
22.636794178
 21
-1.7390697445
  0
LINE
  5
2E1
100
AcDbEntity
  8
RACCORDO
100
AcDbLine
 62
253
  6
CONTINUOUS
 10
22.416882406
 20
-3.0898870495
 11
22.4278772895
 21
-1.7390697445
  0
LINE
  5
2E2
100
AcDbEntity
  8
DRAFT
100
AcDbLine
 62
7
  6
CONTINUOUS
 10
-2.25
 20
22.5
 11
2.25
 21
22.5
  0
LINE
  5
2E3
100
AcDbEntity
  8
DRAFT
100
AcDbLine
 62
7
  6
CONTINUOUS
 10
-19.4995609714
 20
23.5
 11
19.4995609714
 21
23.5
  0
LINE
  5
2E4
100
AcDbEntity
  8
RACCORDO
100
AcDbLine
 62
253
  6
CONTINUOUS
 10
29.8910789913
 20
4.2380500871
 11
29.8910789913
 21
-55.2380500871
  0
LINE
  5
2E5
100
AcDbEntity
  8
RACCORDO
100
AcDbLine
 62
253
  6
CONTINUOUS
 10
30.7366796218
 20
4.2380500871
 11
30.7366796218
 21
-55.2380500871
  0
LWPOLYLINE
  5
2E6
100
AcDbEntity
  8
0
100
AcDbPolyline
 62
7
  6
CONTINUOUS
 90
3
 70
0
 43
0.3500000006
 10
46.6071428375
 20
-2.8928567276
 10
45.7500003662
 20
-2.0357142563
 10
48.7500012817
 20
-2.0357142563
  0
LWPOLYLINE
  5
2E7
100
AcDbEntity
  8
0
100
AcDbPolyline
 62
7
  6
CONTINUOUS
 90
10
 70
0
 43
0.3500000006
 10
0.9642857051
 20
66.25000177
 10
1.035714268
 20
66.1071394043
 10
1.035714268
 20
66.0357172852
 10
0.8928571422
 20
65.8928549194
 10
0.8214285793
 20
65.8928549194
 10
0.7500000165
 20
65.9642861023
 10
0.7500000165
 20
66.0357172852
 10
0.8214285793
 20
66.1785705872
 10
0.8928571422
 20
66.25000177
 10
0.9642857051
 20
66.25000177
  0
LINE
  5
2E8
100
AcDbEntity
  8
RACCORDO
100
AcDbLine
 62
7
  6
CONTINUOUS
 10
31.5
 20
-56.0013704652
 11
31.5
 21
5.0013704652
  0
LWPOLYLINE
  5
2E9
100
AcDbEntity
  8
0
100
AcDbPolyline
 62
7
  6
CONTINUOUS
 90
2
 70
0
 43
0.3500000006
 10
38.74999823
 20
31.4642846375
 10
37.2500000381
 20
31.4642846375
  0
LWPOLYLINE
  5
2EA
100
AcDbEntity
  8
0
100
AcDbPolyline
 62
7
  6
CONTINUOUS
 90
2
 70
0
 43
0.3500000006
 10
38.74999823
 20
33.8214275665
 10
37.2500000381
 20
33.8214275665
  0
LWPOLYLINE
  5
2EB
100
AcDbEntity
  8
0
100
AcDbPolyline
 62
7
  6
CONTINUOUS
 90
3
 70
0
 43
0.3500000006
 10
46.6071428375
 20
-1.178571785
 10
45.7500003662
 20
-0.3214293137
 10
48.7500012817
 20
-0.3214293137
  0
LWPOLYLINE
  5
2EC
100
AcDbEntity
  8
0
100
AcDbPolyline
 62
7
  6
CONTINUOUS
 90
3
 70
0
 43
0.3500000006
 10
38.1071447754
 20
34.3214277191
 10
38.1071447754
 20
32.8214272614
 10
35.7499995804
 20
33.4642852478
  0
LWPOLYLINE
  5
2ED
100
AcDbEntity
  8
0
100
AcDbPolyline
 62
7
  6
CONTINUOUS
 90
3
 70
0
 43
0.3500000006
 10
38.1071447754
 20
31.96428479
 10
38.1071447754
 20
30.4642843323
 10
35.7499995804
 20
31.1071423187
  0
LWPOLYLINE
  5
2EE
100
AcDbEntity
  8
0
100
AcDbPolyline
 62
7
  6
CONTINUOUS
 90
6
 70
0
 43
0.3500000006
 10
38.74999823
 20
-25.3928573627
 10
38.74999823
 20
-24.3214287071
 10
38.5357137451
 20
-24.1071428061
 10
37.4642867889
 20
-24.1071428061
 10
37.0357132874
 20
-24.535714325
 10
37.0357132874
 20
-24.9642858438
  0
LWPOLYLINE
  5
2EF
100
AcDbEntity
  8
0
100
AcDbPolyline
 62
7
  6
CONTINUOUS
 90
8
 70
0
 43
0.3500000006
 10
38.74999823
 20
36.8928551331
 10
38.74999823
 20
37.7500021362
 10
38.3214292603
 20
38.178571106
 10
37.4642867889
 20
38.178571106
 10
37.0357132874
 20
37.7500021362
 10
37.0357132874
 20
36.8928551331
 10
35.7499995804
 20
36.8928551331
 10
35.7499995804
 20
38.178571106
  0
LINE
  5
2F0
100
AcDbEntity
  8
RACCORDO
100
AcDbLine
 62
253
  6
CONTINUOUS
 10
-10.9641999704
 20
39.0149466221
 11
10.9647665031
 21
39.0149466221
  0
LWPOLYLINE
  5
2F1
100
AcDbEntity
  8
0
100
AcDbPolyline
 62
7
  6
CONTINUOUS
 90
10
 70
0
 43
0.3500000006
 10
-1.1785713937
 20
-61.250000885
 10
-1.8214286013
 20
-61.8928588715
 10
-2.2499999785
 20
-62.7500013428
 10
-2.2499999785
 20
-63.821428299
 10
-1.8214286013
 20
-64.2500018005
 10
-1.1785713937
 20
-64.2500018005
 10
-0.7500000165
 20
-63.821428299
 10
-0.7500000165
 20
-62.9642858276
 10
-1.1785713937
 20
-62.535712326
 10
-2.1071428528
 20
-62.535712326
  0
LINE
  5
2F2
100
AcDbEntity
  8
RACCORDO
100
AcDbLine
 62
7
  6
CONTINUOUS
 10
-13.1030569095
 20
38.0718612318
 11
-13.3417224637
 21
38.0123911192
  0
LWPOLYLINE
  5
2F3
100
AcDbEntity
  8
RACCORDO
100
AcDbPolyline
 62
7
  6
CONTINUOUS
 90
21
 70
0
 10
-15.6641495711
 20
37.4552622739
 10
-15.9016302625
 20
37.3965983356
 10
-16.1855386135
 20
37.321570671
 10
-16.452944589
 20
37.2452023443
 10
-16.7039286249
 20
37.1675067051
 10
-16.9389232341
 20
37.0883798307
 10
-17.1589285085
 20
37.0074774284
 10
-17.3640888683
 20
36.9246933309
 10
-17.5551249399
 20
36.8396419567
 10
-17.734131163
 20
36.7511062891
 10
-17.9012141981
 20
36.6585517211
 10
-18.0568317402
 20
36.5611071224
 10
-18.2034590375
 20
36.4560813013
 10
-18.3412025874
 20
36.3414550488
 10
-18.4684503514
 20
36.2160868833
 10
-18.5842553007
 20
36.0777302605
 10
-18.6876046587
 20
35.922626462
 10
-18.7734458183
 20
35.7517393035
 10
-18.8359220458
 20
35.5717172767
 10
-18.87304757
 20
35.3865806917
 10
-18.8826271038
 20
35.2798294129
  0
LINE
  5
2F4
100
AcDbEntity
  8
RACCORDO
100
AcDbLine
 62
253
  6
CONTINUOUS
 10
-15.4310374553
 20
37.4730810388
 11
-13.1086614079
 21
38.030196009
  0
LINE
  5
2F5
100
AcDbEntity
  8
RACCORDO
100
AcDbLine
 62
7
  6
CONTINUOUS
 10
-15.6643093383
 20
37.4552245231
 11
-13.3417222173
 21
38.0123900949
  0
LINE
  5
2F6
100
AcDbEntity
  8
RACCORDO
100
AcDbLine
 62
253
  6
CONTINUOUS
 10
-10.9106661888
 20
39.8660415899
 11
10.9106661888
 21
39.8660415899
  0
LINE
  5
2F7
100
AcDbEntity
  8
RACCORDO
100
AcDbLine
 62
253
  6
CONTINUOUS
 10
13.1086614048
 20
38.0301960097
 11
15.4310374553
 21
37.4730810388
  0
LINE
  5
2F8
100
AcDbEntity
  8
RACCORDO
100
AcDbLine
 62
7
  6
CONTINUOUS
 10
15.6643093302
 20
37.455224525
 11
15.664135839
 21
37.4552661216
  0
LINE
  5
2F9
100
AcDbEntity
  8
RACCORDO
100
AcDbLine
 62
7
  6
CONTINUOUS
 10
13.3417393047
 20
38.0123860009
 11
15.6643093381
 21
37.4552245232
  0
LINE
  5
2FA
100
AcDbEntity
  8
RACCORDO
100
AcDbLine
 62
7
  6
CONTINUOUS
 10
13.3417395742
 20
38.0123871214
 11
13.098016737
 21
38.0731679895
  0
LWPOLYLINE
  5
2FB
100
AcDbEntity
  8
RACCORDO
100
AcDbPolyline
 62
7
  6
CONTINUOUS
 90
10
 70
0
 10
13.098016737
 20
38.0731679895
 10
12.8300794985
 20
38.1461284551
 10
12.5975615031
 20
38.2160469469
 10
12.3980837791
 20
38.2824665416
 10
12.2297721576
 20
38.3447486352
 10
12.091617248
 20
38.4018041794
 10
11.9809650241
 20
38.4530869933
 10
11.8962853744
 20
38.497478068
 10
11.8383383125
 20
38.5321278121
 10
11.8044241073
 20
38.5554216865
  0
LWPOLYLINE
  5
2FC
100
AcDbEntity
  8
0
100
AcDbPolyline
 62
7
  6
CONTINUOUS
 90
3
 70
0
 43
0.3500000006
 10
48.1071432953
 20
2.0357136154
 10
48.1071432953
 20
0.5357131577
 10
45.7500003662
 20
1.1785711441
  0
LWPOLYLINE
  5
2FD
100
AcDbEntity
  8
0
100
AcDbPolyline
 62
7
  6
CONTINUOUS
 90
3
 70
0
 43
0.3500000006
 10
38.4642870941
 20
35.8928593597
 10
38.678571579
 20
35.8214281769
 10
38.9642872467
 20
35.678570343
  0
LWPOLYLINE
  5
2FE
100
AcDbEntity
  8
0
100
AcDbPolyline
 62
7
  6
CONTINUOUS
 90
5
 70
0
 43
0.3500000006
 10
0.9642857051
 20
-62.535712326
 10
1.3214285903
 20
-62.3214278412
 10
1.3214285903
 20
-61.6785698547
 10
0.9642857051
 20
-61.250000885
 10
0.1071428532
 20
-61.250000885
  0
LINE
  5
2FF
100
AcDbEntity
  8
RACCORDO
100
AcDbLine
 62
253
  6
CONTINUOUS
 10
-10.6623266062
 20
56.139173101
 11
10.6623266062
 21
56.139173101
  0
LINE
  5
300
100
AcDbEntity
  8
RACCORDO
100
AcDbLine
 62
7
  6
CONTINUOUS
 10
-11.2986276046
 20
57.0
 11
11.2986276046
 21
57.0
  0
LWPOLYLINE
  5
301
100
AcDbEntity
  8
0
100
AcDbPolyline
 62
7
  6
CONTINUOUS
 90
7
 70
0
 43
0.3500000006
 10
-2.8928572569
 20
65.7500016174
 10
-4.3928571482
 20
65.7500016174
 10
-2.8928572569
 20
67.8928555298
 10
-2.8928572569
 20
68.3214244995
 10
-3.3214284925
 20
68.750002533
 10
-3.9642856293
 20
68.750002533
 10
-4.3928571482
 20
68.1071400146
  0
LWPOLYLINE
  5
302
100
AcDbEntity
  8
0
100
AcDbPolyline
 62
7
  6
CONTINUOUS
 90
3
 70
0
 43
0.3500000006
 10
-0.5357142924
 20
66.392855072
 10
-2.0357142191
 20
66.392855072
 10
-1.3928570824
 20
68.750002533
  0
LWPOLYLINE
  5
303
100
AcDbEntity
  8
0
100
AcDbPolyline
 62
7
  6
CONTINUOUS
 90
6
 70
0
 43
0.3500000006
 10
-2.2499999785
 20
75.7499956055
 10
-1.1785713937
 20
75.7499956055
 10
-0.9642857051
 20
75.9642891541
 10
-0.9642857051
 20
77.0357115784
 10
-1.3928570824
 20
77.4642896118
 10
-1.8214286013
 20
77.4642896118
  0
LWPOLYLINE
  5
304
100
AcDbEntity
  8
0
100
AcDbPolyline
 62
7
  6
CONTINUOUS
 90
8
 70
0
 43
0.3500000006
 10
-114.3941797485
 20
-64.2500018005
 10
-113.5370418091
 20
-64.2500018005
 10
-113.1084637756
 20
-63.821428299
 10
-113.1084637756
 20
-62.9642858276
 10
-113.5370418091
 20
-62.535712326
 10
-114.3941797485
 20
-62.535712326
 10
-114.3941797485
 20
-61.250000885
 10
-113.1084637756
 20
-61.250000885
  0
LWPOLYLINE
  5
305
100
AcDbEntity
  8
0
100
AcDbPolyline
 62
7
  6
CONTINUOUS
 90
7
 70
0
 43
0.3500000006
 10
-110.7513253784
 20
-64.2500018005
 10
-112.2513258362
 20
-64.2500018005
 10
-110.7513253784
 20
-62.1071433563
 10
-110.7513253784
 20
-61.6785698547
 10
-111.1798943481
 20
-61.250000885
 10
-111.8227568665
 20
-61.250000885
 10
-112.2513258362
 20
-61.8928588715
  0
LINE
  5
306
100
AcDbEntity
  8
RACCORDO
100
AcDbLine
 62
7
  6
CONTINUOUS
 10
-135.6555694608
 20
-56.1904516689
 11
-120.2084671002
 21
-57.0
  0
LINE
  5
307
100
AcDbEntity
  8
RACCORDO
100
AcDbLine
 62
253
  6
CONTINUOUS
 10
-134.773487573
 20
-55.2380500871
 11
-120.2084671002
 21
-56.0013704652
  0
LWPOLYLINE
  5
308
100
AcDbEntity
  8
0
100
AcDbPolyline
 62
7
  6
CONTINUOUS
 90
13
 70
0
 43
0.3500000006
 10
-107.7513244629
 20
-62.535712326
 10
-108.0370401306
 20
-62.3214278412
 10
-108.0370401306
 20
-61.6785698547
 10
-107.7513244629
 20
-61.250000885
 10
-107.1084710083
 20
-61.250000885
 10
-106.8227553406
 20
-61.6785698547
 10
-106.8227553406
 20
-62.3214278412
 10
-107.1084710083
 20
-62.535712326
 10
-106.6798929749
 20
-62.9642858276
 10
-106.6798929749
 20
-63.821428299
 10
-107.1084710083
 20
-64.2500018005
 10
-107.7513244629
 20
-64.2500018005
 10
-108.1798934326
 20
-63.821428299
  0
LWPOLYLINE
  5
309
100
AcDbEntity
  8
0
100
AcDbPolyline
 62
7
  6
CONTINUOUS
 90
10
 70
0
 43
0.3500000006
 10
-90.7334637451
 20
78.749996521
 10
-91.3763262634
 20
78.1071430664
 10
-91.8048952332
 20
77.2499960632
 10
-91.8048952332
 20
76.1785736389
 10
-91.3763262634
 20
75.7499956055
 10
-90.7334637451
 20
75.7499956055
 10
-90.3048947754
 20
76.1785736389
 10
-90.3048947754
 20
77.0357115784
 10
-90.7334637451
 20
77.4642896118
 10
-91.6620419312
 20
77.4642896118
  0
LINE
  5
30A
100
AcDbEntity
  8
RACCORDO
100
AcDbLine
 62
7
  6
CONTINUOUS
 10
-120.2084671002
 20
-57.0
 11
-84.6561311439
 21
-55.1367810242
  0
LINE
  5
30B
100
AcDbEntity
  8
RACCORDO
100
AcDbLine
 62
253
  6
CONTINUOUS
 10
-120.2084671002
 20
-56.0013704652
 11
-100.7664198878
 21
-54.9824559461
  0
LINE
  5
30C
100
AcDbEntity
  8
RACCORDO
100
AcDbLine
 62
253
  6
CONTINUOUS
 10
-134.773487573
 20
-55.2380500871
 11
-135.6248134964
 21
-55.2380500871
  0
LINE
  5
30D
100
AcDbEntity
  8
RACCORDO
100
AcDbLine
 62
253
  6
CONTINUOUS
 10
-136.0020654644
 20
-49.2609302555
 11
-136.0018652265
 21
-49.2609302555
  0
LWPOLYLINE
  5
30E
100
AcDbEntity
  8
RACCORDO
100
AcDbPolyline
 62
7
  6
CONTINUOUS
 90
6
 70
0
 10
-136.0160193022
 20
-0.8052981733
 10
-136.0159713475
 20
-0.805760206
 10
-136.0157722336
 20
-0.8078525018
 10
-136.0154962947
 20
-0.8111606767
 10
-136.0151869899
 20
-0.8153846149
 10
-136.0148505004
 20
-0.8204871833
  0
LINE
  5
30F
100
AcDbEntity
  8
RACCORDO
100
AcDbLine
 62
7
  6
CONTINUOUS
 10
-136.0148505004
 20
-0.8204871833
 11
-136.0141219012
 21
-0.8329395148
  0
LINE
  5
310
100
AcDbEntity
  8
RACCORDO
100
AcDbLine
 62
7
  6
CONTINUOUS
 10
-136.0141219012
 20
-0.8329395148
 11
-136.013391091
 21
-0.8473438621
  0
LINE
  5
311
100
AcDbEntity
  8
RACCORDO
100
AcDbLine
 62
7
  6
CONTINUOUS
 10
-136.013391091
 20
-0.8473438621
 11
-136.012675521
 21
-0.863749467
  0
LINE
  5
312
100
AcDbEntity
  8
RACCORDO
100
AcDbLine
 62
7
  6
CONTINUOUS
 10
-136.012675521
 20
-0.863749467
 11
-136.0119662514
 21
-0.8819485843
  0
LINE
  5
313
100
AcDbEntity
  8
RACCORDO
100
AcDbLine
 62
7
  6
CONTINUOUS
 10
-136.0119662514
 20
-0.8819485843
 11
-136.0112866179
 21
-0.9014773745
  0
LINE
  5
314
100
AcDbEntity
  8
RACCORDO
100
AcDbLine
 62
7
  6
CONTINUOUS
 10
-136.0112866179
 20
-0.9014773745
 11
-136.0106341293
 21
-0.922241806
  0
LINE
  5
315
100
AcDbEntity
  8
RACCORDO
100
AcDbLine
 62
7
  6
CONTINUOUS
 10
-136.0106341293
 20
-0.922241806
 11
-136.0100026751
 21
-0.9441152278
  0
LWPOLYLINE
  5
316
100
AcDbEntity
  8
RACCORDO
100
AcDbPolyline
 62
7
  6
CONTINUOUS
 90
6
 70
0
 10
-136.5084671002
 20
0.2784219786
 10
-136.5081928282
 20
0.267951375
 10
-136.5062688223
 20
0.2488503923
 10
-136.5025236686
 20
0.2300272658
 10
-136.4969929235
 20
0.2116536183
 10
-136.4897286576
 20
0.1938983263
  0
LINE
  5
317
100
AcDbEntity
  8
RACCORDO
100
AcDbLine
 62
7
  6
CONTINUOUS
 10
-136.0100026751
 20
-0.9441152278
 11
-136.0094051133
 21
-0.9669082753
  0
LINE
  5
318
100
AcDbEntity
  8
RACCORDO
100
AcDbLine
 62
7
  6
CONTINUOUS
 10
-136.0094051133
 20
-0.9669082753
 11
-136.0085556026
 21
-1.0027384149
  0
LINE
  5
319
100
AcDbEntity
  8
RACCORDO
100
AcDbLine
 62
7
  6
CONTINUOUS
 10
-136.0085556026
 20
-1.0027384149
 11
-136.007763351
 21
-1.0405070183
  0
LINE
  5
31A
100
AcDbEntity
  8
RACCORDO
100
AcDbLine
 62
7
  6
CONTINUOUS
 10
-136.007763351
 20
-1.0405070183
 11
-136.0070179627
 21
-1.080243749
  0
LINE
  5
31B
100
AcDbEntity
  8
RACCORDO
100
AcDbLine
 62
7
  6
CONTINUOUS
 10
-136.0070179627
 20
-1.080243749
 11
-136.0063211502
 21
-1.1220356516
  0
LINE
  5
31C
100
AcDbEntity
  8
RACCORDO
100
AcDbLine
 62
7
  6
CONTINUOUS
 10
-136.0063211502
 20
-1.1220356516
 11
-136.0056675552
 21
-1.1659856003
  0
LINE
  5
31D
100
AcDbEntity
  8
RACCORDO
100
AcDbLine
 62
7
  6
CONTINUOUS
 10
-136.0056675552
 20
-1.1659856003
 11
-136.0050586798
 21
-1.2121928524
  0
LINE
  5
31E
100
AcDbEntity
  8
RACCORDO
100
AcDbLine
 62
7
  6
CONTINUOUS
 10
-136.0050586798
 20
-1.2121928524
 11
-136.0044916416
 21
-1.2610422669
  0
LINE
  5
31F
100
AcDbEntity
  8
RACCORDO
100
AcDbLine
 62
7
  6
CONTINUOUS
 10
-136.0044916416
 20
-1.2610422669
 11
-136.0039632025
 21
-1.3133029749
  0
LINE
  5
320
100
AcDbEntity
  8
RACCORDO
100
AcDbLine
 62
7
  6
CONTINUOUS
 10
-136.0039632025
 20
-1.3133029749
 11
-136.003481635
 21
-1.3690512922
  0
LINE
  5
321
100
AcDbEntity
  8
RACCORDO
100
AcDbLine
 62
7
  6
CONTINUOUS
 10
-136.003481635
 20
-1.3690512922
 11
-136.0030559326
 21
-1.4279265368
  0
LINE
  5
322
100
AcDbEntity
  8
RACCORDO
100
AcDbLine
 62
7
  6
CONTINUOUS
 10
-136.0030559326
 20
-1.4279265368
 11
-136.0026976522
 21
-1.4895542626
  0
LINE
  5
323
100
AcDbEntity
  8
RACCORDO
100
AcDbLine
 62
7
  6
CONTINUOUS
 10
-136.0026976522
 20
-1.4895542626
 11
-136.002412517
 21
-1.5535547753
  0
LINE
  5
324
100
AcDbEntity
  8
RACCORDO
100
AcDbLine
 62
7
  6
CONTINUOUS
 10
-136.002412517
 20
-1.5535547753
 11
-136.0022095241
 21
-1.6195405429
  0
LINE
  5
325
100
AcDbEntity
  8
RACCORDO
100
AcDbLine
 62
7
  6
CONTINUOUS
 10
-136.0022095241
 20
-1.6195405429
 11
-136.0020927491
 21
-1.6871178541
  0
LINE
  5
326
100
AcDbEntity
  8
ASSI
100
AcDbLine
 62
7
  6
CONTINUOUS
 10
-136.5084671002
 20
4.2916850877
 11
-136.5084671002
 21
0.2784213418
  0
LINE
  5
327
100
AcDbEntity
  8
ASSI
100
AcDbLine
 62
7
  6
CONTINUOUS
 10
-136.5084671002
 20
-51.2784213418
 11
-136.5084671002
 21
-55.2916850877
  0
LINE
  5
328
100
AcDbEntity
  8
RACCORDO
100
AcDbLine
 62
7
  6
CONTINUOUS
 10
-136.0020927491
 20
-1.6871178541
 11
-136.0020660796
 21
-1.7390697445
  0
LINE
  5
329
100
AcDbEntity
  8
RACCORDO
100
AcDbLine
 62
253
  6
CONTINUOUS
 10
-136.0018652265
 20
-49.2609302555
 11
-136.0018652265
 21
-1.7390697445
  0
LINE
  5
32A
100
AcDbEntity
  8
RACCORDO
100
AcDbLine
 62
7
  6
CONTINUOUS
 10
-136.0020654644
 20
-1.7390697445
 11
-136.0020788617
 21
-49.2969752016
  0
LINE
  5
32B
100
AcDbEntity
  8
RACCORDO
100
AcDbLine
 62
7
  6
CONTINUOUS
 10
-136.0020788617
 20
-49.2969752016
 11
-136.0021361247
 21
-49.3447734619
  0
LINE
  5
32C
100
AcDbEntity
  8
RACCORDO
100
AcDbLine
 62
7
  6
CONTINUOUS
 10
-136.0021361247
 20
-49.3447734619
 11
-136.0023051513
 21
-49.4151370652
  0
LWPOLYLINE
  5
32D
100
AcDbEntity
  8
0
100
AcDbPolyline
 62
7
  6
CONTINUOUS
 90
10
 70
0
 43
0.3500000006
 10
-86.422749115
 20
68.750002533
 10
-87.0656116333
 20
68.1071400146
 10
-87.494180603
 20
67.2500020752
 10
-87.494180603
 20
66.1785705872
 10
-87.0656116333
 20
65.7500016174
 10
-86.422749115
 20
65.7500016174
 10
-85.9941801453
 20
66.1785705872
 10
-85.9941801453
 20
67.0357175903
 10
-86.422749115
 20
67.4642865601
 10
-87.351327301
 20
67.4642865601
  0
LWPOLYLINE
  5
32E
100
AcDbEntity
  8
0
100
AcDbPolyline
 62
7
  6
CONTINUOUS
 90
10
 70
0
 43
0.3500000006
 10
-109.2513249207
 20
-63.7500016479
 10
-109.1798937378
 20
-63.89285495
 10
-109.1798937378
 20
-63.9642861328
 10
-109.3227561035
 20
-64.1071439667
 10
-109.3941782227
 20
-64.1071439667
 10
-109.4656094055
 20
-64.0357127838
 10
-109.4656094055
 20
-63.9642861328
 10
-109.3941782227
 20
-63.821428299
 10
-109.3227561035
 20
-63.7500016479
 10
-109.2513249207
 20
-63.7500016479
  0
LINE
  5
32F
100
AcDbEntity
  8
RACCORDO
100
AcDbLine
 62
253
  6
CONTINUOUS
 10
-135.6248134964
 20
4.2380500871
 11
-135.6248134964
 21
-55.2380500871
  0
LINE
  5
330
100
AcDbEntity
  8
RACCORDO
100
AcDbLine
 62
253
  6
CONTINUOUS
 10
-134.773487573
 20
4.2380500871
 11
-134.773487573
 21
-55.2380500871
  0
LINE
  5
331
100
AcDbEntity
  8
RACCORDO
100
AcDbLine
 62
7
  6
CONTINUOUS
 10
-136.0023051513
 20
-49.4151370652
 11
-136.002469363
 21
-49.4609536483
  0
LINE
  5
332
100
AcDbEntity
  8
RACCORDO
100
AcDbLine
 62
7
  6
CONTINUOUS
 10
-136.002469363
 20
-49.4609536483
 11
-136.0027896096
 21
-49.5277349961
  0
LINE
  5
333
100
AcDbEntity
  8
RACCORDO
100
AcDbLine
 62
7
  6
CONTINUOUS
 10
-136.0027896096
 20
-49.5277349961
 11
-136.0031893481
 21
-49.5917711455
  0
LINE
  5
334
100
AcDbEntity
  8
RACCORDO
100
AcDbLine
 62
7
  6
CONTINUOUS
 10
-136.0031893481
 20
-49.5917711455
 11
-136.0036590646
 21
-49.6526263394
  0
LINE
  5
335
100
AcDbEntity
  8
RACCORDO
100
AcDbLine
 62
7
  6
CONTINUOUS
 10
-136.0036590646
 20
-49.6526263394
 11
-136.0041883024
 21
-49.7098594309
  0
LINE
  5
336
100
AcDbEntity
  8
RACCORDO
100
AcDbLine
 62
7
  6
CONTINUOUS
 10
-136.0041883024
 20
-49.7098594309
 11
-136.0047630843
 21
-49.7631904867
  0
LINE
  5
337
100
AcDbEntity
  8
RACCORDO
100
AcDbLine
 62
7
  6
CONTINUOUS
 10
-136.0047630843
 20
-49.7631904867
 11
-136.0053823704
 21
-49.8130456349
  0
LINE
  5
338
100
AcDbEntity
  8
RACCORDO
100
AcDbLine
 62
7
  6
CONTINUOUS
 10
-136.0053823704
 20
-49.8130456349
 11
-136.0060478347
 21
-49.8602340152
  0
LINE
  5
339
100
AcDbEntity
  8
RACCORDO
100
AcDbLine
 62
7
  6
CONTINUOUS
 10
-136.0060478347
 20
-49.8602340152
 11
-136.0067624664
 21
-49.9049756298
  0
LINE
  5
33A
100
AcDbEntity
  8
RACCORDO
100
AcDbLine
 62
7
  6
CONTINUOUS
 10
-136.0067624664
 20
-49.9049756298
 11
-136.0075284846
 21
-49.947450837
  0
LINE
  5
33B
100
AcDbEntity
  8
RACCORDO
100
AcDbLine
 62
7
  6
CONTINUOUS
 10
-136.0075284846
 20
-49.947450837
 11
-136.0083483121
 21
-49.9878153517
  0
LINE
  5
33C
100
AcDbEntity
  8
RACCORDO
100
AcDbLine
 62
7
  6
CONTINUOUS
 10
-136.0083483121
 20
-49.9878153517
 11
-136.0089308711
 21
-50.0135954447
  0
LINE
  5
33D
100
AcDbEntity
  8
RACCORDO
100
AcDbLine
 62
7
  6
CONTINUOUS
 10
-136.0089308711
 20
-50.0135954447
 11
-136.0095423896
 21
-50.0385133676
  0
LINE
  5
33E
100
AcDbEntity
  8
RACCORDO
100
AcDbLine
 62
7
  6
CONTINUOUS
 10
-136.0095423896
 20
-50.0385133676
 11
-136.010188104
 21
-50.0625075933
  0
LINE
  5
33F
100
AcDbEntity
  8
RACCORDO
100
AcDbLine
 62
7
  6
CONTINUOUS
 10
-136.010188104
 20
-50.0625075933
 11
-136.0108692391
 21
-50.0854566955
  0
LINE
  5
340
100
AcDbEntity
  8
RACCORDO
100
AcDbLine
 62
7
  6
CONTINUOUS
 10
-136.0108692391
 20
-50.0854566955
 11
-136.0115753589
 21
-50.1071143651
  0
LINE
  5
341
100
AcDbEntity
  8
RACCORDO
100
AcDbLine
 62
7
  6
CONTINUOUS
 10
-136.0115753589
 20
-50.1071143651
 11
-136.0123197768
 21
-50.1273420538
  0
LINE
  5
342
100
AcDbEntity
  8
RACCORDO
100
AcDbLine
 62
7
  6
CONTINUOUS
 10
-136.0123197768
 20
-50.1273420538
 11
-136.0130827287
 21
-50.1458479127
  0
LINE
  5
343
100
AcDbEntity
  8
RACCORDO
100
AcDbLine
 62
7
  6
CONTINUOUS
 10
-136.0130827287
 20
-50.1458479127
 11
-136.0138624331
 21
-50.1621890645
  0
LWPOLYLINE
  5
344
100
AcDbEntity
  8
RACCORDO
100
AcDbPolyline
 62
7
  6
CONTINUOUS
 90
5
 70
0
 10
-136.0138624331
 20
-50.1621890645
 10
-136.0146362826
 20
-50.17607055
 10
-136.0150066625
 20
-50.181975826
 10
-136.0153501471
 20
-50.186917747
 10
-136.0155053016
 20
-50.1889461235
  0
LINE
  5
345
100
AcDbEntity
  8
RACCORDO
100
AcDbLine
 62
7
  6
CONTINUOUS
 10
-136.4897286576
 20
0.1938983263
 11
-136.0145719436
 21
-0.8250785351
  0
LINE
  5
346
100
AcDbEntity
  8
RACCORDO
100
AcDbLine
 62
7
  6
CONTINUOUS
 10
-120.2084671002
 20
-57.0
 11
-120.2084671002
 21
6.0
  0
LWPOLYLINE
  5
347
100
AcDbEntity
  8
0
100
AcDbPolyline
 62
7
  6
CONTINUOUS
 90
3
 70
0
 43
0.3500000006
 10
-92.8048955383
 20
76.0357112732
 10
-92.8763267212
 20
75.8214267883
 10
-93.0191800232
 20
75.5357111206
  0
LINE
  5
348
100
AcDbEntity
  8
SUP_COSTRUZIONE
100
AcDbLine
 62
7
  6
CONTINUOUS
 10
-114.9316464956
 20
13.4476640343
 11
-115.4060593209
 21
22.5
  0
LINE
  5
349
100
AcDbEntity
  8
DRAFT
100
AcDbLine
 62
7
  6
CONTINUOUS
 10
-115.3261888952
 20
23.5
 11
-115.2754633258
 21
22.5
  0
LINE
  5
34A
100
AcDbEntity
  8
DRAFT
100
AcDbLine
 62
7
  6
CONTINUOUS
 10
-115.4584671002
 20
23.5
 11
-114.9732862752
 21
32.7578016384
  0
LWPOLYLINE
  5
34B
100
AcDbEntity
  8
RACCORDO
100
AcDbPolyline
 62
7
  6
CONTINUOUS
 90
6
 70
0
 10
-136.4897286576
 20
-51.1938983263
 10
-136.4969926118
 20
-51.2116527384
 10
-136.5025232946
 20
-51.230025766
 10
-136.5062685506
 20
-51.2488485752
 10
-136.5081927397
 20
-51.2679496859
 10
-136.5084671001
 20
-51.2784219786
  0
LWPOLYLINE
  5
34C
100
AcDbEntity
  8
0
100
AcDbPolyline
 62
7
  6
CONTINUOUS
 90
4
 70
0
 43
0.3500000006
 10
-108.1798934326
 20
-63.821428299
 10
-108.1798934326
 20
-62.9642858276
 10
-107.7513244629
 20
-62.535712326
 10
-107.1084710083
 20
-62.535712326
  0
LINE
  5
34D
100
AcDbEntity
  8
0
100
AcDbLine
 62
7
  6
CONTINUOUS
 10
-108.00788923
 20
10.4280314749
 11
-108.2203989575
 21
6.3731043167
  0
LINE
  5
34E
100
AcDbEntity
  8
RACCORDO
100
AcDbLine
 62
7
  6
CONTINUOUS
 10
-108.2203989575
 20
6.3731043167
 11
-108.00788923
 21
10.4280314749
  0
LINE
  5
34F
100
AcDbEntity
  8
RACCORDO
100
AcDbLine
 62
7
  6
CONTINUOUS
 10
-136.4897286576
 20
-51.1938983263
 11
-136.0145695454
 21
-50.1749163218
  0
LWPOLYLINE
  5
350
100
AcDbEntity
  8
0
100
AcDbPolyline
 62
7
  6
CONTINUOUS
 90
3
 70
0
 43
0.3500000006
 10
-82.0656101074
 20
66.0357172852
 10
-82.1370412903
 20
65.8214328003
 10
-82.2798945923
 20
65.5357171326
  0
LINE
  5
351
100
AcDbEntity
  8
RACCORDO
100
AcDbLine
 62
253
  6
CONTINUOUS
 10
-100.7664198878
 20
-54.9824559461
 11
-100.7664198878
 21
3.9824559461
  0
LWPOLYLINE
  5
352
100
AcDbEntity
  8
0
100
AcDbPolyline
 62
7
  6
CONTINUOUS
 90
4
 70
0
 43
0.3500000006
 10
-98.0191815491
 20
76.1785736389
 10
-98.0191815491
 20
77.0357115784
 10
-97.5906125793
 20
77.4642896118
 10
-96.947750061
 20
77.4642896118
  0
LINE
  5
353
100
AcDbEntity
  8
RACCORDO
100
AcDbLine
 62
253
  6
CONTINUOUS
 10
-136.0020654644
 20
-1.7390697445
 11
-136.0018652265
 21
-1.7390697445
  0
LINE
  5
354
100
AcDbEntity
  8
RACCORDO
100
AcDbLine
 62
253
  6
CONTINUOUS
 10
-134.773487573
 20
4.2380500871
 11
-135.6248134964
 21
4.2380500871
  0
LINE
  5
355
100
AcDbEntity
  8
RACCORDO
100
AcDbLine
 62
253
  6
CONTINUOUS
 10
-100.7664198878
 20
3.9824559461
 11
-120.2084671002
 21
5.0013704652
  0
LINE
  5
356
100
AcDbEntity
  8
RACCORDO
100
AcDbLine
 62
7
  6
CONTINUOUS
 10
-84.6561311439
 20
4.1367810242
 11
-120.2084671002
 21
6.0
  0
LINE
  5
357
100
AcDbEntity
  8
RACCORDO
100
AcDbLine
 62
253
  6
CONTINUOUS
 10
-86.2084671002
 20
23.5
 11
-86.5500387041
 21
36.5351489263
  0
LWPOLYLINE
  5
358
100
AcDbEntity
  8
0
100
AcDbPolyline
 62
7
  6
CONTINUOUS
 90
2
 70
0
 43
0.3500000006
 10
-84.1370419006
 20
65.7500016174
 10
-84.1370419006
 20
67.2500020752
  0
LINE
  5
359
100
AcDbEntity
  8
RACCORDO
100
AcDbLine
 62
7
  6
CONTINUOUS
 10
-83.7084671002
 20
-54.1381514895
 11
-83.7084671002
 21
4.0871160562
  0
LINE
  5
35A
100
AcDbEntity
  8
RACCORDO
100
AcDbLine
 62
253
  6
CONTINUOUS
 10
-86.2084671002
 20
23.5
 11
-86.4718774022
 21
13.4476640438
  0
LWPOLYLINE
  5
35B
100
AcDbEntity
  8
0
100
AcDbPolyline
 62
7
  6
CONTINUOUS
 90
3
 70
0
 43
0.3500000006
 10
-109.1798937378
 20
-63.9642861328
 10
-109.2513249207
 20
-64.1785706177
 10
-109.3941782227
 20
-64.4642862854
  0
LINE
  5
35C
100
AcDbEntity
  8
RACCORDO
100
AcDbLine
 62
253
  6
CONTINUOUS
 10
-134.773487573
 20
4.2380500871
 11
-120.2084671002
 21
5.0013704652
  0
LINE
  5
35D
100
AcDbEntity
  8
RACCORDO
100
AcDbLine
 62
7
  6
CONTINUOUS
 10
-135.6555694608
 20
5.1904516689
 11
-120.2084671002
 21
6.0
  0
LINE
  5
35E
100
AcDbEntity
  8
0
100
AcDbLine
 62
7
  6
CONTINUOUS
 10
-84.0407803959
 20
10.4280314749
 11
-83.7084671002
 21
4.0871160562
  0
LINE
  5
35F
100
AcDbEntity
  8
RACCORDO
100
AcDbLine
 62
7
  6
CONTINUOUS
 10
-83.7084671002
 20
4.0871160562
 11
-84.0407803959
 21
10.4280314749
  0
LINE
  5
360
100
AcDbEntity
  8
RACCORDO
100
AcDbLine
 62
253
  6
CONTINUOUS
 10
-81.7434541468
 20
23.5
 11
-82.0068644488
 21
13.4476640438
  0
LINE
  5
361
100
AcDbEntity
  8
RACCORDO
100
AcDbLine
 62
7
  6
CONTINUOUS
 10
-75.3664879169
 20
39.8660415899
 11
-73.0794484311
 21
56.139173101
  0
LINE
  5
362
100
AcDbEntity
  8
0
100
AcDbLine
 62
253
  6
CONTINUOUS
 10
-84.0407803959
 20
10.4280314749
 11
-108.00788923
 21
10.4280314749
  0
LINE
  5
363
100
AcDbEntity
  8
RACCORDO
100
AcDbLine
 62
7
  6
CONTINUOUS
 10
-50.9584671002
 20
12.5
 11
-113.9327838055
 21
12.5
  0
LINE
  5
364
100
AcDbEntity
  8
RACCORDO
100
AcDbLine
 62
253
  6
CONTINUOUS
 10
-51.9061311439
 20
13.4476640438
 11
-114.9316464956
 21
13.4476640346
  0
LINE
  5
365
100
AcDbEntity
  8
RACCORDO
100
AcDbLine
 62
253
  6
CONTINUOUS
 10
-74.2434541468
 20
12.5
 11
-74.2434541468
 21
23.5
  0
LINE
  5
366
100
AcDbEntity
  8
DRAFT
100
AcDbLine
 62
7
  6
CONTINUOUS
 10
-115.4060430516
 20
22.5
 11
-115.2754633258
 21
22.5
  0
LINE
  5
367
100
AcDbEntity
  8
DRAFT
100
AcDbLine
 62
7
  6
CONTINUOUS
 10
-115.4584671002
 20
23.5
 11
-86.2084671002
 21
23.5
  0
LINE
  5
368
100
AcDbEntity
  8
RACCORDO
100
AcDbLine
 62
7
  6
CONTINUOUS
 10
-61.9584671002
 20
23.5
 11
-86.2084671002
 21
23.5
  0
LINE
  5
369
100
AcDbEntity
  8
0
100
AcDbLine
 62
7
  6
CONTINUOUS
 10
-61.9584671002
 20
23.5
 11
-86.2084671002
 21
23.5
  0
LINE
  5
36A
100
AcDbEntity
  8
RACCORDO
100
AcDbLine
 62
7
  6
CONTINUOUS
 10
-61.9584671002
 20
23.5
 11
-61.9584671002
 21
57.0
  0
LINE
  5
36B
100
AcDbEntity
  8
RACCORDO
100
AcDbLine
 62
253
  6
CONTINUOUS
 10
-82.5859597076
 20
37.0922638975
 11
-86.5500387041
 21
36.5351489263
  0
LINE
  5
36C
100
AcDbEntity
  8
RACCORDO
100
AcDbLine
 62
7
  6
CONTINUOUS
 10
-76.2175828846
 20
39.0149466221
 11
-114.1140102877
 21
33.6889510826
  0
LWPOLYLINE
  5
36D
100
AcDbEntity
  8
0
100
AcDbPolyline
 62
7
  6
CONTINUOUS
 90
10
 70
0
 43
0.3500000006
 10
-92.8763267212
 20
76.2499957581
 10
-92.8048955383
 20
76.1071424561
 10
-92.8048955383
 20
76.0357112732
 10
-92.9477488403
 20
75.8928579712
 10
-93.0191800232
 20
75.8928579712
 10
-93.0906112061
 20
75.9642891541
 10
-93.0906112061
 20
76.0357112732
 10
-93.0191800232
 20
76.1785736389
 10
-92.9477488403
 20
76.2499957581
 10
-92.8763267212
 20
76.2499957581
  0
LINE
  5
36E
100
AcDbEntity
  8
RACCORDO
100
AcDbLine
 62
253
  6
CONTINUOUS
 10
-51.9061311439
 20
56.0
 11
-51.9061311439
 21
13.4476640438
  0
LINE
  5
36F
100
AcDbEntity
  8
RACCORDO
100
AcDbLine
 62
7
  6
CONTINUOUS
 10
-50.9584671002
 20
12.5
 11
-50.9584671002
 21
57.0
  0
LINE
  5
370
100
AcDbEntity
  8
RACCORDO
100
AcDbLine
 62
7
  6
CONTINUOUS
 10
-61.9584671002
 20
23.5
 11
-51.9061311439
 21
13.4476640438
  0
LWPOLYLINE
  5
371
100
AcDbEntity
  8
0
100
AcDbPolyline
 62
7
  6
CONTINUOUS
 90
10
 70
0
 43
0.3500000006
 10
-82.1370412903
 20
66.25000177
 10
-82.0656101074
 20
66.1071394043
 10
-82.0656101074
 20
66.0357172852
 10
-82.2084634094
 20
65.8928549194
 10
-82.2798945923
 20
65.8928549194
 10
-82.3513257751
 20
65.9642861023
 10
-82.3513257751
 20
66.0357172852
 10
-82.2798945923
 20
66.1785705872
 10
-82.2084634094
 20
66.25000177
 10
-82.1370412903
 20
66.25000177
  0
LINE
  5
372
100
AcDbEntity
  8
RACCORDO
100
AcDbLine
 62
253
  6
CONTINUOUS
 10
-61.9584671002
 20
56.0
 11
-51.9061311439
 21
56.0
  0
LINE
  5
373
100
AcDbEntity
  8
RACCORDO
100
AcDbLine
 62
7
  6
CONTINUOUS
 10
-72.0891803623
 20
57.0
 11
-50.9584671002
 21
57.0
  0
LWPOLYLINE
  5
374
100
AcDbEntity
  8
0
100
AcDbPolyline
 62
7
  6
CONTINUOUS
 90
13
 70
0
 43
0.3500000006
 10
-97.5906125793
 20
77.4642896118
 10
-97.8763282471
 20
77.6785740967
 10
-97.8763282471
 20
78.3214275513
 10
-97.5906125793
 20
78.749996521
 10
-96.947750061
 20
78.749996521
 10
-96.6620343933
 20
78.3214275513
 10
-96.6620343933
 20
77.6785740967
 10
-96.947750061
 20
77.4642896118
 10
-96.5191810913
 20
77.0357115784
 10
-96.5191810913
 20
76.1785736389
 10
-96.947750061
 20
75.7499956055
 10
-97.5906125793
 20
75.7499956055
 10
-98.0191815491
 20
76.1785736389
  0
LWPOLYLINE
  5
375
100
AcDbEntity
  8
0
100
AcDbPolyline
 62
7
  6
CONTINUOUS
 90
8
 70
0
 43
0.3500000006
 10
-81.0656098022
 20
65.7500016174
 10
-80.2084627991
 20
65.7500016174
 10
-79.7798938293
 20
66.1785705872
 10
-79.7798938293
 20
67.0357175903
 10
-80.2084627991
 20
67.4642865601
 10
-81.0656098022
 20
67.4642865601
 10
-81.0656098022
 20
68.750002533
 10
-79.7798938293
 20
68.750002533
  0
LWPOLYLINE
  5
376
100
AcDbEntity
  8
0
100
AcDbPolyline
 62
7
  6
CONTINUOUS
 90
3
 70
0
 43
0.3500000006
 10
-83.637041748
 20
66.392855072
 10
-85.1370422058
 20
66.392855072
 10
-84.4941796875
 20
68.750002533
  0
LWPOLYLINE
  5
377
100
AcDbEntity
  8
0
100
AcDbPolyline
 62
7
  6
CONTINUOUS
 90
8
 70
0
 43
0.3500000006
 10
-95.6620340881
 20
75.7499956055
 10
-94.8048961487
 20
75.7499956055
 10
-94.376327179
 20
76.1785736389
 10
-94.376327179
 20
77.0357115784
 10
-94.8048961487
 20
77.4642896118
 10
-95.6620340881
 20
77.4642896118
 10
-95.6620340881
 20
78.749996521
 10
-94.376327179
 20
78.749996521
  0
ARC
  5
378
100
AcDbEntity
  8
RACCORDO
100
AcDbCircle
 62
253
  6
CONTINUOUS
 10
-18.1655590721
 20
-50.6113139883
 40
4.0954513437
100
AcDbArc
 50
173.4672519085
 51
174.6561473427
  0
ARC
  5
379
100
AcDbEntity
  8
RACCORDO
100
AcDbCircle
 62
253
  6
CONTINUOUS
 10
-22.2060408168
 20
-47.5060408168
 40
0.1999810696
100
AcDbArc
 50
180.0033034861
 51
269.9966965139
  0
ARC
  5
37A
100
AcDbEntity
  8
RACCORDO
100
AcDbCircle
 62
253
  6
CONTINUOUS
 10
-1892.387743458
 20
76.7516323291
 40
1880.8418388395
100
AcDbArc
 50
358.8727791053
 51
359.3684332415
  0
ARC
  5
37B
100
AcDbEntity
  8
RACCORDO
100
AcDbCircle
 62
253
  6
CONTINUOUS
 10
-1879.0928700322
 20
76.5142939035
 40
1868.5416348465
100
AcDbArc
 50
358.8761690972
 51
359.3752177937
  0
ARC
  5
37C
100
AcDbEntity
  8
RACCORDO
100
AcDbCircle
 62
253
  6
CONTINUOUS
 10
-42.3462280769
 20
38.6444737879
 40
54.267395392
100
AcDbArc
 50
0.2735901807
 51
1.168220626
  0
ARC
  5
37D
100
AcDbEntity
  8
RACCORDO
100
AcDbCircle
 62
253
  6
CONTINUOUS
 10
-11.5511425969
 20
21.2855652973
 40
16.6459980173
100
AcDbArc
 50
103.4786338703
 51
104.2680854378
  0
ARC
  5
37E
100
AcDbEntity
  8
RACCORDO
100
AcDbCircle
 62
253
  6
CONTINUOUS
 10
-11.8722170959
 20
22.5502864124
 40
15.3411577872
100
AcDbArc
 50
104.2700716358
 51
104.6728409689
  0
ARC
  5
37F
100
AcDbEntity
  8
RACCORDO
100
AcDbCircle
 62
253
  6
CONTINUOUS
 10
-2.7436415678
 20
39.3119544364
 40
13.6655454661
100
AcDbArc
 50
0.539919717
 51
2.3237682348
  0
ARC
  5
380
100
AcDbEntity
  8
RACCORDO
100
AcDbCircle
 62
253
  6
CONTINUOUS
 10
-18.0455667191
 20
-0.3761845993
 40
4.2160869738
100
AcDbArc
 50
185.3611367315
 51
186.5160026047
  0
ARC
  5
381
100
AcDbEntity
  8
RACCORDO
100
AcDbCircle
 62
7
  6
CONTINUOUS
 10
-11.2976387384
 20
55.9943218188
 40
1.0056869072
100
AcDbArc
 50
93.3096555972
 51
94.9999542881
  0
ARC
  5
382
100
AcDbEntity
  8
RACCORDO
100
AcDbCircle
 62
7
  6
CONTINUOUS
 10
-17.9745498612
 20
13.5
 40
1.0
100
AcDbArc
 50
183.0000039567
 51
270.0000674351
  0
ARC
  5
383
100
AcDbEntity
  8
RACCORDO
100
AcDbCircle
 62
7
  6
CONTINUOUS
 10
-11.2979770761
 20
56.0008018046
 40
0.999198197
100
AcDbArc
 50
90.0032811958
 51
93.3117388725
  0
ARC
  5
384
100
AcDbEntity
  8
RACCORDO
100
AcDbCircle
 62
7
  6
CONTINUOUS
 10
-11.3017198279
 20
55.9998076205
 40
0.9982801907
100
AcDbArc
 50
173.5532033122
 51
179.9889584761
  0
ARC
  5
385
100
AcDbEntity
  8
RACCORDO
100
AcDbCircle
 62
7
  6
CONTINUOUS
 10
-11.3023086465
 20
55.9998068061
 40
0.9976913722
100
AcDbArc
 50
173.5493579564
 51
179.988905189
  0
ARC
  5
386
100
AcDbEntity
  8
RACCORDO
100
AcDbCircle
 62
7
  6
CONTINUOUS
 10
-11.2994010213
 20
56.0076408275
 40
0.9923716714
100
AcDbArc
 50
93.2524261885
 51
94.9656166042
  0
ARC
  5
387
100
AcDbEntity
  8
RACCORDO
100
AcDbCircle
 62
7
  6
CONTINUOUS
 10
-11.2999237078
 20
56.0177097526
 40
0.9822893112
100
AcDbArc
 50
90.0044500362
 51
93.2553085958
  0
ARC
  5
388
100
AcDbEntity
  8
RACCORDO
100
AcDbCircle
 62
253
  6
CONTINUOUS
 10
-13.1689075495
 20
37.2855539613
 40
0.7470752149
100
AcDbArc
 50
85.3744925052
 51
103.3744741684
  0
ARC
  5
389
100
AcDbEntity
  8
RACCORDO
100
AcDbCircle
 62
253
  6
CONTINUOUS
 10
-15.4912835548
 20
36.728440702
 40
0.7470735061
100
AcDbArc
 50
85.3744851395
 51
103.3785638061
  0
ARC
  5
38A
100
AcDbEntity
  8
RACCORDO
100
AcDbCircle
 62
7
  6
CONTINUOUS
 10
-20.4372569789
 20
-3.7601315551
 40
0.5032798491
100
AcDbArc
 50
270.0782060003
 51
284.8466465206
  0
ARC
  5
38B
100
AcDbEntity
  8
RACCORDO
100
AcDbCircle
 62
7
  6
CONTINUOUS
 10
-20.4111488932
 20
-3.7836360753
 40
0.5026372443
100
AcDbArc
 50
269.7075799481
 51
294.5989083728
  0
ARC
  5
38C
100
AcDbEntity
  8
RACCORDO
100
AcDbCircle
 62
253
  6
CONTINUOUS
 10
-20.4366911192
 20
-3.6366501412
 40
0.500102061
100
AcDbArc
 50
0.0091786339
 51
42.4124188106
  0
ARC
  5
38D
100
AcDbEntity
  8
RACCORDO
100
AcDbCircle
 62
7
  6
CONTINUOUS
 10
-20.4092025269
 20
-3.7878403504
 40
0.4980043315
100
AcDbArc
 50
294.5966492474
 51
336.733852473
  0
ARC
  5
38E
100
AcDbEntity
  8
RACCORDO
100
AcDbCircle
 62
7
  6
CONTINUOUS
 10
-20.4078911695
 20
-3.6112759668
 40
0.4964541094
100
AcDbArc
 50
359.9836031001
 51
38.8965828824
  0
ARC
  5
38F
100
AcDbEntity
  8
RACCORDO
100
AcDbCircle
 62
7
  6
CONTINUOUS
 10
-20.4059288208
 20
-3.7884372533
 40
0.4944917615
100
AcDbArc
 50
354.2323934876
 51
359.9832333492
  0
ARC
  5
390
100
AcDbEntity
  8
RACCORDO
100
AcDbCircle
 62
253
  6
CONTINUOUS
 10
-22.206040822
 20
-3.493959178
 40
0.1999810644
100
AcDbArc
 50
90.0033020006
 51
179.9966979994
  0
ARC
  5
391
100
AcDbEntity
  8
RACCORDO
100
AcDbCircle
 62
253
  6
CONTINUOUS
 10
0.0
 20
-9717.0912467275
 40
9661.7995715881
100
AcDbArc
 50
89.8233366734
 51
90.1766633266
  0
ARC
  5
392
100
AcDbEntity
  8
RACCORDO
100
AcDbCircle
 62
253
  6
CONTINUOUS
 10
0.0
 20
-9683.6506451253
 40
9627.4602034045
100
AcDbArc
 50
89.8230218911
 51
90.1769781089
  0
ARC
  5
393
100
AcDbEntity
  8
RACCORDO
100
AcDbCircle
 62
253
  6
CONTINUOUS
 10
0.0
 20
-236.1767279468
 40
236.4551499254
100
AcDbArc
 50
84.602235533
 51
95.397764467
  0
ARC
  5
394
100
AcDbEntity
  8
RACCORDO
100
AcDbCircle
 62
253
  6
CONTINUOUS
 10
0.0
 20
-236.0747818291
 40
236.2686801554
100
AcDbArc
 50
84.6001043432
 51
95.3998956568
  0
ARC
  5
395
100
AcDbEntity
  8
RACCORDO
100
AcDbCircle
 62
253
  6
CONTINUOUS
 10
18.247365591
 20
-50.6025662395
 40
4.0131821303
100
AcDbArc
 50
5.3282870973
 51
6.5417014452
  0
ARC
  5
396
100
AcDbEntity
  8
RACCORDO
100
AcDbCircle
 62
253
  6
CONTINUOUS
 10
22.2060408169
 20
-47.5060408169
 40
0.1999810695
100
AcDbArc
 50
270.0033034669
 51
359.9966965331
  0
ARC
  5
397
100
AcDbEntity
  8
RACCORDO
100
AcDbCircle
 62
253
  6
CONTINUOUS
 10
0.0
 20
9666.0912467283
 40
9661.7995715889
100
AcDbArc
 50
269.8233366734
 51
270.1766633266
  0
ARC
  5
398
100
AcDbEntity
  8
RACCORDO
100
AcDbCircle
 62
253
  6
CONTINUOUS
 10
0.0
 20
9632.6506451257
 40
9627.4602034049
100
AcDbArc
 50
269.8230218911
 51
270.1769781089
  0
ARC
  5
399
100
AcDbEntity
  8
RACCORDO
100
AcDbCircle
 62
253
  6
CONTINUOUS
 10
1892.3877434459
 20
76.7516323289
 40
1880.8418388273
100
AcDbArc
 50
180.6315667585
 51
181.1272208947
  0
ARC
  5
39A
100
AcDbEntity
  8
RACCORDO
100
AcDbCircle
 62
253
  6
CONTINUOUS
 10
1879.0928700073
 20
76.5142939031
 40
1868.5416348215
100
AcDbArc
 50
180.6247822063
 51
181.1238309028
  0
ARC
  5
39B
100
AcDbEntity
  8
RACCORDO
100
AcDbCircle
 62
253
  6
CONTINUOUS
 10
0.0
 20
185.1767279473
 40
236.4551499259
100
AcDbArc
 50
264.602235533
 51
275.397764467
  0
ARC
  5
39C
100
AcDbEntity
  8
RACCORDO
100
AcDbCircle
 62
253
  6
CONTINUOUS
 10
0.0
 20
185.0747818296
 40
236.2686801559
100
AcDbArc
 50
264.6001043432
 51
275.3998956568
  0
ARC
  5
39D
100
AcDbEntity
  8
RACCORDO
100
AcDbCircle
 62
253
  6
CONTINUOUS
 10
0.3737054531
 20
146.5369779819
 40
112.8427293935
100
AcDbArc
 50
271.6435731929
 51
272.8395729835
  0
ARC
  5
39E
100
AcDbEntity
  8
RACCORDO
100
AcDbCircle
 62
253
  6
CONTINUOUS
 10
46.7596656053
 20
38.5887384783
 40
58.6810618919
100
AcDbArc
 50
178.8652275994
 51
179.6927083977
  0
ARC
  5
39F
100
AcDbEntity
  8
RACCORDO
100
AcDbCircle
 62
253
  6
CONTINUOUS
 10
11.4698825909
 20
20.9564969876
 40
16.9849432316
100
AcDbArc
 50
75.7404371908
 51
76.5135342406
  0
ARC
  5
3A0
100
AcDbEntity
  8
RACCORDO
100
AcDbCircle
 62
253
  6
CONTINUOUS
 10
11.8719354022
 20
22.5491768095
 40
15.3423027388
100
AcDbArc
 50
75.327889004
 51
75.7305948058
  0
ARC
  5
3A1
100
AcDbEntity
  8
0
100
AcDbCircle
 62
7
  6
CONTINUOUS
 10
-0.0
 20
9.8
 40
12.0
100
AcDbArc
 50
166.992897443
 51
177.0
  0
ARC
  5
3A2
100
AcDbEntity
  8
0
100
AcDbCircle
 62
7
  6
CONTINUOUS
 10
-0.0
 20
9.8
 40
12.0
100
AcDbArc
 50
3.0
 51
13.007102557
  0
ARC
  5
3A3
100
AcDbEntity
  8
RACCORDO
100
AcDbCircle
 62
253
  6
CONTINUOUS
 10
18.1655589311
 20
-0.3886860063
 40
4.0954514844
100
AcDbArc
 50
353.4672520577
 51
354.6561474508
  0
ARC
  5
3A4
100
AcDbEntity
  8
RACCORDO
100
AcDbCircle
 62
7
  6
CONTINUOUS
 10
11.2976387384
 20
55.9943218188
 40
1.0056869072
100
AcDbArc
 50
85.0000457119
 51
86.6903444028
  0
ARC
  5
3A5
100
AcDbEntity
  8
RACCORDO
100
AcDbCircle
 62
7
  6
CONTINUOUS
 10
17.9745498612
 20
13.5
 40
1.0
100
AcDbArc
 50
269.9998459655
 51
356.9999909746
  0
ARC
  5
3A6
100
AcDbEntity
  8
RACCORDO
100
AcDbCircle
 62
7
  6
CONTINUOUS
 10
11.2979770761
 20
56.0008018046
 40
0.999198197
100
AcDbArc
 50
86.6882611275
 51
89.9967188042
  0
ARC
  5
3A7
100
AcDbEntity
  8
RACCORDO
100
AcDbCircle
 62
7
  6
CONTINUOUS
 10
11.3017198279
 20
55.9998076205
 40
0.9982801907
100
AcDbArc
 50
0.0110415239
 51
6.446796687
  0
ARC
  5
3A8
100
AcDbEntity
  8
RACCORDO
100
AcDbCircle
 62
7
  6
CONTINUOUS
 10
11.3023086465
 20
55.9998068061
 40
0.9976913722
100
AcDbArc
 50
0.011094811
 51
6.4506420429
  0
ARC
  5
3A9
100
AcDbEntity
  8
RACCORDO
100
AcDbCircle
 62
7
  6
CONTINUOUS
 10
11.2994010213
 20
56.0076408275
 40
0.9923716714
100
AcDbArc
 50
85.0343833958
 51
86.7475738115
  0
ARC
  5
3AA
100
AcDbEntity
  8
RACCORDO
100
AcDbCircle
 62
7
  6
CONTINUOUS
 10
11.2999237078
 20
56.0177097526
 40
0.9822893112
100
AcDbArc
 50
86.7446914042
 51
89.9955499638
  0
ARC
  5
3AB
100
AcDbEntity
  8
RACCORDO
100
AcDbCircle
 62
253
  6
CONTINUOUS
 10
10.9869059659
 20
38.0349157259
 40
0.9756171076
100
AcDbArc
 50
31.6648599041
 51
37.1348013137
  0
ARC
  5
3AC
100
AcDbEntity
  8
RACCORDO
100
AcDbCircle
 62
7
  6
CONTINUOUS
 10
0.0
 20
21.9379824369
 40
0.9620175631
100
AcDbArc
 50
35.7538143521
 51
144.2461856479
  0
ARC
  5
3AD
100
AcDbEntity
  8
RACCORDO
100
AcDbCircle
 62
253
  6
CONTINUOUS
 10
13.1689075342
 20
37.2855545317
 40
0.7470746461
100
AcDbArc
 50
76.6241670234
 51
94.6255100788
  0
ARC
  5
3AE
100
AcDbEntity
  8
RACCORDO
100
AcDbCircle
 62
253
  6
CONTINUOUS
 10
15.4912835676
 20
36.7284402434
 40
0.7470739644
100
AcDbArc
 50
76.6225382293
 51
94.6255129993
  0
ARC
  5
3AF
100
AcDbEntity
  8
RACCORDO
100
AcDbCircle
 62
7
  6
CONTINUOUS
 10
20.436694916
 20
-3.6366516055
 40
0.500105858
100
AcDbArc
 50
137.5854507432
 51
179.9906536792
  0
ARC
  5
3B0
100
AcDbEntity
  8
RACCORDO
100
AcDbCircle
 62
253
  6
CONTINUOUS
 10
20.4366159889
 20
-3.7633840111
 40
0.5000269264
100
AcDbArc
 50
180.0052666627
 51
269.9947333373
  0
ARC
  5
3B1
100
AcDbEntity
  8
RACCORDO
100
AcDbCircle
 62
7
  6
CONTINUOUS
 10
20.4085307236
 20
-3.6116463615
 40
0.4971844518
100
AcDbArc
 50
141.1164756698
 51
156.7576131423
  0
ARC
  5
3B2
100
AcDbEntity
  8
RACCORDO
100
AcDbCircle
 62
7
  6
CONTINUOUS
 10
20.4059288208
 20
-3.6115627467
 40
0.4944917615
100
AcDbArc
 50
174.2323934876
 51
179.9832333492
  0
ARC
  5
3B3
100
AcDbEntity
  8
RACCORDO
100
AcDbCircle
 62
253
  6
CONTINUOUS
 10
22.2060408168
 20
-3.4939591832
 40
0.1999810696
100
AcDbArc
 50
0.0033034861
 51
89.9966965139
  0
ARC
  5
3B4
100
AcDbEntity
  8
RACCORDO
100
AcDbCircle
 62
253
  6
CONTINUOUS
 10
3162.1493262152
 20
229.99005987
 40
3250.4640646227
100
AcDbArc
 50
183.4021994849
 51
183.6422432979
  0
ARC
  5
3B5
100
AcDbEntity
  8
RACCORDO
100
AcDbCircle
 62
253
  6
CONTINUOUS
 10
3172.4356017759
 20
136.9332261587
 40
3248.6487750165
100
AcDbArc
 50
181.7291916861
 51
182.0010062452
  0
ARC
  5
3B6
100
AcDbEntity
  8
RACCORDO
100
AcDbCircle
 62
253
  6
CONTINUOUS
 10
-154.6275921814
 20
-1.405930375
 40
18.6236522953
100
AcDbArc
 50
0.9659397305
 51
1.1810554612
  0
ARC
  5
3B7
100
AcDbEntity
  8
RACCORDO
100
AcDbCircle
 62
253
  6
CONTINUOUS
 10
-148.7270357994
 20
-49.7160652845
 40
12.7218426056
100
AcDbArc
 50
358.451529341
 51
358.9249941193
  0
ARC
  5
3B8
100
AcDbEntity
  8
0
100
AcDbCircle
 62
7
  6
CONTINUOUS
 10
-96.0243348129
 20
9.8
 40
12.0
100
AcDbArc
 50
3.0
 51
13.007102557
  0
ARC
  5
3B9
100
AcDbEntity
  8
0
100
AcDbCircle
 62
7
  6
CONTINUOUS
 10
-96.0243348129
 20
9.8
 40
12.0
100
AcDbArc
 50
166.992897443
 51
177.0
  0
ARC
  5
3BA
100
AcDbEntity
  8
DRAFT
100
AcDbCircle
 62
7
  6
CONTINUOUS
 10
-96.0243348129
 20
9.8
 40
12.0
100
AcDbArc
 50
3.0
 51
13.0072879086
  0
ARC
  5
3BB
100
AcDbEntity
  8
RACCORDO
100
AcDbCircle
 62
253
  6
CONTINUOUS
 10
-85.8546079316
 20
3.0788647206
 40
2.1512247179
100
AcDbArc
 50
3.9406775126
 51
8.7106712211
  0
ARC
  5
3BC
100
AcDbEntity
  8
RACCORDO
100
AcDbCircle
 62
253
  6
CONTINUOUS
 10
-76.3795379589
 20
40.023780281
 40
1.9908004379
100
AcDbArc
 50
325.7588543122
 51
352.1207893936
  0
ARC
  5
3BD
100
AcDbEntity
  8
RACCORDO
100
AcDbCircle
 62
7
  6
CONTINUOUS
 10
-113.9749893231
 20
32.6986616325
 40
1.0
100
AcDbArc
 50
98.0
 51
176.9999652583
  0
ARC
  5
3BE
100
AcDbEntity
  8
RACCORDO
100
AcDbCircle
 62
7
  6
CONTINUOUS
 10
-72.0891803623
 20
56.0
 40
1.0
100
AcDbArc
 50
90.0
 51
172.0
  0
ARC
  5
3BF
100
AcDbEntity
  8
RACCORDO
100
AcDbCircle
 62
7
  6
CONTINUOUS
 10
-76.3567559856
 20
40.0052146908
 40
1.0
100
AcDbArc
 50
278.0
 51
352.0
  0
ARC
  5
3C0
100
AcDbEntity
  8
RACCORDO
100
AcDbCircle
 62
7
  6
CONTINUOUS
 10
-113.9330169613
 20
13.5
 40
1.0
100
AcDbArc
 50
183.0000005415
 51
270.0000092051
  0
ARC
  5
3C1
100
AcDbEntity
  8
RACCORDO
100
AcDbCircle
 62
7
  6
CONTINUOUS
 10
-84.7084685575
 20
-54.1381515658
 40
1.0
100
AcDbArc
 50
273.0000836135
 51
0.000004376
  0
ARC
  5
3C2
100
AcDbEntity
  8
RACCORDO
100
AcDbCircle
 62
7
  6
CONTINUOUS
 10
-84.7084671002
 20
3.1381514895
 40
1.0
100
AcDbArc
 50
0.0
 51
87.0
  0
ARC
  5
3C3
100
AcDbEntity
  8
RACCORDO
100
AcDbCircle
 62
7
  6
CONTINUOUS
 10
-109.2190268575
 20
6.4254401873
 40
0.9999998752
100
AcDbArc
 50
266.9999062091
 51
357.0
  0
ARC
  5
3C4
100
AcDbEntity
  8
RACCORDO
100
AcDbCircle
 62
7
  6
CONTINUOUS
 10
-135.6084671002
 20
4.2916850876
 40
0.9
100
AcDbArc
 50
93.0
 51
180.0
  0
ARC
  5
3C5
100
AcDbEntity
  8
RACCORDO
100
AcDbCircle
 62
7
  6
CONTINUOUS
 10
-135.6084671002
 20
-55.2916850876
 40
0.9
100
AcDbArc
 50
180.0
 51
267.0
  0
ARC
  5
3C6
100
AcDbEntity
  8
RACCORDO
100
AcDbCircle
 62
253
  6
CONTINUOUS
 10
-135.8206355109
 20
-0.7708902823
 40
0.1987029377
100
AcDbArc
 50
179.7739374709
 51
190.9806352668
  0
SPLINE
  5
3C7
100
AcDbEntity
  8
RACCORDO
100
AcDbSpline
 62
7
  6
CONTINUOUS
 70
0
 71
3
 72
11
 73
7
 74
5
 42
0.0000001
 43
0.0000001
 44
0.0000000001
 12
1.3609196163
 22
-0.1190539826
 32
0.0
 13
0.1533372957
 23
-1.3574843375
 33
0.0
 40
0.0
 40
0.0
 40
0.0
 40
0.0
 40
0.25006063
 40
0.5000041805
 40
0.7499494333
 40
1.0
 40
1.0
 40
1.0
 40
1.0
 10
11.3852893284
 20
56.9961818536
 30
0.0
 10
11.4987268006
 20
56.9862582823
 30
0.0
 10
11.7240219423
 20
56.9270344256
 30
0.0
 10
12.0110895552
 20
56.7302711324
 30
0.0
 10
12.2157399076
 20
56.4487487043
 30
0.0
 10
12.280902949
 20
56.2250412646
 30
0.0
 10
12.2936836415
 20
56.1118946887
 30
0.0
 11
11.3852893284
 21
56.9961818536
 31
0.0
 11
11.7155951699
 21
56.9090217284
 31
0.0
 11
11.9973553735
 21
56.7161467126
 31
0.0
 11
12.1978985706
 21
56.4397889765
 31
0.0
 11
12.2936836415
 21
56.1118946887
 31
0.0
  0
SPLINE
  5
3C8
100
AcDbEntity
  8
RACCORDO
100
AcDbSpline
 62
7
  6
CONTINUOUS
 70
0
 71
3
 72
11
 73
7
 74
5
 42
0.0000001
 43
0.0000001
 44
0.0000000001
 12
0.1533372958
 22
1.3574843375
 32
0.0
 13
1.3609196163
 23
0.1190539826
 33
0.0
 40
0.0
 40
0.0
 40
0.0
 40
0.0
 40
0.2500505667
 40
0.4999958195
 40
0.74993937
 40
1.0
 40
1.0
 40
1.0
 40
1.0
 10
-12.2936836415
 20
56.1118946887
 30
0.0
 10
-12.280902949
 20
56.2250412646
 30
0.0
 10
-12.2157399076
 20
56.4487487043
 30
0.0
 10
-12.0110895552
 20
56.7302711324
 30
0.0
 10
-11.7240219423
 20
56.9270344256
 30
0.0
 10
-11.4987268006
 20
56.9862582823
 30
0.0
 10
-11.3852893284
 20
56.9961818536
 30
0.0
 11
-12.2936836415
 21
56.1118946887
 31
0.0
 11
-12.1978985706
 21
56.4397889765
 31
0.0
 11
-11.9973553735
 21
56.7161467126
 31
0.0
 11
-11.7155951699
 21
56.9090217284
 31
0.0
 11
-11.3852893284
 21
56.9961818536
 31
0.0
  0
SPLINE
  5
3C9
100
AcDbEntity
  8
RACCORDO
100
AcDbSpline
 62
253
  6
CONTINUOUS
 70
0
 71
3
 72
9
 73
5
 74
3
 42
0.0000001
 43
0.0000001
 44
0.0000000001
 12
1.3085157457
 22
0.3139244423
 32
0.0
 13
1.2487640708
 23
0.5013484893
 33
0.0
 40
0.0
 40
0.0
 40
0.0
 40
0.0
 40
0.5469538637
 40
1.0
 40
1.0
 40
1.0
 40
1.0
 10
-13.1086614079
 20
38.030196009
 30
0.0
 10
-12.8700954936
 20
38.0874300712
 30
0.0
 10
-12.4361909666
 20
38.2018701206
 30
0.0
 10
-12.0104771722
 20
38.3452852367
 30
0.0
 10
-11.821894593
 20
38.4209965687
 30
0.0
 11
-13.1086614079
 21
38.030196009
 31
0.0
 11
-12.3978943061
 21
38.2212850639
 31
0.0
 11
-11.821894593
 21
38.4209965687
 31
0.0
  0
SPLINE
  5
3CA
100
AcDbEntity
  8
RACCORDO
100
AcDbSpline
 62
253
  6
CONTINUOUS
 70
0
 71
3
 72
11
 73
7
 74
5
 42
0.0000001
 43
0.0000001
 44
0.0000000001
 12
0.9859590722
 22
0.395838656
 32
0.0
 13
0.4366201159
 23
0.968589907
 33
0.0
 40
0.0
 40
0.0
 40
0.0
 40
0.0
 40
0.3326500374
 40
0.6068312926
 40
0.8264932942
 40
1.0
 40
1.0
 40
1.0
 40
1.0
 10
-11.821894593
 20
38.4209965687
 30
0.0
 10
-11.7125681523
 20
38.4648884833
 30
0.0
 10
-11.5156468745
 20
38.5516516415
 30
0.0
 10
-11.2608554673
 20
38.6974336294
 30
0.0
 10
-11.0751644642
 20
38.8452767398
 30
0.0
 10
-10.9894521431
 20
38.9589276741
 30
0.0
 10
-10.9641999704
 20
39.0149466221
 30
0.0
 11
-11.821894593
 21
38.4209965687
 31
0.0
 11
-11.4996323928
 21
38.5661034657
 31
0.0
 11
-11.2486193995
 21
38.7139232548
 31
0.0
 11
-11.0697155173
 21
38.863789015
 31
0.0
 11
-10.9641999704
 21
39.0149466221
 31
0.0
  0
LINE
  5
3CB
100
AcDbEntity
  8
RACCORDO
100
AcDbLine
 62
253
  6
CONTINUOUS
 10
-11.9205523243
 20
38.9034581878
 11
-11.9313833056
 21
38.479097671
  0
SPLINE
  5
3CC
100
AcDbEntity
  8
RACCORDO
100
AcDbSpline
 62
253
  6
CONTINUOUS
 70
0
 71
3
 72
11
 73
7
 74
5
 42
0.0000001
 43
0.0000001
 44
0.0000000001
 12
-1.5398694154
 22
0.0
 32
0.0
 13
-0.0323908003
 23
-1.5395287112
 33
0.0
 40
0.0
 40
0.0
 40
0.0
 40
0.0
 40
0.2498005615
 40
0.4996871322
 40
0.7497563438
 40
1.0
 40
1.0
 40
1.0
 40
1.0
 10
-10.6623242824
 20
57.0
 30
0.0
 10
-10.790544364
 20
57.0
 30
0.0
 10
-11.0497981122
 20
56.9492551367
 30
0.0
 10
-11.3787252432
 20
56.7318743885
 30
0.0
 10
-11.602099983
 20
56.4066312557
 30
0.0
 10
-11.6574648287
 20
56.1481034371
 30
0.0
 10
-11.6601666928
 20
56.0196843392
 30
0.0
 11
-10.6623242824
 21
57.0
 31
0.0
 11
-11.0397481857
 21
56.9257389667
 31
0.0
 11
-11.3610397664
 21
56.7139911627
 31
0.0
 11
-11.5786630533
 21
56.3963088733
 31
0.0
 11
-11.6601666928
 21
56.0196843392
 31
0.0
  0
SPLINE
  5
3CD
100
AcDbEntity
  8
RACCORDO
100
AcDbSpline
 62
253
  6
CONTINUOUS
 70
0
 71
3
 72
15
 73
11
 74
9
 42
0.0000001
 43
0.0000001
 44
0.0000000001
 12
-1.0167507308
 22
0.0108731042
 32
0.0
 13
-0.4314843597
 23
-0.9207179374
 33
0.0
 40
0.0
 40
0.0
 40
0.0
 40
0.0
 40
0.3616500075
 40
0.5266756089
 40
0.6734861797
 40
0.7972202299
 40
0.8938604848
 40
0.9610200659
 40
0.9836570746
 40
1.0
 40
1.0
 40
1.0
 40
1.0
 10
-10.6623242824
 20
56.139173101
 30
0.0
 10
-10.7848935856
 20
56.1404838537
 30
0.0
 10
-10.9635011716
 20
56.1380278343
 30
0.0
 10
-11.1914243399
 20
56.1247035555
 30
0.0
 10
-11.3384100388
 20
56.1108130107
 30
0.0
 10
-11.461793521
 20
56.0934710707
 30
0.0
 10
-11.557031304
 20
56.0732537748
 30
0.0
 10
-11.6176671193
 20
56.0533991691
 30
0.0
 10
-11.6485132067
 20
56.0347396559
 30
0.0
 10
-11.6578161206
 20
56.0247000807
 30
0.0
 10
-11.6601666928
 20
56.0196843392
 30
0.0
 11
-10.6623242824
 21
56.139173101
 31
0.0
 11
-11.0300072028
 21
56.1333559397
 31
0.0
 11
-11.197504262
 21
56.1232859021
 31
0.0
 11
-11.3460833975
 21
56.1088550874
 31
0.0
 11
-11.470564069
 21
56.0905877748
 31
0.0
 11
-11.5664545785
 21
56.0691179078
 31
0.0
 11
-11.6304086496
 21
56.0451765164
 31
0.0
 11
-11.6496593208
 21
56.0325583754
 31
0.0
 11
-11.6601666928
 21
56.0196843392
 31
0.0
  0
SPLINE
  5
3CE
100
AcDbEntity
  8
RACCORDO
100
AcDbSpline
 62
253
  6
CONTINUOUS
 70
0
 71
3
 72
14
 73
10
 74
8
 42
0.0000001
 43
0.0000001
 44
0.0000000001
 12
-1.0192380999
 22
0.0196077148
 32
0.0
 13
-0.2450571328
 23
-0.9895341169
 33
0.0
 40
0.0
 40
0.0
 40
0.0
 40
0.0
 40
0.3675737143
 40
0.5345824506
 40
0.6823098773
 40
0.8056819533
 40
0.9005673653
 40
0.9646923163
 40
1.0
 40
1.0
 40
1.0
 40
1.0
 10
-10.9106661888
 20
39.8660455853
 30
0.0
 10
-11.0355479002
 20
39.8684480122
 30
0.0
 10
-11.2173500758
 20
39.8674126026
 30
0.0
 10
-11.4488799724
 20
39.8555262531
 30
0.0
 10
-11.5973393082
 20
39.8422786878
 30
0.0
 10
-11.7202589745
 20
39.8256377336
 30
0.0
 10
-11.8151513132
 20
39.8050015472
 30
0.0
 10
-11.87591847
 20
39.7847904607
 30
0.0
 10
-11.9069527959
 20
39.762515969
 30
0.0
 10
-11.9098369291
 20
39.7508699165
 30
0.0
 11
-10.9106661888
 21
39.8660455853
 31
0.0
 11
-11.2853691487
 21
39.863110736
 31
0.0
 11
-11.4553812765
 21
39.8540544837
 31
0.0
 11
-11.6053506042
 21
39.840316151
 31
0.0
 11
-11.7298391956
 21
39.8224170373
 31
0.0
 11
-11.8241676243
 21
39.8010022527
 31
0.0
 11
-11.8849051473
 21
39.7768303697
 31
0.0
 11
-11.9098369291
 21
39.7508699165
 31
0.0
  0
SPLINE
  5
3CF
100
AcDbEntity
  8
RACCORDO
100
AcDbSpline
 62
253
  6
CONTINUOUS
 70
0
 71
3
 72
11
 73
7
 74
5
 42
0.0000001
 43
0.0000001
 44
0.0000000001
 12
-1.0139200872
 22
0.0091274553
 32
0.0
 13
-0.5318832
 23
-0.863259819
 33
0.0
 40
0.0
 40
0.0
 40
0.0
 40
0.0
 40
0.2510220253
 40
0.5014535124
 40
0.7510041432
 40
1.0
 40
1.0
 40
1.0
 40
1.0
 10
-10.9647598096
 20
39.014946796
 30
0.0
 10
-11.0495985675
 20
39.0157105268
 30
0.0
 10
-11.2200511627
 20
38.9955240685
 30
0.0
 10
-11.4589294494
 20
38.9019903956
 30
0.0
 10
-11.6655880368
 20
38.7511332793
 30
0.0
 10
-11.7732337387
 20
38.6186221311
 30
0.0
 10
-11.8173793098
 20
38.5469727583
 30
0.0
 11
-10.9647598096
 21
39.014946796
 31
0.0
 11
-11.2175076937
 21
38.984908649
 31
0.0
 11
-11.4539215181
 21
38.8922380869
 31
0.0
 11
-11.658246049
 21
38.7429798548
 31
0.0
 11
-11.8173793098
 21
38.5469727583
 31
0.0
  0
SPLINE
  5
3D0
100
AcDbEntity
  8
RACCORDO
100
AcDbSpline
 62
253
  6
CONTINUOUS
 70
0
 71
3
 72
13
 73
9
 74
7
 42
0.0000001
 43
0.0000001
 44
0.0000000001
 12
-1.2258758703
 22
0.0036899287
 32
0.0
 13
-0.0833867962
 23
-1.2230420709
 33
0.0
 40
0.0
 40
0.0
 40
0.0
 40
0.0
 40
0.3066653746
 40
0.5838513892
 40
0.7051917513
 40
0.8135702244
 40
0.9105839151
 40
1.0
 40
1.0
 40
1.0
 40
1.0
 10
-10.9212967178
 20
39.4420305747
 30
0.0
 10
-11.0466079454
 20
39.4424077658
 30
0.0
 10
-11.2858989477
 20
39.4183614913
 30
0.0
 10
-11.5624360271
 20
39.324418993
 30
0.0
 10
-11.7378264913
 20
39.2123377548
 30
0.0
 10
-11.8348750871
 20
39.1190330986
 30
0.0
 10
-11.8991735065
 20
39.0154121578
 30
0.0
 10
-11.9180376342
 20
38.9399105587
 30
0.0
 10
-11.9205230078
 20
38.9034573475
 30
0.0
 11
-10.9212967178
 21
39.4420305747
 31
0.0
 11
-11.2951292696
 21
39.4023236782
 31
0.0
 11
-11.6146543493
 21
39.2867129037
 31
0.0
 11
-11.7391723562
 21
39.2053403039
 31
0.0
 11
-11.833737199
 21
39.1120180339
 31
0.0
 11
-11.8949282028
 21
39.0100407851
 31
0.0
 11
-11.9205230078
 21
38.9034573475
 31
0.0
  0
SPLINE
  5
3D1
100
AcDbEntity
  8
RACCORDO
100
AcDbSpline
 62
253
  6
CONTINUOUS
 70
0
 71
3
 72
13
 73
9
 74
7
 42
0.0000001
 43
0.0000001
 44
0.0000000001
 12
-0.0835846068
 22
1.2222626545
 32
0.0
 13
-1.2251081591
 23
-0.0047309074
 33
0.0
 40
0.0
 40
0.0
 40
0.0
 40
0.0
 40
0.0892458796
 40
0.186161578
 40
0.2945076216
 40
0.4158636987
 40
0.6931646753
 40
1.0
 40
1.0
 40
1.0
 40
1.0
 10
11.9205400544
 20
38.9034519328
 30
0.0
 10
11.9180535272
 20
38.939812568
 30
0.0
 10
11.8991685188
 20
39.0151504659
 30
0.0
 10
11.8348605426
 20
39.118529722
 30
0.0
 10
11.7378164954
 20
39.2116468473
 30
0.0
 10
11.5624171872
 20
39.3235434889
 30
0.0
 10
11.2858893589
 20
39.4173180752
 30
0.0
 10
11.0466089347
 20
39.4412155159
 30
0.0
 10
10.9213067815
 20
39.440731646
 30
0.0
 11
11.9205400544
 21
38.9034519328
 31
0.0
 11
11.8949444971
 21
39.0097504509
 31
0.0
 11
11.8337524151
 21
39.1115005256
 31
0.0
 11
11.7391863071
 21
39.2046469657
 31
0.0
 11
11.6146670559
 21
39.2858832826
 31
0.0
 11
11.2951401016
 21
39.4012801254
 31
0.0
 11
10.9213067815
 21
39.440731646
 31
0.0
  0
SPLINE
  5
3D2
100
AcDbEntity
  8
RACCORDO
100
AcDbSpline
 62
253
  6
CONTINUOUS
 70
0
 71
3
 72
16
 73
12
 74
10
 42
0.0000001
 43
0.0000001
 44
0.0000000001
 12
1.0165823873
 22
-0.0132105293
 32
0.0
 13
0.3820716599
 23
-0.9421441052
 33
0.0
 40
0.0
 40
0.0
 40
0.0
 40
0.0
 40
0.1839225093
 40
0.3617138031
 40
0.5267774987
 40
0.6736139263
 40
0.7973734028
 40
0.8940735377
 40
0.9313354518
 40
0.9609266174
 40
1.0
 40
1.0
 40
1.0
 40
1.0
 10
10.6623242824
 20
56.139173101
 30
0.0
 10
10.7246484103
 20
56.1383631964
 30
0.0
 10
10.8472282667
 20
56.1383998227
 30
0.0
 10
11.0257538833
 20
56.1351088644
 30
0.0
 10
11.191428446
 20
56.124648138
 30
0.0
 10
11.3384157495
 20
56.1108084871
 30
0.0
 10
11.4618300811
 20
56.093486138
 30
0.0
 10
11.5471337859
 20
56.0751136828
 30
0.0
 10
11.6004647513
 20
56.0587031851
 30
0.0
 10
11.6331863578
 20
56.0458959221
 30
0.0
 10
11.6551904154
 20
56.0319552583
 30
0.0
 10
11.6601666928
 20
56.0196843392
 30
0.0
 11
10.6623242824
 21
56.139173101
 31
0.0
 11
10.8493074602
 21
56.1378067224
 31
0.0
 11
11.0300140911
 21
56.1336358562
 31
0.0
 11
11.1975135722
 21
56.1233498195
 31
0.0
 11
11.3460915341
 21
56.1088487575
 31
0.0
 11
11.4705737433
 21
56.0905338055
 31
0.0
 11
11.5664642936
 21
56.0688487266
 31
0.0
 11
11.6026094413
 21
56.0575063158
 31
0.0
 11
11.630404491
 21
56.0459951821
 31
0.0
 11
11.6601666928
 21
56.0196843392
 31
0.0
  0
SPLINE
  5
3D3
100
AcDbEntity
  8
RACCORDO
100
AcDbSpline
 62
253
  6
CONTINUOUS
 70
0
 71
3
 72
14
 73
10
 74
8
 42
0.0000001
 43
0.0000001
 44
0.0000000001
 12
1.0192829455
 22
0.0196082122
 32
0.0
 13
0.2454683166
 23
-0.9894784033
 33
0.0
 40
0.0
 40
0.0
 40
0.0
 40
0.0
 40
0.3675600272
 40
0.5345647747
 40
0.6822910587
 40
0.8056649962
 40
0.9005550428
 40
0.9646865963
 40
1.0
 40
1.0
 40
1.0
 40
1.0
 10
10.9106661888
 20
39.8660415914
 30
0.0
 10
11.0355487445
 20
39.8684439898
 30
0.0
 10
11.2173528853
 20
39.8674088083
 30
0.0
 10
11.448886641
 20
39.8555233583
 30
0.0
 10
11.597351491
 20
39.8422767652
 30
0.0
 10
11.7202786264
 20
39.825636154
 30
0.0
 10
11.8151799389
 20
39.8050017259
 30
0.0
 10
11.8759561962
 20
39.7847888538
 30
0.0
 10
11.9069979329
 20
39.7625184112
 30
0.0
 10
11.9098873735
 20
39.7508711278
 30
0.0
 11
10.9106661888
 21
39.8660415914
 31
0.0
 11
11.2853716841
 21
39.8631073153
 31
0.0
 11
11.455387279
 21
39.8540517928
 31
0.0
 11
11.605362172
 21
39.8403143586
 31
0.0
 11
11.729858406
 21
39.8224161875
 31
0.0
 11
11.8241962408
 21
39.8010022728
 31
0.0
 11
11.884944385
 21
39.7768310975
 31
0.0
 11
11.9098873735
 21
39.7508711278
 31
0.0
  0
SPLINE
  5
3D4
100
AcDbEntity
  8
RACCORDO
100
AcDbSpline
 62
253
  6
CONTINUOUS
 70
0
 71
3
 72
11
 73
7
 74
5
 42
0.0000001
 43
0.0000001
 44
0.0000000001
 12
1.5398656853
 22
0.0
 32
0.0
 13
0.0302517236
 23
-1.5395684986
 33
0.0
 40
0.0
 40
0.0
 40
0.0
 40
0.0
 40
0.2498060369
 40
0.4996815284
 40
0.7497426943
 40
1.0
 40
1.0
 40
1.0
 40
1.0
 10
10.6623242824
 20
57.0
 30
0.0
 10
10.7905468638
 20
57.0
 30
0.0
 10
11.0497914818
 20
56.9492630586
 30
0.0
 10
11.3787438951
 20
56.7318837675
 30
0.0
 10
11.6019859565
 20
56.4066310913
 30
0.0
 10
11.6576431212
 20
56.1481137607
 30
0.0
 10
11.6601666928
 20
56.0196843392
 30
0.0
 11
10.6623242824
 21
57.0
 31
0.0
 11
11.0397563584
 21
56.9257416571
 31
0.0
 11
11.3610309417
 21
56.7140007587
 31
0.0
 11
11.5786390679
 21
56.396324232
 31
0.0
 11
11.6601666928
 21
56.0196843392
 31
0.0
  0
LINE
  5
3D5
100
AcDbEntity
  8
RACCORDO
100
AcDbLine
 62
253
  6
CONTINUOUS
 10
-12.3
 20
56.0000000114
 11
-11.6601690719
 21
56.0196842145
  0
LINE
  5
3D6
100
AcDbEntity
  8
RACCORDO
100
AcDbLine
 62
253
  6
CONTINUOUS
 10
11.6601690719
 20
56.0196842145
 11
12.3
 21
56.0000000114
  0
LINE
  5
3D7
100
AcDbEntity
  8
RACCORDO
100
AcDbLine
 62
253
  6
CONTINUOUS
 10
11.9205486382
 20
38.9036022999
 11
11.9313831441
 21
38.4791037477
  0
SPLINE
  5
3D8
100
AcDbEntity
  8
RACCORDO
100
AcDbSpline
 62
253
  6
CONTINUOUS
 70
0
 71
3
 72
43
 73
39
 74
37
 42
0.0000001
 43
0.0000001
 44
0.0000000001
 12
1.6680802118
 22
-38.730259181
 32
0.0
 13
1.6688673068
 23
38.7302252735
 33
0.0
 40
0.0
 40
0.0
 40
0.0
 40
0.0
 40
0.0032112431
 40
0.0067742406
 40
0.0109868942
 40
0.0160298489
 40
0.0220029261
 40
0.0289583602
 40
0.0369234814
 40
0.0459083271
 40
0.0669201142
 40
0.091908486
 40
0.1207016906
 40
0.1530693182
 40
0.1887353981
 40
0.2273812201
 40
0.31215778
 40
0.3574919627
 40
0.404214725
 40
0.5000005648
 40
0.5957863793
 40
0.6425091101
 40
0.6878432481
 40
0.7726196889
 40
0.8112654332
 40
0.8469314312
 40
0.8792989648
 40
0.9080920676
 40
0.933080338
 40
0.9540920148
 40
0.963076807
 40
0.9710418699
 40
0.9779972517
 40
0.9839702784
 40
0.9890131817
 40
0.9932257958
 40
0.9967887661
 40
1.0
 40
1.0
 40
1.0
 40
1.0
 10
18.882622127
 20
35.2798732316
 30
0.0
 10
18.884407664
 20
35.2384158063
 30
0.0
 10
18.8709607085
 20
35.1495788143
 30
0.0
 10
18.8024951005
 20
35.0229627845
 30
0.0
 10
18.6898404536
 20
34.8999956122
 30
0.0
 10
18.5337208697
 20
34.7791484544
 30
0.0
 10
18.3340965935
 20
34.6597294222
 30
0.0
 10
18.0910077161
 20
34.5416770926
 30
0.0
 10
17.8047176033
 20
34.4252002395
 30
0.0
 10
17.3412920244
 20
34.2638580987
 30
0.0
 10
16.6562650016
 20
34.0728826938
 30
0.0
 10
15.7123562044
 20
33.8639328967
 30
0.0
 10
14.6163535521
 20
33.667440992
 30
0.0
 10
13.378296285
 20
33.4854667823
 30
0.0
 10
12.0096089533
 20
33.320028031
 30
0.0
 10
9.9637243685
 20
33.1176330266
 30
0.0
 10
7.7878692778
 20
32.9652237031
 30
0.0
 10
5.5053874038
 20
32.8560026427
 30
0.0
 10
3.0793491753
 20
32.7748518096
 30
0.0
 10
-0.0000248746
 20
32.7349637156
 30
0.0
 10
-3.0793985043
 20
32.7748528776
 30
0.0
 10
-5.5054353919
 20
32.8560045963
 30
0.0
 10
-7.7879146988
 20
32.9652264793
 30
0.0
 10
-9.963766616
 20
33.1176364902
 30
0.0
 10
-12.0096475028
 20
33.320032305
 30
0.0
 10
-13.3783314846
 20
33.4854714715
 30
0.0
 10
-14.6163850637
 20
33.6674461134
 30
0.0
 10
-15.712383736
 20
33.8639384467
 30
0.0
 10
-16.656288349
 20
34.0728884338
 30
0.0
 10
-17.3413117174
 20
34.2638642102
 30
0.0
 10
-17.8047342314
 20
34.4252064398
 30
0.0
 10
-18.0910219781
 20
34.5416834953
 30
0.0
 10
-18.334108521
 20
34.6597358576
 30
0.0
 10
-18.533730513
 20
34.7791548653
 30
0.0
 10
-18.6898476297
 20
34.9000022635
 30
0.0
 10
-18.8024999573
 20
35.0229694948
 30
0.0
 10
-18.870963306
 20
35.1495857503
 30
0.0
 10
-18.8844081392
 20
35.2384226116
 30
0.0
 10
-18.8826217648
 20
35.279879882
 30
0.0
 11
18.882622127
 21
35.2798732316
 31
0.0
 11
18.865194627
 21
35.1566115648
 31
0.0
 11
18.8023691084
 21
35.0336029302
 31
0.0
 11
18.694331738
 21
34.9111383773
 31
0.0
 11
18.5412796562
 21
34.7895088237
 31
0.0
 11
18.3435548492
 21
34.6690022755
 31
0.0
 11
18.1016481708
 21
34.5499037465
 31
0.0
 11
17.8160623964
 21
34.4324979402
 31
0.0
 11
17.4874384896
 21
34.3170648811
 31
0.0
 11
16.7042542302
 21
34.0932162187
 31
0.0
 11
15.7591906753
 21
33.880516902
 31
0.0
 11
14.6609583374
 21
33.6810354792
 31
0.0
 11
13.4197998024
 21
33.4967256023
 31
0.0
 11
12.0473226769
 21
33.329417822
 31
0.0
 11
10.5565633843
 21
33.1807875237
 31
0.0
 11
7.2785438716
 21
32.9453715381
 31
0.0
 11
5.5231377291
 21
32.8610046215
 31
0.0
 11
3.7128996821
 21
32.8001014276
 31
0.0
 11
-0.0000251981
 21
32.7509975175
 31
0.0
 11
-3.7129490823
 21
32.800102744
 31
0.0
 11
-5.5231858858
 21
32.8610065946
 31
0.0
 11
-7.2785902618
 21
32.9453741471
 31
0.0
 11
-10.5566050615
 21
33.1807912852
 31
0.0
 11
-12.0473612764
 21
33.3294221179
 31
0.0
 11
-13.4198351468
 21
33.4967303656
 31
0.0
 11
-14.6609899316
 21
33.6810406838
 31
0.0
 11
-15.7592181863
 21
33.8805224955
 31
0.0
 11
-16.7042776396
 21
34.0932221334
 31
0.0
 11
-17.4874573735
 21
34.3170710748
 31
0.0
 11
-17.8160790458
 21
34.4325042436
 31
0.0
 11
-18.1016623309
 21
34.5499101515
 31
0.0
 11
-18.3435667131
 21
34.6690087589
 31
0.0
 11
-18.5412891849
 21
34.7895153679
 31
0.0
 11
-18.6943386894
 21
34.9111449714
 31
0.0
 11
-18.8023737093
 21
35.0336095552
 31
0.0
 11
-18.8651968712
 21
35.1566182063
 31
0.0
 11
-18.8826217648
 21
35.279879882
 31
0.0
  0
SPLINE
  5
3D9
100
AcDbEntity
  8
RACCORDO
100
AcDbSpline
 62
253
  6
CONTINUOUS
 70
0
 71
3
 72
9
 73
5
 74
3
 42
0.0000001
 43
0.0000001
 44
0.0000000001
 12
0.0024419586
 22
-0.4213978273
 32
0.0
 13
0.0090734025
 23
-0.4213072102
 33
0.0
 40
0.0
 40
0.0
 40
0.0
 40
0.0
 40
0.2723327099
 40
1.0
 40
1.0
 40
1.0
 40
1.0
 10
11.9205515327
 20
38.90351731
 30
0.0
 10
11.9207732078
 20
38.8652638393
 30
0.0
 10
11.9216513681
 20
38.7247993496
 30
0.0
 10
11.9229481792
 20
38.5843296043
 30
0.0
 10
11.9251489853
 20
38.4821391123
 30
0.0
 11
11.9205515327
 21
38.90351731
 31
0.0
 11
11.9212825606
 21
38.7887572992
 31
0.0
 11
11.9251489853
 21
38.4821391123
 31
0.0
  0
SPLINE
  5
3DA
100
AcDbEntity
  8
RACCORDO
100
AcDbSpline
 62
253
  6
CONTINUOUS
 70
0
 71
3
 72
9
 73
5
 74
3
 42
0.0000001
 43
0.0000001
 44
0.0000000001
 12
-0.0024298375
 22
-0.4216450262
 32
0.0
 13
-0.0090924232
 23
-0.4215539824
 33
0.0
 40
0.0
 40
0.0
 40
0.0
 40
0.0
 40
0.2722355503
 40
1.0
 40
1.0
 40
1.0
 40
1.0
 10
-11.9205530461
 20
38.9034580876
 30
0.0
 10
-11.9207735422
 20
38.8651958324
 30
0.0
 10
-11.9216503814
 20
38.7246489587
 30
0.0
 10
-11.9229518419
 20
38.5840968471
 30
0.0
 10
-11.9251575561
 20
38.4818328464
 30
0.0
 11
-11.9205530461
 21
38.9034580876
 31
0.0
 11
-11.9212824254
 21
38.7886717332
 31
0.0
 11
-11.9251575561
 21
38.4818328464
 31
0.0
  0
SPLINE
  5
3DB
100
AcDbEntity
  8
RACCORDO
100
AcDbSpline
 62
253
  6
CONTINUOUS
 70
0
 71
3
 72
9
 73
5
 74
3
 42
0.0000001
 43
0.0000001
 44
0.0000000001
 12
-0.0166728726
 22
-0.423834291
 32
0.0
 13
-0.0037355985
 23
-0.4241456545
 33
0.0
 40
0.0
 40
0.0
 40
0.0
 40
0.0
 40
0.2648128743
 40
1.0
 40
1.0
 40
1.0
 40
1.0
 10
-10.9106661888
 20
39.8660415899
 30
0.0
 10
-10.9121379193
 20
39.8286293309
 30
0.0
 10
-10.9171763693
 20
39.6873320679
 30
0.0
 10
-10.9203812631
 20
39.5459635398
 30
0.0
 10
-10.9212967177
 20
39.4420213983
 30
0.0
 11
-10.9106661888
 21
39.8660415899
 31
0.0
 11
-10.9146778324
 21
39.7537896647
 31
0.0
 11
-10.9212967177
 21
39.4420213983
 31
0.0
  0
SPLINE
  5
3DC
100
AcDbEntity
  8
RACCORDO
100
AcDbSpline
 62
253
  6
CONTINUOUS
 70
0
 71
3
 72
11
 73
7
 74
5
 42
0.0000001
 43
0.0000001
 44
0.0000000001
 12
0.4363702462
 22
-0.9680224913
 32
0.0
 13
0.9853650225
 23
-0.3956542781
 33
0.0
 40
0.0
 40
0.0
 40
0.0
 40
0.0
 40
0.1734218955
 40
0.3929246412
 40
0.6672049041
 40
1.0
 40
1.0
 40
1.0
 40
1.0
 10
10.9647665031
 20
39.0149466221
 30
0.0
 10
10.9899918882
 20
38.958987857
 30
0.0
 10
11.0753272901
 20
38.8453035815
 30
0.0
 10
11.2607738426
 20
38.6973867141
 30
0.0
 10
11.5154753513
 20
38.5517395606
 30
0.0
 10
11.7123574419
 20
38.4649873772
 30
0.0
 10
11.8216656576
 20
38.421096776
 30
0.0
 11
10.9647665031
 21
39.0149466221
 31
0.0
 11
11.0699705366
 21
38.8638127664
 31
0.0
 11
11.2484949212
 21
38.7139695607
 31
0.0
 11
11.4994487622
 21
38.5661771341
 31
0.0
 11
11.8216656576
 21
38.421096776
 31
0.0
  0
SPLINE
  5
3DD
100
AcDbEntity
  8
RACCORDO
100
AcDbSpline
 62
253
  6
CONTINUOUS
 70
0
 71
3
 72
9
 73
5
 74
3
 42
0.0000001
 43
0.0000001
 44
0.0000000001
 12
1.2489716581
 22
-0.5015004272
 32
0.0
 13
1.3087579943
 23
-0.3139831101
 33
0.0
 40
0.0
 40
0.0
 40
0.0
 40
0.0
 40
0.4530221284
 40
1.0
 40
1.0
 40
1.0
 40
1.0
 10
11.8216656576
 20
38.421096776
 30
0.0
 10
12.0102695906
 20
38.3453665124
 30
0.0
 10
12.4360541249
 20
38.201899607
 30
0.0
 10
12.8700408508
 20
38.0874432808
 30
0.0
 10
13.1086614048
 20
38.0301960097
 30
0.0
 11
11.8216656576
 21
38.421096776
 31
0.0
 11
12.3977325506
 21
38.2213329603
 31
0.0
 11
13.1086614048
 21
38.0301960097
 31
0.0
  0
SPLINE
  5
3DE
100
AcDbEntity
  8
RACCORDO
100
AcDbSpline
 62
253
  6
CONTINUOUS
 70
0
 71
3
 72
12
 73
8
 74
6
 42
0.0000001
 43
0.0000001
 44
0.0000000001
 12
-0.003825576
 22
-0.433016417
 32
0.0
 13
-0.2897584743
 23
-0.3218041003
 33
0.0
 40
0.0
 40
0.0
 40
0.0
 40
0.0
 40
0.3670631366
 40
0.6620400051
 40
0.8735499218
 40
0.9468448273
 40
1.0
 40
1.0
 40
1.0
 40
1.0
 10
-10.9212967177
 20
39.4420213983
 30
0.0
 10
-10.9217647937
 20
39.3890399436
 30
0.0
 10
-10.9226904537
 20
39.2934270013
 30
0.0
 10
-10.9278822686
 20
39.1675810648
 30
0.0
 10
-10.9370786956
 20
39.0839096168
 30
0.0
 10
-10.9508783176
 20
39.0370786222
 30
0.0
 10
-10.9596813591
 20
39.0206484729
 30
0.0
 10
-10.9648154131
 20
39.0149466221
 30
0.0
 11
-10.9212967177
 21
39.4420213983
 31
0.0
 11
-10.9237162541
 21
39.2830892473
 31
0.0
 11
-10.9300822847
 21
39.1555131693
 31
0.0
 11
-10.9431933093
 21
39.0648655929
 31
0.0
 11
-10.9529235599
 21
39.0346547509
 31
0.0
 11
-10.9648154131
 21
39.0149466221
 31
0.0
  0
SPLINE
  5
3DF
100
AcDbEntity
  8
RACCORDO
100
AcDbSpline
 62
253
  6
CONTINUOUS
 70
0
 71
3
 72
12
 73
8
 74
6
 42
0.0000001
 43
0.0000001
 44
0.0000000001
 12
0.0038351687
 22
-0.4317064956
 32
0.0
 13
0.2896317503
 23
-0.3201541131
 33
0.0
 40
0.0
 40
0.0
 40
0.0
 40
0.0
 40
0.3670947177
 40
0.6620141059
 40
0.8735165168
 40
0.9467976782
 40
1.0
 40
1.0
 40
1.0
 40
1.0
 10
10.9212971524
 20
39.4407281141
 30
0.0
 10
10.9217664424
 20
39.3879023893
 30
0.0
 10
10.9227294973
 20
39.2925856344
 30
0.0
 10
10.9278823326
 20
39.1671157313
 30
0.0
 10
10.9371834076
 20
39.0837330532
 30
0.0
 10
10.9508568055
 20
39.0370217917
 30
0.0
 10
10.9596301425
 20
39.0206242695
 30
0.0
 10
10.9647665031
 20
39.0149466221
 30
0.0
 11
10.9212971524
 21
39.4407281141
 31
0.0
 11
10.9237391518
 21
39.2822635014
 31
0.0
 11
10.9301169021
 21
39.1550996957
 31
0.0
 11
10.943235536
 21
39.0647364222
 31
0.0
 11
10.9528964558
 21
39.0346103677
 31
0.0
 11
10.9647665031
 21
39.0149466221
 31
0.0
  0
SPLINE
  5
3E0
100
AcDbEntity
  8
RACCORDO
100
AcDbSpline
 62
253
  6
CONTINUOUS
 70
0
 71
3
 72
30
 73
26
 74
24
 42
0.0000001
 43
0.0000001
 44
0.0000000001
 12
14.4663118111
 22
-3.788195409
 32
0.0
 13
-14.9355712927
 23
-0.7438494692
 33
0.0
 40
0.0
 40
0.0
 40
0.0
 40
0.0
 40
0.0570194246
 40
0.0810849157
 40
0.102182898
 40
0.1203605261
 40
0.1357361138
 40
0.1485390563
 40
0.1592062017
 40
0.1685142164
 40
0.1776078437
 40
0.1877088124
 40
0.1997250617
 40
0.2141964879
 40
0.2314107914
 40
0.2515149904
 40
0.2745800064
 40
0.3296105522
 40
0.3963214419
 40
0.4741955283
 40
0.5625019273
 40
0.660342037
 40
0.7666719277
 40
0.8803181087
 40
1.0
 40
1.0
 40
1.0
 40
1.0
 10
15.7579426502
 20
37.3911847935
 30
0.0
 10
16.0328962421
 20
37.3191845527
 30
0.0
 10
16.4215877946
 20
37.2062871677
 30
0.0
 10
16.8992474713
 20
37.0288199799
 30
0.0
 10
17.188304356
 20
36.9011827425
 30
0.0
 10
17.4283918336
 20
36.771678248
 30
0.0
 10
17.6193338158
 20
36.6404647667
 30
0.0
 10
17.7611742226
 20
36.5071270388
 30
0.0
 10
17.8536185447
 20
36.3700315168
 30
0.0
 10
17.8929074197
 20
36.2270580832
 30
0.0
 10
17.8732523048
 20
36.0826441733
 30
0.0
 10
17.7980249302
 20
35.9436648301
 30
0.0
 10
17.6728345623
 20
35.8093118846
 30
0.0
 10
17.4985028544
 20
35.6774609001
 30
0.0
 10
17.2750134116
 20
35.5473859763
 30
0.0
 10
17.0024434679
 20
35.4190425752
 30
0.0
 10
16.5465672828
 20
35.2400467281
 30
0.0
 10
15.8551328079
 20
35.0295365346
 30
0.0
 10
14.8863826165
 20
34.8008260765
 30
0.0
 10
13.7450197743
 20
34.5868815665
 30
0.0
 10
12.4435006137
 20
34.3904024589
 30
0.0
 10
10.9961320654
 20
34.2140475659
 30
0.0
 10
9.4192844292
 20
34.0600924574
 30
0.0
 10
7.7310548732
 20
33.930520252
 30
0.0
 10
6.569877104
 20
33.8629814521
 30
0.0
 10
5.9740379639
 20
33.8333063483
 30
0.0
 11
15.7579426502
 21
37.3911847935
 31
0.0
 11
16.5747822757
 21
37.1465940381
 31
0.0
 11
16.9116950987
 21
37.0200971614
 31
0.0
 11
17.1997000725
 21
36.8912794451
 31
0.0
 11
17.4380024842
 21
36.7604995553
 31
0.0
 11
17.6260072587
 21
36.6281326199
 31
0.0
 11
17.7631685984
 21
36.494557665
 31
0.0
 11
17.8490851597
 21
36.3601547676
 31
0.0
 11
17.8835868735
 21
36.225305688
 31
0.0
 11
17.8665338206
 21
36.0903923106
 31
0.0
 11
17.7979762165
 21
35.9557959645
 31
0.0
 11
17.6781413196
 21
35.8218974623
 31
0.0
 11
17.5072884789
 21
35.6890770642
 31
0.0
 11
17.2859066174
 21
35.5577102077
 31
0.0
 11
17.0146067818
 21
35.4281697644
 31
0.0
 11
16.6940590207
 21
35.300826548
 31
0.0
 11
15.9089600477
 21
35.0541777696
 31
0.0
 11
14.9390885341
 21
34.8206068311
 31
0.0
 11
13.7950967868
 21
34.6028318224
 31
0.0
 11
12.4896998374
 21
34.4034127965
 31
0.0
 11
11.0375431322
 21
34.2247252512
 31
0.0
 11
9.4551282292
 21
34.0689272098
 31
0.0
 11
7.7607110683
 21
33.9379163445
 31
0.0
 11
5.9740379639
 21
33.8333063483
 31
0.0
  0
LINE
  5
3E1
100
AcDbEntity
  8
RACCORDO
100
AcDbLine
 62
253
  6
CONTINUOUS
 10
5.9740379639
 20
33.8333063483
 11
5.963890526
 21
33.8328014496
  0
SPLINE
  5
3E2
100
AcDbEntity
  8
RACCORDO
100
AcDbSpline
 62
253
  6
CONTINUOUS
 70
0
 71
3
 72
9
 73
5
 74
3
 42
0.0000001
 43
0.0000001
 44
0.0000000001
 12
-9.505663291
 22
-0.2753234775
 32
0.0
 13
-9.4982143991
 23
0.4662197433
 33
0.0
 40
0.0
 40
0.0
 40
0.0
 40
0.0
 40
0.5045055699
 40
1.0
 40
1.0
 40
1.0
 40
1.0
 10
3.6102414062
 20
33.7406730247
 30
0.0
 10
2.0116880477
 20
33.6943722821
 30
0.0
 10
-1.1588868414
 20
33.664973346
 30
0.0
 10
-4.3284796393
 20
33.7525065535
 30
0.0
 10
-5.8972504163
 20
33.8295096489
 30
0.0
 11
3.6102414062
 21
33.7406730247
 31
0.0
 11
-1.1872073672
 21
33.6944706837
 31
0.0
 11
-5.8972504163
 21
33.8295096489
 31
0.0
  0
SPLINE
  5
3E3
100
AcDbEntity
  8
RACCORDO
100
AcDbSpline
 62
253
  6
CONTINUOUS
 70
0
 71
3
 72
13
 73
9
 74
7
 42
0.0000001
 43
0.0000001
 44
0.0000000001
 12
-9.7592421034
 22
0.4790322852
 32
0.0
 13
-9.4794066039
 23
2.3692042548
 33
0.0
 40
0.0
 40
0.0
 40
0.0
 40
0.0
 40
0.301925728
 40
0.5745569601
 40
0.6972158637
 40
0.8095188574
 40
0.9106727821
 40
1.0
 40
1.0
 40
1.0
 40
1.0
 10
-5.8972504163
 20
33.8295096489
 30
0.0
 10
-6.8794391752
 20
33.8777203727
 30
0.0
 10
-8.7473955111
 20
33.9948476913
 30
0.0
 10
-11.0085461965
 20
34.2105425715
 30
0.0
 10
-12.6485010939
 20
34.4206716115
 30
0.0
 10
-13.7307108982
 20
34.586684843
 30
0.0
 10
-14.7007533117
 20
34.7651344637
 30
0.0
 10
-15.3065612124
 20
34.8999567222
 30
0.0
 10
-15.588817552
 20
34.9705015304
 30
0.0
 11
-5.8972504163
 21
33.8295096489
 31
0.0
 11
-8.8413646267
 21
34.0175596567
 31
0.0
 11
-11.4926166272
 21
34.2766082314
 31
0.0
 11
-12.6812491433
 21
34.430077765
 31
0.0
 11
-13.7656621952
 21
34.597830906
 31
0.0
 11
-14.7373896123
 21
34.7784667302
 31
0.0
 11
-15.588817552
 21
34.9705015304
 31
0.0
  0
SPLINE
  5
3E4
100
AcDbEntity
  8
RACCORDO
100
AcDbSpline
 62
253
  6
CONTINUOUS
 70
0
 71
3
 72
9
 73
5
 74
3
 42
0.0000001
 43
0.0000001
 44
0.0000000001
 12
-0.5525011699
 22
0.7294949111
 32
0.0
 13
-0.9150715886
 23
-0.0080222129
 33
0.0
 40
0.0
 40
0.0
 40
0.0
 40
0.0
 40
0.4986592888
 40
1.0
 40
1.0
 40
1.0
 40
1.0
 10
11.7646848947
 20
38.6238882878
 30
0.0
 10
11.6728482812
 20
38.745144759
 30
0.0
 10
11.4277408915
 20
38.9475224058
 30
0.0
 10
11.1176873835
 20
39.0162839114
 30
0.0
 10
10.9647665032
 20
39.0149432908
 30
0.0
 11
11.7646848947
 21
38.6238882878
 31
0.0
 11
11.4122485556
 21
38.913754611
 31
0.0
 11
10.9647665032
 21
39.0149432908
 31
0.0
  0
SPLINE
  5
3E5
100
AcDbEntity
  8
RACCORDO
100
AcDbSpline
 62
253
  6
CONTINUOUS
 70
0
 71
3
 72
24
 73
20
 74
18
 42
0.0000001
 43
0.0000001
 44
0.0000000001
 12
-5.1025127857
 22
1.2752797202
 32
0.0
 13
5.0878953973
 23
1.3324021611
 33
0.0
 40
0.0
 40
0.0
 40
0.0
 40
0.0
 40
0.1024105014
 40
0.1933815919
 40
0.2728062598
 40
0.3407078089
 40
0.3973762966
 40
0.4435151459
 40
0.4806586688
 40
0.5118818644
 40
0.526890241
 40
0.5423945019
 40
0.5772659822
 40
0.6203817637
 40
0.6736589285
 40
0.7380019182
 40
0.8138022282
 40
0.9011641036
 40
1.0
 40
1.0
 40
1.0
 40
1.0
 10
-15.588817552
 20
34.9705015304
 30
0.0
 10
-15.763001183
 20
35.0140355422
 30
0.0
 10
-16.0906333195
 20
35.1015645916
 30
0.0
 10
-16.5472054147
 20
35.2445699544
 30
0.0
 10
-16.9387857533
 20
35.3909385902
 30
0.0
 10
-17.2642346994
 20
35.5401788084
 30
0.0
 10
-17.5231125361
 20
35.6917764589
 30
0.0
 10
-17.7153639117
 20
35.8461480698
 30
0.0
 10
-17.8419257704
 20
36.0053388268
 30
0.0
 10
-17.8878225347
 20
36.149024694
 30
0.0
 10
-17.8829444462
 20
36.2580749743
 30
0.0
 10
-17.8526832752
 20
36.3695240066
 30
0.0
 10
-17.761972475
 20
36.5101505321
 30
0.0
 10
-17.5901671746
 20
36.6652622489
 30
0.0
 10
-17.3521483055
 20
36.8177597569
 30
0.0
 10
-17.0474859905
 20
36.9677010651
 30
0.0
 10
-16.6765083269
 20
37.1150223975
 30
0.0
 10
-16.2401650129
 20
37.2591092988
 30
0.0
 10
-15.9257456557
 20
37.3472408862
 30
0.0
 10
-15.7581234216
 20
37.3911372735
 30
0.0
 11
-15.588817552
 21
34.9705015304
 31
0.0
 11
-16.1088963308
 21
35.1106243022
 31
0.0
 11
-16.5650546469
 21
35.2549949538
 31
0.0
 11
-16.9556715984
 21
35.4030416452
 31
0.0
 11
-17.2792357139
 21
35.5541876965
 31
0.0
 11
-17.5346206555
 21
35.7078428829
 31
0.0
 11
-17.7208598185
 21
35.8634115321
 31
0.0
 11
-17.8372734827
 21
36.0202919381
 31
0.0
 11
-17.8834742327
 21
36.1778762545
 31
0.0
 11
-17.8801502844
 21
36.2567422743
 31
0.0
 11
-17.8592254672
 21
36.3355559524
 31
0.0
 11
-17.7646920544
 21
36.4927213196
 31
0.0
 11
-17.6001506233
 21
36.6487627126
 31
0.0
 11
-17.3662584175
 21
36.8030732538
 31
0.0
 11
-17.0638930855
 21
36.9550480712
 31
0.0
 11
-16.6941351627
 21
37.104098832
 31
0.0
 11
-16.2583239658
 21
37.2496580481
 31
0.0
 11
-15.7581234216
 21
37.3911372735
 31
0.0
  0
SPLINE
  5
3E6
100
AcDbEntity
  8
RACCORDO
100
AcDbSpline
 62
7
  6
CONTINUOUS
 70
0
 71
3
 72
11
 73
7
 74
5
 42
0.0000001
 43
0.0000001
 44
0.0000000001
 12
-0.1532613023
 22
1.3576191816
 32
0.0
 13
-1.3611165443
 23
0.1182396796
 33
0.0
 40
0.0
 40
0.0
 40
0.0
 40
0.0
 40
0.2500499364
 40
0.4999941579
 40
0.7499300841
 40
1.0
 40
1.0
 40
1.0
 40
1.0
 10
12.2936874384
 20
56.1118950804
 30
0.0
 10
12.2809131121
 20
56.2250526104
 30
0.0
 10
12.2157788245
 20
56.4487819622
 30
0.0
 10
12.0111790225
 20
56.7303902153
 30
0.0
 10
11.7240714761
 20
56.9271368466
 30
0.0
 10
11.4987567362
 20
56.9864318884
 30
0.0
 10
11.3852986363
 20
56.9962879506
 30
0.0
 11
12.2936874384
 21
56.1118950804
 31
0.0
 11
12.1979383413
 21
56.4398316604
 31
0.0
 11
11.9974283014
 21
56.7162504558
 31
0.0
 11
11.7156536312
 21
56.9091414132
 31
0.0
 11
11.3852986363
 21
56.9962879506
 31
0.0
  0
SPLINE
  5
3E7
100
AcDbEntity
  8
RACCORDO
100
AcDbSpline
 62
7
  6
CONTINUOUS
 70
0
 71
3
 72
11
 73
7
 74
5
 42
0.0000001
 43
0.0000001
 44
0.0000000001
 12
-1.3611165443
 22
-0.1182396796
 32
0.0
 13
-0.1532613023
 23
-1.3576191816
 33
0.0
 40
0.0
 40
0.0
 40
0.0
 40
0.0
 40
0.2500699159
 40
0.5000058421
 40
0.7499500636
 40
1.0
 40
1.0
 40
1.0
 40
1.0
 10
-11.3852986363
 20
56.9962879506
 30
0.0
 10
-11.4987567362
 20
56.9864318884
 30
0.0
 10
-11.7240714761
 20
56.9271368466
 30
0.0
 10
-12.0111790225
 20
56.7303902153
 30
0.0
 10
-12.2157788244
 20
56.4487819622
 30
0.0
 10
-12.2809131121
 20
56.2250526104
 30
0.0
 10
-12.2936874384
 20
56.1118950804
 30
0.0
 11
-11.3852986363
 21
56.9962879506
 31
0.0
 11
-11.7156536312
 21
56.9091414132
 31
0.0
 11
-11.9974283014
 21
56.7162504558
 31
0.0
 11
-12.1979383413
 21
56.4398316604
 31
0.0
 11
-12.2936874384
 21
56.1118950804
 31
0.0
  0
SPLINE
  5
3E8
100
AcDbEntity
  8
RACCORDO
100
AcDbSpline
 62
253
  6
CONTINUOUS
 70
0
 71
3
 72
14
 73
10
 74
8
 42
0.0000001
 43
0.0000001
 44
0.0000000001
 12
-0.9164120987
 22
-0.1625729229
 32
0.0
 13
0.00340937
 23
-0.9307144923
 33
0.0
 40
0.0
 40
0.0
 40
0.0
 40
0.0
 40
0.0625265573
 40
0.1250565465
 40
0.2499985966
 40
0.3749502549
 40
0.4999201251
 40
0.7498893959
 40
1.0
 40
1.0
 40
1.0
 40
1.0
 10
-22.2344186123
 20
-0.8546299472
 30
0.0
 10
-22.2535186435
 20
-0.8580183223
 30
0.0
 10
-22.2852727323
 20
-0.8870440389
 30
0.0
 10
-22.3224265171
 20
-0.9540342817
 30
0.0
 10
-22.3545122571
 20
-1.0466640318
 30
0.0
 10
-22.3806233755
 20
-1.1598513378
 30
0.0
 10
-22.405843476
 20
-1.3130254562
 30
0.0
 10
-22.4239248014
 20
-1.5062737269
 30
0.0
 10
-22.4281615294
 20
-1.6614758898
 30
0.0
 10
-22.4278772895
 20
-1.7390697445
 30
0.0
 11
-22.2344186123
 21
-0.8546299472
 31
0.0
 11
-22.2819798695
 21
-0.8881643671
 31
0.0
 11
-22.3121934325
 21
-0.9379051238
 31
0.0
 11
-22.3524470288
 21
-1.0470019536
 31
0.0
 11
-22.379422423
 21
-1.1601252415
 31
0.0
 11
-22.3986405822
 21
-1.2748386028
 31
0.0
 11
-22.4213647853
 21
-1.5063777358
 31
0.0
 11
-22.4278772895
 21
-1.7390697445
 31
0.0
  0
SPLINE
  5
3E9
100
AcDbEntity
  8
RACCORDO
100
AcDbSpline
 62
253
  6
CONTINUOUS
 70
0
 71
3
 72
10
 73
6
 74
4
 42
0.0000001
 43
0.0000001
 44
0.0000000001
 12
-0.2273016546
 22
-0.0015196783
 32
0.0
 13
-0.0085001197
 23
-0.2271477484
 33
0.0
 40
0.0
 40
0.0
 40
0.0
 40
0.0
 40
0.33441178
 40
0.6299218196
 40
1.0
 40
1.0
 40
1.0
 40
1.0
 10
-22.216912867
 20
-3.0053633972
 30
0.0
 10
-22.2422503173
 20
-3.0055327966
 30
0.0
 10
-22.2909530904
 20
-3.0101748665
 30
0.0
 10
-22.3607146315
 20
-3.0272826679
 30
0.0
 10
-22.4158338364
 20
-3.061866241
 30
0.0
 10
-22.416882406
 20
-3.0898870495
 30
0.0
 11
-22.216912867
 21
-3.0053633972
 31
0.0
 11
-22.2926197174
 21
-3.0121904429
 31
0.0
 11
-22.3572249842
 21
-3.0305795552
 31
0.0
 11
-22.416882406
 21
-3.0898870495
 31
0.0
  0
SPLINE
  5
3EA
100
AcDbEntity
  8
RACCORDO
100
AcDbSpline
 62
253
  6
CONTINUOUS
 70
0
 71
3
 72
9
 73
5
 74
3
 42
0.0000001
 43
0.0000001
 44
0.0000000001
 12
0.1530876909
 22
0.0004732417
 32
0.0
 13
0.0000150296
 23
-0.1530884216
 33
0.0
 40
0.0
 40
0.0
 40
0.0
 40
0.0
 40
0.4998532886
 40
1.0
 40
1.0
 40
1.0
 40
1.0
 10
29.7907274018
 20
4.3376028955
 30
0.0
 10
29.8162345304
 20
4.337681746
 30
0.0
 10
29.869534276
 20
4.3167665865
 30
0.0
 10
29.8910764856
 20
4.2635723106
 30
0.0
 10
29.8910789913
 20
4.2380500871
 30
0.0
 11
29.7907274018
 21
4.3376028955
 31
0.0
 11
29.8615839112
 21
4.3087076794
 31
0.0
 11
29.8910789913
 21
4.2380500871
 31
0.0
  0
SPLINE
  5
3EB
100
AcDbEntity
  8
RACCORDO
100
AcDbSpline
 62
253
  6
CONTINUOUS
 70
0
 71
3
 72
14
 73
10
 74
8
 42
0.0000001
 43
0.0000001
 44
0.0000000001
 12
0.0034181735
 22
0.9307130399
 32
0.0
 13
-0.9180230993
 23
0.1532058606
 33
0.0
 40
0.0
 40
0.0
 40
0.0
 40
0.0
 40
0.2501358713
 40
0.5001302239
 40
0.6251111756
 40
0.7500690202
 40
0.8749962065
 40
0.9375157746
 40
1.0
 40
1.0
 40
1.0
 40
1.0
 10
22.4278772895
 20
-1.7390697445
 30
0.0
 10
22.4281622921
 20
-1.6614681721
 30
0.0
 10
22.4239231647
 20
-1.506249457
 30
0.0
 10
22.4058394672
 20
-1.3129869563
 30
0.0
 10
22.3806145805
 20
-1.1597916833
 30
0.0
 10
22.3544862625
 20
-1.0466337254
 30
0.0
 10
22.3224564293
 20
-0.953916553
 30
0.0
 10
22.2852143609
 20
-0.8871305137
 30
0.0
 10
22.2535392664
 20
-0.8578209304
 30
0.0
 10
22.2344186123
 20
-0.8546299472
 30
0.0
 11
22.4278772895
 21
-1.7390697445
 31
0.0
 11
22.4213632615
 21
-1.5063546078
 31
0.0
 11
22.3986349508
 21
-1.2747927785
 31
0.0
 11
22.3794107427
 21
-1.1600701531
 31
0.0
 11
22.3524329195
 21
-1.0469417076
 31
0.0
 11
22.3121878366
 21
-0.9378566715
 31
0.0
 11
22.2819451614
 21
-0.8881450662
 31
0.0
 11
22.2344186123
 21
-0.8546299472
 31
0.0
  0
SPLINE
  5
3EC
100
AcDbEntity
  8
RACCORDO
100
AcDbSpline
 62
253
  6
CONTINUOUS
 70
0
 71
3
 72
10
 73
6
 74
4
 42
0.0000001
 43
0.0000001
 44
0.0000000001
 12
-0.00850012
 22
0.2271477496
 32
0.0
 13
-0.2273016559
 23
0.0015196656
 33
0.0
 40
0.0
 40
0.0
 40
0.0
 40
0.0
 40
0.3700781835
 40
0.6655882229
 40
1.0
 40
1.0
 40
1.0
 40
1.0
 10
22.416882406
 20
-3.0898870495
 30
0.0
 10
22.4158338363
 20
-3.0618662407
 30
0.0
 10
22.3607146319
 20
-3.0272826668
 30
0.0
 10
22.2909530908
 20
-3.0101748627
 30
0.0
 10
22.2422503172
 20
-3.0055327952
 30
0.0
 10
22.216912867
 20
-3.0053633972
 30
0.0
 11
22.416882406
 21
-3.0898870495
 31
0.0
 11
22.3572249842
 21
-3.0305795536
 31
0.0
 11
22.2926197174
 21
-3.0121904401
 31
0.0
 11
22.216912867
 21
-3.0053633972
 31
0.0
  0
SPLINE
  5
3ED
100
AcDbEntity
  8
RACCORDO
100
AcDbSpline
 62
253
  6
CONTINUOUS
 70
0
 71
3
 72
14
 73
10
 74
8
 42
0.0000001
 43
0.0000001
 44
0.0000000001
 12
0.9179052008
 22
0.1539253676
 32
0.0
 13
-0.0034167084
 23
0.9307154789
 33
0.0
 40
0.0
 40
0.0
 40
0.0
 40
0.0
 40
0.0624870489
 40
0.1250068162
 40
0.2499336412
 40
0.3748911062
 40
0.4998716488
 40
0.7498651098
 40
1.0
 40
1.0
 40
1.0
 40
1.0
 10
22.2344186123
 20
-50.1453700528
 30
0.0
 10
22.2535376747
 20
-50.1421639388
 30
0.0
 10
22.2852246574
 20
-50.1128838575
 30
0.0
 10
22.3224491805
 20
-50.0460743708
 30
0.0
 10
22.3544888519
 20
-49.9533685328
 30
0.0
 10
22.3806140382
 20
-49.8402069784
 30
0.0
 10
22.4058398027
 20
-49.6870129966
 30
0.0
 10
22.4239231248
 20
-49.4937501099
 30
0.0
 10
22.4281621688
 20
-49.3385317269
 30
0.0
 10
22.4278772895
 20
-49.2609302555
 30
0.0
 11
22.2344186123
 21
-50.1453700528
 31
0.0
 11
22.2819508828
 21
-50.1118582239
 31
0.0
 11
22.3121873016
 21
-50.062142418
 31
0.0
 11
22.3524330292
 21
-49.953057654
 31
0.0
 11
22.379410835
 21
-49.8399292551
 31
0.0
 11
22.3986349719
 21
-49.7252066954
 31
0.0
 11
22.4213632779
 21
-49.4936450881
 31
0.0
 11
22.4278772895
 21
-49.2609302555
 31
0.0
  0
SPLINE
  5
3EE
100
AcDbEntity
  8
RACCORDO
100
AcDbSpline
 62
253
  6
CONTINUOUS
 70
0
 71
3
 72
10
 73
6
 74
4
 42
0.0000001
 43
0.0000001
 44
0.0000000001
 12
-0.0085001202
 22
-0.2271477465
 32
0.0
 13
-0.2273016529
 23
-0.0015196676
 33
0.0
 40
0.0
 40
0.0
 40
0.0
 40
0.0
 40
0.3700784468
 40
0.6655883604
 40
1.0
 40
1.0
 40
1.0
 40
1.0
 10
22.416882406
 20
-47.9101129505
 30
0.0
 10
22.4158338356
 20
-47.9381337789
 30
0.0
 10
22.3607145974
 20
-47.972717342
 30
0.0
 10
22.2909530608
 20
-47.9898251509
 30
0.0
 10
22.2422503064
 20
-47.9944672047
 30
0.0
 10
22.216912867
 20
-47.9946366028
 30
0.0
 11
22.416882406
 21
-47.9101129505
 31
0.0
 11
22.3572249261
 21
-47.9694204712
 31
0.0
 11
22.292619686
 21
-47.9878095708
 31
0.0
 11
22.216912867
 21
-47.9946366028
 31
0.0
  0
SPLINE
  5
3EF
100
AcDbEntity
  8
RACCORDO
100
AcDbSpline
 62
253
  6
CONTINUOUS
 70
0
 71
3
 72
16
 73
12
 74
10
 42
0.0000001
 43
0.0000001
 44
0.0000000001
 12
-0.0032953612
 22
0.289092232
 32
0.0
 13
-0.2350366812
 23
0.1683536055
 33
0.0
 40
0.0
 40
0.0
 40
0.0
 40
0.0
 40
0.4037900191
 40
0.5745184945
 40
0.7197990989
 40
0.8368409181
 40
0.9235013139
 40
0.9548535115
 40
0.978037815
 40
0.9930285722
 40
1.0
 40
1.0
 40
1.0
 40
1.0
 10
22.216912867
 20
-47.9946366028
 30
0.0
 10
22.2164693223
 20
-47.9557257502
 30
0.0
 10
22.2156436807
 20
-47.9003625325
 30
0.0
 10
22.2139791703
 20
-47.8310184369
 30
0.0
 10
22.2126682654
 20
-47.789297131
 30
0.0
 10
22.2112233362
 20
-47.755717342
 30
0.0
 10
22.2099170384
 20
-47.7330547026
 30
0.0
 10
22.2086898526
 20
-47.7195633114
 30
0.0
 10
22.2079576228
 20
-47.7127951366
 30
0.0
 10
22.2070865362
 20
-47.7087296107
 30
0.0
 10
22.2065985275
 20
-47.7064131078
 30
0.0
 10
22.2060523471
 20
-47.7060218861
 30
0.0
 11
22.216912867
 21
-47.9946366028
 31
0.0
 11
22.2150603224
 21
-47.8779111612
 31
0.0
 11
22.2138544026
 21
-47.828566412
 31
0.0
 11
22.2124932095
 21
-47.7865862515
 31
0.0
 11
22.2110022513
 21
-47.7527810355
 31
0.0
 11
22.2094102348
 21
-47.727777192
 31
0.0
 11
22.2085856946
 21
-47.7187505068
 31
0.0
 11
22.2077479457
 21
-47.7121002281
 31
0.0
 11
22.206901869
 21
-47.7078496223
 31
0.0
 11
22.2060523471
 21
-47.7060218861
 31
0.0
  0
SPLINE
  5
3F0
100
AcDbEntity
  8
RACCORDO
100
AcDbSpline
 62
253
  6
CONTINUOUS
 70
0
 71
3
 72
16
 73
12
 74
10
 42
0.0000001
 43
0.0000001
 44
0.0000000001
 12
-0.2350463342
 22
-0.1683401337
 32
0.0
 13
-0.0032953803
 23
-0.2890922349
 33
0.0
 40
0.0
 40
0.0
 40
0.0
 40
0.0
 40
0.0069712889
 40
0.0219620473
 40
0.0451464297
 40
0.0764987082
 40
0.1631591339
 40
0.2802009068
 40
0.4254814992
 40
0.5962099851
 40
1.0
 40
1.0
 40
1.0
 40
1.0
 10
-22.2060523471
 20
-47.7060218861
 30
0.0
 10
-22.2065985391
 20
-47.7064130687
 30
0.0
 10
-22.2070865321
 20
-47.7087296043
 30
0.0
 10
-22.2079576245
 20
-47.712795087
 30
0.0
 10
-22.2086898452
 20
-47.719563298
 30
0.0
 10
-22.2099170321
 20
-47.7330546964
 30
0.0
 10
-22.2112233334
 20
-47.7557173499
 30
0.0
 10
-22.2126682689
 20
-47.7892971327
 30
0.0
 10
-22.2139791743
 20
-47.8310184358
 30
0.0
 10
-22.2156436821
 20
-47.900362531
 30
0.0
 10
-22.2164693197
 20
-47.9557257502
 30
0.0
 10
-22.216912867
 20
-47.9946366028
 30
0.0
 11
-22.2060523471
 21
-47.7060218861
 31
0.0
 11
-22.2069018682
 21
-47.7078495784
 31
0.0
 11
-22.2077479429
 21
-47.712100185
 31
0.0
 11
-22.2085856898
 21
-47.718750487
 31
0.0
 11
-22.2094102292
 21
-47.7277771958
 31
0.0
 11
-22.2110022486
 21
-47.7527810482
 31
0.0
 11
-22.2124932115
 21
-47.7865862509
 31
0.0
 11
-22.2138544062
 21
-47.8285664083
 31
0.0
 11
-22.2150603245
 21
-47.8779111611
 31
0.0
 11
-22.216912867
 21
-47.9946366028
 31
0.0
  0
SPLINE
  5
3F1
100
AcDbEntity
  8
RACCORDO
100
AcDbSpline
 62
253
  6
CONTINUOUS
 70
0
 71
3
 72
16
 73
12
 74
10
 42
0.0000001
 43
0.0000001
 44
0.0000000001
 12
-0.2367131527
 22
0.1659889165
 32
0.0
 13
-0.0032875314
 23
0.2890927692
 33
0.0
 40
0.0
 40
0.0
 40
0.0
 40
0.0
 40
0.0069541738
 40
0.0219612304
 40
0.045174429
 40
0.0765453991
 40
0.1632220593
 40
0.280248415
 40
0.4254817297
 40
0.5961817805
 40
1.0
 40
1.0
 40
1.0
 40
1.0
 10
-22.2060523471
 20
-3.2939781139
 30
0.0
 10
-22.2066010619
 20
-3.293593342
 30
0.0
 10
-22.2070856328
 20
-3.2912680506
 30
0.0
 10
-22.2079590035
 20
-3.2872070732
 30
0.0
 10
-22.2086900199
 20
-3.2804289344
 30
0.0
 10
-22.2099185719
 20
-3.2669334946
 30
0.0
 10
-22.2112236166
 20
-3.2442673954
 30
0.0
 10
-22.2126679021
 20
-3.2106926866
 30
0.0
 10
-22.2139787557
 20
-3.1689798607
 30
0.0
 10
-22.2156438231
 20
-3.0996403644
 30
0.0
 10
-22.2164703453
 20
-3.0442770396
 30
0.0
 10
-22.216912867
 20
-3.0053633972
 30
0.0
 11
-22.2060523471
 21
-3.2939781139
 31
0.0
 11
-22.2069019322
 21
-3.292155906
 31
0.0
 11
-22.2077483279
 21
-3.2879005521
 31
0.0
 11
-22.2085864847
 21
-3.2812418944
 31
0.0
 11
-22.2094113531
 21
-3.2722097752
 31
0.0
 11
-22.2110030304
 21
-3.2472011594
 31
0.0
 11
-22.2124931105
 21
-3.2134003272
 31
0.0
 11
-22.2138539645
 21
-3.1714337699
 31
0.0
 11
-22.2150601634
 21
-3.1220971713
 31
0.0
 11
-22.216912867
 21
-3.0053633972
 31
0.0
  0
SPLINE
  5
3F2
100
AcDbEntity
  8
RACCORDO
100
AcDbSpline
 62
253
  6
CONTINUOUS
 70
0
 71
3
 72
16
 73
12
 74
10
 42
0.0000001
 43
0.0000001
 44
0.0000000001
 12
0.2350463342
 22
0.1683401337
 32
0.0
 13
0.0032953803
 23
0.2890922349
 33
0.0
 40
0.0
 40
0.0
 40
0.0
 40
0.0
 40
0.0069712889
 40
0.0219620473
 40
0.0451464297
 40
0.0764987082
 40
0.1631591339
 40
0.2802009068
 40
0.4254814992
 40
0.5962099851
 40
1.0
 40
1.0
 40
1.0
 40
1.0
 10
22.2060523471
 20
-3.2939781139
 30
0.0
 10
22.2065985391
 20
-3.2935869313
 30
0.0
 10
22.2070865321
 20
-3.2912703957
 30
0.0
 10
22.2079576245
 20
-3.287204913
 30
0.0
 10
22.2086898452
 20
-3.280436702
 30
0.0
 10
22.2099170321
 20
-3.2669453036
 30
0.0
 10
22.2112233334
 20
-3.2442826501
 30
0.0
 10
22.2126682689
 20
-3.2107028673
 30
0.0
 10
22.2139791743
 20
-3.1689815642
 30
0.0
 10
22.2156436821
 20
-3.099637469
 30
0.0
 10
22.2164693197
 20
-3.0442742498
 30
0.0
 10
22.216912867
 20
-3.0053633972
 30
0.0
 11
22.2060523471
 21
-3.2939781139
 31
0.0
 11
22.2069018682
 21
-3.2921504216
 31
0.0
 11
22.2077479429
 21
-3.287899815
 31
0.0
 11
22.2085856898
 21
-3.281249513
 31
0.0
 11
22.2094102292
 21
-3.2722228042
 31
0.0
 11
22.2110022486
 21
-3.2472189518
 31
0.0
 11
22.2124932115
 21
-3.2134137491
 31
0.0
 11
22.2138544062
 21
-3.1714335917
 31
0.0
 11
22.2150603245
 21
-3.1220888389
 31
0.0
 11
22.216912867
 21
-3.0053633972
 31
0.0
  0
SPLINE
  5
3F3
100
AcDbEntity
  8
RACCORDO
100
AcDbSpline
 62
253
  6
CONTINUOUS
 70
0
 71
3
 72
17
 73
13
 74
11
 42
0.0000001
 43
0.0000001
 44
0.0000000001
 12
0.6756264236
 22
-0.5986561658
 32
0.0
 13
0.0027789558
 23
-0.9026918336
 33
0.0
 40
0.0
 40
0.0
 40
0.0
 40
0.0
 40
0.0109387343
 40
0.0300650097
 40
0.0575949626
 40
0.093442161
 40
0.1890324502
 40
0.3133786217
 40
0.4622593963
 40
0.6304957998
 40
0.8122472106
 40
1.0
 40
1.0
 40
1.0
 40
1.0
 10
29.7377399406
 20
5.2363264401
 30
0.0
 10
29.7402034399
 20
5.2341435931
 30
0.0
 10
29.7439387931
 20
5.2254254866
 30
0.0
 10
29.7486054106
 20
5.2089784839
 30
0.0
 10
29.7532630074
 20
5.1844531615
 30
0.0
 10
29.7601162768
 20
5.1371717449
 30
0.0
 10
29.767536773
 20
5.0604874591
 30
0.0
 10
29.775121698
 20
4.9497879354
 30
0.0
 10
29.7814607125
 20
4.8170869087
 30
0.0
 10
29.7863740574
 20
4.6670570168
 30
0.0
 10
29.7895876884
 20
4.5052787736
 30
0.0
 10
29.7905534827
 20
4.3940971987
 30
0.0
 10
29.7907274016
 20
4.3376028955
 30
0.0
 11
29.7377399406
 21
5.2363264401
 31
0.0
 11
29.7427495495
 21
5.2278172295
 31
0.0
 11
29.7477318496
 21
5.2112865213
 31
0.0
 11
29.7526339173
 21
5.1869236201
 31
0.0
 11
29.7574028291
 21
5.1549178308
 31
0.0
 11
29.766351672
 21
5.0690941354
 31
0.0
 11
29.7742659068
 21
4.9571266839
 31
0.0
 11
29.7808675401
 21
4.8228948264
 31
0.0
 11
29.7859277551
 21
4.6711128063
 31
0.0
 11
29.789251224
 21
4.5070801795
 31
0.0
 11
29.7907274016
 21
4.3376028955
 31
0.0
  0
SPLINE
  5
3F4
100
AcDbEntity
  8
RACCORDO
100
AcDbSpline
 62
253
  6
CONTINUOUS
 70
0
 71
3
 72
17
 73
13
 74
11
 42
0.0000001
 43
0.0000001
 44
0.0000000001
 12
-0.6756228351
 22
-0.5987245779
 32
0.0
 13
-0.0027805596
 23
-0.9027345147
 33
0.0
 40
0.0
 40
0.0
 40
0.0
 40
0.0
 40
0.0109390788
 40
0.0300661364
 40
0.0575971677
 40
0.0934456375
 40
0.1890385943
 40
0.3133867819
 40
0.4622680678
 40
0.6305031558
 40
0.8122514198
 40
1.0
 40
1.0
 40
1.0
 40
1.0
 10
-29.737739942
 20
5.2363694768
 30
0.0
 10
-29.7402035058
 20
5.2341863117
 30
0.0
 10
-29.7439387714
 20
5.2254673347
 30
0.0
 10
-29.7486054213
 20
5.209018813
 30
0.0
 10
-29.7532629849
 20
5.1844913257
 30
0.0
 10
-29.7601162176
 20
5.1372060968
 30
0.0
 10
-29.7675366248
 20
5.0605163474
 30
0.0
 10
-29.7751214589
 20
4.9498099917
 30
0.0
 10
-29.7814603939
 20
4.8171023088
 30
0.0
 10
-29.7863737142
 20
4.6670665043
 30
0.0
 10
-29.7895874331
 20
4.5052832206
 30
0.0
 10
-29.7905533691
 20
4.3940986033
 30
0.0
 10
-29.7907273845
 20
4.3376028955
 30
0.0
 11
-29.737739942
 21
5.2363694768
 31
0.0
 11
-29.742749551
 21
5.2278593636
 31
0.0
 11
-29.7477318495
 21
5.2113270646
 31
0.0
 11
-29.7526339099
 21
5.1869619703
 31
0.0
 11
-29.7574028047
 21
5.154953471
 31
0.0
 11
-29.7663515803
 21
5.0691232449
 31
0.0
 11
-29.7742657216
 21
4.9571486411
 31
0.0
 11
-29.7808672664
 21
4.8229099545
 31
0.0
 11
-29.7859274492
 21
4.6711219361
 31
0.0
 11
-29.7892509937
 21
4.5070843925
 31
0.0
 11
-29.7907273845
 21
4.3376028955
 31
0.0
  0
SPLINE
  5
3F5
100
AcDbEntity
  8
RACCORDO
100
AcDbSpline
 62
253
  6
CONTINUOUS
 70
0
 71
3
 72
17
 73
13
 74
11
 42
0.0000001
 43
0.0000001
 44
0.0000000001
 12
-0.6756264236
 22
0.5986561658
 32
0.0
 13
-0.0027789558
 23
0.9026918336
 33
0.0
 40
0.0
 40
0.0
 40
0.0
 40
0.0
 40
0.0109387343
 40
0.0300650097
 40
0.0575949626
 40
0.093442161
 40
0.1890324502
 40
0.3133786217
 40
0.4622593963
 40
0.6304957998
 40
0.8122472106
 40
1.0
 40
1.0
 40
1.0
 40
1.0
 10
-29.7377399406
 20
-56.2363264401
 30
0.0
 10
-29.7402034399
 20
-56.2341435931
 30
0.0
 10
-29.7439387931
 20
-56.2254254866
 30
0.0
 10
-29.7486054106
 20
-56.2089784839
 30
0.0
 10
-29.7532630074
 20
-56.1844531615
 30
0.0
 10
-29.7601162768
 20
-56.1371717449
 30
0.0
 10
-29.767536773
 20
-56.0604874591
 30
0.0
 10
-29.775121698
 20
-55.9497879354
 30
0.0
 10
-29.7814607125
 20
-55.8170869087
 30
0.0
 10
-29.7863740574
 20
-55.6670570168
 30
0.0
 10
-29.7895876884
 20
-55.5052787736
 30
0.0
 10
-29.7905534827
 20
-55.3940971987
 30
0.0
 10
-29.7907274016
 20
-55.3376028955
 30
0.0
 11
-29.7377399406
 21
-56.2363264401
 31
0.0
 11
-29.7427495495
 21
-56.2278172295
 31
0.0
 11
-29.7477318496
 21
-56.2112865213
 31
0.0
 11
-29.7526339173
 21
-56.1869236201
 31
0.0
 11
-29.7574028291
 21
-56.1549178308
 31
0.0
 11
-29.766351672
 21
-56.0690941354
 31
0.0
 11
-29.7742659068
 21
-55.9571266839
 31
0.0
 11
-29.7808675401
 21
-55.8228948264
 31
0.0
 11
-29.7859277551
 21
-55.6711128063
 31
0.0
 11
-29.789251224
 21
-55.5070801795
 31
0.0
 11
-29.7907274016
 21
-55.3376028955
 31
0.0
  0
SPLINE
  5
3F6
100
AcDbEntity
  8
RACCORDO
100
AcDbSpline
 62
253
  6
CONTINUOUS
 70
0
 71
3
 72
17
 73
13
 74
11
 42
0.0000001
 43
0.0000001
 44
0.0000000001
 12
0.6756228351
 22
0.5987245779
 32
0.0
 13
0.0027805596
 23
0.9027345147
 33
0.0
 40
0.0
 40
0.0
 40
0.0
 40
0.0
 40
0.0109390788
 40
0.0300661364
 40
0.0575971677
 40
0.0934456375
 40
0.1890385943
 40
0.3133867819
 40
0.4622680678
 40
0.6305031558
 40
0.8122514198
 40
1.0
 40
1.0
 40
1.0
 40
1.0
 10
29.737739942
 20
-56.2363694768
 30
0.0
 10
29.7402035058
 20
-56.2341863117
 30
0.0
 10
29.7439387714
 20
-56.2254673347
 30
0.0
 10
29.7486054213
 20
-56.209018813
 30
0.0
 10
29.7532629849
 20
-56.1844913257
 30
0.0
 10
29.7601162176
 20
-56.1372060968
 30
0.0
 10
29.7675366248
 20
-56.0605163474
 30
0.0
 10
29.7751214589
 20
-55.9498099917
 30
0.0
 10
29.7814603939
 20
-55.8171023088
 30
0.0
 10
29.7863737142
 20
-55.6670665043
 30
0.0
 10
29.7895874331
 20
-55.5052832206
 30
0.0
 10
29.7905533691
 20
-55.3940986033
 30
0.0
 10
29.7907273845
 20
-55.3376028955
 30
0.0
 11
29.737739942
 21
-56.2363694768
 31
0.0
 11
29.742749551
 21
-56.2278593636
 31
0.0
 11
29.7477318495
 21
-56.2113270646
 31
0.0
 11
29.7526339099
 21
-56.1869619703
 31
0.0
 11
29.7574028047
 21
-56.154953471
 31
0.0
 11
29.7663515803
 21
-56.0691232449
 31
0.0
 11
29.7742657216
 21
-55.9571486411
 31
0.0
 11
29.7808672664
 21
-55.8229099545
 31
0.0
 11
29.7859274492
 21
-55.6711219361
 31
0.0
 11
29.7892509937
 21
-55.5070843925
 31
0.0
 11
29.7907273845
 21
-55.3376028955
 31
0.0
  0
SPLINE
  5
3F7
100
AcDbEntity
  8
RACCORDO
100
AcDbSpline
 62
253
  6
CONTINUOUS
 70
0
 71
3
 72
11
 73
7
 74
5
 42
0.0000001
 43
0.0000001
 44
0.0000000001
 12
0.0038391674
 22
1.557525196
 32
0.0
 13
1.5575262167
 23
0.0033999523
 33
0.0
 40
0.0
 40
0.0
 40
0.0
 40
0.0
 40
0.2499226999
 40
0.4999571987
 40
0.7500170133
 40
1.0
 40
1.0
 40
1.0
 40
1.0
 10
-30.7366796218
 20
4.2380500871
 30
0.0
 10
-30.7363597901
 20
4.3678037211
 30
0.0
 10
-30.6838388493
 20
4.6300590432
 30
0.0
 10
-30.461418962
 20
4.9614680082
 30
0.0
 10
-30.1298385927
 20
5.1836826941
 30
0.0
 10
-29.8675249605
 20
5.2360861667
 30
0.0
 10
-29.737739942
 20
5.2363694768
 30
0.0
 11
-30.7366796218
 21
4.2380500871
 31
0.0
 11
-30.6599255656
 21
4.619670036
 31
0.0
 11
-30.4432363211
 21
4.9432536214
 31
0.0
 11
-30.1194854816
 21
5.1597638335
 31
0.0
 11
-29.737739942
 21
5.2363694768
 31
0.0
  0
SPLINE
  5
3F8
100
AcDbEntity
  8
RACCORDO
100
AcDbSpline
 62
253
  6
CONTINUOUS
 70
0
 71
3
 72
11
 73
7
 74
5
 42
0.0000001
 43
0.0000001
 44
0.0000000001
 12
-1.5575263098
 22
0.0033321505
 32
0.0
 13
-0.0039149051
 23
1.5575249541
 33
0.0
 40
0.0
 40
0.0
 40
0.0
 40
0.0
 40
0.2499829612
 40
0.5000425426
 40
0.7500772335
 40
1.0
 40
1.0
 40
1.0
 40
1.0
 10
-29.737739942
 20
-56.2363694768
 30
0.0
 10
-29.8675249551
 20
-56.2360918165
 30
0.0
 10
-30.1298386224
 20
-56.1836795795
 30
0.0
 10
-30.4614176374
 20
-55.9614683742
 30
0.0
 10
-30.6838428251
 20
-55.6300593306
 30
0.0
 10
-30.7363534805
 20
-55.3678037355
 30
0.0
 10
-30.7366796218
 20
-55.2380500871
 30
0.0
 11
-29.737739942
 21
-56.2363694768
 31
0.0
 11
-30.1194853536
 21
-56.1597634648
 31
0.0
 11
-30.4432359441
 21
-55.9432535578
 31
0.0
 11
-30.6599260933
 21
-55.6196702343
 31
0.0
 11
-30.7366796218
 21
-55.2380500871
 31
0.0
  0
SPLINE
  5
3F9
100
AcDbEntity
  8
RACCORDO
100
AcDbSpline
 62
253
  6
CONTINUOUS
 70
0
 71
3
 72
17
 73
13
 74
11
 42
0.0000001
 43
0.0000001
 44
0.0000000001
 12
-0.0032903371
 22
0.4044054002
 32
0.0
 13
-0.2851391682
 23
0.286792972
 33
0.0
 40
0.0
 40
0.0
 40
0.0
 40
0.0
 40
0.2109561569
 40
0.4040355702
 40
0.5748805161
 40
0.7202663442
 40
0.8373741687
 40
0.9240373131
 40
0.9553542252
 40
0.9784689815
 40
0.9933315648
 40
1.0
 40
1.0
 40
1.0
 40
1.0
 10
22.416882406
 20
-47.9101129505
 30
0.0
 10
22.4166510337
 20
-47.8816756808
 30
0.0
 10
22.4161294125
 20
-47.8272118176
 30
0.0
 10
22.4151274577
 20
-47.7497195544
 30
0.0
 10
22.4139467777
 20
-47.6810745028
 30
0.0
 10
22.4126411847
 20
-47.6226625291
 30
0.0
 10
22.4111838996
 20
-47.5756410253
 30
0.0
 10
22.4099061024
 20
-47.5439206251
 30
0.0
 10
22.4086398101
 20
-47.5250130603
 30
0.0
 10
22.4079753028
 20
-47.5155710363
 30
0.0
 10
22.4069786845
 20
-47.5098567415
 30
0.0
 10
22.4066556968
 20
-47.5066898339
 30
0.0
 10
22.4060218861
 20
-47.5060523471
 30
0.0
 11
22.416882406
 21
-47.9101129505
 31
0.0
 11
22.4160565625
 21
-47.8248023149
 31
0.0
 11
22.4150297726
 21
-47.7467241243
 31
0.0
 11
22.4138236402
 21
-47.6776417471
 31
0.0
 11
22.4124625099
 21
-47.6188607442
 31
0.0
 11
22.4109719182
 21
-47.5715236027
 31
0.0
 11
22.409379961
 21
-47.5365115727
 31
0.0
 11
22.4085551187
 21
-47.5238733134
 31
0.0
 11
22.4077170285
 21
-47.5145629166
 31
0.0
 11
22.4068708854
 21
-47.5086120636
 31
0.0
 11
22.4060218861
 21
-47.5060523471
 31
0.0
  0
SPLINE
  5
3FA
100
AcDbEntity
  8
RACCORDO
100
AcDbSpline
 62
253
  6
CONTINUOUS
 70
0
 71
3
 72
17
 73
13
 74
11
 42
0.0000001
 43
0.0000001
 44
0.0000000001
 12
0.285183874
 22
0.2867485417
 32
0.0
 13
0.0032902906
 23
0.404405418
 33
0.0
 40
0.0
 40
0.0
 40
0.0
 40
0.0
 40
0.006668187
 40
0.0215307129
 40
0.0446455675
 40
0.0759626595
 40
0.1626261566
 40
0.2797340372
 40
0.4251194804
 40
0.5959640934
 40
0.7890436536
 40
1.0
 40
1.0
 40
1.0
 40
1.0
 10
22.4060218861
 20
-3.4939476529
 30
0.0
 10
22.4066557726
 20
-3.4933102886
 30
0.0
 10
22.406978718
 20
-3.4901432796
 30
0.0
 10
22.4079753729
 20
-3.4844291323
 30
0.0
 10
22.4086398197
 20
-3.4749870114
 30
0.0
 10
22.4099060863
 20
-3.4560793949
 30
0.0
 10
22.4111838784
 20
-3.4243588884
 30
0.0
 10
22.4126411875
 20
-3.3773373917
 30
0.0
 10
22.4139467835
 20
-3.3189255004
 30
0.0
 10
22.4151274621
 20
-3.2502805243
 30
0.0
 10
22.4161294175
 20
-3.1727882568
 30
0.0
 10
22.4166510368
 20
-3.118324346
 30
0.0
 10
22.416882406
 20
-3.0898870495
 30
0.0
 11
22.4060218861
 21
-3.4939476529
 31
0.0
 11
22.406870935
 21
-3.4913880585
 31
0.0
 11
22.4077170775
 21
-3.4854372286
 31
0.0
 11
22.4085551416
 21
-3.4761267892
 31
0.0
 11
22.4093799571
 21
-3.4634884547
 31
0.0
 11
22.4109719033
 21
-3.4284762798
 31
0.0
 11
22.4124625095
 21
-3.3811391141
 31
0.0
 11
22.4138236449
 21
-3.3223582643
 31
0.0
 11
22.4150297762
 21
-3.2532760188
 31
0.0
 11
22.4160565667
 21
-3.1751977655
 31
0.0
 11
22.416882406
 21
-3.0898870495
 31
0.0
  0
SPLINE
  5
3FB
100
AcDbEntity
  8
RACCORDO
100
AcDbSpline
 62
253
  6
CONTINUOUS
 70
0
 71
3
 72
17
 73
13
 74
11
 42
0.0000001
 43
0.0000001
 44
0.0000000001
 12
-0.2923967649
 22
0.2793931518
 32
0.0
 13
-0.0031988436
 23
0.4044084183
 33
0.0
 40
0.0
 40
0.0
 40
0.0
 40
0.0
 40
0.0066312133
 40
0.0215064399
 40
0.0446608015
 40
0.0760162651
 40
0.1627396823
 40
0.279844326
 40
0.4251359613
 40
0.5959024417
 40
0.7889875616
 40
1.0
 40
1.0
 40
1.0
 40
1.0
 10
-22.4060218861
 20
-3.4939476529
 30
0.0
 10
-22.4066682012
 20
-3.493330081
 30
0.0
 10
-22.4069801018
 20
-3.4901407647
 30
0.0
 10
-22.4079861166
 20
-3.4844460235
 30
0.0
 10
-22.4086411612
 20
-3.4749799596
 30
0.0
 10
-22.4099062865
 20
-3.4560598239
 30
0.0
 10
-22.4111822343
 20
-3.4243218018
 30
0.0
 10
-22.4126418724
 20
-3.3773071601
 30
0.0
 10
-22.4139451266
 20
-3.3189177509
 30
0.0
 10
-22.4151267591
 20
-3.2502951114
 30
0.0
 10
-22.4161381203
 20
-3.1728046685
 30
0.0
 10
-22.4166574074
 20
-3.1183321183
 30
0.0
 10
-22.416882406
 20
-3.0898870495
 30
0.0
 11
-22.4060218861
 21
-3.4939476529
 31
0.0
 11
-22.4068769459
 21
-3.4914058156
 31
0.0
 11
-22.4077234896
 21
-3.4854498207
 31
0.0
 11
-22.4085589863
 21
-3.4761230563
 31
0.0
 11
-22.4093809051
 21
-3.463468911
 31
0.0
 11
-22.410971489
 21
-3.4284322197
 31
0.0
 11
-22.4124627621
 21
-3.3810961191
 31
0.0
 11
-22.4138225375
 21
-3.3223528563
 31
0.0
 11
-22.4150299579
 21
-3.2533018493
 31
0.0
 11
-22.4160628264
 21
-3.1752209898
 31
0.0
 11
-22.416882406
 21
-3.0898870495
 31
0.0
  0
SPLINE
  5
3FC
100
AcDbEntity
  8
RACCORDO
100
AcDbSpline
 62
253
  6
CONTINUOUS
 70
0
 71
3
 72
17
 73
13
 74
11
 42
0.0000001
 43
0.0000001
 44
0.0000000001
 12
-0.285183874
 22
-0.2867485417
 32
0.0
 13
-0.0032902906
 23
-0.404405418
 33
0.0
 40
0.0
 40
0.0
 40
0.0
 40
0.0
 40
0.006668187
 40
0.0215307129
 40
0.0446455675
 40
0.0759626595
 40
0.1626261566
 40
0.2797340372
 40
0.4251194804
 40
0.5959640934
 40
0.7890436536
 40
1.0
 40
1.0
 40
1.0
 40
1.0
 10
-22.4060218861
 20
-47.5060523471
 30
0.0
 10
-22.4066557726
 20
-47.5066897114
 30
0.0
 10
-22.406978718
 20
-47.5098567204
 30
0.0
 10
-22.4079753729
 20
-47.5155708677
 30
0.0
 10
-22.4086398197
 20
-47.5250129886
 30
0.0
 10
-22.4099060863
 20
-47.5439206051
 30
0.0
 10
-22.4111838784
 20
-47.5756411116
 30
0.0
 10
-22.4126411875
 20
-47.6226626083
 30
0.0
 10
-22.4139467835
 20
-47.6810744996
 30
0.0
 10
-22.4151274621
 20
-47.7497194757
 30
0.0
 10
-22.4161294175
 20
-47.8272117432
 30
0.0
 10
-22.4166510368
 20
-47.881675654
 30
0.0
 10
-22.416882406
 20
-47.9101129505
 30
0.0
 11
-22.4060218861
 21
-47.5060523471
 31
0.0
 11
-22.406870935
 21
-47.5086119415
 31
0.0
 11
-22.4077170775
 21
-47.5145627714
 31
0.0
 11
-22.4085551416
 21
-47.5238732108
 31
0.0
 11
-22.4093799571
 21
-47.5365115453
 31
0.0
 11
-22.4109719033
 21
-47.5715237202
 31
0.0
 11
-22.4124625095
 21
-47.6188608859
 31
0.0
 11
-22.4138236449
 21
-47.6776417357
 31
0.0
 11
-22.4150297762
 21
-47.7467239812
 31
0.0
 11
-22.4160565667
 21
-47.8248022345
 31
0.0
 11
-22.416882406
 21
-47.9101129505
 31
0.0
  0
SPLINE
  5
3FD
100
AcDbEntity
  8
RACCORDO
100
AcDbSpline
 62
253
  6
CONTINUOUS
 70
0
 71
3
 72
11
 73
7
 74
5
 42
0.0000001
 43
0.0000001
 44
0.0000000001
 12
1.5575263098
 22
-0.0033321505
 32
0.0
 13
0.0039149051
 23
-1.5575249541
 33
0.0
 40
0.0
 40
0.0
 40
0.0
 40
0.0
 40
0.2499829612
 40
0.5000425426
 40
0.7500772335
 40
1.0
 40
1.0
 40
1.0
 40
1.0
 10
29.737739942
 20
5.2363694768
 30
0.0
 10
29.8675249551
 20
5.2360918165
 30
0.0
 10
30.1298386224
 20
5.1836795795
 30
0.0
 10
30.4614176374
 20
4.9614683742
 30
0.0
 10
30.6838428251
 20
4.6300593306
 30
0.0
 10
30.7363534805
 20
4.3678037355
 30
0.0
 10
30.7366796218
 20
4.2380500871
 30
0.0
 11
29.737739942
 21
5.2363694768
 31
0.0
 11
30.1194853536
 21
5.1597634648
 31
0.0
 11
30.4432359441
 21
4.9432535578
 31
0.0
 11
30.6599260933
 21
4.6196702343
 31
0.0
 11
30.7366796218
 21
4.2380500871
 31
0.0
  0
SPLINE
  5
3FE
100
AcDbEntity
  8
RACCORDO
100
AcDbSpline
 62
253
  6
CONTINUOUS
 70
0
 71
3
 72
11
 73
7
 74
5
 42
0.0000001
 43
0.0000001
 44
0.0000000001
 12
-0.0038391674
 22
-1.557525196
 32
0.0
 13
-1.5575262167
 23
-0.0033999523
 33
0.0
 40
0.0
 40
0.0
 40
0.0
 40
0.0
 40
0.2499226999
 40
0.4999571987
 40
0.7500170133
 40
1.0
 40
1.0
 40
1.0
 40
1.0
 10
30.7366796218
 20
-55.2380500871
 30
0.0
 10
30.7363597901
 20
-55.3678037211
 30
0.0
 10
30.6838388493
 20
-55.6300590432
 30
0.0
 10
30.461418962
 20
-55.9614680082
 30
0.0
 10
30.1298385927
 20
-56.1836826941
 30
0.0
 10
29.8675249605
 20
-56.2360861667
 30
0.0
 10
29.737739942
 20
-56.2363694768
 30
0.0
 11
30.7366796218
 21
-55.2380500871
 31
0.0
 11
30.6599255656
 21
-55.619670036
 31
0.0
 11
30.4432363211
 21
-55.9432536214
 31
0.0
 11
30.1194854816
 21
-56.1597638335
 31
0.0
 11
29.737739942
 21
-56.2363694768
 31
0.0
  0
SPLINE
  5
3FF
100
AcDbEntity
  8
RACCORDO
100
AcDbSpline
 62
253
  6
CONTINUOUS
 70
0
 71
3
 72
13
 73
9
 74
7
 42
0.0000001
 43
0.0000001
 44
0.0000000001
 12
0.0000092031
 22
1.1016459806
 32
0.0
 13
-1.0987982131
 23
0.0791603029
 33
0.0
 40
0.0
 40
0.0
 40
0.0
 40
0.0
 40
0.2519839755
 40
0.3780298213
 40
0.5040623559
 40
0.6300676469
 40
0.7560016545
 40
1.0
 40
1.0
 40
1.0
 40
1.0
 10
22.636794178
 20
-1.7390697445
 30
0.0
 10
22.636794951
 20
-1.6465373665
 30
0.0
 10
22.6283659142
 20
-1.5075094401
 30
0.0
 10
22.5986649389
 20
-1.3246049478
 30
0.0
 10
22.5661618982
 20
-1.189728382
 30
0.0
 10
22.5202285919
 20
-1.057368058
 30
0.0
 10
22.4427546285
 20
-0.8976915189
 30
0.0
 10
22.3325787104
 20
-0.7765446225
 30
0.0
 10
22.2432103951
 20
-0.7701062949
 30
0.0
 11
22.636794178
 21
-1.7390697445
 31
0.0
 11
22.619405947
 21
-1.4620177311
 31
0.0
 11
22.5969596327
 21
-1.3249860588
 31
0.0
 11
22.5639185886
 21
-1.1901315693
 31
0.0
 11
22.5180336603
 21
-1.0591213252
 31
0.0
 11
22.455127336
 21
-0.9354681429
 31
0.0
 11
22.2432103951
 21
-0.7701062949
 31
0.0
  0
SPLINE
  5
400
100
AcDbEntity
  8
RACCORDO
100
AcDbSpline
 62
253
  6
CONTINUOUS
 70
0
 71
3
 72
16
 73
12
 74
10
 42
0.0000001
 43
0.0000001
 44
0.0000000001
 12
-1.1055903615
 22
-0.1027213164
 32
0.0
 13
-0.0000291766
 23
-1.1103520683
 33
0.0
 40
0.0
 40
0.0
 40
0.0
 40
0.0
 40
0.0624615671
 40
0.1249535856
 40
0.1874685291
 40
0.2499893733
 40
0.3749385603
 40
0.4999465921
 40
0.6249785124
 40
0.7500214559
 40
1.0
 40
1.0
 40
1.0
 40
1.0
 10
-22.2432103951
 20
-0.7701062949
 30
0.0
 10
-22.2662293639
 20
-0.7722450063
 30
0.0
 10
-22.3116262891
 20
-0.7863382798
 30
0.0
 10
-22.3686869796
 20
-0.8269579055
 30
0.0
 10
-22.4163169378
 20
-0.8778776716
 30
0.0
 10
-22.4694266917
 20
-0.9538963354
 30
0.0
 10
-22.5208089165
 20
-1.0581557677
 30
0.0
 10
-22.5660301951
 20
-1.1895940211
 30
0.0
 10
-22.5987112998
 20
-1.3247037506
 30
0.0
 10
-22.6283441022
 20
-1.5075063201
 30
0.0
 10
-22.6367917468
 20
-1.6465483466
 30
0.0
 10
-22.636794178
 20
-1.7390697445
 30
0.0
 11
-22.2432103951
 21
-0.7701062949
 31
0.0
 11
-22.3097750714
 21
-0.7895785052
 31
0.0
 11
-22.3671059293
 21
-0.8286667002
 31
0.0
 11
-22.415017159
 21
-0.8788937994
 31
0.0
 11
-22.4551624948
 21
-0.9355286744
 31
0.0
 11
-22.5180609307
 21
-1.0591891174
 31
0.0
 11
-22.5639359287
 21
-1.1901919304
 31
0.0
 11
-22.596968029
 21
-1.3250344197
 31
0.0
 11
-22.619408982
 21
-1.4620505456
 31
0.0
 11
-22.636794178
 21
-1.7390697445
 31
0.0
  0
SPLINE
  5
401
100
AcDbEntity
  8
RACCORDO
100
AcDbSpline
 62
253
  6
CONTINUOUS
 70
0
 71
3
 72
13
 73
9
 74
7
 42
0.0000001
 43
0.0000001
 44
0.0000000001
 12
-0.0000092031
 22
-1.1016459806
 32
0.0
 13
1.0987982131
 23
-0.0791603031
 33
0.0
 40
0.0
 40
0.0
 40
0.0
 40
0.0
 40
0.2519839755
 40
0.3780298213
 40
0.5040623559
 40
0.6300676469
 40
0.7560016545
 40
1.0
 40
1.0
 40
1.0
 40
1.0
 10
-22.636794178
 20
-49.2609302555
 30
0.0
 10
-22.636794951
 20
-49.3534626335
 30
0.0
 10
-22.6283659142
 20
-49.4924905599
 30
0.0
 10
-22.5986649389
 20
-49.6753950522
 30
0.0
 10
-22.5661618982
 20
-49.810271618
 30
0.0
 10
-22.5202285919
 20
-49.942631942
 30
0.0
 10
-22.4427546285
 20
-50.1023084811
 30
0.0
 10
-22.3325787104
 20
-50.2234553775
 30
0.0
 10
-22.2432103951
 20
-50.2298937051
 30
0.0
 11
-22.636794178
 21
-49.2609302555
 31
0.0
 11
-22.619405947
 21
-49.5379822689
 31
0.0
 11
-22.5969596327
 21
-49.6750139412
 31
0.0
 11
-22.5639185886
 21
-49.8098684307
 31
0.0
 11
-22.5180336603
 21
-49.9408786748
 31
0.0
 11
-22.455127336
 21
-50.0645318571
 31
0.0
 11
-22.2432103951
 21
-50.2298937051
 31
0.0
  0
SPLINE
  5
402
100
AcDbEntity
  8
RACCORDO
100
AcDbSpline
 62
253
  6
CONTINUOUS
 70
0
 71
3
 72
13
 73
9
 74
7
 42
0.0000001
 43
0.0000001
 44
0.0000000001
 12
1.0987695389
 22
0.0795587333
 32
0.0
 13
-0.0000031286
 23
1.1016460828
 33
0.0
 40
0.0
 40
0.0
 40
0.0
 40
0.0
 40
0.2439967196
 40
0.3699309831
 40
0.495936629
 40
0.6219695542
 40
0.7480157048
 40
1.0
 40
1.0
 40
1.0
 40
1.0
 10
22.2432103951
 20
-50.2298937051
 30
0.0
 10
22.3325757827
 20
-50.2234230152
 30
0.0
 10
22.4427542446
 20
-50.1023168839
 30
0.0
 10
22.5202280771
 20
-49.9426319717
 30
0.0
 10
22.5661617879
 20
-49.8102731526
 30
0.0
 10
22.5986647754
 20
-49.6753956915
 30
0.0
 10
22.6283660895
 20
-49.4924909991
 30
0.0
 10
22.6367944408
 20
-49.3534627595
 30
0.0
 10
22.636794178
 20
-49.2609302555
 30
0.0
 11
22.2432103951
 21
-50.2298937051
 31
0.0
 11
22.4551262778
 21
-50.0645333721
 31
0.0
 11
22.51803317
 21
-49.940880148
 31
0.0
 11
22.5639183968
 21
-49.8098695806
 31
0.0
 11
22.5969595294
 21
-49.6750146564
 31
0.0
 11
22.6194059458
 21
-49.5379826475
 31
0.0
 11
22.636794178
 21
-49.2609302555
 31
0.0
  0
SPLINE
  5
403
100
AcDbEntity
  8
RACCORDO
100
AcDbSpline
 62
253
  6
CONTINUOUS
 70
0
 71
3
 72
9
 73
5
 74
3
 42
0.0000001
 43
0.0000001
 44
0.0000000001
 12
0.0000009703
 22
-0.1530884246
 32
0.0
 13
-0.1530877409
 23
0.0004575214
 33
0.0
 40
0.0
 40
0.0
 40
0.0
 40
0.0
 40
0.5001468834
 40
1.0
 40
1.0
 40
1.0
 40
1.0
 10
29.8910789913
 20
-55.2380500871
 30
0.0
 10
29.8910791531
 20
-55.2635723199
 30
0.0
 10
29.8695329327
 20
-55.3167679111
 30
0.0
 10
29.8162345299
 20
-55.3376791267
 30
0.0
 10
29.7907274018
 20
-55.3376028955
 30
0.0
 11
29.8910789913
 21
-55.2380500871
 31
0.0
 11
29.861583893
 21
-55.3087077015
 31
0.0
 11
29.7907274018
 21
-55.3376028955
 31
0.0
  0
SPLINE
  5
404
100
AcDbEntity
  8
RACCORDO
100
AcDbSpline
 62
253
  6
CONTINUOUS
 70
0
 71
3
 72
9
 73
5
 74
3
 42
0.0000001
 43
0.0000001
 44
0.0000000001
 12
-0.1530876909
 22
-0.0004732417
 32
0.0
 13
-0.0000150296
 23
0.1530884216
 33
0.0
 40
0.0
 40
0.0
 40
0.0
 40
0.0
 40
0.4998532886
 40
1.0
 40
1.0
 40
1.0
 40
1.0
 10
-29.7907274018
 20
-55.3376028955
 30
0.0
 10
-29.8162345304
 20
-55.337681746
 30
0.0
 10
-29.869534276
 20
-55.3167665865
 30
0.0
 10
-29.8910764856
 20
-55.2635723106
 30
0.0
 10
-29.8910789913
 20
-55.2380500871
 30
0.0
 11
-29.7907274018
 21
-55.3376028955
 31
0.0
 11
-29.8615839112
 21
-55.3087076794
 31
0.0
 11
-29.8910789913
 21
-55.2380500871
 31
0.0
  0
SPLINE
  5
405
100
AcDbEntity
  8
RACCORDO
100
AcDbSpline
 62
253
  6
CONTINUOUS
 70
0
 71
3
 72
9
 73
5
 74
3
 42
0.0000001
 43
0.0000001
 44
0.0000000001
 12
-0.0000009703
 22
0.1530884246
 32
0.0
 13
0.1530877409
 23
-0.0004575214
 33
0.0
 40
0.0
 40
0.0
 40
0.0
 40
0.0
 40
0.5001468834
 40
1.0
 40
1.0
 40
1.0
 40
1.0
 10
-29.8910789913
 20
4.2380500871
 30
0.0
 10
-29.8910791531
 20
4.2635723199
 30
0.0
 10
-29.8695329327
 20
4.3167679111
 30
0.0
 10
-29.8162345299
 20
4.3376791267
 30
0.0
 10
-29.7907274018
 20
4.3376028955
 30
0.0
 11
-29.8910789913
 21
4.2380500871
 31
0.0
 11
-29.861583893
 21
4.3087077015
 31
0.0
 11
-29.7907274018
 21
4.3376028955
 31
0.0
  0
SPLINE
  5
406
100
AcDbEntity
  8
RACCORDO
100
AcDbSpline
 62
253
  6
CONTINUOUS
 70
0
 71
3
 72
14
 73
10
 74
8
 42
0.0000001
 43
0.0000001
 44
0.0000000001
 12
-0.0034181735
 22
-0.9307130399
 32
0.0
 13
0.9180230993
 23
-0.1532058606
 33
0.0
 40
0.0
 40
0.0
 40
0.0
 40
0.0
 40
0.2501358713
 40
0.5001302239
 40
0.6251111756
 40
0.7500690202
 40
0.8749962065
 40
0.9375157746
 40
1.0
 40
1.0
 40
1.0
 40
1.0
 10
-22.4278772895
 20
-49.2609302555
 30
0.0
 10
-22.4281622921
 20
-49.3385318279
 30
0.0
 10
-22.4239231647
 20
-49.493750543
 30
0.0
 10
-22.4058394672
 20
-49.6870130437
 30
0.0
 10
-22.3806145805
 20
-49.8402083167
 30
0.0
 10
-22.3544862625
 20
-49.9533662746
 30
0.0
 10
-22.3224564293
 20
-50.046083447
 30
0.0
 10
-22.2852143609
 20
-50.1128694863
 30
0.0
 10
-22.2535392664
 20
-50.1421790696
 30
0.0
 10
-22.2344186123
 20
-50.1453700528
 30
0.0
 11
-22.4278772895
 21
-49.2609302555
 31
0.0
 11
-22.4213632615
 21
-49.4936453922
 31
0.0
 11
-22.3986349508
 21
-49.7252072215
 31
0.0
 11
-22.3794107427
 21
-49.8399298469
 31
0.0
 11
-22.3524329195
 21
-49.9530582924
 31
0.0
 11
-22.3121878366
 21
-50.0621433285
 31
0.0
 11
-22.2819451614
 21
-50.1118549338
 31
0.0
 11
-22.2344186123
 21
-50.1453700528
 31
0.0
  0
SPLINE
  5
407
100
AcDbEntity
  8
RACCORDO
100
AcDbSpline
 62
253
  6
CONTINUOUS
 70
0
 71
3
 72
10
 73
6
 74
4
 42
0.0000001
 43
0.0000001
 44
0.0000000001
 12
0.00850012
 22
-0.2271477496
 32
0.0
 13
0.2273016559
 23
-0.0015196656
 33
0.0
 40
0.0
 40
0.0
 40
0.0
 40
0.0
 40
0.3700781835
 40
0.6655882229
 40
1.0
 40
1.0
 40
1.0
 40
1.0
 10
-22.416882406
 20
-47.9101129505
 30
0.0
 10
-22.4158338363
 20
-47.9381337593
 30
0.0
 10
-22.3607146319
 20
-47.9727173332
 30
0.0
 10
-22.2909530908
 20
-47.9898251373
 30
0.0
 10
-22.2422503172
 20
-47.9944672048
 30
0.0
 10
-22.216912867
 20
-47.9946366028
 30
0.0
 11
-22.416882406
 21
-47.9101129505
 31
0.0
 11
-22.3572249842
 21
-47.9694204464
 31
0.0
 11
-22.2926197174
 21
-47.9878095599
 31
0.0
 11
-22.216912867
 21
-47.9946366028
 31
0.0
  0
SPLINE
  5
408
100
AcDbEntity
  8
RACCORDO
100
AcDbSpline
 62
7
  6
CONTINUOUS
 70
0
 71
3
 72
11
 73
7
 74
5
 42
0.0000001
 43
0.0000001
 44
0.0000000001
 12
0.6308992884
 22
0.1670990003
 32
0.0
 13
0.0000497011
 23
0.6526530361
 33
0.0
 40
0.0
 40
0.0
 40
0.0
 40
0.0
 40
0.2502081773
 40
0.5000315931
 40
0.7501423039
 40
1.0
 40
1.0
 40
1.0
 40
1.0
 10
-20.3083001748
 20
-4.2466094572
 30
0.0
 10
-20.2556814545
 20
-4.2326729451
 30
0.0
 10
-20.1543694211
 20
-4.1870681401
 30
0.0
 10
-20.0330953717
 20
-4.0736563823
 30
0.0
 10
-19.9546974248
 20
-3.927374462
 30
0.0
 10
-19.936593204
 20
-3.8177867685
 30
0.0
 10
-19.9365890646
 20
-3.7634299738
 30
0.0
 11
-20.3083001748
 21
-4.2466094572
 31
0.0
 11
-20.159417568
 21
-4.1795231376
 31
0.0
 11
-20.0402712314
 21
-4.0682181311
 31
0.0
 11
-19.9632226898
 21
-3.9243106759
 31
0.0
 11
-19.9365890646
 21
-3.7634299738
 31
0.0
  0
SPLINE
  5
409
100
AcDbEntity
  8
RACCORDO
100
AcDbSpline
 62
253
  6
CONTINUOUS
 70
0
 71
3
 72
12
 73
8
 74
6
 42
0.0000001
 43
0.0000001
 44
0.0000000001
 12
10.857725858
 22
-0.0000020639
 32
0.0
 13
10.7940273556
 23
-1.1743867566
 33
0.0
 40
0.0
 40
0.0
 40
0.0
 40
0.0
 40
0.3033448215
 40
0.5843685196
 40
0.822388886
 40
0.9196663512
 40
1.0
 40
1.0
 40
1.0
 40
1.0
 10
-0.0
 20
6.3731043167
 30
0.0
 10
1.0978783041
 20
6.3731041081
 30
0.0
 10
3.2129022553
 20
6.3573102368
 30
0.0
 10
6.1885939255
 20
6.2869256407
 30
0.0
 10
8.4174362236
 20
6.1907443378
 30
0.0
 10
9.9183184844
 20
6.0889521817
 30
0.0
 10
10.558667265
 20
6.0314760534
 30
0.0
 10
10.8477084658
 20
6.0000284623
 30
0.0
 11
-0.0
 21
6.3731043167
 31
0.0
 11
3.2935352798
 21
6.3474860273
 31
0.0
 11
6.3438925705
 21
6.2725227016
 31
0.0
 11
8.925522522
 21
6.1537674116
 31
0.0
 11
9.9791979125
 21
6.080609599
 31
0.0
 11
10.8477084658
 21
6.0000284623
 31
0.0
  0
SPLINE
  5
40A
100
AcDbEntity
  8
RACCORDO
100
AcDbSpline
 62
253
  6
CONTINUOUS
 70
0
 71
3
 72
11
 73
7
 74
5
 42
0.0000001
 43
0.0000001
 44
0.0000000001
 12
-0.669763614
 22
0.0058444934
 32
0.0
 13
-0.0029225527
 23
0.6697827374
 33
0.0
 40
0.0
 40
0.0
 40
0.0
 40
0.0
 40
0.2094652003
 40
0.4449955886
 40
0.7124363658
 40
1.0
 40
1.0
 40
1.0
 40
1.0
 10
20.4365700262
 20
-4.2634109354
 30
0.0
 10
20.3898059697
 20
-4.2630028627
 30
0.0
 10
20.2896035399
 20
-4.23187493
 30
0.0
 10
20.1747744773
 20
-4.115412496
 30
0.0
 10
20.1005855912
 20
-3.9522376794
 30
0.0
 10
20.0832967755
 20
-3.8276316932
 30
0.0
 10
20.0830166356
 20
-3.7634299738
 30
0.0
 11
20.4365700262
 21
-4.2634109354
 31
0.0
 11
20.3017828985
 21
-4.2244773797
 31
0.0
 11
20.1873439761
 21
-4.115892893
 31
0.0
 11
20.1105537722
 21
-3.9540583015
 31
0.0
 11
20.0830166356
 21
-3.7634299738
 31
0.0
  0
SPLINE
  5
40B
100
AcDbEntity
  8
RACCORDO
100
AcDbSpline
 62
7
  6
CONTINUOUS
 70
0
 71
3
 72
11
 73
7
 74
5
 42
0.0000001
 43
0.0000001
 44
0.0000000001
 12
-0.7809380125
 22
-0.0037206186
 32
0.0
 13
0.0
 23
0.7809468755
 33
0.0
 40
0.0
 40
0.0
 40
0.0
 40
0.0
 40
0.2360347659
 40
0.4798746513
 40
0.7352879627
 40
1.0
 40
1.0
 40
1.0
 40
1.0
 10
20.4137141881
 20
-4.2862667734
 30
0.0
 10
20.3522713478
 20
-4.2865595052
 30
0.0
 10
20.226033762
 20
-4.2638686113
 30
0.0
 10
20.0595302348
 20
-4.1604342157
 30
0.0
 10
19.9404014676
 20
-3.9946129095
 30
0.0
 10
19.9114370805
 20
-3.8574906375
 30
0.0
 10
19.9114370805
 20
-3.788581958
 30
0.0
 11
20.4137141881
 21
-4.2862667734
 31
0.0
 11
20.2323381571
 21
-4.2533956579
 31
0.0
 11
20.0705485179
 21
-4.152965718
 31
0.0
 11
19.9544248559
 21
-3.9907890452
 31
0.0
 11
19.9114370805
 21
-3.788581958
 31
0.0
  0
SPLINE
  5
40C
100
AcDbEntity
  8
RACCORDO
100
AcDbSpline
 62
7
  6
CONTINUOUS
 70
0
 71
3
 72
8
 73
4
 74
2
 42
0.0000001
 43
0.0000001
 44
0.0000000001
 12
0.0151613846
 22
0.1504502096
 32
0.0
 13
0.0596736263
 23
0.1389395245
 33
0.0
 40
0.0
 40
0.0
 40
0.0
 40
0.0
 40
1.0
 40
1.0
 40
1.0
 40
1.0
 10
19.9139403327
 20
-3.5618693894
 30
0.0
 10
19.9189941276
 20
-3.5117193195
 30
0.0
 10
19.9318047367
 20
-3.4617597284
 30
0.0
 10
19.9516959455
 20
-3.4154465536
 30
0.0
 11
19.9139403327
 21
-3.5618693894
 31
0.0
 11
19.9516959455
 21
-3.4154465536
 31
0.0
  0
SPLINE
  5
40D
100
AcDbEntity
  8
RACCORDO
100
AcDbSpline
 62
253
  6
CONTINUOUS
 70
0
 71
3
 72
9
 73
5
 74
3
 42
0.0000001
 43
0.0000001
 44
0.0000000001
 12
-0.1922272758
 22
-0.2957702807
 32
0.0
 13
-0.0015391794
 23
-0.3527449722
 33
0.0
 40
0.0
 40
0.0
 40
0.0
 40
0.0
 40
0.2372078605
 40
1.0
 40
1.0
 40
1.0
 40
1.0
 10
20.1769931368
 20
-3.2993752081
 30
0.0
 10
20.1617938631
 20
-3.3227615533
 30
0.0
 10
20.1062379615
 20
-3.4268078449
 30
0.0
 10
20.0834079935
 20
-3.5468796621
 30
0.0
 10
20.0830166356
 20
-3.6365700262
 30
0.0
 11
20.1769931368
 21
-3.2993752081
 31
0.0
 11
20.1372786787
 21
-3.3730244671
 31
0.0
 11
20.0830166356
 21
-3.6365700262
 31
0.0
  0
SPLINE
  5
40E
100
AcDbEntity
  8
RACCORDO
100
AcDbSpline
 62
7
  6
CONTINUOUS
 70
0
 71
3
 72
8
 73
4
 74
2
 42
0.0000001
 43
0.0000001
 44
0.0000000001
 12
-0.0151613846
 22
-0.1504502096
 32
0.0
 13
-0.0596736263
 23
-0.1389395245
 33
0.0
 40
0.0
 40
0.0
 40
0.0
 40
0.0
 40
1.0
 40
1.0
 40
1.0
 40
1.0
 10
-19.9139403327
 20
-3.8381306106
 30
0.0
 10
-19.9189941276
 20
-3.8882806805
 30
0.0
 10
-19.9318047367
 20
-3.9382402716
 30
0.0
 10
-19.9516959455
 20
-3.9845534464
 30
0.0
 11
-19.9139403327
 21
-3.8381306106
 31
0.0
 11
-19.9516959455
 21
-3.9845534464
 31
0.0
  0
SPLINE
  5
40F
100
AcDbEntity
  8
RACCORDO
100
AcDbSpline
 62
253
  6
CONTINUOUS
 70
0
 71
3
 72
11
 73
7
 74
5
 42
0.0000001
 43
0.0000001
 44
0.0000000001
 12
0.6697632168
 22
0.0058444899
 32
0.0
 13
0.002922551
 23
0.6697823402
 33
0.0
 40
0.0
 40
0.0
 40
0.0
 40
0.0
 40
0.2094831063
 40
0.4450109618
 40
0.712440973
 40
1.0
 40
1.0
 40
1.0
 40
1.0
 10
-20.4365700262
 20
-4.2634109354
 30
0.0
 10
-20.3898019998
 20
-4.2630028281
 30
0.0
 10
-20.289596551
 20
-4.2318698866
 30
0.0
 10
-20.174769971
 20
-4.1154048459
 30
0.0
 10
-20.1005846515
 20
-3.9522330474
 30
0.0
 10
-20.0832967709
 20
-3.8276306265
 30
0.0
 10
-20.0830166356
 20
-3.7634299738
 30
0.0
 11
-20.4365700262
 21
-4.2634109354
 31
0.0
 11
-20.3017724905
 21
-4.224470494
 31
0.0
 11
-20.1873377988
 21
-4.115884149
 31
0.0
 11
-20.1105527342
 21
-3.9540552182
 31
0.0
 11
-20.0830166356
 21
-3.7634299738
 31
0.0
  0
SPLINE
  5
410
100
AcDbEntity
  8
RACCORDO
100
AcDbSpline
 62
253
  6
CONTINUOUS
 70
0
 71
3
 72
9
 73
5
 74
3
 42
0.0000001
 43
0.0000001
 44
0.0000000001
 12
0.1922502365
 22
-0.295778497
 32
0.0
 13
0.001539264
 23
-0.3527643738
 33
0.0
 40
0.0
 40
0.0
 40
0.0
 40
0.0
 40
0.23721051
 40
1.0
 40
1.0
 40
1.0
 40
1.0
 10
-20.177003865
 20
-3.299358696
 30
0.0
 10
-20.1618026062
 20
-3.322745952
 30
0.0
 10
-20.1062399457
 20
-3.4267961113
 30
0.0
 10
-20.0834080137
 20
-3.5468750406
 30
0.0
 10
-20.0830166356
 20
-3.6365700262
 30
0.0
 11
-20.177003865
 21
-3.299358696
 31
0.0
 11
-20.1372842318
 21
-3.3730114548
 31
0.0
 11
-20.0830166356
 21
-3.6365700262
 31
0.0
  0
SPLINE
  5
411
100
AcDbEntity
  8
RACCORDO
100
AcDbSpline
 62
253
  6
CONTINUOUS
 70
0
 71
3
 72
12
 73
8
 74
6
 42
0.0000001
 43
0.0000001
 44
0.0000000001
 12
10.7937970453
 22
1.1742606156
 32
0.0
 13
10.8574832557
 23
0.0000022215
 33
0.0
 40
0.0
 40
0.0
 40
0.0
 40
0.0
 40
0.0803380495
 40
0.1776182814
 40
0.4156398131
 40
0.6966603705
 40
1.0
 40
1.0
 40
1.0
 40
1.0
 10
-10.8474672459
 20
6.0000545498
 30
0.0
 10
-10.5584163789
 20
6.0315004856
 30
0.0
 10
-9.9180555565
 20
6.0889717624
 30
0.0
 10
-8.4171763634
 20
6.1907575943
 30
0.0
 10
-6.1883808159
 20
6.2869318687
 30
0.0
 10
-3.2127815149
 20
6.3573114274
 30
0.0
 10
-1.0978349826
 20
6.3731040921
 30
0.0
 10
-0.0
 20
6.3731043167
 30
0.0
 11
-10.8474672459
 21
6.0000545498
 31
0.0
 11
-9.9789278386
 21
6.0806309303
 31
0.0
 11
-8.9252456651
 21
6.15378402
 31
0.0
 11
-6.3436604556
 21
6.2725306754
 31
0.0
 11
-3.2934053274
 21
6.3474880776
 31
0.0
 11
-0.0
 21
6.3731043167
 31
0.0
  0
SPLINE
  5
412
100
AcDbEntity
  8
RACCORDO
100
AcDbSpline
 62
253
  6
CONTINUOUS
 70
0
 71
3
 72
9
 73
5
 74
3
 42
0.0000001
 43
0.0000001
 44
0.0000000001
 12
-6.5670125458
 22
-0.9594745527
 32
0.0
 13
-6.5661739409
 23
-0.9651968564
 33
0.0
 40
0.0
 40
0.0
 40
0.0
 40
0.0
 40
0.2615068381
 40
1.0
 40
1.0
 40
1.0
 40
1.0
 10
-76.0193364859
 20
38.0543986031
 30
0.0
 10
-76.591776048
 20
37.9707622176
 30
0.0
 10
-78.7807483896
 20
37.6507195487
 30
0.0
 10
-80.9696015228
 20
37.3298609906
 30
0.0
 10
-82.5859597079
 20
37.0922638978
 30
0.0
 11
-76.0193364859
 21
38.0543986031
 31
0.0
 11
-77.7366303671
 21
37.8033197296
 31
0.0
 11
-82.5859597079
 21
37.0922638978
 31
0.0
  0
SPLINE
  5
413
100
AcDbEntity
  8
RACCORDO
100
AcDbSpline
 62
253
  6
CONTINUOUS
 70
0
 71
3
 72
11
 73
7
 74
5
 42
0.0000001
 43
0.0000001
 44
0.0000000001
 12
-0.8521693011
 22
-1.3378047399
 32
0.0
 13
-1.5695178194
 23
-0.2291895601
 33
0.0
 40
0.0
 40
0.0
 40
0.0
 40
0.0
 40
0.2501634818
 40
0.5002575066
 40
0.750230872
 40
1.0
 40
1.0
 40
1.0
 40
1.0
 10
-74.733786933
 20
38.90351731
 30
0.0
 10
-74.8048474795
 20
38.7919606795
 30
0.0
 10
-74.9697399062
 20
38.5824166495
 30
0.0
 10
-75.2763739435
 20
38.3262514992
 30
0.0
 10
-75.6306332335
 20
38.1415381756
 30
0.0
 10
-75.8886641202
 20
38.0734800953
 30
0.0
 10
-76.0193364859
 20
38.0543986031
 30
0.0
 11
-74.733786933
 21
38.90351731
 31
0.0
 11
-74.9796586989
 21
38.5920732178
 31
0.0
 11
-75.2843943202
 21
38.3381064286
 31
0.0
 11
-75.6362162555
 21
38.1552610024
 31
0.0
 11
-76.0193364859
 21
38.0543986031
 31
0.0
  0
LINE
  5
414
100
AcDbEntity
  8
RACCORDO
100
AcDbLine
 62
253
  6
CONTINUOUS
 10
-74.4075321327
 20
39.7508711298
 11
-72.1517767624
 21
56.0196842145
  0
LINE
  5
415
100
AcDbEntity
  8
RACCORDO
100
AcDbLine
 62
253
  6
CONTINUOUS
 10
-86.5500387041
 20
36.5351489263
 11
-114.9736181206
 21
32.7509975175
  0
LINE
  5
416
100
AcDbEntity
  8
RACCORDO
100
AcDbLine
 62
253
  6
CONTINUOUS
 10
-72.1517767624
 20
56.0196842145
 11
-61.9584671002
 21
56.0000000114
  0
SPLINE
  5
417
100
AcDbEntity
  8
RACCORDO
100
AcDbSpline
 62
253
  6
CONTINUOUS
 70
0
 71
3
 72
13
 73
9
 74
7
 42
0.0000001
 43
0.0000001
 44
0.0000000001
 12
-0.1599365396
 22
1.2161438544
 32
0.0
 13
-1.2146781568
 23
-0.1707118821
 33
0.0
 40
0.0
 40
0.0
 40
0.0
 40
0.0
 40
0.3177453144
 40
0.6011307667
 40
0.7219290952
 40
0.8268393402
 40
0.9177913113
 40
1.0
 40
1.0
 40
1.0
 40
1.0
 10
-86.5500387041
 20
36.5351489263
 30
0.0
 10
-86.5669783994
 20
36.66395693
 30
0.0
 10
-86.6224046542
 20
36.9050516278
 30
0.0
 10
-86.7481017579
 20
37.1761200195
 30
0.0
 10
-86.8777826975
 20
37.3402170908
 30
0.0
 10
-86.9775849236
 20
37.4245187971
 30
0.0
 10
-87.0825132657
 20
37.472753154
 30
0.0
 10
-87.1552408729
 20
37.4777590387
 30
0.0
 10
-87.1885265724
 20
37.4730810388
 30
0.0
 11
-86.5500387041
 21
36.5351489263
 31
0.0
 11
-86.639329742
 21
36.9145342272
 31
0.0
 11
-86.7924278692
 21
37.2266082412
 31
0.0
 11
-86.8857374839
 21
37.3417107339
 31
0.0
 11
-86.9854778677
 21
37.4230222621
 31
0.0
 11
-87.087850303
 21
37.4673642188
 31
0.0
 11
-87.1885265724
 21
37.4730810388
 31
0.0
  0
SPLINE
  5
418
100
AcDbEntity
  8
RACCORDO
100
AcDbSpline
 62
253
  6
CONTINUOUS
 70
0
 71
3
 72
13
 73
9
 74
7
 42
0.0000001
 43
0.0000001
 44
0.0000000001
 12
-0.1599365422
 22
1.2161438534
 32
0.0
 13
-1.2146781561
 23
-0.1707118826
 33
0.0
 40
0.0
 40
0.0
 40
0.0
 40
0.0
 40
0.3177453131
 40
0.6011307652
 40
0.7219290938
 40
0.8268393393
 40
0.9177913111
 40
1.0
 40
1.0
 40
1.0
 40
1.0
 10
-82.5859597077
 20
37.0922638975
 30
0.0
 10
-82.6028994032
 20
37.2210719007
 30
0.0
 10
-82.6583256581
 20
37.4621665976
 30
0.0
 10
-82.7840227612
 20
37.7332349888
 30
0.0
 10
-82.9137037004
 20
37.8973320603
 30
0.0
 10
-83.0135059264
 20
37.9816337676
 30
0.0
 10
-83.118434269
 20
38.0298681245
 30
0.0
 10
-83.1911618766
 20
38.0348740097
 30
0.0
 10
-83.2244475761
 20
38.0301960097
 30
0.0
 11
-82.5859597077
 21
37.0922638975
 31
0.0
 11
-82.6752507456
 21
37.4716491967
 31
0.0
 11
-82.8283488722
 21
37.7837232104
 31
0.0
 11
-82.9216584867
 21
37.8988257034
 31
0.0
 11
-83.0213988705
 21
37.9801372324
 31
0.0
 11
-83.1237713064
 21
38.0244791894
 31
0.0
 11
-83.2244475761
 21
38.0301960097
 31
0.0
  0
SPLINE
  5
419
100
AcDbEntity
  8
RACCORDO
100
AcDbSpline
 62
253
  6
CONTINUOUS
 70
0
 71
3
 72
17
 73
13
 74
11
 42
0.0000001
 43
0.0000001
 44
0.0000000001
 12
-0.1384619234
 22
0.975795731
 32
0.0
 13
-0.9759112976
 23
-0.1376450223
 33
0.0
 40
0.0
 40
0.0
 40
0.0
 40
0.0
 40
0.19470884
 40
0.3817215086
 40
0.553484685
 40
0.7038394462
 40
0.827311741
 40
0.9192990028
 40
0.9524804632
 40
0.9767580347
 40
0.9922295784
 40
1.0
 40
1.0
 40
1.0
 40
1.0
 10
-76.0193347838
 20
38.0543994599
 30
0.0
 10
-76.0283213706
 20
38.1177314782
 30
0.0
 10
-76.0466853438
 20
38.2417871092
 30
0.0
 10
-76.0755423128
 20
38.421323202
 30
0.0
 10
-76.1044084775
 20
38.5860726273
 30
0.0
 10
-76.132175714
 20
38.7298388522
 30
0.0
 10
-76.1576497054
 20
38.8472248726
 30
0.0
 10
-76.177918382
 20
38.9265548682
 30
0.0
 10
-76.192569536
 20
38.9732120134
 30
0.0
 10
-76.2017589652
 20
38.9957896643
 30
0.0
 10
-76.2083123506
 20
39.0091181787
 30
0.0
 10
-76.2150546691
 20
39.0152998107
 30
0.0
 10
-76.2175824165
 20
39.0149432908
 30
0.0
 11
-76.0193347838
 21
38.0543994599
 31
0.0
 11
-76.0474557017
 21
38.2442271278
 31
0.0
 11
-76.0767818944
 21
38.42619328
 31
0.0
 11
-76.1061368793
 21
38.5929133907
 31
0.0
 11
-76.1344552981
 21
38.7383675804
 31
0.0
 11
-76.1606829118
 21
38.8571982325
 31
0.0
 11
-76.1838287815
 21
38.9448537528
 31
0.0
 11
-76.1939783177
 21
38.9759415515
 31
0.0
 11
-76.2030451012
 21
38.9980844286
 31
0.0
 11
-76.210941739
 21
39.0111287235
 31
0.0
 11
-76.2175824165
 21
39.0149432908
 31
0.0
  0
SPLINE
  5
41A
100
AcDbEntity
  8
RACCORDO
100
AcDbSpline
 62
253
  6
CONTINUOUS
 70
0
 71
3
 72
23
 73
19
 74
17
 42
0.0000001
 43
0.0000001
 44
0.0000000001
 12
-0.7958072462
 22
0.5399100323
 32
0.0
 13
-0.5429000218
 23
-0.7937704847
 33
0.0
 40
0.0
 40
0.0
 40
0.0
 40
0.0
 40
0.1969330087
 40
0.3855592782
 40
0.5583909896
 40
0.6369514126
 40
0.7093262532
 40
0.7748665336
 40
0.8329271095
 40
0.8829640673
 40
0.9245650459
 40
0.957326951
 40
0.9702816211
 40
0.980921281
 40
0.9892285549
 40
0.9951863767
 40
0.9987788147
 40
1.0
 40
1.0
 40
1.0
 40
1.0
 10
-74.7337761556
 20
38.9034519328
 30
0.0
 10
-74.7860163941
 20
38.9388939685
 30
0.0
 10
-74.8883042823
 20
39.0082669611
 30
0.0
 10
-75.0364858707
 20
39.1086754863
 30
0.0
 10
-75.1533003159
 20
39.1877310374
 30
0.0
 10
-75.2392919914
 20
39.2458424764
 30
0.0
 10
-75.2968088386
 20
39.2846645544
 30
0.0
 10
-75.3489038112
 20
39.319774331
 30
0.0
 10
-75.3950889531
 20
39.3508374985
 30
0.0
 10
-75.4349427065
 20
39.3775731133
 30
0.0
 10
-75.468095555
 20
39.399714131
 30
0.0
 10
-75.4914232325
 20
39.4152281014
 30
0.0
 10
-75.5064946454
 20
39.4251186859
 30
0.0
 10
-75.515094741
 20
39.4308005913
 30
0.0
 10
-75.5217063631
 20
39.4348920928
 30
0.0
 10
-75.5267679561
 20
39.4384849705
 30
0.0
 10
-75.5293301851
 20
39.4393272153
 30
0.0
 10
-75.5310977507
 20
39.4410547596
 30
0.0
 10
-75.5313187446
 20
39.440731646
 30
0.0
 11
-74.7337761556
 21
38.9034519328
 31
0.0
 11
-74.890515585
 21
39.0097504509
 31
0.0
 11
-75.0406875303
 21
39.1115005256
 31
0.0
 11
-75.178341502
 21
39.2046469657
 31
0.0
 11
-75.2409389272
 21
39.2469466313
 31
0.0
 11
-75.2986295785
 21
39.2858832826
 31
0.0
 11
-75.3508977189
 21
39.3211054025
 31
0.0
 11
-75.3972306435
 21
39.3522635409
 31
0.0
 11
-75.4371961187
 21
39.3790629812
 31
0.0
 11
-75.4704664731
 21
39.4012801254
 31
0.0
 11
-75.4967213029
 21
39.4186963214
 31
0.0
 11
-75.5071290494
 21
39.4255435093
 31
0.0
 11
-75.5156989802
 21
39.4311334282
 31
0.0
 11
-75.5224170051
 21
39.4354566395
 31
0.0
 11
-75.5272690343
 21
39.4385037052
 31
0.0
 11
-75.5302409774
 21
39.4402651868
 31
0.0
 11
-75.5313187446
 21
39.440731646
 31
0.0
  0
SPLINE
  5
41B
100
AcDbEntity
  8
RACCORDO
100
AcDbSpline
 62
253
  6
CONTINUOUS
 70
0
 71
3
 72
23
 73
19
 74
17
 42
0.0000001
 43
0.0000001
 44
0.0000000001
 12
-0.1301959561
 22
-0.9263923641
 32
0.0
 13
0.9233556133
 23
-0.1502271967
 33
0.0
 40
0.0
 40
0.0
 40
0.0
 40
0.0
 40
0.001241755
 40
0.0048047683
 40
0.0107420295
 40
0.0190285473
 40
0.0296351838
 40
0.0425354651
 40
0.0751151405
 40
0.116473324
 40
0.1662383339
 40
0.2240194443
 40
0.289295761
 40
0.3614437564
 40
0.4398368309
 40
0.6126214608
 40
0.8017738892
 40
1.0
 40
1.0
 40
1.0
 40
1.0
 10
-73.0794484311
 20
56.139173101
 30
0.0
 10
-73.0795023216
 20
56.1387896502
 30
0.0
 10
-73.0772061953
 20
56.1385878522
 30
0.0
 10
-73.0746338965
 20
56.1382916517
 30
0.0
 10
-73.0686551301
 20
56.1381071945
 30
0.0
 10
-73.0611105039
 20
56.137785439
 30
0.0
 10
-73.0511343175
 20
56.1372966415
 30
0.0
 10
-73.0337168015
 20
56.136136424
 30
0.0
 10
-73.0067430509
 20
56.1334512414
 30
0.0
 10
-72.9684505142
 20
56.128877917
 30
0.0
 10
-72.9223825908
 20
56.1230353077
 30
0.0
 10
-72.8689206192
 20
56.116254074
 30
0.0
 10
-72.8085318393
 20
56.1086013939
 30
0.0
 10
-72.74178655
 20
56.0999873312
 30
0.0
 10
-72.6418433342
 20
56.0866942474
 30
0.0
 10
-72.5058301162
 20
56.0678488712
 30
0.0
 10
-72.3325433299
 20
56.0459076922
 30
0.0
 10
-72.2128256894
 20
56.0296106569
 30
0.0
 10
-72.1518146253
 20
56.0196843392
 30
0.0
 11
-73.0794484311
 21
56.139173101
 31
0.0
 11
-73.078392005
 21
56.1386899734
 31
0.0
 11
-73.0750732527
 21
56.1383801079
 31
0.0
 11
-73.0695248203
 21
56.1381251443
 31
0.0
 11
-73.061779354
 21
56.1378067224
 31
0.0
 11
-73.0518695
 21
56.1373064818
 31
0.0
 11
-73.0398279045
 21
56.1365060624
 31
0.0
 11
-73.0094851787
 21
56.1336358562
 31
0.0
 11
-72.9710561187
 21
56.1291461628
 31
0.0
 11
-72.9248633706
 21
56.1233498195
 31
0.0
 11
-72.8712388556
 21
56.1165491201
 31
0.0
 11
-72.8106605378
 21
56.1088487575
 31
0.0
 11
-72.7437233923
 21
56.1001951044
 31
0.0
 11
-72.6710261136
 21
56.0905338055
 31
0.0
 11
-72.5108478965
 21
56.0688487266
 31
0.0
 11
-72.3353784426
 21
56.0459951821
 31
0.0
 11
-72.1518146253
 21
56.0196843392
 31
0.0
  0
SPLINE
  5
41C
100
AcDbEntity
  8
RACCORDO
100
AcDbSpline
 62
253
  6
CONTINUOUS
 70
0
 71
3
 72
21
 73
17
 74
15
 42
0.0000001
 43
0.0000001
 44
0.0000000001
 12
0.1345189882
 22
0.9570739914
 32
0.0
 13
0.9571650834
 23
-0.1338692878
 33
0.0
 40
0.0
 40
0.0
 40
0.0
 40
0.0
 40
0.0015372192
 40
0.0052496958
 40
0.011281091
 40
0.0196415221
 40
0.0433107643
 40
0.0761256449
 40
0.1177653372
 40
0.1678289605
 40
0.2259043178
 40
0.2914462461
 40
0.4423361888
 40
0.615040322
 40
0.803432851
 40
1.0
 40
1.0
 40
1.0
 40
1.0
 10
-75.3664879167
 20
39.8660415914
 30
0.0
 10
-75.3664189883
 20
39.8665320022
 30
0.0
 10
-75.3642565125
 20
39.8670474321
 30
0.0
 10
-75.3610690313
 20
39.8673237055
 30
0.0
 10
-75.3549972809
 20
39.8673995698
 30
0.0
 10
-75.3428808963
 20
39.8670201746
 30
0.0
 10
-75.3219279346
 20
39.8656387696
 30
0.0
 10
-75.2904827057
 20
39.8629212239
 30
0.0
 10
-75.2505428434
 20
39.8589706388
 30
0.0
 10
-75.2025720262
 20
39.8538219153
 30
0.0
 10
-75.146973478
 20
39.8475103551
 30
0.0
 10
-75.0591511821
 20
39.8371211095
 30
0.0
 10
-74.9347412506
 20
39.8216699098
 30
0.0
 10
-74.7711673868
 20
39.8004683704
 30
0.0
 10
-74.593103022
 20
39.7765937908
 30
0.0
 10
-74.4702478626
 20
39.7596425626
 30
0.0
 10
-74.4075321254
 20
39.7508711278
 30
0.0
 11
-75.3664879167
 21
39.8660415914
 31
0.0
 11
-75.365210788
 21
39.8668006879
 31
0.0
 11
-75.3616495234
 21
39.867238202
 31
0.0
 11
-75.3558214438
 21
39.8673540224
 31
0.0
 11
-75.34774387
 21
39.8671480375
 31
0.0
 11
-75.3249095231
 21
39.8657702062
 31
0.0
 11
-75.2933065469
 21
39.8631073153
 31
0.0
 11
-75.253253886
 21
39.8591878272
 31
0.0
 11
-75.2051416956
 21
39.8540517928
 31
0.0
 11
-75.1493689034
 21
39.8477405757
 31
0.0
 11
-75.0864606695
 21
39.8403143586
 31
0.0
 11
-74.9417308703
 21
39.8224161875
 31
0.0
 11
-74.7761948829
 21
39.8010022728
 31
0.0
 11
-74.5957285542
 21
39.7768310975
 31
0.0
 11
-74.4075321254
 21
39.7508711278
 31
0.0
  0
SPLINE
  5
41D
100
AcDbEntity
  8
RACCORDO
100
AcDbSpline
 62
253
  6
CONTINUOUS
 70
0
 71
3
 72
17
 73
13
 74
11
 42
0.0000001
 43
0.0000001
 44
0.0000000001
 12
-0.987096604
 22
0.0
 32
0.0
 13
-0.0012174772
 23
-0.9870958532
 33
0.0
 40
0.0
 40
0.0
 40
0.0
 40
0.0
 40
0.0077703964
 40
0.0232481177
 40
0.0475358612
 40
0.0807305941
 40
0.1727498002
 40
0.2962541601
 40
0.4466306759
 40
0.6183937062
 40
0.8053722118
 40
1.0
 40
1.0
 40
1.0
 40
1.0
 10
-72.0891803623
 20
57.0
 30
0.0
 10
-72.091737073
 20
57.0
 30
0.0
 10
-72.0975575174
 20
56.9929208752
 30
0.0
 10
-72.1021961131
 20
56.9787839999
 30
0.0
 10
-72.1081589004
 20
56.9550981623
 30
0.0
 10
-72.1161802614
 20
56.9067626375
 30
0.0
 10
-72.1252166518
 20
56.8252307992
 30
0.0
 10
-72.1341087315
 20
56.7052275328
 30
0.0
 10
-72.1415962409
 20
56.5587511261
 30
0.0
 10
-72.1472469542
 20
56.3913324434
 30
0.0
 10
-72.1508257046
 20
56.2092835715
 30
0.0
 10
-72.1517356404
 20
56.0837231001
 30
0.0
 10
-72.1518146253
 20
56.0196843392
 30
0.0
 11
-72.0891803623
 21
57.0
 31
0.0
 11
-72.0952310999
 21
56.9952862436
 31
0.0
 11
-72.1012409106
 21
56.9812399044
 31
0.0
 11
-72.1071428771
 21
56.958003377
 31
0.0
 11
-72.112871658
 21
56.9257416571
 31
0.0
 11
-72.1236001057
 21
56.8355456226
 31
0.0
 11
-72.1330379652
 21
56.7140007587
 31
0.0
 11
-72.1408366162
 21
56.5657696179
 31
0.0
 11
-72.1466971609
 21
56.396324232
 31
0.0
 11
-72.1504021964
 21
56.2117955759
 31
0.0
 11
-72.1518146253
 21
56.0196843392
 31
0.0
  0
LINE
  5
41E
100
AcDbEntity
  8
RACCORDO
100
AcDbLine
 62
7
  6
CONTINUOUS
 10
-50.9584671002
 20
12.5
 11
-51.9061311439
 21
13.4476640438
  0
SPLINE
  5
41F
100
AcDbEntity
  8
RACCORDO
100
AcDbSpline
 62
253
  6
CONTINUOUS
 70
0
 71
3
 72
13
 73
9
 74
7
 42
0.0000001
 43
0.0000001
 44
0.0000000001
 12
1.1557773026
 22
0.0
 32
0.0
 13
0.0302754684
 23
1.1553807031
 33
0.0
 40
0.0
 40
0.0
 40
0.0
 40
0.0
 40
0.0830251581
 40
0.1742662619
 40
0.2788089755
 40
0.3987660718
 40
0.6806067871
 40
1.0
 40
1.0
 40
1.0
 40
1.0
 10
-82.5061792162
 20
12.5
 30
0.0
 10
-82.4741930185
 20
12.5
 30
0.0
 10
-82.4065764517
 20
12.513644985
 30
0.0
 10
-82.3135915659
 20
12.5705621454
 30
0.0
 10
-82.2294709876
 20
12.6599162704
 30
0.0
 10
-82.1260519737
 20
12.8264146795
 30
0.0
 10
-82.0371400615
 20
13.0932071592
 30
0.0
 10
-82.0100877085
 20
13.3246571254
 30
0.0
 10
-82.0068644488
 20
13.4476640438
 30
0.0
 11
-82.5061792162
 21
12.5
 31
0.0
 11
-82.4119200573
 21
12.5179795046
 31
0.0
 11
-82.3208802666
 21
12.571199673
 31
0.0
 11
-82.2366045486
 21
12.6577850761
 31
0.0
 11
-82.1620159273
 21
12.7746551326
 31
0.0
 11
-82.0521132947
 21
13.081300339
 31
0.0
 11
-82.0068644488
 21
13.4476640438
 31
0.0
  0
SPLINE
  5
420
100
AcDbEntity
  8
RACCORDO
100
AcDbSpline
 62
7
  6
CONTINUOUS
 70
0
 71
3
 72
21
 73
17
 74
15
 42
0.0000001
 43
0.0000001
 44
0.0000000001
 12
0.0
 22
-1.3777472305
 32
0.0
 13
-0.9735461593
 23
-0.9748822015
 33
0.0
 40
0.0
 40
0.0
 40
0.0
 40
0.0
 40
0.0036586114
 40
0.0105535453
 40
0.0206285856
 40
0.0337440808
 40
0.0684460985
 40
0.1131196114
 40
0.1660402062
 40
0.2256803004
 40
0.2908286113
 40
0.3603886549
 40
0.5096049665
 40
0.6681872137
 40
0.8325690752
 40
1.0
 40
1.0
 40
1.0
 40
1.0
 10
-50.9584671002
 20
56.9986295348
 30
0.0
 10
-50.9584671002
 20
56.9969493209
 30
0.0
 10
-50.9609310632
 20
56.9924549498
 30
0.0
 10
-50.9658906433
 20
56.9846006952
 30
0.0
 10
-50.974274877
 20
56.9734924642
 30
0.0
 10
-50.9908388006
 20
56.9527588535
 30
0.0
 10
-51.0185457433
 20
56.9205036607
 30
0.0
 10
-51.0589759201
 20
56.8751727922
 30
0.0
 10
-51.107733373
 20
56.8218995482
 30
0.0
 10
-51.1633400282
 20
56.7621642044
 30
0.0
 10
-51.2245732673
 20
56.6972255753
 30
0.0
 10
-51.3145015778
 20
56.6028060028
 30
0.0
 10
-51.434802527
 20
56.4780593417
 30
0.0
 10
-51.5862549963
 20
56.3228634403
 30
0.0
 10
-51.7443479205
 20
56.1624636183
 30
0.0
 10
-51.8517972326
 20
56.0544084762
 30
0.0
 10
-51.9061311439
 20
56.0
 30
0.0
 11
-50.9584671002
 21
56.9986295348
 31
0.0
 11
-50.9601842859
 21
56.993890406
 31
0.0
 11
-50.9652332499
 21
56.9858437912
 31
0.0
 11
-50.9734601025
 21
56.9746635792
 31
0.0
 11
-50.9847109538
 21
56.9605236584
 31
0.0
 11
-51.015650282
 21
56.9240735242
 31
0.0
 11
-51.0565474155
 21
56.8780769991
 31
0.0
 11
-51.105719709
 21
56.8242427251
 31
0.0
 11
-51.161678053
 21
56.764072931
 31
0.0
 11
-51.2232356827
 21
56.6987495835
 31
0.0
 11
-51.2893174674
 21
56.6293394487
 31
0.0
 11
-51.4319580282
 21
56.4812929116
 31
0.0
 11
-51.5845214879
 21
56.3248939569
 31
0.0
 11
-51.743482755
 21
56.163577527
 31
0.0
 11
-51.9061311439
 21
56.0
 31
0.0
  0
SPLINE
  5
421
100
AcDbEntity
  8
RACCORDO
100
AcDbSpline
 62
253
  6
CONTINUOUS
 70
0
 71
3
 72
13
 73
9
 74
7
 42
0.0000001
 43
0.0000001
 44
0.0000000001
 12
1.1557773025
 22
0.0
 32
0.0
 13
0.0302754687
 23
1.1553807031
 33
0.0
 40
0.0
 40
0.0
 40
0.0
 40
0.0
 40
0.0830251578
 40
0.1742662613
 40
0.2788089746
 40
0.3987660708
 40
0.6806067863
 40
1.0
 40
1.0
 40
1.0
 40
1.0
 10
-86.9711921696
 20
12.5
 30
0.0
 10
-86.9392059719
 20
12.5
 30
0.0
 10
-86.8715894053
 20
12.5136449848
 30
0.0
 10
-86.77860452
 20
12.5705621451
 30
0.0
 10
-86.6944839416
 20
12.6599162696
 30
0.0
 10
-86.5910649276
 20
12.8264146786
 30
0.0
 10
-86.502153015
 20
13.0932071585
 30
0.0
 10
-86.4751006619
 20
13.3246571251
 30
0.0
 10
-86.4718774022
 20
13.4476640438
 30
0.0
 11
-86.9711921696
 21
12.5
 31
0.0
 11
-86.8769330109
 21
12.5179795044
 31
0.0
 11
-86.7858932206
 21
12.5711996726
 31
0.0
 11
-86.7016175027
 21
12.6577850752
 31
0.0
 11
-86.6270288813
 21
12.7746551316
 31
0.0
 11
-86.5171262484
 21
13.0813003381
 31
0.0
 11
-86.4718774022
 21
13.4476640438
 31
0.0
  0
SPLINE
  5
422
100
AcDbEntity
  8
RACCORDO
100
AcDbSpline
 62
253
  6
CONTINUOUS
 70
0
 71
3
 72
9
 73
5
 74
3
 42
0.0000001
 43
0.0000001
 44
0.0000000001
 12
-0.0000023107
 22
0.6471182009
 32
0.0
 13
-0.0109686171
 23
0.6470252355
 33
0.0
 40
0.0
 40
0.0
 40
0.0
 40
0.0
 40
0.2543991245
 40
1.0
 40
1.0
 40
1.0
 40
1.0
 10
-136.0018652265
 20
-1.7390697445
 30
0.0
 10
-136.0018654225
 20
-1.6841943099
 30
0.0
 10
-136.0022408834
 20
-1.4684892374
 30
0.0
 10
-136.0038603614
 20
-1.2527798117
 30
0.0
 10
-136.0065864316
 20
-1.0919722844
 30
0.0
 11
-136.0018652265
 21
-1.7390697445
 31
0.0
 11
-136.0021369678
 21
-1.574443665
 31
0.0
 11
-136.0065864316
 21
-1.0919722844
 31
0.0
  0
SPLINE
  5
423
100
AcDbEntity
  8
RACCORDO
100
AcDbSpline
 62
253
  6
CONTINUOUS
 70
0
 71
3
 72
11
 73
7
 74
5
 42
0.0000001
 43
0.0000001
 44
0.0000000001
 12
-0.005148423
 22
0.2486176485
 32
0.0
 13
-0.0461817721
 23
0.2443450129
 33
0.0
 40
0.0
 40
0.0
 40
0.0
 40
0.0
 40
0.3132540913
 40
0.6024582948
 40
0.8466525483
 40
1.0
 40
1.0
 40
1.0
 40
1.0
 10
-136.0078964192
 20
-1.0220625092
 30
0.0
 10
-136.0084340074
 20
-0.996102344
 30
0.0
 10
-136.0096300825
 20
-0.9461874691
 30
0.0
 10
-136.0115812556
 20
-0.8759990675
 30
0.0
 10
-136.0144915364
 20
-0.8192334471
 30
0.0
 10
-136.0159850716
 20
-0.7861686311
 30
0.0
 10
-136.0183456906
 20
-0.773678736
 30
0.0
 11
-136.0078964192
 21
-1.0220625092
 31
0.0
 11
-136.0097298285
 21
-0.9441868955
 31
0.0
 11
-136.0119881197
 21
-0.872305677
 31
0.0
 11
-136.0148043975
 21
-0.8116470023
 31
0.0
 11
-136.0183456906
 21
-0.773678736
 31
0.0
  0
SPLINE
  5
424
100
AcDbEntity
  8
RACCORDO
100
AcDbSpline
 62
253
  6
CONTINUOUS
 70
0
 71
3
 72
9
 73
5
 74
3
 42
0.0000001
 43
0.0000001
 44
0.0000000001
 12
-0.0006893585
 22
0.0036473551
 32
0.0
 13
-0.001838338
 23
0.0032247369
 33
0.0
 40
0.0
 40
0.0
 40
0.0
 40
0.0
 40
0.3383758701
 40
1.0
 40
1.0
 40
1.0
 40
1.0
 10
-136.0183456906
 20
-0.773678736
 30
0.0
 10
-136.0184234447
 20
-0.7732673437
 30
0.0
 10
-136.0186821392
 20
-0.7720643683
 30
0.0
 10
-136.0189315748
 20
-0.7708174828
 30
0.0
 10
-136.0193370044
 20
-0.7701062949
 30
0.0
 11
-136.0183456906
 21
-0.773678736
 31
0.0
 11
-136.0185974565
 21
-0.7724482004
 31
0.0
 11
-136.0193370044
 21
-0.7701062949
 31
0.0
  0
LINE
  5
425
100
AcDbEntity
  8
RACCORDO
100
AcDbLine
 62
253
  6
CONTINUOUS
 10
-136.0193370044
 20
-0.7701062949
 11
-136.3862446434
 21
0.0164187389
  0
LINE
  5
426
100
AcDbEntity
  8
RACCORDO
100
AcDbLine
 62
253
  6
CONTINUOUS
 10
-136.3862446434
 20
0.0164187389
 11
-136.4948840143
 21
0.2493046602
  0
LINE
  5
427
100
AcDbEntity
  8
RACCORDO
100
AcDbLine
 62
253
  6
CONTINUOUS
 10
-136.4948840143
 20
0.2493046602
 11
-136.5084671002
 21
0.2784219786
  0
LINE
  5
428
100
AcDbEntity
  8
RACCORDO
100
AcDbLine
 62
253
  6
CONTINUOUS
 10
-135.6307419613
 20
-55.3376028955
 11
-136.5084671002
 21
-55.2916850876
  0
SPLINE
  5
429
100
AcDbEntity
  8
RACCORDO
100
AcDbSpline
 62
253
  6
CONTINUOUS
 70
0
 71
3
 72
13
 73
9
 74
7
 42
0.0000001
 43
0.0000001
 44
0.0000000001
 12
0.0841425914
 22
0.1482405808
 32
0.0
 13
0.0046484461
 23
0.1703925979
 33
0.0
 40
0.0
 40
0.0
 40
0.0
 40
0.0
 40
0.0400764321
 40
0.1193415391
 40
0.2267827356
 40
0.3558338784
 40
0.6590618566
 40
1.0
 40
1.0
 40
1.0
 40
1.0
 10
-136.0193370044
 20
-50.2298937051
 30
0.0
 10
-136.0182129594
 20
-50.2279133873
 30
0.0
 10
-136.0177210703
 20
-50.2208678444
 30
0.0
 10
-136.0159880819
 20
-50.2082904922
 30
0.0
 10
-136.0149187536
 20
-50.1902856809
 30
0.0
 10
-136.013178659
 20
-50.1597124797
 30
0.0
 10
-136.0114870996
 20
-50.1157825382
 30
0.0
 10
-136.0103672047
 20
-50.0792072678
 30
0.0
 10
-136.0098389272
 20
-50.0598428225
 30
0.0
 11
-136.0193370044
 21
-50.2298937051
 31
0.0
 11
-136.0178352221
 21
-50.2232295568
 31
0.0
 11
-136.0163465828
 21
-50.2098006024
 31
0.0
 11
-136.0149998678
 21
-50.1915361889
 31
0.0
 11
-136.0137801448
 21
-50.16957249
 31
0.0
 11
-136.0116337117
 21
-50.1179300511
 31
0.0
 11
-136.0098389272
 21
-50.0598428225
 31
0.0
  0
LINE
  5
42A
100
AcDbEntity
  8
RACCORDO
100
AcDbLine
 62
253
  6
CONTINUOUS
 10
-136.0074323464
 20
-49.9547434796
 11
-136.0069952135
 21
-49.9313705363
  0
SPLINE
  5
42B
100
AcDbEntity
  8
RACCORDO
100
AcDbSpline
 62
253
  6
CONTINUOUS
 70
0
 71
3
 72
9
 73
5
 74
3
 42
0.0000001
 43
0.0000001
 44
0.0000000001
 12
0.0121262637
 22
0.6703554711
 32
0.0
 13
0.0000010601
 23
0.6704651399
 33
0.0
 40
0.0
 40
0.0
 40
0.0
 40
0.0
 40
0.242236205
 40
1.0
 40
1.0
 40
1.0
 40
1.0
 10
-136.0069952135
 20
-49.9313705363
 30
0.0
 10
-136.0060160735
 20
-49.8772424145
 30
0.0
 10
-136.0028703612
 20
-49.6537747606
 30
0.0
 10
-136.0018654943
 20
-49.4302816585
 30
0.0
 10
-136.0018652265
 20
-49.2609302555
 30
0.0
 11
-136.0069952135
 21
-49.9313705363
 31
0.0
 11
-136.004617684
 21
-49.7689770084
 31
0.0
 11
-136.0018652265
 21
-49.2609302555
 31
0.0
  0
SPLINE
  5
42C
100
AcDbEntity
  8
RACCORDO
100
AcDbSpline
 62
253
  6
CONTINUOUS
 70
0
 71
3
 72
13
 73
9
 74
7
 42
0.0000001
 43
0.0000001
 44
0.0000000001
 12
0.0000000377
 22
-0.1001103228
 32
0.0
 13
-0.0999820349
 23
0.0050665023
 33
0.0
 40
0.0
 40
0.0
 40
0.0
 40
0.0
 40
0.3825617407
 40
0.7060813732
 40
0.8297089326
 40
0.921469393
 40
0.9783207448
 40
1.0
 40
1.0
 40
1.0
 40
1.0
 10
-135.6248134964
 20
-55.2380500871
 30
0.0
 10
-135.6248134916
 20
-55.2508162135
 30
0.0
 10
-135.6250789623
 20
-55.2743155858
 30
0.0
 10
-135.6260558848
 20
-55.3021904001
 30
0.0
 10
-135.6273046869
 20
-55.3198390484
 30
0.0
 10
-135.6282414449
 20
-55.3294016401
 30
0.0
 10
-135.6291907158
 20
-55.3340378092
 30
0.0
 10
-135.6300194493
 20
-55.3376395081
 30
0.0
 10
-135.6307419613
 20
-55.3376028955
 30
0.0
 11
-135.6248134964
 21
-55.2380500871
 31
0.0
 11
-135.625267282
 21
-55.2763457779
 31
0.0
 11
-135.6265580526
 21
-55.3087077015
 31
0.0
 11
-135.6274582655
 21
-55.3210513139
 31
0.0
 11
-135.6284824419
 21
-55.3301802114
 31
0.0
 11
-135.6295916828
 21
-55.335762478
 31
0.0
 11
-135.6307419613
 21
-55.3376028955
 31
0.0
  0
LINE
  5
42D
100
AcDbEntity
  8
RACCORDO
100
AcDbLine
 62
253
  6
CONTINUOUS
 10
-136.5084671002
 20
4.2916850876
 11
-135.6307419613
 21
4.3376028955
  0
SPLINE
  5
42E
100
AcDbEntity
  8
RACCORDO
100
AcDbSpline
 62
253
  6
CONTINUOUS
 70
0
 71
3
 72
13
 73
9
 74
7
 42
0.0000001
 43
0.0000001
 44
0.0000000001
 12
0.0999730949
 22
0.0052401208
 32
0.0
 13
0.0000005831
 23
-0.1001103319
 33
0.0
 40
0.0
 40
0.0
 40
0.0
 40
0.0
 40
0.0216783112
 40
0.0785350387
 40
0.170294047
 40
0.2939189047
 40
0.6174377281
 40
1.0
 40
1.0
 40
1.0
 40
1.0
 10
-135.6307419613
 20
4.3376028955
 30
0.0
 10
-135.6300195453
 20
4.3376407611
 30
0.0
 10
-135.6291904937
 20
4.3340361328
 30
0.0
 10
-135.628241645
 20
4.3294023349
 30
0.0
 10
-135.6273046269
 20
4.3198384126
 30
0.0
 10
-135.6260559256
 20
4.3021906488
 30
0.0
 10
-135.6250788605
 20
4.2743154433
 30
0.0
 10
-135.6248135708
 20
4.2508162324
 30
0.0
 10
-135.6248134964
 20
4.2380500871
 30
0.0
 11
-135.6307419613
 21
4.3376028955
 31
0.0
 11
-135.6295916808
 21
4.3357625905
 31
0.0
 11
-135.6284824451
 21
4.3301797737
 31
0.0
 11
-135.6274582738
 21
4.321051021
 31
0.0
 11
-135.6265580515
 21
4.3087076794
 31
0.0
 11
-135.6252672557
 21
4.2763458349
 31
0.0
 11
-135.6248134964
 21
4.2380500871
 31
0.0
  0
SPLINE
  5
42F
100
AcDbEntity
  8
RACCORDO
100
AcDbSpline
 62
253
  6
CONTINUOUS
 70
0
 71
3
 72
11
 73
7
 74
5
 42
0.0000001
 43
0.0000001
 44
0.0000000001
 12
-1.3553672687
 22
-0.0710254293
 32
0.0
 13
0.00023768
 23
-1.357226948
 33
0.0
 40
0.0
 40
0.0
 40
0.0
 40
0.0
 40
0.2498055407
 40
0.4997221596
 40
0.7497997974
 40
1.0
 40
1.0
 40
1.0
 40
1.0
 10
-134.7794032379
 20
5.2363264401
 30
0.0
 10
-134.8922626557
 20
5.2304122581
 30
0.0
 10
-135.1180581775
 20
5.1747651579
 30
0.0
 10
-135.3999236436
 20
4.9720247831
 30
0.0
 10
-135.5871703228
 20
4.6794458091
 30
0.0
 10
-135.6307617811
 20
4.4507957146
 30
0.0
 10
-135.6307419586
 20
4.3376028955
 30
0.0
 11
-134.7794032379
 21
5.2363264401
 31
0.0
 11
-135.108527333
 21
5.1549178308
 31
0.0
 11
-135.3840830326
 21
4.9571266839
 31
0.0
 11
-135.5668305229
 21
4.6711128063
 31
0.0
 11
-135.6307419586
 21
4.3376028955
 31
0.0
  0
SPLINE
  5
430
100
AcDbEntity
  8
RACCORDO
100
AcDbSpline
 62
253
  6
CONTINUOUS
 70
0
 71
3
 72
11
 73
7
 74
5
 42
0.0000001
 43
0.0000001
 44
0.0000000001
 12
-1.3553993395
 22
0.0710339141
 32
0.0
 13
0.0002465815
 23
1.3572594172
 33
0.0
 40
0.0
 40
0.0
 40
0.0
 40
0.0
 40
0.2498054987
 40
0.4997220924
 40
0.7497997626
 40
1.0
 40
1.0
 40
1.0
 40
1.0
 10
-134.7794054931
 20
-56.2363694768
 30
0.0
 10
-134.8922675624
 20
-56.2304545893
 30
0.0
 10
-135.118068232
 20
-56.174801918
 30
0.0
 10
-135.3999334992
 20
-55.9720464152
 30
0.0
 10
-135.5871740616
 20
-55.6794540998
 30
0.0
 10
-135.630762233
 20
-55.4507984383
 30
0.0
 10
-135.6307416681
 20
-55.3376028955
 30
0.0
 11
-134.7794054931
 21
-56.2363694768
 31
0.0
 11
-135.1085360556
 21
-56.154953471
 31
0.0
 11
-135.3840918806
 21
-55.9571486411
 31
0.0
 11
-135.5668344578
 21
-55.6711219361
 31
0.0
 11
-135.6307416681
 21
-55.3376028955
 31
0.0
  0
SPLINE
  5
431
100
AcDbEntity
  8
RACCORDO
100
AcDbSpline
 62
253
  6
CONTINUOUS
 70
0
 71
3
 72
18
 73
14
 74
12
 42
0.0000001
 43
0.0000001
 44
0.0000000001
 12
-0.9991987932
 22
-0.0527767766
 32
0.0
 13
0.0467267407
 23
-0.9994999891
 33
0.0
 40
0.0
 40
0.0
 40
0.0
 40
0.0
 40
0.0062632833
 40
0.0211672268
 40
0.0452530131
 40
0.0784281168
 40
0.1203871825
 40
0.1707788069
 40
0.2948550065
 40
0.4459761262
 40
0.6183142732
 40
0.8054656601
 40
1.0
 40
1.0
 40
1.0
 40
1.0
 10
-134.7794054931
 20
5.2363694768
 30
0.0
 10
-134.7814915814
 20
5.2362592915
 30
0.0
 10
-134.784611728
 20
5.2276030724
 30
0.0
 10
-134.7870855609
 20
5.214460201
 30
0.0
 10
-134.7898192518
 20
5.189590743
 30
0.0
 10
-134.7918266519
 20
5.1569565643
 30
0.0
 10
-134.7934294588
 20
5.1149657203
 30
0.0
 10
-134.794860333
 20
5.0428620464
 30
0.0
 10
-134.7949290235
 20
4.9342162181
 30
0.0
 10
-134.7927899216
 20
4.7849797628
 30
0.0
 10
-134.788450899
 20
4.614721696
 30
0.0
 10
-134.7820102017
 20
4.430049682
 30
0.0
 10
-134.7765175582
 20
4.3028624439
 30
0.0
 10
-134.773487573
 20
4.2380500871
 30
0.0
 11
-134.7794054931
 21
5.2363694768
 31
0.0
 11
-134.783166186
 21
5.2313562605
 31
0.0
 11
-134.7864879916
 21
5.2168181707
 31
0.0
 11
-134.7892961269
 21
5.1928822954
 31
0.0
 11
-134.7915396151
 21
5.1597634648
 31
0.0
 11
-134.7932044018
 21
5.1178125946
 31
0.0
 11
-134.7942800232
 21
5.0674026311
 31
0.0
 11
-134.7946441308
 21
4.9432535578
 31
0.0
 11
-134.7926288286
 21
4.7920564602
 31
0.0
 11
-134.788318381
 21
4.6196702343
 31
0.0
 11
-134.7818422821
 21
4.4325201376
 31
0.0
 11
-134.773487573
 21
4.2380500871
 31
0.0
  0
SPLINE
  5
432
100
AcDbEntity
  8
RACCORDO
100
AcDbSpline
 62
253
  6
CONTINUOUS
 70
0
 71
3
 72
18
 73
14
 74
12
 42
0.0000001
 43
0.0000001
 44
0.0000000001
 12
-0.0467043061
 22
-0.9995012354
 32
0.0
 13
0.9991435978
 23
-0.0538152654
 33
0.0
 40
0.0
 40
0.0
 40
0.0
 40
0.0
 40
0.194534313
 40
0.3816854963
 40
0.5540235922
 40
0.7051448665
 40
0.8292208146
 40
0.8796125587
 40
0.9215719474
 40
0.9547468862
 40
0.9788313987
 40
0.9937343843
 40
1.0
 40
1.0
 40
1.0
 40
1.0
 10
-134.773487573
 20
-55.2380500871
 30
0.0
 10
-134.776516103
 20
-55.3028625158
 30
0.0
 10
-134.7820092079
 20
-55.4300496679
 30
0.0
 10
-134.7884529762
 20
-55.6147215225
 30
0.0
 10
-134.7927907357
 20
-55.7849796409
 30
0.0
 10
-134.794923316
 20
-55.9342161929
 30
0.0
 10
-134.7948573264
 20
-56.0428619172
 30
0.0
 10
-134.7934288787
 20
-56.1149658765
 30
0.0
 10
-134.7918268883
 20
-56.1569565201
 30
0.0
 10
-134.7898197963
 20
-56.1895912516
 30
0.0
 10
-134.7870869094
 20
-56.2144578499
 30
0.0
 10
-134.78461274
 20
-56.2276046625
 30
0.0
 10
-134.781492243
 20
-56.2362570815
 30
0.0
 10
-134.7794054931
 20
-56.2363694768
 30
0.0
 11
-134.773487573
 21
-55.2380500871
 31
0.0
 11
-134.7818417293
 21
-55.4325201728
 31
0.0
 11
-134.7883197575
 21
-55.619670036
 31
0.0
 11
-134.7926284779
 21
-55.7920562879
 31
0.0
 11
-134.7946399277
 21
-55.9432536214
 31
0.0
 11
-134.7942778876
 21
-56.0674024736
 31
0.0
 11
-134.7932037888
 21
-56.1178125993
 31
0.0
 11
-134.7915398147
 21
-56.1597638335
 31
0.0
 11
-134.7892968046
 21
-56.1928825377
 31
0.0
 11
-134.7864891991
 21
-56.2168171965
 31
0.0
 11
-134.7831675065
 21
-56.231354332
 31
0.0
 11
-134.7794054931
 21
-56.2363694768
 31
0.0
  0
LINE
  5
433
100
AcDbEntity
  8
RACCORDO
100
AcDbLine
 62
253
  6
CONTINUOUS
 10
-136.5084671002
 20
-51.2784219786
 11
-136.3862446434
 21
-51.016418739
  0
LINE
  5
434
100
AcDbEntity
  8
RACCORDO
100
AcDbLine
 62
253
  6
CONTINUOUS
 10
-136.3862446434
 20
-51.016418739
 11
-136.0193370044
 21
-50.2298937051
  0
SPLINE
  5
435
100
AcDbEntity
  8
RACCORDO
100
AcDbSpline
 62
253
  6
CONTINUOUS
 70
0
 71
3
 72
11
 73
7
 74
5
 42
0.0000001
 43
0.0000001
 44
0.0000000001
 12
-1.3558984369
 22
0.0710577362
 32
0.0
 13
-0.0427714075
 23
1.3570852515
 33
0.0
 40
0.0
 40
0.0
 40
0.0
 40
0.0
 40
0.2333846173
 40
0.4763845705
 40
0.732967303
 40
1.0
 40
1.0
 40
1.0
 40
1.0
 10
-84.6561311082
 20
4.1367817062
 30
0.0
 10
-84.7616130541
 20
4.1423096338
 30
0.0
 10
-84.9768766859
 20
4.2018561413
 30
0.0
 10
-85.2399017628
 20
4.417315385
 30
0.0
 10
-85.4150858747
 20
4.7246868619
 30
0.0
 10
-85.4599391009
 20
4.9622790339
 30
0.0
 10
-85.4637462223
 20
5.0830744121
 30
0.0
 11
-84.6561311082
 21
4.1367817062
 31
0.0
 11
-84.9618962083
 21
4.219972413
 31
0.0
 11
-85.2196226249
 21
4.425968677
 31
0.0
 11
-85.3947364988
 21
4.7271364733
 31
0.0
 11
-85.4637462223
 21
5.0830744121
 31
0.0
  0
LINE
  5
436
100
AcDbEntity
  8
RACCORDO
100
AcDbLine
 62
253
  6
CONTINUOUS
 10
-83.7084671002
 20
3.1381514895
 11
-100.7664198878
 21
3.9824559461
  0
LINE
  5
437
100
AcDbEntity
  8
RACCORDO
100
AcDbLine
 62
253
  6
CONTINUOUS
 10
-100.7664198878
 20
-54.9824559461
 11
-83.7084670999
 21
-54.1381514894
  0
SPLINE
  5
438
100
AcDbEntity
  8
RACCORDO
100
AcDbSpline
 62
253
  6
CONTINUOUS
 70
0
 71
3
 72
13
 73
9
 74
7
 42
0.0000001
 43
0.0000001
 44
0.0000000001
 12
2.5997280304
 22
-0.1475095892
 32
0.0
 13
0.3932890057
 23
-2.5740374257
 33
0.0
 40
0.0
 40
0.0
 40
0.0
 40
0.0
 40
0.1345853933
 40
0.2612802827
 40
0.3825554265
 40
0.500351502
 40
0.7323721825
 40
1.0
 40
1.0
 40
1.0
 40
1.0
 10
-85.463743091
 20
5.0830746027
 30
0.0
 10
-85.3471146179
 20
5.0764570574
 30
0.0
 10
-85.121331459
 20
5.0402320138
 30
0.0
 10
-84.8083302714
 20
4.9240253525
 30
0.0
 10
-84.533961434
 20
4.7610376589
 30
0.0
 10
-84.2210110883
 20
4.4953657956
 30
0.0
 10
-83.8999561495
 20
4.055777141
 30
0.0
 10
-83.7632811161
 20
3.6342847876
 30
0.0
 10
-83.72819609
 20
3.4046567815
 30
0.0
 11
-85.463743091
 21
5.0830746027
 31
0.0
 11
-85.1176988684
 21
5.0276911225
 31
0.0
 11
-84.8083018475
 21
4.9131973065
 31
0.0
 11
-84.5366308973
 21
4.752206916
 31
0.0
 11
-84.3026166807
 21
4.5539120877
 31
0.0
 11
-83.9450221593
 21
4.066945448
 31
0.0
 11
-83.72819609
 21
3.4046567815
 31
0.0
  0
LINE
  5
439
100
AcDbEntity
  8
RACCORDO
100
AcDbLine
 62
253
  6
CONTINUOUS
 10
-108.2203989575
 20
6.3731043167
 11
-85.463743091
 21
5.0830746027
  0
SPLINE
  5
43A
100
AcDbEntity
  8
RACCORDO
100
AcDbSpline
 62
253
  6
CONTINUOUS
 70
0
 71
3
 72
18
 73
14
 74
12
 42
0.0000001
 43
0.0000001
 44
0.0000000001
 12
0.0523041511
 22
-1.0007637868
 32
0.0
 13
-1.0007562889
 23
-0.0524474147
 33
0.0
 40
0.0
 40
0.0
 40
0.0
 40
0.0
 40
0.1941267932
 40
0.3811005601
 40
0.5531822761
 40
0.7040377855
 40
0.8280211454
 40
0.8783743145
 40
0.9203653278
 40
0.9536023122
 40
0.9778075645
 40
0.9929972583
 40
1.0
 40
1.0
 40
1.0
 40
1.0
 10
-100.7664198878
 20
-54.9824559461
 30
0.0
 10
-100.7630353421
 20
-55.047214301
 30
0.0
 10
-100.7570364507
 20
-55.1743798855
 30
0.0
 10
-100.7502484875
 20
-55.359044129
 30
0.0
 10
-100.7459932269
 20
-55.5293323371
 30
0.0
 10
-100.7444153856
 20
-55.6786082061
 30
0.0
 10
-100.7453318045
 20
-55.7872737175
 30
0.0
 10
-100.7477036699
 20
-55.8594572382
 30
0.0
 10
-100.7500779664
 20
-55.9014420676
 30
0.0
 10
-100.7528254205
 20
-55.9342882496
 30
0.0
 10
-100.7565955032
 20
-55.9589127201
 30
0.0
 10
-100.7596388349
 20
-55.9728920877
 30
0.0
 10
-100.7640838752
 20
-55.9809630557
 30
0.0
 10
-100.7664198878
 20
-55.9810854809
 30
0.0
 11
-100.7664198878
 21
-54.9824559461
 31
0.0
 11
-100.757267008
 21
-55.1767807307
 31
0.0
 11
-100.7504479689
 21
-55.3640285666
 31
0.0
 11
-100.7462575754
 21
-55.5364258407
 31
0.0
 11
-100.7448461917
 21
-55.6875960345
 31
0.0
 11
-100.7462575755
 21
-55.8118354219
 31
0.0
 11
-100.74801342
 21
-55.8622652689
 31
0.0
 11
-100.750447969
 21
-55.9042752253
 31
0.0
 11
-100.7535418313
 21
-55.9374389924
 31
0.0
 11
-100.757267008
 21
-55.961408045
 31
0.0
 11
-100.7615762945
 21
-55.9760073818
 31
0.0
 11
-100.7664198878
 21
-55.9810854809
 31
0.0
  0
SPLINE
  5
43B
100
AcDbEntity
  8
RACCORDO
100
AcDbSpline
 62
253
  6
CONTINUOUS
 70
0
 71
3
 72
18
 73
14
 74
12
 42
0.0000001
 43
0.0000001
 44
0.0000000001
 12
0.0523041503
 22
1.0007637867
 32
0.0
 13
-1.0007562888
 23
0.0524474147
 33
0.0
 40
0.0
 40
0.0
 40
0.0
 40
0.0
 40
0.1941267927
 40
0.3811005584
 40
0.553182274
 40
0.7040377836
 40
0.8280211439
 40
0.8783743133
 40
0.920365327
 40
0.9536023117
 40
0.9778075643
 40
0.9929972582
 40
1.0
 40
1.0
 40
1.0
 40
1.0
 10
-100.7664198878
 20
3.9824559461
 30
0.0
 10
-100.7630353421
 20
4.0472143009
 30
0.0
 10
-100.7570364508
 20
4.1743798847
 30
0.0
 10
-100.7502484878
 20
4.3590441275
 30
0.0
 10
-100.7459932273
 20
4.5293323352
 30
0.0
 10
-100.744415386
 20
4.6786082042
 30
0.0
 10
-100.7453318048
 20
4.7872737158
 30
0.0
 10
-100.7477036702
 20
4.859457237
 30
0.0
 10
-100.7500779666
 20
4.9014420667
 30
0.0
 10
-100.7528254207
 20
4.934288249
 30
0.0
 10
-100.7565955033
 20
4.9589127198
 30
0.0
 10
-100.759638835
 20
4.9728920874
 30
0.0
 10
-100.7640838752
 20
4.9809630556
 30
0.0
 10
-100.7664198878
 20
4.9810854809
 30
0.0
 11
-100.7664198878
 21
3.9824559461
 31
0.0
 11
-100.7572670081
 21
4.1767807302
 31
0.0
 11
-100.7504479692
 21
4.3640285649
 31
0.0
 11
-100.7462575758
 21
4.5364258385
 31
0.0
 11
-100.744846192
 21
4.6875960325
 31
0.0
 11
-100.7462575758
 21
4.8118354203
 31
0.0
 11
-100.7480134202
 21
4.8622652676
 31
0.0
 11
-100.7504479692
 21
4.9042752244
 31
0.0
 11
-100.7535418315
 21
4.9374389918
 31
0.0
 11
-100.7572670081
 21
4.9614080446
 31
0.0
 11
-100.7615762946
 21
4.9760073817
 31
0.0
 11
-100.7664198878
 21
4.9810854809
 31
0.0
  0
ELLIPSE
  5
43C
100
AcDbEntity
  8
RACCORDO
100
AcDbEllipse
 62
7
  6
CONTINUOUS
 10
30.498627654
 20
-55.998627654
 30
0.0
 11
0.7090462434
 21
-0.7090462434
 31
0.0
 40
0.9972646886
 41
-0.7840286355
 42
0.7840286355
  0
ELLIPSE
  5
43D
100
AcDbEntity
  8
RACCORDO
100
AcDbEllipse
 62
7
  6
CONTINUOUS
 10
-30.498627654
 20
4.998627654
 30
0.0
 11
-0.7090462434
 21
0.7090462434
 31
0.0
 40
0.9972646886
 41
-0.7840286355
 42
-0.5427757608
  0
ELLIPSE
  5
43E
100
AcDbEntity
  8
RACCORDO
100
AcDbEllipse
 62
7
  6
CONTINUOUS
 10
-30.498627654
 20
-55.998627654
 30
0.0
 11
0.7090462434
 21
0.7090462434
 31
0.0
 40
0.9972646886
 41
-3.9256212891
 42
-2.3575640181
  0
ELLIPSE
  5
43F
100
AcDbEntity
  8
RACCORDO
100
AcDbEllipse
 62
7
  6
CONTINUOUS
 10
-22.1999695344
 20
-47.4999695344
 30
0.0
 11
0.1414644378
 21
0.1414644378
 31
0.0
 40
0.9996954599
 41
2.3563467834
 42
3.9268385237
  0
ELLIPSE
  5
440
100
AcDbEntity
  8
RACCORDO
100
AcDbEllipse
 62
7
  6
CONTINUOUS
 10
-22.1999695344
 20
-3.5000304656
 30
0.0
 11
0.1414644378
 21
-0.1414644378
 31
0.0
 40
0.9996954599
 41
2.3563467834
 42
3.9268385237
  0
ELLIPSE
  5
441
100
AcDbEntity
  8
RACCORDO
100
AcDbEllipse
 62
7
  6
CONTINUOUS
 10
22.1999695344
 20
-3.5000304656
 30
0.0
 11
-0.1414644378
 21
-0.1414644378
 31
0.0
 40
0.9996954599
 41
2.3563467834
 42
3.9268385237
  0
ELLIPSE
  5
442
100
AcDbEntity
  8
RACCORDO
100
AcDbEllipse
 62
7
  6
CONTINUOUS
 10
22.1999695344
 20
-47.4999695344
 30
0.0
 11
0.1414644378
 21
-0.1414644378
 31
0.0
 40
0.9996954599
 41
-0.7852458701
 42
0.7852458701
  0
ELLIPSE
  5
443
100
AcDbEntity
  8
RACCORDO
100
AcDbEllipse
 62
7
  6
CONTINUOUS
 10
30.498627654
 20
4.998627654
 30
0.0
 11
0.7090462434
 21
0.7090462434
 31
0.0
 40
0.9972646886
 41
5.4991566717
 42
7.0672139427
  0
ELLIPSE
  5
444
100
AcDbEntity
  8
RACCORDO
100
AcDbEllipse
 62
7
  6
CONTINUOUS
 10
30.498627654
 20
-55.998627654
 30
0.0
 11
-0.7090462434
 21
0.7090462434
 31
0.0
 40
0.9972646886
 41
8.6407493252
 42
10.2088065963
  0
ELLIPSE
  5
445
100
AcDbEntity
  8
RACCORDO
100
AcDbEllipse
 62
7
  6
CONTINUOUS
 10
-30.498627654
 20
-55.998627654
 30
0.0
 11
-0.7090462434
 21
-0.7090462434
 31
0.0
 40
0.9972646886
 41
5.4991566717
 42
7.0672139427
  0
ELLIPSE
  5
446
100
AcDbEntity
  8
RACCORDO
100
AcDbEllipse
 62
7
  6
CONTINUOUS
 10
-30.498627654
 20
4.998627654
 30
0.0
 11
0.7090462434
 21
-0.7090462434
 31
0.0
 40
0.9972646886
 41
8.6407493252
 42
10.2088065963
  0
ELLIPSE
  5
447
100
AcDbEntity
  8
RACCORDO
100
AcDbEllipse
 62
7
  6
CONTINUOUS
 10
12.5057538553
 20
-4.1598564082
 30
0.0
 11
16.5032316888
 21
0.0
 31
0.0
 40
0.0087268678
 41
-1.071080115
 42
-0.9277834788
  0
ELLIPSE
  5
448
100
AcDbEntity
  8
RACCORDO
100
AcDbEllipse
 62
7
  6
CONTINUOUS
 10
-12.5057538553
 20
-4.1598564082
 30
0.0
 11
16.5032316888
 21
0.0
 31
0.0
 40
0.0087268678
 41
-2.2138094022
 42
-2.0705125386
  0
ENDSEC
  0
SECTION
  2
OBJECTS
  0
DICTIONARY
  5
C
100
AcDbDictionary
280
0
281
1
  3
ACAD_GROUP
350
D
  3
ACAD_MLINESTYLE
350
17
  3
ACAD_LAYOUT
350
1A
  3
ACAD_PLOTSETTINGS
350
19
  3
ACAD_PLOTSTYLENAME
350
E
  0
DICTIONARY
  5
D
102
{ACAD_REACTORS
330
C
102
}
100
AcDbDictionary
280
0
281
1
  0
ACDBDICTIONARYWDFLT
  5
E
102
{ACAD_REACTORS
330
C
102
}
100
AcDbDictionary
281
1
  3
Normal
350
F
100
AcDbDictionaryWithDefault
340
F
  0
DICTIONARY
  5
17
102
{ACAD_REACTORS
330
C
102
}
100
AcDbDictionary
280
0
281
1
  3
Standard
350
18
  0
DICTIONARY
  5
19
102
{ACAD_REACTORS
330
C
102
}
100
AcDbDictionary
281
1
  0
DICTIONARY
  5
1A
102
{ACAD_REACTORS
330
C
102
}
100
AcDbDictionary
281
1
  3
Model
350
449
  3
Layout1
350
44A
  0
ACDBPLACEHOLDER
  5
F
102
{ACAD_REACTORS
330
E
102
}
  0
MLINESTYLE
  5
18
102
{ACAD_REACTORS
330
17
102
}
100
AcDbMlineStyle
  2
STANDARD
 70
0
  3

 62
256
 51
90.0
 52
90.0
 71
2
 49
0.5
 62
256
  6
BYLAYER
 49
-0.5
 62
256
  6
BYLAYER
  0
LAYOUT
  5
449
102
{ACAD_REACTORS
330
1A
102
}
100
AcDbPlotSettings
  1

  2
none_device
  4
ISO_A4_(297.00_x_210.00_MM)
  6

 40
0.0
 41
0.0
 42
0.0
 43
0.0
 44
297.0
 45
210.0
 46
0.0
 47
0.0
 48
0.0
 49
0.0
140
0.0
141
0.0
142
1.0
143
1.0
 70
1024
 72
1
 73
0
 74
0
  7

 75
0
147
1.0
148
0.0
149
0.0
100
AcDbLayout
  1
Model
 70
0
 71
0
 10
0.0
 20
0.0
 11
297.0
 21
210.0
 12
0.0
 22
0.0
 32
0.0
 14
0.0
 24
0.0
 34
0.0
 15
0.0
 25
0.0
 35
0.0
146
0.0
 13
0.0
 23
0.0
 33
0.0
 16
1.0
 26
0.0
 36
0.0
 17
0.0
 27
1.0
 37
0.0
 76
0
330
217
345
0
346
0
  0
LAYOUT
  5
44A
102
{ACAD_REACTORS
330
1A
102
}
100
AcDbPlotSettings
  1

  2
none_device
  4
ISO_A4_(297.00_x_210.00_MM)
  6

 40
0.0
 41
0.0
 42
0.0
 43
0.0
 44
297.0
 45
210.0
 46
0.0
 47
0.0
 48
0.0
 49
0.0
140
0.0
141
0.0
142
1.0
143
1.0
 70
0
 72
1
 73
0
 74
0
  7

 75
0
147
1.0
148
0.0
149
0.0
100
AcDbLayout
  1
Layout1
 70
0
 71
1
 10
0.0
 20
0.0
 11
297.0
 21
210.0
 12
0.0
 22
0.0
 32
0.0
 14
0.0
 24
0.0
 34
0.0
 15
0.0
 25
0.0
 35
0.0
146
0.0
 13
0.0
 23
0.0
 33
0.0
 16
1.0
 26
0.0
 36
0.0
 17
0.0
 27
1.0
 37
0.0
 76
0
330
218
345
0
346
0
  0
ENDSEC
  0
EOF
