  0
SECTION
  2
HEADER
  9
$ACADVER
  1
AC1015
  9
$DWGCODEPAGE
  3
ANSI_1252
  9
$EXTMAX
 10
558.8
 20
431.8
 30
0.0
  9
$EXTMIN
 10
0.0
 20
0.0
 30
0.0
  9
$LIMMIN
 10
0.0
 20
0.0
  9
$LIMMAX
 10
558.8
 20
431.8
  9
$VIEWCTR
 10
279.4
 20
215.9
  9
$VIEWSIZE
 40
431.8
  9
$CLAYER
  8
0
  9
$LTSCALE
 40
30.734
  9
$CELTYPE
  6
BYLAYER
  9
$DIMSCALE
 40
1.0
  9
$DIMASZ
 40
3.0
  9
$DIMEXO
 40
3.4925
  9
$DIMDLI
 40
21.2344
  9
$DIMEXE
 40
10.0584
  9
$DIMCEN
 40
5.0292
  9
$DIMLFAC
 40
1.0
  9
$DIMBLK
  1
_FILLED
  9
$DIMTXT
 40
3.0
  9
$DIMTOL
 70
1
  9
$DIMLIM
 70
0
  9
$DIMTFAC
 40
1.0
  9
$DIMTP
 40
0.01
  9
$DIMTM
 40
0.01
  9
$PDMODE
 70
3
  9
$PDSIZE
 40
3.0
  9
$HANDSEED
  5
33D
  9
$TILEMODE
 70
1
  9
$MEASUREMENT
 70
1
  9
$INSUNITS
 70
4
  0
ENDSEC
  0
SECTION
  2
CLASSES
  0
CLASS
  1
ACDBDICTIONARYWDFLT
  2
AcDbDictionaryWithDefault
  3
AutoCAD 2000
 90
0
280
0
281
0
  0
CLASS
  1
ACDBPLACEHOLDER
  2
AcDbPlaceHolder
  3
AutoCAD 2000
 90
0
280
0
281
0
  0
CLASS
  1
LAYOUT
  2
AcDbLayout
  3
AutoCAD 2000
 90
0
280
0
281
0
  0
ENDSEC
  0
SECTION
  2
TABLES
  0
TABLE
  2
VPORT
  5
8
100
AcDbSymbolTable
 70
2
  0
VPORT
  5
1F4
100
AcDbSymbolTableRecord
100
AcDbViewportTableRecord
  2
*ACTIVE
 70
0
 10
0.0
 20
0.0
 11
1.0
 21
1.0
 12
279.4
 22
215.9
 13
0.0
 23
0.0
 14
1.0
 24
1.0
 15
0.0
 25
0.0
 16
0.0
 26
0.0
 36
1.0
 17
0.0
 27
0.0
 37
0.0
 40
431.8
 41
1.2941176471
 42
50.0
 43
0.0
 44
0.0
 50
0.0
 51
0.0
 71
0
 72
100
 73
1
 74
1
 75
0
 76
0
 77
0
 78
0
  0
ENDTAB
  0
TABLE
  2
LTYPE
  5
5
100
AcDbSymbolTable
 70
6
  0
LTYPE
  5
14
100
AcDbSymbolTableRecord
100
AcDbLinetypeTableRecord
  2
BYBLOCK
 70
0
  3

 72
65
 73
0
 40
0.0
  0
LTYPE
  5
15
100
AcDbSymbolTableRecord
100
AcDbLinetypeTableRecord
  2
BYLAYER
 70
0
  3

 72
65
 73
0
 40
0.0
  0
LTYPE
  5
16
100
AcDbSymbolTableRecord
100
AcDbLinetypeTableRecord
  2
CONTINUOUS
 70
64
  3
Solid line
 72
65
 73
0
 40
0.0
  0
LTYPE
  5
1F5
100
AcDbSymbolTableRecord
100
AcDbLinetypeTableRecord
  2
CENTER
 70
64
  3
____ _ ____ _ ____ _ ____ _ ____ _ ____ _ ____
 72
65
 73
4
 40
0.6
 49
0.375
 74
0
 49
-0.075
 74
0
 49
0.075
 74
0
 49
-0.075
 74
0
  0
LTYPE
  5
1F6
100
AcDbSymbolTableRecord
100
AcDbLinetypeTableRecord
  2
HIDDEN
 70
64
  3
- - - - - - - - - - - - - - - - - - - -
 72
65
 73
2
 40
0.2
 49
0.1
 74
0
 49
-0.1
 74
0
  0
LTYPE
  5
1F7
100
AcDbSymbolTableRecord
100
AcDbLinetypeTableRecord
  2
PHANTOM
 70
64
  3
_____ _ _ _____ _ _ _____ _ _ _____
 72
65
 73
6
 40
0.8
 49
0.45
 74
0
 49
-0.05
 74
0
 49
0.1
 74
0
 49
-0.05
 74
0
 49
0.1
 74
0
 49
-0.05
 74
0
  0
LTYPE
  5
1F8
100
AcDbSymbolTableRecord
100
AcDbLinetypeTableRecord
  2
DOT
 70
64
  3
. . . . . . . . . . . . . . . . . . . .
 72
65
 73
2
 40
0.2
 49
0.1
 74
0
 49
-0.1
 74
0
  0
LTYPE
  5
1F9
100
AcDbSymbolTableRecord
100
AcDbLinetypeTableRecord
  2
DASHED
 70
64
  3
- - - - - - - - - - - - - - - - - - - -
 72
65
 73
2
 40
0.2
 49
0.1
 74
0
 49
-0.1
 74
0
  0
ENDTAB
  0
TABLE
  2
LAYER
  5
2
100
AcDbSymbolTable
 70
36
  0
LAYER
  5
10
100
AcDbSymbolTableRecord
100
AcDbLayerTableRecord
  2
0
 70
0
 62
7
  6
CONTINUOUS
370
-3
390
F
  0
LAYER
  5
1FA
100
AcDbSymbolTableRecord
100
AcDbLayerTableRecord
  2
DEFAULT_1
 70
0
 62
7
  6
CENTER
370
-3
390
F
  0
LAYER
  5
1FB
100
AcDbSymbolTableRecord
100
AcDbLayerTableRecord
  2
DEFAULT_2
 70
0
 62
7
  6
HIDDEN
370
-3
390
F
  0
LAYER
  5
1FC
100
AcDbSymbolTableRecord
100
AcDbLayerTableRecord
  2
DEFAULT_3
 70
0
 62
7
  6
PHANTOM
370
-3
390
F
  0
LAYER
  5
1FD
100
AcDbSymbolTableRecord
100
AcDbLayerTableRecord
  2
ASSI
 70
0
 62
7
  6
CONTINUOUS
370
-3
390
F
  0
LAYER
  5
1FE
100
AcDbSymbolTableRecord
100
AcDbLayerTableRecord
  2
COORDINATE
 70
0
 62
7
  6
CONTINUOUS
370
-3
390
F
  0
LAYER
  5
1FF
100
AcDbSymbolTableRecord
100
AcDbLayerTableRecord
  2
COORD_ORIGINE
 70
0
 62
7
  6
CONTINUOUS
370
-3
390
F
  0
LAYER
  5
200
100
AcDbSymbolTableRecord
100
AcDbLayerTableRecord
  2
CURVE
 70
0
 62
7
  6
CONTINUOUS
370
-3
390
F
  0
LAYER
  5
201
100
AcDbSymbolTableRecord
100
AcDbLayerTableRecord
  2
DRAFT
 70
0
 62
7
  6
CONTINUOUS
370
-3
390
F
  0
LAYER
  5
202
100
AcDbSymbolTableRecord
100
AcDbLayerTableRecord
  2
PIANI
 70
0
 62
7
  6
CONTINUOUS
370
-3
390
F
  0
LAYER
  5
203
100
AcDbSymbolTableRecord
100
AcDbLayerTableRecord
  2
PIANI_ORIGINE
 70
0
 62
7
  6
CONTINUOUS
370
-3
390
F
  0
LAYER
  5
204
100
AcDbSymbolTableRecord
100
AcDbLayerTableRecord
  2
PUNTI
 70
0
 62
7
  6
CONTINUOUS
370
-3
390
F
  0
LAYER
  5
205
100
AcDbSymbolTableRecord
100
AcDbLayerTableRecord
  2
RACCORDO
 70
0
 62
7
  6
CONTINUOUS
370
-3
390
F
  0
LAYER
  5
206
100
AcDbSymbolTableRecord
100
AcDbLayerTableRecord
  2
SNAPLINE
 70
0
 62
7
  6
CONTINUOUS
370
-3
390
F
  0
LAYER
  5
207
100
AcDbSymbolTableRecord
100
AcDbLayerTableRecord
  2
SUPERFICI
 70
0
 62
7
  6
CONTINUOUS
370
-3
390
F
  0
LAYER
  5
208
100
AcDbSymbolTableRecord
100
AcDbLayerTableRecord
  2
TRASH
 70
0
 62
7
  6
CONTINUOUS
370
-3
390
F
  0
ENDTAB
  0
TABLE
  2
STYLE
  5
3
100
AcDbSymbolTable
 70
1
  0
STYLE
  5
11
100
AcDbSymbolTableRecord
100
AcDbTextStyleTableRecord
  2
STANDARD
 70
0
 40
0.0
 41
0.8
 50
0.0
 71
0
 42
0.2
  3
txt
  4

  0
STYLE
  5
209
100
AcDbSymbolTableRecord
100
AcDbTextStyleTableRecord
  2
TEXTSTYLE_1
 70
0
 40
0.0
 41
0.8
 50
0.0
 71
0
 42
0.2
  3
gdt
  4

  0
ENDTAB
  0
TABLE
  2
VIEW
  5
6
100
AcDbSymbolTable
 70
0
  0
ENDTAB
  0
TABLE
  2
UCS
  5
7
100
AcDbSymbolTable
 70
0
  0
ENDTAB
  0
TABLE
  2
APPID
  5
9
100
AcDbSymbolTable
 70
1
  0
APPID
  5
20A
100
AcDbSymbolTableRecord
100
AcDbRegAppTableRecord
  2
ACAD
 70
0
  0
ENDTAB
  0
TABLE
  2
BLOCK_RECORD
  5
1
100
AcDbSymbolTable
 70
0
  0
BLOCK_RECORD
  5
20B
100
AcDbSymbolTableRecord
100
AcDbBlockTableRecord
  2
*Model_Space
  0
BLOCK_RECORD
  5
20C
100
AcDbSymbolTableRecord
100
AcDbBlockTableRecord
  2
*Paper_Space
  0
BLOCK_RECORD
  5
20D
100
AcDbSymbolTableRecord
100
AcDbBlockTableRecord
  2
_FILLED
  0
BLOCK_RECORD
  5
20E
100
AcDbSymbolTableRecord
100
AcDbBlockTableRecord
  2
*D0
  0
BLOCK_RECORD
  5
20F
100
AcDbSymbolTableRecord
100
AcDbBlockTableRecord
  2
*D1
  0
BLOCK_RECORD
  5
210
100
AcDbSymbolTableRecord
100
AcDbBlockTableRecord
  2
*D2
  0
BLOCK_RECORD
  5
211
100
AcDbSymbolTableRecord
100
AcDbBlockTableRecord
  2
*D3
  0
ENDTAB
  0
TABLE
  2
DIMSTYLE
  5
A
100
AcDbSymbolTable
 70
1
100
AcDbDimStyleTable
 71
0
  0
DIMSTYLE
105
212
100
AcDbSymbolTableRecord
100
AcDbDimStyleTableRecord
  2
STANDARD
 70
0
  3

  4

 40
1.0
 41
3.0
 42
0.0625
 43
0.38
 44
0.18
 45
0.0
 46
0.0
 47
0.01
 48
0.01
140
3.0
141
0.09
142
0.0
143
25.4
144
1.0
145
0.0
146
1.0
147
0.09
 71
1.0
 72
0.0
 73
0
 74
0
 75
0
 76
0
 77
1
 78
8
170
0
171
2
172
0
173
0
174
0
175
0
176
0
177
0
178
0
270
2
271
2
272
2
273
2
274
2
275
0
280
0
281
0
282
0
283
1
284
8
285
0
286
0
287
3
288
0
340
11
341
20D
342
20D
343
20D
344
20D
  0
DIMSTYLE
105
213
100
AcDbSymbolTableRecord
100
AcDbDimStyleTableRecord
  2
DIMSTYLE_1
 70
0
  3

  4

 40
1.0
 41
3.0
 42
0.0625
 43
0.38
 44
0.18
 45
0.0
 46
0.0
 47
0.0
 48
0.0
140
3.0
141
0.09
142
0.0
143
25.4
144
1.0
145
0.0
146
1.0
147
0.09
 71
0.0
 72
0.0
 73
0
 74
0
 75
0
 76
0
 77
1
 78
8
170
0
171
2
172
0
173
0
174
0
175
0
176
0
177
0
178
0
270
2
271
2
272
2
273
2
274
2
275
0
280
0
281
0
282
0
283
1
284
8
285
0
286
0
287
3
288
0
340
11
341
20D
342
20D
343
20D
344
20D
  0
ENDTAB
  0
ENDSEC
  0
SECTION
  2
BLOCKS
  0
BLOCK
  5
20
100
AcDbEntity
  8
0
100
AcDbBlockBegin
  2
*Model_Space
 70
0
 10
0.0
 20
0.0
 30
0.0
  3
*Model_Space
  1

  0
ENDBLK
  5
21
100
AcDbEntity
  8
0
100
AcDbBlockEnd
  0
BLOCK
  5
1C
100
AcDbEntity
  8
0
100
AcDbBlockBegin
  2
*Paper_Space
 70
0
 10
0.0
 20
0.0
 30
0.0
  3
*Paper_Space
  1

  0
ENDBLK
  5
1D
100
AcDbEntity
  8
0
100
AcDbBlockEnd
  0
BLOCK
  5
214
100
AcDbEntity
  8
0
100
AcDbBlockBegin
  2
_FILLED
 70
64
 10
0.0
 20
0.0
  3
_FILLED
  1

  0
SOLID
  5
215
100
AcDbEntity
  8
0
  6
BYBLOCK
 62
0
100
AcDbTrace
 10
0.0
 20
0.0
 11
-1.0
 21
0.3166666667
 12
-1.0
 22
-0.3166666667
 13
-1.0
 23
-0.3166666667
  0
ENDBLK
  5
216
100
AcDbEntity
  8
0
  6
BYBLOCK
 62
0
100
AcDbBlockEnd
  0
BLOCK
  5
217
100
AcDbEntity
  8
0
100
AcDbBlockBegin
 62
7
  6
CONTINUOUS
  2
*D0
 70
65
 10
0.0
 20
0.0
  3
*D0
  1

  0
MTEXT
  5
218
100
AcDbEntity
  8
0
100
AcDbMText
 62
7
  6
CONTINUOUS
  7
STANDARD
 71
2
 72
1
 10
-0.7260914761
 20
51.327962578
 30
0.0
 11
1.0
 21
0.0
 31
0.0
 44
0.9
  1
8,3
 40
3.0
 41
6.2142857143
  0
LINE
  5
219
100
AcDbEntity
  8
0
100
AcDbLine
 62
7
  6
CONTINUOUS
 10
-4.8760914761
 20
35.077962578
 11
-4.8760914761
 21
49.077962578
  0
LINE
  5
21A
100
AcDbEntity
  8
0
100
AcDbLine
 62
7
  6
CONTINUOUS
 10
3.4239085239
 20
35.077962578
 11
3.4239085239
 21
49.077962578
  0
LINE
  5
21B
100
AcDbEntity
  8
0
100
AcDbLine
 62
7
  6
CONTINUOUS
 10
-4.8760914761
 20
47.577962578
 11
-8.8760914761
 21
47.577962578
  0
LINE
  5
21C
100
AcDbEntity
  8
0
100
AcDbLine
 62
7
  6
CONTINUOUS
 10
-8.8760914761
 20
47.577962578
 11
-0.7260914761
 21
47.577962578
  0
LINE
  5
21D
100
AcDbEntity
  8
0
100
AcDbLine
 62
7
  6
CONTINUOUS
 10
3.4239085239
 20
47.577962578
 11
7.4239085239
 21
47.577962578
  0
LINE
  5
21E
100
AcDbEntity
  8
0
100
AcDbLine
 62
7
  6
CONTINUOUS
 10
7.4239085239
 20
47.577962578
 11
-0.7260914761
 21
47.577962578
  0
INSERT
  5
21F
100
AcDbEntity
  8
0
100
AcDbBlockReference
 62
7
  6
CONTINUOUS
  2
_FILLED
 10
-4.8760914761
 20
47.577962578
 41
3.0
 42
3.0
 43
3.0
  0
INSERT
  5
220
100
AcDbEntity
  8
0
100
AcDbBlockReference
 62
7
  6
CONTINUOUS
  2
_FILLED
 10
3.4239085239
 20
47.577962578
 41
3.0
 42
3.0
 43
3.0
 50
180.0
  0
ENDBLK
  5
221
100
AcDbEntity
  8
0
  6
BYBLOCK
 62
0
100
AcDbBlockEnd
  0
BLOCK
  5
222
100
AcDbEntity
  8
0
100
AcDbBlockBegin
 62
7
  6
CONTINUOUS
  2
*D1
 70
65
 10
0.0
 20
0.0
  3
*D1
  1

  0
MTEXT
  5
223
100
AcDbEntity
  8
0
100
AcDbMText
 62
7
  6
CONTINUOUS
  7
STANDARD
 71
2
 72
1
 10
7.6739085239
 20
27.577962578
 30
0.0
 11
0.0
 21
1.0
 31
0.0
 44
0.9
  1
24
 40
3.0
 41
4.7142857143
  0
LINE
  5
224
100
AcDbEntity
  8
0
100
AcDbLine
 62
7
  6
CONTINUOUS
 10
-0.2260914761
 20
39.577962578
 11
12.9239085239
 21
39.577962578
  0
LINE
  5
225
100
AcDbEntity
  8
0
100
AcDbLine
 62
7
  6
CONTINUOUS
 10
1.6239085239
 20
15.577962578
 11
12.9239085239
 21
15.577962578
  0
LINE
  5
226
100
AcDbEntity
  8
0
100
AcDbLine
 62
7
  6
CONTINUOUS
 10
11.4239085239
 20
39.577962578
 11
11.4239085239
 21
27.577962578
  0
LINE
  5
227
100
AcDbEntity
  8
0
100
AcDbLine
 62
7
  6
CONTINUOUS
 10
11.4239085239
 20
15.577962578
 11
11.4239085239
 21
27.577962578
  0
INSERT
  5
228
100
AcDbEntity
  8
0
100
AcDbBlockReference
 62
7
  6
CONTINUOUS
  2
_FILLED
 10
11.4239085239
 20
39.577962578
 41
3.0
 42
3.0
 43
3.0
 50
90.0
  0
INSERT
  5
229
100
AcDbEntity
  8
0
100
AcDbBlockReference
 62
7
  6
CONTINUOUS
  2
_FILLED
 10
11.4239085239
 20
15.577962578
 41
3.0
 42
3.0
 43
3.0
 50
270.0
  0
ENDBLK
  5
22A
100
AcDbEntity
  8
0
  6
BYBLOCK
 62
0
100
AcDbBlockEnd
  0
BLOCK
  5
22B
100
AcDbEntity
  8
0
100
AcDbBlockBegin
 62
7
  6
CONTINUOUS
  2
*D2
 70
65
 10
0.0
 20
0.0
  3
*D2
  1

  0
MTEXT
  5
22C
100
AcDbEntity
  8
0
100
AcDbMText
 62
7
  6
CONTINUOUS
  7
STANDARD
 71
2
 72
1
 10
-27.1450169647
 20
51.327962578
 30
0.0
 11
1.0
 21
0.0
 31
0.0
 44
0.9
  1
8,3
 40
3.0
 41
6.2142857143
  0
LINE
  5
22D
100
AcDbEntity
  8
0
100
AcDbLine
 62
7
  6
CONTINUOUS
 10
-31.2950169647
 20
35.077962578
 11
-31.2950169647
 21
49.077962578
  0
LINE
  5
22E
100
AcDbEntity
  8
0
100
AcDbLine
 62
7
  6
CONTINUOUS
 10
-22.9950169647
 20
35.077962578
 11
-22.9950169647
 21
49.077962578
  0
LINE
  5
22F
100
AcDbEntity
  8
0
100
AcDbLine
 62
7
  6
CONTINUOUS
 10
-31.2950169647
 20
47.577962578
 11
-35.2950169647
 21
47.577962578
  0
LINE
  5
230
100
AcDbEntity
  8
0
100
AcDbLine
 62
7
  6
CONTINUOUS
 10
-35.2950169647
 20
47.577962578
 11
-27.1450169647
 21
47.577962578
  0
LINE
  5
231
100
AcDbEntity
  8
0
100
AcDbLine
 62
7
  6
CONTINUOUS
 10
-22.9950169647
 20
47.577962578
 11
-18.9950169647
 21
47.577962578
  0
LINE
  5
232
100
AcDbEntity
  8
0
100
AcDbLine
 62
7
  6
CONTINUOUS
 10
-18.9950169647
 20
47.577962578
 11
-27.1450169647
 21
47.577962578
  0
INSERT
  5
233
100
AcDbEntity
  8
0
100
AcDbBlockReference
 62
7
  6
CONTINUOUS
  2
_FILLED
 10
-31.2950169647
 20
47.577962578
 41
3.0
 42
3.0
 43
3.0
  0
INSERT
  5
234
100
AcDbEntity
  8
0
100
AcDbBlockReference
 62
7
  6
CONTINUOUS
  2
_FILLED
 10
-22.9950169647
 20
47.577962578
 41
3.0
 42
3.0
 43
3.0
 50
180.0
  0
ENDBLK
  5
235
100
AcDbEntity
  8
0
  6
BYBLOCK
 62
0
100
AcDbBlockEnd
  0
BLOCK
  5
236
100
AcDbEntity
  8
0
100
AcDbBlockBegin
 62
7
  6
CONTINUOUS
  2
*D3
 70
65
 10
0.0
 20
0.0
  3
*D3
  1

  0
MTEXT
  5
237
100
AcDbEntity
  8
0
100
AcDbMText
 62
7
  6
CONTINUOUS
  7
STANDARD
 71
2
 72
1
 10
17.6739085239
 20
-47.922037422
 30
0.0
 11
0.0
 21
1.0
 31
0.0
 44
0.9
  1
175
 40
3.0
 41
6.2142857143
  0
LINE
  5
238
100
AcDbEntity
  8
0
100
AcDbLine
 62
7
  6
CONTINUOUS
 10
-0.2260914761
 20
39.577962578
 11
22.9239085239
 21
39.577962578
  0
LINE
  5
239
100
AcDbEntity
  8
0
100
AcDbLine
 62
7
  6
CONTINUOUS
 10
1.6239085239
 20
-135.422037422
 11
22.9239085239
 21
-135.422037422
  0
LINE
  5
23A
100
AcDbEntity
  8
0
100
AcDbLine
 62
7
  6
CONTINUOUS
 10
21.4239085239
 20
39.577962578
 11
21.4239085239
 21
-47.922037422
  0
LINE
  5
23B
100
AcDbEntity
  8
0
100
AcDbLine
 62
7
  6
CONTINUOUS
 10
21.4239085239
 20
-135.422037422
 11
21.4239085239
 21
-47.922037422
  0
INSERT
  5
23C
100
AcDbEntity
  8
0
100
AcDbBlockReference
 62
7
  6
CONTINUOUS
  2
_FILLED
 10
21.4239085239
 20
39.577962578
 41
3.0
 42
3.0
 43
3.0
 50
90.0
  0
INSERT
  5
23D
100
AcDbEntity
  8
0
100
AcDbBlockReference
 62
7
  6
CONTINUOUS
  2
_FILLED
 10
21.4239085239
 20
-135.422037422
 41
3.0
 42
3.0
 43
3.0
 50
270.0
  0
ENDBLK
  5
23E
100
AcDbEntity
  8
0
  6
BYBLOCK
 62
0
100
AcDbBlockEnd
  0
ENDSEC
  0
SECTION
  2
ENTITIES
  0
DIMENSION
  5
23F
100
AcDbEntity
  8
0
100
AcDbDimension
 62
7
  6
CONTINUOUS
  2
*D0
 10
3.4239085239
 20
47.577962578
 11
-3.8332343332
 21
49.827962578
 70
160
 71
2
 42
8.3
  3
DIMSTYLE_1
100
AcDbAlignedDimension
 13
-4.8760914761
 23
35.077962578
 14
3.4239085239
 24
35.077962578
100
AcDbRotatedDimension
  0
DIMENSION
  5
240
100
AcDbEntity
  8
0
100
AcDbDimension
 62
7
  6
CONTINUOUS
  2
*D1
 10
11.4239085239
 20
15.577962578
 11
10.2300820476
 21
25.470684728
 70
160
 71
2
 42
24.0
  3
DIMSTYLE_1
100
AcDbAlignedDimension
 13
-0.2260914761
 23
39.577962578
 14
1.6239085239
 24
15.577962578
 50
270.0
100
AcDbRotatedDimension
  0
DIMENSION
  5
241
100
AcDbEntity
  8
0
100
AcDbDimension
 62
7
  6
CONTINUOUS
  2
*D2
 10
-22.9950169647
 20
47.577962578
 11
-30.2521598218
 21
49.827962578
 70
160
 71
2
 42
8.3
  3
DIMSTYLE_1
100
AcDbAlignedDimension
 13
-31.2950169647
 23
35.077962578
 14
-22.9950169647
 24
35.077962578
100
AcDbRotatedDimension
  0
DIMENSION
  5
242
100
AcDbEntity
  8
0
100
AcDbDimension
 62
7
  6
CONTINUOUS
  2
*D3
 10
21.4239085239
 20
-135.422037422
 11
20.5661372597
 21
-50.6998127697
 70
160
 71
2
 42
175.0
  3
DIMSTYLE_1
100
AcDbAlignedDimension
 13
-0.2260914761
 23
39.577962578
 14
1.6239085239
 24
-135.422037422
 50
270.0
100
AcDbRotatedDimension
  0
LINE
  5
243
100
AcDbEntity
  8
ASSI
100
AcDbLine
 62
7
  6
CONTINUOUS
 10
-3.5760914761
 20
-135.422037422
 11
-1.5760914761
 21
-135.422037422
  0
LINE
  5
244
100
AcDbEntity
  8
ASSI
100
AcDbLine
 62
7
  6
CONTINUOUS
 10
0.1239085239
 20
-135.422037422
 11
2.1239085239
 21
-135.422037422
  0
LINE
  5
245
100
AcDbEntity
  8
CURVE
100
AcDbLine
 62
253
  6
CONTINUOUS
 10
1.9739085239
 20
33.577962578
 11
0.4739085239
 21
33.0979625565
  0
LINE
  5
246
100
AcDbEntity
  8
ASSI
100
AcDbLine
 62
7
  6
CONTINUOUS
 10
-3.5760914761
 20
-125.422037422
 11
-1.5760914761
 21
-125.422037422
  0
LINE
  5
247
100
AcDbEntity
  8
ASSI
100
AcDbLine
 62
7
  6
CONTINUOUS
 10
0.1239085239
 20
-125.422037422
 11
2.1239085239
 21
-125.422037422
  0
LINE
  5
248
100
AcDbEntity
  8
ASSI
100
AcDbLine
 62
7
  6
CONTINUOUS
 10
2.1239085239
 20
-124.422037422
 11
0.1239085239
 21
-124.422037422
  0
LINE
  5
249
100
AcDbEntity
  8
ASSI
100
AcDbLine
 62
7
  6
CONTINUOUS
 10
-1.5760914761
 20
-124.422037422
 11
-3.5760914761
 21
-124.422037422
  0
LINE
  5
24A
100
AcDbEntity
  8
CURVE
100
AcDbLine
 62
253
  6
CONTINUOUS
 10
-1.0475200284
 20
33.577962578
 11
-1.2618057522
 21
33.470819716
  0
LINE
  5
24B
100
AcDbEntity
  8
CURVE
100
AcDbLine
 62
253
  6
CONTINUOUS
 10
-0.4046628791
 20
32.827962578
 11
-0.1903771776
 21
32.9351054287
  0
LINE
  5
24C
100
AcDbEntity
  8
CURVE
100
AcDbLine
 62
253
  6
CONTINUOUS
 10
-1.0475200284
 20
32.3993911749
 11
-1.2618057522
 21
32.2922482795
  0
LINE
  5
24D
100
AcDbEntity
  8
CURVE
100
AcDbLine
 62
253
  6
CONTINUOUS
 10
-0.4046628791
 20
31.6493911749
 11
-0.1903771776
 21
31.756533981
  0
LINE
  5
24E
100
AcDbEntity
  8
CURVE
100
AcDbLine
 62
253
  6
CONTINUOUS
 10
1.9739085239
 20
29.1779625398
 11
0.4739085239
 21
28.6979627687
  0
LINE
  5
24F
100
AcDbEntity
  8
CURVE
100
AcDbLine
 62
253
  6
CONTINUOUS
 10
-1.4760914761
 20
26.077962578
 11
-0.4046628791
 21
26.3993913537
  0
LINE
  5
250
100
AcDbEntity
  8
CURVE
100
AcDbLine
 62
253
  6
CONTINUOUS
 10
1.9739085239
 20
31.0979626256
 11
1.1167656732
 21
30.6179626543
  0
LINE
  5
251
100
AcDbEntity
  8
CURVE
100
AcDbLine
 62
253
  6
CONTINUOUS
 10
-1.3332343306
 20
27.685105384
 11
-1.4046629033
 21
27.6493912345
  0
LINE
  5
252
100
AcDbEntity
  8
CURVE
100
AcDbLine
 62
253
  6
CONTINUOUS
 10
-1.297520047
 20
27.5422484285
 11
-1.2260914686
 21
27.577962578
  0
LINE
  5
253
100
AcDbEntity
  8
CURVE
100
AcDbLine
 62
253
  6
CONTINUOUS
 10
-1.2618057522
 20
33.470819716
 11
-1.4760914761
 21
33.2565340033
  0
LINE
  5
254
100
AcDbEntity
  8
CURVE
100
AcDbLine
 62
253
  6
CONTINUOUS
 10
-1.9260914761
 20
32.2547483286
 11
-2.1403771776
 21
32.0511769122
  0
LINE
  5
255
100
AcDbEntity
  8
CURVE
100
AcDbLine
 62
253
  6
CONTINUOUS
 10
0.0239085239
 20
29.6136769659
 11
-0.1903771776
 21
29.4351055032
  0
LINE
  5
256
100
AcDbEntity
  8
CURVE
100
AcDbLine
 62
253
  6
CONTINUOUS
 10
1.1167656732
 20
27.8579627687
 11
0.4739085239
 21
27.377962597
  0
LINE
  5
257
100
AcDbEntity
  8
CURVE
100
AcDbLine
 62
253
  6
CONTINUOUS
 10
-1.2618057522
 20
32.2922482795
 11
-1.4760914761
 21
32.077962578
  0
LINE
  5
258
100
AcDbEntity
  8
CURVE
100
AcDbLine
 62
253
  6
CONTINUOUS
 10
-0.1903771776
 20
32.9351054287
 11
0.0239085239
 21
33.1493911302
  0
LINE
  5
259
100
AcDbEntity
  8
CURVE
100
AcDbLine
 62
253
  6
CONTINUOUS
 10
-0.1903771776
 20
31.756533981
 11
0.0239085239
 21
31.9708197719
  0
LINE
  5
25A
100
AcDbEntity
  8
CURVE
100
AcDbLine
 62
253
  6
CONTINUOUS
 10
-0.8332343268
 20
31.006533981
 11
-0.6189485806
 21
31.2208197719
  0
LINE
  5
25B
100
AcDbEntity
  8
CURVE
100
AcDbLine
 62
253
  6
CONTINUOUS
 10
0.0239085239
 20
30.685105384
 11
-0.1903771776
 21
30.4708197719
  0
LINE
  5
25C
100
AcDbEntity
  8
CURVE
100
AcDbLine
 62
253
  6
CONTINUOUS
 10
-0.6189485806
 20
29.6136769659
 11
-0.8332343268
 21
29.3993909961
  0
LINE
  5
25D
100
AcDbEntity
  8
CURVE
100
AcDbLine
 62
253
  6
CONTINUOUS
 10
-0.6189485806
 20
28.5422481901
 11
-0.8332343268
 21
28.327962578
  0
LINE
  5
25E
100
AcDbEntity
  8
CURVE
100
AcDbLine
 62
253
  6
CONTINUOUS
 10
-1.9260914761
 20
30.1172482437
 11
-2.1403771776
 21
29.9136769122
  0
LINE
  5
25F
100
AcDbEntity
  8
CURVE
100
AcDbLine
 62
253
  6
CONTINUOUS
 10
-3.2118057522
 20
24.8583196885
 11
-3.4260914761
 21
24.654748357
  0
LINE
  5
260
100
AcDbEntity
  8
CURVE
100
AcDbLine
 62
253
  6
CONTINUOUS
 10
-3.2118057522
 20
21.295820368
 11
-3.4260914761
 21
21.092248357
  0
LINE
  5
261
100
AcDbEntity
  8
CURVE
100
AcDbLine
 62
253
  6
CONTINUOUS
 10
1.9739085239
 20
27.6179624826
 11
1.7596228224
 21
27.377962597
  0
LINE
  5
262
100
AcDbEntity
  8
CURVE
100
AcDbLine
 62
253
  6
CONTINUOUS
 10
-2.1403771776
 20
21.872605241
 11
-1.9260914761
 21
22.076177252
  0
LINE
  5
263
100
AcDbEntity
  8
DRAFT
100
AcDbLine
 62
7
  6
CONTINUOUS
 10
-4.4760914761
 20
34.577962578
 11
-4.266460359
 21
38.577962578
  0
LINE
  5
264
100
AcDbEntity
  8
0
100
AcDbLine
 62
7
  6
CONTINUOUS
 10
-4.8760914761
 20
19.577962578
 11
-4.8760914761
 21
34.577962578
  0
LINE
  5
265
100
AcDbEntity
  8
ASSI
100
AcDbLine
 62
7
  6
CONTINUOUS
 10
-4.5260914761
 20
19.577962578
 11
-4.5260914761
 21
15.577962578
  0
LINE
  5
266
100
AcDbEntity
  8
ASSI
100
AcDbLine
 62
7
  6
CONTINUOUS
 10
-3.9316043056
 20
17.8218746085
 11
-3.9316043056
 21
17.3340505474
  0
LINE
  5
267
100
AcDbEntity
  8
ASSI
100
AcDbLine
 62
7
  6
CONTINUOUS
 10
-3.5760914761
 20
-135.422037422
 11
-3.5760914761
 21
-125.422037422
  0
LINE
  5
268
100
AcDbEntity
  8
ASSI
100
AcDbLine
 62
7
  6
CONTINUOUS
 10
-3.5760914761
 20
15.577962578
 11
-3.5760914761
 21
-124.422037422
  0
LINE
  5
269
100
AcDbEntity
  8
CURVE
100
AcDbLine
 62
253
  6
CONTINUOUS
 10
-3.4260914761
 20
32.7636768273
 11
-3.4260914761
 21
32.0511769122
  0
LINE
  5
26A
100
AcDbEntity
  8
CURVE
100
AcDbLine
 62
253
  6
CONTINUOUS
 10
-3.4260914761
 20
30.6261769122
 11
-3.4260914761
 21
29.9136769122
  0
LINE
  5
26B
100
AcDbEntity
  8
CURVE
100
AcDbLine
 62
253
  6
CONTINUOUS
 10
-3.4260914761
 20
24.654748357
 11
-3.4260914761
 21
24.247605694
  0
LINE
  5
26C
100
AcDbEntity
  8
CURVE
100
AcDbLine
 62
253
  6
CONTINUOUS
 10
-3.4260914761
 20
22.585105241
 11
-3.4260914761
 21
22.076177252
  0
LINE
  5
26D
100
AcDbEntity
  8
CURVE
100
AcDbLine
 62
253
  6
CONTINUOUS
 10
-3.4260914761
 20
21.092248357
 11
-3.4260914761
 21
20.685105694
  0
LINE
  5
26E
100
AcDbEntity
  8
0
100
AcDbLine
 62
7
  6
CONTINUOUS
 10
-3.1260914761
 20
38.577962578
 11
-3.1260914761
 21
38.777962578
  0
LINE
  5
26F
100
AcDbEntity
  8
CURVE
100
AcDbLine
 62
253
  6
CONTINUOUS
 10
-3.1046629015
 20
29.5065339095
 11
-3.1046629015
 21
28.7940339095
  0
LINE
  5
270
100
AcDbEntity
  8
ASSI
100
AcDbLine
 62
7
  6
CONTINUOUS
 10
-3.0010914761
 20
-124.422037422
 11
-3.0010914761
 21
-125.422037422
  0
LINE
  5
271
100
AcDbEntity
  8
CURVE
100
AcDbLine
 62
253
  6
CONTINUOUS
 10
-2.9975200284
 20
25.401176799
 11
-2.9975200284
 21
25.9440339095
  0
LINE
  5
272
100
AcDbEntity
  8
CURVE
100
AcDbLine
 62
253
  6
CONTINUOUS
 10
-2.8903771776
 20
31.0333197451
 11
-2.8903771776
 21
31.6440340793
  0
LINE
  5
273
100
AcDbEntity
  8
ASSI
100
AcDbLine
 62
253
  6
CONTINUOUS
 10
-2.5760914761
 20
19.577962578
 11
-2.5760914761
 21
18.177962578
  0
LINE
  5
274
100
AcDbEntity
  8
ASSI
100
AcDbLine
 62
253
  6
CONTINUOUS
 10
-2.5760914761
 20
16.977962578
 11
-2.5760914761
 21
15.577962578
  0
LINE
  5
275
100
AcDbEntity
  8
ASSI
100
AcDbLine
 62
7
  6
CONTINUOUS
 10
-2.1510914761
 20
-124.422037422
 11
-2.1510914761
 21
-125.422037422
  0
LINE
  5
276
100
AcDbEntity
  8
CURVE
100
AcDbLine
 62
253
  6
CONTINUOUS
 10
-1.9260914761
 20
32.5601054108
 11
-1.9260914761
 21
32.2547483286
  0
LINE
  5
277
100
AcDbEntity
  8
CURVE
100
AcDbLine
 62
253
  6
CONTINUOUS
 10
-1.9260914761
 20
30.4226055807
 11
-1.9260914761
 21
30.1172482437
  0
LINE
  5
278
100
AcDbEntity
  8
CURVE
100
AcDbLine
 62
253
  6
CONTINUOUS
 10
-1.9260914761
 20
20.685105694
 11
-1.9260914761
 21
21.092248357
  0
LINE
  5
279
100
AcDbEntity
  8
CURVE
100
AcDbLine
 62
253
  6
CONTINUOUS
 10
-1.9260914761
 20
22.076177252
 11
-1.9260914761
 21
22.585105241
  0
LINE
  5
27A
100
AcDbEntity
  8
CURVE
100
AcDbLine
 62
253
  6
CONTINUOUS
 10
-1.9260914761
 20
24.247605694
 11
-1.9260914761
 21
24.654748357
  0
LINE
  5
27B
100
AcDbEntity
  8
ASSI
100
AcDbLine
 62
7
  6
CONTINUOUS
 10
-1.5760914761
 20
-135.422037422
 11
-1.5760914761
 21
-125.422037422
  0
LINE
  5
27C
100
AcDbEntity
  8
ASSI
100
AcDbLine
 62
7
  6
CONTINUOUS
 10
-1.5760914761
 20
15.577962578
 11
-1.5760914761
 21
-124.422037422
  0
LINE
  5
27D
100
AcDbEntity
  8
CURVE
100
AcDbLine
 62
253
  6
CONTINUOUS
 10
-1.4760914761
 20
33.2565340033
 11
-1.4760914761
 21
33.1493911302
  0
LINE
  5
27E
100
AcDbEntity
  8
CURVE
100
AcDbLine
 62
253
  6
CONTINUOUS
 10
-1.4760914761
 20
32.077962578
 11
-1.4760914761
 21
31.9708197719
  0
LINE
  5
27F
100
AcDbEntity
  8
CURVE
100
AcDbLine
 62
253
  6
CONTINUOUS
 10
-1.4760914761
 20
28.5422481901
 11
-1.4760914761
 21
28.9708197719
  0
LINE
  5
280
100
AcDbEntity
  8
CURVE
100
AcDbLine
 62
253
  6
CONTINUOUS
 10
-1.4760914761
 20
29.5065341598
 11
-1.4760914761
 21
30.0422481901
  0
LINE
  5
281
100
AcDbEntity
  8
CURVE
100
AcDbLine
 62
253
  6
CONTINUOUS
 10
-1.4046629033
 20
27.6493912345
 11
-1.4046629033
 21
27.577962578
  0
LINE
  5
282
100
AcDbEntity
  8
CURVE
100
AcDbLine
 62
253
  6
CONTINUOUS
 10
-1.2260914686
 20
27.577962578
 11
-1.2260914686
 21
27.6493912345
  0
LINE
  5
283
100
AcDbEntity
  8
CURVE
100
AcDbLine
 62
253
  6
CONTINUOUS
 10
-0.8332343268
 20
30.5422484285
 11
-0.8332343268
 21
31.006533981
  0
LINE
  5
284
100
AcDbEntity
  8
CURVE
100
AcDbLine
 62
253
  6
CONTINUOUS
 10
-0.6189485806
 20
29.827962578
 11
-0.6189485806
 21
29.6136769659
  0
LINE
  5
285
100
AcDbEntity
  8
CURVE
100
AcDbLine
 62
253
  6
CONTINUOUS
 10
-0.6189485806
 20
28.9708197719
 11
-0.6189485806
 21
28.5422481901
  0
LINE
  5
286
100
AcDbEntity
  8
CURVE
100
AcDbLine
 62
253
  6
CONTINUOUS
 10
0.0239085239
 20
31.006533981
 11
0.0239085239
 21
30.685105384
  0
LINE
  5
287
100
AcDbEntity
  8
CURVE
100
AcDbLine
 62
253
  6
CONTINUOUS
 10
0.0239085239
 20
30.0422481901
 11
0.0239085239
 21
29.6136769659
  0
LINE
  5
288
100
AcDbEntity
  8
CURVE
100
AcDbLine
 62
253
  6
CONTINUOUS
 10
0.0239085239
 20
28.327962578
 11
0.0239085239
 21
28.9708197719
  0
LINE
  5
289
100
AcDbEntity
  8
CURVE
100
AcDbLine
 62
253
  6
CONTINUOUS
 10
0.0239085239
 20
31.9708197719
 11
0.0239085239
 21
32.077962578
  0
LINE
  5
28A
100
AcDbEntity
  8
CURVE
100
AcDbLine
 62
253
  6
CONTINUOUS
 10
0.0239085239
 20
33.1493911302
 11
0.0239085239
 21
33.2565340033
  0
LINE
  5
28B
100
AcDbEntity
  8
ASSI
100
AcDbLine
 62
7
  6
CONTINUOUS
 10
0.1239085239
 20
-135.422037422
 11
0.1239085239
 21
-125.422037422
  0
LINE
  5
28C
100
AcDbEntity
  8
ASSI
100
AcDbLine
 62
7
  6
CONTINUOUS
 10
0.1239085239
 20
15.577962578
 11
0.1239085239
 21
-124.422037422
  0
LINE
  5
28D
100
AcDbEntity
  8
ASSI
100
AcDbLine
 62
7
  6
CONTINUOUS
 10
0.6989085239
 20
-124.422037422
 11
0.6989085239
 21
-125.422037422
  0
LINE
  5
28E
100
AcDbEntity
  8
CURVE
100
AcDbLine
 62
253
  6
CONTINUOUS
 10
0.9024799716
 20
29.4979625207
 11
0.9024799716
 21
28.8579625589
  0
LINE
  5
28F
100
AcDbEntity
  8
CURVE
100
AcDbLine
 62
253
  6
CONTINUOUS
 10
1.1167656732
 20
27.6179624826
 11
1.1167656732
 21
28.217962597
  0
LINE
  5
290
100
AcDbEntity
  8
ASSI
100
AcDbLine
 62
253
  6
CONTINUOUS
 10
1.1239085239
 20
19.577962578
 11
1.1239085239
 21
18.177962578
  0
LINE
  5
291
100
AcDbEntity
  8
ASSI
100
AcDbLine
 62
253
  6
CONTINUOUS
 10
1.1239085239
 20
16.977962578
 11
1.1239085239
 21
15.577962578
  0
LINE
  5
292
100
AcDbEntity
  8
ASSI
100
AcDbLine
 62
7
  6
CONTINUOUS
 10
1.5489085239
 20
-124.422037422
 11
1.5489085239
 21
-125.422037422
  0
LINE
  5
293
100
AcDbEntity
  8
0
100
AcDbLine
 62
7
  6
CONTINUOUS
 10
1.6739085239
 20
38.577962578
 11
1.6739085239
 21
38.777962578
  0
LINE
  5
294
100
AcDbEntity
  8
CURVE
100
AcDbLine
 62
253
  6
CONTINUOUS
 10
1.9739085239
 20
28.217962597
 11
1.9739085239
 21
27.6179624826
  0
LINE
  5
295
100
AcDbEntity
  8
ASSI
100
AcDbLine
 62
7
  6
CONTINUOUS
 10
2.1239085239
 20
-135.422037422
 11
2.1239085239
 21
-125.422037422
  0
LINE
  5
296
100
AcDbEntity
  8
ASSI
100
AcDbLine
 62
7
  6
CONTINUOUS
 10
2.1239085239
 20
15.577962578
 11
2.1239085239
 21
-124.422037422
  0
LINE
  5
297
100
AcDbEntity
  8
ASSI
100
AcDbLine
 62
7
  6
CONTINUOUS
 10
2.4794213534
 20
17.8218746085
 11
2.4794213534
 21
17.3340505474
  0
LINE
  5
298
100
AcDbEntity
  8
ASSI
100
AcDbLine
 62
7
  6
CONTINUOUS
 10
3.0739085239
 20
19.577962578
 11
3.0739085239
 21
15.577962578
  0
LINE
  5
299
100
AcDbEntity
  8
0
100
AcDbLine
 62
7
  6
CONTINUOUS
 10
3.4239085239
 20
19.577962578
 11
3.4239085239
 21
34.577962578
  0
LINE
  5
29A
100
AcDbEntity
  8
DRAFT
100
AcDbLine
 62
7
  6
CONTINUOUS
 10
3.0239085239
 20
34.577962578
 11
2.8142774068
 21
38.577962578
  0
LINE
  5
29B
100
AcDbEntity
  8
CURVE
100
AcDbLine
 62
253
  6
CONTINUOUS
 10
-0.5118057746
 20
29.4351055032
 11
-0.6189485806
 21
29.6136769659
  0
LINE
  5
29C
100
AcDbEntity
  8
CURVE
100
AcDbLine
 62
253
  6
CONTINUOUS
 10
-3.4260914761
 20
22.076177252
 11
-3.2118057522
 21
21.872605241
  0
LINE
  5
29D
100
AcDbEntity
  8
CURVE
100
AcDbLine
 62
253
  6
CONTINUOUS
 10
-1.9260914761
 20
21.092248357
 11
-2.1403771776
 21
21.295820368
  0
LINE
  5
29E
100
AcDbEntity
  8
CURVE
100
AcDbLine
 62
253
  6
CONTINUOUS
 10
-1.9260914761
 20
24.654748357
 11
-2.1403771776
 21
24.8583196885
  0
LINE
  5
29F
100
AcDbEntity
  8
CURVE
100
AcDbLine
 62
253
  6
CONTINUOUS
 10
1.3310514194
 20
27.377962597
 11
1.1167656732
 21
27.6179624826
  0
LINE
  5
2A0
100
AcDbEntity
  8
CURVE
100
AcDbLine
 62
253
  6
CONTINUOUS
 10
-1.9260914761
 20
33.1708197026
 11
-2.3546628791
 21
33.577962578
  0
LINE
  5
2A1
100
AcDbEntity
  8
CURVE
100
AcDbLine
 62
253
  6
CONTINUOUS
 10
-1.2618057522
 20
28.327962578
 11
-1.4760914761
 21
28.5422481901
  0
LINE
  5
2A2
100
AcDbEntity
  8
CURVE
100
AcDbLine
 62
253
  6
CONTINUOUS
 10
-1.3689486142
 20
29.3993909961
 11
-1.4760914761
 21
29.5065341598
  0
LINE
  5
2A3
100
AcDbEntity
  8
CURVE
100
AcDbLine
 62
253
  6
CONTINUOUS
 10
-1.0475200284
 20
30.577962578
 11
-1.4760914761
 21
31.006533981
  0
LINE
  5
2A4
100
AcDbEntity
  8
CURVE
100
AcDbLine
 62
253
  6
CONTINUOUS
 10
-1.4760914761
 20
31.9708197719
 11
-1.2618057522
 21
31.756533981
  0
LINE
  5
2A5
100
AcDbEntity
  8
CURVE
100
AcDbLine
 62
253
  6
CONTINUOUS
 10
-0.1903771776
 20
31.2208197719
 11
0.0239085239
 21
31.006533981
  0
LINE
  5
2A6
100
AcDbEntity
  8
CURVE
100
AcDbLine
 62
253
  6
CONTINUOUS
 10
-1.4760914761
 20
33.1493911302
 11
-1.2618057522
 21
32.9351054287
  0
LINE
  5
2A7
100
AcDbEntity
  8
CURVE
100
AcDbLine
 62
253
  6
CONTINUOUS
 10
0.0239085239
 20
32.077962578
 11
-0.1903771776
 21
32.2922482795
  0
LINE
  5
2A8
100
AcDbEntity
  8
CURVE
100
AcDbLine
 62
253
  6
CONTINUOUS
 10
0.0239085239
 20
33.2565340033
 11
-0.1903771776
 21
33.470819716
  0
LINE
  5
2A9
100
AcDbEntity
  8
ASSI
100
AcDbLine
 62
7
  6
CONTINUOUS
 10
3.0739085239
 20
15.577962578
 11
-4.5260914761
 21
15.577962578
  0
LINE
  5
2AA
100
AcDbEntity
  8
ASSI
100
AcDbLine
 62
7
  6
CONTINUOUS
 10
-2.5760914761
 20
16.977962578
 11
1.1239085239
 21
16.977962578
  0
LINE
  5
2AB
100
AcDbEntity
  8
CURVE
100
AcDbLine
 62
253
  6
CONTINUOUS
 10
-3.3903771897
 20
23.670819462
 11
-2.0689486104
 21
22.856534136
  0
LINE
  5
2AC
100
AcDbEntity
  8
CURVE
100
AcDbLine
 62
253
  6
CONTINUOUS
 10
-2.3546628791
 20
29.9136769122
 11
-3.4260914761
 21
30.6261769122
  0
LINE
  5
2AD
100
AcDbEntity
  8
ASSI
100
AcDbLine
 62
7
  6
CONTINUOUS
 10
-2.5760914761
 20
18.177962578
 11
1.1239085239
 21
18.177962578
  0
LINE
  5
2AE
100
AcDbEntity
  8
0
100
AcDbLine
 62
7
  6
CONTINUOUS
 10
-4.8760914761
 20
19.577962578
 11
3.4239085239
 21
19.577962578
  0
LINE
  5
2AF
100
AcDbEntity
  8
CURVE
100
AcDbLine
 62
253
  6
CONTINUOUS
 10
-2.1403771776
 20
21.295820368
 11
-3.2118057074
 21
21.295820368
  0
LINE
  5
2B0
100
AcDbEntity
  8
CURVE
100
AcDbLine
 62
253
  6
CONTINUOUS
 10
-3.2118057522
 20
21.872605241
 11
-2.1403772303
 21
21.872605241
  0
LINE
  5
2B1
100
AcDbEntity
  8
CURVE
100
AcDbLine
 62
253
  6
CONTINUOUS
 10
-1.9260914761
 20
22.585105241
 11
-3.4260914587
 21
22.585105241
  0
LINE
  5
2B2
100
AcDbEntity
  8
CURVE
100
AcDbLine
 62
253
  6
CONTINUOUS
 10
-1.9260914761
 20
25.672605694
 11
-3.4260914761
 21
26.079748357
  0
LINE
  5
2B3
100
AcDbEntity
  8
CURVE
100
AcDbLine
 62
253
  6
CONTINUOUS
 10
-1.4046629033
 20
27.577962578
 11
-1.3332343306
 21
27.5422484285
  0
LINE
  5
2B4
100
AcDbEntity
  8
CURVE
100
AcDbLine
 62
253
  6
CONTINUOUS
 10
-1.2260914686
 20
27.6493912345
 11
-1.297520047
 21
27.685105384
  0
LINE
  5
2B5
100
AcDbEntity
  8
CURVE
100
AcDbLine
 62
253
  6
CONTINUOUS
 10
1.1167656732
 20
30.6179626543
 11
1.9739085239
 21
30.1379624826
  0
LINE
  5
2B6
100
AcDbEntity
  8
CURVE
100
AcDbLine
 62
253
  6
CONTINUOUS
 10
-2.2475200731
 20
30.6261769122
 11
-1.9260914761
 21
30.4226055807
  0
LINE
  5
2B7
100
AcDbEntity
  8
CURVE
100
AcDbLine
 62
253
  6
CONTINUOUS
 10
-2.2475200731
 20
32.7636768273
 11
-1.9260914761
 21
32.5601054108
  0
LINE
  5
2B8
100
AcDbEntity
  8
CURVE
100
AcDbLine
 62
253
  6
CONTINUOUS
 10
-2.3546628791
 20
32.0511769122
 11
-3.4260914761
 21
32.7636768273
  0
LINE
  5
2B9
100
AcDbEntity
  8
CURVE
100
AcDbLine
 62
253
  6
CONTINUOUS
 10
-3.4260914761
 20
25.2654623515
 11
-1.9260914761
 21
25.672605694
  0
LINE
  5
2BA
100
AcDbEntity
  8
CURVE
100
AcDbLine
 62
253
  6
CONTINUOUS
 10
-3.4260914761
 20
27.9797482437
 11
-1.9260914761
 21
28.3868912465
  0
LINE
  5
2BB
100
AcDbEntity
  8
CURVE
100
AcDbLine
 62
253
  6
CONTINUOUS
 10
-1.4760914761
 20
26.7208194143
 11
0.0239085239
 21
27.0422481901
  0
LINE
  5
2BC
100
AcDbEntity
  8
CURVE
100
AcDbLine
 62
253
  6
CONTINUOUS
 10
-2.1403771776
 20
24.8583196885
 11
-3.2118057074
 21
24.8583196885
  0
LINE
  5
2BD
100
AcDbEntity
  8
CURVE
100
AcDbLine
 62
253
  6
CONTINUOUS
 10
1.7596228224
 20
27.377962597
 11
1.331051415
 21
27.377962597
  0
LINE
  5
2BE
100
AcDbEntity
  8
CURVE
100
AcDbLine
 62
253
  6
CONTINUOUS
 10
-1.3332343306
 20
27.5422484285
 11
-1.2975200452
 21
27.5422484285
  0
LINE
  5
2BF
100
AcDbEntity
  8
CURVE
100
AcDbLine
 62
253
  6
CONTINUOUS
 10
-1.297520047
 20
27.685105384
 11
-1.3332343323
 21
27.685105384
  0
LINE
  5
2C0
100
AcDbEntity
  8
CURVE
100
AcDbLine
 62
253
  6
CONTINUOUS
 10
0.4739085239
 20
28.217962597
 11
1.9739085065
 21
28.217962597
  0
LINE
  5
2C1
100
AcDbEntity
  8
CURVE
100
AcDbLine
 62
253
  6
CONTINUOUS
 10
-0.8332343268
 20
28.327962578
 11
-1.2618057586
 21
28.327962578
  0
LINE
  5
2C2
100
AcDbEntity
  8
CURVE
100
AcDbLine
 62
253
  6
CONTINUOUS
 10
0.0239085239
 20
25.7565338022
 11
-1.4760914761
 21
26.077962578
  0
LINE
  5
2C3
100
AcDbEntity
  8
CURVE
100
AcDbLine
 62
253
  6
CONTINUOUS
 10
-0.6189485806
 20
30.4708197719
 11
-1.0475200284
 21
30.577962578
  0
LINE
  5
2C4
100
AcDbEntity
  8
CURVE
100
AcDbLine
 62
253
  6
CONTINUOUS
 10
-1.9260914761
 20
29.2011769122
 11
-3.1046629015
 21
29.5065339095
  0
LINE
  5
2C5
100
AcDbEntity
  8
CURVE
100
AcDbLine
 62
253
  6
CONTINUOUS
 10
-1.9260914761
 20
27.572605241
 11
-3.4260914761
 21
27.9797482437
  0
LINE
  5
2C6
100
AcDbEntity
  8
CURVE
100
AcDbLine
 62
253
  6
CONTINUOUS
 10
-0.4046628791
 20
26.3993913537
 11
-1.4760914761
 21
26.7208194143
  0
LINE
  5
2C7
100
AcDbEntity
  8
CURVE
100
AcDbLine
 62
253
  6
CONTINUOUS
 10
0.4739085239
 20
29.6579627115
 11
1.9739085239
 21
29.1779625398
  0
LINE
  5
2C8
100
AcDbEntity
  8
CURVE
100
AcDbLine
 62
253
  6
CONTINUOUS
 10
-1.2618057522
 20
31.756533981
 11
-1.0475200284
 21
31.6493911749
  0
LINE
  5
2C9
100
AcDbEntity
  8
CURVE
100
AcDbLine
 62
253
  6
CONTINUOUS
 10
-0.1903771776
 20
32.2922482795
 11
-0.4046628791
 21
32.3993911749
  0
LINE
  5
2CA
100
AcDbEntity
  8
CURVE
100
AcDbLine
 62
253
  6
CONTINUOUS
 10
-1.2618057522
 20
32.9351054287
 11
-1.0475200284
 21
32.827962578
  0
LINE
  5
2CB
100
AcDbEntity
  8
CURVE
100
AcDbLine
 62
253
  6
CONTINUOUS
 10
-0.1903771776
 20
33.470819716
 11
-0.4046628791
 21
33.577962578
  0
LINE
  5
2CC
100
AcDbEntity
  8
CURVE
100
AcDbLine
 62
253
  6
CONTINUOUS
 10
0.0239085239
 20
28.9708197719
 11
-0.6189485545
 21
28.9708197719
  0
LINE
  5
2CD
100
AcDbEntity
  8
CURVE
100
AcDbLine
 62
253
  6
CONTINUOUS
 10
-2.6760914761
 20
29.0315340227
 11
-3.4260914554
 21
29.0315340227
  0
LINE
  5
2CE
100
AcDbEntity
  8
CURVE
100
AcDbLine
 62
253
  6
CONTINUOUS
 10
-0.8332343268
 20
29.3993909961
 11
-1.368948629
 21
29.3993909961
  0
LINE
  5
2CF
100
AcDbEntity
  8
CURVE
100
AcDbLine
 62
253
  6
CONTINUOUS
 10
-0.1903771776
 20
29.4351055032
 11
-0.5118057809
 21
29.4351055032
  0
LINE
  5
2D0
100
AcDbEntity
  8
CURVE
100
AcDbLine
 62
253
  6
CONTINUOUS
 10
-2.1403771776
 20
29.9136769122
 11
-2.3546628734
 21
29.9136769122
  0
LINE
  5
2D1
100
AcDbEntity
  8
CURVE
100
AcDbLine
 62
253
  6
CONTINUOUS
 10
1.9739085239
 20
30.1379624826
 11
0.4739085458
 21
30.1379624826
  0
LINE
  5
2D2
100
AcDbEntity
  8
CURVE
100
AcDbLine
 62
253
  6
CONTINUOUS
 10
-0.1903771776
 20
30.4708197719
 11
-0.6189485783
 21
30.4708197719
  0
LINE
  5
2D3
100
AcDbEntity
  8
CURVE
100
AcDbLine
 62
253
  6
CONTINUOUS
 10
0.4739085239
 20
31.0979626256
 11
1.9739085065
 21
31.0979626256
  0
LINE
  5
2D4
100
AcDbEntity
  8
CURVE
100
AcDbLine
 62
253
  6
CONTINUOUS
 10
-0.6189485806
 20
31.2208197719
 11
-0.1903771799
 21
31.2208197719
  0
LINE
  5
2D5
100
AcDbEntity
  8
CURVE
100
AcDbLine
 62
253
  6
CONTINUOUS
 10
-1.0475200284
 20
31.6493911749
 11
-0.4046628795
 21
31.6493911749
  0
LINE
  5
2D6
100
AcDbEntity
  8
CURVE
100
AcDbLine
 62
253
  6
CONTINUOUS
 10
0.4739085239
 20
31.8579625303
 11
1.9739085065
 21
31.8579625303
  0
LINE
  5
2D7
100
AcDbEntity
  8
CURVE
100
AcDbLine
 62
253
  6
CONTINUOUS
 10
-2.1403771776
 20
32.0511769122
 11
-2.3546628734
 21
32.0511769122
  0
LINE
  5
2D8
100
AcDbEntity
  8
CURVE
100
AcDbLine
 62
253
  6
CONTINUOUS
 10
-0.4046628791
 20
32.3993911749
 11
-1.047520028
 21
32.3993911749
  0
LINE
  5
2D9
100
AcDbEntity
  8
CURVE
100
AcDbLine
 62
253
  6
CONTINUOUS
 10
-1.0475200284
 20
32.827962578
 11
-0.4046628795
 21
32.827962578
  0
LINE
  5
2DA
100
AcDbEntity
  8
CURVE
100
AcDbLine
 62
253
  6
CONTINUOUS
 10
-3.4260914761
 20
33.1708197026
 11
-1.926091498
 21
33.1708197026
  0
LINE
  5
2DB
100
AcDbEntity
  8
CURVE
100
AcDbLine
 62
253
  6
CONTINUOUS
 10
-0.4046628791
 20
33.577962578
 11
-1.047520028
 21
33.577962578
  0
LINE
  5
2DC
100
AcDbEntity
  8
0
100
AcDbLine
 62
7
  6
CONTINUOUS
 10
-4.8760914761
 20
34.577962578
 11
3.4239085239
 21
34.577962578
  0
LINE
  5
2DD
100
AcDbEntity
  8
DRAFT
100
AcDbLine
 62
7
  6
CONTINUOUS
 10
-4.266460359
 20
38.577962578
 11
2.8142774068
 21
38.577962578
  0
LINE
  5
2DE
100
AcDbEntity
  8
0
100
AcDbLine
 62
7
  6
CONTINUOUS
 10
-3.1260914761
 20
38.777962578
 11
1.6739085239
 21
38.777962578
  0
LINE
  5
2DF
100
AcDbEntity
  8
CURVE
100
AcDbLine
 62
253
  6
CONTINUOUS
 10
0.4739085239
 20
33.0979625565
 11
1.9739085239
 21
32.617962535
  0
LINE
  5
2E0
100
AcDbEntity
  8
ASSI
100
AcDbLine
 62
7
  6
CONTINUOUS
 10
-28.1450169647
 20
-135.422037422
 11
-26.1450169647
 21
-135.422037422
  0
LINE
  5
2E1
100
AcDbEntity
  8
ASSI
100
AcDbLine
 62
7
  6
CONTINUOUS
 10
-28.1450169647
 20
-125.422037422
 11
-26.1450169647
 21
-125.422037422
  0
LINE
  5
2E2
100
AcDbEntity
  8
ASSI
100
AcDbLine
 62
7
  6
CONTINUOUS
 10
-26.1450169647
 20
-124.422037422
 11
-28.1450169647
 21
-124.422037422
  0
LINE
  5
2E3
100
AcDbEntity
  8
DRAFT
100
AcDbLine
 62
7
  6
CONTINUOUS
 10
-30.8950169647
 20
34.577962578
 11
-30.6853858475
 21
38.577962578
  0
LINE
  5
2E4
100
AcDbEntity
  8
0
100
AcDbLine
 62
7
  6
CONTINUOUS
 10
-31.2950169647
 20
19.577962578
 11
-31.2950169647
 21
34.577962578
  0
LINE
  5
2E5
100
AcDbEntity
  8
CURVE
100
AcDbLine
 62
253
  6
CONTINUOUS
 10
-31.2936336498
 20
29.827962578
 11
-31.2936336498
 21
29.6136769659
  0
LINE
  5
2E6
100
AcDbEntity
  8
CURVE
100
AcDbLine
 62
253
  6
CONTINUOUS
 10
-31.2936336498
 20
28.9708197719
 11
-31.2936336498
 21
28.5422481901
  0
LINE
  5
2E7
100
AcDbEntity
  8
CURVE
100
AcDbLine
 62
253
  6
CONTINUOUS
 10
-31.226683291
 20
31.006533981
 11
-31.226683291
 21
30.685105384
  0
LINE
  5
2E8
100
AcDbEntity
  8
CURVE
100
AcDbLine
 62
253
  6
CONTINUOUS
 10
-31.226683291
 20
30.0422481901
 11
-31.226683291
 21
29.6136769659
  0
LINE
  5
2E9
100
AcDbEntity
  8
CURVE
100
AcDbLine
 62
253
  6
CONTINUOUS
 10
-31.226683291
 20
28.327962578
 11
-31.226683291
 21
28.9708197719
  0
LINE
  5
2EA
100
AcDbEntity
  8
CURVE
100
AcDbLine
 62
253
  6
CONTINUOUS
 10
-31.226683291
 20
31.9708197719
 11
-31.226683291
 21
32.077962578
  0
LINE
  5
2EB
100
AcDbEntity
  8
CURVE
100
AcDbLine
 62
253
  6
CONTINUOUS
 10
-31.226683291
 20
33.1493911302
 11
-31.226683291
 21
33.2565340033
  0
LINE
  5
2EC
100
AcDbEntity
  8
CURVE
100
AcDbLine
 62
253
  6
CONTINUOUS
 10
-30.9621173091
 20
29.4979625207
 11
-30.9621173091
 21
28.8579625589
  0
LINE
  5
2ED
100
AcDbEntity
  8
CURVE
100
AcDbLine
 62
253
  6
CONTINUOUS
 10
-30.8634006898
 20
27.6179624826
 11
-30.8634006898
 21
28.217962597
  0
LINE
  5
2EE
100
AcDbEntity
  8
CURVE
100
AcDbLine
 62
253
  6
CONTINUOUS
 10
-30.2966038665
 20
28.217962597
 11
-30.2966038665
 21
27.6179624826
  0
LINE
  5
2EF
100
AcDbEntity
  8
0
100
AcDbLine
 62
7
  6
CONTINUOUS
 10
-29.5450169647
 20
38.577962578
 11
-29.5450169647
 21
38.777962578
  0
LINE
  5
2F0
100
AcDbEntity
  8
ASSI
100
AcDbLine
 62
7
  6
CONTINUOUS
 10
-29.0950169647
 20
19.577962578
 11
-29.0950169647
 21
18.177962578
  0
LINE
  5
2F1
100
AcDbEntity
  8
ASSI
100
AcDbLine
 62
7
  6
CONTINUOUS
 10
-29.0950169647
 20
16.977962578
 11
-29.0950169647
 21
15.577962578
  0
LINE
  5
2F2
100
AcDbEntity
  8
ASSI
100
AcDbLine
 62
7
  6
CONTINUOUS
 10
-28.5468318487
 20
17.8218746085
 11
-28.5468318487
 21
17.3340505474
  0
LINE
  5
2F3
100
AcDbEntity
  8
ASSI
100
AcDbLine
 62
7
  6
CONTINUOUS
 10
-28.1450169647
 20
-135.422037422
 11
-28.1450169647
 21
-125.422037422
  0
LINE
  5
2F4
100
AcDbEntity
  8
ASSI
100
AcDbLine
 62
7
  6
CONTINUOUS
 10
-28.1450169647
 20
15.577962578
 11
-28.1450169647
 21
-124.422037422
  0
LINE
  5
2F5
100
AcDbEntity
  8
ASSI
100
AcDbLine
 62
7
  6
CONTINUOUS
 10
-27.5700169647
 20
-124.422037422
 11
-27.5700169647
 21
-125.422037422
  0
LINE
  5
2F6
100
AcDbEntity
  8
ASSI
100
AcDbLine
 62
7
  6
CONTINUOUS
 10
-26.7200169647
 20
-124.422037422
 11
-26.7200169647
 21
-125.422037422
  0
LINE
  5
2F7
100
AcDbEntity
  8
ASSI
100
AcDbLine
 62
7
  6
CONTINUOUS
 10
-26.1450169647
 20
-135.422037422
 11
-26.1450169647
 21
-125.422037422
  0
LINE
  5
2F8
100
AcDbEntity
  8
ASSI
100
AcDbLine
 62
7
  6
CONTINUOUS
 10
-26.1450169647
 20
15.577962578
 11
-26.1450169647
 21
-124.422037422
  0
LINE
  5
2F9
100
AcDbEntity
  8
ASSI
100
AcDbLine
 62
7
  6
CONTINUOUS
 10
-25.7432020806
 20
17.8218746085
 11
-25.7432020806
 21
17.3340505474
  0
LINE
  5
2FA
100
AcDbEntity
  8
ASSI
100
AcDbLine
 62
7
  6
CONTINUOUS
 10
-25.1950169647
 20
19.577962578
 11
-25.1950169647
 21
18.177962578
  0
LINE
  5
2FB
100
AcDbEntity
  8
ASSI
100
AcDbLine
 62
7
  6
CONTINUOUS
 10
-25.1950169647
 20
16.977962578
 11
-25.1950169647
 21
15.577962578
  0
LINE
  5
2FC
100
AcDbEntity
  8
0
100
AcDbLine
 62
7
  6
CONTINUOUS
 10
-24.7450169647
 20
38.577962578
 11
-24.7450169647
 21
38.777962578
  0
LINE
  5
2FD
100
AcDbEntity
  8
0
100
AcDbLine
 62
7
  6
CONTINUOUS
 10
-22.9950169647
 20
19.577962578
 11
-22.9950169647
 21
34.577962578
  0
LINE
  5
2FE
100
AcDbEntity
  8
DRAFT
100
AcDbLine
 62
7
  6
CONTINUOUS
 10
-23.3950169647
 20
34.577962578
 11
-23.6046480818
 21
38.577962578
  0
LINE
  5
2FF
100
AcDbEntity
  8
ASSI
100
AcDbLine
 62
7
  6
CONTINUOUS
 10
-25.1950169647
 20
15.577962578
 11
-29.0950169647
 21
15.577962578
  0
LINE
  5
300
100
AcDbEntity
  8
0
100
AcDbLine
 62
7
  6
CONTINUOUS
 10
-31.2950169647
 20
19.577962578
 11
-22.9950169647
 21
19.577962578
  0
LINE
  5
301
100
AcDbEntity
  8
CURVE
100
AcDbLine
 62
253
  6
CONTINUOUS
 10
-30.4682269229
 20
27.377962597
 11
-30.749273216
 21
27.377962597
  0
LINE
  5
302
100
AcDbEntity
  8
CURVE
100
AcDbLine
 62
253
  6
CONTINUOUS
 10
-31.1177364363
 20
28.217962597
 11
-30.2966038814
 21
28.217962597
  0
LINE
  5
303
100
AcDbEntity
  8
CURVE
100
AcDbLine
 62
253
  6
CONTINUOUS
 10
-31.226683291
 20
28.9708197719
 11
-31.2936336491
 21
28.9708197719
  0
LINE
  5
304
100
AcDbEntity
  8
CURVE
100
AcDbLine
 62
253
  6
CONTINUOUS
 10
-31.2602946212
 20
29.4351055032
 11
-31.2894809398
 21
29.4351055032
  0
LINE
  5
305
100
AcDbEntity
  8
CURVE
100
AcDbLine
 62
253
  6
CONTINUOUS
 10
-30.2966038665
 20
30.1379624826
 11
-31.1177364296
 21
30.1379624826
  0
LINE
  5
306
100
AcDbEntity
  8
CURVE
100
AcDbLine
 62
253
  6
CONTINUOUS
 10
-31.2602946212
 20
30.4708197719
 11
-31.2936336497
 21
30.4708197719
  0
LINE
  5
307
100
AcDbEntity
  8
CURVE
100
AcDbLine
 62
253
  6
CONTINUOUS
 10
-31.1177364363
 20
31.0979626256
 11
-30.2966038814
 21
31.0979626256
  0
LINE
  5
308
100
AcDbEntity
  8
CURVE
100
AcDbLine
 62
253
  6
CONTINUOUS
 10
-31.2936336498
 20
31.2208197719
 11
-31.2602946215
 21
31.2208197719
  0
LINE
  5
309
100
AcDbEntity
  8
CURVE
100
AcDbLine
 62
253
  6
CONTINUOUS
 10
-31.2950169647
 20
31.6493911749
 11
-31.2825504874
 21
31.6493911749
  0
LINE
  5
30A
100
AcDbEntity
  8
CURVE
100
AcDbLine
 62
253
  6
CONTINUOUS
 10
-31.1177364363
 20
31.8579625303
 11
-30.2966038814
 21
31.8579625303
  0
LINE
  5
30B
100
AcDbEntity
  8
CURVE
100
AcDbLine
 62
253
  6
CONTINUOUS
 10
-31.282550488
 20
32.3993911749
 11
-31.2950169647
 21
32.3993911749
  0
LINE
  5
30C
100
AcDbEntity
  8
CURVE
100
AcDbLine
 62
253
  6
CONTINUOUS
 10
-31.2950169647
 20
32.827962578
 11
-31.2825504874
 21
32.827962578
  0
LINE
  5
30D
100
AcDbEntity
  8
CURVE
100
AcDbLine
 62
253
  6
CONTINUOUS
 10
-31.282550488
 20
33.577962578
 11
-31.2950169647
 21
33.577962578
  0
LINE
  5
30E
100
AcDbEntity
  8
0
100
AcDbLine
 62
7
  6
CONTINUOUS
 10
-31.2950169647
 20
34.577962578
 11
-22.9950169647
 21
34.577962578
  0
LINE
  5
30F
100
AcDbEntity
  8
DRAFT
100
AcDbLine
 62
7
  6
CONTINUOUS
 10
-30.6853858475
 20
38.577962578
 11
-23.6046480818
 21
38.577962578
  0
LINE
  5
310
100
AcDbEntity
  8
0
100
AcDbLine
 62
7
  6
CONTINUOUS
 10
-29.5450169647
 20
38.777962578
 11
-24.7450169647
 21
38.777962578
  0
ARC
  5
311
100
AcDbEntity
  8
0
100
AcDbCircle
 62
7
  6
CONTINUOUS
 10
-0.7260914761
 20
35.577962578
 40
4.0
100
AcDbArc
 50
53.1301023542
 51
126.8698976458
  0
ARC
  5
312
100
AcDbEntity
  8
0
100
AcDbCircle
 62
7
  6
CONTINUOUS
 10
-27.1450169647
 20
35.577962578
 40
4.0
100
AcDbArc
 50
53.1301023542
 51
126.8698976458
  0
ARC
  5
313
100
AcDbEntity
  8
ASSI
100
AcDbCircle
 62
7
  6
CONTINUOUS
 10
-25.1950169647
 20
17.577962578
 40
0.6
100
AcDbArc
 50
203.9864164783
 51
270.0
  0
ARC
  5
314
100
AcDbEntity
  8
ASSI
100
AcDbCircle
 62
7
  6
CONTINUOUS
 10
-29.0950169647
 20
17.577962578
 40
0.6
100
AcDbArc
 50
270.0
 51
336.0135835217
  0
ARC
  5
315
100
AcDbEntity
  8
ASSI
100
AcDbCircle
 62
7
  6
CONTINUOUS
 10
-29.0950169647
 20
17.577962578
 40
0.6
100
AcDbArc
 50
23.9864164783
 51
90.0
  0
ARC
  5
316
100
AcDbEntity
  8
ASSI
100
AcDbCircle
 62
7
  6
CONTINUOUS
 10
-25.1950169647
 20
17.577962578
 40
0.6
100
AcDbArc
 50
90.0
 51
156.0135835217
  0
LINE
  5
317
100
AcDbEntity
  8
ASSI
100
AcDbLine
 62
7
  6
CONTINUOUS
 10
-2.5760914761
 20
16.977962578
 11
-2.6701114121
 21
16.9779625607
  0
SPLINE
  5
318
100
AcDbEntity
  8
ASSI
100
AcDbSpline
 62
7
  6
CONTINUOUS
 70
0
 71
3
 72
13
 73
9
 74
7
 42
0.0000001
 43
0.0000001
 44
0.0000000001
 12
0.617017335
 22
1.3409245719
 32
0.0
 13
1.4760721863
 23
0.0
 33
0.0
 40
0.0
 40
0.0
 40
0.0
 40
0.0
 40
0.1200542582
 40
0.2347648164
 40
0.3514272991
 40
0.4731227616
 40
0.7309059261
 40
1.0
 40
1.0
 40
1.0
 40
1.0
 10
-3.9316043056
 20
17.8218746085
 30
0.0
 10
-3.9069124528
 20
17.8755358434
 30
0.0
 10
-3.8393016764
 20
17.9730951417
 30
0.0
 10
-3.6941369718
 20
18.0722265724
 30
0.0
 10
-3.5286277113
 20
18.1291095265
 30
0.0
 10
-3.2872897507
 20
18.1695146175
 30
0.0
 10
-2.9675510973
 20
18.1786838518
 30
0.0
 10
-2.7084922354
 20
18.177962578
 30
0.0
 10
-2.5760914761
 20
18.177962578
 30
0.0
 11
-3.9316043056
 21
17.8218746085
 31
0.0
 11
-3.8300837445
 21
17.9671210103
 31
0.0
 11
-3.6917754053
 21
18.0647961157
 31
0.0
 11
-3.5299788737
 21
18.1237494516
 31
0.0
 11
-3.3532309633
 21
18.1558052714
 31
0.0
 11
-2.9732913066
 21
18.1765681904
 31
0.0
 11
-2.5760914761
 21
18.177962578
 31
0.0
  0
SPLINE
  5
319
100
AcDbEntity
  8
ASSI
100
AcDbSpline
 62
7
  6
CONTINUOUS
 70
0
 71
3
 72
12
 73
8
 74
6
 42
0.0000001
 43
0.0000001
 44
0.0000000001
 12
-0.587382836
 22
-1.2765217981
 32
0.0
 13
-1.4051784532
 23
-0.0001081458
 33
0.0
 40
0.0
 40
0.0
 40
0.0
 40
0.0
 40
0.1207046204
 40
0.2359358762
 40
0.4123140181
 40
0.6000317818
 40
1.0
 40
1.0
 40
1.0
 40
1.0
 10
2.4794213534
 20
17.3340505474
 30
0.0
 10
2.4557880793
 20
17.2826898544
 30
0.0
 10
2.3920252002
 20
17.1890497533
 30
0.0
 10
2.2325845872
 20
17.0747473025
 30
0.0
 10
2.0140666278
 20
17.0093461374
 30
0.0
 10
1.6575110036
 20
16.9745504752
 30
0.0
 10
1.381803137
 20
16.9779769928
 30
0.0
 10
1.1944608963
 20
16.9779625745
 30
0.0
 11
2.4794213534
 21
17.3340505474
 31
0.0
 11
2.3833554278
 21
17.1942671085
 31
0.0
 11
2.2530794893
 21
17.0981087955
 31
0.0
 11
2.0183158119
 21
17.0186603712
 31
0.0
 11
1.7564101054
 21
16.9872966293
 31
0.0
 11
1.1944608963
 21
16.9779625745
 31
0.0
  0
LINE
  5
31A
100
AcDbEntity
  8
ASSI
100
AcDbLine
 62
7
  6
CONTINUOUS
 10
-2.6701114121
 20
16.9779625607
 11
-2.7015129314
 21
16.9779727561
  0
SPLINE
  5
31B
100
AcDbEntity
  8
ASSI
100
AcDbSpline
 62
7
  6
CONTINUOUS
 70
0
 71
3
 72
13
 73
9
 74
7
 42
0.0000001
 43
0.0000001
 44
0.0000000001
 12
-1.3509383397
 22
0.0006589219
 32
0.0
 13
-0.5647098299
 23
1.2272479945
 33
0.0
 40
0.0
 40
0.0
 40
0.0
 40
0.0
 40
0.2690315916
 40
0.5251868218
 40
0.646248771
 40
0.7629661662
 40
0.8786754602
 40
1.0
 40
1.0
 40
1.0
 40
1.0
 10
-2.7015129314
 20
16.9779727561
 30
0.0
 10
-2.8226612952
 20
16.9780318464
 30
0.0
 10
-3.0589788102
 20
16.9780305519
 30
0.0
 10
-3.3505721659
 20
16.9928861064
 30
0.0
 10
-3.568986788
 20
17.0381582162
 30
0.0
 10
-3.7181313263
 20
17.0972157544
 30
0.0
 10
-3.8478264031
 20
17.1937679944
 30
0.0
 10
-3.9087665855
 20
17.2844187814
 30
0.0
 10
-3.9316043056
 20
17.3340505474
 30
0.0
 11
-2.7015129314
 21
16.9779727561
 31
0.0
 11
-3.064943748
 21
16.9811988358
 31
0.0
 11
-3.4099592396
 21
17.0079362094
 31
0.0
 11
-3.5696584356
 21
17.0432047387
 31
0.0
 11
-3.7153157953
 21
17.1035892769
 31
0.0
 11
-3.8395808224
 21
17.1984203831
 31
0.0
 11
-3.9316043056
 21
17.3340505474
 31
0.0
  0
LINE
  5
31C
100
AcDbEntity
  8
ASSI
100
AcDbLine
 62
7
  6
CONTINUOUS
 10
1.1944608963
 20
16.9779625745
 11
1.1239085239
 21
16.977962578
  0
SPLINE
  5
31D
100
AcDbEntity
  8
ASSI
100
AcDbSpline
 62
7
  6
CONTINUOUS
 70
0
 71
3
 72
13
 73
9
 74
7
 42
0.0000001
 43
0.0000001
 44
0.0000000001
 12
1.4760745889
 22
0.0
 32
0.0
 13
0.6170183393
 23
-1.3409267546
 33
0.0
 40
0.0
 40
0.0
 40
0.0
 40
0.0
 40
0.2691739044
 40
0.5270258099
 40
0.6487370676
 40
0.765379841
 40
0.8800453702
 40
1.0
 40
1.0
 40
1.0
 40
1.0
 10
1.1239085239
 20
18.177962578
 30
0.0
 10
1.2563487774
 20
18.177962578
 30
0.0
 10
1.5154805857
 20
18.1786845569
 30
0.0
 10
1.8353026572
 20
18.1695088092
 30
0.0
 10
2.0766664469
 20
18.1290580583
 30
0.0
 10
2.2421404718
 20
18.0721386207
 30
0.0
 10
2.3871953178
 20
17.9729930748
 30
0.0
 10
2.4547499512
 20
17.8754913993
 30
0.0
 10
2.4794213534
 20
17.8218746085
 30
0.0
 11
1.1239085239
 21
18.177962578
 31
0.0
 11
1.5212268341
 21
18.1765672392
 31
0.0
 11
1.9012674573
 21
18.1557810516
 31
0.0
 11
2.0780330692
 21
18.1236905596
 31
0.0
 11
2.2397859172
 21
18.0647015146
 31
0.0
 11
2.3780049906
 21
17.9670147698
 31
0.0
 11
2.4794213534
 21
17.8218746085
 31
0.0
  0
ELLIPSE
  5
31E
100
AcDbEntity
  8
CURVE
100
AcDbEllipse
 62
253
  6
CONTINUOUS
 10
-27.1450169647
 20
33.7386768932
 30
0.0
 11
4.15
 21
-0.0
 31
0.0
 40
0.5000000522
 41
-3.0640623311
 42
-3.0121436431
  0
ELLIPSE
  5
31F
100
AcDbEntity
  8
CURVE
100
AcDbEllipse
 62
253
  6
CONTINUOUS
 10
-27.1450169647
 20
34.0065340425
 30
0.0
 11
-0.0000000442
 21
4.1500002164
 31
0.0
 40
0.9999999478
 41
-4.5829399805
 42
-4.5306675954
  0
ELLIPSE
  5
320
100
AcDbEntity
  8
CURVE
100
AcDbEllipse
 62
253
  6
CONTINUOUS
 10
-27.1450169647
 20
32.3993911302
 30
0.0
 11
-0.6858621669
 21
4.0929320893
 31
0.0
 40
1.0
 41
1.2230451974
 42
1.2753175825
  0
ELLIPSE
  5
321
100
AcDbEntity
  8
CURVE
100
AcDbEllipse
 62
253
  6
CONTINUOUS
 10
-27.1450169647
 20
32.6672482795
 30
0.0
 11
4.15
 21
-0.0
 31
0.0
 40
0.5
 41
3.0121436431
 42
3.0640623311
  0
ELLIPSE
  5
322
100
AcDbEntity
  8
CURVE
100
AcDbEllipse
 62
253
  6
CONTINUOUS
 10
-27.1450169647
 20
28.4351053617
 30
0.0
 11
4.15
 21
-0.0000000004
 31
0.0
 40
0.9999993742
 41
3.1157722195
 42
3.1415926537
  0
ELLIPSE
  5
323
100
AcDbEntity
  8
CURVE
100
AcDbEllipse
 62
253
  6
CONTINUOUS
 10
-27.1450169647
 20
26.4958197773
 30
0.0
 11
4.15
 21
-0.0
 31
0.0
 40
0.299999516
 41
3.1415926536
 42
3.219122976
  0
ELLIPSE
  5
324
100
AcDbEntity
  8
CURVE
100
AcDbEllipse
 62
253
  6
CONTINUOUS
 10
-27.1450169647
 20
26.3029627156
 30
0.0
 11
4.15
 21
-0.0
 31
0.0
 40
0.3000001836
 41
3.0640623311
 42
3.1415926536
  0
ELLIPSE
  5
325
100
AcDbEntity
  8
CURVE
100
AcDbEllipse
 62
253
  6
CONTINUOUS
 10
-27.1450169647
 20
29.7922485775
 30
0.0
 11
-0.0
 21
6.916671284
 31
0.0
 40
0.5999995995
 41
-4.6865685463
 42
-4.6607308992
  0
ELLIPSE
  5
326
100
AcDbEntity
  8
CURVE
100
AcDbEllipse
 62
253
  6
CONTINUOUS
 10
-27.1450169647
 20
28.9886768094
 30
0.0
 11
4.15
 21
0.0
 31
0.0
 40
0.8333335419
 41
2.959871258
 42
3.0121436431
  0
ELLIPSE
  5
327
100
AcDbEntity
  8
CURVE
100
AcDbEllipse
 62
253
  6
CONTINUOUS
 10
-27.1450169647
 20
29.5065339586
 30
0.0
 11
0.0
 21
4.1500043288
 31
0.0
 40
0.9999989569
 41
1.5449758927
 42
1.5707963268
  0
ELLIPSE
  5
328
100
AcDbEntity
  8
CURVE
100
AcDbEllipse
 62
253
  6
CONTINUOUS
 10
-27.1450169647
 20
25.9172481901
 30
0.0
 11
4.15
 21
-0.0
 31
0.0
 40
0.2142858505
 41
-3.1415926536
 42
-2.959871258
  0
ELLIPSE
  5
329
100
AcDbEntity
  8
CURVE
100
AcDbEllipse
 62
253
  6
CONTINUOUS
 10
-27.1450169647
 20
26.8815338022
 30
0.0
 11
4.15
 21
0.0
 31
0.0
 40
0.2142858505
 41
2.959871258
 42
3.1415926536
  0
ELLIPSE
  5
32A
100
AcDbEntity
  8
CURVE
100
AcDbEllipse
 62
253
  6
CONTINUOUS
 10
-27.1450169647
 20
30.4976054818
 30
0.0
 11
4.15
 21
0.0
 31
0.0
 40
0.2499998696
 41
-3.1415926536
 42
-3.1157722195
  0
ELLIPSE
  5
32B
100
AcDbEntity
  8
CURVE
100
AcDbEllipse
 62
253
  6
CONTINUOUS
 10
-27.1450169647
 20
29.9351056969
 30
0.0
 11
4.15
 21
0.0000000006
 31
0.0
 40
0.9999995828
 41
2.9598712578
 42
3.012143643
  0
ELLIPSE
  5
32C
100
AcDbEntity
  8
CURVE
100
AcDbEllipse
 62
253
  6
CONTINUOUS
 10
-27.1450169647
 20
31.7565342939
 30
0.0
 11
0.0000000072
 21
4.1500017315
 31
0.0
 40
0.9999995828
 41
-4.5829399682
 42
-4.530667583
  0
ELLIPSE
  5
32D
100
AcDbEntity
  8
CURVE
100
AcDbEllipse
 62
253
  6
CONTINUOUS
 10
-27.1450169647
 20
31.1136768541
 30
0.0
 11
0.0000000044
 21
4.1500008658
 31
0.0
 40
0.9999997914
 41
1.5449758937
 42
1.5707963279
  0
ELLIPSE
  5
32E
100
AcDbEntity
  8
CURVE
100
AcDbEllipse
 62
253
  6
CONTINUOUS
 10
-27.1450169647
 20
26.4819622855
 30
0.0
 11
4.15
 21
0.0
 31
0.0
 40
0.7466669263
 41
2.6814655848
 42
2.8482469418
  0
ELLIPSE
  5
32F
100
AcDbEntity
  8
CURVE
100
AcDbEllipse
 62
253
  6
CONTINUOUS
 10
-27.1450169647
 20
32.5601055405
 30
0.0
 11
4.15
 21
0.0
 31
0.0
 40
0.5000002086
 41
-3.0640623311
 42
-3.0121436431
  0
ELLIPSE
  5
330
100
AcDbEntity
  8
CURVE
100
AcDbEllipse
 62
253
  6
CONTINUOUS
 10
-27.1450169647
 20
29.681961198
 30
0.0
 11
-0.0
 21
4.6479970911
 31
0.0
 40
0.8928577017
 41
-4.2522619116
 42
-4.1937516993
  0
ELLIPSE
  5
331
100
AcDbEntity
  8
CURVE
100
AcDbEllipse
 62
253
  6
CONTINUOUS
 10
-27.1450169647
 20
32.827962578
 30
0.0
 11
0.1479316433
 21
4.147362563
 31
0.0
 40
1.0
 41
-4.5472862375
 42
-4.4950138524
  0
ELLIPSE
  5
332
100
AcDbEntity
  8
CURVE
100
AcDbEllipse
 62
253
  6
CONTINUOUS
 10
-27.1450169647
 20
24.5939637443
 30
0.0
 11
0.0
 21
4.6479980607
 31
0.0
 40
0.8928575154
 41
0.8624189082
 42
0.928585468
  0
ELLIPSE
  5
333
100
AcDbEntity
  8
CURVE
100
AcDbEllipse
 62
253
  6
CONTINUOUS
 10
-27.1450169647
 20
31.220819459
 30
0.0
 11
0.0000000011
 21
4.1500017315
 31
0.0
 40
0.9999995828
 41
1.3890749314
 42
1.4413473166
  0
ELLIPSE
  5
334
100
AcDbEntity
  8
CURVE
100
AcDbEllipse
 62
253
  6
CONTINUOUS
 10
-27.1450169647
 20
28.3139629518
 30
0.0
 11
4.15
 21
-0.0
 31
0.0
 40
0.3199998474
 41
2.433215235
 42
2.8482469418
  0
ELLIPSE
  5
335
100
AcDbEntity
  8
CURVE
100
AcDbEllipse
 62
253
  6
CONTINUOUS
 10
-27.1450169647
 20
30.0419628488
 30
0.0
 11
4.15
 21
0.0
 31
0.0
 40
0.3200001144
 41
-2.8482469418
 42
-2.433215235
  0
ELLIPSE
  5
336
100
AcDbEntity
  8
CURVE
100
AcDbEllipse
 62
253
  6
CONTINUOUS
 10
-27.1450169647
 20
31.4886769435
 30
0.0
 11
4.15
 21
0.0
 31
0.0
 40
0.4999997914
 41
3.0121436431
 42
3.0640623311
  0
ELLIPSE
  5
337
100
AcDbEntity
  8
CURVE
100
AcDbEllipse
 62
253
  6
CONTINUOUS
 10
-27.1450169647
 20
31.6499630346
 30
0.0
 11
4.15
 21
-0.0
 31
0.0
 40
0.5600002044
 41
-2.6814655848
 42
-2.433215235
  0
ELLIPSE
  5
338
100
AcDbEntity
  8
CURVE
100
AcDbEllipse
 62
253
  6
CONTINUOUS
 10
-27.1450169647
 20
29.5859627045
 30
0.0
 11
4.15
 21
-0.0
 31
0.0
 40
0.5599999708
 41
2.433215235
 42
2.6814655848
  0
ELLIPSE
  5
339
100
AcDbEntity
  8
CURVE
100
AcDbEllipse
 62
253
  6
CONTINUOUS
 10
-27.1450169647
 20
33.4819625737
 30
0.0
 11
4.15
 21
0.0
 31
0.0
 40
0.3200000143
 41
-2.8482469418
 42
-2.433215235
  0
ELLIPSE
  5
33A
100
AcDbEntity
  8
CURVE
100
AcDbEllipse
 62
253
  6
CONTINUOUS
 10
-27.1450169647
 20
32.7139625393
 30
0.0
 11
4.15
 21
-0.0
 31
0.0
 40
0.3200000143
 41
2.433215235
 42
2.8482469418
  0
ENDSEC
  0
SECTION
  2
OBJECTS
  0
DICTIONARY
  5
C
100
AcDbDictionary
280
0
281
1
  3
ACAD_GROUP
350
D
  3
ACAD_MLINESTYLE
350
17
  3
ACAD_LAYOUT
350
1A
  3
ACAD_PLOTSETTINGS
350
19
  3
ACAD_PLOTSTYLENAME
350
E
  0
DICTIONARY
  5
D
102
{ACAD_REACTORS
330
C
102
}
100
AcDbDictionary
280
0
281
1
  0
ACDBDICTIONARYWDFLT
  5
E
102
{ACAD_REACTORS
330
C
102
}
100
AcDbDictionary
281
1
  3
Normal
350
F
100
AcDbDictionaryWithDefault
340
F
  0
DICTIONARY
  5
17
102
{ACAD_REACTORS
330
C
102
}
100
AcDbDictionary
280
0
281
1
  3
Standard
350
18
  0
DICTIONARY
  5
19
102
{ACAD_REACTORS
330
C
102
}
100
AcDbDictionary
281
1
  0
DICTIONARY
  5
1A
102
{ACAD_REACTORS
330
C
102
}
100
AcDbDictionary
281
1
  3
Model
350
33B
  3
Layout1
350
33C
  0
ACDBPLACEHOLDER
  5
F
102
{ACAD_REACTORS
330
E
102
}
  0
MLINESTYLE
  5
18
102
{ACAD_REACTORS
330
17
102
}
100
AcDbMlineStyle
  2
STANDARD
 70
0
  3

 62
256
 51
90.0
 52
90.0
 71
2
 49
0.5
 62
256
  6
BYLAYER
 49
-0.5
 62
256
  6
BYLAYER
  0
LAYOUT
  5
33B
102
{ACAD_REACTORS
330
1A
102
}
100
AcDbPlotSettings
  1

  2
none_device
  4
ANSI_C_(22.00_x_17.00_Inches)
  6

 40
0.0
 41
0.0
 42
0.0
 43
0.0
 44
558.8
 45
431.8
 46
0.0
 47
0.0
 48
0.0
 49
0.0
140
0.0
141
0.0
142
1.0
143
1.0
 70
1024
 72
1
 73
0
 74
0
  7

 75
0
147
1.0
148
0.0
149
0.0
100
AcDbLayout
  1
Model
 70
0
 71
0
 10
0.0
 20
0.0
 11
558.8
 21
431.8
 12
0.0
 22
0.0
 32
0.0
 14
0.0
 24
0.0
 34
0.0
 15
0.0
 25
0.0
 35
0.0
146
0.0
 13
0.0
 23
0.0
 33
0.0
 16
1.0
 26
0.0
 36
0.0
 17
0.0
 27
1.0
 37
0.0
 76
0
330
20B
345
0
346
0
  0
LAYOUT
  5
33C
102
{ACAD_REACTORS
330
1A
102
}
100
AcDbPlotSettings
  1

  2
none_device
  4
ANSI_C_(22.00_x_17.00_Inches)
  6

 40
0.0
 41
0.0
 42
0.0
 43
0.0
 44
558.8
 45
431.8
 46
0.0
 47
0.0
 48
0.0
 49
0.0
140
0.0
141
0.0
142
1.0
143
1.0
 70
0
 72
1
 73
0
 74
0
  7

 75
0
147
1.0
148
0.0
149
0.0
100
AcDbLayout
  1
Layout1
 70
0
 71
1
 10
0.0
 20
0.0
 11
558.8
 21
431.8
 12
0.0
 22
0.0
 32
0.0
 14
0.0
 24
0.0
 34
0.0
 15
0.0
 25
0.0
 35
0.0
146
0.0
 13
0.0
 23
0.0
 33
0.0
 16
1.0
 26
0.0
 36
0.0
 17
0.0
 27
1.0
 37
0.0
 76
0
330
20C
345
0
346
0
  0
ENDSEC
  0
EOF
