  0
SECTION
  2
HEADER
  9
$ACADVER
  1
AC1021
  9
$DWGCODEPAGE
  3
ANSI_1252
  9
$EXTMAX
 10
297.0
 20
210.0
 30
0.0
  9
$EXTMIN
 10
0.0
 20
0.0
 30
0.0
  9
$LIMMIN
 10
0.0
 20
0.0
  9
$LIMMAX
 10
297.0
 20
210.0
  9
$VIEWCTR
 10
148.5
 20
105.0
  9
$VIEWSIZE
 40
210.0
  9
$CLAYER
  8
0
  9
$LTSCALE
 40
16.335
  9
$CELTYPE
  6
BYLAYER
  9
$DIMSCALE
 40
1.0
  9
$DIMASZ
 40
3.0
  9
$DIMEXO
 40
0.5
  9
$DIMDLI
 40
11.286
  9
$DIMEXE
 40
1.5
  9
$DIMCEN
 40
2.673
  9
$DIMLFAC
 40
1.0
  9
$DIMBLK
  1
_FILLED
  9
$DIMALT
 70
0
  9
$DIMALTF
 40
0.0393700787
  9
$DIMTXT
 40
3.0
  9
$DIMTOL
 70
1
  9
$DIMLIM
 70
0
  9
$DIMTFAC
 40
1.0
  9
$DIMTP
 40
0.01
  9
$DIMTM
 40
0.01
  9
$DIMGAP
 40
0.625
  9
$DIMDSEP
 70
44
  9
$AUNITS
 70
0
  9
$PDMODE
 70
3
  9
$PDSIZE
 40
3.0
  9
$HANDSEED
  5
752
  9
$TILEMODE
 70
1
  9
$MEASUREMENT
 70
1
  9
$INSUNITS
 70
4
  0
ENDSEC
  0
SECTION
  2
CLASSES
  0
CLASS
  1
ACDBDICTIONARYWDFLT
  2
AcDbDictionaryWithDefault
  3
AutoCAD 2000
 90
0
 91
1
280
0
281
0
  0
CLASS
  1
ACDBPLACEHOLDER
  2
AcDbPlaceHolder
  3
AutoCAD 2000
 90
0
 91
1
280
0
281
0
  0
CLASS
  1
LAYOUT
  2
AcDbLayout
  3
AutoCAD 2000
 90
0
 91
0
280
0
281
0
  0
ENDSEC
  0
SECTION
  2
TABLES
  0
TABLE
  2
VPORT
  5
8
100
AcDbSymbolTable
 70
2
  0
VPORT
  5
1F4
100
AcDbSymbolTableRecord
100
AcDbViewportTableRecord
  2
*ACTIVE
 70
0
 10
0.0
 20
0.0
 11
1.0
 21
1.0
 12
148.5
 22
105.0
 13
0.0
 23
0.0
 14
1.0
 24
1.0
 15
0.0
 25
0.0
 16
0.0
 26
0.0
 36
1.0
 17
0.0
 27
0.0
 37
0.0
 40
210.0
 41
1.4142857143
 42
50.0
 43
0.0
 44
0.0
 50
0.0
 51
0.0
 71
0
 72
100
 73
1
 74
1
 75
0
 76
0
 77
0
 78
0
  0
ENDTAB
  0
TABLE
  2
LTYPE
  5
5
100
AcDbSymbolTable
 70
6
  0
LTYPE
  5
14
100
AcDbSymbolTableRecord
100
AcDbLinetypeTableRecord
  2
BYBLOCK
 70
0
  3

 72
65
 73
0
 40
0.0
  0
LTYPE
  5
15
100
AcDbSymbolTableRecord
100
AcDbLinetypeTableRecord
  2
BYLAYER
 70
0
  3

 72
65
 73
0
 40
0.0
  0
LTYPE
  5
16
100
AcDbSymbolTableRecord
100
AcDbLinetypeTableRecord
  2
CONTINUOUS
 70
64
  3
Solid line
 72
65
 73
0
 40
0.0
  0
LTYPE
  5
1F5
100
AcDbSymbolTableRecord
100
AcDbLinetypeTableRecord
  2
CENTER
 70
64
  3
____ _ ____ _ ____ _ ____ _ ____ _ ____ _ ____
 72
65
 73
4
 40
0.6
 49
0.375
 74
0
 49
-0.075
 74
0
 49
0.075
 74
0
 49
-0.075
 74
0
  0
LTYPE
  5
1F6
100
AcDbSymbolTableRecord
100
AcDbLinetypeTableRecord
  2
HIDDEN
 70
64
  3
- - - - - - - - - - - - - - - - - - - -
 72
65
 73
2
 40
0.2
 49
0.1
 74
0
 49
-0.1
 74
0
  0
LTYPE
  5
1F7
100
AcDbSymbolTableRecord
100
AcDbLinetypeTableRecord
  2
PHANTOM
 70
64
  3
_____ _ _ _____ _ _ _____ _ _ _____
 72
65
 73
6
 40
0.8
 49
0.45
 74
0
 49
-0.05
 74
0
 49
0.1
 74
0
 49
-0.05
 74
0
 49
0.1
 74
0
 49
-0.05
 74
0
  0
LTYPE
  5
1F8
100
AcDbSymbolTableRecord
100
AcDbLinetypeTableRecord
  2
DOT
 70
64
  3
. . . . . . . . . . . . . . . . . . . .
 72
65
 73
2
 40
0.2
 49
0.1
 74
0
 49
-0.1
 74
0
  0
LTYPE
  5
1F9
100
AcDbSymbolTableRecord
100
AcDbLinetypeTableRecord
  2
DASHED
 70
64
  3
- - - - - - - - - - - - - - - - - - - -
 72
65
 73
2
 40
0.2
 49
0.1
 74
0
 49
-0.1
 74
0
  0
ENDTAB
  0
TABLE
  2
LAYER
  5
2
100
AcDbSymbolTable
 70
36
  0
LAYER
  5
10
100
AcDbSymbolTableRecord
100
AcDbLayerTableRecord
  2
0
 70
0
 62
7
  6
CONTINUOUS
370
-3
390
F
  0
LAYER
  5
1FA
100
AcDbSymbolTableRecord
100
AcDbLayerTableRecord
  2
DEFAULT_1
 70
0
 62
7
  6
CENTER
370
-3
390
F
  0
LAYER
  5
1FB
100
AcDbSymbolTableRecord
100
AcDbLayerTableRecord
  2
DEFAULT_2
 70
0
 62
7
  6
HIDDEN
370
-3
390
F
  0
LAYER
  5
1FC
100
AcDbSymbolTableRecord
100
AcDbLayerTableRecord
  2
DEFAULT_3
 70
0
 62
7
  6
PHANTOM
370
-3
390
F
  0
LAYER
  5
1FD
100
AcDbSymbolTableRecord
100
AcDbLayerTableRecord
  2
ASSI
 70
0
 62
7
  6
CONTINUOUS
370
-3
390
F
  0
LAYER
  5
1FE
100
AcDbSymbolTableRecord
100
AcDbLayerTableRecord
  2
COLORI
 70
0
 62
7
  6
CONTINUOUS
370
-3
390
F
  0
LAYER
  5
1FF
100
AcDbSymbolTableRecord
100
AcDbLayerTableRecord
  2
COORDINATE
 70
0
 62
7
  6
CONTINUOUS
370
-3
390
F
  0
LAYER
  5
200
100
AcDbSymbolTableRecord
100
AcDbLayerTableRecord
  2
COPY_PUBLISH
 70
0
 62
7
  6
CONTINUOUS
370
-3
390
F
  0
LAYER
  5
201
100
AcDbSymbolTableRecord
100
AcDbLayerTableRecord
  2
COSMETICI
 70
0
 62
7
  6
CONTINUOUS
370
-3
390
F
  0
LAYER
  5
202
100
AcDbSymbolTableRecord
100
AcDbLayerTableRecord
  2
CURVE
 70
0
 62
7
  6
CONTINUOUS
370
-3
390
F
  0
LAYER
  5
203
100
AcDbSymbolTableRecord
100
AcDbLayerTableRecord
  2
DRAFT
 70
0
 62
7
  6
CONTINUOUS
370
-3
390
F
  0
LAYER
  5
204
100
AcDbSymbolTableRecord
100
AcDbLayerTableRecord
  2
IMPORT_IGES
 70
0
 62
7
  6
CONTINUOUS
370
-3
390
F
  0
LAYER
  5
205
100
AcDbSymbolTableRecord
100
AcDbLayerTableRecord
  2
NOTE
 70
0
 62
7
  6
CONTINUOUS
370
-3
390
F
  0
LAYER
  5
206
100
AcDbSymbolTableRecord
100
AcDbLayerTableRecord
  2
PIANI
 70
0
 62
7
  6
CONTINUOUS
370
-3
390
F
  0
LAYER
  5
207
100
AcDbSymbolTableRecord
100
AcDbLayerTableRecord
  2
PUNTI
 70
0
 62
7
  6
CONTINUOUS
370
-3
390
F
  0
LAYER
  5
208
100
AcDbSymbolTableRecord
100
AcDbLayerTableRecord
  2
RACCORDO
 70
0
 62
7
  6
CONTINUOUS
370
-3
390
F
  0
LAYER
  5
209
100
AcDbSymbolTableRecord
100
AcDbLayerTableRecord
  2
SCRITTE
 70
0
 62
7
  6
CONTINUOUS
370
-3
390
F
  0
LAYER
  5
20A
100
AcDbSymbolTableRecord
100
AcDbLayerTableRecord
  2
SIMBOLI
 70
0
 62
7
  6
CONTINUOUS
370
-3
390
F
  0
LAYER
  5
20B
100
AcDbSymbolTableRecord
100
AcDbLayerTableRecord
  2
SMUSSO
 70
0
 62
7
  6
CONTINUOUS
370
-3
390
F
  0
LAYER
  5
20C
100
AcDbSymbolTableRecord
100
AcDbLayerTableRecord
  2
SNAPLINE
 70
0
 62
7
  6
CONTINUOUS
370
-3
390
F
  0
LAYER
  5
20D
100
AcDbSymbolTableRecord
100
AcDbLayerTableRecord
  2
SUPERFICI
 70
0
 62
7
  6
CONTINUOUS
370
-3
390
F
  0
LAYER
  5
20E
100
AcDbSymbolTableRecord
100
AcDbLayerTableRecord
  2
TRASH
 70
0
 62
7
  6
CONTINUOUS
370
-3
390
F
  0
LAYER
  5
20F
100
AcDbSymbolTableRecord
100
AcDbLayerTableRecord
  2
XSEC_DATUMS
 70
0
 62
7
  6
CONTINUOUS
370
-3
390
F
  0
ENDTAB
  0
TABLE
  2
STYLE
  5
3
100
AcDbSymbolTable
 70
1
  0
STYLE
  5
11
100
AcDbSymbolTableRecord
100
AcDbTextStyleTableRecord
  2
STANDARD
 70
0
 40
0.0
 41
0.8
 50
0.0
 71
0
 42
0.2
  3
txt
  4

  0
STYLE
  5
210
100
AcDbSymbolTableRecord
100
AcDbTextStyleTableRecord
  2
TEXTSTYLE_1
 70
0
 40
0.0
 41
0.8
 50
0.0
 71
0
 42
0.2
  3
gdt
  4

  0
ENDTAB
  0
TABLE
  2
VIEW
  5
6
100
AcDbSymbolTable
 70
0
  0
ENDTAB
  0
TABLE
  2
UCS
  5
7
100
AcDbSymbolTable
 70
0
  0
ENDTAB
  0
TABLE
  2
APPID
  5
9
100
AcDbSymbolTable
 70
1
  0
APPID
  5
211
100
AcDbSymbolTableRecord
100
AcDbRegAppTableRecord
  2
ACAD
 70
0
  0
ENDTAB
  0
TABLE
  2
BLOCK_RECORD
  5
1
100
AcDbSymbolTable
 70
0
  0
BLOCK_RECORD
  5
212
100
AcDbSymbolTableRecord
100
AcDbBlockTableRecord
  2
*Model_Space
  0
BLOCK_RECORD
  5
213
100
AcDbSymbolTableRecord
100
AcDbBlockTableRecord
  2
*Paper_Space
  0
BLOCK_RECORD
  5
214
100
AcDbSymbolTableRecord
100
AcDbBlockTableRecord
  2
_FILLED
  0
BLOCK_RECORD
  5
215
100
AcDbSymbolTableRecord
100
AcDbBlockTableRecord
  2
*D0
  0
BLOCK_RECORD
  5
216
100
AcDbSymbolTableRecord
100
AcDbBlockTableRecord
  2
*D1
  0
BLOCK_RECORD
  5
217
100
AcDbSymbolTableRecord
100
AcDbBlockTableRecord
  2
*D2
  0
BLOCK_RECORD
  5
218
100
AcDbSymbolTableRecord
100
AcDbBlockTableRecord
  2
*D3
  0
BLOCK_RECORD
  5
219
100
AcDbSymbolTableRecord
100
AcDbBlockTableRecord
  2
*D4
  0
BLOCK_RECORD
  5
21A
100
AcDbSymbolTableRecord
100
AcDbBlockTableRecord
  2
*D5
  0
BLOCK_RECORD
  5
21B
100
AcDbSymbolTableRecord
100
AcDbBlockTableRecord
  2
*D6
  0
ENDTAB
  0
TABLE
  2
DIMSTYLE
  5
A
100
AcDbSymbolTable
 70
1
100
AcDbDimStyleTable
 71
0
  0
DIMSTYLE
105
21C
100
AcDbSymbolTableRecord
100
AcDbDimStyleTableRecord
  2
STANDARD
 70
0
  3

  4

 40
1.0
 41
3.0
 42
0.5
 43
0.38
 44
1.5
 45
0.0
 46
0.0
 47
0.01
 48
0.01
140
3.0
141
0.09
142
0.0
143
25.4
144
1.0
145
0.0
146
1.0
147
0.625
 71
1.0
 72
0.0
 73
0
 74
0
 75
0
 76
0
 77
1
 78
8
170
0
171
2
172
0
173
0
174
0
175
0
176
0
177
0
178
0
270
2
271
2
272
2
273
2
274
2
275
0
280
0
281
0
282
0
283
1
284
8
285
0
286
0
287
3
288
0
340
11
278
44
341
214
342
214
343
214
344
214
  0
DIMSTYLE
105
21D
100
AcDbSymbolTableRecord
100
AcDbDimStyleTableRecord
  2
DIMSTYLE_1
 70
0
  3

  4

 40
1.0
 41
3.0
 42
0.5
 43
0.38
 44
1.5
 45
0.0
 46
0.0
 47
0.0
 48
0.0
140
3.0
141
0.09
142
0.0
143
25.4
144
1.0
145
0.0
146
1.0
147
0.75
 71
0.0
 72
0.0
 73
0
 74
0
 75
0
 76
0
 77
1
 78
8
170
0
171
2
172
0
173
0
174
0
175
0
176
0
177
0
178
0
270
2
271
1
272
1
273
2
274
2
275
0
280
0
281
0
282
0
283
1
284
8
285
0
286
0
287
3
288
0
340
11
278
44
341
214
342
214
343
214
344
214
  0
DIMSTYLE
105
21E
100
AcDbSymbolTableRecord
100
AcDbDimStyleTableRecord
  2
DIMSTYLE_2
 70
0
  3

  4

 40
1.0
 41
3.0
 42
0.5
 43
0.38
 44
1.5
 45
0.0
 46
0.0
 47
0.0
 48
0.0
140
3.0
141
0.09
142
0.0
143
25.4
144
1.0
145
0.0
146
1.0
147
0.75
 71
0.0
 72
0.0
 73
0
 74
0
 75
0
 76
0
 77
1
 78
8
170
0
171
2
172
0
173
0
174
0
175
0
176
0
177
0
178
0
270
2
271
2
272
2
273
2
274
2
275
0
280
0
281
0
282
0
283
1
284
8
285
0
286
0
287
3
288
0
340
11
278
44
341
214
342
214
343
214
344
214
  0
ENDTAB
  0
ENDSEC
  0
SECTION
  2
BLOCKS
  0
BLOCK
  5
20
100
AcDbEntity
  8
0
100
AcDbBlockBegin
  2
*Model_Space
 70
0
 10
0.0
 20
0.0
 30
0.0
  3
*Model_Space
  1

  0
ENDBLK
  5
21
100
AcDbEntity
  8
0
100
AcDbBlockEnd
  0
BLOCK
  5
1C
100
AcDbEntity
  8
0
100
AcDbBlockBegin
  2
*Paper_Space
 70
0
 10
0.0
 20
0.0
 30
0.0
  3
*Paper_Space
  1

  0
ENDBLK
  5
1D
100
AcDbEntity
  8
0
100
AcDbBlockEnd
  0
BLOCK
  5
21F
100
AcDbEntity
  8
0
100
AcDbBlockBegin
  2
_FILLED
 70
64
 10
0.0
 20
0.0
  3
_FILLED
  1

  0
SOLID
  5
220
100
AcDbEntity
  8
0
  6
BYBLOCK
 62
0
100
AcDbTrace
 10
0.0
 20
0.0
 11
-1.0
 21
0.3166666667
 12
-1.0
 22
-0.3166666667
 13
-1.0
 23
-0.3166666667
  0
ENDBLK
  5
221
100
AcDbEntity
  8
0
  6
BYBLOCK
 62
0
100
AcDbBlockEnd
  0
BLOCK
  5
222
100
AcDbEntity
  8
0
100
AcDbBlockBegin
 62
7
  6
CONTINUOUS
  2
*D0
 70
65
 10
0.0
 20
0.0
  3
*D0
  1

  0
MTEXT
  5
223
100
AcDbEntity
  8
0
100
AcDbMText
 62
7
  6
CONTINUOUS
  7
STANDARD
 71
2
 72
1
 10
45.2165247421
 20
-9.4084087681
 30
0.0
 11
1.0
 21
0.0
 31
0.0
 44
0.9
  1
36,5
 40
3.0
 41
12.5357142857
  0
LINE
  5
224
100
AcDbEntity
  8
0
100
AcDbLine
 62
7
  6
CONTINUOUS
 10
63.4896604237
 20
3.5758627574
 11
63.4896620558
 21
-14.6584071324
  0
LINE
  5
225
100
AcDbEntity
  8
0
100
AcDbLine
 62
7
  6
CONTINUOUS
 10
26.9433859143
 20
5.256478386
 11
26.9433876969
 21
-14.6584104037
  0
LINE
  5
226
100
AcDbEntity
  8
0
100
AcDbLine
 62
7
  6
CONTINUOUS
 10
63.4896619216
 20
-13.1584071324
 11
45.2165247421
 21
-13.1584087681
  0
LINE
  5
227
100
AcDbEntity
  8
0
100
AcDbLine
 62
7
  6
CONTINUOUS
 10
26.9433875626
 20
-13.1584104037
 11
45.2165247421
 21
-13.1584087681
  0
INSERT
  5
228
100
AcDbEntity
  8
0
100
AcDbBlockReference
 62
7
  6
CONTINUOUS
  2
_FILLED
 10
63.4896619216
 20
-13.1584071324
 41
3.0
 42
3.0
 43
3.0
 50
0.0000051285
  0
INSERT
  5
229
100
AcDbEntity
  8
0
100
AcDbBlockReference
 62
7
  6
CONTINUOUS
  2
_FILLED
 10
26.9433875626
 20
-13.1584104037
 41
3.0
 42
3.0
 43
3.0
 50
180.0000051285
  0
ENDBLK
  5
22A
100
AcDbEntity
  8
0
  6
BYBLOCK
 62
0
100
AcDbBlockEnd
  0
BLOCK
  5
22B
100
AcDbEntity
  8
0
100
AcDbBlockBegin
 62
7
  6
CONTINUOUS
  2
*D1
 70
65
 10
0.0
 20
0.0
  3
*D1
  1

  0
MTEXT
  5
22C
100
AcDbEntity
  8
0
100
AcDbMText
 62
7
  6
CONTINUOUS
  7
STANDARD
 71
2
 72
1
 10
38.1641016964
 20
-2.2959027682
 30
0.0
 11
1.0
 21
0.0
 31
0.0
 44
0.9
  1
22,4
 40
3.0
 41
13.1785714286
  0
LINE
  5
22D
100
AcDbEntity
  8
0
100
AcDbLine
 62
7
  6
CONTINUOUS
 10
49.3883772552
 20
2.1479462395
 11
49.3883772552
 21
-7.5459027682
  0
LINE
  5
22E
100
AcDbEntity
  8
0
100
AcDbLine
 62
7
  6
CONTINUOUS
 10
26.9398261377
 20
7.6175660624
 11
26.9398261377
 21
-7.5459027682
  0
LINE
  5
22F
100
AcDbEntity
  8
0
100
AcDbLine
 62
7
  6
CONTINUOUS
 10
49.3883772552
 20
-6.0459027682
 11
38.1641016964
 21
-6.0459027682
  0
LINE
  5
230
100
AcDbEntity
  8
0
100
AcDbLine
 62
7
  6
CONTINUOUS
 10
26.9398261377
 20
-6.0459027682
 11
38.1641016964
 21
-6.0459027682
  0
INSERT
  5
231
100
AcDbEntity
  8
0
100
AcDbBlockReference
 62
7
  6
CONTINUOUS
  2
_FILLED
 10
49.3883772552
 20
-6.0459027682
 41
3.0
 42
3.0
 43
3.0
 50
0.0
  0
INSERT
  5
232
100
AcDbEntity
  8
0
100
AcDbBlockReference
 62
7
  6
CONTINUOUS
  2
_FILLED
 10
26.9398261377
 20
-6.0459027682
 41
3.0
 42
3.0
 43
3.0
 50
180.0
  0
ENDBLK
  5
233
100
AcDbEntity
  8
0
  6
BYBLOCK
 62
0
100
AcDbBlockEnd
  0
BLOCK
  5
234
100
AcDbEntity
  8
0
100
AcDbBlockBegin
 62
7
  6
CONTINUOUS
  2
*D2
 70
65
 10
0.0
 20
0.0
  3
*D2
  1

  0
MTEXT
  5
235
100
AcDbEntity
  8
0
100
AcDbMText
 62
7
  6
CONTINUOUS
  7
STANDARD
 71
1
 72
1
 10
68.3587213964
 20
17.2183917315
 30
0.0
 11
0.0
 21
1.0
 31
0.0
 44
0.9
  1
5,8
 40
3.0
 41
9.3214285714
  0
LINE
  5
236
100
AcDbEntity
  8
0
100
AcDbLine
 62
7
  6
CONTINUOUS
 10
63.9298831853
 20
2.856478386
 11
73.6087213964
 21
2.856478386
  0
LINE
  5
237
100
AcDbEntity
  8
0
100
AcDbLine
 62
7
  6
CONTINUOUS
 10
63.9203679854
 20
8.6469631601
 11
73.6087213964
 21
8.6469631601
  0
LINE
  5
238
100
AcDbEntity
  8
0
100
AcDbLine
 62
7
  6
CONTINUOUS
 10
72.1087213964
 20
2.856478386
 11
72.1087213964
 21
-1.143521614
  0
LINE
  5
239
100
AcDbEntity
  8
0
100
AcDbLine
 62
7
  6
CONTINUOUS
 10
72.1087213964
 20
-1.143521614
 11
72.1087213964
 21
5.7517207731
  0
LINE
  5
23A
100
AcDbEntity
  8
0
100
AcDbLine
 62
7
  6
CONTINUOUS
 10
72.1087213964
 20
8.6469631601
 11
72.1087213964
 21
23.4326774458
  0
LINE
  5
23B
100
AcDbEntity
  8
0
100
AcDbLine
 62
7
  6
CONTINUOUS
 10
72.1087213964
 20
23.4326774458
 11
72.1087213964
 21
5.7517207731
  0
INSERT
  5
23C
100
AcDbEntity
  8
0
100
AcDbBlockReference
 62
7
  6
CONTINUOUS
  2
_FILLED
 10
72.1087213964
 20
2.856478386
 41
3.0
 42
3.0
 43
3.0
 50
90.0
  0
INSERT
  5
23D
100
AcDbEntity
  8
0
100
AcDbBlockReference
 62
7
  6
CONTINUOUS
  2
_FILLED
 10
72.1087213964
 20
8.6469631601
 41
3.0
 42
3.0
 43
3.0
 50
270.0
  0
ENDBLK
  5
23E
100
AcDbEntity
  8
0
  6
BYBLOCK
 62
0
100
AcDbBlockEnd
  0
BLOCK
  5
23F
100
AcDbEntity
  8
0
100
AcDbBlockBegin
 62
7
  6
CONTINUOUS
  2
*D3
 70
65
 10
0.0
 20
0.0
  3
*D3
  1

  0
MTEXT
  5
240
100
AcDbEntity
  8
0
100
AcDbMText
 62
7
  6
CONTINUOUS
  7
STANDARD
 71
2
 72
1
 10
-28.3345733442
 20
21.8801664397
 30
0.0
 11
1.0
 21
0.0
 31
0.0
 44
0.9
  1
7,5
 40
3.0
 41
9.3214285714
  0
LINE
  5
241
100
AcDbEntity
  8
0
100
AcDbLine
 62
7
  6
CONTINUOUS
 10
-32.0845733442
 20
9.3650105325
 11
-32.0845733442
 21
19.6301664397
  0
LINE
  5
242
100
AcDbEntity
  8
0
100
AcDbLine
 62
7
  6
CONTINUOUS
 10
-24.5845733442
 20
9.3451231846
 11
-24.5845733442
 21
19.6301664397
  0
LINE
  5
243
100
AcDbEntity
  8
0
100
AcDbLine
 62
7
  6
CONTINUOUS
 10
-32.0845733442
 20
18.1301664397
 11
-36.0845733442
 21
18.1301664397
  0
LINE
  5
244
100
AcDbEntity
  8
0
100
AcDbLine
 62
7
  6
CONTINUOUS
 10
-36.0845733442
 20
18.1301664397
 11
-28.3345733442
 21
18.1301664397
  0
LINE
  5
245
100
AcDbEntity
  8
0
100
AcDbLine
 62
7
  6
CONTINUOUS
 10
-24.5845733442
 20
18.1301664397
 11
-20.5845733442
 21
18.1301664397
  0
LINE
  5
246
100
AcDbEntity
  8
0
100
AcDbLine
 62
7
  6
CONTINUOUS
 10
-20.5845733442
 20
18.1301664397
 11
-28.3345733442
 21
18.1301664397
  0
INSERT
  5
247
100
AcDbEntity
  8
0
100
AcDbBlockReference
 62
7
  6
CONTINUOUS
  2
_FILLED
 10
-32.0845733442
 20
18.1301664397
 41
3.0
 42
3.0
 43
3.0
  0
INSERT
  5
248
100
AcDbEntity
  8
0
100
AcDbBlockReference
 62
7
  6
CONTINUOUS
  2
_FILLED
 10
-24.5845733442
 20
18.1301664397
 41
3.0
 42
3.0
 43
3.0
 50
180.0
  0
ENDBLK
  5
249
100
AcDbEntity
  8
0
  6
BYBLOCK
 62
0
100
AcDbBlockEnd
  0
BLOCK
  5
24A
100
AcDbEntity
  8
0
100
AcDbBlockBegin
 62
7
  6
CONTINUOUS
  2
*D4
 70
65
 10
0.0
 20
0.0
  3
*D4
  1

  0
MTEXT
  5
24B
100
AcDbEntity
  8
0
100
AcDbMText
 62
7
  6
CONTINUOUS
  7
STANDARD
 71
2
 72
1
 10
-7.7617473113
 20
5.756478386
 30
0.0
 11
0.0
 21
1.0
 31
0.0
 44
0.9
  1
7,6
 40
3.0
 41
9.6428571429
  0
LINE
  5
24C
100
AcDbEntity
  8
0
100
AcDbLine
 62
7
  6
CONTINUOUS
 10
-27.8345733442
 20
9.5588595403
 11
-2.5117473113
 21
9.5588595403
  0
LINE
  5
24D
100
AcDbEntity
  8
0
100
AcDbLine
 62
7
  6
CONTINUOUS
 10
-27.8345733442
 20
1.9540972318
 11
-2.5117473113
 21
1.9540972318
  0
LINE
  5
24E
100
AcDbEntity
  8
0
100
AcDbLine
 62
7
  6
CONTINUOUS
 10
-4.0117473113
 20
9.5588595403
 11
-4.0117473113
 21
13.5588595403
  0
LINE
  5
24F
100
AcDbEntity
  8
0
100
AcDbLine
 62
7
  6
CONTINUOUS
 10
-4.0117473113
 20
13.5588595403
 11
-4.0117473113
 21
5.756478386
  0
LINE
  5
250
100
AcDbEntity
  8
0
100
AcDbLine
 62
7
  6
CONTINUOUS
 10
-4.0117473113
 20
1.9540972318
 11
-4.0117473113
 21
-2.0459027682
  0
LINE
  5
251
100
AcDbEntity
  8
0
100
AcDbLine
 62
7
  6
CONTINUOUS
 10
-4.0117473113
 20
-2.0459027682
 11
-4.0117473113
 21
5.756478386
  0
INSERT
  5
252
100
AcDbEntity
  8
0
100
AcDbBlockReference
 62
7
  6
CONTINUOUS
  2
_FILLED
 10
-4.0117473113
 20
9.5588595403
 41
3.0
 42
3.0
 43
3.0
 50
270.0
  0
INSERT
  5
253
100
AcDbEntity
  8
0
100
AcDbBlockReference
 62
7
  6
CONTINUOUS
  2
_FILLED
 10
-4.0117473113
 20
1.9540972318
 41
3.0
 42
3.0
 43
3.0
 50
90.0
  0
ENDBLK
  5
254
100
AcDbEntity
  8
0
  6
BYBLOCK
 62
0
100
AcDbBlockEnd
  0
BLOCK
  5
255
100
AcDbEntity
  8
0
100
AcDbBlockBegin
 62
7
  6
CONTINUOUS
  2
*D5
 70
65
 10
0.0
 20
0.0
  3
*D5
  1

  0
MTEXT
  5
256
100
AcDbEntity
  8
0
100
AcDbMText
 62
7
  6
CONTINUOUS
  7
STANDARD
 71
2
 72
1
 10
33.0631607347
 20
-17.7638845641
 30
0.0
 11
1.0
 21
0.0
 31
0.0
 44
0.9
  1
132,6
 40
3.0
 41
15.4285714286
  0
LINE
  5
257
100
AcDbEntity
  8
0
100
AcDbLine
 62
7
  6
CONTINUOUS
 10
63.4896604237
 20
3.575856339
 11
63.4896628037
 21
-23.0138818407
  0
LINE
  5
258
100
AcDbEntity
  8
0
100
AcDbLine
 62
7
  6
CONTINUOUS
 10
2.6366564932
 20
4.256478386
 11
2.6366589342
 21
-23.0138872875
  0
LINE
  5
259
100
AcDbEntity
  8
0
100
AcDbLine
 62
7
  6
CONTINUOUS
 10
63.4896626694
 20
-21.5138818407
 11
33.0631607347
 21
-21.5138845641
  0
LINE
  5
25A
100
AcDbEntity
  8
0
100
AcDbLine
 62
7
  6
CONTINUOUS
 10
2.6366587999
 20
-21.5138872875
 11
33.0631607347
 21
-21.5138845641
  0
INSERT
  5
25B
100
AcDbEntity
  8
0
100
AcDbBlockReference
 62
7
  6
CONTINUOUS
  2
_FILLED
 10
63.4896626694
 20
-21.5138818407
 41
3.0
 42
3.0
 43
3.0
 50
0.0000051285
  0
INSERT
  5
25C
100
AcDbEntity
  8
0
100
AcDbBlockReference
 62
7
  6
CONTINUOUS
  2
_FILLED
 10
2.6366587999
 20
-21.5138872875
 41
3.0
 42
3.0
 43
3.0
 50
180.0000051285
  0
ENDBLK
  5
25D
100
AcDbEntity
  8
0
  6
BYBLOCK
 62
0
100
AcDbBlockEnd
  0
BLOCK
  5
25E
100
AcDbEntity
  8
0
100
AcDbBlockBegin
 62
7
  6
CONTINUOUS
  2
*D6
 70
65
 10
0.0
 20
0.0
  3
*D6
  1

  0
MTEXT
  5
25F
100
AcDbEntity
  8
0
100
AcDbMText
 62
7
  6
CONTINUOUS
  7
STANDARD
 71
2
 72
1
 10
7.6366564485
 20
-2.2959027682
 30
0.0
 11
1.0
 21
0.0
 31
0.0
 44
0.9
  1
10
 40
3.0
 41
6.1071428571
  0
LINE
  5
260
100
AcDbEntity
  8
0
100
AcDbLine
 62
7
  6
CONTINUOUS
 10
2.6366564485
 20
4.256478386
 11
2.6366564485
 21
-7.5459027682
  0
LINE
  5
261
100
AcDbEntity
  8
0
100
AcDbLine
 62
7
  6
CONTINUOUS
 10
12.6366564485
 20
3.506478386
 11
12.6366564485
 21
-7.5459027682
  0
LINE
  5
262
100
AcDbEntity
  8
0
100
AcDbLine
 62
7
  6
CONTINUOUS
 10
2.6366564485
 20
-6.0459027682
 11
-1.3633435515
 21
-6.0459027682
  0
LINE
  5
263
100
AcDbEntity
  8
0
100
AcDbLine
 62
7
  6
CONTINUOUS
 10
-1.3633435515
 20
-6.0459027682
 11
7.6366564485
 21
-6.0459027682
  0
LINE
  5
264
100
AcDbEntity
  8
0
100
AcDbLine
 62
7
  6
CONTINUOUS
 10
12.6366564485
 20
-6.0459027682
 11
16.6366564485
 21
-6.0459027682
  0
LINE
  5
265
100
AcDbEntity
  8
0
100
AcDbLine
 62
7
  6
CONTINUOUS
 10
16.6366564485
 20
-6.0459027682
 11
7.6366564485
 21
-6.0459027682
  0
INSERT
  5
266
100
AcDbEntity
  8
0
100
AcDbBlockReference
 62
7
  6
CONTINUOUS
  2
_FILLED
 10
2.6366564485
 20
-6.0459027682
 41
3.0
 42
3.0
 43
3.0
  0
INSERT
  5
267
100
AcDbEntity
  8
0
100
AcDbBlockReference
 62
7
  6
CONTINUOUS
  2
_FILLED
 10
12.6366564485
 20
-6.0459027682
 41
3.0
 42
3.0
 43
3.0
 50
180.0
  0
ENDBLK
  5
268
100
AcDbEntity
  8
0
  6
BYBLOCK
 62
0
100
AcDbBlockEnd
  0
ENDSEC
  0
SECTION
  2
ENTITIES
  0
DIMENSION
  5
269
100
AcDbEntity
  8
0
100
AcDbDimension
 62
7
  6
CONTINUOUS
  2
*D0
 10
26.9433875626
 20
-13.1584104037
 11
44.7879545833
 21
-13.1584088064
 70
160
 71
2
 42
36.5462743589
  3
DIMSTYLE_1
100
AcDbAlignedDimension
 13
63.4896603789
 23
4.0758627574
 14
26.9433858696
 24
5.756478386
 50
180.0000051285
100
AcDbRotatedDimension
  0
DIMENSION
  5
26A
100
AcDbEntity
  8
0
100
AcDbDimension
 62
7
  6
CONTINUOUS
  2
*D1
 10
26.9398261377
 20
-6.0459027682
 11
37.7355310936
 21
-6.0459027682
 70
160
 71
2
 42
22.4485511175
  3
DIMSTYLE_1
100
AcDbAlignedDimension
 13
49.3883772552
 23
2.6479462395
 14
26.9398261377
 24
8.1175660624
 50
180.0
100
AcDbRotatedDimension
  0
DIMENSION
  5
26B
100
AcDbEntity
  8
0
100
AcDbDimension
 62
7
  6
CONTINUOUS
  2
*D2
 10
72.1087213964
 20
8.6469631601
 11
72.1087213964
 21
19.8969652036
 70
160
 71
1
 42
5.7904847741
  3
DIMSTYLE_1
100
AcDbAlignedDimension
 13
63.4298831853
 23
2.856478386
 14
63.4203679854
 24
8.6469631601
 50
90.0
100
AcDbRotatedDimension
  0
DIMENSION
  5
26C
100
AcDbEntity
  8
0
100
AcDbDimension
 62
7
  6
CONTINUOUS
  2
*D3
 10
-24.5845733442
 20
18.1301664397
 11
-28.763144371
 21
18.1301664397
 70
160
 71
2
 42
7.5
  3
DIMSTYLE_2
100
AcDbAlignedDimension
 13
-32.0845733442
 23
8.8650105325
 14
-24.5845733442
 24
8.8451231846
100
AcDbRotatedDimension
  0
DIMENSION
  5
26D
100
AcDbEntity
  8
0
100
AcDbDimension
 62
7
  6
CONTINUOUS
  2
*D4
 10
-4.0117473113
 20
1.9540972318
 11
-4.0117473113
 21
5.327906895
 70
160
 71
2
 42
7.6047623085
  3
DIMSTYLE_2
100
AcDbAlignedDimension
 13
-28.3345733442
 23
9.5588595403
 14
-28.3345733442
 24
1.9540972318
 50
270.0
100
AcDbRotatedDimension
  0
DIMENSION
  5
26E
100
AcDbEntity
  8
0
100
AcDbDimension
 62
7
  6
CONTINUOUS
  2
*D5
 10
2.6366587999
 20
-21.5138872875
 11
32.634589368
 21
-21.5138846025
 70
160
 71
2
 42
132.5597923632
  3
DIMSTYLE_1
100
AcDbAlignedDimension
 13
63.4896603789
 23
4.075856339
 14
2.6366564485
 24
4.756478386
 50
180.0000051285
100
AcDbRotatedDimension
  0
DIMENSION
  5
26F
100
AcDbEntity
  8
0
100
AcDbDimension
 62
7
  6
CONTINUOUS
  2
*D6
 10
12.6366564485
 20
-6.0459027682
 11
7.2080850534
 21
-6.0459027682
 70
160
 71
2
 42
10.0
  3
DIMSTYLE_2
100
AcDbAlignedDimension
 13
2.6366564485
 23
4.756478386
 14
12.6366564485
 24
4.006478386
100
AcDbRotatedDimension
  0
LINE
  5
270
100
AcDbEntity
  8
0
100
AcDbLine
 62
7
  6
CONTINUOUS
 10
2.6366564485
 20
4.356478386
 11
2.6366564485
 21
5.156478386
  0
LINE
  5
271
100
AcDbEntity
  8
0
100
AcDbLine
 62
7
  6
CONTINUOUS
 10
2.6366564485
 20
6.356478386
 11
2.6366564485
 21
7.156478386
  0
LINE
  5
272
100
AcDbEntity
  8
0
100
AcDbLine
 62
7
  6
CONTINUOUS
 10
17.8077244096
 20
4.006478386
 11
12.6366564485
 21
4.006478386
  0
LINE
  5
273
100
AcDbEntity
  8
0
100
AcDbLine
 62
7
  6
CONTINUOUS
 10
12.6366564485
 20
4.356478386
 11
2.6366564485
 21
4.356478386
  0
LINE
  5
274
100
AcDbEntity
  8
0
100
AcDbLine
 62
7
  6
CONTINUOUS
 10
12.6366564485
 20
5.156478386
 11
2.6366564485
 21
5.156478386
  0
LINE
  5
275
100
AcDbEntity
  8
0
100
AcDbLine
 62
7
  6
CONTINUOUS
 10
17.8077244096
 20
5.506478386
 11
12.6366564485
 21
5.506478386
  0
LINE
  5
276
100
AcDbEntity
  8
0
100
AcDbLine
 62
7
  6
CONTINUOUS
 10
17.8077244096
 20
6.006478386
 11
12.6366564485
 21
6.006478386
  0
LINE
  5
277
100
AcDbEntity
  8
0
100
AcDbLine
 62
7
  6
CONTINUOUS
 10
12.6366564485
 20
6.356478386
 11
2.6366564485
 21
6.356478386
  0
LINE
  5
278
100
AcDbEntity
  8
0
100
AcDbLine
 62
7
  6
CONTINUOUS
 10
12.6366564485
 20
7.156478386
 11
2.6366564485
 21
7.156478386
  0
LINE
  5
279
100
AcDbEntity
  8
0
100
AcDbLine
 62
7
  6
CONTINUOUS
 10
17.8077244096
 20
7.506478386
 11
12.6366564485
 21
7.506478386
  0
LINE
  5
27A
100
AcDbEntity
  8
0
100
AcDbLine
 62
7
  6
CONTINUOUS
 10
12.6366564485
 20
4.006478386
 11
12.6366564485
 21
5.506478386
  0
LINE
  5
27B
100
AcDbEntity
  8
0
100
AcDbLine
 62
7
  6
CONTINUOUS
 10
12.6366564485
 20
6.006478386
 11
12.6366564485
 21
7.506478386
  0
LINE
  5
27C
100
AcDbEntity
  8
0
100
AcDbLine
 62
7
  6
CONTINUOUS
 10
17.8077244096
 20
4.006478386
 11
17.8077244096
 21
5.506478386
  0
LINE
  5
27D
100
AcDbEntity
  8
0
100
AcDbLine
 62
7
  6
CONTINUOUS
 10
17.8077244096
 20
6.006478386
 11
17.8077244096
 21
7.506478386
  0
LINE
  5
27E
100
AcDbEntity
  8
0
100
AcDbLine
 62
7
  6
CONTINUOUS
 10
23.7665300921
 20
7.506478386
 11
23.7665300921
 21
6.006478386
  0
LINE
  5
27F
100
AcDbEntity
  8
0
100
AcDbLine
 62
7
  6
CONTINUOUS
 10
23.7665300921
 20
5.506478386
 11
23.7665300921
 21
4.006478386
  0
LWPOLYLINE
  5
280
100
AcDbEntity
  8
0
100
AcDbPolyline
 62
7
  6
CONTINUOUS
 90
24
 70
0
 10
27.3676358801
 20
6.5468339904
 10
27.3626819405
 20
6.5940409504
 10
27.3590459542
 20
6.6394151738
 10
27.3565919857
 20
6.6827467313
 10
27.3554559705
 20
6.7241516415
 10
27.3551973095
 20
6.7641922956
 10
27.3557187208
 20
6.8028219467
 10
27.3571174865
 20
6.8400405513
 10
27.3592448533
 20
6.8764878295
 10
27.3620261891
 20
6.9121539647
 10
27.3655361261
 20
6.9470192672
 10
27.3698498073
 20
6.9817055262
 10
27.3749376098
 20
7.0163799581
 10
27.3808291564
 20
7.0508425874
 10
27.3876884586
 20
7.0851593631
 10
27.3955228929
 20
7.1194400026
 10
27.4043250828
 20
7.1535408472
 10
27.4142369095
 20
7.1871517326
 10
27.4252690341
 20
7.2202834376
 10
27.4374107955
 20
7.2529044582
 10
27.4507720917
 20
7.2846544393
 10
27.4653895551
 20
7.3154168925
 10
27.4812265531
 20
7.3453111499
 10
27.4982830859
 20
7.3743399265
  0
LWPOLYLINE
  5
281
100
AcDbEntity
  8
RACCORDO
100
AcDbPolyline
 62
7
  6
PHANTOM
 90
6
 70
0
 10
26.9394434861
 20
8.1378034522
 10
26.9393417507
 20
8.1411698749
 10
26.9392388085
 20
8.1438186679
 10
26.9391350301
 20
8.1457375707
 10
26.9390300451
 20
8.1469388439
 10
26.9389238534
 20
8.1474224875
  0
LWPOLYLINE
  5
282
100
AcDbEntity
  8
ASSI
100
AcDbPolyline
 62
7
  6
CONTINUOUS
 90
6
 70
0
 10
26.9394434861
 20
8.1378034522
 10
26.9393417507
 20
8.1411698749
 10
26.9392388085
 20
8.1438186679
 10
26.9391350301
 20
8.1457375707
 10
26.9390300451
 20
8.1469388439
 10
26.9389238534
 20
8.1474224875
  0
LINE
  5
283
100
AcDbEntity
  8
DRAFT
100
AcDbLine
 62
7
  6
PHANTOM
 10
26.9298679549
 20
7.813894935
 11
26.9307464624
 21
7.7797144943
  0
LINE
  5
284
100
AcDbEntity
  8
ASSI
100
AcDbLine
 62
7
  6
CONTINUOUS
 10
26.9298679549
 20
7.813894935
 11
26.9307464624
 21
7.7797144943
  0
LINE
  5
285
100
AcDbEntity
  8
RACCORDO
100
AcDbLine
 62
7
  6
PHANTOM
 10
26.9396396329
 20
8.1290403232
 11
26.9394434861
 21
8.1378034522
  0
LINE
  5
286
100
AcDbEntity
  8
ASSI
100
AcDbLine
 62
7
  6
CONTINUOUS
 10
26.9396396329
 20
8.1290403232
 11
26.9394434861
 21
8.1378034522
  0
LINE
  5
287
100
AcDbEntity
  8
DRAFT
100
AcDbLine
 62
7
  6
PHANTOM
 10
26.9307464624
 20
7.7797144943
 11
26.9323649916
 21
7.6861510704
  0
LINE
  5
288
100
AcDbEntity
  8
ASSI
100
AcDbLine
 62
7
  6
CONTINUOUS
 10
26.9307464624
 20
7.7797144943
 11
26.9323649916
 21
7.6861510704
  0
LINE
  5
289
100
AcDbEntity
  8
RACCORDO
100
AcDbLine
 62
7
  6
PHANTOM
 10
26.9403761324
 20
8.0765282394
 11
26.9396396329
 21
8.1290403232
  0
LINE
  5
28A
100
AcDbEntity
  8
ASSI
100
AcDbLine
 62
7
  6
CONTINUOUS
 10
26.9403761324
 20
8.0765282394
 11
26.9396396329
 21
8.1290403232
  0
LINE
  5
28B
100
AcDbEntity
  8
DRAFT
100
AcDbLine
 62
7
  6
PHANTOM
 10
26.9323649916
 20
7.6861510704
 11
26.9342459397
 21
7.506478386
  0
LINE
  5
28C
100
AcDbEntity
  8
ASSI
100
AcDbLine
 62
7
  6
CONTINUOUS
 10
26.9323649916
 20
7.6861510704
 11
26.9342459397
 21
7.506478386
  0
LINE
  5
28D
100
AcDbEntity
  8
DRAFT
100
AcDbLine
 62
7
  6
PHANTOM
 10
26.9324774001
 20
5.6778972951
 11
26.9342442353
 21
5.506478386
  0
LINE
  5
28E
100
AcDbEntity
  8
ASSI
100
AcDbLine
 62
7
  6
CONTINUOUS
 10
26.9324774001
 20
5.6778972951
 11
26.9342442353
 21
5.506478386
  0
LINE
  5
28F
100
AcDbEntity
  8
DRAFT
100
AcDbLine
 62
7
  6
PHANTOM
 10
26.939753403
 20
5.4730686863
 11
26.9377111271
 21
5.6777484431
  0
LINE
  5
290
100
AcDbEntity
  8
ASSI
100
AcDbLine
 62
7
  6
CONTINUOUS
 10
26.939753403
 20
5.4730686863
 11
26.9377111271
 21
5.6777484431
  0
LINE
  5
291
100
AcDbEntity
  8
RACCORDO
100
AcDbLine
 62
7
  6
PHANTOM
 10
26.9428350748
 20
7.8305721075
 11
26.9403761324
 21
8.0765282394
  0
LINE
  5
292
100
AcDbEntity
  8
ASSI
100
AcDbLine
 62
7
  6
CONTINUOUS
 10
26.9428350748
 20
7.8305721075
 11
26.9403761324
 21
8.0765282394
  0
LINE
  5
293
100
AcDbEntity
  8
RACCORDO
100
AcDbLine
 62
7
  6
PHANTOM
 10
26.9455515965
 20
7.3207996809
 11
26.9428350748
 21
7.8305721075
  0
LINE
  5
294
100
AcDbEntity
  8
ASSI
100
AcDbLine
 62
7
  6
CONTINUOUS
 10
26.9455515965
 20
7.3207996809
 11
26.9428350748
 21
7.8305721075
  0
LINE
  5
295
100
AcDbEntity
  8
DRAFT
100
AcDbLine
 62
7
  6
PHANTOM
 10
26.94180342
 20
5.0142548876
 11
26.939753403
 21
5.4730686863
  0
LINE
  5
296
100
AcDbEntity
  8
ASSI
100
AcDbLine
 62
7
  6
CONTINUOUS
 10
26.94180342
 20
5.0142548876
 11
26.939753403
 21
5.4730686863
  0
LINE
  5
297
100
AcDbEntity
  8
RACCORDO
100
AcDbLine
 62
7
  6
PHANTOM
 10
26.9461593594
 20
5.0806193865
 11
26.9433858696
 21
5.756478386
  0
LINE
  5
298
100
AcDbEntity
  8
ASSI
100
AcDbLine
 62
7
  6
CONTINUOUS
 10
26.9461593594
 20
5.0806193865
 11
26.9433858696
 21
5.756478386
  0
LINE
  5
299
100
AcDbEntity
  8
DRAFT
100
AcDbLine
 62
7
  6
PHANTOM
 10
26.9298679549
 20
3.356478386
 11
26.9298679549
 21
3.6574683412
  0
LINE
  5
29A
100
AcDbEntity
  8
ASSI
100
AcDbLine
 62
7
  6
CONTINUOUS
 10
26.9298679549
 20
3.356478386
 11
26.9298679549
 21
3.6574683412
  0
LINE
  5
29B
100
AcDbEntity
  8
DRAFT
100
AcDbLine
 62
7
  6
PHANTOM
 10
26.9298679549
 20
7.8554884308
 11
26.9298679549
 21
8.156478386
  0
LINE
  5
29C
100
AcDbEntity
  8
ASSI
100
AcDbLine
 62
7
  6
CONTINUOUS
 10
26.9298679549
 20
7.8554884308
 11
26.9298679549
 21
8.156478386
  0
LINE
  5
29D
100
AcDbEntity
  8
DRAFT
100
AcDbLine
 62
7
  6
PHANTOM
 10
26.9324774001
 20
5.8350594769
 11
26.9324774001
 21
5.6778972951
  0
LINE
  5
29E
100
AcDbEntity
  8
ASSI
100
AcDbLine
 62
7
  6
CONTINUOUS
 10
26.9324774001
 20
5.8350594769
 11
26.9324774001
 21
5.6778972951
  0
LINE
  5
29F
100
AcDbEntity
  8
DRAFT
100
AcDbLine
 62
7
  6
PHANTOM
 10
26.9377111271
 20
5.6777484431
 11
26.9377111271
 21
5.835208329
  0
LINE
  5
2A0
100
AcDbEntity
  8
ASSI
100
AcDbLine
 62
7
  6
CONTINUOUS
 10
26.9377111271
 20
5.6777484431
 11
26.9377111271
 21
5.835208329
  0
LINE
  5
2A1
100
AcDbEntity
  8
RACCORDO
100
AcDbLine
 62
7
  6
PHANTOM
 10
26.9462769815
 20
6.5061772184
 11
26.9455515965
 21
7.3207996809
  0
LINE
  5
2A2
100
AcDbEntity
  8
ASSI
100
AcDbLine
 62
7
  6
CONTINUOUS
 10
26.9462769815
 20
6.5061772184
 11
26.9455515965
 21
7.3207996809
  0
LINE
  5
2A3
100
AcDbEntity
  8
DRAFT
100
AcDbLine
 62
7
  6
PHANTOM
 10
26.9415488285
 20
4.3987624027
 11
26.94180342
 21
5.0142548876
  0
LINE
  5
2A4
100
AcDbEntity
  8
ASSI
100
AcDbLine
 62
7
  6
CONTINUOUS
 10
26.9415488285
 20
4.3987624027
 11
26.94180342
 21
5.0142548876
  0
LINE
  5
2A5
100
AcDbEntity
  8
RACCORDO
100
AcDbLine
 62
7
  6
PHANTOM
 10
26.9457690375
 20
4.263262901
 11
26.9461593594
 21
5.0806193865
  0
LINE
  5
2A6
100
AcDbEntity
  8
ASSI
100
AcDbLine
 62
7
  6
CONTINUOUS
 10
26.9457690375
 20
4.263262901
 11
26.9461593594
 21
5.0806193865
  0
LINE
  5
2A7
100
AcDbEntity
  8
RACCORDO
100
AcDbLine
 62
7
  6
PHANTOM
 10
26.9441593199
 20
5.8785691282
 11
26.9462769815
 21
6.5061772184
  0
LINE
  5
2A8
100
AcDbEntity
  8
ASSI
100
AcDbLine
 62
7
  6
CONTINUOUS
 10
26.9441593199
 20
5.8785691282
 11
26.9462769815
 21
6.5061772184
  0
LINE
  5
2A9
100
AcDbEntity
  8
RACCORDO
100
AcDbLine
 62
7
  6
PHANTOM
 10
26.9433858696
 20
5.756478386
 11
26.9441593199
 21
5.8785691282
  0
LINE
  5
2AA
100
AcDbEntity
  8
ASSI
100
AcDbLine
 62
7
  6
CONTINUOUS
 10
26.9433858696
 20
5.756478386
 11
26.9441593199
 21
5.8785691282
  0
LINE
  5
2AB
100
AcDbEntity
  8
DRAFT
100
AcDbLine
 62
7
  6
PHANTOM
 10
26.9397520937
 20
4.0397136644
 11
26.9415488285
 21
4.3987624027
  0
LINE
  5
2AC
100
AcDbEntity
  8
ASSI
100
AcDbLine
 62
7
  6
CONTINUOUS
 10
26.9397520937
 20
4.0397136644
 11
26.9415488285
 21
4.3987624027
  0
LINE
  5
2AD
100
AcDbEntity
  8
RACCORDO
100
AcDbLine
 62
7
  6
PHANTOM
 10
26.9432645086
 20
3.7393710396
 11
26.9457690375
 21
4.263262901
  0
LINE
  5
2AE
100
AcDbEntity
  8
ASSI
100
AcDbLine
 62
7
  6
CONTINUOUS
 10
26.9432645086
 20
3.7393710396
 11
26.9457690375
 21
4.263262901
  0
LINE
  5
2AF
100
AcDbEntity
  8
RACCORDO
100
AcDbLine
 62
7
  6
PHANTOM
 10
26.9409070036
 20
3.4802058684
 11
26.9432645086
 21
3.7393710396
  0
LINE
  5
2B0
100
AcDbEntity
  8
ASSI
100
AcDbLine
 62
7
  6
CONTINUOUS
 10
26.9409070036
 20
3.4802058684
 11
26.9432645086
 21
3.7393710396
  0
LINE
  5
2B1
100
AcDbEntity
  8
DRAFT
100
AcDbLine
 62
7
  6
PHANTOM
 10
26.9342442353
 20
6.006478386
 11
26.9324774001
 21
5.8350594769
  0
LINE
  5
2B2
100
AcDbEntity
  8
ASSI
100
AcDbLine
 62
7
  6
CONTINUOUS
 10
26.9342442353
 20
6.006478386
 11
26.9324774001
 21
5.8350594769
  0
LINE
  5
2B3
100
AcDbEntity
  8
DRAFT
100
AcDbLine
 62
7
  6
PHANTOM
 10
26.937706818
 20
3.8348873423
 11
26.9397520937
 21
4.0397136644
  0
LINE
  5
2B4
100
AcDbEntity
  8
ASSI
100
AcDbLine
 62
7
  6
CONTINUOUS
 10
26.937706818
 20
3.8348873423
 11
26.9397520937
 21
4.0397136644
  0
LINE
  5
2B5
100
AcDbEntity
  8
DRAFT
100
AcDbLine
 62
7
  6
PHANTOM
 10
26.9342459397
 20
4.006478386
 11
26.9323649916
 21
3.8268057016
  0
LINE
  5
2B6
100
AcDbEntity
  8
ASSI
100
AcDbLine
 62
7
  6
CONTINUOUS
 10
26.9342459397
 20
4.006478386
 11
26.9323649916
 21
3.8268057016
  0
LINE
  5
2B7
100
AcDbEntity
  8
RACCORDO
100
AcDbLine
 62
7
  6
PHANTOM
 10
26.9397340443
 20
3.3893131552
 11
26.9409070036
 21
3.4802058684
  0
LINE
  5
2B8
100
AcDbEntity
  8
ASSI
100
AcDbLine
 62
7
  6
CONTINUOUS
 10
26.9397340443
 20
3.3893131552
 11
26.9409070036
 21
3.4802058684
  0
LINE
  5
2B9
100
AcDbEntity
  8
DRAFT
100
AcDbLine
 62
7
  6
PHANTOM
 10
26.9323649916
 20
3.8268057016
 11
26.9307464624
 21
3.7332422777
  0
LINE
  5
2BA
100
AcDbEntity
  8
ASSI
100
AcDbLine
 62
7
  6
CONTINUOUS
 10
26.9323649916
 20
3.8268057016
 11
26.9307464624
 21
3.7332422777
  0
LINE
  5
2BB
100
AcDbEntity
  8
DRAFT
100
AcDbLine
 62
7
  6
PHANTOM
 10
26.9307464624
 20
3.7332422777
 11
26.9298679549
 21
3.699061837
  0
LINE
  5
2BC
100
AcDbEntity
  8
ASSI
100
AcDbLine
 62
7
  6
CONTINUOUS
 10
26.9307464624
 20
3.7332422777
 11
26.9298679549
 21
3.699061837
  0
LWPOLYLINE
  5
2BD
100
AcDbEntity
  8
DRAFT
100
AcDbPolyline
 62
7
  6
PHANTOM
 90
6
 70
0
 10
26.9324860152
 20
3.6574683412
 10
26.9334615191
 20
3.663323167
 10
26.9343628667
 20
3.6789189654
 10
26.9352403476
 20
3.7039110878
 10
26.9360940154
 20
3.7385704356
 10
26.937706818
 20
3.8348873423
  0
LWPOLYLINE
  5
2BE
100
AcDbEntity
  8
ASSI
100
AcDbPolyline
 62
7
  6
CONTINUOUS
 90
6
 70
0
 10
26.9324860152
 20
3.6574683412
 10
26.9334615191
 20
3.663323167
 10
26.9343628667
 20
3.6789189654
 10
26.9352403476
 20
3.7039110878
 10
26.9360940154
 20
3.7385704356
 10
26.937706818
 20
3.8348873423
  0
LWPOLYLINE
  5
2BF
100
AcDbEntity
  8
RACCORDO
100
AcDbPolyline
 62
253
  6
PHANTOM
 90
9
 70
0
 10
28.7371342023
 20
3.5731786894
 10
28.7401763491
 20
3.5384567665
 10
28.7492000968
 20
3.5047886899
 10
28.7639317618
 20
3.4731972255
 10
28.7839242761
 20
3.4446421326
 10
28.8085706428
 20
3.4199911445
 10
28.8371222782
 20
3.3999935214
 10
28.8687119164
 20
3.3852570876
 10
28.9014270282
 20
3.3764853376
  0
LWPOLYLINE
  5
2C0
100
AcDbEntity
  8
ASSI
100
AcDbPolyline
 62
253
  6
CONTINUOUS
 90
9
 70
0
 10
28.7371342023
 20
3.5731786894
 10
28.7401763491
 20
3.5384567665
 10
28.7492000968
 20
3.5047886899
 10
28.7639317618
 20
3.4731972255
 10
28.7839242761
 20
3.4446421326
 10
28.8085706428
 20
3.4199911445
 10
28.8371222782
 20
3.3999935214
 10
28.8687119164
 20
3.3852570876
 10
28.9014270282
 20
3.3764853376
  0
LWPOLYLINE
  5
2C1
100
AcDbEntity
  8
RACCORDO
100
AcDbPolyline
 62
253
  6
CONTINUOUS
 90
16
 70
0
 10
28.9403440333
 20
2.7168630815
 10
28.9436689533
 20
2.6539712306
 10
28.9535687121
 20
2.5917727176
 10
28.9699341386
 20
2.5309530101
 10
28.9925878952
 20
2.4721754613
 10
29.0212786189
 20
2.4160953682
 10
29.0556766046
 20
2.3633492193
 10
29.095387221
 20
2.3145248346
 10
29.1399752521
 20
2.2701423346
 10
29.1889622201
 20
2.2306724406
 10
29.2418882093
 20
2.1965031764
 10
29.2981014988
 20
2.1680714859
 10
29.3567415506
 20
2.1457674833
 10
29.4170564134
 20
2.1297779288
 10
29.4784504121
 20
2.1201651952
 10
29.5402526504
 20
2.1169544645
  0
LWPOLYLINE
  5
2C2
100
AcDbEntity
  8
RACCORDO
100
AcDbPolyline
 62
253
  6
PHANTOM
 90
7
 70
0
 10
28.7401925416
 20
7.8816802747
 10
28.7397356313
 20
7.8987482449
 10
28.7392451922
 20
7.9132034812
 10
28.7387381384
 20
7.9245806196
 10
28.7382201078
 20
7.9327245386
 10
28.7376854624
 20
7.9377903596
 10
28.7371342023
 20
7.9397780826
  0
LWPOLYLINE
  5
2C3
100
AcDbEntity
  8
ASSI
100
AcDbPolyline
 62
253
  6
CONTINUOUS
 90
7
 70
0
 10
28.7401925416
 20
7.8816802747
 10
28.7397356313
 20
7.8987482449
 10
28.7392451922
 20
7.9132034812
 10
28.7387381384
 20
7.9245806196
 10
28.7382201078
 20
7.9327245386
 10
28.7376854624
 20
7.9377903596
 10
28.7371342023
 20
7.9397780826
  0
LINE
  5
2C4
100
AcDbEntity
  8
RACCORDO
100
AcDbLine
 62
253
  6
PHANTOM
 10
28.7410028007
 20
7.8395385554
 11
28.7401925416
 21
7.8816802747
  0
LINE
  5
2C5
100
AcDbEntity
  8
ASSI
100
AcDbLine
 62
253
  6
CONTINUOUS
 10
28.7410028007
 20
7.8395385554
 11
28.7401925416
 21
7.8816802747
  0
LINE
  5
2C6
100
AcDbEntity
  8
RACCORDO
100
AcDbLine
 62
7
  6
PHANTOM
 10
28.7312177461
 20
7.7200287917
 11
28.7276283967
 21
7.9445306234
  0
LINE
  5
2C7
100
AcDbEntity
  8
ASSI
100
AcDbLine
 62
7
  6
CONTINUOUS
 10
28.7312177461
 20
7.7200287917
 11
28.7276283967
 21
7.9445306234
  0
LINE
  5
2C8
100
AcDbEntity
  8
RACCORDO
100
AcDbLine
 62
253
  6
PHANTOM
 10
28.7416401098
 20
7.7890188318
 11
28.7410028007
 21
7.8395385554
  0
LINE
  5
2C9
100
AcDbEntity
  8
ASSI
100
AcDbLine
 62
253
  6
CONTINUOUS
 10
28.7416401098
 20
7.7890188318
 11
28.7410028007
 21
7.8395385554
  0
LINE
  5
2CA
100
AcDbEntity
  8
RACCORDO
100
AcDbLine
 62
7
  6
CONTINUOUS
 10
28.9018280256
 20
8.1152545461
 11
28.902739731
 21
8.0437400792
  0
LINE
  5
2CB
100
AcDbEntity
  8
RACCORDO
100
AcDbLine
 62
7
  6
PHANTOM
 10
28.7340001215
 20
7.4606105527
 11
28.7312177461
 21
7.7200287917
  0
LINE
  5
2CC
100
AcDbEntity
  8
ASSI
100
AcDbLine
 62
7
  6
CONTINUOUS
 10
28.7340001215
 20
7.4606105527
 11
28.7312177461
 21
7.7200287917
  0
LINE
  5
2CD
100
AcDbEntity
  8
RACCORDO
100
AcDbLine
 62
7
  6
CONTINUOUS
 10
28.902739731
 20
8.0437400792
 11
28.9033054763
 21
7.9628489034
  0
LINE
  5
2CE
100
AcDbEntity
  8
RACCORDO
100
AcDbLine
 62
253
  6
PHANTOM
 10
28.7422223172
 20
7.7020650373
 11
28.7416401098
 21
7.7890188318
  0
LINE
  5
2CF
100
AcDbEntity
  8
ASSI
100
AcDbLine
 62
253
  6
CONTINUOUS
 10
28.7422223172
 20
7.7020650373
 11
28.7416401098
 21
7.7890188318
  0
LINE
  5
2D0
100
AcDbEntity
  8
RACCORDO
100
AcDbLine
 62
253
  6
PHANTOM
 10
28.7423369708
 20
7.468947402
 11
28.7422223172
 21
7.7020650373
  0
LINE
  5
2D1
100
AcDbEntity
  8
ASSI
100
AcDbLine
 62
253
  6
CONTINUOUS
 10
28.7423369708
 20
7.468947402
 11
28.7422223172
 21
7.7020650373
  0
LINE
  5
2D2
100
AcDbEntity
  8
RACCORDO
100
AcDbLine
 62
7
  6
CONTINUOUS
 10
28.8298679549
 20
8.9068438898
 11
28.8298679549
 21
8.3374978342
  0
LINE
  5
2D3
100
AcDbEntity
  8
RACCORDO
100
AcDbLine
 62
7
  6
CONTINUOUS
 10
28.8298679549
 20
3.1754589378
 11
28.8298679549
 21
2.6061128822
  0
LINE
  5
2D4
100
AcDbEntity
  8
RACCORDO
100
AcDbLine
 62
7
  6
CONTINUOUS
 10
28.8598679549
 20
2.6363870031
 11
28.8598679549
 21
3.1754589378
  0
LINE
  5
2D5
100
AcDbEntity
  8
RACCORDO
100
AcDbLine
 62
7
  6
CONTINUOUS
 10
28.8598679549
 20
8.3374978342
 11
28.8598679549
 21
8.8765697689
  0
LINE
  5
2D6
100
AcDbEntity
  8
RACCORDO
100
AcDbLine
 62
7
  6
CONTINUOUS
 10
28.9035056172
 20
3.6386159844
 11
28.9033054763
 21
7.9628489034
  0
LINE
  5
2D7
100
AcDbEntity
  8
RACCORDO
100
AcDbLine
 62
253
  6
CONTINUOUS
 10
28.9403440333
 20
2.7168630815
 11
28.9403440333
 21
8.7960936905
  0
LINE
  5
2D8
100
AcDbEntity
  8
RACCORDO
100
AcDbLine
 62
253
  6
PHANTOM
 10
28.7422233232
 20
3.8111088833
 11
28.7423369708
 21
4.0440093701
  0
LINE
  5
2D9
100
AcDbEntity
  8
ASSI
100
AcDbLine
 62
253
  6
CONTINUOUS
 10
28.7422233232
 20
3.8111088833
 11
28.7423369708
 21
4.0440093701
  0
LINE
  5
2DA
100
AcDbEntity
  8
RACCORDO
100
AcDbLine
 62
7
  6
CONTINUOUS
 10
28.9035056172
 20
3.6386159844
 11
28.9033054763
 21
3.5501078686
  0
LINE
  5
2DB
100
AcDbEntity
  8
RACCORDO
100
AcDbLine
 62
7
  6
CONTINUOUS
 10
28.9033054763
 20
3.5501078686
 11
28.902739731
 21
3.4692166928
  0
LINE
  5
2DC
100
AcDbEntity
  8
RACCORDO
100
AcDbLine
 62
253
  6
PHANTOM
 10
28.7416430454
 20
3.7242373215
 11
28.7422233232
 21
3.8111088833
  0
LINE
  5
2DD
100
AcDbEntity
  8
ASSI
100
AcDbLine
 62
253
  6
CONTINUOUS
 10
28.7416430454
 20
3.7242373215
 11
28.7422233232
 21
3.8111088833
  0
LINE
  5
2DE
100
AcDbEntity
  8
RACCORDO
100
AcDbLine
 62
7
  6
PHANTOM
 10
28.7312177461
 20
3.7929279804
 11
28.7340001215
 21
4.0523462193
  0
LINE
  5
2DF
100
AcDbEntity
  8
ASSI
100
AcDbLine
 62
7
  6
CONTINUOUS
 10
28.7312177461
 20
3.7929279804
 11
28.7340001215
 21
4.0523462193
  0
LINE
  5
2E0
100
AcDbEntity
  8
RACCORDO
100
AcDbLine
 62
253
  6
PHANTOM
 10
28.7410069187
 20
3.6736838711
 11
28.7416430454
 21
3.7242373215
  0
LINE
  5
2E1
100
AcDbEntity
  8
ASSI
100
AcDbLine
 62
253
  6
CONTINUOUS
 10
28.7410069187
 20
3.6736838711
 11
28.7416430454
 21
3.7242373215
  0
LWPOLYLINE
  5
2E2
100
AcDbEntity
  8
RACCORDO
100
AcDbPolyline
 62
7
  6
CONTINUOUS
 90
8
 70
0
 10
28.902739731
 20
3.4692166928
 10
28.9018280256
 20
3.3977022259
 10
28.9012636617
 20
3.3678415723
 10
28.9006291781
 20
3.3417915702
 10
28.899954214
 20
3.3207701806
 10
28.8992486494
 20
3.3051833904
 10
28.8985026044
 20
3.2946252126
 10
28.8977160791
 20
3.2890956472
  0
LINE
  5
2E3
100
AcDbEntity
  8
RACCORDO
100
AcDbLine
 62
7
  6
PHANTOM
 10
28.7276283967
 20
3.5684261486
 11
28.7312177461
 21
3.7929279804
  0
LINE
  5
2E4
100
AcDbEntity
  8
ASSI
100
AcDbLine
 62
7
  6
CONTINUOUS
 10
28.7276283967
 20
3.5684261486
 11
28.7312177461
 21
3.7929279804
  0
LWPOLYLINE
  5
2E5
100
AcDbEntity
  8
RACCORDO
100
AcDbPolyline
 62
7
  6
PHANTOM
 90
16
 70
0
 10
28.7276283967
 20
7.9445306234
 10
28.7279593624
 20
7.9608743222
 10
28.7295223207
 20
7.9766029096
 10
28.732186366
 20
7.9916349225
 10
28.7358030265
 20
8.0058554285
 10
28.740252872
 20
8.019273228
 10
28.7454836724
 20
8.0320062765
 10
28.7513959485
 20
8.0440083262
 10
28.7579060515
 20
8.0552748829
 10
28.7650573539
 20
8.0659673286
 10
28.7728155439
 20
8.0760775204
 10
28.7811139321
 20
8.0855567474
 10
28.7900015164
 20
8.0944730152
 10
28.7994778435
 20
8.1028179531
 10
28.8094722146
 20
8.1105260764
 10
28.8199437241
 20
8.1175660624
  0
LWPOLYLINE
  5
2E6
100
AcDbEntity
  8
ASSI
100
AcDbPolyline
 62
7
  6
CONTINUOUS
 90
16
 70
0
 10
28.7276283967
 20
7.9445306234
 10
28.7279593624
 20
7.9608743222
 10
28.7295223207
 20
7.9766029096
 10
28.732186366
 20
7.9916349225
 10
28.7358030265
 20
8.0058554285
 10
28.740252872
 20
8.019273228
 10
28.7454836724
 20
8.0320062765
 10
28.7513959485
 20
8.0440083262
 10
28.7579060515
 20
8.0552748829
 10
28.7650573539
 20
8.0659673286
 10
28.7728155439
 20
8.0760775204
 10
28.7811139321
 20
8.0855567474
 10
28.7900015164
 20
8.0944730152
 10
28.7994778435
 20
8.1028179531
 10
28.8094722146
 20
8.1105260764
 10
28.8199437241
 20
8.1175660624
  0
LWPOLYLINE
  5
2E7
100
AcDbEntity
  8
RACCORDO
100
AcDbPolyline
 62
253
  6
CONTINUOUS
 90
16
 70
0
 10
28.9403440333
 20
8.7960936905
 10
28.9436689504
 20
8.8589855146
 10
28.9535687013
 20
8.9211840041
 10
28.9699341158
 20
8.982003692
 10
28.992587858
 20
9.0407812275
 10
29.0212785656
 20
9.0968613118
 10
29.0556765311
 20
9.1496074519
 10
29.0953871183
 20
9.1984318239
 10
29.1399751145
 20
9.2428143141
 10
29.1889620543
 20
9.2822842116
 10
29.2418880277
 20
9.3164534915
 10
29.2981013136
 20
9.3448852043
 10
29.3567413805
 20
9.3671892341
 10
29.4170562802
 20
9.3831788153
 10
29.4784503359
 20
9.392791569
 10
29.5402526504
 20
9.3960023076
  0
LWPOLYLINE
  5
2E8
100
AcDbEntity
  8
RACCORDO
100
AcDbPolyline
 62
7
  6
CONTINUOUS
 90
16
 70
0
 10
28.8298679549
 20
8.9068438898
 10
28.8334565844
 20
8.9707061447
 10
28.84325198
 20
9.0325374924
 10
28.8592541415
 20
9.0923379328
 10
28.881772711
 20
9.1507117232
 10
28.9104980465
 20
9.2070546064
 10
28.9445012219
 20
9.2595538105
 10
28.9839523034
 20
9.308084334
 10
29.0286812248
 20
9.3527711785
 10
29.0772488618
 20
9.3921765768
 10
29.1298009514
 20
9.4261303352
 10
29.1861917566
 20
9.4548026474
 10
29.2445449426
 20
9.4772663273
 10
29.3042350646
 20
9.4932123126
 10
29.3658875674
 20
9.5029496655
 10
29.4295024511
 20
9.506478386
  0
LWPOLYLINE
  5
2E9
100
AcDbEntity
  8
RACCORDO
100
AcDbPolyline
 62
7
  6
CONTINUOUS
 90
16
 70
0
 10
28.8598679549
 20
8.8765697689
 10
28.8634536404
 20
8.9403976593
 10
28.8732421937
 20
9.0022024572
 10
28.8892336145
 20
9.0619841626
 10
28.9117348194
 20
9.1203453013
 10
28.940438892
 20
9.1766833475
 10
28.974425083
 20
9.2291907241
 10
29.0138702923
 20
9.2777487215
 10
29.0585976202
 20
9.3224760492
 10
29.1071556176
 20
9.3619212585
 10
29.1596629941
 20
9.3959074493
 10
29.2160010401
 20
9.4246115217
 10
29.2743621786
 20
9.4471127265
 10
29.3341438839
 20
9.4631041472
 10
29.3959486817
 20
9.4728927004
 10
29.459776572
 20
9.476478386
  0
LWPOLYLINE
  5
2EA
100
AcDbEntity
  8
RACCORDO
100
AcDbPolyline
 62
253
  6
PHANTOM
 90
9
 70
0
 10
28.7371342023
 20
7.9397780826
 10
28.7401768891
 20
7.9745030624
 10
28.7492019412
 20
8.0081731454
 10
28.76393519
 20
8.0397654813
 10
28.7839290597
 20
8.0683203384
 10
28.8085761644
 20
8.0929702597
 10
28.8371277595
 20
8.1129664149
 10
28.8687164873
 20
8.1277013481
 10
28.9014270325
 20
8.1364712062
  0
LWPOLYLINE
  5
2EB
100
AcDbEntity
  8
ASSI
100
AcDbPolyline
 62
253
  6
CONTINUOUS
 90
9
 70
0
 10
28.7371342023
 20
7.9397780826
 10
28.7401768891
 20
7.9745030624
 10
28.7492019412
 20
8.0081731454
 10
28.76393519
 20
8.0397654813
 10
28.7839290597
 20
8.0683203384
 10
28.8085761644
 20
8.0929702597
 10
28.8371277595
 20
8.1129664149
 10
28.8687164873
 20
8.1277013481
 10
28.9014270325
 20
8.1364712062
  0
LWPOLYLINE
  5
2EC
100
AcDbEntity
  8
RACCORDO
100
AcDbPolyline
 62
7
  6
PHANTOM
 90
8
 70
0
 10
26.9389238534
 20
3.3655342846
 10
26.9390300451
 20
3.3660179281
 10
26.9391350301
 20
3.3672192013
 10
26.9392388085
 20
3.3691381042
 10
26.9393417507
 20
3.3717868971
 10
26.9394434861
 20
3.3751533198
 10
26.9395429037
 20
3.3792005905
 10
26.9397340443
 20
3.3893131552
  0
LWPOLYLINE
  5
2ED
100
AcDbEntity
  8
ASSI
100
AcDbPolyline
 62
7
  6
CONTINUOUS
 90
8
 70
0
 10
26.9389238534
 20
3.3655342846
 10
26.9390300451
 20
3.3660179281
 10
26.9391350301
 20
3.3672192013
 10
26.9392388085
 20
3.3691381042
 10
26.9393417507
 20
3.3717868971
 10
26.9394434861
 20
3.3751533198
 10
26.9395429037
 20
3.3792005905
 10
26.9397340443
 20
3.3893131552
  0
LWPOLYLINE
  5
2EE
100
AcDbEntity
  8
0
100
AcDbPolyline
 62
7
  6
CONTINUOUS
 90
5
 70
0
 10
27.3870109231
 20
5.0829610997
 10
27.4066939946
 20
5.161888923
 10
27.43195475
 20
5.2363904149
 10
27.4624844471
 20
5.3072182942
 10
27.4982830859
 20
5.3743399265
  0
LWPOLYLINE
  5
2EF
100
AcDbEntity
  8
0
100
AcDbPolyline
 62
7
  6
CONTINUOUS
 90
38
 70
0
 10
28.4547861079
 20
7.0078488937
 10
28.4647677224
 20
6.9282655166
 10
28.4709014648
 20
6.8477051045
 10
28.4731873349
 20
6.7663665042
 10
28.4717625605
 20
6.6838259532
 10
28.4664899138
 20
6.6009360489
 10
28.4569577121
 20
6.5198020761
 10
28.4431321904
 20
6.4403647246
 10
28.4250471136
 20
6.3630402219
 10
28.402392094
 20
6.2905075574
 10
28.3747606872
 20
6.2228213436
 10
28.3425593376
 20
6.1599034165
 10
28.3066969897
 20
6.1039748639
 10
28.2669811546
 20
6.0554024086
 10
28.2236043212
 20
6.0133727952
 10
28.1780529015
 20
5.9781801316
 10
28.1304348926
 20
5.9498192811
 10
28.0806422973
 20
5.9278571319
 10
28.029837536
 20
5.9119642447
 10
27.9780415353
 20
5.9019212677
 10
27.9252333687
 20
5.8977444079
 10
27.8725126767
 20
5.8995253611
 10
27.8196855508
 20
5.9072900389
 10
27.7669458995
 20
5.921091738
 10
27.715975089
 20
5.9411363706
 10
27.6664863973
 20
5.9683770037
 10
27.6187665464
 20
6.0022342827
 10
27.5753570682
 20
6.0405813363
 10
27.5371250461
 20
6.0837101342
 10
27.5032033966
 20
6.1316104359
 10
27.4735324015
 20
6.1814834283
 10
27.4484586197
 20
6.2329530616
 10
27.4276354922
 20
6.2863709125
 10
27.4099636238
 20
6.3398302108
 10
27.3954048497
 20
6.3931171045
 10
27.3839973347
 20
6.4462853606
 10
27.3747561777
 20
6.4977381474
 10
27.3676358801
 20
6.5468339904
  0
LWPOLYLINE
  5
2F0
100
AcDbEntity
  8
RACCORDO
100
AcDbPolyline
 62
7
  6
CONTINUOUS
 90
4
 70
0
 10
29.910945334
 20
3.2890956472
 10
29.9105521281
 20
3.2946242798
 10
29.9101791544
 20
3.3051813808
 10
29.9098264129
 20
3.3207669502
  0
LWPOLYLINE
  5
2F1
100
AcDbEntity
  8
RACCORDO
100
AcDbPolyline
 62
7
  6
CONTINUOUS
 90
5
 70
0
 10
29.8875357041
 20
2.1719057051
 10
29.8880369088
 20
2.1488747802
 10
29.8885509796
 20
2.1321923159
 10
29.8890830034
 20
2.1215522107
 10
29.8896329801
 20
2.1169544644
  0
LINE
  5
2F2
100
AcDbEntity
  8
RACCORDO
100
AcDbLine
 62
253
  6
PHANTOM
 10
29.9723909716
 20
9.2932478787
 11
29.9728720409
 21
9.2672574386
  0
LINE
  5
2F3
100
AcDbEntity
  8
ASSI
100
AcDbLine
 62
253
  6
CONTINUOUS
 10
29.9723909716
 20
9.2932478787
 11
29.9728720409
 21
9.2672574386
  0
LINE
  5
2F4
100
AcDbEntity
  8
RACCORDO
100
AcDbLine
 62
253
  6
PHANTOM
 10
30.1221386145
 20
9.4469974448
 11
30.1226353294
 21
9.4167892439
  0
LINE
  5
2F5
100
AcDbEntity
  8
ASSI
100
AcDbLine
 62
253
  6
CONTINUOUS
 10
30.1221386145
 20
9.4469974448
 11
30.1226353294
 21
9.4167892439
  0
LINE
  5
2F6
100
AcDbEntity
  8
RACCORDO
100
AcDbLine
 62
7
  6
PHANTOM
 10
29.9488029315
 20
8.0947023118
 11
29.9495894015
 21
8.0421334994
  0
LINE
  5
2F7
100
AcDbEntity
  8
ASSI
100
AcDbLine
 62
7
  6
CONTINUOUS
 10
29.9488029315
 20
8.0947023118
 11
29.9495894015
 21
8.0421334994
  0
LINE
  5
2F8
100
AcDbEntity
  8
RACCORDO
100
AcDbLine
 62
7
  6
CONTINUOUS
 10
29.8866024138
 20
2.2351763272
 11
29.8875357041
 21
2.1719057051
  0
LINE
  5
2F9
100
AcDbEntity
  8
RACCORDO
100
AcDbLine
 62
7
  6
CONTINUOUS
 10
29.9098264129
 20
3.3207669502
 11
29.9091717463
 21
3.3678349761
  0
LINE
  5
2FA
100
AcDbEntity
  8
RACCORDO
100
AcDbLine
 62
253
  6
PHANTOM
 10
29.9728720409
 20
9.2672574386
 11
29.9735016883
 21
9.2113545105
  0
LINE
  5
2FB
100
AcDbEntity
  8
ASSI
100
AcDbLine
 62
253
  6
CONTINUOUS
 10
29.9728720409
 20
9.2672574386
 11
29.9735016883
 21
9.2113545105
  0
LINE
  5
2FC
100
AcDbEntity
  8
RACCORDO
100
AcDbLine
 62
253
  6
PHANTOM
 10
30.1226353294
 20
9.4167892439
 11
30.1233016062
 21
9.3464174162
  0
LINE
  5
2FD
100
AcDbEntity
  8
ASSI
100
AcDbLine
 62
253
  6
CONTINUOUS
 10
30.1226353294
 20
9.4167892439
 11
30.1233016062
 21
9.3464174162
  0
LINE
  5
2FE
100
AcDbEntity
  8
RACCORDO
100
AcDbLine
 62
7
  6
CONTINUOUS
 10
29.8854668377
 20
2.3675943637
 11
29.8866024138
 21
2.2351763272
  0
LINE
  5
2FF
100
AcDbEntity
  8
RACCORDO
100
AcDbLine
 62
7
  6
PHANTOM
 10
29.9495894015
 20
8.0421334994
 11
29.9505464831
 21
7.9315882939
  0
LINE
  5
300
100
AcDbEntity
  8
ASSI
100
AcDbLine
 62
7
  6
CONTINUOUS
 10
29.9495894015
 20
8.0421334994
 11
29.9505464831
 21
7.9315882939
  0
LINE
  5
301
100
AcDbEntity
  8
RACCORDO
100
AcDbLine
 62
7
  6
CONTINUOUS
 10
29.9091717463
 20
3.3678349761
 11
29.9084337372
 21
3.4692088289
  0
LINE
  5
302
100
AcDbEntity
  8
RACCORDO
100
AcDbLine
 62
253
  6
PHANTOM
 10
29.9735016883
 20
9.2113545105
 11
29.9742057614
 21
9.0834471706
  0
LINE
  5
303
100
AcDbEntity
  8
ASSI
100
AcDbLine
 62
253
  6
CONTINUOUS
 10
29.9735016883
 20
9.2113545105
 11
29.9742057614
 21
9.0834471706
  0
LINE
  5
304
100
AcDbEntity
  8
RACCORDO
100
AcDbLine
 62
253
  6
PHANTOM
 10
30.1233016062
 20
9.3464174162
 11
30.1241985397
 21
9.1350878906
  0
LINE
  5
305
100
AcDbEntity
  8
ASSI
100
AcDbLine
 62
253
  6
CONTINUOUS
 10
30.1233016062
 20
9.3464174162
 11
30.1241985397
 21
9.1350878906
  0
LINE
  5
306
100
AcDbEntity
  8
DRAFT
100
AcDbLine
 62
7
  6
PHANTOM
 10
29.9461032067
 20
5.1103540825
 11
29.9433858696
 21
5.756478386
  0
LINE
  5
307
100
AcDbEntity
  8
ASSI
100
AcDbLine
 62
7
  6
CONTINUOUS
 10
29.9461032067
 20
5.1103540825
 11
29.9433858696
 21
5.756478386
  0
LINE
  5
308
100
AcDbEntity
  8
RACCORDO
100
AcDbLine
 62
7
  6
CONTINUOUS
 10
29.8845187573
 20
2.6537743119
 11
29.8854668377
 21
2.3675943637
  0
LINE
  5
309
100
AcDbEntity
  8
RACCORDO
100
AcDbLine
 62
7
  6
PHANTOM
 10
29.9505464831
 20
7.9315882939
 11
29.9513454031
 21
7.6921321974
  0
LINE
  5
30A
100
AcDbEntity
  8
ASSI
100
AcDbLine
 62
7
  6
CONTINUOUS
 10
29.9505464831
 20
7.9315882939
 11
29.9513454031
 21
7.6921321974
  0
LINE
  5
30B
100
AcDbEntity
  8
RACCORDO
100
AcDbLine
 62
253
  6
PHANTOM
 10
29.9742057614
 20
9.0834471706
 11
29.9743864039
 21
8.9650067248
  0
LINE
  5
30C
100
AcDbEntity
  8
ASSI
100
AcDbLine
 62
253
  6
CONTINUOUS
 10
29.9742057614
 20
9.0834471706
 11
29.9743864039
 21
8.9650067248
  0
LINE
  5
30D
100
AcDbEntity
  8
RACCORDO
100
AcDbLine
 62
253
  6
CONTINUOUS
 10
29.5402526504
 20
2.1169544644
 11
29.5402526504
 21
9.3960023076
  0
LINE
  5
30E
100
AcDbEntity
  8
RACCORDO
100
AcDbLine
 62
7
  6
CONTINUOUS
 10
29.9084337372
 20
3.4692088289
 11
29.9080507854
 21
7.8743407877
  0
LINE
  5
30F
100
AcDbEntity
  8
DRAFT
100
AcDbLine
 62
7
  6
CONTINUOUS
 10
29.9298679549
 20
9.476478386
 11
29.9298679549
 21
8.806478386
  0
LINE
  5
310
100
AcDbEntity
  8
DRAFT
100
AcDbLine
 62
7
  6
CONTINUOUS
 10
29.9298679549
 20
2.706478386
 11
29.9298679549
 21
2.036478386
  0
LINE
  5
311
100
AcDbEntity
  8
RACCORDO
100
AcDbLine
 62
7
  6
PHANTOM
 10
29.9298679549
 20
2.1564726745
 11
29.9298679549
 21
2.806478386
  0
LINE
  5
312
100
AcDbEntity
  8
DRAFT
100
AcDbLine
 62
7
  6
PHANTOM
 10
29.9298679549
 20
2.806478386
 11
29.9298679549
 21
3.356478386
  0
LINE
  5
313
100
AcDbEntity
  8
ASSI
100
AcDbLine
 62
7
  6
CONTINUOUS
 10
29.9298679549
 20
2.1564726745
 11
29.9298679549
 21
3.356478386
  0
LINE
  5
314
100
AcDbEntity
  8
DRAFT
100
AcDbLine
 62
7
  6
PHANTOM
 10
29.9298679549
 20
8.156478386
 11
29.9298679549
 21
8.706478386
  0
LINE
  5
315
100
AcDbEntity
  8
RACCORDO
100
AcDbLine
 62
7
  6
PHANTOM
 10
29.9298679549
 20
8.706478386
 11
29.9298679549
 21
9.3564840976
  0
LINE
  5
316
100
AcDbEntity
  8
ASSI
100
AcDbLine
 62
7
  6
CONTINUOUS
 10
29.9298679549
 20
8.156478386
 11
29.9298679549
 21
9.3564840976
  0
LINE
  5
317
100
AcDbEntity
  8
RACCORDO
100
AcDbLine
 62
7
  6
PHANTOM
 10
29.9513710991
 20
7.4733053525
 11
29.9513454031
 21
7.6921321974
  0
LINE
  5
318
100
AcDbEntity
  8
ASSI
100
AcDbLine
 62
7
  6
CONTINUOUS
 10
29.9513710991
 20
7.4733053525
 11
29.9513454031
 21
7.6921321974
  0
LINE
  5
319
100
AcDbEntity
  8
RACCORDO
100
AcDbLine
 62
7
  6
PHANTOM
 10
29.9743864039
 20
8.9650067248
 11
29.9743864039
 21
2.5479500472
  0
LINE
  5
31A
100
AcDbEntity
  8
ASSI
100
AcDbLine
 62
7
  6
CONTINUOUS
 10
29.9743864039
 20
8.9650067248
 11
29.9743864039
 21
2.5479500472
  0
LINE
  5
31B
100
AcDbEntity
  8
RACCORDO
100
AcDbLine
 62
253
  6
PHANTOM
 10
30.1241985397
 20
9.1350878906
 11
30.1243806923
 21
2.5480632652
  0
LINE
  5
31C
100
AcDbEntity
  8
ASSI
100
AcDbLine
 62
253
  6
CONTINUOUS
 10
30.1241985397
 20
9.1350878906
 11
30.1243806923
 21
2.5480632652
  0
LINE
  5
31D
100
AcDbEntity
  8
DRAFT
100
AcDbLine
 62
7
  6
PHANTOM
 10
29.9464119959
 20
6.6417377669
 11
29.9450241825
 21
7.4606105527
  0
LINE
  5
31E
100
AcDbEntity
  8
ASSI
100
AcDbLine
 62
7
  6
CONTINUOUS
 10
29.9464119959
 20
6.6417377669
 11
29.9450241825
 21
7.4606105527
  0
LINE
  5
31F
100
AcDbEntity
  8
DRAFT
100
AcDbLine
 62
7
  6
PHANTOM
 10
29.9458071917
 20
4.277212579
 11
29.9461032067
 21
5.1103540825
  0
LINE
  5
320
100
AcDbEntity
  8
ASSI
100
AcDbLine
 62
7
  6
CONTINUOUS
 10
29.9458071917
 20
4.277212579
 11
29.9461032067
 21
5.1103540825
  0
LINE
  5
321
100
AcDbEntity
  8
RACCORDO
100
AcDbLine
 62
7
  6
CONTINUOUS
 10
29.8849310851
 20
9.0373313131
 11
29.8845187573
 21
2.6537743119
  0
LINE
  5
322
100
AcDbEntity
  8
RACCORDO
100
AcDbLine
 62
7
  6
PHANTOM
 10
29.9513710991
 20
4.0396514195
 11
29.9509979668
 21
3.6717262766
  0
LINE
  5
323
100
AcDbEntity
  8
ASSI
100
AcDbLine
 62
7
  6
CONTINUOUS
 10
29.9513710991
 20
4.0396514195
 11
29.9509979668
 21
3.6717262766
  0
LINE
  5
324
100
AcDbEntity
  8
DRAFT
100
AcDbLine
 62
7
  6
PHANTOM
 10
29.9450241825
 20
4.0523462193
 11
29.9458071917
 21
4.277212579
  0
LINE
  5
325
100
AcDbEntity
  8
ASSI
100
AcDbLine
 62
7
  6
CONTINUOUS
 10
29.9450241825
 20
4.0523462193
 11
29.9458071917
 21
4.277212579
  0
LINE
  5
326
100
AcDbEntity
  8
RACCORDO
100
AcDbLine
 62
253
  6
PHANTOM
 10
30.1243807819
 20
2.5480632652
 11
30.1238341848
 21
2.2625005226
  0
LINE
  5
327
100
AcDbEntity
  8
ASSI
100
AcDbLine
 62
253
  6
CONTINUOUS
 10
30.1243807819
 20
2.5480632652
 11
30.1238341848
 21
2.2625005226
  0
LINE
  5
328
100
AcDbEntity
  8
RACCORDO
100
AcDbLine
 62
7
  6
CONTINUOUS
 10
29.9080507854
 20
7.8743407877
 11
29.9084337372
 21
8.0437479431
  0
LINE
  5
329
100
AcDbEntity
  8
RACCORDO
100
AcDbLine
 62
253
  6
PHANTOM
 10
29.9743864039
 20
2.5479500472
 11
29.9739830481
 21
2.3741273686
  0
LINE
  5
32A
100
AcDbEntity
  8
ASSI
100
AcDbLine
 62
253
  6
CONTINUOUS
 10
29.9743864039
 20
2.5479500472
 11
29.9739830481
 21
2.3741273686
  0
LINE
  5
32B
100
AcDbEntity
  8
DRAFT
100
AcDbLine
 62
7
  6
PHANTOM
 10
29.9445772934
 20
5.9564235971
 11
29.9464119959
 21
6.6417377669
  0
LINE
  5
32C
100
AcDbEntity
  8
ASSI
100
AcDbLine
 62
7
  6
CONTINUOUS
 10
29.9445772934
 20
5.9564235971
 11
29.9464119959
 21
6.6417377669
  0
LINE
  5
32D
100
AcDbEntity
  8
DRAFT
100
AcDbLine
 62
7
  6
PHANTOM
 10
29.9433858696
 20
5.756478386
 11
29.9445772934
 21
5.9564235971
  0
LINE
  5
32E
100
AcDbEntity
  8
ASSI
100
AcDbLine
 62
7
  6
CONTINUOUS
 10
29.9433858696
 20
5.756478386
 11
29.9445772934
 21
5.9564235971
  0
LINE
  5
32F
100
AcDbEntity
  8
RACCORDO
100
AcDbLine
 62
253
  6
PHANTOM
 10
30.1238341848
 20
2.2625005226
 11
30.1230905052
 21
2.1398798381
  0
LINE
  5
330
100
AcDbEntity
  8
ASSI
100
AcDbLine
 62
253
  6
CONTINUOUS
 10
30.1238341848
 20
2.2625005226
 11
30.1230905052
 21
2.1398798381
  0
LINE
  5
331
100
AcDbEntity
  8
RACCORDO
100
AcDbLine
 62
7
  6
CONTINUOUS
 10
29.886186649
 20
9.2382955486
 11
29.8849310851
 21
9.0373313131
  0
LINE
  5
332
100
AcDbEntity
  8
RACCORDO
100
AcDbLine
 62
7
  6
PHANTOM
 10
29.9509979668
 20
3.6717262766
 11
29.9499397886
 21
3.5037408579
  0
LINE
  5
333
100
AcDbEntity
  8
ASSI
100
AcDbLine
 62
7
  6
CONTINUOUS
 10
29.9509979668
 20
3.6717262766
 11
29.9499397886
 21
3.5037408579
  0
LINE
  5
334
100
AcDbEntity
  8
RACCORDO
100
AcDbLine
 62
7
  6
CONTINUOUS
 10
29.9084337372
 20
8.0437479431
 11
29.9091717463
 21
8.145121796
  0
LINE
  5
335
100
AcDbEntity
  8
RACCORDO
100
AcDbLine
 62
253
  6
PHANTOM
 10
29.9739830481
 20
2.3741273686
 11
29.9733059512
 21
2.2809058341
  0
LINE
  5
336
100
AcDbEntity
  8
ASSI
100
AcDbLine
 62
253
  6
CONTINUOUS
 10
29.9739830481
 20
2.3741273686
 11
29.9733059512
 21
2.2809058341
  0
LINE
  5
337
100
AcDbEntity
  8
RACCORDO
100
AcDbLine
 62
253
  6
PHANTOM
 10
30.1230905052
 20
2.1398798381
 11
30.1226347496
 21
2.0961226911
  0
LINE
  5
338
100
AcDbEntity
  8
ASSI
100
AcDbLine
 62
253
  6
CONTINUOUS
 10
30.1230905052
 20
2.1398798381
 11
30.1226347496
 21
2.0961226911
  0
LWPOLYLINE
  5
339
100
AcDbEntity
  8
RACCORDO
100
AcDbPolyline
 62
7
  6
PHANTOM
 90
7
 70
0
 10
29.9499397886
 20
3.5037408579
 10
29.9492101425
 20
3.4423742208
 10
29.9488029342
 20
3.4182545884
 10
29.9483807918
 20
3.3992441991
 10
29.947948053
 20
3.3856029576
 10
29.94750038
 20
3.3770709592
 10
29.9470377728
 20
3.373648204
  0
LWPOLYLINE
  5
33A
100
AcDbEntity
  8
ASSI
100
AcDbPolyline
 62
7
  6
CONTINUOUS
 90
7
 70
0
 10
29.9499397886
 20
3.5037408579
 10
29.9492101425
 20
3.4423742208
 10
29.9488029342
 20
3.4182545884
 10
29.9483807918
 20
3.3992441991
 10
29.947948053
 20
3.3856029576
 10
29.94750038
 20
3.3770709592
 10
29.9470377728
 20
3.373648204
  0
LINE
  5
33B
100
AcDbEntity
  8
RACCORDO
100
AcDbLine
 62
253
  6
PHANTOM
 10
29.9733059512
 20
2.2809058341
 11
29.972871459
 21
2.2456604038
  0
LINE
  5
33C
100
AcDbEntity
  8
ASSI
100
AcDbLine
 62
253
  6
CONTINUOUS
 10
29.9733059512
 20
2.2809058341
 11
29.972871459
 21
2.2456604038
  0
LWPOLYLINE
  5
33D
100
AcDbEntity
  8
RACCORDO
100
AcDbPolyline
 62
7
  6
CONTINUOUS
 90
5
 70
0
 10
29.9091717463
 20
8.145121796
 10
29.9098264129
 20
8.1921898218
 10
29.9101791544
 20
8.2077753912
 10
29.9105521281
 20
8.2183324922
 10
29.910945334
 20
8.2238611248
  0
LWPOLYLINE
  5
33E
100
AcDbEntity
  8
RACCORDO
100
AcDbPolyline
 62
253
  6
PHANTOM
 90
5
 70
0
 10
30.1226347496
 20
2.0961226911
 10
30.1221381011
 20
2.0659361609
 10
30.1218824651
 20
2.0562323811
 10
30.1216207457
 20
2.0502282491
 10
30.121352943
 20
2.0479690857
  0
LWPOLYLINE
  5
33F
100
AcDbEntity
  8
ASSI
100
AcDbPolyline
 62
253
  6
CONTINUOUS
 90
5
 70
0
 10
30.1226347496
 20
2.0961226911
 10
30.1221381011
 20
2.0659361609
 10
30.1218824651
 20
2.0562323811
 10
30.1216207457
 20
2.0502282491
 10
30.121352943
 20
2.0479690857
  0
LWPOLYLINE
  5
340
100
AcDbEntity
  8
RACCORDO
100
AcDbPolyline
 62
253
  6
PHANTOM
 90
6
 70
0
 10
29.972871459
 20
2.2456604038
 10
29.9723904099
 20
2.2196863299
 10
29.9721388722
 20
2.2103830979
 10
29.971884092
 20
2.2037034587
 10
29.9716240194
 20
2.1995635507
 10
29.9713586545
 20
2.1979633741
  0
LWPOLYLINE
  5
341
100
AcDbEntity
  8
ASSI
100
AcDbPolyline
 62
253
  6
CONTINUOUS
 90
6
 70
0
 10
29.972871459
 20
2.2456604038
 10
29.9723904099
 20
2.2196863299
 10
29.9721388722
 20
2.2103830979
 10
29.971884092
 20
2.2037034587
 10
29.9716240194
 20
2.1995635507
 10
29.9713586545
 20
2.1979633741
  0
LWPOLYLINE
  5
342
100
AcDbEntity
  8
RACCORDO
100
AcDbPolyline
 62
7
  6
PHANTOM
 90
13
 70
0
 10
29.9298679549
 20
9.3564840976
 10
29.931329811
 20
9.376589245
 10
29.9351356986
 20
9.3957231777
 10
29.9412856177
 20
9.4138858956
 10
29.9499628779
 20
9.4313516942
 10
29.9609841697
 20
9.447846278
 10
29.973799564
 20
9.462546761
 10
29.9885000472
 20
9.4753621582
 10
30.004994633
 20
9.4863834545
 10
30.0224604342
 20
9.4950607186
 10
30.0406231551
 20
9.50121064
 10
30.0597570915
 20
9.5050165291
 10
30.0798622433
 20
9.506478386
  0
LWPOLYLINE
  5
343
100
AcDbEntity
  8
ASSI
100
AcDbPolyline
 62
7
  6
CONTINUOUS
 90
13
 70
0
 10
29.9298679549
 20
9.3564840976
 10
29.931329811
 20
9.376589245
 10
29.9351356986
 20
9.3957231777
 10
29.9412856177
 20
9.4138858956
 10
29.9499628779
 20
9.4313516942
 10
29.9609841697
 20
9.447846278
 10
29.973799564
 20
9.462546761
 10
29.9885000472
 20
9.4753621582
 10
30.004994633
 20
9.4863834545
 10
30.0224604342
 20
9.4950607186
 10
30.0406231551
 20
9.50121064
 10
30.0597570915
 20
9.5050165291
 10
30.0798622433
 20
9.506478386
  0
LWPOLYLINE
  5
344
100
AcDbEntity
  8
RACCORDO
100
AcDbPolyline
 62
7
  6
CONTINUOUS
 90
7
 70
0
 10
29.8896329801
 20
9.3960023076
 10
29.8890830034
 20
9.3914045614
 10
29.8885509796
 20
9.3807644561
 10
29.8880369088
 20
9.3640819918
 10
29.8875357041
 20
9.341051067
 10
29.8870524523
 20
9.3119777831
 10
29.886186649
 20
9.2382955486
  0
LINE
  5
345
100
AcDbEntity
  8
RACCORDO
100
AcDbLine
 62
7
  6
CONTINUOUS
 10
29.9298679549
 20
8.3374978342
 11
29.910945334
 21
8.2238611248
  0
LWPOLYLINE
  5
346
100
AcDbEntity
  8
0
100
AcDbPolyline
 62
7
  6
CONTINUOUS
 90
36
 70
0
 10
28.4537637813
 20
4.4985268596
 10
28.4383330998
 20
4.4164208545
 10
28.4185888567
 20
4.3399756488
 10
28.3945310519
 20
4.2692062146
 10
28.3659830747
 20
4.2036614176
 10
28.3331215358
 20
4.1436810803
 10
28.2964762672
 20
4.0903422056
 10
28.2559764832
 20
4.0436117826
 10
28.2116929695
 20
4.0031080981
 10
28.1643679156
 20
3.969280358
 10
28.1134756588
 20
3.941894233
 10
28.0595418618
 20
3.9207664422
 10
28.0048857021
 20
3.9064128407
 10
27.9497111925
 20
3.8990093806
 10
27.8938143201
 20
3.8981819059
 10
27.8389022242
 20
3.9036859903
 10
27.7850793797
 20
3.9155826078
 10
27.7322413117
 20
3.9339625161
 10
27.6817817346
 20
3.9586987049
 10
27.6335287602
 20
3.9905576554
 10
27.5876542767
 20
4.0291951523
 10
27.5460676642
 20
4.0727705981
 10
27.5095524411
 20
4.1209860003
 10
27.4773250891
 20
4.1744261416
 10
27.4489444322
 20
4.2324407581
 10
27.4243048026
 20
4.2951960801
 10
27.4035118683
 20
4.3626495361
 10
27.3864414577
 20
4.4337230106
 10
27.3730306347
 20
4.508389121
 10
27.3633423355
 20
4.5865233403
 10
27.3574411966
 20
4.6667870018
 10
27.3551635786
 20
4.7492365595
 10
27.3566731211
 20
4.8334232764
 10
27.3625253784
 20
4.9171941257
 10
27.3725967933
 20
5.0005136227
 10
27.3870109231
 20
5.0829610997
  0
LWPOLYLINE
  5
347
100
AcDbEntity
  8
RACCORDO
100
AcDbPolyline
 62
253
  6
PHANTOM
 90
8
 70
0
 10
28.7371342023
 20
3.5731786894
 10
28.7376876197
 20
3.5751949281
 10
28.7382238876
 20
3.5802915571
 10
28.7387430061
 20
3.5884685764
 10
28.739250487
 20
3.5998831303
 10
28.7397408184
 20
3.6143780746
 10
28.7401974643
 20
3.6314819764
 10
28.7410069187
 20
3.6736838711
  0
LWPOLYLINE
  5
348
100
AcDbEntity
  8
ASSI
100
AcDbPolyline
 62
253
  6
CONTINUOUS
 90
8
 70
0
 10
28.7371342023
 20
3.5731786894
 10
28.7376876197
 20
3.5751949281
 10
28.7382238876
 20
3.5802915571
 10
28.7387430061
 20
3.5884685764
 10
28.739250487
 20
3.5998831303
 10
28.7397408184
 20
3.6143780746
 10
28.7401974643
 20
3.6314819764
 10
28.7410069187
 20
3.6736838711
  0
LINE
  5
349
100
AcDbEntity
  8
RACCORDO
100
AcDbLine
 62
7
  6
CONTINUOUS
 10
29.9298679549
 20
9.476478386
 11
29.8896329801
 21
9.3960023076
  0
LWPOLYLINE
  5
34A
100
AcDbEntity
  8
0
100
AcDbPolyline
 62
7
  6
CONTINUOUS
 90
34
 70
0
 10
27.4982830859
 20
7.3743399265
 10
27.5163678668
 20
7.4019190814
 10
27.5360821365
 20
7.4282327444
 10
27.557425895
 20
7.4532978224
 10
27.5804124241
 20
7.4773303852
 10
27.6050284421
 20
7.5001476771
 10
27.6312341033
 20
7.5211841338
 10
27.6591875207
 20
7.5404857773
 10
27.6887305813
 20
7.5580723552
 10
27.7193490998
 20
7.5733653338
 10
27.7509944587
 20
7.5862957507
 10
27.7837152755
 20
7.5970097855
 10
27.8171432169
 20
7.6052618846
 10
27.8511539665
 20
7.6110983409
 10
27.8858718407
 20
7.6145191913
 10
27.9213014561
 20
7.6152036984
 10
27.9575796066
 20
7.6132432818
 10
27.9945694984
 20
7.6085416695
 10
28.031865366
 20
7.6004785156
 10
28.069595057
 20
7.5890270735
 10
28.107630724
 20
7.5741260101
 10
28.1451830591
 20
7.5550653511
 10
28.1825245431
 20
7.5313660875
 10
28.2193826953
 20
7.5032956325
 10
28.2541507657
 20
7.4712459276
 10
28.2864321003
 20
7.4351459994
 10
28.3166233533
 20
7.3948454701
 10
28.3443077364
 20
7.3506467919
 10
28.3694259533
 20
7.3023465129
 10
28.3920373005
 20
7.2499820307
 10
28.4119028793
 20
7.1942762549
 10
28.4289430571
 20
7.1354762201
 10
28.4432374666
 20
7.0733255996
 10
28.4547861079
 20
7.0078488937
  0
LINE
  5
34B
100
AcDbEntity
  8
RACCORDO
100
AcDbLine
 62
7
  6
CONTINUOUS
 10
29.9298679549
 20
2.036478386
 11
29.8896329801
 21
2.1169544644
  0
LINE
  5
34C
100
AcDbEntity
  8
RACCORDO
100
AcDbLine
 62
7
  6
CONTINUOUS
 10
29.9298679549
 20
3.1754589378
 11
29.910945334
 21
3.2890956472
  0
LWPOLYLINE
  5
34D
100
AcDbEntity
  8
RACCORDO
100
AcDbPolyline
 62
7
  6
CONTINUOUS
 90
7
 70
0
 10
28.8977160791
 20
8.2238611248
 10
28.8985026044
 20
8.2183315595
 10
28.8992486494
 20
8.2077733817
 10
28.899954214
 20
8.1921865914
 10
28.9006291781
 20
8.1711652018
 10
28.9012636617
 20
8.1451151997
 10
28.9018280256
 20
8.1152545461
  0
LINE
  5
34E
100
AcDbEntity
  8
DRAFT
100
AcDbLine
 62
7
  6
PHANTOM
 10
30.7263769419
 20
8.709969399
 11
30.7263769419
 21
2.802987373
  0
LINE
  5
34F
100
AcDbEntity
  8
ASSI
100
AcDbLine
 62
7
  6
CONTINUOUS
 10
30.7263769419
 20
8.709969399
 11
30.7263769419
 21
2.802987373
  0
LINE
  5
350
100
AcDbEntity
  8
DRAFT
100
AcDbLine
 62
7
  6
PHANTOM
 10
30.7298679549
 20
8.706478386
 11
30.7298679549
 21
2.806478386
  0
LINE
  5
351
100
AcDbEntity
  8
RACCORDO
100
AcDbLine
 62
7
  6
CONTINUOUS
 10
28.8977160791
 20
3.2890956472
 11
28.8598679549
 21
3.1754589378
  0
LINE
  5
352
100
AcDbEntity
  8
DRAFT
100
AcDbLine
 62
7
  6
PHANTOM
 10
29.9513710991
 20
7.4733053525
 11
29.9450241825
 21
7.4606105527
  0
LINE
  5
353
100
AcDbEntity
  8
ASSI
100
AcDbLine
 62
7
  6
CONTINUOUS
 10
29.9513710991
 20
7.4733053525
 11
29.9450241825
 21
7.4606105527
  0
LWPOLYLINE
  5
354
100
AcDbEntity
  8
0
100
AcDbPolyline
 62
7
  6
CONTINUOUS
 90
40
 70
0
 10
27.4982830859
 20
5.3743399265
 10
27.5170573702
 20
5.4029382595
 10
27.5375857682
 20
5.4301549267
 10
27.5598682799
 20
5.4560093841
 10
27.5839228833
 20
5.4807430806
 10
27.6097316004
 20
5.5041528287
 10
27.6372404974
 20
5.5256092351
 10
27.6666394469
 20
5.5451612165
 10
27.6977385763
 20
5.5628348215
 10
27.7299143337
 20
5.577995955
 10
27.7630853233
 20
5.5905588729
 10
27.7973329409
 20
5.6006940661
 10
27.8322778226
 20
5.6081614655
 10
27.8678181435
 20
5.6130212054
 10
27.9040557284
 20
5.6152575321
 10
27.9409166876
 20
5.6145077182
 10
27.9785174796
 20
5.6108675864
 10
28.0167416459
 20
5.6042231197
 10
28.0551659212
 20
5.5938731605
 10
28.094009652
 20
5.5797121397
 10
28.1330534918
 20
5.5617256194
 10
28.1712161361
 20
5.539306542
 10
28.2086412612
 20
5.511950147
 10
28.2451851908
 20
5.4799133621
 10
28.2793355911
 20
5.4437223958
 10
28.3107011152
 20
5.40332698
 10
28.33967311
 20
5.3585485021
 10
28.3659132821
 20
5.309765552
 10
28.3893819426
 20
5.2566646428
 10
28.4101187804
 20
5.1994142554
 10
28.4279045687
 20
5.139199739
 10
28.4426389419
 20
5.076283554
 10
28.4544222657
 20
5.0104651396
 10
28.4633364099
 20
4.9423189358
 10
28.4695186076
 20
4.8718772679
 10
28.4728316257
 20
4.799313959
 10
28.4729456351
 20
4.7254638453
 10
28.4697506926
 20
4.6507158567
 10
28.4633567413
 20
4.5750081035
 10
28.4537637813
 20
4.4985268596
  0
LINE
  5
355
100
AcDbEntity
  8
DRAFT
100
AcDbLine
 62
7
  6
PHANTOM
 10
29.9450241825
 20
4.0523462193
 11
29.9513710991
 21
4.0396514195
  0
LINE
  5
356
100
AcDbEntity
  8
ASSI
100
AcDbLine
 62
7
  6
CONTINUOUS
 10
29.9450241825
 20
4.0523462193
 11
29.9513710991
 21
4.0396514195
  0
LINE
  5
357
100
AcDbEntity
  8
RACCORDO
100
AcDbLine
 62
7
  6
CONTINUOUS
 10
28.8977160791
 20
8.2238611248
 11
28.8598679549
 21
8.3374978342
  0
LWPOLYLINE
  5
358
100
AcDbEntity
  8
RACCORDO
100
AcDbPolyline
 62
253
  6
PHANTOM
 90
5
 70
0
 10
29.9713586545
 20
9.3149933979
 10
29.9716242338
 20
9.3133888147
 10
29.9718844737
 20
9.3092436675
 10
29.9721393744
 20
9.3025579563
 10
29.9723909716
 20
9.2932478787
  0
LWPOLYLINE
  5
359
100
AcDbEntity
  8
ASSI
100
AcDbPolyline
 62
253
  6
CONTINUOUS
 90
5
 70
0
 10
29.9713586545
 20
9.3149933979
 10
29.9716242338
 20
9.3133888147
 10
29.9718844737
 20
9.3092436675
 10
29.9721393744
 20
9.3025579563
 10
29.9723909716
 20
9.2932478787
  0
LWPOLYLINE
  5
35A
100
AcDbEntity
  8
RACCORDO
100
AcDbPolyline
 62
7
  6
PHANTOM
 90
5
 70
0
 10
29.9470377728
 20
8.1393085681
 10
29.9475003785
 20
8.1358858621
 10
29.9479480506
 20
8.1273539005
 10
29.9483807889
 20
8.1137126835
 10
29.9488029315
 20
8.0947023118
  0
LWPOLYLINE
  5
35B
100
AcDbEntity
  8
ASSI
100
AcDbPolyline
 62
7
  6
CONTINUOUS
 90
5
 70
0
 10
29.9470377728
 20
8.1393085681
 10
29.9475003785
 20
8.1358858621
 10
29.9479480506
 20
8.1273539005
 10
29.9483807889
 20
8.1137126835
 10
29.9488029315
 20
8.0947023118
  0
LWPOLYLINE
  5
35C
100
AcDbEntity
  8
RACCORDO
100
AcDbPolyline
 62
253
  6
PHANTOM
 90
4
 70
0
 10
30.121352943
 20
9.4649876863
 10
30.1216209661
 20
9.4627250802
 10
30.1218828566
 20
9.4567125804
 10
30.1221386145
 20
9.4469974448
  0
LWPOLYLINE
  5
35D
100
AcDbEntity
  8
ASSI
100
AcDbPolyline
 62
253
  6
CONTINUOUS
 90
4
 70
0
 10
30.121352943
 20
9.4649876863
 10
30.1216209661
 20
9.4627250802
 10
30.1218828566
 20
9.4567125804
 10
30.1221386145
 20
9.4469974448
  0
LINE
  5
35E
100
AcDbEntity
  8
SCRITTE
100
AcDbLine
 62
253
  6
CONTINUOUS
 10
31.8298679727
 20
4.756478386
 11
31.8298679727
 21
6.156478386
  0
LINE
  5
35F
100
AcDbEntity
  8
SCRITTE
100
AcDbLine
 62
253
  6
CONTINUOUS
 10
32.4298679549
 20
9.4994968918
 11
32.4298679549
 21
9.4872792769
  0
LINE
  5
360
100
AcDbEntity
  8
SCRITTE
100
AcDbLine
 62
253
  6
CONTINUOUS
 10
32.9298679072
 20
5.9564783979
 11
32.9298679072
 21
5.7564784099
  0
LINE
  5
361
100
AcDbEntity
  8
DEFAULT_3
100
AcDbLine
 62
7
  6
PHANTOM
 10
32.7821019549
 20
8.174040386
 11
32.4481799549
 21
7.003972386
  0
LINE
  5
362
100
AcDbEntity
  8
ASSI
100
AcDbLine
 62
7
  6
CONTINUOUS
 10
32.7821019549
 20
8.174040386
 11
32.4481799549
 21
7.003972386
  0
LINE
  5
363
100
AcDbEntity
  8
DEFAULT_3
100
AcDbLine
 62
7
  6
PHANTOM
 10
32.5902839549
 20
6.474177386
 11
33.1366879549
 21
8.174040386
  0
LINE
  5
364
100
AcDbEntity
  8
ASSI
100
AcDbLine
 62
7
  6
CONTINUOUS
 10
32.5902839549
 20
6.474177386
 11
33.1366879549
 21
8.174040386
  0
LINE
  5
365
100
AcDbEntity
  8
RACCORDO
100
AcDbLine
 62
7
  6
PHANTOM
 10
28.7340001215
 20
7.4606105527
 11
28.7423369708
 21
7.468947402
  0
LINE
  5
366
100
AcDbEntity
  8
ASSI
100
AcDbLine
 62
7
  6
CONTINUOUS
 10
28.7340001215
 20
7.4606105527
 11
28.7423369708
 21
7.468947402
  0
LINE
  5
367
100
AcDbEntity
  8
RACCORDO
100
AcDbLine
 62
7
  6
PHANTOM
 10
28.7423369708
 20
4.0440093701
 11
28.7340001215
 21
4.0523462193
  0
LINE
  5
368
100
AcDbEntity
  8
ASSI
100
AcDbLine
 62
7
  6
CONTINUOUS
 10
28.7423369708
 20
4.0440093701
 11
28.7340001215
 21
4.0523462193
  0
LINE
  5
369
100
AcDbEntity
  8
SCRITTE
100
AcDbLine
 62
253
  6
CONTINUOUS
 10
32.2298679906
 20
3.056478386
 11
31.4298679549
 21
4.456478386
  0
LINE
  5
36A
100
AcDbEntity
  8
DEFAULT_3
100
AcDbLine
 62
7
  6
PHANTOM
 10
31.7387019549
 20
8.174040386
 11
32.2775919549
 21
6.474177386
  0
LINE
  5
36B
100
AcDbEntity
  8
ASSI
100
AcDbLine
 62
7
  6
CONTINUOUS
 10
31.7387019549
 20
8.174040386
 11
32.2775919549
 21
6.474177386
  0
LINE
  5
36C
100
AcDbEntity
  8
SCRITTE
100
AcDbLine
 62
253
  6
CONTINUOUS
 10
33.2298679906
 20
9.4872792769
 11
33.2298679906
 21
9.4994968918
  0
LINE
  5
36D
100
AcDbEntity
  8
DEFAULT_3
100
AcDbLine
 62
7
  6
PHANTOM
 10
33.2683659549
 20
8.174142386
 11
33.2683659549
 21
6.474177386
  0
LINE
  5
36E
100
AcDbEntity
  8
ASSI
100
AcDbLine
 62
7
  6
CONTINUOUS
 10
33.2683659549
 20
8.174142386
 11
33.2683659549
 21
6.474177386
  0
LINE
  5
36F
100
AcDbEntity
  8
DEFAULT_3
100
AcDbLine
 62
7
  6
PHANTOM
 10
33.6231939549
 20
6.474177386
 11
33.6231939549
 21
8.174142386
  0
LINE
  5
370
100
AcDbEntity
  8
ASSI
100
AcDbLine
 62
7
  6
CONTINUOUS
 10
33.6231939549
 20
6.474177386
 11
33.6231939549
 21
8.174142386
  0
LINE
  5
371
100
AcDbEntity
  8
SCRITTE
100
AcDbLine
 62
253
  6
CONTINUOUS
 10
34.2298679549
 20
3.056478386
 11
34.2298679549
 21
3.8564784218
  0
LINE
  5
372
100
AcDbEntity
  8
DEFAULT_3
100
AcDbLine
 62
7
  6
PHANTOM
 10
34.1536639549
 20
6.474177386
 11
34.2302359549
 21
7.584156386
  0
LINE
  5
373
100
AcDbEntity
  8
ASSI
100
AcDbLine
 62
7
  6
CONTINUOUS
 10
34.1536639549
 20
6.474177386
 11
34.2302359549
 21
7.584156386
  0
LINE
  5
374
100
AcDbEntity
  8
DEFAULT_3
100
AcDbLine
 62
7
  6
PHANTOM
 10
33.9676959549
 20
8.174040386
 11
33.8142089549
 21
6.474177386
  0
LINE
  5
375
100
AcDbEntity
  8
ASSI
100
AcDbLine
 62
7
  6
CONTINUOUS
 10
33.9676959549
 20
8.174040386
 11
33.8142089549
 21
6.474177386
  0
LINE
  5
376
100
AcDbEntity
  8
SCRITTE
100
AcDbLine
 62
253
  6
CONTINUOUS
 10
32.2298679906
 20
5.8564783622
 11
32.4298679787
 21
6.156478386
  0
LINE
  5
377
100
AcDbEntity
  8
RACCORDO
100
AcDbLine
 62
7
  6
PHANTOM
 10
26.9389238534
 20
3.3655342846
 11
26.9298679549
 21
3.356478386
  0
LINE
  5
378
100
AcDbEntity
  8
ASSI
100
AcDbLine
 62
7
  6
CONTINUOUS
 10
26.9389238534
 20
3.3655342846
 11
26.9298679549
 21
3.356478386
  0
LWPOLYLINE
  5
379
100
AcDbEntity
  8
RACCORDO
100
AcDbPolyline
 62
7
  6
PHANTOM
 90
6
 70
0
 10
28.8199437241
 20
3.3953907096
 10
28.8352627145
 20
3.3868299791
 10
28.8512444295
 20
3.3795554262
 10
28.867888869
 20
3.3736835547
 10
28.8851960332
 20
3.3693239959
 10
28.9012400443
 20
3.3668719114
  0
LWPOLYLINE
  5
37A
100
AcDbEntity
  8
ASSI
100
AcDbPolyline
 62
7
  6
CONTINUOUS
 90
6
 70
0
 10
28.8199437241
 20
3.3953907096
 10
28.8352627145
 20
3.3868299791
 10
28.8512444295
 20
3.3795554262
 10
28.867888869
 20
3.3736835547
 10
28.8851960332
 20
3.3693239959
 10
28.9012400443
 20
3.3668719114
  0
LWPOLYLINE
  5
37B
100
AcDbEntity
  8
RACCORDO
100
AcDbPolyline
 62
7
  6
PHANTOM
 90
16
 70
0
 10
28.8199437241
 20
3.3953907096
 10
28.8094772992
 20
3.4024269903
 10
28.7994809344
 20
3.4101362365
 10
28.7899965442
 20
3.418488433
 10
28.7810934466
 20
3.4274219892
 10
28.7727763003
 20
3.4369271443
 10
28.7650041733
 20
3.4470636471
 10
28.7578443663
 20
3.4577810179
 10
28.7513300929
 20
3.4690716435
 10
28.7454207398
 20
3.4810900083
 10
28.7401989891
 20
3.4938288364
 10
28.735761645
 20
3.5072425896
 10
28.7321593721
 20
3.5214469927
 10
28.7295090727
 20
3.5364498223
 10
28.7279561363
 20
3.5521365696
 10
28.7276283967
 20
3.5684261486
  0
LWPOLYLINE
  5
37C
100
AcDbEntity
  8
ASSI
100
AcDbPolyline
 62
7
  6
CONTINUOUS
 90
16
 70
0
 10
28.8199437241
 20
3.3953907096
 10
28.8094772992
 20
3.4024269903
 10
28.7994809344
 20
3.4101362365
 10
28.7899965442
 20
3.418488433
 10
28.7810934466
 20
3.4274219892
 10
28.7727763003
 20
3.4369271443
 10
28.7650041733
 20
3.4470636471
 10
28.7578443663
 20
3.4577810179
 10
28.7513300929
 20
3.4690716435
 10
28.7454207398
 20
3.4810900083
 10
28.7401989891
 20
3.4938288364
 10
28.735761645
 20
3.5072425896
 10
28.7321593721
 20
3.5214469927
 10
28.7295090727
 20
3.5364498223
 10
28.7279561363
 20
3.5521365696
 10
28.7276283967
 20
3.5684261486
  0
LINE
  5
37D
100
AcDbEntity
  8
RACCORDO
100
AcDbLine
 62
7
  6
PHANTOM
 10
26.9389238534
 20
8.1474224875
 11
26.9298679549
 21
8.156478386
  0
LINE
  5
37E
100
AcDbEntity
  8
ASSI
100
AcDbLine
 62
7
  6
CONTINUOUS
 10
26.9389238534
 20
8.1474224875
 11
26.9298679549
 21
8.156478386
  0
LINE
  5
37F
100
AcDbEntity
  8
SCRITTE
100
AcDbLine
 62
253
  6
CONTINUOUS
 10
33.4298680025
 20
3.056478386
 11
32.6298679668
 21
4.456478386
  0
LINE
  5
380
100
AcDbEntity
  8
DEFAULT_3
100
AcDbLine
 62
7
  6
PHANTOM
 10
32.4481799549
 20
7.003972386
 11
32.1241549549
 21
8.174040386
  0
LINE
  5
381
100
AcDbEntity
  8
ASSI
100
AcDbLine
 62
7
  6
CONTINUOUS
 10
32.4481799549
 20
7.003972386
 11
32.1241549549
 21
8.174040386
  0
LINE
  5
382
100
AcDbEntity
  8
DEFAULT_3
100
AcDbLine
 62
7
  6
PHANTOM
 10
35.5381639549
 20
6.474177386
 11
35.3792069549
 21
8.174040386
  0
LINE
  5
383
100
AcDbEntity
  8
ASSI
100
AcDbLine
 62
7
  6
CONTINUOUS
 10
35.5381639549
 20
6.474177386
 11
35.3792069549
 21
8.174040386
  0
LINE
  5
384
100
AcDbEntity
  8
DEFAULT_3
100
AcDbLine
 62
7
  6
PHANTOM
 10
35.1181469549
 20
7.579529386
 11
35.1910479549
 21
6.474177386
  0
LINE
  5
385
100
AcDbEntity
  8
ASSI
100
AcDbLine
 62
7
  6
CONTINUOUS
 10
35.1181469549
 20
7.579529386
 11
35.1910479549
 21
6.474177386
  0
LINE
  5
386
100
AcDbEntity
  8
SCRITTE
100
AcDbLine
 62
253
  6
CONTINUOUS
 10
34.8298679787
 20
9.4994968918
 11
34.8298679787
 21
9.4872792769
  0
LINE
  5
387
100
AcDbEntity
  8
SCRITTE
100
AcDbLine
 62
253
  6
CONTINUOUS
 10
35.0298679072
 20
5.9564783979
 11
35.0298679072
 21
5.7564784099
  0
LINE
  5
388
100
AcDbEntity
  8
SCRITTE
100
AcDbLine
 62
253
  6
CONTINUOUS
 10
35.4298680502
 20
3.056478386
 11
35.4298680502
 21
3.8564784218
  0
LINE
  5
389
100
AcDbEntity
  8
SCRITTE
100
AcDbLine
 62
253
  6
CONTINUOUS
 10
35.5298678118
 20
9.4890246505
 11
35.5298678118
 21
9.4977515183
  0
LINE
  5
38A
100
AcDbEntity
  8
DEFAULT_3
100
AcDbLine
 62
7
  6
PHANTOM
 10
35.0281399549
 20
8.174040386
 11
34.6733119549
 21
7.230271386
  0
LINE
  5
38B
100
AcDbEntity
  8
ASSI
100
AcDbLine
 62
7
  6
CONTINUOUS
 10
35.0281399549
 20
8.174040386
 11
34.6733119549
 21
7.230271386
  0
LINE
  5
38C
100
AcDbEntity
  8
DEFAULT_3
100
AcDbLine
 62
7
  6
PHANTOM
 10
34.6962559549
 20
6.474177386
 11
35.1181469549
 21
7.579529386
  0
LINE
  5
38D
100
AcDbEntity
  8
ASSI
100
AcDbLine
 62
7
  6
CONTINUOUS
 10
34.6962559549
 20
6.474177386
 11
35.1181469549
 21
7.579529386
  0
LINE
  5
38E
100
AcDbEntity
  8
SCRITTE
100
AcDbLine
 62
253
  6
CONTINUOUS
 10
32.2298679906
 20
4.456478386
 11
31.4298679549
 21
3.056478386
  0
LINE
  5
38F
100
AcDbEntity
  8
SCRITTE
100
AcDbLine
 62
253
  6
CONTINUOUS
 10
33.4298680025
 20
4.456478386
 11
32.6298679668
 21
3.056478386
  0
LINE
  5
390
100
AcDbEntity
  8
SCRITTE
100
AcDbLine
 62
253
  6
CONTINUOUS
 10
32.9298679072
 20
5.7564784099
 11
32.2298679906
 21
4.756478386
  0
LINE
  5
391
100
AcDbEntity
  8
SCRITTE
100
AcDbLine
 62
253
  6
CONTINUOUS
 10
31.8298679727
 20
6.156478386
 11
31.4298679549
 21
5.7564784099
  0
LINE
  5
392
100
AcDbEntity
  8
RACCORDO
100
AcDbLine
 62
253
  6
CONTINUOUS
 10
28.8598679549
 20
2.6363870031
 11
28.9403440333
 21
2.7168630815
  0
LINE
  5
393
100
AcDbEntity
  8
RACCORDO
100
AcDbLine
 62
253
  6
CONTINUOUS
 10
28.9403440333
 20
8.7960936905
 11
28.8598679549
 21
8.8765697689
  0
LINE
  5
394
100
AcDbEntity
  8
RACCORDO
100
AcDbLine
 62
7
  6
PHANTOM
 10
29.9298679549
 20
8.156478386
 11
29.9470377728
 21
8.1393085681
  0
LINE
  5
395
100
AcDbEntity
  8
ASSI
100
AcDbLine
 62
7
  6
CONTINUOUS
 10
29.9298679549
 20
8.156478386
 11
29.9470377728
 21
8.1393085681
  0
LINE
  5
396
100
AcDbEntity
  8
SCRITTE
100
AcDbLine
 62
253
  6
CONTINUOUS
 10
34.2298679549
 20
3.8564784218
 11
33.8298679787
 21
4.456478386
  0
LINE
  5
397
100
AcDbEntity
  8
SCRITTE
100
AcDbLine
 62
253
  6
CONTINUOUS
 10
35.4298680502
 20
3.8564784218
 11
35.0298679072
 21
4.456478386
  0
LINE
  5
398
100
AcDbEntity
  8
DEFAULT_3
100
AcDbLine
 62
7
  6
PHANTOM
 10
34.2302359549
 20
7.584156386
 11
34.6464919549
 21
6.474177386
  0
LINE
  5
399
100
AcDbEntity
  8
ASSI
100
AcDbLine
 62
7
  6
CONTINUOUS
 10
34.2302359549
 20
7.584156386
 11
34.6464919549
 21
6.474177386
  0
LINE
  5
39A
100
AcDbEntity
  8
DEFAULT_3
100
AcDbLine
 62
7
  6
PHANTOM
 10
34.6733119549
 20
7.230271386
 11
34.3222309549
 21
8.174040386
  0
LINE
  5
39B
100
AcDbEntity
  8
ASSI
100
AcDbLine
 62
7
  6
CONTINUOUS
 10
34.6733119549
 20
7.230271386
 11
34.3222309549
 21
8.174040386
  0
LINE
  5
39C
100
AcDbEntity
  8
SCRITTE
100
AcDbLine
 62
253
  6
CONTINUOUS
 10
35.8965346056
 20
5.456478386
 11
35.8965346056
 21
4.756478386
  0
LINE
  5
39D
100
AcDbEntity
  8
SCRITTE
100
AcDbLine
 62
253
  6
CONTINUOUS
 10
36.0965346533
 20
9.4994968918
 11
36.0965346533
 21
9.4872792769
  0
LINE
  5
39E
100
AcDbEntity
  8
SCRITTE
100
AcDbLine
 62
253
  6
CONTINUOUS
 10
35.7298679072
 20
6.156478386
 11
35.4298680502
 21
5.056478389
  0
LINE
  5
39F
100
AcDbEntity
  8
DEFAULT_3
100
AcDbLine
 62
7
  6
PHANTOM
 10
36.1153519549
 20
7.076120386
 11
36.2920259549
 21
7.706961386
  0
LINE
  5
3A0
100
AcDbEntity
  8
ASSI
100
AcDbLine
 62
7
  6
CONTINUOUS
 10
36.1153519549
 20
7.076120386
 11
36.2920259549
 21
7.706961386
  0
LINE
  5
3A1
100
AcDbEntity
  8
DEFAULT_3
100
AcDbLine
 62
7
  6
PHANTOM
 10
35.9448589549
 20
6.474177386
 11
36.0427699549
 21
6.813530386
  0
LINE
  5
3A2
100
AcDbEntity
  8
ASSI
100
AcDbLine
 62
7
  6
CONTINUOUS
 10
35.9448589549
 20
6.474177386
 11
36.0427699549
 21
6.813530386
  0
LINE
  5
3A3
100
AcDbEntity
  8
DEFAULT_3
100
AcDbLine
 62
7
  6
PHANTOM
 10
36.1270659549
 20
8.174040386
 11
35.5938809549
 21
6.474177386
  0
LINE
  5
3A4
100
AcDbEntity
  8
ASSI
100
AcDbLine
 62
7
  6
CONTINUOUS
 10
36.1270659549
 20
8.174040386
 11
35.5938809549
 21
6.474177386
  0
LINE
  5
3A5
100
AcDbEntity
  8
SCRITTE
100
AcDbLine
 62
253
  6
CONTINUOUS
 10
34.3298679072
 20
5.8564783622
 11
34.5298678118
 21
6.156478386
  0
LINE
  5
3A6
100
AcDbEntity
  8
SCRITTE
100
AcDbLine
 62
253
  6
CONTINUOUS
 10
34.6298680979
 20
4.456478386
 11
34.2298679549
 21
3.8564784218
  0
LINE
  5
3A7
100
AcDbEntity
  8
SCRITTE
100
AcDbLine
 62
253
  6
CONTINUOUS
 10
35.0298679072
 20
5.7564784099
 11
34.3298679072
 21
4.756478386
  0
LINE
  5
3A8
100
AcDbEntity
  8
RACCORDO
100
AcDbLine
 62
7
  6
PHANTOM
 10
29.9470377728
 20
3.373648204
 11
29.9298679549
 21
3.356478386
  0
LINE
  5
3A9
100
AcDbEntity
  8
ASSI
100
AcDbLine
 62
7
  6
CONTINUOUS
 10
29.9470377728
 20
3.373648204
 11
29.9298679549
 21
3.356478386
  0
LINE
  5
3AA
100
AcDbEntity
  8
RACCORDO
100
AcDbLine
 62
253
  6
CONTINUOUS
 10
29.459776572
 20
2.036478386
 11
29.5402526504
 21
2.1169544644
  0
LINE
  5
3AB
100
AcDbEntity
  8
RACCORDO
100
AcDbLine
 62
253
  6
PHANTOM
 10
29.9713586545
 20
2.1979633741
 11
29.9298679549
 21
2.1564726745
  0
LINE
  5
3AC
100
AcDbEntity
  8
ASSI
100
AcDbLine
 62
253
  6
CONTINUOUS
 10
29.9713586545
 20
2.1979633741
 11
29.9298679549
 21
2.1564726745
  0
LINE
  5
3AD
100
AcDbEntity
  8
DRAFT
100
AcDbLine
 62
7
  6
PHANTOM
 10
30.7263769419
 20
2.802987373
 11
30.7298679549
 21
2.806478386
  0
LINE
  5
3AE
100
AcDbEntity
  8
RACCORDO
100
AcDbLine
 62
253
  6
PHANTOM
 10
30.121352943
 20
2.0479690857
 11
30.0798622433
 21
2.006478386
  0
LINE
  5
3AF
100
AcDbEntity
  8
ASSI
100
AcDbLine
 62
253
  6
CONTINUOUS
 10
30.121352943
 20
2.0479690857
 11
30.0798622433
 21
2.006478386
  0
LINE
  5
3B0
100
AcDbEntity
  8
SCRITTE
100
AcDbLine
 62
253
  6
CONTINUOUS
 10
32.7298679191
 20
6.156478386
 11
32.9298679072
 21
5.9564783979
  0
LINE
  5
3B1
100
AcDbEntity
  8
RACCORDO
100
AcDbLine
 62
253
  6
CONTINUOUS
 10
29.5402526504
 20
9.3960023076
 11
29.459776572
 21
9.476478386
  0
LINE
  5
3B2
100
AcDbEntity
  8
RACCORDO
100
AcDbLine
 62
253
  6
PHANTOM
 10
29.9298679549
 20
9.3564840976
 11
29.9713586545
 21
9.3149933979
  0
LINE
  5
3B3
100
AcDbEntity
  8
ASSI
100
AcDbLine
 62
253
  6
CONTINUOUS
 10
29.9298679549
 20
9.3564840976
 11
29.9713586545
 21
9.3149933979
  0
LINE
  5
3B4
100
AcDbEntity
  8
DRAFT
100
AcDbLine
 62
7
  6
PHANTOM
 10
30.7263769419
 20
8.709969399
 11
30.7298679549
 21
8.706478386
  0
LINE
  5
3B5
100
AcDbEntity
  8
RACCORDO
100
AcDbLine
 62
253
  6
PHANTOM
 10
30.0798622433
 20
9.506478386
 11
30.121352943
 21
9.4649876863
  0
LINE
  5
3B6
100
AcDbEntity
  8
ASSI
100
AcDbLine
 62
253
  6
CONTINUOUS
 10
30.0798622433
 20
9.506478386
 11
30.121352943
 21
9.4649876863
  0
LINE
  5
3B7
100
AcDbEntity
  8
SCRITTE
100
AcDbLine
 62
253
  6
CONTINUOUS
 10
36.9298680025
 20
4.756478386
 11
36.5298678595
 21
6.156478386
  0
LINE
  5
3B8
100
AcDbEntity
  8
DEFAULT_3
100
AcDbLine
 62
7
  6
PHANTOM
 10
36.5259869549
 20
6.813530386
 11
36.6179059549
 21
6.474177386
  0
LINE
  5
3B9
100
AcDbEntity
  8
ASSI
100
AcDbLine
 62
7
  6
CONTINUOUS
 10
36.5259869549
 20
6.813530386
 11
36.6179059549
 21
6.474177386
  0
LINE
  5
3BA
100
AcDbEntity
  8
DEFAULT_3
100
AcDbLine
 62
7
  6
PHANTOM
 10
36.2920259549
 20
7.706961386
 11
36.4550739549
 21
7.076120386
  0
LINE
  5
3BB
100
AcDbEntity
  8
ASSI
100
AcDbLine
 62
7
  6
CONTINUOUS
 10
36.2920259549
 20
7.706961386
 11
36.4550739549
 21
7.076120386
  0
LINE
  5
3BC
100
AcDbEntity
  8
DEFAULT_3
100
AcDbLine
 62
7
  6
PHANTOM
 10
37.0960746188
 20
8.1541804682
 11
37.0960746188
 21
6.4741776993
  0
LINE
  5
3BD
100
AcDbEntity
  8
ASSI
100
AcDbLine
 62
7
  6
CONTINUOUS
 10
37.0960746188
 20
8.1541804682
 11
37.0960746188
 21
6.4741776993
  0
LINE
  5
3BE
100
AcDbEntity
  8
DEFAULT_3
100
AcDbLine
 62
7
  6
PHANTOM
 10
37.4377093865
 20
7.4178065545
 11
37.4377093865
 21
7.884452037
  0
LINE
  5
3BF
100
AcDbEntity
  8
ASSI
100
AcDbLine
 62
7
  6
CONTINUOUS
 10
37.4377093865
 20
7.4178065545
 11
37.4377093865
 21
7.884452037
  0
LINE
  5
3C0
100
AcDbEntity
  8
DEFAULT_3
100
AcDbLine
 62
7
  6
PHANTOM
 10
37.4494749508
 20
6.4741776993
 11
37.4494749508
 21
7.1394101019
  0
LINE
  5
3C1
100
AcDbEntity
  8
ASSI
100
AcDbLine
 62
7
  6
CONTINUOUS
 10
37.4494749508
 20
6.4741776993
 11
37.4494749508
 21
7.1394101019
  0
LINE
  5
3C2
100
AcDbEntity
  8
DEFAULT_3
100
AcDbLine
 62
7
  6
PHANTOM
 10
38.0083201376
 20
7.2676585776
 11
38.0083201376
 21
7.2777032848
  0
LINE
  5
3C3
100
AcDbEntity
  8
ASSI
100
AcDbLine
 62
7
  6
CONTINUOUS
 10
38.0083201376
 20
7.2676585776
 11
38.0083201376
 21
7.2777032848
  0
LWPOLYLINE
  5
3C4
100
AcDbEntity
  8
DEFAULT_3
100
AcDbPolyline
 62
7
  6
PHANTOM
 90
16
 70
0
 10
37.9161204333
 20
7.6819645072
 10
37.9143111675
 20
7.6485242915
 10
37.9098061151
 20
7.6169982761
 10
37.902605276
 20
7.5873864608
 10
37.8925318933
 20
7.5594001546
 10
37.879762724
 20
7.5333280487
 10
37.8648280393
 20
7.5100362165
 10
37.8478904851
 20
7.4898892953
 10
37.8287874154
 20
7.4725226478
 10
37.8075611636
 20
7.4577084357
 10
37.7840484847
 20
7.4455248635
 10
37.7584126236
 20
7.4358937266
 10
37.7311856478
 20
7.4283525725
 10
37.702544913
 20
7.4227472504
 10
37.6723130635
 20
7.4192319111
 10
37.6404900993
 20
7.4178065545
  0
LWPOLYLINE
  5
3C5
100
AcDbEntity
  8
ASSI
100
AcDbPolyline
 62
7
  6
CONTINUOUS
 90
16
 70
0
 10
37.9161204333
 20
7.6819645072
 10
37.9143111675
 20
7.6485242915
 10
37.9098061151
 20
7.6169982761
 10
37.902605276
 20
7.5873864608
 10
37.8925318933
 20
7.5594001546
 10
37.879762724
 20
7.5333280487
 10
37.8648280393
 20
7.5100362165
 10
37.8478904851
 20
7.4898892953
 10
37.8287874154
 20
7.4725226478
 10
37.8075611636
 20
7.4577084357
 10
37.7840484847
 20
7.4455248635
 10
37.7584126236
 20
7.4358937266
 10
37.7311856478
 20
7.4283525725
 10
37.702544913
 20
7.4227472504
 10
37.6723130635
 20
7.4192319111
 10
37.6404900993
 20
7.4178065545
  0
LINE
  5
3C6
100
AcDbEntity
  8
SCRITTE
100
AcDbLine
 62
253
  6
CONTINUOUS
 10
37.3298681456
 20
6.156478386
 11
36.9298680025
 21
4.756478386
  0
LINE
  5
3C7
100
AcDbEntity
  8
SCRITTE
100
AcDbLine
 62
253
  6
CONTINUOUS
 10
36.2298680025
 20
3.056478386
 11
36.9298680025
 21
4.456478386
  0
LINE
  5
3C8
100
AcDbEntity
  8
SCRITTE
100
AcDbLine
 62
253
  6
CONTINUOUS
 10
35.8298678595
 20
4.456478386
 11
35.4298680502
 21
3.8564784218
  0
LINE
  5
3C9
100
AcDbEntity
  8
RACCORDO
100
AcDbLine
 62
7
  6
PHANTOM
 10
62.5469357992
 20
3.9211107258
 11
62.4947155018
 21
3.9109692467
  0
LINE
  5
3CA
100
AcDbEntity
  8
ASSI
100
AcDbLine
 62
7
  6
CONTINUOUS
 10
62.5469357992
 20
3.9211107258
 11
62.4947155018
 21
3.9109692467
  0
LWPOLYLINE
  5
3CB
100
AcDbEntity
  8
RACCORDO
100
AcDbPolyline
 62
7
  6
CONTINUOUS
 90
6
 70
0
 10
62.5332381601
 20
2.8581629752
 10
62.5308301282
 20
2.8578548348
 10
62.5259885226
 20
2.8575725635
 10
62.5187133433
 20
2.8573161615
 10
62.5086585125
 20
2.8570797996
 10
62.496170108
 20
2.856869307
  0
LINE
  5
3CC
100
AcDbEntity
  8
SCRITTE
100
AcDbLine
 62
253
  6
CONTINUOUS
 10
34.8298680025
 20
6.156478386
 11
35.0298679072
 21
5.9564783979
  0
LINE
  5
3CD
100
AcDbEntity
  8
DEFAULT_3
100
AcDbLine
 62
7
  6
PHANTOM
 10
36.9918799549
 20
6.474177386
 11
36.4703199549
 21
8.174040386
  0
LINE
  5
3CE
100
AcDbEntity
  8
ASSI
100
AcDbLine
 62
7
  6
CONTINUOUS
 10
36.9918799549
 20
6.474177386
 11
36.4703199549
 21
8.174040386
  0
LINE
  5
3CF
100
AcDbEntity
  8
DEFAULT_3
100
AcDbLine
 62
7
  6
PHANTOM
 10
37.9406163176
 20
6.6529856709
 11
37.99284517
 21
6.4741776993
  0
LINE
  5
3D0
100
AcDbEntity
  8
ASSI
100
AcDbLine
 62
7
  6
CONTINUOUS
 10
37.9406163176
 20
6.6529856709
 11
37.99284517
 21
6.4741776993
  0
LINE
  5
3D1
100
AcDbEntity
  8
SCRITTE
100
AcDbLine
 62
253
  6
CONTINUOUS
 10
38.4632009703
 20
9.4994968918
 11
38.4632009703
 21
9.4872792769
  0
LINE
  5
3D2
100
AcDbEntity
  8
SCRITTE
100
AcDbLine
 62
253
  6
CONTINUOUS
 10
39.0965345579
 20
9.4994968918
 11
39.0965345579
 21
9.4872792769
  0
LINE
  5
3D3
100
AcDbEntity
  8
SCRITTE
100
AcDbLine
 62
253
  6
CONTINUOUS
 10
39.4298679549
 20
7.727906983
 11
39.4298679549
 21
7.0850498337
  0
LINE
  5
3D4
100
AcDbEntity
  8
SCRITTE
100
AcDbLine
 62
253
  6
CONTINUOUS
 10
39.1965343672
 20
6.156478386
 11
38.7965345579
 21
4.756478386
  0
LINE
  5
3D5
100
AcDbEntity
  8
SCRITTE
100
AcDbLine
 62
253
  6
CONTINUOUS
 10
39.5370108168
 20
7.9421926845
 11
39.4298679549
 21
7.727906983
  0
LINE
  5
3D6
100
AcDbEntity
  8
SCRITTE
100
AcDbLine
 62
253
  6
CONTINUOUS
 10
37.3298681456
 20
3.056478386
 11
38.0298681456
 21
4.456478386
  0
LINE
  5
3D7
100
AcDbEntity
  8
SCRITTE
100
AcDbLine
 62
253
  6
CONTINUOUS
 10
39.7512965295
 20
8.156478386
 11
39.5370108168
 21
7.9421926845
  0
LWPOLYLINE
  5
3D8
100
AcDbEntity
  8
DEFAULT_3
100
AcDbPolyline
 62
7
  6
PHANTOM
 90
40
 70
0
 10
38.059758516
 20
7.3056790729
 10
38.0801346165
 20
7.3229299305
 10
38.0904113552
 20
7.3319446329
 10
38.1006972711
 20
7.3414066874
 10
38.1110120276
 20
7.3512590555
 10
38.1213359614
 20
7.3615587756
 10
38.131577486
 20
7.3725591662
 10
38.1417492813
 20
7.3842836853
 10
38.1518386674
 20
7.3967088748
 10
38.1617160178
 20
7.4100176785
 10
38.1713934607
 20
7.4242587808
 10
38.1808588678
 20
7.4393834973
 10
38.1899462286
 20
7.4554287186
 10
38.1986739688
 20
7.4724119914
 10
38.2070236626
 20
7.490315769
 10
38.2147740221
 20
7.5091243029
 10
38.2219292046
 20
7.5288269833
 10
38.2284850528
 20
7.5494344199
 10
38.2342078077
 20
7.5709626933
 10
38.2390989503
 20
7.5934085007
 10
38.2431569996
 20
7.616775145
 10
38.2461437535
 20
7.6410886147
 10
38.2480816973
 20
7.6663835102
 10
38.2489483456
 20
7.6926252313
 10
38.2484380397
 20
7.7197359661
 10
38.246668145
 20
7.7477498309
 10
38.2435212961
 20
7.7766327095
 10
38.2383397369
 20
7.8062044409
 10
38.2311884617
 20
7.8365645475
 10
38.2220024762
 20
7.867613507
 10
38.2099290422
 20
7.8988725919
 10
38.1948600332
 20
7.930552177
 10
38.1769035757
 20
7.9624418876
 10
38.1555313114
 20
7.9934318719
 10
38.1299290865
 20
8.0239660412
 10
38.1009110546
 20
8.0536004842
 10
38.0703913186
 20
8.0798936154
 10
38.0390079127
 20
8.1020315731
 10
38.0061228026
 20
8.1208282191
 10
37.9717359884
 20
8.1362835534
  0
LWPOLYLINE
  5
3D9
100
AcDbEntity
  8
ASSI
100
AcDbPolyline
 62
7
  6
CONTINUOUS
 90
40
 70
0
 10
38.059758516
 20
7.3056790729
 10
38.0801346165
 20
7.3229299305
 10
38.0904113552
 20
7.3319446329
 10
38.1006972711
 20
7.3414066874
 10
38.1110120276
 20
7.3512590555
 10
38.1213359614
 20
7.3615587756
 10
38.131577486
 20
7.3725591662
 10
38.1417492813
 20
7.3842836853
 10
38.1518386674
 20
7.3967088748
 10
38.1617160178
 20
7.4100176785
 10
38.1713934607
 20
7.4242587808
 10
38.1808588678
 20
7.4393834973
 10
38.1899462286
 20
7.4554287186
 10
38.1986739688
 20
7.4724119914
 10
38.2070236626
 20
7.490315769
 10
38.2147740221
 20
7.5091243029
 10
38.2219292046
 20
7.5288269833
 10
38.2284850528
 20
7.5494344199
 10
38.2342078077
 20
7.5709626933
 10
38.2390989503
 20
7.5934085007
 10
38.2431569996
 20
7.616775145
 10
38.2461437535
 20
7.6410886147
 10
38.2480816973
 20
7.6663835102
 10
38.2489483456
 20
7.6926252313
 10
38.2484380397
 20
7.7197359661
 10
38.246668145
 20
7.7477498309
 10
38.2435212961
 20
7.7766327095
 10
38.2383397369
 20
7.8062044409
 10
38.2311884617
 20
7.8365645475
 10
38.2220024762
 20
7.867613507
 10
38.2099290422
 20
7.8988725919
 10
38.1948600332
 20
7.930552177
 10
38.1769035757
 20
7.9624418876
 10
38.1555313114
 20
7.9934318719
 10
38.1299290865
 20
8.0239660412
 10
38.1009110546
 20
8.0536004842
 10
38.0703913186
 20
8.0798936154
 10
38.0390079127
 20
8.1020315731
 10
38.0061228026
 20
8.1208282191
 10
37.9717359884
 20
8.1362835534
  0
LINE
  5
3DA
100
AcDbEntity
  8
DEFAULT_3
100
AcDbLine
 62
7
  6
PHANTOM
 10
38.0496591541
 20
7.2974429178
 11
38.059758516
 21
7.3056790729
  0
LINE
  5
3DB
100
AcDbEntity
  8
ASSI
100
AcDbLine
 62
7
  6
CONTINUOUS
 10
38.0496591541
 20
7.2974429178
 11
38.059758516
 21
7.3056790729
  0
LINE
  5
3DC
100
AcDbEntity
  8
RACCORDO
100
AcDbLine
 62
253
  6
PHANTOM
 10
28.7276283967
 20
3.5684261486
 11
28.7371342023
 21
3.5731786894
  0
LINE
  5
3DD
100
AcDbEntity
  8
ASSI
100
AcDbLine
 62
253
  6
CONTINUOUS
 10
28.7276283967
 20
3.5684261486
 11
28.7371342023
 21
3.5731786894
  0
LINE
  5
3DE
100
AcDbEntity
  8
RACCORDO
100
AcDbLine
 62
7
  6
PHANTOM
 10
48.6298679549
 20
2.0195686877
 11
48.5225940168
 21
2.0088682674
  0
LINE
  5
3DF
100
AcDbEntity
  8
ASSI
100
AcDbLine
 62
7
  6
CONTINUOUS
 10
48.6298679549
 20
2.0195686877
 11
48.5225940168
 21
2.0088682674
  0
LWPOLYLINE
  5
3E0
100
AcDbEntity
  8
RACCORDO
100
AcDbPolyline
 62
7
  6
CONTINUOUS
 90
6
 70
0
 10
63.4298831853
 20
2.856478386
 10
63.4472363203
 20
2.8580017535
 10
63.4640631489
 20
2.8625151382
 10
63.4798526027
 20
2.8698822199
 10
63.4941248107
 20
2.8798801206
 10
63.5005418058
 20
2.8857614216
  0
LWPOLYLINE
  5
3E1
100
AcDbEntity
  8
RACCORDO
100
AcDbPolyline
 62
7
  6
CONTINUOUS
 90
16
 70
0
 10
48.8826146129
 20
1.9540972318
 10
48.9464394361
 20
1.957681813
 10
49.0082362067
 20
1.9674659723
 10
49.0680049249
 20
1.9834497099
 10
49.1263485787
 20
2.0059419287
 10
49.1826641801
 20
2.0346337258
 10
49.2351427646
 20
2.0685983917
 10
49.2836599542
 20
2.1080056211
 10
49.3283401271
 20
2.1526857194
 10
49.3677474532
 20
2.2012028937
 10
49.4017122435
 20
2.2536815544
 10
49.430404187
 20
2.3099972911
 10
49.4528965216
 20
2.3683410792
 10
49.4688803264
 20
2.4281099107
 10
49.4786645223
 20
2.4899067936
 10
49.4822491091
 20
2.553731728
  0
LWPOLYLINE
  5
3E2
100
AcDbEntity
  8
RACCORDO
100
AcDbPolyline
 62
253
  6
PHANTOM
 90
19
 70
0
 10
48.7884001014
 20
2.0479690857
 10
48.8406896904
 20
2.0502553029
 10
48.89258129
 20
2.0570899366
 10
48.9436800165
 20
2.06842097
 10
48.9935970152
 20
2.0841621646
 10
49.0419524328
 20
2.104193731
 10
49.0883783056
 20
2.1283632465
 10
49.1325213328
 20
2.1564867834
 10
49.1740455981
 20
2.1883503283
 10
49.2126351302
 20
2.2237114386
 10
49.2479962957
 20
2.2623010821
 10
49.2798599416
 20
2.3038255608
 10
49.3079835042
 20
2.3479687508
 10
49.3321529546
 20
2.3943946522
 10
49.3521844271
 20
2.4427500168
 10
49.3679255282
 20
2.4926669106
 10
49.3792564825
 20
2.5437654918
 10
49.3860910597
 20
2.595656895
 10
49.3883772552
 20
2.6479462395
  0
LWPOLYLINE
  5
3E3
100
AcDbEntity
  8
ASSI
100
AcDbPolyline
 62
253
  6
CONTINUOUS
 90
19
 70
0
 10
48.7884001014
 20
2.0479690857
 10
48.8406896904
 20
2.0502553029
 10
48.89258129
 20
2.0570899366
 10
48.9436800165
 20
2.06842097
 10
48.9935970152
 20
2.0841621646
 10
49.0419524328
 20
2.104193731
 10
49.0883783056
 20
2.1283632465
 10
49.1325213328
 20
2.1564867834
 10
49.1740455981
 20
2.1883503283
 10
49.2126351302
 20
2.2237114386
 10
49.2479962957
 20
2.2623010821
 10
49.2798599416
 20
2.3038255608
 10
49.3079835042
 20
2.3479687508
 10
49.3321529546
 20
2.3943946522
 10
49.3521844271
 20
2.4427500168
 10
49.3679255282
 20
2.4926669106
 10
49.3792564825
 20
2.5437654918
 10
49.3860910597
 20
2.595656895
 10
49.3883772552
 20
2.6479462395
  0
LWPOLYLINE
  5
3E4
100
AcDbEntity
  8
RACCORDO
100
AcDbPolyline
 62
7
  6
PHANTOM
 90
4
 70
0
 10
48.4927964775
 20
2.007938491
 10
48.5067943732
 20
2.0082309189
 10
48.5167268863
 20
2.0085408444
 10
48.5225940168
 20
2.0088682674
  0
LWPOLYLINE
  5
3E5
100
AcDbEntity
  8
ASSI
100
AcDbPolyline
 62
7
  6
CONTINUOUS
 90
4
 70
0
 10
48.4927964775
 20
2.007938491
 10
48.5067943732
 20
2.0082309189
 10
48.5167268863
 20
2.0085408444
 10
48.5225940168
 20
2.0088682674
  0
LINE
  5
3E6
100
AcDbEntity
  8
RACCORDO
100
AcDbLine
 62
7
  6
PHANTOM
 10
48.4519357204
 20
2.0073983488
 11
48.4927964775
 21
2.007938491
  0
LINE
  5
3E7
100
AcDbEntity
  8
ASSI
100
AcDbLine
 62
7
  6
CONTINUOUS
 10
48.4519357204
 20
2.0073983488
 11
48.4927964775
 21
2.007938491
  0
LINE
  5
3E8
100
AcDbEntity
  8
RACCORDO
100
AcDbLine
 62
7
  6
PHANTOM
 10
48.3658960769
 20
2.0067920221
 11
48.4519357204
 21
2.0073983488
  0
LINE
  5
3E9
100
AcDbEntity
  8
ASSI
100
AcDbLine
 62
7
  6
CONTINUOUS
 10
48.3658960769
 20
2.0067920221
 11
48.4519357204
 21
2.0073983488
  0
LINE
  5
3EA
100
AcDbEntity
  8
RACCORDO
100
AcDbLine
 62
7
  6
CONTINUOUS
 10
48.6298679549
 20
1.9540972318
 11
48.8826146129
 21
1.9540972318
  0
LINE
  5
3EB
100
AcDbEntity
  8
DRAFT
100
AcDbLine
 62
7
  6
CONTINUOUS
 10
48.5774868006
 20
2.006478386
 11
41.1822491091
 21
2.006478386
  0
LINE
  5
3EC
100
AcDbEntity
  8
DRAFT
100
AcDbLine
 62
7
  6
PHANTOM
 10
41.0298679549
 20
2.006478386
 11
37.8298679549
 21
2.006478386
  0
LINE
  5
3ED
100
AcDbEntity
  8
RACCORDO
100
AcDbLine
 62
7
  6
CONTINUOUS
 10
37.6774868006
 20
2.006478386
 11
29.4295024511
 21
2.006478386
  0
LINE
  5
3EE
100
AcDbEntity
  8
RACCORDO
100
AcDbLine
 62
7
  6
PHANTOM
 10
37.6774868006
 20
2.006478386
 11
37.8298679549
 21
2.006478386
  0
LINE
  5
3EF
100
AcDbEntity
  8
RACCORDO
100
AcDbLine
 62
7
  6
PHANTOM
 10
41.0298679549
 20
2.006478386
 11
48.3658960769
 21
2.0067920221
  0
LINE
  5
3F0
100
AcDbEntity
  8
ASSI
100
AcDbLine
 62
7
  6
CONTINUOUS
 10
30.0798622433
 20
2.006478386
 11
48.3658960769
 21
2.0067920221
  0
LINE
  5
3F1
100
AcDbEntity
  8
RACCORDO
100
AcDbLine
 62
7
  6
PHANTOM
 10
48.8168004993
 20
2.0195686877
 11
48.6298679549
 21
2.0195686877
  0
LINE
  5
3F2
100
AcDbEntity
  8
ASSI
100
AcDbLine
 62
7
  6
CONTINUOUS
 10
48.8168004993
 20
2.0195686877
 11
48.6298679549
 21
2.0195686877
  0
LINE
  5
3F3
100
AcDbEntity
  8
RACCORDO
100
AcDbLine
 62
7
  6
CONTINUOUS
 10
29.9298679549
 20
2.036478386
 11
29.459776572
 21
2.036478386
  0
LINE
  5
3F4
100
AcDbEntity
  8
RACCORDO
100
AcDbLine
 62
7
  6
PHANTOM
 10
30.121352943
 20
2.0479690857
 11
48.7884001014
 21
2.0479690857
  0
LINE
  5
3F5
100
AcDbEntity
  8
ASSI
100
AcDbLine
 62
7
  6
CONTINUOUS
 10
30.121352943
 20
2.0479690857
 11
48.7884001014
 21
2.0479690857
  0
LINE
  5
3F6
100
AcDbEntity
  8
RACCORDO
100
AcDbLine
 62
253
  6
CONTINUOUS
 10
29.5402526504
 20
2.1169544644
 11
29.8896329801
 21
2.1169544644
  0
LWPOLYLINE
  5
3F7
100
AcDbEntity
  8
RACCORDO
100
AcDbPolyline
 62
7
  6
CONTINUOUS
 90
16
 70
0
 10
29.4295024511
 20
2.006478386
 10
29.3656401962
 20
2.0100670156
 10
29.3038088485
 20
2.0198624111
 10
29.2440084081
 20
2.0358645726
 10
29.1856346176
 20
2.0583831422
 10
29.1292917344
 20
2.0871084776
 10
29.0767925303
 20
2.1211116531
 10
29.0282620068
 20
2.1605627346
 10
28.9835751623
 20
2.205291656
 10
28.9441697641
 20
2.2538592931
 10
28.9102160056
 20
2.3064113826
 10
28.8815436934
 20
2.3628021877
 10
28.8590800136
 20
2.4211553738
 10
28.8431340283
 20
2.4808454957
 10
28.8333966754
 20
2.5424979985
 10
28.8298679549
 20
2.6061128822
  0
LWPOLYLINE
  5
3F8
100
AcDbEntity
  8
RACCORDO
100
AcDbPolyline
 62
7
  6
CONTINUOUS
 90
16
 70
0
 10
29.459776572
 20
2.036478386
 10
29.3959486816
 20
2.0400640716
 10
29.3341438837
 20
2.0498526248
 10
29.2743621783
 20
2.0658440457
 10
29.2160010396
 20
2.0883452506
 10
29.1596629934
 20
2.1170493231
 10
29.1071556168
 20
2.1510355141
 10
29.0585976194
 20
2.1904807235
 10
29.0138702916
 20
2.2352080513
 10
28.9744250824
 20
2.2837660488
 10
28.9404388915
 20
2.3362734252
 10
28.9117348192
 20
2.3926114713
 10
28.8892336144
 20
2.4509726098
 10
28.8732421936
 20
2.5107543151
 10
28.8634536404
 20
2.5725591129
 10
28.8598679549
 20
2.6363870031
  0
LWPOLYLINE
  5
3F9
100
AcDbEntity
  8
RACCORDO
100
AcDbPolyline
 62
7
  6
PHANTOM
 90
13
 70
0
 10
30.0798622433
 20
2.006478386
 10
30.0597570915
 20
2.0079402429
 10
30.0406231551
 20
2.0117461321
 10
30.0224604342
 20
2.0178960535
 10
30.004994633
 20
2.0265733175
 10
29.9885000472
 20
2.0375946138
 10
29.973799564
 20
2.050410011
 10
29.9609841697
 20
2.065110494
 10
29.9499628779
 20
2.0816050778
 10
29.9412856177
 20
2.0990708764
 10
29.9351356986
 20
2.1172335944
 10
29.931329811
 20
2.1363675271
 10
29.9298679549
 20
2.1564726745
  0
LWPOLYLINE
  5
3FA
100
AcDbEntity
  8
ASSI
100
AcDbPolyline
 62
7
  6
CONTINUOUS
 90
13
 70
0
 10
30.0798622433
 20
2.006478386
 10
30.0597570915
 20
2.0079402429
 10
30.0406231551
 20
2.0117461321
 10
30.0224604342
 20
2.0178960535
 10
30.004994633
 20
2.0265733175
 10
29.9885000472
 20
2.0375946138
 10
29.973799564
 20
2.050410011
 10
29.9609841697
 20
2.065110494
 10
29.9499628779
 20
2.0816050778
 10
29.9412856177
 20
2.0990708764
 10
29.9351356986
 20
2.1172335944
 10
29.931329811
 20
2.1363675271
 10
29.9298679549
 20
2.1564726745
  0
LWPOLYLINE
  5
3FB
100
AcDbEntity
  8
RACCORDO
100
AcDbPolyline
 62
253
  6
PHANTOM
 90
10
 70
0
 10
30.121352943
 20
2.0479690857
 10
30.0953079563
 20
2.0502495992
 10
30.0700542574
 20
2.0570178874
 10
30.0463590929
 20
2.0680683189
 10
30.0249423588
 20
2.083065164
 10
30.0064547285
 20
2.1015527952
 10
29.9914578847
 20
2.1229695294
 10
29.9804074547
 20
2.1466646931
 10
29.9736391676
 20
2.1719183902
 10
29.9713586545
 20
2.1979633741
  0
LWPOLYLINE
  5
3FC
100
AcDbEntity
  8
ASSI
100
AcDbPolyline
 62
253
  6
CONTINUOUS
 90
10
 70
0
 10
30.121352943
 20
2.0479690857
 10
30.0953079563
 20
2.0502495992
 10
30.0700542574
 20
2.0570178874
 10
30.0463590929
 20
2.0680683189
 10
30.0249423588
 20
2.083065164
 10
30.0064547285
 20
2.1015527952
 10
29.9914578847
 20
2.1229695294
 10
29.9804074547
 20
2.1466646931
 10
29.9736391676
 20
2.1719183902
 10
29.9713586545
 20
2.1979633741
  0
LWPOLYLINE
  5
3FD
100
AcDbEntity
  8
RACCORDO
100
AcDbPolyline
 62
7
  6
PHANTOM
 90
9
 70
0
 10
28.7423369708
 20
4.0440093701
 10
28.7445449495
 20
4.0435636644
 10
28.7496102136
 20
4.0431386253
 10
28.7575327631
 20
4.0427342528
 10
28.7685236329
 20
4.0423449337
 10
28.7823717881
 20
4.0419762812
 10
28.7984441239
 20
4.0416451345
 10
28.8168436944
 20
4.0413532358
 10
28.85937311
 20
4.0408935683
  0
LWPOLYLINE
  5
3FE
100
AcDbEntity
  8
ASSI
100
AcDbPolyline
 62
7
  6
CONTINUOUS
 90
9
 70
0
 10
28.7423369708
 20
4.0440093701
 10
28.7445449495
 20
4.0435636644
 10
28.7496102136
 20
4.0431386253
 10
28.7575327631
 20
4.0427342528
 10
28.7685236329
 20
4.0423449337
 10
28.7823717881
 20
4.0419762812
 10
28.7984441239
 20
4.0416451345
 10
28.8168436944
 20
4.0413532358
 10
28.85937311
 20
4.0408935683
  0
LINE
  5
3FF
100
AcDbEntity
  8
RACCORDO
100
AcDbLine
 62
253
  6
PHANTOM
 10
28.7371342023
 20
7.9397780826
 11
28.7276283967
 21
7.9445306234
  0
LINE
  5
400
100
AcDbEntity
  8
ASSI
100
AcDbLine
 62
253
  6
CONTINUOUS
 10
28.7371342023
 20
7.9397780826
 11
28.7276283967
 21
7.9445306234
  0
LINE
  5
401
100
AcDbEntity
  8
SCRITTE
100
AcDbLine
 62
253
  6
CONTINUOUS
 10
40.9298679593
 20
3.256478395
 11
41.1298679578
 21
3.056478386
  0
LWPOLYLINE
  5
402
100
AcDbEntity
  8
DEFAULT_3
100
AcDbPolyline
 62
7
  6
PHANTOM
 90
6
 70
0
 10
37.8376875866
 20
6.9896317906
 10
37.8559842898
 20
6.9359392373
 10
37.8738242271
 20
6.8812806307
 10
37.8912073985
 20
6.8256559707
 10
37.9078771068
 20
6.7689705608
 10
37.9406163176
 20
6.6529856709
  0
LWPOLYLINE
  5
403
100
AcDbEntity
  8
ASSI
100
AcDbPolyline
 62
7
  6
CONTINUOUS
 90
6
 70
0
 10
37.8376875866
 20
6.9896317906
 10
37.8559842898
 20
6.9359392373
 10
37.8738242271
 20
6.8812806307
 10
37.8912073985
 20
6.8256559707
 10
37.9078771068
 20
6.7689705608
 10
37.9406163176
 20
6.6529856709
  0
LINE
  5
404
100
AcDbEntity
  8
SCRITTE
100
AcDbLine
 62
253
  6
CONTINUOUS
 10
39.596534844
 20
4.756478386
 11
39.1965343672
 21
6.156478386
  0
LINE
  5
405
100
AcDbEntity
  8
DEFAULT_3
100
AcDbLine
 62
7
  6
PHANTOM
 10
38.254326551
 20
6.7787942135
 11
38.2128472018
 21
6.9342584303
  0
LINE
  5
406
100
AcDbEntity
  8
ASSI
100
AcDbLine
 62
7
  6
CONTINUOUS
 10
38.254326551
 20
6.7787942135
 11
38.2128472018
 21
6.9342584303
  0
LINE
  5
407
100
AcDbEntity
  8
DEFAULT_3
100
AcDbLine
 62
7
  6
PHANTOM
 10
38.3341485133
 20
6.4741776993
 11
38.254326551
 21
6.7787942135
  0
LINE
  5
408
100
AcDbEntity
  8
ASSI
100
AcDbLine
 62
7
  6
CONTINUOUS
 10
38.3341485133
 20
6.4741776993
 11
38.254326551
 21
6.7787942135
  0
LWPOLYLINE
  5
409
100
AcDbEntity
  8
DEFAULT_3
100
AcDbPolyline
 62
7
  6
PHANTOM
 90
13
 70
0
 10
38.2128472018
 20
6.9342584303
 10
38.2034754802
 20
6.9720710141
 10
38.1926986297
 20
7.0088294017
 10
38.1805166503
 20
7.0445335933
 10
38.1669587331
 20
7.0797147069
 10
38.1519956869
 20
7.1138416243
 10
38.1355399387
 20
7.1453209913
 10
38.1174498313
 20
7.1739088508
 10
38.0978670219
 20
7.1998491598
 10
38.077128908
 20
7.2222804353
 10
38.0553479557
 20
7.2409155163
 10
38.0324116989
 20
7.2560415637
 10
38.0083201376
 20
7.2676585776
  0
LWPOLYLINE
  5
40A
100
AcDbEntity
  8
ASSI
100
AcDbPolyline
 62
7
  6
CONTINUOUS
 90
13
 70
0
 10
38.2128472018
 20
6.9342584303
 10
38.2034754802
 20
6.9720710141
 10
38.1926986297
 20
7.0088294017
 10
38.1805166503
 20
7.0445335933
 10
38.1669587331
 20
7.0797147069
 10
38.1519956869
 20
7.1138416243
 10
38.1355399387
 20
7.1453209913
 10
38.1174498313
 20
7.1739088508
 10
38.0978670219
 20
7.1998491598
 10
38.077128908
 20
7.2222804353
 10
38.0553479557
 20
7.2409155163
 10
38.0324116989
 20
7.2560415637
 10
38.0083201376
 20
7.2676585776
  0
LINE
  5
40B
100
AcDbEntity
  8
SCRITTE
100
AcDbLine
 62
253
  6
CONTINUOUS
 10
39.7965345579
 20
9.4994968918
 11
39.7965345579
 21
9.4872792769
  0
LINE
  5
40C
100
AcDbEntity
  8
SCRITTE
100
AcDbLine
 62
253
  6
CONTINUOUS
 10
39.9965346533
 20
5.9564783979
 11
39.9965346533
 21
4.956478395
  0
LINE
  5
40D
100
AcDbEntity
  8
SCRITTE
100
AcDbLine
 62
253
  6
CONTINUOUS
 10
40.1798679549
 20
7.0850498337
 11
40.1798679549
 21
7.727906983
  0
LINE
  5
40E
100
AcDbEntity
  8
SCRITTE
100
AcDbLine
 62
253
  6
CONTINUOUS
 10
40.6084393579
 20
7.727906983
 11
40.6084393579
 21
7.0850498337
  0
LINE
  5
40F
100
AcDbEntity
  8
SCRITTE
100
AcDbLine
 62
253
  6
CONTINUOUS
 10
40.8298679549
 20
4.0564784099
 11
40.8298679549
 21
3.4564784039
  0
LINE
  5
410
100
AcDbEntity
  8
SCRITTE
100
AcDbLine
 62
253
  6
CONTINUOUS
 10
40.0727251041
 20
6.8707641099
 11
40.1798679549
 21
7.0850498337
  0
LINE
  5
411
100
AcDbEntity
  8
SCRITTE
100
AcDbLine
 62
253
  6
CONTINUOUS
 10
40.7155822533
 20
7.9421926845
 11
40.6084393579
 21
7.727906983
  0
LINE
  5
412
100
AcDbEntity
  8
SCRITTE
100
AcDbLine
 62
253
  6
CONTINUOUS
 10
40.9298679549
 20
8.156478386
 11
40.7155822533
 21
7.9421926845
  0
LINE
  5
413
100
AcDbEntity
  8
SCRITTE
100
AcDbLine
 62
253
  6
CONTINUOUS
 10
39.8584394026
 20
6.656478386
 11
40.0727251041
 21
6.8707641099
  0
LINE
  5
414
100
AcDbEntity
  8
SCRITTE
100
AcDbLine
 62
253
  6
CONTINUOUS
 10
41.7870107609
 20
7.9421926845
 11
42.0012965518
 21
8.156478386
  0
LWPOLYLINE
  5
415
100
AcDbEntity
  8
DEFAULT_3
100
AcDbPolyline
 62
7
  6
PHANTOM
 90
5
 70
0
 10
38.0083201376
 20
7.2777032848
 10
38.0187878889
 20
7.2807153449
 10
38.0291738405
 20
7.2849610538
 10
38.0394779926
 20
7.2904404116
 10
38.0496591541
 20
7.2974429178
  0
LWPOLYLINE
  5
416
100
AcDbEntity
  8
ASSI
100
AcDbPolyline
 62
7
  6
CONTINUOUS
 90
5
 70
0
 10
38.0083201376
 20
7.2777032848
 10
38.0187878889
 20
7.2807153449
 10
38.0291738405
 20
7.2849610538
 10
38.0394779926
 20
7.2904404116
 10
38.0496591541
 20
7.2974429178
  0
LINE
  5
417
100
AcDbEntity
  8
SCRITTE
100
AcDbLine
 62
253
  6
CONTINUOUS
 10
47.4111179549
 20
3.056478386
 11
47.5861179549
 21
3.100228386
  0
LINE
  5
418
100
AcDbEntity
  8
SCRITTE
100
AcDbLine
 62
253
  6
CONTINUOUS
 10
47.4111179549
 20
3.843978386
 11
47.2361179549
 21
3.800228386
  0
LINE
  5
419
100
AcDbEntity
  8
RACCORDO
100
AcDbLine
 62
7
  6
PHANTOM
 10
62.4947155018
 20
3.9109692467
 11
62.4298679549
 21
3.906478386
  0
LINE
  5
41A
100
AcDbEntity
  8
ASSI
100
AcDbLine
 62
7
  6
CONTINUOUS
 10
62.4947155018
 20
3.9109692467
 11
62.4298679549
 21
3.906478386
  0
LWPOLYLINE
  5
41B
100
AcDbEntity
  8
RACCORDO
100
AcDbPolyline
 62
253
  6
PHANTOM
 90
19
 70
0
 10
48.7884001014
 20
2.5479500472
 10
48.7971357116
 20
2.5483338732
 10
48.8057044601
 20
2.5494539358
 10
48.8141063467
 20
2.5513102352
 10
48.8224112845
 20
2.5539269727
 10
48.8305493605
 20
2.5572799468
 10
48.8383108361
 20
2.5612965535
 10
48.8456814603
 20
2.5659952024
 10
48.852675484
 20
2.5713574837
 10
48.8591259212
 20
2.5772555639
 10
48.8650161893
 20
2.5837002617
 10
48.8703628709
 20
2.5906807582
 10
48.8750487273
 20
2.5980367634
 10
48.8790589666
 20
2.6057812048
 10
48.8824083808
 20
2.6139011548
 10
48.8850241069
 20
2.6221975406
 10
48.8868818572
 20
2.6306040045
 10
48.8880059195
 20
2.6391869041
 10
48.8883962937
 20
2.6479462395
  0
LWPOLYLINE
  5
41C
100
AcDbEntity
  8
ASSI
100
AcDbPolyline
 62
253
  6
CONTINUOUS
 90
19
 70
0
 10
48.7884001014
 20
2.5479500472
 10
48.7971357116
 20
2.5483338732
 10
48.8057044601
 20
2.5494539358
 10
48.8141063467
 20
2.5513102352
 10
48.8224112845
 20
2.5539269727
 10
48.8305493605
 20
2.5572799468
 10
48.8383108361
 20
2.5612965535
 10
48.8456814603
 20
2.5659952024
 10
48.852675484
 20
2.5713574837
 10
48.8591259212
 20
2.5772555639
 10
48.8650161893
 20
2.5837002617
 10
48.8703628709
 20
2.5906807582
 10
48.8750487273
 20
2.5980367634
 10
48.8790589666
 20
2.6057812048
 10
48.8824083808
 20
2.6139011548
 10
48.8850241069
 20
2.6221975406
 10
48.8868818572
 20
2.6306040045
 10
48.8880059195
 20
2.6391869041
 10
48.8883962937
 20
2.6479462395
  0
LINE
  5
41D
100
AcDbEntity
  8
RACCORDO
100
AcDbLine
 62
7
  6
CONTINUOUS
 10
62.496170108
 20
2.856869307
 11
62.4673533552
 21
2.8565842195
  0
LINE
  5
41E
100
AcDbEntity
  8
RACCORDO
100
AcDbLine
 62
7
  6
CONTINUOUS
 10
62.4673533552
 20
2.8565842195
 11
62.4333013182
 21
2.856478386
  0
LINE
  5
41F
100
AcDbEntity
  8
RACCORDO
100
AcDbLine
 62
7
  6
PHANTOM
 10
29.9091169766
 20
3.3736308607
 11
29.9470377728
 21
3.373648204
  0
LINE
  5
420
100
AcDbEntity
  8
ASSI
100
AcDbLine
 62
7
  6
CONTINUOUS
 10
29.9091169766
 20
3.3736308607
 11
29.9470377728
 21
3.373648204
  0
LINE
  5
421
100
AcDbEntity
  8
RACCORDO
100
AcDbLine
 62
253
  6
PHANTOM
 10
29.9743864039
 20
2.5479500472
 11
48.7884001014
 21
2.5479500472
  0
LINE
  5
422
100
AcDbEntity
  8
ASSI
100
AcDbLine
 62
253
  6
CONTINUOUS
 10
29.9743864039
 20
2.5479500472
 11
48.7884001014
 21
2.5479500472
  0
LINE
  5
423
100
AcDbEntity
  8
RACCORDO
100
AcDbLine
 62
253
  6
PHANTOM
 10
48.8883962937
 20
2.6479462395
 11
49.3883772552
 21
2.6479462395
  0
LINE
  5
424
100
AcDbEntity
  8
ASSI
100
AcDbLine
 62
253
  6
CONTINUOUS
 10
48.8883962937
 20
2.6479462395
 11
49.3883772552
 21
2.6479462395
  0
LINE
  5
425
100
AcDbEntity
  8
RACCORDO
100
AcDbLine
 62
253
  6
CONTINUOUS
 10
28.9403440333
 20
2.7168630815
 11
29.8844882423
 21
2.7168630815
  0
LINE
  5
426
100
AcDbEntity
  8
DRAFT
100
AcDbLine
 62
7
  6
PHANTOM
 10
30.7263769419
 20
2.802987373
 11
48.6333589678
 21
2.802987373
  0
LINE
  5
427
100
AcDbEntity
  8
ASSI
100
AcDbLine
 62
7
  6
CONTINUOUS
 10
30.7263769419
 20
2.802987373
 11
48.6333589678
 21
2.802987373
  0
LINE
  5
428
100
AcDbEntity
  8
DRAFT
100
AcDbLine
 62
7
  6
PHANTOM
 10
30.7298679549
 20
2.806478386
 11
48.6298679549
 21
2.806478386
  0
LINE
  5
429
100
AcDbEntity
  8
RACCORDO
100
AcDbLine
 62
7
  6
CONTINUOUS
 10
63.4298831853
 20
2.856478386
 11
49.4822491091
 21
2.856478386
  0
LINE
  5
42A
100
AcDbEntity
  8
DRAFT
100
AcDbLine
 62
7
  6
PHANTOM
 10
62.4298679549
 20
2.856478386
 11
49.4167776532
 21
2.856478386
  0
LINE
  5
42B
100
AcDbEntity
  8
ASSI
100
AcDbLine
 62
7
  6
CONTINUOUS
 10
62.4298679549
 20
2.856478386
 11
49.4167776532
 21
2.856478386
  0
LINE
  5
42C
100
AcDbEntity
  8
RACCORDO
100
AcDbLine
 62
253
  6
PHANTOM
 10
49.4124910705
 20
2.8650522042
 11
62.4212941366
 21
2.8650522042
  0
LINE
  5
42D
100
AcDbEntity
  8
ASSI
100
AcDbLine
 62
253
  6
CONTINUOUS
 10
49.4124910705
 20
2.8650522042
 11
62.4212941366
 21
2.8650522042
  0
LINE
  5
42E
100
AcDbEntity
  8
RACCORDO
100
AcDbLine
 62
253
  6
CONTINUOUS
 10
62.5489039497
 20
2.8659934835
 11
63.4203679595
 21
2.8659936119
  0
LINE
  5
42F
100
AcDbEntity
  8
RACCORDO
100
AcDbLine
 62
253
  6
CONTINUOUS
 10
62.5524219319
 20
2.878047728
 11
63.4189611822
 21
2.8780496549
  0
LINE
  5
430
100
AcDbEntity
  8
RACCORDO
100
AcDbLine
 62
253
  6
PHANTOM
 10
49.4105232329
 20
2.8948596498
 11
62.4173581617
 21
2.8948596498
  0
LINE
  5
431
100
AcDbEntity
  8
ASSI
100
AcDbLine
 62
253
  6
CONTINUOUS
 10
49.4105232329
 20
2.8948596498
 11
62.4173581617
 21
2.8948596498
  0
LINE
  5
432
100
AcDbEntity
  8
SCRITTE
100
AcDbLine
 62
253
  6
CONTINUOUS
 10
38.0298681456
 20
3.056478386
 11
37.3298681456
 21
3.056478386
  0
LINE
  5
433
100
AcDbEntity
  8
SCRITTE
100
AcDbLine
 62
253
  6
CONTINUOUS
 10
36.9298680025
 20
3.056478386
 11
36.2298680025
 21
3.056478386
  0
LINE
  5
434
100
AcDbEntity
  8
SCRITTE
100
AcDbLine
 62
253
  6
CONTINUOUS
 10
41.1298679578
 20
3.056478386
 11
41.2298679727
 21
3.056478386
  0
LINE
  5
435
100
AcDbEntity
  8
SCRITTE
100
AcDbLine
 62
253
  6
CONTINUOUS
 10
47.2798679549
 20
3.056478386
 11
47.4111179549
 21
3.056478386
  0
LINE
  5
436
100
AcDbEntity
  8
SCRITTE
100
AcDbLine
 62
253
  6
CONTINUOUS
 10
42.1632012922
 20
3.1231450539
 11
42.1965345818
 21
3.1231450539
  0
LINE
  5
437
100
AcDbEntity
  8
DRAFT
100
AcDbLine
 62
7
  6
CONTINUOUS
 10
28.8298679549
 20
3.1754589378
 11
28.8598679549
 21
3.1754589378
  0
LINE
  5
438
100
AcDbEntity
  8
SCRITTE
100
AcDbLine
 62
253
  6
CONTINUOUS
 10
42.2298679549
 20
3.2898117263
 11
42.1965345818
 21
3.2898117263
  0
LINE
  5
439
100
AcDbEntity
  8
DRAFT
100
AcDbLine
 62
7
  6
PHANTOM
 10
29.9298679549
 20
3.356478386
 11
29.9093100476
 21
3.356478386
  0
LINE
  5
43A
100
AcDbEntity
  8
ASSI
100
AcDbLine
 62
7
  6
CONTINUOUS
 10
29.9298679549
 20
3.356478386
 11
29.9093100476
 21
3.356478386
  0
LINE
  5
43B
100
AcDbEntity
  8
DRAFT
100
AcDbLine
 62
7
  6
PHANTOM
 10
28.9009868957
 20
3.356478386
 11
26.9298679549
 21
3.356478386
  0
LINE
  5
43C
100
AcDbEntity
  8
ASSI
100
AcDbLine
 62
7
  6
CONTINUOUS
 10
28.9009868957
 20
3.356478386
 11
26.9298679549
 21
3.356478386
  0
LINE
  5
43D
100
AcDbEntity
  8
RACCORDO
100
AcDbLine
 62
7
  6
PHANTOM
 10
26.9389238534
 20
3.3655342846
 11
28.9012074645
 21
3.3655342846
  0
LINE
  5
43E
100
AcDbEntity
  8
ASSI
100
AcDbLine
 62
7
  6
CONTINUOUS
 10
26.9389238534
 20
3.3655342846
 11
28.9012074645
 21
3.3655342846
  0
LINE
  5
43F
100
AcDbEntity
  8
RACCORDO
100
AcDbLine
 62
253
  6
PHANTOM
 10
26.9398261377
 20
3.3953907096
 11
28.8199437241
 21
3.3953907096
  0
LINE
  5
440
100
AcDbEntity
  8
ASSI
100
AcDbLine
 62
253
  6
CONTINUOUS
 10
26.9398261377
 20
3.3953907096
 11
28.8199437241
 21
3.3953907096
  0
LINE
  5
441
100
AcDbEntity
  8
SCRITTE
100
AcDbLine
 62
253
  6
CONTINUOUS
 10
39.9965346533
 20
4.956478395
 11
40.1965345579
 21
4.756478386
  0
LINE
  5
442
100
AcDbEntity
  8
SCRITTE
100
AcDbLine
 62
253
  6
CONTINUOUS
 10
42.1298679191
 20
3.1564783905
 11
42.1632012922
 21
3.1231450539
  0
LINE
  5
443
100
AcDbEntity
  8
SCRITTE
100
AcDbLine
 62
253
  6
CONTINUOUS
 10
41.4298679608
 20
4.2564783979
 11
41.2298679727
 21
4.456478386
  0
LINE
  5
444
100
AcDbEntity
  8
SCRITTE
100
AcDbLine
 62
253
  6
CONTINUOUS
 10
40.8298679549
 20
3.4564784039
 11
40.9298679593
 21
3.256478395
  0
LINE
  5
445
100
AcDbEntity
  8
SCRITTE
100
AcDbLine
 62
253
  6
CONTINUOUS
 10
39.4298679549
 20
7.0850498337
 11
39.5370108168
 21
6.8707641099
  0
LINE
  5
446
100
AcDbEntity
  8
SCRITTE
100
AcDbLine
 62
253
  6
CONTINUOUS
 10
41.5298679549
 20
4.0564784099
 11
41.4298679608
 21
4.2564783979
  0
LINE
  5
447
100
AcDbEntity
  8
SCRITTE
100
AcDbLine
 62
253
  6
CONTINUOUS
 10
41.296534844
 20
9.4977515183
 11
41.296534844
 21
9.4890246505
  0
LINE
  5
448
100
AcDbEntity
  8
SCRITTE
100
AcDbLine
 62
253
  6
CONTINUOUS
 10
41.3584393579
 20
7.0850498337
 11
41.3584393579
 21
7.727906983
  0
LINE
  5
449
100
AcDbEntity
  8
SCRITTE
100
AcDbLine
 62
253
  6
CONTINUOUS
 10
41.5298679549
 20
3.4564784039
 11
41.5298679549
 21
4.0564784099
  0
LINE
  5
44A
100
AcDbEntity
  8
SCRITTE
100
AcDbLine
 62
253
  6
CONTINUOUS
 10
41.7870107609
 20
7.5136212815
 11
41.7870107609
 21
7.9421926845
  0
LINE
  5
44B
100
AcDbEntity
  8
SCRITTE
100
AcDbLine
 62
253
  6
CONTINUOUS
 10
42.1298679191
 20
3.1898117218
 11
42.1298679191
 21
3.1564783905
  0
LINE
  5
44C
100
AcDbEntity
  8
SCRITTE
100
AcDbLine
 62
253
  6
CONTINUOUS
 10
42.2298681456
 20
6.156478386
 11
42.2298681456
 21
4.756478386
  0
LINE
  5
44D
100
AcDbEntity
  8
SCRITTE
100
AcDbLine
 62
253
  6
CONTINUOUS
 10
42.2632013279
 20
3.1898117218
 11
42.2632013279
 21
3.2231450532
  0
LINE
  5
44E
100
AcDbEntity
  8
SCRITTE
100
AcDbLine
 62
253
  6
CONTINUOUS
 10
42.4632010657
 20
9.4994968918
 11
42.4632010657
 21
9.4872792769
  0
LINE
  5
44F
100
AcDbEntity
  8
SCRITTE
100
AcDbLine
 62
253
  6
CONTINUOUS
 10
42.5370107609
 20
7.5136212815
 11
42.4298679549
 21
7.0850498337
  0
LINE
  5
450
100
AcDbEntity
  8
SCRITTE
100
AcDbLine
 62
253
  6
CONTINUOUS
 10
41.2512965518
 20
6.8707641099
 11
41.3584393579
 21
7.0850498337
  0
LINE
  5
451
100
AcDbEntity
  8
SCRITTE
100
AcDbLine
 62
253
  6
CONTINUOUS
 10
40.9298679593
 20
4.2564783979
 11
40.8298679549
 21
4.0564784099
  0
LINE
  5
452
100
AcDbEntity
  8
SCRITTE
100
AcDbLine
 62
253
  6
CONTINUOUS
 10
41.1632015425
 20
4.78981172
 11
41.963201161
 21
6.0231450606
  0
LINE
  5
453
100
AcDbEntity
  8
SCRITTE
100
AcDbLine
 62
253
  6
CONTINUOUS
 10
40.1965345579
 20
6.156478386
 11
39.9965346533
 21
5.9564783979
  0
LINE
  5
454
100
AcDbEntity
  8
SCRITTE
100
AcDbLine
 62
253
  6
CONTINUOUS
 10
41.0370107609
 20
6.656478386
 11
41.2512965518
 21
6.8707641099
  0
LINE
  5
455
100
AcDbEntity
  8
SCRITTE
100
AcDbLine
 62
253
  6
CONTINUOUS
 10
42.4298679549
 20
7.0850498337
 11
42.0012965518
 21
6.656478386
  0
LINE
  5
456
100
AcDbEntity
  8
SCRITTE
100
AcDbLine
 62
253
  6
CONTINUOUS
 10
43.5727250296
 20
7.6207640875
 11
43.394153567
 21
7.5136212815
  0
LINE
  5
457
100
AcDbEntity
  8
RACCORDO
100
AcDbLine
 62
253
  6
PHANTOM
 10
29.9080507854
 20
3.8736233026
 11
29.9513710991
 21
3.8736431154
  0
LINE
  5
458
100
AcDbEntity
  8
ASSI
100
AcDbLine
 62
253
  6
CONTINUOUS
 10
29.9080507854
 20
3.8736233026
 11
29.9513710991
 21
3.8736431154
  0
LINE
  5
459
100
AcDbEntity
  8
SCRITTE
100
AcDbLine
 62
253
  6
CONTINUOUS
 10
47.3673679549
 20
3.843978386
 11
47.4111179549
 21
3.843978386
  0
LINE
  5
45A
100
AcDbEntity
  8
RACCORDO
100
AcDbLine
 62
253
  6
PHANTOM
 10
62.3902583844
 20
3.8715137402
 11
49.3969743763
 21
3.8715137402
  0
LINE
  5
45B
100
AcDbEntity
  8
ASSI
100
AcDbLine
 62
253
  6
CONTINUOUS
 10
62.3902583844
 20
3.8715137402
 11
49.3969743763
 21
3.8715137402
  0
LINE
  5
45C
100
AcDbEntity
  8
RACCORDO
100
AcDbLine
 62
253
  6
PHANTOM
 10
28.7423369708
 20
3.8731768267
 11
28.9035056172
 21
3.8731768281
  0
LINE
  5
45D
100
AcDbEntity
  8
ASSI
100
AcDbLine
 62
253
  6
CONTINUOUS
 10
28.7423369708
 20
3.8731768267
 11
28.9035056172
 21
3.8731768281
  0
LINE
  5
45E
100
AcDbEntity
  8
0
100
AcDbLine
 62
7
  6
CONTINUOUS
 10
26.9394770414
 20
4.006478386
 11
23.7665300921
 21
4.006478386
  0
LINE
  5
45F
100
AcDbEntity
  8
DRAFT
100
AcDbLine
 62
7
  6
PHANTOM
 10
29.9450241825
 20
4.0523462193
 11
29.9080507854
 21
4.0523462193
  0
LINE
  5
460
100
AcDbEntity
  8
ASSI
100
AcDbLine
 62
7
  6
CONTINUOUS
 10
29.9450241825
 20
4.0523462193
 11
29.9080507854
 21
4.0523462193
  0
LINE
  5
461
100
AcDbEntity
  8
DRAFT
100
AcDbLine
 62
7
  6
PHANTOM
 10
28.9035056172
 20
4.0523462193
 11
28.7340001215
 21
4.0523462193
  0
LINE
  5
462
100
AcDbEntity
  8
ASSI
100
AcDbLine
 62
7
  6
CONTINUOUS
 10
28.9035056172
 20
4.0523462193
 11
28.7340001215
 21
4.0523462193
  0
LINE
  5
463
100
AcDbEntity
  8
RACCORDO
100
AcDbLine
 62
253
  6
CONTINUOUS
 10
63.3445083476
 20
4.1393620361
 11
63.0030756606
 21
4.1393620361
  0
LINE
  5
464
100
AcDbEntity
  8
RACCORDO
100
AcDbLine
 62
253
  6
CONTINUOUS
 10
63.2896908399
 20
4.2489970428
 11
63.1127106673
 21
4.2489970428
  0
LINE
  5
465
100
AcDbEntity
  8
SCRITTE
100
AcDbLine
 62
253
  6
CONTINUOUS
 10
47.4111179549
 20
4.368978386
 11
47.3236179549
 21
4.368978386
  0
LINE
  5
466
100
AcDbEntity
  8
RACCORDO
100
AcDbLine
 62
253
  6
PHANTOM
 10
62.5778643968
 20
4.4460695642
 11
62.4070736936
 21
4.4460695642
  0
LINE
  5
467
100
AcDbEntity
  8
ASSI
100
AcDbLine
 62
253
  6
CONTINUOUS
 10
62.5778643968
 20
4.4460695642
 11
62.4070736936
 21
4.4460695642
  0
LINE
  5
468
100
AcDbEntity
  8
SCRITTE
100
AcDbLine
 62
253
  6
CONTINUOUS
 10
41.2298679727
 20
4.456478386
 11
41.1298679578
 21
4.456478386
  0
LINE
  5
469
100
AcDbEntity
  8
SCRITTE
100
AcDbLine
 62
253
  6
CONTINUOUS
 10
38.0298681456
 20
4.456478386
 11
37.3298681456
 21
4.456478386
  0
LINE
  5
46A
100
AcDbEntity
  8
SCRITTE
100
AcDbLine
 62
253
  6
CONTINUOUS
 10
36.9298680025
 20
4.456478386
 11
36.2298680025
 21
4.456478386
  0
LINE
  5
46B
100
AcDbEntity
  8
RACCORDO
100
AcDbLine
 62
253
  6
PHANTOM
 10
62.3862302925
 20
4.5104848066
 11
49.3949604837
 21
4.5104848066
  0
LINE
  5
46C
100
AcDbEntity
  8
ASSI
100
AcDbLine
 62
253
  6
CONTINUOUS
 10
62.3862302925
 20
4.5104848066
 11
49.3949604837
 21
4.5104848066
  0
LINE
  5
46D
100
AcDbEntity
  8
SCRITTE
100
AcDbLine
 62
253
  6
CONTINUOUS
 10
32.2298679906
 20
4.756478386
 11
32.9298679072
 21
4.756478386
  0
LINE
  5
46E
100
AcDbEntity
  8
SCRITTE
100
AcDbLine
 62
253
  6
CONTINUOUS
 10
34.3298679072
 20
4.756478386
 11
35.0298679072
 21
4.756478386
  0
LINE
  5
46F
100
AcDbEntity
  8
SCRITTE
100
AcDbLine
 62
253
  6
CONTINUOUS
 10
40.1965345579
 20
4.756478386
 11
40.5965343672
 21
4.756478386
  0
LINE
  5
470
100
AcDbEntity
  8
SCRITTE
100
AcDbLine
 62
253
  6
CONTINUOUS
 10
42.2298681456
 20
4.756478386
 11
42.7298675734
 21
4.756478386
  0
LINE
  5
471
100
AcDbEntity
  8
SCRITTE
100
AcDbLine
 62
253
  6
CONTINUOUS
 10
43.6965345579
 20
4.756478386
 11
44.0965343672
 21
4.756478386
  0
LINE
  5
472
100
AcDbEntity
  8
RACCORDO
100
AcDbLine
 62
7
  6
PHANTOM
 10
29.9513710991
 20
4.0396514195
 11
29.9080507854
 21
4.0396910481
  0
LINE
  5
473
100
AcDbEntity
  8
ASSI
100
AcDbLine
 62
7
  6
CONTINUOUS
 10
29.9513710991
 20
4.0396514195
 11
29.9080507854
 21
4.0396910481
  0
LINE
  5
474
100
AcDbEntity
  8
RACCORDO
100
AcDbLine
 62
7
  6
PHANTOM
 10
28.85937311
 20
4.0408935683
 11
28.9035056172
 21
4.0406504867
  0
LINE
  5
475
100
AcDbEntity
  8
ASSI
100
AcDbLine
 62
7
  6
CONTINUOUS
 10
28.85937311
 20
4.0408935683
 11
28.9035056172
 21
4.0406504867
  0
LINE
  5
476
100
AcDbEntity
  8
SCRITTE
100
AcDbLine
 62
253
  6
CONTINUOUS
 10
47.1486179549
 20
3.100228386
 11
47.2798679549
 21
3.056478386
  0
LINE
  5
477
100
AcDbEntity
  8
SCRITTE
100
AcDbLine
 62
253
  6
CONTINUOUS
 10
39.5370108168
 20
6.8707641099
 11
39.7512965295
 21
6.656478386
  0
LINE
  5
478
100
AcDbEntity
  8
SCRITTE
100
AcDbLine
 62
253
  6
CONTINUOUS
 10
40.7155822533
 20
6.8707641099
 11
40.9298679549
 21
6.656478386
  0
LINE
  5
479
100
AcDbEntity
  8
SCRITTE
100
AcDbLine
 62
253
  6
CONTINUOUS
 10
40.0727251041
 20
7.9421926845
 11
39.8584394026
 21
8.156478386
  0
LINE
  5
47A
100
AcDbEntity
  8
SCRITTE
100
AcDbLine
 62
253
  6
CONTINUOUS
 10
42.2632013279
 20
3.2231450532
 11
42.2298679549
 21
3.2898117263
  0
LINE
  5
47B
100
AcDbEntity
  8
SCRITTE
100
AcDbLine
 62
253
  6
CONTINUOUS
 10
40.1798679549
 20
7.727906983
 11
40.0727251041
 21
7.9421926845
  0
LINE
  5
47C
100
AcDbEntity
  8
SCRITTE
100
AcDbLine
 62
253
  6
CONTINUOUS
 10
40.6084393579
 20
7.0850498337
 11
40.7155822533
 21
6.8707641099
  0
LINE
  5
47D
100
AcDbEntity
  8
SCRITTE
100
AcDbLine
 62
253
  6
CONTINUOUS
 10
41.3584393579
 20
7.727906983
 11
41.2512965518
 21
7.9421926845
  0
LINE
  5
47E
100
AcDbEntity
  8
SCRITTE
100
AcDbLine
 62
253
  6
CONTINUOUS
 10
42.5370107609
 20
7.9421926845
 11
42.5370107609
 21
7.5136212815
  0
LINE
  5
47F
100
AcDbEntity
  8
SCRITTE
100
AcDbLine
 62
253
  6
CONTINUOUS
 10
42.9298681456
 20
4.956478395
 11
42.9298681456
 21
5.9564783979
  0
LINE
  5
480
100
AcDbEntity
  8
SCRITTE
100
AcDbLine
 62
253
  6
CONTINUOUS
 10
43.1298680264
 20
3.056478386
 11
43.1298680264
 21
4.456478386
  0
LINE
  5
481
100
AcDbEntity
  8
SCRITTE
100
AcDbLine
 62
253
  6
CONTINUOUS
 10
43.1632010657
 20
9.4872792769
 11
43.1632010657
 21
9.4994968918
  0
LINE
  5
482
100
AcDbEntity
  8
SCRITTE
100
AcDbLine
 62
253
  6
CONTINUOUS
 10
43.4965339857
 20
5.9564783979
 11
43.4965339857
 21
4.956478395
  0
LINE
  5
483
100
AcDbEntity
  8
SCRITTE
100
AcDbLine
 62
253
  6
CONTINUOUS
 10
43.5727250296
 20
7.9421926845
 11
43.5727250296
 21
7.6207640875
  0
LINE
  5
484
100
AcDbEntity
  8
SCRITTE
100
AcDbLine
 62
253
  6
CONTINUOUS
 10
43.6084395367
 20
7.2993355353
 11
43.6084395367
 21
6.7636212479
  0
LINE
  5
485
100
AcDbEntity
  8
SCRITTE
100
AcDbLine
 62
253
  6
CONTINUOUS
 10
43.8298685271
 20
9.4994968918
 11
43.8298685271
 21
9.4872792769
  0
LINE
  5
486
100
AcDbEntity
  8
SCRITTE
100
AcDbLine
 62
253
  6
CONTINUOUS
 10
42.2298679549
 20
3.08981172
 11
42.2632013279
 21
3.1898117218
  0
LINE
  5
487
100
AcDbEntity
  8
SCRITTE
100
AcDbLine
 62
253
  6
CONTINUOUS
 10
41.4298679608
 20
3.256478395
 11
41.5298679549
 21
3.4564784039
  0
LINE
  5
488
100
AcDbEntity
  8
SCRITTE
100
AcDbLine
 62
253
  6
CONTINUOUS
 10
42.1632012922
 20
3.256478395
 11
42.1298679191
 21
3.1898117218
  0
LINE
  5
489
100
AcDbEntity
  8
SCRITTE
100
AcDbLine
 62
253
  6
CONTINUOUS
 10
42.1632012922
 20
2.9564783815
 11
42.2298679549
 21
3.08981172
  0
LINE
  5
48A
100
AcDbEntity
  8
SCRITTE
100
AcDbLine
 62
253
  6
CONTINUOUS
 10
41.1298679578
 20
4.456478386
 11
40.9298679593
 21
4.2564783979
  0
LINE
  5
48B
100
AcDbEntity
  8
SCRITTE
100
AcDbLine
 62
253
  6
CONTINUOUS
 10
43.6084395367
 20
6.7636212479
 11
43.501296373
 21
6.656478386
  0
LINE
  5
48C
100
AcDbEntity
  8
SCRITTE
100
AcDbLine
 62
253
  6
CONTINUOUS
 10
43.6965345579
 20
6.156478386
 11
43.4965339857
 21
5.9564783979
  0
LINE
  5
48D
100
AcDbEntity
  8
SCRITTE
100
AcDbLine
 62
253
  6
CONTINUOUS
 10
35.4298680502
 20
5.056478389
 11
36.1298680502
 21
5.056478389
  0
LINE
  5
48E
100
AcDbEntity
  8
RACCORDO
100
AcDbLine
 62
253
  6
PHANTOM
 10
62.589233263
 20
5.1543986571
 11
62.401939851
 21
5.1543986571
  0
LINE
  5
48F
100
AcDbEntity
  8
ASSI
100
AcDbLine
 62
253
  6
CONTINUOUS
 10
62.589233263
 20
5.1543986571
 11
62.401939851
 21
5.1543986571
  0
LINE
  5
490
100
AcDbEntity
  8
SCRITTE
100
AcDbLine
 62
253
  6
CONTINUOUS
 10
39.4632013518
 20
5.1564784039
 11
38.9298680502
 21
5.1564784039
  0
LINE
  5
491
100
AcDbEntity
  8
SCRITTE
100
AcDbLine
 62
253
  6
CONTINUOUS
 10
33.929867931
 20
5.2564783979
 11
33.3298678833
 21
5.2564783979
  0
LINE
  5
492
100
AcDbEntity
  8
ASSI
100
AcDbLine
 62
7
  6
CONTINUOUS
 10
54.7298679549
 20
5.256478386
 11
55.7881684793
 21
5.256478386
  0
LINE
  5
493
100
AcDbEntity
  8
0
100
AcDbLine
 62
7
  6
CONTINUOUS
 10
26.939477392
 20
5.506478386
 11
23.7665300921
 21
5.506478386
  0
LINE
  5
494
100
AcDbEntity
  8
DRAFT
100
AcDbLine
 62
7
  6
PHANTOM
 10
29.9433858696
 20
5.756478386
 11
29.9080507854
 21
5.756478386
  0
LINE
  5
495
100
AcDbEntity
  8
ASSI
100
AcDbLine
 62
7
  6
CONTINUOUS
 10
29.9433858696
 20
5.756478386
 11
29.9080507854
 21
5.756478386
  0
LINE
  5
496
100
AcDbEntity
  8
DRAFT
100
AcDbLine
 62
7
  6
PHANTOM
 10
28.9035056172
 20
5.756478386
 11
26.9433858696
 21
5.756478386
  0
LINE
  5
497
100
AcDbEntity
  8
ASSI
100
AcDbLine
 62
7
  6
CONTINUOUS
 10
28.9035056172
 20
5.756478386
 11
26.9433858696
 21
5.756478386
  0
LINE
  5
498
100
AcDbEntity
  8
0
100
AcDbLine
 62
7
  6
CONTINUOUS
 10
26.939477392
 20
6.006478386
 11
23.7665300921
 21
6.006478386
  0
LINE
  5
499
100
AcDbEntity
  8
SCRITTE
100
AcDbLine
 62
253
  6
CONTINUOUS
 10
44.0965343672
 20
6.156478386
 11
43.6965345579
 21
6.156478386
  0
LINE
  5
49A
100
AcDbEntity
  8
SCRITTE
100
AcDbLine
 62
253
  6
CONTINUOUS
 10
42.7298675734
 20
6.156478386
 11
42.2298681456
 21
6.156478386
  0
LINE
  5
49B
100
AcDbEntity
  8
SCRITTE
100
AcDbLine
 62
253
  6
CONTINUOUS
 10
40.5965343672
 20
6.156478386
 11
40.1965345579
 21
6.156478386
  0
LINE
  5
49C
100
AcDbEntity
  8
SCRITTE
100
AcDbLine
 62
253
  6
CONTINUOUS
 10
32.4298679787
 20
6.156478386
 11
32.7298679191
 21
6.156478386
  0
LINE
  5
49D
100
AcDbEntity
  8
SCRITTE
100
AcDbLine
 62
253
  6
CONTINUOUS
 10
34.5298678118
 20
6.156478386
 11
34.8298680025
 21
6.156478386
  0
LINE
  5
49E
100
AcDbEntity
  8
SCRITTE
100
AcDbLine
 62
253
  6
CONTINUOUS
 10
47.5861179549
 20
4.325228386
 11
47.4111179549
 21
4.368978386
  0
LINE
  5
49F
100
AcDbEntity
  8
SCRITTE
100
AcDbLine
 62
253
  6
CONTINUOUS
 10
47.2361179549
 20
3.887728386
 11
47.3673679549
 21
3.843978386
  0
LINE
  5
4A0
100
AcDbEntity
  8
SCRITTE
100
AcDbLine
 62
253
  6
CONTINUOUS
 10
47.7173679549
 20
4.281478386
 11
47.5861179549
 21
4.325228386
  0
LINE
  5
4A1
100
AcDbEntity
  8
SCRITTE
100
AcDbLine
 62
253
  6
CONTINUOUS
 10
47.0611179549
 20
3.143978386
 11
47.1486179549
 21
3.100228386
  0
LINE
  5
4A2
100
AcDbEntity
  8
SCRITTE
100
AcDbLine
 62
253
  6
CONTINUOUS
 10
47.1486179549
 20
3.931478386
 11
47.2361179549
 21
3.887728386
  0
LINE
  5
4A3
100
AcDbEntity
  8
SCRITTE
100
AcDbLine
 62
253
  6
CONTINUOUS
 10
43.4965339857
 20
4.956478395
 11
43.6965345579
 21
4.756478386
  0
LINE
  5
4A4
100
AcDbEntity
  8
SCRITTE
100
AcDbLine
 62
253
  6
CONTINUOUS
 10
42.9298681456
 20
5.9564783979
 11
42.7298675734
 21
6.156478386
  0
LINE
  5
4A5
100
AcDbEntity
  8
SCRITTE
100
AcDbLine
 62
253
  6
CONTINUOUS
 10
41.2512965518
 20
7.9421926845
 11
41.0370107609
 21
8.156478386
  0
LINE
  5
4A6
100
AcDbEntity
  8
SCRITTE
100
AcDbLine
 62
253
  6
CONTINUOUS
 10
42.0012965518
 20
7.2993355353
 11
41.7870107609
 21
7.5136212815
  0
LINE
  5
4A7
100
AcDbEntity
  8
SCRITTE
100
AcDbLine
 62
253
  6
CONTINUOUS
 10
44.4298679072
 20
3.056478386
 11
44.1298680502
 21
4.0564784099
  0
LINE
  5
4A8
100
AcDbEntity
  8
SCRITTE
100
AcDbLine
 62
253
  6
CONTINUOUS
 10
43.8298678595
 20
3.056478386
 11
43.5298680025
 21
4.456478386
  0
LINE
  5
4A9
100
AcDbEntity
  8
SCRITTE
100
AcDbLine
 62
253
  6
CONTINUOUS
 10
44.0370107609
 20
8.156478386
 11
44.0370107609
 21
7.835049789
  0
LINE
  5
4AA
100
AcDbEntity
  8
SCRITTE
100
AcDbLine
 62
253
  6
CONTINUOUS
 10
44.4632007796
 20
9.4994968918
 11
44.4632007796
 21
9.4872792769
  0
LINE
  5
4AB
100
AcDbEntity
  8
SCRITTE
100
AcDbLine
 62
253
  6
CONTINUOUS
 10
45.1632007796
 20
9.4994968918
 11
45.1632007796
 21
9.4872792769
  0
LINE
  5
4AC
100
AcDbEntity
  8
SCRITTE
100
AcDbLine
 62
253
  6
CONTINUOUS
 10
44.7298680979
 20
4.456478386
 11
44.4298679072
 21
3.056478386
  0
LINE
  5
4AD
100
AcDbEntity
  8
SCRITTE
100
AcDbLine
 62
253
  6
CONTINUOUS
 10
44.3584395367
 20
6.656478386
 11
44.7870107609
 21
8.156478386
  0
LINE
  5
4AE
100
AcDbEntity
  8
SCRITTE
100
AcDbLine
 62
253
  6
CONTINUOUS
 10
44.1298680502
 20
4.0564784099
 11
43.8298678595
 21
3.056478386
  0
LINE
  5
4AF
100
AcDbEntity
  8
SCRITTE
100
AcDbLine
 62
253
  6
CONTINUOUS
 10
45.4655821043
 20
6.9064783935
 11
45.4298679549
 21
6.8350498151
  0
LINE
  5
4B0
100
AcDbEntity
  8
SCRITTE
100
AcDbLine
 62
253
  6
CONTINUOUS
 10
45.5370111185
 20
6.7279069588
 11
45.572725268
 21
6.7993355315
  0
LINE
  5
4B1
100
AcDbEntity
  8
SCRITTE
100
AcDbLine
 62
253
  6
CONTINUOUS
 10
42.7298675734
 20
4.756478386
 11
42.9298681456
 21
4.956478395
  0
LINE
  5
4B2
100
AcDbEntity
  8
SCRITTE
100
AcDbLine
 62
253
  6
CONTINUOUS
 10
41.2298679727
 20
3.056478386
 11
41.4298679608
 21
3.256478395
  0
LINE
  5
4B3
100
AcDbEntity
  8
SCRITTE
100
AcDbLine
 62
253
  6
CONTINUOUS
 10
43.1298680264
 20
4.456478386
 11
42.7298678833
 21
4.0564784099
  0
LINE
  5
4B4
100
AcDbEntity
  8
SCRITTE
100
AcDbLine
 62
253
  6
CONTINUOUS
 10
42.1965345818
 20
3.2898117263
 11
42.1632012922
 21
3.256478395
  0
LINE
  5
4B5
100
AcDbEntity
  8
DRAFT
100
AcDbLine
 62
7
  6
CONTINUOUS
 10
48.6298679549
 20
9.5588595403
 11
48.5774868006
 21
9.506478386
  0
LINE
  5
4B6
100
AcDbEntity
  8
SCRITTE
100
AcDbLine
 62
253
  6
CONTINUOUS
 10
42.1965345818
 20
3.1231450539
 11
42.2632013279
 21
3.1898117218
  0
LINE
  5
4B7
100
AcDbEntity
  8
RACCORDO
100
AcDbLine
 62
253
  6
PHANTOM
 10
48.8168004993
 20
9.4933880843
 11
48.7884001014
 21
9.4649876863
  0
LINE
  5
4B8
100
AcDbEntity
  8
ASSI
100
AcDbLine
 62
253
  6
CONTINUOUS
 10
48.8168004993
 20
9.4933880843
 11
48.7884001014
 21
9.4649876863
  0
LINE
  5
4B9
100
AcDbEntity
  8
RACCORDO
100
AcDbLine
 62
7
  6
PHANTOM
 10
28.9035056172
 20
7.4723062854
 11
28.85937311
 21
7.4720632037
  0
LINE
  5
4BA
100
AcDbEntity
  8
ASSI
100
AcDbLine
 62
7
  6
CONTINUOUS
 10
28.9035056172
 20
7.4723062854
 11
28.85937311
 21
7.4720632037
  0
LINE
  5
4BB
100
AcDbEntity
  8
RACCORDO
100
AcDbLine
 62
7
  6
PHANTOM
 10
29.9513710991
 20
7.4733053525
 11
29.9080507854
 21
7.4732657239
  0
LINE
  5
4BC
100
AcDbEntity
  8
ASSI
100
AcDbLine
 62
7
  6
CONTINUOUS
 10
29.9513710991
 20
7.4733053525
 11
29.9080507854
 21
7.4732657239
  0
LINE
  5
4BD
100
AcDbEntity
  8
ASSI
100
AcDbLine
 62
7
  6
CONTINUOUS
 10
54.7298679549
 20
6.256478386
 11
55.7881684793
 21
6.256478386
  0
LINE
  5
4BE
100
AcDbEntity
  8
RACCORDO
100
AcDbLine
 62
253
  6
PHANTOM
 10
62.401939851
 20
6.358558115
 11
62.589233263
 21
6.358558115
  0
LINE
  5
4BF
100
AcDbEntity
  8
ASSI
100
AcDbLine
 62
253
  6
CONTINUOUS
 10
62.401939851
 20
6.358558115
 11
62.589233263
 21
6.358558115
  0
LINE
  5
4C0
100
AcDbEntity
  8
DEFAULT_3
100
AcDbLine
 62
7
  6
PHANTOM
 10
32.2775919549
 20
6.474177386
 11
32.5902839549
 21
6.474177386
  0
LINE
  5
4C1
100
AcDbEntity
  8
ASSI
100
AcDbLine
 62
7
  6
CONTINUOUS
 10
32.2775919549
 20
6.474177386
 11
32.5902839549
 21
6.474177386
  0
LINE
  5
4C2
100
AcDbEntity
  8
DEFAULT_3
100
AcDbLine
 62
7
  6
PHANTOM
 10
33.2683659549
 20
6.474177386
 11
33.6231939549
 21
6.474177386
  0
LINE
  5
4C3
100
AcDbEntity
  8
ASSI
100
AcDbLine
 62
7
  6
CONTINUOUS
 10
33.2683659549
 20
6.474177386
 11
33.6231939549
 21
6.474177386
  0
LINE
  5
4C4
100
AcDbEntity
  8
DEFAULT_3
100
AcDbLine
 62
7
  6
PHANTOM
 10
33.8142089549
 20
6.474177386
 11
34.1536639549
 21
6.474177386
  0
LINE
  5
4C5
100
AcDbEntity
  8
ASSI
100
AcDbLine
 62
7
  6
CONTINUOUS
 10
33.8142089549
 20
6.474177386
 11
34.1536639549
 21
6.474177386
  0
LINE
  5
4C6
100
AcDbEntity
  8
DEFAULT_3
100
AcDbLine
 62
7
  6
PHANTOM
 10
34.6464919549
 20
6.474177386
 11
34.6962559549
 21
6.474177386
  0
LINE
  5
4C7
100
AcDbEntity
  8
ASSI
100
AcDbLine
 62
7
  6
CONTINUOUS
 10
34.6464919549
 20
6.474177386
 11
34.6962559549
 21
6.474177386
  0
LINE
  5
4C8
100
AcDbEntity
  8
DEFAULT_3
100
AcDbLine
 62
7
  6
PHANTOM
 10
35.1910479549
 20
6.474177386
 11
35.5381639549
 21
6.474177386
  0
LINE
  5
4C9
100
AcDbEntity
  8
ASSI
100
AcDbLine
 62
7
  6
CONTINUOUS
 10
35.1910479549
 20
6.474177386
 11
35.5381639549
 21
6.474177386
  0
LINE
  5
4CA
100
AcDbEntity
  8
DEFAULT_3
100
AcDbLine
 62
7
  6
PHANTOM
 10
35.5938809549
 20
6.474177386
 11
35.9448589549
 21
6.474177386
  0
LINE
  5
4CB
100
AcDbEntity
  8
ASSI
100
AcDbLine
 62
7
  6
CONTINUOUS
 10
35.5938809549
 20
6.474177386
 11
35.9448589549
 21
6.474177386
  0
LINE
  5
4CC
100
AcDbEntity
  8
DEFAULT_3
100
AcDbLine
 62
7
  6
PHANTOM
 10
36.6179059549
 20
6.474177386
 11
36.9918799549
 21
6.474177386
  0
LINE
  5
4CD
100
AcDbEntity
  8
ASSI
100
AcDbLine
 62
7
  6
CONTINUOUS
 10
36.6179059549
 20
6.474177386
 11
36.9918799549
 21
6.474177386
  0
LINE
  5
4CE
100
AcDbEntity
  8
DEFAULT_3
100
AcDbLine
 62
7
  6
PHANTOM
 10
37.0960746188
 20
6.4741776993
 11
37.4494749508
 21
6.4741776993
  0
LINE
  5
4CF
100
AcDbEntity
  8
ASSI
100
AcDbLine
 62
7
  6
CONTINUOUS
 10
37.0960746188
 20
6.4741776993
 11
37.4494749508
 21
6.4741776993
  0
LINE
  5
4D0
100
AcDbEntity
  8
DEFAULT_3
100
AcDbLine
 62
7
  6
PHANTOM
 10
37.99284517
 20
6.4741776993
 11
38.3341485133
 21
6.4741776993
  0
LINE
  5
4D1
100
AcDbEntity
  8
ASSI
100
AcDbLine
 62
7
  6
CONTINUOUS
 10
37.99284517
 20
6.4741776993
 11
38.3341485133
 21
6.4741776993
  0
LINE
  5
4D2
100
AcDbEntity
  8
SCRITTE
100
AcDbLine
 62
253
  6
CONTINUOUS
 10
43.501296373
 20
6.656478386
 11
42.9655823428
 21
6.656478386
  0
LINE
  5
4D3
100
AcDbEntity
  8
SCRITTE
100
AcDbLine
 62
253
  6
CONTINUOUS
 10
39.7512965295
 20
6.656478386
 11
39.8584394026
 21
6.656478386
  0
LINE
  5
4D4
100
AcDbEntity
  8
SCRITTE
100
AcDbLine
 62
253
  6
CONTINUOUS
 10
40.9298679549
 20
6.656478386
 11
41.0370107609
 21
6.656478386
  0
LINE
  5
4D5
100
AcDbEntity
  8
SCRITTE
100
AcDbLine
 62
253
  6
CONTINUOUS
 10
45.4655821043
 20
6.7279069588
 11
45.5370111185
 21
6.7279069588
  0
LINE
  5
4D6
100
AcDbEntity
  8
DEFAULT_3
100
AcDbLine
 62
7
  6
PHANTOM
 10
36.0427699549
 20
6.813530386
 11
36.5259869549
 21
6.813530386
  0
LINE
  5
4D7
100
AcDbEntity
  8
ASSI
100
AcDbLine
 62
7
  6
CONTINUOUS
 10
36.0427699549
 20
6.813530386
 11
36.5259869549
 21
6.813530386
  0
LINE
  5
4D8
100
AcDbEntity
  8
SCRITTE
100
AcDbLine
 62
253
  6
CONTINUOUS
 10
45.5370111185
 20
6.9064783935
 11
45.4655821043
 21
6.9064783935
  0
LINE
  5
4D9
100
AcDbEntity
  8
RACCORDO
100
AcDbLine
 62
253
  6
PHANTOM
 10
49.3949604837
 20
7.0024719655
 11
62.3862302925
 21
7.0024719655
  0
LINE
  5
4DA
100
AcDbEntity
  8
ASSI
100
AcDbLine
 62
253
  6
CONTINUOUS
 10
49.3949604837
 20
7.0024719655
 11
62.3862302925
 21
7.0024719655
  0
LINE
  5
4DB
100
AcDbEntity
  8
RACCORDO
100
AcDbLine
 62
253
  6
PHANTOM
 10
62.4070736936
 20
7.0668872078
 11
62.5778643968
 21
7.0668872078
  0
LINE
  5
4DC
100
AcDbEntity
  8
ASSI
100
AcDbLine
 62
253
  6
CONTINUOUS
 10
62.4070736936
 20
7.0668872078
 11
62.5778643968
 21
7.0668872078
  0
LINE
  5
4DD
100
AcDbEntity
  8
DEFAULT_3
100
AcDbLine
 62
7
  6
PHANTOM
 10
36.4550739549
 20
7.076120386
 11
36.1153519549
 21
7.076120386
  0
LINE
  5
4DE
100
AcDbEntity
  8
ASSI
100
AcDbLine
 62
7
  6
CONTINUOUS
 10
36.4550739549
 20
7.076120386
 11
36.1153519549
 21
7.076120386
  0
LINE
  5
4DF
100
AcDbEntity
  8
SCRITTE
100
AcDbLine
 62
253
  6
CONTINUOUS
 10
46.7870106417
 20
7.0850498337
 11
46.2155821043
 21
7.0850498337
  0
LINE
  5
4E0
100
AcDbEntity
  8
DEFAULT_3
100
AcDbLine
 62
7
  6
PHANTOM
 10
37.4494749508
 20
7.1394101019
 11
37.6397252739
 21
7.1394101019
  0
LINE
  5
4E1
100
AcDbEntity
  8
ASSI
100
AcDbLine
 62
7
  6
CONTINUOUS
 10
37.4494749508
 20
7.1394101019
 11
37.6397252739
 21
7.1394101019
  0
LINE
  5
4E2
100
AcDbEntity
  8
RACCORDO
100
AcDbLine
 62
253
  6
CONTINUOUS
 10
63.1127106673
 20
7.2639597292
 11
63.2896908399
 21
7.2639597292
  0
LINE
  5
4E3
100
AcDbEntity
  8
SCRITTE
100
AcDbLine
 62
253
  6
CONTINUOUS
 10
42.4655821043
 20
7.2993355353
 11
42.0012965518
 21
7.2993355353
  0
LINE
  5
4E4
100
AcDbEntity
  8
RACCORDO
100
AcDbLine
 62
253
  6
CONTINUOUS
 10
63.0030756606
 20
7.373594736
 11
63.3445083763
 21
7.373594736
  0
LINE
  5
4E5
100
AcDbEntity
  8
DEFAULT_3
100
AcDbLine
 62
7
  6
PHANTOM
 10
37.6404900993
 20
7.4178065545
 11
37.4377093865
 21
7.4178065545
  0
LINE
  5
4E6
100
AcDbEntity
  8
ASSI
100
AcDbLine
 62
7
  6
CONTINUOUS
 10
37.6404900993
 20
7.4178065545
 11
37.4377093865
 21
7.4178065545
  0
LINE
  5
4E7
100
AcDbEntity
  8
DRAFT
100
AcDbLine
 62
7
  6
PHANTOM
 10
29.9450241825
 20
7.4606105527
 11
29.9080507854
 21
7.4606105527
  0
LINE
  5
4E8
100
AcDbEntity
  8
ASSI
100
AcDbLine
 62
7
  6
CONTINUOUS
 10
29.9450241825
 20
7.4606105527
 11
29.9080507854
 21
7.4606105527
  0
LINE
  5
4E9
100
AcDbEntity
  8
DRAFT
100
AcDbLine
 62
7
  6
PHANTOM
 10
28.9035056172
 20
7.4606105527
 11
28.7340001215
 21
7.4606105527
  0
LINE
  5
4EA
100
AcDbEntity
  8
ASSI
100
AcDbLine
 62
7
  6
CONTINUOUS
 10
28.9035056172
 20
7.4606105527
 11
28.7340001215
 21
7.4606105527
  0
LINE
  5
4EB
100
AcDbEntity
  8
0
100
AcDbLine
 62
7
  6
CONTINUOUS
 10
26.9394770414
 20
7.506478386
 11
23.7665300921
 21
7.506478386
  0
LINE
  5
4EC
100
AcDbEntity
  8
SCRITTE
100
AcDbLine
 62
253
  6
CONTINUOUS
 10
43.1798679549
 20
7.5136212815
 11
43.394153567
 21
7.5136212815
  0
LWPOLYLINE
  5
4ED
100
AcDbEntity
  8
DEFAULT_3
100
AcDbPolyline
 62
7
  6
PHANTOM
 90
10
 70
0
 10
37.6397252739
 20
7.1394101019
 10
37.6682697538
 20
7.1370866259
 10
37.6954404717
 20
7.1308490067
 10
37.7212374278
 20
7.1206972446
 10
37.7460118286
 20
7.1061853348
 10
37.7694124675
 20
7.0877592819
 10
37.7903857248
 20
7.0667570997
 10
37.8085803937
 20
7.0436247927
 10
37.824347681
 20
7.0179163563
 10
37.8376875866
 20
6.9896317906
  0
LWPOLYLINE
  5
4EE
100
AcDbEntity
  8
ASSI
100
AcDbPolyline
 62
7
  6
CONTINUOUS
 90
10
 70
0
 10
37.6397252739
 20
7.1394101019
 10
37.6682697538
 20
7.1370866259
 10
37.6954404717
 20
7.1308490067
 10
37.7212374278
 20
7.1206972446
 10
37.7460118286
 20
7.1061853348
 10
37.7694124675
 20
7.0877592819
 10
37.7903857248
 20
7.0667570997
 10
37.8085803937
 20
7.0436247927
 10
37.824347681
 20
7.0179163563
 10
37.8376875866
 20
6.9896317906
  0
LWPOLYLINE
  5
4EF
100
AcDbEntity
  8
DEFAULT_3
100
AcDbPolyline
 62
7
  6
PHANTOM
 90
13
 70
0
 10
37.7156851851
 20
7.8944585029
 10
37.7449981406
 20
7.8888764504
 10
37.7721625017
 20
7.880872808
 10
37.7971782683
 20
7.8704475757
 10
37.8201107758
 20
7.8575272939
 10
37.8408946888
 20
7.8421854223
 10
37.8593340015
 20
7.8246423395
 10
37.8755197056
 20
7.8046616777
 10
37.8893608093
 20
7.7824798046
 10
37.9003883321
 20
7.7590262028
 10
37.9084459469
 20
7.7346106997
 10
37.9136899806
 20
7.7089234679
 10
37.9161204333
 20
7.6819645072
  0
LWPOLYLINE
  5
4F0
100
AcDbEntity
  8
ASSI
100
AcDbPolyline
 62
7
  6
CONTINUOUS
 90
13
 70
0
 10
37.7156851851
 20
7.8944585029
 10
37.7449981406
 20
7.8888764504
 10
37.7721625017
 20
7.880872808
 10
37.7971782683
 20
7.8704475757
 10
37.8201107758
 20
7.8575272939
 10
37.8408946888
 20
7.8421854223
 10
37.8593340015
 20
7.8246423395
 10
37.8755197056
 20
7.8046616777
 10
37.8893608093
 20
7.7824798046
 10
37.9003883321
 20
7.7590262028
 10
37.9084459469
 20
7.7346106997
 10
37.9136899806
 20
7.7089234679
 10
37.9161204333
 20
7.6819645072
  0
LWPOLYLINE
  5
4F1
100
AcDbEntity
  8
DEFAULT_3
100
AcDbPolyline
 62
7
  6
PHANTOM
 90
13
 70
0
 10
37.9717359884
 20
8.1362835534
 10
37.9126340582
 20
8.1546232976
 10
37.8508199105
 20
8.1696856367
 10
37.7862935454
 20
8.1814705706
 10
37.7189599265
 20
8.1898919097
 10
37.6489140902
 20
8.1950358436
 10
37.5764411455
 20
8.1971609415
 10
37.5014557511
 20
8.1960886766
 10
37.4240432483
 20
8.1919975757
 10
37.3447447703
 20
8.1856817893
 10
37.263740695
 20
8.1774060344
 10
37.1808506445
 20
8.166905594
 10
37.0960746188
 20
8.1541804682
  0
LWPOLYLINE
  5
4F2
100
AcDbEntity
  8
ASSI
100
AcDbPolyline
 62
7
  6
CONTINUOUS
 90
13
 70
0
 10
37.9717359884
 20
8.1362835534
 10
37.9126340582
 20
8.1546232976
 10
37.8508199105
 20
8.1696856367
 10
37.7862935454
 20
8.1814705706
 10
37.7189599265
 20
8.1898919097
 10
37.6489140902
 20
8.1950358436
 10
37.5764411455
 20
8.1971609415
 10
37.5014557511
 20
8.1960886766
 10
37.4240432483
 20
8.1919975757
 10
37.3447447703
 20
8.1856817893
 10
37.263740695
 20
8.1774060344
 10
37.1808506445
 20
8.166905594
 10
37.0960746188
 20
8.1541804682
  0
LINE
  5
4F3
100
AcDbEntity
  8
SCRITTE
100
AcDbLine
 62
253
  6
CONTINUOUS
 10
47.8048679549
 20
4.237728386
 11
47.7173679549
 21
4.281478386
  0
LINE
  5
4F4
100
AcDbEntity
  8
SCRITTE
100
AcDbLine
 62
253
  6
CONTINUOUS
 10
46.9736179549
 20
3.231478386
 11
47.0611179549
 21
3.143978386
  0
LINE
  5
4F5
100
AcDbEntity
  8
SCRITTE
100
AcDbLine
 62
253
  6
CONTINUOUS
 10
42.3227251488
 20
8.156478386
 11
42.5370107609
 21
7.9421926845
  0
LINE
  5
4F6
100
AcDbEntity
  8
DRAFT
100
AcDbLine
 62
7
  6
CONTINUOUS
 10
48.6298679549
 20
1.9540972318
 11
48.5774868006
 21
2.006478386
  0
LINE
  5
4F7
100
AcDbEntity
  8
RACCORDO
100
AcDbLine
 62
253
  6
PHANTOM
 10
48.8168004993
 20
2.0195686877
 11
48.7884001014
 21
2.0479690857
  0
LINE
  5
4F8
100
AcDbEntity
  8
ASSI
100
AcDbLine
 62
253
  6
CONTINUOUS
 10
48.8168004993
 20
2.0195686877
 11
48.7884001014
 21
2.0479690857
  0
LINE
  5
4F9
100
AcDbEntity
  8
SCRITTE
100
AcDbLine
 62
253
  6
CONTINUOUS
 10
43.394153567
 20
7.5136212815
 11
43.6084395367
 21
7.2993355353
  0
LINE
  5
4FA
100
AcDbEntity
  8
SCRITTE
100
AcDbLine
 62
253
  6
CONTINUOUS
 10
47.1048679549
 20
3.975228386
 11
47.1486179549
 21
3.931478386
  0
LINE
  5
4FB
100
AcDbEntity
  8
DRAFT
100
AcDbLine
 62
7
  6
PHANTOM
 10
48.6333589678
 20
2.802987373
 11
48.6298679549
 21
2.806478386
  0
LINE
  5
4FC
100
AcDbEntity
  8
SCRITTE
100
AcDbLine
 62
253
  6
CONTINUOUS
 10
43.394153567
 20
8.156478386
 11
43.5727250296
 21
7.9421926845
  0
LINE
  5
4FD
100
AcDbEntity
  8
SCRITTE
100
AcDbLine
 62
253
  6
CONTINUOUS
 10
45.4298679549
 20
6.8350498151
 11
45.4298679549
 21
6.7993355315
  0
LINE
  5
4FE
100
AcDbEntity
  8
SCRITTE
100
AcDbLine
 62
253
  6
CONTINUOUS
 10
45.572725268
 20
6.7993355315
 11
45.572725268
 21
6.8350498151
  0
LINE
  5
4FF
100
AcDbEntity
  8
SCRITTE
100
AcDbLine
 62
253
  6
CONTINUOUS
 10
46.5012967306
 20
8.156478386
 11
46.0727247912
 21
6.656478386
  0
LINE
  5
500
100
AcDbEntity
  8
DRAFT
100
AcDbLine
 62
7
  6
PHANTOM
 10
48.6333589678
 20
8.709969399
 11
48.6298679549
 21
8.706478386
  0
LINE
  5
501
100
AcDbEntity
  8
RACCORDO
100
AcDbLine
 62
253
  6
PHANTOM
 10
49.4167776532
 20
8.8934109305
 11
49.3883772552
 21
8.8650105325
  0
LINE
  5
502
100
AcDbEntity
  8
ASSI
100
AcDbLine
 62
253
  6
CONTINUOUS
 10
49.4167776532
 20
8.8934109305
 11
49.3883772552
 21
8.8650105325
  0
LINE
  5
503
100
AcDbEntity
  8
SCRITTE
100
AcDbLine
 62
253
  6
CONTINUOUS
 10
47.3236179549
 20
4.368978386
 11
47.1923679549
 21
4.325228386
  0
LWPOLYLINE
  5
504
100
AcDbEntity
  8
DEFAULT_3
100
AcDbPolyline
 62
7
  6
PHANTOM
 90
10
 70
0
 10
37.4377093865
 20
7.884452037
 10
37.4688537762
 20
7.8896437649
 10
37.4999331556
 20
7.8938225411
 10
37.5309475247
 20
7.8969883656
 10
37.5618962665
 20
7.8991506025
 10
37.5927799979
 20
7.9002998876
 10
37.6236005704
 20
7.9004081294
 10
37.654358601
 20
7.8994659639
 10
37.6850534725
 20
7.8974827551
 10
37.7156851851
 20
7.8944585029
  0
LWPOLYLINE
  5
505
100
AcDbEntity
  8
ASSI
100
AcDbPolyline
 62
7
  6
CONTINUOUS
 90
10
 70
0
 10
37.4377093865
 20
7.884452037
 10
37.4688537762
 20
7.8896437649
 10
37.4999331556
 20
7.8938225411
 10
37.5309475247
 20
7.8969883656
 10
37.5618962665
 20
7.8991506025
 10
37.5927799979
 20
7.9002998876
 10
37.6236005704
 20
7.9004081294
 10
37.654358601
 20
7.8994659639
 10
37.6850534725
 20
7.8974827551
 10
37.7156851851
 20
7.8944585029
  0
LWPOLYLINE
  5
506
100
AcDbEntity
  8
RACCORDO
100
AcDbPolyline
 62
7
  6
PHANTOM
 90
7
 70
0
 10
28.7984441239
 20
7.4713116375
 10
28.7823717881
 20
7.4709804908
 10
28.7685236329
 20
7.4706118383
 10
28.7575327631
 20
7.4702225192
 10
28.7496102136
 20
7.4698181467
 10
28.7445449495
 20
7.4693931076
 10
28.7423369708
 20
7.468947402
  0
LWPOLYLINE
  5
507
100
AcDbEntity
  8
ASSI
100
AcDbPolyline
 62
7
  6
CONTINUOUS
 90
7
 70
0
 10
28.7984441239
 20
7.4713116375
 10
28.7823717881
 20
7.4709804908
 10
28.7685236329
 20
7.4706118383
 10
28.7575327631
 20
7.4702225192
 10
28.7496102136
 20
7.4698181467
 10
28.7445449495
 20
7.4693931076
 10
28.7423369708
 20
7.468947402
  0
LWPOLYLINE
  5
508
100
AcDbEntity
  8
RACCORDO
100
AcDbPolyline
 62
7
  6
PHANTOM
 90
3
 70
0
 10
28.85937311
 20
7.4720632037
 10
28.8374674454
 20
7.4718579292
 10
28.7984441239
 20
7.4713116375
  0
LWPOLYLINE
  5
509
100
AcDbEntity
  8
ASSI
100
AcDbPolyline
 62
7
  6
CONTINUOUS
 90
3
 70
0
 10
28.85937311
 20
7.4720632037
 10
28.8374674454
 20
7.4718579292
 10
28.7984441239
 20
7.4713116375
  0
LINE
  5
50A
100
AcDbEntity
  8
RACCORDO
100
AcDbLine
 62
253
  6
PHANTOM
 10
28.7423369708
 20
7.6397799453
 11
28.9035056172
 21
7.6397799464
  0
LINE
  5
50B
100
AcDbEntity
  8
ASSI
100
AcDbLine
 62
253
  6
CONTINUOUS
 10
28.7423369708
 20
7.6397799453
 11
28.9035056172
 21
7.6397799464
  0
LINE
  5
50C
100
AcDbEntity
  8
RACCORDO
100
AcDbLine
 62
253
  6
PHANTOM
 10
49.3969743763
 20
7.6414430318
 11
62.3902583844
 21
7.6414430318
  0
LINE
  5
50D
100
AcDbEntity
  8
ASSI
100
AcDbLine
 62
253
  6
CONTINUOUS
 10
49.3969743763
 20
7.6414430318
 11
62.3902583844
 21
7.6414430318
  0
LINE
  5
50E
100
AcDbEntity
  8
RACCORDO
100
AcDbLine
 62
253
  6
PHANTOM
 10
28.8199437241
 20
8.1175660624
 11
26.9398261377
 21
8.1175660624
  0
LINE
  5
50F
100
AcDbEntity
  8
ASSI
100
AcDbLine
 62
253
  6
CONTINUOUS
 10
28.8199437241
 20
8.1175660624
 11
26.9398261377
 21
8.1175660624
  0
LINE
  5
510
100
AcDbEntity
  8
RACCORDO
100
AcDbLine
 62
7
  6
PHANTOM
 10
28.9012074645
 20
8.1474224875
 11
26.9389238534
 21
8.1474224875
  0
LINE
  5
511
100
AcDbEntity
  8
ASSI
100
AcDbLine
 62
7
  6
CONTINUOUS
 10
28.9012074645
 20
8.1474224875
 11
26.9389238534
 21
8.1474224875
  0
LINE
  5
512
100
AcDbEntity
  8
SCRITTE
100
AcDbLine
 62
253
  6
CONTINUOUS
 10
44.7870107609
 20
8.156478386
 11
44.0370107609
 21
8.156478386
  0
LINE
  5
513
100
AcDbEntity
  8
SCRITTE
100
AcDbLine
 62
253
  6
CONTINUOUS
 10
41.0370107609
 20
8.156478386
 11
40.9298679549
 21
8.156478386
  0
LINE
  5
514
100
AcDbEntity
  8
SCRITTE
100
AcDbLine
 62
253
  6
CONTINUOUS
 10
39.8584394026
 20
8.156478386
 11
39.7512965295
 21
8.156478386
  0
LINE
  5
515
100
AcDbEntity
  8
DRAFT
100
AcDbLine
 62
7
  6
PHANTOM
 10
29.9298679549
 20
8.156478386
 11
29.9093100476
 21
8.156478386
  0
LINE
  5
516
100
AcDbEntity
  8
ASSI
100
AcDbLine
 62
7
  6
CONTINUOUS
 10
29.9298679549
 20
8.156478386
 11
29.9093100476
 21
8.156478386
  0
LINE
  5
517
100
AcDbEntity
  8
DRAFT
100
AcDbLine
 62
7
  6
PHANTOM
 10
28.9009868957
 20
8.156478386
 11
26.9298679549
 21
8.156478386
  0
LINE
  5
518
100
AcDbEntity
  8
ASSI
100
AcDbLine
 62
7
  6
CONTINUOUS
 10
28.9009868957
 20
8.156478386
 11
26.9298679549
 21
8.156478386
  0
LINE
  5
519
100
AcDbEntity
  8
SCRITTE
100
AcDbLine
 62
253
  6
CONTINUOUS
 10
42.0012965518
 20
8.156478386
 11
42.3227251488
 21
8.156478386
  0
LINE
  5
51A
100
AcDbEntity
  8
SCRITTE
100
AcDbLine
 62
253
  6
CONTINUOUS
 10
42.9655823428
 20
8.156478386
 11
43.394153567
 21
8.156478386
  0
LINE
  5
51B
100
AcDbEntity
  8
DEFAULT_3
100
AcDbLine
 62
7
  6
PHANTOM
 10
36.4703199549
 20
8.174040386
 11
36.1270659549
 21
8.174040386
  0
LINE
  5
51C
100
AcDbEntity
  8
ASSI
100
AcDbLine
 62
7
  6
CONTINUOUS
 10
36.4703199549
 20
8.174040386
 11
36.1270659549
 21
8.174040386
  0
LINE
  5
51D
100
AcDbEntity
  8
DEFAULT_3
100
AcDbLine
 62
7
  6
PHANTOM
 10
35.3792069549
 20
8.174040386
 11
35.0281399549
 21
8.174040386
  0
LINE
  5
51E
100
AcDbEntity
  8
ASSI
100
AcDbLine
 62
7
  6
CONTINUOUS
 10
35.3792069549
 20
8.174040386
 11
35.0281399549
 21
8.174040386
  0
LINE
  5
51F
100
AcDbEntity
  8
DEFAULT_3
100
AcDbLine
 62
7
  6
PHANTOM
 10
34.3222309549
 20
8.174040386
 11
33.9676959549
 21
8.174040386
  0
LINE
  5
520
100
AcDbEntity
  8
ASSI
100
AcDbLine
 62
7
  6
CONTINUOUS
 10
34.3222309549
 20
8.174040386
 11
33.9676959549
 21
8.174040386
  0
LINE
  5
521
100
AcDbEntity
  8
DEFAULT_3
100
AcDbLine
 62
7
  6
PHANTOM
 10
33.1366879549
 20
8.174040386
 11
32.7821019549
 21
8.174040386
  0
LINE
  5
522
100
AcDbEntity
  8
ASSI
100
AcDbLine
 62
7
  6
CONTINUOUS
 10
33.1366879549
 20
8.174040386
 11
32.7821019549
 21
8.174040386
  0
LINE
  5
523
100
AcDbEntity
  8
DEFAULT_3
100
AcDbLine
 62
7
  6
PHANTOM
 10
32.1241549549
 20
8.174040386
 11
31.7387019549
 21
8.174040386
  0
LINE
  5
524
100
AcDbEntity
  8
ASSI
100
AcDbLine
 62
7
  6
CONTINUOUS
 10
32.1241549549
 20
8.174040386
 11
31.7387019549
 21
8.174040386
  0
LINE
  5
525
100
AcDbEntity
  8
DEFAULT_3
100
AcDbLine
 62
7
  6
PHANTOM
 10
33.6231939549
 20
8.174142386
 11
33.2683659549
 21
8.174142386
  0
LINE
  5
526
100
AcDbEntity
  8
ASSI
100
AcDbLine
 62
7
  6
CONTINUOUS
 10
33.6231939549
 20
8.174142386
 11
33.2683659549
 21
8.174142386
  0
LINE
  5
527
100
AcDbEntity
  8
DRAFT
100
AcDbLine
 62
7
  6
CONTINUOUS
 10
28.8298679549
 20
8.3374978342
 11
28.8598679549
 21
8.3374978342
  0
LINE
  5
528
100
AcDbEntity
  8
RACCORDO
100
AcDbLine
 62
253
  6
PHANTOM
 10
62.4173581617
 20
8.6180971222
 11
49.4105232329
 21
8.6180971222
  0
LINE
  5
529
100
AcDbEntity
  8
ASSI
100
AcDbLine
 62
253
  6
CONTINUOUS
 10
62.4173581617
 20
8.6180971222
 11
49.4105232329
 21
8.6180971222
  0
LINE
  5
52A
100
AcDbEntity
  8
RACCORDO
100
AcDbLine
 62
253
  6
CONTINUOUS
 10
63.4189612456
 20
8.634907991
 11
62.5524219319
 21
8.634909044
  0
LINE
  5
52B
100
AcDbEntity
  8
RACCORDO
100
AcDbLine
 62
253
  6
CONTINUOUS
 10
63.4203679595
 20
8.6469631602
 11
62.5489039497
 21
8.6469632885
  0
LINE
  5
52C
100
AcDbEntity
  8
RACCORDO
100
AcDbLine
 62
253
  6
PHANTOM
 10
62.4212941366
 20
8.6479045678
 11
49.4124910705
 21
8.6479045678
  0
LINE
  5
52D
100
AcDbEntity
  8
ASSI
100
AcDbLine
 62
253
  6
CONTINUOUS
 10
62.4212941366
 20
8.6479045678
 11
49.4124910705
 21
8.6479045678
  0
LINE
  5
52E
100
AcDbEntity
  8
DRAFT
100
AcDbLine
 62
7
  6
PHANTOM
 10
62.4298679549
 20
8.656478386
 11
49.4167776532
 21
8.656478386
  0
LINE
  5
52F
100
AcDbEntity
  8
ASSI
100
AcDbLine
 62
7
  6
CONTINUOUS
 10
62.4298679549
 20
8.656478386
 11
49.4167776532
 21
8.656478386
  0
LINE
  5
530
100
AcDbEntity
  8
RACCORDO
100
AcDbLine
 62
7
  6
CONTINUOUS
 10
49.4822491091
 20
8.656478386
 11
63.4298831853
 21
8.656478386
  0
LINE
  5
531
100
AcDbEntity
  8
DRAFT
100
AcDbLine
 62
7
  6
PHANTOM
 10
48.6298679549
 20
8.706478386
 11
30.7298679549
 21
8.706478386
  0
LINE
  5
532
100
AcDbEntity
  8
DRAFT
100
AcDbLine
 62
7
  6
PHANTOM
 10
48.6333589678
 20
8.709969399
 11
30.7263769419
 21
8.709969399
  0
LINE
  5
533
100
AcDbEntity
  8
ASSI
100
AcDbLine
 62
7
  6
CONTINUOUS
 10
48.6333589678
 20
8.709969399
 11
30.7263769419
 21
8.709969399
  0
LINE
  5
534
100
AcDbEntity
  8
RACCORDO
100
AcDbLine
 62
253
  6
CONTINUOUS
 10
29.8844882423
 20
8.7960936905
 11
28.9403440333
 21
8.7960936905
  0
LINE
  5
535
100
AcDbEntity
  8
RACCORDO
100
AcDbLine
 62
253
  6
PHANTOM
 10
48.8883962937
 20
8.8650105325
 11
49.3883772552
 21
8.865010526
  0
LINE
  5
536
100
AcDbEntity
  8
ASSI
100
AcDbLine
 62
253
  6
CONTINUOUS
 10
48.8883962937
 20
8.8650105325
 11
49.3883772552
 21
8.865010526
  0
LINE
  5
537
100
AcDbEntity
  8
RACCORDO
100
AcDbLine
 62
253
  6
PHANTOM
 10
29.9080507854
 20
7.6393334694
 11
29.9513710991
 21
7.6393136566
  0
LINE
  5
538
100
AcDbEntity
  8
ASSI
100
AcDbLine
 62
253
  6
CONTINUOUS
 10
29.9080507854
 20
7.6393334694
 11
29.9513710991
 21
7.6393136566
  0
LINE
  5
539
100
AcDbEntity
  8
RACCORDO
100
AcDbLine
 62
7
  6
PHANTOM
 10
29.9091169766
 20
8.1393259114
 11
29.9470377728
 21
8.1393085681
  0
LINE
  5
53A
100
AcDbEntity
  8
ASSI
100
AcDbLine
 62
7
  6
CONTINUOUS
 10
29.9091169766
 20
8.1393259114
 11
29.9470377728
 21
8.1393085681
  0
LWPOLYLINE
  5
53B
100
AcDbEntity
  8
RACCORDO
100
AcDbPolyline
 62
7
  6
CONTINUOUS
 90
8
 70
0
 10
62.4510250069
 20
8.6564471474
 10
62.482286363
 20
8.6562546014
 10
62.496170108
 20
8.656087465
 10
62.5086585125
 20
8.6558769724
 10
62.5187133433
 20
8.6556406106
 10
62.5259885226
 20
8.6553842085
 10
62.5308301282
 20
8.6551019373
 10
62.5332381601
 20
8.6547937968
  0
LWPOLYLINE
  5
53C
100
AcDbEntity
  8
RACCORDO
100
AcDbPolyline
 62
253
  6
CONTINUOUS
 90
10
 70
0
 10
63.3896756329
 20
7.4960619922
 10
63.4068851228
 20
7.4950390635
 10
63.4235810258
 20
7.4922868834
 10
63.4392650984
 20
7.4878875884
 10
63.4534692624
 20
7.4819724841
 10
63.4657696785
 20
7.4747180849
 10
63.4757993451
 20
7.4663408155
 10
63.4832589209
 20
7.4570906319
 10
63.4879257122
 20
7.4472435924
 10
63.489660392
 20
7.4370935567
  0
LINE
  5
53D
100
AcDbEntity
  8
RACCORDO
100
AcDbLine
 62
7
  6
PHANTOM
 10
62.4298679549
 20
7.606478386
 11
62.4947155002
 21
7.6019875262
  0
LINE
  5
53E
100
AcDbEntity
  8
ASSI
100
AcDbLine
 62
7
  6
CONTINUOUS
 10
62.4298679549
 20
7.606478386
 11
62.4947155002
 21
7.6019875262
  0
LINE
  5
53F
100
AcDbEntity
  8
RACCORDO
100
AcDbLine
 62
253
  6
PHANTOM
 10
49.4167776532
 20
2.6195458415
 11
49.3883772552
 21
2.6479462395
  0
LINE
  5
540
100
AcDbEntity
  8
ASSI
100
AcDbLine
 62
253
  6
CONTINUOUS
 10
49.4167776532
 20
2.6195458415
 11
49.3883772552
 21
2.6479462395
  0
LINE
  5
541
100
AcDbEntity
  8
SCRITTE
100
AcDbLine
 62
253
  6
CONTINUOUS
 10
45.4298679549
 20
6.7993355315
 11
45.4655821043
 21
6.7279069588
  0
LINE
  5
542
100
AcDbEntity
  8
SCRITTE
100
AcDbLine
 62
253
  6
CONTINUOUS
 10
45.572725268
 20
6.8350498151
 11
45.5370111185
 21
6.9064783935
  0
LINE
  5
543
100
AcDbEntity
  8
SCRITTE
100
AcDbLine
 62
253
  6
CONTINUOUS
 10
47.0611179549
 20
4.062728386
 11
47.1048679549
 21
3.975228386
  0
LINE
  5
544
100
AcDbEntity
  8
SCRITTE
100
AcDbLine
 62
253
  6
CONTINUOUS
 10
46.9298679549
 20
3.362728386
 11
46.9736179549
 21
3.231478386
  0
LINE
  5
545
100
AcDbEntity
  8
SCRITTE
100
AcDbLine
 62
253
  6
CONTINUOUS
 10
46.9298679549
 20
3.493978386
 11
46.9298679549
 21
3.362728386
  0
LINE
  5
546
100
AcDbEntity
  8
SCRITTE
100
AcDbLine
 62
253
  6
CONTINUOUS
 10
47.0611179549
 20
4.106478386
 11
47.0611179549
 21
4.062728386
  0
LINE
  5
547
100
AcDbEntity
  8
SCRITTE
100
AcDbLine
 62
253
  6
CONTINUOUS
 10
47.1048679549
 20
4.237728386
 11
47.0611179549
 21
4.106478386
  0
LINE
  5
548
100
AcDbEntity
  8
SCRITTE
100
AcDbLine
 62
253
  6
CONTINUOUS
 10
46.9736179549
 20
3.625228386
 11
46.9298679549
 21
3.493978386
  0
LINE
  5
549
100
AcDbEntity
  8
RACCORDO
100
AcDbLine
 62
7
  6
PHANTOM
 10
49.4124910705
 20
8.6479045678
 11
49.4167776532
 21
8.656478386
  0
LINE
  5
54A
100
AcDbEntity
  8
ASSI
100
AcDbLine
 62
7
  6
CONTINUOUS
 10
49.4124910705
 20
8.6479045678
 11
49.4167776532
 21
8.656478386
  0
LINE
  5
54B
100
AcDbEntity
  8
SCRITTE
100
AcDbLine
 62
253
  6
CONTINUOUS
 10
47.1923679549
 20
4.325228386
 11
47.1048679549
 21
4.237728386
  0
LINE
  5
54C
100
AcDbEntity
  8
SCRITTE
100
AcDbLine
 62
253
  6
CONTINUOUS
 10
47.0611179549
 20
3.712728386
 11
46.9736179549
 21
3.625228386
  0
LINE
  5
54D
100
AcDbEntity
  8
SCRITTE
100
AcDbLine
 62
253
  6
CONTINUOUS
 10
47.2361179549
 20
3.800228386
 11
47.0611179549
 21
3.712728386
  0
LINE
  5
54E
100
AcDbEntity
  8
SCRITTE
100
AcDbLine
 62
253
  6
CONTINUOUS
 10
45.9632017332
 20
9.4994968918
 11
45.563201924
 21
9.4872792769
  0
LINE
  5
54F
100
AcDbEntity
  8
SCRITTE
100
AcDbLine
 62
253
  6
CONTINUOUS
 10
34.0298680264
 20
9.4994968918
 11
33.6298679668
 21
9.4872792769
  0
LINE
  5
550
100
AcDbEntity
  8
SCRITTE
100
AcDbLine
 62
253
  6
CONTINUOUS
 10
33.2298679906
 20
9.4994968918
 11
32.8298679727
 21
9.4925153976
  0
LINE
  5
551
100
AcDbEntity
  8
SCRITTE
100
AcDbLine
 62
253
  6
CONTINUOUS
 10
41.4965347487
 20
9.4994968918
 11
41.296534844
 21
9.4977515183
  0
LINE
  5
552
100
AcDbEntity
  8
SCRITTE
100
AcDbLine
 62
253
  6
CONTINUOUS
 10
35.3298679072
 20
9.4872792769
 11
35.5298678118
 21
9.4890246505
  0
LINE
  5
553
100
AcDbEntity
  8
RACCORDO
100
AcDbLine
 62
253
  6
PHANTOM
 10
48.7884001014
 20
8.9650067248
 11
29.9743864039
 21
8.9650067248
  0
LINE
  5
554
100
AcDbEntity
  8
ASSI
100
AcDbLine
 62
253
  6
CONTINUOUS
 10
48.7884001014
 20
8.9650067248
 11
29.9743864039
 21
8.9650067248
  0
LINE
  5
555
100
AcDbEntity
  8
RACCORDO
100
AcDbLine
 62
253
  6
CONTINUOUS
 10
29.8896329801
 20
9.3960023076
 11
29.5402526504
 21
9.3960023076
  0
LINE
  5
556
100
AcDbEntity
  8
RACCORDO
100
AcDbLine
 62
7
  6
PHANTOM
 10
48.7884001014
 20
9.4649876863
 11
30.121352943
 21
9.4649876863
  0
LINE
  5
557
100
AcDbEntity
  8
ASSI
100
AcDbLine
 62
7
  6
CONTINUOUS
 10
48.7884001014
 20
9.4649876863
 11
30.121352943
 21
9.4649876863
  0
LINE
  5
558
100
AcDbEntity
  8
RACCORDO
100
AcDbLine
 62
7
  6
CONTINUOUS
 10
29.459776572
 20
9.476478386
 11
29.9298679549
 21
9.476478386
  0
LINE
  5
559
100
AcDbEntity
  8
SCRITTE
100
AcDbLine
 62
253
  6
CONTINUOUS
 10
34.8298679787
 20
9.4872792769
 11
35.3298679072
 21
9.4872792769
  0
LINE
  5
55A
100
AcDbEntity
  8
SCRITTE
100
AcDbLine
 62
253
  6
CONTINUOUS
 10
36.0965346533
 20
9.4872792769
 11
36.696534701
 21
9.4872792769
  0
LINE
  5
55B
100
AcDbEntity
  8
SCRITTE
100
AcDbLine
 62
253
  6
CONTINUOUS
 10
41.4965347487
 20
9.4872792769
 11
41.8965345579
 21
9.4872792769
  0
LINE
  5
55C
100
AcDbEntity
  8
SCRITTE
100
AcDbLine
 62
253
  6
CONTINUOUS
 10
46.2298673827
 20
9.4907700241
 11
45.6965347487
 21
9.4907700241
  0
LINE
  5
55D
100
AcDbEntity
  8
SCRITTE
100
AcDbLine
 62
253
  6
CONTINUOUS
 10
34.2965346772
 20
9.4907700241
 11
33.7632012922
 21
9.4907700241
  0
LINE
  5
55E
100
AcDbEntity
  8
RACCORDO
100
AcDbLine
 62
7
  6
PHANTOM
 10
48.6298679549
 20
9.4933880843
 11
48.8168004993
 21
9.4933880843
  0
LINE
  5
55F
100
AcDbEntity
  8
ASSI
100
AcDbLine
 62
7
  6
CONTINUOUS
 10
48.6298679549
 20
9.4933880843
 11
48.8168004993
 21
9.4933880843
  0
LINE
  5
560
100
AcDbEntity
  8
SCRITTE
100
AcDbLine
 62
253
  6
CONTINUOUS
 10
43.1632010657
 20
9.4942607714
 11
42.4632010657
 21
9.4942607714
  0
LINE
  5
561
100
AcDbEntity
  8
SCRITTE
100
AcDbLine
 62
253
  6
CONTINUOUS
 10
36.0965346533
 20
9.4942607714
 11
36.4965344626
 21
9.4942607714
  0
LINE
  5
562
100
AcDbEntity
  8
SCRITTE
100
AcDbLine
 62
253
  6
CONTINUOUS
 10
41.8965345579
 20
9.4994968918
 11
41.4965347487
 21
9.4994968918
  0
LINE
  5
563
100
AcDbEntity
  8
SCRITTE
100
AcDbLine
 62
253
  6
CONTINUOUS
 10
36.696534701
 20
9.4994968918
 11
36.0965346533
 21
9.4994968918
  0
LINE
  5
564
100
AcDbEntity
  8
SCRITTE
100
AcDbLine
 62
253
  6
CONTINUOUS
 10
35.3298679072
 20
9.4994968918
 11
34.8298679787
 21
9.4994968918
  0
LINE
  5
565
100
AcDbEntity
  8
DRAFT
100
AcDbLine
 62
7
  6
CONTINUOUS
 10
48.5774868006
 20
9.506478386
 11
41.1822491091
 21
9.506478386
  0
LINE
  5
566
100
AcDbEntity
  8
RACCORDO
100
AcDbLine
 62
7
  6
CONTINUOUS
 10
37.6774868006
 20
9.506478386
 11
29.4295024511
 21
9.506478386
  0
LINE
  5
567
100
AcDbEntity
  8
RACCORDO
100
AcDbLine
 62
7
  6
PHANTOM
 10
37.6774868006
 20
9.506478386
 11
37.8298679549
 21
9.506478386
  0
LINE
  5
568
100
AcDbEntity
  8
DRAFT
100
AcDbLine
 62
7
  6
PHANTOM
 10
37.8298679549
 20
9.506478386
 11
41.0298679549
 21
9.506478386
  0
LINE
  5
569
100
AcDbEntity
  8
RACCORDO
100
AcDbLine
 62
7
  6
CONTINUOUS
 10
48.8826146129
 20
9.5588595403
 11
48.6298679549
 21
9.5588595403
  0
LINE
  5
56A
100
AcDbEntity
  8
RACCORDO
100
AcDbLine
 62
7
  6
PHANTOM
 10
48.3658960769
 20
9.5061647499
 11
41.0298679549
 21
9.506478386
  0
LINE
  5
56B
100
AcDbEntity
  8
ASSI
100
AcDbLine
 62
7
  6
CONTINUOUS
 10
48.3658960769
 20
9.5061647499
 11
30.0798622433
 21
9.506478386
  0
LINE
  5
56C
100
AcDbEntity
  8
SCRITTE
100
AcDbLine
 62
253
  6
CONTINUOUS
 10
35.5298678118
 20
9.4977515183
 11
35.3298679072
 21
9.4994968918
  0
LINE
  5
56D
100
AcDbEntity
  8
SCRITTE
100
AcDbLine
 62
253
  6
CONTINUOUS
 10
41.296534844
 20
9.4890246505
 11
41.4965347487
 21
9.4872792769
  0
LINE
  5
56E
100
AcDbEntity
  8
RACCORDO
100
AcDbLine
 62
7
  6
PHANTOM
 10
48.4519357204
 20
9.5055584232
 11
48.3658960769
 21
9.5061647499
  0
LINE
  5
56F
100
AcDbEntity
  8
ASSI
100
AcDbLine
 62
7
  6
CONTINUOUS
 10
48.4519357204
 20
9.5055584232
 11
48.3658960769
 21
9.5061647499
  0
LINE
  5
570
100
AcDbEntity
  8
SCRITTE
100
AcDbLine
 62
253
  6
CONTINUOUS
 10
32.8298679727
 20
9.4925153976
 11
32.4298679549
 21
9.4994968918
  0
LINE
  5
571
100
AcDbEntity
  8
SCRITTE
100
AcDbLine
 62
253
  6
CONTINUOUS
 10
39.7965345579
 20
9.4872792769
 11
39.0965345579
 21
9.4994968918
  0
LINE
  5
572
100
AcDbEntity
  8
SCRITTE
100
AcDbLine
 62
253
  6
CONTINUOUS
 10
45.1632007796
 20
9.4872792769
 11
44.4632007796
 21
9.4994968918
  0
LINE
  5
573
100
AcDbEntity
  8
SCRITTE
100
AcDbLine
 62
253
  6
CONTINUOUS
 10
34.4298680025
 20
9.4872792769
 11
34.0298680264
 21
9.4994968918
  0
LINE
  5
574
100
AcDbEntity
  8
SCRITTE
100
AcDbLine
 62
253
  6
CONTINUOUS
 10
46.3632015425
 20
9.4872792769
 11
45.9632017332
 21
9.4994968918
  0
LWPOLYLINE
  5
575
100
AcDbEntity
  8
RACCORDO
100
AcDbPolyline
 62
7
  6
PHANTOM
 90
5
 70
0
 10
48.5225940168
 20
9.5040885047
 10
48.5167268863
 20
9.5044159276
 10
48.5067943732
 20
9.5047258531
 10
48.4927964775
 20
9.505018281
 10
48.4519357204
 20
9.5055584232
  0
LWPOLYLINE
  5
576
100
AcDbEntity
  8
ASSI
100
AcDbPolyline
 62
7
  6
CONTINUOUS
 90
5
 70
0
 10
48.5225940168
 20
9.5040885047
 10
48.5167268863
 20
9.5044159276
 10
48.5067943732
 20
9.5047258531
 10
48.4927964775
 20
9.505018281
 10
48.4519357204
 20
9.5055584232
  0
LWPOLYLINE
  5
577
100
AcDbEntity
  8
RACCORDO
100
AcDbPolyline
 62
7
  6
PHANTOM
 90
16
 70
0
 10
48.8168004993
 20
9.4933880843
 10
48.880620787
 20
9.4898056467
 10
48.9424237743
 20
9.4800172333
 10
49.0022094612
 20
9.4640228443
 10
49.0605840295
 20
9.4415135101
 10
49.1169412974
 20
9.4127982003
 10
49.1694627191
 20
9.3788038228
 10
49.2180231859
 20
9.3393582746
 10
49.2627478064
 20
9.2946336587
 10
49.3021933608
 20
9.2460731928
 10
49.336187746
 20
9.1935517664
 10
49.3649030649
 20
9.1371944901
 10
49.3874124063
 20
9.0788199133
 10
49.4034067995
 20
9.0190342194
 10
49.4131952152
 20
8.9572312251
 10
49.4167776532
 20
8.8934109305
  0
LWPOLYLINE
  5
578
100
AcDbEntity
  8
ASSI
100
AcDbPolyline
 62
7
  6
CONTINUOUS
 90
16
 70
0
 10
48.8168004993
 20
9.4933880843
 10
48.880620787
 20
9.4898056467
 10
48.9424237743
 20
9.4800172333
 10
49.0022094612
 20
9.4640228443
 10
49.0605840295
 20
9.4415135101
 10
49.1169412974
 20
9.4127982003
 10
49.1694627191
 20
9.3788038228
 10
49.2180231859
 20
9.3393582746
 10
49.2627478064
 20
9.2946336587
 10
49.3021933608
 20
9.2460731928
 10
49.336187746
 20
9.1935517664
 10
49.3649030649
 20
9.1371944901
 10
49.3874124063
 20
9.0788199133
 10
49.4034067995
 20
9.0190342194
 10
49.4131952152
 20
8.9572312251
 10
49.4167776532
 20
8.8934109305
  0
LINE
  5
579
100
AcDbEntity
  8
RACCORDO
100
AcDbLine
 62
7
  6
PHANTOM
 10
48.6298679549
 20
9.4933880843
 11
48.5225940168
 21
9.5040885047
  0
LINE
  5
57A
100
AcDbEntity
  8
ASSI
100
AcDbLine
 62
7
  6
CONTINUOUS
 10
48.6298679549
 20
9.4933880843
 11
48.5225940168
 21
9.5040885047
  0
LINE
  5
57B
100
AcDbEntity
  8
RACCORDO
100
AcDbLine
 62
7
  6
PHANTOM
 10
49.4167776532
 20
2.856478386
 11
49.4124910705
 21
2.8650522042
  0
LINE
  5
57C
100
AcDbEntity
  8
ASSI
100
AcDbLine
 62
7
  6
CONTINUOUS
 10
49.4167776532
 20
2.856478386
 11
49.4124910705
 21
2.8650522042
  0
LINE
  5
57D
100
AcDbEntity
  8
SCRITTE
100
AcDbLine
 62
253
  6
CONTINUOUS
 10
46.9298679549
 20
6.656478386
 11
46.5012967306
 21
8.156478386
  0
LWPOLYLINE
  5
57E
100
AcDbEntity
  8
RACCORDO
100
AcDbPolyline
 62
253
  6
PHANTOM
 90
19
 70
0
 10
48.8883962937
 20
8.8650105325
 10
48.8880124677
 20
8.8737461428
 10
48.8868924051
 20
8.8823148912
 10
48.8850361057
 20
8.8907167779
 10
48.8824193682
 20
8.8990217157
 10
48.879066394
 20
8.9071597917
 10
48.8750497874
 20
8.9149212672
 10
48.8703511385
 20
8.9222918914
 10
48.8649888571
 20
8.9292859152
 10
48.859090777
 20
8.9357363523
 10
48.8526460792
 20
8.9416266205
 10
48.8456655826
 20
8.946973302
 10
48.8383095774
 20
8.9516591584
 10
48.8305651361
 20
8.9556693978
 10
48.8224451861
 20
8.959018812
 10
48.8141488003
 20
8.961634538
 10
48.8057423364
 20
8.9634922884
 10
48.7971594368
 20
8.9646163507
 10
48.7884001014
 20
8.9650067248
  0
LWPOLYLINE
  5
57F
100
AcDbEntity
  8
ASSI
100
AcDbPolyline
 62
253
  6
CONTINUOUS
 90
19
 70
0
 10
48.8883962937
 20
8.8650105325
 10
48.8880124677
 20
8.8737461428
 10
48.8868924051
 20
8.8823148912
 10
48.8850361057
 20
8.8907167779
 10
48.8824193682
 20
8.8990217157
 10
48.879066394
 20
8.9071597917
 10
48.8750497874
 20
8.9149212672
 10
48.8703511385
 20
8.9222918914
 10
48.8649888571
 20
8.9292859152
 10
48.859090777
 20
8.9357363523
 10
48.8526460792
 20
8.9416266205
 10
48.8456655826
 20
8.946973302
 10
48.8383095774
 20
8.9516591584
 10
48.8305651361
 20
8.9556693978
 10
48.8224451861
 20
8.959018812
 10
48.8141488003
 20
8.961634538
 10
48.8057423364
 20
8.9634922884
 10
48.7971594368
 20
8.9646163507
 10
48.7884001014
 20
8.9650067248
  0
LINE
  5
580
100
AcDbEntity
  8
DRAFT
100
AcDbLine
 62
7
  6
CONTINUOUS
 10
48.5774868006
 20
9.506478386
 11
48.5774868006
 21
9.4986130288
  0
LINE
  5
581
100
AcDbEntity
  8
DRAFT
100
AcDbLine
 62
7
  6
CONTINUOUS
 10
48.5774868006
 20
2.0143437432
 11
48.5774868006
 21
2.006478386
  0
LINE
  5
582
100
AcDbEntity
  8
DRAFT
100
AcDbLine
 62
7
  6
CONTINUOUS
 10
48.6298679549
 20
9.5588595403
 11
48.6298679549
 21
9.4933880843
  0
LINE
  5
583
100
AcDbEntity
  8
DRAFT
100
AcDbLine
 62
7
  6
CONTINUOUS
 10
48.6298679549
 20
2.0195686877
 11
48.6298679549
 21
1.9540972318
  0
LINE
  5
584
100
AcDbEntity
  8
DRAFT
100
AcDbLine
 62
7
  6
PHANTOM
 10
48.6298679549
 20
2.806478386
 11
48.6298679549
 21
8.706478386
  0
LINE
  5
585
100
AcDbEntity
  8
DRAFT
100
AcDbLine
 62
7
  6
PHANTOM
 10
48.6333589678
 20
2.802987373
 11
48.6333589678
 21
8.709969399
  0
LINE
  5
586
100
AcDbEntity
  8
ASSI
100
AcDbLine
 62
7
  6
CONTINUOUS
 10
48.6333589678
 20
2.802987373
 11
48.6333589678
 21
8.709969399
  0
LINE
  5
587
100
AcDbEntity
  8
RACCORDO
100
AcDbLine
 62
253
  6
PHANTOM
 10
48.7884001014
 20
2.5479500472
 11
48.7884000948
 21
2.0479690857
  0
LINE
  5
588
100
AcDbEntity
  8
ASSI
100
AcDbLine
 62
253
  6
CONTINUOUS
 10
48.7884001014
 20
2.5479500472
 11
48.7884000948
 21
2.0479690857
  0
LINE
  5
589
100
AcDbEntity
  8
RACCORDO
100
AcDbLine
 62
253
  6
PHANTOM
 10
48.7884001014
 20
8.9650067248
 11
48.7884001014
 21
9.4649876863
  0
LINE
  5
58A
100
AcDbEntity
  8
ASSI
100
AcDbLine
 62
253
  6
CONTINUOUS
 10
48.7884001014
 20
8.9650067248
 11
48.7884001014
 21
9.4649876863
  0
LINE
  5
58B
100
AcDbEntity
  8
RACCORDO
100
AcDbLine
 62
253
  6
PHANTOM
 10
48.8883962937
 20
2.6479462395
 11
48.8883962937
 21
8.8650105325
  0
LINE
  5
58C
100
AcDbEntity
  8
ASSI
100
AcDbLine
 62
253
  6
CONTINUOUS
 10
48.8883962937
 20
2.6479462395
 11
48.8883962937
 21
8.8650105325
  0
LINE
  5
58D
100
AcDbEntity
  8
SCRITTE
100
AcDbLine
 62
253
  6
CONTINUOUS
 10
47.7173679549
 20
3.187728386
 11
47.8048679549
 21
3.275228386
  0
LINE
  5
58E
100
AcDbEntity
  8
SCRITTE
100
AcDbLine
 62
253
  6
CONTINUOUS
 10
47.5861179549
 20
3.100228386
 11
47.7173679549
 21
3.187728386
  0
LWPOLYLINE
  5
58F
100
AcDbEntity
  8
RACCORDO
100
AcDbPolyline
 62
7
  6
PHANTOM
 90
6
 70
0
 10
28.9031659219
 20
8.146379202
 10
28.8851960332
 20
8.1436327761
 10
28.867888869
 20
8.1392732173
 10
28.8512444295
 20
8.1334013459
 10
28.8352627145
 20
8.1261267929
 10
28.8199437241
 20
8.1175660624
  0
LWPOLYLINE
  5
590
100
AcDbEntity
  8
ASSI
100
AcDbPolyline
 62
7
  6
CONTINUOUS
 90
6
 70
0
 10
28.9031659219
 20
8.146379202
 10
28.8851960332
 20
8.1436327761
 10
28.867888869
 20
8.1392732173
 10
28.8512444295
 20
8.1334013459
 10
28.8352627145
 20
8.1261267929
 10
28.8199437241
 20
8.1175660624
  0
LWPOLYLINE
  5
591
100
AcDbEntity
  8
RACCORDO
100
AcDbPolyline
 62
253
  6
PHANTOM
 90
10
 70
0
 10
30.121352943
 20
9.4649876863
 10
30.0953053221
 20
9.4627067082
 10
30.0700498075
 20
9.4559372648
 10
30.0463537392
 20
9.4448853621
 10
30.02493693
 20
9.4298870528
 10
30.0064499864
 20
9.4113983257
 10
29.9914544666
 20
9.389981323
 10
29.9804056112
 20
9.366287015
 10
29.9736386272
 20
9.3410353186
 10
29.9713586545
 20
9.3149933979
  0
LWPOLYLINE
  5
592
100
AcDbEntity
  8
ASSI
100
AcDbPolyline
 62
253
  6
CONTINUOUS
 90
10
 70
0
 10
30.121352943
 20
9.4649876863
 10
30.0953053221
 20
9.4627067082
 10
30.0700498075
 20
9.4559372648
 10
30.0463537392
 20
9.4448853621
 10
30.02493693
 20
9.4298870528
 10
30.0064499864
 20
9.4113983257
 10
29.9914544666
 20
9.389981323
 10
29.9804056112
 20
9.366287015
 10
29.9736386272
 20
9.3410353186
 10
29.9713586545
 20
9.3149933979
  0
LWPOLYLINE
  5
593
100
AcDbEntity
  8
RACCORDO
100
AcDbPolyline
 62
7
  6
CONTINUOUS
 90
6
 70
0
 10
63.4298222588
 20
8.656478386
 10
63.4471966995
 20
8.6549620443
 10
63.4640413031
 20
8.6504496574
 10
63.4798440137
 20
8.6430795129
 10
63.4941248838
 20
8.6330765852
 10
63.500541881
 20
8.6271953505
  0
LINE
  5
594
100
AcDbEntity
  8
RACCORDO
100
AcDbLine
 62
7
  6
PHANTOM
 10
62.4947155002
 20
7.6019875262
 11
62.5469357982
 21
7.591846047
  0
LINE
  5
595
100
AcDbEntity
  8
ASSI
100
AcDbLine
 62
7
  6
CONTINUOUS
 10
62.4947155002
 20
7.6019875262
 11
62.5469357982
 21
7.591846047
  0
LWPOLYLINE
  5
596
100
AcDbEntity
  8
RACCORDO
100
AcDbPolyline
 62
7
  6
PHANTOM
 90
10
 70
0
 10
49.4124910705
 20
2.8650522042
 10
49.4122699121
 20
2.8658170396
 10
49.4120492758
 20
2.867220247
 10
49.4118291615
 20
2.8692618264
 10
49.4116094289
 20
2.8719439063
 10
49.4113902184
 20
2.8752643583
 10
49.4111719514
 20
2.8792167971
 10
49.4109547684
 20
2.8837990945
 10
49.4107385289
 20
2.8890133787
 10
49.4105232329
 20
2.8948596498
  0
LWPOLYLINE
  5
597
100
AcDbEntity
  8
ASSI
100
AcDbPolyline
 62
7
  6
CONTINUOUS
 90
10
 70
0
 10
49.4124910705
 20
2.8650522042
 10
49.4122699121
 20
2.8658170396
 10
49.4120492758
 20
2.867220247
 10
49.4118291615
 20
2.8692618264
 10
49.4116094289
 20
2.8719439063
 10
49.4113902184
 20
2.8752643583
 10
49.4111719514
 20
2.8792167971
 10
49.4109547684
 20
2.8837990945
 10
49.4107385289
 20
2.8890133787
 10
49.4105232329
 20
2.8948596498
  0
LWPOLYLINE
  5
598
100
AcDbEntity
  8
RACCORDO
100
AcDbPolyline
 62
7
  6
CONTINUOUS
 90
16
 70
0
 10
49.4822491091
 20
8.959225044
 10
49.4786645223
 20
9.0230499784
 10
49.4688803264
 20
9.0848468614
 10
49.4528965216
 20
9.1446156928
 10
49.430404187
 20
9.202959481
 10
49.4017122435
 20
9.2592752176
 10
49.3677474532
 20
9.3117538784
 10
49.3283401271
 20
9.3602710526
 10
49.2836599542
 20
9.4049511509
 10
49.2351427646
 20
9.4443583803
 10
49.1826641801
 20
9.4783230463
 10
49.1263485787
 20
9.5070148433
 10
49.0680049249
 20
9.5295070622
 10
49.0082362067
 20
9.5454907997
 10
48.9464394361
 20
9.5552749591
 10
48.8826146129
 20
9.5588595403
  0
LWPOLYLINE
  5
599
100
AcDbEntity
  8
RACCORDO
100
AcDbPolyline
 62
253
  6
PHANTOM
 90
19
 70
0
 10
49.3883772552
 20
8.8650105325
 10
49.386091038
 20
8.9173001215
 10
49.3792564042
 20
8.9691917212
 10
49.3679253709
 20
9.0202904477
 10
49.3521841763
 20
9.0702074464
 10
49.3321526099
 20
9.118562864
 10
49.3079830944
 20
9.1649887368
 10
49.2798595575
 20
9.209131764
 10
49.2479960126
 20
9.2506560293
 10
49.2126349023
 20
9.2892455614
 10
49.1740452588
 20
9.3246067268
 10
49.13252078
 20
9.3564703728
 10
49.08837759
 20
9.3845939354
 10
49.0419516887
 20
9.4087633857
 10
48.9935963241
 20
9.4287948583
 10
48.9436794302
 20
9.4445359594
 10
48.8925808491
 20
9.4558669137
 10
48.8406894459
 20
9.4627014909
 10
48.7884001014
 20
9.4649876863
  0
LWPOLYLINE
  5
59A
100
AcDbEntity
  8
ASSI
100
AcDbPolyline
 62
253
  6
CONTINUOUS
 90
19
 70
0
 10
49.3883772552
 20
8.8650105325
 10
49.386091038
 20
8.9173001215
 10
49.3792564042
 20
8.9691917212
 10
49.3679253709
 20
9.0202904477
 10
49.3521841763
 20
9.0702074464
 10
49.3321526099
 20
9.118562864
 10
49.3079830944
 20
9.1649887368
 10
49.2798595575
 20
9.209131764
 10
49.2479960126
 20
9.2506560293
 10
49.2126349023
 20
9.2892455614
 10
49.1740452588
 20
9.3246067268
 10
49.13252078
 20
9.3564703728
 10
49.08837759
 20
9.3845939354
 10
49.0419516887
 20
9.4087633857
 10
48.9935963241
 20
9.4287948583
 10
48.9436794302
 20
9.4445359594
 10
48.8925808491
 20
9.4558669137
 10
48.8406894459
 20
9.4627014909
 10
48.7884001014
 20
9.4649876863
  0
LINE
  5
59B
100
AcDbEntity
  8
RACCORDO
100
AcDbLine
 62
7
  6
PHANTOM
 10
49.4092129191
 20
2.936731092
 11
49.4105232329
 21
2.8948596498
  0
LINE
  5
59C
100
AcDbEntity
  8
ASSI
100
AcDbLine
 62
7
  6
CONTINUOUS
 10
49.4092129191
 20
2.936731092
 11
49.4105232329
 21
2.8948596498
  0
LINE
  5
59D
100
AcDbEntity
  8
RACCORDO
100
AcDbLine
 62
7
  6
PHANTOM
 10
49.4066731566
 20
3.0432038357
 11
49.4092129191
 21
2.936731092
  0
LINE
  5
59E
100
AcDbEntity
  8
ASSI
100
AcDbLine
 62
7
  6
CONTINUOUS
 10
49.4066731566
 20
3.0432038357
 11
49.4092129191
 21
2.936731092
  0
LINE
  5
59F
100
AcDbEntity
  8
RACCORDO
100
AcDbLine
 62
7
  6
PHANTOM
 10
49.4030656763
 20
3.2597375992
 11
49.4066731566
 21
3.0432038357
  0
LINE
  5
5A0
100
AcDbEntity
  8
ASSI
100
AcDbLine
 62
7
  6
CONTINUOUS
 10
49.4030656763
 20
3.2597375992
 11
49.4066731566
 21
3.0432038357
  0
LINE
  5
5A1
100
AcDbEntity
  8
RACCORDO
100
AcDbLine
 62
7
  6
PHANTOM
 10
49.3988143889
 20
3.6432968832
 11
49.4030656763
 21
3.2597375992
  0
LINE
  5
5A2
100
AcDbEntity
  8
ASSI
100
AcDbLine
 62
7
  6
CONTINUOUS
 10
49.3988143889
 20
3.6432968832
 11
49.4030656763
 21
3.2597375992
  0
LINE
  5
5A3
100
AcDbEntity
  8
RACCORDO
100
AcDbLine
 62
7
  6
PHANTOM
 10
49.3988143889
 20
3.6432968832
 11
49.3958757923
 21
4.0646515252
  0
LINE
  5
5A4
100
AcDbEntity
  8
ASSI
100
AcDbLine
 62
7
  6
CONTINUOUS
 10
49.3988143889
 20
3.6432968832
 11
49.3958757923
 21
4.0646515252
  0
LINE
  5
5A5
100
AcDbEntity
  8
RACCORDO
100
AcDbLine
 62
7
  6
PHANTOM
 10
49.3883772552
 20
2.6479462395
 11
49.3883772552
 21
8.8650105325
  0
LINE
  5
5A6
100
AcDbEntity
  8
ASSI
100
AcDbLine
 62
7
  6
CONTINUOUS
 10
49.3883772552
 20
2.6479462395
 11
49.3883772552
 21
8.8650105325
  0
LINE
  5
5A7
100
AcDbEntity
  8
RACCORDO
100
AcDbLine
 62
7
  6
PHANTOM
 10
49.3958757923
 20
4.0646515252
 11
49.3949604837
 21
7.0024719655
  0
LINE
  5
5A8
100
AcDbEntity
  8
ASSI
100
AcDbLine
 62
7
  6
CONTINUOUS
 10
49.3958757923
 20
4.0646515252
 11
49.3949604837
 21
7.0024719655
  0
LINE
  5
5A9
100
AcDbEntity
  8
RACCORDO
100
AcDbLine
 62
7
  6
PHANTOM
 10
49.4167776532
 20
8.8934109305
 11
49.4167776532
 21
8.656478386
  0
LINE
  5
5AA
100
AcDbEntity
  8
ASSI
100
AcDbLine
 62
7
  6
CONTINUOUS
 10
49.4167776532
 20
8.8934109305
 11
49.4167776532
 21
8.656478386
  0
LINE
  5
5AB
100
AcDbEntity
  8
RACCORDO
100
AcDbLine
 62
7
  6
PHANTOM
 10
49.4167776532
 20
2.856478386
 11
49.4167776532
 21
2.6195458415
  0
LINE
  5
5AC
100
AcDbEntity
  8
ASSI
100
AcDbLine
 62
7
  6
CONTINUOUS
 10
49.4167776532
 20
2.856478386
 11
49.4167776532
 21
2.6195458415
  0
LINE
  5
5AD
100
AcDbEntity
  8
RACCORDO
100
AcDbLine
 62
7
  6
CONTINUOUS
 10
49.4822491091
 20
2.553731728
 11
49.4822491091
 21
2.856478386
  0
LINE
  5
5AE
100
AcDbEntity
  8
RACCORDO
100
AcDbLine
 62
7
  6
CONTINUOUS
 10
49.4822491091
 20
8.656478386
 11
49.4822491091
 21
8.959225044
  0
LINE
  5
5AF
100
AcDbEntity
  8
RACCORDO
100
AcDbLine
 62
7
  6
PHANTOM
 10
49.3949604837
 20
7.0024719655
 11
49.3958757923
 21
7.4483052468
  0
LINE
  5
5B0
100
AcDbEntity
  8
ASSI
100
AcDbLine
 62
7
  6
CONTINUOUS
 10
49.3949604837
 20
7.0024719655
 11
49.3958757923
 21
7.4483052468
  0
LINE
  5
5B1
100
AcDbEntity
  8
RACCORDO
100
AcDbLine
 62
7
  6
PHANTOM
 10
49.3988143889
 20
7.8696598857
 11
49.3958757923
 21
7.4483052468
  0
LINE
  5
5B2
100
AcDbEntity
  8
ASSI
100
AcDbLine
 62
7
  6
CONTINUOUS
 10
49.3988143889
 20
7.8696598857
 11
49.3958757923
 21
7.4483052468
  0
LINE
  5
5B3
100
AcDbEntity
  8
RACCORDO
100
AcDbLine
 62
7
  6
PHANTOM
 10
49.4030656763
 20
8.2532191693
 11
49.3988143889
 21
7.8696598857
  0
LINE
  5
5B4
100
AcDbEntity
  8
ASSI
100
AcDbLine
 62
7
  6
CONTINUOUS
 10
49.4030656763
 20
8.2532191693
 11
49.3988143889
 21
7.8696598857
  0
LINE
  5
5B5
100
AcDbEntity
  8
RACCORDO
100
AcDbLine
 62
7
  6
PHANTOM
 10
49.4066731565
 20
8.4697529324
 11
49.4030656763
 21
8.2532191693
  0
LINE
  5
5B6
100
AcDbEntity
  8
ASSI
100
AcDbLine
 62
7
  6
CONTINUOUS
 10
49.4066731565
 20
8.4697529324
 11
49.4030656763
 21
8.2532191693
  0
LWPOLYLINE
  5
5B7
100
AcDbEntity
  8
RACCORDO
100
AcDbPolyline
 62
7
  6
PHANTOM
 90
3
 70
0
 10
49.4105232329
 20
8.6180971222
 10
49.409212919
 20
8.5762256782
 10
49.4066731565
 20
8.4697529324
  0
LWPOLYLINE
  5
5B8
100
AcDbEntity
  8
ASSI
100
AcDbPolyline
 62
7
  6
CONTINUOUS
 90
3
 70
0
 10
49.4105232329
 20
8.6180971222
 10
49.409212919
 20
8.5762256782
 10
49.4066731565
 20
8.4697529324
  0
LWPOLYLINE
  5
5B9
100
AcDbEntity
  8
RACCORDO
100
AcDbPolyline
 62
7
  6
PHANTOM
 90
10
 70
0
 10
49.4105232329
 20
8.6180971222
 10
49.4107385289
 20
8.6239433933
 10
49.4109547684
 20
8.6291576775
 10
49.4111719514
 20
8.6337399749
 10
49.4113902184
 20
8.6376924137
 10
49.4116094289
 20
8.6410128657
 10
49.4118291615
 20
8.6436949456
 10
49.4120492758
 20
8.6457365251
 10
49.4122699121
 20
8.6471397325
 10
49.4124910705
 20
8.6479045678
  0
LWPOLYLINE
  5
5BA
100
AcDbEntity
  8
ASSI
100
AcDbPolyline
 62
7
  6
CONTINUOUS
 90
10
 70
0
 10
49.4105232329
 20
8.6180971222
 10
49.4107385289
 20
8.6239433933
 10
49.4109547684
 20
8.6291576775
 10
49.4111719514
 20
8.6337399749
 10
49.4113902184
 20
8.6376924137
 10
49.4116094289
 20
8.6410128657
 10
49.4118291615
 20
8.6436949456
 10
49.4120492758
 20
8.6457365251
 10
49.4122699121
 20
8.6471397325
 10
49.4124910705
 20
8.6479045678
  0
LWPOLYLINE
  5
5BB
100
AcDbEntity
  8
RACCORDO
100
AcDbPolyline
 62
7
  6
PHANTOM
 90
16
 70
0
 10
49.4167776532
 20
2.6195458415
 10
49.4131952155
 20
2.5557255538
 10
49.4034068022
 20
2.4939225666
 10
49.3874124131
 20
2.4341368797
 10
49.364903079
 20
2.3757623114
 10
49.3361877691
 20
2.3194050434
 10
49.3021933917
 20
2.2668836218
 10
49.2627478434
 20
2.218323155
 10
49.2180232275
 20
2.1735985344
 10
49.1694627617
 20
2.1341529801
 10
49.1169413353
 20
2.1001585949
 10
49.0605840589
 20
2.0714432759
 10
49.0022094822
 20
2.0489339346
 10
48.9424237883
 20
2.0329395413
 10
48.880620794
 20
2.0231511257
 10
48.8168004993
 20
2.0195686877
  0
LWPOLYLINE
  5
5BC
100
AcDbEntity
  8
ASSI
100
AcDbPolyline
 62
7
  6
CONTINUOUS
 90
16
 70
0
 10
49.4167776532
 20
2.6195458415
 10
49.4131952155
 20
2.5557255538
 10
49.4034068022
 20
2.4939225666
 10
49.3874124131
 20
2.4341368797
 10
49.364903079
 20
2.3757623114
 10
49.3361877691
 20
2.3194050434
 10
49.3021933917
 20
2.2668836218
 10
49.2627478434
 20
2.218323155
 10
49.2180232275
 20
2.1735985344
 10
49.1694627617
 20
2.1341529801
 10
49.1169413353
 20
2.1001585949
 10
49.0605840589
 20
2.0714432759
 10
49.0022094822
 20
2.0489339346
 10
48.9424237883
 20
2.0329395413
 10
48.880620794
 20
2.0231511257
 10
48.8168004993
 20
2.0195686877
  0
LWPOLYLINE
  5
5BD
100
AcDbEntity
  8
RACCORDO
100
AcDbPolyline
 62
253
  6
CONTINUOUS
 90
22
 70
0
 10
63.3993258467
 20
7.3187772656
 10
63.4055515697
 20
7.3220082707
 10
63.4117351272
 20
7.3254830692
 10
63.417856766
 20
7.3292016612
 10
63.4238936676
 20
7.3331624334
 10
63.4298261715
 20
7.337366999
 10
63.43563704
 20
7.3418201975
 10
63.4413020385
 20
7.3465251111
 10
63.4467952417
 20
7.3514786576
 10
63.4520940175
 20
7.3566764302
 10
63.4571688548
 20
7.3621206178
 10
63.4619922555
 20
7.3678090316
 10
63.4665409827
 20
7.3737306985
 10
63.4707808071
 20
7.3798869405
 10
63.4746810395
 20
7.3862764356
 10
63.47821737
 20
7.3928842445
 10
63.4813476356
 20
7.3997055182
 10
63.4840390631
 20
7.4067451056
 10
63.4862662635
 20
7.4140026142
 10
63.4879821749
 20
7.4214779131
 10
63.4891303727
 20
7.4291711333
 10
63.4896600781
 20
7.4370822747
  0
LINE
  5
5BE
100
AcDbEntity
  8
RACCORDO
100
AcDbLine
 62
253
  6
CONTINUOUS
 10
63.2896908399
 20
7.2639597292
 11
63.3993258467
 21
7.3187772656
  0
LINE
  5
5BF
100
AcDbEntity
  8
RACCORDO
100
AcDbLine
 62
253
  6
CONTINUOUS
 10
63.3993258467
 20
4.1941795352
 11
63.2896908399
 21
4.2489970428
  0
LINE
  5
5C0
100
AcDbEntity
  8
RACCORDO
100
AcDbLine
 62
7
  6
CONTINUOUS
 10
62.5489039497
 20
8.6469632885
 11
62.5332381601
 21
8.6547937968
  0
LINE
  5
5C1
100
AcDbEntity
  8
ASSI
100
AcDbLine
 62
7
  6
CONTINUOUS
 10
54.7298679549
 20
5.256478386
 11
54.7298679549
 21
6.256478386
  0
LINE
  5
5C2
100
AcDbEntity
  8
ASSI
100
AcDbLine
 62
7
  6
CONTINUOUS
 10
55.7881684793
 20
5.256478386
 11
55.7881684793
 21
6.256478386
  0
LINE
  5
5C3
100
AcDbEntity
  8
RACCORDO
100
AcDbLine
 62
7
  6
PHANTOM
 10
62.4298679549
 20
8.656478386
 11
62.4212941366
 21
8.6479045678
  0
LINE
  5
5C4
100
AcDbEntity
  8
ASSI
100
AcDbLine
 62
7
  6
CONTINUOUS
 10
62.4298679549
 20
8.656478386
 11
62.4212941366
 21
8.6479045678
  0
LINE
  5
5C5
100
AcDbEntity
  8
RACCORDO
100
AcDbLine
 62
253
  6
CONTINUOUS
 10
63.4298831853
 20
8.656478386
 11
63.4203679595
 21
8.6469631602
  0
LINE
  5
5C6
100
AcDbEntity
  8
RACCORDO
100
AcDbLine
 62
253
  6
CONTINUOUS
 10
63.5298374916
 20
8.5564631532
 11
63.5203528574
 21
8.546978519
  0
LINE
  5
5C7
100
AcDbEntity
  8
RACCORDO
100
AcDbLine
 62
7
  6
CONTINUOUS
 10
62.5489039497
 20
2.8659934835
 11
62.5332381601
 21
2.8581629752
  0
LINE
  5
5C8
100
AcDbEntity
  8
RACCORDO
100
AcDbLine
 62
7
  6
PHANTOM
 10
62.4298679549
 20
2.856478386
 11
62.4212941366
 21
2.8650522042
  0
LINE
  5
5C9
100
AcDbEntity
  8
ASSI
100
AcDbLine
 62
7
  6
CONTINUOUS
 10
62.4298679549
 20
2.856478386
 11
62.4212941366
 21
2.8650522042
  0
LINE
  5
5CA
100
AcDbEntity
  8
RACCORDO
100
AcDbLine
 62
253
  6
CONTINUOUS
 10
63.4203679595
 20
2.8659936119
 11
63.4298831853
 21
2.856478386
  0
LINE
  5
5CB
100
AcDbEntity
  8
RACCORDO
100
AcDbLine
 62
253
  6
CONTINUOUS
 10
63.5203528574
 20
2.965978253
 11
63.5298374916
 21
2.9564936188
  0
LWPOLYLINE
  5
5CC
100
AcDbEntity
  8
RACCORDO
100
AcDbPolyline
 62
7
  6
PHANTOM
 90
13
 70
0
 10
62.4298679549
 20
7.606478386
 10
62.4286596051
 20
7.6051710198
 10
62.427456531
 20
7.6013071358
 10
62.4262587325
 20
7.5948867338
 10
62.4250646444
 20
7.5858937804
 10
62.4238758319
 20
7.5743443091
 10
62.4226969907
 20
7.5602864206
 10
62.4215280702
 20
7.5437094731
 10
62.4203691211
 20
7.5246241084
 10
62.4192249908
 20
7.5031103529
 10
62.4180957624
 20
7.4791586194
 10
62.4169813529
 20
7.4527784951
 10
62.4148108642
 20
7.3930501122
  0
LWPOLYLINE
  5
5CD
100
AcDbEntity
  8
ASSI
100
AcDbPolyline
 62
7
  6
CONTINUOUS
 90
13
 70
0
 10
62.4298679549
 20
7.606478386
 10
62.4286596051
 20
7.6051710198
 10
62.427456531
 20
7.6013071358
 10
62.4262587325
 20
7.5948867338
 10
62.4250646444
 20
7.5858937804
 10
62.4238758319
 20
7.5743443091
 10
62.4226969907
 20
7.5602864206
 10
62.4215280702
 20
7.5437094731
 10
62.4203691211
 20
7.5246241084
 10
62.4192249908
 20
7.5031103529
 10
62.4180957624
 20
7.4791586194
 10
62.4169813529
 20
7.4527784951
 10
62.4148108642
 20
7.3930501122
  0
LWPOLYLINE
  5
5CE
100
AcDbEntity
  8
RACCORDO
100
AcDbPolyline
 62
253
  6
CONTINUOUS
 90
22
 70
0
 10
63.3445083763
 20
7.373594736
 10
63.3476381607
 20
7.3769397911
 10
63.3507262902
 20
7.380537718
 10
63.3537727646
 20
7.3843877706
 10
63.356788246
 20
7.3884862387
 10
63.3597620723
 20
7.3928351785
 10
63.3626622578
 20
7.397442377
 10
63.3654907971
 20
7.4023099644
 10
63.3682456956
 20
7.4074337224
 10
63.3708889833
 20
7.4128117943
 10
63.373422021
 20
7.4184450428
 10
63.375843448
 20
7.4243301408
 10
63.3781112124
 20
7.4304588869
 10
63.3802271958
 20
7.4368312929
 10
63.3821895166
 20
7.4434445629
 10
63.383950477
 20
7.4502862827
 10
63.3855133092
 20
7.4573498619
 10
63.386874781
 20
7.4646388766
 10
63.3879774992
 20
7.4721561029
 10
63.3888023326
 20
7.4799012935
 10
63.3893684123
 20
7.4878712077
 10
63.3896757383
 20
7.4960640018
  0
LINE
  5
5CF
100
AcDbEntity
  8
RACCORDO
100
AcDbLine
 62
7
  6
CONTINUOUS
 10
63.5292891524
 20
7.6561890068
 11
63.5333486451
 21
7.6602484995
  0
LWPOLYLINE
  5
5D0
100
AcDbEntity
  8
RACCORDO
100
AcDbPolyline
 62
253
  6
CONTINUOUS
 90
10
 70
0
 10
63.3445083763
 20
7.3735947301
 10
63.3512847231
 20
7.3686403318
 10
63.3580080871
 20
7.3632960554
 10
63.3646258984
 20
7.3576036878
 10
63.3710864123
 20
7.3516077376
 10
63.3773391143
 20
7.3453550871
 10
63.3833351143
 20
7.3388946259
 10
63.3890275298
 20
7.3322768682
 10
63.3943718519
 20
7.3255535583
 10
63.3993262932
 20
7.3187772656
  0
LINE
  5
5D1
100
AcDbEntity
  8
RACCORDO
100
AcDbLine
 62
7
  6
CONTINUOUS
 10
63.5333486451
 20
3.8527082725
 11
63.5292891524
 21
3.8567677652
  0
LWPOLYLINE
  5
5D2
100
AcDbEntity
  8
RACCORDO
100
AcDbPolyline
 62
253
  6
CONTINUOUS
 90
22
 70
0
 10
63.3445083476
 20
4.1393620361
 10
63.3477122845
 20
4.1359315918
 10
63.35086515
 20
4.1322488216
 10
63.3539669441
 20
4.1283144884
 10
63.3570293878
 20
4.1241283063
 10
63.3600407601
 20
4.1196922587
 10
63.362965898
 20
4.115010586
 10
63.3658044847
 20
4.1100834298
 10
63.368556837
 20
4.1049126645
 10
63.3711887429
 20
4.0995051782
 10
63.373700953
 20
4.0938614165
 10
63.3760927168
 20
4.087983244
 10
63.3783275708
 20
4.0818797
 10
63.3804068052
 20
4.0755558659
 10
63.3823291298
 20
4.069009217
 10
63.3840542104
 20
4.0622374496
 10
63.3855705144
 20
4.0553854735
 10
63.3868895744
 20
4.0483107378
 10
63.3880056533
 20
4.0405825937
 10
63.3889168386
 20
4.0320620328
 10
63.3896250429
 20
4.0228986589
 10
63.3901302661
 20
4.013098144
  0
LWPOLYLINE
  5
5D3
100
AcDbEntity
  8
RACCORDO
100
AcDbPolyline
 62
7
  6
PHANTOM
 90
10
 70
0
 10
62.4212941366
 20
8.6479045678
 10
62.4208517847
 20
8.6471397268
 10
62.4204104773
 20
8.6457365135
 10
62.4199702145
 20
8.6436949277
 10
62.4195307152
 20
8.6410128387
 10
62.4190922605
 20
8.6376923773
 10
62.4186556934
 20
8.6337399357
 10
62.4182212952
 20
8.6291576447
 10
62.4177887846
 20
8.6239433735
 10
62.4173581617
 20
8.6180971222
  0
LWPOLYLINE
  5
5D4
100
AcDbEntity
  8
ASSI
100
AcDbPolyline
 62
7
  6
CONTINUOUS
 90
10
 70
0
 10
62.4212941366
 20
8.6479045678
 10
62.4208517847
 20
8.6471397268
 10
62.4204104773
 20
8.6457365135
 10
62.4199702145
 20
8.6436949277
 10
62.4195307152
 20
8.6410128387
 10
62.4190922605
 20
8.6376923773
 10
62.4186556934
 20
8.6337399357
 10
62.4182212952
 20
8.6291576447
 10
62.4177887846
 20
8.6239433735
 10
62.4173581617
 20
8.6180971222
  0
LINE
  5
5D5
100
AcDbEntity
  8
RACCORDO
100
AcDbLine
 62
7
  6
CONTINUOUS
 10
63.0383651775
 20
4.174651553
 11
63.1001272126
 21
4.2365006449
  0
LINE
  5
5D6
100
AcDbEntity
  8
RACCORDO
100
AcDbLine
 62
7
  6
CONTINUOUS
 10
63.1001272126
 20
4.2365006449
 11
63.1127106673
 21
4.2489970428
  0
LWPOLYLINE
  5
5D7
100
AcDbEntity
  8
RACCORDO
100
AcDbPolyline
 62
7
  6
CONTINUOUS
 90
4
 70
0
 10
63.0030756606
 20
4.1393620361
 10
63.0146680932
 20
4.1508474071
 10
63.0264312655
 20
4.1626327855
 10
63.0383651775
 20
4.174651553
  0
LWPOLYLINE
  5
5D8
100
AcDbEntity
  8
RACCORDO
100
AcDbPolyline
 62
7
  6
CONTINUOUS
 90
10
 70
0
 10
62.5489039497
 20
8.6469632885
 10
62.549298463
 20
8.6466380183
 10
62.5496922209
 20
8.6460587066
 10
62.5500852233
 20
8.6452253535
 10
62.5504776719
 20
8.6441372672
 10
62.5508693651
 20
8.6427951394
 10
62.5512596981
 20
8.6412010457
 10
62.5516484695
 20
8.6393556778
 10
62.5520358807
 20
8.6372583439
 10
62.5524219319
 20
8.634909044
  0
LWPOLYLINE
  5
5D9
100
AcDbEntity
  8
RACCORDO
100
AcDbPolyline
 62
7
  6
CONTINUOUS
 90
3
 70
0
 10
63.0505268116
 20
7.3261693263
 10
63.0145610316
 20
7.3620023033
 10
63.0030756606
 20
7.373594736
  0
LWPOLYLINE
  5
5DA
100
AcDbEntity
  8
RACCORDO
100
AcDbPolyline
 62
7
  6
CONTINUOUS
 90
3
 70
0
 10
63.1002142693
 20
7.2765431839
 10
63.0627947049
 20
7.3138626939
 10
63.0505268116
 20
7.3261693263
  0
LINE
  5
5DB
100
AcDbEntity
  8
RACCORDO
100
AcDbLine
 62
7
  6
CONTINUOUS
 10
63.1127106673
 20
7.2639597292
 11
63.1002142693
 21
7.2765431839
  0
LWPOLYLINE
  5
5DC
100
AcDbEntity
  8
RACCORDO
100
AcDbPolyline
 62
7
  6
CONTINUOUS
 90
10
 70
0
 10
62.6579440186
 20
3.7134922708
 10
62.6471081172
 20
3.7014018509
 10
62.6372918378
 20
3.6886173119
 10
62.6284951802
 20
3.6751526725
 10
62.6206307404
 20
3.6609803004
 10
62.6137859226
 20
3.6461594643
 10
62.6082229392
 20
3.6308332702
 10
62.6040291947
 20
3.6150584612
 10
62.6011172848
 20
3.5988085247
 10
62.5994872094
 20
3.5821000715
  0
LWPOLYLINE
  5
5DD
100
AcDbEntity
  8
RACCORDO
100
AcDbPolyline
 62
7
  6
CONTINUOUS
 90
9
 70
0
 10
63.0030756606
 20
4.1393620361
 10
62.9992280683
 20
4.1354176678
 10
62.9954595392
 20
4.1313795478
 10
62.9917700731
 20
4.1272480041
 10
62.9881598289
 20
4.1230205806
 10
62.9846286478
 20
4.1187004245
 10
62.9811760532
 20
4.1142962543
 10
62.9778018861
 20
4.1098111892
 10
62.9745063054
 20
4.105242782
  0
LINE
  5
5DE
100
AcDbEntity
  8
RACCORDO
100
AcDbLine
 62
253
  6
CONTINUOUS
 10
63.5333486451
 20
2.9600047723
 11
63.5298374916
 21
2.9564936188
  0
LINE
  5
5DF
100
AcDbEntity
  8
RACCORDO
100
AcDbLine
 62
253
  6
CONTINUOUS
 10
63.5298374916
 20
8.5564631532
 11
63.5333486451
 21
8.5529519997
  0
LWPOLYLINE
  5
5E0
100
AcDbEntity
  8
RACCORDO
100
AcDbPolyline
 62
7
  6
CONTINUOUS
 90
6
 70
0
 10
62.6579440186
 20
7.7994645012
 10
62.7158022453
 20
7.7372830715
 10
62.7714068676
 20
7.674167606
 10
62.8247578852
 20
7.6101181049
 10
62.8758552984
 20
7.5451345681
 10
62.924699107
 20
7.4792169956
  0
LINE
  5
5E1
100
AcDbEntity
  8
RACCORDO
100
AcDbLine
 62
253
  6
CONTINUOUS
 10
63.5064503653
 20
8.6207459144
 11
63.5099662217
 21
8.6172329013
  0
LWPOLYLINE
  5
5E2
100
AcDbEntity
  8
RACCORDO
100
AcDbPolyline
 62
7
  6
CONTINUOUS
 90
6
 70
0
 10
63.500541881
 20
8.6271953505
 10
63.5064503653
 20
8.6207459144
 10
63.5164464153
 20
8.6064632423
 10
63.5238101716
 20
8.5906631752
 10
63.5283191195
 20
8.5738259642
 10
63.5298374916
 20
8.5564631532
  0
LWPOLYLINE
  5
5E3
100
AcDbEntity
  8
RACCORDO
100
AcDbPolyline
 62
253
  6
CONTINUOUS
 90
6
 70
0
 10
63.4203679854
 20
8.6469631601
 10
63.4201311974
 20
8.6463806639
 10
63.4198953427
 20
8.6452252446
 10
63.4196604214
 20
8.6434980931
 10
63.4194264334
 20
8.6412010568
 10
63.4191933788
 20
8.6383366379
  0
LINE
  5
5E4
100
AcDbEntity
  8
RACCORDO
100
AcDbLine
 62
7
  6
CONTINUOUS
 10
63.5334812906
 20
7.6605531321
 11
63.5333486451
 21
7.6602484995
  0
LINE
  5
5E5
100
AcDbEntity
  8
RACCORDO
100
AcDbLine
 62
253
  6
CONTINUOUS
 10
63.3445083763
 20
7.373594736
 11
63.2896908399
 21
7.2639597292
  0
LWPOLYLINE
  5
5E6
100
AcDbEntity
  8
RACCORDO
100
AcDbPolyline
 62
253
  6
CONTINUOUS
 90
7
 70
0
 10
63.5203528574
 20
8.546978519
 10
63.5201150472
 20
8.5465037073
 10
63.5198785768
 20
8.5455759272
 10
63.5196434462
 20
8.5441951787
 10
63.5194096554
 20
8.542361462
 10
63.5191772044
 20
8.5400747769
 10
63.5189460932
 20
8.5373351234
  0
LWPOLYLINE
  5
5E7
100
AcDbEntity
  8
RACCORDO
100
AcDbPolyline
 62
7
  6
CONTINUOUS
 90
7
 70
0
 10
62.9745063054
 20
4.105242782
 10
62.9246991993
 20
4.0337398907
 10
62.875855446
 20
3.9678223867
 10
62.8247580513
 20
3.9028388728
 10
62.7714070152
 20
3.8387893488
 10
62.7158023376
 20
3.7756738148
 10
62.6579440186
 20
3.7134922708
  0
LWPOLYLINE
  5
5E8
100
AcDbEntity
  8
RACCORDO
100
AcDbPolyline
 62
253
  6
CONTINUOUS
 90
10
 70
0
 10
63.3993260613
 20
4.1941795352
 10
63.3943716675
 20
4.1874032127
 10
63.3890273859
 20
4.1806798778
 10
63.3833350041
 20
4.1740621011
 10
63.3773390312
 20
4.1676016274
 10
63.3710863502
 20
4.1613489718
 10
63.3646258516
 20
4.1553530242
 10
63.3580080506
 20
4.1496606675
 10
63.3512846924
 20
4.1443164106
 10
63.3445083476
 20
4.1393620406
  0
LWPOLYLINE
  5
5E9
100
AcDbEntity
  8
RACCORDO
100
AcDbPolyline
 62
7
  6
CONTINUOUS
 90
4
 70
0
 10
63.503941563
 20
2.8891750243
 10
63.5143855906
 20
2.9013975569
 10
63.5226041405
 20
2.9148451594
 10
63.5289361805
 20
2.9304184937
  0
LINE
  5
5EA
100
AcDbEntity
  8
RACCORDO
100
AcDbLine
 62
253
  6
CONTINUOUS
 10
63.5064459441
 20
2.8922057516
 11
63.5099675294
 21
2.8957254293
  0
LWPOLYLINE
  5
5EB
100
AcDbEntity
  8
RACCORDO
100
AcDbPolyline
 62
7
  6
CONTINUOUS
 90
6
 70
0
 10
63.5005418058
 20
2.8857614216
 10
63.5064459441
 20
2.8922057516
 10
63.516441457
 20
2.9064849384
 10
63.5238071576
 20
2.9222842751
 10
63.5283184531
 20
2.9391242951
 10
63.5298374916
 20
2.9564936188
  0
LINE
  5
5EC
100
AcDbEntity
  8
RACCORDO
100
AcDbLine
 62
253
  6
CONTINUOUS
 10
63.5164464153
 20
8.6064632423
 11
63.5199625053
 21
8.6029546924
  0
LWPOLYLINE
  5
5ED
100
AcDbEntity
  8
RACCORDO
100
AcDbPolyline
 62
7
  6
CONTINUOUS
 90
10
 70
0
 10
62.924699107
 20
7.4792169956
 10
62.9745063054
 20
7.40771399
 10
62.9778018861
 20
7.4031455828
 10
62.9811760532
 20
7.3986605177
 10
62.9846286478
 20
7.3942563475
 10
62.9881598289
 20
7.3899361915
 10
62.9917700731
 20
7.3857087679
 10
62.9954595392
 20
7.3815772243
 10
62.9992280683
 20
7.3775391042
 10
63.0030756606
 20
7.373594736
  0
LINE
  5
5EE
100
AcDbEntity
  8
RACCORDO
100
AcDbLine
 62
253
  6
CONTINUOUS
 10
63.2896908399
 20
4.2489970428
 11
63.3445083476
 21
4.1393620361
  0
LWPOLYLINE
  5
5EF
100
AcDbEntity
  8
RACCORDO
100
AcDbPolyline
 62
7
  6
CONTINUOUS
 90
10
 70
0
 10
63.5292891524
 20
3.8567677652
 10
63.5278866205
 20
3.8598884277
 10
63.5264926558
 20
3.8663511238
 10
63.5251072583
 20
3.8761558536
 10
63.5237280221
 20
3.8893321081
 10
63.5223573532
 20
3.9058503963
 10
63.5210024693
 20
3.9256222448
 10
63.5196634261
 20
3.948665146
 10
63.518340168
 20
3.9749616075
 10
63.5170397458
 20
4.0043706791
  0
LINE
  5
5F0
100
AcDbEntity
  8
RACCORDO
100
AcDbLine
 62
7
  6
CONTINUOUS
 10
63.5333486451
 20
3.8527082725
 11
63.5334812906
 21
3.8524036399
  0
LWPOLYLINE
  5
5F1
100
AcDbEntity
  8
RACCORDO
100
AcDbPolyline
 62
7
  6
CONTINUOUS
 90
10
 70
0
 10
62.5994872094
 20
7.9308567005
 10
62.6011166472
 20
7.9141508775
 10
62.6040279036
 20
7.8979029897
 10
62.6082209784
 20
7.8821296296
 10
62.6137830421
 20
7.8668043174
 10
62.6206269244
 20
7.8519837318
 10
62.6284911142
 20
7.8378108139
 10
62.6372884414
 20
7.8243447662
 10
62.6471060762
 20
7.8115579929
 10
62.6579440186
 20
7.7994645012
  0
LWPOLYLINE
  5
5F2
100
AcDbEntity
  8
RACCORDO
100
AcDbPolyline
 62
253
  6
CONTINUOUS
 90
10
 70
0
 10
63.5189460932
 20
8.5373351234
 10
63.5173681139
 20
8.5542378768
 10
63.5128146195
 20
8.5706295049
 10
63.5054232974
 20
8.5860143769
 10
63.4954176421
 20
8.5999273035
 10
63.4831001958
 20
8.6119476048
 10
63.4688433989
 20
8.6217118293
 10
63.4530783318
 20
8.6289247406
 10
63.4362816811
 20
8.6333682449
 10
63.4189613237
 20
8.6349079874
  0
LWPOLYLINE
  5
5F3
100
AcDbEntity
  8
RACCORDO
100
AcDbPolyline
 62
253
  6
CONTINUOUS
 90
10
 70
0
 10
63.5203528574
 20
8.546978519
 10
63.5188291501
 20
8.5643374412
 10
63.5143148899
 20
8.5811690995
 10
63.5069471995
 20
8.5969622698
 10
63.4969498685
 20
8.6112372713
 10
63.4846265523
 20
8.6235605412
 10
63.4703515458
 20
8.6335577998
 10
63.4545584212
 20
8.6409254111
 10
63.437726862
 20
8.6454396074
 10
63.4203680879
 20
8.6469632885
  0
LINE
  5
5F4
100
AcDbEntity
  8
RACCORDO
100
AcDbLine
 62
253
  6
CONTINUOUS
 10
63.531834224
 20
8.5703182409
 11
63.5333486451
 21
8.5529519997
  0
LWPOLYLINE
  5
5F5
100
AcDbEntity
  8
RACCORDO
100
AcDbPolyline
 62
253
  6
CONTINUOUS
 90
7
 70
0
 10
63.5189460932
 20
2.9756216486
 10
63.5191772044
 20
2.9728819952
 10
63.5194096554
 20
2.9705953101
 10
63.5196434462
 20
2.9687615933
 10
63.5198785768
 20
2.9673808448
 10
63.5201150472
 20
2.9664530648
 10
63.5203528574
 20
2.965978253
  0
LWPOLYLINE
  5
5F6
100
AcDbEntity
  8
RACCORDO
100
AcDbPolyline
 62
253
  6
CONTINUOUS
 90
6
 70
0
 10
63.4191933483
 20
2.8746205461
 10
63.4194264212
 20
2.8717558504
 10
63.4196604214
 20
2.8694586789
 10
63.4198953488
 20
2.8677314896
 10
63.4201312035
 20
2.8665760854
 10
63.4203679854
 20
2.8659936119
  0
LWPOLYLINE
  5
5F7
100
AcDbEntity
  8
RACCORDO
100
AcDbPolyline
 62
7
  6
PHANTOM
 90
10
 70
0
 10
62.4173581617
 20
2.8948596498
 10
62.4177887846
 20
2.8890133985
 10
62.4182212952
 20
2.8837991273
 10
62.4186556934
 20
2.8792168363
 10
62.4190922605
 20
2.8752643947
 10
62.4195307152
 20
2.8719439333
 10
62.4199702145
 20
2.8692618444
 10
62.4204104773
 20
2.8672202586
 10
62.4208517847
 20
2.8658170452
 10
62.4212941366
 20
2.8650522042
  0
LWPOLYLINE
  5
5F8
100
AcDbEntity
  8
ASSI
100
AcDbPolyline
 62
7
  6
CONTINUOUS
 90
10
 70
0
 10
62.4173581617
 20
2.8948596498
 10
62.4177887846
 20
2.8890133985
 10
62.4182212952
 20
2.8837991273
 10
62.4186556934
 20
2.8792168363
 10
62.4190922605
 20
2.8752643947
 10
62.4195307152
 20
2.8719439333
 10
62.4199702145
 20
2.8692618444
 10
62.4204104773
 20
2.8672202586
 10
62.4208517847
 20
2.8658170452
 10
62.4212941366
 20
2.8650522042
  0
LWPOLYLINE
  5
5F9
100
AcDbEntity
  8
RACCORDO
100
AcDbPolyline
 62
7
  6
CONTINUOUS
 90
4
 70
0
 10
63.5334901695
 20
8.5526802109
 10
63.532490234
 20
8.5668045078
 10
63.5282549258
 20
8.5846568092
 10
63.5212272445
 20
8.6007352267
  0
LWPOLYLINE
  5
5FA
100
AcDbEntity
  8
RACCORDO
100
AcDbPolyline
 62
253
  6
CONTINUOUS
 90
22
 70
0
 10
63.4896603789
 20
4.0758627574
 10
63.4891380314
 20
4.0837113135
 10
63.4880071709
 20
4.0913413819
 10
63.486318768
 20
4.0987529623
 10
63.4841295916
 20
4.1059452686
 10
63.4814865818
 20
4.1129190871
 10
63.4784140557
 20
4.1196767768
 10
63.4749466548
 20
4.1262193292
 10
63.4711241502
 20
4.1325457529
 10
63.4669599965
 20
4.1386554329
 10
63.4624786592
 20
4.1445519253
 10
63.4577137776
 20
4.150231674
 10
63.4526830515
 20
4.1556833963
 10
63.4474101399
 20
4.1609062171
 10
63.4419224804
 20
4.1659010115
 10
63.4362395878
 20
4.1706591211
 10
63.4303815624
 20
4.1751791617
 10
63.4243739375
 20
4.1794625176
 10
63.4182430402
 20
4.1835046834
 10
63.412011891
 20
4.1873041574
 10
63.405699614
 20
4.1908624413
 10
63.3993258467
 20
4.1941795352
  0
LWPOLYLINE
  5
5FB
100
AcDbEntity
  8
RACCORDO
100
AcDbPolyline
 62
7
  6
PHANTOM
 90
11
 70
0
 10
62.4180957945
 20
4.0337974322
 10
62.4192250195
 20
4.0098458449
 10
62.4203691456
 20
3.9883322257
 10
62.42152809
 20
3.9692469924
 10
62.4226970058
 20
3.952670154
 10
62.4238758426
 20
3.9386123452
 10
62.4250646508
 20
3.9270629312
 10
62.4262587357
 20
3.9180700178
 10
62.4274565321
 20
3.9116496401
 10
62.4286596052
 20
3.9077857628
 10
62.4298679549
 20
3.906478386
  0
LWPOLYLINE
  5
5FC
100
AcDbEntity
  8
ASSI
100
AcDbPolyline
 62
7
  6
CONTINUOUS
 90
11
 70
0
 10
62.4180957945
 20
4.0337974322
 10
62.4192250195
 20
4.0098458449
 10
62.4203691456
 20
3.9883322257
 10
62.42152809
 20
3.9692469924
 10
62.4226970058
 20
3.952670154
 10
62.4238758426
 20
3.9386123452
 10
62.4250646508
 20
3.9270629312
 10
62.4262587357
 20
3.9180700178
 10
62.4274565321
 20
3.9116496401
 10
62.4286596052
 20
3.9077857628
 10
62.4298679549
 20
3.906478386
  0
LWPOLYLINE
  5
5FD
100
AcDbEntity
  8
RACCORDO
100
AcDbPolyline
 62
253
  6
CONTINUOUS
 90
5
 70
0
 10
63.5096986795
 20
3.1502990572
 10
63.5119099706
 20
3.0979827996
 10
63.5141894905
 20
3.0514661672
 10
63.5165348647
 20
3.0106791169
 10
63.5189460932
 20
2.9756216486
  0
LWPOLYLINE
  5
5FE
100
AcDbEntity
  8
RACCORDO
100
AcDbPolyline
 62
253
  6
CONTINUOUS
 90
5
 70
0
 10
63.4097281136
 20
3.0586723312
 10
63.4119401502
 20
3.0043542236
 10
63.4142170029
 20
2.9558697943
 10
63.4165573468
 20
2.9136694956
 10
63.4191933483
 20
2.8746205461
  0
LWPOLYLINE
  5
5FF
100
AcDbEntity
  8
RACCORDO
100
AcDbPolyline
 62
7
  6
PHANTOM
 90
5
 70
0
 10
62.4071904275
 20
3.1080372202
 10
62.4096573285
 20
3.0432061342
 10
62.4121703589
 20
2.9861804315
 10
62.4147373033
 20
2.9367316034
 10
62.4173581617
 20
2.8948596498
  0
LWPOLYLINE
  5
600
100
AcDbEntity
  8
ASSI
100
AcDbPolyline
 62
7
  6
CONTINUOUS
 90
5
 70
0
 10
62.4071904275
 20
3.1080372202
 10
62.4096573285
 20
3.0432061342
 10
62.4121703589
 20
2.9861804315
 10
62.4147373033
 20
2.9367316034
 10
62.4173581617
 20
2.8948596498
  0
LINE
  5
601
100
AcDbEntity
  8
RACCORDO
100
AcDbLine
 62
7
  6
PHANTOM
 10
62.4158863972
 20
4.0888770093
 11
62.4180957945
 21
4.0337974322
  0
LINE
  5
602
100
AcDbEntity
  8
ASSI
100
AcDbLine
 62
7
  6
CONTINUOUS
 10
62.4158863972
 20
4.0888770093
 11
62.4180957945
 21
4.0337974322
  0
LINE
  5
603
100
AcDbEntity
  8
RACCORDO
100
AcDbLine
 62
7
  6
CONTINUOUS
 10
63.5170397458
 20
4.0043706791
 11
63.5145076682
 21
4.0725595127
  0
LINE
  5
604
100
AcDbEntity
  8
RACCORDO
100
AcDbLine
 62
253
  6
CONTINUOUS
 10
63.5054665365
 20
3.2719101887
 11
63.5096986795
 21
3.1502990572
  0
LINE
  5
605
100
AcDbEntity
  8
RACCORDO
100
AcDbLine
 62
253
  6
CONTINUOUS
 10
63.4054905406
 20
3.1844375511
 11
63.4097281136
 21
3.0586723312
  0
LINE
  5
606
100
AcDbEntity
  8
RACCORDO
100
AcDbLine
 62
7
  6
PHANTOM
 10
62.4137548198
 20
4.1532537628
 11
62.4158863972
 21
4.0888770093
  0
LINE
  5
607
100
AcDbEntity
  8
ASSI
100
AcDbLine
 62
7
  6
CONTINUOUS
 10
62.4137548198
 20
4.1532537628
 11
62.4158863972
 21
4.0888770093
  0
LINE
  5
608
100
AcDbEntity
  8
ASSI
100
AcDbLine
 62
7
  6
CONTINUOUS
 10
62.5760270243
 20
7.1212127817
 11
62.5818130558
 21
6.9385612013
  0
LINE
  5
609
100
AcDbEntity
  8
RACCORDO
100
AcDbLine
 62
7
  6
PHANTOM
 10
62.4024417214
 20
3.2597444894
 11
62.4071904275
 21
3.1080372202
  0
LINE
  5
60A
100
AcDbEntity
  8
ASSI
100
AcDbLine
 62
7
  6
CONTINUOUS
 10
62.4024417214
 20
3.2597444894
 11
62.4071904275
 21
3.1080372202
  0
LINE
  5
60B
100
AcDbEntity
  8
RACCORDO
100
AcDbLine
 62
7
  6
CONTINUOUS
 10
63.5145076682
 20
4.0725595127
 11
63.5120870786
 21
4.152643458
  0
LINE
  5
60C
100
AcDbEntity
  8
RACCORDO
100
AcDbLine
 62
7
  6
PHANTOM
 10
62.4117141023
 20
4.2265076688
 11
62.4137548198
 21
4.1532537628
  0
LINE
  5
60D
100
AcDbEntity
  8
ASSI
100
AcDbLine
 62
7
  6
CONTINUOUS
 10
62.4117141023
 20
4.2265076688
 11
62.4137548198
 21
4.1532537628
  0
LINE
  5
60E
100
AcDbEntity
  8
RACCORDO
100
AcDbLine
 62
253
  6
CONTINUOUS
 10
63.5014587173
 20
3.4157102456
 11
63.5054665365
 21
3.2719101887
  0
LINE
  5
60F
100
AcDbEntity
  8
RACCORDO
100
AcDbLine
 62
253
  6
CONTINUOUS
 10
63.4014837312
 20
3.3331075165
 11
63.4054905406
 21
3.1844375511
  0
LINE
  5
610
100
AcDbEntity
  8
RACCORDO
100
AcDbLine
 62
7
  6
PHANTOM
 10
62.3980056826
 20
3.4391063459
 11
62.4024417214
 21
3.2597444894
  0
LINE
  5
611
100
AcDbEntity
  8
ASSI
100
AcDbLine
 62
7
  6
CONTINUOUS
 10
62.3980056826
 20
3.4391063459
 11
62.4024417214
 21
3.2597444894
  0
LINE
  5
612
100
AcDbEntity
  8
ASSI
100
AcDbLine
 62
7
  6
CONTINUOUS
 10
62.5818130558
 20
6.9385612013
 11
62.5867389223
 21
6.7351280179
  0
LINE
  5
613
100
AcDbEntity
  8
RACCORDO
100
AcDbLine
 62
7
  6
CONTINUOUS
 10
63.5120870786
 20
4.152643458
 11
63.5086964119
 21
4.294015103
  0
LINE
  5
614
100
AcDbEntity
  8
RACCORDO
100
AcDbLine
 62
7
  6
PHANTOM
 10
62.4088451604
 20
4.352229367
 11
62.4117141023
 21
4.2265076688
  0
LINE
  5
615
100
AcDbEntity
  8
ASSI
100
AcDbLine
 62
7
  6
CONTINUOUS
 10
62.4088451604
 20
4.352229367
 11
62.4117141023
 21
4.2265076688
  0
LINE
  5
616
100
AcDbEntity
  8
RACCORDO
100
AcDbLine
 62
253
  6
CONTINUOUS
 10
63.4959373809
 20
3.6707169849
 11
63.5014587173
 21
3.4157102456
  0
LINE
  5
617
100
AcDbEntity
  8
RACCORDO
100
AcDbLine
 62
253
  6
CONTINUOUS
 10
63.3959230636
 20
3.5974496002
 11
63.4014837312
 21
3.3331075165
  0
LINE
  5
618
100
AcDbEntity
  8
RACCORDO
100
AcDbLine
 62
7
  6
PHANTOM
 10
62.3920508698
 20
3.7543721227
 11
62.3980056826
 21
3.4391063459
  0
LINE
  5
619
100
AcDbEntity
  8
ASSI
100
AcDbLine
 62
7
  6
CONTINUOUS
 10
62.3920508698
 20
3.7543721227
 11
62.3980056826
 21
3.4391063459
  0
LINE
  5
61A
100
AcDbEntity
  8
RACCORDO
100
AcDbLine
 62
7
  6
CONTINUOUS
 10
62.5867389223
 20
6.7351280179
 11
62.5877115911
 21
6.6817197083
  0
LINE
  5
61B
100
AcDbEntity
  8
RACCORDO
100
AcDbLine
 62
7
  6
CONTINUOUS
 10
63.5086964119
 20
4.294015103
 11
63.5056442589
 21
4.4587726028
  0
LINE
  5
61C
100
AcDbEntity
  8
RACCORDO
100
AcDbLine
 62
7
  6
PHANTOM
 10
62.4088451604
 20
4.352229367
 11
62.4060303546
 21
4.5113730947
  0
LINE
  5
61D
100
AcDbEntity
  8
ASSI
100
AcDbLine
 62
7
  6
CONTINUOUS
 10
62.4088451604
 20
4.352229367
 11
62.4060303546
 21
4.5113730947
  0
LWPOLYLINE
  5
61E
100
AcDbEntity
  8
RACCORDO
100
AcDbPolyline
 62
253
  6
CONTINUOUS
 90
3
 70
0
 10
63.4896603789
 20
4.0758612649
 10
63.4911079999
 20
3.9678653686
 10
63.4959373809
 20
3.6707169849
  0
LINE
  5
61F
100
AcDbEntity
  8
RACCORDO
100
AcDbLine
 62
7
  6
CONTINUOUS
 10
63.5056442589
 20
4.4587726028
 11
63.5021880376
 21
4.7099306691
  0
LINE
  5
620
100
AcDbEntity
  8
RACCORDO
100
AcDbLine
 62
7
  6
CONTINUOUS
 10
62.5877115911
 20
6.6817197083
 11
62.58844964
 21
6.6256656294
  0
LINE
  5
621
100
AcDbEntity
  8
RACCORDO
100
AcDbLine
 62
7
  6
PHANTOM
 10
62.3887011922
 20
3.9976430871
 11
62.3920508698
 21
3.7543721227
  0
LINE
  5
622
100
AcDbEntity
  8
ASSI
100
AcDbLine
 62
7
  6
CONTINUOUS
 10
62.3887011922
 20
3.9976430871
 11
62.3920508698
 21
3.7543721227
  0
LWPOLYLINE
  5
623
100
AcDbEntity
  8
RACCORDO
100
AcDbPolyline
 62
253
  6
CONTINUOUS
 90
3
 70
0
 10
63.3901302661
 20
4.013098144
 10
63.3913756193
 20
3.9034624734
 10
63.3959230636
 20
3.5974496002
  0
LINE
  5
624
100
AcDbEntity
  8
RACCORDO
100
AcDbLine
 62
7
  6
PHANTOM
 10
62.4060303546
 20
4.5113730947
 11
62.4035853159
 21
4.7307518499
  0
LINE
  5
625
100
AcDbEntity
  8
ASSI
100
AcDbLine
 62
7
  6
CONTINUOUS
 10
62.4060303546
 20
4.5113730947
 11
62.4035853159
 21
4.7307518499
  0
LINE
  5
626
100
AcDbEntity
  8
RACCORDO
100
AcDbLine
 62
7
  6
CONTINUOUS
 10
62.58844964
 20
6.6256656294
 11
62.5889500551
 21
6.567278336
  0
LINE
  5
627
100
AcDbEntity
  8
RACCORDO
100
AcDbLine
 62
7
  6
CONTINUOUS
 10
63.5021880376
 20
4.7099306691
 11
63.5007560526
 21
4.858889613
  0
LINE
  5
628
100
AcDbEntity
  8
RACCORDO
100
AcDbLine
 62
7
  6
PHANTOM
 10
62.3870521032
 20
4.2074314732
 11
62.3887011922
 21
3.9976430871
  0
LINE
  5
629
100
AcDbEntity
  8
ASSI
100
AcDbLine
 62
7
  6
CONTINUOUS
 10
62.3870521032
 20
4.2074314732
 11
62.3887011922
 21
3.9976430871
  0
LINE
  5
62A
100
AcDbEntity
  8
RACCORDO
100
AcDbLine
 62
7
  6
PHANTOM
 10
62.4035853159
 20
4.7307518499
 11
62.4022098724
 21
4.9795143414
  0
LINE
  5
62B
100
AcDbEntity
  8
ASSI
100
AcDbLine
 62
7
  6
CONTINUOUS
 10
62.4035853159
 20
4.7307518499
 11
62.4022098724
 21
4.9795143414
  0
LINE
  5
62C
100
AcDbEntity
  8
RACCORDO
100
AcDbLine
 62
7
  6
CONTINUOUS
 10
63.5007560526
 20
4.858889613
 11
63.5002577757
 21
4.9752490951
  0
LINE
  5
62D
100
AcDbEntity
  8
RACCORDO
100
AcDbLine
 62
7
  6
CONTINUOUS
 10
62.5889500551
 20
6.567278336
 11
62.589233263
 21
6.4775886411
  0
LINE
  5
62E
100
AcDbEntity
  8
RACCORDO
100
AcDbLine
 62
7
  6
PHANTOM
 10
62.3862302925
 20
4.5104848066
 11
62.3870521032
 21
4.2074314732
  0
LINE
  5
62F
100
AcDbEntity
  8
ASSI
100
AcDbLine
 62
7
  6
CONTINUOUS
 10
62.3862302925
 20
4.5104848066
 11
62.3870521032
 21
4.2074314732
  0
LINE
  5
630
100
AcDbEntity
  8
DRAFT
100
AcDbLine
 62
7
  6
PHANTOM
 10
62.4298679549
 20
2.856478386
 11
62.4298679549
 21
3.906478386
  0
LINE
  5
631
100
AcDbEntity
  8
ASSI
100
AcDbLine
 62
7
  6
CONTINUOUS
 10
62.4298679549
 20
2.856478386
 11
62.4298679549
 21
3.906478386
  0
LINE
  5
632
100
AcDbEntity
  8
DRAFT
100
AcDbLine
 62
7
  6
PHANTOM
 10
62.4298679549
 20
7.606478386
 11
62.4298679549
 21
8.656478386
  0
LINE
  5
633
100
AcDbEntity
  8
ASSI
100
AcDbLine
 62
7
  6
CONTINUOUS
 10
62.4298679549
 20
7.606478386
 11
62.4298679549
 21
8.656478386
  0
LINE
  5
634
100
AcDbEntity
  8
ASSI
100
AcDbLine
 62
253
  6
CONTINUOUS
 10
62.4332990774
 20
2.856478386
 11
62.4332990774
 21
3.906478386
  0
LINE
  5
635
100
AcDbEntity
  8
ASSI
100
AcDbLine
 62
253
  6
CONTINUOUS
 10
62.4332990774
 20
7.606478386
 11
62.4332990774
 21
8.656478386
  0
LINE
  5
636
100
AcDbEntity
  8
ASSI
100
AcDbLine
 62
253
  6
CONTINUOUS
 10
62.5332381601
 20
8.6547937968
 11
62.5332381601
 21
7.6540257004
  0
LINE
  5
637
100
AcDbEntity
  8
ASSI
100
AcDbLine
 62
7
  6
CONTINUOUS
 10
62.5332381601
 20
7.6540257004
 11
62.5332381601
 21
7.5945062063
  0
LINE
  5
638
100
AcDbEntity
  8
ASSI
100
AcDbLine
 62
7
  6
CONTINUOUS
 10
62.5332381601
 20
3.9184505663
 11
62.5332381601
 21
3.8589310717
  0
LINE
  5
639
100
AcDbEntity
  8
ASSI
100
AcDbLine
 62
253
  6
CONTINUOUS
 10
62.5332381601
 20
3.8589310717
 11
62.5332381601
 21
2.8581629752
  0
LINE
  5
63A
100
AcDbEntity
  8
RACCORDO
100
AcDbLine
 62
253
  6
CONTINUOUS
 10
62.5994872094
 20
7.9308567005
 11
62.5994872094
 21
3.5821000715
  0
LINE
  5
63B
100
AcDbEntity
  8
RACCORDO
100
AcDbLine
 62
253
  6
CONTINUOUS
 10
62.6579440186
 20
7.7994645012
 11
62.6579440186
 21
3.7134922708
  0
LINE
  5
63C
100
AcDbEntity
  8
RACCORDO
100
AcDbLine
 62
253
  6
CONTINUOUS
 10
62.9712893111
 20
7.4123653874
 11
62.9712893111
 21
4.1005913846
  0
LINE
  5
63D
100
AcDbEntity
  8
RACCORDO
100
AcDbLine
 62
253
  6
CONTINUOUS
 10
63.1127106673
 20
7.2639597292
 11
63.1127106673
 21
4.2489970428
  0
LINE
  5
63E
100
AcDbEntity
  8
RACCORDO
100
AcDbLine
 62
253
  6
CONTINUOUS
 10
63.2896908399
 20
4.2489970428
 11
63.2896908399
 21
7.2639597292
  0
LINE
  5
63F
100
AcDbEntity
  8
RACCORDO
100
AcDbLine
 62
253
  6
CONTINUOUS
 10
63.4896603789
 20
4.0758612649
 11
63.4896603789
 21
7.437091296
  0
LINE
  5
640
100
AcDbEntity
  8
RACCORDO
100
AcDbLine
 62
7
  6
CONTINUOUS
 10
63.5335009499
 20
2.9602787434
 11
63.5335009499
 21
3.8524036396
  0
LINE
  5
641
100
AcDbEntity
  8
RACCORDO
100
AcDbLine
 62
7
  6
CONTINUOUS
 10
63.5335009499
 20
7.6605531324
 11
63.5335009499
 21
8.5526779031
  0
LINE
  5
642
100
AcDbEntity
  8
RACCORDO
100
AcDbLine
 62
7
  6
CONTINUOUS
 10
63.5002577757
 20
4.9752490951
 11
63.5002105845
 21
6.5078097669
  0
LINE
  5
643
100
AcDbEntity
  8
RACCORDO
100
AcDbLine
 62
7
  6
PHANTOM
 10
62.4022098724
 20
4.9795143414
 11
62.4020107588
 21
6.4469862016
  0
LINE
  5
644
100
AcDbEntity
  8
ASSI
100
AcDbLine
 62
7
  6
CONTINUOUS
 10
62.4022098724
 20
4.9795143414
 11
62.4020107588
 21
6.4469862016
  0
LINE
  5
645
100
AcDbEntity
  8
RACCORDO
100
AcDbLine
 62
7
  6
CONTINUOUS
 10
62.589233263
 20
6.4775886411
 11
62.5891063778
 21
4.9752521597
  0
LINE
  5
646
100
AcDbEntity
  8
RACCORDO
100
AcDbLine
 62
7
  6
PHANTOM
 10
62.3866941265
 20
7.2314696403
 11
62.3862302925
 21
4.5104848066
  0
LINE
  5
647
100
AcDbEntity
  8
ASSI
100
AcDbLine
 62
7
  6
CONTINUOUS
 10
62.3866941265
 20
7.2314696403
 11
62.3862302925
 21
4.5104848066
  0
LINE
  5
648
100
AcDbEntity
  8
RACCORDO
100
AcDbLine
 62
7
  6
CONTINUOUS
 10
63.5002105845
 20
6.5078097669
 11
63.5005860649
 21
6.6256706298
  0
LINE
  5
649
100
AcDbEntity
  8
RACCORDO
100
AcDbLine
 62
7
  6
PHANTOM
 10
62.4020107588
 20
6.4469862016
 11
62.4029971509
 21
6.701051791
  0
LINE
  5
64A
100
AcDbEntity
  8
ASSI
100
AcDbLine
 62
7
  6
CONTINUOUS
 10
62.4020107588
 20
6.4469862016
 11
62.4029971509
 21
6.701051791
  0
LINE
  5
64B
100
AcDbEntity
  8
RACCORDO
100
AcDbLine
 62
7
  6
CONTINUOUS
 10
62.5891063778
 20
4.9752521597
 11
62.5887308076
 21
4.9163233687
  0
LINE
  5
64C
100
AcDbEntity
  8
RACCORDO
100
AcDbLine
 62
7
  6
PHANTOM
 10
62.388061011
 20
7.4483008426
 11
62.3866941265
 21
7.2314696403
  0
LINE
  5
64D
100
AcDbEntity
  8
ASSI
100
AcDbLine
 62
7
  6
CONTINUOUS
 10
62.388061011
 20
7.4483008426
 11
62.3866941265
 21
7.2314696403
  0
LINE
  5
64E
100
AcDbEntity
  8
RACCORDO
100
AcDbLine
 62
7
  6
CONTINUOUS
 10
63.5005860649
 20
6.6256706298
 11
63.5014411348
 21
6.7351280179
  0
LINE
  5
64F
100
AcDbEntity
  8
RACCORDO
100
AcDbLine
 62
7
  6
PHANTOM
 10
62.4029971509
 20
6.701051791
 11
62.4051019177
 21
6.9324708653
  0
LINE
  5
650
100
AcDbEntity
  8
ASSI
100
AcDbLine
 62
7
  6
CONTINUOUS
 10
62.4029971509
 20
6.701051791
 11
62.4051019177
 21
6.9324708653
  0
LINE
  5
651
100
AcDbEntity
  8
RACCORDO
100
AcDbLine
 62
7
  6
CONTINUOUS
 10
62.5887308076
 20
4.9163233687
 11
62.5881095663
 21
4.8588943127
  0
LINE
  5
652
100
AcDbEntity
  8
RACCORDO
100
AcDbLine
 62
7
  6
PHANTOM
 10
62.3902583844
 20
7.6414430318
 11
62.388061011
 21
7.4483008426
  0
LINE
  5
653
100
AcDbEntity
  8
ASSI
100
AcDbLine
 62
7
  6
CONTINUOUS
 10
62.3902583844
 20
7.6414430318
 11
62.388061011
 21
7.4483008426
  0
LINE
  5
654
100
AcDbEntity
  8
RACCORDO
100
AcDbLine
 62
7
  6
CONTINUOUS
 10
63.5014411348
 20
6.7351280179
 11
63.5047097265
 21
6.9944477707
  0
LINE
  5
655
100
AcDbEntity
  8
RACCORDO
100
AcDbLine
 62
7
  6
PHANTOM
 10
62.4051019177
 20
6.9324708653
 11
62.4070736936
 21
7.0668872078
  0
LINE
  5
656
100
AcDbEntity
  8
ASSI
100
AcDbLine
 62
7
  6
CONTINUOUS
 10
62.4051019177
 20
6.9324708653
 11
62.4070736936
 21
7.0668872078
  0
LWPOLYLINE
  5
657
100
AcDbEntity
  8
RACCORDO
100
AcDbPolyline
 62
7
  6
CONTINUOUS
 90
3
 70
0
 10
62.5881095663
 20
4.8588943127
 10
62.5872547098
 20
4.8042152109
 10
62.5867389223
 20
4.7778287541
  0
LINE
  5
658
100
AcDbEntity
  8
RACCORDO
100
AcDbLine
 62
253
  6
CONTINUOUS
 10
63.3953393524
 20
7.8809910497
 11
63.3896757383
 21
7.4960640018
  0
LINE
  5
659
100
AcDbEntity
  8
RACCORDO
100
AcDbLine
 62
253
  6
CONTINUOUS
 10
63.4953226537
 20
7.8088487718
 11
63.4896603789
 21
7.437091296
  0
LINE
  5
65A
100
AcDbEntity
  8
RACCORDO
100
AcDbLine
 62
7
  6
CONTINUOUS
 10
63.5047097265
 20
6.9944477707
 11
63.507638037
 21
7.1664547671
  0
LINE
  5
65B
100
AcDbEntity
  8
RACCORDO
100
AcDbLine
 62
7
  6
PHANTOM
 10
62.3959215255
 20
7.9746517935
 11
62.3902583844
 21
7.6414430318
  0
LINE
  5
65C
100
AcDbEntity
  8
ASSI
100
AcDbLine
 62
7
  6
CONTINUOUS
 10
62.3959215255
 20
7.9746517935
 11
62.3902583844
 21
7.6414430318
  0
LINE
  5
65D
100
AcDbEntity
  8
RACCORDO
100
AcDbLine
 62
7
  6
PHANTOM
 10
62.4097726792
 20
7.2046171923
 11
62.4070736936
 21
7.0668872078
  0
LINE
  5
65E
100
AcDbEntity
  8
ASSI
100
AcDbLine
 62
7
  6
CONTINUOUS
 10
62.4097726792
 20
7.2046171923
 11
62.4070736936
 21
7.0668872078
  0
LINE
  5
65F
100
AcDbEntity
  8
RACCORDO
100
AcDbLine
 62
253
  6
CONTINUOUS
 10
63.3998725378
 20
8.1105862174
 11
63.3953393524
 21
7.8809910497
  0
LINE
  5
660
100
AcDbEntity
  8
RACCORDO
100
AcDbLine
 62
253
  6
CONTINUOUS
 10
63.4998544749
 20
8.0306632424
 11
63.4953226537
 21
7.8088487718
  0
LINE
  5
661
100
AcDbEntity
  8
RACCORDO
100
AcDbLine
 62
7
  6
PHANTOM
 10
62.400185068
 20
8.1669770285
 11
62.3959215255
 21
7.9746517935
  0
LINE
  5
662
100
AcDbEntity
  8
ASSI
100
AcDbLine
 62
7
  6
CONTINUOUS
 10
62.400185068
 20
8.1669770285
 11
62.3959215255
 21
7.9746517935
  0
LINE
  5
663
100
AcDbEntity
  8
RACCORDO
100
AcDbLine
 62
7
  6
CONTINUOUS
 10
63.507638037
 20
7.1664547671
 11
63.5109216212
 21
7.3159005125
  0
LINE
  5
664
100
AcDbEntity
  8
RACCORDO
100
AcDbLine
 62
253
  6
CONTINUOUS
 10
63.4032573292
 20
8.2495132211
 11
63.3998725378
 21
8.1105862174
  0
LINE
  5
665
100
AcDbEntity
  8
ASSI
100
AcDbLine
 62
7
  6
CONTINUOUS
 10
62.5867389223
 20
4.7778287541
 11
62.5818130578
 21
4.5743956421
  0
LINE
  5
666
100
AcDbEntity
  8
RACCORDO
100
AcDbLine
 62
7
  6
PHANTOM
 10
62.4127224901
 20
7.3241707561
 11
62.4097726792
 21
7.2046171923
  0
LINE
  5
667
100
AcDbEntity
  8
ASSI
100
AcDbLine
 62
7
  6
CONTINUOUS
 10
62.4127224901
 20
7.3241707561
 11
62.4097726792
 21
7.2046171923
  0
LINE
  5
668
100
AcDbEntity
  8
RACCORDO
100
AcDbLine
 62
253
  6
CONTINUOUS
 10
63.5032410473
 20
8.1649654054
 11
63.4998544749
 21
8.0306632424
  0
LINE
  5
669
100
AcDbEntity
  8
RACCORDO
100
AcDbLine
 62
7
  6
CONTINUOUS
 10
63.5109216212
 20
7.3159005125
 11
63.5132830953
 21
7.4018423698
  0
LINE
  5
66A
100
AcDbEntity
  8
RACCORDO
100
AcDbLine
 62
253
  6
CONTINUOUS
 10
63.4068206286
 20
8.3712581572
 11
63.4032573292
 21
8.2495132211
  0
LINE
  5
66B
100
AcDbEntity
  8
RACCORDO
100
AcDbLine
 62
7
  6
PHANTOM
 10
62.4148108642
 20
7.3930501122
 11
62.4127224901
 21
7.3241707561
  0
LINE
  5
66C
100
AcDbEntity
  8
ASSI
100
AcDbLine
 62
7
  6
CONTINUOUS
 10
62.4148108642
 20
7.3930501122
 11
62.4127224901
 21
7.3241707561
  0
LINE
  5
66D
100
AcDbEntity
  8
RACCORDO
100
AcDbLine
 62
253
  6
CONTINUOUS
 10
63.5068068856
 20
8.2826660362
 11
63.5032410473
 21
8.1649654054
  0
LWPOLYLINE
  5
66E
100
AcDbEntity
  8
ASSI
100
AcDbPolyline
 62
7
  6
CONTINUOUS
 90
13
 70
0
 10
62.5818130578
 20
4.5743956421
 10
62.5760270292
 20
4.3917441241
 10
62.5728096661
 20
4.3081623715
 10
62.5694237317
 20
4.2310523936
 10
62.5658676462
 20
4.1605316445
 10
62.5621429893
 20
4.0964826701
 10
62.5582973959
 20
4.0397313014
 10
62.5543297545
 20
3.9903747932
 10
62.5502411765
 20
3.9483158907
 10
62.5460826312
 20
3.9140886606
 10
62.5418711082
 20
3.8878711252
 10
62.5375896178
 20
3.8694852622
 10
62.5332381601
 20
3.8589310717
  0
LWPOLYLINE
  5
66F
100
AcDbEntity
  8
RACCORDO
100
AcDbPolyline
 62
7
  6
CONTINUOUS
 90
12
 70
0
 10
63.5132830953
 20
7.4018423698
 10
63.5157627992
 20
7.4760617259
 10
63.5170402149
 20
7.5085973645
 10
63.5183405818
 20
7.5380040327
 10
63.5196637724
 20
7.5642981005
 10
63.521002748
 20
7.5873389564
 10
63.5223575642
 20
7.6071092265
 10
63.5237281653
 20
7.6236262846
 10
63.5251073452
 20
7.6368016407
 10
63.5264927021
 20
7.6466057981
 10
63.5278866378
 20
7.6530682535
 10
63.5292891524
 20
7.6561890068
  0
LINE
  5
670
100
AcDbEntity
  8
RACCORDO
100
AcDbLine
 62
253
  6
CONTINUOUS
 10
63.409368552
 20
8.4447634983
 11
63.4068206286
 21
8.3712581572
  0
LINE
  5
671
100
AcDbEntity
  8
RACCORDO
100
AcDbLine
 62
253
  6
CONTINUOUS
 10
63.5093545918
 20
8.3536515564
 11
63.5068068856
 21
8.2826660362
  0
LWPOLYLINE
  5
672
100
AcDbEntity
  8
RACCORDO
100
AcDbPolyline
 62
7
  6
CONTINUOUS
 90
10
 70
0
 10
62.5994872094
 20
3.5821000715
 10
62.5949570057
 20
3.4699759693
 10
62.5902372953
 20
3.3661007605
 10
62.5853280784
 20
3.270474445
 10
62.5802097698
 20
3.1827968596
 10
62.5749019546
 20
3.1033681675
 10
62.5694633877
 20
3.0330888593
 10
62.5639136541
 20
2.9722590983
 10
62.5582331689
 20
2.9205787213
 10
62.5524219319
 20
2.878047728
  0
LWPOLYLINE
  5
673
100
AcDbEntity
  8
RACCORDO
100
AcDbPolyline
 62
7
  6
PHANTOM
 90
7
 70
0
 10
62.4173581617
 20
8.6180971222
 10
62.4147373033
 20
8.5762251686
 10
62.4121703589
 20
8.5267763405
 10
62.4096573285
 20
8.4697506378
 10
62.4071904275
 20
8.4049195519
 10
62.4047774405
 20
8.3325115913
 10
62.400185068
 20
8.1669770285
  0
LWPOLYLINE
  5
674
100
AcDbEntity
  8
ASSI
100
AcDbPolyline
 62
7
  6
CONTINUOUS
 90
7
 70
0
 10
62.4173581617
 20
8.6180971222
 10
62.4147373033
 20
8.5762251686
 10
62.4121703589
 20
8.5267763405
 10
62.4096573285
 20
8.4697506378
 10
62.4071904275
 20
8.4049195519
 10
62.4047774405
 20
8.3325115913
 10
62.400185068
 20
8.1669770285
  0
LWPOLYLINE
  5
675
100
AcDbEntity
  8
RACCORDO
100
AcDbPolyline
 62
253
  6
CONTINUOUS
 90
7
 70
0
 10
63.4191933788
 20
8.6383366379
 10
63.417517479
 20
8.6143726398
 10
63.4160989905
 20
8.5915108026
 10
63.4147057799
 20
8.5664087494
 10
63.4133399482
 20
8.5392158646
 10
63.4119993945
 20
8.5099665871
 10
63.409368552
 20
8.4447634983
  0
LWPOLYLINE
  5
676
100
AcDbEntity
  8
RACCORDO
100
AcDbPolyline
 62
253
  6
CONTINUOUS
 90
7
 70
0
 10
63.5189460932
 20
8.5373351234
 10
63.5175031636
 20
8.5173713505
 10
63.5160852464
 20
8.495322945
 10
63.5146923417
 20
8.4711899067
 10
63.513326423
 20
8.4449703231
 10
63.5119855167
 20
8.4166661067
 10
63.5093545918
 20
8.3536515564
  0
LINE
  5
677
100
AcDbEntity
  8
RACCORDO
100
AcDbLine
 62
253
  6
CONTINUOUS
 10
63.5318343533
 20
2.9426392655
 11
63.5333486451
 21
2.9600047723
  0
LWPOLYLINE
  5
678
100
AcDbEntity
  8
RACCORDO
100
AcDbPolyline
 62
253
  6
CONTINUOUS
 90
10
 70
0
 10
63.5203528574
 20
2.965978253
 10
63.5188291643
 20
2.9486194116
 10
63.5143149385
 20
2.9317878057
 10
63.5069472892
 20
2.9159946575
 10
63.4969499922
 20
2.9017196481
 10
63.4846266928
 20
2.8893963487
 10
63.4703516834
 20
2.8793990517
 10
63.4545585352
 20
2.8720314024
 10
63.4377269293
 20
2.8675171765
 10
63.4203680879
 20
2.8659934835
  0
LWPOLYLINE
  5
679
100
AcDbEntity
  8
RACCORDO
100
AcDbPolyline
 62
253
  6
CONTINUOUS
 90
10
 70
0
 10
63.5189460932
 20
2.9756216486
 10
63.5173679945
 20
2.9587190843
 10
63.5128144217
 20
2.9423276498
 10
63.505423059
 20
2.9269429646
 10
63.4954173954
 20
2.9130302082
 10
63.4830999673
 20
2.9010100535
 10
63.4688432106
 20
2.8912459483
 10
63.4530782
 20
2.8840331249
 10
63.4362816143
 20
2.879589674
 10
63.4189613237
 20
2.8780499499
  0
LWPOLYLINE
  5
67A
100
AcDbEntity
  8
RACCORDO
100
AcDbPolyline
 62
7
  6
CONTINUOUS
 90
10
 70
0
 10
62.5524219319
 20
2.878047728
 10
62.5520358807
 20
2.8756984281
 10
62.5516484695
 20
2.8736010942
 10
62.5512596981
 20
2.8717557263
 10
62.5508693651
 20
2.8701616326
 10
62.5504776719
 20
2.8688195049
 10
62.5500852233
 20
2.8677314185
 10
62.5496922209
 20
2.8668980654
 10
62.549298463
 20
2.8663187538
 10
62.5489039497
 20
2.8659934835
  0
LWPOLYLINE
  5
67B
100
AcDbEntity
  8
RACCORDO
100
AcDbPolyline
 62
253
  6
CONTINUOUS
 90
10
 70
0
 10
63.4896603808
 20
4.0758628333
 10
63.4879259023
 20
4.0657130428
 10
63.4832593829
 20
4.055866124
 10
63.4758000642
 20
4.0466159372
 10
63.4657564173
 20
4.0382286578
 10
63.453436572
 20
4.0309672934
 10
63.4392657866
 20
4.0250686468
 10
63.4237043032
 20
4.0206963736
 10
63.4072067513
 20
4.0179530148
 10
63.390262991
 20
4.0168998207
  0
LWPOLYLINE
  5
67C
100
AcDbEntity
  8
RACCORDO
100
AcDbPolyline
 62
7
  6
CONTINUOUS
 90
3
 70
0
 10
63.5289361805
 20
2.9304184937
 10
63.5326984109
 20
2.9477465499
 10
63.5334843704
 20
2.9602739662
  0
LINE
  5
67D
100
AcDbEntity
  8
RACCORDO
100
AcDbLine
 62
253
  6
CONTINUOUS
 10
63.5273269282
 20
2.9258016052
 11
63.5318343533
 21
2.9426392655
  0
LINE
  5
67E
100
AcDbEntity
  8
RACCORDO
100
AcDbLine
 62
253
  6
CONTINUOUS
 10
63.5199633788
 20
2.910003593
 11
63.5273269282
 21
2.9258016052
  0
LINE
  5
67F
100
AcDbEntity
  8
RACCORDO
100
AcDbLine
 62
253
  6
CONTINUOUS
 10
63.5335009331
 20
2.9602781861
 11
63.5333486451
 21
2.9600047723
  0
LINE
  5
680
100
AcDbEntity
  8
RACCORDO
100
AcDbLine
 62
253
  6
CONTINUOUS
 10
63.5174584806
 20
2.9064255733
 11
63.5199633788
 21
2.910003593
  0
LWPOLYLINE
  5
681
100
AcDbEntity
  8
RACCORDO
100
AcDbPolyline
 62
7
  6
CONTINUOUS
 90
3
 70
0
 10
63.5212272445
 20
8.6007352267
 10
63.5119830225
 20
8.6147458611
 10
63.5038232205
 20
8.6239038405
  0
LINE
  5
682
100
AcDbEntity
  8
RACCORDO
100
AcDbLine
 62
253
  6
CONTINUOUS
 10
63.5333486451
 20
8.5529519997
 11
63.5335009447
 21
8.5526771645
  0
LINE
  5
683
100
AcDbEntity
  8
RACCORDO
100
AcDbLine
 62
253
  6
CONTINUOUS
 10
63.5199625053
 20
8.6029546924
 11
63.5273264743
 21
8.587156415
  0
LWPOLYLINE
  5
684
100
AcDbEntity
  8
ASSI
100
AcDbPolyline
 62
7
  6
CONTINUOUS
 90
12
 70
0
 10
62.5332381601
 20
7.6540257004
 10
62.5375896132
 20
7.6434715342
 10
62.5418711
 20
7.625085697
 10
62.5460826205
 20
7.5988681888
 10
62.5502411644
 20
7.5646409908
 10
62.5543297419
 20
7.5225821217
 10
62.5582973836
 20
7.4732256383
 10
62.5621429778
 20
7.4164742828
 10
62.5658676361
 20
7.3524253129
 10
62.5694237232
 20
7.2819045584
 10
62.5728096593
 20
7.2047945624
 10
62.5760270243
 20
7.1212127817
  0
LINE
  5
685
100
AcDbEntity
  8
RACCORDO
100
AcDbLine
 62
253
  6
CONTINUOUS
 10
63.5273264743
 20
8.587156415
 11
63.531834224
 21
8.5703182409
  0
LWPOLYLINE
  5
686
100
AcDbEntity
  8
RACCORDO
100
AcDbPolyline
 62
7
  6
CONTINUOUS
 90
10
 70
0
 10
62.5524219319
 20
8.634909044
 10
62.5582332063
 20
8.5923776117
 10
62.5639137148
 20
8.5406969581
 10
62.5694634573
 20
8.4798670833
 10
62.5749020123
 20
8.4095878942
 10
62.5802098013
 20
8.3301594838
 10
62.5853280891
 20
8.2424821313
 10
62.5902372971
 20
8.1468559298
 10
62.5949570039
 20
8.0429807862
 10
62.5994872094
 20
7.9308567005
  0
LINE
  5
687
100
AcDbEntity
  8
RACCORDO
100
AcDbLine
 62
7
  6
CONTINUOUS
 10
-32.0845733442
 20
2.5479500472
 11
-32.0845733442
 21
8.9650067248
  0
LINE
  5
688
100
AcDbEntity
  8
ASSI
100
AcDbLine
 62
7
  6
CONTINUOUS
 10
-32.0845733442
 20
2.5479500472
 11
-32.0845733442
 21
8.9650067248
  0
LWPOLYLINE
  5
689
100
AcDbEntity
  8
RACCORDO
100
AcDbPolyline
 62
253
  6
CONTINUOUS
 90
5
 70
0
 10
-31.5889366119
 20
2.0479690857
 10
-31.5892996692
 20
2.0502553029
 10
-31.5896276165
 20
2.0570899366
 10
-31.5899174619
 20
2.06842097
 10
-31.5901662547
 20
2.0841621646
  0
LWPOLYLINE
  5
68A
100
AcDbEntity
  8
ASSI
100
AcDbPolyline
 62
253
  6
CONTINUOUS
 90
5
 70
0
 10
-31.5889366119
 20
2.0479690857
 10
-31.5892996692
 20
2.0502553029
 10
-31.5896276165
 20
2.0570899366
 10
-31.5899174619
 20
2.06842097
 10
-31.5901662547
 20
2.0841621646
  0
LINE
  5
68B
100
AcDbEntity
  8
RACCORDO
100
AcDbLine
 62
253
  6
CONTINUOUS
 10
-31.5901662547
 20
2.0841621646
 11
-31.5905338509
 21
2.1283632465
  0
LINE
  5
68C
100
AcDbEntity
  8
ASSI
100
AcDbLine
 62
253
  6
CONTINUOUS
 10
-31.5901662547
 20
2.0841621646
 11
-31.5905338509
 21
2.1283632465
  0
LINE
  5
68D
100
AcDbEntity
  8
RACCORDO
100
AcDbLine
 62
253
  6
CONTINUOUS
 10
-31.5889366119
 20
8.8650105325
 11
-31.59065038
 21
9.209131764
  0
LINE
  5
68E
100
AcDbEntity
  8
ASSI
100
AcDbLine
 62
253
  6
CONTINUOUS
 10
-31.5889366119
 20
8.8650105325
 11
-31.59065038
 21
9.209131764
  0
LINE
  5
68F
100
AcDbEntity
  8
RACCORDO
100
AcDbLine
 62
253
  6
CONTINUOUS
 10
-31.5905338509
 20
2.1283632465
 11
-31.5907437396
 21
2.2237114386
  0
LINE
  5
690
100
AcDbEntity
  8
ASSI
100
AcDbLine
 62
253
  6
CONTINUOUS
 10
-31.5905338509
 20
2.1283632465
 11
-31.5907437396
 21
2.2237114386
  0
LINE
  5
691
100
AcDbEntity
  8
RACCORDO
100
AcDbLine
 62
253
  6
CONTINUOUS
 10
-31.5889366119
 20
2.6479462395
 11
-31.5889366119
 21
8.8650105325
  0
LINE
  5
692
100
AcDbEntity
  8
ASSI
100
AcDbLine
 62
253
  6
CONTINUOUS
 10
-31.5889366119
 20
2.6479462395
 11
-31.5889366119
 21
8.8650105325
  0
LINE
  5
693
100
AcDbEntity
  8
RACCORDO
100
AcDbLine
 62
253
  6
CONTINUOUS
 10
-31.59065038
 20
9.209131764
 11
-31.590650578
 21
9.3564703728
  0
LINE
  5
694
100
AcDbEntity
  8
ASSI
100
AcDbLine
 62
253
  6
CONTINUOUS
 10
-31.59065038
 20
9.209131764
 11
-31.590650578
 21
9.3564703728
  0
LINE
  5
695
100
AcDbEntity
  8
RACCORDO
100
AcDbLine
 62
253
  6
CONTINUOUS
 10
-31.5907437396
 20
2.2237114386
 11
-31.5901663159
 21
2.4427500168
  0
LINE
  5
696
100
AcDbEntity
  8
ASSI
100
AcDbLine
 62
253
  6
CONTINUOUS
 10
-31.5907437396
 20
2.2237114386
 11
-31.5901663159
 21
2.4427500168
  0
LWPOLYLINE
  5
697
100
AcDbEntity
  8
RACCORDO
100
AcDbPolyline
 62
253
  6
CONTINUOUS
 90
7
 70
0
 10
-31.590650578
 20
9.3564703728
 10
-31.5903722136
 20
9.4087633857
 10
-31.5901663159
 20
9.4287948583
 10
-31.5899174377
 20
9.4445359594
 10
-31.5896275682
 20
9.4558669137
 10
-31.5892996288
 20
9.4627014909
 10
-31.5889366119
 20
9.4649876863
  0
LWPOLYLINE
  5
698
100
AcDbEntity
  8
ASSI
100
AcDbPolyline
 62
253
  6
CONTINUOUS
 90
7
 70
0
 10
-31.590650578
 20
9.3564703728
 10
-31.5903722136
 20
9.4087633857
 10
-31.5901663159
 20
9.4287948583
 10
-31.5899174377
 20
9.4445359594
 10
-31.5896275682
 20
9.4558669137
 10
-31.5892996288
 20
9.4627014909
 10
-31.5889366119
 20
9.4649876863
  0
LINE
  5
699
100
AcDbEntity
  8
RACCORDO
100
AcDbLine
 62
253
  6
CONTINUOUS
 10
-31.5901663159
 20
2.4427500168
 11
-31.5889366119
 21
2.6479462395
  0
LINE
  5
69A
100
AcDbEntity
  8
ASSI
100
AcDbLine
 62
253
  6
CONTINUOUS
 10
-31.5901663159
 20
2.4427500168
 11
-31.5889366119
 21
2.6479462395
  0
LINE
  5
69B
100
AcDbEntity
  8
ASSI
100
AcDbLine
 62
7
  6
CONTINUOUS
 10
-31.0345733442
 20
5.256478386
 11
-31.0345733442
 21
6.256478386
  0
LINE
  5
69C
100
AcDbEntity
  8
RACCORDO
100
AcDbLine
 62
7
  6
CONTINUOUS
 10
-30.8345733442
 20
4.2489970428
 11
-30.8345733442
 21
7.2639597292
  0
LINE
  5
69D
100
AcDbEntity
  8
RACCORDO
100
AcDbLine
 62
253
  6
CONTINUOUS
 10
-30.6380638254
 20
4.0758612649
 11
-30.6380638254
 21
7.437091296
  0
LWPOLYLINE
  5
69E
100
AcDbEntity
  8
RACCORDO
100
AcDbPolyline
 62
253
  6
CONTINUOUS
 90
16
 70
0
 10
-30.8345733442
 20
7.2639597292
 10
-30.8343707006
 20
7.2684708
 10
-30.8337840326
 20
7.2728436899
 10
-30.8328450856
 20
7.2770783987
 10
-30.8315886877
 20
7.281169405
 10
-30.8300438775
 20
7.2851222303
 10
-30.8282258884
 20
7.2889534394
 10
-30.8261578305
 20
7.2926613166
 10
-30.8238618456
 20
7.2962475775
 10
-30.8213372569
 20
7.2997339333
 10
-30.8185988712
 20
7.3031209623
 10
-30.8156617499
 20
7.306408086
 10
-30.812512506
 20
7.3096152807
 10
-30.8091498699
 20
7.3127492048
 10
-30.8055914137
 20
7.3158031998
 10
-30.8018460714
 20
7.3187772656
  0
LINE
  5
69F
100
AcDbEntity
  8
RACCORDO
100
AcDbLine
 62
7
  6
CONTINUOUS
 10
-30.0345733442
 20
5.0353681309
 11
-30.0345733442
 21
6.4775886411
  0
LINE
  5
6A0
100
AcDbEntity
  8
RACCORDO
100
AcDbLine
 62
7
  6
CONTINUOUS
 10
-29.9345733442
 20
5.1543986571
 11
-29.9345733442
 21
6.358558115
  0
LINE
  5
6A1
100
AcDbEntity
  8
ASSI
100
AcDbLine
 62
7
  6
CONTINUOUS
 10
-29.9345733442
 20
5.1543986571
 11
-29.9345733442
 21
6.358558115
  0
LWPOLYLINE
  5
6A2
100
AcDbEntity
  8
RACCORDO
100
AcDbPolyline
 62
253
  6
CONTINUOUS
 90
10
 70
0
 10
-30.8018460625
 20
7.3735947301
 10
-30.8046258719
 20
7.3686403318
 10
-30.8067299934
 20
7.3632960554
 10
-30.8081419749
 20
7.3576036878
 10
-30.8088507761
 20
7.3516077376
 10
-30.8088508548
 20
7.3453550871
 10
-30.8081422105
 20
7.3388946259
 10
-30.806730384
 20
7.3322768682
 10
-30.8046264143
 20
7.3255535583
 10
-30.8018467525
 20
7.3187772656
  0
LWPOLYLINE
  5
6A3
100
AcDbEntity
  8
RACCORDO
100
AcDbPolyline
 62
253
  6
CONTINUOUS
 90
16
 70
0
 10
-30.6380638254
 20
4.0758612649
 10
-30.5551296743
 20
3.9678653686
 10
-30.4675910437
 20
3.864377923
 10
-30.3754479337
 20
3.765398928
 10
-30.2784546234
 20
3.6707169849
 10
-30.1768568337
 20
3.5805434925
 10
-30.0713917269
 20
3.4955126471
 10
-29.9621374748
 20
3.4157102456
 10
-29.8490159057
 20
3.3410504911
 10
-29.7325296664
 20
3.2719101887
 10
-29.6129823458
 20
3.2083448969
 10
-29.4900703552
 20
3.1502990572
 10
-29.363385575
 20
3.0979827996
 10
-29.2327919653
 20
3.0514661672
 10
-29.0984255661
 20
3.0106791169
 10
-28.9602863773
 20
2.9756216486
  0
LINE
  5
6A4
100
AcDbEntity
  8
RACCORDO
100
AcDbLine
 62
7
  6
CONTINUOUS
 10
-29.6845733442
 20
4.4929608293
 11
-29.6845733442
 21
7.0199959427
  0
LINE
  5
6A5
100
AcDbEntity
  8
ASSI
100
AcDbLine
 62
7
  6
CONTINUOUS
 10
-29.6845733442
 20
4.4929608293
 11
-29.6845733442
 21
7.0199959427
  0
LWPOLYLINE
  5
6A6
100
AcDbEntity
  8
RACCORDO
100
AcDbPolyline
 62
253
  6
CONTINUOUS
 90
10
 70
0
 10
-30.8018463989
 20
4.1941795352
 10
-30.8046261184
 20
4.1874032127
 10
-30.8067301423
 20
4.1806798778
 10
-30.808142019
 20
4.1740621011
 10
-30.808850709
 20
4.1676016274
 10
-30.8088506709
 20
4.1613489718
 10
-30.8081419051
 20
4.1553530242
 10
-30.8067299533
 20
4.1496606675
 10
-30.8046258558
 20
4.1443164106
 10
-30.8018460645
 20
4.1393620406
  0
LINE
  5
6A7
100
AcDbEntity
  8
RACCORDO
100
AcDbLine
 62
253
  6
CONTINUOUS
 10
-28.8796929128
 20
8.546978519
 11
-28.8801843185
 21
8.5811690995
  0
LWPOLYLINE
  5
6A8
100
AcDbEntity
  8
RACCORDO
100
AcDbPolyline
 62
253
  6
CONTINUOUS
 90
7
 70
0
 10
-28.8801843185
 20
8.5811690995
 10
-28.8804060528
 20
8.6112372713
 10
-28.880406052
 20
8.6235605412
 10
-28.8803313836
 20
8.6335577998
 10
-28.8801843158
 20
8.6409254111
 10
-28.8799693154
 20
8.6454396074
 10
-28.8796929128
 20
8.6469632885
  0
LWPOLYLINE
  5
6A9
100
AcDbEntity
  8
RACCORDO
100
AcDbPolyline
 62
253
  6
CONTINUOUS
 90
6
 70
0
 10
-28.8804060524
 20
2.9017196481
 10
-28.8804060524
 20
2.8893963487
 10
-28.8803313847
 20
2.8793990517
 10
-28.880184317
 20
2.8720314024
 10
-28.8799693164
 20
2.8675171765
 10
-28.8796929128
 20
2.8659934835
  0
LINE
  5
6AA
100
AcDbEntity
  8
RACCORDO
100
AcDbLine
 62
253
  6
CONTINUOUS
 10
-28.8801843171
 20
2.9317878057
 11
-28.8804060524
 21
2.9017196481
  0
LINE
  5
6AB
100
AcDbEntity
  8
RACCORDO
100
AcDbLine
 62
253
  6
CONTINUOUS
 10
-28.8796929128
 20
2.965978253
 11
-28.8801843171
 21
2.9317878057
  0
LWPOLYLINE
  5
6AC
100
AcDbEntity
  8
RACCORDO
100
AcDbPolyline
 62
7
  6
CONTINUOUS
 90
7
 70
0
 10
-28.3345733442
 20
8.656478386
 10
-28.3348699173
 20
8.6549620443
 10
-28.3351645683
 20
8.6504496574
 10
-28.3354459454
 20
8.6430795129
 10
-28.3356954066
 20
8.6330765852
 10
-28.3359063973
 20
8.6207459144
 10
-28.3362242077
 20
8.5906631752
  0
LWPOLYLINE
  5
6AD
100
AcDbEntity
  8
RACCORDO
100
AcDbPolyline
 62
253
  6
CONTINUOUS
 90
7
 70
0
 10
-28.131674254
 20
8.6529367692
 10
-28.1320037821
 20
8.6514226392
 10
-28.1323763439
 20
8.6469156025
 10
-28.1327806175
 20
8.6395525173
 10
-28.1332043169
 20
8.6295570428
 10
-28.1336345634
 20
8.6172329013
 10
-28.1344625759
 20
8.587156415
  0
LWPOLYLINE
  5
6AE
100
AcDbEntity
  8
RACCORDO
100
AcDbPolyline
 62
253
  6
CONTINUOUS
 90
3
 70
0
 10
-30.6380638254
 20
4.0758627574
 10
-30.6711446155
 20
4.0987529623
 10
-30.6814089271
 20
4.1059452686
  0
LINE
  5
6AF
100
AcDbEntity
  8
RACCORDO
100
AcDbLine
 62
253
  6
CONTINUOUS
 10
-30.6814089271
 20
4.1059452686
 11
-30.7007817108
 21
4.1196767768
  0
LINE
  5
6B0
100
AcDbEntity
  8
RACCORDO
100
AcDbLine
 62
253
  6
CONTINUOUS
 10
-30.7007817108
 20
4.1196767768
 11
-30.7187276899
 21
4.1325457529
  0
LINE
  5
6B1
100
AcDbEntity
  8
RACCORDO
100
AcDbLine
 62
253
  6
CONTINUOUS
 10
-30.7187276899
 20
4.1325457529
 11
-30.735292605
 21
4.1445519253
  0
LINE
  5
6B2
100
AcDbEntity
  8
RACCORDO
100
AcDbLine
 62
253
  6
CONTINUOUS
 10
-30.735292605
 20
4.1445519253
 11
-30.7575555477
 21
4.1609062171
  0
LINE
  5
6B3
100
AcDbEntity
  8
RACCORDO
100
AcDbLine
 62
253
  6
CONTINUOUS
 10
-30.7575555477
 20
4.1609062171
 11
-30.7767215788
 21
4.1751791617
  0
LINE
  5
6B4
100
AcDbEntity
  8
RACCORDO
100
AcDbLine
 62
253
  6
CONTINUOUS
 10
-30.7767215788
 20
4.1751791617
 11
-30.7928059592
 21
4.1873041574
  0
LINE
  5
6B5
100
AcDbEntity
  8
RACCORDO
100
AcDbLine
 62
253
  6
CONTINUOUS
 10
-30.7928059592
 20
4.1873041574
 11
-30.8018460714
 21
4.1941795352
  0
LWPOLYLINE
  5
6B6
100
AcDbEntity
  8
RACCORDO
100
AcDbPolyline
 62
253
  6
CONTINUOUS
 90
16
 70
0
 10
-30.8018460714
 20
4.1941795352
 10
-30.8055737869
 20
4.1971390092
 10
-30.8091177018
 20
4.2001788587
 10
-30.8124687715
 20
4.2032990838
 10
-30.8156088606
 20
4.2064924263
 10
-30.8185396011
 20
4.2097661443
 10
-30.8212753661
 20
4.2131420126
 10
-30.8238006179
 20
4.2166193974
 10
-30.8261000883
 20
4.2201989324
 10
-30.8281748048
 20
4.2239042931
 10
-30.8300016076
 20
4.2277370419
 10
-30.8315565413
 20
4.2316956164
 10
-30.8328239934
 20
4.235799005
 10
-30.8337733615
 20
4.2400535369
 10
-30.8343677016
 20
4.2444528829
 10
-30.8345733442
 20
4.2489970428
  0
LWPOLYLINE
  5
6B7
100
AcDbEntity
  8
RACCORDO
100
AcDbPolyline
 62
253
  6
CONTINUOUS
 90
6
 70
0
 10
-28.131674254
 20
2.8600200028
 10
-28.1320038023
 20
2.8615342944
 10
-28.1323763824
 20
2.8660417189
 10
-28.1327806694
 20
2.8734052677
 10
-28.1332043746
 20
2.8834011166
 10
-28.1336346188
 20
2.8957254293
  0
LWPOLYLINE
  5
6B8
100
AcDbEntity
  8
RACCORDO
100
AcDbPolyline
 62
7
  6
CONTINUOUS
 90
7
 70
0
 10
-28.3345733442
 20
2.856478386
 10
-28.3348828852
 20
2.8580017535
 10
-28.3351759827
 20
2.8625151382
 10
-28.3354460953
 20
2.8698822199
 10
-28.3356950485
 20
2.8798801206
 10
-28.3359142489
 20
2.8922057516
 10
-28.3360847561
 20
2.9064849384
  0
LINE
  5
6B9
100
AcDbEntity
  8
RACCORDO
100
AcDbLine
 62
253
  6
CONTINUOUS
 10
-28.1336346188
 20
2.8957254293
 11
-28.1344626097
 21
2.9258016052
  0
LINE
  5
6BA
100
AcDbEntity
  8
RACCORDO
100
AcDbLine
 62
253
  6
CONTINUOUS
 10
-28.1344626097
 20
2.9258016052
 11
-28.1351647353
 21
2.9600047723
  0
LWPOLYLINE
  5
6BB
100
AcDbEntity
  8
RACCORDO
100
AcDbPolyline
 62
7
  6
CONTINUOUS
 90
3
 70
0
 10
-28.3360847561
 20
2.9064849384
 10
-28.3362782841
 20
2.9391242951
 10
-28.3363185848
 20
2.9564936188
  0
LINE
  5
6BC
100
AcDbEntity
  8
ASSI
100
AcDbLine
 62
7
  6
CONTINUOUS
 10
-28.4310833945
 20
7.6540257004
 11
-28.4310833945
 21
3.8589310717
  0
LINE
  5
6BD
100
AcDbEntity
  8
RACCORDO
100
AcDbLine
 62
7
  6
CONTINUOUS
 10
-28.3345733442
 20
1.9540972318
 11
-28.3345733442
 21
2.856478386
  0
LINE
  5
6BE
100
AcDbEntity
  8
RACCORDO
100
AcDbLine
 62
7
  6
CONTINUOUS
 10
-28.3345733442
 20
8.656478386
 11
-28.3345733442
 21
9.5588595403
  0
LINE
  5
6BF
100
AcDbEntity
  8
RACCORDO
100
AcDbLine
 62
253
  6
CONTINUOUS
 10
-28.1351647353
 20
2.9600047723
 11
-28.1351647353
 21
3.8527082725
  0
LINE
  5
6C0
100
AcDbEntity
  8
RACCORDO
100
AcDbLine
 62
253
  6
CONTINUOUS
 10
-28.1351647353
 20
7.6602484995
 11
-28.1351647353
 21
8.5529519997
  0
LINE
  5
6C1
100
AcDbEntity
  8
RACCORDO
100
AcDbLine
 62
7
  6
CONTINUOUS
 10
-28.3362242077
 20
8.5906631752
 11
-28.3363185848
 21
8.5564631532
  0
LINE
  5
6C2
100
AcDbEntity
  8
RACCORDO
100
AcDbLine
 62
253
  6
CONTINUOUS
 10
-28.1344625759
 20
8.587156415
 11
-28.1351647363
 21
8.5529519997
  0
LWPOLYLINE
  5
6C3
100
AcDbEntity
  8
RACCORDO
100
AcDbPolyline
 62
253
  6
CONTINUOUS
 90
6
 70
0
 10
-28.9739199304
 20
2.9130302082
 10
-28.9764020074
 20
2.9010100535
 10
-28.9783440218
 20
2.8912459483
 10
-28.9796872537
 20
2.8840331249
 10
-28.9803910884
 20
2.879589674
 10
-28.9804342446
 20
2.8780499499
  0
LINE
  5
6C4
100
AcDbEntity
  8
RACCORDO
100
AcDbLine
 62
253
  6
CONTINUOUS
 10
-28.9676498457
 20
2.9423276498
 11
-28.9739199304
 21
2.9130302082
  0
LINE
  5
6C5
100
AcDbEntity
  8
RACCORDO
100
AcDbLine
 62
253
  6
CONTINUOUS
 10
-28.9602863773
 20
2.9756216486
 11
-28.9676498457
 21
2.9423276498
  0
LINE
  5
6C6
100
AcDbEntity
  8
RACCORDO
100
AcDbLine
 62
253
  6
CONTINUOUS
 10
-30.8018460714
 20
7.3187772656
 11
-30.7828622548
 21
7.3331624334
  0
LINE
  5
6C7
100
AcDbEntity
  8
RACCORDO
100
AcDbLine
 62
253
  6
CONTINUOUS
 10
-30.7828622548
 20
7.3331624334
 11
-30.7650112392
 21
7.3465251111
  0
LINE
  5
6C8
100
AcDbEntity
  8
RACCORDO
100
AcDbLine
 62
253
  6
CONTINUOUS
 10
-30.7650112392
 20
7.3465251111
 11
-30.75130041
 21
7.3566764302
  0
LINE
  5
6C9
100
AcDbEntity
  8
RACCORDO
100
AcDbLine
 62
253
  6
CONTINUOUS
 10
-30.75130041
 20
7.3566764302
 11
-30.7361224564
 21
7.3678090316
  0
LINE
  5
6CA
100
AcDbEntity
  8
RACCORDO
100
AcDbLine
 62
253
  6
CONTINUOUS
 10
-30.7361224564
 20
7.3678090316
 11
-30.7194640019
 21
7.3798869405
  0
LINE
  5
6CB
100
AcDbEntity
  8
RACCORDO
100
AcDbLine
 62
253
  6
CONTINUOUS
 10
-30.7194640019
 20
7.3798869405
 11
-30.7013397089
 21
7.3928842445
  0
LINE
  5
6CC
100
AcDbEntity
  8
RACCORDO
100
AcDbLine
 62
253
  6
CONTINUOUS
 10
-30.7013397089
 20
7.3928842445
 11
-30.6817831752
 21
7.4067451056
  0
LINE
  5
6CD
100
AcDbEntity
  8
RACCORDO
100
AcDbLine
 62
253
  6
CONTINUOUS
 10
-30.6817831752
 20
7.4067451056
 11
-30.6606606296
 21
7.4214779131
  0
LINE
  5
6CE
100
AcDbEntity
  8
RACCORDO
100
AcDbLine
 62
253
  6
CONTINUOUS
 10
-30.6606606296
 20
7.4214779131
 11
-30.6380810192
 21
7.4370822747
  0
LINE
  5
6CF
100
AcDbEntity
  8
RACCORDO
100
AcDbLine
 62
253
  6
CONTINUOUS
 10
-28.9602863773
 20
8.5373351234
 11
-28.9676499352
 21
8.5706295049
  0
LWPOLYLINE
  5
6D0
100
AcDbEntity
  8
RACCORDO
100
AcDbPolyline
 62
253
  6
CONTINUOUS
 90
7
 70
0
 10
-28.9676499352
 20
8.5706295049
 10
-28.973920101
 20
8.5999273035
 10
-28.9764022107
 20
8.6119476048
 10
-28.9783442511
 20
8.6217118293
 10
-28.9796875017
 20
8.6289247406
 10
-28.9803913472
 20
8.6333682449
 10
-28.9804345061
 20
8.6349079874
  0
LINE
  5
6D1
100
AcDbEntity
  8
RACCORDO
100
AcDbLine
 62
253
  6
CONTINUOUS
 10
-27.6176933947
 20
2.9681340516
 11
-27.6177123289
 21
3.8436761072
  0
LINE
  5
6D2
100
AcDbEntity
  8
RACCORDO
100
AcDbLine
 62
253
  6
CONTINUOUS
 10
-27.6177123289
 20
7.6692806649
 11
-27.6177386324
 21
8.54482351
  0
LWPOLYLINE
  5
6D3
100
AcDbEntity
  8
RACCORDO
100
AcDbPolyline
 62
253
  6
CONTINUOUS
 90
7
 70
0
 10
-27.6177123289
 20
2.9681337211
 10
-27.6180653364
 20
2.9533986715
 10
-27.6195024523
 20
2.9389853813
 10
-27.6219922954
 20
2.9252085839
 10
-27.6254804965
 20
2.9123691142
 10
-27.6298908863
 20
2.9007473392
 10
-27.6351271579
 20
2.8905970359
  0
LWPOLYLINE
  5
6D4
100
AcDbEntity
  8
RACCORDO
100
AcDbPolyline
 62
253
  6
CONTINUOUS
 90
7
 70
0
 10
-28.9602863773
 20
2.9756216486
 10
-28.9470460258
 20
2.9728819952
 10
-28.9337289173
 20
2.9705953101
 10
-28.9203350518
 20
2.9687615933
 10
-28.9068644292
 20
2.9673808448
 10
-28.8933170495
 20
2.9664530648
 10
-28.8796929128
 20
2.965978253
  0
LWPOLYLINE
  5
6D5
100
AcDbEntity
  8
RACCORDO
100
AcDbPolyline
 62
253
  6
CONTINUOUS
 90
6
 70
0
 10
-30.7170800936
 20
7.4960619922
 10
-30.7159794537
 20
7.4950390635
 10
-30.7125015041
 20
7.4922868834
 10
-30.7067500406
 20
7.4878875884
 10
-30.6988967266
 20
7.4819724841
 10
-30.677877616
 20
7.4663408155
  0
LINE
  5
6D6
100
AcDbEntity
  8
RACCORDO
100
AcDbLine
 62
253
  6
CONTINUOUS
 10
-26.2477492553
 20
9.5013572498
 11
-26.2477492553
 21
9.4859860373
  0
LINE
  5
6D7
100
AcDbEntity
  8
ASSI
100
AcDbLine
 62
253
  6
CONTINUOUS
 10
-26.2477492553
 20
9.5013572498
 11
-26.2477492553
 21
9.4859860373
  0
LINE
  5
6D8
100
AcDbEntity
  8
RACCORDO
100
AcDbLine
 62
253
  6
CONTINUOUS
 10
-26.2477492553
 20
2.0269707348
 11
-26.2477492553
 21
2.0115995223
  0
LINE
  5
6D9
100
AcDbEntity
  8
ASSI
100
AcDbLine
 62
253
  6
CONTINUOUS
 10
-26.2477492553
 20
2.0269707348
 11
-26.2477492553
 21
2.0115995223
  0
LINE
  5
6DA
100
AcDbEntity
  8
RACCORDO
100
AcDbLine
 62
7
  6
CONTINUOUS
 10
-25.8345733442
 20
9.4977515182
 11
-25.8345733442
 21
9.4715576165
  0
LINE
  5
6DB
100
AcDbEntity
  8
ASSI
100
AcDbLine
 62
7
  6
CONTINUOUS
 10
-25.8345733442
 20
9.4977515182
 11
-25.8345733442
 21
9.4715576165
  0
LINE
  5
6DC
100
AcDbEntity
  8
RACCORDO
100
AcDbLine
 62
7
  6
CONTINUOUS
 10
-25.8345733442
 20
2.0413991555
 11
-25.8345733442
 21
2.0152052538
  0
LINE
  5
6DD
100
AcDbEntity
  8
ASSI
100
AcDbLine
 62
7
  6
CONTINUOUS
 10
-25.8345733442
 20
2.0413991555
 11
-25.8345733442
 21
2.0152052538
  0
LWPOLYLINE
  5
6DE
100
AcDbEntity
  8
RACCORDO
100
AcDbPolyline
 62
253
  6
CONTINUOUS
 90
5
 70
0
 10
-30.6989197282
 20
4.0309672934
 10
-30.7067510651
 20
4.0250686468
 10
-30.7124676249
 20
4.0206963736
 10
-30.7159369045
 20
4.0179530148
 10
-30.7170835668
 20
4.0168998207
  0
LWPOLYLINE
  5
6DF
100
AcDbEntity
  8
RACCORDO
100
AcDbPolyline
 62
253
  6
CONTINUOUS
 90
3
 70
0
 10
-30.6653392178
 20
4.055866124
 10
-30.6778779396
 20
4.0466159372
 10
-30.6989197282
 20
4.0309672934
  0
LINE
  5
6E0
100
AcDbEntity
  8
RACCORDO
100
AcDbLine
 62
7
  6
CONTINUOUS
 10
-28.3345733442
 20
1.9540972318
 11
-25.0671235958
 21
2.0681990913
  0
LINE
  5
6E1
100
AcDbEntity
  8
RACCORDO
100
AcDbLine
 62
7
  6
CONTINUOUS
 10
-25.8345733442
 20
2.0152052538
 11
-26.8345733442
 21
2.006478386
  0
LINE
  5
6E2
100
AcDbEntity
  8
ASSI
100
AcDbLine
 62
7
  6
CONTINUOUS
 10
-25.8345733442
 20
2.0152052538
 11
-26.8345733442
 21
2.006478386
  0
LINE
  5
6E3
100
AcDbEntity
  8
RACCORDO
100
AcDbLine
 62
7
  6
CONTINUOUS
 10
-28.3345733442
 20
2.0195686877
 11
-31.5889366119
 21
2.0479690857
  0
LINE
  5
6E4
100
AcDbEntity
  8
ASSI
100
AcDbLine
 62
7
  6
CONTINUOUS
 10
-28.3345733442
 20
2.0195686877
 11
-31.5889366119
 21
2.0479690857
  0
LINE
  5
6E5
100
AcDbEntity
  8
RACCORDO
100
AcDbLine
 62
253
  6
CONTINUOUS
 10
-30.677877616
 20
7.4663408155
 11
-30.6380630786
 21
7.4370935567
  0
LWPOLYLINE
  5
6E6
100
AcDbEntity
  8
RACCORDO
100
AcDbPolyline
 62
253
  6
CONTINUOUS
 90
7
 70
0
 10
-27.6351272848
 20
8.6223599471
 10
-27.6298909773
 20
8.6122096383
 10
-27.6254805561
 20
8.6005878423
 10
-27.6219923291
 20
8.5877483384
 10
-27.6195024671
 20
8.5739714967
 10
-27.6180653397
 20
8.5595581552
 10
-27.6177123289
 20
8.5448230509
  0
LINE
  5
6E7
100
AcDbEntity
  8
RACCORDO
100
AcDbLine
 62
253
  6
CONTINUOUS
 10
-25.0671235958
 20
2.6678335875
 11
-25.0643652883
 21
2.5637678543
  0
LINE
  5
6E8
100
AcDbEntity
  8
RACCORDO
100
AcDbLine
 62
253
  6
CONTINUOUS
 10
-25.0643652883
 20
2.5637678543
 11
-25.0622153547
 21
2.462863696
  0
LINE
  5
6E9
100
AcDbEntity
  8
RACCORDO
100
AcDbLine
 62
253
  6
CONTINUOUS
 10
-25.0622153547
 20
2.462863696
 11
-25.0607482074
 21
2.3681818177
  0
LWPOLYLINE
  5
6EA
100
AcDbEntity
  8
RACCORDO
100
AcDbPolyline
 62
253
  6
CONTINUOUS
 90
12
 70
0
 10
-25.0607482074
 20
2.3681818177
 10
-25.0600036707
 20
2.2825944125
 10
-25.0599105336
 20
2.2440354466
 10
-25.0600032667
 20
2.2086977221
 10
-25.0602823256
 20
2.1768497839
 10
-25.0607472327
 20
2.1487336412
 10
-25.0613933257
 20
2.1245630055
 10
-25.0622151351
 20
2.1045215119
 10
-25.0632085088
 20
2.0887613357
 10
-25.0643655175
 20
2.0774022629
 10
-25.0656745216
 20
2.0705307456
 10
-25.0671235958
 20
2.0681990913
  0
LINE
  5
6EB
100
AcDbEntity
  8
RACCORDO
100
AcDbLine
 62
253
  6
CONTINUOUS
 10
-25.0671235958
 20
8.8451231846
 11
-25.0671235958
 21
2.6678335875
  0
LINE
  5
6EC
100
AcDbEntity
  8
RACCORDO
100
AcDbLine
 62
253
  6
CONTINUOUS
 10
-25.0599105336
 20
9.2689213254
 11
-25.0602831315
 21
9.1888751615
  0
LINE
  5
6ED
100
AcDbEntity
  8
RACCORDO
100
AcDbLine
 62
253
  6
CONTINUOUS
 10
-25.0602831315
 20
9.1888751615
 11
-25.0613940381
 21
9.0983967928
  0
LINE
  5
6EE
100
AcDbEntity
  8
RACCORDO
100
AcDbLine
 62
253
  6
CONTINUOUS
 10
-25.0613940381
 20
9.0983967928
 11
-25.0632083735
 21
9.0002308374
  0
LWPOLYLINE
  5
6EF
100
AcDbEntity
  8
RACCORDO
100
AcDbPolyline
 62
253
  6
CONTINUOUS
 90
3
 70
0
 10
-25.0632083735
 20
9.0002308374
 10
-25.0656743374
 20
8.8973550978
 10
-25.0671235958
 20
8.8451231846
  0
LINE
  5
6F0
100
AcDbEntity
  8
RACCORDO
100
AcDbLine
 62
253
  6
CONTINUOUS
 10
-30.6380637217
 20
4.0758628333
 11
-30.6653392178
 21
4.055866124
  0
LINE
  5
6F1
100
AcDbEntity
  8
RACCORDO
100
AcDbLine
 62
253
  6
CONTINUOUS
 10
-28.3345733442
 20
2.553731728
 11
-25.0671235958
 21
2.6678335875
  0
LINE
  5
6F2
100
AcDbEntity
  8
RACCORDO
100
AcDbLine
 62
7
  6
CONTINUOUS
 10
-27.7408561017
 20
2.866841759
 11
-28.3345733442
 21
2.856478386
  0
LINE
  5
6F3
100
AcDbEntity
  8
RACCORDO
100
AcDbLine
 62
253
  6
CONTINUOUS
 10
-27.3584318097
 20
2.9726594794
 11
-28.3363185848
 21
2.9564936188
  0
LINE
  5
6F4
100
AcDbEntity
  8
RACCORDO
100
AcDbLine
 62
253
  6
CONTINUOUS
 10
-32.0845733442
 20
2.6479462395
 11
-31.5889366119
 21
2.6479462395
  0
LINE
  5
6F5
100
AcDbEntity
  8
ASSI
100
AcDbLine
 62
253
  6
CONTINUOUS
 10
-32.0845733442
 20
2.6479462395
 11
-31.5889366119
 21
2.6479462395
  0
LINE
  5
6F6
100
AcDbEntity
  8
RACCORDO
100
AcDbLine
 62
253
  6
CONTINUOUS
 10
-24.5845733442
 20
2.6678335875
 11
-25.0671235957
 21
2.6678335939
  0
LINE
  5
6F7
100
AcDbEntity
  8
RACCORDO
100
AcDbLine
 62
253
  6
CONTINUOUS
 10
-28.3345733442
 20
2.6195458415
 11
-31.5889366119
 21
2.6479462395
  0
LINE
  5
6F8
100
AcDbEntity
  8
ASSI
100
AcDbLine
 62
253
  6
CONTINUOUS
 10
-28.3345733442
 20
2.6195458415
 11
-31.5889366119
 21
2.6479462395
  0
LINE
  5
6F9
100
AcDbEntity
  8
RACCORDO
100
AcDbLine
 62
7
  6
CONTINUOUS
 10
-28.8797002677
 20
2.8659936119
 11
-28.3345733442
 21
2.856478386
  0
LINE
  5
6FA
100
AcDbEntity
  8
RACCORDO
100
AcDbLine
 62
253
  6
CONTINUOUS
 10
-28.8796929128
 20
2.965978253
 11
-28.3363185848
 21
2.9564936188
  0
LWPOLYLINE
  5
6FB
100
AcDbEntity
  8
RACCORDO
100
AcDbPolyline
 62
253
  6
CONTINUOUS
 90
6
 70
0
 10
-24.3892111284
 20
4.0380140081
 10
-24.3890444088
 20
4.02798752
 10
-24.3888480086
 20
4.02011616
 10
-24.3886226336
 20
4.0144577428
 10
-24.3883624545
 20
4.0110478839
 10
-24.388064409
 20
4.0099084723
  0
LINE
  5
6FC
100
AcDbEntity
  8
RACCORDO
100
AcDbLine
 62
253
  6
CONTINUOUS
 10
-24.3890444088
 20
7.3057305439
 11
-24.388064409
 21
7.2031716314
  0
LINE
  5
6FD
100
AcDbEntity
  8
RACCORDO
100
AcDbLine
 62
253
  6
CONTINUOUS
 10
-24.3894323485
 20
4.0641641015
 11
-24.3892111284
 21
4.0380140081
  0
LINE
  5
6FE
100
AcDbEntity
  8
RACCORDO
100
AcDbLine
 62
253
  6
CONTINUOUS
 10
-24.3894891388
 20
7.3959615016
 11
-24.3890444088
 21
7.3057305439
  0
LINE
  5
6FF
100
AcDbEntity
  8
RACCORDO
100
AcDbLine
 62
253
  6
CONTINUOUS
 10
-24.3895086843
 20
4.0977414444
 11
-24.3894323485
 21
4.0641641015
  0
LINE
  5
700
100
AcDbEntity
  8
RACCORDO
100
AcDbLine
 62
7
  6
CONTINUOUS
 10
-24.5845733442
 20
8.9450622673
 11
-24.5845733442
 21
2.5678945048
  0
LINE
  5
701
100
AcDbEntity
  8
RACCORDO
100
AcDbLine
 62
253
  6
CONTINUOUS
 10
-24.3880638254
 20
7.2031716212
 11
-24.3880638254
 21
4.3098704043
  0
LINE
  5
702
100
AcDbEntity
  8
RACCORDO
100
AcDbLine
 62
253
  6
CONTINUOUS
 10
-24.3894892661
 20
7.4328961931
 11
-24.3894891388
 21
7.3959615016
  0
LINE
  5
703
100
AcDbEntity
  8
RACCORDO
100
AcDbLine
 62
253
  6
CONTINUOUS
 10
-24.3893410797
 20
4.1598196223
 11
-24.3895086843
 21
4.0977414444
  0
LINE
  5
704
100
AcDbEntity
  8
RACCORDO
100
AcDbLine
 62
253
  6
CONTINUOUS
 10
-24.3886221904
 20
4.2577498601
 11
-24.3893410797
 21
4.1598196223
  0
LINE
  5
705
100
AcDbEntity
  8
RACCORDO
100
AcDbLine
 62
253
  6
CONTINUOUS
 10
-24.3880637682
 20
4.3098704053
 11
-24.3886221904
 21
4.2577498601
  0
LWPOLYLINE
  5
706
100
AcDbEntity
  8
RACCORDO
100
AcDbPolyline
 62
253
  6
CONTINUOUS
 90
8
 70
0
 10
-24.3880637682
 20
7.5030482985
 10
-24.3883618266
 20
7.5019119363
 10
-24.3886221904
 20
7.4984992937
 10
-24.3888478484
 20
7.4928366551
 10
-24.3890445605
 20
7.4849665982
 10
-24.3892114788
 20
7.4749497065
 10
-24.3893410797
 20
7.4628661646
 10
-24.3894892661
 20
7.4328961931
  0
LINE
  5
707
100
AcDbEntity
  8
RACCORDO
100
AcDbLine
 62
7
  6
CONTINUOUS
 10
-26.7347333709
 20
3.8282636521
 11
-28.3677329164
 21
3.8567677652
  0
LINE
  5
708
100
AcDbEntity
  8
RACCORDO
100
AcDbLine
 62
253
  6
CONTINUOUS
 10
-23.8793376222
 20
4.3187426299
 11
-23.8781615211
 21
4.2411234468
  0
LINE
  5
709
100
AcDbEntity
  8
RACCORDO
100
AcDbLine
 62
253
  6
CONTINUOUS
 10
-23.8781615211
 20
4.2411234468
 11
-23.8774222067
 21
4.1687918434
  0
LWPOLYLINE
  5
70A
100
AcDbEntity
  8
RACCORDO
100
AcDbPolyline
 62
253
  6
CONTINUOUS
 90
8
 70
0
 10
-23.8774222067
 20
4.1687918434
 10
-23.8771700426
 20
4.1066751982
 10
-23.8772333543
 20
4.0808053136
 10
-23.8774222067
 20
4.059005026
 10
-23.8777333696
 20
4.0416472
 10
-23.8781615211
 20
4.0290287176
 10
-23.8786993382
 20
4.0213654012
 10
-23.8793376222
 20
4.0187883213
  0
LINE
  5
70B
100
AcDbEntity
  8
RACCORDO
100
AcDbLine
 62
253
  6
CONTINUOUS
 10
-23.8793376222
 20
7.1942141422
 11
-23.8793376222
 21
4.3187426299
  0
LINE
  5
70C
100
AcDbEntity
  8
RACCORDO
100
AcDbLine
 62
7
  6
CONTINUOUS
 10
-23.5845733442
 20
7.1942141422
 11
-23.5845733442
 21
4.3187426299
  0
LINE
  5
70D
100
AcDbEntity
  8
RACCORDO
100
AcDbLine
 62
253
  6
CONTINUOUS
 10
-23.8771700976
 20
7.4054618372
 11
-23.8774333845
 21
7.3426628309
  0
LINE
  5
70E
100
AcDbEntity
  8
RACCORDO
100
AcDbLine
 62
253
  6
CONTINUOUS
 10
-23.8774333845
 20
7.3426628309
 11
-23.878179262
 21
7.270449292
  0
LINE
  5
70F
100
AcDbEntity
  8
RACCORDO
100
AcDbLine
 62
253
  6
CONTINUOUS
 10
-23.878179262
 20
7.270449292
 11
-23.8793376222
 21
7.1942141422
  0
LINE
  5
710
100
AcDbEntity
  8
RACCORDO
100
AcDbLine
 62
7
  6
CONTINUOUS
 10
-23.8793376222
 20
4.0187883213
 11
-24.3880638254
 21
4.0099084724
  0
LINE
  5
711
100
AcDbEntity
  8
RACCORDO
100
AcDbLine
 62
253
  6
CONTINUOUS
 10
-23.8793376222
 20
4.3187426299
 11
-24.3880638254
 21
4.3098704043
  0
LINE
  5
712
100
AcDbEntity
  8
RACCORDO
100
AcDbLine
 62
253
  6
CONTINUOUS
 10
-24.5845733442
 20
4.309862781
 11
-24.3880638254
 21
4.309862781
  0
LINE
  5
713
100
AcDbEntity
  8
RACCORDO
100
AcDbLine
 62
253
  6
CONTINUOUS
 10
-23.5845733442
 20
4.3187426299
 11
-23.8793376222
 21
4.3187426299
  0
LWPOLYLINE
  5
714
100
AcDbEntity
  8
RACCORDO
100
AcDbPolyline
 62
253
  6
CONTINUOUS
 90
7
 70
0
 10
-23.8793376222
 20
7.4941684507
 10
-23.8786968669
 20
7.4915698009
 10
-23.8781573249
 20
7.4838396762
 10
-23.877728398
 20
7.4711071336
 10
-23.8774175595
 20
7.4535853707
 10
-23.877230345
 20
7.4315744882
 10
-23.8771700976
 20
7.4054618372
  0
LINE
  5
715
100
AcDbEntity
  8
ASSI
100
AcDbLine
 62
7
  6
CONTINUOUS
 10
-31.0345733442
 20
5.256478386
 11
-30.8345733442
 21
5.256478386
  0
LWPOLYLINE
  5
716
100
AcDbEntity
  8
RACCORDO
100
AcDbPolyline
 62
253
  6
CONTINUOUS
 90
10
 70
0
 10
-25.0671235958
 20
9.4447576808
 10
-25.0656745216
 20
9.4424260264
 10
-25.0643655175
 20
9.4355545091
 10
-25.0632085088
 20
9.4241954363
 10
-25.0622151351
 20
9.4084352601
 10
-25.0613933257
 20
9.3883937665
 10
-25.0607472327
 20
9.3642231309
 10
-25.0602823256
 20
9.3361069882
 10
-25.0600032667
 20
9.3042590499
 10
-25.0599105336
 20
9.2689213254
  0
LINE
  5
717
100
AcDbEntity
  8
ASSI
100
AcDbLine
 62
7
  6
CONTINUOUS
 10
-31.0345733442
 20
6.256478386
 11
-30.8345733442
 21
6.256478386
  0
LINE
  5
718
100
AcDbEntity
  8
RACCORDO
100
AcDbLine
 62
253
  6
CONTINUOUS
 10
-23.8793376222
 20
7.1942141422
 11
-23.5845733442
 21
7.1942141422
  0
LINE
  5
719
100
AcDbEntity
  8
RACCORDO
100
AcDbLine
 62
253
  6
CONTINUOUS
 10
-24.5845733442
 20
7.2030939911
 11
-24.3880638254
 21
7.2030939911
  0
LINE
  5
71A
100
AcDbEntity
  8
RACCORDO
100
AcDbLine
 62
7
  6
CONTINUOUS
 10
-23.8793376222
 20
7.4941684507
 11
-24.3880638254
 21
7.5030482996
  0
LINE
  5
71B
100
AcDbEntity
  8
RACCORDO
100
AcDbLine
 62
253
  6
CONTINUOUS
 10
-23.8793376222
 20
7.1942141422
 11
-24.3880638254
 21
7.2031716212
  0
LINE
  5
71C
100
AcDbEntity
  8
RACCORDO
100
AcDbLine
 62
7
  6
CONTINUOUS
 10
-26.7347333709
 20
7.6846931199
 11
-28.3677329164
 21
7.6561890068
  0
LWPOLYLINE
  5
71D
100
AcDbEntity
  8
RACCORDO
100
AcDbPolyline
 62
253
  6
CONTINUOUS
 90
7
 70
0
 10
-28.8796929128
 20
8.546978519
 10
-28.8933170495
 20
8.5465037073
 10
-28.9068644292
 20
8.5455759272
 10
-28.9203350518
 20
8.5441951787
 10
-28.9337289173
 20
8.542361462
 10
-28.9470460258
 20
8.5400747769
 10
-28.9602863773
 20
8.5373351234
  0
LINE
  5
71E
100
AcDbEntity
  8
RACCORDO
100
AcDbLine
 62
253
  6
CONTINUOUS
 10
-28.3363185848
 20
8.5564631532
 11
-28.8796929128
 21
8.546978519
  0
LINE
  5
71F
100
AcDbEntity
  8
RACCORDO
100
AcDbLine
 62
7
  6
CONTINUOUS
 10
-28.3345733442
 20
8.656478386
 11
-28.8797002676
 21
8.6469631602
  0
LINE
  5
720
100
AcDbEntity
  8
RACCORDO
100
AcDbLine
 62
253
  6
CONTINUOUS
 10
-28.3345733442
 20
8.8934109305
 11
-31.5889366119
 21
8.8650105325
  0
LINE
  5
721
100
AcDbEntity
  8
ASSI
100
AcDbLine
 62
253
  6
CONTINUOUS
 10
-28.3345733442
 20
8.8934109305
 11
-31.5889366119
 21
8.8650105325
  0
LINE
  5
722
100
AcDbEntity
  8
RACCORDO
100
AcDbLine
 62
253
  6
CONTINUOUS
 10
-24.5845733442
 20
8.8451231846
 11
-25.0671235958
 21
8.8451231846
  0
LINE
  5
723
100
AcDbEntity
  8
RACCORDO
100
AcDbLine
 62
253
  6
CONTINUOUS
 10
-32.0845733442
 20
8.8650105325
 11
-31.5889366119
 21
8.865010526
  0
LINE
  5
724
100
AcDbEntity
  8
ASSI
100
AcDbLine
 62
253
  6
CONTINUOUS
 10
-32.0845733442
 20
8.8650105325
 11
-31.5889366119
 21
8.865010526
  0
LINE
  5
725
100
AcDbEntity
  8
RACCORDO
100
AcDbLine
 62
253
  6
CONTINUOUS
 10
-28.3363185848
 20
8.5564631532
 11
-27.3584318097
 21
8.5402972926
  0
LINE
  5
726
100
AcDbEntity
  8
RACCORDO
100
AcDbLine
 62
7
  6
CONTINUOUS
 10
-28.3345733442
 20
8.656478386
 11
-27.7408561017
 21
8.646115013
  0
LINE
  5
727
100
AcDbEntity
  8
RACCORDO
100
AcDbLine
 62
253
  6
CONTINUOUS
 10
-25.0671235958
 20
8.8451231846
 11
-28.3345733442
 21
8.959225044
  0
LINE
  5
728
100
AcDbEntity
  8
RACCORDO
100
AcDbLine
 62
7
  6
CONTINUOUS
 10
-28.3345733442
 20
9.4933880843
 11
-31.5889366119
 21
9.4649876863
  0
LINE
  5
729
100
AcDbEntity
  8
ASSI
100
AcDbLine
 62
7
  6
CONTINUOUS
 10
-28.3345733442
 20
9.4933880843
 11
-31.5889366119
 21
9.4649876863
  0
LINE
  5
72A
100
AcDbEntity
  8
RACCORDO
100
AcDbLine
 62
7
  6
CONTINUOUS
 10
-26.8345733442
 20
9.506478386
 11
-25.8345733442
 21
9.4977515182
  0
LINE
  5
72B
100
AcDbEntity
  8
ASSI
100
AcDbLine
 62
7
  6
CONTINUOUS
 10
-26.8345733442
 20
9.506478386
 11
-25.8345733442
 21
9.4977515182
  0
LINE
  5
72C
100
AcDbEntity
  8
RACCORDO
100
AcDbLine
 62
7
  6
CONTINUOUS
 10
-25.0671235958
 20
9.4447576808
 11
-28.3345733442
 21
9.5588595403
  0
LWPOLYLINE
  5
72D
100
AcDbEntity
  8
RACCORDO
100
AcDbPolyline
 62
253
  6
CONTINUOUS
 90
25
 70
0
 10
-28.9602863773
 20
8.5373351234
 10
-29.0429517589
 20
8.5173713505
 10
-29.12418418
 20
8.495322945
 10
-29.2039836407
 20
8.4711899067
 10
-29.2822370712
 20
8.4449703231
 10
-29.3590575412
 20
8.4166661067
 10
-29.4347842597
 20
8.386282996
 10
-29.509783124
 20
8.3536515564
 10
-29.5836882368
 20
8.3189412225
 10
-29.6557411149
 20
8.2826660362
 10
-29.7254518948
 20
8.2450905991
 10
-29.7933104399
 20
8.2059503096
 10
-29.8600278579
 20
8.1649654054
 10
-29.9254531124
 20
8.1224043634
 10
-29.9897372398
 20
8.0779987067
 10
-30.0540444568
 20
8.0306632424
 10
-30.1186914381
 20
7.98036176
 10
-30.1833615091
 20
7.9271304702
 10
-30.2482688623
 20
7.8699928117
 10
-30.3136723201
 20
7.8088487718
 10
-30.3793130601
 20
7.7437983633
 10
-30.4446288081
 20
7.6741650637
 10
-30.5094321392
 20
7.5997233655
 10
-30.5739104784
 20
7.5206987763
 10
-30.6380638254
 20
7.437091296
  0
ARC
  5
72E
100
AcDbEntity
  8
RACCORDO
100
AcDbCircle
 62
7
  6
CONTINUOUS
 10
-28.9345733442
 20
5.1543986571
 40
1.0
100
AcDbArc
 50
180.0
 51
225.099127844
  0
ARC
  5
72F
100
AcDbEntity
  8
ASSI
100
AcDbCircle
 62
7
  6
CONTINUOUS
 10
-28.9345733442
 20
5.1543986571
 40
1.0
100
AcDbArc
 50
180.0
 51
225.099127844
  0
ARC
  5
730
100
AcDbEntity
  8
RACCORDO
100
AcDbCircle
 62
7
  6
CONTINUOUS
 10
-31.5845733442
 20
2.5479555227
 40
0.5
100
AcDbArc
 50
180.0006274443
 51
269.500005473
  0
ARC
  5
731
100
AcDbEntity
  8
ASSI
100
AcDbCircle
 62
7
  6
CONTINUOUS
 10
-31.5845733442
 20
2.5479555227
 40
0.5
100
AcDbArc
 50
180.0006274443
 51
269.500005473
  0
ARC
  5
732
100
AcDbEntity
  8
RACCORDO
100
AcDbCircle
 62
7
  6
CONTINUOUS
 10
-28.8709667096
 20
3.3659173311
 40
0.5
100
AcDbArc
 50
257.3524406272
 51
268.9991570728
  0
ARC
  5
733
100
AcDbEntity
  8
RACCORDO
100
AcDbCircle
 62
7
  6
CONTINUOUS
 10
-29.5345733442
 20
5.0353681309
 40
0.5
100
AcDbArc
 50
180.0
 51
211.0027191339
  0
ARC
  5
734
100
AcDbEntity
  8
RACCORDO
100
AcDbCircle
 62
7
  6
CONTINUOUS
 10
-30.6345733442
 20
4.2489970428
 40
0.2
100
AcDbArc
 50
180.0
 51
213.2419025353
  0
ARC
  5
735
100
AcDbEntity
  8
RACCORDO
100
AcDbCircle
 62
7
  6
CONTINUOUS
 10
-30.6345733442
 20
7.2639597292
 40
0.2
100
AcDbArc
 50
146.7580974647
 51
180.0
  0
ARC
  5
736
100
AcDbEntity
  8
RACCORDO
100
AcDbCircle
 62
7
  6
CONTINUOUS
 10
-31.5845733442
 20
8.9650067248
 40
0.5
100
AcDbArc
 50
90.5
 51
180.018811966
  0
ARC
  5
737
100
AcDbEntity
  8
ASSI
100
AcDbCircle
 62
7
  6
CONTINUOUS
 10
-31.5845733442
 20
8.9650067248
 40
0.5
100
AcDbArc
 50
90.5
 51
180.018811966
  0
ARC
  5
738
100
AcDbEntity
  8
ASSI
100
AcDbCircle
 62
7
  6
CONTINUOUS
 10
-28.3345733442
 20
5.756478386
 40
2.95
100
AcDbArc
 50
104.0603784628
 51
104.1608203126
  0
ARC
  5
739
100
AcDbEntity
  8
RACCORDO
100
AcDbCircle
 62
7
  6
CONTINUOUS
 10
-28.3345733442
 20
5.756478386
 40
2.95
100
AcDbArc
 50
102.646644228
 51
146.7580974647
  0
ARC
  5
73A
100
AcDbEntity
  8
RACCORDO
100
AcDbCircle
 62
7
  6
CONTINUOUS
 10
-28.3345733442
 20
5.756478386
 40
2.95
100
AcDbArc
 50
213.2419025353
 51
257.3532782417
  0
ARC
  5
73B
100
AcDbEntity
  8
RACCORDO
100
AcDbCircle
 62
7
  6
CONTINUOUS
 10
-28.3345733442
 20
5.756478386
 40
2.95
100
AcDbArc
 50
281.6106548816
 51
78.3893451184
  0
ARC
  5
73C
100
AcDbEntity
  8
RACCORDO
100
AcDbCircle
 62
7
  6
CONTINUOUS
 10
-28.3345733442
 20
5.756478386
 40
1.9
100
AcDbArc
 50
91.0
 51
148.9972808661
  0
ARC
  5
73D
100
AcDbEntity
  8
RACCORDO
100
AcDbCircle
 62
7
  6
CONTINUOUS
 10
-28.3345733442
 20
5.756478386
 40
1.9
100
AcDbArc
 50
211.0027191339
 51
269.0
  0
ARC
  5
73E
100
AcDbEntity
  8
RACCORDO
100
AcDbCircle
 62
7
  6
CONTINUOUS
 10
-28.3345733442
 20
5.756478386
 40
1.85
100
AcDbArc
 50
92.9965075203
 51
134.900872156
  0
ARC
  5
73F
100
AcDbEntity
  8
RACCORDO
100
AcDbCircle
 62
7
  6
CONTINUOUS
 10
-28.3345733442
 20
5.756478386
 40
1.85
100
AcDbArc
 50
225.099127844
 51
267.0034924739
  0
ARC
  5
740
100
AcDbEntity
  8
ASSI
100
AcDbCircle
 62
7
  6
CONTINUOUS
 10
-28.3345733442
 20
5.756478386
 40
1.85
100
AcDbArc
 50
92.9965075203
 51
134.900872156
  0
ARC
  5
741
100
AcDbEntity
  8
ASSI
100
AcDbCircle
 62
7
  6
CONTINUOUS
 10
-28.3345733442
 20
5.756478386
 40
1.85
100
AcDbArc
 50
225.099127844
 51
267.0034924739
  0
ARC
  5
742
100
AcDbEntity
  8
RACCORDO
100
AcDbCircle
 62
7
  6
CONTINUOUS
 10
-28.9345733442
 20
6.358558115
 40
1.0
100
AcDbArc
 50
134.900872156
 51
180.0
  0
ARC
  5
743
100
AcDbEntity
  8
DRAFT
100
AcDbCircle
 62
7
  6
CONTINUOUS
 10
-28.3345733442
 20
5.756478386
 40
1.0
100
AcDbArc
 50
95.5485778272
 51
264.4514175806
  0
ARC
  5
744
100
AcDbEntity
  8
ASSI
100
AcDbCircle
 62
7
  6
CONTINUOUS
 10
-28.9345733442
 20
6.358558115
 40
1.0
100
AcDbArc
 50
134.900872156
 51
180.0
  0
ARC
  5
745
100
AcDbEntity
  8
ASSI
100
AcDbCircle
 62
7
  6
CONTINUOUS
 10
-28.3345733442
 20
5.756478386
 40
1.0
100
AcDbArc
 50
95.5485778272
 51
264.4514175806
  0
ARC
  5
746
100
AcDbEntity
  8
RACCORDO
100
AcDbCircle
 62
7
  6
CONTINUOUS
 10
-29.5345733442
 20
6.4775886411
 40
0.5
100
AcDbArc
 50
148.9972808661
 51
180.0
  0
ARC
  5
747
100
AcDbEntity
  8
RACCORDO
100
AcDbCircle
 62
7
  6
CONTINUOUS
 10
-28.8709667096
 20
8.147039441
 40
0.5
100
AcDbArc
 50
91.0008429224
 51
102.647101944
  0
ARC
  5
748
100
AcDbEntity
  8
RACCORDO
100
AcDbCircle
 62
7
  6
CONTINUOUS
 10
-25.0845733442
 20
2.5678999718
 40
0.5
100
AcDbArc
 50
271.9999781459
 51
359.9993735214
  0
ARC
  5
749
100
AcDbEntity
  8
RACCORDO
100
AcDbCircle
 62
7
  6
CONTINUOUS
 10
-23.8845733442
 20
4.3187426299
 40
0.3
100
AcDbArc
 50
271.0
 51
360.0
  0
ARC
  5
74A
100
AcDbEntity
  8
RACCORDO
100
AcDbCircle
 62
7
  6
CONTINUOUS
 10
-26.7390964725
 20
3.5783017283
 40
0.25
100
AcDbArc
 50
306.2221338961
 51
89.0
  0
ARC
  5
74B
100
AcDbEntity
  8
RACCORDO
100
AcDbCircle
 62
7
  6
CONTINUOUS
 10
-24.3845733442
 20
3.8099389334
 40
0.2
100
AcDbArc
 50
91.0
 51
180.0
  0
ARC
  5
74C
100
AcDbEntity
  8
RACCORDO
100
AcDbCircle
 62
7
  6
CONTINUOUS
 10
-25.0845733442
 20
8.9450566253
 40
0.5
100
AcDbArc
 50
0.0006465186
 51
88.0000225517
  0
ARC
  5
74D
100
AcDbEntity
  8
RACCORDO
100
AcDbCircle
 62
7
  6
CONTINUOUS
 10
-23.8845733442
 20
7.1942141422
 40
0.3
100
AcDbArc
 50
0.0
 51
89.0
  0
ARC
  5
74E
100
AcDbEntity
  8
RACCORDO
100
AcDbCircle
 62
7
  6
CONTINUOUS
 10
-26.7390964725
 20
7.9346550437
 40
0.25
100
AcDbArc
 50
271.0
 51
53.7778661039
  0
ARC
  5
74F
100
AcDbEntity
  8
RACCORDO
100
AcDbCircle
 62
7
  6
CONTINUOUS
 10
-24.3845733442
 20
7.7030178386
 40
0.2
100
AcDbArc
 50
180.0
 51
269.0000119293
  0
ENDSEC
  0
SECTION
  2
OBJECTS
  0
DICTIONARY
  5
C
100
AcDbDictionary
280
0
281
1
  3
ACAD_GROUP
350
D
  3
ACAD_MLINESTYLE
350
17
  3
ACAD_LAYOUT
350
1A
  3
ACAD_PLOTSETTINGS
350
19
  3
ACAD_PLOTSTYLENAME
350
E
  0
DICTIONARY
  5
D
102
{ACAD_REACTORS
330
C
102
}
100
AcDbDictionary
280
0
281
1
  0
ACDBDICTIONARYWDFLT
  5
E
102
{ACAD_REACTORS
330
C
102
}
100
AcDbDictionary
281
1
  3
Normal
350
F
100
AcDbDictionaryWithDefault
340
F
  0
DICTIONARY
  5
17
102
{ACAD_REACTORS
330
C
102
}
100
AcDbDictionary
280
0
281
1
  3
Standard
350
18
  0
DICTIONARY
  5
19
102
{ACAD_REACTORS
330
C
102
}
100
AcDbDictionary
281
1
  0
DICTIONARY
  5
1A
102
{ACAD_REACTORS
330
C
102
}
100
AcDbDictionary
281
1
  3
Model
350
750
  3
Layout1
350
751
  0
ACDBPLACEHOLDER
  5
F
102
{ACAD_REACTORS
330
E
102
}
  0
MLINESTYLE
  5
18
102
{ACAD_REACTORS
330
17
102
}
100
AcDbMlineStyle
  2
STANDARD
 70
0
  3

 62
256
 51
90.0
 52
90.0
 71
2
 49
0.5
 62
256
  6
BYLAYER
 49
-0.5
 62
256
  6
BYLAYER
  0
LAYOUT
  5
750
102
{ACAD_REACTORS
330
1A
102
}
100
AcDbPlotSettings
  1

  2
none_device
  4
ISO_A4_(297.00_x_210.00_MM)
  6

 40
0.0
 41
0.0
 42
0.0
 43
0.0
 44
297.0
 45
210.0
 46
0.0
 47
0.0
 48
0.0
 49
0.0
140
0.0
141
0.0
142
1.0
143
1.0
 70
1024
 72
1
 73
0
 74
0
  7

 75
0
147
1.0
148
0.0
149
0.0
100
AcDbLayout
  1
Model
 70
0
 71
0
 10
0.0
 20
0.0
 11
297.0
 21
210.0
 12
0.0
 22
0.0
 32
0.0
 14
0.0
 24
0.0
 34
0.0
 15
0.0
 25
0.0
 35
0.0
146
0.0
 13
0.0
 23
0.0
 33
0.0
 16
1.0
 26
0.0
 36
0.0
 17
0.0
 27
1.0
 37
0.0
 76
0
330
212
345
0
346
0
  0
LAYOUT
  5
751
102
{ACAD_REACTORS
330
1A
102
}
100
AcDbPlotSettings
  1

  2
none_device
  4
ISO_A4_(297.00_x_210.00_MM)
  6

 40
0.0
 41
0.0
 42
0.0
 43
0.0
 44
297.0
 45
210.0
 46
0.0
 47
0.0
 48
0.0
 49
0.0
140
0.0
141
0.0
142
1.0
143
1.0
 70
0
 72
1
 73
0
 74
0
  7

 75
0
147
1.0
148
0.0
149
0.0
100
AcDbLayout
  1
Layout1
 70
0
 71
1
 10
0.0
 20
0.0
 11
297.0
 21
210.0
 12
0.0
 22
0.0
 32
0.0
 14
0.0
 24
0.0
 34
0.0
 15
0.0
 25
0.0
 35
0.0
146
0.0
 13
0.0
 23
0.0
 33
0.0
 16
1.0
 26
0.0
 36
0.0
 17
0.0
 27
1.0
 37
0.0
 76
0
330
213
345
0
346
0
  0
ENDSEC
  0
EOF
