  0
SECTION
  2
HEADER
  9
$ACADVER
  1
AC1021
  9
$DWGCODEPAGE
  3
ANSI_1252
  9
$EXTMAX
 10
297.0
 20
210.0
 30
0.0
  9
$EXTMIN
 10
0.0
 20
0.0
 30
0.0
  9
$LIMMIN
 10
0.0
 20
0.0
  9
$LIMMAX
 10
297.0
 20
210.0
  9
$VIEWCTR
 10
148.5
 20
105.0
  9
$VIEWSIZE
 40
210.0
  9
$CLAYER
  8
0
  9
$LTSCALE
 40
16.335
  9
$CELTYPE
  6
BYLAYER
  9
$DIMSCALE
 40
1.0
  9
$DIMASZ
 40
3.0
  9
$DIMEXO
 40
0.5
  9
$DIMDLI
 40
11.286
  9
$DIMEXE
 40
1.5
  9
$DIMCEN
 40
2.673
  9
$DIMLFAC
 40
1.0
  9
$DIMBLK
  1
_FILLED
  9
$DIMALT
 70
0
  9
$DIMALTF
 40
0.0393700787
  9
$DIMTXT
 40
3.0
  9
$DIMTOL
 70
1
  9
$DIMLIM
 70
0
  9
$DIMTFAC
 40
1.0
  9
$DIMTP
 40
0.01
  9
$DIMTM
 40
0.01
  9
$DIMGAP
 40
0.625
  9
$DIMDSEP
 70
44
  9
$AUNITS
 70
0
  9
$PDMODE
 70
3
  9
$PDSIZE
 40
3.0
  9
$HANDSEED
  5
787
  9
$TILEMODE
 70
1
  9
$MEASUREMENT
 70
1
  9
$INSUNITS
 70
4
  0
ENDSEC
  0
SECTION
  2
CLASSES
  0
CLASS
  1
ACDBDICTIONARYWDFLT
  2
AcDbDictionaryWithDefault
  3
AutoCAD 2000
 90
0
 91
1
280
0
281
0
  0
CLASS
  1
ACDBPLACEHOLDER
  2
AcDbPlaceHolder
  3
AutoCAD 2000
 90
0
 91
1
280
0
281
0
  0
CLASS
  1
LAYOUT
  2
AcDbLayout
  3
AutoCAD 2000
 90
0
 91
0
280
0
281
0
  0
ENDSEC
  0
SECTION
  2
TABLES
  0
TABLE
  2
VPORT
  5
8
100
AcDbSymbolTable
 70
2
  0
VPORT
  5
1F4
100
AcDbSymbolTableRecord
100
AcDbViewportTableRecord
  2
*ACTIVE
 70
0
 10
0.0
 20
0.0
 11
1.0
 21
1.0
 12
148.5
 22
105.0
 13
0.0
 23
0.0
 14
1.0
 24
1.0
 15
0.0
 25
0.0
 16
0.0
 26
0.0
 36
1.0
 17
0.0
 27
0.0
 37
0.0
 40
210.0
 41
1.4142857143
 42
50.0
 43
0.0
 44
0.0
 50
0.0
 51
0.0
 71
0
 72
100
 73
1
 74
1
 75
0
 76
0
 77
0
 78
0
  0
ENDTAB
  0
TABLE
  2
LTYPE
  5
5
100
AcDbSymbolTable
 70
6
  0
LTYPE
  5
14
100
AcDbSymbolTableRecord
100
AcDbLinetypeTableRecord
  2
BYBLOCK
 70
0
  3

 72
65
 73
0
 40
0.0
  0
LTYPE
  5
15
100
AcDbSymbolTableRecord
100
AcDbLinetypeTableRecord
  2
BYLAYER
 70
0
  3

 72
65
 73
0
 40
0.0
  0
LTYPE
  5
16
100
AcDbSymbolTableRecord
100
AcDbLinetypeTableRecord
  2
CONTINUOUS
 70
64
  3
Solid line
 72
65
 73
0
 40
0.0
  0
LTYPE
  5
1F5
100
AcDbSymbolTableRecord
100
AcDbLinetypeTableRecord
  2
CENTER
 70
64
  3
____ _ ____ _ ____ _ ____ _ ____ _ ____ _ ____
 72
65
 73
4
 40
0.6
 49
0.375
 74
0
 49
-0.075
 74
0
 49
0.075
 74
0
 49
-0.075
 74
0
  0
LTYPE
  5
1F6
100
AcDbSymbolTableRecord
100
AcDbLinetypeTableRecord
  2
HIDDEN
 70
64
  3
- - - - - - - - - - - - - - - - - - - -
 72
65
 73
2
 40
0.2
 49
0.1
 74
0
 49
-0.1
 74
0
  0
LTYPE
  5
1F7
100
AcDbSymbolTableRecord
100
AcDbLinetypeTableRecord
  2
PHANTOM
 70
64
  3
_____ _ _ _____ _ _ _____ _ _ _____
 72
65
 73
6
 40
0.8
 49
0.45
 74
0
 49
-0.05
 74
0
 49
0.1
 74
0
 49
-0.05
 74
0
 49
0.1
 74
0
 49
-0.05
 74
0
  0
LTYPE
  5
1F8
100
AcDbSymbolTableRecord
100
AcDbLinetypeTableRecord
  2
DOT
 70
64
  3
. . . . . . . . . . . . . . . . . . . .
 72
65
 73
2
 40
0.2
 49
0.1
 74
0
 49
-0.1
 74
0
  0
LTYPE
  5
1F9
100
AcDbSymbolTableRecord
100
AcDbLinetypeTableRecord
  2
DASHED
 70
64
  3
- - - - - - - - - - - - - - - - - - - -
 72
65
 73
2
 40
0.2
 49
0.1
 74
0
 49
-0.1
 74
0
  0
ENDTAB
  0
TABLE
  2
LAYER
  5
2
100
AcDbSymbolTable
 70
36
  0
LAYER
  5
10
100
AcDbSymbolTableRecord
100
AcDbLayerTableRecord
  2
0
 70
0
 62
7
  6
CONTINUOUS
370
-3
390
F
  0
LAYER
  5
1FA
100
AcDbSymbolTableRecord
100
AcDbLayerTableRecord
  2
DEFAULT_1
 70
0
 62
7
  6
CENTER
370
-3
390
F
  0
LAYER
  5
1FB
100
AcDbSymbolTableRecord
100
AcDbLayerTableRecord
  2
DEFAULT_2
 70
0
 62
7
  6
HIDDEN
370
-3
390
F
  0
LAYER
  5
1FC
100
AcDbSymbolTableRecord
100
AcDbLayerTableRecord
  2
DEFAULT_3
 70
0
 62
7
  6
PHANTOM
370
-3
390
F
  0
LAYER
  5
1FD
100
AcDbSymbolTableRecord
100
AcDbLayerTableRecord
  2
ASSI
 70
0
 62
7
  6
CONTINUOUS
370
-3
390
F
  0
LAYER
  5
1FE
100
AcDbSymbolTableRecord
100
AcDbLayerTableRecord
  2
COLORI
 70
0
 62
7
  6
CONTINUOUS
370
-3
390
F
  0
LAYER
  5
1FF
100
AcDbSymbolTableRecord
100
AcDbLayerTableRecord
  2
COORDINATE
 70
0
 62
7
  6
CONTINUOUS
370
-3
390
F
  0
LAYER
  5
200
100
AcDbSymbolTableRecord
100
AcDbLayerTableRecord
  2
COPY_PUBLISH
 70
0
 62
7
  6
CONTINUOUS
370
-3
390
F
  0
LAYER
  5
201
100
AcDbSymbolTableRecord
100
AcDbLayerTableRecord
  2
COSMETICI
 70
0
 62
7
  6
CONTINUOUS
370
-3
390
F
  0
LAYER
  5
202
100
AcDbSymbolTableRecord
100
AcDbLayerTableRecord
  2
CURVE
 70
0
 62
7
  6
CONTINUOUS
370
-3
390
F
  0
LAYER
  5
203
100
AcDbSymbolTableRecord
100
AcDbLayerTableRecord
  2
DRAFT
 70
0
 62
7
  6
CONTINUOUS
370
-3
390
F
  0
LAYER
  5
204
100
AcDbSymbolTableRecord
100
AcDbLayerTableRecord
  2
IMPORT_IGES
 70
0
 62
7
  6
CONTINUOUS
370
-3
390
F
  0
LAYER
  5
205
100
AcDbSymbolTableRecord
100
AcDbLayerTableRecord
  2
NOTE
 70
0
 62
7
  6
CONTINUOUS
370
-3
390
F
  0
LAYER
  5
206
100
AcDbSymbolTableRecord
100
AcDbLayerTableRecord
  2
PIANI
 70
0
 62
7
  6
CONTINUOUS
370
-3
390
F
  0
LAYER
  5
207
100
AcDbSymbolTableRecord
100
AcDbLayerTableRecord
  2
PUNTI
 70
0
 62
7
  6
CONTINUOUS
370
-3
390
F
  0
LAYER
  5
208
100
AcDbSymbolTableRecord
100
AcDbLayerTableRecord
  2
RACCORDO
 70
0
 62
7
  6
CONTINUOUS
370
-3
390
F
  0
LAYER
  5
209
100
AcDbSymbolTableRecord
100
AcDbLayerTableRecord
  2
SCRITTE
 70
0
 62
7
  6
CONTINUOUS
370
-3
390
F
  0
LAYER
  5
20A
100
AcDbSymbolTableRecord
100
AcDbLayerTableRecord
  2
SIMBOLI
 70
0
 62
7
  6
CONTINUOUS
370
-3
390
F
  0
LAYER
  5
20B
100
AcDbSymbolTableRecord
100
AcDbLayerTableRecord
  2
SMUSSO
 70
0
 62
7
  6
CONTINUOUS
370
-3
390
F
  0
LAYER
  5
20C
100
AcDbSymbolTableRecord
100
AcDbLayerTableRecord
  2
SNAPLINE
 70
0
 62
7
  6
CONTINUOUS
370
-3
390
F
  0
LAYER
  5
20D
100
AcDbSymbolTableRecord
100
AcDbLayerTableRecord
  2
SUPERFICI
 70
0
 62
7
  6
CONTINUOUS
370
-3
390
F
  0
LAYER
  5
20E
100
AcDbSymbolTableRecord
100
AcDbLayerTableRecord
  2
TRASH
 70
0
 62
7
  6
CONTINUOUS
370
-3
390
F
  0
LAYER
  5
20F
100
AcDbSymbolTableRecord
100
AcDbLayerTableRecord
  2
XSEC_DATUMS
 70
0
 62
7
  6
CONTINUOUS
370
-3
390
F
  0
ENDTAB
  0
TABLE
  2
STYLE
  5
3
100
AcDbSymbolTable
 70
1
  0
STYLE
  5
11
100
AcDbSymbolTableRecord
100
AcDbTextStyleTableRecord
  2
STANDARD
 70
0
 40
0.0
 41
0.8
 50
0.0
 71
0
 42
0.2
  3
txt
  4

  0
STYLE
  5
210
100
AcDbSymbolTableRecord
100
AcDbTextStyleTableRecord
  2
TEXTSTYLE_1
 70
0
 40
0.0
 41
0.8
 50
0.0
 71
0
 42
0.2
  3
gdt
  4

  0
ENDTAB
  0
TABLE
  2
VIEW
  5
6
100
AcDbSymbolTable
 70
0
  0
ENDTAB
  0
TABLE
  2
UCS
  5
7
100
AcDbSymbolTable
 70
0
  0
ENDTAB
  0
TABLE
  2
APPID
  5
9
100
AcDbSymbolTable
 70
1
  0
APPID
  5
211
100
AcDbSymbolTableRecord
100
AcDbRegAppTableRecord
  2
ACAD
 70
0
  0
ENDTAB
  0
TABLE
  2
BLOCK_RECORD
  5
1
100
AcDbSymbolTable
 70
0
  0
BLOCK_RECORD
  5
212
100
AcDbSymbolTableRecord
100
AcDbBlockTableRecord
  2
*Model_Space
  0
BLOCK_RECORD
  5
213
100
AcDbSymbolTableRecord
100
AcDbBlockTableRecord
  2
*Paper_Space
  0
BLOCK_RECORD
  5
214
100
AcDbSymbolTableRecord
100
AcDbBlockTableRecord
  2
_FILLED
  0
BLOCK_RECORD
  5
215
100
AcDbSymbolTableRecord
100
AcDbBlockTableRecord
  2
*D0
  0
BLOCK_RECORD
  5
216
100
AcDbSymbolTableRecord
100
AcDbBlockTableRecord
  2
*D1
  0
BLOCK_RECORD
  5
217
100
AcDbSymbolTableRecord
100
AcDbBlockTableRecord
  2
*D2
  0
BLOCK_RECORD
  5
218
100
AcDbSymbolTableRecord
100
AcDbBlockTableRecord
  2
*D3
  0
BLOCK_RECORD
  5
219
100
AcDbSymbolTableRecord
100
AcDbBlockTableRecord
  2
*D4
  0
BLOCK_RECORD
  5
21A
100
AcDbSymbolTableRecord
100
AcDbBlockTableRecord
  2
*D5
  0
ENDTAB
  0
TABLE
  2
DIMSTYLE
  5
A
100
AcDbSymbolTable
 70
1
100
AcDbDimStyleTable
 71
0
  0
DIMSTYLE
105
21B
100
AcDbSymbolTableRecord
100
AcDbDimStyleTableRecord
  2
STANDARD
 70
0
  3

  4

 40
1.0
 41
3.0
 42
0.5
 43
0.38
 44
1.5
 45
0.0
 46
0.0
 47
0.01
 48
0.01
140
3.0
141
0.09
142
0.0
143
25.4
144
1.0
145
0.0
146
1.0
147
0.625
 71
1.0
 72
0.0
 73
0
 74
0
 75
0
 76
0
 77
1
 78
8
170
0
171
2
172
0
173
0
174
0
175
0
176
0
177
0
178
0
270
2
271
2
272
2
273
2
274
2
275
0
280
0
281
0
282
0
283
1
284
8
285
0
286
0
287
3
288
0
340
11
278
44
341
214
342
214
343
214
344
214
  0
DIMSTYLE
105
21C
100
AcDbSymbolTableRecord
100
AcDbDimStyleTableRecord
  2
DIMSTYLE_1
 70
0
  3

  4

 40
1.0
 41
3.0
 42
0.5
 43
0.38
 44
1.5
 45
0.0
 46
0.0
 47
0.0
 48
0.0
140
3.0
141
0.09
142
0.0
143
25.4
144
1.0
145
0.0
146
1.0
147
0.75
 71
0.0
 72
0.0
 73
0
 74
0
 75
0
 76
0
 77
1
 78
8
170
0
171
2
172
0
173
0
174
0
175
0
176
0
177
0
178
0
270
2
271
1
272
1
273
2
274
2
275
0
280
0
281
0
282
0
283
1
284
8
285
0
286
0
287
3
288
0
340
11
278
44
341
214
342
214
343
214
344
214
  0
DIMSTYLE
105
21D
100
AcDbSymbolTableRecord
100
AcDbDimStyleTableRecord
  2
DIMSTYLE_2
 70
0
  3

  4

 40
1.0
 41
3.0
 42
0.5
 43
0.38
 44
1.5
 45
0.0
 46
0.0
 47
0.0
 48
0.0
140
3.0
141
0.09
142
0.0
143
25.4
144
1.0
145
0.0
146
1.0
147
0.75
 71
0.0
 72
0.0
 73
0
 74
0
 75
0
 76
0
 77
1
 78
8
170
0
171
2
172
0
173
0
174
0
175
0
176
0
177
0
178
0
270
2
271
2
272
2
273
2
274
2
275
0
280
0
281
0
282
0
283
1
284
8
285
0
286
0
287
3
288
0
340
11
278
44
341
214
342
214
343
214
344
214
  0
ENDTAB
  0
ENDSEC
  0
SECTION
  2
BLOCKS
  0
BLOCK
  5
20
100
AcDbEntity
  8
0
100
AcDbBlockBegin
  2
*Model_Space
 70
0
 10
0.0
 20
0.0
 30
0.0
  3
*Model_Space
  1

  0
ENDBLK
  5
21
100
AcDbEntity
  8
0
100
AcDbBlockEnd
  0
BLOCK
  5
1C
100
AcDbEntity
  8
0
100
AcDbBlockBegin
  2
*Paper_Space
 70
0
 10
0.0
 20
0.0
 30
0.0
  3
*Paper_Space
  1

  0
ENDBLK
  5
1D
100
AcDbEntity
  8
0
100
AcDbBlockEnd
  0
BLOCK
  5
21E
100
AcDbEntity
  8
0
100
AcDbBlockBegin
  2
_FILLED
 70
64
 10
0.0
 20
0.0
  3
_FILLED
  1

  0
SOLID
  5
21F
100
AcDbEntity
  8
0
  6
BYBLOCK
 62
0
100
AcDbTrace
 10
0.0
 20
0.0
 11
-1.0
 21
0.3166666667
 12
-1.0
 22
-0.3166666667
 13
-1.0
 23
-0.3166666667
  0
ENDBLK
  5
220
100
AcDbEntity
  8
0
  6
BYBLOCK
 62
0
100
AcDbBlockEnd
  0
BLOCK
  5
221
100
AcDbEntity
  8
0
100
AcDbBlockBegin
 62
7
  6
CONTINUOUS
  2
*D0
 70
65
 10
0.0
 20
0.0
  3
*D0
  1

  0
MTEXT
  5
222
100
AcDbEntity
  8
0
100
AcDbMText
 62
7
  6
CONTINUOUS
  7
STANDARD
 71
2
 72
1
 10
52.4026087531
 20
26.2047189301
 30
0.0
 11
1.0
 21
0.0
 31
0.0
 44
0.9
  1
34,6
 40
3.0
 41
12.8571428571
  0
LINE
  5
223
100
AcDbEntity
  8
0
100
AcDbLine
 62
7
  6
CONTINUOUS
 10
35.1095313722
 20
2.698893278
 11
35.1095313722
 21
23.9547189301
  0
LINE
  5
224
100
AcDbEntity
  8
0
100
AcDbLine
 62
7
  6
CONTINUOUS
 10
69.6956861339
 20
2.261634765
 11
69.6956861339
 21
23.9547189301
  0
LINE
  5
225
100
AcDbEntity
  8
0
100
AcDbLine
 62
7
  6
CONTINUOUS
 10
35.1095313722
 20
22.4547189301
 11
52.4026087531
 21
22.4547189301
  0
LINE
  5
226
100
AcDbEntity
  8
0
100
AcDbLine
 62
7
  6
CONTINUOUS
 10
69.6956861339
 20
22.4547189301
 11
52.4026087531
 21
22.4547189301
  0
INSERT
  5
227
100
AcDbEntity
  8
0
100
AcDbBlockReference
 62
7
  6
CONTINUOUS
  2
_FILLED
 10
35.1095313722
 20
22.4547189301
 41
3.0
 42
3.0
 43
3.0
 50
180.0
  0
INSERT
  5
228
100
AcDbEntity
  8
0
100
AcDbBlockReference
 62
7
  6
CONTINUOUS
  2
_FILLED
 10
69.6956861339
 20
22.4547189301
 41
3.0
 42
3.0
 43
3.0
  0
ENDBLK
  5
229
100
AcDbEntity
  8
0
  6
BYBLOCK
 62
0
100
AcDbBlockEnd
  0
BLOCK
  5
22A
100
AcDbEntity
  8
0
100
AcDbBlockBegin
 62
7
  6
CONTINUOUS
  2
*D1
 70
65
 10
0.0
 20
0.0
  3
*D1
  1

  0
MTEXT
  5
22B
100
AcDbEntity
  8
0
100
AcDbMText
 62
7
  6
CONTINUOUS
  7
STANDARD
 71
2
 72
1
 10
45.3519671912
 20
16.2047189301
 30
0.0
 11
1.0
 21
0.0
 31
0.0
 44
0.9
  1
20,5
 40
3.0
 41
12.8571428571
  0
LINE
  5
22C
100
AcDbEntity
  8
0
100
AcDbLine
 62
7
  6
CONTINUOUS
 10
55.5944030102
 20
3.6895630163
 11
55.5944030102
 21
13.9547189301
  0
LINE
  5
22D
100
AcDbEntity
  8
0
100
AcDbLine
 62
7
  6
CONTINUOUS
 10
35.1095313722
 20
2.698893278
 11
35.1095313722
 21
13.9547189301
  0
LINE
  5
22E
100
AcDbEntity
  8
0
100
AcDbLine
 62
7
  6
CONTINUOUS
 10
55.5944030102
 20
12.4547189301
 11
45.3519671912
 21
12.4547189301
  0
LINE
  5
22F
100
AcDbEntity
  8
0
100
AcDbLine
 62
7
  6
CONTINUOUS
 10
35.1095313722
 20
12.4547189301
 11
45.3519671912
 21
12.4547189301
  0
INSERT
  5
230
100
AcDbEntity
  8
0
100
AcDbBlockReference
 62
7
  6
CONTINUOUS
  2
_FILLED
 10
55.5944030102
 20
12.4547189301
 41
3.0
 42
3.0
 43
3.0
 50
0.0
  0
INSERT
  5
231
100
AcDbEntity
  8
0
100
AcDbBlockReference
 62
7
  6
CONTINUOUS
  2
_FILLED
 10
35.1095313722
 20
12.4547189301
 41
3.0
 42
3.0
 43
3.0
 50
180.0
  0
ENDBLK
  5
232
100
AcDbEntity
  8
0
  6
BYBLOCK
 62
0
100
AcDbBlockEnd
  0
BLOCK
  5
233
100
AcDbEntity
  8
0
100
AcDbBlockBegin
 62
7
  6
CONTINUOUS
  2
*D2
 70
65
 10
0.0
 20
0.0
  3
*D2
  1

  0
MTEXT
  5
234
100
AcDbEntity
  8
0
100
AcDbMText
 62
7
  6
CONTINUOUS
  7
STANDARD
 71
2
 72
1
 10
38.4473457348
 20
-17.9713502779
 30
0.0
 11
1.0
 21
0.0
 31
0.0
 44
0.9
  1
132,6
 40
3.0
 41
15.4285714286
  0
LINE
  5
235
100
AcDbEntity
  8
0
100
AcDbLine
 62
7
  6
CONTINUOUS
 10
7.1990053357
 20
-1.4189691236
 11
7.1990053357
 21
-23.2213502779
  0
LINE
  5
236
100
AcDbEntity
  8
0
100
AcDbLine
 62
7
  6
CONTINUOUS
 10
69.6956861339
 20
-2.0995847523
 11
69.6956861339
 21
-23.2213502779
  0
LINE
  5
237
100
AcDbEntity
  8
0
100
AcDbLine
 62
7
  6
CONTINUOUS
 10
7.1990053357
 20
-21.7213502779
 11
38.4473457348
 21
-21.7213502779
  0
LINE
  5
238
100
AcDbEntity
  8
0
100
AcDbLine
 62
7
  6
CONTINUOUS
 10
69.6956861339
 20
-21.7213502779
 11
38.4473457348
 21
-21.7213502779
  0
INSERT
  5
239
100
AcDbEntity
  8
0
100
AcDbBlockReference
 62
7
  6
CONTINUOUS
  2
_FILLED
 10
7.1990053357
 20
-21.7213502779
 41
3.0
 42
3.0
 43
3.0
 50
180.0
  0
INSERT
  5
23A
100
AcDbEntity
  8
0
100
AcDbBlockReference
 62
7
  6
CONTINUOUS
  2
_FILLED
 10
69.6956861339
 20
-21.7213502779
 41
3.0
 42
3.0
 43
3.0
  0
ENDBLK
  5
23B
100
AcDbEntity
  8
0
  6
BYBLOCK
 62
0
100
AcDbBlockEnd
  0
BLOCK
  5
23C
100
AcDbEntity
  8
0
100
AcDbBlockBegin
 62
7
  6
CONTINUOUS
  2
*D3
 70
65
 10
0.0
 20
0.0
  3
*D3
  1

  0
MTEXT
  5
23D
100
AcDbEntity
  8
0
100
AcDbMText
 62
7
  6
CONTINUOUS
  7
STANDARD
 71
2
 72
1
 10
12.1990053357
 20
-7.9713502779
 30
0.0
 11
1.0
 21
0.0
 31
0.0
 44
0.9
  1
10
 40
3.0
 41
6.1071428571
  0
LINE
  5
23E
100
AcDbEntity
  8
0
100
AcDbLine
 62
7
  6
CONTINUOUS
 10
17.1990053357
 20
-2.1689691236
 11
17.1990053357
 21
-13.2213502779
  0
LINE
  5
23F
100
AcDbEntity
  8
0
100
AcDbLine
 62
7
  6
CONTINUOUS
 10
7.1990053357
 20
-1.4189691236
 11
7.1990053357
 21
-13.2213502779
  0
LINE
  5
240
100
AcDbEntity
  8
0
100
AcDbLine
 62
7
  6
CONTINUOUS
 10
17.1990053357
 20
-11.7213502779
 11
21.1990053357
 21
-11.7213502779
  0
LINE
  5
241
100
AcDbEntity
  8
0
100
AcDbLine
 62
7
  6
CONTINUOUS
 10
21.1990053357
 20
-11.7213502779
 11
12.1990053357
 21
-11.7213502779
  0
LINE
  5
242
100
AcDbEntity
  8
0
100
AcDbLine
 62
7
  6
CONTINUOUS
 10
7.1990053357
 20
-11.7213502779
 11
3.1990053357
 21
-11.7213502779
  0
LINE
  5
243
100
AcDbEntity
  8
0
100
AcDbLine
 62
7
  6
CONTINUOUS
 10
3.1990053357
 20
-11.7213502779
 11
12.1990053357
 21
-11.7213502779
  0
INSERT
  5
244
100
AcDbEntity
  8
0
100
AcDbBlockReference
 62
7
  6
CONTINUOUS
  2
_FILLED
 10
17.1990053357
 20
-11.7213502779
 41
3.0
 42
3.0
 43
3.0
 50
180.0
  0
INSERT
  5
245
100
AcDbEntity
  8
0
100
AcDbBlockReference
 62
7
  6
CONTINUOUS
  2
_FILLED
 10
7.1990053357
 20
-11.7213502779
 41
3.0
 42
3.0
 43
3.0
  0
ENDBLK
  5
246
100
AcDbEntity
  8
0
  6
BYBLOCK
 62
0
100
AcDbBlockEnd
  0
BLOCK
  5
247
100
AcDbEntity
  8
0
100
AcDbBlockBegin
 62
7
  6
CONTINUOUS
  2
*D4
 70
65
 10
0.0
 20
0.0
  3
*D4
  1

  0
MTEXT
  5
248
100
AcDbEntity
  8
0
100
AcDbMText
 62
7
  6
CONTINUOUS
  7
STANDARD
 71
2
 72
1
 10
-15.5622550361
 20
16.2047189301
 30
0.0
 11
1.0
 21
0.0
 31
0.0
 44
0.9
  1
7,5
 40
3.0
 41
9.3214285714
  0
LINE
  5
249
100
AcDbEntity
  8
0
100
AcDbLine
 62
7
  6
CONTINUOUS
 10
-19.3122550361
 20
3.279967828
 11
-19.3122550361
 21
13.9547189301
  0
LINE
  5
24A
100
AcDbEntity
  8
0
100
AcDbLine
 62
7
  6
CONTINUOUS
 10
-11.8122550361
 20
3.7895592152
 11
-11.8122550361
 21
13.9547189301
  0
LINE
  5
24B
100
AcDbEntity
  8
0
100
AcDbLine
 62
7
  6
CONTINUOUS
 10
-19.3122550361
 20
12.4547189301
 11
-23.3122550361
 21
12.4547189301
  0
LINE
  5
24C
100
AcDbEntity
  8
0
100
AcDbLine
 62
7
  6
CONTINUOUS
 10
-23.3122550361
 20
12.4547189301
 11
-15.5622550361
 21
12.4547189301
  0
LINE
  5
24D
100
AcDbEntity
  8
0
100
AcDbLine
 62
7
  6
CONTINUOUS
 10
-11.8122550361
 20
12.4547189301
 11
-7.8122550361
 21
12.4547189301
  0
LINE
  5
24E
100
AcDbEntity
  8
0
100
AcDbLine
 62
7
  6
CONTINUOUS
 10
-7.8122550361
 20
12.4547189301
 11
-15.5622550361
 21
12.4547189301
  0
INSERT
  5
24F
100
AcDbEntity
  8
0
100
AcDbBlockReference
 62
7
  6
CONTINUOUS
  2
_FILLED
 10
-19.3122550361
 20
12.4547189301
 41
3.0
 42
3.0
 43
3.0
  0
INSERT
  5
250
100
AcDbEntity
  8
0
100
AcDbBlockReference
 62
7
  6
CONTINUOUS
  2
_FILLED
 10
-11.8122550361
 20
12.4547189301
 41
3.0
 42
3.0
 43
3.0
 50
180.0
  0
ENDBLK
  5
251
100
AcDbEntity
  8
0
  6
BYBLOCK
 62
0
100
AcDbBlockEnd
  0
BLOCK
  5
252
100
AcDbEntity
  8
0
100
AcDbBlockBegin
 62
7
  6
CONTINUOUS
  2
*D5
 70
65
 10
0.0
 20
0.0
  3
*D5
  1

  0
MTEXT
  5
253
100
AcDbEntity
  8
0
100
AcDbMText
 62
7
  6
CONTINUOUS
  7
STANDARD
 71
2
 72
1
 10
-7.5622550361
 20
0.0810308764
 30
0.0
 11
0.0
 21
1.0
 31
0.0
 44
0.9
  1
7,5
 40
3.0
 41
9.3214285714
  0
LINE
  5
254
100
AcDbEntity
  8
0
100
AcDbLine
 62
7
  6
CONTINUOUS
 10
-16.5622550361
 20
3.8310308764
 11
-2.3122550361
 21
3.8310308764
  0
LINE
  5
255
100
AcDbEntity
  8
0
100
AcDbLine
 62
7
  6
CONTINUOUS
 10
-16.5622550361
 20
-3.6689691236
 11
-2.3122550361
 21
-3.6689691236
  0
LINE
  5
256
100
AcDbEntity
  8
0
100
AcDbLine
 62
7
  6
CONTINUOUS
 10
-3.8122550361
 20
3.8310308764
 11
-3.8122550361
 21
7.8310308764
  0
LINE
  5
257
100
AcDbEntity
  8
0
100
AcDbLine
 62
7
  6
CONTINUOUS
 10
-3.8122550361
 20
7.8310308764
 11
-3.8122550361
 21
0.0810308764
  0
LINE
  5
258
100
AcDbEntity
  8
0
100
AcDbLine
 62
7
  6
CONTINUOUS
 10
-3.8122550361
 20
-3.6689691236
 11
-3.8122550361
 21
-7.6689691236
  0
LINE
  5
259
100
AcDbEntity
  8
0
100
AcDbLine
 62
7
  6
CONTINUOUS
 10
-3.8122550361
 20
-7.6689691236
 11
-3.8122550361
 21
0.0810308764
  0
INSERT
  5
25A
100
AcDbEntity
  8
0
100
AcDbBlockReference
 62
7
  6
CONTINUOUS
  2
_FILLED
 10
-3.8122550361
 20
3.8310308764
 41
3.0
 42
3.0
 43
3.0
 50
270.0
  0
INSERT
  5
25B
100
AcDbEntity
  8
0
100
AcDbBlockReference
 62
7
  6
CONTINUOUS
  2
_FILLED
 10
-3.8122550361
 20
-3.6689691236
 41
3.0
 42
3.0
 43
3.0
 50
90.0
  0
ENDBLK
  5
25C
100
AcDbEntity
  8
0
  6
BYBLOCK
 62
0
100
AcDbBlockEnd
  0
ENDSEC
  0
SECTION
  2
ENTITIES
  0
DIMENSION
  5
25D
100
AcDbEntity
  8
0
100
AcDbDimension
 62
7
  6
CONTINUOUS
  2
*D0
 10
69.6956861339
 20
22.4547189301
 11
51.9740369797
 21
22.4547189301
 70
160
 71
2
 42
34.5861547618
  3
DIMSTYLE_1
100
AcDbAlignedDimension
 13
35.1095313722
 23
2.198893278
 14
69.6956861339
 24
1.761634765
100
AcDbRotatedDimension
  0
DIMENSION
  5
25E
100
AcDbEntity
  8
0
100
AcDbDimension
 62
7
  6
CONTINUOUS
  2
*D1
 10
35.1095313722
 20
12.4547189301
 11
44.9233958359
 21
12.4547189301
 70
160
 71
2
 42
20.484871638
  3
DIMSTYLE_1
100
AcDbAlignedDimension
 13
55.5944030102
 23
3.1895630163
 14
35.1095313722
 24
2.198893278
 50
180.0
100
AcDbRotatedDimension
  0
DIMENSION
  5
25F
100
AcDbEntity
  8
0
100
AcDbDimension
 62
7
  6
CONTINUOUS
  2
*D2
 10
69.6956861339
 20
-21.7213502779
 11
38.0187734985
 21
-21.7213502779
 70
160
 71
2
 42
132.5597924241
  3
DIMSTYLE_1
100
AcDbAlignedDimension
 13
7.1990053357
 23
-0.9189691236
 14
69.6956861339
 24
-1.5995847523
100
AcDbRotatedDimension
  0
DIMENSION
  5
260
100
AcDbEntity
  8
0
100
AcDbDimension
 62
7
  6
CONTINUOUS
  2
*D3
 10
7.1990053357
 20
-11.7213502779
 11
11.7704337788
 21
-11.7213502779
 70
160
 71
2
 42
10.0
  3
DIMSTYLE_2
100
AcDbAlignedDimension
 13
17.1990053357
 23
-1.6689691236
 14
7.1990053357
 24
-0.9189691236
 50
180.0
100
AcDbRotatedDimension
  0
DIMENSION
  5
261
100
AcDbEntity
  8
0
100
AcDbDimension
 62
7
  6
CONTINUOUS
  2
*D4
 10
-11.8122550361
 20
12.4547189301
 11
-15.9908261662
 21
12.4547189301
 70
160
 71
2
 42
7.5
  3
DIMSTYLE_2
100
AcDbAlignedDimension
 13
-19.3122550361
 23
2.779967828
 14
-11.8122550361
 24
3.2895592152
100
AcDbRotatedDimension
  0
DIMENSION
  5
262
100
AcDbEntity
  8
0
100
AcDbDimension
 62
7
  6
CONTINUOUS
  2
*D5
 10
-3.8122550361
 20
-3.6689691236
 11
-3.8122550361
 21
-0.3475405259
 70
160
 71
2
 42
7.5
  3
DIMSTYLE_2
100
AcDbAlignedDimension
 13
-17.0622550361
 23
3.8310308764
 14
-17.0622550361
 24
-3.6689691236
 50
270.0
100
AcDbRotatedDimension
  0
LINE
  5
263
100
AcDbEntity
  8
0
100
AcDbLine
 62
7
  6
CONTINUOUS
 10
7.1990053357
 20
-1.3189691236
 11
7.1990053357
 21
-0.5189691236
  0
LINE
  5
264
100
AcDbEntity
  8
0
100
AcDbLine
 62
7
  6
CONTINUOUS
 10
7.1990053357
 20
0.6810308764
 11
7.1990053357
 21
1.4810308764
  0
LINE
  5
265
100
AcDbEntity
  8
0
100
AcDbLine
 62
7
  6
CONTINUOUS
 10
23.0784401235
 20
-1.6689691236
 11
17.1990053357
 21
-1.6689691236
  0
LINE
  5
266
100
AcDbEntity
  8
0
100
AcDbLine
 62
7
  6
CONTINUOUS
 10
17.1990053357
 20
-1.3189691236
 11
7.1990053357
 21
-1.3189691236
  0
LINE
  5
267
100
AcDbEntity
  8
0
100
AcDbLine
 62
7
  6
CONTINUOUS
 10
17.1990053357
 20
-0.5189691236
 11
7.1990053357
 21
-0.5189691236
  0
LINE
  5
268
100
AcDbEntity
  8
0
100
AcDbLine
 62
7
  6
CONTINUOUS
 10
23.0784401235
 20
-0.1689691236
 11
17.1990053357
 21
-0.1689691236
  0
LINE
  5
269
100
AcDbEntity
  8
0
100
AcDbLine
 62
7
  6
CONTINUOUS
 10
23.0784401235
 20
0.3310308764
 11
17.1990053357
 21
0.3310308764
  0
LINE
  5
26A
100
AcDbEntity
  8
0
100
AcDbLine
 62
7
  6
CONTINUOUS
 10
17.1990053357
 20
0.6810308764
 11
7.1990053357
 21
0.6810308764
  0
LINE
  5
26B
100
AcDbEntity
  8
0
100
AcDbLine
 62
7
  6
CONTINUOUS
 10
17.1990053357
 20
1.4810308764
 11
7.1990053357
 21
1.4810308764
  0
LINE
  5
26C
100
AcDbEntity
  8
0
100
AcDbLine
 62
7
  6
CONTINUOUS
 10
23.0784401235
 20
1.8310308764
 11
17.1990053357
 21
1.8310308764
  0
LINE
  5
26D
100
AcDbEntity
  8
0
100
AcDbLine
 62
7
  6
CONTINUOUS
 10
17.1990053357
 20
-1.6689691236
 11
17.1990053357
 21
-0.1689691236
  0
LINE
  5
26E
100
AcDbEntity
  8
0
100
AcDbLine
 62
7
  6
CONTINUOUS
 10
17.1990053357
 20
0.3310308764
 11
17.1990053357
 21
1.8310308764
  0
LINE
  5
26F
100
AcDbEntity
  8
0
100
AcDbLine
 62
7
  6
CONTINUOUS
 10
23.0784401235
 20
-1.6689691236
 11
23.0784401235
 21
-0.1689691236
  0
LINE
  5
270
100
AcDbEntity
  8
0
100
AcDbLine
 62
7
  6
CONTINUOUS
 10
23.0784401235
 20
0.3310308764
 11
23.0784401235
 21
1.8310308764
  0
LINE
  5
271
100
AcDbEntity
  8
0
100
AcDbLine
 62
7
  6
CONTINUOUS
 10
25.9305542368
 20
1.8310308764
 11
25.9305542368
 21
0.3310308764
  0
LINE
  5
272
100
AcDbEntity
  8
0
100
AcDbLine
 62
7
  6
CONTINUOUS
 10
25.9305542368
 20
-0.1689691236
 11
25.9305542368
 21
-1.6689691236
  0
LINE
  5
273
100
AcDbEntity
  8
DRAFT
100
AcDbLine
 62
7
  6
CONTINUOUS
 10
33.1367722174
 20
2.1042669846
 11
33.1383907465
 21
2.0107035608
  0
LINE
  5
274
100
AcDbEntity
  8
ASSI
100
AcDbLine
 62
7
  6
CONTINUOUS
 10
33.1367722174
 20
2.1042669846
 11
33.1383907465
 21
2.0107035608
  0
LINE
  5
275
100
AcDbEntity
  8
RACCORDO
100
AcDbLine
 62
7
  6
CONTINUOUS
 10
33.1474436705
 20
2.3108516803
 11
33.1457597993
 21
2.4481961072
  0
LINE
  5
276
100
AcDbEntity
  8
ASSI
100
AcDbLine
 62
7
  6
CONTINUOUS
 10
33.1474436705
 20
2.3108516803
 11
33.1457597993
 21
2.4481961072
  0
LINE
  5
277
100
AcDbEntity
  8
DRAFT
100
AcDbLine
 62
7
  6
CONTINUOUS
 10
33.1383907465
 20
2.0107035608
 11
33.1402716947
 21
1.8310308764
  0
LINE
  5
278
100
AcDbEntity
  8
ASSI
100
AcDbLine
 62
7
  6
CONTINUOUS
 10
33.1383907465
 20
2.0107035608
 11
33.1402716947
 21
1.8310308764
  0
LINE
  5
279
100
AcDbEntity
  8
DRAFT
100
AcDbLine
 62
7
  6
CONTINUOUS
 10
33.1385031551
 20
0.0024497855
 11
33.1402699903
 21
-0.1689691236
  0
LINE
  5
27A
100
AcDbEntity
  8
ASSI
100
AcDbLine
 62
7
  6
CONTINUOUS
 10
33.1385031551
 20
0.0024497855
 11
33.1402699903
 21
-0.1689691236
  0
LINE
  5
27B
100
AcDbEntity
  8
DRAFT
100
AcDbLine
 62
7
  6
CONTINUOUS
 10
33.145779158
 20
-0.2023788234
 11
33.1437368821
 21
0.0023009334
  0
LINE
  5
27C
100
AcDbEntity
  8
ASSI
100
AcDbLine
 62
7
  6
CONTINUOUS
 10
33.145779158
 20
-0.2023788234
 11
33.1437368821
 21
0.0023009334
  0
LINE
  5
27D
100
AcDbEntity
  8
RACCORDO
100
AcDbLine
 62
7
  6
CONTINUOUS
 10
33.1500734262
 20
1.9781448029
 11
33.1474436705
 21
2.3108516803
  0
LINE
  5
27E
100
AcDbEntity
  8
ASSI
100
AcDbLine
 62
7
  6
CONTINUOUS
 10
33.1500734262
 20
1.9781448029
 11
33.1474436705
 21
2.3108516803
  0
LINE
  5
27F
100
AcDbEntity
  8
DRAFT
100
AcDbLine
 62
7
  6
CONTINUOUS
 10
33.147829175
 20
-0.6611926221
 11
33.145779158
 21
-0.2023788234
  0
LINE
  5
280
100
AcDbEntity
  8
ASSI
100
AcDbLine
 62
7
  6
CONTINUOUS
 10
33.147829175
 20
-0.6611926221
 11
33.145779158
 21
-0.2023788234
  0
LINE
  5
281
100
AcDbEntity
  8
RACCORDO
100
AcDbLine
 62
7
  6
CONTINUOUS
 10
33.1521851144
 20
-0.5948281231
 11
33.1494116246
 21
0.0810308764
  0
LINE
  5
282
100
AcDbEntity
  8
ASSI
100
AcDbLine
 62
7
  6
CONTINUOUS
 10
33.1521851144
 20
-0.5948281231
 11
33.1494116246
 21
0.0810308764
  0
LINE
  5
283
100
AcDbEntity
  8
RACCORDO
100
AcDbLine
 62
7
  6
CONTINUOUS
 10
33.1523649371
 20
1.2811972203
 11
33.1500734262
 21
1.9781448029
  0
LINE
  5
284
100
AcDbEntity
  8
ASSI
100
AcDbLine
 62
7
  6
CONTINUOUS
 10
33.1523649371
 20
1.2811972203
 11
33.1500734262
 21
1.9781448029
  0
LINE
  5
285
100
AcDbEntity
  8
DRAFT
100
AcDbLine
 62
7
  6
CONTINUOUS
 10
33.1358937099
 20
-2.3189691236
 11
33.1358937099
 21
-2.0179791685
  0
LINE
  5
286
100
AcDbEntity
  8
ASSI
100
AcDbLine
 62
7
  6
CONTINUOUS
 10
33.1358937099
 20
-2.3189691236
 11
33.1358937099
 21
-2.0179791685
  0
LINE
  5
287
100
AcDbEntity
  8
DRAFT
100
AcDbLine
 62
7
  6
CONTINUOUS
 10
33.1358937099
 20
2.1800409212
 11
33.1358937099
 21
2.4810308764
  0
LINE
  5
288
100
AcDbEntity
  8
ASSI
100
AcDbLine
 62
7
  6
CONTINUOUS
 10
33.1358937099
 20
2.1800409212
 11
33.1358937099
 21
2.4810308764
  0
LINE
  5
289
100
AcDbEntity
  8
DRAFT
100
AcDbLine
 62
7
  6
CONTINUOUS
 10
33.1385031551
 20
0.1596119673
 11
33.1385031551
 21
0.0024497855
  0
LINE
  5
28A
100
AcDbEntity
  8
ASSI
100
AcDbLine
 62
7
  6
CONTINUOUS
 10
33.1385031551
 20
0.1596119673
 11
33.1385031551
 21
0.0024497855
  0
LINE
  5
28B
100
AcDbEntity
  8
DRAFT
100
AcDbLine
 62
7
  6
CONTINUOUS
 10
33.1437368821
 20
0.0023009334
 11
33.1437368821
 21
0.1597608193
  0
LINE
  5
28C
100
AcDbEntity
  8
ASSI
100
AcDbLine
 62
7
  6
CONTINUOUS
 10
33.1437368821
 20
0.0023009334
 11
33.1437368821
 21
0.1597608193
  0
LINE
  5
28D
100
AcDbEntity
  8
DRAFT
100
AcDbLine
 62
7
  6
CONTINUOUS
 10
33.1475745835
 20
-1.276685107
 11
33.147829175
 21
-0.6611926221
  0
LINE
  5
28E
100
AcDbEntity
  8
ASSI
100
AcDbLine
 62
7
  6
CONTINUOUS
 10
33.1475745835
 20
-1.276685107
 11
33.147829175
 21
-0.6611926221
  0
LINE
  5
28F
100
AcDbEntity
  8
RACCORDO
100
AcDbLine
 62
7
  6
CONTINUOUS
 10
33.1517947925
 20
-1.4121846087
 11
33.1521851144
 21
-0.5948281231
  0
LINE
  5
290
100
AcDbEntity
  8
ASSI
100
AcDbLine
 62
7
  6
CONTINUOUS
 10
33.1517947925
 20
-1.4121846087
 11
33.1521851144
 21
-0.5948281231
  0
LINE
  5
291
100
AcDbEntity
  8
RACCORDO
100
AcDbLine
 62
7
  6
CONTINUOUS
 10
33.1514125412
 20
0.468917713
 11
33.1523649371
 21
1.2811972203
  0
LINE
  5
292
100
AcDbEntity
  8
ASSI
100
AcDbLine
 62
7
  6
CONTINUOUS
 10
33.1514125412
 20
0.468917713
 11
33.1523649371
 21
1.2811972203
  0
LINE
  5
293
100
AcDbEntity
  8
RACCORDO
100
AcDbLine
 62
7
  6
CONTINUOUS
 10
33.1494116246
 20
0.0810308764
 11
33.1514125412
 21
0.468917713
  0
LINE
  5
294
100
AcDbEntity
  8
ASSI
100
AcDbLine
 62
7
  6
CONTINUOUS
 10
33.1494116246
 20
0.0810308764
 11
33.1514125412
 21
0.468917713
  0
LINE
  5
295
100
AcDbEntity
  8
DRAFT
100
AcDbLine
 62
7
  6
CONTINUOUS
 10
33.1457778487
 20
-1.6357338453
 11
33.1475745835
 21
-1.276685107
  0
LINE
  5
296
100
AcDbEntity
  8
ASSI
100
AcDbLine
 62
7
  6
CONTINUOUS
 10
33.1457778487
 20
-1.6357338453
 11
33.1475745835
 21
-1.276685107
  0
LINE
  5
297
100
AcDbEntity
  8
RACCORDO
100
AcDbLine
 62
7
  6
CONTINUOUS
 10
33.1492902636
 20
-1.93607647
 11
33.1517947925
 21
-1.4121846087
  0
LINE
  5
298
100
AcDbEntity
  8
ASSI
100
AcDbLine
 62
7
  6
CONTINUOUS
 10
33.1492902636
 20
-1.93607647
 11
33.1517947925
 21
-1.4121846087
  0
LINE
  5
299
100
AcDbEntity
  8
DRAFT
100
AcDbLine
 62
7
  6
CONTINUOUS
 10
33.1402699903
 20
0.3310308764
 11
33.1385031551
 21
0.1596119673
  0
LINE
  5
29A
100
AcDbEntity
  8
ASSI
100
AcDbLine
 62
7
  6
CONTINUOUS
 10
33.1402699903
 20
0.3310308764
 11
33.1385031551
 21
0.1596119673
  0
LWPOLYLINE
  5
29B
100
AcDbEntity
  8
RACCORDO
100
AcDbPolyline
 62
7
  6
CONTINUOUS
 90
3
 70
0
 10
33.146402003
 20
-2.2390128145
 10
33.1469327586
 20
-2.1952416412
 10
33.1492902636
 20
-1.93607647
  0
LWPOLYLINE
  5
29C
100
AcDbEntity
  8
ASSI
100
AcDbPolyline
 62
7
  6
CONTINUOUS
 90
3
 70
0
 10
33.146402003
 20
-2.2390128145
 10
33.1469327586
 20
-2.1952416412
 10
33.1492902636
 20
-1.93607647
  0
LWPOLYLINE
  5
29D
100
AcDbEntity
  8
DRAFT
100
AcDbPolyline
 62
7
  6
CONTINUOUS
 90
4
 70
0
 10
33.1402716947
 20
-1.6689691236
 10
33.1383907465
 20
-1.8486418081
 10
33.1376045629
 20
-1.8996239437
 10
33.1367722174
 20
-1.9422052319
  0
LWPOLYLINE
  5
29E
100
AcDbEntity
  8
ASSI
100
AcDbPolyline
 62
7
  6
CONTINUOUS
 90
4
 70
0
 10
33.1402716947
 20
-1.6689691236
 10
33.1383907465
 20
-1.8486418081
 10
33.1376045629
 20
-1.8996239437
 10
33.1367722174
 20
-1.9422052319
  0
LWPOLYLINE
  5
29F
100
AcDbEntity
  8
0
100
AcDbPolyline
 62
7
  6
CONTINUOUS
 90
24
 70
0
 10
33.573661635
 20
0.8713864808
 10
33.5687076955
 20
0.9185934407
 10
33.5650717092
 20
0.9639676641
 10
33.5626177407
 20
1.0072992216
 10
33.5614817255
 20
1.0487041319
 10
33.5612230645
 20
1.0887447859
 10
33.5617444758
 20
1.127374437
 10
33.5631432415
 20
1.1645930417
 10
33.5652706083
 20
1.2010403199
 10
33.5680519441
 20
1.236706455
 10
33.5715618811
 20
1.2715717575
 10
33.5758755623
 20
1.3062580165
 10
33.5809633648
 20
1.3409324484
 10
33.5868549114
 20
1.3753950778
 10
33.5937142136
 20
1.4097118534
 10
33.6015486479
 20
1.4439924929
 10
33.6103508378
 20
1.4780933376
 10
33.6202626645
 20
1.5117042229
 10
33.6312947891
 20
1.5448359279
 10
33.6434365505
 20
1.5774569485
 10
33.6567978467
 20
1.6092069296
 10
33.6714153101
 20
1.6399693829
 10
33.6872523081
 20
1.6698636402
 10
33.7043088409
 20
1.6988924168
  0
LWPOLYLINE
  5
2A0
100
AcDbEntity
  8
RACCORDO
100
AcDbPolyline
 62
7
  6
CONTINUOUS
 90
6
 70
0
 10
33.1454692411
 20
2.4623559426
 10
33.1453675056
 20
2.4657223652
 10
33.1452645635
 20
2.4683711582
 10
33.1451607851
 20
2.4702900611
 10
33.1450558001
 20
2.4714913342
 10
33.1449496084
 20
2.4719749778
  0
LWPOLYLINE
  5
2A1
100
AcDbEntity
  8
ASSI
100
AcDbPolyline
 62
7
  6
CONTINUOUS
 90
6
 70
0
 10
33.1454692411
 20
2.4623559426
 10
33.1453675056
 20
2.4657223652
 10
33.1452645635
 20
2.4683711582
 10
33.1451607851
 20
2.4702900611
 10
33.1450558001
 20
2.4714913342
 10
33.1449496084
 20
2.4719749778
  0
LINE
  5
2A2
100
AcDbEntity
  8
DRAFT
100
AcDbLine
 62
7
  6
CONTINUOUS
 10
33.1358937099
 20
2.1384474253
 11
33.1367722174
 21
2.1042669846
  0
LINE
  5
2A3
100
AcDbEntity
  8
ASSI
100
AcDbLine
 62
7
  6
CONTINUOUS
 10
33.1358937099
 20
2.1384474253
 11
33.1367722174
 21
2.1042669846
  0
LWPOLYLINE
  5
2A4
100
AcDbEntity
  8
RACCORDO
100
AcDbPolyline
 62
7
  6
CONTINUOUS
 90
3
 70
0
 10
33.1457597993
 20
2.4481961072
 10
33.1456653879
 20
2.4535928136
 10
33.1454692411
 20
2.4623559426
  0
LWPOLYLINE
  5
2A5
100
AcDbEntity
  8
ASSI
100
AcDbPolyline
 62
7
  6
CONTINUOUS
 90
3
 70
0
 10
33.1457597993
 20
2.4481961072
 10
33.1456653879
 20
2.4535928136
 10
33.1454692411
 20
2.4623559426
  0
LINE
  5
2A6
100
AcDbEntity
  8
RACCORDO
100
AcDbLine
 62
7
  6
CONTINUOUS
 10
33.1456653879
 20
-2.2915310609
 11
33.146402003
 21
-2.2390128145
  0
LINE
  5
2A7
100
AcDbEntity
  8
ASSI
100
AcDbLine
 62
7
  6
CONTINUOUS
 10
33.1456653879
 20
-2.2915310609
 11
33.146402003
 21
-2.2390128145
  0
LINE
  5
2A8
100
AcDbEntity
  8
DRAFT
100
AcDbLine
 62
7
  6
CONTINUOUS
 10
33.1367722174
 20
-1.9422052319
 11
33.1358937099
 21
-1.9763856726
  0
LINE
  5
2A9
100
AcDbEntity
  8
ASSI
100
AcDbLine
 62
7
  6
CONTINUOUS
 10
33.1367722174
 20
-1.9422052319
 11
33.1358937099
 21
-1.9763856726
  0
LWPOLYLINE
  5
2AA
100
AcDbEntity
  8
DRAFT
100
AcDbPolyline
 62
7
  6
CONTINUOUS
 90
8
 70
0
 10
33.1385117702
 20
-2.0179791685
 10
33.1394872741
 20
-2.0121243427
 10
33.1403886217
 20
-1.9965285443
 10
33.1412661026
 20
-1.9715364219
 10
33.1421197704
 20
-1.9368770741
 10
33.1429495714
 20
-1.8928214023
 10
33.143732573
 20
-1.8405601674
 10
33.1457778487
 20
-1.6357338453
  0
LWPOLYLINE
  5
2AB
100
AcDbEntity
  8
ASSI
100
AcDbPolyline
 62
7
  6
CONTINUOUS
 90
8
 70
0
 10
33.1385117702
 20
-2.0179791685
 10
33.1394872741
 20
-2.0121243427
 10
33.1403886217
 20
-1.9965285443
 10
33.1412661026
 20
-1.9715364219
 10
33.1421197704
 20
-1.9368770741
 10
33.1429495714
 20
-1.8928214023
 10
33.143732573
 20
-1.8405601674
 10
33.1457778487
 20
-1.6357338453
  0
LWPOLYLINE
  5
2AC
100
AcDbEntity
  8
RACCORDO
100
AcDbPolyline
 62
7
  6
CONTINUOUS
 90
7
 70
0
 10
33.1449496084
 20
-2.3099132251
 10
33.1450558001
 20
-2.3094295815
 10
33.1451607851
 20
-2.3082283083
 10
33.1452645635
 20
-2.3063094055
 10
33.1453675056
 20
-2.3036606125
 10
33.1454692411
 20
-2.3002941899
 10
33.1456653879
 20
-2.2915310609
  0
LWPOLYLINE
  5
2AD
100
AcDbEntity
  8
ASSI
100
AcDbPolyline
 62
7
  6
CONTINUOUS
 90
7
 70
0
 10
33.1449496084
 20
-2.3099132251
 10
33.1450558001
 20
-2.3094295815
 10
33.1451607851
 20
-2.3082283083
 10
33.1452645635
 20
-2.3063094055
 10
33.1453675056
 20
-2.3036606125
 10
33.1454692411
 20
-2.3002941899
 10
33.1456653879
 20
-2.2915310609
  0
LWPOLYLINE
  5
2AE
100
AcDbEntity
  8
0
100
AcDbPolyline
 62
7
  6
CONTINUOUS
 90
5
 70
0
 10
33.5930366781
 20
-0.59248641
 10
33.6127197496
 20
-0.5135585867
 10
33.637980505
 20
-0.4390570947
 10
33.6685102021
 20
-0.3682292155
 10
33.7043088409
 20
-0.3011075832
  0
LWPOLYLINE
  5
2AF
100
AcDbEntity
  8
RACCORDO
100
AcDbPolyline
 62
253
  6
CONTINUOUS
 90
9
 70
0
 10
34.9431599573
 20
-2.1022688202
 10
34.9462021041
 20
-2.1369907432
 10
34.9552258518
 20
-2.1706588198
 10
34.9699575168
 20
-2.2022502842
 10
34.9899500311
 20
-2.2308053771
 10
35.0145963978
 20
-2.2554563652
 10
35.0431480332
 20
-2.2754539882
 10
35.0747376713
 20
-2.2901904221
 10
35.1074527832
 20
-2.2989621721
  0
LWPOLYLINE
  5
2B0
100
AcDbEntity
  8
ASSI
100
AcDbPolyline
 62
253
  6
CONTINUOUS
 90
9
 70
0
 10
34.9431599573
 20
-2.1022688202
 10
34.9462021041
 20
-2.1369907432
 10
34.9552258518
 20
-2.1706588198
 10
34.9699575168
 20
-2.2022502842
 10
34.9899500311
 20
-2.2308053771
 10
35.0145963978
 20
-2.2554563652
 10
35.0431480332
 20
-2.2754539882
 10
35.0747376713
 20
-2.2901904221
 10
35.1074527832
 20
-2.2989621721
  0
LWPOLYLINE
  5
2B1
100
AcDbEntity
  8
RACCORDO
100
AcDbPolyline
 62
7
  6
CONTINUOUS
 90
4
 70
0
 10
36.116971089
 20
-2.3863518625
 10
36.1165778831
 20
-2.3808232298
 10
36.1162049094
 20
-2.3702661288
 10
36.1158521679
 20
-2.3546805595
  0
LWPOLYLINE
  5
2B2
100
AcDbEntity
  8
RACCORDO
100
AcDbPolyline
 62
253
  6
CONTINUOUS
 90
16
 70
0
 10
35.1463697883
 20
-2.9585844281
 10
35.1496947083
 20
-3.0214762791
 10
35.1595944671
 20
-3.0836747921
 10
35.1759598936
 20
-3.1444944995
 10
35.1986136502
 20
-3.2032720484
 10
35.2273043739
 20
-3.2593521415
 10
35.2617023596
 20
-3.3120982903
 10
35.301412976
 20
-3.3609226751
 10
35.3460010071
 20
-3.405305175
 10
35.3949879751
 20
-3.444775069
 10
35.4479139643
 20
-3.4789443333
 10
35.5041272538
 20
-3.5073760237
 10
35.5627673056
 20
-3.5296800264
 10
35.6230821684
 20
-3.5456695809
 10
35.6844761671
 20
-3.5552823145
 10
35.7462784054
 20
-3.5584930452
  0
LWPOLYLINE
  5
2B3
100
AcDbEntity
  8
RACCORDO
100
AcDbPolyline
 62
253
  6
CONTINUOUS
 90
7
 70
0
 10
34.9462182966
 20
2.2062327651
 10
34.9457613863
 20
2.2233007352
 10
34.9452709472
 20
2.2377559716
 10
34.9447638934
 20
2.2491331099
 10
34.9442458628
 20
2.2572770289
 10
34.9437112174
 20
2.2623428499
 10
34.9431599573
 20
2.2643305729
  0
LWPOLYLINE
  5
2B4
100
AcDbEntity
  8
ASSI
100
AcDbPolyline
 62
253
  6
CONTINUOUS
 90
7
 70
0
 10
34.9462182966
 20
2.2062327651
 10
34.9457613863
 20
2.2233007352
 10
34.9452709472
 20
2.2377559716
 10
34.9447638934
 20
2.2491331099
 10
34.9442458628
 20
2.2572770289
 10
34.9437112174
 20
2.2623428499
 10
34.9431599573
 20
2.2643305729
  0
LWPOLYLINE
  5
2B5
100
AcDbEntity
  8
RACCORDO
100
AcDbPolyline
 62
7
  6
CONTINUOUS
 90
5
 70
0
 10
36.0935614591
 20
-3.5035418046
 10
36.0940626638
 20
-3.5265727295
 10
36.0945767346
 20
-3.5432551937
 10
36.0951087584
 20
-3.553895299
 10
36.0956587351
 20
-3.5584930452
  0
LINE
  5
2B6
100
AcDbEntity
  8
RACCORDO
100
AcDbLine
 62
253
  6
CONTINUOUS
 10
34.9470285557
 20
2.1640910458
 11
34.9462182966
 21
2.2062327651
  0
LINE
  5
2B7
100
AcDbEntity
  8
ASSI
100
AcDbLine
 62
253
  6
CONTINUOUS
 10
34.9470285557
 20
2.1640910458
 11
34.9462182966
 21
2.2062327651
  0
LINE
  5
2B8
100
AcDbEntity
  8
RACCORDO
100
AcDbLine
 62
7
  6
CONTINUOUS
 10
34.9372435011
 20
2.044581282
 11
34.9336541517
 21
2.2690831138
  0
LINE
  5
2B9
100
AcDbEntity
  8
ASSI
100
AcDbLine
 62
7
  6
CONTINUOUS
 10
34.9372435011
 20
2.044581282
 11
34.9336541517
 21
2.2690831138
  0
LINE
  5
2BA
100
AcDbEntity
  8
RACCORDO
100
AcDbLine
 62
7
  6
CONTINUOUS
 10
36.0926281688
 20
-3.4402711825
 11
36.0935614591
 21
-3.5035418046
  0
LINE
  5
2BB
100
AcDbEntity
  8
RACCORDO
100
AcDbLine
 62
7
  6
CONTINUOUS
 10
36.1158521679
 20
-2.3546805595
 11
36.1151975013
 21
-2.3076125336
  0
LINE
  5
2BC
100
AcDbEntity
  8
RACCORDO
100
AcDbLine
 62
253
  6
CONTINUOUS
 10
34.9476658648
 20
2.1135713221
 11
34.9470285557
 21
2.1640910458
  0
LINE
  5
2BD
100
AcDbEntity
  8
ASSI
100
AcDbLine
 62
253
  6
CONTINUOUS
 10
34.9476658648
 20
2.1135713221
 11
34.9470285557
 21
2.1640910458
  0
LINE
  5
2BE
100
AcDbEntity
  8
RACCORDO
100
AcDbLine
 62
7
  6
CONTINUOUS
 10
35.1078537806
 20
2.4398070365
 11
35.108765486
 21
2.3682925696
  0
LINE
  5
2BF
100
AcDbEntity
  8
RACCORDO
100
AcDbLine
 62
7
  6
CONTINUOUS
 10
34.9400258765
 20
1.785163043
 11
34.9372435011
 21
2.044581282
  0
LINE
  5
2C0
100
AcDbEntity
  8
ASSI
100
AcDbLine
 62
7
  6
CONTINUOUS
 10
34.9400258765
 20
1.785163043
 11
34.9372435011
 21
2.044581282
  0
LINE
  5
2C1
100
AcDbEntity
  8
RACCORDO
100
AcDbLine
 62
7
  6
CONTINUOUS
 10
36.0914925927
 20
-3.3078531459
 11
36.0926281688
 21
-3.4402711825
  0
LINE
  5
2C2
100
AcDbEntity
  8
RACCORDO
100
AcDbLine
 62
7
  6
CONTINUOUS
 10
35.108765486
 20
2.3682925696
 11
35.1093312313
 21
2.2874013937
  0
LINE
  5
2C3
100
AcDbEntity
  8
RACCORDO
100
AcDbLine
 62
7
  6
CONTINUOUS
 10
36.1151975013
 20
-2.3076125336
 11
36.1144594922
 21
-2.2062386807
  0
LINE
  5
2C4
100
AcDbEntity
  8
RACCORDO
100
AcDbLine
 62
253
  6
CONTINUOUS
 10
34.9482480722
 20
2.0266175277
 11
34.9476658648
 21
2.1135713221
  0
LINE
  5
2C5
100
AcDbEntity
  8
ASSI
100
AcDbLine
 62
253
  6
CONTINUOUS
 10
34.9482480722
 20
2.0266175277
 11
34.9476658648
 21
2.1135713221
  0
LINE
  5
2C6
100
AcDbEntity
  8
DRAFT
100
AcDbLine
 62
7
  6
CONTINUOUS
 10
36.1521289617
 20
-0.5650934271
 11
36.1494116246
 21
0.0810308764
  0
LINE
  5
2C7
100
AcDbEntity
  8
ASSI
100
AcDbLine
 62
7
  6
CONTINUOUS
 10
36.1521289617
 20
-0.5650934271
 11
36.1494116246
 21
0.0810308764
  0
LINE
  5
2C8
100
AcDbEntity
  8
RACCORDO
100
AcDbLine
 62
7
  6
CONTINUOUS
 10
36.0905445123
 20
-3.0216731977
 11
36.0914925927
 21
-3.3078531459
  0
LINE
  5
2C9
100
AcDbEntity
  8
RACCORDO
100
AcDbLine
 62
253
  6
CONTINUOUS
 10
34.9483627258
 20
1.7934998923
 11
34.9482480722
 21
2.0266175277
  0
LINE
  5
2CA
100
AcDbEntity
  8
ASSI
100
AcDbLine
 62
253
  6
CONTINUOUS
 10
34.9483627258
 20
1.7934998923
 11
34.9482480722
 21
2.0266175277
  0
LINE
  5
2CB
100
AcDbEntity
  8
RACCORDO
100
AcDbLine
 62
7
  6
CONTINUOUS
 10
35.0358937099
 20
3.2313963801
 11
35.0358937099
 21
2.6620503246
  0
LINE
  5
2CC
100
AcDbEntity
  8
RACCORDO
100
AcDbLine
 62
7
  6
CONTINUOUS
 10
35.0358937099
 20
-2.4999885719
 11
35.0358937099
 21
-3.0693346274
  0
LINE
  5
2CD
100
AcDbEntity
  8
RACCORDO
100
AcDbLine
 62
7
  6
CONTINUOUS
 10
35.0658937099
 20
-3.0390605065
 11
35.0658937099
 21
-2.4999885719
  0
LINE
  5
2CE
100
AcDbEntity
  8
RACCORDO
100
AcDbLine
 62
7
  6
CONTINUOUS
 10
35.0658937099
 20
2.6620503246
 11
35.0658937099
 21
3.2011222593
  0
LINE
  5
2CF
100
AcDbEntity
  8
RACCORDO
100
AcDbLine
 62
7
  6
CONTINUOUS
 10
35.1095313722
 20
-2.0368315253
 11
35.1093312313
 21
2.2874013937
  0
LINE
  5
2D0
100
AcDbEntity
  8
RACCORDO
100
AcDbLine
 62
253
  6
CONTINUOUS
 10
35.1463697883
 20
-2.9585844281
 11
35.1463697883
 21
3.1206461809
  0
LINE
  5
2D1
100
AcDbEntity
  8
RACCORDO
100
AcDbLine
 62
253
  6
CONTINUOUS
 10
35.7462784054
 20
-3.5584930452
 11
35.7462784054
 21
3.720554798
  0
LINE
  5
2D2
100
AcDbEntity
  8
RACCORDO
100
AcDbLine
 62
7
  6
CONTINUOUS
 10
36.1144594922
 20
-2.2062386807
 11
36.1140765404
 21
2.198893278
  0
LINE
  5
2D3
100
AcDbEntity
  8
DRAFT
100
AcDbLine
 62
7
  6
CONTINUOUS
 10
36.1358937099
 20
3.8010308764
 11
36.1358937099
 21
3.1310308764
  0
LINE
  5
2D4
100
AcDbEntity
  8
DRAFT
100
AcDbLine
 62
7
  6
CONTINUOUS
 10
36.1358937099
 20
-2.9689691236
 11
36.1358937099
 21
-3.6389691236
  0
LINE
  5
2D5
100
AcDbEntity
  8
RACCORDO
100
AcDbLine
 62
7
  6
CONTINUOUS
 10
36.1358937099
 20
-3.5189748352
 11
36.1358937099
 21
-2.8689691236
  0
LINE
  5
2D6
100
AcDbEntity
  8
DRAFT
100
AcDbLine
 62
7
  6
CONTINUOUS
 10
36.1358937099
 20
-2.8689691236
 11
36.1358937099
 21
-2.3189691236
  0
LINE
  5
2D7
100
AcDbEntity
  8
ASSI
100
AcDbLine
 62
7
  6
CONTINUOUS
 10
36.1358937099
 20
-3.5189748352
 11
36.1358937099
 21
-2.3189691236
  0
LINE
  5
2D8
100
AcDbEntity
  8
DRAFT
100
AcDbLine
 62
7
  6
CONTINUOUS
 10
36.1358937099
 20
2.4810308764
 11
36.1358937099
 21
3.0310308764
  0
LINE
  5
2D9
100
AcDbEntity
  8
RACCORDO
100
AcDbLine
 62
7
  6
CONTINUOUS
 10
36.1358937099
 20
3.0310308764
 11
36.1358937099
 21
3.6810365879
  0
LINE
  5
2DA
100
AcDbEntity
  8
ASSI
100
AcDbLine
 62
7
  6
CONTINUOUS
 10
36.1358937099
 20
2.4810308764
 11
36.1358937099
 21
3.6810365879
  0
LINE
  5
2DB
100
AcDbEntity
  8
RACCORDO
100
AcDbLine
 62
253
  6
CONTINUOUS
 10
34.9482490782
 20
-1.8643386263
 11
34.9483627258
 21
-1.6314381396
  0
LINE
  5
2DC
100
AcDbEntity
  8
ASSI
100
AcDbLine
 62
253
  6
CONTINUOUS
 10
34.9482490782
 20
-1.8643386263
 11
34.9483627258
 21
-1.6314381396
  0
LINE
  5
2DD
100
AcDbEntity
  8
RACCORDO
100
AcDbLine
 62
7
  6
CONTINUOUS
 10
35.1095313722
 20
-2.0368315253
 11
35.1093312313
 21
-2.125339641
  0
LINE
  5
2DE
100
AcDbEntity
  8
RACCORDO
100
AcDbLine
 62
7
  6
CONTINUOUS
 10
36.0909568401
 20
3.3618838035
 11
36.0905445123
 21
-3.0216731977
  0
LINE
  5
2DF
100
AcDbEntity
  8
RACCORDO
100
AcDbLine
 62
7
  6
CONTINUOUS
 10
36.1140765404
 20
2.198893278
 11
36.1144594922
 21
2.3683004334
  0
LINE
  5
2E0
100
AcDbEntity
  8
RACCORDO
100
AcDbLine
 62
7
  6
CONTINUOUS
 10
35.1093312313
 20
-2.125339641
 11
35.108765486
 21
-2.2062308169
  0
LINE
  5
2E1
100
AcDbEntity
  8
RACCORDO
100
AcDbLine
 62
7
  6
CONTINUOUS
 10
36.092212404
 20
3.562848039
 11
36.0909568401
 21
3.3618838035
  0
LINE
  5
2E2
100
AcDbEntity
  8
RACCORDO
100
AcDbLine
 62
253
  6
CONTINUOUS
 10
34.9476688004
 20
-1.9512101882
 11
34.9482490782
 21
-1.8643386263
  0
LINE
  5
2E3
100
AcDbEntity
  8
ASSI
100
AcDbLine
 62
253
  6
CONTINUOUS
 10
34.9476688004
 20
-1.9512101882
 11
34.9482490782
 21
-1.8643386263
  0
LINE
  5
2E4
100
AcDbEntity
  8
RACCORDO
100
AcDbLine
 62
7
  6
CONTINUOUS
 10
36.1144594922
 20
2.3683004334
 11
36.1151975013
 21
2.4696742863
  0
LINE
  5
2E5
100
AcDbEntity
  8
RACCORDO
100
AcDbLine
 62
7
  6
CONTINUOUS
 10
34.9372435011
 20
-1.8825195293
 11
34.9400258765
 21
-1.6231012903
  0
LINE
  5
2E6
100
AcDbEntity
  8
ASSI
100
AcDbLine
 62
7
  6
CONTINUOUS
 10
34.9372435011
 20
-1.8825195293
 11
34.9400258765
 21
-1.6231012903
  0
LINE
  5
2E7
100
AcDbEntity
  8
RACCORDO
100
AcDbLine
 62
253
  6
CONTINUOUS
 10
34.9470326737
 20
-2.0017636385
 11
34.9476688004
 21
-1.9512101882
  0
LINE
  5
2E8
100
AcDbEntity
  8
ASSI
100
AcDbLine
 62
253
  6
CONTINUOUS
 10
34.9470326737
 20
-2.0017636385
 11
34.9476688004
 21
-1.9512101882
  0
LWPOLYLINE
  5
2E9
100
AcDbEntity
  8
RACCORDO
100
AcDbPolyline
 62
7
  6
CONTINUOUS
 90
8
 70
0
 10
35.108765486
 20
-2.2062308169
 10
35.1078537806
 20
-2.2777452838
 10
35.1072894167
 20
-2.3076059373
 10
35.1066549331
 20
-2.3336559394
 10
35.105979969
 20
-2.3546773291
 10
35.1052744044
 20
-2.3702641193
 10
35.1045283594
 20
-2.3808222971
 10
35.1037418341
 20
-2.3863518625
  0
LWPOLYLINE
  5
2EA
100
AcDbEntity
  8
RACCORDO
100
AcDbPolyline
 62
7
  6
CONTINUOUS
 90
5
 70
0
 10
36.1151975013
 20
2.4696742863
 10
36.1158521679
 20
2.5167423122
 10
36.1162049094
 20
2.5323278815
 10
36.1165778831
 20
2.5428849825
 10
36.116971089
 20
2.5484136152
  0
LINE
  5
2EB
100
AcDbEntity
  8
RACCORDO
100
AcDbLine
 62
7
  6
CONTINUOUS
 10
34.9336541517
 20
-2.1070213611
 11
34.9372435011
 21
-1.8825195293
  0
LINE
  5
2EC
100
AcDbEntity
  8
ASSI
100
AcDbLine
 62
7
  6
CONTINUOUS
 10
34.9336541517
 20
-2.1070213611
 11
34.9372435011
 21
-1.8825195293
  0
LWPOLYLINE
  5
2ED
100
AcDbEntity
  8
RACCORDO
100
AcDbPolyline
 62
7
  6
CONTINUOUS
 90
16
 70
0
 10
34.9336541517
 20
2.2690831138
 10
34.9339851174
 20
2.2854268125
 10
34.9355480757
 20
2.3011554
 10
34.938212121
 20
2.3161874128
 10
34.9418287815
 20
2.3304079189
 10
34.946278627
 20
2.3438257183
 10
34.9515094274
 20
2.3565587669
 10
34.9574217035
 20
2.3685608165
 10
34.9639318065
 20
2.3798273733
 10
34.9710831089
 20
2.3905198189
 10
34.9788412989
 20
2.4006300107
 10
34.9871396871
 20
2.4101092378
 10
34.9960272714
 20
2.4190255056
 10
35.0055035985
 20
2.4273704434
 10
35.0154979696
 20
2.4350785667
 10
35.0259694791
 20
2.4421185527
  0
LWPOLYLINE
  5
2EE
100
AcDbEntity
  8
ASSI
100
AcDbPolyline
 62
7
  6
CONTINUOUS
 90
16
 70
0
 10
34.9336541517
 20
2.2690831138
 10
34.9339851174
 20
2.2854268125
 10
34.9355480757
 20
2.3011554
 10
34.938212121
 20
2.3161874128
 10
34.9418287815
 20
2.3304079189
 10
34.946278627
 20
2.3438257183
 10
34.9515094274
 20
2.3565587669
 10
34.9574217035
 20
2.3685608165
 10
34.9639318065
 20
2.3798273733
 10
34.9710831089
 20
2.3905198189
 10
34.9788412989
 20
2.4006300107
 10
34.9871396871
 20
2.4101092378
 10
34.9960272714
 20
2.4190255056
 10
35.0055035985
 20
2.4273704434
 10
35.0154979696
 20
2.4350785667
 10
35.0259694791
 20
2.4421185527
  0
LWPOLYLINE
  5
2EF
100
AcDbEntity
  8
RACCORDO
100
AcDbPolyline
 62
253
  6
CONTINUOUS
 90
16
 70
0
 10
35.1463697883
 20
3.1206461809
 10
35.1496947054
 20
3.1835380049
 10
35.1595944563
 20
3.2457364944
 10
35.1759598708
 20
3.3065561823
 10
35.198613613
 20
3.3653337178
 10
35.2273043206
 20
3.4214138022
 10
35.2617022861
 20
3.4741599423
 10
35.3014128733
 20
3.5229843142
 10
35.3460008695
 20
3.5673668045
 10
35.3949878093
 20
3.6068367019
 10
35.4479137827
 20
3.6410059818
 10
35.5041270686
 20
3.6694376946
 10
35.5627671355
 20
3.6917417244
 10
35.6230820352
 20
3.7077313056
 10
35.6844760909
 20
3.7173440593
 10
35.7462784054
 20
3.720554798
  0
LWPOLYLINE
  5
2F0
100
AcDbEntity
  8
RACCORDO
100
AcDbPolyline
 62
7
  6
CONTINUOUS
 90
16
 70
0
 10
35.0358937099
 20
3.2313963801
 10
35.0394823394
 20
3.2952586351
 10
35.049277735
 20
3.3570899827
 10
35.0652798965
 20
3.4168904232
 10
35.087798466
 20
3.4752642136
 10
35.1165238015
 20
3.5316070967
 10
35.1505269769
 20
3.5841063009
 10
35.1899780584
 20
3.6326368244
 10
35.2347069798
 20
3.6773236688
 10
35.2832746168
 20
3.7167290671
 10
35.3358267064
 20
3.7506828255
 10
35.3922175116
 20
3.7793551378
 10
35.4505706976
 20
3.8018188176
 10
35.5102608196
 20
3.8177648029
 10
35.5719133224
 20
3.8275021559
 10
35.6355282061
 20
3.8310308764
  0
LWPOLYLINE
  5
2F1
100
AcDbEntity
  8
RACCORDO
100
AcDbPolyline
 62
7
  6
CONTINUOUS
 90
16
 70
0
 10
35.0658937099
 20
3.2011222593
 10
35.0694793954
 20
3.2649501496
 10
35.0792679487
 20
3.3267549475
 10
35.0952593695
 20
3.3865366529
 10
35.1177605744
 20
3.4448977916
 10
35.146464647
 20
3.5012358378
 10
35.180450838
 20
3.5537432144
 10
35.2198960473
 20
3.6023012118
 10
35.2646233752
 20
3.6470285396
 10
35.3131813726
 20
3.6864737488
 10
35.3656887491
 20
3.7204599397
 10
35.4220267951
 20
3.749164012
 10
35.4803879336
 20
3.7716652168
 10
35.5401696389
 20
3.7876566376
 10
35.6019744367
 20
3.7974451908
 10
35.6658023269
 20
3.8010308764
  0
LWPOLYLINE
  5
2F2
100
AcDbEntity
  8
RACCORDO
100
AcDbPolyline
 62
7
  6
CONTINUOUS
 90
13
 70
0
 10
36.1358937099
 20
3.6810365879
 10
36.137355566
 20
3.7011417353
 10
36.1411614536
 20
3.720275668
 10
36.1473113727
 20
3.7384383859
 10
36.1559886329
 20
3.7559041845
 10
36.1670099247
 20
3.7723987684
 10
36.179825319
 20
3.7870992513
 10
36.1945258022
 20
3.7999146485
 10
36.211020388
 20
3.8109359448
 10
36.2284861892
 20
3.8196132089
 10
36.2466489101
 20
3.8257631303
 10
36.2657828465
 20
3.8295690194
 10
36.2858879983
 20
3.8310308764
  0
LWPOLYLINE
  5
2F3
100
AcDbEntity
  8
ASSI
100
AcDbPolyline
 62
7
  6
CONTINUOUS
 90
13
 70
0
 10
36.1358937099
 20
3.6810365879
 10
36.137355566
 20
3.7011417353
 10
36.1411614536
 20
3.720275668
 10
36.1473113727
 20
3.7384383859
 10
36.1559886329
 20
3.7559041845
 10
36.1670099247
 20
3.7723987684
 10
36.179825319
 20
3.7870992513
 10
36.1945258022
 20
3.7999146485
 10
36.211020388
 20
3.8109359448
 10
36.2284861892
 20
3.8196132089
 10
36.2466489101
 20
3.8257631303
 10
36.2657828465
 20
3.8295690194
 10
36.2858879983
 20
3.8310308764
  0
LWPOLYLINE
  5
2F4
100
AcDbEntity
  8
RACCORDO
100
AcDbPolyline
 62
253
  6
CONTINUOUS
 90
9
 70
0
 10
34.9431599573
 20
2.2643305729
 10
34.9462026441
 20
2.2990555527
 10
34.9552276962
 20
2.3327256358
 10
34.969960945
 20
2.3643179717
 10
34.9899548147
 20
2.3928728287
 10
35.0146019194
 20
2.4175227501
 10
35.0431535145
 20
2.4375189052
 10
35.0747422423
 20
2.4522538385
 10
35.1074527875
 20
2.4610236966
  0
LWPOLYLINE
  5
2F5
100
AcDbEntity
  8
ASSI
100
AcDbPolyline
 62
253
  6
CONTINUOUS
 90
9
 70
0
 10
34.9431599573
 20
2.2643305729
 10
34.9462026441
 20
2.2990555527
 10
34.9552276962
 20
2.3327256358
 10
34.969960945
 20
2.3643179717
 10
34.9899548147
 20
2.3928728287
 10
35.0146019194
 20
2.4175227501
 10
35.0431535145
 20
2.4375189052
 10
35.0747422423
 20
2.4522538385
 10
35.1074527875
 20
2.4610236966
  0
LWPOLYLINE
  5
2F6
100
AcDbEntity
  8
RACCORDO
100
AcDbPolyline
 62
7
  6
CONTINUOUS
 90
7
 70
0
 10
36.0956587351
 20
3.720554798
 10
36.0951087584
 20
3.7159570517
 10
36.0945767346
 20
3.7053169465
 10
36.0940626638
 20
3.6886344822
 10
36.0935614591
 20
3.6656035573
 10
36.0930782073
 20
3.6365302734
 10
36.092212404
 20
3.562848039
  0
LINE
  5
2F7
100
AcDbEntity
  8
RACCORDO
100
AcDbLine
 62
7
  6
CONTINUOUS
 10
36.1358937099
 20
2.6620503246
 11
36.116971089
 21
2.5484136152
  0
LWPOLYLINE
  5
2F8
100
AcDbEntity
  8
0
100
AcDbPolyline
 62
7
  6
CONTINUOUS
 90
36
 70
0
 10
34.6597895363
 20
-1.17692065
 10
34.6443588548
 20
-1.2590266551
 10
34.6246146117
 20
-1.3354718609
 10
34.6005568069
 20
-1.406241295
 10
34.5720088297
 20
-1.471786092
 10
34.5391472908
 20
-1.5317664294
 10
34.5025020222
 20
-1.585105304
 10
34.4620022382
 20
-1.6318357271
 10
34.4177187245
 20
-1.6723394115
 10
34.3703936706
 20
-1.7061671517
 10
34.3195014138
 20
-1.7335532767
 10
34.2655676168
 20
-1.7546810675
 10
34.2109114571
 20
-1.769034669
 10
34.1557369475
 20
-1.776438129
 10
34.0998400751
 20
-1.7772656038
 10
34.0449279792
 20
-1.7717615194
 10
33.9911051347
 20
-1.7598649019
 10
33.9382670667
 20
-1.7414849936
 10
33.8878074896
 20
-1.7167488048
 10
33.8395545152
 20
-1.6848898542
 10
33.7936800317
 20
-1.6462523573
 10
33.7520934192
 20
-1.6026769115
 10
33.7155781961
 20
-1.5544615093
 10
33.6833508441
 20
-1.501021368
 10
33.6549701872
 20
-1.4430067515
 10
33.6303305576
 20
-1.3802514296
 10
33.6095376233
 20
-1.3127979735
 10
33.5924672127
 20
-1.2417244991
 10
33.5790563897
 20
-1.1670583887
 10
33.5693680905
 20
-1.0889241693
 10
33.5634669515
 20
-1.0086605079
 10
33.5611893336
 20
-0.9262109501
 10
33.5626988761
 20
-0.8420242332
 10
33.5685511334
 20
-0.758253384
 10
33.5786225483
 20
-0.6749338869
 10
33.5930366781
 20
-0.59248641
  0
LWPOLYLINE
  5
2F9
100
AcDbEntity
  8
RACCORDO
100
AcDbPolyline
 62
253
  6
CONTINUOUS
 90
8
 70
0
 10
34.9431599573
 20
-2.1022688202
 10
34.9437133747
 20
-2.1002525816
 10
34.9442496426
 20
-2.0951559526
 10
34.9447687611
 20
-2.0869789333
 10
34.945276242
 20
-2.0755643793
 10
34.9457665734
 20
-2.0610694351
 10
34.9462232193
 20
-2.0439655332
 10
34.9470326737
 20
-2.0017636385
  0
LWPOLYLINE
  5
2FA
100
AcDbEntity
  8
ASSI
100
AcDbPolyline
 62
253
  6
CONTINUOUS
 90
8
 70
0
 10
34.9431599573
 20
-2.1022688202
 10
34.9437133747
 20
-2.1002525816
 10
34.9442496426
 20
-2.0951559526
 10
34.9447687611
 20
-2.0869789333
 10
34.945276242
 20
-2.0755643793
 10
34.9457665734
 20
-2.0610694351
 10
34.9462232193
 20
-2.0439655332
 10
34.9470326737
 20
-2.0017636385
  0
LINE
  5
2FB
100
AcDbEntity
  8
RACCORDO
100
AcDbLine
 62
7
  6
CONTINUOUS
 10
36.1358937099
 20
3.8010308764
 11
36.0956587351
 21
3.720554798
  0
LWPOLYLINE
  5
2FC
100
AcDbEntity
  8
0
100
AcDbPolyline
 62
7
  6
CONTINUOUS
 90
34
 70
0
 10
33.7043088409
 20
1.6988924168
 10
33.7223936218
 20
1.7264715717
 10
33.7421078915
 20
1.7527852347
 10
33.76345165
 20
1.7778503127
 10
33.7864381791
 20
1.8018828755
 10
33.8110541971
 20
1.8247001674
 10
33.8372598582
 20
1.8457366241
 10
33.8652132757
 20
1.8650382677
 10
33.8947563363
 20
1.8826248455
 10
33.9253748548
 20
1.8979178242
 10
33.9570202137
 20
1.910848241
 10
33.9897410305
 20
1.9215622759
 10
34.0231689719
 20
1.929814375
 10
34.0571797215
 20
1.9356508312
 10
34.0918975957
 20
1.9390716816
 10
34.1273272111
 20
1.9397561887
 10
34.1636053616
 20
1.9377957722
 10
34.2005952534
 20
1.9330941598
 10
34.237891121
 20
1.9250310059
 10
34.275620812
 20
1.9135795639
 10
34.313656479
 20
1.8986785004
 10
34.3512088141
 20
1.8796178415
 10
34.3885502981
 20
1.8559185778
 10
34.4254084503
 20
1.8278481228
 10
34.4601765207
 20
1.7957984179
 10
34.4924578553
 20
1.7596984897
 10
34.5226491083
 20
1.7193979604
 10
34.5503334914
 20
1.6751992822
 10
34.5754517083
 20
1.6268990032
 10
34.5980630555
 20
1.5745345211
 10
34.6179286343
 20
1.5188287452
 10
34.6349688121
 20
1.4600287104
 10
34.6492632216
 20
1.3978780899
 10
34.6608118629
 20
1.3324013841
  0
LINE
  5
2FD
100
AcDbEntity
  8
RACCORDO
100
AcDbLine
 62
7
  6
CONTINUOUS
 10
36.1358937099
 20
-3.6389691236
 11
36.0956587351
 21
-3.5584930452
  0
LINE
  5
2FE
100
AcDbEntity
  8
RACCORDO
100
AcDbLine
 62
7
  6
CONTINUOUS
 10
36.1358937099
 20
-2.4999885719
 11
36.116971089
 21
-2.3863518625
  0
LWPOLYLINE
  5
2FF
100
AcDbEntity
  8
RACCORDO
100
AcDbPolyline
 62
7
  6
CONTINUOUS
 90
7
 70
0
 10
35.1037418341
 20
2.5484136152
 10
35.1045283594
 20
2.5428840498
 10
35.1052744044
 20
2.532325872
 10
35.105979969
 20
2.5167390818
 10
35.1066549331
 20
2.4957176921
 10
35.1072894167
 20
2.46966769
 10
35.1078537806
 20
2.4398070365
  0
LWPOLYLINE
  5
300
100
AcDbEntity
  8
0
100
AcDbPolyline
 62
7
  6
CONTINUOUS
 90
38
 70
0
 10
34.6608118629
 20
1.3324013841
 10
34.6707934774
 20
1.2528180069
 10
34.6769272198
 20
1.1722575949
 10
34.6792130899
 20
1.0909189946
 10
34.6777883155
 20
1.0083784435
 10
34.6725156688
 20
0.9254885393
 10
34.6629834671
 20
0.8443545665
 10
34.6491579454
 20
0.764917215
 10
34.6310728686
 20
0.6875927122
 10
34.608417849
 20
0.6150600477
 10
34.5807864422
 20
0.547373834
 10
34.5485850926
 20
0.4844559068
 10
34.5127227447
 20
0.4285273543
 10
34.4730069096
 20
0.3799548989
 10
34.4296300762
 20
0.3379252855
 10
34.3840786565
 20
0.3027326219
 10
34.3364606476
 20
0.2743717715
 10
34.2866680523
 20
0.2524096223
 10
34.235863291
 20
0.236516735
 10
34.1840672903
 20
0.226473758
 10
34.1312591237
 20
0.2222968983
 10
34.0785384317
 20
0.2240778514
 10
34.0257113058
 20
0.2318425293
 10
33.9729716545
 20
0.2456442283
 10
33.922000844
 20
0.265688861
 10
33.8725121523
 20
0.292929494
 10
33.8247923014
 20
0.326786773
 10
33.7813828232
 20
0.3651338267
 10
33.7431508011
 20
0.4082626246
 10
33.7092291516
 20
0.4561629262
 10
33.6795581565
 20
0.5060359186
 10
33.6544843747
 20
0.557505552
 10
33.6336612472
 20
0.6109234028
 10
33.6159893788
 20
0.6643827011
 10
33.6014306047
 20
0.7176695948
 10
33.5900230896
 20
0.7708378509
 10
33.5807819327
 20
0.8222906378
 10
33.573661635
 20
0.8713864808
  0
LINE
  5
301
100
AcDbEntity
  8
RACCORDO
100
AcDbLine
 62
253
  6
CONTINUOUS
 10
36.1784167266
 20
3.617800369
 11
36.1788977959
 21
3.5918099289
  0
LINE
  5
302
100
AcDbEntity
  8
ASSI
100
AcDbLine
 62
253
  6
CONTINUOUS
 10
36.1784167266
 20
3.617800369
 11
36.1788977959
 21
3.5918099289
  0
LINE
  5
303
100
AcDbEntity
  8
RACCORDO
100
AcDbLine
 62
253
  6
CONTINUOUS
 10
36.3281643695
 20
3.7715499352
 11
36.3286610844
 21
3.7413417342
  0
LINE
  5
304
100
AcDbEntity
  8
ASSI
100
AcDbLine
 62
253
  6
CONTINUOUS
 10
36.3281643695
 20
3.7715499352
 11
36.3286610844
 21
3.7413417342
  0
LINE
  5
305
100
AcDbEntity
  8
RACCORDO
100
AcDbLine
 62
7
  6
CONTINUOUS
 10
36.1548286865
 20
2.4192548022
 11
36.1556151565
 21
2.3666859898
  0
LINE
  5
306
100
AcDbEntity
  8
ASSI
100
AcDbLine
 62
7
  6
CONTINUOUS
 10
36.1548286865
 20
2.4192548022
 11
36.1556151565
 21
2.3666859898
  0
LINE
  5
307
100
AcDbEntity
  8
RACCORDO
100
AcDbLine
 62
253
  6
CONTINUOUS
 10
36.1788977959
 20
3.5918099289
 11
36.1795274433
 21
3.5359070009
  0
LINE
  5
308
100
AcDbEntity
  8
ASSI
100
AcDbLine
 62
253
  6
CONTINUOUS
 10
36.1788977959
 20
3.5918099289
 11
36.1795274433
 21
3.5359070009
  0
LINE
  5
309
100
AcDbEntity
  8
RACCORDO
100
AcDbLine
 62
253
  6
CONTINUOUS
 10
36.3286610844
 20
3.7413417342
 11
36.3293273612
 21
3.6709699066
  0
LINE
  5
30A
100
AcDbEntity
  8
ASSI
100
AcDbLine
 62
253
  6
CONTINUOUS
 10
36.3286610844
 20
3.7413417342
 11
36.3293273612
 21
3.6709699066
  0
LINE
  5
30B
100
AcDbEntity
  8
RACCORDO
100
AcDbLine
 62
7
  6
CONTINUOUS
 10
36.1556151565
 20
2.3666859898
 11
36.1565722381
 21
2.2561407843
  0
LINE
  5
30C
100
AcDbEntity
  8
ASSI
100
AcDbLine
 62
7
  6
CONTINUOUS
 10
36.1556151565
 20
2.3666859898
 11
36.1565722381
 21
2.2561407843
  0
LINE
  5
30D
100
AcDbEntity
  8
RACCORDO
100
AcDbLine
 62
253
  6
CONTINUOUS
 10
36.1795274433
 20
3.5359070009
 11
36.1802315164
 21
3.4079996609
  0
LINE
  5
30E
100
AcDbEntity
  8
ASSI
100
AcDbLine
 62
253
  6
CONTINUOUS
 10
36.1795274433
 20
3.5359070009
 11
36.1802315164
 21
3.4079996609
  0
LINE
  5
30F
100
AcDbEntity
  8
RACCORDO
100
AcDbLine
 62
253
  6
CONTINUOUS
 10
36.3293273612
 20
3.6709699066
 11
36.3302242947
 21
3.4596403809
  0
LINE
  5
310
100
AcDbEntity
  8
ASSI
100
AcDbLine
 62
253
  6
CONTINUOUS
 10
36.3293273612
 20
3.6709699066
 11
36.3302242947
 21
3.4596403809
  0
LINE
  5
311
100
AcDbEntity
  8
RACCORDO
100
AcDbLine
 62
7
  6
CONTINUOUS
 10
36.1565722381
 20
2.2561407843
 11
36.1573711581
 21
2.0166846877
  0
LINE
  5
312
100
AcDbEntity
  8
ASSI
100
AcDbLine
 62
7
  6
CONTINUOUS
 10
36.1565722381
 20
2.2561407843
 11
36.1573711581
 21
2.0166846877
  0
LINE
  5
313
100
AcDbEntity
  8
RACCORDO
100
AcDbLine
 62
253
  6
CONTINUOUS
 10
36.1802315164
 20
3.4079996609
 11
36.1804121589
 21
3.2895592152
  0
LINE
  5
314
100
AcDbEntity
  8
ASSI
100
AcDbLine
 62
253
  6
CONTINUOUS
 10
36.1802315164
 20
3.4079996609
 11
36.1804121589
 21
3.2895592152
  0
LINE
  5
315
100
AcDbEntity
  8
RACCORDO
100
AcDbLine
 62
7
  6
CONTINUOUS
 10
36.1573968541
 20
1.7978578429
 11
36.1573711581
 21
2.0166846877
  0
LINE
  5
316
100
AcDbEntity
  8
ASSI
100
AcDbLine
 62
7
  6
CONTINUOUS
 10
36.1573968541
 20
1.7978578429
 11
36.1573711581
 21
2.0166846877
  0
LINE
  5
317
100
AcDbEntity
  8
RACCORDO
100
AcDbLine
 62
7
  6
CONTINUOUS
 10
36.1804121589
 20
3.2895592152
 11
36.1804121589
 21
-3.1274974624
  0
LINE
  5
318
100
AcDbEntity
  8
ASSI
100
AcDbLine
 62
7
  6
CONTINUOUS
 10
36.1804121589
 20
3.2895592152
 11
36.1804121589
 21
-3.1274974624
  0
LINE
  5
319
100
AcDbEntity
  8
RACCORDO
100
AcDbLine
 62
253
  6
CONTINUOUS
 10
36.3302242947
 20
3.4596403809
 11
36.3304064473
 21
-3.1273842445
  0
LINE
  5
31A
100
AcDbEntity
  8
ASSI
100
AcDbLine
 62
253
  6
CONTINUOUS
 10
36.3302242947
 20
3.4596403809
 11
36.3304064473
 21
-3.1273842445
  0
LINE
  5
31B
100
AcDbEntity
  8
DRAFT
100
AcDbLine
 62
7
  6
CONTINUOUS
 10
36.9324026969
 20
3.0345218893
 11
36.9324026969
 21
-2.8724601366
  0
LINE
  5
31C
100
AcDbEntity
  8
ASSI
100
AcDbLine
 62
7
  6
CONTINUOUS
 10
36.9324026969
 20
3.0345218893
 11
36.9324026969
 21
-2.8724601366
  0
LINE
  5
31D
100
AcDbEntity
  8
DRAFT
100
AcDbLine
 62
7
  6
CONTINUOUS
 10
36.9358937099
 20
3.0310308764
 11
36.9358937099
 21
-2.8689691236
  0
LINE
  5
31E
100
AcDbEntity
  8
ASSI
100
AcDbLine
 62
7
  6
CONTINUOUS
 10
36.9358937099
 20
3.0310308764
 11
36.9358937099
 21
-2.8689691236
  0
LINE
  5
31F
100
AcDbEntity
  8
DRAFT
100
AcDbLine
 62
7
  6
CONTINUOUS
 10
36.1524377509
 20
0.9662902572
 11
36.1510499375
 21
1.785163043
  0
LINE
  5
320
100
AcDbEntity
  8
ASSI
100
AcDbLine
 62
7
  6
CONTINUOUS
 10
36.1524377509
 20
0.9662902572
 11
36.1510499375
 21
1.785163043
  0
LINE
  5
321
100
AcDbEntity
  8
DRAFT
100
AcDbLine
 62
7
  6
CONTINUOUS
 10
36.1518329467
 20
-1.3982349307
 11
36.1521289617
 21
-0.5650934271
  0
LINE
  5
322
100
AcDbEntity
  8
ASSI
100
AcDbLine
 62
7
  6
CONTINUOUS
 10
36.1518329467
 20
-1.3982349307
 11
36.1521289617
 21
-0.5650934271
  0
LINE
  5
323
100
AcDbEntity
  8
RACCORDO
100
AcDbLine
 62
7
  6
CONTINUOUS
 10
36.1573968541
 20
-1.6357960902
 11
36.1570237218
 21
-2.0037212331
  0
LINE
  5
324
100
AcDbEntity
  8
ASSI
100
AcDbLine
 62
7
  6
CONTINUOUS
 10
36.1573968541
 20
-1.6357960902
 11
36.1570237218
 21
-2.0037212331
  0
LINE
  5
325
100
AcDbEntity
  8
DRAFT
100
AcDbLine
 62
7
  6
CONTINUOUS
 10
36.1510499375
 20
-1.6231012903
 11
36.1518329467
 21
-1.3982349307
  0
LINE
  5
326
100
AcDbEntity
  8
ASSI
100
AcDbLine
 62
7
  6
CONTINUOUS
 10
36.1510499375
 20
-1.6231012903
 11
36.1518329467
 21
-1.3982349307
  0
LINE
  5
327
100
AcDbEntity
  8
RACCORDO
100
AcDbLine
 62
253
  6
CONTINUOUS
 10
36.3304065369
 20
-3.1273842445
 11
36.3298599398
 21
-3.412946987
  0
LINE
  5
328
100
AcDbEntity
  8
ASSI
100
AcDbLine
 62
253
  6
CONTINUOUS
 10
36.3304065369
 20
-3.1273842445
 11
36.3298599398
 21
-3.412946987
  0
LINE
  5
329
100
AcDbEntity
  8
RACCORDO
100
AcDbLine
 62
253
  6
CONTINUOUS
 10
36.1804121589
 20
-3.1274974624
 11
36.1800088031
 21
-3.301320141
  0
LINE
  5
32A
100
AcDbEntity
  8
ASSI
100
AcDbLine
 62
253
  6
CONTINUOUS
 10
36.1804121589
 20
-3.1274974624
 11
36.1800088031
 21
-3.301320141
  0
LINE
  5
32B
100
AcDbEntity
  8
DRAFT
100
AcDbLine
 62
7
  6
CONTINUOUS
 10
36.1506030484
 20
0.2809760874
 11
36.1524377509
 21
0.9662902572
  0
LINE
  5
32C
100
AcDbEntity
  8
ASSI
100
AcDbLine
 62
7
  6
CONTINUOUS
 10
36.1506030484
 20
0.2809760874
 11
36.1524377509
 21
0.9662902572
  0
LINE
  5
32D
100
AcDbEntity
  8
DRAFT
100
AcDbLine
 62
7
  6
CONTINUOUS
 10
36.1494116246
 20
0.0810308764
 11
36.1506030484
 21
0.2809760874
  0
LINE
  5
32E
100
AcDbEntity
  8
ASSI
100
AcDbLine
 62
7
  6
CONTINUOUS
 10
36.1494116246
 20
0.0810308764
 11
36.1506030484
 21
0.2809760874
  0
LINE
  5
32F
100
AcDbEntity
  8
RACCORDO
100
AcDbLine
 62
253
  6
CONTINUOUS
 10
36.3298599398
 20
-3.412946987
 11
36.3291162602
 21
-3.5355676716
  0
LINE
  5
330
100
AcDbEntity
  8
ASSI
100
AcDbLine
 62
253
  6
CONTINUOUS
 10
36.3298599398
 20
-3.412946987
 11
36.3291162602
 21
-3.5355676716
  0
LINE
  5
331
100
AcDbEntity
  8
RACCORDO
100
AcDbLine
 62
7
  6
CONTINUOUS
 10
36.1570237218
 20
-2.0037212331
 11
36.1559655436
 21
-2.1717066518
  0
LINE
  5
332
100
AcDbEntity
  8
ASSI
100
AcDbLine
 62
7
  6
CONTINUOUS
 10
36.1570237218
 20
-2.0037212331
 11
36.1559655436
 21
-2.1717066518
  0
LINE
  5
333
100
AcDbEntity
  8
RACCORDO
100
AcDbLine
 62
253
  6
CONTINUOUS
 10
36.1800088031
 20
-3.301320141
 11
36.1793317062
 21
-3.3945416756
  0
LINE
  5
334
100
AcDbEntity
  8
ASSI
100
AcDbLine
 62
253
  6
CONTINUOUS
 10
36.1800088031
 20
-3.301320141
 11
36.1793317062
 21
-3.3945416756
  0
LINE
  5
335
100
AcDbEntity
  8
RACCORDO
100
AcDbLine
 62
253
  6
CONTINUOUS
 10
36.3291162602
 20
-3.5355676716
 11
36.3286605046
 21
-3.5793248186
  0
LINE
  5
336
100
AcDbEntity
  8
ASSI
100
AcDbLine
 62
253
  6
CONTINUOUS
 10
36.3291162602
 20
-3.5355676716
 11
36.3286605046
 21
-3.5793248186
  0
LWPOLYLINE
  5
337
100
AcDbEntity
  8
RACCORDO
100
AcDbPolyline
 62
7
  6
CONTINUOUS
 90
7
 70
0
 10
36.1559655436
 20
-2.1717066518
 10
36.1552358975
 20
-2.2330732888
 10
36.1548286892
 20
-2.2571929213
 10
36.1544065468
 20
-2.2762033105
 10
36.153973808
 20
-2.2898445521
 10
36.153526135
 20
-2.2983765505
 10
36.1530635278
 20
-2.3017993057
  0
LWPOLYLINE
  5
338
100
AcDbEntity
  8
ASSI
100
AcDbPolyline
 62
7
  6
CONTINUOUS
 90
7
 70
0
 10
36.1559655436
 20
-2.1717066518
 10
36.1552358975
 20
-2.2330732888
 10
36.1548286892
 20
-2.2571929213
 10
36.1544065468
 20
-2.2762033105
 10
36.153973808
 20
-2.2898445521
 10
36.153526135
 20
-2.2983765505
 10
36.1530635278
 20
-2.3017993057
  0
LINE
  5
339
100
AcDbEntity
  8
RACCORDO
100
AcDbLine
 62
253
  6
CONTINUOUS
 10
36.1793317062
 20
-3.3945416756
 11
36.178897214
 21
-3.4297871058
  0
LINE
  5
33A
100
AcDbEntity
  8
ASSI
100
AcDbLine
 62
253
  6
CONTINUOUS
 10
36.1793317062
 20
-3.3945416756
 11
36.178897214
 21
-3.4297871058
  0
LWPOLYLINE
  5
33B
100
AcDbEntity
  8
RACCORDO
100
AcDbPolyline
 62
253
  6
CONTINUOUS
 90
5
 70
0
 10
36.3286605046
 20
-3.5793248186
 10
36.3281638561
 20
-3.6095113487
 10
36.3279082201
 20
-3.6192151286
 10
36.3276465007
 20
-3.6252192606
 10
36.327378698
 20
-3.627478424
  0
LWPOLYLINE
  5
33C
100
AcDbEntity
  8
ASSI
100
AcDbPolyline
 62
253
  6
CONTINUOUS
 90
5
 70
0
 10
36.3286605046
 20
-3.5793248186
 10
36.3281638561
 20
-3.6095113487
 10
36.3279082201
 20
-3.6192151286
 10
36.3276465007
 20
-3.6252192606
 10
36.327378698
 20
-3.627478424
  0
LWPOLYLINE
  5
33D
100
AcDbEntity
  8
RACCORDO
100
AcDbPolyline
 62
253
  6
CONTINUOUS
 90
6
 70
0
 10
36.178897214
 20
-3.4297871058
 10
36.1784161649
 20
-3.4557611797
 10
36.1781646272
 20
-3.4650644117
 10
36.177909847
 20
-3.471744051
 10
36.1776497744
 20
-3.4758839589
 10
36.1773844095
 20
-3.4774841355
  0
LWPOLYLINE
  5
33E
100
AcDbEntity
  8
ASSI
100
AcDbPolyline
 62
253
  6
CONTINUOUS
 90
6
 70
0
 10
36.178897214
 20
-3.4297871058
 10
36.1784161649
 20
-3.4557611797
 10
36.1781646272
 20
-3.4650644117
 10
36.177909847
 20
-3.471744051
 10
36.1776497744
 20
-3.4758839589
 10
36.1773844095
 20
-3.4774841355
  0
LINE
  5
33F
100
AcDbEntity
  8
RACCORDO
100
AcDbLine
 62
7
  6
CONTINUOUS
 10
35.1037418341
 20
-2.3863518625
 11
35.0658937099
 21
-2.4999885719
  0
LINE
  5
340
100
AcDbEntity
  8
DRAFT
100
AcDbLine
 62
7
  6
CONTINUOUS
 10
36.1573968541
 20
1.7978578429
 11
36.1510499375
 21
1.785163043
  0
LINE
  5
341
100
AcDbEntity
  8
ASSI
100
AcDbLine
 62
7
  6
CONTINUOUS
 10
36.1573968541
 20
1.7978578429
 11
36.1510499375
 21
1.785163043
  0
LWPOLYLINE
  5
342
100
AcDbEntity
  8
0
100
AcDbPolyline
 62
7
  6
CONTINUOUS
 90
40
 70
0
 10
33.7043088409
 20
-0.3011075832
 10
33.7230831252
 20
-0.2725092501
 10
33.7436115232
 20
-0.245292583
 10
33.7658940349
 20
-0.2194381256
 10
33.7899486383
 20
-0.194704429
 10
33.8157573554
 20
-0.1712946809
 10
33.8432662524
 20
-0.1498382745
 10
33.8726652019
 20
-0.1302862931
 10
33.9037643313
 20
-0.1126126882
 10
33.9359400887
 20
-0.0974515547
 10
33.9691110783
 20
-0.0848886367
 10
34.0033586959
 20
-0.0747534436
 10
34.0383035776
 20
-0.0672860441
 10
34.0738438985
 20
-0.0624263042
 10
34.1100814834
 20
-0.0601899775
 10
34.1469424426
 20
-0.0609397915
 10
34.1845432346
 20
-0.0645799233
 10
34.2227674009
 20
-0.07122439
 10
34.2611916762
 20
-0.0815743491
 10
34.300035407
 20
-0.09573537
 10
34.3390792468
 20
-0.1137218903
 10
34.3772418911
 20
-0.1361409677
 10
34.4146670162
 20
-0.1634973627
 10
34.4512109458
 20
-0.1955341476
 10
34.4853613461
 20
-0.2317251139
 10
34.5167268702
 20
-0.2721205296
 10
34.545698865
 20
-0.3168990076
 10
34.5719390371
 20
-0.3656819577
 10
34.5954076976
 20
-0.4187828669
 10
34.6161445354
 20
-0.4760332543
 10
34.6339303237
 20
-0.5362477707
 10
34.6486646969
 20
-0.5991639557
 10
34.6604480207
 20
-0.6649823701
 10
34.6693621649
 20
-0.7331285739
 10
34.6755443626
 20
-0.8035702417
 10
34.6788573807
 20
-0.8761335507
 10
34.6789713901
 20
-0.9499836644
 10
34.6757764476
 20
-1.024731653
 10
34.6693824963
 20
-1.1004394061
 10
34.6597895363
 20
-1.17692065
  0
LINE
  5
343
100
AcDbEntity
  8
RACCORDO
100
AcDbLine
 62
7
  6
CONTINUOUS
 10
34.9483627258
 20
-1.6314381396
 11
34.9400258765
 21
-1.6231012903
  0
LINE
  5
344
100
AcDbEntity
  8
ASSI
100
AcDbLine
 62
7
  6
CONTINUOUS
 10
34.9483627258
 20
-1.6314381396
 11
34.9400258765
 21
-1.6231012903
  0
LINE
  5
345
100
AcDbEntity
  8
DRAFT
100
AcDbLine
 62
7
  6
CONTINUOUS
 10
36.1510499375
 20
-1.6231012903
 11
36.1573968541
 21
-1.6357960902
  0
LINE
  5
346
100
AcDbEntity
  8
ASSI
100
AcDbLine
 62
7
  6
CONTINUOUS
 10
36.1510499375
 20
-1.6231012903
 11
36.1573968541
 21
-1.6357960902
  0
LINE
  5
347
100
AcDbEntity
  8
RACCORDO
100
AcDbLine
 62
7
  6
CONTINUOUS
 10
35.1037418341
 20
2.5484136152
 11
35.0658937099
 21
2.6620503246
  0
LWPOLYLINE
  5
348
100
AcDbEntity
  8
RACCORDO
100
AcDbPolyline
 62
253
  6
CONTINUOUS
 90
5
 70
0
 10
36.1773844095
 20
3.6395458882
 10
36.1776499888
 20
3.6379413051
 10
36.1779102287
 20
3.6337961579
 10
36.1781651294
 20
3.6271104467
 10
36.1784167266
 20
3.617800369
  0
LWPOLYLINE
  5
349
100
AcDbEntity
  8
ASSI
100
AcDbPolyline
 62
253
  6
CONTINUOUS
 90
5
 70
0
 10
36.1773844095
 20
3.6395458882
 10
36.1776499888
 20
3.6379413051
 10
36.1779102287
 20
3.6337961579
 10
36.1781651294
 20
3.6271104467
 10
36.1784167266
 20
3.617800369
  0
LWPOLYLINE
  5
34A
100
AcDbEntity
  8
RACCORDO
100
AcDbPolyline
 62
7
  6
CONTINUOUS
 90
5
 70
0
 10
36.1530635278
 20
2.4638610584
 10
36.1535261335
 20
2.4604383524
 10
36.1539738055
 20
2.4519063909
 10
36.1544065439
 20
2.4382651739
 10
36.1548286865
 20
2.4192548022
  0
LWPOLYLINE
  5
34B
100
AcDbEntity
  8
ASSI
100
AcDbPolyline
 62
7
  6
CONTINUOUS
 90
5
 70
0
 10
36.1530635278
 20
2.4638610584
 10
36.1535261335
 20
2.4604383524
 10
36.1539738055
 20
2.4519063909
 10
36.1544065439
 20
2.4382651739
 10
36.1548286865
 20
2.4192548022
  0
LWPOLYLINE
  5
34C
100
AcDbEntity
  8
RACCORDO
100
AcDbPolyline
 62
253
  6
CONTINUOUS
 90
4
 70
0
 10
36.327378698
 20
3.7895401767
 10
36.3276467211
 20
3.7872775705
 10
36.3279086116
 20
3.7812650707
 10
36.3281643695
 20
3.7715499352
  0
LWPOLYLINE
  5
34D
100
AcDbEntity
  8
ASSI
100
AcDbPolyline
 62
253
  6
CONTINUOUS
 90
4
 70
0
 10
36.327378698
 20
3.7895401767
 10
36.3276467211
 20
3.7872775705
 10
36.3279086116
 20
3.7812650707
 10
36.3281643695
 20
3.7715499352
  0
LINE
  5
34E
100
AcDbEntity
  8
SCRITTE
100
AcDbLine
 62
253
  6
CONTINUOUS
 10
38.0358937277
 20
-0.9189691236
 11
38.0358937277
 21
0.4810308764
  0
LINE
  5
34F
100
AcDbEntity
  8
SCRITTE
100
AcDbLine
 62
253
  6
CONTINUOUS
 10
38.6358937099
 20
3.8240493821
 11
38.6358937099
 21
3.8118317672
  0
LINE
  5
350
100
AcDbEntity
  8
0
100
AcDbLine
 62
7
  6
CONTINUOUS
 10
38.9881277099
 20
2.4985928764
 11
38.6542057099
 21
1.3285248764
  0
LINE
  5
351
100
AcDbEntity
  8
ASSI
100
AcDbLine
 62
7
  6
CONTINUOUS
 10
38.9881277099
 20
2.4985928764
 11
38.6542057099
 21
1.3285248764
  0
LINE
  5
352
100
AcDbEntity
  8
0
100
AcDbLine
 62
7
  6
CONTINUOUS
 10
38.7963097099
 20
0.7987298764
 11
39.3427137099
 21
2.4985928764
  0
LINE
  5
353
100
AcDbEntity
  8
ASSI
100
AcDbLine
 62
7
  6
CONTINUOUS
 10
38.7963097099
 20
0.7987298764
 11
39.3427137099
 21
2.4985928764
  0
LINE
  5
354
100
AcDbEntity
  8
RACCORDO
100
AcDbLine
 62
7
  6
CONTINUOUS
 10
34.9400258765
 20
1.785163043
 11
34.9483627258
 21
1.7934998923
  0
LINE
  5
355
100
AcDbEntity
  8
ASSI
100
AcDbLine
 62
7
  6
CONTINUOUS
 10
34.9400258765
 20
1.785163043
 11
34.9483627258
 21
1.7934998923
  0
LWPOLYLINE
  5
356
100
AcDbEntity
  8
RACCORDO
100
AcDbPolyline
 62
7
  6
CONTINUOUS
 90
16
 70
0
 10
35.0259694791
 20
-2.2800568
 10
35.0155030542
 20
-2.2730205194
 10
35.0055066894
 20
-2.2653112732
 10
34.9960222992
 20
-2.2569590766
 10
34.9871192015
 20
-2.2480255205
 10
34.9788020553
 20
-2.2385203653
 10
34.9710299283
 20
-2.2283838626
 10
34.9638701213
 20
-2.2176664917
 10
34.9573558479
 20
-2.2063758662
 10
34.9514464948
 20
-2.1943575013
 10
34.9462247441
 20
-2.1816186733
 10
34.9417874
 20
-2.1682049201
 10
34.938185127
 20
-2.154000517
 10
34.9355348277
 20
-2.1389976873
 10
34.9339818913
 20
-2.1233109401
 10
34.9336541517
 20
-2.1070213611
  0
LWPOLYLINE
  5
357
100
AcDbEntity
  8
ASSI
100
AcDbPolyline
 62
7
  6
CONTINUOUS
 90
16
 70
0
 10
35.0259694791
 20
-2.2800568
 10
35.0155030542
 20
-2.2730205194
 10
35.0055066894
 20
-2.2653112732
 10
34.9960222992
 20
-2.2569590766
 10
34.9871192015
 20
-2.2480255205
 10
34.9788020553
 20
-2.2385203653
 10
34.9710299283
 20
-2.2283838626
 10
34.9638701213
 20
-2.2176664917
 10
34.9573558479
 20
-2.2063758662
 10
34.9514464948
 20
-2.1943575013
 10
34.9462247441
 20
-2.1816186733
 10
34.9417874
 20
-2.1682049201
 10
34.938185127
 20
-2.154000517
 10
34.9355348277
 20
-2.1389976873
 10
34.9339818913
 20
-2.1233109401
 10
34.9336541517
 20
-2.1070213611
  0
LINE
  5
358
100
AcDbEntity
  8
RACCORDO
100
AcDbLine
 62
7
  6
CONTINUOUS
 10
33.1449496084
 20
2.4719749778
 11
33.1358937099
 21
2.4810308764
  0
LINE
  5
359
100
AcDbEntity
  8
ASSI
100
AcDbLine
 62
7
  6
CONTINUOUS
 10
33.1449496084
 20
2.4719749778
 11
33.1358937099
 21
2.4810308764
  0
LINE
  5
35A
100
AcDbEntity
  8
SCRITTE
100
AcDbLine
 62
253
  6
CONTINUOUS
 10
38.4358937456
 20
-2.6189691236
 11
37.6358937099
 21
-1.2189691236
  0
LINE
  5
35B
100
AcDbEntity
  8
0
100
AcDbLine
 62
7
  6
CONTINUOUS
 10
37.9447277099
 20
2.4985928764
 11
38.4836177099
 21
0.7987298764
  0
LINE
  5
35C
100
AcDbEntity
  8
ASSI
100
AcDbLine
 62
7
  6
CONTINUOUS
 10
37.9447277099
 20
2.4985928764
 11
38.4836177099
 21
0.7987298764
  0
LINE
  5
35D
100
AcDbEntity
  8
SCRITTE
100
AcDbLine
 62
253
  6
CONTINUOUS
 10
39.1358936622
 20
0.2810308883
 11
39.1358936622
 21
0.0810309002
  0
LINE
  5
35E
100
AcDbEntity
  8
SCRITTE
100
AcDbLine
 62
253
  6
CONTINUOUS
 10
39.4358937456
 20
3.8118317672
 11
39.4358937456
 21
3.8240493821
  0
LINE
  5
35F
100
AcDbEntity
  8
0
100
AcDbLine
 62
7
  6
CONTINUOUS
 10
39.4743917099
 20
2.4986948764
 11
39.4743917099
 21
0.7987298764
  0
LINE
  5
360
100
AcDbEntity
  8
ASSI
100
AcDbLine
 62
7
  6
CONTINUOUS
 10
39.4743917099
 20
2.4986948764
 11
39.4743917099
 21
0.7987298764
  0
LINE
  5
361
100
AcDbEntity
  8
0
100
AcDbLine
 62
7
  6
CONTINUOUS
 10
39.8292197099
 20
0.7987298764
 11
39.8292197099
 21
2.4986948764
  0
LINE
  5
362
100
AcDbEntity
  8
ASSI
100
AcDbLine
 62
7
  6
CONTINUOUS
 10
39.8292197099
 20
0.7987298764
 11
39.8292197099
 21
2.4986948764
  0
LINE
  5
363
100
AcDbEntity
  8
SCRITTE
100
AcDbLine
 62
253
  6
CONTINUOUS
 10
40.4358937099
 20
-2.6189691236
 11
40.4358937099
 21
-1.8189690879
  0
LINE
  5
364
100
AcDbEntity
  8
0
100
AcDbLine
 62
7
  6
CONTINUOUS
 10
40.3596897099
 20
0.7987298764
 11
40.4362617099
 21
1.9087088764
  0
LINE
  5
365
100
AcDbEntity
  8
ASSI
100
AcDbLine
 62
7
  6
CONTINUOUS
 10
40.3596897099
 20
0.7987298764
 11
40.4362617099
 21
1.9087088764
  0
LINE
  5
366
100
AcDbEntity
  8
0
100
AcDbLine
 62
7
  6
CONTINUOUS
 10
40.1737217099
 20
2.4985928764
 11
40.0202347099
 21
0.7987298764
  0
LINE
  5
367
100
AcDbEntity
  8
ASSI
100
AcDbLine
 62
7
  6
CONTINUOUS
 10
40.1737217099
 20
2.4985928764
 11
40.0202347099
 21
0.7987298764
  0
LINE
  5
368
100
AcDbEntity
  8
SCRITTE
100
AcDbLine
 62
253
  6
CONTINUOUS
 10
38.4358937456
 20
-1.2189691236
 11
37.6358937099
 21
-2.6189691236
  0
LINE
  5
369
100
AcDbEntity
  8
SCRITTE
100
AcDbLine
 62
253
  6
CONTINUOUS
 10
38.4358937456
 20
0.1810308525
 11
38.6358937337
 21
0.4810308764
  0
LINE
  5
36A
100
AcDbEntity
  8
RACCORDO
100
AcDbLine
 62
7
  6
CONTINUOUS
 10
33.1449496084
 20
-2.3099132251
 11
33.1358937099
 21
-2.3189691236
  0
LINE
  5
36B
100
AcDbEntity
  8
ASSI
100
AcDbLine
 62
7
  6
CONTINUOUS
 10
33.1449496084
 20
-2.3099132251
 11
33.1358937099
 21
-2.3189691236
  0
LWPOLYLINE
  5
36C
100
AcDbEntity
  8
RACCORDO
100
AcDbPolyline
 62
7
  6
CONTINUOUS
 90
6
 70
0
 10
35.0259694791
 20
-2.2800568
 10
35.0412884695
 20
-2.2886175305
 10
35.0572701845
 20
-2.2958920835
 10
35.073914624
 20
-2.3017639549
 10
35.0912217882
 20
-2.3061235138
 10
35.1072657993
 20
-2.3085755983
  0
LWPOLYLINE
  5
36D
100
AcDbEntity
  8
ASSI
100
AcDbPolyline
 62
7
  6
CONTINUOUS
 90
6
 70
0
 10
35.0259694791
 20
-2.2800568
 10
35.0412884695
 20
-2.2886175305
 10
35.0572701845
 20
-2.2958920835
 10
35.073914624
 20
-2.3017639549
 10
35.0912217882
 20
-2.3061235138
 10
35.1072657993
 20
-2.3085755983
  0
LINE
  5
36E
100
AcDbEntity
  8
SCRITTE
100
AcDbLine
 62
253
  6
CONTINUOUS
 10
40.4358937099
 20
-1.8189690879
 11
40.0358937337
 21
-1.2189691236
  0
LINE
  5
36F
100
AcDbEntity
  8
SCRITTE
100
AcDbLine
 62
253
  6
CONTINUOUS
 10
39.6358937575
 20
-2.6189691236
 11
38.8358937218
 21
-1.2189691236
  0
LINE
  5
370
100
AcDbEntity
  8
0
100
AcDbLine
 62
7
  6
CONTINUOUS
 10
38.6542057099
 20
1.3285248764
 11
38.3301807099
 21
2.4985928764
  0
LINE
  5
371
100
AcDbEntity
  8
ASSI
100
AcDbLine
 62
7
  6
CONTINUOUS
 10
38.6542057099
 20
1.3285248764
 11
38.3301807099
 21
2.4985928764
  0
LINE
  5
372
100
AcDbEntity
  8
0
100
AcDbLine
 62
7
  6
CONTINUOUS
 10
41.7441897099
 20
0.7987298764
 11
41.5852327099
 21
2.4985928764
  0
LINE
  5
373
100
AcDbEntity
  8
ASSI
100
AcDbLine
 62
7
  6
CONTINUOUS
 10
41.7441897099
 20
0.7987298764
 11
41.5852327099
 21
2.4985928764
  0
LINE
  5
374
100
AcDbEntity
  8
0
100
AcDbLine
 62
7
  6
CONTINUOUS
 10
41.3241727099
 20
1.9040818764
 11
41.3970737099
 21
0.7987298764
  0
LINE
  5
375
100
AcDbEntity
  8
ASSI
100
AcDbLine
 62
7
  6
CONTINUOUS
 10
41.3241727099
 20
1.9040818764
 11
41.3970737099
 21
0.7987298764
  0
LINE
  5
376
100
AcDbEntity
  8
SCRITTE
100
AcDbLine
 62
253
  6
CONTINUOUS
 10
41.0358937337
 20
3.8240493821
 11
41.0358937337
 21
3.8118317672
  0
LINE
  5
377
100
AcDbEntity
  8
SCRITTE
100
AcDbLine
 62
253
  6
CONTINUOUS
 10
41.2358936622
 20
0.2810308883
 11
41.2358936622
 21
0.0810309002
  0
LINE
  5
378
100
AcDbEntity
  8
SCRITTE
100
AcDbLine
 62
253
  6
CONTINUOUS
 10
41.6358938052
 20
-2.6189691236
 11
41.6358938052
 21
-1.8189690879
  0
LINE
  5
379
100
AcDbEntity
  8
SCRITTE
100
AcDbLine
 62
253
  6
CONTINUOUS
 10
41.7358935668
 20
3.8135771409
 11
41.7358935668
 21
3.8223040087
  0
LINE
  5
37A
100
AcDbEntity
  8
0
100
AcDbLine
 62
7
  6
CONTINUOUS
 10
42.3330917099
 20
2.4985928764
 11
41.7999067099
 21
0.7987298764
  0
LINE
  5
37B
100
AcDbEntity
  8
ASSI
100
AcDbLine
 62
7
  6
CONTINUOUS
 10
42.3330917099
 20
2.4985928764
 11
41.7999067099
 21
0.7987298764
  0
LINE
  5
37C
100
AcDbEntity
  8
0
100
AcDbLine
 62
7
  6
CONTINUOUS
 10
41.2341657099
 20
2.4985928764
 11
40.8793377099
 21
1.5548238764
  0
LINE
  5
37D
100
AcDbEntity
  8
ASSI
100
AcDbLine
 62
7
  6
CONTINUOUS
 10
41.2341657099
 20
2.4985928764
 11
40.8793377099
 21
1.5548238764
  0
LINE
  5
37E
100
AcDbEntity
  8
0
100
AcDbLine
 62
7
  6
CONTINUOUS
 10
40.9022817099
 20
0.7987298764
 11
41.3241727099
 21
1.9040818764
  0
LINE
  5
37F
100
AcDbEntity
  8
ASSI
100
AcDbLine
 62
7
  6
CONTINUOUS
 10
40.9022817099
 20
0.7987298764
 11
41.3241727099
 21
1.9040818764
  0
LINE
  5
380
100
AcDbEntity
  8
SCRITTE
100
AcDbLine
 62
253
  6
CONTINUOUS
 10
39.6358937575
 20
-1.2189691236
 11
38.8358937218
 21
-2.6189691236
  0
LINE
  5
381
100
AcDbEntity
  8
SCRITTE
100
AcDbLine
 62
253
  6
CONTINUOUS
 10
40.5358936622
 20
0.1810308525
 11
40.7358935668
 21
0.4810308764
  0
LINE
  5
382
100
AcDbEntity
  8
SCRITTE
100
AcDbLine
 62
253
  6
CONTINUOUS
 10
39.1358936622
 20
0.0810309002
 11
38.4358937456
 21
-0.9189691236
  0
LINE
  5
383
100
AcDbEntity
  8
SCRITTE
100
AcDbLine
 62
253
  6
CONTINUOUS
 10
38.0358937277
 20
0.4810308764
 11
37.6358937099
 21
0.0810309002
  0
LINE
  5
384
100
AcDbEntity
  8
RACCORDO
100
AcDbLine
 62
253
  6
CONTINUOUS
 10
35.0658937099
 20
-3.0390605065
 11
35.1463697883
 21
-2.9585844281
  0
LINE
  5
385
100
AcDbEntity
  8
RACCORDO
100
AcDbLine
 62
7
  6
CONTINUOUS
 10
36.1530635278
 20
-2.3017993057
 11
36.1358937099
 21
-2.3189691236
  0
LINE
  5
386
100
AcDbEntity
  8
ASSI
100
AcDbLine
 62
7
  6
CONTINUOUS
 10
36.1530635278
 20
-2.3017993057
 11
36.1358937099
 21
-2.3189691236
  0
LINE
  5
387
100
AcDbEntity
  8
RACCORDO
100
AcDbLine
 62
253
  6
CONTINUOUS
 10
35.6658023269
 20
-3.6389691236
 11
35.7462784054
 21
-3.5584930452
  0
LINE
  5
388
100
AcDbEntity
  8
RACCORDO
100
AcDbLine
 62
7
  6
CONTINUOUS
 10
68.7529615542
 20
-1.7543367838
 11
68.7007412568
 21
-1.764478263
  0
LINE
  5
389
100
AcDbEntity
  8
ASSI
100
AcDbLine
 62
7
  6
CONTINUOUS
 10
68.7529615542
 20
-1.7543367838
 11
68.7007412568
 21
-1.764478263
  0
LWPOLYLINE
  5
38A
100
AcDbEntity
  8
RACCORDO
100
AcDbPolyline
 62
7
  6
CONTINUOUS
 90
6
 70
0
 10
68.7392639151
 20
-2.8172845344
 10
68.7368558832
 20
-2.8175926749
 10
68.7320142776
 20
-2.8178749462
 10
68.7247390983
 20
-2.8181313482
 10
68.7146842675
 20
-2.81836771
 10
68.702195863
 20
-2.8185782027
  0
LINE
  5
38B
100
AcDbEntity
  8
RACCORDO
100
AcDbLine
 62
253
  6
CONTINUOUS
 10
35.1463697883
 20
3.1206461809
 11
35.0658937099
 21
3.2011222593
  0
LINE
  5
38C
100
AcDbEntity
  8
RACCORDO
100
AcDbLine
 62
7
  6
CONTINUOUS
 10
36.1358937099
 20
2.4810308764
 11
36.1530635278
 21
2.4638610584
  0
LINE
  5
38D
100
AcDbEntity
  8
ASSI
100
AcDbLine
 62
7
  6
CONTINUOUS
 10
36.1358937099
 20
2.4810308764
 11
36.1530635278
 21
2.4638610584
  0
LINE
  5
38E
100
AcDbEntity
  8
SCRITTE
100
AcDbLine
 62
253
  6
CONTINUOUS
 10
38.9358936741
 20
0.4810308764
 11
39.1358936622
 21
0.2810308883
  0
LINE
  5
38F
100
AcDbEntity
  8
RACCORDO
100
AcDbLine
 62
253
  6
CONTINUOUS
 10
35.7462784054
 20
3.720554798
 11
35.6658023269
 21
3.8010308764
  0
LINE
  5
390
100
AcDbEntity
  8
RACCORDO
100
AcDbLine
 62
253
  6
CONTINUOUS
 10
36.1358937099
 20
3.6810365879
 11
36.1773844095
 21
3.6395458882
  0
LINE
  5
391
100
AcDbEntity
  8
ASSI
100
AcDbLine
 62
253
  6
CONTINUOUS
 10
36.1358937099
 20
3.6810365879
 11
36.1773844095
 21
3.6395458882
  0
LINE
  5
392
100
AcDbEntity
  8
DRAFT
100
AcDbLine
 62
7
  6
CONTINUOUS
 10
36.9324026969
 20
3.0345218893
 11
36.9358937099
 21
3.0310308764
  0
LINE
  5
393
100
AcDbEntity
  8
SCRITTE
100
AcDbLine
 62
253
  6
CONTINUOUS
 10
41.6358938052
 20
-1.8189690879
 11
41.2358936622
 21
-1.2189691236
  0
LINE
  5
394
100
AcDbEntity
  8
0
100
AcDbLine
 62
7
  6
CONTINUOUS
 10
40.4362617099
 20
1.9087088764
 11
40.8525177099
 21
0.7987298764
  0
LINE
  5
395
100
AcDbEntity
  8
ASSI
100
AcDbLine
 62
7
  6
CONTINUOUS
 10
40.4362617099
 20
1.9087088764
 11
40.8525177099
 21
0.7987298764
  0
LINE
  5
396
100
AcDbEntity
  8
0
100
AcDbLine
 62
7
  6
CONTINUOUS
 10
40.8793377099
 20
1.5548238764
 11
40.5282567099
 21
2.4985928764
  0
LINE
  5
397
100
AcDbEntity
  8
ASSI
100
AcDbLine
 62
7
  6
CONTINUOUS
 10
40.8793377099
 20
1.5548238764
 11
40.5282567099
 21
2.4985928764
  0
LINE
  5
398
100
AcDbEntity
  8
SCRITTE
100
AcDbLine
 62
253
  6
CONTINUOUS
 10
42.1025603606
 20
-0.2189691236
 11
42.1025603606
 21
-0.9189691236
  0
LINE
  5
399
100
AcDbEntity
  8
SCRITTE
100
AcDbLine
 62
253
  6
CONTINUOUS
 10
42.3025604083
 20
3.8240493821
 11
42.3025604083
 21
3.8118317672
  0
LINE
  5
39A
100
AcDbEntity
  8
0
100
AcDbLine
 62
7
  6
CONTINUOUS
 10
43.3021003738
 20
2.4787329585
 11
43.3021003738
 21
0.7987301897
  0
LINE
  5
39B
100
AcDbEntity
  8
ASSI
100
AcDbLine
 62
7
  6
CONTINUOUS
 10
43.3021003738
 20
2.4787329585
 11
43.3021003738
 21
0.7987301897
  0
LINE
  5
39C
100
AcDbEntity
  8
SCRITTE
100
AcDbLine
 62
253
  6
CONTINUOUS
 10
41.9358936622
 20
0.4810308764
 11
41.6358938052
 21
-0.6189691207
  0
LINE
  5
39D
100
AcDbEntity
  8
0
100
AcDbLine
 62
7
  6
CONTINUOUS
 10
42.3213777099
 20
1.4006728764
 11
42.4980517099
 21
2.0315138764
  0
LINE
  5
39E
100
AcDbEntity
  8
ASSI
100
AcDbLine
 62
7
  6
CONTINUOUS
 10
42.3213777099
 20
1.4006728764
 11
42.4980517099
 21
2.0315138764
  0
LINE
  5
39F
100
AcDbEntity
  8
0
100
AcDbLine
 62
7
  6
CONTINUOUS
 10
42.1508847099
 20
0.7987298764
 11
42.2487957099
 21
1.1380828764
  0
LINE
  5
3A0
100
AcDbEntity
  8
ASSI
100
AcDbLine
 62
7
  6
CONTINUOUS
 10
42.1508847099
 20
0.7987298764
 11
42.2487957099
 21
1.1380828764
  0
LINE
  5
3A1
100
AcDbEntity
  8
SCRITTE
100
AcDbLine
 62
253
  6
CONTINUOUS
 10
40.8358938529
 20
-1.2189691236
 11
40.4358937099
 21
-1.8189690879
  0
LINE
  5
3A2
100
AcDbEntity
  8
SCRITTE
100
AcDbLine
 62
253
  6
CONTINUOUS
 10
41.2358936622
 20
0.0810309002
 11
40.5358936622
 21
-0.9189691236
  0
LINE
  5
3A3
100
AcDbEntity
  8
RACCORDO
100
AcDbLine
 62
253
  6
CONTINUOUS
 10
36.1773844095
 20
-3.4774841355
 11
36.1358937099
 21
-3.5189748352
  0
LINE
  5
3A4
100
AcDbEntity
  8
ASSI
100
AcDbLine
 62
253
  6
CONTINUOUS
 10
36.1773844095
 20
-3.4774841355
 11
36.1358937099
 21
-3.5189748352
  0
LINE
  5
3A5
100
AcDbEntity
  8
DRAFT
100
AcDbLine
 62
7
  6
CONTINUOUS
 10
36.9324026969
 20
-2.8724601366
 11
36.9358937099
 21
-2.8689691236
  0
LINE
  5
3A6
100
AcDbEntity
  8
RACCORDO
100
AcDbLine
 62
253
  6
CONTINUOUS
 10
36.327378698
 20
-3.627478424
 11
36.2858879983
 21
-3.6689691236
  0
LINE
  5
3A7
100
AcDbEntity
  8
ASSI
100
AcDbLine
 62
253
  6
CONTINUOUS
 10
36.327378698
 20
-3.627478424
 11
36.2858879983
 21
-3.6689691236
  0
LINE
  5
3A8
100
AcDbEntity
  8
SCRITTE
100
AcDbLine
 62
253
  6
CONTINUOUS
 10
53.6171437099
 20
-2.6189691236
 11
53.7921437099
 21
-2.5752191236
  0
LINE
  5
3A9
100
AcDbEntity
  8
RACCORDO
100
AcDbLine
 62
7
  6
CONTINUOUS
 10
54.8358937099
 20
-3.655878822
 11
54.7286197718
 21
-3.6665792423
  0
LINE
  5
3AA
100
AcDbEntity
  8
ASSI
100
AcDbLine
 62
7
  6
CONTINUOUS
 10
54.8358937099
 20
-3.655878822
 11
54.7286197718
 21
-3.6665792423
  0
LWPOLYLINE
  5
3AB
100
AcDbEntity
  8
RACCORDO
100
AcDbPolyline
 62
7
  6
CONTINUOUS
 90
6
 70
0
 10
69.6359089403
 20
-2.8189691236
 10
69.6532620753
 20
-2.8174457561
 10
69.6700889039
 20
-2.8129323714
 10
69.6858783577
 20
-2.8055652897
 10
69.7001505657
 20
-2.7955673891
 10
69.7065675608
 20
-2.7896860881
  0
LWPOLYLINE
  5
3AC
100
AcDbEntity
  8
RACCORDO
100
AcDbPolyline
 62
7
  6
CONTINUOUS
 90
16
 70
0
 10
55.0886403679
 20
-3.7213502779
 10
55.1524651911
 20
-3.7177656967
 10
55.2142619617
 20
-3.7079815373
 10
55.2740306799
 20
-3.6919977998
 10
55.3323743337
 20
-3.6695055809
 10
55.3886899351
 20
-3.6408137839
 10
55.4411685196
 20
-3.606849118
 10
55.4896857092
 20
-3.5674418886
 10
55.5343658821
 20
-3.5227617902
 10
55.5737732082
 20
-3.474244616
 10
55.6077379985
 20
-3.4217659553
 10
55.636429942
 20
-3.3654502186
 10
55.6589222766
 20
-3.3071064305
 10
55.6749060814
 20
-3.247337599
 10
55.6846902772
 20
-3.1855407161
 10
55.6882748641
 20
-3.1217157817
  0
LWPOLYLINE
  5
3AD
100
AcDbEntity
  8
RACCORDO
100
AcDbPolyline
 62
253
  6
CONTINUOUS
 90
19
 70
0
 10
54.9944258564
 20
-3.627478424
 10
55.0467154454
 20
-3.6251922067
 10
55.098607045
 20
-3.618357573
 10
55.1497057715
 20
-3.6070265397
 10
55.1996227702
 20
-3.5912853451
 10
55.2479781878
 20
-3.5712537787
 10
55.2944040606
 20
-3.5470842632
 10
55.3385470878
 20
-3.5189607263
 10
55.3800713531
 20
-3.4870971814
 10
55.4186608852
 20
-3.4517360711
 10
55.4540220507
 20
-3.4131464276
 10
55.4858856966
 20
-3.3716219488
 10
55.5140092592
 20
-3.3274787588
 10
55.5381787096
 20
-3.2810528575
 10
55.5582101821
 20
-3.2326974928
 10
55.5739512832
 20
-3.182780599
 10
55.5852822375
 20
-3.1316820179
 10
55.5921168147
 20
-3.0797906147
 10
55.5944030102
 20
-3.0275012701
  0
LWPOLYLINE
  5
3AE
100
AcDbEntity
  8
ASSI
100
AcDbPolyline
 62
253
  6
CONTINUOUS
 90
19
 70
0
 10
54.9944258564
 20
-3.627478424
 10
55.0467154454
 20
-3.6251922067
 10
55.098607045
 20
-3.618357573
 10
55.1497057715
 20
-3.6070265397
 10
55.1996227702
 20
-3.5912853451
 10
55.2479781878
 20
-3.5712537787
 10
55.2944040606
 20
-3.5470842632
 10
55.3385470878
 20
-3.5189607263
 10
55.3800713531
 20
-3.4870971814
 10
55.4186608852
 20
-3.4517360711
 10
55.4540220507
 20
-3.4131464276
 10
55.4858856966
 20
-3.3716219488
 10
55.5140092592
 20
-3.3274787588
 10
55.5381787096
 20
-3.2810528575
 10
55.5582101821
 20
-3.2326974928
 10
55.5739512832
 20
-3.182780599
 10
55.5852822375
 20
-3.1316820179
 10
55.5921168147
 20
-3.0797906147
 10
55.5944030102
 20
-3.0275012701
  0
LWPOLYLINE
  5
3AF
100
AcDbEntity
  8
RACCORDO
100
AcDbPolyline
 62
7
  6
CONTINUOUS
 90
16
 70
0
 10
35.6355282061
 20
-3.6689691236
 10
35.5716659512
 20
-3.6653804941
 10
35.5098346035
 20
-3.6555850985
 10
35.4500341631
 20
-3.639582937
 10
35.3916603726
 20
-3.6170643675
 10
35.3353174894
 20
-3.588339032
 10
35.2828182853
 20
-3.5543358566
 10
35.2342877618
 20
-3.5148847751
 10
35.1896009173
 20
-3.4701558537
 10
35.1501955191
 20
-3.4215882166
 10
35.1162417606
 20
-3.3690361271
 10
35.0875694484
 20
-3.3126453219
 10
35.0651057686
 20
-3.2542921359
 10
35.0491597833
 20
-3.1946020139
 10
35.0394224304
 20
-3.1329495111
 10
35.0358937099
 20
-3.0693346274
  0
LWPOLYLINE
  5
3B0
100
AcDbEntity
  8
RACCORDO
100
AcDbPolyline
 62
7
  6
CONTINUOUS
 90
16
 70
0
 10
35.6658023269
 20
-3.6389691236
 10
35.6019744366
 20
-3.6353834381
 10
35.5401696387
 20
-3.6255948848
 10
35.4803879333
 20
-3.609603464
 10
35.4220267946
 20
-3.5871022591
 10
35.3656887484
 20
-3.5583981865
 10
35.3131813718
 20
-3.5244119955
 10
35.2646233744
 20
-3.4849667862
 10
35.2198960466
 20
-3.4402394583
 10
35.1804508374
 20
-3.3916814609
 10
35.1464646465
 20
-3.3391740844
 10
35.1177605742
 20
-3.2828360384
 10
35.0952593694
 20
-3.2244748999
 10
35.0792679486
 20
-3.1646931946
 10
35.0694793954
 20
-3.1028883968
 10
35.0658937099
 20
-3.0390605065
  0
LWPOLYLINE
  5
3B1
100
AcDbEntity
  8
RACCORDO
100
AcDbPolyline
 62
7
  6
CONTINUOUS
 90
13
 70
0
 10
36.2858879983
 20
-3.6689691236
 10
36.2657828465
 20
-3.6675072667
 10
36.2466489101
 20
-3.6637013776
 10
36.2284861892
 20
-3.6575514562
 10
36.211020388
 20
-3.6488741921
 10
36.1945258022
 20
-3.6378528958
 10
36.179825319
 20
-3.6250374986
 10
36.1670099247
 20
-3.6103370157
 10
36.1559886329
 20
-3.5938424318
 10
36.1473113727
 20
-3.5763766332
 10
36.1411614536
 20
-3.5582139153
 10
36.137355566
 20
-3.5390799826
 10
36.1358937099
 20
-3.5189748352
  0
LWPOLYLINE
  5
3B2
100
AcDbEntity
  8
ASSI
100
AcDbPolyline
 62
7
  6
CONTINUOUS
 90
13
 70
0
 10
36.2858879983
 20
-3.6689691236
 10
36.2657828465
 20
-3.6675072667
 10
36.2466489101
 20
-3.6637013776
 10
36.2284861892
 20
-3.6575514562
 10
36.211020388
 20
-3.6488741921
 10
36.1945258022
 20
-3.6378528958
 10
36.179825319
 20
-3.6250374986
 10
36.1670099247
 20
-3.6103370157
 10
36.1559886329
 20
-3.5938424318
 10
36.1473113727
 20
-3.5763766332
 10
36.1411614536
 20
-3.5582139153
 10
36.137355566
 20
-3.5390799826
 10
36.1358937099
 20
-3.5189748352
  0
LWPOLYLINE
  5
3B3
100
AcDbEntity
  8
RACCORDO
100
AcDbPolyline
 62
253
  6
CONTINUOUS
 90
10
 70
0
 10
36.327378698
 20
-3.627478424
 10
36.3013337113
 20
-3.6251979104
 10
36.2760800124
 20
-3.6184296222
 10
36.2523848479
 20
-3.6073791908
 10
36.2309681138
 20
-3.5923823456
 10
36.2124804835
 20
-3.5738947145
 10
36.1974836397
 20
-3.5524779803
 10
36.1864332097
 20
-3.5287828166
 10
36.1796649226
 20
-3.5035291195
 10
36.1773844095
 20
-3.4774841355
  0
LWPOLYLINE
  5
3B4
100
AcDbEntity
  8
ASSI
100
AcDbPolyline
 62
253
  6
CONTINUOUS
 90
10
 70
0
 10
36.327378698
 20
-3.627478424
 10
36.3013337113
 20
-3.6251979104
 10
36.2760800124
 20
-3.6184296222
 10
36.2523848479
 20
-3.6073791908
 10
36.2309681138
 20
-3.5923823456
 10
36.2124804835
 20
-3.5738947145
 10
36.1974836397
 20
-3.5524779803
 10
36.1864332097
 20
-3.5287828166
 10
36.1796649226
 20
-3.5035291195
 10
36.1773844095
 20
-3.4774841355
  0
LWPOLYLINE
  5
3B5
100
AcDbEntity
  8
RACCORDO
100
AcDbPolyline
 62
7
  6
CONTINUOUS
 90
9
 70
0
 10
34.9483627258
 20
-1.6314381396
 10
34.9505707045
 20
-1.6318838452
 10
34.9556359686
 20
-1.6323088843
 10
34.9635585181
 20
-1.6327132568
 10
34.9745493879
 20
-1.6331025759
 10
34.9883975431
 20
-1.6334712284
 10
35.0044698789
 20
-1.6338023752
 10
35.0228694494
 20
-1.6340942739
 10
35.065398865
 20
-1.6345539414
  0
LWPOLYLINE
  5
3B6
100
AcDbEntity
  8
ASSI
100
AcDbPolyline
 62
7
  6
CONTINUOUS
 90
9
 70
0
 10
34.9483627258
 20
-1.6314381396
 10
34.9505707045
 20
-1.6318838452
 10
34.9556359686
 20
-1.6323088843
 10
34.9635585181
 20
-1.6327132568
 10
34.9745493879
 20
-1.6331025759
 10
34.9883975431
 20
-1.6334712284
 10
35.0044698789
 20
-1.6338023752
 10
35.0228694494
 20
-1.6340942739
 10
35.065398865
 20
-1.6345539414
  0
LINE
  5
3B7
100
AcDbEntity
  8
RACCORDO
100
AcDbLine
 62
253
  6
CONTINUOUS
 10
36.2858879983
 20
3.8310308764
 11
36.327378698
 21
3.7895401767
  0
LINE
  5
3B8
100
AcDbEntity
  8
ASSI
100
AcDbLine
 62
253
  6
CONTINUOUS
 10
36.2858879983
 20
3.8310308764
 11
36.327378698
 21
3.7895401767
  0
LINE
  5
3B9
100
AcDbEntity
  8
SCRITTE
100
AcDbLine
 62
253
  6
CONTINUOUS
 10
41.0358937575
 20
0.4810308764
 11
41.2358936622
 21
0.2810308883
  0
LINE
  5
3BA
100
AcDbEntity
  8
0
100
AcDbLine
 62
7
  6
CONTINUOUS
 10
43.1979057099
 20
0.7987298764
 11
42.6763457099
 21
2.4985928764
  0
LINE
  5
3BB
100
AcDbEntity
  8
ASSI
100
AcDbLine
 62
7
  6
CONTINUOUS
 10
43.1979057099
 20
0.7987298764
 11
42.6763457099
 21
2.4985928764
  0
LINE
  5
3BC
100
AcDbEntity
  8
SCRITTE
100
AcDbLine
 62
253
  6
CONTINUOUS
 10
43.1358937575
 20
-0.9189691236
 11
42.7358936145
 21
0.4810308764
  0
LINE
  5
3BD
100
AcDbEntity
  8
0
100
AcDbLine
 62
7
  6
CONTINUOUS
 10
42.7320127099
 20
1.1380828764
 11
42.8239317099
 21
0.7987298764
  0
LINE
  5
3BE
100
AcDbEntity
  8
ASSI
100
AcDbLine
 62
7
  6
CONTINUOUS
 10
42.7320127099
 20
1.1380828764
 11
42.8239317099
 21
0.7987298764
  0
LINE
  5
3BF
100
AcDbEntity
  8
0
100
AcDbLine
 62
7
  6
CONTINUOUS
 10
42.4980517099
 20
2.0315138764
 11
42.6610997099
 21
1.4006728764
  0
LINE
  5
3C0
100
AcDbEntity
  8
ASSI
100
AcDbLine
 62
7
  6
CONTINUOUS
 10
42.4980517099
 20
2.0315138764
 11
42.6610997099
 21
1.4006728764
  0
LINE
  5
3C1
100
AcDbEntity
  8
0
100
AcDbLine
 62
7
  6
CONTINUOUS
 10
43.6437351415
 20
1.7423590449
 11
43.6437351415
 21
2.2090045273
  0
LINE
  5
3C2
100
AcDbEntity
  8
ASSI
100
AcDbLine
 62
7
  6
CONTINUOUS
 10
43.6437351415
 20
1.7423590449
 11
43.6437351415
 21
2.2090045273
  0
LINE
  5
3C3
100
AcDbEntity
  8
0
100
AcDbLine
 62
7
  6
CONTINUOUS
 10
43.6555007058
 20
0.7987301897
 11
43.6555007058
 21
1.4639625922
  0
LINE
  5
3C4
100
AcDbEntity
  8
ASSI
100
AcDbLine
 62
7
  6
CONTINUOUS
 10
43.6555007058
 20
0.7987301897
 11
43.6555007058
 21
1.4639625922
  0
LINE
  5
3C5
100
AcDbEntity
  8
0
100
AcDbLine
 62
7
  6
CONTINUOUS
 10
44.2143458926
 20
1.592211068
 11
44.2143458926
 21
1.6022557751
  0
LINE
  5
3C6
100
AcDbEntity
  8
ASSI
100
AcDbLine
 62
7
  6
CONTINUOUS
 10
44.2143458926
 20
1.592211068
 11
44.2143458926
 21
1.6022557751
  0
LINE
  5
3C7
100
AcDbEntity
  8
SCRITTE
100
AcDbLine
 62
253
  6
CONTINUOUS
 10
44.6692267253
 20
3.8240493821
 11
44.6692267253
 21
3.8118317672
  0
LWPOLYLINE
  5
3C8
100
AcDbEntity
  8
0
100
AcDbPolyline
 62
7
  6
CONTINUOUS
 90
16
 70
0
 10
44.1221461883
 20
2.0065169976
 10
44.1203369225
 20
1.9730767819
 10
44.1158318701
 20
1.9415507664
 10
44.108631031
 20
1.9119389512
 10
44.0985576483
 20
1.883952645
 10
44.085788479
 20
1.857880539
 10
44.0708537943
 20
1.8345887068
 10
44.0539162401
 20
1.8144417856
 10
44.0348131704
 20
1.7970751382
 10
44.0135869185
 20
1.782260926
 10
43.9900742397
 20
1.7700773538
 10
43.9644383786
 20
1.760446217
 10
43.9372114028
 20
1.7529050629
 10
43.908570668
 20
1.7472997408
 10
43.8783388185
 20
1.7437844014
 10
43.8465158543
 20
1.7423590449
  0
LWPOLYLINE
  5
3C9
100
AcDbEntity
  8
ASSI
100
AcDbPolyline
 62
7
  6
CONTINUOUS
 90
16
 70
0
 10
44.1221461883
 20
2.0065169976
 10
44.1203369225
 20
1.9730767819
 10
44.1158318701
 20
1.9415507664
 10
44.108631031
 20
1.9119389512
 10
44.0985576483
 20
1.883952645
 10
44.085788479
 20
1.857880539
 10
44.0708537943
 20
1.8345887068
 10
44.0539162401
 20
1.8144417856
 10
44.0348131704
 20
1.7970751382
 10
44.0135869185
 20
1.782260926
 10
43.9900742397
 20
1.7700773538
 10
43.9644383786
 20
1.760446217
 10
43.9372114028
 20
1.7529050629
 10
43.908570668
 20
1.7472997408
 10
43.8783388185
 20
1.7437844014
 10
43.8465158543
 20
1.7423590449
  0
LINE
  5
3CA
100
AcDbEntity
  8
SCRITTE
100
AcDbLine
 62
253
  6
CONTINUOUS
 10
43.5358939006
 20
0.4810308764
 11
43.1358937575
 21
-0.9189691236
  0
LINE
  5
3CB
100
AcDbEntity
  8
SCRITTE
100
AcDbLine
 62
253
  6
CONTINUOUS
 10
42.4358937575
 20
-2.6189691236
 11
43.1358937575
 21
-1.2189691236
  0
LINE
  5
3CC
100
AcDbEntity
  8
SCRITTE
100
AcDbLine
 62
253
  6
CONTINUOUS
 10
42.0358936145
 20
-1.2189691236
 11
41.6358938052
 21
-1.8189690879
  0
LINE
  5
3CD
100
AcDbEntity
  8
CURVE
100
AcDbLine
 62
253
  6
CONTINUOUS
 10
45.9573222845
 20
2.4810308764
 11
45.7430365718
 21
2.2667451748
  0
LWPOLYLINE
  5
3CE
100
AcDbEntity
  8
0
100
AcDbPolyline
 62
7
  6
CONTINUOUS
 90
40
 70
0
 10
44.265784271
 20
1.6302315633
 10
44.2861603715
 20
1.6474824208
 10
44.2964371102
 20
1.6564971232
 10
44.3067230261
 20
1.6659591778
 10
44.3170377826
 20
1.6758115458
 10
44.3273617164
 20
1.686111266
 10
44.337603241
 20
1.6971116565
 10
44.3477750363
 20
1.7088361756
 10
44.3578644224
 20
1.7212613652
 10
44.3677417728
 20
1.7345701689
 10
44.3774192157
 20
1.7488112712
 10
44.3868846228
 20
1.7639359876
 10
44.3959719836
 20
1.779981209
 10
44.4046997238
 20
1.7969644817
 10
44.4130494176
 20
1.8148682593
 10
44.4207997771
 20
1.8336767932
 10
44.4279549596
 20
1.8533794736
 10
44.4345108078
 20
1.8739869102
 10
44.4402335627
 20
1.8955151836
 10
44.4451247053
 20
1.9179609911
 10
44.4491827546
 20
1.9413276353
 10
44.4521695085
 20
1.9656411051
 10
44.4541074523
 20
1.9909360006
 10
44.4549741006
 20
2.0171777216
 10
44.4544637947
 20
2.0442884564
 10
44.4526939
 20
2.0723023212
 10
44.4495470511
 20
2.1011851998
 10
44.4443654919
 20
2.1307569313
 10
44.4372142167
 20
2.1611170378
 10
44.4280282312
 20
2.1921659973
 10
44.4159547972
 20
2.2234250823
 10
44.4008857882
 20
2.2551046674
 10
44.3829293307
 20
2.2869943779
 10
44.3615570664
 20
2.3179843622
 10
44.3359548415
 20
2.3485185315
 10
44.3069368096
 20
2.3781529745
 10
44.2764170736
 20
2.4044461058
 10
44.2450336677
 20
2.4265840635
 10
44.2121485576
 20
2.4453807095
 10
44.1777617434
 20
2.4608360437
  0
LWPOLYLINE
  5
3CF
100
AcDbEntity
  8
ASSI
100
AcDbPolyline
 62
7
  6
CONTINUOUS
 90
40
 70
0
 10
44.265784271
 20
1.6302315633
 10
44.2861603715
 20
1.6474824208
 10
44.2964371102
 20
1.6564971232
 10
44.3067230261
 20
1.6659591778
 10
44.3170377826
 20
1.6758115458
 10
44.3273617164
 20
1.686111266
 10
44.337603241
 20
1.6971116565
 10
44.3477750363
 20
1.7088361756
 10
44.3578644224
 20
1.7212613652
 10
44.3677417728
 20
1.7345701689
 10
44.3774192157
 20
1.7488112712
 10
44.3868846228
 20
1.7639359876
 10
44.3959719836
 20
1.779981209
 10
44.4046997238
 20
1.7969644817
 10
44.4130494176
 20
1.8148682593
 10
44.4207997771
 20
1.8336767932
 10
44.4279549596
 20
1.8533794736
 10
44.4345108078
 20
1.8739869102
 10
44.4402335627
 20
1.8955151836
 10
44.4451247053
 20
1.9179609911
 10
44.4491827546
 20
1.9413276353
 10
44.4521695085
 20
1.9656411051
 10
44.4541074523
 20
1.9909360006
 10
44.4549741006
 20
2.0171777216
 10
44.4544637947
 20
2.0442884564
 10
44.4526939
 20
2.0723023212
 10
44.4495470511
 20
2.1011851998
 10
44.4443654919
 20
2.1307569313
 10
44.4372142167
 20
2.1611170378
 10
44.4280282312
 20
2.1921659973
 10
44.4159547972
 20
2.2234250823
 10
44.4008857882
 20
2.2551046674
 10
44.3829293307
 20
2.2869943779
 10
44.3615570664
 20
2.3179843622
 10
44.3359548415
 20
2.3485185315
 10
44.3069368096
 20
2.3781529745
 10
44.2764170736
 20
2.4044461058
 10
44.2450336677
 20
2.4265840635
 10
44.2121485576
 20
2.4453807095
 10
44.1777617434
 20
2.4608360437
  0
LINE
  5
3D0
100
AcDbEntity
  8
0
100
AcDbLine
 62
7
  6
CONTINUOUS
 10
44.2556849091
 20
1.6219954082
 11
44.265784271
 21
1.6302315633
  0
LINE
  5
3D1
100
AcDbEntity
  8
ASSI
100
AcDbLine
 62
7
  6
CONTINUOUS
 10
44.2556849091
 20
1.6219954082
 11
44.265784271
 21
1.6302315633
  0
LINE
  5
3D2
100
AcDbEntity
  8
RACCORDO
100
AcDbLine
 62
253
  6
CONTINUOUS
 10
34.9336541517
 20
-2.1070213611
 11
34.9431599573
 21
-2.1022688202
  0
LINE
  5
3D3
100
AcDbEntity
  8
ASSI
100
AcDbLine
 62
253
  6
CONTINUOUS
 10
34.9336541517
 20
-2.1070213611
 11
34.9431599573
 21
-2.1022688202
  0
LINE
  5
3D4
100
AcDbEntity
  8
SCRITTE
100
AcDbLine
 62
253
  6
CONTINUOUS
 10
53.6171437099
 20
-1.8314691236
 11
53.4421437099
 21
-1.8752191236
  0
LINE
  5
3D5
100
AcDbEntity
  8
RACCORDO
100
AcDbLine
 62
7
  6
CONTINUOUS
 10
68.7007412568
 20
-1.764478263
 11
68.6358937099
 21
-1.7689691236
  0
LINE
  5
3D6
100
AcDbEntity
  8
ASSI
100
AcDbLine
 62
7
  6
CONTINUOUS
 10
68.7007412568
 20
-1.764478263
 11
68.6358937099
 21
-1.7689691236
  0
LWPOLYLINE
  5
3D7
100
AcDbEntity
  8
RACCORDO
100
AcDbPolyline
 62
253
  6
CONTINUOUS
 90
19
 70
0
 10
54.9944258564
 20
-3.1274974624
 10
55.0031614666
 20
-3.1271136365
 10
55.0117302151
 20
-3.1259935738
 10
55.0201321017
 20
-3.1241372745
 10
55.0284370395
 20
-3.121520537
 10
55.0365751155
 20
-3.1181675628
 10
55.0443365911
 20
-3.1141509562
 10
55.0517072153
 20
-3.1094523073
 10
55.058701239
 20
-3.1040900259
 10
55.0651516762
 20
-3.0981919458
 10
55.0710419443
 20
-3.091747248
 10
55.0763886259
 20
-3.0847667514
 10
55.0810744823
 20
-3.0774107462
 10
55.0850847216
 20
-3.0696663049
 10
55.0884341358
 20
-3.0615463549
 10
55.0910498619
 20
-3.0532499691
 10
55.0929076122
 20
-3.0448435052
 10
55.0940316745
 20
-3.0362606056
 10
55.0944220487
 20
-3.0275012701
  0
LWPOLYLINE
  5
3D8
100
AcDbEntity
  8
ASSI
100
AcDbPolyline
 62
253
  6
CONTINUOUS
 90
19
 70
0
 10
54.9944258564
 20
-3.1274974624
 10
55.0031614666
 20
-3.1271136365
 10
55.0117302151
 20
-3.1259935738
 10
55.0201321017
 20
-3.1241372745
 10
55.0284370395
 20
-3.121520537
 10
55.0365751155
 20
-3.1181675628
 10
55.0443365911
 20
-3.1141509562
 10
55.0517072153
 20
-3.1094523073
 10
55.058701239
 20
-3.1040900259
 10
55.0651516762
 20
-3.0981919458
 10
55.0710419443
 20
-3.091747248
 10
55.0763886259
 20
-3.0847667514
 10
55.0810744823
 20
-3.0774107462
 10
55.0850847216
 20
-3.0696663049
 10
55.0884341358
 20
-3.0615463549
 10
55.0910498619
 20
-3.0532499691
 10
55.0929076122
 20
-3.0448435052
 10
55.0940316745
 20
-3.0362606056
 10
55.0944220487
 20
-3.0275012701
  0
LWPOLYLINE
  5
3D9
100
AcDbEntity
  8
RACCORDO
100
AcDbPolyline
 62
7
  6
CONTINUOUS
 90
4
 70
0
 10
54.6988222325
 20
-3.6675090186
 10
54.7128201282
 20
-3.6672165907
 10
54.7227526413
 20
-3.6669066653
 10
54.7286197718
 20
-3.6665792423
  0
LWPOLYLINE
  5
3DA
100
AcDbEntity
  8
ASSI
100
AcDbPolyline
 62
7
  6
CONTINUOUS
 90
4
 70
0
 10
54.6988222325
 20
-3.6675090186
 10
54.7128201282
 20
-3.6672165907
 10
54.7227526413
 20
-3.6669066653
 10
54.7286197718
 20
-3.6665792423
  0
LINE
  5
3DB
100
AcDbEntity
  8
RACCORDO
100
AcDbLine
 62
7
  6
CONTINUOUS
 10
54.6579614754
 20
-3.6680491608
 11
54.6988222325
 21
-3.6675090186
  0
LINE
  5
3DC
100
AcDbEntity
  8
ASSI
100
AcDbLine
 62
7
  6
CONTINUOUS
 10
54.6579614754
 20
-3.6680491608
 11
54.6988222325
 21
-3.6675090186
  0
LINE
  5
3DD
100
AcDbEntity
  8
RACCORDO
100
AcDbLine
 62
7
  6
CONTINUOUS
 10
68.702195863
 20
-2.8185782027
 11
68.6733791102
 21
-2.8188632902
  0
LINE
  5
3DE
100
AcDbEntity
  8
RACCORDO
100
AcDbLine
 62
7
  6
CONTINUOUS
 10
54.5719218319
 20
-3.6686554876
 11
54.6579614754
 21
-3.6680491608
  0
LINE
  5
3DF
100
AcDbEntity
  8
ASSI
100
AcDbLine
 62
7
  6
CONTINUOUS
 10
54.5719218319
 20
-3.6686554876
 11
54.6579614754
 21
-3.6680491608
  0
LINE
  5
3E0
100
AcDbEntity
  8
RACCORDO
100
AcDbLine
 62
7
  6
CONTINUOUS
 10
68.6733791102
 20
-2.8188632902
 11
68.6393270732
 21
-2.8189691236
  0
LINE
  5
3E1
100
AcDbEntity
  8
RACCORDO
100
AcDbLine
 62
7
  6
CONTINUOUS
 10
54.8358937099
 20
-3.7213502779
 11
55.0886403679
 21
-3.7213502779
  0
LINE
  5
3E2
100
AcDbEntity
  8
DRAFT
100
AcDbLine
 62
7
  6
CONTINUOUS
 10
54.7835125556
 20
-3.6689691236
 11
47.3882748641
 21
-3.6689691236
  0
LINE
  5
3E3
100
AcDbEntity
  8
DRAFT
100
AcDbLine
 62
7
  6
CONTINUOUS
 10
47.2358937099
 20
-3.6689691236
 11
44.0358937099
 21
-3.6689691236
  0
LINE
  5
3E4
100
AcDbEntity
  8
RACCORDO
100
AcDbLine
 62
7
  6
CONTINUOUS
 10
35.6355282061
 20
-3.6689691236
 11
44.0358937099
 21
-3.6689691236
  0
LINE
  5
3E5
100
AcDbEntity
  8
RACCORDO
100
AcDbLine
 62
7
  6
CONTINUOUS
 10
47.2358937099
 20
-3.6689691236
 11
54.5719218319
 21
-3.6686554876
  0
LINE
  5
3E6
100
AcDbEntity
  8
ASSI
100
AcDbLine
 62
7
  6
CONTINUOUS
 10
36.2858879983
 20
-3.6689691236
 11
54.5719218319
 21
-3.6686554876
  0
LINE
  5
3E7
100
AcDbEntity
  8
RACCORDO
100
AcDbLine
 62
7
  6
CONTINUOUS
 10
55.0228262543
 20
-3.655878822
 11
54.8358937099
 21
-3.655878822
  0
LINE
  5
3E8
100
AcDbEntity
  8
ASSI
100
AcDbLine
 62
7
  6
CONTINUOUS
 10
55.0228262543
 20
-3.655878822
 11
54.8358937099
 21
-3.655878822
  0
LINE
  5
3E9
100
AcDbEntity
  8
RACCORDO
100
AcDbLine
 62
7
  6
CONTINUOUS
 10
36.1358937099
 20
-3.6389691236
 11
35.6658023269
 21
-3.6389691236
  0
LINE
  5
3EA
100
AcDbEntity
  8
RACCORDO
100
AcDbLine
 62
7
  6
CONTINUOUS
 10
36.327378698
 20
-3.627478424
 11
54.9944258564
 21
-3.627478424
  0
LINE
  5
3EB
100
AcDbEntity
  8
ASSI
100
AcDbLine
 62
7
  6
CONTINUOUS
 10
36.327378698
 20
-3.627478424
 11
54.9944258564
 21
-3.627478424
  0
LINE
  5
3EC
100
AcDbEntity
  8
RACCORDO
100
AcDbLine
 62
253
  6
CONTINUOUS
 10
35.7462784054
 20
-3.5584930452
 11
36.0956587351
 21
-3.5584930452
  0
LINE
  5
3ED
100
AcDbEntity
  8
RACCORDO
100
AcDbLine
 62
253
  6
CONTINUOUS
 10
36.1804121589
 20
-3.1274974624
 11
54.9944258564
 21
-3.1274974624
  0
LINE
  5
3EE
100
AcDbEntity
  8
ASSI
100
AcDbLine
 62
253
  6
CONTINUOUS
 10
36.1804121589
 20
-3.1274974624
 11
54.9944258564
 21
-3.1274974624
  0
LINE
  5
3EF
100
AcDbEntity
  8
RACCORDO
100
AcDbLine
 62
253
  6
CONTINUOUS
 10
55.0944220487
 20
-3.0275012701
 11
55.5944030102
 21
-3.0275012701
  0
LINE
  5
3F0
100
AcDbEntity
  8
ASSI
100
AcDbLine
 62
253
  6
CONTINUOUS
 10
55.0944220487
 20
-3.0275012701
 11
55.5944030102
 21
-3.0275012701
  0
LINE
  5
3F1
100
AcDbEntity
  8
RACCORDO
100
AcDbLine
 62
253
  6
CONTINUOUS
 10
35.1463697883
 20
-2.9585844281
 11
36.0905139973
 21
-2.9585844281
  0
LINE
  5
3F2
100
AcDbEntity
  8
DRAFT
100
AcDbLine
 62
7
  6
CONTINUOUS
 10
36.9324026969
 20
-2.8724601366
 11
54.8393847228
 21
-2.8724601366
  0
LINE
  5
3F3
100
AcDbEntity
  8
ASSI
100
AcDbLine
 62
7
  6
CONTINUOUS
 10
36.9324026969
 20
-2.8724601366
 11
54.8393847228
 21
-2.8724601366
  0
LINE
  5
3F4
100
AcDbEntity
  8
DRAFT
100
AcDbLine
 62
7
  6
CONTINUOUS
 10
36.9358937099
 20
-2.8689691236
 11
54.8358937099
 21
-2.8689691236
  0
LINE
  5
3F5
100
AcDbEntity
  8
ASSI
100
AcDbLine
 62
7
  6
CONTINUOUS
 10
36.9358937099
 20
-2.8689691236
 11
54.8358937099
 21
-2.8689691236
  0
LINE
  5
3F6
100
AcDbEntity
  8
RACCORDO
100
AcDbLine
 62
7
  6
CONTINUOUS
 10
69.6359089403
 20
-2.8189691236
 11
55.6882748641
 21
-2.8189691236
  0
LINE
  5
3F7
100
AcDbEntity
  8
DRAFT
100
AcDbLine
 62
7
  6
CONTINUOUS
 10
68.6358937099
 20
-2.8189691236
 11
55.6228034082
 21
-2.8189691236
  0
LINE
  5
3F8
100
AcDbEntity
  8
ASSI
100
AcDbLine
 62
7
  6
CONTINUOUS
 10
68.6358937099
 20
-2.8189691236
 11
55.6228034082
 21
-2.8189691236
  0
LINE
  5
3F9
100
AcDbEntity
  8
RACCORDO
100
AcDbLine
 62
253
  6
CONTINUOUS
 10
55.6185168255
 20
-2.8103953054
 11
68.6273198916
 21
-2.8103953054
  0
LINE
  5
3FA
100
AcDbEntity
  8
ASSI
100
AcDbLine
 62
253
  6
CONTINUOUS
 10
55.6185168255
 20
-2.8103953054
 11
68.6273198916
 21
-2.8103953054
  0
LINE
  5
3FB
100
AcDbEntity
  8
RACCORDO
100
AcDbLine
 62
253
  6
CONTINUOUS
 10
68.7549297047
 20
-2.8094540262
 11
69.6263937145
 21
-2.8094538978
  0
LINE
  5
3FC
100
AcDbEntity
  8
RACCORDO
100
AcDbLine
 62
253
  6
CONTINUOUS
 10
68.7584476869
 20
-2.7973997817
 11
69.6249869372
 21
-2.7973978547
  0
LINE
  5
3FD
100
AcDbEntity
  8
RACCORDO
100
AcDbLine
 62
253
  6
CONTINUOUS
 10
55.6165489879
 20
-2.7805878598
 11
68.6233839167
 21
-2.7805878598
  0
LINE
  5
3FE
100
AcDbEntity
  8
ASSI
100
AcDbLine
 62
253
  6
CONTINUOUS
 10
55.6165489879
 20
-2.7805878598
 11
68.6233839167
 21
-2.7805878598
  0
LINE
  5
3FF
100
AcDbEntity
  8
SCRITTE
100
AcDbLine
 62
253
  6
CONTINUOUS
 10
44.2358939006
 20
-2.6189691236
 11
43.5358939006
 21
-2.6189691236
  0
LINE
  5
400
100
AcDbEntity
  8
SCRITTE
100
AcDbLine
 62
253
  6
CONTINUOUS
 10
43.1358937575
 20
-2.6189691236
 11
42.4358937575
 21
-2.6189691236
  0
LINE
  5
401
100
AcDbEntity
  8
SCRITTE
100
AcDbLine
 62
253
  6
CONTINUOUS
 10
47.3358937128
 20
-2.6189691236
 11
47.4358937277
 21
-2.6189691236
  0
LINE
  5
402
100
AcDbEntity
  8
SCRITTE
100
AcDbLine
 62
253
  6
CONTINUOUS
 10
53.4858937099
 20
-2.6189691236
 11
53.6171437099
 21
-2.6189691236
  0
LINE
  5
403
100
AcDbEntity
  8
SCRITTE
100
AcDbLine
 62
253
  6
CONTINUOUS
 10
48.3692270472
 20
-2.5523024557
 11
48.4025603368
 21
-2.5523024557
  0
LINE
  5
404
100
AcDbEntity
  8
DRAFT
100
AcDbLine
 62
7
  6
CONTINUOUS
 10
35.0358937099
 20
-2.4999885719
 11
35.0658937099
 21
-2.4999885719
  0
LINE
  5
405
100
AcDbEntity
  8
RACCORDO
100
AcDbLine
 62
253
  6
CONTINUOUS
 10
34.9431599573
 20
2.2643305729
 11
34.9336541517
 21
2.2690831138
  0
LINE
  5
406
100
AcDbEntity
  8
ASSI
100
AcDbLine
 62
253
  6
CONTINUOUS
 10
34.9431599573
 20
2.2643305729
 11
34.9336541517
 21
2.2690831138
  0
LWPOLYLINE
  5
407
100
AcDbEntity
  8
0
100
AcDbPolyline
 62
7
  6
CONTINUOUS
 90
6
 70
0
 10
44.0437133416
 20
1.314184281
 10
44.0620100448
 20
1.2604917277
 10
44.0798499821
 20
1.205833121
 10
44.0972331535
 20
1.1502084611
 10
44.1139028618
 20
1.0935230512
 10
44.1466420726
 20
0.9775381613
  0
LWPOLYLINE
  5
408
100
AcDbEntity
  8
ASSI
100
AcDbPolyline
 62
7
  6
CONTINUOUS
 90
6
 70
0
 10
44.0437133416
 20
1.314184281
 10
44.0620100448
 20
1.2604917277
 10
44.0798499821
 20
1.205833121
 10
44.0972331535
 20
1.1502084611
 10
44.1139028618
 20
1.0935230512
 10
44.1466420726
 20
0.9775381613
  0
LINE
  5
409
100
AcDbEntity
  8
0
100
AcDbLine
 62
7
  6
CONTINUOUS
 10
44.1466420726
 20
0.9775381613
 11
44.198870925
 21
0.7987301897
  0
LINE
  5
40A
100
AcDbEntity
  8
ASSI
100
AcDbLine
 62
7
  6
CONTINUOUS
 10
44.1466420726
 20
0.9775381613
 11
44.198870925
 21
0.7987301897
  0
LINE
  5
40B
100
AcDbEntity
  8
0
100
AcDbLine
 62
7
  6
CONTINUOUS
 10
44.460352306
 20
1.1033467038
 11
44.4188729568
 21
1.2588109206
  0
LINE
  5
40C
100
AcDbEntity
  8
ASSI
100
AcDbLine
 62
7
  6
CONTINUOUS
 10
44.460352306
 20
1.1033467038
 11
44.4188729568
 21
1.2588109206
  0
LINE
  5
40D
100
AcDbEntity
  8
0
100
AcDbLine
 62
7
  6
CONTINUOUS
 10
44.5401742683
 20
0.7987301897
 11
44.460352306
 21
1.1033467038
  0
LINE
  5
40E
100
AcDbEntity
  8
ASSI
100
AcDbLine
 62
7
  6
CONTINUOUS
 10
44.5401742683
 20
0.7987301897
 11
44.460352306
 21
1.1033467038
  0
LWPOLYLINE
  5
40F
100
AcDbEntity
  8
0
100
AcDbPolyline
 62
7
  6
CONTINUOUS
 90
13
 70
0
 10
44.4188729568
 20
1.2588109206
 10
44.4095012352
 20
1.2966235044
 10
44.3987243847
 20
1.3333818921
 10
44.3865424053
 20
1.3690860836
 10
44.3729844881
 20
1.4042671972
 10
44.3580214419
 20
1.4383941147
 10
44.3415656937
 20
1.4698734817
 10
44.3234755863
 20
1.4984613412
 10
44.3038927769
 20
1.5244016502
 10
44.283154663
 20
1.5468329257
 10
44.2613737107
 20
1.5654680066
 10
44.2384374538
 20
1.5805940541
 10
44.2143458926
 20
1.592211068
  0
LWPOLYLINE
  5
410
100
AcDbEntity
  8
ASSI
100
AcDbPolyline
 62
7
  6
CONTINUOUS
 90
13
 70
0
 10
44.4188729568
 20
1.2588109206
 10
44.4095012352
 20
1.2966235044
 10
44.3987243847
 20
1.3333818921
 10
44.3865424053
 20
1.3690860836
 10
44.3729844881
 20
1.4042671972
 10
44.3580214419
 20
1.4383941147
 10
44.3415656937
 20
1.4698734817
 10
44.3234755863
 20
1.4984613412
 10
44.3038927769
 20
1.5244016502
 10
44.283154663
 20
1.5468329257
 10
44.2613737107
 20
1.5654680066
 10
44.2384374538
 20
1.5805940541
 10
44.2143458926
 20
1.592211068
  0
LINE
  5
411
100
AcDbEntity
  8
SCRITTE
100
AcDbLine
 62
253
  6
CONTINUOUS
 10
45.3025603129
 20
3.8240493821
 11
45.3025603129
 21
3.8118317672
  0
LINE
  5
412
100
AcDbEntity
  8
CURVE
100
AcDbLine
 62
253
  6
CONTINUOUS
 10
45.6358937099
 20
2.0524594733
 11
45.6358937099
 21
1.4096023241
  0
LINE
  5
413
100
AcDbEntity
  8
SCRITTE
100
AcDbLine
 62
253
  6
CONTINUOUS
 10
46.0025603129
 20
3.8240493821
 11
46.0025603129
 21
3.8118317672
  0
LINE
  5
414
100
AcDbEntity
  8
SCRITTE
100
AcDbLine
 62
253
  6
CONTINUOUS
 10
46.2025604083
 20
0.2810308883
 11
46.2025604083
 21
-0.7189691147
  0
LINE
  5
415
100
AcDbEntity
  8
CURVE
100
AcDbLine
 62
253
  6
CONTINUOUS
 10
46.3858937099
 20
1.4096023241
 11
46.3858937099
 21
2.0524594733
  0
LINE
  5
416
100
AcDbEntity
  8
SCRITTE
100
AcDbLine
 62
253
  6
CONTINUOUS
 10
45.4025601222
 20
0.4810308764
 11
45.0025603129
 21
-0.9189691236
  0
LINE
  5
417
100
AcDbEntity
  8
CURVE
100
AcDbLine
 62
253
  6
CONTINUOUS
 10
45.7430365718
 20
2.2667451748
 11
45.6358937099
 21
2.0524594733
  0
LINE
  5
418
100
AcDbEntity
  8
SCRITTE
100
AcDbLine
 62
253
  6
CONTINUOUS
 10
43.5358939006
 20
-2.6189691236
 11
44.2358939006
 21
-1.2189691236
  0
LINE
  5
419
100
AcDbEntity
  8
CURVE
100
AcDbLine
 62
253
  6
CONTINUOUS
 10
46.2787508591
 20
1.1953166002
 11
46.3858937099
 21
1.4096023241
  0
LINE
  5
41A
100
AcDbEntity
  8
CURVE
100
AcDbLine
 62
253
  6
CONTINUOUS
 10
46.9216080083
 20
2.2667451748
 11
46.8144651129
 21
2.0524594733
  0
LINE
  5
41B
100
AcDbEntity
  8
CURVE
100
AcDbLine
 62
253
  6
CONTINUOUS
 10
47.1358937099
 20
2.4810308764
 11
46.9216080083
 21
2.2667451748
  0
LINE
  5
41C
100
AcDbEntity
  8
CURVE
100
AcDbLine
 62
253
  6
CONTINUOUS
 10
46.0644651576
 20
0.9810308764
 11
46.2787508591
 21
1.1953166002
  0
LWPOLYLINE
  5
41D
100
AcDbEntity
  8
0
100
AcDbPolyline
 62
7
  6
CONTINUOUS
 90
5
 70
0
 10
44.2143458926
 20
1.6022557751
 10
44.2248136439
 20
1.6052678353
 10
44.2351995955
 20
1.6095135442
 10
44.2455037476
 20
1.6149929019
 10
44.2556849091
 20
1.6219954082
  0
LWPOLYLINE
  5
41E
100
AcDbEntity
  8
ASSI
100
AcDbPolyline
 62
7
  6
CONTINUOUS
 90
5
 70
0
 10
44.2143458926
 20
1.6022557751
 10
44.2248136439
 20
1.6052678353
 10
44.2351995955
 20
1.6095135442
 10
44.2455037476
 20
1.6149929019
 10
44.2556849091
 20
1.6219954082
  0
LINE
  5
41F
100
AcDbEntity
  8
RACCORDO
100
AcDbLine
 62
7
  6
CONTINUOUS
 10
36.1151427316
 20
-2.301816649
 11
36.1530635278
 21
-2.3017993057
  0
LINE
  5
420
100
AcDbEntity
  8
ASSI
100
AcDbLine
 62
7
  6
CONTINUOUS
 10
36.1151427316
 20
-2.301816649
 11
36.1530635278
 21
-2.3017993057
  0
LINE
  5
421
100
AcDbEntity
  8
RACCORDO
100
AcDbLine
 62
253
  6
CONTINUOUS
 10
36.1140765404
 20
-1.801824207
 11
36.1573968541
 21
-1.8018043942
  0
LINE
  5
422
100
AcDbEntity
  8
ASSI
100
AcDbLine
 62
253
  6
CONTINUOUS
 10
36.1140765404
 20
-1.801824207
 11
36.1573968541
 21
-1.8018043942
  0
LINE
  5
423
100
AcDbEntity
  8
SCRITTE
100
AcDbLine
 62
253
  6
CONTINUOUS
 10
48.4358937099
 20
-2.3856357834
 11
48.4025603368
 21
-2.3856357834
  0
LINE
  5
424
100
AcDbEntity
  8
DRAFT
100
AcDbLine
 62
7
  6
CONTINUOUS
 10
36.1358937099
 20
-2.3189691236
 11
36.1153358026
 21
-2.3189691236
  0
LINE
  5
425
100
AcDbEntity
  8
ASSI
100
AcDbLine
 62
7
  6
CONTINUOUS
 10
36.1358937099
 20
-2.3189691236
 11
36.1153358026
 21
-2.3189691236
  0
LINE
  5
426
100
AcDbEntity
  8
DRAFT
100
AcDbLine
 62
7
  6
CONTINUOUS
 10
35.1070126507
 20
-2.3189691236
 11
33.1358937099
 21
-2.3189691236
  0
LINE
  5
427
100
AcDbEntity
  8
ASSI
100
AcDbLine
 62
7
  6
CONTINUOUS
 10
35.1070126507
 20
-2.3189691236
 11
33.1358937099
 21
-2.3189691236
  0
LINE
  5
428
100
AcDbEntity
  8
RACCORDO
100
AcDbLine
 62
7
  6
CONTINUOUS
 10
33.1449496084
 20
-2.3099132251
 11
35.1072332195
 21
-2.3099132251
  0
LINE
  5
429
100
AcDbEntity
  8
ASSI
100
AcDbLine
 62
7
  6
CONTINUOUS
 10
33.1449496084
 20
-2.3099132251
 11
35.1072332195
 21
-2.3099132251
  0
LINE
  5
42A
100
AcDbEntity
  8
RACCORDO
100
AcDbLine
 62
253
  6
CONTINUOUS
 10
33.1458518927
 20
-2.2800568
 11
35.0259694791
 21
-2.2800568
  0
LINE
  5
42B
100
AcDbEntity
  8
ASSI
100
AcDbLine
 62
253
  6
CONTINUOUS
 10
33.1458518927
 20
-2.2800568
 11
35.0259694791
 21
-2.2800568
  0
LINE
  5
42C
100
AcDbEntity
  8
SCRITTE
100
AcDbLine
 62
253
  6
CONTINUOUS
 10
53.5733937099
 20
-1.8314691236
 11
53.6171437099
 21
-1.8314691236
  0
LINE
  5
42D
100
AcDbEntity
  8
RACCORDO
100
AcDbLine
 62
253
  6
CONTINUOUS
 10
68.5962841394
 20
-1.8039337695
 11
55.6030001313
 21
-1.8039337695
  0
LINE
  5
42E
100
AcDbEntity
  8
ASSI
100
AcDbLine
 62
253
  6
CONTINUOUS
 10
68.5962841394
 20
-1.8039337695
 11
55.6030001313
 21
-1.8039337695
  0
LINE
  5
42F
100
AcDbEntity
  8
RACCORDO
100
AcDbLine
 62
253
  6
CONTINUOUS
 10
34.9483627258
 20
-1.8022706829
 11
35.1095313722
 21
-1.8022706816
  0
LINE
  5
430
100
AcDbEntity
  8
ASSI
100
AcDbLine
 62
253
  6
CONTINUOUS
 10
34.9483627258
 20
-1.8022706829
 11
35.1095313722
 21
-1.8022706816
  0
LINE
  5
431
100
AcDbEntity
  8
0
100
AcDbLine
 62
7
  6
CONTINUOUS
 10
33.1455027964
 20
-1.6689691236
 11
25.9305542368
 21
-1.6689691236
  0
LINE
  5
432
100
AcDbEntity
  8
DRAFT
100
AcDbLine
 62
7
  6
CONTINUOUS
 10
36.1510499375
 20
-1.6231012903
 11
36.1140765404
 21
-1.6231012903
  0
LINE
  5
433
100
AcDbEntity
  8
ASSI
100
AcDbLine
 62
7
  6
CONTINUOUS
 10
36.1510499375
 20
-1.6231012903
 11
36.1140765404
 21
-1.6231012903
  0
LINE
  5
434
100
AcDbEntity
  8
DRAFT
100
AcDbLine
 62
7
  6
CONTINUOUS
 10
35.1095313722
 20
-1.6231012903
 11
34.9400258765
 21
-1.6231012903
  0
LINE
  5
435
100
AcDbEntity
  8
ASSI
100
AcDbLine
 62
7
  6
CONTINUOUS
 10
35.1095313722
 20
-1.6231012903
 11
34.9400258765
 21
-1.6231012903
  0
LINE
  5
436
100
AcDbEntity
  8
RACCORDO
100
AcDbLine
 62
253
  6
CONTINUOUS
 10
69.5505341026
 20
-1.5360854736
 11
69.2091014156
 21
-1.5360854736
  0
LINE
  5
437
100
AcDbEntity
  8
RACCORDO
100
AcDbLine
 62
253
  6
CONTINUOUS
 10
69.4957165949
 20
-1.4264504668
 11
69.3187364223
 21
-1.4264504668
  0
LINE
  5
438
100
AcDbEntity
  8
SCRITTE
100
AcDbLine
 62
253
  6
CONTINUOUS
 10
53.6171437099
 20
-1.3064691236
 11
53.5296437099
 21
-1.3064691236
  0
LINE
  5
439
100
AcDbEntity
  8
RACCORDO
100
AcDbLine
 62
253
  6
CONTINUOUS
 10
68.7838901518
 20
-1.2293779455
 11
68.6130994486
 21
-1.2293779455
  0
LINE
  5
43A
100
AcDbEntity
  8
ASSI
100
AcDbLine
 62
253
  6
CONTINUOUS
 10
68.7838901518
 20
-1.2293779455
 11
68.6130994486
 21
-1.2293779455
  0
LINE
  5
43B
100
AcDbEntity
  8
SCRITTE
100
AcDbLine
 62
253
  6
CONTINUOUS
 10
47.4358937277
 20
-1.2189691236
 11
47.3358937128
 21
-1.2189691236
  0
LINE
  5
43C
100
AcDbEntity
  8
SCRITTE
100
AcDbLine
 62
253
  6
CONTINUOUS
 10
44.2358939006
 20
-1.2189691236
 11
43.5358939006
 21
-1.2189691236
  0
LINE
  5
43D
100
AcDbEntity
  8
SCRITTE
100
AcDbLine
 62
253
  6
CONTINUOUS
 10
43.1358937575
 20
-1.2189691236
 11
42.4358937575
 21
-1.2189691236
  0
LINE
  5
43E
100
AcDbEntity
  8
RACCORDO
100
AcDbLine
 62
253
  6
CONTINUOUS
 10
68.5922560475
 20
-1.1649627031
 11
55.6009862387
 21
-1.1649627031
  0
LINE
  5
43F
100
AcDbEntity
  8
ASSI
100
AcDbLine
 62
253
  6
CONTINUOUS
 10
68.5922560475
 20
-1.1649627031
 11
55.6009862387
 21
-1.1649627031
  0
LINE
  5
440
100
AcDbEntity
  8
RACCORDO
100
AcDbLine
 62
7
  6
CONTINUOUS
 10
36.1573968541
 20
-1.6357960902
 11
36.1140765404
 21
-1.6357564616
  0
LINE
  5
441
100
AcDbEntity
  8
ASSI
100
AcDbLine
 62
7
  6
CONTINUOUS
 10
36.1573968541
 20
-1.6357960902
 11
36.1140765404
 21
-1.6357564616
  0
LINE
  5
442
100
AcDbEntity
  8
RACCORDO
100
AcDbLine
 62
7
  6
CONTINUOUS
 10
35.065398865
 20
-1.6345539414
 11
35.1095313722
 21
-1.634797023
  0
LINE
  5
443
100
AcDbEntity
  8
ASSI
100
AcDbLine
 62
7
  6
CONTINUOUS
 10
35.065398865
 20
-1.6345539414
 11
35.1095313722
 21
-1.634797023
  0
LINE
  5
444
100
AcDbEntity
  8
SCRITTE
100
AcDbLine
 62
253
  6
CONTINUOUS
 10
47.1358937143
 20
-2.4189691147
 11
47.3358937128
 21
-2.6189691236
  0
LINE
  5
445
100
AcDbEntity
  8
SCRITTE
100
AcDbLine
 62
253
  6
CONTINUOUS
 10
46.2025604083
 20
-0.7189691147
 11
46.4025603129
 21
-0.9189691236
  0
LINE
  5
446
100
AcDbEntity
  8
SCRITTE
100
AcDbLine
 62
253
  6
CONTINUOUS
 10
48.3358936741
 20
-2.5189691192
 11
48.3692270472
 21
-2.5523024557
  0
LINE
  5
447
100
AcDbEntity
  8
SCRITTE
100
AcDbLine
 62
253
  6
CONTINUOUS
 10
47.6358937158
 20
-1.4189691117
 11
47.4358937277
 21
-1.2189691236
  0
LINE
  5
448
100
AcDbEntity
  8
SCRITTE
100
AcDbLine
 62
253
  6
CONTINUOUS
 10
47.0358937099
 20
-2.2189691058
 11
47.1358937143
 21
-2.4189691147
  0
LINE
  5
449
100
AcDbEntity
  8
CURVE
100
AcDbLine
 62
253
  6
CONTINUOUS
 10
45.6358937099
 20
1.4096023241
 11
45.7430365718
 21
1.1953166002
  0
LINE
  5
44A
100
AcDbEntity
  8
SCRITTE
100
AcDbLine
 62
253
  6
CONTINUOUS
 10
45.802560599
 20
-0.9189691236
 11
45.4025601222
 21
0.4810308764
  0
LINE
  5
44B
100
AcDbEntity
  8
CURVE
100
AcDbLine
 62
253
  6
CONTINUOUS
 10
46.8144651129
 20
2.0524594733
 11
46.8144651129
 21
1.4096023241
  0
LINE
  5
44C
100
AcDbEntity
  8
SCRITTE
100
AcDbLine
 62
253
  6
CONTINUOUS
 10
47.0358937099
 20
-1.6189690998
 11
47.0358937099
 21
-2.2189691058
  0
LINE
  5
44D
100
AcDbEntity
  8
SCRITTE
100
AcDbLine
 62
253
  6
CONTINUOUS
 10
47.502560599
 20
3.8223040087
 11
47.502560599
 21
3.8135771409
  0
LINE
  5
44E
100
AcDbEntity
  8
CURVE
100
AcDbLine
 62
253
  6
CONTINUOUS
 10
47.5644651129
 20
1.4096023241
 11
47.5644651129
 21
2.0524594733
  0
LINE
  5
44F
100
AcDbEntity
  8
SCRITTE
100
AcDbLine
 62
253
  6
CONTINUOUS
 10
47.7358937099
 20
-2.2189691058
 11
47.7358937099
 21
-1.6189690998
  0
LINE
  5
450
100
AcDbEntity
  8
CURVE
100
AcDbLine
 62
253
  6
CONTINUOUS
 10
47.9930365159
 20
1.8381737718
 11
47.9930365159
 21
2.2667451748
  0
LINE
  5
451
100
AcDbEntity
  8
CURVE
100
AcDbLine
 62
253
  6
CONTINUOUS
 10
47.4573223068
 20
1.1953166002
 11
47.5644651129
 21
1.4096023241
  0
LINE
  5
452
100
AcDbEntity
  8
SCRITTE
100
AcDbLine
 62
253
  6
CONTINUOUS
 10
47.1358937143
 20
-1.4189691117
 11
47.0358937099
 21
-1.6189690998
  0
LINE
  5
453
100
AcDbEntity
  8
CURVE
100
AcDbLine
 62
253
  6
CONTINUOUS
 10
47.9930365159
 20
2.2667451748
 11
48.2073223068
 21
2.4810308764
  0
LINE
  5
454
100
AcDbEntity
  8
SCRITTE
100
AcDbLine
 62
253
  6
CONTINUOUS
 10
46.4025603129
 20
0.4810308764
 11
46.2025604083
 21
0.2810308883
  0
LINE
  5
455
100
AcDbEntity
  8
CURVE
100
AcDbLine
 62
253
  6
CONTINUOUS
 10
47.2430365159
 20
0.9810308764
 11
47.4573223068
 21
1.1953166002
  0
LINE
  5
456
100
AcDbEntity
  8
CURVE
100
AcDbLine
 62
253
  6
CONTINUOUS
 10
48.6358937099
 20
1.4096023241
 11
48.2073223068
 21
0.9810308764
  0
LINE
  5
457
100
AcDbEntity
  8
CURVE
100
AcDbLine
 62
253
  6
CONTINUOUS
 10
49.7787507846
 20
1.9453165779
 11
49.600179322
 21
1.8381737718
  0
LINE
  5
458
100
AcDbEntity
  8
SCRITTE
100
AcDbLine
 62
253
  6
CONTINUOUS
 10
38.4358937456
 20
-0.9189691236
 11
39.1358936622
 21
-0.9189691236
  0
LINE
  5
459
100
AcDbEntity
  8
SCRITTE
100
AcDbLine
 62
253
  6
CONTINUOUS
 10
40.5358936622
 20
-0.9189691236
 11
41.2358936622
 21
-0.9189691236
  0
LINE
  5
45A
100
AcDbEntity
  8
SCRITTE
100
AcDbLine
 62
253
  6
CONTINUOUS
 10
46.4025603129
 20
-0.9189691236
 11
46.8025601222
 21
-0.9189691236
  0
LINE
  5
45B
100
AcDbEntity
  8
SCRITTE
100
AcDbLine
 62
253
  6
CONTINUOUS
 10
48.4358939006
 20
-0.9189691236
 11
48.9358933284
 21
-0.9189691236
  0
LINE
  5
45C
100
AcDbEntity
  8
SCRITTE
100
AcDbLine
 62
253
  6
CONTINUOUS
 10
49.9025603129
 20
-0.9189691236
 11
50.3025601222
 21
-0.9189691236
  0
LINE
  5
45D
100
AcDbEntity
  8
SCRITTE
100
AcDbLine
 62
253
  6
CONTINUOUS
 10
41.6358938052
 20
-0.6189691207
 11
42.3358938052
 21
-0.6189691207
  0
LINE
  5
45E
100
AcDbEntity
  8
RACCORDO
100
AcDbLine
 62
253
  6
CONTINUOUS
 10
68.795259018
 20
-0.5210488526
 11
68.607965606
 21
-0.5210488526
  0
LINE
  5
45F
100
AcDbEntity
  8
ASSI
100
AcDbLine
 62
253
  6
CONTINUOUS
 10
68.795259018
 20
-0.5210488526
 11
68.607965606
 21
-0.5210488526
  0
LINE
  5
460
100
AcDbEntity
  8
SCRITTE
100
AcDbLine
 62
253
  6
CONTINUOUS
 10
45.6692271068
 20
-0.5189691058
 11
45.1358938052
 21
-0.5189691058
  0
LINE
  5
461
100
AcDbEntity
  8
SCRITTE
100
AcDbLine
 62
253
  6
CONTINUOUS
 10
40.135893686
 20
-0.4189691117
 11
39.5358936383
 21
-0.4189691117
  0
LINE
  5
462
100
AcDbEntity
  8
ASSI
100
AcDbLine
 62
7
  6
CONTINUOUS
 10
60.9358937099
 20
-0.4189691236
 11
61.9941942343
 21
-0.4189691236
  0
LINE
  5
463
100
AcDbEntity
  8
0
100
AcDbLine
 62
7
  6
CONTINUOUS
 10
33.1455031469
 20
-0.1689691236
 11
25.9305542368
 21
-0.1689691236
  0
LINE
  5
464
100
AcDbEntity
  8
DRAFT
100
AcDbLine
 62
7
  6
CONTINUOUS
 10
36.1494116246
 20
0.0810308764
 11
36.1140765404
 21
0.0810308764
  0
LINE
  5
465
100
AcDbEntity
  8
ASSI
100
AcDbLine
 62
7
  6
CONTINUOUS
 10
36.1494116246
 20
0.0810308764
 11
36.1140765404
 21
0.0810308764
  0
LINE
  5
466
100
AcDbEntity
  8
DRAFT
100
AcDbLine
 62
7
  6
CONTINUOUS
 10
35.1095313722
 20
0.0810308764
 11
33.1494116246
 21
0.0810308764
  0
LINE
  5
467
100
AcDbEntity
  8
ASSI
100
AcDbLine
 62
7
  6
CONTINUOUS
 10
35.1095313722
 20
0.0810308764
 11
33.1494116246
 21
0.0810308764
  0
LINE
  5
468
100
AcDbEntity
  8
0
100
AcDbLine
 62
7
  6
CONTINUOUS
 10
33.1455031469
 20
0.3310308764
 11
25.9305542368
 21
0.3310308764
  0
LINE
  5
469
100
AcDbEntity
  8
SCRITTE
100
AcDbLine
 62
253
  6
CONTINUOUS
 10
50.3025601222
 20
0.4810308764
 11
49.9025603129
 21
0.4810308764
  0
LINE
  5
46A
100
AcDbEntity
  8
SCRITTE
100
AcDbLine
 62
253
  6
CONTINUOUS
 10
48.9358933284
 20
0.4810308764
 11
48.4358939006
 21
0.4810308764
  0
LINE
  5
46B
100
AcDbEntity
  8
SCRITTE
100
AcDbLine
 62
253
  6
CONTINUOUS
 10
46.8025601222
 20
0.4810308764
 11
46.4025603129
 21
0.4810308764
  0
LINE
  5
46C
100
AcDbEntity
  8
SCRITTE
100
AcDbLine
 62
253
  6
CONTINUOUS
 10
38.6358937337
 20
0.4810308764
 11
38.9358936741
 21
0.4810308764
  0
LINE
  5
46D
100
AcDbEntity
  8
SCRITTE
100
AcDbLine
 62
253
  6
CONTINUOUS
 10
40.7358935668
 20
0.4810308764
 11
41.0358937575
 21
0.4810308764
  0
LINE
  5
46E
100
AcDbEntity
  8
SCRITTE
100
AcDbLine
 62
253
  6
CONTINUOUS
 10
53.7921437099
 20
-1.3502191236
 11
53.6171437099
 21
-1.3064691236
  0
LINE
  5
46F
100
AcDbEntity
  8
SCRITTE
100
AcDbLine
 62
253
  6
CONTINUOUS
 10
53.3546437099
 20
-2.5752191236
 11
53.4858937099
 21
-2.6189691236
  0
LINE
  5
470
100
AcDbEntity
  8
SCRITTE
100
AcDbLine
 62
253
  6
CONTINUOUS
 10
53.4421437099
 20
-1.7877191236
 11
53.5733937099
 21
-1.8314691236
  0
LINE
  5
471
100
AcDbEntity
  8
SCRITTE
100
AcDbLine
 62
253
  6
CONTINUOUS
 10
53.2671437099
 20
-2.5314691236
 11
53.3546437099
 21
-2.5752191236
  0
LINE
  5
472
100
AcDbEntity
  8
CURVE
100
AcDbLine
 62
253
  6
CONTINUOUS
 10
45.7430365718
 20
1.1953166002
 11
45.9573222845
 21
0.9810308764
  0
LINE
  5
473
100
AcDbEntity
  8
CURVE
100
AcDbLine
 62
253
  6
CONTINUOUS
 10
46.9216080083
 20
1.1953166002
 11
47.1358937099
 21
0.9810308764
  0
LINE
  5
474
100
AcDbEntity
  8
SCRITTE
100
AcDbLine
 62
253
  6
CONTINUOUS
 10
47.7358937099
 20
-1.6189690998
 11
47.6358937158
 21
-1.4189691117
  0
LINE
  5
475
100
AcDbEntity
  8
SCRITTE
100
AcDbLine
 62
253
  6
CONTINUOUS
 10
48.4692270829
 20
-2.4523024565
 11
48.4358937099
 21
-2.3856357834
  0
LINE
  5
476
100
AcDbEntity
  8
CURVE
100
AcDbLine
 62
253
  6
CONTINUOUS
 10
46.3858937099
 20
2.0524594733
 11
46.2787508591
 21
2.2667451748
  0
LINE
  5
477
100
AcDbEntity
  8
CURVE
100
AcDbLine
 62
253
  6
CONTINUOUS
 10
46.8144651129
 20
1.4096023241
 11
46.9216080083
 21
1.1953166002
  0
LINE
  5
478
100
AcDbEntity
  8
SCRITTE
100
AcDbLine
 62
253
  6
CONTINUOUS
 10
48.3358936741
 20
-2.4856357878
 11
48.3358936741
 21
-2.5189691192
  0
LINE
  5
479
100
AcDbEntity
  8
SCRITTE
100
AcDbLine
 62
253
  6
CONTINUOUS
 10
48.4358939006
 20
0.4810308764
 11
48.4358939006
 21
-0.9189691236
  0
LINE
  5
47A
100
AcDbEntity
  8
SCRITTE
100
AcDbLine
 62
253
  6
CONTINUOUS
 10
48.4692270829
 20
-2.4856357878
 11
48.4692270829
 21
-2.4523024565
  0
LINE
  5
47B
100
AcDbEntity
  8
SCRITTE
100
AcDbLine
 62
253
  6
CONTINUOUS
 10
48.6692268207
 20
3.8240493821
 11
48.6692268207
 21
3.8118317672
  0
LINE
  5
47C
100
AcDbEntity
  8
CURVE
100
AcDbLine
 62
253
  6
CONTINUOUS
 10
48.7430365159
 20
2.2667451748
 11
48.7430365159
 21
1.8381737718
  0
LINE
  5
47D
100
AcDbEntity
  8
SCRITTE
100
AcDbLine
 62
253
  6
CONTINUOUS
 10
49.1358939006
 20
-0.7189691147
 11
49.1358939006
 21
0.2810308883
  0
LINE
  5
47E
100
AcDbEntity
  8
SCRITTE
100
AcDbLine
 62
253
  6
CONTINUOUS
 10
49.3358937814
 20
-2.6189691236
 11
49.3358937814
 21
-1.2189691236
  0
LINE
  5
47F
100
AcDbEntity
  8
SCRITTE
100
AcDbLine
 62
253
  6
CONTINUOUS
 10
49.3692268207
 20
3.8118317672
 11
49.3692268207
 21
3.8240493821
  0
LINE
  5
480
100
AcDbEntity
  8
CURVE
100
AcDbLine
 62
253
  6
CONTINUOUS
 10
48.7430365159
 20
1.8381737718
 11
48.6358937099
 21
1.4096023241
  0
LINE
  5
481
100
AcDbEntity
  8
SCRITTE
100
AcDbLine
 62
253
  6
CONTINUOUS
 10
48.4358937099
 20
-2.5856357897
 11
48.4692270829
 21
-2.4856357878
  0
LINE
  5
482
100
AcDbEntity
  8
SCRITTE
100
AcDbLine
 62
253
  6
CONTINUOUS
 10
47.6358937158
 20
-2.4189691147
 11
47.7358937099
 21
-2.2189691058
  0
LINE
  5
483
100
AcDbEntity
  8
SCRITTE
100
AcDbLine
 62
253
  6
CONTINUOUS
 10
47.3692272975
 20
-0.8856357897
 11
48.169226916
 21
0.347697551
  0
LINE
  5
484
100
AcDbEntity
  8
SCRITTE
100
AcDbLine
 62
253
  6
CONTINUOUS
 10
47.3358937128
 20
-1.2189691236
 11
47.1358937143
 21
-1.4189691117
  0
LINE
  5
485
100
AcDbEntity
  8
CURVE
100
AcDbLine
 62
253
  6
CONTINUOUS
 10
49.8144652917
 20
1.0881737383
 11
49.707322128
 21
0.9810308764
  0
LINE
  5
486
100
AcDbEntity
  8
SCRITTE
100
AcDbLine
 62
253
  6
CONTINUOUS
 10
49.9025603129
 20
0.4810308764
 11
49.7025597407
 21
0.2810308883
  0
LINE
  5
487
100
AcDbEntity
  8
RACCORDO
100
AcDbLine
 62
7
  6
CONTINUOUS
 10
35.0434932004
 20
1.7964104196
 11
35.0044698789
 21
1.7958641279
  0
LINE
  5
488
100
AcDbEntity
  8
ASSI
100
AcDbLine
 62
7
  6
CONTINUOUS
 10
35.0434932004
 20
1.7964104196
 11
35.0044698789
 21
1.7958641279
  0
LWPOLYLINE
  5
489
100
AcDbEntity
  8
RACCORDO
100
AcDbPolyline
 62
7
  6
CONTINUOUS
 90
3
 70
0
 10
35.1095313722
 20
1.7968587757
 10
35.0882723543
 20
1.7967679793
 10
35.0434932004
 20
1.7964104196
  0
LWPOLYLINE
  5
48A
100
AcDbEntity
  8
ASSI
100
AcDbPolyline
 62
7
  6
CONTINUOUS
 90
3
 70
0
 10
35.1095313722
 20
1.7968587757
 10
35.0882723543
 20
1.7967679793
 10
35.0434932004
 20
1.7964104196
  0
LINE
  5
48B
100
AcDbEntity
  8
RACCORDO
100
AcDbLine
 62
7
  6
CONTINUOUS
 10
36.1573968541
 20
1.7978578429
 11
36.1140765404
 21
1.7978182143
  0
LINE
  5
48C
100
AcDbEntity
  8
ASSI
100
AcDbLine
 62
7
  6
CONTINUOUS
 10
36.1573968541
 20
1.7978578429
 11
36.1140765404
 21
1.7978182143
  0
LINE
  5
48D
100
AcDbEntity
  8
ASSI
100
AcDbLine
 62
7
  6
CONTINUOUS
 10
60.9358937099
 20
0.5810308764
 11
61.9941942343
 21
0.5810308764
  0
LINE
  5
48E
100
AcDbEntity
  8
RACCORDO
100
AcDbLine
 62
253
  6
CONTINUOUS
 10
68.607965606
 20
0.6831106053
 11
68.795259018
 21
0.6831106053
  0
LINE
  5
48F
100
AcDbEntity
  8
ASSI
100
AcDbLine
 62
253
  6
CONTINUOUS
 10
68.607965606
 20
0.6831106053
 11
68.795259018
 21
0.6831106053
  0
LINE
  5
490
100
AcDbEntity
  8
0
100
AcDbLine
 62
7
  6
CONTINUOUS
 10
38.4836177099
 20
0.7987298764
 11
38.7963097099
 21
0.7987298764
  0
LINE
  5
491
100
AcDbEntity
  8
ASSI
100
AcDbLine
 62
7
  6
CONTINUOUS
 10
38.4836177099
 20
0.7987298764
 11
38.7963097099
 21
0.7987298764
  0
LINE
  5
492
100
AcDbEntity
  8
0
100
AcDbLine
 62
7
  6
CONTINUOUS
 10
39.4743917099
 20
0.7987298764
 11
39.8292197099
 21
0.7987298764
  0
LINE
  5
493
100
AcDbEntity
  8
ASSI
100
AcDbLine
 62
7
  6
CONTINUOUS
 10
39.4743917099
 20
0.7987298764
 11
39.8292197099
 21
0.7987298764
  0
LINE
  5
494
100
AcDbEntity
  8
0
100
AcDbLine
 62
7
  6
CONTINUOUS
 10
40.0202347099
 20
0.7987298764
 11
40.3596897099
 21
0.7987298764
  0
LINE
  5
495
100
AcDbEntity
  8
ASSI
100
AcDbLine
 62
7
  6
CONTINUOUS
 10
40.0202347099
 20
0.7987298764
 11
40.3596897099
 21
0.7987298764
  0
LINE
  5
496
100
AcDbEntity
  8
0
100
AcDbLine
 62
7
  6
CONTINUOUS
 10
40.8525177099
 20
0.7987298764
 11
40.9022817099
 21
0.7987298764
  0
LINE
  5
497
100
AcDbEntity
  8
ASSI
100
AcDbLine
 62
7
  6
CONTINUOUS
 10
40.8525177099
 20
0.7987298764
 11
40.9022817099
 21
0.7987298764
  0
LINE
  5
498
100
AcDbEntity
  8
0
100
AcDbLine
 62
7
  6
CONTINUOUS
 10
41.3970737099
 20
0.7987298764
 11
41.7441897099
 21
0.7987298764
  0
LINE
  5
499
100
AcDbEntity
  8
ASSI
100
AcDbLine
 62
7
  6
CONTINUOUS
 10
41.3970737099
 20
0.7987298764
 11
41.7441897099
 21
0.7987298764
  0
LINE
  5
49A
100
AcDbEntity
  8
0
100
AcDbLine
 62
7
  6
CONTINUOUS
 10
41.7999067099
 20
0.7987298764
 11
42.1508847099
 21
0.7987298764
  0
LINE
  5
49B
100
AcDbEntity
  8
ASSI
100
AcDbLine
 62
7
  6
CONTINUOUS
 10
41.7999067099
 20
0.7987298764
 11
42.1508847099
 21
0.7987298764
  0
LINE
  5
49C
100
AcDbEntity
  8
0
100
AcDbLine
 62
7
  6
CONTINUOUS
 10
42.8239317099
 20
0.7987298764
 11
43.1979057099
 21
0.7987298764
  0
LINE
  5
49D
100
AcDbEntity
  8
ASSI
100
AcDbLine
 62
7
  6
CONTINUOUS
 10
42.8239317099
 20
0.7987298764
 11
43.1979057099
 21
0.7987298764
  0
LINE
  5
49E
100
AcDbEntity
  8
0
100
AcDbLine
 62
7
  6
CONTINUOUS
 10
43.3021003738
 20
0.7987301897
 11
43.6555007058
 21
0.7987301897
  0
LINE
  5
49F
100
AcDbEntity
  8
ASSI
100
AcDbLine
 62
7
  6
CONTINUOUS
 10
43.3021003738
 20
0.7987301897
 11
43.6555007058
 21
0.7987301897
  0
LINE
  5
4A0
100
AcDbEntity
  8
0
100
AcDbLine
 62
7
  6
CONTINUOUS
 10
44.198870925
 20
0.7987301897
 11
44.5401742683
 21
0.7987301897
  0
LINE
  5
4A1
100
AcDbEntity
  8
ASSI
100
AcDbLine
 62
7
  6
CONTINUOUS
 10
44.198870925
 20
0.7987301897
 11
44.5401742683
 21
0.7987301897
  0
LINE
  5
4A2
100
AcDbEntity
  8
CURVE
100
AcDbLine
 62
253
  6
CONTINUOUS
 10
49.707322128
 20
0.9810308764
 11
49.1716080977
 21
0.9810308764
  0
LINE
  5
4A3
100
AcDbEntity
  8
CURVE
100
AcDbLine
 62
253
  6
CONTINUOUS
 10
45.9573222845
 20
0.9810308764
 11
46.0644651576
 21
0.9810308764
  0
LINE
  5
4A4
100
AcDbEntity
  8
CURVE
100
AcDbLine
 62
253
  6
CONTINUOUS
 10
47.1358937099
 20
0.9810308764
 11
47.2430365159
 21
0.9810308764
  0
LINE
  5
4A5
100
AcDbEntity
  8
CURVE
100
AcDbLine
 62
253
  6
CONTINUOUS
 10
52.2787505462
 20
0.9810308764
 11
52.8144649341
 21
0.9810308764
  0
LINE
  5
4A6
100
AcDbEntity
  8
CURVE
100
AcDbLine
 62
253
  6
CONTINUOUS
 10
51.6716078593
 20
1.0524594491
 11
51.7430368735
 21
1.0524594491
  0
LINE
  5
4A7
100
AcDbEntity
  8
0
100
AcDbLine
 62
7
  6
CONTINUOUS
 10
42.2487957099
 20
1.1380828764
 11
42.7320127099
 21
1.1380828764
  0
LINE
  5
4A8
100
AcDbEntity
  8
ASSI
100
AcDbLine
 62
7
  6
CONTINUOUS
 10
42.2487957099
 20
1.1380828764
 11
42.7320127099
 21
1.1380828764
  0
LINE
  5
4A9
100
AcDbEntity
  8
CURVE
100
AcDbLine
 62
253
  6
CONTINUOUS
 10
51.7430368735
 20
1.2310308838
 11
51.6716078593
 21
1.2310308838
  0
LINE
  5
4AA
100
AcDbEntity
  8
RACCORDO
100
AcDbLine
 62
253
  6
CONTINUOUS
 10
55.6009862387
 20
1.3270244558
 11
68.5922560475
 21
1.3270244558
  0
LINE
  5
4AB
100
AcDbEntity
  8
ASSI
100
AcDbLine
 62
253
  6
CONTINUOUS
 10
55.6009862387
 20
1.3270244558
 11
68.5922560475
 21
1.3270244558
  0
LINE
  5
4AC
100
AcDbEntity
  8
RACCORDO
100
AcDbLine
 62
253
  6
CONTINUOUS
 10
68.6130994486
 20
1.3914396982
 11
68.7838901518
 21
1.3914396982
  0
LINE
  5
4AD
100
AcDbEntity
  8
ASSI
100
AcDbLine
 62
253
  6
CONTINUOUS
 10
68.6130994486
 20
1.3914396982
 11
68.7838901518
 21
1.3914396982
  0
LINE
  5
4AE
100
AcDbEntity
  8
0
100
AcDbLine
 62
7
  6
CONTINUOUS
 10
42.6610997099
 20
1.4006728764
 11
42.3213777099
 21
1.4006728764
  0
LINE
  5
4AF
100
AcDbEntity
  8
ASSI
100
AcDbLine
 62
7
  6
CONTINUOUS
 10
42.6610997099
 20
1.4006728764
 11
42.3213777099
 21
1.4006728764
  0
LINE
  5
4B0
100
AcDbEntity
  8
0
100
AcDbLine
 62
7
  6
CONTINUOUS
 10
43.6555007058
 20
1.4639625922
 11
43.8457510289
 21
1.4639625922
  0
LINE
  5
4B1
100
AcDbEntity
  8
ASSI
100
AcDbLine
 62
7
  6
CONTINUOUS
 10
43.6555007058
 20
1.4639625922
 11
43.8457510289
 21
1.4639625922
  0
LINE
  5
4B2
100
AcDbEntity
  8
RACCORDO
100
AcDbLine
 62
253
  6
CONTINUOUS
 10
69.3187364223
 20
1.5885122195
 11
69.4957165949
 21
1.5885122195
  0
LINE
  5
4B3
100
AcDbEntity
  8
CURVE
100
AcDbLine
 62
253
  6
CONTINUOUS
 10
48.6716078593
 20
1.6238880256
 11
48.2073223068
 21
1.6238880256
  0
LINE
  5
4B4
100
AcDbEntity
  8
RACCORDO
100
AcDbLine
 62
253
  6
CONTINUOUS
 10
69.2091014156
 20
1.6981472263
 11
69.5505341313
 21
1.6981472263
  0
LINE
  5
4B5
100
AcDbEntity
  8
CURVE
100
AcDbLine
 62
253
  6
CONTINUOUS
 10
52.2787505462
 20
1.7310308764
 11
52.8144649341
 21
1.7310308764
  0
LINE
  5
4B6
100
AcDbEntity
  8
0
100
AcDbLine
 62
7
  6
CONTINUOUS
 10
43.8465158543
 20
1.7423590449
 11
43.6437351415
 21
1.7423590449
  0
LINE
  5
4B7
100
AcDbEntity
  8
ASSI
100
AcDbLine
 62
7
  6
CONTINUOUS
 10
43.8465158543
 20
1.7423590449
 11
43.6437351415
 21
1.7423590449
  0
LINE
  5
4B8
100
AcDbEntity
  8
DRAFT
100
AcDbLine
 62
7
  6
CONTINUOUS
 10
36.1510499375
 20
1.785163043
 11
36.1140765404
 21
1.785163043
  0
LINE
  5
4B9
100
AcDbEntity
  8
ASSI
100
AcDbLine
 62
7
  6
CONTINUOUS
 10
36.1510499375
 20
1.785163043
 11
36.1140765404
 21
1.785163043
  0
LINE
  5
4BA
100
AcDbEntity
  8
DRAFT
100
AcDbLine
 62
7
  6
CONTINUOUS
 10
35.1095313722
 20
1.785163043
 11
34.9400258765
 21
1.785163043
  0
LINE
  5
4BB
100
AcDbEntity
  8
ASSI
100
AcDbLine
 62
7
  6
CONTINUOUS
 10
35.1095313722
 20
1.785163043
 11
34.9400258765
 21
1.785163043
  0
LINE
  5
4BC
100
AcDbEntity
  8
0
100
AcDbLine
 62
7
  6
CONTINUOUS
 10
33.1455027964
 20
1.8310308764
 11
25.9305542368
 21
1.8310308764
  0
LINE
  5
4BD
100
AcDbEntity
  8
CURVE
100
AcDbLine
 62
253
  6
CONTINUOUS
 10
49.3858937099
 20
1.8381737718
 11
49.600179322
 21
1.8381737718
  0
LINE
  5
4BE
100
AcDbEntity
  8
RACCORDO
100
AcDbLine
 62
253
  6
CONTINUOUS
 10
34.9483627258
 20
1.9643324357
 11
35.1095313722
 21
1.9643324368
  0
LINE
  5
4BF
100
AcDbEntity
  8
ASSI
100
AcDbLine
 62
253
  6
CONTINUOUS
 10
34.9483627258
 20
1.9643324357
 11
35.1095313722
 21
1.9643324368
  0
LINE
  5
4C0
100
AcDbEntity
  8
RACCORDO
100
AcDbLine
 62
253
  6
CONTINUOUS
 10
55.6030001313
 20
1.9659955222
 11
68.5962841394
 21
1.9659955222
  0
LINE
  5
4C1
100
AcDbEntity
  8
ASSI
100
AcDbLine
 62
253
  6
CONTINUOUS
 10
55.6030001313
 20
1.9659955222
 11
68.5962841394
 21
1.9659955222
  0
LINE
  5
4C2
100
AcDbEntity
  8
RACCORDO
100
AcDbLine
 62
253
  6
CONTINUOUS
 10
36.1140765404
 20
1.9638859597
 11
36.1573968541
 21
1.9638661469
  0
LINE
  5
4C3
100
AcDbEntity
  8
ASSI
100
AcDbLine
 62
253
  6
CONTINUOUS
 10
36.1140765404
 20
1.9638859597
 11
36.1573968541
 21
1.9638661469
  0
LWPOLYLINE
  5
4C4
100
AcDbEntity
  8
0
100
AcDbPolyline
 62
7
  6
CONTINUOUS
 90
10
 70
0
 10
43.8457510289
 20
1.4639625922
 10
43.8742955088
 20
1.4616391162
 10
43.9014662267
 20
1.4554014971
 10
43.9272631828
 20
1.4452497349
 10
43.9520375836
 20
1.4307378251
 10
43.9754382225
 20
1.4123117722
 10
43.9964114798
 20
1.39130959
 10
44.0146061487
 20
1.368177283
 10
44.030373436
 20
1.3424688467
 10
44.0437133416
 20
1.314184281
  0
LWPOLYLINE
  5
4C5
100
AcDbEntity
  8
ASSI
100
AcDbPolyline
 62
7
  6
CONTINUOUS
 90
10
 70
0
 10
43.8457510289
 20
1.4639625922
 10
43.8742955088
 20
1.4616391162
 10
43.9014662267
 20
1.4554014971
 10
43.9272631828
 20
1.4452497349
 10
43.9520375836
 20
1.4307378251
 10
43.9754382225
 20
1.4123117722
 10
43.9964114798
 20
1.39130959
 10
44.0146061487
 20
1.368177283
 10
44.030373436
 20
1.3424688467
 10
44.0437133416
 20
1.314184281
  0
LWPOLYLINE
  5
4C6
100
AcDbEntity
  8
0
100
AcDbPolyline
 62
7
  6
CONTINUOUS
 90
13
 70
0
 10
43.9217109401
 20
2.2190109932
 10
43.9510238956
 20
2.2134289407
 10
43.9781882567
 20
2.2054252983
 10
44.0032040233
 20
2.195000066
 10
44.0261365308
 20
2.1820797843
 10
44.0469204438
 20
2.1667379127
 10
44.0653597565
 20
2.1491948299
 10
44.0815454606
 20
2.129214168
 10
44.0953865643
 20
2.107032295
 10
44.1064140871
 20
2.0835786932
 10
44.1144717019
 20
2.0591631901
 10
44.1197157356
 20
2.0334759582
 10
44.1221461883
 20
2.0065169976
  0
LWPOLYLINE
  5
4C7
100
AcDbEntity
  8
ASSI
100
AcDbPolyline
 62
7
  6
CONTINUOUS
 90
13
 70
0
 10
43.9217109401
 20
2.2190109932
 10
43.9510238956
 20
2.2134289407
 10
43.9781882567
 20
2.2054252983
 10
44.0032040233
 20
2.195000066
 10
44.0261365308
 20
2.1820797843
 10
44.0469204438
 20
2.1667379127
 10
44.0653597565
 20
2.1491948299
 10
44.0815454606
 20
2.129214168
 10
44.0953865643
 20
2.107032295
 10
44.1064140871
 20
2.0835786932
 10
44.1144717019
 20
2.0591631901
 10
44.1197157356
 20
2.0334759582
 10
44.1221461883
 20
2.0065169976
  0
LWPOLYLINE
  5
4C8
100
AcDbEntity
  8
0
100
AcDbPolyline
 62
7
  6
CONTINUOUS
 90
13
 70
0
 10
44.1777617434
 20
2.4608360437
 10
44.1186598132
 20
2.479175788
 10
44.0568456655
 20
2.494238127
 10
43.9923193004
 20
2.506023061
 10
43.9249856815
 20
2.5144444
 10
43.8549398452
 20
2.5195883339
 10
43.7824669005
 20
2.5217134319
 10
43.7074815061
 20
2.5206411669
 10
43.6300690033
 20
2.516550066
 10
43.5507705253
 20
2.5102342797
 10
43.46976645
 20
2.5019585247
 10
43.3868763994
 20
2.4914580843
 10
43.3021003738
 20
2.4787329585
  0
LWPOLYLINE
  5
4C9
100
AcDbEntity
  8
ASSI
100
AcDbPolyline
 62
7
  6
CONTINUOUS
 90
13
 70
0
 10
44.1777617434
 20
2.4608360437
 10
44.1186598132
 20
2.479175788
 10
44.0568456655
 20
2.494238127
 10
43.9923193004
 20
2.506023061
 10
43.9249856815
 20
2.5144444
 10
43.8549398452
 20
2.5195883339
 10
43.7824669005
 20
2.5217134319
 10
43.7074815061
 20
2.5206411669
 10
43.6300690033
 20
2.516550066
 10
43.5507705253
 20
2.5102342797
 10
43.46976645
 20
2.5019585247
 10
43.3868763994
 20
2.4914580843
 10
43.3021003738
 20
2.4787329585
  0
LINE
  5
4CA
100
AcDbEntity
  8
SCRITTE
100
AcDbLine
 62
253
  6
CONTINUOUS
 10
53.9233937099
 20
-1.3939691236
 11
53.7921437099
 21
-1.3502191236
  0
LINE
  5
4CB
100
AcDbEntity
  8
SCRITTE
100
AcDbLine
 62
253
  6
CONTINUOUS
 10
53.3546437099
 20
-1.7439691236
 11
53.4421437099
 21
-1.7877191236
  0
LINE
  5
4CC
100
AcDbEntity
  8
SCRITTE
100
AcDbLine
 62
253
  6
CONTINUOUS
 10
54.0108937099
 20
-1.4377191236
 11
53.9233937099
 21
-1.3939691236
  0
LINE
  5
4CD
100
AcDbEntity
  8
CURVE
100
AcDbLine
 62
253
  6
CONTINUOUS
 10
46.2787508591
 20
2.2667451748
 11
46.0644651576
 21
2.4810308764
  0
LINE
  5
4CE
100
AcDbEntity
  8
SCRITTE
100
AcDbLine
 62
253
  6
CONTINUOUS
 10
49.7025597407
 20
-0.7189691147
 11
49.9025603129
 21
-0.9189691236
  0
LINE
  5
4CF
100
AcDbEntity
  8
SCRITTE
100
AcDbLine
 62
253
  6
CONTINUOUS
 10
49.1358939006
 20
0.2810308883
 11
48.9358933284
 21
0.4810308764
  0
LINE
  5
4D0
100
AcDbEntity
  8
CURVE
100
AcDbLine
 62
253
  6
CONTINUOUS
 10
47.4573223068
 20
2.2667451748
 11
47.2430365159
 21
2.4810308764
  0
LINE
  5
4D1
100
AcDbEntity
  8
CURVE
100
AcDbLine
 62
253
  6
CONTINUOUS
 10
48.2073223068
 20
1.6238880256
 11
47.9930365159
 21
1.8381737718
  0
LINE
  5
4D2
100
AcDbEntity
  8
CURVE
100
AcDbLine
 62
253
  6
CONTINUOUS
 10
47.5644651129
 20
2.0524594733
 11
47.4573223068
 21
2.2667451748
  0
LINE
  5
4D3
100
AcDbEntity
  8
SCRITTE
100
AcDbLine
 62
253
  6
CONTINUOUS
 10
50.0358936145
 20
-2.6189691236
 11
49.7358937575
 21
-1.2189691236
  0
LINE
  5
4D4
100
AcDbEntity
  8
SCRITTE
100
AcDbLine
 62
253
  6
CONTINUOUS
 10
49.7025597407
 20
0.2810308883
 11
49.7025597407
 21
-0.7189691147
  0
LINE
  5
4D5
100
AcDbEntity
  8
CURVE
100
AcDbLine
 62
253
  6
CONTINUOUS
 10
49.7787507846
 20
2.2667451748
 11
49.7787507846
 21
1.9453165779
  0
LINE
  5
4D6
100
AcDbEntity
  8
CURVE
100
AcDbLine
 62
253
  6
CONTINUOUS
 10
49.8144652917
 20
1.6238880256
 11
49.8144652917
 21
1.0881737383
  0
LINE
  5
4D7
100
AcDbEntity
  8
SCRITTE
100
AcDbLine
 62
253
  6
CONTINUOUS
 10
50.0358942821
 20
3.8240493821
 11
50.0358942821
 21
3.8118317672
  0
LINE
  5
4D8
100
AcDbEntity
  8
CURVE
100
AcDbLine
 62
253
  6
CONTINUOUS
 10
50.2430365159
 20
2.4810308764
 11
50.2430365159
 21
2.1596022794
  0
LINE
  5
4D9
100
AcDbEntity
  8
SCRITTE
100
AcDbLine
 62
253
  6
CONTINUOUS
 10
50.6692265346
 20
3.8240493821
 11
50.6692265346
 21
3.8118317672
  0
LINE
  5
4DA
100
AcDbEntity
  8
CURVE
100
AcDbLine
 62
253
  6
CONTINUOUS
 10
50.5644652917
 20
0.9810308764
 11
50.9930365159
 21
2.4810308764
  0
LINE
  5
4DB
100
AcDbEntity
  8
SCRITTE
100
AcDbLine
 62
253
  6
CONTINUOUS
 10
50.3358938052
 20
-1.6189690998
 11
50.0358936145
 21
-2.6189691236
  0
LINE
  5
4DC
100
AcDbEntity
  8
SCRITTE
100
AcDbLine
 62
253
  6
CONTINUOUS
 10
48.3692270472
 20
-2.4189691147
 11
48.3358936741
 21
-2.4856357878
  0
LINE
  5
4DD
100
AcDbEntity
  8
SCRITTE
100
AcDbLine
 62
253
  6
CONTINUOUS
 10
48.3692270472
 20
-2.7189691281
 11
48.4358937099
 21
-2.5856357897
  0
LINE
  5
4DE
100
AcDbEntity
  8
CURVE
100
AcDbLine
 62
253
  6
CONTINUOUS
 10
51.6716078593
 20
1.2310308838
 11
51.6358937099
 21
1.1596023055
  0
LINE
  5
4DF
100
AcDbEntity
  8
SCRITTE
100
AcDbLine
 62
253
  6
CONTINUOUS
 10
48.9358933284
 20
-0.9189691236
 11
49.1358939006
 21
-0.7189691147
  0
LINE
  5
4E0
100
AcDbEntity
  8
SCRITTE
100
AcDbLine
 62
253
  6
CONTINUOUS
 10
47.4358937277
 20
-2.6189691236
 11
47.6358937158
 21
-2.4189691147
  0
LINE
  5
4E1
100
AcDbEntity
  8
SCRITTE
100
AcDbLine
 62
253
  6
CONTINUOUS
 10
49.3358937814
 20
-1.2189691236
 11
48.9358936383
 21
-1.6189690998
  0
LINE
  5
4E2
100
AcDbEntity
  8
SCRITTE
100
AcDbLine
 62
253
  6
CONTINUOUS
 10
48.4025603368
 20
-2.3856357834
 11
48.3692270472
 21
-2.4189691147
  0
LINE
  5
4E3
100
AcDbEntity
  8
DRAFT
100
AcDbLine
 62
7
  6
CONTINUOUS
 10
54.8358937099
 20
3.8834120306
 11
54.7835125556
 21
3.8310308764
  0
LINE
  5
4E4
100
AcDbEntity
  8
SCRITTE
100
AcDbLine
 62
253
  6
CONTINUOUS
 10
48.4025603368
 20
-2.5523024557
 11
48.4692270829
 21
-2.4856357878
  0
LINE
  5
4E5
100
AcDbEntity
  8
CURVE
100
AcDbLine
 62
253
  6
CONTINUOUS
 10
52.7073224856
 20
1.7310308764
 11
52.9216080977
 21
1.9453165779
  0
LINE
  5
4E6
100
AcDbEntity
  8
RACCORDO
100
AcDbLine
 62
253
  6
CONTINUOUS
 10
55.0228262543
 20
3.8179405747
 11
54.9944258564
 21
3.7895401767
  0
LINE
  5
4E7
100
AcDbEntity
  8
ASSI
100
AcDbLine
 62
253
  6
CONTINUOUS
 10
55.0228262543
 20
3.8179405747
 11
54.9944258564
 21
3.7895401767
  0
LINE
  5
4E8
100
AcDbEntity
  8
DRAFT
100
AcDbLine
 62
7
  6
CONTINUOUS
 10
54.8393847228
 20
3.0345218893
 11
54.8358937099
 21
3.0310308764
  0
LINE
  5
4E9
100
AcDbEntity
  8
CURVE
100
AcDbLine
 62
253
  6
CONTINUOUS
 10
52.8144649341
 20
0.9810308764
 11
53.0287505462
 21
1.1953166002
  0
LWPOLYLINE
  5
4EA
100
AcDbEntity
  8
0
100
AcDbPolyline
 62
7
  6
CONTINUOUS
 90
10
 70
0
 10
43.6437351415
 20
2.2090045273
 10
43.6748795312
 20
2.2141962552
 10
43.7059589106
 20
2.2183750314
 10
43.7369732797
 20
2.221540856
 10
43.7679220215
 20
2.2237030928
 10
43.7988057529
 20
2.224852378
 10
43.8296263254
 20
2.2249606198
 10
43.860384356
 20
2.2240184543
 10
43.8910792275
 20
2.2220352454
 10
43.9217109401
 20
2.2190109932
  0
LWPOLYLINE
  5
4EB
100
AcDbEntity
  8
ASSI
100
AcDbPolyline
 62
7
  6
CONTINUOUS
 90
10
 70
0
 10
43.6437351415
 20
2.2090045273
 10
43.6748795312
 20
2.2141962552
 10
43.7059589106
 20
2.2183750314
 10
43.7369732797
 20
2.221540856
 10
43.7679220215
 20
2.2237030928
 10
43.7988057529
 20
2.224852378
 10
43.8296263254
 20
2.2249606198
 10
43.860384356
 20
2.2240184543
 10
43.8910792275
 20
2.2220352454
 10
43.9217109401
 20
2.2190109932
  0
LWPOLYLINE
  5
4EC
100
AcDbEntity
  8
RACCORDO
100
AcDbPolyline
 62
7
  6
CONTINUOUS
 90
7
 70
0
 10
35.0044698789
 20
1.7958641279
 10
34.9883975431
 20
1.7955329811
 10
34.9745493879
 20
1.7951643286
 10
34.9635585181
 20
1.7947750096
 10
34.9556359686
 20
1.794370637
 10
34.9505707045
 20
1.7939455979
 10
34.9483627258
 20
1.7934998923
  0
LWPOLYLINE
  5
4ED
100
AcDbEntity
  8
ASSI
100
AcDbPolyline
 62
7
  6
CONTINUOUS
 90
7
 70
0
 10
35.0044698789
 20
1.7958641279
 10
34.9883975431
 20
1.7955329811
 10
34.9745493879
 20
1.7951643286
 10
34.9635585181
 20
1.7947750096
 10
34.9556359686
 20
1.794370637
 10
34.9505707045
 20
1.7939455979
 10
34.9483627258
 20
1.7934998923
  0
LINE
  5
4EE
100
AcDbEntity
  8
RACCORDO
100
AcDbLine
 62
253
  6
CONTINUOUS
 10
35.0259694791
 20
2.4421185527
 11
33.1458518927
 21
2.4421185527
  0
LINE
  5
4EF
100
AcDbEntity
  8
ASSI
100
AcDbLine
 62
253
  6
CONTINUOUS
 10
35.0259694791
 20
2.4421185527
 11
33.1458518927
 21
2.4421185527
  0
LINE
  5
4F0
100
AcDbEntity
  8
RACCORDO
100
AcDbLine
 62
7
  6
CONTINUOUS
 10
35.1072332195
 20
2.4719749778
 11
33.1449496084
 21
2.4719749778
  0
LINE
  5
4F1
100
AcDbEntity
  8
ASSI
100
AcDbLine
 62
7
  6
CONTINUOUS
 10
35.1072332195
 20
2.4719749778
 11
33.1449496084
 21
2.4719749778
  0
LINE
  5
4F2
100
AcDbEntity
  8
CURVE
100
AcDbLine
 62
253
  6
CONTINUOUS
 10
52.600179322
 20
2.4810308764
 11
52.2787505462
 21
2.4810308764
  0
LINE
  5
4F3
100
AcDbEntity
  8
CURVE
100
AcDbLine
 62
253
  6
CONTINUOUS
 10
50.9930365159
 20
2.4810308764
 11
50.2430365159
 21
2.4810308764
  0
LINE
  5
4F4
100
AcDbEntity
  8
CURVE
100
AcDbLine
 62
253
  6
CONTINUOUS
 10
47.2430365159
 20
2.4810308764
 11
47.1358937099
 21
2.4810308764
  0
LINE
  5
4F5
100
AcDbEntity
  8
CURVE
100
AcDbLine
 62
253
  6
CONTINUOUS
 10
46.0644651576
 20
2.4810308764
 11
45.9573222845
 21
2.4810308764
  0
LINE
  5
4F6
100
AcDbEntity
  8
DRAFT
100
AcDbLine
 62
7
  6
CONTINUOUS
 10
36.1358937099
 20
2.4810308764
 11
36.1153358026
 21
2.4810308764
  0
LINE
  5
4F7
100
AcDbEntity
  8
ASSI
100
AcDbLine
 62
7
  6
CONTINUOUS
 10
36.1358937099
 20
2.4810308764
 11
36.1153358026
 21
2.4810308764
  0
LINE
  5
4F8
100
AcDbEntity
  8
DRAFT
100
AcDbLine
 62
7
  6
CONTINUOUS
 10
35.1070126507
 20
2.4810308764
 11
33.1358937099
 21
2.4810308764
  0
LINE
  5
4F9
100
AcDbEntity
  8
ASSI
100
AcDbLine
 62
7
  6
CONTINUOUS
 10
35.1070126507
 20
2.4810308764
 11
33.1358937099
 21
2.4810308764
  0
LINE
  5
4FA
100
AcDbEntity
  8
CURVE
100
AcDbLine
 62
253
  6
CONTINUOUS
 10
48.2073223068
 20
2.4810308764
 11
48.5287509038
 21
2.4810308764
  0
LINE
  5
4FB
100
AcDbEntity
  8
CURVE
100
AcDbLine
 62
253
  6
CONTINUOUS
 10
49.1716080977
 20
2.4810308764
 11
49.600179322
 21
2.4810308764
  0
LINE
  5
4FC
100
AcDbEntity
  8
0
100
AcDbLine
 62
7
  6
CONTINUOUS
 10
42.6763457099
 20
2.4985928764
 11
42.3330917099
 21
2.4985928764
  0
LINE
  5
4FD
100
AcDbEntity
  8
ASSI
100
AcDbLine
 62
7
  6
CONTINUOUS
 10
42.6763457099
 20
2.4985928764
 11
42.3330917099
 21
2.4985928764
  0
LINE
  5
4FE
100
AcDbEntity
  8
0
100
AcDbLine
 62
7
  6
CONTINUOUS
 10
41.5852327099
 20
2.4985928764
 11
41.2341657099
 21
2.4985928764
  0
LINE
  5
4FF
100
AcDbEntity
  8
ASSI
100
AcDbLine
 62
7
  6
CONTINUOUS
 10
41.5852327099
 20
2.4985928764
 11
41.2341657099
 21
2.4985928764
  0
LINE
  5
500
100
AcDbEntity
  8
0
100
AcDbLine
 62
7
  6
CONTINUOUS
 10
40.5282567099
 20
2.4985928764
 11
40.1737217099
 21
2.4985928764
  0
LINE
  5
501
100
AcDbEntity
  8
ASSI
100
AcDbLine
 62
7
  6
CONTINUOUS
 10
40.5282567099
 20
2.4985928764
 11
40.1737217099
 21
2.4985928764
  0
LINE
  5
502
100
AcDbEntity
  8
0
100
AcDbLine
 62
7
  6
CONTINUOUS
 10
39.3427137099
 20
2.4985928764
 11
38.9881277099
 21
2.4985928764
  0
LINE
  5
503
100
AcDbEntity
  8
ASSI
100
AcDbLine
 62
7
  6
CONTINUOUS
 10
39.3427137099
 20
2.4985928764
 11
38.9881277099
 21
2.4985928764
  0
LINE
  5
504
100
AcDbEntity
  8
0
100
AcDbLine
 62
7
  6
CONTINUOUS
 10
38.3301807099
 20
2.4985928764
 11
37.9447277099
 21
2.4985928764
  0
LINE
  5
505
100
AcDbEntity
  8
ASSI
100
AcDbLine
 62
7
  6
CONTINUOUS
 10
38.3301807099
 20
2.4985928764
 11
37.9447277099
 21
2.4985928764
  0
LINE
  5
506
100
AcDbEntity
  8
0
100
AcDbLine
 62
7
  6
CONTINUOUS
 10
39.8292197099
 20
2.4986948764
 11
39.4743917099
 21
2.4986948764
  0
LINE
  5
507
100
AcDbEntity
  8
ASSI
100
AcDbLine
 62
7
  6
CONTINUOUS
 10
39.8292197099
 20
2.4986948764
 11
39.4743917099
 21
2.4986948764
  0
LINE
  5
508
100
AcDbEntity
  8
DRAFT
100
AcDbLine
 62
7
  6
CONTINUOUS
 10
35.0358937099
 20
2.6620503246
 11
35.0658937099
 21
2.6620503246
  0
LINE
  5
509
100
AcDbEntity
  8
RACCORDO
100
AcDbLine
 62
253
  6
CONTINUOUS
 10
68.6233839167
 20
2.9426496125
 11
55.6165489879
 21
2.9426496125
  0
LINE
  5
50A
100
AcDbEntity
  8
ASSI
100
AcDbLine
 62
253
  6
CONTINUOUS
 10
68.6233839167
 20
2.9426496125
 11
55.6165489879
 21
2.9426496125
  0
LINE
  5
50B
100
AcDbEntity
  8
RACCORDO
100
AcDbLine
 62
253
  6
CONTINUOUS
 10
69.6249870005
 20
2.9594604814
 11
68.7584476869
 21
2.9594615344
  0
LINE
  5
50C
100
AcDbEntity
  8
RACCORDO
100
AcDbLine
 62
253
  6
CONTINUOUS
 10
69.6263937145
 20
2.9715156505
 11
68.7549297047
 21
2.9715157789
  0
LINE
  5
50D
100
AcDbEntity
  8
RACCORDO
100
AcDbLine
 62
253
  6
CONTINUOUS
 10
68.6273198916
 20
2.9724570581
 11
55.6185168255
 21
2.9724570581
  0
LINE
  5
50E
100
AcDbEntity
  8
ASSI
100
AcDbLine
 62
253
  6
CONTINUOUS
 10
68.6273198916
 20
2.9724570581
 11
55.6185168255
 21
2.9724570581
  0
LINE
  5
50F
100
AcDbEntity
  8
DRAFT
100
AcDbLine
 62
7
  6
CONTINUOUS
 10
68.6358937099
 20
2.9810308764
 11
55.6228034082
 21
2.9810308764
  0
LINE
  5
510
100
AcDbEntity
  8
ASSI
100
AcDbLine
 62
7
  6
CONTINUOUS
 10
68.6358937099
 20
2.9810308764
 11
55.6228034082
 21
2.9810308764
  0
LINE
  5
511
100
AcDbEntity
  8
RACCORDO
100
AcDbLine
 62
7
  6
CONTINUOUS
 10
55.6882748641
 20
2.9810308764
 11
69.6359089403
 21
2.9810308764
  0
LINE
  5
512
100
AcDbEntity
  8
DRAFT
100
AcDbLine
 62
7
  6
CONTINUOUS
 10
54.8358937099
 20
3.0310308764
 11
36.9358937099
 21
3.0310308764
  0
LINE
  5
513
100
AcDbEntity
  8
ASSI
100
AcDbLine
 62
7
  6
CONTINUOUS
 10
54.8358937099
 20
3.0310308764
 11
36.9358937099
 21
3.0310308764
  0
LINE
  5
514
100
AcDbEntity
  8
DRAFT
100
AcDbLine
 62
7
  6
CONTINUOUS
 10
54.8393847228
 20
3.0345218893
 11
36.9324026969
 21
3.0345218893
  0
LINE
  5
515
100
AcDbEntity
  8
ASSI
100
AcDbLine
 62
7
  6
CONTINUOUS
 10
54.8393847228
 20
3.0345218893
 11
36.9324026969
 21
3.0345218893
  0
LINE
  5
516
100
AcDbEntity
  8
RACCORDO
100
AcDbLine
 62
253
  6
CONTINUOUS
 10
36.0905139973
 20
3.1206461809
 11
35.1463697883
 21
3.1206461809
  0
LINE
  5
517
100
AcDbEntity
  8
RACCORDO
100
AcDbLine
 62
253
  6
CONTINUOUS
 10
55.0944220487
 20
3.1895630229
 11
55.5944030102
 21
3.1895630163
  0
LINE
  5
518
100
AcDbEntity
  8
ASSI
100
AcDbLine
 62
253
  6
CONTINUOUS
 10
55.0944220487
 20
3.1895630229
 11
55.5944030102
 21
3.1895630163
  0
LINE
  5
519
100
AcDbEntity
  8
RACCORDO
100
AcDbLine
 62
253
  6
CONTINUOUS
 10
54.9944258564
 20
3.2895592152
 11
36.1804121589
 21
3.2895592152
  0
LINE
  5
51A
100
AcDbEntity
  8
ASSI
100
AcDbLine
 62
253
  6
CONTINUOUS
 10
54.9944258564
 20
3.2895592152
 11
36.1804121589
 21
3.2895592152
  0
LINE
  5
51B
100
AcDbEntity
  8
RACCORDO
100
AcDbLine
 62
7
  6
CONTINUOUS
 10
36.1151427316
 20
2.4638784017
 11
36.1530635278
 21
2.4638610584
  0
LINE
  5
51C
100
AcDbEntity
  8
ASSI
100
AcDbLine
 62
7
  6
CONTINUOUS
 10
36.1151427316
 20
2.4638784017
 11
36.1530635278
 21
2.4638610584
  0
LWPOLYLINE
  5
51D
100
AcDbEntity
  8
RACCORDO
100
AcDbPolyline
 62
7
  6
CONTINUOUS
 90
8
 70
0
 10
68.6570507619
 20
2.9809996377
 10
68.688312118
 20
2.9808070918
 10
68.702195863
 20
2.9806399554
 10
68.7146842675
 20
2.9804294627
 10
68.7247390983
 20
2.9801931009
 10
68.7320142776
 20
2.9799366989
 10
68.7368558832
 20
2.9796544276
 10
68.7392639151
 20
2.9793462872
  0
LWPOLYLINE
  5
51E
100
AcDbEntity
  8
RACCORDO
100
AcDbPolyline
 62
253
  6
CONTINUOUS
 90
10
 70
0
 10
69.5957013879
 20
1.8206144825
 10
69.6129108778
 20
1.8195915538
 10
69.6296067808
 20
1.8168393738
 10
69.6452908534
 20
1.8124400787
 10
69.6594950174
 20
1.8065249745
 10
69.6717954335
 20
1.7992705753
 10
69.6818251001
 20
1.7908933058
 10
69.6892846759
 20
1.7816431223
 10
69.6939514672
 20
1.7717960827
 10
69.695686147
 20
1.7616460471
  0
LINE
  5
51F
100
AcDbEntity
  8
RACCORDO
100
AcDbLine
 62
7
  6
CONTINUOUS
 10
68.6358937099
 20
1.9310308764
 11
68.7007412552
 21
1.9265400165
  0
LINE
  5
520
100
AcDbEntity
  8
ASSI
100
AcDbLine
 62
7
  6
CONTINUOUS
 10
68.6358937099
 20
1.9310308764
 11
68.7007412552
 21
1.9265400165
  0
LINE
  5
521
100
AcDbEntity
  8
SCRITTE
100
AcDbLine
 62
253
  6
CONTINUOUS
 10
53.1796437099
 20
-2.4439691236
 11
53.2671437099
 21
-2.5314691236
  0
LINE
  5
522
100
AcDbEntity
  8
CURVE
100
AcDbLine
 62
253
  6
CONTINUOUS
 10
48.5287509038
 20
2.4810308764
 11
48.7430365159
 21
2.2667451748
  0
LINE
  5
523
100
AcDbEntity
  8
DRAFT
100
AcDbLine
 62
7
  6
CONTINUOUS
 10
54.8358937099
 20
-3.7213502779
 11
54.7835125556
 21
-3.6689691236
  0
LINE
  5
524
100
AcDbEntity
  8
RACCORDO
100
AcDbLine
 62
253
  6
CONTINUOUS
 10
55.0228262543
 20
-3.655878822
 11
54.9944258564
 21
-3.627478424
  0
LINE
  5
525
100
AcDbEntity
  8
ASSI
100
AcDbLine
 62
253
  6
CONTINUOUS
 10
55.0228262543
 20
-3.655878822
 11
54.9944258564
 21
-3.627478424
  0
LINE
  5
526
100
AcDbEntity
  8
CURVE
100
AcDbLine
 62
253
  6
CONTINUOUS
 10
49.600179322
 20
1.8381737718
 11
49.8144652917
 21
1.6238880256
  0
LINE
  5
527
100
AcDbEntity
  8
SCRITTE
100
AcDbLine
 62
253
  6
CONTINUOUS
 10
53.3108937099
 20
-1.7002191236
 11
53.3546437099
 21
-1.7439691236
  0
LINE
  5
528
100
AcDbEntity
  8
DRAFT
100
AcDbLine
 62
7
  6
CONTINUOUS
 10
54.8393847228
 20
-2.8724601366
 11
54.8358937099
 21
-2.8689691236
  0
LINE
  5
529
100
AcDbEntity
  8
RACCORDO
100
AcDbLine
 62
253
  6
CONTINUOUS
 10
55.6228034082
 20
-3.0559016681
 11
55.5944030102
 21
-3.0275012701
  0
LINE
  5
52A
100
AcDbEntity
  8
ASSI
100
AcDbLine
 62
253
  6
CONTINUOUS
 10
55.6228034082
 20
-3.0559016681
 11
55.5944030102
 21
-3.0275012701
  0
LINE
  5
52B
100
AcDbEntity
  8
CURVE
100
AcDbLine
 62
253
  6
CONTINUOUS
 10
49.600179322
 20
2.4810308764
 11
49.7787507846
 21
2.2667451748
  0
LINE
  5
52C
100
AcDbEntity
  8
SCRITTE
100
AcDbLine
 62
253
  6
CONTINUOUS
 10
50.6358936622
 20
-2.6189691236
 11
50.3358938052
 21
-1.6189690998
  0
LINE
  5
52D
100
AcDbEntity
  8
SCRITTE
100
AcDbLine
 62
253
  6
CONTINUOUS
 10
51.3692265346
 20
3.8240493821
 11
51.3692265346
 21
3.8118317672
  0
LINE
  5
52E
100
AcDbEntity
  8
CURVE
100
AcDbLine
 62
253
  6
CONTINUOUS
 10
51.6358937099
 20
1.1596023055
 11
51.6358937099
 21
1.1238880219
  0
LINE
  5
52F
100
AcDbEntity
  8
CURVE
100
AcDbLine
 62
253
  6
CONTINUOUS
 10
51.778751023
 20
1.1238880219
 11
51.778751023
 21
1.1596023055
  0
LINE
  5
530
100
AcDbEntity
  8
CURVE
100
AcDbLine
 62
253
  6
CONTINUOUS
 10
52.2787505462
 20
2.4810308764
 11
52.2787505462
 21
0.9810308764
  0
LINE
  5
531
100
AcDbEntity
  8
SCRITTE
100
AcDbLine
 62
253
  6
CONTINUOUS
 10
50.9358938529
 20
-1.2189691236
 11
50.6358936622
 21
-2.6189691236
  0
LINE
  5
532
100
AcDbEntity
  8
CURVE
100
AcDbLine
 62
253
  6
CONTINUOUS
 10
51.7430368735
 20
1.0524594491
 11
51.778751023
 21
1.1238880219
  0
LINE
  5
533
100
AcDbEntity
  8
RACCORDO
100
AcDbLine
 62
253
  6
CONTINUOUS
 10
55.6228034082
 20
3.2179634208
 11
55.5944030102
 21
3.1895630229
  0
LINE
  5
534
100
AcDbEntity
  8
ASSI
100
AcDbLine
 62
253
  6
CONTINUOUS
 10
55.6228034082
 20
3.2179634208
 11
55.5944030102
 21
3.1895630229
  0
LINE
  5
535
100
AcDbEntity
  8
SCRITTE
100
AcDbLine
 62
253
  6
CONTINUOUS
 10
53.4421437099
 20
-1.8752191236
 11
53.2671437099
 21
-1.9627191236
  0
LINE
  5
536
100
AcDbEntity
  8
SCRITTE
100
AcDbLine
 62
253
  6
CONTINUOUS
 10
53.5296437099
 20
-1.3064691236
 11
53.3983937099
 21
-1.3502191236
  0
LWPOLYLINE
  5
537
100
AcDbEntity
  8
RACCORDO
100
AcDbPolyline
 62
7
  6
CONTINUOUS
 90
6
 70
0
 10
35.1091916769
 20
2.4709316923
 10
35.0912217882
 20
2.4681852665
 10
35.073914624
 20
2.4638257076
 10
35.0572701845
 20
2.4579538362
 10
35.0412884695
 20
2.4506792833
 10
35.0259694791
 20
2.4421185527
  0
LWPOLYLINE
  5
538
100
AcDbEntity
  8
ASSI
100
AcDbPolyline
 62
7
  6
CONTINUOUS
 90
6
 70
0
 10
35.1091916769
 20
2.4709316923
 10
35.0912217882
 20
2.4681852665
 10
35.073914624
 20
2.4638257076
 10
35.0572701845
 20
2.4579538362
 10
35.0412884695
 20
2.4506792833
 10
35.0259694791
 20
2.4421185527
  0
LWPOLYLINE
  5
539
100
AcDbEntity
  8
RACCORDO
100
AcDbPolyline
 62
253
  6
CONTINUOUS
 90
10
 70
0
 10
36.327378698
 20
3.7895401767
 10
36.3013310771
 20
3.7872591985
 10
36.2760755625
 20
3.7804897552
 10
36.2523794942
 20
3.7694378524
 10
36.230962685
 20
3.7544395431
 10
36.2124757414
 20
3.735950816
 10
36.1974802216
 20
3.7145338134
 10
36.1864313661
 20
3.6908395053
 10
36.1796643822
 20
3.6655878089
 10
36.1773844095
 20
3.6395458882
  0
LWPOLYLINE
  5
53A
100
AcDbEntity
  8
ASSI
100
AcDbPolyline
 62
253
  6
CONTINUOUS
 90
10
 70
0
 10
36.327378698
 20
3.7895401767
 10
36.3013310771
 20
3.7872591985
 10
36.2760755625
 20
3.7804897552
 10
36.2523794942
 20
3.7694378524
 10
36.230962685
 20
3.7544395431
 10
36.2124757414
 20
3.735950816
 10
36.1974802216
 20
3.7145338134
 10
36.1864313661
 20
3.6908395053
 10
36.1796643822
 20
3.6655878089
 10
36.1773844095
 20
3.6395458882
  0
LINE
  5
53B
100
AcDbEntity
  8
SCRITTE
100
AcDbLine
 62
253
  6
CONTINUOUS
 10
52.1692274882
 20
3.8240493821
 11
51.769227679
 21
3.8118317672
  0
LINE
  5
53C
100
AcDbEntity
  8
SCRITTE
100
AcDbLine
 62
253
  6
CONTINUOUS
 10
40.2358937814
 20
3.8240493821
 11
39.8358937218
 21
3.8118317672
  0
LINE
  5
53D
100
AcDbEntity
  8
SCRITTE
100
AcDbLine
 62
253
  6
CONTINUOUS
 10
39.4358937456
 20
3.8240493821
 11
39.0358937277
 21
3.8170678879
  0
LINE
  5
53E
100
AcDbEntity
  8
SCRITTE
100
AcDbLine
 62
253
  6
CONTINUOUS
 10
47.7025605037
 20
3.8240493821
 11
47.502560599
 21
3.8223040087
  0
LINE
  5
53F
100
AcDbEntity
  8
SCRITTE
100
AcDbLine
 62
253
  6
CONTINUOUS
 10
41.5358936622
 20
3.8118317672
 11
41.7358935668
 21
3.8135771409
  0
LINE
  5
540
100
AcDbEntity
  8
RACCORDO
100
AcDbLine
 62
253
  6
CONTINUOUS
 10
36.0956587351
 20
3.720554798
 11
35.7462784054
 21
3.720554798
  0
LINE
  5
541
100
AcDbEntity
  8
RACCORDO
100
AcDbLine
 62
7
  6
CONTINUOUS
 10
54.9944258564
 20
3.7895401767
 11
36.327378698
 21
3.7895401767
  0
LINE
  5
542
100
AcDbEntity
  8
ASSI
100
AcDbLine
 62
7
  6
CONTINUOUS
 10
54.9944258564
 20
3.7895401767
 11
36.327378698
 21
3.7895401767
  0
LINE
  5
543
100
AcDbEntity
  8
RACCORDO
100
AcDbLine
 62
7
  6
CONTINUOUS
 10
35.6658023269
 20
3.8010308764
 11
36.1358937099
 21
3.8010308764
  0
LINE
  5
544
100
AcDbEntity
  8
SCRITTE
100
AcDbLine
 62
253
  6
CONTINUOUS
 10
41.0358937337
 20
3.8118317672
 11
41.5358936622
 21
3.8118317672
  0
LINE
  5
545
100
AcDbEntity
  8
SCRITTE
100
AcDbLine
 62
253
  6
CONTINUOUS
 10
42.3025604083
 20
3.8118317672
 11
42.902560456
 21
3.8118317672
  0
LINE
  5
546
100
AcDbEntity
  8
SCRITTE
100
AcDbLine
 62
253
  6
CONTINUOUS
 10
47.7025605037
 20
3.8118317672
 11
48.1025603129
 21
3.8118317672
  0
LINE
  5
547
100
AcDbEntity
  8
SCRITTE
100
AcDbLine
 62
253
  6
CONTINUOUS
 10
52.4358931377
 20
3.8153225145
 11
51.9025605037
 21
3.8153225145
  0
LINE
  5
548
100
AcDbEntity
  8
SCRITTE
100
AcDbLine
 62
253
  6
CONTINUOUS
 10
40.5025604322
 20
3.8153225145
 11
39.9692270472
 21
3.8153225145
  0
LINE
  5
549
100
AcDbEntity
  8
RACCORDO
100
AcDbLine
 62
7
  6
CONTINUOUS
 10
54.8358937099
 20
3.8179405747
 11
55.0228262543
 21
3.8179405747
  0
LINE
  5
54A
100
AcDbEntity
  8
ASSI
100
AcDbLine
 62
7
  6
CONTINUOUS
 10
54.8358937099
 20
3.8179405747
 11
55.0228262543
 21
3.8179405747
  0
LINE
  5
54B
100
AcDbEntity
  8
SCRITTE
100
AcDbLine
 62
253
  6
CONTINUOUS
 10
49.3692268207
 20
3.8188132618
 11
48.6692268207
 21
3.8188132618
  0
LINE
  5
54C
100
AcDbEntity
  8
SCRITTE
100
AcDbLine
 62
253
  6
CONTINUOUS
 10
42.3025604083
 20
3.8188132618
 11
42.7025602176
 21
3.8188132618
  0
LINE
  5
54D
100
AcDbEntity
  8
SCRITTE
100
AcDbLine
 62
253
  6
CONTINUOUS
 10
48.1025603129
 20
3.8240493821
 11
47.7025605037
 21
3.8240493821
  0
LINE
  5
54E
100
AcDbEntity
  8
SCRITTE
100
AcDbLine
 62
253
  6
CONTINUOUS
 10
42.902560456
 20
3.8240493821
 11
42.3025604083
 21
3.8240493821
  0
LINE
  5
54F
100
AcDbEntity
  8
SCRITTE
100
AcDbLine
 62
253
  6
CONTINUOUS
 10
41.5358936622
 20
3.8240493821
 11
41.0358937337
 21
3.8240493821
  0
LINE
  5
550
100
AcDbEntity
  8
DRAFT
100
AcDbLine
 62
7
  6
CONTINUOUS
 10
54.7835125556
 20
3.8310308764
 11
47.3882748641
 21
3.8310308764
  0
LINE
  5
551
100
AcDbEntity
  8
RACCORDO
100
AcDbLine
 62
7
  6
CONTINUOUS
 10
35.6355282061
 20
3.8310308764
 11
44.0358937099
 21
3.8310308764
  0
LINE
  5
552
100
AcDbEntity
  8
DRAFT
100
AcDbLine
 62
7
  6
CONTINUOUS
 10
44.0358937099
 20
3.8310308764
 11
47.2358937099
 21
3.8310308764
  0
LINE
  5
553
100
AcDbEntity
  8
RACCORDO
100
AcDbLine
 62
7
  6
CONTINUOUS
 10
55.0886403679
 20
3.8834120306
 11
54.8358937099
 21
3.8834120306
  0
LINE
  5
554
100
AcDbEntity
  8
RACCORDO
100
AcDbLine
 62
7
  6
CONTINUOUS
 10
54.5719218319
 20
3.8307172403
 11
47.2358937099
 21
3.8310308764
  0
LINE
  5
555
100
AcDbEntity
  8
ASSI
100
AcDbLine
 62
7
  6
CONTINUOUS
 10
54.5719218319
 20
3.8307172403
 11
36.2858879983
 21
3.8310308764
  0
LINE
  5
556
100
AcDbEntity
  8
SCRITTE
100
AcDbLine
 62
253
  6
CONTINUOUS
 10
41.7358935668
 20
3.8223040087
 11
41.5358936622
 21
3.8240493821
  0
LINE
  5
557
100
AcDbEntity
  8
SCRITTE
100
AcDbLine
 62
253
  6
CONTINUOUS
 10
47.502560599
 20
3.8135771409
 11
47.7025605037
 21
3.8118317672
  0
LINE
  5
558
100
AcDbEntity
  8
RACCORDO
100
AcDbLine
 62
7
  6
CONTINUOUS
 10
54.6579614754
 20
3.8301109135
 11
54.5719218319
 21
3.8307172403
  0
LINE
  5
559
100
AcDbEntity
  8
ASSI
100
AcDbLine
 62
7
  6
CONTINUOUS
 10
54.6579614754
 20
3.8301109135
 11
54.5719218319
 21
3.8307172403
  0
LINE
  5
55A
100
AcDbEntity
  8
SCRITTE
100
AcDbLine
 62
253
  6
CONTINUOUS
 10
39.0358937277
 20
3.8170678879
 11
38.6358937099
 21
3.8240493821
  0
LINE
  5
55B
100
AcDbEntity
  8
SCRITTE
100
AcDbLine
 62
253
  6
CONTINUOUS
 10
46.0025603129
 20
3.8118317672
 11
45.3025603129
 21
3.8240493821
  0
LINE
  5
55C
100
AcDbEntity
  8
SCRITTE
100
AcDbLine
 62
253
  6
CONTINUOUS
 10
51.3692265346
 20
3.8118317672
 11
50.6692265346
 21
3.8240493821
  0
LINE
  5
55D
100
AcDbEntity
  8
SCRITTE
100
AcDbLine
 62
253
  6
CONTINUOUS
 10
40.6358937575
 20
3.8118317672
 11
40.2358937814
 21
3.8240493821
  0
LINE
  5
55E
100
AcDbEntity
  8
SCRITTE
100
AcDbLine
 62
253
  6
CONTINUOUS
 10
52.5692272975
 20
3.8118317672
 11
52.1692274882
 21
3.8240493821
  0
LWPOLYLINE
  5
55F
100
AcDbEntity
  8
RACCORDO
100
AcDbPolyline
 62
7
  6
CONTINUOUS
 90
5
 70
0
 10
54.7286197718
 20
3.828640995
 10
54.7227526413
 20
3.828968418
 10
54.7128201282
 20
3.8292783434
 10
54.6988222325
 20
3.8295707713
 10
54.6579614754
 20
3.8301109135
  0
LWPOLYLINE
  5
560
100
AcDbEntity
  8
ASSI
100
AcDbPolyline
 62
7
  6
CONTINUOUS
 90
5
 70
0
 10
54.7286197718
 20
3.828640995
 10
54.7227526413
 20
3.828968418
 10
54.7128201282
 20
3.8292783434
 10
54.6988222325
 20
3.8295707713
 10
54.6579614754
 20
3.8301109135
  0
LWPOLYLINE
  5
561
100
AcDbEntity
  8
RACCORDO
100
AcDbPolyline
 62
7
  6
CONTINUOUS
 90
16
 70
0
 10
55.0228262543
 20
3.8179405747
 10
55.086646542
 20
3.814358137
 10
55.1484495293
 20
3.8045697237
 10
55.2082352162
 20
3.7885753346
 10
55.2666097845
 20
3.7660660005
 10
55.3229670524
 20
3.7373506906
 10
55.3754884741
 20
3.7033563132
 10
55.4240489409
 20
3.6639107649
 10
55.4687735614
 20
3.619186149
 10
55.5082191158
 20
3.5706256832
 10
55.542213501
 20
3.5181042568
 10
55.5709288199
 20
3.4617469804
 10
55.5934381613
 20
3.4033724037
 10
55.6094325545
 20
3.3435867098
 10
55.6192209702
 20
3.2817837155
 10
55.6228034082
 20
3.2179634208
  0
LWPOLYLINE
  5
562
100
AcDbEntity
  8
ASSI
100
AcDbPolyline
 62
7
  6
CONTINUOUS
 90
16
 70
0
 10
55.0228262543
 20
3.8179405747
 10
55.086646542
 20
3.814358137
 10
55.1484495293
 20
3.8045697237
 10
55.2082352162
 20
3.7885753346
 10
55.2666097845
 20
3.7660660005
 10
55.3229670524
 20
3.7373506906
 10
55.3754884741
 20
3.7033563132
 10
55.4240489409
 20
3.6639107649
 10
55.4687735614
 20
3.619186149
 10
55.5082191158
 20
3.5706256832
 10
55.542213501
 20
3.5181042568
 10
55.5709288199
 20
3.4617469804
 10
55.5934381613
 20
3.4033724037
 10
55.6094325545
 20
3.3435867098
 10
55.6192209702
 20
3.2817837155
 10
55.6228034082
 20
3.2179634208
  0
LWPOLYLINE
  5
563
100
AcDbEntity
  8
RACCORDO
100
AcDbPolyline
 62
7
  6
CONTINUOUS
 90
6
 70
0
 10
69.6358480138
 20
2.9810308764
 10
69.6532224545
 20
2.9795145346
 10
69.6700670581
 20
2.9750021478
 10
69.6858697687
 20
2.9676320032
 10
69.7001506388
 20
2.9576290756
 10
69.706567636
 20
2.9517478409
  0
LINE
  5
564
100
AcDbEntity
  8
RACCORDO
100
AcDbLine
 62
7
  6
CONTINUOUS
 10
54.8358937099
 20
3.8179405747
 11
54.7286197718
 21
3.828640995
  0
LINE
  5
565
100
AcDbEntity
  8
ASSI
100
AcDbLine
 62
7
  6
CONTINUOUS
 10
54.8358937099
 20
3.8179405747
 11
54.7286197718
 21
3.828640995
  0
LINE
  5
566
100
AcDbEntity
  8
CURVE
100
AcDbLine
 62
253
  6
CONTINUOUS
 10
52.7073224856
 20
2.4453165481
 11
52.600179322
 21
2.4810308764
  0
LINE
  5
567
100
AcDbEntity
  8
CURVE
100
AcDbLine
 62
253
  6
CONTINUOUS
 10
53.0287505462
 20
1.5167451748
 11
52.8144649341
 21
1.7310308764
  0
LINE
  5
568
100
AcDbEntity
  8
CURVE
100
AcDbLine
 62
253
  6
CONTINUOUS
 10
51.6358937099
 20
1.1238880219
 11
51.6716078593
 21
1.0524594491
  0
LINE
  5
569
100
AcDbEntity
  8
CURVE
100
AcDbLine
 62
253
  6
CONTINUOUS
 10
51.778751023
 20
1.1596023055
 11
51.7430368735
 21
1.2310308838
  0
LINE
  5
56A
100
AcDbEntity
  8
SCRITTE
100
AcDbLine
 62
253
  6
CONTINUOUS
 10
53.2671437099
 20
-1.6127191236
 11
53.3108937099
 21
-1.7002191236
  0
LINE
  5
56B
100
AcDbEntity
  8
SCRITTE
100
AcDbLine
 62
253
  6
CONTINUOUS
 10
53.1358937099
 20
-2.3127191236
 11
53.1796437099
 21
-2.4439691236
  0
LINE
  5
56C
100
AcDbEntity
  8
CURVE
100
AcDbLine
 62
253
  6
CONTINUOUS
 10
52.9216080977
 20
1.9453165779
 11
52.9216080977
 21
2.2667451748
  0
LINE
  5
56D
100
AcDbEntity
  8
CURVE
100
AcDbLine
 62
253
  6
CONTINUOUS
 10
53.0287505462
 20
1.1953166002
 11
53.0287505462
 21
1.5167451748
  0
LINE
  5
56E
100
AcDbEntity
  8
SCRITTE
100
AcDbLine
 62
253
  6
CONTINUOUS
 10
53.1358937099
 20
-2.1814691236
 11
53.1358937099
 21
-2.3127191236
  0
LINE
  5
56F
100
AcDbEntity
  8
SCRITTE
100
AcDbLine
 62
253
  6
CONTINUOUS
 10
53.2671437099
 20
-1.5689691236
 11
53.2671437099
 21
-1.6127191236
  0
LINE
  5
570
100
AcDbEntity
  8
SCRITTE
100
AcDbLine
 62
253
  6
CONTINUOUS
 10
53.3108937099
 20
-1.4377191236
 11
53.2671437099
 21
-1.5689691236
  0
LINE
  5
571
100
AcDbEntity
  8
SCRITTE
100
AcDbLine
 62
253
  6
CONTINUOUS
 10
53.1796437099
 20
-2.0502191236
 11
53.1358937099
 21
-2.1814691236
  0
LINE
  5
572
100
AcDbEntity
  8
RACCORDO
100
AcDbLine
 62
7
  6
CONTINUOUS
 10
55.6185168255
 20
2.9724570581
 11
55.6228034082
 21
2.9810308764
  0
LINE
  5
573
100
AcDbEntity
  8
ASSI
100
AcDbLine
 62
7
  6
CONTINUOUS
 10
55.6185168255
 20
2.9724570581
 11
55.6228034082
 21
2.9810308764
  0
LINE
  5
574
100
AcDbEntity
  8
SCRITTE
100
AcDbLine
 62
253
  6
CONTINUOUS
 10
53.3983937099
 20
-1.3502191236
 11
53.3108937099
 21
-1.4377191236
  0
LINE
  5
575
100
AcDbEntity
  8
SCRITTE
100
AcDbLine
 62
253
  6
CONTINUOUS
 10
53.2671437099
 20
-1.9627191236
 11
53.1796437099
 21
-2.0502191236
  0
LINE
  5
576
100
AcDbEntity
  8
SCRITTE
100
AcDbLine
 62
253
  6
CONTINUOUS
 10
53.7921437099
 20
-2.5752191236
 11
53.9233937099
 21
-2.4877191236
  0
LINE
  5
577
100
AcDbEntity
  8
RACCORDO
100
AcDbLine
 62
7
  6
CONTINUOUS
 10
68.7007412552
 20
1.9265400165
 11
68.7529615532
 21
1.9163985373
  0
LINE
  5
578
100
AcDbEntity
  8
ASSI
100
AcDbLine
 62
7
  6
CONTINUOUS
 10
68.7007412552
 20
1.9265400165
 11
68.7529615532
 21
1.9163985373
  0
LINE
  5
579
100
AcDbEntity
  8
CURVE
100
AcDbLine
 62
253
  6
CONTINUOUS
 10
52.9216080977
 20
2.2667451748
 11
52.7073224856
 21
2.4453165481
  0
LINE
  5
57A
100
AcDbEntity
  8
RACCORDO
100
AcDbLine
 62
7
  6
CONTINUOUS
 10
55.6228034082
 20
-2.8189691236
 11
55.6185168255
 21
-2.8103953054
  0
LINE
  5
57B
100
AcDbEntity
  8
ASSI
100
AcDbLine
 62
7
  6
CONTINUOUS
 10
55.6228034082
 20
-2.8189691236
 11
55.6185168255
 21
-2.8103953054
  0
LWPOLYLINE
  5
57C
100
AcDbEntity
  8
RACCORDO
100
AcDbPolyline
 62
253
  6
CONTINUOUS
 90
19
 70
0
 10
55.0944220487
 20
3.1895630229
 10
55.0940382227
 20
3.1982986331
 10
55.09291816
 20
3.2068673816
 10
55.0910618607
 20
3.2152692682
 10
55.0884451232
 20
3.223574206
 10
55.085092149
 20
3.231712282
 10
55.0810755424
 20
3.2394737576
 10
55.0763768935
 20
3.2468443818
 10
55.0710146121
 20
3.2538384055
 10
55.065116532
 20
3.2602888427
 10
55.0586718342
 20
3.2661791108
 10
55.0516913376
 20
3.2715257924
 10
55.0443353324
 20
3.2762116488
 10
55.0365908911
 20
3.2802218881
 10
55.0284709411
 20
3.2835713023
 10
55.0201745553
 20
3.2861870284
 10
55.0117680914
 20
3.2880447787
 10
55.0031851918
 20
3.289168841
 10
54.9944258564
 20
3.2895592152
  0
LWPOLYLINE
  5
57D
100
AcDbEntity
  8
ASSI
100
AcDbPolyline
 62
253
  6
CONTINUOUS
 90
19
 70
0
 10
55.0944220487
 20
3.1895630229
 10
55.0940382227
 20
3.1982986331
 10
55.09291816
 20
3.2068673816
 10
55.0910618607
 20
3.2152692682
 10
55.0884451232
 20
3.223574206
 10
55.085092149
 20
3.231712282
 10
55.0810755424
 20
3.2394737576
 10
55.0763768935
 20
3.2468443818
 10
55.0710146121
 20
3.2538384055
 10
55.065116532
 20
3.2602888427
 10
55.0586718342
 20
3.2661791108
 10
55.0516913376
 20
3.2715257924
 10
55.0443353324
 20
3.2762116488
 10
55.0365908911
 20
3.2802218881
 10
55.0284709411
 20
3.2835713023
 10
55.0201745553
 20
3.2861870284
 10
55.0117680914
 20
3.2880447787
 10
55.0031851918
 20
3.289168841
 10
54.9944258564
 20
3.2895592152
  0
LINE
  5
57E
100
AcDbEntity
  8
DRAFT
100
AcDbLine
 62
7
  6
CONTINUOUS
 10
54.7835125556
 20
3.8310308764
 11
54.7835125556
 21
3.8231655191
  0
LINE
  5
57F
100
AcDbEntity
  8
DRAFT
100
AcDbLine
 62
7
  6
CONTINUOUS
 10
54.7835125556
 20
-3.6611037664
 11
54.7835125556
 21
-3.6689691236
  0
LINE
  5
580
100
AcDbEntity
  8
DRAFT
100
AcDbLine
 62
7
  6
CONTINUOUS
 10
54.8358937099
 20
3.8834120306
 11
54.8358937099
 21
3.8179405747
  0
LINE
  5
581
100
AcDbEntity
  8
DRAFT
100
AcDbLine
 62
7
  6
CONTINUOUS
 10
54.8358937099
 20
-3.655878822
 11
54.8358937099
 21
-3.7213502779
  0
LINE
  5
582
100
AcDbEntity
  8
DRAFT
100
AcDbLine
 62
7
  6
CONTINUOUS
 10
54.8358937099
 20
-2.8689691236
 11
54.8358937099
 21
3.0310308764
  0
LINE
  5
583
100
AcDbEntity
  8
ASSI
100
AcDbLine
 62
7
  6
CONTINUOUS
 10
54.8358937099
 20
-2.8689691236
 11
54.8358937099
 21
3.0310308764
  0
LINE
  5
584
100
AcDbEntity
  8
DRAFT
100
AcDbLine
 62
7
  6
CONTINUOUS
 10
54.8393847228
 20
-2.8724601366
 11
54.8393847228
 21
3.0345218893
  0
LINE
  5
585
100
AcDbEntity
  8
ASSI
100
AcDbLine
 62
7
  6
CONTINUOUS
 10
54.8393847228
 20
-2.8724601366
 11
54.8393847228
 21
3.0345218893
  0
LINE
  5
586
100
AcDbEntity
  8
RACCORDO
100
AcDbLine
 62
253
  6
CONTINUOUS
 10
54.9944258564
 20
-3.1274974624
 11
54.9944258498
 21
-3.627478424
  0
LINE
  5
587
100
AcDbEntity
  8
ASSI
100
AcDbLine
 62
253
  6
CONTINUOUS
 10
54.9944258564
 20
-3.1274974624
 11
54.9944258498
 21
-3.627478424
  0
LINE
  5
588
100
AcDbEntity
  8
RACCORDO
100
AcDbLine
 62
253
  6
CONTINUOUS
 10
54.9944258564
 20
3.2895592152
 11
54.9944258564
 21
3.7895401767
  0
LINE
  5
589
100
AcDbEntity
  8
ASSI
100
AcDbLine
 62
253
  6
CONTINUOUS
 10
54.9944258564
 20
3.2895592152
 11
54.9944258564
 21
3.7895401767
  0
LINE
  5
58A
100
AcDbEntity
  8
RACCORDO
100
AcDbLine
 62
253
  6
CONTINUOUS
 10
55.0944220487
 20
-3.0275012701
 11
55.0944220487
 21
3.1895630229
  0
LINE
  5
58B
100
AcDbEntity
  8
ASSI
100
AcDbLine
 62
253
  6
CONTINUOUS
 10
55.0944220487
 20
-3.0275012701
 11
55.0944220487
 21
3.1895630229
  0
LINE
  5
58C
100
AcDbEntity
  8
SCRITTE
100
AcDbLine
 62
253
  6
CONTINUOUS
 10
53.9233937099
 20
-2.4877191236
 11
54.0108937099
 21
-2.4002191236
  0
LWPOLYLINE
  5
58D
100
AcDbEntity
  8
RACCORDO
100
AcDbPolyline
 62
7
  6
CONTINUOUS
 90
10
 70
0
 10
55.6185168255
 20
-2.8103953054
 10
55.6182956671
 20
-2.8096304701
 10
55.6180750308
 20
-2.8082272627
 10
55.6178549165
 20
-2.8061856832
 10
55.6176351839
 20
-2.8035036033
 10
55.6174159734
 20
-2.8001831514
 10
55.6171977064
 20
-2.7962307125
 10
55.6169805234
 20
-2.7916484152
 10
55.6167642839
 20
-2.7864341309
 10
55.6165489879
 20
-2.7805878598
  0
LWPOLYLINE
  5
58E
100
AcDbEntity
  8
ASSI
100
AcDbPolyline
 62
7
  6
CONTINUOUS
 90
10
 70
0
 10
55.6185168255
 20
-2.8103953054
 10
55.6182956671
 20
-2.8096304701
 10
55.6180750308
 20
-2.8082272627
 10
55.6178549165
 20
-2.8061856832
 10
55.6176351839
 20
-2.8035036033
 10
55.6174159734
 20
-2.8001831514
 10
55.6171977064
 20
-2.7962307125
 10
55.6169805234
 20
-2.7916484152
 10
55.6167642839
 20
-2.7864341309
 10
55.6165489879
 20
-2.7805878598
  0
LWPOLYLINE
  5
58F
100
AcDbEntity
  8
RACCORDO
100
AcDbPolyline
 62
7
  6
CONTINUOUS
 90
16
 70
0
 10
55.6882748641
 20
3.2837775344
 10
55.6846902772
 20
3.3476024688
 10
55.6749060814
 20
3.4093993517
 10
55.6589222766
 20
3.4691681832
 10
55.636429942
 20
3.5275119713
 10
55.6077379985
 20
3.583827708
 10
55.5737732082
 20
3.6363063687
 10
55.5343658821
 20
3.684823543
 10
55.4896857092
 20
3.7295036413
 10
55.4411685196
 20
3.7689108707
 10
55.3886899351
 20
3.8028755366
 10
55.3323743337
 20
3.8315673336
 10
55.2740306799
 20
3.8540595525
 10
55.2142619617
 20
3.8700432901
 10
55.1524651911
 20
3.8798274494
 10
55.0886403679
 20
3.8834120306
  0
LWPOLYLINE
  5
590
100
AcDbEntity
  8
RACCORDO
100
AcDbPolyline
 62
253
  6
CONTINUOUS
 90
19
 70
0
 10
55.5944030102
 20
3.1895630229
 10
55.5921167929
 20
3.2418526119
 10
55.5852821592
 20
3.2937442115
 10
55.5739511259
 20
3.344842938
 10
55.5582099313
 20
3.3947599367
 10
55.5381783649
 20
3.4431153543
 10
55.5140088494
 20
3.4895412271
 10
55.4858853125
 20
3.5336842543
 10
55.4540217676
 20
3.5752085196
 10
55.4186606573
 20
3.6137980517
 10
55.3800710138
 20
3.6491592172
 10
55.338546535
 20
3.6810228631
 10
55.294403345
 20
3.7091464257
 10
55.2479774437
 20
3.7333158761
 10
55.1996220791
 20
3.7533473486
 10
55.1497051852
 20
3.7690884497
 10
55.0986066041
 20
3.780419404
 10
55.0467152009
 20
3.7872539812
 10
54.9944258564
 20
3.7895401767
  0
LWPOLYLINE
  5
591
100
AcDbEntity
  8
ASSI
100
AcDbPolyline
 62
253
  6
CONTINUOUS
 90
19
 70
0
 10
55.5944030102
 20
3.1895630229
 10
55.5921167929
 20
3.2418526119
 10
55.5852821592
 20
3.2937442115
 10
55.5739511259
 20
3.344842938
 10
55.5582099313
 20
3.3947599367
 10
55.5381783649
 20
3.4431153543
 10
55.5140088494
 20
3.4895412271
 10
55.4858853125
 20
3.5336842543
 10
55.4540217676
 20
3.5752085196
 10
55.4186606573
 20
3.6137980517
 10
55.3800710138
 20
3.6491592172
 10
55.338546535
 20
3.6810228631
 10
55.294403345
 20
3.7091464257
 10
55.2479774437
 20
3.7333158761
 10
55.1996220791
 20
3.7533473486
 10
55.1497051852
 20
3.7690884497
 10
55.0986066041
 20
3.780419404
 10
55.0467152009
 20
3.7872539812
 10
54.9944258564
 20
3.7895401767
  0
LINE
  5
592
100
AcDbEntity
  8
RACCORDO
100
AcDbLine
 62
7
  6
CONTINUOUS
 10
55.6152386741
 20
-2.7387164176
 11
55.6165489879
 21
-2.7805878598
  0
LINE
  5
593
100
AcDbEntity
  8
ASSI
100
AcDbLine
 62
7
  6
CONTINUOUS
 10
55.6152386741
 20
-2.7387164176
 11
55.6165489879
 21
-2.7805878598
  0
LINE
  5
594
100
AcDbEntity
  8
RACCORDO
100
AcDbLine
 62
7
  6
CONTINUOUS
 10
55.6126989116
 20
-2.632243674
 11
55.6152386741
 21
-2.7387164176
  0
LINE
  5
595
100
AcDbEntity
  8
ASSI
100
AcDbLine
 62
7
  6
CONTINUOUS
 10
55.6126989116
 20
-2.632243674
 11
55.6152386741
 21
-2.7387164176
  0
LINE
  5
596
100
AcDbEntity
  8
RACCORDO
100
AcDbLine
 62
7
  6
CONTINUOUS
 10
55.6090914313
 20
-2.4157099104
 11
55.6126989116
 21
-2.632243674
  0
LINE
  5
597
100
AcDbEntity
  8
ASSI
100
AcDbLine
 62
7
  6
CONTINUOUS
 10
55.6090914313
 20
-2.4157099104
 11
55.6126989116
 21
-2.632243674
  0
LINE
  5
598
100
AcDbEntity
  8
RACCORDO
100
AcDbLine
 62
7
  6
CONTINUOUS
 10
55.6048401439
 20
-2.0321506265
 11
55.6090914313
 21
-2.4157099104
  0
LINE
  5
599
100
AcDbEntity
  8
ASSI
100
AcDbLine
 62
7
  6
CONTINUOUS
 10
55.6048401439
 20
-2.0321506265
 11
55.6090914313
 21
-2.4157099104
  0
LINE
  5
59A
100
AcDbEntity
  8
RACCORDO
100
AcDbLine
 62
7
  6
CONTINUOUS
 10
55.6048401439
 20
-2.0321506265
 11
55.6019015473
 21
-1.6107959844
  0
LINE
  5
59B
100
AcDbEntity
  8
ASSI
100
AcDbLine
 62
7
  6
CONTINUOUS
 10
55.6048401439
 20
-2.0321506265
 11
55.6019015473
 21
-1.6107959844
  0
LINE
  5
59C
100
AcDbEntity
  8
RACCORDO
100
AcDbLine
 62
7
  6
CONTINUOUS
 10
55.5944030102
 20
-3.0275012701
 11
55.5944030102
 21
3.1895630229
  0
LINE
  5
59D
100
AcDbEntity
  8
ASSI
100
AcDbLine
 62
7
  6
CONTINUOUS
 10
55.5944030102
 20
-3.0275012701
 11
55.5944030102
 21
3.1895630229
  0
LINE
  5
59E
100
AcDbEntity
  8
RACCORDO
100
AcDbLine
 62
7
  6
CONTINUOUS
 10
55.6019015473
 20
-1.6107959844
 11
55.6009862387
 21
1.3270244558
  0
LINE
  5
59F
100
AcDbEntity
  8
ASSI
100
AcDbLine
 62
7
  6
CONTINUOUS
 10
55.6019015473
 20
-1.6107959844
 11
55.6009862387
 21
1.3270244558
  0
LINE
  5
5A0
100
AcDbEntity
  8
RACCORDO
100
AcDbLine
 62
7
  6
CONTINUOUS
 10
55.6228034082
 20
3.2179634208
 11
55.6228034082
 21
2.9810308764
  0
LINE
  5
5A1
100
AcDbEntity
  8
ASSI
100
AcDbLine
 62
7
  6
CONTINUOUS
 10
55.6228034082
 20
3.2179634208
 11
55.6228034082
 21
2.9810308764
  0
LINE
  5
5A2
100
AcDbEntity
  8
RACCORDO
100
AcDbLine
 62
7
  6
CONTINUOUS
 10
55.6228034082
 20
-2.8189691236
 11
55.6228034082
 21
-3.0559016681
  0
LINE
  5
5A3
100
AcDbEntity
  8
ASSI
100
AcDbLine
 62
7
  6
CONTINUOUS
 10
55.6228034082
 20
-2.8189691236
 11
55.6228034082
 21
-3.0559016681
  0
LINE
  5
5A4
100
AcDbEntity
  8
RACCORDO
100
AcDbLine
 62
7
  6
CONTINUOUS
 10
55.6882748641
 20
-3.1217157817
 11
55.6882748641
 21
-2.8189691236
  0
LINE
  5
5A5
100
AcDbEntity
  8
RACCORDO
100
AcDbLine
 62
7
  6
CONTINUOUS
 10
55.6882748641
 20
2.9810308764
 11
55.6882748641
 21
3.2837775344
  0
LINE
  5
5A6
100
AcDbEntity
  8
RACCORDO
100
AcDbLine
 62
7
  6
CONTINUOUS
 10
55.6009862387
 20
1.3270244558
 11
55.6019015473
 21
1.7728577371
  0
LINE
  5
5A7
100
AcDbEntity
  8
ASSI
100
AcDbLine
 62
7
  6
CONTINUOUS
 10
55.6009862387
 20
1.3270244558
 11
55.6019015473
 21
1.7728577371
  0
LINE
  5
5A8
100
AcDbEntity
  8
RACCORDO
100
AcDbLine
 62
7
  6
CONTINUOUS
 10
55.6048401439
 20
2.194212376
 11
55.6019015473
 21
1.7728577371
  0
LINE
  5
5A9
100
AcDbEntity
  8
ASSI
100
AcDbLine
 62
7
  6
CONTINUOUS
 10
55.6048401439
 20
2.194212376
 11
55.6019015473
 21
1.7728577371
  0
LINE
  5
5AA
100
AcDbEntity
  8
RACCORDO
100
AcDbLine
 62
7
  6
CONTINUOUS
 10
55.6090914313
 20
2.5777716596
 11
55.6048401439
 21
2.194212376
  0
LINE
  5
5AB
100
AcDbEntity
  8
ASSI
100
AcDbLine
 62
7
  6
CONTINUOUS
 10
55.6090914313
 20
2.5777716596
 11
55.6048401439
 21
2.194212376
  0
LINE
  5
5AC
100
AcDbEntity
  8
RACCORDO
100
AcDbLine
 62
7
  6
CONTINUOUS
 10
55.6126989115
 20
2.7943054227
 11
55.6090914313
 21
2.5777716596
  0
LINE
  5
5AD
100
AcDbEntity
  8
ASSI
100
AcDbLine
 62
7
  6
CONTINUOUS
 10
55.6126989115
 20
2.7943054227
 11
55.6090914313
 21
2.5777716596
  0
LWPOLYLINE
  5
5AE
100
AcDbEntity
  8
RACCORDO
100
AcDbPolyline
 62
7
  6
CONTINUOUS
 90
3
 70
0
 10
55.6165489879
 20
2.9426496125
 10
55.615238674
 20
2.9007781685
 10
55.6126989115
 20
2.7943054227
  0
LWPOLYLINE
  5
5AF
100
AcDbEntity
  8
ASSI
100
AcDbPolyline
 62
7
  6
CONTINUOUS
 90
3
 70
0
 10
55.6165489879
 20
2.9426496125
 10
55.615238674
 20
2.9007781685
 10
55.6126989115
 20
2.7943054227
  0
LWPOLYLINE
  5
5B0
100
AcDbEntity
  8
RACCORDO
100
AcDbPolyline
 62
7
  6
CONTINUOUS
 90
10
 70
0
 10
55.6165489879
 20
2.9426496125
 10
55.6167642839
 20
2.9484958837
 10
55.6169805234
 20
2.9537101679
 10
55.6171977064
 20
2.9582924652
 10
55.6174159734
 20
2.9622449041
 10
55.6176351839
 20
2.965565356
 10
55.6178549165
 20
2.9682474359
 10
55.6180750308
 20
2.9702890154
 10
55.6182956671
 20
2.9716922228
 10
55.6185168255
 20
2.9724570581
  0
LWPOLYLINE
  5
5B1
100
AcDbEntity
  8
ASSI
100
AcDbPolyline
 62
7
  6
CONTINUOUS
 90
10
 70
0
 10
55.6165489879
 20
2.9426496125
 10
55.6167642839
 20
2.9484958837
 10
55.6169805234
 20
2.9537101679
 10
55.6171977064
 20
2.9582924652
 10
55.6174159734
 20
2.9622449041
 10
55.6176351839
 20
2.965565356
 10
55.6178549165
 20
2.9682474359
 10
55.6180750308
 20
2.9702890154
 10
55.6182956671
 20
2.9716922228
 10
55.6185168255
 20
2.9724570581
  0
LWPOLYLINE
  5
5B2
100
AcDbEntity
  8
RACCORDO
100
AcDbPolyline
 62
7
  6
CONTINUOUS
 90
16
 70
0
 10
55.6228034082
 20
-3.0559016681
 10
55.6192209705
 20
-3.1197219558
 10
55.6094325572
 20
-3.1815249431
 10
55.5934381681
 20
-3.2413106299
 10
55.570928834
 20
-3.2996851983
 10
55.5422135241
 20
-3.3560424662
 10
55.5082191467
 20
-3.4085638879
 10
55.4687735984
 20
-3.4571243547
 10
55.4240489825
 20
-3.5018489752
 10
55.3754885167
 20
-3.5412945295
 10
55.3229670903
 20
-3.5752889148
 10
55.2666098139
 20
-3.6040042337
 10
55.2082352372
 20
-3.6265135751
 10
55.1484495433
 20
-3.6425079683
 10
55.086646549
 20
-3.652296384
 10
55.0228262543
 20
-3.655878822
  0
LWPOLYLINE
  5
5B3
100
AcDbEntity
  8
ASSI
100
AcDbPolyline
 62
7
  6
CONTINUOUS
 90
16
 70
0
 10
55.6228034082
 20
-3.0559016681
 10
55.6192209705
 20
-3.1197219558
 10
55.6094325572
 20
-3.1815249431
 10
55.5934381681
 20
-3.2413106299
 10
55.570928834
 20
-3.2996851983
 10
55.5422135241
 20
-3.3560424662
 10
55.5082191467
 20
-3.4085638879
 10
55.4687735984
 20
-3.4571243547
 10
55.4240489825
 20
-3.5018489752
 10
55.3754885167
 20
-3.5412945295
 10
55.3229670903
 20
-3.5752889148
 10
55.2666098139
 20
-3.6040042337
 10
55.2082352372
 20
-3.6265135751
 10
55.1484495433
 20
-3.6425079683
 10
55.086646549
 20
-3.652296384
 10
55.0228262543
 20
-3.655878822
  0
LWPOLYLINE
  5
5B4
100
AcDbEntity
  8
RACCORDO
100
AcDbPolyline
 62
253
  6
CONTINUOUS
 90
22
 70
0
 10
69.6053516017
 20
1.6433297559
 10
69.6115773246
 20
1.646560761
 10
69.6177608822
 20
1.6500355595
 10
69.623882521
 20
1.6537541515
 10
69.6299194226
 20
1.6577149237
 10
69.6358519265
 20
1.6619194893
 10
69.641662795
 20
1.6663726879
 10
69.6473277935
 20
1.6710776014
 10
69.6528209967
 20
1.6760311479
 10
69.6581197725
 20
1.6812289206
 10
69.6631946098
 20
1.6866731082
 10
69.6680180105
 20
1.6923615219
 10
69.6725667377
 20
1.6982831888
 10
69.6768065621
 20
1.7044394308
 10
69.6807067945
 20
1.710828926
 10
69.684243125
 20
1.7174367348
 10
69.6873733906
 20
1.7242580085
 10
69.6900648181
 20
1.7312975959
 10
69.6922920185
 20
1.7385551045
 10
69.6940079299
 20
1.7460304035
 10
69.6951561277
 20
1.7537236237
 10
69.6956858331
 20
1.761634765
  0
LINE
  5
5B5
100
AcDbEntity
  8
RACCORDO
100
AcDbLine
 62
253
  6
CONTINUOUS
 10
69.4957165949
 20
1.5885122195
 11
69.6053516017
 21
1.6433297559
  0
LINE
  5
5B6
100
AcDbEntity
  8
RACCORDO
100
AcDbLine
 62
253
  6
CONTINUOUS
 10
69.6053516017
 20
-1.4812679745
 11
69.4957165949
 21
-1.4264504668
  0
LINE
  5
5B7
100
AcDbEntity
  8
RACCORDO
100
AcDbLine
 62
7
  6
CONTINUOUS
 10
68.7549297047
 20
2.9715157789
 11
68.7392639151
 21
2.9793462872
  0
LINE
  5
5B8
100
AcDbEntity
  8
ASSI
100
AcDbLine
 62
7
  6
CONTINUOUS
 10
60.9358937099
 20
-0.4189691236
 11
60.9358937099
 21
0.5810308764
  0
LINE
  5
5B9
100
AcDbEntity
  8
RACCORDO
100
AcDbLine
 62
7
  6
CONTINUOUS
 10
68.6358937099
 20
2.9810308764
 11
68.6273198916
 21
2.9724570581
  0
LINE
  5
5BA
100
AcDbEntity
  8
ASSI
100
AcDbLine
 62
7
  6
CONTINUOUS
 10
68.6358937099
 20
2.9810308764
 11
68.6273198916
 21
2.9724570581
  0
LINE
  5
5BB
100
AcDbEntity
  8
RACCORDO
100
AcDbLine
 62
253
  6
CONTINUOUS
 10
69.6359089403
 20
2.9810308764
 11
69.6263937145
 21
2.9715156505
  0
LINE
  5
5BC
100
AcDbEntity
  8
RACCORDO
100
AcDbLine
 62
7
  6
CONTINUOUS
 10
68.7549297047
 20
-2.8094540262
 11
68.7392639151
 21
-2.8172845344
  0
LINE
  5
5BD
100
AcDbEntity
  8
RACCORDO
100
AcDbLine
 62
7
  6
CONTINUOUS
 10
68.6358937099
 20
-2.8189691236
 11
68.6273198916
 21
-2.8103953054
  0
LINE
  5
5BE
100
AcDbEntity
  8
ASSI
100
AcDbLine
 62
7
  6
CONTINUOUS
 10
68.6358937099
 20
-2.8189691236
 11
68.6273198916
 21
-2.8103953054
  0
LINE
  5
5BF
100
AcDbEntity
  8
RACCORDO
100
AcDbLine
 62
253
  6
CONTINUOUS
 10
69.6263937145
 20
-2.8094538978
 11
69.6359089403
 21
-2.8189691236
  0
LINE
  5
5C0
100
AcDbEntity
  8
RACCORDO
100
AcDbLine
 62
253
  6
CONTINUOUS
 10
69.7263786124
 20
-2.7094692567
 11
69.7358632466
 21
-2.7189538908
  0
LINE
  5
5C1
100
AcDbEntity
  8
ASSI
100
AcDbLine
 62
7
  6
CONTINUOUS
 10
61.9941942343
 20
-0.4189691236
 11
61.9941942343
 21
0.5810308764
  0
LWPOLYLINE
  5
5C2
100
AcDbEntity
  8
RACCORDO
100
AcDbPolyline
 62
7
  6
CONTINUOUS
 90
13
 70
0
 10
68.6358937099
 20
1.9310308764
 10
68.6346853601
 20
1.9297235102
 10
68.633482286
 20
1.9258596261
 10
68.6322844875
 20
1.9194392242
 10
68.6310903994
 20
1.9104462708
 10
68.6299015869
 20
1.8988967995
 10
68.6287227457
 20
1.884838911
 10
68.6275538252
 20
1.8682619634
 10
68.6263948761
 20
1.8491765987
 10
68.6252507458
 20
1.8276628432
 10
68.6241215174
 20
1.8037111097
 10
68.6230071079
 20
1.7773309854
 10
68.6208366192
 20
1.7176026026
  0
LWPOLYLINE
  5
5C3
100
AcDbEntity
  8
ASSI
100
AcDbPolyline
 62
7
  6
CONTINUOUS
 90
13
 70
0
 10
68.6358937099
 20
1.9310308764
 10
68.6346853601
 20
1.9297235102
 10
68.633482286
 20
1.9258596261
 10
68.6322844875
 20
1.9194392242
 10
68.6310903994
 20
1.9104462708
 10
68.6299015869
 20
1.8988967995
 10
68.6287227457
 20
1.884838911
 10
68.6275538252
 20
1.8682619634
 10
68.6263948761
 20
1.8491765987
 10
68.6252507458
 20
1.8276628432
 10
68.6241215174
 20
1.8037111097
 10
68.6230071079
 20
1.7773309854
 10
68.6208366192
 20
1.7176026026
  0
LWPOLYLINE
  5
5C4
100
AcDbEntity
  8
RACCORDO
100
AcDbPolyline
 62
253
  6
CONTINUOUS
 90
22
 70
0
 10
69.5505341313
 20
1.6981472263
 10
69.5536639157
 20
1.7014922815
 10
69.5567520452
 20
1.7050902083
 10
69.5597985196
 20
1.7089402609
 10
69.562814001
 20
1.7130387291
 10
69.5657878273
 20
1.7173876688
 10
69.5686880128
 20
1.7219948674
 10
69.5715165521
 20
1.7268624547
 10
69.5742714506
 20
1.7319862128
 10
69.5769147383
 20
1.7373642847
 10
69.579447776
 20
1.7429975331
 10
69.581869203
 20
1.7488826311
 10
69.5841369674
 20
1.7550113772
 10
69.5862529508
 20
1.7613837833
 10
69.5882152716
 20
1.7679970532
 10
69.589976232
 20
1.7748387731
 10
69.5915390642
 20
1.7819023523
 10
69.592900536
 20
1.789191367
 10
69.5940032542
 20
1.7967085933
 10
69.5948280876
 20
1.8044537839
 10
69.5953941673
 20
1.8124236981
 10
69.5957014933
 20
1.8206164921
  0
LINE
  5
5C5
100
AcDbEntity
  8
RACCORDO
100
AcDbLine
 62
253
  6
CONTINUOUS
 10
69.7358632466
 20
2.8810156436
 11
69.7263786124
 21
2.8715310094
  0
LINE
  5
5C6
100
AcDbEntity
  8
RACCORDO
100
AcDbLine
 62
7
  6
CONTINUOUS
 10
69.7353149074
 20
1.9807414972
 11
69.7393744001
 21
1.9848009899
  0
LWPOLYLINE
  5
5C7
100
AcDbEntity
  8
RACCORDO
100
AcDbPolyline
 62
253
  6
CONTINUOUS
 90
10
 70
0
 10
69.5505341313
 20
1.6981472205
 10
69.5573104781
 20
1.6931928222
 10
69.5640338421
 20
1.6878485457
 10
69.5706516534
 20
1.6821561781
 10
69.5771121673
 20
1.6761602279
 10
69.5833648693
 20
1.6699075775
 10
69.5893608693
 20
1.6634471162
 10
69.5950532848
 20
1.6568293586
 10
69.6003976069
 20
1.6501060486
 10
69.6053520481
 20
1.643329756
  0
LINE
  5
5C8
100
AcDbEntity
  8
RACCORDO
100
AcDbLine
 62
7
  6
CONTINUOUS
 10
69.7393744001
 20
-1.8227392371
 11
69.7353149074
 21
-1.8186797444
  0
LWPOLYLINE
  5
5C9
100
AcDbEntity
  8
RACCORDO
100
AcDbPolyline
 62
253
  6
CONTINUOUS
 90
22
 70
0
 10
69.5505341026
 20
-1.5360854736
 10
69.5537380395
 20
-1.5395159179
 10
69.556890905
 20
-1.5431986881
 10
69.5599926991
 20
-1.5471330212
 10
69.5630551428
 20
-1.5513192033
 10
69.5660665151
 20
-1.5557552509
 10
69.568991653
 20
-1.5604369237
 10
69.5718302397
 20
-1.5653640798
 10
69.574582592
 20
-1.5705348452
 10
69.5772144979
 20
-1.5759423315
 10
69.579726708
 20
-1.5815860932
 10
69.5821184718
 20
-1.5874642656
 10
69.5843533258
 20
-1.5935678096
 10
69.5864325602
 20
-1.5998916437
 10
69.5883548848
 20
-1.6064382927
 10
69.5900799654
 20
-1.6132100601
 10
69.5915962694
 20
-1.6200620362
 10
69.5929153294
 20
-1.6271367718
 10
69.5940314083
 20
-1.6348649159
 10
69.5949425936
 20
-1.6433854768
 10
69.5956507979
 20
-1.6525488508
 10
69.5961560211
 20
-1.6623493656
  0
LWPOLYLINE
  5
5CA
100
AcDbEntity
  8
RACCORDO
100
AcDbPolyline
 62
7
  6
CONTINUOUS
 90
3
 70
0
 10
69.2565268252
 20
-1.4886343226
 10
69.2688334576
 20
-1.4763664292
 10
69.3061529676
 20
-1.4389468648
  0
LINE
  5
5CB
100
AcDbEntity
  8
RACCORDO
100
AcDbLine
 62
7
  6
CONTINUOUS
 10
69.3061529676
 20
-1.4389468648
 11
69.3187364223
 21
-1.4264504668
  0
LWPOLYLINE
  5
5CC
100
AcDbEntity
  8
RACCORDO
100
AcDbPolyline
 62
7
  6
CONTINUOUS
 90
3
 70
0
 10
69.2091014156
 20
-1.5360854736
 10
69.2206938482
 20
-1.5246001025
 10
69.2565268252
 20
-1.4886343226
  0
LWPOLYLINE
  5
5CD
100
AcDbEntity
  8
RACCORDO
100
AcDbPolyline
 62
7
  6
CONTINUOUS
 90
10
 70
0
 10
68.7549297047
 20
2.9715157789
 10
68.755324218
 20
2.9711905086
 10
68.7557179759
 20
2.9706111969
 10
68.7561109783
 20
2.9697778438
 10
68.7565034269
 20
2.9686897575
 10
68.75689512
 20
2.9673476298
 10
68.7572854531
 20
2.9657535361
 10
68.7576742245
 20
2.9639081682
 10
68.7580616357
 20
2.9618108343
 10
68.7584476869
 20
2.9594615344
  0
LWPOLYLINE
  5
5CE
100
AcDbEntity
  8
RACCORDO
100
AcDbPolyline
 62
7
  6
CONTINUOUS
 90
3
 70
0
 10
69.2565525666
 20
1.6507218166
 10
69.2205867866
 20
1.6865547936
 10
69.2091014156
 20
1.6981472263
  0
LWPOLYLINE
  5
5CF
100
AcDbEntity
  8
RACCORDO
100
AcDbPolyline
 62
7
  6
CONTINUOUS
 90
3
 70
0
 10
69.3062400243
 20
1.6010956743
 10
69.2688204599
 20
1.6384151843
 10
69.2565525666
 20
1.6507218166
  0
LINE
  5
5D0
100
AcDbEntity
  8
RACCORDO
100
AcDbLine
 62
7
  6
CONTINUOUS
 10
69.3187364223
 20
1.5885122195
 11
69.3062400243
 21
1.6010956743
  0
LWPOLYLINE
  5
5D1
100
AcDbEntity
  8
RACCORDO
100
AcDbPolyline
 62
7
  6
CONTINUOUS
 90
10
 70
0
 10
68.6273198916
 20
2.9724570581
 10
68.6268775397
 20
2.9716922172
 10
68.6264362323
 20
2.9702890038
 10
68.6259959695
 20
2.968247418
 10
68.6255564702
 20
2.965565329
 10
68.6251180155
 20
2.9622448676
 10
68.6246814484
 20
2.9582924261
 10
68.6242470502
 20
2.9537101351
 10
68.6238145396
 20
2.9484958639
 10
68.6233839167
 20
2.9426496125
  0
LWPOLYLINE
  5
5D2
100
AcDbEntity
  8
ASSI
100
AcDbPolyline
 62
7
  6
CONTINUOUS
 90
10
 70
0
 10
68.6273198916
 20
2.9724570581
 10
68.6268775397
 20
2.9716922172
 10
68.6264362323
 20
2.9702890038
 10
68.6259959695
 20
2.968247418
 10
68.6255564702
 20
2.965565329
 10
68.6251180155
 20
2.9622448676
 10
68.6246814484
 20
2.9582924261
 10
68.6242470502
 20
2.9537101351
 10
68.6238145396
 20
2.9484958639
 10
68.6233839167
 20
2.9426496125
  0
LWPOLYLINE
  5
5D3
100
AcDbEntity
  8
RACCORDO
100
AcDbPolyline
 62
7
  6
CONTINUOUS
 90
10
 70
0
 10
68.8639697736
 20
-1.9619552389
 10
68.8531338722
 20
-1.9740456588
 10
68.8433175928
 20
-1.9868301977
 10
68.8345209352
 20
-2.0002948371
 10
68.8266564954
 20
-2.0144672092
 10
68.8198116775
 20
-2.0292880453
 10
68.8142486942
 20
-2.0446142395
 10
68.8100549497
 20
-2.0603890485
 10
68.8071430398
 20
-2.076638985
 10
68.8055129644
 20
-2.0933474381
  0
LWPOLYLINE
  5
5D4
100
AcDbEntity
  8
RACCORDO
100
AcDbPolyline
 62
7
  6
CONTINUOUS
 90
9
 70
0
 10
69.2091014156
 20
-1.5360854736
 10
69.2052538233
 20
-1.5400298418
 10
69.2014852942
 20
-1.5440679619
 10
69.1977958281
 20
-1.5481995056
 10
69.1941855839
 20
-1.5524269291
 10
69.1906544028
 20
-1.5567470852
 10
69.1872018082
 20
-1.5611512553
 10
69.1838276411
 20
-1.5656363205
 10
69.1805320604
 20
-1.5702047276
  0
LINE
  5
5D5
100
AcDbEntity
  8
RACCORDO
100
AcDbLine
 62
253
  6
CONTINUOUS
 10
69.7393744001
 20
-2.7154427373
 11
69.7358632466
 21
-2.7189538908
  0
LINE
  5
5D6
100
AcDbEntity
  8
RACCORDO
100
AcDbLine
 62
253
  6
CONTINUOUS
 10
69.7358632466
 20
2.8810156436
 11
69.7393744001
 21
2.87750449
  0
LWPOLYLINE
  5
5D7
100
AcDbEntity
  8
RACCORDO
100
AcDbPolyline
 62
7
  6
CONTINUOUS
 90
6
 70
0
 10
68.8639697736
 20
2.1240169916
 10
68.9218280003
 20
2.0618355618
 10
68.9774326226
 20
1.9987200964
 10
69.0307836402
 20
1.9346705952
 10
69.0818810534
 20
1.8696870584
 10
69.130724862
 20
1.8037694859
  0
LINE
  5
5D8
100
AcDbEntity
  8
RACCORDO
100
AcDbLine
 62
253
  6
CONTINUOUS
 10
69.7124761203
 20
2.9452984048
 11
69.7159919767
 21
2.9417853917
  0
LWPOLYLINE
  5
5D9
100
AcDbEntity
  8
RACCORDO
100
AcDbPolyline
 62
7
  6
CONTINUOUS
 90
6
 70
0
 10
69.706567636
 20
2.9517478409
 10
69.7124761203
 20
2.9452984048
 10
69.7224721703
 20
2.9310157326
 10
69.7298359266
 20
2.9152156656
 10
69.7343448745
 20
2.8983784546
 10
69.7358632466
 20
2.8810156436
  0
LWPOLYLINE
  5
5DA
100
AcDbEntity
  8
RACCORDO
100
AcDbPolyline
 62
253
  6
CONTINUOUS
 90
6
 70
0
 10
69.6263937404
 20
2.9715156505
 10
69.6261569524
 20
2.9709331542
 10
69.6259210977
 20
2.969777735
 10
69.6256861763
 20
2.9680505835
 10
69.6254521884
 20
2.9657535471
 10
69.6252191338
 20
2.9628891282
  0
LINE
  5
5DB
100
AcDbEntity
  8
RACCORDO
100
AcDbLine
 62
7
  6
CONTINUOUS
 10
69.7395070456
 20
1.9851056225
 11
69.7393744001
 21
1.9848009899
  0
LINE
  5
5DC
100
AcDbEntity
  8
RACCORDO
100
AcDbLine
 62
253
  6
CONTINUOUS
 10
69.5505341313
 20
1.6981472263
 11
69.4957165949
 21
1.5885122195
  0
LWPOLYLINE
  5
5DD
100
AcDbEntity
  8
RACCORDO
100
AcDbPolyline
 62
253
  6
CONTINUOUS
 90
7
 70
0
 10
69.7263786124
 20
2.8715310094
 10
69.7261408022
 20
2.8710561976
 10
69.7259043318
 20
2.8701284175
 10
69.7256692012
 20
2.8687476691
 10
69.7254354104
 20
2.8669139523
 10
69.7252029594
 20
2.8646272672
 10
69.7249718482
 20
2.8618876138
  0
LWPOLYLINE
  5
5DE
100
AcDbEntity
  8
RACCORDO
100
AcDbPolyline
 62
7
  6
CONTINUOUS
 90
7
 70
0
 10
69.1805320604
 20
-1.5702047276
 10
69.1307249543
 20
-1.641707619
 10
69.081881201
 20
-1.7076251229
 10
69.0307838063
 20
-1.7726086369
 10
68.9774327702
 20
-1.8366581609
 10
68.9218280926
 20
-1.8997736949
 10
68.8639697736
 20
-1.9619552389
  0
LWPOLYLINE
  5
5DF
100
AcDbEntity
  8
RACCORDO
100
AcDbPolyline
 62
253
  6
CONTINUOUS
 90
10
 70
0
 10
69.6053518163
 20
-1.4812679745
 10
69.6003974225
 20
-1.488044297
 10
69.5950531409
 20
-1.4947676318
 10
69.5893607591
 20
-1.5013854086
 10
69.5833647862
 20
-1.5078458822
 10
69.5771121052
 20
-1.5140985379
 10
69.5706516066
 20
-1.5200944855
 10
69.5640338056
 20
-1.5257868422
 10
69.5573104474
 20
-1.5311310991
 10
69.5505341026
 20
-1.536085469
  0
LWPOLYLINE
  5
5E0
100
AcDbEntity
  8
RACCORDO
100
AcDbPolyline
 62
7
  6
CONTINUOUS
 90
4
 70
0
 10
69.709967318
 20
-2.7862724854
 10
69.7204113456
 20
-2.7740499527
 10
69.7286298955
 20
-2.7606023503
 10
69.7349619355
 20
-2.7450290159
  0
LINE
  5
5E1
100
AcDbEntity
  8
RACCORDO
100
AcDbLine
 62
253
  6
CONTINUOUS
 10
69.7124716991
 20
-2.7832417581
 11
69.7159932844
 21
-2.7797220804
  0
LWPOLYLINE
  5
5E2
100
AcDbEntity
  8
RACCORDO
100
AcDbPolyline
 62
7
  6
CONTINUOUS
 90
6
 70
0
 10
69.7065675608
 20
-2.7896860881
 10
69.7124716991
 20
-2.7832417581
 10
69.722467212
 20
-2.7689625712
 10
69.7298329126
 20
-2.7531632346
 10
69.734344208
 20
-2.7363232146
 10
69.7358632466
 20
-2.7189538908
  0
LINE
  5
5E3
100
AcDbEntity
  8
RACCORDO
100
AcDbLine
 62
253
  6
CONTINUOUS
 10
69.7224721703
 20
2.9310157326
 11
69.7259882603
 21
2.9275071828
  0
LWPOLYLINE
  5
5E4
100
AcDbEntity
  8
RACCORDO
100
AcDbPolyline
 62
7
  6
CONTINUOUS
 90
10
 70
0
 10
69.130724862
 20
1.8037694859
 10
69.1805320604
 20
1.7322664803
 10
69.1838276411
 20
1.7276980732
 10
69.1872018082
 20
1.7232130081
 10
69.1906544028
 20
1.7188088379
 10
69.1941855839
 20
1.7144886818
 10
69.1977958281
 20
1.7102612583
 10
69.2014852942
 20
1.7061297146
 10
69.2052538233
 20
1.7020915945
 10
69.2091014156
 20
1.6981472263
  0
LINE
  5
5E5
100
AcDbEntity
  8
RACCORDO
100
AcDbLine
 62
253
  6
CONTINUOUS
 10
69.4957165949
 20
-1.4264504668
 11
69.5505341026
 21
-1.5360854736
  0
LWPOLYLINE
  5
5E6
100
AcDbEntity
  8
RACCORDO
100
AcDbPolyline
 62
7
  6
CONTINUOUS
 90
10
 70
0
 10
69.7353149074
 20
-1.8186797444
 10
69.7339123755
 20
-1.8155590819
 10
69.7325184108
 20
-1.8090963858
 10
69.7311330133
 20
-1.799291656
 10
69.7297537771
 20
-1.7861154015
 10
69.7283831082
 20
-1.7695971134
 10
69.7270282243
 20
-1.7498252649
 10
69.7256891811
 20
-1.7267823637
 10
69.724365923
 20
-1.7004859022
 10
69.7230655008
 20
-1.6710768306
  0
LINE
  5
5E7
100
AcDbEntity
  8
RACCORDO
100
AcDbLine
 62
7
  6
CONTINUOUS
 10
69.7393744001
 20
-1.8227392371
 11
69.7395070456
 21
-1.8230438697
  0
LWPOLYLINE
  5
5E8
100
AcDbEntity
  8
RACCORDO
100
AcDbPolyline
 62
7
  6
CONTINUOUS
 90
10
 70
0
 10
68.8055129644
 20
2.2554091908
 10
68.8071424022
 20
2.2387033679
 10
68.8100536586
 20
2.2224554801
 10
68.8142467334
 20
2.20668212
 10
68.8198087971
 20
2.1913568077
 10
68.8266526793
 20
2.1765362222
 10
68.8345168692
 20
2.1623633042
 10
68.8433141964
 20
2.1488972565
 10
68.8531318312
 20
2.1361104833
 10
68.8639697736
 20
2.1240169916
  0
LWPOLYLINE
  5
5E9
100
AcDbEntity
  8
RACCORDO
100
AcDbPolyline
 62
253
  6
CONTINUOUS
 90
10
 70
0
 10
69.7249718482
 20
2.8618876138
 10
69.7233938689
 20
2.8787903671
 10
69.7188403745
 20
2.8951819952
 10
69.7114490524
 20
2.9105668673
 10
69.7014433971
 20
2.9244797938
 10
69.6891259508
 20
2.9365000951
 10
69.6748691539
 20
2.9462643197
 10
69.6591040868
 20
2.9534772309
 10
69.6423074361
 20
2.9579207352
 10
69.6249870787
 20
2.9594604777
  0
LWPOLYLINE
  5
5EA
100
AcDbEntity
  8
RACCORDO
100
AcDbPolyline
 62
253
  6
CONTINUOUS
 90
10
 70
0
 10
69.7263786124
 20
2.8715310094
 10
69.7248549051
 20
2.8888899315
 10
69.7203406449
 20
2.9057215899
 10
69.7129729545
 20
2.9215147602
 10
69.7029756234
 20
2.9357897617
 10
69.6906523073
 20
2.9481130315
 10
69.6763773008
 20
2.9581102901
 10
69.6605841762
 20
2.9654779015
 10
69.643752617
 20
2.9699920977
 10
69.6263938429
 20
2.9715157789
  0
LINE
  5
5EB
100
AcDbEntity
  8
RACCORDO
100
AcDbLine
 62
253
  6
CONTINUOUS
 10
69.737859979
 20
2.8948707312
 11
69.7393744001
 21
2.8775044901
  0
LWPOLYLINE
  5
5EC
100
AcDbEntity
  8
RACCORDO
100
AcDbPolyline
 62
253
  6
CONTINUOUS
 90
7
 70
0
 10
69.7249718482
 20
-2.699825861
 10
69.7252029594
 20
-2.7025655145
 10
69.7254354104
 20
-2.7048521996
 10
69.7256692012
 20
-2.7066859164
 10
69.7259043318
 20
-2.7080666648
 10
69.7261408022
 20
-2.7089944449
 10
69.7263786124
 20
-2.7094692567
  0
LWPOLYLINE
  5
5ED
100
AcDbEntity
  8
RACCORDO
100
AcDbPolyline
 62
253
  6
CONTINUOUS
 90
6
 70
0
 10
69.6252191033
 20
-2.8008269635
 10
69.6254521762
 20
-2.8036916593
 10
69.6256861763
 20
-2.8059888308
 10
69.6259211038
 20
-2.80771602
 10
69.6261569585
 20
-2.8088714243
 10
69.6263937404
 20
-2.8094538977
  0
LWPOLYLINE
  5
5EE
100
AcDbEntity
  8
RACCORDO
100
AcDbPolyline
 62
7
  6
CONTINUOUS
 90
10
 70
0
 10
68.6233839167
 20
-2.7805878598
 10
68.6238145396
 20
-2.7864341112
 10
68.6242470502
 20
-2.7916483823
 10
68.6246814484
 20
-2.7962306733
 10
68.6251180155
 20
-2.8001831149
 10
68.6255564702
 20
-2.8035035763
 10
68.6259959695
 20
-2.8061856653
 10
68.6264362323
 20
-2.8082272511
 10
68.6268775397
 20
-2.8096304645
 10
68.6273198916
 20
-2.8103953054
  0
LWPOLYLINE
  5
5EF
100
AcDbEntity
  8
ASSI
100
AcDbPolyline
 62
7
  6
CONTINUOUS
 90
10
 70
0
 10
68.6233839167
 20
-2.7805878598
 10
68.6238145396
 20
-2.7864341112
 10
68.6242470502
 20
-2.7916483823
 10
68.6246814484
 20
-2.7962306733
 10
68.6251180155
 20
-2.8001831149
 10
68.6255564702
 20
-2.8035035763
 10
68.6259959695
 20
-2.8061856653
 10
68.6264362323
 20
-2.8082272511
 10
68.6268775397
 20
-2.8096304645
 10
68.6273198916
 20
-2.8103953054
  0
LWPOLYLINE
  5
5F0
100
AcDbEntity
  8
RACCORDO
100
AcDbPolyline
 62
7
  6
CONTINUOUS
 90
4
 70
0
 10
69.7395159245
 20
2.8772327013
 10
69.738515989
 20
2.8913569982
 10
69.7342806808
 20
2.9092092996
 10
69.7272529995
 20
2.925287717
  0
LWPOLYLINE
  5
5F1
100
AcDbEntity
  8
RACCORDO
100
AcDbPolyline
 62
253
  6
CONTINUOUS
 90
22
 70
0
 10
69.6956861339
 20
-1.5995847523
 10
69.6951637864
 20
-1.5917361961
 10
69.6940329259
 20
-1.5841061278
 10
69.692344523
 20
-1.5766945473
 10
69.6901553466
 20
-1.569502241
 10
69.6875123368
 20
-1.5625284226
 10
69.6844398107
 20
-1.5557707328
 10
69.6809724098
 20
-1.5492281804
 10
69.6771499052
 20
-1.5429017568
 10
69.6729857515
 20
-1.5367920767
 10
69.6685044142
 20
-1.5308955844
 10
69.6637395326
 20
-1.5252158356
 10
69.6587088065
 20
-1.5197641134
 10
69.6534358949
 20
-1.5145412925
 10
69.6479482354
 20
-1.5095464982
 10
69.6422653428
 20
-1.5047883885
 10
69.6364073174
 20
-1.5002683479
 10
69.6303996925
 20
-1.495984992
 10
69.6242687952
 20
-1.4919428262
 10
69.618037646
 20
-1.4881433522
 10
69.611725369
 20
-1.4845850683
 10
69.6053516017
 20
-1.4812679745
  0
LWPOLYLINE
  5
5F2
100
AcDbEntity
  8
RACCORDO
100
AcDbPolyline
 62
7
  6
CONTINUOUS
 90
11
 70
0
 10
68.6241215495
 20
-1.6416500775
 10
68.6252507745
 20
-1.6656016647
 10
68.6263949006
 20
-1.687115284
 10
68.627553845
 20
-1.7062005173
 10
68.6287227608
 20
-1.7227773556
 10
68.6299015976
 20
-1.7368351645
 10
68.6310904058
 20
-1.7483845784
 10
68.6322844907
 20
-1.7573774918
 10
68.6334822871
 20
-1.7637978696
 10
68.6346853602
 20
-1.7676617469
 10
68.6358937099
 20
-1.7689691236
  0
LWPOLYLINE
  5
5F3
100
AcDbEntity
  8
ASSI
100
AcDbPolyline
 62
7
  6
CONTINUOUS
 90
11
 70
0
 10
68.6241215495
 20
-1.6416500775
 10
68.6252507745
 20
-1.6656016647
 10
68.6263949006
 20
-1.687115284
 10
68.627553845
 20
-1.7062005173
 10
68.6287227608
 20
-1.7227773556
 10
68.6299015976
 20
-1.7368351645
 10
68.6310904058
 20
-1.7483845784
 10
68.6322844907
 20
-1.7573774918
 10
68.6334822871
 20
-1.7637978696
 10
68.6346853602
 20
-1.7676617469
 10
68.6358937099
 20
-1.7689691236
  0
LWPOLYLINE
  5
5F4
100
AcDbEntity
  8
RACCORDO
100
AcDbPolyline
 62
253
  6
CONTINUOUS
 90
5
 70
0
 10
69.7157244345
 20
-2.5251484524
 10
69.7179357256
 20
-2.5774647101
 10
69.7202152455
 20
-2.6239813424
 10
69.7225606197
 20
-2.6647683927
 10
69.7249718482
 20
-2.699825861
  0
LWPOLYLINE
  5
5F5
100
AcDbEntity
  8
RACCORDO
100
AcDbPolyline
 62
253
  6
CONTINUOUS
 90
5
 70
0
 10
69.6157538686
 20
-2.6167751784
 10
69.6179659052
 20
-2.6710932861
 10
69.6202427578
 20
-2.7195777154
 10
69.6225831018
 20
-2.7617780141
 10
69.6252191033
 20
-2.8008269635
  0
LWPOLYLINE
  5
5F6
100
AcDbEntity
  8
RACCORDO
100
AcDbPolyline
 62
7
  6
CONTINUOUS
 90
5
 70
0
 10
68.6132161825
 20
-2.5674102895
 10
68.6156830835
 20
-2.6322413755
 10
68.6181961139
 20
-2.6892670781
 10
68.6207630583
 20
-2.7387159063
 10
68.6233839167
 20
-2.7805878598
  0
LWPOLYLINE
  5
5F7
100
AcDbEntity
  8
ASSI
100
AcDbPolyline
 62
7
  6
CONTINUOUS
 90
5
 70
0
 10
68.6132161825
 20
-2.5674102895
 10
68.6156830835
 20
-2.6322413755
 10
68.6181961139
 20
-2.6892670781
 10
68.6207630583
 20
-2.7387159063
 10
68.6233839167
 20
-2.7805878598
  0
LINE
  5
5F8
100
AcDbEntity
  8
RACCORDO
100
AcDbLine
 62
7
  6
CONTINUOUS
 10
68.6219121522
 20
-1.5865705003
 11
68.6241215495
 21
-1.6416500775
  0
LINE
  5
5F9
100
AcDbEntity
  8
ASSI
100
AcDbLine
 62
7
  6
CONTINUOUS
 10
68.6219121522
 20
-1.5865705003
 11
68.6241215495
 21
-1.6416500775
  0
LINE
  5
5FA
100
AcDbEntity
  8
RACCORDO
100
AcDbLine
 62
7
  6
CONTINUOUS
 10
69.7230655008
 20
-1.6710768306
 11
69.7205334232
 21
-1.6028879969
  0
LINE
  5
5FB
100
AcDbEntity
  8
RACCORDO
100
AcDbLine
 62
253
  6
CONTINUOUS
 10
69.7114922915
 20
-2.4035373209
 11
69.7157244345
 21
-2.5251484524
  0
LINE
  5
5FC
100
AcDbEntity
  8
RACCORDO
100
AcDbLine
 62
253
  6
CONTINUOUS
 10
69.6115162956
 20
-2.4910099585
 11
69.6157538686
 21
-2.6167751784
  0
LINE
  5
5FD
100
AcDbEntity
  8
RACCORDO
100
AcDbLine
 62
7
  6
CONTINUOUS
 10
68.6197805748
 20
-1.5221937469
 11
68.6219121522
 21
-1.5865705003
  0
LINE
  5
5FE
100
AcDbEntity
  8
ASSI
100
AcDbLine
 62
7
  6
CONTINUOUS
 10
68.6197805748
 20
-1.5221937469
 11
68.6219121522
 21
-1.5865705003
  0
LINE
  5
5FF
100
AcDbEntity
  8
ASSI
100
AcDbLine
 62
7
  6
CONTINUOUS
 10
68.7820527793
 20
1.445765272
 11
68.7878388108
 21
1.2631136917
  0
LINE
  5
600
100
AcDbEntity
  8
RACCORDO
100
AcDbLine
 62
7
  6
CONTINUOUS
 10
68.6084674764
 20
-2.4157030202
 11
68.6132161825
 21
-2.5674102895
  0
LINE
  5
601
100
AcDbEntity
  8
ASSI
100
AcDbLine
 62
7
  6
CONTINUOUS
 10
68.6084674764
 20
-2.4157030202
 11
68.6132161825
 21
-2.5674102895
  0
LINE
  5
602
100
AcDbEntity
  8
RACCORDO
100
AcDbLine
 62
7
  6
CONTINUOUS
 10
69.7205334232
 20
-1.6028879969
 11
69.7181128336
 21
-1.5228040517
  0
LINE
  5
603
100
AcDbEntity
  8
RACCORDO
100
AcDbLine
 62
7
  6
CONTINUOUS
 10
68.6177398573
 20
-1.4489398409
 11
68.6197805748
 21
-1.5221937469
  0
LINE
  5
604
100
AcDbEntity
  8
ASSI
100
AcDbLine
 62
7
  6
CONTINUOUS
 10
68.6177398573
 20
-1.4489398409
 11
68.6197805748
 21
-1.5221937469
  0
LINE
  5
605
100
AcDbEntity
  8
RACCORDO
100
AcDbLine
 62
253
  6
CONTINUOUS
 10
69.7074844723
 20
-2.259737264
 11
69.7114922915
 21
-2.4035373209
  0
LINE
  5
606
100
AcDbEntity
  8
RACCORDO
100
AcDbLine
 62
253
  6
CONTINUOUS
 10
69.6075094862
 20
-2.3423399932
 11
69.6115162956
 21
-2.4910099585
  0
LINE
  5
607
100
AcDbEntity
  8
RACCORDO
100
AcDbLine
 62
7
  6
CONTINUOUS
 10
68.6040314376
 20
-2.2363411637
 11
68.6084674764
 21
-2.4157030202
  0
LINE
  5
608
100
AcDbEntity
  8
ASSI
100
AcDbLine
 62
7
  6
CONTINUOUS
 10
68.6040314376
 20
-2.2363411637
 11
68.6084674764
 21
-2.4157030202
  0
LINE
  5
609
100
AcDbEntity
  8
ASSI
100
AcDbLine
 62
7
  6
CONTINUOUS
 10
68.7878388108
 20
1.2631136917
 11
68.7927646773
 21
1.0596805083
  0
LINE
  5
60A
100
AcDbEntity
  8
RACCORDO
100
AcDbLine
 62
7
  6
CONTINUOUS
 10
69.7181128336
 20
-1.5228040517
 11
69.7147221669
 21
-1.3814324066
  0
LINE
  5
60B
100
AcDbEntity
  8
RACCORDO
100
AcDbLine
 62
7
  6
CONTINUOUS
 10
68.6148709154
 20
-1.3232181427
 11
68.6177398573
 21
-1.4489398409
  0
LINE
  5
60C
100
AcDbEntity
  8
ASSI
100
AcDbLine
 62
7
  6
CONTINUOUS
 10
68.6148709154
 20
-1.3232181427
 11
68.6177398573
 21
-1.4489398409
  0
LINE
  5
60D
100
AcDbEntity
  8
RACCORDO
100
AcDbLine
 62
253
  6
CONTINUOUS
 10
69.7019631359
 20
-2.0047305247
 11
69.7074844723
 21
-2.259737264
  0
LINE
  5
60E
100
AcDbEntity
  8
RACCORDO
100
AcDbLine
 62
253
  6
CONTINUOUS
 10
69.6019488186
 20
-2.0779979095
 11
69.6075094862
 21
-2.3423399932
  0
LINE
  5
60F
100
AcDbEntity
  8
RACCORDO
100
AcDbLine
 62
7
  6
CONTINUOUS
 10
68.5980766248
 20
-1.921075387
 11
68.6040314376
 21
-2.2363411637
  0
LINE
  5
610
100
AcDbEntity
  8
ASSI
100
AcDbLine
 62
7
  6
CONTINUOUS
 10
68.5980766248
 20
-1.921075387
 11
68.6040314376
 21
-2.2363411637
  0
LINE
  5
611
100
AcDbEntity
  8
RACCORDO
100
AcDbLine
 62
7
  6
CONTINUOUS
 10
68.7927646773
 20
1.0596805083
 11
68.7937373461
 21
1.0062721986
  0
LINE
  5
612
100
AcDbEntity
  8
RACCORDO
100
AcDbLine
 62
7
  6
CONTINUOUS
 10
69.7147221669
 20
-1.3814324066
 11
69.7116700139
 21
-1.2166749069
  0
LINE
  5
613
100
AcDbEntity
  8
RACCORDO
100
AcDbLine
 62
7
  6
CONTINUOUS
 10
68.6148709154
 20
-1.3232181427
 11
68.6120561096
 21
-1.164074415
  0
LINE
  5
614
100
AcDbEntity
  8
ASSI
100
AcDbLine
 62
7
  6
CONTINUOUS
 10
68.6148709154
 20
-1.3232181427
 11
68.6120561096
 21
-1.164074415
  0
LWPOLYLINE
  5
615
100
AcDbEntity
  8
RACCORDO
100
AcDbPolyline
 62
253
  6
CONTINUOUS
 90
3
 70
0
 10
69.6956861339
 20
-1.5995862447
 10
69.6971337549
 20
-1.7075821411
 10
69.7019631359
 20
-2.0047305247
  0
LINE
  5
616
100
AcDbEntity
  8
RACCORDO
100
AcDbLine
 62
7
  6
CONTINUOUS
 10
69.7116700139
 20
-1.2166749069
 11
69.7082137926
 21
-0.9655168405
  0
LINE
  5
617
100
AcDbEntity
  8
RACCORDO
100
AcDbLine
 62
7
  6
CONTINUOUS
 10
68.7937373461
 20
1.0062721986
 11
68.794475395
 21
0.9502181197
  0
LINE
  5
618
100
AcDbEntity
  8
RACCORDO
100
AcDbLine
 62
7
  6
CONTINUOUS
 10
68.5947269472
 20
-1.6778044226
 11
68.5980766248
 21
-1.921075387
  0
LINE
  5
619
100
AcDbEntity
  8
ASSI
100
AcDbLine
 62
7
  6
CONTINUOUS
 10
68.5947269472
 20
-1.6778044226
 11
68.5980766248
 21
-1.921075387
  0
LWPOLYLINE
  5
61A
100
AcDbEntity
  8
RACCORDO
100
AcDbPolyline
 62
253
  6
CONTINUOUS
 90
3
 70
0
 10
69.5961560211
 20
-1.6623493656
 10
69.5974013743
 20
-1.7719850362
 10
69.6019488186
 20
-2.0779979095
  0
LINE
  5
61B
100
AcDbEntity
  8
RACCORDO
100
AcDbLine
 62
7
  6
CONTINUOUS
 10
68.6120561096
 20
-1.164074415
 11
68.6096110709
 21
-0.9446956598
  0
LINE
  5
61C
100
AcDbEntity
  8
ASSI
100
AcDbLine
 62
7
  6
CONTINUOUS
 10
68.6120561096
 20
-1.164074415
 11
68.6096110709
 21
-0.9446956598
  0
LINE
  5
61D
100
AcDbEntity
  8
RACCORDO
100
AcDbLine
 62
7
  6
CONTINUOUS
 10
68.794475395
 20
0.9502181197
 11
68.7949758101
 21
0.8918308264
  0
LINE
  5
61E
100
AcDbEntity
  8
RACCORDO
100
AcDbLine
 62
7
  6
CONTINUOUS
 10
69.7082137926
 20
-0.9655168405
 11
69.7067818076
 21
-0.8165578967
  0
LINE
  5
61F
100
AcDbEntity
  8
RACCORDO
100
AcDbLine
 62
7
  6
CONTINUOUS
 10
68.5930778582
 20
-1.4680160364
 11
68.5947269472
 21
-1.6778044226
  0
LINE
  5
620
100
AcDbEntity
  8
ASSI
100
AcDbLine
 62
7
  6
CONTINUOUS
 10
68.5930778582
 20
-1.4680160364
 11
68.5947269472
 21
-1.6778044226
  0
LINE
  5
621
100
AcDbEntity
  8
RACCORDO
100
AcDbLine
 62
7
  6
CONTINUOUS
 10
68.6096110709
 20
-0.9446956598
 11
68.6082356274
 21
-0.6959331683
  0
LINE
  5
622
100
AcDbEntity
  8
ASSI
100
AcDbLine
 62
7
  6
CONTINUOUS
 10
68.6096110709
 20
-0.9446956598
 11
68.6082356274
 21
-0.6959331683
  0
LINE
  5
623
100
AcDbEntity
  8
RACCORDO
100
AcDbLine
 62
7
  6
CONTINUOUS
 10
69.7067818076
 20
-0.8165578967
 11
69.7062835307
 21
-0.7001984146
  0
LINE
  5
624
100
AcDbEntity
  8
RACCORDO
100
AcDbLine
 62
7
  6
CONTINUOUS
 10
68.7949758101
 20
0.8918308264
 11
68.795259018
 21
0.8021411314
  0
LINE
  5
625
100
AcDbEntity
  8
RACCORDO
100
AcDbLine
 62
7
  6
CONTINUOUS
 10
68.5922560475
 20
-1.1649627031
 11
68.5930778582
 21
-1.4680160364
  0
LINE
  5
626
100
AcDbEntity
  8
ASSI
100
AcDbLine
 62
7
  6
CONTINUOUS
 10
68.5922560475
 20
-1.1649627031
 11
68.5930778582
 21
-1.4680160364
  0
LINE
  5
627
100
AcDbEntity
  8
DRAFT
100
AcDbLine
 62
7
  6
CONTINUOUS
 10
68.6358937099
 20
-2.8189691236
 11
68.6358937099
 21
-1.7689691236
  0
LINE
  5
628
100
AcDbEntity
  8
ASSI
100
AcDbLine
 62
7
  6
CONTINUOUS
 10
68.6358937099
 20
-2.8189691236
 11
68.6358937099
 21
-1.7689691236
  0
LINE
  5
629
100
AcDbEntity
  8
DRAFT
100
AcDbLine
 62
7
  6
CONTINUOUS
 10
68.6358937099
 20
1.9310308764
 11
68.6358937099
 21
2.9810308764
  0
LINE
  5
62A
100
AcDbEntity
  8
ASSI
100
AcDbLine
 62
7
  6
CONTINUOUS
 10
68.6358937099
 20
1.9310308764
 11
68.6358937099
 21
2.9810308764
  0
LINE
  5
62B
100
AcDbEntity
  8
ASSI
100
AcDbLine
 62
253
  6
CONTINUOUS
 10
68.6393248324
 20
-2.8189691236
 11
68.6393248324
 21
-1.7689691236
  0
LINE
  5
62C
100
AcDbEntity
  8
ASSI
100
AcDbLine
 62
253
  6
CONTINUOUS
 10
68.6393248324
 20
1.9310308764
 11
68.6393248324
 21
2.9810308764
  0
LINE
  5
62D
100
AcDbEntity
  8
ASSI
100
AcDbLine
 62
253
  6
CONTINUOUS
 10
68.7392639151
 20
2.9793462872
 11
68.7392639151
 21
1.9785781907
  0
LINE
  5
62E
100
AcDbEntity
  8
ASSI
100
AcDbLine
 62
7
  6
CONTINUOUS
 10
68.7392639151
 20
1.9785781907
 11
68.7392639151
 21
1.9190586966
  0
LINE
  5
62F
100
AcDbEntity
  8
ASSI
100
AcDbLine
 62
7
  6
CONTINUOUS
 10
68.7392639151
 20
-1.7569969434
 11
68.7392639151
 21
-1.816516438
  0
LINE
  5
630
100
AcDbEntity
  8
ASSI
100
AcDbLine
 62
253
  6
CONTINUOUS
 10
68.7392639151
 20
-1.816516438
 11
68.7392639151
 21
-2.8172845344
  0
LINE
  5
631
100
AcDbEntity
  8
RACCORDO
100
AcDbLine
 62
253
  6
CONTINUOUS
 10
68.8055129644
 20
2.2554091908
 11
68.8055129644
 21
-2.0933474381
  0
LINE
  5
632
100
AcDbEntity
  8
RACCORDO
100
AcDbLine
 62
253
  6
CONTINUOUS
 10
68.8639697736
 20
2.1240169916
 11
68.8639697736
 21
-1.9619552389
  0
LINE
  5
633
100
AcDbEntity
  8
RACCORDO
100
AcDbLine
 62
253
  6
CONTINUOUS
 10
69.1773150661
 20
1.7369178777
 11
69.1773150661
 21
-1.574856125
  0
LINE
  5
634
100
AcDbEntity
  8
RACCORDO
100
AcDbLine
 62
253
  6
CONTINUOUS
 10
69.3187364223
 20
1.5885122195
 11
69.3187364223
 21
-1.4264504668
  0
LINE
  5
635
100
AcDbEntity
  8
RACCORDO
100
AcDbLine
 62
253
  6
CONTINUOUS
 10
69.4957165949
 20
-1.4264504668
 11
69.4957165949
 21
1.5885122195
  0
LINE
  5
636
100
AcDbEntity
  8
RACCORDO
100
AcDbLine
 62
253
  6
CONTINUOUS
 10
69.6956861339
 20
-1.5995862447
 11
69.6956861339
 21
1.7616437864
  0
LINE
  5
637
100
AcDbEntity
  8
RACCORDO
100
AcDbLine
 62
7
  6
CONTINUOUS
 10
69.7395267049
 20
-2.7151687663
 11
69.7395267049
 21
-1.82304387
  0
LINE
  5
638
100
AcDbEntity
  8
RACCORDO
100
AcDbLine
 62
7
  6
CONTINUOUS
 10
69.7395267049
 20
1.9851056227
 11
69.7395267049
 21
2.8772303935
  0
LINE
  5
639
100
AcDbEntity
  8
RACCORDO
100
AcDbLine
 62
7
  6
CONTINUOUS
 10
69.7062835307
 20
-0.7001984146
 11
69.7062363395
 21
0.8323622573
  0
LINE
  5
63A
100
AcDbEntity
  8
RACCORDO
100
AcDbLine
 62
7
  6
CONTINUOUS
 10
68.6082356274
 20
-0.6959331683
 11
68.6080365138
 21
0.7715386919
  0
LINE
  5
63B
100
AcDbEntity
  8
ASSI
100
AcDbLine
 62
7
  6
CONTINUOUS
 10
68.6082356274
 20
-0.6959331683
 11
68.6080365138
 21
0.7715386919
  0
LINE
  5
63C
100
AcDbEntity
  8
RACCORDO
100
AcDbLine
 62
7
  6
CONTINUOUS
 10
68.795259018
 20
0.8021411314
 11
68.7951321328
 21
-0.70019535
  0
LINE
  5
63D
100
AcDbEntity
  8
RACCORDO
100
AcDbLine
 62
7
  6
CONTINUOUS
 10
68.5927198815
 20
1.5560221306
 11
68.5922560475
 21
-1.1649627031
  0
LINE
  5
63E
100
AcDbEntity
  8
ASSI
100
AcDbLine
 62
7
  6
CONTINUOUS
 10
68.5927198815
 20
1.5560221306
 11
68.5922560475
 21
-1.1649627031
  0
LINE
  5
63F
100
AcDbEntity
  8
RACCORDO
100
AcDbLine
 62
7
  6
CONTINUOUS
 10
69.7062363395
 20
0.8323622573
 11
69.7066118199
 21
0.9502231201
  0
LINE
  5
640
100
AcDbEntity
  8
RACCORDO
100
AcDbLine
 62
7
  6
CONTINUOUS
 10
68.6080365138
 20
0.7715386919
 11
68.6090229059
 21
1.0256042813
  0
LINE
  5
641
100
AcDbEntity
  8
ASSI
100
AcDbLine
 62
7
  6
CONTINUOUS
 10
68.6080365138
 20
0.7715386919
 11
68.6090229059
 21
1.0256042813
  0
LINE
  5
642
100
AcDbEntity
  8
RACCORDO
100
AcDbLine
 62
7
  6
CONTINUOUS
 10
68.7951321328
 20
-0.70019535
 11
68.7947565626
 21
-0.759124141
  0
LINE
  5
643
100
AcDbEntity
  8
RACCORDO
100
AcDbLine
 62
7
  6
CONTINUOUS
 10
68.594086766
 20
1.772853333
 11
68.5927198815
 21
1.5560221306
  0
LINE
  5
644
100
AcDbEntity
  8
ASSI
100
AcDbLine
 62
7
  6
CONTINUOUS
 10
68.594086766
 20
1.772853333
 11
68.5927198815
 21
1.5560221306
  0
LINE
  5
645
100
AcDbEntity
  8
RACCORDO
100
AcDbLine
 62
7
  6
CONTINUOUS
 10
69.7066118199
 20
0.9502231201
 11
69.7074668898
 21
1.0596805083
  0
LINE
  5
646
100
AcDbEntity
  8
RACCORDO
100
AcDbLine
 62
7
  6
CONTINUOUS
 10
68.6090229059
 20
1.0256042813
 11
68.6111276727
 21
1.2570233557
  0
LINE
  5
647
100
AcDbEntity
  8
ASSI
100
AcDbLine
 62
7
  6
CONTINUOUS
 10
68.6090229059
 20
1.0256042813
 11
68.6111276727
 21
1.2570233557
  0
LINE
  5
648
100
AcDbEntity
  8
RACCORDO
100
AcDbLine
 62
7
  6
CONTINUOUS
 10
68.7947565626
 20
-0.759124141
 11
68.7941353213
 21
-0.8165531969
  0
LINE
  5
649
100
AcDbEntity
  8
RACCORDO
100
AcDbLine
 62
7
  6
CONTINUOUS
 10
68.5962841394
 20
1.9659955222
 11
68.594086766
 21
1.772853333
  0
LINE
  5
64A
100
AcDbEntity
  8
ASSI
100
AcDbLine
 62
7
  6
CONTINUOUS
 10
68.5962841394
 20
1.9659955222
 11
68.594086766
 21
1.772853333
  0
LINE
  5
64B
100
AcDbEntity
  8
RACCORDO
100
AcDbLine
 62
7
  6
CONTINUOUS
 10
69.7074668898
 20
1.0596805083
 11
69.7107354815
 21
1.319000261
  0
LINE
  5
64C
100
AcDbEntity
  8
RACCORDO
100
AcDbLine
 62
7
  6
CONTINUOUS
 10
68.6111276727
 20
1.2570233557
 11
68.6130994486
 21
1.3914396982
  0
LINE
  5
64D
100
AcDbEntity
  8
ASSI
100
AcDbLine
 62
7
  6
CONTINUOUS
 10
68.6111276727
 20
1.2570233557
 11
68.6130994486
 21
1.3914396982
  0
LWPOLYLINE
  5
64E
100
AcDbEntity
  8
RACCORDO
100
AcDbPolyline
 62
7
  6
CONTINUOUS
 90
3
 70
0
 10
68.7941353213
 20
-0.8165531969
 10
68.7932804648
 20
-0.8712322988
 10
68.7927646773
 20
-0.8976187556
  0
LINE
  5
64F
100
AcDbEntity
  8
RACCORDO
100
AcDbLine
 62
253
  6
CONTINUOUS
 10
69.6013651074
 20
2.20554354
 11
69.5957014933
 21
1.8206164921
  0
LINE
  5
650
100
AcDbEntity
  8
RACCORDO
100
AcDbLine
 62
253
  6
CONTINUOUS
 10
69.7013484087
 20
2.1334012621
 11
69.6956861339
 21
1.7616437864
  0
LINE
  5
651
100
AcDbEntity
  8
RACCORDO
100
AcDbLine
 62
7
  6
CONTINUOUS
 10
69.7107354815
 20
1.319000261
 11
69.713663792
 21
1.4910072575
  0
LINE
  5
652
100
AcDbEntity
  8
RACCORDO
100
AcDbLine
 62
7
  6
CONTINUOUS
 10
68.6019472805
 20
2.2992042838
 11
68.5962841394
 21
1.9659955222
  0
LINE
  5
653
100
AcDbEntity
  8
ASSI
100
AcDbLine
 62
7
  6
CONTINUOUS
 10
68.6019472805
 20
2.2992042838
 11
68.5962841394
 21
1.9659955222
  0
LINE
  5
654
100
AcDbEntity
  8
RACCORDO
100
AcDbLine
 62
7
  6
CONTINUOUS
 10
68.6157984342
 20
1.5291696826
 11
68.6130994486
 21
1.3914396982
  0
LINE
  5
655
100
AcDbEntity
  8
ASSI
100
AcDbLine
 62
7
  6
CONTINUOUS
 10
68.6157984342
 20
1.5291696826
 11
68.6130994486
 21
1.3914396982
  0
LINE
  5
656
100
AcDbEntity
  8
RACCORDO
100
AcDbLine
 62
253
  6
CONTINUOUS
 10
69.6058982928
 20
2.4351387077
 11
69.6013651074
 21
2.20554354
  0
LINE
  5
657
100
AcDbEntity
  8
RACCORDO
100
AcDbLine
 62
253
  6
CONTINUOUS
 10
69.7058802299
 20
2.3552157327
 11
69.7013484087
 21
2.1334012621
  0
LINE
  5
658
100
AcDbEntity
  8
RACCORDO
100
AcDbLine
 62
7
  6
CONTINUOUS
 10
68.606210823
 20
2.4915295188
 11
68.6019472805
 21
2.2992042838
  0
LINE
  5
659
100
AcDbEntity
  8
ASSI
100
AcDbLine
 62
7
  6
CONTINUOUS
 10
68.606210823
 20
2.4915295188
 11
68.6019472805
 21
2.2992042838
  0
LINE
  5
65A
100
AcDbEntity
  8
RACCORDO
100
AcDbLine
 62
7
  6
CONTINUOUS
 10
69.713663792
 20
1.4910072575
 11
69.7169473762
 21
1.6404530029
  0
LINE
  5
65B
100
AcDbEntity
  8
RACCORDO
100
AcDbLine
 62
253
  6
CONTINUOUS
 10
69.6092830842
 20
2.5740657114
 11
69.6058982928
 21
2.4351387077
  0
LINE
  5
65C
100
AcDbEntity
  8
ASSI
100
AcDbLine
 62
7
  6
CONTINUOUS
 10
68.7927646773
 20
-0.8976187556
 11
68.7878388128
 21
-1.1010518675
  0
LINE
  5
65D
100
AcDbEntity
  8
RACCORDO
100
AcDbLine
 62
7
  6
CONTINUOUS
 10
68.6187482451
 20
1.6487232464
 11
68.6157984342
 21
1.5291696826
  0
LINE
  5
65E
100
AcDbEntity
  8
ASSI
100
AcDbLine
 62
7
  6
CONTINUOUS
 10
68.6187482451
 20
1.6487232464
 11
68.6157984342
 21
1.5291696826
  0
LINE
  5
65F
100
AcDbEntity
  8
RACCORDO
100
AcDbLine
 62
253
  6
CONTINUOUS
 10
69.7092668023
 20
2.4895178958
 11
69.7058802299
 21
2.3552157327
  0
LINE
  5
660
100
AcDbEntity
  8
RACCORDO
100
AcDbLine
 62
7
  6
CONTINUOUS
 10
69.7169473762
 20
1.6404530029
 11
69.7193088503
 21
1.7263948601
  0
LINE
  5
661
100
AcDbEntity
  8
RACCORDO
100
AcDbLine
 62
253
  6
CONTINUOUS
 10
69.6128463836
 20
2.6958106476
 11
69.6092830842
 21
2.5740657114
  0
LINE
  5
662
100
AcDbEntity
  8
RACCORDO
100
AcDbLine
 62
7
  6
CONTINUOUS
 10
68.6208366192
 20
1.7176026026
 11
68.6187482451
 21
1.6487232464
  0
LINE
  5
663
100
AcDbEntity
  8
ASSI
100
AcDbLine
 62
7
  6
CONTINUOUS
 10
68.6208366192
 20
1.7176026026
 11
68.6187482451
 21
1.6487232464
  0
LINE
  5
664
100
AcDbEntity
  8
RACCORDO
100
AcDbLine
 62
253
  6
CONTINUOUS
 10
69.7128326406
 20
2.6072185265
 11
69.7092668023
 21
2.4895178958
  0
LWPOLYLINE
  5
665
100
AcDbEntity
  8
ASSI
100
AcDbPolyline
 62
7
  6
CONTINUOUS
 90
13
 70
0
 10
68.7878388128
 20
-1.1010518675
 10
68.7820527842
 20
-1.2837033855
 10
68.7788354211
 20
-1.3672851382
 10
68.7754494867
 20
-1.4443951161
 10
68.7718934012
 20
-1.5149158652
 10
68.7681687443
 20
-1.5789648395
 10
68.7643231509
 20
-1.6357162082
 10
68.7603555095
 20
-1.6850727164
 10
68.7562669315
 20
-1.727131619
 10
68.7521083862
 20
-1.7613588491
 10
68.7478968632
 20
-1.7875763845
 10
68.7436153728
 20
-1.8059622475
 10
68.7392639151
 20
-1.816516438
  0
LWPOLYLINE
  5
666
100
AcDbEntity
  8
RACCORDO
100
AcDbPolyline
 62
7
  6
CONTINUOUS
 90
12
 70
0
 10
69.7193088503
 20
1.7263948601
 10
69.7217885542
 20
1.8006142162
 10
69.7230659699
 20
1.8331498549
 10
69.7243663368
 20
1.862556523
 10
69.7256895274
 20
1.8888505909
 10
69.727028503
 20
1.9118914467
 10
69.7283833192
 20
1.9316617168
 10
69.7297539203
 20
1.948178775
 10
69.7311331002
 20
1.9613541311
 10
69.7325184571
 20
1.9711582885
 10
69.7339123928
 20
1.9776207438
 10
69.7353149074
 20
1.9807414972
  0
LINE
  5
667
100
AcDbEntity
  8
RACCORDO
100
AcDbLine
 62
253
  6
CONTINUOUS
 10
69.615394307
 20
2.7693159887
 11
69.6128463836
 21
2.6958106476
  0
LINE
  5
668
100
AcDbEntity
  8
RACCORDO
100
AcDbLine
 62
253
  6
CONTINUOUS
 10
69.7153803468
 20
2.6782040468
 11
69.7128326406
 21
2.6072185265
  0
LWPOLYLINE
  5
669
100
AcDbEntity
  8
RACCORDO
100
AcDbPolyline
 62
7
  6
CONTINUOUS
 90
10
 70
0
 10
68.8055129644
 20
-2.0933474381
 10
68.8009827607
 20
-2.2054715404
 10
68.7962630503
 20
-2.3093467492
 10
68.7913538334
 20
-2.4049730646
 10
68.7862355248
 20
-2.4926506501
 10
68.7809277096
 20
-2.5720793422
 10
68.7754891427
 20
-2.6423586504
 10
68.7699394091
 20
-2.7031884113
 10
68.7642589239
 20
-2.7548687884
 10
68.7584476869
 20
-2.7973997817
  0
LWPOLYLINE
  5
66A
100
AcDbEntity
  8
RACCORDO
100
AcDbPolyline
 62
7
  6
CONTINUOUS
 90
7
 70
0
 10
68.6233839167
 20
2.9426496125
 10
68.6207630583
 20
2.900777659
 10
68.6181961139
 20
2.8513288309
 10
68.6156830835
 20
2.7943031282
 10
68.6132161825
 20
2.7294720422
 10
68.6108031955
 20
2.6570640817
 10
68.606210823
 20
2.4915295188
  0
LWPOLYLINE
  5
66B
100
AcDbEntity
  8
ASSI
100
AcDbPolyline
 62
7
  6
CONTINUOUS
 90
7
 70
0
 10
68.6233839167
 20
2.9426496125
 10
68.6207630583
 20
2.900777659
 10
68.6181961139
 20
2.8513288309
 10
68.6156830835
 20
2.7943031282
 10
68.6132161825
 20
2.7294720422
 10
68.6108031955
 20
2.6570640817
 10
68.606210823
 20
2.4915295188
  0
LWPOLYLINE
  5
66C
100
AcDbEntity
  8
RACCORDO
100
AcDbPolyline
 62
253
  6
CONTINUOUS
 90
7
 70
0
 10
69.6252191338
 20
2.9628891282
 10
69.623543234
 20
2.9389251301
 10
69.6221247455
 20
2.9160632929
 10
69.6207315349
 20
2.8909612398
 10
69.6193657032
 20
2.8637683549
 10
69.6180251495
 20
2.8345190774
 10
69.615394307
 20
2.7693159887
  0
LWPOLYLINE
  5
66D
100
AcDbEntity
  8
RACCORDO
100
AcDbPolyline
 62
253
  6
CONTINUOUS
 90
7
 70
0
 10
69.7249718482
 20
2.8618876138
 10
69.7235289186
 20
2.8419238409
 10
69.7221110014
 20
2.8198754353
 10
69.7207180967
 20
2.7957423971
 10
69.719352178
 20
2.7695228134
 10
69.7180112717
 20
2.7412185971
 10
69.7153803468
 20
2.6782040468
  0
LINE
  5
66E
100
AcDbEntity
  8
RACCORDO
100
AcDbLine
 62
253
  6
CONTINUOUS
 10
69.7378601083
 20
-2.7328082441
 11
69.7393744001
 21
-2.7154427373
  0
LWPOLYLINE
  5
66F
100
AcDbEntity
  8
RACCORDO
100
AcDbPolyline
 62
253
  6
CONTINUOUS
 90
10
 70
0
 10
69.7263786124
 20
-2.7094692567
 10
69.7248549193
 20
-2.7268280981
 10
69.7203406935
 20
-2.7436597039
 10
69.7129730442
 20
-2.7594528522
 10
69.7029757472
 20
-2.7737278616
 10
69.6906524478
 20
-2.7860511609
 10
69.6763774384
 20
-2.7960484579
 10
69.6605842902
 20
-2.8034161072
 10
69.6437526843
 20
-2.8079303331
 10
69.6263938429
 20
-2.8094540262
  0
LWPOLYLINE
  5
670
100
AcDbEntity
  8
RACCORDO
100
AcDbPolyline
 62
253
  6
CONTINUOUS
 90
10
 70
0
 10
69.7249718482
 20
-2.699825861
 10
69.7233937495
 20
-2.7167284253
 10
69.7188401767
 20
-2.7331198599
 10
69.711448814
 20
-2.748504545
 10
69.7014431504
 20
-2.7624173015
 10
69.6891257223
 20
-2.7744374561
 10
69.6748689656
 20
-2.7842015614
 10
69.659103955
 20
-2.7914143848
 10
69.6423073693
 20
-2.7958578357
 10
69.6249870787
 20
-2.7973975597
  0
LWPOLYLINE
  5
671
100
AcDbEntity
  8
RACCORDO
100
AcDbPolyline
 62
7
  6
CONTINUOUS
 90
10
 70
0
 10
68.7584476869
 20
-2.7973997817
 10
68.7580616357
 20
-2.7997490815
 10
68.7576742245
 20
-2.8018464154
 10
68.7572854531
 20
-2.8036917834
 10
68.75689512
 20
-2.8052858771
 10
68.7565034269
 20
-2.8066280048
 10
68.7561109783
 20
-2.8077160911
 10
68.7557179759
 20
-2.8085494442
 10
68.755324218
 20
-2.8091287559
 10
68.7549297047
 20
-2.8094540262
  0
LWPOLYLINE
  5
672
100
AcDbEntity
  8
RACCORDO
100
AcDbPolyline
 62
253
  6
CONTINUOUS
 90
10
 70
0
 10
69.6956861358
 20
-1.5995846764
 10
69.6939516573
 20
-1.6097344668
 10
69.6892851379
 20
-1.6195813857
 10
69.6818258192
 20
-1.6288315724
 10
69.6717821723
 20
-1.6372188518
 10
69.659462327
 20
-1.6444802162
 10
69.6452915416
 20
-1.6503788629
 10
69.6297300582
 20
-1.654751136
 10
69.6132325063
 20
-1.6574944949
 10
69.596288746
 20
-1.658547689
  0
LWPOLYLINE
  5
673
100
AcDbEntity
  8
RACCORDO
100
AcDbPolyline
 62
7
  6
CONTINUOUS
 90
3
 70
0
 10
69.7349619355
 20
-2.7450290159
 10
69.7387241659
 20
-2.7277009598
 10
69.7395101254
 20
-2.7151735434
  0
LINE
  5
674
100
AcDbEntity
  8
RACCORDO
100
AcDbLine
 62
253
  6
CONTINUOUS
 10
69.7333526832
 20
-2.7496459045
 11
69.7378601083
 21
-2.7328082441
  0
LINE
  5
675
100
AcDbEntity
  8
RACCORDO
100
AcDbLine
 62
253
  6
CONTINUOUS
 10
69.7259891338
 20
-2.7654439167
 11
69.7333526832
 21
-2.7496459045
  0
LINE
  5
676
100
AcDbEntity
  8
RACCORDO
100
AcDbLine
 62
253
  6
CONTINUOUS
 10
69.7395266881
 20
-2.7151693236
 11
69.7393744001
 21
-2.7154427373
  0
LINE
  5
677
100
AcDbEntity
  8
RACCORDO
100
AcDbLine
 62
253
  6
CONTINUOUS
 10
69.7234842356
 20
-2.7690219364
 11
69.7259891338
 21
-2.7654439167
  0
LWPOLYLINE
  5
678
100
AcDbEntity
  8
RACCORDO
100
AcDbPolyline
 62
7
  6
CONTINUOUS
 90
3
 70
0
 10
69.7272529995
 20
2.925287717
 10
69.7180087775
 20
2.9392983514
 10
69.7098489755
 20
2.9484563309
  0
LINE
  5
679
100
AcDbEntity
  8
RACCORDO
100
AcDbLine
 62
253
  6
CONTINUOUS
 10
69.7393744001
 20
2.87750449
 11
69.7395266997
 21
2.8772296549
  0
LINE
  5
67A
100
AcDbEntity
  8
RACCORDO
100
AcDbLine
 62
253
  6
CONTINUOUS
 10
69.7259882603
 20
2.9275071828
 11
69.7333522293
 21
2.9117089053
  0
LWPOLYLINE
  5
67B
100
AcDbEntity
  8
ASSI
100
AcDbPolyline
 62
7
  6
CONTINUOUS
 90
12
 70
0
 10
68.7392639151
 20
1.9785781907
 10
68.7436153682
 20
1.9680240245
 10
68.747896855
 20
1.9496381874
 10
68.7521083755
 20
1.9234206792
 10
68.7562669194
 20
1.8891934811
 10
68.7603554969
 20
1.8471346121
 10
68.7643231386
 20
1.7977781286
 10
68.7681687328
 20
1.7410267731
 10
68.7718933911
 20
1.6769778033
 10
68.7754494782
 20
1.6064570488
 10
68.7788354143
 20
1.5293470527
 10
68.7820527793
 20
1.445765272
  0
LINE
  5
67C
100
AcDbEntity
  8
RACCORDO
100
AcDbLine
 62
253
  6
CONTINUOUS
 10
69.7333522293
 20
2.9117089053
 11
69.737859979
 21
2.8948707312
  0
LWPOLYLINE
  5
67D
100
AcDbEntity
  8
RACCORDO
100
AcDbPolyline
 62
7
  6
CONTINUOUS
 90
10
 70
0
 10
68.7584476869
 20
2.9594615344
 10
68.7642589613
 20
2.9169301021
 10
68.7699394698
 20
2.8652494485
 10
68.7754892123
 20
2.8044195737
 10
68.7809277673
 20
2.7341403845
 10
68.7862355563
 20
2.6547119741
 10
68.7913538441
 20
2.5670346217
 10
68.7962630521
 20
2.4714084201
 10
68.8009827589
 20
2.3675332765
 10
68.8055129644
 20
2.2554091908
  0
LWPOLYLINE
  5
67E
100
AcDbEntity
  8
RACCORDO
100
AcDbPolyline
 62
253
  6
CONTINUOUS
 90
15
 70
0
 10
-15.0957144299
 20
-2.2990976561
 10
-15.044318882
 20
-2.2905480231
 10
-14.9940868155
 20
-2.2767030567
 10
-14.9455565091
 20
-2.2577088717
 10
-14.899260098
 20
-2.2337708098
 10
-14.8557154035
 20
-2.20515601
 10
-14.8153958999
 20
-2.172180393
 10
-14.7787316596
 20
-2.1352012652
 10
-14.7461204475
 20
-2.094622405
 10
-14.7179142778
 20
-2.0508884038
 10
-14.694412609
 20
-2.0044719764
 10
-14.6758652753
 20
-1.9558683563
 10
-14.6624721289
 20
-1.9056007678
 10
-14.6543780886
 20
-1.8542161428
 10
-14.6516701655
 20
-1.8022706829
  0
LWPOLYLINE
  5
67F
100
AcDbEntity
  8
ASSI
100
AcDbPolyline
 62
253
  6
CONTINUOUS
 90
15
 70
0
 10
-15.0957144299
 20
-2.2990976561
 10
-15.044318882
 20
-2.2905480231
 10
-14.9940868155
 20
-2.2767030567
 10
-14.9455565091
 20
-2.2577088717
 10
-14.899260098
 20
-2.2337708098
 10
-14.8557154035
 20
-2.20515601
 10
-14.8153958999
 20
-2.172180393
 10
-14.7787316596
 20
-2.1352012652
 10
-14.7461204475
 20
-2.094622405
 10
-14.7179142778
 20
-2.0508884038
 10
-14.694412609
 20
-2.0044719764
 10
-14.6758652753
 20
-1.9558683563
 10
-14.6624721289
 20
-1.9056007678
 10
-14.6543780886
 20
-1.8542161428
 10
-14.6516701655
 20
-1.8022706829
  0
LINE
  5
680
100
AcDbEntity
  8
RACCORDO
100
AcDbLine
 62
7
  6
CONTINUOUS
 10
-17.0622550361
 20
-3.6389691236
 11
-12.4517835923
 21
-3.5584930452
  0
LINE
  5
681
100
AcDbEntity
  8
RACCORDO
100
AcDbLine
 62
7
  6
CONTINUOUS
 10
-12.3078917684
 20
-3.627478424
 11
-17.0622550361
 21
-3.6689691236
  0
LINE
  5
682
100
AcDbEntity
  8
ASSI
100
AcDbLine
 62
7
  6
CONTINUOUS
 10
-12.3078917684
 20
-3.627478424
 11
-17.0622550361
 21
-3.6689691236
  0
LINE
  5
683
100
AcDbEntity
  8
RACCORDO
100
AcDbLine
 62
7
  6
CONTINUOUS
 10
-17.0622550361
 20
-3.6689691236
 11
-18.0622550361
 21
-3.6602422559
  0
LINE
  5
684
100
AcDbEntity
  8
ASSI
100
AcDbLine
 62
7
  6
CONTINUOUS
 10
-17.0622550361
 20
-3.6689691236
 11
-18.0622550361
 21
-3.6602422559
  0
LINE
  5
685
100
AcDbEntity
  8
DRAFT
100
AcDbLine
 62
7
  6
CONTINUOUS
 10
-15.5622550361
 20
-3.7213502779
 11
-17.0622550361
 21
-3.6689691236
  0
LINE
  5
686
100
AcDbEntity
  8
RACCORDO
100
AcDbLine
 62
7
  6
CONTINUOUS
 10
-17.0622550361
 20
-3.6689691236
 11
-18.8297047845
 21
-3.6072484184
  0
LWPOLYLINE
  5
687
100
AcDbEntity
  8
RACCORDO
100
AcDbPolyline
 62
253
  6
CONTINUOUS
 90
16
 70
0
 10
-15.1459719998
 20
-2.1022688202
 10
-15.1142667367
 20
-2.1002525816
 10
-15.0835439679
 20
-2.0951559526
 10
-15.0538036934
 20
-2.0869789333
 10
-15.0247301311
 20
-2.0755643793
 10
-14.9966390631
 20
-2.0610694351
 10
-14.9704778362
 20
-2.0439655332
 10
-14.9463261087
 20
-2.0241690647
 10
-14.9241042223
 20
-2.0017636385
 10
-14.9045205493
 20
-1.9774715153
 10
-14.8876605526
 20
-1.9512101882
 10
-14.8734387693
 20
-1.923062164
 10
-14.8623071831
 20
-1.8939972233
 10
-14.8544164553
 20
-1.8643386263
 10
-14.8496159247
 20
-1.8337631129
 10
-14.8479055911
 20
-1.8022706829
  0
LWPOLYLINE
  5
688
100
AcDbEntity
  8
ASSI
100
AcDbPolyline
 62
253
  6
CONTINUOUS
 90
16
 70
0
 10
-15.1459719998
 20
-2.1022688202
 10
-15.1142667367
 20
-2.1002525816
 10
-15.0835439679
 20
-2.0951559526
 10
-15.0538036934
 20
-2.0869789333
 10
-15.0247301311
 20
-2.0755643793
 10
-14.9966390631
 20
-2.0610694351
 10
-14.9704778362
 20
-2.0439655332
 10
-14.9463261087
 20
-2.0241690647
 10
-14.9241042223
 20
-2.0017636385
 10
-14.9045205493
 20
-1.9774715153
 10
-14.8876605526
 20
-1.9512101882
 10
-14.8734387693
 20
-1.923062164
 10
-14.8623071831
 20
-1.8939972233
 10
-14.8544164553
 20
-1.8643386263
 10
-14.8496159247
 20
-1.8337631129
 10
-14.8479055911
 20
-1.8022706829
  0
LINE
  5
689
100
AcDbEntity
  8
RACCORDO
100
AcDbLine
 62
253
  6
CONTINUOUS
 10
-15.147717174
 20
-2.3022612048
 11
-15.0957144299
 21
-2.2990976561
  0
LINE
  5
68A
100
AcDbEntity
  8
ASSI
100
AcDbLine
 62
253
  6
CONTINUOUS
 10
-15.147717174
 20
-2.3022612048
 11
-15.0957144299
 21
-2.2990976561
  0
LINE
  5
68B
100
AcDbEntity
  8
RACCORDO
100
AcDbLine
 62
7
  6
CONTINUOUS
 10
-14.8939374515
 20
-2.3863518625
 11
-19.3122550361
 21
-2.6179060752
  0
LINE
  5
68C
100
AcDbEntity
  8
RACCORDO
100
AcDbLine
 62
253
  6
CONTINUOUS
 10
-17.0622550361
 20
-3.0390605065
 11
-12.4517835923
 21
-2.9585844281
  0
LINE
  5
68D
100
AcDbEntity
  8
RACCORDO
100
AcDbLine
 62
253
  6
CONTINUOUS
 10
-11.8122550361
 20
-3.1274974624
 11
-11.8871362039
 21
-3.1274974377
  0
LINE
  5
68E
100
AcDbEntity
  8
ASSI
100
AcDbLine
 62
253
  6
CONTINUOUS
 10
-11.8122550361
 20
-3.1274974624
 11
-11.8871362039
 21
-3.1274974377
  0
LINE
  5
68F
100
AcDbEntity
  8
RACCORDO
100
AcDbLine
 62
253
  6
CONTINUOUS
 10
-19.3122550361
 20
-3.0076139222
 11
-18.8297047845
 21
-3.0076139222
  0
LINE
  5
690
100
AcDbEntity
  8
RACCORDO
100
AcDbLine
 62
253
  6
CONTINUOUS
 10
-12.4517835923
 20
-2.9585844281
 11
-11.8622550361
 21
-2.9585844281
  0
LINE
  5
691
100
AcDbEntity
  8
RACCORDO
100
AcDbLine
 62
253
  6
CONTINUOUS
 10
-17.0622550361
 20
-3.0693346274
 11
-18.8297047845
 21
-3.0076139222
  0
LINE
  5
692
100
AcDbEntity
  8
RACCORDO
100
AcDbLine
 62
7
  6
CONTINUOUS
 10
-15.0947887742
 20
-2.3017993057
 11
-17.0622550361
 21
-2.3189691236
  0
LINE
  5
693
100
AcDbEntity
  8
ASSI
100
AcDbLine
 62
7
  6
CONTINUOUS
 10
-15.0947887742
 20
-2.3017993057
 11
-17.0622550361
 21
-2.3189691236
  0
LINE
  5
694
100
AcDbEntity
  8
RACCORDO
100
AcDbLine
 62
253
  6
CONTINUOUS
 10
-15.6905592392
 20
-2.1070213611
 11
-15.1459719998
 21
-2.1022688202
  0
LINE
  5
695
100
AcDbEntity
  8
ASSI
100
AcDbLine
 62
253
  6
CONTINUOUS
 10
-15.6905592392
 20
-2.1070213611
 11
-15.1459719998
 21
-2.1022688202
  0
LINE
  5
696
100
AcDbEntity
  8
RACCORDO
100
AcDbLine
 62
253
  6
CONTINUOUS
 10
-14.6516701655
 20
-1.8022706829
 11
-14.598238769
 21
-1.8018043942
  0
LINE
  5
697
100
AcDbEntity
  8
ASSI
100
AcDbLine
 62
253
  6
CONTINUOUS
 10
-14.6516701655
 20
-1.8022706829
 11
-14.598238769
 21
-1.8018043942
  0
LINE
  5
698
100
AcDbEntity
  8
RACCORDO
100
AcDbLine
 62
253
  6
CONTINUOUS
 10
-14.8479055911
 20
-1.8022706829
 11
-14.6516701655
 21
-1.8022706829
  0
LINE
  5
699
100
AcDbEntity
  8
ASSI
100
AcDbLine
 62
253
  6
CONTINUOUS
 10
-14.8479055911
 20
-1.8022706829
 11
-14.6516701655
 21
-1.8022706829
  0
LINE
  5
69A
100
AcDbEntity
  8
RACCORDO
100
AcDbLine
 62
7
  6
CONTINUOUS
 10
-17.0622550361
 20
-2.3189691236
 11
-17.4912923938
 21
-2.3152249713
  0
LINE
  5
69B
100
AcDbEntity
  8
ASSI
100
AcDbLine
 62
7
  6
CONTINUOUS
 10
-17.0622550361
 20
-2.3189691236
 11
-17.4912923938
 21
-2.3152249713
  0
LINE
  5
69C
100
AcDbEntity
  8
DRAFT
100
AcDbLine
 62
7
  6
CONTINUOUS
 10
-18.2413186726
 20
-2.4483884913
 11
-18.3122550361
 21
-2.4471502925
  0
LINE
  5
69D
100
AcDbEntity
  8
RACCORDO
100
AcDbLine
 62
253
  6
CONTINUOUS
 10
-19.3122550361
 20
-1.3655847287
 11
-19.5087645548
 21
-1.3655847287
  0
LINE
  5
69E
100
AcDbEntity
  8
RACCORDO
100
AcDbLine
 62
253
  6
CONTINUOUS
 10
-20.0174907581
 20
-1.3567048798
 11
-20.3122550361
 21
-1.3567048798
  0
LINE
  5
69F
100
AcDbEntity
  8
RACCORDO
100
AcDbLine
 62
7
  6
CONTINUOUS
 10
-20.0174907581
 20
-1.6566591883
 11
-19.5087645548
 21
-1.6655390372
  0
LINE
  5
6A0
100
AcDbEntity
  8
RACCORDO
100
AcDbLine
 62
7
  6
CONTINUOUS
 10
-14.598238769
 20
-1.6357960902
 11
-15.325523366
 21
-1.6231012903
  0
LINE
  5
6A1
100
AcDbEntity
  8
ASSI
100
AcDbLine
 62
7
  6
CONTINUOUS
 10
-14.598238769
 20
-1.6357960902
 11
-15.325523366
 21
-1.6231012903
  0
LINE
  5
6A2
100
AcDbEntity
  8
RACCORDO
100
AcDbLine
 62
253
  6
CONTINUOUS
 10
-20.0174907581
 20
-1.3567048798
 11
-19.5087645548
 21
-1.3656623588
  0
LINE
  5
6A3
100
AcDbEntity
  8
RACCORDO
100
AcDbLine
 62
7
  6
CONTINUOUS
 10
-17.1791491417
 20
-0.1234943434
 11
-16.3657187213
 21
-0.0808642614
  0
LINE
  5
6A4
100
AcDbEntity
  8
RACCORDO
100
AcDbLine
 62
7
  6
CONTINUOUS
 10
-17.6045074031
 20
0.767848178
 11
-17.4340265269
 21
0.7589136538
  0
LINE
  5
6A5
100
AcDbEntity
  8
RACCORDO
100
AcDbLine
 62
7
  6
CONTINUOUS
 10
-16.1269585684
 20
0.6904131248
 11
-15.9588889451
 21
0.681604969
  0
LWPOLYLINE
  5
6A6
100
AcDbEntity
  8
RACCORDO
100
AcDbPolyline
 62
253
  6
CONTINUOUS
 90
10
 70
0
 10
-18.8297047845
 20
-3.6072484184
 10
-18.8311540429
 20
-3.6049167329
 10
-18.832463092
 20
-3.5980451496
 10
-18.8336200068
 20
-3.586685991
 10
-18.8346130256
 20
-3.5709257255
 10
-18.8354343421
 20
-3.5508841513
 10
-18.8360801729
 20
-3.5267134579
 10
-18.8365452487
 20
-3.4985973351
 10
-18.8368247096
 20
-3.4667494858
 10
-18.8369178467
 20
-3.4314118028
  0
LINE
  5
6A7
100
AcDbEntity
  8
RACCORDO
100
AcDbLine
 62
7
  6
CONTINUOUS
 10
-20.3122550361
 20
-1.3567048798
 11
-20.3122550361
 21
1.5187666325
  0
LINE
  5
6A8
100
AcDbEntity
  8
RACCORDO
100
AcDbLine
 62
253
  6
CONTINUOUS
 10
-20.0174907581
 20
1.5187666325
 11
-19.5087645548
 21
1.5276388581
  0
LINE
  5
6A9
100
AcDbEntity
  8
RACCORDO
100
AcDbLine
 62
7
  6
CONTINUOUS
 10
-14.598238769
 20
1.7978578429
 11
-15.325523366
 21
1.785163043
  0
LINE
  5
6AA
100
AcDbEntity
  8
ASSI
100
AcDbLine
 62
7
  6
CONTINUOUS
 10
-14.598238769
 20
1.7978578429
 11
-15.325523366
 21
1.785163043
  0
LINE
  5
6AB
100
AcDbEntity
  8
RACCORDO
100
AcDbLine
 62
7
  6
CONTINUOUS
 10
-20.0174907581
 20
1.818720941
 11
-19.5087645548
 21
1.8276007899
  0
LINE
  5
6AC
100
AcDbEntity
  8
DRAFT
100
AcDbLine
 62
7
  6
CONTINUOUS
 10
-16.3807298789
 20
1.8929269422
 11
-16.821156169
 21
1.8852392727
  0
LINE
  5
6AD
100
AcDbEntity
  8
RACCORDO
100
AcDbLine
 62
253
  6
CONTINUOUS
 10
-20.3122550361
 20
1.5187666325
 11
-20.0174907581
 21
1.5187666325
  0
LINE
  5
6AE
100
AcDbEntity
  8
RACCORDO
100
AcDbLine
 62
253
  6
CONTINUOUS
 10
-19.3122550361
 20
1.5276464814
 11
-19.5087645548
 21
1.5276464814
  0
LWPOLYLINE
  5
6AF
100
AcDbEntity
  8
RACCORDO
100
AcDbPolyline
 62
253
  6
CONTINUOUS
 90
7
 70
0
 10
-20.0174907581
 20
-1.6566591883
 10
-20.0181315134
 20
-1.6540605386
 10
-20.0186710554
 20
-1.6463304138
 10
-20.0190999823
 20
-1.6335978712
 10
-20.0194108208
 20
-1.6160761084
 10
-20.0195980353
 20
-1.5940652258
 10
-20.0196582826
 20
-1.5679525748
  0
LINE
  5
6B0
100
AcDbEntity
  8
RACCORDO
100
AcDbLine
 62
253
  6
CONTINUOUS
 10
-20.0174907581
 20
1.5187666325
 11
-20.0186710554
 21
1.5967145941
  0
LINE
  5
6B1
100
AcDbEntity
  8
RACCORDO
100
AcDbLine
 62
253
  6
CONTINUOUS
 10
-20.0186710554
 20
1.5967145941
 11
-20.0194108208
 21
1.6693500331
  0
LWPOLYLINE
  5
6B2
100
AcDbEntity
  8
RACCORDO
100
AcDbPolyline
 62
253
  6
CONTINUOUS
 90
8
 70
0
 10
-20.0194108208
 20
1.6693500331
 10
-20.0196582826
 20
1.7316506462
 10
-20.0195902836
 20
1.7575815868
 10
-20.0193949958
 20
1.7793659567
 10
-20.0190783154
 20
1.7965294947
 10
-20.0186491183
 20
1.8088482032
 10
-20.0181162983
 20
1.8162534337
 10
-20.0174907581
 20
1.818720941
  0
LINE
  5
6B3
100
AcDbEntity
  8
RACCORDO
100
AcDbLine
 62
253
  6
CONTINUOUS
 10
-20.0174907581
 20
-1.3567048798
 11
-20.0174907581
 21
1.5187666325
  0
LINE
  5
6B4
100
AcDbEntity
  8
RACCORDO
100
AcDbLine
 62
253
  6
CONTINUOUS
 10
-20.0196582826
 20
-1.5679525748
 11
-20.0193949958
 21
-1.5051535685
  0
LINE
  5
6B5
100
AcDbEntity
  8
RACCORDO
100
AcDbLine
 62
253
  6
CONTINUOUS
 10
-20.0193949958
 20
-1.5051535685
 11
-20.0186491183
 21
-1.4329400296
  0
LINE
  5
6B6
100
AcDbEntity
  8
RACCORDO
100
AcDbLine
 62
253
  6
CONTINUOUS
 10
-20.0186491183
 20
-1.4329400296
 11
-20.0174907581
 21
-1.3567048798
  0
LINE
  5
6B7
100
AcDbEntity
  8
DRAFT
100
AcDbLine
 62
7
  6
CONTINUOUS
 10
-18.2413186726
 20
2.610450244
 11
-18.3122550361
 21
2.6092120452
  0
LINE
  5
6B8
100
AcDbEntity
  8
RACCORDO
100
AcDbLine
 62
7
  6
CONTINUOUS
 10
-17.0622550361
 20
2.4810308764
 11
-17.4912923938
 21
2.4772867241
  0
LINE
  5
6B9
100
AcDbEntity
  8
ASSI
100
AcDbLine
 62
7
  6
CONTINUOUS
 10
-17.0622550361
 20
2.4810308764
 11
-17.4912923938
 21
2.4772867241
  0
LINE
  5
6BA
100
AcDbEntity
  8
RACCORDO
100
AcDbLine
 62
253
  6
CONTINUOUS
 10
-14.8479055911
 20
1.9643324357
 11
-14.6516701655
 21
1.9643324454
  0
LINE
  5
6BB
100
AcDbEntity
  8
ASSI
100
AcDbLine
 62
253
  6
CONTINUOUS
 10
-14.8479055911
 20
1.9643324357
 11
-14.6516701655
 21
1.9643324454
  0
LINE
  5
6BC
100
AcDbEntity
  8
RACCORDO
100
AcDbLine
 62
253
  6
CONTINUOUS
 10
-14.6516701655
 20
1.9643324357
 11
-14.598238769
 21
1.9638661469
  0
LINE
  5
6BD
100
AcDbEntity
  8
ASSI
100
AcDbLine
 62
253
  6
CONTINUOUS
 10
-14.6516701655
 20
1.9643324357
 11
-14.598238769
 21
1.9638661469
  0
LINE
  5
6BE
100
AcDbEntity
  8
RACCORDO
100
AcDbLine
 62
253
  6
CONTINUOUS
 10
-15.1459719998
 20
2.2643305729
 11
-15.6905592392
 21
2.2690831138
  0
LINE
  5
6BF
100
AcDbEntity
  8
ASSI
100
AcDbLine
 62
253
  6
CONTINUOUS
 10
-15.1459719998
 20
2.2643305729
 11
-15.6905592392
 21
2.2690831138
  0
LINE
  5
6C0
100
AcDbEntity
  8
RACCORDO
100
AcDbLine
 62
7
  6
CONTINUOUS
 10
-15.0947887742
 20
2.4638610584
 11
-17.0622550361
 21
2.4810308764
  0
LINE
  5
6C1
100
AcDbEntity
  8
ASSI
100
AcDbLine
 62
7
  6
CONTINUOUS
 10
-15.0947887742
 20
2.4638610584
 11
-17.0622550361
 21
2.4810308764
  0
LWPOLYLINE
  5
6C2
100
AcDbEntity
  8
DRAFT
100
AcDbPolyline
 62
7
  6
CONTINUOUS
 90
10
 70
0
 10
-17.1612478555
 20
-0.1133682179
 10
-17.1829977227
 20
-0.099990794
 10
-17.2048667765
 20
-0.086744377
 10
-17.2268550168
 20
-0.0736289669
 10
-17.2489631672
 20
-0.0606496539
 10
-17.2711905042
 20
-0.0478013479
 10
-17.2935348572
 20
-0.035068778
 10
-17.3159955028
 20
-0.022446854
 10
-17.3385731645
 20
-0.0099406662
 10
-17.3612678422
 20
0.0024497855
  0
LWPOLYLINE
  5
6C3
100
AcDbEntity
  8
ASSI
100
AcDbPolyline
 62
7
  6
CONTINUOUS
 90
10
 70
0
 10
-17.1612478555
 20
-0.1133682179
 10
-17.1829977227
 20
-0.099990794
 10
-17.2048667765
 20
-0.086744377
 10
-17.2268550168
 20
-0.0736289669
 10
-17.2489631672
 20
-0.0606496539
 10
-17.2711905042
 20
-0.0478013479
 10
-17.2935348572
 20
-0.035068778
 10
-17.3159955028
 20
-0.022446854
 10
-17.3385731645
 20
-0.0099406662
 10
-17.3612678422
 20
0.0024497855
  0
LWPOLYLINE
  5
6C4
100
AcDbEntity
  8
RACCORDO
100
AcDbPolyline
 62
253
  6
CONTINUOUS
 90
6
 70
0
 10
-19.5076172519
 20
1.7994952543
 10
-19.5077839715
 20
1.8095217423
 10
-19.5079803717
 20
1.8173931024
 10
-19.5082057467
 20
1.8230515196
 10
-19.5084659258
 20
1.8264613785
 10
-19.5087639713
 20
1.8276007901
  0
LINE
  5
6C5
100
AcDbEntity
  8
RACCORDO
100
AcDbLine
 62
253
  6
CONTINUOUS
 10
-19.5077839715
 20
-1.4682212815
 11
-19.5087639713
 21
-1.3656623691
  0
LINE
  5
6C6
100
AcDbEntity
  8
RACCORDO
100
AcDbLine
 62
253
  6
CONTINUOUS
 10
-19.5073960318
 20
1.7733451609
 11
-19.5076172519
 21
1.7994952543
  0
LINE
  5
6C7
100
AcDbEntity
  8
RACCORDO
100
AcDbLine
 62
253
  6
CONTINUOUS
 10
-19.5073392415
 20
-1.5584522393
 11
-19.5077839715
 21
-1.4682212815
  0
LINE
  5
6C8
100
AcDbEntity
  8
RACCORDO
100
AcDbLine
 62
253
  6
CONTINUOUS
 10
-19.507319696
 20
1.739767818
 11
-19.5073960318
 21
1.7733451609
  0
LINE
  5
6C9
100
AcDbEntity
  8
RACCORDO
100
AcDbLine
 62
253
  6
CONTINUOUS
 10
-19.5087645548
 20
-1.3656623588
 11
-19.5087645548
 21
1.5276388581
  0
LINE
  5
6CA
100
AcDbEntity
  8
DRAFT
100
AcDbLine
 62
7
  6
CONTINUOUS
 10
-19.3122550361
 20
2.779967828
 11
-19.3122550361
 21
-2.6179060752
  0
LINE
  5
6CB
100
AcDbEntity
  8
RACCORDO
100
AcDbLine
 62
7
  6
CONTINUOUS
 10
-19.3122550361
 20
-3.1075530049
 11
-19.3122550361
 21
-2.6179060752
  0
LINE
  5
6CC
100
AcDbEntity
  8
RACCORDO
100
AcDbLine
 62
7
  6
CONTINUOUS
 10
-19.3122550361
 20
2.779967828
 11
-19.3122550361
 21
3.2696147576
  0
LINE
  5
6CD
100
AcDbEntity
  8
RACCORDO
100
AcDbLine
 62
253
  6
CONTINUOUS
 10
-19.5073391142
 20
-1.5953869307
 11
-19.5073392415
 21
-1.5584522393
  0
LINE
  5
6CE
100
AcDbEntity
  8
RACCORDO
100
AcDbLine
 62
253
  6
CONTINUOUS
 10
-19.5074873006
 20
1.6776896401
 11
-19.507319696
 21
1.739767818
  0
LINE
  5
6CF
100
AcDbEntity
  8
RACCORDO
100
AcDbLine
 62
253
  6
CONTINUOUS
 10
-19.5082061899
 20
1.5797594022
 11
-19.5074873006
 21
1.6776896401
  0
LINE
  5
6D0
100
AcDbEntity
  8
RACCORDO
100
AcDbLine
 62
253
  6
CONTINUOUS
 10
-19.5087646121
 20
1.5276388571
 11
-19.5082061899
 21
1.5797594022
  0
LWPOLYLINE
  5
6D1
100
AcDbEntity
  8
RACCORDO
100
AcDbPolyline
 62
253
  6
CONTINUOUS
 90
8
 70
0
 10
-19.5087646121
 20
-1.6655390361
 10
-19.5084665537
 20
-1.6644026739
 10
-19.5082061899
 20
-1.6609900313
 10
-19.5079805319
 20
-1.6553273927
 10
-19.5077838198
 20
-1.6474573358
 10
-19.5076169014
 20
-1.6374404441
 10
-19.5074873006
 20
-1.6253569022
 10
-19.5073391142
 20
-1.5953869307
  0
LWPOLYLINE
  5
6D2
100
AcDbEntity
  8
DRAFT
100
AcDbPolyline
 62
7
  6
CONTINUOUS
 90
10
 70
0
 10
-17.1612478555
 20
0.2754299706
 10
-17.1829977227
 20
0.2620525467
 10
-17.2048667765
 20
0.2488061297
 10
-17.2268550168
 20
0.2356907196
 10
-17.2489631672
 20
0.2227114066
 10
-17.2711905042
 20
0.2098631006
 10
-17.2935348572
 20
0.1971305307
 10
-17.3159955028
 20
0.1845086067
 10
-17.3385731645
 20
0.1720024189
 10
-17.3612678422
 20
0.1596119673
  0
LWPOLYLINE
  5
6D3
100
AcDbEntity
  8
ASSI
100
AcDbPolyline
 62
7
  6
CONTINUOUS
 90
10
 70
0
 10
-17.1612478555
 20
0.2754299706
 10
-17.1829977227
 20
0.2620525467
 10
-17.2048667765
 20
0.2488061297
 10
-17.2268550168
 20
0.2356907196
 10
-17.2489631672
 20
0.2227114066
 10
-17.2711905042
 20
0.2098631006
 10
-17.2935348572
 20
0.1971305307
 10
-17.3159955028
 20
0.1845086067
 10
-17.3385731645
 20
0.1720024189
 10
-17.3612678422
 20
0.1596119673
  0
LINE
  5
6D4
100
AcDbEntity
  8
RACCORDO
100
AcDbLine
 62
253
  6
CONTINUOUS
 10
-18.8297047845
 20
3.1696756749
 11
-17.0622550361
 21
3.2313963801
  0
LINE
  5
6D5
100
AcDbEntity
  8
RACCORDO
100
AcDbLine
 62
253
  6
CONTINUOUS
 10
-12.4517835923
 20
3.1206461809
 11
-11.8622550361
 21
3.1206461751
  0
LINE
  5
6D6
100
AcDbEntity
  8
RACCORDO
100
AcDbLine
 62
253
  6
CONTINUOUS
 10
-19.3122550361
 20
3.1696756749
 11
-18.8297047846
 21
3.1696756782
  0
LINE
  5
6D7
100
AcDbEntity
  8
RACCORDO
100
AcDbLine
 62
253
  6
CONTINUOUS
 10
-11.8122550361
 20
3.2895592152
 11
-11.8871362104
 21
3.2895592152
  0
LINE
  5
6D8
100
AcDbEntity
  8
ASSI
100
AcDbLine
 62
253
  6
CONTINUOUS
 10
-11.8122550361
 20
3.2895592152
 11
-11.8871362104
 21
3.2895592152
  0
LINE
  5
6D9
100
AcDbEntity
  8
RACCORDO
100
AcDbLine
 62
253
  6
CONTINUOUS
 10
-12.4517835923
 20
3.1206461809
 11
-17.0622550361
 21
3.2011222593
  0
LINE
  5
6DA
100
AcDbEntity
  8
RACCORDO
100
AcDbLine
 62
7
  6
CONTINUOUS
 10
-14.8939374515
 20
2.5484136152
 11
-19.3122550361
 21
2.779967828
  0
LINE
  5
6DB
100
AcDbEntity
  8
RACCORDO
100
AcDbLine
 62
7
  6
CONTINUOUS
 10
-15.0956971157
 20
2.4611574452
 11
-15.147717174
 21
2.4643229576
  0
LINE
  5
6DC
100
AcDbEntity
  8
ASSI
100
AcDbLine
 62
7
  6
CONTINUOUS
 10
-15.0956971157
 20
2.4611574452
 11
-15.147717174
 21
2.4643229576
  0
LINE
  5
6DD
100
AcDbEntity
  8
0
100
AcDbLine
 62
7
  6
CONTINUOUS
 10
-15.8930147963
 20
1.304941898
 11
-16.0667463645
 21
1.3514931314
  0
LWPOLYLINE
  5
6DE
100
AcDbEntity
  8
DRAFT
100
AcDbPolyline
 62
7
  6
CONTINUOUS
 90
10
 70
0
 10
-16.1635165181
 20
0.1597608193
 10
-16.1862482822
 20
0.1721734917
 10
-16.2088664037
 20
0.184704678
 10
-16.2313708829
 20
0.1973543783
 10
-16.2537624504
 20
0.2101173562
 10
-16.2760403755
 20
0.222998848
 10
-16.2982024655
 20
0.2360145625
 10
-16.3202479894
 20
0.2491697359
 10
-16.3421776782
 20
0.262459132
 10
-16.3639915319
 20
0.2758827507
  0
LWPOLYLINE
  5
6DF
100
AcDbEntity
  8
ASSI
100
AcDbPolyline
 62
7
  6
CONTINUOUS
 90
10
 70
0
 10
-16.1635165181
 20
0.1597608193
 10
-16.1862482822
 20
0.1721734917
 10
-16.2088664037
 20
0.184704678
 10
-16.2313708829
 20
0.1973543783
 10
-16.2537624504
 20
0.2101173562
 10
-16.2760403755
 20
0.222998848
 10
-16.2982024655
 20
0.2360145625
 10
-16.3202479894
 20
0.2491697359
 10
-16.3421776782
 20
0.262459132
 10
-16.3639915319
 20
0.2758827507
  0
LINE
  5
6E0
100
AcDbEntity
  8
RACCORDO
100
AcDbLine
 62
253
  6
CONTINUOUS
 10
-18.8297047845
 20
3.1696756749
 11
-18.8324628628
 21
3.2737409102
  0
LINE
  5
6E1
100
AcDbEntity
  8
RACCORDO
100
AcDbLine
 62
253
  6
CONTINUOUS
 10
-18.8324628628
 20
3.2737409102
 11
-18.8346132452
 21
3.3746447894
  0
LINE
  5
6E2
100
AcDbEntity
  8
RACCORDO
100
AcDbLine
 62
253
  6
CONTINUOUS
 10
-18.8346132452
 20
3.3746447894
 11
-18.8360811476
 21
3.4693266404
  0
LWPOLYLINE
  5
6E3
100
AcDbEntity
  8
RACCORDO
100
AcDbPolyline
 62
253
  6
CONTINUOUS
 90
12
 70
0
 10
-18.8360811476
 20
3.4693266404
 10
-18.8368251136
 20
3.5549144594
 10
-18.8369178467
 20
3.5934735555
 10
-18.8368247096
 20
3.6288112385
 10
-18.8365452487
 20
3.6606590878
 10
-18.8360801729
 20
3.6887752107
 10
-18.8354343421
 20
3.712945904
 10
-18.8346130256
 20
3.7329874782
 10
-18.8336200067
 20
3.7487477437
 10
-18.8324630919
 20
3.7601069023
 10
-18.8311540429
 20
3.7669784856
 10
-18.8297047845
 20
3.7693101711
  0
LINE
  5
6E4
100
AcDbEntity
  8
RACCORDO
100
AcDbLine
 62
253
  6
CONTINUOUS
 10
-18.8297047845
 20
-3.0076139222
 11
-18.8297047845
 21
-2.5926166882
  0
LINE
  5
6E5
100
AcDbEntity
  8
RACCORDO
100
AcDbLine
 62
253
  6
CONTINUOUS
 10
-18.8297047845
 20
2.7546784409
 11
-18.8297047845
 21
3.1696756749
  0
LINE
  5
6E6
100
AcDbEntity
  8
DRAFT
100
AcDbLine
 62
7
  6
CONTINUOUS
 10
-18.3122550361
 20
2.7275600487
 11
-18.3122550361
 21
-2.565498296
  0
LINE
  5
6E7
100
AcDbEntity
  8
RACCORDO
100
AcDbLine
 62
7
  6
CONTINUOUS
 10
-18.2622550361
 20
-2.3058171404
 11
-18.2622550361
 21
2.4678788931
  0
LINE
  5
6E8
100
AcDbEntity
  8
ASSI
100
AcDbLine
 62
7
  6
CONTINUOUS
 10
-18.2622550361
 20
-2.3058171404
 11
-18.2622550361
 21
2.4678788931
  0
LINE
  5
6E9
100
AcDbEntity
  8
RACCORDO
100
AcDbLine
 62
253
  6
CONTINUOUS
 10
-18.8369178467
 20
-3.4314118028
 11
-18.8365460547
 21
-3.3513652727
  0
LINE
  5
6EA
100
AcDbEntity
  8
RACCORDO
100
AcDbLine
 62
253
  6
CONTINUOUS
 10
-18.8365460547
 20
-3.3513652727
 11
-18.8354350545
 21
-3.2608866952
  0
LINE
  5
6EB
100
AcDbEntity
  8
RACCORDO
100
AcDbLine
 62
253
  6
CONTINUOUS
 10
-18.8354350545
 20
-3.2608866952
 11
-18.8336198715
 21
-3.1627209142
  0
LWPOLYLINE
  5
6EC
100
AcDbEntity
  8
RACCORDO
100
AcDbPolyline
 62
253
  6
CONTINUOUS
 90
3
 70
0
 10
-18.8336198715
 20
-3.1627209142
 10
-18.8311538586
 20
-3.059845559
 10
-18.8297047845
 20
-3.0076139222
  0
LWPOLYLINE
  5
6ED
100
AcDbEntity
  8
DRAFT
100
AcDbPolyline
 62
7
  6
CONTINUOUS
 90
10
 70
0
 10
-16.1635165181
 20
0.0023009334
 10
-16.1862482822
 20
-0.010111739
 10
-16.2088664037
 20
-0.0226429253
 10
-16.2313708829
 20
-0.0352926256
 10
-16.2537624504
 20
-0.0480556035
 10
-16.2760403755
 20
-0.0609370953
 10
-16.2982024655
 20
-0.0739528098
 10
-16.3202479894
 20
-0.0871079832
 10
-16.3421776782
 20
-0.1003973793
 10
-16.3639915319
 20
-0.113820998
  0
LWPOLYLINE
  5
6EE
100
AcDbEntity
  8
ASSI
100
AcDbPolyline
 62
7
  6
CONTINUOUS
 90
10
 70
0
 10
-16.1635165181
 20
0.0023009334
 10
-16.1862482822
 20
-0.010111739
 10
-16.2088664037
 20
-0.0226429253
 10
-16.2313708829
 20
-0.0352926256
 10
-16.2537624504
 20
-0.0480556035
 10
-16.2760403755
 20
-0.0609370953
 10
-16.2982024655
 20
-0.0739528098
 10
-16.3202479894
 20
-0.0871079832
 10
-16.3421776782
 20
-0.1003973793
 10
-16.3639915319
 20
-0.113820998
  0
LINE
  5
6EF
100
AcDbEntity
  8
RACCORDO
100
AcDbLine
 62
7
  6
CONTINUOUS
 10
-18.8297047845
 20
3.7693101711
 11
-17.0622550361
 21
3.8310308764
  0
LINE
  5
6F0
100
AcDbEntity
  8
DRAFT
100
AcDbLine
 62
7
  6
CONTINUOUS
 10
-15.5622550361
 20
3.8834120306
 11
-17.0622550361
 21
3.8310308764
  0
LINE
  5
6F1
100
AcDbEntity
  8
RACCORDO
100
AcDbLine
 62
7
  6
CONTINUOUS
 10
-17.0622550361
 20
3.8310308764
 11
-18.0622550361
 21
3.8223040086
  0
LINE
  5
6F2
100
AcDbEntity
  8
ASSI
100
AcDbLine
 62
7
  6
CONTINUOUS
 10
-17.0622550361
 20
3.8310308764
 11
-18.0622550361
 21
3.8223040086
  0
LINE
  5
6F3
100
AcDbEntity
  8
RACCORDO
100
AcDbLine
 62
7
  6
CONTINUOUS
 10
-17.0622550361
 20
3.8310308764
 11
-12.3078917684
 21
3.7895401767
  0
LINE
  5
6F4
100
AcDbEntity
  8
ASSI
100
AcDbLine
 62
7
  6
CONTINUOUS
 10
-17.0622550361
 20
3.8310308764
 11
-12.3078917684
 21
3.7895401767
  0
LINE
  5
6F5
100
AcDbEntity
  8
RACCORDO
100
AcDbLine
 62
7
  6
CONTINUOUS
 10
-12.4517835923
 20
3.720554798
 11
-17.0622550361
 21
3.8010308764
  0
LINE
  5
6F6
100
AcDbEntity
  8
RACCORDO
100
AcDbLine
 62
7
  6
CONTINUOUS
 10
-15.05893036
 20
2.455602011
 11
-15.0956971157
 21
2.4611574452
  0
LINE
  5
6F7
100
AcDbEntity
  8
ASSI
100
AcDbLine
 62
7
  6
CONTINUOUS
 10
-15.05893036
 20
2.455602011
 11
-15.0956971157
 21
2.4611574452
  0
LINE
  5
6F8
100
AcDbEntity
  8
RACCORDO
100
AcDbLine
 62
7
  6
CONTINUOUS
 10
-18.0622550361
 20
-3.6602422559
 11
-18.0622550361
 21
-3.6340483542
  0
LINE
  5
6F9
100
AcDbEntity
  8
ASSI
100
AcDbLine
 62
7
  6
CONTINUOUS
 10
-18.0622550361
 20
-3.6602422559
 11
-18.0622550361
 21
-3.6340483542
  0
LINE
  5
6FA
100
AcDbEntity
  8
RACCORDO
100
AcDbLine
 62
7
  6
CONTINUOUS
 10
-18.0622550361
 20
3.7961101069
 11
-18.0622550361
 21
3.8223040086
  0
LINE
  5
6FB
100
AcDbEntity
  8
ASSI
100
AcDbLine
 62
7
  6
CONTINUOUS
 10
-18.0622550361
 20
3.7961101069
 11
-18.0622550361
 21
3.8223040086
  0
LINE
  5
6FC
100
AcDbEntity
  8
RACCORDO
100
AcDbLine
 62
253
  6
CONTINUOUS
 10
-17.649079125
 20
-3.6638479874
 11
-17.649079125
 21
-3.6484767749
  0
LINE
  5
6FD
100
AcDbEntity
  8
ASSI
100
AcDbLine
 62
253
  6
CONTINUOUS
 10
-17.649079125
 20
-3.6638479874
 11
-17.649079125
 21
-3.6484767749
  0
LINE
  5
6FE
100
AcDbEntity
  8
RACCORDO
100
AcDbLine
 62
253
  6
CONTINUOUS
 10
-17.649079125
 20
3.8105385276
 11
-17.649079125
 21
3.8259097401
  0
LINE
  5
6FF
100
AcDbEntity
  8
ASSI
100
AcDbLine
 62
253
  6
CONTINUOUS
 10
-17.649079125
 20
3.8105385276
 11
-17.649079125
 21
3.8259097401
  0
LINE
  5
700
100
AcDbEntity
  8
DRAFT
100
AcDbLine
 62
7
  6
CONTINUOUS
 10
-17.3612678422
 20
0.1596119673
 11
-17.3612678422
 21
0.0024497855
  0
LINE
  5
701
100
AcDbEntity
  8
ASSI
100
AcDbLine
 62
7
  6
CONTINUOUS
 10
-17.3612678422
 20
0.1596119673
 11
-17.3612678422
 21
0.0024497855
  0
LINE
  5
702
100
AcDbEntity
  8
DRAFT
100
AcDbLine
 62
7
  6
CONTINUOUS
 10
-17.1612478555
 20
0.2754299706
 11
-17.1612478555
 21
-0.1133682179
  0
LINE
  5
703
100
AcDbEntity
  8
ASSI
100
AcDbLine
 62
7
  6
CONTINUOUS
 10
-17.1612478555
 20
0.2754299706
 11
-17.1612478555
 21
-0.1133682179
  0
LINE
  5
704
100
AcDbEntity
  8
RACCORDO
100
AcDbLine
 62
7
  6
CONTINUOUS
 10
-17.0622550361
 20
-3.6689691236
 11
-17.0622550361
 21
-2.4999885719
  0
LINE
  5
705
100
AcDbEntity
  8
DRAFT
100
AcDbLine
 62
7
  6
CONTINUOUS
 10
-17.0622550361
 20
-2.4999885719
 11
-17.0622550361
 21
-1.9763856726
  0
LINE
  5
706
100
AcDbEntity
  8
ASSI
100
AcDbLine
 62
7
  6
CONTINUOUS
 10
-17.0622550361
 20
-2.4999885719
 11
-17.0622550361
 21
-1.9763856726
  0
LINE
  5
707
100
AcDbEntity
  8
DRAFT
100
AcDbLine
 62
7
  6
CONTINUOUS
 10
-17.0622550361
 20
2.1384474253
 11
-17.0622550361
 21
2.6620503246
  0
LINE
  5
708
100
AcDbEntity
  8
ASSI
100
AcDbLine
 62
7
  6
CONTINUOUS
 10
-17.0622550361
 20
2.1384474253
 11
-17.0622550361
 21
2.6620503246
  0
LINE
  5
709
100
AcDbEntity
  8
RACCORDO
100
AcDbLine
 62
7
  6
CONTINUOUS
 10
-17.0622550361
 20
2.6620503246
 11
-17.0622550361
 21
3.8310308764
  0
LINE
  5
70A
100
AcDbEntity
  8
DRAFT
100
AcDbLine
 62
7
  6
CONTINUOUS
 10
-16.3639915319
 20
-0.113820998
 11
-16.3639915319
 21
0.2758827507
  0
LINE
  5
70B
100
AcDbEntity
  8
ASSI
100
AcDbLine
 62
7
  6
CONTINUOUS
 10
-16.3639915319
 20
-0.113820998
 11
-16.3639915319
 21
0.2758827507
  0
LINE
  5
70C
100
AcDbEntity
  8
DRAFT
100
AcDbLine
 62
7
  6
CONTINUOUS
 10
-16.1635165181
 20
0.0023009334
 11
-16.1635165181
 21
0.1597608193
  0
LINE
  5
70D
100
AcDbEntity
  8
ASSI
100
AcDbLine
 62
7
  6
CONTINUOUS
 10
-16.1635165181
 20
0.0023009334
 11
-16.1635165181
 21
0.1597608193
  0
LINE
  5
70E
100
AcDbEntity
  8
0
100
AcDbLine
 62
7
  6
CONTINUOUS
 10
-16.5692641099
 20
-0.1998451758
 11
-16.5398282239
 21
-0.0899889538
  0
LINE
  5
70F
100
AcDbEntity
  8
DRAFT
100
AcDbLine
 62
7
  6
CONTINUOUS
 10
-16.5377908783
 20
-1.6278667986
 11
-16.5833865429
 21
-1.7980321353
  0
LINE
  5
710
100
AcDbEntity
  8
0
100
AcDbLine
 62
7
  6
CONTINUOUS
 10
-16.4716485409
 20
-1.7673905656
 11
-16.422405349
 21
-1.5836124714
  0
LINE
  5
711
100
AcDbEntity
  8
0
100
AcDbLine
 62
7
  6
CONTINUOUS
 10
-16.1362297675
 20
-0.5155906612
 11
-16.0863418994
 21
-0.3294066029
  0
LINE
  5
712
100
AcDbEntity
  8
DRAFT
100
AcDbLine
 62
7
  6
CONTINUOUS
 10
-15.5622550361
 20
3.8834120306
 11
-15.5622550361
 21
3.8179405747
  0
LINE
  5
713
100
AcDbEntity
  8
DRAFT
100
AcDbLine
 62
7
  6
CONTINUOUS
 10
-15.5622550361
 20
-3.655878822
 11
-15.5622550361
 21
-3.7213502779
  0
LWPOLYLINE
  5
714
100
AcDbEntity
  8
RACCORDO
100
AcDbPolyline
 62
253
  6
CONTINUOUS
 90
16
 70
0
 10
-14.8479055911
 20
1.9643324357
 10
-14.8496434326
 20
1.9959487273
 10
-14.8544740916
 20
2.0266175277
 10
-14.8623975681
 20
2.0563388367
 10
-14.8735667414
 20
2.0854288251
 10
-14.8878287323
 20
2.1135713221
 10
-14.9047249031
 20
2.1398178159
 10
-14.9243401476
 20
2.1640910458
 10
-14.9465895719
 20
2.1864682723
 10
-14.9707598574
 20
2.2062327651
 10
-14.9969362316
 20
2.2233007352
 10
-15.0250334669
 20
2.2377559716
 10
-15.0540825616
 20
2.2491331099
 10
-15.083760515
 20
2.2572770289
 10
-15.1143903278
 20
2.2623428499
 10
-15.1459719998
 20
2.2643305729
  0
LWPOLYLINE
  5
715
100
AcDbEntity
  8
ASSI
100
AcDbPolyline
 62
253
  6
CONTINUOUS
 90
16
 70
0
 10
-14.8479055911
 20
1.9643324357
 10
-14.8496434326
 20
1.9959487273
 10
-14.8544740916
 20
2.0266175277
 10
-14.8623975681
 20
2.0563388367
 10
-14.8735667414
 20
2.0854288251
 10
-14.8878287323
 20
2.1135713221
 10
-14.9047249031
 20
2.1398178159
 10
-14.9243401476
 20
2.1640910458
 10
-14.9465895719
 20
2.1864682723
 10
-14.9707598574
 20
2.2062327651
 10
-14.9969362316
 20
2.2233007352
 10
-15.0250334669
 20
2.2377559716
 10
-15.0540825616
 20
2.2491331099
 10
-15.083760515
 20
2.2572770289
 10
-15.1143903278
 20
2.2623428499
 10
-15.1459719998
 20
2.2643305729
  0
LWPOLYLINE
  5
716
100
AcDbEntity
  8
RACCORDO
100
AcDbPolyline
 62
253
  6
CONTINUOUS
 90
15
 70
0
 10
-14.6516701655
 20
1.9643324357
 10
-14.65437633
 20
2.0162611611
 10
-14.6624675717
 20
2.0676409688
 10
-14.6758604927
 20
2.1179152583
 10
-14.6944165749
 20
2.1665426129
 10
-14.7179375429
 20
2.212990635
 10
-14.7461634525
 20
2.2567437028
 10
-14.7787866555
 20
2.2973245178
 10
-14.8154561509
 20
2.3342968236
 10
-14.855772456
 20
2.3672596019
 10
-14.8992979634
 20
2.3958546729
 10
-14.9455633245
 20
2.4197736868
 10
-14.9940704822
 20
2.4387593647
 10
-15.044296262
 20
2.452604784
 10
-15.05893036
 20
2.455602011
  0
LWPOLYLINE
  5
717
100
AcDbEntity
  8
ASSI
100
AcDbPolyline
 62
253
  6
CONTINUOUS
 90
15
 70
0
 10
-14.6516701655
 20
1.9643324357
 10
-14.65437633
 20
2.0162611611
 10
-14.6624675717
 20
2.0676409688
 10
-14.6758604927
 20
2.1179152583
 10
-14.6944165749
 20
2.1665426129
 10
-14.7179375429
 20
2.212990635
 10
-14.7461634525
 20
2.2567437028
 10
-14.7787866555
 20
2.2973245178
 10
-14.8154561509
 20
2.3342968236
 10
-14.855772456
 20
2.3672596019
 10
-14.8992979634
 20
2.3958546729
 10
-14.9455633245
 20
2.4197736868
 10
-14.9940704822
 20
2.4387593647
 10
-15.044296262
 20
2.452604784
 10
-15.05893036
 20
2.455602011
  0
LWPOLYLINE
  5
718
100
AcDbEntity
  8
RACCORDO
100
AcDbPolyline
 62
253
  6
CONTINUOUS
 90
6
 70
0
 10
-15.1456670376
 20
2.3928728287
 10
-15.1458821388
 20
2.4175227501
 10
-15.1462060053
 20
2.4375189052
 10
-15.1466287984
 20
2.4522538385
 10
-15.1471376742
 20
2.4612799227
 10
-15.147717174
 20
2.4643229576
  0
LWPOLYLINE
  5
719
100
AcDbEntity
  8
ASSI
100
AcDbPolyline
 62
253
  6
CONTINUOUS
 90
6
 70
0
 10
-15.1456670376
 20
2.3928728287
 10
-15.1458821388
 20
2.4175227501
 10
-15.1462060053
 20
2.4375189052
 10
-15.1466287984
 20
2.4522538385
 10
-15.1471376742
 20
2.4612799227
 10
-15.147717174
 20
2.4643229576
  0
LINE
  5
71A
100
AcDbEntity
  8
RACCORDO
100
AcDbLine
 62
253
  6
CONTINUOUS
 10
-15.1459719998
 20
-2.1022688202
 11
-15.1455858425
 21
-2.1706588198
  0
LINE
  5
71B
100
AcDbEntity
  8
ASSI
100
AcDbLine
 62
253
  6
CONTINUOUS
 10
-15.1459719998
 20
-2.1022688202
 11
-15.1455858425
 21
-2.1706588198
  0
LINE
  5
71C
100
AcDbEntity
  8
RACCORDO
100
AcDbLine
 62
253
  6
CONTINUOUS
 10
-14.8479055911
 20
-1.8022706829
 11
-14.8479055911
 21
-1.6314381396
  0
LINE
  5
71D
100
AcDbEntity
  8
ASSI
100
AcDbLine
 62
253
  6
CONTINUOUS
 10
-14.8479055911
 20
-1.8022706829
 11
-14.8479055911
 21
-1.6314381396
  0
LINE
  5
71E
100
AcDbEntity
  8
RACCORDO
100
AcDbLine
 62
253
  6
CONTINUOUS
 10
-14.8479055911
 20
1.7934998923
 11
-14.8479055911
 21
1.9643324357
  0
LINE
  5
71F
100
AcDbEntity
  8
ASSI
100
AcDbLine
 62
253
  6
CONTINUOUS
 10
-14.8479055911
 20
1.7934998923
 11
-14.8479055911
 21
1.9643324357
  0
LINE
  5
720
100
AcDbEntity
  8
RACCORDO
100
AcDbLine
 62
253
  6
CONTINUOUS
 10
-14.6516701655
 20
-1.8022706829
 11
-14.6516701655
 21
-1.6348634417
  0
LINE
  5
721
100
AcDbEntity
  8
ASSI
100
AcDbLine
 62
253
  6
CONTINUOUS
 10
-14.6516701655
 20
-1.8022706829
 11
-14.6516701655
 21
-1.6348634417
  0
LINE
  5
722
100
AcDbEntity
  8
RACCORDO
100
AcDbLine
 62
253
  6
CONTINUOUS
 10
-14.6516701655
 20
1.7969251944
 11
-14.6516701655
 21
1.9643324357
  0
LINE
  5
723
100
AcDbEntity
  8
ASSI
100
AcDbLine
 62
253
  6
CONTINUOUS
 10
-14.6516701655
 20
1.7969251944
 11
-14.6516701655
 21
1.9643324357
  0
LINE
  5
724
100
AcDbEntity
  8
RACCORDO
100
AcDbLine
 62
7
  6
CONTINUOUS
 10
-14.598238769
 20
-1.8018043942
 11
-14.598238769
 21
-1.6357960902
  0
LINE
  5
725
100
AcDbEntity
  8
ASSI
100
AcDbLine
 62
7
  6
CONTINUOUS
 10
-14.598238769
 20
-1.8018043942
 11
-14.598238769
 21
-1.6357960902
  0
LINE
  5
726
100
AcDbEntity
  8
RACCORDO
100
AcDbLine
 62
7
  6
CONTINUOUS
 10
-14.598238769
 20
1.7978578429
 11
-14.598238769
 21
1.9638661469
  0
LINE
  5
727
100
AcDbEntity
  8
ASSI
100
AcDbLine
 62
7
  6
CONTINUOUS
 10
-14.598238769
 20
1.7978578429
 11
-14.598238769
 21
1.9638661469
  0
LINE
  5
728
100
AcDbEntity
  8
RACCORDO
100
AcDbLine
 62
7
  6
CONTINUOUS
 10
-14.5622550361
 20
-2.0368315253
 11
-14.5622550361
 21
2.198893278
  0
LINE
  5
729
100
AcDbEntity
  8
RACCORDO
100
AcDbLine
 62
253
  6
CONTINUOUS
 10
-15.1455857688
 20
2.3327256358
 11
-15.1456670376
 21
2.3928728287
  0
LINE
  5
72A
100
AcDbEntity
  8
ASSI
100
AcDbLine
 62
253
  6
CONTINUOUS
 10
-15.1455857688
 20
2.3327256358
 11
-15.1456670376
 21
2.3928728287
  0
LWPOLYLINE
  5
72B
100
AcDbEntity
  8
RACCORDO
100
AcDbPolyline
 62
253
  6
CONTINUOUS
 90
7
 70
0
 10
-15.1455858425
 20
-2.1706588198
 10
-15.1456670888
 20
-2.2308053771
 10
-15.1458821649
 20
-2.2554563652
 10
-15.1462060084
 20
-2.2754539882
 10
-15.1466287856
 20
-2.2901904221
 10
-15.1471376568
 20
-2.2992176915
 10
-15.1477171649
 20
-2.3022612048
  0
LWPOLYLINE
  5
72C
100
AcDbEntity
  8
ASSI
100
AcDbPolyline
 62
253
  6
CONTINUOUS
 90
7
 70
0
 10
-15.1455858425
 20
-2.1706588198
 10
-15.1456670888
 20
-2.2308053771
 10
-15.1458821649
 20
-2.2554563652
 10
-15.1462060084
 20
-2.2754539882
 10
-15.1466287856
 20
-2.2901904221
 10
-15.1471376568
 20
-2.2992176915
 10
-15.1477171649
 20
-2.3022612048
  0
LINE
  5
72D
100
AcDbEntity
  8
RACCORDO
100
AcDbLine
 62
253
  6
CONTINUOUS
 10
-15.1459719998
 20
2.2643305729
 11
-15.1455857688
 21
2.3327256358
  0
LINE
  5
72E
100
AcDbEntity
  8
ASSI
100
AcDbLine
 62
253
  6
CONTINUOUS
 10
-15.1459719998
 20
2.2643305729
 11
-15.1455857688
 21
2.3327256358
  0
LINE
  5
72F
100
AcDbEntity
  8
RACCORDO
100
AcDbLine
 62
253
  6
CONTINUOUS
 10
-12.4517835923
 20
-2.9585844281
 11
-12.4490550171
 21
-3.1444944995
  0
LWPOLYLINE
  5
730
100
AcDbEntity
  8
RACCORDO
100
AcDbPolyline
 62
253
  6
CONTINUOUS
 90
7
 70
0
 10
-12.4476367489
 20
3.6068367019
 10
-12.4479641482
 20
3.6410059818
 10
-12.4484490773
 20
3.6694376946
 10
-12.4490833252
 20
3.6917417244
 10
-12.4498570265
 20
3.7077313056
 10
-12.4507608725
 20
3.7173440593
 10
-12.4517835923
 20
3.720554798
  0
LINE
  5
731
100
AcDbEntity
  8
RACCORDO
100
AcDbLine
 62
253
  6
CONTINUOUS
 10
-12.4490550171
 20
-3.1444944995
 11
-12.4479463908
 21
-3.2593521415
  0
LINE
  5
732
100
AcDbEntity
  8
RACCORDO
100
AcDbLine
 62
253
  6
CONTINUOUS
 10
-12.4479463908
 20
-3.2593521415
 11
-12.447467041
 21
-3.3609226751
  0
LINE
  5
733
100
AcDbEntity
  8
RACCORDO
100
AcDbLine
 62
253
  6
CONTINUOUS
 10
-12.4517835923
 20
-2.9585844281
 11
-12.4517835923
 21
3.1206461809
  0
LINE
  5
734
100
AcDbEntity
  8
RACCORDO
100
AcDbLine
 62
253
  6
CONTINUOUS
 10
-12.4474670411
 20
3.5229843142
 11
-12.4476367489
 21
3.6068367019
  0
LWPOLYLINE
  5
735
100
AcDbEntity
  8
RACCORDO
100
AcDbPolyline
 62
253
  6
CONTINUOUS
 90
8
 70
0
 10
-12.447467041
 20
-3.3609226751
 10
-12.4476367497
 20
-3.444775069
 10
-12.4479641496
 20
-3.4789443333
 10
-12.4484490793
 20
-3.5073760237
 10
-12.4490833272
 20
-3.5296800264
 10
-12.4498570277
 20
-3.5456695809
 10
-12.4507608721
 20
-3.5552823145
 10
-12.4517835893
 20
-3.5584930452
  0
LINE
  5
736
100
AcDbEntity
  8
RACCORDO
100
AcDbLine
 62
253
  6
CONTINUOUS
 10
-12.4479463914
 20
3.4214138022
 11
-12.4474670411
 21
3.5229843142
  0
LINE
  5
737
100
AcDbEntity
  8
RACCORDO
100
AcDbLine
 62
253
  6
CONTINUOUS
 10
-12.4498309702
 20
3.2457364944
 11
-12.4479463914
 21
3.4214138022
  0
LINE
  5
738
100
AcDbEntity
  8
RACCORDO
100
AcDbLine
 62
253
  6
CONTINUOUS
 10
-12.4517835923
 20
3.1206461809
 11
-12.4498309702
 21
3.2457364944
  0
LWPOLYLINE
  5
739
100
AcDbEntity
  8
RACCORDO
100
AcDbPolyline
 62
253
  6
CONTINUOUS
 90
4
 70
0
 10
-12.3078917684
 20
3.7895401767
 10
-12.3076843709
 20
3.7872591985
 10
-12.3075230533
 20
3.7804897552
 10
-12.3074127144
 20
3.7694378524
  0
LWPOLYLINE
  5
73A
100
AcDbEntity
  8
ASSI
100
AcDbPolyline
 62
253
  6
CONTINUOUS
 90
4
 70
0
 10
-12.3078917684
 20
3.7895401767
 10
-12.3076843709
 20
3.7872591985
 10
-12.3075230533
 20
3.7804897552
 10
-12.3074127144
 20
3.7694378524
  0
LINE
  5
73B
100
AcDbEntity
  8
RACCORDO
100
AcDbLine
 62
253
  6
CONTINUOUS
 10
-12.3073566863
 20
-3.5738947145
 11
-12.3074823836
 21
-3.5375171884
  0
LINE
  5
73C
100
AcDbEntity
  8
ASSI
100
AcDbLine
 62
253
  6
CONTINUOUS
 10
-12.3073566863
 20
-3.5738947145
 11
-12.3074823836
 21
-3.5375171884
  0
LINE
  5
73D
100
AcDbEntity
  8
RACCORDO
100
AcDbLine
 62
253
  6
CONTINUOUS
 10
-12.3074127144
 20
3.7694378524
 11
-12.3073567173
 21
3.735950816
  0
LINE
  5
73E
100
AcDbEntity
  8
ASSI
100
AcDbLine
 62
253
  6
CONTINUOUS
 10
-12.3074127144
 20
3.7694378524
 11
-12.3073567173
 21
3.735950816
  0
LINE
  5
73F
100
AcDbEntity
  8
RACCORDO
100
AcDbLine
 62
7
  6
CONTINUOUS
 10
-11.8622550361
 20
-2.9585844281
 11
-11.8622550361
 21
3.1206461809
  0
LINE
  5
740
100
AcDbEntity
  8
RACCORDO
100
AcDbLine
 62
7
  6
CONTINUOUS
 10
-11.8122550361
 20
3.2893950498
 11
-11.8122550361
 21
-3.1273842445
  0
LINE
  5
741
100
AcDbEntity
  8
ASSI
100
AcDbLine
 62
7
  6
CONTINUOUS
 10
-11.8122550361
 20
3.2893950498
 11
-11.8122550361
 21
-3.1273842445
  0
LINE
  5
742
100
AcDbEntity
  8
RACCORDO
100
AcDbLine
 62
253
  6
CONTINUOUS
 10
-12.3073567173
 20
3.735950816
 11
-12.307482402
 21
3.6995789463
  0
LINE
  5
743
100
AcDbEntity
  8
ASSI
100
AcDbLine
 62
253
  6
CONTINUOUS
 10
-12.3073567173
 20
3.735950816
 11
-12.307482402
 21
3.6995789463
  0
LWPOLYLINE
  5
744
100
AcDbEntity
  8
RACCORDO
100
AcDbPolyline
 62
253
  6
CONTINUOUS
 90
5
 70
0
 10
-12.3078917684
 20
-3.627478424
 10
-12.3076843804
 20
-3.6251979104
 10
-12.3075230616
 20
-3.6184296222
 10
-12.307412713
 20
-3.6073791908
 10
-12.3073566863
 20
-3.5738947145
  0
LWPOLYLINE
  5
745
100
AcDbEntity
  8
ASSI
100
AcDbPolyline
 62
253
  6
CONTINUOUS
 90
5
 70
0
 10
-12.3078917684
 20
-3.627478424
 10
-12.3076843804
 20
-3.6251979104
 10
-12.3075230616
 20
-3.6184296222
 10
-12.307412713
 20
-3.6073791908
 10
-12.3073566863
 20
-3.5738947145
  0
ARC
  5
746
100
AcDbEntity
  8
RACCORDO
100
AcDbCircle
 62
7
  6
CONTINUOUS
 10
-16.7622550361
 20
-0.9189691236
 40
1.6
100
AcDbArc
 50
301.7143149194
 51
38.6821874535
  0
ARC
  5
747
100
AcDbEntity
  8
RACCORDO
100
AcDbCircle
 62
7
  6
CONTINUOUS
 10
-16.7622550361
 20
-0.9189691236
 40
1.6
100
AcDbArc
 50
201.7867892983
 51
238.7016622811
  0
ARC
  5
748
100
AcDbEntity
  8
ASSI
100
AcDbCircle
 62
7
  6
CONTINUOUS
 10
-16.7622550361
 20
-0.9189691236
 40
1.6
100
AcDbArc
 50
301.7143149194
 51
38.6821874535
  0
ARC
  5
749
100
AcDbEntity
  8
ASSI
100
AcDbCircle
 62
7
  6
CONTINUOUS
 10
-16.7622550361
 20
-0.9189691236
 40
1.6
100
AcDbArc
 50
201.7867892983
 51
238.7016622811
  0
CIRCLE
  5
74A
100
AcDbEntity
  8
0
100
AcDbCircle
 62
7
  6
CONTINUOUS
 10
-16.7622550361
 20
-0.9189691236
 40
0.75
  0
ARC
  5
74B
100
AcDbEntity
  8
RACCORDO
100
AcDbCircle
 62
7
  6
CONTINUOUS
 10
-17.7622550361
 20
-2.3058171404
 40
0.5
100
AcDbArc
 50
180.0
 51
210.5064810837
  0
ARC
  5
74C
100
AcDbEntity
  8
ASSI
100
AcDbCircle
 62
7
  6
CONTINUOUS
 10
-17.7622550361
 20
-2.3058171404
 40
0.5
100
AcDbArc
 50
180.0
 51
210.5064810837
  0
ARC
  5
74D
100
AcDbEntity
  8
RACCORDO
100
AcDbCircle
 62
7
  6
CONTINUOUS
 10
-18.8122550361
 20
-3.1075475378
 40
0.5
100
AcDbArc
 50
180.0006264786
 51
268.0000218541
  0
CIRCLE
  5
74E
100
AcDbEntity
  8
0
100
AcDbCircle
 62
7
  6
CONTINUOUS
 10
-16.7622550361
 20
-0.9189691236
 40
0.4
  0
ARC
  5
74F
100
AcDbEntity
  8
RACCORDO
100
AcDbCircle
 62
7
  6
CONTINUOUS
 10
-20.0122550361
 20
-1.3567048798
 40
0.3
100
AcDbArc
 50
180.0
 51
269.0
  0
ARC
  5
750
100
AcDbEntity
  8
RACCORDO
100
AcDbCircle
 62
7
  6
CONTINUOUS
 10
-17.4895470867
 20
-2.1152325867
 40
0.2
100
AcDbArc
 50
238.7016622811
 51
269.5
  0
ARC
  5
751
100
AcDbEntity
  8
RACCORDO
100
AcDbCircle
 62
7
  6
CONTINUOUS
 10
-18.0622550361
 20
-1.4385843659
 40
0.2
100
AcDbArc
 50
180.0
 51
201.7867892983
  0
ARC
  5
752
100
AcDbEntity
  8
ASSI
100
AcDbCircle
 62
7
  6
CONTINUOUS
 10
-17.4895470867
 20
-2.1152325867
 40
0.2
100
AcDbArc
 50
238.7016622811
 51
269.5
  0
ARC
  5
753
100
AcDbEntity
  8
ASSI
100
AcDbCircle
 62
7
  6
CONTINUOUS
 10
-18.0622550361
 20
-1.4385843659
 40
0.2
100
AcDbArc
 50
180.0
 51
201.7867892983
  0
ARC
  5
754
100
AcDbEntity
  8
RACCORDO
100
AcDbCircle
 62
7
  6
CONTINUOUS
 10
-19.5122550361
 20
-1.8655085763
 40
0.2
100
AcDbArc
 50
0.0
 51
89.0000119293
  0
ARC
  5
755
100
AcDbEntity
  8
RACCORDO
100
AcDbCircle
 62
7
  6
CONTINUOUS
 10
-18.1122550361
 20
-0.3726708203
 40
0.2
100
AcDbArc
 50
138.7022362975
 51
180.0
  0
ARC
  5
756
100
AcDbEntity
  8
RACCORDO
100
AcDbCircle
 62
7
  6
CONTINUOUS
 10
-16.7622550361
 20
1.0810308764
 40
1.6
100
AcDbArc
 50
321.3178125465
 51
58.2856850806
  0
ARC
  5
757
100
AcDbEntity
  8
RACCORDO
100
AcDbCircle
 62
7
  6
CONTINUOUS
 10
-16.7622550361
 20
1.0810308764
 40
1.6
100
AcDbArc
 50
121.2983377189
 51
158.2132107017
  0
ARC
  5
758
100
AcDbEntity
  8
ASSI
100
AcDbCircle
 62
7
  6
CONTINUOUS
 10
-16.7622550361
 20
1.0810308764
 40
1.6
100
AcDbArc
 50
321.3178125465
 51
58.2856850806
  0
ARC
  5
759
100
AcDbEntity
  8
ASSI
100
AcDbCircle
 62
7
  6
CONTINUOUS
 10
-16.7622550361
 20
1.0810308764
 40
1.6
100
AcDbArc
 50
121.2983377189
 51
158.2132107017
  0
CIRCLE
  5
75A
100
AcDbEntity
  8
0
100
AcDbCircle
 62
7
  6
CONTINUOUS
 10
-16.7622550361
 20
1.0810308764
 40
0.75
  0
ARC
  5
75B
100
AcDbEntity
  8
RACCORDO
100
AcDbCircle
 62
7
  6
CONTINUOUS
 10
-17.7622550361
 20
2.4678788931
 40
0.5
100
AcDbArc
 50
149.4935189164
 51
180.0
  0
ARC
  5
75C
100
AcDbEntity
  8
ASSI
100
AcDbCircle
 62
7
  6
CONTINUOUS
 10
-17.7622550361
 20
2.4678788931
 40
0.5
100
AcDbArc
 50
149.4935189164
 51
180.0
  0
ARC
  5
75D
100
AcDbEntity
  8
RACCORDO
100
AcDbCircle
 62
7
  6
CONTINUOUS
 10
-18.8122550361
 20
3.2696091157
 40
0.5
100
AcDbArc
 50
91.9999774483
 51
179.9993534814
  0
CIRCLE
  5
75E
100
AcDbEntity
  8
0
100
AcDbCircle
 62
7
  6
CONTINUOUS
 10
-16.7622550361
 20
1.0810308764
 40
0.4
  0
ARC
  5
75F
100
AcDbEntity
  8
RACCORDO
100
AcDbCircle
 62
7
  6
CONTINUOUS
 10
-20.0122550361
 20
1.5187666325
 40
0.3
100
AcDbArc
 50
91.0
 51
180.0
  0
ARC
  5
760
100
AcDbEntity
  8
RACCORDO
100
AcDbCircle
 62
7
  6
CONTINUOUS
 10
-17.4895470867
 20
2.2772943394
 40
0.2
100
AcDbArc
 50
90.5
 51
121.2983377189
  0
ARC
  5
761
100
AcDbEntity
  8
RACCORDO
100
AcDbCircle
 62
7
  6
CONTINUOUS
 10
-18.0622550361
 20
1.6006461186
 40
0.2
100
AcDbArc
 50
158.2132107017
 51
180.0
  0
ARC
  5
762
100
AcDbEntity
  8
ASSI
100
AcDbCircle
 62
7
  6
CONTINUOUS
 10
-17.4895470867
 20
2.2772943394
 40
0.2
100
AcDbArc
 50
90.5
 51
121.2983377189
  0
ARC
  5
763
100
AcDbEntity
  8
ASSI
100
AcDbCircle
 62
7
  6
CONTINUOUS
 10
-18.0622550361
 20
1.6006461186
 40
0.2
100
AcDbArc
 50
158.2132107017
 51
180.0
  0
ARC
  5
764
100
AcDbEntity
  8
RACCORDO
100
AcDbCircle
 62
7
  6
CONTINUOUS
 10
-19.5122550361
 20
2.027570329
 40
0.2
100
AcDbArc
 50
271.0
 51
360.0
  0
ARC
  5
765
100
AcDbEntity
  8
RACCORDO
100
AcDbCircle
 62
7
  6
CONTINUOUS
 10
-18.1122550361
 20
0.994732573
 40
0.2
100
AcDbArc
 50
180.0
 51
221.2977640754
  0
ARC
  5
766
100
AcDbEntity
  8
RACCORDO
100
AcDbCircle
 62
7
  6
CONTINUOUS
 10
-12.4622550361
 20
-2.9585844281
 40
0.6
100
AcDbArc
 50
271.0
 51
360.0
  0
ARC
  5
767
100
AcDbEntity
  8
RACCORDO
100
AcDbCircle
 62
7
  6
CONTINUOUS
 10
-12.3122550361
 20
-3.127491987
 40
0.5
100
AcDbArc
 50
270.499994527
 51
359.9993725557
  0
ARC
  5
768
100
AcDbEntity
  8
ASSI
100
AcDbCircle
 62
7
  6
CONTINUOUS
 10
-12.3122550361
 20
-3.127491987
 40
0.5
100
AcDbArc
 50
270.499994527
 51
359.9993725557
  0
ARC
  5
769
100
AcDbEntity
  8
RACCORDO
100
AcDbCircle
 62
7
  6
CONTINUOUS
 10
-14.9122550361
 20
-2.0368315253
 40
0.35
100
AcDbArc
 50
273.0
 51
360.0
  0
ARC
  5
76A
100
AcDbEntity
  8
RACCORDO
100
AcDbCircle
 62
7
  6
CONTINUOUS
 10
-16.0262971513
 20
-2.1099208405
 40
0.2
100
AcDbArc
 50
270.5
 51
301.7143149194
  0
ARC
  5
76B
100
AcDbEntity
  8
ASSI
100
AcDbCircle
 62
7
  6
CONTINUOUS
 10
-16.0262971513
 20
-2.1099208405
 40
0.2
100
AcDbArc
 50
270.5
 51
301.7143149194
  0
ARC
  5
76C
100
AcDbEntity
  8
DRAFT
100
AcDbCircle
 62
7
  6
CONTINUOUS
 10
-15.5622550361
 20
0.0810308764
 40
2.2
100
AcDbArc
 50
200.0883146301
 51
207.8619718643
  0
ARC
  5
76D
100
AcDbEntity
  8
DRAFT
100
AcDbCircle
 62
7
  6
CONTINUOUS
 10
-15.5622550361
 20
0.0810308764
 40
2.2
100
AcDbArc
 50
152.1284458219
 51
159.9211106176
  0
ARC
  5
76E
100
AcDbEntity
  8
DRAFT
100
AcDbCircle
 62
7
  6
CONTINUOUS
 10
-15.5622550361
 20
0.0810308764
 40
2.2
100
AcDbArc
 50
124.9057227251
 51
128.1596397213
  0
ARC
  5
76F
100
AcDbEntity
  8
RACCORDO
100
AcDbCircle
 62
7
  6
CONTINUOUS
 10
-12.4622550361
 20
3.1206461809
 40
0.6
100
AcDbArc
 50
0.0
 51
89.0
  0
ARC
  5
770
100
AcDbEntity
  8
RACCORDO
100
AcDbCircle
 62
7
  6
CONTINUOUS
 10
-12.3122550361
 20
3.2895592152
 40
0.5
100
AcDbArc
 50
359.981188034
 51
89.5
  0
ARC
  5
771
100
AcDbEntity
  8
ASSI
100
AcDbCircle
 62
7
  6
CONTINUOUS
 10
-12.3122550361
 20
3.2895592152
 40
0.5
100
AcDbArc
 50
359.981188034
 51
89.5
  0
ARC
  5
772
100
AcDbEntity
  8
RACCORDO
100
AcDbCircle
 62
7
  6
CONTINUOUS
 10
-14.9122550361
 20
2.198893278
 40
0.35
100
AcDbArc
 50
0.0
 51
87.0
  0
ARC
  5
773
100
AcDbEntity
  8
RACCORDO
100
AcDbCircle
 62
7
  6
CONTINUOUS
 10
-16.0262971513
 20
2.2719825932
 40
0.2
100
AcDbArc
 50
58.2856850806
 51
89.5
  0
ARC
  5
774
100
AcDbEntity
  8
ASSI
100
AcDbCircle
 62
7
  6
CONTINUOUS
 10
-16.0262971513
 20
2.2719825932
 40
0.2
100
AcDbArc
 50
58.2856850806
 51
89.5
  0
ELLIPSE
  5
775
100
AcDbEntity
  8
DRAFT
100
AcDbEllipse
 62
7
  6
CONTINUOUS
 10
-16.7630770847
 20
1.0810308764
 30
0.0
 11
0.8986285802
 21
0.0
 31
0.0
 40
0.9999995816
 41
5.1725642146
 42
10.5365348994
  0
ELLIPSE
  5
776
100
AcDbEntity
  8
DRAFT
100
AcDbEllipse
 62
7
  6
CONTINUOUS
 10
-16.7630770847
 20
-0.9189691236
 30
0.0
 11
0.8986285802
 21
0.0
 31
0.0
 40
0.9999995816
 41
2.029835715
 42
7.3938063997
  0
ELLIPSE
  5
777
100
AcDbEntity
  8
DRAFT
100
AcDbEllipse
 62
7
  6
CONTINUOUS
 10
-16.7627576759
 20
-0.9189691236
 30
0.0
 11
1.0990125844
 21
-0.0
 31
0.0
 40
0.9999998954
 41
-1.8468022765
 42
0.9941040743
  0
ELLIPSE
  5
778
100
AcDbEntity
  8
DRAFT
100
AcDbEllipse
 62
7
  6
CONTINUOUS
 10
-16.7627576759
 20
1.0810308764
 30
0.0
 11
1.0990125844
 21
-0.0
 31
0.0
 40
0.9999998954
 41
-0.9941040743
 42
1.8468022765
  0
ELLIPSE
  5
779
100
AcDbEntity
  8
RACCORDO
100
AcDbEllipse
 62
7
  6
CONTINUOUS
 10
-15.0991540384
 20
1.9638801143
 30
0.0
 11
0.5009007152
 21
-0.0038254608
 31
0.0
 40
0.9981726973
 41
0.0076230607
 42
1.4635937072
  0
ELLIPSE
  5
77A
100
AcDbEntity
  8
DRAFT
100
AcDbEllipse
 62
7
  6
CONTINUOUS
 10
-16.7617522709
 20
1.0810308764
 30
0.0
 11
1.0992869979
 21
0.0
 31
0.0
 40
0.9999998954
 41
1.8476822578
 42
4.1355613032
  0
ELLIPSE
  5
77B
100
AcDbEntity
  8
DRAFT
100
AcDbEllipse
 62
7
  6
CONTINUOUS
 10
-16.7617522709
 20
-0.9189691236
 30
0.0
 11
1.0992869979
 21
-0.0
 31
0.0
 40
0.9999998954
 41
2.147624004
 42
4.4355030494
  0
ELLIPSE
  5
77C
100
AcDbEntity
  8
RACCORDO
100
AcDbEllipse
 62
7
  6
CONTINUOUS
 10
-15.0991540384
 20
-1.8018183616
 30
0.0
 11
0.5009007152
 21
0.0038254608
 31
0.0
 40
0.9981726973
 41
-1.5697047011
 42
-0.0076230607
  0
ELLIPSE
  5
77D
100
AcDbEntity
  8
ASSI
100
AcDbEllipse
 62
7
  6
CONTINUOUS
 10
-16.7630770847
 20
1.0810308764
 30
0.0
 11
0.8986285802
 21
0.0
 31
0.0
 40
0.9999995816
 41
5.1725642146
 42
10.5365348994
  0
ELLIPSE
  5
77E
100
AcDbEntity
  8
ASSI
100
AcDbEllipse
 62
7
  6
CONTINUOUS
 10
-16.7630770847
 20
-0.9189691236
 30
0.0
 11
0.8986285802
 21
0.0
 31
0.0
 40
0.9999995816
 41
2.029835715
 42
7.3938063997
  0
ELLIPSE
  5
77F
100
AcDbEntity
  8
ASSI
100
AcDbEllipse
 62
7
  6
CONTINUOUS
 10
-16.7617522709
 20
-0.9189691236
 30
0.0
 11
1.0992869979
 21
-0.0
 31
0.0
 40
0.9999998954
 41
2.147624004
 42
4.4355030494
  0
ELLIPSE
  5
780
100
AcDbEntity
  8
ASSI
100
AcDbEllipse
 62
7
  6
CONTINUOUS
 10
-15.0991540384
 20
1.9638801143
 30
0.0
 11
0.5009007152
 21
-0.0038254608
 31
0.0
 40
0.9981726973
 41
0.0076230607
 42
1.4635937072
  0
ELLIPSE
  5
781
100
AcDbEntity
  8
ASSI
100
AcDbEllipse
 62
7
  6
CONTINUOUS
 10
-15.0991540384
 20
-1.8018183616
 30
0.0
 11
0.5009007152
 21
0.0038254608
 31
0.0
 40
0.9981726973
 41
-1.5697047011
 42
-0.0076230607
  0
ELLIPSE
  5
782
100
AcDbEntity
  8
ASSI
100
AcDbEllipse
 62
7
  6
CONTINUOUS
 10
-16.7627576759
 20
-0.9189691236
 30
0.0
 11
1.0990125844
 21
-0.0
 31
0.0
 40
0.9999998954
 41
-1.8468022765
 42
0.9941040743
  0
ELLIPSE
  5
783
100
AcDbEntity
  8
ASSI
100
AcDbEllipse
 62
7
  6
CONTINUOUS
 10
-16.7627576759
 20
1.0810308764
 30
0.0
 11
1.0990125844
 21
-0.0
 31
0.0
 40
0.9999998954
 41
-0.9941040743
 42
1.8468022765
  0
ELLIPSE
  5
784
100
AcDbEntity
  8
ASSI
100
AcDbEllipse
 62
7
  6
CONTINUOUS
 10
-16.7617522709
 20
1.0810308764
 30
0.0
 11
1.0992869979
 21
0.0
 31
0.0
 40
0.9999998954
 41
1.8476822578
 42
4.1355613032
  0
ENDSEC
  0
SECTION
  2
OBJECTS
  0
DICTIONARY
  5
C
100
AcDbDictionary
280
0
281
1
  3
ACAD_GROUP
350
D
  3
ACAD_MLINESTYLE
350
17
  3
ACAD_LAYOUT
350
1A
  3
ACAD_PLOTSETTINGS
350
19
  3
ACAD_PLOTSTYLENAME
350
E
  0
DICTIONARY
  5
D
102
{ACAD_REACTORS
330
C
102
}
100
AcDbDictionary
280
0
281
1
  0
ACDBDICTIONARYWDFLT
  5
E
102
{ACAD_REACTORS
330
C
102
}
100
AcDbDictionary
281
1
  3
Normal
350
F
100
AcDbDictionaryWithDefault
340
F
  0
DICTIONARY
  5
17
102
{ACAD_REACTORS
330
C
102
}
100
AcDbDictionary
280
0
281
1
  3
Standard
350
18
  0
DICTIONARY
  5
19
102
{ACAD_REACTORS
330
C
102
}
100
AcDbDictionary
281
1
  0
DICTIONARY
  5
1A
102
{ACAD_REACTORS
330
C
102
}
100
AcDbDictionary
281
1
  3
Model
350
785
  3
Layout1
350
786
  0
ACDBPLACEHOLDER
  5
F
102
{ACAD_REACTORS
330
E
102
}
  0
MLINESTYLE
  5
18
102
{ACAD_REACTORS
330
17
102
}
100
AcDbMlineStyle
  2
STANDARD
 70
0
  3

 62
256
 51
90.0
 52
90.0
 71
2
 49
0.5
 62
256
  6
BYLAYER
 49
-0.5
 62
256
  6
BYLAYER
  0
LAYOUT
  5
785
102
{ACAD_REACTORS
330
1A
102
}
100
AcDbPlotSettings
  1

  2
none_device
  4
ISO_A4_(297.00_x_210.00_MM)
  6

 40
0.0
 41
0.0
 42
0.0
 43
0.0
 44
297.0
 45
210.0
 46
0.0
 47
0.0
 48
0.0
 49
0.0
140
0.0
141
0.0
142
1.0
143
1.0
 70
1024
 72
1
 73
0
 74
0
  7

 75
0
147
1.0
148
0.0
149
0.0
100
AcDbLayout
  1
Model
 70
0
 71
0
 10
0.0
 20
0.0
 11
297.0
 21
210.0
 12
0.0
 22
0.0
 32
0.0
 14
0.0
 24
0.0
 34
0.0
 15
0.0
 25
0.0
 35
0.0
146
0.0
 13
0.0
 23
0.0
 33
0.0
 16
1.0
 26
0.0
 36
0.0
 17
0.0
 27
1.0
 37
0.0
 76
0
330
212
345
0
346
0
  0
LAYOUT
  5
786
102
{ACAD_REACTORS
330
1A
102
}
100
AcDbPlotSettings
  1

  2
none_device
  4
ISO_A4_(297.00_x_210.00_MM)
  6

 40
0.0
 41
0.0
 42
0.0
 43
0.0
 44
297.0
 45
210.0
 46
0.0
 47
0.0
 48
0.0
 49
0.0
140
0.0
141
0.0
142
1.0
143
1.0
 70
0
 72
1
 73
0
 74
0
  7

 75
0
147
1.0
148
0.0
149
0.0
100
AcDbLayout
  1
Layout1
 70
0
 71
1
 10
0.0
 20
0.0
 11
297.0
 21
210.0
 12
0.0
 22
0.0
 32
0.0
 14
0.0
 24
0.0
 34
0.0
 15
0.0
 25
0.0
 35
0.0
146
0.0
 13
0.0
 23
0.0
 33
0.0
 16
1.0
 26
0.0
 36
0.0
 17
0.0
 27
1.0
 37
0.0
 76
0
330
213
345
0
346
0
  0
ENDSEC
  0
EOF
