  0
SECTION
  2
HEADER
  9
$ACADVER
  1
AC1021
  9
$DWGCODEPAGE
  3
ANSI_1252
  9
$EXTMAX
 10
297.0
 20
210.0
 30
0.0
  9
$EXTMIN
 10
0.0
 20
0.0
 30
0.0
  9
$LIMMIN
 10
0.0
 20
0.0
  9
$LIMMAX
 10
297.0
 20
210.0
  9
$VIEWCTR
 10
148.5
 20
105.0
  9
$VIEWSIZE
 40
210.0
  9
$CLAYER
  8
0
  9
$LTSCALE
 40
16.335
  9
$CELTYPE
  6
BYLAYER
  9
$DIMSCALE
 40
1.0
  9
$DIMASZ
 40
3.0
  9
$DIMEXO
 40
0.5
  9
$DIMDLI
 40
11.286
  9
$DIMEXE
 40
1.5
  9
$DIMCEN
 40
2.673
  9
$DIMLFAC
 40
1.0
  9
$DIMBLK
  1
_FILLED
  9
$DIMALT
 70
0
  9
$DIMALTF
 40
0.0393700787
  9
$DIMTXT
 40
3.0
  9
$DIMTOL
 70
1
  9
$DIMLIM
 70
0
  9
$DIMTFAC
 40
1.0
  9
$DIMTP
 40
0.01
  9
$DIMTM
 40
0.01
  9
$DIMGAP
 40
0.625
  9
$DIMDSEP
 70
44
  9
$AUNITS
 70
0
  9
$PDMODE
 70
3
  9
$PDSIZE
 40
3.0
  9
$HANDSEED
  5
796
  9
$TILEMODE
 70
1
  9
$MEASUREMENT
 70
1
  9
$INSUNITS
 70
4
  0
ENDSEC
  0
SECTION
  2
CLASSES
  0
CLASS
  1
ACDBDICTIONARYWDFLT
  2
AcDbDictionaryWithDefault
  3
AutoCAD 2000
 90
0
 91
1
280
0
281
0
  0
CLASS
  1
ACDBPLACEHOLDER
  2
AcDbPlaceHolder
  3
AutoCAD 2000
 90
0
 91
1
280
0
281
0
  0
CLASS
  1
LAYOUT
  2
AcDbLayout
  3
AutoCAD 2000
 90
0
 91
0
280
0
281
0
  0
ENDSEC
  0
SECTION
  2
TABLES
  0
TABLE
  2
VPORT
  5
8
100
AcDbSymbolTable
 70
2
  0
VPORT
  5
1F4
100
AcDbSymbolTableRecord
100
AcDbViewportTableRecord
  2
*ACTIVE
 70
0
 10
0.0
 20
0.0
 11
1.0
 21
1.0
 12
148.5
 22
105.0
 13
0.0
 23
0.0
 14
1.0
 24
1.0
 15
0.0
 25
0.0
 16
0.0
 26
0.0
 36
1.0
 17
0.0
 27
0.0
 37
0.0
 40
210.0
 41
1.4142857143
 42
50.0
 43
0.0
 44
0.0
 50
0.0
 51
0.0
 71
0
 72
100
 73
1
 74
1
 75
0
 76
0
 77
0
 78
0
  0
ENDTAB
  0
TABLE
  2
LTYPE
  5
5
100
AcDbSymbolTable
 70
6
  0
LTYPE
  5
14
100
AcDbSymbolTableRecord
100
AcDbLinetypeTableRecord
  2
BYBLOCK
 70
0
  3

 72
65
 73
0
 40
0.0
  0
LTYPE
  5
15
100
AcDbSymbolTableRecord
100
AcDbLinetypeTableRecord
  2
BYLAYER
 70
0
  3

 72
65
 73
0
 40
0.0
  0
LTYPE
  5
16
100
AcDbSymbolTableRecord
100
AcDbLinetypeTableRecord
  2
CONTINUOUS
 70
64
  3
Solid line
 72
65
 73
0
 40
0.0
  0
LTYPE
  5
1F5
100
AcDbSymbolTableRecord
100
AcDbLinetypeTableRecord
  2
CENTER
 70
64
  3
____ _ ____ _ ____ _ ____ _ ____ _ ____ _ ____
 72
65
 73
4
 40
0.6
 49
0.375
 74
0
 49
-0.075
 74
0
 49
0.075
 74
0
 49
-0.075
 74
0
  0
LTYPE
  5
1F6
100
AcDbSymbolTableRecord
100
AcDbLinetypeTableRecord
  2
HIDDEN
 70
64
  3
- - - - - - - - - - - - - - - - - - - -
 72
65
 73
2
 40
0.2
 49
0.1
 74
0
 49
-0.1
 74
0
  0
LTYPE
  5
1F7
100
AcDbSymbolTableRecord
100
AcDbLinetypeTableRecord
  2
PHANTOM
 70
64
  3
_____ _ _ _____ _ _ _____ _ _ _____
 72
65
 73
6
 40
0.8
 49
0.45
 74
0
 49
-0.05
 74
0
 49
0.1
 74
0
 49
-0.05
 74
0
 49
0.1
 74
0
 49
-0.05
 74
0
  0
LTYPE
  5
1F8
100
AcDbSymbolTableRecord
100
AcDbLinetypeTableRecord
  2
DOT
 70
64
  3
. . . . . . . . . . . . . . . . . . . .
 72
65
 73
2
 40
0.2
 49
0.1
 74
0
 49
-0.1
 74
0
  0
LTYPE
  5
1F9
100
AcDbSymbolTableRecord
100
AcDbLinetypeTableRecord
  2
DASHED
 70
64
  3
- - - - - - - - - - - - - - - - - - - -
 72
65
 73
2
 40
0.2
 49
0.1
 74
0
 49
-0.1
 74
0
  0
ENDTAB
  0
TABLE
  2
LAYER
  5
2
100
AcDbSymbolTable
 70
36
  0
LAYER
  5
10
100
AcDbSymbolTableRecord
100
AcDbLayerTableRecord
  2
0
 70
0
 62
7
  6
CONTINUOUS
370
-3
390
F
  0
LAYER
  5
1FA
100
AcDbSymbolTableRecord
100
AcDbLayerTableRecord
  2
DEFAULT_1
 70
0
 62
7
  6
CENTER
370
-3
390
F
  0
LAYER
  5
1FB
100
AcDbSymbolTableRecord
100
AcDbLayerTableRecord
  2
DEFAULT_2
 70
0
 62
7
  6
HIDDEN
370
-3
390
F
  0
LAYER
  5
1FC
100
AcDbSymbolTableRecord
100
AcDbLayerTableRecord
  2
DEFAULT_3
 70
0
 62
7
  6
PHANTOM
370
-3
390
F
  0
LAYER
  5
1FD
100
AcDbSymbolTableRecord
100
AcDbLayerTableRecord
  2
ASSI
 70
0
 62
7
  6
CONTINUOUS
370
-3
390
F
  0
LAYER
  5
1FE
100
AcDbSymbolTableRecord
100
AcDbLayerTableRecord
  2
COLORI
 70
0
 62
7
  6
CONTINUOUS
370
-3
390
F
  0
LAYER
  5
1FF
100
AcDbSymbolTableRecord
100
AcDbLayerTableRecord
  2
COORDINATE
 70
0
 62
7
  6
CONTINUOUS
370
-3
390
F
  0
LAYER
  5
200
100
AcDbSymbolTableRecord
100
AcDbLayerTableRecord
  2
COPY_PUBLISH
 70
0
 62
7
  6
CONTINUOUS
370
-3
390
F
  0
LAYER
  5
201
100
AcDbSymbolTableRecord
100
AcDbLayerTableRecord
  2
COSMETICI
 70
0
 62
7
  6
CONTINUOUS
370
-3
390
F
  0
LAYER
  5
202
100
AcDbSymbolTableRecord
100
AcDbLayerTableRecord
  2
CURVE
 70
0
 62
7
  6
CONTINUOUS
370
-3
390
F
  0
LAYER
  5
203
100
AcDbSymbolTableRecord
100
AcDbLayerTableRecord
  2
DRAFT
 70
0
 62
7
  6
CONTINUOUS
370
-3
390
F
  0
LAYER
  5
204
100
AcDbSymbolTableRecord
100
AcDbLayerTableRecord
  2
IMPORT_IGES
 70
0
 62
7
  6
CONTINUOUS
370
-3
390
F
  0
LAYER
  5
205
100
AcDbSymbolTableRecord
100
AcDbLayerTableRecord
  2
NOTE
 70
0
 62
7
  6
CONTINUOUS
370
-3
390
F
  0
LAYER
  5
206
100
AcDbSymbolTableRecord
100
AcDbLayerTableRecord
  2
PIANI
 70
0
 62
7
  6
CONTINUOUS
370
-3
390
F
  0
LAYER
  5
207
100
AcDbSymbolTableRecord
100
AcDbLayerTableRecord
  2
PUNTI
 70
0
 62
7
  6
CONTINUOUS
370
-3
390
F
  0
LAYER
  5
208
100
AcDbSymbolTableRecord
100
AcDbLayerTableRecord
  2
RACCORDO
 70
0
 62
7
  6
CONTINUOUS
370
-3
390
F
  0
LAYER
  5
209
100
AcDbSymbolTableRecord
100
AcDbLayerTableRecord
  2
SCRITTE
 70
0
 62
7
  6
CONTINUOUS
370
-3
390
F
  0
LAYER
  5
20A
100
AcDbSymbolTableRecord
100
AcDbLayerTableRecord
  2
SIMBOLI
 70
0
 62
7
  6
CONTINUOUS
370
-3
390
F
  0
LAYER
  5
20B
100
AcDbSymbolTableRecord
100
AcDbLayerTableRecord
  2
SMUSSO
 70
0
 62
7
  6
CONTINUOUS
370
-3
390
F
  0
LAYER
  5
20C
100
AcDbSymbolTableRecord
100
AcDbLayerTableRecord
  2
SNAPLINE
 70
0
 62
7
  6
CONTINUOUS
370
-3
390
F
  0
LAYER
  5
20D
100
AcDbSymbolTableRecord
100
AcDbLayerTableRecord
  2
SUPERFICI
 70
0
 62
7
  6
CONTINUOUS
370
-3
390
F
  0
LAYER
  5
20E
100
AcDbSymbolTableRecord
100
AcDbLayerTableRecord
  2
TRASH
 70
0
 62
7
  6
CONTINUOUS
370
-3
390
F
  0
LAYER
  5
20F
100
AcDbSymbolTableRecord
100
AcDbLayerTableRecord
  2
XSEC_DATUMS
 70
0
 62
7
  6
CONTINUOUS
370
-3
390
F
  0
ENDTAB
  0
TABLE
  2
STYLE
  5
3
100
AcDbSymbolTable
 70
1
  0
STYLE
  5
11
100
AcDbSymbolTableRecord
100
AcDbTextStyleTableRecord
  2
STANDARD
 70
0
 40
0.0
 41
0.8
 50
0.0
 71
0
 42
0.2
  3
txt
  4

  0
STYLE
  5
210
100
AcDbSymbolTableRecord
100
AcDbTextStyleTableRecord
  2
TEXTSTYLE_1
 70
0
 40
0.0
 41
0.8
 50
0.0
 71
0
 42
0.2
  3
gdt
  4

  0
ENDTAB
  0
TABLE
  2
VIEW
  5
6
100
AcDbSymbolTable
 70
0
  0
ENDTAB
  0
TABLE
  2
UCS
  5
7
100
AcDbSymbolTable
 70
0
  0
ENDTAB
  0
TABLE
  2
APPID
  5
9
100
AcDbSymbolTable
 70
1
  0
APPID
  5
211
100
AcDbSymbolTableRecord
100
AcDbRegAppTableRecord
  2
ACAD
 70
0
  0
ENDTAB
  0
TABLE
  2
BLOCK_RECORD
  5
1
100
AcDbSymbolTable
 70
0
  0
BLOCK_RECORD
  5
212
100
AcDbSymbolTableRecord
100
AcDbBlockTableRecord
  2
*Model_Space
  0
BLOCK_RECORD
  5
213
100
AcDbSymbolTableRecord
100
AcDbBlockTableRecord
  2
*Paper_Space
  0
BLOCK_RECORD
  5
214
100
AcDbSymbolTableRecord
100
AcDbBlockTableRecord
  2
_FILLED
  0
BLOCK_RECORD
  5
215
100
AcDbSymbolTableRecord
100
AcDbBlockTableRecord
  2
*D0
  0
BLOCK_RECORD
  5
216
100
AcDbSymbolTableRecord
100
AcDbBlockTableRecord
  2
*D1
  0
BLOCK_RECORD
  5
217
100
AcDbSymbolTableRecord
100
AcDbBlockTableRecord
  2
*D2
  0
BLOCK_RECORD
  5
218
100
AcDbSymbolTableRecord
100
AcDbBlockTableRecord
  2
*D3
  0
BLOCK_RECORD
  5
219
100
AcDbSymbolTableRecord
100
AcDbBlockTableRecord
  2
*D4
  0
BLOCK_RECORD
  5
21A
100
AcDbSymbolTableRecord
100
AcDbBlockTableRecord
  2
*D5
  0
BLOCK_RECORD
  5
21B
100
AcDbSymbolTableRecord
100
AcDbBlockTableRecord
  2
*D6
  0
ENDTAB
  0
TABLE
  2
DIMSTYLE
  5
A
100
AcDbSymbolTable
 70
1
100
AcDbDimStyleTable
 71
0
  0
DIMSTYLE
105
21C
100
AcDbSymbolTableRecord
100
AcDbDimStyleTableRecord
  2
STANDARD
 70
0
  3

  4

 40
1.0
 41
3.0
 42
0.5
 43
0.38
 44
1.5
 45
0.0
 46
0.0
 47
0.01
 48
0.01
140
3.0
141
0.09
142
0.0
143
25.4
144
1.0
145
0.0
146
1.0
147
0.625
 71
1.0
 72
0.0
 73
0
 74
0
 75
0
 76
0
 77
1
 78
8
170
0
171
2
172
0
173
0
174
0
175
0
176
0
177
0
178
0
270
2
271
2
272
2
273
2
274
2
275
0
280
0
281
0
282
0
283
1
284
8
285
0
286
0
287
3
288
0
340
11
278
44
341
214
342
214
343
214
344
214
  0
DIMSTYLE
105
21D
100
AcDbSymbolTableRecord
100
AcDbDimStyleTableRecord
  2
DIMSTYLE_1
 70
0
  3

  4

 40
1.0
 41
3.0
 42
0.5
 43
0.38
 44
1.5
 45
0.0
 46
0.0
 47
0.0
 48
0.0
140
3.0
141
0.09
142
0.0
143
25.4
144
1.0
145
0.0
146
1.0
147
0.75
 71
0.0
 72
0.0
 73
0
 74
0
 75
0
 76
0
 77
1
 78
8
170
0
171
2
172
0
173
0
174
0
175
0
176
0
177
0
178
0
270
2
271
2
272
2
273
2
274
2
275
0
280
0
281
0
282
0
283
1
284
8
285
0
286
0
287
3
288
0
340
11
278
44
341
214
342
214
343
214
344
214
  0
DIMSTYLE
105
21E
100
AcDbSymbolTableRecord
100
AcDbDimStyleTableRecord
  2
DIMSTYLE_2
 70
0
  3

  4

 40
1.0
 41
3.0
 42
0.5
 43
0.38
 44
1.5
 45
0.0
 46
0.0
 47
0.0
 48
0.0
140
3.0
141
0.09
142
0.0
143
25.4
144
1.0
145
0.0
146
1.0
147
0.75
 71
0.0
 72
0.0
 73
0
 74
0
 75
0
 76
0
 77
1
 78
8
170
0
171
2
172
0
173
0
174
0
175
0
176
0
177
0
178
0
270
2
271
1
272
1
273
2
274
2
275
0
280
0
281
0
282
0
283
1
284
8
285
0
286
0
287
3
288
0
340
11
278
44
341
214
342
214
343
214
344
214
  0
ENDTAB
  0
ENDSEC
  0
SECTION
  2
BLOCKS
  0
BLOCK
  5
20
100
AcDbEntity
  8
0
100
AcDbBlockBegin
  2
*Model_Space
 70
0
 10
0.0
 20
0.0
 30
0.0
  3
*Model_Space
  1

  0
ENDBLK
  5
21
100
AcDbEntity
  8
0
100
AcDbBlockEnd
  0
BLOCK
  5
1C
100
AcDbEntity
  8
0
100
AcDbBlockBegin
  2
*Paper_Space
 70
0
 10
0.0
 20
0.0
 30
0.0
  3
*Paper_Space
  1

  0
ENDBLK
  5
1D
100
AcDbEntity
  8
0
100
AcDbBlockEnd
  0
BLOCK
  5
21F
100
AcDbEntity
  8
0
100
AcDbBlockBegin
  2
_FILLED
 70
64
 10
0.0
 20
0.0
  3
_FILLED
  1

  0
SOLID
  5
220
100
AcDbEntity
  8
0
  6
BYBLOCK
 62
0
100
AcDbTrace
 10
0.0
 20
0.0
 11
-1.0
 21
0.3166666667
 12
-1.0
 22
-0.3166666667
 13
-1.0
 23
-0.3166666667
  0
ENDBLK
  5
221
100
AcDbEntity
  8
0
  6
BYBLOCK
 62
0
100
AcDbBlockEnd
  0
BLOCK
  5
222
100
AcDbEntity
  8
0
100
AcDbBlockBegin
 62
7
  6
CONTINUOUS
  2
*D0
 70
65
 10
0.0
 20
0.0
  3
*D0
  1

  0
MTEXT
  5
223
100
AcDbEntity
  8
0
100
AcDbMText
 62
7
  6
CONTINUOUS
  7
STANDARD
 71
1
 72
1
 10
58.4635996114
 20
9.0168150965
 30
0.0
 11
0.0
 21
1.0
 31
0.0
 44
0.9
  1
5,8
 40
3.0
 41
9.3214285714
  0
LINE
  5
224
100
AcDbEntity
  8
0
100
AcDbLine
 62
7
  6
CONTINUOUS
 10
54.6101341517
 20
3.6837281399
 11
63.7135996114
 21
3.6837281399
  0
LINE
  5
225
100
AcDbEntity
  8
0
100
AcDbLine
 62
7
  6
CONTINUOUS
 10
54.6101341517
 20
-2.1162718601
 11
63.7135996114
 21
-2.1162718601
  0
LINE
  5
226
100
AcDbEntity
  8
0
100
AcDbLine
 62
7
  6
CONTINUOUS
 10
62.2135996114
 20
3.6837281399
 11
62.2135996114
 21
15.2311008108
  0
LINE
  5
227
100
AcDbEntity
  8
0
100
AcDbLine
 62
7
  6
CONTINUOUS
 10
62.2135996114
 20
15.2311008108
 11
62.2135996114
 21
0.7837281399
  0
LINE
  5
228
100
AcDbEntity
  8
0
100
AcDbLine
 62
7
  6
CONTINUOUS
 10
62.2135996114
 20
-2.1162718601
 11
62.2135996114
 21
-6.1162718601
  0
LINE
  5
229
100
AcDbEntity
  8
0
100
AcDbLine
 62
7
  6
CONTINUOUS
 10
62.2135996114
 20
-6.1162718601
 11
62.2135996114
 21
0.7837281399
  0
INSERT
  5
22A
100
AcDbEntity
  8
0
100
AcDbBlockReference
 62
7
  6
CONTINUOUS
  2
_FILLED
 10
62.2135996114
 20
3.6837281399
 41
3.0
 42
3.0
 43
3.0
 50
270.0
  0
INSERT
  5
22B
100
AcDbEntity
  8
0
100
AcDbBlockReference
 62
7
  6
CONTINUOUS
  2
_FILLED
 10
62.2135996114
 20
-2.1162718601
 41
3.0
 42
3.0
 43
3.0
 50
90.0
  0
ENDBLK
  5
22C
100
AcDbEntity
  8
0
  6
BYBLOCK
 62
0
100
AcDbBlockEnd
  0
BLOCK
  5
22D
100
AcDbEntity
  8
0
100
AcDbBlockBegin
 62
7
  6
CONTINUOUS
  2
*D1
 70
65
 10
0.0
 20
0.0
  3
*D1
  1

  0
MTEXT
  5
22E
100
AcDbEntity
  8
0
100
AcDbMText
 62
7
  6
CONTINUOUS
  7
STANDARD
 71
2
 72
1
 10
29.8294840168
 20
16.9074161936
 30
0.0
 11
1.0
 21
0.0
 31
0.0
 44
0.9
  1
20,5
 40
3.0
 41
12.8571428571
  0
LINE
  5
22F
100
AcDbEntity
  8
0
100
AcDbLine
 62
7
  6
CONTINUOUS
 10
19.5837565835
 20
3.4015905416
 11
19.5837565835
 21
14.6574161936
  0
LINE
  5
230
100
AcDbEntity
  8
0
100
AcDbLine
 62
7
  6
CONTINUOUS
 10
40.07521145
 20
2.5297217194
 11
40.07521145
 21
14.6574161936
  0
LINE
  5
231
100
AcDbEntity
  8
0
100
AcDbLine
 62
7
  6
CONTINUOUS
 10
19.5837565835
 20
13.1574161936
 11
29.8294840168
 21
13.1574161936
  0
LINE
  5
232
100
AcDbEntity
  8
0
100
AcDbLine
 62
7
  6
CONTINUOUS
 10
40.07521145
 20
13.1574161936
 11
29.8294840168
 21
13.1574161936
  0
INSERT
  5
233
100
AcDbEntity
  8
0
100
AcDbBlockReference
 62
7
  6
CONTINUOUS
  2
_FILLED
 10
19.5837565835
 20
13.1574161936
 41
3.0
 42
3.0
 43
3.0
 50
180.0
  0
INSERT
  5
234
100
AcDbEntity
  8
0
100
AcDbBlockReference
 62
7
  6
CONTINUOUS
  2
_FILLED
 10
40.07521145
 20
13.1574161936
 41
3.0
 42
3.0
 43
3.0
  0
ENDBLK
  5
235
100
AcDbEntity
  8
0
  6
BYBLOCK
 62
0
100
AcDbBlockEnd
  0
BLOCK
  5
236
100
AcDbEntity
  8
0
100
AcDbBlockBegin
 62
7
  6
CONTINUOUS
  2
*D2
 70
65
 10
0.0
 20
0.0
  3
*D2
  1

  0
MTEXT
  5
237
100
AcDbEntity
  8
0
100
AcDbMText
 62
7
  6
CONTINUOUS
  7
STANDARD
 71
2
 72
1
 10
36.8768339644
 20
26.9074161936
 30
0.0
 11
1.0
 21
0.0
 31
0.0
 44
0.9
  1
34,6
 40
3.0
 41
12.8571428571
  0
LINE
  5
238
100
AcDbEntity
  8
0
100
AcDbLine
 62
7
  6
CONTINUOUS
 10
19.5837565835
 20
3.4015905416
 11
19.5837565835
 21
24.6574161936
  0
LINE
  5
239
100
AcDbEntity
  8
0
100
AcDbLine
 62
7
  6
CONTINUOUS
 10
54.1699113453
 20
2.9643320286
 11
54.1699113453
 21
24.6574161936
  0
LINE
  5
23A
100
AcDbEntity
  8
0
100
AcDbLine
 62
7
  6
CONTINUOUS
 10
19.5837565835
 20
23.1574161936
 11
36.8768339644
 21
23.1574161936
  0
LINE
  5
23B
100
AcDbEntity
  8
0
100
AcDbLine
 62
7
  6
CONTINUOUS
 10
54.1699113453
 20
23.1574161936
 11
36.8768339644
 21
23.1574161936
  0
INSERT
  5
23C
100
AcDbEntity
  8
0
100
AcDbBlockReference
 62
7
  6
CONTINUOUS
  2
_FILLED
 10
19.5837565835
 20
23.1574161936
 41
3.0
 42
3.0
 43
3.0
 50
180.0
  0
INSERT
  5
23D
100
AcDbEntity
  8
0
100
AcDbBlockReference
 62
7
  6
CONTINUOUS
  2
_FILLED
 10
54.1699113453
 20
23.1574161936
 41
3.0
 42
3.0
 43
3.0
  0
ENDBLK
  5
23E
100
AcDbEntity
  8
0
  6
BYBLOCK
 62
0
100
AcDbBlockEnd
  0
BLOCK
  5
23F
100
AcDbEntity
  8
0
100
AcDbBlockBegin
 62
7
  6
CONTINUOUS
  2
*D3
 70
65
 10
0.0
 20
0.0
  3
*D3
  1

  0
MTEXT
  5
240
100
AcDbEntity
  8
0
100
AcDbMText
 62
7
  6
CONTINUOUS
  7
STANDARD
 71
2
 72
1
 10
22.936862741
 20
-17.2686530143
 30
0.0
 11
1.0
 21
0.0
 31
0.0
 44
0.9
  1
132,6
 40
3.0
 41
15.4285714286
  0
LINE
  5
241
100
AcDbEntity
  8
0
100
AcDbLine
 62
7
  6
CONTINUOUS
 10
-8.3067198288
 20
-0.7162718601
 11
-8.3067198288
 21
-22.5186530143
  0
LINE
  5
242
100
AcDbEntity
  8
0
100
AcDbLine
 62
7
  6
CONTINUOUS
 10
54.1804453108
 20
-0.4373821151
 11
54.1804453108
 21
-22.5186530143
  0
LINE
  5
243
100
AcDbEntity
  8
0
100
AcDbLine
 62
7
  6
CONTINUOUS
 10
-8.3067198288
 20
-21.0186530143
 11
22.936862741
 21
-21.0186530143
  0
LINE
  5
244
100
AcDbEntity
  8
0
100
AcDbLine
 62
7
  6
CONTINUOUS
 10
54.1804453108
 20
-21.0186530143
 11
22.936862741
 21
-21.0186530143
  0
INSERT
  5
245
100
AcDbEntity
  8
0
100
AcDbBlockReference
 62
7
  6
CONTINUOUS
  2
_FILLED
 10
-8.3067198288
 20
-21.0186530143
 41
3.0
 42
3.0
 43
3.0
 50
180.0
  0
INSERT
  5
246
100
AcDbEntity
  8
0
100
AcDbBlockReference
 62
7
  6
CONTINUOUS
  2
_FILLED
 10
54.1804453108
 20
-21.0186530143
 41
3.0
 42
3.0
 43
3.0
  0
ENDBLK
  5
247
100
AcDbEntity
  8
0
  6
BYBLOCK
 62
0
100
AcDbBlockEnd
  0
BLOCK
  5
248
100
AcDbEntity
  8
0
100
AcDbBlockBegin
 62
7
  6
CONTINUOUS
  2
*D4
 70
65
 10
0.0
 20
0.0
  3
*D4
  1

  0
MTEXT
  5
249
100
AcDbEntity
  8
0
100
AcDbMText
 62
7
  6
CONTINUOUS
  7
STANDARD
 71
2
 72
1
 10
-3.3067198288
 20
-7.2686530143
 30
0.0
 11
1.0
 21
0.0
 31
0.0
 44
0.9
  1
10
 40
3.0
 41
6.1071428571
  0
LINE
  5
24A
100
AcDbEntity
  8
0
100
AcDbLine
 62
7
  6
CONTINUOUS
 10
1.6932801712
 20
-1.4662718601
 11
1.6932801712
 21
-12.5186530143
  0
LINE
  5
24B
100
AcDbEntity
  8
0
100
AcDbLine
 62
7
  6
CONTINUOUS
 10
-8.3067198288
 20
-0.7162718601
 11
-8.3067198288
 21
-12.5186530143
  0
LINE
  5
24C
100
AcDbEntity
  8
0
100
AcDbLine
 62
7
  6
CONTINUOUS
 10
1.6932801712
 20
-11.0186530143
 11
5.6932801712
 21
-11.0186530143
  0
LINE
  5
24D
100
AcDbEntity
  8
0
100
AcDbLine
 62
7
  6
CONTINUOUS
 10
5.6932801712
 20
-11.0186530143
 11
-3.3067198288
 21
-11.0186530143
  0
LINE
  5
24E
100
AcDbEntity
  8
0
100
AcDbLine
 62
7
  6
CONTINUOUS
 10
-8.3067198288
 20
-11.0186530143
 11
-12.3067198288
 21
-11.0186530143
  0
LINE
  5
24F
100
AcDbEntity
  8
0
100
AcDbLine
 62
7
  6
CONTINUOUS
 10
-12.3067198288
 20
-11.0186530143
 11
-3.3067198288
 21
-11.0186530143
  0
INSERT
  5
250
100
AcDbEntity
  8
0
100
AcDbBlockReference
 62
7
  6
CONTINUOUS
  2
_FILLED
 10
1.6932801712
 20
-11.0186530143
 41
3.0
 42
3.0
 43
3.0
 50
180.0
  0
INSERT
  5
251
100
AcDbEntity
  8
0
100
AcDbBlockReference
 62
7
  6
CONTINUOUS
  2
_FILLED
 10
-8.3067198288
 20
-11.0186530143
 41
3.0
 42
3.0
 43
3.0
  0
ENDBLK
  5
252
100
AcDbEntity
  8
0
  6
BYBLOCK
 62
0
100
AcDbBlockEnd
  0
BLOCK
  5
253
100
AcDbEntity
  8
0
100
AcDbBlockBegin
 62
7
  6
CONTINUOUS
  2
*D5
 70
65
 10
0.0
 20
0.0
  3
*D5
  1

  0
MTEXT
  5
254
100
AcDbEntity
  8
0
100
AcDbMText
 62
7
  6
CONTINUOUS
  7
STANDARD
 71
2
 72
1
 10
-36.5039174693
 20
-7.2686530143
 30
0.0
 11
1.0
 21
0.0
 31
0.0
 44
0.9
  1
7,5
 40
3.0
 41
9.3214285714
  0
LINE
  5
255
100
AcDbEntity
  8
0
100
AcDbLine
 62
7
  6
CONTINUOUS
 10
-32.7539174693
 20
-2.9248001989
 11
-32.7539174693
 21
-12.5186530143
  0
LINE
  5
256
100
AcDbEntity
  8
0
100
AcDbLine
 62
7
  6
CONTINUOUS
 10
-40.2539174693
 20
-2.4152088117
 11
-40.2539174693
 21
-12.5186530143
  0
LINE
  5
257
100
AcDbEntity
  8
0
100
AcDbLine
 62
7
  6
CONTINUOUS
 10
-32.7539174693
 20
-11.0186530143
 11
-28.7539174693
 21
-11.0186530143
  0
LINE
  5
258
100
AcDbEntity
  8
0
100
AcDbLine
 62
7
  6
CONTINUOUS
 10
-28.7539174693
 20
-11.0186530143
 11
-36.5039174693
 21
-11.0186530143
  0
LINE
  5
259
100
AcDbEntity
  8
0
100
AcDbLine
 62
7
  6
CONTINUOUS
 10
-40.2539174693
 20
-11.0186530143
 11
-44.2539174693
 21
-11.0186530143
  0
LINE
  5
25A
100
AcDbEntity
  8
0
100
AcDbLine
 62
7
  6
CONTINUOUS
 10
-44.2539174693
 20
-11.0186530143
 11
-36.5039174693
 21
-11.0186530143
  0
INSERT
  5
25B
100
AcDbEntity
  8
0
100
AcDbBlockReference
 62
7
  6
CONTINUOUS
  2
_FILLED
 10
-32.7539174693
 20
-11.0186530143
 41
3.0
 42
3.0
 43
3.0
 50
180.0
  0
INSERT
  5
25C
100
AcDbEntity
  8
0
100
AcDbBlockReference
 62
7
  6
CONTINUOUS
  2
_FILLED
 10
-40.2539174693
 20
-11.0186530143
 41
3.0
 42
3.0
 43
3.0
 50
0.0
  0
ENDBLK
  5
25D
100
AcDbEntity
  8
0
  6
BYBLOCK
 62
0
100
AcDbBlockEnd
  0
BLOCK
  5
25E
100
AcDbEntity
  8
0
100
AcDbBlockBegin
 62
7
  6
CONTINUOUS
  2
*D6
 70
65
 10
0.0
 20
0.0
  3
*D6
  1

  0
MTEXT
  5
25F
100
AcDbEntity
  8
0
100
AcDbMText
 62
7
  6
CONTINUOUS
  7
STANDARD
 71
2
 72
1
 10
-28.5039174693
 20
0.7837281399
 30
0.0
 11
0.0
 21
1.0
 31
0.0
 44
0.9
  1
7,5
 40
3.0
 41
9.3214285714
  0
LINE
  5
260
100
AcDbEntity
  8
0
100
AcDbLine
 62
7
  6
CONTINUOUS
 10
-37.5039174693
 20
4.5337281399
 11
-23.2539174693
 21
4.5337281399
  0
LINE
  5
261
100
AcDbEntity
  8
0
100
AcDbLine
 62
7
  6
CONTINUOUS
 10
-37.5039174693
 20
-2.9662718601
 11
-23.2539174693
 21
-2.9662718601
  0
LINE
  5
262
100
AcDbEntity
  8
0
100
AcDbLine
 62
7
  6
CONTINUOUS
 10
-24.7539174693
 20
4.5337281399
 11
-24.7539174693
 21
8.5337281399
  0
LINE
  5
263
100
AcDbEntity
  8
0
100
AcDbLine
 62
7
  6
CONTINUOUS
 10
-24.7539174693
 20
8.5337281399
 11
-24.7539174693
 21
0.7837281399
  0
LINE
  5
264
100
AcDbEntity
  8
0
100
AcDbLine
 62
7
  6
CONTINUOUS
 10
-24.7539174693
 20
-2.9662718601
 11
-24.7539174693
 21
-6.9662718601
  0
LINE
  5
265
100
AcDbEntity
  8
0
100
AcDbLine
 62
7
  6
CONTINUOUS
 10
-24.7539174693
 20
-6.9662718601
 11
-24.7539174693
 21
0.7837281399
  0
INSERT
  5
266
100
AcDbEntity
  8
0
100
AcDbBlockReference
 62
7
  6
CONTINUOUS
  2
_FILLED
 10
-24.7539174693
 20
4.5337281399
 41
3.0
 42
3.0
 43
3.0
 50
270.0
  0
INSERT
  5
267
100
AcDbEntity
  8
0
100
AcDbBlockReference
 62
7
  6
CONTINUOUS
  2
_FILLED
 10
-24.7539174693
 20
-2.9662718601
 41
3.0
 42
3.0
 43
3.0
 50
90.0
  0
ENDBLK
  5
268
100
AcDbEntity
  8
0
  6
BYBLOCK
 62
0
100
AcDbBlockEnd
  0
ENDSEC
  0
SECTION
  2
ENTITIES
  0
DIMENSION
  5
269
100
AcDbEntity
  8
0
100
AcDbDimension
 62
7
  6
CONTINUOUS
  2
*D0
 10
62.2135996114
 20
-2.1162718601
 11
62.2135996114
 21
11.6953881459
 70
160
 71
1
 42
5.8
  3
DIMSTYLE_1
100
AcDbAlignedDimension
 13
54.1101341517
 23
3.6837281399
 14
54.1101341517
 24
-2.1162718601
 50
270.0
100
AcDbRotatedDimension
  0
DIMENSION
  5
26A
100
AcDbEntity
  8
0
100
AcDbDimension
 62
7
  6
CONTINUOUS
  2
*D1
 10
40.07521145
 20
13.1574161936
 11
29.4009130783
 21
13.1574161936
 70
160
 71
2
 42
20.4914548665
  3
DIMSTYLE_2
100
AcDbAlignedDimension
 13
19.5837565835
 23
2.9015905416
 14
40.07521145
 24
2.0297217194
100
AcDbRotatedDimension
  0
DIMENSION
  5
26B
100
AcDbEntity
  8
0
100
AcDbDimension
 62
7
  6
CONTINUOUS
  2
*D2
 10
54.1699113453
 20
23.1574161936
 11
36.4482629585
 21
23.1574161936
 70
160
 71
2
 42
34.5861547618
  3
DIMSTYLE_2
100
AcDbAlignedDimension
 13
19.5837565835
 23
2.9015905416
 14
54.1699113453
 24
2.4643320286
100
AcDbRotatedDimension
  0
DIMENSION
  5
26C
100
AcDbEntity
  8
0
100
AcDbDimension
 62
7
  6
CONTINUOUS
  2
*D3
 10
54.1804453108
 20
-21.0186530143
 11
22.5082911072
 21
-21.0186530143
 70
160
 71
2
 42
132.5703263896
  3
DIMSTYLE_2
100
AcDbAlignedDimension
 13
-8.3067198288
 23
-0.2162718601
 14
54.1804453108
 24
0.0626178849
100
AcDbRotatedDimension
  0
DIMENSION
  5
26D
100
AcDbEntity
  8
0
100
AcDbDimension
 62
7
  6
CONTINUOUS
  2
*D4
 10
-8.3067198288
 20
-11.0186530143
 11
-3.7352912214
 21
-11.0186530143
 70
160
 71
2
 42
10.0
  3
DIMSTYLE_1
100
AcDbAlignedDimension
 13
1.6932801712
 23
-0.9662718601
 14
-8.3067198288
 24
-0.2162718601
 50
180.0
100
AcDbRotatedDimension
  0
DIMENSION
  5
26E
100
AcDbEntity
  8
0
100
AcDbDimension
 62
7
  6
CONTINUOUS
  2
*D5
 10
-40.2539174693
 20
-11.0186530143
 11
-36.9324888382
 21
-11.0186530143
 70
160
 71
2
 42
7.5
  3
DIMSTYLE_1
100
AcDbAlignedDimension
 13
-32.7539174693
 23
-2.4248001989
 14
-40.2539174693
 24
-1.9152088117
 50
180.0
100
AcDbRotatedDimension
  0
DIMENSION
  5
26F
100
AcDbEntity
  8
0
100
AcDbDimension
 62
7
  6
CONTINUOUS
  2
*D6
 10
-24.7539174693
 20
-2.9662718601
 11
-24.7539174693
 21
0.3551570299
 70
160
 71
2
 42
7.5
  3
DIMSTYLE_1
100
AcDbAlignedDimension
 13
-38.0039174693
 23
4.5337281399
 14
-38.0039174693
 24
-2.9662718601
 50
270.0
100
AcDbRotatedDimension
  0
LINE
  5
270
100
AcDbEntity
  8
0
100
AcDbLine
 62
7
  6
CONTINUOUS
 10
-8.3067198288
 20
-0.6162718601
 11
-8.3067198288
 21
0.1837281399
  0
LINE
  5
271
100
AcDbEntity
  8
0
100
AcDbLine
 62
7
  6
CONTINUOUS
 10
-8.3067198288
 20
1.3837281399
 11
-8.3067198288
 21
2.1837281399
  0
LINE
  5
272
100
AcDbEntity
  8
0
100
AcDbLine
 62
7
  6
CONTINUOUS
 10
6.6351856848
 20
-0.9662718601
 11
1.6932801712
 21
-0.9662718601
  0
LINE
  5
273
100
AcDbEntity
  8
0
100
AcDbLine
 62
7
  6
CONTINUOUS
 10
1.6932801712
 20
-0.6162718601
 11
-8.3067198288
 21
-0.6162718601
  0
LINE
  5
274
100
AcDbEntity
  8
0
100
AcDbLine
 62
7
  6
CONTINUOUS
 10
1.6932801712
 20
0.1837281399
 11
-8.3067198288
 21
0.1837281399
  0
LINE
  5
275
100
AcDbEntity
  8
0
100
AcDbLine
 62
7
  6
CONTINUOUS
 10
6.6351856848
 20
0.5337281399
 11
1.6932801712
 21
0.5337281399
  0
LINE
  5
276
100
AcDbEntity
  8
0
100
AcDbLine
 62
7
  6
CONTINUOUS
 10
6.6351856848
 20
1.0337281399
 11
1.6932801712
 21
1.0337281399
  0
LINE
  5
277
100
AcDbEntity
  8
0
100
AcDbLine
 62
7
  6
CONTINUOUS
 10
1.6932801712
 20
1.3837281399
 11
-8.3067198288
 21
1.3837281399
  0
LINE
  5
278
100
AcDbEntity
  8
0
100
AcDbLine
 62
7
  6
CONTINUOUS
 10
1.6932801712
 20
2.1837281399
 11
-8.3067198288
 21
2.1837281399
  0
LINE
  5
279
100
AcDbEntity
  8
0
100
AcDbLine
 62
7
  6
CONTINUOUS
 10
6.6351856848
 20
2.5337281399
 11
1.6932801712
 21
2.5337281399
  0
LINE
  5
27A
100
AcDbEntity
  8
0
100
AcDbLine
 62
7
  6
CONTINUOUS
 10
1.6932801712
 20
-0.9662718601
 11
1.6932801712
 21
0.5337281399
  0
LINE
  5
27B
100
AcDbEntity
  8
0
100
AcDbLine
 62
7
  6
CONTINUOUS
 10
1.6932801712
 20
1.0337281399
 11
1.6932801712
 21
2.5337281399
  0
LINE
  5
27C
100
AcDbEntity
  8
0
100
AcDbLine
 62
7
  6
CONTINUOUS
 10
6.6351856848
 20
-0.9662718601
 11
6.6351856848
 21
0.5337281399
  0
LINE
  5
27D
100
AcDbEntity
  8
0
100
AcDbLine
 62
7
  6
CONTINUOUS
 10
6.6351856848
 20
1.0337281399
 11
6.6351856848
 21
2.5337281399
  0
LINE
  5
27E
100
AcDbEntity
  8
0
100
AcDbLine
 62
7
  6
CONTINUOUS
 10
9.6353876848
 20
2.5337281399
 11
9.6353876848
 21
1.0337281399
  0
LINE
  5
27F
100
AcDbEntity
  8
0
100
AcDbLine
 62
7
  6
CONTINUOUS
 10
9.6353876848
 20
0.5337281399
 11
9.6353876848
 21
-0.9662718601
  0
LWPOLYLINE
  5
280
100
AcDbEntity
  8
0
100
AcDbPolyline
 62
7
  6
CONTINUOUS
 90
24
 70
0
 10
18.0478868464
 20
1.5740837444
 10
18.0429329069
 20
1.6212907043
 10
18.0392969205
 20
1.6666649277
 10
18.0368429521
 20
1.7099964852
 10
18.0357069368
 20
1.7514013955
 10
18.0354482758
 20
1.7914420495
 10
18.0359696872
 20
1.8300717006
 10
18.0373684528
 20
1.8672903052
 10
18.0394958196
 20
1.9037375835
 10
18.0422771555
 20
1.9394037186
 10
18.0457870925
 20
1.9742690211
 10
18.0501007736
 20
2.0089552801
 10
18.0551885761
 20
2.043629712
 10
18.0610801227
 20
2.0780923413
 10
18.0679394249
 20
2.112409117
 10
18.0757738593
 20
2.1466897565
 10
18.0845760491
 20
2.1807906012
 10
18.0944878758
 20
2.2144014865
 10
18.1055200004
 20
2.2475331915
 10
18.1176617619
 20
2.2801542121
 10
18.131023058
 20
2.3119041932
 10
18.1456405214
 20
2.3426666465
 10
18.1614775195
 20
2.3725609038
 10
18.1785340522
 20
2.4015896804
  0
LWPOLYLINE
  5
281
100
AcDbEntity
  8
RACCORDO
100
AcDbPolyline
 62
7
  6
CONTINUOUS
 90
6
 70
0
 10
17.6196944525
 20
3.1650532062
 10
17.619592717
 20
3.1684196288
 10
17.6194897748
 20
3.1710684218
 10
17.6193859965
 20
3.1729873246
 10
17.6192810114
 20
3.1741885978
 10
17.6191748198
 20
3.1746722414
  0
LWPOLYLINE
  5
282
100
AcDbEntity
  8
ASSI
100
AcDbPolyline
 62
7
  6
CONTINUOUS
 90
6
 70
0
 10
17.6196944525
 20
3.1650532062
 10
17.619592717
 20
3.1684196288
 10
17.6194897748
 20
3.1710684218
 10
17.6193859965
 20
3.1729873246
 10
17.6192810114
 20
3.1741885978
 10
17.6191748198
 20
3.1746722414
  0
LINE
  5
283
100
AcDbEntity
  8
DRAFT
100
AcDbLine
 62
7
  6
CONTINUOUS
 10
17.6101189212
 20
2.8411446889
 11
17.6109974287
 21
2.8069642482
  0
LINE
  5
284
100
AcDbEntity
  8
ASSI
100
AcDbLine
 62
7
  6
CONTINUOUS
 10
17.6101189212
 20
2.8411446889
 11
17.6109974287
 21
2.8069642482
  0
LINE
  5
285
100
AcDbEntity
  8
RACCORDO
100
AcDbLine
 62
7
  6
CONTINUOUS
 10
17.6198905993
 20
3.1562900772
 11
17.6196944525
 21
3.1650532062
  0
LINE
  5
286
100
AcDbEntity
  8
ASSI
100
AcDbLine
 62
7
  6
CONTINUOUS
 10
17.6198905993
 20
3.1562900772
 11
17.6196944525
 21
3.1650532062
  0
LINE
  5
287
100
AcDbEntity
  8
DRAFT
100
AcDbLine
 62
7
  6
CONTINUOUS
 10
17.6109974287
 20
2.8069642482
 11
17.6126159579
 21
2.7134008244
  0
LINE
  5
288
100
AcDbEntity
  8
ASSI
100
AcDbLine
 62
7
  6
CONTINUOUS
 10
17.6109974287
 20
2.8069642482
 11
17.6126159579
 21
2.7134008244
  0
LINE
  5
289
100
AcDbEntity
  8
RACCORDO
100
AcDbLine
 62
7
  6
CONTINUOUS
 10
17.6206270987
 20
3.1037779933
 11
17.6198905993
 21
3.1562900772
  0
LINE
  5
28A
100
AcDbEntity
  8
ASSI
100
AcDbLine
 62
7
  6
CONTINUOUS
 10
17.6206270987
 20
3.1037779933
 11
17.6198905993
 21
3.1562900772
  0
LINE
  5
28B
100
AcDbEntity
  8
DRAFT
100
AcDbLine
 62
7
  6
CONTINUOUS
 10
17.6126159579
 20
2.7134008244
 11
17.614496906
 21
2.5337281399
  0
LINE
  5
28C
100
AcDbEntity
  8
ASSI
100
AcDbLine
 62
7
  6
CONTINUOUS
 10
17.6126159579
 20
2.7134008244
 11
17.614496906
 21
2.5337281399
  0
LINE
  5
28D
100
AcDbEntity
  8
DRAFT
100
AcDbLine
 62
7
  6
CONTINUOUS
 10
17.6127283664
 20
0.705147049
 11
17.6144952016
 21
0.5337281399
  0
LINE
  5
28E
100
AcDbEntity
  8
ASSI
100
AcDbLine
 62
7
  6
CONTINUOUS
 10
17.6127283664
 20
0.705147049
 11
17.6144952016
 21
0.5337281399
  0
LINE
  5
28F
100
AcDbEntity
  8
DRAFT
100
AcDbLine
 62
7
  6
CONTINUOUS
 10
17.6200043694
 20
0.5003184402
 11
17.6179620934
 21
0.704998197
  0
LINE
  5
290
100
AcDbEntity
  8
ASSI
100
AcDbLine
 62
7
  6
CONTINUOUS
 10
17.6200043694
 20
0.5003184402
 11
17.6179620934
 21
0.704998197
  0
LINE
  5
291
100
AcDbEntity
  8
RACCORDO
100
AcDbLine
 62
7
  6
CONTINUOUS
 10
17.6230860411
 20
2.8578218614
 11
17.6206270987
 21
3.1037779933
  0
LINE
  5
292
100
AcDbEntity
  8
ASSI
100
AcDbLine
 62
7
  6
CONTINUOUS
 10
17.6230860411
 20
2.8578218614
 11
17.6206270987
 21
3.1037779933
  0
LINE
  5
293
100
AcDbEntity
  8
RACCORDO
100
AcDbLine
 62
7
  6
CONTINUOUS
 10
17.6258025629
 20
2.3480494348
 11
17.6230860411
 21
2.8578218614
  0
LINE
  5
294
100
AcDbEntity
  8
ASSI
100
AcDbLine
 62
7
  6
CONTINUOUS
 10
17.6258025629
 20
2.3480494348
 11
17.6230860411
 21
2.8578218614
  0
LINE
  5
295
100
AcDbEntity
  8
DRAFT
100
AcDbLine
 62
7
  6
CONTINUOUS
 10
17.6220543863
 20
0.0415046415
 11
17.6200043694
 21
0.5003184402
  0
LINE
  5
296
100
AcDbEntity
  8
ASSI
100
AcDbLine
 62
7
  6
CONTINUOUS
 10
17.6220543863
 20
0.0415046415
 11
17.6200043694
 21
0.5003184402
  0
LINE
  5
297
100
AcDbEntity
  8
RACCORDO
100
AcDbLine
 62
7
  6
CONTINUOUS
 10
17.6264103257
 20
0.1078691405
 11
17.6236368359
 21
0.7837281399
  0
LINE
  5
298
100
AcDbEntity
  8
ASSI
100
AcDbLine
 62
7
  6
CONTINUOUS
 10
17.6264103257
 20
0.1078691405
 11
17.6236368359
 21
0.7837281399
  0
LINE
  5
299
100
AcDbEntity
  8
DRAFT
100
AcDbLine
 62
7
  6
CONTINUOUS
 10
17.6101189212
 20
-1.6162718601
 11
17.6101189212
 21
-1.3152819049
  0
LINE
  5
29A
100
AcDbEntity
  8
ASSI
100
AcDbLine
 62
7
  6
CONTINUOUS
 10
17.6101189212
 20
-1.6162718601
 11
17.6101189212
 21
-1.3152819049
  0
LINE
  5
29B
100
AcDbEntity
  8
DRAFT
100
AcDbLine
 62
7
  6
CONTINUOUS
 10
17.6101189212
 20
2.8827381848
 11
17.6101189212
 21
3.1837281399
  0
LINE
  5
29C
100
AcDbEntity
  8
ASSI
100
AcDbLine
 62
7
  6
CONTINUOUS
 10
17.6101189212
 20
2.8827381848
 11
17.6101189212
 21
3.1837281399
  0
LINE
  5
29D
100
AcDbEntity
  8
DRAFT
100
AcDbLine
 62
7
  6
CONTINUOUS
 10
17.6127283664
 20
0.8623092308
 11
17.6127283664
 21
0.705147049
  0
LINE
  5
29E
100
AcDbEntity
  8
ASSI
100
AcDbLine
 62
7
  6
CONTINUOUS
 10
17.6127283664
 20
0.8623092308
 11
17.6127283664
 21
0.705147049
  0
LINE
  5
29F
100
AcDbEntity
  8
DRAFT
100
AcDbLine
 62
7
  6
CONTINUOUS
 10
17.6179620934
 20
0.704998197
 11
17.6179620934
 21
0.8624580829
  0
LINE
  5
2A0
100
AcDbEntity
  8
ASSI
100
AcDbLine
 62
7
  6
CONTINUOUS
 10
17.6179620934
 20
0.704998197
 11
17.6179620934
 21
0.8624580829
  0
LINE
  5
2A1
100
AcDbEntity
  8
RACCORDO
100
AcDbLine
 62
7
  6
CONTINUOUS
 10
17.6265279478
 20
1.5334269723
 11
17.6258025629
 21
2.3480494348
  0
LINE
  5
2A2
100
AcDbEntity
  8
ASSI
100
AcDbLine
 62
7
  6
CONTINUOUS
 10
17.6265279478
 20
1.5334269723
 11
17.6258025629
 21
2.3480494348
  0
LINE
  5
2A3
100
AcDbEntity
  8
DRAFT
100
AcDbLine
 62
7
  6
CONTINUOUS
 10
17.6217997948
 20
-0.5739878434
 11
17.6220543863
 21
0.0415046415
  0
LINE
  5
2A4
100
AcDbEntity
  8
ASSI
100
AcDbLine
 62
7
  6
CONTINUOUS
 10
17.6217997948
 20
-0.5739878434
 11
17.6220543863
 21
0.0415046415
  0
LINE
  5
2A5
100
AcDbEntity
  8
RACCORDO
100
AcDbLine
 62
7
  6
CONTINUOUS
 10
17.6260200039
 20
-0.7094873451
 11
17.6264103257
 21
0.1078691405
  0
LINE
  5
2A6
100
AcDbEntity
  8
ASSI
100
AcDbLine
 62
7
  6
CONTINUOUS
 10
17.6260200039
 20
-0.7094873451
 11
17.6264103257
 21
0.1078691405
  0
LINE
  5
2A7
100
AcDbEntity
  8
RACCORDO
100
AcDbLine
 62
7
  6
CONTINUOUS
 10
17.6244102863
 20
0.9058188821
 11
17.6265279478
 21
1.5334269723
  0
LINE
  5
2A8
100
AcDbEntity
  8
ASSI
100
AcDbLine
 62
7
  6
CONTINUOUS
 10
17.6244102863
 20
0.9058188821
 11
17.6265279478
 21
1.5334269723
  0
LINE
  5
2A9
100
AcDbEntity
  8
RACCORDO
100
AcDbLine
 62
7
  6
CONTINUOUS
 10
17.6236368359
 20
0.7837281399
 11
17.6244102863
 21
0.9058188821
  0
LINE
  5
2AA
100
AcDbEntity
  8
ASSI
100
AcDbLine
 62
7
  6
CONTINUOUS
 10
17.6236368359
 20
0.7837281399
 11
17.6244102863
 21
0.9058188821
  0
LINE
  5
2AB
100
AcDbEntity
  8
DRAFT
100
AcDbLine
 62
7
  6
CONTINUOUS
 10
17.6200030601
 20
-0.9330365817
 11
17.6217997948
 21
-0.5739878434
  0
LINE
  5
2AC
100
AcDbEntity
  8
ASSI
100
AcDbLine
 62
7
  6
CONTINUOUS
 10
17.6200030601
 20
-0.9330365817
 11
17.6217997948
 21
-0.5739878434
  0
LINE
  5
2AD
100
AcDbEntity
  8
RACCORDO
100
AcDbLine
 62
7
  6
CONTINUOUS
 10
17.623515475
 20
-1.2333792064
 11
17.6260200039
 21
-0.7094873451
  0
LINE
  5
2AE
100
AcDbEntity
  8
ASSI
100
AcDbLine
 62
7
  6
CONTINUOUS
 10
17.623515475
 20
-1.2333792064
 11
17.6260200039
 21
-0.7094873451
  0
LINE
  5
2AF
100
AcDbEntity
  8
RACCORDO
100
AcDbLine
 62
7
  6
CONTINUOUS
 10
17.62115797
 20
-1.4925443777
 11
17.623515475
 21
-1.2333792064
  0
LINE
  5
2B0
100
AcDbEntity
  8
ASSI
100
AcDbLine
 62
7
  6
CONTINUOUS
 10
17.62115797
 20
-1.4925443777
 11
17.623515475
 21
-1.2333792064
  0
LINE
  5
2B1
100
AcDbEntity
  8
DRAFT
100
AcDbLine
 62
7
  6
CONTINUOUS
 10
17.6144952016
 20
1.0337281399
 11
17.6127283664
 21
0.8623092308
  0
LINE
  5
2B2
100
AcDbEntity
  8
ASSI
100
AcDbLine
 62
7
  6
CONTINUOUS
 10
17.6144952016
 20
1.0337281399
 11
17.6127283664
 21
0.8623092308
  0
LINE
  5
2B3
100
AcDbEntity
  8
DRAFT
100
AcDbLine
 62
7
  6
CONTINUOUS
 10
17.6179577843
 20
-1.1378629038
 11
17.6200030601
 21
-0.9330365817
  0
LINE
  5
2B4
100
AcDbEntity
  8
ASSI
100
AcDbLine
 62
7
  6
CONTINUOUS
 10
17.6179577843
 20
-1.1378629038
 11
17.6200030601
 21
-0.9330365817
  0
LINE
  5
2B5
100
AcDbEntity
  8
DRAFT
100
AcDbLine
 62
7
  6
CONTINUOUS
 10
17.614496906
 20
-0.9662718601
 11
17.6126159579
 21
-1.1459445445
  0
LINE
  5
2B6
100
AcDbEntity
  8
ASSI
100
AcDbLine
 62
7
  6
CONTINUOUS
 10
17.614496906
 20
-0.9662718601
 11
17.6126159579
 21
-1.1459445445
  0
LINE
  5
2B7
100
AcDbEntity
  8
RACCORDO
100
AcDbLine
 62
7
  6
CONTINUOUS
 10
17.6199850106
 20
-1.5834370909
 11
17.62115797
 21
-1.4925443777
  0
LINE
  5
2B8
100
AcDbEntity
  8
ASSI
100
AcDbLine
 62
7
  6
CONTINUOUS
 10
17.6199850106
 20
-1.5834370909
 11
17.62115797
 21
-1.4925443777
  0
LINE
  5
2B9
100
AcDbEntity
  8
DRAFT
100
AcDbLine
 62
7
  6
CONTINUOUS
 10
17.6126159579
 20
-1.1459445445
 11
17.6109974287
 21
-1.2395079683
  0
LINE
  5
2BA
100
AcDbEntity
  8
ASSI
100
AcDbLine
 62
7
  6
CONTINUOUS
 10
17.6126159579
 20
-1.1459445445
 11
17.6109974287
 21
-1.2395079683
  0
LINE
  5
2BB
100
AcDbEntity
  8
DRAFT
100
AcDbLine
 62
7
  6
CONTINUOUS
 10
17.6109974287
 20
-1.2395079683
 11
17.6101189212
 21
-1.273688409
  0
LINE
  5
2BC
100
AcDbEntity
  8
ASSI
100
AcDbLine
 62
7
  6
CONTINUOUS
 10
17.6109974287
 20
-1.2395079683
 11
17.6101189212
 21
-1.273688409
  0
LWPOLYLINE
  5
2BD
100
AcDbEntity
  8
DRAFT
100
AcDbPolyline
 62
7
  6
CONTINUOUS
 90
6
 70
0
 10
17.6127369815
 20
-1.3152819049
 10
17.6137124855
 20
-1.3094270791
 10
17.6146138331
 20
-1.2938312807
 10
17.615491314
 20
-1.2688391583
 10
17.6163449817
 20
-1.2341798105
 10
17.6179577843
 20
-1.1378629038
  0
LWPOLYLINE
  5
2BE
100
AcDbEntity
  8
ASSI
100
AcDbPolyline
 62
7
  6
CONTINUOUS
 90
6
 70
0
 10
17.6127369815
 20
-1.3152819049
 10
17.6137124855
 20
-1.3094270791
 10
17.6146138331
 20
-1.2938312807
 10
17.615491314
 20
-1.2688391583
 10
17.6163449817
 20
-1.2341798105
 10
17.6179577843
 20
-1.1378629038
  0
LWPOLYLINE
  5
2BF
100
AcDbEntity
  8
RACCORDO
100
AcDbPolyline
 62
7
  6
CONTINUOUS
 90
8
 70
0
 10
17.6191748198
 20
-1.6072159615
 10
17.6192810114
 20
-1.6067323179
 10
17.6193859965
 20
-1.6055310448
 10
17.6194897748
 20
-1.6036121419
 10
17.619592717
 20
-1.6009633489
 10
17.6196944525
 20
-1.5975969263
 10
17.6197938701
 20
-1.5935496556
 10
17.6199850106
 20
-1.5834370909
  0
LWPOLYLINE
  5
2C0
100
AcDbEntity
  8
ASSI
100
AcDbPolyline
 62
7
  6
CONTINUOUS
 90
8
 70
0
 10
17.6191748198
 20
-1.6072159615
 10
17.6192810114
 20
-1.6067323179
 10
17.6193859965
 20
-1.6055310448
 10
17.6194897748
 20
-1.6036121419
 10
17.619592717
 20
-1.6009633489
 10
17.6196944525
 20
-1.5975969263
 10
17.6197938701
 20
-1.5935496556
 10
17.6199850106
 20
-1.5834370909
  0
LWPOLYLINE
  5
2C1
100
AcDbEntity
  8
RACCORDO
100
AcDbPolyline
 62
253
  6
CONTINUOUS
 90
9
 70
0
 10
19.4173851686
 20
-1.3995715566
 10
19.4204273155
 20
-1.4342934796
 10
19.4294510631
 20
-1.4679615562
 10
19.4441827282
 20
-1.4995530206
 10
19.4641752425
 20
-1.5281081135
 10
19.4888216092
 20
-1.5527591016
 10
19.5173732445
 20
-1.5727567246
 10
19.5489628827
 20
-1.5874931585
 10
19.5816779945
 20
-1.5962649085
  0
LWPOLYLINE
  5
2C2
100
AcDbEntity
  8
ASSI
100
AcDbPolyline
 62
253
  6
CONTINUOUS
 90
9
 70
0
 10
19.4173851686
 20
-1.3995715566
 10
19.4204273155
 20
-1.4342934796
 10
19.4294510631
 20
-1.4679615562
 10
19.4441827282
 20
-1.4995530206
 10
19.4641752425
 20
-1.5281081135
 10
19.4888216092
 20
-1.5527591016
 10
19.5173732445
 20
-1.5727567246
 10
19.5489628827
 20
-1.5874931585
 10
19.5816779945
 20
-1.5962649085
  0
LWPOLYLINE
  5
2C3
100
AcDbEntity
  8
RACCORDO
100
AcDbPolyline
 62
253
  6
CONTINUOUS
 90
16
 70
0
 10
19.6205949996
 20
-2.2558871646
 10
19.6239199196
 20
-2.3187790155
 10
19.6338196784
 20
-2.3809775285
 10
19.6501851049
 20
-2.4417972359
 10
19.6728388615
 20
-2.5005747848
 10
19.7015295853
 20
-2.5566548779
 10
19.7359275709
 20
-2.6094010267
 10
19.7756381873
 20
-2.6582254115
 10
19.8202262184
 20
-2.7026079115
 10
19.8692131864
 20
-2.7420778054
 10
19.9221391756
 20
-2.7762470697
 10
19.9783524652
 20
-2.8046787601
 10
20.0369925169
 20
-2.8269827628
 10
20.0973073797
 20
-2.8429723173
 10
20.1587013784
 20
-2.8525850509
 10
20.2205036167
 20
-2.8557957816
  0
LWPOLYLINE
  5
2C4
100
AcDbEntity
  8
RACCORDO
100
AcDbPolyline
 62
253
  6
CONTINUOUS
 90
7
 70
0
 10
19.4204435079
 20
2.9089300287
 10
19.4199865976
 20
2.9259979988
 10
19.4194961586
 20
2.9404532352
 10
19.4189891047
 20
2.9518303735
 10
19.4184710741
 20
2.9599742925
 10
19.4179364288
 20
2.9650401135
 10
19.4173851686
 20
2.9670278365
  0
LWPOLYLINE
  5
2C5
100
AcDbEntity
  8
ASSI
100
AcDbPolyline
 62
253
  6
CONTINUOUS
 90
7
 70
0
 10
19.4204435079
 20
2.9089300287
 10
19.4199865976
 20
2.9259979988
 10
19.4194961586
 20
2.9404532352
 10
19.4189891047
 20
2.9518303735
 10
19.4184710741
 20
2.9599742925
 10
19.4179364288
 20
2.9650401135
 10
19.4173851686
 20
2.9670278365
  0
LINE
  5
2C6
100
AcDbEntity
  8
RACCORDO
100
AcDbLine
 62
253
  6
CONTINUOUS
 10
19.421253767
 20
2.8667883094
 11
19.4204435079
 21
2.9089300287
  0
LINE
  5
2C7
100
AcDbEntity
  8
ASSI
100
AcDbLine
 62
253
  6
CONTINUOUS
 10
19.421253767
 20
2.8667883094
 11
19.4204435079
 21
2.9089300287
  0
LINE
  5
2C8
100
AcDbEntity
  8
RACCORDO
100
AcDbLine
 62
7
  6
CONTINUOUS
 10
19.4114687124
 20
2.7472785456
 11
19.407879363
 21
2.9717803774
  0
LINE
  5
2C9
100
AcDbEntity
  8
ASSI
100
AcDbLine
 62
7
  6
CONTINUOUS
 10
19.4114687124
 20
2.7472785456
 11
19.407879363
 21
2.9717803774
  0
LINE
  5
2CA
100
AcDbEntity
  8
RACCORDO
100
AcDbLine
 62
253
  6
CONTINUOUS
 10
19.4218910761
 20
2.8162685857
 11
19.421253767
 21
2.8667883094
  0
LINE
  5
2CB
100
AcDbEntity
  8
ASSI
100
AcDbLine
 62
253
  6
CONTINUOUS
 10
19.4218910761
 20
2.8162685857
 11
19.421253767
 21
2.8667883094
  0
LINE
  5
2CC
100
AcDbEntity
  8
RACCORDO
100
AcDbLine
 62
7
  6
CONTINUOUS
 10
19.582078992
 20
3.1425043001
 11
19.5829906973
 21
3.0709898332
  0
LINE
  5
2CD
100
AcDbEntity
  8
RACCORDO
100
AcDbLine
 62
7
  6
CONTINUOUS
 10
19.4142510879
 20
2.4878603066
 11
19.4114687124
 21
2.7472785456
  0
LINE
  5
2CE
100
AcDbEntity
  8
ASSI
100
AcDbLine
 62
7
  6
CONTINUOUS
 10
19.4142510879
 20
2.4878603066
 11
19.4114687124
 21
2.7472785456
  0
LINE
  5
2CF
100
AcDbEntity
  8
RACCORDO
100
AcDbLine
 62
7
  6
CONTINUOUS
 10
19.5829906973
 20
3.0709898332
 11
19.5835564426
 21
2.9900986573
  0
LINE
  5
2D0
100
AcDbEntity
  8
RACCORDO
100
AcDbLine
 62
253
  6
CONTINUOUS
 10
19.4224732835
 20
2.7293147912
 11
19.4218910761
 21
2.8162685857
  0
LINE
  5
2D1
100
AcDbEntity
  8
ASSI
100
AcDbLine
 62
253
  6
CONTINUOUS
 10
19.4224732835
 20
2.7293147912
 11
19.4218910761
 21
2.8162685857
  0
LINE
  5
2D2
100
AcDbEntity
  8
RACCORDO
100
AcDbLine
 62
253
  6
CONTINUOUS
 10
19.4225879371
 20
2.4961971559
 11
19.4224732835
 21
2.7293147912
  0
LINE
  5
2D3
100
AcDbEntity
  8
ASSI
100
AcDbLine
 62
253
  6
CONTINUOUS
 10
19.4225879371
 20
2.4961971559
 11
19.4224732835
 21
2.7293147912
  0
LINE
  5
2D4
100
AcDbEntity
  8
RACCORDO
100
AcDbLine
 62
7
  6
CONTINUOUS
 10
19.5101189212
 20
3.9340936437
 11
19.5101189212
 21
3.3647475882
  0
LINE
  5
2D5
100
AcDbEntity
  8
RACCORDO
100
AcDbLine
 62
7
  6
CONTINUOUS
 10
19.5101189212
 20
-1.7972913083
 11
19.5101189212
 21
-2.3666373638
  0
LINE
  5
2D6
100
AcDbEntity
  8
RACCORDO
100
AcDbLine
 62
7
  6
CONTINUOUS
 10
19.5401189212
 20
-2.336363243
 11
19.5401189212
 21
-1.7972913083
  0
LINE
  5
2D7
100
AcDbEntity
  8
RACCORDO
100
AcDbLine
 62
7
  6
CONTINUOUS
 10
19.5401189212
 20
3.3647475882
 11
19.5401189212
 21
3.9038195228
  0
LINE
  5
2D8
100
AcDbEntity
  8
RACCORDO
100
AcDbLine
 62
7
  6
CONTINUOUS
 10
19.5837565835
 20
-1.3341342617
 11
19.5835564426
 21
2.9900986573
  0
LINE
  5
2D9
100
AcDbEntity
  8
RACCORDO
100
AcDbLine
 62
253
  6
CONTINUOUS
 10
19.6205949996
 20
-2.2558871646
 11
19.6205949996
 21
3.8233434444
  0
LINE
  5
2DA
100
AcDbEntity
  8
RACCORDO
100
AcDbLine
 62
253
  6
CONTINUOUS
 10
19.4224742896
 20
-1.1616413628
 11
19.4225879371
 21
-0.928740876
  0
LINE
  5
2DB
100
AcDbEntity
  8
ASSI
100
AcDbLine
 62
253
  6
CONTINUOUS
 10
19.4224742896
 20
-1.1616413628
 11
19.4225879371
 21
-0.928740876
  0
LINE
  5
2DC
100
AcDbEntity
  8
RACCORDO
100
AcDbLine
 62
7
  6
CONTINUOUS
 10
19.5837565835
 20
-1.3341342617
 11
19.5835564426
 21
-1.4226423774
  0
LINE
  5
2DD
100
AcDbEntity
  8
RACCORDO
100
AcDbLine
 62
7
  6
CONTINUOUS
 10
19.5835564426
 20
-1.4226423774
 11
19.5829906973
 21
-1.5035335533
  0
LINE
  5
2DE
100
AcDbEntity
  8
RACCORDO
100
AcDbLine
 62
253
  6
CONTINUOUS
 10
19.4218940117
 20
-1.2485129246
 11
19.4224742896
 21
-1.1616413628
  0
LINE
  5
2DF
100
AcDbEntity
  8
ASSI
100
AcDbLine
 62
253
  6
CONTINUOUS
 10
19.4218940117
 20
-1.2485129246
 11
19.4224742896
 21
-1.1616413628
  0
LINE
  5
2E0
100
AcDbEntity
  8
RACCORDO
100
AcDbLine
 62
7
  6
CONTINUOUS
 10
19.4114687124
 20
-1.1798222657
 11
19.4142510879
 21
-0.9204040267
  0
LINE
  5
2E1
100
AcDbEntity
  8
ASSI
100
AcDbLine
 62
7
  6
CONTINUOUS
 10
19.4114687124
 20
-1.1798222657
 11
19.4142510879
 21
-0.9204040267
  0
LINE
  5
2E2
100
AcDbEntity
  8
RACCORDO
100
AcDbLine
 62
253
  6
CONTINUOUS
 10
19.4212578851
 20
-1.299066375
 11
19.4218940117
 21
-1.2485129246
  0
LINE
  5
2E3
100
AcDbEntity
  8
ASSI
100
AcDbLine
 62
253
  6
CONTINUOUS
 10
19.4212578851
 20
-1.299066375
 11
19.4218940117
 21
-1.2485129246
  0
LWPOLYLINE
  5
2E4
100
AcDbEntity
  8
RACCORDO
100
AcDbPolyline
 62
7
  6
CONTINUOUS
 90
8
 70
0
 10
19.5829906973
 20
-1.5035335533
 10
19.582078992
 20
-1.5750480202
 10
19.581514628
 20
-1.6049086737
 10
19.5808801444
 20
-1.6309586758
 10
19.5802051804
 20
-1.6519800655
 10
19.5794996158
 20
-1.6675668557
 10
19.5787535708
 20
-1.6781250335
 10
19.5779670454
 20
-1.6836545989
  0
LINE
  5
2E5
100
AcDbEntity
  8
RACCORDO
100
AcDbLine
 62
7
  6
CONTINUOUS
 10
19.407879363
 20
-1.4043240975
 11
19.4114687124
 21
-1.1798222657
  0
LINE
  5
2E6
100
AcDbEntity
  8
ASSI
100
AcDbLine
 62
7
  6
CONTINUOUS
 10
19.407879363
 20
-1.4043240975
 11
19.4114687124
 21
-1.1798222657
  0
LWPOLYLINE
  5
2E7
100
AcDbEntity
  8
RACCORDO
100
AcDbPolyline
 62
7
  6
CONTINUOUS
 90
16
 70
0
 10
19.407879363
 20
2.9717803774
 10
19.4082103287
 20
2.9881240761
 10
19.409773287
 20
3.0038526636
 10
19.4124373324
 20
3.0188846764
 10
19.4160539928
 20
3.0331051825
 10
19.4205038383
 20
3.0465229819
 10
19.4257346388
 20
3.0592560304
 10
19.4316469149
 20
3.0712580801
 10
19.4381570179
 20
3.0825246369
 10
19.4453083203
 20
3.0932170825
 10
19.4530665102
 20
3.1033272743
 10
19.4613648984
 20
3.1128065014
 10
19.4702524827
 20
3.1217227692
 10
19.4797288098
 20
3.130067707
 10
19.489723181
 20
3.1377758303
 10
19.5001946905
 20
3.1448158163
  0
LWPOLYLINE
  5
2E8
100
AcDbEntity
  8
ASSI
100
AcDbPolyline
 62
7
  6
CONTINUOUS
 90
16
 70
0
 10
19.407879363
 20
2.9717803774
 10
19.4082103287
 20
2.9881240761
 10
19.409773287
 20
3.0038526636
 10
19.4124373324
 20
3.0188846764
 10
19.4160539928
 20
3.0331051825
 10
19.4205038383
 20
3.0465229819
 10
19.4257346388
 20
3.0592560304
 10
19.4316469149
 20
3.0712580801
 10
19.4381570179
 20
3.0825246369
 10
19.4453083203
 20
3.0932170825
 10
19.4530665102
 20
3.1033272743
 10
19.4613648984
 20
3.1128065014
 10
19.4702524827
 20
3.1217227692
 10
19.4797288098
 20
3.130067707
 10
19.489723181
 20
3.1377758303
 10
19.5001946905
 20
3.1448158163
  0
LWPOLYLINE
  5
2E9
100
AcDbEntity
  8
RACCORDO
100
AcDbPolyline
 62
253
  6
CONTINUOUS
 90
16
 70
0
 10
19.6205949996
 20
3.8233434444
 10
19.6239199168
 20
3.8862352685
 10
19.6338196677
 20
3.948433758
 10
19.6501850821
 20
4.0092534459
 10
19.6728388243
 20
4.0680309814
 10
19.7015295319
 20
4.1241110657
 10
19.7359274974
 20
4.1768572059
 10
19.7756380846
 20
4.2256815778
 10
19.8202260808
 20
4.2700640681
 10
19.8692130206
 20
4.3095339655
 10
19.922138994
 20
4.3437032454
 10
19.9783522799
 20
4.3721349582
 10
20.0369923469
 20
4.394438988
 10
20.0973072466
 20
4.4104285692
 10
20.1587013023
 20
4.4200413229
 10
20.2205036167
 20
4.4232520615
  0
LWPOLYLINE
  5
2EA
100
AcDbEntity
  8
RACCORDO
100
AcDbPolyline
 62
7
  6
CONTINUOUS
 90
16
 70
0
 10
19.5101189212
 20
3.9340936437
 10
19.5137075508
 20
3.9979558987
 10
19.5235029463
 20
4.0597872463
 10
19.5395051078
 20
4.1195876867
 10
19.5620236773
 20
4.1779614772
 10
19.5907490128
 20
4.2343043603
 10
19.6247521882
 20
4.2868035645
 10
19.6642032697
 20
4.335334088
 10
19.7089321911
 20
4.3800209324
 10
19.7574998282
 20
4.4194263307
 10
19.8100519177
 20
4.4533800891
 10
19.8664427229
 20
4.4820524014
 10
19.9247959089
 20
4.5045160812
 10
19.9844860309
 20
4.5204620665
 10
20.0461385337
 20
4.5301994194
 10
20.1097534174
 20
4.5337281399
  0
LWPOLYLINE
  5
2EB
100
AcDbEntity
  8
RACCORDO
100
AcDbPolyline
 62
7
  6
CONTINUOUS
 90
16
 70
0
 10
19.5401189212
 20
3.9038195228
 10
19.5437046068
 20
3.9676474132
 10
19.55349316
 20
4.0294522111
 10
19.5694845809
 20
4.0892339165
 10
19.5919857858
 20
4.1475950552
 10
19.6206898583
 20
4.2039331014
 10
19.6546760493
 20
4.256440478
 10
19.6941212587
 20
4.3049984754
 10
19.7388485865
 20
4.3497258032
 10
19.7874065839
 20
4.3891710124
 10
19.8399139604
 20
4.4231572033
 10
19.8962520064
 20
4.4518612756
 10
19.954613145
 20
4.4743624804
 10
20.0143948503
 20
4.4903539012
 10
20.076199648
 20
4.5001424544
 10
20.1400275383
 20
4.5037281399
  0
LWPOLYLINE
  5
2EC
100
AcDbEntity
  8
RACCORDO
100
AcDbPolyline
 62
253
  6
CONTINUOUS
 90
9
 70
0
 10
19.4173851686
 20
2.9670278365
 10
19.4204278555
 20
3.0017528163
 10
19.4294529076
 20
3.0354228994
 10
19.4441861563
 20
3.0670152352
 10
19.4641800261
 20
3.0955700923
 10
19.4888271308
 20
3.1202200136
 10
19.5173787259
 20
3.1402161688
 10
19.5489674536
 20
3.1549511021
 10
19.5816779988
 20
3.1637209602
  0
LWPOLYLINE
  5
2ED
100
AcDbEntity
  8
ASSI
100
AcDbPolyline
 62
253
  6
CONTINUOUS
 90
9
 70
0
 10
19.4173851686
 20
2.9670278365
 10
19.4204278555
 20
3.0017528163
 10
19.4294529076
 20
3.0354228994
 10
19.4441861563
 20
3.0670152352
 10
19.4641800261
 20
3.0955700923
 10
19.4888271308
 20
3.1202200136
 10
19.5173787259
 20
3.1402161688
 10
19.5489674536
 20
3.1549511021
 10
19.5816779988
 20
3.1637209602
  0
LWPOLYLINE
  5
2EE
100
AcDbEntity
  8
0
100
AcDbPolyline
 62
7
  6
CONTINUOUS
 90
36
 70
0
 10
19.1340147476
 20
-0.4742233864
 10
19.1185840662
 20
-0.5563293915
 10
19.0988398231
 20
-0.6327745973
 10
19.0747820182
 20
-0.7035440314
 10
19.046234041
 20
-0.7690888285
 10
19.0133725021
 20
-0.8290691658
 10
18.9767272336
 20
-0.8824080404
 10
18.9362274496
 20
-0.9291384635
 10
18.8919439358
 20
-0.9696421479
 10
18.8446188819
 20
-1.0034698881
 10
18.7937266252
 20
-1.0308560131
 10
18.7397928282
 20
-1.0519838039
 10
18.6851366685
 20
-1.0663374054
 10
18.6299621588
 20
-1.0737408655
 10
18.5740652864
 20
-1.0745683402
 10
18.5191531905
 20
-1.0690642558
 10
18.465330346
 20
-1.0571676383
 10
18.412492278
 20
-1.03878773
 10
18.362032701
 20
-1.0140515412
 10
18.3137797265
 20
-0.9821925906
 10
18.267905243
 20
-0.9435550937
 10
18.2263186305
 20
-0.8999796479
 10
18.1898034075
 20
-0.8517642457
 10
18.1575760554
 20
-0.7983241045
 10
18.1291953986
 20
-0.7403094879
 10
18.104555769
 20
-0.677554166
 10
18.0837628346
 20
-0.61010071
 10
18.066692424
 20
-0.5390272355
 10
18.053281601
 20
-0.4643611251
 10
18.0435933018
 20
-0.3862269057
 10
18.0376921629
 20
-0.3059632443
 10
18.035414545
 20
-0.2235136865
 10
18.0369240874
 20
-0.1393269696
 10
18.0427763448
 20
-0.0555561204
 10
18.0528477597
 20
0.0277633767
 10
18.0672618895
 20
0.1102108536
  0
LWPOLYLINE
  5
2EF
100
AcDbEntity
  8
0
100
AcDbPolyline
 62
7
  6
CONTINUOUS
 90
5
 70
0
 10
18.0672618895
 20
0.1102108536
 10
18.086944961
 20
0.1891386769
 10
18.1122057164
 20
0.2636401689
 10
18.1427354135
 20
0.3344680481
 10
18.1785340522
 20
0.4015896804
  0
LWPOLYLINE
  5
2F0
100
AcDbEntity
  8
0
100
AcDbPolyline
 62
7
  6
CONTINUOUS
 90
34
 70
0
 10
18.1785340522
 20
2.4015896804
 10
18.1966188331
 20
2.4291688353
 10
18.2163331028
 20
2.4554824983
 10
18.2376768613
 20
2.4805475763
 10
18.2606633905
 20
2.5045801391
 10
18.2852794085
 20
2.527397431
 10
18.3114850696
 20
2.5484338877
 10
18.3394384871
 20
2.5677355312
 10
18.3689815477
 20
2.5853221091
 10
18.3996000661
 20
2.6006150878
 10
18.4312454251
 20
2.6135455046
 10
18.4639662418
 20
2.6242595394
 10
18.4973941833
 20
2.6325116386
 10
18.5314049328
 20
2.6383480948
 10
18.566122807
 20
2.6417689452
 10
18.6015524224
 20
2.6424534523
 10
18.637830573
 20
2.6404930358
 10
18.6748204647
 20
2.6357914234
 10
18.7121163323
 20
2.6277282695
 10
18.7498460234
 20
2.6162768274
 10
18.7878816903
 20
2.601375764
 10
18.8254340255
 20
2.5823151051
 10
18.8627755095
 20
2.5586158414
 10
18.8996336616
 20
2.5305453864
 10
18.934401732
 20
2.4984956815
 10
18.9666830667
 20
2.4623957533
 10
18.9968743196
 20
2.422095224
 10
19.0245587028
 20
2.3778965458
 10
19.0496769197
 20
2.3295962668
 10
19.0722882668
 20
2.2772317847
 10
19.0921538457
 20
2.2215260088
 10
19.1091940235
 20
2.162725974
 10
19.123488433
 20
2.1005753535
 10
19.1350370742
 20
2.0350986476
  0
LINE
  5
2F1
100
AcDbEntity
  8
RACCORDO
100
AcDbLine
 62
7
  6
CONTINUOUS
 10
20.6101189212
 20
-2.9362718601
 11
20.5698839465
 21
-2.8557957817
  0
LWPOLYLINE
  5
2F2
100
AcDbEntity
  8
RACCORDO
100
AcDbPolyline
 62
7
  6
CONTINUOUS
 90
7
 70
0
 10
19.5779670454
 20
3.2511108788
 10
19.5787535708
 20
3.2455813134
 10
19.5794996158
 20
3.2350231356
 10
19.5802051804
 20
3.2194363454
 10
19.5808801444
 20
3.1984149557
 10
19.581514628
 20
3.1723649536
 10
19.582078992
 20
3.1425043001
  0
LWPOLYLINE
  5
2F3
100
AcDbEntity
  8
0
100
AcDbPolyline
 62
7
  6
CONTINUOUS
 90
38
 70
0
 10
19.1350370742
 20
2.0350986476
 10
19.1450186888
 20
1.9555152705
 10
19.1511524311
 20
1.8749548585
 10
19.1534383013
 20
1.7936162581
 10
19.1520135268
 20
1.7110757071
 10
19.1467408802
 20
1.6281858029
 10
19.1372086785
 20
1.5470518301
 10
19.1233831567
 20
1.4676144786
 10
19.10529808
 20
1.3902899758
 10
19.0826430603
 20
1.3177573113
 10
19.0550116536
 20
1.2500710975
 10
19.0228103039
 20
1.1871531704
 10
18.9869479561
 20
1.1312246178
 10
18.9472321209
 20
1.0826521625
 10
18.9038552876
 20
1.0406225491
 10
18.8583038678
 20
1.0054298855
 10
18.8106858589
 20
0.9770690351
 10
18.7608932636
 20
0.9551068859
 10
18.7100885023
 20
0.9392139986
 10
18.6582925017
 20
0.9291710216
 10
18.6054843351
 20
0.9249941619
 10
18.5527636431
 20
0.926775115
 10
18.4999365171
 20
0.9345397929
 10
18.4471968658
 20
0.9483414919
 10
18.3962260553
 20
0.9683861245
 10
18.3467373637
 20
0.9956267576
 10
18.2990175128
 20
1.0294840366
 10
18.2556080346
 20
1.0678310903
 10
18.2173760124
 20
1.1109598881
 10
18.1834543629
 20
1.1588601898
 10
18.1537833678
 20
1.2087331822
 10
18.128709586
 20
1.2602028156
 10
18.1078864586
 20
1.3136206664
 10
18.0902145902
 20
1.3670799647
 10
18.0756558161
 20
1.4203668584
 10
18.064248301
 20
1.4735351145
 10
18.055007144
 20
1.5249879013
 10
18.0478868464
 20
1.5740837444
  0
LWPOLYLINE
  5
2F4
100
AcDbEntity
  8
RACCORDO
100
AcDbPolyline
 62
7
  6
CONTINUOUS
 90
4
 70
0
 10
20.5911963003
 20
-1.6836545989
 10
20.5908030944
 20
-1.6781259662
 10
20.5904301207
 20
-1.6675688652
 10
20.5900773792
 20
-1.6519832959
  0
LWPOLYLINE
  5
2F5
100
AcDbEntity
  8
RACCORDO
100
AcDbPolyline
 62
7
  6
CONTINUOUS
 90
5
 70
0
 10
20.5677866704
 20
-2.800844541
 10
20.5682878751
 20
-2.8238754659
 10
20.568801946
 20
-2.8405579302
 10
20.5693339698
 20
-2.8511980354
 10
20.5698839465
 20
-2.8557957817
  0
LINE
  5
2F6
100
AcDbEntity
  8
RACCORDO
100
AcDbLine
 62
253
  6
CONTINUOUS
 10
20.652641938
 20
4.3204976326
 11
20.6531230073
 21
4.2945071925
  0
LINE
  5
2F7
100
AcDbEntity
  8
ASSI
100
AcDbLine
 62
253
  6
CONTINUOUS
 10
20.652641938
 20
4.3204976326
 11
20.6531230073
 21
4.2945071925
  0
LINE
  5
2F8
100
AcDbEntity
  8
RACCORDO
100
AcDbLine
 62
253
  6
CONTINUOUS
 10
20.8023895809
 20
4.4742471987
 11
20.8028862957
 21
4.4440389978
  0
LINE
  5
2F9
100
AcDbEntity
  8
ASSI
100
AcDbLine
 62
253
  6
CONTINUOUS
 10
20.8023895809
 20
4.4742471987
 11
20.8028862957
 21
4.4440389978
  0
LINE
  5
2FA
100
AcDbEntity
  8
RACCORDO
100
AcDbLine
 62
7
  6
CONTINUOUS
 10
20.6290538978
 20
3.1219520657
 11
20.6298403678
 21
3.0693832534
  0
LINE
  5
2FB
100
AcDbEntity
  8
ASSI
100
AcDbLine
 62
7
  6
CONTINUOUS
 10
20.6290538978
 20
3.1219520657
 11
20.6298403678
 21
3.0693832534
  0
LINE
  5
2FC
100
AcDbEntity
  8
RACCORDO
100
AcDbLine
 62
7
  6
CONTINUOUS
 10
20.5668533801
 20
-2.7375739189
 11
20.5677866704
 21
-2.800844541
  0
LINE
  5
2FD
100
AcDbEntity
  8
RACCORDO
100
AcDbLine
 62
7
  6
CONTINUOUS
 10
20.5900773792
 20
-1.6519832959
 11
20.5894227126
 21
-1.60491527
  0
LINE
  5
2FE
100
AcDbEntity
  8
RACCORDO
100
AcDbLine
 62
253
  6
CONTINUOUS
 10
20.6531230073
 20
4.2945071925
 11
20.6537526547
 21
4.2386042645
  0
LINE
  5
2FF
100
AcDbEntity
  8
ASSI
100
AcDbLine
 62
253
  6
CONTINUOUS
 10
20.6531230073
 20
4.2945071925
 11
20.6537526547
 21
4.2386042645
  0
LINE
  5
300
100
AcDbEntity
  8
RACCORDO
100
AcDbLine
 62
253
  6
CONTINUOUS
 10
20.8028862957
 20
4.4440389978
 11
20.8035525725
 21
4.3736671702
  0
LINE
  5
301
100
AcDbEntity
  8
ASSI
100
AcDbLine
 62
253
  6
CONTINUOUS
 10
20.8028862957
 20
4.4440389978
 11
20.8035525725
 21
4.3736671702
  0
LINE
  5
302
100
AcDbEntity
  8
RACCORDO
100
AcDbLine
 62
7
  6
CONTINUOUS
 10
20.565717804
 20
-2.6051558824
 11
20.5668533801
 21
-2.7375739189
  0
LINE
  5
303
100
AcDbEntity
  8
RACCORDO
100
AcDbLine
 62
7
  6
CONTINUOUS
 10
20.6298403678
 20
3.0693832534
 11
20.6307974494
 21
2.9588380479
  0
LINE
  5
304
100
AcDbEntity
  8
ASSI
100
AcDbLine
 62
7
  6
CONTINUOUS
 10
20.6298403678
 20
3.0693832534
 11
20.6307974494
 21
2.9588380479
  0
LINE
  5
305
100
AcDbEntity
  8
RACCORDO
100
AcDbLine
 62
7
  6
CONTINUOUS
 10
20.5894227126
 20
-1.60491527
 11
20.5886847036
 21
-1.5035414171
  0
LINE
  5
306
100
AcDbEntity
  8
RACCORDO
100
AcDbLine
 62
253
  6
CONTINUOUS
 10
20.6537526547
 20
4.2386042645
 11
20.6544567277
 21
4.1106969245
  0
LINE
  5
307
100
AcDbEntity
  8
ASSI
100
AcDbLine
 62
253
  6
CONTINUOUS
 10
20.6537526547
 20
4.2386042645
 11
20.6544567277
 21
4.1106969245
  0
LINE
  5
308
100
AcDbEntity
  8
RACCORDO
100
AcDbLine
 62
253
  6
CONTINUOUS
 10
20.8035525725
 20
4.3736671702
 11
20.8044495061
 21
4.1623376445
  0
LINE
  5
309
100
AcDbEntity
  8
ASSI
100
AcDbLine
 62
253
  6
CONTINUOUS
 10
20.8035525725
 20
4.3736671702
 11
20.8044495061
 21
4.1623376445
  0
LINE
  5
30A
100
AcDbEntity
  8
DRAFT
100
AcDbLine
 62
7
  6
CONTINUOUS
 10
20.626354173
 20
0.1376038365
 11
20.6236368359
 21
0.7837281399
  0
LINE
  5
30B
100
AcDbEntity
  8
ASSI
100
AcDbLine
 62
7
  6
CONTINUOUS
 10
20.626354173
 20
0.1376038365
 11
20.6236368359
 21
0.7837281399
  0
LINE
  5
30C
100
AcDbEntity
  8
RACCORDO
100
AcDbLine
 62
7
  6
CONTINUOUS
 10
20.5647697237
 20
-2.3189759341
 11
20.565717804
 21
-2.6051558824
  0
LINE
  5
30D
100
AcDbEntity
  8
RACCORDO
100
AcDbLine
 62
7
  6
CONTINUOUS
 10
20.6307974494
 20
2.9588380479
 11
20.6315963694
 21
2.7193819513
  0
LINE
  5
30E
100
AcDbEntity
  8
ASSI
100
AcDbLine
 62
7
  6
CONTINUOUS
 10
20.6307974494
 20
2.9588380479
 11
20.6315963694
 21
2.7193819513
  0
LINE
  5
30F
100
AcDbEntity
  8
RACCORDO
100
AcDbLine
 62
253
  6
CONTINUOUS
 10
20.6544567277
 20
4.1106969245
 11
20.6546373702
 21
3.9922564787
  0
LINE
  5
310
100
AcDbEntity
  8
ASSI
100
AcDbLine
 62
253
  6
CONTINUOUS
 10
20.6544567277
 20
4.1106969245
 11
20.6546373702
 21
3.9922564787
  0
LINE
  5
311
100
AcDbEntity
  8
RACCORDO
100
AcDbLine
 62
253
  6
CONTINUOUS
 10
20.2205036167
 20
-2.8557957817
 11
20.2205036167
 21
4.4232520615
  0
LINE
  5
312
100
AcDbEntity
  8
RACCORDO
100
AcDbLine
 62
7
  6
CONTINUOUS
 10
20.5886847036
 20
-1.5035414171
 11
20.5883017517
 21
2.9015905416
  0
LINE
  5
313
100
AcDbEntity
  8
DRAFT
100
AcDbLine
 62
7
  6
CONTINUOUS
 10
20.6101189212
 20
4.5037281399
 11
20.6101189212
 21
3.8337281399
  0
LINE
  5
314
100
AcDbEntity
  8
DRAFT
100
AcDbLine
 62
7
  6
CONTINUOUS
 10
20.6101189212
 20
-2.2662718601
 11
20.6101189212
 21
-2.9362718601
  0
LINE
  5
315
100
AcDbEntity
  8
RACCORDO
100
AcDbLine
 62
7
  6
CONTINUOUS
 10
20.6101189212
 20
-2.8162775716
 11
20.6101189212
 21
-2.1662718601
  0
LINE
  5
316
100
AcDbEntity
  8
DRAFT
100
AcDbLine
 62
7
  6
CONTINUOUS
 10
20.6101189212
 20
-2.1662718601
 11
20.6101189212
 21
-1.6162718601
  0
LINE
  5
317
100
AcDbEntity
  8
ASSI
100
AcDbLine
 62
7
  6
CONTINUOUS
 10
20.6101189212
 20
-2.8162775716
 11
20.6101189212
 21
-1.6162718601
  0
LINE
  5
318
100
AcDbEntity
  8
DRAFT
100
AcDbLine
 62
7
  6
CONTINUOUS
 10
20.6101189212
 20
3.1837281399
 11
20.6101189212
 21
3.7337281399
  0
LINE
  5
319
100
AcDbEntity
  8
RACCORDO
100
AcDbLine
 62
7
  6
CONTINUOUS
 10
20.6101189212
 20
3.7337281399
 11
20.6101189212
 21
4.3837338515
  0
LINE
  5
31A
100
AcDbEntity
  8
ASSI
100
AcDbLine
 62
7
  6
CONTINUOUS
 10
20.6101189212
 20
3.1837281399
 11
20.6101189212
 21
4.3837338515
  0
LINE
  5
31B
100
AcDbEntity
  8
RACCORDO
100
AcDbLine
 62
7
  6
CONTINUOUS
 10
20.6316220654
 20
2.5005551065
 11
20.6315963694
 21
2.7193819513
  0
LINE
  5
31C
100
AcDbEntity
  8
ASSI
100
AcDbLine
 62
7
  6
CONTINUOUS
 10
20.6316220654
 20
2.5005551065
 11
20.6315963694
 21
2.7193819513
  0
LINE
  5
31D
100
AcDbEntity
  8
RACCORDO
100
AcDbLine
 62
7
  6
CONTINUOUS
 10
20.6546373702
 20
3.9922564787
 11
20.6546373702
 21
-2.4248001989
  0
LINE
  5
31E
100
AcDbEntity
  8
ASSI
100
AcDbLine
 62
7
  6
CONTINUOUS
 10
20.6546373702
 20
3.9922564787
 11
20.6546373702
 21
-2.4248001989
  0
LINE
  5
31F
100
AcDbEntity
  8
RACCORDO
100
AcDbLine
 62
253
  6
CONTINUOUS
 10
20.8044495061
 20
4.1623376445
 11
20.8046316587
 21
-2.4246869809
  0
LINE
  5
320
100
AcDbEntity
  8
ASSI
100
AcDbLine
 62
253
  6
CONTINUOUS
 10
20.8044495061
 20
4.1623376445
 11
20.8046316587
 21
-2.4246869809
  0
LINE
  5
321
100
AcDbEntity
  8
DRAFT
100
AcDbLine
 62
7
  6
CONTINUOUS
 10
21.4066279082
 20
3.7372191529
 11
21.4066279082
 21
-2.169762873
  0
LINE
  5
322
100
AcDbEntity
  8
ASSI
100
AcDbLine
 62
7
  6
CONTINUOUS
 10
21.4066279082
 20
3.7372191529
 11
21.4066279082
 21
-2.169762873
  0
LINE
  5
323
100
AcDbEntity
  8
DRAFT
100
AcDbLine
 62
7
  6
CONTINUOUS
 10
21.4101189212
 20
3.7337281399
 11
21.4101189212
 21
-2.1662718601
  0
LINE
  5
324
100
AcDbEntity
  8
DRAFT
100
AcDbLine
 62
7
  6
CONTINUOUS
 10
20.6266629623
 20
1.6689875208
 11
20.6252751489
 21
2.4878603066
  0
LINE
  5
325
100
AcDbEntity
  8
ASSI
100
AcDbLine
 62
7
  6
CONTINUOUS
 10
20.6266629623
 20
1.6689875208
 11
20.6252751489
 21
2.4878603066
  0
LINE
  5
326
100
AcDbEntity
  8
DRAFT
100
AcDbLine
 62
7
  6
CONTINUOUS
 10
20.6260581581
 20
-0.6955376671
 11
20.626354173
 21
0.1376038365
  0
LINE
  5
327
100
AcDbEntity
  8
ASSI
100
AcDbLine
 62
7
  6
CONTINUOUS
 10
20.6260581581
 20
-0.6955376671
 11
20.626354173
 21
0.1376038365
  0
LINE
  5
328
100
AcDbEntity
  8
RACCORDO
100
AcDbLine
 62
7
  6
CONTINUOUS
 10
20.5651820514
 20
4.0645810671
 11
20.5647697237
 21
-2.3189759341
  0
LINE
  5
329
100
AcDbEntity
  8
RACCORDO
100
AcDbLine
 62
7
  6
CONTINUOUS
 10
20.6316220654
 20
-0.9330988266
 11
20.6312489332
 21
-1.3010239695
  0
LINE
  5
32A
100
AcDbEntity
  8
ASSI
100
AcDbLine
 62
7
  6
CONTINUOUS
 10
20.6316220654
 20
-0.9330988266
 11
20.6312489332
 21
-1.3010239695
  0
LINE
  5
32B
100
AcDbEntity
  8
DRAFT
100
AcDbLine
 62
7
  6
CONTINUOUS
 10
20.6252751489
 20
-0.9204040267
 11
20.6260581581
 21
-0.6955376671
  0
LINE
  5
32C
100
AcDbEntity
  8
ASSI
100
AcDbLine
 62
7
  6
CONTINUOUS
 10
20.6252751489
 20
-0.9204040267
 11
20.6260581581
 21
-0.6955376671
  0
LINE
  5
32D
100
AcDbEntity
  8
RACCORDO
100
AcDbLine
 62
253
  6
CONTINUOUS
 10
20.8046317483
 20
-2.4246869809
 11
20.8040851511
 21
-2.7102497234
  0
LINE
  5
32E
100
AcDbEntity
  8
ASSI
100
AcDbLine
 62
253
  6
CONTINUOUS
 10
20.8046317483
 20
-2.4246869809
 11
20.8040851511
 21
-2.7102497234
  0
LINE
  5
32F
100
AcDbEntity
  8
RACCORDO
100
AcDbLine
 62
7
  6
CONTINUOUS
 10
20.5883017517
 20
2.9015905416
 11
20.5886847036
 21
3.070997697
  0
LINE
  5
330
100
AcDbEntity
  8
RACCORDO
100
AcDbLine
 62
253
  6
CONTINUOUS
 10
20.6546373702
 20
-2.4248001989
 11
20.6542340144
 21
-2.5986228775
  0
LINE
  5
331
100
AcDbEntity
  8
ASSI
100
AcDbLine
 62
253
  6
CONTINUOUS
 10
20.6546373702
 20
-2.4248001989
 11
20.6542340144
 21
-2.5986228775
  0
LINE
  5
332
100
AcDbEntity
  8
DRAFT
100
AcDbLine
 62
7
  6
CONTINUOUS
 10
20.6248282597
 20
0.983673351
 11
20.6266629623
 21
1.6689875208
  0
LINE
  5
333
100
AcDbEntity
  8
ASSI
100
AcDbLine
 62
7
  6
CONTINUOUS
 10
20.6248282597
 20
0.983673351
 11
20.6266629623
 21
1.6689875208
  0
LINE
  5
334
100
AcDbEntity
  8
DRAFT
100
AcDbLine
 62
7
  6
CONTINUOUS
 10
20.6236368359
 20
0.7837281399
 11
20.6248282597
 21
0.983673351
  0
LINE
  5
335
100
AcDbEntity
  8
ASSI
100
AcDbLine
 62
7
  6
CONTINUOUS
 10
20.6236368359
 20
0.7837281399
 11
20.6248282597
 21
0.983673351
  0
LINE
  5
336
100
AcDbEntity
  8
RACCORDO
100
AcDbLine
 62
253
  6
CONTINUOUS
 10
20.8040851511
 20
-2.7102497234
 11
20.8033414715
 21
-2.832870408
  0
LINE
  5
337
100
AcDbEntity
  8
ASSI
100
AcDbLine
 62
253
  6
CONTINUOUS
 10
20.8040851511
 20
-2.7102497234
 11
20.8033414715
 21
-2.832870408
  0
LINE
  5
338
100
AcDbEntity
  8
RACCORDO
100
AcDbLine
 62
7
  6
CONTINUOUS
 10
20.5664376153
 20
4.2655453026
 11
20.5651820514
 21
4.0645810671
  0
LINE
  5
339
100
AcDbEntity
  8
RACCORDO
100
AcDbLine
 62
7
  6
CONTINUOUS
 10
20.6312489332
 20
-1.3010239695
 11
20.630190755
 21
-1.4690093882
  0
LINE
  5
33A
100
AcDbEntity
  8
ASSI
100
AcDbLine
 62
7
  6
CONTINUOUS
 10
20.6312489332
 20
-1.3010239695
 11
20.630190755
 21
-1.4690093882
  0
LINE
  5
33B
100
AcDbEntity
  8
RACCORDO
100
AcDbLine
 62
7
  6
CONTINUOUS
 10
20.5886847036
 20
3.070997697
 11
20.5894227126
 21
3.1723715499
  0
LINE
  5
33C
100
AcDbEntity
  8
RACCORDO
100
AcDbLine
 62
253
  6
CONTINUOUS
 10
20.6542340144
 20
-2.5986228775
 11
20.6535569175
 21
-2.691844412
  0
LINE
  5
33D
100
AcDbEntity
  8
ASSI
100
AcDbLine
 62
253
  6
CONTINUOUS
 10
20.6542340144
 20
-2.5986228775
 11
20.6535569175
 21
-2.691844412
  0
LINE
  5
33E
100
AcDbEntity
  8
RACCORDO
100
AcDbLine
 62
253
  6
CONTINUOUS
 10
20.8033414715
 20
-2.832870408
 11
20.8028857159
 21
-2.876627555
  0
LINE
  5
33F
100
AcDbEntity
  8
ASSI
100
AcDbLine
 62
253
  6
CONTINUOUS
 10
20.8033414715
 20
-2.832870408
 11
20.8028857159
 21
-2.876627555
  0
LWPOLYLINE
  5
340
100
AcDbEntity
  8
RACCORDO
100
AcDbPolyline
 62
7
  6
CONTINUOUS
 90
7
 70
0
 10
20.630190755
 20
-1.4690093882
 10
20.6294611088
 20
-1.5303760252
 10
20.6290539006
 20
-1.5544956577
 10
20.6286317581
 20
-1.5735060469
 10
20.6281990193
 20
-1.5871472885
 10
20.6277513463
 20
-1.5956792869
 10
20.6272887391
 20
-1.5991020421
  0
LWPOLYLINE
  5
341
100
AcDbEntity
  8
ASSI
100
AcDbPolyline
 62
7
  6
CONTINUOUS
 90
7
 70
0
 10
20.630190755
 20
-1.4690093882
 10
20.6294611088
 20
-1.5303760252
 10
20.6290539006
 20
-1.5544956577
 10
20.6286317581
 20
-1.5735060469
 10
20.6281990193
 20
-1.5871472885
 10
20.6277513463
 20
-1.5956792869
 10
20.6272887391
 20
-1.5991020421
  0
LINE
  5
342
100
AcDbEntity
  8
RACCORDO
100
AcDbLine
 62
253
  6
CONTINUOUS
 10
20.6535569175
 20
-2.691844412
 11
20.6531224253
 21
-2.7270898423
  0
LINE
  5
343
100
AcDbEntity
  8
ASSI
100
AcDbLine
 62
253
  6
CONTINUOUS
 10
20.6535569175
 20
-2.691844412
 11
20.6531224253
 21
-2.7270898423
  0
LWPOLYLINE
  5
344
100
AcDbEntity
  8
RACCORDO
100
AcDbPolyline
 62
7
  6
CONTINUOUS
 90
5
 70
0
 10
20.5894227126
 20
3.1723715499
 10
20.5900773792
 20
3.2194395758
 10
20.5904301207
 20
3.2350251451
 10
20.5908030944
 20
3.2455822461
 10
20.5911963003
 20
3.2511108788
  0
LWPOLYLINE
  5
345
100
AcDbEntity
  8
RACCORDO
100
AcDbPolyline
 62
253
  6
CONTINUOUS
 90
5
 70
0
 10
20.8028857159
 20
-2.876627555
 10
20.8023890674
 20
-2.9068140851
 10
20.8021334314
 20
-2.916517865
 10
20.801871712
 20
-2.922521997
 10
20.8016039093
 20
-2.9247811604
  0
LWPOLYLINE
  5
346
100
AcDbEntity
  8
ASSI
100
AcDbPolyline
 62
253
  6
CONTINUOUS
 90
5
 70
0
 10
20.8028857159
 20
-2.876627555
 10
20.8023890674
 20
-2.9068140851
 10
20.8021334314
 20
-2.916517865
 10
20.801871712
 20
-2.922521997
 10
20.8016039093
 20
-2.9247811604
  0
LWPOLYLINE
  5
347
100
AcDbEntity
  8
RACCORDO
100
AcDbPolyline
 62
253
  6
CONTINUOUS
 90
6
 70
0
 10
20.6531224253
 20
-2.7270898423
 10
20.6526413762
 20
-2.7530639161
 10
20.6523898386
 20
-2.7623671481
 10
20.6521350583
 20
-2.7690467874
 10
20.6518749858
 20
-2.7731866953
 10
20.6516096209
 20
-2.7747868719
  0
LWPOLYLINE
  5
348
100
AcDbEntity
  8
ASSI
100
AcDbPolyline
 62
253
  6
CONTINUOUS
 90
6
 70
0
 10
20.6531224253
 20
-2.7270898423
 10
20.6526413762
 20
-2.7530639161
 10
20.6523898386
 20
-2.7623671481
 10
20.6521350583
 20
-2.7690467874
 10
20.6518749858
 20
-2.7731866953
 10
20.6516096209
 20
-2.7747868719
  0
LWPOLYLINE
  5
349
100
AcDbEntity
  8
RACCORDO
100
AcDbPolyline
 62
7
  6
CONTINUOUS
 90
13
 70
0
 10
20.6101189212
 20
4.3837338515
 10
20.6115807773
 20
4.4038389989
 10
20.6153866649
 20
4.4229729316
 10
20.621536584
 20
4.4411356495
 10
20.6302138443
 20
4.4586014481
 10
20.641235136
 20
4.475096032
 10
20.6540505304
 20
4.4897965149
 10
20.6687510135
 20
4.5026119121
 10
20.6852455993
 20
4.5136332084
 10
20.7027114005
 20
4.5223104725
 10
20.7208741215
 20
4.5284603939
 10
20.7400080578
 20
4.532266283
 10
20.7601132097
 20
4.5337281399
  0
LWPOLYLINE
  5
34A
100
AcDbEntity
  8
ASSI
100
AcDbPolyline
 62
7
  6
CONTINUOUS
 90
13
 70
0
 10
20.6101189212
 20
4.3837338515
 10
20.6115807773
 20
4.4038389989
 10
20.6153866649
 20
4.4229729316
 10
20.621536584
 20
4.4411356495
 10
20.6302138443
 20
4.4586014481
 10
20.641235136
 20
4.475096032
 10
20.6540505304
 20
4.4897965149
 10
20.6687510135
 20
4.5026119121
 10
20.6852455993
 20
4.5136332084
 10
20.7027114005
 20
4.5223104725
 10
20.7208741215
 20
4.5284603939
 10
20.7400080578
 20
4.532266283
 10
20.7601132097
 20
4.5337281399
  0
LWPOLYLINE
  5
34B
100
AcDbEntity
  8
RACCORDO
100
AcDbPolyline
 62
7
  6
CONTINUOUS
 90
7
 70
0
 10
20.5698839465
 20
4.4232520615
 10
20.5693339698
 20
4.4186543153
 10
20.568801946
 20
4.40801421
 10
20.5682878751
 20
4.3913317458
 10
20.5677866704
 20
4.3683008209
 10
20.5673034187
 20
4.339227537
 10
20.5664376153
 20
4.2655453026
  0
LINE
  5
34C
100
AcDbEntity
  8
RACCORDO
100
AcDbLine
 62
7
  6
CONTINUOUS
 10
20.6101189212
 20
3.3647475882
 11
20.5911963003
 21
3.2511108788
  0
LWPOLYLINE
  5
34D
100
AcDbEntity
  8
RACCORDO
100
AcDbPolyline
 62
253
  6
CONTINUOUS
 90
8
 70
0
 10
19.4173851686
 20
-1.3995715566
 10
19.4179385861
 20
-1.397555318
 10
19.418474854
 20
-1.392458689
 10
19.4189939724
 20
-1.3842816697
 10
19.4195014533
 20
-1.3728671157
 10
19.4199917847
 20
-1.3583721715
 10
19.4204484306
 20
-1.3412682696
 10
19.4212578851
 20
-1.299066375
  0
LWPOLYLINE
  5
34E
100
AcDbEntity
  8
ASSI
100
AcDbPolyline
 62
253
  6
CONTINUOUS
 90
8
 70
0
 10
19.4173851686
 20
-1.3995715566
 10
19.4179385861
 20
-1.397555318
 10
19.418474854
 20
-1.392458689
 10
19.4189939724
 20
-1.3842816697
 10
19.4195014533
 20
-1.3728671157
 10
19.4199917847
 20
-1.3583721715
 10
19.4204484306
 20
-1.3412682696
 10
19.4212578851
 20
-1.299066375
  0
LINE
  5
34F
100
AcDbEntity
  8
RACCORDO
100
AcDbLine
 62
7
  6
CONTINUOUS
 10
19.5779670454
 20
-1.6836545989
 11
19.5401189212
 21
-1.7972913083
  0
LINE
  5
350
100
AcDbEntity
  8
RACCORDO
100
AcDbLine
 62
7
  6
CONTINUOUS
 10
20.6101189212
 20
4.5037281399
 11
20.5698839465
 21
4.4232520615
  0
LINE
  5
351
100
AcDbEntity
  8
DRAFT
100
AcDbLine
 62
7
  6
CONTINUOUS
 10
20.6316220654
 20
2.5005551065
 11
20.6252751489
 21
2.4878603066
  0
LINE
  5
352
100
AcDbEntity
  8
ASSI
100
AcDbLine
 62
7
  6
CONTINUOUS
 10
20.6316220654
 20
2.5005551065
 11
20.6252751489
 21
2.4878603066
  0
LWPOLYLINE
  5
353
100
AcDbEntity
  8
0
100
AcDbPolyline
 62
7
  6
CONTINUOUS
 90
40
 70
0
 10
18.1785340522
 20
0.4015896804
 10
18.1973083365
 20
0.4301880135
 10
18.2178367345
 20
0.4574046806
 10
18.2401192462
 20
0.483259138
 10
18.2641738496
 20
0.5079928345
 10
18.2899825667
 20
0.5314025827
 10
18.3174914637
 20
0.5528589891
 10
18.3468904132
 20
0.5724109704
 10
18.3779895426
 20
0.5900845754
 10
18.4101653001
 20
0.6052457089
 10
18.4433362896
 20
0.6178086269
 10
18.4775839073
 20
0.62794382
 10
18.5125287889
 20
0.6354112194
 10
18.5480691098
 20
0.6402709593
 10
18.5843066947
 20
0.642507286
 10
18.6211676539
 20
0.6417574721
 10
18.6587684459
 20
0.6381173403
 10
18.6969926122
 20
0.6314728736
 10
18.7354168875
 20
0.6211229145
 10
18.7742606183
 20
0.6069618936
 10
18.8133044581
 20
0.5889753733
 10
18.8514671024
 20
0.5665562959
 10
18.8888922276
 20
0.5391999009
 10
18.9254361572
 20
0.507163116
 10
18.9595865574
 20
0.4709721497
 10
18.9909520816
 20
0.430576734
 10
19.0199240763
 20
0.385798256
 10
19.0461642484
 20
0.3370153059
 10
19.0696329089
 20
0.2839143967
 10
19.0903697467
 20
0.2266640093
 10
19.108155535
 20
0.1664494929
 10
19.1228899083
 20
0.1035333079
 10
19.1346732321
 20
0.0377148935
 10
19.1435873763
 20
-0.0304313103
 10
19.149769574
 20
-0.1008729782
 10
19.1530825921
 20
-0.1734362871
 10
19.1531966014
 20
-0.2472864008
 10
19.1500016589
 20
-0.3220343894
 10
19.1436077076
 20
-0.3977421425
 10
19.1340147476
 20
-0.4742233864
  0
LINE
  5
354
100
AcDbEntity
  8
DRAFT
100
AcDbLine
 62
7
  6
CONTINUOUS
 10
20.6252751489
 20
-0.9204040267
 11
20.6316220654
 21
-0.9330988266
  0
LINE
  5
355
100
AcDbEntity
  8
ASSI
100
AcDbLine
 62
7
  6
CONTINUOUS
 10
20.6252751489
 20
-0.9204040267
 11
20.6316220654
 21
-0.9330988266
  0
LINE
  5
356
100
AcDbEntity
  8
RACCORDO
100
AcDbLine
 62
7
  6
CONTINUOUS
 10
19.5779670454
 20
3.2511108788
 11
19.5401189212
 21
3.3647475882
  0
LINE
  5
357
100
AcDbEntity
  8
RACCORDO
100
AcDbLine
 62
7
  6
CONTINUOUS
 10
20.6101189212
 20
-1.7972913083
 11
20.5911963003
 21
-1.6836545989
  0
LWPOLYLINE
  5
358
100
AcDbEntity
  8
RACCORDO
100
AcDbPolyline
 62
253
  6
CONTINUOUS
 90
5
 70
0
 10
20.6516096209
 20
4.3422431518
 10
20.6518752001
 20
4.3406385686
 10
20.6521354401
 20
4.3364934215
 10
20.6523903408
 20
4.3298077103
 10
20.652641938
 20
4.3204976326
  0
LWPOLYLINE
  5
359
100
AcDbEntity
  8
ASSI
100
AcDbPolyline
 62
253
  6
CONTINUOUS
 90
5
 70
0
 10
20.6516096209
 20
4.3422431518
 10
20.6518752001
 20
4.3406385686
 10
20.6521354401
 20
4.3364934215
 10
20.6523903408
 20
4.3298077103
 10
20.652641938
 20
4.3204976326
  0
LWPOLYLINE
  5
35A
100
AcDbEntity
  8
RACCORDO
100
AcDbPolyline
 62
7
  6
CONTINUOUS
 90
5
 70
0
 10
20.6272887391
 20
3.166558322
 10
20.6277513449
 20
3.163135616
 10
20.6281990169
 20
3.1546036545
 10
20.6286317552
 20
3.1409624375
 10
20.6290538978
 20
3.1219520657
  0
LWPOLYLINE
  5
35B
100
AcDbEntity
  8
ASSI
100
AcDbPolyline
 62
7
  6
CONTINUOUS
 90
5
 70
0
 10
20.6272887391
 20
3.166558322
 10
20.6277513449
 20
3.163135616
 10
20.6281990169
 20
3.1546036545
 10
20.6286317552
 20
3.1409624375
 10
20.6290538978
 20
3.1219520657
  0
LWPOLYLINE
  5
35C
100
AcDbEntity
  8
RACCORDO
100
AcDbPolyline
 62
253
  6
CONTINUOUS
 90
4
 70
0
 10
20.8016039093
 20
4.4922374403
 10
20.8018719324
 20
4.4899748341
 10
20.802133823
 20
4.4839623343
 10
20.8023895809
 20
4.4742471987
  0
LWPOLYLINE
  5
35D
100
AcDbEntity
  8
ASSI
100
AcDbPolyline
 62
253
  6
CONTINUOUS
 90
4
 70
0
 10
20.8016039093
 20
4.4922374403
 10
20.8018719324
 20
4.4899748341
 10
20.802133823
 20
4.4839623343
 10
20.8023895809
 20
4.4742471987
  0
LINE
  5
35E
100
AcDbEntity
  8
SCRITTE
100
AcDbLine
 62
253
  6
CONTINUOUS
 10
22.5101189391
 20
-0.2162718601
 11
22.5101189391
 21
1.1837281399
  0
LINE
  5
35F
100
AcDbEntity
  8
RACCORDO
100
AcDbLine
 62
7
  6
CONTINUOUS
 10
19.4142510879
 20
2.4878603066
 11
19.4225879371
 21
2.4961971559
  0
LINE
  5
360
100
AcDbEntity
  8
ASSI
100
AcDbLine
 62
7
  6
CONTINUOUS
 10
19.4142510879
 20
2.4878603066
 11
19.4225879371
 21
2.4961971559
  0
LWPOLYLINE
  5
361
100
AcDbEntity
  8
RACCORDO
100
AcDbPolyline
 62
7
  6
CONTINUOUS
 90
16
 70
0
 10
19.5001946905
 20
-1.5773595364
 10
19.4897282655
 20
-1.5703232558
 10
19.4797319008
 20
-1.5626140096
 10
19.4702475106
 20
-1.5542618131
 10
19.4613444129
 20
-1.5453282569
 10
19.4530272667
 20
-1.5358231017
 10
19.4452551396
 20
-1.525686599
 10
19.4380953327
 20
-1.5149692281
 10
19.4315810592
 20
-1.5036786026
 10
19.4256717061
 20
-1.4916602377
 10
19.4204499554
 20
-1.4789214097
 10
19.4160126113
 20
-1.4655076565
 10
19.4124103384
 20
-1.4513032534
 10
19.409760039
 20
-1.4363004238
 10
19.4082071027
 20
-1.4206136765
 10
19.407879363
 20
-1.4043240975
  0
LWPOLYLINE
  5
362
100
AcDbEntity
  8
ASSI
100
AcDbPolyline
 62
7
  6
CONTINUOUS
 90
16
 70
0
 10
19.5001946905
 20
-1.5773595364
 10
19.4897282655
 20
-1.5703232558
 10
19.4797319008
 20
-1.5626140096
 10
19.4702475106
 20
-1.5542618131
 10
19.4613444129
 20
-1.5453282569
 10
19.4530272667
 20
-1.5358231017
 10
19.4452551396
 20
-1.525686599
 10
19.4380953327
 20
-1.5149692281
 10
19.4315810592
 20
-1.5036786026
 10
19.4256717061
 20
-1.4916602377
 10
19.4204499554
 20
-1.4789214097
 10
19.4160126113
 20
-1.4655076565
 10
19.4124103384
 20
-1.4513032534
 10
19.409760039
 20
-1.4363004238
 10
19.4082071027
 20
-1.4206136765
 10
19.407879363
 20
-1.4043240975
  0
LINE
  5
363
100
AcDbEntity
  8
RACCORDO
100
AcDbLine
 62
7
  6
CONTINUOUS
 10
19.4225879371
 20
-0.928740876
 11
19.4142510879
 21
-0.9204040267
  0
LINE
  5
364
100
AcDbEntity
  8
ASSI
100
AcDbLine
 62
7
  6
CONTINUOUS
 10
19.4225879371
 20
-0.928740876
 11
19.4142510879
 21
-0.9204040267
  0
LINE
  5
365
100
AcDbEntity
  8
SCRITTE
100
AcDbLine
 62
253
  6
CONTINUOUS
 10
22.910118957
 20
-1.9162718601
 11
22.1101189212
 21
-0.5162718601
  0
LINE
  5
366
100
AcDbEntity
  8
SCRITTE
100
AcDbLine
 62
253
  6
CONTINUOUS
 10
23.1101189212
 20
4.5267466457
 11
23.1101189212
 21
4.5145290308
  0
LINE
  5
367
100
AcDbEntity
  8
SCRITTE
100
AcDbLine
 62
253
  6
CONTINUOUS
 10
23.6101188735
 20
0.9837281519
 11
23.6101188735
 21
0.7837281638
  0
LINE
  5
368
100
AcDbEntity
  8
SCRITTE
100
AcDbLine
 62
253
  6
CONTINUOUS
 10
23.910118957
 20
4.5145290308
 11
23.910118957
 21
4.5267466457
  0
LINE
  5
369
100
AcDbEntity
  8
0
100
AcDbLine
 62
7
  6
CONTINUOUS
 10
23.9486169212
 20
3.2013921399
 11
23.9486169212
 21
1.5014271399
  0
LINE
  5
36A
100
AcDbEntity
  8
ASSI
100
AcDbLine
 62
7
  6
CONTINUOUS
 10
23.9486169212
 20
3.2013921399
 11
23.9486169212
 21
1.5014271399
  0
LINE
  5
36B
100
AcDbEntity
  8
0
100
AcDbLine
 62
7
  6
CONTINUOUS
 10
24.3034449212
 20
1.5014271399
 11
24.3034449212
 21
3.2013921399
  0
LINE
  5
36C
100
AcDbEntity
  8
ASSI
100
AcDbLine
 62
7
  6
CONTINUOUS
 10
24.3034449212
 20
1.5014271399
 11
24.3034449212
 21
3.2013921399
  0
LINE
  5
36D
100
AcDbEntity
  8
0
100
AcDbLine
 62
7
  6
CONTINUOUS
 10
24.6479469212
 20
3.2012901399
 11
24.4944599212
 21
1.5014271399
  0
LINE
  5
36E
100
AcDbEntity
  8
ASSI
100
AcDbLine
 62
7
  6
CONTINUOUS
 10
24.6479469212
 20
3.2012901399
 11
24.4944599212
 21
1.5014271399
  0
LINE
  5
36F
100
AcDbEntity
  8
0
100
AcDbLine
 62
7
  6
CONTINUOUS
 10
23.4623529212
 20
3.2012901399
 11
23.1284309212
 21
2.0312221399
  0
LINE
  5
370
100
AcDbEntity
  8
ASSI
100
AcDbLine
 62
7
  6
CONTINUOUS
 10
23.4623529212
 20
3.2012901399
 11
23.1284309212
 21
2.0312221399
  0
LINE
  5
371
100
AcDbEntity
  8
0
100
AcDbLine
 62
7
  6
CONTINUOUS
 10
23.2705349212
 20
1.5014271399
 11
23.8169389212
 21
3.2012901399
  0
LINE
  5
372
100
AcDbEntity
  8
ASSI
100
AcDbLine
 62
7
  6
CONTINUOUS
 10
23.2705349212
 20
1.5014271399
 11
23.8169389212
 21
3.2012901399
  0
LINE
  5
373
100
AcDbEntity
  8
SCRITTE
100
AcDbLine
 62
253
  6
CONTINUOUS
 10
22.910118957
 20
0.8837281161
 11
23.110118945
 21
1.1837281399
  0
LINE
  5
374
100
AcDbEntity
  8
RACCORDO
100
AcDbLine
 62
7
  6
CONTINUOUS
 10
17.6191748198
 20
-1.6072159615
 11
17.6101189212
 21
-1.6162718601
  0
LINE
  5
375
100
AcDbEntity
  8
ASSI
100
AcDbLine
 62
7
  6
CONTINUOUS
 10
17.6191748198
 20
-1.6072159615
 11
17.6101189212
 21
-1.6162718601
  0
LWPOLYLINE
  5
376
100
AcDbEntity
  8
RACCORDO
100
AcDbPolyline
 62
7
  6
CONTINUOUS
 90
6
 70
0
 10
19.5001946905
 20
-1.5773595364
 10
19.5155136808
 20
-1.585920267
 10
19.5314953958
 20
-1.5931948199
 10
19.5481398353
 20
-1.5990666913
 10
19.5654469995
 20
-1.6034262502
 10
19.5814910106
 20
-1.6058783347
  0
LWPOLYLINE
  5
377
100
AcDbEntity
  8
ASSI
100
AcDbPolyline
 62
7
  6
CONTINUOUS
 90
6
 70
0
 10
19.5001946905
 20
-1.5773595364
 10
19.5155136808
 20
-1.585920267
 10
19.5314953958
 20
-1.5931948199
 10
19.5481398353
 20
-1.5990666913
 10
19.5654469995
 20
-1.6034262502
 10
19.5814910106
 20
-1.6058783347
  0
LINE
  5
378
100
AcDbEntity
  8
RACCORDO
100
AcDbLine
 62
7
  6
CONTINUOUS
 10
17.6191748198
 20
3.1746722414
 11
17.6101189212
 21
3.1837281399
  0
LINE
  5
379
100
AcDbEntity
  8
ASSI
100
AcDbLine
 62
7
  6
CONTINUOUS
 10
17.6191748198
 20
3.1746722414
 11
17.6101189212
 21
3.1837281399
  0
LINE
  5
37A
100
AcDbEntity
  8
SCRITTE
100
AcDbLine
 62
253
  6
CONTINUOUS
 10
24.1101189689
 20
-1.9162718601
 11
23.3101189331
 21
-0.5162718601
  0
LINE
  5
37B
100
AcDbEntity
  8
0
100
AcDbLine
 62
7
  6
CONTINUOUS
 10
22.4189529212
 20
3.2012901399
 11
22.9578429212
 21
1.5014271399
  0
LINE
  5
37C
100
AcDbEntity
  8
ASSI
100
AcDbLine
 62
7
  6
CONTINUOUS
 10
22.4189529212
 20
3.2012901399
 11
22.9578429212
 21
1.5014271399
  0
LINE
  5
37D
100
AcDbEntity
  8
0
100
AcDbLine
 62
7
  6
CONTINUOUS
 10
23.1284309212
 20
2.0312221399
 11
22.8044059212
 21
3.2012901399
  0
LINE
  5
37E
100
AcDbEntity
  8
ASSI
100
AcDbLine
 62
7
  6
CONTINUOUS
 10
23.1284309212
 20
2.0312221399
 11
22.8044059212
 21
3.2012901399
  0
LINE
  5
37F
100
AcDbEntity
  8
0
100
AcDbLine
 62
7
  6
CONTINUOUS
 10
25.7983979212
 20
2.6067791399
 11
25.8712989212
 21
1.5014271399
  0
LINE
  5
380
100
AcDbEntity
  8
ASSI
100
AcDbLine
 62
7
  6
CONTINUOUS
 10
25.7983979212
 20
2.6067791399
 11
25.8712989212
 21
1.5014271399
  0
LINE
  5
381
100
AcDbEntity
  8
SCRITTE
100
AcDbLine
 62
253
  6
CONTINUOUS
 10
24.9101189212
 20
-1.9162718601
 11
24.9101189212
 21
-1.1162718243
  0
LINE
  5
382
100
AcDbEntity
  8
SCRITTE
100
AcDbLine
 62
253
  6
CONTINUOUS
 10
25.510118945
 20
4.5267466457
 11
25.510118945
 21
4.5145290308
  0
LINE
  5
383
100
AcDbEntity
  8
SCRITTE
100
AcDbLine
 62
253
  6
CONTINUOUS
 10
25.7101188735
 20
0.9837281519
 11
25.7101188735
 21
0.7837281638
  0
LINE
  5
384
100
AcDbEntity
  8
0
100
AcDbLine
 62
7
  6
CONTINUOUS
 10
24.8339149212
 20
1.5014271399
 11
24.9104869212
 21
2.6114061399
  0
LINE
  5
385
100
AcDbEntity
  8
ASSI
100
AcDbLine
 62
7
  6
CONTINUOUS
 10
24.8339149212
 20
1.5014271399
 11
24.9104869212
 21
2.6114061399
  0
LINE
  5
386
100
AcDbEntity
  8
0
100
AcDbLine
 62
7
  6
CONTINUOUS
 10
25.7083909212
 20
3.2012901399
 11
25.3535629212
 21
2.2575211399
  0
LINE
  5
387
100
AcDbEntity
  8
ASSI
100
AcDbLine
 62
7
  6
CONTINUOUS
 10
25.7083909212
 20
3.2012901399
 11
25.3535629212
 21
2.2575211399
  0
LINE
  5
388
100
AcDbEntity
  8
0
100
AcDbLine
 62
7
  6
CONTINUOUS
 10
25.3765069212
 20
1.5014271399
 11
25.7983979212
 21
2.6067791399
  0
LINE
  5
389
100
AcDbEntity
  8
ASSI
100
AcDbLine
 62
7
  6
CONTINUOUS
 10
25.3765069212
 20
1.5014271399
 11
25.7983979212
 21
2.6067791399
  0
LINE
  5
38A
100
AcDbEntity
  8
SCRITTE
100
AcDbLine
 62
253
  6
CONTINUOUS
 10
22.910118957
 20
-0.5162718601
 11
22.1101189212
 21
-1.9162718601
  0
LINE
  5
38B
100
AcDbEntity
  8
SCRITTE
100
AcDbLine
 62
253
  6
CONTINUOUS
 10
24.1101189689
 20
-0.5162718601
 11
23.3101189331
 21
-1.9162718601
  0
LINE
  5
38C
100
AcDbEntity
  8
SCRITTE
100
AcDbLine
 62
253
  6
CONTINUOUS
 10
23.6101188735
 20
0.7837281638
 11
22.910118957
 21
-0.2162718601
  0
LINE
  5
38D
100
AcDbEntity
  8
SCRITTE
100
AcDbLine
 62
253
  6
CONTINUOUS
 10
22.5101189391
 20
1.1837281399
 11
22.1101189212
 21
0.7837281638
  0
LINE
  5
38E
100
AcDbEntity
  8
RACCORDO
100
AcDbLine
 62
253
  6
CONTINUOUS
 10
19.5401189212
 20
-2.336363243
 11
19.6205949996
 21
-2.2558871646
  0
LINE
  5
38F
100
AcDbEntity
  8
RACCORDO
100
AcDbLine
 62
7
  6
CONTINUOUS
 10
20.6272887391
 20
-1.5991020421
 11
20.6101189212
 21
-1.6162718601
  0
LINE
  5
390
100
AcDbEntity
  8
ASSI
100
AcDbLine
 62
7
  6
CONTINUOUS
 10
20.6272887391
 20
-1.5991020421
 11
20.6101189212
 21
-1.6162718601
  0
LINE
  5
391
100
AcDbEntity
  8
RACCORDO
100
AcDbLine
 62
7
  6
CONTINUOUS
 10
53.2271867655
 20
-1.0516395203
 11
53.1749664682
 21
-1.0617809994
  0
LINE
  5
392
100
AcDbEntity
  8
ASSI
100
AcDbLine
 62
7
  6
CONTINUOUS
 10
53.2271867655
 20
-1.0516395203
 11
53.1749664682
 21
-1.0617809994
  0
LWPOLYLINE
  5
393
100
AcDbEntity
  8
RACCORDO
100
AcDbPolyline
 62
7
  6
CONTINUOUS
 90
6
 70
0
 10
53.2134891264
 20
-2.1145872709
 10
53.2110810946
 20
-2.1148954113
 10
53.206239489
 20
-2.1151776826
 10
53.1989643097
 20
-2.1154340846
 10
53.1889094789
 20
-2.1156704464
 10
53.1764210744
 20
-2.1158809391
  0
LINE
  5
394
100
AcDbEntity
  8
RACCORDO
100
AcDbLine
 62
253
  6
CONTINUOUS
 10
19.6205949996
 20
3.8233434444
 11
19.5401189212
 21
3.9038195228
  0
LINE
  5
395
100
AcDbEntity
  8
RACCORDO
100
AcDbLine
 62
7
  6
CONTINUOUS
 10
20.6101189212
 20
3.1837281399
 11
20.6272887391
 21
3.166558322
  0
LINE
  5
396
100
AcDbEntity
  8
ASSI
100
AcDbLine
 62
7
  6
CONTINUOUS
 10
20.6101189212
 20
3.1837281399
 11
20.6272887391
 21
3.166558322
  0
LINE
  5
397
100
AcDbEntity
  8
SCRITTE
100
AcDbLine
 62
253
  6
CONTINUOUS
 10
23.4101188854
 20
1.1837281399
 11
23.6101188735
 21
0.9837281519
  0
LINE
  5
398
100
AcDbEntity
  8
RACCORDO
100
AcDbLine
 62
253
  6
CONTINUOUS
 10
20.2205036167
 20
4.4232520615
 11
20.1400275383
 21
4.5037281399
  0
LINE
  5
399
100
AcDbEntity
  8
SCRITTE
100
AcDbLine
 62
253
  6
CONTINUOUS
 10
24.9101189212
 20
-1.1162718243
 11
24.510118945
 21
-0.5162718601
  0
LINE
  5
39A
100
AcDbEntity
  8
SCRITTE
100
AcDbLine
 62
253
  6
CONTINUOUS
 10
26.1101190166
 20
-1.1162718243
 11
25.7101188735
 21
-0.5162718601
  0
LINE
  5
39B
100
AcDbEntity
  8
0
100
AcDbLine
 62
7
  6
CONTINUOUS
 10
24.9104869212
 20
2.6114061399
 11
25.3267429212
 21
1.5014271399
  0
LINE
  5
39C
100
AcDbEntity
  8
ASSI
100
AcDbLine
 62
7
  6
CONTINUOUS
 10
24.9104869212
 20
2.6114061399
 11
25.3267429212
 21
1.5014271399
  0
LINE
  5
39D
100
AcDbEntity
  8
0
100
AcDbLine
 62
7
  6
CONTINUOUS
 10
26.2184149212
 20
1.5014271399
 11
26.0594579212
 21
3.2012901399
  0
LINE
  5
39E
100
AcDbEntity
  8
ASSI
100
AcDbLine
 62
7
  6
CONTINUOUS
 10
26.2184149212
 20
1.5014271399
 11
26.0594579212
 21
3.2012901399
  0
LINE
  5
39F
100
AcDbEntity
  8
SCRITTE
100
AcDbLine
 62
253
  6
CONTINUOUS
 10
26.1101190166
 20
-1.9162718601
 11
26.1101190166
 21
-1.1162718243
  0
LINE
  5
3A0
100
AcDbEntity
  8
SCRITTE
100
AcDbLine
 62
253
  6
CONTINUOUS
 10
26.2101187781
 20
4.5162744044
 11
26.2101187781
 21
4.5250012723
  0
LINE
  5
3A1
100
AcDbEntity
  8
SCRITTE
100
AcDbLine
 62
253
  6
CONTINUOUS
 10
26.576785572
 20
0.4837281399
 11
26.576785572
 21
-0.2162718601
  0
LINE
  5
3A2
100
AcDbEntity
  8
SCRITTE
100
AcDbLine
 62
253
  6
CONTINUOUS
 10
26.7767856197
 20
4.5267466457
 11
26.7767856197
 21
4.5145290308
  0
LINE
  5
3A3
100
AcDbEntity
  8
SCRITTE
100
AcDbLine
 62
253
  6
CONTINUOUS
 10
26.4101188735
 20
1.1837281399
 11
26.1101190166
 21
0.0837281429
  0
LINE
  5
3A4
100
AcDbEntity
  8
0
100
AcDbLine
 62
7
  6
CONTINUOUS
 10
26.7956029212
 20
2.1033701399
 11
26.9722769212
 21
2.7342111399
  0
LINE
  5
3A5
100
AcDbEntity
  8
ASSI
100
AcDbLine
 62
7
  6
CONTINUOUS
 10
26.7956029212
 20
2.1033701399
 11
26.9722769212
 21
2.7342111399
  0
LINE
  5
3A6
100
AcDbEntity
  8
0
100
AcDbLine
 62
7
  6
CONTINUOUS
 10
26.6251099212
 20
1.5014271399
 11
26.7230209212
 21
1.8407801399
  0
LINE
  5
3A7
100
AcDbEntity
  8
ASSI
100
AcDbLine
 62
7
  6
CONTINUOUS
 10
26.6251099212
 20
1.5014271399
 11
26.7230209212
 21
1.8407801399
  0
LINE
  5
3A8
100
AcDbEntity
  8
0
100
AcDbLine
 62
7
  6
CONTINUOUS
 10
26.8073169212
 20
3.2012901399
 11
26.2741319212
 21
1.5014271399
  0
LINE
  5
3A9
100
AcDbEntity
  8
ASSI
100
AcDbLine
 62
7
  6
CONTINUOUS
 10
26.8073169212
 20
3.2012901399
 11
26.2741319212
 21
1.5014271399
  0
LINE
  5
3AA
100
AcDbEntity
  8
SCRITTE
100
AcDbLine
 62
253
  6
CONTINUOUS
 10
25.0101188735
 20
0.8837281161
 11
25.2101187781
 21
1.1837281399
  0
LINE
  5
3AB
100
AcDbEntity
  8
SCRITTE
100
AcDbLine
 62
253
  6
CONTINUOUS
 10
25.3101190642
 20
-0.5162718601
 11
24.9101189212
 21
-1.1162718243
  0
LINE
  5
3AC
100
AcDbEntity
  8
SCRITTE
100
AcDbLine
 62
253
  6
CONTINUOUS
 10
25.7101188735
 20
0.7837281638
 11
25.0101188735
 21
-0.2162718601
  0
LINE
  5
3AD
100
AcDbEntity
  8
RACCORDO
100
AcDbLine
 62
253
  6
CONTINUOUS
 10
20.1400275383
 20
-2.9362718601
 11
20.2205036167
 21
-2.8557957817
  0
LINE
  5
3AE
100
AcDbEntity
  8
RACCORDO
100
AcDbLine
 62
253
  6
CONTINUOUS
 10
20.6516096209
 20
-2.7747868719
 11
20.6101189212
 21
-2.8162775716
  0
LINE
  5
3AF
100
AcDbEntity
  8
ASSI
100
AcDbLine
 62
253
  6
CONTINUOUS
 10
20.6516096209
 20
-2.7747868719
 11
20.6101189212
 21
-2.8162775716
  0
LINE
  5
3B0
100
AcDbEntity
  8
DRAFT
100
AcDbLine
 62
7
  6
CONTINUOUS
 10
21.4066279082
 20
-2.169762873
 11
21.4101189212
 21
-2.1662718601
  0
LINE
  5
3B1
100
AcDbEntity
  8
ASSI
100
AcDbLine
 62
7
  6
CONTINUOUS
 10
21.4066279082
 20
-2.169762873
 11
21.4101189212
 21
-2.1662718601
  0
LINE
  5
3B2
100
AcDbEntity
  8
RACCORDO
100
AcDbLine
 62
253
  6
CONTINUOUS
 10
20.8016039093
 20
-2.9247811604
 11
20.7601132097
 21
-2.9662718601
  0
LINE
  5
3B3
100
AcDbEntity
  8
ASSI
100
AcDbLine
 62
253
  6
CONTINUOUS
 10
20.8016039093
 20
-2.9247811604
 11
20.7601132097
 21
-2.9662718601
  0
LINE
  5
3B4
100
AcDbEntity
  8
SCRITTE
100
AcDbLine
 62
253
  6
CONTINUOUS
 10
38.0913689212
 20
-1.9162718601
 11
38.2663689212
 21
-1.8725218601
  0
LINE
  5
3B5
100
AcDbEntity
  8
RACCORDO
100
AcDbLine
 62
7
  6
CONTINUOUS
 10
39.3101189212
 20
-2.9531815584
 11
39.2028449831
 21
-2.9638819787
  0
LINE
  5
3B6
100
AcDbEntity
  8
ASSI
100
AcDbLine
 62
7
  6
CONTINUOUS
 10
39.3101189212
 20
-2.9531815584
 11
39.2028449831
 21
-2.9638819787
  0
LWPOLYLINE
  5
3B7
100
AcDbEntity
  8
RACCORDO
100
AcDbPolyline
 62
7
  6
CONTINUOUS
 90
6
 70
0
 10
54.1101341517
 20
-2.1162718601
 10
54.1274872866
 20
-2.1147484925
 10
54.1443141153
 20
-2.1102351078
 10
54.160103569
 20
-2.1028680261
 10
54.1743757771
 20
-2.0928701255
 10
54.1807927721
 20
-2.0869888245
  0
LWPOLYLINE
  5
3B8
100
AcDbEntity
  8
RACCORDO
100
AcDbPolyline
 62
7
  6
CONTINUOUS
 90
16
 70
0
 10
39.5628655792
 20
-3.0186530143
 10
39.6266904024
 20
-3.0150684331
 10
39.6884871731
 20
-3.0052842738
 10
39.7482558913
 20
-2.9893005362
 10
39.8065995451
 20
-2.9668083173
 10
39.8629151464
 20
-2.9381165203
 10
39.9153937309
 20
-2.9041518544
 10
39.9639109206
 20
-2.864744625
 10
40.0085910934
 20
-2.8200645267
 10
40.0479984196
 20
-2.7715473524
 10
40.0819632098
 20
-2.7190686917
 10
40.1106551534
 20
-2.662752955
 10
40.1331474879
 20
-2.6044091669
 10
40.1491312928
 20
-2.5446403354
 10
40.1589154886
 20
-2.4828434525
 10
40.1625000754
 20
-2.4190185181
  0
LWPOLYLINE
  5
3B9
100
AcDbEntity
  8
RACCORDO
100
AcDbPolyline
 62
7
  6
CONTINUOUS
 90
16
 70
0
 10
20.1097534174
 20
-2.9662718601
 10
20.0458911625
 20
-2.9626832305
 10
19.9840598148
 20
-2.952887835
 10
19.9242593744
 20
-2.9368856734
 10
19.865885584
 20
-2.9143671039
 10
19.8095427008
 20
-2.8856417684
 10
19.7570434966
 20
-2.851638593
 10
19.7085129731
 20
-2.8121875115
 10
19.6638261287
 20
-2.7674585901
 10
19.6244207304
 20
-2.718890953
 10
19.590466972
 20
-2.6663388635
 10
19.5617946598
 20
-2.6099480583
 10
19.53933098
 20
-2.5515948723
 10
19.5233849946
 20
-2.4919047504
 10
19.5136476417
 20
-2.4302522475
 10
19.5101189212
 20
-2.3666373638
  0
LWPOLYLINE
  5
3BA
100
AcDbEntity
  8
RACCORDO
100
AcDbPolyline
 62
7
  6
CONTINUOUS
 90
16
 70
0
 10
20.1400275383
 20
-2.9362718601
 10
20.0761996479
 20
-2.9326861745
 10
20.0143948501
 20
-2.9228976213
 10
19.9546131446
 20
-2.9069062004
 10
19.8962520059
 20
-2.8844049955
 10
19.8399139597
 20
-2.855700923
 10
19.7874065831
 20
-2.8217147319
 10
19.7388485857
 20
-2.7822695226
 10
19.694121258
 20
-2.7375421947
 10
19.6546760487
 20
-2.6889841973
 10
19.6206898579
 20
-2.6364768209
 10
19.5919857855
 20
-2.5801387748
 10
19.5694845808
 20
-2.5217776363
 10
19.55349316
 20
-2.461995931
 10
19.5437046068
 20
-2.4001911332
 10
19.5401189212
 20
-2.336363243
  0
LWPOLYLINE
  5
3BB
100
AcDbEntity
  8
RACCORDO
100
AcDbPolyline
 62
7
  6
CONTINUOUS
 90
13
 70
0
 10
20.7601132097
 20
-2.9662718601
 10
20.7400080578
 20
-2.9648100031
 10
20.7208741215
 20
-2.961004114
 10
20.7027114005
 20
-2.9548541926
 10
20.6852455993
 20
-2.9461769285
 10
20.6687510135
 20
-2.9351556322
 10
20.6540505304
 20
-2.922340235
 10
20.641235136
 20
-2.9076397521
 10
20.6302138443
 20
-2.8911451682
 10
20.621536584
 20
-2.8736793696
 10
20.6153866649
 20
-2.8555166517
 10
20.6115807773
 20
-2.836382719
 10
20.6101189212
 20
-2.8162775716
  0
LWPOLYLINE
  5
3BC
100
AcDbEntity
  8
ASSI
100
AcDbPolyline
 62
7
  6
CONTINUOUS
 90
13
 70
0
 10
20.7601132097
 20
-2.9662718601
 10
20.7400080578
 20
-2.9648100031
 10
20.7208741215
 20
-2.961004114
 10
20.7027114005
 20
-2.9548541926
 10
20.6852455993
 20
-2.9461769285
 10
20.6687510135
 20
-2.9351556322
 10
20.6540505304
 20
-2.922340235
 10
20.641235136
 20
-2.9076397521
 10
20.6302138443
 20
-2.8911451682
 10
20.621536584
 20
-2.8736793696
 10
20.6153866649
 20
-2.8555166517
 10
20.6115807773
 20
-2.836382719
 10
20.6101189212
 20
-2.8162775716
  0
LWPOLYLINE
  5
3BD
100
AcDbEntity
  8
RACCORDO
100
AcDbPolyline
 62
253
  6
CONTINUOUS
 90
10
 70
0
 10
20.8016039093
 20
-2.9247811604
 10
20.7755589227
 20
-2.9225006468
 10
20.7503052237
 20
-2.9157323586
 10
20.7266100592
 20
-2.9046819272
 10
20.7051933251
 20
-2.8896850821
 10
20.6867056948
 20
-2.8711974509
 10
20.671708851
 20
-2.8497807167
 10
20.660658421
 20
-2.826085553
 10
20.653890134
 20
-2.8008318559
 10
20.6516096209
 20
-2.7747868719
  0
LWPOLYLINE
  5
3BE
100
AcDbEntity
  8
ASSI
100
AcDbPolyline
 62
253
  6
CONTINUOUS
 90
10
 70
0
 10
20.8016039093
 20
-2.9247811604
 10
20.7755589227
 20
-2.9225006468
 10
20.7503052237
 20
-2.9157323586
 10
20.7266100592
 20
-2.9046819272
 10
20.7051933251
 20
-2.8896850821
 10
20.6867056948
 20
-2.8711974509
 10
20.671708851
 20
-2.8497807167
 10
20.660658421
 20
-2.826085553
 10
20.653890134
 20
-2.8008318559
 10
20.6516096209
 20
-2.7747868719
  0
LWPOLYLINE
  5
3BF
100
AcDbEntity
  8
RACCORDO
100
AcDbPolyline
 62
7
  6
CONTINUOUS
 90
9
 70
0
 10
19.4225879371
 20
-0.928740876
 10
19.4247959158
 20
-0.9291865816
 10
19.4298611799
 20
-0.9296116207
 10
19.4377837294
 20
-0.9300159933
 10
19.4487745992
 20
-0.9304053123
 10
19.4626227544
 20
-0.9307739648
 10
19.4786950902
 20
-0.9311051116
 10
19.4970946607
 20
-0.9313970103
 10
19.5396240764
 20
-0.9318566778
  0
LWPOLYLINE
  5
3C0
100
AcDbEntity
  8
ASSI
100
AcDbPolyline
 62
7
  6
CONTINUOUS
 90
9
 70
0
 10
19.4225879371
 20
-0.928740876
 10
19.4247959158
 20
-0.9291865816
 10
19.4298611799
 20
-0.9296116207
 10
19.4377837294
 20
-0.9300159933
 10
19.4487745992
 20
-0.9304053123
 10
19.4626227544
 20
-0.9307739648
 10
19.4786950902
 20
-0.9311051116
 10
19.4970946607
 20
-0.9313970103
 10
19.5396240764
 20
-0.9318566778
  0
LINE
  5
3C1
100
AcDbEntity
  8
RACCORDO
100
AcDbLine
 62
253
  6
CONTINUOUS
 10
20.6101189212
 20
4.3837338515
 11
20.6516096209
 21
4.3422431518
  0
LINE
  5
3C2
100
AcDbEntity
  8
ASSI
100
AcDbLine
 62
253
  6
CONTINUOUS
 10
20.6101189212
 20
4.3837338515
 11
20.6516096209
 21
4.3422431518
  0
LINE
  5
3C3
100
AcDbEntity
  8
DRAFT
100
AcDbLine
 62
7
  6
CONTINUOUS
 10
21.4066279082
 20
3.7372191529
 11
21.4101189212
 21
3.7337281399
  0
LINE
  5
3C4
100
AcDbEntity
  8
ASSI
100
AcDbLine
 62
7
  6
CONTINUOUS
 10
21.4066279082
 20
3.7372191529
 11
21.4101189212
 21
3.7337281399
  0
LINE
  5
3C5
100
AcDbEntity
  8
RACCORDO
100
AcDbLine
 62
253
  6
CONTINUOUS
 10
20.7601132097
 20
4.5337281399
 11
20.8016039093
 21
4.4922374403
  0
LINE
  5
3C6
100
AcDbEntity
  8
ASSI
100
AcDbLine
 62
253
  6
CONTINUOUS
 10
20.7601132097
 20
4.5337281399
 11
20.8016039093
 21
4.4922374403
  0
LINE
  5
3C7
100
AcDbEntity
  8
SCRITTE
100
AcDbLine
 62
253
  6
CONTINUOUS
 10
25.5101189689
 20
1.1837281399
 11
25.7101188735
 21
0.9837281519
  0
LINE
  5
3C8
100
AcDbEntity
  8
0
100
AcDbLine
 62
7
  6
CONTINUOUS
 10
25.3535629212
 20
2.2575211399
 11
25.0024819212
 21
3.2012901399
  0
LINE
  5
3C9
100
AcDbEntity
  8
ASSI
100
AcDbLine
 62
7
  6
CONTINUOUS
 10
25.3535629212
 20
2.2575211399
 11
25.0024819212
 21
3.2012901399
  0
LINE
  5
3CA
100
AcDbEntity
  8
SCRITTE
100
AcDbLine
 62
253
  6
CONTINUOUS
 10
27.6101189689
 20
-0.2162718601
 11
27.2101188258
 21
1.1837281399
  0
LINE
  5
3CB
100
AcDbEntity
  8
0
100
AcDbLine
 62
7
  6
CONTINUOUS
 10
27.2062379212
 20
1.8407801399
 11
27.2981569212
 21
1.5014271399
  0
LINE
  5
3CC
100
AcDbEntity
  8
ASSI
100
AcDbLine
 62
7
  6
CONTINUOUS
 10
27.2062379212
 20
1.8407801399
 11
27.2981569212
 21
1.5014271399
  0
LINE
  5
3CD
100
AcDbEntity
  8
0
100
AcDbLine
 62
7
  6
CONTINUOUS
 10
26.9722769212
 20
2.7342111399
 11
27.1353249212
 21
2.1033701399
  0
LINE
  5
3CE
100
AcDbEntity
  8
ASSI
100
AcDbLine
 62
7
  6
CONTINUOUS
 10
26.9722769212
 20
2.7342111399
 11
27.1353249212
 21
2.1033701399
  0
LINE
  5
3CF
100
AcDbEntity
  8
0
100
AcDbLine
 62
7
  6
CONTINUOUS
 10
27.7763255851
 20
3.1814302221
 11
27.7763255851
 21
1.5014274532
  0
LINE
  5
3D0
100
AcDbEntity
  8
ASSI
100
AcDbLine
 62
7
  6
CONTINUOUS
 10
27.7763255851
 20
3.1814302221
 11
27.7763255851
 21
1.5014274532
  0
LINE
  5
3D1
100
AcDbEntity
  8
0
100
AcDbLine
 62
7
  6
CONTINUOUS
 10
28.1179603528
 20
2.4450563084
 11
28.1179603528
 21
2.9117017909
  0
LINE
  5
3D2
100
AcDbEntity
  8
ASSI
100
AcDbLine
 62
7
  6
CONTINUOUS
 10
28.1179603528
 20
2.4450563084
 11
28.1179603528
 21
2.9117017909
  0
LINE
  5
3D3
100
AcDbEntity
  8
0
100
AcDbLine
 62
7
  6
CONTINUOUS
 10
28.1297259172
 20
1.5014274532
 11
28.1297259172
 21
2.1666598558
  0
LINE
  5
3D4
100
AcDbEntity
  8
ASSI
100
AcDbLine
 62
7
  6
CONTINUOUS
 10
28.1297259172
 20
1.5014274532
 11
28.1297259172
 21
2.1666598558
  0
LINE
  5
3D5
100
AcDbEntity
  8
0
100
AcDbLine
 62
7
  6
CONTINUOUS
 10
28.688571104
 20
2.2949083316
 11
28.688571104
 21
2.3049530387
  0
LINE
  5
3D6
100
AcDbEntity
  8
ASSI
100
AcDbLine
 62
7
  6
CONTINUOUS
 10
28.688571104
 20
2.2949083316
 11
28.688571104
 21
2.3049530387
  0
LWPOLYLINE
  5
3D7
100
AcDbEntity
  8
0
100
AcDbPolyline
 62
7
  6
CONTINUOUS
 90
16
 70
0
 10
28.5963713997
 20
2.7092142612
 10
28.5945621338
 20
2.6757740455
 10
28.5900570814
 20
2.64424803
 10
28.5828562424
 20
2.6146362148
 10
28.5727828597
 20
2.5866499086
 10
28.5600136903
 20
2.5605778026
 10
28.5450790056
 20
2.5372859704
 10
28.5281414514
 20
2.5171390492
 10
28.5090383818
 20
2.4997724018
 10
28.4878121299
 20
2.4849581896
 10
28.464299451
 20
2.4727746174
 10
28.43866359
 20
2.4631434806
 10
28.4114366141
 20
2.4556023265
 10
28.3827958794
 20
2.4499970043
 10
28.3525640299
 20
2.446481665
 10
28.3207410656
 20
2.4450563084
  0
LWPOLYLINE
  5
3D8
100
AcDbEntity
  8
ASSI
100
AcDbPolyline
 62
7
  6
CONTINUOUS
 90
16
 70
0
 10
28.5963713997
 20
2.7092142612
 10
28.5945621338
 20
2.6757740455
 10
28.5900570814
 20
2.64424803
 10
28.5828562424
 20
2.6146362148
 10
28.5727828597
 20
2.5866499086
 10
28.5600136903
 20
2.5605778026
 10
28.5450790056
 20
2.5372859704
 10
28.5281414514
 20
2.5171390492
 10
28.5090383818
 20
2.4997724018
 10
28.4878121299
 20
2.4849581896
 10
28.464299451
 20
2.4727746174
 10
28.43866359
 20
2.4631434806
 10
28.4114366141
 20
2.4556023265
 10
28.3827958794
 20
2.4499970043
 10
28.3525640299
 20
2.446481665
 10
28.3207410656
 20
2.4450563084
  0
LINE
  5
3D9
100
AcDbEntity
  8
SCRITTE
100
AcDbLine
 62
253
  6
CONTINUOUS
 10
28.0101191119
 20
1.1837281399
 11
27.6101189689
 21
-0.2162718601
  0
LINE
  5
3DA
100
AcDbEntity
  8
SCRITTE
100
AcDbLine
 62
253
  6
CONTINUOUS
 10
26.9101189689
 20
-1.9162718601
 11
27.6101189689
 21
-0.5162718601
  0
LINE
  5
3DB
100
AcDbEntity
  8
SCRITTE
100
AcDbLine
 62
253
  6
CONTINUOUS
 10
26.5101188258
 20
-0.5162718601
 11
26.1101190166
 21
-1.1162718243
  0
LWPOLYLINE
  5
3DC
100
AcDbEntity
  8
0
100
AcDbPolyline
 62
7
  6
CONTINUOUS
 90
40
 70
0
 10
28.7400094823
 20
2.3329288269
 10
28.7603855828
 20
2.3501796844
 10
28.7706623215
 20
2.3591943868
 10
28.7809482374
 20
2.3686564413
 10
28.791262994
 20
2.3785088094
 10
28.8015869278
 20
2.3888085296
 10
28.8118284523
 20
2.3998089201
 10
28.8220002476
 20
2.4115334392
 10
28.8320896337
 20
2.4239586288
 10
28.8419669842
 20
2.4372674325
 10
28.851644427
 20
2.4515085347
 10
28.8611098342
 20
2.4666332512
 10
28.870197195
 20
2.4826784726
 10
28.8789249351
 20
2.4996617453
 10
28.8872746289
 20
2.5175655229
 10
28.8950249885
 20
2.5363740568
 10
28.9021801709
 20
2.5560767372
 10
28.9087360191
 20
2.5766841738
 10
28.914458774
 20
2.5982124472
 10
28.9193499167
 20
2.6206582546
 10
28.923407966
 20
2.6440248989
 10
28.9263947198
 20
2.6683383687
 10
28.9283326637
 20
2.6936332642
 10
28.929199312
 20
2.7198749852
 10
28.928689006
 20
2.74698572
 10
28.9269191114
 20
2.7749995848
 10
28.9237722624
 20
2.8038824634
 10
28.9185907033
 20
2.8334541948
 10
28.911439428
 20
2.8638143014
 10
28.9022534425
 20
2.8948632609
 10
28.8901800086
 20
2.9261223458
 10
28.8751109995
 20
2.957801931
 10
28.8571545421
 20
2.9896916415
 10
28.8357822777
 20
3.0206816258
 10
28.8101800528
 20
3.0512157951
 10
28.781162021
 20
3.0808502381
 10
28.750642285
 20
3.1071433694
 10
28.7192588791
 20
3.1292813271
 10
28.686373769
 20
3.1480779731
 10
28.6519869547
 20
3.1635333073
  0
LWPOLYLINE
  5
3DD
100
AcDbEntity
  8
ASSI
100
AcDbPolyline
 62
7
  6
CONTINUOUS
 90
40
 70
0
 10
28.7400094823
 20
2.3329288269
 10
28.7603855828
 20
2.3501796844
 10
28.7706623215
 20
2.3591943868
 10
28.7809482374
 20
2.3686564413
 10
28.791262994
 20
2.3785088094
 10
28.8015869278
 20
2.3888085296
 10
28.8118284523
 20
2.3998089201
 10
28.8220002476
 20
2.4115334392
 10
28.8320896337
 20
2.4239586288
 10
28.8419669842
 20
2.4372674325
 10
28.851644427
 20
2.4515085347
 10
28.8611098342
 20
2.4666332512
 10
28.870197195
 20
2.4826784726
 10
28.8789249351
 20
2.4996617453
 10
28.8872746289
 20
2.5175655229
 10
28.8950249885
 20
2.5363740568
 10
28.9021801709
 20
2.5560767372
 10
28.9087360191
 20
2.5766841738
 10
28.914458774
 20
2.5982124472
 10
28.9193499167
 20
2.6206582546
 10
28.923407966
 20
2.6440248989
 10
28.9263947198
 20
2.6683383687
 10
28.9283326637
 20
2.6936332642
 10
28.929199312
 20
2.7198749852
 10
28.928689006
 20
2.74698572
 10
28.9269191114
 20
2.7749995848
 10
28.9237722624
 20
2.8038824634
 10
28.9185907033
 20
2.8334541948
 10
28.911439428
 20
2.8638143014
 10
28.9022534425
 20
2.8948632609
 10
28.8901800086
 20
2.9261223458
 10
28.8751109995
 20
2.957801931
 10
28.8571545421
 20
2.9896916415
 10
28.8357822777
 20
3.0206816258
 10
28.8101800528
 20
3.0512157951
 10
28.781162021
 20
3.0808502381
 10
28.750642285
 20
3.1071433694
 10
28.7192588791
 20
3.1292813271
 10
28.686373769
 20
3.1480779731
 10
28.6519869547
 20
3.1635333073
  0
LINE
  5
3DE
100
AcDbEntity
  8
0
100
AcDbLine
 62
7
  6
CONTINUOUS
 10
28.7299101204
 20
2.3246926718
 11
28.7400094823
 21
2.3329288269
  0
LINE
  5
3DF
100
AcDbEntity
  8
ASSI
100
AcDbLine
 62
7
  6
CONTINUOUS
 10
28.7299101204
 20
2.3246926718
 11
28.7400094823
 21
2.3329288269
  0
LINE
  5
3E0
100
AcDbEntity
  8
RACCORDO
100
AcDbLine
 62
253
  6
CONTINUOUS
 10
19.407879363
 20
-1.4043240975
 11
19.4173851686
 21
-1.3995715566
  0
LINE
  5
3E1
100
AcDbEntity
  8
ASSI
100
AcDbLine
 62
253
  6
CONTINUOUS
 10
19.407879363
 20
-1.4043240975
 11
19.4173851686
 21
-1.3995715566
  0
LINE
  5
3E2
100
AcDbEntity
  8
SCRITTE
100
AcDbLine
 62
253
  6
CONTINUOUS
 10
38.0913689212
 20
-1.1287718601
 11
37.9163689212
 21
-1.1725218601
  0
LINE
  5
3E3
100
AcDbEntity
  8
RACCORDO
100
AcDbLine
 62
7
  6
CONTINUOUS
 10
53.1749664682
 20
-1.0617809994
 11
53.1101189212
 21
-1.0662718601
  0
LINE
  5
3E4
100
AcDbEntity
  8
ASSI
100
AcDbLine
 62
7
  6
CONTINUOUS
 10
53.1749664682
 20
-1.0617809994
 11
53.1101189212
 21
-1.0662718601
  0
LWPOLYLINE
  5
3E5
100
AcDbEntity
  8
RACCORDO
100
AcDbPolyline
 62
253
  6
CONTINUOUS
 90
19
 70
0
 10
39.4686510677
 20
-2.4248001989
 10
39.4773866779
 20
-2.4244163729
 10
39.4859554264
 20
-2.4232963103
 10
39.4943573131
 20
-2.4214400109
 10
39.5026622509
 20
-2.4188232734
 10
39.5108003269
 20
-2.4154702992
 10
39.5185618024
 20
-2.4114536926
 10
39.5259324266
 20
-2.4067550437
 10
39.5329264503
 20
-2.4013927623
 10
39.5393768875
 20
-2.3954946822
 10
39.5452671556
 20
-2.3890499844
 10
39.5506138372
 20
-2.3820694878
 10
39.5552996936
 20
-2.3747134826
 10
39.5593099329
 20
-2.3669690413
 10
39.5626593471
 20
-2.3588490913
 10
39.5652750732
 20
-2.3505527055
 10
39.5671328236
 20
-2.3421462416
 10
39.5682568858
 20
-2.333563342
 10
39.56864726
 20
-2.3248040066
  0
LWPOLYLINE
  5
3E6
100
AcDbEntity
  8
ASSI
100
AcDbPolyline
 62
253
  6
CONTINUOUS
 90
19
 70
0
 10
39.4686510677
 20
-2.4248001989
 10
39.4773866779
 20
-2.4244163729
 10
39.4859554264
 20
-2.4232963103
 10
39.4943573131
 20
-2.4214400109
 10
39.5026622509
 20
-2.4188232734
 10
39.5108003269
 20
-2.4154702992
 10
39.5185618024
 20
-2.4114536926
 10
39.5259324266
 20
-2.4067550437
 10
39.5329264503
 20
-2.4013927623
 10
39.5393768875
 20
-2.3954946822
 10
39.5452671556
 20
-2.3890499844
 10
39.5506138372
 20
-2.3820694878
 10
39.5552996936
 20
-2.3747134826
 10
39.5593099329
 20
-2.3669690413
 10
39.5626593471
 20
-2.3588490913
 10
39.5652750732
 20
-2.3505527055
 10
39.5671328236
 20
-2.3421462416
 10
39.5682568858
 20
-2.333563342
 10
39.56864726
 20
-2.3248040066
  0
LWPOLYLINE
  5
3E7
100
AcDbEntity
  8
RACCORDO
100
AcDbPolyline
 62
253
  6
CONTINUOUS
 90
19
 70
0
 10
39.4686510677
 20
-2.9247811604
 10
39.5209406567
 20
-2.9224949432
 10
39.5728322564
 20
-2.9156603094
 10
39.6239309829
 20
-2.9043292761
 10
39.6738479815
 20
-2.8885880815
 10
39.7222033991
 20
-2.8685565151
 10
39.7686292719
 20
-2.8443869996
 10
39.8127722992
 20
-2.8162634627
 10
39.8542965645
 20
-2.7843999178
 10
39.8928860966
 20
-2.7490388075
 10
39.928247262
 20
-2.710449164
 10
39.960110908
 20
-2.6689246852
 10
39.9882344706
 20
-2.6247814952
 10
40.0124039209
 20
-2.5783555939
 10
40.0324353935
 20
-2.5300002293
 10
40.0481764946
 20
-2.4800833354
 10
40.0595074488
 20
-2.4289847543
 10
40.0663420261
 20
-2.3770933511
 10
40.0686282215
 20
-2.3248040066
  0
LWPOLYLINE
  5
3E8
100
AcDbEntity
  8
ASSI
100
AcDbPolyline
 62
253
  6
CONTINUOUS
 90
19
 70
0
 10
39.4686510677
 20
-2.9247811604
 10
39.5209406567
 20
-2.9224949432
 10
39.5728322564
 20
-2.9156603094
 10
39.6239309829
 20
-2.9043292761
 10
39.6738479815
 20
-2.8885880815
 10
39.7222033991
 20
-2.8685565151
 10
39.7686292719
 20
-2.8443869996
 10
39.8127722992
 20
-2.8162634627
 10
39.8542965645
 20
-2.7843999178
 10
39.8928860966
 20
-2.7490388075
 10
39.928247262
 20
-2.710449164
 10
39.960110908
 20
-2.6689246852
 10
39.9882344706
 20
-2.6247814952
 10
40.0124039209
 20
-2.5783555939
 10
40.0324353935
 20
-2.5300002293
 10
40.0481764946
 20
-2.4800833354
 10
40.0595074488
 20
-2.4289847543
 10
40.0663420261
 20
-2.3770933511
 10
40.0686282215
 20
-2.3248040066
  0
LWPOLYLINE
  5
3E9
100
AcDbEntity
  8
RACCORDO
100
AcDbPolyline
 62
7
  6
CONTINUOUS
 90
4
 70
0
 10
39.1730474438
 20
-2.9648117551
 10
39.1870453395
 20
-2.9645193271
 10
39.1969778526
 20
-2.9642094017
 10
39.2028449831
 20
-2.9638819787
  0
LWPOLYLINE
  5
3EA
100
AcDbEntity
  8
ASSI
100
AcDbPolyline
 62
7
  6
CONTINUOUS
 90
4
 70
0
 10
39.1730474438
 20
-2.9648117551
 10
39.1870453395
 20
-2.9645193271
 10
39.1969778526
 20
-2.9642094017
 10
39.2028449831
 20
-2.9638819787
  0
LINE
  5
3EB
100
AcDbEntity
  8
RACCORDO
100
AcDbLine
 62
7
  6
CONTINUOUS
 10
39.1321866867
 20
-2.9653518972
 11
39.1730474438
 21
-2.9648117551
  0
LINE
  5
3EC
100
AcDbEntity
  8
ASSI
100
AcDbLine
 62
7
  6
CONTINUOUS
 10
39.1321866867
 20
-2.9653518972
 11
39.1730474438
 21
-2.9648117551
  0
LINE
  5
3ED
100
AcDbEntity
  8
RACCORDO
100
AcDbLine
 62
7
  6
CONTINUOUS
 10
53.1764210744
 20
-2.1158809391
 11
53.1476043216
 21
-2.1161660266
  0
LINE
  5
3EE
100
AcDbEntity
  8
RACCORDO
100
AcDbLine
 62
7
  6
CONTINUOUS
 10
39.0461470432
 20
-2.965958224
 11
39.1321866867
 21
-2.9653518972
  0
LINE
  5
3EF
100
AcDbEntity
  8
ASSI
100
AcDbLine
 62
7
  6
CONTINUOUS
 10
39.0461470432
 20
-2.965958224
 11
39.1321866867
 21
-2.9653518972
  0
LINE
  5
3F0
100
AcDbEntity
  8
RACCORDO
100
AcDbLine
 62
7
  6
CONTINUOUS
 10
53.1476043216
 20
-2.1161660266
 11
53.1135522845
 21
-2.1162718601
  0
LINE
  5
3F1
100
AcDbEntity
  8
RACCORDO
100
AcDbLine
 62
7
  6
CONTINUOUS
 10
39.3101189212
 20
-3.0186530143
 11
39.5628655792
 21
-3.0186530143
  0
LINE
  5
3F2
100
AcDbEntity
  8
DRAFT
100
AcDbLine
 62
7
  6
CONTINUOUS
 10
39.257737767
 20
-2.9662718601
 11
31.8625000754
 21
-2.9662718601
  0
LINE
  5
3F3
100
AcDbEntity
  8
DRAFT
100
AcDbLine
 62
7
  6
CONTINUOUS
 10
31.7101189212
 20
-2.9662718601
 11
28.5101189212
 21
-2.9662718601
  0
LINE
  5
3F4
100
AcDbEntity
  8
RACCORDO
100
AcDbLine
 62
7
  6
CONTINUOUS
 10
20.1097534174
 20
-2.9662718601
 11
28.5101189212
 21
-2.9662718601
  0
LINE
  5
3F5
100
AcDbEntity
  8
RACCORDO
100
AcDbLine
 62
7
  6
CONTINUOUS
 10
31.7101189212
 20
-2.9662718601
 11
39.0461470432
 21
-2.965958224
  0
LINE
  5
3F6
100
AcDbEntity
  8
ASSI
100
AcDbLine
 62
7
  6
CONTINUOUS
 10
20.7601132097
 20
-2.9662718601
 11
39.0461470432
 21
-2.965958224
  0
LINE
  5
3F7
100
AcDbEntity
  8
RACCORDO
100
AcDbLine
 62
7
  6
CONTINUOUS
 10
39.4970514657
 20
-2.9531815584
 11
39.3101189212
 21
-2.9531815584
  0
LINE
  5
3F8
100
AcDbEntity
  8
ASSI
100
AcDbLine
 62
7
  6
CONTINUOUS
 10
39.4970514657
 20
-2.9531815584
 11
39.3101189212
 21
-2.9531815584
  0
LINE
  5
3F9
100
AcDbEntity
  8
RACCORDO
100
AcDbLine
 62
7
  6
CONTINUOUS
 10
20.6101189212
 20
-2.9362718601
 11
20.1400275383
 21
-2.9362718601
  0
LINE
  5
3FA
100
AcDbEntity
  8
RACCORDO
100
AcDbLine
 62
7
  6
CONTINUOUS
 10
20.8016039093
 20
-2.9247811604
 11
39.4686510677
 21
-2.9247811604
  0
LINE
  5
3FB
100
AcDbEntity
  8
ASSI
100
AcDbLine
 62
7
  6
CONTINUOUS
 10
20.8016039093
 20
-2.9247811604
 11
39.4686510677
 21
-2.9247811604
  0
LINE
  5
3FC
100
AcDbEntity
  8
RACCORDO
100
AcDbLine
 62
253
  6
CONTINUOUS
 10
20.2205036167
 20
-2.8557957817
 11
20.5698839465
 21
-2.8557957817
  0
LINE
  5
3FD
100
AcDbEntity
  8
RACCORDO
100
AcDbLine
 62
253
  6
CONTINUOUS
 10
20.6546373702
 20
-2.4248001989
 11
39.4686510677
 21
-2.4248001989
  0
LINE
  5
3FE
100
AcDbEntity
  8
ASSI
100
AcDbLine
 62
253
  6
CONTINUOUS
 10
20.6546373702
 20
-2.4248001989
 11
39.4686510677
 21
-2.4248001989
  0
LINE
  5
3FF
100
AcDbEntity
  8
RACCORDO
100
AcDbLine
 62
253
  6
CONTINUOUS
 10
39.56864726
 20
-2.3248040066
 11
40.0686282215
 21
-2.3248040066
  0
LINE
  5
400
100
AcDbEntity
  8
ASSI
100
AcDbLine
 62
253
  6
CONTINUOUS
 10
39.56864726
 20
-2.3248040066
 11
40.0686282215
 21
-2.3248040066
  0
LINE
  5
401
100
AcDbEntity
  8
RACCORDO
100
AcDbLine
 62
253
  6
CONTINUOUS
 10
19.6205949996
 20
-2.2558871646
 11
20.5647392087
 21
-2.2558871646
  0
LINE
  5
402
100
AcDbEntity
  8
DRAFT
100
AcDbLine
 62
7
  6
CONTINUOUS
 10
21.4066279082
 20
-2.169762873
 11
39.3136099342
 21
-2.169762873
  0
LINE
  5
403
100
AcDbEntity
  8
ASSI
100
AcDbLine
 62
7
  6
CONTINUOUS
 10
21.4066279082
 20
-2.169762873
 11
39.3136099342
 21
-2.169762873
  0
LINE
  5
404
100
AcDbEntity
  8
DRAFT
100
AcDbLine
 62
7
  6
CONTINUOUS
 10
21.4101189212
 20
-2.1662718601
 11
39.3101189212
 21
-2.1662718601
  0
LINE
  5
405
100
AcDbEntity
  8
RACCORDO
100
AcDbLine
 62
7
  6
CONTINUOUS
 10
54.1101341517
 20
-2.1162718601
 11
40.1625000754
 21
-2.1162718601
  0
LINE
  5
406
100
AcDbEntity
  8
DRAFT
100
AcDbLine
 62
7
  6
CONTINUOUS
 10
53.1101189212
 20
-2.1162718601
 11
40.0970286195
 21
-2.1162718601
  0
LINE
  5
407
100
AcDbEntity
  8
ASSI
100
AcDbLine
 62
7
  6
CONTINUOUS
 10
53.1101189212
 20
-2.1162718601
 11
40.0970286195
 21
-2.1162718601
  0
LINE
  5
408
100
AcDbEntity
  8
RACCORDO
100
AcDbLine
 62
253
  6
CONTINUOUS
 10
40.0927420369
 20
-2.1076980418
 11
53.101545103
 21
-2.1076980418
  0
LINE
  5
409
100
AcDbEntity
  8
ASSI
100
AcDbLine
 62
253
  6
CONTINUOUS
 10
40.0927420369
 20
-2.1076980418
 11
53.101545103
 21
-2.1076980418
  0
LINE
  5
40A
100
AcDbEntity
  8
RACCORDO
100
AcDbLine
 62
253
  6
CONTINUOUS
 10
53.229154916
 20
-2.1067567626
 11
54.1006189258
 21
-2.1067566342
  0
LINE
  5
40B
100
AcDbEntity
  8
RACCORDO
100
AcDbLine
 62
253
  6
CONTINUOUS
 10
53.2326728982
 20
-2.0947025181
 11
54.0992121485
 21
-2.0947005911
  0
LINE
  5
40C
100
AcDbEntity
  8
RACCORDO
100
AcDbLine
 62
253
  6
CONTINUOUS
 10
40.0907741993
 20
-2.0778905962
 11
53.097609128
 21
-2.0778905962
  0
LINE
  5
40D
100
AcDbEntity
  8
ASSI
100
AcDbLine
 62
253
  6
CONTINUOUS
 10
40.0907741993
 20
-2.0778905962
 11
53.097609128
 21
-2.0778905962
  0
LINE
  5
40E
100
AcDbEntity
  8
SCRITTE
100
AcDbLine
 62
253
  6
CONTINUOUS
 10
28.7101191119
 20
-1.9162718601
 11
28.0101191119
 21
-1.9162718601
  0
LINE
  5
40F
100
AcDbEntity
  8
SCRITTE
100
AcDbLine
 62
253
  6
CONTINUOUS
 10
27.6101189689
 20
-1.9162718601
 11
26.9101189689
 21
-1.9162718601
  0
LINE
  5
410
100
AcDbEntity
  8
SCRITTE
100
AcDbLine
 62
253
  6
CONTINUOUS
 10
31.8101189242
 20
-1.9162718601
 11
31.9101189391
 21
-1.9162718601
  0
LINE
  5
411
100
AcDbEntity
  8
SCRITTE
100
AcDbLine
 62
253
  6
CONTINUOUS
 10
37.9601189212
 20
-1.9162718601
 11
38.0913689212
 21
-1.9162718601
  0
LINE
  5
412
100
AcDbEntity
  8
SCRITTE
100
AcDbLine
 62
253
  6
CONTINUOUS
 10
32.8434522585
 20
-1.8496051921
 11
32.8767855481
 21
-1.8496051921
  0
LINE
  5
413
100
AcDbEntity
  8
DRAFT
100
AcDbLine
 62
7
  6
CONTINUOUS
 10
19.5101189212
 20
-1.7972913083
 11
19.5401189212
 21
-1.7972913083
  0
LINE
  5
414
100
AcDbEntity
  8
RACCORDO
100
AcDbLine
 62
253
  6
CONTINUOUS
 10
19.4173851686
 20
2.9670278365
 11
19.407879363
 21
2.9717803774
  0
LINE
  5
415
100
AcDbEntity
  8
ASSI
100
AcDbLine
 62
253
  6
CONTINUOUS
 10
19.4173851686
 20
2.9670278365
 11
19.407879363
 21
2.9717803774
  0
LWPOLYLINE
  5
416
100
AcDbEntity
  8
0
100
AcDbPolyline
 62
7
  6
CONTINUOUS
 90
6
 70
0
 10
28.5179385529
 20
2.0168815446
 10
28.5362352561
 20
1.9631889912
 10
28.5540751934
 20
1.9085303846
 10
28.5714583649
 20
1.8529057246
 10
28.5881280732
 20
1.7962203148
 10
28.6208672839
 20
1.6802354249
  0
LWPOLYLINE
  5
417
100
AcDbEntity
  8
ASSI
100
AcDbPolyline
 62
7
  6
CONTINUOUS
 90
6
 70
0
 10
28.5179385529
 20
2.0168815446
 10
28.5362352561
 20
1.9631889912
 10
28.5540751934
 20
1.9085303846
 10
28.5714583649
 20
1.8529057246
 10
28.5881280732
 20
1.7962203148
 10
28.6208672839
 20
1.6802354249
  0
LINE
  5
418
100
AcDbEntity
  8
0
100
AcDbLine
 62
7
  6
CONTINUOUS
 10
27.6721309212
 20
1.5014271399
 11
27.1505709212
 21
3.2012901399
  0
LINE
  5
419
100
AcDbEntity
  8
ASSI
100
AcDbLine
 62
7
  6
CONTINUOUS
 10
27.6721309212
 20
1.5014271399
 11
27.1505709212
 21
3.2012901399
  0
LINE
  5
41A
100
AcDbEntity
  8
0
100
AcDbLine
 62
7
  6
CONTINUOUS
 10
28.6208672839
 20
1.6802354249
 11
28.6730961363
 21
1.5014274532
  0
LINE
  5
41B
100
AcDbEntity
  8
ASSI
100
AcDbLine
 62
7
  6
CONTINUOUS
 10
28.6208672839
 20
1.6802354249
 11
28.6730961363
 21
1.5014274532
  0
LINE
  5
41C
100
AcDbEntity
  8
SCRITTE
100
AcDbLine
 62
253
  6
CONTINUOUS
 10
29.1434519366
 20
4.5267466457
 11
29.1434519366
 21
4.5145290308
  0
LINE
  5
41D
100
AcDbEntity
  8
SCRITTE
100
AcDbLine
 62
253
  6
CONTINUOUS
 10
29.7767855243
 20
4.5267466457
 11
29.7767855243
 21
4.5145290308
  0
LINE
  5
41E
100
AcDbEntity
  8
CURVE
100
AcDbLine
 62
253
  6
CONTINUOUS
 10
30.1101189212
 20
2.7551567369
 11
30.1101189212
 21
2.1122995877
  0
LINE
  5
41F
100
AcDbEntity
  8
SCRITTE
100
AcDbLine
 62
253
  6
CONTINUOUS
 10
30.4767855243
 20
4.5267466457
 11
30.4767855243
 21
4.5145290308
  0
LINE
  5
420
100
AcDbEntity
  8
SCRITTE
100
AcDbLine
 62
253
  6
CONTINUOUS
 10
29.8767853336
 20
1.1837281399
 11
29.4767855243
 21
-0.2162718601
  0
LINE
  5
421
100
AcDbEntity
  8
CURVE
100
AcDbLine
 62
253
  6
CONTINUOUS
 10
30.2172617831
 20
2.9694424384
 11
30.1101189212
 21
2.7551567369
  0
LINE
  5
422
100
AcDbEntity
  8
SCRITTE
100
AcDbLine
 62
253
  6
CONTINUOUS
 10
28.0101191119
 20
-1.9162718601
 11
28.7101191119
 21
-0.5162718601
  0
LINE
  5
423
100
AcDbEntity
  8
CURVE
100
AcDbLine
 62
253
  6
CONTINUOUS
 10
30.7529760704
 20
1.8980138638
 11
30.8601189212
 21
2.1122995877
  0
LINE
  5
424
100
AcDbEntity
  8
CURVE
100
AcDbLine
 62
253
  6
CONTINUOUS
 10
31.3958332197
 20
2.9694424384
 11
31.2886903242
 21
2.7551567369
  0
LINE
  5
425
100
AcDbEntity
  8
CURVE
100
AcDbLine
 62
253
  6
CONTINUOUS
 10
30.4315474958
 20
3.1837281399
 11
30.2172617831
 21
2.9694424384
  0
LINE
  5
426
100
AcDbEntity
  8
CURVE
100
AcDbLine
 62
253
  6
CONTINUOUS
 10
31.6101189212
 20
3.1837281399
 11
31.3958332197
 21
2.9694424384
  0
LINE
  5
427
100
AcDbEntity
  8
CURVE
100
AcDbLine
 62
253
  6
CONTINUOUS
 10
30.5386903689
 20
1.6837281399
 11
30.7529760704
 21
1.8980138638
  0
LWPOLYLINE
  5
428
100
AcDbEntity
  8
0
100
AcDbPolyline
 62
7
  6
CONTINUOUS
 90
5
 70
0
 10
28.688571104
 20
2.3049530387
 10
28.6990388552
 20
2.3079650989
 10
28.7094248069
 20
2.3122108078
 10
28.7197289589
 20
2.3176901655
 10
28.7299101204
 20
2.3246926718
  0
LWPOLYLINE
  5
429
100
AcDbEntity
  8
ASSI
100
AcDbPolyline
 62
7
  6
CONTINUOUS
 90
5
 70
0
 10
28.688571104
 20
2.3049530387
 10
28.6990388552
 20
2.3079650989
 10
28.7094248069
 20
2.3122108078
 10
28.7197289589
 20
2.3176901655
 10
28.7299101204
 20
2.3246926718
  0
LINE
  5
42A
100
AcDbEntity
  8
RACCORDO
100
AcDbLine
 62
7
  6
CONTINUOUS
 10
20.589367943
 20
-1.5991193854
 11
20.6272887391
 21
-1.5991020421
  0
LINE
  5
42B
100
AcDbEntity
  8
ASSI
100
AcDbLine
 62
7
  6
CONTINUOUS
 10
20.589367943
 20
-1.5991193854
 11
20.6272887391
 21
-1.5991020421
  0
LINE
  5
42C
100
AcDbEntity
  8
RACCORDO
100
AcDbLine
 62
253
  6
CONTINUOUS
 10
20.5883017517
 20
-1.0991269434
 11
20.6316220654
 21
-1.0991071306
  0
LINE
  5
42D
100
AcDbEntity
  8
ASSI
100
AcDbLine
 62
253
  6
CONTINUOUS
 10
20.5883017517
 20
-1.0991269434
 11
20.6316220654
 21
-1.0991071306
  0
LINE
  5
42E
100
AcDbEntity
  8
SCRITTE
100
AcDbLine
 62
253
  6
CONTINUOUS
 10
32.9101189212
 20
-1.6829385198
 11
32.8767855481
 21
-1.6829385198
  0
LINE
  5
42F
100
AcDbEntity
  8
DRAFT
100
AcDbLine
 62
7
  6
CONTINUOUS
 10
20.6101189212
 20
-1.6162718601
 11
20.5895610139
 21
-1.6162718601
  0
LINE
  5
430
100
AcDbEntity
  8
ASSI
100
AcDbLine
 62
7
  6
CONTINUOUS
 10
20.6101189212
 20
-1.6162718601
 11
20.5895610139
 21
-1.6162718601
  0
LINE
  5
431
100
AcDbEntity
  8
DRAFT
100
AcDbLine
 62
7
  6
CONTINUOUS
 10
19.581237862
 20
-1.6162718601
 11
17.6101189212
 21
-1.6162718601
  0
LINE
  5
432
100
AcDbEntity
  8
ASSI
100
AcDbLine
 62
7
  6
CONTINUOUS
 10
19.581237862
 20
-1.6162718601
 11
17.6101189212
 21
-1.6162718601
  0
LINE
  5
433
100
AcDbEntity
  8
RACCORDO
100
AcDbLine
 62
7
  6
CONTINUOUS
 10
17.6191748198
 20
-1.6072159615
 11
19.5814584309
 21
-1.6072159615
  0
LINE
  5
434
100
AcDbEntity
  8
ASSI
100
AcDbLine
 62
7
  6
CONTINUOUS
 10
17.6191748198
 20
-1.6072159615
 11
19.5814584309
 21
-1.6072159615
  0
LINE
  5
435
100
AcDbEntity
  8
RACCORDO
100
AcDbLine
 62
253
  6
CONTINUOUS
 10
17.620077104
 20
-1.5773595364
 11
19.5001946905
 21
-1.5773595364
  0
LINE
  5
436
100
AcDbEntity
  8
ASSI
100
AcDbLine
 62
253
  6
CONTINUOUS
 10
17.620077104
 20
-1.5773595364
 11
19.5001946905
 21
-1.5773595364
  0
LINE
  5
437
100
AcDbEntity
  8
SCRITTE
100
AcDbLine
 62
253
  6
CONTINUOUS
 10
38.0476189212
 20
-1.1287718601
 11
38.0913689212
 21
-1.1287718601
  0
LINE
  5
438
100
AcDbEntity
  8
RACCORDO
100
AcDbLine
 62
253
  6
CONTINUOUS
 10
53.0705093508
 20
-1.1012365059
 11
40.0772253426
 21
-1.1012365059
  0
LINE
  5
439
100
AcDbEntity
  8
ASSI
100
AcDbLine
 62
253
  6
CONTINUOUS
 10
53.0705093508
 20
-1.1012365059
 11
40.0772253426
 21
-1.1012365059
  0
LINE
  5
43A
100
AcDbEntity
  8
RACCORDO
100
AcDbLine
 62
253
  6
CONTINUOUS
 10
19.4225879371
 20
-1.0995734194
 11
19.5837565835
 21
-1.099573418
  0
LINE
  5
43B
100
AcDbEntity
  8
ASSI
100
AcDbLine
 62
253
  6
CONTINUOUS
 10
19.4225879371
 20
-1.0995734194
 11
19.5837565835
 21
-1.099573418
  0
LINE
  5
43C
100
AcDbEntity
  8
0
100
AcDbLine
 62
7
  6
CONTINUOUS
 10
17.6197280078
 20
-0.9662718601
 11
9.6353876848
 21
-0.9662718601
  0
LINE
  5
43D
100
AcDbEntity
  8
DRAFT
100
AcDbLine
 62
7
  6
CONTINUOUS
 10
20.6252751489
 20
-0.9204040267
 11
20.5883017517
 21
-0.9204040267
  0
LINE
  5
43E
100
AcDbEntity
  8
ASSI
100
AcDbLine
 62
7
  6
CONTINUOUS
 10
20.6252751489
 20
-0.9204040267
 11
20.5883017517
 21
-0.9204040267
  0
LINE
  5
43F
100
AcDbEntity
  8
DRAFT
100
AcDbLine
 62
7
  6
CONTINUOUS
 10
19.5837565835
 20
-0.9204040267
 11
19.4142510879
 21
-0.9204040267
  0
LINE
  5
440
100
AcDbEntity
  8
ASSI
100
AcDbLine
 62
7
  6
CONTINUOUS
 10
19.5837565835
 20
-0.9204040267
 11
19.4142510879
 21
-0.9204040267
  0
LINE
  5
441
100
AcDbEntity
  8
RACCORDO
100
AcDbLine
 62
253
  6
CONTINUOUS
 10
54.0247593139
 20
-0.83338821
 11
53.6833266269
 21
-0.83338821
  0
LINE
  5
442
100
AcDbEntity
  8
RACCORDO
100
AcDbLine
 62
253
  6
CONTINUOUS
 10
53.9699418063
 20
-0.7237532032
 11
53.7929616337
 21
-0.7237532032
  0
LINE
  5
443
100
AcDbEntity
  8
SCRITTE
100
AcDbLine
 62
253
  6
CONTINUOUS
 10
38.0913689212
 20
-0.6037718601
 11
38.0038689212
 21
-0.6037718601
  0
LINE
  5
444
100
AcDbEntity
  8
RACCORDO
100
AcDbLine
 62
253
  6
CONTINUOUS
 10
53.2581153632
 20
-0.5266806819
 11
53.0873246599
 21
-0.5266806819
  0
LINE
  5
445
100
AcDbEntity
  8
ASSI
100
AcDbLine
 62
253
  6
CONTINUOUS
 10
53.2581153632
 20
-0.5266806819
 11
53.0873246599
 21
-0.5266806819
  0
LINE
  5
446
100
AcDbEntity
  8
SCRITTE
100
AcDbLine
 62
253
  6
CONTINUOUS
 10
31.9101189391
 20
-0.5162718601
 11
31.8101189242
 21
-0.5162718601
  0
LINE
  5
447
100
AcDbEntity
  8
SCRITTE
100
AcDbLine
 62
253
  6
CONTINUOUS
 10
28.7101191119
 20
-0.5162718601
 11
28.0101191119
 21
-0.5162718601
  0
LINE
  5
448
100
AcDbEntity
  8
SCRITTE
100
AcDbLine
 62
253
  6
CONTINUOUS
 10
27.6101189689
 20
-0.5162718601
 11
26.9101189689
 21
-0.5162718601
  0
LINE
  5
449
100
AcDbEntity
  8
RACCORDO
100
AcDbLine
 62
253
  6
CONTINUOUS
 10
53.0664812589
 20
-0.4622654395
 11
40.07521145
 21
-0.4622654395
  0
LINE
  5
44A
100
AcDbEntity
  8
ASSI
100
AcDbLine
 62
253
  6
CONTINUOUS
 10
53.0664812589
 20
-0.4622654395
 11
40.07521145
 21
-0.4622654395
  0
LINE
  5
44B
100
AcDbEntity
  8
RACCORDO
100
AcDbLine
 62
7
  6
CONTINUOUS
 10
20.6316220654
 20
-0.9330988266
 11
20.5883017517
 21
-0.933059198
  0
LINE
  5
44C
100
AcDbEntity
  8
ASSI
100
AcDbLine
 62
7
  6
CONTINUOUS
 10
20.6316220654
 20
-0.9330988266
 11
20.5883017517
 21
-0.933059198
  0
LINE
  5
44D
100
AcDbEntity
  8
RACCORDO
100
AcDbLine
 62
7
  6
CONTINUOUS
 10
19.5396240764
 20
-0.9318566778
 11
19.5837565835
 21
-0.9320997594
  0
LINE
  5
44E
100
AcDbEntity
  8
ASSI
100
AcDbLine
 62
7
  6
CONTINUOUS
 10
19.5396240764
 20
-0.9318566778
 11
19.5837565835
 21
-0.9320997594
  0
LINE
  5
44F
100
AcDbEntity
  8
SCRITTE
100
AcDbLine
 62
253
  6
CONTINUOUS
 10
31.6101189257
 20
-1.7162718511
 11
31.8101189242
 21
-1.9162718601
  0
LINE
  5
450
100
AcDbEntity
  8
SCRITTE
100
AcDbLine
 62
253
  6
CONTINUOUS
 10
30.6767856197
 20
-0.0162718511
 11
30.8767855243
 21
-0.2162718601
  0
LINE
  5
451
100
AcDbEntity
  8
SCRITTE
100
AcDbLine
 62
253
  6
CONTINUOUS
 10
32.8101188854
 20
-1.8162718556
 11
32.8434522585
 21
-1.8496051921
  0
LINE
  5
452
100
AcDbEntity
  8
SCRITTE
100
AcDbLine
 62
253
  6
CONTINUOUS
 10
31.5101189212
 20
-1.5162718422
 11
31.6101189257
 21
-1.7162718511
  0
LINE
  5
453
100
AcDbEntity
  8
SCRITTE
100
AcDbLine
 62
253
  6
CONTINUOUS
 10
30.2767858104
 20
-0.2162718601
 11
29.8767853336
 21
1.1837281399
  0
LINE
  5
454
100
AcDbEntity
  8
0
100
AcDbLine
 62
7
  6
CONTINUOUS
 10
28.9345775173
 20
1.8060439674
 11
28.8930981682
 21
1.9615081842
  0
LINE
  5
455
100
AcDbEntity
  8
ASSI
100
AcDbLine
 62
7
  6
CONTINUOUS
 10
28.9345775173
 20
1.8060439674
 11
28.8930981682
 21
1.9615081842
  0
LINE
  5
456
100
AcDbEntity
  8
0
100
AcDbLine
 62
7
  6
CONTINUOUS
 10
29.0143994797
 20
1.5014274532
 11
28.9345775173
 21
1.8060439674
  0
LINE
  5
457
100
AcDbEntity
  8
ASSI
100
AcDbLine
 62
7
  6
CONTINUOUS
 10
29.0143994797
 20
1.5014274532
 11
28.9345775173
 21
1.8060439674
  0
LWPOLYLINE
  5
458
100
AcDbEntity
  8
0
100
AcDbPolyline
 62
7
  6
CONTINUOUS
 90
13
 70
0
 10
28.8930981682
 20
1.9615081842
 10
28.8837264466
 20
1.999320768
 10
28.872949596
 20
2.0360791557
 10
28.8607676166
 20
2.0717833472
 10
28.8472096994
 20
2.1069644608
 10
28.8322466533
 20
2.1410913783
 10
28.815790905
 20
2.1725707453
 10
28.7977007977
 20
2.2011586047
 10
28.7781179882
 20
2.2270989138
 10
28.7573798744
 20
2.2495301893
 10
28.735598922
 20
2.2681652702
 10
28.7126626652
 20
2.2832913176
 10
28.688571104
 20
2.2949083316
  0
LWPOLYLINE
  5
459
100
AcDbEntity
  8
ASSI
100
AcDbPolyline
 62
7
  6
CONTINUOUS
 90
13
 70
0
 10
28.8930981682
 20
1.9615081842
 10
28.8837264466
 20
1.999320768
 10
28.872949596
 20
2.0360791557
 10
28.8607676166
 20
2.0717833472
 10
28.8472096994
 20
2.1069644608
 10
28.8322466533
 20
2.1410913783
 10
28.815790905
 20
2.1725707453
 10
28.7977007977
 20
2.2011586047
 10
28.7781179882
 20
2.2270989138
 10
28.7573798744
 20
2.2495301893
 10
28.735598922
 20
2.2681652702
 10
28.7126626652
 20
2.2832913176
 10
28.688571104
 20
2.2949083316
  0
LINE
  5
45A
100
AcDbEntity
  8
SCRITTE
100
AcDbLine
 62
253
  6
CONTINUOUS
 10
30.6767856197
 20
0.9837281519
 11
30.6767856197
 21
-0.0162718511
  0
LINE
  5
45B
100
AcDbEntity
  8
CURVE
100
AcDbLine
 62
253
  6
CONTINUOUS
 10
30.8601189212
 20
2.1122995877
 11
30.8601189212
 21
2.7551567369
  0
LINE
  5
45C
100
AcDbEntity
  8
CURVE
100
AcDbLine
 62
253
  6
CONTINUOUS
 10
31.2886903242
 20
2.7551567369
 11
31.2886903242
 21
2.1122995877
  0
LINE
  5
45D
100
AcDbEntity
  8
SCRITTE
100
AcDbLine
 62
253
  6
CONTINUOUS
 10
31.5101189212
 20
-0.9162718362
 11
31.5101189212
 21
-1.5162718422
  0
LINE
  5
45E
100
AcDbEntity
  8
SCRITTE
100
AcDbLine
 62
253
  6
CONTINUOUS
 10
31.9767858104
 20
4.5250012723
 11
31.9767858104
 21
4.5162744044
  0
LINE
  5
45F
100
AcDbEntity
  8
CURVE
100
AcDbLine
 62
253
  6
CONTINUOUS
 10
32.0386903242
 20
2.1122995877
 11
32.0386903242
 21
2.7551567369
  0
LINE
  5
460
100
AcDbEntity
  8
CURVE
100
AcDbLine
 62
253
  6
CONTINUOUS
 10
31.9315475182
 20
1.8980138638
 11
32.0386903242
 21
2.1122995877
  0
LINE
  5
461
100
AcDbEntity
  8
CURVE
100
AcDbLine
 62
253
  6
CONTINUOUS
 10
32.4672617273
 20
2.9694424384
 11
32.6815475182
 21
3.1837281399
  0
LINE
  5
462
100
AcDbEntity
  8
SCRITTE
100
AcDbLine
 62
253
  6
CONTINUOUS
 10
30.8767855243
 20
1.1837281399
 11
30.6767856197
 21
0.9837281519
  0
LINE
  5
463
100
AcDbEntity
  8
CURVE
100
AcDbLine
 62
253
  6
CONTINUOUS
 10
31.7172617273
 20
1.6837281399
 11
31.9315475182
 21
1.8980138638
  0
LINE
  5
464
100
AcDbEntity
  8
CURVE
100
AcDbLine
 62
253
  6
CONTINUOUS
 10
33.1101189212
 20
2.1122995877
 11
32.6815475182
 21
1.6837281399
  0
LINE
  5
465
100
AcDbEntity
  8
CURVE
100
AcDbLine
 62
253
  6
CONTINUOUS
 10
34.2529759959
 20
2.6480138415
 11
34.0744045333
 21
2.5408710354
  0
LINE
  5
466
100
AcDbEntity
  8
SCRITTE
100
AcDbLine
 62
253
  6
CONTINUOUS
 10
22.910118957
 20
-0.2162718601
 11
23.6101188735
 21
-0.2162718601
  0
LINE
  5
467
100
AcDbEntity
  8
SCRITTE
100
AcDbLine
 62
253
  6
CONTINUOUS
 10
25.0101188735
 20
-0.2162718601
 11
25.7101188735
 21
-0.2162718601
  0
LINE
  5
468
100
AcDbEntity
  8
SCRITTE
100
AcDbLine
 62
253
  6
CONTINUOUS
 10
30.8767855243
 20
-0.2162718601
 11
31.2767853336
 21
-0.2162718601
  0
LINE
  5
469
100
AcDbEntity
  8
SCRITTE
100
AcDbLine
 62
253
  6
CONTINUOUS
 10
32.9101191119
 20
-0.2162718601
 11
33.4101185397
 21
-0.2162718601
  0
LINE
  5
46A
100
AcDbEntity
  8
SCRITTE
100
AcDbLine
 62
253
  6
CONTINUOUS
 10
34.3767855243
 20
-0.2162718601
 11
34.7767853336
 21
-0.2162718601
  0
LINE
  5
46B
100
AcDbEntity
  8
SCRITTE
100
AcDbLine
 62
253
  6
CONTINUOUS
 10
26.1101190166
 20
0.0837281429
 11
26.8101190166
 21
0.0837281429
  0
LINE
  5
46C
100
AcDbEntity
  8
RACCORDO
100
AcDbLine
 62
253
  6
CONTINUOUS
 10
53.2694842293
 20
0.181648411
 11
53.0821908173
 21
0.181648411
  0
LINE
  5
46D
100
AcDbEntity
  8
ASSI
100
AcDbLine
 62
253
  6
CONTINUOUS
 10
53.2694842293
 20
0.181648411
 11
53.0821908173
 21
0.181648411
  0
LINE
  5
46E
100
AcDbEntity
  8
SCRITTE
100
AcDbLine
 62
253
  6
CONTINUOUS
 10
30.1434523181
 20
0.1837281578
 11
29.6101190166
 21
0.1837281578
  0
LINE
  5
46F
100
AcDbEntity
  8
SCRITTE
100
AcDbLine
 62
253
  6
CONTINUOUS
 10
24.6101188974
 20
0.2837281519
 11
24.0101188497
 21
0.2837281519
  0
LINE
  5
470
100
AcDbEntity
  8
ASSI
100
AcDbLine
 62
7
  6
CONTINUOUS
 10
45.4101189212
 20
0.2837281399
 11
46.4684194456
 21
0.2837281399
  0
LINE
  5
471
100
AcDbEntity
  8
0
100
AcDbLine
 62
7
  6
CONTINUOUS
 10
17.6197283583
 20
0.5337281399
 11
9.6353876848
 21
0.5337281399
  0
LINE
  5
472
100
AcDbEntity
  8
DRAFT
100
AcDbLine
 62
7
  6
CONTINUOUS
 10
20.6236368359
 20
0.7837281399
 11
20.5883017517
 21
0.7837281399
  0
LINE
  5
473
100
AcDbEntity
  8
ASSI
100
AcDbLine
 62
7
  6
CONTINUOUS
 10
20.6236368359
 20
0.7837281399
 11
20.5883017517
 21
0.7837281399
  0
LINE
  5
474
100
AcDbEntity
  8
DRAFT
100
AcDbLine
 62
7
  6
CONTINUOUS
 10
19.5837565835
 20
0.7837281399
 11
17.6236368359
 21
0.7837281399
  0
LINE
  5
475
100
AcDbEntity
  8
ASSI
100
AcDbLine
 62
7
  6
CONTINUOUS
 10
19.5837565835
 20
0.7837281399
 11
17.6236368359
 21
0.7837281399
  0
LINE
  5
476
100
AcDbEntity
  8
0
100
AcDbLine
 62
7
  6
CONTINUOUS
 10
17.6197283583
 20
1.0337281399
 11
9.6353876848
 21
1.0337281399
  0
LINE
  5
477
100
AcDbEntity
  8
SCRITTE
100
AcDbLine
 62
253
  6
CONTINUOUS
 10
34.7767853336
 20
1.1837281399
 11
34.3767855243
 21
1.1837281399
  0
LINE
  5
478
100
AcDbEntity
  8
SCRITTE
100
AcDbLine
 62
253
  6
CONTINUOUS
 10
33.4101185397
 20
1.1837281399
 11
32.9101191119
 21
1.1837281399
  0
LINE
  5
479
100
AcDbEntity
  8
SCRITTE
100
AcDbLine
 62
253
  6
CONTINUOUS
 10
31.2767853336
 20
1.1837281399
 11
30.8767855243
 21
1.1837281399
  0
LINE
  5
47A
100
AcDbEntity
  8
SCRITTE
100
AcDbLine
 62
253
  6
CONTINUOUS
 10
23.110118945
 20
1.1837281399
 11
23.4101188854
 21
1.1837281399
  0
LINE
  5
47B
100
AcDbEntity
  8
SCRITTE
100
AcDbLine
 62
253
  6
CONTINUOUS
 10
25.2101187781
 20
1.1837281399
 11
25.5101189689
 21
1.1837281399
  0
LINE
  5
47C
100
AcDbEntity
  8
SCRITTE
100
AcDbLine
 62
253
  6
CONTINUOUS
 10
38.2663689212
 20
-0.6475218601
 11
38.0913689212
 21
-0.6037718601
  0
LINE
  5
47D
100
AcDbEntity
  8
SCRITTE
100
AcDbLine
 62
253
  6
CONTINUOUS
 10
37.8288689212
 20
-1.8725218601
 11
37.9601189212
 21
-1.9162718601
  0
LINE
  5
47E
100
AcDbEntity
  8
SCRITTE
100
AcDbLine
 62
253
  6
CONTINUOUS
 10
37.9163689212
 20
-1.0850218601
 11
38.0476189212
 21
-1.1287718601
  0
LINE
  5
47F
100
AcDbEntity
  8
SCRITTE
100
AcDbLine
 62
253
  6
CONTINUOUS
 10
37.7413689212
 20
-1.8287718601
 11
37.8288689212
 21
-1.8725218601
  0
LINE
  5
480
100
AcDbEntity
  8
SCRITTE
100
AcDbLine
 62
253
  6
CONTINUOUS
 10
32.1101189272
 20
-0.7162718481
 11
31.9101189391
 21
-0.5162718601
  0
LINE
  5
481
100
AcDbEntity
  8
CURVE
100
AcDbLine
 62
253
  6
CONTINUOUS
 10
30.2172617831
 20
1.8980138638
 11
30.4315474958
 21
1.6837281399
  0
LINE
  5
482
100
AcDbEntity
  8
CURVE
100
AcDbLine
 62
253
  6
CONTINUOUS
 10
30.1101189212
 20
2.1122995877
 11
30.2172617831
 21
1.8980138638
  0
LINE
  5
483
100
AcDbEntity
  8
SCRITTE
100
AcDbLine
 62
253
  6
CONTINUOUS
 10
32.2101189212
 20
-0.9162718362
 11
32.1101189272
 21
-0.7162718481
  0
LINE
  5
484
100
AcDbEntity
  8
SCRITTE
100
AcDbLine
 62
253
  6
CONTINUOUS
 10
32.9434522943
 20
-1.7496051929
 11
32.9101189212
 21
-1.6829385198
  0
LINE
  5
485
100
AcDbEntity
  8
CURVE
100
AcDbLine
 62
253
  6
CONTINUOUS
 10
30.8601189212
 20
2.7551567369
 11
30.7529760704
 21
2.9694424384
  0
LINE
  5
486
100
AcDbEntity
  8
CURVE
100
AcDbLine
 62
253
  6
CONTINUOUS
 10
31.2886903242
 20
2.1122995877
 11
31.3958332197
 21
1.8980138638
  0
LINE
  5
487
100
AcDbEntity
  8
SCRITTE
100
AcDbLine
 62
253
  6
CONTINUOUS
 10
32.2101189212
 20
-1.5162718422
 11
32.2101189212
 21
-0.9162718362
  0
LINE
  5
488
100
AcDbEntity
  8
CURVE
100
AcDbLine
 62
253
  6
CONTINUOUS
 10
32.4672617273
 20
2.5408710354
 11
32.4672617273
 21
2.9694424384
  0
LINE
  5
489
100
AcDbEntity
  8
SCRITTE
100
AcDbLine
 62
253
  6
CONTINUOUS
 10
32.8101188854
 20
-1.7829385242
 11
32.8101188854
 21
-1.8162718556
  0
LINE
  5
48A
100
AcDbEntity
  8
SCRITTE
100
AcDbLine
 62
253
  6
CONTINUOUS
 10
32.9101191119
 20
1.1837281399
 11
32.9101191119
 21
-0.2162718601
  0
LINE
  5
48B
100
AcDbEntity
  8
SCRITTE
100
AcDbLine
 62
253
  6
CONTINUOUS
 10
32.9434522943
 20
-1.7829385242
 11
32.9434522943
 21
-1.7496051929
  0
LINE
  5
48C
100
AcDbEntity
  8
SCRITTE
100
AcDbLine
 62
253
  6
CONTINUOUS
 10
33.143452032
 20
4.5267466457
 11
33.143452032
 21
4.5145290308
  0
LINE
  5
48D
100
AcDbEntity
  8
CURVE
100
AcDbLine
 62
253
  6
CONTINUOUS
 10
33.2172617273
 20
2.9694424384
 11
33.2172617273
 21
2.5408710354
  0
LINE
  5
48E
100
AcDbEntity
  8
SCRITTE
100
AcDbLine
 62
253
  6
CONTINUOUS
 10
33.6101191119
 20
-0.0162718511
 11
33.6101191119
 21
0.9837281519
  0
LINE
  5
48F
100
AcDbEntity
  8
CURVE
100
AcDbLine
 62
253
  6
CONTINUOUS
 10
33.2172617273
 20
2.5408710354
 11
33.1101189212
 21
2.1122995877
  0
LINE
  5
490
100
AcDbEntity
  8
SCRITTE
100
AcDbLine
 62
253
  6
CONTINUOUS
 10
31.6101189257
 20
-0.7162718481
 11
31.5101189212
 21
-0.9162718362
  0
LINE
  5
491
100
AcDbEntity
  8
SCRITTE
100
AcDbLine
 62
253
  6
CONTINUOUS
 10
32.1101189272
 20
-1.7162718511
 11
32.2101189212
 21
-1.5162718422
  0
LINE
  5
492
100
AcDbEntity
  8
SCRITTE
100
AcDbLine
 62
253
  6
CONTINUOUS
 10
31.8434525088
 20
-0.1829385261
 11
32.6434521274
 21
1.0503948146
  0
LINE
  5
493
100
AcDbEntity
  8
SCRITTE
100
AcDbLine
 62
253
  6
CONTINUOUS
 10
31.8101189242
 20
-0.5162718601
 11
31.6101189257
 21
-0.7162718481
  0
LINE
  5
494
100
AcDbEntity
  8
CURVE
100
AcDbLine
 62
253
  6
CONTINUOUS
 10
34.288690503
 20
1.7908710019
 11
34.1815473394
 21
1.6837281399
  0
LINE
  5
495
100
AcDbEntity
  8
SCRITTE
100
AcDbLine
 62
253
  6
CONTINUOUS
 10
34.3767855243
 20
1.1837281399
 11
34.1767849521
 21
0.9837281519
  0
LWPOLYLINE
  5
496
100
AcDbEntity
  8
RACCORDO
100
AcDbPolyline
 62
7
  6
CONTINUOUS
 90
7
 70
0
 10
19.4786950902
 20
2.4985613915
 10
19.4626227544
 20
2.4982302447
 10
19.4487745992
 20
2.4978615922
 10
19.4377837294
 20
2.4974722731
 10
19.4298611799
 20
2.4970679006
 10
19.4247959158
 20
2.4966428615
 10
19.4225879371
 20
2.4961971559
  0
LWPOLYLINE
  5
497
100
AcDbEntity
  8
ASSI
100
AcDbPolyline
 62
7
  6
CONTINUOUS
 90
7
 70
0
 10
19.4786950902
 20
2.4985613915
 10
19.4626227544
 20
2.4982302447
 10
19.4487745992
 20
2.4978615922
 10
19.4377837294
 20
2.4974722731
 10
19.4298611799
 20
2.4970679006
 10
19.4247959158
 20
2.4966428615
 10
19.4225879371
 20
2.4961971559
  0
LINE
  5
498
100
AcDbEntity
  8
RACCORDO
100
AcDbLine
 62
7
  6
CONTINUOUS
 10
19.5177184117
 20
2.4991076832
 11
19.4786950902
 21
2.4985613915
  0
LINE
  5
499
100
AcDbEntity
  8
ASSI
100
AcDbLine
 62
7
  6
CONTINUOUS
 10
19.5177184117
 20
2.4991076832
 11
19.4786950902
 21
2.4985613915
  0
LWPOLYLINE
  5
49A
100
AcDbEntity
  8
RACCORDO
100
AcDbPolyline
 62
7
  6
CONTINUOUS
 90
3
 70
0
 10
19.5837565835
 20
2.4995560393
 10
19.5624975656
 20
2.4994652429
 10
19.5177184117
 20
2.4991076832
  0
LWPOLYLINE
  5
49B
100
AcDbEntity
  8
ASSI
100
AcDbPolyline
 62
7
  6
CONTINUOUS
 90
3
 70
0
 10
19.5837565835
 20
2.4995560393
 10
19.5624975656
 20
2.4994652429
 10
19.5177184117
 20
2.4991076832
  0
LINE
  5
49C
100
AcDbEntity
  8
RACCORDO
100
AcDbLine
 62
7
  6
CONTINUOUS
 10
20.6316220654
 20
2.5005551065
 11
20.5883017517
 21
2.5005154779
  0
LINE
  5
49D
100
AcDbEntity
  8
ASSI
100
AcDbLine
 62
7
  6
CONTINUOUS
 10
20.6316220654
 20
2.5005551065
 11
20.5883017517
 21
2.5005154779
  0
LINE
  5
49E
100
AcDbEntity
  8
ASSI
100
AcDbLine
 62
7
  6
CONTINUOUS
 10
45.4101189212
 20
1.2837281399
 11
46.4684194456
 21
1.2837281399
  0
LINE
  5
49F
100
AcDbEntity
  8
RACCORDO
100
AcDbLine
 62
253
  6
CONTINUOUS
 10
53.0821908173
 20
1.3858078689
 11
53.2694842293
 21
1.3858078689
  0
LINE
  5
4A0
100
AcDbEntity
  8
ASSI
100
AcDbLine
 62
253
  6
CONTINUOUS
 10
53.0821908173
 20
1.3858078689
 11
53.2694842293
 21
1.3858078689
  0
LINE
  5
4A1
100
AcDbEntity
  8
0
100
AcDbLine
 62
7
  6
CONTINUOUS
 10
22.9578429212
 20
1.5014271399
 11
23.2705349212
 21
1.5014271399
  0
LINE
  5
4A2
100
AcDbEntity
  8
ASSI
100
AcDbLine
 62
7
  6
CONTINUOUS
 10
22.9578429212
 20
1.5014271399
 11
23.2705349212
 21
1.5014271399
  0
LINE
  5
4A3
100
AcDbEntity
  8
0
100
AcDbLine
 62
7
  6
CONTINUOUS
 10
23.9486169212
 20
1.5014271399
 11
24.3034449212
 21
1.5014271399
  0
LINE
  5
4A4
100
AcDbEntity
  8
ASSI
100
AcDbLine
 62
7
  6
CONTINUOUS
 10
23.9486169212
 20
1.5014271399
 11
24.3034449212
 21
1.5014271399
  0
LINE
  5
4A5
100
AcDbEntity
  8
0
100
AcDbLine
 62
7
  6
CONTINUOUS
 10
24.4944599212
 20
1.5014271399
 11
24.8339149212
 21
1.5014271399
  0
LINE
  5
4A6
100
AcDbEntity
  8
ASSI
100
AcDbLine
 62
7
  6
CONTINUOUS
 10
24.4944599212
 20
1.5014271399
 11
24.8339149212
 21
1.5014271399
  0
LINE
  5
4A7
100
AcDbEntity
  8
0
100
AcDbLine
 62
7
  6
CONTINUOUS
 10
25.3267429212
 20
1.5014271399
 11
25.3765069212
 21
1.5014271399
  0
LINE
  5
4A8
100
AcDbEntity
  8
ASSI
100
AcDbLine
 62
7
  6
CONTINUOUS
 10
25.3267429212
 20
1.5014271399
 11
25.3765069212
 21
1.5014271399
  0
LINE
  5
4A9
100
AcDbEntity
  8
0
100
AcDbLine
 62
7
  6
CONTINUOUS
 10
25.8712989212
 20
1.5014271399
 11
26.2184149212
 21
1.5014271399
  0
LINE
  5
4AA
100
AcDbEntity
  8
ASSI
100
AcDbLine
 62
7
  6
CONTINUOUS
 10
25.8712989212
 20
1.5014271399
 11
26.2184149212
 21
1.5014271399
  0
LINE
  5
4AB
100
AcDbEntity
  8
0
100
AcDbLine
 62
7
  6
CONTINUOUS
 10
26.2741319212
 20
1.5014271399
 11
26.6251099212
 21
1.5014271399
  0
LINE
  5
4AC
100
AcDbEntity
  8
ASSI
100
AcDbLine
 62
7
  6
CONTINUOUS
 10
26.2741319212
 20
1.5014271399
 11
26.6251099212
 21
1.5014271399
  0
LINE
  5
4AD
100
AcDbEntity
  8
0
100
AcDbLine
 62
7
  6
CONTINUOUS
 10
27.2981569212
 20
1.5014271399
 11
27.6721309212
 21
1.5014271399
  0
LINE
  5
4AE
100
AcDbEntity
  8
ASSI
100
AcDbLine
 62
7
  6
CONTINUOUS
 10
27.2981569212
 20
1.5014271399
 11
27.6721309212
 21
1.5014271399
  0
LINE
  5
4AF
100
AcDbEntity
  8
0
100
AcDbLine
 62
7
  6
CONTINUOUS
 10
27.7763255851
 20
1.5014274532
 11
28.1297259172
 21
1.5014274532
  0
LINE
  5
4B0
100
AcDbEntity
  8
ASSI
100
AcDbLine
 62
7
  6
CONTINUOUS
 10
27.7763255851
 20
1.5014274532
 11
28.1297259172
 21
1.5014274532
  0
LINE
  5
4B1
100
AcDbEntity
  8
0
100
AcDbLine
 62
7
  6
CONTINUOUS
 10
28.6730961363
 20
1.5014274532
 11
29.0143994797
 21
1.5014274532
  0
LINE
  5
4B2
100
AcDbEntity
  8
ASSI
100
AcDbLine
 62
7
  6
CONTINUOUS
 10
28.6730961363
 20
1.5014274532
 11
29.0143994797
 21
1.5014274532
  0
LINE
  5
4B3
100
AcDbEntity
  8
CURVE
100
AcDbLine
 62
253
  6
CONTINUOUS
 10
34.1815473394
 20
1.6837281399
 11
33.6458333091
 21
1.6837281399
  0
LINE
  5
4B4
100
AcDbEntity
  8
CURVE
100
AcDbLine
 62
253
  6
CONTINUOUS
 10
30.4315474958
 20
1.6837281399
 11
30.5386903689
 21
1.6837281399
  0
LINE
  5
4B5
100
AcDbEntity
  8
CURVE
100
AcDbLine
 62
253
  6
CONTINUOUS
 10
31.6101189212
 20
1.6837281399
 11
31.7172617273
 21
1.6837281399
  0
LINE
  5
4B6
100
AcDbEntity
  8
CURVE
100
AcDbLine
 62
253
  6
CONTINUOUS
 10
36.1458330707
 20
1.7551567127
 11
36.2172620849
 21
1.7551567127
  0
LINE
  5
4B7
100
AcDbEntity
  8
0
100
AcDbLine
 62
7
  6
CONTINUOUS
 10
26.7230209212
 20
1.8407801399
 11
27.2062379212
 21
1.8407801399
  0
LINE
  5
4B8
100
AcDbEntity
  8
ASSI
100
AcDbLine
 62
7
  6
CONTINUOUS
 10
26.7230209212
 20
1.8407801399
 11
27.2062379212
 21
1.8407801399
  0
LINE
  5
4B9
100
AcDbEntity
  8
CURVE
100
AcDbLine
 62
253
  6
CONTINUOUS
 10
36.2172620849
 20
1.9337281474
 11
36.1458330707
 21
1.9337281474
  0
LINE
  5
4BA
100
AcDbEntity
  8
RACCORDO
100
AcDbLine
 62
253
  6
CONTINUOUS
 10
40.07521145
 20
2.0297217194
 11
53.0664812589
 21
2.0297217194
  0
LINE
  5
4BB
100
AcDbEntity
  8
ASSI
100
AcDbLine
 62
253
  6
CONTINUOUS
 10
40.07521145
 20
2.0297217194
 11
53.0664812589
 21
2.0297217194
  0
LINE
  5
4BC
100
AcDbEntity
  8
RACCORDO
100
AcDbLine
 62
253
  6
CONTINUOUS
 10
53.0873246599
 20
2.0941369618
 11
53.2581153632
 21
2.0941369618
  0
LINE
  5
4BD
100
AcDbEntity
  8
ASSI
100
AcDbLine
 62
253
  6
CONTINUOUS
 10
53.0873246599
 20
2.0941369618
 11
53.2581153632
 21
2.0941369618
  0
LINE
  5
4BE
100
AcDbEntity
  8
0
100
AcDbLine
 62
7
  6
CONTINUOUS
 10
27.1353249212
 20
2.1033701399
 11
26.7956029212
 21
2.1033701399
  0
LINE
  5
4BF
100
AcDbEntity
  8
ASSI
100
AcDbLine
 62
7
  6
CONTINUOUS
 10
27.1353249212
 20
2.1033701399
 11
26.7956029212
 21
2.1033701399
  0
LINE
  5
4C0
100
AcDbEntity
  8
0
100
AcDbLine
 62
7
  6
CONTINUOUS
 10
28.1297259172
 20
2.1666598558
 11
28.3199762402
 21
2.1666598558
  0
LINE
  5
4C1
100
AcDbEntity
  8
ASSI
100
AcDbLine
 62
7
  6
CONTINUOUS
 10
28.1297259172
 20
2.1666598558
 11
28.3199762402
 21
2.1666598558
  0
LINE
  5
4C2
100
AcDbEntity
  8
RACCORDO
100
AcDbLine
 62
253
  6
CONTINUOUS
 10
53.7929616337
 20
2.2912094831
 11
53.9699418063
 21
2.2912094831
  0
LINE
  5
4C3
100
AcDbEntity
  8
CURVE
100
AcDbLine
 62
253
  6
CONTINUOUS
 10
33.1458330707
 20
2.3265852892
 11
32.6815475182
 21
2.3265852892
  0
LINE
  5
4C4
100
AcDbEntity
  8
CURVE
100
AcDbLine
 62
253
  6
CONTINUOUS
 10
36.7529757575
 20
2.3265852892
 11
37.2886901454
 21
2.3265852892
  0
LINE
  5
4C5
100
AcDbEntity
  8
RACCORDO
100
AcDbLine
 62
253
  6
CONTINUOUS
 10
53.6833266269
 20
2.4008444899
 11
54.0247593426
 21
2.4008444899
  0
LINE
  5
4C6
100
AcDbEntity
  8
0
100
AcDbLine
 62
7
  6
CONTINUOUS
 10
28.3207410656
 20
2.4450563084
 11
28.1179603528
 21
2.4450563084
  0
LINE
  5
4C7
100
AcDbEntity
  8
ASSI
100
AcDbLine
 62
7
  6
CONTINUOUS
 10
28.3207410656
 20
2.4450563084
 11
28.1179603528
 21
2.4450563084
  0
LINE
  5
4C8
100
AcDbEntity
  8
DRAFT
100
AcDbLine
 62
7
  6
CONTINUOUS
 10
20.6252751489
 20
2.4878603066
 11
20.5883017517
 21
2.4878603066
  0
LINE
  5
4C9
100
AcDbEntity
  8
ASSI
100
AcDbLine
 62
7
  6
CONTINUOUS
 10
20.6252751489
 20
2.4878603066
 11
20.5883017517
 21
2.4878603066
  0
LINE
  5
4CA
100
AcDbEntity
  8
DRAFT
100
AcDbLine
 62
7
  6
CONTINUOUS
 10
19.5837565835
 20
2.4878603066
 11
19.4142510879
 21
2.4878603066
  0
LINE
  5
4CB
100
AcDbEntity
  8
ASSI
100
AcDbLine
 62
7
  6
CONTINUOUS
 10
19.5837565835
 20
2.4878603066
 11
19.4142510879
 21
2.4878603066
  0
LINE
  5
4CC
100
AcDbEntity
  8
0
100
AcDbLine
 62
7
  6
CONTINUOUS
 10
17.6197280078
 20
2.5337281399
 11
9.6353876848
 21
2.5337281399
  0
LINE
  5
4CD
100
AcDbEntity
  8
CURVE
100
AcDbLine
 62
253
  6
CONTINUOUS
 10
33.8601189212
 20
2.5408710354
 11
34.0744045333
 21
2.5408710354
  0
LINE
  5
4CE
100
AcDbEntity
  8
RACCORDO
100
AcDbLine
 62
253
  6
CONTINUOUS
 10
19.4225879371
 20
2.6670296992
 11
19.5837565835
 21
2.6670297003
  0
LINE
  5
4CF
100
AcDbEntity
  8
ASSI
100
AcDbLine
 62
253
  6
CONTINUOUS
 10
19.4225879371
 20
2.6670296992
 11
19.5837565835
 21
2.6670297003
  0
LINE
  5
4D0
100
AcDbEntity
  8
RACCORDO
100
AcDbLine
 62
253
  6
CONTINUOUS
 10
40.0772253426
 20
2.6686927858
 11
53.0705093508
 21
2.6686927858
  0
LINE
  5
4D1
100
AcDbEntity
  8
ASSI
100
AcDbLine
 62
253
  6
CONTINUOUS
 10
40.0772253426
 20
2.6686927858
 11
53.0705093508
 21
2.6686927858
  0
LINE
  5
4D2
100
AcDbEntity
  8
RACCORDO
100
AcDbLine
 62
253
  6
CONTINUOUS
 10
20.5883017517
 20
2.6665832233
 11
20.6316220654
 21
2.6665634105
  0
LINE
  5
4D3
100
AcDbEntity
  8
ASSI
100
AcDbLine
 62
253
  6
CONTINUOUS
 10
20.5883017517
 20
2.6665832233
 11
20.6316220654
 21
2.6665634105
  0
LWPOLYLINE
  5
4D4
100
AcDbEntity
  8
0
100
AcDbPolyline
 62
7
  6
CONTINUOUS
 90
10
 70
0
 10
28.3199762402
 20
2.1666598558
 10
28.3485207201
 20
2.1643363798
 10
28.3756914381
 20
2.1580987607
 10
28.4014883942
 20
2.1479469985
 10
28.426262795
 20
2.1334350887
 10
28.4496634339
 20
2.1150090358
 10
28.4706366911
 20
2.0940068536
 10
28.4888313601
 20
2.0708745466
 10
28.5045986473
 20
2.0451661103
 10
28.5179385529
 20
2.0168815446
  0
LWPOLYLINE
  5
4D5
100
AcDbEntity
  8
ASSI
100
AcDbPolyline
 62
7
  6
CONTINUOUS
 90
10
 70
0
 10
28.3199762402
 20
2.1666598558
 10
28.3485207201
 20
2.1643363798
 10
28.3756914381
 20
2.1580987607
 10
28.4014883942
 20
2.1479469985
 10
28.426262795
 20
2.1334350887
 10
28.4496634339
 20
2.1150090358
 10
28.4706366911
 20
2.0940068536
 10
28.4888313601
 20
2.0708745466
 10
28.5045986473
 20
2.0451661103
 10
28.5179385529
 20
2.0168815446
  0
LWPOLYLINE
  5
4D6
100
AcDbEntity
  8
0
100
AcDbPolyline
 62
7
  6
CONTINUOUS
 90
13
 70
0
 10
28.3959361515
 20
2.9217082568
 10
28.425249107
 20
2.9161262043
 10
28.452413468
 20
2.9081225619
 10
28.4774292346
 20
2.8976973296
 10
28.5003617421
 20
2.8847770479
 10
28.5211456551
 20
2.8694351762
 10
28.5395849678
 20
2.8518920935
 10
28.5557706719
 20
2.8319114316
 10
28.5696117757
 20
2.8097295586
 10
28.5806392984
 20
2.7862759568
 10
28.5886969132
 20
2.7618604537
 10
28.593940947
 20
2.7361732218
 10
28.5963713997
 20
2.7092142612
  0
LWPOLYLINE
  5
4D7
100
AcDbEntity
  8
ASSI
100
AcDbPolyline
 62
7
  6
CONTINUOUS
 90
13
 70
0
 10
28.3959361515
 20
2.9217082568
 10
28.425249107
 20
2.9161262043
 10
28.452413468
 20
2.9081225619
 10
28.4774292346
 20
2.8976973296
 10
28.5003617421
 20
2.8847770479
 10
28.5211456551
 20
2.8694351762
 10
28.5395849678
 20
2.8518920935
 10
28.5557706719
 20
2.8319114316
 10
28.5696117757
 20
2.8097295586
 10
28.5806392984
 20
2.7862759568
 10
28.5886969132
 20
2.7618604537
 10
28.593940947
 20
2.7361732218
 10
28.5963713997
 20
2.7092142612
  0
LWPOLYLINE
  5
4D8
100
AcDbEntity
  8
0
100
AcDbPolyline
 62
7
  6
CONTINUOUS
 90
13
 70
0
 10
28.6519869547
 20
3.1635333073
 10
28.5928850245
 20
3.1818730515
 10
28.5310708768
 20
3.1969353906
 10
28.4665445117
 20
3.2087203246
 10
28.3992108928
 20
3.2171416636
 10
28.3291650565
 20
3.2222855975
 10
28.2566921118
 20
3.2244106955
 10
28.1817067174
 20
3.2233384305
 10
28.1042942146
 20
3.2192473296
 10
28.0249957367
 20
3.2129315433
 10
27.9439916613
 20
3.2046557883
 10
27.8611016108
 20
3.1941553479
 10
27.7763255851
 20
3.1814302221
  0
LWPOLYLINE
  5
4D9
100
AcDbEntity
  8
ASSI
100
AcDbPolyline
 62
7
  6
CONTINUOUS
 90
13
 70
0
 10
28.6519869547
 20
3.1635333073
 10
28.5928850245
 20
3.1818730515
 10
28.5310708768
 20
3.1969353906
 10
28.4665445117
 20
3.2087203246
 10
28.3992108928
 20
3.2171416636
 10
28.3291650565
 20
3.2222855975
 10
28.2566921118
 20
3.2244106955
 10
28.1817067174
 20
3.2233384305
 10
28.1042942146
 20
3.2192473296
 10
28.0249957367
 20
3.2129315433
 10
27.9439916613
 20
3.2046557883
 10
27.8611016108
 20
3.1941553479
 10
27.7763255851
 20
3.1814302221
  0
LINE
  5
4DA
100
AcDbEntity
  8
SCRITTE
100
AcDbLine
 62
253
  6
CONTINUOUS
 10
38.3976189212
 20
-0.6912718601
 11
38.2663689212
 21
-0.6475218601
  0
LINE
  5
4DB
100
AcDbEntity
  8
SCRITTE
100
AcDbLine
 62
253
  6
CONTINUOUS
 10
37.8288689212
 20
-1.0412718601
 11
37.9163689212
 21
-1.0850218601
  0
LINE
  5
4DC
100
AcDbEntity
  8
SCRITTE
100
AcDbLine
 62
253
  6
CONTINUOUS
 10
38.4851189212
 20
-0.7350218601
 11
38.3976189212
 21
-0.6912718601
  0
LINE
  5
4DD
100
AcDbEntity
  8
CURVE
100
AcDbLine
 62
253
  6
CONTINUOUS
 10
31.3958332197
 20
1.8980138638
 11
31.6101189212
 21
1.6837281399
  0
LINE
  5
4DE
100
AcDbEntity
  8
CURVE
100
AcDbLine
 62
253
  6
CONTINUOUS
 10
30.7529760704
 20
2.9694424384
 11
30.5386903689
 21
3.1837281399
  0
LINE
  5
4DF
100
AcDbEntity
  8
SCRITTE
100
AcDbLine
 62
253
  6
CONTINUOUS
 10
34.1767849521
 20
-0.0162718511
 11
34.3767855243
 21
-0.2162718601
  0
LINE
  5
4E0
100
AcDbEntity
  8
SCRITTE
100
AcDbLine
 62
253
  6
CONTINUOUS
 10
33.6101191119
 20
0.9837281519
 11
33.4101185397
 21
1.1837281399
  0
LINE
  5
4E1
100
AcDbEntity
  8
CURVE
100
AcDbLine
 62
253
  6
CONTINUOUS
 10
31.9315475182
 20
2.9694424384
 11
31.7172617273
 21
3.1837281399
  0
LINE
  5
4E2
100
AcDbEntity
  8
CURVE
100
AcDbLine
 62
253
  6
CONTINUOUS
 10
32.6815475182
 20
2.3265852892
 11
32.4672617273
 21
2.5408710354
  0
LINE
  5
4E3
100
AcDbEntity
  8
CURVE
100
AcDbLine
 62
253
  6
CONTINUOUS
 10
32.0386903242
 20
2.7551567369
 11
31.9315475182
 21
2.9694424384
  0
LINE
  5
4E4
100
AcDbEntity
  8
SCRITTE
100
AcDbLine
 62
253
  6
CONTINUOUS
 10
33.8101189927
 20
-1.9162718601
 11
33.8101189927
 21
-0.5162718601
  0
LINE
  5
4E5
100
AcDbEntity
  8
SCRITTE
100
AcDbLine
 62
253
  6
CONTINUOUS
 10
33.843452032
 20
4.5145290308
 11
33.843452032
 21
4.5267466457
  0
LINE
  5
4E6
100
AcDbEntity
  8
SCRITTE
100
AcDbLine
 62
253
  6
CONTINUOUS
 10
34.1767849521
 20
0.9837281519
 11
34.1767849521
 21
-0.0162718511
  0
LINE
  5
4E7
100
AcDbEntity
  8
CURVE
100
AcDbLine
 62
253
  6
CONTINUOUS
 10
34.2529759959
 20
2.9694424384
 11
34.2529759959
 21
2.6480138415
  0
LINE
  5
4E8
100
AcDbEntity
  8
CURVE
100
AcDbLine
 62
253
  6
CONTINUOUS
 10
34.288690503
 20
2.3265852892
 11
34.288690503
 21
1.7908710019
  0
LINE
  5
4E9
100
AcDbEntity
  8
SCRITTE
100
AcDbLine
 62
253
  6
CONTINUOUS
 10
34.5101194934
 20
4.5267466457
 11
34.5101194934
 21
4.5145290308
  0
LINE
  5
4EA
100
AcDbEntity
  8
CURVE
100
AcDbLine
 62
253
  6
CONTINUOUS
 10
34.7172617273
 20
3.1837281399
 11
34.7172617273
 21
2.862299543
  0
LINE
  5
4EB
100
AcDbEntity
  8
SCRITTE
100
AcDbLine
 62
253
  6
CONTINUOUS
 10
35.1434517459
 20
4.5267466457
 11
35.1434517459
 21
4.5145290308
  0
LINE
  5
4EC
100
AcDbEntity
  8
CURVE
100
AcDbLine
 62
253
  6
CONTINUOUS
 10
35.038690503
 20
1.6837281399
 11
35.4672617273
 21
3.1837281399
  0
LINE
  5
4ED
100
AcDbEntity
  8
SCRITTE
100
AcDbLine
 62
253
  6
CONTINUOUS
 10
32.9101189212
 20
-1.8829385261
 11
32.9434522943
 21
-1.7829385242
  0
LINE
  5
4EE
100
AcDbEntity
  8
SCRITTE
100
AcDbLine
 62
253
  6
CONTINUOUS
 10
32.8434522585
 20
-1.7162718511
 11
32.8101188854
 21
-1.7829385242
  0
LINE
  5
4EF
100
AcDbEntity
  8
SCRITTE
100
AcDbLine
 62
253
  6
CONTINUOUS
 10
32.8434522585
 20
-2.0162718645
 11
32.9101189212
 21
-1.8829385261
  0
LINE
  5
4F0
100
AcDbEntity
  8
SCRITTE
100
AcDbLine
 62
253
  6
CONTINUOUS
 10
33.4101185397
 20
-0.2162718601
 11
33.6101191119
 21
-0.0162718511
  0
LINE
  5
4F1
100
AcDbEntity
  8
SCRITTE
100
AcDbLine
 62
253
  6
CONTINUOUS
 10
31.9101189391
 20
-1.9162718601
 11
32.1101189272
 21
-1.7162718511
  0
LINE
  5
4F2
100
AcDbEntity
  8
SCRITTE
100
AcDbLine
 62
253
  6
CONTINUOUS
 10
33.8101189927
 20
-0.5162718601
 11
33.4101188497
 21
-0.9162718362
  0
LINE
  5
4F3
100
AcDbEntity
  8
SCRITTE
100
AcDbLine
 62
253
  6
CONTINUOUS
 10
32.8767855481
 20
-1.6829385198
 11
32.8434522585
 21
-1.7162718511
  0
LINE
  5
4F4
100
AcDbEntity
  8
DRAFT
100
AcDbLine
 62
7
  6
CONTINUOUS
 10
39.3101189212
 20
4.5861092942
 11
39.257737767
 21
4.5337281399
  0
LINE
  5
4F5
100
AcDbEntity
  8
SCRITTE
100
AcDbLine
 62
253
  6
CONTINUOUS
 10
32.8767855481
 20
-1.8496051921
 11
32.9434522943
 21
-1.7829385242
  0
LINE
  5
4F6
100
AcDbEntity
  8
CURVE
100
AcDbLine
 62
253
  6
CONTINUOUS
 10
37.2886901454
 20
2.3265852892
 11
37.5029757575
 21
2.5408710354
  0
LINE
  5
4F7
100
AcDbEntity
  8
RACCORDO
100
AcDbLine
 62
253
  6
CONTINUOUS
 10
39.4970514657
 20
4.5206378383
 11
39.4686510677
 21
4.4922374403
  0
LINE
  5
4F8
100
AcDbEntity
  8
ASSI
100
AcDbLine
 62
253
  6
CONTINUOUS
 10
39.4970514657
 20
4.5206378383
 11
39.4686510677
 21
4.4922374403
  0
LWPOLYLINE
  5
4F9
100
AcDbEntity
  8
0
100
AcDbPolyline
 62
7
  6
CONTINUOUS
 90
10
 70
0
 10
28.1179603528
 20
2.9117017909
 10
28.1491047425
 20
2.9168935188
 10
28.1801841219
 20
2.921072295
 10
28.211198491
 20
2.9242381196
 10
28.2421472328
 20
2.9264003564
 10
28.2730309643
 20
2.9275496415
 10
28.3038515367
 20
2.9276578833
 10
28.3346095673
 20
2.9267157179
 10
28.3653044389
 20
2.924732509
 10
28.3959361515
 20
2.9217082568
  0
LWPOLYLINE
  5
4FA
100
AcDbEntity
  8
ASSI
100
AcDbPolyline
 62
7
  6
CONTINUOUS
 90
10
 70
0
 10
28.1179603528
 20
2.9117017909
 10
28.1491047425
 20
2.9168935188
 10
28.1801841219
 20
2.921072295
 10
28.211198491
 20
2.9242381196
 10
28.2421472328
 20
2.9264003564
 10
28.2730309643
 20
2.9275496415
 10
28.3038515367
 20
2.9276578833
 10
28.3346095673
 20
2.9267157179
 10
28.3653044389
 20
2.924732509
 10
28.3959361515
 20
2.9217082568
  0
LINE
  5
4FB
100
AcDbEntity
  8
RACCORDO
100
AcDbLine
 62
253
  6
CONTINUOUS
 10
19.5001946905
 20
3.1448158163
 11
17.620077104
 21
3.1448158163
  0
LINE
  5
4FC
100
AcDbEntity
  8
ASSI
100
AcDbLine
 62
253
  6
CONTINUOUS
 10
19.5001946905
 20
3.1448158163
 11
17.620077104
 21
3.1448158163
  0
LINE
  5
4FD
100
AcDbEntity
  8
RACCORDO
100
AcDbLine
 62
7
  6
CONTINUOUS
 10
19.5814584309
 20
3.1746722414
 11
17.6191748198
 21
3.1746722414
  0
LINE
  5
4FE
100
AcDbEntity
  8
ASSI
100
AcDbLine
 62
7
  6
CONTINUOUS
 10
19.5814584309
 20
3.1746722414
 11
17.6191748198
 21
3.1746722414
  0
LINE
  5
4FF
100
AcDbEntity
  8
CURVE
100
AcDbLine
 62
253
  6
CONTINUOUS
 10
37.2886901454
 20
3.1837281399
 11
36.7529757575
 21
3.1837281399
  0
LINE
  5
500
100
AcDbEntity
  8
CURVE
100
AcDbLine
 62
253
  6
CONTINUOUS
 10
35.4672617273
 20
3.1837281399
 11
34.7172617273
 21
3.1837281399
  0
LINE
  5
501
100
AcDbEntity
  8
CURVE
100
AcDbLine
 62
253
  6
CONTINUOUS
 10
31.7172617273
 20
3.1837281399
 11
31.6101189212
 21
3.1837281399
  0
LINE
  5
502
100
AcDbEntity
  8
CURVE
100
AcDbLine
 62
253
  6
CONTINUOUS
 10
30.5386903689
 20
3.1837281399
 11
30.4315474958
 21
3.1837281399
  0
LINE
  5
503
100
AcDbEntity
  8
DRAFT
100
AcDbLine
 62
7
  6
CONTINUOUS
 10
20.6101189212
 20
3.1837281399
 11
20.5895610139
 21
3.1837281399
  0
LINE
  5
504
100
AcDbEntity
  8
ASSI
100
AcDbLine
 62
7
  6
CONTINUOUS
 10
20.6101189212
 20
3.1837281399
 11
20.5895610139
 21
3.1837281399
  0
LINE
  5
505
100
AcDbEntity
  8
DRAFT
100
AcDbLine
 62
7
  6
CONTINUOUS
 10
19.581237862
 20
3.1837281399
 11
17.6101189212
 21
3.1837281399
  0
LINE
  5
506
100
AcDbEntity
  8
ASSI
100
AcDbLine
 62
7
  6
CONTINUOUS
 10
19.581237862
 20
3.1837281399
 11
17.6101189212
 21
3.1837281399
  0
LINE
  5
507
100
AcDbEntity
  8
CURVE
100
AcDbLine
 62
253
  6
CONTINUOUS
 10
32.6815475182
 20
3.1837281399
 11
33.0029761151
 21
3.1837281399
  0
LINE
  5
508
100
AcDbEntity
  8
CURVE
100
AcDbLine
 62
253
  6
CONTINUOUS
 10
33.6458333091
 20
3.1837281399
 11
34.0744045333
 21
3.1837281399
  0
LINE
  5
509
100
AcDbEntity
  8
0
100
AcDbLine
 62
7
  6
CONTINUOUS
 10
27.1505709212
 20
3.2012901399
 11
26.8073169212
 21
3.2012901399
  0
LINE
  5
50A
100
AcDbEntity
  8
ASSI
100
AcDbLine
 62
7
  6
CONTINUOUS
 10
27.1505709212
 20
3.2012901399
 11
26.8073169212
 21
3.2012901399
  0
LINE
  5
50B
100
AcDbEntity
  8
0
100
AcDbLine
 62
7
  6
CONTINUOUS
 10
26.0594579212
 20
3.2012901399
 11
25.7083909212
 21
3.2012901399
  0
LINE
  5
50C
100
AcDbEntity
  8
ASSI
100
AcDbLine
 62
7
  6
CONTINUOUS
 10
26.0594579212
 20
3.2012901399
 11
25.7083909212
 21
3.2012901399
  0
LINE
  5
50D
100
AcDbEntity
  8
0
100
AcDbLine
 62
7
  6
CONTINUOUS
 10
25.0024819212
 20
3.2012901399
 11
24.6479469212
 21
3.2012901399
  0
LINE
  5
50E
100
AcDbEntity
  8
ASSI
100
AcDbLine
 62
7
  6
CONTINUOUS
 10
25.0024819212
 20
3.2012901399
 11
24.6479469212
 21
3.2012901399
  0
LINE
  5
50F
100
AcDbEntity
  8
0
100
AcDbLine
 62
7
  6
CONTINUOUS
 10
23.8169389212
 20
3.2012901399
 11
23.4623529212
 21
3.2012901399
  0
LINE
  5
510
100
AcDbEntity
  8
ASSI
100
AcDbLine
 62
7
  6
CONTINUOUS
 10
23.8169389212
 20
3.2012901399
 11
23.4623529212
 21
3.2012901399
  0
LINE
  5
511
100
AcDbEntity
  8
0
100
AcDbLine
 62
7
  6
CONTINUOUS
 10
22.8044059212
 20
3.2012901399
 11
22.4189529212
 21
3.2012901399
  0
LINE
  5
512
100
AcDbEntity
  8
ASSI
100
AcDbLine
 62
7
  6
CONTINUOUS
 10
22.8044059212
 20
3.2012901399
 11
22.4189529212
 21
3.2012901399
  0
LINE
  5
513
100
AcDbEntity
  8
0
100
AcDbLine
 62
7
  6
CONTINUOUS
 10
24.3034449212
 20
3.2013921399
 11
23.9486169212
 21
3.2013921399
  0
LINE
  5
514
100
AcDbEntity
  8
ASSI
100
AcDbLine
 62
7
  6
CONTINUOUS
 10
24.3034449212
 20
3.2013921399
 11
23.9486169212
 21
3.2013921399
  0
LINE
  5
515
100
AcDbEntity
  8
DRAFT
100
AcDbLine
 62
7
  6
CONTINUOUS
 10
19.5101189212
 20
3.3647475882
 11
19.5401189212
 21
3.3647475882
  0
LINE
  5
516
100
AcDbEntity
  8
RACCORDO
100
AcDbLine
 62
253
  6
CONTINUOUS
 10
53.097609128
 20
3.6453468761
 11
40.0907741993
 21
3.6453468761
  0
LINE
  5
517
100
AcDbEntity
  8
ASSI
100
AcDbLine
 62
253
  6
CONTINUOUS
 10
53.097609128
 20
3.6453468761
 11
40.0907741993
 21
3.6453468761
  0
LINE
  5
518
100
AcDbEntity
  8
RACCORDO
100
AcDbLine
 62
253
  6
CONTINUOUS
 10
54.0992122119
 20
3.662157745
 11
53.2326728982
 21
3.662158798
  0
LINE
  5
519
100
AcDbEntity
  8
RACCORDO
100
AcDbLine
 62
253
  6
CONTINUOUS
 10
54.1006189258
 20
3.6742129141
 11
53.229154916
 21
3.6742130425
  0
LINE
  5
51A
100
AcDbEntity
  8
RACCORDO
100
AcDbLine
 62
253
  6
CONTINUOUS
 10
53.101545103
 20
3.6751543217
 11
40.0927420369
 21
3.6751543217
  0
LINE
  5
51B
100
AcDbEntity
  8
ASSI
100
AcDbLine
 62
253
  6
CONTINUOUS
 10
53.101545103
 20
3.6751543217
 11
40.0927420369
 21
3.6751543217
  0
LINE
  5
51C
100
AcDbEntity
  8
DRAFT
100
AcDbLine
 62
7
  6
CONTINUOUS
 10
53.1101189212
 20
3.6837281399
 11
40.0970286195
 21
3.6837281399
  0
LINE
  5
51D
100
AcDbEntity
  8
ASSI
100
AcDbLine
 62
7
  6
CONTINUOUS
 10
53.1101189212
 20
3.6837281399
 11
40.0970286195
 21
3.6837281399
  0
LINE
  5
51E
100
AcDbEntity
  8
RACCORDO
100
AcDbLine
 62
7
  6
CONTINUOUS
 10
40.1625000754
 20
3.6837281399
 11
54.1101341517
 21
3.6837281399
  0
LINE
  5
51F
100
AcDbEntity
  8
DRAFT
100
AcDbLine
 62
7
  6
CONTINUOUS
 10
39.3101189212
 20
3.7337281399
 11
21.4101189212
 21
3.7337281399
  0
LINE
  5
520
100
AcDbEntity
  8
DRAFT
100
AcDbLine
 62
7
  6
CONTINUOUS
 10
39.3136099342
 20
3.7372191529
 11
21.4066279082
 21
3.7372191529
  0
LINE
  5
521
100
AcDbEntity
  8
ASSI
100
AcDbLine
 62
7
  6
CONTINUOUS
 10
39.3136099342
 20
3.7372191529
 11
21.4066279082
 21
3.7372191529
  0
LINE
  5
522
100
AcDbEntity
  8
RACCORDO
100
AcDbLine
 62
253
  6
CONTINUOUS
 10
20.5647392087
 20
3.8233434444
 11
19.6205949996
 21
3.8233434444
  0
LINE
  5
523
100
AcDbEntity
  8
RACCORDO
100
AcDbLine
 62
253
  6
CONTINUOUS
 10
39.56864726
 20
3.8922602864
 11
40.0686282215
 21
3.8922602799
  0
LINE
  5
524
100
AcDbEntity
  8
ASSI
100
AcDbLine
 62
253
  6
CONTINUOUS
 10
39.56864726
 20
3.8922602864
 11
40.0686282215
 21
3.8922602799
  0
LINE
  5
525
100
AcDbEntity
  8
RACCORDO
100
AcDbLine
 62
253
  6
CONTINUOUS
 10
39.4686510677
 20
3.9922564787
 11
20.6546373702
 21
3.9922564787
  0
LINE
  5
526
100
AcDbEntity
  8
ASSI
100
AcDbLine
 62
253
  6
CONTINUOUS
 10
39.4686510677
 20
3.9922564787
 11
20.6546373702
 21
3.9922564787
  0
LINE
  5
527
100
AcDbEntity
  8
RACCORDO
100
AcDbLine
 62
7
  6
CONTINUOUS
 10
20.589367943
 20
3.1665756653
 11
20.6272887391
 21
3.166558322
  0
LINE
  5
528
100
AcDbEntity
  8
ASSI
100
AcDbLine
 62
7
  6
CONTINUOUS
 10
20.589367943
 20
3.1665756653
 11
20.6272887391
 21
3.166558322
  0
LWPOLYLINE
  5
529
100
AcDbEntity
  8
RACCORDO
100
AcDbPolyline
 62
7
  6
CONTINUOUS
 90
8
 70
0
 10
53.1312759733
 20
3.6836969013
 10
53.1625373293
 20
3.6835043553
 10
53.1764210744
 20
3.683337219
 10
53.1889094789
 20
3.6831267263
 10
53.1989643097
 20
3.6828903645
 10
53.206239489
 20
3.6826339625
 10
53.2110810946
 20
3.6823516912
 10
53.2134891264
 20
3.6820435507
  0
LWPOLYLINE
  5
52A
100
AcDbEntity
  8
RACCORDO
100
AcDbPolyline
 62
253
  6
CONTINUOUS
 90
10
 70
0
 10
54.0699265993
 20
2.5233117461
 10
54.0871360892
 20
2.5222888174
 10
54.1038319922
 20
2.5195366374
 10
54.1195160647
 20
2.5151373423
 10
54.1337202288
 20
2.5092222381
 10
54.1460206449
 20
2.5019678389
 10
54.1560503115
 20
2.4935905694
 10
54.1635098873
 20
2.4843403858
 10
54.1681766785
 20
2.4744933463
 10
54.1699113583
 20
2.4643433107
  0
LINE
  5
52B
100
AcDbEntity
  8
RACCORDO
100
AcDbLine
 62
7
  6
CONTINUOUS
 10
53.1101189212
 20
2.6337281399
 11
53.1749664665
 21
2.6292372801
  0
LINE
  5
52C
100
AcDbEntity
  8
ASSI
100
AcDbLine
 62
7
  6
CONTINUOUS
 10
53.1101189212
 20
2.6337281399
 11
53.1749664665
 21
2.6292372801
  0
LINE
  5
52D
100
AcDbEntity
  8
SCRITTE
100
AcDbLine
 62
253
  6
CONTINUOUS
 10
37.6538689212
 20
-1.7412718601
 11
37.7413689212
 21
-1.8287718601
  0
LINE
  5
52E
100
AcDbEntity
  8
CURVE
100
AcDbLine
 62
253
  6
CONTINUOUS
 10
33.0029761151
 20
3.1837281399
 11
33.2172617273
 21
2.9694424384
  0
LINE
  5
52F
100
AcDbEntity
  8
DRAFT
100
AcDbLine
 62
7
  6
CONTINUOUS
 10
39.3101189212
 20
-3.0186530143
 11
39.257737767
 21
-2.9662718601
  0
LINE
  5
530
100
AcDbEntity
  8
RACCORDO
100
AcDbLine
 62
253
  6
CONTINUOUS
 10
39.4970514657
 20
-2.9531815584
 11
39.4686510677
 21
-2.9247811604
  0
LINE
  5
531
100
AcDbEntity
  8
ASSI
100
AcDbLine
 62
253
  6
CONTINUOUS
 10
39.4970514657
 20
-2.9531815584
 11
39.4686510677
 21
-2.9247811604
  0
LINE
  5
532
100
AcDbEntity
  8
CURVE
100
AcDbLine
 62
253
  6
CONTINUOUS
 10
34.0744045333
 20
2.5408710354
 11
34.288690503
 21
2.3265852892
  0
LINE
  5
533
100
AcDbEntity
  8
SCRITTE
100
AcDbLine
 62
253
  6
CONTINUOUS
 10
37.7851189212
 20
-0.9975218601
 11
37.8288689212
 21
-1.0412718601
  0
LINE
  5
534
100
AcDbEntity
  8
DRAFT
100
AcDbLine
 62
7
  6
CONTINUOUS
 10
39.3136099342
 20
-2.169762873
 11
39.3101189212
 21
-2.1662718601
  0
LINE
  5
535
100
AcDbEntity
  8
ASSI
100
AcDbLine
 62
7
  6
CONTINUOUS
 10
39.3136099342
 20
-2.169762873
 11
39.3101189212
 21
-2.1662718601
  0
LINE
  5
536
100
AcDbEntity
  8
CURVE
100
AcDbLine
 62
253
  6
CONTINUOUS
 10
34.0744045333
 20
3.1837281399
 11
34.2529759959
 21
2.9694424384
  0
LINE
  5
537
100
AcDbEntity
  8
SCRITTE
100
AcDbLine
 62
253
  6
CONTINUOUS
 10
35.1101188735
 20
-1.9162718601
 11
34.8101190166
 21
-0.9162718362
  0
LINE
  5
538
100
AcDbEntity
  8
SCRITTE
100
AcDbLine
 62
253
  6
CONTINUOUS
 10
34.5101188258
 20
-1.9162718601
 11
34.2101189689
 21
-0.5162718601
  0
LINE
  5
539
100
AcDbEntity
  8
SCRITTE
100
AcDbLine
 62
253
  6
CONTINUOUS
 10
35.8434517459
 20
4.5267466457
 11
35.8434517459
 21
4.5145290308
  0
LINE
  5
53A
100
AcDbEntity
  8
CURVE
100
AcDbLine
 62
253
  6
CONTINUOUS
 10
36.1101189212
 20
1.862299569
 11
36.1101189212
 21
1.8265852855
  0
LINE
  5
53B
100
AcDbEntity
  8
CURVE
100
AcDbLine
 62
253
  6
CONTINUOUS
 10
36.2529762344
 20
1.8265852855
 11
36.2529762344
 21
1.862299569
  0
LINE
  5
53C
100
AcDbEntity
  8
SCRITTE
100
AcDbLine
 62
253
  6
CONTINUOUS
 10
35.4101190642
 20
-0.5162718601
 11
35.1101188735
 21
-1.9162718601
  0
LINE
  5
53D
100
AcDbEntity
  8
SCRITTE
100
AcDbLine
 62
253
  6
CONTINUOUS
 10
34.8101190166
 20
-0.9162718362
 11
34.5101188258
 21
-1.9162718601
  0
LINE
  5
53E
100
AcDbEntity
  8
CURVE
100
AcDbLine
 62
253
  6
CONTINUOUS
 10
36.1458330707
 20
1.9337281474
 11
36.1101189212
 21
1.862299569
  0
LINE
  5
53F
100
AcDbEntity
  8
CURVE
100
AcDbLine
 62
253
  6
CONTINUOUS
 10
36.2172620849
 20
1.7551567127
 11
36.2529762344
 21
1.8265852855
  0
LINE
  5
540
100
AcDbEntity
  8
DRAFT
100
AcDbLine
 62
7
  6
CONTINUOUS
 10
39.3136099342
 20
3.7372191529
 11
39.3101189212
 21
3.7337281399
  0
LINE
  5
541
100
AcDbEntity
  8
ASSI
100
AcDbLine
 62
7
  6
CONTINUOUS
 10
39.3136099342
 20
3.7372191529
 11
39.3101189212
 21
3.7337281399
  0
LINE
  5
542
100
AcDbEntity
  8
RACCORDO
100
AcDbLine
 62
253
  6
CONTINUOUS
 10
40.0970286195
 20
3.9206606844
 11
40.0686282215
 21
3.8922602864
  0
LINE
  5
543
100
AcDbEntity
  8
ASSI
100
AcDbLine
 62
253
  6
CONTINUOUS
 10
40.0970286195
 20
3.9206606844
 11
40.0686282215
 21
3.8922602864
  0
LINE
  5
544
100
AcDbEntity
  8
SCRITTE
100
AcDbLine
 62
253
  6
CONTINUOUS
 10
37.9163689212
 20
-1.1725218601
 11
37.7413689212
 21
-1.2600218601
  0
LINE
  5
545
100
AcDbEntity
  8
SCRITTE
100
AcDbLine
 62
253
  6
CONTINUOUS
 10
38.0038689212
 20
-0.6037718601
 11
37.8726189212
 21
-0.6475218601
  0
LWPOLYLINE
  5
546
100
AcDbEntity
  8
RACCORDO
100
AcDbPolyline
 62
7
  6
CONTINUOUS
 90
6
 70
0
 10
19.5834168882
 20
3.1736289559
 10
19.5654469995
 20
3.1708825301
 10
19.5481398353
 20
3.1665229712
 10
19.5314953958
 20
3.1606510998
 10
19.5155136808
 20
3.1533765468
 10
19.5001946905
 20
3.1448158163
  0
LWPOLYLINE
  5
547
100
AcDbEntity
  8
ASSI
100
AcDbPolyline
 62
7
  6
CONTINUOUS
 90
6
 70
0
 10
19.5834168882
 20
3.1736289559
 10
19.5654469995
 20
3.1708825301
 10
19.5481398353
 20
3.1665229712
 10
19.5314953958
 20
3.1606510998
 10
19.5155136808
 20
3.1533765468
 10
19.5001946905
 20
3.1448158163
  0
LWPOLYLINE
  5
548
100
AcDbEntity
  8
RACCORDO
100
AcDbPolyline
 62
253
  6
CONTINUOUS
 90
10
 70
0
 10
20.8016039093
 20
4.4922374403
 10
20.7755562884
 20
4.4899564621
 10
20.7503007738
 20
4.4831870187
 10
20.7266047055
 20
4.472135116
 10
20.7051878963
 20
4.4571368067
 10
20.6867009527
 20
4.4386480796
 10
20.671705433
 20
4.417231077
 10
20.6606565775
 20
4.3935367689
 10
20.6538895936
 20
4.3682850725
 10
20.6516096209
 20
4.3422431518
  0
LWPOLYLINE
  5
549
100
AcDbEntity
  8
ASSI
100
AcDbPolyline
 62
253
  6
CONTINUOUS
 90
10
 70
0
 10
20.8016039093
 20
4.4922374403
 10
20.7755562884
 20
4.4899564621
 10
20.7503007738
 20
4.4831870187
 10
20.7266047055
 20
4.472135116
 10
20.7051878963
 20
4.4571368067
 10
20.6867009527
 20
4.4386480796
 10
20.671705433
 20
4.417231077
 10
20.6606565775
 20
4.3935367689
 10
20.6538895936
 20
4.3682850725
 10
20.6516096209
 20
4.3422431518
  0
LINE
  5
54A
100
AcDbEntity
  8
SCRITTE
100
AcDbLine
 62
253
  6
CONTINUOUS
 10
36.6434526996
 20
4.5267466457
 11
36.2434528903
 21
4.5145290308
  0
LINE
  5
54B
100
AcDbEntity
  8
SCRITTE
100
AcDbLine
 62
253
  6
CONTINUOUS
 10
24.7101189927
 20
4.5267466457
 11
24.3101189331
 21
4.5145290308
  0
LINE
  5
54C
100
AcDbEntity
  8
SCRITTE
100
AcDbLine
 62
253
  6
CONTINUOUS
 10
23.910118957
 20
4.5267466457
 11
23.5101189391
 21
4.5197651515
  0
LINE
  5
54D
100
AcDbEntity
  8
SCRITTE
100
AcDbLine
 62
253
  6
CONTINUOUS
 10
32.176785715
 20
4.5267466457
 11
31.9767858104
 21
4.5250012723
  0
LINE
  5
54E
100
AcDbEntity
  8
SCRITTE
100
AcDbLine
 62
253
  6
CONTINUOUS
 10
26.0101188735
 20
4.5145290308
 11
26.2101187781
 21
4.5162744044
  0
LINE
  5
54F
100
AcDbEntity
  8
RACCORDO
100
AcDbLine
 62
253
  6
CONTINUOUS
 10
20.5698839465
 20
4.4232520615
 11
20.2205036167
 21
4.4232520615
  0
LINE
  5
550
100
AcDbEntity
  8
RACCORDO
100
AcDbLine
 62
7
  6
CONTINUOUS
 10
39.4686510677
 20
4.4922374403
 11
20.8016039093
 21
4.4922374403
  0
LINE
  5
551
100
AcDbEntity
  8
ASSI
100
AcDbLine
 62
7
  6
CONTINUOUS
 10
39.4686510677
 20
4.4922374403
 11
20.8016039093
 21
4.4922374403
  0
LINE
  5
552
100
AcDbEntity
  8
RACCORDO
100
AcDbLine
 62
7
  6
CONTINUOUS
 10
20.1400275383
 20
4.5037281399
 11
20.6101189212
 21
4.5037281399
  0
LINE
  5
553
100
AcDbEntity
  8
SCRITTE
100
AcDbLine
 62
253
  6
CONTINUOUS
 10
25.510118945
 20
4.5145290308
 11
26.0101188735
 21
4.5145290308
  0
LINE
  5
554
100
AcDbEntity
  8
SCRITTE
100
AcDbLine
 62
253
  6
CONTINUOUS
 10
26.7767856197
 20
4.5145290308
 11
27.3767856673
 21
4.5145290308
  0
LINE
  5
555
100
AcDbEntity
  8
SCRITTE
100
AcDbLine
 62
253
  6
CONTINUOUS
 10
32.176785715
 20
4.5145290308
 11
32.5767855243
 21
4.5145290308
  0
LINE
  5
556
100
AcDbEntity
  8
SCRITTE
100
AcDbLine
 62
253
  6
CONTINUOUS
 10
36.910118349
 20
4.5180197781
 11
36.376785715
 21
4.5180197781
  0
LINE
  5
557
100
AcDbEntity
  8
SCRITTE
100
AcDbLine
 62
253
  6
CONTINUOUS
 10
24.9767856435
 20
4.5180197781
 11
24.4434522585
 21
4.5180197781
  0
LINE
  5
558
100
AcDbEntity
  8
RACCORDO
100
AcDbLine
 62
7
  6
CONTINUOUS
 10
39.3101189212
 20
4.5206378383
 11
39.4970514657
 21
4.5206378383
  0
LINE
  5
559
100
AcDbEntity
  8
ASSI
100
AcDbLine
 62
7
  6
CONTINUOUS
 10
39.3101189212
 20
4.5206378383
 11
39.4970514657
 21
4.5206378383
  0
LINE
  5
55A
100
AcDbEntity
  8
SCRITTE
100
AcDbLine
 62
253
  6
CONTINUOUS
 10
33.843452032
 20
4.5215105253
 11
33.143452032
 21
4.5215105253
  0
LINE
  5
55B
100
AcDbEntity
  8
SCRITTE
100
AcDbLine
 62
253
  6
CONTINUOUS
 10
26.7767856197
 20
4.5215105253
 11
27.1767854289
 21
4.5215105253
  0
LINE
  5
55C
100
AcDbEntity
  8
SCRITTE
100
AcDbLine
 62
253
  6
CONTINUOUS
 10
32.5767855243
 20
4.5267466457
 11
32.176785715
 21
4.5267466457
  0
LINE
  5
55D
100
AcDbEntity
  8
SCRITTE
100
AcDbLine
 62
253
  6
CONTINUOUS
 10
27.3767856673
 20
4.5267466457
 11
26.7767856197
 21
4.5267466457
  0
LINE
  5
55E
100
AcDbEntity
  8
SCRITTE
100
AcDbLine
 62
253
  6
CONTINUOUS
 10
26.0101188735
 20
4.5267466457
 11
25.510118945
 21
4.5267466457
  0
LINE
  5
55F
100
AcDbEntity
  8
DRAFT
100
AcDbLine
 62
7
  6
CONTINUOUS
 10
39.257737767
 20
4.5337281399
 11
31.8625000754
 21
4.5337281399
  0
LINE
  5
560
100
AcDbEntity
  8
RACCORDO
100
AcDbLine
 62
7
  6
CONTINUOUS
 10
20.1097534174
 20
4.5337281399
 11
28.5101189212
 21
4.5337281399
  0
LINE
  5
561
100
AcDbEntity
  8
DRAFT
100
AcDbLine
 62
7
  6
CONTINUOUS
 10
28.5101189212
 20
4.5337281399
 11
31.7101189212
 21
4.5337281399
  0
LINE
  5
562
100
AcDbEntity
  8
RACCORDO
100
AcDbLine
 62
7
  6
CONTINUOUS
 10
39.5628655792
 20
4.5861092942
 11
39.3101189212
 21
4.5861092942
  0
LINE
  5
563
100
AcDbEntity
  8
RACCORDO
100
AcDbLine
 62
7
  6
CONTINUOUS
 10
39.0461470432
 20
4.5334145039
 11
31.7101189212
 21
4.5337281399
  0
LINE
  5
564
100
AcDbEntity
  8
ASSI
100
AcDbLine
 62
7
  6
CONTINUOUS
 10
39.0461470432
 20
4.5334145039
 11
20.7601132097
 21
4.5337281399
  0
LINE
  5
565
100
AcDbEntity
  8
SCRITTE
100
AcDbLine
 62
253
  6
CONTINUOUS
 10
26.2101187781
 20
4.5250012723
 11
26.0101188735
 21
4.5267466457
  0
LINE
  5
566
100
AcDbEntity
  8
SCRITTE
100
AcDbLine
 62
253
  6
CONTINUOUS
 10
31.9767858104
 20
4.5162744044
 11
32.176785715
 21
4.5145290308
  0
LINE
  5
567
100
AcDbEntity
  8
RACCORDO
100
AcDbLine
 62
7
  6
CONTINUOUS
 10
39.1321866867
 20
4.5328081771
 11
39.0461470432
 21
4.5334145039
  0
LINE
  5
568
100
AcDbEntity
  8
ASSI
100
AcDbLine
 62
7
  6
CONTINUOUS
 10
39.1321866867
 20
4.5328081771
 11
39.0461470432
 21
4.5334145039
  0
LINE
  5
569
100
AcDbEntity
  8
SCRITTE
100
AcDbLine
 62
253
  6
CONTINUOUS
 10
23.5101189391
 20
4.5197651515
 11
23.1101189212
 21
4.5267466457
  0
LINE
  5
56A
100
AcDbEntity
  8
SCRITTE
100
AcDbLine
 62
253
  6
CONTINUOUS
 10
30.4767855243
 20
4.5145290308
 11
29.7767855243
 21
4.5267466457
  0
LINE
  5
56B
100
AcDbEntity
  8
SCRITTE
100
AcDbLine
 62
253
  6
CONTINUOUS
 10
35.8434517459
 20
4.5145290308
 11
35.1434517459
 21
4.5267466457
  0
LINE
  5
56C
100
AcDbEntity
  8
SCRITTE
100
AcDbLine
 62
253
  6
CONTINUOUS
 10
25.1101189689
 20
4.5145290308
 11
24.7101189927
 21
4.5267466457
  0
LINE
  5
56D
100
AcDbEntity
  8
SCRITTE
100
AcDbLine
 62
253
  6
CONTINUOUS
 10
37.0434525088
 20
4.5145290308
 11
36.6434526996
 21
4.5267466457
  0
LWPOLYLINE
  5
56E
100
AcDbEntity
  8
RACCORDO
100
AcDbPolyline
 62
7
  6
CONTINUOUS
 90
5
 70
0
 10
39.2028449831
 20
4.5313382586
 10
39.1969778526
 20
4.5316656816
 10
39.1870453395
 20
4.531975607
 10
39.1730474438
 20
4.5322680349
 10
39.1321866867
 20
4.5328081771
  0
LWPOLYLINE
  5
56F
100
AcDbEntity
  8
ASSI
100
AcDbPolyline
 62
7
  6
CONTINUOUS
 90
5
 70
0
 10
39.2028449831
 20
4.5313382586
 10
39.1969778526
 20
4.5316656816
 10
39.1870453395
 20
4.531975607
 10
39.1730474438
 20
4.5322680349
 10
39.1321866867
 20
4.5328081771
  0
LWPOLYLINE
  5
570
100
AcDbEntity
  8
RACCORDO
100
AcDbPolyline
 62
7
  6
CONTINUOUS
 90
16
 70
0
 10
39.4970514657
 20
4.5206378383
 10
39.5608717534
 20
4.5170554006
 10
39.6226747407
 20
4.5072669873
 10
39.6824604275
 20
4.4912725982
 10
39.7408349959
 20
4.4687632641
 10
39.7971922638
 20
4.4400479542
 10
39.8497136854
 20
4.4060535768
 10
39.8982741522
 20
4.3666080285
 10
39.9429987728
 20
4.3218834126
 10
39.9824443271
 20
4.2733229468
 10
40.0164387123
 20
4.2208015203
 10
40.0451540313
 20
4.164444244
 10
40.0676633726
 20
4.1060696673
 10
40.0836577659
 20
4.0462839734
 10
40.0934461815
 20
3.9844809791
 10
40.0970286195
 20
3.9206606844
  0
LWPOLYLINE
  5
571
100
AcDbEntity
  8
ASSI
100
AcDbPolyline
 62
7
  6
CONTINUOUS
 90
16
 70
0
 10
39.4970514657
 20
4.5206378383
 10
39.5608717534
 20
4.5170554006
 10
39.6226747407
 20
4.5072669873
 10
39.6824604275
 20
4.4912725982
 10
39.7408349959
 20
4.4687632641
 10
39.7971922638
 20
4.4400479542
 10
39.8497136854
 20
4.4060535768
 10
39.8982741522
 20
4.3666080285
 10
39.9429987728
 20
4.3218834126
 10
39.9824443271
 20
4.2733229468
 10
40.0164387123
 20
4.2208015203
 10
40.0451540313
 20
4.164444244
 10
40.0676633726
 20
4.1060696673
 10
40.0836577659
 20
4.0462839734
 10
40.0934461815
 20
3.9844809791
 10
40.0970286195
 20
3.9206606844
  0
LWPOLYLINE
  5
572
100
AcDbEntity
  8
RACCORDO
100
AcDbPolyline
 62
7
  6
CONTINUOUS
 90
6
 70
0
 10
54.1100732251
 20
3.6837281399
 10
54.1274476658
 20
3.6822117982
 10
54.1442922695
 20
3.6776994114
 10
54.1600949801
 20
3.6703292668
 10
54.1743758501
 20
3.6603263391
 10
54.1807928473
 20
3.6544451045
  0
LINE
  5
573
100
AcDbEntity
  8
RACCORDO
100
AcDbLine
 62
7
  6
CONTINUOUS
 10
39.3101189212
 20
4.5206378383
 11
39.2028449831
 21
4.5313382586
  0
LINE
  5
574
100
AcDbEntity
  8
ASSI
100
AcDbLine
 62
7
  6
CONTINUOUS
 10
39.3101189212
 20
4.5206378383
 11
39.2028449831
 21
4.5313382586
  0
LINE
  5
575
100
AcDbEntity
  8
RACCORDO
100
AcDbLine
 62
253
  6
CONTINUOUS
 10
40.0970286195
 20
-2.3532044045
 11
40.0686282215
 21
-2.3248040066
  0
LINE
  5
576
100
AcDbEntity
  8
ASSI
100
AcDbLine
 62
253
  6
CONTINUOUS
 10
40.0970286195
 20
-2.3532044045
 11
40.0686282215
 21
-2.3248040066
  0
LINE
  5
577
100
AcDbEntity
  8
CURVE
100
AcDbLine
 62
253
  6
CONTINUOUS
 10
36.1101189212
 20
1.8265852855
 11
36.1458330707
 21
1.7551567127
  0
LINE
  5
578
100
AcDbEntity
  8
CURVE
100
AcDbLine
 62
253
  6
CONTINUOUS
 10
36.2529762344
 20
1.862299569
 11
36.2172620849
 21
1.9337281474
  0
LINE
  5
579
100
AcDbEntity
  8
SCRITTE
100
AcDbLine
 62
253
  6
CONTINUOUS
 10
37.7413689212
 20
-0.9100218601
 11
37.7851189212
 21
-0.9975218601
  0
LINE
  5
57A
100
AcDbEntity
  8
SCRITTE
100
AcDbLine
 62
253
  6
CONTINUOUS
 10
37.6101189212
 20
-1.6100218601
 11
37.6538689212
 21
-1.7412718601
  0
LINE
  5
57B
100
AcDbEntity
  8
CURVE
100
AcDbLine
 62
253
  6
CONTINUOUS
 10
36.7529757575
 20
3.1837281399
 11
36.7529757575
 21
1.6837281399
  0
LINE
  5
57C
100
AcDbEntity
  8
CURVE
100
AcDbLine
 62
253
  6
CONTINUOUS
 10
37.5029757575
 20
2.5408710354
 11
37.5029757575
 21
2.9694424384
  0
LINE
  5
57D
100
AcDbEntity
  8
SCRITTE
100
AcDbLine
 62
253
  6
CONTINUOUS
 10
37.6101189212
 20
-1.4787718601
 11
37.6101189212
 21
-1.6100218601
  0
LINE
  5
57E
100
AcDbEntity
  8
SCRITTE
100
AcDbLine
 62
253
  6
CONTINUOUS
 10
37.7413689212
 20
-0.8662718601
 11
37.7413689212
 21
-0.9100218601
  0
LINE
  5
57F
100
AcDbEntity
  8
SCRITTE
100
AcDbLine
 62
253
  6
CONTINUOUS
 10
37.7851189212
 20
-0.7350218601
 11
37.7413689212
 21
-0.8662718601
  0
LINE
  5
580
100
AcDbEntity
  8
SCRITTE
100
AcDbLine
 62
253
  6
CONTINUOUS
 10
37.6538689212
 20
-1.3475218601
 11
37.6101189212
 21
-1.4787718601
  0
LINE
  5
581
100
AcDbEntity
  8
RACCORDO
100
AcDbLine
 62
7
  6
CONTINUOUS
 10
40.0927420369
 20
3.6751543217
 11
40.0970286195
 21
3.6837281399
  0
LINE
  5
582
100
AcDbEntity
  8
ASSI
100
AcDbLine
 62
7
  6
CONTINUOUS
 10
40.0927420369
 20
3.6751543217
 11
40.0970286195
 21
3.6837281399
  0
LINE
  5
583
100
AcDbEntity
  8
SCRITTE
100
AcDbLine
 62
253
  6
CONTINUOUS
 10
37.8726189212
 20
-0.6475218601
 11
37.7851189212
 21
-0.7350218601
  0
LINE
  5
584
100
AcDbEntity
  8
SCRITTE
100
AcDbLine
 62
253
  6
CONTINUOUS
 10
37.7413689212
 20
-1.2600218601
 11
37.6538689212
 21
-1.3475218601
  0
LINE
  5
585
100
AcDbEntity
  8
SCRITTE
100
AcDbLine
 62
253
  6
CONTINUOUS
 10
38.2663689212
 20
-1.8725218601
 11
38.3976189212
 21
-1.7850218601
  0
LINE
  5
586
100
AcDbEntity
  8
RACCORDO
100
AcDbLine
 62
7
  6
CONTINUOUS
 10
53.1749664665
 20
2.6292372801
 11
53.2271867646
 21
2.6190958009
  0
LINE
  5
587
100
AcDbEntity
  8
ASSI
100
AcDbLine
 62
7
  6
CONTINUOUS
 10
53.1749664665
 20
2.6292372801
 11
53.2271867646
 21
2.6190958009
  0
LINE
  5
588
100
AcDbEntity
  8
CURVE
100
AcDbLine
 62
253
  6
CONTINUOUS
 10
37.5029757575
 20
2.9694424384
 11
37.2886901454
 21
3.1837281399
  0
LINE
  5
589
100
AcDbEntity
  8
CURVE
100
AcDbLine
 62
253
  6
CONTINUOUS
 10
37.5029757575
 20
1.6837281399
 11
37.0744045333
 21
2.3265852892
  0
LINE
  5
58A
100
AcDbEntity
  8
RACCORDO
100
AcDbLine
 62
7
  6
CONTINUOUS
 10
40.0970286195
 20
-2.1162718601
 11
40.0927420369
 21
-2.1076980418
  0
LINE
  5
58B
100
AcDbEntity
  8
ASSI
100
AcDbLine
 62
7
  6
CONTINUOUS
 10
40.0970286195
 20
-2.1162718601
 11
40.0927420369
 21
-2.1076980418
  0
LINE
  5
58C
100
AcDbEntity
  8
DRAFT
100
AcDbLine
 62
7
  6
CONTINUOUS
 10
39.257737767
 20
4.5337281399
 11
39.257737767
 21
4.5258627827
  0
LINE
  5
58D
100
AcDbEntity
  8
DRAFT
100
AcDbLine
 62
7
  6
CONTINUOUS
 10
39.257737767
 20
-2.9584065028
 11
39.257737767
 21
-2.9662718601
  0
LINE
  5
58E
100
AcDbEntity
  8
DRAFT
100
AcDbLine
 62
7
  6
CONTINUOUS
 10
39.3101189212
 20
4.5861092942
 11
39.3101189212
 21
4.5206378383
  0
LINE
  5
58F
100
AcDbEntity
  8
DRAFT
100
AcDbLine
 62
7
  6
CONTINUOUS
 10
39.3101189212
 20
-2.9531815584
 11
39.3101189212
 21
-3.0186530143
  0
LINE
  5
590
100
AcDbEntity
  8
DRAFT
100
AcDbLine
 62
7
  6
CONTINUOUS
 10
39.3101189212
 20
-2.1662718601
 11
39.3101189212
 21
3.7337281399
  0
LINE
  5
591
100
AcDbEntity
  8
DRAFT
100
AcDbLine
 62
7
  6
CONTINUOUS
 10
39.3136099342
 20
-2.169762873
 11
39.3136099342
 21
3.7372191529
  0
LINE
  5
592
100
AcDbEntity
  8
ASSI
100
AcDbLine
 62
7
  6
CONTINUOUS
 10
39.3136099342
 20
-2.169762873
 11
39.3136099342
 21
3.7372191529
  0
LINE
  5
593
100
AcDbEntity
  8
RACCORDO
100
AcDbLine
 62
253
  6
CONTINUOUS
 10
39.4686510677
 20
-2.4248001989
 11
39.4686510612
 21
-2.9247811604
  0
LINE
  5
594
100
AcDbEntity
  8
ASSI
100
AcDbLine
 62
253
  6
CONTINUOUS
 10
39.4686510677
 20
-2.4248001989
 11
39.4686510612
 21
-2.9247811604
  0
LINE
  5
595
100
AcDbEntity
  8
RACCORDO
100
AcDbLine
 62
253
  6
CONTINUOUS
 10
39.4686510677
 20
3.9922564787
 11
39.4686510677
 21
4.4922374403
  0
LINE
  5
596
100
AcDbEntity
  8
ASSI
100
AcDbLine
 62
253
  6
CONTINUOUS
 10
39.4686510677
 20
3.9922564787
 11
39.4686510677
 21
4.4922374403
  0
LINE
  5
597
100
AcDbEntity
  8
RACCORDO
100
AcDbLine
 62
253
  6
CONTINUOUS
 10
39.56864726
 20
-2.3248040066
 11
39.56864726
 21
3.8922602864
  0
LINE
  5
598
100
AcDbEntity
  8
ASSI
100
AcDbLine
 62
253
  6
CONTINUOUS
 10
39.56864726
 20
-2.3248040066
 11
39.56864726
 21
3.8922602864
  0
LINE
  5
599
100
AcDbEntity
  8
SCRITTE
100
AcDbLine
 62
253
  6
CONTINUOUS
 10
38.3976189212
 20
-1.7850218601
 11
38.4851189212
 21
-1.6975218601
  0
LWPOLYLINE
  5
59A
100
AcDbEntity
  8
RACCORDO
100
AcDbPolyline
 62
7
  6
CONTINUOUS
 90
10
 70
0
 10
40.0927420369
 20
-2.1076980418
 10
40.0925208785
 20
-2.1069332065
 10
40.0923002421
 20
-2.1055299991
 10
40.0920801279
 20
-2.1034884196
 10
40.0918603953
 20
-2.1008063397
 10
40.0916411848
 20
-2.0974858878
 10
40.0914229178
 20
-2.0935334489
 10
40.0912057347
 20
-2.0889511516
 10
40.0909894953
 20
-2.0837368674
 10
40.0907741993
 20
-2.0778905962
  0
LWPOLYLINE
  5
59B
100
AcDbEntity
  8
ASSI
100
AcDbPolyline
 62
7
  6
CONTINUOUS
 90
10
 70
0
 10
40.0927420369
 20
-2.1076980418
 10
40.0925208785
 20
-2.1069332065
 10
40.0923002421
 20
-2.1055299991
 10
40.0920801279
 20
-2.1034884196
 10
40.0918603953
 20
-2.1008063397
 10
40.0916411848
 20
-2.0974858878
 10
40.0914229178
 20
-2.0935334489
 10
40.0912057347
 20
-2.0889511516
 10
40.0909894953
 20
-2.0837368674
 10
40.0907741993
 20
-2.0778905962
  0
LWPOLYLINE
  5
59C
100
AcDbEntity
  8
RACCORDO
100
AcDbPolyline
 62
7
  6
CONTINUOUS
 90
16
 70
0
 10
40.1625000754
 20
3.986474798
 10
40.1589154886
 20
4.0502997324
 10
40.1491312928
 20
4.1120966153
 10
40.1331474879
 20
4.1718654468
 10
40.1106551534
 20
4.2302092349
 10
40.0819632098
 20
4.2865249716
 10
40.0479984196
 20
4.3390036323
 10
40.0085910934
 20
4.3875208065
 10
39.9639109206
 20
4.4322009048
 10
39.9153937309
 20
4.4716081343
 10
39.8629151464
 20
4.5055728002
 10
39.8065995451
 20
4.5342645972
 10
39.7482558913
 20
4.5567568161
 10
39.6884871731
 20
4.5727405536
 10
39.6266904024
 20
4.582524713
 10
39.5628655792
 20
4.5861092942
  0
LWPOLYLINE
  5
59D
100
AcDbEntity
  8
RACCORDO
100
AcDbPolyline
 62
253
  6
CONTINUOUS
 90
19
 70
0
 10
39.56864726
 20
3.8922602864
 10
39.568263434
 20
3.9009958967
 10
39.5671433714
 20
3.9095646451
 10
39.565287072
 20
3.9179665318
 10
39.5626703346
 20
3.9262714696
 10
39.5593173604
 20
3.9344095456
 10
39.5553007537
 20
3.9421710212
 10
39.5506021048
 20
3.9495416454
 10
39.5452398235
 20
3.9565356691
 10
39.5393417433
 20
3.9629861063
 10
39.5328970456
 20
3.9688763744
 10
39.525916549
 20
3.9742230559
 10
39.5185605438
 20
3.9789089123
 10
39.5108161024
 20
3.9829191517
 10
39.5026961524
 20
3.9862685659
 10
39.4943997667
 20
3.988884292
 10
39.4859933028
 20
3.9907420423
 10
39.4774104031
 20
3.9918661046
 10
39.4686510677
 20
3.9922564787
  0
LWPOLYLINE
  5
59E
100
AcDbEntity
  8
ASSI
100
AcDbPolyline
 62
253
  6
CONTINUOUS
 90
19
 70
0
 10
39.56864726
 20
3.8922602864
 10
39.568263434
 20
3.9009958967
 10
39.5671433714
 20
3.9095646451
 10
39.565287072
 20
3.9179665318
 10
39.5626703346
 20
3.9262714696
 10
39.5593173604
 20
3.9344095456
 10
39.5553007537
 20
3.9421710212
 10
39.5506021048
 20
3.9495416454
 10
39.5452398235
 20
3.9565356691
 10
39.5393417433
 20
3.9629861063
 10
39.5328970456
 20
3.9688763744
 10
39.525916549
 20
3.9742230559
 10
39.5185605438
 20
3.9789089123
 10
39.5108161024
 20
3.9829191517
 10
39.5026961524
 20
3.9862685659
 10
39.4943997667
 20
3.988884292
 10
39.4859933028
 20
3.9907420423
 10
39.4774104031
 20
3.9918661046
 10
39.4686510677
 20
3.9922564787
  0
LWPOLYLINE
  5
59F
100
AcDbEntity
  8
RACCORDO
100
AcDbPolyline
 62
253
  6
CONTINUOUS
 90
19
 70
0
 10
40.0686282215
 20
3.8922602864
 10
40.0663420043
 20
3.9445498755
 10
40.0595073706
 20
3.9964414751
 10
40.0481763372
 20
4.0475402016
 10
40.0324351426
 20
4.0974572003
 10
40.0124035762
 20
4.1458126179
 10
39.9882340607
 20
4.1922384907
 10
39.9601105238
 20
4.2363815179
 10
39.9282469789
 20
4.2779057832
 10
39.8928858687
 20
4.3164953153
 10
39.8542962251
 20
4.3518564808
 10
39.8127717464
 20
4.3837201267
 10
39.7686285564
 20
4.4118436893
 10
39.722202655
 20
4.4360131396
 10
39.6738472904
 20
4.4560446122
 10
39.6239303966
 20
4.4717857133
 10
39.5728318154
 20
4.4831166676
 10
39.5209404122
 20
4.4899512448
 10
39.4686510677
 20
4.4922374403
  0
LWPOLYLINE
  5
5A0
100
AcDbEntity
  8
ASSI
100
AcDbPolyline
 62
253
  6
CONTINUOUS
 90
19
 70
0
 10
40.0686282215
 20
3.8922602864
 10
40.0663420043
 20
3.9445498755
 10
40.0595073706
 20
3.9964414751
 10
40.0481763372
 20
4.0475402016
 10
40.0324351426
 20
4.0974572003
 10
40.0124035762
 20
4.1458126179
 10
39.9882340607
 20
4.1922384907
 10
39.9601105238
 20
4.2363815179
 10
39.9282469789
 20
4.2779057832
 10
39.8928858687
 20
4.3164953153
 10
39.8542962251
 20
4.3518564808
 10
39.8127717464
 20
4.3837201267
 10
39.7686285564
 20
4.4118436893
 10
39.722202655
 20
4.4360131396
 10
39.6738472904
 20
4.4560446122
 10
39.6239303966
 20
4.4717857133
 10
39.5728318154
 20
4.4831166676
 10
39.5209404122
 20
4.4899512448
 10
39.4686510677
 20
4.4922374403
  0
LINE
  5
5A1
100
AcDbEntity
  8
RACCORDO
100
AcDbLine
 62
7
  6
CONTINUOUS
 10
40.0894638854
 20
-2.036019154
 11
40.0907741993
 21
-2.0778905962
  0
LINE
  5
5A2
100
AcDbEntity
  8
ASSI
100
AcDbLine
 62
7
  6
CONTINUOUS
 10
40.0894638854
 20
-2.036019154
 11
40.0907741993
 21
-2.0778905962
  0
LINE
  5
5A3
100
AcDbEntity
  8
RACCORDO
100
AcDbLine
 62
7
  6
CONTINUOUS
 10
40.086924123
 20
-1.9295464104
 11
40.0894638854
 21
-2.036019154
  0
LINE
  5
5A4
100
AcDbEntity
  8
ASSI
100
AcDbLine
 62
7
  6
CONTINUOUS
 10
40.086924123
 20
-1.9295464104
 11
40.0894638854
 21
-2.036019154
  0
LINE
  5
5A5
100
AcDbEntity
  8
RACCORDO
100
AcDbLine
 62
7
  6
CONTINUOUS
 10
40.0833166427
 20
-1.7130126468
 11
40.086924123
 21
-1.9295464104
  0
LINE
  5
5A6
100
AcDbEntity
  8
ASSI
100
AcDbLine
 62
7
  6
CONTINUOUS
 10
40.0833166427
 20
-1.7130126468
 11
40.086924123
 21
-1.9295464104
  0
LINE
  5
5A7
100
AcDbEntity
  8
RACCORDO
100
AcDbLine
 62
7
  6
CONTINUOUS
 10
40.0790653552
 20
-1.3294533629
 11
40.0833166427
 21
-1.7130126468
  0
LINE
  5
5A8
100
AcDbEntity
  8
ASSI
100
AcDbLine
 62
7
  6
CONTINUOUS
 10
40.0790653552
 20
-1.3294533629
 11
40.0833166427
 21
-1.7130126468
  0
LINE
  5
5A9
100
AcDbEntity
  8
RACCORDO
100
AcDbLine
 62
7
  6
CONTINUOUS
 10
40.0790653552
 20
-1.3294533629
 11
40.0761267587
 21
-0.9080987208
  0
LINE
  5
5AA
100
AcDbEntity
  8
ASSI
100
AcDbLine
 62
7
  6
CONTINUOUS
 10
40.0790653552
 20
-1.3294533629
 11
40.0761267587
 21
-0.9080987208
  0
LINE
  5
5AB
100
AcDbEntity
  8
RACCORDO
100
AcDbLine
 62
7
  6
CONTINUOUS
 10
40.0686282215
 20
-2.3248040066
 11
40.0686282215
 21
3.8922602864
  0
LINE
  5
5AC
100
AcDbEntity
  8
ASSI
100
AcDbLine
 62
7
  6
CONTINUOUS
 10
40.0686282215
 20
-2.3248040066
 11
40.0686282215
 21
3.8922602864
  0
LINE
  5
5AD
100
AcDbEntity
  8
RACCORDO
100
AcDbLine
 62
7
  6
CONTINUOUS
 10
40.0761267587
 20
-0.9080987208
 11
40.07521145
 21
2.0297217194
  0
LINE
  5
5AE
100
AcDbEntity
  8
ASSI
100
AcDbLine
 62
7
  6
CONTINUOUS
 10
40.0761267587
 20
-0.9080987208
 11
40.07521145
 21
2.0297217194
  0
LINE
  5
5AF
100
AcDbEntity
  8
RACCORDO
100
AcDbLine
 62
7
  6
CONTINUOUS
 10
40.0970286195
 20
3.9206606844
 11
40.0970286195
 21
3.6837281399
  0
LINE
  5
5B0
100
AcDbEntity
  8
ASSI
100
AcDbLine
 62
7
  6
CONTINUOUS
 10
40.0970286195
 20
3.9206606844
 11
40.0970286195
 21
3.6837281399
  0
LINE
  5
5B1
100
AcDbEntity
  8
RACCORDO
100
AcDbLine
 62
7
  6
CONTINUOUS
 10
40.0970286195
 20
-2.1162718601
 11
40.0970286195
 21
-2.3532044045
  0
LINE
  5
5B2
100
AcDbEntity
  8
ASSI
100
AcDbLine
 62
7
  6
CONTINUOUS
 10
40.0970286195
 20
-2.1162718601
 11
40.0970286195
 21
-2.3532044045
  0
LINE
  5
5B3
100
AcDbEntity
  8
RACCORDO
100
AcDbLine
 62
7
  6
CONTINUOUS
 10
40.1625000754
 20
-2.4190185181
 11
40.1625000754
 21
-2.1162718601
  0
LINE
  5
5B4
100
AcDbEntity
  8
RACCORDO
100
AcDbLine
 62
7
  6
CONTINUOUS
 10
40.1625000754
 20
3.6837281399
 11
40.1625000754
 21
3.986474798
  0
LINE
  5
5B5
100
AcDbEntity
  8
RACCORDO
100
AcDbLine
 62
7
  6
CONTINUOUS
 10
40.07521145
 20
2.0297217194
 11
40.0761267587
 21
2.4755550007
  0
LINE
  5
5B6
100
AcDbEntity
  8
ASSI
100
AcDbLine
 62
7
  6
CONTINUOUS
 10
40.07521145
 20
2.0297217194
 11
40.0761267587
 21
2.4755550007
  0
LINE
  5
5B7
100
AcDbEntity
  8
RACCORDO
100
AcDbLine
 62
7
  6
CONTINUOUS
 10
40.0790653552
 20
2.8969096396
 11
40.0761267587
 21
2.4755550007
  0
LINE
  5
5B8
100
AcDbEntity
  8
ASSI
100
AcDbLine
 62
7
  6
CONTINUOUS
 10
40.0790653552
 20
2.8969096396
 11
40.0761267587
 21
2.4755550007
  0
LINE
  5
5B9
100
AcDbEntity
  8
RACCORDO
100
AcDbLine
 62
7
  6
CONTINUOUS
 10
40.0833166426
 20
3.2804689232
 11
40.0790653552
 21
2.8969096396
  0
LINE
  5
5BA
100
AcDbEntity
  8
ASSI
100
AcDbLine
 62
7
  6
CONTINUOUS
 10
40.0833166426
 20
3.2804689232
 11
40.0790653552
 21
2.8969096396
  0
LINE
  5
5BB
100
AcDbEntity
  8
RACCORDO
100
AcDbLine
 62
7
  6
CONTINUOUS
 10
40.0869241229
 20
3.4970026863
 11
40.0833166426
 21
3.2804689232
  0
LINE
  5
5BC
100
AcDbEntity
  8
ASSI
100
AcDbLine
 62
7
  6
CONTINUOUS
 10
40.0869241229
 20
3.4970026863
 11
40.0833166426
 21
3.2804689232
  0
LWPOLYLINE
  5
5BD
100
AcDbEntity
  8
RACCORDO
100
AcDbPolyline
 62
7
  6
CONTINUOUS
 90
3
 70
0
 10
40.0907741993
 20
3.6453468761
 10
40.0894638854
 20
3.6034754321
 10
40.0869241229
 20
3.4970026863
  0
LWPOLYLINE
  5
5BE
100
AcDbEntity
  8
ASSI
100
AcDbPolyline
 62
7
  6
CONTINUOUS
 90
3
 70
0
 10
40.0907741993
 20
3.6453468761
 10
40.0894638854
 20
3.6034754321
 10
40.0869241229
 20
3.4970026863
  0
LWPOLYLINE
  5
5BF
100
AcDbEntity
  8
RACCORDO
100
AcDbPolyline
 62
7
  6
CONTINUOUS
 90
10
 70
0
 10
40.0907741993
 20
3.6453468761
 10
40.0909894953
 20
3.6511931472
 10
40.0912057347
 20
3.6564074315
 10
40.0914229178
 20
3.6609897288
 10
40.0916411848
 20
3.6649421677
 10
40.0918603953
 20
3.6682626196
 10
40.0920801279
 20
3.6709446995
 10
40.0923002421
 20
3.672986279
 10
40.0925208785
 20
3.6743894864
 10
40.0927420369
 20
3.6751543217
  0
LWPOLYLINE
  5
5C0
100
AcDbEntity
  8
ASSI
100
AcDbPolyline
 62
7
  6
CONTINUOUS
 90
10
 70
0
 10
40.0907741993
 20
3.6453468761
 10
40.0909894953
 20
3.6511931472
 10
40.0912057347
 20
3.6564074315
 10
40.0914229178
 20
3.6609897288
 10
40.0916411848
 20
3.6649421677
 10
40.0918603953
 20
3.6682626196
 10
40.0920801279
 20
3.6709446995
 10
40.0923002421
 20
3.672986279
 10
40.0925208785
 20
3.6743894864
 10
40.0927420369
 20
3.6751543217
  0
LWPOLYLINE
  5
5C1
100
AcDbEntity
  8
RACCORDO
100
AcDbPolyline
 62
7
  6
CONTINUOUS
 90
16
 70
0
 10
40.0970286195
 20
-2.3532044045
 10
40.0934461819
 20
-2.4170246922
 10
40.0836577685
 20
-2.4788276795
 10
40.0676633795
 20
-2.5386133664
 10
40.0451540453
 20
-2.5969879347
 10
40.0164387355
 20
-2.6533452026
 10
39.982444358
 20
-2.7058666243
 10
39.9429988098
 20
-2.7544270911
 10
39.8982741939
 20
-2.7991517116
 10
39.849713728
 20
-2.838597266
 10
39.7971923016
 20
-2.8725916512
 10
39.7408350252
 20
-2.9013069701
 10
39.6824604485
 20
-2.9238163115
 10
39.6226747546
 20
-2.9398107047
 10
39.5608717603
 20
-2.9495991204
 10
39.4970514657
 20
-2.9531815584
  0
LWPOLYLINE
  5
5C2
100
AcDbEntity
  8
ASSI
100
AcDbPolyline
 62
7
  6
CONTINUOUS
 90
16
 70
0
 10
40.0970286195
 20
-2.3532044045
 10
40.0934461819
 20
-2.4170246922
 10
40.0836577685
 20
-2.4788276795
 10
40.0676633795
 20
-2.5386133664
 10
40.0451540453
 20
-2.5969879347
 10
40.0164387355
 20
-2.6533452026
 10
39.982444358
 20
-2.7058666243
 10
39.9429988098
 20
-2.7544270911
 10
39.8982741939
 20
-2.7991517116
 10
39.849713728
 20
-2.838597266
 10
39.7971923016
 20
-2.8725916512
 10
39.7408350252
 20
-2.9013069701
 10
39.6824604485
 20
-2.9238163115
 10
39.6226747546
 20
-2.9398107047
 10
39.5608717603
 20
-2.9495991204
 10
39.4970514657
 20
-2.9531815584
  0
LWPOLYLINE
  5
5C3
100
AcDbEntity
  8
RACCORDO
100
AcDbPolyline
 62
253
  6
CONTINUOUS
 90
22
 70
0
 10
54.079576813
 20
2.3460270195
 10
54.085802536
 20
2.3492580246
 10
54.0919860935
 20
2.3527328231
 10
54.0981077323
 20
2.3564514151
 10
54.104144634
 20
2.3604121873
 10
54.1100771379
 20
2.3646167529
 10
54.1158880063
 20
2.3690699515
 10
54.1215530048
 20
2.373774865
 10
54.127046208
 20
2.3787284115
 10
54.1323449839
 20
2.3839261842
 10
54.1374198211
 20
2.3893703718
 10
54.1422432218
 20
2.3950587855
 10
54.1467919491
 20
2.4009804524
 10
54.1510317735
 20
2.4071366944
 10
54.1549320058
 20
2.4135261896
 10
54.1584683363
 20
2.4201339984
 10
54.161598602
 20
2.4269552721
 10
54.1642900294
 20
2.4339948595
 10
54.1665172298
 20
2.4412523681
 10
54.1682331413
 20
2.4487276671
 10
54.1693813391
 20
2.4564208872
 10
54.1699110444
 20
2.4643320286
  0
LINE
  5
5C4
100
AcDbEntity
  8
RACCORDO
100
AcDbLine
 62
253
  6
CONTINUOUS
 10
53.9699418063
 20
2.2912094831
 11
54.079576813
 21
2.3460270195
  0
LINE
  5
5C5
100
AcDbEntity
  8
RACCORDO
100
AcDbLine
 62
253
  6
CONTINUOUS
 10
54.079576813
 20
-0.7785707109
 11
53.9699418063
 21
-0.7237532032
  0
LINE
  5
5C6
100
AcDbEntity
  8
RACCORDO
100
AcDbLine
 62
7
  6
CONTINUOUS
 10
53.229154916
 20
3.6742130425
 11
53.2134891264
 21
3.6820435507
  0
LINE
  5
5C7
100
AcDbEntity
  8
ASSI
100
AcDbLine
 62
7
  6
CONTINUOUS
 10
45.4101189212
 20
0.2837281399
 11
45.4101189212
 21
1.2837281399
  0
LINE
  5
5C8
100
AcDbEntity
  8
RACCORDO
100
AcDbLine
 62
7
  6
CONTINUOUS
 10
53.1101189212
 20
3.6837281399
 11
53.101545103
 21
3.6751543217
  0
LINE
  5
5C9
100
AcDbEntity
  8
ASSI
100
AcDbLine
 62
7
  6
CONTINUOUS
 10
53.1101189212
 20
3.6837281399
 11
53.101545103
 21
3.6751543217
  0
LINE
  5
5CA
100
AcDbEntity
  8
RACCORDO
100
AcDbLine
 62
7
  6
CONTINUOUS
 10
53.229154916
 20
-2.1067567626
 11
53.2134891264
 21
-2.1145872709
  0
LINE
  5
5CB
100
AcDbEntity
  8
RACCORDO
100
AcDbLine
 62
7
  6
CONTINUOUS
 10
53.1101189212
 20
-2.1162718601
 11
53.101545103
 21
-2.1076980418
  0
LINE
  5
5CC
100
AcDbEntity
  8
ASSI
100
AcDbLine
 62
7
  6
CONTINUOUS
 10
53.1101189212
 20
-2.1162718601
 11
53.101545103
 21
-2.1076980418
  0
LINE
  5
5CD
100
AcDbEntity
  8
RACCORDO
100
AcDbLine
 62
253
  6
CONTINUOUS
 10
54.1006189258
 20
-2.1067566342
 11
54.1101341517
 21
-2.1162718601
  0
LINE
  5
5CE
100
AcDbEntity
  8
RACCORDO
100
AcDbLine
 62
253
  6
CONTINUOUS
 10
54.2006038237
 20
-2.0067719931
 11
54.2100884579
 21
-2.0162566273
  0
LINE
  5
5CF
100
AcDbEntity
  8
ASSI
100
AcDbLine
 62
7
  6
CONTINUOUS
 10
46.4684194456
 20
0.2837281399
 11
46.4684194456
 21
1.2837281399
  0
LWPOLYLINE
  5
5D0
100
AcDbEntity
  8
RACCORDO
100
AcDbPolyline
 62
7
  6
CONTINUOUS
 90
13
 70
0
 10
53.1101189212
 20
2.6337281399
 10
53.1089105715
 20
2.6324207738
 10
53.1077074974
 20
2.6285568897
 10
53.1065096989
 20
2.6221364878
 10
53.1053156107
 20
2.6131435343
 10
53.1041267982
 20
2.601594063
 10
53.102947957
 20
2.5875361746
 10
53.1017790366
 20
2.570959227
 10
53.1006200874
 20
2.5518738623
 10
53.0994759572
 20
2.5303601068
 10
53.0983467287
 20
2.5064083733
 10
53.0972323192
 20
2.480028249
 10
53.0950618305
 20
2.4202998662
  0
LWPOLYLINE
  5
5D1
100
AcDbEntity
  8
ASSI
100
AcDbPolyline
 62
7
  6
CONTINUOUS
 90
13
 70
0
 10
53.1101189212
 20
2.6337281399
 10
53.1089105715
 20
2.6324207738
 10
53.1077074974
 20
2.6285568897
 10
53.1065096989
 20
2.6221364878
 10
53.1053156107
 20
2.6131435343
 10
53.1041267982
 20
2.601594063
 10
53.102947957
 20
2.5875361746
 10
53.1017790366
 20
2.570959227
 10
53.1006200874
 20
2.5518738623
 10
53.0994759572
 20
2.5303601068
 10
53.0983467287
 20
2.5064083733
 10
53.0972323192
 20
2.480028249
 10
53.0950618305
 20
2.4202998662
  0
LWPOLYLINE
  5
5D2
100
AcDbEntity
  8
RACCORDO
100
AcDbPolyline
 62
253
  6
CONTINUOUS
 90
22
 70
0
 10
54.0247593426
 20
2.4008444899
 10
54.0278891271
 20
2.404189545
 10
54.0309772565
 20
2.4077874719
 10
54.0340237309
 20
2.4116375245
 10
54.0370392123
 20
2.4157359927
 10
54.0400130387
 20
2.4200849324
 10
54.0429132242
 20
2.424692131
 10
54.0457417635
 20
2.4295597183
 10
54.0484966619
 20
2.4346834763
 10
54.0511399496
 20
2.4400615483
 10
54.0536729874
 20
2.4456947967
 10
54.0560944144
 20
2.4515798947
 10
54.0583621787
 20
2.4577086408
 10
54.0604781622
 20
2.4640810469
 10
54.0624404829
 20
2.4706943168
 10
54.0642014434
 20
2.4775360366
 10
54.0657642755
 20
2.4845996159
 10
54.0671257474
 20
2.4918886305
 10
54.0682284655
 20
2.4994058569
 10
54.0690532989
 20
2.5071510475
 10
54.0696193786
 20
2.5151209616
 10
54.0699267046
 20
2.5233137557
  0
LINE
  5
5D3
100
AcDbEntity
  8
RACCORDO
100
AcDbLine
 62
253
  6
CONTINUOUS
 10
54.1101341517
 20
3.6837281399
 11
54.1006189258
 21
3.6742129141
  0
LINE
  5
5D4
100
AcDbEntity
  8
RACCORDO
100
AcDbLine
 62
253
  6
CONTINUOUS
 10
54.2100884579
 20
3.5837129071
 11
54.2006038237
 21
3.574228273
  0
LINE
  5
5D5
100
AcDbEntity
  8
RACCORDO
100
AcDbLine
 62
7
  6
CONTINUOUS
 10
54.2095401187
 20
2.6834387607
 11
54.2135996114
 21
2.6874982534
  0
LWPOLYLINE
  5
5D6
100
AcDbEntity
  8
RACCORDO
100
AcDbPolyline
 62
253
  6
CONTINUOUS
 90
10
 70
0
 10
54.0247593426
 20
2.4008444841
 10
54.0315356895
 20
2.3958900857
 10
54.0382590535
 20
2.3905458093
 10
54.0448768647
 20
2.3848534417
 10
54.0513373787
 20
2.3788574915
 10
54.0575900806
 20
2.3726048411
 10
54.0635860807
 20
2.3661443798
 10
54.0692784962
 20
2.3595266221
 10
54.0746228182
 20
2.3528033122
 10
54.0795772595
 20
2.3460270196
  0
LINE
  5
5D7
100
AcDbEntity
  8
RACCORDO
100
AcDbLine
 62
7
  6
CONTINUOUS
 10
54.2135996114
 20
-1.1200419736
 11
54.2095401187
 21
-1.1159824809
  0
LWPOLYLINE
  5
5D8
100
AcDbEntity
  8
RACCORDO
100
AcDbPolyline
 62
253
  6
CONTINUOUS
 90
22
 70
0
 10
54.0247593139
 20
-0.83338821
 10
54.0279632508
 20
-0.8368186543
 10
54.0311161163
 20
-0.8405014245
 10
54.0342179104
 20
-0.8444357577
 10
54.0372803541
 20
-0.8486219398
 10
54.0402917264
 20
-0.8530579873
 10
54.0432168644
 20
-0.8577396601
 10
54.046055451
 20
-0.8626668163
 10
54.0488078033
 20
-0.8678375816
 10
54.0514397093
 20
-0.8732450679
 10
54.0539519194
 20
-0.8788888296
 10
54.0563436831
 20
-0.884767002
 10
54.0585785371
 20
-0.890870546
 10
54.0606577715
 20
-0.8971943801
 10
54.0625800961
 20
-0.9037410291
 10
54.0643051767
 20
-0.9105127965
 10
54.0658214808
 20
-0.9173647726
 10
54.0671405407
 20
-0.9244395082
 10
54.0682566196
 20
-0.9321676523
 10
54.069167805
 20
-0.9406882132
 10
54.0698760093
 20
-0.9498515872
 10
54.0703812324
 20
-0.9596521021
  0
LWPOLYLINE
  5
5D9
100
AcDbEntity
  8
RACCORDO
100
AcDbPolyline
 62
7
  6
CONTINUOUS
 90
3
 70
0
 10
53.7307520366
 20
-0.785937059
 10
53.7430586689
 20
-0.7736691657
 10
53.7803781789
 20
-0.7362496012
  0
LINE
  5
5DA
100
AcDbEntity
  8
RACCORDO
100
AcDbLine
 62
7
  6
CONTINUOUS
 10
53.7803781789
 20
-0.7362496012
 11
53.7929616337
 21
-0.7237532032
  0
LWPOLYLINE
  5
5DB
100
AcDbEntity
  8
RACCORDO
100
AcDbPolyline
 62
7
  6
CONTINUOUS
 90
3
 70
0
 10
53.6833266269
 20
-0.83338821
 10
53.6949190596
 20
-0.8219028389
 10
53.7307520366
 20
-0.785937059
  0
LWPOLYLINE
  5
5DC
100
AcDbEntity
  8
RACCORDO
100
AcDbPolyline
 62
7
  6
CONTINUOUS
 90
10
 70
0
 10
53.229154916
 20
3.6742130425
 10
53.2295494293
 20
3.6738877722
 10
53.2299431872
 20
3.6733084605
 10
53.2303361897
 20
3.6724751074
 10
53.2307286383
 20
3.6713870211
 10
53.2311203314
 20
3.6700448934
 10
53.2315106644
 20
3.6684507997
 10
53.2318994358
 20
3.6666054317
 10
53.2322868471
 20
3.6645080978
 10
53.2326728982
 20
3.662158798
  0
LWPOLYLINE
  5
5DD
100
AcDbEntity
  8
RACCORDO
100
AcDbPolyline
 62
7
  6
CONTINUOUS
 90
3
 70
0
 10
53.7307777779
 20
2.3534190802
 10
53.694811998
 20
2.3892520572
 10
53.6833266269
 20
2.4008444899
  0
LWPOLYLINE
  5
5DE
100
AcDbEntity
  8
RACCORDO
100
AcDbPolyline
 62
7
  6
CONTINUOUS
 90
3
 70
0
 10
53.7804652357
 20
2.3037929378
 10
53.7430456712
 20
2.3411124479
 10
53.7307777779
 20
2.3534190802
  0
LINE
  5
5DF
100
AcDbEntity
  8
RACCORDO
100
AcDbLine
 62
7
  6
CONTINUOUS
 10
53.7929616337
 20
2.2912094831
 11
53.7804652357
 21
2.3037929378
  0
LWPOLYLINE
  5
5E0
100
AcDbEntity
  8
RACCORDO
100
AcDbPolyline
 62
7
  6
CONTINUOUS
 90
10
 70
0
 10
53.101545103
 20
3.6751543217
 10
53.101102751
 20
3.6743894808
 10
53.1006614436
 20
3.6729862674
 10
53.1002211808
 20
3.6709446816
 10
53.0997816815
 20
3.6682625926
 10
53.0993432268
 20
3.6649421312
 10
53.0989066598
 20
3.6609896896
 10
53.0984722615
 20
3.6564073986
 10
53.0980397509
 20
3.6511931275
 10
53.097609128
 20
3.6453468761
  0
LWPOLYLINE
  5
5E1
100
AcDbEntity
  8
ASSI
100
AcDbPolyline
 62
7
  6
CONTINUOUS
 90
10
 70
0
 10
53.101545103
 20
3.6751543217
 10
53.101102751
 20
3.6743894808
 10
53.1006614436
 20
3.6729862674
 10
53.1002211808
 20
3.6709446816
 10
53.0997816815
 20
3.6682625926
 10
53.0993432268
 20
3.6649421312
 10
53.0989066598
 20
3.6609896896
 10
53.0984722615
 20
3.6564073986
 10
53.0980397509
 20
3.6511931275
 10
53.097609128
 20
3.6453468761
  0
LWPOLYLINE
  5
5E2
100
AcDbEntity
  8
RACCORDO
100
AcDbPolyline
 62
7
  6
CONTINUOUS
 90
10
 70
0
 10
53.3381949849
 20
-1.2592579753
 10
53.3273590835
 20
-1.2713483952
 10
53.3175428041
 20
-1.2841329341
 10
53.3087461466
 20
-1.2975975735
 10
53.3008817068
 20
-1.3117699456
 10
53.2940368889
 20
-1.3265907817
 10
53.2884739056
 20
-1.3419169759
 10
53.2842801611
 20
-1.3576917849
 10
53.2813682511
 20
-1.3739417214
 10
53.2797381758
 20
-1.3906501745
  0
LWPOLYLINE
  5
5E3
100
AcDbEntity
  8
RACCORDO
100
AcDbPolyline
 62
7
  6
CONTINUOUS
 90
9
 70
0
 10
53.6833266269
 20
-0.83338821
 10
53.6794790347
 20
-0.8373325782
 10
53.6757105055
 20
-0.8413706983
 10
53.6720210394
 20
-0.845502242
 10
53.6684107953
 20
-0.8497296655
 10
53.6648796142
 20
-0.8540498216
 10
53.6614270195
 20
-0.8584539918
 10
53.6580528524
 20
-0.8629390569
 10
53.6547572717
 20
-0.867507464
  0
LINE
  5
5E4
100
AcDbEntity
  8
RACCORDO
100
AcDbLine
 62
253
  6
CONTINUOUS
 10
54.2135996114
 20
-2.0127454737
 11
54.2100884579
 21
-2.0162566273
  0
LINE
  5
5E5
100
AcDbEntity
  8
RACCORDO
100
AcDbLine
 62
253
  6
CONTINUOUS
 10
54.2100884579
 20
3.5837129071
 11
54.2135996114
 21
3.5802017536
  0
LWPOLYLINE
  5
5E6
100
AcDbEntity
  8
RACCORDO
100
AcDbPolyline
 62
7
  6
CONTINUOUS
 90
6
 70
0
 10
53.3381949849
 20
2.8267142552
 10
53.3960532117
 20
2.7645328254
 10
53.4516578339
 20
2.70141736
 10
53.5050088516
 20
2.6373678588
 10
53.5561062647
 20
2.572384322
 10
53.6049500734
 20
2.5064667495
  0
LINE
  5
5E7
100
AcDbEntity
  8
RACCORDO
100
AcDbLine
 62
253
  6
CONTINUOUS
 10
54.1867013317
 20
3.6479956684
 11
54.190217188
 21
3.6444826553
  0
LWPOLYLINE
  5
5E8
100
AcDbEntity
  8
RACCORDO
100
AcDbPolyline
 62
7
  6
CONTINUOUS
 90
6
 70
0
 10
54.1807928473
 20
3.6544451045
 10
54.1867013317
 20
3.6479956684
 10
54.1966973816
 20
3.6337129962
 10
54.204061138
 20
3.6179129292
 10
54.2085700859
 20
3.6010757182
 10
54.2100884579
 20
3.5837129071
  0
LWPOLYLINE
  5
5E9
100
AcDbEntity
  8
RACCORDO
100
AcDbPolyline
 62
253
  6
CONTINUOUS
 90
6
 70
0
 10
54.1006189518
 20
3.674212914
 10
54.1003821637
 20
3.6736304178
 10
54.100146309
 20
3.6724749986
 10
54.0999113877
 20
3.6707478471
 10
54.0996773997
 20
3.6684508107
 10
54.0994443451
 20
3.6655863918
  0
LINE
  5
5EA
100
AcDbEntity
  8
RACCORDO
100
AcDbLine
 62
7
  6
CONTINUOUS
 10
54.213732257
 20
2.687802886
 11
54.2135996114
 21
2.6874982534
  0
LINE
  5
5EB
100
AcDbEntity
  8
RACCORDO
100
AcDbLine
 62
253
  6
CONTINUOUS
 10
54.0247593426
 20
2.4008444899
 11
53.9699418063
 21
2.2912094831
  0
LWPOLYLINE
  5
5EC
100
AcDbEntity
  8
RACCORDO
100
AcDbPolyline
 62
253
  6
CONTINUOUS
 90
7
 70
0
 10
54.2006038237
 20
3.574228273
 10
54.2003660135
 20
3.5737534612
 10
54.2001295432
 20
3.5728256811
 10
54.1998944126
 20
3.5714449327
 10
54.1996606218
 20
3.5696112159
 10
54.1994281708
 20
3.5673245308
 10
54.1991970596
 20
3.5645848773
  0
LWPOLYLINE
  5
5ED
100
AcDbEntity
  8
RACCORDO
100
AcDbPolyline
 62
7
  6
CONTINUOUS
 90
7
 70
0
 10
53.6547572717
 20
-0.867507464
 10
53.6049501656
 20
-0.9390103554
 10
53.5561064124
 20
-1.0049278593
 10
53.5050090177
 20
-1.0699113733
 10
53.4516579815
 20
-1.1339608973
 10
53.396053304
 20
-1.1970764313
 10
53.3381949849
 20
-1.2592579753
  0
LWPOLYLINE
  5
5EE
100
AcDbEntity
  8
RACCORDO
100
AcDbPolyline
 62
253
  6
CONTINUOUS
 90
10
 70
0
 10
54.0795770276
 20
-0.7785707109
 10
54.0746226338
 20
-0.7853470334
 10
54.0692783523
 20
-0.7920703682
 10
54.0635859704
 20
-0.798688145
 10
54.0575899975
 20
-0.8051486187
 10
54.0513373166
 20
-0.8114012743
 10
54.044876818
 20
-0.8173972219
 10
54.0382590169
 20
-0.8230895786
 10
54.0315356587
 20
-0.8284338355
 10
54.0247593139
 20
-0.8333882055
  0
LWPOLYLINE
  5
5EF
100
AcDbEntity
  8
RACCORDO
100
AcDbPolyline
 62
7
  6
CONTINUOUS
 90
4
 70
0
 10
54.1841925293
 20
-2.0835752218
 10
54.194636557
 20
-2.0713526891
 10
54.2028551068
 20
-2.0579050867
 10
54.2091871468
 20
-2.0423317523
  0
LINE
  5
5F0
100
AcDbEntity
  8
RACCORDO
100
AcDbLine
 62
253
  6
CONTINUOUS
 10
54.1866969105
 20
-2.0805444945
 11
54.1902184957
 21
-2.0770248168
  0
LWPOLYLINE
  5
5F1
100
AcDbEntity
  8
RACCORDO
100
AcDbPolyline
 62
7
  6
CONTINUOUS
 90
6
 70
0
 10
54.1807927721
 20
-2.0869888245
 10
54.1866969105
 20
-2.0805444945
 10
54.1966924233
 20
-2.0662653076
 10
54.204058124
 20
-2.050465971
 10
54.2085694194
 20
-2.033625951
 10
54.2100884579
 20
-2.0162566273
  0
LINE
  5
5F2
100
AcDbEntity
  8
RACCORDO
100
AcDbLine
 62
253
  6
CONTINUOUS
 10
54.1966973816
 20
3.6337129962
 11
54.2002134717
 21
3.6302044464
  0
LWPOLYLINE
  5
5F3
100
AcDbEntity
  8
RACCORDO
100
AcDbPolyline
 62
7
  6
CONTINUOUS
 90
10
 70
0
 10
53.6049500734
 20
2.5064667495
 10
53.6547572717
 20
2.4349637439
 10
53.6580528524
 20
2.4303953368
 10
53.6614270195
 20
2.4259102716
 10
53.6648796142
 20
2.4215061015
 10
53.6684107953
 20
2.4171859454
 10
53.6720210394
 20
2.4129585219
 10
53.6757105055
 20
2.4088269782
 10
53.6794790347
 20
2.4047888581
 10
53.6833266269
 20
2.4008444899
  0
LINE
  5
5F4
100
AcDbEntity
  8
RACCORDO
100
AcDbLine
 62
253
  6
CONTINUOUS
 10
53.9699418063
 20
-0.7237532032
 11
54.0247593139
 21
-0.83338821
  0
LWPOLYLINE
  5
5F5
100
AcDbEntity
  8
RACCORDO
100
AcDbPolyline
 62
7
  6
CONTINUOUS
 90
10
 70
0
 10
54.2095401187
 20
-1.1159824809
 10
54.2081375868
 20
-1.1128618184
 10
54.2067436221
 20
-1.1063991222
 10
54.2053582247
 20
-1.0965943925
 10
54.2039789885
 20
-1.083418138
 10
54.2026083195
 20
-1.0668998498
 10
54.2012534356
 20
-1.0471280013
 10
54.1999143925
 20
-1.0240851001
 10
54.1985911344
 20
-0.9977886386
 10
54.1972907122
 20
-0.968379567
  0
LINE
  5
5F6
100
AcDbEntity
  8
RACCORDO
100
AcDbLine
 62
7
  6
CONTINUOUS
 10
54.2135996114
 20
-1.1200419736
 11
54.213732257
 21
-1.1203466062
  0
LWPOLYLINE
  5
5F7
100
AcDbEntity
  8
RACCORDO
100
AcDbPolyline
 62
7
  6
CONTINUOUS
 90
10
 70
0
 10
53.2797381758
 20
2.9581064544
 10
53.2813676136
 20
2.9414006315
 10
53.2842788699
 20
2.9251527436
 10
53.2884719448
 20
2.9093793836
 10
53.2940340085
 20
2.8940540713
 10
53.3008778907
 20
2.8792334857
 10
53.3087420805
 20
2.8650605678
 10
53.3175394077
 20
2.8515945201
 10
53.3273570425
 20
2.8388077469
 10
53.3381949849
 20
2.8267142552
  0
LWPOLYLINE
  5
5F8
100
AcDbEntity
  8
RACCORDO
100
AcDbPolyline
 62
253
  6
CONTINUOUS
 90
10
 70
0
 10
54.1991970596
 20
3.5645848773
 10
54.1976190802
 20
3.5814876307
 10
54.1930655858
 20
3.5978792588
 10
54.1856742638
 20
3.6132641308
 10
54.1756686085
 20
3.6271770574
 10
54.1633511621
 20
3.6391973587
 10
54.1490943653
 20
3.6489615833
 10
54.1333292982
 20
3.6561744945
 10
54.1165326475
 20
3.6606179988
 10
54.0992122901
 20
3.6621577413
  0
LWPOLYLINE
  5
5F9
100
AcDbEntity
  8
RACCORDO
100
AcDbPolyline
 62
253
  6
CONTINUOUS
 90
10
 70
0
 10
54.2006038237
 20
3.574228273
 10
54.1990801164
 20
3.5915871951
 10
54.1945658563
 20
3.6084188534
 10
54.1871981658
 20
3.6242120238
 10
54.1772008348
 20
3.6384870253
 10
54.1648775187
 20
3.6508102951
 10
54.1506025121
 20
3.6608075537
 10
54.1348093875
 20
3.668175165
 10
54.1179778284
 20
3.6726893613
 10
54.1006190542
 20
3.6742130425
  0
LINE
  5
5FA
100
AcDbEntity
  8
RACCORDO
100
AcDbLine
 62
253
  6
CONTINUOUS
 10
54.2120851904
 20
3.5975679948
 11
54.2135996114
 21
3.5802017537
  0
LWPOLYLINE
  5
5FB
100
AcDbEntity
  8
RACCORDO
100
AcDbPolyline
 62
253
  6
CONTINUOUS
 90
7
 70
0
 10
54.1991970596
 20
-1.9971285975
 10
54.1994281708
 20
-1.9998682509
 10
54.1996606218
 20
-2.002154936
 10
54.1998944126
 20
-2.0039886528
 10
54.2001295432
 20
-2.0053694012
 10
54.2003660135
 20
-2.0062971813
 10
54.2006038237
 20
-2.0067719931
  0
LWPOLYLINE
  5
5FC
100
AcDbEntity
  8
RACCORDO
100
AcDbPolyline
 62
253
  6
CONTINUOUS
 90
6
 70
0
 10
54.0994443146
 20
-2.0981296999
 10
54.0996773875
 20
-2.1009943957
 10
54.0999113877
 20
-2.1032915672
 10
54.1001463151
 20
-2.1050187564
 10
54.1003821698
 20
-2.1061741607
 10
54.1006189518
 20
-2.1067566342
  0
LWPOLYLINE
  5
5FD
100
AcDbEntity
  8
RACCORDO
100
AcDbPolyline
 62
7
  6
CONTINUOUS
 90
10
 70
0
 10
53.097609128
 20
-2.0778905962
 10
53.0980397509
 20
-2.0837368476
 10
53.0984722615
 20
-2.0889511188
 10
53.0989066598
 20
-2.0935334098
 10
53.0993432268
 20
-2.0974858513
 10
53.0997816815
 20
-2.1008063127
 10
53.1002211808
 20
-2.1034884017
 10
53.1006614436
 20
-2.1055299875
 10
53.101102751
 20
-2.1069332009
 10
53.101545103
 20
-2.1076980418
  0
LWPOLYLINE
  5
5FE
100
AcDbEntity
  8
ASSI
100
AcDbPolyline
 62
7
  6
CONTINUOUS
 90
10
 70
0
 10
53.097609128
 20
-2.0778905962
 10
53.0980397509
 20
-2.0837368476
 10
53.0984722615
 20
-2.0889511188
 10
53.0989066598
 20
-2.0935334098
 10
53.0993432268
 20
-2.0974858513
 10
53.0997816815
 20
-2.1008063127
 10
53.1002211808
 20
-2.1034884017
 10
53.1006614436
 20
-2.1055299875
 10
53.101102751
 20
-2.1069332009
 10
53.101545103
 20
-2.1076980418
  0
LWPOLYLINE
  5
5FF
100
AcDbEntity
  8
RACCORDO
100
AcDbPolyline
 62
7
  6
CONTINUOUS
 90
4
 70
0
 10
54.2137411358
 20
3.5799299649
 10
54.2127412003
 20
3.5940542617
 10
54.2085058922
 20
3.6119065631
 10
54.2014782109
 20
3.6279849806
  0
LWPOLYLINE
  5
600
100
AcDbEntity
  8
RACCORDO
100
AcDbPolyline
 62
253
  6
CONTINUOUS
 90
22
 70
0
 10
54.1699113453
 20
-0.8968874887
 10
54.1693889977
 20
-0.8890389325
 10
54.1682581373
 20
-0.8814088642
 10
54.1665697344
 20
-0.8739972837
 10
54.164380558
 20
-0.8668049774
 10
54.1617375482
 20
-0.859831159
 10
54.1586650221
 20
-0.8530734692
 10
54.1551976211
 20
-0.8465309169
 10
54.1513751166
 20
-0.8402044932
 10
54.1472109629
 20
-0.8340948131
 10
54.1427296256
 20
-0.8281983208
 10
54.1379647439
 20
-0.822518572
 10
54.1329340178
 20
-0.8170668498
 10
54.1276611063
 20
-0.8118440289
 10
54.1221734467
 20
-0.8068492346
 10
54.1164905541
 20
-0.8020911249
 10
54.1106325287
 20
-0.7975710843
 10
54.1046249039
 20
-0.7932877285
 10
54.0984940065
 20
-0.7892455626
 10
54.0922628573
 20
-0.7854460887
 10
54.0859505803
 20
-0.7818878047
 10
54.079576813
 20
-0.7785707109
  0
LWPOLYLINE
  5
601
100
AcDbEntity
  8
RACCORDO
100
AcDbPolyline
 62
7
  6
CONTINUOUS
 90
11
 70
0
 10
53.0983467608
 20
-0.9389528139
 10
53.0994759859
 20
-0.9629044012
 10
53.100620112
 20
-0.9844180204
 10
53.1017790563
 20
-1.0035032537
 10
53.1029479722
 20
-1.020080092
 10
53.1041268089
 20
-1.0341379009
 10
53.1053156172
 20
-1.0456873148
 10
53.106509702
 20
-1.0546802283
 10
53.1077074985
 20
-1.061100606
 10
53.1089105715
 20
-1.0649644833
 10
53.1101189212
 20
-1.0662718601
  0
LWPOLYLINE
  5
602
100
AcDbEntity
  8
ASSI
100
AcDbPolyline
 62
7
  6
CONTINUOUS
 90
11
 70
0
 10
53.0983467608
 20
-0.9389528139
 10
53.0994759859
 20
-0.9629044012
 10
53.100620112
 20
-0.9844180204
 10
53.1017790563
 20
-1.0035032537
 10
53.1029479722
 20
-1.020080092
 10
53.1041268089
 20
-1.0341379009
 10
53.1053156172
 20
-1.0456873148
 10
53.106509702
 20
-1.0546802283
 10
53.1077074985
 20
-1.061100606
 10
53.1089105715
 20
-1.0649644833
 10
53.1101189212
 20
-1.0662718601
  0
LWPOLYLINE
  5
603
100
AcDbEntity
  8
RACCORDO
100
AcDbPolyline
 62
253
  6
CONTINUOUS
 90
5
 70
0
 10
54.1899496458
 20
-1.8224511888
 10
54.1921609369
 20
-1.8747674465
 10
54.1944404568
 20
-1.9212840788
 10
54.1967858311
 20
-1.9620711292
 10
54.1991970596
 20
-1.9971285975
  0
LWPOLYLINE
  5
604
100
AcDbEntity
  8
RACCORDO
100
AcDbPolyline
 62
253
  6
CONTINUOUS
 90
5
 70
0
 10
54.08997908
 20
-1.9140779148
 10
54.0921911166
 20
-1.9683960225
 10
54.0944679692
 20
-2.0168804518
 10
54.0968083132
 20
-2.0590807505
 10
54.0994443146
 20
-2.0981296999
  0
LWPOLYLINE
  5
605
100
AcDbEntity
  8
RACCORDO
100
AcDbPolyline
 62
7
  6
CONTINUOUS
 90
5
 70
0
 10
53.0874413939
 20
-1.8647130259
 10
53.0899082949
 20
-1.9295441119
 10
53.0924213253
 20
-1.9865698146
 10
53.0949882696
 20
-2.0360186427
 10
53.097609128
 20
-2.0778905962
  0
LWPOLYLINE
  5
606
100
AcDbEntity
  8
ASSI
100
AcDbPolyline
 62
7
  6
CONTINUOUS
 90
5
 70
0
 10
53.0874413939
 20
-1.8647130259
 10
53.0899082949
 20
-1.9295441119
 10
53.0924213253
 20
-1.9865698146
 10
53.0949882696
 20
-2.0360186427
 10
53.097609128
 20
-2.0778905962
  0
LINE
  5
607
100
AcDbEntity
  8
RACCORDO
100
AcDbLine
 62
7
  6
CONTINUOUS
 10
53.0961373635
 20
-0.8838732367
 11
53.0983467608
 21
-0.9389528139
  0
LINE
  5
608
100
AcDbEntity
  8
ASSI
100
AcDbLine
 62
7
  6
CONTINUOUS
 10
53.0961373635
 20
-0.8838732367
 11
53.0983467608
 21
-0.9389528139
  0
LINE
  5
609
100
AcDbEntity
  8
RACCORDO
100
AcDbLine
 62
7
  6
CONTINUOUS
 10
54.1972907122
 20
-0.968379567
 11
54.1947586346
 21
-0.9001907333
  0
LINE
  5
60A
100
AcDbEntity
  8
RACCORDO
100
AcDbLine
 62
253
  6
CONTINUOUS
 10
54.1857175028
 20
-1.7008400573
 11
54.1899496458
 21
-1.8224511888
  0
LINE
  5
60B
100
AcDbEntity
  8
RACCORDO
100
AcDbLine
 62
253
  6
CONTINUOUS
 10
54.085741507
 20
-1.7883126949
 11
54.08997908
 21
-1.9140779148
  0
LINE
  5
60C
100
AcDbEntity
  8
RACCORDO
100
AcDbLine
 62
7
  6
CONTINUOUS
 10
53.0940057862
 20
-0.8194964833
 11
53.0961373635
 21
-0.8838732367
  0
LINE
  5
60D
100
AcDbEntity
  8
ASSI
100
AcDbLine
 62
7
  6
CONTINUOUS
 10
53.0940057862
 20
-0.8194964833
 11
53.0961373635
 21
-0.8838732367
  0
LINE
  5
60E
100
AcDbEntity
  8
ASSI
100
AcDbLine
 62
7
  6
CONTINUOUS
 10
53.2562779907
 20
2.1484625356
 11
53.2620640222
 21
1.9658109553
  0
LINE
  5
60F
100
AcDbEntity
  8
RACCORDO
100
AcDbLine
 62
7
  6
CONTINUOUS
 10
53.0826926877
 20
-1.7130057566
 11
53.0874413939
 21
-1.8647130259
  0
LINE
  5
610
100
AcDbEntity
  8
ASSI
100
AcDbLine
 62
7
  6
CONTINUOUS
 10
53.0826926877
 20
-1.7130057566
 11
53.0874413939
 21
-1.8647130259
  0
LINE
  5
611
100
AcDbEntity
  8
RACCORDO
100
AcDbLine
 62
7
  6
CONTINUOUS
 10
54.1947586346
 20
-0.9001907333
 11
54.192338045
 21
-0.8201067881
  0
LINE
  5
612
100
AcDbEntity
  8
RACCORDO
100
AcDbLine
 62
7
  6
CONTINUOUS
 10
53.0919650687
 20
-0.7462425773
 11
53.0940057862
 21
-0.8194964833
  0
LINE
  5
613
100
AcDbEntity
  8
ASSI
100
AcDbLine
 62
7
  6
CONTINUOUS
 10
53.0919650687
 20
-0.7462425773
 11
53.0940057862
 21
-0.8194964833
  0
LINE
  5
614
100
AcDbEntity
  8
RACCORDO
100
AcDbLine
 62
253
  6
CONTINUOUS
 10
54.1817096836
 20
-1.5570400004
 11
54.1857175028
 21
-1.7008400573
  0
LINE
  5
615
100
AcDbEntity
  8
RACCORDO
100
AcDbLine
 62
253
  6
CONTINUOUS
 10
54.0817346975
 20
-1.6396427296
 11
54.085741507
 21
-1.7883126949
  0
LINE
  5
616
100
AcDbEntity
  8
RACCORDO
100
AcDbLine
 62
7
  6
CONTINUOUS
 10
53.0782566489
 20
-1.5336439002
 11
53.0826926877
 21
-1.7130057566
  0
LINE
  5
617
100
AcDbEntity
  8
ASSI
100
AcDbLine
 62
7
  6
CONTINUOUS
 10
53.0782566489
 20
-1.5336439002
 11
53.0826926877
 21
-1.7130057566
  0
LINE
  5
618
100
AcDbEntity
  8
ASSI
100
AcDbLine
 62
7
  6
CONTINUOUS
 10
53.2620640222
 20
1.9658109553
 11
53.2669898887
 21
1.7623777719
  0
LINE
  5
619
100
AcDbEntity
  8
RACCORDO
100
AcDbLine
 62
7
  6
CONTINUOUS
 10
54.192338045
 20
-0.8201067881
 11
54.1889473782
 21
-0.6787351431
  0
LINE
  5
61A
100
AcDbEntity
  8
RACCORDO
100
AcDbLine
 62
7
  6
CONTINUOUS
 10
53.0890961267
 20
-0.6205208791
 11
53.0919650687
 21
-0.7462425773
  0
LINE
  5
61B
100
AcDbEntity
  8
ASSI
100
AcDbLine
 62
7
  6
CONTINUOUS
 10
53.0890961267
 20
-0.6205208791
 11
53.0919650687
 21
-0.7462425773
  0
LINE
  5
61C
100
AcDbEntity
  8
RACCORDO
100
AcDbLine
 62
253
  6
CONTINUOUS
 10
54.1761883473
 20
-1.3020332611
 11
54.1817096836
 21
-1.5570400004
  0
LINE
  5
61D
100
AcDbEntity
  8
RACCORDO
100
AcDbLine
 62
253
  6
CONTINUOUS
 10
54.07617403
 20
-1.3753006459
 11
54.0817346975
 21
-1.6396427296
  0
LINE
  5
61E
100
AcDbEntity
  8
RACCORDO
100
AcDbLine
 62
7
  6
CONTINUOUS
 10
53.0723018361
 20
-1.2183781234
 11
53.0782566489
 21
-1.5336439002
  0
LINE
  5
61F
100
AcDbEntity
  8
ASSI
100
AcDbLine
 62
7
  6
CONTINUOUS
 10
53.0723018361
 20
-1.2183781234
 11
53.0782566489
 21
-1.5336439002
  0
LINE
  5
620
100
AcDbEntity
  8
RACCORDO
100
AcDbLine
 62
7
  6
CONTINUOUS
 10
53.2669898887
 20
1.7623777719
 11
53.2679625575
 21
1.7089694622
  0
LINE
  5
621
100
AcDbEntity
  8
RACCORDO
100
AcDbLine
 62
7
  6
CONTINUOUS
 10
54.1889473782
 20
-0.6787351431
 11
54.1858952253
 21
-0.5139776433
  0
LINE
  5
622
100
AcDbEntity
  8
RACCORDO
100
AcDbLine
 62
7
  6
CONTINUOUS
 10
53.0890961267
 20
-0.6205208791
 11
53.0862813209
 21
-0.4613771514
  0
LINE
  5
623
100
AcDbEntity
  8
ASSI
100
AcDbLine
 62
7
  6
CONTINUOUS
 10
53.0890961267
 20
-0.6205208791
 11
53.0862813209
 21
-0.4613771514
  0
LWPOLYLINE
  5
624
100
AcDbEntity
  8
RACCORDO
100
AcDbPolyline
 62
253
  6
CONTINUOUS
 90
3
 70
0
 10
54.1699113453
 20
-0.8968889811
 10
54.1713589663
 20
-1.0048848775
 10
54.1761883473
 20
-1.3020332611
  0
LINE
  5
625
100
AcDbEntity
  8
RACCORDO
100
AcDbLine
 62
7
  6
CONTINUOUS
 10
54.1858952253
 20
-0.5139776433
 11
54.1824390039
 21
-0.262819577
  0
LINE
  5
626
100
AcDbEntity
  8
RACCORDO
100
AcDbLine
 62
7
  6
CONTINUOUS
 10
53.2679625575
 20
1.7089694622
 11
53.2687006064
 21
1.6529153833
  0
LINE
  5
627
100
AcDbEntity
  8
RACCORDO
100
AcDbLine
 62
7
  6
CONTINUOUS
 10
53.0689521586
 20
-0.975107159
 11
53.0723018361
 21
-1.2183781234
  0
LINE
  5
628
100
AcDbEntity
  8
ASSI
100
AcDbLine
 62
7
  6
CONTINUOUS
 10
53.0689521586
 20
-0.975107159
 11
53.0723018361
 21
-1.2183781234
  0
LWPOLYLINE
  5
629
100
AcDbEntity
  8
RACCORDO
100
AcDbPolyline
 62
253
  6
CONTINUOUS
 90
3
 70
0
 10
54.0703812324
 20
-0.9596521021
 10
54.0716265856
 20
-1.0692877726
 10
54.07617403
 20
-1.3753006459
  0
LINE
  5
62A
100
AcDbEntity
  8
RACCORDO
100
AcDbLine
 62
7
  6
CONTINUOUS
 10
53.0862813209
 20
-0.4613771514
 11
53.0838362822
 21
-0.2419983962
  0
LINE
  5
62B
100
AcDbEntity
  8
ASSI
100
AcDbLine
 62
7
  6
CONTINUOUS
 10
53.0862813209
 20
-0.4613771514
 11
53.0838362822
 21
-0.2419983962
  0
LINE
  5
62C
100
AcDbEntity
  8
RACCORDO
100
AcDbLine
 62
7
  6
CONTINUOUS
 10
53.2687006064
 20
1.6529153833
 11
53.2692010214
 21
1.59452809
  0
LINE
  5
62D
100
AcDbEntity
  8
RACCORDO
100
AcDbLine
 62
7
  6
CONTINUOUS
 10
54.1824390039
 20
-0.262819577
 11
54.1810070189
 21
-0.1138606331
  0
LINE
  5
62E
100
AcDbEntity
  8
RACCORDO
100
AcDbLine
 62
7
  6
CONTINUOUS
 10
53.0673030695
 20
-0.7653187728
 11
53.0689521586
 21
-0.975107159
  0
LINE
  5
62F
100
AcDbEntity
  8
ASSI
100
AcDbLine
 62
7
  6
CONTINUOUS
 10
53.0673030695
 20
-0.7653187728
 11
53.0689521586
 21
-0.975107159
  0
LINE
  5
630
100
AcDbEntity
  8
RACCORDO
100
AcDbLine
 62
7
  6
CONTINUOUS
 10
53.0838362822
 20
-0.2419983962
 11
53.0824608387
 21
0.0067640953
  0
LINE
  5
631
100
AcDbEntity
  8
ASSI
100
AcDbLine
 62
7
  6
CONTINUOUS
 10
53.0838362822
 20
-0.2419983962
 11
53.0824608387
 21
0.0067640953
  0
LINE
  5
632
100
AcDbEntity
  8
RACCORDO
100
AcDbLine
 62
7
  6
CONTINUOUS
 10
54.1810070189
 20
-0.1138606331
 11
54.1805087421
 21
0.002498849
  0
LINE
  5
633
100
AcDbEntity
  8
RACCORDO
100
AcDbLine
 62
7
  6
CONTINUOUS
 10
53.2692010214
 20
1.59452809
 11
53.2694842293
 21
1.504838395
  0
LINE
  5
634
100
AcDbEntity
  8
RACCORDO
100
AcDbLine
 62
7
  6
CONTINUOUS
 10
53.0664812589
 20
-0.4622654395
 11
53.0673030695
 21
-0.7653187728
  0
LINE
  5
635
100
AcDbEntity
  8
ASSI
100
AcDbLine
 62
7
  6
CONTINUOUS
 10
53.0664812589
 20
-0.4622654395
 11
53.0673030695
 21
-0.7653187728
  0
LINE
  5
636
100
AcDbEntity
  8
DRAFT
100
AcDbLine
 62
7
  6
CONTINUOUS
 10
53.1101189212
 20
-2.1162718601
 11
53.1101189212
 21
-1.0662718601
  0
LINE
  5
637
100
AcDbEntity
  8
ASSI
100
AcDbLine
 62
7
  6
CONTINUOUS
 10
53.1101189212
 20
-2.1162718601
 11
53.1101189212
 21
-1.0662718601
  0
LINE
  5
638
100
AcDbEntity
  8
DRAFT
100
AcDbLine
 62
7
  6
CONTINUOUS
 10
53.1101189212
 20
2.6337281399
 11
53.1101189212
 21
3.6837281399
  0
LINE
  5
639
100
AcDbEntity
  8
ASSI
100
AcDbLine
 62
7
  6
CONTINUOUS
 10
53.1101189212
 20
2.6337281399
 11
53.1101189212
 21
3.6837281399
  0
LINE
  5
63A
100
AcDbEntity
  8
ASSI
100
AcDbLine
 62
253
  6
CONTINUOUS
 10
53.1135500437
 20
-2.1162718601
 11
53.1135500437
 21
-1.0662718601
  0
LINE
  5
63B
100
AcDbEntity
  8
ASSI
100
AcDbLine
 62
253
  6
CONTINUOUS
 10
53.1135500437
 20
2.6337281399
 11
53.1135500437
 21
3.6837281399
  0
LINE
  5
63C
100
AcDbEntity
  8
ASSI
100
AcDbLine
 62
253
  6
CONTINUOUS
 10
53.2134891264
 20
3.6820435507
 11
53.2134891264
 21
2.6812754543
  0
LINE
  5
63D
100
AcDbEntity
  8
ASSI
100
AcDbLine
 62
7
  6
CONTINUOUS
 10
53.2134891264
 20
2.6812754543
 11
53.2134891264
 21
2.6217559602
  0
LINE
  5
63E
100
AcDbEntity
  8
ASSI
100
AcDbLine
 62
7
  6
CONTINUOUS
 10
53.2134891264
 20
-1.0542996798
 11
53.2134891264
 21
-1.1138191744
  0
LINE
  5
63F
100
AcDbEntity
  8
ASSI
100
AcDbLine
 62
253
  6
CONTINUOUS
 10
53.2134891264
 20
-1.1138191744
 11
53.2134891264
 21
-2.1145872709
  0
LINE
  5
640
100
AcDbEntity
  8
RACCORDO
100
AcDbLine
 62
253
  6
CONTINUOUS
 10
53.2797381758
 20
2.9581064544
 11
53.2797381758
 21
-1.3906501745
  0
LINE
  5
641
100
AcDbEntity
  8
RACCORDO
100
AcDbLine
 62
253
  6
CONTINUOUS
 10
53.3381949849
 20
2.8267142552
 11
53.3381949849
 21
-1.2592579753
  0
LINE
  5
642
100
AcDbEntity
  8
RACCORDO
100
AcDbLine
 62
253
  6
CONTINUOUS
 10
53.6515402774
 20
2.4396151413
 11
53.6515402774
 21
-0.8721588614
  0
LINE
  5
643
100
AcDbEntity
  8
RACCORDO
100
AcDbLine
 62
253
  6
CONTINUOUS
 10
53.7929616337
 20
2.2912094831
 11
53.7929616337
 21
-0.7237532032
  0
LINE
  5
644
100
AcDbEntity
  8
RACCORDO
100
AcDbLine
 62
253
  6
CONTINUOUS
 10
53.9699418063
 20
-0.7237532032
 11
53.9699418063
 21
2.2912094831
  0
LINE
  5
645
100
AcDbEntity
  8
RACCORDO
100
AcDbLine
 62
253
  6
CONTINUOUS
 10
54.1699113453
 20
-0.8968889811
 11
54.1699113453
 21
2.46434105
  0
LINE
  5
646
100
AcDbEntity
  8
RACCORDO
100
AcDbLine
 62
7
  6
CONTINUOUS
 10
54.2137519163
 20
-2.0124715027
 11
54.2137519163
 21
-1.1203466064
  0
LINE
  5
647
100
AcDbEntity
  8
RACCORDO
100
AcDbLine
 62
7
  6
CONTINUOUS
 10
54.2137519163
 20
2.6878028863
 11
54.2137519163
 21
3.579927657
  0
LINE
  5
648
100
AcDbEntity
  8
RACCORDO
100
AcDbLine
 62
7
  6
CONTINUOUS
 10
54.1805087421
 20
0.002498849
 11
54.1804615508
 21
1.5350595209
  0
LINE
  5
649
100
AcDbEntity
  8
RACCORDO
100
AcDbLine
 62
7
  6
CONTINUOUS
 10
53.0824608387
 20
0.0067640953
 11
53.0822617252
 21
1.4742359555
  0
LINE
  5
64A
100
AcDbEntity
  8
ASSI
100
AcDbLine
 62
7
  6
CONTINUOUS
 10
53.0824608387
 20
0.0067640953
 11
53.0822617252
 21
1.4742359555
  0
LINE
  5
64B
100
AcDbEntity
  8
RACCORDO
100
AcDbLine
 62
7
  6
CONTINUOUS
 10
53.2694842293
 20
1.504838395
 11
53.2693573441
 21
0.0025019136
  0
LINE
  5
64C
100
AcDbEntity
  8
RACCORDO
100
AcDbLine
 62
7
  6
CONTINUOUS
 10
53.0669450928
 20
2.2587193942
 11
53.0664812589
 21
-0.4622654395
  0
LINE
  5
64D
100
AcDbEntity
  8
ASSI
100
AcDbLine
 62
7
  6
CONTINUOUS
 10
53.0669450928
 20
2.2587193942
 11
53.0664812589
 21
-0.4622654395
  0
LINE
  5
64E
100
AcDbEntity
  8
RACCORDO
100
AcDbLine
 62
7
  6
CONTINUOUS
 10
54.1804615508
 20
1.5350595209
 11
54.1808370313
 21
1.6529203837
  0
LINE
  5
64F
100
AcDbEntity
  8
RACCORDO
100
AcDbLine
 62
7
  6
CONTINUOUS
 10
53.0822617252
 20
1.4742359555
 11
53.0832481172
 21
1.7283015449
  0
LINE
  5
650
100
AcDbEntity
  8
ASSI
100
AcDbLine
 62
7
  6
CONTINUOUS
 10
53.0822617252
 20
1.4742359555
 11
53.0832481172
 21
1.7283015449
  0
LINE
  5
651
100
AcDbEntity
  8
RACCORDO
100
AcDbLine
 62
7
  6
CONTINUOUS
 10
53.2693573441
 20
0.0025019136
 11
53.2689817739
 21
-0.0564268774
  0
LINE
  5
652
100
AcDbEntity
  8
RACCORDO
100
AcDbLine
 62
7
  6
CONTINUOUS
 10
53.0683119773
 20
2.4755505965
 11
53.0669450928
 21
2.2587193942
  0
LINE
  5
653
100
AcDbEntity
  8
ASSI
100
AcDbLine
 62
7
  6
CONTINUOUS
 10
53.0683119773
 20
2.4755505965
 11
53.0669450928
 21
2.2587193942
  0
LINE
  5
654
100
AcDbEntity
  8
RACCORDO
100
AcDbLine
 62
7
  6
CONTINUOUS
 10
54.1808370313
 20
1.6529203837
 11
54.1816921012
 21
1.7623777719
  0
LINE
  5
655
100
AcDbEntity
  8
RACCORDO
100
AcDbLine
 62
7
  6
CONTINUOUS
 10
53.0832481172
 20
1.7283015449
 11
53.0853528841
 21
1.9597206193
  0
LINE
  5
656
100
AcDbEntity
  8
ASSI
100
AcDbLine
 62
7
  6
CONTINUOUS
 10
53.0832481172
 20
1.7283015449
 11
53.0853528841
 21
1.9597206193
  0
LINE
  5
657
100
AcDbEntity
  8
RACCORDO
100
AcDbLine
 62
7
  6
CONTINUOUS
 10
53.2689817739
 20
-0.0564268774
 11
53.2683605327
 21
-0.1138559334
  0
LINE
  5
658
100
AcDbEntity
  8
RACCORDO
100
AcDbLine
 62
7
  6
CONTINUOUS
 10
53.0705093508
 20
2.6686927858
 11
53.0683119773
 21
2.4755505965
  0
LINE
  5
659
100
AcDbEntity
  8
ASSI
100
AcDbLine
 62
7
  6
CONTINUOUS
 10
53.0705093508
 20
2.6686927858
 11
53.0683119773
 21
2.4755505965
  0
LINE
  5
65A
100
AcDbEntity
  8
RACCORDO
100
AcDbLine
 62
7
  6
CONTINUOUS
 10
54.1816921012
 20
1.7623777719
 11
54.1849606929
 21
2.0216975246
  0
LINE
  5
65B
100
AcDbEntity
  8
RACCORDO
100
AcDbLine
 62
7
  6
CONTINUOUS
 10
53.0853528841
 20
1.9597206193
 11
53.0873246599
 21
2.0941369618
  0
LINE
  5
65C
100
AcDbEntity
  8
ASSI
100
AcDbLine
 62
7
  6
CONTINUOUS
 10
53.0853528841
 20
1.9597206193
 11
53.0873246599
 21
2.0941369618
  0
LWPOLYLINE
  5
65D
100
AcDbEntity
  8
RACCORDO
100
AcDbPolyline
 62
7
  6
CONTINUOUS
 90
3
 70
0
 10
53.2683605327
 20
-0.1138559334
 10
53.2675056761
 20
-0.1685350352
 10
53.2669898887
 20
-0.194921492
  0
LINE
  5
65E
100
AcDbEntity
  8
RACCORDO
100
AcDbLine
 62
253
  6
CONTINUOUS
 10
54.0755903187
 20
2.9082408036
 11
54.0699267046
 21
2.5233137557
  0
LINE
  5
65F
100
AcDbEntity
  8
RACCORDO
100
AcDbLine
 62
253
  6
CONTINUOUS
 10
54.1755736201
 20
2.8360985257
 11
54.1699113453
 21
2.46434105
  0
LINE
  5
660
100
AcDbEntity
  8
RACCORDO
100
AcDbLine
 62
7
  6
CONTINUOUS
 10
54.1849606929
 20
2.0216975246
 11
54.1878890033
 21
2.193704521
  0
LINE
  5
661
100
AcDbEntity
  8
RACCORDO
100
AcDbLine
 62
7
  6
CONTINUOUS
 10
53.0761724918
 20
3.0019015474
 11
53.0705093508
 21
2.6686927858
  0
LINE
  5
662
100
AcDbEntity
  8
ASSI
100
AcDbLine
 62
7
  6
CONTINUOUS
 10
53.0761724918
 20
3.0019015474
 11
53.0705093508
 21
2.6686927858
  0
LINE
  5
663
100
AcDbEntity
  8
RACCORDO
100
AcDbLine
 62
7
  6
CONTINUOUS
 10
53.0900236455
 20
2.2318669462
 11
53.0873246599
 21
2.0941369618
  0
LINE
  5
664
100
AcDbEntity
  8
ASSI
100
AcDbLine
 62
7
  6
CONTINUOUS
 10
53.0900236455
 20
2.2318669462
 11
53.0873246599
 21
2.0941369618
  0
LINE
  5
665
100
AcDbEntity
  8
RACCORDO
100
AcDbLine
 62
253
  6
CONTINUOUS
 10
54.0801235042
 20
3.1378359713
 11
54.0755903187
 21
2.9082408036
  0
LINE
  5
666
100
AcDbEntity
  8
RACCORDO
100
AcDbLine
 62
253
  6
CONTINUOUS
 10
54.1801054413
 20
3.0579129963
 11
54.1755736201
 21
2.8360985257
  0
LINE
  5
667
100
AcDbEntity
  8
RACCORDO
100
AcDbLine
 62
7
  6
CONTINUOUS
 10
53.0804360344
 20
3.1942267824
 11
53.0761724918
 21
3.0019015474
  0
LINE
  5
668
100
AcDbEntity
  8
ASSI
100
AcDbLine
 62
7
  6
CONTINUOUS
 10
53.0804360344
 20
3.1942267824
 11
53.0761724918
 21
3.0019015474
  0
LINE
  5
669
100
AcDbEntity
  8
RACCORDO
100
AcDbLine
 62
7
  6
CONTINUOUS
 10
54.1878890033
 20
2.193704521
 11
54.1911725875
 21
2.3431502665
  0
LINE
  5
66A
100
AcDbEntity
  8
RACCORDO
100
AcDbLine
 62
253
  6
CONTINUOUS
 10
54.0835082955
 20
3.276762975
 11
54.0801235042
 21
3.1378359713
  0
LINE
  5
66B
100
AcDbEntity
  8
ASSI
100
AcDbLine
 62
7
  6
CONTINUOUS
 10
53.2669898887
 20
-0.194921492
 11
53.2620640241
 21
-0.398354604
  0
LINE
  5
66C
100
AcDbEntity
  8
RACCORDO
100
AcDbLine
 62
7
  6
CONTINUOUS
 10
53.0929734565
 20
2.35142051
 11
53.0900236455
 21
2.2318669462
  0
LINE
  5
66D
100
AcDbEntity
  8
ASSI
100
AcDbLine
 62
7
  6
CONTINUOUS
 10
53.0929734565
 20
2.35142051
 11
53.0900236455
 21
2.2318669462
  0
LINE
  5
66E
100
AcDbEntity
  8
RACCORDO
100
AcDbLine
 62
253
  6
CONTINUOUS
 10
54.1834920136
 20
3.1922151594
 11
54.1801054413
 21
3.0579129963
  0
LINE
  5
66F
100
AcDbEntity
  8
RACCORDO
100
AcDbLine
 62
7
  6
CONTINUOUS
 10
54.1911725875
 20
2.3431502665
 11
54.1935340616
 21
2.4290921237
  0
LINE
  5
670
100
AcDbEntity
  8
RACCORDO
100
AcDbLine
 62
253
  6
CONTINUOUS
 10
54.087071595
 20
3.3985079111
 11
54.0835082955
 21
3.276762975
  0
LINE
  5
671
100
AcDbEntity
  8
RACCORDO
100
AcDbLine
 62
7
  6
CONTINUOUS
 10
53.0950618305
 20
2.4202998662
 11
53.0929734565
 21
2.35142051
  0
LINE
  5
672
100
AcDbEntity
  8
ASSI
100
AcDbLine
 62
7
  6
CONTINUOUS
 10
53.0950618305
 20
2.4202998662
 11
53.0929734565
 21
2.35142051
  0
LINE
  5
673
100
AcDbEntity
  8
RACCORDO
100
AcDbLine
 62
253
  6
CONTINUOUS
 10
54.187057852
 20
3.3099157901
 11
54.1834920136
 21
3.1922151594
  0
LWPOLYLINE
  5
674
100
AcDbEntity
  8
ASSI
100
AcDbPolyline
 62
7
  6
CONTINUOUS
 90
13
 70
0
 10
53.2620640241
 20
-0.398354604
 10
53.2562779955
 20
-0.5810061219
 10
53.2530606324
 20
-0.6645878746
 10
53.249674698
 20
-0.7416978525
 10
53.2461186125
 20
-0.8122186016
 10
53.2423939557
 20
-0.876267576
 10
53.2385483623
 20
-0.9330189446
 10
53.2345807208
 20
-0.9823754529
 10
53.2304921429
 20
-1.0244343554
 10
53.2263335975
 20
-1.0586615855
 10
53.2221220745
 20
-1.0848791209
 10
53.2178405842
 20
-1.1032649839
 10
53.2134891264
 20
-1.1138191744
  0
LWPOLYLINE
  5
675
100
AcDbEntity
  8
RACCORDO
100
AcDbPolyline
 62
7
  6
CONTINUOUS
 90
12
 70
0
 10
54.1935340616
 20
2.4290921237
 10
54.1960137655
 20
2.5033114798
 10
54.1972911812
 20
2.5358471185
 10
54.1985915481
 20
2.5652537866
 10
54.1999147388
 20
2.5915478545
 10
54.2012537143
 20
2.6145887103
 10
54.2026085305
 20
2.6343589804
 10
54.2039791316
 20
2.6508760385
 10
54.2053583116
 20
2.6640513947
 10
54.2067436684
 20
2.673855552
 10
54.2081376041
 20
2.6803180074
 10
54.2095401187
 20
2.6834387607
  0
LINE
  5
676
100
AcDbEntity
  8
RACCORDO
100
AcDbLine
 62
253
  6
CONTINUOUS
 10
54.0896195183
 20
3.4720132523
 11
54.087071595
 21
3.3985079111
  0
LINE
  5
677
100
AcDbEntity
  8
RACCORDO
100
AcDbLine
 62
253
  6
CONTINUOUS
 10
54.1896055582
 20
3.3809013104
 11
54.187057852
 21
3.3099157901
  0
LWPOLYLINE
  5
678
100
AcDbEntity
  8
RACCORDO
100
AcDbPolyline
 62
7
  6
CONTINUOUS
 90
10
 70
0
 10
53.2797381758
 20
-1.3906501745
 10
53.275207972
 20
-1.5027742768
 10
53.2704882617
 20
-1.6066494856
 10
53.2655790447
 20
-1.702275801
 10
53.2604607361
 20
-1.7899533865
 10
53.2551529209
 20
-1.8693820786
 10
53.2497143541
 20
-1.9396613868
 10
53.2441646205
 20
-2.0004911477
 10
53.2384841352
 20
-2.0521715248
 10
53.2326728982
 20
-2.0947025181
  0
LWPOLYLINE
  5
679
100
AcDbEntity
  8
RACCORDO
100
AcDbPolyline
 62
7
  6
CONTINUOUS
 90
7
 70
0
 10
53.097609128
 20
3.6453468761
 10
53.0949882696
 20
3.6034749226
 10
53.0924213253
 20
3.5540260944
 10
53.0899082949
 20
3.4970003918
 10
53.0874413939
 20
3.4321693058
 10
53.0850284068
 20
3.3597613453
 10
53.0804360344
 20
3.1942267824
  0
LWPOLYLINE
  5
67A
100
AcDbEntity
  8
ASSI
100
AcDbPolyline
 62
7
  6
CONTINUOUS
 90
7
 70
0
 10
53.097609128
 20
3.6453468761
 10
53.0949882696
 20
3.6034749226
 10
53.0924213253
 20
3.5540260944
 10
53.0899082949
 20
3.4970003918
 10
53.0874413939
 20
3.4321693058
 10
53.0850284068
 20
3.3597613453
 10
53.0804360344
 20
3.1942267824
  0
LWPOLYLINE
  5
67B
100
AcDbEntity
  8
RACCORDO
100
AcDbPolyline
 62
253
  6
CONTINUOUS
 90
7
 70
0
 10
54.0994443451
 20
3.6655863918
 10
54.0977684454
 20
3.6416223937
 10
54.0963499568
 20
3.6187605565
 10
54.0949567462
 20
3.5936585034
 10
54.0935909145
 20
3.5664656185
 10
54.0922503608
 20
3.537216341
 10
54.0896195183
 20
3.4720132523
  0
LWPOLYLINE
  5
67C
100
AcDbEntity
  8
RACCORDO
100
AcDbPolyline
 62
253
  6
CONTINUOUS
 90
7
 70
0
 10
54.1991970596
 20
3.5645848773
 10
54.19775413
 20
3.5446211045
 10
54.1963362128
 20
3.5225726989
 10
54.194943308
 20
3.4984396607
 10
54.1935773893
 20
3.472220077
 10
54.192236483
 20
3.4439158606
 10
54.1896055582
 20
3.3809013104
  0
LINE
  5
67D
100
AcDbEntity
  8
RACCORDO
100
AcDbLine
 62
253
  6
CONTINUOUS
 10
54.2120853196
 20
-2.0301109806
 11
54.2135996114
 21
-2.0127454737
  0
LWPOLYLINE
  5
67E
100
AcDbEntity
  8
RACCORDO
100
AcDbPolyline
 62
253
  6
CONTINUOUS
 90
10
 70
0
 10
54.2006038237
 20
-2.0067719931
 10
54.1990801307
 20
-2.0241308345
 10
54.1945659048
 20
-2.0409624404
 10
54.1871982555
 20
-2.0567555886
 10
54.1772009585
 20
-2.071030598
 10
54.1648776591
 20
-2.0833538974
 10
54.1506026497
 20
-2.0933511944
 10
54.1348095015
 20
-2.1007188437
 10
54.1179778957
 20
-2.1052330695
 10
54.1006190542
 20
-2.1067567626
  0
LWPOLYLINE
  5
67F
100
AcDbEntity
  8
RACCORDO
100
AcDbPolyline
 62
253
  6
CONTINUOUS
 90
10
 70
0
 10
54.1991970596
 20
-1.9971285975
 10
54.1976189608
 20
-2.0140311617
 10
54.1930653881
 20
-2.0304225963
 10
54.1856740254
 20
-2.0458072814
 10
54.1756683618
 20
-2.0597200379
 10
54.1633509336
 20
-2.0717401925
 10
54.149094177
 20
-2.0815042978
 10
54.1333291663
 20
-2.0887171212
 10
54.1165325807
 20
-2.0931605721
 10
54.0992122901
 20
-2.0947002962
  0
LWPOLYLINE
  5
680
100
AcDbEntity
  8
RACCORDO
100
AcDbPolyline
 62
7
  6
CONTINUOUS
 90
10
 70
0
 10
53.2326728982
 20
-2.0947025181
 10
53.2322868471
 20
-2.097051818
 10
53.2318994358
 20
-2.0991491519
 10
53.2315106644
 20
-2.1009945198
 10
53.2311203314
 20
-2.1025886135
 10
53.2307286383
 20
-2.1039307412
 10
53.2303361897
 20
-2.1050188275
 10
53.2299431872
 20
-2.1058521806
 10
53.2295494293
 20
-2.1064314923
 10
53.229154916
 20
-2.1067567626
  0
LWPOLYLINE
  5
681
100
AcDbEntity
  8
RACCORDO
100
AcDbPolyline
 62
253
  6
CONTINUOUS
 90
10
 70
0
 10
54.1699113471
 20
-0.8968874128
 10
54.1681768686
 20
-0.9070372032
 10
54.1635103493
 20
-0.9168841221
 10
54.1560510305
 20
-0.9261343088
 10
54.1460073837
 20
-0.9345215882
 10
54.1336875384
 20
-0.9417829527
 10
54.1195167529
 20
-0.9476815993
 10
54.1039552696
 20
-0.9520538724
 10
54.0874577177
 20
-0.9547972313
 10
54.0705139573
 20
-0.9558504254
  0
LWPOLYLINE
  5
682
100
AcDbEntity
  8
RACCORDO
100
AcDbPolyline
 62
7
  6
CONTINUOUS
 90
3
 70
0
 10
54.2091871468
 20
-2.0423317523
 10
54.2129493773
 20
-2.0250036962
 10
54.2137353367
 20
-2.0124762798
  0
LINE
  5
683
100
AcDbEntity
  8
RACCORDO
100
AcDbLine
 62
253
  6
CONTINUOUS
 10
54.2075778946
 20
-2.0469486409
 11
54.2120853196
 21
-2.0301109806
  0
LINE
  5
684
100
AcDbEntity
  8
RACCORDO
100
AcDbLine
 62
253
  6
CONTINUOUS
 10
54.2002143451
 20
-2.0627466531
 11
54.2075778946
 21
-2.0469486409
  0
LINE
  5
685
100
AcDbEntity
  8
RACCORDO
100
AcDbLine
 62
253
  6
CONTINUOUS
 10
54.2137518995
 20
-2.01247206
 11
54.2135996114
 21
-2.0127454737
  0
LINE
  5
686
100
AcDbEntity
  8
RACCORDO
100
AcDbLine
 62
253
  6
CONTINUOUS
 10
54.197709447
 20
-2.0663246728
 11
54.2002143451
 21
-2.0627466531
  0
LWPOLYLINE
  5
687
100
AcDbEntity
  8
RACCORDO
100
AcDbPolyline
 62
7
  6
CONTINUOUS
 90
3
 70
0
 10
54.2014782109
 20
3.6279849806
 10
54.1922339889
 20
3.641995615
 10
54.1840741868
 20
3.6511535945
  0
LINE
  5
688
100
AcDbEntity
  8
RACCORDO
100
AcDbLine
 62
253
  6
CONTINUOUS
 10
54.2135996114
 20
3.5802017536
 11
54.2137519111
 21
3.5799269184
  0
LINE
  5
689
100
AcDbEntity
  8
RACCORDO
100
AcDbLine
 62
253
  6
CONTINUOUS
 10
54.2002134717
 20
3.6302044464
 11
54.2075774406
 21
3.6144061689
  0
LWPOLYLINE
  5
68A
100
AcDbEntity
  8
ASSI
100
AcDbPolyline
 62
7
  6
CONTINUOUS
 90
12
 70
0
 10
53.2134891264
 20
2.6812754543
 10
53.2178405796
 20
2.6707212881
 10
53.2221220664
 20
2.6523354509
 10
53.2263335868
 20
2.6261179428
 10
53.2304921307
 20
2.5918907447
 10
53.2345807083
 20
2.5498318756
 10
53.2385483499
 20
2.5004753922
 10
53.2423939441
 20
2.4437240367
 10
53.2461186024
 20
2.3796750669
 10
53.2496746896
 20
2.3091543124
 10
53.2530606257
 20
2.2320443163
 10
53.2562779907
 20
2.1484625356
  0
LINE
  5
68B
100
AcDbEntity
  8
RACCORDO
100
AcDbLine
 62
253
  6
CONTINUOUS
 10
54.2075774406
 20
3.6144061689
 11
54.2120851904
 21
3.5975679948
  0
LWPOLYLINE
  5
68C
100
AcDbEntity
  8
RACCORDO
100
AcDbPolyline
 62
7
  6
CONTINUOUS
 90
10
 70
0
 10
53.2326728982
 20
3.662158798
 10
53.2384841727
 20
3.6196273656
 10
53.2441646811
 20
3.5679467121
 10
53.2497144236
 20
3.5071168373
 10
53.2551529786
 20
3.4368376481
 10
53.2604607676
 20
3.3574092377
 10
53.2655790554
 20
3.2697318852
 10
53.2704882634
 20
3.1741056837
 10
53.2752079702
 20
3.0702305401
 10
53.2797381758
 20
2.9581064544
  0
LWPOLYLINE
  5
68D
100
AcDbEntity
  8
RACCORDO
100
AcDbPolyline
 62
253
  6
CONTINUOUS
 90
15
 70
0
 10
-36.0373768631
 20
-1.5964003925
 10
-35.9859813151
 20
-1.5878507595
 10
-35.9357492487
 20
-1.5740057931
 10
-35.8872189423
 20
-1.5550116081
 10
-35.8409225312
 20
-1.5310735462
 10
-35.7973778367
 20
-1.5024587464
 10
-35.7570583331
 20
-1.4694831294
 10
-35.7203940928
 20
-1.4325040016
 10
-35.6877828807
 20
-1.3919251414
 10
-35.6595767109
 20
-1.3481911402
 10
-35.6360750422
 20
-1.3017747128
 10
-35.6175277085
 20
-1.2531710927
 10
-35.604134562
 20
-1.2029035042
 10
-35.5960405217
 20
-1.1515188792
 10
-35.5933325987
 20
-1.0995734194
  0
LWPOLYLINE
  5
68E
100
AcDbEntity
  8
ASSI
100
AcDbPolyline
 62
253
  6
CONTINUOUS
 90
15
 70
0
 10
-36.0373768631
 20
-1.5964003925
 10
-35.9859813151
 20
-1.5878507595
 10
-35.9357492487
 20
-1.5740057931
 10
-35.8872189423
 20
-1.5550116081
 10
-35.8409225312
 20
-1.5310735462
 10
-35.7973778367
 20
-1.5024587464
 10
-35.7570583331
 20
-1.4694831294
 10
-35.7203940928
 20
-1.4325040016
 10
-35.6877828807
 20
-1.3919251414
 10
-35.6595767109
 20
-1.3481911402
 10
-35.6360750422
 20
-1.3017747128
 10
-35.6175277085
 20
-1.2531710927
 10
-35.604134562
 20
-1.2029035042
 10
-35.5960405217
 20
-1.1515188792
 10
-35.5933325987
 20
-1.0995734194
  0
LINE
  5
68F
100
AcDbEntity
  8
RACCORDO
100
AcDbLine
 62
7
  6
CONTINUOUS
 10
-38.0039174693
 20
-2.9362718601
 11
-33.3934460254
 21
-2.8557957817
  0
LINE
  5
690
100
AcDbEntity
  8
RACCORDO
100
AcDbLine
 62
7
  6
CONTINUOUS
 10
-33.2495542016
 20
-2.9247811604
 11
-38.0039174693
 21
-2.9662718601
  0
LINE
  5
691
100
AcDbEntity
  8
ASSI
100
AcDbLine
 62
7
  6
CONTINUOUS
 10
-33.2495542016
 20
-2.9247811604
 11
-38.0039174693
 21
-2.9662718601
  0
LINE
  5
692
100
AcDbEntity
  8
RACCORDO
100
AcDbLine
 62
7
  6
CONTINUOUS
 10
-38.0039174693
 20
-2.9662718601
 11
-39.0039174693
 21
-2.9575449923
  0
LINE
  5
693
100
AcDbEntity
  8
ASSI
100
AcDbLine
 62
7
  6
CONTINUOUS
 10
-38.0039174693
 20
-2.9662718601
 11
-39.0039174693
 21
-2.9575449923
  0
LINE
  5
694
100
AcDbEntity
  8
DRAFT
100
AcDbLine
 62
7
  6
CONTINUOUS
 10
-36.5039174693
 20
-3.0186530143
 11
-38.0039174693
 21
-2.9662718601
  0
LINE
  5
695
100
AcDbEntity
  8
RACCORDO
100
AcDbLine
 62
7
  6
CONTINUOUS
 10
-38.0039174693
 20
-2.9662718601
 11
-39.7713672177
 21
-2.9045511548
  0
LWPOLYLINE
  5
696
100
AcDbEntity
  8
RACCORDO
100
AcDbPolyline
 62
253
  6
CONTINUOUS
 90
16
 70
0
 10
-36.087634433
 20
-1.3995715566
 10
-36.0559291698
 20
-1.397555318
 10
-36.025206401
 20
-1.392458689
 10
-35.9954661266
 20
-1.3842816697
 10
-35.9663925642
 20
-1.3728671157
 10
-35.9383014962
 20
-1.3583721715
 10
-35.9121402694
 20
-1.3412682696
 10
-35.8879885418
 20
-1.3214718011
 10
-35.8657666554
 20
-1.299066375
 10
-35.8461829824
 20
-1.2747742517
 10
-35.8293229857
 20
-1.2485129246
 10
-35.8151012024
 20
-1.2203649004
 10
-35.8039696163
 20
-1.1912999597
 10
-35.7960788885
 20
-1.1616413628
 10
-35.7912783578
 20
-1.1310658493
 10
-35.7895680243
 20
-1.0995734194
  0
LWPOLYLINE
  5
697
100
AcDbEntity
  8
ASSI
100
AcDbPolyline
 62
253
  6
CONTINUOUS
 90
16
 70
0
 10
-36.087634433
 20
-1.3995715566
 10
-36.0559291698
 20
-1.397555318
 10
-36.025206401
 20
-1.392458689
 10
-35.9954661266
 20
-1.3842816697
 10
-35.9663925642
 20
-1.3728671157
 10
-35.9383014962
 20
-1.3583721715
 10
-35.9121402694
 20
-1.3412682696
 10
-35.8879885418
 20
-1.3214718011
 10
-35.8657666554
 20
-1.299066375
 10
-35.8461829824
 20
-1.2747742517
 10
-35.8293229857
 20
-1.2485129246
 10
-35.8151012024
 20
-1.2203649004
 10
-35.8039696163
 20
-1.1912999597
 10
-35.7960788885
 20
-1.1616413628
 10
-35.7912783578
 20
-1.1310658493
 10
-35.7895680243
 20
-1.0995734194
  0
LINE
  5
698
100
AcDbEntity
  8
RACCORDO
100
AcDbLine
 62
253
  6
CONTINUOUS
 10
-36.0893796072
 20
-1.5995639413
 11
-36.0373768631
 21
-1.5964003925
  0
LINE
  5
699
100
AcDbEntity
  8
ASSI
100
AcDbLine
 62
253
  6
CONTINUOUS
 10
-36.0893796072
 20
-1.5995639413
 11
-36.0373768631
 21
-1.5964003925
  0
LINE
  5
69A
100
AcDbEntity
  8
RACCORDO
100
AcDbLine
 62
7
  6
CONTINUOUS
 10
-35.8355998846
 20
-1.6836545989
 11
-40.2539174693
 21
-1.9152088117
  0
LINE
  5
69B
100
AcDbEntity
  8
RACCORDO
100
AcDbLine
 62
253
  6
CONTINUOUS
 10
-38.0039174693
 20
-2.336363243
 11
-33.3934460254
 21
-2.2558871646
  0
LINE
  5
69C
100
AcDbEntity
  8
RACCORDO
100
AcDbLine
 62
253
  6
CONTINUOUS
 10
-32.7539174693
 20
-2.4248001989
 11
-32.828798637
 21
-2.4248001741
  0
LINE
  5
69D
100
AcDbEntity
  8
ASSI
100
AcDbLine
 62
253
  6
CONTINUOUS
 10
-32.7539174693
 20
-2.4248001989
 11
-32.828798637
 21
-2.4248001741
  0
LINE
  5
69E
100
AcDbEntity
  8
RACCORDO
100
AcDbLine
 62
253
  6
CONTINUOUS
 10
-40.2539174693
 20
-2.3049166586
 11
-39.7713672177
 21
-2.3049166586
  0
LINE
  5
69F
100
AcDbEntity
  8
RACCORDO
100
AcDbLine
 62
253
  6
CONTINUOUS
 10
-33.3934460254
 20
-2.2558871646
 11
-32.8039174693
 21
-2.2558871646
  0
LINE
  5
6A0
100
AcDbEntity
  8
RACCORDO
100
AcDbLine
 62
253
  6
CONTINUOUS
 10
-38.0039174693
 20
-2.3666373638
 11
-39.7713672177
 21
-2.3049166586
  0
LINE
  5
6A1
100
AcDbEntity
  8
RACCORDO
100
AcDbLine
 62
7
  6
CONTINUOUS
 10
-36.0364512074
 20
-1.5991020421
 11
-38.0039174693
 21
-1.6162718601
  0
LINE
  5
6A2
100
AcDbEntity
  8
ASSI
100
AcDbLine
 62
7
  6
CONTINUOUS
 10
-36.0364512074
 20
-1.5991020421
 11
-38.0039174693
 21
-1.6162718601
  0
LINE
  5
6A3
100
AcDbEntity
  8
RACCORDO
100
AcDbLine
 62
253
  6
CONTINUOUS
 10
-36.6322216724
 20
-1.4043240975
 11
-36.087634433
 21
-1.3995715566
  0
LINE
  5
6A4
100
AcDbEntity
  8
ASSI
100
AcDbLine
 62
253
  6
CONTINUOUS
 10
-36.6322216724
 20
-1.4043240975
 11
-36.087634433
 21
-1.3995715566
  0
LINE
  5
6A5
100
AcDbEntity
  8
RACCORDO
100
AcDbLine
 62
253
  6
CONTINUOUS
 10
-35.5933325987
 20
-1.0995734194
 11
-35.5399012021
 21
-1.0991071306
  0
LINE
  5
6A6
100
AcDbEntity
  8
ASSI
100
AcDbLine
 62
253
  6
CONTINUOUS
 10
-35.5933325987
 20
-1.0995734194
 11
-35.5399012021
 21
-1.0991071306
  0
LINE
  5
6A7
100
AcDbEntity
  8
RACCORDO
100
AcDbLine
 62
253
  6
CONTINUOUS
 10
-35.7895680243
 20
-1.0995734194
 11
-35.5933325987
 21
-1.0995734194
  0
LINE
  5
6A8
100
AcDbEntity
  8
ASSI
100
AcDbLine
 62
253
  6
CONTINUOUS
 10
-35.7895680243
 20
-1.0995734194
 11
-35.5933325987
 21
-1.0995734194
  0
LINE
  5
6A9
100
AcDbEntity
  8
RACCORDO
100
AcDbLine
 62
7
  6
CONTINUOUS
 10
-38.0039174693
 20
-1.6162718601
 11
-38.432954827
 21
-1.6125277078
  0
LINE
  5
6AA
100
AcDbEntity
  8
ASSI
100
AcDbLine
 62
7
  6
CONTINUOUS
 10
-38.0039174693
 20
-1.6162718601
 11
-38.432954827
 21
-1.6125277078
  0
LINE
  5
6AB
100
AcDbEntity
  8
DRAFT
100
AcDbLine
 62
7
  6
CONTINUOUS
 10
-39.1829811057
 20
-1.7456912277
 11
-39.2539174693
 21
-1.7444530289
  0
LINE
  5
6AC
100
AcDbEntity
  8
RACCORDO
100
AcDbLine
 62
253
  6
CONTINUOUS
 10
-40.2539174693
 20
-0.6628874651
 11
-40.450426988
 21
-0.6628874651
  0
LINE
  5
6AD
100
AcDbEntity
  8
RACCORDO
100
AcDbLine
 62
253
  6
CONTINUOUS
 10
-40.9591531912
 20
-0.6540076162
 11
-41.2539174693
 21
-0.6540076162
  0
LINE
  5
6AE
100
AcDbEntity
  8
RACCORDO
100
AcDbLine
 62
7
  6
CONTINUOUS
 10
-40.9591531912
 20
-0.9539619247
 11
-40.450426988
 21
-0.9628417736
  0
LINE
  5
6AF
100
AcDbEntity
  8
RACCORDO
100
AcDbLine
 62
7
  6
CONTINUOUS
 10
-35.5399012021
 20
-0.9330988266
 11
-36.2671857992
 21
-0.9204040267
  0
LINE
  5
6B0
100
AcDbEntity
  8
ASSI
100
AcDbLine
 62
7
  6
CONTINUOUS
 10
-35.5399012021
 20
-0.9330988266
 11
-36.2671857992
 21
-0.9204040267
  0
LINE
  5
6B1
100
AcDbEntity
  8
RACCORDO
100
AcDbLine
 62
253
  6
CONTINUOUS
 10
-40.9591531912
 20
-0.6540076162
 11
-40.450426988
 21
-0.6629650952
  0
LINE
  5
6B2
100
AcDbEntity
  8
RACCORDO
100
AcDbLine
 62
7
  6
CONTINUOUS
 10
-38.1208115749
 20
0.5792029202
 11
-37.3073811544
 21
0.6218330022
  0
LINE
  5
6B3
100
AcDbEntity
  8
RACCORDO
100
AcDbLine
 62
7
  6
CONTINUOUS
 10
-38.5461698363
 20
1.4705454416
 11
-38.37568896
 21
1.4616109174
  0
LINE
  5
6B4
100
AcDbEntity
  8
RACCORDO
100
AcDbLine
 62
7
  6
CONTINUOUS
 10
-37.0686210015
 20
1.3931103883
 11
-36.9005513782
 21
1.3843022326
  0
LWPOLYLINE
  5
6B5
100
AcDbEntity
  8
RACCORDO
100
AcDbPolyline
 62
253
  6
CONTINUOUS
 90
10
 70
0
 10
-39.7713672177
 20
-2.9045511548
 10
-39.7728164761
 20
-2.9022194693
 10
-39.7741255251
 20
-2.895347886
 10
-39.7752824399
 20
-2.8839887274
 10
-39.7762754588
 20
-2.8682284619
 10
-39.7770967753
 20
-2.8481868877
 10
-39.7777426061
 20
-2.8240161944
 10
-39.7782076819
 20
-2.7959000715
 10
-39.7784871428
 20
-2.7640522222
 10
-39.7785802799
 20
-2.7287145392
  0
LINE
  5
6B6
100
AcDbEntity
  8
RACCORDO
100
AcDbLine
 62
7
  6
CONTINUOUS
 10
-41.2539174693
 20
-0.6540076162
 11
-41.2539174693
 21
2.2214638961
  0
LINE
  5
6B7
100
AcDbEntity
  8
RACCORDO
100
AcDbLine
 62
253
  6
CONTINUOUS
 10
-40.9591531912
 20
2.2214638961
 11
-40.450426988
 21
2.2303361217
  0
LINE
  5
6B8
100
AcDbEntity
  8
RACCORDO
100
AcDbLine
 62
7
  6
CONTINUOUS
 10
-35.5399012021
 20
2.5005551065
 11
-36.2671857992
 21
2.4878603066
  0
LINE
  5
6B9
100
AcDbEntity
  8
ASSI
100
AcDbLine
 62
7
  6
CONTINUOUS
 10
-35.5399012021
 20
2.5005551065
 11
-36.2671857992
 21
2.4878603066
  0
LINE
  5
6BA
100
AcDbEntity
  8
RACCORDO
100
AcDbLine
 62
7
  6
CONTINUOUS
 10
-40.9591531912
 20
2.5214182046
 11
-40.450426988
 21
2.5302980535
  0
LINE
  5
6BB
100
AcDbEntity
  8
DRAFT
100
AcDbLine
 62
7
  6
CONTINUOUS
 10
-37.3223923121
 20
2.5956242058
 11
-37.7628186022
 21
2.5879365363
  0
LINE
  5
6BC
100
AcDbEntity
  8
RACCORDO
100
AcDbLine
 62
253
  6
CONTINUOUS
 10
-41.2539174693
 20
2.2214638961
 11
-40.9591531912
 21
2.2214638961
  0
LINE
  5
6BD
100
AcDbEntity
  8
RACCORDO
100
AcDbLine
 62
253
  6
CONTINUOUS
 10
-40.2539174693
 20
2.230343745
 11
-40.450426988
 21
2.230343745
  0
LWPOLYLINE
  5
6BE
100
AcDbEntity
  8
RACCORDO
100
AcDbPolyline
 62
253
  6
CONTINUOUS
 90
7
 70
0
 10
-40.9591531912
 20
-0.9539619247
 10
-40.9597939465
 20
-0.951363275
 10
-40.9603334885
 20
-0.9436331503
 10
-40.9607624155
 20
-0.9309006076
 10
-40.961073254
 20
-0.9133788448
 10
-40.9612604684
 20
-0.8913679622
 10
-40.9613207158
 20
-0.8652553112
  0
LINE
  5
6BF
100
AcDbEntity
  8
RACCORDO
100
AcDbLine
 62
253
  6
CONTINUOUS
 10
-40.9591531912
 20
2.2214638961
 11
-40.9603334885
 21
2.2994118577
  0
LINE
  5
6C0
100
AcDbEntity
  8
RACCORDO
100
AcDbLine
 62
253
  6
CONTINUOUS
 10
-40.9603334885
 20
2.2994118577
 11
-40.961073254
 21
2.3720472967
  0
LWPOLYLINE
  5
6C1
100
AcDbEntity
  8
RACCORDO
100
AcDbPolyline
 62
253
  6
CONTINUOUS
 90
8
 70
0
 10
-40.961073254
 20
2.3720472967
 10
-40.9613207158
 20
2.4343479098
 10
-40.9612527167
 20
2.4602788504
 10
-40.9610574289
 20
2.4820632203
 10
-40.9607407485
 20
2.4992267583
 10
-40.9603115514
 20
2.5115454668
 10
-40.9597787315
 20
2.5189506973
 10
-40.9591531912
 20
2.5214182046
  0
LINE
  5
6C2
100
AcDbEntity
  8
RACCORDO
100
AcDbLine
 62
253
  6
CONTINUOUS
 10
-40.9591531912
 20
-0.6540076162
 11
-40.9591531912
 21
2.2214638961
  0
LINE
  5
6C3
100
AcDbEntity
  8
RACCORDO
100
AcDbLine
 62
253
  6
CONTINUOUS
 10
-40.9613207158
 20
-0.8652553112
 11
-40.9610574289
 21
-0.802456305
  0
LINE
  5
6C4
100
AcDbEntity
  8
RACCORDO
100
AcDbLine
 62
253
  6
CONTINUOUS
 10
-40.9610574289
 20
-0.802456305
 11
-40.9603115514
 21
-0.730242766
  0
LINE
  5
6C5
100
AcDbEntity
  8
RACCORDO
100
AcDbLine
 62
253
  6
CONTINUOUS
 10
-40.9603115514
 20
-0.730242766
 11
-40.9591531912
 21
-0.6540076162
  0
LINE
  5
6C6
100
AcDbEntity
  8
DRAFT
100
AcDbLine
 62
7
  6
CONTINUOUS
 10
-39.1829811057
 20
3.3131475076
 11
-39.2539174693
 21
3.3119093088
  0
LINE
  5
6C7
100
AcDbEntity
  8
RACCORDO
100
AcDbLine
 62
7
  6
CONTINUOUS
 10
-38.0039174693
 20
3.1837281399
 11
-38.432954827
 21
3.1799839876
  0
LINE
  5
6C8
100
AcDbEntity
  8
ASSI
100
AcDbLine
 62
7
  6
CONTINUOUS
 10
-38.0039174693
 20
3.1837281399
 11
-38.432954827
 21
3.1799839876
  0
LINE
  5
6C9
100
AcDbEntity
  8
RACCORDO
100
AcDbLine
 62
253
  6
CONTINUOUS
 10
-35.7895680243
 20
2.6670296992
 11
-35.5933325987
 21
2.667029709
  0
LINE
  5
6CA
100
AcDbEntity
  8
ASSI
100
AcDbLine
 62
253
  6
CONTINUOUS
 10
-35.7895680243
 20
2.6670296992
 11
-35.5933325987
 21
2.667029709
  0
LINE
  5
6CB
100
AcDbEntity
  8
RACCORDO
100
AcDbLine
 62
253
  6
CONTINUOUS
 10
-35.5933325987
 20
2.6670296992
 11
-35.5399012021
 21
2.6665634105
  0
LINE
  5
6CC
100
AcDbEntity
  8
ASSI
100
AcDbLine
 62
253
  6
CONTINUOUS
 10
-35.5933325987
 20
2.6670296992
 11
-35.5399012021
 21
2.6665634105
  0
LINE
  5
6CD
100
AcDbEntity
  8
RACCORDO
100
AcDbLine
 62
253
  6
CONTINUOUS
 10
-36.087634433
 20
2.9670278365
 11
-36.6322216724
 21
2.9717803774
  0
LINE
  5
6CE
100
AcDbEntity
  8
ASSI
100
AcDbLine
 62
253
  6
CONTINUOUS
 10
-36.087634433
 20
2.9670278365
 11
-36.6322216724
 21
2.9717803774
  0
LINE
  5
6CF
100
AcDbEntity
  8
RACCORDO
100
AcDbLine
 62
7
  6
CONTINUOUS
 10
-36.0364512074
 20
3.166558322
 11
-38.0039174693
 21
3.1837281399
  0
LINE
  5
6D0
100
AcDbEntity
  8
ASSI
100
AcDbLine
 62
7
  6
CONTINUOUS
 10
-36.0364512074
 20
3.166558322
 11
-38.0039174693
 21
3.1837281399
  0
LWPOLYLINE
  5
6D1
100
AcDbEntity
  8
DRAFT
100
AcDbPolyline
 62
7
  6
CONTINUOUS
 90
10
 70
0
 10
-38.1029102886
 20
0.5893290457
 10
-38.1246601558
 20
0.6027064696
 10
-38.1465292096
 20
0.6159528866
 10
-38.16851745
 20
0.6290682967
 10
-38.1906256004
 20
0.6420476097
 10
-38.2128529373
 20
0.6548959157
 10
-38.2351972904
 20
0.6676284856
 10
-38.257657936
 20
0.6802504096
 10
-38.2802355976
 20
0.6927565974
 10
-38.3029302753
 20
0.705147049
  0
LWPOLYLINE
  5
6D2
100
AcDbEntity
  8
ASSI
100
AcDbPolyline
 62
7
  6
CONTINUOUS
 90
10
 70
0
 10
-38.1029102886
 20
0.5893290457
 10
-38.1246601558
 20
0.6027064696
 10
-38.1465292096
 20
0.6159528866
 10
-38.16851745
 20
0.6290682967
 10
-38.1906256004
 20
0.6420476097
 10
-38.2128529373
 20
0.6548959157
 10
-38.2351972904
 20
0.6676284856
 10
-38.257657936
 20
0.6802504096
 10
-38.2802355976
 20
0.6927565974
 10
-38.3029302753
 20
0.705147049
  0
LWPOLYLINE
  5
6D3
100
AcDbEntity
  8
RACCORDO
100
AcDbPolyline
 62
253
  6
CONTINUOUS
 90
6
 70
0
 10
-40.4492796851
 20
2.5021925179
 10
-40.4494464046
 20
2.5122190059
 10
-40.4496428049
 20
2.520090366
 10
-40.4498681798
 20
2.5257487831
 10
-40.4501283589
 20
2.5291586421
 10
-40.4504264045
 20
2.5302980537
  0
LINE
  5
6D4
100
AcDbEntity
  8
RACCORDO
100
AcDbLine
 62
253
  6
CONTINUOUS
 10
-40.4494464046
 20
-0.7655240179
 11
-40.4504264045
 21
-0.6629651055
  0
LINE
  5
6D5
100
AcDbEntity
  8
RACCORDO
100
AcDbLine
 62
253
  6
CONTINUOUS
 10
-40.4490584649
 20
2.4760424245
 11
-40.4492796851
 21
2.5021925179
  0
LINE
  5
6D6
100
AcDbEntity
  8
RACCORDO
100
AcDbLine
 62
253
  6
CONTINUOUS
 10
-40.4490016747
 20
-0.8557549757
 11
-40.4494464046
 21
-0.7655240179
  0
LINE
  5
6D7
100
AcDbEntity
  8
RACCORDO
100
AcDbLine
 62
253
  6
CONTINUOUS
 10
-40.4489821291
 20
2.4424650815
 11
-40.4490584649
 21
2.4760424245
  0
LINE
  5
6D8
100
AcDbEntity
  8
RACCORDO
100
AcDbLine
 62
253
  6
CONTINUOUS
 10
-40.450426988
 20
-0.6629650952
 11
-40.450426988
 21
2.2303361217
  0
LINE
  5
6D9
100
AcDbEntity
  8
DRAFT
100
AcDbLine
 62
7
  6
CONTINUOUS
 10
-40.2539174693
 20
3.4826650915
 11
-40.2539174693
 21
-1.9152088117
  0
LINE
  5
6DA
100
AcDbEntity
  8
RACCORDO
100
AcDbLine
 62
7
  6
CONTINUOUS
 10
-40.2539174693
 20
-2.4048557413
 11
-40.2539174693
 21
-1.9152088117
  0
LINE
  5
6DB
100
AcDbEntity
  8
RACCORDO
100
AcDbLine
 62
7
  6
CONTINUOUS
 10
-40.2539174693
 20
3.4826650915
 11
-40.2539174693
 21
3.9723120212
  0
LINE
  5
6DC
100
AcDbEntity
  8
RACCORDO
100
AcDbLine
 62
253
  6
CONTINUOUS
 10
-40.4490015473
 20
-0.8926896671
 11
-40.4490016747
 21
-0.8557549757
  0
LINE
  5
6DD
100
AcDbEntity
  8
RACCORDO
100
AcDbLine
 62
253
  6
CONTINUOUS
 10
-40.4491497338
 20
2.3803869037
 11
-40.4489821291
 21
2.4424650815
  0
LINE
  5
6DE
100
AcDbEntity
  8
RACCORDO
100
AcDbLine
 62
253
  6
CONTINUOUS
 10
-40.4498686231
 20
2.2824566658
 11
-40.4491497338
 21
2.3803869037
  0
LINE
  5
6DF
100
AcDbEntity
  8
RACCORDO
100
AcDbLine
 62
253
  6
CONTINUOUS
 10
-40.4504270453
 20
2.2303361207
 11
-40.4498686231
 21
2.2824566658
  0
LWPOLYLINE
  5
6E0
100
AcDbEntity
  8
RACCORDO
100
AcDbPolyline
 62
253
  6
CONTINUOUS
 90
8
 70
0
 10
-40.4504270453
 20
-0.9628417726
 10
-40.4501289868
 20
-0.9617054103
 10
-40.4498686231
 20
-0.9582927678
 10
-40.4496429651
 20
-0.9526301291
 10
-40.4494462529
 20
-0.9447600722
 10
-40.4492793346
 20
-0.9347431805
 10
-40.4491497338
 20
-0.9226596386
 10
-40.4490015473
 20
-0.8926896671
  0
LWPOLYLINE
  5
6E1
100
AcDbEntity
  8
DRAFT
100
AcDbPolyline
 62
7
  6
CONTINUOUS
 90
10
 70
0
 10
-38.1029102886
 20
0.9781272342
 10
-38.1246601558
 20
0.9647498103
 10
-38.1465292096
 20
0.9515033933
 10
-38.16851745
 20
0.9383879832
 10
-38.1906256004
 20
0.9254086702
 10
-38.2128529373
 20
0.9125603642
 10
-38.2351972904
 20
0.8998277943
 10
-38.257657936
 20
0.8872058703
 10
-38.2802355976
 20
0.8746996825
 10
-38.3029302753
 20
0.8623092308
  0
LWPOLYLINE
  5
6E2
100
AcDbEntity
  8
ASSI
100
AcDbPolyline
 62
7
  6
CONTINUOUS
 90
10
 70
0
 10
-38.1029102886
 20
0.9781272342
 10
-38.1246601558
 20
0.9647498103
 10
-38.1465292096
 20
0.9515033933
 10
-38.16851745
 20
0.9383879832
 10
-38.1906256004
 20
0.9254086702
 10
-38.2128529373
 20
0.9125603642
 10
-38.2351972904
 20
0.8998277943
 10
-38.257657936
 20
0.8872058703
 10
-38.2802355976
 20
0.8746996825
 10
-38.3029302753
 20
0.8623092308
  0
LINE
  5
6E3
100
AcDbEntity
  8
RACCORDO
100
AcDbLine
 62
253
  6
CONTINUOUS
 10
-39.7713672177
 20
3.8723729385
 11
-38.0039174693
 21
3.9340936437
  0
LINE
  5
6E4
100
AcDbEntity
  8
RACCORDO
100
AcDbLine
 62
253
  6
CONTINUOUS
 10
-33.3934460254
 20
3.8233434444
 11
-32.8039174693
 21
3.8233434387
  0
LINE
  5
6E5
100
AcDbEntity
  8
RACCORDO
100
AcDbLine
 62
253
  6
CONTINUOUS
 10
-40.2539174693
 20
3.8723729385
 11
-39.7713672178
 21
3.8723729418
  0
LINE
  5
6E6
100
AcDbEntity
  8
RACCORDO
100
AcDbLine
 62
253
  6
CONTINUOUS
 10
-32.7539174693
 20
3.9922564787
 11
-32.8287986436
 21
3.9922564787
  0
LINE
  5
6E7
100
AcDbEntity
  8
ASSI
100
AcDbLine
 62
253
  6
CONTINUOUS
 10
-32.7539174693
 20
3.9922564787
 11
-32.8287986436
 21
3.9922564787
  0
LINE
  5
6E8
100
AcDbEntity
  8
RACCORDO
100
AcDbLine
 62
253
  6
CONTINUOUS
 10
-33.3934460254
 20
3.8233434444
 11
-38.0039174693
 21
3.9038195228
  0
LINE
  5
6E9
100
AcDbEntity
  8
RACCORDO
100
AcDbLine
 62
7
  6
CONTINUOUS
 10
-35.8355998846
 20
3.2511108788
 11
-40.2539174693
 21
3.4826650915
  0
LINE
  5
6EA
100
AcDbEntity
  8
RACCORDO
100
AcDbLine
 62
7
  6
CONTINUOUS
 10
-36.0373595488
 20
3.1638547088
 11
-36.0893796072
 21
3.1670202211
  0
LINE
  5
6EB
100
AcDbEntity
  8
ASSI
100
AcDbLine
 62
7
  6
CONTINUOUS
 10
-36.0373595488
 20
3.1638547088
 11
-36.0893796072
 21
3.1670202211
  0
LINE
  5
6EC
100
AcDbEntity
  8
0
100
AcDbLine
 62
7
  6
CONTINUOUS
 10
-36.8346772295
 20
2.0076391616
 11
-37.0084087977
 21
2.054190395
  0
LWPOLYLINE
  5
6ED
100
AcDbEntity
  8
DRAFT
100
AcDbPolyline
 62
7
  6
CONTINUOUS
 90
10
 70
0
 10
-37.1051789513
 20
0.8624580829
 10
-37.1279107153
 20
0.8748707553
 10
-37.1505288369
 20
0.8874019416
 10
-37.173033316
 20
0.9000516419
 10
-37.1954248836
 20
0.9128146198
 10
-37.2177028087
 20
0.9256961116
 10
-37.2398648987
 20
0.9387118261
 10
-37.2619104226
 20
0.9518669995
 10
-37.2838401114
 20
0.9651563956
 10
-37.3056539651
 20
0.9785800143
  0
LWPOLYLINE
  5
6EE
100
AcDbEntity
  8
ASSI
100
AcDbPolyline
 62
7
  6
CONTINUOUS
 90
10
 70
0
 10
-37.1051789513
 20
0.8624580829
 10
-37.1279107153
 20
0.8748707553
 10
-37.1505288369
 20
0.8874019416
 10
-37.173033316
 20
0.9000516419
 10
-37.1954248836
 20
0.9128146198
 10
-37.2177028087
 20
0.9256961116
 10
-37.2398648987
 20
0.9387118261
 10
-37.2619104226
 20
0.9518669995
 10
-37.2838401114
 20
0.9651563956
 10
-37.3056539651
 20
0.9785800143
  0
LINE
  5
6EF
100
AcDbEntity
  8
RACCORDO
100
AcDbLine
 62
253
  6
CONTINUOUS
 10
-39.7713672177
 20
3.8723729385
 11
-39.7741252959
 21
3.9764381738
  0
LINE
  5
6F0
100
AcDbEntity
  8
RACCORDO
100
AcDbLine
 62
253
  6
CONTINUOUS
 10
-39.7741252959
 20
3.9764381738
 11
-39.7762756784
 21
4.077342053
  0
LINE
  5
6F1
100
AcDbEntity
  8
RACCORDO
100
AcDbLine
 62
253
  6
CONTINUOUS
 10
-39.7762756784
 20
4.077342053
 11
-39.7777435807
 21
4.172023904
  0
LWPOLYLINE
  5
6F2
100
AcDbEntity
  8
RACCORDO
100
AcDbPolyline
 62
253
  6
CONTINUOUS
 90
12
 70
0
 10
-39.7777435807
 20
4.172023904
 10
-39.7784875468
 20
4.257611723
 10
-39.7785802799
 20
4.2961708191
 10
-39.7784871428
 20
4.3315085021
 10
-39.7782076819
 20
4.3633563514
 10
-39.7777426061
 20
4.3914724742
 10
-39.7770967753
 20
4.4156431676
 10
-39.7762754588
 20
4.4356847418
 10
-39.7752824399
 20
4.4514450073
 10
-39.7741255251
 20
4.4628041659
 10
-39.7728164761
 20
4.4696757492
 10
-39.7713672177
 20
4.4720074347
  0
LINE
  5
6F3
100
AcDbEntity
  8
RACCORDO
100
AcDbLine
 62
253
  6
CONTINUOUS
 10
-39.7713672177
 20
-2.3049166586
 11
-39.7713672177
 21
-1.8899194246
  0
LINE
  5
6F4
100
AcDbEntity
  8
RACCORDO
100
AcDbLine
 62
253
  6
CONTINUOUS
 10
-39.7713672177
 20
3.4573757045
 11
-39.7713672177
 21
3.8723729385
  0
LINE
  5
6F5
100
AcDbEntity
  8
DRAFT
100
AcDbLine
 62
7
  6
CONTINUOUS
 10
-39.2539174693
 20
3.4302573123
 11
-39.2539174693
 21
-1.8628010324
  0
LINE
  5
6F6
100
AcDbEntity
  8
RACCORDO
100
AcDbLine
 62
7
  6
CONTINUOUS
 10
-39.2039174693
 20
-1.6031198768
 11
-39.2039174693
 21
3.1705761567
  0
LINE
  5
6F7
100
AcDbEntity
  8
ASSI
100
AcDbLine
 62
7
  6
CONTINUOUS
 10
-39.2039174693
 20
-1.6031198768
 11
-39.2039174693
 21
3.1705761567
  0
LINE
  5
6F8
100
AcDbEntity
  8
RACCORDO
100
AcDbLine
 62
253
  6
CONTINUOUS
 10
-39.7785802799
 20
-2.7287145392
 11
-39.7782084878
 21
-2.6486680091
  0
LINE
  5
6F9
100
AcDbEntity
  8
RACCORDO
100
AcDbLine
 62
253
  6
CONTINUOUS
 10
-39.7782084878
 20
-2.6486680091
 11
-39.7770974877
 21
-2.5581894316
  0
LINE
  5
6FA
100
AcDbEntity
  8
RACCORDO
100
AcDbLine
 62
253
  6
CONTINUOUS
 10
-39.7770974877
 20
-2.5581894316
 11
-39.7752823047
 21
-2.4600236506
  0
LWPOLYLINE
  5
6FB
100
AcDbEntity
  8
RACCORDO
100
AcDbPolyline
 62
253
  6
CONTINUOUS
 90
3
 70
0
 10
-39.7752823047
 20
-2.4600236506
 10
-39.7728162918
 20
-2.3571482954
 10
-39.7713672177
 20
-2.3049166586
  0
LWPOLYLINE
  5
6FC
100
AcDbEntity
  8
DRAFT
100
AcDbPolyline
 62
7
  6
CONTINUOUS
 90
10
 70
0
 10
-37.1051789513
 20
0.704998197
 10
-37.1279107153
 20
0.6925855246
 10
-37.1505288369
 20
0.6800543383
 10
-37.173033316
 20
0.667404638
 10
-37.1954248836
 20
0.6546416601
 10
-37.2177028087
 20
0.6417601683
 10
-37.2398648987
 20
0.6287444538
 10
-37.2619104226
 20
0.6155892804
 10
-37.2838401114
 20
0.6022998843
 10
-37.3056539651
 20
0.5888762656
  0
LWPOLYLINE
  5
6FD
100
AcDbEntity
  8
ASSI
100
AcDbPolyline
 62
7
  6
CONTINUOUS
 90
10
 70
0
 10
-37.1051789513
 20
0.704998197
 10
-37.1279107153
 20
0.6925855246
 10
-37.1505288369
 20
0.6800543383
 10
-37.173033316
 20
0.667404638
 10
-37.1954248836
 20
0.6546416601
 10
-37.2177028087
 20
0.6417601683
 10
-37.2398648987
 20
0.6287444538
 10
-37.2619104226
 20
0.6155892804
 10
-37.2838401114
 20
0.6022998843
 10
-37.3056539651
 20
0.5888762656
  0
LINE
  5
6FE
100
AcDbEntity
  8
RACCORDO
100
AcDbLine
 62
7
  6
CONTINUOUS
 10
-39.7713672177
 20
4.4720074347
 11
-38.0039174693
 21
4.5337281399
  0
LINE
  5
6FF
100
AcDbEntity
  8
DRAFT
100
AcDbLine
 62
7
  6
CONTINUOUS
 10
-36.5039174693
 20
4.5861092942
 11
-38.0039174693
 21
4.5337281399
  0
LINE
  5
700
100
AcDbEntity
  8
RACCORDO
100
AcDbLine
 62
7
  6
CONTINUOUS
 10
-38.0039174693
 20
4.5337281399
 11
-39.0039174693
 21
4.5250012722
  0
LINE
  5
701
100
AcDbEntity
  8
ASSI
100
AcDbLine
 62
7
  6
CONTINUOUS
 10
-38.0039174693
 20
4.5337281399
 11
-39.0039174693
 21
4.5250012722
  0
LINE
  5
702
100
AcDbEntity
  8
RACCORDO
100
AcDbLine
 62
7
  6
CONTINUOUS
 10
-38.0039174693
 20
4.5337281399
 11
-33.2495542016
 21
4.4922374403
  0
LINE
  5
703
100
AcDbEntity
  8
ASSI
100
AcDbLine
 62
7
  6
CONTINUOUS
 10
-38.0039174693
 20
4.5337281399
 11
-33.2495542016
 21
4.4922374403
  0
LINE
  5
704
100
AcDbEntity
  8
RACCORDO
100
AcDbLine
 62
7
  6
CONTINUOUS
 10
-33.3934460254
 20
4.4232520615
 11
-38.0039174693
 21
4.5037281399
  0
LINE
  5
705
100
AcDbEntity
  8
RACCORDO
100
AcDbLine
 62
7
  6
CONTINUOUS
 10
-36.0005927932
 20
3.1582992746
 11
-36.0373595488
 21
3.1638547088
  0
LINE
  5
706
100
AcDbEntity
  8
ASSI
100
AcDbLine
 62
7
  6
CONTINUOUS
 10
-36.0005927932
 20
3.1582992746
 11
-36.0373595488
 21
3.1638547088
  0
LINE
  5
707
100
AcDbEntity
  8
RACCORDO
100
AcDbLine
 62
7
  6
CONTINUOUS
 10
-39.0039174693
 20
-2.9575449923
 11
-39.0039174693
 21
-2.9313510906
  0
LINE
  5
708
100
AcDbEntity
  8
ASSI
100
AcDbLine
 62
7
  6
CONTINUOUS
 10
-39.0039174693
 20
-2.9575449923
 11
-39.0039174693
 21
-2.9313510906
  0
LINE
  5
709
100
AcDbEntity
  8
RACCORDO
100
AcDbLine
 62
7
  6
CONTINUOUS
 10
-39.0039174693
 20
4.4988073705
 11
-39.0039174693
 21
4.5250012722
  0
LINE
  5
70A
100
AcDbEntity
  8
ASSI
100
AcDbLine
 62
7
  6
CONTINUOUS
 10
-39.0039174693
 20
4.4988073705
 11
-39.0039174693
 21
4.5250012722
  0
LINE
  5
70B
100
AcDbEntity
  8
RACCORDO
100
AcDbLine
 62
253
  6
CONTINUOUS
 10
-38.5907415581
 20
-2.9611507238
 11
-38.5907415581
 21
-2.9457795113
  0
LINE
  5
70C
100
AcDbEntity
  8
ASSI
100
AcDbLine
 62
253
  6
CONTINUOUS
 10
-38.5907415581
 20
-2.9611507238
 11
-38.5907415581
 21
-2.9457795113
  0
LINE
  5
70D
100
AcDbEntity
  8
RACCORDO
100
AcDbLine
 62
253
  6
CONTINUOUS
 10
-38.5907415581
 20
4.5132357912
 11
-38.5907415581
 21
4.5286070037
  0
LINE
  5
70E
100
AcDbEntity
  8
ASSI
100
AcDbLine
 62
253
  6
CONTINUOUS
 10
-38.5907415581
 20
4.5132357912
 11
-38.5907415581
 21
4.5286070037
  0
LINE
  5
70F
100
AcDbEntity
  8
DRAFT
100
AcDbLine
 62
7
  6
CONTINUOUS
 10
-38.3029302753
 20
0.8623092308
 11
-38.3029302753
 21
0.705147049
  0
LINE
  5
710
100
AcDbEntity
  8
ASSI
100
AcDbLine
 62
7
  6
CONTINUOUS
 10
-38.3029302753
 20
0.8623092308
 11
-38.3029302753
 21
0.705147049
  0
LINE
  5
711
100
AcDbEntity
  8
DRAFT
100
AcDbLine
 62
7
  6
CONTINUOUS
 10
-38.1029102886
 20
0.9781272342
 11
-38.1029102886
 21
0.5893290457
  0
LINE
  5
712
100
AcDbEntity
  8
ASSI
100
AcDbLine
 62
7
  6
CONTINUOUS
 10
-38.1029102886
 20
0.9781272342
 11
-38.1029102886
 21
0.5893290457
  0
LINE
  5
713
100
AcDbEntity
  8
RACCORDO
100
AcDbLine
 62
7
  6
CONTINUOUS
 10
-38.0039174693
 20
-2.9662718601
 11
-38.0039174693
 21
-1.7972913083
  0
LINE
  5
714
100
AcDbEntity
  8
DRAFT
100
AcDbLine
 62
7
  6
CONTINUOUS
 10
-38.0039174693
 20
-1.7972913083
 11
-38.0039174693
 21
-1.273688409
  0
LINE
  5
715
100
AcDbEntity
  8
ASSI
100
AcDbLine
 62
7
  6
CONTINUOUS
 10
-38.0039174693
 20
-1.7972913083
 11
-38.0039174693
 21
-1.273688409
  0
LINE
  5
716
100
AcDbEntity
  8
DRAFT
100
AcDbLine
 62
7
  6
CONTINUOUS
 10
-38.0039174693
 20
2.8411446889
 11
-38.0039174693
 21
3.3647475882
  0
LINE
  5
717
100
AcDbEntity
  8
ASSI
100
AcDbLine
 62
7
  6
CONTINUOUS
 10
-38.0039174693
 20
2.8411446889
 11
-38.0039174693
 21
3.3647475882
  0
LINE
  5
718
100
AcDbEntity
  8
RACCORDO
100
AcDbLine
 62
7
  6
CONTINUOUS
 10
-38.0039174693
 20
3.3647475882
 11
-38.0039174693
 21
4.5337281399
  0
LINE
  5
719
100
AcDbEntity
  8
DRAFT
100
AcDbLine
 62
7
  6
CONTINUOUS
 10
-37.3056539651
 20
0.5888762656
 11
-37.3056539651
 21
0.9785800143
  0
LINE
  5
71A
100
AcDbEntity
  8
ASSI
100
AcDbLine
 62
7
  6
CONTINUOUS
 10
-37.3056539651
 20
0.5888762656
 11
-37.3056539651
 21
0.9785800143
  0
LINE
  5
71B
100
AcDbEntity
  8
DRAFT
100
AcDbLine
 62
7
  6
CONTINUOUS
 10
-37.1051789513
 20
0.704998197
 11
-37.1051789513
 21
0.8624580829
  0
LINE
  5
71C
100
AcDbEntity
  8
ASSI
100
AcDbLine
 62
7
  6
CONTINUOUS
 10
-37.1051789513
 20
0.704998197
 11
-37.1051789513
 21
0.8624580829
  0
LINE
  5
71D
100
AcDbEntity
  8
0
100
AcDbLine
 62
7
  6
CONTINUOUS
 10
-37.510926543
 20
0.5028520877
 11
-37.4814906571
 21
0.6127083098
  0
LINE
  5
71E
100
AcDbEntity
  8
DRAFT
100
AcDbLine
 62
7
  6
CONTINUOUS
 10
-37.4794533115
 20
-0.925169535
 11
-37.525048976
 21
-1.0953348718
  0
LINE
  5
71F
100
AcDbEntity
  8
0
100
AcDbLine
 62
7
  6
CONTINUOUS
 10
-37.4133109741
 20
-1.064693302
 11
-37.3640677822
 21
-0.8809152078
  0
LINE
  5
720
100
AcDbEntity
  8
0
100
AcDbLine
 62
7
  6
CONTINUOUS
 10
-37.0778922006
 20
0.1871066024
 11
-37.0280043326
 21
0.3732906607
  0
LINE
  5
721
100
AcDbEntity
  8
DRAFT
100
AcDbLine
 62
7
  6
CONTINUOUS
 10
-36.5039174693
 20
4.5861092942
 11
-36.5039174693
 21
4.5206378383
  0
LINE
  5
722
100
AcDbEntity
  8
DRAFT
100
AcDbLine
 62
7
  6
CONTINUOUS
 10
-36.5039174693
 20
-2.9531815584
 11
-36.5039174693
 21
-3.0186530143
  0
LWPOLYLINE
  5
723
100
AcDbEntity
  8
RACCORDO
100
AcDbPolyline
 62
253
  6
CONTINUOUS
 90
16
 70
0
 10
-35.7895680243
 20
2.6670296992
 10
-35.7913058657
 20
2.6986459909
 10
-35.7961365247
 20
2.7293147912
 10
-35.8040600013
 20
2.7590361003
 10
-35.8152291746
 20
2.7881260887
 10
-35.8294911655
 20
2.8162685857
 10
-35.8463873363
 20
2.8425150795
 10
-35.8660025807
 20
2.8667883094
 10
-35.8882520051
 20
2.8891655359
 10
-35.9124222905
 20
2.9089300287
 10
-35.9385986647
 20
2.9259979988
 10
-35.9666959001
 20
2.9404532352
 10
-35.9957449948
 20
2.9518303735
 10
-36.0254229482
 20
2.9599742925
 10
-36.0560527609
 20
2.9650401135
 10
-36.087634433
 20
2.9670278365
  0
LWPOLYLINE
  5
724
100
AcDbEntity
  8
ASSI
100
AcDbPolyline
 62
253
  6
CONTINUOUS
 90
16
 70
0
 10
-35.7895680243
 20
2.6670296992
 10
-35.7913058657
 20
2.6986459909
 10
-35.7961365247
 20
2.7293147912
 10
-35.8040600013
 20
2.7590361003
 10
-35.8152291746
 20
2.7881260887
 10
-35.8294911655
 20
2.8162685857
 10
-35.8463873363
 20
2.8425150795
 10
-35.8660025807
 20
2.8667883094
 10
-35.8882520051
 20
2.8891655359
 10
-35.9124222905
 20
2.9089300287
 10
-35.9385986647
 20
2.9259979988
 10
-35.9666959001
 20
2.9404532352
 10
-35.9957449948
 20
2.9518303735
 10
-36.0254229482
 20
2.9599742925
 10
-36.0560527609
 20
2.9650401135
 10
-36.087634433
 20
2.9670278365
  0
LWPOLYLINE
  5
725
100
AcDbEntity
  8
RACCORDO
100
AcDbPolyline
 62
253
  6
CONTINUOUS
 90
15
 70
0
 10
-35.5933325987
 20
2.6670296992
 10
-35.5960387632
 20
2.7189584247
 10
-35.6041300048
 20
2.7703382324
 10
-35.6175229258
 20
2.8206125219
 10
-35.636079008
 20
2.8692398765
 10
-35.6595999761
 20
2.9156878985
 10
-35.6878258857
 20
2.9594409663
 10
-35.7204490887
 20
3.0000217814
 10
-35.757118584
 20
3.0369940872
 10
-35.7974348892
 20
3.0699568655
 10
-35.8409603966
 20
3.0985519364
 10
-35.8872257576
 20
3.1224709504
 10
-35.9357329154
 20
3.1414566283
 10
-35.9859586952
 20
3.1553020475
 10
-36.0005927932
 20
3.1582992746
  0
LWPOLYLINE
  5
726
100
AcDbEntity
  8
ASSI
100
AcDbPolyline
 62
253
  6
CONTINUOUS
 90
15
 70
0
 10
-35.5933325987
 20
2.6670296992
 10
-35.5960387632
 20
2.7189584247
 10
-35.6041300048
 20
2.7703382324
 10
-35.6175229258
 20
2.8206125219
 10
-35.636079008
 20
2.8692398765
 10
-35.6595999761
 20
2.9156878985
 10
-35.6878258857
 20
2.9594409663
 10
-35.7204490887
 20
3.0000217814
 10
-35.757118584
 20
3.0369940872
 10
-35.7974348892
 20
3.0699568655
 10
-35.8409603966
 20
3.0985519364
 10
-35.8872257576
 20
3.1224709504
 10
-35.9357329154
 20
3.1414566283
 10
-35.9859586952
 20
3.1553020475
 10
-36.0005927932
 20
3.1582992746
  0
LWPOLYLINE
  5
727
100
AcDbEntity
  8
RACCORDO
100
AcDbPolyline
 62
253
  6
CONTINUOUS
 90
6
 70
0
 10
-36.0873294707
 20
3.0955700923
 10
-36.0875445719
 20
3.1202200136
 10
-36.0878684385
 20
3.1402161688
 10
-36.0882912315
 20
3.1549511021
 10
-36.0888001074
 20
3.1639771862
 10
-36.0893796072
 20
3.1670202211
  0
LWPOLYLINE
  5
728
100
AcDbEntity
  8
ASSI
100
AcDbPolyline
 62
253
  6
CONTINUOUS
 90
6
 70
0
 10
-36.0873294707
 20
3.0955700923
 10
-36.0875445719
 20
3.1202200136
 10
-36.0878684385
 20
3.1402161688
 10
-36.0882912315
 20
3.1549511021
 10
-36.0888001074
 20
3.1639771862
 10
-36.0893796072
 20
3.1670202211
  0
LINE
  5
729
100
AcDbEntity
  8
RACCORDO
100
AcDbLine
 62
253
  6
CONTINUOUS
 10
-36.087634433
 20
-1.3995715566
 11
-36.0872482757
 21
-1.4679615562
  0
LINE
  5
72A
100
AcDbEntity
  8
ASSI
100
AcDbLine
 62
253
  6
CONTINUOUS
 10
-36.087634433
 20
-1.3995715566
 11
-36.0872482757
 21
-1.4679615562
  0
LINE
  5
72B
100
AcDbEntity
  8
RACCORDO
100
AcDbLine
 62
253
  6
CONTINUOUS
 10
-35.7895680243
 20
-1.0995734194
 11
-35.7895680243
 21
-0.928740876
  0
LINE
  5
72C
100
AcDbEntity
  8
ASSI
100
AcDbLine
 62
253
  6
CONTINUOUS
 10
-35.7895680243
 20
-1.0995734194
 11
-35.7895680243
 21
-0.928740876
  0
LINE
  5
72D
100
AcDbEntity
  8
RACCORDO
100
AcDbLine
 62
253
  6
CONTINUOUS
 10
-35.7895680243
 20
2.4961971559
 11
-35.7895680243
 21
2.6670296992
  0
LINE
  5
72E
100
AcDbEntity
  8
ASSI
100
AcDbLine
 62
253
  6
CONTINUOUS
 10
-35.7895680243
 20
2.4961971559
 11
-35.7895680243
 21
2.6670296992
  0
LINE
  5
72F
100
AcDbEntity
  8
RACCORDO
100
AcDbLine
 62
253
  6
CONTINUOUS
 10
-35.5933325987
 20
-1.0995734194
 11
-35.5933325987
 21
-0.9321661781
  0
LINE
  5
730
100
AcDbEntity
  8
ASSI
100
AcDbLine
 62
253
  6
CONTINUOUS
 10
-35.5933325987
 20
-1.0995734194
 11
-35.5933325987
 21
-0.9321661781
  0
LINE
  5
731
100
AcDbEntity
  8
RACCORDO
100
AcDbLine
 62
253
  6
CONTINUOUS
 10
-35.5933325987
 20
2.499622458
 11
-35.5933325987
 21
2.6670296992
  0
LINE
  5
732
100
AcDbEntity
  8
ASSI
100
AcDbLine
 62
253
  6
CONTINUOUS
 10
-35.5933325987
 20
2.499622458
 11
-35.5933325987
 21
2.6670296992
  0
LINE
  5
733
100
AcDbEntity
  8
RACCORDO
100
AcDbLine
 62
7
  6
CONTINUOUS
 10
-35.5399012021
 20
-1.0991071306
 11
-35.5399012021
 21
-0.9330988266
  0
LINE
  5
734
100
AcDbEntity
  8
ASSI
100
AcDbLine
 62
7
  6
CONTINUOUS
 10
-35.5399012021
 20
-1.0991071306
 11
-35.5399012021
 21
-0.9330988266
  0
LINE
  5
735
100
AcDbEntity
  8
RACCORDO
100
AcDbLine
 62
7
  6
CONTINUOUS
 10
-35.5399012021
 20
2.5005551065
 11
-35.5399012021
 21
2.6665634105
  0
LINE
  5
736
100
AcDbEntity
  8
ASSI
100
AcDbLine
 62
7
  6
CONTINUOUS
 10
-35.5399012021
 20
2.5005551065
 11
-35.5399012021
 21
2.6665634105
  0
LINE
  5
737
100
AcDbEntity
  8
RACCORDO
100
AcDbLine
 62
7
  6
CONTINUOUS
 10
-35.5039174693
 20
-1.3341342617
 11
-35.5039174693
 21
2.9015905416
  0
LINE
  5
738
100
AcDbEntity
  8
RACCORDO
100
AcDbLine
 62
253
  6
CONTINUOUS
 10
-36.0872482019
 20
3.0354228994
 11
-36.0873294707
 21
3.0955700923
  0
LINE
  5
739
100
AcDbEntity
  8
ASSI
100
AcDbLine
 62
253
  6
CONTINUOUS
 10
-36.0872482019
 20
3.0354228994
 11
-36.0873294707
 21
3.0955700923
  0
LWPOLYLINE
  5
73A
100
AcDbEntity
  8
RACCORDO
100
AcDbPolyline
 62
253
  6
CONTINUOUS
 90
7
 70
0
 10
-36.0872482757
 20
-1.4679615562
 10
-36.0873295219
 20
-1.5281081135
 10
-36.0875445981
 20
-1.5527591016
 10
-36.0878684415
 20
-1.5727567246
 10
-36.0882912187
 20
-1.5874931585
 10
-36.08880009
 20
-1.5965204279
 10
-36.0893795981
 20
-1.5995639412
  0
LWPOLYLINE
  5
73B
100
AcDbEntity
  8
ASSI
100
AcDbPolyline
 62
253
  6
CONTINUOUS
 90
7
 70
0
 10
-36.0872482757
 20
-1.4679615562
 10
-36.0873295219
 20
-1.5281081135
 10
-36.0875445981
 20
-1.5527591016
 10
-36.0878684415
 20
-1.5727567246
 10
-36.0882912187
 20
-1.5874931585
 10
-36.08880009
 20
-1.5965204279
 10
-36.0893795981
 20
-1.5995639412
  0
LINE
  5
73C
100
AcDbEntity
  8
RACCORDO
100
AcDbLine
 62
253
  6
CONTINUOUS
 10
-36.087634433
 20
2.9670278365
 11
-36.0872482019
 21
3.0354228994
  0
LINE
  5
73D
100
AcDbEntity
  8
ASSI
100
AcDbLine
 62
253
  6
CONTINUOUS
 10
-36.087634433
 20
2.9670278365
 11
-36.0872482019
 21
3.0354228994
  0
LINE
  5
73E
100
AcDbEntity
  8
RACCORDO
100
AcDbLine
 62
253
  6
CONTINUOUS
 10
-33.3934460254
 20
-2.2558871646
 11
-33.3907174503
 21
-2.4417972359
  0
LWPOLYLINE
  5
73F
100
AcDbEntity
  8
RACCORDO
100
AcDbPolyline
 62
253
  6
CONTINUOUS
 90
7
 70
0
 10
-33.389299182
 20
4.3095339655
 10
-33.3896265813
 20
4.3437032454
 10
-33.3901115105
 20
4.3721349582
 10
-33.3907457584
 20
4.394438988
 10
-33.3915194597
 20
4.4104285692
 10
-33.3924233057
 20
4.4200413229
 10
-33.3934460254
 20
4.4232520615
  0
LINE
  5
740
100
AcDbEntity
  8
RACCORDO
100
AcDbLine
 62
253
  6
CONTINUOUS
 10
-33.3907174503
 20
-2.4417972359
 11
-33.3896088239
 21
-2.5566548779
  0
LINE
  5
741
100
AcDbEntity
  8
RACCORDO
100
AcDbLine
 62
253
  6
CONTINUOUS
 10
-33.3896088239
 20
-2.5566548779
 11
-33.3891294741
 21
-2.6582254115
  0
LINE
  5
742
100
AcDbEntity
  8
RACCORDO
100
AcDbLine
 62
253
  6
CONTINUOUS
 10
-33.3934460254
 20
-2.2558871646
 11
-33.3934460254
 21
3.8233434444
  0
LINE
  5
743
100
AcDbEntity
  8
RACCORDO
100
AcDbLine
 62
253
  6
CONTINUOUS
 10
-33.3891294743
 20
4.2256815778
 11
-33.389299182
 21
4.3095339655
  0
LWPOLYLINE
  5
744
100
AcDbEntity
  8
RACCORDO
100
AcDbPolyline
 62
253
  6
CONTINUOUS
 90
8
 70
0
 10
-33.3891294741
 20
-2.6582254115
 10
-33.3892991828
 20
-2.7420778054
 10
-33.3896265828
 20
-2.7762470697
 10
-33.3901115125
 20
-2.8046787601
 10
-33.3907457604
 20
-2.8269827628
 10
-33.3915194609
 20
-2.8429723173
 10
-33.3924233052
 20
-2.8525850509
 10
-33.3934460225
 20
-2.8557957816
  0
LINE
  5
745
100
AcDbEntity
  8
RACCORDO
100
AcDbLine
 62
253
  6
CONTINUOUS
 10
-33.3896088246
 20
4.1241110657
 11
-33.3891294743
 21
4.2256815778
  0
LINE
  5
746
100
AcDbEntity
  8
RACCORDO
100
AcDbLine
 62
253
  6
CONTINUOUS
 10
-33.3914934033
 20
3.948433758
 11
-33.3896088246
 21
4.1241110657
  0
LINE
  5
747
100
AcDbEntity
  8
RACCORDO
100
AcDbLine
 62
253
  6
CONTINUOUS
 10
-33.3934460254
 20
3.8233434444
 11
-33.3914934033
 21
3.948433758
  0
LWPOLYLINE
  5
748
100
AcDbEntity
  8
RACCORDO
100
AcDbPolyline
 62
253
  6
CONTINUOUS
 90
4
 70
0
 10
-33.2495542016
 20
4.4922374403
 10
-33.2493468041
 20
4.4899564621
 10
-33.2491854865
 20
4.4831870187
 10
-33.2490751475
 20
4.472135116
  0
LWPOLYLINE
  5
749
100
AcDbEntity
  8
ASSI
100
AcDbPolyline
 62
253
  6
CONTINUOUS
 90
4
 70
0
 10
-33.2495542016
 20
4.4922374403
 10
-33.2493468041
 20
4.4899564621
 10
-33.2491854865
 20
4.4831870187
 10
-33.2490751475
 20
4.472135116
  0
LINE
  5
74A
100
AcDbEntity
  8
RACCORDO
100
AcDbLine
 62
253
  6
CONTINUOUS
 10
-33.2490191195
 20
-2.8711974509
 11
-33.2491448168
 21
-2.8348199248
  0
LINE
  5
74B
100
AcDbEntity
  8
ASSI
100
AcDbLine
 62
253
  6
CONTINUOUS
 10
-33.2490191195
 20
-2.8711974509
 11
-33.2491448168
 21
-2.8348199248
  0
LINE
  5
74C
100
AcDbEntity
  8
RACCORDO
100
AcDbLine
 62
253
  6
CONTINUOUS
 10
-33.2490751475
 20
4.472135116
 11
-33.2490191504
 21
4.4386480796
  0
LINE
  5
74D
100
AcDbEntity
  8
ASSI
100
AcDbLine
 62
253
  6
CONTINUOUS
 10
-33.2490751475
 20
4.472135116
 11
-33.2490191504
 21
4.4386480796
  0
LINE
  5
74E
100
AcDbEntity
  8
RACCORDO
100
AcDbLine
 62
7
  6
CONTINUOUS
 10
-32.8039174693
 20
-2.2558871646
 11
-32.8039174693
 21
3.8233434444
  0
LINE
  5
74F
100
AcDbEntity
  8
RACCORDO
100
AcDbLine
 62
7
  6
CONTINUOUS
 10
-32.7539174693
 20
3.9920923134
 11
-32.7539174693
 21
-2.4246869809
  0
LINE
  5
750
100
AcDbEntity
  8
ASSI
100
AcDbLine
 62
7
  6
CONTINUOUS
 10
-32.7539174693
 20
3.9920923134
 11
-32.7539174693
 21
-2.4246869809
  0
LINE
  5
751
100
AcDbEntity
  8
RACCORDO
100
AcDbLine
 62
253
  6
CONTINUOUS
 10
-33.2490191504
 20
4.4386480796
 11
-33.2491448351
 21
4.4022762099
  0
LINE
  5
752
100
AcDbEntity
  8
ASSI
100
AcDbLine
 62
253
  6
CONTINUOUS
 10
-33.2490191504
 20
4.4386480796
 11
-33.2491448351
 21
4.4022762099
  0
LWPOLYLINE
  5
753
100
AcDbEntity
  8
RACCORDO
100
AcDbPolyline
 62
253
  6
CONTINUOUS
 90
5
 70
0
 10
-33.2495542016
 20
-2.9247811604
 10
-33.2493468136
 20
-2.9225006468
 10
-33.2491854947
 20
-2.9157323586
 10
-33.2490751462
 20
-2.9046819272
 10
-33.2490191195
 20
-2.8711974509
  0
LWPOLYLINE
  5
754
100
AcDbEntity
  8
ASSI
100
AcDbPolyline
 62
253
  6
CONTINUOUS
 90
5
 70
0
 10
-33.2495542016
 20
-2.9247811604
 10
-33.2493468136
 20
-2.9225006468
 10
-33.2491854947
 20
-2.9157323586
 10
-33.2490751462
 20
-2.9046819272
 10
-33.2490191195
 20
-2.8711974509
  0
ARC
  5
755
100
AcDbEntity
  8
RACCORDO
100
AcDbCircle
 62
7
  6
CONTINUOUS
 10
-37.7039174693
 20
-0.2162718601
 40
1.6
100
AcDbArc
 50
301.7143149194
 51
38.6821874535
  0
ARC
  5
756
100
AcDbEntity
  8
RACCORDO
100
AcDbCircle
 62
7
  6
CONTINUOUS
 10
-37.7039174693
 20
-0.2162718601
 40
1.6
100
AcDbArc
 50
201.7867892983
 51
238.7016622811
  0
ARC
  5
757
100
AcDbEntity
  8
ASSI
100
AcDbCircle
 62
7
  6
CONTINUOUS
 10
-37.7039174693
 20
-0.2162718601
 40
1.6
100
AcDbArc
 50
301.7143149194
 51
38.6821874535
  0
ARC
  5
758
100
AcDbEntity
  8
ASSI
100
AcDbCircle
 62
7
  6
CONTINUOUS
 10
-37.7039174693
 20
-0.2162718601
 40
1.6
100
AcDbArc
 50
201.7867892983
 51
238.7016622811
  0
CIRCLE
  5
759
100
AcDbEntity
  8
0
100
AcDbCircle
 62
7
  6
CONTINUOUS
 10
-37.7039174693
 20
-0.2162718601
 40
0.75
  0
ARC
  5
75A
100
AcDbEntity
  8
RACCORDO
100
AcDbCircle
 62
7
  6
CONTINUOUS
 10
-38.7039174693
 20
-1.6031198768
 40
0.5
100
AcDbArc
 50
180.0
 51
210.5064810837
  0
ARC
  5
75B
100
AcDbEntity
  8
ASSI
100
AcDbCircle
 62
7
  6
CONTINUOUS
 10
-38.7039174693
 20
-1.6031198768
 40
0.5
100
AcDbArc
 50
180.0
 51
210.5064810837
  0
ARC
  5
75C
100
AcDbEntity
  8
RACCORDO
100
AcDbCircle
 62
7
  6
CONTINUOUS
 10
-39.7539174693
 20
-2.4048502742
 40
0.5
100
AcDbArc
 50
180.0006264786
 51
268.0000218541
  0
CIRCLE
  5
75D
100
AcDbEntity
  8
0
100
AcDbCircle
 62
7
  6
CONTINUOUS
 10
-37.7039174693
 20
-0.2162718601
 40
0.4
  0
ARC
  5
75E
100
AcDbEntity
  8
RACCORDO
100
AcDbCircle
 62
7
  6
CONTINUOUS
 10
-40.9539174693
 20
-0.6540076162
 40
0.3
100
AcDbArc
 50
180.0
 51
269.0
  0
ARC
  5
75F
100
AcDbEntity
  8
RACCORDO
100
AcDbCircle
 62
7
  6
CONTINUOUS
 10
-38.4312095199
 20
-1.4125353231
 40
0.2
100
AcDbArc
 50
238.7016622811
 51
269.5
  0
ARC
  5
760
100
AcDbEntity
  8
RACCORDO
100
AcDbCircle
 62
7
  6
CONTINUOUS
 10
-39.0039174693
 20
-0.7358871023
 40
0.2
100
AcDbArc
 50
180.0
 51
201.7867892983
  0
ARC
  5
761
100
AcDbEntity
  8
ASSI
100
AcDbCircle
 62
7
  6
CONTINUOUS
 10
-38.4312095199
 20
-1.4125353231
 40
0.2
100
AcDbArc
 50
238.7016622811
 51
269.5
  0
ARC
  5
762
100
AcDbEntity
  8
ASSI
100
AcDbCircle
 62
7
  6
CONTINUOUS
 10
-39.0039174693
 20
-0.7358871023
 40
0.2
100
AcDbArc
 50
180.0
 51
201.7867892983
  0
ARC
  5
763
100
AcDbEntity
  8
RACCORDO
100
AcDbCircle
 62
7
  6
CONTINUOUS
 10
-40.4539174693
 20
-1.1628113127
 40
0.2
100
AcDbArc
 50
0.0
 51
89.0000119293
  0
ARC
  5
764
100
AcDbEntity
  8
RACCORDO
100
AcDbCircle
 62
7
  6
CONTINUOUS
 10
-39.0539174693
 20
0.3300264433
 40
0.2
100
AcDbArc
 50
138.7022362975
 51
180.0
  0
ARC
  5
765
100
AcDbEntity
  8
RACCORDO
100
AcDbCircle
 62
7
  6
CONTINUOUS
 10
-37.7039174693
 20
1.7837281399
 40
1.6
100
AcDbArc
 50
321.3178125465
 51
58.2856850806
  0
ARC
  5
766
100
AcDbEntity
  8
RACCORDO
100
AcDbCircle
 62
7
  6
CONTINUOUS
 10
-37.7039174693
 20
1.7837281399
 40
1.6
100
AcDbArc
 50
121.2983377189
 51
158.2132107017
  0
ARC
  5
767
100
AcDbEntity
  8
ASSI
100
AcDbCircle
 62
7
  6
CONTINUOUS
 10
-37.7039174693
 20
1.7837281399
 40
1.6
100
AcDbArc
 50
321.3178125465
 51
58.2856850806
  0
ARC
  5
768
100
AcDbEntity
  8
ASSI
100
AcDbCircle
 62
7
  6
CONTINUOUS
 10
-37.7039174693
 20
1.7837281399
 40
1.6
100
AcDbArc
 50
121.2983377189
 51
158.2132107017
  0
CIRCLE
  5
769
100
AcDbEntity
  8
0
100
AcDbCircle
 62
7
  6
CONTINUOUS
 10
-37.7039174693
 20
1.7837281399
 40
0.75
  0
ARC
  5
76A
100
AcDbEntity
  8
RACCORDO
100
AcDbCircle
 62
7
  6
CONTINUOUS
 10
-38.7039174693
 20
3.1705761567
 40
0.5
100
AcDbArc
 50
149.4935189164
 51
180.0
  0
ARC
  5
76B
100
AcDbEntity
  8
ASSI
100
AcDbCircle
 62
7
  6
CONTINUOUS
 10
-38.7039174693
 20
3.1705761567
 40
0.5
100
AcDbArc
 50
149.4935189164
 51
180.0
  0
ARC
  5
76C
100
AcDbEntity
  8
RACCORDO
100
AcDbCircle
 62
7
  6
CONTINUOUS
 10
-39.7539174693
 20
3.9723063792
 40
0.5
100
AcDbArc
 50
91.9999774483
 51
179.9993534814
  0
CIRCLE
  5
76D
100
AcDbEntity
  8
0
100
AcDbCircle
 62
7
  6
CONTINUOUS
 10
-37.7039174693
 20
1.7837281399
 40
0.4
  0
ARC
  5
76E
100
AcDbEntity
  8
RACCORDO
100
AcDbCircle
 62
7
  6
CONTINUOUS
 10
-40.9539174693
 20
2.2214638961
 40
0.3
100
AcDbArc
 50
91.0
 51
180.0
  0
ARC
  5
76F
100
AcDbEntity
  8
RACCORDO
100
AcDbCircle
 62
7
  6
CONTINUOUS
 10
-38.4312095199
 20
2.979991603
 40
0.2
100
AcDbArc
 50
90.5
 51
121.2983377189
  0
ARC
  5
770
100
AcDbEntity
  8
RACCORDO
100
AcDbCircle
 62
7
  6
CONTINUOUS
 10
-39.0039174693
 20
2.3033433822
 40
0.2
100
AcDbArc
 50
158.2132107017
 51
180.0
  0
ARC
  5
771
100
AcDbEntity
  8
ASSI
100
AcDbCircle
 62
7
  6
CONTINUOUS
 10
-38.4312095199
 20
2.979991603
 40
0.2
100
AcDbArc
 50
90.5
 51
121.2983377189
  0
ARC
  5
772
100
AcDbEntity
  8
ASSI
100
AcDbCircle
 62
7
  6
CONTINUOUS
 10
-39.0039174693
 20
2.3033433822
 40
0.2
100
AcDbArc
 50
158.2132107017
 51
180.0
  0
ARC
  5
773
100
AcDbEntity
  8
RACCORDO
100
AcDbCircle
 62
7
  6
CONTINUOUS
 10
-40.4539174693
 20
2.7302675926
 40
0.2
100
AcDbArc
 50
271.0
 51
360.0
  0
ARC
  5
774
100
AcDbEntity
  8
RACCORDO
100
AcDbCircle
 62
7
  6
CONTINUOUS
 10
-39.0539174693
 20
1.6974298366
 40
0.2
100
AcDbArc
 50
180.0
 51
221.2977640754
  0
ARC
  5
775
100
AcDbEntity
  8
RACCORDO
100
AcDbCircle
 62
7
  6
CONTINUOUS
 10
-33.4039174693
 20
-2.2558871646
 40
0.6
100
AcDbArc
 50
271.0
 51
360.0
  0
ARC
  5
776
100
AcDbEntity
  8
RACCORDO
100
AcDbCircle
 62
7
  6
CONTINUOUS
 10
-33.2539174693
 20
-2.4247947234
 40
0.5
100
AcDbArc
 50
270.499994527
 51
359.9993725557
  0
ARC
  5
777
100
AcDbEntity
  8
ASSI
100
AcDbCircle
 62
7
  6
CONTINUOUS
 10
-33.2539174693
 20
-2.4247947234
 40
0.5
100
AcDbArc
 50
270.499994527
 51
359.9993725557
  0
ARC
  5
778
100
AcDbEntity
  8
RACCORDO
100
AcDbCircle
 62
7
  6
CONTINUOUS
 10
-35.8539174693
 20
-1.3341342617
 40
0.35
100
AcDbArc
 50
273.0
 51
360.0
  0
ARC
  5
779
100
AcDbEntity
  8
RACCORDO
100
AcDbCircle
 62
7
  6
CONTINUOUS
 10
-36.9679595845
 20
-1.4072235769
 40
0.2
100
AcDbArc
 50
270.5
 51
301.7143149194
  0
ARC
  5
77A
100
AcDbEntity
  8
ASSI
100
AcDbCircle
 62
7
  6
CONTINUOUS
 10
-36.9679595845
 20
-1.4072235769
 40
0.2
100
AcDbArc
 50
270.5
 51
301.7143149194
  0
ARC
  5
77B
100
AcDbEntity
  8
DRAFT
100
AcDbCircle
 62
7
  6
CONTINUOUS
 10
-36.5039174693
 20
0.7837281399
 40
2.2
100
AcDbArc
 50
200.0883146301
 51
207.8619718643
  0
ARC
  5
77C
100
AcDbEntity
  8
DRAFT
100
AcDbCircle
 62
7
  6
CONTINUOUS
 10
-36.5039174693
 20
0.7837281399
 40
2.2
100
AcDbArc
 50
152.1284458219
 51
159.9211106176
  0
ARC
  5
77D
100
AcDbEntity
  8
DRAFT
100
AcDbCircle
 62
7
  6
CONTINUOUS
 10
-36.5039174693
 20
0.7837281399
 40
2.2
100
AcDbArc
 50
124.9057227251
 51
128.1596397213
  0
ARC
  5
77E
100
AcDbEntity
  8
RACCORDO
100
AcDbCircle
 62
7
  6
CONTINUOUS
 10
-33.4039174693
 20
3.8233434444
 40
0.6
100
AcDbArc
 50
0.0
 51
89.0
  0
ARC
  5
77F
100
AcDbEntity
  8
RACCORDO
100
AcDbCircle
 62
7
  6
CONTINUOUS
 10
-33.2539174693
 20
3.9922564787
 40
0.5
100
AcDbArc
 50
359.981188034
 51
89.5
  0
ARC
  5
780
100
AcDbEntity
  8
ASSI
100
AcDbCircle
 62
7
  6
CONTINUOUS
 10
-33.2539174693
 20
3.9922564787
 40
0.5
100
AcDbArc
 50
359.981188034
 51
89.5
  0
ARC
  5
781
100
AcDbEntity
  8
RACCORDO
100
AcDbCircle
 62
7
  6
CONTINUOUS
 10
-35.8539174693
 20
2.9015905416
 40
0.35
100
AcDbArc
 50
0.0
 51
87.0
  0
ARC
  5
782
100
AcDbEntity
  8
RACCORDO
100
AcDbCircle
 62
7
  6
CONTINUOUS
 10
-36.9679595845
 20
2.9746798568
 40
0.2
100
AcDbArc
 50
58.2856850806
 51
89.5
  0
ARC
  5
783
100
AcDbEntity
  8
ASSI
100
AcDbCircle
 62
7
  6
CONTINUOUS
 10
-36.9679595845
 20
2.9746798568
 40
0.2
100
AcDbArc
 50
58.2856850806
 51
89.5
  0
ELLIPSE
  5
784
100
AcDbEntity
  8
DRAFT
100
AcDbEllipse
 62
7
  6
CONTINUOUS
 10
-37.7047395178
 20
1.7837281399
 30
0.0
 11
0.8986285802
 21
0.0
 31
0.0
 40
0.9999995816
 41
5.1725642146
 42
10.5365348994
  0
ELLIPSE
  5
785
100
AcDbEntity
  8
DRAFT
100
AcDbEllipse
 62
7
  6
CONTINUOUS
 10
-37.7047395178
 20
-0.2162718601
 30
0.0
 11
0.8986285802
 21
0.0
 31
0.0
 40
0.9999995816
 41
2.029835715
 42
7.3938063997
  0
ELLIPSE
  5
786
100
AcDbEntity
  8
DRAFT
100
AcDbEllipse
 62
7
  6
CONTINUOUS
 10
-37.704420109
 20
-0.2162718601
 30
0.0
 11
1.0990125844
 21
-0.0
 31
0.0
 40
0.9999998954
 41
-1.8468022765
 42
0.9941040743
  0
ELLIPSE
  5
787
100
AcDbEntity
  8
DRAFT
100
AcDbEllipse
 62
7
  6
CONTINUOUS
 10
-37.704420109
 20
1.7837281399
 30
0.0
 11
1.0990125844
 21
0.0
 31
0.0
 40
0.9999998954
 41
-0.9941040743
 42
1.8468022765
  0
ELLIPSE
  5
788
100
AcDbEntity
  8
RACCORDO
100
AcDbEllipse
 62
7
  6
CONTINUOUS
 10
-36.0408164716
 20
2.6665773779
 30
0.0
 11
0.5009007152
 21
-0.0038254608
 31
0.0
 40
0.9981726973
 41
0.0076230607
 42
1.4635937072
  0
ELLIPSE
  5
789
100
AcDbEntity
  8
DRAFT
100
AcDbEllipse
 62
7
  6
CONTINUOUS
 10
-37.7034147041
 20
1.7837281399
 30
0.0
 11
1.0992869979
 21
0.0
 31
0.0
 40
0.9999998954
 41
1.8476822578
 42
4.1355613032
  0
ELLIPSE
  5
78A
100
AcDbEntity
  8
DRAFT
100
AcDbEllipse
 62
7
  6
CONTINUOUS
 10
-37.7034147041
 20
-0.2162718601
 30
0.0
 11
1.0992869979
 21
-0.0
 31
0.0
 40
0.9999998954
 41
2.147624004
 42
4.4355030494
  0
ELLIPSE
  5
78B
100
AcDbEntity
  8
RACCORDO
100
AcDbEllipse
 62
7
  6
CONTINUOUS
 10
-36.0408164716
 20
-1.099121098
 30
0.0
 11
0.5009007152
 21
0.0038254608
 31
0.0
 40
0.9981726973
 41
-1.5697047011
 42
-0.0076230607
  0
ELLIPSE
  5
78C
100
AcDbEntity
  8
ASSI
100
AcDbEllipse
 62
7
  6
CONTINUOUS
 10
-37.7047395178
 20
1.7837281399
 30
0.0
 11
0.8986285802
 21
0.0
 31
0.0
 40
0.9999995816
 41
5.1725642146
 42
10.5365348994
  0
ELLIPSE
  5
78D
100
AcDbEntity
  8
ASSI
100
AcDbEllipse
 62
7
  6
CONTINUOUS
 10
-37.7047395178
 20
-0.2162718601
 30
0.0
 11
0.8986285802
 21
0.0
 31
0.0
 40
0.9999995816
 41
2.029835715
 42
7.3938063997
  0
ELLIPSE
  5
78E
100
AcDbEntity
  8
ASSI
100
AcDbEllipse
 62
7
  6
CONTINUOUS
 10
-37.7034147041
 20
1.7837281399
 30
0.0
 11
1.0992869979
 21
0.0
 31
0.0
 40
0.9999998954
 41
1.8476822578
 42
4.1355613032
  0
ELLIPSE
  5
78F
100
AcDbEntity
  8
ASSI
100
AcDbEllipse
 62
7
  6
CONTINUOUS
 10
-37.7034147041
 20
-0.2162718601
 30
0.0
 11
1.0992869979
 21
-0.0
 31
0.0
 40
0.9999998954
 41
2.147624004
 42
4.4355030494
  0
ELLIPSE
  5
790
100
AcDbEntity
  8
ASSI
100
AcDbEllipse
 62
7
  6
CONTINUOUS
 10
-36.0408164716
 20
2.6665773779
 30
0.0
 11
0.5009007152
 21
-0.0038254608
 31
0.0
 40
0.9981726973
 41
0.0076230607
 42
1.4635937072
  0
ELLIPSE
  5
791
100
AcDbEntity
  8
ASSI
100
AcDbEllipse
 62
7
  6
CONTINUOUS
 10
-36.0408164716
 20
-1.099121098
 30
0.0
 11
0.5009007152
 21
0.0038254608
 31
0.0
 40
0.9981726973
 41
-1.5697047011
 42
-0.0076230607
  0
ELLIPSE
  5
792
100
AcDbEntity
  8
ASSI
100
AcDbEllipse
 62
7
  6
CONTINUOUS
 10
-37.704420109
 20
-0.2162718601
 30
0.0
 11
1.0990125844
 21
-0.0
 31
0.0
 40
0.9999998954
 41
-1.8468022765
 42
0.9941040743
  0
ELLIPSE
  5
793
100
AcDbEntity
  8
ASSI
100
AcDbEllipse
 62
7
  6
CONTINUOUS
 10
-37.704420109
 20
1.7837281399
 30
0.0
 11
1.0990125844
 21
0.0
 31
0.0
 40
0.9999998954
 41
-0.9941040743
 42
1.8468022765
  0
ENDSEC
  0
SECTION
  2
OBJECTS
  0
DICTIONARY
  5
C
100
AcDbDictionary
280
0
281
1
  3
ACAD_GROUP
350
D
  3
ACAD_MLINESTYLE
350
17
  3
ACAD_LAYOUT
350
1A
  3
ACAD_PLOTSETTINGS
350
19
  3
ACAD_PLOTSTYLENAME
350
E
  0
DICTIONARY
  5
D
102
{ACAD_REACTORS
330
C
102
}
100
AcDbDictionary
280
0
281
1
  0
ACDBDICTIONARYWDFLT
  5
E
102
{ACAD_REACTORS
330
C
102
}
100
AcDbDictionary
281
1
  3
Normal
350
F
100
AcDbDictionaryWithDefault
340
F
  0
DICTIONARY
  5
17
102
{ACAD_REACTORS
330
C
102
}
100
AcDbDictionary
280
0
281
1
  3
Standard
350
18
  0
DICTIONARY
  5
19
102
{ACAD_REACTORS
330
C
102
}
100
AcDbDictionary
281
1
  0
DICTIONARY
  5
1A
102
{ACAD_REACTORS
330
C
102
}
100
AcDbDictionary
281
1
  3
Model
350
794
  3
Layout1
350
795
  0
ACDBPLACEHOLDER
  5
F
102
{ACAD_REACTORS
330
E
102
}
  0
MLINESTYLE
  5
18
102
{ACAD_REACTORS
330
17
102
}
100
AcDbMlineStyle
  2
STANDARD
 70
0
  3

 62
256
 51
90.0
 52
90.0
 71
2
 49
0.5
 62
256
  6
BYLAYER
 49
-0.5
 62
256
  6
BYLAYER
  0
LAYOUT
  5
794
102
{ACAD_REACTORS
330
1A
102
}
100
AcDbPlotSettings
  1

  2
none_device
  4
ISO_A4_(297.00_x_210.00_MM)
  6

 40
0.0
 41
0.0
 42
0.0
 43
0.0
 44
297.0
 45
210.0
 46
0.0
 47
0.0
 48
0.0
 49
0.0
140
0.0
141
0.0
142
1.0
143
1.0
 70
1024
 72
1
 73
0
 74
0
  7

 75
0
147
1.0
148
0.0
149
0.0
100
AcDbLayout
  1
Model
 70
0
 71
0
 10
0.0
 20
0.0
 11
297.0
 21
210.0
 12
0.0
 22
0.0
 32
0.0
 14
0.0
 24
0.0
 34
0.0
 15
0.0
 25
0.0
 35
0.0
146
0.0
 13
0.0
 23
0.0
 33
0.0
 16
1.0
 26
0.0
 36
0.0
 17
0.0
 27
1.0
 37
0.0
 76
0
330
212
345
0
346
0
  0
LAYOUT
  5
795
102
{ACAD_REACTORS
330
1A
102
}
100
AcDbPlotSettings
  1

  2
none_device
  4
ISO_A4_(297.00_x_210.00_MM)
  6

 40
0.0
 41
0.0
 42
0.0
 43
0.0
 44
297.0
 45
210.0
 46
0.0
 47
0.0
 48
0.0
 49
0.0
140
0.0
141
0.0
142
1.0
143
1.0
 70
0
 72
1
 73
0
 74
0
  7

 75
0
147
1.0
148
0.0
149
0.0
100
AcDbLayout
  1
Layout1
 70
0
 71
1
 10
0.0
 20
0.0
 11
297.0
 21
210.0
 12
0.0
 22
0.0
 32
0.0
 14
0.0
 24
0.0
 34
0.0
 15
0.0
 25
0.0
 35
0.0
146
0.0
 13
0.0
 23
0.0
 33
0.0
 16
1.0
 26
0.0
 36
0.0
 17
0.0
 27
1.0
 37
0.0
 76
0
330
213
345
0
346
0
  0
ENDSEC
  0
EOF
