  0
SECTION
  2
HEADER
  9
$ACADVER
  1
AC1021
  9
$DWGCODEPAGE
  3
ANSI_1252
  9
$EXTMAX
 10
297.0
 20
210.0
 30
0.0
  9
$EXTMIN
 10
0.0
 20
0.0
 30
0.0
  9
$LIMMIN
 10
0.0
 20
0.0
  9
$LIMMAX
 10
297.0
 20
210.0
  9
$VIEWCTR
 10
148.5
 20
105.0
  9
$VIEWSIZE
 40
210.0
  9
$CLAYER
  8
0
  9
$LTSCALE
 40
16.335
  9
$CELTYPE
  6
BYLAYER
  9
$DIMSCALE
 40
1.0
  9
$DIMASZ
 40
3.0
  9
$DIMEXO
 40
0.5
  9
$DIMDLI
 40
11.286
  9
$DIMEXE
 40
1.5
  9
$DIMCEN
 40
2.673
  9
$DIMLFAC
 40
1.0
  9
$DIMBLK
  1
_FILLED
  9
$DIMALT
 70
0
  9
$DIMALTF
 40
0.0393700787
  9
$DIMTXT
 40
3.0
  9
$DIMTOL
 70
1
  9
$DIMLIM
 70
0
  9
$DIMTFAC
 40
1.0
  9
$DIMTP
 40
0.01
  9
$DIMTM
 40
0.01
  9
$DIMGAP
 40
0.625
  9
$DIMDSEP
 70
44
  9
$AUNITS
 70
0
  9
$PDMODE
 70
3
  9
$PDSIZE
 40
3.0
  9
$HANDSEED
  5
791
  9
$TILEMODE
 70
1
  9
$MEASUREMENT
 70
1
  9
$INSUNITS
 70
4
  0
ENDSEC
  0
SECTION
  2
CLASSES
  0
CLASS
  1
ACDBDICTIONARYWDFLT
  2
AcDbDictionaryWithDefault
  3
AutoCAD 2000
 90
0
 91
1
280
0
281
0
  0
CLASS
  1
ACDBPLACEHOLDER
  2
AcDbPlaceHolder
  3
AutoCAD 2000
 90
0
 91
1
280
0
281
0
  0
CLASS
  1
LAYOUT
  2
AcDbLayout
  3
AutoCAD 2000
 90
0
 91
0
280
0
281
0
  0
ENDSEC
  0
SECTION
  2
TABLES
  0
TABLE
  2
VPORT
  5
8
100
AcDbSymbolTable
 70
2
  0
VPORT
  5
1F4
100
AcDbSymbolTableRecord
100
AcDbViewportTableRecord
  2
*ACTIVE
 70
0
 10
0.0
 20
0.0
 11
1.0
 21
1.0
 12
148.5
 22
105.0
 13
0.0
 23
0.0
 14
1.0
 24
1.0
 15
0.0
 25
0.0
 16
0.0
 26
0.0
 36
1.0
 17
0.0
 27
0.0
 37
0.0
 40
210.0
 41
1.4142857143
 42
50.0
 43
0.0
 44
0.0
 50
0.0
 51
0.0
 71
0
 72
100
 73
1
 74
1
 75
0
 76
0
 77
0
 78
0
  0
ENDTAB
  0
TABLE
  2
LTYPE
  5
5
100
AcDbSymbolTable
 70
6
  0
LTYPE
  5
14
100
AcDbSymbolTableRecord
100
AcDbLinetypeTableRecord
  2
BYBLOCK
 70
0
  3

 72
65
 73
0
 40
0.0
  0
LTYPE
  5
15
100
AcDbSymbolTableRecord
100
AcDbLinetypeTableRecord
  2
BYLAYER
 70
0
  3

 72
65
 73
0
 40
0.0
  0
LTYPE
  5
16
100
AcDbSymbolTableRecord
100
AcDbLinetypeTableRecord
  2
CONTINUOUS
 70
64
  3
Solid line
 72
65
 73
0
 40
0.0
  0
LTYPE
  5
1F5
100
AcDbSymbolTableRecord
100
AcDbLinetypeTableRecord
  2
CENTER
 70
64
  3
____ _ ____ _ ____ _ ____ _ ____ _ ____ _ ____
 72
65
 73
4
 40
0.6
 49
0.375
 74
0
 49
-0.075
 74
0
 49
0.075
 74
0
 49
-0.075
 74
0
  0
LTYPE
  5
1F6
100
AcDbSymbolTableRecord
100
AcDbLinetypeTableRecord
  2
HIDDEN
 70
64
  3
- - - - - - - - - - - - - - - - - - - -
 72
65
 73
2
 40
0.2
 49
0.1
 74
0
 49
-0.1
 74
0
  0
LTYPE
  5
1F7
100
AcDbSymbolTableRecord
100
AcDbLinetypeTableRecord
  2
PHANTOM
 70
64
  3
_____ _ _ _____ _ _ _____ _ _ _____
 72
65
 73
6
 40
0.8
 49
0.45
 74
0
 49
-0.05
 74
0
 49
0.1
 74
0
 49
-0.05
 74
0
 49
0.1
 74
0
 49
-0.05
 74
0
  0
LTYPE
  5
1F8
100
AcDbSymbolTableRecord
100
AcDbLinetypeTableRecord
  2
DOT
 70
64
  3
. . . . . . . . . . . . . . . . . . . .
 72
65
 73
2
 40
0.2
 49
0.1
 74
0
 49
-0.1
 74
0
  0
LTYPE
  5
1F9
100
AcDbSymbolTableRecord
100
AcDbLinetypeTableRecord
  2
DASHED
 70
64
  3
- - - - - - - - - - - - - - - - - - - -
 72
65
 73
2
 40
0.2
 49
0.1
 74
0
 49
-0.1
 74
0
  0
ENDTAB
  0
TABLE
  2
LAYER
  5
2
100
AcDbSymbolTable
 70
36
  0
LAYER
  5
10
100
AcDbSymbolTableRecord
100
AcDbLayerTableRecord
  2
0
 70
0
 62
7
  6
CONTINUOUS
370
-3
390
F
  0
LAYER
  5
1FA
100
AcDbSymbolTableRecord
100
AcDbLayerTableRecord
  2
DEFAULT_1
 70
0
 62
7
  6
CENTER
370
-3
390
F
  0
LAYER
  5
1FB
100
AcDbSymbolTableRecord
100
AcDbLayerTableRecord
  2
DEFAULT_2
 70
0
 62
7
  6
HIDDEN
370
-3
390
F
  0
LAYER
  5
1FC
100
AcDbSymbolTableRecord
100
AcDbLayerTableRecord
  2
DEFAULT_3
 70
0
 62
7
  6
PHANTOM
370
-3
390
F
  0
LAYER
  5
1FD
100
AcDbSymbolTableRecord
100
AcDbLayerTableRecord
  2
ASSI
 70
0
 62
7
  6
CONTINUOUS
370
-3
390
F
  0
LAYER
  5
1FE
100
AcDbSymbolTableRecord
100
AcDbLayerTableRecord
  2
COLORI
 70
0
 62
7
  6
CONTINUOUS
370
-3
390
F
  0
LAYER
  5
1FF
100
AcDbSymbolTableRecord
100
AcDbLayerTableRecord
  2
COORDINATE
 70
0
 62
7
  6
CONTINUOUS
370
-3
390
F
  0
LAYER
  5
200
100
AcDbSymbolTableRecord
100
AcDbLayerTableRecord
  2
COPY_PUBLISH
 70
0
 62
7
  6
CONTINUOUS
370
-3
390
F
  0
LAYER
  5
201
100
AcDbSymbolTableRecord
100
AcDbLayerTableRecord
  2
COSMETICI
 70
0
 62
7
  6
CONTINUOUS
370
-3
390
F
  0
LAYER
  5
202
100
AcDbSymbolTableRecord
100
AcDbLayerTableRecord
  2
CURVE
 70
0
 62
7
  6
CONTINUOUS
370
-3
390
F
  0
LAYER
  5
203
100
AcDbSymbolTableRecord
100
AcDbLayerTableRecord
  2
DRAFT
 70
0
 62
7
  6
CONTINUOUS
370
-3
390
F
  0
LAYER
  5
204
100
AcDbSymbolTableRecord
100
AcDbLayerTableRecord
  2
IMPORT_IGES
 70
0
 62
7
  6
CONTINUOUS
370
-3
390
F
  0
LAYER
  5
205
100
AcDbSymbolTableRecord
100
AcDbLayerTableRecord
  2
NOTE
 70
0
 62
7
  6
CONTINUOUS
370
-3
390
F
  0
LAYER
  5
206
100
AcDbSymbolTableRecord
100
AcDbLayerTableRecord
  2
PIANI
 70
0
 62
7
  6
CONTINUOUS
370
-3
390
F
  0
LAYER
  5
207
100
AcDbSymbolTableRecord
100
AcDbLayerTableRecord
  2
PUNTI
 70
0
 62
7
  6
CONTINUOUS
370
-3
390
F
  0
LAYER
  5
208
100
AcDbSymbolTableRecord
100
AcDbLayerTableRecord
  2
RACCORDO
 70
0
 62
7
  6
CONTINUOUS
370
-3
390
F
  0
LAYER
  5
209
100
AcDbSymbolTableRecord
100
AcDbLayerTableRecord
  2
SCRITTE
 70
0
 62
7
  6
CONTINUOUS
370
-3
390
F
  0
LAYER
  5
20A
100
AcDbSymbolTableRecord
100
AcDbLayerTableRecord
  2
SIMBOLI
 70
0
 62
7
  6
CONTINUOUS
370
-3
390
F
  0
LAYER
  5
20B
100
AcDbSymbolTableRecord
100
AcDbLayerTableRecord
  2
SMUSSO
 70
0
 62
7
  6
CONTINUOUS
370
-3
390
F
  0
LAYER
  5
20C
100
AcDbSymbolTableRecord
100
AcDbLayerTableRecord
  2
SNAPLINE
 70
0
 62
7
  6
CONTINUOUS
370
-3
390
F
  0
LAYER
  5
20D
100
AcDbSymbolTableRecord
100
AcDbLayerTableRecord
  2
SUPERFICI
 70
0
 62
7
  6
CONTINUOUS
370
-3
390
F
  0
LAYER
  5
20E
100
AcDbSymbolTableRecord
100
AcDbLayerTableRecord
  2
TRASH
 70
0
 62
7
  6
CONTINUOUS
370
-3
390
F
  0
LAYER
  5
20F
100
AcDbSymbolTableRecord
100
AcDbLayerTableRecord
  2
XSEC_DATUMS
 70
0
 62
7
  6
CONTINUOUS
370
-3
390
F
  0
ENDTAB
  0
TABLE
  2
STYLE
  5
3
100
AcDbSymbolTable
 70
1
  0
STYLE
  5
11
100
AcDbSymbolTableRecord
100
AcDbTextStyleTableRecord
  2
STANDARD
 70
0
 40
0.0
 41
0.8
 50
0.0
 71
0
 42
0.2
  3
txt
  4

  0
STYLE
  5
210
100
AcDbSymbolTableRecord
100
AcDbTextStyleTableRecord
  2
TEXTSTYLE_1
 70
0
 40
0.0
 41
0.8
 50
0.0
 71
0
 42
0.2
  3
gdt
  4

  0
ENDTAB
  0
TABLE
  2
VIEW
  5
6
100
AcDbSymbolTable
 70
0
  0
ENDTAB
  0
TABLE
  2
UCS
  5
7
100
AcDbSymbolTable
 70
0
  0
ENDTAB
  0
TABLE
  2
APPID
  5
9
100
AcDbSymbolTable
 70
1
  0
APPID
  5
211
100
AcDbSymbolTableRecord
100
AcDbRegAppTableRecord
  2
ACAD
 70
0
  0
ENDTAB
  0
TABLE
  2
BLOCK_RECORD
  5
1
100
AcDbSymbolTable
 70
0
  0
BLOCK_RECORD
  5
212
100
AcDbSymbolTableRecord
100
AcDbBlockTableRecord
  2
*Model_Space
  0
BLOCK_RECORD
  5
213
100
AcDbSymbolTableRecord
100
AcDbBlockTableRecord
  2
*Paper_Space
  0
BLOCK_RECORD
  5
214
100
AcDbSymbolTableRecord
100
AcDbBlockTableRecord
  2
_FILLED
  0
BLOCK_RECORD
  5
215
100
AcDbSymbolTableRecord
100
AcDbBlockTableRecord
  2
*D0
  0
BLOCK_RECORD
  5
216
100
AcDbSymbolTableRecord
100
AcDbBlockTableRecord
  2
*D1
  0
BLOCK_RECORD
  5
217
100
AcDbSymbolTableRecord
100
AcDbBlockTableRecord
  2
*D2
  0
BLOCK_RECORD
  5
218
100
AcDbSymbolTableRecord
100
AcDbBlockTableRecord
  2
*D3
  0
BLOCK_RECORD
  5
219
100
AcDbSymbolTableRecord
100
AcDbBlockTableRecord
  2
*D4
  0
BLOCK_RECORD
  5
21A
100
AcDbSymbolTableRecord
100
AcDbBlockTableRecord
  2
*D5
  0
BLOCK_RECORD
  5
21B
100
AcDbSymbolTableRecord
100
AcDbBlockTableRecord
  2
*D6
  0
ENDTAB
  0
TABLE
  2
DIMSTYLE
  5
A
100
AcDbSymbolTable
 70
1
100
AcDbDimStyleTable
 71
0
  0
DIMSTYLE
105
21C
100
AcDbSymbolTableRecord
100
AcDbDimStyleTableRecord
  2
STANDARD
 70
0
  3

  4

 40
1.0
 41
3.0
 42
0.5
 43
0.38
 44
1.5
 45
0.0
 46
0.0
 47
0.01
 48
0.01
140
3.0
141
0.09
142
0.0
143
25.4
144
1.0
145
0.0
146
1.0
147
0.625
 71
1.0
 72
0.0
 73
0
 74
0
 75
0
 76
0
 77
1
 78
8
170
0
171
2
172
0
173
0
174
0
175
0
176
0
177
0
178
0
270
2
271
2
272
2
273
2
274
2
275
0
280
0
281
0
282
0
283
1
284
8
285
0
286
0
287
3
288
0
340
11
278
44
341
214
342
214
343
214
344
214
  0
DIMSTYLE
105
21D
100
AcDbSymbolTableRecord
100
AcDbDimStyleTableRecord
  2
DIMSTYLE_1
 70
0
  3

  4

 40
1.0
 41
3.0
 42
0.5
 43
0.38
 44
1.5
 45
0.0
 46
0.0
 47
0.0
 48
0.0
140
3.0
141
0.09
142
0.0
143
25.4
144
1.0
145
0.0
146
1.0
147
0.75
 71
0.0
 72
0.0
 73
0
 74
0
 75
0
 76
0
 77
1
 78
8
170
0
171
2
172
0
173
0
174
0
175
0
176
0
177
0
178
0
270
2
271
2
272
2
273
2
274
2
275
0
280
0
281
0
282
0
283
1
284
8
285
0
286
0
287
3
288
0
340
11
278
44
341
214
342
214
343
214
344
214
  0
DIMSTYLE
105
21E
100
AcDbSymbolTableRecord
100
AcDbDimStyleTableRecord
  2
DIMSTYLE_2
 70
0
  3

  4

 40
1.0
 41
3.0
 42
0.5
 43
0.38
 44
1.5
 45
0.0
 46
0.0
 47
0.0
 48
0.0
140
3.0
141
0.09
142
0.0
143
25.4
144
1.0
145
0.0
146
1.0
147
0.75
 71
0.0
 72
0.0
 73
0
 74
0
 75
0
 76
0
 77
1
 78
8
170
0
171
2
172
0
173
0
174
0
175
0
176
0
177
0
178
0
270
2
271
1
272
1
273
2
274
2
275
0
280
0
281
0
282
0
283
1
284
8
285
0
286
0
287
3
288
0
340
11
278
44
341
214
342
214
343
214
344
214
  0
ENDTAB
  0
ENDSEC
  0
SECTION
  2
BLOCKS
  0
BLOCK
  5
20
100
AcDbEntity
  8
0
100
AcDbBlockBegin
  2
*Model_Space
 70
0
 10
0.0
 20
0.0
 30
0.0
  3
*Model_Space
  1

  0
ENDBLK
  5
21
100
AcDbEntity
  8
0
100
AcDbBlockEnd
  0
BLOCK
  5
1C
100
AcDbEntity
  8
0
100
AcDbBlockBegin
  2
*Paper_Space
 70
0
 10
0.0
 20
0.0
 30
0.0
  3
*Paper_Space
  1

  0
ENDBLK
  5
1D
100
AcDbEntity
  8
0
100
AcDbBlockEnd
  0
BLOCK
  5
21F
100
AcDbEntity
  8
0
100
AcDbBlockBegin
  2
_FILLED
 70
64
 10
0.0
 20
0.0
  3
_FILLED
  1

  0
SOLID
  5
220
100
AcDbEntity
  8
0
  6
BYBLOCK
 62
0
100
AcDbTrace
 10
0.0
 20
0.0
 11
-1.0
 21
0.3166666667
 12
-1.0
 22
-0.3166666667
 13
-1.0
 23
-0.3166666667
  0
ENDBLK
  5
221
100
AcDbEntity
  8
0
  6
BYBLOCK
 62
0
100
AcDbBlockEnd
  0
BLOCK
  5
222
100
AcDbEntity
  8
0
100
AcDbBlockBegin
 62
7
  6
CONTINUOUS
  2
*D0
 70
65
 10
0.0
 20
0.0
  3
*D0
  1

  0
MTEXT
  5
223
100
AcDbEntity
  8
0
100
AcDbMText
 62
7
  6
CONTINUOUS
  7
STANDARD
 71
2
 72
1
 10
-22.1400945639
 20
-1.6206521088
 30
0.0
 11
0.0
 21
1.0
 31
0.0
 44
0.9
  1
7,5
 40
3.0
 41
9.3214285714
  0
LINE
  5
224
100
AcDbEntity
  8
0
100
AcDbLine
 62
7
  6
CONTINUOUS
 10
-31.1400945639
 20
2.1293478912
 11
-16.8900945639
 21
2.1293478912
  0
LINE
  5
225
100
AcDbEntity
  8
0
100
AcDbLine
 62
7
  6
CONTINUOUS
 10
-31.1400945639
 20
-5.3706521088
 11
-16.8900945639
 21
-5.3706521088
  0
LINE
  5
226
100
AcDbEntity
  8
0
100
AcDbLine
 62
7
  6
CONTINUOUS
 10
-18.3900945639
 20
2.1293478912
 11
-18.3900945639
 21
6.1293478912
  0
LINE
  5
227
100
AcDbEntity
  8
0
100
AcDbLine
 62
7
  6
CONTINUOUS
 10
-18.3900945639
 20
6.1293478912
 11
-18.3900945639
 21
-1.6206521088
  0
LINE
  5
228
100
AcDbEntity
  8
0
100
AcDbLine
 62
7
  6
CONTINUOUS
 10
-18.3900945639
 20
-5.3706521088
 11
-18.3900945639
 21
-9.3706521088
  0
LINE
  5
229
100
AcDbEntity
  8
0
100
AcDbLine
 62
7
  6
CONTINUOUS
 10
-18.3900945639
 20
-9.3706521088
 11
-18.3900945639
 21
-1.6206521088
  0
INSERT
  5
22A
100
AcDbEntity
  8
0
100
AcDbBlockReference
 62
7
  6
CONTINUOUS
  2
_FILLED
 10
-18.3900945639
 20
2.1293478912
 41
3.0
 42
3.0
 43
3.0
 50
270.0
  0
INSERT
  5
22B
100
AcDbEntity
  8
0
100
AcDbBlockReference
 62
7
  6
CONTINUOUS
  2
_FILLED
 10
-18.3900945639
 20
-5.3706521088
 41
3.0
 42
3.0
 43
3.0
 50
90.0
  0
ENDBLK
  5
22C
100
AcDbEntity
  8
0
  6
BYBLOCK
 62
0
100
AcDbBlockEnd
  0
BLOCK
  5
22D
100
AcDbEntity
  8
0
100
AcDbBlockBegin
 62
7
  6
CONTINUOUS
  2
*D1
 70
65
 10
0.0
 20
0.0
  3
*D1
  1

  0
MTEXT
  5
22E
100
AcDbEntity
  8
0
100
AcDbMText
 62
7
  6
CONTINUOUS
  7
STANDARD
 71
2
 72
1
 10
-30.1400945639
 20
14.5030359449
 30
0.0
 11
1.0
 21
0.0
 31
0.0
 44
0.9
  1
7,5
 40
3.0
 41
9.3214285714
  0
LINE
  5
22F
100
AcDbEntity
  8
0
100
AcDbLine
 62
7
  6
CONTINUOUS
 10
-26.3900945639
 20
2.08787623
 11
-26.3900945639
 21
12.2530359449
  0
LINE
  5
230
100
AcDbEntity
  8
0
100
AcDbLine
 62
7
  6
CONTINUOUS
 10
-33.8900945639
 20
1.5782848428
 11
-33.8900945639
 21
12.2530359449
  0
LINE
  5
231
100
AcDbEntity
  8
0
100
AcDbLine
 62
7
  6
CONTINUOUS
 10
-26.3900945639
 20
10.7530359449
 11
-22.3900945639
 21
10.7530359449
  0
LINE
  5
232
100
AcDbEntity
  8
0
100
AcDbLine
 62
7
  6
CONTINUOUS
 10
-22.3900945639
 20
10.7530359449
 11
-30.1400945639
 21
10.7530359449
  0
LINE
  5
233
100
AcDbEntity
  8
0
100
AcDbLine
 62
7
  6
CONTINUOUS
 10
-33.8900945639
 20
10.7530359449
 11
-37.8900945639
 21
10.7530359449
  0
LINE
  5
234
100
AcDbEntity
  8
0
100
AcDbLine
 62
7
  6
CONTINUOUS
 10
-37.8900945639
 20
10.7530359449
 11
-30.1400945639
 21
10.7530359449
  0
INSERT
  5
235
100
AcDbEntity
  8
0
100
AcDbBlockReference
 62
7
  6
CONTINUOUS
  2
_FILLED
 10
-26.3900945639
 20
10.7530359449
 41
3.0
 42
3.0
 43
3.0
 50
180.0
  0
INSERT
  5
236
100
AcDbEntity
  8
0
100
AcDbBlockReference
 62
7
  6
CONTINUOUS
  2
_FILLED
 10
-33.8900945639
 20
10.7530359449
 41
3.0
 42
3.0
 43
3.0
 50
0.0
  0
ENDBLK
  5
237
100
AcDbEntity
  8
0
  6
BYBLOCK
 62
0
100
AcDbBlockEnd
  0
BLOCK
  5
238
100
AcDbEntity
  8
0
100
AcDbBlockBegin
 62
7
  6
CONTINUOUS
  2
*D2
 70
65
 10
0.0
 20
0.0
  3
*D2
  1

  0
MTEXT
  5
239
100
AcDbEntity
  8
0
100
AcDbMText
 62
7
  6
CONTINUOUS
  7
STANDARD
 71
2
 72
1
 10
40.6483615871
 20
-9.6730332631
 30
0.0
 11
1.0
 21
0.0
 31
0.0
 44
0.9
  1
34,6
 40
3.0
 41
12.8571428571
  0
LINE
  5
23A
100
AcDbEntity
  8
0
100
AcDbLine
 62
7
  6
CONTINUOUS
 10
57.9414383277
 20
-3.8012677374
 11
57.9414393232
 21
-14.9230317152
  0
LINE
  5
23B
100
AcDbEntity
  8
0
100
AcDbLine
 62
7
  6
CONTINUOUS
 10
23.355283566
 20
-4.2385145105
 11
23.3552845223
 21
-14.9230348109
  0
LINE
  5
23C
100
AcDbEntity
  8
0
100
AcDbLine
 62
7
  6
CONTINUOUS
 10
57.941439189
 20
-13.4230317152
 11
40.6483617885
 21
-13.4230332631
  0
LINE
  5
23D
100
AcDbEntity
  8
0
100
AcDbLine
 62
7
  6
CONTINUOUS
 10
23.3552843881
 20
-13.4230348109
 11
40.6483617885
 21
-13.4230332631
  0
INSERT
  5
23E
100
AcDbEntity
  8
0
100
AcDbBlockReference
 62
7
  6
CONTINUOUS
  2
_FILLED
 10
57.941439189
 20
-13.4230317152
 41
3.0
 42
3.0
 43
3.0
 50
0.0000051285
  0
INSERT
  5
23F
100
AcDbEntity
  8
0
100
AcDbBlockReference
 62
7
  6
CONTINUOUS
  2
_FILLED
 10
23.3552843881
 20
-13.4230348109
 41
3.0
 42
3.0
 43
3.0
 50
180.0000051285
  0
ENDBLK
  5
240
100
AcDbEntity
  8
0
  6
BYBLOCK
 62
0
100
AcDbBlockEnd
  0
BLOCK
  5
241
100
AcDbEntity
  8
0
100
AcDbBlockBegin
 62
7
  6
CONTINUOUS
  2
*D3
 70
65
 10
0.0
 20
0.0
  3
*D3
  1

  0
MTEXT
  5
242
100
AcDbEntity
  8
0
100
AcDbMText
 62
7
  6
CONTINUOUS
  7
STANDARD
 71
2
 72
1
 10
33.5977193402
 20
14.5030359449
 30
0.0
 11
1.0
 21
0.0
 31
0.0
 44
0.9
  1
20,5
 40
3.0
 41
12.8571428571
  0
LINE
  5
243
100
AcDbEntity
  8
0
100
AcDbLine
 62
7
  6
CONTINUOUS
 10
23.3552835212
 20
0.9972102928
 11
23.3552835212
 21
12.2530359449
  0
LINE
  5
244
100
AcDbEntity
  8
0
100
AcDbLine
 62
7
  6
CONTINUOUS
 10
43.8401551592
 20
1.9878800311
 11
43.8401551592
 21
12.2530359449
  0
LINE
  5
245
100
AcDbEntity
  8
0
100
AcDbLine
 62
7
  6
CONTINUOUS
 10
23.3552835212
 20
10.7530359449
 11
33.5977193402
 21
10.7530359449
  0
LINE
  5
246
100
AcDbEntity
  8
0
100
AcDbLine
 62
7
  6
CONTINUOUS
 10
43.8401551592
 20
10.7530359449
 11
33.5977193402
 21
10.7530359449
  0
INSERT
  5
247
100
AcDbEntity
  8
0
100
AcDbBlockReference
 62
7
  6
CONTINUOUS
  2
_FILLED
 10
23.3552835212
 20
10.7530359449
 41
3.0
 42
3.0
 43
3.0
 50
180.0
  0
INSERT
  5
248
100
AcDbEntity
  8
0
100
AcDbBlockReference
 62
7
  6
CONTINUOUS
  2
_FILLED
 10
43.8401551592
 20
10.7530359449
 41
3.0
 42
3.0
 43
3.0
  0
ENDBLK
  5
249
100
AcDbEntity
  8
0
  6
BYBLOCK
 62
0
100
AcDbBlockEnd
  0
BLOCK
  5
24A
100
AcDbEntity
  8
0
100
AcDbBlockBegin
 62
7
  6
CONTINUOUS
  2
*D4
 70
65
 10
0.0
 20
0.0
  3
*D4
  1

  0
MTEXT
  5
24B
100
AcDbEntity
  8
0
100
AcDbMText
 62
7
  6
CONTINUOUS
  7
STANDARD
 71
2
 72
1
 10
28.8553977772
 20
-19.6730318374
 30
0.0
 11
1.0
 21
0.0
 31
0.0
 44
0.9
  1
132,6
 40
3.0
 41
15.4285714286
  0
LINE
  5
24C
100
AcDbEntity
  8
0
100
AcDbLine
 62
7
  6
CONTINUOUS
 10
57.9414383277
 20
-3.8012743958
 11
57.9414402183
 21
-24.923029234
  0
LINE
  5
24D
100
AcDbEntity
  8
0
100
AcDbLine
 62
7
  6
CONTINUOUS
 10
-0.2306459084
 20
-3.5206521088
 11
-0.2306439927
 21
-24.9230344409
  0
LINE
  5
24E
100
AcDbEntity
  8
0
100
AcDbLine
 62
7
  6
CONTINUOUS
 10
57.941440084
 20
-23.423029234
 11
28.8553979786
 21
-23.4230318374
  0
LINE
  5
24F
100
AcDbEntity
  8
0
100
AcDbLine
 62
7
  6
CONTINUOUS
 10
-0.2306441269
 20
-23.4230344409
 11
28.8553979786
 21
-23.4230318374
  0
INSERT
  5
250
100
AcDbEntity
  8
0
100
AcDbBlockReference
 62
7
  6
CONTINUOUS
  2
_FILLED
 10
57.941440084
 20
-23.423029234
 41
3.0
 42
3.0
 43
3.0
 50
0.0000051285
  0
INSERT
  5
251
100
AcDbEntity
  8
0
100
AcDbBlockReference
 62
7
  6
CONTINUOUS
  2
_FILLED
 10
-0.2306441269
 20
-23.4230344409
 41
3.0
 42
3.0
 43
3.0
 50
180.0000051285
  0
ENDBLK
  5
252
100
AcDbEntity
  8
0
  6
BYBLOCK
 62
0
100
AcDbBlockEnd
  0
BLOCK
  5
253
100
AcDbEntity
  8
0
100
AcDbBlockBegin
 62
7
  6
CONTINUOUS
  2
*D5
 70
65
 10
0.0
 20
0.0
  3
*D5
  1

  0
MTEXT
  5
254
100
AcDbEntity
  8
0
100
AcDbMText
 62
7
  6
CONTINUOUS
  7
STANDARD
 71
2
 72
1
 10
4.7693540111
 20
-9.6730332631
 30
0.0
 11
1.0
 21
0.0
 31
0.0
 44
0.9
  1
10
 40
3.0
 41
6.1071428571
  0
LINE
  5
255
100
AcDbEntity
  8
0
100
AcDbLine
 62
7
  6
CONTINUOUS
 10
9.7693540111
 20
-3.8706521088
 11
9.7693540111
 21
-14.9230332631
  0
LINE
  5
256
100
AcDbEntity
  8
0
100
AcDbLine
 62
7
  6
CONTINUOUS
 10
-0.2306459889
 20
-3.1206521088
 11
-0.2306459889
 21
-14.9230332631
  0
LINE
  5
257
100
AcDbEntity
  8
0
100
AcDbLine
 62
7
  6
CONTINUOUS
 10
9.7693540111
 20
-13.4230332631
 11
13.7693540111
 21
-13.4230332631
  0
LINE
  5
258
100
AcDbEntity
  8
0
100
AcDbLine
 62
7
  6
CONTINUOUS
 10
13.7693540111
 20
-13.4230332631
 11
4.7693540111
 21
-13.4230332631
  0
LINE
  5
259
100
AcDbEntity
  8
0
100
AcDbLine
 62
7
  6
CONTINUOUS
 10
-0.2306459889
 20
-13.4230332631
 11
-4.2306459889
 21
-13.4230332631
  0
LINE
  5
25A
100
AcDbEntity
  8
0
100
AcDbLine
 62
7
  6
CONTINUOUS
 10
-4.2306459889
 20
-13.4230332631
 11
4.7693540111
 21
-13.4230332631
  0
INSERT
  5
25B
100
AcDbEntity
  8
0
100
AcDbBlockReference
 62
7
  6
CONTINUOUS
  2
_FILLED
 10
9.7693540111
 20
-13.4230332631
 41
3.0
 42
3.0
 43
3.0
 50
180.0
  0
INSERT
  5
25C
100
AcDbEntity
  8
0
100
AcDbBlockReference
 62
7
  6
CONTINUOUS
  2
_FILLED
 10
-0.2306459889
 20
-13.4230332631
 41
3.0
 42
3.0
 43
3.0
  0
ENDBLK
  5
25D
100
AcDbEntity
  8
0
  6
BYBLOCK
 62
0
100
AcDbBlockEnd
  0
BLOCK
  5
25E
100
AcDbEntity
  8
0
100
AcDbBlockBegin
 62
7
  6
CONTINUOUS
  2
*D6
 70
65
 10
0.0
 20
0.0
  3
*D6
  1

  0
MTEXT
  5
25F
100
AcDbEntity
  8
0
100
AcDbMText
 62
7
  6
CONTINUOUS
  7
STANDARD
 71
1
 72
1
 10
62.2351265491
 20
7.1354131086
 30
0.0
 11
0.0
 21
1.0
 31
0.0
 44
0.9
  1
5,8
 40
3.0
 41
9.3214285714
  0
LINE
  5
260
100
AcDbEntity
  8
0
100
AcDbLine
 62
7
  6
CONTINUOUS
 10
58.3816610894
 20
1.2793478912
 11
67.4851265491
 21
1.2793478912
  0
LINE
  5
261
100
AcDbEntity
  8
0
100
AcDbLine
 62
7
  6
CONTINUOUS
 10
58.3816610894
 20
-4.5206521088
 11
67.4851265491
 21
-4.5206521088
  0
LINE
  5
262
100
AcDbEntity
  8
0
100
AcDbLine
 62
7
  6
CONTINUOUS
 10
65.9851265491
 20
1.2793478912
 11
65.9851265491
 21
13.3496988228
  0
LINE
  5
263
100
AcDbEntity
  8
0
100
AcDbLine
 62
7
  6
CONTINUOUS
 10
65.9851265491
 20
13.3496988228
 11
65.9851265491
 21
-1.6206521088
  0
LINE
  5
264
100
AcDbEntity
  8
0
100
AcDbLine
 62
7
  6
CONTINUOUS
 10
65.9851265491
 20
-4.5206521088
 11
65.9851265491
 21
-8.5206521088
  0
LINE
  5
265
100
AcDbEntity
  8
0
100
AcDbLine
 62
7
  6
CONTINUOUS
 10
65.9851265491
 20
-8.5206521088
 11
65.9851265491
 21
-1.6206521088
  0
INSERT
  5
266
100
AcDbEntity
  8
0
100
AcDbBlockReference
 62
7
  6
CONTINUOUS
  2
_FILLED
 10
65.9851265491
 20
1.2793478912
 41
3.0
 42
3.0
 43
3.0
 50
270.0
  0
INSERT
  5
267
100
AcDbEntity
  8
0
100
AcDbBlockReference
 62
7
  6
CONTINUOUS
  2
_FILLED
 10
65.9851265491
 20
-4.5206521088
 41
3.0
 42
3.0
 43
3.0
 50
90.0
  0
ENDBLK
  5
268
100
AcDbEntity
  8
0
  6
BYBLOCK
 62
0
100
AcDbBlockEnd
  0
ENDSEC
  0
SECTION
  2
ENTITIES
  0
DIMENSION
  5
269
100
AcDbEntity
  8
0
100
AcDbDimension
 62
7
  6
CONTINUOUS
  2
*D0
 10
-18.3900945639
 20
-5.3706521088
 11
-18.3900945639
 21
-2.0492237118
 70
160
 71
2
 42
7.5
  3
DIMSTYLE_1
100
AcDbAlignedDimension
 13
-31.6400945639
 23
2.1293478912
 14
-31.6400945639
 24
-5.3706521088
 50
270.0
100
AcDbRotatedDimension
  0
DIMENSION
  5
26A
100
AcDbEntity
  8
0
100
AcDbDimension
 62
7
  6
CONTINUOUS
  2
*D1
 10
-33.8900945639
 20
10.7530359449
 11
-30.5686658592
 21
10.7530359449
 70
160
 71
2
 42
7.5
  3
DIMSTYLE_1
100
AcDbAlignedDimension
 13
-26.3900945639
 23
1.58787623
 14
-33.8900945639
 24
1.0782848428
 50
180.0
100
AcDbRotatedDimension
  0
DIMENSION
  5
26B
100
AcDbEntity
  8
0
100
AcDbDimension
 62
7
  6
CONTINUOUS
  2
*D2
 10
23.3552843881
 20
-13.4230348109
 11
40.2197906314
 21
-13.4230333014
 70
160
 71
2
 42
34.5861548009
  3
DIMSTYLE_2
100
AcDbAlignedDimension
 13
57.941438283
 23
-3.3012677374
 14
23.3552835212
 24
-3.7385145105
 50
180.0000051285
100
AcDbRotatedDimension
  0
DIMENSION
  5
26C
100
AcDbEntity
  8
0
100
AcDbDimension
 62
7
  6
CONTINUOUS
  2
*D3
 10
43.8401551592
 20
10.7530359449
 11
33.1691481628
 21
10.7530359449
 70
160
 71
2
 42
20.484871638
  3
DIMSTYLE_2
100
AcDbAlignedDimension
 13
23.3552835212
 23
0.4972102928
 14
43.8401551592
 24
1.4878800311
100
AcDbRotatedDimension
  0
DIMENSION
  5
26D
100
AcDbEntity
  8
0
100
AcDbDimension
 62
7
  6
CONTINUOUS
  2
*D4
 10
-0.2306441269
 20
-23.4230344409
 11
28.4268261424
 21
-23.4230318758
 70
160
 71
2
 42
132.5597923632
  3
DIMSTYLE_2
100
AcDbAlignedDimension
 13
57.941438283
 23
-3.3012743958
 14
-0.2306459531
 24
-3.0206521088
 50
180.0000051285
100
AcDbRotatedDimension
  0
DIMENSION
  5
26E
100
AcDbEntity
  8
0
100
AcDbDimension
 62
7
  6
CONTINUOUS
  2
*D5
 10
-0.2306459889
 20
-13.4230332631
 11
4.3407826738
 21
-13.4230332631
 70
160
 71
2
 42
10.0
  3
DIMSTYLE_1
100
AcDbAlignedDimension
 13
9.7693540111
 23
-3.3706521088
 14
-0.2306459889
 24
-2.6206521088
 50
180.0
100
AcDbRotatedDimension
  0
DIMENSION
  5
26F
100
AcDbEntity
  8
0
100
AcDbDimension
 62
7
  6
CONTINUOUS
  2
*D6
 10
65.9851265491
 20
-4.5206521088
 11
65.9851265491
 21
9.8139844354
 70
160
 71
1
 42
5.8
  3
DIMSTYLE_1
100
AcDbAlignedDimension
 13
57.8816610894
 23
1.2793478912
 14
57.8816610894
 24
-4.5206521088
 50
270.0
100
AcDbRotatedDimension
  0
LINE
  5
270
100
AcDbEntity
  8
0
100
AcDbLine
 62
7
  6
CONTINUOUS
 10
-0.2306459889
 20
-3.0206521088
 11
-0.2306459889
 21
-2.2206521088
  0
LINE
  5
271
100
AcDbEntity
  8
0
100
AcDbLine
 62
7
  6
CONTINUOUS
 10
-0.2306459889
 20
-1.0206521088
 11
-0.2306459889
 21
-0.2206521088
  0
LINE
  5
272
100
AcDbEntity
  8
0
100
AcDbLine
 62
7
  6
CONTINUOUS
 10
12.9276979782
 20
-3.3706521088
 11
9.7693540111
 21
-3.3706521088
  0
LINE
  5
273
100
AcDbEntity
  8
0
100
AcDbLine
 62
7
  6
CONTINUOUS
 10
9.7693540111
 20
-3.0206521088
 11
-0.2306459889
 21
-3.0206521088
  0
LINE
  5
274
100
AcDbEntity
  8
0
100
AcDbLine
 62
7
  6
CONTINUOUS
 10
9.7693540111
 20
-2.2206521088
 11
-0.2306459889
 21
-2.2206521088
  0
LINE
  5
275
100
AcDbEntity
  8
0
100
AcDbLine
 62
7
  6
CONTINUOUS
 10
12.9276979782
 20
-1.8706521088
 11
9.7693540111
 21
-1.8706521088
  0
LINE
  5
276
100
AcDbEntity
  8
0
100
AcDbLine
 62
7
  6
CONTINUOUS
 10
12.9276979782
 20
-1.3706521088
 11
9.7693540111
 21
-1.3706521088
  0
LINE
  5
277
100
AcDbEntity
  8
0
100
AcDbLine
 62
7
  6
CONTINUOUS
 10
9.7693540111
 20
-1.0206521088
 11
-0.2306459889
 21
-1.0206521088
  0
LINE
  5
278
100
AcDbEntity
  8
0
100
AcDbLine
 62
7
  6
CONTINUOUS
 10
9.7693540111
 20
-0.2206521088
 11
-0.2306459889
 21
-0.2206521088
  0
LINE
  5
279
100
AcDbEntity
  8
0
100
AcDbLine
 62
7
  6
CONTINUOUS
 10
12.9276979782
 20
0.1293478912
 11
9.7693540111
 21
0.1293478912
  0
LINE
  5
27A
100
AcDbEntity
  8
0
100
AcDbLine
 62
7
  6
CONTINUOUS
 10
9.7693540111
 20
-3.3706521088
 11
9.7693540111
 21
-1.8706521088
  0
LINE
  5
27B
100
AcDbEntity
  8
0
100
AcDbLine
 62
7
  6
CONTINUOUS
 10
9.7693540111
 20
-1.3706521088
 11
9.7693540111
 21
0.1293478912
  0
LINE
  5
27C
100
AcDbEntity
  8
0
100
AcDbLine
 62
7
  6
CONTINUOUS
 10
12.9276979782
 20
-3.3706521088
 11
12.9276979782
 21
-1.8706521088
  0
LINE
  5
27D
100
AcDbEntity
  8
0
100
AcDbLine
 62
7
  6
CONTINUOUS
 10
12.9276979782
 20
-1.3706521088
 11
12.9276979782
 21
0.1293478912
  0
LINE
  5
27E
100
AcDbEntity
  8
0
100
AcDbLine
 62
7
  6
CONTINUOUS
 10
15.9278999782
 20
0.1293478912
 11
15.9278999782
 21
-1.3706521088
  0
LINE
  5
27F
100
AcDbEntity
  8
0
100
AcDbLine
 62
7
  6
CONTINUOUS
 10
15.9278999782
 20
-1.8706521088
 11
15.9278999782
 21
-3.3706521088
  0
LINE
  5
280
100
AcDbEntity
  8
DRAFT
100
AcDbLine
 62
7
  6
CONTINUOUS
 10
21.3816458589
 20
0.4367644401
 11
21.3825243664
 21
0.4025839994
  0
LINE
  5
281
100
AcDbEntity
  8
ASSI
100
AcDbLine
 62
7
  6
CONTINUOUS
 10
21.3816458589
 20
0.4367644401
 11
21.3825243664
 21
0.4025839994
  0
LINE
  5
282
100
AcDbEntity
  8
RACCORDO
100
AcDbLine
 62
7
  6
CONTINUOUS
 10
21.3915119483
 20
0.746513122
 11
21.3913208077
 21
0.7566256867
  0
LINE
  5
283
100
AcDbEntity
  8
ASSI
100
AcDbLine
 62
7
  6
CONTINUOUS
 10
21.3915119483
 20
0.746513122
 11
21.3913208077
 21
0.7566256867
  0
LINE
  5
284
100
AcDbEntity
  8
DRAFT
100
AcDbLine
 62
7
  6
CONTINUOUS
 10
21.3825243664
 20
0.4025839994
 11
21.3841428956
 21
0.3090205756
  0
LINE
  5
285
100
AcDbEntity
  8
ASSI
100
AcDbLine
 62
7
  6
CONTINUOUS
 10
21.3825243664
 20
0.4025839994
 11
21.3841428956
 21
0.3090205756
  0
LINE
  5
286
100
AcDbEntity
  8
RACCORDO
100
AcDbLine
 62
7
  6
CONTINUOUS
 10
21.3931958196
 20
0.6091686951
 11
21.3915119483
 21
0.746513122
  0
LINE
  5
287
100
AcDbEntity
  8
ASSI
100
AcDbLine
 62
7
  6
CONTINUOUS
 10
21.3931958196
 20
0.6091686951
 11
21.3915119483
 21
0.746513122
  0
LINE
  5
288
100
AcDbEntity
  8
DRAFT
100
AcDbLine
 62
7
  6
CONTINUOUS
 10
21.3841428956
 20
0.3090205756
 11
21.3860238437
 21
0.1293478912
  0
LINE
  5
289
100
AcDbEntity
  8
ASSI
100
AcDbLine
 62
7
  6
CONTINUOUS
 10
21.3841428956
 20
0.3090205756
 11
21.3860238437
 21
0.1293478912
  0
LINE
  5
28A
100
AcDbEntity
  8
DRAFT
100
AcDbLine
 62
7
  6
CONTINUOUS
 10
21.3842553041
 20
-1.6992331997
 11
21.3860221393
 21
-1.8706521088
  0
LINE
  5
28B
100
AcDbEntity
  8
ASSI
100
AcDbLine
 62
7
  6
CONTINUOUS
 10
21.3842553041
 20
-1.6992331997
 11
21.3860221393
 21
-1.8706521088
  0
LINE
  5
28C
100
AcDbEntity
  8
DRAFT
100
AcDbLine
 62
7
  6
CONTINUOUS
 10
21.3915313071
 20
-1.9040618085
 11
21.3894890311
 21
-1.6993820518
  0
LINE
  5
28D
100
AcDbEntity
  8
ASSI
100
AcDbLine
 62
7
  6
CONTINUOUS
 10
21.3915313071
 20
-1.9040618085
 11
21.3894890311
 21
-1.6993820518
  0
LINE
  5
28E
100
AcDbEntity
  8
RACCORDO
100
AcDbLine
 62
7
  6
CONTINUOUS
 10
21.3958255753
 20
0.2764618177
 11
21.3931958196
 21
0.6091686951
  0
LINE
  5
28F
100
AcDbEntity
  8
ASSI
100
AcDbLine
 62
7
  6
CONTINUOUS
 10
21.3958255753
 20
0.2764618177
 11
21.3931958196
 21
0.6091686951
  0
LINE
  5
290
100
AcDbEntity
  8
DRAFT
100
AcDbLine
 62
7
  6
CONTINUOUS
 10
21.393581324
 20
-2.3628756072
 11
21.3915313071
 21
-1.9040618085
  0
LINE
  5
291
100
AcDbEntity
  8
ASSI
100
AcDbLine
 62
7
  6
CONTINUOUS
 10
21.393581324
 20
-2.3628756072
 11
21.3915313071
 21
-1.9040618085
  0
LINE
  5
292
100
AcDbEntity
  8
RACCORDO
100
AcDbLine
 62
7
  6
CONTINUOUS
 10
21.3979372634
 20
-2.2965111083
 11
21.3951637736
 21
-1.6206521088
  0
LINE
  5
293
100
AcDbEntity
  8
ASSI
100
AcDbLine
 62
7
  6
CONTINUOUS
 10
21.3979372634
 20
-2.2965111083
 11
21.3951637736
 21
-1.6206521088
  0
LINE
  5
294
100
AcDbEntity
  8
RACCORDO
100
AcDbLine
 62
7
  6
CONTINUOUS
 10
21.3981170861
 20
-0.4204857649
 11
21.3958255753
 21
0.2764618177
  0
LINE
  5
295
100
AcDbEntity
  8
ASSI
100
AcDbLine
 62
7
  6
CONTINUOUS
 10
21.3981170861
 20
-0.4204857649
 11
21.3958255753
 21
0.2764618177
  0
LINE
  5
296
100
AcDbEntity
  8
DRAFT
100
AcDbLine
 62
7
  6
CONTINUOUS
 10
21.3816458589
 20
-4.0206521088
 11
21.3816458589
 21
-3.7196621536
  0
LINE
  5
297
100
AcDbEntity
  8
ASSI
100
AcDbLine
 62
7
  6
CONTINUOUS
 10
21.3816458589
 20
-4.0206521088
 11
21.3816458589
 21
-3.7196621536
  0
LINE
  5
298
100
AcDbEntity
  8
DRAFT
100
AcDbLine
 62
7
  6
CONTINUOUS
 10
21.3816458589
 20
0.478357936
 11
21.3816458589
 21
0.7793478912
  0
LINE
  5
299
100
AcDbEntity
  8
ASSI
100
AcDbLine
 62
7
  6
CONTINUOUS
 10
21.3816458589
 20
0.478357936
 11
21.3816458589
 21
0.7793478912
  0
LINE
  5
29A
100
AcDbEntity
  8
DRAFT
100
AcDbLine
 62
7
  6
CONTINUOUS
 10
21.3842553041
 20
-1.5420710179
 11
21.3842553041
 21
-1.6992331997
  0
LINE
  5
29B
100
AcDbEntity
  8
ASSI
100
AcDbLine
 62
7
  6
CONTINUOUS
 10
21.3842553041
 20
-1.5420710179
 11
21.3842553041
 21
-1.6992331997
  0
LINE
  5
29C
100
AcDbEntity
  8
DRAFT
100
AcDbLine
 62
7
  6
CONTINUOUS
 10
21.3894890311
 20
-1.6993820518
 11
21.3894890311
 21
-1.5419221659
  0
LINE
  5
29D
100
AcDbEntity
  8
ASSI
100
AcDbLine
 62
7
  6
CONTINUOUS
 10
21.3894890311
 20
-1.6993820518
 11
21.3894890311
 21
-1.5419221659
  0
LINE
  5
29E
100
AcDbEntity
  8
DRAFT
100
AcDbLine
 62
7
  6
CONTINUOUS
 10
21.3933267325
 20
-2.9783680922
 11
21.393581324
 21
-2.3628756072
  0
LINE
  5
29F
100
AcDbEntity
  8
ASSI
100
AcDbLine
 62
7
  6
CONTINUOUS
 10
21.3933267325
 20
-2.9783680922
 11
21.393581324
 21
-2.3628756072
  0
LINE
  5
2A0
100
AcDbEntity
  8
RACCORDO
100
AcDbLine
 62
7
  6
CONTINUOUS
 10
21.3975469416
 20
-3.1138675938
 11
21.3979372634
 21
-2.2965111083
  0
LINE
  5
2A1
100
AcDbEntity
  8
ASSI
100
AcDbLine
 62
7
  6
CONTINUOUS
 10
21.3975469416
 20
-3.1138675938
 11
21.3979372634
 21
-2.2965111083
  0
LINE
  5
2A2
100
AcDbEntity
  8
RACCORDO
100
AcDbLine
 62
7
  6
CONTINUOUS
 10
21.3971646902
 20
-1.2327652722
 11
21.3981170861
 21
-0.4204857649
  0
LINE
  5
2A3
100
AcDbEntity
  8
ASSI
100
AcDbLine
 62
7
  6
CONTINUOUS
 10
21.3971646902
 20
-1.2327652722
 11
21.3981170861
 21
-0.4204857649
  0
LINE
  5
2A4
100
AcDbEntity
  8
RACCORDO
100
AcDbLine
 62
7
  6
CONTINUOUS
 10
21.3951637736
 20
-1.6206521088
 11
21.3971646902
 21
-1.2327652722
  0
LINE
  5
2A5
100
AcDbEntity
  8
ASSI
100
AcDbLine
 62
7
  6
CONTINUOUS
 10
21.3951637736
 20
-1.6206521088
 11
21.3971646902
 21
-1.2327652722
  0
LINE
  5
2A6
100
AcDbEntity
  8
DRAFT
100
AcDbLine
 62
7
  6
CONTINUOUS
 10
21.3915299978
 20
-3.3374168305
 11
21.3933267325
 21
-2.9783680922
  0
LINE
  5
2A7
100
AcDbEntity
  8
ASSI
100
AcDbLine
 62
7
  6
CONTINUOUS
 10
21.3915299978
 20
-3.3374168305
 11
21.3933267325
 21
-2.9783680922
  0
LINE
  5
2A8
100
AcDbEntity
  8
RACCORDO
100
AcDbLine
 62
7
  6
CONTINUOUS
 10
21.3950424127
 20
-3.6377594552
 11
21.3975469416
 21
-3.1138675938
  0
LINE
  5
2A9
100
AcDbEntity
  8
ASSI
100
AcDbLine
 62
7
  6
CONTINUOUS
 10
21.3950424127
 20
-3.6377594552
 11
21.3975469416
 21
-3.1138675938
  0
LINE
  5
2AA
100
AcDbEntity
  8
RACCORDO
100
AcDbLine
 62
7
  6
CONTINUOUS
 10
21.3926849077
 20
-3.8969246264
 11
21.3950424127
 21
-3.6377594552
  0
LINE
  5
2AB
100
AcDbEntity
  8
ASSI
100
AcDbLine
 62
7
  6
CONTINUOUS
 10
21.3926849077
 20
-3.8969246264
 11
21.3950424127
 21
-3.6377594552
  0
LINE
  5
2AC
100
AcDbEntity
  8
DRAFT
100
AcDbLine
 62
7
  6
CONTINUOUS
 10
21.3860221393
 20
-1.3706521088
 11
21.3842553041
 21
-1.5420710179
  0
LINE
  5
2AD
100
AcDbEntity
  8
ASSI
100
AcDbLine
 62
7
  6
CONTINUOUS
 10
21.3860221393
 20
-1.3706521088
 11
21.3842553041
 21
-1.5420710179
  0
LINE
  5
2AE
100
AcDbEntity
  8
DRAFT
100
AcDbLine
 62
7
  6
CONTINUOUS
 10
21.389484722
 20
-3.5422431526
 11
21.3915299978
 21
-3.3374168305
  0
LINE
  5
2AF
100
AcDbEntity
  8
ASSI
100
AcDbLine
 62
7
  6
CONTINUOUS
 10
21.389484722
 20
-3.5422431526
 11
21.3915299978
 21
-3.3374168305
  0
LINE
  5
2B0
100
AcDbEntity
  8
DRAFT
100
AcDbLine
 62
7
  6
CONTINUOUS
 10
21.3860238437
 20
-3.3706521088
 11
21.3841428956
 21
-3.5503247933
  0
LINE
  5
2B1
100
AcDbEntity
  8
ASSI
100
AcDbLine
 62
7
  6
CONTINUOUS
 10
21.3860238437
 20
-3.3706521088
 11
21.3841428956
 21
-3.5503247933
  0
LINE
  5
2B2
100
AcDbEntity
  8
RACCORDO
100
AcDbLine
 62
7
  6
CONTINUOUS
 10
21.3915119483
 20
-3.9878173397
 11
21.3926849077
 21
-3.8969246264
  0
LINE
  5
2B3
100
AcDbEntity
  8
ASSI
100
AcDbLine
 62
7
  6
CONTINUOUS
 10
21.3915119483
 20
-3.9878173397
 11
21.3926849077
 21
-3.8969246264
  0
LINE
  5
2B4
100
AcDbEntity
  8
DRAFT
100
AcDbLine
 62
7
  6
CONTINUOUS
 10
21.3841428956
 20
-3.5503247933
 11
21.3825243664
 21
-3.6438882171
  0
LINE
  5
2B5
100
AcDbEntity
  8
ASSI
100
AcDbLine
 62
7
  6
CONTINUOUS
 10
21.3841428956
 20
-3.5503247933
 11
21.3825243664
 21
-3.6438882171
  0
LWPOLYLINE
  5
2B6
100
AcDbEntity
  8
0
100
AcDbPolyline
 62
7
  6
CONTINUOUS
 90
24
 70
0
 10
21.8194137841
 20
-0.8302965044
 10
21.8144598445
 20
-0.7830895445
 10
21.8108238582
 20
-0.7377153211
 10
21.8083698898
 20
-0.6943837636
 10
21.8072338745
 20
-0.6529788533
 10
21.8069752135
 20
-0.6129381993
 10
21.8074966249
 20
-0.5743085482
 10
21.8088953905
 20
-0.5370899435
 10
21.8110227573
 20
-0.5006426653
 10
21.8138040932
 20
-0.4649765302
 10
21.8173140302
 20
-0.4301112276
 10
21.8216277113
 20
-0.3954249687
 10
21.8267155138
 20
-0.3607505367
 10
21.8326070604
 20
-0.3262879074
 10
21.8394663626
 20
-0.2919711318
 10
21.847300797
 20
-0.2576904923
 10
21.8561029868
 20
-0.2235896476
 10
21.8660148135
 20
-0.1899787623
 10
21.8770469381
 20
-0.1568470573
 10
21.8891886996
 20
-0.1242260366
 10
21.9025499957
 20
-0.0924760556
 10
21.9171674591
 20
-0.0617136023
 10
21.9330044572
 20
-0.0318193449
 10
21.9500609899
 20
-0.0027905683
  0
LWPOLYLINE
  5
2B7
100
AcDbEntity
  8
RACCORDO
100
AcDbPolyline
 62
7
  6
CONTINUOUS
 90
7
 70
0
 10
21.3913208077
 20
0.7566256867
 10
21.3912213902
 20
0.7606729574
 10
21.3911196547
 20
0.76403938
 10
21.3910167125
 20
0.766688173
 10
21.3909129342
 20
0.7686070759
 10
21.3908079491
 20
0.7698083491
 10
21.3907017575
 20
0.7702919926
  0
LWPOLYLINE
  5
2B8
100
AcDbEntity
  8
ASSI
100
AcDbPolyline
 62
7
  6
CONTINUOUS
 90
7
 70
0
 10
21.3913208077
 20
0.7566256867
 10
21.3912213902
 20
0.7606729574
 10
21.3911196547
 20
0.76403938
 10
21.3910167125
 20
0.766688173
 10
21.3909129342
 20
0.7686070759
 10
21.3908079491
 20
0.7698083491
 10
21.3907017575
 20
0.7702919926
  0
LINE
  5
2B9
100
AcDbEntity
  8
DRAFT
100
AcDbLine
 62
7
  6
CONTINUOUS
 10
21.3825243664
 20
-3.6438882171
 11
21.3816458589
 21
-3.6780686578
  0
LINE
  5
2BA
100
AcDbEntity
  8
ASSI
100
AcDbLine
 62
7
  6
CONTINUOUS
 10
21.3825243664
 20
-3.6438882171
 11
21.3816458589
 21
-3.6780686578
  0
LWPOLYLINE
  5
2BB
100
AcDbEntity
  8
DRAFT
100
AcDbPolyline
 62
7
  6
CONTINUOUS
 90
6
 70
0
 10
21.3842639192
 20
-3.7196621536
 10
21.3852394232
 20
-3.7138073279
 10
21.3861407708
 20
-3.6982115295
 10
21.3870182517
 20
-3.6732194071
 10
21.3878719194
 20
-3.6385600593
 10
21.389484722
 20
-3.5422431526
  0
LWPOLYLINE
  5
2BC
100
AcDbEntity
  8
ASSI
100
AcDbPolyline
 62
7
  6
CONTINUOUS
 90
6
 70
0
 10
21.3842639192
 20
-3.7196621536
 10
21.3852394232
 20
-3.7138073279
 10
21.3861407708
 20
-3.6982115295
 10
21.3870182517
 20
-3.6732194071
 10
21.3878719194
 20
-3.6385600593
 10
21.389484722
 20
-3.5422431526
  0
LWPOLYLINE
  5
2BD
100
AcDbEntity
  8
RACCORDO
100
AcDbPolyline
 62
7
  6
CONTINUOUS
 90
8
 70
0
 10
21.3907017575
 20
-4.0115962103
 10
21.3908079491
 20
-4.0111125667
 10
21.3909129342
 20
-4.0099112935
 10
21.3910167125
 20
-4.0079923907
 10
21.3911196547
 20
-4.0053435977
 10
21.3912213902
 20
-4.0019771751
 10
21.3913208077
 20
-3.9979299043
 10
21.3915119483
 20
-3.9878173397
  0
LWPOLYLINE
  5
2BE
100
AcDbEntity
  8
ASSI
100
AcDbPolyline
 62
7
  6
CONTINUOUS
 90
8
 70
0
 10
21.3907017575
 20
-4.0115962103
 10
21.3908079491
 20
-4.0111125667
 10
21.3909129342
 20
-4.0099112935
 10
21.3910167125
 20
-4.0079923907
 10
21.3911196547
 20
-4.0053435977
 10
21.3912213902
 20
-4.0019771751
 10
21.3913208077
 20
-3.9979299043
 10
21.3915119483
 20
-3.9878173397
  0
LWPOLYLINE
  5
2BF
100
AcDbEntity
  8
0
100
AcDbPolyline
 62
7
  6
CONTINUOUS
 90
5
 70
0
 10
21.8387888272
 20
-2.2941693952
 10
21.8584718987
 20
-2.2152415719
 10
21.8837326541
 20
-2.1407400799
 10
21.9142623512
 20
-2.0699122007
 10
21.9500609899
 20
-2.0027905683
  0
LWPOLYLINE
  5
2C0
100
AcDbEntity
  8
RACCORDO
100
AcDbPolyline
 62
253
  6
CONTINUOUS
 90
9
 70
0
 10
23.1889121063
 20
-3.8039518054
 10
23.1919542532
 20
-3.8386737284
 10
23.2009780008
 20
-3.872341805
 10
23.2157096659
 20
-3.9039332694
 10
23.2357021802
 20
-3.9324883623
 10
23.2603485469
 20
-3.9571393504
 10
23.2889001822
 20
-3.9771369734
 10
23.3204898204
 20
-3.9918734073
 10
23.3532049322
 20
-4.0006451573
  0
LWPOLYLINE
  5
2C1
100
AcDbEntity
  8
ASSI
100
AcDbPolyline
 62
253
  6
CONTINUOUS
 90
9
 70
0
 10
23.1889121063
 20
-3.8039518054
 10
23.1919542532
 20
-3.8386737284
 10
23.2009780008
 20
-3.872341805
 10
23.2157096659
 20
-3.9039332694
 10
23.2357021802
 20
-3.9324883623
 10
23.2603485469
 20
-3.9571393504
 10
23.2889001822
 20
-3.9771369734
 10
23.3204898204
 20
-3.9918734073
 10
23.3532049322
 20
-4.0006451573
  0
LWPOLYLINE
  5
2C2
100
AcDbEntity
  8
RACCORDO
100
AcDbPolyline
 62
7
  6
CONTINUOUS
 90
4
 70
0
 10
24.362723238
 20
-4.0880348476
 10
24.3623300321
 20
-4.082506215
 10
24.3619570584
 20
-4.071949114
 10
24.3616043169
 20
-4.0563635446
  0
LWPOLYLINE
  5
2C3
100
AcDbEntity
  8
RACCORDO
100
AcDbPolyline
 62
253
  6
CONTINUOUS
 90
16
 70
0
 10
23.3921219373
 20
-4.6602674133
 10
23.3954468573
 20
-4.7231592642
 10
23.4053466161
 20
-4.7853577772
 10
23.4217120426
 20
-4.8461774847
 10
23.4443657992
 20
-4.9049550336
 10
23.473056523
 20
-4.9610351266
 10
23.5074545086
 20
-5.0137812755
 10
23.547165125
 20
-5.0626056603
 10
23.5917531561
 20
-5.1069881602
 10
23.6407401241
 20
-5.1464580542
 10
23.6936661133
 20
-5.1806273185
 10
23.7498794029
 20
-5.2090590089
 10
23.8085194546
 20
-5.2313630116
 10
23.8688343174
 20
-5.2473525661
 10
23.9302283161
 20
-5.2569652997
 10
23.9920305544
 20
-5.2601760304
  0
LWPOLYLINE
  5
2C4
100
AcDbEntity
  8
RACCORDO
100
AcDbPolyline
 62
253
  6
CONTINUOUS
 90
7
 70
0
 10
23.1919704456
 20
0.5045497799
 10
23.1915135353
 20
0.5216177501
 10
23.1910230963
 20
0.5360729864
 10
23.1905160424
 20
0.5474501248
 10
23.1899980118
 20
0.5555940437
 10
23.1894633665
 20
0.5606598647
 10
23.1889121063
 20
0.5626475878
  0
LWPOLYLINE
  5
2C5
100
AcDbEntity
  8
ASSI
100
AcDbPolyline
 62
253
  6
CONTINUOUS
 90
7
 70
0
 10
23.1919704456
 20
0.5045497799
 10
23.1915135353
 20
0.5216177501
 10
23.1910230963
 20
0.5360729864
 10
23.1905160424
 20
0.5474501248
 10
23.1899980118
 20
0.5555940437
 10
23.1894633665
 20
0.5606598647
 10
23.1889121063
 20
0.5626475878
  0
LWPOLYLINE
  5
2C6
100
AcDbEntity
  8
RACCORDO
100
AcDbPolyline
 62
7
  6
CONTINUOUS
 90
5
 70
0
 10
24.3393136081
 20
-5.2052247898
 10
24.3398148128
 20
-5.2282557146
 10
24.3403288837
 20
-5.2449381789
 10
24.3408609074
 20
-5.2555782842
 10
24.3414108841
 20
-5.2601760304
  0
LINE
  5
2C7
100
AcDbEntity
  8
RACCORDO
100
AcDbLine
 62
253
  6
CONTINUOUS
 10
23.1927807047
 20
0.4624080606
 11
23.1919704456
 21
0.5045497799
  0
LINE
  5
2C8
100
AcDbEntity
  8
ASSI
100
AcDbLine
 62
253
  6
CONTINUOUS
 10
23.1927807047
 20
0.4624080606
 11
23.1919704456
 21
0.5045497799
  0
LINE
  5
2C9
100
AcDbEntity
  8
RACCORDO
100
AcDbLine
 62
7
  6
CONTINUOUS
 10
23.1829956501
 20
0.3428982968
 11
23.1794063007
 21
0.5674001286
  0
LINE
  5
2CA
100
AcDbEntity
  8
ASSI
100
AcDbLine
 62
7
  6
CONTINUOUS
 10
23.1829956501
 20
0.3428982968
 11
23.1794063007
 21
0.5674001286
  0
LINE
  5
2CB
100
AcDbEntity
  8
RACCORDO
100
AcDbLine
 62
7
  6
CONTINUOUS
 10
24.3383803178
 20
-5.1419541676
 11
24.3393136081
 21
-5.2052247898
  0
LINE
  5
2CC
100
AcDbEntity
  8
RACCORDO
100
AcDbLine
 62
253
  6
CONTINUOUS
 10
23.1934180138
 20
0.411888337
 11
23.1927807047
 21
0.4624080606
  0
LINE
  5
2CD
100
AcDbEntity
  8
ASSI
100
AcDbLine
 62
253
  6
CONTINUOUS
 10
23.1934180138
 20
0.411888337
 11
23.1927807047
 21
0.4624080606
  0
LINE
  5
2CE
100
AcDbEntity
  8
RACCORDO
100
AcDbLine
 62
7
  6
CONTINUOUS
 10
23.3536059297
 20
0.7381240513
 11
23.354517635
 21
0.6666095844
  0
LINE
  5
2CF
100
AcDbEntity
  8
RACCORDO
100
AcDbLine
 62
7
  6
CONTINUOUS
 10
23.1857780256
 20
0.0834800578
 11
23.1829956501
 21
0.3428982968
  0
LINE
  5
2D0
100
AcDbEntity
  8
ASSI
100
AcDbLine
 62
7
  6
CONTINUOUS
 10
23.1857780256
 20
0.0834800578
 11
23.1829956501
 21
0.3428982968
  0
LINE
  5
2D1
100
AcDbEntity
  8
RACCORDO
100
AcDbLine
 62
7
  6
CONTINUOUS
 10
23.354517635
 20
0.6666095844
 11
23.3550833803
 21
0.5857184085
  0
LINE
  5
2D2
100
AcDbEntity
  8
RACCORDO
100
AcDbLine
 62
253
  6
CONTINUOUS
 10
23.1940002212
 20
0.3249345425
 11
23.1934180138
 21
0.411888337
  0
LINE
  5
2D3
100
AcDbEntity
  8
ASSI
100
AcDbLine
 62
253
  6
CONTINUOUS
 10
23.1940002212
 20
0.3249345425
 11
23.1934180138
 21
0.411888337
  0
LINE
  5
2D4
100
AcDbEntity
  8
RACCORDO
100
AcDbLine
 62
253
  6
CONTINUOUS
 10
23.1941148748
 20
0.0918169071
 11
23.1940002212
 21
0.3249345425
  0
LINE
  5
2D5
100
AcDbEntity
  8
ASSI
100
AcDbLine
 62
253
  6
CONTINUOUS
 10
23.1941148748
 20
0.0918169071
 11
23.1940002212
 21
0.3249345425
  0
LINE
  5
2D6
100
AcDbEntity
  8
RACCORDO
100
AcDbLine
 62
7
  6
CONTINUOUS
 10
23.2816458589
 20
1.529713395
 11
23.2816458589
 21
0.9603673394
  0
LINE
  5
2D7
100
AcDbEntity
  8
RACCORDO
100
AcDbLine
 62
7
  6
CONTINUOUS
 10
23.2816458589
 20
-4.201671557
 11
23.2816458589
 21
-4.7710176126
  0
LINE
  5
2D8
100
AcDbEntity
  8
RACCORDO
100
AcDbLine
 62
7
  6
CONTINUOUS
 10
23.3116458589
 20
-4.7407434917
 11
23.3116458589
 21
-4.201671557
  0
LINE
  5
2D9
100
AcDbEntity
  8
RACCORDO
100
AcDbLine
 62
7
  6
CONTINUOUS
 10
23.3116458589
 20
0.9603673394
 11
23.3116458589
 21
1.4994392741
  0
LINE
  5
2DA
100
AcDbEntity
  8
RACCORDO
100
AcDbLine
 62
7
  6
CONTINUOUS
 10
23.3552835212
 20
-3.7385145105
 11
23.3550833803
 21
0.5857184085
  0
LINE
  5
2DB
100
AcDbEntity
  8
RACCORDO
100
AcDbLine
 62
253
  6
CONTINUOUS
 10
23.3921219373
 20
-4.6602674133
 11
23.3921219373
 21
1.4189631957
  0
LINE
  5
2DC
100
AcDbEntity
  8
RACCORDO
100
AcDbLine
 62
253
  6
CONTINUOUS
 10
23.9920305544
 20
-5.2601760304
 11
23.9920305544
 21
2.0188718128
  0
LINE
  5
2DD
100
AcDbEntity
  8
RACCORDO
100
AcDbLine
 62
253
  6
CONTINUOUS
 10
23.1940012273
 20
-3.5660216115
 11
23.1941148748
 21
-3.3331211248
  0
LINE
  5
2DE
100
AcDbEntity
  8
ASSI
100
AcDbLine
 62
253
  6
CONTINUOUS
 10
23.1940012273
 20
-3.5660216115
 11
23.1941148748
 21
-3.3331211248
  0
LINE
  5
2DF
100
AcDbEntity
  8
RACCORDO
100
AcDbLine
 62
7
  6
CONTINUOUS
 10
23.3552835212
 20
-3.7385145105
 11
23.3550833803
 21
-3.8270226262
  0
LINE
  5
2E0
100
AcDbEntity
  8
RACCORDO
100
AcDbLine
 62
7
  6
CONTINUOUS
 10
23.3550833803
 20
-3.8270226262
 11
23.354517635
 21
-3.9079138021
  0
LINE
  5
2E1
100
AcDbEntity
  8
RACCORDO
100
AcDbLine
 62
253
  6
CONTINUOUS
 10
23.1934209494
 20
-3.6528931734
 11
23.1940012273
 21
-3.5660216115
  0
LINE
  5
2E2
100
AcDbEntity
  8
ASSI
100
AcDbLine
 62
253
  6
CONTINUOUS
 10
23.1934209494
 20
-3.6528931734
 11
23.1940012273
 21
-3.5660216115
  0
LINE
  5
2E3
100
AcDbEntity
  8
RACCORDO
100
AcDbLine
 62
7
  6
CONTINUOUS
 10
23.1829956501
 20
-3.5842025145
 11
23.1857780256
 21
-3.3247842755
  0
LINE
  5
2E4
100
AcDbEntity
  8
ASSI
100
AcDbLine
 62
7
  6
CONTINUOUS
 10
23.1829956501
 20
-3.5842025145
 11
23.1857780256
 21
-3.3247842755
  0
LINE
  5
2E5
100
AcDbEntity
  8
RACCORDO
100
AcDbLine
 62
253
  6
CONTINUOUS
 10
23.1927848228
 20
-3.7034466237
 11
23.1934209494
 21
-3.6528931734
  0
LINE
  5
2E6
100
AcDbEntity
  8
ASSI
100
AcDbLine
 62
253
  6
CONTINUOUS
 10
23.1927848228
 20
-3.7034466237
 11
23.1934209494
 21
-3.6528931734
  0
LWPOLYLINE
  5
2E7
100
AcDbEntity
  8
RACCORDO
100
AcDbPolyline
 62
7
  6
CONTINUOUS
 90
8
 70
0
 10
23.354517635
 20
-3.9079138021
 10
23.3536059297
 20
-3.979428269
 10
23.3530415657
 20
-4.0092889225
 10
23.3524070821
 20
-4.0353389246
 10
23.3517321181
 20
-4.0563603143
 10
23.3510265535
 20
-4.0719471045
 10
23.3502805085
 20
-4.0825052823
 10
23.3494939831
 20
-4.0880348476
  0
LINE
  5
2E8
100
AcDbEntity
  8
RACCORDO
100
AcDbLine
 62
7
  6
CONTINUOUS
 10
23.1794063007
 20
-3.8087043463
 11
23.1829956501
 21
-3.5842025145
  0
LINE
  5
2E9
100
AcDbEntity
  8
ASSI
100
AcDbLine
 62
7
  6
CONTINUOUS
 10
23.1794063007
 20
-3.8087043463
 11
23.1829956501
 21
-3.5842025145
  0
LWPOLYLINE
  5
2EA
100
AcDbEntity
  8
RACCORDO
100
AcDbPolyline
 62
7
  6
CONTINUOUS
 90
16
 70
0
 10
23.1794063007
 20
0.5674001286
 10
23.1797372664
 20
0.5837438273
 10
23.1813002247
 20
0.5994724148
 10
23.1839642701
 20
0.6145044276
 10
23.1875809305
 20
0.6287249337
 10
23.192030776
 20
0.6421427332
 10
23.1972615765
 20
0.6548757817
 10
23.2031738525
 20
0.6668778313
 10
23.2096839556
 20
0.6781443881
 10
23.216835258
 20
0.6888368338
 10
23.2245934479
 20
0.6989470255
 10
23.2328918361
 20
0.7084262526
 10
23.2417794204
 20
0.7173425204
 10
23.2512557475
 20
0.7256874582
 10
23.2612501187
 20
0.7333955815
 10
23.2717216282
 20
0.7404355675
  0
LWPOLYLINE
  5
2EB
100
AcDbEntity
  8
ASSI
100
AcDbPolyline
 62
7
  6
CONTINUOUS
 90
16
 70
0
 10
23.1794063007
 20
0.5674001286
 10
23.1797372664
 20
0.5837438273
 10
23.1813002247
 20
0.5994724148
 10
23.1839642701
 20
0.6145044276
 10
23.1875809305
 20
0.6287249337
 10
23.192030776
 20
0.6421427332
 10
23.1972615765
 20
0.6548757817
 10
23.2031738525
 20
0.6668778313
 10
23.2096839556
 20
0.6781443881
 10
23.216835258
 20
0.6888368338
 10
23.2245934479
 20
0.6989470255
 10
23.2328918361
 20
0.7084262526
 10
23.2417794204
 20
0.7173425204
 10
23.2512557475
 20
0.7256874582
 10
23.2612501187
 20
0.7333955815
 10
23.2717216282
 20
0.7404355675
  0
LWPOLYLINE
  5
2EC
100
AcDbEntity
  8
RACCORDO
100
AcDbPolyline
 62
253
  6
CONTINUOUS
 90
16
 70
0
 10
23.3921219373
 20
1.4189631957
 10
23.3954468545
 20
1.4818550197
 10
23.4053466054
 20
1.5440535092
 10
23.4217120198
 20
1.6048731972
 10
23.444365762
 20
1.6636507327
 10
23.4730564696
 20
1.719730817
 10
23.5074544351
 20
1.7724769571
 10
23.5471650223
 20
1.821301329
 10
23.5917530185
 20
1.8656838193
 10
23.6407399583
 20
1.9051537167
 10
23.6936659317
 20
1.9393229966
 10
23.7498792176
 20
1.9677547094
 10
23.8085192846
 20
1.9900587392
 10
23.8688341842
 20
2.0060483205
 10
23.93022824
 20
2.0156610741
 10
23.9920305544
 20
2.0188718128
  0
LWPOLYLINE
  5
2ED
100
AcDbEntity
  8
RACCORDO
100
AcDbPolyline
 62
7
  6
CONTINUOUS
 90
16
 70
0
 10
23.2816458589
 20
1.529713395
 10
23.2852344885
 20
1.5935756499
 10
23.295029884
 20
1.6554069975
 10
23.3110320455
 20
1.715207438
 10
23.333550615
 20
1.7735812284
 10
23.3622759505
 20
1.8299241116
 10
23.3962791259
 20
1.8824233157
 10
23.4357302074
 20
1.9309538392
 10
23.4804591288
 20
1.9756406837
 10
23.5290267659
 20
2.0150460819
 10
23.5815788554
 20
2.0489998404
 10
23.6379696606
 20
2.0776721526
 10
23.6963228466
 20
2.1001358324
 10
23.7560129686
 20
2.1160818177
 10
23.8176654714
 20
2.1258191707
 10
23.8812803551
 20
2.1293478912
  0
LWPOLYLINE
  5
2EE
100
AcDbEntity
  8
RACCORDO
100
AcDbPolyline
 62
7
  6
CONTINUOUS
 90
16
 70
0
 10
23.3116458589
 20
1.4994392741
 10
23.3152315445
 20
1.5632671644
 10
23.3250200977
 20
1.6250719623
 10
23.3410115186
 20
1.6848536677
 10
23.3635127235
 20
1.7432148064
 10
23.392216796
 20
1.7995528527
 10
23.426202987
 20
1.8520602292
 10
23.4656481964
 20
1.9006182266
 10
23.5103755242
 20
1.9453455544
 10
23.5589335216
 20
1.9847907636
 10
23.6114408981
 20
2.0187769545
 10
23.6677789441
 20
2.0474810269
 10
23.7261400827
 20
2.0699822316
 10
23.785921788
 20
2.0859736524
 10
23.8477265857
 20
2.0957622056
 10
23.911554476
 20
2.0993478912
  0
LWPOLYLINE
  5
2EF
100
AcDbEntity
  8
RACCORDO
100
AcDbPolyline
 62
7
  6
CONTINUOUS
 90
13
 70
0
 10
24.3816458589
 20
1.9793536027
 10
24.383107715
 20
1.9994587501
 10
24.3869136026
 20
2.0185926828
 10
24.3930635217
 20
2.0367554008
 10
24.401740782
 20
2.0542211993
 10
24.4127620737
 20
2.0707157832
 10
24.4255774681
 20
2.0854162662
 10
24.4402779512
 20
2.0982316633
 10
24.456772537
 20
2.1092529597
 10
24.4742383382
 20
2.1179302237
 10
24.4924010592
 20
2.1240801451
 10
24.5115349955
 20
2.1278860343
 10
24.5316401474
 20
2.1293478912
  0
LWPOLYLINE
  5
2F0
100
AcDbEntity
  8
ASSI
100
AcDbPolyline
 62
7
  6
CONTINUOUS
 90
13
 70
0
 10
24.3816458589
 20
1.9793536027
 10
24.383107715
 20
1.9994587501
 10
24.3869136026
 20
2.0185926828
 10
24.3930635217
 20
2.0367554008
 10
24.401740782
 20
2.0542211993
 10
24.4127620737
 20
2.0707157832
 10
24.4255774681
 20
2.0854162662
 10
24.4402779512
 20
2.0982316633
 10
24.456772537
 20
2.1092529597
 10
24.4742383382
 20
2.1179302237
 10
24.4924010592
 20
2.1240801451
 10
24.5115349955
 20
2.1278860343
 10
24.5316401474
 20
2.1293478912
  0
LWPOLYLINE
  5
2F1
100
AcDbEntity
  8
RACCORDO
100
AcDbPolyline
 62
253
  6
CONTINUOUS
 90
9
 70
0
 10
23.1889121063
 20
0.5626475878
 10
23.1919547932
 20
0.5973725675
 10
23.2009798453
 20
0.6310426506
 10
23.215713094
 20
0.6626349865
 10
23.2357069638
 20
0.6911898436
 10
23.2603540685
 20
0.7158397649
 10
23.2889056636
 20
0.73583592
 10
23.3204943913
 20
0.7505708533
 10
23.3532049365
 20
0.7593407114
  0
LWPOLYLINE
  5
2F2
100
AcDbEntity
  8
ASSI
100
AcDbPolyline
 62
253
  6
CONTINUOUS
 90
9
 70
0
 10
23.1889121063
 20
0.5626475878
 10
23.1919547932
 20
0.5973725675
 10
23.2009798453
 20
0.6310426506
 10
23.215713094
 20
0.6626349865
 10
23.2357069638
 20
0.6911898436
 10
23.2603540685
 20
0.7158397649
 10
23.2889056636
 20
0.73583592
 10
23.3204943913
 20
0.7505708533
 10
23.3532049365
 20
0.7593407114
  0
LWPOLYLINE
  5
2F3
100
AcDbEntity
  8
RACCORDO
100
AcDbPolyline
 62
7
  6
CONTINUOUS
 90
7
 70
0
 10
24.3414108841
 20
2.0188718128
 10
24.3408609074
 20
2.0142740665
 10
24.3403288837
 20
2.0036339613
 10
24.3398148128
 20
1.986951497
 10
24.3393136081
 20
1.9639205721
 10
24.3388303564
 20
1.9348472882
 10
24.337964553
 20
1.8611650538
  0
LINE
  5
2F4
100
AcDbEntity
  8
RACCORDO
100
AcDbLine
 62
7
  6
CONTINUOUS
 10
24.3816458589
 20
0.9603673394
 11
24.362723238
 21
0.84673063
  0
LWPOLYLINE
  5
2F5
100
AcDbEntity
  8
0
100
AcDbPolyline
 62
7
  6
CONTINUOUS
 90
36
 70
0
 10
22.9055416853
 20
-2.8786036352
 10
22.8901110039
 20
-2.9607096403
 10
22.8703667607
 20
-3.037154846
 10
22.8463089559
 20
-3.1079242802
 10
22.8177609787
 20
-3.1734690772
 10
22.7848994398
 20
-3.2334494146
 10
22.7482541713
 20
-3.2867882892
 10
22.7077543872
 20
-3.3335187123
 10
22.6634708735
 20
-3.3740223967
 10
22.6161458196
 20
-3.4078501368
 10
22.5652535629
 20
-3.4352362618
 10
22.5113197659
 20
-3.4563640527
 10
22.4566636062
 20
-3.4707176542
 10
22.4014890965
 20
-3.4781211142
 10
22.3455922241
 20
-3.4789485889
 10
22.2906801282
 20
-3.4734445046
 10
22.2368572837
 20
-3.461547887
 10
22.1840192157
 20
-3.4431679787
 10
22.1335596387
 20
-3.41843179
 10
22.0853066642
 20
-3.3865728394
 10
22.0394321807
 20
-3.3479353425
 10
21.9978455682
 20
-3.3043598967
 10
21.9613303452
 20
-3.2561444945
 10
21.9291029931
 20
-3.2027043532
 10
21.9007223363
 20
-3.1446897367
 10
21.8760827067
 20
-3.0819344148
 10
21.8552897723
 20
-3.0144809587
 10
21.8382193617
 20
-2.9434074843
 10
21.8248085387
 20
-2.8687413739
 10
21.8151202395
 20
-2.7906071545
 10
21.8092191006
 20
-2.7103434931
 10
21.8069414827
 20
-2.6278939353
 10
21.8084510251
 20
-2.5437072184
 10
21.8143032825
 20
-2.4599363692
 10
21.8243746974
 20
-2.3766168721
 10
21.8387888272
 20
-2.2941693952
  0
LINE
  5
2F6
100
AcDbEntity
  8
RACCORDO
100
AcDbLine
 62
7
  6
CONTINUOUS
 10
24.3816458589
 20
2.0993478912
 11
24.3414108841
 21
2.0188718128
  0
LWPOLYLINE
  5
2F7
100
AcDbEntity
  8
0
100
AcDbPolyline
 62
7
  6
CONTINUOUS
 90
34
 70
0
 10
21.9500609899
 20
-0.0027905683
 10
21.9681457708
 20
0.0247885866
 10
21.9878600405
 20
0.0511022495
 10
22.009203799
 20
0.0761673276
 10
22.0321903282
 20
0.1001998903
 10
22.0568063462
 20
0.1230171822
 10
22.0830120073
 20
0.1440536389
 10
22.1109654248
 20
0.1633552825
 10
22.1405084854
 20
0.1809418604
 10
22.1711270038
 20
0.196234839
 10
22.2027723628
 20
0.2091652558
 10
22.2354931795
 20
0.2198792907
 10
22.268921121
 20
0.2281313898
 10
22.3029318705
 20
0.233967846
 10
22.3376497447
 20
0.2373886964
 10
22.3730793601
 20
0.2380732035
 10
22.4093575107
 20
0.236112787
 10
22.4463474024
 20
0.2314111746
 10
22.48364327
 20
0.2233480207
 10
22.5213729611
 20
0.2118965787
 10
22.559408628
 20
0.1969955152
 10
22.5969609632
 20
0.1779348563
 10
22.6343024472
 20
0.1542355926
 10
22.6711605993
 20
0.1261651376
 10
22.7059286697
 20
0.0941154327
 10
22.7382100044
 20
0.0580155045
 10
22.7684012573
 20
0.0177149752
 10
22.7960856405
 20
-0.026483703
 10
22.8212038574
 20
-0.0747839819
 10
22.8438152045
 20
-0.1271484641
 10
22.8636807834
 20
-0.18285424
 10
22.8807209611
 20
-0.2416542747
 10
22.8950153707
 20
-0.3038048953
 10
22.9065640119
 20
-0.3692816011
  0
LINE
  5
2F8
100
AcDbEntity
  8
RACCORDO
100
AcDbLine
 62
7
  6
CONTINUOUS
 10
24.3816458589
 20
-5.3406521088
 11
24.3414108841
 21
-5.2601760304
  0
LINE
  5
2F9
100
AcDbEntity
  8
RACCORDO
100
AcDbLine
 62
7
  6
CONTINUOUS
 10
24.3816458589
 20
-4.201671557
 11
24.362723238
 21
-4.0880348476
  0
LWPOLYLINE
  5
2FA
100
AcDbEntity
  8
RACCORDO
100
AcDbPolyline
 62
7
  6
CONTINUOUS
 90
7
 70
0
 10
23.3494939831
 20
0.84673063
 10
23.3502805085
 20
0.8412010646
 10
23.3510265535
 20
0.8306428868
 10
23.3517321181
 20
0.8150560966
 10
23.3524070821
 20
0.7940347069
 10
23.3530415657
 20
0.7679847049
 10
23.3536059297
 20
0.7381240513
  0
LWPOLYLINE
  5
2FB
100
AcDbEntity
  8
0
100
AcDbPolyline
 62
7
  6
CONTINUOUS
 90
38
 70
0
 10
22.9065640119
 20
-0.3692816011
 10
22.9165456265
 20
-0.4488649783
 10
22.9226793688
 20
-0.5294253903
 10
22.924965239
 20
-0.6107639906
 10
22.9235404645
 20
-0.6933045417
 10
22.9182678178
 20
-0.7761944459
 10
22.9087356162
 20
-0.8573284187
 10
22.8949100944
 20
-0.9367657702
 10
22.8768250177
 20
-1.014090273
 10
22.854169998
 20
-1.0866229374
 10
22.8265385913
 20
-1.1543091512
 10
22.7943372416
 20
-1.2172270784
 10
22.7584748937
 20
-1.2731556309
 10
22.7187590586
 20
-1.3217280863
 10
22.6753822253
 20
-1.3637576996
 10
22.6298308055
 20
-1.3989503633
 10
22.5822127966
 20
-1.4273112137
 10
22.5324202013
 20
-1.4492733629
 10
22.48161544
 20
-1.4651662502
 10
22.4298194394
 20
-1.4752092272
 10
22.3770112728
 20
-1.4793860869
 10
22.3242905808
 20
-1.4776051338
 10
22.2714634548
 20
-1.4698404559
 10
22.2187238035
 20
-1.4560387569
 10
22.167752993
 20
-1.4359941242
 10
22.1182643013
 20
-1.4087534911
 10
22.0705444505
 20
-1.3748962121
 10
22.0271349723
 20
-1.3365491585
 10
21.9889029501
 20
-1.2934203606
 10
21.9549813006
 20
-1.245520059
 10
21.9253103055
 20
-1.1956470666
 10
21.9002365237
 20
-1.1441774332
 10
21.8794133963
 20
-1.0907595823
 10
21.8617415279
 20
-1.0373002841
 10
21.8471827538
 20
-0.9840133904
 10
21.8357752387
 20
-0.9308451343
 10
21.8265340817
 20
-0.8793923474
 10
21.8194137841
 20
-0.8302965044
  0
LINE
  5
2FC
100
AcDbEntity
  8
RACCORDO
100
AcDbLine
 62
253
  6
CONTINUOUS
 10
24.4241688757
 20
1.9161173838
 11
24.424649945
 21
1.8901269437
  0
LINE
  5
2FD
100
AcDbEntity
  8
ASSI
100
AcDbLine
 62
253
  6
CONTINUOUS
 10
24.4241688757
 20
1.9161173838
 11
24.424649945
 21
1.8901269437
  0
LINE
  5
2FE
100
AcDbEntity
  8
RACCORDO
100
AcDbLine
 62
253
  6
CONTINUOUS
 10
24.5739165186
 20
2.06986695
 11
24.5744132334
 21
2.039658749
  0
LINE
  5
2FF
100
AcDbEntity
  8
ASSI
100
AcDbLine
 62
253
  6
CONTINUOUS
 10
24.5739165186
 20
2.06986695
 11
24.5744132334
 21
2.039658749
  0
LINE
  5
300
100
AcDbEntity
  8
RACCORDO
100
AcDbLine
 62
7
  6
CONTINUOUS
 10
24.4005808355
 20
0.717571817
 11
24.4013673055
 21
0.6650030046
  0
LINE
  5
301
100
AcDbEntity
  8
ASSI
100
AcDbLine
 62
7
  6
CONTINUOUS
 10
24.4005808355
 20
0.717571817
 11
24.4013673055
 21
0.6650030046
  0
LINE
  5
302
100
AcDbEntity
  8
RACCORDO
100
AcDbLine
 62
7
  6
CONTINUOUS
 10
24.3616043169
 20
-4.0563635446
 11
24.3609496503
 21
-4.0092955188
  0
LINE
  5
303
100
AcDbEntity
  8
RACCORDO
100
AcDbLine
 62
253
  6
CONTINUOUS
 10
24.424649945
 20
1.8901269437
 11
24.4252795924
 21
1.8342240157
  0
LINE
  5
304
100
AcDbEntity
  8
ASSI
100
AcDbLine
 62
253
  6
CONTINUOUS
 10
24.424649945
 20
1.8901269437
 11
24.4252795924
 21
1.8342240157
  0
LINE
  5
305
100
AcDbEntity
  8
RACCORDO
100
AcDbLine
 62
253
  6
CONTINUOUS
 10
24.5744132334
 20
2.039658749
 11
24.5750795102
 21
1.9692869214
  0
LINE
  5
306
100
AcDbEntity
  8
ASSI
100
AcDbLine
 62
253
  6
CONTINUOUS
 10
24.5744132334
 20
2.039658749
 11
24.5750795102
 21
1.9692869214
  0
LINE
  5
307
100
AcDbEntity
  8
RACCORDO
100
AcDbLine
 62
7
  6
CONTINUOUS
 10
24.3372447417
 20
-5.0095361311
 11
24.3383803178
 21
-5.1419541676
  0
LINE
  5
308
100
AcDbEntity
  8
RACCORDO
100
AcDbLine
 62
7
  6
CONTINUOUS
 10
24.4013673055
 20
0.6650030046
 11
24.4023243871
 21
0.5544577991
  0
LINE
  5
309
100
AcDbEntity
  8
ASSI
100
AcDbLine
 62
7
  6
CONTINUOUS
 10
24.4013673055
 20
0.6650030046
 11
24.4023243871
 21
0.5544577991
  0
LINE
  5
30A
100
AcDbEntity
  8
RACCORDO
100
AcDbLine
 62
7
  6
CONTINUOUS
 10
24.3609496503
 20
-4.0092955188
 11
24.3602116413
 21
-3.9079216659
  0
LINE
  5
30B
100
AcDbEntity
  8
RACCORDO
100
AcDbLine
 62
253
  6
CONTINUOUS
 10
24.4252795924
 20
1.8342240157
 11
24.4259836654
 21
1.7063166757
  0
LINE
  5
30C
100
AcDbEntity
  8
ASSI
100
AcDbLine
 62
253
  6
CONTINUOUS
 10
24.4252795924
 20
1.8342240157
 11
24.4259836654
 21
1.7063166757
  0
LINE
  5
30D
100
AcDbEntity
  8
RACCORDO
100
AcDbLine
 62
253
  6
CONTINUOUS
 10
24.5750795102
 20
1.9692869214
 11
24.5759764438
 21
1.7579573958
  0
LINE
  5
30E
100
AcDbEntity
  8
ASSI
100
AcDbLine
 62
253
  6
CONTINUOUS
 10
24.5750795102
 20
1.9692869214
 11
24.5759764438
 21
1.7579573958
  0
LINE
  5
30F
100
AcDbEntity
  8
DRAFT
100
AcDbLine
 62
7
  6
CONTINUOUS
 10
24.3978811107
 20
-2.2667764123
 11
24.3951637736
 21
-1.6206521088
  0
LINE
  5
310
100
AcDbEntity
  8
ASSI
100
AcDbLine
 62
7
  6
CONTINUOUS
 10
24.3978811107
 20
-2.2667764123
 11
24.3951637736
 21
-1.6206521088
  0
LINE
  5
311
100
AcDbEntity
  8
RACCORDO
100
AcDbLine
 62
7
  6
CONTINUOUS
 10
24.3362966614
 20
-4.7233561829
 11
24.3372447417
 21
-5.0095361311
  0
LINE
  5
312
100
AcDbEntity
  8
RACCORDO
100
AcDbLine
 62
7
  6
CONTINUOUS
 10
24.4023243871
 20
0.5544577991
 11
24.4031233071
 21
0.3150017025
  0
LINE
  5
313
100
AcDbEntity
  8
ASSI
100
AcDbLine
 62
7
  6
CONTINUOUS
 10
24.4023243871
 20
0.5544577991
 11
24.4031233071
 21
0.3150017025
  0
LINE
  5
314
100
AcDbEntity
  8
RACCORDO
100
AcDbLine
 62
253
  6
CONTINUOUS
 10
24.4259836654
 20
1.7063166757
 11
24.4261643079
 21
1.58787623
  0
LINE
  5
315
100
AcDbEntity
  8
ASSI
100
AcDbLine
 62
253
  6
CONTINUOUS
 10
24.4259836654
 20
1.7063166757
 11
24.4261643079
 21
1.58787623
  0
LINE
  5
316
100
AcDbEntity
  8
RACCORDO
100
AcDbLine
 62
7
  6
CONTINUOUS
 10
24.3602116413
 20
-3.9079216659
 11
24.3598286894
 21
0.4972102928
  0
LINE
  5
317
100
AcDbEntity
  8
DRAFT
100
AcDbLine
 62
7
  6
CONTINUOUS
 10
24.3816458589
 20
2.0993478912
 11
24.3816458589
 21
1.4293478912
  0
LINE
  5
318
100
AcDbEntity
  8
DRAFT
100
AcDbLine
 62
7
  6
CONTINUOUS
 10
24.3816458589
 20
-4.6706521088
 11
24.3816458589
 21
-5.3406521088
  0
LINE
  5
319
100
AcDbEntity
  8
RACCORDO
100
AcDbLine
 62
7
  6
CONTINUOUS
 10
24.3816458589
 20
-5.2206578204
 11
24.3816458589
 21
-4.5706521088
  0
LINE
  5
31A
100
AcDbEntity
  8
DRAFT
100
AcDbLine
 62
7
  6
CONTINUOUS
 10
24.3816458589
 20
-4.5706521088
 11
24.3816458589
 21
-4.0206521088
  0
LINE
  5
31B
100
AcDbEntity
  8
ASSI
100
AcDbLine
 62
7
  6
CONTINUOUS
 10
24.3816458589
 20
-5.2206578204
 11
24.3816458589
 21
-4.0206521088
  0
LINE
  5
31C
100
AcDbEntity
  8
DRAFT
100
AcDbLine
 62
7
  6
CONTINUOUS
 10
24.3816458589
 20
0.7793478912
 11
24.3816458589
 21
1.3293478912
  0
LINE
  5
31D
100
AcDbEntity
  8
RACCORDO
100
AcDbLine
 62
7
  6
CONTINUOUS
 10
24.3816458589
 20
1.3293478912
 11
24.3816458589
 21
1.9793536027
  0
LINE
  5
31E
100
AcDbEntity
  8
ASSI
100
AcDbLine
 62
7
  6
CONTINUOUS
 10
24.3816458589
 20
0.7793478912
 11
24.3816458589
 21
1.9793536027
  0
LINE
  5
31F
100
AcDbEntity
  8
RACCORDO
100
AcDbLine
 62
7
  6
CONTINUOUS
 10
24.4031490031
 20
0.0961748577
 11
24.4031233071
 21
0.3150017025
  0
LINE
  5
320
100
AcDbEntity
  8
ASSI
100
AcDbLine
 62
7
  6
CONTINUOUS
 10
24.4031490031
 20
0.0961748577
 11
24.4031233071
 21
0.3150017025
  0
LINE
  5
321
100
AcDbEntity
  8
RACCORDO
100
AcDbLine
 62
7
  6
CONTINUOUS
 10
24.4261643079
 20
1.58787623
 11
24.4261643079
 21
-4.8291804476
  0
LINE
  5
322
100
AcDbEntity
  8
ASSI
100
AcDbLine
 62
7
  6
CONTINUOUS
 10
24.4261643079
 20
1.58787623
 11
24.4261643079
 21
-4.8291804476
  0
LINE
  5
323
100
AcDbEntity
  8
RACCORDO
100
AcDbLine
 62
253
  6
CONTINUOUS
 10
24.5759764438
 20
1.7579573958
 11
24.5761585964
 21
-4.8290672297
  0
LINE
  5
324
100
AcDbEntity
  8
ASSI
100
AcDbLine
 62
253
  6
CONTINUOUS
 10
24.5759764438
 20
1.7579573958
 11
24.5761585964
 21
-4.8290672297
  0
LINE
  5
325
100
AcDbEntity
  8
DRAFT
100
AcDbLine
 62
7
  6
CONTINUOUS
 10
25.1781548459
 20
1.3328389042
 11
25.1781548459
 21
-4.5741431218
  0
LINE
  5
326
100
AcDbEntity
  8
ASSI
100
AcDbLine
 62
7
  6
CONTINUOUS
 10
25.1781548459
 20
1.3328389042
 11
25.1781548459
 21
-4.5741431218
  0
LINE
  5
327
100
AcDbEntity
  8
DRAFT
100
AcDbLine
 62
7
  6
CONTINUOUS
 10
25.1816458589
 20
1.3293478912
 11
25.1816458589
 21
-4.5706521088
  0
LINE
  5
328
100
AcDbEntity
  8
DRAFT
100
AcDbLine
 62
7
  6
CONTINUOUS
 10
24.3981899
 20
-0.735392728
 11
24.3968020866
 21
0.0834800578
  0
LINE
  5
329
100
AcDbEntity
  8
ASSI
100
AcDbLine
 62
7
  6
CONTINUOUS
 10
24.3981899
 20
-0.735392728
 11
24.3968020866
 21
0.0834800578
  0
LINE
  5
32A
100
AcDbEntity
  8
DRAFT
100
AcDbLine
 62
7
  6
CONTINUOUS
 10
24.3975850958
 20
-3.0999179159
 11
24.3978811107
 21
-2.2667764123
  0
LINE
  5
32B
100
AcDbEntity
  8
ASSI
100
AcDbLine
 62
7
  6
CONTINUOUS
 10
24.3975850958
 20
-3.0999179159
 11
24.3978811107
 21
-2.2667764123
  0
LINE
  5
32C
100
AcDbEntity
  8
RACCORDO
100
AcDbLine
 62
7
  6
CONTINUOUS
 10
24.3367089891
 20
1.6602008183
 11
24.3362966614
 21
-4.7233561829
  0
LINE
  5
32D
100
AcDbEntity
  8
RACCORDO
100
AcDbLine
 62
7
  6
CONTINUOUS
 10
24.4031490031
 20
-3.3374790754
 11
24.4027758709
 21
-3.7054042183
  0
LINE
  5
32E
100
AcDbEntity
  8
ASSI
100
AcDbLine
 62
7
  6
CONTINUOUS
 10
24.4031490031
 20
-3.3374790754
 11
24.4027758709
 21
-3.7054042183
  0
LINE
  5
32F
100
AcDbEntity
  8
DRAFT
100
AcDbLine
 62
7
  6
CONTINUOUS
 10
24.3968020866
 20
-3.3247842755
 11
24.3975850958
 21
-3.0999179159
  0
LINE
  5
330
100
AcDbEntity
  8
ASSI
100
AcDbLine
 62
7
  6
CONTINUOUS
 10
24.3968020866
 20
-3.3247842755
 11
24.3975850958
 21
-3.0999179159
  0
LINE
  5
331
100
AcDbEntity
  8
RACCORDO
100
AcDbLine
 62
253
  6
CONTINUOUS
 10
24.576158686
 20
-4.8290672297
 11
24.5756120888
 21
-5.1146299722
  0
LINE
  5
332
100
AcDbEntity
  8
ASSI
100
AcDbLine
 62
253
  6
CONTINUOUS
 10
24.576158686
 20
-4.8290672297
 11
24.5756120888
 21
-5.1146299722
  0
LINE
  5
333
100
AcDbEntity
  8
RACCORDO
100
AcDbLine
 62
7
  6
CONTINUOUS
 10
24.3598286894
 20
0.4972102928
 11
24.3602116413
 21
0.6666174482
  0
LINE
  5
334
100
AcDbEntity
  8
RACCORDO
100
AcDbLine
 62
253
  6
CONTINUOUS
 10
24.4261643079
 20
-4.8291804476
 11
24.4257609521
 21
-5.0030031262
  0
LINE
  5
335
100
AcDbEntity
  8
ASSI
100
AcDbLine
 62
253
  6
CONTINUOUS
 10
24.4261643079
 20
-4.8291804476
 11
24.4257609521
 21
-5.0030031262
  0
LINE
  5
336
100
AcDbEntity
  8
DRAFT
100
AcDbLine
 62
7
  6
CONTINUOUS
 10
24.3963551974
 20
-1.4207068978
 11
24.3981899
 21
-0.735392728
  0
LINE
  5
337
100
AcDbEntity
  8
ASSI
100
AcDbLine
 62
7
  6
CONTINUOUS
 10
24.3963551974
 20
-1.4207068978
 11
24.3981899
 21
-0.735392728
  0
LINE
  5
338
100
AcDbEntity
  8
DRAFT
100
AcDbLine
 62
7
  6
CONTINUOUS
 10
24.3951637736
 20
-1.6206521088
 11
24.3963551974
 21
-1.4207068978
  0
LINE
  5
339
100
AcDbEntity
  8
ASSI
100
AcDbLine
 62
7
  6
CONTINUOUS
 10
24.3951637736
 20
-1.6206521088
 11
24.3963551974
 21
-1.4207068978
  0
LINE
  5
33A
100
AcDbEntity
  8
RACCORDO
100
AcDbLine
 62
253
  6
CONTINUOUS
 10
24.5756120888
 20
-5.1146299722
 11
24.5748684092
 21
-5.2372506568
  0
LINE
  5
33B
100
AcDbEntity
  8
ASSI
100
AcDbLine
 62
253
  6
CONTINUOUS
 10
24.5756120888
 20
-5.1146299722
 11
24.5748684092
 21
-5.2372506568
  0
LINE
  5
33C
100
AcDbEntity
  8
RACCORDO
100
AcDbLine
 62
7
  6
CONTINUOUS
 10
24.337964553
 20
1.8611650538
 11
24.3367089891
 21
1.6602008183
  0
LINE
  5
33D
100
AcDbEntity
  8
RACCORDO
100
AcDbLine
 62
7
  6
CONTINUOUS
 10
24.4027758709
 20
-3.7054042183
 11
24.4017176927
 21
-3.873389637
  0
LINE
  5
33E
100
AcDbEntity
  8
ASSI
100
AcDbLine
 62
7
  6
CONTINUOUS
 10
24.4027758709
 20
-3.7054042183
 11
24.4017176927
 21
-3.873389637
  0
LINE
  5
33F
100
AcDbEntity
  8
RACCORDO
100
AcDbLine
 62
7
  6
CONTINUOUS
 10
24.3602116413
 20
0.6666174482
 11
24.3609496503
 21
0.7679913011
  0
LINE
  5
340
100
AcDbEntity
  8
RACCORDO
100
AcDbLine
 62
253
  6
CONTINUOUS
 10
24.4257609521
 20
-5.0030031262
 11
24.4250838552
 21
-5.0962246608
  0
LINE
  5
341
100
AcDbEntity
  8
ASSI
100
AcDbLine
 62
253
  6
CONTINUOUS
 10
24.4257609521
 20
-5.0030031262
 11
24.4250838552
 21
-5.0962246608
  0
LINE
  5
342
100
AcDbEntity
  8
RACCORDO
100
AcDbLine
 62
253
  6
CONTINUOUS
 10
24.5748684092
 20
-5.2372506568
 11
24.5744126536
 21
-5.2810078038
  0
LINE
  5
343
100
AcDbEntity
  8
ASSI
100
AcDbLine
 62
253
  6
CONTINUOUS
 10
24.5748684092
 20
-5.2372506568
 11
24.5744126536
 21
-5.2810078038
  0
LWPOLYLINE
  5
344
100
AcDbEntity
  8
RACCORDO
100
AcDbPolyline
 62
7
  6
CONTINUOUS
 90
7
 70
0
 10
24.4017176927
 20
-3.873389637
 10
24.4009880465
 20
-3.934756274
 10
24.4005808383
 20
-3.9588759064
 10
24.4001586958
 20
-3.9778862957
 10
24.399725957
 20
-3.9915275373
 10
24.399278284
 20
-4.0000595357
 10
24.3988156768
 20
-4.0034822909
  0
LWPOLYLINE
  5
345
100
AcDbEntity
  8
ASSI
100
AcDbPolyline
 62
7
  6
CONTINUOUS
 90
7
 70
0
 10
24.4017176927
 20
-3.873389637
 10
24.4009880465
 20
-3.934756274
 10
24.4005808383
 20
-3.9588759064
 10
24.4001586958
 20
-3.9778862957
 10
24.399725957
 20
-3.9915275373
 10
24.399278284
 20
-4.0000595357
 10
24.3988156768
 20
-4.0034822909
  0
LINE
  5
346
100
AcDbEntity
  8
RACCORDO
100
AcDbLine
 62
253
  6
CONTINUOUS
 10
24.4250838552
 20
-5.0962246608
 11
24.424649363
 21
-5.131470091
  0
LINE
  5
347
100
AcDbEntity
  8
ASSI
100
AcDbLine
 62
253
  6
CONTINUOUS
 10
24.4250838552
 20
-5.0962246608
 11
24.424649363
 21
-5.131470091
  0
LWPOLYLINE
  5
348
100
AcDbEntity
  8
RACCORDO
100
AcDbPolyline
 62
7
  6
CONTINUOUS
 90
5
 70
0
 10
24.3609496503
 20
0.7679913011
 10
24.3616043169
 20
0.815059327
 10
24.3619570584
 20
0.8306448963
 10
24.3623300321
 20
0.8412019973
 10
24.362723238
 20
0.84673063
  0
LWPOLYLINE
  5
349
100
AcDbEntity
  8
RACCORDO
100
AcDbPolyline
 62
253
  6
CONTINUOUS
 90
5
 70
0
 10
24.5744126536
 20
-5.2810078038
 10
24.5739160051
 20
-5.3111943339
 10
24.5736603691
 20
-5.3208981138
 10
24.5733986497
 20
-5.3269022458
 10
24.573130847
 20
-5.3291614092
  0
LWPOLYLINE
  5
34A
100
AcDbEntity
  8
ASSI
100
AcDbPolyline
 62
253
  6
CONTINUOUS
 90
5
 70
0
 10
24.5744126536
 20
-5.2810078038
 10
24.5739160051
 20
-5.3111943339
 10
24.5736603691
 20
-5.3208981138
 10
24.5733986497
 20
-5.3269022458
 10
24.573130847
 20
-5.3291614092
  0
LWPOLYLINE
  5
34B
100
AcDbEntity
  8
RACCORDO
100
AcDbPolyline
 62
253
  6
CONTINUOUS
 90
6
 70
0
 10
24.424649363
 20
-5.131470091
 10
24.4241683139
 20
-5.1574441649
 10
24.4239167763
 20
-5.1667473969
 10
24.423661996
 20
-5.1734270362
 10
24.4234019235
 20
-5.1775669441
 10
24.4231365586
 20
-5.1791671207
  0
LWPOLYLINE
  5
34C
100
AcDbEntity
  8
ASSI
100
AcDbPolyline
 62
253
  6
CONTINUOUS
 90
6
 70
0
 10
24.424649363
 20
-5.131470091
 10
24.4241683139
 20
-5.1574441649
 10
24.4239167763
 20
-5.1667473969
 10
24.423661996
 20
-5.1734270362
 10
24.4234019235
 20
-5.1775669441
 10
24.4231365586
 20
-5.1791671207
  0
LWPOLYLINE
  5
34D
100
AcDbEntity
  8
RACCORDO
100
AcDbPolyline
 62
253
  6
CONTINUOUS
 90
8
 70
0
 10
23.1889121063
 20
-3.8039518054
 10
23.1894655237
 20
-3.8019355668
 10
23.1900017917
 20
-3.7968389378
 10
23.1905209101
 20
-3.7886619185
 10
23.191028391
 20
-3.7772473645
 10
23.1915187224
 20
-3.7627524202
 10
23.1919753683
 20
-3.7456485184
 10
23.1927848228
 20
-3.7034466237
  0
LWPOLYLINE
  5
34E
100
AcDbEntity
  8
ASSI
100
AcDbPolyline
 62
253
  6
CONTINUOUS
 90
8
 70
0
 10
23.1889121063
 20
-3.8039518054
 10
23.1894655237
 20
-3.8019355668
 10
23.1900017917
 20
-3.7968389378
 10
23.1905209101
 20
-3.7886619185
 10
23.191028391
 20
-3.7772473645
 10
23.1915187224
 20
-3.7627524202
 10
23.1919753683
 20
-3.7456485184
 10
23.1927848228
 20
-3.7034466237
  0
LINE
  5
34F
100
AcDbEntity
  8
RACCORDO
100
AcDbLine
 62
7
  6
CONTINUOUS
 10
23.3494939831
 20
-4.0880348476
 11
23.3116458589
 21
-4.201671557
  0
LINE
  5
350
100
AcDbEntity
  8
DRAFT
100
AcDbLine
 62
7
  6
CONTINUOUS
 10
24.4031490031
 20
0.0961748577
 11
24.3968020866
 21
0.0834800578
  0
LINE
  5
351
100
AcDbEntity
  8
ASSI
100
AcDbLine
 62
7
  6
CONTINUOUS
 10
24.4031490031
 20
0.0961748577
 11
24.3968020866
 21
0.0834800578
  0
LWPOLYLINE
  5
352
100
AcDbEntity
  8
0
100
AcDbPolyline
 62
7
  6
CONTINUOUS
 90
40
 70
0
 10
21.9500609899
 20
-2.0027905683
 10
21.9688352742
 20
-1.9741922353
 10
21.9893636722
 20
-1.9469755682
 10
22.0116461839
 20
-1.9211211108
 10
22.0357007873
 20
-1.8963874142
 10
22.0615095044
 20
-1.8729776661
 10
22.0890184014
 20
-1.8515212597
 10
22.1184173509
 20
-1.8319692783
 10
22.1495164803
 20
-1.8142956733
 10
22.1816922378
 20
-1.7991345399
 10
22.2148632273
 20
-1.7865716219
 10
22.249110845
 20
-1.7764364288
 10
22.2840557266
 20
-1.7689690293
 10
22.3195960475
 20
-1.7641092894
 10
22.3558336324
 20
-1.7618729627
 10
22.3926945916
 20
-1.7626227767
 10
22.4302953836
 20
-1.7662629085
 10
22.4685195499
 20
-1.7729073752
 10
22.5069438252
 20
-1.7832573343
 10
22.545787556
 20
-1.7974183552
 10
22.5848313958
 20
-1.8154048755
 10
22.6229940401
 20
-1.8378239529
 10
22.6604191653
 20
-1.8651803479
 10
22.6969630949
 20
-1.8972171328
 10
22.7311134951
 20
-1.9334080991
 10
22.7624790192
 20
-1.9738035148
 10
22.791451014
 20
-2.0185819928
 10
22.8176911861
 20
-2.0673649429
 10
22.8411598466
 20
-2.1204658521
 10
22.8618966844
 20
-2.1777162395
 10
22.8796824727
 20
-2.2379307558
 10
22.894416846
 20
-2.3008469409
 10
22.9062001698
 20
-2.3666653553
 10
22.915114314
 20
-2.4348115591
 10
22.9212965116
 20
-2.5052532269
 10
22.9246095298
 20
-2.5778165359
 10
22.9247235391
 20
-2.6516666496
 10
22.9215285966
 20
-2.7264146382
 10
22.9151346453
 20
-2.8021223913
 10
22.9055416853
 20
-2.8786036352
  0
LINE
  5
353
100
AcDbEntity
  8
DRAFT
100
AcDbLine
 62
7
  6
CONTINUOUS
 10
24.3968020866
 20
-3.3247842755
 11
24.4031490031
 21
-3.3374790754
  0
LINE
  5
354
100
AcDbEntity
  8
ASSI
100
AcDbLine
 62
7
  6
CONTINUOUS
 10
24.3968020866
 20
-3.3247842755
 11
24.4031490031
 21
-3.3374790754
  0
LINE
  5
355
100
AcDbEntity
  8
RACCORDO
100
AcDbLine
 62
7
  6
CONTINUOUS
 10
23.3494939831
 20
0.84673063
 11
23.3116458589
 21
0.9603673394
  0
LWPOLYLINE
  5
356
100
AcDbEntity
  8
RACCORDO
100
AcDbPolyline
 62
253
  6
CONTINUOUS
 90
5
 70
0
 10
24.4231365586
 20
1.937862903
 10
24.4234021378
 20
1.9362583199
 10
24.4236623778
 20
1.9321131727
 10
24.4239172785
 20
1.9254274615
 10
24.4241688757
 20
1.9161173838
  0
LWPOLYLINE
  5
357
100
AcDbEntity
  8
ASSI
100
AcDbPolyline
 62
253
  6
CONTINUOUS
 90
5
 70
0
 10
24.4231365586
 20
1.937862903
 10
24.4234021378
 20
1.9362583199
 10
24.4236623778
 20
1.9321131727
 10
24.4239172785
 20
1.9254274615
 10
24.4241688757
 20
1.9161173838
  0
LWPOLYLINE
  5
358
100
AcDbEntity
  8
RACCORDO
100
AcDbPolyline
 62
7
  6
CONTINUOUS
 90
5
 70
0
 10
24.3988156768
 20
0.7621780732
 10
24.3992782826
 20
0.7587553672
 10
24.3997259546
 20
0.7502234057
 10
24.4001586929
 20
0.7365821887
 10
24.4005808355
 20
0.717571817
  0
LWPOLYLINE
  5
359
100
AcDbEntity
  8
ASSI
100
AcDbPolyline
 62
7
  6
CONTINUOUS
 90
5
 70
0
 10
24.3988156768
 20
0.7621780732
 10
24.3992782826
 20
0.7587553672
 10
24.3997259546
 20
0.7502234057
 10
24.4001586929
 20
0.7365821887
 10
24.4005808355
 20
0.717571817
  0
LWPOLYLINE
  5
35A
100
AcDbEntity
  8
RACCORDO
100
AcDbPolyline
 62
253
  6
CONTINUOUS
 90
4
 70
0
 10
24.573130847
 20
2.0878571915
 10
24.5733988701
 20
2.0855945853
 10
24.5736607607
 20
2.0795820856
 10
24.5739165186
 20
2.06986695
  0
LWPOLYLINE
  5
35B
100
AcDbEntity
  8
ASSI
100
AcDbPolyline
 62
253
  6
CONTINUOUS
 90
4
 70
0
 10
24.573130847
 20
2.0878571915
 10
24.5733988701
 20
2.0855945853
 10
24.5736607607
 20
2.0795820856
 10
24.5739165186
 20
2.06986695
  0
LINE
  5
35C
100
AcDbEntity
  8
SCRITTE
100
AcDbLine
 62
253
  6
CONTINUOUS
 10
26.2816458768
 20
-2.6206521088
 11
26.2816458768
 21
-1.2206521088
  0
LINE
  5
35D
100
AcDbEntity
  8
SCRITTE
100
AcDbLine
 62
253
  6
CONTINUOUS
 10
26.8816458589
 20
2.1223663969
 11
26.8816458589
 21
2.110148782
  0
LINE
  5
35E
100
AcDbEntity
  8
0
100
AcDbLine
 62
7
  6
CONTINUOUS
 10
27.2338798589
 20
0.7969098912
 11
26.8999578589
 21
-0.3731581088
  0
LINE
  5
35F
100
AcDbEntity
  8
ASSI
100
AcDbLine
 62
7
  6
CONTINUOUS
 10
27.2338798589
 20
0.7969098912
 11
26.8999578589
 21
-0.3731581088
  0
LINE
  5
360
100
AcDbEntity
  8
RACCORDO
100
AcDbLine
 62
7
  6
CONTINUOUS
 10
23.1857780256
 20
0.0834800578
 11
23.1941148748
 21
0.0918169071
  0
LINE
  5
361
100
AcDbEntity
  8
ASSI
100
AcDbLine
 62
7
  6
CONTINUOUS
 10
23.1857780256
 20
0.0834800578
 11
23.1941148748
 21
0.0918169071
  0
LWPOLYLINE
  5
362
100
AcDbEntity
  8
RACCORDO
100
AcDbPolyline
 62
7
  6
CONTINUOUS
 90
16
 70
0
 10
23.2717216282
 20
-3.9817397852
 10
23.2612552032
 20
-3.9747035046
 10
23.2512588385
 20
-3.9669942584
 10
23.2417744483
 20
-3.9586420618
 10
23.2328713506
 20
-3.9497085057
 10
23.2245542044
 20
-3.9402033505
 10
23.2167820773
 20
-3.9300668478
 10
23.2096222704
 20
-3.9193494769
 10
23.2031079969
 20
-3.9080588513
 10
23.1971986438
 20
-3.8960404865
 10
23.1919768931
 20
-3.8833016585
 10
23.187539549
 20
-3.8698879053
 10
23.1839372761
 20
-3.8556835022
 10
23.1812869767
 20
-3.8406806725
 10
23.1797340403
 20
-3.8249939253
 10
23.1794063007
 20
-3.8087043463
  0
LWPOLYLINE
  5
363
100
AcDbEntity
  8
ASSI
100
AcDbPolyline
 62
7
  6
CONTINUOUS
 90
16
 70
0
 10
23.2717216282
 20
-3.9817397852
 10
23.2612552032
 20
-3.9747035046
 10
23.2512588385
 20
-3.9669942584
 10
23.2417744483
 20
-3.9586420618
 10
23.2328713506
 20
-3.9497085057
 10
23.2245542044
 20
-3.9402033505
 10
23.2167820773
 20
-3.9300668478
 10
23.2096222704
 20
-3.9193494769
 10
23.2031079969
 20
-3.9080588513
 10
23.1971986438
 20
-3.8960404865
 10
23.1919768931
 20
-3.8833016585
 10
23.187539549
 20
-3.8698879053
 10
23.1839372761
 20
-3.8556835022
 10
23.1812869767
 20
-3.8406806725
 10
23.1797340403
 20
-3.8249939253
 10
23.1794063007
 20
-3.8087043463
  0
LINE
  5
364
100
AcDbEntity
  8
RACCORDO
100
AcDbLine
 62
7
  6
CONTINUOUS
 10
23.1941148748
 20
-3.3331211248
 11
23.1857780256
 21
-3.3247842755
  0
LINE
  5
365
100
AcDbEntity
  8
ASSI
100
AcDbLine
 62
7
  6
CONTINUOUS
 10
23.1941148748
 20
-3.3331211248
 11
23.1857780256
 21
-3.3247842755
  0
LINE
  5
366
100
AcDbEntity
  8
SCRITTE
100
AcDbLine
 62
253
  6
CONTINUOUS
 10
26.6816458947
 20
-4.3206521088
 11
25.8816458589
 21
-2.9206521088
  0
LINE
  5
367
100
AcDbEntity
  8
SCRITTE
100
AcDbLine
 62
253
  6
CONTINUOUS
 10
27.3816458112
 20
-1.4206520969
 11
27.3816458112
 21
-1.620652085
  0
LINE
  5
368
100
AcDbEntity
  8
SCRITTE
100
AcDbLine
 62
253
  6
CONTINUOUS
 10
27.6816458947
 20
2.110148782
 11
27.6816458947
 21
2.1223663969
  0
LINE
  5
369
100
AcDbEntity
  8
0
100
AcDbLine
 62
7
  6
CONTINUOUS
 10
27.7201438589
 20
0.7970118912
 11
27.7201438589
 21
-0.9029531088
  0
LINE
  5
36A
100
AcDbEntity
  8
ASSI
100
AcDbLine
 62
7
  6
CONTINUOUS
 10
27.7201438589
 20
0.7970118912
 11
27.7201438589
 21
-0.9029531088
  0
LINE
  5
36B
100
AcDbEntity
  8
0
100
AcDbLine
 62
7
  6
CONTINUOUS
 10
28.0749718589
 20
-0.9029531088
 11
28.0749718589
 21
0.7970118912
  0
LINE
  5
36C
100
AcDbEntity
  8
ASSI
100
AcDbLine
 62
7
  6
CONTINUOUS
 10
28.0749718589
 20
-0.9029531088
 11
28.0749718589
 21
0.7970118912
  0
LINE
  5
36D
100
AcDbEntity
  8
0
100
AcDbLine
 62
7
  6
CONTINUOUS
 10
28.4194738589
 20
0.7969098912
 11
28.2659868589
 21
-0.9029531088
  0
LINE
  5
36E
100
AcDbEntity
  8
ASSI
100
AcDbLine
 62
7
  6
CONTINUOUS
 10
28.4194738589
 20
0.7969098912
 11
28.2659868589
 21
-0.9029531088
  0
LINE
  5
36F
100
AcDbEntity
  8
0
100
AcDbLine
 62
7
  6
CONTINUOUS
 10
27.0420618589
 20
-0.9029531088
 11
27.5884658589
 21
0.7969098912
  0
LINE
  5
370
100
AcDbEntity
  8
ASSI
100
AcDbLine
 62
7
  6
CONTINUOUS
 10
27.0420618589
 20
-0.9029531088
 11
27.5884658589
 21
0.7969098912
  0
LINE
  5
371
100
AcDbEntity
  8
SCRITTE
100
AcDbLine
 62
253
  6
CONTINUOUS
 10
26.6816458947
 20
-1.5206521327
 11
26.8816458827
 21
-1.2206521088
  0
LINE
  5
372
100
AcDbEntity
  8
RACCORDO
100
AcDbLine
 62
7
  6
CONTINUOUS
 10
21.3907017575
 20
-4.0115962103
 11
21.3816458589
 21
-4.0206521088
  0
LINE
  5
373
100
AcDbEntity
  8
ASSI
100
AcDbLine
 62
7
  6
CONTINUOUS
 10
21.3907017575
 20
-4.0115962103
 11
21.3816458589
 21
-4.0206521088
  0
LWPOLYLINE
  5
374
100
AcDbEntity
  8
RACCORDO
100
AcDbPolyline
 62
7
  6
CONTINUOUS
 90
6
 70
0
 10
23.2717216282
 20
-3.9817397852
 10
23.2870406185
 20
-3.9903005157
 10
23.3030223335
 20
-3.9975750687
 10
23.319666773
 20
-4.0034469401
 10
23.3369739372
 20
-4.0078064989
 10
23.3530179483
 20
-4.0102585835
  0
LWPOLYLINE
  5
375
100
AcDbEntity
  8
ASSI
100
AcDbPolyline
 62
7
  6
CONTINUOUS
 90
6
 70
0
 10
23.2717216282
 20
-3.9817397852
 10
23.2870406185
 20
-3.9903005157
 10
23.3030223335
 20
-3.9975750687
 10
23.319666773
 20
-4.0034469401
 10
23.3369739372
 20
-4.0078064989
 10
23.3530179483
 20
-4.0102585835
  0
LINE
  5
376
100
AcDbEntity
  8
RACCORDO
100
AcDbLine
 62
7
  6
CONTINUOUS
 10
21.3907017575
 20
0.7702919926
 11
21.3816458589
 21
0.7793478912
  0
LINE
  5
377
100
AcDbEntity
  8
ASSI
100
AcDbLine
 62
7
  6
CONTINUOUS
 10
21.3907017575
 20
0.7702919926
 11
21.3816458589
 21
0.7793478912
  0
LINE
  5
378
100
AcDbEntity
  8
SCRITTE
100
AcDbLine
 62
253
  6
CONTINUOUS
 10
27.8816459066
 20
-4.3206521088
 11
27.0816458708
 21
-2.9206521088
  0
LINE
  5
379
100
AcDbEntity
  8
0
100
AcDbLine
 62
7
  6
CONTINUOUS
 10
26.1904798589
 20
0.7969098912
 11
26.7293698589
 21
-0.9029531088
  0
LINE
  5
37A
100
AcDbEntity
  8
ASSI
100
AcDbLine
 62
7
  6
CONTINUOUS
 10
26.1904798589
 20
0.7969098912
 11
26.7293698589
 21
-0.9029531088
  0
LINE
  5
37B
100
AcDbEntity
  8
0
100
AcDbLine
 62
7
  6
CONTINUOUS
 10
26.8999578589
 20
-0.3731581088
 11
26.5759328589
 21
0.7969098912
  0
LINE
  5
37C
100
AcDbEntity
  8
ASSI
100
AcDbLine
 62
7
  6
CONTINUOUS
 10
26.8999578589
 20
-0.3731581088
 11
26.5759328589
 21
0.7969098912
  0
LINE
  5
37D
100
AcDbEntity
  8
0
100
AcDbLine
 62
7
  6
CONTINUOUS
 10
29.5699248589
 20
0.2023988912
 11
29.6428258589
 21
-0.9029531088
  0
LINE
  5
37E
100
AcDbEntity
  8
ASSI
100
AcDbLine
 62
7
  6
CONTINUOUS
 10
29.5699248589
 20
0.2023988912
 11
29.6428258589
 21
-0.9029531088
  0
LINE
  5
37F
100
AcDbEntity
  8
SCRITTE
100
AcDbLine
 62
253
  6
CONTINUOUS
 10
28.6816458589
 20
-4.3206521088
 11
28.6816458589
 21
-3.5206520731
  0
LINE
  5
380
100
AcDbEntity
  8
SCRITTE
100
AcDbLine
 62
253
  6
CONTINUOUS
 10
29.2816458827
 20
2.1223663969
 11
29.2816458827
 21
2.110148782
  0
LINE
  5
381
100
AcDbEntity
  8
SCRITTE
100
AcDbLine
 62
253
  6
CONTINUOUS
 10
29.4816458112
 20
-1.4206520969
 11
29.4816458112
 21
-1.620652085
  0
LINE
  5
382
100
AcDbEntity
  8
SCRITTE
100
AcDbLine
 62
253
  6
CONTINUOUS
 10
29.8816459543
 20
-4.3206521088
 11
29.8816459543
 21
-3.5206520731
  0
LINE
  5
383
100
AcDbEntity
  8
SCRITTE
100
AcDbLine
 62
253
  6
CONTINUOUS
 10
29.9816457158
 20
2.1118941557
 11
29.9816457158
 21
2.1206210235
  0
LINE
  5
384
100
AcDbEntity
  8
0
100
AcDbLine
 62
7
  6
CONTINUOUS
 10
28.6054418589
 20
-0.9029531088
 11
28.6820138589
 21
0.2070258912
  0
LINE
  5
385
100
AcDbEntity
  8
ASSI
100
AcDbLine
 62
7
  6
CONTINUOUS
 10
28.6054418589
 20
-0.9029531088
 11
28.6820138589
 21
0.2070258912
  0
LINE
  5
386
100
AcDbEntity
  8
0
100
AcDbLine
 62
7
  6
CONTINUOUS
 10
29.4799178589
 20
0.7969098912
 11
29.1250898589
 21
-0.1468591088
  0
LINE
  5
387
100
AcDbEntity
  8
ASSI
100
AcDbLine
 62
7
  6
CONTINUOUS
 10
29.4799178589
 20
0.7969098912
 11
29.1250898589
 21
-0.1468591088
  0
LINE
  5
388
100
AcDbEntity
  8
0
100
AcDbLine
 62
7
  6
CONTINUOUS
 10
29.1480338589
 20
-0.9029531088
 11
29.5699248589
 21
0.2023988912
  0
LINE
  5
389
100
AcDbEntity
  8
ASSI
100
AcDbLine
 62
7
  6
CONTINUOUS
 10
29.1480338589
 20
-0.9029531088
 11
29.5699248589
 21
0.2023988912
  0
LINE
  5
38A
100
AcDbEntity
  8
SCRITTE
100
AcDbLine
 62
253
  6
CONTINUOUS
 10
26.6816458947
 20
-2.9206521088
 11
25.8816458589
 21
-4.3206521088
  0
LINE
  5
38B
100
AcDbEntity
  8
SCRITTE
100
AcDbLine
 62
253
  6
CONTINUOUS
 10
27.8816459066
 20
-2.9206521088
 11
27.0816458708
 21
-4.3206521088
  0
LINE
  5
38C
100
AcDbEntity
  8
SCRITTE
100
AcDbLine
 62
253
  6
CONTINUOUS
 10
27.3816458112
 20
-1.620652085
 11
26.6816458947
 21
-2.6206521088
  0
LINE
  5
38D
100
AcDbEntity
  8
SCRITTE
100
AcDbLine
 62
253
  6
CONTINUOUS
 10
26.2816458768
 20
-1.2206521088
 11
25.8816458589
 21
-1.620652085
  0
LINE
  5
38E
100
AcDbEntity
  8
RACCORDO
100
AcDbLine
 62
253
  6
CONTINUOUS
 10
23.3116458589
 20
-4.7407434917
 11
23.3921219373
 21
-4.6602674133
  0
LINE
  5
38F
100
AcDbEntity
  8
RACCORDO
100
AcDbLine
 62
7
  6
CONTINUOUS
 10
24.3988156768
 20
-4.0034822909
 11
24.3816458589
 21
-4.0206521088
  0
LINE
  5
390
100
AcDbEntity
  8
ASSI
100
AcDbLine
 62
7
  6
CONTINUOUS
 10
24.3988156768
 20
-4.0034822909
 11
24.3816458589
 21
-4.0206521088
  0
LINE
  5
391
100
AcDbEntity
  8
RACCORDO
100
AcDbLine
 62
253
  6
CONTINUOUS
 10
23.3921219373
 20
1.4189631957
 11
23.3116458589
 21
1.4994392741
  0
LINE
  5
392
100
AcDbEntity
  8
RACCORDO
100
AcDbLine
 62
7
  6
CONTINUOUS
 10
24.3816458589
 20
0.7793478912
 11
24.3988156768
 21
0.7621780732
  0
LINE
  5
393
100
AcDbEntity
  8
ASSI
100
AcDbLine
 62
7
  6
CONTINUOUS
 10
24.3816458589
 20
0.7793478912
 11
24.3988156768
 21
0.7621780732
  0
LINE
  5
394
100
AcDbEntity
  8
SCRITTE
100
AcDbLine
 62
253
  6
CONTINUOUS
 10
28.6816458589
 20
-3.5206520731
 11
28.2816458827
 21
-2.9206521088
  0
LINE
  5
395
100
AcDbEntity
  8
SCRITTE
100
AcDbLine
 62
253
  6
CONTINUOUS
 10
29.8816459543
 20
-3.5206520731
 11
29.4816458112
 21
-2.9206521088
  0
LINE
  5
396
100
AcDbEntity
  8
0
100
AcDbLine
 62
7
  6
CONTINUOUS
 10
28.6820138589
 20
0.2070258912
 11
29.0982698589
 21
-0.9029531088
  0
LINE
  5
397
100
AcDbEntity
  8
ASSI
100
AcDbLine
 62
7
  6
CONTINUOUS
 10
28.6820138589
 20
0.2070258912
 11
29.0982698589
 21
-0.9029531088
  0
LINE
  5
398
100
AcDbEntity
  8
0
100
AcDbLine
 62
7
  6
CONTINUOUS
 10
29.9899418589
 20
-0.9029531088
 11
29.8309848589
 21
0.7969098912
  0
LINE
  5
399
100
AcDbEntity
  8
ASSI
100
AcDbLine
 62
7
  6
CONTINUOUS
 10
29.9899418589
 20
-0.9029531088
 11
29.8309848589
 21
0.7969098912
  0
LINE
  5
39A
100
AcDbEntity
  8
SCRITTE
100
AcDbLine
 62
253
  6
CONTINUOUS
 10
30.3483125097
 20
-1.9206521088
 11
30.3483125097
 21
-2.6206521088
  0
LINE
  5
39B
100
AcDbEntity
  8
SCRITTE
100
AcDbLine
 62
253
  6
CONTINUOUS
 10
30.5483125573
 20
2.1223663969
 11
30.5483125573
 21
2.110148782
  0
LINE
  5
39C
100
AcDbEntity
  8
SCRITTE
100
AcDbLine
 62
253
  6
CONTINUOUS
 10
30.1816458112
 20
-1.2206521088
 11
29.8816459543
 21
-2.3206521059
  0
LINE
  5
39D
100
AcDbEntity
  8
0
100
AcDbLine
 62
7
  6
CONTINUOUS
 10
30.5671298589
 20
-0.3010101088
 11
30.7438038589
 21
0.3298308912
  0
LINE
  5
39E
100
AcDbEntity
  8
ASSI
100
AcDbLine
 62
7
  6
CONTINUOUS
 10
30.5671298589
 20
-0.3010101088
 11
30.7438038589
 21
0.3298308912
  0
LINE
  5
39F
100
AcDbEntity
  8
0
100
AcDbLine
 62
7
  6
CONTINUOUS
 10
30.3966368589
 20
-0.9029531088
 11
30.4945478589
 21
-0.5636001088
  0
LINE
  5
3A0
100
AcDbEntity
  8
ASSI
100
AcDbLine
 62
7
  6
CONTINUOUS
 10
30.3966368589
 20
-0.9029531088
 11
30.4945478589
 21
-0.5636001088
  0
LINE
  5
3A1
100
AcDbEntity
  8
0
100
AcDbLine
 62
7
  6
CONTINUOUS
 10
30.5788438589
 20
0.7969098912
 11
30.0456588589
 21
-0.9029531088
  0
LINE
  5
3A2
100
AcDbEntity
  8
ASSI
100
AcDbLine
 62
7
  6
CONTINUOUS
 10
30.5788438589
 20
0.7969098912
 11
30.0456588589
 21
-0.9029531088
  0
LINE
  5
3A3
100
AcDbEntity
  8
SCRITTE
100
AcDbLine
 62
253
  6
CONTINUOUS
 10
28.7816458112
 20
-1.5206521327
 11
28.9816457158
 21
-1.2206521088
  0
LINE
  5
3A4
100
AcDbEntity
  8
SCRITTE
100
AcDbLine
 62
253
  6
CONTINUOUS
 10
29.0816460019
 20
-2.9206521088
 11
28.6816458589
 21
-3.5206520731
  0
LINE
  5
3A5
100
AcDbEntity
  8
SCRITTE
100
AcDbLine
 62
253
  6
CONTINUOUS
 10
29.4816458112
 20
-1.620652085
 11
28.7816458112
 21
-2.6206521088
  0
LINE
  5
3A6
100
AcDbEntity
  8
RACCORDO
100
AcDbLine
 62
253
  6
CONTINUOUS
 10
23.911554476
 20
-5.3406521088
 11
23.9920305544
 21
-5.2601760304
  0
LINE
  5
3A7
100
AcDbEntity
  8
RACCORDO
100
AcDbLine
 62
253
  6
CONTINUOUS
 10
24.4231365586
 20
-5.1791671207
 11
24.3816458589
 21
-5.2206578204
  0
LINE
  5
3A8
100
AcDbEntity
  8
ASSI
100
AcDbLine
 62
253
  6
CONTINUOUS
 10
24.4231365586
 20
-5.1791671207
 11
24.3816458589
 21
-5.2206578204
  0
LINE
  5
3A9
100
AcDbEntity
  8
DRAFT
100
AcDbLine
 62
7
  6
CONTINUOUS
 10
25.1781548459
 20
-4.5741431218
 11
25.1816458589
 21
-4.5706521088
  0
LINE
  5
3AA
100
AcDbEntity
  8
ASSI
100
AcDbLine
 62
7
  6
CONTINUOUS
 10
25.1781548459
 20
-4.5741431218
 11
25.1816458589
 21
-4.5706521088
  0
LINE
  5
3AB
100
AcDbEntity
  8
RACCORDO
100
AcDbLine
 62
253
  6
CONTINUOUS
 10
24.573130847
 20
-5.3291614092
 11
24.5316401474
 21
-5.3706521088
  0
LINE
  5
3AC
100
AcDbEntity
  8
ASSI
100
AcDbLine
 62
253
  6
CONTINUOUS
 10
24.573130847
 20
-5.3291614092
 11
24.5316401474
 21
-5.3706521088
  0
LINE
  5
3AD
100
AcDbEntity
  8
RACCORDO
100
AcDbLine
 62
7
  6
CONTINUOUS
 10
56.9987137032
 20
-3.456019769
 11
56.9464934059
 21
-3.4661612482
  0
LINE
  5
3AE
100
AcDbEntity
  8
ASSI
100
AcDbLine
 62
7
  6
CONTINUOUS
 10
56.9987137032
 20
-3.456019769
 11
56.9464934059
 21
-3.4661612482
  0
LWPOLYLINE
  5
3AF
100
AcDbEntity
  8
RACCORDO
100
AcDbPolyline
 62
7
  6
CONTINUOUS
 90
6
 70
0
 10
56.9850160641
 20
-4.5189675196
 10
56.9826080323
 20
-4.5192756601
 10
56.9777664267
 20
-4.5195579313
 10
56.9704912474
 20
-4.5198143334
 10
56.9604364166
 20
-4.5200506952
 10
56.9479480121
 20
-4.5202611879
  0
LINE
  5
3B0
100
AcDbEntity
  8
SCRITTE
100
AcDbLine
 62
253
  6
CONTINUOUS
 10
27.1816458231
 20
-1.2206521088
 11
27.3816458112
 21
-1.4206520969
  0
LINE
  5
3B1
100
AcDbEntity
  8
RACCORDO
100
AcDbLine
 62
253
  6
CONTINUOUS
 10
23.9920305544
 20
2.0188718128
 11
23.911554476
 21
2.0993478912
  0
LINE
  5
3B2
100
AcDbEntity
  8
RACCORDO
100
AcDbLine
 62
253
  6
CONTINUOUS
 10
24.3816458589
 20
1.9793536027
 11
24.4231365586
 21
1.937862903
  0
LINE
  5
3B3
100
AcDbEntity
  8
ASSI
100
AcDbLine
 62
253
  6
CONTINUOUS
 10
24.3816458589
 20
1.9793536027
 11
24.4231365586
 21
1.937862903
  0
LINE
  5
3B4
100
AcDbEntity
  8
DRAFT
100
AcDbLine
 62
7
  6
CONTINUOUS
 10
25.1781548459
 20
1.3328389042
 11
25.1816458589
 21
1.3293478912
  0
LINE
  5
3B5
100
AcDbEntity
  8
ASSI
100
AcDbLine
 62
7
  6
CONTINUOUS
 10
25.1781548459
 20
1.3328389042
 11
25.1816458589
 21
1.3293478912
  0
LINE
  5
3B6
100
AcDbEntity
  8
RACCORDO
100
AcDbLine
 62
253
  6
CONTINUOUS
 10
24.5316401474
 20
2.1293478912
 11
24.573130847
 21
2.0878571915
  0
LINE
  5
3B7
100
AcDbEntity
  8
ASSI
100
AcDbLine
 62
253
  6
CONTINUOUS
 10
24.5316401474
 20
2.1293478912
 11
24.573130847
 21
2.0878571915
  0
LINE
  5
3B8
100
AcDbEntity
  8
0
100
AcDbLine
 62
7
  6
CONTINUOUS
 10
29.1250898589
 20
-0.1468591088
 11
28.7740088589
 21
0.7969098912
  0
LINE
  5
3B9
100
AcDbEntity
  8
ASSI
100
AcDbLine
 62
7
  6
CONTINUOUS
 10
29.1250898589
 20
-0.1468591088
 11
28.7740088589
 21
0.7969098912
  0
LINE
  5
3BA
100
AcDbEntity
  8
SCRITTE
100
AcDbLine
 62
253
  6
CONTINUOUS
 10
31.3816459066
 20
-2.6206521088
 11
30.9816457635
 21
-1.2206521088
  0
LINE
  5
3BB
100
AcDbEntity
  8
0
100
AcDbLine
 62
7
  6
CONTINUOUS
 10
30.9777648589
 20
-0.5636001088
 11
31.0696838589
 21
-0.9029531088
  0
LINE
  5
3BC
100
AcDbEntity
  8
ASSI
100
AcDbLine
 62
7
  6
CONTINUOUS
 10
30.9777648589
 20
-0.5636001088
 11
31.0696838589
 21
-0.9029531088
  0
LINE
  5
3BD
100
AcDbEntity
  8
0
100
AcDbLine
 62
7
  6
CONTINUOUS
 10
30.7438038589
 20
0.3298308912
 11
30.9068518589
 21
-0.3010101088
  0
LINE
  5
3BE
100
AcDbEntity
  8
ASSI
100
AcDbLine
 62
7
  6
CONTINUOUS
 10
30.7438038589
 20
0.3298308912
 11
30.9068518589
 21
-0.3010101088
  0
LINE
  5
3BF
100
AcDbEntity
  8
0
100
AcDbLine
 62
7
  6
CONTINUOUS
 10
31.5478525228
 20
0.7770499733
 11
31.5478525228
 21
-0.9029527955
  0
LINE
  5
3C0
100
AcDbEntity
  8
ASSI
100
AcDbLine
 62
7
  6
CONTINUOUS
 10
31.5478525228
 20
0.7770499733
 11
31.5478525228
 21
-0.9029527955
  0
LINE
  5
3C1
100
AcDbEntity
  8
0
100
AcDbLine
 62
7
  6
CONTINUOUS
 10
31.8894872905
 20
0.0406760597
 11
31.8894872905
 21
0.5073215422
  0
LINE
  5
3C2
100
AcDbEntity
  8
ASSI
100
AcDbLine
 62
7
  6
CONTINUOUS
 10
31.8894872905
 20
0.0406760597
 11
31.8894872905
 21
0.5073215422
  0
LINE
  5
3C3
100
AcDbEntity
  8
0
100
AcDbLine
 62
7
  6
CONTINUOUS
 10
31.9012528549
 20
-0.9029527955
 11
31.9012528549
 21
-0.2377203929
  0
LINE
  5
3C4
100
AcDbEntity
  8
ASSI
100
AcDbLine
 62
7
  6
CONTINUOUS
 10
31.9012528549
 20
-0.9029527955
 11
31.9012528549
 21
-0.2377203929
  0
LINE
  5
3C5
100
AcDbEntity
  8
0
100
AcDbLine
 62
7
  6
CONTINUOUS
 10
32.4600980417
 20
-0.1094719172
 11
32.4600980417
 21
-0.09942721
  0
LINE
  5
3C6
100
AcDbEntity
  8
ASSI
100
AcDbLine
 62
7
  6
CONTINUOUS
 10
32.4600980417
 20
-0.1094719172
 11
32.4600980417
 21
-0.09942721
  0
LWPOLYLINE
  5
3C7
100
AcDbEntity
  8
0
100
AcDbPolyline
 62
7
  6
CONTINUOUS
 90
16
 70
0
 10
32.3678983374
 20
0.3048340124
 10
32.3660890715
 20
0.2713937967
 10
32.3615840191
 20
0.2398677812
 10
32.35438318
 20
0.210255966
 10
32.3443097973
 20
0.1822696598
 10
32.331540628
 20
0.1561975539
 10
32.3166059433
 20
0.1329057216
 10
32.2996683891
 20
0.1127588005
 10
32.2805653195
 20
0.095392153
 10
32.2593390676
 20
0.0805779408
 10
32.2358263887
 20
0.0683943687
 10
32.2101905276
 20
0.0587632318
 10
32.1829635518
 20
0.0512220777
 10
32.1543228171
 20
0.0456167556
 10
32.1240909676
 20
0.0421014162
 10
32.0922680033
 20
0.0406760597
  0
LWPOLYLINE
  5
3C8
100
AcDbEntity
  8
ASSI
100
AcDbPolyline
 62
7
  6
CONTINUOUS
 90
16
 70
0
 10
32.3678983374
 20
0.3048340124
 10
32.3660890715
 20
0.2713937967
 10
32.3615840191
 20
0.2398677812
 10
32.35438318
 20
0.210255966
 10
32.3443097973
 20
0.1822696598
 10
32.331540628
 20
0.1561975539
 10
32.3166059433
 20
0.1329057216
 10
32.2996683891
 20
0.1127588005
 10
32.2805653195
 20
0.095392153
 10
32.2593390676
 20
0.0805779408
 10
32.2358263887
 20
0.0683943687
 10
32.2101905276
 20
0.0587632318
 10
32.1829635518
 20
0.0512220777
 10
32.1543228171
 20
0.0456167556
 10
32.1240909676
 20
0.0421014162
 10
32.0922680033
 20
0.0406760597
  0
LINE
  5
3C9
100
AcDbEntity
  8
SCRITTE
100
AcDbLine
 62
253
  6
CONTINUOUS
 10
31.7816460496
 20
-1.2206521088
 11
31.3816459066
 21
-2.6206521088
  0
LINE
  5
3CA
100
AcDbEntity
  8
SCRITTE
100
AcDbLine
 62
253
  6
CONTINUOUS
 10
30.6816459066
 20
-4.3206521088
 11
31.3816459066
 21
-2.9206521088
  0
LINE
  5
3CB
100
AcDbEntity
  8
SCRITTE
100
AcDbLine
 62
253
  6
CONTINUOUS
 10
30.2816457635
 20
-2.9206521088
 11
29.8816459543
 21
-3.5206520731
  0
LINE
  5
3CC
100
AcDbEntity
  8
RACCORDO
100
AcDbLine
 62
7
  6
CONTINUOUS
 10
43.0816458589
 20
-5.3575618071
 11
42.9743719208
 21
-5.3682622275
  0
LINE
  5
3CD
100
AcDbEntity
  8
ASSI
100
AcDbLine
 62
7
  6
CONTINUOUS
 10
43.0816458589
 20
-5.3575618071
 11
42.9743719208
 21
-5.3682622275
  0
LWPOLYLINE
  5
3CE
100
AcDbEntity
  8
RACCORDO
100
AcDbPolyline
 62
7
  6
CONTINUOUS
 90
6
 70
0
 10
57.8816610894
 20
-4.5206521088
 10
57.8990142243
 20
-4.5191287413
 10
57.9158410529
 20
-4.5146153566
 10
57.9316305067
 20
-4.5072482749
 10
57.9459027148
 20
-4.4972503743
 10
57.9523197098
 20
-4.4913690732
  0
LWPOLYLINE
  5
3CF
100
AcDbEntity
  8
RACCORDO
100
AcDbPolyline
 62
7
  6
CONTINUOUS
 90
16
 70
0
 10
43.3343925169
 20
-5.4230332631
 10
43.3982173401
 20
-5.4194486819
 10
43.4600141108
 20
-5.4096645225
 10
43.519782829
 20
-5.393680785
 10
43.5781264828
 20
-5.3711885661
 10
43.6344420841
 20
-5.3424967691
 10
43.6869206686
 20
-5.3085321031
 10
43.7354378583
 20
-5.2691248737
 10
43.7801180311
 20
-5.2244447754
 10
43.8195253573
 20
-5.1759276012
 10
43.8534901475
 20
-5.1234489405
 10
43.8821820911
 20
-5.0671332038
 10
43.9046744256
 20
-5.0087894156
 10
43.9206582305
 20
-4.9490205842
 10
43.9304424263
 20
-4.8872237013
 10
43.9340270131
 20
-4.8233987669
  0
LWPOLYLINE
  5
3D0
100
AcDbEntity
  8
RACCORDO
100
AcDbPolyline
 62
253
  6
CONTINUOUS
 90
19
 70
0
 10
43.2401780054
 20
-5.3291614092
 10
43.2924675944
 20
-5.3268751919
 10
43.3443591941
 20
-5.3200405582
 10
43.3954579206
 20
-5.3087095248
 10
43.4453749192
 20
-5.2929683303
 10
43.4937303368
 20
-5.2729367639
 10
43.5401562096
 20
-5.2487672484
 10
43.5842992369
 20
-5.2206437115
 10
43.6258235021
 20
-5.1887801665
 10
43.6644130343
 20
-5.1534190563
 10
43.6997741997
 20
-5.1148294128
 10
43.7316378456
 20
-5.073304934
 10
43.7597614082
 20
-5.029161744
 10
43.7839308586
 20
-4.9827358427
 10
43.8039623311
 20
-4.934380478
 10
43.8197034323
 20
-4.8844635842
 10
43.8310343865
 20
-4.8333650031
 10
43.8378689638
 20
-4.7814735998
 10
43.8401551592
 20
-4.7291842553
  0
LWPOLYLINE
  5
3D1
100
AcDbEntity
  8
ASSI
100
AcDbPolyline
 62
253
  6
CONTINUOUS
 90
19
 70
0
 10
43.2401780054
 20
-5.3291614092
 10
43.2924675944
 20
-5.3268751919
 10
43.3443591941
 20
-5.3200405582
 10
43.3954579206
 20
-5.3087095248
 10
43.4453749192
 20
-5.2929683303
 10
43.4937303368
 20
-5.2729367639
 10
43.5401562096
 20
-5.2487672484
 10
43.5842992369
 20
-5.2206437115
 10
43.6258235021
 20
-5.1887801665
 10
43.6644130343
 20
-5.1534190563
 10
43.6997741997
 20
-5.1148294128
 10
43.7316378456
 20
-5.073304934
 10
43.7597614082
 20
-5.029161744
 10
43.7839308586
 20
-4.9827358427
 10
43.8039623311
 20
-4.934380478
 10
43.8197034323
 20
-4.8844635842
 10
43.8310343865
 20
-4.8333650031
 10
43.8378689638
 20
-4.7814735998
 10
43.8401551592
 20
-4.7291842553
  0
LWPOLYLINE
  5
3D2
100
AcDbEntity
  8
RACCORDO
100
AcDbPolyline
 62
7
  6
CONTINUOUS
 90
4
 70
0
 10
42.9445743815
 20
-5.3691920038
 10
42.9585722772
 20
-5.3688995759
 10
42.9685047903
 20
-5.3685896505
 10
42.9743719208
 20
-5.3682622275
  0
LWPOLYLINE
  5
3D3
100
AcDbEntity
  8
ASSI
100
AcDbPolyline
 62
7
  6
CONTINUOUS
 90
4
 70
0
 10
42.9445743815
 20
-5.3691920038
 10
42.9585722772
 20
-5.3688995759
 10
42.9685047903
 20
-5.3685896505
 10
42.9743719208
 20
-5.3682622275
  0
LINE
  5
3D4
100
AcDbEntity
  8
RACCORDO
100
AcDbLine
 62
7
  6
CONTINUOUS
 10
42.9037136244
 20
-5.369732146
 11
42.9445743815
 21
-5.3691920038
  0
LINE
  5
3D5
100
AcDbEntity
  8
ASSI
100
AcDbLine
 62
7
  6
CONTINUOUS
 10
42.9037136244
 20
-5.369732146
 11
42.9445743815
 21
-5.3691920038
  0
LWPOLYLINE
  5
3D6
100
AcDbEntity
  8
RACCORDO
100
AcDbPolyline
 62
7
  6
CONTINUOUS
 90
16
 70
0
 10
23.8812803551
 20
-5.3706521088
 10
23.8174181002
 20
-5.3670634793
 10
23.7555867525
 20
-5.3572680837
 10
23.6957863121
 20
-5.3412659222
 10
23.6374125217
 20
-5.3187473527
 10
23.5810696385
 20
-5.2900220172
 10
23.5285704343
 20
-5.2560188418
 10
23.4800399108
 20
-5.2165677603
 10
23.4353530663
 20
-5.1718388389
 10
23.3959476681
 20
-5.1232712018
 10
23.3619939097
 20
-5.0707191123
 10
23.3333215975
 20
-5.0143283071
 10
23.3108579176
 20
-4.9559751211
 10
23.2949119323
 20
-4.8962849991
 10
23.2851745794
 20
-4.8346324963
 10
23.2816458589
 20
-4.7710176126
  0
LWPOLYLINE
  5
3D7
100
AcDbEntity
  8
RACCORDO
100
AcDbPolyline
 62
7
  6
CONTINUOUS
 90
16
 70
0
 10
23.911554476
 20
-5.3406521088
 10
23.8477265856
 20
-5.3370664233
 10
23.7859217877
 20
-5.32727787
 10
23.7261400823
 20
-5.3112864492
 10
23.6677789436
 20
-5.2887852443
 10
23.6114408974
 20
-5.2600811717
 10
23.5589335208
 20
-5.2260949807
 10
23.5103755234
 20
-5.1866497713
 10
23.4656481957
 20
-5.1419224435
 10
23.4262029864
 20
-5.0933644461
 10
23.3922167956
 20
-5.0408570696
 10
23.3635127232
 20
-4.9845190236
 10
23.3410115184
 20
-4.9261578851
 10
23.3250200977
 20
-4.8663761798
 10
23.3152315445
 20
-4.804571382
 10
23.3116458589
 20
-4.7407434917
  0
LWPOLYLINE
  5
3D8
100
AcDbEntity
  8
RACCORDO
100
AcDbPolyline
 62
7
  6
CONTINUOUS
 90
13
 70
0
 10
24.5316401474
 20
-5.3706521088
 10
24.5115349955
 20
-5.3691902519
 10
24.4924010592
 20
-5.3653843628
 10
24.4742383382
 20
-5.3592344414
 10
24.456772537
 20
-5.3505571773
 10
24.4402779512
 20
-5.339535881
 10
24.4255774681
 20
-5.3267204838
 10
24.4127620737
 20
-5.3120200008
 10
24.401740782
 20
-5.295525417
 10
24.3930635217
 20
-5.2780596184
 10
24.3869136026
 20
-5.2598969005
 10
24.383107715
 20
-5.2407629678
 10
24.3816458589
 20
-5.2206578204
  0
LWPOLYLINE
  5
3D9
100
AcDbEntity
  8
ASSI
100
AcDbPolyline
 62
7
  6
CONTINUOUS
 90
13
 70
0
 10
24.5316401474
 20
-5.3706521088
 10
24.5115349955
 20
-5.3691902519
 10
24.4924010592
 20
-5.3653843628
 10
24.4742383382
 20
-5.3592344414
 10
24.456772537
 20
-5.3505571773
 10
24.4402779512
 20
-5.339535881
 10
24.4255774681
 20
-5.3267204838
 10
24.4127620737
 20
-5.3120200008
 10
24.401740782
 20
-5.295525417
 10
24.3930635217
 20
-5.2780596184
 10
24.3869136026
 20
-5.2598969005
 10
24.383107715
 20
-5.2407629678
 10
24.3816458589
 20
-5.2206578204
  0
LWPOLYLINE
  5
3DA
100
AcDbEntity
  8
RACCORDO
100
AcDbPolyline
 62
253
  6
CONTINUOUS
 90
10
 70
0
 10
24.573130847
 20
-5.3291614092
 10
24.5470858604
 20
-5.3268808956
 10
24.5218321614
 20
-5.3201126074
 10
24.4981369969
 20
-5.309062176
 10
24.4767202628
 20
-5.2940653308
 10
24.4582326325
 20
-5.2755776997
 10
24.4432357887
 20
-5.2541609655
 10
24.4321853587
 20
-5.2304658018
 10
24.4254170717
 20
-5.2052121047
 10
24.4231365586
 20
-5.1791671207
  0
LWPOLYLINE
  5
3DB
100
AcDbEntity
  8
ASSI
100
AcDbPolyline
 62
253
  6
CONTINUOUS
 90
10
 70
0
 10
24.573130847
 20
-5.3291614092
 10
24.5470858604
 20
-5.3268808956
 10
24.5218321614
 20
-5.3201126074
 10
24.4981369969
 20
-5.309062176
 10
24.4767202628
 20
-5.2940653308
 10
24.4582326325
 20
-5.2755776997
 10
24.4432357887
 20
-5.2541609655
 10
24.4321853587
 20
-5.2304658018
 10
24.4254170717
 20
-5.2052121047
 10
24.4231365586
 20
-5.1791671207
  0
LWPOLYLINE
  5
3DC
100
AcDbEntity
  8
RACCORDO
100
AcDbPolyline
 62
7
  6
CONTINUOUS
 90
9
 70
0
 10
23.1941148748
 20
-3.3331211248
 10
23.1963228535
 20
-3.3335668304
 10
23.2013881176
 20
-3.3339918695
 10
23.2093106671
 20
-3.334396242
 10
23.2203015369
 20
-3.3347855611
 10
23.2341496921
 20
-3.3351542136
 10
23.2502220279
 20
-3.3354853603
 10
23.2686215984
 20
-3.3357772591
 10
23.3111510141
 20
-3.3362369266
  0
LWPOLYLINE
  5
3DD
100
AcDbEntity
  8
ASSI
100
AcDbPolyline
 62
7
  6
CONTINUOUS
 90
9
 70
0
 10
23.1941148748
 20
-3.3331211248
 10
23.1963228535
 20
-3.3335668304
 10
23.2013881176
 20
-3.3339918695
 10
23.2093106671
 20
-3.334396242
 10
23.2203015369
 20
-3.3347855611
 10
23.2341496921
 20
-3.3351542136
 10
23.2502220279
 20
-3.3354853603
 10
23.2686215984
 20
-3.3357772591
 10
23.3111510141
 20
-3.3362369266
  0
LINE
  5
3DE
100
AcDbEntity
  8
RACCORDO
100
AcDbLine
 62
253
  6
CONTINUOUS
 10
23.1889121063
 20
0.5626475878
 11
23.1794063007
 21
0.5674001286
  0
LINE
  5
3DF
100
AcDbEntity
  8
ASSI
100
AcDbLine
 62
253
  6
CONTINUOUS
 10
23.1889121063
 20
0.5626475878
 11
23.1794063007
 21
0.5674001286
  0
LINE
  5
3E0
100
AcDbEntity
  8
SCRITTE
100
AcDbLine
 62
253
  6
CONTINUOUS
 10
29.2816459066
 20
-1.2206521088
 11
29.4816458112
 21
-1.4206520969
  0
LWPOLYLINE
  5
3E1
100
AcDbEntity
  8
0
100
AcDbPolyline
 62
7
  6
CONTINUOUS
 90
6
 70
0
 10
32.2894654906
 20
-0.3874987042
 10
32.3077621938
 20
-0.4411912575
 10
32.3256021311
 20
-0.4958498642
 10
32.3429853026
 20
-0.5514745241
 10
32.3596550108
 20
-0.608159934
 10
32.3923942216
 20
-0.7241448239
  0
LWPOLYLINE
  5
3E2
100
AcDbEntity
  8
ASSI
100
AcDbPolyline
 62
7
  6
CONTINUOUS
 90
6
 70
0
 10
32.2894654906
 20
-0.3874987042
 10
32.3077621938
 20
-0.4411912575
 10
32.3256021311
 20
-0.4958498642
 10
32.3429853026
 20
-0.5514745241
 10
32.3596550108
 20
-0.608159934
 10
32.3923942216
 20
-0.7241448239
  0
LINE
  5
3E3
100
AcDbEntity
  8
0
100
AcDbLine
 62
7
  6
CONTINUOUS
 10
31.4436578589
 20
-0.9029531088
 11
30.9220978589
 21
0.7969098912
  0
LINE
  5
3E4
100
AcDbEntity
  8
ASSI
100
AcDbLine
 62
7
  6
CONTINUOUS
 10
31.4436578589
 20
-0.9029531088
 11
30.9220978589
 21
0.7969098912
  0
LINE
  5
3E5
100
AcDbEntity
  8
0
100
AcDbLine
 62
7
  6
CONTINUOUS
 10
32.3923942216
 20
-0.7241448239
 11
32.444623074
 21
-0.9029527955
  0
LINE
  5
3E6
100
AcDbEntity
  8
ASSI
100
AcDbLine
 62
7
  6
CONTINUOUS
 10
32.3923942216
 20
-0.7241448239
 11
32.444623074
 21
-0.9029527955
  0
LINE
  5
3E7
100
AcDbEntity
  8
SCRITTE
100
AcDbLine
 62
253
  6
CONTINUOUS
 10
32.9149788743
 20
2.1223663969
 11
32.9149788743
 21
2.110148782
  0
LINE
  5
3E8
100
AcDbEntity
  8
SCRITTE
100
AcDbLine
 62
253
  6
CONTINUOUS
 10
33.548312462
 20
2.1223663969
 11
33.548312462
 21
2.110148782
  0
LINE
  5
3E9
100
AcDbEntity
  8
CURVE
100
AcDbLine
 62
253
  6
CONTINUOUS
 10
33.8816458589
 20
0.3507764881
 11
33.8816458589
 21
-0.2920806611
  0
LINE
  5
3EA
100
AcDbEntity
  8
SCRITTE
100
AcDbLine
 62
253
  6
CONTINUOUS
 10
34.248312462
 20
2.1223663969
 11
34.248312462
 21
2.110148782
  0
LINE
  5
3EB
100
AcDbEntity
  8
SCRITTE
100
AcDbLine
 62
253
  6
CONTINUOUS
 10
33.6483122712
 20
-1.2206521088
 11
33.248312462
 21
-2.6206521088
  0
LINE
  5
3EC
100
AcDbEntity
  8
CURVE
100
AcDbLine
 62
253
  6
CONTINUOUS
 10
33.9887887208
 20
0.5650621897
 11
33.8816458589
 21
0.3507764881
  0
LINE
  5
3ED
100
AcDbEntity
  8
SCRITTE
100
AcDbLine
 62
253
  6
CONTINUOUS
 10
31.7816460496
 20
-4.3206521088
 11
32.4816460496
 21
-2.9206521088
  0
LINE
  5
3EE
100
AcDbEntity
  8
CURVE
100
AcDbLine
 62
253
  6
CONTINUOUS
 10
34.2030744335
 20
0.7793478912
 11
33.9887887208
 21
0.5650621897
  0
LWPOLYLINE
  5
3EF
100
AcDbEntity
  8
0
100
AcDbPolyline
 62
7
  6
CONTINUOUS
 90
40
 70
0
 10
32.51153642
 20
-0.0714514219
 10
32.5319125205
 20
-0.0542005644
 10
32.5421892592
 20
-0.045185862
 10
32.5524751751
 20
-0.0357238074
 10
32.5627899317
 20
-0.0258714394
 10
32.5731138655
 20
-0.0155717192
 10
32.58335539
 20
-0.0045713287
 10
32.5935271853
 20
0.0071531905
 10
32.6036165714
 20
0.01957838
 10
32.6134939218
 20
0.0328871837
 10
32.6231713647
 20
0.047128286
 10
32.6326367719
 20
0.0622530024
 10
32.6417241327
 20
0.0782982238
 10
32.6504518728
 20
0.0952814965
 10
32.6588015666
 20
0.1131852742
 10
32.6665519262
 20
0.131993808
 10
32.6737071086
 20
0.1516964884
 10
32.6802629568
 20
0.172303925
 10
32.6859857117
 20
0.1938321984
 10
32.6908768544
 20
0.2162780059
 10
32.6949349037
 20
0.2396446501
 10
32.6979216575
 20
0.2639581199
 10
32.6998596013
 20
0.2892530154
 10
32.7007262497
 20
0.3154947364
 10
32.7002159437
 20
0.3426054712
 10
32.6984460491
 20
0.370619336
 10
32.6952992001
 20
0.3995022146
 10
32.690117641
 20
0.4290739461
 10
32.6829663657
 20
0.4594340527
 10
32.6737803802
 20
0.4904830121
 10
32.6617069462
 20
0.5217420971
 10
32.6466379372
 20
0.5534216822
 10
32.6286814798
 20
0.5853113928
 10
32.6073092154
 20
0.616301377
 10
32.5817069905
 20
0.6468355463
 10
32.5526889587
 20
0.6764699893
 10
32.5221692227
 20
0.7027631206
 10
32.4907858168
 20
0.7249010783
 10
32.4579007067
 20
0.7436977243
 10
32.4235138924
 20
0.7591530585
  0
LWPOLYLINE
  5
3F0
100
AcDbEntity
  8
ASSI
100
AcDbPolyline
 62
7
  6
CONTINUOUS
 90
40
 70
0
 10
32.51153642
 20
-0.0714514219
 10
32.5319125205
 20
-0.0542005644
 10
32.5421892592
 20
-0.045185862
 10
32.5524751751
 20
-0.0357238074
 10
32.5627899317
 20
-0.0258714394
 10
32.5731138655
 20
-0.0155717192
 10
32.58335539
 20
-0.0045713287
 10
32.5935271853
 20
0.0071531905
 10
32.6036165714
 20
0.01957838
 10
32.6134939218
 20
0.0328871837
 10
32.6231713647
 20
0.047128286
 10
32.6326367719
 20
0.0622530024
 10
32.6417241327
 20
0.0782982238
 10
32.6504518728
 20
0.0952814965
 10
32.6588015666
 20
0.1131852742
 10
32.6665519262
 20
0.131993808
 10
32.6737071086
 20
0.1516964884
 10
32.6802629568
 20
0.172303925
 10
32.6859857117
 20
0.1938321984
 10
32.6908768544
 20
0.2162780059
 10
32.6949349037
 20
0.2396446501
 10
32.6979216575
 20
0.2639581199
 10
32.6998596013
 20
0.2892530154
 10
32.7007262497
 20
0.3154947364
 10
32.7002159437
 20
0.3426054712
 10
32.6984460491
 20
0.370619336
 10
32.6952992001
 20
0.3995022146
 10
32.690117641
 20
0.4290739461
 10
32.6829663657
 20
0.4594340527
 10
32.6737803802
 20
0.4904830121
 10
32.6617069462
 20
0.5217420971
 10
32.6466379372
 20
0.5534216822
 10
32.6286814798
 20
0.5853113928
 10
32.6073092154
 20
0.616301377
 10
32.5817069905
 20
0.6468355463
 10
32.5526889587
 20
0.6764699893
 10
32.5221692227
 20
0.7027631206
 10
32.4907858168
 20
0.7249010783
 10
32.4579007067
 20
0.7436977243
 10
32.4235138924
 20
0.7591530585
  0
LINE
  5
3F1
100
AcDbEntity
  8
0
100
AcDbLine
 62
7
  6
CONTINUOUS
 10
32.5014370581
 20
-0.079687577
 11
32.51153642
 21
-0.0714514219
  0
LINE
  5
3F2
100
AcDbEntity
  8
ASSI
100
AcDbLine
 62
7
  6
CONTINUOUS
 10
32.5014370581
 20
-0.079687577
 11
32.51153642
 21
-0.0714514219
  0
LINE
  5
3F3
100
AcDbEntity
  8
RACCORDO
100
AcDbLine
 62
253
  6
CONTINUOUS
 10
23.1794063007
 20
-3.8087043463
 11
23.1889121063
 21
-3.8039518054
  0
LINE
  5
3F4
100
AcDbEntity
  8
ASSI
100
AcDbLine
 62
253
  6
CONTINUOUS
 10
23.1794063007
 20
-3.8087043463
 11
23.1889121063
 21
-3.8039518054
  0
LINE
  5
3F5
100
AcDbEntity
  8
SCRITTE
100
AcDbLine
 62
253
  6
CONTINUOUS
 10
41.8628958589
 20
-4.3206521088
 11
42.0378958589
 21
-4.2769021088
  0
LINE
  5
3F6
100
AcDbEntity
  8
SCRITTE
100
AcDbLine
 62
253
  6
CONTINUOUS
 10
41.8628958589
 20
-3.5331521088
 11
41.6878958589
 21
-3.5769021088
  0
LINE
  5
3F7
100
AcDbEntity
  8
RACCORDO
100
AcDbLine
 62
7
  6
CONTINUOUS
 10
56.9464934059
 20
-3.4661612482
 11
56.8816458589
 21
-3.4706521088
  0
LINE
  5
3F8
100
AcDbEntity
  8
ASSI
100
AcDbLine
 62
7
  6
CONTINUOUS
 10
56.9464934059
 20
-3.4661612482
 11
56.8816458589
 21
-3.4706521088
  0
LWPOLYLINE
  5
3F9
100
AcDbEntity
  8
RACCORDO
100
AcDbPolyline
 62
253
  6
CONTINUOUS
 90
19
 70
0
 10
43.2401780054
 20
-4.8291804476
 10
43.2489136156
 20
-4.8287966217
 10
43.2574823641
 20
-4.827676559
 10
43.2658842508
 20
-4.8258202597
 10
43.2741891886
 20
-4.8232035222
 10
43.2823272646
 20
-4.819850548
 10
43.2900887401
 20
-4.8158339414
 10
43.2974593643
 20
-4.8111352925
 10
43.304453388
 20
-4.8057730111
 10
43.3109038252
 20
-4.799874931
 10
43.3167940933
 20
-4.7934302332
 10
43.3221407749
 20
-4.7864497366
 10
43.3268266313
 20
-4.7790937314
 10
43.3308368706
 20
-4.77134929
 10
43.3341862848
 20
-4.76322934
 10
43.3368020109
 20
-4.7549329543
 10
43.3386597613
 20
-4.7465264904
 10
43.3397838235
 20
-4.7379435907
 10
43.3401741977
 20
-4.7291842553
  0
LWPOLYLINE
  5
3FA
100
AcDbEntity
  8
ASSI
100
AcDbPolyline
 62
253
  6
CONTINUOUS
 90
19
 70
0
 10
43.2401780054
 20
-4.8291804476
 10
43.2489136156
 20
-4.8287966217
 10
43.2574823641
 20
-4.827676559
 10
43.2658842508
 20
-4.8258202597
 10
43.2741891886
 20
-4.8232035222
 10
43.2823272646
 20
-4.819850548
 10
43.2900887401
 20
-4.8158339414
 10
43.2974593643
 20
-4.8111352925
 10
43.304453388
 20
-4.8057730111
 10
43.3109038252
 20
-4.799874931
 10
43.3167940933
 20
-4.7934302332
 10
43.3221407749
 20
-4.7864497366
 10
43.3268266313
 20
-4.7790937314
 10
43.3308368706
 20
-4.77134929
 10
43.3341862848
 20
-4.76322934
 10
43.3368020109
 20
-4.7549329543
 10
43.3386597613
 20
-4.7465264904
 10
43.3397838235
 20
-4.7379435907
 10
43.3401741977
 20
-4.7291842553
  0
LINE
  5
3FB
100
AcDbEntity
  8
RACCORDO
100
AcDbLine
 62
7
  6
CONTINUOUS
 10
56.9479480121
 20
-4.5202611879
 11
56.9191312593
 21
-4.5205462753
  0
LINE
  5
3FC
100
AcDbEntity
  8
RACCORDO
100
AcDbLine
 62
7
  6
CONTINUOUS
 10
42.8176739809
 20
-5.3703384728
 11
42.9037136244
 21
-5.369732146
  0
LINE
  5
3FD
100
AcDbEntity
  8
ASSI
100
AcDbLine
 62
7
  6
CONTINUOUS
 10
42.8176739809
 20
-5.3703384728
 11
42.9037136244
 21
-5.369732146
  0
LINE
  5
3FE
100
AcDbEntity
  8
RACCORDO
100
AcDbLine
 62
7
  6
CONTINUOUS
 10
56.9191312593
 20
-4.5205462753
 11
56.8850792222
 21
-4.5206521088
  0
LINE
  5
3FF
100
AcDbEntity
  8
RACCORDO
100
AcDbLine
 62
7
  6
CONTINUOUS
 10
43.0816458589
 20
-5.4230332631
 11
43.3343925169
 21
-5.4230332631
  0
LINE
  5
400
100
AcDbEntity
  8
DRAFT
100
AcDbLine
 62
7
  6
CONTINUOUS
 10
43.0292647047
 20
-5.3706521088
 11
35.6340270131
 21
-5.3706521088
  0
LINE
  5
401
100
AcDbEntity
  8
DRAFT
100
AcDbLine
 62
7
  6
CONTINUOUS
 10
35.4816458589
 20
-5.3706521088
 11
32.2816458589
 21
-5.3706521088
  0
LINE
  5
402
100
AcDbEntity
  8
RACCORDO
100
AcDbLine
 62
7
  6
CONTINUOUS
 10
23.8812803551
 20
-5.3706521088
 11
32.2816458589
 21
-5.3706521088
  0
LINE
  5
403
100
AcDbEntity
  8
RACCORDO
100
AcDbLine
 62
7
  6
CONTINUOUS
 10
35.4816458589
 20
-5.3706521088
 11
42.8176739809
 21
-5.3703384728
  0
LINE
  5
404
100
AcDbEntity
  8
ASSI
100
AcDbLine
 62
7
  6
CONTINUOUS
 10
24.5316401474
 20
-5.3706521088
 11
42.8176739809
 21
-5.3703384728
  0
LINE
  5
405
100
AcDbEntity
  8
RACCORDO
100
AcDbLine
 62
7
  6
CONTINUOUS
 10
43.2685784034
 20
-5.3575618071
 11
43.0816458589
 21
-5.3575618071
  0
LINE
  5
406
100
AcDbEntity
  8
ASSI
100
AcDbLine
 62
7
  6
CONTINUOUS
 10
43.2685784034
 20
-5.3575618071
 11
43.0816458589
 21
-5.3575618071
  0
LINE
  5
407
100
AcDbEntity
  8
RACCORDO
100
AcDbLine
 62
7
  6
CONTINUOUS
 10
24.3816458589
 20
-5.3406521088
 11
23.911554476
 21
-5.3406521088
  0
LINE
  5
408
100
AcDbEntity
  8
RACCORDO
100
AcDbLine
 62
7
  6
CONTINUOUS
 10
24.573130847
 20
-5.3291614092
 11
43.2401780054
 21
-5.3291614092
  0
LINE
  5
409
100
AcDbEntity
  8
ASSI
100
AcDbLine
 62
7
  6
CONTINUOUS
 10
24.573130847
 20
-5.3291614092
 11
43.2401780054
 21
-5.3291614092
  0
LINE
  5
40A
100
AcDbEntity
  8
RACCORDO
100
AcDbLine
 62
253
  6
CONTINUOUS
 10
23.9920305544
 20
-5.2601760304
 11
24.3414108841
 21
-5.2601760304
  0
LINE
  5
40B
100
AcDbEntity
  8
RACCORDO
100
AcDbLine
 62
253
  6
CONTINUOUS
 10
24.4261643079
 20
-4.8291804476
 11
43.2401780054
 21
-4.8291804476
  0
LINE
  5
40C
100
AcDbEntity
  8
ASSI
100
AcDbLine
 62
253
  6
CONTINUOUS
 10
24.4261643079
 20
-4.8291804476
 11
43.2401780054
 21
-4.8291804476
  0
LINE
  5
40D
100
AcDbEntity
  8
RACCORDO
100
AcDbLine
 62
253
  6
CONTINUOUS
 10
43.3401741977
 20
-4.7291842553
 11
43.8401551592
 21
-4.7291842553
  0
LINE
  5
40E
100
AcDbEntity
  8
ASSI
100
AcDbLine
 62
253
  6
CONTINUOUS
 10
43.3401741977
 20
-4.7291842553
 11
43.8401551592
 21
-4.7291842553
  0
LINE
  5
40F
100
AcDbEntity
  8
RACCORDO
100
AcDbLine
 62
253
  6
CONTINUOUS
 10
23.3921219373
 20
-4.6602674133
 11
24.3362661464
 21
-4.6602674133
  0
LINE
  5
410
100
AcDbEntity
  8
DRAFT
100
AcDbLine
 62
7
  6
CONTINUOUS
 10
25.1781548459
 20
-4.5741431218
 11
43.0851368719
 21
-4.5741431218
  0
LINE
  5
411
100
AcDbEntity
  8
ASSI
100
AcDbLine
 62
7
  6
CONTINUOUS
 10
25.1781548459
 20
-4.5741431218
 11
43.0851368719
 21
-4.5741431218
  0
LINE
  5
412
100
AcDbEntity
  8
DRAFT
100
AcDbLine
 62
7
  6
CONTINUOUS
 10
25.1816458589
 20
-4.5706521088
 11
43.0816458589
 21
-4.5706521088
  0
LINE
  5
413
100
AcDbEntity
  8
RACCORDO
100
AcDbLine
 62
7
  6
CONTINUOUS
 10
57.8816610894
 20
-4.5206521088
 11
43.9340270131
 21
-4.5206521088
  0
LINE
  5
414
100
AcDbEntity
  8
DRAFT
100
AcDbLine
 62
7
  6
CONTINUOUS
 10
56.8816458589
 20
-4.5206521088
 11
43.8685555572
 21
-4.5206521088
  0
LINE
  5
415
100
AcDbEntity
  8
ASSI
100
AcDbLine
 62
7
  6
CONTINUOUS
 10
56.8816458589
 20
-4.5206521088
 11
43.8685555572
 21
-4.5206521088
  0
LINE
  5
416
100
AcDbEntity
  8
RACCORDO
100
AcDbLine
 62
253
  6
CONTINUOUS
 10
43.8642689746
 20
-4.5120782906
 11
56.8730720407
 21
-4.5120782906
  0
LINE
  5
417
100
AcDbEntity
  8
ASSI
100
AcDbLine
 62
253
  6
CONTINUOUS
 10
43.8642689746
 20
-4.5120782906
 11
56.8730720407
 21
-4.5120782906
  0
LINE
  5
418
100
AcDbEntity
  8
RACCORDO
100
AcDbLine
 62
253
  6
CONTINUOUS
 10
57.0006818537
 20
-4.5111370114
 11
57.8721458635
 21
-4.511136883
  0
LINE
  5
419
100
AcDbEntity
  8
RACCORDO
100
AcDbLine
 62
253
  6
CONTINUOUS
 10
57.0041998359
 20
-4.4990827668
 11
57.8707390862
 21
-4.4990808399
  0
LINE
  5
41A
100
AcDbEntity
  8
RACCORDO
100
AcDbLine
 62
253
  6
CONTINUOUS
 10
43.862301137
 20
-4.482270845
 11
56.8691360657
 21
-4.482270845
  0
LINE
  5
41B
100
AcDbEntity
  8
ASSI
100
AcDbLine
 62
253
  6
CONTINUOUS
 10
43.862301137
 20
-4.482270845
 11
56.8691360657
 21
-4.482270845
  0
LINE
  5
41C
100
AcDbEntity
  8
SCRITTE
100
AcDbLine
 62
253
  6
CONTINUOUS
 10
32.4816460496
 20
-4.3206521088
 11
31.7816460496
 21
-4.3206521088
  0
LINE
  5
41D
100
AcDbEntity
  8
SCRITTE
100
AcDbLine
 62
253
  6
CONTINUOUS
 10
31.3816459066
 20
-4.3206521088
 11
30.6816459066
 21
-4.3206521088
  0
LINE
  5
41E
100
AcDbEntity
  8
SCRITTE
100
AcDbLine
 62
253
  6
CONTINUOUS
 10
35.5816458619
 20
-4.3206521088
 11
35.6816458768
 21
-4.3206521088
  0
LINE
  5
41F
100
AcDbEntity
  8
SCRITTE
100
AcDbLine
 62
253
  6
CONTINUOUS
 10
41.7316458589
 20
-4.3206521088
 11
41.8628958589
 21
-4.3206521088
  0
LINE
  5
420
100
AcDbEntity
  8
SCRITTE
100
AcDbLine
 62
253
  6
CONTINUOUS
 10
36.6149791962
 20
-4.2539854409
 11
36.6483124858
 21
-4.2539854409
  0
LINE
  5
421
100
AcDbEntity
  8
DRAFT
100
AcDbLine
 62
7
  6
CONTINUOUS
 10
23.2816458589
 20
-4.201671557
 11
23.3116458589
 21
-4.201671557
  0
LINE
  5
422
100
AcDbEntity
  8
SCRITTE
100
AcDbLine
 62
253
  6
CONTINUOUS
 10
36.6816458589
 20
-4.0873187685
 11
36.6483124858
 21
-4.0873187685
  0
LINE
  5
423
100
AcDbEntity
  8
DRAFT
100
AcDbLine
 62
7
  6
CONTINUOUS
 10
24.3816458589
 20
-4.0206521088
 11
24.3610879516
 21
-4.0206521088
  0
LINE
  5
424
100
AcDbEntity
  8
ASSI
100
AcDbLine
 62
7
  6
CONTINUOUS
 10
24.3816458589
 20
-4.0206521088
 11
24.3610879516
 21
-4.0206521088
  0
LINE
  5
425
100
AcDbEntity
  8
DRAFT
100
AcDbLine
 62
7
  6
CONTINUOUS
 10
23.3527647997
 20
-4.0206521088
 11
21.3816458589
 21
-4.0206521088
  0
LINE
  5
426
100
AcDbEntity
  8
ASSI
100
AcDbLine
 62
7
  6
CONTINUOUS
 10
23.3527647997
 20
-4.0206521088
 11
21.3816458589
 21
-4.0206521088
  0
LINE
  5
427
100
AcDbEntity
  8
RACCORDO
100
AcDbLine
 62
7
  6
CONTINUOUS
 10
21.3907017575
 20
-4.0115962103
 11
23.3529853686
 21
-4.0115962103
  0
LINE
  5
428
100
AcDbEntity
  8
ASSI
100
AcDbLine
 62
7
  6
CONTINUOUS
 10
21.3907017575
 20
-4.0115962103
 11
23.3529853686
 21
-4.0115962103
  0
LINE
  5
429
100
AcDbEntity
  8
SCRITTE
100
AcDbLine
 62
253
  6
CONTINUOUS
 10
35.3816458634
 20
-4.1206520999
 11
35.5816458619
 21
-4.3206521088
  0
LINE
  5
42A
100
AcDbEntity
  8
SCRITTE
100
AcDbLine
 62
253
  6
CONTINUOUS
 10
34.0483127481
 20
-2.6206521088
 11
33.6483122712
 21
-1.2206521088
  0
LINE
  5
42B
100
AcDbEntity
  8
0
100
AcDbLine
 62
7
  6
CONTINUOUS
 10
32.706104455
 20
-0.5983362814
 11
32.6646251059
 21
-0.4428720646
  0
LINE
  5
42C
100
AcDbEntity
  8
ASSI
100
AcDbLine
 62
7
  6
CONTINUOUS
 10
32.706104455
 20
-0.5983362814
 11
32.6646251059
 21
-0.4428720646
  0
LINE
  5
42D
100
AcDbEntity
  8
0
100
AcDbLine
 62
7
  6
CONTINUOUS
 10
32.7859264174
 20
-0.9029527955
 11
32.706104455
 21
-0.5983362814
  0
LINE
  5
42E
100
AcDbEntity
  8
ASSI
100
AcDbLine
 62
7
  6
CONTINUOUS
 10
32.7859264174
 20
-0.9029527955
 11
32.706104455
 21
-0.5983362814
  0
LWPOLYLINE
  5
42F
100
AcDbEntity
  8
0
100
AcDbPolyline
 62
7
  6
CONTINUOUS
 90
13
 70
0
 10
32.6646251059
 20
-0.4428720646
 10
32.6552533842
 20
-0.4050594808
 10
32.6444765337
 20
-0.3683010931
 10
32.6322945543
 20
-0.3325969016
 10
32.6187366371
 20
-0.297415788
 10
32.603773591
 20
-0.2632888705
 10
32.5873178427
 20
-0.2318095035
 10
32.5692277354
 20
-0.203221644
 10
32.5496449259
 20
-0.177281335
 10
32.5289068121
 20
-0.1548500595
 10
32.5071258597
 20
-0.1362149786
 10
32.4841896029
 20
-0.1210889311
 10
32.4600980417
 20
-0.1094719172
  0
LWPOLYLINE
  5
430
100
AcDbEntity
  8
ASSI
100
AcDbPolyline
 62
7
  6
CONTINUOUS
 90
13
 70
0
 10
32.6646251059
 20
-0.4428720646
 10
32.6552533842
 20
-0.4050594808
 10
32.6444765337
 20
-0.3683010931
 10
32.6322945543
 20
-0.3325969016
 10
32.6187366371
 20
-0.297415788
 10
32.603773591
 20
-0.2632888705
 10
32.5873178427
 20
-0.2318095035
 10
32.5692277354
 20
-0.203221644
 10
32.5496449259
 20
-0.177281335
 10
32.5289068121
 20
-0.1548500595
 10
32.5071258597
 20
-0.1362149786
 10
32.4841896029
 20
-0.1210889311
 10
32.4600980417
 20
-0.1094719172
  0
LINE
  5
431
100
AcDbEntity
  8
SCRITTE
100
AcDbLine
 62
253
  6
CONTINUOUS
 10
34.4483125573
 20
-1.4206520969
 11
34.4483125573
 21
-2.4206520999
  0
LINE
  5
432
100
AcDbEntity
  8
CURVE
100
AcDbLine
 62
253
  6
CONTINUOUS
 10
34.6316458589
 20
-0.2920806611
 11
34.6316458589
 21
0.3507764881
  0
LINE
  5
433
100
AcDbEntity
  8
CURVE
100
AcDbLine
 62
253
  6
CONTINUOUS
 10
35.0602172619
 20
0.3507764881
 11
35.0602172619
 21
-0.2920806611
  0
LINE
  5
434
100
AcDbEntity
  8
SCRITTE
100
AcDbLine
 62
253
  6
CONTINUOUS
 10
35.2816458589
 20
-3.320652085
 11
35.2816458589
 21
-3.9206520909
  0
LINE
  5
435
100
AcDbEntity
  8
CURVE
100
AcDbLine
 62
253
  6
CONTINUOUS
 10
34.5245030081
 20
-0.506366385
 11
34.6316458589
 21
-0.2920806611
  0
LINE
  5
436
100
AcDbEntity
  8
CURVE
100
AcDbLine
 62
253
  6
CONTINUOUS
 10
35.1673601574
 20
0.5650621897
 11
35.0602172619
 21
0.3507764881
  0
LINE
  5
437
100
AcDbEntity
  8
CURVE
100
AcDbLine
 62
253
  6
CONTINUOUS
 10
35.7030744559
 20
-0.506366385
 11
35.8102172619
 21
-0.2920806611
  0
LINE
  5
438
100
AcDbEntity
  8
CURVE
100
AcDbLine
 62
253
  6
CONTINUOUS
 10
35.3816458589
 20
0.7793478912
 11
35.1673601574
 21
0.5650621897
  0
LINE
  5
439
100
AcDbEntity
  8
CURVE
100
AcDbLine
 62
253
  6
CONTINUOUS
 10
34.3102173066
 20
-0.7206521088
 11
34.5245030081
 21
-0.506366385
  0
LINE
  5
43A
100
AcDbEntity
  8
CURVE
100
AcDbLine
 62
253
  6
CONTINUOUS
 10
36.2387886649
 20
0.5650621897
 11
36.4530744559
 21
0.7793478912
  0
LINE
  5
43B
100
AcDbEntity
  8
SCRITTE
100
AcDbLine
 62
253
  6
CONTINUOUS
 10
34.648312462
 20
-1.2206521088
 11
34.4483125573
 21
-1.4206520969
  0
LINE
  5
43C
100
AcDbEntity
  8
CURVE
100
AcDbLine
 62
253
  6
CONTINUOUS
 10
35.4887886649
 20
-0.7206521088
 11
35.7030744559
 21
-0.506366385
  0
LWPOLYLINE
  5
43D
100
AcDbEntity
  8
0
100
AcDbPolyline
 62
7
  6
CONTINUOUS
 90
5
 70
0
 10
32.4600980417
 20
-0.09942721
 10
32.4705657929
 20
-0.0964151499
 10
32.4809517446
 20
-0.092169441
 10
32.4912558966
 20
-0.0866900833
 10
32.5014370581
 20
-0.079687577
  0
LWPOLYLINE
  5
43E
100
AcDbEntity
  8
ASSI
100
AcDbPolyline
 62
7
  6
CONTINUOUS
 90
5
 70
0
 10
32.4600980417
 20
-0.09942721
 10
32.4705657929
 20
-0.0964151499
 10
32.4809517446
 20
-0.092169441
 10
32.4912558966
 20
-0.0866900833
 10
32.5014370581
 20
-0.079687577
  0
LINE
  5
43F
100
AcDbEntity
  8
RACCORDO
100
AcDbLine
 62
7
  6
CONTINUOUS
 10
24.3608948807
 20
-4.0034996342
 11
24.3988156768
 21
-4.0034822909
  0
LINE
  5
440
100
AcDbEntity
  8
ASSI
100
AcDbLine
 62
7
  6
CONTINUOUS
 10
24.3608948807
 20
-4.0034996342
 11
24.3988156768
 21
-4.0034822909
  0
LINE
  5
441
100
AcDbEntity
  8
RACCORDO
100
AcDbLine
 62
253
  6
CONTINUOUS
 10
24.3598286894
 20
-3.5035071922
 11
24.4031490031
 21
-3.5034873794
  0
LINE
  5
442
100
AcDbEntity
  8
ASSI
100
AcDbLine
 62
253
  6
CONTINUOUS
 10
24.3598286894
 20
-3.5035071922
 11
24.4031490031
 21
-3.5034873794
  0
LINE
  5
443
100
AcDbEntity
  8
RACCORDO
100
AcDbLine
 62
253
  6
CONTINUOUS
 10
21.3916040417
 20
-3.9817397852
 11
23.2717216282
 21
-3.9817397852
  0
LINE
  5
444
100
AcDbEntity
  8
ASSI
100
AcDbLine
 62
253
  6
CONTINUOUS
 10
21.3916040417
 20
-3.9817397852
 11
23.2717216282
 21
-3.9817397852
  0
LINE
  5
445
100
AcDbEntity
  8
SCRITTE
100
AcDbLine
 62
253
  6
CONTINUOUS
 10
41.8191458589
 20
-3.5331521088
 11
41.8628958589
 21
-3.5331521088
  0
LINE
  5
446
100
AcDbEntity
  8
RACCORDO
100
AcDbLine
 62
253
  6
CONTINUOUS
 10
56.8420362885
 20
-3.5056167546
 11
43.8487522803
 21
-3.5056167546
  0
LINE
  5
447
100
AcDbEntity
  8
ASSI
100
AcDbLine
 62
253
  6
CONTINUOUS
 10
56.8420362885
 20
-3.5056167546
 11
43.8487522803
 21
-3.5056167546
  0
LINE
  5
448
100
AcDbEntity
  8
RACCORDO
100
AcDbLine
 62
253
  6
CONTINUOUS
 10
23.1941148748
 20
-3.5039536681
 11
23.3552835212
 21
-3.5039536667
  0
LINE
  5
449
100
AcDbEntity
  8
ASSI
100
AcDbLine
 62
253
  6
CONTINUOUS
 10
23.1941148748
 20
-3.5039536681
 11
23.3552835212
 21
-3.5039536667
  0
LINE
  5
44A
100
AcDbEntity
  8
0
100
AcDbLine
 62
7
  6
CONTINUOUS
 10
21.3912549455
 20
-3.3706521088
 11
15.9278999782
 21
-3.3706521088
  0
LINE
  5
44B
100
AcDbEntity
  8
DRAFT
100
AcDbLine
 62
7
  6
CONTINUOUS
 10
24.3968020866
 20
-3.3247842755
 11
24.3598286894
 21
-3.3247842755
  0
LINE
  5
44C
100
AcDbEntity
  8
ASSI
100
AcDbLine
 62
7
  6
CONTINUOUS
 10
24.3968020866
 20
-3.3247842755
 11
24.3598286894
 21
-3.3247842755
  0
LINE
  5
44D
100
AcDbEntity
  8
DRAFT
100
AcDbLine
 62
7
  6
CONTINUOUS
 10
23.3552835212
 20
-3.3247842755
 11
23.1857780256
 21
-3.3247842755
  0
LINE
  5
44E
100
AcDbEntity
  8
ASSI
100
AcDbLine
 62
7
  6
CONTINUOUS
 10
23.3552835212
 20
-3.3247842755
 11
23.1857780256
 21
-3.3247842755
  0
LINE
  5
44F
100
AcDbEntity
  8
RACCORDO
100
AcDbLine
 62
253
  6
CONTINUOUS
 10
57.7962862516
 20
-3.2377684588
 11
57.4548535646
 21
-3.2377684588
  0
LINE
  5
450
100
AcDbEntity
  8
RACCORDO
100
AcDbLine
 62
253
  6
CONTINUOUS
 10
57.7414687439
 20
-3.128133452
 11
57.5644885714
 21
-3.128133452
  0
LINE
  5
451
100
AcDbEntity
  8
SCRITTE
100
AcDbLine
 62
253
  6
CONTINUOUS
 10
41.8628958589
 20
-3.0081521088
 11
41.7753958589
 21
-3.0081521088
  0
LINE
  5
452
100
AcDbEntity
  8
RACCORDO
100
AcDbLine
 62
253
  6
CONTINUOUS
 10
57.0296423009
 20
-2.9310609306
 11
56.8588515976
 21
-2.9310609306
  0
LINE
  5
453
100
AcDbEntity
  8
ASSI
100
AcDbLine
 62
253
  6
CONTINUOUS
 10
57.0296423009
 20
-2.9310609306
 11
56.8588515976
 21
-2.9310609306
  0
LINE
  5
454
100
AcDbEntity
  8
SCRITTE
100
AcDbLine
 62
253
  6
CONTINUOUS
 10
35.6816458768
 20
-2.9206521088
 11
35.5816458619
 21
-2.9206521088
  0
LINE
  5
455
100
AcDbEntity
  8
SCRITTE
100
AcDbLine
 62
253
  6
CONTINUOUS
 10
32.4816460496
 20
-2.9206521088
 11
31.7816460496
 21
-2.9206521088
  0
LINE
  5
456
100
AcDbEntity
  8
SCRITTE
100
AcDbLine
 62
253
  6
CONTINUOUS
 10
31.3816459066
 20
-2.9206521088
 11
30.6816459066
 21
-2.9206521088
  0
LINE
  5
457
100
AcDbEntity
  8
RACCORDO
100
AcDbLine
 62
253
  6
CONTINUOUS
 10
56.8380081966
 20
-2.8666456883
 11
43.8467383877
 21
-2.8666456883
  0
LINE
  5
458
100
AcDbEntity
  8
ASSI
100
AcDbLine
 62
253
  6
CONTINUOUS
 10
56.8380081966
 20
-2.8666456883
 11
43.8467383877
 21
-2.8666456883
  0
LINE
  5
459
100
AcDbEntity
  8
SCRITTE
100
AcDbLine
 62
253
  6
CONTINUOUS
 10
26.6816458947
 20
-2.6206521088
 11
27.3816458112
 21
-2.6206521088
  0
LINE
  5
45A
100
AcDbEntity
  8
SCRITTE
100
AcDbLine
 62
253
  6
CONTINUOUS
 10
28.7816458112
 20
-2.6206521088
 11
29.4816458112
 21
-2.6206521088
  0
LINE
  5
45B
100
AcDbEntity
  8
SCRITTE
100
AcDbLine
 62
253
  6
CONTINUOUS
 10
34.648312462
 20
-2.6206521088
 11
35.0483122712
 21
-2.6206521088
  0
LINE
  5
45C
100
AcDbEntity
  8
SCRITTE
100
AcDbLine
 62
253
  6
CONTINUOUS
 10
36.6816460496
 20
-2.6206521088
 11
37.1816454774
 21
-2.6206521088
  0
LINE
  5
45D
100
AcDbEntity
  8
SCRITTE
100
AcDbLine
 62
253
  6
CONTINUOUS
 10
38.148312462
 20
-2.6206521088
 11
38.5483122712
 21
-2.6206521088
  0
LINE
  5
45E
100
AcDbEntity
  8
RACCORDO
100
AcDbLine
 62
7
  6
CONTINUOUS
 10
24.4031490031
 20
-3.3374790754
 11
24.3598286894
 21
-3.3374394468
  0
LINE
  5
45F
100
AcDbEntity
  8
ASSI
100
AcDbLine
 62
7
  6
CONTINUOUS
 10
24.4031490031
 20
-3.3374790754
 11
24.3598286894
 21
-3.3374394468
  0
LINE
  5
460
100
AcDbEntity
  8
RACCORDO
100
AcDbLine
 62
7
  6
CONTINUOUS
 10
23.3111510141
 20
-3.3362369266
 11
23.3552835212
 21
-3.3364800082
  0
LINE
  5
461
100
AcDbEntity
  8
ASSI
100
AcDbLine
 62
7
  6
CONTINUOUS
 10
23.3111510141
 20
-3.3362369266
 11
23.3552835212
 21
-3.3364800082
  0
LINE
  5
462
100
AcDbEntity
  8
SCRITTE
100
AcDbLine
 62
253
  6
CONTINUOUS
 10
41.6003958589
 20
-4.2769021088
 11
41.7316458589
 21
-4.3206521088
  0
LINE
  5
463
100
AcDbEntity
  8
SCRITTE
100
AcDbLine
 62
253
  6
CONTINUOUS
 10
34.4483125573
 20
-2.4206520999
 11
34.648312462
 21
-2.6206521088
  0
LINE
  5
464
100
AcDbEntity
  8
SCRITTE
100
AcDbLine
 62
253
  6
CONTINUOUS
 10
36.5816458231
 20
-4.2206521044
 11
36.6149791962
 21
-4.2539854409
  0
LINE
  5
465
100
AcDbEntity
  8
SCRITTE
100
AcDbLine
 62
253
  6
CONTINUOUS
 10
35.8816458649
 20
-3.1206520969
 11
35.6816458768
 21
-2.9206521088
  0
LINE
  5
466
100
AcDbEntity
  8
CURVE
100
AcDbLine
 62
253
  6
CONTINUOUS
 10
33.9887887208
 20
-0.506366385
 11
34.2030744335
 21
-0.7206521088
  0
LINE
  5
467
100
AcDbEntity
  8
SCRITTE
100
AcDbLine
 62
253
  6
CONTINUOUS
 10
35.2816458589
 20
-3.9206520909
 11
35.3816458634
 21
-4.1206520999
  0
LINE
  5
468
100
AcDbEntity
  8
CURVE
100
AcDbLine
 62
253
  6
CONTINUOUS
 10
33.8816458589
 20
-0.2920806611
 11
33.9887887208
 21
-0.506366385
  0
LINE
  5
469
100
AcDbEntity
  8
SCRITTE
100
AcDbLine
 62
253
  6
CONTINUOUS
 10
35.9816458589
 20
-3.320652085
 11
35.8816458649
 21
-3.1206520969
  0
LINE
  5
46A
100
AcDbEntity
  8
SCRITTE
100
AcDbLine
 62
253
  6
CONTINUOUS
 10
36.714979232
 20
-4.1539854417
 11
36.6816458589
 21
-4.0873187685
  0
LINE
  5
46B
100
AcDbEntity
  8
CURVE
100
AcDbLine
 62
253
  6
CONTINUOUS
 10
34.6316458589
 20
0.3507764881
 11
34.5245030081
 21
0.5650621897
  0
LINE
  5
46C
100
AcDbEntity
  8
SCRITTE
100
AcDbLine
 62
253
  6
CONTINUOUS
 10
35.7483127481
 20
2.1206210235
 11
35.7483127481
 21
2.1118941557
  0
LINE
  5
46D
100
AcDbEntity
  8
CURVE
100
AcDbLine
 62
253
  6
CONTINUOUS
 10
35.8102172619
 20
-0.2920806611
 11
35.8102172619
 21
0.3507764881
  0
LINE
  5
46E
100
AcDbEntity
  8
SCRITTE
100
AcDbLine
 62
253
  6
CONTINUOUS
 10
35.9816458589
 20
-3.9206520909
 11
35.9816458589
 21
-3.320652085
  0
LINE
  5
46F
100
AcDbEntity
  8
CURVE
100
AcDbLine
 62
253
  6
CONTINUOUS
 10
36.2387886649
 20
0.1364907866
 11
36.2387886649
 21
0.5650621897
  0
LINE
  5
470
100
AcDbEntity
  8
SCRITTE
100
AcDbLine
 62
253
  6
CONTINUOUS
 10
36.5816458231
 20
-4.187318773
 11
36.5816458231
 21
-4.2206521044
  0
LINE
  5
471
100
AcDbEntity
  8
SCRITTE
100
AcDbLine
 62
253
  6
CONTINUOUS
 10
36.6816460496
 20
-1.2206521088
 11
36.6816460496
 21
-2.6206521088
  0
LINE
  5
472
100
AcDbEntity
  8
SCRITTE
100
AcDbLine
 62
253
  6
CONTINUOUS
 10
36.714979232
 20
-4.187318773
 11
36.714979232
 21
-4.1539854417
  0
LINE
  5
473
100
AcDbEntity
  8
SCRITTE
100
AcDbLine
 62
253
  6
CONTINUOUS
 10
36.9149789697
 20
2.1223663969
 11
36.9149789697
 21
2.110148782
  0
LINE
  5
474
100
AcDbEntity
  8
CURVE
100
AcDbLine
 62
253
  6
CONTINUOUS
 10
36.9887886649
 20
0.5650621897
 11
36.9887886649
 21
0.1364907866
  0
LINE
  5
475
100
AcDbEntity
  8
CURVE
100
AcDbLine
 62
253
  6
CONTINUOUS
 10
36.9887886649
 20
0.1364907866
 11
36.8816458589
 21
-0.2920806611
  0
LINE
  5
476
100
AcDbEntity
  8
SCRITTE
100
AcDbLine
 62
253
  6
CONTINUOUS
 10
35.3816458634
 20
-3.1206520969
 11
35.2816458589
 21
-3.320652085
  0
LINE
  5
477
100
AcDbEntity
  8
SCRITTE
100
AcDbLine
 62
253
  6
CONTINUOUS
 10
35.6149794465
 20
-2.5873187749
 11
36.4149790651
 21
-1.3539854342
  0
LINE
  5
478
100
AcDbEntity
  8
CURVE
100
AcDbLine
 62
253
  6
CONTINUOUS
 10
36.8816458589
 20
-0.2920806611
 11
36.4530744559
 21
-0.7206521088
  0
LINE
  5
479
100
AcDbEntity
  8
SCRITTE
100
AcDbLine
 62
253
  6
CONTINUOUS
 10
35.5816458619
 20
-2.9206521088
 11
35.3816458634
 21
-3.1206520969
  0
LINE
  5
47A
100
AcDbEntity
  8
CURVE
100
AcDbLine
 62
253
  6
CONTINUOUS
 10
38.0245029336
 20
0.2436335927
 11
37.845931471
 21
0.1364907866
  0
LINE
  5
47B
100
AcDbEntity
  8
SCRITTE
100
AcDbLine
 62
253
  6
CONTINUOUS
 10
29.8816459543
 20
-2.3206521059
 11
30.5816459543
 21
-2.3206521059
  0
LINE
  5
47C
100
AcDbEntity
  8
RACCORDO
100
AcDbLine
 62
253
  6
CONTINUOUS
 10
57.041011167
 20
-2.2227318378
 11
56.853717755
 21
-2.2227318378
  0
LINE
  5
47D
100
AcDbEntity
  8
ASSI
100
AcDbLine
 62
253
  6
CONTINUOUS
 10
57.041011167
 20
-2.2227318378
 11
56.853717755
 21
-2.2227318378
  0
LINE
  5
47E
100
AcDbEntity
  8
SCRITTE
100
AcDbLine
 62
253
  6
CONTINUOUS
 10
33.9149792558
 20
-2.2206520909
 11
33.3816459543
 21
-2.2206520909
  0
LINE
  5
47F
100
AcDbEntity
  8
SCRITTE
100
AcDbLine
 62
253
  6
CONTINUOUS
 10
28.3816458351
 20
-2.1206520969
 11
27.7816457874
 21
-2.1206520969
  0
LINE
  5
480
100
AcDbEntity
  8
ASSI
100
AcDbLine
 62
7
  6
CONTINUOUS
 10
49.1816458589
 20
-2.1206521088
 11
50.2399463833
 21
-2.1206521088
  0
LINE
  5
481
100
AcDbEntity
  8
0
100
AcDbLine
 62
7
  6
CONTINUOUS
 10
21.391255296
 20
-1.8706521088
 11
15.9278999782
 21
-1.8706521088
  0
LINE
  5
482
100
AcDbEntity
  8
DRAFT
100
AcDbLine
 62
7
  6
CONTINUOUS
 10
24.3951637736
 20
-1.6206521088
 11
24.3598286894
 21
-1.6206521088
  0
LINE
  5
483
100
AcDbEntity
  8
ASSI
100
AcDbLine
 62
7
  6
CONTINUOUS
 10
24.3951637736
 20
-1.6206521088
 11
24.3598286894
 21
-1.6206521088
  0
LINE
  5
484
100
AcDbEntity
  8
DRAFT
100
AcDbLine
 62
7
  6
CONTINUOUS
 10
23.3552835212
 20
-1.6206521088
 11
21.3951637736
 21
-1.6206521088
  0
LINE
  5
485
100
AcDbEntity
  8
ASSI
100
AcDbLine
 62
7
  6
CONTINUOUS
 10
23.3552835212
 20
-1.6206521088
 11
21.3951637736
 21
-1.6206521088
  0
LINE
  5
486
100
AcDbEntity
  8
0
100
AcDbLine
 62
7
  6
CONTINUOUS
 10
21.391255296
 20
-1.3706521088
 11
15.9278999782
 21
-1.3706521088
  0
LINE
  5
487
100
AcDbEntity
  8
SCRITTE
100
AcDbLine
 62
253
  6
CONTINUOUS
 10
38.5483122712
 20
-1.2206521088
 11
38.148312462
 21
-1.2206521088
  0
LINE
  5
488
100
AcDbEntity
  8
SCRITTE
100
AcDbLine
 62
253
  6
CONTINUOUS
 10
37.1816454774
 20
-1.2206521088
 11
36.6816460496
 21
-1.2206521088
  0
LINE
  5
489
100
AcDbEntity
  8
SCRITTE
100
AcDbLine
 62
253
  6
CONTINUOUS
 10
35.0483122712
 20
-1.2206521088
 11
34.648312462
 21
-1.2206521088
  0
LINE
  5
48A
100
AcDbEntity
  8
SCRITTE
100
AcDbLine
 62
253
  6
CONTINUOUS
 10
26.8816458827
 20
-1.2206521088
 11
27.1816458231
 21
-1.2206521088
  0
LINE
  5
48B
100
AcDbEntity
  8
SCRITTE
100
AcDbLine
 62
253
  6
CONTINUOUS
 10
28.9816457158
 20
-1.2206521088
 11
29.2816459066
 21
-1.2206521088
  0
LINE
  5
48C
100
AcDbEntity
  8
SCRITTE
100
AcDbLine
 62
253
  6
CONTINUOUS
 10
42.0378958589
 20
-3.0519021088
 11
41.8628958589
 21
-3.0081521088
  0
LINE
  5
48D
100
AcDbEntity
  8
SCRITTE
100
AcDbLine
 62
253
  6
CONTINUOUS
 10
41.6878958589
 20
-3.4894021088
 11
41.8191458589
 21
-3.5331521088
  0
LINE
  5
48E
100
AcDbEntity
  8
SCRITTE
100
AcDbLine
 62
253
  6
CONTINUOUS
 10
42.1691458589
 20
-3.0956521088
 11
42.0378958589
 21
-3.0519021088
  0
LINE
  5
48F
100
AcDbEntity
  8
SCRITTE
100
AcDbLine
 62
253
  6
CONTINUOUS
 10
41.5128958589
 20
-4.2331521088
 11
41.6003958589
 21
-4.2769021088
  0
LINE
  5
490
100
AcDbEntity
  8
SCRITTE
100
AcDbLine
 62
253
  6
CONTINUOUS
 10
41.6003958589
 20
-3.4456521088
 11
41.6878958589
 21
-3.4894021088
  0
LINE
  5
491
100
AcDbEntity
  8
CURVE
100
AcDbLine
 62
253
  6
CONTINUOUS
 10
35.1673601574
 20
-0.506366385
 11
35.3816458589
 21
-0.7206521088
  0
LINE
  5
492
100
AcDbEntity
  8
CURVE
100
AcDbLine
 62
253
  6
CONTINUOUS
 10
34.5245030081
 20
0.5650621897
 11
34.3102173066
 21
0.7793478912
  0
LINE
  5
493
100
AcDbEntity
  8
SCRITTE
100
AcDbLine
 62
253
  6
CONTINUOUS
 10
37.9483118898
 20
-2.4206520999
 11
38.148312462
 21
-2.6206521088
  0
LINE
  5
494
100
AcDbEntity
  8
CURVE
100
AcDbLine
 62
253
  6
CONTINUOUS
 10
35.0602172619
 20
-0.2920806611
 11
35.1673601574
 21
-0.506366385
  0
LINE
  5
495
100
AcDbEntity
  8
CURVE
100
AcDbLine
 62
253
  6
CONTINUOUS
 10
35.8102172619
 20
0.3507764881
 11
35.7030744559
 21
0.5650621897
  0
LINE
  5
496
100
AcDbEntity
  8
SCRITTE
100
AcDbLine
 62
253
  6
CONTINUOUS
 10
37.3816460496
 20
-2.4206520999
 11
37.3816460496
 21
-1.4206520969
  0
LINE
  5
497
100
AcDbEntity
  8
SCRITTE
100
AcDbLine
 62
253
  6
CONTINUOUS
 10
37.5816459304
 20
-4.3206521088
 11
37.5816459304
 21
-2.9206521088
  0
LINE
  5
498
100
AcDbEntity
  8
SCRITTE
100
AcDbLine
 62
253
  6
CONTINUOUS
 10
37.6149789697
 20
2.110148782
 11
37.6149789697
 21
2.1223663969
  0
LINE
  5
499
100
AcDbEntity
  8
SCRITTE
100
AcDbLine
 62
253
  6
CONTINUOUS
 10
37.9483118898
 20
-1.4206520969
 11
37.9483118898
 21
-2.4206520999
  0
LINE
  5
49A
100
AcDbEntity
  8
CURVE
100
AcDbLine
 62
253
  6
CONTINUOUS
 10
38.0245029336
 20
0.5650621897
 11
38.0245029336
 21
0.2436335927
  0
LINE
  5
49B
100
AcDbEntity
  8
CURVE
100
AcDbLine
 62
253
  6
CONTINUOUS
 10
38.0602174407
 20
-0.0777949596
 11
38.0602174407
 21
-0.6135092469
  0
LINE
  5
49C
100
AcDbEntity
  8
SCRITTE
100
AcDbLine
 62
253
  6
CONTINUOUS
 10
38.2816464311
 20
2.1223663969
 11
38.2816464311
 21
2.110148782
  0
LINE
  5
49D
100
AcDbEntity
  8
CURVE
100
AcDbLine
 62
253
  6
CONTINUOUS
 10
38.4887886649
 20
0.7793478912
 11
38.4887886649
 21
0.4579192942
  0
LINE
  5
49E
100
AcDbEntity
  8
CURVE
100
AcDbLine
 62
253
  6
CONTINUOUS
 10
38.8102174407
 20
-0.7206521088
 11
39.2387886649
 21
0.7793478912
  0
LINE
  5
49F
100
AcDbEntity
  8
SCRITTE
100
AcDbLine
 62
253
  6
CONTINUOUS
 10
36.6816458589
 20
-4.2873187749
 11
36.714979232
 21
-4.187318773
  0
LINE
  5
4A0
100
AcDbEntity
  8
SCRITTE
100
AcDbLine
 62
253
  6
CONTINUOUS
 10
35.8816458649
 20
-4.1206520999
 11
35.9816458589
 21
-3.9206520909
  0
LINE
  5
4A1
100
AcDbEntity
  8
SCRITTE
100
AcDbLine
 62
253
  6
CONTINUOUS
 10
36.6149791962
 20
-4.1206520999
 11
36.5816458231
 21
-4.187318773
  0
LINE
  5
4A2
100
AcDbEntity
  8
SCRITTE
100
AcDbLine
 62
253
  6
CONTINUOUS
 10
36.6149791962
 20
-4.4206521133
 11
36.6816458589
 21
-4.2873187749
  0
LINE
  5
4A3
100
AcDbEntity
  8
CURVE
100
AcDbLine
 62
253
  6
CONTINUOUS
 10
38.0602174407
 20
-0.6135092469
 11
37.9530742771
 21
-0.7206521088
  0
LINE
  5
4A4
100
AcDbEntity
  8
SCRITTE
100
AcDbLine
 62
253
  6
CONTINUOUS
 10
38.148312462
 20
-1.2206521088
 11
37.9483118898
 21
-1.4206520969
  0
LINE
  5
4A5
100
AcDbEntity
  8
SCRITTE
100
AcDbLine
 62
253
  6
CONTINUOUS
 10
37.1816454774
 20
-2.6206521088
 11
37.3816460496
 21
-2.4206520999
  0
LINE
  5
4A6
100
AcDbEntity
  8
SCRITTE
100
AcDbLine
 62
253
  6
CONTINUOUS
 10
35.6816458768
 20
-4.3206521088
 11
35.8816458649
 21
-4.1206520999
  0
LINE
  5
4A7
100
AcDbEntity
  8
SCRITTE
100
AcDbLine
 62
253
  6
CONTINUOUS
 10
37.5816459304
 20
-2.9206521088
 11
37.1816457874
 21
-3.320652085
  0
LINE
  5
4A8
100
AcDbEntity
  8
RACCORDO
100
AcDbLine
 62
7
  6
CONTINUOUS
 10
23.3111510141
 20
0.0949327089
 11
23.2686215984
 21
0.0944730414
  0
LINE
  5
4A9
100
AcDbEntity
  8
ASSI
100
AcDbLine
 62
7
  6
CONTINUOUS
 10
23.3111510141
 20
0.0949327089
 11
23.2686215984
 21
0.0944730414
  0
LINE
  5
4AA
100
AcDbEntity
  8
RACCORDO
100
AcDbLine
 62
7
  6
CONTINUOUS
 10
23.3552835212
 20
0.0951757905
 11
23.3111510141
 21
0.0949327089
  0
LINE
  5
4AB
100
AcDbEntity
  8
ASSI
100
AcDbLine
 62
7
  6
CONTINUOUS
 10
23.3552835212
 20
0.0951757905
 11
23.3111510141
 21
0.0949327089
  0
LINE
  5
4AC
100
AcDbEntity
  8
RACCORDO
100
AcDbLine
 62
7
  6
CONTINUOUS
 10
24.4031490031
 20
0.0961748577
 11
24.3598286894
 21
0.0961352291
  0
LINE
  5
4AD
100
AcDbEntity
  8
ASSI
100
AcDbLine
 62
7
  6
CONTINUOUS
 10
24.4031490031
 20
0.0961748577
 11
24.3598286894
 21
0.0961352291
  0
LINE
  5
4AE
100
AcDbEntity
  8
ASSI
100
AcDbLine
 62
7
  6
CONTINUOUS
 10
49.1816458589
 20
-1.1206521088
 11
50.2399463833
 21
-1.1206521088
  0
LINE
  5
4AF
100
AcDbEntity
  8
RACCORDO
100
AcDbLine
 62
253
  6
CONTINUOUS
 10
56.853717755
 20
-1.0185723799
 11
57.041011167
 21
-1.0185723799
  0
LINE
  5
4B0
100
AcDbEntity
  8
ASSI
100
AcDbLine
 62
253
  6
CONTINUOUS
 10
56.853717755
 20
-1.0185723799
 11
57.041011167
 21
-1.0185723799
  0
LINE
  5
4B1
100
AcDbEntity
  8
0
100
AcDbLine
 62
7
  6
CONTINUOUS
 10
26.7293698589
 20
-0.9029531088
 11
27.0420618589
 21
-0.9029531088
  0
LINE
  5
4B2
100
AcDbEntity
  8
ASSI
100
AcDbLine
 62
7
  6
CONTINUOUS
 10
26.7293698589
 20
-0.9029531088
 11
27.0420618589
 21
-0.9029531088
  0
LINE
  5
4B3
100
AcDbEntity
  8
0
100
AcDbLine
 62
7
  6
CONTINUOUS
 10
27.7201438589
 20
-0.9029531088
 11
28.0749718589
 21
-0.9029531088
  0
LINE
  5
4B4
100
AcDbEntity
  8
ASSI
100
AcDbLine
 62
7
  6
CONTINUOUS
 10
27.7201438589
 20
-0.9029531088
 11
28.0749718589
 21
-0.9029531088
  0
LINE
  5
4B5
100
AcDbEntity
  8
0
100
AcDbLine
 62
7
  6
CONTINUOUS
 10
28.2659868589
 20
-0.9029531088
 11
28.6054418589
 21
-0.9029531088
  0
LINE
  5
4B6
100
AcDbEntity
  8
ASSI
100
AcDbLine
 62
7
  6
CONTINUOUS
 10
28.2659868589
 20
-0.9029531088
 11
28.6054418589
 21
-0.9029531088
  0
LINE
  5
4B7
100
AcDbEntity
  8
0
100
AcDbLine
 62
7
  6
CONTINUOUS
 10
29.0982698589
 20
-0.9029531088
 11
29.1480338589
 21
-0.9029531088
  0
LINE
  5
4B8
100
AcDbEntity
  8
ASSI
100
AcDbLine
 62
7
  6
CONTINUOUS
 10
29.0982698589
 20
-0.9029531088
 11
29.1480338589
 21
-0.9029531088
  0
LINE
  5
4B9
100
AcDbEntity
  8
0
100
AcDbLine
 62
7
  6
CONTINUOUS
 10
29.6428258589
 20
-0.9029531088
 11
29.9899418589
 21
-0.9029531088
  0
LINE
  5
4BA
100
AcDbEntity
  8
ASSI
100
AcDbLine
 62
7
  6
CONTINUOUS
 10
29.6428258589
 20
-0.9029531088
 11
29.9899418589
 21
-0.9029531088
  0
LINE
  5
4BB
100
AcDbEntity
  8
0
100
AcDbLine
 62
7
  6
CONTINUOUS
 10
30.0456588589
 20
-0.9029531088
 11
30.3966368589
 21
-0.9029531088
  0
LINE
  5
4BC
100
AcDbEntity
  8
ASSI
100
AcDbLine
 62
7
  6
CONTINUOUS
 10
30.0456588589
 20
-0.9029531088
 11
30.3966368589
 21
-0.9029531088
  0
LINE
  5
4BD
100
AcDbEntity
  8
0
100
AcDbLine
 62
7
  6
CONTINUOUS
 10
31.0696838589
 20
-0.9029531088
 11
31.4436578589
 21
-0.9029531088
  0
LINE
  5
4BE
100
AcDbEntity
  8
ASSI
100
AcDbLine
 62
7
  6
CONTINUOUS
 10
31.0696838589
 20
-0.9029531088
 11
31.4436578589
 21
-0.9029531088
  0
LINE
  5
4BF
100
AcDbEntity
  8
0
100
AcDbLine
 62
7
  6
CONTINUOUS
 10
31.5478525228
 20
-0.9029527955
 11
31.9012528549
 21
-0.9029527955
  0
LINE
  5
4C0
100
AcDbEntity
  8
ASSI
100
AcDbLine
 62
7
  6
CONTINUOUS
 10
31.5478525228
 20
-0.9029527955
 11
31.9012528549
 21
-0.9029527955
  0
LINE
  5
4C1
100
AcDbEntity
  8
0
100
AcDbLine
 62
7
  6
CONTINUOUS
 10
32.444623074
 20
-0.9029527955
 11
32.7859264174
 21
-0.9029527955
  0
LINE
  5
4C2
100
AcDbEntity
  8
ASSI
100
AcDbLine
 62
7
  6
CONTINUOUS
 10
32.444623074
 20
-0.9029527955
 11
32.7859264174
 21
-0.9029527955
  0
LINE
  5
4C3
100
AcDbEntity
  8
CURVE
100
AcDbLine
 62
253
  6
CONTINUOUS
 10
37.9530742771
 20
-0.7206521088
 11
37.4173602468
 21
-0.7206521088
  0
LINE
  5
4C4
100
AcDbEntity
  8
CURVE
100
AcDbLine
 62
253
  6
CONTINUOUS
 10
34.2030744335
 20
-0.7206521088
 11
34.3102173066
 21
-0.7206521088
  0
LINE
  5
4C5
100
AcDbEntity
  8
CURVE
100
AcDbLine
 62
253
  6
CONTINUOUS
 10
35.3816458589
 20
-0.7206521088
 11
35.4887886649
 21
-0.7206521088
  0
LINE
  5
4C6
100
AcDbEntity
  8
CURVE
100
AcDbLine
 62
253
  6
CONTINUOUS
 10
39.9173600084
 20
-0.6492235361
 11
39.9887890226
 21
-0.6492235361
  0
LINE
  5
4C7
100
AcDbEntity
  8
0
100
AcDbLine
 62
7
  6
CONTINUOUS
 10
30.4945478589
 20
-0.5636001088
 11
30.9777648589
 21
-0.5636001088
  0
LINE
  5
4C8
100
AcDbEntity
  8
ASSI
100
AcDbLine
 62
7
  6
CONTINUOUS
 10
30.4945478589
 20
-0.5636001088
 11
30.9777648589
 21
-0.5636001088
  0
LINE
  5
4C9
100
AcDbEntity
  8
CURVE
100
AcDbLine
 62
253
  6
CONTINUOUS
 10
39.9887890226
 20
-0.4706521014
 11
39.9173600084
 21
-0.4706521014
  0
LINE
  5
4CA
100
AcDbEntity
  8
RACCORDO
100
AcDbLine
 62
253
  6
CONTINUOUS
 10
43.8467383877
 20
-0.3746585294
 11
56.8380081966
 21
-0.3746585294
  0
LINE
  5
4CB
100
AcDbEntity
  8
ASSI
100
AcDbLine
 62
253
  6
CONTINUOUS
 10
43.8467383877
 20
-0.3746585294
 11
56.8380081966
 21
-0.3746585294
  0
LINE
  5
4CC
100
AcDbEntity
  8
RACCORDO
100
AcDbLine
 62
253
  6
CONTINUOUS
 10
56.8588515976
 20
-0.310243287
 11
57.0296423008
 21
-0.310243287
  0
LINE
  5
4CD
100
AcDbEntity
  8
ASSI
100
AcDbLine
 62
253
  6
CONTINUOUS
 10
56.8588515976
 20
-0.310243287
 11
57.0296423008
 21
-0.310243287
  0
LINE
  5
4CE
100
AcDbEntity
  8
0
100
AcDbLine
 62
7
  6
CONTINUOUS
 10
30.9068518589
 20
-0.3010101088
 11
30.5671298589
 21
-0.3010101088
  0
LINE
  5
4CF
100
AcDbEntity
  8
ASSI
100
AcDbLine
 62
7
  6
CONTINUOUS
 10
30.9068518589
 20
-0.3010101088
 11
30.5671298589
 21
-0.3010101088
  0
LINE
  5
4D0
100
AcDbEntity
  8
0
100
AcDbLine
 62
7
  6
CONTINUOUS
 10
31.9012528549
 20
-0.2377203929
 11
32.0915031779
 21
-0.2377203929
  0
LINE
  5
4D1
100
AcDbEntity
  8
ASSI
100
AcDbLine
 62
7
  6
CONTINUOUS
 10
31.9012528549
 20
-0.2377203929
 11
32.0915031779
 21
-0.2377203929
  0
LINE
  5
4D2
100
AcDbEntity
  8
RACCORDO
100
AcDbLine
 62
253
  6
CONTINUOUS
 10
57.5644885714
 20
-0.1131707657
 11
57.7414687439
 21
-0.1131707657
  0
LINE
  5
4D3
100
AcDbEntity
  8
CURVE
100
AcDbLine
 62
253
  6
CONTINUOUS
 10
36.9173600084
 20
-0.0777949596
 11
36.4530744559
 21
-0.0777949596
  0
LINE
  5
4D4
100
AcDbEntity
  8
RACCORDO
100
AcDbLine
 62
253
  6
CONTINUOUS
 10
57.4548535646
 20
-0.0035357589
 11
57.7962862803
 21
-0.0035357589
  0
LINE
  5
4D5
100
AcDbEntity
  8
0
100
AcDbLine
 62
7
  6
CONTINUOUS
 10
32.0922680033
 20
0.0406760597
 11
31.8894872905
 21
0.0406760597
  0
LINE
  5
4D6
100
AcDbEntity
  8
ASSI
100
AcDbLine
 62
7
  6
CONTINUOUS
 10
32.0922680033
 20
0.0406760597
 11
31.8894872905
 21
0.0406760597
  0
LINE
  5
4D7
100
AcDbEntity
  8
DRAFT
100
AcDbLine
 62
7
  6
CONTINUOUS
 10
24.3968020866
 20
0.0834800578
 11
24.3598286894
 21
0.0834800578
  0
LINE
  5
4D8
100
AcDbEntity
  8
ASSI
100
AcDbLine
 62
7
  6
CONTINUOUS
 10
24.3968020866
 20
0.0834800578
 11
24.3598286894
 21
0.0834800578
  0
LINE
  5
4D9
100
AcDbEntity
  8
DRAFT
100
AcDbLine
 62
7
  6
CONTINUOUS
 10
23.3552835212
 20
0.0834800578
 11
23.1857780256
 21
0.0834800578
  0
LINE
  5
4DA
100
AcDbEntity
  8
ASSI
100
AcDbLine
 62
7
  6
CONTINUOUS
 10
23.3552835212
 20
0.0834800578
 11
23.1857780256
 21
0.0834800578
  0
LINE
  5
4DB
100
AcDbEntity
  8
0
100
AcDbLine
 62
7
  6
CONTINUOUS
 10
21.3912549455
 20
0.1293478912
 11
15.9278999782
 21
0.1293478912
  0
LINE
  5
4DC
100
AcDbEntity
  8
CURVE
100
AcDbLine
 62
253
  6
CONTINUOUS
 10
37.6316458589
 20
0.1364907866
 11
37.845931471
 21
0.1364907866
  0
LINE
  5
4DD
100
AcDbEntity
  8
RACCORDO
100
AcDbLine
 62
253
  6
CONTINUOUS
 10
23.1941148748
 20
0.2626494505
 11
23.3552835212
 21
0.2626494516
  0
LINE
  5
4DE
100
AcDbEntity
  8
ASSI
100
AcDbLine
 62
253
  6
CONTINUOUS
 10
23.1941148748
 20
0.2626494505
 11
23.3552835212
 21
0.2626494516
  0
LINE
  5
4DF
100
AcDbEntity
  8
RACCORDO
100
AcDbLine
 62
253
  6
CONTINUOUS
 10
43.8487522803
 20
0.264312537
 11
56.8420362885
 21
0.264312537
  0
LINE
  5
4E0
100
AcDbEntity
  8
ASSI
100
AcDbLine
 62
253
  6
CONTINUOUS
 10
43.8487522803
 20
0.264312537
 11
56.8420362885
 21
0.264312537
  0
LINE
  5
4E1
100
AcDbEntity
  8
RACCORDO
100
AcDbLine
 62
253
  6
CONTINUOUS
 10
24.3598286894
 20
0.2622029745
 11
24.4031490031
 21
0.2621831617
  0
LINE
  5
4E2
100
AcDbEntity
  8
ASSI
100
AcDbLine
 62
253
  6
CONTINUOUS
 10
24.3598286894
 20
0.2622029745
 11
24.4031490031
 21
0.2621831617
  0
LWPOLYLINE
  5
4E3
100
AcDbEntity
  8
0
100
AcDbPolyline
 62
7
  6
CONTINUOUS
 90
10
 70
0
 10
32.0915031779
 20
-0.2377203929
 10
32.1200476578
 20
-0.240043869
 10
32.1472183758
 20
-0.2462814881
 10
32.1730153319
 20
-0.2564332503
 10
32.1977897327
 20
-0.2709451601
 10
32.2211903716
 20
-0.289371213
 10
32.2421636288
 20
-0.3103733952
 10
32.2603582978
 20
-0.3335057022
 10
32.276125585
 20
-0.3592141385
 10
32.2894654906
 20
-0.3874987042
  0
LWPOLYLINE
  5
4E4
100
AcDbEntity
  8
ASSI
100
AcDbPolyline
 62
7
  6
CONTINUOUS
 90
10
 70
0
 10
32.0915031779
 20
-0.2377203929
 10
32.1200476578
 20
-0.240043869
 10
32.1472183758
 20
-0.2462814881
 10
32.1730153319
 20
-0.2564332503
 10
32.1977897327
 20
-0.2709451601
 10
32.2211903716
 20
-0.289371213
 10
32.2421636288
 20
-0.3103733952
 10
32.2603582978
 20
-0.3335057022
 10
32.276125585
 20
-0.3592141385
 10
32.2894654906
 20
-0.3874987042
  0
LWPOLYLINE
  5
4E5
100
AcDbEntity
  8
0
100
AcDbPolyline
 62
7
  6
CONTINUOUS
 90
13
 70
0
 10
32.1674630891
 20
0.5173280081
 10
32.1967760447
 20
0.5117459555
 10
32.2239404057
 20
0.5037423131
 10
32.2489561723
 20
0.4933170808
 10
32.2718886798
 20
0.4803967991
 10
32.2926725928
 20
0.4650549275
 10
32.3111119055
 20
0.4475118447
 10
32.3272976096
 20
0.4275311828
 10
32.3411387134
 20
0.4053493098
 10
32.3521662361
 20
0.381895708
 10
32.3602238509
 20
0.3574802049
 10
32.3654678847
 20
0.331792973
 10
32.3678983374
 20
0.3048340124
  0
LWPOLYLINE
  5
4E6
100
AcDbEntity
  8
ASSI
100
AcDbPolyline
 62
7
  6
CONTINUOUS
 90
13
 70
0
 10
32.1674630891
 20
0.5173280081
 10
32.1967760447
 20
0.5117459555
 10
32.2239404057
 20
0.5037423131
 10
32.2489561723
 20
0.4933170808
 10
32.2718886798
 20
0.4803967991
 10
32.2926725928
 20
0.4650549275
 10
32.3111119055
 20
0.4475118447
 10
32.3272976096
 20
0.4275311828
 10
32.3411387134
 20
0.4053493098
 10
32.3521662361
 20
0.381895708
 10
32.3602238509
 20
0.3574802049
 10
32.3654678847
 20
0.331792973
 10
32.3678983374
 20
0.3048340124
  0
LWPOLYLINE
  5
4E7
100
AcDbEntity
  8
0
100
AcDbPolyline
 62
7
  6
CONTINUOUS
 90
13
 70
0
 10
32.4235138924
 20
0.7591530585
 10
32.3644119622
 20
0.7774928028
 10
32.3025978145
 20
0.7925551419
 10
32.2380714494
 20
0.8043400758
 10
32.1707378305
 20
0.8127614148
 10
32.1006919942
 20
0.8179053487
 10
32.0282190495
 20
0.8200304467
 10
31.9532336551
 20
0.8189581817
 10
31.8758211523
 20
0.8148670808
 10
31.7965226744
 20
0.8085512945
 10
31.715518599
 20
0.8002755395
 10
31.6326285485
 20
0.7897750992
 10
31.5478525228
 20
0.7770499733
  0
LWPOLYLINE
  5
4E8
100
AcDbEntity
  8
ASSI
100
AcDbPolyline
 62
7
  6
CONTINUOUS
 90
13
 70
0
 10
32.4235138924
 20
0.7591530585
 10
32.3644119622
 20
0.7774928028
 10
32.3025978145
 20
0.7925551419
 10
32.2380714494
 20
0.8043400758
 10
32.1707378305
 20
0.8127614148
 10
32.1006919942
 20
0.8179053487
 10
32.0282190495
 20
0.8200304467
 10
31.9532336551
 20
0.8189581817
 10
31.8758211523
 20
0.8148670808
 10
31.7965226744
 20
0.8085512945
 10
31.715518599
 20
0.8002755395
 10
31.6326285485
 20
0.7897750992
 10
31.5478525228
 20
0.7770499733
  0
LINE
  5
4E9
100
AcDbEntity
  8
SCRITTE
100
AcDbLine
 62
253
  6
CONTINUOUS
 10
42.2566458589
 20
-3.1394021088
 11
42.1691458589
 21
-3.0956521088
  0
LINE
  5
4EA
100
AcDbEntity
  8
SCRITTE
100
AcDbLine
 62
253
  6
CONTINUOUS
 10
37.3816460496
 20
-1.4206520969
 11
37.1816454774
 21
-1.2206521088
  0
LINE
  5
4EB
100
AcDbEntity
  8
CURVE
100
AcDbLine
 62
253
  6
CONTINUOUS
 10
35.7030744559
 20
0.5650621897
 11
35.4887886649
 21
0.7793478912
  0
LINE
  5
4EC
100
AcDbEntity
  8
CURVE
100
AcDbLine
 62
253
  6
CONTINUOUS
 10
36.4530744559
 20
-0.0777949596
 11
36.2387886649
 21
0.1364907866
  0
LINE
  5
4ED
100
AcDbEntity
  8
SCRITTE
100
AcDbLine
 62
253
  6
CONTINUOUS
 10
41.4253958589
 20
-4.1456521088
 11
41.5128958589
 21
-4.2331521088
  0
LINE
  5
4EE
100
AcDbEntity
  8
CURVE
100
AcDbLine
 62
253
  6
CONTINUOUS
 10
36.7745030528
 20
0.7793478912
 11
36.9887886649
 21
0.5650621897
  0
LINE
  5
4EF
100
AcDbEntity
  8
DRAFT
100
AcDbLine
 62
7
  6
CONTINUOUS
 10
43.0816458589
 20
-5.4230332631
 11
43.0292647047
 21
-5.3706521088
  0
LINE
  5
4F0
100
AcDbEntity
  8
RACCORDO
100
AcDbLine
 62
253
  6
CONTINUOUS
 10
43.2685784034
 20
-5.3575618071
 11
43.2401780054
 21
-5.3291614092
  0
LINE
  5
4F1
100
AcDbEntity
  8
ASSI
100
AcDbLine
 62
253
  6
CONTINUOUS
 10
43.2685784034
 20
-5.3575618071
 11
43.2401780054
 21
-5.3291614092
  0
LINE
  5
4F2
100
AcDbEntity
  8
SCRITTE
100
AcDbLine
 62
253
  6
CONTINUOUS
 10
38.8816458112
 20
-4.3206521088
 11
38.5816459543
 21
-3.320652085
  0
LINE
  5
4F3
100
AcDbEntity
  8
SCRITTE
100
AcDbLine
 62
253
  6
CONTINUOUS
 10
38.2816457635
 20
-4.3206521088
 11
37.9816459066
 21
-2.9206521088
  0
LINE
  5
4F4
100
AcDbEntity
  8
SCRITTE
100
AcDbLine
 62
253
  6
CONTINUOUS
 10
38.9149786836
 20
2.1223663969
 11
38.9149786836
 21
2.110148782
  0
LINE
  5
4F5
100
AcDbEntity
  8
SCRITTE
100
AcDbLine
 62
253
  6
CONTINUOUS
 10
39.6149786836
 20
2.1223663969
 11
39.6149786836
 21
2.110148782
  0
LINE
  5
4F6
100
AcDbEntity
  8
CURVE
100
AcDbLine
 62
253
  6
CONTINUOUS
 10
39.8816458589
 20
-0.5420806797
 11
39.8816458589
 21
-0.5777949633
  0
LINE
  5
4F7
100
AcDbEntity
  8
SCRITTE
100
AcDbLine
 62
253
  6
CONTINUOUS
 10
39.1816460019
 20
-2.9206521088
 11
38.8816458112
 21
-4.3206521088
  0
LINE
  5
4F8
100
AcDbEntity
  8
SCRITTE
100
AcDbLine
 62
253
  6
CONTINUOUS
 10
38.5816459543
 20
-3.320652085
 11
38.2816457635
 21
-4.3206521088
  0
LINE
  5
4F9
100
AcDbEntity
  8
CURVE
100
AcDbLine
 62
253
  6
CONTINUOUS
 10
39.9173600084
 20
-0.4706521014
 11
39.8816458589
 21
-0.5420806797
  0
LINE
  5
4FA
100
AcDbEntity
  8
CURVE
100
AcDbLine
 62
253
  6
CONTINUOUS
 10
39.9887890226
 20
-0.6492235361
 11
40.024503172
 21
-0.5777949633
  0
LINE
  5
4FB
100
AcDbEntity
  8
SCRITTE
100
AcDbLine
 62
253
  6
CONTINUOUS
 10
36.6483124858
 20
-4.0873187685
 11
36.6149791962
 21
-4.1206520999
  0
LINE
  5
4FC
100
AcDbEntity
  8
DRAFT
100
AcDbLine
 62
7
  6
CONTINUOUS
 10
43.0816458589
 20
2.1817290454
 11
43.0292647047
 21
2.1293478912
  0
LINE
  5
4FD
100
AcDbEntity
  8
SCRITTE
100
AcDbLine
 62
253
  6
CONTINUOUS
 10
36.6483124858
 20
-4.2539854409
 11
36.714979232
 21
-4.187318773
  0
LINE
  5
4FE
100
AcDbEntity
  8
RACCORDO
100
AcDbLine
 62
253
  6
CONTINUOUS
 10
43.2685784034
 20
2.1162575895
 11
43.2401780054
 21
2.0878571915
  0
LINE
  5
4FF
100
AcDbEntity
  8
ASSI
100
AcDbLine
 62
253
  6
CONTINUOUS
 10
43.2685784034
 20
2.1162575895
 11
43.2401780054
 21
2.0878571915
  0
LINE
  5
500
100
AcDbEntity
  8
DRAFT
100
AcDbLine
 62
7
  6
CONTINUOUS
 10
43.0851368719
 20
1.3328389042
 11
43.0816458589
 21
1.3293478912
  0
LINE
  5
501
100
AcDbEntity
  8
ASSI
100
AcDbLine
 62
7
  6
CONTINUOUS
 10
43.0851368719
 20
1.3328389042
 11
43.0816458589
 21
1.3293478912
  0
LINE
  5
502
100
AcDbEntity
  8
RACCORDO
100
AcDbLine
 62
253
  6
CONTINUOUS
 10
43.8685555572
 20
1.5162804356
 11
43.8401551592
 21
1.4878800377
  0
LINE
  5
503
100
AcDbEntity
  8
ASSI
100
AcDbLine
 62
253
  6
CONTINUOUS
 10
43.8685555572
 20
1.5162804356
 11
43.8401551592
 21
1.4878800377
  0
LWPOLYLINE
  5
504
100
AcDbEntity
  8
0
100
AcDbPolyline
 62
7
  6
CONTINUOUS
 90
10
 70
0
 10
31.8894872905
 20
0.5073215422
 10
31.9206316802
 20
0.51251327
 10
31.9517110596
 20
0.5166920462
 10
31.9827254287
 20
0.5198578708
 10
32.0136741705
 20
0.5220201076
 10
32.044557902
 20
0.5231693928
 10
32.0753784744
 20
0.5232776346
 10
32.106136505
 20
0.5223354691
 10
32.1368313766
 20
0.5203522603
 10
32.1674630891
 20
0.5173280081
  0
LWPOLYLINE
  5
505
100
AcDbEntity
  8
ASSI
100
AcDbPolyline
 62
7
  6
CONTINUOUS
 90
10
 70
0
 10
31.8894872905
 20
0.5073215422
 10
31.9206316802
 20
0.51251327
 10
31.9517110596
 20
0.5166920462
 10
31.9827254287
 20
0.5198578708
 10
32.0136741705
 20
0.5220201076
 10
32.044557902
 20
0.5231693928
 10
32.0753784744
 20
0.5232776346
 10
32.106136505
 20
0.5223354691
 10
32.1368313766
 20
0.5203522603
 10
32.1674630891
 20
0.5173280081
  0
LWPOLYLINE
  5
506
100
AcDbEntity
  8
RACCORDO
100
AcDbPolyline
 62
7
  6
CONTINUOUS
 90
8
 70
0
 10
23.2686215984
 20
0.0944730414
 10
23.2502220279
 20
0.0941811427
 10
23.2341496921
 20
0.093849996
 10
23.2203015369
 20
0.0934813434
 10
23.2093106671
 20
0.0930920244
 10
23.2013881176
 20
0.0926876518
 10
23.1963228535
 20
0.0922626128
 10
23.1941148748
 20
0.0918169071
  0
LWPOLYLINE
  5
507
100
AcDbEntity
  8
ASSI
100
AcDbPolyline
 62
7
  6
CONTINUOUS
 90
8
 70
0
 10
23.2686215984
 20
0.0944730414
 10
23.2502220279
 20
0.0941811427
 10
23.2341496921
 20
0.093849996
 10
23.2203015369
 20
0.0934813434
 10
23.2093106671
 20
0.0930920244
 10
23.2013881176
 20
0.0926876518
 10
23.1963228535
 20
0.0922626128
 10
23.1941148748
 20
0.0918169071
  0
LINE
  5
508
100
AcDbEntity
  8
RACCORDO
100
AcDbLine
 62
253
  6
CONTINUOUS
 10
23.2717216282
 20
0.7404355675
 11
21.3916040417
 21
0.7404355675
  0
LINE
  5
509
100
AcDbEntity
  8
ASSI
100
AcDbLine
 62
253
  6
CONTINUOUS
 10
23.2717216282
 20
0.7404355675
 11
21.3916040417
 21
0.7404355675
  0
LINE
  5
50A
100
AcDbEntity
  8
RACCORDO
100
AcDbLine
 62
7
  6
CONTINUOUS
 10
23.3529853686
 20
0.7702919926
 11
21.3907017575
 21
0.7702919926
  0
LINE
  5
50B
100
AcDbEntity
  8
ASSI
100
AcDbLine
 62
7
  6
CONTINUOUS
 10
23.3529853686
 20
0.7702919926
 11
21.3907017575
 21
0.7702919926
  0
LINE
  5
50C
100
AcDbEntity
  8
CURVE
100
AcDbLine
 62
253
  6
CONTINUOUS
 10
39.2387886649
 20
0.7793478912
 11
38.4887886649
 21
0.7793478912
  0
LINE
  5
50D
100
AcDbEntity
  8
CURVE
100
AcDbLine
 62
253
  6
CONTINUOUS
 10
35.4887886649
 20
0.7793478912
 11
35.3816458589
 21
0.7793478912
  0
LINE
  5
50E
100
AcDbEntity
  8
CURVE
100
AcDbLine
 62
253
  6
CONTINUOUS
 10
34.3102173066
 20
0.7793478912
 11
34.2030744335
 21
0.7793478912
  0
LINE
  5
50F
100
AcDbEntity
  8
DRAFT
100
AcDbLine
 62
7
  6
CONTINUOUS
 10
24.3816458589
 20
0.7793478912
 11
24.3610879516
 21
0.7793478912
  0
LINE
  5
510
100
AcDbEntity
  8
ASSI
100
AcDbLine
 62
7
  6
CONTINUOUS
 10
24.3816458589
 20
0.7793478912
 11
24.3610879516
 21
0.7793478912
  0
LINE
  5
511
100
AcDbEntity
  8
DRAFT
100
AcDbLine
 62
7
  6
CONTINUOUS
 10
23.3527647997
 20
0.7793478912
 11
21.3816458589
 21
0.7793478912
  0
LINE
  5
512
100
AcDbEntity
  8
ASSI
100
AcDbLine
 62
7
  6
CONTINUOUS
 10
23.3527647997
 20
0.7793478912
 11
21.3816458589
 21
0.7793478912
  0
LINE
  5
513
100
AcDbEntity
  8
CURVE
100
AcDbLine
 62
253
  6
CONTINUOUS
 10
36.4530744559
 20
0.7793478912
 11
36.7745030528
 21
0.7793478912
  0
LINE
  5
514
100
AcDbEntity
  8
CURVE
100
AcDbLine
 62
253
  6
CONTINUOUS
 10
37.4173602468
 20
0.7793478912
 11
37.845931471
 21
0.7793478912
  0
LINE
  5
515
100
AcDbEntity
  8
0
100
AcDbLine
 62
7
  6
CONTINUOUS
 10
30.9220978589
 20
0.7969098912
 11
30.5788438589
 21
0.7969098912
  0
LINE
  5
516
100
AcDbEntity
  8
ASSI
100
AcDbLine
 62
7
  6
CONTINUOUS
 10
30.9220978589
 20
0.7969098912
 11
30.5788438589
 21
0.7969098912
  0
LINE
  5
517
100
AcDbEntity
  8
0
100
AcDbLine
 62
7
  6
CONTINUOUS
 10
29.8309848589
 20
0.7969098912
 11
29.4799178589
 21
0.7969098912
  0
LINE
  5
518
100
AcDbEntity
  8
ASSI
100
AcDbLine
 62
7
  6
CONTINUOUS
 10
29.8309848589
 20
0.7969098912
 11
29.4799178589
 21
0.7969098912
  0
LINE
  5
519
100
AcDbEntity
  8
0
100
AcDbLine
 62
7
  6
CONTINUOUS
 10
28.7740088589
 20
0.7969098912
 11
28.4194738589
 21
0.7969098912
  0
LINE
  5
51A
100
AcDbEntity
  8
ASSI
100
AcDbLine
 62
7
  6
CONTINUOUS
 10
28.7740088589
 20
0.7969098912
 11
28.4194738589
 21
0.7969098912
  0
LINE
  5
51B
100
AcDbEntity
  8
0
100
AcDbLine
 62
7
  6
CONTINUOUS
 10
27.5884658589
 20
0.7969098912
 11
27.2338798589
 21
0.7969098912
  0
LINE
  5
51C
100
AcDbEntity
  8
ASSI
100
AcDbLine
 62
7
  6
CONTINUOUS
 10
27.5884658589
 20
0.7969098912
 11
27.2338798589
 21
0.7969098912
  0
LINE
  5
51D
100
AcDbEntity
  8
0
100
AcDbLine
 62
7
  6
CONTINUOUS
 10
26.5759328589
 20
0.7969098912
 11
26.1904798589
 21
0.7969098912
  0
LINE
  5
51E
100
AcDbEntity
  8
ASSI
100
AcDbLine
 62
7
  6
CONTINUOUS
 10
26.5759328589
 20
0.7969098912
 11
26.1904798589
 21
0.7969098912
  0
LINE
  5
51F
100
AcDbEntity
  8
0
100
AcDbLine
 62
7
  6
CONTINUOUS
 10
28.0749718589
 20
0.7970118912
 11
27.7201438589
 21
0.7970118912
  0
LINE
  5
520
100
AcDbEntity
  8
ASSI
100
AcDbLine
 62
7
  6
CONTINUOUS
 10
28.0749718589
 20
0.7970118912
 11
27.7201438589
 21
0.7970118912
  0
LINE
  5
521
100
AcDbEntity
  8
DRAFT
100
AcDbLine
 62
7
  6
CONTINUOUS
 10
23.2816458589
 20
0.9603673394
 11
23.3116458589
 21
0.9603673394
  0
LINE
  5
522
100
AcDbEntity
  8
RACCORDO
100
AcDbLine
 62
253
  6
CONTINUOUS
 10
56.8691360657
 20
1.2409666274
 11
43.862301137
 21
1.2409666274
  0
LINE
  5
523
100
AcDbEntity
  8
ASSI
100
AcDbLine
 62
253
  6
CONTINUOUS
 10
56.8691360657
 20
1.2409666274
 11
43.862301137
 21
1.2409666274
  0
LINE
  5
524
100
AcDbEntity
  8
RACCORDO
100
AcDbLine
 62
253
  6
CONTINUOUS
 10
57.8707391496
 20
1.2577774962
 11
57.0041998359
 21
1.2577785492
  0
LINE
  5
525
100
AcDbEntity
  8
RACCORDO
100
AcDbLine
 62
253
  6
CONTINUOUS
 10
57.8721458635
 20
1.2698326653
 11
57.0006818537
 21
1.2698327937
  0
LINE
  5
526
100
AcDbEntity
  8
RACCORDO
100
AcDbLine
 62
253
  6
CONTINUOUS
 10
56.8730720407
 20
1.270774073
 11
43.8642689746
 21
1.270774073
  0
LINE
  5
527
100
AcDbEntity
  8
ASSI
100
AcDbLine
 62
253
  6
CONTINUOUS
 10
56.8730720407
 20
1.270774073
 11
43.8642689746
 21
1.270774073
  0
LINE
  5
528
100
AcDbEntity
  8
DRAFT
100
AcDbLine
 62
7
  6
CONTINUOUS
 10
56.8816458589
 20
1.2793478912
 11
43.8685555572
 21
1.2793478912
  0
LINE
  5
529
100
AcDbEntity
  8
ASSI
100
AcDbLine
 62
7
  6
CONTINUOUS
 10
56.8816458589
 20
1.2793478912
 11
43.8685555572
 21
1.2793478912
  0
LINE
  5
52A
100
AcDbEntity
  8
RACCORDO
100
AcDbLine
 62
7
  6
CONTINUOUS
 10
43.9340270131
 20
1.2793478912
 11
57.8816610894
 21
1.2793478912
  0
LINE
  5
52B
100
AcDbEntity
  8
DRAFT
100
AcDbLine
 62
7
  6
CONTINUOUS
 10
43.0816458589
 20
1.3293478912
 11
25.1816458589
 21
1.3293478912
  0
LINE
  5
52C
100
AcDbEntity
  8
DRAFT
100
AcDbLine
 62
7
  6
CONTINUOUS
 10
43.0851368719
 20
1.3328389042
 11
25.1781548459
 21
1.3328389042
  0
LINE
  5
52D
100
AcDbEntity
  8
ASSI
100
AcDbLine
 62
7
  6
CONTINUOUS
 10
43.0851368719
 20
1.3328389042
 11
25.1781548459
 21
1.3328389042
  0
LINE
  5
52E
100
AcDbEntity
  8
RACCORDO
100
AcDbLine
 62
253
  6
CONTINUOUS
 10
24.3362661464
 20
1.4189631957
 11
23.3921219373
 21
1.4189631957
  0
LINE
  5
52F
100
AcDbEntity
  8
RACCORDO
100
AcDbLine
 62
253
  6
CONTINUOUS
 10
43.3401741977
 20
1.4878800377
 11
43.8401551592
 21
1.4878800311
  0
LINE
  5
530
100
AcDbEntity
  8
ASSI
100
AcDbLine
 62
253
  6
CONTINUOUS
 10
43.3401741977
 20
1.4878800377
 11
43.8401551592
 21
1.4878800311
  0
LINE
  5
531
100
AcDbEntity
  8
RACCORDO
100
AcDbLine
 62
253
  6
CONTINUOUS
 10
43.2401780054
 20
1.58787623
 11
24.4261643079
 21
1.58787623
  0
LINE
  5
532
100
AcDbEntity
  8
ASSI
100
AcDbLine
 62
253
  6
CONTINUOUS
 10
43.2401780054
 20
1.58787623
 11
24.4261643079
 21
1.58787623
  0
LINE
  5
533
100
AcDbEntity
  8
RACCORDO
100
AcDbLine
 62
7
  6
CONTINUOUS
 10
24.3608948807
 20
0.7621954165
 11
24.3988156768
 21
0.7621780732
  0
LINE
  5
534
100
AcDbEntity
  8
ASSI
100
AcDbLine
 62
7
  6
CONTINUOUS
 10
24.3608948807
 20
0.7621954165
 11
24.3988156768
 21
0.7621780732
  0
LWPOLYLINE
  5
535
100
AcDbEntity
  8
RACCORDO
100
AcDbPolyline
 62
7
  6
CONTINUOUS
 90
8
 70
0
 10
56.902802911
 20
1.2793166526
 10
56.934064267
 20
1.2791241066
 10
56.9479480121
 20
1.2789569702
 10
56.9604364166
 20
1.2787464776
 10
56.9704912474
 20
1.2785101157
 10
56.9777664267
 20
1.2782537137
 10
56.9826080323
 20
1.2779714424
 10
56.9850160641
 20
1.277663302
  0
LWPOLYLINE
  5
536
100
AcDbEntity
  8
RACCORDO
100
AcDbPolyline
 62
253
  6
CONTINUOUS
 90
10
 70
0
 10
57.841453537
 20
0.1189314974
 10
57.8586630268
 20
0.1179085687
 10
57.8753589299
 20
0.1151563886
 10
57.8910430024
 20
0.1107570935
 10
57.9052471665
 20
0.1048419893
 10
57.9175475826
 20
0.0975875901
 10
57.9275772491
 20
0.0892103207
 10
57.935036825
 20
0.0799601371
 10
57.9397036162
 20
0.0701130975
 10
57.941438296
 20
0.0599630619
  0
LINE
  5
537
100
AcDbEntity
  8
RACCORDO
100
AcDbLine
 62
7
  6
CONTINUOUS
 10
56.8816458589
 20
0.2293478912
 11
56.9464934042
 21
0.2248570313
  0
LINE
  5
538
100
AcDbEntity
  8
ASSI
100
AcDbLine
 62
7
  6
CONTINUOUS
 10
56.8816458589
 20
0.2293478912
 11
56.9464934042
 21
0.2248570313
  0
LINE
  5
539
100
AcDbEntity
  8
CURVE
100
AcDbLine
 62
253
  6
CONTINUOUS
 10
37.845931471
 20
0.1364907866
 11
38.0602174407
 21
-0.0777949596
  0
LINE
  5
53A
100
AcDbEntity
  8
SCRITTE
100
AcDbLine
 62
253
  6
CONTINUOUS
 10
41.5566458589
 20
-3.4019021088
 11
41.6003958589
 21
-3.4456521088
  0
LINE
  5
53B
100
AcDbEntity
  8
DRAFT
100
AcDbLine
 62
7
  6
CONTINUOUS
 10
43.0851368719
 20
-4.5741431218
 11
43.0816458589
 21
-4.5706521088
  0
LINE
  5
53C
100
AcDbEntity
  8
ASSI
100
AcDbLine
 62
7
  6
CONTINUOUS
 10
43.0851368719
 20
-4.5741431218
 11
43.0816458589
 21
-4.5706521088
  0
LINE
  5
53D
100
AcDbEntity
  8
RACCORDO
100
AcDbLine
 62
253
  6
CONTINUOUS
 10
43.8685555572
 20
-4.7575846533
 11
43.8401551592
 21
-4.7291842553
  0
LINE
  5
53E
100
AcDbEntity
  8
ASSI
100
AcDbLine
 62
253
  6
CONTINUOUS
 10
43.8685555572
 20
-4.7575846533
 11
43.8401551592
 21
-4.7291842553
  0
LINE
  5
53F
100
AcDbEntity
  8
CURVE
100
AcDbLine
 62
253
  6
CONTINUOUS
 10
37.845931471
 20
0.7793478912
 11
38.0245029336
 21
0.5650621897
  0
LINE
  5
540
100
AcDbEntity
  8
CURVE
100
AcDbLine
 62
253
  6
CONTINUOUS
 10
39.8816458589
 20
-0.5777949633
 11
39.9173600084
 21
-0.6492235361
  0
LINE
  5
541
100
AcDbEntity
  8
CURVE
100
AcDbLine
 62
253
  6
CONTINUOUS
 10
40.024503172
 20
-0.5777949633
 11
40.024503172
 21
-0.5420806797
  0
LINE
  5
542
100
AcDbEntity
  8
SCRITTE
100
AcDbLine
 62
253
  6
CONTINUOUS
 10
41.3816458589
 20
-3.8831521088
 11
41.3816458589
 21
-4.0144021088
  0
LINE
  5
543
100
AcDbEntity
  8
CURVE
100
AcDbLine
 62
253
  6
CONTINUOUS
 10
41.8102170831
 20
0.7793478912
 11
41.4887890226
 21
-0.7206521088
  0
LINE
  5
544
100
AcDbEntity
  8
CURVE
100
AcDbLine
 62
253
  6
CONTINUOUS
 10
41.1673602468
 20
0.3507764881
 11
40.845931471
 21
-0.7206521088
  0
LINE
  5
545
100
AcDbEntity
  8
SCRITTE
100
AcDbLine
 62
253
  6
CONTINUOUS
 10
41.6878958589
 20
-3.5769021088
 11
41.5128958589
 21
-3.6644021088
  0
LINE
  5
546
100
AcDbEntity
  8
SCRITTE
100
AcDbLine
 62
253
  6
CONTINUOUS
 10
41.7753958589
 20
-3.0081521088
 11
41.6441458589
 21
-3.0519021088
  0
LWPOLYLINE
  5
547
100
AcDbEntity
  8
RACCORDO
100
AcDbPolyline
 62
7
  6
CONTINUOUS
 90
6
 70
0
 10
23.3549438259
 20
0.7692487071
 10
23.3369739372
 20
0.7665022813
 10
23.319666773
 20
0.7621427224
 10
23.3030223335
 20
0.756270851
 10
23.2870406185
 20
0.7489962981
 10
23.2717216282
 20
0.7404355675
  0
LWPOLYLINE
  5
548
100
AcDbEntity
  8
ASSI
100
AcDbPolyline
 62
7
  6
CONTINUOUS
 90
6
 70
0
 10
23.3549438259
 20
0.7692487071
 10
23.3369739372
 20
0.7665022813
 10
23.319666773
 20
0.7621427224
 10
23.3030223335
 20
0.756270851
 10
23.2870406185
 20
0.7489962981
 10
23.2717216282
 20
0.7404355675
  0
LINE
  5
549
100
AcDbEntity
  8
SCRITTE
100
AcDbLine
 62
253
  6
CONTINUOUS
 10
40.4149796373
 20
2.1223663969
 11
40.014979828
 21
2.110148782
  0
LINE
  5
54A
100
AcDbEntity
  8
SCRITTE
100
AcDbLine
 62
253
  6
CONTINUOUS
 10
28.4816459304
 20
2.1223663969
 11
28.0816458708
 21
2.110148782
  0
LINE
  5
54B
100
AcDbEntity
  8
SCRITTE
100
AcDbLine
 62
253
  6
CONTINUOUS
 10
27.6816458947
 20
2.1223663969
 11
27.2816458768
 21
2.1153849028
  0
LINE
  5
54C
100
AcDbEntity
  8
SCRITTE
100
AcDbLine
 62
253
  6
CONTINUOUS
 10
35.9483126527
 20
2.1223663969
 11
35.7483127481
 21
2.1206210235
  0
LINE
  5
54D
100
AcDbEntity
  8
SCRITTE
100
AcDbLine
 62
253
  6
CONTINUOUS
 10
29.7816458112
 20
2.110148782
 11
29.9816457158
 21
2.1118941557
  0
LINE
  5
54E
100
AcDbEntity
  8
RACCORDO
100
AcDbLine
 62
253
  6
CONTINUOUS
 10
24.3414108841
 20
2.0188718128
 11
23.9920305544
 21
2.0188718128
  0
LINE
  5
54F
100
AcDbEntity
  8
RACCORDO
100
AcDbLine
 62
7
  6
CONTINUOUS
 10
43.2401780054
 20
2.0878571915
 11
24.573130847
 21
2.0878571915
  0
LINE
  5
550
100
AcDbEntity
  8
ASSI
100
AcDbLine
 62
7
  6
CONTINUOUS
 10
43.2401780054
 20
2.0878571915
 11
24.573130847
 21
2.0878571915
  0
LINE
  5
551
100
AcDbEntity
  8
RACCORDO
100
AcDbLine
 62
7
  6
CONTINUOUS
 10
23.911554476
 20
2.0993478912
 11
24.3816458589
 21
2.0993478912
  0
LINE
  5
552
100
AcDbEntity
  8
SCRITTE
100
AcDbLine
 62
253
  6
CONTINUOUS
 10
29.2816458827
 20
2.110148782
 11
29.7816458112
 21
2.110148782
  0
LINE
  5
553
100
AcDbEntity
  8
SCRITTE
100
AcDbLine
 62
253
  6
CONTINUOUS
 10
30.5483125573
 20
2.110148782
 11
31.148312605
 21
2.110148782
  0
LINE
  5
554
100
AcDbEntity
  8
SCRITTE
100
AcDbLine
 62
253
  6
CONTINUOUS
 10
35.9483126527
 20
2.110148782
 11
36.348312462
 21
2.110148782
  0
LINE
  5
555
100
AcDbEntity
  8
SCRITTE
100
AcDbLine
 62
253
  6
CONTINUOUS
 10
40.6816452867
 20
2.1136395293
 11
40.1483126527
 21
2.1136395293
  0
LINE
  5
556
100
AcDbEntity
  8
SCRITTE
100
AcDbLine
 62
253
  6
CONTINUOUS
 10
28.7483125812
 20
2.1136395293
 11
28.2149791962
 21
2.1136395293
  0
LINE
  5
557
100
AcDbEntity
  8
RACCORDO
100
AcDbLine
 62
7
  6
CONTINUOUS
 10
43.0816458589
 20
2.1162575895
 11
43.2685784034
 21
2.1162575895
  0
LINE
  5
558
100
AcDbEntity
  8
ASSI
100
AcDbLine
 62
7
  6
CONTINUOUS
 10
43.0816458589
 20
2.1162575895
 11
43.2685784034
 21
2.1162575895
  0
LINE
  5
559
100
AcDbEntity
  8
SCRITTE
100
AcDbLine
 62
253
  6
CONTINUOUS
 10
37.6149789697
 20
2.1171302766
 11
36.9149789697
 21
2.1171302766
  0
LINE
  5
55A
100
AcDbEntity
  8
SCRITTE
100
AcDbLine
 62
253
  6
CONTINUOUS
 10
30.5483125573
 20
2.1171302766
 11
30.9483123666
 21
2.1171302766
  0
LINE
  5
55B
100
AcDbEntity
  8
SCRITTE
100
AcDbLine
 62
253
  6
CONTINUOUS
 10
36.348312462
 20
2.1223663969
 11
35.9483126527
 21
2.1223663969
  0
LINE
  5
55C
100
AcDbEntity
  8
SCRITTE
100
AcDbLine
 62
253
  6
CONTINUOUS
 10
31.148312605
 20
2.1223663969
 11
30.5483125573
 21
2.1223663969
  0
LINE
  5
55D
100
AcDbEntity
  8
SCRITTE
100
AcDbLine
 62
253
  6
CONTINUOUS
 10
29.7816458112
 20
2.1223663969
 11
29.2816458827
 21
2.1223663969
  0
LINE
  5
55E
100
AcDbEntity
  8
DRAFT
100
AcDbLine
 62
7
  6
CONTINUOUS
 10
43.0292647047
 20
2.1293478912
 11
35.6340270131
 21
2.1293478912
  0
LINE
  5
55F
100
AcDbEntity
  8
RACCORDO
100
AcDbLine
 62
7
  6
CONTINUOUS
 10
23.8812803551
 20
2.1293478912
 11
32.2816458589
 21
2.1293478912
  0
LINE
  5
560
100
AcDbEntity
  8
DRAFT
100
AcDbLine
 62
7
  6
CONTINUOUS
 10
32.2816458589
 20
2.1293478912
 11
35.4816458589
 21
2.1293478912
  0
LINE
  5
561
100
AcDbEntity
  8
RACCORDO
100
AcDbLine
 62
7
  6
CONTINUOUS
 10
43.3343925169
 20
2.1817290454
 11
43.0816458589
 21
2.1817290454
  0
LINE
  5
562
100
AcDbEntity
  8
RACCORDO
100
AcDbLine
 62
7
  6
CONTINUOUS
 10
42.8176739809
 20
2.1290342551
 11
35.4816458589
 21
2.1293478912
  0
LINE
  5
563
100
AcDbEntity
  8
ASSI
100
AcDbLine
 62
7
  6
CONTINUOUS
 10
42.8176739809
 20
2.1290342551
 11
24.5316401474
 21
2.1293478912
  0
LINE
  5
564
100
AcDbEntity
  8
SCRITTE
100
AcDbLine
 62
253
  6
CONTINUOUS
 10
29.9816457158
 20
2.1206210235
 11
29.7816458112
 21
2.1223663969
  0
LINE
  5
565
100
AcDbEntity
  8
SCRITTE
100
AcDbLine
 62
253
  6
CONTINUOUS
 10
35.7483127481
 20
2.1118941557
 11
35.9483126527
 21
2.110148782
  0
LINE
  5
566
100
AcDbEntity
  8
RACCORDO
100
AcDbLine
 62
7
  6
CONTINUOUS
 10
42.9037136244
 20
2.1284279284
 11
42.8176739809
 21
2.1290342551
  0
LINE
  5
567
100
AcDbEntity
  8
ASSI
100
AcDbLine
 62
7
  6
CONTINUOUS
 10
42.9037136244
 20
2.1284279284
 11
42.8176739809
 21
2.1290342551
  0
LINE
  5
568
100
AcDbEntity
  8
SCRITTE
100
AcDbLine
 62
253
  6
CONTINUOUS
 10
27.2816458768
 20
2.1153849028
 11
26.8816458589
 21
2.1223663969
  0
LINE
  5
569
100
AcDbEntity
  8
SCRITTE
100
AcDbLine
 62
253
  6
CONTINUOUS
 10
34.248312462
 20
2.110148782
 11
33.548312462
 21
2.1223663969
  0
LINE
  5
56A
100
AcDbEntity
  8
SCRITTE
100
AcDbLine
 62
253
  6
CONTINUOUS
 10
39.6149786836
 20
2.110148782
 11
38.9149786836
 21
2.1223663969
  0
LINE
  5
56B
100
AcDbEntity
  8
SCRITTE
100
AcDbLine
 62
253
  6
CONTINUOUS
 10
28.8816459066
 20
2.110148782
 11
28.4816459304
 21
2.1223663969
  0
LINE
  5
56C
100
AcDbEntity
  8
SCRITTE
100
AcDbLine
 62
253
  6
CONTINUOUS
 10
40.8149794465
 20
2.110148782
 11
40.4149796373
 21
2.1223663969
  0
LWPOLYLINE
  5
56D
100
AcDbEntity
  8
RACCORDO
100
AcDbPolyline
 62
7
  6
CONTINUOUS
 90
5
 70
0
 10
42.9743719208
 20
2.1269580098
 10
42.9685047903
 20
2.1272854328
 10
42.9585722772
 20
2.1275953582
 10
42.9445743815
 20
2.1278877862
 10
42.9037136244
 20
2.1284279284
  0
LWPOLYLINE
  5
56E
100
AcDbEntity
  8
ASSI
100
AcDbPolyline
 62
7
  6
CONTINUOUS
 90
5
 70
0
 10
42.9743719208
 20
2.1269580098
 10
42.9685047903
 20
2.1272854328
 10
42.9585722772
 20
2.1275953582
 10
42.9445743815
 20
2.1278877862
 10
42.9037136244
 20
2.1284279284
  0
LWPOLYLINE
  5
56F
100
AcDbEntity
  8
RACCORDO
100
AcDbPolyline
 62
7
  6
CONTINUOUS
 90
16
 70
0
 10
43.2685784034
 20
2.1162575895
 10
43.3323986911
 20
2.1126751518
 10
43.3942016784
 20
2.1028867385
 10
43.4539873652
 20
2.0868923494
 10
43.5123619335
 20
2.0643830153
 10
43.5687192015
 20
2.0356677055
 10
43.6212406231
 20
2.001673328
 10
43.6698010899
 20
1.9622277797
 10
43.7145257105
 20
1.9175031638
 10
43.7539712648
 20
1.868942698
 10
43.78796565
 20
1.8164212716
 10
43.816680969
 20
1.7600639952
 10
43.8391903103
 20
1.7016894185
 10
43.8551847036
 20
1.6419037246
 10
43.8649731192
 20
1.5801007303
 10
43.8685555572
 20
1.5162804356
  0
LWPOLYLINE
  5
570
100
AcDbEntity
  8
ASSI
100
AcDbPolyline
 62
7
  6
CONTINUOUS
 90
16
 70
0
 10
43.2685784034
 20
2.1162575895
 10
43.3323986911
 20
2.1126751518
 10
43.3942016784
 20
2.1028867385
 10
43.4539873652
 20
2.0868923494
 10
43.5123619335
 20
2.0643830153
 10
43.5687192015
 20
2.0356677055
 10
43.6212406231
 20
2.001673328
 10
43.6698010899
 20
1.9622277797
 10
43.7145257105
 20
1.9175031638
 10
43.7539712648
 20
1.868942698
 10
43.78796565
 20
1.8164212716
 10
43.816680969
 20
1.7600639952
 10
43.8391903103
 20
1.7016894185
 10
43.8551847036
 20
1.6419037246
 10
43.8649731192
 20
1.5801007303
 10
43.8685555572
 20
1.5162804356
  0
LWPOLYLINE
  5
571
100
AcDbEntity
  8
RACCORDO
100
AcDbPolyline
 62
7
  6
CONTINUOUS
 90
6
 70
0
 10
57.8816001628
 20
1.2793478912
 10
57.8989746035
 20
1.2778315494
 10
57.9158192072
 20
1.2733191626
 10
57.9316219177
 20
1.265949018
 10
57.9459027878
 20
1.2559460904
 10
57.952319785
 20
1.2500648557
  0
LINE
  5
572
100
AcDbEntity
  8
RACCORDO
100
AcDbLine
 62
7
  6
CONTINUOUS
 10
43.0816458589
 20
2.1162575895
 11
42.9743719208
 21
2.1269580098
  0
LINE
  5
573
100
AcDbEntity
  8
ASSI
100
AcDbLine
 62
7
  6
CONTINUOUS
 10
43.0816458589
 20
2.1162575895
 11
42.9743719208
 21
2.1269580098
  0
LINE
  5
574
100
AcDbEntity
  8
CURVE
100
AcDbLine
 62
253
  6
CONTINUOUS
 10
40.024503172
 20
-0.5420806797
 11
39.9887890226
 21
-0.4706521014
  0
LINE
  5
575
100
AcDbEntity
  8
SCRITTE
100
AcDbLine
 62
253
  6
CONTINUOUS
 10
41.5128958589
 20
-3.3144021088
 11
41.5566458589
 21
-3.4019021088
  0
LINE
  5
576
100
AcDbEntity
  8
SCRITTE
100
AcDbLine
 62
253
  6
CONTINUOUS
 10
41.3816458589
 20
-4.0144021088
 11
41.4253958589
 21
-4.1456521088
  0
LINE
  5
577
100
AcDbEntity
  8
CURVE
100
AcDbLine
 62
253
  6
CONTINUOUS
 10
40.845931471
 20
-0.7206521088
 11
40.5245026952
 21
0.7793478912
  0
LINE
  5
578
100
AcDbEntity
  8
SCRITTE
100
AcDbLine
 62
253
  6
CONTINUOUS
 10
41.5128958589
 20
-3.2706521088
 11
41.5128958589
 21
-3.3144021088
  0
LINE
  5
579
100
AcDbEntity
  8
SCRITTE
100
AcDbLine
 62
253
  6
CONTINUOUS
 10
41.5566458589
 20
-3.1394021088
 11
41.5128958589
 21
-3.2706521088
  0
LINE
  5
57A
100
AcDbEntity
  8
SCRITTE
100
AcDbLine
 62
253
  6
CONTINUOUS
 10
41.4253958589
 20
-3.7519021088
 11
41.3816458589
 21
-3.8831521088
  0
LINE
  5
57B
100
AcDbEntity
  8
RACCORDO
100
AcDbLine
 62
7
  6
CONTINUOUS
 10
43.8642689746
 20
1.270774073
 11
43.8685555572
 21
1.2793478912
  0
LINE
  5
57C
100
AcDbEntity
  8
ASSI
100
AcDbLine
 62
7
  6
CONTINUOUS
 10
43.8642689746
 20
1.270774073
 11
43.8685555572
 21
1.2793478912
  0
LINE
  5
57D
100
AcDbEntity
  8
SCRITTE
100
AcDbLine
 62
253
  6
CONTINUOUS
 10
41.6441458589
 20
-3.0519021088
 11
41.5566458589
 21
-3.1394021088
  0
LINE
  5
57E
100
AcDbEntity
  8
SCRITTE
100
AcDbLine
 62
253
  6
CONTINUOUS
 10
41.5128958589
 20
-3.6644021088
 11
41.4253958589
 21
-3.7519021088
  0
LINE
  5
57F
100
AcDbEntity
  8
SCRITTE
100
AcDbLine
 62
253
  6
CONTINUOUS
 10
42.1691458589
 20
-4.1894021088
 11
42.2566458589
 21
-4.1019021088
  0
LINE
  5
580
100
AcDbEntity
  8
SCRITTE
100
AcDbLine
 62
253
  6
CONTINUOUS
 10
42.0378958589
 20
-4.2769021088
 11
42.1691458589
 21
-4.1894021088
  0
LWPOLYLINE
  5
581
100
AcDbEntity
  8
RACCORDO
100
AcDbPolyline
 62
253
  6
CONTINUOUS
 90
10
 70
0
 10
24.573130847
 20
2.0878571915
 10
24.5470832261
 20
2.0855762134
 10
24.5218277115
 20
2.07880677
 10
24.4981316432
 20
2.0677548672
 10
24.476714834
 20
2.0527565579
 10
24.4582278904
 20
2.0342678309
 10
24.4432323707
 20
2.0128508282
 10
24.4321835152
 20
1.9891565202
 10
24.4254165312
 20
1.9639048238
 10
24.4231365586
 20
1.937862903
  0
LWPOLYLINE
  5
582
100
AcDbEntity
  8
ASSI
100
AcDbPolyline
 62
253
  6
CONTINUOUS
 90
10
 70
0
 10
24.573130847
 20
2.0878571915
 10
24.5470832261
 20
2.0855762134
 10
24.5218277115
 20
2.07880677
 10
24.4981316432
 20
2.0677548672
 10
24.476714834
 20
2.0527565579
 10
24.4582278904
 20
2.0342678309
 10
24.4432323707
 20
2.0128508282
 10
24.4321835152
 20
1.9891565202
 10
24.4254165312
 20
1.9639048238
 10
24.4231365586
 20
1.937862903
  0
LINE
  5
583
100
AcDbEntity
  8
RACCORDO
100
AcDbLine
 62
7
  6
CONTINUOUS
 10
56.9464934042
 20
0.2248570313
 11
56.9987137023
 21
0.2147155521
  0
LINE
  5
584
100
AcDbEntity
  8
ASSI
100
AcDbLine
 62
7
  6
CONTINUOUS
 10
56.9464934042
 20
0.2248570313
 11
56.9987137023
 21
0.2147155521
  0
LINE
  5
585
100
AcDbEntity
  8
RACCORDO
100
AcDbLine
 62
7
  6
CONTINUOUS
 10
43.8685555572
 20
-4.5206521088
 11
43.8642689746
 21
-4.5120782906
  0
LINE
  5
586
100
AcDbEntity
  8
ASSI
100
AcDbLine
 62
7
  6
CONTINUOUS
 10
43.8685555572
 20
-4.5206521088
 11
43.8642689746
 21
-4.5120782906
  0
LINE
  5
587
100
AcDbEntity
  8
CURVE
100
AcDbLine
 62
253
  6
CONTINUOUS
 10
41.4887890226
 20
-0.7206521088
 11
41.1673602468
 21
0.3507764881
  0
LWPOLYLINE
  5
588
100
AcDbEntity
  8
RACCORDO
100
AcDbPolyline
 62
7
  6
CONTINUOUS
 90
10
 70
0
 10
43.8642689746
 20
-4.5120782906
 10
43.8640478161
 20
-4.5113134553
 10
43.8638271798
 20
-4.5099102479
 10
43.8636070656
 20
-4.5078686684
 10
43.863387333
 20
-4.5051865885
 10
43.8631681224
 20
-4.5018661366
 10
43.8629498554
 20
-4.4979136977
 10
43.8627326724
 20
-4.4933314004
 10
43.8625164329
 20
-4.4881171161
 10
43.862301137
 20
-4.482270845
  0
LWPOLYLINE
  5
589
100
AcDbEntity
  8
ASSI
100
AcDbPolyline
 62
7
  6
CONTINUOUS
 90
10
 70
0
 10
43.8642689746
 20
-4.5120782906
 10
43.8640478161
 20
-4.5113134553
 10
43.8638271798
 20
-4.5099102479
 10
43.8636070656
 20
-4.5078686684
 10
43.863387333
 20
-4.5051865885
 10
43.8631681224
 20
-4.5018661366
 10
43.8629498554
 20
-4.4979136977
 10
43.8627326724
 20
-4.4933314004
 10
43.8625164329
 20
-4.4881171161
 10
43.862301137
 20
-4.482270845
  0
LWPOLYLINE
  5
58A
100
AcDbEntity
  8
RACCORDO
100
AcDbPolyline
 62
7
  6
CONTINUOUS
 90
16
 70
0
 10
43.9340270131
 20
1.5820945492
 10
43.9304424263
 20
1.6459194836
 10
43.9206582305
 20
1.7077163665
 10
43.9046744256
 20
1.767485198
 10
43.8821820911
 20
1.8258289861
 10
43.8534901475
 20
1.8821447228
 10
43.8195253573
 20
1.9346233835
 10
43.7801180311
 20
1.9831405578
 10
43.7354378583
 20
2.0278206561
 10
43.6869206686
 20
2.0672278855
 10
43.6344420841
 20
2.1011925514
 10
43.5781264828
 20
2.1298843485
 10
43.519782829
 20
2.1523765673
 10
43.4600141108
 20
2.1683603049
 10
43.3982173401
 20
2.1781444642
 10
43.3343925169
 20
2.1817290454
  0
LWPOLYLINE
  5
58B
100
AcDbEntity
  8
RACCORDO
100
AcDbPolyline
 62
253
  6
CONTINUOUS
 90
19
 70
0
 10
43.3401741977
 20
1.4878800377
 10
43.3397903717
 20
1.4966156479
 10
43.3386703091
 20
1.5051843964
 10
43.3368140097
 20
1.513586283
 10
43.3341972722
 20
1.5218912208
 10
43.3308442981
 20
1.5300292968
 10
43.3268276914
 20
1.5377907724
 10
43.3221290425
 20
1.5451613966
 10
43.3167667612
 20
1.5521554203
 10
43.310868681
 20
1.5586058575
 10
43.3044239833
 20
1.5644961256
 10
43.2974434867
 20
1.5698428072
 10
43.2900874815
 20
1.5745286636
 10
43.2823430401
 20
1.5785389029
 10
43.2742230901
 20
1.5818883171
 10
43.2659267043
 20
1.5845040432
 10
43.2575202405
 20
1.5863617935
 10
43.2489373408
 20
1.5874858558
 10
43.2401780054
 20
1.58787623
  0
LWPOLYLINE
  5
58C
100
AcDbEntity
  8
ASSI
100
AcDbPolyline
 62
253
  6
CONTINUOUS
 90
19
 70
0
 10
43.3401741977
 20
1.4878800377
 10
43.3397903717
 20
1.4966156479
 10
43.3386703091
 20
1.5051843964
 10
43.3368140097
 20
1.513586283
 10
43.3341972722
 20
1.5218912208
 10
43.3308442981
 20
1.5300292968
 10
43.3268276914
 20
1.5377907724
 10
43.3221290425
 20
1.5451613966
 10
43.3167667612
 20
1.5521554203
 10
43.310868681
 20
1.5586058575
 10
43.3044239833
 20
1.5644961256
 10
43.2974434867
 20
1.5698428072
 10
43.2900874815
 20
1.5745286636
 10
43.2823430401
 20
1.5785389029
 10
43.2742230901
 20
1.5818883171
 10
43.2659267043
 20
1.5845040432
 10
43.2575202405
 20
1.5863617935
 10
43.2489373408
 20
1.5874858558
 10
43.2401780054
 20
1.58787623
  0
LWPOLYLINE
  5
58D
100
AcDbEntity
  8
RACCORDO
100
AcDbPolyline
 62
253
  6
CONTINUOUS
 90
19
 70
0
 10
43.8401551592
 20
1.4878800377
 10
43.837868942
 20
1.5401696267
 10
43.8310343083
 20
1.5920612264
 10
43.8197032749
 20
1.6431599528
 10
43.8039620803
 20
1.6930769515
 10
43.7839305139
 20
1.7414323691
 10
43.7597609984
 20
1.7878582419
 10
43.7316374615
 20
1.8320012691
 10
43.6997739166
 20
1.8735255344
 10
43.6644128063
 20
1.9121150665
 10
43.6258231628
 20
1.947476232
 10
43.5842986841
 20
1.9793398779
 10
43.5401554941
 20
2.0074634405
 10
43.4937295927
 20
2.0316328909
 10
43.4453742281
 20
2.0516643634
 10
43.3954573343
 20
2.0674054645
 10
43.3443587531
 20
2.0787364188
 10
43.2924673499
 20
2.085570996
 10
43.2401780054
 20
2.0878571915
  0
LWPOLYLINE
  5
58E
100
AcDbEntity
  8
ASSI
100
AcDbPolyline
 62
253
  6
CONTINUOUS
 90
19
 70
0
 10
43.8401551592
 20
1.4878800377
 10
43.837868942
 20
1.5401696267
 10
43.8310343083
 20
1.5920612264
 10
43.8197032749
 20
1.6431599528
 10
43.8039620803
 20
1.6930769515
 10
43.7839305139
 20
1.7414323691
 10
43.7597609984
 20
1.7878582419
 10
43.7316374615
 20
1.8320012691
 10
43.6997739166
 20
1.8735255344
 10
43.6644128063
 20
1.9121150665
 10
43.6258231628
 20
1.947476232
 10
43.5842986841
 20
1.9793398779
 10
43.5401554941
 20
2.0074634405
 10
43.4937295927
 20
2.0316328909
 10
43.4453742281
 20
2.0516643634
 10
43.3954573343
 20
2.0674054645
 10
43.3443587531
 20
2.0787364188
 10
43.2924673499
 20
2.085570996
 10
43.2401780054
 20
2.0878571915
  0
LINE
  5
58F
100
AcDbEntity
  8
RACCORDO
100
AcDbLine
 62
7
  6
CONTINUOUS
 10
43.8609908231
 20
-4.4403994028
 11
43.862301137
 21
-4.482270845
  0
LINE
  5
590
100
AcDbEntity
  8
ASSI
100
AcDbLine
 62
7
  6
CONTINUOUS
 10
43.8609908231
 20
-4.4403994028
 11
43.862301137
 21
-4.482270845
  0
LINE
  5
591
100
AcDbEntity
  8
RACCORDO
100
AcDbLine
 62
7
  6
CONTINUOUS
 10
43.8584510607
 20
-4.3339266592
 11
43.8609908231
 21
-4.4403994028
  0
LINE
  5
592
100
AcDbEntity
  8
ASSI
100
AcDbLine
 62
7
  6
CONTINUOUS
 10
43.8584510607
 20
-4.3339266592
 11
43.8609908231
 21
-4.4403994028
  0
LINE
  5
593
100
AcDbEntity
  8
RACCORDO
100
AcDbLine
 62
7
  6
CONTINUOUS
 10
43.8548435804
 20
-4.1173928956
 11
43.8584510607
 21
-4.3339266592
  0
LINE
  5
594
100
AcDbEntity
  8
ASSI
100
AcDbLine
 62
7
  6
CONTINUOUS
 10
43.8548435804
 20
-4.1173928956
 11
43.8584510607
 21
-4.3339266592
  0
LINE
  5
595
100
AcDbEntity
  8
RACCORDO
100
AcDbLine
 62
7
  6
CONTINUOUS
 10
43.8505922929
 20
-3.7338336117
 11
43.8548435804
 21
-4.1173928956
  0
LINE
  5
596
100
AcDbEntity
  8
ASSI
100
AcDbLine
 62
7
  6
CONTINUOUS
 10
43.8505922929
 20
-3.7338336117
 11
43.8548435804
 21
-4.1173928956
  0
LINE
  5
597
100
AcDbEntity
  8
RACCORDO
100
AcDbLine
 62
7
  6
CONTINUOUS
 10
43.8505922929
 20
-3.7338336117
 11
43.8476536964
 21
-3.3124789696
  0
LINE
  5
598
100
AcDbEntity
  8
ASSI
100
AcDbLine
 62
7
  6
CONTINUOUS
 10
43.8505922929
 20
-3.7338336117
 11
43.8476536964
 21
-3.3124789696
  0
LINE
  5
599
100
AcDbEntity
  8
DRAFT
100
AcDbLine
 62
7
  6
CONTINUOUS
 10
43.0292647047
 20
2.1293478912
 11
43.0292647047
 21
2.1214825339
  0
LINE
  5
59A
100
AcDbEntity
  8
DRAFT
100
AcDbLine
 62
7
  6
CONTINUOUS
 10
43.0292647047
 20
-5.3627867516
 11
43.0292647047
 21
-5.3706521088
  0
LINE
  5
59B
100
AcDbEntity
  8
DRAFT
100
AcDbLine
 62
7
  6
CONTINUOUS
 10
43.0816458589
 20
2.1817290454
 11
43.0816458589
 21
2.1162575895
  0
LINE
  5
59C
100
AcDbEntity
  8
DRAFT
100
AcDbLine
 62
7
  6
CONTINUOUS
 10
43.0816458589
 20
-5.3575618071
 11
43.0816458589
 21
-5.4230332631
  0
LINE
  5
59D
100
AcDbEntity
  8
DRAFT
100
AcDbLine
 62
7
  6
CONTINUOUS
 10
43.0816458589
 20
-4.5706521088
 11
43.0816458589
 21
1.3293478912
  0
LINE
  5
59E
100
AcDbEntity
  8
DRAFT
100
AcDbLine
 62
7
  6
CONTINUOUS
 10
43.0851368719
 20
-4.5741431218
 11
43.0851368719
 21
1.3328389042
  0
LINE
  5
59F
100
AcDbEntity
  8
ASSI
100
AcDbLine
 62
7
  6
CONTINUOUS
 10
43.0851368719
 20
-4.5741431218
 11
43.0851368719
 21
1.3328389042
  0
LINE
  5
5A0
100
AcDbEntity
  8
RACCORDO
100
AcDbLine
 62
253
  6
CONTINUOUS
 10
43.2401780054
 20
-4.8291804476
 11
43.2401779989
 21
-5.3291614092
  0
LINE
  5
5A1
100
AcDbEntity
  8
ASSI
100
AcDbLine
 62
253
  6
CONTINUOUS
 10
43.2401780054
 20
-4.8291804476
 11
43.2401779989
 21
-5.3291614092
  0
LINE
  5
5A2
100
AcDbEntity
  8
RACCORDO
100
AcDbLine
 62
253
  6
CONTINUOUS
 10
43.2401780054
 20
1.58787623
 11
43.2401780054
 21
2.0878571915
  0
LINE
  5
5A3
100
AcDbEntity
  8
ASSI
100
AcDbLine
 62
253
  6
CONTINUOUS
 10
43.2401780054
 20
1.58787623
 11
43.2401780054
 21
2.0878571915
  0
LINE
  5
5A4
100
AcDbEntity
  8
RACCORDO
100
AcDbLine
 62
253
  6
CONTINUOUS
 10
43.3401741977
 20
-4.7291842553
 11
43.3401741977
 21
1.4878800377
  0
LINE
  5
5A5
100
AcDbEntity
  8
ASSI
100
AcDbLine
 62
253
  6
CONTINUOUS
 10
43.3401741977
 20
-4.7291842553
 11
43.3401741977
 21
1.4878800377
  0
LINE
  5
5A6
100
AcDbEntity
  8
RACCORDO
100
AcDbLine
 62
7
  6
CONTINUOUS
 10
43.8401551592
 20
-4.7291842553
 11
43.8401551592
 21
1.4878800377
  0
LINE
  5
5A7
100
AcDbEntity
  8
ASSI
100
AcDbLine
 62
7
  6
CONTINUOUS
 10
43.8401551592
 20
-4.7291842553
 11
43.8401551592
 21
1.4878800377
  0
LINE
  5
5A8
100
AcDbEntity
  8
RACCORDO
100
AcDbLine
 62
7
  6
CONTINUOUS
 10
43.8476536964
 20
-3.3124789696
 11
43.8467383877
 21
-0.3746585294
  0
LINE
  5
5A9
100
AcDbEntity
  8
ASSI
100
AcDbLine
 62
7
  6
CONTINUOUS
 10
43.8476536964
 20
-3.3124789696
 11
43.8467383877
 21
-0.3746585294
  0
LINE
  5
5AA
100
AcDbEntity
  8
RACCORDO
100
AcDbLine
 62
7
  6
CONTINUOUS
 10
43.8685555572
 20
1.5162804356
 11
43.8685555572
 21
1.2793478912
  0
LINE
  5
5AB
100
AcDbEntity
  8
ASSI
100
AcDbLine
 62
7
  6
CONTINUOUS
 10
43.8685555572
 20
1.5162804356
 11
43.8685555572
 21
1.2793478912
  0
LINE
  5
5AC
100
AcDbEntity
  8
RACCORDO
100
AcDbLine
 62
7
  6
CONTINUOUS
 10
43.8685555572
 20
-4.5206521088
 11
43.8685555572
 21
-4.7575846533
  0
LINE
  5
5AD
100
AcDbEntity
  8
ASSI
100
AcDbLine
 62
7
  6
CONTINUOUS
 10
43.8685555572
 20
-4.5206521088
 11
43.8685555572
 21
-4.7575846533
  0
LINE
  5
5AE
100
AcDbEntity
  8
RACCORDO
100
AcDbLine
 62
7
  6
CONTINUOUS
 10
43.9340270131
 20
-4.8233987669
 11
43.9340270131
 21
-4.5206521088
  0
LINE
  5
5AF
100
AcDbEntity
  8
RACCORDO
100
AcDbLine
 62
7
  6
CONTINUOUS
 10
43.9340270131
 20
1.2793478912
 11
43.9340270131
 21
1.5820945492
  0
LINE
  5
5B0
100
AcDbEntity
  8
RACCORDO
100
AcDbLine
 62
7
  6
CONTINUOUS
 10
43.8467383877
 20
-0.3746585294
 11
43.8476536964
 21
0.071174752
  0
LINE
  5
5B1
100
AcDbEntity
  8
ASSI
100
AcDbLine
 62
7
  6
CONTINUOUS
 10
43.8467383877
 20
-0.3746585294
 11
43.8476536964
 21
0.071174752
  0
LINE
  5
5B2
100
AcDbEntity
  8
RACCORDO
100
AcDbLine
 62
7
  6
CONTINUOUS
 10
43.8505922929
 20
0.4925293909
 11
43.8476536964
 21
0.071174752
  0
LINE
  5
5B3
100
AcDbEntity
  8
ASSI
100
AcDbLine
 62
7
  6
CONTINUOUS
 10
43.8505922929
 20
0.4925293909
 11
43.8476536964
 21
0.071174752
  0
LINE
  5
5B4
100
AcDbEntity
  8
RACCORDO
100
AcDbLine
 62
7
  6
CONTINUOUS
 10
43.8548435803
 20
0.8760886744
 11
43.8505922929
 21
0.4925293909
  0
LINE
  5
5B5
100
AcDbEntity
  8
ASSI
100
AcDbLine
 62
7
  6
CONTINUOUS
 10
43.8548435803
 20
0.8760886744
 11
43.8505922929
 21
0.4925293909
  0
LINE
  5
5B6
100
AcDbEntity
  8
RACCORDO
100
AcDbLine
 62
7
  6
CONTINUOUS
 10
43.8584510606
 20
1.0926224375
 11
43.8548435803
 21
0.8760886744
  0
LINE
  5
5B7
100
AcDbEntity
  8
ASSI
100
AcDbLine
 62
7
  6
CONTINUOUS
 10
43.8584510606
 20
1.0926224375
 11
43.8548435803
 21
0.8760886744
  0
LWPOLYLINE
  5
5B8
100
AcDbEntity
  8
RACCORDO
100
AcDbPolyline
 62
7
  6
CONTINUOUS
 90
3
 70
0
 10
43.862301137
 20
1.2409666274
 10
43.860990823
 20
1.1990951833
 10
43.8584510606
 20
1.0926224375
  0
LWPOLYLINE
  5
5B9
100
AcDbEntity
  8
ASSI
100
AcDbPolyline
 62
7
  6
CONTINUOUS
 90
3
 70
0
 10
43.862301137
 20
1.2409666274
 10
43.860990823
 20
1.1990951833
 10
43.8584510606
 20
1.0926224375
  0
LWPOLYLINE
  5
5BA
100
AcDbEntity
  8
RACCORDO
100
AcDbPolyline
 62
7
  6
CONTINUOUS
 90
10
 70
0
 10
43.862301137
 20
1.2409666274
 10
43.8625164329
 20
1.2468128985
 10
43.8627326724
 20
1.2520271827
 10
43.8629498554
 20
1.25660948
 10
43.8631681224
 20
1.2605619189
 10
43.863387333
 20
1.2638823709
 10
43.8636070656
 20
1.2665644508
 10
43.8638271798
 20
1.2686060302
 10
43.8640478161
 20
1.2700092376
 10
43.8642689746
 20
1.270774073
  0
LWPOLYLINE
  5
5BB
100
AcDbEntity
  8
ASSI
100
AcDbPolyline
 62
7
  6
CONTINUOUS
 90
10
 70
0
 10
43.862301137
 20
1.2409666274
 10
43.8625164329
 20
1.2468128985
 10
43.8627326724
 20
1.2520271827
 10
43.8629498554
 20
1.25660948
 10
43.8631681224
 20
1.2605619189
 10
43.863387333
 20
1.2638823709
 10
43.8636070656
 20
1.2665644508
 10
43.8638271798
 20
1.2686060302
 10
43.8640478161
 20
1.2700092376
 10
43.8642689746
 20
1.270774073
  0
LWPOLYLINE
  5
5BC
100
AcDbEntity
  8
RACCORDO
100
AcDbPolyline
 62
7
  6
CONTINUOUS
 90
16
 70
0
 10
43.8685555572
 20
-4.7575846533
 10
43.8649731196
 20
-4.821404941
 10
43.8551847062
 20
-4.8832079283
 10
43.8391903171
 20
-4.9429936151
 10
43.816680983
 20
-5.0013681835
 10
43.7879656732
 20
-5.0577254514
 10
43.7539712957
 20
-5.1102468731
 10
43.7145257475
 20
-5.1588073399
 10
43.6698011316
 20
-5.2035319604
 10
43.6212406657
 20
-5.2429775147
 10
43.5687192393
 20
-5.2769718999
 10
43.5123619629
 20
-5.3056872189
 10
43.4539873862
 20
-5.3281965603
 10
43.3942016923
 20
-5.3441909535
 10
43.332398698
 20
-5.3539793691
 10
43.2685784034
 20
-5.3575618071
  0
LWPOLYLINE
  5
5BD
100
AcDbEntity
  8
ASSI
100
AcDbPolyline
 62
7
  6
CONTINUOUS
 90
16
 70
0
 10
43.8685555572
 20
-4.7575846533
 10
43.8649731196
 20
-4.821404941
 10
43.8551847062
 20
-4.8832079283
 10
43.8391903171
 20
-4.9429936151
 10
43.816680983
 20
-5.0013681835
 10
43.7879656732
 20
-5.0577254514
 10
43.7539712957
 20
-5.1102468731
 10
43.7145257475
 20
-5.1588073399
 10
43.6698011316
 20
-5.2035319604
 10
43.6212406657
 20
-5.2429775147
 10
43.5687192393
 20
-5.2769718999
 10
43.5123619629
 20
-5.3056872189
 10
43.4539873862
 20
-5.3281965603
 10
43.3942016923
 20
-5.3441909535
 10
43.332398698
 20
-5.3539793691
 10
43.2685784034
 20
-5.3575618071
  0
LWPOLYLINE
  5
5BE
100
AcDbEntity
  8
RACCORDO
100
AcDbPolyline
 62
253
  6
CONTINUOUS
 90
22
 70
0
 10
57.8511037507
 20
-0.0583532293
 10
57.8573294737
 20
-0.0551222242
 10
57.8635130312
 20
-0.0516474256
 10
57.86963467
 20
-0.0479288337
 10
57.8756715717
 20
-0.0439680615
 10
57.8816040756
 20
-0.0397634959
 10
57.887414944
 20
-0.0353102973
 10
57.8930799425
 20
-0.0306053838
 10
57.8985731457
 20
-0.0256518373
 10
57.9038719216
 20
-0.0204540646
 10
57.9089467588
 20
-0.015009877
 10
57.9137701595
 20
-0.0093214633
 10
57.9183188868
 20
-0.0033997964
 10
57.9225587112
 20
0.0027564456
 10
57.9264589435
 20
0.0091459408
 10
57.929995274
 20
0.0157537496
 10
57.9331255397
 20
0.0225750233
 10
57.9358169671
 20
0.0296146107
 10
57.9380441675
 20
0.0368721193
 10
57.939760079
 20
0.0443474183
 10
57.9409082768
 20
0.0520406385
 10
57.9414379821
 20
0.0599517798
  0
LINE
  5
5BF
100
AcDbEntity
  8
RACCORDO
100
AcDbLine
 62
253
  6
CONTINUOUS
 10
57.7414687439
 20
-0.1131707657
 11
57.8511037507
 21
-0.0583532293
  0
LINE
  5
5C0
100
AcDbEntity
  8
RACCORDO
100
AcDbLine
 62
253
  6
CONTINUOUS
 10
57.8511037507
 20
-3.1829509597
 11
57.7414687439
 21
-3.128133452
  0
LINE
  5
5C1
100
AcDbEntity
  8
RACCORDO
100
AcDbLine
 62
7
  6
CONTINUOUS
 10
57.0006818537
 20
1.2698327937
 11
56.9850160641
 21
1.277663302
  0
LINE
  5
5C2
100
AcDbEntity
  8
ASSI
100
AcDbLine
 62
7
  6
CONTINUOUS
 10
49.1816458589
 20
-2.1206521088
 11
49.1816458589
 21
-1.1206521088
  0
LINE
  5
5C3
100
AcDbEntity
  8
RACCORDO
100
AcDbLine
 62
7
  6
CONTINUOUS
 10
56.8816458589
 20
1.2793478912
 11
56.8730720407
 21
1.270774073
  0
LINE
  5
5C4
100
AcDbEntity
  8
ASSI
100
AcDbLine
 62
7
  6
CONTINUOUS
 10
56.8816458589
 20
1.2793478912
 11
56.8730720407
 21
1.270774073
  0
LINE
  5
5C5
100
AcDbEntity
  8
RACCORDO
100
AcDbLine
 62
253
  6
CONTINUOUS
 10
57.8816610894
 20
1.2793478912
 11
57.8721458635
 21
1.2698326653
  0
LINE
  5
5C6
100
AcDbEntity
  8
RACCORDO
100
AcDbLine
 62
7
  6
CONTINUOUS
 10
57.0006818537
 20
-4.5111370114
 11
56.9850160641
 21
-4.5189675196
  0
LINE
  5
5C7
100
AcDbEntity
  8
RACCORDO
100
AcDbLine
 62
7
  6
CONTINUOUS
 10
56.8816458589
 20
-4.5206521088
 11
56.8730720407
 21
-4.5120782906
  0
LINE
  5
5C8
100
AcDbEntity
  8
ASSI
100
AcDbLine
 62
7
  6
CONTINUOUS
 10
56.8816458589
 20
-4.5206521088
 11
56.8730720407
 21
-4.5120782906
  0
LINE
  5
5C9
100
AcDbEntity
  8
RACCORDO
100
AcDbLine
 62
253
  6
CONTINUOUS
 10
57.8721458635
 20
-4.511136883
 11
57.8816610894
 21
-4.5206521088
  0
LINE
  5
5CA
100
AcDbEntity
  8
RACCORDO
100
AcDbLine
 62
253
  6
CONTINUOUS
 10
57.9721307614
 20
-4.4111522419
 11
57.9816153956
 21
-4.420636876
  0
LINE
  5
5CB
100
AcDbEntity
  8
ASSI
100
AcDbLine
 62
7
  6
CONTINUOUS
 10
50.2399463833
 20
-2.1206521088
 11
50.2399463833
 21
-1.1206521088
  0
LWPOLYLINE
  5
5CC
100
AcDbEntity
  8
RACCORDO
100
AcDbPolyline
 62
7
  6
CONTINUOUS
 90
13
 70
0
 10
56.8816458589
 20
0.2293478912
 10
56.8804375092
 20
0.228040525
 10
56.879234435
 20
0.2241766409
 10
56.8780366365
 20
0.217756239
 10
56.8768425484
 20
0.2087632856
 10
56.8756537359
 20
0.1972138143
 10
56.8744748947
 20
0.1831559258
 10
56.8733059742
 20
0.1665789783
 10
56.8721470251
 20
0.1474936135
 10
56.8710028948
 20
0.125979858
 10
56.8698736664
 20
0.1020281245
 10
56.8687592569
 20
0.0756480002
 10
56.8665887682
 20
0.0159196174
  0
LWPOLYLINE
  5
5CD
100
AcDbEntity
  8
ASSI
100
AcDbPolyline
 62
7
  6
CONTINUOUS
 90
13
 70
0
 10
56.8816458589
 20
0.2293478912
 10
56.8804375092
 20
0.228040525
 10
56.879234435
 20
0.2241766409
 10
56.8780366365
 20
0.217756239
 10
56.8768425484
 20
0.2087632856
 10
56.8756537359
 20
0.1972138143
 10
56.8744748947
 20
0.1831559258
 10
56.8733059742
 20
0.1665789783
 10
56.8721470251
 20
0.1474936135
 10
56.8710028948
 20
0.125979858
 10
56.8698736664
 20
0.1020281245
 10
56.8687592569
 20
0.0756480002
 10
56.8665887682
 20
0.0159196174
  0
LWPOLYLINE
  5
5CE
100
AcDbEntity
  8
RACCORDO
100
AcDbPolyline
 62
253
  6
CONTINUOUS
 90
22
 70
0
 10
57.7962862803
 20
-0.0035357589
 10
57.7994160648
 20
-0.0001907037
 10
57.8025041942
 20
0.0034072232
 10
57.8055506686
 20
0.0072572757
 10
57.80856615
 20
0.0113557439
 10
57.8115399764
 20
0.0157046836
 10
57.8144401619
 20
0.0203118822
 10
57.8172687012
 20
0.0251794695
 10
57.8200235996
 20
0.0303032276
 10
57.8226668873
 20
0.0356812995
 10
57.8251999251
 20
0.0413145479
 10
57.8276213521
 20
0.0471996459
 10
57.8298891164
 20
0.053328392
 10
57.8320050998
 20
0.0597007981
 10
57.8339674206
 20
0.066314068
 10
57.8357283811
 20
0.0731557879
 10
57.8372912132
 20
0.0802193671
 10
57.838652685
 20
0.0875083818
 10
57.8397554032
 20
0.0950256081
 10
57.8405802366
 20
0.1027707987
 10
57.8411463163
 20
0.1107407129
 10
57.8414536423
 20
0.1189335069
  0
LINE
  5
5CF
100
AcDbEntity
  8
RACCORDO
100
AcDbLine
 62
253
  6
CONTINUOUS
 10
57.9816153956
 20
1.1793326584
 11
57.9721307614
 21
1.1698480242
  0
LINE
  5
5D0
100
AcDbEntity
  8
RACCORDO
100
AcDbLine
 62
7
  6
CONTINUOUS
 10
57.9810670564
 20
0.279058512
 11
57.9851265491
 21
0.2831180047
  0
LWPOLYLINE
  5
5D1
100
AcDbEntity
  8
RACCORDO
100
AcDbPolyline
 62
253
  6
CONTINUOUS
 90
10
 70
0
 10
57.7962862803
 20
-0.0035357647
 10
57.8030626272
 20
-0.008490163
 10
57.8097859912
 20
-0.0138344395
 10
57.8164038024
 20
-0.0195268071
 10
57.8228643164
 20
-0.0255227573
 10
57.8291170183
 20
-0.0317754077
 10
57.8351130183
 20
-0.0382358689
 10
57.8408054339
 20
-0.0448536266
 10
57.8461497559
 20
-0.0515769366
 10
57.8511041972
 20
-0.0583532292
  0
LINE
  5
5D2
100
AcDbEntity
  8
RACCORDO
100
AcDbLine
 62
7
  6
CONTINUOUS
 10
57.9851265491
 20
-3.5244222223
 11
57.9810670564
 21
-3.5203627296
  0
LWPOLYLINE
  5
5D3
100
AcDbEntity
  8
RACCORDO
100
AcDbPolyline
 62
253
  6
CONTINUOUS
 90
22
 70
0
 10
57.7962862516
 20
-3.2377684588
 10
57.7994901885
 20
-3.2411989031
 10
57.802643054
 20
-3.2448816733
 10
57.8057448481
 20
-3.2488160064
 10
57.8088072918
 20
-3.2530021885
 10
57.8118186641
 20
-3.2574382361
 10
57.8147438021
 20
-3.2621199089
 10
57.8175823887
 20
-3.267047065
 10
57.820334741
 20
-3.2722178304
 10
57.822966647
 20
-3.2776253167
 10
57.8254788571
 20
-3.2832690784
 10
57.8278706208
 20
-3.2891472508
 10
57.8301054748
 20
-3.2952507948
 10
57.8321847092
 20
-3.3015746289
 10
57.8341070338
 20
-3.3081212778
 10
57.8358321144
 20
-3.3148930453
 10
57.8373484185
 20
-3.3217450214
 10
57.8386674784
 20
-3.328819757
 10
57.8397835573
 20
-3.3365479011
 10
57.8406947427
 20
-3.345068462
 10
57.841402947
 20
-3.354231836
 10
57.8419081701
 20
-3.3640323508
  0
LWPOLYLINE
  5
5D4
100
AcDbEntity
  8
RACCORDO
100
AcDbPolyline
 62
7
  6
CONTINUOUS
 90
3
 70
0
 10
57.5022789742
 20
-3.1903173077
 10
57.5145856066
 20
-3.1780494144
 10
57.5519051166
 20
-3.14062985
  0
LINE
  5
5D5
100
AcDbEntity
  8
RACCORDO
100
AcDbLine
 62
7
  6
CONTINUOUS
 10
57.5519051166
 20
-3.14062985
 11
57.5644885714
 21
-3.128133452
  0
LWPOLYLINE
  5
5D6
100
AcDbEntity
  8
RACCORDO
100
AcDbPolyline
 62
7
  6
CONTINUOUS
 90
3
 70
0
 10
57.4548535646
 20
-3.2377684588
 10
57.4664459973
 20
-3.2262830877
 10
57.5022789742
 20
-3.1903173077
  0
LWPOLYLINE
  5
5D7
100
AcDbEntity
  8
RACCORDO
100
AcDbPolyline
 62
7
  6
CONTINUOUS
 90
10
 70
0
 10
57.0006818537
 20
1.2698327937
 10
57.001076367
 20
1.2695075234
 10
57.0014701249
 20
1.2689282117
 10
57.0018631274
 20
1.2680948586
 10
57.0022555759
 20
1.2670067723
 10
57.0026472691
 20
1.2656646446
 10
57.0030376021
 20
1.2640705509
 10
57.0034263735
 20
1.262225183
 10
57.0038137848
 20
1.2601278491
 10
57.0041998359
 20
1.2577785492
  0
LWPOLYLINE
  5
5D8
100
AcDbEntity
  8
RACCORDO
100
AcDbPolyline
 62
7
  6
CONTINUOUS
 90
3
 70
0
 10
57.5023047156
 20
-0.0509611685
 10
57.4663389357
 20
-0.0151281916
 10
57.4548535646
 20
-0.0035357589
  0
LWPOLYLINE
  5
5D9
100
AcDbEntity
  8
RACCORDO
100
AcDbPolyline
 62
7
  6
CONTINUOUS
 90
3
 70
0
 10
57.5519921734
 20
-0.1005873109
 10
57.5145726089
 20
-0.0632678009
 10
57.5023047156
 20
-0.0509611685
  0
LINE
  5
5DA
100
AcDbEntity
  8
RACCORDO
100
AcDbLine
 62
7
  6
CONTINUOUS
 10
57.5644885714
 20
-0.1131707657
 11
57.5519921734
 21
-0.1005873109
  0
LWPOLYLINE
  5
5DB
100
AcDbEntity
  8
RACCORDO
100
AcDbPolyline
 62
7
  6
CONTINUOUS
 90
10
 70
0
 10
56.8730720407
 20
1.270774073
 10
56.8726296887
 20
1.270009232
 10
56.8721883813
 20
1.2686060186
 10
56.8717481185
 20
1.2665644328
 10
56.8713086192
 20
1.2638823438
 10
56.8708701645
 20
1.2605618824
 10
56.8704335975
 20
1.2566094409
 10
56.8699991992
 20
1.2520271499
 10
56.8695666886
 20
1.2468128787
 10
56.8691360657
 20
1.2409666274
  0
LWPOLYLINE
  5
5DC
100
AcDbEntity
  8
ASSI
100
AcDbPolyline
 62
7
  6
CONTINUOUS
 90
10
 70
0
 10
56.8730720407
 20
1.270774073
 10
56.8726296887
 20
1.270009232
 10
56.8721883813
 20
1.2686060186
 10
56.8717481185
 20
1.2665644328
 10
56.8713086192
 20
1.2638823438
 10
56.8708701645
 20
1.2605618824
 10
56.8704335975
 20
1.2566094409
 10
56.8699991992
 20
1.2520271499
 10
56.8695666886
 20
1.2468128787
 10
56.8691360657
 20
1.2409666274
  0
LWPOLYLINE
  5
5DD
100
AcDbEntity
  8
RACCORDO
100
AcDbPolyline
 62
7
  6
CONTINUOUS
 90
10
 70
0
 10
57.1097219226
 20
-3.6636382241
 10
57.0988860212
 20
-3.675728644
 10
57.0890697418
 20
-3.6885131829
 10
57.0802730843
 20
-3.7019778223
 10
57.0724086445
 20
-3.7161501944
 10
57.0655638266
 20
-3.7309710305
 10
57.0600008433
 20
-3.7462972247
 10
57.0558070988
 20
-3.7620720337
 10
57.0528951888
 20
-3.7783219702
 10
57.0512651134
 20
-3.7950304233
  0
LWPOLYLINE
  5
5DE
100
AcDbEntity
  8
RACCORDO
100
AcDbPolyline
 62
7
  6
CONTINUOUS
 90
9
 70
0
 10
57.4548535646
 20
-3.2377684588
 10
57.4510059724
 20
-3.241712827
 10
57.4472374432
 20
-3.2457509471
 10
57.4435479771
 20
-3.2498824907
 10
57.439937733
 20
-3.2541099143
 10
57.4364065519
 20
-3.2584300703
 10
57.4329539572
 20
-3.2628342405
 10
57.4295797901
 20
-3.2673193057
 10
57.4262842094
 20
-3.2718877128
  0
LINE
  5
5DF
100
AcDbEntity
  8
RACCORDO
100
AcDbLine
 62
253
  6
CONTINUOUS
 10
57.9851265491
 20
-4.4171257225
 11
57.9816153956
 21
-4.420636876
  0
LINE
  5
5E0
100
AcDbEntity
  8
RACCORDO
100
AcDbLine
 62
253
  6
CONTINUOUS
 10
57.9816153956
 20
1.1793326584
 11
57.9851265491
 21
1.1758215049
  0
LWPOLYLINE
  5
5E1
100
AcDbEntity
  8
RACCORDO
100
AcDbPolyline
 62
7
  6
CONTINUOUS
 90
6
 70
0
 10
57.1097219226
 20
0.4223340064
 10
57.1675801494
 20
0.3601525766
 10
57.2231847716
 20
0.2970371112
 10
57.2765357893
 20
0.2329876101
 10
57.3276332024
 20
0.1680040732
 10
57.376477011
 20
0.1020865007
  0
LINE
  5
5E2
100
AcDbEntity
  8
RACCORDO
100
AcDbLine
 62
253
  6
CONTINUOUS
 10
57.9582282694
 20
1.2436154196
 11
57.9617441257
 21
1.2401024065
  0
LWPOLYLINE
  5
5E3
100
AcDbEntity
  8
RACCORDO
100
AcDbPolyline
 62
7
  6
CONTINUOUS
 90
6
 70
0
 10
57.952319785
 20
1.2500648557
 10
57.9582282694
 20
1.2436154196
 10
57.9682243193
 20
1.2293327474
 10
57.9755880757
 20
1.2135326804
 10
57.9800970236
 20
1.1966954694
 10
57.9816153956
 20
1.1793326584
  0
LWPOLYLINE
  5
5E4
100
AcDbEntity
  8
RACCORDO
100
AcDbPolyline
 62
253
  6
CONTINUOUS
 90
6
 70
0
 10
57.8721458895
 20
1.2698326653
 10
57.8719091014
 20
1.269250169
 10
57.8716732467
 20
1.2680947498
 10
57.8714383254
 20
1.2663675983
 10
57.8712043374
 20
1.2640705619
 10
57.8709712828
 20
1.261206143
  0
LINE
  5
5E5
100
AcDbEntity
  8
RACCORDO
100
AcDbLine
 62
7
  6
CONTINUOUS
 10
57.9852591947
 20
0.2834226373
 11
57.9851265491
 21
0.2831180047
  0
LINE
  5
5E6
100
AcDbEntity
  8
RACCORDO
100
AcDbLine
 62
253
  6
CONTINUOUS
 10
57.7962862803
 20
-0.0035357589
 11
57.7414687439
 21
-0.1131707657
  0
LWPOLYLINE
  5
5E7
100
AcDbEntity
  8
RACCORDO
100
AcDbPolyline
 62
253
  6
CONTINUOUS
 90
7
 70
0
 10
57.9721307614
 20
1.1698480242
 10
57.9718929512
 20
1.1693732124
 10
57.9716564808
 20
1.1684454323
 10
57.9714213503
 20
1.1670646839
 10
57.9711875595
 20
1.1652309671
 10
57.9709551085
 20
1.162944282
 10
57.9707239973
 20
1.1602046286
  0
LWPOLYLINE
  5
5E8
100
AcDbEntity
  8
RACCORDO
100
AcDbPolyline
 62
7
  6
CONTINUOUS
 90
7
 70
0
 10
57.4262842094
 20
-3.2718877128
 10
57.3764771033
 20
-3.3433906041
 10
57.3276333501
 20
-3.4093081081
 10
57.2765359554
 20
-3.4742916221
 10
57.2231849192
 20
-3.538341146
 10
57.1675802417
 20
-3.60145668
 10
57.1097219226
 20
-3.6636382241
  0
LWPOLYLINE
  5
5E9
100
AcDbEntity
  8
RACCORDO
100
AcDbPolyline
 62
253
  6
CONTINUOUS
 90
10
 70
0
 10
57.8511039653
 20
-3.1829509596
 10
57.8461495715
 20
-3.1897272822
 10
57.84080529
 20
-3.196450617
 10
57.8351129081
 20
-3.2030683937
 10
57.8291169352
 20
-3.2095288674
 10
57.8228642543
 20
-3.2157815231
 10
57.8164037557
 20
-3.2217774707
 10
57.8097859546
 20
-3.2274698274
 10
57.8030625964
 20
-3.2328140843
 10
57.7962862516
 20
-3.2377684542
  0
LWPOLYLINE
  5
5EA
100
AcDbEntity
  8
RACCORDO
100
AcDbPolyline
 62
7
  6
CONTINUOUS
 90
4
 70
0
 10
57.955719467
 20
-4.4879554706
 10
57.9661634947
 20
-4.4757329379
 10
57.9743820445
 20
-4.4622853355
 10
57.9807140845
 20
-4.4467120011
  0
LINE
  5
5EB
100
AcDbEntity
  8
RACCORDO
100
AcDbLine
 62
253
  6
CONTINUOUS
 10
57.9582238482
 20
-4.4849247433
 11
57.9617454334
 21
-4.4814050656
  0
LWPOLYLINE
  5
5EC
100
AcDbEntity
  8
RACCORDO
100
AcDbPolyline
 62
7
  6
CONTINUOUS
 90
6
 70
0
 10
57.9523197098
 20
-4.4913690732
 10
57.9582238482
 20
-4.4849247433
 10
57.968219361
 20
-4.4706455564
 10
57.9755850617
 20
-4.4548462198
 10
57.9800963571
 20
-4.4380061998
 10
57.9816153956
 20
-4.420636876
  0
LINE
  5
5ED
100
AcDbEntity
  8
RACCORDO
100
AcDbLine
 62
253
  6
CONTINUOUS
 10
57.9682243193
 20
1.2293327474
 11
57.9717404094
 21
1.2258241976
  0
LWPOLYLINE
  5
5EE
100
AcDbEntity
  8
RACCORDO
100
AcDbPolyline
 62
7
  6
CONTINUOUS
 90
10
 70
0
 10
57.376477011
 20
0.1020865007
 10
57.4262842094
 20
0.0305834951
 10
57.4295797901
 20
0.026015088
 10
57.4329539572
 20
0.0215300229
 10
57.4364065519
 20
0.0171258527
 10
57.439937733
 20
0.0128056966
 10
57.4435479771
 20
0.0085782731
 10
57.4472374432
 20
0.0044467294
 10
57.4510059724
 20
0.0004086093
 10
57.4548535646
 20
-0.0035357589
  0
LINE
  5
5EF
100
AcDbEntity
  8
RACCORDO
100
AcDbLine
 62
253
  6
CONTINUOUS
 10
57.7414687439
 20
-3.128133452
 11
57.7962862516
 21
-3.2377684588
  0
LWPOLYLINE
  5
5F0
100
AcDbEntity
  8
RACCORDO
100
AcDbPolyline
 62
7
  6
CONTINUOUS
 90
10
 70
0
 10
57.9810670564
 20
-3.5203627296
 10
57.9796645245
 20
-3.5172420671
 10
57.9782705598
 20
-3.510779371
 10
57.9768851624
 20
-3.5009746412
 10
57.9755059262
 20
-3.4877983867
 10
57.9741352572
 20
-3.4712800986
 10
57.9727803733
 20
-3.4515082501
 10
57.9714413302
 20
-3.4284653489
 10
57.9701180721
 20
-3.4021688873
 10
57.9688176498
 20
-3.3727598158
  0
LINE
  5
5F1
100
AcDbEntity
  8
RACCORDO
100
AcDbLine
 62
7
  6
CONTINUOUS
 10
57.9851265491
 20
-3.5244222223
 11
57.9852591947
 21
-3.5247268549
  0
LWPOLYLINE
  5
5F2
100
AcDbEntity
  8
RACCORDO
100
AcDbPolyline
 62
7
  6
CONTINUOUS
 90
10
 70
0
 10
57.0512651134
 20
0.5537262056
 10
57.0528945513
 20
0.5370203827
 10
57.0558058076
 20
0.5207724949
 10
57.0599988825
 20
0.5049991348
 10
57.0655609462
 20
0.4896738225
 10
57.0724048284
 20
0.474853237
 10
57.0802690182
 20
0.460680319
 10
57.0890663454
 20
0.4472142713
 10
57.0988839802
 20
0.4344274981
 10
57.1097219226
 20
0.4223340064
  0
LWPOLYLINE
  5
5F3
100
AcDbEntity
  8
RACCORDO
100
AcDbPolyline
 62
253
  6
CONTINUOUS
 90
10
 70
0
 10
57.9707239973
 20
1.1602046286
 10
57.9691460179
 20
1.1771073819
 10
57.9645925235
 20
1.1934990101
 10
57.9572012015
 20
1.2088838821
 10
57.9471955461
 20
1.2227968086
 10
57.9348780998
 20
1.2348171099
 10
57.920621303
 20
1.2445813345
 10
57.9048562359
 20
1.2517942457
 10
57.8880595852
 20
1.2562377501
 10
57.8707392278
 20
1.2577774925
  0
LWPOLYLINE
  5
5F4
100
AcDbEntity
  8
RACCORDO
100
AcDbPolyline
 62
253
  6
CONTINUOUS
 90
10
 70
0
 10
57.9721307614
 20
1.1698480242
 10
57.9706070541
 20
1.1872069464
 10
57.966092794
 20
1.2040386047
 10
57.9587251035
 20
1.219831775
 10
57.9487277725
 20
1.2341067765
 10
57.9364044564
 20
1.2464300463
 10
57.9221294498
 20
1.2564273049
 10
57.9063363252
 20
1.2637949163
 10
57.8895047661
 20
1.2683091125
 10
57.8721459919
 20
1.2698327937
  0
LINE
  5
5F5
100
AcDbEntity
  8
RACCORDO
100
AcDbLine
 62
253
  6
CONTINUOUS
 10
57.983612128
 20
1.1931877461
 11
57.9851265491
 21
1.1758215049
  0
LWPOLYLINE
  5
5F6
100
AcDbEntity
  8
RACCORDO
100
AcDbPolyline
 62
253
  6
CONTINUOUS
 90
7
 70
0
 10
57.9707239973
 20
-4.4015088462
 10
57.9709551085
 20
-4.4042484997
 10
57.9711875595
 20
-4.4065351848
 10
57.9714213503
 20
-4.4083689016
 10
57.9716564808
 20
-4.40974965
 10
57.9718929512
 20
-4.4106774301
 10
57.9721307614
 20
-4.4111522419
  0
LWPOLYLINE
  5
5F7
100
AcDbEntity
  8
RACCORDO
100
AcDbPolyline
 62
253
  6
CONTINUOUS
 90
6
 70
0
 10
57.8709712523
 20
-4.5025099487
 10
57.8712043252
 20
-4.5053746444
 10
57.8714383254
 20
-4.507671816
 10
57.8716732528
 20
-4.5093990052
 10
57.8719091075
 20
-4.5105544095
 10
57.8721458895
 20
-4.5111368829
  0
LWPOLYLINE
  5
5F8
100
AcDbEntity
  8
RACCORDO
100
AcDbPolyline
 62
7
  6
CONTINUOUS
 90
10
 70
0
 10
56.8691360657
 20
-4.482270845
 10
56.8695666886
 20
-4.4881170964
 10
56.8699991992
 20
-4.4933313675
 10
56.8704335975
 20
-4.4979136585
 10
56.8708701645
 20
-4.5018661001
 10
56.8713086192
 20
-4.5051865615
 10
56.8717481185
 20
-4.5078686505
 10
56.8721883813
 20
-4.5099102363
 10
56.8726296887
 20
-4.5113134497
 10
56.8730720407
 20
-4.5120782906
  0
LWPOLYLINE
  5
5F9
100
AcDbEntity
  8
ASSI
100
AcDbPolyline
 62
7
  6
CONTINUOUS
 90
10
 70
0
 10
56.8691360657
 20
-4.482270845
 10
56.8695666886
 20
-4.4881170964
 10
56.8699991992
 20
-4.4933313675
 10
56.8704335975
 20
-4.4979136585
 10
56.8708701645
 20
-4.5018661001
 10
56.8713086192
 20
-4.5051865615
 10
56.8717481185
 20
-4.5078686505
 10
56.8721883813
 20
-4.5099102363
 10
56.8726296887
 20
-4.5113134497
 10
56.8730720407
 20
-4.5120782906
  0
LWPOLYLINE
  5
5FA
100
AcDbEntity
  8
RACCORDO
100
AcDbPolyline
 62
7
  6
CONTINUOUS
 90
4
 70
0
 10
57.9852680735
 20
1.1755497161
 10
57.984268138
 20
1.189674013
 10
57.9800328299
 20
1.2075263144
 10
57.9730051486
 20
1.2236047318
  0
LWPOLYLINE
  5
5FB
100
AcDbEntity
  8
RACCORDO
100
AcDbPolyline
 62
253
  6
CONTINUOUS
 90
22
 70
0
 10
57.941438283
 20
-3.3012677374
 10
57.9409159354
 20
-3.2934191813
 10
57.939785075
 20
-3.285789113
 10
57.9380966721
 20
-3.2783775325
 10
57.9359074957
 20
-3.2711852262
 10
57.9332644859
 20
-3.2642114078
 10
57.9301919598
 20
-3.257453718
 10
57.9267245588
 20
-3.2509111656
 10
57.9229020543
 20
-3.244584742
 10
57.9187379005
 20
-3.2384750619
 10
57.9142565633
 20
-3.2325785695
 10
57.9094916816
 20
-3.2268988208
 10
57.9044609555
 20
-3.2214470986
 10
57.899188044
 20
-3.2162242777
 10
57.8937003844
 20
-3.2112294834
 10
57.8880174918
 20
-3.2064713737
 10
57.8821594664
 20
-3.2019513331
 10
57.8761518416
 20
-3.1976679772
 10
57.8700209442
 20
-3.1936258114
 10
57.863789795
 20
-3.1898263374
 10
57.857477518
 20
-3.1862680535
 10
57.8511037507
 20
-3.1829509597
  0
LWPOLYLINE
  5
5FC
100
AcDbEntity
  8
RACCORDO
100
AcDbPolyline
 62
7
  6
CONTINUOUS
 90
11
 70
0
 10
56.8698736985
 20
-3.3433330627
 10
56.8710029236
 20
-3.3672846499
 10
56.8721470497
 20
-3.3887982692
 10
56.873305994
 20
-3.4078835025
 10
56.8744749098
 20
-3.4244603408
 10
56.8756537466
 20
-3.4385181497
 10
56.8768425549
 20
-3.4500675636
 10
56.8780366397
 20
-3.459060477
 10
56.8792344362
 20
-3.4654808548
 10
56.8804375092
 20
-3.4693447321
 10
56.8816458589
 20
-3.4706521088
  0
LWPOLYLINE
  5
5FD
100
AcDbEntity
  8
ASSI
100
AcDbPolyline
 62
7
  6
CONTINUOUS
 90
11
 70
0
 10
56.8698736985
 20
-3.3433330627
 10
56.8710029236
 20
-3.3672846499
 10
56.8721470497
 20
-3.3887982692
 10
56.873305994
 20
-3.4078835025
 10
56.8744749098
 20
-3.4244603408
 10
56.8756537466
 20
-3.4385181497
 10
56.8768425549
 20
-3.4500675636
 10
56.8780366397
 20
-3.459060477
 10
56.8792344362
 20
-3.4654808548
 10
56.8804375092
 20
-3.4693447321
 10
56.8816458589
 20
-3.4706521088
  0
LWPOLYLINE
  5
5FE
100
AcDbEntity
  8
RACCORDO
100
AcDbPolyline
 62
253
  6
CONTINUOUS
 90
5
 70
0
 10
57.9614765835
 20
-4.2268314376
 10
57.9636878746
 20
-4.2791476953
 10
57.9659673945
 20
-4.3256643276
 10
57.9683127688
 20
-4.3664513779
 10
57.9707239973
 20
-4.4015088462
  0
LWPOLYLINE
  5
5FF
100
AcDbEntity
  8
RACCORDO
100
AcDbPolyline
 62
253
  6
CONTINUOUS
 90
5
 70
0
 10
57.8615060177
 20
-4.3184581636
 10
57.8637180543
 20
-4.3727762713
 10
57.8659949069
 20
-4.4212607006
 10
57.8683352509
 20
-4.4634609993
 10
57.8709712523
 20
-4.5025099487
  0
LWPOLYLINE
  5
600
100
AcDbEntity
  8
RACCORDO
100
AcDbPolyline
 62
7
  6
CONTINUOUS
 90
5
 70
0
 10
56.8589683316
 20
-4.2690932747
 10
56.8614352326
 20
-4.3339243607
 10
56.863948263
 20
-4.3909500633
 10
56.8665152073
 20
-4.4403988914
 10
56.8691360657
 20
-4.482270845
  0
LWPOLYLINE
  5
601
100
AcDbEntity
  8
ASSI
100
AcDbPolyline
 62
7
  6
CONTINUOUS
 90
5
 70
0
 10
56.8589683316
 20
-4.2690932747
 10
56.8614352326
 20
-4.3339243607
 10
56.863948263
 20
-4.3909500633
 10
56.8665152073
 20
-4.4403988914
 10
56.8691360657
 20
-4.482270845
  0
LINE
  5
602
100
AcDbEntity
  8
RACCORDO
100
AcDbLine
 62
7
  6
CONTINUOUS
 10
56.8676643012
 20
-3.2882534855
 11
56.8698736985
 21
-3.3433330627
  0
LINE
  5
603
100
AcDbEntity
  8
ASSI
100
AcDbLine
 62
7
  6
CONTINUOUS
 10
56.8676643012
 20
-3.2882534855
 11
56.8698736985
 21
-3.3433330627
  0
LINE
  5
604
100
AcDbEntity
  8
RACCORDO
100
AcDbLine
 62
7
  6
CONTINUOUS
 10
57.9688176498
 20
-3.3727598158
 11
57.9662855723
 21
-3.3045709821
  0
LINE
  5
605
100
AcDbEntity
  8
RACCORDO
100
AcDbLine
 62
253
  6
CONTINUOUS
 10
57.9572444405
 20
-4.1052203061
 11
57.9614765835
 21
-4.2268314376
  0
LINE
  5
606
100
AcDbEntity
  8
RACCORDO
100
AcDbLine
 62
253
  6
CONTINUOUS
 10
57.8572684447
 20
-4.1926929437
 11
57.8615060177
 21
-4.3184581636
  0
LINE
  5
607
100
AcDbEntity
  8
RACCORDO
100
AcDbLine
 62
7
  6
CONTINUOUS
 10
56.8655327239
 20
-3.2238767321
 11
56.8676643012
 21
-3.2882534855
  0
LINE
  5
608
100
AcDbEntity
  8
ASSI
100
AcDbLine
 62
7
  6
CONTINUOUS
 10
56.8655327239
 20
-3.2238767321
 11
56.8676643012
 21
-3.2882534855
  0
LINE
  5
609
100
AcDbEntity
  8
ASSI
100
AcDbLine
 62
7
  6
CONTINUOUS
 10
57.0278049283
 20
-0.2559177132
 11
57.0335909599
 21
-0.4385692935
  0
LINE
  5
60A
100
AcDbEntity
  8
RACCORDO
100
AcDbLine
 62
7
  6
CONTINUOUS
 10
56.8542196254
 20
-4.1173860054
 11
56.8589683316
 21
-4.2690932747
  0
LINE
  5
60B
100
AcDbEntity
  8
ASSI
100
AcDbLine
 62
7
  6
CONTINUOUS
 10
56.8542196254
 20
-4.1173860054
 11
56.8589683316
 21
-4.2690932747
  0
LINE
  5
60C
100
AcDbEntity
  8
RACCORDO
100
AcDbLine
 62
7
  6
CONTINUOUS
 10
57.9662855723
 20
-3.3045709821
 11
57.9638649826
 21
-3.2244870369
  0
LINE
  5
60D
100
AcDbEntity
  8
RACCORDO
100
AcDbLine
 62
7
  6
CONTINUOUS
 10
56.8634920064
 20
-3.1506228261
 11
56.8655327239
 21
-3.2238767321
  0
LINE
  5
60E
100
AcDbEntity
  8
ASSI
100
AcDbLine
 62
7
  6
CONTINUOUS
 10
56.8634920064
 20
-3.1506228261
 11
56.8655327239
 21
-3.2238767321
  0
LINE
  5
60F
100
AcDbEntity
  8
RACCORDO
100
AcDbLine
 62
253
  6
CONTINUOUS
 10
57.9532366213
 20
-3.9614202492
 11
57.9572444405
 21
-4.1052203061
  0
LINE
  5
610
100
AcDbEntity
  8
RACCORDO
100
AcDbLine
 62
253
  6
CONTINUOUS
 10
57.8532616352
 20
-4.0440229784
 11
57.8572684447
 21
-4.1926929437
  0
LINE
  5
611
100
AcDbEntity
  8
RACCORDO
100
AcDbLine
 62
7
  6
CONTINUOUS
 10
56.8497835866
 20
-3.9380241489
 11
56.8542196254
 21
-4.1173860054
  0
LINE
  5
612
100
AcDbEntity
  8
ASSI
100
AcDbLine
 62
7
  6
CONTINUOUS
 10
56.8497835866
 20
-3.9380241489
 11
56.8542196254
 21
-4.1173860054
  0
LINE
  5
613
100
AcDbEntity
  8
ASSI
100
AcDbLine
 62
7
  6
CONTINUOUS
 10
57.0335909599
 20
-0.4385692935
 11
57.0385168263
 21
-0.6420024769
  0
LINE
  5
614
100
AcDbEntity
  8
RACCORDO
100
AcDbLine
 62
7
  6
CONTINUOUS
 10
57.9638649826
 20
-3.2244870369
 11
57.9604743159
 21
-3.0831153918
  0
LINE
  5
615
100
AcDbEntity
  8
RACCORDO
100
AcDbLine
 62
7
  6
CONTINUOUS
 10
56.8606230644
 20
-3.0249011278
 11
56.8634920064
 21
-3.1506228261
  0
LINE
  5
616
100
AcDbEntity
  8
ASSI
100
AcDbLine
 62
7
  6
CONTINUOUS
 10
56.8606230644
 20
-3.0249011278
 11
56.8634920064
 21
-3.1506228261
  0
LINE
  5
617
100
AcDbEntity
  8
RACCORDO
100
AcDbLine
 62
253
  6
CONTINUOUS
 10
57.9477152849
 20
-3.7064135099
 11
57.9532366213
 21
-3.9614202492
  0
LINE
  5
618
100
AcDbEntity
  8
RACCORDO
100
AcDbLine
 62
253
  6
CONTINUOUS
 10
57.8477009676
 20
-3.7796808947
 11
57.8532616352
 21
-4.0440229784
  0
LINE
  5
619
100
AcDbEntity
  8
RACCORDO
100
AcDbLine
 62
7
  6
CONTINUOUS
 10
56.8438287738
 20
-3.6227583721
 11
56.8497835866
 21
-3.9380241489
  0
LINE
  5
61A
100
AcDbEntity
  8
ASSI
100
AcDbLine
 62
7
  6
CONTINUOUS
 10
56.8438287738
 20
-3.6227583721
 11
56.8497835866
 21
-3.9380241489
  0
LINE
  5
61B
100
AcDbEntity
  8
RACCORDO
100
AcDbLine
 62
7
  6
CONTINUOUS
 10
57.0385168263
 20
-0.6420024769
 11
57.0394894952
 21
-0.6954107866
  0
LINE
  5
61C
100
AcDbEntity
  8
RACCORDO
100
AcDbLine
 62
7
  6
CONTINUOUS
 10
57.9604743159
 20
-3.0831153918
 11
57.957422163
 21
-2.9183578921
  0
LINE
  5
61D
100
AcDbEntity
  8
RACCORDO
100
AcDbLine
 62
7
  6
CONTINUOUS
 10
56.8606230644
 20
-3.0249011278
 11
56.8578082586
 21
-2.8657574002
  0
LINE
  5
61E
100
AcDbEntity
  8
ASSI
100
AcDbLine
 62
7
  6
CONTINUOUS
 10
56.8606230644
 20
-3.0249011278
 11
56.8578082586
 21
-2.8657574002
  0
LWPOLYLINE
  5
61F
100
AcDbEntity
  8
RACCORDO
100
AcDbPolyline
 62
253
  6
CONTINUOUS
 90
3
 70
0
 10
57.941438283
 20
-3.3012692299
 10
57.942885904
 20
-3.4092651262
 10
57.9477152849
 20
-3.7064135099
  0
LINE
  5
620
100
AcDbEntity
  8
RACCORDO
100
AcDbLine
 62
7
  6
CONTINUOUS
 10
57.957422163
 20
-2.9183578921
 11
57.9539659416
 21
-2.6671998257
  0
LINE
  5
621
100
AcDbEntity
  8
RACCORDO
100
AcDbLine
 62
7
  6
CONTINUOUS
 10
57.0394894952
 20
-0.6954107866
 11
57.0402275441
 21
-0.7514648655
  0
LINE
  5
622
100
AcDbEntity
  8
RACCORDO
100
AcDbLine
 62
7
  6
CONTINUOUS
 10
56.8404790963
 20
-3.3794874077
 11
56.8438287738
 21
-3.6227583721
  0
LINE
  5
623
100
AcDbEntity
  8
ASSI
100
AcDbLine
 62
7
  6
CONTINUOUS
 10
56.8404790963
 20
-3.3794874077
 11
56.8438287738
 21
-3.6227583721
  0
LWPOLYLINE
  5
624
100
AcDbEntity
  8
RACCORDO
100
AcDbPolyline
 62
253
  6
CONTINUOUS
 90
3
 70
0
 10
57.8419081701
 20
-3.3640323508
 10
57.8431535233
 20
-3.4736680214
 10
57.8477009676
 20
-3.7796808947
  0
LINE
  5
625
100
AcDbEntity
  8
RACCORDO
100
AcDbLine
 62
7
  6
CONTINUOUS
 10
56.8578082586
 20
-2.8657574002
 11
56.8553632199
 21
-2.646378645
  0
LINE
  5
626
100
AcDbEntity
  8
ASSI
100
AcDbLine
 62
7
  6
CONTINUOUS
 10
56.8578082586
 20
-2.8657574002
 11
56.8553632199
 21
-2.646378645
  0
LINE
  5
627
100
AcDbEntity
  8
RACCORDO
100
AcDbLine
 62
7
  6
CONTINUOUS
 10
57.0402275441
 20
-0.7514648655
 11
57.0407279591
 21
-0.8098521588
  0
LINE
  5
628
100
AcDbEntity
  8
RACCORDO
100
AcDbLine
 62
7
  6
CONTINUOUS
 10
57.9539659416
 20
-2.6671998257
 11
57.9525339566
 21
-2.5182408819
  0
LINE
  5
629
100
AcDbEntity
  8
RACCORDO
100
AcDbLine
 62
7
  6
CONTINUOUS
 10
56.8388300072
 20
-3.1696990216
 11
56.8404790963
 21
-3.3794874077
  0
LINE
  5
62A
100
AcDbEntity
  8
ASSI
100
AcDbLine
 62
7
  6
CONTINUOUS
 10
56.8388300072
 20
-3.1696990216
 11
56.8404790963
 21
-3.3794874077
  0
LINE
  5
62B
100
AcDbEntity
  8
RACCORDO
100
AcDbLine
 62
7
  6
CONTINUOUS
 10
56.8553632199
 20
-2.646378645
 11
56.8539877764
 21
-2.3976161535
  0
LINE
  5
62C
100
AcDbEntity
  8
ASSI
100
AcDbLine
 62
7
  6
CONTINUOUS
 10
56.8553632199
 20
-2.646378645
 11
56.8539877764
 21
-2.3976161535
  0
LINE
  5
62D
100
AcDbEntity
  8
RACCORDO
100
AcDbLine
 62
7
  6
CONTINUOUS
 10
57.9525339566
 20
-2.5182408819
 11
57.9520356798
 21
-2.4018813998
  0
LINE
  5
62E
100
AcDbEntity
  8
RACCORDO
100
AcDbLine
 62
7
  6
CONTINUOUS
 10
57.0407279591
 20
-0.8098521588
 11
57.041011167
 21
-0.8995418537
  0
LINE
  5
62F
100
AcDbEntity
  8
RACCORDO
100
AcDbLine
 62
7
  6
CONTINUOUS
 10
56.8380081966
 20
-2.8666456883
 11
56.8388300072
 21
-3.1696990216
  0
LINE
  5
630
100
AcDbEntity
  8
ASSI
100
AcDbLine
 62
7
  6
CONTINUOUS
 10
56.8380081966
 20
-2.8666456883
 11
56.8388300072
 21
-3.1696990216
  0
LINE
  5
631
100
AcDbEntity
  8
DRAFT
100
AcDbLine
 62
7
  6
CONTINUOUS
 10
56.8816458589
 20
-4.5206521088
 11
56.8816458589
 21
-3.4706521088
  0
LINE
  5
632
100
AcDbEntity
  8
ASSI
100
AcDbLine
 62
7
  6
CONTINUOUS
 10
56.8816458589
 20
-4.5206521088
 11
56.8816458589
 21
-3.4706521088
  0
LINE
  5
633
100
AcDbEntity
  8
DRAFT
100
AcDbLine
 62
7
  6
CONTINUOUS
 10
56.8816458589
 20
0.2293478912
 11
56.8816458589
 21
1.2793478912
  0
LINE
  5
634
100
AcDbEntity
  8
ASSI
100
AcDbLine
 62
7
  6
CONTINUOUS
 10
56.8816458589
 20
0.2293478912
 11
56.8816458589
 21
1.2793478912
  0
LINE
  5
635
100
AcDbEntity
  8
ASSI
100
AcDbLine
 62
253
  6
CONTINUOUS
 10
56.8850769814
 20
-4.5206521088
 11
56.8850769814
 21
-3.4706521088
  0
LINE
  5
636
100
AcDbEntity
  8
ASSI
100
AcDbLine
 62
253
  6
CONTINUOUS
 10
56.8850769814
 20
0.2293478912
 11
56.8850769814
 21
1.2793478912
  0
LINE
  5
637
100
AcDbEntity
  8
ASSI
100
AcDbLine
 62
253
  6
CONTINUOUS
 10
56.9850160641
 20
1.277663302
 11
56.9850160641
 21
0.2768952055
  0
LINE
  5
638
100
AcDbEntity
  8
ASSI
100
AcDbLine
 62
7
  6
CONTINUOUS
 10
56.9850160641
 20
0.2768952055
 11
56.9850160641
 21
0.2173757115
  0
LINE
  5
639
100
AcDbEntity
  8
ASSI
100
AcDbLine
 62
7
  6
CONTINUOUS
 10
56.9850160641
 20
-3.4586799286
 11
56.9850160641
 21
-3.5181994232
  0
LINE
  5
63A
100
AcDbEntity
  8
ASSI
100
AcDbLine
 62
253
  6
CONTINUOUS
 10
56.9850160641
 20
-3.5181994232
 11
56.9850160641
 21
-4.5189675196
  0
LINE
  5
63B
100
AcDbEntity
  8
RACCORDO
100
AcDbLine
 62
253
  6
CONTINUOUS
 10
57.0512651134
 20
0.5537262056
 11
57.0512651134
 21
-3.7950304233
  0
LINE
  5
63C
100
AcDbEntity
  8
RACCORDO
100
AcDbLine
 62
253
  6
CONTINUOUS
 10
57.1097219226
 20
0.4223340064
 11
57.1097219226
 21
-3.6636382241
  0
LINE
  5
63D
100
AcDbEntity
  8
RACCORDO
100
AcDbLine
 62
253
  6
CONTINUOUS
 10
57.4230672151
 20
0.0352348925
 11
57.4230672151
 21
-3.2765391102
  0
LINE
  5
63E
100
AcDbEntity
  8
RACCORDO
100
AcDbLine
 62
253
  6
CONTINUOUS
 10
57.5644885714
 20
-0.1131707657
 11
57.5644885714
 21
-3.128133452
  0
LINE
  5
63F
100
AcDbEntity
  8
RACCORDO
100
AcDbLine
 62
253
  6
CONTINUOUS
 10
57.7414687439
 20
-3.128133452
 11
57.7414687439
 21
-0.1131707657
  0
LINE
  5
640
100
AcDbEntity
  8
RACCORDO
100
AcDbLine
 62
253
  6
CONTINUOUS
 10
57.941438283
 20
-3.3012692299
 11
57.941438283
 21
0.0599608012
  0
LINE
  5
641
100
AcDbEntity
  8
RACCORDO
100
AcDbLine
 62
7
  6
CONTINUOUS
 10
57.9852788539
 20
-4.4168517515
 11
57.9852788539
 21
-3.5247268552
  0
LINE
  5
642
100
AcDbEntity
  8
RACCORDO
100
AcDbLine
 62
7
  6
CONTINUOUS
 10
57.9852788539
 20
0.2834226376
 11
57.9852788539
 21
1.1755474083
  0
LINE
  5
643
100
AcDbEntity
  8
RACCORDO
100
AcDbLine
 62
7
  6
CONTINUOUS
 10
57.9520356798
 20
-2.4018813998
 11
57.9519884885
 21
-0.8693207279
  0
LINE
  5
644
100
AcDbEntity
  8
RACCORDO
100
AcDbLine
 62
7
  6
CONTINUOUS
 10
56.8539877764
 20
-2.3976161535
 11
56.8537886629
 21
-0.9301442933
  0
LINE
  5
645
100
AcDbEntity
  8
ASSI
100
AcDbLine
 62
7
  6
CONTINUOUS
 10
56.8539877764
 20
-2.3976161535
 11
56.8537886629
 21
-0.9301442933
  0
LINE
  5
646
100
AcDbEntity
  8
RACCORDO
100
AcDbLine
 62
7
  6
CONTINUOUS
 10
57.041011167
 20
-0.8995418537
 11
57.0408842818
 21
-2.4018783352
  0
LINE
  5
647
100
AcDbEntity
  8
RACCORDO
100
AcDbLine
 62
7
  6
CONTINUOUS
 10
56.8384720305
 20
-0.1456608545
 11
56.8380081966
 21
-2.8666456883
  0
LINE
  5
648
100
AcDbEntity
  8
ASSI
100
AcDbLine
 62
7
  6
CONTINUOUS
 10
56.8384720305
 20
-0.1456608545
 11
56.8380081966
 21
-2.8666456883
  0
LINE
  5
649
100
AcDbEntity
  8
RACCORDO
100
AcDbLine
 62
7
  6
CONTINUOUS
 10
57.9519884885
 20
-0.8693207279
 11
57.952363969
 21
-0.7514598651
  0
LINE
  5
64A
100
AcDbEntity
  8
RACCORDO
100
AcDbLine
 62
7
  6
CONTINUOUS
 10
56.8537886629
 20
-0.9301442933
 11
56.8547750549
 21
-0.6760787039
  0
LINE
  5
64B
100
AcDbEntity
  8
ASSI
100
AcDbLine
 62
7
  6
CONTINUOUS
 10
56.8537886629
 20
-0.9301442933
 11
56.8547750549
 21
-0.6760787039
  0
LINE
  5
64C
100
AcDbEntity
  8
RACCORDO
100
AcDbLine
 62
7
  6
CONTINUOUS
 10
57.0408842818
 20
-2.4018783352
 11
57.0405087116
 21
-2.4608071262
  0
LINE
  5
64D
100
AcDbEntity
  8
RACCORDO
100
AcDbLine
 62
7
  6
CONTINUOUS
 10
56.839838915
 20
0.0711703478
 11
56.8384720305
 21
-0.1456608545
  0
LINE
  5
64E
100
AcDbEntity
  8
ASSI
100
AcDbLine
 62
7
  6
CONTINUOUS
 10
56.839838915
 20
0.0711703478
 11
56.8384720305
 21
-0.1456608545
  0
LINE
  5
64F
100
AcDbEntity
  8
RACCORDO
100
AcDbLine
 62
7
  6
CONTINUOUS
 10
57.952363969
 20
-0.7514598651
 11
57.9532190389
 21
-0.6420024769
  0
LINE
  5
650
100
AcDbEntity
  8
RACCORDO
100
AcDbLine
 62
7
  6
CONTINUOUS
 10
56.8547750549
 20
-0.6760787039
 11
56.8568798218
 21
-0.4446596295
  0
LINE
  5
651
100
AcDbEntity
  8
ASSI
100
AcDbLine
 62
7
  6
CONTINUOUS
 10
56.8547750549
 20
-0.6760787039
 11
56.8568798218
 21
-0.4446596295
  0
LINE
  5
652
100
AcDbEntity
  8
RACCORDO
100
AcDbLine
 62
7
  6
CONTINUOUS
 10
57.0405087116
 20
-2.4608071262
 11
57.0398874704
 21
-2.5182361821
  0
LINE
  5
653
100
AcDbEntity
  8
RACCORDO
100
AcDbLine
 62
7
  6
CONTINUOUS
 10
56.8420362885
 20
0.264312537
 11
56.839838915
 21
0.0711703478
  0
LINE
  5
654
100
AcDbEntity
  8
ASSI
100
AcDbLine
 62
7
  6
CONTINUOUS
 10
56.8420362885
 20
0.264312537
 11
56.839838915
 21
0.0711703478
  0
LINE
  5
655
100
AcDbEntity
  8
RACCORDO
100
AcDbLine
 62
7
  6
CONTINUOUS
 10
57.9532190389
 20
-0.6420024769
 11
57.9564876306
 21
-0.3826827241
  0
LINE
  5
656
100
AcDbEntity
  8
RACCORDO
100
AcDbLine
 62
7
  6
CONTINUOUS
 10
56.8568798218
 20
-0.4446596295
 11
56.8588515976
 21
-0.310243287
  0
LINE
  5
657
100
AcDbEntity
  8
ASSI
100
AcDbLine
 62
7
  6
CONTINUOUS
 10
56.8568798218
 20
-0.4446596295
 11
56.8588515976
 21
-0.310243287
  0
LWPOLYLINE
  5
658
100
AcDbEntity
  8
RACCORDO
100
AcDbPolyline
 62
7
  6
CONTINUOUS
 90
3
 70
0
 10
57.0398874704
 20
-2.5182361821
 10
57.0390326138
 20
-2.5729152839
 10
57.0385168263
 20
-2.5993017407
  0
LINE
  5
659
100
AcDbEntity
  8
RACCORDO
100
AcDbLine
 62
253
  6
CONTINUOUS
 10
57.8471172564
 20
0.5038605548
 11
57.8414536423
 21
0.1189335069
  0
LINE
  5
65A
100
AcDbEntity
  8
RACCORDO
100
AcDbLine
 62
253
  6
CONTINUOUS
 10
57.9471005578
 20
0.4317182769
 11
57.941438283
 21
0.0599608012
  0
LINE
  5
65B
100
AcDbEntity
  8
RACCORDO
100
AcDbLine
 62
7
  6
CONTINUOUS
 10
57.9564876306
 20
-0.3826827241
 11
57.959415941
 21
-0.2106757277
  0
LINE
  5
65C
100
AcDbEntity
  8
RACCORDO
100
AcDbLine
 62
7
  6
CONTINUOUS
 10
56.8476994295
 20
0.5975212986
 11
56.8420362885
 21
0.264312537
  0
LINE
  5
65D
100
AcDbEntity
  8
ASSI
100
AcDbLine
 62
7
  6
CONTINUOUS
 10
56.8476994295
 20
0.5975212986
 11
56.8420362885
 21
0.264312537
  0
LINE
  5
65E
100
AcDbEntity
  8
RACCORDO
100
AcDbLine
 62
7
  6
CONTINUOUS
 10
56.8615505832
 20
-0.1725133026
 11
56.8588515976
 21
-0.310243287
  0
LINE
  5
65F
100
AcDbEntity
  8
ASSI
100
AcDbLine
 62
7
  6
CONTINUOUS
 10
56.8615505832
 20
-0.1725133026
 11
56.8588515976
 21
-0.310243287
  0
LINE
  5
660
100
AcDbEntity
  8
RACCORDO
100
AcDbLine
 62
253
  6
CONTINUOUS
 10
57.8516504419
 20
0.7334557225
 11
57.8471172564
 21
0.5038605548
  0
LINE
  5
661
100
AcDbEntity
  8
RACCORDO
100
AcDbLine
 62
253
  6
CONTINUOUS
 10
57.951632379
 20
0.6535327475
 11
57.9471005578
 21
0.4317182769
  0
LINE
  5
662
100
AcDbEntity
  8
RACCORDO
100
AcDbLine
 62
7
  6
CONTINUOUS
 10
56.8519629721
 20
0.7898465336
 11
56.8476994295
 21
0.5975212986
  0
LINE
  5
663
100
AcDbEntity
  8
ASSI
100
AcDbLine
 62
7
  6
CONTINUOUS
 10
56.8519629721
 20
0.7898465336
 11
56.8476994295
 21
0.5975212986
  0
LINE
  5
664
100
AcDbEntity
  8
RACCORDO
100
AcDbLine
 62
7
  6
CONTINUOUS
 10
57.959415941
 20
-0.2106757277
 11
57.9626995252
 21
-0.0612299823
  0
LINE
  5
665
100
AcDbEntity
  8
RACCORDO
100
AcDbLine
 62
253
  6
CONTINUOUS
 10
57.8550352332
 20
0.8723827262
 11
57.8516504419
 21
0.7334557225
  0
LINE
  5
666
100
AcDbEntity
  8
ASSI
100
AcDbLine
 62
7
  6
CONTINUOUS
 10
57.0385168263
 20
-2.5993017407
 11
57.0335909618
 21
-2.8027348527
  0
LINE
  5
667
100
AcDbEntity
  8
RACCORDO
100
AcDbLine
 62
7
  6
CONTINUOUS
 10
56.8645003942
 20
-0.0529597388
 11
56.8615505832
 21
-0.1725133026
  0
LINE
  5
668
100
AcDbEntity
  8
ASSI
100
AcDbLine
 62
7
  6
CONTINUOUS
 10
56.8645003942
 20
-0.0529597388
 11
56.8615505832
 21
-0.1725133026
  0
LINE
  5
669
100
AcDbEntity
  8
RACCORDO
100
AcDbLine
 62
253
  6
CONTINUOUS
 10
57.9550189513
 20
0.7878349106
 11
57.951632379
 21
0.6535327475
  0
LINE
  5
66A
100
AcDbEntity
  8
RACCORDO
100
AcDbLine
 62
7
  6
CONTINUOUS
 10
57.9626995252
 20
-0.0612299823
 11
57.9650609993
 21
0.0247118749
  0
LINE
  5
66B
100
AcDbEntity
  8
RACCORDO
100
AcDbLine
 62
253
  6
CONTINUOUS
 10
57.8585985327
 20
0.9941276624
 11
57.8550352332
 21
0.8723827262
  0
LINE
  5
66C
100
AcDbEntity
  8
RACCORDO
100
AcDbLine
 62
7
  6
CONTINUOUS
 10
56.8665887682
 20
0.0159196174
 11
56.8645003942
 21
-0.0529597388
  0
LINE
  5
66D
100
AcDbEntity
  8
ASSI
100
AcDbLine
 62
7
  6
CONTINUOUS
 10
56.8665887682
 20
0.0159196174
 11
56.8645003942
 21
-0.0529597388
  0
LINE
  5
66E
100
AcDbEntity
  8
RACCORDO
100
AcDbLine
 62
253
  6
CONTINUOUS
 10
57.9585847897
 20
0.9055355413
 11
57.9550189513
 21
0.7878349106
  0
LWPOLYLINE
  5
66F
100
AcDbEntity
  8
ASSI
100
AcDbPolyline
 62
7
  6
CONTINUOUS
 90
13
 70
0
 10
57.0335909618
 20
-2.8027348527
 10
57.0278049332
 20
-2.9853863707
 10
57.0245875701
 20
-3.0689681234
 10
57.0212016357
 20
-3.1460781013
 10
57.0176455502
 20
-3.2165988504
 10
57.0139208933
 20
-3.2806478247
 10
57.0100753
 20
-3.3373991934
 10
57.0061076585
 20
-3.3867557016
 10
57.0020190806
 20
-3.4288146042
 10
56.9978605352
 20
-3.4630418343
 10
56.9936490122
 20
-3.4892593697
 10
56.9893675219
 20
-3.5076452326
 10
56.9850160641
 20
-3.5181994232
  0
LWPOLYLINE
  5
670
100
AcDbEntity
  8
RACCORDO
100
AcDbPolyline
 62
7
  6
CONTINUOUS
 90
12
 70
0
 10
57.9650609993
 20
0.0247118749
 10
57.9675407032
 20
0.098931231
 10
57.9688181189
 20
0.1314668697
 10
57.9701184858
 20
0.1608735378
 10
57.9714416765
 20
0.1871676057
 10
57.972780652
 20
0.2102084616
 10
57.9741354682
 20
0.2299787316
 10
57.9755060693
 20
0.2464957898
 10
57.9768852493
 20
0.2596711459
 10
57.9782706061
 20
0.2694753033
 10
57.9796645418
 20
0.2759377586
 10
57.9810670564
 20
0.279058512
  0
LINE
  5
671
100
AcDbEntity
  8
RACCORDO
100
AcDbLine
 62
253
  6
CONTINUOUS
 10
57.861146456
 20
1.0676330035
 11
57.8585985327
 21
0.9941276624
  0
LINE
  5
672
100
AcDbEntity
  8
RACCORDO
100
AcDbLine
 62
253
  6
CONTINUOUS
 10
57.9611324959
 20
0.9765210616
 11
57.9585847897
 21
0.9055355413
  0
LWPOLYLINE
  5
673
100
AcDbEntity
  8
RACCORDO
100
AcDbPolyline
 62
7
  6
CONTINUOUS
 90
10
 70
0
 10
57.0512651134
 20
-3.7950304233
 10
57.0467349097
 20
-3.9071545256
 10
57.0420151994
 20
-4.0110297344
 10
57.0371059824
 20
-4.1066560498
 10
57.0319876738
 20
-4.1943336353
 10
57.0266798586
 20
-4.2737623273
 10
57.0212412918
 20
-4.3440416356
 10
57.0156915582
 20
-4.4048713965
 10
57.0100110729
 20
-4.4565517736
 10
57.0041998359
 20
-4.4990827668
  0
LWPOLYLINE
  5
674
100
AcDbEntity
  8
RACCORDO
100
AcDbPolyline
 62
7
  6
CONTINUOUS
 90
7
 70
0
 10
56.8691360657
 20
1.2409666274
 10
56.8665152073
 20
1.1990946738
 10
56.863948263
 20
1.1496458457
 10
56.8614352326
 20
1.092620143
 10
56.8589683316
 20
1.027789057
 10
56.8565553445
 20
0.9553810965
 10
56.8519629721
 20
0.7898465336
  0
LWPOLYLINE
  5
675
100
AcDbEntity
  8
ASSI
100
AcDbPolyline
 62
7
  6
CONTINUOUS
 90
7
 70
0
 10
56.8691360657
 20
1.2409666274
 10
56.8665152073
 20
1.1990946738
 10
56.863948263
 20
1.1496458457
 10
56.8614352326
 20
1.092620143
 10
56.8589683316
 20
1.027789057
 10
56.8565553445
 20
0.9553810965
 10
56.8519629721
 20
0.7898465336
  0
LWPOLYLINE
  5
676
100
AcDbEntity
  8
RACCORDO
100
AcDbPolyline
 62
253
  6
CONTINUOUS
 90
7
 70
0
 10
57.8709712828
 20
1.261206143
 10
57.8692953831
 20
1.2372421449
 10
57.8678768945
 20
1.2143803078
 10
57.8664836839
 20
1.1892782546
 10
57.8651178522
 20
1.1620853697
 10
57.8637772985
 20
1.1328360922
 10
57.861146456
 20
1.0676330035
  0
LWPOLYLINE
  5
677
100
AcDbEntity
  8
RACCORDO
100
AcDbPolyline
 62
253
  6
CONTINUOUS
 90
7
 70
0
 10
57.9707239973
 20
1.1602046286
 10
57.9692810677
 20
1.1402408557
 10
57.9678631505
 20
1.1181924501
 10
57.9664702457
 20
1.0940594119
 10
57.965104327
 20
1.0678398282
 10
57.9637634207
 20
1.0395356119
 10
57.9611324959
 20
0.9765210616
  0
LINE
  5
678
100
AcDbEntity
  8
RACCORDO
100
AcDbLine
 62
253
  6
CONTINUOUS
 10
57.9836122573
 20
-4.4344912293
 11
57.9851265491
 21
-4.4171257225
  0
LWPOLYLINE
  5
679
100
AcDbEntity
  8
RACCORDO
100
AcDbPolyline
 62
253
  6
CONTINUOUS
 90
10
 70
0
 10
57.9721307614
 20
-4.4111522419
 10
57.9706070684
 20
-4.4285110833
 10
57.9660928425
 20
-4.4453426891
 10
57.9587251932
 20
-4.4611358374
 10
57.9487278962
 20
-4.4754108467
 10
57.9364045968
 20
-4.4877341461
 10
57.9221295874
 20
-4.4977314431
 10
57.9063364392
 20
-4.5050990924
 10
57.8895048334
 20
-4.5096133183
 10
57.8721459919
 20
-4.5111370114
  0
LWPOLYLINE
  5
67A
100
AcDbEntity
  8
RACCORDO
100
AcDbPolyline
 62
253
  6
CONTINUOUS
 90
10
 70
0
 10
57.9707239973
 20
-4.4015088462
 10
57.9691458985
 20
-4.4184114105
 10
57.9645923257
 20
-4.4348028451
 10
57.9572009631
 20
-4.4501875302
 10
57.9471952995
 20
-4.4641002867
 10
57.9348778713
 20
-4.4761204413
 10
57.9206211147
 20
-4.4858845465
 10
57.904856104
 20
-4.4930973699
 10
57.8880595184
 20
-4.4975408209
 10
57.8707392278
 20
-4.4990805449
  0
LWPOLYLINE
  5
67B
100
AcDbEntity
  8
RACCORDO
100
AcDbPolyline
 62
7
  6
CONTINUOUS
 90
10
 70
0
 10
57.0041998359
 20
-4.4990827668
 10
57.0038137848
 20
-4.5014320667
 10
57.0034263735
 20
-4.5035294006
 10
57.0030376021
 20
-4.5053747685
 10
57.0026472691
 20
-4.5069688623
 10
57.0022555759
 20
-4.50831099
 10
57.0018631274
 20
-4.5093990763
 10
57.0014701249
 20
-4.5102324294
 10
57.001076367
 20
-4.5108117411
 10
57.0006818537
 20
-4.5111370114
  0
LWPOLYLINE
  5
67C
100
AcDbEntity
  8
RACCORDO
100
AcDbPolyline
 62
253
  6
CONTINUOUS
 90
10
 70
0
 10
57.9414382848
 20
-3.3012676616
 10
57.9397038063
 20
-3.311417452
 10
57.935037287
 20
-3.3212643709
 10
57.9275779682
 20
-3.3305145576
 10
57.9175343214
 20
-3.338901837
 10
57.9052144761
 20
-3.3461632014
 10
57.8910436906
 20
-3.352061848
 10
57.8754822073
 20
-3.3564341212
 10
57.8589846553
 20
-3.3591774801
 10
57.842040895
 20
-3.3602306742
  0
LWPOLYLINE
  5
67D
100
AcDbEntity
  8
RACCORDO
100
AcDbPolyline
 62
7
  6
CONTINUOUS
 90
3
 70
0
 10
57.9807140845
 20
-4.4467120011
 10
57.984476315
 20
-4.429383945
 10
57.9852622744
 20
-4.4168565286
  0
LINE
  5
67E
100
AcDbEntity
  8
RACCORDO
100
AcDbLine
 62
253
  6
CONTINUOUS
 10
57.9791048323
 20
-4.4513288897
 11
57.9836122573
 21
-4.4344912293
  0
LINE
  5
67F
100
AcDbEntity
  8
RACCORDO
100
AcDbLine
 62
253
  6
CONTINUOUS
 10
57.9717412828
 20
-4.4671269019
 11
57.9791048323
 21
-4.4513288897
  0
LINE
  5
680
100
AcDbEntity
  8
RACCORDO
100
AcDbLine
 62
253
  6
CONTINUOUS
 10
57.9852788372
 20
-4.4168523088
 11
57.9851265491
 21
-4.4171257225
  0
LINE
  5
681
100
AcDbEntity
  8
RACCORDO
100
AcDbLine
 62
253
  6
CONTINUOUS
 10
57.9692363847
 20
-4.4707049215
 11
57.9717412828
 21
-4.4671269019
  0
LWPOLYLINE
  5
682
100
AcDbEntity
  8
RACCORDO
100
AcDbPolyline
 62
7
  6
CONTINUOUS
 90
3
 70
0
 10
57.9730051486
 20
1.2236047318
 10
57.9637609266
 20
1.2376153662
 10
57.9556011245
 20
1.2467733457
  0
LINE
  5
683
100
AcDbEntity
  8
RACCORDO
100
AcDbLine
 62
253
  6
CONTINUOUS
 10
57.9851265491
 20
1.1758215049
 11
57.9852788487
 21
1.1755466697
  0
LINE
  5
684
100
AcDbEntity
  8
RACCORDO
100
AcDbLine
 62
253
  6
CONTINUOUS
 10
57.9717404094
 20
1.2258241976
 11
57.9791043783
 21
1.2100259201
  0
LWPOLYLINE
  5
685
100
AcDbEntity
  8
ASSI
100
AcDbPolyline
 62
7
  6
CONTINUOUS
 90
12
 70
0
 10
56.9850160641
 20
0.2768952055
 10
56.9893675173
 20
0.2663410393
 10
56.9936490041
 20
0.2479552022
 10
56.9978605245
 20
0.221737694
 10
57.0020190684
 20
0.1875104959
 10
57.006107646
 20
0.1454516269
 10
57.0100752876
 20
0.0960951434
 10
57.0139208818
 20
0.0393437879
 10
57.0176455401
 20
-0.0247051819
 10
57.0212016273
 20
-0.0952259364
 10
57.0245875634
 20
-0.1723359325
 10
57.0278049283
 20
-0.2559177132
  0
LINE
  5
686
100
AcDbEntity
  8
RACCORDO
100
AcDbLine
 62
253
  6
CONTINUOUS
 10
57.9791043783
 20
1.2100259201
 11
57.983612128
 21
1.1931877461
  0
LWPOLYLINE
  5
687
100
AcDbEntity
  8
RACCORDO
100
AcDbPolyline
 62
7
  6
CONTINUOUS
 90
10
 70
0
 10
57.0041998359
 20
1.2577785492
 10
57.0100111104
 20
1.2152471169
 10
57.0156916188
 20
1.1635664633
 10
57.0212413613
 20
1.1027365885
 10
57.0266799163
 20
1.0324573993
 10
57.0319877053
 20
0.9530289889
 10
57.0371059931
 20
0.8653516365
 10
57.0420152011
 20
0.769725435
 10
57.0467349079
 20
0.6658502913
 10
57.0512651134
 20
0.5537262056
  0
LWPOLYLINE
  5
688
100
AcDbEntity
  8
RACCORDO
100
AcDbPolyline
 62
253
  6
CONTINUOUS
 90
15
 70
0
 10
-29.6735539577
 20
-4.0007806413
 10
-29.6221584097
 20
-3.9922310082
 10
-29.5719263433
 20
-3.9783860418
 10
-29.5233960369
 20
-3.9593918569
 10
-29.4770996258
 20
-3.935453795
 10
-29.4335549313
 20
-3.9068389951
 10
-29.3932354277
 20
-3.8738633782
 10
-29.3565711874
 20
-3.8368842504
 10
-29.3239599753
 20
-3.7963053902
 10
-29.2957538055
 20
-3.7525713889
 10
-29.2722521368
 20
-3.7061549616
 10
-29.2537048031
 20
-3.6575513415
 10
-29.2403116566
 20
-3.607283753
 10
-29.2322176163
 20
-3.555899128
 10
-29.2295096933
 20
-3.5039536681
  0
LWPOLYLINE
  5
689
100
AcDbEntity
  8
ASSI
100
AcDbPolyline
 62
253
  6
CONTINUOUS
 90
15
 70
0
 10
-29.6735539577
 20
-4.0007806413
 10
-29.6221584097
 20
-3.9922310082
 10
-29.5719263433
 20
-3.9783860418
 10
-29.5233960369
 20
-3.9593918569
 10
-29.4770996258
 20
-3.935453795
 10
-29.4335549313
 20
-3.9068389951
 10
-29.3932354277
 20
-3.8738633782
 10
-29.3565711874
 20
-3.8368842504
 10
-29.3239599753
 20
-3.7963053902
 10
-29.2957538055
 20
-3.7525713889
 10
-29.2722521368
 20
-3.7061549616
 10
-29.2537048031
 20
-3.6575513415
 10
-29.2403116566
 20
-3.607283753
 10
-29.2322176163
 20
-3.555899128
 10
-29.2295096933
 20
-3.5039536681
  0
LINE
  5
68A
100
AcDbEntity
  8
RACCORDO
100
AcDbLine
 62
7
  6
CONTINUOUS
 10
-31.6400945639
 20
-5.3406521088
 11
-27.0296231201
 21
-5.2601760304
  0
LINE
  5
68B
100
AcDbEntity
  8
RACCORDO
100
AcDbLine
 62
7
  6
CONTINUOUS
 10
-26.8857312962
 20
-5.3291614092
 11
-31.6400945639
 21
-5.3706521088
  0
LINE
  5
68C
100
AcDbEntity
  8
ASSI
100
AcDbLine
 62
7
  6
CONTINUOUS
 10
-26.8857312962
 20
-5.3291614092
 11
-31.6400945639
 21
-5.3706521088
  0
LINE
  5
68D
100
AcDbEntity
  8
RACCORDO
100
AcDbLine
 62
7
  6
CONTINUOUS
 10
-31.6400945639
 20
-5.3706521088
 11
-32.6400945639
 21
-5.361925241
  0
LINE
  5
68E
100
AcDbEntity
  8
ASSI
100
AcDbLine
 62
7
  6
CONTINUOUS
 10
-31.6400945639
 20
-5.3706521088
 11
-32.6400945639
 21
-5.361925241
  0
LINE
  5
68F
100
AcDbEntity
  8
DRAFT
100
AcDbLine
 62
7
  6
CONTINUOUS
 10
-30.1400945639
 20
-5.4230332631
 11
-31.6400945639
 21
-5.3706521088
  0
LINE
  5
690
100
AcDbEntity
  8
RACCORDO
100
AcDbLine
 62
7
  6
CONTINUOUS
 10
-31.6400945639
 20
-5.3706521088
 11
-33.4075443123
 21
-5.3089314036
  0
LWPOLYLINE
  5
691
100
AcDbEntity
  8
RACCORDO
100
AcDbPolyline
 62
253
  6
CONTINUOUS
 90
16
 70
0
 10
-29.7238115276
 20
-3.8039518054
 10
-29.6921062644
 20
-3.8019355668
 10
-29.6613834956
 20
-3.7968389378
 10
-29.6316432212
 20
-3.7886619185
 10
-29.6025696588
 20
-3.7772473645
 10
-29.5744785908
 20
-3.7627524202
 10
-29.548317364
 20
-3.7456485184
 10
-29.5241656365
 20
-3.7258520498
 10
-29.50194375
 20
-3.7034466237
 10
-29.4823600771
 20
-3.6791545005
 10
-29.4655000803
 20
-3.6528931734
 10
-29.451278297
 20
-3.6247451492
 10
-29.4401467109
 20
-3.5956802085
 10
-29.4322559831
 20
-3.5660216115
 10
-29.4274554524
 20
-3.5354460981
 10
-29.4257451189
 20
-3.5039536681
  0
LWPOLYLINE
  5
692
100
AcDbEntity
  8
ASSI
100
AcDbPolyline
 62
253
  6
CONTINUOUS
 90
16
 70
0
 10
-29.7238115276
 20
-3.8039518054
 10
-29.6921062644
 20
-3.8019355668
 10
-29.6613834956
 20
-3.7968389378
 10
-29.6316432212
 20
-3.7886619185
 10
-29.6025696588
 20
-3.7772473645
 10
-29.5744785908
 20
-3.7627524202
 10
-29.548317364
 20
-3.7456485184
 10
-29.5241656365
 20
-3.7258520498
 10
-29.50194375
 20
-3.7034466237
 10
-29.4823600771
 20
-3.6791545005
 10
-29.4655000803
 20
-3.6528931734
 10
-29.451278297
 20
-3.6247451492
 10
-29.4401467109
 20
-3.5956802085
 10
-29.4322559831
 20
-3.5660216115
 10
-29.4274554524
 20
-3.5354460981
 10
-29.4257451189
 20
-3.5039536681
  0
LINE
  5
693
100
AcDbEntity
  8
RACCORDO
100
AcDbLine
 62
253
  6
CONTINUOUS
 10
-29.7255567018
 20
-4.00394419
 11
-29.6735539577
 21
-4.0007806413
  0
LINE
  5
694
100
AcDbEntity
  8
ASSI
100
AcDbLine
 62
253
  6
CONTINUOUS
 10
-29.7255567018
 20
-4.00394419
 11
-29.6735539577
 21
-4.0007806413
  0
LINE
  5
695
100
AcDbEntity
  8
RACCORDO
100
AcDbLine
 62
7
  6
CONTINUOUS
 10
-29.4717769792
 20
-4.0880348476
 11
-33.8900945639
 21
-4.3195890604
  0
LINE
  5
696
100
AcDbEntity
  8
RACCORDO
100
AcDbLine
 62
253
  6
CONTINUOUS
 10
-31.6400945639
 20
-4.7407434917
 11
-27.0296231201
 21
-4.6602674133
  0
LINE
  5
697
100
AcDbEntity
  8
RACCORDO
100
AcDbLine
 62
253
  6
CONTINUOUS
 10
-26.3900945639
 20
-4.8291804476
 11
-26.4649757316
 21
-4.8291804229
  0
LINE
  5
698
100
AcDbEntity
  8
ASSI
100
AcDbLine
 62
253
  6
CONTINUOUS
 10
-26.3900945639
 20
-4.8291804476
 11
-26.4649757316
 21
-4.8291804229
  0
LINE
  5
699
100
AcDbEntity
  8
RACCORDO
100
AcDbLine
 62
253
  6
CONTINUOUS
 10
-33.8900945639
 20
-4.7092969074
 11
-33.4075443123
 21
-4.7092969074
  0
LINE
  5
69A
100
AcDbEntity
  8
RACCORDO
100
AcDbLine
 62
253
  6
CONTINUOUS
 10
-27.0296231201
 20
-4.6602674133
 11
-26.4400945639
 21
-4.6602674133
  0
LINE
  5
69B
100
AcDbEntity
  8
RACCORDO
100
AcDbLine
 62
253
  6
CONTINUOUS
 10
-31.6400945639
 20
-4.7710176126
 11
-33.4075443123
 21
-4.7092969074
  0
LINE
  5
69C
100
AcDbEntity
  8
RACCORDO
100
AcDbLine
 62
7
  6
CONTINUOUS
 10
-29.672628302
 20
-4.0034822909
 11
-31.6400945639
 21
-4.0206521088
  0
LINE
  5
69D
100
AcDbEntity
  8
ASSI
100
AcDbLine
 62
7
  6
CONTINUOUS
 10
-29.672628302
 20
-4.0034822909
 11
-31.6400945639
 21
-4.0206521088
  0
LINE
  5
69E
100
AcDbEntity
  8
RACCORDO
100
AcDbLine
 62
253
  6
CONTINUOUS
 10
-30.268398767
 20
-3.8087043463
 11
-29.7238115276
 21
-3.8039518054
  0
LINE
  5
69F
100
AcDbEntity
  8
ASSI
100
AcDbLine
 62
253
  6
CONTINUOUS
 10
-30.268398767
 20
-3.8087043463
 11
-29.7238115276
 21
-3.8039518054
  0
LINE
  5
6A0
100
AcDbEntity
  8
RACCORDO
100
AcDbLine
 62
253
  6
CONTINUOUS
 10
-29.2295096933
 20
-3.5039536681
 11
-29.1760782967
 21
-3.5034873794
  0
LINE
  5
6A1
100
AcDbEntity
  8
ASSI
100
AcDbLine
 62
253
  6
CONTINUOUS
 10
-29.2295096933
 20
-3.5039536681
 11
-29.1760782967
 21
-3.5034873794
  0
LINE
  5
6A2
100
AcDbEntity
  8
RACCORDO
100
AcDbLine
 62
253
  6
CONTINUOUS
 10
-29.4257451189
 20
-3.5039536681
 11
-29.2295096933
 21
-3.5039536681
  0
LINE
  5
6A3
100
AcDbEntity
  8
ASSI
100
AcDbLine
 62
253
  6
CONTINUOUS
 10
-29.4257451189
 20
-3.5039536681
 11
-29.2295096933
 21
-3.5039536681
  0
LINE
  5
6A4
100
AcDbEntity
  8
RACCORDO
100
AcDbLine
 62
7
  6
CONTINUOUS
 10
-31.6400945639
 20
-4.0206521088
 11
-32.0691319216
 21
-4.0169079565
  0
LINE
  5
6A5
100
AcDbEntity
  8
ASSI
100
AcDbLine
 62
7
  6
CONTINUOUS
 10
-31.6400945639
 20
-4.0206521088
 11
-32.0691319216
 21
-4.0169079565
  0
LINE
  5
6A6
100
AcDbEntity
  8
DRAFT
100
AcDbLine
 62
7
  6
CONTINUOUS
 10
-32.8191582003
 20
-4.1500714765
 11
-32.8900945639
 21
-4.1488332777
  0
LINE
  5
6A7
100
AcDbEntity
  8
RACCORDO
100
AcDbLine
 62
253
  6
CONTINUOUS
 10
-33.8900945639
 20
-3.0672677139
 11
-34.0866040826
 21
-3.0672677139
  0
LINE
  5
6A8
100
AcDbEntity
  8
RACCORDO
100
AcDbLine
 62
253
  6
CONTINUOUS
 10
-34.5953302858
 20
-3.058387865
 11
-34.8900945639
 21
-3.058387865
  0
LINE
  5
6A9
100
AcDbEntity
  8
RACCORDO
100
AcDbLine
 62
7
  6
CONTINUOUS
 10
-34.5953302858
 20
-3.3583421735
 11
-34.0866040826
 21
-3.3672220224
  0
LINE
  5
6AA
100
AcDbEntity
  8
RACCORDO
100
AcDbLine
 62
7
  6
CONTINUOUS
 10
-29.1760782967
 20
-3.3374790754
 11
-29.9033628938
 21
-3.3247842755
  0
LINE
  5
6AB
100
AcDbEntity
  8
ASSI
100
AcDbLine
 62
7
  6
CONTINUOUS
 10
-29.1760782967
 20
-3.3374790754
 11
-29.9033628938
 21
-3.3247842755
  0
LINE
  5
6AC
100
AcDbEntity
  8
RACCORDO
100
AcDbLine
 62
253
  6
CONTINUOUS
 10
-34.5953302858
 20
-3.058387865
 11
-34.0866040826
 21
-3.067345344
  0
LINE
  5
6AD
100
AcDbEntity
  8
RACCORDO
100
AcDbLine
 62
7
  6
CONTINUOUS
 10
-31.7569886695
 20
-1.8251773286
 11
-30.943558249
 21
-1.7825472466
  0
LINE
  5
6AE
100
AcDbEntity
  8
RACCORDO
100
AcDbLine
 62
7
  6
CONTINUOUS
 10
-32.1823469309
 20
-0.9338348072
 11
-32.0118660546
 21
-0.9427693314
  0
LINE
  5
6AF
100
AcDbEntity
  8
RACCORDO
100
AcDbLine
 62
7
  6
CONTINUOUS
 10
-30.7047980962
 20
-1.0112698604
 11
-30.5367284729
 21
-1.0200780162
  0
LWPOLYLINE
  5
6B0
100
AcDbEntity
  8
RACCORDO
100
AcDbPolyline
 62
253
  6
CONTINUOUS
 90
10
 70
0
 10
-33.4075443123
 20
-5.3089314036
 10
-33.4089935707
 20
-5.3065997181
 10
-33.4103026197
 20
-5.2997281348
 10
-33.4114595346
 20
-5.2883689762
 10
-33.4124525534
 20
-5.2726087107
 10
-33.4132738699
 20
-5.2525671364
 10
-33.4139197007
 20
-5.2283964431
 10
-33.4143847765
 20
-5.2002803202
 10
-33.4146642374
 20
-5.168432471
 10
-33.4147573745
 20
-5.1330947879
  0
LINE
  5
6B1
100
AcDbEntity
  8
RACCORDO
100
AcDbLine
 62
7
  6
CONTINUOUS
 10
-34.8900945639
 20
-3.058387865
 11
-34.8900945639
 21
-0.1829163527
  0
LINE
  5
6B2
100
AcDbEntity
  8
RACCORDO
100
AcDbLine
 62
253
  6
CONTINUOUS
 10
-34.5953302858
 20
-0.1829163527
 11
-34.0866040826
 21
-0.1740441271
  0
LINE
  5
6B3
100
AcDbEntity
  8
RACCORDO
100
AcDbLine
 62
7
  6
CONTINUOUS
 10
-29.1760782967
 20
0.0961748577
 11
-29.9033628938
 21
0.0834800578
  0
LINE
  5
6B4
100
AcDbEntity
  8
ASSI
100
AcDbLine
 62
7
  6
CONTINUOUS
 10
-29.1760782967
 20
0.0961748577
 11
-29.9033628938
 21
0.0834800578
  0
LINE
  5
6B5
100
AcDbEntity
  8
RACCORDO
100
AcDbLine
 62
7
  6
CONTINUOUS
 10
-34.5953302858
 20
0.1170379559
 11
-34.0866040826
 21
0.1259178048
  0
LINE
  5
6B6
100
AcDbEntity
  8
DRAFT
100
AcDbLine
 62
7
  6
CONTINUOUS
 10
-30.9585694067
 20
0.191243957
 11
-31.3989956968
 21
0.1835562875
  0
LINE
  5
6B7
100
AcDbEntity
  8
RACCORDO
100
AcDbLine
 62
253
  6
CONTINUOUS
 10
-34.8900945639
 20
-0.1829163527
 11
-34.5953302858
 21
-0.1829163527
  0
LINE
  5
6B8
100
AcDbEntity
  8
RACCORDO
100
AcDbLine
 62
253
  6
CONTINUOUS
 10
-33.8900945639
 20
-0.1740365038
 11
-34.0866040826
 21
-0.1740365038
  0
LWPOLYLINE
  5
6B9
100
AcDbEntity
  8
RACCORDO
100
AcDbPolyline
 62
253
  6
CONTINUOUS
 90
7
 70
0
 10
-34.5953302858
 20
-3.3583421735
 10
-34.5959710411
 20
-3.3557435237
 10
-34.5965105831
 20
-3.348013399
 10
-34.5969395101
 20
-3.3352808564
 10
-34.5972503486
 20
-3.3177590935
 10
-34.5974375631
 20
-3.295748211
 10
-34.5974978104
 20
-3.26963556
  0
LINE
  5
6BA
100
AcDbEntity
  8
RACCORDO
100
AcDbLine
 62
253
  6
CONTINUOUS
 10
-34.5953302858
 20
-0.1829163527
 11
-34.5965105831
 21
-0.1049683911
  0
LINE
  5
6BB
100
AcDbEntity
  8
RACCORDO
100
AcDbLine
 62
253
  6
CONTINUOUS
 10
-34.5965105831
 20
-0.1049683911
 11
-34.5972503486
 21
-0.0323329521
  0
LWPOLYLINE
  5
6BC
100
AcDbEntity
  8
RACCORDO
100
AcDbPolyline
 62
253
  6
CONTINUOUS
 90
8
 70
0
 10
-34.5972503486
 20
-0.0323329521
 10
-34.5974978104
 20
0.029967661
 10
-34.5974298113
 20
0.0558986016
 10
-34.5972345235
 20
0.0776829715
 10
-34.5969178432
 20
0.0948465095
 10
-34.5964886461
 20
0.107165218
 10
-34.5959558261
 20
0.1145704485
 10
-34.5953302858
 20
0.1170379559
  0
LINE
  5
6BD
100
AcDbEntity
  8
RACCORDO
100
AcDbLine
 62
253
  6
CONTINUOUS
 10
-34.5953302858
 20
-3.058387865
 11
-34.5953302858
 21
-0.1829163527
  0
LINE
  5
6BE
100
AcDbEntity
  8
RACCORDO
100
AcDbLine
 62
253
  6
CONTINUOUS
 10
-34.5974978104
 20
-3.26963556
 11
-34.5972345235
 21
-3.2068365537
  0
LINE
  5
6BF
100
AcDbEntity
  8
RACCORDO
100
AcDbLine
 62
253
  6
CONTINUOUS
 10
-34.5972345235
 20
-3.2068365537
 11
-34.5964886461
 21
-3.1346230148
  0
LINE
  5
6C0
100
AcDbEntity
  8
RACCORDO
100
AcDbLine
 62
253
  6
CONTINUOUS
 10
-34.5964886461
 20
-3.1346230148
 11
-34.5953302858
 21
-3.058387865
  0
LINE
  5
6C1
100
AcDbEntity
  8
DRAFT
100
AcDbLine
 62
7
  6
CONTINUOUS
 10
-32.8191582003
 20
0.9087672588
 11
-32.8900945639
 21
0.90752906
  0
LINE
  5
6C2
100
AcDbEntity
  8
RACCORDO
100
AcDbLine
 62
7
  6
CONTINUOUS
 10
-31.6400945639
 20
0.7793478912
 11
-32.0691319216
 21
0.7756037389
  0
LINE
  5
6C3
100
AcDbEntity
  8
ASSI
100
AcDbLine
 62
7
  6
CONTINUOUS
 10
-31.6400945639
 20
0.7793478912
 11
-32.0691319216
 21
0.7756037389
  0
LINE
  5
6C4
100
AcDbEntity
  8
RACCORDO
100
AcDbLine
 62
253
  6
CONTINUOUS
 10
-29.4257451189
 20
0.2626494505
 11
-29.2295096933
 21
0.2626494602
  0
LINE
  5
6C5
100
AcDbEntity
  8
ASSI
100
AcDbLine
 62
253
  6
CONTINUOUS
 10
-29.4257451189
 20
0.2626494505
 11
-29.2295096933
 21
0.2626494602
  0
LINE
  5
6C6
100
AcDbEntity
  8
RACCORDO
100
AcDbLine
 62
253
  6
CONTINUOUS
 10
-29.2295096933
 20
0.2626494505
 11
-29.1760782967
 21
0.2621831617
  0
LINE
  5
6C7
100
AcDbEntity
  8
ASSI
100
AcDbLine
 62
253
  6
CONTINUOUS
 10
-29.2295096933
 20
0.2626494505
 11
-29.1760782967
 21
0.2621831617
  0
LINE
  5
6C8
100
AcDbEntity
  8
RACCORDO
100
AcDbLine
 62
253
  6
CONTINUOUS
 10
-29.7238115276
 20
0.5626475878
 11
-30.268398767
 21
0.5674001286
  0
LINE
  5
6C9
100
AcDbEntity
  8
ASSI
100
AcDbLine
 62
253
  6
CONTINUOUS
 10
-29.7238115276
 20
0.5626475878
 11
-30.268398767
 21
0.5674001286
  0
LINE
  5
6CA
100
AcDbEntity
  8
RACCORDO
100
AcDbLine
 62
7
  6
CONTINUOUS
 10
-29.672628302
 20
0.7621780732
 11
-31.6400945639
 21
0.7793478912
  0
LINE
  5
6CB
100
AcDbEntity
  8
ASSI
100
AcDbLine
 62
7
  6
CONTINUOUS
 10
-29.672628302
 20
0.7621780732
 11
-31.6400945639
 21
0.7793478912
  0
LWPOLYLINE
  5
6CC
100
AcDbEntity
  8
DRAFT
100
AcDbPolyline
 62
7
  6
CONTINUOUS
 90
10
 70
0
 10
-31.7390873833
 20
-1.8150512031
 10
-31.7608372505
 20
-1.8016737792
 10
-31.7827063042
 20
-1.7884273622
 10
-31.8046945446
 20
-1.7753119521
 10
-31.826802695
 20
-1.7623326391
 10
-31.849030032
 20
-1.7494843331
 10
-31.871374385
 20
-1.7367517632
 10
-31.8938350306
 20
-1.7241298392
 10
-31.9164126922
 20
-1.7116236514
 10
-31.93910737
 20
-1.6992331997
  0
LWPOLYLINE
  5
6CD
100
AcDbEntity
  8
ASSI
100
AcDbPolyline
 62
7
  6
CONTINUOUS
 90
10
 70
0
 10
-31.7390873833
 20
-1.8150512031
 10
-31.7608372505
 20
-1.8016737792
 10
-31.7827063042
 20
-1.7884273622
 10
-31.8046945446
 20
-1.7753119521
 10
-31.826802695
 20
-1.7623326391
 10
-31.849030032
 20
-1.7494843331
 10
-31.871374385
 20
-1.7367517632
 10
-31.8938350306
 20
-1.7241298392
 10
-31.9164126922
 20
-1.7116236514
 10
-31.93910737
 20
-1.6992331997
  0
LWPOLYLINE
  5
6CE
100
AcDbEntity
  8
RACCORDO
100
AcDbPolyline
 62
253
  6
CONTINUOUS
 90
6
 70
0
 10
-34.0854567797
 20
0.0978122691
 10
-34.0856234992
 20
0.1078387572
 10
-34.0858198995
 20
0.1157101172
 10
-34.0860452745
 20
0.1213685344
 10
-34.0863054535
 20
0.1247783933
 10
-34.0866034991
 20
0.1259178049
  0
LINE
  5
6CF
100
AcDbEntity
  8
RACCORDO
100
AcDbLine
 62
253
  6
CONTINUOUS
 10
-34.0856234992
 20
-3.1699042667
 11
-34.0866034991
 21
-3.0673453543
  0
LINE
  5
6D0
100
AcDbEntity
  8
RACCORDO
100
AcDbLine
 62
253
  6
CONTINUOUS
 10
-34.0852355595
 20
0.0716621757
 11
-34.0854567797
 21
0.0978122691
  0
LINE
  5
6D1
100
AcDbEntity
  8
RACCORDO
100
AcDbLine
 62
253
  6
CONTINUOUS
 10
-34.0851787693
 20
-3.2601352244
 11
-34.0856234992
 21
-3.1699042667
  0
LINE
  5
6D2
100
AcDbEntity
  8
RACCORDO
100
AcDbLine
 62
253
  6
CONTINUOUS
 10
-34.0851592237
 20
0.0380848328
 11
-34.0852355595
 21
0.0716621757
  0
LINE
  5
6D3
100
AcDbEntity
  8
RACCORDO
100
AcDbLine
 62
253
  6
CONTINUOUS
 10
-34.0866040826
 20
-3.067345344
 11
-34.0866040826
 21
-0.1740441271
  0
LINE
  5
6D4
100
AcDbEntity
  8
DRAFT
100
AcDbLine
 62
7
  6
CONTINUOUS
 10
-33.8900945639
 20
1.0782848428
 11
-33.8900945639
 21
-4.3195890604
  0
LINE
  5
6D5
100
AcDbEntity
  8
RACCORDO
100
AcDbLine
 62
7
  6
CONTINUOUS
 10
-33.8900945639
 20
-4.8092359901
 11
-33.8900945639
 21
-4.3195890604
  0
LINE
  5
6D6
100
AcDbEntity
  8
RACCORDO
100
AcDbLine
 62
7
  6
CONTINUOUS
 10
-33.8900945639
 20
1.0782848428
 11
-33.8900945639
 21
1.5679317724
  0
LINE
  5
6D7
100
AcDbEntity
  8
RACCORDO
100
AcDbLine
 62
253
  6
CONTINUOUS
 10
-34.085178642
 20
-3.2970699159
 11
-34.0851787693
 21
-3.2601352244
  0
LINE
  5
6D8
100
AcDbEntity
  8
RACCORDO
100
AcDbLine
 62
253
  6
CONTINUOUS
 10
-34.0853268284
 20
-0.0239933451
 11
-34.0851592237
 21
0.0380848328
  0
LINE
  5
6D9
100
AcDbEntity
  8
RACCORDO
100
AcDbLine
 62
253
  6
CONTINUOUS
 10
-34.0860457177
 20
-0.121923583
 11
-34.0853268284
 21
-0.0239933451
  0
LINE
  5
6DA
100
AcDbEntity
  8
RACCORDO
100
AcDbLine
 62
253
  6
CONTINUOUS
 10
-34.0866041399
 20
-0.1740441281
 11
-34.0860457177
 21
-0.121923583
  0
LWPOLYLINE
  5
6DB
100
AcDbEntity
  8
RACCORDO
100
AcDbPolyline
 62
253
  6
CONTINUOUS
 90
8
 70
0
 10
-34.0866041399
 20
-3.3672220213
 10
-34.0863060814
 20
-3.3660856591
 10
-34.0860457177
 20
-3.3626730165
 10
-34.0858200597
 20
-3.3570103779
 10
-34.0856233475
 20
-3.349140321
 10
-34.0854564292
 20
-3.3391234293
 10
-34.0853268284
 20
-3.3270398874
 10
-34.085178642
 20
-3.2970699159
  0
LWPOLYLINE
  5
6DC
100
AcDbEntity
  8
DRAFT
100
AcDbPolyline
 62
7
  6
CONTINUOUS
 90
10
 70
0
 10
-31.7390873833
 20
-1.4262530146
 10
-31.7608372505
 20
-1.4396304385
 10
-31.7827063042
 20
-1.4528768555
 10
-31.8046945446
 20
-1.4659922656
 10
-31.826802695
 20
-1.4789715786
 10
-31.849030032
 20
-1.4918198846
 10
-31.871374385
 20
-1.5045524545
 10
-31.8938350306
 20
-1.5171743785
 10
-31.9164126922
 20
-1.5296805663
 10
-31.93910737
 20
-1.5420710179
  0
LWPOLYLINE
  5
6DD
100
AcDbEntity
  8
ASSI
100
AcDbPolyline
 62
7
  6
CONTINUOUS
 90
10
 70
0
 10
-31.7390873833
 20
-1.4262530146
 10
-31.7608372505
 20
-1.4396304385
 10
-31.7827063042
 20
-1.4528768555
 10
-31.8046945446
 20
-1.4659922656
 10
-31.826802695
 20
-1.4789715786
 10
-31.849030032
 20
-1.4918198846
 10
-31.871374385
 20
-1.5045524545
 10
-31.8938350306
 20
-1.5171743785
 10
-31.9164126922
 20
-1.5296805663
 10
-31.93910737
 20
-1.5420710179
  0
LINE
  5
6DE
100
AcDbEntity
  8
RACCORDO
100
AcDbLine
 62
253
  6
CONTINUOUS
 10
-33.4075443123
 20
1.4679926897
 11
-31.6400945639
 21
1.529713395
  0
LINE
  5
6DF
100
AcDbEntity
  8
RACCORDO
100
AcDbLine
 62
253
  6
CONTINUOUS
 10
-27.0296231201
 20
1.4189631957
 11
-26.4400945639
 21
1.4189631899
  0
LINE
  5
6E0
100
AcDbEntity
  8
RACCORDO
100
AcDbLine
 62
253
  6
CONTINUOUS
 10
-33.8900945639
 20
1.4679926897
 11
-33.4075443124
 21
1.467992693
  0
LINE
  5
6E1
100
AcDbEntity
  8
RACCORDO
100
AcDbLine
 62
253
  6
CONTINUOUS
 10
-26.3900945639
 20
1.58787623
 11
-26.4649757382
 21
1.58787623
  0
LINE
  5
6E2
100
AcDbEntity
  8
ASSI
100
AcDbLine
 62
253
  6
CONTINUOUS
 10
-26.3900945639
 20
1.58787623
 11
-26.4649757382
 21
1.58787623
  0
LINE
  5
6E3
100
AcDbEntity
  8
RACCORDO
100
AcDbLine
 62
253
  6
CONTINUOUS
 10
-27.0296231201
 20
1.4189631957
 11
-31.6400945639
 21
1.4994392741
  0
LINE
  5
6E4
100
AcDbEntity
  8
RACCORDO
100
AcDbLine
 62
7
  6
CONTINUOUS
 10
-29.4717769792
 20
0.84673063
 11
-33.8900945639
 21
1.0782848428
  0
LINE
  5
6E5
100
AcDbEntity
  8
RACCORDO
100
AcDbLine
 62
7
  6
CONTINUOUS
 10
-29.6735366434
 20
0.75947446
 11
-29.7255567018
 21
0.7626399724
  0
LINE
  5
6E6
100
AcDbEntity
  8
ASSI
100
AcDbLine
 62
7
  6
CONTINUOUS
 10
-29.6735366434
 20
0.75947446
 11
-29.7255567018
 21
0.7626399724
  0
LINE
  5
6E7
100
AcDbEntity
  8
0
100
AcDbLine
 62
7
  6
CONTINUOUS
 10
-30.4708543241
 20
-0.3967410872
 11
-30.6445858923
 21
-0.3501898538
  0
LWPOLYLINE
  5
6E8
100
AcDbEntity
  8
DRAFT
100
AcDbPolyline
 62
7
  6
CONTINUOUS
 90
10
 70
0
 10
-30.7413560459
 20
-1.5419221659
 10
-30.7640878099
 20
-1.5295094935
 10
-30.7867059315
 20
-1.5169783072
 10
-30.8092104107
 20
-1.5043286069
 10
-30.8316019782
 20
-1.491565629
 10
-30.8538799033
 20
-1.4786841372
 10
-30.8760419933
 20
-1.4656684227
 10
-30.8980875172
 20
-1.4525132493
 10
-30.920017206
 20
-1.4392238532
 10
-30.9418310597
 20
-1.4258002345
  0
LWPOLYLINE
  5
6E9
100
AcDbEntity
  8
ASSI
100
AcDbPolyline
 62
7
  6
CONTINUOUS
 90
10
 70
0
 10
-30.7413560459
 20
-1.5419221659
 10
-30.7640878099
 20
-1.5295094935
 10
-30.7867059315
 20
-1.5169783072
 10
-30.8092104107
 20
-1.5043286069
 10
-30.8316019782
 20
-1.491565629
 10
-30.8538799033
 20
-1.4786841372
 10
-30.8760419933
 20
-1.4656684227
 10
-30.8980875172
 20
-1.4525132493
 10
-30.920017206
 20
-1.4392238532
 10
-30.9418310597
 20
-1.4258002345
  0
LINE
  5
6EA
100
AcDbEntity
  8
RACCORDO
100
AcDbLine
 62
253
  6
CONTINUOUS
 10
-33.4075443123
 20
1.4679926897
 11
-33.4103023905
 21
1.572057925
  0
LINE
  5
6EB
100
AcDbEntity
  8
RACCORDO
100
AcDbLine
 62
253
  6
CONTINUOUS
 10
-33.4103023905
 20
1.572057925
 11
-33.412452773
 21
1.6729618042
  0
LINE
  5
6EC
100
AcDbEntity
  8
RACCORDO
100
AcDbLine
 62
253
  6
CONTINUOUS
 10
-33.412452773
 20
1.6729618042
 11
-33.4139206753
 21
1.7676436552
  0
LWPOLYLINE
  5
6ED
100
AcDbEntity
  8
RACCORDO
100
AcDbPolyline
 62
253
  6
CONTINUOUS
 90
12
 70
0
 10
-33.4139206753
 20
1.7676436552
 10
-33.4146646414
 20
1.8532314742
 10
-33.4147573745
 20
1.8917905703
 10
-33.4146642374
 20
1.9271282534
 10
-33.4143847765
 20
1.9589761026
 10
-33.4139197007
 20
1.9870922255
 10
-33.4132738699
 20
2.0112629188
 10
-33.4124525534
 20
2.031304493
 10
-33.4114595345
 20
2.0470647585
 10
-33.4103026197
 20
2.0584239171
 10
-33.4089935707
 20
2.0652955004
 10
-33.4075443123
 20
2.0676271859
  0
LINE
  5
6EE
100
AcDbEntity
  8
RACCORDO
100
AcDbLine
 62
253
  6
CONTINUOUS
 10
-33.4075443123
 20
-4.7092969074
 11
-33.4075443123
 21
-4.2942996733
  0
LINE
  5
6EF
100
AcDbEntity
  8
RACCORDO
100
AcDbLine
 62
253
  6
CONTINUOUS
 10
-33.4075443123
 20
1.0529954557
 11
-33.4075443123
 21
1.4679926897
  0
LINE
  5
6F0
100
AcDbEntity
  8
DRAFT
100
AcDbLine
 62
7
  6
CONTINUOUS
 10
-32.8900945639
 20
1.0258770635
 11
-32.8900945639
 21
-4.2671812811
  0
LINE
  5
6F1
100
AcDbEntity
  8
RACCORDO
100
AcDbLine
 62
7
  6
CONTINUOUS
 10
-32.8400945639
 20
-4.0075001256
 11
-32.8400945639
 21
0.7661959079
  0
LINE
  5
6F2
100
AcDbEntity
  8
ASSI
100
AcDbLine
 62
7
  6
CONTINUOUS
 10
-32.8400945639
 20
-4.0075001256
 11
-32.8400945639
 21
0.7661959079
  0
LINE
  5
6F3
100
AcDbEntity
  8
RACCORDO
100
AcDbLine
 62
253
  6
CONTINUOUS
 10
-33.4147573745
 20
-5.1330947879
 11
-33.4143855824
 21
-5.0530482579
  0
LINE
  5
6F4
100
AcDbEntity
  8
RACCORDO
100
AcDbLine
 62
253
  6
CONTINUOUS
 10
-33.4143855824
 20
-5.0530482579
 11
-33.4132745823
 21
-4.9625696804
  0
LINE
  5
6F5
100
AcDbEntity
  8
RACCORDO
100
AcDbLine
 62
253
  6
CONTINUOUS
 10
-33.4132745823
 20
-4.9625696804
 11
-33.4114593993
 21
-4.8644038994
  0
LWPOLYLINE
  5
6F6
100
AcDbEntity
  8
RACCORDO
100
AcDbPolyline
 62
253
  6
CONTINUOUS
 90
3
 70
0
 10
-33.4114593993
 20
-4.8644038994
 10
-33.4089933864
 20
-4.7615285442
 10
-33.4075443123
 20
-4.7092969074
  0
LWPOLYLINE
  5
6F7
100
AcDbEntity
  8
DRAFT
100
AcDbPolyline
 62
7
  6
CONTINUOUS
 90
10
 70
0
 10
-30.7413560459
 20
-1.6993820518
 10
-30.7640878099
 20
-1.7117947242
 10
-30.7867059315
 20
-1.7243259105
 10
-30.8092104107
 20
-1.7369756108
 10
-30.8316019782
 20
-1.7497385887
 10
-30.8538799033
 20
-1.7626200805
 10
-30.8760419933
 20
-1.775635795
 10
-30.8980875172
 20
-1.7887909684
 10
-30.920017206
 20
-1.8020803645
 10
-30.9418310597
 20
-1.8155039832
  0
LWPOLYLINE
  5
6F8
100
AcDbEntity
  8
ASSI
100
AcDbPolyline
 62
7
  6
CONTINUOUS
 90
10
 70
0
 10
-30.7413560459
 20
-1.6993820518
 10
-30.7640878099
 20
-1.7117947242
 10
-30.7867059315
 20
-1.7243259105
 10
-30.8092104107
 20
-1.7369756108
 10
-30.8316019782
 20
-1.7497385887
 10
-30.8538799033
 20
-1.7626200805
 10
-30.8760419933
 20
-1.775635795
 10
-30.8980875172
 20
-1.7887909684
 10
-30.920017206
 20
-1.8020803645
 10
-30.9418310597
 20
-1.8155039832
  0
LINE
  5
6F9
100
AcDbEntity
  8
RACCORDO
100
AcDbLine
 62
7
  6
CONTINUOUS
 10
-33.4075443123
 20
2.0676271859
 11
-31.6400945639
 21
2.1293478912
  0
LINE
  5
6FA
100
AcDbEntity
  8
DRAFT
100
AcDbLine
 62
7
  6
CONTINUOUS
 10
-30.1400945639
 20
2.1817290454
 11
-31.6400945639
 21
2.1293478912
  0
LINE
  5
6FB
100
AcDbEntity
  8
RACCORDO
100
AcDbLine
 62
7
  6
CONTINUOUS
 10
-31.6400945639
 20
2.1293478912
 11
-32.6400945639
 21
2.1206210234
  0
LINE
  5
6FC
100
AcDbEntity
  8
ASSI
100
AcDbLine
 62
7
  6
CONTINUOUS
 10
-31.6400945639
 20
2.1293478912
 11
-32.6400945639
 21
2.1206210234
  0
LINE
  5
6FD
100
AcDbEntity
  8
RACCORDO
100
AcDbLine
 62
7
  6
CONTINUOUS
 10
-31.6400945639
 20
2.1293478912
 11
-26.8857312962
 21
2.0878571915
  0
LINE
  5
6FE
100
AcDbEntity
  8
ASSI
100
AcDbLine
 62
7
  6
CONTINUOUS
 10
-31.6400945639
 20
2.1293478912
 11
-26.8857312962
 21
2.0878571915
  0
LINE
  5
6FF
100
AcDbEntity
  8
RACCORDO
100
AcDbLine
 62
7
  6
CONTINUOUS
 10
-27.0296231201
 20
2.0188718128
 11
-31.6400945639
 21
2.0993478912
  0
LINE
  5
700
100
AcDbEntity
  8
RACCORDO
100
AcDbLine
 62
7
  6
CONTINUOUS
 10
-29.6367698878
 20
0.7539190258
 11
-29.6735366434
 21
0.75947446
  0
LINE
  5
701
100
AcDbEntity
  8
ASSI
100
AcDbLine
 62
7
  6
CONTINUOUS
 10
-29.6367698878
 20
0.7539190258
 11
-29.6735366434
 21
0.75947446
  0
LINE
  5
702
100
AcDbEntity
  8
RACCORDO
100
AcDbLine
 62
7
  6
CONTINUOUS
 10
-32.6400945639
 20
-5.361925241
 11
-32.6400945639
 21
-5.3357313393
  0
LINE
  5
703
100
AcDbEntity
  8
ASSI
100
AcDbLine
 62
7
  6
CONTINUOUS
 10
-32.6400945639
 20
-5.361925241
 11
-32.6400945639
 21
-5.3357313393
  0
LINE
  5
704
100
AcDbEntity
  8
RACCORDO
100
AcDbLine
 62
7
  6
CONTINUOUS
 10
-32.6400945639
 20
2.0944271217
 11
-32.6400945639
 21
2.1206210234
  0
LINE
  5
705
100
AcDbEntity
  8
ASSI
100
AcDbLine
 62
7
  6
CONTINUOUS
 10
-32.6400945639
 20
2.0944271217
 11
-32.6400945639
 21
2.1206210234
  0
LINE
  5
706
100
AcDbEntity
  8
RACCORDO
100
AcDbLine
 62
253
  6
CONTINUOUS
 10
-32.2269186527
 20
-5.3655309726
 11
-32.2269186527
 21
-5.3501597601
  0
LINE
  5
707
100
AcDbEntity
  8
ASSI
100
AcDbLine
 62
253
  6
CONTINUOUS
 10
-32.2269186527
 20
-5.3655309726
 11
-32.2269186527
 21
-5.3501597601
  0
LINE
  5
708
100
AcDbEntity
  8
RACCORDO
100
AcDbLine
 62
253
  6
CONTINUOUS
 10
-32.2269186527
 20
2.1088555424
 11
-32.2269186527
 21
2.1242267549
  0
LINE
  5
709
100
AcDbEntity
  8
ASSI
100
AcDbLine
 62
253
  6
CONTINUOUS
 10
-32.2269186527
 20
2.1088555424
 11
-32.2269186527
 21
2.1242267549
  0
LINE
  5
70A
100
AcDbEntity
  8
DRAFT
100
AcDbLine
 62
7
  6
CONTINUOUS
 10
-31.93910737
 20
-1.5420710179
 11
-31.93910737
 21
-1.6992331997
  0
LINE
  5
70B
100
AcDbEntity
  8
ASSI
100
AcDbLine
 62
7
  6
CONTINUOUS
 10
-31.93910737
 20
-1.5420710179
 11
-31.93910737
 21
-1.6992331997
  0
LINE
  5
70C
100
AcDbEntity
  8
DRAFT
100
AcDbLine
 62
7
  6
CONTINUOUS
 10
-31.7390873833
 20
-1.4262530146
 11
-31.7390873833
 21
-1.8150512031
  0
LINE
  5
70D
100
AcDbEntity
  8
ASSI
100
AcDbLine
 62
7
  6
CONTINUOUS
 10
-31.7390873833
 20
-1.4262530146
 11
-31.7390873833
 21
-1.8150512031
  0
LINE
  5
70E
100
AcDbEntity
  8
RACCORDO
100
AcDbLine
 62
7
  6
CONTINUOUS
 10
-31.6400945639
 20
-5.3706521088
 11
-31.6400945639
 21
-4.201671557
  0
LINE
  5
70F
100
AcDbEntity
  8
DRAFT
100
AcDbLine
 62
7
  6
CONTINUOUS
 10
-31.6400945639
 20
-4.201671557
 11
-31.6400945639
 21
-3.6780686578
  0
LINE
  5
710
100
AcDbEntity
  8
ASSI
100
AcDbLine
 62
7
  6
CONTINUOUS
 10
-31.6400945639
 20
-4.201671557
 11
-31.6400945639
 21
-3.6780686578
  0
LINE
  5
711
100
AcDbEntity
  8
DRAFT
100
AcDbLine
 62
7
  6
CONTINUOUS
 10
-31.6400945639
 20
0.4367644401
 11
-31.6400945639
 21
0.9603673394
  0
LINE
  5
712
100
AcDbEntity
  8
ASSI
100
AcDbLine
 62
7
  6
CONTINUOUS
 10
-31.6400945639
 20
0.4367644401
 11
-31.6400945639
 21
0.9603673394
  0
LINE
  5
713
100
AcDbEntity
  8
RACCORDO
100
AcDbLine
 62
7
  6
CONTINUOUS
 10
-31.6400945639
 20
0.9603673394
 11
-31.6400945639
 21
2.1293478912
  0
LINE
  5
714
100
AcDbEntity
  8
DRAFT
100
AcDbLine
 62
7
  6
CONTINUOUS
 10
-30.9418310597
 20
-1.8155039832
 11
-30.9418310597
 21
-1.4258002345
  0
LINE
  5
715
100
AcDbEntity
  8
ASSI
100
AcDbLine
 62
7
  6
CONTINUOUS
 10
-30.9418310597
 20
-1.8155039832
 11
-30.9418310597
 21
-1.4258002345
  0
LINE
  5
716
100
AcDbEntity
  8
DRAFT
100
AcDbLine
 62
7
  6
CONTINUOUS
 10
-30.7413560459
 20
-1.6993820518
 11
-30.7413560459
 21
-1.5419221659
  0
LINE
  5
717
100
AcDbEntity
  8
ASSI
100
AcDbLine
 62
7
  6
CONTINUOUS
 10
-30.7413560459
 20
-1.6993820518
 11
-30.7413560459
 21
-1.5419221659
  0
LINE
  5
718
100
AcDbEntity
  8
0
100
AcDbLine
 62
7
  6
CONTINUOUS
 10
-31.1471036376
 20
-1.901528161
 11
-31.1176677517
 21
-1.791671939
  0
LINE
  5
719
100
AcDbEntity
  8
DRAFT
100
AcDbLine
 62
7
  6
CONTINUOUS
 10
-31.1156304061
 20
-3.3295497838
 11
-31.1612260706
 21
-3.4997151205
  0
LINE
  5
71A
100
AcDbEntity
  8
0
100
AcDbLine
 62
7
  6
CONTINUOUS
 10
-31.0494880687
 20
-3.4690735507
 11
-31.0002448768
 21
-3.2852954565
  0
LINE
  5
71B
100
AcDbEntity
  8
0
100
AcDbLine
 62
7
  6
CONTINUOUS
 10
-30.7140692953
 20
-2.2172736464
 11
-30.6641814272
 21
-2.0310895881
  0
LINE
  5
71C
100
AcDbEntity
  8
DRAFT
100
AcDbLine
 62
7
  6
CONTINUOUS
 10
-30.1400945639
 20
2.1817290454
 11
-30.1400945639
 21
2.1162575895
  0
LINE
  5
71D
100
AcDbEntity
  8
DRAFT
100
AcDbLine
 62
7
  6
CONTINUOUS
 10
-30.1400945639
 20
-5.3575618071
 11
-30.1400945639
 21
-5.4230332631
  0
LWPOLYLINE
  5
71E
100
AcDbEntity
  8
RACCORDO
100
AcDbPolyline
 62
253
  6
CONTINUOUS
 90
16
 70
0
 10
-29.4257451189
 20
0.2626494505
 10
-29.4274829603
 20
0.2942657421
 10
-29.4323136193
 20
0.3249345425
 10
-29.4402370959
 20
0.3546558515
 10
-29.4514062692
 20
0.3837458399
 10
-29.4656682601
 20
0.411888337
 10
-29.4825644309
 20
0.4381348307
 10
-29.5021796753
 20
0.4624080606
 10
-29.5244290997
 20
0.4847852871
 10
-29.5485993851
 20
0.5045497799
 10
-29.5747757594
 20
0.5216177501
 10
-29.6028729947
 20
0.5360729864
 10
-29.6319220894
 20
0.5474501248
 10
-29.6616000428
 20
0.5555940437
 10
-29.6922298555
 20
0.5606598647
 10
-29.7238115276
 20
0.5626475878
  0
LWPOLYLINE
  5
71F
100
AcDbEntity
  8
ASSI
100
AcDbPolyline
 62
253
  6
CONTINUOUS
 90
16
 70
0
 10
-29.4257451189
 20
0.2626494505
 10
-29.4274829603
 20
0.2942657421
 10
-29.4323136193
 20
0.3249345425
 10
-29.4402370959
 20
0.3546558515
 10
-29.4514062692
 20
0.3837458399
 10
-29.4656682601
 20
0.411888337
 10
-29.4825644309
 20
0.4381348307
 10
-29.5021796753
 20
0.4624080606
 10
-29.5244290997
 20
0.4847852871
 10
-29.5485993851
 20
0.5045497799
 10
-29.5747757594
 20
0.5216177501
 10
-29.6028729947
 20
0.5360729864
 10
-29.6319220894
 20
0.5474501248
 10
-29.6616000428
 20
0.5555940437
 10
-29.6922298555
 20
0.5606598647
 10
-29.7238115276
 20
0.5626475878
  0
LWPOLYLINE
  5
720
100
AcDbEntity
  8
RACCORDO
100
AcDbPolyline
 62
253
  6
CONTINUOUS
 90
15
 70
0
 10
-29.2295096933
 20
0.2626494505
 10
-29.2322158578
 20
0.3145781759
 10
-29.2403070995
 20
0.3659579836
 10
-29.2537000205
 20
0.4162322732
 10
-29.2722561026
 20
0.4648596277
 10
-29.2957770707
 20
0.5113076498
 10
-29.3240029803
 20
0.5550607176
 10
-29.3566261833
 20
0.5956415326
 10
-29.3932956786
 20
0.6326138384
 10
-29.4336119838
 20
0.6655766167
 10
-29.4771374912
 20
0.6941716877
 10
-29.5234028522
 20
0.7180907016
 10
-29.57191001
 20
0.7370763795
 10
-29.6221357898
 20
0.7509217988
 10
-29.6367698878
 20
0.7539190258
  0
LWPOLYLINE
  5
721
100
AcDbEntity
  8
ASSI
100
AcDbPolyline
 62
253
  6
CONTINUOUS
 90
15
 70
0
 10
-29.2295096933
 20
0.2626494505
 10
-29.2322158578
 20
0.3145781759
 10
-29.2403070995
 20
0.3659579836
 10
-29.2537000205
 20
0.4162322732
 10
-29.2722561026
 20
0.4648596277
 10
-29.2957770707
 20
0.5113076498
 10
-29.3240029803
 20
0.5550607176
 10
-29.3566261833
 20
0.5956415326
 10
-29.3932956786
 20
0.6326138384
 10
-29.4336119838
 20
0.6655766167
 10
-29.4771374912
 20
0.6941716877
 10
-29.5234028522
 20
0.7180907016
 10
-29.57191001
 20
0.7370763795
 10
-29.6221357898
 20
0.7509217988
 10
-29.6367698878
 20
0.7539190258
  0
LWPOLYLINE
  5
722
100
AcDbEntity
  8
RACCORDO
100
AcDbPolyline
 62
253
  6
CONTINUOUS
 90
6
 70
0
 10
-29.7235065653
 20
0.6911898436
 10
-29.7237216665
 20
0.7158397649
 10
-29.7240455331
 20
0.73583592
 10
-29.7244683261
 20
0.7505708533
 10
-29.724977202
 20
0.7595969375
 10
-29.7255567018
 20
0.7626399724
  0
LWPOLYLINE
  5
723
100
AcDbEntity
  8
ASSI
100
AcDbPolyline
 62
253
  6
CONTINUOUS
 90
6
 70
0
 10
-29.7235065653
 20
0.6911898436
 10
-29.7237216665
 20
0.7158397649
 10
-29.7240455331
 20
0.73583592
 10
-29.7244683261
 20
0.7505708533
 10
-29.724977202
 20
0.7595969375
 10
-29.7255567018
 20
0.7626399724
  0
LINE
  5
724
100
AcDbEntity
  8
RACCORDO
100
AcDbLine
 62
253
  6
CONTINUOUS
 10
-29.7238115276
 20
-3.8039518054
 11
-29.7234253703
 21
-3.872341805
  0
LINE
  5
725
100
AcDbEntity
  8
ASSI
100
AcDbLine
 62
253
  6
CONTINUOUS
 10
-29.7238115276
 20
-3.8039518054
 11
-29.7234253703
 21
-3.872341805
  0
LINE
  5
726
100
AcDbEntity
  8
RACCORDO
100
AcDbLine
 62
253
  6
CONTINUOUS
 10
-29.4257451189
 20
-3.5039536681
 11
-29.4257451189
 21
-3.3331211248
  0
LINE
  5
727
100
AcDbEntity
  8
ASSI
100
AcDbLine
 62
253
  6
CONTINUOUS
 10
-29.4257451189
 20
-3.5039536681
 11
-29.4257451189
 21
-3.3331211248
  0
LINE
  5
728
100
AcDbEntity
  8
RACCORDO
100
AcDbLine
 62
253
  6
CONTINUOUS
 10
-29.4257451189
 20
0.0918169071
 11
-29.4257451189
 21
0.2626494505
  0
LINE
  5
729
100
AcDbEntity
  8
ASSI
100
AcDbLine
 62
253
  6
CONTINUOUS
 10
-29.4257451189
 20
0.0918169071
 11
-29.4257451189
 21
0.2626494505
  0
LINE
  5
72A
100
AcDbEntity
  8
RACCORDO
100
AcDbLine
 62
253
  6
CONTINUOUS
 10
-29.2295096933
 20
-3.5039536681
 11
-29.2295096933
 21
-3.3365464269
  0
LINE
  5
72B
100
AcDbEntity
  8
ASSI
100
AcDbLine
 62
253
  6
CONTINUOUS
 10
-29.2295096933
 20
-3.5039536681
 11
-29.2295096933
 21
-3.3365464269
  0
LINE
  5
72C
100
AcDbEntity
  8
RACCORDO
100
AcDbLine
 62
253
  6
CONTINUOUS
 10
-29.2295096933
 20
0.0952422092
 11
-29.2295096933
 21
0.2626494505
  0
LINE
  5
72D
100
AcDbEntity
  8
ASSI
100
AcDbLine
 62
253
  6
CONTINUOUS
 10
-29.2295096933
 20
0.0952422092
 11
-29.2295096933
 21
0.2626494505
  0
LINE
  5
72E
100
AcDbEntity
  8
RACCORDO
100
AcDbLine
 62
7
  6
CONTINUOUS
 10
-29.1760782967
 20
-3.5034873794
 11
-29.1760782967
 21
-3.3374790754
  0
LINE
  5
72F
100
AcDbEntity
  8
ASSI
100
AcDbLine
 62
7
  6
CONTINUOUS
 10
-29.1760782967
 20
-3.5034873794
 11
-29.1760782967
 21
-3.3374790754
  0
LINE
  5
730
100
AcDbEntity
  8
RACCORDO
100
AcDbLine
 62
7
  6
CONTINUOUS
 10
-29.1760782967
 20
0.0961748577
 11
-29.1760782967
 21
0.2621831617
  0
LINE
  5
731
100
AcDbEntity
  8
ASSI
100
AcDbLine
 62
7
  6
CONTINUOUS
 10
-29.1760782967
 20
0.0961748577
 11
-29.1760782967
 21
0.2621831617
  0
LINE
  5
732
100
AcDbEntity
  8
RACCORDO
100
AcDbLine
 62
7
  6
CONTINUOUS
 10
-29.1400945639
 20
-3.7385145105
 11
-29.1400945639
 21
0.4972102928
  0
LINE
  5
733
100
AcDbEntity
  8
RACCORDO
100
AcDbLine
 62
253
  6
CONTINUOUS
 10
-29.7234252965
 20
0.6310426506
 11
-29.7235065653
 21
0.6911898436
  0
LINE
  5
734
100
AcDbEntity
  8
ASSI
100
AcDbLine
 62
253
  6
CONTINUOUS
 10
-29.7234252965
 20
0.6310426506
 11
-29.7235065653
 21
0.6911898436
  0
LWPOLYLINE
  5
735
100
AcDbEntity
  8
RACCORDO
100
AcDbPolyline
 62
253
  6
CONTINUOUS
 90
7
 70
0
 10
-29.7234253703
 20
-3.872341805
 10
-29.7235066166
 20
-3.9324883623
 10
-29.7237216927
 20
-3.9571393504
 10
-29.7240455362
 20
-3.9771369734
 10
-29.7244683134
 20
-3.9918734073
 10
-29.7249771846
 20
-4.0009006767
 10
-29.7255566927
 20
-4.0039441899
  0
LWPOLYLINE
  5
736
100
AcDbEntity
  8
ASSI
100
AcDbPolyline
 62
253
  6
CONTINUOUS
 90
7
 70
0
 10
-29.7234253703
 20
-3.872341805
 10
-29.7235066166
 20
-3.9324883623
 10
-29.7237216927
 20
-3.9571393504
 10
-29.7240455362
 20
-3.9771369734
 10
-29.7244683134
 20
-3.9918734073
 10
-29.7249771846
 20
-4.0009006767
 10
-29.7255566927
 20
-4.0039441899
  0
LINE
  5
737
100
AcDbEntity
  8
RACCORDO
100
AcDbLine
 62
253
  6
CONTINUOUS
 10
-29.7238115276
 20
0.5626475878
 11
-29.7234252965
 21
0.6310426506
  0
LINE
  5
738
100
AcDbEntity
  8
ASSI
100
AcDbLine
 62
253
  6
CONTINUOUS
 10
-29.7238115276
 20
0.5626475878
 11
-29.7234252965
 21
0.6310426506
  0
LINE
  5
739
100
AcDbEntity
  8
RACCORDO
100
AcDbLine
 62
253
  6
CONTINUOUS
 10
-27.0296231201
 20
-4.6602674133
 11
-27.0268945449
 21
-4.8461774847
  0
LWPOLYLINE
  5
73A
100
AcDbEntity
  8
RACCORDO
100
AcDbPolyline
 62
253
  6
CONTINUOUS
 90
7
 70
0
 10
-27.0254762766
 20
1.9051537167
 10
-27.0258036759
 20
1.9393229966
 10
-27.0262886051
 20
1.9677547094
 10
-27.026922853
 20
1.9900587392
 10
-27.0276965543
 20
2.0060483205
 10
-27.0286004003
 20
2.0156610741
 10
-27.0296231201
 20
2.0188718128
  0
LINE
  5
73B
100
AcDbEntity
  8
RACCORDO
100
AcDbLine
 62
253
  6
CONTINUOUS
 10
-27.0268945449
 20
-4.8461774847
 11
-27.0257859185
 21
-4.9610351266
  0
LINE
  5
73C
100
AcDbEntity
  8
RACCORDO
100
AcDbLine
 62
253
  6
CONTINUOUS
 10
-27.0257859185
 20
-4.9610351266
 11
-27.0253065687
 21
-5.0626056603
  0
LINE
  5
73D
100
AcDbEntity
  8
RACCORDO
100
AcDbLine
 62
253
  6
CONTINUOUS
 10
-27.0296231201
 20
-4.6602674133
 11
-27.0296231201
 21
1.4189631957
  0
LINE
  5
73E
100
AcDbEntity
  8
RACCORDO
100
AcDbLine
 62
253
  6
CONTINUOUS
 10
-27.0253065689
 20
1.821301329
 11
-27.0254762766
 21
1.9051537167
  0
LWPOLYLINE
  5
73F
100
AcDbEntity
  8
RACCORDO
100
AcDbPolyline
 62
253
  6
CONTINUOUS
 90
8
 70
0
 10
-27.0253065687
 20
-5.0626056603
 10
-27.0254762774
 20
-5.1464580542
 10
-27.0258036774
 20
-5.1806273185
 10
-27.0262886071
 20
-5.2090590089
 10
-27.026922855
 20
-5.2313630116
 10
-27.0276965555
 20
-5.2473525661
 10
-27.0286003999
 20
-5.2569652997
 10
-27.0296231171
 20
-5.2601760304
  0
LINE
  5
740
100
AcDbEntity
  8
RACCORDO
100
AcDbLine
 62
253
  6
CONTINUOUS
 10
-27.0257859192
 20
1.719730817
 11
-27.0253065689
 21
1.821301329
  0
LINE
  5
741
100
AcDbEntity
  8
RACCORDO
100
AcDbLine
 62
253
  6
CONTINUOUS
 10
-27.0276704979
 20
1.5440535092
 11
-27.0257859192
 21
1.719730817
  0
LINE
  5
742
100
AcDbEntity
  8
RACCORDO
100
AcDbLine
 62
253
  6
CONTINUOUS
 10
-27.0296231201
 20
1.4189631957
 11
-27.0276704979
 21
1.5440535092
  0
LWPOLYLINE
  5
743
100
AcDbEntity
  8
RACCORDO
100
AcDbPolyline
 62
253
  6
CONTINUOUS
 90
4
 70
0
 10
-26.8857312962
 20
2.0878571915
 10
-26.8855238987
 20
2.0855762134
 10
-26.8853625811
 20
2.07880677
 10
-26.8852522422
 20
2.0677548672
  0
LWPOLYLINE
  5
744
100
AcDbEntity
  8
ASSI
100
AcDbPolyline
 62
253
  6
CONTINUOUS
 90
4
 70
0
 10
-26.8857312962
 20
2.0878571915
 10
-26.8855238987
 20
2.0855762134
 10
-26.8853625811
 20
2.07880677
 10
-26.8852522422
 20
2.0677548672
  0
LINE
  5
745
100
AcDbEntity
  8
RACCORDO
100
AcDbLine
 62
253
  6
CONTINUOUS
 10
-26.8851962141
 20
-5.2755776997
 11
-26.8853219114
 21
-5.2392001736
  0
LINE
  5
746
100
AcDbEntity
  8
ASSI
100
AcDbLine
 62
253
  6
CONTINUOUS
 10
-26.8851962141
 20
-5.2755776997
 11
-26.8853219114
 21
-5.2392001736
  0
LINE
  5
747
100
AcDbEntity
  8
RACCORDO
100
AcDbLine
 62
253
  6
CONTINUOUS
 10
-26.8852522422
 20
2.0677548672
 11
-26.885196245
 21
2.0342678309
  0
LINE
  5
748
100
AcDbEntity
  8
ASSI
100
AcDbLine
 62
253
  6
CONTINUOUS
 10
-26.8852522422
 20
2.0677548672
 11
-26.885196245
 21
2.0342678309
  0
LINE
  5
749
100
AcDbEntity
  8
RACCORDO
100
AcDbLine
 62
7
  6
CONTINUOUS
 10
-26.4400945639
 20
-4.6602674133
 11
-26.4400945639
 21
1.4189631957
  0
LINE
  5
74A
100
AcDbEntity
  8
RACCORDO
100
AcDbLine
 62
7
  6
CONTINUOUS
 10
-26.3900945639
 20
1.5877120646
 11
-26.3900945639
 21
-4.8290672297
  0
LINE
  5
74B
100
AcDbEntity
  8
ASSI
100
AcDbLine
 62
7
  6
CONTINUOUS
 10
-26.3900945639
 20
1.5877120646
 11
-26.3900945639
 21
-4.8290672297
  0
LINE
  5
74C
100
AcDbEntity
  8
RACCORDO
100
AcDbLine
 62
253
  6
CONTINUOUS
 10
-26.885196245
 20
2.0342678309
 11
-26.8853219297
 21
1.9978959611
  0
LINE
  5
74D
100
AcDbEntity
  8
ASSI
100
AcDbLine
 62
253
  6
CONTINUOUS
 10
-26.885196245
 20
2.0342678309
 11
-26.8853219297
 21
1.9978959611
  0
LWPOLYLINE
  5
74E
100
AcDbEntity
  8
RACCORDO
100
AcDbPolyline
 62
253
  6
CONTINUOUS
 90
5
 70
0
 10
-26.8857312962
 20
-5.3291614092
 10
-26.8855239082
 20
-5.3268808956
 10
-26.8853625893
 20
-5.3201126074
 10
-26.8852522408
 20
-5.309062176
 10
-26.8851962141
 20
-5.2755776997
  0
LWPOLYLINE
  5
74F
100
AcDbEntity
  8
ASSI
100
AcDbPolyline
 62
253
  6
CONTINUOUS
 90
5
 70
0
 10
-26.8857312962
 20
-5.3291614092
 10
-26.8855239082
 20
-5.3268808956
 10
-26.8853625893
 20
-5.3201126074
 10
-26.8852522408
 20
-5.309062176
 10
-26.8851962141
 20
-5.2755776997
  0
ARC
  5
750
100
AcDbEntity
  8
RACCORDO
100
AcDbCircle
 62
7
  6
CONTINUOUS
 10
-31.3400945639
 20
-2.6206521088
 40
1.6
100
AcDbArc
 50
301.7143149194
 51
38.6821874535
  0
ARC
  5
751
100
AcDbEntity
  8
RACCORDO
100
AcDbCircle
 62
7
  6
CONTINUOUS
 10
-31.3400945639
 20
-2.6206521088
 40
1.6
100
AcDbArc
 50
201.7867892983
 51
238.7016622811
  0
ARC
  5
752
100
AcDbEntity
  8
ASSI
100
AcDbCircle
 62
7
  6
CONTINUOUS
 10
-31.3400945639
 20
-2.6206521088
 40
1.6
100
AcDbArc
 50
301.7143149194
 51
38.6821874535
  0
ARC
  5
753
100
AcDbEntity
  8
ASSI
100
AcDbCircle
 62
7
  6
CONTINUOUS
 10
-31.3400945639
 20
-2.6206521088
 40
1.6
100
AcDbArc
 50
201.7867892983
 51
238.7016622811
  0
CIRCLE
  5
754
100
AcDbEntity
  8
0
100
AcDbCircle
 62
7
  6
CONTINUOUS
 10
-31.3400945639
 20
-2.6206521088
 40
0.75
  0
ARC
  5
755
100
AcDbEntity
  8
RACCORDO
100
AcDbCircle
 62
7
  6
CONTINUOUS
 10
-32.3400945639
 20
-4.0075001256
 40
0.5
100
AcDbArc
 50
180.0
 51
210.5064810837
  0
ARC
  5
756
100
AcDbEntity
  8
ASSI
100
AcDbCircle
 62
7
  6
CONTINUOUS
 10
-32.3400945639
 20
-4.0075001256
 40
0.5
100
AcDbArc
 50
180.0
 51
210.5064810837
  0
ARC
  5
757
100
AcDbEntity
  8
RACCORDO
100
AcDbCircle
 62
7
  6
CONTINUOUS
 10
-33.3900945639
 20
-4.809230523
 40
0.5
100
AcDbArc
 50
180.0006264786
 51
268.0000218541
  0
CIRCLE
  5
758
100
AcDbEntity
  8
0
100
AcDbCircle
 62
7
  6
CONTINUOUS
 10
-31.3400945639
 20
-2.6206521088
 40
0.4
  0
ARC
  5
759
100
AcDbEntity
  8
RACCORDO
100
AcDbCircle
 62
7
  6
CONTINUOUS
 10
-34.5900945639
 20
-3.058387865
 40
0.3
100
AcDbArc
 50
180.0
 51
269.0
  0
ARC
  5
75A
100
AcDbEntity
  8
RACCORDO
100
AcDbCircle
 62
7
  6
CONTINUOUS
 10
-32.0673866145
 20
-3.8169155719
 40
0.2
100
AcDbArc
 50
238.7016622811
 51
269.5
  0
ARC
  5
75B
100
AcDbEntity
  8
RACCORDO
100
AcDbCircle
 62
7
  6
CONTINUOUS
 10
-32.6400945639
 20
-3.1402673511
 40
0.2
100
AcDbArc
 50
180.0
 51
201.7867892983
  0
ARC
  5
75C
100
AcDbEntity
  8
ASSI
100
AcDbCircle
 62
7
  6
CONTINUOUS
 10
-32.0673866145
 20
-3.8169155719
 40
0.2
100
AcDbArc
 50
238.7016622811
 51
269.5
  0
ARC
  5
75D
100
AcDbEntity
  8
ASSI
100
AcDbCircle
 62
7
  6
CONTINUOUS
 10
-32.6400945639
 20
-3.1402673511
 40
0.2
100
AcDbArc
 50
180.0
 51
201.7867892983
  0
ARC
  5
75E
100
AcDbEntity
  8
RACCORDO
100
AcDbCircle
 62
7
  6
CONTINUOUS
 10
-34.0900945639
 20
-3.5671915615
 40
0.2
100
AcDbArc
 50
0.0
 51
89.0000119293
  0
ARC
  5
75F
100
AcDbEntity
  8
RACCORDO
100
AcDbCircle
 62
7
  6
CONTINUOUS
 10
-32.6900945639
 20
-2.0743538055
 40
0.2
100
AcDbArc
 50
138.7022362975
 51
180.0
  0
ARC
  5
760
100
AcDbEntity
  8
RACCORDO
100
AcDbCircle
 62
7
  6
CONTINUOUS
 10
-31.3400945639
 20
-0.6206521088
 40
1.6
100
AcDbArc
 50
321.3178125465
 51
58.2856850806
  0
ARC
  5
761
100
AcDbEntity
  8
RACCORDO
100
AcDbCircle
 62
7
  6
CONTINUOUS
 10
-31.3400945639
 20
-0.6206521088
 40
1.6
100
AcDbArc
 50
121.2983377189
 51
158.2132107017
  0
ARC
  5
762
100
AcDbEntity
  8
ASSI
100
AcDbCircle
 62
7
  6
CONTINUOUS
 10
-31.3400945639
 20
-0.6206521088
 40
1.6
100
AcDbArc
 50
321.3178125465
 51
58.2856850806
  0
ARC
  5
763
100
AcDbEntity
  8
ASSI
100
AcDbCircle
 62
7
  6
CONTINUOUS
 10
-31.3400945639
 20
-0.6206521088
 40
1.6
100
AcDbArc
 50
121.2983377189
 51
158.2132107017
  0
CIRCLE
  5
764
100
AcDbEntity
  8
0
100
AcDbCircle
 62
7
  6
CONTINUOUS
 10
-31.3400945639
 20
-0.6206521088
 40
0.75
  0
ARC
  5
765
100
AcDbEntity
  8
RACCORDO
100
AcDbCircle
 62
7
  6
CONTINUOUS
 10
-32.3400945639
 20
0.7661959079
 40
0.5
100
AcDbArc
 50
149.4935189163
 51
180.0
  0
ARC
  5
766
100
AcDbEntity
  8
ASSI
100
AcDbCircle
 62
7
  6
CONTINUOUS
 10
-32.3400945639
 20
0.7661959079
 40
0.5
100
AcDbArc
 50
149.4935189163
 51
180.0
  0
ARC
  5
767
100
AcDbEntity
  8
RACCORDO
100
AcDbCircle
 62
7
  6
CONTINUOUS
 10
-33.3900945639
 20
1.5679261305
 40
0.5
100
AcDbArc
 50
91.9999774483
 51
179.9993534814
  0
CIRCLE
  5
768
100
AcDbEntity
  8
0
100
AcDbCircle
 62
7
  6
CONTINUOUS
 10
-31.3400945639
 20
-0.6206521088
 40
0.4
  0
ARC
  5
769
100
AcDbEntity
  8
RACCORDO
100
AcDbCircle
 62
7
  6
CONTINUOUS
 10
-34.5900945639
 20
-0.1829163527
 40
0.3
100
AcDbArc
 50
91.0
 51
180.0
  0
ARC
  5
76A
100
AcDbEntity
  8
RACCORDO
100
AcDbCircle
 62
7
  6
CONTINUOUS
 10
-32.0673866145
 20
0.5756113543
 40
0.2
100
AcDbArc
 50
90.5
 51
121.2983377189
  0
ARC
  5
76B
100
AcDbEntity
  8
RACCORDO
100
AcDbCircle
 62
7
  6
CONTINUOUS
 10
-32.6400945639
 20
-0.1010368666
 40
0.2
100
AcDbArc
 50
158.2132107017
 51
180.0
  0
ARC
  5
76C
100
AcDbEntity
  8
ASSI
100
AcDbCircle
 62
7
  6
CONTINUOUS
 10
-32.0673866145
 20
0.5756113543
 40
0.2
100
AcDbArc
 50
90.5
 51
121.2983377189
  0
ARC
  5
76D
100
AcDbEntity
  8
ASSI
100
AcDbCircle
 62
7
  6
CONTINUOUS
 10
-32.6400945639
 20
-0.1010368666
 40
0.2
100
AcDbArc
 50
158.2132107017
 51
180.0
  0
ARC
  5
76E
100
AcDbEntity
  8
RACCORDO
100
AcDbCircle
 62
7
  6
CONTINUOUS
 10
-34.0900945639
 20
0.3258873438
 40
0.2
100
AcDbArc
 50
271.0
 51
360.0
  0
ARC
  5
76F
100
AcDbEntity
  8
RACCORDO
100
AcDbCircle
 62
7
  6
CONTINUOUS
 10
-32.6900945639
 20
-0.7069504121
 40
0.2
100
AcDbArc
 50
180.0
 51
221.2977640754
  0
ARC
  5
770
100
AcDbEntity
  8
RACCORDO
100
AcDbCircle
 62
7
  6
CONTINUOUS
 10
-27.0400945639
 20
-4.6602674133
 40
0.6
100
AcDbArc
 50
271.0
 51
360.0
  0
ARC
  5
771
100
AcDbEntity
  8
RACCORDO
100
AcDbCircle
 62
7
  6
CONTINUOUS
 10
-26.8900945639
 20
-4.8291749721
 40
0.5
100
AcDbArc
 50
270.499994527
 51
359.9993725557
  0
ARC
  5
772
100
AcDbEntity
  8
ASSI
100
AcDbCircle
 62
7
  6
CONTINUOUS
 10
-26.8900945639
 20
-4.8291749721
 40
0.5
100
AcDbArc
 50
270.499994527
 51
359.9993725557
  0
ARC
  5
773
100
AcDbEntity
  8
RACCORDO
100
AcDbCircle
 62
7
  6
CONTINUOUS
 10
-29.4900945639
 20
-3.7385145105
 40
0.35
100
AcDbArc
 50
273.0
 51
360.0
  0
ARC
  5
774
100
AcDbEntity
  8
RACCORDO
100
AcDbCircle
 62
7
  6
CONTINUOUS
 10
-30.6041366791
 20
-3.8116038257
 40
0.2
100
AcDbArc
 50
270.5
 51
301.7143149194
  0
ARC
  5
775
100
AcDbEntity
  8
ASSI
100
AcDbCircle
 62
7
  6
CONTINUOUS
 10
-30.6041366791
 20
-3.8116038257
 40
0.2
100
AcDbArc
 50
270.5
 51
301.7143149194
  0
ARC
  5
776
100
AcDbEntity
  8
DRAFT
100
AcDbCircle
 62
7
  6
CONTINUOUS
 10
-30.1400945639
 20
-1.6206521088
 40
2.2
100
AcDbArc
 50
200.0883146301
 51
207.8619718643
  0
ARC
  5
777
100
AcDbEntity
  8
DRAFT
100
AcDbCircle
 62
7
  6
CONTINUOUS
 10
-30.1400945639
 20
-1.6206521088
 40
2.2
100
AcDbArc
 50
152.1284458219
 51
159.9211106176
  0
ARC
  5
778
100
AcDbEntity
  8
DRAFT
100
AcDbCircle
 62
7
  6
CONTINUOUS
 10
-30.1400945639
 20
-1.6206521088
 40
2.2
100
AcDbArc
 50
124.9057227251
 51
128.1596397213
  0
ARC
  5
779
100
AcDbEntity
  8
RACCORDO
100
AcDbCircle
 62
7
  6
CONTINUOUS
 10
-27.0400945639
 20
1.4189631957
 40
0.6
100
AcDbArc
 50
0.0
 51
89.0
  0
ARC
  5
77A
100
AcDbEntity
  8
RACCORDO
100
AcDbCircle
 62
7
  6
CONTINUOUS
 10
-26.8900945639
 20
1.58787623
 40
0.5
100
AcDbArc
 50
359.981188034
 51
89.5
  0
ARC
  5
77B
100
AcDbEntity
  8
ASSI
100
AcDbCircle
 62
7
  6
CONTINUOUS
 10
-26.8900945639
 20
1.58787623
 40
0.5
100
AcDbArc
 50
359.981188034
 51
89.5
  0
ARC
  5
77C
100
AcDbEntity
  8
RACCORDO
100
AcDbCircle
 62
7
  6
CONTINUOUS
 10
-29.4900945639
 20
0.4972102928
 40
0.35
100
AcDbArc
 50
0.0
 51
87.0
  0
ARC
  5
77D
100
AcDbEntity
  8
RACCORDO
100
AcDbCircle
 62
7
  6
CONTINUOUS
 10
-30.6041366791
 20
0.570299608
 40
0.2
100
AcDbArc
 50
58.2856850806
 51
89.5
  0
ARC
  5
77E
100
AcDbEntity
  8
ASSI
100
AcDbCircle
 62
7
  6
CONTINUOUS
 10
-30.6041366791
 20
0.570299608
 40
0.2
100
AcDbArc
 50
58.2856850806
 51
89.5
  0
ELLIPSE
  5
77F
100
AcDbEntity
  8
DRAFT
100
AcDbEllipse
 62
7
  6
CONTINUOUS
 10
-31.3409166124
 20
-0.6206521088
 30
0.0
 11
0.8986285802
 21
0.0
 31
0.0
 40
0.9999995816
 41
5.1725642146
 42
10.5365348994
  0
ELLIPSE
  5
780
100
AcDbEntity
  8
DRAFT
100
AcDbEllipse
 62
7
  6
CONTINUOUS
 10
-31.3409166124
 20
-2.6206521088
 30
0.0
 11
0.8986285802
 21
0.0
 31
0.0
 40
0.9999995816
 41
2.029835715
 42
7.3938063997
  0
ELLIPSE
  5
781
100
AcDbEntity
  8
DRAFT
100
AcDbEllipse
 62
7
  6
CONTINUOUS
 10
-31.3405972037
 20
-2.6206521088
 30
0.0
 11
1.0990125844
 21
-0.0
 31
0.0
 40
0.9999998954
 41
-1.8468022765
 42
0.9941040743
  0
ELLIPSE
  5
782
100
AcDbEntity
  8
DRAFT
100
AcDbEllipse
 62
7
  6
CONTINUOUS
 10
-31.3405972037
 20
-0.6206521088
 30
0.0
 11
1.0990125844
 21
0.0
 31
0.0
 40
0.9999998954
 41
-0.9941040743
 42
1.8468022765
  0
ELLIPSE
  5
783
100
AcDbEntity
  8
RACCORDO
100
AcDbEllipse
 62
7
  6
CONTINUOUS
 10
-29.6769935662
 20
0.2621971291
 30
0.0
 11
0.5009007152
 21
-0.0038254608
 31
0.0
 40
0.9981726973
 41
0.0076230607
 42
1.4635937072
  0
ELLIPSE
  5
784
100
AcDbEntity
  8
DRAFT
100
AcDbEllipse
 62
7
  6
CONTINUOUS
 10
-31.3395917987
 20
-0.6206521088
 30
0.0
 11
1.0992869979
 21
-0.0
 31
0.0
 40
0.9999998954
 41
1.8476822578
 42
4.1355613032
  0
ELLIPSE
  5
785
100
AcDbEntity
  8
DRAFT
100
AcDbEllipse
 62
7
  6
CONTINUOUS
 10
-31.3395917987
 20
-2.6206521088
 30
0.0
 11
1.0992869979
 21
-0.0
 31
0.0
 40
0.9999998954
 41
2.147624004
 42
4.4355030494
  0
ELLIPSE
  5
786
100
AcDbEntity
  8
RACCORDO
100
AcDbEllipse
 62
7
  6
CONTINUOUS
 10
-29.6769935662
 20
-3.5035013468
 30
0.0
 11
0.5009007152
 21
0.0038254608
 31
0.0
 40
0.9981726973
 41
-1.5697047011
 42
-0.0076230607
  0
ELLIPSE
  5
787
100
AcDbEntity
  8
ASSI
100
AcDbEllipse
 62
7
  6
CONTINUOUS
 10
-31.3409166124
 20
-0.6206521088
 30
0.0
 11
0.8986285802
 21
0.0
 31
0.0
 40
0.9999995816
 41
5.1725642146
 42
10.5365348994
  0
ELLIPSE
  5
788
100
AcDbEntity
  8
ASSI
100
AcDbEllipse
 62
7
  6
CONTINUOUS
 10
-31.3409166124
 20
-2.6206521088
 30
0.0
 11
0.8986285802
 21
0.0
 31
0.0
 40
0.9999995816
 41
2.029835715
 42
7.3938063997
  0
ELLIPSE
  5
789
100
AcDbEntity
  8
ASSI
100
AcDbEllipse
 62
7
  6
CONTINUOUS
 10
-31.3395917987
 20
-0.6206521088
 30
0.0
 11
1.0992869979
 21
-0.0
 31
0.0
 40
0.9999998954
 41
1.8476822578
 42
4.1355613032
  0
ELLIPSE
  5
78A
100
AcDbEntity
  8
ASSI
100
AcDbEllipse
 62
7
  6
CONTINUOUS
 10
-31.3395917987
 20
-2.6206521088
 30
0.0
 11
1.0992869979
 21
-0.0
 31
0.0
 40
0.9999998954
 41
2.147624004
 42
4.4355030494
  0
ELLIPSE
  5
78B
100
AcDbEntity
  8
ASSI
100
AcDbEllipse
 62
7
  6
CONTINUOUS
 10
-29.6769935662
 20
0.2621971291
 30
0.0
 11
0.5009007152
 21
-0.0038254608
 31
0.0
 40
0.9981726973
 41
0.0076230607
 42
1.4635937072
  0
ELLIPSE
  5
78C
100
AcDbEntity
  8
ASSI
100
AcDbEllipse
 62
7
  6
CONTINUOUS
 10
-29.6769935662
 20
-3.5035013468
 30
0.0
 11
0.5009007152
 21
0.0038254608
 31
0.0
 40
0.9981726973
 41
-1.5697047011
 42
-0.0076230607
  0
ELLIPSE
  5
78D
100
AcDbEntity
  8
ASSI
100
AcDbEllipse
 62
7
  6
CONTINUOUS
 10
-31.3405972037
 20
-2.6206521088
 30
0.0
 11
1.0990125844
 21
-0.0
 31
0.0
 40
0.9999998954
 41
-1.8468022765
 42
0.9941040743
  0
ELLIPSE
  5
78E
100
AcDbEntity
  8
ASSI
100
AcDbEllipse
 62
7
  6
CONTINUOUS
 10
-31.3405972037
 20
-0.6206521088
 30
0.0
 11
1.0990125844
 21
0.0
 31
0.0
 40
0.9999998954
 41
-0.9941040743
 42
1.8468022765
  0
ENDSEC
  0
SECTION
  2
OBJECTS
  0
DICTIONARY
  5
C
100
AcDbDictionary
280
0
281
1
  3
ACAD_GROUP
350
D
  3
ACAD_MLINESTYLE
350
17
  3
ACAD_LAYOUT
350
1A
  3
ACAD_PLOTSETTINGS
350
19
  3
ACAD_PLOTSTYLENAME
350
E
  0
DICTIONARY
  5
D
102
{ACAD_REACTORS
330
C
102
}
100
AcDbDictionary
280
0
281
1
  0
ACDBDICTIONARYWDFLT
  5
E
102
{ACAD_REACTORS
330
C
102
}
100
AcDbDictionary
281
1
  3
Normal
350
F
100
AcDbDictionaryWithDefault
340
F
  0
DICTIONARY
  5
17
102
{ACAD_REACTORS
330
C
102
}
100
AcDbDictionary
280
0
281
1
  3
Standard
350
18
  0
DICTIONARY
  5
19
102
{ACAD_REACTORS
330
C
102
}
100
AcDbDictionary
281
1
  0
DICTIONARY
  5
1A
102
{ACAD_REACTORS
330
C
102
}
100
AcDbDictionary
281
1
  3
Model
350
78F
  3
Layout1
350
790
  0
ACDBPLACEHOLDER
  5
F
102
{ACAD_REACTORS
330
E
102
}
  0
MLINESTYLE
  5
18
102
{ACAD_REACTORS
330
17
102
}
100
AcDbMlineStyle
  2
STANDARD
 70
0
  3

 62
256
 51
90.0
 52
90.0
 71
2
 49
0.5
 62
256
  6
BYLAYER
 49
-0.5
 62
256
  6
BYLAYER
  0
LAYOUT
  5
78F
102
{ACAD_REACTORS
330
1A
102
}
100
AcDbPlotSettings
  1

  2
none_device
  4
ISO_A4_(297.00_x_210.00_MM)
  6

 40
0.0
 41
0.0
 42
0.0
 43
0.0
 44
297.0
 45
210.0
 46
0.0
 47
0.0
 48
0.0
 49
0.0
140
0.0
141
0.0
142
1.0
143
1.0
 70
1024
 72
1
 73
0
 74
0
  7

 75
0
147
1.0
148
0.0
149
0.0
100
AcDbLayout
  1
Model
 70
0
 71
0
 10
0.0
 20
0.0
 11
297.0
 21
210.0
 12
0.0
 22
0.0
 32
0.0
 14
0.0
 24
0.0
 34
0.0
 15
0.0
 25
0.0
 35
0.0
146
0.0
 13
0.0
 23
0.0
 33
0.0
 16
1.0
 26
0.0
 36
0.0
 17
0.0
 27
1.0
 37
0.0
 76
0
330
212
345
0
346
0
  0
LAYOUT
  5
790
102
{ACAD_REACTORS
330
1A
102
}
100
AcDbPlotSettings
  1

  2
none_device
  4
ISO_A4_(297.00_x_210.00_MM)
  6

 40
0.0
 41
0.0
 42
0.0
 43
0.0
 44
297.0
 45
210.0
 46
0.0
 47
0.0
 48
0.0
 49
0.0
140
0.0
141
0.0
142
1.0
143
1.0
 70
0
 72
1
 73
0
 74
0
  7

 75
0
147
1.0
148
0.0
149
0.0
100
AcDbLayout
  1
Layout1
 70
0
 71
1
 10
0.0
 20
0.0
 11
297.0
 21
210.0
 12
0.0
 22
0.0
 32
0.0
 14
0.0
 24
0.0
 34
0.0
 15
0.0
 25
0.0
 35
0.0
146
0.0
 13
0.0
 23
0.0
 33
0.0
 16
1.0
 26
0.0
 36
0.0
 17
0.0
 27
1.0
 37
0.0
 76
0
330
213
345
0
346
0
  0
ENDSEC
  0
EOF
