  0
SECTION
  2
HEADER
  9
$ACADVER
  1
AC1021
  9
$DWGCODEPAGE
  3
ANSI_1252
  9
$EXTMAX
 10
297.0
 20
210.0
 30
0.0
  9
$EXTMIN
 10
0.0
 20
0.0
 30
0.0
  9
$LIMMIN
 10
0.0
 20
0.0
  9
$LIMMAX
 10
297.0
 20
210.0
  9
$VIEWCTR
 10
148.5
 20
105.0
  9
$VIEWSIZE
 40
210.0
  9
$CLAYER
  8
0
  9
$LTSCALE
 40
16.335
  9
$CELTYPE
  6
BYLAYER
  9
$DIMSCALE
 40
1.0
  9
$DIMASZ
 40
3.0
  9
$DIMEXO
 40
0.5
  9
$DIMDLI
 40
11.286
  9
$DIMEXE
 40
1.5
  9
$DIMCEN
 40
2.673
  9
$DIMLFAC
 40
1.0
  9
$DIMBLK
  1
_FILLED
  9
$DIMALT
 70
0
  9
$DIMALTF
 40
0.0393700787
  9
$DIMTXT
 40
3.0
  9
$DIMTOL
 70
1
  9
$DIMLIM
 70
0
  9
$DIMTFAC
 40
1.0
  9
$DIMTP
 40
0.01
  9
$DIMTM
 40
0.01
  9
$DIMGAP
 40
0.625
  9
$DIMDSEP
 70
44
  9
$AUNITS
 70
0
  9
$PDMODE
 70
3
  9
$PDSIZE
 40
3.0
  9
$HANDSEED
  5
7AC
  9
$TILEMODE
 70
1
  9
$MEASUREMENT
 70
1
  9
$INSUNITS
 70
4
  0
ENDSEC
  0
SECTION
  2
CLASSES
  0
CLASS
  1
ACDBDICTIONARYWDFLT
  2
AcDbDictionaryWithDefault
  3
AutoCAD 2000
 90
0
 91
1
280
0
281
0
  0
CLASS
  1
ACDBPLACEHOLDER
  2
AcDbPlaceHolder
  3
AutoCAD 2000
 90
0
 91
1
280
0
281
0
  0
CLASS
  1
LAYOUT
  2
AcDbLayout
  3
AutoCAD 2000
 90
0
 91
0
280
0
281
0
  0
ENDSEC
  0
SECTION
  2
TABLES
  0
TABLE
  2
VPORT
  5
8
100
AcDbSymbolTable
 70
2
  0
VPORT
  5
1F4
100
AcDbSymbolTableRecord
100
AcDbViewportTableRecord
  2
*ACTIVE
 70
0
 10
0.0
 20
0.0
 11
1.0
 21
1.0
 12
148.5
 22
105.0
 13
0.0
 23
0.0
 14
1.0
 24
1.0
 15
0.0
 25
0.0
 16
0.0
 26
0.0
 36
1.0
 17
0.0
 27
0.0
 37
0.0
 40
210.0
 41
1.4142857143
 42
50.0
 43
0.0
 44
0.0
 50
0.0
 51
0.0
 71
0
 72
100
 73
1
 74
1
 75
0
 76
0
 77
0
 78
0
  0
ENDTAB
  0
TABLE
  2
LTYPE
  5
5
100
AcDbSymbolTable
 70
6
  0
LTYPE
  5
14
100
AcDbSymbolTableRecord
100
AcDbLinetypeTableRecord
  2
BYBLOCK
 70
0
  3

 72
65
 73
0
 40
0.0
  0
LTYPE
  5
15
100
AcDbSymbolTableRecord
100
AcDbLinetypeTableRecord
  2
BYLAYER
 70
0
  3

 72
65
 73
0
 40
0.0
  0
LTYPE
  5
16
100
AcDbSymbolTableRecord
100
AcDbLinetypeTableRecord
  2
CONTINUOUS
 70
64
  3
Solid line
 72
65
 73
0
 40
0.0
  0
LTYPE
  5
1F5
100
AcDbSymbolTableRecord
100
AcDbLinetypeTableRecord
  2
CENTER
 70
64
  3
____ _ ____ _ ____ _ ____ _ ____ _ ____ _ ____
 72
65
 73
4
 40
0.6
 49
0.375
 74
0
 49
-0.075
 74
0
 49
0.075
 74
0
 49
-0.075
 74
0
  0
LTYPE
  5
1F6
100
AcDbSymbolTableRecord
100
AcDbLinetypeTableRecord
  2
HIDDEN
 70
64
  3
- - - - - - - - - - - - - - - - - - - -
 72
65
 73
2
 40
0.2
 49
0.1
 74
0
 49
-0.1
 74
0
  0
LTYPE
  5
1F7
100
AcDbSymbolTableRecord
100
AcDbLinetypeTableRecord
  2
PHANTOM
 70
64
  3
_____ _ _ _____ _ _ _____ _ _ _____
 72
65
 73
6
 40
0.8
 49
0.45
 74
0
 49
-0.05
 74
0
 49
0.1
 74
0
 49
-0.05
 74
0
 49
0.1
 74
0
 49
-0.05
 74
0
  0
LTYPE
  5
1F8
100
AcDbSymbolTableRecord
100
AcDbLinetypeTableRecord
  2
DOT
 70
64
  3
. . . . . . . . . . . . . . . . . . . .
 72
65
 73
2
 40
0.2
 49
0.1
 74
0
 49
-0.1
 74
0
  0
LTYPE
  5
1F9
100
AcDbSymbolTableRecord
100
AcDbLinetypeTableRecord
  2
DASHED
 70
64
  3
- - - - - - - - - - - - - - - - - - - -
 72
65
 73
2
 40
0.2
 49
0.1
 74
0
 49
-0.1
 74
0
  0
ENDTAB
  0
TABLE
  2
LAYER
  5
2
100
AcDbSymbolTable
 70
36
  0
LAYER
  5
10
100
AcDbSymbolTableRecord
100
AcDbLayerTableRecord
  2
0
 70
0
 62
7
  6
CONTINUOUS
370
-3
390
F
  0
LAYER
  5
1FA
100
AcDbSymbolTableRecord
100
AcDbLayerTableRecord
  2
DEFAULT_1
 70
0
 62
7
  6
CENTER
370
-3
390
F
  0
LAYER
  5
1FB
100
AcDbSymbolTableRecord
100
AcDbLayerTableRecord
  2
DEFAULT_2
 70
0
 62
7
  6
HIDDEN
370
-3
390
F
  0
LAYER
  5
1FC
100
AcDbSymbolTableRecord
100
AcDbLayerTableRecord
  2
DEFAULT_3
 70
0
 62
7
  6
PHANTOM
370
-3
390
F
  0
LAYER
  5
1FD
100
AcDbSymbolTableRecord
100
AcDbLayerTableRecord
  2
ASSI
 70
0
 62
7
  6
CONTINUOUS
370
-3
390
F
  0
LAYER
  5
1FE
100
AcDbSymbolTableRecord
100
AcDbLayerTableRecord
  2
COLORI
 70
0
 62
7
  6
CONTINUOUS
370
-3
390
F
  0
LAYER
  5
1FF
100
AcDbSymbolTableRecord
100
AcDbLayerTableRecord
  2
COORDINATE
 70
0
 62
7
  6
CONTINUOUS
370
-3
390
F
  0
LAYER
  5
200
100
AcDbSymbolTableRecord
100
AcDbLayerTableRecord
  2
COPY_PUBLISH
 70
0
 62
7
  6
CONTINUOUS
370
-3
390
F
  0
LAYER
  5
201
100
AcDbSymbolTableRecord
100
AcDbLayerTableRecord
  2
COSMETICI
 70
0
 62
7
  6
CONTINUOUS
370
-3
390
F
  0
LAYER
  5
202
100
AcDbSymbolTableRecord
100
AcDbLayerTableRecord
  2
CURVE
 70
0
 62
7
  6
CONTINUOUS
370
-3
390
F
  0
LAYER
  5
203
100
AcDbSymbolTableRecord
100
AcDbLayerTableRecord
  2
DRAFT
 70
0
 62
7
  6
CONTINUOUS
370
-3
390
F
  0
LAYER
  5
204
100
AcDbSymbolTableRecord
100
AcDbLayerTableRecord
  2
IMPORT_IGES
 70
0
 62
7
  6
CONTINUOUS
370
-3
390
F
  0
LAYER
  5
205
100
AcDbSymbolTableRecord
100
AcDbLayerTableRecord
  2
NOTE
 70
0
 62
7
  6
CONTINUOUS
370
-3
390
F
  0
LAYER
  5
206
100
AcDbSymbolTableRecord
100
AcDbLayerTableRecord
  2
PIANI
 70
0
 62
7
  6
CONTINUOUS
370
-3
390
F
  0
LAYER
  5
207
100
AcDbSymbolTableRecord
100
AcDbLayerTableRecord
  2
PUNTI
 70
0
 62
7
  6
CONTINUOUS
370
-3
390
F
  0
LAYER
  5
208
100
AcDbSymbolTableRecord
100
AcDbLayerTableRecord
  2
RACCORDO
 70
0
 62
7
  6
CONTINUOUS
370
-3
390
F
  0
LAYER
  5
209
100
AcDbSymbolTableRecord
100
AcDbLayerTableRecord
  2
SCRITTE
 70
0
 62
7
  6
CONTINUOUS
370
-3
390
F
  0
LAYER
  5
20A
100
AcDbSymbolTableRecord
100
AcDbLayerTableRecord
  2
SIMBOLI
 70
0
 62
7
  6
CONTINUOUS
370
-3
390
F
  0
LAYER
  5
20B
100
AcDbSymbolTableRecord
100
AcDbLayerTableRecord
  2
SMUSSO
 70
0
 62
7
  6
CONTINUOUS
370
-3
390
F
  0
LAYER
  5
20C
100
AcDbSymbolTableRecord
100
AcDbLayerTableRecord
  2
SNAPLINE
 70
0
 62
7
  6
CONTINUOUS
370
-3
390
F
  0
LAYER
  5
20D
100
AcDbSymbolTableRecord
100
AcDbLayerTableRecord
  2
SUPERFICI
 70
0
 62
7
  6
CONTINUOUS
370
-3
390
F
  0
LAYER
  5
20E
100
AcDbSymbolTableRecord
100
AcDbLayerTableRecord
  2
TRASH
 70
0
 62
7
  6
CONTINUOUS
370
-3
390
F
  0
LAYER
  5
20F
100
AcDbSymbolTableRecord
100
AcDbLayerTableRecord
  2
XSEC_DATUMS
 70
0
 62
7
  6
CONTINUOUS
370
-3
390
F
  0
ENDTAB
  0
TABLE
  2
STYLE
  5
3
100
AcDbSymbolTable
 70
1
  0
STYLE
  5
11
100
AcDbSymbolTableRecord
100
AcDbTextStyleTableRecord
  2
STANDARD
 70
0
 40
0.0
 41
0.8
 50
0.0
 71
0
 42
0.2
  3
txt
  4

  0
STYLE
  5
210
100
AcDbSymbolTableRecord
100
AcDbTextStyleTableRecord
  2
TEXTSTYLE_1
 70
0
 40
0.0
 41
0.8
 50
0.0
 71
0
 42
0.2
  3
gdt
  4

  0
ENDTAB
  0
TABLE
  2
VIEW
  5
6
100
AcDbSymbolTable
 70
0
  0
ENDTAB
  0
TABLE
  2
UCS
  5
7
100
AcDbSymbolTable
 70
0
  0
ENDTAB
  0
TABLE
  2
APPID
  5
9
100
AcDbSymbolTable
 70
1
  0
APPID
  5
211
100
AcDbSymbolTableRecord
100
AcDbRegAppTableRecord
  2
ACAD
 70
0
  0
ENDTAB
  0
TABLE
  2
BLOCK_RECORD
  5
1
100
AcDbSymbolTable
 70
0
  0
BLOCK_RECORD
  5
212
100
AcDbSymbolTableRecord
100
AcDbBlockTableRecord
  2
*Model_Space
  0
BLOCK_RECORD
  5
213
100
AcDbSymbolTableRecord
100
AcDbBlockTableRecord
  2
*Paper_Space
  0
BLOCK_RECORD
  5
214
100
AcDbSymbolTableRecord
100
AcDbBlockTableRecord
  2
_FILLED
  0
BLOCK_RECORD
  5
215
100
AcDbSymbolTableRecord
100
AcDbBlockTableRecord
  2
*D0
  0
BLOCK_RECORD
  5
216
100
AcDbSymbolTableRecord
100
AcDbBlockTableRecord
  2
*D1
  0
BLOCK_RECORD
  5
217
100
AcDbSymbolTableRecord
100
AcDbBlockTableRecord
  2
*D2
  0
BLOCK_RECORD
  5
218
100
AcDbSymbolTableRecord
100
AcDbBlockTableRecord
  2
*D3
  0
BLOCK_RECORD
  5
219
100
AcDbSymbolTableRecord
100
AcDbBlockTableRecord
  2
*D4
  0
BLOCK_RECORD
  5
21A
100
AcDbSymbolTableRecord
100
AcDbBlockTableRecord
  2
*D5
  0
BLOCK_RECORD
  5
21B
100
AcDbSymbolTableRecord
100
AcDbBlockTableRecord
  2
*D6
  0
ENDTAB
  0
TABLE
  2
DIMSTYLE
  5
A
100
AcDbSymbolTable
 70
1
100
AcDbDimStyleTable
 71
0
  0
DIMSTYLE
105
21C
100
AcDbSymbolTableRecord
100
AcDbDimStyleTableRecord
  2
STANDARD
 70
0
  3

  4

 40
1.0
 41
3.0
 42
0.5
 43
0.38
 44
1.5
 45
0.0
 46
0.0
 47
0.01
 48
0.01
140
3.0
141
0.09
142
0.0
143
25.4
144
1.0
145
0.0
146
1.0
147
0.625
 71
1.0
 72
0.0
 73
0
 74
0
 75
0
 76
0
 77
1
 78
8
170
0
171
2
172
0
173
0
174
0
175
0
176
0
177
0
178
0
270
2
271
2
272
2
273
2
274
2
275
0
280
0
281
0
282
0
283
1
284
8
285
0
286
0
287
3
288
0
340
11
278
44
341
214
342
214
343
214
344
214
  0
DIMSTYLE
105
21D
100
AcDbSymbolTableRecord
100
AcDbDimStyleTableRecord
  2
DIMSTYLE_1
 70
0
  3

  4

 40
1.0
 41
3.0
 42
0.5
 43
0.38
 44
1.5
 45
0.0
 46
0.0
 47
0.0
 48
0.0
140
3.0
141
0.09
142
0.0
143
25.4
144
1.0
145
0.0
146
1.0
147
0.75
 71
0.0
 72
0.0
 73
0
 74
0
 75
0
 76
0
 77
1
 78
8
170
0
171
2
172
0
173
0
174
0
175
0
176
0
177
0
178
0
270
2
271
2
272
2
273
2
274
2
275
0
280
0
281
0
282
0
283
1
284
8
285
0
286
0
287
3
288
0
340
11
278
44
341
214
342
214
343
214
344
214
  0
DIMSTYLE
105
21E
100
AcDbSymbolTableRecord
100
AcDbDimStyleTableRecord
  2
DIMSTYLE_2
 70
0
  3

  4

 40
1.0
 41
3.0
 42
0.5
 43
0.38
 44
1.5
 45
0.0
 46
0.0
 47
0.0
 48
0.0
140
3.0
141
0.09
142
0.0
143
25.4
144
1.0
145
0.0
146
1.0
147
0.75
 71
0.0
 72
0.0
 73
0
 74
0
 75
0
 76
0
 77
1
 78
8
170
0
171
2
172
0
173
0
174
0
175
0
176
0
177
0
178
0
270
2
271
1
272
1
273
2
274
2
275
0
280
0
281
0
282
0
283
1
284
8
285
0
286
0
287
3
288
0
340
11
278
44
341
214
342
214
343
214
344
214
  0
ENDTAB
  0
ENDSEC
  0
SECTION
  2
BLOCKS
  0
BLOCK
  5
20
100
AcDbEntity
  8
0
100
AcDbBlockBegin
  2
*Model_Space
 70
0
 10
0.0
 20
0.0
 30
0.0
  3
*Model_Space
  1

  0
ENDBLK
  5
21
100
AcDbEntity
  8
0
100
AcDbBlockEnd
  0
BLOCK
  5
1C
100
AcDbEntity
  8
0
100
AcDbBlockBegin
  2
*Paper_Space
 70
0
 10
0.0
 20
0.0
 30
0.0
  3
*Paper_Space
  1

  0
ENDBLK
  5
1D
100
AcDbEntity
  8
0
100
AcDbBlockEnd
  0
BLOCK
  5
21F
100
AcDbEntity
  8
0
100
AcDbBlockBegin
  2
_FILLED
 70
64
 10
0.0
 20
0.0
  3
_FILLED
  1

  0
SOLID
  5
220
100
AcDbEntity
  8
0
  6
BYBLOCK
 62
0
100
AcDbTrace
 10
0.0
 20
0.0
 11
-1.0
 21
0.3166666667
 12
-1.0
 22
-0.3166666667
 13
-1.0
 23
-0.3166666667
  0
ENDBLK
  5
221
100
AcDbEntity
  8
0
  6
BYBLOCK
 62
0
100
AcDbBlockEnd
  0
BLOCK
  5
222
100
AcDbEntity
  8
0
100
AcDbBlockBegin
 62
7
  6
CONTINUOUS
  2
*D0
 70
65
 10
0.0
 20
0.0
  3
*D0
  1

  0
MTEXT
  5
223
100
AcDbEntity
  8
0
100
AcDbMText
 62
7
  6
CONTINUOUS
  7
STANDARD
 71
2
 72
1
 10
-34.6499813508
 20
15.838034604
 30
0.0
 11
1.0
 21
0.0
 31
0.0
 44
0.9
  1
7,5
 40
3.0
 41
9.3214285714
  0
LINE
  5
224
100
AcDbEntity
  8
0
100
AcDbLine
 62
7
  6
CONTINUOUS
 10
-38.3999813508
 20
2.9132835019
 11
-38.3999813508
 21
13.588034604
  0
LINE
  5
225
100
AcDbEntity
  8
0
100
AcDbLine
 62
7
  6
CONTINUOUS
 10
-30.8999813508
 20
3.4228748891
 11
-30.8999813508
 21
13.588034604
  0
LINE
  5
226
100
AcDbEntity
  8
0
100
AcDbLine
 62
7
  6
CONTINUOUS
 10
-38.3999813508
 20
12.088034604
 11
-42.3999813508
 21
12.088034604
  0
LINE
  5
227
100
AcDbEntity
  8
0
100
AcDbLine
 62
7
  6
CONTINUOUS
 10
-42.3999813508
 20
12.088034604
 11
-34.6499813508
 21
12.088034604
  0
LINE
  5
228
100
AcDbEntity
  8
0
100
AcDbLine
 62
7
  6
CONTINUOUS
 10
-30.8999813508
 20
12.088034604
 11
-26.8999813508
 21
12.088034604
  0
LINE
  5
229
100
AcDbEntity
  8
0
100
AcDbLine
 62
7
  6
CONTINUOUS
 10
-26.8999813508
 20
12.088034604
 11
-34.6499813508
 21
12.088034604
  0
INSERT
  5
22A
100
AcDbEntity
  8
0
100
AcDbBlockReference
 62
7
  6
CONTINUOUS
  2
_FILLED
 10
-38.3999813508
 20
12.088034604
 41
3.0
 42
3.0
 43
3.0
 50
0.0
  0
INSERT
  5
22B
100
AcDbEntity
  8
0
100
AcDbBlockReference
 62
7
  6
CONTINUOUS
  2
_FILLED
 10
-30.8999813508
 20
12.088034604
 41
3.0
 42
3.0
 43
3.0
 50
180.0
  0
ENDBLK
  5
22C
100
AcDbEntity
  8
0
  6
BYBLOCK
 62
0
100
AcDbBlockEnd
  0
BLOCK
  5
22D
100
AcDbEntity
  8
0
100
AcDbBlockBegin
 62
7
  6
CONTINUOUS
  2
*D1
 70
65
 10
0.0
 20
0.0
  3
*D1
  1

  0
MTEXT
  5
22E
100
AcDbEntity
  8
0
100
AcDbMText
 62
7
  6
CONTINUOUS
  7
STANDARD
 71
2
 72
1
 10
-26.6499813508
 20
-0.2856534497
 30
0.0
 11
0.0
 21
1.0
 31
0.0
 44
0.9
  1
7,5
 40
3.0
 41
9.3214285714
  0
LINE
  5
22F
100
AcDbEntity
  8
0
100
AcDbLine
 62
7
  6
CONTINUOUS
 10
-35.6499813508
 20
3.4643465503
 11
-21.3999813508
 21
3.4643465503
  0
LINE
  5
230
100
AcDbEntity
  8
0
100
AcDbLine
 62
7
  6
CONTINUOUS
 10
-35.6499813508
 20
-4.0356534497
 11
-21.3999813508
 21
-4.0356534497
  0
LINE
  5
231
100
AcDbEntity
  8
0
100
AcDbLine
 62
7
  6
CONTINUOUS
 10
-22.8999813508
 20
3.4643465503
 11
-22.8999813508
 21
7.4643465503
  0
LINE
  5
232
100
AcDbEntity
  8
0
100
AcDbLine
 62
7
  6
CONTINUOUS
 10
-22.8999813508
 20
7.4643465503
 11
-22.8999813508
 21
-0.2856534497
  0
LINE
  5
233
100
AcDbEntity
  8
0
100
AcDbLine
 62
7
  6
CONTINUOUS
 10
-22.8999813508
 20
-4.0356534497
 11
-22.8999813508
 21
-8.0356534497
  0
LINE
  5
234
100
AcDbEntity
  8
0
100
AcDbLine
 62
7
  6
CONTINUOUS
 10
-22.8999813508
 20
-8.0356534497
 11
-22.8999813508
 21
-0.2856534497
  0
INSERT
  5
235
100
AcDbEntity
  8
0
100
AcDbBlockReference
 62
7
  6
CONTINUOUS
  2
_FILLED
 10
-22.8999813508
 20
3.4643465503
 41
3.0
 42
3.0
 43
3.0
 50
270.0
  0
INSERT
  5
236
100
AcDbEntity
  8
0
100
AcDbBlockReference
 62
7
  6
CONTINUOUS
  2
_FILLED
 10
-22.8999813508
 20
-4.0356534497
 41
3.0
 42
3.0
 43
3.0
 50
90.0
  0
ENDBLK
  5
237
100
AcDbEntity
  8
0
  6
BYBLOCK
 62
0
100
AcDbBlockEnd
  0
BLOCK
  5
238
100
AcDbEntity
  8
0
100
AcDbBlockBegin
 62
7
  6
CONTINUOUS
  2
*D2
 70
65
 10
0.0
 20
0.0
  3
*D2
  1

  0
MTEXT
  5
239
100
AcDbEntity
  8
0
100
AcDbMText
 62
7
  6
CONTINUOUS
  7
STANDARD
 71
2
 72
1
 10
-2.6420102296
 20
-8.338034604
 30
0.0
 11
1.0
 21
0.0
 31
0.0
 44
0.9
  1
10
 40
3.0
 41
6.1071428571
  0
LINE
  5
23A
100
AcDbEntity
  8
0
100
AcDbLine
 62
7
  6
CONTINUOUS
 10
2.3579897704
 20
-2.5356534497
 11
2.3579897704
 21
-13.588034604
  0
LINE
  5
23B
100
AcDbEntity
  8
0
100
AcDbLine
 62
7
  6
CONTINUOUS
 10
-7.6420102296
 20
-1.7856534497
 11
-7.6420102296
 21
-13.588034604
  0
LINE
  5
23C
100
AcDbEntity
  8
0
100
AcDbLine
 62
7
  6
CONTINUOUS
 10
2.3579897704
 20
-12.088034604
 11
6.3579897704
 21
-12.088034604
  0
LINE
  5
23D
100
AcDbEntity
  8
0
100
AcDbLine
 62
7
  6
CONTINUOUS
 10
6.3579897704
 20
-12.088034604
 11
-2.6420102296
 21
-12.088034604
  0
LINE
  5
23E
100
AcDbEntity
  8
0
100
AcDbLine
 62
7
  6
CONTINUOUS
 10
-7.6420102296
 20
-12.088034604
 11
-11.6420102296
 21
-12.088034604
  0
LINE
  5
23F
100
AcDbEntity
  8
0
100
AcDbLine
 62
7
  6
CONTINUOUS
 10
-11.6420102296
 20
-12.088034604
 11
-2.6420102296
 21
-12.088034604
  0
INSERT
  5
240
100
AcDbEntity
  8
0
100
AcDbBlockReference
 62
7
  6
CONTINUOUS
  2
_FILLED
 10
2.3579897704
 20
-12.088034604
 41
3.0
 42
3.0
 43
3.0
 50
180.0
  0
INSERT
  5
241
100
AcDbEntity
  8
0
100
AcDbBlockReference
 62
7
  6
CONTINUOUS
  2
_FILLED
 10
-7.6420102296
 20
-12.088034604
 41
3.0
 42
3.0
 43
3.0
  0
ENDBLK
  5
242
100
AcDbEntity
  8
0
  6
BYBLOCK
 62
0
100
AcDbBlockEnd
  0
BLOCK
  5
243
100
AcDbEntity
  8
0
100
AcDbBlockBegin
 62
7
  6
CONTINUOUS
  2
*D3
 70
65
 10
0.0
 20
0.0
  3
*D3
  1

  0
MTEXT
  5
244
100
AcDbEntity
  8
0
100
AcDbMText
 62
7
  6
CONTINUOUS
  7
STANDARD
 71
2
 72
1
 10
25.9743327141
 20
-16.0083807392
 30
0.0
 11
1.0
 21
0.0
 31
0.0
 44
0.9
  1
132,6
 40
3.0
 41
15.4285714286
  0
LINE
  5
245
100
AcDbEntity
  8
0
100
AcDbLine
 62
7
  6
CONTINUOUS
 10
59.5906724566
 20
-2.4662749257
 11
59.5906741387
 21
-21.2583777303
  0
LINE
  5
246
100
AcDbEntity
  8
0
100
AcDbLine
 62
7
  6
CONTINUOUS
 10
-7.6420101849
 20
-1.7856534497
 11
-7.6420084419
 21
-21.2583837482
  0
LINE
  5
247
100
AcDbEntity
  8
0
100
AcDbLine
 62
7
  6
CONTINUOUS
 10
59.5906740044
 20
-19.7583777303
 11
25.9743327141
 21
-19.7583807392
  0
LINE
  5
248
100
AcDbEntity
  8
0
100
AcDbLine
 62
7
  6
CONTINUOUS
 10
-7.6420085762
 20
-19.7583837482
 11
25.9743327141
 21
-19.7583807392
  0
INSERT
  5
249
100
AcDbEntity
  8
0
100
AcDbBlockReference
 62
7
  6
CONTINUOUS
  2
_FILLED
 10
59.5906740044
 20
-19.7583777303
 41
3.0
 42
3.0
 43
3.0
 50
0.0000051285
  0
INSERT
  5
24A
100
AcDbEntity
  8
0
100
AcDbBlockReference
 62
7
  6
CONTINUOUS
  2
_FILLED
 10
-7.6420085762
 20
-19.7583837482
 41
3.0
 42
3.0
 43
3.0
 50
180.0000051285
  0
ENDBLK
  5
24B
100
AcDbEntity
  8
0
  6
BYBLOCK
 62
0
100
AcDbBlockEnd
  0
BLOCK
  5
24C
100
AcDbEntity
  8
0
100
AcDbBlockBegin
 62
7
  6
CONTINUOUS
  2
*D4
 70
65
 10
0.0
 20
0.0
  3
*D4
  1

  0
MTEXT
  5
24D
100
AcDbEntity
  8
0
100
AcDbMText
 62
7
  6
CONTINUOUS
  7
STANDARD
 71
2
 72
1
 10
35.2469534691
 20
15.838034604
 30
0.0
 11
1.0
 21
0.0
 31
0.0
 44
0.9
  1
20,5
 40
3.0
 41
12.8571428571
  0
LINE
  5
24E
100
AcDbEntity
  8
0
100
AcDbLine
 62
7
  6
CONTINUOUS
 10
25.0045176501
 20
2.3322089519
 11
25.0045176501
 21
13.588034604
  0
LINE
  5
24F
100
AcDbEntity
  8
0
100
AcDbLine
 62
7
  6
CONTINUOUS
 10
45.4893892881
 20
3.3228786902
 11
45.4893892881
 21
13.588034604
  0
LINE
  5
250
100
AcDbEntity
  8
0
100
AcDbLine
 62
7
  6
CONTINUOUS
 10
25.0045176501
 20
12.088034604
 11
35.2469534691
 21
12.088034604
  0
LINE
  5
251
100
AcDbEntity
  8
0
100
AcDbLine
 62
7
  6
CONTINUOUS
 10
45.4893892881
 20
12.088034604
 11
35.2469534691
 21
12.088034604
  0
INSERT
  5
252
100
AcDbEntity
  8
0
100
AcDbBlockReference
 62
7
  6
CONTINUOUS
  2
_FILLED
 10
25.0045176501
 20
12.088034604
 41
3.0
 42
3.0
 43
3.0
 50
180.0
  0
INSERT
  5
253
100
AcDbEntity
  8
0
100
AcDbBlockReference
 62
7
  6
CONTINUOUS
  2
_FILLED
 10
45.4893892881
 20
12.088034604
 41
3.0
 42
3.0
 43
3.0
  0
ENDBLK
  5
254
100
AcDbEntity
  8
0
  6
BYBLOCK
 62
0
100
AcDbBlockEnd
  0
BLOCK
  5
255
100
AcDbEntity
  8
0
100
AcDbBlockBegin
 62
7
  6
CONTINUOUS
  2
*D5
 70
65
 10
0.0
 20
0.0
  3
*D5
  1

  0
MTEXT
  5
256
100
AcDbEntity
  8
0
100
AcDbMText
 62
7
  6
CONTINUOUS
  7
STANDARD
 71
2
 72
1
 10
42.297595031
 20
-8.338034604
 30
0.0
 11
1.0
 21
0.0
 31
0.0
 44
0.9
  1
34,6
 40
3.0
 41
12.8571428571
  0
LINE
  5
257
100
AcDbEntity
  8
0
100
AcDbLine
 62
7
  6
CONTINUOUS
 10
25.0045176501
 20
-2.9035158514
 11
25.0045176501
 21
-13.588034604
  0
LINE
  5
258
100
AcDbEntity
  8
0
100
AcDbLine
 62
7
  6
CONTINUOUS
 10
59.5906724119
 20
-2.4662690783
 11
59.5906724119
 21
-13.588034604
  0
LINE
  5
259
100
AcDbEntity
  8
0
100
AcDbLine
 62
7
  6
CONTINUOUS
 10
25.0045176501
 20
-12.088034604
 11
42.297595031
 21
-12.088034604
  0
LINE
  5
25A
100
AcDbEntity
  8
0
100
AcDbLine
 62
7
  6
CONTINUOUS
 10
59.5906724119
 20
-12.088034604
 11
42.297595031
 21
-12.088034604
  0
INSERT
  5
25B
100
AcDbEntity
  8
0
100
AcDbBlockReference
 62
7
  6
CONTINUOUS
  2
_FILLED
 10
25.0045176501
 20
-12.088034604
 41
3.0
 42
3.0
 43
3.0
 50
180.0
  0
INSERT
  5
25C
100
AcDbEntity
  8
0
100
AcDbBlockReference
 62
7
  6
CONTINUOUS
  2
_FILLED
 10
59.5906724119
 20
-12.088034604
 41
3.0
 42
3.0
 43
3.0
  0
ENDBLK
  5
25D
100
AcDbEntity
  8
0
  6
BYBLOCK
 62
0
100
AcDbBlockEnd
  0
BLOCK
  5
25E
100
AcDbEntity
  8
0
100
AcDbBlockBegin
 62
7
  6
CONTINUOUS
  2
*D6
 70
65
 10
0.0
 20
0.0
  3
*D6
  1

  0
MTEXT
  5
25F
100
AcDbEntity
  8
0
100
AcDbMText
 62
7
  6
CONTINUOUS
  7
STANDARD
 71
1
 72
1
 10
64.0503925878
 20
9.1810633448
 30
0.0
 11
0.0
 21
1.0
 31
0.0
 44
0.9
  1
5,8
 40
3.0
 41
9.3214285714
  0
LINE
  5
260
100
AcDbEntity
  8
0
100
AcDbLine
 62
7
  6
CONTINUOUS
 10
60.0199732785
 20
2.5927755477
 11
69.300384582
 21
2.5927642706
  0
LINE
  5
261
100
AcDbEntity
  8
0
100
AcDbLine
 62
7
  6
CONTINUOUS
 10
60.0308952183
 20
-3.1856540573
 11
69.3003775603
 21
-3.1856653211
  0
LINE
  5
262
100
AcDbEntity
  8
0
100
AcDbLine
 62
7
  6
CONTINUOUS
 10
67.800384582
 20
2.5927660934
 11
67.8003925878
 21
15.3953490591
  0
LINE
  5
263
100
AcDbEntity
  8
0
100
AcDbLine
 62
7
  6
CONTINUOUS
 10
67.8003925878
 20
15.3953490591
 11
67.8003810712
 21
-0.2964487025
  0
LINE
  5
264
100
AcDbEntity
  8
0
100
AcDbLine
 62
7
  6
CONTINUOUS
 10
67.8003775603
 20
-3.1856634984
 11
67.8003726997
 21
-7.1856634984
  0
LINE
  5
265
100
AcDbEntity
  8
0
100
AcDbLine
 62
7
  6
CONTINUOUS
 10
67.8003726997
 20
-7.1856634984
 11
67.8003810712
 21
-0.2964487025
  0
INSERT
  5
266
100
AcDbEntity
  8
0
100
AcDbBlockReference
 62
7
  6
CONTINUOUS
  2
_FILLED
 10
67.800384582
 20
2.5927660934
 41
3.0
 42
3.0
 43
3.0
 50
269.9999641715
  0
INSERT
  5
267
100
AcDbEntity
  8
0
100
AcDbBlockReference
 62
7
  6
CONTINUOUS
  2
_FILLED
 10
67.8003775603
 20
-3.1856634984
 41
3.0
 42
3.0
 43
3.0
 50
89.999930377
  0
ENDBLK
  5
268
100
AcDbEntity
  8
0
  6
BYBLOCK
 62
0
100
AcDbBlockEnd
  0
ENDSEC
  0
SECTION
  2
ENTITIES
  0
DIMENSION
  5
269
100
AcDbEntity
  8
0
100
AcDbDimension
 62
7
  6
CONTINUOUS
  2
*D0
 10
-30.8999813508
 20
12.088034604
 11
-35.0785523529
 21
12.088034604
 70
160
 71
2
 42
7.5
  3
DIMSTYLE_1
100
AcDbAlignedDimension
 13
-38.3999813508
 23
2.4132835019
 14
-30.8999813508
 24
2.9228748891
100
AcDbRotatedDimension
  0
DIMENSION
  5
26A
100
AcDbEntity
  8
0
100
AcDbDimension
 62
7
  6
CONTINUOUS
  2
*D1
 10
-22.8999813508
 20
-4.0356534497
 11
-22.8999813508
 21
-0.7142253259
 70
160
 71
2
 42
7.5
  3
DIMSTYLE_1
100
AcDbAlignedDimension
 13
-36.1499813508
 23
3.4643465503
 14
-36.1499813508
 24
-4.0356534497
 50
270.0
100
AcDbRotatedDimension
  0
DIMENSION
  5
26B
100
AcDbEntity
  8
0
100
AcDbDimension
 62
7
  6
CONTINUOUS
  2
*D2
 10
-7.6420102296
 20
-12.088034604
 11
-3.0705816665
 21
-12.088034604
 70
160
 71
2
 42
10.0
  3
DIMSTYLE_1
100
AcDbAlignedDimension
 13
2.3579897704
 23
-2.0356534497
 14
-7.6420102296
 24
-1.2856534497
 50
180.0
100
AcDbRotatedDimension
  0
DIMENSION
  5
26C
100
AcDbEntity
  8
0
100
AcDbDimension
 62
7
  6
CONTINUOUS
  2
*D3
 10
-7.6420085762
 20
-19.7583837482
 11
25.5457616359
 21
-19.7583807776
 70
160
 71
2
 42
132.5597923632
  3
DIMSTYLE_2
100
AcDbAlignedDimension
 13
59.5906724119
 23
-1.9662749257
 14
-7.6420102296
 24
-1.2856534497
 50
180.0000051285
100
AcDbRotatedDimension
  0
DIMENSION
  5
26D
100
AcDbEntity
  8
0
100
AcDbDimension
 62
7
  6
CONTINUOUS
  2
*D4
 10
45.4893892881
 20
12.088034604
 11
34.818382782
 21
12.088034604
 70
160
 71
2
 42
20.484871638
  3
DIMSTYLE_2
100
AcDbAlignedDimension
 13
25.0045176501
 23
1.8322089519
 14
45.4893892881
 24
2.8228786902
100
AcDbRotatedDimension
  0
DIMENSION
  5
26E
100
AcDbEntity
  8
0
100
AcDbDimension
 62
7
  6
CONTINUOUS
  2
*D5
 10
59.5906724119
 20
-12.088034604
 11
41.8690239258
 21
-12.088034604
 70
160
 71
2
 42
34.5861547618
  3
DIMSTYLE_2
100
AcDbAlignedDimension
 13
25.0045176501
 23
-2.4035158514
 14
59.5906724119
 24
-1.9662690783
100
AcDbRotatedDimension
  0
DIMENSION
  5
26F
100
AcDbEntity
  8
0
100
AcDbDimension
 62
7
  6
CONTINUOUS
  2
*D6
 10
67.8003775603
 20
-3.1856634984
 11
67.8003903768
 21
11.859633414
 70
160
 71
1
 42
5.7784295918
  3
DIMSTYLE_2
100
AcDbAlignedDimension
 13
59.5199732785
 23
2.5927758604
 14
59.5308952183
 24
-3.1856537446
 50
269.999930377
100
AcDbRotatedDimension
  0
LINE
  5
270
100
AcDbEntity
  8
0
100
AcDbLine
 62
7
  6
CONTINUOUS
 10
-7.6420102296
 20
-1.6856534497
 11
-7.6420102296
 21
-0.8856534497
  0
LINE
  5
271
100
AcDbEntity
  8
0
100
AcDbLine
 62
7
  6
CONTINUOUS
 10
-7.6420102296
 20
0.3143465503
 11
-7.6420102296
 21
1.1143465503
  0
LINE
  5
272
100
AcDbEntity
  8
0
100
AcDbLine
 62
7
  6
CONTINUOUS
 10
7.6420102296
 20
-2.0356534497
 11
2.3579897704
 21
-2.0356534497
  0
LINE
  5
273
100
AcDbEntity
  8
0
100
AcDbLine
 62
7
  6
CONTINUOUS
 10
2.3579897704
 20
-1.6856534497
 11
-7.6420102296
 21
-1.6856534497
  0
LINE
  5
274
100
AcDbEntity
  8
0
100
AcDbLine
 62
7
  6
CONTINUOUS
 10
2.3579897704
 20
-0.8856534497
 11
-7.6420102296
 21
-0.8856534497
  0
LINE
  5
275
100
AcDbEntity
  8
0
100
AcDbLine
 62
7
  6
CONTINUOUS
 10
7.6420102296
 20
-0.5356534497
 11
2.3579897704
 21
-0.5356534497
  0
LINE
  5
276
100
AcDbEntity
  8
0
100
AcDbLine
 62
7
  6
CONTINUOUS
 10
7.6420102296
 20
-0.0356534497
 11
2.3579897704
 21
-0.0356534497
  0
LINE
  5
277
100
AcDbEntity
  8
0
100
AcDbLine
 62
7
  6
CONTINUOUS
 10
2.3579897704
 20
0.3143465503
 11
-7.6420102296
 21
0.3143465503
  0
LINE
  5
278
100
AcDbEntity
  8
0
100
AcDbLine
 62
7
  6
CONTINUOUS
 10
2.3579897704
 20
1.1143465503
 11
-7.6420102296
 21
1.1143465503
  0
LINE
  5
279
100
AcDbEntity
  8
0
100
AcDbLine
 62
7
  6
CONTINUOUS
 10
7.6420102296
 20
1.4643465503
 11
2.3579897704
 21
1.4643465503
  0
LINE
  5
27A
100
AcDbEntity
  8
0
100
AcDbLine
 62
7
  6
CONTINUOUS
 10
2.3579897704
 20
-2.0356534497
 11
2.3579897704
 21
-0.5356534497
  0
LINE
  5
27B
100
AcDbEntity
  8
0
100
AcDbLine
 62
7
  6
CONTINUOUS
 10
2.3579897704
 20
-0.0356534497
 11
2.3579897704
 21
1.4643465503
  0
LINE
  5
27C
100
AcDbEntity
  8
0
100
AcDbLine
 62
7
  6
CONTINUOUS
 10
7.6420102296
 20
-2.0356534497
 11
7.6420102296
 21
-0.5356534497
  0
LINE
  5
27D
100
AcDbEntity
  8
0
100
AcDbLine
 62
7
  6
CONTINUOUS
 10
7.6420102296
 20
-0.0356534497
 11
7.6420102296
 21
1.4643465503
  0
LINE
  5
27E
100
AcDbEntity
  8
0
100
AcDbLine
 62
7
  6
CONTINUOUS
 10
13.5708904905
 20
1.4643465503
 11
13.5708904905
 21
-0.0356534497
  0
LINE
  5
27F
100
AcDbEntity
  8
0
100
AcDbLine
 62
7
  6
CONTINUOUS
 10
13.5708904905
 20
-0.5356534497
 11
13.5708904905
 21
-2.0356534497
  0
LWPOLYLINE
  5
280
100
AcDbEntity
  8
0
100
AcDbPolyline
 62
7
  6
CONTINUOUS
 90
24
 70
0
 10
23.468647913
 20
0.5047021547
 10
23.4636939734
 20
0.5519091146
 10
23.4600579871
 20
0.597283338
 10
23.4576040186
 20
0.6406148955
 10
23.4564680034
 20
0.6820198058
 10
23.4562093424
 20
0.7220604598
 10
23.4567307538
 20
0.7606901109
 10
23.4581295194
 20
0.7979087156
 10
23.4602568862
 20
0.8343559938
 10
23.463038222
 20
0.8700221289
 10
23.4665481591
 20
0.9048874315
 10
23.4708618402
 20
0.9395736904
 10
23.4759496427
 20
0.9742481224
 10
23.4818411893
 20
1.0087107517
 10
23.4887004915
 20
1.0430275273
 10
23.4965349258
 20
1.0773081668
 10
23.5053371157
 20
1.1114090115
 10
23.5152489424
 20
1.1450198968
 10
23.526281067
 20
1.1781516018
 10
23.5384228285
 20
1.2107726225
 10
23.5517841246
 20
1.2425226035
 10
23.566401588
 20
1.2732850568
 10
23.5822385861
 20
1.3031793142
 10
23.5992951188
 20
1.3322080908
  0
LWPOLYLINE
  5
281
100
AcDbEntity
  8
RACCORDO
100
AcDbPolyline
 62
7
  6
CONTINUOUS
 90
6
 70
0
 10
23.0404555191
 20
2.0956716165
 10
23.0403537836
 20
2.0990380391
 10
23.0402508414
 20
2.1016868321
 10
23.040147063
 20
2.103605735
 10
23.040042078
 20
2.1048070082
 10
23.0399358863
 20
2.1052906517
  0
LWPOLYLINE
  5
282
100
AcDbEntity
  8
ASSI
100
AcDbPolyline
 62
7
  6
CONTINUOUS
 90
6
 70
0
 10
23.0404555191
 20
2.0956716165
 10
23.0403537836
 20
2.0990380391
 10
23.0402508414
 20
2.1016868321
 10
23.040147063
 20
2.103605735
 10
23.040042078
 20
2.1048070082
 10
23.0399358863
 20
2.1052906517
  0
LINE
  5
283
100
AcDbEntity
  8
DRAFT
100
AcDbLine
 62
7
  6
CONTINUOUS
 10
23.0308799878
 20
1.7717630992
 11
23.0317584953
 21
1.7375826585
  0
LINE
  5
284
100
AcDbEntity
  8
ASSI
100
AcDbLine
 62
7
  6
CONTINUOUS
 10
23.0308799878
 20
1.7717630992
 11
23.0317584953
 21
1.7375826585
  0
LINE
  5
285
100
AcDbEntity
  8
RACCORDO
100
AcDbLine
 62
7
  6
CONTINUOUS
 10
23.0406516659
 20
2.0869084875
 11
23.0404555191
 21
2.0956716165
  0
LINE
  5
286
100
AcDbEntity
  8
ASSI
100
AcDbLine
 62
7
  6
CONTINUOUS
 10
23.0406516659
 20
2.0869084875
 11
23.0404555191
 21
2.0956716165
  0
LINE
  5
287
100
AcDbEntity
  8
DRAFT
100
AcDbLine
 62
7
  6
CONTINUOUS
 10
23.0317584953
 20
1.7375826585
 11
23.0333770245
 21
1.6440192347
  0
LINE
  5
288
100
AcDbEntity
  8
ASSI
100
AcDbLine
 62
7
  6
CONTINUOUS
 10
23.0317584953
 20
1.7375826585
 11
23.0333770245
 21
1.6440192347
  0
LINE
  5
289
100
AcDbEntity
  8
RACCORDO
100
AcDbLine
 62
7
  6
CONTINUOUS
 10
23.0413881653
 20
2.0343964036
 11
23.0406516659
 21
2.0869084875
  0
LINE
  5
28A
100
AcDbEntity
  8
ASSI
100
AcDbLine
 62
7
  6
CONTINUOUS
 10
23.0413881653
 20
2.0343964036
 11
23.0406516659
 21
2.0869084875
  0
LINE
  5
28B
100
AcDbEntity
  8
DRAFT
100
AcDbLine
 62
7
  6
CONTINUOUS
 10
23.0333770245
 20
1.6440192347
 11
23.0352579726
 21
1.4643465503
  0
LINE
  5
28C
100
AcDbEntity
  8
ASSI
100
AcDbLine
 62
7
  6
CONTINUOUS
 10
23.0333770245
 20
1.6440192347
 11
23.0352579726
 21
1.4643465503
  0
LINE
  5
28D
100
AcDbEntity
  8
DRAFT
100
AcDbLine
 62
7
  6
CONTINUOUS
 10
23.033489433
 20
-0.3642345406
 11
23.0352562682
 21
-0.5356534497
  0
LINE
  5
28E
100
AcDbEntity
  8
ASSI
100
AcDbLine
 62
7
  6
CONTINUOUS
 10
23.033489433
 20
-0.3642345406
 11
23.0352562682
 21
-0.5356534497
  0
LINE
  5
28F
100
AcDbEntity
  8
DRAFT
100
AcDbLine
 62
7
  6
CONTINUOUS
 10
23.0407654359
 20
-0.5690631494
 11
23.03872316
 21
-0.3643833927
  0
LINE
  5
290
100
AcDbEntity
  8
ASSI
100
AcDbLine
 62
7
  6
CONTINUOUS
 10
23.0407654359
 20
-0.5690631494
 11
23.03872316
 21
-0.3643833927
  0
LINE
  5
291
100
AcDbEntity
  8
RACCORDO
100
AcDbLine
 62
7
  6
CONTINUOUS
 10
23.0438471077
 20
1.7884402717
 11
23.0413881653
 21
2.0343964036
  0
LINE
  5
292
100
AcDbEntity
  8
ASSI
100
AcDbLine
 62
7
  6
CONTINUOUS
 10
23.0438471077
 20
1.7884402717
 11
23.0413881653
 21
2.0343964036
  0
LINE
  5
293
100
AcDbEntity
  8
RACCORDO
100
AcDbLine
 62
7
  6
CONTINUOUS
 10
23.0465636295
 20
1.2786678452
 11
23.0438471077
 21
1.7884402717
  0
LINE
  5
294
100
AcDbEntity
  8
ASSI
100
AcDbLine
 62
7
  6
CONTINUOUS
 10
23.0465636295
 20
1.2786678452
 11
23.0438471077
 21
1.7884402717
  0
LINE
  5
295
100
AcDbEntity
  8
DRAFT
100
AcDbLine
 62
7
  6
CONTINUOUS
 10
23.0428154529
 20
-1.0278769481
 11
23.0407654359
 21
-0.5690631494
  0
LINE
  5
296
100
AcDbEntity
  8
ASSI
100
AcDbLine
 62
7
  6
CONTINUOUS
 10
23.0428154529
 20
-1.0278769481
 11
23.0407654359
 21
-0.5690631494
  0
LINE
  5
297
100
AcDbEntity
  8
RACCORDO
100
AcDbLine
 62
7
  6
CONTINUOUS
 10
23.0471713923
 20
-0.9615124492
 11
23.0443979025
 21
-0.2856534497
  0
LINE
  5
298
100
AcDbEntity
  8
ASSI
100
AcDbLine
 62
7
  6
CONTINUOUS
 10
23.0471713923
 20
-0.9615124492
 11
23.0443979025
 21
-0.2856534497
  0
LINE
  5
299
100
AcDbEntity
  8
DRAFT
100
AcDbLine
 62
7
  6
CONTINUOUS
 10
23.0308799878
 20
-2.6856534497
 11
23.0308799878
 21
-2.3846634945
  0
LINE
  5
29A
100
AcDbEntity
  8
ASSI
100
AcDbLine
 62
7
  6
CONTINUOUS
 10
23.0308799878
 20
-2.6856534497
 11
23.0308799878
 21
-2.3846634945
  0
LINE
  5
29B
100
AcDbEntity
  8
DRAFT
100
AcDbLine
 62
7
  6
CONTINUOUS
 10
23.0308799878
 20
1.8133565951
 11
23.0308799878
 21
2.1143465503
  0
LINE
  5
29C
100
AcDbEntity
  8
ASSI
100
AcDbLine
 62
7
  6
CONTINUOUS
 10
23.0308799878
 20
1.8133565951
 11
23.0308799878
 21
2.1143465503
  0
LINE
  5
29D
100
AcDbEntity
  8
DRAFT
100
AcDbLine
 62
7
  6
CONTINUOUS
 10
23.033489433
 20
-0.2070723588
 11
23.033489433
 21
-0.3642345406
  0
LINE
  5
29E
100
AcDbEntity
  8
ASSI
100
AcDbLine
 62
7
  6
CONTINUOUS
 10
23.033489433
 20
-0.2070723588
 11
23.033489433
 21
-0.3642345406
  0
LINE
  5
29F
100
AcDbEntity
  8
DRAFT
100
AcDbLine
 62
7
  6
CONTINUOUS
 10
23.03872316
 20
-0.3643833927
 11
23.03872316
 21
-0.2069235068
  0
LINE
  5
2A0
100
AcDbEntity
  8
ASSI
100
AcDbLine
 62
7
  6
CONTINUOUS
 10
23.03872316
 20
-0.3643833927
 11
23.03872316
 21
-0.2069235068
  0
LINE
  5
2A1
100
AcDbEntity
  8
RACCORDO
100
AcDbLine
 62
7
  6
CONTINUOUS
 10
23.0472890144
 20
0.4640453826
 11
23.0465636295
 21
1.2786678452
  0
LINE
  5
2A2
100
AcDbEntity
  8
ASSI
100
AcDbLine
 62
7
  6
CONTINUOUS
 10
23.0472890144
 20
0.4640453826
 11
23.0465636295
 21
1.2786678452
  0
LINE
  5
2A3
100
AcDbEntity
  8
DRAFT
100
AcDbLine
 62
7
  6
CONTINUOUS
 10
23.0425608614
 20
-1.6433694331
 11
23.0428154529
 21
-1.0278769481
  0
LINE
  5
2A4
100
AcDbEntity
  8
ASSI
100
AcDbLine
 62
7
  6
CONTINUOUS
 10
23.0425608614
 20
-1.6433694331
 11
23.0428154529
 21
-1.0278769481
  0
LINE
  5
2A5
100
AcDbEntity
  8
RACCORDO
100
AcDbLine
 62
7
  6
CONTINUOUS
 10
23.0467810705
 20
-1.7788689347
 11
23.0471713923
 21
-0.9615124492
  0
LINE
  5
2A6
100
AcDbEntity
  8
ASSI
100
AcDbLine
 62
7
  6
CONTINUOUS
 10
23.0467810705
 20
-1.7788689347
 11
23.0471713923
 21
-0.9615124492
  0
LINE
  5
2A7
100
AcDbEntity
  8
RACCORDO
100
AcDbLine
 62
7
  6
CONTINUOUS
 10
23.0451713529
 20
-0.1635627076
 11
23.0472890144
 21
0.4640453826
  0
LINE
  5
2A8
100
AcDbEntity
  8
ASSI
100
AcDbLine
 62
7
  6
CONTINUOUS
 10
23.0451713529
 20
-0.1635627076
 11
23.0472890144
 21
0.4640453826
  0
LINE
  5
2A9
100
AcDbEntity
  8
RACCORDO
100
AcDbLine
 62
7
  6
CONTINUOUS
 10
23.0443979025
 20
-0.2856534497
 11
23.0451713529
 21
-0.1635627076
  0
LINE
  5
2AA
100
AcDbEntity
  8
ASSI
100
AcDbLine
 62
7
  6
CONTINUOUS
 10
23.0443979025
 20
-0.2856534497
 11
23.0451713529
 21
-0.1635627076
  0
LINE
  5
2AB
100
AcDbEntity
  8
DRAFT
100
AcDbLine
 62
7
  6
CONTINUOUS
 10
23.0407641266
 20
-2.0024181714
 11
23.0425608614
 21
-1.6433694331
  0
LINE
  5
2AC
100
AcDbEntity
  8
ASSI
100
AcDbLine
 62
7
  6
CONTINUOUS
 10
23.0407641266
 20
-2.0024181714
 11
23.0425608614
 21
-1.6433694331
  0
LINE
  5
2AD
100
AcDbEntity
  8
RACCORDO
100
AcDbLine
 62
7
  6
CONTINUOUS
 10
23.0442765415
 20
-2.3027607961
 11
23.0467810705
 21
-1.7788689347
  0
LINE
  5
2AE
100
AcDbEntity
  8
ASSI
100
AcDbLine
 62
7
  6
CONTINUOUS
 10
23.0442765415
 20
-2.3027607961
 11
23.0467810705
 21
-1.7788689347
  0
LINE
  5
2AF
100
AcDbEntity
  8
RACCORDO
100
AcDbLine
 62
7
  6
CONTINUOUS
 10
23.0419190366
 20
-2.5619259673
 11
23.0442765415
 21
-2.3027607961
  0
LINE
  5
2B0
100
AcDbEntity
  8
ASSI
100
AcDbLine
 62
7
  6
CONTINUOUS
 10
23.0419190366
 20
-2.5619259673
 11
23.0442765415
 21
-2.3027607961
  0
LINE
  5
2B1
100
AcDbEntity
  8
DRAFT
100
AcDbLine
 62
7
  6
CONTINUOUS
 10
23.0352562682
 20
-0.0356534497
 11
23.033489433
 21
-0.2070723588
  0
LINE
  5
2B2
100
AcDbEntity
  8
ASSI
100
AcDbLine
 62
7
  6
CONTINUOUS
 10
23.0352562682
 20
-0.0356534497
 11
23.033489433
 21
-0.2070723588
  0
LINE
  5
2B3
100
AcDbEntity
  8
DRAFT
100
AcDbLine
 62
7
  6
CONTINUOUS
 10
23.0387188509
 20
-2.2072444935
 11
23.0407641266
 21
-2.0024181714
  0
LINE
  5
2B4
100
AcDbEntity
  8
ASSI
100
AcDbLine
 62
7
  6
CONTINUOUS
 10
23.0387188509
 20
-2.2072444935
 11
23.0407641266
 21
-2.0024181714
  0
LINE
  5
2B5
100
AcDbEntity
  8
DRAFT
100
AcDbLine
 62
7
  6
CONTINUOUS
 10
23.0352579726
 20
-2.0356534497
 11
23.0333770245
 21
-2.2153261342
  0
LINE
  5
2B6
100
AcDbEntity
  8
ASSI
100
AcDbLine
 62
7
  6
CONTINUOUS
 10
23.0352579726
 20
-2.0356534497
 11
23.0333770245
 21
-2.2153261342
  0
LINE
  5
2B7
100
AcDbEntity
  8
RACCORDO
100
AcDbLine
 62
7
  6
CONTINUOUS
 10
23.0407460772
 20
-2.6528186806
 11
23.0419190366
 21
-2.5619259673
  0
LINE
  5
2B8
100
AcDbEntity
  8
ASSI
100
AcDbLine
 62
7
  6
CONTINUOUS
 10
23.0407460772
 20
-2.6528186806
 11
23.0419190366
 21
-2.5619259673
  0
LINE
  5
2B9
100
AcDbEntity
  8
DRAFT
100
AcDbLine
 62
7
  6
CONTINUOUS
 10
23.0333770245
 20
-2.2153261342
 11
23.0317584953
 21
-2.308889558
  0
LINE
  5
2BA
100
AcDbEntity
  8
ASSI
100
AcDbLine
 62
7
  6
CONTINUOUS
 10
23.0333770245
 20
-2.2153261342
 11
23.0317584953
 21
-2.308889558
  0
LINE
  5
2BB
100
AcDbEntity
  8
DRAFT
100
AcDbLine
 62
7
  6
CONTINUOUS
 10
23.0317584953
 20
-2.308889558
 11
23.0308799878
 21
-2.3430699987
  0
LINE
  5
2BC
100
AcDbEntity
  8
ASSI
100
AcDbLine
 62
7
  6
CONTINUOUS
 10
23.0317584953
 20
-2.308889558
 11
23.0308799878
 21
-2.3430699987
  0
LWPOLYLINE
  5
2BD
100
AcDbEntity
  8
DRAFT
100
AcDbPolyline
 62
7
  6
CONTINUOUS
 90
6
 70
0
 10
23.0334980481
 20
-2.3846634945
 10
23.034473552
 20
-2.3788086688
 10
23.0353748997
 20
-2.3632128704
 10
23.0362523806
 20
-2.338220748
 10
23.0371060483
 20
-2.3035614002
 10
23.0387188509
 20
-2.2072444935
  0
LWPOLYLINE
  5
2BE
100
AcDbEntity
  8
ASSI
100
AcDbPolyline
 62
7
  6
CONTINUOUS
 90
6
 70
0
 10
23.0334980481
 20
-2.3846634945
 10
23.034473552
 20
-2.3788086688
 10
23.0353748997
 20
-2.3632128704
 10
23.0362523806
 20
-2.338220748
 10
23.0371060483
 20
-2.3035614002
 10
23.0387188509
 20
-2.2072444935
  0
LWPOLYLINE
  5
2BF
100
AcDbEntity
  8
RACCORDO
100
AcDbPolyline
 62
7
  6
CONTINUOUS
 90
8
 70
0
 10
23.0399358863
 20
-2.6765975512
 10
23.040042078
 20
-2.6761139076
 10
23.040147063
 20
-2.6749126344
 10
23.0402508414
 20
-2.6729937316
 10
23.0403537836
 20
-2.6703449386
 10
23.0404555191
 20
-2.666978516
 10
23.0405549366
 20
-2.6629312452
 10
23.0407460772
 20
-2.6528186806
  0
LWPOLYLINE
  5
2C0
100
AcDbEntity
  8
ASSI
100
AcDbPolyline
 62
7
  6
CONTINUOUS
 90
8
 70
0
 10
23.0399358863
 20
-2.6765975512
 10
23.040042078
 20
-2.6761139076
 10
23.040147063
 20
-2.6749126344
 10
23.0402508414
 20
-2.6729937316
 10
23.0403537836
 20
-2.6703449386
 10
23.0404555191
 20
-2.666978516
 10
23.0405549366
 20
-2.6629312452
 10
23.0407460772
 20
-2.6528186806
  0
LWPOLYLINE
  5
2C1
100
AcDbEntity
  8
0
100
AcDbPolyline
 62
7
  6
CONTINUOUS
 90
5
 70
0
 10
23.4880229561
 20
-0.9591707361
 10
23.5077060276
 20
-0.8802429128
 10
23.532966783
 20
-0.8057414208
 10
23.5634964801
 20
-0.7349135416
 10
23.5992951188
 20
-0.6677919092
  0
LWPOLYLINE
  5
2C2
100
AcDbEntity
  8
RACCORDO
100
AcDbPolyline
 62
253
  6
CONTINUOUS
 90
9
 70
0
 10
24.8381462352
 20
-2.4689531463
 10
24.8411883821
 20
-2.5036750693
 10
24.8502121297
 20
-2.5373431459
 10
24.8649437947
 20
-2.5689346103
 10
24.8849363091
 20
-2.5974897032
 10
24.9095826757
 20
-2.6221406913
 10
24.9381343111
 20
-2.6421383143
 10
24.9697239493
 20
-2.6568747482
 10
25.0024390611
 20
-2.6656464982
  0
LWPOLYLINE
  5
2C3
100
AcDbEntity
  8
ASSI
100
AcDbPolyline
 62
253
  6
CONTINUOUS
 90
9
 70
0
 10
24.8381462352
 20
-2.4689531463
 10
24.8411883821
 20
-2.5036750693
 10
24.8502121297
 20
-2.5373431459
 10
24.8649437947
 20
-2.5689346103
 10
24.8849363091
 20
-2.5974897032
 10
24.9095826757
 20
-2.6221406913
 10
24.9381343111
 20
-2.6421383143
 10
24.9697239493
 20
-2.6568747482
 10
25.0024390611
 20
-2.6656464982
  0
LWPOLYLINE
  5
2C4
100
AcDbEntity
  8
RACCORDO
100
AcDbPolyline
 62
7
  6
CONTINUOUS
 90
4
 70
0
 10
26.0119573669
 20
-2.7530361885
 10
26.011564161
 20
-2.7475075559
 10
26.0111911873
 20
-2.7369504549
 10
26.0108384458
 20
-2.7213648855
  0
LWPOLYLINE
  5
2C5
100
AcDbEntity
  8
RACCORDO
100
AcDbPolyline
 62
253
  6
CONTINUOUS
 90
16
 70
0
 10
25.0413560662
 20
-3.3252687542
 10
25.0446809862
 20
-3.3881606051
 10
25.054580745
 20
-3.4503591181
 10
25.0709461715
 20
-3.5111788256
 10
25.0935999281
 20
-3.5699563745
 10
25.1222906518
 20
-3.6260364675
 10
25.1566886375
 20
-3.6787826164
 10
25.1963992539
 20
-3.7276070012
 10
25.240987285
 20
-3.7719895011
 10
25.289974253
 20
-3.8114593951
 10
25.3429002422
 20
-3.8456286594
 10
25.3991135317
 20
-3.8740603498
 10
25.4577535835
 20
-3.8963643525
 10
25.5180684463
 20
-3.912353907
 10
25.579462445
 20
-3.9219666406
 10
25.6412646833
 20
-3.9251773713
  0
LWPOLYLINE
  5
2C6
100
AcDbEntity
  8
RACCORDO
100
AcDbPolyline
 62
253
  6
CONTINUOUS
 90
7
 70
0
 10
24.8412045745
 20
1.839548439
 10
24.8407476642
 20
1.8566164092
 10
24.8402572251
 20
1.8710716455
 10
24.8397501713
 20
1.8824487839
 10
24.8392321407
 20
1.8905927028
 10
24.8386974953
 20
1.8956585238
 10
24.8381462352
 20
1.8976462469
  0
LWPOLYLINE
  5
2C7
100
AcDbEntity
  8
ASSI
100
AcDbPolyline
 62
253
  6
CONTINUOUS
 90
7
 70
0
 10
24.8412045745
 20
1.839548439
 10
24.8407476642
 20
1.8566164092
 10
24.8402572251
 20
1.8710716455
 10
24.8397501713
 20
1.8824487839
 10
24.8392321407
 20
1.8905927028
 10
24.8386974953
 20
1.8956585238
 10
24.8381462352
 20
1.8976462469
  0
LINE
  5
2C8
100
AcDbEntity
  8
RACCORDO
100
AcDbLine
 62
253
  6
CONTINUOUS
 10
24.8420148336
 20
1.7974067197
 11
24.8412045745
 21
1.839548439
  0
LINE
  5
2C9
100
AcDbEntity
  8
ASSI
100
AcDbLine
 62
253
  6
CONTINUOUS
 10
24.8420148336
 20
1.7974067197
 11
24.8412045745
 21
1.839548439
  0
LINE
  5
2CA
100
AcDbEntity
  8
RACCORDO
100
AcDbLine
 62
7
  6
CONTINUOUS
 10
24.832229779
 20
1.6778969559
 11
24.8286404296
 21
1.9023987877
  0
LINE
  5
2CB
100
AcDbEntity
  8
ASSI
100
AcDbLine
 62
7
  6
CONTINUOUS
 10
24.832229779
 20
1.6778969559
 11
24.8286404296
 21
1.9023987877
  0
LINE
  5
2CC
100
AcDbEntity
  8
RACCORDO
100
AcDbLine
 62
253
  6
CONTINUOUS
 10
24.8426521427
 20
1.7468869961
 11
24.8420148336
 21
1.7974067197
  0
LINE
  5
2CD
100
AcDbEntity
  8
ASSI
100
AcDbLine
 62
253
  6
CONTINUOUS
 10
24.8426521427
 20
1.7468869961
 11
24.8420148336
 21
1.7974067197
  0
LINE
  5
2CE
100
AcDbEntity
  8
RACCORDO
100
AcDbLine
 62
7
  6
CONTINUOUS
 10
25.0028400585
 20
2.0731227104
 11
25.0037517639
 21
2.0016082435
  0
LINE
  5
2CF
100
AcDbEntity
  8
RACCORDO
100
AcDbLine
 62
7
  6
CONTINUOUS
 10
24.8350121544
 20
1.4184787169
 11
24.832229779
 21
1.6778969559
  0
LINE
  5
2D0
100
AcDbEntity
  8
ASSI
100
AcDbLine
 62
7
  6
CONTINUOUS
 10
24.8350121544
 20
1.4184787169
 11
24.832229779
 21
1.6778969559
  0
LINE
  5
2D1
100
AcDbEntity
  8
RACCORDO
100
AcDbLine
 62
7
  6
CONTINUOUS
 10
25.0037517639
 20
2.0016082435
 11
25.0043175092
 21
1.9207170676
  0
LINE
  5
2D2
100
AcDbEntity
  8
RACCORDO
100
AcDbLine
 62
253
  6
CONTINUOUS
 10
24.8432343501
 20
1.6599332016
 11
24.8426521427
 21
1.7468869961
  0
LINE
  5
2D3
100
AcDbEntity
  8
ASSI
100
AcDbLine
 62
253
  6
CONTINUOUS
 10
24.8432343501
 20
1.6599332016
 11
24.8426521427
 21
1.7468869961
  0
LINE
  5
2D4
100
AcDbEntity
  8
RACCORDO
100
AcDbLine
 62
253
  6
CONTINUOUS
 10
24.8433490037
 20
1.4268155662
 11
24.8432343501
 21
1.6599332016
  0
LINE
  5
2D5
100
AcDbEntity
  8
ASSI
100
AcDbLine
 62
253
  6
CONTINUOUS
 10
24.8433490037
 20
1.4268155662
 11
24.8432343501
 21
1.6599332016
  0
LINE
  5
2D6
100
AcDbEntity
  8
RACCORDO
100
AcDbLine
 62
7
  6
CONTINUOUS
 10
24.9308799878
 20
2.8647120541
 11
24.9308799878
 21
2.2953659985
  0
LINE
  5
2D7
100
AcDbEntity
  8
RACCORDO
100
AcDbLine
 62
7
  6
CONTINUOUS
 10
24.9308799878
 20
-2.8666728979
 11
24.9308799878
 21
-3.4360189535
  0
LINE
  5
2D8
100
AcDbEntity
  8
RACCORDO
100
AcDbLine
 62
7
  6
CONTINUOUS
 10
24.9608799878
 20
-3.4057448326
 11
24.9608799878
 21
-2.8666728979
  0
LINE
  5
2D9
100
AcDbEntity
  8
RACCORDO
100
AcDbLine
 62
7
  6
CONTINUOUS
 10
24.9608799878
 20
2.2953659985
 11
24.9608799878
 21
2.8344379332
  0
LINE
  5
2DA
100
AcDbEntity
  8
RACCORDO
100
AcDbLine
 62
7
  6
CONTINUOUS
 10
25.0045176501
 20
-2.4035158514
 11
25.0043175092
 21
1.9207170676
  0
LINE
  5
2DB
100
AcDbEntity
  8
RACCORDO
100
AcDbLine
 62
253
  6
CONTINUOUS
 10
25.0413560662
 20
-3.3252687542
 11
25.0413560662
 21
2.7539618548
  0
LINE
  5
2DC
100
AcDbEntity
  8
RACCORDO
100
AcDbLine
 62
253
  6
CONTINUOUS
 10
25.6412646833
 20
-3.9251773713
 11
25.6412646833
 21
3.3538704719
  0
LINE
  5
2DD
100
AcDbEntity
  8
RACCORDO
100
AcDbLine
 62
253
  6
CONTINUOUS
 10
24.8432353562
 20
-2.2310229524
 11
24.8433490037
 21
-1.9981224657
  0
LINE
  5
2DE
100
AcDbEntity
  8
ASSI
100
AcDbLine
 62
253
  6
CONTINUOUS
 10
24.8432353562
 20
-2.2310229524
 11
24.8433490037
 21
-1.9981224657
  0
LINE
  5
2DF
100
AcDbEntity
  8
RACCORDO
100
AcDbLine
 62
7
  6
CONTINUOUS
 10
25.0045176501
 20
-2.4035158514
 11
25.0043175092
 21
-2.4920239671
  0
LINE
  5
2E0
100
AcDbEntity
  8
RACCORDO
100
AcDbLine
 62
7
  6
CONTINUOUS
 10
25.0043175092
 20
-2.4920239671
 11
25.0037517639
 21
-2.572915143
  0
LINE
  5
2E1
100
AcDbEntity
  8
RACCORDO
100
AcDbLine
 62
253
  6
CONTINUOUS
 10
24.8426550783
 20
-2.3178945143
 11
24.8432353562
 21
-2.2310229524
  0
LINE
  5
2E2
100
AcDbEntity
  8
ASSI
100
AcDbLine
 62
253
  6
CONTINUOUS
 10
24.8426550783
 20
-2.3178945143
 11
24.8432353562
 21
-2.2310229524
  0
LINE
  5
2E3
100
AcDbEntity
  8
RACCORDO
100
AcDbLine
 62
7
  6
CONTINUOUS
 10
24.832229779
 20
-2.2492038554
 11
24.8350121544
 21
-1.9897856164
  0
LINE
  5
2E4
100
AcDbEntity
  8
ASSI
100
AcDbLine
 62
7
  6
CONTINUOUS
 10
24.832229779
 20
-2.2492038554
 11
24.8350121544
 21
-1.9897856164
  0
LINE
  5
2E5
100
AcDbEntity
  8
RACCORDO
100
AcDbLine
 62
253
  6
CONTINUOUS
 10
24.8420189517
 20
-2.3684479646
 11
24.8426550783
 21
-2.3178945143
  0
LINE
  5
2E6
100
AcDbEntity
  8
ASSI
100
AcDbLine
 62
253
  6
CONTINUOUS
 10
24.8420189517
 20
-2.3684479646
 11
24.8426550783
 21
-2.3178945143
  0
LWPOLYLINE
  5
2E7
100
AcDbEntity
  8
RACCORDO
100
AcDbPolyline
 62
7
  6
CONTINUOUS
 90
8
 70
0
 10
25.0037517639
 20
-2.572915143
 10
25.0028400585
 20
-2.6444296099
 10
25.0022756946
 20
-2.6742902634
 10
25.001641211
 20
-2.7003402655
 10
25.000966247
 20
-2.7213616552
 10
25.0002606823
 20
-2.7369484454
 10
24.9995146374
 20
-2.7475066232
 10
24.998728112
 20
-2.7530361885
  0
LINE
  5
2E8
100
AcDbEntity
  8
RACCORDO
100
AcDbLine
 62
7
  6
CONTINUOUS
 10
24.8286404296
 20
-2.4737056872
 11
24.832229779
 21
-2.2492038554
  0
LINE
  5
2E9
100
AcDbEntity
  8
ASSI
100
AcDbLine
 62
7
  6
CONTINUOUS
 10
24.8286404296
 20
-2.4737056872
 11
24.832229779
 21
-2.2492038554
  0
LWPOLYLINE
  5
2EA
100
AcDbEntity
  8
RACCORDO
100
AcDbPolyline
 62
7
  6
CONTINUOUS
 90
16
 70
0
 10
24.8286404296
 20
1.9023987877
 10
24.8289713953
 20
1.9187424864
 10
24.8305343536
 20
1.9344710739
 10
24.8331983989
 20
1.9495030867
 10
24.8368150594
 20
1.9637235928
 10
24.8412649049
 20
1.9771413923
 10
24.8464957054
 20
1.9898744408
 10
24.8524079814
 20
2.0018764904
 10
24.8589180844
 20
2.0131430472
 10
24.8660693869
 20
2.0238354929
 10
24.8738275768
 20
2.0339456846
 10
24.882125965
 20
2.0434249117
 10
24.8910135493
 20
2.0523411795
 10
24.9004898764
 20
2.0606861173
 10
24.9104842475
 20
2.0683942406
 10
24.920955757
 20
2.0754342266
  0
LWPOLYLINE
  5
2EB
100
AcDbEntity
  8
ASSI
100
AcDbPolyline
 62
7
  6
CONTINUOUS
 90
16
 70
0
 10
24.8286404296
 20
1.9023987877
 10
24.8289713953
 20
1.9187424864
 10
24.8305343536
 20
1.9344710739
 10
24.8331983989
 20
1.9495030867
 10
24.8368150594
 20
1.9637235928
 10
24.8412649049
 20
1.9771413923
 10
24.8464957054
 20
1.9898744408
 10
24.8524079814
 20
2.0018764904
 10
24.8589180844
 20
2.0131430472
 10
24.8660693869
 20
2.0238354929
 10
24.8738275768
 20
2.0339456846
 10
24.882125965
 20
2.0434249117
 10
24.8910135493
 20
2.0523411795
 10
24.9004898764
 20
2.0606861173
 10
24.9104842475
 20
2.0683942406
 10
24.920955757
 20
2.0754342266
  0
LWPOLYLINE
  5
2EC
100
AcDbEntity
  8
RACCORDO
100
AcDbPolyline
 62
253
  6
CONTINUOUS
 90
16
 70
0
 10
25.0413560662
 20
2.7539618548
 10
25.0446809833
 20
2.8168536788
 10
25.0545807342
 20
2.8790521683
 10
25.0709461487
 20
2.9398718563
 10
25.0935998909
 20
2.9986493918
 10
25.1222905985
 20
3.0547294761
 10
25.156688564
 20
3.1074756162
 10
25.1963991512
 20
3.1562999881
 10
25.2409871474
 20
3.2006824784
 10
25.2899740872
 20
3.2401523758
 10
25.3429000606
 20
3.2743216557
 10
25.3991133465
 20
3.3027533685
 10
25.4577534134
 20
3.3250573983
 10
25.5180683131
 20
3.3410469796
 10
25.5794623689
 20
3.3506597332
 10
25.6412646833
 20
3.3538704719
  0
LWPOLYLINE
  5
2ED
100
AcDbEntity
  8
RACCORDO
100
AcDbPolyline
 62
7
  6
CONTINUOUS
 90
16
 70
0
 10
24.9308799878
 20
2.8647120541
 10
24.9344686173
 20
2.928574309
 10
24.9442640129
 20
2.9904056566
 10
24.9602661744
 20
3.0502060971
 10
24.9827847439
 20
3.1085798875
 10
25.0115100794
 20
3.1649227707
 10
25.0455132548
 20
3.2174219748
 10
25.0849643363
 20
3.2659524983
 10
25.1296932577
 20
3.3106393428
 10
25.1782608948
 20
3.350044741
 10
25.2308129843
 20
3.3839984995
 10
25.2872037895
 20
3.4126708117
 10
25.3455569755
 20
3.4351344915
 10
25.4052470975
 20
3.4510804768
 10
25.4668996003
 20
3.4608178298
 10
25.530514484
 20
3.4643465503
  0
LWPOLYLINE
  5
2EE
100
AcDbEntity
  8
RACCORDO
100
AcDbPolyline
 62
7
  6
CONTINUOUS
 90
16
 70
0
 10
24.9608799878
 20
2.8344379332
 10
24.9644656734
 20
2.8982658235
 10
24.9742542266
 20
2.9600706214
 10
24.9902456474
 20
3.0198523268
 10
25.0127468523
 20
3.0782134655
 10
25.0414509249
 20
3.1345515118
 10
25.0754371159
 20
3.1870588883
 10
25.1148823253
 20
3.2356168857
 10
25.1596096531
 20
3.2803442135
 10
25.2081676505
 20
3.3197894227
 10
25.260675027
 20
3.3537756136
 10
25.317013073
 20
3.382479686
 10
25.3753742115
 20
3.4049808907
 10
25.4351559168
 20
3.4209723115
 10
25.4969607146
 20
3.4307608647
 10
25.5607886049
 20
3.4343465503
  0
LWPOLYLINE
  5
2EF
100
AcDbEntity
  8
RACCORDO
100
AcDbPolyline
 62
7
  6
CONTINUOUS
 90
13
 70
0
 10
26.0308799878
 20
3.3143522618
 10
26.0323418439
 20
3.3344574092
 10
26.0361477315
 20
3.3535913419
 10
26.0422976506
 20
3.3717540599
 10
26.0509749108
 20
3.3892198584
 10
26.0619962026
 20
3.4057144423
 10
26.0748115969
 20
3.4204149253
 10
26.0895120801
 20
3.4332303224
 10
26.1060066659
 20
3.4442516188
 10
26.1234724671
 20
3.4529288828
 10
26.141635188
 20
3.4590788042
 10
26.1607691244
 20
3.4628846934
 10
26.1808742762
 20
3.4643465503
  0
LWPOLYLINE
  5
2F0
100
AcDbEntity
  8
ASSI
100
AcDbPolyline
 62
7
  6
CONTINUOUS
 90
13
 70
0
 10
26.0308799878
 20
3.3143522618
 10
26.0323418439
 20
3.3344574092
 10
26.0361477315
 20
3.3535913419
 10
26.0422976506
 20
3.3717540599
 10
26.0509749108
 20
3.3892198584
 10
26.0619962026
 20
3.4057144423
 10
26.0748115969
 20
3.4204149253
 10
26.0895120801
 20
3.4332303224
 10
26.1060066659
 20
3.4442516188
 10
26.1234724671
 20
3.4529288828
 10
26.141635188
 20
3.4590788042
 10
26.1607691244
 20
3.4628846934
 10
26.1808742762
 20
3.4643465503
  0
LWPOLYLINE
  5
2F1
100
AcDbEntity
  8
RACCORDO
100
AcDbPolyline
 62
253
  6
CONTINUOUS
 90
9
 70
0
 10
24.8381462352
 20
1.8976462469
 10
24.8411889221
 20
1.9323712266
 10
24.8502139741
 20
1.9660413097
 10
24.8649472229
 20
1.9976336456
 10
24.8849410926
 20
2.0261885027
 10
24.9095881974
 20
2.050838424
 10
24.9381397925
 20
2.0708345791
 10
24.9697285202
 20
2.0855695124
 10
25.0024390654
 20
2.0943393705
  0
LWPOLYLINE
  5
2F2
100
AcDbEntity
  8
ASSI
100
AcDbPolyline
 62
253
  6
CONTINUOUS
 90
9
 70
0
 10
24.8381462352
 20
1.8976462469
 10
24.8411889221
 20
1.9323712266
 10
24.8502139741
 20
1.9660413097
 10
24.8649472229
 20
1.9976336456
 10
24.8849410926
 20
2.0261885027
 10
24.9095881974
 20
2.050838424
 10
24.9381397925
 20
2.0708345791
 10
24.9697285202
 20
2.0855695124
 10
25.0024390654
 20
2.0943393705
  0
LWPOLYLINE
  5
2F3
100
AcDbEntity
  8
RACCORDO
100
AcDbPolyline
 62
7
  6
CONTINUOUS
 90
7
 70
0
 10
25.990645013
 20
3.3538704719
 10
25.9900950363
 20
3.3492727256
 10
25.9895630126
 20
3.3386326204
 10
25.9890489417
 20
3.3219501561
 10
25.988547737
 20
3.2989192312
 10
25.9880644853
 20
3.2698459473
 10
25.9871986819
 20
3.1961637129
  0
LINE
  5
2F4
100
AcDbEntity
  8
RACCORDO
100
AcDbLine
 62
7
  6
CONTINUOUS
 10
26.0308799878
 20
2.2953659985
 11
26.0119573669
 21
2.1817292891
  0
LWPOLYLINE
  5
2F5
100
AcDbEntity
  8
0
100
AcDbPolyline
 62
7
  6
CONTINUOUS
 90
36
 70
0
 10
24.5547758142
 20
-1.5436049761
 10
24.5393451328
 20
-1.6257109812
 10
24.5196008896
 20
-1.7021561869
 10
24.4955430848
 20
-1.7729256211
 10
24.4669951076
 20
-1.8384704181
 10
24.4341335687
 20
-1.8984507555
 10
24.3974883002
 20
-1.9517896301
 10
24.3569885161
 20
-1.9985200532
 10
24.3127050024
 20
-2.0390237376
 10
24.2653799485
 20
-2.0728514777
 10
24.2144876917
 20
-2.1002376027
 10
24.1605538948
 20
-2.1213653936
 10
24.1058977351
 20
-2.1357189951
 10
24.0507232254
 20
-2.1431224551
 10
23.994826353
 20
-2.1439499298
 10
23.9399142571
 20
-2.1384458455
 10
23.8860914126
 20
-2.1265492279
 10
23.8332533446
 20
-2.1081693196
 10
23.7827937676
 20
-2.0834331309
 10
23.7345407931
 20
-2.0515741803
 10
23.6886663096
 20
-2.0129366834
 10
23.6470796971
 20
-1.9693612376
 10
23.6105644741
 20
-1.9211458354
 10
23.578337122
 20
-1.8677056941
 10
23.5499564652
 20
-1.8096910776
 10
23.5253168355
 20
-1.7469357557
 10
23.5045239012
 20
-1.6794822996
 10
23.4874534906
 20
-1.6084088252
 10
23.4740426676
 20
-1.5337427148
 10
23.4643543684
 20
-1.4556084954
 10
23.4584532295
 20
-1.375344834
 10
23.4561756116
 20
-1.2928952762
 10
23.457685154
 20
-1.2087085593
 10
23.4635374113
 20
-1.1249377101
 10
23.4736088262
 20
-1.041618213
 10
23.4880229561
 20
-0.9591707361
  0
LINE
  5
2F6
100
AcDbEntity
  8
RACCORDO
100
AcDbLine
 62
7
  6
CONTINUOUS
 10
26.0308799878
 20
3.4343465503
 11
25.990645013
 21
3.3538704719
  0
LWPOLYLINE
  5
2F7
100
AcDbEntity
  8
0
100
AcDbPolyline
 62
7
  6
CONTINUOUS
 90
34
 70
0
 10
23.5992951188
 20
1.3322080908
 10
23.6173798997
 20
1.3597872457
 10
23.6370941694
 20
1.3861009086
 10
23.6584379279
 20
1.4111659867
 10
23.6814244571
 20
1.4351985494
 10
23.706040475
 20
1.4580158413
 10
23.7322461362
 20
1.479052298
 10
23.7601995536
 20
1.4983539416
 10
23.7897426143
 20
1.5159405195
 10
23.8203611327
 20
1.5312334981
 10
23.8520064916
 20
1.5441639149
 10
23.8847273084
 20
1.5548779498
 10
23.9181552498
 20
1.5631300489
 10
23.9521659994
 20
1.5689665051
 10
23.9868838736
 20
1.5723873555
 10
24.022313489
 20
1.5730718626
 10
24.0585916395
 20
1.5711114461
 10
24.0955815313
 20
1.5664098337
 10
24.1328773989
 20
1.5583466798
 10
24.17060709
 20
1.5468952378
 10
24.2086427569
 20
1.5319941743
 10
24.246195092
 20
1.5129335154
 10
24.283536576
 20
1.4892342517
 10
24.3203947282
 20
1.4611637967
 10
24.3551627986
 20
1.4291140918
 10
24.3874441333
 20
1.3930141636
 10
24.4176353862
 20
1.3527136343
 10
24.4453197693
 20
1.3085149561
 10
24.4704379862
 20
1.2602146772
 10
24.4930493334
 20
1.207850195
 10
24.5129149122
 20
1.1521444191
 10
24.52995509
 20
1.0933443844
 10
24.5442494996
 20
1.0311937638
 10
24.5557981408
 20
0.965717058
  0
LINE
  5
2F8
100
AcDbEntity
  8
RACCORDO
100
AcDbLine
 62
7
  6
CONTINUOUS
 10
26.0308799878
 20
-4.0056534497
 11
25.990645013
 21
-3.9251773713
  0
LINE
  5
2F9
100
AcDbEntity
  8
RACCORDO
100
AcDbLine
 62
7
  6
CONTINUOUS
 10
26.0308799878
 20
-2.8666728979
 11
26.0119573669
 21
-2.7530361885
  0
LWPOLYLINE
  5
2FA
100
AcDbEntity
  8
RACCORDO
100
AcDbPolyline
 62
7
  6
CONTINUOUS
 90
7
 70
0
 10
24.998728112
 20
2.1817292891
 10
24.9995146374
 20
2.1761997237
 10
25.0002606823
 20
2.1656415459
 10
25.000966247
 20
2.1500547557
 10
25.001641211
 20
2.129033366
 10
25.0022756946
 20
2.102983364
 10
25.0028400585
 20
2.0731227104
  0
LWPOLYLINE
  5
2FB
100
AcDbEntity
  8
0
100
AcDbPolyline
 62
7
  6
CONTINUOUS
 90
38
 70
0
 10
24.5557981408
 20
0.965717058
 10
24.5657797554
 20
0.8861336808
 10
24.5719134977
 20
0.8055732688
 10
24.5741993678
 20
0.7242346685
 10
24.5727745934
 20
0.6416941174
 10
24.5675019467
 20
0.5588042132
 10
24.557969745
 20
0.4776702404
 10
24.5441442233
 20
0.3982328889
 10
24.5260591466
 20
0.3209083861
 10
24.5034041269
 20
0.2483757217
 10
24.4757727202
 20
0.1806895079
 10
24.4435713705
 20
0.1177715807
 10
24.4077090226
 20
0.0618430282
 10
24.3679931875
 20
0.0132705728
 10
24.3246163541
 20
-0.0287590405
 10
24.2790649344
 20
-0.0639517042
 10
24.2314469255
 20
-0.0923125546
 10
24.1816543302
 20
-0.1142747038
 10
24.1308495689
 20
-0.1301675911
 10
24.0790535683
 20
-0.1402105681
 10
24.0262454016
 20
-0.1443874278
 10
23.9735247096
 20
-0.1426064747
 10
23.9206975837
 20
-0.1348417968
 10
23.8679579324
 20
-0.1210400978
 10
23.8169871219
 20
-0.1009954651
 10
23.7674984302
 20
-0.073754832
 10
23.7197785794
 20
-0.039897553
 10
23.6763691012
 20
-0.0015504994
 10
23.638137079
 20
0.0415782985
 10
23.6042154295
 20
0.0894786001
 10
23.5745444344
 20
0.1393515925
 10
23.5494706526
 20
0.1908212259
 10
23.5286475251
 20
0.2442390768
 10
23.5109756568
 20
0.297698375
 10
23.4964168826
 20
0.3509852687
 10
23.4850093676
 20
0.4041535248
 10
23.4757682106
 20
0.4556063117
 10
23.468647913
 20
0.5047021547
  0
LWPOLYLINE
  5
2FC
100
AcDbEntity
  8
RACCORDO
100
AcDbPolyline
 62
7
  6
CONTINUOUS
 90
5
 70
0
 10
25.988547737
 20
-3.8702261307
 10
25.9890489417
 20
-3.8932570555
 10
25.9895630126
 20
-3.9099395198
 10
25.9900950363
 20
-3.9205796251
 10
25.990645013
 20
-3.9251773713
  0
LINE
  5
2FD
100
AcDbEntity
  8
RACCORDO
100
AcDbLine
 62
253
  6
CONTINUOUS
 10
26.0734030046
 20
3.2511160429
 11
26.0738840739
 21
3.2251256028
  0
LINE
  5
2FE
100
AcDbEntity
  8
ASSI
100
AcDbLine
 62
253
  6
CONTINUOUS
 10
26.0734030046
 20
3.2511160429
 11
26.0738840739
 21
3.2251256028
  0
LINE
  5
2FF
100
AcDbEntity
  8
RACCORDO
100
AcDbLine
 62
253
  6
CONTINUOUS
 10
26.2231506475
 20
3.4048656091
 11
26.2236473623
 21
3.3746574081
  0
LINE
  5
300
100
AcDbEntity
  8
ASSI
100
AcDbLine
 62
253
  6
CONTINUOUS
 10
26.2231506475
 20
3.4048656091
 11
26.2236473623
 21
3.3746574081
  0
LINE
  5
301
100
AcDbEntity
  8
RACCORDO
100
AcDbLine
 62
7
  6
CONTINUOUS
 10
26.0498149644
 20
2.0525704761
 11
26.0506014344
 21
2.0000016637
  0
LINE
  5
302
100
AcDbEntity
  8
ASSI
100
AcDbLine
 62
7
  6
CONTINUOUS
 10
26.0498149644
 20
2.0525704761
 11
26.0506014344
 21
2.0000016637
  0
LINE
  5
303
100
AcDbEntity
  8
RACCORDO
100
AcDbLine
 62
7
  6
CONTINUOUS
 10
25.9876144467
 20
-3.8069555085
 11
25.988547737
 21
-3.8702261307
  0
LINE
  5
304
100
AcDbEntity
  8
RACCORDO
100
AcDbLine
 62
7
  6
CONTINUOUS
 10
26.0108384458
 20
-2.7213648855
 11
26.0101837792
 21
-2.6742968597
  0
LINE
  5
305
100
AcDbEntity
  8
RACCORDO
100
AcDbLine
 62
253
  6
CONTINUOUS
 10
26.0738840739
 20
3.2251256028
 11
26.0745137213
 21
3.1692226748
  0
LINE
  5
306
100
AcDbEntity
  8
ASSI
100
AcDbLine
 62
253
  6
CONTINUOUS
 10
26.0738840739
 20
3.2251256028
 11
26.0745137213
 21
3.1692226748
  0
LINE
  5
307
100
AcDbEntity
  8
RACCORDO
100
AcDbLine
 62
253
  6
CONTINUOUS
 10
26.2236473623
 20
3.3746574081
 11
26.2243136391
 21
3.3042855805
  0
LINE
  5
308
100
AcDbEntity
  8
ASSI
100
AcDbLine
 62
253
  6
CONTINUOUS
 10
26.2236473623
 20
3.3746574081
 11
26.2243136391
 21
3.3042855805
  0
LINE
  5
309
100
AcDbEntity
  8
RACCORDO
100
AcDbLine
 62
7
  6
CONTINUOUS
 10
25.9864788706
 20
-3.674537472
 11
25.9876144467
 21
-3.8069555085
  0
LINE
  5
30A
100
AcDbEntity
  8
RACCORDO
100
AcDbLine
 62
7
  6
CONTINUOUS
 10
26.0506014344
 20
2.0000016637
 11
26.051558516
 21
1.8894564582
  0
LINE
  5
30B
100
AcDbEntity
  8
ASSI
100
AcDbLine
 62
7
  6
CONTINUOUS
 10
26.0506014344
 20
2.0000016637
 11
26.051558516
 21
1.8894564582
  0
LINE
  5
30C
100
AcDbEntity
  8
RACCORDO
100
AcDbLine
 62
7
  6
CONTINUOUS
 10
26.0101837792
 20
-2.6742968597
 11
26.0094457702
 21
-2.5729230068
  0
LINE
  5
30D
100
AcDbEntity
  8
RACCORDO
100
AcDbLine
 62
253
  6
CONTINUOUS
 10
26.0745137213
 20
3.1692226748
 11
26.0752177943
 21
3.0413153348
  0
LINE
  5
30E
100
AcDbEntity
  8
ASSI
100
AcDbLine
 62
253
  6
CONTINUOUS
 10
26.0745137213
 20
3.1692226748
 11
26.0752177943
 21
3.0413153348
  0
LINE
  5
30F
100
AcDbEntity
  8
RACCORDO
100
AcDbLine
 62
253
  6
CONTINUOUS
 10
26.2243136391
 20
3.3042855805
 11
26.2252105726
 21
3.0929560549
  0
LINE
  5
310
100
AcDbEntity
  8
ASSI
100
AcDbLine
 62
253
  6
CONTINUOUS
 10
26.2243136391
 20
3.3042855805
 11
26.2252105726
 21
3.0929560549
  0
LINE
  5
311
100
AcDbEntity
  8
DRAFT
100
AcDbLine
 62
7
  6
CONTINUOUS
 10
26.0471152396
 20
-0.9317777532
 11
26.0443979025
 21
-0.2856534497
  0
LINE
  5
312
100
AcDbEntity
  8
ASSI
100
AcDbLine
 62
7
  6
CONTINUOUS
 10
26.0471152396
 20
-0.9317777532
 11
26.0443979025
 21
-0.2856534497
  0
LINE
  5
313
100
AcDbEntity
  8
RACCORDO
100
AcDbLine
 62
7
  6
CONTINUOUS
 10
25.9855307902
 20
-3.3883575238
 11
25.9864788706
 21
-3.674537472
  0
LINE
  5
314
100
AcDbEntity
  8
RACCORDO
100
AcDbLine
 62
7
  6
CONTINUOUS
 10
26.051558516
 20
1.8894564582
 11
26.052357436
 21
1.6500003616
  0
LINE
  5
315
100
AcDbEntity
  8
ASSI
100
AcDbLine
 62
7
  6
CONTINUOUS
 10
26.051558516
 20
1.8894564582
 11
26.052357436
 21
1.6500003616
  0
LINE
  5
316
100
AcDbEntity
  8
RACCORDO
100
AcDbLine
 62
253
  6
CONTINUOUS
 10
26.0752177943
 20
3.0413153348
 11
26.0753984368
 21
2.9228748891
  0
LINE
  5
317
100
AcDbEntity
  8
ASSI
100
AcDbLine
 62
253
  6
CONTINUOUS
 10
26.0752177943
 20
3.0413153348
 11
26.0753984368
 21
2.9228748891
  0
LINE
  5
318
100
AcDbEntity
  8
RACCORDO
100
AcDbLine
 62
7
  6
CONTINUOUS
 10
26.0094457702
 20
-2.5729230068
 11
26.0090628183
 21
1.8322089519
  0
LINE
  5
319
100
AcDbEntity
  8
DRAFT
100
AcDbLine
 62
7
  6
CONTINUOUS
 10
26.0308799878
 20
3.4343465503
 11
26.0308799878
 21
2.7643465503
  0
LINE
  5
31A
100
AcDbEntity
  8
DRAFT
100
AcDbLine
 62
7
  6
CONTINUOUS
 10
26.0308799878
 20
-3.3356534497
 11
26.0308799878
 21
-4.0056534497
  0
LINE
  5
31B
100
AcDbEntity
  8
RACCORDO
100
AcDbLine
 62
7
  6
CONTINUOUS
 10
26.0308799878
 20
-3.8856591613
 11
26.0308799878
 21
-3.2356534497
  0
LINE
  5
31C
100
AcDbEntity
  8
DRAFT
100
AcDbLine
 62
7
  6
CONTINUOUS
 10
26.0308799878
 20
-3.2356534497
 11
26.0308799878
 21
-2.6856534497
  0
LINE
  5
31D
100
AcDbEntity
  8
ASSI
100
AcDbLine
 62
7
  6
CONTINUOUS
 10
26.0308799878
 20
-3.8856591613
 11
26.0308799878
 21
-2.6856534497
  0
LINE
  5
31E
100
AcDbEntity
  8
DRAFT
100
AcDbLine
 62
7
  6
CONTINUOUS
 10
26.0308799878
 20
2.1143465503
 11
26.0308799878
 21
2.6643465503
  0
LINE
  5
31F
100
AcDbEntity
  8
RACCORDO
100
AcDbLine
 62
7
  6
CONTINUOUS
 10
26.0308799878
 20
2.6643465503
 11
26.0308799878
 21
3.3143522618
  0
LINE
  5
320
100
AcDbEntity
  8
ASSI
100
AcDbLine
 62
7
  6
CONTINUOUS
 10
26.0308799878
 20
2.1143465503
 11
26.0308799878
 21
3.3143522618
  0
LINE
  5
321
100
AcDbEntity
  8
RACCORDO
100
AcDbLine
 62
7
  6
CONTINUOUS
 10
26.052383132
 20
1.4311735168
 11
26.052357436
 21
1.6500003616
  0
LINE
  5
322
100
AcDbEntity
  8
ASSI
100
AcDbLine
 62
7
  6
CONTINUOUS
 10
26.052383132
 20
1.4311735168
 11
26.052357436
 21
1.6500003616
  0
LINE
  5
323
100
AcDbEntity
  8
RACCORDO
100
AcDbLine
 62
7
  6
CONTINUOUS
 10
26.0753984368
 20
2.9228748891
 11
26.0753984368
 21
-3.4941817885
  0
LINE
  5
324
100
AcDbEntity
  8
ASSI
100
AcDbLine
 62
7
  6
CONTINUOUS
 10
26.0753984368
 20
2.9228748891
 11
26.0753984368
 21
-3.4941817885
  0
LINE
  5
325
100
AcDbEntity
  8
RACCORDO
100
AcDbLine
 62
253
  6
CONTINUOUS
 10
26.2252105726
 20
3.0929560549
 11
26.2253927253
 21
-3.4940685706
  0
LINE
  5
326
100
AcDbEntity
  8
ASSI
100
AcDbLine
 62
253
  6
CONTINUOUS
 10
26.2252105726
 20
3.0929560549
 11
26.2253927253
 21
-3.4940685706
  0
LINE
  5
327
100
AcDbEntity
  8
DRAFT
100
AcDbLine
 62
7
  6
CONTINUOUS
 10
26.8273889748
 20
2.6678375633
 11
26.8273889748
 21
-3.2391444627
  0
LINE
  5
328
100
AcDbEntity
  8
ASSI
100
AcDbLine
 62
7
  6
CONTINUOUS
 10
26.8273889748
 20
2.6678375633
 11
26.8273889748
 21
-3.2391444627
  0
LINE
  5
329
100
AcDbEntity
  8
DRAFT
100
AcDbLine
 62
7
  6
CONTINUOUS
 10
26.8308799878
 20
2.6643465503
 11
26.8308799878
 21
-3.2356534497
  0
LINE
  5
32A
100
AcDbEntity
  8
ASSI
100
AcDbLine
 62
7
  6
CONTINUOUS
 10
26.8308799878
 20
2.6643465503
 11
26.8308799878
 21
-3.2356534497
  0
LINE
  5
32B
100
AcDbEntity
  8
DRAFT
100
AcDbLine
 62
7
  6
CONTINUOUS
 10
26.0474240288
 20
0.5996059311
 11
26.0460362154
 21
1.4184787169
  0
LINE
  5
32C
100
AcDbEntity
  8
ASSI
100
AcDbLine
 62
7
  6
CONTINUOUS
 10
26.0474240288
 20
0.5996059311
 11
26.0460362154
 21
1.4184787169
  0
LINE
  5
32D
100
AcDbEntity
  8
DRAFT
100
AcDbLine
 62
7
  6
CONTINUOUS
 10
26.0468192247
 20
-1.7649192568
 11
26.0471152396
 21
-0.9317777532
  0
LINE
  5
32E
100
AcDbEntity
  8
ASSI
100
AcDbLine
 62
7
  6
CONTINUOUS
 10
26.0468192247
 20
-1.7649192568
 11
26.0471152396
 21
-0.9317777532
  0
LINE
  5
32F
100
AcDbEntity
  8
RACCORDO
100
AcDbLine
 62
7
  6
CONTINUOUS
 10
25.985943118
 20
2.9951994774
 11
25.9855307902
 21
-3.3883575238
  0
LINE
  5
330
100
AcDbEntity
  8
RACCORDO
100
AcDbLine
 62
7
  6
CONTINUOUS
 10
26.052383132
 20
-2.0024804163
 11
26.0520099998
 21
-2.3704055592
  0
LINE
  5
331
100
AcDbEntity
  8
ASSI
100
AcDbLine
 62
7
  6
CONTINUOUS
 10
26.052383132
 20
-2.0024804163
 11
26.0520099998
 21
-2.3704055592
  0
LINE
  5
332
100
AcDbEntity
  8
DRAFT
100
AcDbLine
 62
7
  6
CONTINUOUS
 10
26.0460362154
 20
-1.9897856164
 11
26.0468192247
 21
-1.7649192568
  0
LINE
  5
333
100
AcDbEntity
  8
ASSI
100
AcDbLine
 62
7
  6
CONTINUOUS
 10
26.0460362154
 20
-1.9897856164
 11
26.0468192247
 21
-1.7649192568
  0
LINE
  5
334
100
AcDbEntity
  8
RACCORDO
100
AcDbLine
 62
253
  6
CONTINUOUS
 10
26.2253928148
 20
-3.4940685706
 11
26.2248462177
 21
-3.7796313131
  0
LINE
  5
335
100
AcDbEntity
  8
ASSI
100
AcDbLine
 62
253
  6
CONTINUOUS
 10
26.2253928148
 20
-3.4940685706
 11
26.2248462177
 21
-3.7796313131
  0
LINE
  5
336
100
AcDbEntity
  8
RACCORDO
100
AcDbLine
 62
7
  6
CONTINUOUS
 10
26.0090628183
 20
1.8322089519
 11
26.0094457702
 21
2.0016161073
  0
LINE
  5
337
100
AcDbEntity
  8
RACCORDO
100
AcDbLine
 62
253
  6
CONTINUOUS
 10
26.0753984368
 20
-3.4941817885
 11
26.074995081
 21
-3.6680044671
  0
LINE
  5
338
100
AcDbEntity
  8
ASSI
100
AcDbLine
 62
253
  6
CONTINUOUS
 10
26.0753984368
 20
-3.4941817885
 11
26.074995081
 21
-3.6680044671
  0
LINE
  5
339
100
AcDbEntity
  8
DRAFT
100
AcDbLine
 62
7
  6
CONTINUOUS
 10
26.0455893263
 20
-0.0857082387
 11
26.0474240288
 21
0.5996059311
  0
LINE
  5
33A
100
AcDbEntity
  8
ASSI
100
AcDbLine
 62
7
  6
CONTINUOUS
 10
26.0455893263
 20
-0.0857082387
 11
26.0474240288
 21
0.5996059311
  0
LINE
  5
33B
100
AcDbEntity
  8
DRAFT
100
AcDbLine
 62
7
  6
CONTINUOUS
 10
26.0443979025
 20
-0.2856534497
 11
26.0455893263
 21
-0.0857082387
  0
LINE
  5
33C
100
AcDbEntity
  8
ASSI
100
AcDbLine
 62
7
  6
CONTINUOUS
 10
26.0443979025
 20
-0.2856534497
 11
26.0455893263
 21
-0.0857082387
  0
LINE
  5
33D
100
AcDbEntity
  8
RACCORDO
100
AcDbLine
 62
253
  6
CONTINUOUS
 10
26.2248462177
 20
-3.7796313131
 11
26.2241025381
 21
-3.9022519977
  0
LINE
  5
33E
100
AcDbEntity
  8
ASSI
100
AcDbLine
 62
253
  6
CONTINUOUS
 10
26.2248462177
 20
-3.7796313131
 11
26.2241025381
 21
-3.9022519977
  0
LINE
  5
33F
100
AcDbEntity
  8
RACCORDO
100
AcDbLine
 62
7
  6
CONTINUOUS
 10
25.9871986819
 20
3.1961637129
 11
25.985943118
 21
2.9951994774
  0
LINE
  5
340
100
AcDbEntity
  8
RACCORDO
100
AcDbLine
 62
7
  6
CONTINUOUS
 10
26.0520099998
 20
-2.3704055592
 11
26.0509518215
 21
-2.5383909779
  0
LINE
  5
341
100
AcDbEntity
  8
ASSI
100
AcDbLine
 62
7
  6
CONTINUOUS
 10
26.0520099998
 20
-2.3704055592
 11
26.0509518215
 21
-2.5383909779
  0
LINE
  5
342
100
AcDbEntity
  8
RACCORDO
100
AcDbLine
 62
7
  6
CONTINUOUS
 10
26.0094457702
 20
2.0016161073
 11
26.0101837792
 21
2.1029899602
  0
LINE
  5
343
100
AcDbEntity
  8
RACCORDO
100
AcDbLine
 62
253
  6
CONTINUOUS
 10
26.074995081
 20
-3.6680044671
 11
26.0743179841
 21
-3.7612260017
  0
LINE
  5
344
100
AcDbEntity
  8
ASSI
100
AcDbLine
 62
253
  6
CONTINUOUS
 10
26.074995081
 20
-3.6680044671
 11
26.0743179841
 21
-3.7612260017
  0
LINE
  5
345
100
AcDbEntity
  8
RACCORDO
100
AcDbLine
 62
253
  6
CONTINUOUS
 10
26.2241025381
 20
-3.9022519977
 11
26.2236467825
 21
-3.9460091447
  0
LINE
  5
346
100
AcDbEntity
  8
ASSI
100
AcDbLine
 62
253
  6
CONTINUOUS
 10
26.2241025381
 20
-3.9022519977
 11
26.2236467825
 21
-3.9460091447
  0
LWPOLYLINE
  5
347
100
AcDbEntity
  8
RACCORDO
100
AcDbPolyline
 62
7
  6
CONTINUOUS
 90
7
 70
0
 10
26.0509518215
 20
-2.5383909779
 10
26.0502221754
 20
-2.5997576149
 10
26.0498149672
 20
-2.6238772473
 10
26.0493928247
 20
-2.6428876366
 10
26.0489600859
 20
-2.6565288782
 10
26.0485124129
 20
-2.6650608766
 10
26.0480498057
 20
-2.6684836318
  0
LWPOLYLINE
  5
348
100
AcDbEntity
  8
ASSI
100
AcDbPolyline
 62
7
  6
CONTINUOUS
 90
7
 70
0
 10
26.0509518215
 20
-2.5383909779
 10
26.0502221754
 20
-2.5997576149
 10
26.0498149672
 20
-2.6238772473
 10
26.0493928247
 20
-2.6428876366
 10
26.0489600859
 20
-2.6565288782
 10
26.0485124129
 20
-2.6650608766
 10
26.0480498057
 20
-2.6684836318
  0
LINE
  5
349
100
AcDbEntity
  8
RACCORDO
100
AcDbLine
 62
253
  6
CONTINUOUS
 10
26.0743179841
 20
-3.7612260017
 11
26.0738834919
 21
-3.7964714319
  0
LINE
  5
34A
100
AcDbEntity
  8
ASSI
100
AcDbLine
 62
253
  6
CONTINUOUS
 10
26.0743179841
 20
-3.7612260017
 11
26.0738834919
 21
-3.7964714319
  0
LWPOLYLINE
  5
34B
100
AcDbEntity
  8
RACCORDO
100
AcDbPolyline
 62
7
  6
CONTINUOUS
 90
5
 70
0
 10
26.0101837792
 20
2.1029899602
 10
26.0108384458
 20
2.1500579861
 10
26.0111911873
 20
2.1656435554
 10
26.011564161
 20
2.1762006564
 10
26.0119573669
 20
2.1817292891
  0
LWPOLYLINE
  5
34C
100
AcDbEntity
  8
RACCORDO
100
AcDbPolyline
 62
253
  6
CONTINUOUS
 90
5
 70
0
 10
26.2236467825
 20
-3.9460091447
 10
26.223150134
 20
-3.9761956748
 10
26.222894498
 20
-3.9858994547
 10
26.2226327786
 20
-3.9919035867
 10
26.2223649759
 20
-3.9941627501
  0
LWPOLYLINE
  5
34D
100
AcDbEntity
  8
ASSI
100
AcDbPolyline
 62
253
  6
CONTINUOUS
 90
5
 70
0
 10
26.2236467825
 20
-3.9460091447
 10
26.223150134
 20
-3.9761956748
 10
26.222894498
 20
-3.9858994547
 10
26.2226327786
 20
-3.9919035867
 10
26.2223649759
 20
-3.9941627501
  0
LWPOLYLINE
  5
34E
100
AcDbEntity
  8
RACCORDO
100
AcDbPolyline
 62
253
  6
CONTINUOUS
 90
6
 70
0
 10
26.0738834919
 20
-3.7964714319
 10
26.0734024428
 20
-3.8224455058
 10
26.0731509052
 20
-3.8317487378
 10
26.0728961249
 20
-3.8384283771
 10
26.0726360524
 20
-3.842568285
 10
26.0723706874
 20
-3.8441684616
  0
LWPOLYLINE
  5
34F
100
AcDbEntity
  8
ASSI
100
AcDbPolyline
 62
253
  6
CONTINUOUS
 90
6
 70
0
 10
26.0738834919
 20
-3.7964714319
 10
26.0734024428
 20
-3.8224455058
 10
26.0731509052
 20
-3.8317487378
 10
26.0728961249
 20
-3.8384283771
 10
26.0726360524
 20
-3.842568285
 10
26.0723706874
 20
-3.8441684616
  0
LWPOLYLINE
  5
350
100
AcDbEntity
  8
RACCORDO
100
AcDbPolyline
 62
253
  6
CONTINUOUS
 90
8
 70
0
 10
24.8381462352
 20
-2.4689531463
 10
24.8386996526
 20
-2.4669369077
 10
24.8392359206
 20
-2.4618402787
 10
24.839755039
 20
-2.4536632594
 10
24.8402625199
 20
-2.4422487054
 10
24.8407528513
 20
-2.4277537611
 10
24.8412094972
 20
-2.4106498593
 10
24.8420189517
 20
-2.3684479646
  0
LWPOLYLINE
  5
351
100
AcDbEntity
  8
ASSI
100
AcDbPolyline
 62
253
  6
CONTINUOUS
 90
8
 70
0
 10
24.8381462352
 20
-2.4689531463
 10
24.8386996526
 20
-2.4669369077
 10
24.8392359206
 20
-2.4618402787
 10
24.839755039
 20
-2.4536632594
 10
24.8402625199
 20
-2.4422487054
 10
24.8407528513
 20
-2.4277537611
 10
24.8412094972
 20
-2.4106498593
 10
24.8420189517
 20
-2.3684479646
  0
LINE
  5
352
100
AcDbEntity
  8
RACCORDO
100
AcDbLine
 62
7
  6
CONTINUOUS
 10
24.998728112
 20
-2.7530361885
 11
24.9608799878
 21
-2.8666728979
  0
LINE
  5
353
100
AcDbEntity
  8
DRAFT
100
AcDbLine
 62
7
  6
CONTINUOUS
 10
26.052383132
 20
1.4311735168
 11
26.0460362154
 21
1.4184787169
  0
LINE
  5
354
100
AcDbEntity
  8
ASSI
100
AcDbLine
 62
7
  6
CONTINUOUS
 10
26.052383132
 20
1.4311735168
 11
26.0460362154
 21
1.4184787169
  0
LWPOLYLINE
  5
355
100
AcDbEntity
  8
0
100
AcDbPolyline
 62
7
  6
CONTINUOUS
 90
40
 70
0
 10
23.5992951188
 20
-0.6677919092
 10
23.6180694031
 20
-0.6391935762
 10
23.6385978011
 20
-0.611976909
 10
23.6608803128
 20
-0.5861224517
 10
23.6849349162
 20
-0.5613887551
 10
23.7107436333
 20
-0.537979007
 10
23.7382525303
 20
-0.5165226006
 10
23.7676514798
 20
-0.4969706192
 10
23.7987506092
 20
-0.4792970142
 10
23.8309263667
 20
-0.4641358808
 10
23.8640973562
 20
-0.4515729628
 10
23.8983449739
 20
-0.4414377697
 10
23.9332898555
 20
-0.4339703702
 10
23.9688301764
 20
-0.4291106303
 10
24.0050677613
 20
-0.4268743036
 10
24.0419287205
 20
-0.4276241176
 10
24.0795295125
 20
-0.4312642494
 10
24.1177536788
 20
-0.4379087161
 10
24.1561779541
 20
-0.4482586752
 10
24.1950216849
 20
-0.4624196961
 10
24.2340655247
 20
-0.4804062164
 10
24.272228169
 20
-0.5028252938
 10
24.3096532941
 20
-0.5301816888
 10
24.3461972237
 20
-0.5622184737
 10
24.380347624
 20
-0.59840944
 10
24.4117131481
 20
-0.6388048557
 10
24.4406851429
 20
-0.6835833337
 10
24.466925315
 20
-0.7323662838
 10
24.4903939755
 20
-0.785467193
 10
24.5111308133
 20
-0.8427175804
 10
24.5289166016
 20
-0.9029320967
 10
24.5436509749
 20
-0.9658482818
 10
24.5554342986
 20
-1.0316666962
 10
24.5643484429
 20
-1.0998129
 10
24.5705306405
 20
-1.1702545678
 10
24.5738436586
 20
-1.2428178768
 10
24.573957668
 20
-1.3166679905
 10
24.5707627255
 20
-1.3914159791
 10
24.5643687742
 20
-1.4671237322
 10
24.5547758142
 20
-1.5436049761
  0
LINE
  5
356
100
AcDbEntity
  8
RACCORDO
100
AcDbLine
 62
7
  6
CONTINUOUS
 10
24.8350121544
 20
1.4184787169
 11
24.8433490037
 21
1.4268155662
  0
LINE
  5
357
100
AcDbEntity
  8
ASSI
100
AcDbLine
 62
7
  6
CONTINUOUS
 10
24.8350121544
 20
1.4184787169
 11
24.8433490037
 21
1.4268155662
  0
LINE
  5
358
100
AcDbEntity
  8
RACCORDO
100
AcDbLine
 62
7
  6
CONTINUOUS
 10
24.8433490037
 20
-1.9981224657
 11
24.8350121544
 21
-1.9897856164
  0
LINE
  5
359
100
AcDbEntity
  8
ASSI
100
AcDbLine
 62
7
  6
CONTINUOUS
 10
24.8433490037
 20
-1.9981224657
 11
24.8350121544
 21
-1.9897856164
  0
LINE
  5
35A
100
AcDbEntity
  8
DRAFT
100
AcDbLine
 62
7
  6
CONTINUOUS
 10
26.0460362154
 20
-1.9897856164
 11
26.052383132
 21
-2.0024804163
  0
LINE
  5
35B
100
AcDbEntity
  8
ASSI
100
AcDbLine
 62
7
  6
CONTINUOUS
 10
26.0460362154
 20
-1.9897856164
 11
26.052383132
 21
-2.0024804163
  0
LINE
  5
35C
100
AcDbEntity
  8
RACCORDO
100
AcDbLine
 62
7
  6
CONTINUOUS
 10
24.998728112
 20
2.1817292891
 11
24.9608799878
 21
2.2953659985
  0
LWPOLYLINE
  5
35D
100
AcDbEntity
  8
RACCORDO
100
AcDbPolyline
 62
253
  6
CONTINUOUS
 90
5
 70
0
 10
26.0723706874
 20
3.2728615621
 10
26.0726362667
 20
3.271256979
 10
26.0728965066
 20
3.2671118318
 10
26.0731514074
 20
3.2604261206
 10
26.0734030046
 20
3.2511160429
  0
LWPOLYLINE
  5
35E
100
AcDbEntity
  8
ASSI
100
AcDbPolyline
 62
253
  6
CONTINUOUS
 90
5
 70
0
 10
26.0723706874
 20
3.2728615621
 10
26.0726362667
 20
3.271256979
 10
26.0728965066
 20
3.2671118318
 10
26.0731514074
 20
3.2604261206
 10
26.0734030046
 20
3.2511160429
  0
LWPOLYLINE
  5
35F
100
AcDbEntity
  8
RACCORDO
100
AcDbPolyline
 62
7
  6
CONTINUOUS
 90
5
 70
0
 10
26.0480498057
 20
2.0971767323
 10
26.0485124115
 20
2.0937540263
 10
26.0489600835
 20
2.0852220648
 10
26.0493928218
 20
2.0715808478
 10
26.0498149644
 20
2.0525704761
  0
LWPOLYLINE
  5
360
100
AcDbEntity
  8
ASSI
100
AcDbPolyline
 62
7
  6
CONTINUOUS
 90
5
 70
0
 10
26.0480498057
 20
2.0971767323
 10
26.0485124115
 20
2.0937540263
 10
26.0489600835
 20
2.0852220648
 10
26.0493928218
 20
2.0715808478
 10
26.0498149644
 20
2.0525704761
  0
LWPOLYLINE
  5
361
100
AcDbEntity
  8
RACCORDO
100
AcDbPolyline
 62
253
  6
CONTINUOUS
 90
4
 70
0
 10
26.2223649759
 20
3.4228558506
 10
26.222632999
 20
3.4205932444
 10
26.2228948895
 20
3.4145807447
 10
26.2231506475
 20
3.4048656091
  0
LWPOLYLINE
  5
362
100
AcDbEntity
  8
ASSI
100
AcDbPolyline
 62
253
  6
CONTINUOUS
 90
4
 70
0
 10
26.2223649759
 20
3.4228558506
 10
26.222632999
 20
3.4205932444
 10
26.2228948895
 20
3.4145807447
 10
26.2231506475
 20
3.4048656091
  0
LINE
  5
363
100
AcDbEntity
  8
CURVE
100
AcDbLine
 62
253
  6
CONTINUOUS
 10
27.9308800057
 20
-1.2856534497
 11
27.9308800057
 21
0.1143465503
  0
LINE
  5
364
100
AcDbEntity
  8
SCRITTE
100
AcDbLine
 62
253
  6
CONTINUOUS
 10
28.5308799878
 20
3.457365056
 11
28.5308799878
 21
3.4451474411
  0
LINE
  5
365
100
AcDbEntity
  8
CURVE
100
AcDbLine
 62
253
  6
CONTINUOUS
 10
28.7308799997
 20
-1.2856534497
 11
28.7308799997
 21
0.1143465503
  0
LINE
  5
366
100
AcDbEntity
  8
0
100
AcDbLine
 62
7
  6
CONTINUOUS
 10
28.8831139878
 20
2.1319085503
 11
28.5491919878
 21
0.9618405503
  0
LINE
  5
367
100
AcDbEntity
  8
ASSI
100
AcDbLine
 62
7
  6
CONTINUOUS
 10
28.8831139878
 20
2.1319085503
 11
28.5491919878
 21
0.9618405503
  0
LINE
  5
368
100
AcDbEntity
  8
0
100
AcDbLine
 62
7
  6
CONTINUOUS
 10
28.6912959878
 20
0.4320455503
 11
29.2376999878
 21
2.1319085503
  0
LINE
  5
369
100
AcDbEntity
  8
ASSI
100
AcDbLine
 62
7
  6
CONTINUOUS
 10
28.6912959878
 20
0.4320455503
 11
29.2376999878
 21
2.1319085503
  0
LINE
  5
36A
100
AcDbEntity
  8
RACCORDO
100
AcDbLine
 62
7
  6
CONTINUOUS
 10
23.0399358863
 20
-2.6765975512
 11
23.0308799878
 21
-2.6856534497
  0
LINE
  5
36B
100
AcDbEntity
  8
ASSI
100
AcDbLine
 62
7
  6
CONTINUOUS
 10
23.0399358863
 20
-2.6765975512
 11
23.0308799878
 21
-2.6856534497
  0
LWPOLYLINE
  5
36C
100
AcDbEntity
  8
RACCORDO
100
AcDbPolyline
 62
7
  6
CONTINUOUS
 90
6
 70
0
 10
24.920955757
 20
-2.6467411261
 10
24.9362747474
 20
-2.6553018566
 10
24.9522564624
 20
-2.6625764096
 10
24.9689009019
 20
-2.668448281
 10
24.9862080661
 20
-2.6728078398
 10
25.0022520772
 20
-2.6752599244
  0
LWPOLYLINE
  5
36D
100
AcDbEntity
  8
ASSI
100
AcDbPolyline
 62
7
  6
CONTINUOUS
 90
6
 70
0
 10
24.920955757
 20
-2.6467411261
 10
24.9362747474
 20
-2.6553018566
 10
24.9522564624
 20
-2.6625764096
 10
24.9689009019
 20
-2.668448281
 10
24.9862080661
 20
-2.6728078398
 10
25.0022520772
 20
-2.6752599244
  0
LWPOLYLINE
  5
36E
100
AcDbEntity
  8
RACCORDO
100
AcDbPolyline
 62
7
  6
CONTINUOUS
 90
16
 70
0
 10
24.920955757
 20
-2.6467411261
 10
24.9104893321
 20
-2.6397048455
 10
24.9004929674
 20
-2.6319955993
 10
24.8910085771
 20
-2.6236434027
 10
24.8821054795
 20
-2.6147098466
 10
24.8737883333
 20
-2.6052046914
 10
24.8660162062
 20
-2.5950681887
 10
24.8588563993
 20
-2.5843508178
 10
24.8523421258
 20
-2.5730601922
 10
24.8464327727
 20
-2.5610418274
 10
24.841211022
 20
-2.5483029994
 10
24.8367736779
 20
-2.5348892462
 10
24.833171405
 20
-2.5206848431
 10
24.8305211056
 20
-2.5056820134
 10
24.8289681692
 20
-2.4899952662
 10
24.8286404296
 20
-2.4737056872
  0
LWPOLYLINE
  5
36F
100
AcDbEntity
  8
ASSI
100
AcDbPolyline
 62
7
  6
CONTINUOUS
 90
16
 70
0
 10
24.920955757
 20
-2.6467411261
 10
24.9104893321
 20
-2.6397048455
 10
24.9004929674
 20
-2.6319955993
 10
24.8910085771
 20
-2.6236434027
 10
24.8821054795
 20
-2.6147098466
 10
24.8737883333
 20
-2.6052046914
 10
24.8660162062
 20
-2.5950681887
 10
24.8588563993
 20
-2.5843508178
 10
24.8523421258
 20
-2.5730601922
 10
24.8464327727
 20
-2.5610418274
 10
24.841211022
 20
-2.5483029994
 10
24.8367736779
 20
-2.5348892462
 10
24.833171405
 20
-2.5206848431
 10
24.8305211056
 20
-2.5056820134
 10
24.8289681692
 20
-2.4899952662
 10
24.8286404296
 20
-2.4737056872
  0
LINE
  5
370
100
AcDbEntity
  8
RACCORDO
100
AcDbLine
 62
7
  6
CONTINUOUS
 10
23.0399358863
 20
2.1052906517
 11
23.0308799878
 21
2.1143465503
  0
LINE
  5
371
100
AcDbEntity
  8
ASSI
100
AcDbLine
 62
7
  6
CONTINUOUS
 10
23.0399358863
 20
2.1052906517
 11
23.0308799878
 21
2.1143465503
  0
LINE
  5
372
100
AcDbEntity
  8
SCRITTE
100
AcDbLine
 62
253
  6
CONTINUOUS
 10
28.3308800235
 20
-2.9856534497
 11
27.5308799878
 21
-1.5856534497
  0
LINE
  5
373
100
AcDbEntity
  8
SCRITTE
100
AcDbLine
 62
253
  6
CONTINUOUS
 10
29.5308800355
 20
-2.9856534497
 11
28.7308799997
 21
-1.5856534497
  0
LINE
  5
374
100
AcDbEntity
  8
0
100
AcDbLine
 62
7
  6
CONTINUOUS
 10
27.8397139878
 20
2.1319085503
 11
28.3786039878
 21
0.4320455503
  0
LINE
  5
375
100
AcDbEntity
  8
ASSI
100
AcDbLine
 62
7
  6
CONTINUOUS
 10
27.8397139878
 20
2.1319085503
 11
28.3786039878
 21
0.4320455503
  0
LINE
  5
376
100
AcDbEntity
  8
CURVE
100
AcDbLine
 62
253
  6
CONTINUOUS
 10
29.1308800593
 20
-0.2856534259
 11
29.1308800593
 21
-0.8856534318
  0
LINE
  5
377
100
AcDbEntity
  8
SCRITTE
100
AcDbLine
 62
253
  6
CONTINUOUS
 10
29.3308800235
 20
3.4451474411
 11
29.3308800235
 21
3.457365056
  0
LINE
  5
378
100
AcDbEntity
  8
0
100
AcDbLine
 62
7
  6
CONTINUOUS
 10
29.3693779878
 20
2.1320105503
 11
29.3693779878
 21
0.4320455503
  0
LINE
  5
379
100
AcDbEntity
  8
ASSI
100
AcDbLine
 62
7
  6
CONTINUOUS
 10
29.3693779878
 20
2.1320105503
 11
29.3693779878
 21
0.4320455503
  0
LINE
  5
37A
100
AcDbEntity
  8
0
100
AcDbLine
 62
7
  6
CONTINUOUS
 10
29.7242059878
 20
0.4320455503
 11
29.7242059878
 21
2.1320105503
  0
LINE
  5
37B
100
AcDbEntity
  8
ASSI
100
AcDbLine
 62
7
  6
CONTINUOUS
 10
29.7242059878
 20
0.4320455503
 11
29.7242059878
 21
2.1320105503
  0
LINE
  5
37C
100
AcDbEntity
  8
CURVE
100
AcDbLine
 62
253
  6
CONTINUOUS
 10
29.8308800593
 20
-0.8856534318
 11
29.8308800593
 21
-0.2856534259
  0
LINE
  5
37D
100
AcDbEntity
  8
SCRITTE
100
AcDbLine
 62
253
  6
CONTINUOUS
 10
30.3308799878
 20
-2.9856534497
 11
30.3308799878
 21
-2.185653414
  0
LINE
  5
37E
100
AcDbEntity
  8
0
100
AcDbLine
 62
7
  6
CONTINUOUS
 10
30.2546759878
 20
0.4320455503
 11
30.3312479878
 21
1.5420245503
  0
LINE
  5
37F
100
AcDbEntity
  8
ASSI
100
AcDbLine
 62
7
  6
CONTINUOUS
 10
30.2546759878
 20
0.4320455503
 11
30.3312479878
 21
1.5420245503
  0
LINE
  5
380
100
AcDbEntity
  8
0
100
AcDbLine
 62
7
  6
CONTINUOUS
 10
30.0687079878
 20
2.1319085503
 11
29.9152209878
 21
0.4320455503
  0
LINE
  5
381
100
AcDbEntity
  8
ASSI
100
AcDbLine
 62
7
  6
CONTINUOUS
 10
30.0687079878
 20
2.1319085503
 11
29.9152209878
 21
0.4320455503
  0
LINE
  5
382
100
AcDbEntity
  8
CURVE
100
AcDbLine
 62
253
  6
CONTINUOUS
 10
29.2308800116
 20
-0.0856534378
 11
29.1308800593
 21
-0.2856534259
  0
LINE
  5
383
100
AcDbEntity
  8
SCRITTE
100
AcDbLine
 62
253
  6
CONTINUOUS
 10
28.3308800235
 20
-1.5856534497
 11
27.5308799878
 21
-2.9856534497
  0
LINE
  5
384
100
AcDbEntity
  8
CURVE
100
AcDbLine
 62
253
  6
CONTINUOUS
 10
27.9308800057
 20
0.1143465503
 11
27.5308799878
 21
-0.2856534259
  0
LINE
  5
385
100
AcDbEntity
  8
RACCORDO
100
AcDbLine
 62
7
  6
CONTINUOUS
 10
58.6479478321
 20
-2.1210211099
 11
58.5957275347
 21
-2.1311625891
  0
LINE
  5
386
100
AcDbEntity
  8
ASSI
100
AcDbLine
 62
7
  6
CONTINUOUS
 10
58.6479478321
 20
-2.1210211099
 11
58.5957275347
 21
-2.1311625891
  0
LINE
  5
387
100
AcDbEntity
  8
RACCORDO
100
AcDbLine
 62
253
  6
CONTINUOUS
 10
25.0413560662
 20
2.7539618548
 11
24.9608799878
 21
2.8344379332
  0
LINE
  5
388
100
AcDbEntity
  8
SCRITTE
100
AcDbLine
 62
253
  6
CONTINUOUS
 10
30.3308799878
 20
-2.185653414
 11
29.9308800116
 21
-1.5856534497
  0
LINE
  5
389
100
AcDbEntity
  8
CURVE
100
AcDbLine
 62
253
  6
CONTINUOUS
 10
29.1308800593
 20
-0.8856534318
 11
29.2308800116
 21
-1.0856534408
  0
LINE
  5
38A
100
AcDbEntity
  8
CURVE
100
AcDbLine
 62
253
  6
CONTINUOUS
 10
29.8308800593
 20
-0.2856534259
 11
29.7308799401
 21
-0.0856534378
  0
LINE
  5
38B
100
AcDbEntity
  8
0
100
AcDbLine
 62
7
  6
CONTINUOUS
 10
28.5491919878
 20
0.9618405503
 11
28.2251669878
 21
2.1319085503
  0
LINE
  5
38C
100
AcDbEntity
  8
ASSI
100
AcDbLine
 62
7
  6
CONTINUOUS
 10
28.5491919878
 20
0.9618405503
 11
28.2251669878
 21
2.1319085503
  0
LINE
  5
38D
100
AcDbEntity
  8
0
100
AcDbLine
 62
7
  6
CONTINUOUS
 10
31.6391759878
 20
0.4320455503
 11
31.4802189878
 21
2.1319085503
  0
LINE
  5
38E
100
AcDbEntity
  8
ASSI
100
AcDbLine
 62
7
  6
CONTINUOUS
 10
31.6391759878
 20
0.4320455503
 11
31.4802189878
 21
2.1319085503
  0
LINE
  5
38F
100
AcDbEntity
  8
0
100
AcDbLine
 62
7
  6
CONTINUOUS
 10
31.2191589878
 20
1.5373975503
 11
31.2920599878
 21
0.4320455503
  0
LINE
  5
390
100
AcDbEntity
  8
ASSI
100
AcDbLine
 62
7
  6
CONTINUOUS
 10
31.2191589878
 20
1.5373975503
 11
31.2920599878
 21
0.4320455503
  0
LINE
  5
391
100
AcDbEntity
  8
SCRITTE
100
AcDbLine
 62
253
  6
CONTINUOUS
 10
30.9308800116
 20
3.457365056
 11
30.9308800116
 21
3.4451474411
  0
LINE
  5
392
100
AcDbEntity
  8
SCRITTE
100
AcDbLine
 62
253
  6
CONTINUOUS
 10
31.5308800831
 20
-2.9856534497
 11
31.5308800831
 21
-2.185653414
  0
LINE
  5
393
100
AcDbEntity
  8
SCRITTE
100
AcDbLine
 62
253
  6
CONTINUOUS
 10
31.6308798447
 20
3.4468928148
 11
31.6308798447
 21
3.4556196826
  0
LINE
  5
394
100
AcDbEntity
  8
CURVE
100
AcDbLine
 62
253
  6
CONTINUOUS
 10
31.9308798924
 20
-0.0856534378
 11
31.9308798924
 21
-0.2856534259
  0
LINE
  5
395
100
AcDbEntity
  8
0
100
AcDbLine
 62
7
  6
CONTINUOUS
 10
32.2163639878
 20
1.0339885503
 11
32.3930379878
 21
1.6648295503
  0
LINE
  5
396
100
AcDbEntity
  8
ASSI
100
AcDbLine
 62
7
  6
CONTINUOUS
 10
32.2163639878
 20
1.0339885503
 11
32.3930379878
 21
1.6648295503
  0
LINE
  5
397
100
AcDbEntity
  8
0
100
AcDbLine
 62
7
  6
CONTINUOUS
 10
32.0458709878
 20
0.4320455503
 11
32.1437819878
 21
0.7713985503
  0
LINE
  5
398
100
AcDbEntity
  8
ASSI
100
AcDbLine
 62
7
  6
CONTINUOUS
 10
32.0458709878
 20
0.4320455503
 11
32.1437819878
 21
0.7713985503
  0
LINE
  5
399
100
AcDbEntity
  8
0
100
AcDbLine
 62
7
  6
CONTINUOUS
 10
32.2280779878
 20
2.1319085503
 11
31.6948929878
 21
0.4320455503
  0
LINE
  5
39A
100
AcDbEntity
  8
ASSI
100
AcDbLine
 62
7
  6
CONTINUOUS
 10
32.2280779878
 20
2.1319085503
 11
31.6948929878
 21
0.4320455503
  0
LINE
  5
39B
100
AcDbEntity
  8
0
100
AcDbLine
 62
7
  6
CONTINUOUS
 10
31.1291519878
 20
2.1319085503
 11
30.7743239878
 21
1.1881395503
  0
LINE
  5
39C
100
AcDbEntity
  8
ASSI
100
AcDbLine
 62
7
  6
CONTINUOUS
 10
31.1291519878
 20
2.1319085503
 11
30.7743239878
 21
1.1881395503
  0
LINE
  5
39D
100
AcDbEntity
  8
0
100
AcDbLine
 62
7
  6
CONTINUOUS
 10
30.7972679878
 20
0.4320455503
 11
31.2191589878
 21
1.5373975503
  0
LINE
  5
39E
100
AcDbEntity
  8
ASSI
100
AcDbLine
 62
7
  6
CONTINUOUS
 10
30.7972679878
 20
0.4320455503
 11
31.2191589878
 21
1.5373975503
  0
LINE
  5
39F
100
AcDbEntity
  8
CURVE
100
AcDbLine
 62
253
  6
CONTINUOUS
 10
29.7308799401
 20
-1.0856534408
 11
29.8308800593
 21
-0.8856534318
  0
LINE
  5
3A0
100
AcDbEntity
  8
SCRITTE
100
AcDbLine
 62
253
  6
CONTINUOUS
 10
29.5308800355
 20
-1.5856534497
 11
28.7308799997
 21
-2.9856534497
  0
LINE
  5
3A1
100
AcDbEntity
  8
RACCORDO
100
AcDbLine
 62
253
  6
CONTINUOUS
 10
24.9608799878
 20
-3.4057448326
 11
25.0413560662
 21
-3.3252687542
  0
LINE
  5
3A2
100
AcDbEntity
  8
CURVE
100
AcDbLine
 62
253
  6
CONTINUOUS
 10
28.7308799997
 20
0.1143465503
 11
28.3308800235
 21
-0.2856534259
  0
LINE
  5
3A3
100
AcDbEntity
  8
RACCORDO
100
AcDbLine
 62
7
  6
CONTINUOUS
 10
26.0480498057
 20
-2.6684836318
 11
26.0308799878
 21
-2.6856534497
  0
LINE
  5
3A4
100
AcDbEntity
  8
ASSI
100
AcDbLine
 62
7
  6
CONTINUOUS
 10
26.0480498057
 20
-2.6684836318
 11
26.0308799878
 21
-2.6856534497
  0
LINE
  5
3A5
100
AcDbEntity
  8
CURVE
100
AcDbLine
 62
253
  6
CONTINUOUS
 10
29.4308799163
 20
0.1143465503
 11
29.2308800116
 21
-0.0856534378
  0
LINE
  5
3A6
100
AcDbEntity
  8
RACCORDO
100
AcDbLine
 62
253
  6
CONTINUOUS
 10
25.5607886049
 20
-4.0056534497
 11
25.6412646833
 21
-3.9251773713
  0
LINE
  5
3A7
100
AcDbEntity
  8
RACCORDO
100
AcDbLine
 62
253
  6
CONTINUOUS
 10
26.0723706874
 20
-3.8441684616
 11
26.0308799878
 21
-3.8856591613
  0
LINE
  5
3A8
100
AcDbEntity
  8
ASSI
100
AcDbLine
 62
253
  6
CONTINUOUS
 10
26.0723706874
 20
-3.8441684616
 11
26.0308799878
 21
-3.8856591613
  0
LINE
  5
3A9
100
AcDbEntity
  8
DRAFT
100
AcDbLine
 62
7
  6
CONTINUOUS
 10
26.8273889748
 20
-3.2391444627
 11
26.8308799878
 21
-3.2356534497
  0
LINE
  5
3AA
100
AcDbEntity
  8
RACCORDO
100
AcDbLine
 62
253
  6
CONTINUOUS
 10
26.2223649759
 20
-3.9941627501
 11
26.1808742762
 21
-4.0356534497
  0
LINE
  5
3AB
100
AcDbEntity
  8
ASSI
100
AcDbLine
 62
253
  6
CONTINUOUS
 10
26.2223649759
 20
-3.9941627501
 11
26.1808742762
 21
-4.0356534497
  0
LINE
  5
3AC
100
AcDbEntity
  8
SCRITTE
100
AcDbLine
 62
253
  6
CONTINUOUS
 10
43.5121299878
 20
-2.9856534497
 11
43.6871299878
 21
-2.9419034497
  0
LWPOLYLINE
  5
3AD
100
AcDbEntity
  8
RACCORDO
100
AcDbPolyline
 62
7
  6
CONTINUOUS
 90
6
 70
0
 10
58.634250193
 20
-3.1839688605
 10
58.6318421611
 20
-3.184277001
 10
58.6270005556
 20
-3.1845592722
 10
58.6197253762
 20
-3.1848156743
 10
58.6096705455
 20
-3.1850520361
 10
58.5971821409
 20
-3.1852625288
  0
LINE
  5
3AE
100
AcDbEntity
  8
RACCORDO
100
AcDbLine
 62
7
  6
CONTINUOUS
 10
44.7308799878
 20
-4.022563148
 11
44.6236060497
 21
-4.0332635684
  0
LINE
  5
3AF
100
AcDbEntity
  8
ASSI
100
AcDbLine
 62
7
  6
CONTINUOUS
 10
44.7308799878
 20
-4.022563148
 11
44.6236060497
 21
-4.0332635684
  0
LWPOLYLINE
  5
3B0
100
AcDbEntity
  8
RACCORDO
100
AcDbPolyline
 62
7
  6
CONTINUOUS
 90
6
 70
0
 10
59.5308952183
 20
-3.1856534497
 10
59.5482483532
 20
-3.1841300822
 10
59.5650751818
 20
-3.1796166975
 10
59.5808646356
 20
-3.1722496158
 10
59.5951368437
 20
-3.1622517152
 10
59.6015538387
 20
-3.1563704141
  0
LWPOLYLINE
  5
3B1
100
AcDbEntity
  8
RACCORDO
100
AcDbPolyline
 62
7
  6
CONTINUOUS
 90
16
 70
0
 10
44.9836266458
 20
-4.088034604
 10
45.047451469
 20
-4.0844500228
 10
45.1092482397
 20
-4.0746658634
 10
45.1690169579
 20
-4.0586821259
 10
45.2273606117
 20
-4.036189907
 10
45.283676213
 20
-4.00749811
 10
45.3361547975
 20
-3.973533444
 10
45.3846719871
 20
-3.9341262146
 10
45.42935216
 20
-3.8894461163
 10
45.4687594862
 20
-3.8409289421
 10
45.5027242764
 20
-3.7884502814
 10
45.53141622
 20
-3.7321345447
 10
45.5539085545
 20
-3.6737907565
 10
45.5698923593
 20
-3.6140219251
 10
45.5796765552
 20
-3.5522250422
 10
45.583261142
 20
-3.4884001078
  0
LWPOLYLINE
  5
3B2
100
AcDbEntity
  8
RACCORDO
100
AcDbPolyline
 62
7
  6
CONTINUOUS
 90
16
 70
0
 10
25.530514484
 20
-4.0356534497
 10
25.4666522291
 20
-4.0320648202
 10
25.4048208814
 20
-4.0222694246
 10
25.345020441
 20
-4.0062672631
 10
25.2866466505
 20
-3.9837486936
 10
25.2303037673
 20
-3.9550233581
 10
25.1778045632
 20
-3.9210201827
 10
25.1292740397
 20
-3.8815691012
 10
25.0845871952
 20
-3.8368401798
 10
25.045181797
 20
-3.7882725427
 10
25.0112280386
 20
-3.7357204532
 10
24.9825557263
 20
-3.679329648
 10
24.9600920465
 20
-3.620976462
 10
24.9441460612
 20
-3.56128634
 10
24.9344087083
 20
-3.4996338372
 10
24.9308799878
 20
-3.4360189535
  0
LWPOLYLINE
  5
3B3
100
AcDbEntity
  8
RACCORDO
100
AcDbPolyline
 62
7
  6
CONTINUOUS
 90
16
 70
0
 10
25.5607886049
 20
-4.0056534497
 10
25.4969607145
 20
-4.0020677642
 10
25.4351559166
 20
-3.9922792109
 10
25.3753742112
 20
-3.9762877901
 10
25.3170130725
 20
-3.9537865852
 10
25.2606750263
 20
-3.9250825126
 10
25.2081676497
 20
-3.8910963216
 10
25.1596096523
 20
-3.8516511122
 10
25.1148823246
 20
-3.8069237844
 10
25.0754371153
 20
-3.758365787
 10
25.0414509245
 20
-3.7058584105
 10
25.0127468521
 20
-3.6495203645
 10
24.9902456473
 20
-3.591159226
 10
24.9742542265
 20
-3.5313775207
 10
24.9644656734
 20
-3.4695727229
 10
24.9608799878
 20
-3.4057448326
  0
LWPOLYLINE
  5
3B4
100
AcDbEntity
  8
RACCORDO
100
AcDbPolyline
 62
7
  6
CONTINUOUS
 90
13
 70
0
 10
26.1808742762
 20
-4.0356534497
 10
26.1607691244
 20
-4.0341915928
 10
26.141635188
 20
-4.0303857037
 10
26.1234724671
 20
-4.0242357823
 10
26.1060066659
 20
-4.0155585182
 10
26.0895120801
 20
-4.0045372219
 10
26.0748115969
 20
-3.9917218247
 10
26.0619962026
 20
-3.9770213417
 10
26.0509749108
 20
-3.9605267579
 10
26.0422976506
 20
-3.9430609593
 10
26.0361477315
 20
-3.9248982414
 10
26.0323418439
 20
-3.9057643087
 10
26.0308799878
 20
-3.8856591613
  0
LWPOLYLINE
  5
3B5
100
AcDbEntity
  8
ASSI
100
AcDbPolyline
 62
7
  6
CONTINUOUS
 90
13
 70
0
 10
26.1808742762
 20
-4.0356534497
 10
26.1607691244
 20
-4.0341915928
 10
26.141635188
 20
-4.0303857037
 10
26.1234724671
 20
-4.0242357823
 10
26.1060066659
 20
-4.0155585182
 10
26.0895120801
 20
-4.0045372219
 10
26.0748115969
 20
-3.9917218247
 10
26.0619962026
 20
-3.9770213417
 10
26.0509749108
 20
-3.9605267579
 10
26.0422976506
 20
-3.9430609593
 10
26.0361477315
 20
-3.9248982414
 10
26.0323418439
 20
-3.9057643087
 10
26.0308799878
 20
-3.8856591613
  0
LWPOLYLINE
  5
3B6
100
AcDbEntity
  8
RACCORDO
100
AcDbPolyline
 62
253
  6
CONTINUOUS
 90
10
 70
0
 10
26.2223649759
 20
-3.9941627501
 10
26.1963199892
 20
-3.9918822365
 10
26.1710662903
 20
-3.9851139483
 10
26.1473711258
 20
-3.9740635169
 10
26.1259543917
 20
-3.9590666717
 10
26.1074667614
 20
-3.9405790406
 10
26.0924699176
 20
-3.9191623064
 10
26.0814194876
 20
-3.8954671427
 10
26.0746512005
 20
-3.8702134456
 10
26.0723706874
 20
-3.8441684616
  0
LWPOLYLINE
  5
3B7
100
AcDbEntity
  8
ASSI
100
AcDbPolyline
 62
253
  6
CONTINUOUS
 90
10
 70
0
 10
26.2223649759
 20
-3.9941627501
 10
26.1963199892
 20
-3.9918822365
 10
26.1710662903
 20
-3.9851139483
 10
26.1473711258
 20
-3.9740635169
 10
26.1259543917
 20
-3.9590666717
 10
26.1074667614
 20
-3.9405790406
 10
26.0924699176
 20
-3.9191623064
 10
26.0814194876
 20
-3.8954671427
 10
26.0746512005
 20
-3.8702134456
 10
26.0723706874
 20
-3.8441684616
  0
LINE
  5
3B8
100
AcDbEntity
  8
CURVE
100
AcDbLine
 62
253
  6
CONTINUOUS
 10
29.2308800116
 20
-1.0856534408
 11
29.4308799163
 21
-1.2856534497
  0
LINE
  5
3B9
100
AcDbEntity
  8
RACCORDO
100
AcDbLine
 62
7
  6
CONTINUOUS
 10
26.0308799878
 20
2.1143465503
 11
26.0480498057
 21
2.0971767323
  0
LINE
  5
3BA
100
AcDbEntity
  8
ASSI
100
AcDbLine
 62
7
  6
CONTINUOUS
 10
26.0308799878
 20
2.1143465503
 11
26.0480498057
 21
2.0971767323
  0
LINE
  5
3BB
100
AcDbEntity
  8
RACCORDO
100
AcDbLine
 62
253
  6
CONTINUOUS
 10
25.6412646833
 20
3.3538704719
 11
25.5607886049
 21
3.4343465503
  0
LINE
  5
3BC
100
AcDbEntity
  8
RACCORDO
100
AcDbLine
 62
253
  6
CONTINUOUS
 10
26.0308799878
 20
3.3143522618
 11
26.0723706874
 21
3.2728615621
  0
LINE
  5
3BD
100
AcDbEntity
  8
ASSI
100
AcDbLine
 62
253
  6
CONTINUOUS
 10
26.0308799878
 20
3.3143522618
 11
26.0723706874
 21
3.2728615621
  0
LINE
  5
3BE
100
AcDbEntity
  8
DRAFT
100
AcDbLine
 62
7
  6
CONTINUOUS
 10
26.8273889748
 20
2.6678375633
 11
26.8308799878
 21
2.6643465503
  0
LINE
  5
3BF
100
AcDbEntity
  8
RACCORDO
100
AcDbLine
 62
253
  6
CONTINUOUS
 10
26.1808742762
 20
3.4643465503
 11
26.2223649759
 21
3.4228558506
  0
LINE
  5
3C0
100
AcDbEntity
  8
ASSI
100
AcDbLine
 62
253
  6
CONTINUOUS
 10
26.1808742762
 20
3.4643465503
 11
26.2223649759
 21
3.4228558506
  0
LINE
  5
3C1
100
AcDbEntity
  8
CURVE
100
AcDbLine
 62
253
  6
CONTINUOUS
 10
29.7308799401
 20
-0.0856534378
 11
29.5308800355
 21
0.1143465503
  0
LINE
  5
3C2
100
AcDbEntity
  8
SCRITTE
100
AcDbLine
 62
253
  6
CONTINUOUS
 10
31.5308800831
 20
-2.185653414
 11
31.1308799401
 21
-1.5856534497
  0
LINE
  5
3C3
100
AcDbEntity
  8
0
100
AcDbLine
 62
7
  6
CONTINUOUS
 10
30.3312479878
 20
1.5420245503
 11
30.7475039878
 21
0.4320455503
  0
LINE
  5
3C4
100
AcDbEntity
  8
ASSI
100
AcDbLine
 62
7
  6
CONTINUOUS
 10
30.3312479878
 20
1.5420245503
 11
30.7475039878
 21
0.4320455503
  0
LINE
  5
3C5
100
AcDbEntity
  8
0
100
AcDbLine
 62
7
  6
CONTINUOUS
 10
30.7743239878
 20
1.1881395503
 11
30.4232429878
 21
2.1319085503
  0
LINE
  5
3C6
100
AcDbEntity
  8
ASSI
100
AcDbLine
 62
7
  6
CONTINUOUS
 10
30.7743239878
 20
1.1881395503
 11
30.4232429878
 21
2.1319085503
  0
LINE
  5
3C7
100
AcDbEntity
  8
SCRITTE
100
AcDbLine
 62
253
  6
CONTINUOUS
 10
32.1975466862
 20
3.457365056
 11
32.1975466862
 21
3.4451474411
  0
LINE
  5
3C8
100
AcDbEntity
  8
CURVE
100
AcDbLine
 62
253
  6
CONTINUOUS
 10
32.3308800355
 20
0.1143465503
 11
32.3308800355
 21
-0.485653414
  0
LINE
  5
3C9
100
AcDbEntity
  8
CURVE
100
AcDbLine
 62
253
  6
CONTINUOUS
 10
32.9308800831
 20
-0.6856534438
 11
32.9308800831
 21
-1.0856534408
  0
LINE
  5
3CA
100
AcDbEntity
  8
0
100
AcDbLine
 62
7
  6
CONTINUOUS
 10
33.1970866517
 20
2.1120486324
 11
33.1970866517
 21
0.4320458636
  0
LINE
  5
3CB
100
AcDbEntity
  8
ASSI
100
AcDbLine
 62
7
  6
CONTINUOUS
 10
33.1970866517
 20
2.1120486324
 11
33.1970866517
 21
0.4320458636
  0
LINE
  5
3CC
100
AcDbEntity
  8
CURVE
100
AcDbLine
 62
253
  6
CONTINUOUS
 10
33.3308798924
 20
-0.2856534259
 11
33.3308798924
 21
-0.8856534318
  0
LINE
  5
3CD
100
AcDbEntity
  8
0
100
AcDbLine
 62
7
  6
CONTINUOUS
 10
33.5387214194
 20
1.3756747188
 11
33.5387214194
 21
1.8423202013
  0
LINE
  5
3CE
100
AcDbEntity
  8
ASSI
100
AcDbLine
 62
7
  6
CONTINUOUS
 10
33.5387214194
 20
1.3756747188
 11
33.5387214194
 21
1.8423202013
  0
LINE
  5
3CF
100
AcDbEntity
  8
0
100
AcDbLine
 62
7
  6
CONTINUOUS
 10
33.5504869838
 20
0.4320458636
 11
33.5504869838
 21
1.0972782662
  0
LINE
  5
3D0
100
AcDbEntity
  8
ASSI
100
AcDbLine
 62
7
  6
CONTINUOUS
 10
33.5504869838
 20
0.4320458636
 11
33.5504869838
 21
1.0972782662
  0
LINE
  5
3D1
100
AcDbEntity
  8
CURVE
100
AcDbLine
 62
253
  6
CONTINUOUS
 10
31.2308798924
 20
-0.1856534736
 11
31.4308801308
 21
0.1143465503
  0
LINE
  5
3D2
100
AcDbEntity
  8
SCRITTE
100
AcDbLine
 62
253
  6
CONTINUOUS
 10
30.7308801308
 20
-1.5856534497
 11
30.3308799878
 21
-2.185653414
  0
LINE
  5
3D3
100
AcDbEntity
  8
SCRITTE
100
AcDbLine
 62
253
  6
CONTINUOUS
 10
31.9308798924
 20
-1.5856534497
 11
31.5308800831
 21
-2.185653414
  0
LINE
  5
3D4
100
AcDbEntity
  8
CURVE
100
AcDbLine
 62
253
  6
CONTINUOUS
 10
31.9308798924
 20
-0.2856534259
 11
31.2308798924
 21
-1.2856534497
  0
LINE
  5
3D5
100
AcDbEntity
  8
CURVE
100
AcDbLine
 62
253
  6
CONTINUOUS
 10
29.5308800355
 20
-1.2856534497
 11
29.7308799401
 21
-1.0856534408
  0
LINE
  5
3D6
100
AcDbEntity
  8
RACCORDO
100
AcDbLine
 62
253
  6
CONTINUOUS
 10
24.8286404296
 20
-2.4737056872
 11
24.8381462352
 21
-2.4689531463
  0
LINE
  5
3D7
100
AcDbEntity
  8
ASSI
100
AcDbLine
 62
253
  6
CONTINUOUS
 10
24.8286404296
 20
-2.4737056872
 11
24.8381462352
 21
-2.4689531463
  0
LINE
  5
3D8
100
AcDbEntity
  8
SCRITTE
100
AcDbLine
 62
253
  6
CONTINUOUS
 10
43.5121299878
 20
-2.1981534497
 11
43.3371299878
 21
-2.2419034497
  0
LINE
  5
3D9
100
AcDbEntity
  8
RACCORDO
100
AcDbLine
 62
7
  6
CONTINUOUS
 10
58.5957275347
 20
-2.1311625891
 11
58.5308799878
 21
-2.1356534497
  0
LINE
  5
3DA
100
AcDbEntity
  8
ASSI
100
AcDbLine
 62
7
  6
CONTINUOUS
 10
58.5957275347
 20
-2.1311625891
 11
58.5308799878
 21
-2.1356534497
  0
LWPOLYLINE
  5
3DB
100
AcDbEntity
  8
RACCORDO
100
AcDbPolyline
 62
253
  6
CONTINUOUS
 90
19
 70
0
 10
44.8894121343
 20
-3.4941817885
 10
44.8981477445
 20
-3.4937979626
 10
44.906716493
 20
-3.4926778999
 10
44.9151183797
 20
-3.4908216006
 10
44.9234233174
 20
-3.4882048631
 10
44.9315613934
 20
-3.4848518889
 10
44.939322869
 20
-3.4808352823
 10
44.9466934932
 20
-3.4761366334
 10
44.9536875169
 20
-3.470774352
 10
44.9601379541
 20
-3.4648762719
 10
44.9660282222
 20
-3.4584315741
 10
44.9713749038
 20
-3.4514510775
 10
44.9760607602
 20
-3.4440950723
 10
44.9800709995
 20
-3.4363506309
 10
44.9834204137
 20
-3.4282306809
 10
44.9860361398
 20
-3.4199342952
 10
44.9878938902
 20
-3.4115278313
 10
44.9890179524
 20
-3.4029449316
 10
44.9894083266
 20
-3.3941855962
  0
LWPOLYLINE
  5
3DC
100
AcDbEntity
  8
ASSI
100
AcDbPolyline
 62
253
  6
CONTINUOUS
 90
19
 70
0
 10
44.8894121343
 20
-3.4941817885
 10
44.8981477445
 20
-3.4937979626
 10
44.906716493
 20
-3.4926778999
 10
44.9151183797
 20
-3.4908216006
 10
44.9234233174
 20
-3.4882048631
 10
44.9315613934
 20
-3.4848518889
 10
44.939322869
 20
-3.4808352823
 10
44.9466934932
 20
-3.4761366334
 10
44.9536875169
 20
-3.470774352
 10
44.9601379541
 20
-3.4648762719
 10
44.9660282222
 20
-3.4584315741
 10
44.9713749038
 20
-3.4514510775
 10
44.9760607602
 20
-3.4440950723
 10
44.9800709995
 20
-3.4363506309
 10
44.9834204137
 20
-3.4282306809
 10
44.9860361398
 20
-3.4199342952
 10
44.9878938902
 20
-3.4115278313
 10
44.9890179524
 20
-3.4029449316
 10
44.9894083266
 20
-3.3941855962
  0
LWPOLYLINE
  5
3DD
100
AcDbEntity
  8
RACCORDO
100
AcDbPolyline
 62
253
  6
CONTINUOUS
 90
19
 70
0
 10
44.8894121343
 20
-3.9941627501
 10
44.9417017233
 20
-3.9918765328
 10
44.993593323
 20
-3.9850418991
 10
45.0446920495
 20
-3.9737108657
 10
45.0946090481
 20
-3.9579696712
 10
45.1429644657
 20
-3.9379381048
 10
45.1893903385
 20
-3.9137685893
 10
45.2335333657
 20
-3.8856450524
 10
45.275057631
 20
-3.8537815074
 10
45.3136471632
 20
-3.8184203972
 10
45.3490083286
 20
-3.7798307537
 10
45.3808719745
 20
-3.7383062749
 10
45.4089955371
 20
-3.6941630849
 10
45.4331649875
 20
-3.6477371836
 10
45.45319646
 20
-3.5993818189
 10
45.4689375612
 20
-3.5494649251
 10
45.4802685154
 20
-3.498366344
 10
45.4871030926
 20
-3.4464749407
 10
45.4893892881
 20
-3.3941855962
  0
LWPOLYLINE
  5
3DE
100
AcDbEntity
  8
ASSI
100
AcDbPolyline
 62
253
  6
CONTINUOUS
 90
19
 70
0
 10
44.8894121343
 20
-3.9941627501
 10
44.9417017233
 20
-3.9918765328
 10
44.993593323
 20
-3.9850418991
 10
45.0446920495
 20
-3.9737108657
 10
45.0946090481
 20
-3.9579696712
 10
45.1429644657
 20
-3.9379381048
 10
45.1893903385
 20
-3.9137685893
 10
45.2335333657
 20
-3.8856450524
 10
45.275057631
 20
-3.8537815074
 10
45.3136471632
 20
-3.8184203972
 10
45.3490083286
 20
-3.7798307537
 10
45.3808719745
 20
-3.7383062749
 10
45.4089955371
 20
-3.6941630849
 10
45.4331649875
 20
-3.6477371836
 10
45.45319646
 20
-3.5993818189
 10
45.4689375612
 20
-3.5494649251
 10
45.4802685154
 20
-3.498366344
 10
45.4871030926
 20
-3.4464749407
 10
45.4893892881
 20
-3.3941855962
  0
LWPOLYLINE
  5
3DF
100
AcDbEntity
  8
RACCORDO
100
AcDbPolyline
 62
7
  6
CONTINUOUS
 90
4
 70
0
 10
44.5938085104
 20
-4.0341933447
 10
44.6078064061
 20
-4.0339009168
 10
44.6177389192
 20
-4.0335909914
 10
44.6236060497
 20
-4.0332635684
  0
LWPOLYLINE
  5
3E0
100
AcDbEntity
  8
ASSI
100
AcDbPolyline
 62
7
  6
CONTINUOUS
 90
4
 70
0
 10
44.5938085104
 20
-4.0341933447
 10
44.6078064061
 20
-4.0339009168
 10
44.6177389192
 20
-4.0335909914
 10
44.6236060497
 20
-4.0332635684
  0
LINE
  5
3E1
100
AcDbEntity
  8
RACCORDO
100
AcDbLine
 62
7
  6
CONTINUOUS
 10
44.5529477533
 20
-4.0347334869
 11
44.5938085104
 21
-4.0341933447
  0
LINE
  5
3E2
100
AcDbEntity
  8
ASSI
100
AcDbLine
 62
7
  6
CONTINUOUS
 10
44.5529477533
 20
-4.0347334869
 11
44.5938085104
 21
-4.0341933447
  0
LINE
  5
3E3
100
AcDbEntity
  8
RACCORDO
100
AcDbLine
 62
7
  6
CONTINUOUS
 10
58.5971821409
 20
-3.1852625288
 11
58.5683653881
 21
-3.1855476162
  0
LINE
  5
3E4
100
AcDbEntity
  8
RACCORDO
100
AcDbLine
 62
7
  6
CONTINUOUS
 10
44.4669081098
 20
-4.0353398137
 11
44.5529477533
 21
-4.0347334869
  0
LINE
  5
3E5
100
AcDbEntity
  8
ASSI
100
AcDbLine
 62
7
  6
CONTINUOUS
 10
44.4669081098
 20
-4.0353398137
 11
44.5529477533
 21
-4.0347334869
  0
LINE
  5
3E6
100
AcDbEntity
  8
RACCORDO
100
AcDbLine
 62
7
  6
CONTINUOUS
 10
58.5683653881
 20
-3.1855476162
 11
58.5343133511
 21
-3.1856534497
  0
LINE
  5
3E7
100
AcDbEntity
  8
RACCORDO
100
AcDbLine
 62
7
  6
CONTINUOUS
 10
44.7308799878
 20
-4.088034604
 11
44.9836266458
 21
-4.088034604
  0
LINE
  5
3E8
100
AcDbEntity
  8
DRAFT
100
AcDbLine
 62
7
  6
CONTINUOUS
 10
44.6784988335
 20
-4.0356534497
 11
37.283261142
 21
-4.0356534497
  0
LINE
  5
3E9
100
AcDbEntity
  8
DRAFT
100
AcDbLine
 62
7
  6
CONTINUOUS
 10
37.1308799878
 20
-4.0356534497
 11
33.9308799878
 21
-4.0356534497
  0
LINE
  5
3EA
100
AcDbEntity
  8
RACCORDO
100
AcDbLine
 62
7
  6
CONTINUOUS
 10
25.530514484
 20
-4.0356534497
 11
33.9308799878
 21
-4.0356534497
  0
LINE
  5
3EB
100
AcDbEntity
  8
RACCORDO
100
AcDbLine
 62
7
  6
CONTINUOUS
 10
37.1308799878
 20
-4.0356534497
 11
44.4669081098
 21
-4.0353398137
  0
LINE
  5
3EC
100
AcDbEntity
  8
ASSI
100
AcDbLine
 62
7
  6
CONTINUOUS
 10
26.1808742762
 20
-4.0356534497
 11
44.4669081098
 21
-4.0353398137
  0
LINE
  5
3ED
100
AcDbEntity
  8
RACCORDO
100
AcDbLine
 62
7
  6
CONTINUOUS
 10
44.9178125323
 20
-4.022563148
 11
44.7308799878
 21
-4.022563148
  0
LINE
  5
3EE
100
AcDbEntity
  8
ASSI
100
AcDbLine
 62
7
  6
CONTINUOUS
 10
44.9178125323
 20
-4.022563148
 11
44.7308799878
 21
-4.022563148
  0
LINE
  5
3EF
100
AcDbEntity
  8
RACCORDO
100
AcDbLine
 62
7
  6
CONTINUOUS
 10
26.0308799878
 20
-4.0056534497
 11
25.5607886049
 21
-4.0056534497
  0
LINE
  5
3F0
100
AcDbEntity
  8
RACCORDO
100
AcDbLine
 62
7
  6
CONTINUOUS
 10
26.2223649759
 20
-3.9941627501
 11
44.8894121343
 21
-3.9941627501
  0
LINE
  5
3F1
100
AcDbEntity
  8
ASSI
100
AcDbLine
 62
7
  6
CONTINUOUS
 10
26.2223649759
 20
-3.9941627501
 11
44.8894121343
 21
-3.9941627501
  0
LINE
  5
3F2
100
AcDbEntity
  8
RACCORDO
100
AcDbLine
 62
253
  6
CONTINUOUS
 10
25.6412646833
 20
-3.9251773713
 11
25.990645013
 21
-3.9251773713
  0
LINE
  5
3F3
100
AcDbEntity
  8
RACCORDO
100
AcDbLine
 62
253
  6
CONTINUOUS
 10
26.0753984368
 20
-3.4941817885
 11
44.8894121343
 21
-3.4941817885
  0
LINE
  5
3F4
100
AcDbEntity
  8
ASSI
100
AcDbLine
 62
253
  6
CONTINUOUS
 10
26.0753984368
 20
-3.4941817885
 11
44.8894121343
 21
-3.4941817885
  0
LINE
  5
3F5
100
AcDbEntity
  8
RACCORDO
100
AcDbLine
 62
253
  6
CONTINUOUS
 10
44.9894083266
 20
-3.3941855962
 11
45.4893892881
 21
-3.3941855962
  0
LINE
  5
3F6
100
AcDbEntity
  8
ASSI
100
AcDbLine
 62
253
  6
CONTINUOUS
 10
44.9894083266
 20
-3.3941855962
 11
45.4893892881
 21
-3.3941855962
  0
LINE
  5
3F7
100
AcDbEntity
  8
RACCORDO
100
AcDbLine
 62
253
  6
CONTINUOUS
 10
25.0413560662
 20
-3.3252687542
 11
25.9855002753
 21
-3.3252687542
  0
LINE
  5
3F8
100
AcDbEntity
  8
DRAFT
100
AcDbLine
 62
7
  6
CONTINUOUS
 10
26.8273889748
 20
-3.2391444627
 11
44.7343710008
 21
-3.2391444627
  0
LINE
  5
3F9
100
AcDbEntity
  8
ASSI
100
AcDbLine
 62
7
  6
CONTINUOUS
 10
26.8273889748
 20
-3.2391444627
 11
44.7343710008
 21
-3.2391444627
  0
LINE
  5
3FA
100
AcDbEntity
  8
DRAFT
100
AcDbLine
 62
7
  6
CONTINUOUS
 10
26.8308799878
 20
-3.2356534497
 11
44.7308799878
 21
-3.2356534497
  0
LINE
  5
3FB
100
AcDbEntity
  8
ASSI
100
AcDbLine
 62
7
  6
CONTINUOUS
 10
26.8308799878
 20
-3.2356534497
 11
44.7308799878
 21
-3.2356534497
  0
LINE
  5
3FC
100
AcDbEntity
  8
RACCORDO
100
AcDbLine
 62
7
  6
CONTINUOUS
 10
59.5308952183
 20
-3.1856534497
 11
45.583261142
 21
-3.1856534497
  0
LINE
  5
3FD
100
AcDbEntity
  8
DRAFT
100
AcDbLine
 62
7
  6
CONTINUOUS
 10
58.5308799878
 20
-3.1856534497
 11
45.5177896861
 21
-3.1856534497
  0
LINE
  5
3FE
100
AcDbEntity
  8
ASSI
100
AcDbLine
 62
7
  6
CONTINUOUS
 10
58.5308799878
 20
-3.1856534497
 11
45.5177896861
 21
-3.1856534497
  0
LINE
  5
3FF
100
AcDbEntity
  8
RACCORDO
100
AcDbLine
 62
253
  6
CONTINUOUS
 10
45.5135031035
 20
-3.1770796315
 11
58.5223061696
 21
-3.1770796315
  0
LINE
  5
400
100
AcDbEntity
  8
ASSI
100
AcDbLine
 62
253
  6
CONTINUOUS
 10
45.5135031035
 20
-3.1770796315
 11
58.5223061696
 21
-3.1770796315
  0
LINE
  5
401
100
AcDbEntity
  8
RACCORDO
100
AcDbLine
 62
253
  6
CONTINUOUS
 10
58.6499159826
 20
-3.1761383523
 11
59.5213799924
 21
-3.1761382239
  0
LINE
  5
402
100
AcDbEntity
  8
RACCORDO
100
AcDbLine
 62
253
  6
CONTINUOUS
 10
58.6534339648
 20
-3.1640841077
 11
59.5199732151
 21
-3.1640821808
  0
LINE
  5
403
100
AcDbEntity
  8
RACCORDO
100
AcDbLine
 62
253
  6
CONTINUOUS
 10
45.5115352659
 20
-3.1472721859
 11
58.5183701946
 21
-3.1472721859
  0
LINE
  5
404
100
AcDbEntity
  8
ASSI
100
AcDbLine
 62
253
  6
CONTINUOUS
 10
45.5115352659
 20
-3.1472721859
 11
58.5183701946
 21
-3.1472721859
  0
LINE
  5
405
100
AcDbEntity
  8
CURVE
100
AcDbLine
 62
253
  6
CONTINUOUS
 10
39.3308800116
 20
-2.9856534497
 11
38.8308799163
 21
-2.9856534497
  0
LINE
  5
406
100
AcDbEntity
  8
SCRITTE
100
AcDbLine
 62
253
  6
CONTINUOUS
 10
34.1308801785
 20
-2.9856534497
 11
33.4308801785
 21
-2.9856534497
  0
LINE
  5
407
100
AcDbEntity
  8
SCRITTE
100
AcDbLine
 62
253
  6
CONTINUOUS
 10
33.0308800355
 20
-2.9856534497
 11
32.3308800355
 21
-2.9856534497
  0
LINE
  5
408
100
AcDbEntity
  8
CURVE
100
AcDbLine
 62
253
  6
CONTINUOUS
 10
37.2308799908
 20
-2.9856534497
 11
37.3308800057
 21
-2.9856534497
  0
LINE
  5
409
100
AcDbEntity
  8
SCRITTE
100
AcDbLine
 62
253
  6
CONTINUOUS
 10
43.3808799878
 20
-2.9856534497
 11
43.5121299878
 21
-2.9856534497
  0
LINE
  5
40A
100
AcDbEntity
  8
CURVE
100
AcDbLine
 62
253
  6
CONTINUOUS
 10
38.2642133251
 20
-2.9189867818
 11
38.2975466147
 21
-2.9189867818
  0
LWPOLYLINE
  5
40B
100
AcDbEntity
  8
RACCORDO
100
AcDbPolyline
 62
7
  6
CONTINUOUS
 90
9
 70
0
 10
24.8433490037
 20
-1.9981224657
 10
24.8455569824
 20
-1.9985681713
 10
24.8506222465
 20
-1.9989932104
 10
24.858544796
 20
-1.9993975829
 10
24.8695356658
 20
-1.999786902
 10
24.883383821
 20
-2.0001555545
 10
24.8994561568
 20
-2.0004867012
 10
24.9178557273
 20
-2.0007786
 10
24.960385143
 20
-2.0012382675
  0
LWPOLYLINE
  5
40C
100
AcDbEntity
  8
ASSI
100
AcDbPolyline
 62
7
  6
CONTINUOUS
 90
9
 70
0
 10
24.8433490037
 20
-1.9981224657
 10
24.8455569824
 20
-1.9985681713
 10
24.8506222465
 20
-1.9989932104
 10
24.858544796
 20
-1.9993975829
 10
24.8695356658
 20
-1.999786902
 10
24.883383821
 20
-2.0001555545
 10
24.8994561568
 20
-2.0004867012
 10
24.9178557273
 20
-2.0007786
 10
24.960385143
 20
-2.0012382675
  0
LINE
  5
40D
100
AcDbEntity
  8
RACCORDO
100
AcDbLine
 62
253
  6
CONTINUOUS
 10
24.8381462352
 20
1.8976462469
 11
24.8286404296
 21
1.9023987877
  0
LINE
  5
40E
100
AcDbEntity
  8
ASSI
100
AcDbLine
 62
253
  6
CONTINUOUS
 10
24.8381462352
 20
1.8976462469
 11
24.8286404296
 21
1.9023987877
  0
LINE
  5
40F
100
AcDbEntity
  8
CURVE
100
AcDbLine
 62
253
  6
CONTINUOUS
 10
31.7308799878
 20
0.1143465503
 11
31.9308798924
 21
-0.0856534378
  0
LINE
  5
410
100
AcDbEntity
  8
CURVE
100
AcDbLine
 62
253
  6
CONTINUOUS
 10
32.7308798447
 20
-0.485653414
 11
32.9308800831
 21
-0.6856534438
  0
LINE
  5
411
100
AcDbEntity
  8
CURVE
100
AcDbLine
 62
253
  6
CONTINUOUS
 10
33.4308801785
 20
-1.0856534408
 11
33.6308800831
 21
-1.2856534497
  0
LINE
  5
412
100
AcDbEntity
  8
CURVE
100
AcDbLine
 62
253
  6
CONTINUOUS
 10
33.3308798924
 20
-0.8856534318
 11
33.4308801785
 21
-1.0856534408
  0
LINE
  5
413
100
AcDbEntity
  8
0
100
AcDbLine
 62
7
  6
CONTINUOUS
 10
33.0928919878
 20
0.4320455503
 11
32.5713319878
 21
2.1319085503
  0
LINE
  5
414
100
AcDbEntity
  8
ASSI
100
AcDbLine
 62
7
  6
CONTINUOUS
 10
33.0928919878
 20
0.4320455503
 11
32.5713319878
 21
2.1319085503
  0
LINE
  5
415
100
AcDbEntity
  8
0
100
AcDbLine
 62
7
  6
CONTINUOUS
 10
32.6269989878
 20
0.7713985503
 11
32.7189179878
 21
0.4320455503
  0
LINE
  5
416
100
AcDbEntity
  8
ASSI
100
AcDbLine
 62
7
  6
CONTINUOUS
 10
32.6269989878
 20
0.7713985503
 11
32.7189179878
 21
0.4320455503
  0
LINE
  5
417
100
AcDbEntity
  8
0
100
AcDbLine
 62
7
  6
CONTINUOUS
 10
32.3930379878
 20
1.6648295503
 11
32.5560859878
 21
1.0339885503
  0
LINE
  5
418
100
AcDbEntity
  8
ASSI
100
AcDbLine
 62
7
  6
CONTINUOUS
 10
32.3930379878
 20
1.6648295503
 11
32.5560859878
 21
1.0339885503
  0
LINE
  5
419
100
AcDbEntity
  8
CURVE
100
AcDbLine
 62
253
  6
CONTINUOUS
 10
34.0308798924
 20
-0.8856534318
 11
34.0308798924
 21
-0.2856534259
  0
LINE
  5
41A
100
AcDbEntity
  8
0
100
AcDbLine
 62
7
  6
CONTINUOUS
 10
34.1093321705
 20
1.2255267419
 11
34.1093321705
 21
1.2355714491
  0
LINE
  5
41B
100
AcDbEntity
  8
ASSI
100
AcDbLine
 62
7
  6
CONTINUOUS
 10
34.1093321705
 20
1.2255267419
 11
34.1093321705
 21
1.2355714491
  0
LINE
  5
41C
100
AcDbEntity
  8
SCRITTE
100
AcDbLine
 62
253
  6
CONTINUOUS
 10
34.5642130032
 20
3.457365056
 11
34.5642130032
 21
3.4451474411
  0
LINE
  5
41D
100
AcDbEntity
  8
SCRITTE
100
AcDbLine
 62
253
  6
CONTINUOUS
 10
35.1975465909
 20
3.457365056
 11
35.1975465909
 21
3.4451474411
  0
LWPOLYLINE
  5
41E
100
AcDbEntity
  8
0
100
AcDbPolyline
 62
7
  6
CONTINUOUS
 90
16
 70
0
 10
34.0171324662
 20
1.6398326715
 10
34.0153232004
 20
1.6063924558
 10
34.010818148
 20
1.5748664403
 10
34.0036173089
 20
1.5452546251
 10
33.9935439262
 20
1.5172683189
 10
33.9807747569
 20
1.491196213
 10
33.9658400722
 20
1.4679043807
 10
33.948902518
 20
1.4477574596
 10
33.9297994483
 20
1.4303908121
 10
33.9085731965
 20
1.4155765999
 10
33.8850605176
 20
1.4033930278
 10
33.8594246565
 20
1.3937618909
 10
33.8321976807
 20
1.3862207368
 10
33.803556946
 20
1.3806154147
 10
33.7733250965
 20
1.3771000753
 10
33.7415021322
 20
1.3756747188
  0
LWPOLYLINE
  5
41F
100
AcDbEntity
  8
ASSI
100
AcDbPolyline
 62
7
  6
CONTINUOUS
 90
16
 70
0
 10
34.0171324662
 20
1.6398326715
 10
34.0153232004
 20
1.6063924558
 10
34.010818148
 20
1.5748664403
 10
34.0036173089
 20
1.5452546251
 10
33.9935439262
 20
1.5172683189
 10
33.9807747569
 20
1.491196213
 10
33.9658400722
 20
1.4679043807
 10
33.948902518
 20
1.4477574596
 10
33.9297994483
 20
1.4303908121
 10
33.9085731965
 20
1.4155765999
 10
33.8850605176
 20
1.4033930278
 10
33.8594246565
 20
1.3937618909
 10
33.8321976807
 20
1.3862207368
 10
33.803556946
 20
1.3806154147
 10
33.7733250965
 20
1.3771000753
 10
33.7415021322
 20
1.3756747188
  0
LINE
  5
420
100
AcDbEntity
  8
CURVE
100
AcDbLine
 62
253
  6
CONTINUOUS
 10
35.2308799878
 20
0.1143465503
 11
34.8308801785
 21
-1.2856534497
  0
LINE
  5
421
100
AcDbEntity
  8
CURVE
100
AcDbLine
 62
253
  6
CONTINUOUS
 10
33.4308801785
 20
-0.0856534378
 11
33.3308798924
 21
-0.2856534259
  0
LINE
  5
422
100
AcDbEntity
  8
SCRITTE
100
AcDbLine
 62
253
  6
CONTINUOUS
 10
32.3308800355
 20
-2.9856534497
 11
33.0308800355
 21
-1.5856534497
  0
LINE
  5
423
100
AcDbEntity
  8
CURVE
100
AcDbLine
 62
253
  6
CONTINUOUS
 10
33.9308802739
 20
-1.0856534408
 11
34.0308798924
 21
-0.8856534318
  0
LINE
  5
424
100
AcDbEntity
  8
CURVE
100
AcDbLine
 62
253
  6
CONTINUOUS
 10
35.6380228497
 20
1.9000608488
 11
35.5308799878
 21
1.6857751472
  0
LINE
  5
425
100
AcDbEntity
  8
SCRITTE
100
AcDbLine
 62
253
  6
CONTINUOUS
 10
33.4308801785
 20
-2.9856534497
 11
34.1308801785
 21
-1.5856534497
  0
LINE
  5
426
100
AcDbEntity
  8
CURVE
100
AcDbLine
 62
253
  6
CONTINUOUS
 10
33.6308800831
 20
0.1143465503
 11
33.4308801785
 21
-0.0856534378
  0
LINE
  5
427
100
AcDbEntity
  8
CURVE
100
AcDbLine
 62
253
  6
CONTINUOUS
 10
35.8523085624
 20
2.1143465503
 11
35.6380228497
 21
1.9000608488
  0
LINE
  5
428
100
AcDbEntity
  8
CURVE
100
AcDbLine
 62
253
  6
CONTINUOUS
 10
32.9308800831
 20
-1.0856534408
 11
32.7308798447
 21
-1.2856534497
  0
LWPOLYLINE
  5
429
100
AcDbEntity
  8
0
100
AcDbPolyline
 62
7
  6
CONTINUOUS
 90
40
 70
0
 10
34.1607705489
 20
1.2635472372
 10
34.1811466494
 20
1.2807980947
 10
34.1914233881
 20
1.2898127971
 10
34.201709304
 20
1.2992748517
 10
34.2120240605
 20
1.3091272197
 10
34.2223479943
 20
1.3194269399
 10
34.2325895189
 20
1.3304273304
 10
34.2427613142
 20
1.3421518496
 10
34.2528507003
 20
1.3545770391
 10
34.2627280507
 20
1.3678858428
 10
34.2724054936
 20
1.3821269451
 10
34.2818709008
 20
1.3972516615
 10
34.2909582616
 20
1.4132968829
 10
34.2996860017
 20
1.4302801556
 10
34.3080356955
 20
1.4481839333
 10
34.3157860551
 20
1.4669924671
 10
34.3229412375
 20
1.4866951475
 10
34.3294970857
 20
1.5073025841
 10
34.3352198406
 20
1.5288308575
 10
34.3401109832
 20
1.551276665
 10
34.3441690326
 20
1.5746433092
 10
34.3471557864
 20
1.598956779
 10
34.3490937302
 20
1.6242516745
 10
34.3499603786
 20
1.6504933955
 10
34.3494500726
 20
1.6776041303
 10
34.347680178
 20
1.7056179951
 10
34.344533329
 20
1.7345008737
 10
34.3393517698
 20
1.7640726052
 10
34.3322004946
 20
1.7944327118
 10
34.3230145091
 20
1.8254816712
 10
34.3109410751
 20
1.8567407562
 10
34.2958720661
 20
1.8884203413
 10
34.2779156087
 20
1.9203100519
 10
34.2565433443
 20
1.9513000361
 10
34.2309411194
 20
1.9818342054
 10
34.2019230876
 20
2.0114686484
 10
34.1714033516
 20
2.0377617797
 10
34.1400199457
 20
2.0598997374
 10
34.1071348356
 20
2.0786963834
 10
34.0727480213
 20
2.0941517176
  0
LWPOLYLINE
  5
42A
100
AcDbEntity
  8
ASSI
100
AcDbPolyline
 62
7
  6
CONTINUOUS
 90
40
 70
0
 10
34.1607705489
 20
1.2635472372
 10
34.1811466494
 20
1.2807980947
 10
34.1914233881
 20
1.2898127971
 10
34.201709304
 20
1.2992748517
 10
34.2120240605
 20
1.3091272197
 10
34.2223479943
 20
1.3194269399
 10
34.2325895189
 20
1.3304273304
 10
34.2427613142
 20
1.3421518496
 10
34.2528507003
 20
1.3545770391
 10
34.2627280507
 20
1.3678858428
 10
34.2724054936
 20
1.3821269451
 10
34.2818709008
 20
1.3972516615
 10
34.2909582616
 20
1.4132968829
 10
34.2996860017
 20
1.4302801556
 10
34.3080356955
 20
1.4481839333
 10
34.3157860551
 20
1.4669924671
 10
34.3229412375
 20
1.4866951475
 10
34.3294970857
 20
1.5073025841
 10
34.3352198406
 20
1.5288308575
 10
34.3401109832
 20
1.551276665
 10
34.3441690326
 20
1.5746433092
 10
34.3471557864
 20
1.598956779
 10
34.3490937302
 20
1.6242516745
 10
34.3499603786
 20
1.6504933955
 10
34.3494500726
 20
1.6776041303
 10
34.347680178
 20
1.7056179951
 10
34.344533329
 20
1.7345008737
 10
34.3393517698
 20
1.7640726052
 10
34.3322004946
 20
1.7944327118
 10
34.3230145091
 20
1.8254816712
 10
34.3109410751
 20
1.8567407562
 10
34.2958720661
 20
1.8884203413
 10
34.2779156087
 20
1.9203100519
 10
34.2565433443
 20
1.9513000361
 10
34.2309411194
 20
1.9818342054
 10
34.2019230876
 20
2.0114686484
 10
34.1714033516
 20
2.0377617797
 10
34.1400199457
 20
2.0598997374
 10
34.1071348356
 20
2.0786963834
 10
34.0727480213
 20
2.0941517176
  0
LINE
  5
42B
100
AcDbEntity
  8
0
100
AcDbLine
 62
7
  6
CONTINUOUS
 10
34.150671187
 20
1.2553110821
 11
34.1607705489
 21
1.2635472372
  0
LINE
  5
42C
100
AcDbEntity
  8
ASSI
100
AcDbLine
 62
7
  6
CONTINUOUS
 10
34.150671187
 20
1.2553110821
 11
34.1607705489
 21
1.2635472372
  0
LWPOLYLINE
  5
42D
100
AcDbEntity
  8
0
100
AcDbPolyline
 62
7
  6
CONTINUOUS
 90
5
 70
0
 10
34.1093321705
 20
1.2355714491
 10
34.1197999218
 20
1.2385835092
 10
34.1301858734
 20
1.2428292181
 10
34.1404900255
 20
1.2483085758
 10
34.150671187
 20
1.2553110821
  0
LWPOLYLINE
  5
42E
100
AcDbEntity
  8
ASSI
100
AcDbPolyline
 62
7
  6
CONTINUOUS
 90
5
 70
0
 10
34.1093321705
 20
1.2355714491
 10
34.1197999218
 20
1.2385835092
 10
34.1301858734
 20
1.2428292181
 10
34.1404900255
 20
1.2483085758
 10
34.150671187
 20
1.2553110821
  0
LINE
  5
42F
100
AcDbEntity
  8
RACCORDO
100
AcDbLine
 62
7
  6
CONTINUOUS
 10
26.0101290096
 20
-2.6685009751
 11
26.0480498057
 21
-2.6684836318
  0
LINE
  5
430
100
AcDbEntity
  8
ASSI
100
AcDbLine
 62
7
  6
CONTINUOUS
 10
26.0101290096
 20
-2.6685009751
 11
26.0480498057
 21
-2.6684836318
  0
LINE
  5
431
100
AcDbEntity
  8
RACCORDO
100
AcDbLine
 62
253
  6
CONTINUOUS
 10
26.0090628183
 20
-2.1685085331
 11
26.052383132
 21
-2.1684887203
  0
LINE
  5
432
100
AcDbEntity
  8
ASSI
100
AcDbLine
 62
253
  6
CONTINUOUS
 10
26.0090628183
 20
-2.1685085331
 11
26.052383132
 21
-2.1684887203
  0
LINE
  5
433
100
AcDbEntity
  8
DRAFT
100
AcDbLine
 62
7
  6
CONTINUOUS
 10
24.9308799878
 20
-2.8666728979
 11
24.9608799878
 21
-2.8666728979
  0
LINE
  5
434
100
AcDbEntity
  8
CURVE
100
AcDbLine
 62
253
  6
CONTINUOUS
 10
38.3308799878
 20
-2.7523201094
 11
38.2975466147
 21
-2.7523201094
  0
LINE
  5
435
100
AcDbEntity
  8
DRAFT
100
AcDbLine
 62
7
  6
CONTINUOUS
 10
26.0308799878
 20
-2.6856534497
 11
26.0103220805
 21
-2.6856534497
  0
LINE
  5
436
100
AcDbEntity
  8
ASSI
100
AcDbLine
 62
7
  6
CONTINUOUS
 10
26.0308799878
 20
-2.6856534497
 11
26.0103220805
 21
-2.6856534497
  0
LINE
  5
437
100
AcDbEntity
  8
DRAFT
100
AcDbLine
 62
7
  6
CONTINUOUS
 10
25.0019989286
 20
-2.6856534497
 11
23.0308799878
 21
-2.6856534497
  0
LINE
  5
438
100
AcDbEntity
  8
ASSI
100
AcDbLine
 62
7
  6
CONTINUOUS
 10
25.0019989286
 20
-2.6856534497
 11
23.0308799878
 21
-2.6856534497
  0
LINE
  5
439
100
AcDbEntity
  8
RACCORDO
100
AcDbLine
 62
7
  6
CONTINUOUS
 10
23.0399358863
 20
-2.6765975512
 11
25.0022194975
 21
-2.6765975512
  0
LINE
  5
43A
100
AcDbEntity
  8
ASSI
100
AcDbLine
 62
7
  6
CONTINUOUS
 10
23.0399358863
 20
-2.6765975512
 11
25.0022194975
 21
-2.6765975512
  0
LINE
  5
43B
100
AcDbEntity
  8
RACCORDO
100
AcDbLine
 62
253
  6
CONTINUOUS
 10
23.0408381706
 20
-2.6467411261
 11
24.920955757
 21
-2.6467411261
  0
LINE
  5
43C
100
AcDbEntity
  8
ASSI
100
AcDbLine
 62
253
  6
CONTINUOUS
 10
23.0408381706
 20
-2.6467411261
 11
24.920955757
 21
-2.6467411261
  0
LINE
  5
43D
100
AcDbEntity
  8
SCRITTE
100
AcDbLine
 62
253
  6
CONTINUOUS
 10
43.4683799878
 20
-2.1981534497
 11
43.5121299878
 21
-2.1981534497
  0
LINE
  5
43E
100
AcDbEntity
  8
CURVE
100
AcDbLine
 62
253
  6
CONTINUOUS
 10
39.0308799878
 20
-2.185653414
 11
39.2308800593
 21
-2.185653414
  0
LINE
  5
43F
100
AcDbEntity
  8
RACCORDO
100
AcDbLine
 62
253
  6
CONTINUOUS
 10
58.4912704174
 20
-2.1706180955
 11
45.4979864092
 21
-2.1706180955
  0
LINE
  5
440
100
AcDbEntity
  8
ASSI
100
AcDbLine
 62
253
  6
CONTINUOUS
 10
58.4912704174
 20
-2.1706180955
 11
45.4979864092
 21
-2.1706180955
  0
LINE
  5
441
100
AcDbEntity
  8
RACCORDO
100
AcDbLine
 62
253
  6
CONTINUOUS
 10
24.8433490037
 20
-2.168955009
 11
25.0045176501
 21
-2.1689550076
  0
LINE
  5
442
100
AcDbEntity
  8
ASSI
100
AcDbLine
 62
253
  6
CONTINUOUS
 10
24.8433490037
 20
-2.168955009
 11
25.0045176501
 21
-2.1689550076
  0
LINE
  5
443
100
AcDbEntity
  8
0
100
AcDbLine
 62
7
  6
CONTINUOUS
 10
23.0404890743
 20
-2.0356534497
 11
13.5708904905
 21
-2.0356534497
  0
LINE
  5
444
100
AcDbEntity
  8
DRAFT
100
AcDbLine
 62
7
  6
CONTINUOUS
 10
26.0460362154
 20
-1.9897856164
 11
26.0090628183
 21
-1.9897856164
  0
LINE
  5
445
100
AcDbEntity
  8
ASSI
100
AcDbLine
 62
7
  6
CONTINUOUS
 10
26.0460362154
 20
-1.9897856164
 11
26.0090628183
 21
-1.9897856164
  0
LINE
  5
446
100
AcDbEntity
  8
DRAFT
100
AcDbLine
 62
7
  6
CONTINUOUS
 10
25.0045176501
 20
-1.9897856164
 11
24.8350121544
 21
-1.9897856164
  0
LINE
  5
447
100
AcDbEntity
  8
ASSI
100
AcDbLine
 62
7
  6
CONTINUOUS
 10
25.0045176501
 20
-1.9897856164
 11
24.8350121544
 21
-1.9897856164
  0
LINE
  5
448
100
AcDbEntity
  8
RACCORDO
100
AcDbLine
 62
253
  6
CONTINUOUS
 10
59.4455203805
 20
-1.9027697997
 11
59.1040876935
 21
-1.9027697997
  0
LINE
  5
449
100
AcDbEntity
  8
RACCORDO
100
AcDbLine
 62
253
  6
CONTINUOUS
 10
59.3907028728
 20
-1.7931347929
 11
59.2137227003
 21
-1.7931347929
  0
LINE
  5
44A
100
AcDbEntity
  8
SCRITTE
100
AcDbLine
 62
253
  6
CONTINUOUS
 10
43.5121299878
 20
-1.6731534497
 11
43.4246299878
 21
-1.6731534497
  0
LINE
  5
44B
100
AcDbEntity
  8
RACCORDO
100
AcDbLine
 62
253
  6
CONTINUOUS
 10
58.6788764297
 20
-1.5960622715
 11
58.5080857265
 21
-1.5960622715
  0
LINE
  5
44C
100
AcDbEntity
  8
ASSI
100
AcDbLine
 62
253
  6
CONTINUOUS
 10
58.6788764297
 20
-1.5960622715
 11
58.5080857265
 21
-1.5960622715
  0
LINE
  5
44D
100
AcDbEntity
  8
CURVE
100
AcDbLine
 62
253
  6
CONTINUOUS
 10
37.3308800057
 20
-1.5856534497
 11
37.2308799908
 21
-1.5856534497
  0
LINE
  5
44E
100
AcDbEntity
  8
SCRITTE
100
AcDbLine
 62
253
  6
CONTINUOUS
 10
34.1308801785
 20
-1.5856534497
 11
33.4308801785
 21
-1.5856534497
  0
LINE
  5
44F
100
AcDbEntity
  8
SCRITTE
100
AcDbLine
 62
253
  6
CONTINUOUS
 10
33.0308800355
 20
-1.5856534497
 11
32.3308800355
 21
-1.5856534497
  0
LINE
  5
450
100
AcDbEntity
  8
CURVE
100
AcDbLine
 62
253
  6
CONTINUOUS
 10
38.8308799163
 20
-1.5856534497
 11
39.2308800593
 21
-1.5856534497
  0
LINE
  5
451
100
AcDbEntity
  8
RACCORDO
100
AcDbLine
 62
253
  6
CONTINUOUS
 10
58.4872423255
 20
-1.5316470292
 11
45.4959725166
 21
-1.5316470292
  0
LINE
  5
452
100
AcDbEntity
  8
ASSI
100
AcDbLine
 62
253
  6
CONTINUOUS
 10
58.4872423255
 20
-1.5316470292
 11
45.4959725166
 21
-1.5316470292
  0
LINE
  5
453
100
AcDbEntity
  8
RACCORDO
100
AcDbLine
 62
7
  6
CONTINUOUS
 10
26.052383132
 20
-2.0024804163
 11
26.0090628183
 21
-2.0024407877
  0
LINE
  5
454
100
AcDbEntity
  8
ASSI
100
AcDbLine
 62
7
  6
CONTINUOUS
 10
26.052383132
 20
-2.0024804163
 11
26.0090628183
 21
-2.0024407877
  0
LINE
  5
455
100
AcDbEntity
  8
RACCORDO
100
AcDbLine
 62
7
  6
CONTINUOUS
 10
24.960385143
 20
-2.0012382675
 11
25.0045176501
 21
-2.0014813491
  0
LINE
  5
456
100
AcDbEntity
  8
ASSI
100
AcDbLine
 62
7
  6
CONTINUOUS
 10
24.960385143
 20
-2.0012382675
 11
25.0045176501
 21
-2.0014813491
  0
LINE
  5
457
100
AcDbEntity
  8
CURVE
100
AcDbLine
 62
253
  6
CONTINUOUS
 10
33.9308802739
 20
-0.0856534378
 11
33.7308797017
 21
0.1143465503
  0
LINE
  5
458
100
AcDbEntity
  8
CURVE
100
AcDbLine
 62
253
  6
CONTINUOUS
 10
37.0308799922
 20
-2.7856534408
 11
37.2308799908
 21
-2.9856534497
  0
LINE
  5
459
100
AcDbEntity
  8
CURVE
100
AcDbLine
 62
253
  6
CONTINUOUS
 10
34.0308798924
 20
-0.2856534259
 11
33.9308802739
 21
-0.0856534378
  0
LWPOLYLINE
  5
45A
100
AcDbEntity
  8
0
100
AcDbPolyline
 62
7
  6
CONTINUOUS
 90
6
 70
0
 10
33.9386996195
 20
0.9474999549
 10
33.9569963227
 20
0.8938074016
 10
33.97483626
 20
0.8391487949
 10
33.9922194314
 20
0.783524135
 10
34.0088891397
 20
0.7268387251
 10
34.0416283505
 20
0.6108538352
  0
LWPOLYLINE
  5
45B
100
AcDbEntity
  8
ASSI
100
AcDbPolyline
 62
7
  6
CONTINUOUS
 90
6
 70
0
 10
33.9386996195
 20
0.9474999549
 10
33.9569963227
 20
0.8938074016
 10
33.97483626
 20
0.8391487949
 10
33.9922194314
 20
0.783524135
 10
34.0088891397
 20
0.7268387251
 10
34.0416283505
 20
0.6108538352
  0
LINE
  5
45C
100
AcDbEntity
  8
0
100
AcDbLine
 62
7
  6
CONTINUOUS
 10
34.0416283505
 20
0.6108538352
 11
34.0938572029
 21
0.4320458636
  0
LINE
  5
45D
100
AcDbEntity
  8
ASSI
100
AcDbLine
 62
7
  6
CONTINUOUS
 10
34.0416283505
 20
0.6108538352
 11
34.0938572029
 21
0.4320458636
  0
LINE
  5
45E
100
AcDbEntity
  8
CURVE
100
AcDbLine
 62
253
  6
CONTINUOUS
 10
34.8308801785
 20
-1.2856534497
 11
34.4308797017
 21
0.1143465503
  0
LINE
  5
45F
100
AcDbEntity
  8
0
100
AcDbLine
 62
7
  6
CONTINUOUS
 10
34.3553385839
 20
0.7366623777
 11
34.3138592347
 21
0.8921265945
  0
LINE
  5
460
100
AcDbEntity
  8
ASSI
100
AcDbLine
 62
7
  6
CONTINUOUS
 10
34.3553385839
 20
0.7366623777
 11
34.3138592347
 21
0.8921265945
  0
LINE
  5
461
100
AcDbEntity
  8
0
100
AcDbLine
 62
7
  6
CONTINUOUS
 10
34.4351605462
 20
0.4320458636
 11
34.3553385839
 21
0.7366623777
  0
LINE
  5
462
100
AcDbEntity
  8
ASSI
100
AcDbLine
 62
7
  6
CONTINUOUS
 10
34.4351605462
 20
0.4320458636
 11
34.3553385839
 21
0.7366623777
  0
LWPOLYLINE
  5
463
100
AcDbEntity
  8
0
100
AcDbPolyline
 62
7
  6
CONTINUOUS
 90
13
 70
0
 10
34.3138592347
 20
0.8921265945
 10
34.3044875131
 20
0.9299391783
 10
34.2937106626
 20
0.966697566
 10
34.2815286832
 20
1.0024017575
 10
34.267970766
 20
1.0375828711
 10
34.2530077198
 20
1.0717097886
 10
34.2365519716
 20
1.1031891556
 10
34.2184618643
 20
1.1317770151
 10
34.1988790548
 20
1.1577173241
 10
34.178140941
 20
1.1801485996
 10
34.1563599886
 20
1.1987836805
 10
34.1334237318
 20
1.213909728
 10
34.1093321705
 20
1.2255267419
  0
LWPOLYLINE
  5
464
100
AcDbEntity
  8
ASSI
100
AcDbPolyline
 62
7
  6
CONTINUOUS
 90
13
 70
0
 10
34.3138592347
 20
0.8921265945
 10
34.3044875131
 20
0.9299391783
 10
34.2937106626
 20
0.966697566
 10
34.2815286832
 20
1.0024017575
 10
34.267970766
 20
1.0375828711
 10
34.2530077198
 20
1.0717097886
 10
34.2365519716
 20
1.1031891556
 10
34.2184618643
 20
1.1317770151
 10
34.1988790548
 20
1.1577173241
 10
34.178140941
 20
1.1801485996
 10
34.1563599886
 20
1.1987836805
 10
34.1334237318
 20
1.213909728
 10
34.1093321705
 20
1.2255267419
  0
LINE
  5
465
100
AcDbEntity
  8
CURVE
100
AcDbLine
 62
253
  6
CONTINUOUS
 10
35.5308799878
 20
1.6857751472
 11
35.5308799878
 21
1.042917998
  0
LINE
  5
466
100
AcDbEntity
  8
SCRITTE
100
AcDbLine
 62
253
  6
CONTINUOUS
 10
35.8975465909
 20
3.457365056
 11
35.8975465909
 21
3.4451474411
  0
LINE
  5
467
100
AcDbEntity
  8
CURVE
100
AcDbLine
 62
253
  6
CONTINUOUS
 10
36.2808799878
 20
1.042917998
 11
36.2808799878
 21
1.6857751472
  0
LINE
  5
468
100
AcDbEntity
  8
CURVE
100
AcDbLine
 62
253
  6
CONTINUOUS
 10
36.7094513908
 20
1.6857751472
 11
36.7094513908
 21
1.042917998
  0
LINE
  5
469
100
AcDbEntity
  8
CURVE
100
AcDbLine
 62
253
  6
CONTINUOUS
 10
36.173737137
 20
0.8286322741
 11
36.2808799878
 21
1.042917998
  0
LINE
  5
46A
100
AcDbEntity
  8
CURVE
100
AcDbLine
 62
253
  6
CONTINUOUS
 10
36.8165942863
 20
1.9000608488
 11
36.7094513908
 21
1.6857751472
  0
LINE
  5
46B
100
AcDbEntity
  8
CURVE
100
AcDbLine
 62
253
  6
CONTINUOUS
 10
37.0308799878
 20
2.1143465503
 11
36.8165942863
 21
1.9000608488
  0
LINE
  5
46C
100
AcDbEntity
  8
CURVE
100
AcDbLine
 62
253
  6
CONTINUOUS
 10
33.7308797017
 20
-1.2856534497
 11
33.9308802739
 21
-1.0856534408
  0
LINE
  5
46D
100
AcDbEntity
  8
CURVE
100
AcDbLine
 62
253
  6
CONTINUOUS
 10
35.9594514355
 20
0.6143465503
 11
36.173737137
 21
0.8286322741
  0
LINE
  5
46E
100
AcDbEntity
  8
CURVE
100
AcDbLine
 62
253
  6
CONTINUOUS
 10
37.8880227938
 20
1.9000608488
 11
38.1023085847
 21
2.1143465503
  0
LINE
  5
46F
100
AcDbEntity
  8
CURVE
100
AcDbLine
 62
253
  6
CONTINUOUS
 10
37.1380227938
 20
0.6143465503
 11
37.3523085847
 21
0.8286322741
  0
LINE
  5
470
100
AcDbEntity
  8
CURVE
100
AcDbLine
 62
253
  6
CONTINUOUS
 10
32.7308798447
 20
-1.2856534497
 11
32.3308800355
 21
-1.2856534497
  0
LINE
  5
471
100
AcDbEntity
  8
CURVE
100
AcDbLine
 62
253
  6
CONTINUOUS
 10
29.4308799163
 20
-1.2856534497
 11
29.5308800355
 21
-1.2856534497
  0
LINE
  5
472
100
AcDbEntity
  8
CURVE
100
AcDbLine
 62
253
  6
CONTINUOUS
 10
31.2308798924
 20
-1.2856534497
 11
31.9308798924
 21
-1.2856534497
  0
LINE
  5
473
100
AcDbEntity
  8
CURVE
100
AcDbLine
 62
253
  6
CONTINUOUS
 10
33.6308800831
 20
-1.2856534497
 11
33.7308797017
 21
-1.2856534497
  0
LINE
  5
474
100
AcDbEntity
  8
RACCORDO
100
AcDbLine
 62
253
  6
CONTINUOUS
 10
58.6902452959
 20
-0.8877331787
 11
58.5029518839
 21
-0.8877331787
  0
LINE
  5
475
100
AcDbEntity
  8
ASSI
100
AcDbLine
 62
253
  6
CONTINUOUS
 10
58.6902452959
 20
-0.8877331787
 11
58.5029518839
 21
-0.8877331787
  0
LINE
  5
476
100
AcDbEntity
  8
CURVE
100
AcDbLine
 62
253
  6
CONTINUOUS
 10
30.8308800831
 20
-0.7856534378
 11
30.2308800355
 21
-0.7856534378
  0
LINE
  5
477
100
AcDbEntity
  8
ASSI
100
AcDbLine
 62
7
  6
CONTINUOUS
 10
50.8308799878
 20
-0.7856534497
 11
51.8891805122
 21
-0.7856534497
  0
LINE
  5
478
100
AcDbEntity
  8
0
100
AcDbLine
 62
7
  6
CONTINUOUS
 10
23.0404894249
 20
-0.5356534497
 11
13.5708904905
 21
-0.5356534497
  0
LINE
  5
479
100
AcDbEntity
  8
CURVE
100
AcDbLine
 62
253
  6
CONTINUOUS
 10
32.3308800355
 20
-0.485653414
 11
32.7308798447
 21
-0.485653414
  0
LINE
  5
47A
100
AcDbEntity
  8
DRAFT
100
AcDbLine
 62
7
  6
CONTINUOUS
 10
26.0443979025
 20
-0.2856534497
 11
26.0090628183
 21
-0.2856534497
  0
LINE
  5
47B
100
AcDbEntity
  8
ASSI
100
AcDbLine
 62
7
  6
CONTINUOUS
 10
26.0443979025
 20
-0.2856534497
 11
26.0090628183
 21
-0.2856534497
  0
LINE
  5
47C
100
AcDbEntity
  8
DRAFT
100
AcDbLine
 62
7
  6
CONTINUOUS
 10
25.0045176501
 20
-0.2856534497
 11
23.0443979025
 21
-0.2856534497
  0
LINE
  5
47D
100
AcDbEntity
  8
ASSI
100
AcDbLine
 62
7
  6
CONTINUOUS
 10
25.0045176501
 20
-0.2856534497
 11
23.0443979025
 21
-0.2856534497
  0
LINE
  5
47E
100
AcDbEntity
  8
0
100
AcDbLine
 62
7
  6
CONTINUOUS
 10
23.0404894249
 20
-0.0356534497
 11
13.5708904905
 21
-0.0356534497
  0
LINE
  5
47F
100
AcDbEntity
  8
CURVE
100
AcDbLine
 62
253
  6
CONTINUOUS
 10
33.7308797017
 20
0.1143465503
 11
33.6308800831
 21
0.1143465503
  0
LINE
  5
480
100
AcDbEntity
  8
CURVE
100
AcDbLine
 62
253
  6
CONTINUOUS
 10
32.9308800831
 20
0.1143465503
 11
32.3308800355
 21
0.1143465503
  0
LINE
  5
481
100
AcDbEntity
  8
CURVE
100
AcDbLine
 62
253
  6
CONTINUOUS
 10
29.5308800355
 20
0.1143465503
 11
29.4308799163
 21
0.1143465503
  0
LINE
  5
482
100
AcDbEntity
  8
CURVE
100
AcDbLine
 62
253
  6
CONTINUOUS
 10
31.4308801308
 20
0.1143465503
 11
31.7308799878
 21
0.1143465503
  0
LINE
  5
483
100
AcDbEntity
  8
SCRITTE
100
AcDbLine
 62
253
  6
CONTINUOUS
 10
43.6871299878
 20
-1.7169034497
 11
43.5121299878
 21
-1.6731534497
  0
LINE
  5
484
100
AcDbEntity
  8
SCRITTE
100
AcDbLine
 62
253
  6
CONTINUOUS
 10
43.2496299878
 20
-2.9419034497
 11
43.3808799878
 21
-2.9856534497
  0
LINE
  5
485
100
AcDbEntity
  8
SCRITTE
100
AcDbLine
 62
253
  6
CONTINUOUS
 10
43.3371299878
 20
-2.1544034497
 11
43.4683799878
 21
-2.1981534497
  0
LINE
  5
486
100
AcDbEntity
  8
CURVE
100
AcDbLine
 62
253
  6
CONTINUOUS
 10
36.1308798924
 20
-0.9523201154
 11
35.8642135754
 21
-0.7523201065
  0
LINE
  5
487
100
AcDbEntity
  8
CURVE
100
AcDbLine
 62
253
  6
CONTINUOUS
 10
38.230879952
 20
-2.8856534453
 11
38.2642133251
 21
-2.9189867818
  0
LINE
  5
488
100
AcDbEntity
  8
CURVE
100
AcDbLine
 62
253
  6
CONTINUOUS
 10
37.5308799937
 20
-1.7856534378
 11
37.3308800057
 21
-1.5856534497
  0
LINE
  5
489
100
AcDbEntity
  8
CURVE
100
AcDbLine
 62
253
  6
CONTINUOUS
 10
35.6380228497
 20
0.8286322741
 11
35.8523085624
 21
0.6143465503
  0
LINE
  5
48A
100
AcDbEntity
  8
CURVE
100
AcDbLine
 62
253
  6
CONTINUOUS
 10
36.9308799878
 20
-2.5856534318
 11
37.0308799922
 21
-2.7856534408
  0
LINE
  5
48B
100
AcDbEntity
  8
CURVE
100
AcDbLine
 62
253
  6
CONTINUOUS
 10
35.5308799878
 20
1.042917998
 11
35.6380228497
 21
0.8286322741
  0
LINE
  5
48C
100
AcDbEntity
  8
CURVE
100
AcDbLine
 62
253
  6
CONTINUOUS
 10
37.6308799878
 20
-1.9856534259
 11
37.5308799937
 21
-1.7856534378
  0
LINE
  5
48D
100
AcDbEntity
  8
CURVE
100
AcDbLine
 62
253
  6
CONTINUOUS
 10
36.9308799878
 20
-1.9856534259
 11
36.9308799878
 21
-2.5856534318
  0
LINE
  5
48E
100
AcDbEntity
  8
SCRITTE
100
AcDbLine
 62
253
  6
CONTINUOUS
 10
37.397546877
 20
3.4556196826
 11
37.397546877
 21
3.4468928148
  0
LINE
  5
48F
100
AcDbEntity
  8
CURVE
100
AcDbLine
 62
253
  6
CONTINUOUS
 10
37.4594513908
 20
1.042917998
 11
37.4594513908
 21
1.6857751472
  0
LINE
  5
490
100
AcDbEntity
  8
CURVE
100
AcDbLine
 62
253
  6
CONTINUOUS
 10
37.6308799878
 20
-2.5856534318
 11
37.6308799878
 21
-1.9856534259
  0
LINE
  5
491
100
AcDbEntity
  8
CURVE
100
AcDbLine
 62
253
  6
CONTINUOUS
 10
37.8880227938
 20
1.4714894457
 11
37.8880227938
 21
1.9000608488
  0
LINE
  5
492
100
AcDbEntity
  8
CURVE
100
AcDbLine
 62
253
  6
CONTINUOUS
 10
38.230879952
 20
-2.8523201139
 11
38.230879952
 21
-2.8856534453
  0
LINE
  5
493
100
AcDbEntity
  8
CURVE
100
AcDbLine
 62
253
  6
CONTINUOUS
 10
38.3642133608
 20
-2.8523201139
 11
38.3642133608
 21
-2.8189867826
  0
LINE
  5
494
100
AcDbEntity
  8
CURVE
100
AcDbLine
 62
253
  6
CONTINUOUS
 10
38.6380227938
 20
1.4714894457
 11
38.5308799878
 21
1.042917998
  0
LINE
  5
495
100
AcDbEntity
  8
CURVE
100
AcDbLine
 62
253
  6
CONTINUOUS
 10
37.3523085847
 20
0.8286322741
 11
37.4594513908
 21
1.042917998
  0
LINE
  5
496
100
AcDbEntity
  8
CURVE
100
AcDbLine
 62
253
  6
CONTINUOUS
 10
37.0308799922
 20
-1.7856534378
 11
36.9308799878
 21
-1.9856534259
  0
LINE
  5
497
100
AcDbEntity
  8
CURVE
100
AcDbLine
 62
253
  6
CONTINUOUS
 10
38.5308799878
 20
1.042917998
 11
38.1023085847
 21
0.6143465503
  0
LINE
  5
498
100
AcDbEntity
  8
CURVE
100
AcDbLine
 62
253
  6
CONTINUOUS
 10
37.2308799908
 20
-1.5856534497
 11
37.0308799922
 21
-1.7856534378
  0
LINE
  5
499
100
AcDbEntity
  8
CURVE
100
AcDbLine
 62
253
  6
CONTINUOUS
 10
40.3523084059
 20
1.4714894457
 11
40.1380227938
 21
1.2572036995
  0
LINE
  5
49A
100
AcDbEntity
  8
CURVE
100
AcDbLine
 62
253
  6
CONTINUOUS
 10
39.7094515696
 20
0.7214894122
 11
39.6023084059
 21
0.6143465503
  0
LINE
  5
49B
100
AcDbEntity
  8
CURVE
100
AcDbLine
 62
253
  6
CONTINUOUS
 10
40.8165941373
 20
1.5786322518
 11
40.6737371817
 21
1.4714894457
  0
LINE
  5
49C
100
AcDbEntity
  8
CURVE
100
AcDbLine
 62
253
  6
CONTINUOUS
 10
39.6737370625
 20
1.5786322518
 11
39.4951655999
 21
1.4714894457
  0
LINE
  5
49D
100
AcDbEntity
  8
CURVE
100
AcDbLine
 62
253
  6
CONTINUOUS
 10
35.8642135754
 20
-0.7523201065
 11
35.630879797
 21
-0.8523201005
  0
LINE
  5
49E
100
AcDbEntity
  8
CURVE
100
AcDbLine
 62
253
  6
CONTINUOUS
 10
36.397546877
 20
-0.8523201005
 11
36.1308798924
 21
-0.9523201154
  0
LWPOLYLINE
  5
49F
100
AcDbEntity
  8
RACCORDO
100
AcDbPolyline
 62
7
  6
CONTINUOUS
 90
7
 70
0
 10
24.8994561568
 20
1.4291798018
 10
24.883383821
 20
1.4288486551
 10
24.8695356658
 20
1.4284800025
 10
24.858544796
 20
1.4280906835
 10
24.8506222465
 20
1.4276863109
 10
24.8455569824
 20
1.4272612719
 10
24.8433490037
 20
1.4268155662
  0
LWPOLYLINE
  5
4A0
100
AcDbEntity
  8
ASSI
100
AcDbPolyline
 62
7
  6
CONTINUOUS
 90
7
 70
0
 10
24.8994561568
 20
1.4291798018
 10
24.883383821
 20
1.4288486551
 10
24.8695356658
 20
1.4284800025
 10
24.858544796
 20
1.4280906835
 10
24.8506222465
 20
1.4276863109
 10
24.8455569824
 20
1.4272612719
 10
24.8433490037
 20
1.4268155662
  0
LINE
  5
4A1
100
AcDbEntity
  8
RACCORDO
100
AcDbLine
 62
7
  6
CONTINUOUS
 10
24.9384794783
 20
1.4297260935
 11
24.8994561568
 21
1.4291798018
  0
LINE
  5
4A2
100
AcDbEntity
  8
ASSI
100
AcDbLine
 62
7
  6
CONTINUOUS
 10
24.9384794783
 20
1.4297260935
 11
24.8994561568
 21
1.4291798018
  0
LWPOLYLINE
  5
4A3
100
AcDbEntity
  8
RACCORDO
100
AcDbPolyline
 62
7
  6
CONTINUOUS
 90
3
 70
0
 10
25.0045176501
 20
1.4301744496
 10
24.9832586322
 20
1.4300836532
 10
24.9384794783
 20
1.4297260935
  0
LWPOLYLINE
  5
4A4
100
AcDbEntity
  8
ASSI
100
AcDbPolyline
 62
7
  6
CONTINUOUS
 90
3
 70
0
 10
25.0045176501
 20
1.4301744496
 10
24.9832586322
 20
1.4300836532
 10
24.9384794783
 20
1.4297260935
  0
LINE
  5
4A5
100
AcDbEntity
  8
RACCORDO
100
AcDbLine
 62
7
  6
CONTINUOUS
 10
26.052383132
 20
1.4311735168
 11
26.0090628183
 21
1.4311338882
  0
LINE
  5
4A6
100
AcDbEntity
  8
ASSI
100
AcDbLine
 62
7
  6
CONTINUOUS
 10
26.052383132
 20
1.4311735168
 11
26.0090628183
 21
1.4311338882
  0
LINE
  5
4A7
100
AcDbEntity
  8
ASSI
100
AcDbLine
 62
7
  6
CONTINUOUS
 10
50.8308799878
 20
0.2143465503
 11
51.8891805122
 21
0.2143465503
  0
LINE
  5
4A8
100
AcDbEntity
  8
RACCORDO
100
AcDbLine
 62
253
  6
CONTINUOUS
 10
58.5029518839
 20
0.3164262792
 11
58.6902452959
 21
0.3164262792
  0
LINE
  5
4A9
100
AcDbEntity
  8
ASSI
100
AcDbLine
 62
253
  6
CONTINUOUS
 10
58.5029518839
 20
0.3164262792
 11
58.6902452959
 21
0.3164262792
  0
LINE
  5
4AA
100
AcDbEntity
  8
0
100
AcDbLine
 62
7
  6
CONTINUOUS
 10
28.3786039878
 20
0.4320455503
 11
28.6912959878
 21
0.4320455503
  0
LINE
  5
4AB
100
AcDbEntity
  8
ASSI
100
AcDbLine
 62
7
  6
CONTINUOUS
 10
28.3786039878
 20
0.4320455503
 11
28.6912959878
 21
0.4320455503
  0
LINE
  5
4AC
100
AcDbEntity
  8
0
100
AcDbLine
 62
7
  6
CONTINUOUS
 10
29.3693779878
 20
0.4320455503
 11
29.7242059878
 21
0.4320455503
  0
LINE
  5
4AD
100
AcDbEntity
  8
ASSI
100
AcDbLine
 62
7
  6
CONTINUOUS
 10
29.3693779878
 20
0.4320455503
 11
29.7242059878
 21
0.4320455503
  0
LINE
  5
4AE
100
AcDbEntity
  8
0
100
AcDbLine
 62
7
  6
CONTINUOUS
 10
29.9152209878
 20
0.4320455503
 11
30.2546759878
 21
0.4320455503
  0
LINE
  5
4AF
100
AcDbEntity
  8
ASSI
100
AcDbLine
 62
7
  6
CONTINUOUS
 10
29.9152209878
 20
0.4320455503
 11
30.2546759878
 21
0.4320455503
  0
LINE
  5
4B0
100
AcDbEntity
  8
0
100
AcDbLine
 62
7
  6
CONTINUOUS
 10
30.7475039878
 20
0.4320455503
 11
30.7972679878
 21
0.4320455503
  0
LINE
  5
4B1
100
AcDbEntity
  8
ASSI
100
AcDbLine
 62
7
  6
CONTINUOUS
 10
30.7475039878
 20
0.4320455503
 11
30.7972679878
 21
0.4320455503
  0
LINE
  5
4B2
100
AcDbEntity
  8
0
100
AcDbLine
 62
7
  6
CONTINUOUS
 10
31.2920599878
 20
0.4320455503
 11
31.6391759878
 21
0.4320455503
  0
LINE
  5
4B3
100
AcDbEntity
  8
ASSI
100
AcDbLine
 62
7
  6
CONTINUOUS
 10
31.2920599878
 20
0.4320455503
 11
31.6391759878
 21
0.4320455503
  0
LINE
  5
4B4
100
AcDbEntity
  8
0
100
AcDbLine
 62
7
  6
CONTINUOUS
 10
31.6948929878
 20
0.4320455503
 11
32.0458709878
 21
0.4320455503
  0
LINE
  5
4B5
100
AcDbEntity
  8
ASSI
100
AcDbLine
 62
7
  6
CONTINUOUS
 10
31.6948929878
 20
0.4320455503
 11
32.0458709878
 21
0.4320455503
  0
LINE
  5
4B6
100
AcDbEntity
  8
0
100
AcDbLine
 62
7
  6
CONTINUOUS
 10
32.7189179878
 20
0.4320455503
 11
33.0928919878
 21
0.4320455503
  0
LINE
  5
4B7
100
AcDbEntity
  8
ASSI
100
AcDbLine
 62
7
  6
CONTINUOUS
 10
32.7189179878
 20
0.4320455503
 11
33.0928919878
 21
0.4320455503
  0
LINE
  5
4B8
100
AcDbEntity
  8
0
100
AcDbLine
 62
7
  6
CONTINUOUS
 10
33.1970866517
 20
0.4320458636
 11
33.5504869838
 21
0.4320458636
  0
LINE
  5
4B9
100
AcDbEntity
  8
ASSI
100
AcDbLine
 62
7
  6
CONTINUOUS
 10
33.1970866517
 20
0.4320458636
 11
33.5504869838
 21
0.4320458636
  0
LINE
  5
4BA
100
AcDbEntity
  8
0
100
AcDbLine
 62
7
  6
CONTINUOUS
 10
34.0938572029
 20
0.4320458636
 11
34.4351605462
 21
0.4320458636
  0
LINE
  5
4BB
100
AcDbEntity
  8
ASSI
100
AcDbLine
 62
7
  6
CONTINUOUS
 10
34.0938572029
 20
0.4320458636
 11
34.4351605462
 21
0.4320458636
  0
LINE
  5
4BC
100
AcDbEntity
  8
CURVE
100
AcDbLine
 62
253
  6
CONTINUOUS
 10
39.6023084059
 20
0.6143465503
 11
39.0665943757
 21
0.6143465503
  0
LINE
  5
4BD
100
AcDbEntity
  8
CURVE
100
AcDbLine
 62
253
  6
CONTINUOUS
 10
35.8523085624
 20
0.6143465503
 11
35.9594514355
 21
0.6143465503
  0
LINE
  5
4BE
100
AcDbEntity
  8
CURVE
100
AcDbLine
 62
253
  6
CONTINUOUS
 10
37.0308799878
 20
0.6143465503
 11
37.1380227938
 21
0.6143465503
  0
LINE
  5
4BF
100
AcDbEntity
  8
CURVE
100
AcDbLine
 62
253
  6
CONTINUOUS
 10
40.3523084059
 20
0.6143465503
 11
40.6737371817
 21
0.6143465503
  0
LINE
  5
4C0
100
AcDbEntity
  8
CURVE
100
AcDbLine
 62
253
  6
CONTINUOUS
 10
41.5665941373
 20
0.685775123
 11
41.6380231515
 21
0.685775123
  0
LINE
  5
4C1
100
AcDbEntity
  8
0
100
AcDbLine
 62
7
  6
CONTINUOUS
 10
32.1437819878
 20
0.7713985503
 11
32.6269989878
 21
0.7713985503
  0
LINE
  5
4C2
100
AcDbEntity
  8
ASSI
100
AcDbLine
 62
7
  6
CONTINUOUS
 10
32.1437819878
 20
0.7713985503
 11
32.6269989878
 21
0.7713985503
  0
LINE
  5
4C3
100
AcDbEntity
  8
CURVE
100
AcDbLine
 62
253
  6
CONTINUOUS
 10
41.6380231515
 20
0.8643465577
 11
41.5665941373
 21
0.8643465577
  0
LINE
  5
4C4
100
AcDbEntity
  8
RACCORDO
100
AcDbLine
 62
253
  6
CONTINUOUS
 10
45.4959725166
 20
0.9603401297
 11
58.4872423255
 21
0.9603401297
  0
LINE
  5
4C5
100
AcDbEntity
  8
ASSI
100
AcDbLine
 62
253
  6
CONTINUOUS
 10
45.4959725166
 20
0.9603401297
 11
58.4872423255
 21
0.9603401297
  0
LINE
  5
4C6
100
AcDbEntity
  8
RACCORDO
100
AcDbLine
 62
253
  6
CONTINUOUS
 10
58.5080857265
 20
1.0247553721
 11
58.6788764297
 21
1.0247553721
  0
LINE
  5
4C7
100
AcDbEntity
  8
ASSI
100
AcDbLine
 62
253
  6
CONTINUOUS
 10
58.5080857265
 20
1.0247553721
 11
58.6788764297
 21
1.0247553721
  0
LINE
  5
4C8
100
AcDbEntity
  8
0
100
AcDbLine
 62
7
  6
CONTINUOUS
 10
32.5560859878
 20
1.0339885503
 11
32.2163639878
 21
1.0339885503
  0
LINE
  5
4C9
100
AcDbEntity
  8
ASSI
100
AcDbLine
 62
7
  6
CONTINUOUS
 10
32.5560859878
 20
1.0339885503
 11
32.2163639878
 21
1.0339885503
  0
LINE
  5
4CA
100
AcDbEntity
  8
CURVE
100
AcDbLine
 62
253
  6
CONTINUOUS
 10
42.8880226746
 20
1.042917998
 11
42.3165941373
 21
1.042917998
  0
LINE
  5
4CB
100
AcDbEntity
  8
0
100
AcDbLine
 62
7
  6
CONTINUOUS
 10
33.5504869838
 20
1.0972782662
 11
33.7407373068
 21
1.0972782662
  0
LINE
  5
4CC
100
AcDbEntity
  8
ASSI
100
AcDbLine
 62
7
  6
CONTINUOUS
 10
33.5504869838
 20
1.0972782662
 11
33.7407373068
 21
1.0972782662
  0
LINE
  5
4CD
100
AcDbEntity
  8
RACCORDO
100
AcDbLine
 62
253
  6
CONTINUOUS
 10
59.2137227003
 20
1.2218278934
 11
59.3907028728
 21
1.2218278934
  0
LINE
  5
4CE
100
AcDbEntity
  8
CURVE
100
AcDbLine
 62
253
  6
CONTINUOUS
 10
38.5665941373
 20
1.2572036995
 11
38.1023085847
 21
1.2572036995
  0
LINE
  5
4CF
100
AcDbEntity
  8
RACCORDO
100
AcDbLine
 62
253
  6
CONTINUOUS
 10
59.1040876935
 20
1.3314629002
 11
59.4455204092
 21
1.3314629002
  0
LINE
  5
4D0
100
AcDbEntity
  8
0
100
AcDbLine
 62
7
  6
CONTINUOUS
 10
33.7415021322
 20
1.3756747188
 11
33.5387214194
 21
1.3756747188
  0
LINE
  5
4D1
100
AcDbEntity
  8
ASSI
100
AcDbLine
 62
7
  6
CONTINUOUS
 10
33.7415021322
 20
1.3756747188
 11
33.5387214194
 21
1.3756747188
  0
LINE
  5
4D2
100
AcDbEntity
  8
DRAFT
100
AcDbLine
 62
7
  6
CONTINUOUS
 10
26.0460362154
 20
1.4184787169
 11
26.0090628183
 21
1.4184787169
  0
LINE
  5
4D3
100
AcDbEntity
  8
ASSI
100
AcDbLine
 62
7
  6
CONTINUOUS
 10
26.0460362154
 20
1.4184787169
 11
26.0090628183
 21
1.4184787169
  0
LINE
  5
4D4
100
AcDbEntity
  8
DRAFT
100
AcDbLine
 62
7
  6
CONTINUOUS
 10
25.0045176501
 20
1.4184787169
 11
24.8350121544
 21
1.4184787169
  0
LINE
  5
4D5
100
AcDbEntity
  8
ASSI
100
AcDbLine
 62
7
  6
CONTINUOUS
 10
25.0045176501
 20
1.4184787169
 11
24.8350121544
 21
1.4184787169
  0
LINE
  5
4D6
100
AcDbEntity
  8
0
100
AcDbLine
 62
7
  6
CONTINUOUS
 10
23.0404890743
 20
1.4643465503
 11
13.5708904905
 21
1.4643465503
  0
LINE
  5
4D7
100
AcDbEntity
  8
CURVE
100
AcDbLine
 62
253
  6
CONTINUOUS
 10
40.6737371817
 20
1.4714894457
 11
40.3523084059
 21
1.4714894457
  0
LINE
  5
4D8
100
AcDbEntity
  8
CURVE
100
AcDbLine
 62
253
  6
CONTINUOUS
 10
39.2808799878
 20
1.4714894457
 11
39.4951655999
 21
1.4714894457
  0
LINE
  5
4D9
100
AcDbEntity
  8
RACCORDO
100
AcDbLine
 62
253
  6
CONTINUOUS
 10
24.8433490037
 20
1.5976481096
 11
25.0045176501
 21
1.5976481107
  0
LINE
  5
4DA
100
AcDbEntity
  8
ASSI
100
AcDbLine
 62
253
  6
CONTINUOUS
 10
24.8433490037
 20
1.5976481096
 11
25.0045176501
 21
1.5976481107
  0
LINE
  5
4DB
100
AcDbEntity
  8
RACCORDO
100
AcDbLine
 62
253
  6
CONTINUOUS
 10
45.4979864092
 20
1.5993111961
 11
58.4912704174
 21
1.5993111961
  0
LINE
  5
4DC
100
AcDbEntity
  8
ASSI
100
AcDbLine
 62
253
  6
CONTINUOUS
 10
45.4979864092
 20
1.5993111961
 11
58.4912704174
 21
1.5993111961
  0
LINE
  5
4DD
100
AcDbEntity
  8
RACCORDO
100
AcDbLine
 62
253
  6
CONTINUOUS
 10
26.0090628183
 20
1.5972016336
 11
26.052383132
 21
1.5971818208
  0
LINE
  5
4DE
100
AcDbEntity
  8
ASSI
100
AcDbLine
 62
253
  6
CONTINUOUS
 10
26.0090628183
 20
1.5972016336
 11
26.052383132
 21
1.5971818208
  0
LWPOLYLINE
  5
4DF
100
AcDbEntity
  8
0
100
AcDbPolyline
 62
7
  6
CONTINUOUS
 90
10
 70
0
 10
33.7407373068
 20
1.0972782662
 10
33.7692817867
 20
1.0949547901
 10
33.7964525047
 20
1.088717171
 10
33.8222494607
 20
1.0785654088
 10
33.8470238615
 20
1.064053499
 10
33.8704245005
 20
1.0456274461
 10
33.8913977577
 20
1.0246252639
 10
33.9095924266
 20
1.0014929569
 10
33.9253597139
 20
0.9757845206
 10
33.9386996195
 20
0.9474999549
  0
LWPOLYLINE
  5
4E0
100
AcDbEntity
  8
ASSI
100
AcDbPolyline
 62
7
  6
CONTINUOUS
 90
10
 70
0
 10
33.7407373068
 20
1.0972782662
 10
33.7692817867
 20
1.0949547901
 10
33.7964525047
 20
1.088717171
 10
33.8222494607
 20
1.0785654088
 10
33.8470238615
 20
1.064053499
 10
33.8704245005
 20
1.0456274461
 10
33.8913977577
 20
1.0246252639
 10
33.9095924266
 20
1.0014929569
 10
33.9253597139
 20
0.9757845206
 10
33.9386996195
 20
0.9474999549
  0
LWPOLYLINE
  5
4E1
100
AcDbEntity
  8
0
100
AcDbPolyline
 62
7
  6
CONTINUOUS
 90
13
 70
0
 10
33.816697218
 20
1.8523266672
 10
33.8460101735
 20
1.8467446146
 10
33.8731745346
 20
1.8387409722
 10
33.8981903012
 20
1.8283157399
 10
33.9211228087
 20
1.8153954582
 10
33.9419067217
 20
1.8000535866
 10
33.9603460344
 20
1.7825105038
 10
33.9765317385
 20
1.7625298419
 10
33.9903728423
 20
1.7403479689
 10
34.001400365
 20
1.7168943671
 10
34.0094579798
 20
1.692478864
 10
34.0147020135
 20
1.6667916321
 10
34.0171324662
 20
1.6398326715
  0
LWPOLYLINE
  5
4E2
100
AcDbEntity
  8
ASSI
100
AcDbPolyline
 62
7
  6
CONTINUOUS
 90
13
 70
0
 10
33.816697218
 20
1.8523266672
 10
33.8460101735
 20
1.8467446146
 10
33.8731745346
 20
1.8387409722
 10
33.8981903012
 20
1.8283157399
 10
33.9211228087
 20
1.8153954582
 10
33.9419067217
 20
1.8000535866
 10
33.9603460344
 20
1.7825105038
 10
33.9765317385
 20
1.7625298419
 10
33.9903728423
 20
1.7403479689
 10
34.001400365
 20
1.7168943671
 10
34.0094579798
 20
1.692478864
 10
34.0147020135
 20
1.6667916321
 10
34.0171324662
 20
1.6398326715
  0
LWPOLYLINE
  5
4E3
100
AcDbEntity
  8
0
100
AcDbPolyline
 62
7
  6
CONTINUOUS
 90
13
 70
0
 10
34.0727480213
 20
2.0941517176
 10
34.0136460911
 20
2.1124914619
 10
33.9518319434
 20
2.127553801
 10
33.8873055783
 20
2.1393387349
 10
33.8199719594
 20
2.1477600739
 10
33.7499261231
 20
2.1529040078
 10
33.6774531784
 20
2.1550291058
 10
33.602467784
 20
2.1539568408
 10
33.5250552812
 20
2.1498657399
 10
33.4457568032
 20
2.1435499536
 10
33.3647527279
 20
2.1352741986
 10
33.2818626774
 20
2.1247737583
 10
33.1970866517
 20
2.1120486324
  0
LWPOLYLINE
  5
4E4
100
AcDbEntity
  8
ASSI
100
AcDbPolyline
 62
7
  6
CONTINUOUS
 90
13
 70
0
 10
34.0727480213
 20
2.0941517176
 10
34.0136460911
 20
2.1124914619
 10
33.9518319434
 20
2.127553801
 10
33.8873055783
 20
2.1393387349
 10
33.8199719594
 20
2.1477600739
 10
33.7499261231
 20
2.1529040078
 10
33.6774531784
 20
2.1550291058
 10
33.602467784
 20
2.1539568408
 10
33.5250552812
 20
2.1498657399
 10
33.4457568032
 20
2.1435499536
 10
33.3647527279
 20
2.1352741986
 10
33.2818626774
 20
2.1247737583
 10
33.1970866517
 20
2.1120486324
  0
LINE
  5
4E5
100
AcDbEntity
  8
SCRITTE
100
AcDbLine
 62
253
  6
CONTINUOUS
 10
43.8183799878
 20
-1.7606534497
 11
43.6871299878
 21
-1.7169034497
  0
LINE
  5
4E6
100
AcDbEntity
  8
SCRITTE
100
AcDbLine
 62
253
  6
CONTINUOUS
 10
43.1621299878
 20
-2.8981534497
 11
43.2496299878
 21
-2.9419034497
  0
LINE
  5
4E7
100
AcDbEntity
  8
SCRITTE
100
AcDbLine
 62
253
  6
CONTINUOUS
 10
43.2496299878
 20
-2.1106534497
 11
43.3371299878
 21
-2.1544034497
  0
LINE
  5
4E8
100
AcDbEntity
  8
SCRITTE
100
AcDbLine
 62
253
  6
CONTINUOUS
 10
43.9058799878
 20
-1.8044034497
 11
43.8183799878
 21
-1.7606534497
  0
LINE
  5
4E9
100
AcDbEntity
  8
CURVE
100
AcDbLine
 62
253
  6
CONTINUOUS
 10
39.2308800593
 20
-2.185653414
 11
39.4308799639
 21
-2.3856534438
  0
LINE
  5
4EA
100
AcDbEntity
  8
CURVE
100
AcDbLine
 62
253
  6
CONTINUOUS
 10
36.8165942863
 20
0.8286322741
 11
37.0308799878
 21
0.6143465503
  0
LINE
  5
4EB
100
AcDbEntity
  8
CURVE
100
AcDbLine
 62
253
  6
CONTINUOUS
 10
36.173737137
 20
1.9000608488
 11
35.9594514355
 21
2.1143465503
  0
LINE
  5
4EC
100
AcDbEntity
  8
CURVE
100
AcDbLine
 62
253
  6
CONTINUOUS
 10
39.2308800593
 20
-1.5856534497
 11
39.3975465909
 21
-1.7856534378
  0
LINE
  5
4ED
100
AcDbEntity
  8
CURVE
100
AcDbLine
 62
253
  6
CONTINUOUS
 10
38.3642133608
 20
-2.8189867826
 11
38.3308799878
 21
-2.7523201094
  0
LINE
  5
4EE
100
AcDbEntity
  8
CURVE
100
AcDbLine
 62
253
  6
CONTINUOUS
 10
36.2808799878
 20
1.6857751472
 11
36.173737137
 21
1.9000608488
  0
LINE
  5
4EF
100
AcDbEntity
  8
CURVE
100
AcDbLine
 62
253
  6
CONTINUOUS
 10
36.7094513908
 20
1.042917998
 11
36.8165942863
 21
0.8286322741
  0
LINE
  5
4F0
100
AcDbEntity
  8
CURVE
100
AcDbLine
 62
253
  6
CONTINUOUS
 10
37.4594513908
 20
1.6857751472
 11
37.3523085847
 21
1.9000608488
  0
LINE
  5
4F1
100
AcDbEntity
  8
SCRITTE
100
AcDbLine
 62
253
  6
CONTINUOUS
 10
38.5642130986
 20
3.457365056
 11
38.5642130986
 21
3.4451474411
  0
LINE
  5
4F2
100
AcDbEntity
  8
CURVE
100
AcDbLine
 62
253
  6
CONTINUOUS
 10
38.6380227938
 20
1.9000608488
 11
38.6380227938
 21
1.4714894457
  0
LINE
  5
4F3
100
AcDbEntity
  8
SCRITTE
100
AcDbLine
 62
253
  6
CONTINUOUS
 10
39.2642130986
 20
3.4451474411
 11
39.2642130986
 21
3.457365056
  0
LINE
  5
4F4
100
AcDbEntity
  8
CURVE
100
AcDbLine
 62
253
  6
CONTINUOUS
 10
39.3975465909
 20
-1.7856534378
 11
39.3975465909
 21
-2.0856534617
  0
LINE
  5
4F5
100
AcDbEntity
  8
CURVE
100
AcDbLine
 62
253
  6
CONTINUOUS
 10
39.4308799639
 20
-2.3856534438
 11
39.4308799639
 21
-2.8856534453
  0
LINE
  5
4F6
100
AcDbEntity
  8
CURVE
100
AcDbLine
 62
253
  6
CONTINUOUS
 10
39.6737370625
 20
1.9000608488
 11
39.6737370625
 21
1.5786322518
  0
LINE
  5
4F7
100
AcDbEntity
  8
CURVE
100
AcDbLine
 62
253
  6
CONTINUOUS
 10
39.7094515696
 20
1.2572036995
 11
39.7094515696
 21
0.7214894122
  0
LINE
  5
4F8
100
AcDbEntity
  8
CURVE
100
AcDbLine
 62
253
  6
CONTINUOUS
 10
38.3308799878
 20
-2.9523201158
 11
38.3642133608
 21
-2.8523201139
  0
LINE
  5
4F9
100
AcDbEntity
  8
CURVE
100
AcDbLine
 62
253
  6
CONTINUOUS
 10
37.5308799937
 20
-2.7856534408
 11
37.6308799878
 21
-2.5856534318
  0
LINE
  5
4FA
100
AcDbEntity
  8
CURVE
100
AcDbLine
 62
253
  6
CONTINUOUS
 10
38.2642133251
 20
-2.7856534408
 11
38.230879952
 21
-2.8523201139
  0
LINE
  5
4FB
100
AcDbEntity
  8
CURVE
100
AcDbLine
 62
253
  6
CONTINUOUS
 10
38.2642133251
 20
-3.0856534542
 11
38.3308799878
 21
-2.9523201158
  0
LINE
  5
4FC
100
AcDbEntity
  8
CURVE
100
AcDbLine
 62
253
  6
CONTINUOUS
 10
40.2094514504
 20
1.9000608488
 11
40.3523084059
 21
2.1143465503
  0
LINE
  5
4FD
100
AcDbEntity
  8
CURVE
100
AcDbLine
 62
253
  6
CONTINUOUS
 10
40.6737371817
 20
0.6143465503
 11
40.8880227938
 21
0.8286322741
  0
LINE
  5
4FE
100
AcDbEntity
  8
CURVE
100
AcDbLine
 62
253
  6
CONTINUOUS
 10
37.3308800057
 20
-2.9856534497
 11
37.5308799937
 21
-2.7856534408
  0
LINE
  5
4FF
100
AcDbEntity
  8
CURVE
100
AcDbLine
 62
253
  6
CONTINUOUS
 10
38.2975466147
 20
-2.7523201094
 11
38.2642133251
 21
-2.7856534408
  0
LINE
  5
500
100
AcDbEntity
  8
DRAFT
100
AcDbLine
 62
7
  6
CONTINUOUS
 10
44.7308799878
 20
3.5167277045
 11
44.6784988335
 21
3.4643465503
  0
LINE
  5
501
100
AcDbEntity
  8
CURVE
100
AcDbLine
 62
253
  6
CONTINUOUS
 10
38.2975466147
 20
-2.9189867818
 11
38.3642133608
 21
-2.8523201139
  0
LINE
  5
502
100
AcDbEntity
  8
CURVE
100
AcDbLine
 62
253
  6
CONTINUOUS
 10
39.3975465909
 20
-2.0856534617
 11
39.2308800593
 21
-2.185653414
  0
LWPOLYLINE
  5
503
100
AcDbEntity
  8
0
100
AcDbPolyline
 62
7
  6
CONTINUOUS
 90
10
 70
0
 10
33.5387214194
 20
1.8423202013
 10
33.5698658091
 20
1.8475119291
 10
33.6009451885
 20
1.8516907053
 10
33.6319595576
 20
1.8548565299
 10
33.6629082994
 20
1.8570187667
 10
33.6937920309
 20
1.8581680519
 10
33.7246126033
 20
1.8582762937
 10
33.7553706339
 20
1.8573341282
 10
33.7860655055
 20
1.8553509194
 10
33.816697218
 20
1.8523266672
  0
LWPOLYLINE
  5
504
100
AcDbEntity
  8
ASSI
100
AcDbPolyline
 62
7
  6
CONTINUOUS
 90
10
 70
0
 10
33.5387214194
 20
1.8423202013
 10
33.5698658091
 20
1.8475119291
 10
33.6009451885
 20
1.8516907053
 10
33.6319595576
 20
1.8548565299
 10
33.6629082994
 20
1.8570187667
 10
33.6937920309
 20
1.8581680519
 10
33.7246126033
 20
1.8582762937
 10
33.7553706339
 20
1.8573341282
 10
33.7860655055
 20
1.8553509194
 10
33.816697218
 20
1.8523266672
  0
LINE
  5
505
100
AcDbEntity
  8
SCRITTE
100
AcDbLine
 62
253
  6
CONTINUOUS
 10
42.0642137662
 20
3.457365056
 11
41.6642139569
 21
3.4451474411
  0
LINE
  5
506
100
AcDbEntity
  8
RACCORDO
100
AcDbLine
 62
253
  6
CONTINUOUS
 10
24.920955757
 20
2.0754342266
 11
23.0408381706
 21
2.0754342266
  0
LINE
  5
507
100
AcDbEntity
  8
ASSI
100
AcDbLine
 62
253
  6
CONTINUOUS
 10
24.920955757
 20
2.0754342266
 11
23.0408381706
 21
2.0754342266
  0
LINE
  5
508
100
AcDbEntity
  8
RACCORDO
100
AcDbLine
 62
7
  6
CONTINUOUS
 10
25.0022194975
 20
2.1052906517
 11
23.0399358863
 21
2.1052906517
  0
LINE
  5
509
100
AcDbEntity
  8
ASSI
100
AcDbLine
 62
7
  6
CONTINUOUS
 10
25.0022194975
 20
2.1052906517
 11
23.0399358863
 21
2.1052906517
  0
LINE
  5
50A
100
AcDbEntity
  8
CURVE
100
AcDbLine
 62
253
  6
CONTINUOUS
 10
37.1380227938
 20
2.1143465503
 11
37.0308799878
 21
2.1143465503
  0
LINE
  5
50B
100
AcDbEntity
  8
CURVE
100
AcDbLine
 62
253
  6
CONTINUOUS
 10
35.9594514355
 20
2.1143465503
 11
35.8523085624
 21
2.1143465503
  0
LINE
  5
50C
100
AcDbEntity
  8
DRAFT
100
AcDbLine
 62
7
  6
CONTINUOUS
 10
26.0308799878
 20
2.1143465503
 11
26.0103220805
 21
2.1143465503
  0
LINE
  5
50D
100
AcDbEntity
  8
ASSI
100
AcDbLine
 62
7
  6
CONTINUOUS
 10
26.0308799878
 20
2.1143465503
 11
26.0103220805
 21
2.1143465503
  0
LINE
  5
50E
100
AcDbEntity
  8
DRAFT
100
AcDbLine
 62
7
  6
CONTINUOUS
 10
25.0019989286
 20
2.1143465503
 11
23.0308799878
 21
2.1143465503
  0
LINE
  5
50F
100
AcDbEntity
  8
ASSI
100
AcDbLine
 62
7
  6
CONTINUOUS
 10
25.0019989286
 20
2.1143465503
 11
23.0308799878
 21
2.1143465503
  0
LINE
  5
510
100
AcDbEntity
  8
CURVE
100
AcDbLine
 62
253
  6
CONTINUOUS
 10
38.1023085847
 20
2.1143465503
 11
38.4237371817
 21
2.1143465503
  0
LINE
  5
511
100
AcDbEntity
  8
CURVE
100
AcDbLine
 62
253
  6
CONTINUOUS
 10
39.0665943757
 20
2.1143465503
 11
39.4951655999
 21
2.1143465503
  0
LINE
  5
512
100
AcDbEntity
  8
CURVE
100
AcDbLine
 62
253
  6
CONTINUOUS
 10
40.3523084059
 20
2.1143465503
 11
40.6737371817
 21
2.1143465503
  0
LINE
  5
513
100
AcDbEntity
  8
0
100
AcDbLine
 62
7
  6
CONTINUOUS
 10
32.5713319878
 20
2.1319085503
 11
32.2280779878
 21
2.1319085503
  0
LINE
  5
514
100
AcDbEntity
  8
ASSI
100
AcDbLine
 62
7
  6
CONTINUOUS
 10
32.5713319878
 20
2.1319085503
 11
32.2280779878
 21
2.1319085503
  0
LINE
  5
515
100
AcDbEntity
  8
0
100
AcDbLine
 62
7
  6
CONTINUOUS
 10
31.4802189878
 20
2.1319085503
 11
31.1291519878
 21
2.1319085503
  0
LINE
  5
516
100
AcDbEntity
  8
ASSI
100
AcDbLine
 62
7
  6
CONTINUOUS
 10
31.4802189878
 20
2.1319085503
 11
31.1291519878
 21
2.1319085503
  0
LINE
  5
517
100
AcDbEntity
  8
0
100
AcDbLine
 62
7
  6
CONTINUOUS
 10
30.4232429878
 20
2.1319085503
 11
30.0687079878
 21
2.1319085503
  0
LINE
  5
518
100
AcDbEntity
  8
ASSI
100
AcDbLine
 62
7
  6
CONTINUOUS
 10
30.4232429878
 20
2.1319085503
 11
30.0687079878
 21
2.1319085503
  0
LINE
  5
519
100
AcDbEntity
  8
0
100
AcDbLine
 62
7
  6
CONTINUOUS
 10
29.2376999878
 20
2.1319085503
 11
28.8831139878
 21
2.1319085503
  0
LINE
  5
51A
100
AcDbEntity
  8
ASSI
100
AcDbLine
 62
7
  6
CONTINUOUS
 10
29.2376999878
 20
2.1319085503
 11
28.8831139878
 21
2.1319085503
  0
LINE
  5
51B
100
AcDbEntity
  8
0
100
AcDbLine
 62
7
  6
CONTINUOUS
 10
28.2251669878
 20
2.1319085503
 11
27.8397139878
 21
2.1319085503
  0
LINE
  5
51C
100
AcDbEntity
  8
ASSI
100
AcDbLine
 62
7
  6
CONTINUOUS
 10
28.2251669878
 20
2.1319085503
 11
27.8397139878
 21
2.1319085503
  0
LINE
  5
51D
100
AcDbEntity
  8
0
100
AcDbLine
 62
7
  6
CONTINUOUS
 10
29.7242059878
 20
2.1320105503
 11
29.3693779878
 21
2.1320105503
  0
LINE
  5
51E
100
AcDbEntity
  8
ASSI
100
AcDbLine
 62
7
  6
CONTINUOUS
 10
29.7242059878
 20
2.1320105503
 11
29.3693779878
 21
2.1320105503
  0
LINE
  5
51F
100
AcDbEntity
  8
DRAFT
100
AcDbLine
 62
7
  6
CONTINUOUS
 10
24.9308799878
 20
2.2953659985
 11
24.9608799878
 21
2.2953659985
  0
LINE
  5
520
100
AcDbEntity
  8
RACCORDO
100
AcDbLine
 62
253
  6
CONTINUOUS
 10
58.5183701946
 20
2.5759652865
 11
45.5115352659
 21
2.5759652865
  0
LINE
  5
521
100
AcDbEntity
  8
ASSI
100
AcDbLine
 62
253
  6
CONTINUOUS
 10
58.5183701946
 20
2.5759652865
 11
45.5115352659
 21
2.5759652865
  0
LINE
  5
522
100
AcDbEntity
  8
RACCORDO
100
AcDbLine
 62
253
  6
CONTINUOUS
 10
59.5199732785
 20
2.5927761553
 11
58.6534339648
 21
2.5927772083
  0
LINE
  5
523
100
AcDbEntity
  8
RACCORDO
100
AcDbLine
 62
253
  6
CONTINUOUS
 10
59.5213799924
 20
2.6048313244
 11
58.6499159826
 21
2.6048314528
  0
LINE
  5
524
100
AcDbEntity
  8
RACCORDO
100
AcDbLine
 62
253
  6
CONTINUOUS
 10
58.5223061696
 20
2.6057727321
 11
45.5135031035
 21
2.6057727321
  0
LINE
  5
525
100
AcDbEntity
  8
ASSI
100
AcDbLine
 62
253
  6
CONTINUOUS
 10
58.5223061696
 20
2.6057727321
 11
45.5135031035
 21
2.6057727321
  0
LINE
  5
526
100
AcDbEntity
  8
DRAFT
100
AcDbLine
 62
7
  6
CONTINUOUS
 10
58.5308799878
 20
2.6143465503
 11
45.5177896861
 21
2.6143465503
  0
LINE
  5
527
100
AcDbEntity
  8
ASSI
100
AcDbLine
 62
7
  6
CONTINUOUS
 10
58.5308799878
 20
2.6143465503
 11
45.5177896861
 21
2.6143465503
  0
LINE
  5
528
100
AcDbEntity
  8
RACCORDO
100
AcDbLine
 62
7
  6
CONTINUOUS
 10
45.583261142
 20
2.6143465503
 11
59.5308952183
 21
2.6143465503
  0
LINE
  5
529
100
AcDbEntity
  8
DRAFT
100
AcDbLine
 62
7
  6
CONTINUOUS
 10
44.7308799878
 20
2.6643465503
 11
26.8308799878
 21
2.6643465503
  0
LINE
  5
52A
100
AcDbEntity
  8
ASSI
100
AcDbLine
 62
7
  6
CONTINUOUS
 10
44.7308799878
 20
2.6643465503
 11
26.8308799878
 21
2.6643465503
  0
LINE
  5
52B
100
AcDbEntity
  8
DRAFT
100
AcDbLine
 62
7
  6
CONTINUOUS
 10
44.7343710008
 20
2.6678375633
 11
26.8273889748
 21
2.6678375633
  0
LINE
  5
52C
100
AcDbEntity
  8
ASSI
100
AcDbLine
 62
7
  6
CONTINUOUS
 10
44.7343710008
 20
2.6678375633
 11
26.8273889748
 21
2.6678375633
  0
LINE
  5
52D
100
AcDbEntity
  8
RACCORDO
100
AcDbLine
 62
253
  6
CONTINUOUS
 10
25.9855002753
 20
2.7539618548
 11
25.0413560662
 21
2.7539618548
  0
LINE
  5
52E
100
AcDbEntity
  8
RACCORDO
100
AcDbLine
 62
253
  6
CONTINUOUS
 10
44.9894083266
 20
2.8228786968
 11
45.4893892881
 21
2.8228786902
  0
LINE
  5
52F
100
AcDbEntity
  8
ASSI
100
AcDbLine
 62
253
  6
CONTINUOUS
 10
44.9894083266
 20
2.8228786968
 11
45.4893892881
 21
2.8228786902
  0
LINE
  5
530
100
AcDbEntity
  8
RACCORDO
100
AcDbLine
 62
253
  6
CONTINUOUS
 10
44.8894121343
 20
2.9228748891
 11
26.0753984368
 21
2.9228748891
  0
LINE
  5
531
100
AcDbEntity
  8
ASSI
100
AcDbLine
 62
253
  6
CONTINUOUS
 10
44.8894121343
 20
2.9228748891
 11
26.0753984368
 21
2.9228748891
  0
LINE
  5
532
100
AcDbEntity
  8
RACCORDO
100
AcDbLine
 62
7
  6
CONTINUOUS
 10
26.0101290096
 20
2.0971940756
 11
26.0480498057
 21
2.0971767323
  0
LINE
  5
533
100
AcDbEntity
  8
ASSI
100
AcDbLine
 62
7
  6
CONTINUOUS
 10
26.0101290096
 20
2.0971940756
 11
26.0480498057
 21
2.0971767323
  0
LWPOLYLINE
  5
534
100
AcDbEntity
  8
RACCORDO
100
AcDbPolyline
 62
7
  6
CONTINUOUS
 90
8
 70
0
 10
58.5520370399
 20
2.6143153117
 10
58.5832983959
 20
2.6141227657
 10
58.5971821409
 20
2.6139556293
 10
58.6096705455
 20
2.6137451367
 10
58.6197253762
 20
2.6135087748
 10
58.6270005556
 20
2.6132523728
 10
58.6318421611
 20
2.6129701015
 10
58.634250193
 20
2.6126619611
  0
LINE
  5
535
100
AcDbEntity
  8
SCRITTE
100
AcDbLine
 62
253
  6
CONTINUOUS
 10
28.9308800057
 20
3.4503835619
 11
28.5308799878
 21
3.457365056
  0
LINE
  5
536
100
AcDbEntity
  8
SCRITTE
100
AcDbLine
 62
253
  6
CONTINUOUS
 10
30.5308800355
 20
3.4451474411
 11
30.1308800593
 21
3.457365056
  0
LWPOLYLINE
  5
537
100
AcDbEntity
  8
RACCORDO
100
AcDbPolyline
 62
253
  6
CONTINUOUS
 90
10
 70
0
 10
59.4906876659
 20
1.4539301565
 10
59.5078971557
 20
1.4529072278
 10
59.5245930588
 20
1.4501550477
 10
59.5402771313
 20
1.4457557526
 10
59.5544812953
 20
1.4398406484
 10
59.5667817114
 20
1.4325862492
 10
59.576811378
 20
1.4242089798
 10
59.5842709538
 20
1.4149587962
 10
59.5889377451
 20
1.4051117566
 10
59.5906724249
 20
1.394961721
  0
LINE
  5
538
100
AcDbEntity
  8
RACCORDO
100
AcDbLine
 62
7
  6
CONTINUOUS
 10
58.5308799878
 20
1.5643465503
 11
58.5957275331
 21
1.5598556904
  0
LINE
  5
539
100
AcDbEntity
  8
ASSI
100
AcDbLine
 62
7
  6
CONTINUOUS
 10
58.5308799878
 20
1.5643465503
 11
58.5957275331
 21
1.5598556904
  0
LINE
  5
53A
100
AcDbEntity
  8
CURVE
100
AcDbLine
 62
253
  6
CONTINUOUS
 10
37.3523085847
 20
1.9000608488
 11
37.1380227938
 21
2.1143465503
  0
LINE
  5
53B
100
AcDbEntity
  8
CURVE
100
AcDbLine
 62
253
  6
CONTINUOUS
 10
38.1023085847
 20
1.2572036995
 11
37.8880227938
 21
1.4714894457
  0
LINE
  5
53C
100
AcDbEntity
  8
SCRITTE
100
AcDbLine
 62
253
  6
CONTINUOUS
 10
43.0746299878
 20
-2.8106534497
 11
43.1621299878
 21
-2.8981534497
  0
LINE
  5
53D
100
AcDbEntity
  8
CURVE
100
AcDbLine
 62
253
  6
CONTINUOUS
 10
38.4237371817
 20
2.1143465503
 11
38.6380227938
 21
1.9000608488
  0
LINE
  5
53E
100
AcDbEntity
  8
DRAFT
100
AcDbLine
 62
7
  6
CONTINUOUS
 10
44.7308799878
 20
-4.088034604
 11
44.6784988335
 21
-4.0356534497
  0
LINE
  5
53F
100
AcDbEntity
  8
RACCORDO
100
AcDbLine
 62
253
  6
CONTINUOUS
 10
44.9178125323
 20
-4.022563148
 11
44.8894121343
 21
-3.9941627501
  0
LINE
  5
540
100
AcDbEntity
  8
ASSI
100
AcDbLine
 62
253
  6
CONTINUOUS
 10
44.9178125323
 20
-4.022563148
 11
44.8894121343
 21
-3.9941627501
  0
LINE
  5
541
100
AcDbEntity
  8
CURVE
100
AcDbLine
 62
253
  6
CONTINUOUS
 10
39.4951655999
 20
1.4714894457
 11
39.7094515696
 21
1.2572036995
  0
LINE
  5
542
100
AcDbEntity
  8
CURVE
100
AcDbLine
 62
253
  6
CONTINUOUS
 10
40.1380227938
 20
0.8286322741
 11
40.3523084059
 21
0.6143465503
  0
LINE
  5
543
100
AcDbEntity
  8
SCRITTE
100
AcDbLine
 62
253
  6
CONTINUOUS
 10
43.2058799878
 20
-2.0669034497
 11
43.2496299878
 21
-2.1106534497
  0
LINE
  5
544
100
AcDbEntity
  8
CURVE
100
AcDbLine
 62
253
  6
CONTINUOUS
 10
40.7308798447
 20
-2.9856534497
 11
40.4308799878
 21
-1.9856534259
  0
LINE
  5
545
100
AcDbEntity
  8
CURVE
100
AcDbLine
 62
253
  6
CONTINUOUS
 10
40.1308801308
 20
-2.9856534497
 11
39.8308799401
 21
-1.5856534497
  0
LINE
  5
546
100
AcDbEntity
  8
SCRITTE
100
AcDbLine
 62
253
  6
CONTINUOUS
 10
39.93088056
 20
3.457365056
 11
39.93088056
 21
3.4451474411
  0
LINE
  5
547
100
AcDbEntity
  8
CURVE
100
AcDbLine
 62
253
  6
CONTINUOUS
 10
40.1380227938
 20
1.2572036995
 11
40.1380227938
 21
0.8286322741
  0
LINE
  5
548
100
AcDbEntity
  8
CURVE
100
AcDbLine
 62
253
  6
CONTINUOUS
 10
40.2094514504
 20
1.5786322518
 11
40.2094514504
 21
1.9000608488
  0
LINE
  5
549
100
AcDbEntity
  8
SCRITTE
100
AcDbLine
 62
253
  6
CONTINUOUS
 10
40.5642128125
 20
3.457365056
 11
40.5642128125
 21
3.4451474411
  0
LINE
  5
54A
100
AcDbEntity
  8
CURVE
100
AcDbLine
 62
253
  6
CONTINUOUS
 10
40.8165941373
 20
1.9000608488
 11
40.8165941373
 21
1.5786322518
  0
LINE
  5
54B
100
AcDbEntity
  8
CURVE
100
AcDbLine
 62
253
  6
CONTINUOUS
 10
40.8880227938
 20
0.8286322741
 11
40.8880227938
 21
1.2572036995
  0
LINE
  5
54C
100
AcDbEntity
  8
SCRITTE
100
AcDbLine
 62
253
  6
CONTINUOUS
 10
41.2642128125
 20
3.457365056
 11
41.2642128125
 21
3.4451474411
  0
LINE
  5
54D
100
AcDbEntity
  8
CURVE
100
AcDbLine
 62
253
  6
CONTINUOUS
 10
41.0308800355
 20
-1.5856534497
 11
40.7308798447
 21
-2.9856534497
  0
LINE
  5
54E
100
AcDbEntity
  8
CURVE
100
AcDbLine
 62
253
  6
CONTINUOUS
 10
40.4308799878
 20
-1.9856534259
 11
40.1308801308
 21
-2.9856534497
  0
LINE
  5
54F
100
AcDbEntity
  8
CURVE
100
AcDbLine
 62
253
  6
CONTINUOUS
 10
41.5665941373
 20
0.8643465577
 11
41.5308799878
 21
0.7929179794
  0
LINE
  5
550
100
AcDbEntity
  8
CURVE
100
AcDbLine
 62
253
  6
CONTINUOUS
 10
41.6380231515
 20
0.685775123
 11
41.6737373009
 21
0.7572036958
  0
LINE
  5
551
100
AcDbEntity
  8
RACCORDO
100
AcDbLine
 62
253
  6
CONTINUOUS
 10
44.9178125323
 20
3.4512562486
 11
44.8894121343
 21
3.4228558506
  0
LINE
  5
552
100
AcDbEntity
  8
ASSI
100
AcDbLine
 62
253
  6
CONTINUOUS
 10
44.9178125323
 20
3.4512562486
 11
44.8894121343
 21
3.4228558506
  0
LINE
  5
553
100
AcDbEntity
  8
DRAFT
100
AcDbLine
 62
7
  6
CONTINUOUS
 10
44.7343710008
 20
2.6678375633
 11
44.7308799878
 21
2.6643465503
  0
LINE
  5
554
100
AcDbEntity
  8
CURVE
100
AcDbLine
 62
253
  6
CONTINUOUS
 10
39.4308799639
 20
-2.8856534453
 11
39.3308800116
 21
-2.9856534497
  0
LINE
  5
555
100
AcDbEntity
  8
RACCORDO
100
AcDbLine
 62
253
  6
CONTINUOUS
 10
45.5177896861
 20
2.8512790947
 11
45.4893892881
 21
2.8228786968
  0
LINE
  5
556
100
AcDbEntity
  8
ASSI
100
AcDbLine
 62
253
  6
CONTINUOUS
 10
45.5177896861
 20
2.8512790947
 11
45.4893892881
 21
2.8228786968
  0
LINE
  5
557
100
AcDbEntity
  8
SCRITTE
100
AcDbLine
 62
253
  6
CONTINUOUS
 10
43.4246299878
 20
-1.6731534497
 11
43.2933799878
 21
-1.7169034497
  0
LWPOLYLINE
  5
558
100
AcDbEntity
  8
RACCORDO
100
AcDbPolyline
 62
7
  6
CONTINUOUS
 90
6
 70
0
 10
25.0041779548
 20
2.1042473662
 10
24.9862080661
 20
2.1015009404
 10
24.9689009019
 20
2.0971413815
 10
24.9522564624
 20
2.0912695101
 10
24.9362747474
 20
2.0839949572
 10
24.920955757
 20
2.0754342266
  0
LWPOLYLINE
  5
559
100
AcDbEntity
  8
ASSI
100
AcDbPolyline
 62
7
  6
CONTINUOUS
 90
6
 70
0
 10
25.0041779548
 20
2.1042473662
 10
24.9862080661
 20
2.1015009404
 10
24.9689009019
 20
2.0971413815
 10
24.9522564624
 20
2.0912695101
 10
24.9362747474
 20
2.0839949572
 10
24.920955757
 20
2.0754342266
  0
LWPOLYLINE
  5
55A
100
AcDbEntity
  8
RACCORDO
100
AcDbPolyline
 62
253
  6
CONTINUOUS
 90
10
 70
0
 10
26.2223649759
 20
3.4228558506
 10
26.196317355
 20
3.4205748725
 10
26.1710618404
 20
3.4138054291
 10
26.1473657721
 20
3.4027535263
 10
26.1259489629
 20
3.387755217
 10
26.1074620193
 20
3.36926649
 10
26.0924664996
 20
3.3478494873
 10
26.0814176441
 20
3.3241551793
 10
26.0746506601
 20
3.2989034829
 10
26.0723706874
 20
3.2728615621
  0
LWPOLYLINE
  5
55B
100
AcDbEntity
  8
ASSI
100
AcDbPolyline
 62
253
  6
CONTINUOUS
 90
10
 70
0
 10
26.2223649759
 20
3.4228558506
 10
26.196317355
 20
3.4205748725
 10
26.1710618404
 20
3.4138054291
 10
26.1473657721
 20
3.4027535263
 10
26.1259489629
 20
3.387755217
 10
26.1074620193
 20
3.36926649
 10
26.0924664996
 20
3.3478494873
 10
26.0814176441
 20
3.3241551793
 10
26.0746506601
 20
3.2989034829
 10
26.0723706874
 20
3.2728615621
  0
LINE
  5
55C
100
AcDbEntity
  8
SCRITTE
100
AcDbLine
 62
253
  6
CONTINUOUS
 10
30.1308800593
 20
3.457365056
 11
29.7308799997
 21
3.4451474411
  0
LINE
  5
55D
100
AcDbEntity
  8
SCRITTE
100
AcDbLine
 62
253
  6
CONTINUOUS
 10
29.3308800235
 20
3.457365056
 11
28.9308800057
 21
3.4503835619
  0
LINE
  5
55E
100
AcDbEntity
  8
SCRITTE
100
AcDbLine
 62
253
  6
CONTINUOUS
 10
37.5975467816
 20
3.457365056
 11
37.397546877
 21
3.4556196826
  0
LINE
  5
55F
100
AcDbEntity
  8
SCRITTE
100
AcDbLine
 62
253
  6
CONTINUOUS
 10
31.4308799401
 20
3.4451474411
 11
31.6308798447
 21
3.4468928148
  0
LINE
  5
560
100
AcDbEntity
  8
RACCORDO
100
AcDbLine
 62
253
  6
CONTINUOUS
 10
25.990645013
 20
3.3538704719
 11
25.6412646833
 21
3.3538704719
  0
LINE
  5
561
100
AcDbEntity
  8
RACCORDO
100
AcDbLine
 62
7
  6
CONTINUOUS
 10
44.8894121343
 20
3.4228558506
 11
26.2223649759
 21
3.4228558506
  0
LINE
  5
562
100
AcDbEntity
  8
ASSI
100
AcDbLine
 62
7
  6
CONTINUOUS
 10
44.8894121343
 20
3.4228558506
 11
26.2223649759
 21
3.4228558506
  0
LINE
  5
563
100
AcDbEntity
  8
RACCORDO
100
AcDbLine
 62
7
  6
CONTINUOUS
 10
25.5607886049
 20
3.4343465503
 11
26.0308799878
 21
3.4343465503
  0
LINE
  5
564
100
AcDbEntity
  8
SCRITTE
100
AcDbLine
 62
253
  6
CONTINUOUS
 10
30.9308800116
 20
3.4451474411
 11
31.4308799401
 21
3.4451474411
  0
LINE
  5
565
100
AcDbEntity
  8
SCRITTE
100
AcDbLine
 62
253
  6
CONTINUOUS
 10
32.1975466862
 20
3.4451474411
 11
32.7975467339
 21
3.4451474411
  0
LINE
  5
566
100
AcDbEntity
  8
SCRITTE
100
AcDbLine
 62
253
  6
CONTINUOUS
 10
37.5975467816
 20
3.4451474411
 11
37.9975465909
 21
3.4451474411
  0
LINE
  5
567
100
AcDbEntity
  8
SCRITTE
100
AcDbLine
 62
253
  6
CONTINUOUS
 10
42.3308794156
 20
3.4486381884
 11
41.7975467816
 21
3.4486381884
  0
LINE
  5
568
100
AcDbEntity
  8
SCRITTE
100
AcDbLine
 62
253
  6
CONTINUOUS
 10
30.3975467101
 20
3.4486381884
 11
29.8642133251
 21
3.4486381884
  0
LINE
  5
569
100
AcDbEntity
  8
RACCORDO
100
AcDbLine
 62
7
  6
CONTINUOUS
 10
44.7308799878
 20
3.4512562486
 11
44.9178125323
 21
3.4512562486
  0
LINE
  5
56A
100
AcDbEntity
  8
ASSI
100
AcDbLine
 62
7
  6
CONTINUOUS
 10
44.7308799878
 20
3.4512562486
 11
44.9178125323
 21
3.4512562486
  0
LINE
  5
56B
100
AcDbEntity
  8
SCRITTE
100
AcDbLine
 62
253
  6
CONTINUOUS
 10
39.2642130986
 20
3.4521289357
 11
38.5642130986
 21
3.4521289357
  0
LINE
  5
56C
100
AcDbEntity
  8
SCRITTE
100
AcDbLine
 62
253
  6
CONTINUOUS
 10
32.1975466862
 20
3.4521289357
 11
32.5975464955
 21
3.4521289357
  0
LINE
  5
56D
100
AcDbEntity
  8
SCRITTE
100
AcDbLine
 62
253
  6
CONTINUOUS
 10
37.9975465909
 20
3.457365056
 11
37.5975467816
 21
3.457365056
  0
LINE
  5
56E
100
AcDbEntity
  8
SCRITTE
100
AcDbLine
 62
253
  6
CONTINUOUS
 10
32.7975467339
 20
3.457365056
 11
32.1975466862
 21
3.457365056
  0
LINE
  5
56F
100
AcDbEntity
  8
SCRITTE
100
AcDbLine
 62
253
  6
CONTINUOUS
 10
31.4308799401
 20
3.457365056
 11
30.9308800116
 21
3.457365056
  0
LINE
  5
570
100
AcDbEntity
  8
DRAFT
100
AcDbLine
 62
7
  6
CONTINUOUS
 10
44.6784988335
 20
3.4643465503
 11
37.283261142
 21
3.4643465503
  0
LINE
  5
571
100
AcDbEntity
  8
RACCORDO
100
AcDbLine
 62
7
  6
CONTINUOUS
 10
25.530514484
 20
3.4643465503
 11
33.9308799878
 21
3.4643465503
  0
LINE
  5
572
100
AcDbEntity
  8
DRAFT
100
AcDbLine
 62
7
  6
CONTINUOUS
 10
33.9308799878
 20
3.4643465503
 11
37.1308799878
 21
3.4643465503
  0
LINE
  5
573
100
AcDbEntity
  8
RACCORDO
100
AcDbLine
 62
7
  6
CONTINUOUS
 10
44.9836266458
 20
3.5167277045
 11
44.7308799878
 21
3.5167277045
  0
LINE
  5
574
100
AcDbEntity
  8
RACCORDO
100
AcDbLine
 62
7
  6
CONTINUOUS
 10
44.4669081098
 20
3.4640329142
 11
37.1308799878
 21
3.4643465503
  0
LINE
  5
575
100
AcDbEntity
  8
ASSI
100
AcDbLine
 62
7
  6
CONTINUOUS
 10
44.4669081098
 20
3.4640329142
 11
26.1808742762
 21
3.4643465503
  0
LINE
  5
576
100
AcDbEntity
  8
SCRITTE
100
AcDbLine
 62
253
  6
CONTINUOUS
 10
31.6308798447
 20
3.4556196826
 11
31.4308799401
 21
3.457365056
  0
LINE
  5
577
100
AcDbEntity
  8
SCRITTE
100
AcDbLine
 62
253
  6
CONTINUOUS
 10
37.397546877
 20
3.4468928148
 11
37.5975467816
 21
3.4451474411
  0
LINE
  5
578
100
AcDbEntity
  8
RACCORDO
100
AcDbLine
 62
7
  6
CONTINUOUS
 10
44.5529477533
 20
3.4634265875
 11
44.4669081098
 21
3.4640329142
  0
LINE
  5
579
100
AcDbEntity
  8
ASSI
100
AcDbLine
 62
7
  6
CONTINUOUS
 10
44.5529477533
 20
3.4634265875
 11
44.4669081098
 21
3.4640329142
  0
LINE
  5
57A
100
AcDbEntity
  8
SCRITTE
100
AcDbLine
 62
253
  6
CONTINUOUS
 10
35.8975465909
 20
3.4451474411
 11
35.1975465909
 21
3.457365056
  0
LINE
  5
57B
100
AcDbEntity
  8
SCRITTE
100
AcDbLine
 62
253
  6
CONTINUOUS
 10
41.2642128125
 20
3.4451474411
 11
40.5642128125
 21
3.457365056
  0
LINE
  5
57C
100
AcDbEntity
  8
SCRITTE
100
AcDbLine
 62
253
  6
CONTINUOUS
 10
42.4642135754
 20
3.4451474411
 11
42.0642137662
 21
3.457365056
  0
LWPOLYLINE
  5
57D
100
AcDbEntity
  8
RACCORDO
100
AcDbPolyline
 62
7
  6
CONTINUOUS
 90
5
 70
0
 10
44.6236060497
 20
3.4619566689
 10
44.6177389192
 20
3.4622840919
 10
44.6078064061
 20
3.4625940173
 10
44.5938085104
 20
3.4628864453
 10
44.5529477533
 20
3.4634265875
  0
LWPOLYLINE
  5
57E
100
AcDbEntity
  8
ASSI
100
AcDbPolyline
 62
7
  6
CONTINUOUS
 90
5
 70
0
 10
44.6236060497
 20
3.4619566689
 10
44.6177389192
 20
3.4622840919
 10
44.6078064061
 20
3.4625940173
 10
44.5938085104
 20
3.4628864453
 10
44.5529477533
 20
3.4634265875
  0
LWPOLYLINE
  5
57F
100
AcDbEntity
  8
RACCORDO
100
AcDbPolyline
 62
7
  6
CONTINUOUS
 90
16
 70
0
 10
44.9178125323
 20
3.4512562486
 10
44.98163282
 20
3.4476738109
 10
45.0434358072
 20
3.4378853976
 10
45.1032214941
 20
3.4218910085
 10
45.1615960624
 20
3.3993816744
 10
45.2179533304
 20
3.3706663646
 10
45.270474752
 20
3.3366719871
 10
45.3190352188
 20
3.2972264388
 10
45.3637598394
 20
3.2525018229
 10
45.4032053937
 20
3.2039413571
 10
45.4371997789
 20
3.1514199307
 10
45.4659150979
 20
3.0950626543
 10
45.4884244392
 20
3.0366880776
 10
45.5044188325
 20
2.9769023837
 10
45.5142072481
 20
2.9150993894
 10
45.5177896861
 20
2.8512790947
  0
LWPOLYLINE
  5
580
100
AcDbEntity
  8
ASSI
100
AcDbPolyline
 62
7
  6
CONTINUOUS
 90
16
 70
0
 10
44.9178125323
 20
3.4512562486
 10
44.98163282
 20
3.4476738109
 10
45.0434358072
 20
3.4378853976
 10
45.1032214941
 20
3.4218910085
 10
45.1615960624
 20
3.3993816744
 10
45.2179533304
 20
3.3706663646
 10
45.270474752
 20
3.3366719871
 10
45.3190352188
 20
3.2972264388
 10
45.3637598394
 20
3.2525018229
 10
45.4032053937
 20
3.2039413571
 10
45.4371997789
 20
3.1514199307
 10
45.4659150979
 20
3.0950626543
 10
45.4884244392
 20
3.0366880776
 10
45.5044188325
 20
2.9769023837
 10
45.5142072481
 20
2.9150993894
 10
45.5177896861
 20
2.8512790947
  0
LWPOLYLINE
  5
581
100
AcDbEntity
  8
RACCORDO
100
AcDbPolyline
 62
7
  6
CONTINUOUS
 90
6
 70
0
 10
59.5308342917
 20
2.6143465503
 10
59.5482087324
 20
2.6128302085
 10
59.5650533361
 20
2.6083178217
 10
59.5808560466
 20
2.6009476771
 10
59.5951369167
 20
2.5909447495
 10
59.6015539139
 20
2.5850635148
  0
LINE
  5
582
100
AcDbEntity
  8
RACCORDO
100
AcDbLine
 62
7
  6
CONTINUOUS
 10
44.7308799878
 20
3.4512562486
 11
44.6236060497
 21
3.4619566689
  0
LINE
  5
583
100
AcDbEntity
  8
ASSI
100
AcDbLine
 62
7
  6
CONTINUOUS
 10
44.7308799878
 20
3.4512562486
 11
44.6236060497
 21
3.4619566689
  0
LINE
  5
584
100
AcDbEntity
  8
CURVE
100
AcDbLine
 62
253
  6
CONTINUOUS
 10
40.3523084059
 20
1.4714894457
 11
40.2094514504
 21
1.5786322518
  0
LINE
  5
585
100
AcDbEntity
  8
DRAFT
100
AcDbLine
 62
7
  6
CONTINUOUS
 10
44.7343710008
 20
-3.2391444627
 11
44.7308799878
 21
-3.2356534497
  0
LINE
  5
586
100
AcDbEntity
  8
RACCORDO
100
AcDbLine
 62
253
  6
CONTINUOUS
 10
45.5177896861
 20
-3.4225859942
 11
45.4893892881
 21
-3.3941855962
  0
LINE
  5
587
100
AcDbEntity
  8
ASSI
100
AcDbLine
 62
253
  6
CONTINUOUS
 10
45.5177896861
 20
-3.4225859942
 11
45.4893892881
 21
-3.3941855962
  0
LINE
  5
588
100
AcDbEntity
  8
CURVE
100
AcDbLine
 62
253
  6
CONTINUOUS
 10
40.8880227938
 20
1.2572036995
 11
40.6737371817
 21
1.4714894457
  0
LINE
  5
589
100
AcDbEntity
  8
CURVE
100
AcDbLine
 62
253
  6
CONTINUOUS
 10
39.4951655999
 20
2.1143465503
 11
39.6737370625
 21
1.9000608488
  0
LINE
  5
58A
100
AcDbEntity
  8
CURVE
100
AcDbLine
 62
253
  6
CONTINUOUS
 10
40.6737371817
 20
2.1143465503
 11
40.8165941373
 21
1.9000608488
  0
LINE
  5
58B
100
AcDbEntity
  8
CURVE
100
AcDbLine
 62
253
  6
CONTINUOUS
 10
41.5308799878
 20
0.7572036958
 11
41.5665941373
 21
0.685775123
  0
LINE
  5
58C
100
AcDbEntity
  8
CURVE
100
AcDbLine
 62
253
  6
CONTINUOUS
 10
41.5308799878
 20
0.7929179794
 11
41.5308799878
 21
0.7572036958
  0
LINE
  5
58D
100
AcDbEntity
  8
CURVE
100
AcDbLine
 62
253
  6
CONTINUOUS
 10
41.6737373009
 20
0.7572036958
 11
41.6737373009
 21
0.7929179794
  0
LINE
  5
58E
100
AcDbEntity
  8
SCRITTE
100
AcDbLine
 62
253
  6
CONTINUOUS
 10
43.0308799878
 20
-2.5481534497
 11
43.0308799878
 21
-2.6794034497
  0
LINE
  5
58F
100
AcDbEntity
  8
CURVE
100
AcDbLine
 62
253
  6
CONTINUOUS
 10
42.6023087636
 20
2.1143465503
 11
42.1737368241
 21
0.6143465503
  0
LINE
  5
590
100
AcDbEntity
  8
SCRITTE
100
AcDbLine
 62
253
  6
CONTINUOUS
 10
43.2933799878
 20
-1.7169034497
 11
43.2058799878
 21
-1.8044034497
  0
LINE
  5
591
100
AcDbEntity
  8
SCRITTE
100
AcDbLine
 62
253
  6
CONTINUOUS
 10
43.1621299878
 20
-2.3294034497
 11
43.0746299878
 21
-2.4169034497
  0
LINE
  5
592
100
AcDbEntity
  8
SCRITTE
100
AcDbLine
 62
253
  6
CONTINUOUS
 10
43.6871299878
 20
-2.9419034497
 11
43.8183799878
 21
-2.8544034497
  0
LINE
  5
593
100
AcDbEntity
  8
SCRITTE
100
AcDbLine
 62
253
  6
CONTINUOUS
 10
43.3371299878
 20
-2.2419034497
 11
43.1621299878
 21
-2.3294034497
  0
LINE
  5
594
100
AcDbEntity
  8
RACCORDO
100
AcDbLine
 62
7
  6
CONTINUOUS
 10
58.5957275331
 20
1.5598556904
 11
58.6479478312
 21
1.5497142112
  0
LINE
  5
595
100
AcDbEntity
  8
ASSI
100
AcDbLine
 62
7
  6
CONTINUOUS
 10
58.5957275331
 20
1.5598556904
 11
58.6479478312
 21
1.5497142112
  0
LINE
  5
596
100
AcDbEntity
  8
CURVE
100
AcDbLine
 62
253
  6
CONTINUOUS
 10
41.6737373009
 20
0.7929179794
 11
41.6380231515
 21
0.8643465577
  0
LINE
  5
597
100
AcDbEntity
  8
SCRITTE
100
AcDbLine
 62
253
  6
CONTINUOUS
 10
43.1621299878
 20
-1.9794034497
 11
43.2058799878
 21
-2.0669034497
  0
LINE
  5
598
100
AcDbEntity
  8
SCRITTE
100
AcDbLine
 62
253
  6
CONTINUOUS
 10
43.0308799878
 20
-2.6794034497
 11
43.0746299878
 21
-2.8106534497
  0
LINE
  5
599
100
AcDbEntity
  8
CURVE
100
AcDbLine
 62
253
  6
CONTINUOUS
 10
43.0308799878
 20
0.6143465503
 11
42.6023087636
 21
2.1143465503
  0
LINE
  5
59A
100
AcDbEntity
  8
SCRITTE
100
AcDbLine
 62
253
  6
CONTINUOUS
 10
43.1621299878
 20
-1.9356534497
 11
43.1621299878
 21
-1.9794034497
  0
LINE
  5
59B
100
AcDbEntity
  8
SCRITTE
100
AcDbLine
 62
253
  6
CONTINUOUS
 10
43.2058799878
 20
-1.8044034497
 11
43.1621299878
 21
-1.9356534497
  0
LINE
  5
59C
100
AcDbEntity
  8
SCRITTE
100
AcDbLine
 62
253
  6
CONTINUOUS
 10
43.0746299878
 20
-2.4169034497
 11
43.0308799878
 21
-2.5481534497
  0
LINE
  5
59D
100
AcDbEntity
  8
RACCORDO
100
AcDbLine
 62
7
  6
CONTINUOUS
 10
45.5135031035
 20
2.6057727321
 11
45.5177896861
 21
2.6143465503
  0
LINE
  5
59E
100
AcDbEntity
  8
ASSI
100
AcDbLine
 62
7
  6
CONTINUOUS
 10
45.5135031035
 20
2.6057727321
 11
45.5177896861
 21
2.6143465503
  0
LINE
  5
59F
100
AcDbEntity
  8
SCRITTE
100
AcDbLine
 62
253
  6
CONTINUOUS
 10
43.8183799878
 20
-2.8544034497
 11
43.9058799878
 21
-2.7669034497
  0
LINE
  5
5A0
100
AcDbEntity
  8
RACCORDO
100
AcDbLine
 62
7
  6
CONTINUOUS
 10
45.5177896861
 20
-3.1856534497
 11
45.5135031035
 21
-3.1770796315
  0
LINE
  5
5A1
100
AcDbEntity
  8
ASSI
100
AcDbLine
 62
7
  6
CONTINUOUS
 10
45.5177896861
 20
-3.1856534497
 11
45.5135031035
 21
-3.1770796315
  0
LWPOLYLINE
  5
5A2
100
AcDbEntity
  8
RACCORDO
100
AcDbPolyline
 62
7
  6
CONTINUOUS
 90
10
 70
0
 10
45.5135031035
 20
-3.1770796315
 10
45.513281945
 20
-3.1763147962
 10
45.5130613087
 20
-3.1749115888
 10
45.5128411945
 20
-3.1728700093
 10
45.5126214618
 20
-3.1701879294
 10
45.5124022513
 20
-3.1668674775
 10
45.5121839843
 20
-3.1629150386
 10
45.5119668013
 20
-3.1583327413
 10
45.5117505618
 20
-3.153118457
 10
45.5115352659
 20
-3.1472721859
  0
LWPOLYLINE
  5
5A3
100
AcDbEntity
  8
ASSI
100
AcDbPolyline
 62
7
  6
CONTINUOUS
 90
10
 70
0
 10
45.5135031035
 20
-3.1770796315
 10
45.513281945
 20
-3.1763147962
 10
45.5130613087
 20
-3.1749115888
 10
45.5128411945
 20
-3.1728700093
 10
45.5126214618
 20
-3.1701879294
 10
45.5124022513
 20
-3.1668674775
 10
45.5121839843
 20
-3.1629150386
 10
45.5119668013
 20
-3.1583327413
 10
45.5117505618
 20
-3.153118457
 10
45.5115352659
 20
-3.1472721859
  0
LWPOLYLINE
  5
5A4
100
AcDbEntity
  8
RACCORDO
100
AcDbPolyline
 62
7
  6
CONTINUOUS
 90
16
 70
0
 10
45.583261142
 20
2.9170932083
 10
45.5796765552
 20
2.9809181427
 10
45.5698923593
 20
3.0427150256
 10
45.5539085545
 20
3.1024838571
 10
45.53141622
 20
3.1608276452
 10
45.5027242764
 20
3.2171433819
 10
45.4687594862
 20
3.2696220426
 10
45.42935216
 20
3.3181392169
 10
45.3846719871
 20
3.3628193152
 10
45.3361547975
 20
3.4022265446
 10
45.283676213
 20
3.4361912105
 10
45.2273606117
 20
3.4648830076
 10
45.1690169579
 20
3.4873752264
 10
45.1092482397
 20
3.503358964
 10
45.047451469
 20
3.5131431233
 10
44.9836266458
 20
3.5167277045
  0
LWPOLYLINE
  5
5A5
100
AcDbEntity
  8
RACCORDO
100
AcDbPolyline
 62
253
  6
CONTINUOUS
 90
19
 70
0
 10
44.9894083266
 20
2.8228786968
 10
44.9890245006
 20
2.831614307
 10
44.987904438
 20
2.8401830555
 10
44.9860481386
 20
2.8485849421
 10
44.9834314011
 20
2.8568898799
 10
44.9800784269
 20
2.8650279559
 10
44.9760618203
 20
2.8727894315
 10
44.9713631714
 20
2.8801600557
 10
44.9660008901
 20
2.8871540794
 10
44.9601028099
 20
2.8936045166
 10
44.9536581121
 20
2.8994947847
 10
44.9466776156
 20
2.9048414663
 10
44.9393216104
 20
2.9095273227
 10
44.931577169
 20
2.913537562
 10
44.923457219
 20
2.9168869762
 10
44.9151608332
 20
2.9195027023
 10
44.9067543693
 20
2.9213604526
 10
44.8981714697
 20
2.9224845149
 10
44.8894121343
 20
2.9228748891
  0
LWPOLYLINE
  5
5A6
100
AcDbEntity
  8
ASSI
100
AcDbPolyline
 62
253
  6
CONTINUOUS
 90
19
 70
0
 10
44.9894083266
 20
2.8228786968
 10
44.9890245006
 20
2.831614307
 10
44.987904438
 20
2.8401830555
 10
44.9860481386
 20
2.8485849421
 10
44.9834314011
 20
2.8568898799
 10
44.9800784269
 20
2.8650279559
 10
44.9760618203
 20
2.8727894315
 10
44.9713631714
 20
2.8801600557
 10
44.9660008901
 20
2.8871540794
 10
44.9601028099
 20
2.8936045166
 10
44.9536581121
 20
2.8994947847
 10
44.9466776156
 20
2.9048414663
 10
44.9393216104
 20
2.9095273227
 10
44.931577169
 20
2.913537562
 10
44.923457219
 20
2.9168869762
 10
44.9151608332
 20
2.9195027023
 10
44.9067543693
 20
2.9213604526
 10
44.8981714697
 20
2.9224845149
 10
44.8894121343
 20
2.9228748891
  0
LWPOLYLINE
  5
5A7
100
AcDbEntity
  8
RACCORDO
100
AcDbPolyline
 62
253
  6
CONTINUOUS
 90
19
 70
0
 10
45.4893892881
 20
2.8228786968
 10
45.4871030709
 20
2.8751682858
 10
45.4802684372
 20
2.9270598855
 10
45.4689374038
 20
2.9781586119
 10
45.4531962092
 20
3.0280756106
 10
45.4331646428
 20
3.0764310282
 10
45.4089951273
 20
3.122856901
 10
45.3808715904
 20
3.1669999282
 10
45.3490080455
 20
3.2085241935
 10
45.3136469352
 20
3.2471137256
 10
45.2750572917
 20
3.2824748911
 10
45.233532813
 20
3.314338537
 10
45.189389623
 20
3.3424620996
 10
45.1429637216
 20
3.36663155
 10
45.094608357
 20
3.3866630225
 10
45.0446914632
 20
3.4024041236
 10
44.993592882
 20
3.4137350779
 10
44.9417014788
 20
3.4205696551
 10
44.8894121343
 20
3.4228558506
  0
LWPOLYLINE
  5
5A8
100
AcDbEntity
  8
ASSI
100
AcDbPolyline
 62
253
  6
CONTINUOUS
 90
19
 70
0
 10
45.4893892881
 20
2.8228786968
 10
45.4871030709
 20
2.8751682858
 10
45.4802684372
 20
2.9270598855
 10
45.4689374038
 20
2.9781586119
 10
45.4531962092
 20
3.0280756106
 10
45.4331646428
 20
3.0764310282
 10
45.4089951273
 20
3.122856901
 10
45.3808715904
 20
3.1669999282
 10
45.3490080455
 20
3.2085241935
 10
45.3136469352
 20
3.2471137256
 10
45.2750572917
 20
3.2824748911
 10
45.233532813
 20
3.314338537
 10
45.189389623
 20
3.3424620996
 10
45.1429637216
 20
3.36663155
 10
45.094608357
 20
3.3866630225
 10
45.0446914632
 20
3.4024041236
 10
44.993592882
 20
3.4137350779
 10
44.9417014788
 20
3.4205696551
 10
44.8894121343
 20
3.4228558506
  0
LINE
  5
5A9
100
AcDbEntity
  8
RACCORDO
100
AcDbLine
 62
7
  6
CONTINUOUS
 10
45.510224952
 20
-3.1054007437
 11
45.5115352659
 21
-3.1472721859
  0
LINE
  5
5AA
100
AcDbEntity
  8
ASSI
100
AcDbLine
 62
7
  6
CONTINUOUS
 10
45.510224952
 20
-3.1054007437
 11
45.5115352659
 21
-3.1472721859
  0
LINE
  5
5AB
100
AcDbEntity
  8
RACCORDO
100
AcDbLine
 62
7
  6
CONTINUOUS
 10
45.5076851895
 20
-2.9989280001
 11
45.510224952
 21
-3.1054007437
  0
LINE
  5
5AC
100
AcDbEntity
  8
ASSI
100
AcDbLine
 62
7
  6
CONTINUOUS
 10
45.5076851895
 20
-2.9989280001
 11
45.510224952
 21
-3.1054007437
  0
LINE
  5
5AD
100
AcDbEntity
  8
RACCORDO
100
AcDbLine
 62
7
  6
CONTINUOUS
 10
45.5040777093
 20
-2.7823942365
 11
45.5076851895
 21
-2.9989280001
  0
LINE
  5
5AE
100
AcDbEntity
  8
ASSI
100
AcDbLine
 62
7
  6
CONTINUOUS
 10
45.5040777093
 20
-2.7823942365
 11
45.5076851895
 21
-2.9989280001
  0
LINE
  5
5AF
100
AcDbEntity
  8
RACCORDO
100
AcDbLine
 62
7
  6
CONTINUOUS
 10
45.4998264218
 20
-2.3988349526
 11
45.5040777093
 21
-2.7823942365
  0
LINE
  5
5B0
100
AcDbEntity
  8
ASSI
100
AcDbLine
 62
7
  6
CONTINUOUS
 10
45.4998264218
 20
-2.3988349526
 11
45.5040777093
 21
-2.7823942365
  0
LINE
  5
5B1
100
AcDbEntity
  8
RACCORDO
100
AcDbLine
 62
7
  6
CONTINUOUS
 10
45.4998264218
 20
-2.3988349526
 11
45.4968878253
 21
-1.9774803105
  0
LINE
  5
5B2
100
AcDbEntity
  8
ASSI
100
AcDbLine
 62
7
  6
CONTINUOUS
 10
45.4998264218
 20
-2.3988349526
 11
45.4968878253
 21
-1.9774803105
  0
LINE
  5
5B3
100
AcDbEntity
  8
DRAFT
100
AcDbLine
 62
7
  6
CONTINUOUS
 10
44.6784988335
 20
3.4643465503
 11
44.6784988335
 21
3.456481193
  0
LINE
  5
5B4
100
AcDbEntity
  8
DRAFT
100
AcDbLine
 62
7
  6
CONTINUOUS
 10
44.6784988335
 20
-4.0277880925
 11
44.6784988335
 21
-4.0356534497
  0
LINE
  5
5B5
100
AcDbEntity
  8
DRAFT
100
AcDbLine
 62
7
  6
CONTINUOUS
 10
44.7308799878
 20
3.5167277045
 11
44.7308799878
 21
3.4512562486
  0
LINE
  5
5B6
100
AcDbEntity
  8
DRAFT
100
AcDbLine
 62
7
  6
CONTINUOUS
 10
44.7308799878
 20
-4.022563148
 11
44.7308799878
 21
-4.088034604
  0
LINE
  5
5B7
100
AcDbEntity
  8
DRAFT
100
AcDbLine
 62
7
  6
CONTINUOUS
 10
44.7308799878
 20
-3.2356534497
 11
44.7308799878
 21
2.6643465503
  0
LINE
  5
5B8
100
AcDbEntity
  8
ASSI
100
AcDbLine
 62
7
  6
CONTINUOUS
 10
44.7308799878
 20
-3.2356534497
 11
44.7308799878
 21
2.6643465503
  0
LINE
  5
5B9
100
AcDbEntity
  8
DRAFT
100
AcDbLine
 62
7
  6
CONTINUOUS
 10
44.7343710008
 20
-3.2391444627
 11
44.7343710008
 21
2.6678375633
  0
LINE
  5
5BA
100
AcDbEntity
  8
ASSI
100
AcDbLine
 62
7
  6
CONTINUOUS
 10
44.7343710008
 20
-3.2391444627
 11
44.7343710008
 21
2.6678375633
  0
LINE
  5
5BB
100
AcDbEntity
  8
RACCORDO
100
AcDbLine
 62
253
  6
CONTINUOUS
 10
44.8894121343
 20
-3.4941817885
 11
44.8894121278
 21
-3.9941627501
  0
LINE
  5
5BC
100
AcDbEntity
  8
ASSI
100
AcDbLine
 62
253
  6
CONTINUOUS
 10
44.8894121343
 20
-3.4941817885
 11
44.8894121278
 21
-3.9941627501
  0
LINE
  5
5BD
100
AcDbEntity
  8
RACCORDO
100
AcDbLine
 62
253
  6
CONTINUOUS
 10
44.8894121343
 20
2.9228748891
 11
44.8894121343
 21
3.4228558506
  0
LINE
  5
5BE
100
AcDbEntity
  8
ASSI
100
AcDbLine
 62
253
  6
CONTINUOUS
 10
44.8894121343
 20
2.9228748891
 11
44.8894121343
 21
3.4228558506
  0
LINE
  5
5BF
100
AcDbEntity
  8
RACCORDO
100
AcDbLine
 62
253
  6
CONTINUOUS
 10
44.9894083266
 20
-3.3941855962
 11
44.9894083266
 21
2.8228786968
  0
LINE
  5
5C0
100
AcDbEntity
  8
ASSI
100
AcDbLine
 62
253
  6
CONTINUOUS
 10
44.9894083266
 20
-3.3941855962
 11
44.9894083266
 21
2.8228786968
  0
LINE
  5
5C1
100
AcDbEntity
  8
RACCORDO
100
AcDbLine
 62
7
  6
CONTINUOUS
 10
45.4893892881
 20
-3.3941855962
 11
45.4893892881
 21
2.8228786968
  0
LINE
  5
5C2
100
AcDbEntity
  8
ASSI
100
AcDbLine
 62
7
  6
CONTINUOUS
 10
45.4893892881
 20
-3.3941855962
 11
45.4893892881
 21
2.8228786968
  0
LINE
  5
5C3
100
AcDbEntity
  8
RACCORDO
100
AcDbLine
 62
7
  6
CONTINUOUS
 10
45.4968878253
 20
-1.9774803105
 11
45.4959725166
 21
0.9603401297
  0
LINE
  5
5C4
100
AcDbEntity
  8
ASSI
100
AcDbLine
 62
7
  6
CONTINUOUS
 10
45.4968878253
 20
-1.9774803105
 11
45.4959725166
 21
0.9603401297
  0
LINE
  5
5C5
100
AcDbEntity
  8
RACCORDO
100
AcDbLine
 62
7
  6
CONTINUOUS
 10
45.5177896861
 20
2.8512790947
 11
45.5177896861
 21
2.6143465503
  0
LINE
  5
5C6
100
AcDbEntity
  8
ASSI
100
AcDbLine
 62
7
  6
CONTINUOUS
 10
45.5177896861
 20
2.8512790947
 11
45.5177896861
 21
2.6143465503
  0
LINE
  5
5C7
100
AcDbEntity
  8
RACCORDO
100
AcDbLine
 62
7
  6
CONTINUOUS
 10
45.5177896861
 20
-3.1856534497
 11
45.5177896861
 21
-3.4225859942
  0
LINE
  5
5C8
100
AcDbEntity
  8
ASSI
100
AcDbLine
 62
7
  6
CONTINUOUS
 10
45.5177896861
 20
-3.1856534497
 11
45.5177896861
 21
-3.4225859942
  0
LINE
  5
5C9
100
AcDbEntity
  8
RACCORDO
100
AcDbLine
 62
7
  6
CONTINUOUS
 10
45.583261142
 20
-3.4884001078
 11
45.583261142
 21
-3.1856534497
  0
LINE
  5
5CA
100
AcDbEntity
  8
RACCORDO
100
AcDbLine
 62
7
  6
CONTINUOUS
 10
45.583261142
 20
2.6143465503
 11
45.583261142
 21
2.9170932083
  0
LINE
  5
5CB
100
AcDbEntity
  8
RACCORDO
100
AcDbLine
 62
7
  6
CONTINUOUS
 10
45.4959725166
 20
0.9603401297
 11
45.4968878253
 21
1.4061734111
  0
LINE
  5
5CC
100
AcDbEntity
  8
ASSI
100
AcDbLine
 62
7
  6
CONTINUOUS
 10
45.4959725166
 20
0.9603401297
 11
45.4968878253
 21
1.4061734111
  0
LINE
  5
5CD
100
AcDbEntity
  8
RACCORDO
100
AcDbLine
 62
7
  6
CONTINUOUS
 10
45.4998264218
 20
1.82752805
 11
45.4968878253
 21
1.4061734111
  0
LINE
  5
5CE
100
AcDbEntity
  8
ASSI
100
AcDbLine
 62
7
  6
CONTINUOUS
 10
45.4998264218
 20
1.82752805
 11
45.4968878253
 21
1.4061734111
  0
LINE
  5
5CF
100
AcDbEntity
  8
RACCORDO
100
AcDbLine
 62
7
  6
CONTINUOUS
 10
45.5040777092
 20
2.2110873335
 11
45.4998264218
 21
1.82752805
  0
LINE
  5
5D0
100
AcDbEntity
  8
ASSI
100
AcDbLine
 62
7
  6
CONTINUOUS
 10
45.5040777092
 20
2.2110873335
 11
45.4998264218
 21
1.82752805
  0
LINE
  5
5D1
100
AcDbEntity
  8
RACCORDO
100
AcDbLine
 62
7
  6
CONTINUOUS
 10
45.5076851895
 20
2.4276210966
 11
45.5040777092
 21
2.2110873335
  0
LINE
  5
5D2
100
AcDbEntity
  8
ASSI
100
AcDbLine
 62
7
  6
CONTINUOUS
 10
45.5076851895
 20
2.4276210966
 11
45.5040777092
 21
2.2110873335
  0
LWPOLYLINE
  5
5D3
100
AcDbEntity
  8
RACCORDO
100
AcDbPolyline
 62
7
  6
CONTINUOUS
 90
3
 70
0
 10
45.5115352659
 20
2.5759652865
 10
45.5102249519
 20
2.5340938424
 10
45.5076851895
 20
2.4276210966
  0
LWPOLYLINE
  5
5D4
100
AcDbEntity
  8
ASSI
100
AcDbPolyline
 62
7
  6
CONTINUOUS
 90
3
 70
0
 10
45.5115352659
 20
2.5759652865
 10
45.5102249519
 20
2.5340938424
 10
45.5076851895
 20
2.4276210966
  0
LWPOLYLINE
  5
5D5
100
AcDbEntity
  8
RACCORDO
100
AcDbPolyline
 62
7
  6
CONTINUOUS
 90
10
 70
0
 10
45.5115352659
 20
2.5759652865
 10
45.5117505618
 20
2.5818115576
 10
45.5119668013
 20
2.5870258418
 10
45.5121839843
 20
2.5916081391
 10
45.5124022513
 20
2.595560578
 10
45.5126214618
 20
2.59888103
 10
45.5128411945
 20
2.6015631099
 10
45.5130613087
 20
2.6036046893
 10
45.513281945
 20
2.6050078967
 10
45.5135031035
 20
2.6057727321
  0
LWPOLYLINE
  5
5D6
100
AcDbEntity
  8
ASSI
100
AcDbPolyline
 62
7
  6
CONTINUOUS
 90
10
 70
0
 10
45.5115352659
 20
2.5759652865
 10
45.5117505618
 20
2.5818115576
 10
45.5119668013
 20
2.5870258418
 10
45.5121839843
 20
2.5916081391
 10
45.5124022513
 20
2.595560578
 10
45.5126214618
 20
2.59888103
 10
45.5128411945
 20
2.6015631099
 10
45.5130613087
 20
2.6036046893
 10
45.513281945
 20
2.6050078967
 10
45.5135031035
 20
2.6057727321
  0
LWPOLYLINE
  5
5D7
100
AcDbEntity
  8
RACCORDO
100
AcDbPolyline
 62
7
  6
CONTINUOUS
 90
16
 70
0
 10
45.5177896861
 20
-3.4225859942
 10
45.5142072484
 20
-3.4864062819
 10
45.5044188351
 20
-3.5482092692
 10
45.488424446
 20
-3.607994956
 10
45.4659151119
 20
-3.6663695244
 10
45.4371998021
 20
-3.7227267923
 10
45.4032054246
 20
-3.775248214
 10
45.3637598763
 20
-3.8238086808
 10
45.3190352604
 20
-3.8685333013
 10
45.2704747946
 20
-3.9079788556
 10
45.2179533682
 20
-3.9419732408
 10
45.1615960918
 20
-3.9706885598
 10
45.1032215151
 20
-3.9931979012
 10
45.0434358212
 20
-4.0091922944
 10
44.9816328269
 20
-4.01898071
 10
44.9178125323
 20
-4.022563148
  0
LWPOLYLINE
  5
5D8
100
AcDbEntity
  8
ASSI
100
AcDbPolyline
 62
7
  6
CONTINUOUS
 90
16
 70
0
 10
45.5177896861
 20
-3.4225859942
 10
45.5142072484
 20
-3.4864062819
 10
45.5044188351
 20
-3.5482092692
 10
45.488424446
 20
-3.607994956
 10
45.4659151119
 20
-3.6663695244
 10
45.4371998021
 20
-3.7227267923
 10
45.4032054246
 20
-3.775248214
 10
45.3637598763
 20
-3.8238086808
 10
45.3190352604
 20
-3.8685333013
 10
45.2704747946
 20
-3.9079788556
 10
45.2179533682
 20
-3.9419732408
 10
45.1615960918
 20
-3.9706885598
 10
45.1032215151
 20
-3.9931979012
 10
45.0434358212
 20
-4.0091922944
 10
44.9816328269
 20
-4.01898071
 10
44.9178125323
 20
-4.022563148
  0
LWPOLYLINE
  5
5D9
100
AcDbEntity
  8
RACCORDO
100
AcDbPolyline
 62
253
  6
CONTINUOUS
 90
22
 70
0
 10
59.5003378796
 20
1.2766454298
 10
59.5065636026
 20
1.2798764349
 10
59.5127471601
 20
1.2833512335
 10
59.5188687989
 20
1.2870698254
 10
59.5249057006
 20
1.2910305976
 10
59.5308382044
 20
1.2952351632
 10
59.5366490729
 20
1.2996883618
 10
59.5423140714
 20
1.3043932753
 10
59.5478072746
 20
1.3093468218
 10
59.5531060505
 20
1.3145445945
 10
59.5581808877
 20
1.3199887821
 10
59.5630042884
 20
1.3256771958
 10
59.5675530157
 20
1.3315988627
 10
59.57179284
 20
1.3377551047
 10
59.5756930724
 20
1.3441445999
 10
59.5792294029
 20
1.3507524087
 10
59.5823596685
 20
1.3575736824
 10
59.585051096
 20
1.3646132698
 10
59.5872782964
 20
1.3718707784
 10
59.5889942078
 20
1.3793460774
 10
59.5901424057
 20
1.3870392976
 10
59.590672111
 20
1.3949504389
  0
LINE
  5
5DA
100
AcDbEntity
  8
RACCORDO
100
AcDbLine
 62
253
  6
CONTINUOUS
 10
59.3907028728
 20
1.2218278934
 11
59.5003378796
 21
1.2766454298
  0
LINE
  5
5DB
100
AcDbEntity
  8
RACCORDO
100
AcDbLine
 62
253
  6
CONTINUOUS
 10
59.5003378796
 20
-1.8479523006
 11
59.3907028728
 21
-1.7931347929
  0
LINE
  5
5DC
100
AcDbEntity
  8
RACCORDO
100
AcDbLine
 62
7
  6
CONTINUOUS
 10
58.6499159826
 20
2.6048314528
 11
58.634250193
 21
2.6126619611
  0
LINE
  5
5DD
100
AcDbEntity
  8
ASSI
100
AcDbLine
 62
7
  6
CONTINUOUS
 10
50.8308799878
 20
-0.7856534497
 11
50.8308799878
 21
0.2143465503
  0
LINE
  5
5DE
100
AcDbEntity
  8
RACCORDO
100
AcDbLine
 62
7
  6
CONTINUOUS
 10
58.5308799878
 20
2.6143465503
 11
58.5223061696
 21
2.6057727321
  0
LINE
  5
5DF
100
AcDbEntity
  8
ASSI
100
AcDbLine
 62
7
  6
CONTINUOUS
 10
58.5308799878
 20
2.6143465503
 11
58.5223061696
 21
2.6057727321
  0
LINE
  5
5E0
100
AcDbEntity
  8
RACCORDO
100
AcDbLine
 62
7
  6
CONTINUOUS
 10
58.6499159826
 20
-3.1761383523
 11
58.634250193
 21
-3.1839688605
  0
LINE
  5
5E1
100
AcDbEntity
  8
RACCORDO
100
AcDbLine
 62
7
  6
CONTINUOUS
 10
58.5308799878
 20
-3.1856534497
 11
58.5223061696
 21
-3.1770796315
  0
LINE
  5
5E2
100
AcDbEntity
  8
ASSI
100
AcDbLine
 62
7
  6
CONTINUOUS
 10
58.5308799878
 20
-3.1856534497
 11
58.5223061696
 21
-3.1770796315
  0
LINE
  5
5E3
100
AcDbEntity
  8
RACCORDO
100
AcDbLine
 62
253
  6
CONTINUOUS
 10
59.5213799924
 20
-3.1761382239
 11
59.5308952183
 21
-3.1856534497
  0
LINE
  5
5E4
100
AcDbEntity
  8
RACCORDO
100
AcDbLine
 62
253
  6
CONTINUOUS
 10
59.6213648903
 20
-3.0761535827
 11
59.6308495245
 21
-3.0856382169
  0
LINE
  5
5E5
100
AcDbEntity
  8
ASSI
100
AcDbLine
 62
7
  6
CONTINUOUS
 10
51.8891805122
 20
-0.7856534497
 11
51.8891805122
 21
0.2143465503
  0
LWPOLYLINE
  5
5E6
100
AcDbEntity
  8
RACCORDO
100
AcDbPolyline
 62
7
  6
CONTINUOUS
 90
13
 70
0
 10
58.5308799878
 20
1.5643465503
 10
58.529671638
 20
1.5630391841
 10
58.5284685639
 20
1.5591753
 10
58.5272707654
 20
1.5527548981
 10
58.5260766773
 20
1.5437619447
 10
58.5248878648
 20
1.5322124734
 10
58.5237090236
 20
1.5181545849
 10
58.5225401031
 20
1.5015776374
 10
58.521381154
 20
1.4824922726
 10
58.5202370237
 20
1.4609785171
 10
58.5191077953
 20
1.4370267836
 10
58.5179933858
 20
1.4106466593
 10
58.5158228971
 20
1.3509182765
  0
LWPOLYLINE
  5
5E7
100
AcDbEntity
  8
ASSI
100
AcDbPolyline
 62
7
  6
CONTINUOUS
 90
13
 70
0
 10
58.5308799878
 20
1.5643465503
 10
58.529671638
 20
1.5630391841
 10
58.5284685639
 20
1.5591753
 10
58.5272707654
 20
1.5527548981
 10
58.5260766773
 20
1.5437619447
 10
58.5248878648
 20
1.5322124734
 10
58.5237090236
 20
1.5181545849
 10
58.5225401031
 20
1.5015776374
 10
58.521381154
 20
1.4824922726
 10
58.5202370237
 20
1.4609785171
 10
58.5191077953
 20
1.4370267836
 10
58.5179933858
 20
1.4106466593
 10
58.5158228971
 20
1.3509182765
  0
LWPOLYLINE
  5
5E8
100
AcDbEntity
  8
RACCORDO
100
AcDbPolyline
 62
253
  6
CONTINUOUS
 90
22
 70
0
 10
59.4455204092
 20
1.3314629002
 10
59.4486501936
 20
1.3348079554
 10
59.4517383231
 20
1.3384058823
 10
59.4547847975
 20
1.3422559348
 10
59.4578002789
 20
1.346354403
 10
59.4607741052
 20
1.3507033427
 10
59.4636742907
 20
1.3553105413
 10
59.46650283
 20
1.3601781286
 10
59.4692577285
 20
1.3653018867
 10
59.4719010162
 20
1.3706799586
 10
59.474434054
 20
1.376313207
 10
59.476855481
 20
1.382198305
 10
59.4791232453
 20
1.3883270511
 10
59.4812392287
 20
1.3946994572
 10
59.4832015495
 20
1.4013127271
 10
59.48496251
 20
1.408154447
 10
59.4865253421
 20
1.4152180262
 10
59.4878868139
 20
1.4225070409
 10
59.4889895321
 20
1.4300242672
 10
59.4898143655
 20
1.4377694578
 10
59.4903804452
 20
1.445739372
 10
59.4906877712
 20
1.453932166
  0
LINE
  5
5E9
100
AcDbEntity
  8
RACCORDO
100
AcDbLine
 62
253
  6
CONTINUOUS
 10
59.5308952183
 20
2.6143465503
 11
59.5213799924
 21
2.6048313244
  0
LINE
  5
5EA
100
AcDbEntity
  8
RACCORDO
100
AcDbLine
 62
253
  6
CONTINUOUS
 10
59.6308495245
 20
2.5143313175
 11
59.6213648903
 21
2.5048466833
  0
LINE
  5
5EB
100
AcDbEntity
  8
RACCORDO
100
AcDbLine
 62
7
  6
CONTINUOUS
 10
59.6303011853
 20
1.6140571711
 11
59.634360678
 21
1.6181166638
  0
LWPOLYLINE
  5
5EC
100
AcDbEntity
  8
RACCORDO
100
AcDbPolyline
 62
253
  6
CONTINUOUS
 90
10
 70
0
 10
59.4455204092
 20
1.3314628944
 10
59.452296756
 20
1.3265084961
 10
59.45902012
 20
1.3211642196
 10
59.4656379313
 20
1.315471852
 10
59.4720984453
 20
1.3094759018
 10
59.4783511472
 20
1.3032232514
 10
59.4843471472
 20
1.2967627902
 10
59.4900395628
 20
1.2901450325
 10
59.4953838848
 20
1.2834217225
 10
59.5003383261
 20
1.2766454299
  0
LINE
  5
5ED
100
AcDbEntity
  8
RACCORDO
100
AcDbLine
 62
7
  6
CONTINUOUS
 10
59.634360678
 20
-2.1894235632
 11
59.6303011853
 21
-2.1853640705
  0
LWPOLYLINE
  5
5EE
100
AcDbEntity
  8
RACCORDO
100
AcDbPolyline
 62
253
  6
CONTINUOUS
 90
22
 70
0
 10
59.4455203805
 20
-1.9027697997
 10
59.4487243174
 20
-1.906200244
 10
59.4518771829
 20
-1.9098830142
 10
59.454978977
 20
-1.9138173473
 10
59.4580414207
 20
-1.9180035294
 10
59.461052793
 20
-1.922439577
 10
59.463977931
 20
-1.9271212498
 10
59.4668165176
 20
-1.9320484059
 10
59.4695688699
 20
-1.9372191713
 10
59.4722007759
 20
-1.9426266576
 10
59.474712986
 20
-1.9482704193
 10
59.4771047497
 20
-1.9541485917
 10
59.4793396037
 20
-1.9602521357
 10
59.4814188381
 20
-1.9665759698
 10
59.4833411627
 20
-1.9731226187
 10
59.4850662433
 20
-1.9798943862
 10
59.4865825473
 20
-1.9867463623
 10
59.4879016073
 20
-1.9938210979
 10
59.4890176862
 20
-2.001549242
 10
59.4899288716
 20
-2.0100698029
 10
59.4906370758
 20
-2.0192331769
 10
59.491142299
 20
-2.0290336917
  0
LWPOLYLINE
  5
5EF
100
AcDbEntity
  8
RACCORDO
100
AcDbPolyline
 62
7
  6
CONTINUOUS
 90
3
 70
0
 10
59.1515131031
 20
-1.8553186486
 10
59.1638197355
 20
-1.8430507553
 10
59.2011392455
 20
-1.8056311909
  0
LINE
  5
5F0
100
AcDbEntity
  8
RACCORDO
100
AcDbLine
 62
7
  6
CONTINUOUS
 10
59.2011392455
 20
-1.8056311909
 11
59.2137227003
 21
-1.7931347929
  0
LWPOLYLINE
  5
5F1
100
AcDbEntity
  8
RACCORDO
100
AcDbPolyline
 62
7
  6
CONTINUOUS
 90
3
 70
0
 10
59.1040876935
 20
-1.9027697997
 10
59.1156801262
 20
-1.8912844286
 10
59.1515131031
 20
-1.8553186486
  0
LWPOLYLINE
  5
5F2
100
AcDbEntity
  8
RACCORDO
100
AcDbPolyline
 62
7
  6
CONTINUOUS
 90
10
 70
0
 10
58.6499159826
 20
2.6048314528
 10
58.6503104959
 20
2.6045061825
 10
58.6507042538
 20
2.6039268708
 10
58.6510972563
 20
2.6030935177
 10
58.6514897048
 20
2.6020054314
 10
58.651881398
 20
2.6006633037
 10
58.652271731
 20
2.59906921
 10
58.6526605024
 20
2.5972238421
 10
58.6530479137
 20
2.5951265082
 10
58.6534339648
 20
2.5927772083
  0
LWPOLYLINE
  5
5F3
100
AcDbEntity
  8
RACCORDO
100
AcDbPolyline
 62
7
  6
CONTINUOUS
 90
3
 70
0
 10
59.1515388445
 20
1.2840374906
 10
59.1155730645
 20
1.3198704675
 10
59.1040876935
 20
1.3314629002
  0
LWPOLYLINE
  5
5F4
100
AcDbEntity
  8
RACCORDO
100
AcDbPolyline
 62
7
  6
CONTINUOUS
 90
3
 70
0
 10
59.2012263023
 20
1.2344113482
 10
59.1638067378
 20
1.2717308582
 10
59.1515388445
 20
1.2840374906
  0
LINE
  5
5F5
100
AcDbEntity
  8
RACCORDO
100
AcDbLine
 62
7
  6
CONTINUOUS
 10
59.2137227003
 20
1.2218278934
 11
59.2012263023
 21
1.2344113482
  0
LWPOLYLINE
  5
5F6
100
AcDbEntity
  8
RACCORDO
100
AcDbPolyline
 62
7
  6
CONTINUOUS
 90
10
 70
0
 10
58.5223061696
 20
2.6057727321
 10
58.5218638176
 20
2.6050078911
 10
58.5214225102
 20
2.6036046777
 10
58.5209822474
 20
2.6015630919
 10
58.5205427481
 20
2.5988810029
 10
58.5201042934
 20
2.5955605415
 10
58.5196677264
 20
2.5916081
 10
58.5192333281
 20
2.587025809
 10
58.5188008175
 20
2.5818115378
 10
58.5183701946
 20
2.5759652865
  0
LWPOLYLINE
  5
5F7
100
AcDbEntity
  8
ASSI
100
AcDbPolyline
 62
7
  6
CONTINUOUS
 90
10
 70
0
 10
58.5223061696
 20
2.6057727321
 10
58.5218638176
 20
2.6050078911
 10
58.5214225102
 20
2.6036046777
 10
58.5209822474
 20
2.6015630919
 10
58.5205427481
 20
2.5988810029
 10
58.5201042934
 20
2.5955605415
 10
58.5196677264
 20
2.5916081
 10
58.5192333281
 20
2.587025809
 10
58.5188008175
 20
2.5818115378
 10
58.5183701946
 20
2.5759652865
  0
LWPOLYLINE
  5
5F8
100
AcDbEntity
  8
RACCORDO
100
AcDbPolyline
 62
7
  6
CONTINUOUS
 90
10
 70
0
 10
58.7589560515
 20
-2.328639565
 10
58.7481201501
 20
-2.3407299849
 10
58.7383038707
 20
-2.3535145238
 10
58.7295072132
 20
-2.3669791632
 10
58.7216427734
 20
-2.3811515353
 10
58.7147979555
 20
-2.3959723714
 10
58.7092349722
 20
-2.4112985656
 10
58.7050412276
 20
-2.4270733746
 10
58.7021293177
 20
-2.4433233111
 10
58.7004992423
 20
-2.4600317642
  0
LWPOLYLINE
  5
5F9
100
AcDbEntity
  8
RACCORDO
100
AcDbPolyline
 62
7
  6
CONTINUOUS
 90
9
 70
0
 10
59.1040876935
 20
-1.9027697997
 10
59.1002401013
 20
-1.9067141679
 10
59.0964715721
 20
-1.910752288
 10
59.092782106
 20
-1.9148838316
 10
59.0891718619
 20
-1.9191112552
 10
59.0856406808
 20
-1.9234314112
 10
59.0821880861
 20
-1.9278355814
 10
59.078813919
 20
-1.9323206466
 10
59.0755183383
 20
-1.9368890537
  0
LINE
  5
5FA
100
AcDbEntity
  8
RACCORDO
100
AcDbLine
 62
253
  6
CONTINUOUS
 10
59.634360678
 20
-3.0821270634
 11
59.6308495245
 21
-3.0856382169
  0
LINE
  5
5FB
100
AcDbEntity
  8
RACCORDO
100
AcDbLine
 62
253
  6
CONTINUOUS
 10
59.6308495245
 20
2.5143313175
 11
59.634360678
 21
2.510820164
  0
LWPOLYLINE
  5
5FC
100
AcDbEntity
  8
RACCORDO
100
AcDbPolyline
 62
7
  6
CONTINUOUS
 90
6
 70
0
 10
58.7589560515
 20
1.7573326655
 10
58.8168142783
 20
1.6951512357
 10
58.8724189005
 20
1.6320357703
 10
58.9257699182
 20
1.5679862692
 10
58.9768673313
 20
1.5030027323
 10
59.0257111399
 20
1.4370851598
  0
LINE
  5
5FD
100
AcDbEntity
  8
RACCORDO
100
AcDbLine
 62
253
  6
CONTINUOUS
 10
59.6074623982
 20
2.5786140787
 11
59.6109782546
 21
2.5751010656
  0
LWPOLYLINE
  5
5FE
100
AcDbEntity
  8
RACCORDO
100
AcDbPolyline
 62
7
  6
CONTINUOUS
 90
6
 70
0
 10
59.6015539139
 20
2.5850635148
 10
59.6074623982
 20
2.5786140787
 10
59.6174584482
 20
2.5643314065
 10
59.6248222045
 20
2.5485313395
 10
59.6293311525
 20
2.5316941285
 10
59.6308495245
 20
2.5143313175
  0
LWPOLYLINE
  5
5FF
100
AcDbEntity
  8
RACCORDO
100
AcDbPolyline
 62
253
  6
CONTINUOUS
 90
6
 70
0
 10
59.5213800184
 20
2.6048313244
 10
59.5211432303
 20
2.6042488281
 10
59.5209073756
 20
2.6030934089
 10
59.5206724543
 20
2.6013662574
 10
59.5204384663
 20
2.599069221
 10
59.5202054117
 20
2.5962048021
  0
LINE
  5
600
100
AcDbEntity
  8
RACCORDO
100
AcDbLine
 62
7
  6
CONTINUOUS
 10
59.6344933236
 20
1.6184212964
 11
59.634360678
 21
1.6181166638
  0
LINE
  5
601
100
AcDbEntity
  8
RACCORDO
100
AcDbLine
 62
253
  6
CONTINUOUS
 10
59.4455204092
 20
1.3314629002
 11
59.3907028728
 21
1.2218278934
  0
LWPOLYLINE
  5
602
100
AcDbEntity
  8
RACCORDO
100
AcDbPolyline
 62
253
  6
CONTINUOUS
 90
7
 70
0
 10
59.6213648903
 20
2.5048466833
 10
59.6211270801
 20
2.5043718715
 10
59.6208906097
 20
2.5034440914
 10
59.6206554791
 20
2.502063343
 10
59.6204216883
 20
2.5002296262
 10
59.6201892374
 20
2.4979429411
 10
59.6199581262
 20
2.4952032877
  0
LWPOLYLINE
  5
603
100
AcDbEntity
  8
RACCORDO
100
AcDbPolyline
 62
7
  6
CONTINUOUS
 90
7
 70
0
 10
59.0755183383
 20
-1.9368890537
 10
59.0257112322
 20
-2.008391945
 10
58.976867479
 20
-2.074309449
 10
58.9257700843
 20
-2.139292963
 10
58.8724190481
 20
-2.2033424869
 10
58.8168143705
 20
-2.2664580209
 10
58.7589560515
 20
-2.328639565
  0
LWPOLYLINE
  5
604
100
AcDbEntity
  8
RACCORDO
100
AcDbPolyline
 62
253
  6
CONTINUOUS
 90
10
 70
0
 10
59.5003380942
 20
-1.8479523005
 10
59.4953837004
 20
-1.8547286231
 10
59.4900394189
 20
-1.8614519579
 10
59.484347037
 20
-1.8680697346
 10
59.4783510641
 20
-1.8745302083
 10
59.4720983832
 20
-1.880782864
 10
59.4656378845
 20
-1.8867788116
 10
59.4590200835
 20
-1.8924711683
 10
59.4522967253
 20
-1.8978154252
 10
59.4455203805
 20
-1.9027697951
  0
LWPOLYLINE
  5
605
100
AcDbEntity
  8
RACCORDO
100
AcDbPolyline
 62
7
  6
CONTINUOUS
 90
4
 70
0
 10
59.6049535959
 20
-3.1529568115
 10
59.6153976236
 20
-3.1407342788
 10
59.6236161734
 20
-3.1272866764
 10
59.6299482134
 20
-3.111713342
  0
LINE
  5
606
100
AcDbEntity
  8
RACCORDO
100
AcDbLine
 62
253
  6
CONTINUOUS
 10
59.6074579771
 20
-3.1499260842
 11
59.6109795623
 21
-3.1464064065
  0
LWPOLYLINE
  5
607
100
AcDbEntity
  8
RACCORDO
100
AcDbPolyline
 62
7
  6
CONTINUOUS
 90
6
 70
0
 10
59.6015538387
 20
-3.1563704141
 10
59.6074579771
 20
-3.1499260842
 10
59.6174534899
 20
-3.1356468973
 10
59.6248191906
 20
-3.1198475607
 10
59.629330486
 20
-3.1030075407
 10
59.6308495245
 20
-3.0856382169
  0
LINE
  5
608
100
AcDbEntity
  8
RACCORDO
100
AcDbLine
 62
253
  6
CONTINUOUS
 10
59.6174584482
 20
2.5643314065
 11
59.6209745382
 21
2.5608228567
  0
LWPOLYLINE
  5
609
100
AcDbEntity
  8
RACCORDO
100
AcDbPolyline
 62
7
  6
CONTINUOUS
 90
10
 70
0
 10
59.0257111399
 20
1.4370851598
 10
59.0755183383
 20
1.3655821542
 10
59.078813919
 20
1.3610137471
 10
59.0821880861
 20
1.356528682
 10
59.0856406808
 20
1.3521245118
 10
59.0891718619
 20
1.3478043557
 10
59.092782106
 20
1.3435769322
 10
59.0964715721
 20
1.3394453885
 10
59.1002401013
 20
1.3354072684
 10
59.1040876935
 20
1.3314629002
  0
LINE
  5
60A
100
AcDbEntity
  8
RACCORDO
100
AcDbLine
 62
253
  6
CONTINUOUS
 10
59.3907028728
 20
-1.7931347929
 11
59.4455203805
 21
-1.9027697997
  0
LWPOLYLINE
  5
60B
100
AcDbEntity
  8
RACCORDO
100
AcDbPolyline
 62
7
  6
CONTINUOUS
 90
10
 70
0
 10
59.6303011853
 20
-2.1853640705
 10
59.6288986534
 20
-2.182243408
 10
59.6275046887
 20
-2.1757807119
 10
59.6261192912
 20
-2.1659759821
 10
59.6247400551
 20
-2.1527997276
 10
59.6233693861
 20
-2.1362814395
 10
59.6220145022
 20
-2.116509591
 10
59.6206754591
 20
-2.0934666898
 10
59.619352201
 20
-2.0671702282
 10
59.6180517787
 20
-2.0377611567
  0
LINE
  5
60C
100
AcDbEntity
  8
RACCORDO
100
AcDbLine
 62
7
  6
CONTINUOUS
 10
59.634360678
 20
-2.1894235632
 11
59.6344933236
 21
-2.1897281958
  0
LWPOLYLINE
  5
60D
100
AcDbEntity
  8
RACCORDO
100
AcDbPolyline
 62
7
  6
CONTINUOUS
 90
10
 70
0
 10
58.7004992423
 20
1.8887248647
 10
58.7021286801
 20
1.8720190418
 10
58.7050399365
 20
1.855771154
 10
58.7092330114
 20
1.8399977939
 10
58.714795075
 20
1.8246724816
 10
58.7216389573
 20
1.8098518961
 10
58.7295031471
 20
1.7956789781
 10
58.7383004743
 20
1.7822129304
 10
58.7481181091
 20
1.7694261572
 10
58.7589560515
 20
1.7573326655
  0
LWPOLYLINE
  5
60E
100
AcDbEntity
  8
RACCORDO
100
AcDbPolyline
 62
253
  6
CONTINUOUS
 90
10
 70
0
 10
59.6199581262
 20
2.4952032877
 10
59.6183801468
 20
2.512106041
 10
59.6138266524
 20
2.5284976692
 10
59.6064353303
 20
2.5438825412
 10
59.596429675
 20
2.5577954677
 10
59.5841122287
 20
2.569815769
 10
59.5698554318
 20
2.5795799936
 10
59.5540903648
 20
2.5867929048
 10
59.5372937141
 20
2.5912364092
 10
59.5199733566
 20
2.5927761516
  0
LWPOLYLINE
  5
60F
100
AcDbEntity
  8
RACCORDO
100
AcDbPolyline
 62
253
  6
CONTINUOUS
 90
10
 70
0
 10
59.6213648903
 20
2.5048466833
 10
59.619841183
 20
2.5222056055
 10
59.6153269229
 20
2.5390372638
 10
59.6079592324
 20
2.5548304341
 10
59.5979619014
 20
2.5691054356
 10
59.5856385852
 20
2.5814287054
 10
59.5713635787
 20
2.591425964
 10
59.5555704541
 20
2.5987935754
 10
59.538738895
 20
2.6033077716
 10
59.5213801208
 20
2.6048314528
  0
LINE
  5
610
100
AcDbEntity
  8
RACCORDO
100
AcDbLine
 62
253
  6
CONTINUOUS
 10
59.6328462569
 20
2.5281864052
 11
59.634360678
 21
2.510820164
  0
LWPOLYLINE
  5
611
100
AcDbEntity
  8
RACCORDO
100
AcDbPolyline
 62
253
  6
CONTINUOUS
 90
7
 70
0
 10
59.6199581262
 20
-3.0665101871
 10
59.6201892374
 20
-3.0692498406
 10
59.6204216883
 20
-3.0715365257
 10
59.6206554791
 20
-3.0733702425
 10
59.6208906097
 20
-3.0747509909
 10
59.6211270801
 20
-3.075678771
 10
59.6213648903
 20
-3.0761535827
  0
LWPOLYLINE
  5
612
100
AcDbEntity
  8
RACCORDO
100
AcDbPolyline
 62
253
  6
CONTINUOUS
 90
6
 70
0
 10
59.5202053812
 20
-3.1675112896
 10
59.5204384541
 20
-3.1703759853
 10
59.5206724543
 20
-3.1726731569
 10
59.5209073817
 20
-3.1744003461
 10
59.5211432364
 20
-3.1755557504
 10
59.5213800184
 20
-3.1761382238
  0
LWPOLYLINE
  5
613
100
AcDbEntity
  8
RACCORDO
100
AcDbPolyline
 62
7
  6
CONTINUOUS
 90
10
 70
0
 10
58.5183701946
 20
-3.1472721859
 10
58.5188008175
 20
-3.1531184373
 10
58.5192333281
 20
-3.1583327084
 10
58.5196677264
 20
-3.1629149994
 10
58.5201042934
 20
-3.166867441
 10
58.5205427481
 20
-3.1701879024
 10
58.5209822474
 20
-3.1728699914
 10
58.5214225102
 20
-3.1749115772
 10
58.5218638176
 20
-3.1763147906
 10
58.5223061696
 20
-3.1770796315
  0
LWPOLYLINE
  5
614
100
AcDbEntity
  8
ASSI
100
AcDbPolyline
 62
7
  6
CONTINUOUS
 90
10
 70
0
 10
58.5183701946
 20
-3.1472721859
 10
58.5188008175
 20
-3.1531184373
 10
58.5192333281
 20
-3.1583327084
 10
58.5196677264
 20
-3.1629149994
 10
58.5201042934
 20
-3.166867441
 10
58.5205427481
 20
-3.1701879024
 10
58.5209822474
 20
-3.1728699914
 10
58.5214225102
 20
-3.1749115772
 10
58.5218638176
 20
-3.1763147906
 10
58.5223061696
 20
-3.1770796315
  0
LWPOLYLINE
  5
615
100
AcDbEntity
  8
RACCORDO
100
AcDbPolyline
 62
7
  6
CONTINUOUS
 90
4
 70
0
 10
59.6345022024
 20
2.5105483752
 10
59.6335022669
 20
2.5246726721
 10
59.6292669588
 20
2.5425249735
 10
59.6222392774
 20
2.5586033909
  0
LWPOLYLINE
  5
616
100
AcDbEntity
  8
RACCORDO
100
AcDbPolyline
 62
253
  6
CONTINUOUS
 90
22
 70
0
 10
59.5906724119
 20
-1.9662690783
 10
59.5901500643
 20
-1.9584205222
 10
59.5890192039
 20
-1.9507904539
 10
59.5873308009
 20
-1.9433788734
 10
59.5851416245
 20
-1.9361865671
 10
59.5824986148
 20
-1.9292127487
 10
59.5794260886
 20
-1.9224550589
 10
59.5759586877
 20
-1.9159125065
 10
59.5721361832
 20
-1.9095860829
 10
59.5679720294
 20
-1.9034764028
 10
59.5634906921
 20
-1.8975799104
 10
59.5587258105
 20
-1.8919001617
 10
59.5536950844
 20
-1.8864484395
 10
59.5484221729
 20
-1.8812256186
 10
59.5429345133
 20
-1.8762308243
 10
59.5372516207
 20
-1.8714727146
 10
59.5313935953
 20
-1.866952674
 10
59.5253859704
 20
-1.8626693181
 10
59.5192550731
 20
-1.8586271523
 10
59.5130239239
 20
-1.8548276783
 10
59.5067116469
 20
-1.8512693944
 10
59.5003378796
 20
-1.8479523006
  0
LWPOLYLINE
  5
617
100
AcDbEntity
  8
RACCORDO
100
AcDbPolyline
 62
7
  6
CONTINUOUS
 90
11
 70
0
 10
58.5191078274
 20
-2.0083344036
 10
58.5202370524
 20
-2.0322859908
 10
58.5213811786
 20
-2.0537996101
 10
58.5225401229
 20
-2.0728848434
 10
58.5237090387
 20
-2.0894616817
 10
58.5248878755
 20
-2.1035194906
 10
58.5260766837
 20
-2.1150689045
 10
58.5272707686
 20
-2.1240618179
 10
58.5284685651
 20
-2.1304821957
 10
58.5296716381
 20
-2.134346073
 10
58.5308799878
 20
-2.1356534497
  0
LWPOLYLINE
  5
618
100
AcDbEntity
  8
ASSI
100
AcDbPolyline
 62
7
  6
CONTINUOUS
 90
11
 70
0
 10
58.5191078274
 20
-2.0083344036
 10
58.5202370524
 20
-2.0322859908
 10
58.5213811786
 20
-2.0537996101
 10
58.5225401229
 20
-2.0728848434
 10
58.5237090387
 20
-2.0894616817
 10
58.5248878755
 20
-2.1035194906
 10
58.5260766837
 20
-2.1150689045
 10
58.5272707686
 20
-2.1240618179
 10
58.5284685651
 20
-2.1304821957
 10
58.5296716381
 20
-2.134346073
 10
58.5308799878
 20
-2.1356534497
  0
LWPOLYLINE
  5
619
100
AcDbEntity
  8
RACCORDO
100
AcDbPolyline
 62
253
  6
CONTINUOUS
 90
5
 70
0
 10
59.6107107124
 20
-2.8918327785
 10
59.6129220035
 20
-2.9441490362
 10
59.6152015234
 20
-2.9906656685
 10
59.6175468976
 20
-3.0314527188
 10
59.6199581262
 20
-3.0665101871
  0
LWPOLYLINE
  5
61A
100
AcDbEntity
  8
RACCORDO
100
AcDbPolyline
 62
253
  6
CONTINUOUS
 90
5
 70
0
 10
59.5107401466
 20
-2.9834595045
 10
59.5129521832
 20
-3.0377776122
 10
59.5152290358
 20
-3.0862620415
 10
59.5175693797
 20
-3.1284623402
 10
59.5202053812
 20
-3.1675112896
  0
LWPOLYLINE
  5
61B
100
AcDbEntity
  8
RACCORDO
100
AcDbPolyline
 62
7
  6
CONTINUOUS
 90
5
 70
0
 10
58.5082024604
 20
-2.9340946156
 10
58.5106693615
 20
-2.9989257016
 10
58.5131823918
 20
-3.0559514042
 10
58.5157493362
 20
-3.1054002323
 10
58.5183701946
 20
-3.1472721859
  0
LWPOLYLINE
  5
61C
100
AcDbEntity
  8
ASSI
100
AcDbPolyline
 62
7
  6
CONTINUOUS
 90
5
 70
0
 10
58.5082024604
 20
-2.9340946156
 10
58.5106693615
 20
-2.9989257016
 10
58.5131823918
 20
-3.0559514042
 10
58.5157493362
 20
-3.1054002323
 10
58.5183701946
 20
-3.1472721859
  0
LINE
  5
61D
100
AcDbEntity
  8
RACCORDO
100
AcDbLine
 62
7
  6
CONTINUOUS
 10
58.5168984301
 20
-1.9532548264
 11
58.5191078274
 21
-2.0083344036
  0
LINE
  5
61E
100
AcDbEntity
  8
ASSI
100
AcDbLine
 62
7
  6
CONTINUOUS
 10
58.5168984301
 20
-1.9532548264
 11
58.5191078274
 21
-2.0083344036
  0
LINE
  5
61F
100
AcDbEntity
  8
RACCORDO
100
AcDbLine
 62
7
  6
CONTINUOUS
 10
59.6180517787
 20
-2.0377611567
 11
59.6155197011
 21
-1.969572323
  0
LINE
  5
620
100
AcDbEntity
  8
RACCORDO
100
AcDbLine
 62
253
  6
CONTINUOUS
 10
59.6064785694
 20
-2.770221647
 11
59.6107107124
 21
-2.8918327785
  0
LINE
  5
621
100
AcDbEntity
  8
RACCORDO
100
AcDbLine
 62
253
  6
CONTINUOUS
 10
59.5065025736
 20
-2.8576942846
 11
59.5107401466
 21
-2.9834595045
  0
LINE
  5
622
100
AcDbEntity
  8
RACCORDO
100
AcDbLine
 62
7
  6
CONTINUOUS
 10
58.5147668527
 20
-1.888878073
 11
58.5168984301
 21
-1.9532548264
  0
LINE
  5
623
100
AcDbEntity
  8
ASSI
100
AcDbLine
 62
7
  6
CONTINUOUS
 10
58.5147668527
 20
-1.888878073
 11
58.5168984301
 21
-1.9532548264
  0
LINE
  5
624
100
AcDbEntity
  8
ASSI
100
AcDbLine
 62
7
  6
CONTINUOUS
 10
58.6770390572
 20
1.0790809459
 11
58.6828250888
 21
0.8964293656
  0
LINE
  5
625
100
AcDbEntity
  8
RACCORDO
100
AcDbLine
 62
7
  6
CONTINUOUS
 10
58.5034537543
 20
-2.7823873463
 11
58.5082024604
 21
-2.9340946156
  0
LINE
  5
626
100
AcDbEntity
  8
ASSI
100
AcDbLine
 62
7
  6
CONTINUOUS
 10
58.5034537543
 20
-2.7823873463
 11
58.5082024604
 21
-2.9340946156
  0
LINE
  5
627
100
AcDbEntity
  8
RACCORDO
100
AcDbLine
 62
7
  6
CONTINUOUS
 10
59.6155197011
 20
-1.969572323
 11
59.6130991115
 21
-1.8894883778
  0
LINE
  5
628
100
AcDbEntity
  8
RACCORDO
100
AcDbLine
 62
7
  6
CONTINUOUS
 10
58.5127261352
 20
-1.815624167
 11
58.5147668527
 21
-1.888878073
  0
LINE
  5
629
100
AcDbEntity
  8
ASSI
100
AcDbLine
 62
7
  6
CONTINUOUS
 10
58.5127261352
 20
-1.815624167
 11
58.5147668527
 21
-1.888878073
  0
LINE
  5
62A
100
AcDbEntity
  8
RACCORDO
100
AcDbLine
 62
253
  6
CONTINUOUS
 10
59.6024707502
 20
-2.6264215901
 11
59.6064785694
 21
-2.770221647
  0
LINE
  5
62B
100
AcDbEntity
  8
RACCORDO
100
AcDbLine
 62
253
  6
CONTINUOUS
 10
59.5024957641
 20
-2.7090243193
 11
59.5065025736
 21
-2.8576942846
  0
LINE
  5
62C
100
AcDbEntity
  8
RACCORDO
100
AcDbLine
 62
7
  6
CONTINUOUS
 10
58.4990177155
 20
-2.6030254898
 11
58.5034537543
 21
-2.7823873463
  0
LINE
  5
62D
100
AcDbEntity
  8
ASSI
100
AcDbLine
 62
7
  6
CONTINUOUS
 10
58.4990177155
 20
-2.6030254898
 11
58.5034537543
 21
-2.7823873463
  0
LINE
  5
62E
100
AcDbEntity
  8
ASSI
100
AcDbLine
 62
7
  6
CONTINUOUS
 10
58.6828250888
 20
0.8964293656
 11
58.6877509552
 21
0.6929961822
  0
LINE
  5
62F
100
AcDbEntity
  8
RACCORDO
100
AcDbLine
 62
7
  6
CONTINUOUS
 10
59.6130991115
 20
-1.8894883778
 11
59.6097084448
 21
-1.7481167327
  0
LINE
  5
630
100
AcDbEntity
  8
RACCORDO
100
AcDbLine
 62
7
  6
CONTINUOUS
 10
58.5098571933
 20
-1.6899024687
 11
58.5127261352
 21
-1.815624167
  0
LINE
  5
631
100
AcDbEntity
  8
ASSI
100
AcDbLine
 62
7
  6
CONTINUOUS
 10
58.5098571933
 20
-1.6899024687
 11
58.5127261352
 21
-1.815624167
  0
LINE
  5
632
100
AcDbEntity
  8
RACCORDO
100
AcDbLine
 62
253
  6
CONTINUOUS
 10
59.5969494138
 20
-2.3714148508
 11
59.6024707502
 21
-2.6264215901
  0
LINE
  5
633
100
AcDbEntity
  8
RACCORDO
100
AcDbLine
 62
253
  6
CONTINUOUS
 10
59.4969350965
 20
-2.4446822356
 11
59.5024957641
 21
-2.7090243193
  0
LINE
  5
634
100
AcDbEntity
  8
RACCORDO
100
AcDbLine
 62
7
  6
CONTINUOUS
 10
58.4930629027
 20
-2.287759713
 11
58.4990177155
 21
-2.6030254898
  0
LINE
  5
635
100
AcDbEntity
  8
ASSI
100
AcDbLine
 62
7
  6
CONTINUOUS
 10
58.4930629027
 20
-2.287759713
 11
58.4990177155
 21
-2.6030254898
  0
LINE
  5
636
100
AcDbEntity
  8
RACCORDO
100
AcDbLine
 62
7
  6
CONTINUOUS
 10
58.6877509552
 20
0.6929961822
 11
58.6887236241
 21
0.6395878725
  0
LINE
  5
637
100
AcDbEntity
  8
RACCORDO
100
AcDbLine
 62
7
  6
CONTINUOUS
 10
59.6097084448
 20
-1.7481167327
 11
59.6066562919
 21
-1.583359233
  0
LINE
  5
638
100
AcDbEntity
  8
RACCORDO
100
AcDbLine
 62
7
  6
CONTINUOUS
 10
58.5098571933
 20
-1.6899024687
 11
58.5070423875
 21
-1.5307587411
  0
LINE
  5
639
100
AcDbEntity
  8
ASSI
100
AcDbLine
 62
7
  6
CONTINUOUS
 10
58.5098571933
 20
-1.6899024687
 11
58.5070423875
 21
-1.5307587411
  0
LWPOLYLINE
  5
63A
100
AcDbEntity
  8
RACCORDO
100
AcDbPolyline
 62
253
  6
CONTINUOUS
 90
3
 70
0
 10
59.5906724119
 20
-1.9662705708
 10
59.5921200329
 20
-2.0742664671
 10
59.5969494138
 20
-2.3714148508
  0
LINE
  5
63B
100
AcDbEntity
  8
RACCORDO
100
AcDbLine
 62
7
  6
CONTINUOUS
 10
59.6066562919
 20
-1.583359233
 11
59.6032000705
 21
-1.3322011666
  0
LINE
  5
63C
100
AcDbEntity
  8
RACCORDO
100
AcDbLine
 62
7
  6
CONTINUOUS
 10
58.6887236241
 20
0.6395878725
 11
58.689461673
 21
0.5835337936
  0
LINE
  5
63D
100
AcDbEntity
  8
RACCORDO
100
AcDbLine
 62
7
  6
CONTINUOUS
 10
58.4897132252
 20
-2.0444887486
 11
58.4930629027
 21
-2.287759713
  0
LINE
  5
63E
100
AcDbEntity
  8
ASSI
100
AcDbLine
 62
7
  6
CONTINUOUS
 10
58.4897132252
 20
-2.0444887486
 11
58.4930629027
 21
-2.287759713
  0
LWPOLYLINE
  5
63F
100
AcDbEntity
  8
RACCORDO
100
AcDbPolyline
 62
253
  6
CONTINUOUS
 90
3
 70
0
 10
59.491142299
 20
-2.0290336917
 10
59.4923876522
 20
-2.1386693623
 10
59.4969350965
 20
-2.4446822356
  0
LINE
  5
640
100
AcDbEntity
  8
RACCORDO
100
AcDbLine
 62
7
  6
CONTINUOUS
 10
58.5070423875
 20
-1.5307587411
 11
58.5045973488
 21
-1.3113799859
  0
LINE
  5
641
100
AcDbEntity
  8
ASSI
100
AcDbLine
 62
7
  6
CONTINUOUS
 10
58.5070423875
 20
-1.5307587411
 11
58.5045973488
 21
-1.3113799859
  0
LINE
  5
642
100
AcDbEntity
  8
RACCORDO
100
AcDbLine
 62
7
  6
CONTINUOUS
 10
58.689461673
 20
0.5835337936
 11
58.689962088
 21
0.5251465003
  0
LINE
  5
643
100
AcDbEntity
  8
RACCORDO
100
AcDbLine
 62
7
  6
CONTINUOUS
 10
59.6032000705
 20
-1.3322011666
 11
59.6017680855
 21
-1.1832422228
  0
LINE
  5
644
100
AcDbEntity
  8
RACCORDO
100
AcDbLine
 62
7
  6
CONTINUOUS
 10
58.4880641361
 20
-1.8347003625
 11
58.4897132252
 21
-2.0444887486
  0
LINE
  5
645
100
AcDbEntity
  8
ASSI
100
AcDbLine
 62
7
  6
CONTINUOUS
 10
58.4880641361
 20
-1.8347003625
 11
58.4897132252
 21
-2.0444887486
  0
LINE
  5
646
100
AcDbEntity
  8
RACCORDO
100
AcDbLine
 62
7
  6
CONTINUOUS
 10
58.5045973488
 20
-1.3113799859
 11
58.5032219053
 21
-1.0626174944
  0
LINE
  5
647
100
AcDbEntity
  8
ASSI
100
AcDbLine
 62
7
  6
CONTINUOUS
 10
58.5045973488
 20
-1.3113799859
 11
58.5032219053
 21
-1.0626174944
  0
LINE
  5
648
100
AcDbEntity
  8
RACCORDO
100
AcDbLine
 62
7
  6
CONTINUOUS
 10
59.6017680855
 20
-1.1832422228
 11
59.6012698086
 21
-1.0668827407
  0
LINE
  5
649
100
AcDbEntity
  8
RACCORDO
100
AcDbLine
 62
7
  6
CONTINUOUS
 10
58.689962088
 20
0.5251465003
 11
58.6902452959
 21
0.4354568054
  0
LINE
  5
64A
100
AcDbEntity
  8
RACCORDO
100
AcDbLine
 62
7
  6
CONTINUOUS
 10
58.4872423255
 20
-1.5316470292
 11
58.4880641361
 21
-1.8347003625
  0
LINE
  5
64B
100
AcDbEntity
  8
ASSI
100
AcDbLine
 62
7
  6
CONTINUOUS
 10
58.4872423255
 20
-1.5316470292
 11
58.4880641361
 21
-1.8347003625
  0
LINE
  5
64C
100
AcDbEntity
  8
DRAFT
100
AcDbLine
 62
7
  6
CONTINUOUS
 10
58.5308799878
 20
-3.1856534497
 11
58.5308799878
 21
-2.1356534497
  0
LINE
  5
64D
100
AcDbEntity
  8
ASSI
100
AcDbLine
 62
7
  6
CONTINUOUS
 10
58.5308799878
 20
-3.1856534497
 11
58.5308799878
 21
-2.1356534497
  0
LINE
  5
64E
100
AcDbEntity
  8
DRAFT
100
AcDbLine
 62
7
  6
CONTINUOUS
 10
58.5308799878
 20
1.5643465503
 11
58.5308799878
 21
2.6143465503
  0
LINE
  5
64F
100
AcDbEntity
  8
ASSI
100
AcDbLine
 62
7
  6
CONTINUOUS
 10
58.5308799878
 20
1.5643465503
 11
58.5308799878
 21
2.6143465503
  0
LINE
  5
650
100
AcDbEntity
  8
ASSI
100
AcDbLine
 62
253
  6
CONTINUOUS
 10
58.5343111103
 20
-3.1856534497
 11
58.5343111103
 21
-2.1356534497
  0
LINE
  5
651
100
AcDbEntity
  8
ASSI
100
AcDbLine
 62
253
  6
CONTINUOUS
 10
58.5343111103
 20
1.5643465503
 11
58.5343111103
 21
2.6143465503
  0
LINE
  5
652
100
AcDbEntity
  8
ASSI
100
AcDbLine
 62
253
  6
CONTINUOUS
 10
58.634250193
 20
2.6126619611
 11
58.634250193
 21
1.6118938646
  0
LINE
  5
653
100
AcDbEntity
  8
ASSI
100
AcDbLine
 62
7
  6
CONTINUOUS
 10
58.634250193
 20
1.6118938646
 11
58.634250193
 21
1.5523743706
  0
LINE
  5
654
100
AcDbEntity
  8
ASSI
100
AcDbLine
 62
7
  6
CONTINUOUS
 10
58.634250193
 20
-2.1236812695
 11
58.634250193
 21
-2.1832007641
  0
LINE
  5
655
100
AcDbEntity
  8
ASSI
100
AcDbLine
 62
253
  6
CONTINUOUS
 10
58.634250193
 20
-2.1832007641
 11
58.634250193
 21
-3.1839688605
  0
LINE
  5
656
100
AcDbEntity
  8
RACCORDO
100
AcDbLine
 62
253
  6
CONTINUOUS
 10
58.7004992423
 20
1.8887248647
 11
58.7004992423
 21
-2.4600317642
  0
LINE
  5
657
100
AcDbEntity
  8
RACCORDO
100
AcDbLine
 62
253
  6
CONTINUOUS
 10
58.7589560515
 20
1.7573326655
 11
58.7589560515
 21
-2.328639565
  0
LINE
  5
658
100
AcDbEntity
  8
RACCORDO
100
AcDbLine
 62
253
  6
CONTINUOUS
 10
59.072301344
 20
1.3702335516
 11
59.072301344
 21
-1.9415404511
  0
LINE
  5
659
100
AcDbEntity
  8
RACCORDO
100
AcDbLine
 62
253
  6
CONTINUOUS
 10
59.2137227003
 20
1.2218278934
 11
59.2137227003
 21
-1.7931347929
  0
LINE
  5
65A
100
AcDbEntity
  8
RACCORDO
100
AcDbLine
 62
253
  6
CONTINUOUS
 10
59.3907028728
 20
-1.7931347929
 11
59.3907028728
 21
1.2218278934
  0
LINE
  5
65B
100
AcDbEntity
  8
RACCORDO
100
AcDbLine
 62
253
  6
CONTINUOUS
 10
59.5906724119
 20
-1.9662705708
 11
59.5906724119
 21
1.3949594603
  0
LINE
  5
65C
100
AcDbEntity
  8
RACCORDO
100
AcDbLine
 62
7
  6
CONTINUOUS
 10
59.6345129828
 20
-3.0818530924
 11
59.6345129828
 21
-2.1897281961
  0
LINE
  5
65D
100
AcDbEntity
  8
RACCORDO
100
AcDbLine
 62
7
  6
CONTINUOUS
 10
59.6345129828
 20
1.6184212967
 11
59.6345129828
 21
2.5105460674
  0
LINE
  5
65E
100
AcDbEntity
  8
RACCORDO
100
AcDbLine
 62
7
  6
CONTINUOUS
 10
59.6012698086
 20
-1.0668827407
 11
59.6012226174
 21
0.4656779312
  0
LINE
  5
65F
100
AcDbEntity
  8
RACCORDO
100
AcDbLine
 62
7
  6
CONTINUOUS
 10
58.5032219053
 20
-1.0626174944
 11
58.5030227918
 21
0.4048543658
  0
LINE
  5
660
100
AcDbEntity
  8
ASSI
100
AcDbLine
 62
7
  6
CONTINUOUS
 10
58.5032219053
 20
-1.0626174944
 11
58.5030227918
 21
0.4048543658
  0
LINE
  5
661
100
AcDbEntity
  8
RACCORDO
100
AcDbLine
 62
7
  6
CONTINUOUS
 10
58.6902452959
 20
0.4354568054
 11
58.6901184107
 21
-1.0668796761
  0
LINE
  5
662
100
AcDbEntity
  8
RACCORDO
100
AcDbLine
 62
7
  6
CONTINUOUS
 10
58.4877061594
 20
1.1893378046
 11
58.4872423255
 21
-1.5316470292
  0
LINE
  5
663
100
AcDbEntity
  8
ASSI
100
AcDbLine
 62
7
  6
CONTINUOUS
 10
58.4877061594
 20
1.1893378046
 11
58.4872423255
 21
-1.5316470292
  0
LINE
  5
664
100
AcDbEntity
  8
RACCORDO
100
AcDbLine
 62
7
  6
CONTINUOUS
 10
59.6012226174
 20
0.4656779312
 11
59.6015980978
 21
0.583538794
  0
LINE
  5
665
100
AcDbEntity
  8
RACCORDO
100
AcDbLine
 62
7
  6
CONTINUOUS
 10
58.5030227918
 20
0.4048543658
 11
58.5040091838
 21
0.6589199552
  0
LINE
  5
666
100
AcDbEntity
  8
ASSI
100
AcDbLine
 62
7
  6
CONTINUOUS
 10
58.5030227918
 20
0.4048543658
 11
58.5040091838
 21
0.6589199552
  0
LINE
  5
667
100
AcDbEntity
  8
RACCORDO
100
AcDbLine
 62
7
  6
CONTINUOUS
 10
58.6901184107
 20
-1.0668796761
 11
58.6897428405
 21
-1.1258084671
  0
LINE
  5
668
100
AcDbEntity
  8
RACCORDO
100
AcDbLine
 62
7
  6
CONTINUOUS
 10
58.4890730439
 20
1.4061690069
 11
58.4877061594
 21
1.1893378046
  0
LINE
  5
669
100
AcDbEntity
  8
ASSI
100
AcDbLine
 62
7
  6
CONTINUOUS
 10
58.4890730439
 20
1.4061690069
 11
58.4877061594
 21
1.1893378046
  0
LINE
  5
66A
100
AcDbEntity
  8
RACCORDO
100
AcDbLine
 62
7
  6
CONTINUOUS
 10
59.6015980978
 20
0.583538794
 11
59.6024531678
 21
0.6929961822
  0
LINE
  5
66B
100
AcDbEntity
  8
RACCORDO
100
AcDbLine
 62
7
  6
CONTINUOUS
 10
58.5040091838
 20
0.6589199552
 11
58.5061139506
 21
0.8903390296
  0
LINE
  5
66C
100
AcDbEntity
  8
ASSI
100
AcDbLine
 62
7
  6
CONTINUOUS
 10
58.5040091838
 20
0.6589199552
 11
58.5061139506
 21
0.8903390296
  0
LINE
  5
66D
100
AcDbEntity
  8
RACCORDO
100
AcDbLine
 62
7
  6
CONTINUOUS
 10
58.6897428405
 20
-1.1258084671
 11
58.6891215993
 21
-1.183237523
  0
LINE
  5
66E
100
AcDbEntity
  8
RACCORDO
100
AcDbLine
 62
7
  6
CONTINUOUS
 10
58.4912704174
 20
1.5993111961
 11
58.4890730439
 21
1.4061690069
  0
LINE
  5
66F
100
AcDbEntity
  8
ASSI
100
AcDbLine
 62
7
  6
CONTINUOUS
 10
58.4912704174
 20
1.5993111961
 11
58.4890730439
 21
1.4061690069
  0
LINE
  5
670
100
AcDbEntity
  8
RACCORDO
100
AcDbLine
 62
7
  6
CONTINUOUS
 10
59.6024531678
 20
0.6929961822
 11
59.6057217595
 21
0.952315935
  0
LINE
  5
671
100
AcDbEntity
  8
RACCORDO
100
AcDbLine
 62
7
  6
CONTINUOUS
 10
58.5061139506
 20
0.8903390296
 11
58.5080857265
 21
1.0247553721
  0
LINE
  5
672
100
AcDbEntity
  8
ASSI
100
AcDbLine
 62
7
  6
CONTINUOUS
 10
58.5061139506
 20
0.8903390296
 11
58.5080857265
 21
1.0247553721
  0
LWPOLYLINE
  5
673
100
AcDbEntity
  8
RACCORDO
100
AcDbPolyline
 62
7
  6
CONTINUOUS
 90
3
 70
0
 10
58.6891215993
 20
-1.183237523
 10
58.6882667427
 20
-1.2379166248
 10
58.6877509552
 20
-1.2643030816
  0
LINE
  5
674
100
AcDbEntity
  8
RACCORDO
100
AcDbLine
 62
253
  6
CONTINUOUS
 10
59.4963513853
 20
1.8388592139
 11
59.4906877712
 21
1.453932166
  0
LINE
  5
675
100
AcDbEntity
  8
RACCORDO
100
AcDbLine
 62
253
  6
CONTINUOUS
 10
59.5963346867
 20
1.766716936
 11
59.5906724119
 21
1.3949594603
  0
LINE
  5
676
100
AcDbEntity
  8
RACCORDO
100
AcDbLine
 62
7
  6
CONTINUOUS
 10
59.6057217595
 20
0.952315935
 11
59.6086500699
 21
1.1243229314
  0
LINE
  5
677
100
AcDbEntity
  8
RACCORDO
100
AcDbLine
 62
7
  6
CONTINUOUS
 10
58.4969335584
 20
1.9325199577
 11
58.4912704174
 21
1.5993111961
  0
LINE
  5
678
100
AcDbEntity
  8
ASSI
100
AcDbLine
 62
7
  6
CONTINUOUS
 10
58.4969335584
 20
1.9325199577
 11
58.4912704174
 21
1.5993111961
  0
LINE
  5
679
100
AcDbEntity
  8
RACCORDO
100
AcDbLine
 62
7
  6
CONTINUOUS
 10
58.5107847121
 20
1.1624853565
 11
58.5080857265
 21
1.0247553721
  0
LINE
  5
67A
100
AcDbEntity
  8
ASSI
100
AcDbLine
 62
7
  6
CONTINUOUS
 10
58.5107847121
 20
1.1624853565
 11
58.5080857265
 21
1.0247553721
  0
LINE
  5
67B
100
AcDbEntity
  8
RACCORDO
100
AcDbLine
 62
253
  6
CONTINUOUS
 10
59.5008845708
 20
2.0684543816
 11
59.4963513853
 21
1.8388592139
  0
LINE
  5
67C
100
AcDbEntity
  8
RACCORDO
100
AcDbLine
 62
253
  6
CONTINUOUS
 10
59.6008665079
 20
1.9885314066
 11
59.5963346867
 21
1.766716936
  0
LINE
  5
67D
100
AcDbEntity
  8
RACCORDO
100
AcDbLine
 62
7
  6
CONTINUOUS
 10
58.5011971009
 20
2.1248451927
 11
58.4969335584
 21
1.9325199577
  0
LINE
  5
67E
100
AcDbEntity
  8
ASSI
100
AcDbLine
 62
7
  6
CONTINUOUS
 10
58.5011971009
 20
2.1248451927
 11
58.4969335584
 21
1.9325199577
  0
LINE
  5
67F
100
AcDbEntity
  8
RACCORDO
100
AcDbLine
 62
7
  6
CONTINUOUS
 10
59.6086500699
 20
1.1243229314
 11
59.6119336541
 21
1.2737686768
  0
LINE
  5
680
100
AcDbEntity
  8
RACCORDO
100
AcDbLine
 62
253
  6
CONTINUOUS
 10
59.5042693621
 20
2.2073813853
 11
59.5008845708
 21
2.0684543816
  0
LINE
  5
681
100
AcDbEntity
  8
ASSI
100
AcDbLine
 62
7
  6
CONTINUOUS
 10
58.6877509552
 20
-1.2643030816
 11
58.6828250907
 21
-1.4677361936
  0
LINE
  5
682
100
AcDbEntity
  8
RACCORDO
100
AcDbLine
 62
7
  6
CONTINUOUS
 10
58.5137345231
 20
1.2820389203
 11
58.5107847121
 21
1.1624853565
  0
LINE
  5
683
100
AcDbEntity
  8
ASSI
100
AcDbLine
 62
7
  6
CONTINUOUS
 10
58.5137345231
 20
1.2820389203
 11
58.5107847121
 21
1.1624853565
  0
LINE
  5
684
100
AcDbEntity
  8
RACCORDO
100
AcDbLine
 62
253
  6
CONTINUOUS
 10
59.6042530802
 20
2.1228335697
 11
59.6008665079
 21
1.9885314066
  0
LINE
  5
685
100
AcDbEntity
  8
RACCORDO
100
AcDbLine
 62
7
  6
CONTINUOUS
 10
59.6119336541
 20
1.2737686768
 11
59.6142951282
 21
1.359710534
  0
LINE
  5
686
100
AcDbEntity
  8
RACCORDO
100
AcDbLine
 62
253
  6
CONTINUOUS
 10
59.5078326616
 20
2.3291263215
 11
59.5042693621
 21
2.2073813853
  0
LINE
  5
687
100
AcDbEntity
  8
RACCORDO
100
AcDbLine
 62
7
  6
CONTINUOUS
 10
58.5158228971
 20
1.3509182765
 11
58.5137345231
 21
1.2820389203
  0
LINE
  5
688
100
AcDbEntity
  8
ASSI
100
AcDbLine
 62
7
  6
CONTINUOUS
 10
58.5158228971
 20
1.3509182765
 11
58.5137345231
 21
1.2820389203
  0
LINE
  5
689
100
AcDbEntity
  8
RACCORDO
100
AcDbLine
 62
253
  6
CONTINUOUS
 10
59.6078189186
 20
2.2405342004
 11
59.6042530802
 21
2.1228335697
  0
LWPOLYLINE
  5
68A
100
AcDbEntity
  8
ASSI
100
AcDbPolyline
 62
7
  6
CONTINUOUS
 90
13
 70
0
 10
58.6828250907
 20
-1.4677361936
 10
58.6770390621
 20
-1.6503877116
 10
58.673821699
 20
-1.7339694643
 10
58.6704357646
 20
-1.8110794422
 10
58.6668796791
 20
-1.8816001913
 10
58.6631550222
 20
-1.9456491656
 10
58.6593094288
 20
-2.0024005343
 10
58.6553417874
 20
-2.0517570425
 10
58.6512532094
 20
-2.0938159451
 10
58.6470946641
 20
-2.1280431752
 10
58.6428831411
 20
-2.1542607106
 10
58.6386016507
 20
-2.1726465735
 10
58.634250193
 20
-2.1832007641
  0
LWPOLYLINE
  5
68B
100
AcDbEntity
  8
RACCORDO
100
AcDbPolyline
 62
7
  6
CONTINUOUS
 90
12
 70
0
 10
59.6142951282
 20
1.359710534
 10
59.6167748321
 20
1.4339298901
 10
59.6180522478
 20
1.4664655288
 10
59.6193526147
 20
1.4958721969
 10
59.6206758054
 20
1.5221662648
 10
59.6220147809
 20
1.5452071207
 10
59.6233695971
 20
1.5649773907
 10
59.6247401982
 20
1.5814944489
 10
59.6261193782
 20
1.594669805
 10
59.627504735
 20
1.6044739624
 10
59.6288986707
 20
1.6109364177
 10
59.6303011853
 20
1.6140571711
  0
LINE
  5
68C
100
AcDbEntity
  8
RACCORDO
100
AcDbLine
 62
253
  6
CONTINUOUS
 10
59.5103805849
 20
2.4026316626
 11
59.5078326616
 21
2.3291263215
  0
LINE
  5
68D
100
AcDbEntity
  8
RACCORDO
100
AcDbLine
 62
253
  6
CONTINUOUS
 10
59.6103666248
 20
2.3115197207
 11
59.6078189186
 21
2.2405342004
  0
LWPOLYLINE
  5
68E
100
AcDbEntity
  8
RACCORDO
100
AcDbPolyline
 62
7
  6
CONTINUOUS
 90
10
 70
0
 10
58.7004992423
 20
-2.4600317642
 10
58.6959690386
 20
-2.5721558665
 10
58.6912493283
 20
-2.6760310753
 10
58.6863401113
 20
-2.7716573907
 10
58.6812218027
 20
-2.8593349762
 10
58.6759139875
 20
-2.9387636682
 10
58.6704754206
 20
-3.0090429765
 10
58.6649256871
 20
-3.0698727374
 10
58.6592452018
 20
-3.1215531145
 10
58.6534339648
 20
-3.1640841077
  0
LWPOLYLINE
  5
68F
100
AcDbEntity
  8
RACCORDO
100
AcDbPolyline
 62
7
  6
CONTINUOUS
 90
7
 70
0
 10
58.5183701946
 20
2.5759652865
 10
58.5157493362
 20
2.5340933329
 10
58.5131823918
 20
2.4846445048
 10
58.5106693615
 20
2.4276188021
 10
58.5082024604
 20
2.3627877161
 10
58.5057894734
 20
2.2903797556
 10
58.5011971009
 20
2.1248451927
  0
LWPOLYLINE
  5
690
100
AcDbEntity
  8
ASSI
100
AcDbPolyline
 62
7
  6
CONTINUOUS
 90
7
 70
0
 10
58.5183701946
 20
2.5759652865
 10
58.5157493362
 20
2.5340933329
 10
58.5131823918
 20
2.4846445048
 10
58.5106693615
 20
2.4276188021
 10
58.5082024604
 20
2.3627877161
 10
58.5057894734
 20
2.2903797556
 10
58.5011971009
 20
2.1248451927
  0
LWPOLYLINE
  5
691
100
AcDbEntity
  8
RACCORDO
100
AcDbPolyline
 62
253
  6
CONTINUOUS
 90
7
 70
0
 10
59.5202054117
 20
2.5962048021
 10
59.518529512
 20
2.572240804
 10
59.5171110234
 20
2.5493789669
 10
59.5157178128
 20
2.5242769137
 10
59.5143519811
 20
2.4970840289
 10
59.5130114274
 20
2.4678347513
 10
59.5103805849
 20
2.4026316626
  0
LWPOLYLINE
  5
692
100
AcDbEntity
  8
RACCORDO
100
AcDbPolyline
 62
253
  6
CONTINUOUS
 90
7
 70
0
 10
59.6199581262
 20
2.4952032877
 10
59.6185151966
 20
2.4752395148
 10
59.6170972794
 20
2.4531911092
 10
59.6157043746
 20
2.429058071
 10
59.6143384559
 20
2.4028384873
 10
59.6129975496
 20
2.374534271
 10
59.6103666248
 20
2.3115197207
  0
LINE
  5
693
100
AcDbEntity
  8
RACCORDO
100
AcDbLine
 62
253
  6
CONTINUOUS
 10
59.6328463862
 20
-3.0994925702
 11
59.634360678
 21
-3.0821270634
  0
LWPOLYLINE
  5
694
100
AcDbEntity
  8
RACCORDO
100
AcDbPolyline
 62
253
  6
CONTINUOUS
 90
10
 70
0
 10
59.6213648903
 20
-3.0761535827
 10
59.6198411973
 20
-3.0935124242
 10
59.6153269714
 20
-3.11034403
 10
59.6079593221
 20
-3.1261371783
 10
59.5979620251
 20
-3.1404121876
 10
59.5856387257
 20
-3.152735487
 10
59.5713637163
 20
-3.162732784
 10
59.5555705681
 20
-3.1701004333
 10
59.5387389622
 20
-3.1746146592
 10
59.5213801208
 20
-3.1761383523
  0
LWPOLYLINE
  5
695
100
AcDbEntity
  8
RACCORDO
100
AcDbPolyline
 62
253
  6
CONTINUOUS
 90
10
 70
0
 10
59.6199581261
 20
-3.0665101871
 10
59.6183800274
 20
-3.0834127514
 10
59.6138264546
 20
-3.099804186
 10
59.6064350919
 20
-3.1151888711
 10
59.5964294283
 20
-3.1291016276
 10
59.5841120002
 20
-3.1411217822
 10
59.5698552435
 20
-3.1508858874
 10
59.5540902329
 20
-3.1580987108
 10
59.5372936472
 20
-3.1625421618
 10
59.5199733566
 20
-3.1640818858
  0
LWPOLYLINE
  5
696
100
AcDbEntity
  8
RACCORDO
100
AcDbPolyline
 62
7
  6
CONTINUOUS
 90
10
 70
0
 10
58.6534339648
 20
-3.1640841077
 10
58.6530479137
 20
-3.1664334076
 10
58.6526605024
 20
-3.1685307415
 10
58.652271731
 20
-3.1703761094
 10
58.651881398
 20
-3.1719702032
 10
58.6514897048
 20
-3.1733123309
 10
58.6510972563
 20
-3.1744004172
 10
58.6507042538
 20
-3.1752337703
 10
58.6503104959
 20
-3.175813082
 10
58.6499159826
 20
-3.1761383523
  0
LWPOLYLINE
  5
697
100
AcDbEntity
  8
RACCORDO
100
AcDbPolyline
 62
253
  6
CONTINUOUS
 90
10
 70
0
 10
59.5906724137
 20
-1.9662690025
 10
59.5889379352
 20
-1.9764187929
 10
59.5842714159
 20
-1.9862657118
 10
59.5768120971
 20
-1.9955158985
 10
59.5667684502
 20
-2.0039031779
 10
59.5544486049
 20
-2.0111645423
 10
59.5402778195
 20
-2.0170631889
 10
59.5247163361
 20
-2.0214354621
 10
59.5082187842
 20
-2.024178821
 10
59.4912750239
 20
-2.0252320151
  0
LWPOLYLINE
  5
698
100
AcDbEntity
  8
RACCORDO
100
AcDbPolyline
 62
7
  6
CONTINUOUS
 90
3
 70
0
 10
59.6299482134
 20
-3.111713342
 10
59.6337104439
 20
-3.0943852859
 10
59.6344964033
 20
-3.0818578695
  0
LINE
  5
699
100
AcDbEntity
  8
RACCORDO
100
AcDbLine
 62
253
  6
CONTINUOUS
 10
59.6283389611
 20
-3.1163302306
 11
59.6328463862
 21
-3.0994925702
  0
LINE
  5
69A
100
AcDbEntity
  8
RACCORDO
100
AcDbLine
 62
253
  6
CONTINUOUS
 10
59.6209754117
 20
-3.1321282428
 11
59.6283389611
 21
-3.1163302306
  0
LINE
  5
69B
100
AcDbEntity
  8
RACCORDO
100
AcDbLine
 62
253
  6
CONTINUOUS
 10
59.6345129661
 20
-3.0818536496
 11
59.634360678
 21
-3.0821270634
  0
LINE
  5
69C
100
AcDbEntity
  8
RACCORDO
100
AcDbLine
 62
253
  6
CONTINUOUS
 10
59.6184705136
 20
-3.1357062624
 11
59.6209754117
 21
-3.1321282428
  0
LWPOLYLINE
  5
69D
100
AcDbEntity
  8
RACCORDO
100
AcDbPolyline
 62
7
  6
CONTINUOUS
 90
3
 70
0
 10
59.6222392774
 20
2.5586033909
 10
59.6129950555
 20
2.5726140253
 10
59.6048352534
 20
2.5817720048
  0
LINE
  5
69E
100
AcDbEntity
  8
RACCORDO
100
AcDbLine
 62
253
  6
CONTINUOUS
 10
59.634360678
 20
2.510820164
 11
59.6345129776
 21
2.5105453288
  0
LINE
  5
69F
100
AcDbEntity
  8
RACCORDO
100
AcDbLine
 62
253
  6
CONTINUOUS
 10
59.6209745382
 20
2.5608228567
 11
59.6283385072
 21
2.5450245792
  0
LWPOLYLINE
  5
6A0
100
AcDbEntity
  8
ASSI
100
AcDbPolyline
 62
7
  6
CONTINUOUS
 90
12
 70
0
 10
58.634250193
 20
1.6118938646
 10
58.6386016462
 20
1.6013396984
 10
58.6428831329
 20
1.5829538613
 10
58.6470946534
 20
1.5567363531
 10
58.6512531973
 20
1.522509155
 10
58.6553417749
 20
1.480450286
 10
58.6593094165
 20
1.4310938025
 10
58.6631550107
 20
1.374342447
 10
58.666879669
 20
1.3102934772
 10
58.6704357562
 20
1.2397727227
 10
58.6738216923
 20
1.1626627266
 10
58.6770390572
 20
1.0790809459
  0
LINE
  5
6A1
100
AcDbEntity
  8
RACCORDO
100
AcDbLine
 62
253
  6
CONTINUOUS
 10
59.6283385072
 20
2.5450245792
 11
59.6328462569
 21
2.5281864052
  0
LWPOLYLINE
  5
6A2
100
AcDbEntity
  8
RACCORDO
100
AcDbPolyline
 62
7
  6
CONTINUOUS
 90
10
 70
0
 10
58.6534339648
 20
2.5927772083
 10
58.6592452392
 20
2.550245776
 10
58.6649257477
 20
2.4985651224
 10
58.6704754902
 20
2.4377352476
 10
58.6759140452
 20
2.3674560584
 10
58.6812218342
 20
2.288027648
 10
58.686340122
 20
2.2003502956
 10
58.69124933
 20
2.1047240941
 10
58.6959690368
 20
2.0008489504
 10
58.7004992423
 20
1.8887248647
  0
LWPOLYLINE
  5
6A3
100
AcDbEntity
  8
RACCORDO
100
AcDbPolyline
 62
253
  6
CONTINUOUS
 90
15
 70
0
 10
-34.1834407446
 20
-2.6657819822
 10
-34.1320451966
 20
-2.6572323491
 10
-34.0818131302
 20
-2.6433873827
 10
-34.0332828238
 20
-2.6243931978
 10
-33.9869864127
 20
-2.6004551359
 10
-33.9434417182
 20
-2.571840336
 10
-33.9031222146
 20
-2.5388647191
 10
-33.8664579743
 20
-2.5018855913
 10
-33.8338467622
 20
-2.4613067311
 10
-33.8056405924
 20
-2.4175727298
 10
-33.7821389237
 20
-2.3711563025
 10
-33.76359159
 20
-2.3225526824
 10
-33.7501984435
 20
-2.2722850939
 10
-33.7421044032
 20
-2.2209004689
 10
-33.7393964802
 20
-2.168955009
  0
LWPOLYLINE
  5
6A4
100
AcDbEntity
  8
ASSI
100
AcDbPolyline
 62
253
  6
CONTINUOUS
 90
15
 70
0
 10
-34.1834407446
 20
-2.6657819822
 10
-34.1320451966
 20
-2.6572323491
 10
-34.0818131302
 20
-2.6433873827
 10
-34.0332828238
 20
-2.6243931978
 10
-33.9869864127
 20
-2.6004551359
 10
-33.9434417182
 20
-2.571840336
 10
-33.9031222146
 20
-2.5388647191
 10
-33.8664579743
 20
-2.5018855913
 10
-33.8338467622
 20
-2.4613067311
 10
-33.8056405924
 20
-2.4175727298
 10
-33.7821389237
 20
-2.3711563025
 10
-33.76359159
 20
-2.3225526824
 10
-33.7501984435
 20
-2.2722850939
 10
-33.7421044032
 20
-2.2209004689
 10
-33.7393964802
 20
-2.168955009
  0
LINE
  5
6A5
100
AcDbEntity
  8
RACCORDO
100
AcDbLine
 62
7
  6
CONTINUOUS
 10
-36.1499813508
 20
-4.0056534497
 11
-31.539509907
 21
-3.9251773713
  0
LINE
  5
6A6
100
AcDbEntity
  8
RACCORDO
100
AcDbLine
 62
7
  6
CONTINUOUS
 10
-31.3956180831
 20
-3.9941627501
 11
-36.1499813508
 21
-4.0356534497
  0
LINE
  5
6A7
100
AcDbEntity
  8
ASSI
100
AcDbLine
 62
7
  6
CONTINUOUS
 10
-31.3956180831
 20
-3.9941627501
 11
-36.1499813508
 21
-4.0356534497
  0
LINE
  5
6A8
100
AcDbEntity
  8
RACCORDO
100
AcDbLine
 62
7
  6
CONTINUOUS
 10
-36.1499813508
 20
-4.0356534497
 11
-37.1499813508
 21
-4.0269265819
  0
LINE
  5
6A9
100
AcDbEntity
  8
ASSI
100
AcDbLine
 62
7
  6
CONTINUOUS
 10
-36.1499813508
 20
-4.0356534497
 11
-37.1499813508
 21
-4.0269265819
  0
LINE
  5
6AA
100
AcDbEntity
  8
DRAFT
100
AcDbLine
 62
7
  6
CONTINUOUS
 10
-34.6499813508
 20
-4.088034604
 11
-36.1499813508
 21
-4.0356534497
  0
LINE
  5
6AB
100
AcDbEntity
  8
RACCORDO
100
AcDbLine
 62
7
  6
CONTINUOUS
 10
-36.1499813508
 20
-4.0356534497
 11
-37.9174310992
 21
-3.9739327445
  0
LWPOLYLINE
  5
6AC
100
AcDbEntity
  8
RACCORDO
100
AcDbPolyline
 62
253
  6
CONTINUOUS
 90
16
 70
0
 10
-34.2336983145
 20
-2.4689531463
 10
-34.2019930513
 20
-2.4669369077
 10
-34.1712702825
 20
-2.4618402787
 10
-34.1415300081
 20
-2.4536632594
 10
-34.1124564457
 20
-2.4422487054
 10
-34.0843653778
 20
-2.4277537611
 10
-34.0582041509
 20
-2.4106498593
 10
-34.0340524234
 20
-2.3908533907
 10
-34.0118305369
 20
-2.3684479646
 10
-33.992246864
 20
-2.3441558414
 10
-33.9753868672
 20
-2.3178945143
 10
-33.9611650839
 20
-2.2897464901
 10
-33.9500334978
 20
-2.2606815494
 10
-33.94214277
 20
-2.2310229524
 10
-33.9373422393
 20
-2.200447439
 10
-33.9356319058
 20
-2.168955009
  0
LWPOLYLINE
  5
6AD
100
AcDbEntity
  8
ASSI
100
AcDbPolyline
 62
253
  6
CONTINUOUS
 90
16
 70
0
 10
-34.2336983145
 20
-2.4689531463
 10
-34.2019930513
 20
-2.4669369077
 10
-34.1712702825
 20
-2.4618402787
 10
-34.1415300081
 20
-2.4536632594
 10
-34.1124564457
 20
-2.4422487054
 10
-34.0843653778
 20
-2.4277537611
 10
-34.0582041509
 20
-2.4106498593
 10
-34.0340524234
 20
-2.3908533907
 10
-34.0118305369
 20
-2.3684479646
 10
-33.992246864
 20
-2.3441558414
 10
-33.9753868672
 20
-2.3178945143
 10
-33.9611650839
 20
-2.2897464901
 10
-33.9500334978
 20
-2.2606815494
 10
-33.94214277
 20
-2.2310229524
 10
-33.9373422393
 20
-2.200447439
 10
-33.9356319058
 20
-2.168955009
  0
LINE
  5
6AE
100
AcDbEntity
  8
RACCORDO
100
AcDbLine
 62
253
  6
CONTINUOUS
 10
-34.2354434887
 20
-2.6689455309
 11
-34.1834407446
 21
-2.6657819822
  0
LINE
  5
6AF
100
AcDbEntity
  8
ASSI
100
AcDbLine
 62
253
  6
CONTINUOUS
 10
-34.2354434887
 20
-2.6689455309
 11
-34.1834407446
 21
-2.6657819822
  0
LINE
  5
6B0
100
AcDbEntity
  8
RACCORDO
100
AcDbLine
 62
7
  6
CONTINUOUS
 10
-33.9816637661
 20
-2.7530361885
 11
-38.3999813508
 21
-2.9845904013
  0
LINE
  5
6B1
100
AcDbEntity
  8
RACCORDO
100
AcDbLine
 62
253
  6
CONTINUOUS
 10
-36.1499813508
 20
-3.4057448326
 11
-31.539509907
 21
-3.3252687542
  0
LINE
  5
6B2
100
AcDbEntity
  8
RACCORDO
100
AcDbLine
 62
253
  6
CONTINUOUS
 10
-30.8999813508
 20
-3.4941817885
 11
-30.9748625185
 21
-3.4941817638
  0
LINE
  5
6B3
100
AcDbEntity
  8
ASSI
100
AcDbLine
 62
253
  6
CONTINUOUS
 10
-30.8999813508
 20
-3.4941817885
 11
-30.9748625185
 21
-3.4941817638
  0
LINE
  5
6B4
100
AcDbEntity
  8
RACCORDO
100
AcDbLine
 62
253
  6
CONTINUOUS
 10
-38.3999813508
 20
-3.3742982483
 11
-37.9174310992
 21
-3.3742982483
  0
LINE
  5
6B5
100
AcDbEntity
  8
RACCORDO
100
AcDbLine
 62
253
  6
CONTINUOUS
 10
-31.539509907
 20
-3.3252687542
 11
-30.9499813508
 21
-3.3252687542
  0
LINE
  5
6B6
100
AcDbEntity
  8
RACCORDO
100
AcDbLine
 62
253
  6
CONTINUOUS
 10
-36.1499813508
 20
-3.4360189535
 11
-37.9174310992
 21
-3.3742982483
  0
LINE
  5
6B7
100
AcDbEntity
  8
RACCORDO
100
AcDbLine
 62
7
  6
CONTINUOUS
 10
-34.1825150889
 20
-2.6684836318
 11
-36.1499813508
 21
-2.6856534497
  0
LINE
  5
6B8
100
AcDbEntity
  8
ASSI
100
AcDbLine
 62
7
  6
CONTINUOUS
 10
-34.1825150889
 20
-2.6684836318
 11
-36.1499813508
 21
-2.6856534497
  0
LINE
  5
6B9
100
AcDbEntity
  8
RACCORDO
100
AcDbLine
 62
253
  6
CONTINUOUS
 10
-34.7782855539
 20
-2.4737056872
 11
-34.2336983145
 21
-2.4689531463
  0
LINE
  5
6BA
100
AcDbEntity
  8
ASSI
100
AcDbLine
 62
253
  6
CONTINUOUS
 10
-34.7782855539
 20
-2.4737056872
 11
-34.2336983145
 21
-2.4689531463
  0
LINE
  5
6BB
100
AcDbEntity
  8
RACCORDO
100
AcDbLine
 62
253
  6
CONTINUOUS
 10
-33.7393964802
 20
-2.168955009
 11
-33.6859650836
 21
-2.1684887203
  0
LINE
  5
6BC
100
AcDbEntity
  8
ASSI
100
AcDbLine
 62
253
  6
CONTINUOUS
 10
-33.7393964802
 20
-2.168955009
 11
-33.6859650836
 21
-2.1684887203
  0
LINE
  5
6BD
100
AcDbEntity
  8
RACCORDO
100
AcDbLine
 62
253
  6
CONTINUOUS
 10
-33.9356319058
 20
-2.168955009
 11
-33.7393964802
 21
-2.168955009
  0
LINE
  5
6BE
100
AcDbEntity
  8
ASSI
100
AcDbLine
 62
253
  6
CONTINUOUS
 10
-33.9356319058
 20
-2.168955009
 11
-33.7393964802
 21
-2.168955009
  0
LINE
  5
6BF
100
AcDbEntity
  8
RACCORDO
100
AcDbLine
 62
7
  6
CONTINUOUS
 10
-36.1499813508
 20
-2.6856534497
 11
-36.5790187085
 21
-2.6819092974
  0
LINE
  5
6C0
100
AcDbEntity
  8
ASSI
100
AcDbLine
 62
7
  6
CONTINUOUS
 10
-36.1499813508
 20
-2.6856534497
 11
-36.5790187085
 21
-2.6819092974
  0
LINE
  5
6C1
100
AcDbEntity
  8
DRAFT
100
AcDbLine
 62
7
  6
CONTINUOUS
 10
-37.3290449872
 20
-2.8150728174
 11
-37.3999813508
 21
-2.8138346186
  0
LINE
  5
6C2
100
AcDbEntity
  8
RACCORDO
100
AcDbLine
 62
253
  6
CONTINUOUS
 10
-38.3999813508
 20
-1.7322690548
 11
-38.5964908695
 21
-1.7322690548
  0
LINE
  5
6C3
100
AcDbEntity
  8
RACCORDO
100
AcDbLine
 62
253
  6
CONTINUOUS
 10
-39.1052170727
 20
-1.7233892059
 11
-39.3999813508
 21
-1.7233892059
  0
LINE
  5
6C4
100
AcDbEntity
  8
RACCORDO
100
AcDbLine
 62
7
  6
CONTINUOUS
 10
-39.1052170727
 20
-2.0233435144
 11
-38.5964908695
 21
-2.0322233633
  0
LINE
  5
6C5
100
AcDbEntity
  8
RACCORDO
100
AcDbLine
 62
7
  6
CONTINUOUS
 10
-33.6859650836
 20
-2.0024804163
 11
-34.4132496807
 21
-1.9897856164
  0
LINE
  5
6C6
100
AcDbEntity
  8
ASSI
100
AcDbLine
 62
7
  6
CONTINUOUS
 10
-33.6859650836
 20
-2.0024804163
 11
-34.4132496807
 21
-1.9897856164
  0
LINE
  5
6C7
100
AcDbEntity
  8
RACCORDO
100
AcDbLine
 62
253
  6
CONTINUOUS
 10
-39.1052170727
 20
-1.7233892059
 11
-38.5964908695
 21
-1.7323466849
  0
LINE
  5
6C8
100
AcDbEntity
  8
RACCORDO
100
AcDbLine
 62
7
  6
CONTINUOUS
 10
-36.2668754564
 20
-0.4901786695
 11
-35.4534450359
 21
-0.4475485875
  0
LINE
  5
6C9
100
AcDbEntity
  8
RACCORDO
100
AcDbLine
 62
7
  6
CONTINUOUS
 10
-36.6922337178
 20
0.4011638519
 11
-36.5217528415
 21
0.3922293277
  0
LINE
  5
6CA
100
AcDbEntity
  8
RACCORDO
100
AcDbLine
 62
7
  6
CONTINUOUS
 10
-35.2146848831
 20
0.3237287987
 11
-35.0466152598
 21
0.3149206429
  0
LWPOLYLINE
  5
6CB
100
AcDbEntity
  8
RACCORDO
100
AcDbPolyline
 62
253
  6
CONTINUOUS
 90
10
 70
0
 10
-37.9174310992
 20
-3.9739327445
 10
-37.9188803576
 20
-3.971601059
 10
-37.9201894066
 20
-3.9647294757
 10
-37.9213463215
 20
-3.9533703171
 10
-37.9223393403
 20
-3.9376100516
 10
-37.9231606568
 20
-3.9175684773
 10
-37.9238064876
 20
-3.893397784
 10
-37.9242715634
 20
-3.8652816611
 10
-37.9245510243
 20
-3.8334338119
 10
-37.9246441614
 20
-3.7980961288
  0
LINE
  5
6CC
100
AcDbEntity
  8
RACCORDO
100
AcDbLine
 62
7
  6
CONTINUOUS
 10
-39.3999813508
 20
-1.7233892059
 11
-39.3999813508
 21
1.1520823064
  0
LINE
  5
6CD
100
AcDbEntity
  8
RACCORDO
100
AcDbLine
 62
253
  6
CONTINUOUS
 10
-39.1052170727
 20
1.1520823064
 11
-38.5964908695
 21
1.160954532
  0
LINE
  5
6CE
100
AcDbEntity
  8
RACCORDO
100
AcDbLine
 62
7
  6
CONTINUOUS
 10
-33.6859650836
 20
1.4311735168
 11
-34.4132496807
 21
1.4184787169
  0
LINE
  5
6CF
100
AcDbEntity
  8
ASSI
100
AcDbLine
 62
7
  6
CONTINUOUS
 10
-33.6859650836
 20
1.4311735168
 11
-34.4132496807
 21
1.4184787169
  0
LINE
  5
6D0
100
AcDbEntity
  8
RACCORDO
100
AcDbLine
 62
7
  6
CONTINUOUS
 10
-39.1052170727
 20
1.452036615
 11
-38.5964908695
 21
1.4609164639
  0
LINE
  5
6D1
100
AcDbEntity
  8
DRAFT
100
AcDbLine
 62
7
  6
CONTINUOUS
 10
-35.4684561936
 20
1.5262426161
 11
-35.9088824837
 21
1.5185549466
  0
LINE
  5
6D2
100
AcDbEntity
  8
RACCORDO
100
AcDbLine
 62
253
  6
CONTINUOUS
 10
-39.3999813508
 20
1.1520823064
 11
-39.1052170727
 21
1.1520823064
  0
LINE
  5
6D3
100
AcDbEntity
  8
RACCORDO
100
AcDbLine
 62
253
  6
CONTINUOUS
 10
-38.3999813508
 20
1.1609621553
 11
-38.5964908695
 21
1.1609621553
  0
LWPOLYLINE
  5
6D4
100
AcDbEntity
  8
RACCORDO
100
AcDbPolyline
 62
253
  6
CONTINUOUS
 90
7
 70
0
 10
-39.1052170727
 20
-2.0233435144
 10
-39.105857828
 20
-2.0207448646
 10
-39.10639737
 20
-2.0130147399
 10
-39.106826297
 20
-2.0002821973
 10
-39.1071371355
 20
-1.9827604344
 10
-39.10732435
 20
-1.9607495519
 10
-39.1073845973
 20
-1.9346369009
  0
LINE
  5
6D5
100
AcDbEntity
  8
RACCORDO
100
AcDbLine
 62
253
  6
CONTINUOUS
 10
-39.1052170727
 20
1.1520823064
 11
-39.10639737
 21
1.230030268
  0
LINE
  5
6D6
100
AcDbEntity
  8
RACCORDO
100
AcDbLine
 62
253
  6
CONTINUOUS
 10
-39.10639737
 20
1.230030268
 11
-39.1071371355
 21
1.302665707
  0
LWPOLYLINE
  5
6D7
100
AcDbEntity
  8
RACCORDO
100
AcDbPolyline
 62
253
  6
CONTINUOUS
 90
8
 70
0
 10
-39.1071371355
 20
1.302665707
 10
-39.1073845973
 20
1.3649663201
 10
-39.1073165982
 20
1.3908972607
 10
-39.1071213104
 20
1.4126816306
 10
-39.1068046301
 20
1.4298451686
 10
-39.106375433
 20
1.4421638771
 10
-39.105842613
 20
1.4495691076
 10
-39.1052170727
 20
1.452036615
  0
LINE
  5
6D8
100
AcDbEntity
  8
RACCORDO
100
AcDbLine
 62
253
  6
CONTINUOUS
 10
-39.1052170727
 20
-1.7233892059
 11
-39.1052170727
 21
1.1520823064
  0
LINE
  5
6D9
100
AcDbEntity
  8
RACCORDO
100
AcDbLine
 62
253
  6
CONTINUOUS
 10
-39.1073845973
 20
-1.9346369009
 11
-39.1071213104
 21
-1.8718378946
  0
LINE
  5
6DA
100
AcDbEntity
  8
RACCORDO
100
AcDbLine
 62
253
  6
CONTINUOUS
 10
-39.1071213104
 20
-1.8718378946
 11
-39.106375433
 21
-1.7996243557
  0
LINE
  5
6DB
100
AcDbEntity
  8
RACCORDO
100
AcDbLine
 62
253
  6
CONTINUOUS
 10
-39.106375433
 20
-1.7996243557
 11
-39.1052170727
 21
-1.7233892059
  0
LINE
  5
6DC
100
AcDbEntity
  8
DRAFT
100
AcDbLine
 62
7
  6
CONTINUOUS
 10
-37.3290449872
 20
2.2437659179
 11
-37.3999813508
 21
2.2425277191
  0
LINE
  5
6DD
100
AcDbEntity
  8
RACCORDO
100
AcDbLine
 62
7
  6
CONTINUOUS
 10
-36.1499813508
 20
2.1143465503
 11
-36.5790187085
 21
2.110602398
  0
LINE
  5
6DE
100
AcDbEntity
  8
ASSI
100
AcDbLine
 62
7
  6
CONTINUOUS
 10
-36.1499813508
 20
2.1143465503
 11
-36.5790187085
 21
2.110602398
  0
LINE
  5
6DF
100
AcDbEntity
  8
RACCORDO
100
AcDbLine
 62
253
  6
CONTINUOUS
 10
-33.9356319058
 20
1.5976481096
 11
-33.7393964802
 21
1.5976481193
  0
LINE
  5
6E0
100
AcDbEntity
  8
ASSI
100
AcDbLine
 62
253
  6
CONTINUOUS
 10
-33.9356319058
 20
1.5976481096
 11
-33.7393964802
 21
1.5976481193
  0
LINE
  5
6E1
100
AcDbEntity
  8
RACCORDO
100
AcDbLine
 62
253
  6
CONTINUOUS
 10
-33.7393964802
 20
1.5976481096
 11
-33.6859650836
 21
1.5971818208
  0
LINE
  5
6E2
100
AcDbEntity
  8
ASSI
100
AcDbLine
 62
253
  6
CONTINUOUS
 10
-33.7393964802
 20
1.5976481096
 11
-33.6859650836
 21
1.5971818208
  0
LINE
  5
6E3
100
AcDbEntity
  8
RACCORDO
100
AcDbLine
 62
253
  6
CONTINUOUS
 10
-34.2336983145
 20
1.8976462469
 11
-34.7782855539
 21
1.9023987877
  0
LINE
  5
6E4
100
AcDbEntity
  8
ASSI
100
AcDbLine
 62
253
  6
CONTINUOUS
 10
-34.2336983145
 20
1.8976462469
 11
-34.7782855539
 21
1.9023987877
  0
LINE
  5
6E5
100
AcDbEntity
  8
RACCORDO
100
AcDbLine
 62
7
  6
CONTINUOUS
 10
-34.1825150889
 20
2.0971767323
 11
-36.1499813508
 21
2.1143465503
  0
LINE
  5
6E6
100
AcDbEntity
  8
ASSI
100
AcDbLine
 62
7
  6
CONTINUOUS
 10
-34.1825150889
 20
2.0971767323
 11
-36.1499813508
 21
2.1143465503
  0
LWPOLYLINE
  5
6E7
100
AcDbEntity
  8
DRAFT
100
AcDbPolyline
 62
7
  6
CONTINUOUS
 90
10
 70
0
 10
-36.2489741702
 20
-0.480052544
 10
-36.2707240374
 20
-0.4666751201
 10
-36.2925930911
 20
-0.4534287031
 10
-36.3145813315
 20
-0.440313293
 10
-36.3366894819
 20
-0.42733398
 10
-36.3589168189
 20
-0.4144856739
 10
-36.3812611719
 20
-0.4017531041
 10
-36.4037218175
 20
-0.3891311801
 10
-36.4262994791
 20
-0.3766249923
 10
-36.4489941569
 20
-0.3642345406
  0
LWPOLYLINE
  5
6E8
100
AcDbEntity
  8
ASSI
100
AcDbPolyline
 62
7
  6
CONTINUOUS
 90
10
 70
0
 10
-36.2489741702
 20
-0.480052544
 10
-36.2707240374
 20
-0.4666751201
 10
-36.2925930911
 20
-0.4534287031
 10
-36.3145813315
 20
-0.440313293
 10
-36.3366894819
 20
-0.42733398
 10
-36.3589168189
 20
-0.4144856739
 10
-36.3812611719
 20
-0.4017531041
 10
-36.4037218175
 20
-0.3891311801
 10
-36.4262994791
 20
-0.3766249923
 10
-36.4489941569
 20
-0.3642345406
  0
LWPOLYLINE
  5
6E9
100
AcDbEntity
  8
RACCORDO
100
AcDbPolyline
 62
253
  6
CONTINUOUS
 90
6
 70
0
 10
-38.5953435666
 20
1.4328109282
 10
-38.5955102861
 20
1.4428374163
 10
-38.5957066864
 20
1.4507087763
 10
-38.5959320614
 20
1.4563671935
 10
-38.5961922404
 20
1.4597770524
 10
-38.596490286
 20
1.460916464
  0
LINE
  5
6EA
100
AcDbEntity
  8
RACCORDO
100
AcDbLine
 62
253
  6
CONTINUOUS
 10
-38.5955102861
 20
-1.8349056076
 11
-38.596490286
 21
-1.7323466952
  0
LINE
  5
6EB
100
AcDbEntity
  8
RACCORDO
100
AcDbLine
 62
253
  6
CONTINUOUS
 10
-38.5951223464
 20
1.4066608348
 11
-38.5953435666
 21
1.4328109282
  0
LINE
  5
6EC
100
AcDbEntity
  8
RACCORDO
100
AcDbLine
 62
253
  6
CONTINUOUS
 10
-38.5950655562
 20
-1.9251365653
 11
-38.5955102861
 21
-1.8349056076
  0
LINE
  5
6ED
100
AcDbEntity
  8
RACCORDO
100
AcDbLine
 62
253
  6
CONTINUOUS
 10
-38.5950460106
 20
1.3730834919
 11
-38.5951223464
 21
1.4066608348
  0
LINE
  5
6EE
100
AcDbEntity
  8
RACCORDO
100
AcDbLine
 62
253
  6
CONTINUOUS
 10
-38.5964908695
 20
-1.7323466849
 11
-38.5964908695
 21
1.160954532
  0
LINE
  5
6EF
100
AcDbEntity
  8
DRAFT
100
AcDbLine
 62
7
  6
CONTINUOUS
 10
-38.3999813508
 20
2.4132835019
 11
-38.3999813508
 21
-2.9845904013
  0
LINE
  5
6F0
100
AcDbEntity
  8
RACCORDO
100
AcDbLine
 62
7
  6
CONTINUOUS
 10
-38.3999813508
 20
-3.474237331
 11
-38.3999813508
 21
-2.9845904013
  0
LINE
  5
6F1
100
AcDbEntity
  8
RACCORDO
100
AcDbLine
 62
7
  6
CONTINUOUS
 10
-38.3999813508
 20
2.4132835019
 11
-38.3999813508
 21
2.9029304315
  0
LINE
  5
6F2
100
AcDbEntity
  8
RACCORDO
100
AcDbLine
 62
253
  6
CONTINUOUS
 10
-38.5950654289
 20
-1.9620712568
 11
-38.5950655562
 21
-1.9251365653
  0
LINE
  5
6F3
100
AcDbEntity
  8
RACCORDO
100
AcDbLine
 62
253
  6
CONTINUOUS
 10
-38.5952136153
 20
1.311005314
 11
-38.5950460106
 21
1.3730834919
  0
LINE
  5
6F4
100
AcDbEntity
  8
RACCORDO
100
AcDbLine
 62
253
  6
CONTINUOUS
 10
-38.5959325046
 20
1.2130750761
 11
-38.5952136153
 21
1.311005314
  0
LINE
  5
6F5
100
AcDbEntity
  8
RACCORDO
100
AcDbLine
 62
253
  6
CONTINUOUS
 10
-38.5964909268
 20
1.160954531
 11
-38.5959325046
 21
1.2130750761
  0
LWPOLYLINE
  5
6F6
100
AcDbEntity
  8
RACCORDO
100
AcDbPolyline
 62
253
  6
CONTINUOUS
 90
8
 70
0
 10
-38.5964909268
 20
-2.0322233622
 10
-38.5961928683
 20
-2.031087
 10
-38.5959325046
 20
-2.0276743574
 10
-38.5957068466
 20
-2.0220117188
 10
-38.5955101344
 20
-2.0141416619
 10
-38.5953432161
 20
-2.0041247702
 10
-38.5952136153
 20
-1.9920412283
 10
-38.5950654289
 20
-1.9620712568
  0
LWPOLYLINE
  5
6F7
100
AcDbEntity
  8
DRAFT
100
AcDbPolyline
 62
7
  6
CONTINUOUS
 90
10
 70
0
 10
-36.2489741702
 20
-0.0912543555
 10
-36.2707240374
 20
-0.1046317794
 10
-36.2925930911
 20
-0.1178781964
 10
-36.3145813315
 20
-0.1309936065
 10
-36.3366894819
 20
-0.1439729195
 10
-36.3589168189
 20
-0.1568212255
 10
-36.3812611719
 20
-0.1695537954
 10
-36.4037218175
 20
-0.1821757194
 10
-36.4262994791
 20
-0.1946819072
 10
-36.4489941569
 20
-0.2070723588
  0
LWPOLYLINE
  5
6F8
100
AcDbEntity
  8
ASSI
100
AcDbPolyline
 62
7
  6
CONTINUOUS
 90
10
 70
0
 10
-36.2489741702
 20
-0.0912543555
 10
-36.2707240374
 20
-0.1046317794
 10
-36.2925930911
 20
-0.1178781964
 10
-36.3145813315
 20
-0.1309936065
 10
-36.3366894819
 20
-0.1439729195
 10
-36.3589168189
 20
-0.1568212255
 10
-36.3812611719
 20
-0.1695537954
 10
-36.4037218175
 20
-0.1821757194
 10
-36.4262994791
 20
-0.1946819072
 10
-36.4489941569
 20
-0.2070723588
  0
LINE
  5
6F9
100
AcDbEntity
  8
RACCORDO
100
AcDbLine
 62
253
  6
CONTINUOUS
 10
-37.9174310992
 20
2.8029913488
 11
-36.1499813508
 21
2.8647120541
  0
LINE
  5
6FA
100
AcDbEntity
  8
RACCORDO
100
AcDbLine
 62
253
  6
CONTINUOUS
 10
-31.539509907
 20
2.7539618548
 11
-30.9499813508
 21
2.753961849
  0
LINE
  5
6FB
100
AcDbEntity
  8
RACCORDO
100
AcDbLine
 62
253
  6
CONTINUOUS
 10
-38.3999813508
 20
2.8029913488
 11
-37.9174310993
 21
2.8029913521
  0
LINE
  5
6FC
100
AcDbEntity
  8
RACCORDO
100
AcDbLine
 62
253
  6
CONTINUOUS
 10
-30.8999813508
 20
2.9228748891
 11
-30.9748625251
 21
2.9228748891
  0
LINE
  5
6FD
100
AcDbEntity
  8
ASSI
100
AcDbLine
 62
253
  6
CONTINUOUS
 10
-30.8999813508
 20
2.9228748891
 11
-30.9748625251
 21
2.9228748891
  0
LINE
  5
6FE
100
AcDbEntity
  8
RACCORDO
100
AcDbLine
 62
253
  6
CONTINUOUS
 10
-31.539509907
 20
2.7539618548
 11
-36.1499813508
 21
2.8344379332
  0
LINE
  5
6FF
100
AcDbEntity
  8
RACCORDO
100
AcDbLine
 62
7
  6
CONTINUOUS
 10
-33.9816637661
 20
2.1817292891
 11
-38.3999813508
 21
2.4132835019
  0
LINE
  5
700
100
AcDbEntity
  8
RACCORDO
100
AcDbLine
 62
7
  6
CONTINUOUS
 10
-34.1834234303
 20
2.0944731191
 11
-34.2354434887
 21
2.0976386315
  0
LINE
  5
701
100
AcDbEntity
  8
ASSI
100
AcDbLine
 62
7
  6
CONTINUOUS
 10
-34.1834234303
 20
2.0944731191
 11
-34.2354434887
 21
2.0976386315
  0
LINE
  5
702
100
AcDbEntity
  8
0
100
AcDbLine
 62
7
  6
CONTINUOUS
 10
-34.980741111
 20
0.9382575719
 11
-35.1544726792
 21
0.9848088053
  0
LWPOLYLINE
  5
703
100
AcDbEntity
  8
DRAFT
100
AcDbPolyline
 62
7
  6
CONTINUOUS
 90
10
 70
0
 10
-35.2512428328
 20
-0.2069235068
 10
-35.2739745968
 20
-0.1945108344
 10
-35.2965927184
 20
-0.1819796481
 10
-35.3190971976
 20
-0.1693299478
 10
-35.3414887651
 20
-0.1565669699
 10
-35.3637666902
 20
-0.1436854781
 10
-35.3859287802
 20
-0.1306697636
 10
-35.4079743041
 20
-0.1175145902
 10
-35.4299039929
 20
-0.1042251941
 10
-35.4517178466
 20
-0.0908015754
  0
LWPOLYLINE
  5
704
100
AcDbEntity
  8
ASSI
100
AcDbPolyline
 62
7
  6
CONTINUOUS
 90
10
 70
0
 10
-35.2512428328
 20
-0.2069235068
 10
-35.2739745968
 20
-0.1945108344
 10
-35.2965927184
 20
-0.1819796481
 10
-35.3190971976
 20
-0.1693299478
 10
-35.3414887651
 20
-0.1565669699
 10
-35.3637666902
 20
-0.1436854781
 10
-35.3859287802
 20
-0.1306697636
 10
-35.4079743041
 20
-0.1175145902
 10
-35.4299039929
 20
-0.1042251941
 10
-35.4517178466
 20
-0.0908015754
  0
LINE
  5
705
100
AcDbEntity
  8
RACCORDO
100
AcDbLine
 62
253
  6
CONTINUOUS
 10
-37.9174310992
 20
2.8029913488
 11
-37.9201891774
 21
2.9070565841
  0
LINE
  5
706
100
AcDbEntity
  8
RACCORDO
100
AcDbLine
 62
253
  6
CONTINUOUS
 10
-37.9201891774
 20
2.9070565841
 11
-37.9223395599
 21
3.0079604633
  0
LINE
  5
707
100
AcDbEntity
  8
RACCORDO
100
AcDbLine
 62
253
  6
CONTINUOUS
 10
-37.9223395599
 20
3.0079604633
 11
-37.9238074622
 21
3.1026423143
  0
LWPOLYLINE
  5
708
100
AcDbEntity
  8
RACCORDO
100
AcDbPolyline
 62
253
  6
CONTINUOUS
 90
12
 70
0
 10
-37.9238074622
 20
3.1026423143
 10
-37.9245514283
 20
3.1882301333
 10
-37.9246441614
 20
3.2267892294
 10
-37.9245510243
 20
3.2621269125
 10
-37.9242715634
 20
3.2939747617
 10
-37.9238064876
 20
3.3220908846
 10
-37.9231606568
 20
3.3462615779
 10
-37.9223393403
 20
3.3663031521
 10
-37.9213463214
 20
3.3820634176
 10
-37.9201894066
 20
3.3934225762
 10
-37.9188803576
 20
3.4002941595
 10
-37.9174310992
 20
3.402625845
  0
LINE
  5
709
100
AcDbEntity
  8
RACCORDO
100
AcDbLine
 62
253
  6
CONTINUOUS
 10
-37.9174310992
 20
-3.3742982483
 11
-37.9174310992
 21
-2.9593010142
  0
LINE
  5
70A
100
AcDbEntity
  8
RACCORDO
100
AcDbLine
 62
253
  6
CONTINUOUS
 10
-37.9174310992
 20
2.3879941148
 11
-37.9174310992
 21
2.8029913488
  0
LINE
  5
70B
100
AcDbEntity
  8
DRAFT
100
AcDbLine
 62
7
  6
CONTINUOUS
 10
-37.3999813508
 20
2.3608757226
 11
-37.3999813508
 21
-2.932182622
  0
LINE
  5
70C
100
AcDbEntity
  8
RACCORDO
100
AcDbLine
 62
7
  6
CONTINUOUS
 10
-37.3499813508
 20
-2.6725014665
 11
-37.3499813508
 21
2.101194567
  0
LINE
  5
70D
100
AcDbEntity
  8
ASSI
100
AcDbLine
 62
7
  6
CONTINUOUS
 10
-37.3499813508
 20
-2.6725014665
 11
-37.3499813508
 21
2.101194567
  0
LINE
  5
70E
100
AcDbEntity
  8
RACCORDO
100
AcDbLine
 62
253
  6
CONTINUOUS
 10
-37.9246441614
 20
-3.7980961288
 11
-37.9242723693
 21
-3.7180495988
  0
LINE
  5
70F
100
AcDbEntity
  8
RACCORDO
100
AcDbLine
 62
253
  6
CONTINUOUS
 10
-37.9242723693
 20
-3.7180495988
 11
-37.9231613692
 21
-3.6275710213
  0
LINE
  5
710
100
AcDbEntity
  8
RACCORDO
100
AcDbLine
 62
253
  6
CONTINUOUS
 10
-37.9231613692
 20
-3.6275710213
 11
-37.9213461862
 21
-3.5294052403
  0
LWPOLYLINE
  5
711
100
AcDbEntity
  8
RACCORDO
100
AcDbPolyline
 62
253
  6
CONTINUOUS
 90
3
 70
0
 10
-37.9213461862
 20
-3.5294052403
 10
-37.9188801733
 20
-3.4265298851
 10
-37.9174310992
 20
-3.3742982483
  0
LWPOLYLINE
  5
712
100
AcDbEntity
  8
DRAFT
100
AcDbPolyline
 62
7
  6
CONTINUOUS
 90
10
 70
0
 10
-35.2512428328
 20
-0.3643833927
 10
-35.2739745968
 20
-0.3767960651
 10
-35.2965927184
 20
-0.3893272514
 10
-35.3190971976
 20
-0.4019769517
 10
-35.3414887651
 20
-0.4147399296
 10
-35.3637666902
 20
-0.4276214214
 10
-35.3859287802
 20
-0.4406371359
 10
-35.4079743041
 20
-0.4537923093
 10
-35.4299039929
 20
-0.4670817054
 10
-35.4517178466
 20
-0.4805053241
  0
LWPOLYLINE
  5
713
100
AcDbEntity
  8
ASSI
100
AcDbPolyline
 62
7
  6
CONTINUOUS
 90
10
 70
0
 10
-35.2512428328
 20
-0.3643833927
 10
-35.2739745968
 20
-0.3767960651
 10
-35.2965927184
 20
-0.3893272514
 10
-35.3190971976
 20
-0.4019769517
 10
-35.3414887651
 20
-0.4147399296
 10
-35.3637666902
 20
-0.4276214214
 10
-35.3859287802
 20
-0.4406371359
 10
-35.4079743041
 20
-0.4537923093
 10
-35.4299039929
 20
-0.4670817054
 10
-35.4517178466
 20
-0.4805053241
  0
LINE
  5
714
100
AcDbEntity
  8
RACCORDO
100
AcDbLine
 62
7
  6
CONTINUOUS
 10
-37.9174310992
 20
3.402625845
 11
-36.1499813508
 21
3.4643465503
  0
LINE
  5
715
100
AcDbEntity
  8
DRAFT
100
AcDbLine
 62
7
  6
CONTINUOUS
 10
-34.6499813508
 20
3.5167277045
 11
-36.1499813508
 21
3.4643465503
  0
LINE
  5
716
100
AcDbEntity
  8
RACCORDO
100
AcDbLine
 62
7
  6
CONTINUOUS
 10
-36.1499813508
 20
3.4643465503
 11
-37.1499813508
 21
3.4556196825
  0
LINE
  5
717
100
AcDbEntity
  8
ASSI
100
AcDbLine
 62
7
  6
CONTINUOUS
 10
-36.1499813508
 20
3.4643465503
 11
-37.1499813508
 21
3.4556196825
  0
LINE
  5
718
100
AcDbEntity
  8
RACCORDO
100
AcDbLine
 62
7
  6
CONTINUOUS
 10
-36.1499813508
 20
3.4643465503
 11
-31.3956180831
 21
3.4228558506
  0
LINE
  5
719
100
AcDbEntity
  8
ASSI
100
AcDbLine
 62
7
  6
CONTINUOUS
 10
-36.1499813508
 20
3.4643465503
 11
-31.3956180831
 21
3.4228558506
  0
LINE
  5
71A
100
AcDbEntity
  8
RACCORDO
100
AcDbLine
 62
7
  6
CONTINUOUS
 10
-31.539509907
 20
3.3538704719
 11
-36.1499813508
 21
3.4343465503
  0
LINE
  5
71B
100
AcDbEntity
  8
RACCORDO
100
AcDbLine
 62
7
  6
CONTINUOUS
 10
-34.1466566747
 20
2.0889176849
 11
-34.1834234303
 21
2.0944731191
  0
LINE
  5
71C
100
AcDbEntity
  8
ASSI
100
AcDbLine
 62
7
  6
CONTINUOUS
 10
-34.1466566747
 20
2.0889176849
 11
-34.1834234303
 21
2.0944731191
  0
LINE
  5
71D
100
AcDbEntity
  8
RACCORDO
100
AcDbLine
 62
7
  6
CONTINUOUS
 10
-37.1499813508
 20
-4.0269265819
 11
-37.1499813508
 21
-4.0007326802
  0
LINE
  5
71E
100
AcDbEntity
  8
ASSI
100
AcDbLine
 62
7
  6
CONTINUOUS
 10
-37.1499813508
 20
-4.0269265819
 11
-37.1499813508
 21
-4.0007326802
  0
LINE
  5
71F
100
AcDbEntity
  8
RACCORDO
100
AcDbLine
 62
7
  6
CONTINUOUS
 10
-37.1499813508
 20
3.4294257808
 11
-37.1499813508
 21
3.4556196825
  0
LINE
  5
720
100
AcDbEntity
  8
ASSI
100
AcDbLine
 62
7
  6
CONTINUOUS
 10
-37.1499813508
 20
3.4294257808
 11
-37.1499813508
 21
3.4556196825
  0
LINE
  5
721
100
AcDbEntity
  8
RACCORDO
100
AcDbLine
 62
253
  6
CONTINUOUS
 10
-36.7368054397
 20
-4.0305323135
 11
-36.7368054397
 21
-4.015161101
  0
LINE
  5
722
100
AcDbEntity
  8
ASSI
100
AcDbLine
 62
253
  6
CONTINUOUS
 10
-36.7368054397
 20
-4.0305323135
 11
-36.7368054397
 21
-4.015161101
  0
LINE
  5
723
100
AcDbEntity
  8
RACCORDO
100
AcDbLine
 62
253
  6
CONTINUOUS
 10
-36.7368054397
 20
3.4438542015
 11
-36.7368054397
 21
3.459225414
  0
LINE
  5
724
100
AcDbEntity
  8
ASSI
100
AcDbLine
 62
253
  6
CONTINUOUS
 10
-36.7368054397
 20
3.4438542015
 11
-36.7368054397
 21
3.459225414
  0
LINE
  5
725
100
AcDbEntity
  8
DRAFT
100
AcDbLine
 62
7
  6
CONTINUOUS
 10
-36.4489941569
 20
-0.2070723588
 11
-36.4489941569
 21
-0.3642345406
  0
LINE
  5
726
100
AcDbEntity
  8
ASSI
100
AcDbLine
 62
7
  6
CONTINUOUS
 10
-36.4489941569
 20
-0.2070723588
 11
-36.4489941569
 21
-0.3642345406
  0
LINE
  5
727
100
AcDbEntity
  8
DRAFT
100
AcDbLine
 62
7
  6
CONTINUOUS
 10
-36.2489741702
 20
-0.0912543555
 11
-36.2489741702
 21
-0.480052544
  0
LINE
  5
728
100
AcDbEntity
  8
ASSI
100
AcDbLine
 62
7
  6
CONTINUOUS
 10
-36.2489741702
 20
-0.0912543555
 11
-36.2489741702
 21
-0.480052544
  0
LINE
  5
729
100
AcDbEntity
  8
RACCORDO
100
AcDbLine
 62
7
  6
CONTINUOUS
 10
-36.1499813508
 20
-4.0356534497
 11
-36.1499813508
 21
-2.8666728979
  0
LINE
  5
72A
100
AcDbEntity
  8
DRAFT
100
AcDbLine
 62
7
  6
CONTINUOUS
 10
-36.1499813508
 20
-2.8666728979
 11
-36.1499813508
 21
-2.3430699987
  0
LINE
  5
72B
100
AcDbEntity
  8
ASSI
100
AcDbLine
 62
7
  6
CONTINUOUS
 10
-36.1499813508
 20
-2.8666728979
 11
-36.1499813508
 21
-2.3430699987
  0
LINE
  5
72C
100
AcDbEntity
  8
DRAFT
100
AcDbLine
 62
7
  6
CONTINUOUS
 10
-36.1499813508
 20
1.7717630992
 11
-36.1499813508
 21
2.2953659985
  0
LINE
  5
72D
100
AcDbEntity
  8
ASSI
100
AcDbLine
 62
7
  6
CONTINUOUS
 10
-36.1499813508
 20
1.7717630992
 11
-36.1499813508
 21
2.2953659985
  0
LINE
  5
72E
100
AcDbEntity
  8
RACCORDO
100
AcDbLine
 62
7
  6
CONTINUOUS
 10
-36.1499813508
 20
2.2953659985
 11
-36.1499813508
 21
3.4643465503
  0
LINE
  5
72F
100
AcDbEntity
  8
DRAFT
100
AcDbLine
 62
7
  6
CONTINUOUS
 10
-35.4517178466
 20
-0.4805053241
 11
-35.4517178466
 21
-0.0908015754
  0
LINE
  5
730
100
AcDbEntity
  8
ASSI
100
AcDbLine
 62
7
  6
CONTINUOUS
 10
-35.4517178466
 20
-0.4805053241
 11
-35.4517178466
 21
-0.0908015754
  0
LINE
  5
731
100
AcDbEntity
  8
DRAFT
100
AcDbLine
 62
7
  6
CONTINUOUS
 10
-35.2512428328
 20
-0.3643833927
 11
-35.2512428328
 21
-0.2069235068
  0
LINE
  5
732
100
AcDbEntity
  8
ASSI
100
AcDbLine
 62
7
  6
CONTINUOUS
 10
-35.2512428328
 20
-0.3643833927
 11
-35.2512428328
 21
-0.2069235068
  0
LINE
  5
733
100
AcDbEntity
  8
0
100
AcDbLine
 62
7
  6
CONTINUOUS
 10
-35.6569904245
 20
-0.5665295019
 11
-35.6275545386
 21
-0.4566732799
  0
LINE
  5
734
100
AcDbEntity
  8
DRAFT
100
AcDbLine
 62
7
  6
CONTINUOUS
 10
-35.625517193
 20
-1.9945511247
 11
-35.6711128575
 21
-2.1647164614
  0
LINE
  5
735
100
AcDbEntity
  8
0
100
AcDbLine
 62
7
  6
CONTINUOUS
 10
-35.5593748556
 20
-2.1340748916
 11
-35.5101316637
 21
-1.9502967974
  0
LINE
  5
736
100
AcDbEntity
  8
0
100
AcDbLine
 62
7
  6
CONTINUOUS
 10
-35.2239560822
 20
-0.8822749873
 11
-35.1740682141
 21
-0.696090929
  0
LINE
  5
737
100
AcDbEntity
  8
DRAFT
100
AcDbLine
 62
7
  6
CONTINUOUS
 10
-34.6499813508
 20
3.5167277045
 11
-34.6499813508
 21
3.4512562486
  0
LINE
  5
738
100
AcDbEntity
  8
DRAFT
100
AcDbLine
 62
7
  6
CONTINUOUS
 10
-34.6499813508
 20
-4.022563148
 11
-34.6499813508
 21
-4.088034604
  0
LWPOLYLINE
  5
739
100
AcDbEntity
  8
RACCORDO
100
AcDbPolyline
 62
253
  6
CONTINUOUS
 90
16
 70
0
 10
-33.9356319058
 20
1.5976481096
 10
-33.9373697472
 20
1.6292644012
 10
-33.9422004062
 20
1.6599332016
 10
-33.9501238828
 20
1.6896545106
 10
-33.9612930561
 20
1.718744499
 10
-33.975555047
 20
1.7468869961
 10
-33.9924512178
 20
1.7731334898
 10
-34.0120664622
 20
1.7974067197
 10
-34.0343158866
 20
1.8197839462
 10
-34.058486172
 20
1.839548439
 10
-34.0846625463
 20
1.8566164092
 10
-34.1127597816
 20
1.8710716455
 10
-34.1418088763
 20
1.8824487839
 10
-34.1714868297
 20
1.8905927028
 10
-34.2021166424
 20
1.8956585238
 10
-34.2336983145
 20
1.8976462469
  0
LWPOLYLINE
  5
73A
100
AcDbEntity
  8
ASSI
100
AcDbPolyline
 62
253
  6
CONTINUOUS
 90
16
 70
0
 10
-33.9356319058
 20
1.5976481096
 10
-33.9373697472
 20
1.6292644012
 10
-33.9422004062
 20
1.6599332016
 10
-33.9501238828
 20
1.6896545106
 10
-33.9612930561
 20
1.718744499
 10
-33.975555047
 20
1.7468869961
 10
-33.9924512178
 20
1.7731334898
 10
-34.0120664622
 20
1.7974067197
 10
-34.0343158866
 20
1.8197839462
 10
-34.058486172
 20
1.839548439
 10
-34.0846625463
 20
1.8566164092
 10
-34.1127597816
 20
1.8710716455
 10
-34.1418088763
 20
1.8824487839
 10
-34.1714868297
 20
1.8905927028
 10
-34.2021166424
 20
1.8956585238
 10
-34.2336983145
 20
1.8976462469
  0
LWPOLYLINE
  5
73B
100
AcDbEntity
  8
RACCORDO
100
AcDbPolyline
 62
253
  6
CONTINUOUS
 90
15
 70
0
 10
-33.7393964802
 20
1.5976481096
 10
-33.7421026447
 20
1.649576835
 10
-33.7501938864
 20
1.7009566427
 10
-33.7635868074
 20
1.7512309323
 10
-33.7821428896
 20
1.7998582868
 10
-33.8056638576
 20
1.8463063089
 10
-33.8338897672
 20
1.8900593767
 10
-33.8665129702
 20
1.9306401917
 10
-33.9031824655
 20
1.9676124975
 10
-33.9434987707
 20
2.0005752758
 10
-33.9870242781
 20
2.0291703468
 10
-34.0332896391
 20
2.0530893607
 10
-34.0817967969
 20
2.0720750386
 10
-34.1320225767
 20
2.0859204579
 10
-34.1466566747
 20
2.0889176849
  0
LWPOLYLINE
  5
73C
100
AcDbEntity
  8
ASSI
100
AcDbPolyline
 62
253
  6
CONTINUOUS
 90
15
 70
0
 10
-33.7393964802
 20
1.5976481096
 10
-33.7421026447
 20
1.649576835
 10
-33.7501938864
 20
1.7009566427
 10
-33.7635868074
 20
1.7512309323
 10
-33.7821428896
 20
1.7998582868
 10
-33.8056638576
 20
1.8463063089
 10
-33.8338897672
 20
1.8900593767
 10
-33.8665129702
 20
1.9306401917
 10
-33.9031824655
 20
1.9676124975
 10
-33.9434987707
 20
2.0005752758
 10
-33.9870242781
 20
2.0291703468
 10
-34.0332896391
 20
2.0530893607
 10
-34.0817967969
 20
2.0720750386
 10
-34.1320225767
 20
2.0859204579
 10
-34.1466566747
 20
2.0889176849
  0
LWPOLYLINE
  5
73D
100
AcDbEntity
  8
RACCORDO
100
AcDbPolyline
 62
253
  6
CONTINUOUS
 90
6
 70
0
 10
-34.2333933522
 20
2.0261885027
 10
-34.2336084534
 20
2.050838424
 10
-34.23393232
 20
2.0708345791
 10
-34.234355113
 20
2.0855695124
 10
-34.2348639889
 20
2.0945955966
 10
-34.2354434887
 20
2.0976386315
  0
LWPOLYLINE
  5
73E
100
AcDbEntity
  8
ASSI
100
AcDbPolyline
 62
253
  6
CONTINUOUS
 90
6
 70
0
 10
-34.2333933522
 20
2.0261885027
 10
-34.2336084534
 20
2.050838424
 10
-34.23393232
 20
2.0708345791
 10
-34.234355113
 20
2.0855695124
 10
-34.2348639889
 20
2.0945955966
 10
-34.2354434887
 20
2.0976386315
  0
LINE
  5
73F
100
AcDbEntity
  8
RACCORDO
100
AcDbLine
 62
253
  6
CONTINUOUS
 10
-34.2336983145
 20
-2.4689531463
 11
-34.2333121572
 21
-2.5373431459
  0
LINE
  5
740
100
AcDbEntity
  8
ASSI
100
AcDbLine
 62
253
  6
CONTINUOUS
 10
-34.2336983145
 20
-2.4689531463
 11
-34.2333121572
 21
-2.5373431459
  0
LINE
  5
741
100
AcDbEntity
  8
RACCORDO
100
AcDbLine
 62
253
  6
CONTINUOUS
 10
-33.9356319058
 20
-2.168955009
 11
-33.9356319058
 21
-1.9981224657
  0
LINE
  5
742
100
AcDbEntity
  8
ASSI
100
AcDbLine
 62
253
  6
CONTINUOUS
 10
-33.9356319058
 20
-2.168955009
 11
-33.9356319058
 21
-1.9981224657
  0
LINE
  5
743
100
AcDbEntity
  8
RACCORDO
100
AcDbLine
 62
253
  6
CONTINUOUS
 10
-33.9356319058
 20
1.4268155662
 11
-33.9356319058
 21
1.5976481096
  0
LINE
  5
744
100
AcDbEntity
  8
ASSI
100
AcDbLine
 62
253
  6
CONTINUOUS
 10
-33.9356319058
 20
1.4268155662
 11
-33.9356319058
 21
1.5976481096
  0
LINE
  5
745
100
AcDbEntity
  8
RACCORDO
100
AcDbLine
 62
253
  6
CONTINUOUS
 10
-33.7393964802
 20
-2.168955009
 11
-33.7393964802
 21
-2.0015477678
  0
LINE
  5
746
100
AcDbEntity
  8
ASSI
100
AcDbLine
 62
253
  6
CONTINUOUS
 10
-33.7393964802
 20
-2.168955009
 11
-33.7393964802
 21
-2.0015477678
  0
LINE
  5
747
100
AcDbEntity
  8
RACCORDO
100
AcDbLine
 62
253
  6
CONTINUOUS
 10
-33.7393964802
 20
1.4302408683
 11
-33.7393964802
 21
1.5976481096
  0
LINE
  5
748
100
AcDbEntity
  8
ASSI
100
AcDbLine
 62
253
  6
CONTINUOUS
 10
-33.7393964802
 20
1.4302408683
 11
-33.7393964802
 21
1.5976481096
  0
LINE
  5
749
100
AcDbEntity
  8
RACCORDO
100
AcDbLine
 62
7
  6
CONTINUOUS
 10
-33.6859650836
 20
-2.1684887203
 11
-33.6859650836
 21
-2.0024804163
  0
LINE
  5
74A
100
AcDbEntity
  8
ASSI
100
AcDbLine
 62
7
  6
CONTINUOUS
 10
-33.6859650836
 20
-2.1684887203
 11
-33.6859650836
 21
-2.0024804163
  0
LINE
  5
74B
100
AcDbEntity
  8
RACCORDO
100
AcDbLine
 62
7
  6
CONTINUOUS
 10
-33.6859650836
 20
1.4311735168
 11
-33.6859650836
 21
1.5971818208
  0
LINE
  5
74C
100
AcDbEntity
  8
ASSI
100
AcDbLine
 62
7
  6
CONTINUOUS
 10
-33.6859650836
 20
1.4311735168
 11
-33.6859650836
 21
1.5971818208
  0
LINE
  5
74D
100
AcDbEntity
  8
RACCORDO
100
AcDbLine
 62
7
  6
CONTINUOUS
 10
-33.6499813508
 20
-2.4035158514
 11
-33.6499813508
 21
1.8322089519
  0
LINE
  5
74E
100
AcDbEntity
  8
RACCORDO
100
AcDbLine
 62
253
  6
CONTINUOUS
 10
-34.2333120834
 20
1.9660413097
 11
-34.2333933522
 21
2.0261885027
  0
LINE
  5
74F
100
AcDbEntity
  8
ASSI
100
AcDbLine
 62
253
  6
CONTINUOUS
 10
-34.2333120834
 20
1.9660413097
 11
-34.2333933522
 21
2.0261885027
  0
LWPOLYLINE
  5
750
100
AcDbEntity
  8
RACCORDO
100
AcDbPolyline
 62
253
  6
CONTINUOUS
 90
7
 70
0
 10
-34.2333121572
 20
-2.5373431459
 10
-34.2333934035
 20
-2.5974897032
 10
-34.2336084796
 20
-2.6221406913
 10
-34.2339323231
 20
-2.6421383143
 10
-34.2343551003
 20
-2.6568747482
 10
-34.2348639715
 20
-2.6659020176
 10
-34.2354434796
 20
-2.6689455308
  0
LWPOLYLINE
  5
751
100
AcDbEntity
  8
ASSI
100
AcDbPolyline
 62
253
  6
CONTINUOUS
 90
7
 70
0
 10
-34.2333121572
 20
-2.5373431459
 10
-34.2333934035
 20
-2.5974897032
 10
-34.2336084796
 20
-2.6221406913
 10
-34.2339323231
 20
-2.6421383143
 10
-34.2343551003
 20
-2.6568747482
 10
-34.2348639715
 20
-2.6659020176
 10
-34.2354434796
 20
-2.6689455308
  0
LINE
  5
752
100
AcDbEntity
  8
RACCORDO
100
AcDbLine
 62
253
  6
CONTINUOUS
 10
-34.2336983145
 20
1.8976462469
 11
-34.2333120834
 21
1.9660413097
  0
LINE
  5
753
100
AcDbEntity
  8
ASSI
100
AcDbLine
 62
253
  6
CONTINUOUS
 10
-34.2336983145
 20
1.8976462469
 11
-34.2333120834
 21
1.9660413097
  0
LINE
  5
754
100
AcDbEntity
  8
RACCORDO
100
AcDbLine
 62
253
  6
CONTINUOUS
 10
-31.539509907
 20
-3.3252687542
 11
-31.5367813318
 21
-3.5111788256
  0
LWPOLYLINE
  5
755
100
AcDbEntity
  8
RACCORDO
100
AcDbPolyline
 62
253
  6
CONTINUOUS
 90
7
 70
0
 10
-31.5353630635
 20
3.2401523758
 10
-31.5356904628
 20
3.2743216557
 10
-31.536175392
 20
3.3027533685
 10
-31.5368096399
 20
3.3250573983
 10
-31.5375833412
 20
3.3410469796
 10
-31.5384871872
 20
3.3506597332
 10
-31.539509907
 20
3.3538704719
  0
LINE
  5
756
100
AcDbEntity
  8
RACCORDO
100
AcDbLine
 62
253
  6
CONTINUOUS
 10
-31.5367813318
 20
-3.5111788256
 11
-31.5356727054
 21
-3.6260364675
  0
LINE
  5
757
100
AcDbEntity
  8
RACCORDO
100
AcDbLine
 62
253
  6
CONTINUOUS
 10
-31.5356727054
 20
-3.6260364675
 11
-31.5351933556
 21
-3.7276070012
  0
LINE
  5
758
100
AcDbEntity
  8
RACCORDO
100
AcDbLine
 62
253
  6
CONTINUOUS
 10
-31.539509907
 20
-3.3252687542
 11
-31.539509907
 21
2.7539618548
  0
LINE
  5
759
100
AcDbEntity
  8
RACCORDO
100
AcDbLine
 62
253
  6
CONTINUOUS
 10
-31.5351933558
 20
3.1562999881
 11
-31.5353630635
 21
3.2401523758
  0
LWPOLYLINE
  5
75A
100
AcDbEntity
  8
RACCORDO
100
AcDbPolyline
 62
253
  6
CONTINUOUS
 90
8
 70
0
 10
-31.5351933556
 20
-3.7276070012
 10
-31.5353630643
 20
-3.8114593951
 10
-31.5356904643
 20
-3.8456286594
 10
-31.536175394
 20
-3.8740603498
 10
-31.5368096419
 20
-3.8963643525
 10
-31.5375833424
 20
-3.912353907
 10
-31.5384871868
 20
-3.9219666406
 10
-31.539509904
 20
-3.9251773713
  0
LINE
  5
75B
100
AcDbEntity
  8
RACCORDO
100
AcDbLine
 62
253
  6
CONTINUOUS
 10
-31.5356727061
 20
3.0547294761
 11
-31.5351933558
 21
3.1562999881
  0
LINE
  5
75C
100
AcDbEntity
  8
RACCORDO
100
AcDbLine
 62
253
  6
CONTINUOUS
 10
-31.5375572848
 20
2.8790521683
 11
-31.5356727061
 21
3.0547294761
  0
LINE
  5
75D
100
AcDbEntity
  8
RACCORDO
100
AcDbLine
 62
253
  6
CONTINUOUS
 10
-31.539509907
 20
2.7539618548
 11
-31.5375572848
 21
2.8790521683
  0
LWPOLYLINE
  5
75E
100
AcDbEntity
  8
RACCORDO
100
AcDbPolyline
 62
253
  6
CONTINUOUS
 90
4
 70
0
 10
-31.3956180831
 20
3.4228558506
 10
-31.3954106856
 20
3.4205748725
 10
-31.395249368
 20
3.4138054291
 10
-31.3951390291
 20
3.4027535263
  0
LWPOLYLINE
  5
75F
100
AcDbEntity
  8
ASSI
100
AcDbPolyline
 62
253
  6
CONTINUOUS
 90
4
 70
0
 10
-31.3956180831
 20
3.4228558506
 10
-31.3954106856
 20
3.4205748725
 10
-31.395249368
 20
3.4138054291
 10
-31.3951390291
 20
3.4027535263
  0
LINE
  5
760
100
AcDbEntity
  8
RACCORDO
100
AcDbLine
 62
253
  6
CONTINUOUS
 10
-31.395083001
 20
-3.9405790406
 11
-31.3952086983
 21
-3.9042015145
  0
LINE
  5
761
100
AcDbEntity
  8
ASSI
100
AcDbLine
 62
253
  6
CONTINUOUS
 10
-31.395083001
 20
-3.9405790406
 11
-31.3952086983
 21
-3.9042015145
  0
LINE
  5
762
100
AcDbEntity
  8
RACCORDO
100
AcDbLine
 62
253
  6
CONTINUOUS
 10
-31.3951390291
 20
3.4027535263
 11
-31.3950830319
 21
3.36926649
  0
LINE
  5
763
100
AcDbEntity
  8
ASSI
100
AcDbLine
 62
253
  6
CONTINUOUS
 10
-31.3951390291
 20
3.4027535263
 11
-31.3950830319
 21
3.36926649
  0
LINE
  5
764
100
AcDbEntity
  8
RACCORDO
100
AcDbLine
 62
7
  6
CONTINUOUS
 10
-30.9499813508
 20
-3.3252687542
 11
-30.9499813508
 21
2.7539618548
  0
LINE
  5
765
100
AcDbEntity
  8
RACCORDO
100
AcDbLine
 62
7
  6
CONTINUOUS
 10
-30.8999813508
 20
2.9227107237
 11
-30.8999813508
 21
-3.4940685706
  0
LINE
  5
766
100
AcDbEntity
  8
ASSI
100
AcDbLine
 62
7
  6
CONTINUOUS
 10
-30.8999813508
 20
2.9227107237
 11
-30.8999813508
 21
-3.4940685706
  0
LINE
  5
767
100
AcDbEntity
  8
RACCORDO
100
AcDbLine
 62
253
  6
CONTINUOUS
 10
-31.3950830319
 20
3.36926649
 11
-31.3952087166
 21
3.3328946202
  0
LINE
  5
768
100
AcDbEntity
  8
ASSI
100
AcDbLine
 62
253
  6
CONTINUOUS
 10
-31.3950830319
 20
3.36926649
 11
-31.3952087166
 21
3.3328946202
  0
LWPOLYLINE
  5
769
100
AcDbEntity
  8
RACCORDO
100
AcDbPolyline
 62
253
  6
CONTINUOUS
 90
5
 70
0
 10
-31.3956180831
 20
-3.9941627501
 10
-31.3954106951
 20
-3.9918822365
 10
-31.3952493762
 20
-3.9851139483
 10
-31.3951390277
 20
-3.9740635169
 10
-31.395083001
 20
-3.9405790406
  0
LWPOLYLINE
  5
76A
100
AcDbEntity
  8
ASSI
100
AcDbPolyline
 62
253
  6
CONTINUOUS
 90
5
 70
0
 10
-31.3956180831
 20
-3.9941627501
 10
-31.3954106951
 20
-3.9918822365
 10
-31.3952493762
 20
-3.9851139483
 10
-31.3951390277
 20
-3.9740635169
 10
-31.395083001
 20
-3.9405790406
  0
ARC
  5
76B
100
AcDbEntity
  8
RACCORDO
100
AcDbCircle
 62
7
  6
CONTINUOUS
 10
-35.8499813508
 20
-1.2856534497
 40
1.6
100
AcDbArc
 50
301.7143149194
 51
38.6821874535
  0
ARC
  5
76C
100
AcDbEntity
  8
RACCORDO
100
AcDbCircle
 62
7
  6
CONTINUOUS
 10
-35.8499813508
 20
-1.2856534497
 40
1.6
100
AcDbArc
 50
201.7867892983
 51
238.7016622811
  0
ARC
  5
76D
100
AcDbEntity
  8
ASSI
100
AcDbCircle
 62
7
  6
CONTINUOUS
 10
-35.8499813508
 20
-1.2856534497
 40
1.6
100
AcDbArc
 50
301.7143149194
 51
38.6821874535
  0
ARC
  5
76E
100
AcDbEntity
  8
ASSI
100
AcDbCircle
 62
7
  6
CONTINUOUS
 10
-35.8499813508
 20
-1.2856534497
 40
1.6
100
AcDbArc
 50
201.7867892983
 51
238.7016622811
  0
CIRCLE
  5
76F
100
AcDbEntity
  8
0
100
AcDbCircle
 62
7
  6
CONTINUOUS
 10
-35.8499813508
 20
-1.2856534497
 40
0.75
  0
ARC
  5
770
100
AcDbEntity
  8
RACCORDO
100
AcDbCircle
 62
7
  6
CONTINUOUS
 10
-36.8499813508
 20
-2.6725014665
 40
0.5
100
AcDbArc
 50
180.0
 51
210.5064810837
  0
ARC
  5
771
100
AcDbEntity
  8
ASSI
100
AcDbCircle
 62
7
  6
CONTINUOUS
 10
-36.8499813508
 20
-2.6725014665
 40
0.5
100
AcDbArc
 50
180.0
 51
210.5064810837
  0
ARC
  5
772
100
AcDbEntity
  8
RACCORDO
100
AcDbCircle
 62
7
  6
CONTINUOUS
 10
-37.8999813508
 20
-3.4742318639
 40
0.5
100
AcDbArc
 50
180.0006264786
 51
268.0000218541
  0
CIRCLE
  5
773
100
AcDbEntity
  8
0
100
AcDbCircle
 62
7
  6
CONTINUOUS
 10
-35.8499813508
 20
-1.2856534497
 40
0.4
  0
ARC
  5
774
100
AcDbEntity
  8
RACCORDO
100
AcDbCircle
 62
7
  6
CONTINUOUS
 10
-39.0999813508
 20
-1.7233892059
 40
0.3
100
AcDbArc
 50
180.0
 51
269.0
  0
ARC
  5
775
100
AcDbEntity
  8
RACCORDO
100
AcDbCircle
 62
7
  6
CONTINUOUS
 10
-36.5772734014
 20
-2.4819169128
 40
0.2
100
AcDbArc
 50
238.7016622811
 51
269.5
  0
ARC
  5
776
100
AcDbEntity
  8
RACCORDO
100
AcDbCircle
 62
7
  6
CONTINUOUS
 10
-37.1499813508
 20
-1.805268692
 40
0.2
100
AcDbArc
 50
180.0
 51
201.7867892983
  0
ARC
  5
777
100
AcDbEntity
  8
ASSI
100
AcDbCircle
 62
7
  6
CONTINUOUS
 10
-36.5772734014
 20
-2.4819169128
 40
0.2
100
AcDbArc
 50
238.7016622811
 51
269.5
  0
ARC
  5
778
100
AcDbEntity
  8
ASSI
100
AcDbCircle
 62
7
  6
CONTINUOUS
 10
-37.1499813508
 20
-1.805268692
 40
0.2
100
AcDbArc
 50
180.0
 51
201.7867892983
  0
ARC
  5
779
100
AcDbEntity
  8
RACCORDO
100
AcDbCircle
 62
7
  6
CONTINUOUS
 10
-38.5999813508
 20
-2.2321929024
 40
0.2
100
AcDbArc
 50
0.0
 51
89.0000119293
  0
ARC
  5
77A
100
AcDbEntity
  8
RACCORDO
100
AcDbCircle
 62
7
  6
CONTINUOUS
 10
-37.1999813508
 20
-0.7393551464
 40
0.2
100
AcDbArc
 50
138.7022362975
 51
180.0
  0
ARC
  5
77B
100
AcDbEntity
  8
RACCORDO
100
AcDbCircle
 62
7
  6
CONTINUOUS
 10
-35.8499813508
 20
0.7143465503
 40
1.6
100
AcDbArc
 50
321.3178125465
 51
58.2856850806
  0
ARC
  5
77C
100
AcDbEntity
  8
RACCORDO
100
AcDbCircle
 62
7
  6
CONTINUOUS
 10
-35.8499813508
 20
0.7143465503
 40
1.6
100
AcDbArc
 50
121.2983377189
 51
158.2132107017
  0
ARC
  5
77D
100
AcDbEntity
  8
ASSI
100
AcDbCircle
 62
7
  6
CONTINUOUS
 10
-35.8499813508
 20
0.7143465503
 40
1.6
100
AcDbArc
 50
321.3178125465
 51
58.2856850806
  0
ARC
  5
77E
100
AcDbEntity
  8
ASSI
100
AcDbCircle
 62
7
  6
CONTINUOUS
 10
-35.8499813508
 20
0.7143465503
 40
1.6
100
AcDbArc
 50
121.2983377189
 51
158.2132107017
  0
CIRCLE
  5
77F
100
AcDbEntity
  8
0
100
AcDbCircle
 62
7
  6
CONTINUOUS
 10
-35.8499813508
 20
0.7143465503
 40
0.75
  0
ARC
  5
780
100
AcDbEntity
  8
RACCORDO
100
AcDbCircle
 62
7
  6
CONTINUOUS
 10
-36.8499813508
 20
2.101194567
 40
0.5
100
AcDbArc
 50
149.4935189164
 51
180.0
  0
ARC
  5
781
100
AcDbEntity
  8
ASSI
100
AcDbCircle
 62
7
  6
CONTINUOUS
 10
-36.8499813508
 20
2.101194567
 40
0.5
100
AcDbArc
 50
149.4935189164
 51
180.0
  0
ARC
  5
782
100
AcDbEntity
  8
RACCORDO
100
AcDbCircle
 62
7
  6
CONTINUOUS
 10
-37.8999813508
 20
2.9029247896
 40
0.5
100
AcDbArc
 50
91.9999774483
 51
179.9993534814
  0
CIRCLE
  5
783
100
AcDbEntity
  8
0
100
AcDbCircle
 62
7
  6
CONTINUOUS
 10
-35.8499813508
 20
0.7143465503
 40
0.4
  0
ARC
  5
784
100
AcDbEntity
  8
RACCORDO
100
AcDbCircle
 62
7
  6
CONTINUOUS
 10
-39.0999813508
 20
1.1520823064
 40
0.3
100
AcDbArc
 50
91.0
 51
180.0
  0
ARC
  5
785
100
AcDbEntity
  8
RACCORDO
100
AcDbCircle
 62
7
  6
CONTINUOUS
 10
-36.5772734014
 20
1.9106100134
 40
0.2
100
AcDbArc
 50
90.5
 51
121.2983377189
  0
ARC
  5
786
100
AcDbEntity
  8
RACCORDO
100
AcDbCircle
 62
7
  6
CONTINUOUS
 10
-37.1499813508
 20
1.2339617925
 40
0.2
100
AcDbArc
 50
158.2132107018
 51
180.0
  0
ARC
  5
787
100
AcDbEntity
  8
ASSI
100
AcDbCircle
 62
7
  6
CONTINUOUS
 10
-36.5772734014
 20
1.9106100134
 40
0.2
100
AcDbArc
 50
90.5
 51
121.2983377189
  0
ARC
  5
788
100
AcDbEntity
  8
ASSI
100
AcDbCircle
 62
7
  6
CONTINUOUS
 10
-37.1499813508
 20
1.2339617925
 40
0.2
100
AcDbArc
 50
158.2132107018
 51
180.0
  0
ARC
  5
789
100
AcDbEntity
  8
RACCORDO
100
AcDbCircle
 62
7
  6
CONTINUOUS
 10
-38.5999813508
 20
1.6608860029
 40
0.2
100
AcDbArc
 50
271.0
 51
360.0
  0
ARC
  5
78A
100
AcDbEntity
  8
RACCORDO
100
AcDbCircle
 62
7
  6
CONTINUOUS
 10
-37.1999813508
 20
0.628048247
 40
0.2
100
AcDbArc
 50
180.0
 51
221.2977640754
  0
ARC
  5
78B
100
AcDbEntity
  8
RACCORDO
100
AcDbCircle
 62
7
  6
CONTINUOUS
 10
-31.5499813508
 20
-3.3252687542
 40
0.6
100
AcDbArc
 50
271.0
 51
360.0
  0
ARC
  5
78C
100
AcDbEntity
  8
RACCORDO
100
AcDbCircle
 62
7
  6
CONTINUOUS
 10
-31.3999813508
 20
-3.494176313
 40
0.5
100
AcDbArc
 50
270.499994527
 51
359.9993725557
  0
ARC
  5
78D
100
AcDbEntity
  8
ASSI
100
AcDbCircle
 62
7
  6
CONTINUOUS
 10
-31.3999813508
 20
-3.494176313
 40
0.5
100
AcDbArc
 50
270.499994527
 51
359.9993725557
  0
ARC
  5
78E
100
AcDbEntity
  8
RACCORDO
100
AcDbCircle
 62
7
  6
CONTINUOUS
 10
-33.9999813508
 20
-2.4035158514
 40
0.35
100
AcDbArc
 50
273.0
 51
360.0
  0
ARC
  5
78F
100
AcDbEntity
  8
RACCORDO
100
AcDbCircle
 62
7
  6
CONTINUOUS
 10
-35.114023466
 20
-2.4766051666
 40
0.2
100
AcDbArc
 50
270.5
 51
301.7143149194
  0
ARC
  5
790
100
AcDbEntity
  8
ASSI
100
AcDbCircle
 62
7
  6
CONTINUOUS
 10
-35.114023466
 20
-2.4766051666
 40
0.2
100
AcDbArc
 50
270.5
 51
301.7143149194
  0
ARC
  5
791
100
AcDbEntity
  8
DRAFT
100
AcDbCircle
 62
7
  6
CONTINUOUS
 10
-34.6499813508
 20
-0.2856534497
 40
2.2
100
AcDbArc
 50
200.0883146301
 51
207.8619718643
  0
ARC
  5
792
100
AcDbEntity
  8
DRAFT
100
AcDbCircle
 62
7
  6
CONTINUOUS
 10
-34.6499813508
 20
-0.2856534497
 40
2.2
100
AcDbArc
 50
152.1284458219
 51
159.9211106176
  0
ARC
  5
793
100
AcDbEntity
  8
DRAFT
100
AcDbCircle
 62
7
  6
CONTINUOUS
 10
-34.6499813508
 20
-0.2856534497
 40
2.2
100
AcDbArc
 50
124.9057227251
 51
128.1596397213
  0
ARC
  5
794
100
AcDbEntity
  8
RACCORDO
100
AcDbCircle
 62
7
  6
CONTINUOUS
 10
-31.5499813508
 20
2.7539618548
 40
0.6
100
AcDbArc
 50
0.0
 51
89.0
  0
ARC
  5
795
100
AcDbEntity
  8
RACCORDO
100
AcDbCircle
 62
7
  6
CONTINUOUS
 10
-31.3999813508
 20
2.9228748891
 40
0.5
100
AcDbArc
 50
359.9811880339
 51
89.5
  0
ARC
  5
796
100
AcDbEntity
  8
ASSI
100
AcDbCircle
 62
7
  6
CONTINUOUS
 10
-31.3999813508
 20
2.9228748891
 40
0.5
100
AcDbArc
 50
359.9811880339
 51
89.5
  0
ARC
  5
797
100
AcDbEntity
  8
RACCORDO
100
AcDbCircle
 62
7
  6
CONTINUOUS
 10
-33.9999813508
 20
1.8322089519
 40
0.35
100
AcDbArc
 50
0.0
 51
87.0
  0
ARC
  5
798
100
AcDbEntity
  8
RACCORDO
100
AcDbCircle
 62
7
  6
CONTINUOUS
 10
-35.114023466
 20
1.9052982671
 40
0.2
100
AcDbArc
 50
58.2856850806
 51
89.5
  0
ARC
  5
799
100
AcDbEntity
  8
ASSI
100
AcDbCircle
 62
7
  6
CONTINUOUS
 10
-35.114023466
 20
1.9052982671
 40
0.2
100
AcDbArc
 50
58.2856850806
 51
89.5
  0
ELLIPSE
  5
79A
100
AcDbEntity
  8
DRAFT
100
AcDbEllipse
 62
7
  6
CONTINUOUS
 10
-35.8508033993
 20
0.7143465503
 30
0.0
 11
0.8986285802
 21
-0.0
 31
0.0
 40
0.9999995816
 41
5.1725642146
 42
10.5365348994
  0
ELLIPSE
  5
79B
100
AcDbEntity
  8
DRAFT
100
AcDbEllipse
 62
7
  6
CONTINUOUS
 10
-35.8508033993
 20
-1.2856534497
 30
0.0
 11
0.8986285802
 21
-0.0
 31
0.0
 40
0.9999995816
 41
2.029835715
 42
7.3938063997
  0
ELLIPSE
  5
79C
100
AcDbEntity
  8
DRAFT
100
AcDbEllipse
 62
7
  6
CONTINUOUS
 10
-35.8504839906
 20
-1.2856534497
 30
0.0
 11
1.0990125844
 21
-0.0
 31
0.0
 40
0.9999998954
 41
-1.8468022765
 42
0.9941040743
  0
ELLIPSE
  5
79D
100
AcDbEntity
  8
DRAFT
100
AcDbEllipse
 62
7
  6
CONTINUOUS
 10
-35.8504839906
 20
0.7143465503
 30
0.0
 11
1.0990125844
 21
-0.0
 31
0.0
 40
0.9999998954
 41
-0.9941040743
 42
1.8468022765
  0
ELLIPSE
  5
79E
100
AcDbEntity
  8
RACCORDO
100
AcDbEllipse
 62
7
  6
CONTINUOUS
 10
-34.1868803531
 20
1.5971957882
 30
0.0
 11
0.5009007152
 21
-0.0038254608
 31
0.0
 40
0.9981726973
 41
0.0076230607
 42
1.4635937072
  0
ELLIPSE
  5
79F
100
AcDbEntity
  8
DRAFT
100
AcDbEllipse
 62
7
  6
CONTINUOUS
 10
-35.8494785856
 20
0.7143465503
 30
0.0
 11
1.0992869979
 21
0.0
 31
0.0
 40
0.9999998954
 41
1.8476822578
 42
4.1355613032
  0
ELLIPSE
  5
7A0
100
AcDbEntity
  8
DRAFT
100
AcDbEllipse
 62
7
  6
CONTINUOUS
 10
-35.8494785856
 20
-1.2856534497
 30
0.0
 11
1.0992869979
 21
0.0
 31
0.0
 40
0.9999998954
 41
2.147624004
 42
4.4355030494
  0
ELLIPSE
  5
7A1
100
AcDbEntity
  8
RACCORDO
100
AcDbEllipse
 62
7
  6
CONTINUOUS
 10
-34.1868803531
 20
-2.1685026877
 30
0.0
 11
0.5009007152
 21
0.0038254608
 31
0.0
 40
0.9981726973
 41
-1.5697047011
 42
-0.0076230607
  0
ELLIPSE
  5
7A2
100
AcDbEntity
  8
ASSI
100
AcDbEllipse
 62
7
  6
CONTINUOUS
 10
-35.8508033993
 20
-1.2856534497
 30
0.0
 11
0.8986285802
 21
-0.0
 31
0.0
 40
0.9999995816
 41
2.029835715
 42
7.3938063997
  0
ELLIPSE
  5
7A3
100
AcDbEntity
  8
ASSI
100
AcDbEllipse
 62
7
  6
CONTINUOUS
 10
-35.8508033993
 20
0.7143465503
 30
0.0
 11
0.8986285802
 21
-0.0
 31
0.0
 40
0.9999995816
 41
5.1725642146
 42
10.5365348994
  0
ELLIPSE
  5
7A4
100
AcDbEntity
  8
ASSI
100
AcDbEllipse
 62
7
  6
CONTINUOUS
 10
-35.8494785856
 20
0.7143465503
 30
0.0
 11
1.0992869979
 21
0.0
 31
0.0
 40
0.9999998954
 41
1.8476822578
 42
4.1355613032
  0
ELLIPSE
  5
7A5
100
AcDbEntity
  8
ASSI
100
AcDbEllipse
 62
7
  6
CONTINUOUS
 10
-35.8494785856
 20
-1.2856534497
 30
0.0
 11
1.0992869979
 21
0.0
 31
0.0
 40
0.9999998954
 41
2.147624004
 42
4.4355030494
  0
ELLIPSE
  5
7A6
100
AcDbEntity
  8
ASSI
100
AcDbEllipse
 62
7
  6
CONTINUOUS
 10
-35.8504839906
 20
-1.2856534497
 30
0.0
 11
1.0990125844
 21
-0.0
 31
0.0
 40
0.9999998954
 41
-1.8468022765
 42
0.9941040743
  0
ELLIPSE
  5
7A7
100
AcDbEntity
  8
ASSI
100
AcDbEllipse
 62
7
  6
CONTINUOUS
 10
-35.8504839906
 20
0.7143465503
 30
0.0
 11
1.0990125844
 21
-0.0
 31
0.0
 40
0.9999998954
 41
-0.9941040743
 42
1.8468022765
  0
ELLIPSE
  5
7A8
100
AcDbEntity
  8
ASSI
100
AcDbEllipse
 62
7
  6
CONTINUOUS
 10
-34.1868803531
 20
1.5971957882
 30
0.0
 11
0.5009007152
 21
-0.0038254608
 31
0.0
 40
0.9981726973
 41
0.0076230607
 42
1.4635937072
  0
ELLIPSE
  5
7A9
100
AcDbEntity
  8
ASSI
100
AcDbEllipse
 62
7
  6
CONTINUOUS
 10
-34.1868803531
 20
-2.1685026877
 30
0.0
 11
0.5009007152
 21
0.0038254608
 31
0.0
 40
0.9981726973
 41
-1.5697047011
 42
-0.0076230607
  0
ENDSEC
  0
SECTION
  2
OBJECTS
  0
DICTIONARY
  5
C
100
AcDbDictionary
280
0
281
1
  3
ACAD_GROUP
350
D
  3
ACAD_MLINESTYLE
350
17
  3
ACAD_LAYOUT
350
1A
  3
ACAD_PLOTSETTINGS
350
19
  3
ACAD_PLOTSTYLENAME
350
E
  0
DICTIONARY
  5
D
102
{ACAD_REACTORS
330
C
102
}
100
AcDbDictionary
280
0
281
1
  0
ACDBDICTIONARYWDFLT
  5
E
102
{ACAD_REACTORS
330
C
102
}
100
AcDbDictionary
281
1
  3
Normal
350
F
100
AcDbDictionaryWithDefault
340
F
  0
DICTIONARY
  5
17
102
{ACAD_REACTORS
330
C
102
}
100
AcDbDictionary
280
0
281
1
  3
Standard
350
18
  0
DICTIONARY
  5
19
102
{ACAD_REACTORS
330
C
102
}
100
AcDbDictionary
281
1
  0
DICTIONARY
  5
1A
102
{ACAD_REACTORS
330
C
102
}
100
AcDbDictionary
281
1
  3
Model
350
7AA
  3
Layout1
350
7AB
  0
ACDBPLACEHOLDER
  5
F
102
{ACAD_REACTORS
330
E
102
}
  0
MLINESTYLE
  5
18
102
{ACAD_REACTORS
330
17
102
}
100
AcDbMlineStyle
  2
STANDARD
 70
0
  3

 62
256
 51
90.0
 52
90.0
 71
2
 49
0.5
 62
256
  6
BYLAYER
 49
-0.5
 62
256
  6
BYLAYER
  0
LAYOUT
  5
7AA
102
{ACAD_REACTORS
330
1A
102
}
100
AcDbPlotSettings
  1

  2
none_device
  4
ISO_A4_(297.00_x_210.00_MM)
  6

 40
0.0
 41
0.0
 42
0.0
 43
0.0
 44
297.0
 45
210.0
 46
0.0
 47
0.0
 48
0.0
 49
0.0
140
0.0
141
0.0
142
1.0
143
1.0
 70
1024
 72
1
 73
0
 74
0
  7

 75
0
147
1.0
148
0.0
149
0.0
100
AcDbLayout
  1
Model
 70
0
 71
0
 10
0.0
 20
0.0
 11
297.0
 21
210.0
 12
0.0
 22
0.0
 32
0.0
 14
0.0
 24
0.0
 34
0.0
 15
0.0
 25
0.0
 35
0.0
146
0.0
 13
0.0
 23
0.0
 33
0.0
 16
1.0
 26
0.0
 36
0.0
 17
0.0
 27
1.0
 37
0.0
 76
0
330
212
345
0
346
0
  0
LAYOUT
  5
7AB
102
{ACAD_REACTORS
330
1A
102
}
100
AcDbPlotSettings
  1

  2
none_device
  4
ISO_A4_(297.00_x_210.00_MM)
  6

 40
0.0
 41
0.0
 42
0.0
 43
0.0
 44
297.0
 45
210.0
 46
0.0
 47
0.0
 48
0.0
 49
0.0
140
0.0
141
0.0
142
1.0
143
1.0
 70
0
 72
1
 73
0
 74
0
  7

 75
0
147
1.0
148
0.0
149
0.0
100
AcDbLayout
  1
Layout1
 70
0
 71
1
 10
0.0
 20
0.0
 11
297.0
 21
210.0
 12
0.0
 22
0.0
 32
0.0
 14
0.0
 24
0.0
 34
0.0
 15
0.0
 25
0.0
 35
0.0
146
0.0
 13
0.0
 23
0.0
 33
0.0
 16
1.0
 26
0.0
 36
0.0
 17
0.0
 27
1.0
 37
0.0
 76
0
330
213
345
0
346
0
  0
ENDSEC
  0
EOF
