  0
SECTION
  2
HEADER
  9
$ACADVER
  1
AC1021
  9
$DWGCODEPAGE
  3
ANSI_1252
  9
$EXTMAX
 10
297.0
 20
210.0
 30
0.0
  9
$EXTMIN
 10
0.0
 20
0.0
 30
0.0
  9
$LIMMIN
 10
0.0
 20
0.0
  9
$LIMMAX
 10
297.0
 20
210.0
  9
$VIEWCTR
 10
148.5
 20
105.0
  9
$VIEWSIZE
 40
210.0
  9
$CLAYER
  8
0
  9
$LTSCALE
 40
16.335
  9
$CELTYPE
  6
BYLAYER
  9
$DIMSCALE
 40
1.0
  9
$DIMASZ
 40
3.0
  9
$DIMEXO
 40
0.5
  9
$DIMDLI
 40
11.286
  9
$DIMEXE
 40
1.5
  9
$DIMCEN
 40
2.673
  9
$DIMLFAC
 40
1.0
  9
$DIMBLK
  1
_FILLED
  9
$DIMALT
 70
0
  9
$DIMALTF
 40
0.0393700787
  9
$DIMTXT
 40
3.0
  9
$DIMTOL
 70
1
  9
$DIMLIM
 70
0
  9
$DIMTFAC
 40
1.0
  9
$DIMTP
 40
0.01
  9
$DIMTM
 40
0.01
  9
$DIMGAP
 40
0.625
  9
$DIMDSEP
 70
44
  9
$AUNITS
 70
0
  9
$PDMODE
 70
3
  9
$PDSIZE
 40
3.0
  9
$HANDSEED
  5
7B0
  9
$TILEMODE
 70
1
  9
$MEASUREMENT
 70
1
  9
$INSUNITS
 70
4
  0
ENDSEC
  0
SECTION
  2
CLASSES
  0
CLASS
  1
ACDBDICTIONARYWDFLT
  2
AcDbDictionaryWithDefault
  3
AutoCAD 2000
 90
0
 91
1
280
0
281
0
  0
CLASS
  1
ACDBPLACEHOLDER
  2
AcDbPlaceHolder
  3
AutoCAD 2000
 90
0
 91
1
280
0
281
0
  0
CLASS
  1
LAYOUT
  2
AcDbLayout
  3
AutoCAD 2000
 90
0
 91
0
280
0
281
0
  0
ENDSEC
  0
SECTION
  2
TABLES
  0
TABLE
  2
VPORT
  5
8
100
AcDbSymbolTable
 70
2
  0
VPORT
  5
1F4
100
AcDbSymbolTableRecord
100
AcDbViewportTableRecord
  2
*ACTIVE
 70
0
 10
0.0
 20
0.0
 11
1.0
 21
1.0
 12
148.5
 22
105.0
 13
0.0
 23
0.0
 14
1.0
 24
1.0
 15
0.0
 25
0.0
 16
0.0
 26
0.0
 36
1.0
 17
0.0
 27
0.0
 37
0.0
 40
210.0
 41
1.4142857143
 42
50.0
 43
0.0
 44
0.0
 50
0.0
 51
0.0
 71
0
 72
100
 73
1
 74
1
 75
0
 76
0
 77
0
 78
0
  0
ENDTAB
  0
TABLE
  2
LTYPE
  5
5
100
AcDbSymbolTable
 70
6
  0
LTYPE
  5
14
100
AcDbSymbolTableRecord
100
AcDbLinetypeTableRecord
  2
BYBLOCK
 70
0
  3

 72
65
 73
0
 40
0.0
  0
LTYPE
  5
15
100
AcDbSymbolTableRecord
100
AcDbLinetypeTableRecord
  2
BYLAYER
 70
0
  3

 72
65
 73
0
 40
0.0
  0
LTYPE
  5
16
100
AcDbSymbolTableRecord
100
AcDbLinetypeTableRecord
  2
CONTINUOUS
 70
64
  3
Solid line
 72
65
 73
0
 40
0.0
  0
LTYPE
  5
1F5
100
AcDbSymbolTableRecord
100
AcDbLinetypeTableRecord
  2
CENTER
 70
64
  3
____ _ ____ _ ____ _ ____ _ ____ _ ____ _ ____
 72
65
 73
4
 40
0.6
 49
0.375
 74
0
 49
-0.075
 74
0
 49
0.075
 74
0
 49
-0.075
 74
0
  0
LTYPE
  5
1F6
100
AcDbSymbolTableRecord
100
AcDbLinetypeTableRecord
  2
HIDDEN
 70
64
  3
- - - - - - - - - - - - - - - - - - - -
 72
65
 73
2
 40
0.2
 49
0.1
 74
0
 49
-0.1
 74
0
  0
LTYPE
  5
1F7
100
AcDbSymbolTableRecord
100
AcDbLinetypeTableRecord
  2
PHANTOM
 70
64
  3
_____ _ _ _____ _ _ _____ _ _ _____
 72
65
 73
6
 40
0.8
 49
0.45
 74
0
 49
-0.05
 74
0
 49
0.1
 74
0
 49
-0.05
 74
0
 49
0.1
 74
0
 49
-0.05
 74
0
  0
LTYPE
  5
1F8
100
AcDbSymbolTableRecord
100
AcDbLinetypeTableRecord
  2
DOT
 70
64
  3
. . . . . . . . . . . . . . . . . . . .
 72
65
 73
2
 40
0.2
 49
0.1
 74
0
 49
-0.1
 74
0
  0
LTYPE
  5
1F9
100
AcDbSymbolTableRecord
100
AcDbLinetypeTableRecord
  2
DASHED
 70
64
  3
- - - - - - - - - - - - - - - - - - - -
 72
65
 73
2
 40
0.2
 49
0.1
 74
0
 49
-0.1
 74
0
  0
ENDTAB
  0
TABLE
  2
LAYER
  5
2
100
AcDbSymbolTable
 70
36
  0
LAYER
  5
10
100
AcDbSymbolTableRecord
100
AcDbLayerTableRecord
  2
0
 70
0
 62
7
  6
CONTINUOUS
370
-3
390
F
  0
LAYER
  5
1FA
100
AcDbSymbolTableRecord
100
AcDbLayerTableRecord
  2
DEFAULT_1
 70
0
 62
7
  6
CENTER
370
-3
390
F
  0
LAYER
  5
1FB
100
AcDbSymbolTableRecord
100
AcDbLayerTableRecord
  2
DEFAULT_2
 70
0
 62
7
  6
HIDDEN
370
-3
390
F
  0
LAYER
  5
1FC
100
AcDbSymbolTableRecord
100
AcDbLayerTableRecord
  2
DEFAULT_3
 70
0
 62
7
  6
PHANTOM
370
-3
390
F
  0
LAYER
  5
1FD
100
AcDbSymbolTableRecord
100
AcDbLayerTableRecord
  2
ASSI
 70
0
 62
7
  6
CONTINUOUS
370
-3
390
F
  0
LAYER
  5
1FE
100
AcDbSymbolTableRecord
100
AcDbLayerTableRecord
  2
COLORI
 70
0
 62
7
  6
CONTINUOUS
370
-3
390
F
  0
LAYER
  5
1FF
100
AcDbSymbolTableRecord
100
AcDbLayerTableRecord
  2
COORDINATE
 70
0
 62
7
  6
CONTINUOUS
370
-3
390
F
  0
LAYER
  5
200
100
AcDbSymbolTableRecord
100
AcDbLayerTableRecord
  2
COPY_PUBLISH
 70
0
 62
7
  6
CONTINUOUS
370
-3
390
F
  0
LAYER
  5
201
100
AcDbSymbolTableRecord
100
AcDbLayerTableRecord
  2
COSMETICI
 70
0
 62
7
  6
CONTINUOUS
370
-3
390
F
  0
LAYER
  5
202
100
AcDbSymbolTableRecord
100
AcDbLayerTableRecord
  2
CURVE
 70
0
 62
7
  6
CONTINUOUS
370
-3
390
F
  0
LAYER
  5
203
100
AcDbSymbolTableRecord
100
AcDbLayerTableRecord
  2
DRAFT
 70
0
 62
7
  6
CONTINUOUS
370
-3
390
F
  0
LAYER
  5
204
100
AcDbSymbolTableRecord
100
AcDbLayerTableRecord
  2
IMPORT_IGES
 70
0
 62
7
  6
CONTINUOUS
370
-3
390
F
  0
LAYER
  5
205
100
AcDbSymbolTableRecord
100
AcDbLayerTableRecord
  2
NOTE
 70
0
 62
7
  6
CONTINUOUS
370
-3
390
F
  0
LAYER
  5
206
100
AcDbSymbolTableRecord
100
AcDbLayerTableRecord
  2
PIANI
 70
0
 62
7
  6
CONTINUOUS
370
-3
390
F
  0
LAYER
  5
207
100
AcDbSymbolTableRecord
100
AcDbLayerTableRecord
  2
PUNTI
 70
0
 62
7
  6
CONTINUOUS
370
-3
390
F
  0
LAYER
  5
208
100
AcDbSymbolTableRecord
100
AcDbLayerTableRecord
  2
RACCORDO
 70
0
 62
7
  6
CONTINUOUS
370
-3
390
F
  0
LAYER
  5
209
100
AcDbSymbolTableRecord
100
AcDbLayerTableRecord
  2
SCRITTE
 70
0
 62
7
  6
CONTINUOUS
370
-3
390
F
  0
LAYER
  5
20A
100
AcDbSymbolTableRecord
100
AcDbLayerTableRecord
  2
SIMBOLI
 70
0
 62
7
  6
CONTINUOUS
370
-3
390
F
  0
LAYER
  5
20B
100
AcDbSymbolTableRecord
100
AcDbLayerTableRecord
  2
SMUSSO
 70
0
 62
7
  6
CONTINUOUS
370
-3
390
F
  0
LAYER
  5
20C
100
AcDbSymbolTableRecord
100
AcDbLayerTableRecord
  2
SNAPLINE
 70
0
 62
7
  6
CONTINUOUS
370
-3
390
F
  0
LAYER
  5
20D
100
AcDbSymbolTableRecord
100
AcDbLayerTableRecord
  2
SUPERFICI
 70
0
 62
7
  6
CONTINUOUS
370
-3
390
F
  0
LAYER
  5
20E
100
AcDbSymbolTableRecord
100
AcDbLayerTableRecord
  2
TRASH
 70
0
 62
7
  6
CONTINUOUS
370
-3
390
F
  0
LAYER
  5
20F
100
AcDbSymbolTableRecord
100
AcDbLayerTableRecord
  2
XSEC_DATUMS
 70
0
 62
7
  6
CONTINUOUS
370
-3
390
F
  0
ENDTAB
  0
TABLE
  2
STYLE
  5
3
100
AcDbSymbolTable
 70
1
  0
STYLE
  5
11
100
AcDbSymbolTableRecord
100
AcDbTextStyleTableRecord
  2
STANDARD
 70
0
 40
0.0
 41
0.8
 50
0.0
 71
0
 42
0.2
  3
txt
  4

  0
STYLE
  5
210
100
AcDbSymbolTableRecord
100
AcDbTextStyleTableRecord
  2
TEXTSTYLE_1
 70
0
 40
0.0
 41
0.8
 50
0.0
 71
0
 42
0.2
  3
gdt
  4

  0
ENDTAB
  0
TABLE
  2
VIEW
  5
6
100
AcDbSymbolTable
 70
0
  0
ENDTAB
  0
TABLE
  2
UCS
  5
7
100
AcDbSymbolTable
 70
0
  0
ENDTAB
  0
TABLE
  2
APPID
  5
9
100
AcDbSymbolTable
 70
1
  0
APPID
  5
211
100
AcDbSymbolTableRecord
100
AcDbRegAppTableRecord
  2
ACAD
 70
0
  0
ENDTAB
  0
TABLE
  2
BLOCK_RECORD
  5
1
100
AcDbSymbolTable
 70
0
  0
BLOCK_RECORD
  5
212
100
AcDbSymbolTableRecord
100
AcDbBlockTableRecord
  2
*Model_Space
  0
BLOCK_RECORD
  5
213
100
AcDbSymbolTableRecord
100
AcDbBlockTableRecord
  2
*Paper_Space
  0
BLOCK_RECORD
  5
214
100
AcDbSymbolTableRecord
100
AcDbBlockTableRecord
  2
_FILLED
  0
BLOCK_RECORD
  5
215
100
AcDbSymbolTableRecord
100
AcDbBlockTableRecord
  2
*D0
  0
BLOCK_RECORD
  5
216
100
AcDbSymbolTableRecord
100
AcDbBlockTableRecord
  2
*D1
  0
BLOCK_RECORD
  5
217
100
AcDbSymbolTableRecord
100
AcDbBlockTableRecord
  2
*D2
  0
BLOCK_RECORD
  5
218
100
AcDbSymbolTableRecord
100
AcDbBlockTableRecord
  2
*D3
  0
BLOCK_RECORD
  5
219
100
AcDbSymbolTableRecord
100
AcDbBlockTableRecord
  2
*D4
  0
BLOCK_RECORD
  5
21A
100
AcDbSymbolTableRecord
100
AcDbBlockTableRecord
  2
*D5
  0
BLOCK_RECORD
  5
21B
100
AcDbSymbolTableRecord
100
AcDbBlockTableRecord
  2
*D6
  0
ENDTAB
  0
TABLE
  2
DIMSTYLE
  5
A
100
AcDbSymbolTable
 70
1
100
AcDbDimStyleTable
 71
0
  0
DIMSTYLE
105
21C
100
AcDbSymbolTableRecord
100
AcDbDimStyleTableRecord
  2
STANDARD
 70
0
  3

  4

 40
1.0
 41
3.0
 42
0.5
 43
0.38
 44
1.5
 45
0.0
 46
0.0
 47
0.01
 48
0.01
140
3.0
141
0.09
142
0.0
143
25.4
144
1.0
145
0.0
146
1.0
147
0.625
 71
1.0
 72
0.0
 73
0
 74
0
 75
0
 76
0
 77
1
 78
8
170
0
171
2
172
0
173
0
174
0
175
0
176
0
177
0
178
0
270
2
271
2
272
2
273
2
274
2
275
0
280
0
281
0
282
0
283
1
284
8
285
0
286
0
287
3
288
0
340
11
278
44
341
214
342
214
343
214
344
214
  0
DIMSTYLE
105
21D
100
AcDbSymbolTableRecord
100
AcDbDimStyleTableRecord
  2
DIMSTYLE_1
 70
0
  3

  4

 40
1.0
 41
3.0
 42
0.5
 43
0.38
 44
1.5
 45
0.0
 46
0.0
 47
0.0
 48
0.0
140
3.0
141
0.09
142
0.0
143
25.4
144
1.0
145
0.0
146
1.0
147
0.75
 71
0.0
 72
0.0
 73
0
 74
0
 75
0
 76
0
 77
1
 78
8
170
0
171
2
172
0
173
0
174
0
175
0
176
0
177
0
178
0
270
2
271
2
272
2
273
2
274
2
275
0
280
0
281
0
282
0
283
1
284
8
285
0
286
0
287
3
288
0
340
11
278
44
341
214
342
214
343
214
344
214
  0
DIMSTYLE
105
21E
100
AcDbSymbolTableRecord
100
AcDbDimStyleTableRecord
  2
DIMSTYLE_2
 70
0
  3

  4

 40
1.0
 41
3.0
 42
0.5
 43
0.38
 44
1.5
 45
0.0
 46
0.0
 47
0.0
 48
0.0
140
3.0
141
0.09
142
0.0
143
25.4
144
1.0
145
0.0
146
1.0
147
0.75
 71
0.0
 72
0.0
 73
0
 74
0
 75
0
 76
0
 77
1
 78
8
170
0
171
2
172
0
173
0
174
0
175
0
176
0
177
0
178
0
270
2
271
1
272
1
273
2
274
2
275
0
280
0
281
0
282
0
283
1
284
8
285
0
286
0
287
3
288
0
340
11
278
44
341
214
342
214
343
214
344
214
  0
ENDTAB
  0
ENDSEC
  0
SECTION
  2
BLOCKS
  0
BLOCK
  5
20
100
AcDbEntity
  8
0
100
AcDbBlockBegin
  2
*Model_Space
 70
0
 10
0.0
 20
0.0
 30
0.0
  3
*Model_Space
  1

  0
ENDBLK
  5
21
100
AcDbEntity
  8
0
100
AcDbBlockEnd
  0
BLOCK
  5
1C
100
AcDbEntity
  8
0
100
AcDbBlockBegin
  2
*Paper_Space
 70
0
 10
0.0
 20
0.0
 30
0.0
  3
*Paper_Space
  1

  0
ENDBLK
  5
1D
100
AcDbEntity
  8
0
100
AcDbBlockEnd
  0
BLOCK
  5
21F
100
AcDbEntity
  8
0
100
AcDbBlockBegin
  2
_FILLED
 70
64
 10
0.0
 20
0.0
  3
_FILLED
  1

  0
SOLID
  5
220
100
AcDbEntity
  8
0
  6
BYBLOCK
 62
0
100
AcDbTrace
 10
0.0
 20
0.0
 11
-1.0
 21
0.3166666667
 12
-1.0
 22
-0.3166666667
 13
-1.0
 23
-0.3166666667
  0
ENDBLK
  5
221
100
AcDbEntity
  8
0
  6
BYBLOCK
 62
0
100
AcDbBlockEnd
  0
BLOCK
  5
222
100
AcDbEntity
  8
0
100
AcDbBlockBegin
 62
7
  6
CONTINUOUS
  2
*D0
 70
65
 10
0.0
 20
0.0
  3
*D0
  1

  0
MTEXT
  5
223
100
AcDbEntity
  8
0
100
AcDbMText
 62
7
  6
CONTINUOUS
  7
STANDARD
 71
2
 72
1
 10
-28.4664184752
 20
18.5486581685
 30
0.0
 11
1.0
 21
0.0
 31
0.0
 44
0.9
  1
7,5
 40
3.0
 41
9.3214285714
  0
LINE
  5
224
100
AcDbEntity
  8
0
100
AcDbLine
 62
7
  6
CONTINUOUS
 10
-24.7164184752
 20
6.1334984536
 11
-24.7164184752
 21
16.2986581685
  0
LINE
  5
225
100
AcDbEntity
  8
0
100
AcDbLine
 62
7
  6
CONTINUOUS
 10
-32.2164184752
 20
5.6239070664
 11
-32.2164184752
 21
16.2986581685
  0
LINE
  5
226
100
AcDbEntity
  8
0
100
AcDbLine
 62
7
  6
CONTINUOUS
 10
-24.7164184752
 20
14.7986581685
 11
-20.7164184752
 21
14.7986581685
  0
LINE
  5
227
100
AcDbEntity
  8
0
100
AcDbLine
 62
7
  6
CONTINUOUS
 10
-20.7164184752
 20
14.7986581685
 11
-28.4664184752
 21
14.7986581685
  0
LINE
  5
228
100
AcDbEntity
  8
0
100
AcDbLine
 62
7
  6
CONTINUOUS
 10
-32.2164184752
 20
14.7986581685
 11
-36.2164184752
 21
14.7986581685
  0
LINE
  5
229
100
AcDbEntity
  8
0
100
AcDbLine
 62
7
  6
CONTINUOUS
 10
-36.2164184752
 20
14.7986581685
 11
-28.4664184752
 21
14.7986581685
  0
INSERT
  5
22A
100
AcDbEntity
  8
0
100
AcDbBlockReference
 62
7
  6
CONTINUOUS
  2
_FILLED
 10
-24.7164184752
 20
14.7986581685
 41
3.0
 42
3.0
 43
3.0
 50
180.0
  0
INSERT
  5
22B
100
AcDbEntity
  8
0
100
AcDbBlockReference
 62
7
  6
CONTINUOUS
  2
_FILLED
 10
-32.2164184752
 20
14.7986581685
 41
3.0
 42
3.0
 43
3.0
 50
0.0
  0
ENDBLK
  5
22C
100
AcDbEntity
  8
0
  6
BYBLOCK
 62
0
100
AcDbBlockEnd
  0
BLOCK
  5
22D
100
AcDbEntity
  8
0
100
AcDbBlockBegin
 62
7
  6
CONTINUOUS
  2
*D1
 70
65
 10
0.0
 20
0.0
  3
*D1
  1

  0
MTEXT
  5
22E
100
AcDbEntity
  8
0
100
AcDbMText
 62
7
  6
CONTINUOUS
  7
STANDARD
 71
2
 72
1
 10
-20.4664184752
 20
2.4249701148
 30
0.0
 11
0.0
 21
1.0
 31
0.0
 44
0.9
  1
7,5
 40
3.0
 41
9.3214285714
  0
LINE
  5
22F
100
AcDbEntity
  8
0
100
AcDbLine
 62
7
  6
CONTINUOUS
 10
-29.4664184752
 20
6.1749701148
 11
-15.2164184752
 21
6.1749701148
  0
LINE
  5
230
100
AcDbEntity
  8
0
100
AcDbLine
 62
7
  6
CONTINUOUS
 10
-29.4664184752
 20
-1.3250298852
 11
-15.2164184752
 21
-1.3250298852
  0
LINE
  5
231
100
AcDbEntity
  8
0
100
AcDbLine
 62
7
  6
CONTINUOUS
 10
-16.7164184752
 20
6.1749701148
 11
-16.7164184752
 21
10.1749701148
  0
LINE
  5
232
100
AcDbEntity
  8
0
100
AcDbLine
 62
7
  6
CONTINUOUS
 10
-16.7164184752
 20
10.1749701148
 11
-16.7164184752
 21
2.4249701148
  0
LINE
  5
233
100
AcDbEntity
  8
0
100
AcDbLine
 62
7
  6
CONTINUOUS
 10
-16.7164184752
 20
-1.3250298852
 11
-16.7164184752
 21
-5.3250298852
  0
LINE
  5
234
100
AcDbEntity
  8
0
100
AcDbLine
 62
7
  6
CONTINUOUS
 10
-16.7164184752
 20
-5.3250298852
 11
-16.7164184752
 21
2.4249701148
  0
INSERT
  5
235
100
AcDbEntity
  8
0
100
AcDbBlockReference
 62
7
  6
CONTINUOUS
  2
_FILLED
 10
-16.7164184752
 20
6.1749701148
 41
3.0
 42
3.0
 43
3.0
 50
270.0
  0
INSERT
  5
236
100
AcDbEntity
  8
0
100
AcDbBlockReference
 62
7
  6
CONTINUOUS
  2
_FILLED
 10
-16.7164184752
 20
-1.3250298852
 41
3.0
 42
3.0
 43
3.0
 50
90.0
  0
ENDBLK
  5
237
100
AcDbEntity
  8
0
  6
BYBLOCK
 62
0
100
AcDbBlockEnd
  0
BLOCK
  5
238
100
AcDbEntity
  8
0
100
AcDbBlockBegin
 62
7
  6
CONTINUOUS
  2
*D2
 70
65
 10
0.0
 20
0.0
  3
*D2
  1

  0
MTEXT
  5
239
100
AcDbEntity
  8
0
100
AcDbMText
 62
7
  6
CONTINUOUS
  7
STANDARD
 71
2
 72
1
 10
20.9299907859
 20
-14.2739834688
 30
0.0
 11
1.0
 21
0.0
 31
0.0
 44
0.9
  1
132,6
 40
3.0
 41
15.4285714286
  0
LINE
  5
23A
100
AcDbEntity
  8
0
100
AcDbLine
 62
7
  6
CONTINUOUS
 10
50.1891806421
 20
0.2443544862
 11
50.1891824115
 21
-19.5239808498
  0
LINE
  5
23B
100
AcDbEntity
  8
0
100
AcDbLine
 62
7
  6
CONTINUOUS
 10
-8.3292024016
 20
0.9249767421
 11
-8.3292005712
 21
-19.5239860877
  0
LINE
  5
23C
100
AcDbEntity
  8
0
100
AcDbLine
 62
7
  6
CONTINUOUS
 10
50.1891822772
 20
-18.0239808498
 11
20.9299907859
 21
-18.0239834688
  0
LINE
  5
23D
100
AcDbEntity
  8
0
100
AcDbLine
 62
7
  6
CONTINUOUS
 10
-8.3292007055
 20
-18.0239860877
 11
20.9299907859
 21
-18.0239834688
  0
INSERT
  5
23E
100
AcDbEntity
  8
0
100
AcDbBlockReference
 62
7
  6
CONTINUOUS
  2
_FILLED
 10
50.1891822772
 20
-18.0239808498
 41
3.0
 42
3.0
 43
3.0
 50
0.0000051285
  0
INSERT
  5
23F
100
AcDbEntity
  8
0
100
AcDbBlockReference
 62
7
  6
CONTINUOUS
  2
_FILLED
 10
-8.3292007055
 20
-18.0239860877
 41
3.0
 42
3.0
 43
3.0
 50
180.0000051285
  0
ENDBLK
  5
240
100
AcDbEntity
  8
0
  6
BYBLOCK
 62
0
100
AcDbBlockEnd
  0
BLOCK
  5
241
100
AcDbEntity
  8
0
100
AcDbBlockBegin
 62
7
  6
CONTINUOUS
  2
*D3
 70
65
 10
0.0
 20
0.0
  3
*D3
  1

  0
MTEXT
  5
242
100
AcDbEntity
  8
0
100
AcDbMText
 62
7
  6
CONTINUOUS
  7
STANDARD
 71
2
 72
1
 10
-3.3292024463
 20
-5.6274110394
 30
0.0
 11
1.0
 21
0.0
 31
0.0
 44
0.9
  1
10
 40
3.0
 41
6.1071428571
  0
LINE
  5
243
100
AcDbEntity
  8
0
100
AcDbLine
 62
7
  6
CONTINUOUS
 10
1.6707975537
 20
0.1749701148
 11
1.6707975537
 21
-10.8774110394
  0
LINE
  5
244
100
AcDbEntity
  8
0
100
AcDbLine
 62
7
  6
CONTINUOUS
 10
-8.3292024463
 20
0.9249701148
 11
-8.3292024463
 21
-10.8774110394
  0
LINE
  5
245
100
AcDbEntity
  8
0
100
AcDbLine
 62
7
  6
CONTINUOUS
 10
1.6707975537
 20
-9.3774110394
 11
5.6707975537
 21
-9.3774110394
  0
LINE
  5
246
100
AcDbEntity
  8
0
100
AcDbLine
 62
7
  6
CONTINUOUS
 10
5.6707975537
 20
-9.3774110394
 11
-3.3292024463
 21
-9.3774110394
  0
LINE
  5
247
100
AcDbEntity
  8
0
100
AcDbLine
 62
7
  6
CONTINUOUS
 10
-8.3292024463
 20
-9.3774110394
 11
-12.3292024463
 21
-9.3774110394
  0
LINE
  5
248
100
AcDbEntity
  8
0
100
AcDbLine
 62
7
  6
CONTINUOUS
 10
-12.3292024463
 20
-9.3774110394
 11
-3.3292024463
 21
-9.3774110394
  0
INSERT
  5
249
100
AcDbEntity
  8
0
100
AcDbBlockReference
 62
7
  6
CONTINUOUS
  2
_FILLED
 10
1.6707975537
 20
-9.3774110394
 41
3.0
 42
3.0
 43
3.0
 50
180.0
  0
INSERT
  5
24A
100
AcDbEntity
  8
0
100
AcDbBlockReference
 62
7
  6
CONTINUOUS
  2
_FILLED
 10
-8.3292024463
 20
-9.3774110394
 41
3.0
 42
3.0
 43
3.0
  0
ENDBLK
  5
24B
100
AcDbEntity
  8
0
  6
BYBLOCK
 62
0
100
AcDbBlockEnd
  0
BLOCK
  5
24C
100
AcDbEntity
  8
0
100
AcDbBlockBegin
 62
7
  6
CONTINUOUS
  2
*D4
 70
65
 10
0.0
 20
0.0
  3
*D4
  1

  0
MTEXT
  5
24D
100
AcDbEntity
  8
0
100
AcDbMText
 62
7
  6
CONTINUOUS
  7
STANDARD
 71
2
 72
1
 10
32.8961032164
 20
28.5486581685
 30
0.0
 11
1.0
 21
0.0
 31
0.0
 44
0.9
  1
34,6
 40
3.0
 41
12.8571428571
  0
LINE
  5
24E
100
AcDbEntity
  8
0
100
AcDbLine
 62
7
  6
CONTINUOUS
 10
15.6030258356
 20
5.0428325165
 11
15.6030258356
 21
26.2986581685
  0
LINE
  5
24F
100
AcDbEntity
  8
0
100
AcDbLine
 62
7
  6
CONTINUOUS
 10
50.1891805973
 20
4.6055740035
 11
50.1891805973
 21
26.2986581685
  0
LINE
  5
250
100
AcDbEntity
  8
0
100
AcDbLine
 62
7
  6
CONTINUOUS
 10
15.6030258356
 20
24.7986581685
 11
32.8961032164
 21
24.7986581685
  0
LINE
  5
251
100
AcDbEntity
  8
0
100
AcDbLine
 62
7
  6
CONTINUOUS
 10
50.1891805973
 20
24.7986581685
 11
32.8961032164
 21
24.7986581685
  0
INSERT
  5
252
100
AcDbEntity
  8
0
100
AcDbBlockReference
 62
7
  6
CONTINUOUS
  2
_FILLED
 10
15.6030258356
 20
24.7986581685
 41
3.0
 42
3.0
 43
3.0
 50
180.0
  0
INSERT
  5
253
100
AcDbEntity
  8
0
100
AcDbBlockReference
 62
7
  6
CONTINUOUS
  2
_FILLED
 10
50.1891805973
 20
24.7986581685
 41
3.0
 42
3.0
 43
3.0
  0
ENDBLK
  5
254
100
AcDbEntity
  8
0
  6
BYBLOCK
 62
0
100
AcDbBlockEnd
  0
BLOCK
  5
255
100
AcDbEntity
  8
0
100
AcDbBlockBegin
 62
7
  6
CONTINUOUS
  2
*D5
 70
65
 10
0.0
 20
0.0
  3
*D5
  1

  0
MTEXT
  5
256
100
AcDbEntity
  8
0
100
AcDbMText
 62
7
  6
CONTINUOUS
  7
STANDARD
 71
2
 72
1
 10
25.8487532688
 20
18.5486581685
 30
0.0
 11
1.0
 21
0.0
 31
0.0
 44
0.9
  1
20,5
 40
3.0
 41
12.8571428571
  0
LINE
  5
257
100
AcDbEntity
  8
0
100
AcDbLine
 62
7
  6
CONTINUOUS
 10
15.6030258356
 20
5.0428325165
 11
15.6030258356
 21
16.2986581685
  0
LINE
  5
258
100
AcDbEntity
  8
0
100
AcDbLine
 62
7
  6
CONTINUOUS
 10
36.0944807021
 20
4.1709636942
 11
36.0944807021
 21
16.2986581685
  0
LINE
  5
259
100
AcDbEntity
  8
0
100
AcDbLine
 62
7
  6
CONTINUOUS
 10
15.6030258356
 20
14.7986581685
 11
25.8487532688
 21
14.7986581685
  0
LINE
  5
25A
100
AcDbEntity
  8
0
100
AcDbLine
 62
7
  6
CONTINUOUS
 10
36.0944807021
 20
14.7986581685
 11
25.8487532688
 21
14.7986581685
  0
INSERT
  5
25B
100
AcDbEntity
  8
0
100
AcDbBlockReference
 62
7
  6
CONTINUOUS
  2
_FILLED
 10
15.6030258356
 20
14.7986581685
 41
3.0
 42
3.0
 43
3.0
 50
180.0
  0
INSERT
  5
25C
100
AcDbEntity
  8
0
100
AcDbBlockReference
 62
7
  6
CONTINUOUS
  2
_FILLED
 10
36.0944807021
 20
14.7986581685
 41
3.0
 42
3.0
 43
3.0
  0
ENDBLK
  5
25D
100
AcDbEntity
  8
0
  6
BYBLOCK
 62
0
100
AcDbBlockEnd
  0
BLOCK
  5
25E
100
AcDbEntity
  8
0
100
AcDbBlockBegin
 62
7
  6
CONTINUOUS
  2
*D6
 70
65
 10
0.0
 20
0.0
  3
*D6
  1

  0
MTEXT
  5
25F
100
AcDbEntity
  8
0
100
AcDbMText
 62
7
  6
CONTINUOUS
  7
STANDARD
 71
1
 72
1
 10
54.4828688634
 20
10.2181040677
 30
0.0
 11
0.0
 21
1.0
 31
0.0
 44
0.9
  1
5,8
 40
3.0
 41
9.3214285714
  0
LINE
  5
260
100
AcDbEntity
  8
0
100
AcDbLine
 62
7
  6
CONTINUOUS
 10
50.6294034037
 20
-0.4750298852
 11
59.7328688634
 21
-0.4750298852
  0
LINE
  5
261
100
AcDbEntity
  8
0
100
AcDbLine
 62
7
  6
CONTINUOUS
 10
50.6184814639
 20
5.3033997198
 11
59.7328688634
 21
5.3033997198
  0
LINE
  5
262
100
AcDbEntity
  8
0
100
AcDbLine
 62
7
  6
CONTINUOUS
 10
58.2328688634
 20
-0.4750298852
 11
58.2328688634
 21
-4.4750298852
  0
LINE
  5
263
100
AcDbEntity
  8
0
100
AcDbLine
 62
7
  6
CONTINUOUS
 10
58.2328688634
 20
-4.4750298852
 11
58.2328688634
 21
2.4141849173
  0
LINE
  5
264
100
AcDbEntity
  8
0
100
AcDbLine
 62
7
  6
CONTINUOUS
 10
58.2328688634
 20
5.3033997198
 11
58.2328688634
 21
16.432389782
  0
LINE
  5
265
100
AcDbEntity
  8
0
100
AcDbLine
 62
7
  6
CONTINUOUS
 10
58.2328688634
 20
16.432389782
 11
58.2328688634
 21
2.4141849173
  0
INSERT
  5
266
100
AcDbEntity
  8
0
100
AcDbBlockReference
 62
7
  6
CONTINUOUS
  2
_FILLED
 10
58.2328688634
 20
-0.4750298852
 41
3.0
 42
3.0
 43
3.0
 50
90.0
  0
INSERT
  5
267
100
AcDbEntity
  8
0
100
AcDbBlockReference
 62
7
  6
CONTINUOUS
  2
_FILLED
 10
58.2328688634
 20
5.3033997198
 41
3.0
 42
3.0
 43
3.0
 50
270.0
  0
ENDBLK
  5
268
100
AcDbEntity
  8
0
  6
BYBLOCK
 62
0
100
AcDbBlockEnd
  0
ENDSEC
  0
SECTION
  2
ENTITIES
  0
DIMENSION
  5
269
100
AcDbEntity
  8
0
100
AcDbDimension
 62
7
  6
CONTINUOUS
  2
*D0
 10
-32.2164184752
 20
14.7986581685
 11
-28.8949897842
 21
14.7986581685
 70
160
 71
2
 42
7.5
  3
DIMSTYLE_1
100
AcDbAlignedDimension
 13
-24.7164184752
 23
5.6334984536
 14
-32.2164184752
 24
5.1239070664
 50
180.0
100
AcDbRotatedDimension
  0
DIMENSION
  5
26A
100
AcDbEntity
  8
0
100
AcDbDimension
 62
7
  6
CONTINUOUS
  2
*D1
 10
-16.7164184752
 20
-1.3250298852
 11
-16.7164184752
 21
1.9963984982
 70
160
 71
2
 42
7.5
  3
DIMSTYLE_1
100
AcDbAlignedDimension
 13
-29.9664184752
 23
6.1749701148
 14
-29.9664184752
 24
-1.3250298852
 50
270.0
100
AcDbRotatedDimension
  0
DIMENSION
  5
26B
100
AcDbEntity
  8
0
100
AcDbDimension
 62
7
  6
CONTINUOUS
  2
*D2
 10
-8.3292007055
 20
-18.0239860877
 11
20.5014198219
 21
-18.0239835071
 70
160
 71
2
 42
132.5597923632
  3
DIMSTYLE_2
100
AcDbAlignedDimension
 13
50.1891805973
 23
0.7443544862
 14
-8.3292024463
 24
1.4249767421
 50
180.0000051285
100
AcDbRotatedDimension
  0
DIMENSION
  5
26C
100
AcDbEntity
  8
0
100
AcDbDimension
 62
7
  6
CONTINUOUS
  2
*D3
 10
-8.3292024463
 20
-9.3774110394
 11
-3.7577737806
 21
-9.3774110394
 70
160
 71
2
 42
10.0
  3
DIMSTYLE_1
100
AcDbAlignedDimension
 13
1.6707975537
 23
0.6749701148
 14
-8.3292024463
 24
1.4249701148
 50
180.0
100
AcDbRotatedDimension
  0
DIMENSION
  5
26D
100
AcDbEntity
  8
0
100
AcDbDimension
 62
7
  6
CONTINUOUS
  2
*D4
 10
50.1891805973
 20
24.7986581685
 11
32.467532341
 21
24.7986581685
 70
160
 71
2
 42
34.5861547618
  3
DIMSTYLE_2
100
AcDbAlignedDimension
 13
15.6030258356
 23
4.5428325165
 14
50.1891805973
 24
4.1055740035
100
AcDbRotatedDimension
  0
DIMENSION
  5
26E
100
AcDbEntity
  8
0
100
AcDbDimension
 62
7
  6
CONTINUOUS
  2
*D5
 10
36.0944807021
 20
14.7986581685
 11
25.4201813278
 21
14.7986581685
 70
160
 71
2
 42
20.4914548665
  3
DIMSTYLE_2
100
AcDbAlignedDimension
 13
15.6030258356
 23
4.5428325165
 14
36.0944807021
 24
3.6709636942
100
AcDbRotatedDimension
  0
DIMENSION
  5
26F
100
AcDbEntity
  8
0
100
AcDbDimension
 62
7
  6
CONTINUOUS
  2
*D6
 10
58.2328688634
 20
5.3033997198
 11
58.2328688634
 21
12.8966761146
 70
160
 71
1
 42
5.778429605
  3
DIMSTYLE_2
100
AcDbAlignedDimension
 13
50.1294034037
 23
-0.4750298852
 14
50.1184814639
 24
5.3033997198
 50
90.0
100
AcDbRotatedDimension
  0
LINE
  5
270
100
AcDbEntity
  8
0
100
AcDbLine
 62
7
  6
CONTINUOUS
 10
-8.3292024463
 20
1.0249701148
 11
-8.3292024463
 21
1.8249701148
  0
LINE
  5
271
100
AcDbEntity
  8
0
100
AcDbLine
 62
7
  6
CONTINUOUS
 10
-8.3292024463
 20
3.0249701148
 11
-8.3292024463
 21
3.8249701148
  0
LINE
  5
272
100
AcDbEntity
  8
0
100
AcDbLine
 62
7
  6
CONTINUOUS
 10
4.353916377
 20
0.6749701148
 11
1.6707975537
 21
0.6749701148
  0
LINE
  5
273
100
AcDbEntity
  8
0
100
AcDbLine
 62
7
  6
CONTINUOUS
 10
1.6707975537
 20
1.0249701148
 11
-8.3292024463
 21
1.0249701148
  0
LINE
  5
274
100
AcDbEntity
  8
0
100
AcDbLine
 62
7
  6
CONTINUOUS
 10
1.6707975537
 20
1.8249701148
 11
-8.3292024463
 21
1.8249701148
  0
LINE
  5
275
100
AcDbEntity
  8
0
100
AcDbLine
 62
7
  6
CONTINUOUS
 10
4.353916377
 20
2.1749701148
 11
1.6707975537
 21
2.1749701148
  0
LINE
  5
276
100
AcDbEntity
  8
0
100
AcDbLine
 62
7
  6
CONTINUOUS
 10
4.353916377
 20
2.6749701148
 11
1.6707975537
 21
2.6749701148
  0
LINE
  5
277
100
AcDbEntity
  8
0
100
AcDbLine
 62
7
  6
CONTINUOUS
 10
1.6707975537
 20
3.0249701148
 11
-8.3292024463
 21
3.0249701148
  0
LINE
  5
278
100
AcDbEntity
  8
0
100
AcDbLine
 62
7
  6
CONTINUOUS
 10
1.6707975537
 20
3.8249701148
 11
-8.3292024463
 21
3.8249701148
  0
LINE
  5
279
100
AcDbEntity
  8
0
100
AcDbLine
 62
7
  6
CONTINUOUS
 10
4.353916377
 20
4.1749701148
 11
1.6707975537
 21
4.1749701148
  0
LINE
  5
27A
100
AcDbEntity
  8
0
100
AcDbLine
 62
7
  6
CONTINUOUS
 10
1.6707975537
 20
0.6749701148
 11
1.6707975537
 21
2.1749701148
  0
LINE
  5
27B
100
AcDbEntity
  8
0
100
AcDbLine
 62
7
  6
CONTINUOUS
 10
1.6707975537
 20
2.6749701148
 11
1.6707975537
 21
4.1749701148
  0
LINE
  5
27C
100
AcDbEntity
  8
0
100
AcDbLine
 62
7
  6
CONTINUOUS
 10
4.353916377
 20
0.6749701148
 11
4.353916377
 21
2.1749701148
  0
LINE
  5
27D
100
AcDbEntity
  8
0
100
AcDbLine
 62
7
  6
CONTINUOUS
 10
4.353916377
 20
2.6749701148
 11
4.353916377
 21
4.1749701148
  0
LINE
  5
27E
100
AcDbEntity
  8
0
100
AcDbLine
 62
7
  6
CONTINUOUS
 10
7.354118377
 20
4.1749701148
 11
7.354118377
 21
2.6749701148
  0
LINE
  5
27F
100
AcDbEntity
  8
0
100
AcDbLine
 62
7
  6
CONTINUOUS
 10
7.354118377
 20
2.1749701148
 11
7.354118377
 21
0.6749701148
  0
LWPOLYLINE
  5
280
100
AcDbEntity
  8
0
100
AcDbPolyline
 62
7
  6
CONTINUOUS
 90
24
 70
0
 10
14.0671560984
 20
3.2153257192
 10
14.0622021589
 20
3.2625326792
 10
14.0585661726
 20
3.3079069025
 10
14.0561122041
 20
3.3512384601
 10
14.0549761888
 20
3.3926433703
 10
14.0547175279
 20
3.4326840243
 10
14.0552389392
 20
3.4713136755
 10
14.0566377049
 20
3.5085322801
 10
14.0587650716
 20
3.5449795583
 10
14.0615464075
 20
3.5806456935
 10
14.0650563445
 20
3.615510996
 10
14.0693700257
 20
3.650197255
 10
14.0744578282
 20
3.6848716869
 10
14.0803493748
 20
3.7193343162
 10
14.0872086769
 20
3.7536510918
 10
14.0950431113
 20
3.7879317314
 10
14.1038453012
 20
3.822032576
 10
14.1137571279
 20
3.8556434614
 10
14.1247892525
 20
3.8887751663
 10
14.1369310139
 20
3.921396187
 10
14.15029231
 20
3.953146168
 10
14.1649097734
 20
3.9839086213
 10
14.1807467715
 20
4.0138028787
 10
14.1978033043
 20
4.0428316553
  0
LWPOLYLINE
  5
281
100
AcDbEntity
  8
RACCORDO
100
AcDbPolyline
 62
7
  6
CONTINUOUS
 90
6
 70
0
 10
13.6389637045
 20
4.806295181
 10
13.638861969
 20
4.8096616037
 10
13.6387590269
 20
4.8123103967
 10
13.6386552485
 20
4.8142292995
 10
13.6385502635
 20
4.8154305727
 10
13.6384440718
 20
4.8159142162
  0
LWPOLYLINE
  5
282
100
AcDbEntity
  8
ASSI
100
AcDbPolyline
 62
7
  6
CONTINUOUS
 90
6
 70
0
 10
13.6389637045
 20
4.806295181
 10
13.638861969
 20
4.8096616037
 10
13.6387590269
 20
4.8123103967
 10
13.6386552485
 20
4.8142292995
 10
13.6385502635
 20
4.8154305727
 10
13.6384440718
 20
4.8159142162
  0
LINE
  5
283
100
AcDbEntity
  8
DRAFT
100
AcDbLine
 62
7
  6
CONTINUOUS
 10
13.6293881732
 20
4.4823866638
 11
13.6302666807
 21
4.4482062231
  0
LINE
  5
284
100
AcDbEntity
  8
ASSI
100
AcDbLine
 62
7
  6
CONTINUOUS
 10
13.6293881732
 20
4.4823866638
 11
13.6302666807
 21
4.4482062231
  0
LINE
  5
285
100
AcDbEntity
  8
RACCORDO
100
AcDbLine
 62
7
  6
CONTINUOUS
 10
13.6391598513
 20
4.797532052
 11
13.6389637045
 21
4.806295181
  0
LINE
  5
286
100
AcDbEntity
  8
ASSI
100
AcDbLine
 62
7
  6
CONTINUOUS
 10
13.6391598513
 20
4.797532052
 11
13.6389637045
 21
4.806295181
  0
LINE
  5
287
100
AcDbEntity
  8
DRAFT
100
AcDbLine
 62
7
  6
CONTINUOUS
 10
13.6302666807
 20
4.4482062231
 11
13.6318852099
 21
4.3546427992
  0
LINE
  5
288
100
AcDbEntity
  8
ASSI
100
AcDbLine
 62
7
  6
CONTINUOUS
 10
13.6302666807
 20
4.4482062231
 11
13.6318852099
 21
4.3546427992
  0
LINE
  5
289
100
AcDbEntity
  8
RACCORDO
100
AcDbLine
 62
7
  6
CONTINUOUS
 10
13.6398963507
 20
4.7450199682
 11
13.6391598513
 21
4.797532052
  0
LINE
  5
28A
100
AcDbEntity
  8
ASSI
100
AcDbLine
 62
7
  6
CONTINUOUS
 10
13.6398963507
 20
4.7450199682
 11
13.6391598513
 21
4.797532052
  0
LINE
  5
28B
100
AcDbEntity
  8
DRAFT
100
AcDbLine
 62
7
  6
CONTINUOUS
 10
13.6318852099
 20
4.3546427992
 11
13.633766158
 21
4.1749701148
  0
LINE
  5
28C
100
AcDbEntity
  8
ASSI
100
AcDbLine
 62
7
  6
CONTINUOUS
 10
13.6318852099
 20
4.3546427992
 11
13.633766158
 21
4.1749701148
  0
LINE
  5
28D
100
AcDbEntity
  8
DRAFT
100
AcDbLine
 62
7
  6
CONTINUOUS
 10
13.6319976185
 20
2.3463890239
 11
13.6337644536
 21
2.1749701148
  0
LINE
  5
28E
100
AcDbEntity
  8
ASSI
100
AcDbLine
 62
7
  6
CONTINUOUS
 10
13.6319976185
 20
2.3463890239
 11
13.6337644536
 21
2.1749701148
  0
LINE
  5
28F
100
AcDbEntity
  8
DRAFT
100
AcDbLine
 62
7
  6
CONTINUOUS
 10
13.6392736214
 20
2.1415604151
 11
13.6372313455
 21
2.3462401719
  0
LINE
  5
290
100
AcDbEntity
  8
ASSI
100
AcDbLine
 62
7
  6
CONTINUOUS
 10
13.6392736214
 20
2.1415604151
 11
13.6372313455
 21
2.3462401719
  0
LINE
  5
291
100
AcDbEntity
  8
RACCORDO
100
AcDbLine
 62
7
  6
CONTINUOUS
 10
13.6423552931
 20
4.4990638362
 11
13.6398963507
 21
4.7450199682
  0
LINE
  5
292
100
AcDbEntity
  8
ASSI
100
AcDbLine
 62
7
  6
CONTINUOUS
 10
13.6423552931
 20
4.4990638362
 11
13.6398963507
 21
4.7450199682
  0
LINE
  5
293
100
AcDbEntity
  8
RACCORDO
100
AcDbLine
 62
7
  6
CONTINUOUS
 10
13.6450718149
 20
3.9892914097
 11
13.6423552931
 21
4.4990638362
  0
LINE
  5
294
100
AcDbEntity
  8
ASSI
100
AcDbLine
 62
7
  6
CONTINUOUS
 10
13.6450718149
 20
3.9892914097
 11
13.6423552931
 21
4.4990638362
  0
LINE
  5
295
100
AcDbEntity
  8
DRAFT
100
AcDbLine
 62
7
  6
CONTINUOUS
 10
13.6413236384
 20
1.6827466164
 11
13.6392736214
 21
2.1415604151
  0
LINE
  5
296
100
AcDbEntity
  8
ASSI
100
AcDbLine
 62
7
  6
CONTINUOUS
 10
13.6413236384
 20
1.6827466164
 11
13.6392736214
 21
2.1415604151
  0
LINE
  5
297
100
AcDbEntity
  8
RACCORDO
100
AcDbLine
 62
7
  6
CONTINUOUS
 10
13.6456795778
 20
1.7491111153
 11
13.6429060879
 21
2.4249701148
  0
LINE
  5
298
100
AcDbEntity
  8
ASSI
100
AcDbLine
 62
7
  6
CONTINUOUS
 10
13.6456795778
 20
1.7491111153
 11
13.6429060879
 21
2.4249701148
  0
LINE
  5
299
100
AcDbEntity
  8
DRAFT
100
AcDbLine
 62
7
  6
CONTINUOUS
 10
13.6293881732
 20
0.0249701148
 11
13.6293881732
 21
0.32596007
  0
LINE
  5
29A
100
AcDbEntity
  8
ASSI
100
AcDbLine
 62
7
  6
CONTINUOUS
 10
13.6293881732
 20
0.0249701148
 11
13.6293881732
 21
0.32596007
  0
LINE
  5
29B
100
AcDbEntity
  8
DRAFT
100
AcDbLine
 62
7
  6
CONTINUOUS
 10
13.6293881732
 20
4.5239801596
 11
13.6293881732
 21
4.8249701148
  0
LINE
  5
29C
100
AcDbEntity
  8
ASSI
100
AcDbLine
 62
7
  6
CONTINUOUS
 10
13.6293881732
 20
4.5239801596
 11
13.6293881732
 21
4.8249701148
  0
LINE
  5
29D
100
AcDbEntity
  8
DRAFT
100
AcDbLine
 62
7
  6
CONTINUOUS
 10
13.6319976185
 20
2.5035512057
 11
13.6319976185
 21
2.3463890239
  0
LINE
  5
29E
100
AcDbEntity
  8
ASSI
100
AcDbLine
 62
7
  6
CONTINUOUS
 10
13.6319976185
 20
2.5035512057
 11
13.6319976185
 21
2.3463890239
  0
LINE
  5
29F
100
AcDbEntity
  8
DRAFT
100
AcDbLine
 62
7
  6
CONTINUOUS
 10
13.6372313455
 20
2.3462401719
 11
13.6372313455
 21
2.5037000577
  0
LINE
  5
2A0
100
AcDbEntity
  8
ASSI
100
AcDbLine
 62
7
  6
CONTINUOUS
 10
13.6372313455
 20
2.3462401719
 11
13.6372313455
 21
2.5037000577
  0
LINE
  5
2A1
100
AcDbEntity
  8
RACCORDO
100
AcDbLine
 62
7
  6
CONTINUOUS
 10
13.6457971999
 20
3.1746689472
 11
13.6450718149
 21
3.9892914097
  0
LINE
  5
2A2
100
AcDbEntity
  8
ASSI
100
AcDbLine
 62
7
  6
CONTINUOUS
 10
13.6457971999
 20
3.1746689472
 11
13.6450718149
 21
3.9892914097
  0
LINE
  5
2A3
100
AcDbEntity
  8
DRAFT
100
AcDbLine
 62
7
  6
CONTINUOUS
 10
13.6410690468
 20
1.0672541315
 11
13.6413236384
 21
1.6827466164
  0
LINE
  5
2A4
100
AcDbEntity
  8
ASSI
100
AcDbLine
 62
7
  6
CONTINUOUS
 10
13.6410690468
 20
1.0672541315
 11
13.6413236384
 21
1.6827466164
  0
LINE
  5
2A5
100
AcDbEntity
  8
RACCORDO
100
AcDbLine
 62
7
  6
CONTINUOUS
 10
13.6452892559
 20
0.9317546298
 11
13.6456795778
 21
1.7491111153
  0
LINE
  5
2A6
100
AcDbEntity
  8
ASSI
100
AcDbLine
 62
7
  6
CONTINUOUS
 10
13.6452892559
 20
0.9317546298
 11
13.6456795778
 21
1.7491111153
  0
LINE
  5
2A7
100
AcDbEntity
  8
RACCORDO
100
AcDbLine
 62
7
  6
CONTINUOUS
 10
13.6436795383
 20
2.547060857
 11
13.6457971999
 21
3.1746689472
  0
LINE
  5
2A8
100
AcDbEntity
  8
ASSI
100
AcDbLine
 62
7
  6
CONTINUOUS
 10
13.6436795383
 20
2.547060857
 11
13.6457971999
 21
3.1746689472
  0
LINE
  5
2A9
100
AcDbEntity
  8
RACCORDO
100
AcDbLine
 62
7
  6
CONTINUOUS
 10
13.6429060879
 20
2.4249701148
 11
13.6436795383
 21
2.547060857
  0
LINE
  5
2AA
100
AcDbEntity
  8
ASSI
100
AcDbLine
 62
7
  6
CONTINUOUS
 10
13.6429060879
 20
2.4249701148
 11
13.6436795383
 21
2.547060857
  0
LINE
  5
2AB
100
AcDbEntity
  8
DRAFT
100
AcDbLine
 62
7
  6
CONTINUOUS
 10
13.6392723121
 20
0.7082053932
 11
13.6410690468
 21
1.0672541315
  0
LINE
  5
2AC
100
AcDbEntity
  8
ASSI
100
AcDbLine
 62
7
  6
CONTINUOUS
 10
13.6392723121
 20
0.7082053932
 11
13.6410690468
 21
1.0672541315
  0
LINE
  5
2AD
100
AcDbEntity
  8
RACCORDO
100
AcDbLine
 62
7
  6
CONTINUOUS
 10
13.642784727
 20
0.4078627684
 11
13.6452892559
 21
0.9317546298
  0
LINE
  5
2AE
100
AcDbEntity
  8
ASSI
100
AcDbLine
 62
7
  6
CONTINUOUS
 10
13.642784727
 20
0.4078627684
 11
13.6452892559
 21
0.9317546298
  0
LINE
  5
2AF
100
AcDbEntity
  8
RACCORDO
100
AcDbLine
 62
7
  6
CONTINUOUS
 10
13.640427222
 20
0.1486975972
 11
13.642784727
 21
0.4078627684
  0
LINE
  5
2B0
100
AcDbEntity
  8
ASSI
100
AcDbLine
 62
7
  6
CONTINUOUS
 10
13.640427222
 20
0.1486975972
 11
13.642784727
 21
0.4078627684
  0
LINE
  5
2B1
100
AcDbEntity
  8
DRAFT
100
AcDbLine
 62
7
  6
CONTINUOUS
 10
13.6337644536
 20
2.6749701148
 11
13.6319976185
 21
2.5035512057
  0
LINE
  5
2B2
100
AcDbEntity
  8
ASSI
100
AcDbLine
 62
7
  6
CONTINUOUS
 10
13.6337644536
 20
2.6749701148
 11
13.6319976185
 21
2.5035512057
  0
LINE
  5
2B3
100
AcDbEntity
  8
DRAFT
100
AcDbLine
 62
7
  6
CONTINUOUS
 10
13.6372270364
 20
0.503379071
 11
13.6392723121
 21
0.7082053932
  0
LINE
  5
2B4
100
AcDbEntity
  8
ASSI
100
AcDbLine
 62
7
  6
CONTINUOUS
 10
13.6372270364
 20
0.503379071
 11
13.6392723121
 21
0.7082053932
  0
LINE
  5
2B5
100
AcDbEntity
  8
DRAFT
100
AcDbLine
 62
7
  6
CONTINUOUS
 10
13.633766158
 20
0.6749701148
 11
13.6318852099
 21
0.4952974304
  0
LINE
  5
2B6
100
AcDbEntity
  8
ASSI
100
AcDbLine
 62
7
  6
CONTINUOUS
 10
13.633766158
 20
0.6749701148
 11
13.6318852099
 21
0.4952974304
  0
LINE
  5
2B7
100
AcDbEntity
  8
RACCORDO
100
AcDbLine
 62
7
  6
CONTINUOUS
 10
13.6392542626
 20
0.057804884
 11
13.640427222
 21
0.1486975972
  0
LINE
  5
2B8
100
AcDbEntity
  8
ASSI
100
AcDbLine
 62
7
  6
CONTINUOUS
 10
13.6392542626
 20
0.057804884
 11
13.640427222
 21
0.1486975972
  0
LINE
  5
2B9
100
AcDbEntity
  8
DRAFT
100
AcDbLine
 62
7
  6
CONTINUOUS
 10
13.6318852099
 20
0.4952974304
 11
13.6302666807
 21
0.4017340065
  0
LINE
  5
2BA
100
AcDbEntity
  8
ASSI
100
AcDbLine
 62
7
  6
CONTINUOUS
 10
13.6318852099
 20
0.4952974304
 11
13.6302666807
 21
0.4017340065
  0
LINE
  5
2BB
100
AcDbEntity
  8
DRAFT
100
AcDbLine
 62
7
  6
CONTINUOUS
 10
13.6302666807
 20
0.4017340065
 11
13.6293881732
 21
0.3675535658
  0
LINE
  5
2BC
100
AcDbEntity
  8
ASSI
100
AcDbLine
 62
7
  6
CONTINUOUS
 10
13.6302666807
 20
0.4017340065
 11
13.6293881732
 21
0.3675535658
  0
LWPOLYLINE
  5
2BD
100
AcDbEntity
  8
DRAFT
100
AcDbPolyline
 62
7
  6
CONTINUOUS
 90
6
 70
0
 10
13.6320062336
 20
0.32596007
 10
13.6329817375
 20
0.3318148958
 10
13.6338830851
 20
0.3474106942
 10
13.634760566
 20
0.3724028166
 10
13.6356142337
 20
0.4070621644
 10
13.6372270364
 20
0.503379071
  0
LWPOLYLINE
  5
2BE
100
AcDbEntity
  8
ASSI
100
AcDbPolyline
 62
7
  6
CONTINUOUS
 90
6
 70
0
 10
13.6320062336
 20
0.32596007
 10
13.6329817375
 20
0.3318148958
 10
13.6338830851
 20
0.3474106942
 10
13.634760566
 20
0.3724028166
 10
13.6356142337
 20
0.4070621644
 10
13.6372270364
 20
0.503379071
  0
LWPOLYLINE
  5
2BF
100
AcDbEntity
  8
RACCORDO
100
AcDbPolyline
 62
253
  6
CONTINUOUS
 90
9
 70
0
 10
15.4366544207
 20
0.2416704182
 10
15.4396965675
 20
0.2069484953
 10
15.4487203151
 20
0.1732804187
 10
15.4634519802
 20
0.1416889543
 10
15.4834444945
 20
0.1131338614
 10
15.5080908612
 20
0.0884828733
 10
15.5366424966
 20
0.0684852502
 10
15.5682321347
 20
0.0537488164
 10
15.6009472465
 20
0.0449770664
  0
LWPOLYLINE
  5
2C0
100
AcDbEntity
  8
ASSI
100
AcDbPolyline
 62
253
  6
CONTINUOUS
 90
9
 70
0
 10
15.4366544207
 20
0.2416704182
 10
15.4396965675
 20
0.2069484953
 10
15.4487203151
 20
0.1732804187
 10
15.4634519802
 20
0.1416889543
 10
15.4834444945
 20
0.1131338614
 10
15.5080908612
 20
0.0884828733
 10
15.5366424966
 20
0.0684852502
 10
15.5682321347
 20
0.0537488164
 10
15.6009472465
 20
0.0449770664
  0
LWPOLYLINE
  5
2C1
100
AcDbEntity
  8
RACCORDO
100
AcDbPolyline
 62
253
  6
CONTINUOUS
 90
16
 70
0
 10
15.6398642516
 20
-0.6146451897
 10
15.6431891716
 20
-0.6775370406
 10
15.6530889305
 20
-0.7397355536
 10
15.669454357
 20
-0.8005552611
 10
15.6921081136
 20
-0.8593328099
 10
15.7207988373
 20
-0.915412903
 10
15.755196823
 20
-0.9681590519
 10
15.7949074394
 20
-1.0169834366
 10
15.8394954704
 20
-1.0613659366
 10
15.8884824384
 20
-1.1008358306
 10
15.9414084277
 20
-1.1350050948
 10
15.9976217172
 20
-1.1634367853
 10
16.056261769
 20
-1.185740788
 10
16.1165766318
 20
-1.2017303425
 10
16.1779706305
 20
-1.211343076
 10
16.2397728688
 20
-1.2145538067
  0
LWPOLYLINE
  5
2C2
100
AcDbEntity
  8
RACCORDO
100
AcDbPolyline
 62
253
  6
CONTINUOUS
 90
7
 70
0
 10
15.43971276
 20
4.5501720035
 10
15.4392558497
 20
4.5672399737
 10
15.4387654106
 20
4.58169521
 10
15.4382583568
 20
4.5930723484
 10
15.4377403262
 20
4.6012162674
 10
15.4372056808
 20
4.6062820884
 10
15.4366544207
 20
4.6082698114
  0
LWPOLYLINE
  5
2C3
100
AcDbEntity
  8
ASSI
100
AcDbPolyline
 62
253
  6
CONTINUOUS
 90
7
 70
0
 10
15.43971276
 20
4.5501720035
 10
15.4392558497
 20
4.5672399737
 10
15.4387654106
 20
4.58169521
 10
15.4382583568
 20
4.5930723484
 10
15.4377403262
 20
4.6012162674
 10
15.4372056808
 20
4.6062820884
 10
15.4366544207
 20
4.6082698114
  0
LINE
  5
2C4
100
AcDbEntity
  8
RACCORDO
100
AcDbLine
 62
253
  6
CONTINUOUS
 10
15.440523019
 20
4.5080302842
 11
15.43971276
 21
4.5501720035
  0
LINE
  5
2C5
100
AcDbEntity
  8
ASSI
100
AcDbLine
 62
253
  6
CONTINUOUS
 10
15.440523019
 20
4.5080302842
 11
15.43971276
 21
4.5501720035
  0
LINE
  5
2C6
100
AcDbEntity
  8
RACCORDO
100
AcDbLine
 62
7
  6
CONTINUOUS
 10
15.4307379644
 20
4.3885205205
 11
15.427148615
 21
4.6130223522
  0
LINE
  5
2C7
100
AcDbEntity
  8
ASSI
100
AcDbLine
 62
7
  6
CONTINUOUS
 10
15.4307379644
 20
4.3885205205
 11
15.427148615
 21
4.6130223522
  0
LINE
  5
2C8
100
AcDbEntity
  8
RACCORDO
100
AcDbLine
 62
253
  6
CONTINUOUS
 10
15.4411603282
 20
4.4575105606
 11
15.440523019
 21
4.5080302842
  0
LINE
  5
2C9
100
AcDbEntity
  8
ASSI
100
AcDbLine
 62
253
  6
CONTINUOUS
 10
15.4411603282
 20
4.4575105606
 11
15.440523019
 21
4.5080302842
  0
LINE
  5
2CA
100
AcDbEntity
  8
RACCORDO
100
AcDbLine
 62
7
  6
CONTINUOUS
 10
15.601348244
 20
4.7837462749
 11
15.6022599494
 21
4.712231808
  0
LINE
  5
2CB
100
AcDbEntity
  8
RACCORDO
100
AcDbLine
 62
7
  6
CONTINUOUS
 10
15.4335203399
 20
4.1291022815
 11
15.4307379644
 21
4.3885205205
  0
LINE
  5
2CC
100
AcDbEntity
  8
ASSI
100
AcDbLine
 62
7
  6
CONTINUOUS
 10
15.4335203399
 20
4.1291022815
 11
15.4307379644
 21
4.3885205205
  0
LINE
  5
2CD
100
AcDbEntity
  8
RACCORDO
100
AcDbLine
 62
7
  6
CONTINUOUS
 10
15.6022599494
 20
4.712231808
 11
15.6028256947
 21
4.6313406322
  0
LINE
  5
2CE
100
AcDbEntity
  8
RACCORDO
100
AcDbLine
 62
253
  6
CONTINUOUS
 10
15.4417425356
 20
4.3705567661
 11
15.4411603282
 21
4.4575105606
  0
LINE
  5
2CF
100
AcDbEntity
  8
ASSI
100
AcDbLine
 62
253
  6
CONTINUOUS
 10
15.4417425356
 20
4.3705567661
 11
15.4411603282
 21
4.4575105606
  0
LINE
  5
2D0
100
AcDbEntity
  8
RACCORDO
100
AcDbLine
 62
253
  6
CONTINUOUS
 10
15.4418571892
 20
4.1374391308
 11
15.4417425356
 21
4.3705567661
  0
LINE
  5
2D1
100
AcDbEntity
  8
ASSI
100
AcDbLine
 62
253
  6
CONTINUOUS
 10
15.4418571892
 20
4.1374391308
 11
15.4417425356
 21
4.3705567661
  0
LINE
  5
2D2
100
AcDbEntity
  8
RACCORDO
100
AcDbLine
 62
7
  6
CONTINUOUS
 10
15.5293881732
 20
5.5753356186
 11
15.5293881732
 21
5.005989563
  0
LINE
  5
2D3
100
AcDbEntity
  8
RACCORDO
100
AcDbLine
 62
7
  6
CONTINUOUS
 10
15.5293881732
 20
-0.1560493334
 11
15.5293881732
 21
-0.725395389
  0
LINE
  5
2D4
100
AcDbEntity
  8
RACCORDO
100
AcDbLine
 62
7
  6
CONTINUOUS
 10
15.5593881732
 20
-0.6951212681
 11
15.5593881732
 21
-0.1560493334
  0
LINE
  5
2D5
100
AcDbEntity
  8
RACCORDO
100
AcDbLine
 62
7
  6
CONTINUOUS
 10
15.5593881732
 20
5.005989563
 11
15.5593881732
 21
5.5450614977
  0
LINE
  5
2D6
100
AcDbEntity
  8
RACCORDO
100
AcDbLine
 62
7
  6
CONTINUOUS
 10
15.6030258356
 20
0.3071077132
 11
15.6028256947
 21
4.6313406322
  0
LINE
  5
2D7
100
AcDbEntity
  8
RACCORDO
100
AcDbLine
 62
253
  6
CONTINUOUS
 10
15.6398642516
 20
-0.6146451897
 11
15.6398642516
 21
5.4645854193
  0
LINE
  5
2D8
100
AcDbEntity
  8
RACCORDO
100
AcDbLine
 62
253
  6
CONTINUOUS
 10
15.4417435416
 20
0.4796006121
 11
15.4418571892
 21
0.7125010989
  0
LINE
  5
2D9
100
AcDbEntity
  8
ASSI
100
AcDbLine
 62
253
  6
CONTINUOUS
 10
15.4417435416
 20
0.4796006121
 11
15.4418571892
 21
0.7125010989
  0
LINE
  5
2DA
100
AcDbEntity
  8
RACCORDO
100
AcDbLine
 62
7
  6
CONTINUOUS
 10
15.6030258356
 20
0.3071077132
 11
15.6028256947
 21
0.2185995974
  0
LINE
  5
2DB
100
AcDbEntity
  8
RACCORDO
100
AcDbLine
 62
7
  6
CONTINUOUS
 10
15.6028256947
 20
0.2185995974
 11
15.6022599494
 21
0.1377084216
  0
LINE
  5
2DC
100
AcDbEntity
  8
RACCORDO
100
AcDbLine
 62
253
  6
CONTINUOUS
 10
15.4411632637
 20
0.3927290502
 11
15.4417435416
 21
0.4796006121
  0
LINE
  5
2DD
100
AcDbEntity
  8
ASSI
100
AcDbLine
 62
253
  6
CONTINUOUS
 10
15.4411632637
 20
0.3927290502
 11
15.4417435416
 21
0.4796006121
  0
LINE
  5
2DE
100
AcDbEntity
  8
RACCORDO
100
AcDbLine
 62
7
  6
CONTINUOUS
 10
15.4307379644
 20
0.4614197092
 11
15.4335203399
 21
0.7208379481
  0
LINE
  5
2DF
100
AcDbEntity
  8
ASSI
100
AcDbLine
 62
7
  6
CONTINUOUS
 10
15.4307379644
 20
0.4614197092
 11
15.4335203399
 21
0.7208379481
  0
LINE
  5
2E0
100
AcDbEntity
  8
RACCORDO
100
AcDbLine
 62
253
  6
CONTINUOUS
 10
15.4405271371
 20
0.3421755999
 11
15.4411632637
 21
0.3927290502
  0
LINE
  5
2E1
100
AcDbEntity
  8
ASSI
100
AcDbLine
 62
253
  6
CONTINUOUS
 10
15.4405271371
 20
0.3421755999
 11
15.4411632637
 21
0.3927290502
  0
LWPOLYLINE
  5
2E2
100
AcDbEntity
  8
RACCORDO
100
AcDbPolyline
 62
7
  6
CONTINUOUS
 90
8
 70
0
 10
15.6022599494
 20
0.1377084216
 10
15.601348244
 20
0.0661939547
 10
15.6007838801
 20
0.0363333011
 10
15.6001493964
 20
0.010283299
 10
15.5994744324
 20
-0.0107380906
 10
15.5987688678
 20
-0.0263248809
 10
15.5980228228
 20
-0.0368830586
 10
15.5972362975
 20
-0.042412624
  0
LINE
  5
2E3
100
AcDbEntity
  8
RACCORDO
100
AcDbLine
 62
7
  6
CONTINUOUS
 10
15.427148615
 20
0.2369178774
 11
15.4307379644
 21
0.4614197092
  0
LINE
  5
2E4
100
AcDbEntity
  8
ASSI
100
AcDbLine
 62
7
  6
CONTINUOUS
 10
15.427148615
 20
0.2369178774
 11
15.4307379644
 21
0.4614197092
  0
LWPOLYLINE
  5
2E5
100
AcDbEntity
  8
RACCORDO
100
AcDbPolyline
 62
7
  6
CONTINUOUS
 90
16
 70
0
 10
15.427148615
 20
4.6130223522
 10
15.4274795808
 20
4.6293660509
 10
15.4290425391
 20
4.6450946384
 10
15.4317065844
 20
4.6601266513
 10
15.4353232449
 20
4.6743471573
 10
15.4397730904
 20
4.6877649568
 10
15.4450038908
 20
4.7004980053
 10
15.4509161669
 20
4.712500055
 10
15.4574262699
 20
4.7237666117
 10
15.4645775723
 20
4.7344590574
 10
15.4723357622
 20
4.7445692492
 10
15.4806341504
 20
4.7540484762
 10
15.4895217348
 20
4.762964744
 10
15.4989980618
 20
4.7713096819
 10
15.508992433
 20
4.7790178052
 10
15.5194639425
 20
4.7860577912
  0
LWPOLYLINE
  5
2E6
100
AcDbEntity
  8
ASSI
100
AcDbPolyline
 62
7
  6
CONTINUOUS
 90
16
 70
0
 10
15.427148615
 20
4.6130223522
 10
15.4274795808
 20
4.6293660509
 10
15.4290425391
 20
4.6450946384
 10
15.4317065844
 20
4.6601266513
 10
15.4353232449
 20
4.6743471573
 10
15.4397730904
 20
4.6877649568
 10
15.4450038908
 20
4.7004980053
 10
15.4509161669
 20
4.712500055
 10
15.4574262699
 20
4.7237666117
 10
15.4645775723
 20
4.7344590574
 10
15.4723357622
 20
4.7445692492
 10
15.4806341504
 20
4.7540484762
 10
15.4895217348
 20
4.762964744
 10
15.4989980618
 20
4.7713096819
 10
15.508992433
 20
4.7790178052
 10
15.5194639425
 20
4.7860577912
  0
LWPOLYLINE
  5
2E7
100
AcDbEntity
  8
RACCORDO
100
AcDbPolyline
 62
253
  6
CONTINUOUS
 90
16
 70
0
 10
15.6398642516
 20
5.4645854193
 10
15.6431891688
 20
5.5274772434
 10
15.6530889197
 20
5.5896757329
 10
15.6694543342
 20
5.6504954208
 10
15.6921080763
 20
5.7092729563
 10
15.720798784
 20
5.7653530406
 10
15.7551967495
 20
5.8180991807
 10
15.7949073366
 20
5.8669235527
 10
15.8394953329
 20
5.9113060429
 10
15.8884822726
 20
5.9507759404
 10
15.941408246
 20
5.9849452203
 10
15.9976215319
 20
6.0133769331
 10
16.0562615989
 20
6.0356809629
 10
16.1165764986
 20
6.0516705441
 10
16.1779705543
 20
6.0612832978
 10
16.2397728687
 20
6.0644940364
  0
LWPOLYLINE
  5
2E8
100
AcDbEntity
  8
RACCORDO
100
AcDbPolyline
 62
7
  6
CONTINUOUS
 90
16
 70
0
 10
15.5293881732
 20
5.5753356186
 10
15.5329768028
 20
5.6391978735
 10
15.5427721983
 20
5.7010292212
 10
15.5587743599
 20
5.7608296616
 10
15.5812929294
 20
5.819203452
 10
15.6100182648
 20
5.8755463352
 10
15.6440214403
 20
5.9280455393
 10
15.6834725217
 20
5.9765760628
 10
15.7282014432
 20
6.0212629073
 10
15.7767690802
 20
6.0606683056
 10
15.8293211698
 20
6.094622064
 10
15.8857119749
 20
6.1232943762
 10
15.944065161
 20
6.1457580561
 10
16.0037552829
 20
6.1617040414
 10
16.0654077858
 20
6.1714413943
 10
16.1290226694
 20
6.1749701148
  0
LWPOLYLINE
  5
2E9
100
AcDbEntity
  8
RACCORDO
100
AcDbPolyline
 62
7
  6
CONTINUOUS
 90
16
 70
0
 10
15.5593881732
 20
5.5450614977
 10
15.5629738588
 20
5.6088893881
 10
15.572762412
 20
5.670694186
 10
15.5887538329
 20
5.7304758914
 10
15.6112550378
 20
5.7888370301
 10
15.6399591103
 20
5.8451750763
 10
15.6739453014
 20
5.8976824529
 10
15.7133905107
 20
5.9462404503
 10
15.7581178386
 20
5.990967778
 10
15.806675836
 20
6.0304129873
 10
15.8591832124
 20
6.0643991781
 10
15.9155212585
 20
6.0931032505
 10
15.973882397
 20
6.1156044553
 10
16.0336641023
 20
6.131595876
 10
16.0954689001
 20
6.1413844292
 10
16.1592967903
 20
6.1449701148
  0
LWPOLYLINE
  5
2EA
100
AcDbEntity
  8
RACCORDO
100
AcDbPolyline
 62
253
  6
CONTINUOUS
 90
9
 70
0
 10
15.4366544207
 20
4.6082698114
 10
15.4396971075
 20
4.6429947912
 10
15.4487221596
 20
4.6766648742
 10
15.4634554084
 20
4.7082572101
 10
15.4834492781
 20
4.7368120672
 10
15.5080963828
 20
4.7614619885
 10
15.5366479779
 20
4.7814581437
 10
15.5682367057
 20
4.7961930769
 10
15.6009472509
 20
4.804962935
  0
LWPOLYLINE
  5
2EB
100
AcDbEntity
  8
ASSI
100
AcDbPolyline
 62
253
  6
CONTINUOUS
 90
9
 70
0
 10
15.4366544207
 20
4.6082698114
 10
15.4396971075
 20
4.6429947912
 10
15.4487221596
 20
4.6766648742
 10
15.4634554084
 20
4.7082572101
 10
15.4834492781
 20
4.7368120672
 10
15.5080963828
 20
4.7614619885
 10
15.5366479779
 20
4.7814581437
 10
15.5682367057
 20
4.7961930769
 10
15.6009472509
 20
4.804962935
  0
LWPOLYLINE
  5
2EC
100
AcDbEntity
  8
0
100
AcDbPolyline
 62
7
  6
CONTINUOUS
 90
36
 70
0
 10
15.1532839996
 20
1.1670185884
 10
15.1378533182
 20
1.0849125833
 10
15.1181090751
 20
1.0084673776
 10
15.0940512703
 20
0.9376979434
 10
15.0655032931
 20
0.8721531464
 10
15.0326417542
 20
0.812172809
 10
14.9959964856
 20
0.7588339344
 10
14.9554967016
 20
0.7121035114
 10
14.9112131879
 20
0.6715998269
 10
14.863888134
 20
0.6377720868
 10
14.8129958772
 20
0.6103859618
 10
14.7590620802
 20
0.5892581709
 10
14.7044059205
 20
0.5749045695
 10
14.6492314109
 20
0.5675011094
 10
14.5933345385
 20
0.5666736347
 10
14.5384224426
 20
0.5721777191
 10
14.4845995981
 20
0.5840743366
 10
14.43176153
 20
0.6024542449
 10
14.381301953
 20
0.6271904337
 10
14.3330489785
 20
0.6590493842
 10
14.2871744951
 20
0.6976868811
 10
14.2455878826
 20
0.7412623269
 10
14.2090726595
 20
0.7894777291
 10
14.1768453074
 20
0.8429178704
 10
14.1484646506
 20
0.9009324869
 10
14.123825021
 20
0.9636878089
 10
14.1030320867
 20
1.0311412649
 10
14.085961676
 20
1.1022147394
 10
14.0725508531
 20
1.1768808498
 10
14.0628625538
 20
1.2550150691
 10
14.0569614149
 20
1.3352787306
 10
14.054683797
 20
1.4177282883
 10
14.0561933395
 20
1.5019150052
 10
14.0620455968
 20
1.5856858545
 10
14.0721170117
 20
1.6690053515
 10
14.0865311415
 20
1.7514528285
  0
LWPOLYLINE
  5
2ED
100
AcDbEntity
  8
RACCORDO
100
AcDbPolyline
 62
7
  6
CONTINUOUS
 90
8
 70
0
 10
13.6384440718
 20
0.0340260134
 10
13.6385502635
 20
0.0345096569
 10
13.6386552485
 20
0.0357109301
 10
13.6387590269
 20
0.0376298329
 10
13.638861969
 20
0.0402786259
 10
13.6389637045
 20
0.0436450486
 10
13.6390631221
 20
0.0476923193
 10
13.6392542626
 20
0.057804884
  0
LWPOLYLINE
  5
2EE
100
AcDbEntity
  8
ASSI
100
AcDbPolyline
 62
7
  6
CONTINUOUS
 90
8
 70
0
 10
13.6384440718
 20
0.0340260134
 10
13.6385502635
 20
0.0345096569
 10
13.6386552485
 20
0.0357109301
 10
13.6387590269
 20
0.0376298329
 10
13.638861969
 20
0.0402786259
 10
13.6389637045
 20
0.0436450486
 10
13.6390631221
 20
0.0476923193
 10
13.6392542626
 20
0.057804884
  0
LWPOLYLINE
  5
2EF
100
AcDbEntity
  8
0
100
AcDbPolyline
 62
7
  6
CONTINUOUS
 90
5
 70
0
 10
14.0865311415
 20
1.7514528285
 10
14.106214213
 20
1.8303806518
 10
14.1314749684
 20
1.9048821437
 10
14.1620046655
 20
1.975710023
 10
14.1978033043
 20
2.0428316553
  0
LWPOLYLINE
  5
2F0
100
AcDbEntity
  8
0
100
AcDbPolyline
 62
7
  6
CONTINUOUS
 90
34
 70
0
 10
14.1978033043
 20
4.0428316553
 10
14.2158880852
 20
4.0704108102
 10
14.2356023549
 20
4.0967244732
 10
14.2569461133
 20
4.1217895512
 10
14.2799326425
 20
4.145822114
 10
14.3045486605
 20
4.1686394059
 10
14.3307543216
 20
4.1896758626
 10
14.3587077391
 20
4.2089775061
 10
14.3882507997
 20
4.226564084
 10
14.4188693182
 20
4.2418570626
 10
14.4505146771
 20
4.2547874795
 10
14.4832354939
 20
4.2655015143
 10
14.5166634353
 20
4.2737536134
 10
14.5506741848
 20
4.2795900696
 10
14.5853920591
 20
4.2830109201
 10
14.6208216745
 20
4.2836954272
 10
14.657099825
 20
4.2817350106
 10
14.6940897167
 20
4.2770333983
 10
14.7313855844
 20
4.2689702444
 10
14.7691152754
 20
4.2575188023
 10
14.8071509424
 20
4.2426177389
 10
14.8447032775
 20
4.2235570799
 10
14.8820447615
 20
4.1998578163
 10
14.9189029137
 20
4.1717873613
 10
14.9536709841
 20
4.1397376564
 10
14.9859523187
 20
4.1036377282
 10
15.0161435716
 20
4.0633371989
 10
15.0438279548
 20
4.0191385207
 10
15.0689461717
 20
3.9708382417
 10
15.0915575188
 20
3.9184737595
 10
15.1114230977
 20
3.8627679837
 10
15.1284632755
 20
3.8039679489
 10
15.142757685
 20
3.7418173284
 10
15.1543063263
 20
3.6763406225
  0
LWPOLYLINE
  5
2F1
100
AcDbEntity
  8
0
100
AcDbPolyline
 62
7
  6
CONTINUOUS
 90
38
 70
0
 10
15.1543063263
 20
3.6763406225
 10
15.1642879408
 20
3.5967572453
 10
15.1704216832
 20
3.5161968333
 10
15.1727075533
 20
3.434858233
 10
15.1712827788
 20
3.352317682
 10
15.1660101322
 20
3.2694277777
 10
15.1564779305
 20
3.1882938049
 10
15.1426524088
 20
3.1088564534
 10
15.124567332
 20
3.0315319507
 10
15.1019123124
 20
2.9589992862
 10
15.0742809056
 20
2.8913130724
 10
15.042079556
 20
2.8283951453
 10
15.0062172081
 20
2.7724665927
 10
14.966501373
 20
2.7238941373
 10
14.9231245396
 20
2.681864524
 10
14.8775731199
 20
2.6466718603
 10
14.8299551109
 20
2.6183110099
 10
14.7801625156
 20
2.5963488607
 10
14.7293577544
 20
2.5804559734
 10
14.6775617537
 20
2.5704129965
 10
14.6247535871
 20
2.5662361367
 10
14.5720328951
 20
2.5680170899
 10
14.5192057692
 20
2.5757817677
 10
14.4664661179
 20
2.5895834668
 10
14.4154953073
 20
2.6096280994
 10
14.3660066157
 20
2.6368687325
 10
14.3182867648
 20
2.6707260115
 10
14.2748772866
 20
2.7090730651
 10
14.2366452645
 20
2.752201863
 10
14.202723615
 20
2.8001021647
 10
14.1730526198
 20
2.8499751571
 10
14.147978838
 20
2.9014447904
 10
14.1271557106
 20
2.9548626413
 10
14.1094838422
 20
3.0083219395
 10
14.0949250681
 20
3.0616088333
 10
14.083517553
 20
3.1147770894
 10
14.074276396
 20
3.1662298762
 10
14.0671560984
 20
3.2153257192
  0
LWPOLYLINE
  5
2F2
100
AcDbEntity
  8
RACCORDO
100
AcDbPolyline
 62
7
  6
CONTINUOUS
 90
4
 70
0
 10
16.6104655523
 20
-0.042412624
 10
16.6100723464
 20
-0.0368839914
 10
16.6096993727
 20
-0.0263268904
 10
16.6093466312
 20
-0.010741321
  0
LWPOLYLINE
  5
2F3
100
AcDbEntity
  8
RACCORDO
100
AcDbPolyline
 62
7
  6
CONTINUOUS
 90
5
 70
0
 10
16.5870559225
 20
-1.1596025661
 10
16.5875571272
 20
-1.182633491
 10
16.588071198
 20
-1.1993159553
 10
16.5886032218
 20
-1.2099560606
 10
16.5891531985
 20
-1.2145538068
  0
LINE
  5
2F4
100
AcDbEntity
  8
RACCORDO
100
AcDbLine
 62
253
  6
CONTINUOUS
 10
16.67191119
 20
5.9617396075
 11
16.6723922593
 21
5.9357491674
  0
LINE
  5
2F5
100
AcDbEntity
  8
ASSI
100
AcDbLine
 62
253
  6
CONTINUOUS
 10
16.67191119
 20
5.9617396075
 11
16.6723922593
 21
5.9357491674
  0
LINE
  5
2F6
100
AcDbEntity
  8
RACCORDO
100
AcDbLine
 62
253
  6
CONTINUOUS
 10
16.8216588329
 20
6.1154891736
 11
16.8221555478
 21
6.0852809727
  0
LINE
  5
2F7
100
AcDbEntity
  8
ASSI
100
AcDbLine
 62
253
  6
CONTINUOUS
 10
16.8216588329
 20
6.1154891736
 11
16.8221555478
 21
6.0852809727
  0
LINE
  5
2F8
100
AcDbEntity
  8
RACCORDO
100
AcDbLine
 62
7
  6
CONTINUOUS
 10
16.6483231499
 20
4.7631940406
 11
16.6491096199
 21
4.7106252282
  0
LINE
  5
2F9
100
AcDbEntity
  8
ASSI
100
AcDbLine
 62
7
  6
CONTINUOUS
 10
16.6483231499
 20
4.7631940406
 11
16.6491096199
 21
4.7106252282
  0
LINE
  5
2FA
100
AcDbEntity
  8
RACCORDO
100
AcDbLine
 62
7
  6
CONTINUOUS
 10
16.5861226322
 20
-1.096331944
 11
16.5870559225
 21
-1.1596025661
  0
LINE
  5
2FB
100
AcDbEntity
  8
RACCORDO
100
AcDbLine
 62
7
  6
CONTINUOUS
 10
16.6093466312
 20
-0.010741321
 11
16.6086919647
 21
0.0363267049
  0
LINE
  5
2FC
100
AcDbEntity
  8
RACCORDO
100
AcDbLine
 62
253
  6
CONTINUOUS
 10
16.6723922593
 20
5.9357491674
 11
16.6730219067
 21
5.8798462393
  0
LINE
  5
2FD
100
AcDbEntity
  8
ASSI
100
AcDbLine
 62
253
  6
CONTINUOUS
 10
16.6723922593
 20
5.9357491674
 11
16.6730219067
 21
5.8798462393
  0
LINE
  5
2FE
100
AcDbEntity
  8
RACCORDO
100
AcDbLine
 62
253
  6
CONTINUOUS
 10
16.8221555478
 20
6.0852809727
 11
16.8228218246
 21
6.014909145
  0
LINE
  5
2FF
100
AcDbEntity
  8
ASSI
100
AcDbLine
 62
253
  6
CONTINUOUS
 10
16.8221555478
 20
6.0852809727
 11
16.8228218246
 21
6.014909145
  0
LINE
  5
300
100
AcDbEntity
  8
RACCORDO
100
AcDbLine
 62
7
  6
CONTINUOUS
 10
16.5849870561
 20
-0.9639139075
 11
16.5861226322
 21
-1.096331944
  0
LINE
  5
301
100
AcDbEntity
  8
RACCORDO
100
AcDbLine
 62
7
  6
CONTINUOUS
 10
16.6491096199
 20
4.7106252282
 11
16.6500667015
 21
4.6000800227
  0
LINE
  5
302
100
AcDbEntity
  8
ASSI
100
AcDbLine
 62
7
  6
CONTINUOUS
 10
16.6491096199
 20
4.7106252282
 11
16.6500667015
 21
4.6000800227
  0
LINE
  5
303
100
AcDbEntity
  8
RACCORDO
100
AcDbLine
 62
7
  6
CONTINUOUS
 10
16.6086919647
 20
0.0363267049
 11
16.6079539556
 21
0.1377005577
  0
LINE
  5
304
100
AcDbEntity
  8
RACCORDO
100
AcDbLine
 62
253
  6
CONTINUOUS
 10
16.6730219067
 20
5.8798462393
 11
16.6737259798
 21
5.7519388994
  0
LINE
  5
305
100
AcDbEntity
  8
ASSI
100
AcDbLine
 62
253
  6
CONTINUOUS
 10
16.6730219067
 20
5.8798462393
 11
16.6737259798
 21
5.7519388994
  0
LINE
  5
306
100
AcDbEntity
  8
RACCORDO
100
AcDbLine
 62
253
  6
CONTINUOUS
 10
16.8228218246
 20
6.014909145
 11
16.8237187581
 21
5.8035796194
  0
LINE
  5
307
100
AcDbEntity
  8
ASSI
100
AcDbLine
 62
253
  6
CONTINUOUS
 10
16.8228218246
 20
6.014909145
 11
16.8237187581
 21
5.8035796194
  0
LINE
  5
308
100
AcDbEntity
  8
DRAFT
100
AcDbLine
 62
7
  6
CONTINUOUS
 10
16.6456234251
 20
1.7788458113
 11
16.6429060879
 21
2.4249701148
  0
LINE
  5
309
100
AcDbEntity
  8
ASSI
100
AcDbLine
 62
7
  6
CONTINUOUS
 10
16.6456234251
 20
1.7788458113
 11
16.6429060879
 21
2.4249701148
  0
LINE
  5
30A
100
AcDbEntity
  8
RACCORDO
100
AcDbLine
 62
7
  6
CONTINUOUS
 10
16.5840389757
 20
-0.6777339593
 11
16.5849870561
 21
-0.9639139075
  0
LINE
  5
30B
100
AcDbEntity
  8
RACCORDO
100
AcDbLine
 62
7
  6
CONTINUOUS
 10
16.6500667015
 20
4.6000800227
 11
16.6508656215
 21
4.3606239262
  0
LINE
  5
30C
100
AcDbEntity
  8
ASSI
100
AcDbLine
 62
7
  6
CONTINUOUS
 10
16.6500667015
 20
4.6000800227
 11
16.6508656215
 21
4.3606239262
  0
LINE
  5
30D
100
AcDbEntity
  8
RACCORDO
100
AcDbLine
 62
253
  6
CONTINUOUS
 10
16.6737259798
 20
5.7519388994
 11
16.6739066223
 21
5.6334984536
  0
LINE
  5
30E
100
AcDbEntity
  8
ASSI
100
AcDbLine
 62
253
  6
CONTINUOUS
 10
16.6737259798
 20
5.7519388994
 11
16.6739066223
 21
5.6334984536
  0
LINE
  5
30F
100
AcDbEntity
  8
RACCORDO
100
AcDbLine
 62
253
  6
CONTINUOUS
 10
16.2397728687
 20
-1.2145538068
 11
16.2397728687
 21
6.0644940364
  0
LINE
  5
310
100
AcDbEntity
  8
RACCORDO
100
AcDbLine
 62
7
  6
CONTINUOUS
 10
16.6079539556
 20
0.1377005577
 11
16.6075710038
 21
4.5428325165
  0
LINE
  5
311
100
AcDbEntity
  8
DRAFT
100
AcDbLine
 62
7
  6
CONTINUOUS
 10
16.6293881732
 20
6.1449701148
 11
16.6293881732
 21
5.4749701148
  0
LINE
  5
312
100
AcDbEntity
  8
DRAFT
100
AcDbLine
 62
7
  6
CONTINUOUS
 10
16.6293881732
 20
-0.6250298852
 11
16.6293881732
 21
-1.2950298852
  0
LINE
  5
313
100
AcDbEntity
  8
RACCORDO
100
AcDbLine
 62
7
  6
CONTINUOUS
 10
16.6293881732
 20
-1.1750355967
 11
16.6293881732
 21
-0.5250298852
  0
LINE
  5
314
100
AcDbEntity
  8
DRAFT
100
AcDbLine
 62
7
  6
CONTINUOUS
 10
16.6293881732
 20
-0.5250298852
 11
16.6293881732
 21
0.0249701148
  0
LINE
  5
315
100
AcDbEntity
  8
ASSI
100
AcDbLine
 62
7
  6
CONTINUOUS
 10
16.6293881732
 20
-1.1750355967
 11
16.6293881732
 21
0.0249701148
  0
LINE
  5
316
100
AcDbEntity
  8
DRAFT
100
AcDbLine
 62
7
  6
CONTINUOUS
 10
16.6293881732
 20
4.8249701148
 11
16.6293881732
 21
5.3749701148
  0
LINE
  5
317
100
AcDbEntity
  8
RACCORDO
100
AcDbLine
 62
7
  6
CONTINUOUS
 10
16.6293881732
 20
5.3749701148
 11
16.6293881732
 21
6.0249758263
  0
LINE
  5
318
100
AcDbEntity
  8
ASSI
100
AcDbLine
 62
7
  6
CONTINUOUS
 10
16.6293881732
 20
4.8249701148
 11
16.6293881732
 21
6.0249758263
  0
LINE
  5
319
100
AcDbEntity
  8
RACCORDO
100
AcDbLine
 62
7
  6
CONTINUOUS
 10
16.6508913174
 20
4.1417970813
 11
16.6508656215
 21
4.3606239262
  0
LINE
  5
31A
100
AcDbEntity
  8
ASSI
100
AcDbLine
 62
7
  6
CONTINUOUS
 10
16.6508913174
 20
4.1417970813
 11
16.6508656215
 21
4.3606239262
  0
LINE
  5
31B
100
AcDbEntity
  8
RACCORDO
100
AcDbLine
 62
7
  6
CONTINUOUS
 10
16.6739066223
 20
5.6334984536
 11
16.6739066223
 21
-0.783558224
  0
LINE
  5
31C
100
AcDbEntity
  8
ASSI
100
AcDbLine
 62
7
  6
CONTINUOUS
 10
16.6739066223
 20
5.6334984536
 11
16.6739066223
 21
-0.783558224
  0
LINE
  5
31D
100
AcDbEntity
  8
RACCORDO
100
AcDbLine
 62
253
  6
CONTINUOUS
 10
16.8237187581
 20
5.8035796194
 11
16.8239009107
 21
-0.7834450061
  0
LINE
  5
31E
100
AcDbEntity
  8
ASSI
100
AcDbLine
 62
253
  6
CONTINUOUS
 10
16.8237187581
 20
5.8035796194
 11
16.8239009107
 21
-0.7834450061
  0
LINE
  5
31F
100
AcDbEntity
  8
DRAFT
100
AcDbLine
 62
7
  6
CONTINUOUS
 10
16.6459322143
 20
3.3102294957
 11
16.6445444009
 21
4.1291022815
  0
LINE
  5
320
100
AcDbEntity
  8
ASSI
100
AcDbLine
 62
7
  6
CONTINUOUS
 10
16.6459322143
 20
3.3102294957
 11
16.6445444009
 21
4.1291022815
  0
LINE
  5
321
100
AcDbEntity
  8
DRAFT
100
AcDbLine
 62
7
  6
CONTINUOUS
 10
16.6453274101
 20
0.9457043078
 11
16.6456234251
 21
1.7788458113
  0
LINE
  5
322
100
AcDbEntity
  8
ASSI
100
AcDbLine
 62
7
  6
CONTINUOUS
 10
16.6453274101
 20
0.9457043078
 11
16.6456234251
 21
1.7788458113
  0
LINE
  5
323
100
AcDbEntity
  8
RACCORDO
100
AcDbLine
 62
7
  6
CONTINUOUS
 10
16.5844513034
 20
5.7058230419
 11
16.5840389757
 21
-0.6777339593
  0
LINE
  5
324
100
AcDbEntity
  8
RACCORDO
100
AcDbLine
 62
7
  6
CONTINUOUS
 10
16.6508913174
 20
0.7081431483
 11
16.6505181852
 21
0.3402180054
  0
LINE
  5
325
100
AcDbEntity
  8
ASSI
100
AcDbLine
 62
7
  6
CONTINUOUS
 10
16.6508913174
 20
0.7081431483
 11
16.6505181852
 21
0.3402180054
  0
LINE
  5
326
100
AcDbEntity
  8
DRAFT
100
AcDbLine
 62
7
  6
CONTINUOUS
 10
16.6445444009
 20
0.7208379481
 11
16.6453274101
 21
0.9457043078
  0
LINE
  5
327
100
AcDbEntity
  8
ASSI
100
AcDbLine
 62
7
  6
CONTINUOUS
 10
16.6445444009
 20
0.7208379481
 11
16.6453274101
 21
0.9457043078
  0
LINE
  5
328
100
AcDbEntity
  8
RACCORDO
100
AcDbLine
 62
253
  6
CONTINUOUS
 10
16.8239010003
 20
-0.783445006
 11
16.8233544032
 21
-1.0690077486
  0
LINE
  5
329
100
AcDbEntity
  8
ASSI
100
AcDbLine
 62
253
  6
CONTINUOUS
 10
16.8239010003
 20
-0.783445006
 11
16.8233544032
 21
-1.0690077486
  0
LINE
  5
32A
100
AcDbEntity
  8
RACCORDO
100
AcDbLine
 62
7
  6
CONTINUOUS
 10
16.6075710038
 20
4.5428325165
 11
16.6079539556
 21
4.7122396719
  0
LINE
  5
32B
100
AcDbEntity
  8
RACCORDO
100
AcDbLine
 62
253
  6
CONTINUOUS
 10
16.6739066223
 20
-0.783558224
 11
16.6735032665
 21
-0.9573809026
  0
LINE
  5
32C
100
AcDbEntity
  8
ASSI
100
AcDbLine
 62
253
  6
CONTINUOUS
 10
16.6739066223
 20
-0.783558224
 11
16.6735032665
 21
-0.9573809026
  0
LINE
  5
32D
100
AcDbEntity
  8
DRAFT
100
AcDbLine
 62
7
  6
CONTINUOUS
 10
16.6440975118
 20
2.6249153259
 11
16.6459322143
 21
3.3102294957
  0
LINE
  5
32E
100
AcDbEntity
  8
ASSI
100
AcDbLine
 62
7
  6
CONTINUOUS
 10
16.6440975118
 20
2.6249153259
 11
16.6459322143
 21
3.3102294957
  0
LINE
  5
32F
100
AcDbEntity
  8
DRAFT
100
AcDbLine
 62
7
  6
CONTINUOUS
 10
16.6429060879
 20
2.4249701148
 11
16.6440975118
 21
2.6249153259
  0
LINE
  5
330
100
AcDbEntity
  8
ASSI
100
AcDbLine
 62
7
  6
CONTINUOUS
 10
16.6429060879
 20
2.4249701148
 11
16.6440975118
 21
2.6249153259
  0
LINE
  5
331
100
AcDbEntity
  8
RACCORDO
100
AcDbLine
 62
253
  6
CONTINUOUS
 10
16.8233544032
 20
-1.0690077486
 11
16.8226107236
 21
-1.1916284332
  0
LINE
  5
332
100
AcDbEntity
  8
ASSI
100
AcDbLine
 62
253
  6
CONTINUOUS
 10
16.8233544032
 20
-1.0690077486
 11
16.8226107236
 21
-1.1916284332
  0
LINE
  5
333
100
AcDbEntity
  8
RACCORDO
100
AcDbLine
 62
7
  6
CONTINUOUS
 10
16.5857068674
 20
5.9067872774
 11
16.5844513034
 21
5.7058230419
  0
LINE
  5
334
100
AcDbEntity
  8
RACCORDO
100
AcDbLine
 62
7
  6
CONTINUOUS
 10
16.6505181852
 20
0.3402180054
 11
16.649460007
 21
0.1722325867
  0
LINE
  5
335
100
AcDbEntity
  8
ASSI
100
AcDbLine
 62
7
  6
CONTINUOUS
 10
16.6505181852
 20
0.3402180054
 11
16.649460007
 21
0.1722325867
  0
LINE
  5
336
100
AcDbEntity
  8
RACCORDO
100
AcDbLine
 62
7
  6
CONTINUOUS
 10
16.6079539556
 20
4.7122396719
 11
16.6086919647
 21
4.8136135247
  0
LINE
  5
337
100
AcDbEntity
  8
RACCORDO
100
AcDbLine
 62
253
  6
CONTINUOUS
 10
16.6735032665
 20
-0.9573809026
 11
16.6728261695
 21
-1.0506024371
  0
LINE
  5
338
100
AcDbEntity
  8
ASSI
100
AcDbLine
 62
253
  6
CONTINUOUS
 10
16.6735032665
 20
-0.9573809026
 11
16.6728261695
 21
-1.0506024371
  0
LINE
  5
339
100
AcDbEntity
  8
RACCORDO
100
AcDbLine
 62
253
  6
CONTINUOUS
 10
16.8226107236
 20
-1.1916284332
 11
16.8221549679
 21
-1.2353855801
  0
LINE
  5
33A
100
AcDbEntity
  8
ASSI
100
AcDbLine
 62
253
  6
CONTINUOUS
 10
16.8226107236
 20
-1.1916284332
 11
16.8221549679
 21
-1.2353855801
  0
LWPOLYLINE
  5
33B
100
AcDbEntity
  8
RACCORDO
100
AcDbPolyline
 62
7
  6
CONTINUOUS
 90
7
 70
0
 10
16.649460007
 20
0.1722325867
 10
16.6487303609
 20
0.1108659496
 10
16.6483231526
 20
0.0867463172
 10
16.6479010101
 20
0.0677359279
 10
16.6474682714
 20
0.0540946864
 10
16.6470205984
 20
0.045562688
 10
16.6465579912
 20
0.0421399328
  0
LWPOLYLINE
  5
33C
100
AcDbEntity
  8
ASSI
100
AcDbPolyline
 62
7
  6
CONTINUOUS
 90
7
 70
0
 10
16.649460007
 20
0.1722325867
 10
16.6487303609
 20
0.1108659496
 10
16.6483231526
 20
0.0867463172
 10
16.6479010101
 20
0.0677359279
 10
16.6474682714
 20
0.0540946864
 10
16.6470205984
 20
0.045562688
 10
16.6465579912
 20
0.0421399328
  0
LINE
  5
33D
100
AcDbEntity
  8
RACCORDO
100
AcDbLine
 62
253
  6
CONTINUOUS
 10
16.6728261695
 20
-1.0506024371
 11
16.6723916773
 21
-1.0858478674
  0
LINE
  5
33E
100
AcDbEntity
  8
ASSI
100
AcDbLine
 62
253
  6
CONTINUOUS
 10
16.6728261695
 20
-1.0506024371
 11
16.6723916773
 21
-1.0858478674
  0
LWPOLYLINE
  5
33F
100
AcDbEntity
  8
RACCORDO
100
AcDbPolyline
 62
7
  6
CONTINUOUS
 90
5
 70
0
 10
16.6086919647
 20
4.8136135247
 10
16.6093466312
 20
4.8606815506
 10
16.6096993727
 20
4.87626712
 10
16.6100723464
 20
4.886824221
 10
16.6104655523
 20
4.8923528536
  0
LWPOLYLINE
  5
340
100
AcDbEntity
  8
RACCORDO
100
AcDbPolyline
 62
253
  6
CONTINUOUS
 90
5
 70
0
 10
16.8221549679
 20
-1.2353855801
 10
16.8216583194
 20
-1.2655721103
 10
16.8214026834
 20
-1.2752758901
 10
16.8211409641
 20
-1.2812800222
 10
16.8208731614
 20
-1.2835391855
  0
LWPOLYLINE
  5
341
100
AcDbEntity
  8
ASSI
100
AcDbPolyline
 62
253
  6
CONTINUOUS
 90
5
 70
0
 10
16.8221549679
 20
-1.2353855801
 10
16.8216583194
 20
-1.2655721103
 10
16.8214026834
 20
-1.2752758901
 10
16.8211409641
 20
-1.2812800222
 10
16.8208731614
 20
-1.2835391855
  0
LWPOLYLINE
  5
342
100
AcDbEntity
  8
RACCORDO
100
AcDbPolyline
 62
253
  6
CONTINUOUS
 90
6
 70
0
 10
16.6723916773
 20
-1.0858478674
 10
16.6719106282
 20
-1.1118219413
 10
16.6716590906
 20
-1.1211251733
 10
16.6714043104
 20
-1.1278048125
 10
16.6711442378
 20
-1.1319447205
 10
16.6708788729
 20
-1.1335448971
  0
LWPOLYLINE
  5
343
100
AcDbEntity
  8
ASSI
100
AcDbPolyline
 62
253
  6
CONTINUOUS
 90
6
 70
0
 10
16.6723916773
 20
-1.0858478674
 10
16.6719106282
 20
-1.1118219413
 10
16.6716590906
 20
-1.1211251733
 10
16.6714043104
 20
-1.1278048125
 10
16.6711442378
 20
-1.1319447205
 10
16.6708788729
 20
-1.1335448971
  0
LWPOLYLINE
  5
344
100
AcDbEntity
  8
RACCORDO
100
AcDbPolyline
 62
7
  6
CONTINUOUS
 90
13
 70
0
 10
16.6293881732
 20
6.0249758263
 10
16.6308500294
 20
6.0450809738
 10
16.634655917
 20
6.0642149064
 10
16.6408058361
 20
6.0823776244
 10
16.6494830963
 20
6.099843423
 10
16.660504388
 20
6.1163380068
 10
16.6733197824
 20
6.1310384898
 10
16.6880202655
 20
6.143853887
 10
16.7045148513
 20
6.1548751833
 10
16.7219806526
 20
6.1635524474
 10
16.7401433735
 20
6.1697023688
 10
16.7592773099
 20
6.1735082579
 10
16.7793824617
 20
6.1749701148
  0
LWPOLYLINE
  5
345
100
AcDbEntity
  8
ASSI
100
AcDbPolyline
 62
7
  6
CONTINUOUS
 90
13
 70
0
 10
16.6293881732
 20
6.0249758263
 10
16.6308500294
 20
6.0450809738
 10
16.634655917
 20
6.0642149064
 10
16.6408058361
 20
6.0823776244
 10
16.6494830963
 20
6.099843423
 10
16.660504388
 20
6.1163380068
 10
16.6733197824
 20
6.1310384898
 10
16.6880202655
 20
6.143853887
 10
16.7045148513
 20
6.1548751833
 10
16.7219806526
 20
6.1635524474
 10
16.7401433735
 20
6.1697023688
 10
16.7592773099
 20
6.1735082579
 10
16.7793824617
 20
6.1749701148
  0
LWPOLYLINE
  5
346
100
AcDbEntity
  8
RACCORDO
100
AcDbPolyline
 62
7
  6
CONTINUOUS
 90
7
 70
0
 10
16.5891531985
 20
6.0644940364
 10
16.5886032218
 20
6.0598962902
 10
16.588071198
 20
6.0492561849
 10
16.5875571272
 20
6.0325737206
 10
16.5870559225
 20
6.0095427958
 10
16.5865726707
 20
5.9804695119
 10
16.5857068674
 20
5.9067872774
  0
LINE
  5
347
100
AcDbEntity
  8
RACCORDO
100
AcDbLine
 62
7
  6
CONTINUOUS
 10
16.6293881732
 20
5.005989563
 11
16.6104655523
 21
4.8923528536
  0
LWPOLYLINE
  5
348
100
AcDbEntity
  8
RACCORDO
100
AcDbPolyline
 62
253
  6
CONTINUOUS
 90
8
 70
0
 10
15.4366544207
 20
0.2416704182
 10
15.4372078381
 20
0.2436866569
 10
15.437744106
 20
0.2487832859
 10
15.4382632244
 20
0.2569603052
 10
15.4387707054
 20
0.2683748591
 10
15.4392610368
 20
0.2828698034
 10
15.4397176827
 20
0.2999737052
 10
15.4405271371
 20
0.3421755999
  0
LWPOLYLINE
  5
349
100
AcDbEntity
  8
ASSI
100
AcDbPolyline
 62
253
  6
CONTINUOUS
 90
8
 70
0
 10
15.4366544207
 20
0.2416704182
 10
15.4372078381
 20
0.2436866569
 10
15.437744106
 20
0.2487832859
 10
15.4382632244
 20
0.2569603052
 10
15.4387707054
 20
0.2683748591
 10
15.4392610368
 20
0.2828698034
 10
15.4397176827
 20
0.2999737052
 10
15.4405271371
 20
0.3421755999
  0
LINE
  5
34A
100
AcDbEntity
  8
RACCORDO
100
AcDbLine
 62
7
  6
CONTINUOUS
 10
15.5972362975
 20
-0.042412624
 11
15.5593881732
 21
-0.1560493334
  0
LINE
  5
34B
100
AcDbEntity
  8
RACCORDO
100
AcDbLine
 62
7
  6
CONTINUOUS
 10
16.6293881732
 20
6.1449701148
 11
16.5891531985
 21
6.0644940364
  0
LINE
  5
34C
100
AcDbEntity
  8
DRAFT
100
AcDbLine
 62
7
  6
CONTINUOUS
 10
16.6508913174
 20
4.1417970813
 11
16.6445444009
 21
4.1291022815
  0
LINE
  5
34D
100
AcDbEntity
  8
ASSI
100
AcDbLine
 62
7
  6
CONTINUOUS
 10
16.6508913174
 20
4.1417970813
 11
16.6445444009
 21
4.1291022815
  0
LWPOLYLINE
  5
34E
100
AcDbEntity
  8
0
100
AcDbPolyline
 62
7
  6
CONTINUOUS
 90
40
 70
0
 10
14.1978033043
 20
2.0428316553
 10
14.2165775886
 20
2.0714299883
 10
14.2371059866
 20
2.0986466555
 10
14.2593884983
 20
2.1245011128
 10
14.2834431017
 20
2.1492348094
 10
14.3092518188
 20
2.1726445575
 10
14.3367607158
 20
2.1941009639
 10
14.3661596653
 20
2.2136529453
 10
14.3972587947
 20
2.2313265503
 10
14.4294345521
 20
2.2464876838
 10
14.4626055417
 20
2.2590506017
 10
14.4968531593
 20
2.2691857949
 10
14.531798041
 20
2.2766531943
 10
14.5673383619
 20
2.2815129342
 10
14.6035759468
 20
2.2837492609
 10
14.640436906
 20
2.282999447
 10
14.678037698
 20
2.2793593152
 10
14.7162618642
 20
2.2727148485
 10
14.7546861396
 20
2.2623648893
 10
14.7935298703
 20
2.2482038685
 10
14.8325737102
 20
2.2302173482
 10
14.8707363545
 20
2.2077982708
 10
14.9081614796
 20
2.1804418758
 10
14.9447054092
 20
2.1484050909
 10
14.9788558095
 20
2.1122141246
 10
15.0102213336
 20
2.0718187088
 10
15.0391933284
 20
2.0270402309
 10
15.0654335004
 20
1.9782572807
 10
15.0889021609
 20
1.9251563716
 10
15.1096389987
 20
1.8679059842
 10
15.1274247871
 20
1.8076914678
 10
15.1421591603
 20
1.7447752827
 10
15.1539424841
 20
1.6789568684
 10
15.1628566283
 20
1.6108106646
 10
15.169038826
 20
1.5403689967
 10
15.1723518441
 20
1.4678056878
 10
15.1724658534
 20
1.3939555741
 10
15.1692709109
 20
1.3192075855
 10
15.1628769597
 20
1.2434998323
 10
15.1532839996
 20
1.1670185884
  0
LINE
  5
34F
100
AcDbEntity
  8
RACCORDO
100
AcDbLine
 62
7
  6
CONTINUOUS
 10
16.6293881732
 20
-1.2950298852
 11
16.5891531985
 21
-1.2145538068
  0
LINE
  5
350
100
AcDbEntity
  8
DRAFT
100
AcDbLine
 62
7
  6
CONTINUOUS
 10
16.6445444009
 20
0.7208379481
 11
16.6508913174
 21
0.7081431483
  0
LINE
  5
351
100
AcDbEntity
  8
ASSI
100
AcDbLine
 62
7
  6
CONTINUOUS
 10
16.6445444009
 20
0.7208379481
 11
16.6508913174
 21
0.7081431483
  0
LINE
  5
352
100
AcDbEntity
  8
RACCORDO
100
AcDbLine
 62
7
  6
CONTINUOUS
 10
15.5972362975
 20
4.8923528536
 11
15.5593881732
 21
5.005989563
  0
LINE
  5
353
100
AcDbEntity
  8
RACCORDO
100
AcDbLine
 62
7
  6
CONTINUOUS
 10
16.6293881732
 20
-0.1560493334
 11
16.6104655523
 21
-0.042412624
  0
LWPOLYLINE
  5
354
100
AcDbEntity
  8
RACCORDO
100
AcDbPolyline
 62
7
  6
CONTINUOUS
 90
7
 70
0
 10
15.5972362975
 20
4.8923528536
 10
15.5980228228
 20
4.8868232883
 10
15.5987688678
 20
4.8762651105
 10
15.5994744324
 20
4.8606783202
 10
15.6001493964
 20
4.8396569306
 10
15.6007838801
 20
4.8136069285
 10
15.601348244
 20
4.7837462749
  0
LWPOLYLINE
  5
355
100
AcDbEntity
  8
RACCORDO
100
AcDbPolyline
 62
7
  6
CONTINUOUS
 90
5
 70
0
 10
16.6465579912
 20
4.8078002969
 10
16.6470205969
 20
4.8043775908
 10
16.6474682689
 20
4.7958456293
 10
16.6479010072
 20
4.7822044123
 10
16.6483231499
 20
4.7631940406
  0
LWPOLYLINE
  5
356
100
AcDbEntity
  8
ASSI
100
AcDbPolyline
 62
7
  6
CONTINUOUS
 90
5
 70
0
 10
16.6465579912
 20
4.8078002969
 10
16.6470205969
 20
4.8043775908
 10
16.6474682689
 20
4.7958456293
 10
16.6479010072
 20
4.7822044123
 10
16.6483231499
 20
4.7631940406
  0
LWPOLYLINE
  5
357
100
AcDbEntity
  8
RACCORDO
100
AcDbPolyline
 62
253
  6
CONTINUOUS
 90
4
 70
0
 10
16.8208731614
 20
6.1334794151
 10
16.8211411845
 20
6.131216809
 10
16.821403075
 20
6.1252043092
 10
16.8216588329
 20
6.1154891736
  0
LWPOLYLINE
  5
358
100
AcDbEntity
  8
ASSI
100
AcDbPolyline
 62
253
  6
CONTINUOUS
 90
4
 70
0
 10
16.8208731614
 20
6.1334794151
 10
16.8211411845
 20
6.131216809
 10
16.821403075
 20
6.1252043092
 10
16.8216588329
 20
6.1154891736
  0
LINE
  5
359
100
AcDbEntity
  8
DRAFT
100
AcDbLine
 62
7
  6
CONTINUOUS
 10
17.4258971602
 20
5.3784611278
 11
17.4258971602
 21
-0.5285208982
  0
LINE
  5
35A
100
AcDbEntity
  8
ASSI
100
AcDbLine
 62
7
  6
CONTINUOUS
 10
17.4258971602
 20
5.3784611278
 11
17.4258971602
 21
-0.5285208982
  0
LINE
  5
35B
100
AcDbEntity
  8
DRAFT
100
AcDbLine
 62
7
  6
CONTINUOUS
 10
17.4293881732
 20
5.3749701148
 11
17.4293881732
 21
-0.5250298852
  0
LINE
  5
35C
100
AcDbEntity
  8
ASSI
100
AcDbLine
 62
7
  6
CONTINUOUS
 10
17.4293881732
 20
5.3749701148
 11
17.4293881732
 21
-0.5250298852
  0
LINE
  5
35D
100
AcDbEntity
  8
CURVE
100
AcDbLine
 62
253
  6
CONTINUOUS
 10
18.5293881911
 20
1.4249701148
 11
18.5293881911
 21
2.8249701148
  0
LINE
  5
35E
100
AcDbEntity
  8
RACCORDO
100
AcDbLine
 62
7
  6
CONTINUOUS
 10
15.4335203399
 20
4.1291022815
 11
15.4418571892
 21
4.1374391308
  0
LINE
  5
35F
100
AcDbEntity
  8
ASSI
100
AcDbLine
 62
7
  6
CONTINUOUS
 10
15.4335203399
 20
4.1291022815
 11
15.4418571892
 21
4.1374391308
  0
LINE
  5
360
100
AcDbEntity
  8
RACCORDO
100
AcDbLine
 62
7
  6
CONTINUOUS
 10
15.4418571892
 20
0.7125010989
 11
15.4335203399
 21
0.7208379481
  0
LINE
  5
361
100
AcDbEntity
  8
ASSI
100
AcDbLine
 62
7
  6
CONTINUOUS
 10
15.4418571892
 20
0.7125010989
 11
15.4335203399
 21
0.7208379481
  0
LINE
  5
362
100
AcDbEntity
  8
SCRITTE
100
AcDbLine
 62
253
  6
CONTINUOUS
 10
18.929388209
 20
-0.2750298852
 11
18.1293881732
 21
1.1249701148
  0
LWPOLYLINE
  5
363
100
AcDbEntity
  8
RACCORDO
100
AcDbPolyline
 62
253
  6
CONTINUOUS
 90
5
 70
0
 10
16.6708788729
 20
5.9834851267
 10
16.6711444521
 20
5.9818805435
 10
16.6714046921
 20
5.9777353963
 10
16.6716595928
 20
5.9710496851
 10
16.67191119
 20
5.9617396075
  0
LWPOLYLINE
  5
364
100
AcDbEntity
  8
ASSI
100
AcDbPolyline
 62
253
  6
CONTINUOUS
 90
5
 70
0
 10
16.6708788729
 20
5.9834851267
 10
16.6711444521
 20
5.9818805435
 10
16.6714046921
 20
5.9777353963
 10
16.6716595928
 20
5.9710496851
 10
16.67191119
 20
5.9617396075
  0
LINE
  5
365
100
AcDbEntity
  8
SCRITTE
100
AcDbLine
 62
253
  6
CONTINUOUS
 10
19.1293881732
 20
6.1679886206
 11
19.1293881732
 21
6.1557710057
  0
LINE
  5
366
100
AcDbEntity
  8
CURVE
100
AcDbLine
 62
253
  6
CONTINUOUS
 10
19.3293881852
 20
1.4249701148
 11
19.3293881852
 21
2.8249701148
  0
LINE
  5
367
100
AcDbEntity
  8
CURVE
100
AcDbLine
 62
253
  6
CONTINUOUS
 10
19.7293882448
 20
2.4249701386
 11
19.7293882448
 21
1.8249701327
  0
LINE
  5
368
100
AcDbEntity
  8
SCRITTE
100
AcDbLine
 62
253
  6
CONTINUOUS
 10
19.929388209
 20
6.1557710057
 11
19.929388209
 21
6.1679886206
  0
LINE
  5
369
100
AcDbEntity
  8
0
100
AcDbLine
 62
7
  6
CONTINUOUS
 10
19.9678861732
 20
4.8426341148
 11
19.9678861732
 21
3.1426691148
  0
LINE
  5
36A
100
AcDbEntity
  8
ASSI
100
AcDbLine
 62
7
  6
CONTINUOUS
 10
19.9678861732
 20
4.8426341148
 11
19.9678861732
 21
3.1426691148
  0
LINE
  5
36B
100
AcDbEntity
  8
0
100
AcDbLine
 62
7
  6
CONTINUOUS
 10
19.4816221732
 20
4.8425321148
 11
19.1477001732
 21
3.6724641148
  0
LINE
  5
36C
100
AcDbEntity
  8
ASSI
100
AcDbLine
 62
7
  6
CONTINUOUS
 10
19.4816221732
 20
4.8425321148
 11
19.1477001732
 21
3.6724641148
  0
LINE
  5
36D
100
AcDbEntity
  8
0
100
AcDbLine
 62
7
  6
CONTINUOUS
 10
19.2898041732
 20
3.1426691148
 11
19.8362081732
 21
4.8425321148
  0
LINE
  5
36E
100
AcDbEntity
  8
ASSI
100
AcDbLine
 62
7
  6
CONTINUOUS
 10
19.2898041732
 20
3.1426691148
 11
19.8362081732
 21
4.8425321148
  0
LINE
  5
36F
100
AcDbEntity
  8
RACCORDO
100
AcDbLine
 62
7
  6
CONTINUOUS
 10
13.6384440718
 20
0.0340260134
 11
13.6293881732
 21
0.0249701148
  0
LINE
  5
370
100
AcDbEntity
  8
ASSI
100
AcDbLine
 62
7
  6
CONTINUOUS
 10
13.6384440718
 20
0.0340260134
 11
13.6293881732
 21
0.0249701148
  0
LWPOLYLINE
  5
371
100
AcDbEntity
  8
RACCORDO
100
AcDbPolyline
 62
7
  6
CONTINUOUS
 90
6
 70
0
 10
15.5194639425
 20
0.0638824384
 10
15.5347829329
 20
0.0553217079
 10
15.5507646478
 20
0.048047155
 10
15.5674090874
 20
0.0421752835
 10
15.5847162515
 20
0.0378157247
 10
15.6007602627
 20
0.0353636401
  0
LWPOLYLINE
  5
372
100
AcDbEntity
  8
ASSI
100
AcDbPolyline
 62
7
  6
CONTINUOUS
 90
6
 70
0
 10
15.5194639425
 20
0.0638824384
 10
15.5347829329
 20
0.0553217079
 10
15.5507646478
 20
0.048047155
 10
15.5674090874
 20
0.0421752835
 10
15.5847162515
 20
0.0378157247
 10
15.6007602627
 20
0.0353636401
  0
LWPOLYLINE
  5
373
100
AcDbEntity
  8
RACCORDO
100
AcDbPolyline
 62
7
  6
CONTINUOUS
 90
16
 70
0
 10
15.5194639425
 20
0.0638824384
 10
15.5089975176
 20
0.070918719
 10
15.4990011528
 20
0.0786279653
 10
15.4895167626
 20
0.0869801618
 10
15.4806136649
 20
0.095913718
 10
15.4722965187
 20
0.1054188731
 10
15.4645243917
 20
0.1155553758
 10
15.4573645847
 20
0.1262727467
 10
15.4508503113
 20
0.1375633723
 10
15.4449409582
 20
0.1495817371
 10
15.4397192075
 20
0.1623205651
 10
15.4352818634
 20
0.1757343184
 10
15.4316795904
 20
0.1899387215
 10
15.4290292911
 20
0.2049415511
 10
15.4274763547
 20
0.2206282984
 10
15.427148615
 20
0.2369178774
  0
LWPOLYLINE
  5
374
100
AcDbEntity
  8
ASSI
100
AcDbPolyline
 62
7
  6
CONTINUOUS
 90
16
 70
0
 10
15.5194639425
 20
0.0638824384
 10
15.5089975176
 20
0.070918719
 10
15.4990011528
 20
0.0786279653
 10
15.4895167626
 20
0.0869801618
 10
15.4806136649
 20
0.095913718
 10
15.4722965187
 20
0.1054188731
 10
15.4645243917
 20
0.1155553758
 10
15.4573645847
 20
0.1262727467
 10
15.4508503113
 20
0.1375633723
 10
15.4449409582
 20
0.1495817371
 10
15.4397192075
 20
0.1623205651
 10
15.4352818634
 20
0.1757343184
 10
15.4316795904
 20
0.1899387215
 10
15.4290292911
 20
0.2049415511
 10
15.4274763547
 20
0.2206282984
 10
15.427148615
 20
0.2369178774
  0
LINE
  5
375
100
AcDbEntity
  8
RACCORDO
100
AcDbLine
 62
7
  6
CONTINUOUS
 10
13.6384440718
 20
4.8159142162
 11
13.6293881732
 21
4.8249701148
  0
LINE
  5
376
100
AcDbEntity
  8
ASSI
100
AcDbLine
 62
7
  6
CONTINUOUS
 10
13.6384440718
 20
4.8159142162
 11
13.6293881732
 21
4.8249701148
  0
LINE
  5
377
100
AcDbEntity
  8
SCRITTE
100
AcDbLine
 62
253
  6
CONTINUOUS
 10
20.1293882209
 20
-0.2750298852
 11
19.3293881852
 21
1.1249701148
  0
LINE
  5
378
100
AcDbEntity
  8
0
100
AcDbLine
 62
7
  6
CONTINUOUS
 10
18.4382221732
 20
4.8425321148
 11
18.9771121732
 21
3.1426691148
  0
LINE
  5
379
100
AcDbEntity
  8
ASSI
100
AcDbLine
 62
7
  6
CONTINUOUS
 10
18.4382221732
 20
4.8425321148
 11
18.9771121732
 21
3.1426691148
  0
LINE
  5
37A
100
AcDbEntity
  8
0
100
AcDbLine
 62
7
  6
CONTINUOUS
 10
19.1477001732
 20
3.6724641148
 11
18.8236751732
 21
4.8425321148
  0
LINE
  5
37B
100
AcDbEntity
  8
ASSI
100
AcDbLine
 62
7
  6
CONTINUOUS
 10
19.1477001732
 20
3.6724641148
 11
18.8236751732
 21
4.8425321148
  0
LINE
  5
37C
100
AcDbEntity
  8
0
100
AcDbLine
 62
7
  6
CONTINUOUS
 10
20.3227141732
 20
3.1426691148
 11
20.3227141732
 21
4.8426341148
  0
LINE
  5
37D
100
AcDbEntity
  8
ASSI
100
AcDbLine
 62
7
  6
CONTINUOUS
 10
20.3227141732
 20
3.1426691148
 11
20.3227141732
 21
4.8426341148
  0
LINE
  5
37E
100
AcDbEntity
  8
CURVE
100
AcDbLine
 62
253
  6
CONTINUOUS
 10
20.4293882448
 20
1.8249701327
 11
20.4293882448
 21
2.4249701386
  0
LINE
  5
37F
100
AcDbEntity
  8
SCRITTE
100
AcDbLine
 62
253
  6
CONTINUOUS
 10
20.9293881732
 20
-0.2750298852
 11
20.9293881732
 21
0.5249701506
  0
LINE
  5
380
100
AcDbEntity
  8
SCRITTE
100
AcDbLine
 62
253
  6
CONTINUOUS
 10
21.5293881971
 20
6.1679886206
 11
21.5293881971
 21
6.1557710057
  0
LINE
  5
381
100
AcDbEntity
  8
0
100
AcDbLine
 62
7
  6
CONTINUOUS
 10
20.8531841732
 20
3.1426691148
 11
20.9297561732
 21
4.2526481148
  0
LINE
  5
382
100
AcDbEntity
  8
ASSI
100
AcDbLine
 62
7
  6
CONTINUOUS
 10
20.8531841732
 20
3.1426691148
 11
20.9297561732
 21
4.2526481148
  0
LINE
  5
383
100
AcDbEntity
  8
0
100
AcDbLine
 62
7
  6
CONTINUOUS
 10
20.6672161732
 20
4.8425321148
 11
20.5137291732
 21
3.1426691148
  0
LINE
  5
384
100
AcDbEntity
  8
ASSI
100
AcDbLine
 62
7
  6
CONTINUOUS
 10
20.6672161732
 20
4.8425321148
 11
20.5137291732
 21
3.1426691148
  0
LINE
  5
385
100
AcDbEntity
  8
0
100
AcDbLine
 62
7
  6
CONTINUOUS
 10
21.7276601732
 20
4.8425321148
 11
21.3728321732
 21
3.8987631148
  0
LINE
  5
386
100
AcDbEntity
  8
ASSI
100
AcDbLine
 62
7
  6
CONTINUOUS
 10
21.7276601732
 20
4.8425321148
 11
21.3728321732
 21
3.8987631148
  0
LINE
  5
387
100
AcDbEntity
  8
CURVE
100
AcDbLine
 62
253
  6
CONTINUOUS
 10
19.8293881971
 20
2.6249701267
 11
19.7293882448
 21
2.4249701386
  0
LINE
  5
388
100
AcDbEntity
  8
CURVE
100
AcDbLine
 62
253
  6
CONTINUOUS
 10
20.3293881256
 20
1.6249701237
 11
20.4293882448
 21
1.8249701327
  0
LINE
  5
389
100
AcDbEntity
  8
SCRITTE
100
AcDbLine
 62
253
  6
CONTINUOUS
 10
18.929388209
 20
1.1249701148
 11
18.1293881732
 21
-0.2750298852
  0
LINE
  5
38A
100
AcDbEntity
  8
CURVE
100
AcDbLine
 62
253
  6
CONTINUOUS
 10
18.5293881911
 20
2.8249701148
 11
18.1293881732
 21
2.4249701386
  0
LINE
  5
38B
100
AcDbEntity
  8
RACCORDO
100
AcDbLine
 62
253
  6
CONTINUOUS
 10
15.6398642516
 20
5.4645854193
 11
15.5593881732
 21
5.5450614977
  0
LINE
  5
38C
100
AcDbEntity
  8
CURVE
100
AcDbLine
 62
253
  6
CONTINUOUS
 10
19.8293881971
 20
1.6249701237
 11
20.0293881017
 21
1.4249701148
  0
LINE
  5
38D
100
AcDbEntity
  8
RACCORDO
100
AcDbLine
 62
7
  6
CONTINUOUS
 10
16.6293881732
 20
4.8249701148
 11
16.6465579912
 21
4.8078002969
  0
LINE
  5
38E
100
AcDbEntity
  8
ASSI
100
AcDbLine
 62
7
  6
CONTINUOUS
 10
16.6293881732
 20
4.8249701148
 11
16.6465579912
 21
4.8078002969
  0
LINE
  5
38F
100
AcDbEntity
  8
SCRITTE
100
AcDbLine
 62
253
  6
CONTINUOUS
 10
20.9293881732
 20
0.5249701506
 11
20.5293881971
 21
1.1249701148
  0
LINE
  5
390
100
AcDbEntity
  8
CURVE
100
AcDbLine
 62
253
  6
CONTINUOUS
 10
19.7293882448
 20
1.8249701327
 11
19.8293881971
 21
1.6249701237
  0
LINE
  5
391
100
AcDbEntity
  8
CURVE
100
AcDbLine
 62
253
  6
CONTINUOUS
 10
20.4293882448
 20
2.4249701386
 11
20.3293881256
 21
2.6249701267
  0
LINE
  5
392
100
AcDbEntity
  8
0
100
AcDbLine
 62
7
  6
CONTINUOUS
 10
22.2376841732
 20
3.1426691148
 11
22.0787271732
 21
4.8425321148
  0
LINE
  5
393
100
AcDbEntity
  8
ASSI
100
AcDbLine
 62
7
  6
CONTINUOUS
 10
22.2376841732
 20
3.1426691148
 11
22.0787271732
 21
4.8425321148
  0
LINE
  5
394
100
AcDbEntity
  8
0
100
AcDbLine
 62
7
  6
CONTINUOUS
 10
21.8176671732
 20
4.2480211148
 11
21.8905681732
 21
3.1426691148
  0
LINE
  5
395
100
AcDbEntity
  8
ASSI
100
AcDbLine
 62
7
  6
CONTINUOUS
 10
21.8176671732
 20
4.2480211148
 11
21.8905681732
 21
3.1426691148
  0
LINE
  5
396
100
AcDbEntity
  8
SCRITTE
100
AcDbLine
 62
253
  6
CONTINUOUS
 10
22.1293882686
 20
-0.2750298852
 11
22.1293882686
 21
0.5249701506
  0
LINE
  5
397
100
AcDbEntity
  8
SCRITTE
100
AcDbLine
 62
253
  6
CONTINUOUS
 10
22.2293880302
 20
6.1575163793
 11
22.2293880302
 21
6.1662432471
  0
LINE
  5
398
100
AcDbEntity
  8
CURVE
100
AcDbLine
 62
253
  6
CONTINUOUS
 10
22.5293880779
 20
2.6249701267
 11
22.5293880779
 21
2.4249701386
  0
LINE
  5
399
100
AcDbEntity
  8
SCRITTE
100
AcDbLine
 62
253
  6
CONTINUOUS
 10
22.7960548717
 20
6.1679886206
 11
22.7960548717
 21
6.1557710057
  0
LINE
  5
39A
100
AcDbEntity
  8
CURVE
100
AcDbLine
 62
253
  6
CONTINUOUS
 10
22.9293882209
 20
2.8249701148
 11
22.9293882209
 21
2.2249701506
  0
LINE
  5
39B
100
AcDbEntity
  8
0
100
AcDbLine
 62
7
  6
CONTINUOUS
 10
22.8148721732
 20
3.7446121148
 11
22.9915461732
 21
4.3754531148
  0
LINE
  5
39C
100
AcDbEntity
  8
ASSI
100
AcDbLine
 62
7
  6
CONTINUOUS
 10
22.8148721732
 20
3.7446121148
 11
22.9915461732
 21
4.3754531148
  0
LINE
  5
39D
100
AcDbEntity
  8
0
100
AcDbLine
 62
7
  6
CONTINUOUS
 10
22.6443791732
 20
3.1426691148
 11
22.7422901732
 21
3.4820221148
  0
LINE
  5
39E
100
AcDbEntity
  8
ASSI
100
AcDbLine
 62
7
  6
CONTINUOUS
 10
22.6443791732
 20
3.1426691148
 11
22.7422901732
 21
3.4820221148
  0
LINE
  5
39F
100
AcDbEntity
  8
0
100
AcDbLine
 62
7
  6
CONTINUOUS
 10
22.8265861732
 20
4.8425321148
 11
22.2934011732
 21
3.1426691148
  0
LINE
  5
3A0
100
AcDbEntity
  8
ASSI
100
AcDbLine
 62
7
  6
CONTINUOUS
 10
22.8265861732
 20
4.8425321148
 11
22.2934011732
 21
3.1426691148
  0
LINE
  5
3A1
100
AcDbEntity
  8
0
100
AcDbLine
 62
7
  6
CONTINUOUS
 10
21.3957761732
 20
3.1426691148
 11
21.8176671732
 21
4.2480211148
  0
LINE
  5
3A2
100
AcDbEntity
  8
ASSI
100
AcDbLine
 62
7
  6
CONTINUOUS
 10
21.3957761732
 20
3.1426691148
 11
21.8176671732
 21
4.2480211148
  0
LINE
  5
3A3
100
AcDbEntity
  8
SCRITTE
100
AcDbLine
 62
253
  6
CONTINUOUS
 10
20.1293882209
 20
1.1249701148
 11
19.3293881852
 21
-0.2750298852
  0
LINE
  5
3A4
100
AcDbEntity
  8
CURVE
100
AcDbLine
 62
253
  6
CONTINUOUS
 10
21.8293880779
 20
2.524970091
 11
22.0293883163
 21
2.8249701148
  0
LINE
  5
3A5
100
AcDbEntity
  8
RACCORDO
100
AcDbLine
 62
253
  6
CONTINUOUS
 10
15.5593881732
 20
-0.6951212681
 11
15.6398642516
 21
-0.6146451897
  0
LINE
  5
3A6
100
AcDbEntity
  8
CURVE
100
AcDbLine
 62
253
  6
CONTINUOUS
 10
19.3293881852
 20
2.8249701148
 11
18.929388209
 21
2.4249701386
  0
LINE
  5
3A7
100
AcDbEntity
  8
RACCORDO
100
AcDbLine
 62
7
  6
CONTINUOUS
 10
16.6465579912
 20
0.0421399328
 11
16.6293881732
 21
0.0249701148
  0
LINE
  5
3A8
100
AcDbEntity
  8
ASSI
100
AcDbLine
 62
7
  6
CONTINUOUS
 10
16.6465579912
 20
0.0421399328
 11
16.6293881732
 21
0.0249701148
  0
LINE
  5
3A9
100
AcDbEntity
  8
CURVE
100
AcDbLine
 62
253
  6
CONTINUOUS
 10
20.0293881017
 20
2.8249701148
 11
19.8293881971
 21
2.6249701267
  0
LINE
  5
3AA
100
AcDbEntity
  8
RACCORDO
100
AcDbLine
 62
253
  6
CONTINUOUS
 10
16.1592967903
 20
-1.2950298852
 11
16.2397728687
 21
-1.2145538068
  0
LINE
  5
3AB
100
AcDbEntity
  8
RACCORDO
100
AcDbLine
 62
253
  6
CONTINUOUS
 10
16.6708788729
 20
-1.1335448971
 11
16.6293881732
 21
-1.1750355967
  0
LINE
  5
3AC
100
AcDbEntity
  8
ASSI
100
AcDbLine
 62
253
  6
CONTINUOUS
 10
16.6708788729
 20
-1.1335448971
 11
16.6293881732
 21
-1.1750355967
  0
LINE
  5
3AD
100
AcDbEntity
  8
DRAFT
100
AcDbLine
 62
7
  6
CONTINUOUS
 10
17.4258971602
 20
-0.5285208982
 11
17.4293881732
 21
-0.5250298852
  0
LINE
  5
3AE
100
AcDbEntity
  8
RACCORDO
100
AcDbLine
 62
253
  6
CONTINUOUS
 10
16.8208731614
 20
-1.2835391855
 11
16.7793824617
 21
-1.3250298852
  0
LINE
  5
3AF
100
AcDbEntity
  8
ASSI
100
AcDbLine
 62
253
  6
CONTINUOUS
 10
16.8208731614
 20
-1.2835391855
 11
16.7793824617
 21
-1.3250298852
  0
LINE
  5
3B0
100
AcDbEntity
  8
RACCORDO
100
AcDbLine
 62
7
  6
CONTINUOUS
 10
49.2464560175
 20
0.5896024546
 11
49.1942357202
 21
0.5794609754
  0
LINE
  5
3B1
100
AcDbEntity
  8
ASSI
100
AcDbLine
 62
7
  6
CONTINUOUS
 10
49.2464560175
 20
0.5896024546
 11
49.1942357202
 21
0.5794609754
  0
LWPOLYLINE
  5
3B2
100
AcDbEntity
  8
RACCORDO
100
AcDbPolyline
 62
7
  6
CONTINUOUS
 90
6
 70
0
 10
49.2327583785
 20
-0.473345296
 10
49.2303503466
 20
-0.4736534365
 10
49.225508741
 20
-0.4739357077
 10
49.2182335617
 20
-0.4741921097
 10
49.2081787309
 20
-0.4744284716
 10
49.1956903264
 20
-0.4746389642
  0
LINE
  5
3B3
100
AcDbEntity
  8
RACCORDO
100
AcDbLine
 62
253
  6
CONTINUOUS
 10
16.2397728687
 20
6.0644940364
 11
16.1592967903
 21
6.1449701148
  0
LINE
  5
3B4
100
AcDbEntity
  8
RACCORDO
100
AcDbLine
 62
253
  6
CONTINUOUS
 10
16.6293881732
 20
6.0249758263
 11
16.6708788729
 21
5.9834851267
  0
LINE
  5
3B5
100
AcDbEntity
  8
ASSI
100
AcDbLine
 62
253
  6
CONTINUOUS
 10
16.6293881732
 20
6.0249758263
 11
16.6708788729
 21
5.9834851267
  0
LINE
  5
3B6
100
AcDbEntity
  8
DRAFT
100
AcDbLine
 62
7
  6
CONTINUOUS
 10
17.4258971602
 20
5.3784611278
 11
17.4293881732
 21
5.3749701148
  0
LINE
  5
3B7
100
AcDbEntity
  8
RACCORDO
100
AcDbLine
 62
253
  6
CONTINUOUS
 10
16.7793824617
 20
6.1749701148
 11
16.8208731614
 21
6.1334794151
  0
LINE
  5
3B8
100
AcDbEntity
  8
ASSI
100
AcDbLine
 62
253
  6
CONTINUOUS
 10
16.7793824617
 20
6.1749701148
 11
16.8208731614
 21
6.1334794151
  0
LINE
  5
3B9
100
AcDbEntity
  8
CURVE
100
AcDbLine
 62
253
  6
CONTINUOUS
 10
20.3293881256
 20
2.6249701267
 11
20.1293882209
 21
2.8249701148
  0
LINE
  5
3BA
100
AcDbEntity
  8
SCRITTE
100
AcDbLine
 62
253
  6
CONTINUOUS
 10
22.1293882686
 20
0.5249701506
 11
21.7293881256
 21
1.1249701148
  0
LINE
  5
3BB
100
AcDbEntity
  8
0
100
AcDbLine
 62
7
  6
CONTINUOUS
 10
20.9297561732
 20
4.2526481148
 11
21.3460121732
 21
3.1426691148
  0
LINE
  5
3BC
100
AcDbEntity
  8
ASSI
100
AcDbLine
 62
7
  6
CONTINUOUS
 10
20.9297561732
 20
4.2526481148
 11
21.3460121732
 21
3.1426691148
  0
LINE
  5
3BD
100
AcDbEntity
  8
0
100
AcDbLine
 62
7
  6
CONTINUOUS
 10
21.3728321732
 20
3.8987631148
 11
21.0217511732
 21
4.8425321148
  0
LINE
  5
3BE
100
AcDbEntity
  8
ASSI
100
AcDbLine
 62
7
  6
CONTINUOUS
 10
21.3728321732
 20
3.8987631148
 11
21.0217511732
 21
4.8425321148
  0
LINE
  5
3BF
100
AcDbEntity
  8
CURVE
100
AcDbLine
 62
253
  6
CONTINUOUS
 10
23.5293882686
 20
2.0249701208
 11
23.5293882686
 21
1.6249701237
  0
LINE
  5
3C0
100
AcDbEntity
  8
0
100
AcDbLine
 62
7
  6
CONTINUOUS
 10
23.7955948372
 20
4.822672197
 11
23.7955948372
 21
3.1426694281
  0
LINE
  5
3C1
100
AcDbEntity
  8
ASSI
100
AcDbLine
 62
7
  6
CONTINUOUS
 10
23.7955948372
 20
4.822672197
 11
23.7955948372
 21
3.1426694281
  0
LINE
  5
3C2
100
AcDbEntity
  8
CURVE
100
AcDbLine
 62
253
  6
CONTINUOUS
 10
23.9293880779
 20
2.4249701386
 11
23.9293880779
 21
1.8249701327
  0
LINE
  5
3C3
100
AcDbEntity
  8
0
100
AcDbLine
 62
7
  6
CONTINUOUS
 10
24.1372296049
 20
4.0862982833
 11
24.1372296049
 21
4.5529437658
  0
LINE
  5
3C4
100
AcDbEntity
  8
ASSI
100
AcDbLine
 62
7
  6
CONTINUOUS
 10
24.1372296049
 20
4.0862982833
 11
24.1372296049
 21
4.5529437658
  0
LINE
  5
3C5
100
AcDbEntity
  8
0
100
AcDbLine
 62
7
  6
CONTINUOUS
 10
24.1489951692
 20
3.1426694281
 11
24.1489951692
 21
3.8079018307
  0
LINE
  5
3C6
100
AcDbEntity
  8
ASSI
100
AcDbLine
 62
7
  6
CONTINUOUS
 10
24.1489951692
 20
3.1426694281
 11
24.1489951692
 21
3.8079018307
  0
LWPOLYLINE
  5
3C7
100
AcDbEntity
  8
0
100
AcDbPolyline
 62
7
  6
CONTINUOUS
 90
16
 70
0
 10
24.6156406517
 20
4.350456236
 10
24.6138313859
 20
4.3170160203
 10
24.6093263334
 20
4.2854900049
 10
24.6021254944
 20
4.2558781896
 10
24.5920521117
 20
4.2278918834
 10
24.5792829424
 20
4.2018197775
 10
24.5643482576
 20
4.1785279453
 10
24.5474107034
 20
4.1583810241
 10
24.5283076338
 20
4.1410143766
 10
24.5070813819
 20
4.1262001645
 10
24.4835687031
 20
4.1140165923
 10
24.457932842
 20
4.1043854554
 10
24.4307058662
 20
4.0968443013
 10
24.4020651314
 20
4.0912389792
 10
24.3718332819
 20
4.0877236399
 10
24.3400103177
 20
4.0862982833
  0
LWPOLYLINE
  5
3C8
100
AcDbEntity
  8
ASSI
100
AcDbPolyline
 62
7
  6
CONTINUOUS
 90
16
 70
0
 10
24.6156406517
 20
4.350456236
 10
24.6138313859
 20
4.3170160203
 10
24.6093263334
 20
4.2854900049
 10
24.6021254944
 20
4.2558781896
 10
24.5920521117
 20
4.2278918834
 10
24.5792829424
 20
4.2018197775
 10
24.5643482576
 20
4.1785279453
 10
24.5474107034
 20
4.1583810241
 10
24.5283076338
 20
4.1410143766
 10
24.5070813819
 20
4.1262001645
 10
24.4835687031
 20
4.1140165923
 10
24.457932842
 20
4.1043854554
 10
24.4307058662
 20
4.0968443013
 10
24.4020651314
 20
4.0912389792
 10
24.3718332819
 20
4.0877236399
 10
24.3400103177
 20
4.0862982833
  0
LINE
  5
3C9
100
AcDbEntity
  8
CURVE
100
AcDbLine
 62
253
  6
CONTINUOUS
 10
24.029388364
 20
2.6249701267
 11
23.9293880779
 21
2.4249701386
  0
LINE
  5
3CA
100
AcDbEntity
  8
SCRITTE
100
AcDbLine
 62
253
  6
CONTINUOUS
 10
21.3293883163
 20
1.1249701148
 11
20.9293881732
 21
0.5249701506
  0
LINE
  5
3CB
100
AcDbEntity
  8
SCRITTE
100
AcDbLine
 62
253
  6
CONTINUOUS
 10
22.5293880779
 20
1.1249701148
 11
22.1293882686
 21
0.5249701506
  0
LINE
  5
3CC
100
AcDbEntity
  8
CURVE
100
AcDbLine
 62
253
  6
CONTINUOUS
 10
22.5293880779
 20
2.4249701386
 11
21.8293880779
 21
1.4249701148
  0
LINE
  5
3CD
100
AcDbEntity
  8
CURVE
100
AcDbLine
 62
253
  6
CONTINUOUS
 10
20.1293882209
 20
1.4249701148
 11
20.3293881256
 21
1.6249701237
  0
LINE
  5
3CE
100
AcDbEntity
  8
SCRITTE
100
AcDbLine
 62
253
  6
CONTINUOUS
 10
34.1106381732
 20
-0.2750298852
 11
34.2856381732
 21
-0.2312798852
  0
LINE
  5
3CF
100
AcDbEntity
  8
RACCORDO
100
AcDbLine
 62
7
  6
CONTINUOUS
 10
35.3293881732
 20
-1.3119395835
 11
35.2221142352
 21
-1.3226400038
  0
LINE
  5
3D0
100
AcDbEntity
  8
ASSI
100
AcDbLine
 62
7
  6
CONTINUOUS
 10
35.3293881732
 20
-1.3119395835
 11
35.2221142352
 21
-1.3226400038
  0
LWPOLYLINE
  5
3D1
100
AcDbEntity
  8
RACCORDO
100
AcDbPolyline
 62
7
  6
CONTINUOUS
 90
6
 70
0
 10
50.1294034037
 20
-0.4750298852
 10
50.1467565386
 20
-0.4735065177
 10
50.1635833673
 20
-0.468993133
 10
50.179372821
 20
-0.4616260513
 10
50.1936450291
 20
-0.4516281506
 10
50.2000620242
 20
-0.4457468496
  0
LWPOLYLINE
  5
3D2
100
AcDbEntity
  8
RACCORDO
100
AcDbPolyline
 62
7
  6
CONTINUOUS
 90
16
 70
0
 10
35.5821348313
 20
-1.3774110394
 10
35.6459596544
 20
-1.3738264583
 10
35.7077564251
 20
-1.3640422989
 10
35.7675251433
 20
-1.3480585613
 10
35.8258687971
 20
-1.3255663425
 10
35.8821843984
 20
-1.2968745454
 10
35.934662983
 20
-1.2629098795
 10
35.9831801726
 20
-1.2235026501
 10
36.0278603455
 20
-1.1788225518
 10
36.0672676716
 20
-1.1303053775
 10
36.1012324619
 20
-1.0778267168
 10
36.1299244054
 20
-1.0215109801
 10
36.15241674
 20
-0.963167192
 10
36.1684005448
 20
-0.9033983605
 10
36.1781847406
 20
-0.8416014776
 10
36.1817693275
 20
-0.7777765432
  0
LWPOLYLINE
  5
3D3
100
AcDbEntity
  8
RACCORDO
100
AcDbPolyline
 62
253
  6
CONTINUOUS
 90
19
 70
0
 10
35.4879203197
 20
-1.2835391855
 10
35.5402099088
 20
-1.2812529683
 10
35.5921015084
 20
-1.2744183346
 10
35.6432002349
 20
-1.2630873012
 10
35.6931172336
 20
-1.2473461066
 10
35.7414726512
 20
-1.2273145402
 10
35.787898524
 20
-1.2031450247
 10
35.8320415512
 20
-1.1750214878
 10
35.8735658165
 20
-1.1431579429
 10
35.9121553486
 20
-1.1077968326
 10
35.9475165141
 20
-1.0692071891
 10
35.97938016
 20
-1.0276827104
 10
36.0075037226
 20
-0.9835395204
 10
36.0316731729
 20
-0.937113619
 10
36.0517046455
 20
-0.8887582544
 10
36.0674457466
 20
-0.8388413606
 10
36.0787767009
 20
-0.7877427794
 10
36.0856112781
 20
-0.7358513762
 10
36.0878974736
 20
-0.6835620317
  0
LWPOLYLINE
  5
3D4
100
AcDbEntity
  8
ASSI
100
AcDbPolyline
 62
253
  6
CONTINUOUS
 90
19
 70
0
 10
35.4879203197
 20
-1.2835391855
 10
35.5402099088
 20
-1.2812529683
 10
35.5921015084
 20
-1.2744183346
 10
35.6432002349
 20
-1.2630873012
 10
35.6931172336
 20
-1.2473461066
 10
35.7414726512
 20
-1.2273145402
 10
35.787898524
 20
-1.2031450247
 10
35.8320415512
 20
-1.1750214878
 10
35.8735658165
 20
-1.1431579429
 10
35.9121553486
 20
-1.1077968326
 10
35.9475165141
 20
-1.0692071891
 10
35.97938016
 20
-1.0276827104
 10
36.0075037226
 20
-0.9835395204
 10
36.0316731729
 20
-0.937113619
 10
36.0517046455
 20
-0.8887582544
 10
36.0674457466
 20
-0.8388413606
 10
36.0787767009
 20
-0.7877427794
 10
36.0856112781
 20
-0.7358513762
 10
36.0878974736
 20
-0.6835620317
  0
LWPOLYLINE
  5
3D5
100
AcDbEntity
  8
RACCORDO
100
AcDbPolyline
 62
7
  6
CONTINUOUS
 90
16
 70
0
 10
16.1290226694
 20
-1.3250298852
 10
16.0651604145
 20
-1.3214412556
 10
16.0033290669
 20
-1.3116458601
 10
15.9435286264
 20
-1.2956436986
 10
15.885154836
 20
-1.2731251291
 10
15.8288119528
 20
-1.2443997936
 10
15.7763127487
 20
-1.2103966181
 10
15.7277822252
 20
-1.1709455366
 10
15.6830953807
 20
-1.1262166152
 10
15.6436899824
 20
-1.0776489782
 10
15.609736224
 20
-1.0250968886
 10
15.5810639118
 20
-0.9687060835
 10
15.558600232
 20
-0.9103528974
 10
15.5426542467
 20
-0.8506627755
 10
15.5329168937
 20
-0.7890102727
 10
15.5293881732
 20
-0.725395389
  0
LWPOLYLINE
  5
3D6
100
AcDbEntity
  8
RACCORDO
100
AcDbPolyline
 62
7
  6
CONTINUOUS
 90
16
 70
0
 10
16.1592967903
 20
-1.2950298852
 10
16.0954689
 20
-1.2914441996
 10
16.0336641021
 20
-1.2816556464
 10
15.9738823967
 20
-1.2656642255
 10
15.915521258
 20
-1.2431630206
 10
15.8591832117
 20
-1.2144589481
 10
15.8066758352
 20
-1.1804727571
 10
15.7581178378
 20
-1.1410275477
 10
15.71339051
 20
-1.0963002199
 10
15.6739453008
 20
-1.0477422224
 10
15.6399591099
 20
-0.995234846
 10
15.6112550375
 20
-0.9388968
 10
15.5887538328
 20
-0.8805356614
 10
15.572762412
 20
-0.8207539561
 10
15.5629738588
 20
-0.7589491584
 10
15.5593881732
 20
-0.6951212681
  0
LWPOLYLINE
  5
3D7
100
AcDbEntity
  8
RACCORDO
100
AcDbPolyline
 62
7
  6
CONTINUOUS
 90
13
 70
0
 10
16.7793824617
 20
-1.3250298852
 10
16.7592773099
 20
-1.3235680283
 10
16.7401433735
 20
-1.3197621391
 10
16.7219806526
 20
-1.3136122178
 10
16.7045148513
 20
-1.3049349537
 10
16.6880202655
 20
-1.2939136574
 10
16.6733197824
 20
-1.2810982602
 10
16.660504388
 20
-1.2663977772
 10
16.6494830963
 20
-1.2499031934
 10
16.6408058361
 20
-1.2324373948
 10
16.634655917
 20
-1.2142746768
 10
16.6308500294
 20
-1.1951407442
 10
16.6293881732
 20
-1.1750355967
  0
LWPOLYLINE
  5
3D8
100
AcDbEntity
  8
ASSI
100
AcDbPolyline
 62
7
  6
CONTINUOUS
 90
13
 70
0
 10
16.7793824617
 20
-1.3250298852
 10
16.7592773099
 20
-1.3235680283
 10
16.7401433735
 20
-1.3197621391
 10
16.7219806526
 20
-1.3136122178
 10
16.7045148513
 20
-1.3049349537
 10
16.6880202655
 20
-1.2939136574
 10
16.6733197824
 20
-1.2810982602
 10
16.660504388
 20
-1.2663977772
 10
16.6494830963
 20
-1.2499031934
 10
16.6408058361
 20
-1.2324373948
 10
16.634655917
 20
-1.2142746768
 10
16.6308500294
 20
-1.1951407442
 10
16.6293881732
 20
-1.1750355967
  0
LWPOLYLINE
  5
3D9
100
AcDbEntity
  8
RACCORDO
100
AcDbPolyline
 62
253
  6
CONTINUOUS
 90
10
 70
0
 10
16.8208731614
 20
-1.2835391855
 10
16.7948281747
 20
-1.281258672
 10
16.7695744758
 20
-1.2744903838
 10
16.7458793113
 20
-1.2634399523
 10
16.7244625772
 20
-1.2484431072
 10
16.7059749469
 20
-1.2299554761
 10
16.6909781031
 20
-1.2085387418
 10
16.679927673
 20
-1.1848435782
 10
16.673159386
 20
-1.159589881
 10
16.6708788729
 20
-1.1335448971
  0
LWPOLYLINE
  5
3DA
100
AcDbEntity
  8
ASSI
100
AcDbPolyline
 62
253
  6
CONTINUOUS
 90
10
 70
0
 10
16.8208731614
 20
-1.2835391855
 10
16.7948281747
 20
-1.281258672
 10
16.7695744758
 20
-1.2744903838
 10
16.7458793113
 20
-1.2634399523
 10
16.7244625772
 20
-1.2484431072
 10
16.7059749469
 20
-1.2299554761
 10
16.6909781031
 20
-1.2085387418
 10
16.679927673
 20
-1.1848435782
 10
16.673159386
 20
-1.159589881
 10
16.6708788729
 20
-1.1335448971
  0
LWPOLYLINE
  5
3DB
100
AcDbEntity
  8
RACCORDO
100
AcDbPolyline
 62
7
  6
CONTINUOUS
 90
9
 70
0
 10
15.4418571892
 20
0.7125010989
 10
15.4440651679
 20
0.7120553932
 10
15.449130432
 20
0.7116303541
 10
15.4570529814
 20
0.7112259816
 10
15.4680438513
 20
0.7108366625
 10
15.4818920065
 20
0.71046801
 10
15.4979643423
 20
0.7101368633
 10
15.5163639127
 20
0.7098449646
 10
15.5588933284
 20
0.7093852971
  0
LWPOLYLINE
  5
3DC
100
AcDbEntity
  8
ASSI
100
AcDbPolyline
 62
7
  6
CONTINUOUS
 90
9
 70
0
 10
15.4418571892
 20
0.7125010989
 10
15.4440651679
 20
0.7120553932
 10
15.449130432
 20
0.7116303541
 10
15.4570529814
 20
0.7112259816
 10
15.4680438513
 20
0.7108366625
 10
15.4818920065
 20
0.71046801
 10
15.4979643423
 20
0.7101368633
 10
15.5163639127
 20
0.7098449646
 10
15.5588933284
 20
0.7093852971
  0
LINE
  5
3DD
100
AcDbEntity
  8
RACCORDO
100
AcDbLine
 62
253
  6
CONTINUOUS
 10
15.4366544207
 20
4.6082698114
 11
15.427148615
 21
4.6130223522
  0
LINE
  5
3DE
100
AcDbEntity
  8
ASSI
100
AcDbLine
 62
253
  6
CONTINUOUS
 10
15.4366544207
 20
4.6082698114
 11
15.427148615
 21
4.6130223522
  0
LINE
  5
3DF
100
AcDbEntity
  8
CURVE
100
AcDbLine
 62
253
  6
CONTINUOUS
 10
22.3293881732
 20
2.8249701148
 11
22.5293880779
 21
2.6249701267
  0
LINE
  5
3E0
100
AcDbEntity
  8
CURVE
100
AcDbLine
 62
253
  6
CONTINUOUS
 10
23.3293880302
 20
2.2249701506
 11
23.5293882686
 21
2.0249701208
  0
LINE
  5
3E1
100
AcDbEntity
  8
CURVE
100
AcDbLine
 62
253
  6
CONTINUOUS
 10
23.9293880779
 20
1.8249701327
 11
24.029388364
 21
1.6249701237
  0
LINE
  5
3E2
100
AcDbEntity
  8
0
100
AcDbLine
 62
7
  6
CONTINUOUS
 10
23.6914001732
 20
3.1426691148
 11
23.1698401732
 21
4.8425321148
  0
LINE
  5
3E3
100
AcDbEntity
  8
ASSI
100
AcDbLine
 62
7
  6
CONTINUOUS
 10
23.6914001732
 20
3.1426691148
 11
23.1698401732
 21
4.8425321148
  0
LINE
  5
3E4
100
AcDbEntity
  8
0
100
AcDbLine
 62
7
  6
CONTINUOUS
 10
23.2255071732
 20
3.4820221148
 11
23.3174261732
 21
3.1426691148
  0
LINE
  5
3E5
100
AcDbEntity
  8
ASSI
100
AcDbLine
 62
7
  6
CONTINUOUS
 10
23.2255071732
 20
3.4820221148
 11
23.3174261732
 21
3.1426691148
  0
LINE
  5
3E6
100
AcDbEntity
  8
0
100
AcDbLine
 62
7
  6
CONTINUOUS
 10
22.9915461732
 20
4.3754531148
 11
23.1545941732
 21
3.7446121148
  0
LINE
  5
3E7
100
AcDbEntity
  8
ASSI
100
AcDbLine
 62
7
  6
CONTINUOUS
 10
22.9915461732
 20
4.3754531148
 11
23.1545941732
 21
3.7446121148
  0
LINE
  5
3E8
100
AcDbEntity
  8
CURVE
100
AcDbLine
 62
253
  6
CONTINUOUS
 10
24.6293880779
 20
1.8249701327
 11
24.6293880779
 21
2.4249701386
  0
LINE
  5
3E9
100
AcDbEntity
  8
0
100
AcDbLine
 62
7
  6
CONTINUOUS
 10
24.707840356
 20
3.9361503064
 11
24.707840356
 21
3.9461950136
  0
LINE
  5
3EA
100
AcDbEntity
  8
ASSI
100
AcDbLine
 62
7
  6
CONTINUOUS
 10
24.707840356
 20
3.9361503064
 11
24.707840356
 21
3.9461950136
  0
LINE
  5
3EB
100
AcDbEntity
  8
SCRITTE
100
AcDbLine
 62
253
  6
CONTINUOUS
 10
25.1627211887
 20
6.1679886206
 11
25.1627211887
 21
6.1557710057
  0
LINE
  5
3EC
100
AcDbEntity
  8
SCRITTE
100
AcDbLine
 62
253
  6
CONTINUOUS
 10
25.7960547763
 20
6.1679886206
 11
25.7960547763
 21
6.1557710057
  0
LINE
  5
3ED
100
AcDbEntity
  8
CURVE
100
AcDbLine
 62
253
  6
CONTINUOUS
 10
25.8293881732
 20
2.8249701148
 11
25.429388364
 21
1.4249701148
  0
LINE
  5
3EE
100
AcDbEntity
  8
SCRITTE
100
AcDbLine
 62
253
  6
CONTINUOUS
 10
22.9293882209
 20
-0.2750298852
 11
23.6293882209
 21
1.1249701148
  0
LINE
  5
3EF
100
AcDbEntity
  8
CURVE
100
AcDbLine
 62
253
  6
CONTINUOUS
 10
24.5293884593
 20
1.6249701237
 11
24.6293880779
 21
1.8249701327
  0
LINE
  5
3F0
100
AcDbEntity
  8
CURVE
100
AcDbLine
 62
253
  6
CONTINUOUS
 10
26.2365310352
 20
4.6106844133
 11
26.1293881732
 21
4.3963987118
  0
LINE
  5
3F1
100
AcDbEntity
  8
SCRITTE
100
AcDbLine
 62
253
  6
CONTINUOUS
 10
24.029388364
 20
-0.2750298852
 11
24.729388364
 21
1.1249701148
  0
LINE
  5
3F2
100
AcDbEntity
  8
CURVE
100
AcDbLine
 62
253
  6
CONTINUOUS
 10
24.2293882686
 20
2.8249701148
 11
24.029388364
 21
2.6249701267
  0
LINE
  5
3F3
100
AcDbEntity
  8
CURVE
100
AcDbLine
 62
253
  6
CONTINUOUS
 10
26.4508167479
 20
4.8249701148
 11
26.2365310352
 21
4.6106844133
  0
LINE
  5
3F4
100
AcDbEntity
  8
CURVE
100
AcDbLine
 62
253
  6
CONTINUOUS
 10
23.5293882686
 20
1.6249701237
 11
23.3293880302
 21
1.4249701148
  0
LWPOLYLINE
  5
3F5
100
AcDbEntity
  8
0
100
AcDbPolyline
 62
7
  6
CONTINUOUS
 90
40
 70
0
 10
24.7592787343
 20
3.9741708017
 10
24.7796548349
 20
3.9914216592
 10
24.7899315735
 20
4.0004363617
 10
24.8002174894
 20
4.0098984162
 10
24.810532246
 20
4.0197507843
 10
24.8208561798
 20
4.0300505044
 10
24.8310977044
 20
4.041050895
 10
24.8412694997
 20
4.0527754141
 10
24.8513588858
 20
4.0652006036
 10
24.8612362362
 20
4.0785094073
 10
24.870913679
 20
4.0927505096
 10
24.8803790862
 20
4.1078752261
 10
24.889466447
 20
4.1239204474
 10
24.8981941872
 20
4.1409037202
 10
24.906543881
 20
4.1588074978
 10
24.9142942405
 20
4.1776160317
 10
24.9214494229
 20
4.197318712
 10
24.9280052712
 20
4.2179261487
 10
24.9337280261
 20
4.2394544221
 10
24.9386191687
 20
4.2619002295
 10
24.942677218
 20
4.2852668737
 10
24.9456639718
 20
4.3095803435
 10
24.9476019157
 20
4.334875239
 10
24.948468564
 20
4.3611169601
 10
24.947958258
 20
4.3882276948
 10
24.9461883634
 20
4.4162415597
 10
24.9430415145
 20
4.4451244382
 10
24.9378599553
 20
4.4746961697
 10
24.93070868
 20
4.5050562763
 10
24.9215226945
 20
4.5361052358
 10
24.9094492606
 20
4.5673643207
 10
24.8943802516
 20
4.5990439058
 10
24.8764237941
 20
4.6309336164
 10
24.8550515298
 20
4.6619236007
 10
24.8294493048
 20
4.69245777
 10
24.800431273
 20
4.722092213
 10
24.769911537
 20
4.7483853442
 10
24.7385281311
 20
4.7705233019
 10
24.705643021
 20
4.7893199479
 10
24.6712562068
 20
4.8047752822
  0
LWPOLYLINE
  5
3F6
100
AcDbEntity
  8
ASSI
100
AcDbPolyline
 62
7
  6
CONTINUOUS
 90
40
 70
0
 10
24.7592787343
 20
3.9741708017
 10
24.7796548349
 20
3.9914216592
 10
24.7899315735
 20
4.0004363617
 10
24.8002174894
 20
4.0098984162
 10
24.810532246
 20
4.0197507843
 10
24.8208561798
 20
4.0300505044
 10
24.8310977044
 20
4.041050895
 10
24.8412694997
 20
4.0527754141
 10
24.8513588858
 20
4.0652006036
 10
24.8612362362
 20
4.0785094073
 10
24.870913679
 20
4.0927505096
 10
24.8803790862
 20
4.1078752261
 10
24.889466447
 20
4.1239204474
 10
24.8981941872
 20
4.1409037202
 10
24.906543881
 20
4.1588074978
 10
24.9142942405
 20
4.1776160317
 10
24.9214494229
 20
4.197318712
 10
24.9280052712
 20
4.2179261487
 10
24.9337280261
 20
4.2394544221
 10
24.9386191687
 20
4.2619002295
 10
24.942677218
 20
4.2852668737
 10
24.9456639718
 20
4.3095803435
 10
24.9476019157
 20
4.334875239
 10
24.948468564
 20
4.3611169601
 10
24.947958258
 20
4.3882276948
 10
24.9461883634
 20
4.4162415597
 10
24.9430415145
 20
4.4451244382
 10
24.9378599553
 20
4.4746961697
 10
24.93070868
 20
4.5050562763
 10
24.9215226945
 20
4.5361052358
 10
24.9094492606
 20
4.5673643207
 10
24.8943802516
 20
4.5990439058
 10
24.8764237941
 20
4.6309336164
 10
24.8550515298
 20
4.6619236007
 10
24.8294493048
 20
4.69245777
 10
24.800431273
 20
4.722092213
 10
24.769911537
 20
4.7483853442
 10
24.7385281311
 20
4.7705233019
 10
24.705643021
 20
4.7893199479
 10
24.6712562068
 20
4.8047752822
  0
LINE
  5
3F7
100
AcDbEntity
  8
0
100
AcDbLine
 62
7
  6
CONTINUOUS
 10
24.7491793724
 20
3.9659346466
 11
24.7592787343
 21
3.9741708017
  0
LINE
  5
3F8
100
AcDbEntity
  8
ASSI
100
AcDbLine
 62
7
  6
CONTINUOUS
 10
24.7491793724
 20
3.9659346466
 11
24.7592787343
 21
3.9741708017
  0
LINE
  5
3F9
100
AcDbEntity
  8
RACCORDO
100
AcDbLine
 62
253
  6
CONTINUOUS
 10
15.427148615
 20
0.2369178774
 11
15.4366544207
 21
0.2416704182
  0
LINE
  5
3FA
100
AcDbEntity
  8
ASSI
100
AcDbLine
 62
253
  6
CONTINUOUS
 10
15.427148615
 20
0.2369178774
 11
15.4366544207
 21
0.2416704182
  0
LINE
  5
3FB
100
AcDbEntity
  8
SCRITTE
100
AcDbLine
 62
253
  6
CONTINUOUS
 10
34.1106381732
 20
0.5124701148
 11
33.9356381732
 21
0.4687201148
  0
LINE
  5
3FC
100
AcDbEntity
  8
RACCORDO
100
AcDbLine
 62
7
  6
CONTINUOUS
 10
49.1942357202
 20
0.5794609754
 11
49.1293881732
 21
0.5749701148
  0
LINE
  5
3FD
100
AcDbEntity
  8
ASSI
100
AcDbLine
 62
7
  6
CONTINUOUS
 10
49.1942357202
 20
0.5794609754
 11
49.1293881732
 21
0.5749701148
  0
LWPOLYLINE
  5
3FE
100
AcDbEntity
  8
RACCORDO
100
AcDbPolyline
 62
253
  6
CONTINUOUS
 90
19
 70
0
 10
35.4879203197
 20
-0.783558224
 10
35.49665593
 20
-0.783174398
 10
35.5052246784
 20
-0.7820543354
 10
35.5136265651
 20
-0.780198036
 10
35.5219315029
 20
-0.7775812985
 10
35.5300695789
 20
-0.7742283244
 10
35.5378310544
 20
-0.7702117177
 10
35.5452016786
 20
-0.7655130688
 10
35.5521957024
 20
-0.7601507875
 10
35.5586461396
 20
-0.7542527073
 10
35.5645364077
 20
-0.7478080096
 10
35.5698830892
 20
-0.740827513
 10
35.5745689456
 20
-0.7334715078
 10
35.578579185
 20
-0.7257270664
 10
35.5819285992
 20
-0.7176071164
 10
35.5845443253
 20
-0.7093107306
 10
35.5864020756
 20
-0.7009042668
 10
35.5875261379
 20
-0.6923213671
 10
35.587916512
 20
-0.6835620317
  0
LWPOLYLINE
  5
3FF
100
AcDbEntity
  8
ASSI
100
AcDbPolyline
 62
253
  6
CONTINUOUS
 90
19
 70
0
 10
35.4879203197
 20
-0.783558224
 10
35.49665593
 20
-0.783174398
 10
35.5052246784
 20
-0.7820543354
 10
35.5136265651
 20
-0.780198036
 10
35.5219315029
 20
-0.7775812985
 10
35.5300695789
 20
-0.7742283244
 10
35.5378310544
 20
-0.7702117177
 10
35.5452016786
 20
-0.7655130688
 10
35.5521957024
 20
-0.7601507875
 10
35.5586461396
 20
-0.7542527073
 10
35.5645364077
 20
-0.7478080096
 10
35.5698830892
 20
-0.740827513
 10
35.5745689456
 20
-0.7334715078
 10
35.578579185
 20
-0.7257270664
 10
35.5819285992
 20
-0.7176071164
 10
35.5845443253
 20
-0.7093107306
 10
35.5864020756
 20
-0.7009042668
 10
35.5875261379
 20
-0.6923213671
 10
35.587916512
 20
-0.6835620317
  0
LWPOLYLINE
  5
400
100
AcDbEntity
  8
RACCORDO
100
AcDbPolyline
 62
7
  6
CONTINUOUS
 90
4
 70
0
 10
35.1923166958
 20
-1.3235697802
 10
35.2063145915
 20
-1.3232773523
 10
35.2162471047
 20
-1.3229674268
 10
35.2221142352
 20
-1.3226400038
  0
LWPOLYLINE
  5
401
100
AcDbEntity
  8
ASSI
100
AcDbPolyline
 62
7
  6
CONTINUOUS
 90
4
 70
0
 10
35.1923166958
 20
-1.3235697802
 10
35.2063145915
 20
-1.3232773523
 10
35.2162471047
 20
-1.3229674268
 10
35.2221142352
 20
-1.3226400038
  0
LINE
  5
402
100
AcDbEntity
  8
RACCORDO
100
AcDbLine
 62
7
  6
CONTINUOUS
 10
35.1514559388
 20
-1.3241099224
 11
35.1923166958
 21
-1.3235697802
  0
LINE
  5
403
100
AcDbEntity
  8
ASSI
100
AcDbLine
 62
7
  6
CONTINUOUS
 10
35.1514559388
 20
-1.3241099224
 11
35.1923166958
 21
-1.3235697802
  0
LINE
  5
404
100
AcDbEntity
  8
RACCORDO
100
AcDbLine
 62
7
  6
CONTINUOUS
 10
49.1956903264
 20
-0.4746389642
 11
49.1668735736
 21
-0.4749240517
  0
LINE
  5
405
100
AcDbEntity
  8
RACCORDO
100
AcDbLine
 62
7
  6
CONTINUOUS
 10
35.0654162953
 20
-1.3247162491
 11
35.1514559388
 21
-1.3241099224
  0
LINE
  5
406
100
AcDbEntity
  8
ASSI
100
AcDbLine
 62
7
  6
CONTINUOUS
 10
35.0654162953
 20
-1.3247162491
 11
35.1514559388
 21
-1.3241099224
  0
LINE
  5
407
100
AcDbEntity
  8
RACCORDO
100
AcDbLine
 62
7
  6
CONTINUOUS
 10
49.1668735736
 20
-0.4749240517
 11
49.1328215365
 21
-0.4750298852
  0
LINE
  5
408
100
AcDbEntity
  8
RACCORDO
100
AcDbLine
 62
7
  6
CONTINUOUS
 10
35.3293881732
 20
-1.3774110394
 11
35.5821348313
 21
-1.3774110394
  0
LINE
  5
409
100
AcDbEntity
  8
DRAFT
100
AcDbLine
 62
7
  6
CONTINUOUS
 10
35.277007019
 20
-1.3250298852
 11
27.8817693275
 21
-1.3250298852
  0
LINE
  5
40A
100
AcDbEntity
  8
DRAFT
100
AcDbLine
 62
7
  6
CONTINUOUS
 10
27.7293881732
 20
-1.3250298852
 11
24.5293881732
 21
-1.3250298852
  0
LINE
  5
40B
100
AcDbEntity
  8
RACCORDO
100
AcDbLine
 62
7
  6
CONTINUOUS
 10
16.1290226694
 20
-1.3250298852
 11
24.5293881732
 21
-1.3250298852
  0
LINE
  5
40C
100
AcDbEntity
  8
RACCORDO
100
AcDbLine
 62
7
  6
CONTINUOUS
 10
27.7293881732
 20
-1.3250298852
 11
35.0654162953
 21
-1.3247162491
  0
LINE
  5
40D
100
AcDbEntity
  8
ASSI
100
AcDbLine
 62
7
  6
CONTINUOUS
 10
16.7793824617
 20
-1.3250298852
 11
35.0654162953
 21
-1.3247162491
  0
LINE
  5
40E
100
AcDbEntity
  8
RACCORDO
100
AcDbLine
 62
7
  6
CONTINUOUS
 10
35.5163207177
 20
-1.3119395835
 11
35.3293881732
 21
-1.3119395835
  0
LINE
  5
40F
100
AcDbEntity
  8
ASSI
100
AcDbLine
 62
7
  6
CONTINUOUS
 10
35.5163207177
 20
-1.3119395835
 11
35.3293881732
 21
-1.3119395835
  0
LINE
  5
410
100
AcDbEntity
  8
RACCORDO
100
AcDbLine
 62
7
  6
CONTINUOUS
 10
16.6293881732
 20
-1.2950298852
 11
16.1592967903
 21
-1.2950298852
  0
LINE
  5
411
100
AcDbEntity
  8
RACCORDO
100
AcDbLine
 62
7
  6
CONTINUOUS
 10
16.8208731614
 20
-1.2835391855
 11
35.4879203197
 21
-1.2835391855
  0
LINE
  5
412
100
AcDbEntity
  8
ASSI
100
AcDbLine
 62
7
  6
CONTINUOUS
 10
16.8208731614
 20
-1.2835391855
 11
35.4879203197
 21
-1.2835391855
  0
LINE
  5
413
100
AcDbEntity
  8
RACCORDO
100
AcDbLine
 62
253
  6
CONTINUOUS
 10
16.2397728687
 20
-1.2145538068
 11
16.5891531985
 21
-1.2145538068
  0
LINE
  5
414
100
AcDbEntity
  8
RACCORDO
100
AcDbLine
 62
253
  6
CONTINUOUS
 10
16.6739066223
 20
-0.783558224
 11
35.4879203197
 21
-0.783558224
  0
LINE
  5
415
100
AcDbEntity
  8
ASSI
100
AcDbLine
 62
253
  6
CONTINUOUS
 10
16.6739066223
 20
-0.783558224
 11
35.4879203197
 21
-0.783558224
  0
LINE
  5
416
100
AcDbEntity
  8
RACCORDO
100
AcDbLine
 62
253
  6
CONTINUOUS
 10
35.587916512
 20
-0.6835620317
 11
36.0878974736
 21
-0.6835620317
  0
LINE
  5
417
100
AcDbEntity
  8
ASSI
100
AcDbLine
 62
253
  6
CONTINUOUS
 10
35.587916512
 20
-0.6835620317
 11
36.0878974736
 21
-0.6835620317
  0
LINE
  5
418
100
AcDbEntity
  8
RACCORDO
100
AcDbLine
 62
253
  6
CONTINUOUS
 10
15.6398642516
 20
-0.6146451897
 11
16.5840084607
 21
-0.6146451897
  0
LINE
  5
419
100
AcDbEntity
  8
DRAFT
100
AcDbLine
 62
7
  6
CONTINUOUS
 10
17.4258971602
 20
-0.5285208982
 11
35.3328791862
 21
-0.5285208982
  0
LINE
  5
41A
100
AcDbEntity
  8
ASSI
100
AcDbLine
 62
7
  6
CONTINUOUS
 10
17.4258971602
 20
-0.5285208982
 11
35.3328791862
 21
-0.5285208982
  0
LINE
  5
41B
100
AcDbEntity
  8
DRAFT
100
AcDbLine
 62
7
  6
CONTINUOUS
 10
17.4293881732
 20
-0.5250298852
 11
35.3293881732
 21
-0.5250298852
  0
LINE
  5
41C
100
AcDbEntity
  8
ASSI
100
AcDbLine
 62
7
  6
CONTINUOUS
 10
17.4293881732
 20
-0.5250298852
 11
35.3293881732
 21
-0.5250298852
  0
LINE
  5
41D
100
AcDbEntity
  8
RACCORDO
100
AcDbLine
 62
7
  6
CONTINUOUS
 10
50.1294034037
 20
-0.4750298852
 11
36.1817693275
 21
-0.4750298852
  0
LINE
  5
41E
100
AcDbEntity
  8
DRAFT
100
AcDbLine
 62
7
  6
CONTINUOUS
 10
49.1293881732
 20
-0.4750298852
 11
36.1162978715
 21
-0.4750298852
  0
LINE
  5
41F
100
AcDbEntity
  8
ASSI
100
AcDbLine
 62
7
  6
CONTINUOUS
 10
49.1293881732
 20
-0.4750298852
 11
36.1162978715
 21
-0.4750298852
  0
LINE
  5
420
100
AcDbEntity
  8
RACCORDO
100
AcDbLine
 62
253
  6
CONTINUOUS
 10
36.1120112889
 20
-0.466456067
 11
49.120814355
 21
-0.466456067
  0
LINE
  5
421
100
AcDbEntity
  8
ASSI
100
AcDbLine
 62
253
  6
CONTINUOUS
 10
36.1120112889
 20
-0.466456067
 11
49.120814355
 21
-0.466456067
  0
LINE
  5
422
100
AcDbEntity
  8
RACCORDO
100
AcDbLine
 62
253
  6
CONTINUOUS
 10
49.248424168
 20
-0.4655147877
 11
50.1198881779
 21
-0.4655146593
  0
LINE
  5
423
100
AcDbEntity
  8
RACCORDO
100
AcDbLine
 62
253
  6
CONTINUOUS
 10
49.2519421503
 20
-0.4534605432
 11
50.1184814005
 21
-0.4534586163
  0
LINE
  5
424
100
AcDbEntity
  8
RACCORDO
100
AcDbLine
 62
253
  6
CONTINUOUS
 10
36.1100434513
 20
-0.4366486214
 11
49.11687838
 21
-0.4366486214
  0
LINE
  5
425
100
AcDbEntity
  8
ASSI
100
AcDbLine
 62
253
  6
CONTINUOUS
 10
36.1100434513
 20
-0.4366486214
 11
49.11687838
 21
-0.4366486214
  0
LINE
  5
426
100
AcDbEntity
  8
CURVE
100
AcDbLine
 62
253
  6
CONTINUOUS
 10
29.9293881971
 20
-0.2750298852
 11
29.4293881017
 21
-0.2750298852
  0
LINE
  5
427
100
AcDbEntity
  8
SCRITTE
100
AcDbLine
 62
253
  6
CONTINUOUS
 10
24.729388364
 20
-0.2750298852
 11
24.029388364
 21
-0.2750298852
  0
LINE
  5
428
100
AcDbEntity
  8
SCRITTE
100
AcDbLine
 62
253
  6
CONTINUOUS
 10
23.6293882209
 20
-0.2750298852
 11
22.9293882209
 21
-0.2750298852
  0
LINE
  5
429
100
AcDbEntity
  8
CURVE
100
AcDbLine
 62
253
  6
CONTINUOUS
 10
27.8293881762
 20
-0.2750298852
 11
27.9293881911
 21
-0.2750298852
  0
LINE
  5
42A
100
AcDbEntity
  8
SCRITTE
100
AcDbLine
 62
253
  6
CONTINUOUS
 10
33.9793881732
 20
-0.2750298852
 11
34.1106381732
 21
-0.2750298852
  0
LINE
  5
42B
100
AcDbEntity
  8
CURVE
100
AcDbLine
 62
253
  6
CONTINUOUS
 10
28.8627215105
 20
-0.2083632173
 11
28.8960548002
 21
-0.2083632173
  0
LINE
  5
42C
100
AcDbEntity
  8
DRAFT
100
AcDbLine
 62
7
  6
CONTINUOUS
 10
15.5293881732
 20
-0.1560493334
 11
15.5593881732
 21
-0.1560493334
  0
LINE
  5
42D
100
AcDbEntity
  8
CURVE
100
AcDbLine
 62
253
  6
CONTINUOUS
 10
28.9293881732
 20
-0.0416965449
 11
28.8960548002
 21
-0.0416965449
  0
LINE
  5
42E
100
AcDbEntity
  8
CURVE
100
AcDbLine
 62
253
  6
CONTINUOUS
 10
24.029388364
 20
1.6249701237
 11
24.2293882686
 21
1.4249701148
  0
LINE
  5
42F
100
AcDbEntity
  8
CURVE
100
AcDbLine
 62
253
  6
CONTINUOUS
 10
24.5293884593
 20
2.6249701267
 11
24.3293878871
 21
2.8249701148
  0
LINE
  5
430
100
AcDbEntity
  8
CURVE
100
AcDbLine
 62
253
  6
CONTINUOUS
 10
27.6293881777
 20
-0.0750298763
 11
27.8293881762
 21
-0.2750298852
  0
LINE
  5
431
100
AcDbEntity
  8
CURVE
100
AcDbLine
 62
253
  6
CONTINUOUS
 10
24.6293880779
 20
2.4249701386
 11
24.5293884593
 21
2.6249701267
  0
LWPOLYLINE
  5
432
100
AcDbEntity
  8
0
100
AcDbPolyline
 62
7
  6
CONTINUOUS
 90
6
 70
0
 10
24.537207805
 20
3.6581235194
 10
24.5555045081
 20
3.6044309661
 10
24.5733444455
 20
3.5497723595
 10
24.5907276169
 20
3.4941476995
 10
24.6073973252
 20
3.4374622896
 10
24.6401365359
 20
3.3214773997
  0
LWPOLYLINE
  5
433
100
AcDbEntity
  8
ASSI
100
AcDbPolyline
 62
7
  6
CONTINUOUS
 90
6
 70
0
 10
24.537207805
 20
3.6581235194
 10
24.5555045081
 20
3.6044309661
 10
24.5733444455
 20
3.5497723595
 10
24.5907276169
 20
3.4941476995
 10
24.6073973252
 20
3.4374622896
 10
24.6401365359
 20
3.3214773997
  0
LINE
  5
434
100
AcDbEntity
  8
0
100
AcDbLine
 62
7
  6
CONTINUOUS
 10
24.6401365359
 20
3.3214773997
 11
24.6923653883
 21
3.1426694281
  0
LINE
  5
435
100
AcDbEntity
  8
ASSI
100
AcDbLine
 62
7
  6
CONTINUOUS
 10
24.6401365359
 20
3.3214773997
 11
24.6923653883
 21
3.1426694281
  0
LINE
  5
436
100
AcDbEntity
  8
CURVE
100
AcDbLine
 62
253
  6
CONTINUOUS
 10
25.429388364
 20
1.4249701148
 11
25.0293878871
 21
2.8249701148
  0
LINE
  5
437
100
AcDbEntity
  8
0
100
AcDbLine
 62
7
  6
CONTINUOUS
 10
24.9538467694
 20
3.4472859423
 11
24.9123674202
 21
3.6027501591
  0
LINE
  5
438
100
AcDbEntity
  8
ASSI
100
AcDbLine
 62
7
  6
CONTINUOUS
 10
24.9538467694
 20
3.4472859423
 11
24.9123674202
 21
3.6027501591
  0
LINE
  5
439
100
AcDbEntity
  8
0
100
AcDbLine
 62
7
  6
CONTINUOUS
 10
25.0336687317
 20
3.1426694281
 11
24.9538467694
 21
3.4472859423
  0
LINE
  5
43A
100
AcDbEntity
  8
ASSI
100
AcDbLine
 62
7
  6
CONTINUOUS
 10
25.0336687317
 20
3.1426694281
 11
24.9538467694
 21
3.4472859423
  0
LWPOLYLINE
  5
43B
100
AcDbEntity
  8
0
100
AcDbPolyline
 62
7
  6
CONTINUOUS
 90
13
 70
0
 10
24.9123674202
 20
3.6027501591
 10
24.9029956986
 20
3.6405627428
 10
24.8922188481
 20
3.6773211305
 10
24.8800368687
 20
3.7130253221
 10
24.8664789514
 20
3.7482064357
 10
24.8515159053
 20
3.7823333531
 10
24.835060157
 20
3.8138127201
 10
24.8169700497
 20
3.8424005796
 10
24.7973872403
 20
3.8683408886
 10
24.7766491264
 20
3.8907721641
 10
24.754868174
 20
3.9094072451
 10
24.7319319172
 20
3.9245332925
 10
24.707840356
 20
3.9361503064
  0
LWPOLYLINE
  5
43C
100
AcDbEntity
  8
ASSI
100
AcDbPolyline
 62
7
  6
CONTINUOUS
 90
13
 70
0
 10
24.9123674202
 20
3.6027501591
 10
24.9029956986
 20
3.6405627428
 10
24.8922188481
 20
3.6773211305
 10
24.8800368687
 20
3.7130253221
 10
24.8664789514
 20
3.7482064357
 10
24.8515159053
 20
3.7823333531
 10
24.835060157
 20
3.8138127201
 10
24.8169700497
 20
3.8424005796
 10
24.7973872403
 20
3.8683408886
 10
24.7766491264
 20
3.8907721641
 10
24.754868174
 20
3.9094072451
 10
24.7319319172
 20
3.9245332925
 10
24.707840356
 20
3.9361503064
  0
LINE
  5
43D
100
AcDbEntity
  8
CURVE
100
AcDbLine
 62
253
  6
CONTINUOUS
 10
26.1293881732
 20
4.3963987118
 11
26.1293881732
 21
3.7535415625
  0
LINE
  5
43E
100
AcDbEntity
  8
SCRITTE
100
AcDbLine
 62
253
  6
CONTINUOUS
 10
26.4960547763
 20
6.1679886206
 11
26.4960547763
 21
6.1557710057
  0
LINE
  5
43F
100
AcDbEntity
  8
CURVE
100
AcDbLine
 62
253
  6
CONTINUOUS
 10
26.8793881732
 20
3.7535415625
 11
26.8793881732
 21
4.3963987118
  0
LINE
  5
440
100
AcDbEntity
  8
CURVE
100
AcDbLine
 62
253
  6
CONTINUOUS
 10
27.3079595763
 20
4.3963987118
 11
27.3079595763
 21
3.7535415625
  0
LINE
  5
441
100
AcDbEntity
  8
CURVE
100
AcDbLine
 62
253
  6
CONTINUOUS
 10
27.5293881732
 20
0.7249701386
 11
27.5293881732
 21
0.1249701327
  0
LINE
  5
442
100
AcDbEntity
  8
CURVE
100
AcDbLine
 62
253
  6
CONTINUOUS
 10
26.7722453225
 20
3.5392558387
 11
26.8793881732
 21
3.7535415625
  0
LINE
  5
443
100
AcDbEntity
  8
CURVE
100
AcDbLine
 62
253
  6
CONTINUOUS
 10
27.4151024717
 20
4.6106844133
 11
27.3079595763
 21
4.3963987118
  0
LINE
  5
444
100
AcDbEntity
  8
CURVE
100
AcDbLine
 62
253
  6
CONTINUOUS
 10
27.6293881732
 20
4.8249701148
 11
27.4151024717
 21
4.6106844133
  0
LINE
  5
445
100
AcDbEntity
  8
CURVE
100
AcDbLine
 62
253
  6
CONTINUOUS
 10
24.3293878871
 20
1.4249701148
 11
24.5293884593
 21
1.6249701237
  0
LINE
  5
446
100
AcDbEntity
  8
CURVE
100
AcDbLine
 62
253
  6
CONTINUOUS
 10
26.557959621
 20
3.3249701148
 11
26.7722453225
 21
3.5392558387
  0
LINE
  5
447
100
AcDbEntity
  8
CURVE
100
AcDbLine
 62
253
  6
CONTINUOUS
 10
28.4865309793
 20
4.6106844133
 11
28.7008167702
 21
4.8249701148
  0
LWPOLYLINE
  5
448
100
AcDbEntity
  8
0
100
AcDbPolyline
 62
7
  6
CONTINUOUS
 90
5
 70
0
 10
24.707840356
 20
3.9461950136
 10
24.7183081072
 20
3.9492070737
 10
24.7286940589
 20
3.9534527826
 10
24.738998211
 20
3.9589321403
 10
24.7491793724
 20
3.9659346466
  0
LWPOLYLINE
  5
449
100
AcDbEntity
  8
ASSI
100
AcDbPolyline
 62
7
  6
CONTINUOUS
 90
5
 70
0
 10
24.707840356
 20
3.9461950136
 10
24.7183081072
 20
3.9492070737
 10
24.7286940589
 20
3.9534527826
 10
24.738998211
 20
3.9589321403
 10
24.7491793724
 20
3.9659346466
  0
LINE
  5
44A
100
AcDbEntity
  8
RACCORDO
100
AcDbLine
 62
7
  6
CONTINUOUS
 10
16.608637195
 20
0.0421225895
 11
16.6465579912
 21
0.0421399328
  0
LINE
  5
44B
100
AcDbEntity
  8
ASSI
100
AcDbLine
 62
7
  6
CONTINUOUS
 10
16.608637195
 20
0.0421225895
 11
16.6465579912
 21
0.0421399328
  0
LINE
  5
44C
100
AcDbEntity
  8
RACCORDO
100
AcDbLine
 62
253
  6
CONTINUOUS
 10
16.6075710038
 20
0.5421150314
 11
16.6508913174
 21
0.5421348442
  0
LINE
  5
44D
100
AcDbEntity
  8
ASSI
100
AcDbLine
 62
253
  6
CONTINUOUS
 10
16.6075710038
 20
0.5421150314
 11
16.6508913174
 21
0.5421348442
  0
LINE
  5
44E
100
AcDbEntity
  8
DRAFT
100
AcDbLine
 62
7
  6
CONTINUOUS
 10
16.6293881732
 20
0.0249701148
 11
16.6088302659
 21
0.0249701148
  0
LINE
  5
44F
100
AcDbEntity
  8
ASSI
100
AcDbLine
 62
7
  6
CONTINUOUS
 10
16.6293881732
 20
0.0249701148
 11
16.6088302659
 21
0.0249701148
  0
LINE
  5
450
100
AcDbEntity
  8
DRAFT
100
AcDbLine
 62
7
  6
CONTINUOUS
 10
15.600507114
 20
0.0249701148
 11
13.6293881732
 21
0.0249701148
  0
LINE
  5
451
100
AcDbEntity
  8
ASSI
100
AcDbLine
 62
7
  6
CONTINUOUS
 10
15.600507114
 20
0.0249701148
 11
13.6293881732
 21
0.0249701148
  0
LINE
  5
452
100
AcDbEntity
  8
RACCORDO
100
AcDbLine
 62
7
  6
CONTINUOUS
 10
13.6384440718
 20
0.0340260134
 11
15.6007276829
 21
0.0340260134
  0
LINE
  5
453
100
AcDbEntity
  8
ASSI
100
AcDbLine
 62
7
  6
CONTINUOUS
 10
13.6384440718
 20
0.0340260134
 11
15.6007276829
 21
0.0340260134
  0
LINE
  5
454
100
AcDbEntity
  8
RACCORDO
100
AcDbLine
 62
253
  6
CONTINUOUS
 10
13.639346356
 20
0.0638824384
 11
15.5194639425
 21
0.0638824384
  0
LINE
  5
455
100
AcDbEntity
  8
ASSI
100
AcDbLine
 62
253
  6
CONTINUOUS
 10
13.639346356
 20
0.0638824384
 11
15.5194639425
 21
0.0638824384
  0
LINE
  5
456
100
AcDbEntity
  8
SCRITTE
100
AcDbLine
 62
253
  6
CONTINUOUS
 10
34.0668881732
 20
0.5124701148
 11
34.1106381732
 21
0.5124701148
  0
LINE
  5
457
100
AcDbEntity
  8
CURVE
100
AcDbLine
 62
253
  6
CONTINUOUS
 10
29.6293881732
 20
0.5249701506
 11
29.8293882448
 21
0.5249701506
  0
LINE
  5
458
100
AcDbEntity
  8
RACCORDO
100
AcDbLine
 62
253
  6
CONTINUOUS
 10
49.0897786028
 20
0.540005469
 11
36.0964945946
 21
0.540005469
  0
LINE
  5
459
100
AcDbEntity
  8
ASSI
100
AcDbLine
 62
253
  6
CONTINUOUS
 10
49.0897786028
 20
0.540005469
 11
36.0964945946
 21
0.540005469
  0
LINE
  5
45A
100
AcDbEntity
  8
RACCORDO
100
AcDbLine
 62
253
  6
CONTINUOUS
 10
15.4418571892
 20
0.5416685555
 11
15.6030258356
 21
0.5416685569
  0
LINE
  5
45B
100
AcDbEntity
  8
ASSI
100
AcDbLine
 62
253
  6
CONTINUOUS
 10
15.4418571892
 20
0.5416685555
 11
15.6030258356
 21
0.5416685569
  0
LINE
  5
45C
100
AcDbEntity
  8
0
100
AcDbLine
 62
7
  6
CONTINUOUS
 10
13.6389972598
 20
0.6749701148
 11
7.354118377
 21
0.6749701148
  0
LINE
  5
45D
100
AcDbEntity
  8
DRAFT
100
AcDbLine
 62
7
  6
CONTINUOUS
 10
16.6445444009
 20
0.7208379481
 11
16.6075710038
 21
0.7208379481
  0
LINE
  5
45E
100
AcDbEntity
  8
ASSI
100
AcDbLine
 62
7
  6
CONTINUOUS
 10
16.6445444009
 20
0.7208379481
 11
16.6075710038
 21
0.7208379481
  0
LINE
  5
45F
100
AcDbEntity
  8
DRAFT
100
AcDbLine
 62
7
  6
CONTINUOUS
 10
15.6030258356
 20
0.7208379481
 11
15.4335203399
 21
0.7208379481
  0
LINE
  5
460
100
AcDbEntity
  8
ASSI
100
AcDbLine
 62
7
  6
CONTINUOUS
 10
15.6030258356
 20
0.7208379481
 11
15.4335203399
 21
0.7208379481
  0
LINE
  5
461
100
AcDbEntity
  8
RACCORDO
100
AcDbLine
 62
253
  6
CONTINUOUS
 10
50.044028566
 20
0.8078537649
 11
49.7025958789
 21
0.8078537649
  0
LINE
  5
462
100
AcDbEntity
  8
RACCORDO
100
AcDbLine
 62
253
  6
CONTINUOUS
 10
49.9892110583
 20
0.9174887716
 11
49.8122308857
 21
0.9174887716
  0
LINE
  5
463
100
AcDbEntity
  8
SCRITTE
100
AcDbLine
 62
253
  6
CONTINUOUS
 10
34.1106381732
 20
1.0374701148
 11
34.0231381732
 21
1.0374701148
  0
LINE
  5
464
100
AcDbEntity
  8
RACCORDO
100
AcDbLine
 62
253
  6
CONTINUOUS
 10
49.2773846152
 20
1.114561293
 11
49.106593912
 21
1.114561293
  0
LINE
  5
465
100
AcDbEntity
  8
ASSI
100
AcDbLine
 62
253
  6
CONTINUOUS
 10
49.2773846152
 20
1.114561293
 11
49.106593912
 21
1.114561293
  0
LINE
  5
466
100
AcDbEntity
  8
CURVE
100
AcDbLine
 62
253
  6
CONTINUOUS
 10
27.9293881911
 20
1.1249701148
 11
27.8293881762
 21
1.1249701148
  0
LINE
  5
467
100
AcDbEntity
  8
SCRITTE
100
AcDbLine
 62
253
  6
CONTINUOUS
 10
24.729388364
 20
1.1249701148
 11
24.029388364
 21
1.1249701148
  0
LINE
  5
468
100
AcDbEntity
  8
SCRITTE
100
AcDbLine
 62
253
  6
CONTINUOUS
 10
23.6293882209
 20
1.1249701148
 11
22.9293882209
 21
1.1249701148
  0
LINE
  5
469
100
AcDbEntity
  8
CURVE
100
AcDbLine
 62
253
  6
CONTINUOUS
 10
29.4293881017
 20
1.1249701148
 11
29.8293882448
 21
1.1249701148
  0
LINE
  5
46A
100
AcDbEntity
  8
RACCORDO
100
AcDbLine
 62
253
  6
CONTINUOUS
 10
49.0857505109
 20
1.1789765354
 11
36.0944807021
 21
1.1789765354
  0
LINE
  5
46B
100
AcDbEntity
  8
ASSI
100
AcDbLine
 62
253
  6
CONTINUOUS
 10
49.0857505109
 20
1.1789765354
 11
36.0944807021
 21
1.1789765354
  0
LINE
  5
46C
100
AcDbEntity
  8
CURVE
100
AcDbLine
 62
253
  6
CONTINUOUS
 10
23.3293880302
 20
1.4249701148
 11
22.9293882209
 21
1.4249701148
  0
LINE
  5
46D
100
AcDbEntity
  8
CURVE
100
AcDbLine
 62
253
  6
CONTINUOUS
 10
20.0293881017
 20
1.4249701148
 11
20.1293882209
 21
1.4249701148
  0
LINE
  5
46E
100
AcDbEntity
  8
CURVE
100
AcDbLine
 62
253
  6
CONTINUOUS
 10
21.8293880779
 20
1.4249701148
 11
22.5293880779
 21
1.4249701148
  0
LINE
  5
46F
100
AcDbEntity
  8
CURVE
100
AcDbLine
 62
253
  6
CONTINUOUS
 10
24.2293882686
 20
1.4249701148
 11
24.3293878871
 21
1.4249701148
  0
LINE
  5
470
100
AcDbEntity
  8
RACCORDO
100
AcDbLine
 62
7
  6
CONTINUOUS
 10
16.6508913174
 20
0.7081431483
 11
16.6075710038
 21
0.7081827769
  0
LINE
  5
471
100
AcDbEntity
  8
ASSI
100
AcDbLine
 62
7
  6
CONTINUOUS
 10
16.6508913174
 20
0.7081431483
 11
16.6075710038
 21
0.7081827769
  0
LINE
  5
472
100
AcDbEntity
  8
RACCORDO
100
AcDbLine
 62
7
  6
CONTINUOUS
 10
15.5588933284
 20
0.7093852971
 11
15.6030258356
 21
0.7091422154
  0
LINE
  5
473
100
AcDbEntity
  8
ASSI
100
AcDbLine
 62
7
  6
CONTINUOUS
 10
15.5588933284
 20
0.7093852971
 11
15.6030258356
 21
0.7091422154
  0
LINE
  5
474
100
AcDbEntity
  8
CURVE
100
AcDbLine
 62
253
  6
CONTINUOUS
 10
26.7293880779
 20
1.7583034491
 11
26.4627217609
 21
1.9583034581
  0
LINE
  5
475
100
AcDbEntity
  8
CURVE
100
AcDbLine
 62
253
  6
CONTINUOUS
 10
28.8293881375
 20
-0.1750298807
 11
28.8627215105
 21
-0.2083632173
  0
LINE
  5
476
100
AcDbEntity
  8
CURVE
100
AcDbLine
 62
253
  6
CONTINUOUS
 10
28.1293881792
 20
0.9249701267
 11
27.9293881911
 21
1.1249701148
  0
LINE
  5
477
100
AcDbEntity
  8
CURVE
100
AcDbLine
 62
253
  6
CONTINUOUS
 10
27.5293881732
 20
0.1249701327
 11
27.6293881777
 21
-0.0750298763
  0
LINE
  5
478
100
AcDbEntity
  8
CURVE
100
AcDbLine
 62
253
  6
CONTINUOUS
 10
26.1293881732
 20
3.7535415625
 11
26.2365310352
 21
3.5392558387
  0
LINE
  5
479
100
AcDbEntity
  8
CURVE
100
AcDbLine
 62
253
  6
CONTINUOUS
 10
28.2293881732
 20
0.7249701386
 11
28.1293881792
 21
0.9249701267
  0
LINE
  5
47A
100
AcDbEntity
  8
SCRITTE
100
AcDbLine
 62
253
  6
CONTINUOUS
 10
27.9960550624
 20
6.1662432471
 11
27.9960550624
 21
6.1575163793
  0
LINE
  5
47B
100
AcDbEntity
  8
CURVE
100
AcDbLine
 62
253
  6
CONTINUOUS
 10
28.0579595763
 20
3.7535415625
 11
28.0579595763
 21
4.3963987118
  0
LINE
  5
47C
100
AcDbEntity
  8
CURVE
100
AcDbLine
 62
253
  6
CONTINUOUS
 10
28.2293881732
 20
0.1249701327
 11
28.2293881732
 21
0.7249701386
  0
LINE
  5
47D
100
AcDbEntity
  8
CURVE
100
AcDbLine
 62
253
  6
CONTINUOUS
 10
28.4865309793
 20
4.1821130103
 11
28.4865309793
 21
4.6106844133
  0
LINE
  5
47E
100
AcDbEntity
  8
CURVE
100
AcDbLine
 62
253
  6
CONTINUOUS
 10
28.8293881375
 20
-0.1416965494
 11
28.8293881375
 21
-0.1750298807
  0
LINE
  5
47F
100
AcDbEntity
  8
CURVE
100
AcDbLine
 62
253
  6
CONTINUOUS
 10
28.9627215463
 20
-0.1416965494
 11
28.9627215463
 21
-0.108363218
  0
LINE
  5
480
100
AcDbEntity
  8
CURVE
100
AcDbLine
 62
253
  6
CONTINUOUS
 10
29.2365309793
 20
4.1821130103
 11
29.1293881732
 21
3.7535415625
  0
LINE
  5
481
100
AcDbEntity
  8
CURVE
100
AcDbLine
 62
253
  6
CONTINUOUS
 10
27.9508167702
 20
3.5392558387
 11
28.0579595763
 21
3.7535415625
  0
LINE
  5
482
100
AcDbEntity
  8
CURVE
100
AcDbLine
 62
253
  6
CONTINUOUS
 10
27.6293881777
 20
0.9249701267
 11
27.5293881732
 21
0.7249701386
  0
LINE
  5
483
100
AcDbEntity
  8
CURVE
100
AcDbLine
 62
253
  6
CONTINUOUS
 10
27.7365309793
 20
3.3249701148
 11
27.9508167702
 21
3.5392558387
  0
LINE
  5
484
100
AcDbEntity
  8
CURVE
100
AcDbLine
 62
253
  6
CONTINUOUS
 10
29.1293881732
 20
3.7535415625
 11
28.7008167702
 21
3.3249701148
  0
LINE
  5
485
100
AcDbEntity
  8
CURVE
100
AcDbLine
 62
253
  6
CONTINUOUS
 10
30.272245248
 20
4.2892558163
 11
30.0936737853
 21
4.1821130103
  0
LINE
  5
486
100
AcDbEntity
  8
CURVE
100
AcDbLine
 62
253
  6
CONTINUOUS
 10
26.4627217609
 20
1.9583034581
 11
26.2293879825
 21
1.858303464
  0
LINE
  5
487
100
AcDbEntity
  8
CURVE
100
AcDbLine
 62
253
  6
CONTINUOUS
 10
26.9960550624
 20
1.858303464
 11
26.7293880779
 21
1.7583034491
  0
LINE
  5
488
100
AcDbEntity
  8
RACCORDO
100
AcDbLine
 62
253
  6
CONTINUOUS
 10
49.2887534814
 20
1.8228903859
 11
49.1014600694
 21
1.8228903859
  0
LINE
  5
489
100
AcDbEntity
  8
ASSI
100
AcDbLine
 62
253
  6
CONTINUOUS
 10
49.2887534814
 20
1.8228903859
 11
49.1014600694
 21
1.8228903859
  0
LINE
  5
48A
100
AcDbEntity
  8
CURVE
100
AcDbLine
 62
253
  6
CONTINUOUS
 10
21.4293882686
 20
1.9249701267
 11
20.8293882209
 21
1.9249701267
  0
LINE
  5
48B
100
AcDbEntity
  8
ASSI
100
AcDbLine
 62
7
  6
CONTINUOUS
 10
41.4293881732
 20
1.9249701148
 11
42.4876886977
 21
1.9249701148
  0
LINE
  5
48C
100
AcDbEntity
  8
0
100
AcDbLine
 62
7
  6
CONTINUOUS
 10
13.6389976103
 20
2.1749701148
 11
7.354118377
 21
2.1749701148
  0
LINE
  5
48D
100
AcDbEntity
  8
CURVE
100
AcDbLine
 62
253
  6
CONTINUOUS
 10
22.9293882209
 20
2.2249701506
 11
23.3293880302
 21
2.2249701506
  0
LINE
  5
48E
100
AcDbEntity
  8
DRAFT
100
AcDbLine
 62
7
  6
CONTINUOUS
 10
16.6429060879
 20
2.4249701148
 11
16.6075710038
 21
2.4249701148
  0
LINE
  5
48F
100
AcDbEntity
  8
ASSI
100
AcDbLine
 62
7
  6
CONTINUOUS
 10
16.6429060879
 20
2.4249701148
 11
16.6075710038
 21
2.4249701148
  0
LINE
  5
490
100
AcDbEntity
  8
DRAFT
100
AcDbLine
 62
7
  6
CONTINUOUS
 10
15.6030258356
 20
2.4249701148
 11
13.6429060879
 21
2.4249701148
  0
LINE
  5
491
100
AcDbEntity
  8
ASSI
100
AcDbLine
 62
7
  6
CONTINUOUS
 10
15.6030258356
 20
2.4249701148
 11
13.6429060879
 21
2.4249701148
  0
LINE
  5
492
100
AcDbEntity
  8
0
100
AcDbLine
 62
7
  6
CONTINUOUS
 10
13.6389976103
 20
2.6749701148
 11
7.354118377
 21
2.6749701148
  0
LINE
  5
493
100
AcDbEntity
  8
CURVE
100
AcDbLine
 62
253
  6
CONTINUOUS
 10
24.3293878871
 20
2.8249701148
 11
24.2293882686
 21
2.8249701148
  0
LINE
  5
494
100
AcDbEntity
  8
CURVE
100
AcDbLine
 62
253
  6
CONTINUOUS
 10
23.5293882686
 20
2.8249701148
 11
22.9293882209
 21
2.8249701148
  0
LINE
  5
495
100
AcDbEntity
  8
CURVE
100
AcDbLine
 62
253
  6
CONTINUOUS
 10
20.1293882209
 20
2.8249701148
 11
20.0293881017
 21
2.8249701148
  0
LINE
  5
496
100
AcDbEntity
  8
CURVE
100
AcDbLine
 62
253
  6
CONTINUOUS
 10
22.0293883163
 20
2.8249701148
 11
22.3293881732
 21
2.8249701148
  0
LINE
  5
497
100
AcDbEntity
  8
SCRITTE
100
AcDbLine
 62
253
  6
CONTINUOUS
 10
34.2856381732
 20
0.9937201148
 11
34.1106381732
 21
1.0374701148
  0
LINE
  5
498
100
AcDbEntity
  8
SCRITTE
100
AcDbLine
 62
253
  6
CONTINUOUS
 10
33.8481381732
 20
-0.2312798852
 11
33.9793881732
 21
-0.2750298852
  0
LINE
  5
499
100
AcDbEntity
  8
SCRITTE
100
AcDbLine
 62
253
  6
CONTINUOUS
 10
33.9356381732
 20
0.5562201148
 11
34.0668881732
 21
0.5124701148
  0
LINE
  5
49A
100
AcDbEntity
  8
SCRITTE
100
AcDbLine
 62
253
  6
CONTINUOUS
 10
34.4168881732
 20
0.9499701148
 11
34.2856381732
 21
0.9937201148
  0
LINE
  5
49B
100
AcDbEntity
  8
SCRITTE
100
AcDbLine
 62
253
  6
CONTINUOUS
 10
33.7606381732
 20
-0.1875298852
 11
33.8481381732
 21
-0.2312798852
  0
LINE
  5
49C
100
AcDbEntity
  8
CURVE
100
AcDbLine
 62
253
  6
CONTINUOUS
 10
26.2365310352
 20
3.5392558387
 11
26.4508167479
 21
3.3249701148
  0
LINE
  5
49D
100
AcDbEntity
  8
CURVE
100
AcDbLine
 62
253
  6
CONTINUOUS
 10
29.8293882448
 20
0.5249701506
 11
30.0293881494
 21
0.3249701208
  0
LINE
  5
49E
100
AcDbEntity
  8
CURVE
100
AcDbLine
 62
253
  6
CONTINUOUS
 10
27.4151024717
 20
3.5392558387
 11
27.6293881732
 21
3.3249701148
  0
LINE
  5
49F
100
AcDbEntity
  8
CURVE
100
AcDbLine
 62
253
  6
CONTINUOUS
 10
26.7722453225
 20
4.6106844133
 11
26.557959621
 21
4.8249701148
  0
LINE
  5
4A0
100
AcDbEntity
  8
CURVE
100
AcDbLine
 62
253
  6
CONTINUOUS
 10
29.8293882448
 20
1.1249701148
 11
29.9960547763
 21
0.9249701267
  0
LINE
  5
4A1
100
AcDbEntity
  8
CURVE
100
AcDbLine
 62
253
  6
CONTINUOUS
 10
28.9627215463
 20
-0.108363218
 11
28.9293881732
 21
-0.0416965449
  0
LINE
  5
4A2
100
AcDbEntity
  8
CURVE
100
AcDbLine
 62
253
  6
CONTINUOUS
 10
26.8793881732
 20
4.3963987118
 11
26.7722453225
 21
4.6106844133
  0
LINE
  5
4A3
100
AcDbEntity
  8
CURVE
100
AcDbLine
 62
253
  6
CONTINUOUS
 10
27.3079595763
 20
3.7535415625
 11
27.4151024717
 21
3.5392558387
  0
LINE
  5
4A4
100
AcDbEntity
  8
CURVE
100
AcDbLine
 62
253
  6
CONTINUOUS
 10
28.0579595763
 20
4.3963987118
 11
27.9508167702
 21
4.6106844133
  0
LINE
  5
4A5
100
AcDbEntity
  8
SCRITTE
100
AcDbLine
 62
253
  6
CONTINUOUS
 10
29.162721284
 20
6.1679886206
 11
29.162721284
 21
6.1557710057
  0
LINE
  5
4A6
100
AcDbEntity
  8
CURVE
100
AcDbLine
 62
253
  6
CONTINUOUS
 10
29.2365309793
 20
4.6106844133
 11
29.2365309793
 21
4.1821130103
  0
LINE
  5
4A7
100
AcDbEntity
  8
SCRITTE
100
AcDbLine
 62
253
  6
CONTINUOUS
 10
29.862721284
 20
6.1557710057
 11
29.862721284
 21
6.1679886206
  0
LINE
  5
4A8
100
AcDbEntity
  8
CURVE
100
AcDbLine
 62
253
  6
CONTINUOUS
 10
29.9960547763
 20
0.9249701267
 11
29.9960547763
 21
0.6249701029
  0
LINE
  5
4A9
100
AcDbEntity
  8
CURVE
100
AcDbLine
 62
253
  6
CONTINUOUS
 10
30.0293881494
 20
0.3249701208
 11
30.0293881494
 21
-0.1750298807
  0
LINE
  5
4AA
100
AcDbEntity
  8
CURVE
100
AcDbLine
 62
253
  6
CONTINUOUS
 10
30.272245248
 20
4.6106844133
 11
30.272245248
 21
4.2892558163
  0
LINE
  5
4AB
100
AcDbEntity
  8
CURVE
100
AcDbLine
 62
253
  6
CONTINUOUS
 10
30.3079597551
 20
3.9678272641
 11
30.3079597551
 21
3.4321129767
  0
LINE
  5
4AC
100
AcDbEntity
  8
CURVE
100
AcDbLine
 62
253
  6
CONTINUOUS
 10
28.9293881732
 20
-0.2416965512
 11
28.9627215463
 21
-0.1416965494
  0
LINE
  5
4AD
100
AcDbEntity
  8
CURVE
100
AcDbLine
 62
253
  6
CONTINUOUS
 10
28.1293881792
 20
-0.0750298763
 11
28.2293881732
 21
0.1249701327
  0
LINE
  5
4AE
100
AcDbEntity
  8
CURVE
100
AcDbLine
 62
253
  6
CONTINUOUS
 10
28.8627215105
 20
-0.0750298763
 11
28.8293881375
 21
-0.1416965494
  0
LINE
  5
4AF
100
AcDbEntity
  8
CURVE
100
AcDbLine
 62
253
  6
CONTINUOUS
 10
28.8627215105
 20
-0.3750298897
 11
28.9293881732
 21
-0.2416965512
  0
LINE
  5
4B0
100
AcDbEntity
  8
CURVE
100
AcDbLine
 62
253
  6
CONTINUOUS
 10
30.8079596359
 20
4.6106844133
 11
30.9508165914
 21
4.8249701148
  0
LINE
  5
4B1
100
AcDbEntity
  8
CURVE
100
AcDbLine
 62
253
  6
CONTINUOUS
 10
27.8293881762
 20
1.1249701148
 11
27.6293881777
 21
0.9249701267
  0
LINE
  5
4B2
100
AcDbEntity
  8
CURVE
100
AcDbLine
 62
253
  6
CONTINUOUS
 10
30.9508165914
 20
4.1821130103
 11
30.7365309793
 21
3.9678272641
  0
LINE
  5
4B3
100
AcDbEntity
  8
CURVE
100
AcDbLine
 62
253
  6
CONTINUOUS
 10
30.3079597551
 20
3.4321129767
 11
30.2008165914
 21
3.3249701148
  0
LINE
  5
4B4
100
AcDbEntity
  8
CURVE
100
AcDbLine
 62
253
  6
CONTINUOUS
 10
31.2722453672
 20
3.3249701148
 11
31.4865309793
 21
3.5392558387
  0
LINE
  5
4B5
100
AcDbEntity
  8
CURVE
100
AcDbLine
 62
253
  6
CONTINUOUS
 10
32.9865313369
 20
4.8249701148
 11
32.7722450096
 21
4.6106844133
  0
LINE
  5
4B6
100
AcDbEntity
  8
CURVE
100
AcDbLine
 62
253
  6
CONTINUOUS
 10
27.9293881911
 20
-0.2750298852
 11
28.1293881792
 21
-0.0750298763
  0
LINE
  5
4B7
100
AcDbEntity
  8
CURVE
100
AcDbLine
 62
253
  6
CONTINUOUS
 10
31.4151023227
 20
4.2892558163
 11
31.2722453672
 21
4.1821130103
  0
LINE
  5
4B8
100
AcDbEntity
  8
RACCORDO
100
AcDbLine
 62
7
  6
CONTINUOUS
 10
15.5369876638
 20
4.140349658
 11
15.4979643423
 21
4.1398033663
  0
LINE
  5
4B9
100
AcDbEntity
  8
ASSI
100
AcDbLine
 62
7
  6
CONTINUOUS
 10
15.5369876638
 20
4.140349658
 11
15.4979643423
 21
4.1398033663
  0
LWPOLYLINE
  5
4BA
100
AcDbEntity
  8
RACCORDO
100
AcDbPolyline
 62
7
  6
CONTINUOUS
 90
3
 70
0
 10
15.6030258356
 20
4.1407980142
 10
15.5817668177
 20
4.1407072177
 10
15.5369876638
 20
4.140349658
  0
LWPOLYLINE
  5
4BB
100
AcDbEntity
  8
ASSI
100
AcDbPolyline
 62
7
  6
CONTINUOUS
 90
3
 70
0
 10
15.6030258356
 20
4.1407980142
 10
15.5817668177
 20
4.1407072177
 10
15.5369876638
 20
4.140349658
  0
LINE
  5
4BC
100
AcDbEntity
  8
RACCORDO
100
AcDbLine
 62
7
  6
CONTINUOUS
 10
16.6508913174
 20
4.1417970813
 11
16.6075710038
 21
4.1417574527
  0
LINE
  5
4BD
100
AcDbEntity
  8
ASSI
100
AcDbLine
 62
7
  6
CONTINUOUS
 10
16.6508913174
 20
4.1417970813
 11
16.6075710038
 21
4.1417574527
  0
LINE
  5
4BE
100
AcDbEntity
  8
ASSI
100
AcDbLine
 62
7
  6
CONTINUOUS
 10
41.4293881732
 20
2.9249701148
 11
42.4876886977
 21
2.9249701148
  0
LINE
  5
4BF
100
AcDbEntity
  8
RACCORDO
100
AcDbLine
 62
253
  6
CONTINUOUS
 10
49.1014600694
 20
3.0270498437
 11
49.2887534814
 21
3.0270498437
  0
LINE
  5
4C0
100
AcDbEntity
  8
ASSI
100
AcDbLine
 62
253
  6
CONTINUOUS
 10
49.1014600694
 20
3.0270498437
 11
49.2887534814
 21
3.0270498437
  0
LINE
  5
4C1
100
AcDbEntity
  8
0
100
AcDbLine
 62
7
  6
CONTINUOUS
 10
18.9771121732
 20
3.1426691148
 11
19.2898041732
 21
3.1426691148
  0
LINE
  5
4C2
100
AcDbEntity
  8
ASSI
100
AcDbLine
 62
7
  6
CONTINUOUS
 10
18.9771121732
 20
3.1426691148
 11
19.2898041732
 21
3.1426691148
  0
LINE
  5
4C3
100
AcDbEntity
  8
0
100
AcDbLine
 62
7
  6
CONTINUOUS
 10
19.9678861732
 20
3.1426691148
 11
20.3227141732
 21
3.1426691148
  0
LINE
  5
4C4
100
AcDbEntity
  8
ASSI
100
AcDbLine
 62
7
  6
CONTINUOUS
 10
19.9678861732
 20
3.1426691148
 11
20.3227141732
 21
3.1426691148
  0
LINE
  5
4C5
100
AcDbEntity
  8
0
100
AcDbLine
 62
7
  6
CONTINUOUS
 10
20.5137291732
 20
3.1426691148
 11
20.8531841732
 21
3.1426691148
  0
LINE
  5
4C6
100
AcDbEntity
  8
ASSI
100
AcDbLine
 62
7
  6
CONTINUOUS
 10
20.5137291732
 20
3.1426691148
 11
20.8531841732
 21
3.1426691148
  0
LINE
  5
4C7
100
AcDbEntity
  8
0
100
AcDbLine
 62
7
  6
CONTINUOUS
 10
21.3460121732
 20
3.1426691148
 11
21.3957761732
 21
3.1426691148
  0
LINE
  5
4C8
100
AcDbEntity
  8
ASSI
100
AcDbLine
 62
7
  6
CONTINUOUS
 10
21.3460121732
 20
3.1426691148
 11
21.3957761732
 21
3.1426691148
  0
LINE
  5
4C9
100
AcDbEntity
  8
0
100
AcDbLine
 62
7
  6
CONTINUOUS
 10
21.8905681732
 20
3.1426691148
 11
22.2376841732
 21
3.1426691148
  0
LINE
  5
4CA
100
AcDbEntity
  8
ASSI
100
AcDbLine
 62
7
  6
CONTINUOUS
 10
21.8905681732
 20
3.1426691148
 11
22.2376841732
 21
3.1426691148
  0
LINE
  5
4CB
100
AcDbEntity
  8
0
100
AcDbLine
 62
7
  6
CONTINUOUS
 10
22.2934011732
 20
3.1426691148
 11
22.6443791732
 21
3.1426691148
  0
LINE
  5
4CC
100
AcDbEntity
  8
ASSI
100
AcDbLine
 62
7
  6
CONTINUOUS
 10
22.2934011732
 20
3.1426691148
 11
22.6443791732
 21
3.1426691148
  0
LINE
  5
4CD
100
AcDbEntity
  8
0
100
AcDbLine
 62
7
  6
CONTINUOUS
 10
23.3174261732
 20
3.1426691148
 11
23.6914001732
 21
3.1426691148
  0
LINE
  5
4CE
100
AcDbEntity
  8
ASSI
100
AcDbLine
 62
7
  6
CONTINUOUS
 10
23.3174261732
 20
3.1426691148
 11
23.6914001732
 21
3.1426691148
  0
LINE
  5
4CF
100
AcDbEntity
  8
0
100
AcDbLine
 62
7
  6
CONTINUOUS
 10
23.7955948372
 20
3.1426694281
 11
24.1489951692
 21
3.1426694281
  0
LINE
  5
4D0
100
AcDbEntity
  8
ASSI
100
AcDbLine
 62
7
  6
CONTINUOUS
 10
23.7955948372
 20
3.1426694281
 11
24.1489951692
 21
3.1426694281
  0
LINE
  5
4D1
100
AcDbEntity
  8
0
100
AcDbLine
 62
7
  6
CONTINUOUS
 10
24.6923653883
 20
3.1426694281
 11
25.0336687317
 21
3.1426694281
  0
LINE
  5
4D2
100
AcDbEntity
  8
ASSI
100
AcDbLine
 62
7
  6
CONTINUOUS
 10
24.6923653883
 20
3.1426694281
 11
25.0336687317
 21
3.1426694281
  0
LINE
  5
4D3
100
AcDbEntity
  8
CURVE
100
AcDbLine
 62
253
  6
CONTINUOUS
 10
30.2008165914
 20
3.3249701148
 11
29.6651025611
 21
3.3249701148
  0
LINE
  5
4D4
100
AcDbEntity
  8
CURVE
100
AcDbLine
 62
253
  6
CONTINUOUS
 10
26.4508167479
 20
3.3249701148
 11
26.557959621
 21
3.3249701148
  0
LINE
  5
4D5
100
AcDbEntity
  8
CURVE
100
AcDbLine
 62
253
  6
CONTINUOUS
 10
27.6293881732
 20
3.3249701148
 11
27.7365309793
 21
3.3249701148
  0
LINE
  5
4D6
100
AcDbEntity
  8
CURVE
100
AcDbLine
 62
253
  6
CONTINUOUS
 10
30.9508165914
 20
3.3249701148
 11
31.2722453672
 21
3.3249701148
  0
LINE
  5
4D7
100
AcDbEntity
  8
CURVE
100
AcDbLine
 62
253
  6
CONTINUOUS
 10
32.9865313369
 20
3.3249701148
 11
33.5222450096
 21
3.3249701148
  0
LINE
  5
4D8
100
AcDbEntity
  8
CURVE
100
AcDbLine
 62
253
  6
CONTINUOUS
 10
32.1651023227
 20
3.3963986876
 11
32.2365313369
 21
3.3963986876
  0
LINE
  5
4D9
100
AcDbEntity
  8
0
100
AcDbLine
 62
7
  6
CONTINUOUS
 10
22.7422901732
 20
3.4820221148
 11
23.2255071732
 21
3.4820221148
  0
LINE
  5
4DA
100
AcDbEntity
  8
ASSI
100
AcDbLine
 62
7
  6
CONTINUOUS
 10
22.7422901732
 20
3.4820221148
 11
23.2255071732
 21
3.4820221148
  0
LINE
  5
4DB
100
AcDbEntity
  8
CURVE
100
AcDbLine
 62
253
  6
CONTINUOUS
 10
32.2365313369
 20
3.5749701223
 11
32.1651023227
 21
3.5749701223
  0
LINE
  5
4DC
100
AcDbEntity
  8
RACCORDO
100
AcDbLine
 62
253
  6
CONTINUOUS
 10
36.0944807021
 20
3.6709636942
 11
49.0857505109
 21
3.6709636942
  0
LINE
  5
4DD
100
AcDbEntity
  8
ASSI
100
AcDbLine
 62
253
  6
CONTINUOUS
 10
36.0944807021
 20
3.6709636942
 11
49.0857505109
 21
3.6709636942
  0
LINE
  5
4DE
100
AcDbEntity
  8
RACCORDO
100
AcDbLine
 62
253
  6
CONTINUOUS
 10
49.106593912
 20
3.7353789366
 11
49.2773846152
 21
3.7353789366
  0
LINE
  5
4DF
100
AcDbEntity
  8
ASSI
100
AcDbLine
 62
253
  6
CONTINUOUS
 10
49.106593912
 20
3.7353789366
 11
49.2773846152
 21
3.7353789366
  0
LINE
  5
4E0
100
AcDbEntity
  8
0
100
AcDbLine
 62
7
  6
CONTINUOUS
 10
23.1545941732
 20
3.7446121148
 11
22.8148721732
 21
3.7446121148
  0
LINE
  5
4E1
100
AcDbEntity
  8
ASSI
100
AcDbLine
 62
7
  6
CONTINUOUS
 10
23.1545941732
 20
3.7446121148
 11
22.8148721732
 21
3.7446121148
  0
LINE
  5
4E2
100
AcDbEntity
  8
0
100
AcDbLine
 62
7
  6
CONTINUOUS
 10
24.1489951692
 20
3.8079018307
 11
24.3392454923
 21
3.8079018307
  0
LINE
  5
4E3
100
AcDbEntity
  8
ASSI
100
AcDbLine
 62
7
  6
CONTINUOUS
 10
24.1489951692
 20
3.8079018307
 11
24.3392454923
 21
3.8079018307
  0
LINE
  5
4E4
100
AcDbEntity
  8
RACCORDO
100
AcDbLine
 62
253
  6
CONTINUOUS
 10
49.8122308857
 20
3.932451458
 11
49.9892110583
 21
3.932451458
  0
LINE
  5
4E5
100
AcDbEntity
  8
CURVE
100
AcDbLine
 62
253
  6
CONTINUOUS
 10
29.1651023227
 20
3.9678272641
 11
28.7008167702
 21
3.9678272641
  0
LINE
  5
4E6
100
AcDbEntity
  8
RACCORDO
100
AcDbLine
 62
253
  6
CONTINUOUS
 10
49.7025958789
 20
4.0420864648
 11
50.0440285947
 21
4.0420864648
  0
LINE
  5
4E7
100
AcDbEntity
  8
0
100
AcDbLine
 62
7
  6
CONTINUOUS
 10
24.3400103177
 20
4.0862982833
 11
24.1372296049
 21
4.0862982833
  0
LINE
  5
4E8
100
AcDbEntity
  8
ASSI
100
AcDbLine
 62
7
  6
CONTINUOUS
 10
24.3400103177
 20
4.0862982833
 11
24.1372296049
 21
4.0862982833
  0
LINE
  5
4E9
100
AcDbEntity
  8
DRAFT
100
AcDbLine
 62
7
  6
CONTINUOUS
 10
16.6445444009
 20
4.1291022815
 11
16.6075710038
 21
4.1291022815
  0
LINE
  5
4EA
100
AcDbEntity
  8
ASSI
100
AcDbLine
 62
7
  6
CONTINUOUS
 10
16.6445444009
 20
4.1291022815
 11
16.6075710038
 21
4.1291022815
  0
LINE
  5
4EB
100
AcDbEntity
  8
DRAFT
100
AcDbLine
 62
7
  6
CONTINUOUS
 10
15.6030258356
 20
4.1291022815
 11
15.4335203399
 21
4.1291022815
  0
LINE
  5
4EC
100
AcDbEntity
  8
ASSI
100
AcDbLine
 62
7
  6
CONTINUOUS
 10
15.6030258356
 20
4.1291022815
 11
15.4335203399
 21
4.1291022815
  0
LINE
  5
4ED
100
AcDbEntity
  8
0
100
AcDbLine
 62
7
  6
CONTINUOUS
 10
13.6389972598
 20
4.1749701148
 11
7.354118377
 21
4.1749701148
  0
LINE
  5
4EE
100
AcDbEntity
  8
CURVE
100
AcDbLine
 62
253
  6
CONTINUOUS
 10
33.5222450096
 20
4.1821130103
 11
33.200816949
 21
4.1821130103
  0
LINE
  5
4EF
100
AcDbEntity
  8
CURVE
100
AcDbLine
 62
253
  6
CONTINUOUS
 10
31.2722453672
 20
4.1821130103
 11
30.9508165914
 21
4.1821130103
  0
LINE
  5
4F0
100
AcDbEntity
  8
CURVE
100
AcDbLine
 62
253
  6
CONTINUOUS
 10
29.8793881732
 20
4.1821130103
 11
30.0936737853
 21
4.1821130103
  0
LINE
  5
4F1
100
AcDbEntity
  8
RACCORDO
100
AcDbLine
 62
253
  6
CONTINUOUS
 10
15.4418571892
 20
4.3082716741
 11
15.6030258356
 21
4.3082716752
  0
LINE
  5
4F2
100
AcDbEntity
  8
ASSI
100
AcDbLine
 62
253
  6
CONTINUOUS
 10
15.4418571892
 20
4.3082716741
 11
15.6030258356
 21
4.3082716752
  0
LINE
  5
4F3
100
AcDbEntity
  8
RACCORDO
100
AcDbLine
 62
253
  6
CONTINUOUS
 10
36.0964945946
 20
4.3099347606
 11
49.0897786028
 21
4.3099347606
  0
LINE
  5
4F4
100
AcDbEntity
  8
ASSI
100
AcDbLine
 62
253
  6
CONTINUOUS
 10
36.0964945946
 20
4.3099347606
 11
49.0897786028
 21
4.3099347606
  0
LINE
  5
4F5
100
AcDbEntity
  8
RACCORDO
100
AcDbLine
 62
253
  6
CONTINUOUS
 10
16.6075710038
 20
4.3078251982
 11
16.6508913174
 21
4.3078053854
  0
LINE
  5
4F6
100
AcDbEntity
  8
ASSI
100
AcDbLine
 62
253
  6
CONTINUOUS
 10
16.6075710038
 20
4.3078251982
 11
16.6508913174
 21
4.3078053854
  0
LWPOLYLINE
  5
4F7
100
AcDbEntity
  8
0
100
AcDbPolyline
 62
7
  6
CONTINUOUS
 90
10
 70
0
 10
24.3392454923
 20
3.8079018307
 10
24.3677899721
 20
3.8055783546
 10
24.3949606901
 20
3.7993407355
 10
24.4207576462
 20
3.7891889734
 10
24.445532047
 20
3.7746770636
 10
24.4689326859
 20
3.7562510107
 10
24.4899059431
 20
3.7352488285
 10
24.5081006121
 20
3.7121165215
 10
24.5238678994
 20
3.6864080851
 10
24.537207805
 20
3.6581235194
  0
LWPOLYLINE
  5
4F8
100
AcDbEntity
  8
ASSI
100
AcDbPolyline
 62
7
  6
CONTINUOUS
 90
10
 70
0
 10
24.3392454923
 20
3.8079018307
 10
24.3677899721
 20
3.8055783546
 10
24.3949606901
 20
3.7993407355
 10
24.4207576462
 20
3.7891889734
 10
24.445532047
 20
3.7746770636
 10
24.4689326859
 20
3.7562510107
 10
24.4899059431
 20
3.7352488285
 10
24.5081006121
 20
3.7121165215
 10
24.5238678994
 20
3.6864080851
 10
24.537207805
 20
3.6581235194
  0
LWPOLYLINE
  5
4F9
100
AcDbEntity
  8
0
100
AcDbPolyline
 62
7
  6
CONTINUOUS
 90
13
 70
0
 10
24.4152054035
 20
4.5629502317
 10
24.444518359
 20
4.5573681792
 10
24.4716827201
 20
4.5493645368
 10
24.4966984867
 20
4.5389393045
 10
24.5196309941
 20
4.5260190227
 10
24.5404149071
 20
4.5106771511
 10
24.5588542199
 20
4.4931340683
 10
24.5750399239
 20
4.4731534065
 10
24.5888810277
 20
4.4509715334
 10
24.5999085505
 20
4.4275179316
 10
24.6079661653
 20
4.4031024285
 10
24.613210199
 20
4.3774151967
 10
24.6156406517
 20
4.350456236
  0
LWPOLYLINE
  5
4FA
100
AcDbEntity
  8
ASSI
100
AcDbPolyline
 62
7
  6
CONTINUOUS
 90
13
 70
0
 10
24.4152054035
 20
4.5629502317
 10
24.444518359
 20
4.5573681792
 10
24.4716827201
 20
4.5493645368
 10
24.4966984867
 20
4.5389393045
 10
24.5196309941
 20
4.5260190227
 10
24.5404149071
 20
4.5106771511
 10
24.5588542199
 20
4.4931340683
 10
24.5750399239
 20
4.4731534065
 10
24.5888810277
 20
4.4509715334
 10
24.5999085505
 20
4.4275179316
 10
24.6079661653
 20
4.4031024285
 10
24.613210199
 20
4.3774151967
 10
24.6156406517
 20
4.350456236
  0
LWPOLYLINE
  5
4FB
100
AcDbEntity
  8
0
100
AcDbPolyline
 62
7
  6
CONTINUOUS
 90
13
 70
0
 10
24.6712562068
 20
4.8047752822
 10
24.6121542765
 20
4.8231150264
 10
24.5503401289
 20
4.8381773655
 10
24.4858137638
 20
4.8499622994
 10
24.4184801449
 20
4.8583836385
 10
24.3484343086
 20
4.8635275724
 10
24.2759613639
 20
4.8656526703
 10
24.2009759695
 20
4.8645804053
 10
24.1235634667
 20
4.8604893045
 10
24.0442649887
 20
4.8541735181
 10
23.9632609133
 20
4.8458977632
 10
23.8803708628
 20
4.8353973228
 10
23.7955948372
 20
4.822672197
  0
LWPOLYLINE
  5
4FC
100
AcDbEntity
  8
ASSI
100
AcDbPolyline
 62
7
  6
CONTINUOUS
 90
13
 70
0
 10
24.6712562068
 20
4.8047752822
 10
24.6121542765
 20
4.8231150264
 10
24.5503401289
 20
4.8381773655
 10
24.4858137638
 20
4.8499622994
 10
24.4184801449
 20
4.8583836385
 10
24.3484343086
 20
4.8635275724
 10
24.2759613639
 20
4.8656526703
 10
24.2009759695
 20
4.8645804053
 10
24.1235634667
 20
4.8604893045
 10
24.0442649887
 20
4.8541735181
 10
23.9632609133
 20
4.8458977632
 10
23.8803708628
 20
4.8353973228
 10
23.7955948372
 20
4.822672197
  0
LINE
  5
4FD
100
AcDbEntity
  8
SCRITTE
100
AcDbLine
 62
253
  6
CONTINUOUS
 10
33.8481381732
 20
0.5999701148
 11
33.9356381732
 21
0.5562201148
  0
LINE
  5
4FE
100
AcDbEntity
  8
SCRITTE
100
AcDbLine
 62
253
  6
CONTINUOUS
 10
34.5043881732
 20
0.9062201148
 11
34.4168881732
 21
0.9499701148
  0
LINE
  5
4FF
100
AcDbEntity
  8
CURVE
100
AcDbLine
 62
253
  6
CONTINUOUS
 10
27.9508167702
 20
4.6106844133
 11
27.7365309793
 21
4.8249701148
  0
LINE
  5
500
100
AcDbEntity
  8
CURVE
100
AcDbLine
 62
253
  6
CONTINUOUS
 10
28.7008167702
 20
3.9678272641
 11
28.4865309793
 21
4.1821130103
  0
LINE
  5
501
100
AcDbEntity
  8
SCRITTE
100
AcDbLine
 62
253
  6
CONTINUOUS
 10
33.6731381732
 20
-0.1000298852
 11
33.7606381732
 21
-0.1875298852
  0
LINE
  5
502
100
AcDbEntity
  8
CURVE
100
AcDbLine
 62
253
  6
CONTINUOUS
 10
31.3293880302
 20
-0.2750298852
 11
31.0293881732
 21
0.7249701386
  0
LINE
  5
503
100
AcDbEntity
  8
CURVE
100
AcDbLine
 62
253
  6
CONTINUOUS
 10
30.7293883163
 20
-0.2750298852
 11
30.4293881256
 21
1.1249701148
  0
LINE
  5
504
100
AcDbEntity
  8
SCRITTE
100
AcDbLine
 62
253
  6
CONTINUOUS
 10
30.5293887454
 20
6.1679886206
 11
30.5293887454
 21
6.1557710057
  0
LINE
  5
505
100
AcDbEntity
  8
CURVE
100
AcDbLine
 62
253
  6
CONTINUOUS
 10
30.7365309793
 20
3.9678272641
 11
30.7365309793
 21
3.5392558387
  0
LINE
  5
506
100
AcDbEntity
  8
CURVE
100
AcDbLine
 62
253
  6
CONTINUOUS
 10
30.8079596359
 20
4.2892558163
 11
30.8079596359
 21
4.6106844133
  0
LINE
  5
507
100
AcDbEntity
  8
SCRITTE
100
AcDbLine
 62
253
  6
CONTINUOUS
 10
31.1627209979
 20
6.1679886206
 11
31.1627209979
 21
6.1557710057
  0
LINE
  5
508
100
AcDbEntity
  8
CURVE
100
AcDbLine
 62
253
  6
CONTINUOUS
 10
31.4151023227
 20
4.6106844133
 11
31.4151023227
 21
4.2892558163
  0
LINE
  5
509
100
AcDbEntity
  8
CURVE
100
AcDbLine
 62
253
  6
CONTINUOUS
 10
31.4865309793
 20
3.5392558387
 11
31.4865309793
 21
3.9678272641
  0
LINE
  5
50A
100
AcDbEntity
  8
SCRITTE
100
AcDbLine
 62
253
  6
CONTINUOUS
 10
31.8627209979
 20
6.1679886206
 11
31.8627209979
 21
6.1557710057
  0
LINE
  5
50B
100
AcDbEntity
  8
CURVE
100
AcDbLine
 62
253
  6
CONTINUOUS
 10
31.6293882209
 20
1.1249701148
 11
31.3293880302
 21
-0.2750298852
  0
LINE
  5
50C
100
AcDbEntity
  8
CURVE
100
AcDbLine
 62
253
  6
CONTINUOUS
 10
31.0293881732
 20
0.7249701386
 11
30.7293883163
 21
-0.2750298852
  0
LINE
  5
50D
100
AcDbEntity
  8
CURVE
100
AcDbLine
 62
253
  6
CONTINUOUS
 10
32.1651023227
 20
3.5749701223
 11
32.1293881732
 21
3.5035415439
  0
LINE
  5
50E
100
AcDbEntity
  8
CURVE
100
AcDbLine
 62
253
  6
CONTINUOUS
 10
32.2365313369
 20
3.3963986876
 11
32.2722454864
 21
3.4678272603
  0
LINE
  5
50F
100
AcDbEntity
  8
CURVE
100
AcDbLine
 62
253
  6
CONTINUOUS
 10
28.8960548002
 20
-0.0416965449
 11
28.8627215105
 21
-0.0750298763
  0
LINE
  5
510
100
AcDbEntity
  8
DRAFT
100
AcDbLine
 62
7
  6
CONTINUOUS
 10
35.3293881732
 20
6.227351269
 11
35.277007019
 21
6.1749701148
  0
LINE
  5
511
100
AcDbEntity
  8
CURVE
100
AcDbLine
 62
253
  6
CONTINUOUS
 10
28.8960548002
 20
-0.2083632173
 11
28.9627215463
 21
-0.1416965494
  0
LINE
  5
512
100
AcDbEntity
  8
RACCORDO
100
AcDbLine
 62
253
  6
CONTINUOUS
 10
35.5163207177
 20
6.1618798131
 11
35.4879203197
 21
6.1334794151
  0
LINE
  5
513
100
AcDbEntity
  8
ASSI
100
AcDbLine
 62
253
  6
CONTINUOUS
 10
35.5163207177
 20
6.1618798131
 11
35.4879203197
 21
6.1334794151
  0
LINE
  5
514
100
AcDbEntity
  8
DRAFT
100
AcDbLine
 62
7
  6
CONTINUOUS
 10
35.3328791862
 20
5.3784611278
 11
35.3293881732
 21
5.3749701148
  0
LINE
  5
515
100
AcDbEntity
  8
CURVE
100
AcDbLine
 62
253
  6
CONTINUOUS
 10
30.0293881494
 20
-0.1750298807
 11
29.9293881971
 21
-0.2750298852
  0
LINE
  5
516
100
AcDbEntity
  8
CURVE
100
AcDbLine
 62
253
  6
CONTINUOUS
 10
29.9960547763
 20
0.6249701029
 11
29.8293882448
 21
0.5249701506
  0
LWPOLYLINE
  5
517
100
AcDbEntity
  8
0
100
AcDbPolyline
 62
7
  6
CONTINUOUS
 90
10
 70
0
 10
24.1372296049
 20
4.5529437658
 10
24.1683739945
 20
4.5581354937
 10
24.199453374
 20
4.5623142699
 10
24.2304677431
 20
4.5654800944
 10
24.2614164848
 20
4.5676423313
 10
24.2923002163
 20
4.5687916164
 10
24.3231207888
 20
4.5688998582
 10
24.3538788194
 20
4.5679576927
 10
24.3845736909
 20
4.5659744839
 10
24.4152054035
 20
4.5629502317
  0
LWPOLYLINE
  5
518
100
AcDbEntity
  8
ASSI
100
AcDbPolyline
 62
7
  6
CONTINUOUS
 90
10
 70
0
 10
24.1372296049
 20
4.5529437658
 10
24.1683739945
 20
4.5581354937
 10
24.199453374
 20
4.5623142699
 10
24.2304677431
 20
4.5654800944
 10
24.2614164848
 20
4.5676423313
 10
24.2923002163
 20
4.5687916164
 10
24.3231207888
 20
4.5688998582
 10
24.3538788194
 20
4.5679576927
 10
24.3845736909
 20
4.5659744839
 10
24.4152054035
 20
4.5629502317
  0
LWPOLYLINE
  5
519
100
AcDbEntity
  8
RACCORDO
100
AcDbPolyline
 62
7
  6
CONTINUOUS
 90
7
 70
0
 10
15.4979643423
 20
4.1398033663
 10
15.4818920065
 20
4.1394722196
 10
15.4680438513
 20
4.1391035671
 10
15.4570529814
 20
4.138714248
 10
15.449130432
 20
4.1383098755
 10
15.4440651679
 20
4.1378848364
 10
15.4418571892
 20
4.1374391308
  0
LWPOLYLINE
  5
51A
100
AcDbEntity
  8
ASSI
100
AcDbPolyline
 62
7
  6
CONTINUOUS
 90
7
 70
0
 10
15.4979643423
 20
4.1398033663
 10
15.4818920065
 20
4.1394722196
 10
15.4680438513
 20
4.1391035671
 10
15.4570529814
 20
4.138714248
 10
15.449130432
 20
4.1383098755
 10
15.4440651679
 20
4.1378848364
 10
15.4418571892
 20
4.1374391308
  0
LINE
  5
51B
100
AcDbEntity
  8
RACCORDO
100
AcDbLine
 62
253
  6
CONTINUOUS
 10
15.5194639425
 20
4.7860577912
 11
13.639346356
 21
4.7860577912
  0
LINE
  5
51C
100
AcDbEntity
  8
ASSI
100
AcDbLine
 62
253
  6
CONTINUOUS
 10
15.5194639425
 20
4.7860577912
 11
13.639346356
 21
4.7860577912
  0
LINE
  5
51D
100
AcDbEntity
  8
RACCORDO
100
AcDbLine
 62
7
  6
CONTINUOUS
 10
15.6007276829
 20
4.8159142162
 11
13.6384440718
 21
4.8159142162
  0
LINE
  5
51E
100
AcDbEntity
  8
ASSI
100
AcDbLine
 62
7
  6
CONTINUOUS
 10
15.6007276829
 20
4.8159142162
 11
13.6384440718
 21
4.8159142162
  0
LINE
  5
51F
100
AcDbEntity
  8
CURVE
100
AcDbLine
 62
253
  6
CONTINUOUS
 10
33.5222450096
 20
4.8249701148
 11
32.9865313369
 21
4.8249701148
  0
LINE
  5
520
100
AcDbEntity
  8
CURVE
100
AcDbLine
 62
253
  6
CONTINUOUS
 10
27.7365309793
 20
4.8249701148
 11
27.6293881732
 21
4.8249701148
  0
LINE
  5
521
100
AcDbEntity
  8
CURVE
100
AcDbLine
 62
253
  6
CONTINUOUS
 10
26.557959621
 20
4.8249701148
 11
26.4508167479
 21
4.8249701148
  0
LINE
  5
522
100
AcDbEntity
  8
DRAFT
100
AcDbLine
 62
7
  6
CONTINUOUS
 10
16.6293881732
 20
4.8249701148
 11
16.6088302659
 21
4.8249701148
  0
LINE
  5
523
100
AcDbEntity
  8
ASSI
100
AcDbLine
 62
7
  6
CONTINUOUS
 10
16.6293881732
 20
4.8249701148
 11
16.6088302659
 21
4.8249701148
  0
LINE
  5
524
100
AcDbEntity
  8
DRAFT
100
AcDbLine
 62
7
  6
CONTINUOUS
 10
15.600507114
 20
4.8249701148
 11
13.6293881732
 21
4.8249701148
  0
LINE
  5
525
100
AcDbEntity
  8
ASSI
100
AcDbLine
 62
7
  6
CONTINUOUS
 10
15.600507114
 20
4.8249701148
 11
13.6293881732
 21
4.8249701148
  0
LINE
  5
526
100
AcDbEntity
  8
CURVE
100
AcDbLine
 62
253
  6
CONTINUOUS
 10
28.7008167702
 20
4.8249701148
 11
29.0222453672
 21
4.8249701148
  0
LINE
  5
527
100
AcDbEntity
  8
CURVE
100
AcDbLine
 62
253
  6
CONTINUOUS
 10
29.6651025611
 20
4.8249701148
 11
30.0936737853
 21
4.8249701148
  0
LINE
  5
528
100
AcDbEntity
  8
CURVE
100
AcDbLine
 62
253
  6
CONTINUOUS
 10
30.9508165914
 20
4.8249701148
 11
31.2722453672
 21
4.8249701148
  0
LINE
  5
529
100
AcDbEntity
  8
0
100
AcDbLine
 62
7
  6
CONTINUOUS
 10
23.1698401732
 20
4.8425321148
 11
22.8265861732
 21
4.8425321148
  0
LINE
  5
52A
100
AcDbEntity
  8
ASSI
100
AcDbLine
 62
7
  6
CONTINUOUS
 10
23.1698401732
 20
4.8425321148
 11
22.8265861732
 21
4.8425321148
  0
LINE
  5
52B
100
AcDbEntity
  8
0
100
AcDbLine
 62
7
  6
CONTINUOUS
 10
22.0787271732
 20
4.8425321148
 11
21.7276601732
 21
4.8425321148
  0
LINE
  5
52C
100
AcDbEntity
  8
ASSI
100
AcDbLine
 62
7
  6
CONTINUOUS
 10
22.0787271732
 20
4.8425321148
 11
21.7276601732
 21
4.8425321148
  0
LINE
  5
52D
100
AcDbEntity
  8
0
100
AcDbLine
 62
7
  6
CONTINUOUS
 10
21.0217511732
 20
4.8425321148
 11
20.6672161732
 21
4.8425321148
  0
LINE
  5
52E
100
AcDbEntity
  8
ASSI
100
AcDbLine
 62
7
  6
CONTINUOUS
 10
21.0217511732
 20
4.8425321148
 11
20.6672161732
 21
4.8425321148
  0
LINE
  5
52F
100
AcDbEntity
  8
0
100
AcDbLine
 62
7
  6
CONTINUOUS
 10
19.8362081732
 20
4.8425321148
 11
19.4816221732
 21
4.8425321148
  0
LINE
  5
530
100
AcDbEntity
  8
ASSI
100
AcDbLine
 62
7
  6
CONTINUOUS
 10
19.8362081732
 20
4.8425321148
 11
19.4816221732
 21
4.8425321148
  0
LINE
  5
531
100
AcDbEntity
  8
0
100
AcDbLine
 62
7
  6
CONTINUOUS
 10
18.8236751732
 20
4.8425321148
 11
18.4382221732
 21
4.8425321148
  0
LINE
  5
532
100
AcDbEntity
  8
ASSI
100
AcDbLine
 62
7
  6
CONTINUOUS
 10
18.8236751732
 20
4.8425321148
 11
18.4382221732
 21
4.8425321148
  0
LINE
  5
533
100
AcDbEntity
  8
0
100
AcDbLine
 62
7
  6
CONTINUOUS
 10
20.3227141732
 20
4.8426341148
 11
19.9678861732
 21
4.8426341148
  0
LINE
  5
534
100
AcDbEntity
  8
ASSI
100
AcDbLine
 62
7
  6
CONTINUOUS
 10
20.3227141732
 20
4.8426341148
 11
19.9678861732
 21
4.8426341148
  0
LINE
  5
535
100
AcDbEntity
  8
DRAFT
100
AcDbLine
 62
7
  6
CONTINUOUS
 10
15.5293881732
 20
5.005989563
 11
15.5593881732
 21
5.005989563
  0
LINE
  5
536
100
AcDbEntity
  8
RACCORDO
100
AcDbLine
 62
253
  6
CONTINUOUS
 10
49.11687838
 20
5.286588851
 11
36.1100434513
 21
5.286588851
  0
LINE
  5
537
100
AcDbEntity
  8
ASSI
100
AcDbLine
 62
253
  6
CONTINUOUS
 10
49.11687838
 20
5.286588851
 11
36.1100434513
 21
5.286588851
  0
LINE
  5
538
100
AcDbEntity
  8
RACCORDO
100
AcDbLine
 62
253
  6
CONTINUOUS
 10
50.1184814639
 20
5.3033997198
 11
49.2519421503
 21
5.3034007728
  0
LINE
  5
539
100
AcDbEntity
  8
RACCORDO
100
AcDbLine
 62
253
  6
CONTINUOUS
 10
50.1198881779
 20
5.315454889
 11
49.248424168
 21
5.3154550173
  0
LINE
  5
53A
100
AcDbEntity
  8
RACCORDO
100
AcDbLine
 62
253
  6
CONTINUOUS
 10
49.120814355
 20
5.3163962966
 11
36.1120112889
 21
5.3163962966
  0
LINE
  5
53B
100
AcDbEntity
  8
ASSI
100
AcDbLine
 62
253
  6
CONTINUOUS
 10
49.120814355
 20
5.3163962966
 11
36.1120112889
 21
5.3163962966
  0
LINE
  5
53C
100
AcDbEntity
  8
DRAFT
100
AcDbLine
 62
7
  6
CONTINUOUS
 10
49.1293881732
 20
5.3249701148
 11
36.1162978715
 21
5.3249701148
  0
LINE
  5
53D
100
AcDbEntity
  8
ASSI
100
AcDbLine
 62
7
  6
CONTINUOUS
 10
49.1293881732
 20
5.3249701148
 11
36.1162978715
 21
5.3249701148
  0
LINE
  5
53E
100
AcDbEntity
  8
RACCORDO
100
AcDbLine
 62
7
  6
CONTINUOUS
 10
36.1817693275
 20
5.3249701148
 11
50.1294034037
 21
5.3249701148
  0
LINE
  5
53F
100
AcDbEntity
  8
DRAFT
100
AcDbLine
 62
7
  6
CONTINUOUS
 10
35.3293881732
 20
5.3749701148
 11
17.4293881732
 21
5.3749701148
  0
LINE
  5
540
100
AcDbEntity
  8
ASSI
100
AcDbLine
 62
7
  6
CONTINUOUS
 10
35.3293881732
 20
5.3749701148
 11
17.4293881732
 21
5.3749701148
  0
LINE
  5
541
100
AcDbEntity
  8
DRAFT
100
AcDbLine
 62
7
  6
CONTINUOUS
 10
35.3328791862
 20
5.3784611278
 11
17.4258971602
 21
5.3784611278
  0
LINE
  5
542
100
AcDbEntity
  8
ASSI
100
AcDbLine
 62
7
  6
CONTINUOUS
 10
35.3328791862
 20
5.3784611278
 11
17.4258971602
 21
5.3784611278
  0
LINE
  5
543
100
AcDbEntity
  8
RACCORDO
100
AcDbLine
 62
253
  6
CONTINUOUS
 10
16.5840084607
 20
5.4645854193
 11
15.6398642516
 21
5.4645854193
  0
LINE
  5
544
100
AcDbEntity
  8
RACCORDO
100
AcDbLine
 62
253
  6
CONTINUOUS
 10
35.587916512
 20
5.5335022613
 11
36.0878974736
 21
5.5335022548
  0
LINE
  5
545
100
AcDbEntity
  8
ASSI
100
AcDbLine
 62
253
  6
CONTINUOUS
 10
35.587916512
 20
5.5335022613
 11
36.0878974736
 21
5.5335022548
  0
LINE
  5
546
100
AcDbEntity
  8
RACCORDO
100
AcDbLine
 62
253
  6
CONTINUOUS
 10
35.4879203197
 20
5.6334984536
 11
16.6739066223
 21
5.6334984536
  0
LINE
  5
547
100
AcDbEntity
  8
ASSI
100
AcDbLine
 62
253
  6
CONTINUOUS
 10
35.4879203197
 20
5.6334984536
 11
16.6739066223
 21
5.6334984536
  0
LINE
  5
548
100
AcDbEntity
  8
RACCORDO
100
AcDbLine
 62
7
  6
CONTINUOUS
 10
16.608637195
 20
4.8078176402
 11
16.6465579912
 21
4.8078002969
  0
LINE
  5
549
100
AcDbEntity
  8
ASSI
100
AcDbLine
 62
7
  6
CONTINUOUS
 10
16.608637195
 20
4.8078176402
 11
16.6465579912
 21
4.8078002969
  0
LWPOLYLINE
  5
54A
100
AcDbEntity
  8
RACCORDO
100
AcDbPolyline
 62
7
  6
CONTINUOUS
 90
8
 70
0
 10
49.1505452253
 20
5.3249388762
 10
49.1818065814
 20
5.3247463302
 10
49.1956903264
 20
5.3245791938
 10
49.2081787309
 20
5.3243687012
 10
49.2182335617
 20
5.3241323394
 10
49.225508741
 20
5.3238759373
 10
49.2303503466
 20
5.3235936661
 10
49.2327583785
 20
5.3232855256
  0
LWPOLYLINE
  5
54B
100
AcDbEntity
  8
RACCORDO
100
AcDbPolyline
 62
253
  6
CONTINUOUS
 90
10
 70
0
 10
50.0891958513
 20
4.164553721
 10
50.1064053412
 20
4.1635307923
 10
50.1231012442
 20
4.1607786122
 10
50.1387853168
 20
4.1563793172
 10
50.1529894808
 20
4.1504642129
 10
50.1652898969
 20
4.1432098137
 10
50.1753195635
 20
4.1348325443
 10
50.1827791393
 20
4.1255823607
 10
50.1874459306
 20
4.1157353212
 10
50.1891806104
 20
4.1055852855
  0
LINE
  5
54C
100
AcDbEntity
  8
RACCORDO
100
AcDbLine
 62
7
  6
CONTINUOUS
 10
49.1293881732
 20
4.2749701148
 11
49.1942357186
 21
4.270479255
  0
LINE
  5
54D
100
AcDbEntity
  8
ASSI
100
AcDbLine
 62
7
  6
CONTINUOUS
 10
49.1293881732
 20
4.2749701148
 11
49.1942357186
 21
4.270479255
  0
LINE
  5
54E
100
AcDbEntity
  8
CURVE
100
AcDbLine
 62
253
  6
CONTINUOUS
 10
30.9508165914
 20
4.1821130103
 11
30.8079596359
 21
4.2892558163
  0
LINE
  5
54F
100
AcDbEntity
  8
CURVE
100
AcDbLine
 62
253
  6
CONTINUOUS
 10
29.0222453672
 20
4.8249701148
 11
29.2365309793
 21
4.6106844133
  0
LINE
  5
550
100
AcDbEntity
  8
DRAFT
100
AcDbLine
 62
7
  6
CONTINUOUS
 10
35.3293881732
 20
-1.3774110394
 11
35.277007019
 21
-1.3250298852
  0
LINE
  5
551
100
AcDbEntity
  8
RACCORDO
100
AcDbLine
 62
253
  6
CONTINUOUS
 10
35.5163207177
 20
-1.3119395835
 11
35.4879203197
 21
-1.2835391855
  0
LINE
  5
552
100
AcDbEntity
  8
ASSI
100
AcDbLine
 62
253
  6
CONTINUOUS
 10
35.5163207177
 20
-1.3119395835
 11
35.4879203197
 21
-1.2835391855
  0
LINE
  5
553
100
AcDbEntity
  8
CURVE
100
AcDbLine
 62
253
  6
CONTINUOUS
 10
30.0936737853
 20
4.1821130103
 11
30.3079597551
 21
3.9678272641
  0
LINE
  5
554
100
AcDbEntity
  8
CURVE
100
AcDbLine
 62
253
  6
CONTINUOUS
 10
30.7365309793
 20
3.5392558387
 11
30.9508165914
 21
3.3249701148
  0
LINE
  5
555
100
AcDbEntity
  8
SCRITTE
100
AcDbLine
 62
253
  6
CONTINUOUS
 10
33.8043881732
 20
0.6437201148
 11
33.8481381732
 21
0.5999701148
  0
LINE
  5
556
100
AcDbEntity
  8
DRAFT
100
AcDbLine
 62
7
  6
CONTINUOUS
 10
35.3328791862
 20
-0.5285208982
 11
35.3293881732
 21
-0.5250298852
  0
LINE
  5
557
100
AcDbEntity
  8
RACCORDO
100
AcDbLine
 62
253
  6
CONTINUOUS
 10
36.1162978715
 20
-0.7119624297
 11
36.0878974736
 21
-0.6835620317
  0
LINE
  5
558
100
AcDbEntity
  8
ASSI
100
AcDbLine
 62
253
  6
CONTINUOUS
 10
36.1162978715
 20
-0.7119624297
 11
36.0878974736
 21
-0.6835620317
  0
LINE
  5
559
100
AcDbEntity
  8
CURVE
100
AcDbLine
 62
253
  6
CONTINUOUS
 10
31.4865309793
 20
3.9678272641
 11
31.2722453672
 21
4.1821130103
  0
LINE
  5
55A
100
AcDbEntity
  8
CURVE
100
AcDbLine
 62
253
  6
CONTINUOUS
 10
30.0936737853
 20
4.8249701148
 11
30.272245248
 21
4.6106844133
  0
LINE
  5
55B
100
AcDbEntity
  8
CURVE
100
AcDbLine
 62
253
  6
CONTINUOUS
 10
32.1293881732
 20
3.5035415439
 11
32.1293881732
 21
3.4678272603
  0
LINE
  5
55C
100
AcDbEntity
  8
CURVE
100
AcDbLine
 62
253
  6
CONTINUOUS
 10
32.2722454864
 20
3.4678272603
 11
32.2722454864
 21
3.5035415439
  0
LINE
  5
55D
100
AcDbEntity
  8
CURVE
100
AcDbLine
 62
253
  6
CONTINUOUS
 10
32.7722450096
 20
4.6106844133
 11
32.7722450096
 21
3.5392558387
  0
LINE
  5
55E
100
AcDbEntity
  8
RACCORDO
100
AcDbLine
 62
253
  6
CONTINUOUS
 10
36.1162978715
 20
5.5619026593
 11
36.0878974736
 21
5.5335022613
  0
LINE
  5
55F
100
AcDbEntity
  8
ASSI
100
AcDbLine
 62
253
  6
CONTINUOUS
 10
36.1162978715
 20
5.5619026593
 11
36.0878974736
 21
5.5335022613
  0
LINE
  5
560
100
AcDbEntity
  8
SCRITTE
100
AcDbLine
 62
253
  6
CONTINUOUS
 10
33.9356381732
 20
0.4687201148
 11
33.7606381732
 21
0.3812201148
  0
LINE
  5
561
100
AcDbEntity
  8
SCRITTE
100
AcDbLine
 62
253
  6
CONTINUOUS
 10
34.0231381732
 20
1.0374701148
 11
33.8918881732
 21
0.9937201148
  0
LWPOLYLINE
  5
562
100
AcDbEntity
  8
RACCORDO
100
AcDbPolyline
 62
7
  6
CONTINUOUS
 90
6
 70
0
 10
15.6026861403
 20
4.8148709307
 10
15.5847162515
 20
4.8121245049
 10
15.5674090874
 20
4.8077649461
 10
15.5507646478
 20
4.8018930747
 10
15.5347829329
 20
4.7946185217
 10
15.5194639425
 20
4.7860577912
  0
LWPOLYLINE
  5
563
100
AcDbEntity
  8
ASSI
100
AcDbPolyline
 62
7
  6
CONTINUOUS
 90
6
 70
0
 10
15.6026861403
 20
4.8148709307
 10
15.5847162515
 20
4.8121245049
 10
15.5674090874
 20
4.8077649461
 10
15.5507646478
 20
4.8018930747
 10
15.5347829329
 20
4.7946185217
 10
15.5194639425
 20
4.7860577912
  0
LWPOLYLINE
  5
564
100
AcDbEntity
  8
RACCORDO
100
AcDbPolyline
 62
253
  6
CONTINUOUS
 90
10
 70
0
 10
16.8208731614
 20
6.1334794151
 10
16.7948255405
 20
6.131198437
 10
16.7695700259
 20
6.1244289936
 10
16.7458739576
 20
6.1133770909
 10
16.7244571484
 20
6.0983787816
 10
16.7059702047
 20
6.0798900545
 10
16.690974685
 20
6.0584730518
 10
16.6799258295
 20
6.0347787438
 10
16.6731588456
 20
6.0095270474
 10
16.6708788729
 20
5.9834851267
  0
LWPOLYLINE
  5
565
100
AcDbEntity
  8
ASSI
100
AcDbPolyline
 62
253
  6
CONTINUOUS
 90
10
 70
0
 10
16.8208731614
 20
6.1334794151
 10
16.7948255405
 20
6.131198437
 10
16.7695700259
 20
6.1244289936
 10
16.7458739576
 20
6.1133770909
 10
16.7244571484
 20
6.0983787816
 10
16.7059702047
 20
6.0798900545
 10
16.690974685
 20
6.0584730518
 10
16.6799258295
 20
6.0347787438
 10
16.6731588456
 20
6.0095270474
 10
16.6708788729
 20
5.9834851267
  0
LINE
  5
566
100
AcDbEntity
  8
SCRITTE
100
AcDbLine
 62
253
  6
CONTINUOUS
 10
32.6627219516
 20
6.1679886206
 11
32.2627221424
 21
6.1557710057
  0
LINE
  5
567
100
AcDbEntity
  8
SCRITTE
100
AcDbLine
 62
253
  6
CONTINUOUS
 10
20.7293882448
 20
6.1679886206
 11
20.3293881852
 21
6.1557710057
  0
LINE
  5
568
100
AcDbEntity
  8
SCRITTE
100
AcDbLine
 62
253
  6
CONTINUOUS
 10
19.929388209
 20
6.1679886206
 11
19.5293881911
 21
6.1610071264
  0
LINE
  5
569
100
AcDbEntity
  8
SCRITTE
100
AcDbLine
 62
253
  6
CONTINUOUS
 10
28.1960549671
 20
6.1679886206
 11
27.9960550624
 21
6.1662432471
  0
LINE
  5
56A
100
AcDbEntity
  8
SCRITTE
100
AcDbLine
 62
253
  6
CONTINUOUS
 10
22.0293881256
 20
6.1557710057
 11
22.2293880302
 21
6.1575163793
  0
LINE
  5
56B
100
AcDbEntity
  8
RACCORDO
100
AcDbLine
 62
253
  6
CONTINUOUS
 10
16.5891531985
 20
6.0644940364
 11
16.2397728687
 21
6.0644940364
  0
LINE
  5
56C
100
AcDbEntity
  8
RACCORDO
100
AcDbLine
 62
7
  6
CONTINUOUS
 10
35.4879203197
 20
6.1334794151
 11
16.8208731614
 21
6.1334794151
  0
LINE
  5
56D
100
AcDbEntity
  8
ASSI
100
AcDbLine
 62
7
  6
CONTINUOUS
 10
35.4879203197
 20
6.1334794151
 11
16.8208731614
 21
6.1334794151
  0
LINE
  5
56E
100
AcDbEntity
  8
RACCORDO
100
AcDbLine
 62
7
  6
CONTINUOUS
 10
16.1592967903
 20
6.1449701148
 11
16.6293881732
 21
6.1449701148
  0
LINE
  5
56F
100
AcDbEntity
  8
SCRITTE
100
AcDbLine
 62
253
  6
CONTINUOUS
 10
21.5293881971
 20
6.1557710057
 11
22.0293881256
 21
6.1557710057
  0
LINE
  5
570
100
AcDbEntity
  8
SCRITTE
100
AcDbLine
 62
253
  6
CONTINUOUS
 10
22.7960548717
 20
6.1557710057
 11
23.3960549194
 21
6.1557710057
  0
LINE
  5
571
100
AcDbEntity
  8
SCRITTE
100
AcDbLine
 62
253
  6
CONTINUOUS
 10
28.1960549671
 20
6.1557710057
 11
28.5960547763
 21
6.1557710057
  0
LINE
  5
572
100
AcDbEntity
  8
SCRITTE
100
AcDbLine
 62
253
  6
CONTINUOUS
 10
32.929387601
 20
6.1592617529
 11
32.3960549671
 21
6.1592617529
  0
LINE
  5
573
100
AcDbEntity
  8
SCRITTE
100
AcDbLine
 62
253
  6
CONTINUOUS
 10
20.9960548955
 20
6.1592617529
 11
20.4627215105
 21
6.1592617529
  0
LINE
  5
574
100
AcDbEntity
  8
RACCORDO
100
AcDbLine
 62
7
  6
CONTINUOUS
 10
35.3293881732
 20
6.1618798131
 11
35.5163207177
 21
6.1618798131
  0
LINE
  5
575
100
AcDbEntity
  8
ASSI
100
AcDbLine
 62
7
  6
CONTINUOUS
 10
35.3293881732
 20
6.1618798131
 11
35.5163207177
 21
6.1618798131
  0
LINE
  5
576
100
AcDbEntity
  8
SCRITTE
100
AcDbLine
 62
253
  6
CONTINUOUS
 10
29.862721284
 20
6.1627525002
 11
29.162721284
 21
6.1627525002
  0
LINE
  5
577
100
AcDbEntity
  8
SCRITTE
100
AcDbLine
 62
253
  6
CONTINUOUS
 10
22.7960548717
 20
6.1627525002
 11
23.196054681
 21
6.1627525002
  0
LINE
  5
578
100
AcDbEntity
  8
SCRITTE
100
AcDbLine
 62
253
  6
CONTINUOUS
 10
28.5960547763
 20
6.1679886206
 11
28.1960549671
 21
6.1679886206
  0
LINE
  5
579
100
AcDbEntity
  8
SCRITTE
100
AcDbLine
 62
253
  6
CONTINUOUS
 10
23.3960549194
 20
6.1679886206
 11
22.7960548717
 21
6.1679886206
  0
LINE
  5
57A
100
AcDbEntity
  8
SCRITTE
100
AcDbLine
 62
253
  6
CONTINUOUS
 10
22.0293881256
 20
6.1679886206
 11
21.5293881971
 21
6.1679886206
  0
LINE
  5
57B
100
AcDbEntity
  8
DRAFT
100
AcDbLine
 62
7
  6
CONTINUOUS
 10
35.277007019
 20
6.1749701148
 11
27.8817693275
 21
6.1749701148
  0
LINE
  5
57C
100
AcDbEntity
  8
RACCORDO
100
AcDbLine
 62
7
  6
CONTINUOUS
 10
16.1290226694
 20
6.1749701148
 11
24.5293881732
 21
6.1749701148
  0
LINE
  5
57D
100
AcDbEntity
  8
DRAFT
100
AcDbLine
 62
7
  6
CONTINUOUS
 10
24.5293881732
 20
6.1749701148
 11
27.7293881732
 21
6.1749701148
  0
LINE
  5
57E
100
AcDbEntity
  8
RACCORDO
100
AcDbLine
 62
7
  6
CONTINUOUS
 10
35.5821348313
 20
6.227351269
 11
35.3293881732
 21
6.227351269
  0
LINE
  5
57F
100
AcDbEntity
  8
RACCORDO
100
AcDbLine
 62
7
  6
CONTINUOUS
 10
35.0654162953
 20
6.1746564787
 11
27.7293881732
 21
6.1749701148
  0
LINE
  5
580
100
AcDbEntity
  8
ASSI
100
AcDbLine
 62
7
  6
CONTINUOUS
 10
35.0654162953
 20
6.1746564787
 11
16.7793824617
 21
6.1749701148
  0
LINE
  5
581
100
AcDbEntity
  8
SCRITTE
100
AcDbLine
 62
253
  6
CONTINUOUS
 10
22.2293880302
 20
6.1662432471
 11
22.0293881256
 21
6.1679886206
  0
LINE
  5
582
100
AcDbEntity
  8
SCRITTE
100
AcDbLine
 62
253
  6
CONTINUOUS
 10
27.9960550624
 20
6.1575163793
 11
28.1960549671
 21
6.1557710057
  0
LINE
  5
583
100
AcDbEntity
  8
RACCORDO
100
AcDbLine
 62
7
  6
CONTINUOUS
 10
35.1514559388
 20
6.174050152
 11
35.0654162953
 21
6.1746564787
  0
LINE
  5
584
100
AcDbEntity
  8
ASSI
100
AcDbLine
 62
7
  6
CONTINUOUS
 10
35.1514559388
 20
6.174050152
 11
35.0654162953
 21
6.1746564787
  0
LINE
  5
585
100
AcDbEntity
  8
SCRITTE
100
AcDbLine
 62
253
  6
CONTINUOUS
 10
19.5293881911
 20
6.1610071264
 11
19.1293881732
 21
6.1679886206
  0
LINE
  5
586
100
AcDbEntity
  8
SCRITTE
100
AcDbLine
 62
253
  6
CONTINUOUS
 10
26.4960547763
 20
6.1557710057
 11
25.7960547763
 21
6.1679886206
  0
LINE
  5
587
100
AcDbEntity
  8
SCRITTE
100
AcDbLine
 62
253
  6
CONTINUOUS
 10
31.8627209979
 20
6.1557710057
 11
31.1627209979
 21
6.1679886206
  0
LINE
  5
588
100
AcDbEntity
  8
SCRITTE
100
AcDbLine
 62
253
  6
CONTINUOUS
 10
21.1293882209
 20
6.1557710057
 11
20.7293882448
 21
6.1679886206
  0
LINE
  5
589
100
AcDbEntity
  8
SCRITTE
100
AcDbLine
 62
253
  6
CONTINUOUS
 10
33.0627217609
 20
6.1557710057
 11
32.6627219516
 21
6.1679886206
  0
LWPOLYLINE
  5
58A
100
AcDbEntity
  8
RACCORDO
100
AcDbPolyline
 62
7
  6
CONTINUOUS
 90
5
 70
0
 10
35.2221142352
 20
6.1725802335
 10
35.2162471047
 20
6.1729076564
 10
35.2063145915
 20
6.1732175819
 10
35.1923166958
 20
6.1735100098
 10
35.1514559388
 20
6.174050152
  0
LWPOLYLINE
  5
58B
100
AcDbEntity
  8
ASSI
100
AcDbPolyline
 62
7
  6
CONTINUOUS
 90
5
 70
0
 10
35.2221142352
 20
6.1725802335
 10
35.2162471047
 20
6.1729076564
 10
35.2063145915
 20
6.1732175819
 10
35.1923166958
 20
6.1735100098
 10
35.1514559388
 20
6.174050152
  0
LWPOLYLINE
  5
58C
100
AcDbEntity
  8
RACCORDO
100
AcDbPolyline
 62
7
  6
CONTINUOUS
 90
16
 70
0
 10
35.5163207177
 20
6.1618798131
 10
35.5801410054
 20
6.1582973755
 10
35.6419439927
 20
6.1485089621
 10
35.7017296795
 20
6.1325145731
 10
35.7601042479
 20
6.1100052389
 10
35.8164615158
 20
6.0812899291
 10
35.8689829375
 20
6.0472955516
 10
35.9175434043
 20
6.0078500034
 10
35.9622680248
 20
5.9631253875
 10
36.0017135791
 20
5.9145649216
 10
36.0357079643
 20
5.8620434952
 10
36.0644232833
 20
5.8056862189
 10
36.0869326247
 20
5.7473116421
 10
36.1029270179
 20
5.6875259482
 10
36.1127154335
 20
5.6257229539
 10
36.1162978715
 20
5.5619026593
  0
LWPOLYLINE
  5
58D
100
AcDbEntity
  8
ASSI
100
AcDbPolyline
 62
7
  6
CONTINUOUS
 90
16
 70
0
 10
35.5163207177
 20
6.1618798131
 10
35.5801410054
 20
6.1582973755
 10
35.6419439927
 20
6.1485089621
 10
35.7017296795
 20
6.1325145731
 10
35.7601042479
 20
6.1100052389
 10
35.8164615158
 20
6.0812899291
 10
35.8689829375
 20
6.0472955516
 10
35.9175434043
 20
6.0078500034
 10
35.9622680248
 20
5.9631253875
 10
36.0017135791
 20
5.9145649216
 10
36.0357079643
 20
5.8620434952
 10
36.0644232833
 20
5.8056862189
 10
36.0869326247
 20
5.7473116421
 10
36.1029270179
 20
5.6875259482
 10
36.1127154335
 20
5.6257229539
 10
36.1162978715
 20
5.5619026593
  0
LWPOLYLINE
  5
58E
100
AcDbEntity
  8
RACCORDO
100
AcDbPolyline
 62
7
  6
CONTINUOUS
 90
6
 70
0
 10
50.1293424771
 20
5.3249701148
 10
50.1467169179
 20
5.3234537731
 10
50.1635615215
 20
5.3189413862
 10
50.1793642321
 20
5.3115712416
 10
50.1936451022
 20
5.301568314
 10
50.2000620993
 20
5.2956870793
  0
LINE
  5
58F
100
AcDbEntity
  8
RACCORDO
100
AcDbLine
 62
7
  6
CONTINUOUS
 10
35.3293881732
 20
6.1618798131
 11
35.2221142352
 21
6.1725802335
  0
LINE
  5
590
100
AcDbEntity
  8
ASSI
100
AcDbLine
 62
7
  6
CONTINUOUS
 10
35.3293881732
 20
6.1618798131
 11
35.2221142352
 21
6.1725802335
  0
LINE
  5
591
100
AcDbEntity
  8
CURVE
100
AcDbLine
 62
253
  6
CONTINUOUS
 10
32.7722450096
 20
3.5392558387
 11
32.9865313369
 21
3.3249701148
  0
LINE
  5
592
100
AcDbEntity
  8
CURVE
100
AcDbLine
 62
253
  6
CONTINUOUS
 10
31.2722453672
 20
4.8249701148
 11
31.4151023227
 21
4.6106844133
  0
LINE
  5
593
100
AcDbEntity
  8
CURVE
100
AcDbLine
 62
253
  6
CONTINUOUS
 10
32.1293881732
 20
3.4678272603
 11
32.1651023227
 21
3.3963986876
  0
LINE
  5
594
100
AcDbEntity
  8
CURVE
100
AcDbLine
 62
253
  6
CONTINUOUS
 10
32.2722454864
 20
3.5035415439
 11
32.2365313369
 21
3.5749701223
  0
LINE
  5
595
100
AcDbEntity
  8
SCRITTE
100
AcDbLine
 62
253
  6
CONTINUOUS
 10
33.7606381732
 20
0.7312201148
 11
33.8043881732
 21
0.6437201148
  0
LINE
  5
596
100
AcDbEntity
  8
SCRITTE
100
AcDbLine
 62
253
  6
CONTINUOUS
 10
33.6293881732
 20
0.0312201148
 11
33.6731381732
 21
-0.1000298852
  0
LINE
  5
597
100
AcDbEntity
  8
CURVE
100
AcDbLine
 62
253
  6
CONTINUOUS
 10
33.5222450096
 20
3.3249701148
 11
33.5222450096
 21
4.1821130103
  0
LINE
  5
598
100
AcDbEntity
  8
SCRITTE
100
AcDbLine
 62
253
  6
CONTINUOUS
 10
33.6293881732
 20
0.1624701148
 11
33.6293881732
 21
0.0312201148
  0
LINE
  5
599
100
AcDbEntity
  8
SCRITTE
100
AcDbLine
 62
253
  6
CONTINUOUS
 10
33.7606381732
 20
0.7749701148
 11
33.7606381732
 21
0.7312201148
  0
LINE
  5
59A
100
AcDbEntity
  8
SCRITTE
100
AcDbLine
 62
253
  6
CONTINUOUS
 10
33.8043881732
 20
0.9062201148
 11
33.7606381732
 21
0.7749701148
  0
LINE
  5
59B
100
AcDbEntity
  8
SCRITTE
100
AcDbLine
 62
253
  6
CONTINUOUS
 10
33.6731381732
 20
0.2937201148
 11
33.6293881732
 21
0.1624701148
  0
LINE
  5
59C
100
AcDbEntity
  8
RACCORDO
100
AcDbLine
 62
7
  6
CONTINUOUS
 10
36.1120112889
 20
5.3163962966
 11
36.1162978715
 21
5.3249701148
  0
LINE
  5
59D
100
AcDbEntity
  8
ASSI
100
AcDbLine
 62
7
  6
CONTINUOUS
 10
36.1120112889
 20
5.3163962966
 11
36.1162978715
 21
5.3249701148
  0
LINE
  5
59E
100
AcDbEntity
  8
SCRITTE
100
AcDbLine
 62
253
  6
CONTINUOUS
 10
33.8918881732
 20
0.9937201148
 11
33.8043881732
 21
0.9062201148
  0
LINE
  5
59F
100
AcDbEntity
  8
SCRITTE
100
AcDbLine
 62
253
  6
CONTINUOUS
 10
33.7606381732
 20
0.3812201148
 11
33.6731381732
 21
0.2937201148
  0
LINE
  5
5A0
100
AcDbEntity
  8
SCRITTE
100
AcDbLine
 62
253
  6
CONTINUOUS
 10
34.4168881732
 20
-0.1437798852
 11
34.5043881732
 21
-0.0562798852
  0
LINE
  5
5A1
100
AcDbEntity
  8
SCRITTE
100
AcDbLine
 62
253
  6
CONTINUOUS
 10
34.2856381732
 20
-0.2312798852
 11
34.4168881732
 21
-0.1437798852
  0
LINE
  5
5A2
100
AcDbEntity
  8
RACCORDO
100
AcDbLine
 62
7
  6
CONTINUOUS
 10
49.1942357186
 20
4.270479255
 11
49.2464560166
 21
4.2603377758
  0
LINE
  5
5A3
100
AcDbEntity
  8
ASSI
100
AcDbLine
 62
7
  6
CONTINUOUS
 10
49.1942357186
 20
4.270479255
 11
49.2464560166
 21
4.2603377758
  0
LINE
  5
5A4
100
AcDbEntity
  8
RACCORDO
100
AcDbLine
 62
7
  6
CONTINUOUS
 10
36.1162978715
 20
-0.4750298852
 11
36.1120112889
 21
-0.466456067
  0
LINE
  5
5A5
100
AcDbEntity
  8
ASSI
100
AcDbLine
 62
7
  6
CONTINUOUS
 10
36.1162978715
 20
-0.4750298852
 11
36.1120112889
 21
-0.466456067
  0
LWPOLYLINE
  5
5A6
100
AcDbEntity
  8
RACCORDO
100
AcDbPolyline
 62
253
  6
CONTINUOUS
 90
19
 70
0
 10
35.587916512
 20
5.5335022613
 10
35.5875326861
 20
5.5422378715
 10
35.5864126234
 20
5.55080662
 10
35.5845563241
 20
5.5592085067
 10
35.5819395866
 20
5.5675134445
 10
35.5785866124
 20
5.5756515205
 10
35.5745700058
 20
5.583412996
 10
35.5698713569
 20
5.5907836202
 10
35.5645090755
 20
5.597777644
 10
35.5586109954
 20
5.6042280811
 10
35.5521662976
 20
5.6101183492
 10
35.545185801
 20
5.6154650308
 10
35.5378297958
 20
5.6201508872
 10
35.5300853544
 20
5.6241611266
 10
35.5219654044
 20
5.6275105407
 10
35.5136690187
 20
5.6301262668
 10
35.5052625548
 20
5.6319840172
 10
35.4966796551
 20
5.6331080794
 10
35.4879203197
 20
5.6334984536
  0
LWPOLYLINE
  5
5A7
100
AcDbEntity
  8
ASSI
100
AcDbPolyline
 62
253
  6
CONTINUOUS
 90
19
 70
0
 10
35.587916512
 20
5.5335022613
 10
35.5875326861
 20
5.5422378715
 10
35.5864126234
 20
5.55080662
 10
35.5845563241
 20
5.5592085067
 10
35.5819395866
 20
5.5675134445
 10
35.5785866124
 20
5.5756515205
 10
35.5745700058
 20
5.583412996
 10
35.5698713569
 20
5.5907836202
 10
35.5645090755
 20
5.597777644
 10
35.5586109954
 20
5.6042280811
 10
35.5521662976
 20
5.6101183492
 10
35.545185801
 20
5.6154650308
 10
35.5378297958
 20
5.6201508872
 10
35.5300853544
 20
5.6241611266
 10
35.5219654044
 20
5.6275105407
 10
35.5136690187
 20
5.6301262668
 10
35.5052625548
 20
5.6319840172
 10
35.4966796551
 20
5.6331080794
 10
35.4879203197
 20
5.6334984536
  0
LWPOLYLINE
  5
5A8
100
AcDbEntity
  8
RACCORDO
100
AcDbPolyline
 62
253
  6
CONTINUOUS
 90
19
 70
0
 10
36.0878974736
 20
5.5335022613
 10
36.0856112563
 20
5.5857918503
 10
36.0787766226
 20
5.63768345
 10
36.0674455893
 20
5.6887821765
 10
36.0517043947
 20
5.7386991752
 10
36.0316728283
 20
5.7870545927
 10
36.0075033128
 20
5.8334804656
 10
35.9793797759
 20
5.8776234928
 10
35.947516231
 20
5.9191477581
 10
35.9121551207
 20
5.9577372902
 10
35.8735654772
 20
5.9930984556
 10
35.8320409984
 20
6.0249621016
 10
35.7878978084
 20
6.0530856642
 10
35.7414719071
 20
6.0772551145
 10
35.6931165424
 20
6.0972865871
 10
35.6431996486
 20
6.1130276882
 10
35.5921010675
 20
6.1243586424
 10
35.5402096642
 20
6.1311932197
 10
35.4879203197
 20
6.1334794151
  0
LWPOLYLINE
  5
5A9
100
AcDbEntity
  8
ASSI
100
AcDbPolyline
 62
253
  6
CONTINUOUS
 90
19
 70
0
 10
36.0878974736
 20
5.5335022613
 10
36.0856112563
 20
5.5857918503
 10
36.0787766226
 20
5.63768345
 10
36.0674455893
 20
5.6887821765
 10
36.0517043947
 20
5.7386991752
 10
36.0316728283
 20
5.7870545927
 10
36.0075033128
 20
5.8334804656
 10
35.9793797759
 20
5.8776234928
 10
35.947516231
 20
5.9191477581
 10
35.9121551207
 20
5.9577372902
 10
35.8735654772
 20
5.9930984556
 10
35.8320409984
 20
6.0249621016
 10
35.7878978084
 20
6.0530856642
 10
35.7414719071
 20
6.0772551145
 10
35.6931165424
 20
6.0972865871
 10
35.6431996486
 20
6.1130276882
 10
35.5921010675
 20
6.1243586424
 10
35.5402096642
 20
6.1311932197
 10
35.4879203197
 20
6.1334794151
  0
LINE
  5
5AA
100
AcDbEntity
  8
RACCORDO
100
AcDbLine
 62
7
  6
CONTINUOUS
 10
36.1087331374
 20
-0.3947771792
 11
36.1100434513
 21
-0.4366486214
  0
LINE
  5
5AB
100
AcDbEntity
  8
ASSI
100
AcDbLine
 62
7
  6
CONTINUOUS
 10
36.1087331374
 20
-0.3947771792
 11
36.1100434513
 21
-0.4366486214
  0
LINE
  5
5AC
100
AcDbEntity
  8
RACCORDO
100
AcDbLine
 62
7
  6
CONTINUOUS
 10
36.106193375
 20
-0.2883044355
 11
36.1087331374
 21
-0.3947771792
  0
LINE
  5
5AD
100
AcDbEntity
  8
ASSI
100
AcDbLine
 62
7
  6
CONTINUOUS
 10
36.106193375
 20
-0.2883044355
 11
36.1087331374
 21
-0.3947771792
  0
LINE
  5
5AE
100
AcDbEntity
  8
RACCORDO
100
AcDbLine
 62
7
  6
CONTINUOUS
 10
36.1025858947
 20
-0.071770672
 11
36.106193375
 21
-0.2883044355
  0
LINE
  5
5AF
100
AcDbEntity
  8
ASSI
100
AcDbLine
 62
7
  6
CONTINUOUS
 10
36.1025858947
 20
-0.071770672
 11
36.106193375
 21
-0.2883044355
  0
LINE
  5
5B0
100
AcDbEntity
  8
RACCORDO
100
AcDbLine
 62
7
  6
CONTINUOUS
 10
36.0983346073
 20
0.311788612
 11
36.1025858947
 21
-0.071770672
  0
LINE
  5
5B1
100
AcDbEntity
  8
ASSI
100
AcDbLine
 62
7
  6
CONTINUOUS
 10
36.0983346073
 20
0.311788612
 11
36.1025858947
 21
-0.071770672
  0
LINE
  5
5B2
100
AcDbEntity
  8
RACCORDO
100
AcDbLine
 62
7
  6
CONTINUOUS
 10
36.0983346073
 20
0.311788612
 11
36.0953960107
 21
0.733143254
  0
LINE
  5
5B3
100
AcDbEntity
  8
ASSI
100
AcDbLine
 62
7
  6
CONTINUOUS
 10
36.0983346073
 20
0.311788612
 11
36.0953960107
 21
0.733143254
  0
LINE
  5
5B4
100
AcDbEntity
  8
DRAFT
100
AcDbLine
 62
7
  6
CONTINUOUS
 10
35.277007019
 20
6.1749701148
 11
35.277007019
 21
6.1671047576
  0
LINE
  5
5B5
100
AcDbEntity
  8
DRAFT
100
AcDbLine
 62
7
  6
CONTINUOUS
 10
35.277007019
 20
-1.317164528
 11
35.277007019
 21
-1.3250298852
  0
LINE
  5
5B6
100
AcDbEntity
  8
DRAFT
100
AcDbLine
 62
7
  6
CONTINUOUS
 10
35.3293881732
 20
6.227351269
 11
35.3293881732
 21
6.1618798131
  0
LINE
  5
5B7
100
AcDbEntity
  8
DRAFT
100
AcDbLine
 62
7
  6
CONTINUOUS
 10
35.3293881732
 20
-1.3119395835
 11
35.3293881732
 21
-1.3774110394
  0
LINE
  5
5B8
100
AcDbEntity
  8
DRAFT
100
AcDbLine
 62
7
  6
CONTINUOUS
 10
35.3293881732
 20
-0.5250298852
 11
35.3293881732
 21
5.3749701148
  0
LINE
  5
5B9
100
AcDbEntity
  8
ASSI
100
AcDbLine
 62
7
  6
CONTINUOUS
 10
35.3293881732
 20
-0.5250298852
 11
35.3293881732
 21
5.3749701148
  0
LINE
  5
5BA
100
AcDbEntity
  8
DRAFT
100
AcDbLine
 62
7
  6
CONTINUOUS
 10
35.3328791862
 20
-0.5285208982
 11
35.3328791862
 21
5.3784611278
  0
LINE
  5
5BB
100
AcDbEntity
  8
ASSI
100
AcDbLine
 62
7
  6
CONTINUOUS
 10
35.3328791862
 20
-0.5285208982
 11
35.3328791862
 21
5.3784611278
  0
LINE
  5
5BC
100
AcDbEntity
  8
RACCORDO
100
AcDbLine
 62
253
  6
CONTINUOUS
 10
35.4879203197
 20
-0.783558224
 11
35.4879203132
 21
-1.2835391855
  0
LINE
  5
5BD
100
AcDbEntity
  8
ASSI
100
AcDbLine
 62
253
  6
CONTINUOUS
 10
35.4879203197
 20
-0.783558224
 11
35.4879203132
 21
-1.2835391855
  0
LINE
  5
5BE
100
AcDbEntity
  8
RACCORDO
100
AcDbLine
 62
253
  6
CONTINUOUS
 10
35.4879203197
 20
5.6334984536
 11
35.4879203197
 21
6.1334794151
  0
LINE
  5
5BF
100
AcDbEntity
  8
ASSI
100
AcDbLine
 62
253
  6
CONTINUOUS
 10
35.4879203197
 20
5.6334984536
 11
35.4879203197
 21
6.1334794151
  0
LINE
  5
5C0
100
AcDbEntity
  8
RACCORDO
100
AcDbLine
 62
253
  6
CONTINUOUS
 10
35.587916512
 20
-0.6835620317
 11
35.587916512
 21
5.5335022613
  0
LINE
  5
5C1
100
AcDbEntity
  8
ASSI
100
AcDbLine
 62
253
  6
CONTINUOUS
 10
35.587916512
 20
-0.6835620317
 11
35.587916512
 21
5.5335022613
  0
LINE
  5
5C2
100
AcDbEntity
  8
RACCORDO
100
AcDbLine
 62
7
  6
CONTINUOUS
 10
36.0878974736
 20
-0.6835620317
 11
36.0878974736
 21
5.5335022613
  0
LINE
  5
5C3
100
AcDbEntity
  8
ASSI
100
AcDbLine
 62
7
  6
CONTINUOUS
 10
36.0878974736
 20
-0.6835620317
 11
36.0878974736
 21
5.5335022613
  0
LINE
  5
5C4
100
AcDbEntity
  8
RACCORDO
100
AcDbLine
 62
7
  6
CONTINUOUS
 10
36.0953960107
 20
0.733143254
 11
36.0944807021
 21
3.6709636942
  0
LINE
  5
5C5
100
AcDbEntity
  8
ASSI
100
AcDbLine
 62
7
  6
CONTINUOUS
 10
36.0953960107
 20
0.733143254
 11
36.0944807021
 21
3.6709636942
  0
LINE
  5
5C6
100
AcDbEntity
  8
RACCORDO
100
AcDbLine
 62
7
  6
CONTINUOUS
 10
36.1162978715
 20
5.5619026593
 11
36.1162978715
 21
5.3249701148
  0
LINE
  5
5C7
100
AcDbEntity
  8
ASSI
100
AcDbLine
 62
7
  6
CONTINUOUS
 10
36.1162978715
 20
5.5619026593
 11
36.1162978715
 21
5.3249701148
  0
LINE
  5
5C8
100
AcDbEntity
  8
RACCORDO
100
AcDbLine
 62
7
  6
CONTINUOUS
 10
36.1162978715
 20
-0.4750298852
 11
36.1162978715
 21
-0.7119624297
  0
LINE
  5
5C9
100
AcDbEntity
  8
ASSI
100
AcDbLine
 62
7
  6
CONTINUOUS
 10
36.1162978715
 20
-0.4750298852
 11
36.1162978715
 21
-0.7119624297
  0
LINE
  5
5CA
100
AcDbEntity
  8
RACCORDO
100
AcDbLine
 62
7
  6
CONTINUOUS
 10
36.1817693275
 20
-0.7777765432
 11
36.1817693275
 21
-0.4750298852
  0
LINE
  5
5CB
100
AcDbEntity
  8
RACCORDO
100
AcDbLine
 62
7
  6
CONTINUOUS
 10
36.1817693275
 20
5.3249701148
 11
36.1817693275
 21
5.6277167728
  0
LINE
  5
5CC
100
AcDbEntity
  8
RACCORDO
100
AcDbLine
 62
7
  6
CONTINUOUS
 10
36.0944807021
 20
3.6709636942
 11
36.0953960107
 21
4.1167969756
  0
LINE
  5
5CD
100
AcDbEntity
  8
ASSI
100
AcDbLine
 62
7
  6
CONTINUOUS
 10
36.0944807021
 20
3.6709636942
 11
36.0953960107
 21
4.1167969756
  0
LINE
  5
5CE
100
AcDbEntity
  8
RACCORDO
100
AcDbLine
 62
7
  6
CONTINUOUS
 10
36.0983346072
 20
4.5381516145
 11
36.0953960107
 21
4.1167969756
  0
LINE
  5
5CF
100
AcDbEntity
  8
ASSI
100
AcDbLine
 62
7
  6
CONTINUOUS
 10
36.0983346072
 20
4.5381516145
 11
36.0953960107
 21
4.1167969756
  0
LINE
  5
5D0
100
AcDbEntity
  8
RACCORDO
100
AcDbLine
 62
7
  6
CONTINUOUS
 10
36.1025858947
 20
4.9217108981
 11
36.0983346072
 21
4.5381516145
  0
LINE
  5
5D1
100
AcDbEntity
  8
ASSI
100
AcDbLine
 62
7
  6
CONTINUOUS
 10
36.1025858947
 20
4.9217108981
 11
36.0983346072
 21
4.5381516145
  0
LINE
  5
5D2
100
AcDbEntity
  8
RACCORDO
100
AcDbLine
 62
7
  6
CONTINUOUS
 10
36.1061933749
 20
5.1382446612
 11
36.1025858947
 21
4.9217108981
  0
LINE
  5
5D3
100
AcDbEntity
  8
ASSI
100
AcDbLine
 62
7
  6
CONTINUOUS
 10
36.1061933749
 20
5.1382446612
 11
36.1025858947
 21
4.9217108981
  0
LWPOLYLINE
  5
5D4
100
AcDbEntity
  8
RACCORDO
100
AcDbPolyline
 62
7
  6
CONTINUOUS
 90
3
 70
0
 10
36.1100434513
 20
5.286588851
 10
36.1087331374
 20
5.244717407
 10
36.1061933749
 20
5.1382446612
  0
LWPOLYLINE
  5
5D5
100
AcDbEntity
  8
ASSI
100
AcDbPolyline
 62
7
  6
CONTINUOUS
 90
3
 70
0
 10
36.1100434513
 20
5.286588851
 10
36.1087331374
 20
5.244717407
 10
36.1061933749
 20
5.1382446612
  0
LWPOLYLINE
  5
5D6
100
AcDbEntity
  8
RACCORDO
100
AcDbPolyline
 62
7
  6
CONTINUOUS
 90
10
 70
0
 10
36.1100434513
 20
5.286588851
 10
36.1102587473
 20
5.2924351221
 10
36.1104749868
 20
5.2976494063
 10
36.1106921698
 20
5.3022317037
 10
36.1109104368
 20
5.3061841425
 10
36.1111296473
 20
5.3095045945
 10
36.1113493799
 20
5.3121866744
 10
36.1115694942
 20
5.3142282539
 10
36.1117901305
 20
5.3156314613
 10
36.1120112889
 20
5.3163962966
  0
LWPOLYLINE
  5
5D7
100
AcDbEntity
  8
ASSI
100
AcDbPolyline
 62
7
  6
CONTINUOUS
 90
10
 70
0
 10
36.1100434513
 20
5.286588851
 10
36.1102587473
 20
5.2924351221
 10
36.1104749868
 20
5.2976494063
 10
36.1106921698
 20
5.3022317037
 10
36.1109104368
 20
5.3061841425
 10
36.1111296473
 20
5.3095045945
 10
36.1113493799
 20
5.3121866744
 10
36.1115694942
 20
5.3142282539
 10
36.1117901305
 20
5.3156314613
 10
36.1120112889
 20
5.3163962966
  0
LWPOLYLINE
  5
5D8
100
AcDbEntity
  8
RACCORDO
100
AcDbPolyline
 62
7
  6
CONTINUOUS
 90
10
 70
0
 10
36.1120112889
 20
-0.466456067
 10
36.1117901305
 20
-0.4656912316
 10
36.1115694942
 20
-0.4642880242
 10
36.1113493799
 20
-0.4622464448
 10
36.1111296473
 20
-0.4595643649
 10
36.1109104368
 20
-0.4562439129
 10
36.1106921698
 20
-0.4522914741
 10
36.1104749868
 20
-0.4477091767
 10
36.1102587473
 20
-0.4424948925
 10
36.1100434513
 20
-0.4366486214
  0
LWPOLYLINE
  5
5D9
100
AcDbEntity
  8
ASSI
100
AcDbPolyline
 62
7
  6
CONTINUOUS
 90
10
 70
0
 10
36.1120112889
 20
-0.466456067
 10
36.1117901305
 20
-0.4656912316
 10
36.1115694942
 20
-0.4642880242
 10
36.1113493799
 20
-0.4622464448
 10
36.1111296473
 20
-0.4595643649
 10
36.1109104368
 20
-0.4562439129
 10
36.1106921698
 20
-0.4522914741
 10
36.1104749868
 20
-0.4477091767
 10
36.1102587473
 20
-0.4424948925
 10
36.1100434513
 20
-0.4366486214
  0
LWPOLYLINE
  5
5DA
100
AcDbEntity
  8
RACCORDO
100
AcDbPolyline
 62
7
  6
CONTINUOUS
 90
16
 70
0
 10
36.1817693275
 20
5.6277167728
 10
36.1781847406
 20
5.6915417072
 10
36.1684005448
 20
5.7533385902
 10
36.15241674
 20
5.8131074216
 10
36.1299244054
 20
5.8714512098
 10
36.1012324619
 20
5.9277669464
 10
36.0672676716
 20
5.9802456072
 10
36.0278603455
 20
6.0287627814
 10
35.9831801726
 20
6.0734428797
 10
35.934662983
 20
6.1128501091
 10
35.8821843984
 20
6.1468147751
 10
35.8258687971
 20
6.1755065721
 10
35.7675251433
 20
6.1979987909
 10
35.7077564251
 20
6.2139825285
 10
35.6459596544
 20
6.2237666879
 10
35.5821348313
 20
6.227351269
  0
LWPOLYLINE
  5
5DB
100
AcDbEntity
  8
RACCORDO
100
AcDbPolyline
 62
7
  6
CONTINUOUS
 90
16
 70
0
 10
36.1162978715
 20
-0.7119624297
 10
36.1127154339
 20
-0.7757827174
 10
36.1029270205
 20
-0.8375857047
 10
36.0869326315
 20
-0.8973713915
 10
36.0644232974
 20
-0.9557459598
 10
36.0357079875
 20
-1.0121032278
 10
36.0017136101
 20
-1.0646246494
 10
35.9622680618
 20
-1.1131851162
 10
35.9175434459
 20
-1.1579097368
 10
35.8689829801
 20
-1.1973552911
 10
35.8164615536
 20
-1.2313496763
 10
35.7601042773
 20
-1.2600649953
 10
35.7017297006
 20
-1.2825743366
 10
35.6419440066
 20
-1.2985687299
 10
35.5801410124
 20
-1.3083571455
 10
35.5163207177
 20
-1.3119395835
  0
LWPOLYLINE
  5
5DC
100
AcDbEntity
  8
ASSI
100
AcDbPolyline
 62
7
  6
CONTINUOUS
 90
16
 70
0
 10
36.1162978715
 20
-0.7119624297
 10
36.1127154339
 20
-0.7757827174
 10
36.1029270205
 20
-0.8375857047
 10
36.0869326315
 20
-0.8973713915
 10
36.0644232974
 20
-0.9557459598
 10
36.0357079875
 20
-1.0121032278
 10
36.0017136101
 20
-1.0646246494
 10
35.9622680618
 20
-1.1131851162
 10
35.9175434459
 20
-1.1579097368
 10
35.8689829801
 20
-1.1973552911
 10
35.8164615536
 20
-1.2313496763
 10
35.7601042773
 20
-1.2600649953
 10
35.7017297006
 20
-1.2825743366
 10
35.6419440066
 20
-1.2985687299
 10
35.5801410124
 20
-1.3083571455
 10
35.5163207177
 20
-1.3119395835
  0
LWPOLYLINE
  5
5DD
100
AcDbEntity
  8
RACCORDO
100
AcDbPolyline
 62
253
  6
CONTINUOUS
 90
22
 70
0
 10
50.0988460651
 20
3.9872689944
 10
50.105071788
 20
3.9904999995
 10
50.1112553456
 20
3.993974798
 10
50.1173769843
 20
3.9976933899
 10
50.123413886
 20
4.0016541622
 10
50.1293463899
 20
4.0058587278
 10
50.1351572584
 20
4.0103119263
 10
50.1408222569
 20
4.0150168399
 10
50.1463154601
 20
4.0199703864
 10
50.1516142359
 20
4.025168159
 10
50.1566890732
 20
4.0306123466
 10
50.1615124738
 20
4.0363007604
 10
50.1660612011
 20
4.0422224272
 10
50.1703010255
 20
4.0483786693
 10
50.1742012578
 20
4.0547681644
 10
50.1777375884
 20
4.0613759733
 10
50.180867854
 20
4.068197247
 10
50.1835592815
 20
4.0752368344
 10
50.1857864819
 20
4.082494343
 10
50.1875023933
 20
4.0899696419
 10
50.1886505911
 20
4.0976628621
 10
50.1891802965
 20
4.1055740035
  0
LINE
  5
5DE
100
AcDbEntity
  8
RACCORDO
100
AcDbLine
 62
253
  6
CONTINUOUS
 10
49.9892110583
 20
3.932451458
 11
50.0988460651
 21
3.9872689944
  0
LINE
  5
5DF
100
AcDbEntity
  8
RACCORDO
100
AcDbLine
 62
253
  6
CONTINUOUS
 10
50.0988460651
 20
0.862671264
 11
49.9892110583
 21
0.9174887716
  0
LINE
  5
5E0
100
AcDbEntity
  8
RACCORDO
100
AcDbLine
 62
7
  6
CONTINUOUS
 10
49.248424168
 20
5.3154550173
 11
49.2327583785
 21
5.3232855256
  0
LINE
  5
5E1
100
AcDbEntity
  8
ASSI
100
AcDbLine
 62
7
  6
CONTINUOUS
 10
41.4293881732
 20
1.9249701148
 11
41.4293881732
 21
2.9249701148
  0
LINE
  5
5E2
100
AcDbEntity
  8
RACCORDO
100
AcDbLine
 62
7
  6
CONTINUOUS
 10
49.1293881732
 20
5.3249701148
 11
49.120814355
 21
5.3163962966
  0
LINE
  5
5E3
100
AcDbEntity
  8
ASSI
100
AcDbLine
 62
7
  6
CONTINUOUS
 10
49.1293881732
 20
5.3249701148
 11
49.120814355
 21
5.3163962966
  0
LINE
  5
5E4
100
AcDbEntity
  8
RACCORDO
100
AcDbLine
 62
253
  6
CONTINUOUS
 10
50.1294034037
 20
5.3249701148
 11
50.1198881779
 21
5.315454889
  0
LINE
  5
5E5
100
AcDbEntity
  8
RACCORDO
100
AcDbLine
 62
7
  6
CONTINUOUS
 10
49.248424168
 20
-0.4655147877
 11
49.2327583785
 21
-0.473345296
  0
LINE
  5
5E6
100
AcDbEntity
  8
RACCORDO
100
AcDbLine
 62
7
  6
CONTINUOUS
 10
49.1293881732
 20
-0.4750298852
 11
49.120814355
 21
-0.466456067
  0
LINE
  5
5E7
100
AcDbEntity
  8
ASSI
100
AcDbLine
 62
7
  6
CONTINUOUS
 10
49.1293881732
 20
-0.4750298852
 11
49.120814355
 21
-0.466456067
  0
LINE
  5
5E8
100
AcDbEntity
  8
RACCORDO
100
AcDbLine
 62
253
  6
CONTINUOUS
 10
50.1198881779
 20
-0.4655146593
 11
50.1294034037
 21
-0.4750298852
  0
LINE
  5
5E9
100
AcDbEntity
  8
RACCORDO
100
AcDbLine
 62
253
  6
CONTINUOUS
 10
50.2198730758
 20
-0.3655300182
 11
50.2293577099
 21
-0.3750146524
  0
LINE
  5
5EA
100
AcDbEntity
  8
ASSI
100
AcDbLine
 62
7
  6
CONTINUOUS
 10
42.4876886977
 20
1.9249701148
 11
42.4876886977
 21
2.9249701148
  0
LWPOLYLINE
  5
5EB
100
AcDbEntity
  8
RACCORDO
100
AcDbPolyline
 62
7
  6
CONTINUOUS
 90
13
 70
0
 10
49.1293881732
 20
4.2749701148
 10
49.1281798235
 20
4.2736627486
 10
49.1269767494
 20
4.2697988646
 10
49.1257789509
 20
4.2633784626
 10
49.1245848628
 20
4.2543855092
 10
49.1233960503
 20
4.2428360379
 10
49.1222172091
 20
4.2287781494
 10
49.1210482886
 20
4.2122012019
 10
49.1198893394
 20
4.1931158372
 10
49.1187452092
 20
4.1716020817
 10
49.1176159808
 20
4.1476503482
 10
49.1165015713
 20
4.1212702239
 10
49.1143310825
 20
4.061541841
  0
LWPOLYLINE
  5
5EC
100
AcDbEntity
  8
ASSI
100
AcDbPolyline
 62
7
  6
CONTINUOUS
 90
13
 70
0
 10
49.1293881732
 20
4.2749701148
 10
49.1281798235
 20
4.2736627486
 10
49.1269767494
 20
4.2697988646
 10
49.1257789509
 20
4.2633784626
 10
49.1245848628
 20
4.2543855092
 10
49.1233960503
 20
4.2428360379
 10
49.1222172091
 20
4.2287781494
 10
49.1210482886
 20
4.2122012019
 10
49.1198893394
 20
4.1931158372
 10
49.1187452092
 20
4.1716020817
 10
49.1176159808
 20
4.1476503482
 10
49.1165015713
 20
4.1212702239
 10
49.1143310825
 20
4.061541841
  0
LWPOLYLINE
  5
5ED
100
AcDbEntity
  8
RACCORDO
100
AcDbPolyline
 62
253
  6
CONTINUOUS
 90
22
 70
0
 10
50.0440285947
 20
4.0420864648
 10
50.0471583791
 20
4.0454315199
 10
50.0502465085
 20
4.0490294468
 10
50.053292983
 20
4.0528794994
 10
50.0563084643
 20
4.0569779675
 10
50.0592822907
 20
4.0613269073
 10
50.0621824762
 20
4.0659341058
 10
50.0650110155
 20
4.0708016932
 10
50.067765914
 20
4.0759254512
 10
50.0704092017
 20
4.0813035231
 10
50.0729422394
 20
4.0869367716
 10
50.0753636664
 20
4.0928218696
 10
50.0776314307
 20
4.0989506157
 10
50.0797474142
 20
4.1053230217
 10
50.0817097349
 20
4.1119362917
 10
50.0834706954
 20
4.1187780115
 10
50.0850335275
 20
4.1258415907
 10
50.0863949994
 20
4.1331306054
 10
50.0874977176
 20
4.1406478317
 10
50.0883225509
 20
4.1483930223
 10
50.0888886307
 20
4.1563629365
 10
50.0891959567
 20
4.1645557305
  0
LINE
  5
5EE
100
AcDbEntity
  8
RACCORDO
100
AcDbLine
 62
253
  6
CONTINUOUS
 10
50.2293577099
 20
5.224954882
 11
50.2198730758
 21
5.2154702478
  0
LINE
  5
5EF
100
AcDbEntity
  8
RACCORDO
100
AcDbLine
 62
7
  6
CONTINUOUS
 10
50.2288093707
 20
4.3246807356
 11
50.2328688634
 21
4.3287402283
  0
LWPOLYLINE
  5
5F0
100
AcDbEntity
  8
RACCORDO
100
AcDbPolyline
 62
253
  6
CONTINUOUS
 90
10
 70
0
 10
50.0440285947
 20
4.0420864589
 10
50.0508049415
 20
4.0371320606
 10
50.0575283055
 20
4.0317877842
 10
50.0641461168
 20
4.0260954166
 10
50.0706066307
 20
4.0200994664
 10
50.0768593326
 20
4.0138468159
 10
50.0828553327
 20
4.0073863547
 10
50.0885477482
 20
4.000768597
 10
50.0938920702
 20
3.9940452871
 10
50.0988465115
 20
3.9872689944
  0
LINE
  5
5F1
100
AcDbEntity
  8
RACCORDO
100
AcDbLine
 62
7
  6
CONTINUOUS
 10
50.2328688634
 20
0.5212000013
 11
50.2288093707
 21
0.525259494
  0
LWPOLYLINE
  5
5F2
100
AcDbEntity
  8
RACCORDO
100
AcDbPolyline
 62
253
  6
CONTINUOUS
 90
22
 70
0
 10
50.044028566
 20
0.8078537649
 10
50.0472325029
 20
0.8044233206
 10
50.0503853683
 20
0.8007405504
 10
50.0534871624
 20
0.7968062172
 10
50.0565496061
 20
0.7926200351
 10
50.0595609784
 20
0.7881839875
 10
50.0624861164
 20
0.7835023148
 10
50.0653247031
 20
0.7785751586
 10
50.0680770554
 20
0.7734043933
 10
50.0707089613
 20
0.767996907
 10
50.0732211714
 20
0.7623531452
 10
50.0756129352
 20
0.7564749728
 10
50.0778477891
 20
0.7503714288
 10
50.0799270236
 20
0.7440475947
 10
50.0818493482
 20
0.7375009458
 10
50.0835744287
 20
0.7307291784
 10
50.0850907328
 20
0.7238772023
 10
50.0864097928
 20
0.7168024666
 10
50.0875258716
 20
0.7090743225
 10
50.088437057
 20
0.7005537616
 10
50.0891452613
 20
0.6913903877
 10
50.0896504844
 20
0.6815898728
  0
LWPOLYLINE
  5
5F3
100
AcDbEntity
  8
RACCORDO
100
AcDbPolyline
 62
7
  6
CONTINUOUS
 90
3
 70
0
 10
49.7500212886
 20
0.8553049159
 10
49.762327921
 20
0.8675728092
 10
49.799647431
 20
0.9049923737
  0
LINE
  5
5F4
100
AcDbEntity
  8
RACCORDO
100
AcDbLine
 62
7
  6
CONTINUOUS
 10
49.799647431
 20
0.9049923737
 11
49.8122308857
 21
0.9174887716
  0
LWPOLYLINE
  5
5F5
100
AcDbEntity
  8
RACCORDO
100
AcDbPolyline
 62
7
  6
CONTINUOUS
 90
3
 70
0
 10
49.7025958789
 20
0.8078537649
 10
49.7141883116
 20
0.8193391359
 10
49.7500212886
 20
0.8553049159
  0
LWPOLYLINE
  5
5F6
100
AcDbEntity
  8
RACCORDO
100
AcDbPolyline
 62
7
  6
CONTINUOUS
 90
10
 70
0
 10
49.248424168
 20
5.3154550173
 10
49.2488186814
 20
5.3151297471
 10
49.2492124393
 20
5.3145504354
 10
49.2496054417
 20
5.3137170823
 10
49.2499978903
 20
5.312628996
 10
49.2503895834
 20
5.3112868682
 10
49.2507799165
 20
5.3096927745
 10
49.2511686878
 20
5.3078474066
 10
49.2515560991
 20
5.3057500727
 10
49.2519421503
 20
5.3034007728
  0
LWPOLYLINE
  5
5F7
100
AcDbEntity
  8
RACCORDO
100
AcDbPolyline
 62
7
  6
CONTINUOUS
 90
3
 70
0
 10
49.75004703
 20
3.9946610551
 10
49.71408125
 20
4.0304940321
 10
49.7025958789
 20
4.0420864648
  0
LWPOLYLINE
  5
5F8
100
AcDbEntity
  8
RACCORDO
100
AcDbPolyline
 62
7
  6
CONTINUOUS
 90
3
 70
0
 10
49.7997344877
 20
3.9450349127
 10
49.7623149233
 20
3.9823544227
 10
49.75004703
 20
3.9946610551
  0
LINE
  5
5F9
100
AcDbEntity
  8
RACCORDO
100
AcDbLine
 62
7
  6
CONTINUOUS
 10
49.8122308857
 20
3.932451458
 11
49.7997344877
 21
3.9450349127
  0
LWPOLYLINE
  5
5FA
100
AcDbEntity
  8
RACCORDO
100
AcDbPolyline
 62
7
  6
CONTINUOUS
 90
10
 70
0
 10
49.120814355
 20
5.3163962966
 10
49.1203720031
 20
5.3156314556
 10
49.1199306957
 20
5.3142282423
 10
49.1194904328
 20
5.3121866565
 10
49.1190509336
 20
5.3095045675
 10
49.1186124788
 20
5.3061841061
 10
49.1181759118
 20
5.3022316645
 10
49.1177415135
 20
5.2976493735
 10
49.1173090029
 20
5.2924351023
 10
49.11687838
 20
5.286588851
  0
LWPOLYLINE
  5
5FB
100
AcDbEntity
  8
ASSI
100
AcDbPolyline
 62
7
  6
CONTINUOUS
 90
10
 70
0
 10
49.120814355
 20
5.3163962966
 10
49.1203720031
 20
5.3156314556
 10
49.1199306957
 20
5.3142282423
 10
49.1194904328
 20
5.3121866565
 10
49.1190509336
 20
5.3095045675
 10
49.1186124788
 20
5.3061841061
 10
49.1181759118
 20
5.3022316645
 10
49.1177415135
 20
5.2976493735
 10
49.1173090029
 20
5.2924351023
 10
49.11687838
 20
5.286588851
  0
LWPOLYLINE
  5
5FC
100
AcDbEntity
  8
RACCORDO
100
AcDbPolyline
 62
7
  6
CONTINUOUS
 90
10
 70
0
 10
49.357464237
 20
0.3819839996
 10
49.3466283356
 20
0.3698935797
 10
49.3368120561
 20
0.3571090407
 10
49.3280153986
 20
0.3436444013
 10
49.3201509588
 20
0.3294720292
 10
49.3133061409
 20
0.3146511931
 10
49.3077431576
 20
0.299324999
 10
49.3035494131
 20
0.28355019
 10
49.3006375032
 20
0.2673002535
 10
49.2990074278
 20
0.2505918003
  0
LWPOLYLINE
  5
5FD
100
AcDbEntity
  8
RACCORDO
100
AcDbPolyline
 62
7
  6
CONTINUOUS
 90
9
 70
0
 10
49.7025958789
 20
0.8078537649
 10
49.6987482867
 20
0.8039093966
 10
49.6949797576
 20
0.7998712766
 10
49.6912902915
 20
0.7957397329
 10
49.6876800473
 20
0.7915123094
 10
49.6841488662
 20
0.7871921533
 10
49.6806962716
 20
0.7827879831
 10
49.6773221044
 20
0.778302918
 10
49.6740265237
 20
0.7737345108
  0
LINE
  5
5FE
100
AcDbEntity
  8
RACCORDO
100
AcDbLine
 62
253
  6
CONTINUOUS
 10
50.2328688634
 20
-0.3715034989
 11
50.2293577099
 21
-0.3750146524
  0
LINE
  5
5FF
100
AcDbEntity
  8
RACCORDO
100
AcDbLine
 62
253
  6
CONTINUOUS
 10
50.2293577099
 20
5.224954882
 11
50.2328688634
 21
5.2214437285
  0
LWPOLYLINE
  5
600
100
AcDbEntity
  8
RACCORDO
100
AcDbPolyline
 62
7
  6
CONTINUOUS
 90
6
 70
0
 10
49.357464237
 20
4.46795623
 10
49.4153224637
 20
4.4057748003
 10
49.4709270859
 20
4.3426593348
 10
49.5242781036
 20
4.2786098337
 10
49.5753755168
 20
4.2136262969
 10
49.6242193254
 20
4.1477087244
  0
LINE
  5
601
100
AcDbEntity
  8
RACCORDO
100
AcDbLine
 62
253
  6
CONTINUOUS
 10
50.2059705837
 20
5.2892376432
 11
50.2094864401
 21
5.2857246301
  0
LWPOLYLINE
  5
602
100
AcDbEntity
  8
RACCORDO
100
AcDbPolyline
 62
7
  6
CONTINUOUS
 90
6
 70
0
 10
50.2000620993
 20
5.2956870793
 10
50.2059705837
 20
5.2892376432
 10
50.2159666336
 20
5.2749549711
 10
50.22333039
 20
5.259154904
 10
50.2278393379
 20
5.242317693
 10
50.2293577099
 20
5.224954882
  0
LWPOLYLINE
  5
603
100
AcDbEntity
  8
RACCORDO
100
AcDbPolyline
 62
253
  6
CONTINUOUS
 90
6
 70
0
 10
50.1198882038
 20
5.3154548889
 10
50.1196514158
 20
5.3148723927
 10
50.1194155611
 20
5.3137169734
 10
50.1191806397
 20
5.3119898219
 10
50.1189466518
 20
5.3096927856
 10
50.1187135972
 20
5.3068283667
  0
LINE
  5
604
100
AcDbEntity
  8
RACCORDO
100
AcDbLine
 62
7
  6
CONTINUOUS
 10
50.233001509
 20
4.3290448609
 11
50.2328688634
 21
4.3287402283
  0
LINE
  5
605
100
AcDbEntity
  8
RACCORDO
100
AcDbLine
 62
253
  6
CONTINUOUS
 10
50.0440285947
 20
4.0420864648
 11
49.9892110583
 21
3.932451458
  0
LWPOLYLINE
  5
606
100
AcDbEntity
  8
RACCORDO
100
AcDbPolyline
 62
253
  6
CONTINUOUS
 90
7
 70
0
 10
50.2198730758
 20
5.2154702478
 10
50.2196352656
 20
5.2149954361
 10
50.2193987952
 20
5.214067656
 10
50.2191636646
 20
5.2126869075
 10
50.2189298738
 20
5.2108531908
 10
50.2186974228
 20
5.2085665057
 10
50.2184663116
 20
5.2058268522
  0
LWPOLYLINE
  5
607
100
AcDbEntity
  8
RACCORDO
100
AcDbPolyline
 62
7
  6
CONTINUOUS
 90
7
 70
0
 10
49.6740265237
 20
0.7737345108
 10
49.6242194177
 20
0.7022316195
 10
49.5753756644
 20
0.6363141155
 10
49.5242782697
 20
0.5713306016
 10
49.4709272336
 20
0.5072810776
 10
49.415322556
 20
0.4441655436
 10
49.357464237
 20
0.3819839996
  0
LWPOLYLINE
  5
608
100
AcDbEntity
  8
RACCORDO
100
AcDbPolyline
 62
253
  6
CONTINUOUS
 90
10
 70
0
 10
50.0988462797
 20
0.862671264
 10
50.0938918859
 20
0.8558949415
 10
50.0885476043
 20
0.8491716066
 10
50.0828552225
 20
0.8425538299
 10
50.0768592495
 20
0.8360933562
 10
50.0706065686
 20
0.8298407005
 10
50.06414607
 20
0.823844753
 10
50.057528269
 20
0.8181523962
 10
50.0508049107
 20
0.8128081393
 10
50.044028566
 20
0.8078537694
  0
LWPOLYLINE
  5
609
100
AcDbEntity
  8
RACCORDO
100
AcDbPolyline
 62
7
  6
CONTINUOUS
 90
4
 70
0
 10
50.2034617814
 20
-0.4423332469
 10
50.213905809
 20
-0.4301107143
 10
50.2221243589
 20
-0.4166631118
 10
50.2284563989
 20
-0.4010897775
  0
LINE
  5
60A
100
AcDbEntity
  8
RACCORDO
100
AcDbLine
 62
253
  6
CONTINUOUS
 10
50.2059661625
 20
-0.4393025197
 11
50.2094877478
 21
-0.4357828419
  0
LWPOLYLINE
  5
60B
100
AcDbEntity
  8
RACCORDO
100
AcDbPolyline
 62
7
  6
CONTINUOUS
 90
6
 70
0
 10
50.2000620242
 20
-0.4457468496
 10
50.2059661625
 20
-0.4393025197
 10
50.2159616754
 20
-0.4250233328
 10
50.223327376
 20
-0.4092239962
 10
50.2278386714
 20
-0.3923839761
 10
50.2293577099
 20
-0.3750146524
  0
LINE
  5
60C
100
AcDbEntity
  8
RACCORDO
100
AcDbLine
 62
253
  6
CONTINUOUS
 10
50.2159666336
 20
5.2749549711
 11
50.2194827237
 21
5.2714464212
  0
LWPOLYLINE
  5
60D
100
AcDbEntity
  8
RACCORDO
100
AcDbPolyline
 62
7
  6
CONTINUOUS
 90
10
 70
0
 10
49.6242193254
 20
4.1477087244
 10
49.6740265237
 20
4.0762057188
 10
49.6773221044
 20
4.0716373116
 10
49.6806962716
 20
4.0671522465
 10
49.6841488662
 20
4.0627480763
 10
49.6876800473
 20
4.0584279203
 10
49.6912902915
 20
4.0542004967
 10
49.6949797576
 20
4.0500689531
 10
49.6987482867
 20
4.046030833
 10
49.7025958789
 20
4.0420864648
  0
LINE
  5
60E
100
AcDbEntity
  8
RACCORDO
100
AcDbLine
 62
253
  6
CONTINUOUS
 10
49.9892110583
 20
0.9174887716
 11
50.044028566
 21
0.8078537649
  0
LWPOLYLINE
  5
60F
100
AcDbEntity
  8
RACCORDO
100
AcDbPolyline
 62
7
  6
CONTINUOUS
 90
10
 70
0
 10
50.2288093707
 20
0.525259494
 10
50.2274068388
 20
0.5283801565
 10
50.2260128742
 20
0.5348428526
 10
50.2246274767
 20
0.5446475824
 10
50.2232482405
 20
0.5578238369
 10
50.2218775716
 20
0.5743421251
 10
50.2205226877
 20
0.5941139735
 10
50.2191836445
 20
0.6171568747
 10
50.2178603864
 20
0.6434533363
 10
50.2165599642
 20
0.6728624079
  0
LINE
  5
610
100
AcDbEntity
  8
RACCORDO
100
AcDbLine
 62
7
  6
CONTINUOUS
 10
50.2328688634
 20
0.5212000013
 11
50.233001509
 21
0.5208953687
  0
LWPOLYLINE
  5
611
100
AcDbEntity
  8
RACCORDO
100
AcDbPolyline
 62
7
  6
CONTINUOUS
 90
10
 70
0
 10
49.2990074278
 20
4.5993484293
 10
49.3006368656
 20
4.5826426063
 10
49.3035481219
 20
4.5663947185
 10
49.3077411968
 20
4.5506213584
 10
49.3133032605
 20
4.5352960462
 10
49.3201471427
 20
4.5204754606
 10
49.3280113326
 20
4.5063025427
 10
49.3368086597
 20
4.492836495
 10
49.3466262945
 20
4.4800497217
 10
49.357464237
 20
4.46795623
  0
LWPOLYLINE
  5
612
100
AcDbEntity
  8
RACCORDO
100
AcDbPolyline
 62
253
  6
CONTINUOUS
 90
10
 70
0
 10
50.2184663116
 20
5.2058268522
 10
50.2168883322
 20
5.2227296056
 10
50.2123348379
 20
5.2391212337
 10
50.2049435158
 20
5.2545061057
 10
50.1949378605
 20
5.2684190323
 10
50.1826204141
 20
5.2804393336
 10
50.1683636173
 20
5.2902035581
 10
50.1525985502
 20
5.2974164694
 10
50.1358018995
 20
5.3018599737
 10
50.1184815421
 20
5.3033997162
  0
LWPOLYLINE
  5
613
100
AcDbEntity
  8
RACCORDO
100
AcDbPolyline
 62
253
  6
CONTINUOUS
 90
10
 70
0
 10
50.2198730758
 20
5.2154702478
 10
50.2183493685
 20
5.23282917
 10
50.2138351083
 20
5.2496608283
 10
50.2064674178
 20
5.2654539986
 10
50.1964700868
 20
5.2797290001
 10
50.1841467707
 20
5.29205227
 10
50.1698717642
 20
5.3020495286
 10
50.1540786396
 20
5.3094171399
 10
50.1372470804
 20
5.3139313362
 10
50.1198883063
 20
5.3154550173
  0
LINE
  5
614
100
AcDbEntity
  8
RACCORDO
100
AcDbLine
 62
253
  6
CONTINUOUS
 10
50.2313544424
 20
5.2388099697
 11
50.2328688634
 21
5.2214437285
  0
LWPOLYLINE
  5
615
100
AcDbEntity
  8
RACCORDO
100
AcDbPolyline
 62
253
  6
CONTINUOUS
 90
7
 70
0
 10
50.2184663116
 20
-0.3558866226
 10
50.2186974228
 20
-0.358626276
 10
50.2189298738
 20
-0.3609129612
 10
50.2191636646
 20
-0.3627466779
 10
50.2193987952
 20
-0.3641274264
 10
50.2196352656
 20
-0.3650552065
 10
50.2198730758
 20
-0.3655300182
  0
LWPOLYLINE
  5
616
100
AcDbEntity
  8
RACCORDO
100
AcDbPolyline
 62
253
  6
CONTINUOUS
 90
6
 70
0
 10
50.1187135667
 20
-0.4568877251
 10
50.1189466396
 20
-0.4597524208
 10
50.1191806397
 20
-0.4620495923
 10
50.1194155672
 20
-0.4637767816
 10
50.1196514219
 20
-0.4649321858
 10
50.1198882038
 20
-0.4655146593
  0
LWPOLYLINE
  5
617
100
AcDbEntity
  8
RACCORDO
100
AcDbPolyline
 62
7
  6
CONTINUOUS
 90
10
 70
0
 10
49.11687838
 20
-0.4366486214
 10
49.1173090029
 20
-0.4424948727
 10
49.1177415135
 20
-0.4477091439
 10
49.1181759118
 20
-0.4522914349
 10
49.1186124788
 20
-0.4562438765
 10
49.1190509336
 20
-0.4595643379
 10
49.1194904328
 20
-0.4622464268
 10
49.1199306957
 20
-0.4642880126
 10
49.1203720031
 20
-0.465691226
 10
49.120814355
 20
-0.466456067
  0
LWPOLYLINE
  5
618
100
AcDbEntity
  8
ASSI
100
AcDbPolyline
 62
7
  6
CONTINUOUS
 90
10
 70
0
 10
49.11687838
 20
-0.4366486214
 10
49.1173090029
 20
-0.4424948727
 10
49.1177415135
 20
-0.4477091439
 10
49.1181759118
 20
-0.4522914349
 10
49.1186124788
 20
-0.4562438765
 10
49.1190509336
 20
-0.4595643379
 10
49.1194904328
 20
-0.4622464268
 10
49.1199306957
 20
-0.4642880126
 10
49.1203720031
 20
-0.465691226
 10
49.120814355
 20
-0.466456067
  0
LWPOLYLINE
  5
619
100
AcDbEntity
  8
RACCORDO
100
AcDbPolyline
 62
7
  6
CONTINUOUS
 90
4
 70
0
 10
50.2330103879
 20
5.2211719397
 10
50.2320104524
 20
5.2352962366
 10
50.2277751442
 20
5.253148538
 10
50.2207474629
 20
5.2692269555
  0
LWPOLYLINE
  5
61A
100
AcDbEntity
  8
RACCORDO
100
AcDbPolyline
 62
253
  6
CONTINUOUS
 90
22
 70
0
 10
50.1891805973
 20
0.7443544862
 10
50.1886582498
 20
0.7522030423
 10
50.1875273893
 20
0.7598331106
 10
50.1858389864
 20
0.7672446911
 10
50.18364981
 20
0.7744369974
 10
50.1810068002
 20
0.7814108159
 10
50.1779342741
 20
0.7881685056
 10
50.1744668732
 20
0.794711058
 10
50.1706443686
 20
0.8010374817
 10
50.1664802149
 20
0.8071471617
 10
50.1619988776
 20
0.8130436541
 10
50.1572339959
 20
0.8187234028
 10
50.1522032699
 20
0.8241751251
 10
50.1469303583
 20
0.8293979459
 10
50.1414426987
 20
0.8343927403
 10
50.1357598061
 20
0.8391508499
 10
50.1299017808
 20
0.8436708905
 10
50.1238941559
 20
0.8479542464
 10
50.1177632586
 20
0.8519964122
 10
50.1115321093
 20
0.8557958862
 10
50.1052198324
 20
0.8593541701
 10
50.0988460651
 20
0.862671264
  0
LWPOLYLINE
  5
61B
100
AcDbEntity
  8
RACCORDO
100
AcDbPolyline
 62
7
  6
CONTINUOUS
 90
11
 70
0
 10
49.1176160128
 20
0.702289161
 10
49.1187452379
 20
0.6783375737
 10
49.119889364
 20
0.6568239545
 10
49.1210483084
 20
0.6377387212
 10
49.1222172242
 20
0.6211618828
 10
49.1233960609
 20
0.607104074
 10
49.1245848692
 20
0.59555466
 10
49.1257789541
 20
0.5865617466
 10
49.1269767505
 20
0.5801413689
 10
49.1281798236
 20
0.5762774916
 10
49.1293881732
 20
0.5749701148
  0
LWPOLYLINE
  5
61C
100
AcDbEntity
  8
ASSI
100
AcDbPolyline
 62
7
  6
CONTINUOUS
 90
11
 70
0
 10
49.1176160128
 20
0.702289161
 10
49.1187452379
 20
0.6783375737
 10
49.119889364
 20
0.6568239545
 10
49.1210483084
 20
0.6377387212
 10
49.1222172242
 20
0.6211618828
 10
49.1233960609
 20
0.607104074
 10
49.1245848692
 20
0.59555466
 10
49.1257789541
 20
0.5865617466
 10
49.1269767505
 20
0.5801413689
 10
49.1281798236
 20
0.5762774916
 10
49.1293881732
 20
0.5749701148
  0
LWPOLYLINE
  5
61D
100
AcDbEntity
  8
RACCORDO
100
AcDbPolyline
 62
253
  6
CONTINUOUS
 90
5
 70
0
 10
50.2092188979
 20
-0.181209214
 10
50.2114301889
 20
-0.2335254716
 10
50.2137097089
 20
-0.280042104
 10
50.2160550831
 20
-0.3208291543
 10
50.2184663116
 20
-0.3558866226
  0
LWPOLYLINE
  5
61E
100
AcDbEntity
  8
RACCORDO
100
AcDbPolyline
 62
253
  6
CONTINUOUS
 90
5
 70
0
 10
50.109248332
 20
-0.27283594
 10
50.1114603686
 20
-0.3271540476
 10
50.1137372212
 20
-0.3756384769
 10
50.1160775652
 20
-0.4178387756
 10
50.1187135667
 20
-0.4568877251
  0
LWPOLYLINE
  5
61F
100
AcDbEntity
  8
RACCORDO
100
AcDbPolyline
 62
7
  6
CONTINUOUS
 90
5
 70
0
 10
49.1067106459
 20
-0.223471051
 10
49.1091775469
 20
-0.288302137
 10
49.1116905773
 20
-0.3453278397
 10
49.1142575217
 20
-0.3947766678
 10
49.11687838
 20
-0.4366486214
  0
LWPOLYLINE
  5
620
100
AcDbEntity
  8
ASSI
100
AcDbPolyline
 62
7
  6
CONTINUOUS
 90
5
 70
0
 10
49.1067106459
 20
-0.223471051
 10
49.1091775469
 20
-0.288302137
 10
49.1116905773
 20
-0.3453278397
 10
49.1142575217
 20
-0.3947766678
 10
49.11687838
 20
-0.4366486214
  0
LINE
  5
621
100
AcDbEntity
  8
RACCORDO
100
AcDbLine
 62
7
  6
CONTINUOUS
 10
49.1154066156
 20
0.7573687381
 11
49.1176160128
 21
0.702289161
  0
LINE
  5
622
100
AcDbEntity
  8
ASSI
100
AcDbLine
 62
7
  6
CONTINUOUS
 10
49.1154066156
 20
0.7573687381
 11
49.1176160128
 21
0.702289161
  0
LINE
  5
623
100
AcDbEntity
  8
RACCORDO
100
AcDbLine
 62
7
  6
CONTINUOUS
 10
50.2165599642
 20
0.6728624079
 11
50.2140278866
 21
0.7410512415
  0
LINE
  5
624
100
AcDbEntity
  8
RACCORDO
100
AcDbLine
 62
253
  6
CONTINUOUS
 10
50.2049867549
 20
-0.0595980825
 11
50.2092188979
 21
-0.181209214
  0
LINE
  5
625
100
AcDbEntity
  8
RACCORDO
100
AcDbLine
 62
253
  6
CONTINUOUS
 10
50.105010759
 20
-0.1470707201
 11
50.109248332
 21
-0.27283594
  0
LINE
  5
626
100
AcDbEntity
  8
RACCORDO
100
AcDbLine
 62
7
  6
CONTINUOUS
 10
49.1132750382
 20
0.8217454915
 11
49.1154066156
 21
0.7573687381
  0
LINE
  5
627
100
AcDbEntity
  8
ASSI
100
AcDbLine
 62
7
  6
CONTINUOUS
 10
49.1132750382
 20
0.8217454915
 11
49.1154066156
 21
0.7573687381
  0
LINE
  5
628
100
AcDbEntity
  8
ASSI
100
AcDbLine
 62
7
  6
CONTINUOUS
 10
49.2755472427
 20
3.7897045105
 11
49.2813332742
 21
3.6070529301
  0
LINE
  5
629
100
AcDbEntity
  8
RACCORDO
100
AcDbLine
 62
7
  6
CONTINUOUS
 10
49.1019619398
 20
-0.0717637818
 11
49.1067106459
 21
-0.223471051
  0
LINE
  5
62A
100
AcDbEntity
  8
ASSI
100
AcDbLine
 62
7
  6
CONTINUOUS
 10
49.1019619398
 20
-0.0717637818
 11
49.1067106459
 21
-0.223471051
  0
LINE
  5
62B
100
AcDbEntity
  8
RACCORDO
100
AcDbLine
 62
7
  6
CONTINUOUS
 10
50.2140278866
 20
0.7410512415
 11
50.211607297
 21
0.8211351868
  0
LINE
  5
62C
100
AcDbEntity
  8
RACCORDO
100
AcDbLine
 62
7
  6
CONTINUOUS
 10
49.1112343207
 20
0.8949993976
 11
49.1132750382
 21
0.8217454915
  0
LINE
  5
62D
100
AcDbEntity
  8
ASSI
100
AcDbLine
 62
7
  6
CONTINUOUS
 10
49.1112343207
 20
0.8949993976
 11
49.1132750382
 21
0.8217454915
  0
LINE
  5
62E
100
AcDbEntity
  8
RACCORDO
100
AcDbLine
 62
253
  6
CONTINUOUS
 10
50.2009789357
 20
0.0842019744
 11
50.2049867549
 21
-0.0595980825
  0
LINE
  5
62F
100
AcDbEntity
  8
RACCORDO
100
AcDbLine
 62
253
  6
CONTINUOUS
 10
50.1010039496
 20
0.0015992453
 11
50.105010759
 21
-0.1470707201
  0
LINE
  5
630
100
AcDbEntity
  8
RACCORDO
100
AcDbLine
 62
7
  6
CONTINUOUS
 10
49.097525901
 20
0.1075980747
 11
49.1019619398
 21
-0.0717637818
  0
LINE
  5
631
100
AcDbEntity
  8
ASSI
100
AcDbLine
 62
7
  6
CONTINUOUS
 10
49.097525901
 20
0.1075980747
 11
49.1019619398
 21
-0.0717637818
  0
LINE
  5
632
100
AcDbEntity
  8
ASSI
100
AcDbLine
 62
7
  6
CONTINUOUS
 10
49.2813332742
 20
3.6070529301
 11
49.2862591407
 21
3.4036197467
  0
LINE
  5
633
100
AcDbEntity
  8
RACCORDO
100
AcDbLine
 62
7
  6
CONTINUOUS
 10
50.211607297
 20
0.8211351868
 11
50.2082166302
 21
0.9625068318
  0
LINE
  5
634
100
AcDbEntity
  8
RACCORDO
100
AcDbLine
 62
7
  6
CONTINUOUS
 10
49.1083653787
 20
1.0207210958
 11
49.1112343207
 21
0.8949993976
  0
LINE
  5
635
100
AcDbEntity
  8
ASSI
100
AcDbLine
 62
7
  6
CONTINUOUS
 10
49.1083653787
 20
1.0207210958
 11
49.1112343207
 21
0.8949993976
  0
LINE
  5
636
100
AcDbEntity
  8
RACCORDO
100
AcDbLine
 62
253
  6
CONTINUOUS
 10
50.1954575993
 20
0.3392087137
 11
50.2009789357
 21
0.0842019744
  0
LINE
  5
637
100
AcDbEntity
  8
RACCORDO
100
AcDbLine
 62
253
  6
CONTINUOUS
 10
50.095443282
 20
0.265941329
 11
50.1010039496
 21
0.0015992453
  0
LINE
  5
638
100
AcDbEntity
  8
RACCORDO
100
AcDbLine
 62
7
  6
CONTINUOUS
 10
49.0915710882
 20
0.4228638515
 11
49.097525901
 21
0.1075980747
  0
LINE
  5
639
100
AcDbEntity
  8
ASSI
100
AcDbLine
 62
7
  6
CONTINUOUS
 10
49.0915710882
 20
0.4228638515
 11
49.097525901
 21
0.1075980747
  0
LINE
  5
63A
100
AcDbEntity
  8
RACCORDO
100
AcDbLine
 62
7
  6
CONTINUOUS
 10
49.2862591407
 20
3.4036197467
 11
49.2872318095
 21
3.350211437
  0
LINE
  5
63B
100
AcDbEntity
  8
RACCORDO
100
AcDbLine
 62
7
  6
CONTINUOUS
 10
50.2082166302
 20
0.9625068318
 11
50.2051644773
 21
1.1272643316
  0
LINE
  5
63C
100
AcDbEntity
  8
RACCORDO
100
AcDbLine
 62
7
  6
CONTINUOUS
 10
49.1083653787
 20
1.0207210958
 11
49.105550573
 21
1.1798648235
  0
LINE
  5
63D
100
AcDbEntity
  8
ASSI
100
AcDbLine
 62
7
  6
CONTINUOUS
 10
49.1083653787
 20
1.0207210958
 11
49.105550573
 21
1.1798648235
  0
LWPOLYLINE
  5
63E
100
AcDbEntity
  8
RACCORDO
100
AcDbPolyline
 62
253
  6
CONTINUOUS
 90
3
 70
0
 10
50.1891805973
 20
0.7443529937
 10
50.1906282183
 20
0.6363570974
 10
50.1954575993
 20
0.3392087137
  0
LINE
  5
63F
100
AcDbEntity
  8
RACCORDO
100
AcDbLine
 62
7
  6
CONTINUOUS
 10
50.2051644773
 20
1.1272643316
 11
50.201708256
 21
1.3784223979
  0
LINE
  5
640
100
AcDbEntity
  8
RACCORDO
100
AcDbLine
 62
7
  6
CONTINUOUS
 10
49.2872318095
 20
3.350211437
 11
49.2879698584
 21
3.2941573582
  0
LINE
  5
641
100
AcDbEntity
  8
RACCORDO
100
AcDbLine
 62
7
  6
CONTINUOUS
 10
49.0882214106
 20
0.6661348159
 11
49.0915710882
 21
0.4228638515
  0
LINE
  5
642
100
AcDbEntity
  8
ASSI
100
AcDbLine
 62
7
  6
CONTINUOUS
 10
49.0882214106
 20
0.6661348159
 11
49.0915710882
 21
0.4228638515
  0
LWPOLYLINE
  5
643
100
AcDbEntity
  8
RACCORDO
100
AcDbPolyline
 62
253
  6
CONTINUOUS
 90
3
 70
0
 10
50.0896504844
 20
0.6815898728
 10
50.0908958377
 20
0.5719542022
 10
50.095443282
 20
0.265941329
  0
LINE
  5
644
100
AcDbEntity
  8
RACCORDO
100
AcDbLine
 62
7
  6
CONTINUOUS
 10
49.105550573
 20
1.1798648235
 11
49.1031055342
 21
1.3992435787
  0
LINE
  5
645
100
AcDbEntity
  8
ASSI
100
AcDbLine
 62
7
  6
CONTINUOUS
 10
49.105550573
 20
1.1798648235
 11
49.1031055342
 21
1.3992435787
  0
LINE
  5
646
100
AcDbEntity
  8
RACCORDO
100
AcDbLine
 62
7
  6
CONTINUOUS
 10
49.2879698584
 20
3.2941573582
 11
49.2884702735
 21
3.2357700648
  0
LINE
  5
647
100
AcDbEntity
  8
RACCORDO
100
AcDbLine
 62
7
  6
CONTINUOUS
 10
50.201708256
 20
1.3784223979
 11
50.2002762709
 21
1.5273813418
  0
LINE
  5
648
100
AcDbEntity
  8
RACCORDO
100
AcDbLine
 62
7
  6
CONTINUOUS
 10
49.0865723216
 20
0.875923202
 11
49.0882214106
 21
0.6661348159
  0
LINE
  5
649
100
AcDbEntity
  8
ASSI
100
AcDbLine
 62
7
  6
CONTINUOUS
 10
49.0865723216
 20
0.875923202
 11
49.0882214106
 21
0.6661348159
  0
LINE
  5
64A
100
AcDbEntity
  8
RACCORDO
100
AcDbLine
 62
7
  6
CONTINUOUS
 10
49.1031055342
 20
1.3992435787
 11
49.1017300907
 21
1.6480060701
  0
LINE
  5
64B
100
AcDbEntity
  8
ASSI
100
AcDbLine
 62
7
  6
CONTINUOUS
 10
49.1031055342
 20
1.3992435787
 11
49.1017300907
 21
1.6480060701
  0
LINE
  5
64C
100
AcDbEntity
  8
RACCORDO
100
AcDbLine
 62
7
  6
CONTINUOUS
 10
50.2002762709
 20
1.5273813418
 11
50.1997779941
 21
1.6437408239
  0
LINE
  5
64D
100
AcDbEntity
  8
RACCORDO
100
AcDbLine
 62
7
  6
CONTINUOUS
 10
49.2884702735
 20
3.2357700648
 11
49.2887534814
 21
3.1460803699
  0
LINE
  5
64E
100
AcDbEntity
  8
RACCORDO
100
AcDbLine
 62
7
  6
CONTINUOUS
 10
49.0857505109
 20
1.1789765354
 11
49.0865723216
 21
0.875923202
  0
LINE
  5
64F
100
AcDbEntity
  8
ASSI
100
AcDbLine
 62
7
  6
CONTINUOUS
 10
49.0857505109
 20
1.1789765354
 11
49.0865723216
 21
0.875923202
  0
LINE
  5
650
100
AcDbEntity
  8
DRAFT
100
AcDbLine
 62
7
  6
CONTINUOUS
 10
49.1293881732
 20
-0.4750298852
 11
49.1293881732
 21
0.5749701148
  0
LINE
  5
651
100
AcDbEntity
  8
ASSI
100
AcDbLine
 62
7
  6
CONTINUOUS
 10
49.1293881732
 20
-0.4750298852
 11
49.1293881732
 21
0.5749701148
  0
LINE
  5
652
100
AcDbEntity
  8
DRAFT
100
AcDbLine
 62
7
  6
CONTINUOUS
 10
49.1293881732
 20
4.2749701148
 11
49.1293881732
 21
5.3249701148
  0
LINE
  5
653
100
AcDbEntity
  8
ASSI
100
AcDbLine
 62
7
  6
CONTINUOUS
 10
49.1293881732
 20
4.2749701148
 11
49.1293881732
 21
5.3249701148
  0
LINE
  5
654
100
AcDbEntity
  8
ASSI
100
AcDbLine
 62
253
  6
CONTINUOUS
 10
49.1328192958
 20
-0.4750298852
 11
49.1328192958
 21
0.5749701148
  0
LINE
  5
655
100
AcDbEntity
  8
ASSI
100
AcDbLine
 62
253
  6
CONTINUOUS
 10
49.1328192958
 20
4.2749701148
 11
49.1328192958
 21
5.3249701148
  0
LINE
  5
656
100
AcDbEntity
  8
ASSI
100
AcDbLine
 62
253
  6
CONTINUOUS
 10
49.2327583785
 20
5.3232855256
 11
49.2327583785
 21
4.3225174292
  0
LINE
  5
657
100
AcDbEntity
  8
ASSI
100
AcDbLine
 62
7
  6
CONTINUOUS
 10
49.2327583785
 20
4.3225174292
 11
49.2327583785
 21
4.2629979351
  0
LINE
  5
658
100
AcDbEntity
  8
ASSI
100
AcDbLine
 62
7
  6
CONTINUOUS
 10
49.2327583785
 20
0.5869422951
 11
49.2327583785
 21
0.5274228005
  0
LINE
  5
659
100
AcDbEntity
  8
ASSI
100
AcDbLine
 62
253
  6
CONTINUOUS
 10
49.2327583785
 20
0.5274228005
 11
49.2327583785
 21
-0.473345296
  0
LINE
  5
65A
100
AcDbEntity
  8
RACCORDO
100
AcDbLine
 62
253
  6
CONTINUOUS
 10
49.2990074278
 20
4.5993484293
 11
49.2990074278
 21
0.2505918003
  0
LINE
  5
65B
100
AcDbEntity
  8
RACCORDO
100
AcDbLine
 62
253
  6
CONTINUOUS
 10
49.357464237
 20
4.46795623
 11
49.357464237
 21
0.3819839996
  0
LINE
  5
65C
100
AcDbEntity
  8
RACCORDO
100
AcDbLine
 62
253
  6
CONTINUOUS
 10
49.6708095295
 20
4.0808571162
 11
49.6708095295
 21
0.7690831134
  0
LINE
  5
65D
100
AcDbEntity
  8
RACCORDO
100
AcDbLine
 62
253
  6
CONTINUOUS
 10
49.8122308857
 20
3.932451458
 11
49.8122308857
 21
0.9174887716
  0
LINE
  5
65E
100
AcDbEntity
  8
RACCORDO
100
AcDbLine
 62
253
  6
CONTINUOUS
 10
49.9892110583
 20
0.9174887716
 11
49.9892110583
 21
3.932451458
  0
LINE
  5
65F
100
AcDbEntity
  8
RACCORDO
100
AcDbLine
 62
253
  6
CONTINUOUS
 10
50.1891805973
 20
0.7443529937
 11
50.1891805973
 21
4.1055830248
  0
LINE
  5
660
100
AcDbEntity
  8
RACCORDO
100
AcDbLine
 62
7
  6
CONTINUOUS
 10
50.2330211683
 20
-0.3712295278
 11
50.2330211683
 21
0.5208953684
  0
LINE
  5
661
100
AcDbEntity
  8
RACCORDO
100
AcDbLine
 62
7
  6
CONTINUOUS
 10
50.2330211683
 20
4.3290448612
 11
50.2330211683
 21
5.2211696319
  0
LINE
  5
662
100
AcDbEntity
  8
RACCORDO
100
AcDbLine
 62
7
  6
CONTINUOUS
 10
50.1997779941
 20
1.6437408239
 11
50.1997308029
 21
3.1763014957
  0
LINE
  5
663
100
AcDbEntity
  8
RACCORDO
100
AcDbLine
 62
7
  6
CONTINUOUS
 10
49.1017300907
 20
1.6480060701
 11
49.1015309772
 21
3.1154779304
  0
LINE
  5
664
100
AcDbEntity
  8
ASSI
100
AcDbLine
 62
7
  6
CONTINUOUS
 10
49.1017300907
 20
1.6480060701
 11
49.1015309772
 21
3.1154779304
  0
LINE
  5
665
100
AcDbEntity
  8
RACCORDO
100
AcDbLine
 62
7
  6
CONTINUOUS
 10
49.2887534814
 20
3.1460803699
 11
49.2886265962
 21
1.6437438885
  0
LINE
  5
666
100
AcDbEntity
  8
RACCORDO
100
AcDbLine
 62
7
  6
CONTINUOUS
 10
49.0862143449
 20
3.8999613691
 11
49.0857505109
 21
1.1789765354
  0
LINE
  5
667
100
AcDbEntity
  8
ASSI
100
AcDbLine
 62
7
  6
CONTINUOUS
 10
49.0862143449
 20
3.8999613691
 11
49.0857505109
 21
1.1789765354
  0
LINE
  5
668
100
AcDbEntity
  8
RACCORDO
100
AcDbLine
 62
7
  6
CONTINUOUS
 10
50.1997308029
 20
3.1763014957
 11
50.2001062833
 21
3.2941623586
  0
LINE
  5
669
100
AcDbEntity
  8
RACCORDO
100
AcDbLine
 62
7
  6
CONTINUOUS
 10
49.1015309772
 20
3.1154779304
 11
49.1025173692
 21
3.3695435198
  0
LINE
  5
66A
100
AcDbEntity
  8
ASSI
100
AcDbLine
 62
7
  6
CONTINUOUS
 10
49.1015309772
 20
3.1154779304
 11
49.1025173692
 21
3.3695435198
  0
LINE
  5
66B
100
AcDbEntity
  8
RACCORDO
100
AcDbLine
 62
7
  6
CONTINUOUS
 10
49.2886265962
 20
1.6437438885
 11
49.288251026
 21
1.5848150975
  0
LINE
  5
66C
100
AcDbEntity
  8
RACCORDO
100
AcDbLine
 62
7
  6
CONTINUOUS
 10
49.0875812293
 20
4.1167925714
 11
49.0862143449
 21
3.8999613691
  0
LINE
  5
66D
100
AcDbEntity
  8
ASSI
100
AcDbLine
 62
7
  6
CONTINUOUS
 10
49.0875812293
 20
4.1167925714
 11
49.0862143449
 21
3.8999613691
  0
LINE
  5
66E
100
AcDbEntity
  8
RACCORDO
100
AcDbLine
 62
7
  6
CONTINUOUS
 10
50.2001062833
 20
3.2941623586
 11
50.2009613532
 21
3.4036197467
  0
LINE
  5
66F
100
AcDbEntity
  8
RACCORDO
100
AcDbLine
 62
7
  6
CONTINUOUS
 10
49.1025173692
 20
3.3695435198
 11
49.1046221361
 21
3.6009625941
  0
LINE
  5
670
100
AcDbEntity
  8
ASSI
100
AcDbLine
 62
7
  6
CONTINUOUS
 10
49.1025173692
 20
3.3695435198
 11
49.1046221361
 21
3.6009625941
  0
LINE
  5
671
100
AcDbEntity
  8
RACCORDO
100
AcDbLine
 62
7
  6
CONTINUOUS
 10
49.288251026
 20
1.5848150975
 11
49.2876297847
 21
1.5273860415
  0
LINE
  5
672
100
AcDbEntity
  8
RACCORDO
100
AcDbLine
 62
7
  6
CONTINUOUS
 10
49.0897786028
 20
4.3099347606
 11
49.0875812293
 21
4.1167925714
  0
LINE
  5
673
100
AcDbEntity
  8
ASSI
100
AcDbLine
 62
7
  6
CONTINUOUS
 10
49.0897786028
 20
4.3099347606
 11
49.0875812293
 21
4.1167925714
  0
LINE
  5
674
100
AcDbEntity
  8
RACCORDO
100
AcDbLine
 62
7
  6
CONTINUOUS
 10
50.2009613532
 20
3.4036197467
 11
50.2042299449
 21
3.6629394995
  0
LINE
  5
675
100
AcDbEntity
  8
RACCORDO
100
AcDbLine
 62
7
  6
CONTINUOUS
 10
49.1046221361
 20
3.6009625941
 11
49.106593912
 21
3.7353789366
  0
LINE
  5
676
100
AcDbEntity
  8
ASSI
100
AcDbLine
 62
7
  6
CONTINUOUS
 10
49.1046221361
 20
3.6009625941
 11
49.106593912
 21
3.7353789366
  0
LWPOLYLINE
  5
677
100
AcDbEntity
  8
RACCORDO
100
AcDbPolyline
 62
7
  6
CONTINUOUS
 90
3
 70
0
 10
49.2876297847
 20
1.5273860415
 10
49.2867749282
 20
1.4727069397
 10
49.2862591407
 20
1.4463204829
  0
LINE
  5
678
100
AcDbEntity
  8
RACCORDO
100
AcDbLine
 62
253
  6
CONTINUOUS
 10
50.0948595708
 20
4.5494827785
 11
50.0891959567
 21
4.1645557305
  0
LINE
  5
679
100
AcDbEntity
  8
RACCORDO
100
AcDbLine
 62
253
  6
CONTINUOUS
 10
50.1948428721
 20
4.4773405006
 11
50.1891805973
 21
4.1055830248
  0
LINE
  5
67A
100
AcDbEntity
  8
RACCORDO
100
AcDbLine
 62
7
  6
CONTINUOUS
 10
50.2042299449
 20
3.6629394995
 11
50.2071582554
 21
3.8349464959
  0
LINE
  5
67B
100
AcDbEntity
  8
RACCORDO
100
AcDbLine
 62
7
  6
CONTINUOUS
 10
49.0954417438
 20
4.6431435223
 11
49.0897786028
 21
4.3099347606
  0
LINE
  5
67C
100
AcDbEntity
  8
ASSI
100
AcDbLine
 62
7
  6
CONTINUOUS
 10
49.0954417438
 20
4.6431435223
 11
49.0897786028
 21
4.3099347606
  0
LINE
  5
67D
100
AcDbEntity
  8
RACCORDO
100
AcDbLine
 62
7
  6
CONTINUOUS
 10
49.1092928976
 20
3.8731089211
 11
49.106593912
 21
3.7353789366
  0
LINE
  5
67E
100
AcDbEntity
  8
ASSI
100
AcDbLine
 62
7
  6
CONTINUOUS
 10
49.1092928976
 20
3.8731089211
 11
49.106593912
 21
3.7353789366
  0
LINE
  5
67F
100
AcDbEntity
  8
RACCORDO
100
AcDbLine
 62
253
  6
CONTINUOUS
 10
50.0993927562
 20
4.7790779462
 11
50.0948595708
 21
4.5494827785
  0
LINE
  5
680
100
AcDbEntity
  8
RACCORDO
100
AcDbLine
 62
253
  6
CONTINUOUS
 10
50.1993746933
 20
4.6991549712
 11
50.1948428721
 21
4.4773405006
  0
LINE
  5
681
100
AcDbEntity
  8
RACCORDO
100
AcDbLine
 62
7
  6
CONTINUOUS
 10
49.0997052864
 20
4.8354687573
 11
49.0954417438
 21
4.6431435223
  0
LINE
  5
682
100
AcDbEntity
  8
ASSI
100
AcDbLine
 62
7
  6
CONTINUOUS
 10
49.0997052864
 20
4.8354687573
 11
49.0954417438
 21
4.6431435223
  0
LINE
  5
683
100
AcDbEntity
  8
RACCORDO
100
AcDbLine
 62
7
  6
CONTINUOUS
 10
50.2071582554
 20
3.8349464959
 11
50.2104418395
 21
3.9843922413
  0
LINE
  5
684
100
AcDbEntity
  8
RACCORDO
100
AcDbLine
 62
253
  6
CONTINUOUS
 10
50.1027775475
 20
4.9180049499
 11
50.0993927562
 21
4.7790779462
  0
LINE
  5
685
100
AcDbEntity
  8
ASSI
100
AcDbLine
 62
7
  6
CONTINUOUS
 10
49.2862591407
 20
1.4463204829
 11
49.2813332762
 21
1.2428873709
  0
LINE
  5
686
100
AcDbEntity
  8
RACCORDO
100
AcDbLine
 62
7
  6
CONTINUOUS
 10
49.1122427085
 20
3.9926624849
 11
49.1092928976
 21
3.8731089211
  0
LINE
  5
687
100
AcDbEntity
  8
ASSI
100
AcDbLine
 62
7
  6
CONTINUOUS
 10
49.1122427085
 20
3.9926624849
 11
49.1092928976
 21
3.8731089211
  0
LINE
  5
688
100
AcDbEntity
  8
RACCORDO
100
AcDbLine
 62
253
  6
CONTINUOUS
 10
50.2027612657
 20
4.8334571342
 11
50.1993746933
 21
4.6991549712
  0
LINE
  5
689
100
AcDbEntity
  8
RACCORDO
100
AcDbLine
 62
7
  6
CONTINUOUS
 10
50.2104418395
 20
3.9843922413
 11
50.2128033137
 21
4.0703340986
  0
LINE
  5
68A
100
AcDbEntity
  8
RACCORDO
100
AcDbLine
 62
253
  6
CONTINUOUS
 10
50.106340847
 20
5.039749886
 11
50.1027775475
 21
4.9180049499
  0
LINE
  5
68B
100
AcDbEntity
  8
RACCORDO
100
AcDbLine
 62
7
  6
CONTINUOUS
 10
49.1143310825
 20
4.061541841
 11
49.1122427085
 21
3.9926624849
  0
LINE
  5
68C
100
AcDbEntity
  8
ASSI
100
AcDbLine
 62
7
  6
CONTINUOUS
 10
49.1143310825
 20
4.061541841
 11
49.1122427085
 21
3.9926624849
  0
LINE
  5
68D
100
AcDbEntity
  8
RACCORDO
100
AcDbLine
 62
253
  6
CONTINUOUS
 10
50.206327104
 20
4.951157765
 11
50.2027612657
 21
4.8334571342
  0
LWPOLYLINE
  5
68E
100
AcDbEntity
  8
ASSI
100
AcDbPolyline
 62
7
  6
CONTINUOUS
 90
13
 70
0
 10
49.2813332762
 20
1.2428873709
 10
49.2755472476
 20
1.0602358529
 10
49.2723298845
 20
0.9766541003
 10
49.2689439501
 20
0.8995441223
 10
49.2653878645
 20
0.8290233733
 10
49.2616632077
 20
0.7649743989
 10
49.2578176143
 20
0.7082230302
 10
49.2538499729
 20
0.658866522
 10
49.2497613949
 20
0.6168076195
 10
49.2456028496
 20
0.5825803894
 10
49.2413913266
 20
0.556362854
 10
49.2371098362
 20
0.537976991
 10
49.2327583785
 20
0.5274228005
  0
LWPOLYLINE
  5
68F
100
AcDbEntity
  8
RACCORDO
100
AcDbPolyline
 62
7
  6
CONTINUOUS
 90
12
 70
0
 10
50.2128033137
 20
4.0703340986
 10
50.2152830176
 20
4.1445534547
 10
50.2165604333
 20
4.1770890933
 10
50.2178608002
 20
4.2064957615
 10
50.2191839908
 20
4.2327898293
 10
50.2205229664
 20
4.2558306852
 10
50.2218777826
 20
4.2756009553
 10
50.2232483837
 20
4.2921180134
 10
50.2246275636
 20
4.3052933695
 10
50.2260129205
 20
4.3150975269
 10
50.2274068562
 20
4.3215599823
 10
50.2288093707
 20
4.3246807356
  0
LINE
  5
690
100
AcDbEntity
  8
RACCORDO
100
AcDbLine
 62
253
  6
CONTINUOUS
 10
50.1088887704
 20
5.1132552271
 11
50.106340847
 21
5.039749886
  0
LINE
  5
691
100
AcDbEntity
  8
RACCORDO
100
AcDbLine
 62
253
  6
CONTINUOUS
 10
50.2088748102
 20
5.0221432852
 11
50.206327104
 21
4.951157765
  0
LWPOLYLINE
  5
692
100
AcDbEntity
  8
RACCORDO
100
AcDbPolyline
 62
7
  6
CONTINUOUS
 90
10
 70
0
 10
49.2990074278
 20
0.2505918003
 10
49.2944772241
 20
0.1384676981
 10
49.2897575137
 20
0.0345924893
 10
49.2848482967
 20
-0.0610338262
 10
49.2797299882
 20
-0.1487114116
 10
49.274422173
 20
-0.2281401037
 10
49.2689836061
 20
-0.2984194119
 10
49.2634338725
 20
-0.3592491729
 10
49.2577533872
 20
-0.4109295499
 10
49.2519421503
 20
-0.4534605432
  0
LWPOLYLINE
  5
693
100
AcDbEntity
  8
RACCORDO
100
AcDbPolyline
 62
7
  6
CONTINUOUS
 90
7
 70
0
 10
49.11687838
 20
5.286588851
 10
49.1142575217
 20
5.2447168974
 10
49.1116905773
 20
5.1952680693
 10
49.1091775469
 20
5.1382423666
 10
49.1067106459
 20
5.0734112807
 10
49.1042976589
 20
5.0010033201
 10
49.0997052864
 20
4.8354687573
  0
LWPOLYLINE
  5
694
100
AcDbEntity
  8
ASSI
100
AcDbPolyline
 62
7
  6
CONTINUOUS
 90
7
 70
0
 10
49.11687838
 20
5.286588851
 10
49.1142575217
 20
5.2447168974
 10
49.1116905773
 20
5.1952680693
 10
49.1091775469
 20
5.1382423666
 10
49.1067106459
 20
5.0734112807
 10
49.1042976589
 20
5.0010033201
 10
49.0997052864
 20
4.8354687573
  0
LWPOLYLINE
  5
695
100
AcDbEntity
  8
RACCORDO
100
AcDbPolyline
 62
253
  6
CONTINUOUS
 90
7
 70
0
 10
50.1187135972
 20
5.3068283667
 10
50.1170376974
 20
5.2828643686
 10
50.1156192089
 20
5.2600025314
 10
50.1142259983
 20
5.2349004782
 10
50.1128601666
 20
5.2077075934
 10
50.1115196129
 20
5.1784583159
 10
50.1088887704
 20
5.1132552271
  0
LWPOLYLINE
  5
696
100
AcDbEntity
  8
RACCORDO
100
AcDbPolyline
 62
253
  6
CONTINUOUS
 90
7
 70
0
 10
50.2184663116
 20
5.2058268522
 10
50.217023382
 20
5.1858630793
 10
50.2156054648
 20
5.1638146738
 10
50.2142125601
 20
5.1396816355
 10
50.2128466414
 20
5.1134620519
 10
50.2115057351
 20
5.0851578355
 10
50.2088748102
 20
5.0221432852
  0
LINE
  5
697
100
AcDbEntity
  8
RACCORDO
100
AcDbLine
 62
253
  6
CONTINUOUS
 10
50.2313545717
 20
-0.3888690057
 11
50.2328688634
 21
-0.3715034989
  0
LWPOLYLINE
  5
698
100
AcDbEntity
  8
RACCORDO
100
AcDbPolyline
 62
253
  6
CONTINUOUS
 90
10
 70
0
 10
50.2198730758
 20
-0.3655300182
 10
50.2183493827
 20
-0.3828888597
 10
50.2138351568
 20
-0.3997204655
 10
50.2064675075
 20
-0.4155136137
 10
50.1964702105
 20
-0.4297886231
 10
50.1841469112
 20
-0.4421119225
 10
50.1698719018
 20
-0.4521092195
 10
50.1540787535
 20
-0.4594768688
 10
50.1372471477
 20
-0.4639910947
 10
50.1198883063
 20
-0.4655147877
  0
LWPOLYLINE
  5
699
100
AcDbEntity
  8
RACCORDO
100
AcDbPolyline
 62
253
  6
CONTINUOUS
 90
10
 70
0
 10
50.2184663116
 20
-0.3558866226
 10
50.2168882129
 20
-0.3727891869
 10
50.2123346401
 20
-0.3891806214
 10
50.2049432774
 20
-0.4045653066
 10
50.1949376138
 20
-0.418478063
 10
50.1826201857
 20
-0.4304982177
 10
50.168363429
 20
-0.4402623229
 10
50.1525984184
 20
-0.4474751463
 10
50.1358018327
 20
-0.4519185972
 10
50.1184815421
 20
-0.4534583213
  0
LWPOLYLINE
  5
69A
100
AcDbEntity
  8
RACCORDO
100
AcDbPolyline
 62
7
  6
CONTINUOUS
 90
10
 70
0
 10
49.2519421503
 20
-0.4534605432
 10
49.2515560991
 20
-0.4558098431
 10
49.2511686878
 20
-0.457907177
 10
49.2507799165
 20
-0.4597525449
 10
49.2503895834
 20
-0.4613466386
 10
49.2499978903
 20
-0.4626887664
 10
49.2496054417
 20
-0.4637768527
 10
49.2492124393
 20
-0.4646102058
 10
49.2488186814
 20
-0.4651895175
 10
49.248424168
 20
-0.4655147877
  0
LWPOLYLINE
  5
69B
100
AcDbEntity
  8
RACCORDO
100
AcDbPolyline
 62
253
  6
CONTINUOUS
 90
10
 70
0
 10
50.1891805991
 20
0.7443545621
 10
50.1874461207
 20
0.7342047716
 10
50.1827796013
 20
0.7243578528
 10
50.1753202826
 20
0.715107666
 10
50.1652766357
 20
0.7067203866
 10
50.1529567904
 20
0.6994590222
 10
50.138786005
 20
0.6935603756
 10
50.1232245216
 20
0.6891881024
 10
50.1067269697
 20
0.6864447436
 10
50.0897832093
 20
0.6853915494
  0
LWPOLYLINE
  5
69C
100
AcDbEntity
  8
RACCORDO
100
AcDbPolyline
 62
7
  6
CONTINUOUS
 90
3
 70
0
 10
50.2284563989
 20
-0.4010897775
 10
50.2322186293
 20
-0.3837617214
 10
50.2330045888
 20
-0.371234305
  0
LINE
  5
69D
100
AcDbEntity
  8
RACCORDO
100
AcDbLine
 62
253
  6
CONTINUOUS
 10
50.2268471466
 20
-0.405706666
 11
50.2313545717
 21
-0.3888690057
  0
LINE
  5
69E
100
AcDbEntity
  8
RACCORDO
100
AcDbLine
 62
253
  6
CONTINUOUS
 10
50.2194835972
 20
-0.4215046782
 11
50.2268471466
 21
-0.405706666
  0
LINE
  5
69F
100
AcDbEntity
  8
RACCORDO
100
AcDbLine
 62
253
  6
CONTINUOUS
 10
50.2330211515
 20
-0.3712300851
 11
50.2328688634
 21
-0.3715034989
  0
LINE
  5
6A0
100
AcDbEntity
  8
RACCORDO
100
AcDbLine
 62
253
  6
CONTINUOUS
 10
50.216978699
 20
-0.4250826979
 11
50.2194835972
 21
-0.4215046782
  0
LWPOLYLINE
  5
6A1
100
AcDbEntity
  8
RACCORDO
100
AcDbPolyline
 62
7
  6
CONTINUOUS
 90
3
 70
0
 10
50.2207474629
 20
5.2692269555
 10
50.2115032409
 20
5.2832375898
 10
50.2033434388
 20
5.2923955693
  0
LINE
  5
6A2
100
AcDbEntity
  8
RACCORDO
100
AcDbLine
 62
253
  6
CONTINUOUS
 10
50.2328688634
 20
5.2214437285
 11
50.2330211631
 21
5.2211688933
  0
LINE
  5
6A3
100
AcDbEntity
  8
RACCORDO
100
AcDbLine
 62
253
  6
CONTINUOUS
 10
50.2194827237
 20
5.2714464212
 11
50.2268466926
 21
5.2556481438
  0
LWPOLYLINE
  5
6A4
100
AcDbEntity
  8
ASSI
100
AcDbPolyline
 62
7
  6
CONTINUOUS
 90
12
 70
0
 10
49.2327583785
 20
4.3225174292
 10
49.2371098316
 20
4.311963263
 10
49.2413913184
 20
4.2935774258
 10
49.2456028388
 20
4.2673599176
 10
49.2497613828
 20
4.2331327196
 10
49.2538499603
 20
4.1910738505
 10
49.257817602
 20
4.1417173671
 10
49.2616631962
 20
4.0849660116
 10
49.2653878545
 20
4.0209170417
 10
49.2689439416
 20
3.9503962872
 10
49.2723298777
 20
3.8732862912
 10
49.2755472427
 20
3.7897045105
  0
LINE
  5
6A5
100
AcDbEntity
  8
RACCORDO
100
AcDbLine
 62
253
  6
CONTINUOUS
 10
50.2268466926
 20
5.2556481438
 11
50.2313544424
 21
5.2388099697
  0
LWPOLYLINE
  5
6A6
100
AcDbEntity
  8
RACCORDO
100
AcDbPolyline
 62
7
  6
CONTINUOUS
 90
10
 70
0
 10
49.2519421503
 20
5.3034007728
 10
49.2577534247
 20
5.2608693405
 10
49.2634339332
 20
5.2091886869
 10
49.2689836757
 20
5.1483588121
 10
49.2744222307
 20
5.078079623
 10
49.2797300197
 20
4.9986512126
 10
49.2848483074
 20
4.9109738601
 10
49.2897575155
 20
4.8153476586
 10
49.2944772223
 20
4.711472515
 10
49.2990074278
 20
4.5993484293
  0
LWPOLYLINE
  5
6A7
100
AcDbEntity
  8
RACCORDO
100
AcDbPolyline
 62
253
  6
CONTINUOUS
 90
15
 70
0
 10
-27.999877869
 20
0.0448415823
 10
-27.9484823211
 20
0.0533912154
 10
-27.8982502546
 20
0.0672361818
 10
-27.8497199482
 20
0.0862303668
 10
-27.8034235371
 20
0.1101684286
 10
-27.7598788426
 20
0.1387832285
 10
-27.719559339
 20
0.1717588454
 10
-27.6828950988
 20
0.2087379732
 10
-27.6502838866
 20
0.2493168335
 10
-27.6220777169
 20
0.2930508347
 10
-27.5985760482
 20
0.3394672621
 10
-27.5800287144
 20
0.3880708822
 10
-27.566635568
 20
0.4383384707
 10
-27.5585415277
 20
0.4897230957
 10
-27.5558336046
 20
0.5416685555
  0
LWPOLYLINE
  5
6A8
100
AcDbEntity
  8
ASSI
100
AcDbPolyline
 62
253
  6
CONTINUOUS
 90
15
 70
0
 10
-27.999877869
 20
0.0448415823
 10
-27.9484823211
 20
0.0533912154
 10
-27.8982502546
 20
0.0672361818
 10
-27.8497199482
 20
0.0862303668
 10
-27.8034235371
 20
0.1101684286
 10
-27.7598788426
 20
0.1387832285
 10
-27.719559339
 20
0.1717588454
 10
-27.6828950988
 20
0.2087379732
 10
-27.6502838866
 20
0.2493168335
 10
-27.6220777169
 20
0.2930508347
 10
-27.5985760482
 20
0.3394672621
 10
-27.5800287144
 20
0.3880708822
 10
-27.566635568
 20
0.4383384707
 10
-27.5585415277
 20
0.4897230957
 10
-27.5558336046
 20
0.5416685555
  0
LINE
  5
6A9
100
AcDbEntity
  8
RACCORDO
100
AcDbLine
 62
7
  6
CONTINUOUS
 10
-29.9664184752
 20
-1.2950298852
 11
-25.3559470314
 21
-1.2145538068
  0
LINE
  5
6AA
100
AcDbEntity
  8
RACCORDO
100
AcDbLine
 62
7
  6
CONTINUOUS
 10
-25.2120552075
 20
-1.2835391855
 11
-29.9664184752
 21
-1.3250298852
  0
LINE
  5
6AB
100
AcDbEntity
  8
ASSI
100
AcDbLine
 62
7
  6
CONTINUOUS
 10
-25.2120552075
 20
-1.2835391855
 11
-29.9664184752
 21
-1.3250298852
  0
LINE
  5
6AC
100
AcDbEntity
  8
RACCORDO
100
AcDbLine
 62
7
  6
CONTINUOUS
 10
-29.9664184752
 20
-1.3250298852
 11
-30.9664184752
 21
-1.3163030174
  0
LINE
  5
6AD
100
AcDbEntity
  8
ASSI
100
AcDbLine
 62
7
  6
CONTINUOUS
 10
-29.9664184752
 20
-1.3250298852
 11
-30.9664184752
 21
-1.3163030174
  0
LINE
  5
6AE
100
AcDbEntity
  8
DRAFT
100
AcDbLine
 62
7
  6
CONTINUOUS
 10
-28.4664184752
 20
-1.3774110394
 11
-29.9664184752
 21
-1.3250298852
  0
LINE
  5
6AF
100
AcDbEntity
  8
RACCORDO
100
AcDbLine
 62
7
  6
CONTINUOUS
 10
-29.9664184752
 20
-1.3250298852
 11
-31.7338682236
 21
-1.2633091799
  0
LWPOLYLINE
  5
6B0
100
AcDbEntity
  8
RACCORDO
100
AcDbPolyline
 62
253
  6
CONTINUOUS
 90
16
 70
0
 10
-28.050135439
 20
0.2416704182
 10
-28.0184301758
 20
0.2436866569
 10
-27.987707407
 20
0.2487832859
 10
-27.9579671325
 20
0.2569603052
 10
-27.9288935702
 20
0.2683748591
 10
-27.9008025022
 20
0.2828698034
 10
-27.8746412753
 20
0.2999737052
 10
-27.8504895478
 20
0.3197701738
 10
-27.8282676614
 20
0.3421755999
 10
-27.8086839884
 20
0.3664677232
 10
-27.7918239917
 20
0.3927290502
 10
-27.7776022084
 20
0.4208770745
 10
-27.7664706222
 20
0.4499420151
 10
-27.7585798944
 20
0.4796006121
 10
-27.7537793638
 20
0.5101761256
 10
-27.7520690303
 20
0.5416685555
  0
LWPOLYLINE
  5
6B1
100
AcDbEntity
  8
ASSI
100
AcDbPolyline
 62
253
  6
CONTINUOUS
 90
16
 70
0
 10
-28.050135439
 20
0.2416704182
 10
-28.0184301758
 20
0.2436866569
 10
-27.987707407
 20
0.2487832859
 10
-27.9579671325
 20
0.2569603052
 10
-27.9288935702
 20
0.2683748591
 10
-27.9008025022
 20
0.2828698034
 10
-27.8746412753
 20
0.2999737052
 10
-27.8504895478
 20
0.3197701738
 10
-27.8282676614
 20
0.3421755999
 10
-27.8086839884
 20
0.3664677232
 10
-27.7918239917
 20
0.3927290502
 10
-27.7776022084
 20
0.4208770745
 10
-27.7664706222
 20
0.4499420151
 10
-27.7585798944
 20
0.4796006121
 10
-27.7537793638
 20
0.5101761256
 10
-27.7520690303
 20
0.5416685555
  0
LINE
  5
6B2
100
AcDbEntity
  8
RACCORDO
100
AcDbLine
 62
253
  6
CONTINUOUS
 10
-28.0518806131
 20
0.0416780336
 11
-27.999877869
 21
0.0448415823
  0
LINE
  5
6B3
100
AcDbEntity
  8
ASSI
100
AcDbLine
 62
253
  6
CONTINUOUS
 10
-28.0518806131
 20
0.0416780336
 11
-27.999877869
 21
0.0448415823
  0
LINE
  5
6B4
100
AcDbEntity
  8
RACCORDO
100
AcDbLine
 62
7
  6
CONTINUOUS
 10
-27.7981008906
 20
-0.042412624
 11
-32.2164184752
 21
-0.2739668368
  0
LINE
  5
6B5
100
AcDbEntity
  8
RACCORDO
100
AcDbLine
 62
253
  6
CONTINUOUS
 10
-29.9664184752
 20
-0.6951212681
 11
-25.3559470314
 21
-0.6146451897
  0
LINE
  5
6B6
100
AcDbEntity
  8
RACCORDO
100
AcDbLine
 62
253
  6
CONTINUOUS
 10
-24.7164184752
 20
-0.783558224
 11
-24.791299643
 21
-0.7835581992
  0
LINE
  5
6B7
100
AcDbEntity
  8
ASSI
100
AcDbLine
 62
253
  6
CONTINUOUS
 10
-24.7164184752
 20
-0.783558224
 11
-24.791299643
 21
-0.7835581992
  0
LINE
  5
6B8
100
AcDbEntity
  8
RACCORDO
100
AcDbLine
 62
253
  6
CONTINUOUS
 10
-32.2164184752
 20
-0.6636746837
 11
-31.7338682236
 21
-0.6636746837
  0
LINE
  5
6B9
100
AcDbEntity
  8
RACCORDO
100
AcDbLine
 62
253
  6
CONTINUOUS
 10
-25.3559470314
 20
-0.6146451897
 11
-24.7664184752
 21
-0.6146451897
  0
LINE
  5
6BA
100
AcDbEntity
  8
RACCORDO
100
AcDbLine
 62
253
  6
CONTINUOUS
 10
-29.9664184752
 20
-0.725395389
 11
-31.7338682236
 21
-0.6636746837
  0
LINE
  5
6BB
100
AcDbEntity
  8
RACCORDO
100
AcDbLine
 62
7
  6
CONTINUOUS
 10
-27.9989522133
 20
0.0421399328
 11
-29.9664184752
 21
0.0249701148
  0
LINE
  5
6BC
100
AcDbEntity
  8
ASSI
100
AcDbLine
 62
7
  6
CONTINUOUS
 10
-27.9989522133
 20
0.0421399328
 11
-29.9664184752
 21
0.0249701148
  0
LINE
  5
6BD
100
AcDbEntity
  8
RACCORDO
100
AcDbLine
 62
253
  6
CONTINUOUS
 10
-28.5947226783
 20
0.2369178774
 11
-28.050135439
 21
0.2416704182
  0
LINE
  5
6BE
100
AcDbEntity
  8
ASSI
100
AcDbLine
 62
253
  6
CONTINUOUS
 10
-28.5947226783
 20
0.2369178774
 11
-28.050135439
 21
0.2416704182
  0
LINE
  5
6BF
100
AcDbEntity
  8
RACCORDO
100
AcDbLine
 62
253
  6
CONTINUOUS
 10
-27.5558336046
 20
0.5416685555
 11
-27.5024022081
 21
0.5421348442
  0
LINE
  5
6C0
100
AcDbEntity
  8
ASSI
100
AcDbLine
 62
253
  6
CONTINUOUS
 10
-27.5558336046
 20
0.5416685555
 11
-27.5024022081
 21
0.5421348442
  0
LINE
  5
6C1
100
AcDbEntity
  8
RACCORDO
100
AcDbLine
 62
253
  6
CONTINUOUS
 10
-27.7520690303
 20
0.5416685555
 11
-27.5558336046
 21
0.5416685555
  0
LINE
  5
6C2
100
AcDbEntity
  8
ASSI
100
AcDbLine
 62
253
  6
CONTINUOUS
 10
-27.7520690303
 20
0.5416685555
 11
-27.5558336046
 21
0.5416685555
  0
LINE
  5
6C3
100
AcDbEntity
  8
RACCORDO
100
AcDbLine
 62
7
  6
CONTINUOUS
 10
-29.9664184752
 20
0.0249701148
 11
-30.395455833
 21
0.0287142671
  0
LINE
  5
6C4
100
AcDbEntity
  8
ASSI
100
AcDbLine
 62
7
  6
CONTINUOUS
 10
-29.9664184752
 20
0.0249701148
 11
-30.395455833
 21
0.0287142671
  0
LINE
  5
6C5
100
AcDbEntity
  8
DRAFT
100
AcDbLine
 62
7
  6
CONTINUOUS
 10
-31.1454821117
 20
-0.1044492529
 11
-31.2164184752
 21
-0.103211054
  0
LINE
  5
6C6
100
AcDbEntity
  8
RACCORDO
100
AcDbLine
 62
253
  6
CONTINUOUS
 10
-32.2164184752
 20
0.9783545098
 11
-32.412927994
 21
0.9783545098
  0
LINE
  5
6C7
100
AcDbEntity
  8
RACCORDO
100
AcDbLine
 62
253
  6
CONTINUOUS
 10
-32.9216541972
 20
0.9872343587
 11
-33.2164184752
 21
0.9872343587
  0
LINE
  5
6C8
100
AcDbEntity
  8
RACCORDO
100
AcDbLine
 62
7
  6
CONTINUOUS
 10
-32.9216541972
 20
0.6872800501
 11
-32.412927994
 21
0.6784002012
  0
LINE
  5
6C9
100
AcDbEntity
  8
RACCORDO
100
AcDbLine
 62
7
  6
CONTINUOUS
 10
-27.5024022081
 20
0.7081431483
 11
-28.2296868052
 21
0.7208379481
  0
LINE
  5
6CA
100
AcDbEntity
  8
ASSI
100
AcDbLine
 62
7
  6
CONTINUOUS
 10
-27.5024022081
 20
0.7081431483
 11
-28.2296868052
 21
0.7208379481
  0
LINE
  5
6CB
100
AcDbEntity
  8
RACCORDO
100
AcDbLine
 62
253
  6
CONTINUOUS
 10
-32.9216541972
 20
0.9872343587
 11
-32.412927994
 21
0.9782768796
  0
LINE
  5
6CC
100
AcDbEntity
  8
RACCORDO
100
AcDbLine
 62
7
  6
CONTINUOUS
 10
-30.0833125809
 20
2.2204448951
 11
-29.2698821604
 21
2.263074977
  0
LINE
  5
6CD
100
AcDbEntity
  8
RACCORDO
100
AcDbLine
 62
7
  6
CONTINUOUS
 10
-30.5086708422
 20
3.1117874164
 11
-30.338189966
 21
3.1028528923
  0
LINE
  5
6CE
100
AcDbEntity
  8
RACCORDO
100
AcDbLine
 62
7
  6
CONTINUOUS
 10
-29.0311220075
 20
3.0343523632
 11
-28.8630523842
 21
3.0255442075
  0
LWPOLYLINE
  5
6CF
100
AcDbEntity
  8
RACCORDO
100
AcDbPolyline
 62
253
  6
CONTINUOUS
 90
10
 70
0
 10
-31.7338682236
 20
-1.2633091799
 10
-31.735317482
 20
-1.2609774944
 10
-31.7366265311
 20
-1.2541059111
 10
-31.7377834459
 20
-1.2427467525
 10
-31.7387764647
 20
-1.226986487
 10
-31.7395977813
 20
-1.2069449128
 10
-31.740243612
 20
-1.1827742195
 10
-31.7407086878
 20
-1.1546580966
 10
-31.7409881487
 20
-1.1228102474
 10
-31.7410812858
 20
-1.0874725643
  0
LINE
  5
6D0
100
AcDbEntity
  8
RACCORDO
100
AcDbLine
 62
7
  6
CONTINUOUS
 10
-33.2164184752
 20
0.9872343587
 11
-33.2164184752
 21
3.8627058709
  0
LINE
  5
6D1
100
AcDbEntity
  8
RACCORDO
100
AcDbLine
 62
253
  6
CONTINUOUS
 10
-32.9216541972
 20
3.8627058709
 11
-32.412927994
 21
3.8715780965
  0
LINE
  5
6D2
100
AcDbEntity
  8
RACCORDO
100
AcDbLine
 62
7
  6
CONTINUOUS
 10
-27.5024022081
 20
4.1417970813
 11
-28.2296868052
 21
4.1291022815
  0
LINE
  5
6D3
100
AcDbEntity
  8
ASSI
100
AcDbLine
 62
7
  6
CONTINUOUS
 10
-27.5024022081
 20
4.1417970813
 11
-28.2296868052
 21
4.1291022815
  0
LINE
  5
6D4
100
AcDbEntity
  8
RACCORDO
100
AcDbLine
 62
7
  6
CONTINUOUS
 10
-32.9216541972
 20
4.1626601795
 11
-32.412927994
 21
4.1715400284
  0
LINE
  5
6D5
100
AcDbEntity
  8
DRAFT
100
AcDbLine
 62
7
  6
CONTINUOUS
 10
-29.284893318
 20
4.2368661807
 11
-29.7253196082
 21
4.2291785112
  0
LINE
  5
6D6
100
AcDbEntity
  8
RACCORDO
100
AcDbLine
 62
253
  6
CONTINUOUS
 10
-33.2164184752
 20
3.8627058709
 11
-32.9216541972
 21
3.8627058709
  0
LINE
  5
6D7
100
AcDbEntity
  8
RACCORDO
100
AcDbLine
 62
253
  6
CONTINUOUS
 10
-32.2164184752
 20
3.8715857199
 11
-32.412927994
 21
3.8715857199
  0
LWPOLYLINE
  5
6D8
100
AcDbEntity
  8
RACCORDO
100
AcDbPolyline
 62
253
  6
CONTINUOUS
 90
7
 70
0
 10
-32.9216541972
 20
0.6872800501
 10
-32.9222949525
 20
0.6898786999
 10
-32.9228344945
 20
0.6976088246
 10
-32.9232634214
 20
0.7103413672
 10
-32.9235742599
 20
0.7278631301
 10
-32.9237614744
 20
0.7498740127
 10
-32.9238217218
 20
0.7759866636
  0
LINE
  5
6D9
100
AcDbEntity
  8
RACCORDO
100
AcDbLine
 62
253
  6
CONTINUOUS
 10
-32.9216541972
 20
3.8627058709
 11
-32.9228344945
 21
3.9406538325
  0
LINE
  5
6DA
100
AcDbEntity
  8
RACCORDO
100
AcDbLine
 62
253
  6
CONTINUOUS
 10
-32.9228344945
 20
3.9406538325
 11
-32.9235742599
 21
4.0132892715
  0
LWPOLYLINE
  5
6DB
100
AcDbEntity
  8
RACCORDO
100
AcDbPolyline
 62
253
  6
CONTINUOUS
 90
8
 70
0
 10
-32.9235742599
 20
4.0132892715
 10
-32.9238217218
 20
4.0755898846
 10
-32.9237537227
 20
4.1015208253
 10
-32.9235584349
 20
4.1233051952
 10
-32.9232417545
 20
4.1404687331
 10
-32.9228125574
 20
4.1527874416
 10
-32.9222797374
 20
4.1601926722
 10
-32.9216541972
 20
4.1626601795
  0
LINE
  5
6DC
100
AcDbEntity
  8
RACCORDO
100
AcDbLine
 62
253
  6
CONTINUOUS
 10
-32.9216541972
 20
0.9872343587
 11
-32.9216541972
 21
3.8627058709
  0
LINE
  5
6DD
100
AcDbEntity
  8
RACCORDO
100
AcDbLine
 62
253
  6
CONTINUOUS
 10
-32.9238217218
 20
0.7759866636
 11
-32.9235584349
 21
0.8387856699
  0
LINE
  5
6DE
100
AcDbEntity
  8
RACCORDO
100
AcDbLine
 62
253
  6
CONTINUOUS
 10
-32.9235584349
 20
0.8387856699
 11
-32.9228125574
 21
0.9109992088
  0
LINE
  5
6DF
100
AcDbEntity
  8
RACCORDO
100
AcDbLine
 62
253
  6
CONTINUOUS
 10
-32.9228125574
 20
0.9109992088
 11
-32.9216541972
 21
0.9872343587
  0
LINE
  5
6E0
100
AcDbEntity
  8
DRAFT
100
AcDbLine
 62
7
  6
CONTINUOUS
 10
-31.1454821117
 20
4.9543894825
 11
-31.2164184752
 21
4.9531512836
  0
LINE
  5
6E1
100
AcDbEntity
  8
RACCORDO
100
AcDbLine
 62
7
  6
CONTINUOUS
 10
-29.9664184752
 20
4.8249701148
 11
-30.395455833
 21
4.8212259625
  0
LINE
  5
6E2
100
AcDbEntity
  8
ASSI
100
AcDbLine
 62
7
  6
CONTINUOUS
 10
-29.9664184752
 20
4.8249701148
 11
-30.395455833
 21
4.8212259625
  0
LINE
  5
6E3
100
AcDbEntity
  8
RACCORDO
100
AcDbLine
 62
253
  6
CONTINUOUS
 10
-27.7520690303
 20
4.3082716741
 11
-27.5558336046
 21
4.3082716839
  0
LINE
  5
6E4
100
AcDbEntity
  8
ASSI
100
AcDbLine
 62
253
  6
CONTINUOUS
 10
-27.7520690303
 20
4.3082716741
 11
-27.5558336046
 21
4.3082716839
  0
LINE
  5
6E5
100
AcDbEntity
  8
RACCORDO
100
AcDbLine
 62
253
  6
CONTINUOUS
 10
-27.5558336046
 20
4.3082716741
 11
-27.5024022081
 21
4.3078053854
  0
LINE
  5
6E6
100
AcDbEntity
  8
ASSI
100
AcDbLine
 62
253
  6
CONTINUOUS
 10
-27.5558336046
 20
4.3082716741
 11
-27.5024022081
 21
4.3078053854
  0
LINE
  5
6E7
100
AcDbEntity
  8
RACCORDO
100
AcDbLine
 62
253
  6
CONTINUOUS
 10
-28.050135439
 20
4.6082698114
 11
-28.5947226783
 21
4.6130223522
  0
LINE
  5
6E8
100
AcDbEntity
  8
ASSI
100
AcDbLine
 62
253
  6
CONTINUOUS
 10
-28.050135439
 20
4.6082698114
 11
-28.5947226783
 21
4.6130223522
  0
LINE
  5
6E9
100
AcDbEntity
  8
RACCORDO
100
AcDbLine
 62
7
  6
CONTINUOUS
 10
-27.9989522133
 20
4.8078002969
 11
-29.9664184752
 21
4.8249701148
  0
LINE
  5
6EA
100
AcDbEntity
  8
ASSI
100
AcDbLine
 62
7
  6
CONTINUOUS
 10
-27.9989522133
 20
4.8078002969
 11
-29.9664184752
 21
4.8249701148
  0
LWPOLYLINE
  5
6EB
100
AcDbEntity
  8
DRAFT
100
AcDbPolyline
 62
7
  6
CONTINUOUS
 90
10
 70
0
 10
-30.0654112946
 20
2.2305710206
 10
-30.0871611618
 20
2.2439484445
 10
-30.1090302156
 20
2.2571948615
 10
-30.1310184559
 20
2.2703102716
 10
-30.1531266063
 20
2.2832895845
 10
-30.1753539433
 20
2.2961378906
 10
-30.1976982963
 20
2.3088704605
 10
-30.2201589419
 20
2.3214923844
 10
-30.2427366036
 20
2.3339985723
 10
-30.2654312813
 20
2.3463890239
  0
LWPOLYLINE
  5
6EC
100
AcDbEntity
  8
ASSI
100
AcDbPolyline
 62
7
  6
CONTINUOUS
 90
10
 70
0
 10
-30.0654112946
 20
2.2305710206
 10
-30.0871611618
 20
2.2439484445
 10
-30.1090302156
 20
2.2571948615
 10
-30.1310184559
 20
2.2703102716
 10
-30.1531266063
 20
2.2832895845
 10
-30.1753539433
 20
2.2961378906
 10
-30.1976982963
 20
2.3088704605
 10
-30.2201589419
 20
2.3214923844
 10
-30.2427366036
 20
2.3339985723
 10
-30.2654312813
 20
2.3463890239
  0
LWPOLYLINE
  5
6ED
100
AcDbEntity
  8
RACCORDO
100
AcDbPolyline
 62
253
  6
CONTINUOUS
 90
6
 70
0
 10
-32.411780691
 20
4.1434344928
 10
-32.4119474106
 20
4.1534609808
 10
-32.4121438108
 20
4.1613323409
 10
-32.4123691858
 20
4.166990758
 10
-32.4126293649
 20
4.170400617
 10
-32.4129274104
 20
4.1715400285
  0
LINE
  5
6EE
100
AcDbEntity
  8
RACCORDO
100
AcDbLine
 62
253
  6
CONTINUOUS
 10
-32.4119474106
 20
0.8757179569
 11
-32.4129274104
 21
0.9782768694
  0
LINE
  5
6EF
100
AcDbEntity
  8
RACCORDO
100
AcDbLine
 62
253
  6
CONTINUOUS
 10
-32.4115594709
 20
4.1172843993
 11
-32.411780691
 21
4.1434344928
  0
LINE
  5
6F0
100
AcDbEntity
  8
RACCORDO
100
AcDbLine
 62
253
  6
CONTINUOUS
 10
-32.4115026806
 20
0.7854869992
 11
-32.4119474106
 21
0.8757179569
  0
LINE
  5
6F1
100
AcDbEntity
  8
RACCORDO
100
AcDbLine
 62
253
  6
CONTINUOUS
 10
-32.4114831351
 20
4.0837070564
 11
-32.4115594709
 21
4.1172843993
  0
LINE
  5
6F2
100
AcDbEntity
  8
RACCORDO
100
AcDbLine
 62
253
  6
CONTINUOUS
 10
-32.412927994
 20
0.9782768796
 11
-32.412927994
 21
3.8715780965
  0
LINE
  5
6F3
100
AcDbEntity
  8
DRAFT
100
AcDbLine
 62
7
  6
CONTINUOUS
 10
-32.2164184752
 20
5.1239070664
 11
-32.2164184752
 21
-0.2739668368
  0
LINE
  5
6F4
100
AcDbEntity
  8
RACCORDO
100
AcDbLine
 62
7
  6
CONTINUOUS
 10
-32.2164184752
 20
-0.7636137664
 11
-32.2164184752
 21
-0.2739668368
  0
LINE
  5
6F5
100
AcDbEntity
  8
RACCORDO
100
AcDbLine
 62
7
  6
CONTINUOUS
 10
-32.2164184752
 20
5.1239070664
 11
-32.2164184752
 21
5.613553996
  0
LINE
  5
6F6
100
AcDbEntity
  8
RACCORDO
100
AcDbLine
 62
253
  6
CONTINUOUS
 10
-32.4115025533
 20
0.7485523078
 11
-32.4115026806
 21
0.7854869992
  0
LINE
  5
6F7
100
AcDbEntity
  8
RACCORDO
100
AcDbLine
 62
253
  6
CONTINUOUS
 10
-32.4116507397
 20
4.0216288785
 11
-32.4114831351
 21
4.0837070564
  0
LINE
  5
6F8
100
AcDbEntity
  8
RACCORDO
100
AcDbLine
 62
253
  6
CONTINUOUS
 10
-32.412369629
 20
3.9236986407
 11
-32.4116507397
 21
4.0216288785
  0
LINE
  5
6F9
100
AcDbEntity
  8
RACCORDO
100
AcDbLine
 62
253
  6
CONTINUOUS
 10
-32.4129280512
 20
3.8715780955
 11
-32.412369629
 21
3.9236986407
  0
LWPOLYLINE
  5
6FA
100
AcDbEntity
  8
RACCORDO
100
AcDbPolyline
 62
253
  6
CONTINUOUS
 90
8
 70
0
 10
-32.4129280512
 20
0.6784002023
 10
-32.4126299928
 20
0.6795365646
 10
-32.412369629
 20
0.6829492071
 10
-32.412143971
 20
0.6886118458
 10
-32.4119472589
 20
0.6964819026
 10
-32.4117803406
 20
0.7064987944
 10
-32.4116507397
 20
0.7185823362
 10
-32.4115025533
 20
0.7485523078
  0
LWPOLYLINE
  5
6FB
100
AcDbEntity
  8
DRAFT
100
AcDbPolyline
 62
7
  6
CONTINUOUS
 90
10
 70
0
 10
-30.0654112946
 20
2.6193692091
 10
-30.0871611618
 20
2.6059917851
 10
-30.1090302156
 20
2.5927453681
 10
-30.1310184559
 20
2.579629958
 10
-30.1531266063
 20
2.5666506451
 10
-30.1753539433
 20
2.553802339
 10
-30.1976982963
 20
2.5410697691
 10
-30.2201589419
 20
2.5284478452
 10
-30.2427366036
 20
2.5159416574
 10
-30.2654312813
 20
2.5035512057
  0
LWPOLYLINE
  5
6FC
100
AcDbEntity
  8
ASSI
100
AcDbPolyline
 62
7
  6
CONTINUOUS
 90
10
 70
0
 10
-30.0654112946
 20
2.6193692091
 10
-30.0871611618
 20
2.6059917851
 10
-30.1090302156
 20
2.5927453681
 10
-30.1310184559
 20
2.579629958
 10
-30.1531266063
 20
2.5666506451
 10
-30.1753539433
 20
2.553802339
 10
-30.1976982963
 20
2.5410697691
 10
-30.2201589419
 20
2.5284478452
 10
-30.2427366036
 20
2.5159416574
 10
-30.2654312813
 20
2.5035512057
  0
LINE
  5
6FD
100
AcDbEntity
  8
RACCORDO
100
AcDbLine
 62
253
  6
CONTINUOUS
 10
-31.7338682236
 20
5.5136149133
 11
-29.9664184752
 21
5.5753356186
  0
LINE
  5
6FE
100
AcDbEntity
  8
RACCORDO
100
AcDbLine
 62
253
  6
CONTINUOUS
 10
-25.3559470314
 20
5.4645854193
 11
-24.7664184752
 21
5.4645854136
  0
LINE
  5
6FF
100
AcDbEntity
  8
RACCORDO
100
AcDbLine
 62
253
  6
CONTINUOUS
 10
-32.2164184752
 20
5.5136149133
 11
-31.7338682237
 21
5.5136149167
  0
LINE
  5
700
100
AcDbEntity
  8
RACCORDO
100
AcDbLine
 62
253
  6
CONTINUOUS
 10
-24.7164184752
 20
5.6334984536
 11
-24.7912996495
 21
5.6334984536
  0
LINE
  5
701
100
AcDbEntity
  8
ASSI
100
AcDbLine
 62
253
  6
CONTINUOUS
 10
-24.7164184752
 20
5.6334984536
 11
-24.7912996495
 21
5.6334984536
  0
LINE
  5
702
100
AcDbEntity
  8
RACCORDO
100
AcDbLine
 62
253
  6
CONTINUOUS
 10
-25.3559470314
 20
5.4645854193
 11
-29.9664184752
 21
5.5450614977
  0
LINE
  5
703
100
AcDbEntity
  8
RACCORDO
100
AcDbLine
 62
7
  6
CONTINUOUS
 10
-27.7981008906
 20
4.8923528536
 11
-32.2164184752
 21
5.1239070664
  0
LINE
  5
704
100
AcDbEntity
  8
RACCORDO
100
AcDbLine
 62
7
  6
CONTINUOUS
 10
-27.9998605548
 20
4.8050966837
 11
-28.0518806131
 21
4.808262196
  0
LINE
  5
705
100
AcDbEntity
  8
ASSI
100
AcDbLine
 62
7
  6
CONTINUOUS
 10
-27.9998605548
 20
4.8050966837
 11
-28.0518806131
 21
4.808262196
  0
LINE
  5
706
100
AcDbEntity
  8
0
100
AcDbLine
 62
7
  6
CONTINUOUS
 10
-28.7971782355
 20
3.6488811364
 11
-28.9709098036
 21
3.6954323698
  0
LWPOLYLINE
  5
707
100
AcDbEntity
  8
DRAFT
100
AcDbPolyline
 62
7
  6
CONTINUOUS
 90
10
 70
0
 10
-29.0676799572
 20
2.5037000577
 10
-29.0904117213
 20
2.5161127302
 10
-29.1130298429
 20
2.5286439165
 10
-29.135534322
 20
2.5412936167
 10
-29.1579258895
 20
2.5540565946
 10
-29.1802038146
 20
2.5669380865
 10
-29.2023659046
 20
2.579953801
 10
-29.2244114285
 20
2.5931089744
 10
-29.2463411173
 20
2.6063983704
 10
-29.268154971
 20
2.6198219891
  0
LWPOLYLINE
  5
708
100
AcDbEntity
  8
ASSI
100
AcDbPolyline
 62
7
  6
CONTINUOUS
 90
10
 70
0
 10
-29.0676799572
 20
2.5037000577
 10
-29.0904117213
 20
2.5161127302
 10
-29.1130298429
 20
2.5286439165
 10
-29.135534322
 20
2.5412936167
 10
-29.1579258895
 20
2.5540565946
 10
-29.1802038146
 20
2.5669380865
 10
-29.2023659046
 20
2.579953801
 10
-29.2244114285
 20
2.5931089744
 10
-29.2463411173
 20
2.6063983704
 10
-29.268154971
 20
2.6198219891
  0
LINE
  5
709
100
AcDbEntity
  8
RACCORDO
100
AcDbLine
 62
253
  6
CONTINUOUS
 10
-31.7338682236
 20
5.5136149133
 11
-31.7366263019
 21
5.6176801486
  0
LINE
  5
70A
100
AcDbEntity
  8
RACCORDO
100
AcDbLine
 62
253
  6
CONTINUOUS
 10
-31.7366263019
 20
5.6176801486
 11
-31.7387766843
 21
5.7185840278
  0
LINE
  5
70B
100
AcDbEntity
  8
RACCORDO
100
AcDbLine
 62
253
  6
CONTINUOUS
 10
-31.7387766843
 20
5.7185840278
 11
-31.7402445867
 21
5.8132658788
  0
LWPOLYLINE
  5
70C
100
AcDbEntity
  8
RACCORDO
100
AcDbPolyline
 62
253
  6
CONTINUOUS
 90
12
 70
0
 10
-31.7402445867
 20
5.8132658788
 10
-31.7409885527
 20
5.8988536979
 10
-31.7410812858
 20
5.9374127939
 10
-31.7409881487
 20
5.972750477
 10
-31.7407086879
 20
6.0045983262
 10
-31.740243612
 20
6.0327144491
 10
-31.7395977813
 20
6.0568851424
 10
-31.7387764647
 20
6.0769267166
 10
-31.7377834459
 20
6.0926869822
 10
-31.7366265311
 20
6.1040461407
 10
-31.735317482
 20
6.1109177241
 10
-31.7338682236
 20
6.1132494096
  0
LINE
  5
70D
100
AcDbEntity
  8
RACCORDO
100
AcDbLine
 62
253
  6
CONTINUOUS
 10
-31.7338682236
 20
-0.6636746837
 11
-31.7338682236
 21
-0.2486774497
  0
LINE
  5
70E
100
AcDbEntity
  8
RACCORDO
100
AcDbLine
 62
253
  6
CONTINUOUS
 10
-31.7338682236
 20
5.0986176793
 11
-31.7338682236
 21
5.5136149133
  0
LINE
  5
70F
100
AcDbEntity
  8
DRAFT
100
AcDbLine
 62
7
  6
CONTINUOUS
 10
-31.2164184752
 20
5.0714992871
 11
-31.2164184752
 21
-0.2215590575
  0
LINE
  5
710
100
AcDbEntity
  8
RACCORDO
100
AcDbLine
 62
7
  6
CONTINUOUS
 10
-31.1664184752
 20
0.038122098
 11
-31.1664184752
 21
4.8118181316
  0
LINE
  5
711
100
AcDbEntity
  8
ASSI
100
AcDbLine
 62
7
  6
CONTINUOUS
 10
-31.1664184752
 20
0.038122098
 11
-31.1664184752
 21
4.8118181316
  0
LINE
  5
712
100
AcDbEntity
  8
RACCORDO
100
AcDbLine
 62
253
  6
CONTINUOUS
 10
-31.7410812858
 20
-1.0874725643
 11
-31.7407094938
 21
-1.0074260342
  0
LINE
  5
713
100
AcDbEntity
  8
RACCORDO
100
AcDbLine
 62
253
  6
CONTINUOUS
 10
-31.7407094938
 20
-1.0074260342
 11
-31.7395984937
 21
-0.9169474568
  0
LINE
  5
714
100
AcDbEntity
  8
RACCORDO
100
AcDbLine
 62
253
  6
CONTINUOUS
 10
-31.7395984937
 20
-0.9169474568
 11
-31.7377833106
 21
-0.8187816758
  0
LWPOLYLINE
  5
715
100
AcDbEntity
  8
RACCORDO
100
AcDbPolyline
 62
253
  6
CONTINUOUS
 90
3
 70
0
 10
-31.7377833106
 20
-0.8187816758
 10
-31.7353172977
 20
-0.7159063205
 10
-31.7338682236
 20
-0.6636746837
  0
LWPOLYLINE
  5
716
100
AcDbEntity
  8
DRAFT
100
AcDbPolyline
 62
7
  6
CONTINUOUS
 90
10
 70
0
 10
-29.0676799572
 20
2.3462401719
 10
-29.0904117213
 20
2.3338274995
 10
-29.1130298429
 20
2.3212963131
 10
-29.135534322
 20
2.3086466129
 10
-29.1579258895
 20
2.295883635
 10
-29.1802038146
 20
2.2830021431
 10
-29.2023659046
 20
2.2699864286
 10
-29.2244114285
 20
2.2568312552
 10
-29.2463411173
 20
2.2435418592
 10
-29.268154971
 20
2.2301182405
  0
LWPOLYLINE
  5
717
100
AcDbEntity
  8
ASSI
100
AcDbPolyline
 62
7
  6
CONTINUOUS
 90
10
 70
0
 10
-29.0676799572
 20
2.3462401719
 10
-29.0904117213
 20
2.3338274995
 10
-29.1130298429
 20
2.3212963131
 10
-29.135534322
 20
2.3086466129
 10
-29.1579258895
 20
2.295883635
 10
-29.1802038146
 20
2.2830021431
 10
-29.2023659046
 20
2.2699864286
 10
-29.2244114285
 20
2.2568312552
 10
-29.2463411173
 20
2.2435418592
 10
-29.268154971
 20
2.2301182405
  0
LINE
  5
718
100
AcDbEntity
  8
RACCORDO
100
AcDbLine
 62
7
  6
CONTINUOUS
 10
-31.7338682236
 20
6.1132494096
 11
-29.9664184752
 21
6.1749701148
  0
LINE
  5
719
100
AcDbEntity
  8
DRAFT
100
AcDbLine
 62
7
  6
CONTINUOUS
 10
-28.4664184752
 20
6.227351269
 11
-29.9664184752
 21
6.1749701148
  0
LINE
  5
71A
100
AcDbEntity
  8
RACCORDO
100
AcDbLine
 62
7
  6
CONTINUOUS
 10
-29.9664184752
 20
6.1749701148
 11
-30.9664184752
 21
6.166243247
  0
LINE
  5
71B
100
AcDbEntity
  8
ASSI
100
AcDbLine
 62
7
  6
CONTINUOUS
 10
-29.9664184752
 20
6.1749701148
 11
-30.9664184752
 21
6.166243247
  0
LINE
  5
71C
100
AcDbEntity
  8
RACCORDO
100
AcDbLine
 62
7
  6
CONTINUOUS
 10
-29.9664184752
 20
6.1749701148
 11
-25.2120552075
 21
6.1334794151
  0
LINE
  5
71D
100
AcDbEntity
  8
ASSI
100
AcDbLine
 62
7
  6
CONTINUOUS
 10
-29.9664184752
 20
6.1749701148
 11
-25.2120552075
 21
6.1334794151
  0
LINE
  5
71E
100
AcDbEntity
  8
RACCORDO
100
AcDbLine
 62
7
  6
CONTINUOUS
 10
-25.3559470314
 20
6.0644940364
 11
-29.9664184752
 21
6.1449701148
  0
LINE
  5
71F
100
AcDbEntity
  8
RACCORDO
100
AcDbLine
 62
7
  6
CONTINUOUS
 10
-27.9630937992
 20
4.7995412494
 11
-27.9998605548
 21
4.8050966837
  0
LINE
  5
720
100
AcDbEntity
  8
ASSI
100
AcDbLine
 62
7
  6
CONTINUOUS
 10
-27.9630937992
 20
4.7995412494
 11
-27.9998605548
 21
4.8050966837
  0
LINE
  5
721
100
AcDbEntity
  8
RACCORDO
100
AcDbLine
 62
7
  6
CONTINUOUS
 10
-30.9664184752
 20
-1.3163030174
 11
-30.9664184752
 21
-1.2901091157
  0
LINE
  5
722
100
AcDbEntity
  8
ASSI
100
AcDbLine
 62
7
  6
CONTINUOUS
 10
-30.9664184752
 20
-1.3163030174
 11
-30.9664184752
 21
-1.2901091157
  0
LINE
  5
723
100
AcDbEntity
  8
RACCORDO
100
AcDbLine
 62
7
  6
CONTINUOUS
 10
-30.9664184752
 20
6.1400493453
 11
-30.9664184752
 21
6.166243247
  0
LINE
  5
724
100
AcDbEntity
  8
ASSI
100
AcDbLine
 62
7
  6
CONTINUOUS
 10
-30.9664184752
 20
6.1400493453
 11
-30.9664184752
 21
6.166243247
  0
LINE
  5
725
100
AcDbEntity
  8
RACCORDO
100
AcDbLine
 62
253
  6
CONTINUOUS
 10
-30.5532425641
 20
-1.319908749
 11
-30.5532425641
 21
-1.3045375365
  0
LINE
  5
726
100
AcDbEntity
  8
ASSI
100
AcDbLine
 62
253
  6
CONTINUOUS
 10
-30.5532425641
 20
-1.319908749
 11
-30.5532425641
 21
-1.3045375365
  0
LINE
  5
727
100
AcDbEntity
  8
RACCORDO
100
AcDbLine
 62
253
  6
CONTINUOUS
 10
-30.5532425641
 20
6.1544777661
 11
-30.5532425641
 21
6.1698489786
  0
LINE
  5
728
100
AcDbEntity
  8
ASSI
100
AcDbLine
 62
253
  6
CONTINUOUS
 10
-30.5532425641
 20
6.1544777661
 11
-30.5532425641
 21
6.1698489786
  0
LINE
  5
729
100
AcDbEntity
  8
DRAFT
100
AcDbLine
 62
7
  6
CONTINUOUS
 10
-30.2654312813
 20
2.5035512057
 11
-30.2654312813
 21
2.3463890239
  0
LINE
  5
72A
100
AcDbEntity
  8
ASSI
100
AcDbLine
 62
7
  6
CONTINUOUS
 10
-30.2654312813
 20
2.5035512057
 11
-30.2654312813
 21
2.3463890239
  0
LINE
  5
72B
100
AcDbEntity
  8
DRAFT
100
AcDbLine
 62
7
  6
CONTINUOUS
 10
-30.0654112946
 20
2.6193692091
 11
-30.0654112946
 21
2.2305710206
  0
LINE
  5
72C
100
AcDbEntity
  8
ASSI
100
AcDbLine
 62
7
  6
CONTINUOUS
 10
-30.0654112946
 20
2.6193692091
 11
-30.0654112946
 21
2.2305710206
  0
LINE
  5
72D
100
AcDbEntity
  8
RACCORDO
100
AcDbLine
 62
7
  6
CONTINUOUS
 10
-29.9664184752
 20
-1.3250298852
 11
-29.9664184752
 21
-0.1560493334
  0
LINE
  5
72E
100
AcDbEntity
  8
DRAFT
100
AcDbLine
 62
7
  6
CONTINUOUS
 10
-29.9664184752
 20
-0.1560493334
 11
-29.9664184752
 21
0.3675535658
  0
LINE
  5
72F
100
AcDbEntity
  8
ASSI
100
AcDbLine
 62
7
  6
CONTINUOUS
 10
-29.9664184752
 20
-0.1560493334
 11
-29.9664184752
 21
0.3675535658
  0
LINE
  5
730
100
AcDbEntity
  8
DRAFT
100
AcDbLine
 62
7
  6
CONTINUOUS
 10
-29.9664184752
 20
4.4823866638
 11
-29.9664184752
 21
5.005989563
  0
LINE
  5
731
100
AcDbEntity
  8
ASSI
100
AcDbLine
 62
7
  6
CONTINUOUS
 10
-29.9664184752
 20
4.4823866638
 11
-29.9664184752
 21
5.005989563
  0
LINE
  5
732
100
AcDbEntity
  8
RACCORDO
100
AcDbLine
 62
7
  6
CONTINUOUS
 10
-29.9664184752
 20
5.005989563
 11
-29.9664184752
 21
6.1749701148
  0
LINE
  5
733
100
AcDbEntity
  8
DRAFT
100
AcDbLine
 62
7
  6
CONTINUOUS
 10
-29.268154971
 20
2.2301182405
 11
-29.268154971
 21
2.6198219891
  0
LINE
  5
734
100
AcDbEntity
  8
ASSI
100
AcDbLine
 62
7
  6
CONTINUOUS
 10
-29.268154971
 20
2.2301182405
 11
-29.268154971
 21
2.6198219891
  0
LINE
  5
735
100
AcDbEntity
  8
DRAFT
100
AcDbLine
 62
7
  6
CONTINUOUS
 10
-29.0676799572
 20
2.3462401719
 11
-29.0676799572
 21
2.5037000577
  0
LINE
  5
736
100
AcDbEntity
  8
ASSI
100
AcDbLine
 62
7
  6
CONTINUOUS
 10
-29.0676799572
 20
2.3462401719
 11
-29.0676799572
 21
2.5037000577
  0
LINE
  5
737
100
AcDbEntity
  8
0
100
AcDbLine
 62
7
  6
CONTINUOUS
 10
-29.473427549
 20
2.1440940626
 11
-29.443991663
 21
2.2539502846
  0
LINE
  5
738
100
AcDbEntity
  8
DRAFT
100
AcDbLine
 62
7
  6
CONTINUOUS
 10
-29.4419543174
 20
0.7160724399
 11
-29.487549982
 21
0.5459071031
  0
LINE
  5
739
100
AcDbEntity
  8
0
100
AcDbLine
 62
7
  6
CONTINUOUS
 10
-29.37581198
 20
0.5765486729
 11
-29.3265687881
 21
0.7603267671
  0
LINE
  5
73A
100
AcDbEntity
  8
0
100
AcDbLine
 62
7
  6
CONTINUOUS
 10
-29.0403932066
 20
1.8283485772
 11
-28.9905053385
 21
2.0145326355
  0
LINE
  5
73B
100
AcDbEntity
  8
DRAFT
100
AcDbLine
 62
7
  6
CONTINUOUS
 10
-28.4664184752
 20
6.227351269
 11
-28.4664184752
 21
6.1618798131
  0
LINE
  5
73C
100
AcDbEntity
  8
DRAFT
100
AcDbLine
 62
7
  6
CONTINUOUS
 10
-28.4664184752
 20
-1.3119395835
 11
-28.4664184752
 21
-1.3774110394
  0
LWPOLYLINE
  5
73D
100
AcDbEntity
  8
RACCORDO
100
AcDbPolyline
 62
253
  6
CONTINUOUS
 90
16
 70
0
 10
-27.7520690303
 20
4.3082716741
 10
-27.7538068717
 20
4.3398879658
 10
-27.7586375307
 20
4.3705567661
 10
-27.7665610072
 20
4.4002780751
 10
-27.7777301805
 20
4.4293680635
 10
-27.7919921714
 20
4.4575105606
 10
-27.8088883422
 20
4.4837570543
 10
-27.8285035867
 20
4.5080302842
 10
-27.850753011
 20
4.5304075108
 10
-27.8749232965
 20
4.5501720035
 10
-27.9010996707
 20
4.5672399737
 10
-27.929196906
 20
4.58169521
 10
-27.9582460007
 20
4.5930723484
 10
-27.9879239541
 20
4.6012162674
 10
-28.0185537669
 20
4.6062820884
 10
-28.050135439
 20
4.6082698114
  0
LWPOLYLINE
  5
73E
100
AcDbEntity
  8
ASSI
100
AcDbPolyline
 62
253
  6
CONTINUOUS
 90
16
 70
0
 10
-27.7520690303
 20
4.3082716741
 10
-27.7538068717
 20
4.3398879658
 10
-27.7586375307
 20
4.3705567661
 10
-27.7665610072
 20
4.4002780751
 10
-27.7777301805
 20
4.4293680635
 10
-27.7919921714
 20
4.4575105606
 10
-27.8088883422
 20
4.4837570543
 10
-27.8285035867
 20
4.5080302842
 10
-27.850753011
 20
4.5304075108
 10
-27.8749232965
 20
4.5501720035
 10
-27.9010996707
 20
4.5672399737
 10
-27.929196906
 20
4.58169521
 10
-27.9582460007
 20
4.5930723484
 10
-27.9879239541
 20
4.6012162674
 10
-28.0185537669
 20
4.6062820884
 10
-28.050135439
 20
4.6082698114
  0
LWPOLYLINE
  5
73F
100
AcDbEntity
  8
RACCORDO
100
AcDbPolyline
 62
253
  6
CONTINUOUS
 90
15
 70
0
 10
-27.5558336046
 20
4.3082716741
 10
-27.5585397691
 20
4.3602003996
 10
-27.5666310108
 20
4.4115802072
 10
-27.5800239318
 20
4.4618544968
 10
-27.598580014
 20
4.5104818514
 10
-27.622100982
 20
4.5569298734
 10
-27.6503268916
 20
4.6006829412
 10
-27.6829500946
 20
4.6412637562
 10
-27.71961959
 20
4.6782360621
 10
-27.7599358951
 20
4.7111988403
 10
-27.8034614025
 20
4.7397939113
 10
-27.8497267636
 20
4.7637129253
 10
-27.8982339213
 20
4.7826986032
 10
-27.9484597011
 20
4.7965440224
 10
-27.9630937992
 20
4.7995412494
  0
LWPOLYLINE
  5
740
100
AcDbEntity
  8
ASSI
100
AcDbPolyline
 62
253
  6
CONTINUOUS
 90
15
 70
0
 10
-27.5558336046
 20
4.3082716741
 10
-27.5585397691
 20
4.3602003996
 10
-27.5666310108
 20
4.4115802072
 10
-27.5800239318
 20
4.4618544968
 10
-27.598580014
 20
4.5104818514
 10
-27.622100982
 20
4.5569298734
 10
-27.6503268916
 20
4.6006829412
 10
-27.6829500946
 20
4.6412637562
 10
-27.71961959
 20
4.6782360621
 10
-27.7599358951
 20
4.7111988403
 10
-27.8034614025
 20
4.7397939113
 10
-27.8497267636
 20
4.7637129253
 10
-27.8982339213
 20
4.7826986032
 10
-27.9484597011
 20
4.7965440224
 10
-27.9630937992
 20
4.7995412494
  0
LWPOLYLINE
  5
741
100
AcDbEntity
  8
RACCORDO
100
AcDbPolyline
 62
253
  6
CONTINUOUS
 90
6
 70
0
 10
-28.0498304767
 20
4.7368120672
 10
-28.0500455779
 20
4.7614619885
 10
-28.0503694444
 20
4.7814581437
 10
-28.0507922375
 20
4.7961930769
 10
-28.0513011134
 20
4.8052191611
 10
-28.0518806131
 20
4.808262196
  0
LWPOLYLINE
  5
742
100
AcDbEntity
  8
ASSI
100
AcDbPolyline
 62
253
  6
CONTINUOUS
 90
6
 70
0
 10
-28.0498304767
 20
4.7368120672
 10
-28.0500455779
 20
4.7614619885
 10
-28.0503694444
 20
4.7814581437
 10
-28.0507922375
 20
4.7961930769
 10
-28.0513011134
 20
4.8052191611
 10
-28.0518806131
 20
4.808262196
  0
LINE
  5
743
100
AcDbEntity
  8
RACCORDO
100
AcDbLine
 62
253
  6
CONTINUOUS
 10
-28.050135439
 20
0.2416704182
 11
-28.0497492816
 21
0.1732804187
  0
LINE
  5
744
100
AcDbEntity
  8
ASSI
100
AcDbLine
 62
253
  6
CONTINUOUS
 10
-28.050135439
 20
0.2416704182
 11
-28.0497492816
 21
0.1732804187
  0
LINE
  5
745
100
AcDbEntity
  8
RACCORDO
100
AcDbLine
 62
253
  6
CONTINUOUS
 10
-27.7520690303
 20
0.5416685555
 11
-27.7520690303
 21
0.7125010989
  0
LINE
  5
746
100
AcDbEntity
  8
ASSI
100
AcDbLine
 62
253
  6
CONTINUOUS
 10
-27.7520690303
 20
0.5416685555
 11
-27.7520690303
 21
0.7125010989
  0
LINE
  5
747
100
AcDbEntity
  8
RACCORDO
100
AcDbLine
 62
253
  6
CONTINUOUS
 10
-27.7520690303
 20
4.1374391308
 11
-27.7520690303
 21
4.3082716741
  0
LINE
  5
748
100
AcDbEntity
  8
ASSI
100
AcDbLine
 62
253
  6
CONTINUOUS
 10
-27.7520690303
 20
4.1374391308
 11
-27.7520690303
 21
4.3082716741
  0
LINE
  5
749
100
AcDbEntity
  8
RACCORDO
100
AcDbLine
 62
253
  6
CONTINUOUS
 10
-27.5558336046
 20
0.5416685555
 11
-27.5558336046
 21
0.7090757968
  0
LINE
  5
74A
100
AcDbEntity
  8
ASSI
100
AcDbLine
 62
253
  6
CONTINUOUS
 10
-27.5558336046
 20
0.5416685555
 11
-27.5558336046
 21
0.7090757968
  0
LINE
  5
74B
100
AcDbEntity
  8
RACCORDO
100
AcDbLine
 62
253
  6
CONTINUOUS
 10
-27.5558336046
 20
4.1408644328
 11
-27.5558336046
 21
4.3082716741
  0
LINE
  5
74C
100
AcDbEntity
  8
ASSI
100
AcDbLine
 62
253
  6
CONTINUOUS
 10
-27.5558336046
 20
4.1408644328
 11
-27.5558336046
 21
4.3082716741
  0
LINE
  5
74D
100
AcDbEntity
  8
RACCORDO
100
AcDbLine
 62
7
  6
CONTINUOUS
 10
-27.5024022081
 20
0.5421348442
 11
-27.5024022081
 21
0.7081431483
  0
LINE
  5
74E
100
AcDbEntity
  8
ASSI
100
AcDbLine
 62
7
  6
CONTINUOUS
 10
-27.5024022081
 20
0.5421348442
 11
-27.5024022081
 21
0.7081431483
  0
LINE
  5
74F
100
AcDbEntity
  8
RACCORDO
100
AcDbLine
 62
7
  6
CONTINUOUS
 10
-27.5024022081
 20
4.1417970813
 11
-27.5024022081
 21
4.3078053854
  0
LINE
  5
750
100
AcDbEntity
  8
ASSI
100
AcDbLine
 62
7
  6
CONTINUOUS
 10
-27.5024022081
 20
4.1417970813
 11
-27.5024022081
 21
4.3078053854
  0
LINE
  5
751
100
AcDbEntity
  8
RACCORDO
100
AcDbLine
 62
7
  6
CONTINUOUS
 10
-27.4664184752
 20
0.3071077132
 11
-27.4664184752
 21
4.5428325165
  0
LINE
  5
752
100
AcDbEntity
  8
RACCORDO
100
AcDbLine
 62
253
  6
CONTINUOUS
 10
-28.0497492079
 20
4.6766648742
 11
-28.0498304767
 21
4.7368120672
  0
LINE
  5
753
100
AcDbEntity
  8
ASSI
100
AcDbLine
 62
253
  6
CONTINUOUS
 10
-28.0497492079
 20
4.6766648742
 11
-28.0498304767
 21
4.7368120672
  0
LWPOLYLINE
  5
754
100
AcDbEntity
  8
RACCORDO
100
AcDbPolyline
 62
253
  6
CONTINUOUS
 90
7
 70
0
 10
-28.0497492816
 20
0.1732804187
 10
-28.0498305279
 20
0.1131338614
 10
-28.050045604
 20
0.0884828733
 10
-28.0503694475
 20
0.0684852502
 10
-28.0507922247
 20
0.0537488164
 10
-28.0513010959
 20
0.044721547
 10
-28.051880604
 20
0.0416780337
  0
LWPOLYLINE
  5
755
100
AcDbEntity
  8
ASSI
100
AcDbPolyline
 62
253
  6
CONTINUOUS
 90
7
 70
0
 10
-28.0497492816
 20
0.1732804187
 10
-28.0498305279
 20
0.1131338614
 10
-28.050045604
 20
0.0884828733
 10
-28.0503694475
 20
0.0684852502
 10
-28.0507922247
 20
0.0537488164
 10
-28.0513010959
 20
0.044721547
 10
-28.051880604
 20
0.0416780337
  0
LINE
  5
756
100
AcDbEntity
  8
RACCORDO
100
AcDbLine
 62
253
  6
CONTINUOUS
 10
-28.050135439
 20
4.6082698114
 11
-28.0497492079
 21
4.6766648742
  0
LINE
  5
757
100
AcDbEntity
  8
ASSI
100
AcDbLine
 62
253
  6
CONTINUOUS
 10
-28.050135439
 20
4.6082698114
 11
-28.0497492079
 21
4.6766648742
  0
LINE
  5
758
100
AcDbEntity
  8
RACCORDO
100
AcDbLine
 62
253
  6
CONTINUOUS
 10
-25.3559470314
 20
-0.6146451897
 11
-25.3532184562
 21
-0.8005552611
  0
LWPOLYLINE
  5
759
100
AcDbEntity
  8
RACCORDO
100
AcDbPolyline
 62
253
  6
CONTINUOUS
 90
7
 70
0
 10
-25.351800188
 20
5.9507759404
 10
-25.3521275873
 20
5.9849452203
 10
-25.3526125164
 20
6.0133769331
 10
-25.3532467643
 20
6.0356809629
 10
-25.3540204656
 20
6.0516705441
 10
-25.3549243116
 20
6.0612832978
 10
-25.3559470314
 20
6.0644940364
  0
LINE
  5
75A
100
AcDbEntity
  8
RACCORDO
100
AcDbLine
 62
253
  6
CONTINUOUS
 10
-25.3532184562
 20
-0.8005552611
 11
-25.3521098299
 21
-0.915412903
  0
LINE
  5
75B
100
AcDbEntity
  8
RACCORDO
100
AcDbLine
 62
253
  6
CONTINUOUS
 10
-25.3521098299
 20
-0.915412903
 11
-25.3516304801
 21
-1.0169834366
  0
LINE
  5
75C
100
AcDbEntity
  8
RACCORDO
100
AcDbLine
 62
253
  6
CONTINUOUS
 10
-25.3559470314
 20
-0.6146451897
 11
-25.3559470314
 21
5.4645854193
  0
LINE
  5
75D
100
AcDbEntity
  8
RACCORDO
100
AcDbLine
 62
253
  6
CONTINUOUS
 10
-25.3516304803
 20
5.8669235527
 11
-25.351800188
 21
5.9507759404
  0
LWPOLYLINE
  5
75E
100
AcDbEntity
  8
RACCORDO
100
AcDbPolyline
 62
253
  6
CONTINUOUS
 90
8
 70
0
 10
-25.3516304801
 20
-1.0169834366
 10
-25.3518001888
 20
-1.1008358306
 10
-25.3521275887
 20
-1.1350050948
 10
-25.3526125185
 20
-1.1634367853
 10
-25.3532467663
 20
-1.185740788
 10
-25.3540204668
 20
-1.2017303425
 10
-25.3549243112
 20
-1.211343076
 10
-25.3559470284
 20
-1.2145538067
  0
LINE
  5
75F
100
AcDbEntity
  8
RACCORDO
100
AcDbLine
 62
253
  6
CONTINUOUS
 10
-25.3521098305
 20
5.7653530406
 11
-25.3516304803
 21
5.8669235527
  0
LINE
  5
760
100
AcDbEntity
  8
RACCORDO
100
AcDbLine
 62
253
  6
CONTINUOUS
 10
-25.3539944093
 20
5.5896757329
 11
-25.3521098305
 21
5.7653530406
  0
LINE
  5
761
100
AcDbEntity
  8
RACCORDO
100
AcDbLine
 62
253
  6
CONTINUOUS
 10
-25.3559470314
 20
5.4645854193
 11
-25.3539944093
 21
5.5896757329
  0
LWPOLYLINE
  5
762
100
AcDbEntity
  8
RACCORDO
100
AcDbPolyline
 62
253
  6
CONTINUOUS
 90
4
 70
0
 10
-25.2120552075
 20
6.1334794151
 10
-25.21184781
 20
6.131198437
 10
-25.2116864924
 20
6.1244289936
 10
-25.2115761535
 20
6.1133770909
  0
LWPOLYLINE
  5
763
100
AcDbEntity
  8
ASSI
100
AcDbPolyline
 62
253
  6
CONTINUOUS
 90
4
 70
0
 10
-25.2120552075
 20
6.1334794151
 10
-25.21184781
 20
6.131198437
 10
-25.2116864924
 20
6.1244289936
 10
-25.2115761535
 20
6.1133770909
  0
LINE
  5
764
100
AcDbEntity
  8
RACCORDO
100
AcDbLine
 62
253
  6
CONTINUOUS
 10
-25.2115201254
 20
-1.2299554761
 11
-25.2116458227
 21
-1.19357795
  0
LINE
  5
765
100
AcDbEntity
  8
ASSI
100
AcDbLine
 62
253
  6
CONTINUOUS
 10
-25.2115201254
 20
-1.2299554761
 11
-25.2116458227
 21
-1.19357795
  0
LINE
  5
766
100
AcDbEntity
  8
RACCORDO
100
AcDbLine
 62
253
  6
CONTINUOUS
 10
-25.2115761535
 20
6.1133770909
 11
-25.2115201564
 21
6.0798900545
  0
LINE
  5
767
100
AcDbEntity
  8
ASSI
100
AcDbLine
 62
253
  6
CONTINUOUS
 10
-25.2115761535
 20
6.1133770909
 11
-25.2115201564
 21
6.0798900545
  0
LINE
  5
768
100
AcDbEntity
  8
RACCORDO
100
AcDbLine
 62
7
  6
CONTINUOUS
 10
-24.7664184752
 20
-0.6146451897
 11
-24.7664184752
 21
5.4645854193
  0
LINE
  5
769
100
AcDbEntity
  8
RACCORDO
100
AcDbLine
 62
7
  6
CONTINUOUS
 10
-24.7164184752
 20
5.6333342882
 11
-24.7164184752
 21
-0.7834450061
  0
LINE
  5
76A
100
AcDbEntity
  8
ASSI
100
AcDbLine
 62
7
  6
CONTINUOUS
 10
-24.7164184752
 20
5.6333342882
 11
-24.7164184752
 21
-0.7834450061
  0
LINE
  5
76B
100
AcDbEntity
  8
RACCORDO
100
AcDbLine
 62
253
  6
CONTINUOUS
 10
-25.2115201564
 20
6.0798900545
 11
-25.2116458411
 21
6.0435181848
  0
LINE
  5
76C
100
AcDbEntity
  8
ASSI
100
AcDbLine
 62
253
  6
CONTINUOUS
 10
-25.2115201564
 20
6.0798900545
 11
-25.2116458411
 21
6.0435181848
  0
LWPOLYLINE
  5
76D
100
AcDbEntity
  8
RACCORDO
100
AcDbPolyline
 62
253
  6
CONTINUOUS
 90
5
 70
0
 10
-25.2120552075
 20
-1.2835391855
 10
-25.2118478195
 20
-1.281258672
 10
-25.2116865007
 20
-1.2744903838
 10
-25.2115761522
 20
-1.2634399523
 10
-25.2115201254
 20
-1.2299554761
  0
LWPOLYLINE
  5
76E
100
AcDbEntity
  8
ASSI
100
AcDbPolyline
 62
253
  6
CONTINUOUS
 90
5
 70
0
 10
-25.2120552075
 20
-1.2835391855
 10
-25.2118478195
 20
-1.281258672
 10
-25.2116865007
 20
-1.2744903838
 10
-25.2115761522
 20
-1.2634399523
 10
-25.2115201254
 20
-1.2299554761
  0
ARC
  5
76F
100
AcDbEntity
  8
RACCORDO
100
AcDbCircle
 62
7
  6
CONTINUOUS
 10
-29.6664184752
 20
1.4249701148
 40
1.6
100
AcDbArc
 50
301.7143149194
 51
38.6821874535
  0
ARC
  5
770
100
AcDbEntity
  8
RACCORDO
100
AcDbCircle
 62
7
  6
CONTINUOUS
 10
-29.6664184752
 20
1.4249701148
 40
1.6
100
AcDbArc
 50
201.7867892983
 51
238.7016622811
  0
ARC
  5
771
100
AcDbEntity
  8
ASSI
100
AcDbCircle
 62
7
  6
CONTINUOUS
 10
-29.6664184752
 20
1.4249701148
 40
1.6
100
AcDbArc
 50
301.7143149194
 51
38.6821874535
  0
ARC
  5
772
100
AcDbEntity
  8
ASSI
100
AcDbCircle
 62
7
  6
CONTINUOUS
 10
-29.6664184752
 20
1.4249701148
 40
1.6
100
AcDbArc
 50
201.7867892983
 51
238.7016622811
  0
CIRCLE
  5
773
100
AcDbEntity
  8
0
100
AcDbCircle
 62
7
  6
CONTINUOUS
 10
-29.6664184752
 20
1.4249701148
 40
0.75
  0
ARC
  5
774
100
AcDbEntity
  8
RACCORDO
100
AcDbCircle
 62
7
  6
CONTINUOUS
 10
-30.6664184752
 20
0.038122098
 40
0.5
100
AcDbArc
 50
180.0
 51
210.5064810837
  0
ARC
  5
775
100
AcDbEntity
  8
ASSI
100
AcDbCircle
 62
7
  6
CONTINUOUS
 10
-30.6664184752
 20
0.038122098
 40
0.5
100
AcDbArc
 50
180.0
 51
210.5064810837
  0
ARC
  5
776
100
AcDbEntity
  8
RACCORDO
100
AcDbCircle
 62
7
  6
CONTINUOUS
 10
-31.7164184752
 20
-0.7636082994
 40
0.5
100
AcDbArc
 50
180.0006264786
 51
268.0000218541
  0
CIRCLE
  5
777
100
AcDbEntity
  8
0
100
AcDbCircle
 62
7
  6
CONTINUOUS
 10
-29.6664184752
 20
1.4249701148
 40
0.4
  0
ARC
  5
778
100
AcDbEntity
  8
RACCORDO
100
AcDbCircle
 62
7
  6
CONTINUOUS
 10
-32.9164184752
 20
0.9872343587
 40
0.3
100
AcDbArc
 50
180.0
 51
269.0
  0
ARC
  5
779
100
AcDbEntity
  8
RACCORDO
100
AcDbCircle
 62
7
  6
CONTINUOUS
 10
-30.3937105259
 20
0.2287066517
 40
0.2
100
AcDbArc
 50
238.7016622811
 51
269.5
  0
ARC
  5
77A
100
AcDbEntity
  8
RACCORDO
100
AcDbCircle
 62
7
  6
CONTINUOUS
 10
-30.9664184752
 20
0.9053548725
 40
0.2
100
AcDbArc
 50
180.0
 51
201.7867892983
  0
ARC
  5
77B
100
AcDbEntity
  8
ASSI
100
AcDbCircle
 62
7
  6
CONTINUOUS
 10
-30.3937105259
 20
0.2287066517
 40
0.2
100
AcDbArc
 50
238.7016622811
 51
269.5
  0
ARC
  5
77C
100
AcDbEntity
  8
ASSI
100
AcDbCircle
 62
7
  6
CONTINUOUS
 10
-30.9664184752
 20
0.9053548725
 40
0.2
100
AcDbArc
 50
180.0
 51
201.7867892983
  0
ARC
  5
77D
100
AcDbEntity
  8
RACCORDO
100
AcDbCircle
 62
7
  6
CONTINUOUS
 10
-32.4164184752
 20
0.4784306622
 40
0.2
100
AcDbArc
 50
0.0
 51
89.0000119293
  0
ARC
  5
77E
100
AcDbEntity
  8
RACCORDO
100
AcDbCircle
 62
7
  6
CONTINUOUS
 10
-31.0164184752
 20
1.9712684181
 40
0.2
100
AcDbArc
 50
138.7022362975
 51
180.0
  0
ARC
  5
77F
100
AcDbEntity
  8
RACCORDO
100
AcDbCircle
 62
7
  6
CONTINUOUS
 10
-29.6664184752
 20
3.4249701148
 40
1.6
100
AcDbArc
 50
321.3178125465
 51
58.2856850806
  0
ARC
  5
780
100
AcDbEntity
  8
RACCORDO
100
AcDbCircle
 62
7
  6
CONTINUOUS
 10
-29.6664184752
 20
3.4249701148
 40
1.6
100
AcDbArc
 50
121.2983377189
 51
158.2132107017
  0
ARC
  5
781
100
AcDbEntity
  8
ASSI
100
AcDbCircle
 62
7
  6
CONTINUOUS
 10
-29.6664184752
 20
3.4249701148
 40
1.6
100
AcDbArc
 50
321.3178125465
 51
58.2856850806
  0
ARC
  5
782
100
AcDbEntity
  8
ASSI
100
AcDbCircle
 62
7
  6
CONTINUOUS
 10
-29.6664184752
 20
3.4249701148
 40
1.6
100
AcDbArc
 50
121.2983377189
 51
158.2132107017
  0
CIRCLE
  5
783
100
AcDbEntity
  8
0
100
AcDbCircle
 62
7
  6
CONTINUOUS
 10
-29.6664184752
 20
3.4249701148
 40
0.75
  0
ARC
  5
784
100
AcDbEntity
  8
RACCORDO
100
AcDbCircle
 62
7
  6
CONTINUOUS
 10
-30.6664184752
 20
4.8118181316
 40
0.5
100
AcDbArc
 50
149.4935189163
 51
180.0
  0
ARC
  5
785
100
AcDbEntity
  8
ASSI
100
AcDbCircle
 62
7
  6
CONTINUOUS
 10
-30.6664184752
 20
4.8118181316
 40
0.5
100
AcDbArc
 50
149.4935189163
 51
180.0
  0
ARC
  5
786
100
AcDbEntity
  8
RACCORDO
100
AcDbCircle
 62
7
  6
CONTINUOUS
 10
-31.7164184752
 20
5.6135483541
 40
0.5
100
AcDbArc
 50
91.9999774483
 51
179.9993534814
  0
CIRCLE
  5
787
100
AcDbEntity
  8
0
100
AcDbCircle
 62
7
  6
CONTINUOUS
 10
-29.6664184752
 20
3.4249701148
 40
0.4
  0
ARC
  5
788
100
AcDbEntity
  8
RACCORDO
100
AcDbCircle
 62
7
  6
CONTINUOUS
 10
-32.9164184752
 20
3.8627058709
 40
0.3
100
AcDbArc
 50
91.0
 51
180.0
  0
ARC
  5
789
100
AcDbEntity
  8
RACCORDO
100
AcDbCircle
 62
7
  6
CONTINUOUS
 10
-30.3937105259
 20
4.6212335779
 40
0.2
100
AcDbArc
 50
90.5
 51
121.2983377189
  0
ARC
  5
78A
100
AcDbEntity
  8
RACCORDO
100
AcDbCircle
 62
7
  6
CONTINUOUS
 10
-30.9664184752
 20
3.9445853571
 40
0.2
100
AcDbArc
 50
158.2132107017
 51
180.0
  0
ARC
  5
78B
100
AcDbEntity
  8
ASSI
100
AcDbCircle
 62
7
  6
CONTINUOUS
 10
-30.3937105259
 20
4.6212335779
 40
0.2
100
AcDbArc
 50
90.5
 51
121.2983377189
  0
ARC
  5
78C
100
AcDbEntity
  8
ASSI
100
AcDbCircle
 62
7
  6
CONTINUOUS
 10
-30.9664184752
 20
3.9445853571
 40
0.2
100
AcDbArc
 50
158.2132107017
 51
180.0
  0
ARC
  5
78D
100
AcDbEntity
  8
RACCORDO
100
AcDbCircle
 62
7
  6
CONTINUOUS
 10
-32.4164184752
 20
4.3715095674
 40
0.2
100
AcDbArc
 50
271.0
 51
360.0
  0
ARC
  5
78E
100
AcDbEntity
  8
RACCORDO
100
AcDbCircle
 62
7
  6
CONTINUOUS
 10
-31.0164184752
 20
3.3386718115
 40
0.2
100
AcDbArc
 50
180.0
 51
221.2977640754
  0
ARC
  5
78F
100
AcDbEntity
  8
RACCORDO
100
AcDbCircle
 62
7
  6
CONTINUOUS
 10
-25.3664184752
 20
-0.6146451897
 40
0.6
100
AcDbArc
 50
271.0
 51
360.0
  0
ARC
  5
790
100
AcDbEntity
  8
RACCORDO
100
AcDbCircle
 62
7
  6
CONTINUOUS
 10
-25.2164184752
 20
-0.7835527485
 40
0.5
100
AcDbArc
 50
270.499994527
 51
359.9993725557
  0
ARC
  5
791
100
AcDbEntity
  8
ASSI
100
AcDbCircle
 62
7
  6
CONTINUOUS
 10
-25.2164184752
 20
-0.7835527485
 40
0.5
100
AcDbArc
 50
270.499994527
 51
359.9993725557
  0
ARC
  5
792
100
AcDbEntity
  8
RACCORDO
100
AcDbCircle
 62
7
  6
CONTINUOUS
 10
-27.8164184752
 20
0.3071077132
 40
0.35
100
AcDbArc
 50
273.0
 51
360.0
  0
ARC
  5
793
100
AcDbEntity
  8
RACCORDO
100
AcDbCircle
 62
7
  6
CONTINUOUS
 10
-28.9304605905
 20
0.234018398
 40
0.2
100
AcDbArc
 50
270.5
 51
301.7143149194
  0
ARC
  5
794
100
AcDbEntity
  8
ASSI
100
AcDbCircle
 62
7
  6
CONTINUOUS
 10
-28.9304605905
 20
0.234018398
 40
0.2
100
AcDbArc
 50
270.5
 51
301.7143149194
  0
ARC
  5
795
100
AcDbEntity
  8
DRAFT
100
AcDbCircle
 62
7
  6
CONTINUOUS
 10
-28.4664184752
 20
2.4249701148
 40
2.2
100
AcDbArc
 50
200.0883146301
 51
207.8619718643
  0
ARC
  5
796
100
AcDbEntity
  8
DRAFT
100
AcDbCircle
 62
7
  6
CONTINUOUS
 10
-28.4664184752
 20
2.4249701148
 40
2.2
100
AcDbArc
 50
152.1284458219
 51
159.9211106176
  0
ARC
  5
797
100
AcDbEntity
  8
DRAFT
100
AcDbCircle
 62
7
  6
CONTINUOUS
 10
-28.4664184752
 20
2.4249701148
 40
2.2
100
AcDbArc
 50
124.9057227251
 51
128.1596397213
  0
ARC
  5
798
100
AcDbEntity
  8
RACCORDO
100
AcDbCircle
 62
7
  6
CONTINUOUS
 10
-25.3664184752
 20
5.4645854193
 40
0.6
100
AcDbArc
 50
0.0
 51
89.0
  0
ARC
  5
799
100
AcDbEntity
  8
RACCORDO
100
AcDbCircle
 62
7
  6
CONTINUOUS
 10
-25.2164184752
 20
5.6334984536
 40
0.5
100
AcDbArc
 50
359.981188034
 51
89.5
  0
ARC
  5
79A
100
AcDbEntity
  8
ASSI
100
AcDbCircle
 62
7
  6
CONTINUOUS
 10
-25.2164184752
 20
5.6334984536
 40
0.5
100
AcDbArc
 50
359.981188034
 51
89.5
  0
ARC
  5
79B
100
AcDbEntity
  8
RACCORDO
100
AcDbCircle
 62
7
  6
CONTINUOUS
 10
-27.8164184752
 20
4.5428325165
 40
0.35
100
AcDbArc
 50
0.0
 51
87.0
  0
ARC
  5
79C
100
AcDbEntity
  8
RACCORDO
100
AcDbCircle
 62
7
  6
CONTINUOUS
 10
-28.9304605905
 20
4.6159218316
 40
0.2
100
AcDbArc
 50
58.2856850806
 51
89.5
  0
ARC
  5
79D
100
AcDbEntity
  8
ASSI
100
AcDbCircle
 62
7
  6
CONTINUOUS
 10
-28.9304605905
 20
4.6159218316
 40
0.2
100
AcDbArc
 50
58.2856850806
 51
89.5
  0
ELLIPSE
  5
79E
100
AcDbEntity
  8
DRAFT
100
AcDbEllipse
 62
7
  6
CONTINUOUS
 10
-29.6672405238
 20
3.4249701148
 30
0.0
 11
0.8986285802
 21
-0.0
 31
0.0
 40
0.9999995816
 41
5.1725642146
 42
10.5365348994
  0
ELLIPSE
  5
79F
100
AcDbEntity
  8
DRAFT
100
AcDbEllipse
 62
7
  6
CONTINUOUS
 10
-29.6672405238
 20
1.4249701148
 30
0.0
 11
0.8986285802
 21
0.0
 31
0.0
 40
0.9999995816
 41
2.029835715
 42
7.3938063997
  0
ELLIPSE
  5
7A0
100
AcDbEntity
  8
DRAFT
100
AcDbEllipse
 62
7
  6
CONTINUOUS
 10
-29.666921115
 20
1.4249701148
 30
0.0
 11
1.0990125844
 21
0.0
 31
0.0
 40
0.9999998954
 41
-1.8468022765
 42
0.9941040743
  0
ELLIPSE
  5
7A1
100
AcDbEntity
  8
DRAFT
100
AcDbEllipse
 62
7
  6
CONTINUOUS
 10
-29.666921115
 20
3.4249701148
 30
0.0
 11
1.0990125844
 21
0.0
 31
0.0
 40
0.9999998954
 41
-0.9941040743
 42
1.8468022765
  0
ELLIPSE
  5
7A2
100
AcDbEntity
  8
RACCORDO
100
AcDbEllipse
 62
7
  6
CONTINUOUS
 10
-28.0033174776
 20
4.3078193527
 30
0.0
 11
0.5009007152
 21
-0.0038254608
 31
0.0
 40
0.9981726973
 41
0.0076230607
 42
1.4635937072
  0
ELLIPSE
  5
7A3
100
AcDbEntity
  8
DRAFT
100
AcDbEllipse
 62
7
  6
CONTINUOUS
 10
-29.66591571
 20
3.4249701148
 30
0.0
 11
1.0992869979
 21
-0.0
 31
0.0
 40
0.9999998954
 41
1.8476822578
 42
4.1355613032
  0
ELLIPSE
  5
7A4
100
AcDbEntity
  8
DRAFT
100
AcDbEllipse
 62
7
  6
CONTINUOUS
 10
-29.66591571
 20
1.4249701148
 30
0.0
 11
1.0992869979
 21
-0.0
 31
0.0
 40
0.9999998954
 41
2.147624004
 42
4.4355030494
  0
ELLIPSE
  5
7A5
100
AcDbEntity
  8
RACCORDO
100
AcDbEllipse
 62
7
  6
CONTINUOUS
 10
-28.0033174776
 20
0.5421208769
 30
0.0
 11
0.5009007152
 21
0.0038254608
 31
0.0
 40
0.9981726973
 41
-1.5697047011
 42
-0.0076230607
  0
ELLIPSE
  5
7A6
100
AcDbEntity
  8
ASSI
100
AcDbEllipse
 62
7
  6
CONTINUOUS
 10
-29.6672405238
 20
1.4249701148
 30
0.0
 11
0.8986285802
 21
0.0
 31
0.0
 40
0.9999995816
 41
2.029835715
 42
7.3938063997
  0
ELLIPSE
  5
7A7
100
AcDbEntity
  8
ASSI
100
AcDbEllipse
 62
7
  6
CONTINUOUS
 10
-29.6672405238
 20
3.4249701148
 30
0.0
 11
0.8986285802
 21
-0.0
 31
0.0
 40
0.9999995816
 41
5.1725642146
 42
10.5365348994
  0
ELLIPSE
  5
7A8
100
AcDbEntity
  8
ASSI
100
AcDbEllipse
 62
7
  6
CONTINUOUS
 10
-29.66591571
 20
3.4249701148
 30
0.0
 11
1.0992869979
 21
-0.0
 31
0.0
 40
0.9999998954
 41
1.8476822578
 42
4.1355613032
  0
ELLIPSE
  5
7A9
100
AcDbEntity
  8
ASSI
100
AcDbEllipse
 62
7
  6
CONTINUOUS
 10
-29.66591571
 20
1.4249701148
 30
0.0
 11
1.0992869979
 21
-0.0
 31
0.0
 40
0.9999998954
 41
2.147624004
 42
4.4355030494
  0
ELLIPSE
  5
7AA
100
AcDbEntity
  8
ASSI
100
AcDbEllipse
 62
7
  6
CONTINUOUS
 10
-29.666921115
 20
1.4249701148
 30
0.0
 11
1.0990125844
 21
0.0
 31
0.0
 40
0.9999998954
 41
-1.8468022765
 42
0.9941040743
  0
ELLIPSE
  5
7AB
100
AcDbEntity
  8
ASSI
100
AcDbEllipse
 62
7
  6
CONTINUOUS
 10
-29.666921115
 20
3.4249701148
 30
0.0
 11
1.0990125844
 21
0.0
 31
0.0
 40
0.9999998954
 41
-0.9941040743
 42
1.8468022765
  0
ELLIPSE
  5
7AC
100
AcDbEntity
  8
ASSI
100
AcDbEllipse
 62
7
  6
CONTINUOUS
 10
-28.0033174776
 20
4.3078193527
 30
0.0
 11
0.5009007152
 21
-0.0038254608
 31
0.0
 40
0.9981726973
 41
0.0076230607
 42
1.4635937072
  0
ELLIPSE
  5
7AD
100
AcDbEntity
  8
ASSI
100
AcDbEllipse
 62
7
  6
CONTINUOUS
 10
-28.0033174776
 20
0.5421208769
 30
0.0
 11
0.5009007152
 21
0.0038254608
 31
0.0
 40
0.9981726973
 41
-1.5697047011
 42
-0.0076230607
  0
ENDSEC
  0
SECTION
  2
OBJECTS
  0
DICTIONARY
  5
C
100
AcDbDictionary
280
0
281
1
  3
ACAD_GROUP
350
D
  3
ACAD_MLINESTYLE
350
17
  3
ACAD_LAYOUT
350
1A
  3
ACAD_PLOTSETTINGS
350
19
  3
ACAD_PLOTSTYLENAME
350
E
  0
DICTIONARY
  5
D
102
{ACAD_REACTORS
330
C
102
}
100
AcDbDictionary
280
0
281
1
  0
ACDBDICTIONARYWDFLT
  5
E
102
{ACAD_REACTORS
330
C
102
}
100
AcDbDictionary
281
1
  3
Normal
350
F
100
AcDbDictionaryWithDefault
340
F
  0
DICTIONARY
  5
17
102
{ACAD_REACTORS
330
C
102
}
100
AcDbDictionary
280
0
281
1
  3
Standard
350
18
  0
DICTIONARY
  5
19
102
{ACAD_REACTORS
330
C
102
}
100
AcDbDictionary
281
1
  0
DICTIONARY
  5
1A
102
{ACAD_REACTORS
330
C
102
}
100
AcDbDictionary
281
1
  3
Model
350
7AE
  3
Layout1
350
7AF
  0
ACDBPLACEHOLDER
  5
F
102
{ACAD_REACTORS
330
E
102
}
  0
MLINESTYLE
  5
18
102
{ACAD_REACTORS
330
17
102
}
100
AcDbMlineStyle
  2
STANDARD
 70
0
  3

 62
256
 51
90.0
 52
90.0
 71
2
 49
0.5
 62
256
  6
BYLAYER
 49
-0.5
 62
256
  6
BYLAYER
  0
LAYOUT
  5
7AE
102
{ACAD_REACTORS
330
1A
102
}
100
AcDbPlotSettings
  1

  2
none_device
  4
ISO_A4_(297.00_x_210.00_MM)
  6

 40
0.0
 41
0.0
 42
0.0
 43
0.0
 44
297.0
 45
210.0
 46
0.0
 47
0.0
 48
0.0
 49
0.0
140
0.0
141
0.0
142
1.0
143
1.0
 70
1024
 72
1
 73
0
 74
0
  7

 75
0
147
1.0
148
0.0
149
0.0
100
AcDbLayout
  1
Model
 70
0
 71
0
 10
0.0
 20
0.0
 11
297.0
 21
210.0
 12
0.0
 22
0.0
 32
0.0
 14
0.0
 24
0.0
 34
0.0
 15
0.0
 25
0.0
 35
0.0
146
0.0
 13
0.0
 23
0.0
 33
0.0
 16
1.0
 26
0.0
 36
0.0
 17
0.0
 27
1.0
 37
0.0
 76
0
330
212
345
0
346
0
  0
LAYOUT
  5
7AF
102
{ACAD_REACTORS
330
1A
102
}
100
AcDbPlotSettings
  1

  2
none_device
  4
ISO_A4_(297.00_x_210.00_MM)
  6

 40
0.0
 41
0.0
 42
0.0
 43
0.0
 44
297.0
 45
210.0
 46
0.0
 47
0.0
 48
0.0
 49
0.0
140
0.0
141
0.0
142
1.0
143
1.0
 70
0
 72
1
 73
0
 74
0
  7

 75
0
147
1.0
148
0.0
149
0.0
100
AcDbLayout
  1
Layout1
 70
0
 71
1
 10
0.0
 20
0.0
 11
297.0
 21
210.0
 12
0.0
 22
0.0
 32
0.0
 14
0.0
 24
0.0
 34
0.0
 15
0.0
 25
0.0
 35
0.0
146
0.0
 13
0.0
 23
0.0
 33
0.0
 16
1.0
 26
0.0
 36
0.0
 17
0.0
 27
1.0
 37
0.0
 76
0
330
213
345
0
346
0
  0
ENDSEC
  0
EOF
