  0
SECTION
  2
HEADER
  9
$ACADVER
  1
AC1021
  9
$DWGCODEPAGE
  3
ANSI_1252
  9
$EXTMAX
 10
297.0
 20
210.0
 30
0.0
  9
$EXTMIN
 10
0.0
 20
0.0
 30
0.0
  9
$LIMMIN
 10
0.0
 20
0.0
  9
$LIMMAX
 10
297.0
 20
210.0
  9
$VIEWCTR
 10
148.5
 20
105.0
  9
$VIEWSIZE
 40
210.0
  9
$CLAYER
  8
0
  9
$LTSCALE
 40
16.335
  9
$CELTYPE
  6
BYLAYER
  9
$DIMSCALE
 40
1.0
  9
$DIMASZ
 40
3.0
  9
$DIMEXO
 40
0.5
  9
$DIMDLI
 40
11.286
  9
$DIMEXE
 40
1.5
  9
$DIMCEN
 40
2.673
  9
$DIMLFAC
 40
1.0
  9
$DIMBLK
  1
_FILLED
  9
$DIMALT
 70
0
  9
$DIMALTF
 40
0.0393700787
  9
$DIMTXT
 40
3.0
  9
$DIMTOL
 70
1
  9
$DIMLIM
 70
0
  9
$DIMTFAC
 40
1.0
  9
$DIMTP
 40
0.01
  9
$DIMTM
 40
0.01
  9
$DIMGAP
 40
0.625
  9
$DIMDSEP
 70
44
  9
$AUNITS
 70
0
  9
$PDMODE
 70
3
  9
$PDSIZE
 40
3.0
  9
$HANDSEED
  5
7B0
  9
$TILEMODE
 70
1
  9
$MEASUREMENT
 70
1
  9
$INSUNITS
 70
4
  0
ENDSEC
  0
SECTION
  2
CLASSES
  0
CLASS
  1
ACDBDICTIONARYWDFLT
  2
AcDbDictionaryWithDefault
  3
AutoCAD 2000
 90
0
 91
1
280
0
281
0
  0
CLASS
  1
ACDBPLACEHOLDER
  2
AcDbPlaceHolder
  3
AutoCAD 2000
 90
0
 91
1
280
0
281
0
  0
CLASS
  1
LAYOUT
  2
AcDbLayout
  3
AutoCAD 2000
 90
0
 91
0
280
0
281
0
  0
ENDSEC
  0
SECTION
  2
TABLES
  0
TABLE
  2
VPORT
  5
8
100
AcDbSymbolTable
 70
2
  0
VPORT
  5
1F4
100
AcDbSymbolTableRecord
100
AcDbViewportTableRecord
  2
*ACTIVE
 70
0
 10
0.0
 20
0.0
 11
1.0
 21
1.0
 12
148.5
 22
105.0
 13
0.0
 23
0.0
 14
1.0
 24
1.0
 15
0.0
 25
0.0
 16
0.0
 26
0.0
 36
1.0
 17
0.0
 27
0.0
 37
0.0
 40
210.0
 41
1.4142857143
 42
50.0
 43
0.0
 44
0.0
 50
0.0
 51
0.0
 71
0
 72
100
 73
1
 74
1
 75
0
 76
0
 77
0
 78
0
  0
ENDTAB
  0
TABLE
  2
LTYPE
  5
5
100
AcDbSymbolTable
 70
6
  0
LTYPE
  5
14
100
AcDbSymbolTableRecord
100
AcDbLinetypeTableRecord
  2
BYBLOCK
 70
0
  3

 72
65
 73
0
 40
0.0
  0
LTYPE
  5
15
100
AcDbSymbolTableRecord
100
AcDbLinetypeTableRecord
  2
BYLAYER
 70
0
  3

 72
65
 73
0
 40
0.0
  0
LTYPE
  5
16
100
AcDbSymbolTableRecord
100
AcDbLinetypeTableRecord
  2
CONTINUOUS
 70
64
  3
Solid line
 72
65
 73
0
 40
0.0
  0
LTYPE
  5
1F5
100
AcDbSymbolTableRecord
100
AcDbLinetypeTableRecord
  2
CENTER
 70
64
  3
____ _ ____ _ ____ _ ____ _ ____ _ ____ _ ____
 72
65
 73
4
 40
0.6
 49
0.375
 74
0
 49
-0.075
 74
0
 49
0.075
 74
0
 49
-0.075
 74
0
  0
LTYPE
  5
1F6
100
AcDbSymbolTableRecord
100
AcDbLinetypeTableRecord
  2
HIDDEN
 70
64
  3
- - - - - - - - - - - - - - - - - - - -
 72
65
 73
2
 40
0.2
 49
0.1
 74
0
 49
-0.1
 74
0
  0
LTYPE
  5
1F7
100
AcDbSymbolTableRecord
100
AcDbLinetypeTableRecord
  2
PHANTOM
 70
64
  3
_____ _ _ _____ _ _ _____ _ _ _____
 72
65
 73
6
 40
0.8
 49
0.45
 74
0
 49
-0.05
 74
0
 49
0.1
 74
0
 49
-0.05
 74
0
 49
0.1
 74
0
 49
-0.05
 74
0
  0
LTYPE
  5
1F8
100
AcDbSymbolTableRecord
100
AcDbLinetypeTableRecord
  2
DOT
 70
64
  3
. . . . . . . . . . . . . . . . . . . .
 72
65
 73
2
 40
0.2
 49
0.1
 74
0
 49
-0.1
 74
0
  0
LTYPE
  5
1F9
100
AcDbSymbolTableRecord
100
AcDbLinetypeTableRecord
  2
DASHED
 70
64
  3
- - - - - - - - - - - - - - - - - - - -
 72
65
 73
2
 40
0.2
 49
0.1
 74
0
 49
-0.1
 74
0
  0
ENDTAB
  0
TABLE
  2
LAYER
  5
2
100
AcDbSymbolTable
 70
36
  0
LAYER
  5
10
100
AcDbSymbolTableRecord
100
AcDbLayerTableRecord
  2
0
 70
0
 62
7
  6
CONTINUOUS
370
-3
390
F
  0
LAYER
  5
1FA
100
AcDbSymbolTableRecord
100
AcDbLayerTableRecord
  2
DEFAULT_1
 70
0
 62
7
  6
CENTER
370
-3
390
F
  0
LAYER
  5
1FB
100
AcDbSymbolTableRecord
100
AcDbLayerTableRecord
  2
DEFAULT_2
 70
0
 62
7
  6
HIDDEN
370
-3
390
F
  0
LAYER
  5
1FC
100
AcDbSymbolTableRecord
100
AcDbLayerTableRecord
  2
DEFAULT_3
 70
0
 62
7
  6
PHANTOM
370
-3
390
F
  0
LAYER
  5
1FD
100
AcDbSymbolTableRecord
100
AcDbLayerTableRecord
  2
ASSI
 70
0
 62
7
  6
CONTINUOUS
370
-3
390
F
  0
LAYER
  5
1FE
100
AcDbSymbolTableRecord
100
AcDbLayerTableRecord
  2
COLORI
 70
0
 62
7
  6
CONTINUOUS
370
-3
390
F
  0
LAYER
  5
1FF
100
AcDbSymbolTableRecord
100
AcDbLayerTableRecord
  2
COORDINATE
 70
0
 62
7
  6
CONTINUOUS
370
-3
390
F
  0
LAYER
  5
200
100
AcDbSymbolTableRecord
100
AcDbLayerTableRecord
  2
COPY_PUBLISH
 70
0
 62
7
  6
CONTINUOUS
370
-3
390
F
  0
LAYER
  5
201
100
AcDbSymbolTableRecord
100
AcDbLayerTableRecord
  2
COSMETICI
 70
0
 62
7
  6
CONTINUOUS
370
-3
390
F
  0
LAYER
  5
202
100
AcDbSymbolTableRecord
100
AcDbLayerTableRecord
  2
CURVE
 70
0
 62
7
  6
CONTINUOUS
370
-3
390
F
  0
LAYER
  5
203
100
AcDbSymbolTableRecord
100
AcDbLayerTableRecord
  2
DRAFT
 70
0
 62
7
  6
CONTINUOUS
370
-3
390
F
  0
LAYER
  5
204
100
AcDbSymbolTableRecord
100
AcDbLayerTableRecord
  2
IMPORT_IGES
 70
0
 62
7
  6
CONTINUOUS
370
-3
390
F
  0
LAYER
  5
205
100
AcDbSymbolTableRecord
100
AcDbLayerTableRecord
  2
NOTE
 70
0
 62
7
  6
CONTINUOUS
370
-3
390
F
  0
LAYER
  5
206
100
AcDbSymbolTableRecord
100
AcDbLayerTableRecord
  2
PIANI
 70
0
 62
7
  6
CONTINUOUS
370
-3
390
F
  0
LAYER
  5
207
100
AcDbSymbolTableRecord
100
AcDbLayerTableRecord
  2
PUNTI
 70
0
 62
7
  6
CONTINUOUS
370
-3
390
F
  0
LAYER
  5
208
100
AcDbSymbolTableRecord
100
AcDbLayerTableRecord
  2
RACCORDO
 70
0
 62
7
  6
CONTINUOUS
370
-3
390
F
  0
LAYER
  5
209
100
AcDbSymbolTableRecord
100
AcDbLayerTableRecord
  2
SCRITTE
 70
0
 62
7
  6
CONTINUOUS
370
-3
390
F
  0
LAYER
  5
20A
100
AcDbSymbolTableRecord
100
AcDbLayerTableRecord
  2
SIMBOLI
 70
0
 62
7
  6
CONTINUOUS
370
-3
390
F
  0
LAYER
  5
20B
100
AcDbSymbolTableRecord
100
AcDbLayerTableRecord
  2
SMUSSO
 70
0
 62
7
  6
CONTINUOUS
370
-3
390
F
  0
LAYER
  5
20C
100
AcDbSymbolTableRecord
100
AcDbLayerTableRecord
  2
SNAPLINE
 70
0
 62
7
  6
CONTINUOUS
370
-3
390
F
  0
LAYER
  5
20D
100
AcDbSymbolTableRecord
100
AcDbLayerTableRecord
  2
SUPERFICI
 70
0
 62
7
  6
CONTINUOUS
370
-3
390
F
  0
LAYER
  5
20E
100
AcDbSymbolTableRecord
100
AcDbLayerTableRecord
  2
TRASH
 70
0
 62
7
  6
CONTINUOUS
370
-3
390
F
  0
LAYER
  5
20F
100
AcDbSymbolTableRecord
100
AcDbLayerTableRecord
  2
XSEC_DATUMS
 70
0
 62
7
  6
CONTINUOUS
370
-3
390
F
  0
ENDTAB
  0
TABLE
  2
STYLE
  5
3
100
AcDbSymbolTable
 70
1
  0
STYLE
  5
11
100
AcDbSymbolTableRecord
100
AcDbTextStyleTableRecord
  2
STANDARD
 70
0
 40
0.0
 41
0.8
 50
0.0
 71
0
 42
0.2
  3
txt
  4

  0
STYLE
  5
210
100
AcDbSymbolTableRecord
100
AcDbTextStyleTableRecord
  2
TEXTSTYLE_1
 70
0
 40
0.0
 41
0.8
 50
0.0
 71
0
 42
0.2
  3
gdt
  4

  0
ENDTAB
  0
TABLE
  2
VIEW
  5
6
100
AcDbSymbolTable
 70
0
  0
ENDTAB
  0
TABLE
  2
UCS
  5
7
100
AcDbSymbolTable
 70
0
  0
ENDTAB
  0
TABLE
  2
APPID
  5
9
100
AcDbSymbolTable
 70
1
  0
APPID
  5
211
100
AcDbSymbolTableRecord
100
AcDbRegAppTableRecord
  2
ACAD
 70
0
  0
ENDTAB
  0
TABLE
  2
BLOCK_RECORD
  5
1
100
AcDbSymbolTable
 70
0
  0
BLOCK_RECORD
  5
212
100
AcDbSymbolTableRecord
100
AcDbBlockTableRecord
  2
*Model_Space
  0
BLOCK_RECORD
  5
213
100
AcDbSymbolTableRecord
100
AcDbBlockTableRecord
  2
*Paper_Space
  0
BLOCK_RECORD
  5
214
100
AcDbSymbolTableRecord
100
AcDbBlockTableRecord
  2
_FILLED
  0
BLOCK_RECORD
  5
215
100
AcDbSymbolTableRecord
100
AcDbBlockTableRecord
  2
*D0
  0
BLOCK_RECORD
  5
216
100
AcDbSymbolTableRecord
100
AcDbBlockTableRecord
  2
*D1
  0
BLOCK_RECORD
  5
217
100
AcDbSymbolTableRecord
100
AcDbBlockTableRecord
  2
*D2
  0
BLOCK_RECORD
  5
218
100
AcDbSymbolTableRecord
100
AcDbBlockTableRecord
  2
*D3
  0
BLOCK_RECORD
  5
219
100
AcDbSymbolTableRecord
100
AcDbBlockTableRecord
  2
*D4
  0
BLOCK_RECORD
  5
21A
100
AcDbSymbolTableRecord
100
AcDbBlockTableRecord
  2
*D5
  0
BLOCK_RECORD
  5
21B
100
AcDbSymbolTableRecord
100
AcDbBlockTableRecord
  2
*D6
  0
ENDTAB
  0
TABLE
  2
DIMSTYLE
  5
A
100
AcDbSymbolTable
 70
1
100
AcDbDimStyleTable
 71
0
  0
DIMSTYLE
105
21C
100
AcDbSymbolTableRecord
100
AcDbDimStyleTableRecord
  2
STANDARD
 70
0
  3

  4

 40
1.0
 41
3.0
 42
0.5
 43
0.38
 44
1.5
 45
0.0
 46
0.0
 47
0.01
 48
0.01
140
3.0
141
0.09
142
0.0
143
25.4
144
1.0
145
0.0
146
1.0
147
0.625
 71
1.0
 72
0.0
 73
0
 74
0
 75
0
 76
0
 77
1
 78
8
170
0
171
2
172
0
173
0
174
0
175
0
176
0
177
0
178
0
270
2
271
2
272
2
273
2
274
2
275
0
280
0
281
0
282
0
283
1
284
8
285
0
286
0
287
3
288
0
340
11
278
44
341
214
342
214
343
214
344
214
  0
DIMSTYLE
105
21D
100
AcDbSymbolTableRecord
100
AcDbDimStyleTableRecord
  2
DIMSTYLE_1
 70
0
  3

  4

 40
1.0
 41
3.0
 42
0.5
 43
0.38
 44
1.5
 45
0.0
 46
0.0
 47
0.0
 48
0.0
140
3.0
141
0.09
142
0.0
143
25.4
144
1.0
145
0.0
146
1.0
147
0.75
 71
0.0
 72
0.0
 73
0
 74
0
 75
0
 76
0
 77
1
 78
8
170
0
171
2
172
0
173
0
174
0
175
0
176
0
177
0
178
0
270
2
271
2
272
2
273
2
274
2
275
0
280
0
281
0
282
0
283
1
284
8
285
0
286
0
287
3
288
0
340
11
278
44
341
214
342
214
343
214
344
214
  0
DIMSTYLE
105
21E
100
AcDbSymbolTableRecord
100
AcDbDimStyleTableRecord
  2
DIMSTYLE_2
 70
0
  3

  4

 40
1.0
 41
3.0
 42
0.5
 43
0.38
 44
1.5
 45
0.0
 46
0.0
 47
0.0
 48
0.0
140
3.0
141
0.09
142
0.0
143
25.4
144
1.0
145
0.0
146
1.0
147
0.75
 71
0.0
 72
0.0
 73
0
 74
0
 75
0
 76
0
 77
1
 78
8
170
0
171
2
172
0
173
0
174
0
175
0
176
0
177
0
178
0
270
2
271
1
272
1
273
2
274
2
275
0
280
0
281
0
282
0
283
1
284
8
285
0
286
0
287
3
288
0
340
11
278
44
341
214
342
214
343
214
344
214
  0
ENDTAB
  0
ENDSEC
  0
SECTION
  2
BLOCKS
  0
BLOCK
  5
20
100
AcDbEntity
  8
0
100
AcDbBlockBegin
  2
*Model_Space
 70
0
 10
0.0
 20
0.0
 30
0.0
  3
*Model_Space
  1

  0
ENDBLK
  5
21
100
AcDbEntity
  8
0
100
AcDbBlockEnd
  0
BLOCK
  5
1C
100
AcDbEntity
  8
0
100
AcDbBlockBegin
  2
*Paper_Space
 70
0
 10
0.0
 20
0.0
 30
0.0
  3
*Paper_Space
  1

  0
ENDBLK
  5
1D
100
AcDbEntity
  8
0
100
AcDbBlockEnd
  0
BLOCK
  5
21F
100
AcDbEntity
  8
0
100
AcDbBlockBegin
  2
_FILLED
 70
64
 10
0.0
 20
0.0
  3
_FILLED
  1

  0
SOLID
  5
220
100
AcDbEntity
  8
0
  6
BYBLOCK
 62
0
100
AcDbTrace
 10
0.0
 20
0.0
 11
-1.0
 21
0.3166666667
 12
-1.0
 22
-0.3166666667
 13
-1.0
 23
-0.3166666667
  0
ENDBLK
  5
221
100
AcDbEntity
  8
0
  6
BYBLOCK
 62
0
100
AcDbBlockEnd
  0
BLOCK
  5
222
100
AcDbEntity
  8
0
100
AcDbBlockBegin
 62
7
  6
CONTINUOUS
  2
*D0
 70
65
 10
0.0
 20
0.0
  3
*D0
  1

  0
MTEXT
  5
223
100
AcDbEntity
  8
0
100
AcDbMText
 62
7
  6
CONTINUOUS
  7
STANDARD
 71
2
 72
1
 10
-17.7786864048
 20
1.3912567649
 30
0.0
 11
0.0
 21
1.0
 31
0.0
 44
0.9
  1
7,5
 40
3.0
 41
9.3214285714
  0
LINE
  5
224
100
AcDbEntity
  8
0
100
AcDbLine
 62
7
  6
CONTINUOUS
 10
-26.7786864048
 20
5.1412567649
 11
-12.5286864048
 21
5.1412567649
  0
LINE
  5
225
100
AcDbEntity
  8
0
100
AcDbLine
 62
7
  6
CONTINUOUS
 10
-26.7786864048
 20
-2.3587432351
 11
-12.5286864048
 21
-2.3587432351
  0
LINE
  5
226
100
AcDbEntity
  8
0
100
AcDbLine
 62
7
  6
CONTINUOUS
 10
-14.0286864048
 20
5.1412567649
 11
-14.0286864048
 21
9.1412567649
  0
LINE
  5
227
100
AcDbEntity
  8
0
100
AcDbLine
 62
7
  6
CONTINUOUS
 10
-14.0286864048
 20
9.1412567649
 11
-14.0286864048
 21
1.3912567649
  0
LINE
  5
228
100
AcDbEntity
  8
0
100
AcDbLine
 62
7
  6
CONTINUOUS
 10
-14.0286864048
 20
-2.3587432351
 11
-14.0286864048
 21
-6.3587432351
  0
LINE
  5
229
100
AcDbEntity
  8
0
100
AcDbLine
 62
7
  6
CONTINUOUS
 10
-14.0286864048
 20
-6.3587432351
 11
-14.0286864048
 21
1.3912567649
  0
INSERT
  5
22A
100
AcDbEntity
  8
0
100
AcDbBlockReference
 62
7
  6
CONTINUOUS
  2
_FILLED
 10
-14.0286864048
 20
5.1412567649
 41
3.0
 42
3.0
 43
3.0
 50
270.0
  0
INSERT
  5
22B
100
AcDbEntity
  8
0
100
AcDbBlockReference
 62
7
  6
CONTINUOUS
  2
_FILLED
 10
-14.0286864048
 20
-2.3587432351
 41
3.0
 42
3.0
 43
3.0
 50
90.0
  0
ENDBLK
  5
22C
100
AcDbEntity
  8
0
  6
BYBLOCK
 62
0
100
AcDbBlockEnd
  0
BLOCK
  5
22D
100
AcDbEntity
  8
0
100
AcDbBlockBegin
 62
7
  6
CONTINUOUS
  2
*D1
 70
65
 10
0.0
 20
0.0
  3
*D1
  1

  0
MTEXT
  5
22E
100
AcDbEntity
  8
0
100
AcDbMText
 62
7
  6
CONTINUOUS
  7
STANDARD
 71
2
 72
1
 10
-25.7786864048
 20
17.5149448186
 30
0.0
 11
1.0
 21
0.0
 31
0.0
 44
0.9
  1
7,5
 40
3.0
 41
9.3214285714
  0
LINE
  5
22F
100
AcDbEntity
  8
0
100
AcDbLine
 62
7
  6
CONTINUOUS
 10
-29.5286864048
 20
4.5901937165
 11
-29.5286864048
 21
15.2649448186
  0
LINE
  5
230
100
AcDbEntity
  8
0
100
AcDbLine
 62
7
  6
CONTINUOUS
 10
-22.0286864048
 20
5.0997851037
 11
-22.0286864048
 21
15.2649448186
  0
LINE
  5
231
100
AcDbEntity
  8
0
100
AcDbLine
 62
7
  6
CONTINUOUS
 10
-29.5286864048
 20
13.7649448186
 11
-33.5286864048
 21
13.7649448186
  0
LINE
  5
232
100
AcDbEntity
  8
0
100
AcDbLine
 62
7
  6
CONTINUOUS
 10
-33.5286864048
 20
13.7649448186
 11
-25.7786864048
 21
13.7649448186
  0
LINE
  5
233
100
AcDbEntity
  8
0
100
AcDbLine
 62
7
  6
CONTINUOUS
 10
-22.0286864048
 20
13.7649448186
 11
-18.0286864048
 21
13.7649448186
  0
LINE
  5
234
100
AcDbEntity
  8
0
100
AcDbLine
 62
7
  6
CONTINUOUS
 10
-18.0286864048
 20
13.7649448186
 11
-25.7786864048
 21
13.7649448186
  0
INSERT
  5
235
100
AcDbEntity
  8
0
100
AcDbBlockReference
 62
7
  6
CONTINUOUS
  2
_FILLED
 10
-29.5286864048
 20
13.7649448186
 41
3.0
 42
3.0
 43
3.0
  0
INSERT
  5
236
100
AcDbEntity
  8
0
100
AcDbBlockReference
 62
7
  6
CONTINUOUS
  2
_FILLED
 10
-22.0286864048
 20
13.7649448186
 41
3.0
 42
3.0
 43
3.0
 50
180.0
  0
ENDBLK
  5
237
100
AcDbEntity
  8
0
  6
BYBLOCK
 62
0
100
AcDbBlockEnd
  0
BLOCK
  5
238
100
AcDbEntity
  8
0
100
AcDbBlockBegin
 62
7
  6
CONTINUOUS
  2
*D2
 70
65
 10
0.0
 20
0.0
  3
*D2
  1

  0
MTEXT
  5
239
100
AcDbEntity
  8
0
100
AcDbMText
 62
7
  6
CONTINUOUS
  7
STANDARD
 71
2
 72
1
 10
23.8910275654
 20
-16.6611226739
 30
0.0
 11
1.0
 21
0.0
 31
0.0
 44
0.9
  1
132,6
 40
3.0
 41
15.4285714286
  0
LINE
  5
23A
100
AcDbEntity
  8
0
100
AcDbLine
 62
7
  6
CONTINUOUS
 10
55.5670089992
 20
-0.7893650584
 11
55.5670108897
 21
-21.9111198386
  0
LINE
  5
23B
100
AcDbEntity
  8
0
100
AcDbLine
 62
7
  6
CONTINUOUS
 10
-7.7849570391
 20
-0.1087432351
 11
-7.7849550876
 21
-21.9111255092
  0
LINE
  5
23C
100
AcDbEntity
  8
0
100
AcDbLine
 62
7
  6
CONTINUOUS
 10
55.5670107555
 20
-20.4111198386
 11
23.8910277668
 21
-20.4111226739
  0
LINE
  5
23D
100
AcDbEntity
  8
0
100
AcDbLine
 62
7
  6
CONTINUOUS
 10
-7.7849552218
 20
-20.4111255092
 11
23.8910277668
 21
-20.4111226739
  0
INSERT
  5
23E
100
AcDbEntity
  8
0
100
AcDbBlockReference
 62
7
  6
CONTINUOUS
  2
_FILLED
 10
55.5670107555
 20
-20.4111198386
 41
3.0
 42
3.0
 43
3.0
 50
0.0000051285
  0
INSERT
  5
23F
100
AcDbEntity
  8
0
100
AcDbBlockReference
 62
7
  6
CONTINUOUS
  2
_FILLED
 10
-7.7849552218
 20
-20.4111255092
 41
3.0
 42
3.0
 43
3.0
 50
180.0000051285
  0
ENDBLK
  5
240
100
AcDbEntity
  8
0
  6
BYBLOCK
 62
0
100
AcDbBlockEnd
  0
BLOCK
  5
241
100
AcDbEntity
  8
0
100
AcDbBlockBegin
 62
7
  6
CONTINUOUS
  2
*D3
 70
65
 10
0.0
 20
0.0
  3
*D3
  1

  0
MTEXT
  5
242
100
AcDbEntity
  8
0
100
AcDbMText
 62
7
  6
CONTINUOUS
  7
STANDARD
 71
2
 72
1
 10
-2.7849570838
 20
-6.6611243893
 30
0.0
 11
1.0
 21
0.0
 31
0.0
 44
0.9
  1
10
 40
3.0
 41
6.1071428571
  0
LINE
  5
243
100
AcDbEntity
  8
0
100
AcDbLine
 62
7
  6
CONTINUOUS
 10
2.2150429162
 20
-0.8587432351
 11
2.2150429162
 21
-11.9111243893
  0
LINE
  5
244
100
AcDbEntity
  8
0
100
AcDbLine
 62
7
  6
CONTINUOUS
 10
-7.7849570838
 20
-0.1087432351
 11
-7.7849570838
 21
-11.9111243893
  0
LINE
  5
245
100
AcDbEntity
  8
0
100
AcDbLine
 62
7
  6
CONTINUOUS
 10
2.2150429162
 20
-10.4111243893
 11
6.2150429162
 21
-10.4111243893
  0
LINE
  5
246
100
AcDbEntity
  8
0
100
AcDbLine
 62
7
  6
CONTINUOUS
 10
6.2150429162
 20
-10.4111243893
 11
-2.7849570838
 21
-10.4111243893
  0
LINE
  5
247
100
AcDbEntity
  8
0
100
AcDbLine
 62
7
  6
CONTINUOUS
 10
-7.7849570838
 20
-10.4111243893
 11
-11.7849570838
 21
-10.4111243893
  0
LINE
  5
248
100
AcDbEntity
  8
0
100
AcDbLine
 62
7
  6
CONTINUOUS
 10
-11.7849570838
 20
-10.4111243893
 11
-2.7849570838
 21
-10.4111243893
  0
INSERT
  5
249
100
AcDbEntity
  8
0
100
AcDbBlockReference
 62
7
  6
CONTINUOUS
  2
_FILLED
 10
2.2150429162
 20
-10.4111243893
 41
3.0
 42
3.0
 43
3.0
 50
180.0
  0
INSERT
  5
24A
100
AcDbEntity
  8
0
100
AcDbBlockReference
 62
7
  6
CONTINUOUS
  2
_FILLED
 10
-7.7849570838
 20
-10.4111243893
 41
3.0
 42
3.0
 43
3.0
  0
ENDBLK
  5
24B
100
AcDbEntity
  8
0
  6
BYBLOCK
 62
0
100
AcDbBlockEnd
  0
BLOCK
  5
24C
100
AcDbEntity
  8
0
100
AcDbBlockBegin
 62
7
  6
CONTINUOUS
  2
*D4
 70
65
 10
0.0
 20
0.0
  3
*D4
  1

  0
MTEXT
  5
24D
100
AcDbEntity
  8
0
100
AcDbMText
 62
7
  6
CONTINUOUS
  7
STANDARD
 71
2
 72
1
 10
38.2739322585
 20
-6.6611243893
 30
0.0
 11
1.0
 21
0.0
 31
0.0
 44
0.9
  1
34,6
 40
3.0
 41
12.8571428571
  0
LINE
  5
24E
100
AcDbEntity
  8
0
100
AcDbLine
 62
7
  6
CONTINUOUS
 10
55.5670089992
 20
-0.7893588637
 11
55.5670099947
 21
-11.9111228415
  0
LINE
  5
24F
100
AcDbEntity
  8
0
100
AcDbLine
 62
7
  6
CONTINUOUS
 10
20.9808542374
 20
-1.2266056367
 11
20.9808551937
 21
-11.9111259372
  0
LINE
  5
250
100
AcDbEntity
  8
0
100
AcDbLine
 62
7
  6
CONTINUOUS
 10
55.5670098604
 20
-10.4111228415
 11
38.2739324599
 21
-10.4111243893
  0
LINE
  5
251
100
AcDbEntity
  8
0
100
AcDbLine
 62
7
  6
CONTINUOUS
 10
20.9808550595
 20
-10.4111259372
 11
38.2739324599
 21
-10.4111243893
  0
INSERT
  5
252
100
AcDbEntity
  8
0
100
AcDbBlockReference
 62
7
  6
CONTINUOUS
  2
_FILLED
 10
55.5670098604
 20
-10.4111228415
 41
3.0
 42
3.0
 43
3.0
 50
0.0000051285
  0
INSERT
  5
253
100
AcDbEntity
  8
0
100
AcDbBlockReference
 62
7
  6
CONTINUOUS
  2
_FILLED
 10
20.9808550595
 20
-10.4111259372
 41
3.0
 42
3.0
 43
3.0
 50
180.0000051285
  0
ENDBLK
  5
254
100
AcDbEntity
  8
0
  6
BYBLOCK
 62
0
100
AcDbBlockEnd
  0
BLOCK
  5
255
100
AcDbEntity
  8
0
100
AcDbBlockBegin
 62
7
  6
CONTINUOUS
  2
*D5
 70
65
 10
0.0
 20
0.0
  3
*D5
  1

  0
MTEXT
  5
256
100
AcDbEntity
  8
0
100
AcDbMText
 62
7
  6
CONTINUOUS
  7
STANDARD
 71
2
 72
1
 10
31.2232900116
 20
17.5149448186
 30
0.0
 11
1.0
 21
0.0
 31
0.0
 44
0.9
  1
20,5
 40
3.0
 41
12.8571428571
  0
LINE
  5
257
100
AcDbEntity
  8
0
100
AcDbLine
 62
7
  6
CONTINUOUS
 10
41.4657258307
 20
4.9997889049
 11
41.4657258307
 21
15.2649448186
  0
LINE
  5
258
100
AcDbEntity
  8
0
100
AcDbLine
 62
7
  6
CONTINUOUS
 10
20.9808541926
 20
4.0091191666
 11
20.9808541926
 21
15.2649448186
  0
LINE
  5
259
100
AcDbEntity
  8
0
100
AcDbLine
 62
7
  6
CONTINUOUS
 10
41.4657258307
 20
13.7649448186
 11
31.2232900116
 21
13.7649448186
  0
LINE
  5
25A
100
AcDbEntity
  8
0
100
AcDbLine
 62
7
  6
CONTINUOUS
 10
20.9808541926
 20
13.7649448186
 11
31.2232900116
 21
13.7649448186
  0
INSERT
  5
25B
100
AcDbEntity
  8
0
100
AcDbBlockReference
 62
7
  6
CONTINUOUS
  2
_FILLED
 10
41.4657258307
 20
13.7649448186
 41
3.0
 42
3.0
 43
3.0
 50
0.0
  0
INSERT
  5
25C
100
AcDbEntity
  8
0
100
AcDbBlockReference
 62
7
  6
CONTINUOUS
  2
_FILLED
 10
20.9808541926
 20
13.7649448186
 41
3.0
 42
3.0
 43
3.0
 50
180.0
  0
ENDBLK
  5
25D
100
AcDbEntity
  8
0
  6
BYBLOCK
 62
0
100
AcDbBlockEnd
  0
BLOCK
  5
25E
100
AcDbEntity
  8
0
100
AcDbBlockBegin
 62
7
  6
CONTINUOUS
  2
*D6
 70
65
 10
0.0
 20
0.0
  3
*D6
  1

  0
MTEXT
  5
25F
100
AcDbEntity
  8
0
100
AcDbMText
 62
7
  6
CONTINUOUS
  7
STANDARD
 71
1
 72
1
 10
59.8606972205
 20
10.0058626105
 30
0.0
 11
0.0
 21
1.0
 31
0.0
 44
0.9
  1
5,8
 40
3.0
 41
9.3214285714
  0
LINE
  5
260
100
AcDbEntity
  8
0
100
AcDbLine
 62
7
  6
CONTINUOUS
 10
56.0072317608
 20
4.2912567649
 11
65.1106972205
 21
4.2912567649
  0
LINE
  5
261
100
AcDbEntity
  8
0
100
AcDbLine
 62
7
  6
CONTINUOUS
 10
56.0072317608
 20
-1.5087432351
 11
65.1106972205
 21
-1.5087432351
  0
LINE
  5
262
100
AcDbEntity
  8
0
100
AcDbLine
 62
7
  6
CONTINUOUS
 10
63.6106972205
 20
4.2912567649
 11
63.6106972205
 21
16.2201483248
  0
LINE
  5
263
100
AcDbEntity
  8
0
100
AcDbLine
 62
7
  6
CONTINUOUS
 10
63.6106972205
 20
16.2201483248
 11
63.6106972205
 21
1.3912567649
  0
LINE
  5
264
100
AcDbEntity
  8
0
100
AcDbLine
 62
7
  6
CONTINUOUS
 10
63.6106972205
 20
-1.5087432351
 11
63.6106972205
 21
-5.5087432351
  0
LINE
  5
265
100
AcDbEntity
  8
0
100
AcDbLine
 62
7
  6
CONTINUOUS
 10
63.6106972205
 20
-5.5087432351
 11
63.6106972205
 21
1.3912567649
  0
INSERT
  5
266
100
AcDbEntity
  8
0
100
AcDbBlockReference
 62
7
  6
CONTINUOUS
  2
_FILLED
 10
63.6106972205
 20
4.2912567649
 41
3.0
 42
3.0
 43
3.0
 50
270.0
  0
INSERT
  5
267
100
AcDbEntity
  8
0
100
AcDbBlockReference
 62
7
  6
CONTINUOUS
  2
_FILLED
 10
63.6106972205
 20
-1.5087432351
 41
3.0
 42
3.0
 43
3.0
 50
90.0
  0
ENDBLK
  5
268
100
AcDbEntity
  8
0
  6
BYBLOCK
 62
0
100
AcDbBlockEnd
  0
ENDSEC
  0
SECTION
  2
ENTITIES
  0
DIMENSION
  5
269
100
AcDbEntity
  8
0
100
AcDbDimension
 62
7
  6
CONTINUOUS
  2
*D0
 10
-14.0286864048
 20
-2.3587432351
 11
-14.0286864048
 21
0.9626853062
 70
160
 71
2
 42
7.5
  3
DIMSTYLE_1
100
AcDbAlignedDimension
 13
-27.2786864048
 23
5.1412567649
 14
-27.2786864048
 24
-2.3587432351
 50
270.0
100
AcDbRotatedDimension
  0
DIMENSION
  5
26A
100
AcDbEntity
  8
0
100
AcDbDimension
 62
7
  6
CONTINUOUS
  2
*D1
 10
-22.0286864048
 20
13.7649448186
 11
-26.2072578392
 21
13.7649448186
 70
160
 71
2
 42
7.5
  3
DIMSTYLE_1
100
AcDbAlignedDimension
 13
-29.5286864048
 23
4.0901937165
 14
-22.0286864048
 24
4.5997851037
100
AcDbRotatedDimension
  0
DIMENSION
  5
26B
100
AcDbEntity
  8
0
100
AcDbDimension
 62
7
  6
CONTINUOUS
  2
*D2
 10
-7.7849552218
 20
-20.4111255092
 11
23.4624563686
 21
-20.4111227123
 70
160
 71
2
 42
132.5597923632
  3
DIMSTYLE_2
100
AcDbAlignedDimension
 13
55.5670089544
 23
-0.2893650584
 14
-7.7849570838
 24
0.3912567649
 50
180.0000051285
100
AcDbRotatedDimension
  0
DIMENSION
  5
26C
100
AcDbEntity
  8
0
100
AcDbDimension
 62
7
  6
CONTINUOUS
  2
*D3
 10
-7.7849570838
 20
-10.4111243893
 11
-3.2135284381
 21
-10.4111243893
 70
160
 71
2
 42
10.0
  3
DIMSTYLE_1
100
AcDbAlignedDimension
 13
2.2150429162
 23
-0.3587432351
 14
-7.7849570838
 24
0.3912567649
 50
180.0
100
AcDbRotatedDimension
  0
DIMENSION
  5
26D
100
AcDbEntity
  8
0
100
AcDbDimension
 62
7
  6
CONTINUOUS
  2
*D4
 10
20.9808550595
 20
-10.4111259372
 11
37.845362054
 21
-10.4111244277
 70
160
 71
2
 42
34.5861548009
  3
DIMSTYLE_2
100
AcDbAlignedDimension
 13
55.5670089544
 23
-0.2893588637
 14
20.9808541926
 24
-0.7266056367
 50
180.0000051285
100
AcDbRotatedDimension
  0
DIMENSION
  5
26E
100
AcDbEntity
  8
0
100
AcDbDimension
 62
7
  6
CONTINUOUS
  2
*D5
 10
20.9808541926
 20
13.7649448186
 11
30.7947184525
 21
13.7649448186
 70
160
 71
2
 42
20.484871638
  3
DIMSTYLE_2
100
AcDbAlignedDimension
 13
41.4657258307
 23
4.4997889049
 14
20.9808541926
 24
3.5091191666
 50
180.0
100
AcDbRotatedDimension
  0
DIMENSION
  5
26F
100
AcDbEntity
  8
0
100
AcDbDimension
 62
7
  6
CONTINUOUS
  2
*D6
 10
63.6106972205
 20
-1.5087432351
 11
63.6106972205
 21
12.6844335555
 70
160
 71
1
 42
5.8
  3
DIMSTYLE_1
100
AcDbAlignedDimension
 13
55.5072317608
 23
4.2912567649
 14
55.5072317608
 24
-1.5087432351
 50
270.0
100
AcDbRotatedDimension
  0
LINE
  5
270
100
AcDbEntity
  8
0
100
AcDbLine
 62
7
  6
CONTINUOUS
 10
-7.7849570838
 20
-0.0087432351
 11
-7.7849570838
 21
0.7912567649
  0
LINE
  5
271
100
AcDbEntity
  8
0
100
AcDbLine
 62
7
  6
CONTINUOUS
 10
-7.7849570838
 20
1.9912567649
 11
-7.7849570838
 21
2.7912567649
  0
LINE
  5
272
100
AcDbEntity
  8
0
100
AcDbLine
 62
7
  6
CONTINUOUS
 10
4.7258792174
 20
-0.3587432351
 11
2.2150429162
 21
-0.3587432351
  0
LINE
  5
273
100
AcDbEntity
  8
0
100
AcDbLine
 62
7
  6
CONTINUOUS
 10
2.2150429162
 20
-0.0087432351
 11
-7.7849570838
 21
-0.0087432351
  0
LINE
  5
274
100
AcDbEntity
  8
0
100
AcDbLine
 62
7
  6
CONTINUOUS
 10
2.2150429162
 20
0.7912567649
 11
-7.7849570838
 21
0.7912567649
  0
LINE
  5
275
100
AcDbEntity
  8
0
100
AcDbLine
 62
7
  6
CONTINUOUS
 10
4.7258792174
 20
1.1412567649
 11
2.2150429162
 21
1.1412567649
  0
LINE
  5
276
100
AcDbEntity
  8
0
100
AcDbLine
 62
7
  6
CONTINUOUS
 10
4.7258792174
 20
1.6412567649
 11
2.2150429162
 21
1.6412567649
  0
LINE
  5
277
100
AcDbEntity
  8
0
100
AcDbLine
 62
7
  6
CONTINUOUS
 10
2.2150429162
 20
1.9912567649
 11
-7.7849570838
 21
1.9912567649
  0
LINE
  5
278
100
AcDbEntity
  8
0
100
AcDbLine
 62
7
  6
CONTINUOUS
 10
2.2150429162
 20
2.7912567649
 11
-7.7849570838
 21
2.7912567649
  0
LINE
  5
279
100
AcDbEntity
  8
0
100
AcDbLine
 62
7
  6
CONTINUOUS
 10
4.7258792174
 20
3.1412567649
 11
2.2150429162
 21
3.1412567649
  0
LINE
  5
27A
100
AcDbEntity
  8
0
100
AcDbLine
 62
7
  6
CONTINUOUS
 10
2.2150429162
 20
-0.3587432351
 11
2.2150429162
 21
1.1412567649
  0
LINE
  5
27B
100
AcDbEntity
  8
0
100
AcDbLine
 62
7
  6
CONTINUOUS
 10
2.2150429162
 20
1.6412567649
 11
2.2150429162
 21
3.1412567649
  0
LINE
  5
27C
100
AcDbEntity
  8
0
100
AcDbLine
 62
7
  6
CONTINUOUS
 10
4.7258792174
 20
-0.3587432351
 11
4.7258792174
 21
1.1412567649
  0
LINE
  5
27D
100
AcDbEntity
  8
0
100
AcDbLine
 62
7
  6
CONTINUOUS
 10
4.7258792174
 20
1.6412567649
 11
4.7258792174
 21
3.1412567649
  0
LINE
  5
27E
100
AcDbEntity
  8
0
100
AcDbLine
 62
7
  6
CONTINUOUS
 10
7.7260812174
 20
3.1412567649
 11
7.7260812174
 21
1.6412567649
  0
LINE
  5
27F
100
AcDbEntity
  8
0
100
AcDbLine
 62
7
  6
CONTINUOUS
 10
7.7260812174
 20
1.1412567649
 11
7.7260812174
 21
-0.3587432351
  0
LWPOLYLINE
  5
280
100
AcDbEntity
  8
0
100
AcDbPolyline
 62
7
  6
CONTINUOUS
 90
24
 70
0
 10
19.4449844555
 20
2.1816123693
 10
19.440030516
 20
2.2288193293
 10
19.4363945296
 20
2.2741935526
 10
19.4339405612
 20
2.3175251102
 10
19.4328045459
 20
2.3589300204
 10
19.4325458849
 20
2.3989706744
 10
19.4330672963
 20
2.4376003256
 10
19.4344660619
 20
2.4748189302
 10
19.4365934287
 20
2.5112662084
 10
19.4393747646
 20
2.5469323436
 10
19.4428847016
 20
2.5817976461
 10
19.4471983827
 20
2.6164839051
 10
19.4522861852
 20
2.651158337
 10
19.4581777319
 20
2.6856209663
 10
19.465037034
 20
2.7199377419
 10
19.4728714684
 20
2.7542183815
 10
19.4816736583
 20
2.7883192261
 10
19.4915854849
 20
2.8219301115
 10
19.5026176096
 20
2.8550618164
 10
19.514759371
 20
2.8876828371
 10
19.5281206671
 20
2.9194328181
 10
19.5427381305
 20
2.9501952714
 10
19.5585751286
 20
2.9800895288
 10
19.5756316614
 20
3.0091183054
  0
LWPOLYLINE
  5
281
100
AcDbEntity
  8
RACCORDO
100
AcDbPolyline
 62
7
  6
CONTINUOUS
 90
6
 70
0
 10
19.0167920616
 20
3.7725818311
 10
19.0166903261
 20
3.7759482538
 10
19.016587384
 20
3.7785970468
 10
19.0164836056
 20
3.7805159496
 10
19.0163786206
 20
3.7817172228
 10
19.0162724289
 20
3.7822008663
  0
LWPOLYLINE
  5
282
100
AcDbEntity
  8
ASSI
100
AcDbPolyline
 62
7
  6
CONTINUOUS
 90
6
 70
0
 10
19.0167920616
 20
3.7725818311
 10
19.0166903261
 20
3.7759482538
 10
19.016587384
 20
3.7785970468
 10
19.0164836056
 20
3.7805159496
 10
19.0163786206
 20
3.7817172228
 10
19.0162724289
 20
3.7822008663
  0
LINE
  5
283
100
AcDbEntity
  8
DRAFT
100
AcDbLine
 62
7
  6
CONTINUOUS
 10
19.0072165303
 20
3.4486733139
 11
19.0080950378
 21
3.4144928732
  0
LINE
  5
284
100
AcDbEntity
  8
ASSI
100
AcDbLine
 62
7
  6
CONTINUOUS
 10
19.0072165303
 20
3.4486733139
 11
19.0080950378
 21
3.4144928732
  0
LINE
  5
285
100
AcDbEntity
  8
RACCORDO
100
AcDbLine
 62
7
  6
CONTINUOUS
 10
19.0169882084
 20
3.7638187021
 11
19.0167920616
 21
3.7725818311
  0
LINE
  5
286
100
AcDbEntity
  8
ASSI
100
AcDbLine
 62
7
  6
CONTINUOUS
 10
19.0169882084
 20
3.7638187021
 11
19.0167920616
 21
3.7725818311
  0
LINE
  5
287
100
AcDbEntity
  8
DRAFT
100
AcDbLine
 62
7
  6
CONTINUOUS
 10
19.0080950378
 20
3.4144928732
 11
19.009713567
 21
3.3209294493
  0
LINE
  5
288
100
AcDbEntity
  8
ASSI
100
AcDbLine
 62
7
  6
CONTINUOUS
 10
19.0080950378
 20
3.4144928732
 11
19.009713567
 21
3.3209294493
  0
LINE
  5
289
100
AcDbEntity
  8
RACCORDO
100
AcDbLine
 62
7
  6
CONTINUOUS
 10
19.0177247078
 20
3.7113066183
 11
19.0169882084
 21
3.7638187021
  0
LINE
  5
28A
100
AcDbEntity
  8
ASSI
100
AcDbLine
 62
7
  6
CONTINUOUS
 10
19.0177247078
 20
3.7113066183
 11
19.0169882084
 21
3.7638187021
  0
LINE
  5
28B
100
AcDbEntity
  8
DRAFT
100
AcDbLine
 62
7
  6
CONTINUOUS
 10
19.009713567
 20
3.3209294493
 11
19.0115945151
 21
3.1412567649
  0
LINE
  5
28C
100
AcDbEntity
  8
ASSI
100
AcDbLine
 62
7
  6
CONTINUOUS
 10
19.009713567
 20
3.3209294493
 11
19.0115945151
 21
3.1412567649
  0
LINE
  5
28D
100
AcDbEntity
  8
DRAFT
100
AcDbLine
 62
7
  6
CONTINUOUS
 10
19.0098259755
 20
1.312675674
 11
19.0115928107
 21
1.1412567649
  0
LINE
  5
28E
100
AcDbEntity
  8
ASSI
100
AcDbLine
 62
7
  6
CONTINUOUS
 10
19.0098259755
 20
1.312675674
 11
19.0115928107
 21
1.1412567649
  0
LINE
  5
28F
100
AcDbEntity
  8
DRAFT
100
AcDbLine
 62
7
  6
CONTINUOUS
 10
19.0171019785
 20
1.1078470652
 11
19.0150597025
 21
1.312526822
  0
LINE
  5
290
100
AcDbEntity
  8
ASSI
100
AcDbLine
 62
7
  6
CONTINUOUS
 10
19.0171019785
 20
1.1078470652
 11
19.0150597025
 21
1.312526822
  0
LINE
  5
291
100
AcDbEntity
  8
RACCORDO
100
AcDbLine
 62
7
  6
CONTINUOUS
 10
19.0201836502
 20
3.4653504863
 11
19.0177247078
 21
3.7113066183
  0
LINE
  5
292
100
AcDbEntity
  8
ASSI
100
AcDbLine
 62
7
  6
CONTINUOUS
 10
19.0201836502
 20
3.4653504863
 11
19.0177247078
 21
3.7113066183
  0
LINE
  5
293
100
AcDbEntity
  8
RACCORDO
100
AcDbLine
 62
7
  6
CONTINUOUS
 10
19.022900172
 20
2.9555780598
 11
19.0201836502
 21
3.4653504863
  0
LINE
  5
294
100
AcDbEntity
  8
ASSI
100
AcDbLine
 62
7
  6
CONTINUOUS
 10
19.022900172
 20
2.9555780598
 11
19.0201836502
 21
3.4653504863
  0
LINE
  5
295
100
AcDbEntity
  8
DRAFT
100
AcDbLine
 62
7
  6
CONTINUOUS
 10
19.0191519954
 20
0.6490332665
 11
19.0171019785
 21
1.1078470652
  0
LINE
  5
296
100
AcDbEntity
  8
ASSI
100
AcDbLine
 62
7
  6
CONTINUOUS
 10
19.0191519954
 20
0.6490332665
 11
19.0171019785
 21
1.1078470652
  0
LINE
  5
297
100
AcDbEntity
  8
RACCORDO
100
AcDbLine
 62
7
  6
CONTINUOUS
 10
19.0235079348
 20
0.7153977654
 11
19.020734445
 21
1.3912567649
  0
LINE
  5
298
100
AcDbEntity
  8
ASSI
100
AcDbLine
 62
7
  6
CONTINUOUS
 10
19.0235079348
 20
0.7153977654
 11
19.020734445
 21
1.3912567649
  0
LINE
  5
299
100
AcDbEntity
  8
DRAFT
100
AcDbLine
 62
7
  6
CONTINUOUS
 10
19.0072165303
 20
-1.0087432351
 11
19.0072165303
 21
-0.7077532799
  0
LINE
  5
29A
100
AcDbEntity
  8
ASSI
100
AcDbLine
 62
7
  6
CONTINUOUS
 10
19.0072165303
 20
-1.0087432351
 11
19.0072165303
 21
-0.7077532799
  0
LINE
  5
29B
100
AcDbEntity
  8
DRAFT
100
AcDbLine
 62
7
  6
CONTINUOUS
 10
19.0072165303
 20
3.4902668097
 11
19.0072165303
 21
3.7912567649
  0
LINE
  5
29C
100
AcDbEntity
  8
ASSI
100
AcDbLine
 62
7
  6
CONTINUOUS
 10
19.0072165303
 20
3.4902668097
 11
19.0072165303
 21
3.7912567649
  0
LINE
  5
29D
100
AcDbEntity
  8
DRAFT
100
AcDbLine
 62
7
  6
CONTINUOUS
 10
19.0098259755
 20
1.4698378558
 11
19.0098259755
 21
1.312675674
  0
LINE
  5
29E
100
AcDbEntity
  8
ASSI
100
AcDbLine
 62
7
  6
CONTINUOUS
 10
19.0098259755
 20
1.4698378558
 11
19.0098259755
 21
1.312675674
  0
LINE
  5
29F
100
AcDbEntity
  8
DRAFT
100
AcDbLine
 62
7
  6
CONTINUOUS
 10
19.0150597025
 20
1.312526822
 11
19.0150597025
 21
1.4699867078
  0
LINE
  5
2A0
100
AcDbEntity
  8
ASSI
100
AcDbLine
 62
7
  6
CONTINUOUS
 10
19.0150597025
 20
1.312526822
 11
19.0150597025
 21
1.4699867078
  0
LINE
  5
2A1
100
AcDbEntity
  8
RACCORDO
100
AcDbLine
 62
7
  6
CONTINUOUS
 10
19.023625557
 20
2.1409555973
 11
19.022900172
 21
2.9555780598
  0
LINE
  5
2A2
100
AcDbEntity
  8
ASSI
100
AcDbLine
 62
7
  6
CONTINUOUS
 10
19.023625557
 20
2.1409555973
 11
19.022900172
 21
2.9555780598
  0
LINE
  5
2A3
100
AcDbEntity
  8
DRAFT
100
AcDbLine
 62
7
  6
CONTINUOUS
 10
19.0188974039
 20
0.0335407816
 11
19.0191519954
 21
0.6490332665
  0
LINE
  5
2A4
100
AcDbEntity
  8
ASSI
100
AcDbLine
 62
7
  6
CONTINUOUS
 10
19.0188974039
 20
0.0335407816
 11
19.0191519954
 21
0.6490332665
  0
LINE
  5
2A5
100
AcDbEntity
  8
RACCORDO
100
AcDbLine
 62
7
  6
CONTINUOUS
 10
19.023117613
 20
-0.1019587201
 11
19.0235079348
 21
0.7153977654
  0
LINE
  5
2A6
100
AcDbEntity
  8
ASSI
100
AcDbLine
 62
7
  6
CONTINUOUS
 10
19.023117613
 20
-0.1019587201
 11
19.0235079348
 21
0.7153977654
  0
LINE
  5
2A7
100
AcDbEntity
  8
RACCORDO
100
AcDbLine
 62
7
  6
CONTINUOUS
 10
19.0215078954
 20
1.5133475071
 11
19.023625557
 21
2.1409555973
  0
LINE
  5
2A8
100
AcDbEntity
  8
ASSI
100
AcDbLine
 62
7
  6
CONTINUOUS
 10
19.0215078954
 20
1.5133475071
 11
19.023625557
 21
2.1409555973
  0
LINE
  5
2A9
100
AcDbEntity
  8
RACCORDO
100
AcDbLine
 62
7
  6
CONTINUOUS
 10
19.020734445
 20
1.3912567649
 11
19.0215078954
 21
1.5133475071
  0
LINE
  5
2AA
100
AcDbEntity
  8
ASSI
100
AcDbLine
 62
7
  6
CONTINUOUS
 10
19.020734445
 20
1.3912567649
 11
19.0215078954
 21
1.5133475071
  0
LINE
  5
2AB
100
AcDbEntity
  8
DRAFT
100
AcDbLine
 62
7
  6
CONTINUOUS
 10
19.0171006692
 20
-0.3255079567
 11
19.0188974039
 21
0.0335407816
  0
LINE
  5
2AC
100
AcDbEntity
  8
ASSI
100
AcDbLine
 62
7
  6
CONTINUOUS
 10
19.0171006692
 20
-0.3255079567
 11
19.0188974039
 21
0.0335407816
  0
LINE
  5
2AD
100
AcDbEntity
  8
RACCORDO
100
AcDbLine
 62
7
  6
CONTINUOUS
 10
19.0206130841
 20
-0.6258505815
 11
19.023117613
 21
-0.1019587201
  0
LINE
  5
2AE
100
AcDbEntity
  8
ASSI
100
AcDbLine
 62
7
  6
CONTINUOUS
 10
19.0206130841
 20
-0.6258505815
 11
19.023117613
 21
-0.1019587201
  0
LINE
  5
2AF
100
AcDbEntity
  8
RACCORDO
100
AcDbLine
 62
7
  6
CONTINUOUS
 10
19.0182555791
 20
-0.8850157527
 11
19.0206130841
 21
-0.6258505815
  0
LINE
  5
2B0
100
AcDbEntity
  8
ASSI
100
AcDbLine
 62
7
  6
CONTINUOUS
 10
19.0182555791
 20
-0.8850157527
 11
19.0206130841
 21
-0.6258505815
  0
LINE
  5
2B1
100
AcDbEntity
  8
DRAFT
100
AcDbLine
 62
7
  6
CONTINUOUS
 10
19.0115928107
 20
1.6412567649
 11
19.0098259755
 21
1.4698378558
  0
LINE
  5
2B2
100
AcDbEntity
  8
ASSI
100
AcDbLine
 62
7
  6
CONTINUOUS
 10
19.0115928107
 20
1.6412567649
 11
19.0098259755
 21
1.4698378558
  0
LINE
  5
2B3
100
AcDbEntity
  8
DRAFT
100
AcDbLine
 62
7
  6
CONTINUOUS
 10
19.0150553935
 20
-0.5303342789
 11
19.0171006692
 21
-0.3255079567
  0
LINE
  5
2B4
100
AcDbEntity
  8
ASSI
100
AcDbLine
 62
7
  6
CONTINUOUS
 10
19.0150553935
 20
-0.5303342789
 11
19.0171006692
 21
-0.3255079567
  0
LINE
  5
2B5
100
AcDbEntity
  8
DRAFT
100
AcDbLine
 62
7
  6
CONTINUOUS
 10
19.0115945151
 20
-0.3587432351
 11
19.009713567
 21
-0.5384159195
  0
LINE
  5
2B6
100
AcDbEntity
  8
ASSI
100
AcDbLine
 62
7
  6
CONTINUOUS
 10
19.0115945151
 20
-0.3587432351
 11
19.009713567
 21
-0.5384159195
  0
LINE
  5
2B7
100
AcDbEntity
  8
RACCORDO
100
AcDbLine
 62
7
  6
CONTINUOUS
 10
19.0170826197
 20
-0.9759084659
 11
19.0182555791
 21
-0.8850157527
  0
LINE
  5
2B8
100
AcDbEntity
  8
ASSI
100
AcDbLine
 62
7
  6
CONTINUOUS
 10
19.0170826197
 20
-0.9759084659
 11
19.0182555791
 21
-0.8850157527
  0
LINE
  5
2B9
100
AcDbEntity
  8
DRAFT
100
AcDbLine
 62
7
  6
CONTINUOUS
 10
19.009713567
 20
-0.5384159195
 11
19.0080950378
 21
-0.6319793434
  0
LINE
  5
2BA
100
AcDbEntity
  8
ASSI
100
AcDbLine
 62
7
  6
CONTINUOUS
 10
19.009713567
 20
-0.5384159195
 11
19.0080950378
 21
-0.6319793434
  0
LINE
  5
2BB
100
AcDbEntity
  8
DRAFT
100
AcDbLine
 62
7
  6
CONTINUOUS
 10
19.0080950378
 20
-0.6319793434
 11
19.0072165303
 21
-0.6661597841
  0
LINE
  5
2BC
100
AcDbEntity
  8
ASSI
100
AcDbLine
 62
7
  6
CONTINUOUS
 10
19.0080950378
 20
-0.6319793434
 11
19.0072165303
 21
-0.6661597841
  0
LWPOLYLINE
  5
2BD
100
AcDbEntity
  8
DRAFT
100
AcDbPolyline
 62
7
  6
CONTINUOUS
 90
6
 70
0
 10
19.0098345907
 20
-0.7077532799
 10
19.0108100946
 20
-0.7018984541
 10
19.0117114422
 20
-0.6863026557
 10
19.0125889231
 20
-0.6613105334
 10
19.0134425908
 20
-0.6266511855
 10
19.0150553935
 20
-0.5303342789
  0
LWPOLYLINE
  5
2BE
100
AcDbEntity
  8
ASSI
100
AcDbPolyline
 62
7
  6
CONTINUOUS
 90
6
 70
0
 10
19.0098345907
 20
-0.7077532799
 10
19.0108100946
 20
-0.7018984541
 10
19.0117114422
 20
-0.6863026557
 10
19.0125889231
 20
-0.6613105334
 10
19.0134425908
 20
-0.6266511855
 10
19.0150553935
 20
-0.5303342789
  0
LWPOLYLINE
  5
2BF
100
AcDbEntity
  8
RACCORDO
100
AcDbPolyline
 62
7
  6
CONTINUOUS
 90
8
 70
0
 10
19.0162724289
 20
-0.9996873365
 10
19.0163786206
 20
-0.999203693
 10
19.0164836056
 20
-0.9980024198
 10
19.016587384
 20
-0.996083517
 10
19.0166903261
 20
-0.993434724
 10
19.0167920616
 20
-0.9900683013
 10
19.0168914792
 20
-0.9860210306
 10
19.0170826197
 20
-0.9759084659
  0
LWPOLYLINE
  5
2C0
100
AcDbEntity
  8
ASSI
100
AcDbPolyline
 62
7
  6
CONTINUOUS
 90
8
 70
0
 10
19.0162724289
 20
-0.9996873365
 10
19.0163786206
 20
-0.999203693
 10
19.0164836056
 20
-0.9980024198
 10
19.016587384
 20
-0.996083517
 10
19.0166903261
 20
-0.993434724
 10
19.0167920616
 20
-0.9900683013
 10
19.0168914792
 20
-0.9860210306
 10
19.0170826197
 20
-0.9759084659
  0
LWPOLYLINE
  5
2C1
100
AcDbEntity
  8
0
100
AcDbPolyline
 62
7
  6
CONTINUOUS
 90
5
 70
0
 10
19.4643594986
 20
0.7177394786
 10
19.4840425701
 20
0.7966673018
 10
19.5093033255
 20
0.8711687938
 10
19.5398330226
 20
0.9419966731
 10
19.5756316614
 20
1.0091183054
  0
LWPOLYLINE
  5
2C2
100
AcDbEntity
  8
RACCORDO
100
AcDbPolyline
 62
253
  6
CONTINUOUS
 90
9
 70
0
 10
20.8144827777
 20
-0.7920429317
 10
20.8175249246
 20
-0.8267648546
 10
20.8265486722
 20
-0.8604329312
 10
20.8412803373
 20
-0.8920243957
 10
20.8612728516
 20
-0.9205794885
 10
20.8859192183
 20
-0.9452304766
 10
20.9144708536
 20
-0.9652280997
 10
20.9460604918
 20
-0.9799645335
 10
20.9787756036
 20
-0.9887362835
  0
LWPOLYLINE
  5
2C3
100
AcDbEntity
  8
ASSI
100
AcDbPolyline
 62
253
  6
CONTINUOUS
 90
9
 70
0
 10
20.8144827777
 20
-0.7920429317
 10
20.8175249246
 20
-0.8267648546
 10
20.8265486722
 20
-0.8604329312
 10
20.8412803373
 20
-0.8920243957
 10
20.8612728516
 20
-0.9205794885
 10
20.8859192183
 20
-0.9452304766
 10
20.9144708536
 20
-0.9652280997
 10
20.9460604918
 20
-0.9799645335
 10
20.9787756036
 20
-0.9887362835
  0
LWPOLYLINE
  5
2C4
100
AcDbEntity
  8
RACCORDO
100
AcDbPolyline
 62
7
  6
CONTINUOUS
 90
4
 70
0
 10
21.9882939094
 20
-1.0761259739
 10
21.9879007035
 20
-1.0705973413
 10
21.9875277298
 20
-1.0600402403
 10
21.9871749883
 20
-1.0444546709
  0
LWPOLYLINE
  5
2C5
100
AcDbEntity
  8
RACCORDO
100
AcDbPolyline
 62
253
  6
CONTINUOUS
 90
16
 70
0
 10
21.0176926087
 20
-1.6483585396
 10
21.0210175287
 20
-1.7112503905
 10
21.0309172875
 20
-1.7734489035
 10
21.0472827141
 20
-1.834268611
 10
21.0699364706
 20
-1.8930461598
 10
21.0986271944
 20
-1.9491262529
 10
21.1330251801
 20
-2.0018724018
 10
21.1727357964
 20
-2.0506967865
 10
21.2173238275
 20
-2.0950792865
 10
21.2663107955
 20
-2.1345491805
 10
21.3192367848
 20
-2.1687184447
 10
21.3754500743
 20
-2.1971501352
 10
21.4340901261
 20
-2.2194541379
 10
21.4944049889
 20
-2.2354436924
 10
21.5557989876
 20
-2.2450564259
 10
21.6176012259
 20
-2.2482671566
  0
LWPOLYLINE
  5
2C6
100
AcDbEntity
  8
RACCORDO
100
AcDbPolyline
 62
253
  6
CONTINUOUS
 90
7
 70
0
 10
20.8175411171
 20
3.5164586536
 10
20.8170842068
 20
3.5335266238
 10
20.8165937677
 20
3.5479818601
 10
20.8160867139
 20
3.5593589985
 10
20.8155686833
 20
3.5675029175
 10
20.8150340379
 20
3.5725687385
 10
20.8144827777
 20
3.5745564615
  0
LWPOLYLINE
  5
2C7
100
AcDbEntity
  8
ASSI
100
AcDbPolyline
 62
253
  6
CONTINUOUS
 90
7
 70
0
 10
20.8175411171
 20
3.5164586536
 10
20.8170842068
 20
3.5335266238
 10
20.8165937677
 20
3.5479818601
 10
20.8160867139
 20
3.5593589985
 10
20.8155686833
 20
3.5675029175
 10
20.8150340379
 20
3.5725687385
 10
20.8144827777
 20
3.5745564615
  0
LWPOLYLINE
  5
2C8
100
AcDbEntity
  8
RACCORDO
100
AcDbPolyline
 62
7
  6
CONTINUOUS
 90
5
 70
0
 10
21.9648842796
 20
-2.1933159161
 10
21.9653854842
 20
-2.2163468409
 10
21.9658995551
 20
-2.2330293052
 10
21.9664315789
 20
-2.2436694105
 10
21.9669815556
 20
-2.2482671567
  0
LINE
  5
2C9
100
AcDbEntity
  8
RACCORDO
100
AcDbLine
 62
253
  6
CONTINUOUS
 10
20.8183513761
 20
3.4743169343
 11
20.8175411171
 21
3.5164586536
  0
LINE
  5
2CA
100
AcDbEntity
  8
ASSI
100
AcDbLine
 62
253
  6
CONTINUOUS
 10
20.8183513761
 20
3.4743169343
 11
20.8175411171
 21
3.5164586536
  0
LINE
  5
2CB
100
AcDbEntity
  8
RACCORDO
100
AcDbLine
 62
253
  6
CONTINUOUS
 10
22.0497395471
 20
4.9280262575
 11
22.0502206164
 21
4.9020358175
  0
LINE
  5
2CC
100
AcDbEntity
  8
ASSI
100
AcDbLine
 62
253
  6
CONTINUOUS
 10
22.0497395471
 20
4.9280262575
 11
22.0502206164
 21
4.9020358175
  0
LINE
  5
2CD
100
AcDbEntity
  8
RACCORDO
100
AcDbLine
 62
7
  6
CONTINUOUS
 10
20.8085663215
 20
3.3548071706
 11
20.8049769721
 21
3.5793090023
  0
LINE
  5
2CE
100
AcDbEntity
  8
ASSI
100
AcDbLine
 62
7
  6
CONTINUOUS
 10
20.8085663215
 20
3.3548071706
 11
20.8049769721
 21
3.5793090023
  0
LINE
  5
2CF
100
AcDbEntity
  8
RACCORDO
100
AcDbLine
 62
7
  6
CONTINUOUS
 10
22.026151507
 20
3.7294806907
 11
22.026937977
 21
3.6769118783
  0
LINE
  5
2D0
100
AcDbEntity
  8
ASSI
100
AcDbLine
 62
7
  6
CONTINUOUS
 10
22.026151507
 20
3.7294806907
 11
22.026937977
 21
3.6769118783
  0
LINE
  5
2D1
100
AcDbEntity
  8
RACCORDO
100
AcDbLine
 62
7
  6
CONTINUOUS
 10
21.9639509892
 20
-2.1300452939
 11
21.9648842796
 21
-2.1933159161
  0
LINE
  5
2D2
100
AcDbEntity
  8
RACCORDO
100
AcDbLine
 62
7
  6
CONTINUOUS
 10
21.9871749883
 20
-1.0444546709
 11
21.9865203218
 21
-0.997386645
  0
LINE
  5
2D3
100
AcDbEntity
  8
RACCORDO
100
AcDbLine
 62
253
  6
CONTINUOUS
 10
20.8189886852
 20
3.4237972107
 11
20.8183513761
 21
3.4743169343
  0
LINE
  5
2D4
100
AcDbEntity
  8
ASSI
100
AcDbLine
 62
253
  6
CONTINUOUS
 10
20.8189886852
 20
3.4237972107
 11
20.8183513761
 21
3.4743169343
  0
LINE
  5
2D5
100
AcDbEntity
  8
RACCORDO
100
AcDbLine
 62
7
  6
CONTINUOUS
 10
20.9791766011
 20
3.750032925
 11
20.9800883065
 21
3.6785184581
  0
LINE
  5
2D6
100
AcDbEntity
  8
RACCORDO
100
AcDbLine
 62
253
  6
CONTINUOUS
 10
22.0502206164
 20
4.9020358175
 11
22.0508502638
 21
4.8461328894
  0
LINE
  5
2D7
100
AcDbEntity
  8
ASSI
100
AcDbLine
 62
253
  6
CONTINUOUS
 10
22.0502206164
 20
4.9020358175
 11
22.0508502638
 21
4.8461328894
  0
LINE
  5
2D8
100
AcDbEntity
  8
RACCORDO
100
AcDbLine
 62
7
  6
CONTINUOUS
 10
20.811348697
 20
3.0953889316
 11
20.8085663215
 21
3.3548071706
  0
LINE
  5
2D9
100
AcDbEntity
  8
ASSI
100
AcDbLine
 62
7
  6
CONTINUOUS
 10
20.811348697
 20
3.0953889316
 11
20.8085663215
 21
3.3548071706
  0
LINE
  5
2DA
100
AcDbEntity
  8
RACCORDO
100
AcDbLine
 62
7
  6
CONTINUOUS
 10
21.9628154131
 20
-1.9976272574
 11
21.9639509892
 21
-2.1300452939
  0
LINE
  5
2DB
100
AcDbEntity
  8
RACCORDO
100
AcDbLine
 62
7
  6
CONTINUOUS
 10
22.026937977
 20
3.6769118783
 11
22.0278950586
 21
3.5663666728
  0
LINE
  5
2DC
100
AcDbEntity
  8
ASSI
100
AcDbLine
 62
7
  6
CONTINUOUS
 10
22.026937977
 20
3.6769118783
 11
22.0278950586
 21
3.5663666728
  0
LINE
  5
2DD
100
AcDbEntity
  8
RACCORDO
100
AcDbLine
 62
7
  6
CONTINUOUS
 10
20.9800883065
 20
3.6785184581
 11
20.9806540518
 21
3.5976272823
  0
LINE
  5
2DE
100
AcDbEntity
  8
RACCORDO
100
AcDbLine
 62
7
  6
CONTINUOUS
 10
21.9865203218
 20
-0.997386645
 11
21.9857823127
 21
-0.8960127922
  0
LINE
  5
2DF
100
AcDbEntity
  8
RACCORDO
100
AcDbLine
 62
253
  6
CONTINUOUS
 10
20.8195708927
 20
3.3368434162
 11
20.8189886852
 21
3.4237972107
  0
LINE
  5
2E0
100
AcDbEntity
  8
ASSI
100
AcDbLine
 62
253
  6
CONTINUOUS
 10
20.8195708927
 20
3.3368434162
 11
20.8189886852
 21
3.4237972107
  0
LINE
  5
2E1
100
AcDbEntity
  8
RACCORDO
100
AcDbLine
 62
253
  6
CONTINUOUS
 10
22.0508502638
 20
4.8461328894
 11
22.0515543368
 21
4.7182255495
  0
LINE
  5
2E2
100
AcDbEntity
  8
ASSI
100
AcDbLine
 62
253
  6
CONTINUOUS
 10
22.0508502638
 20
4.8461328894
 11
22.0515543368
 21
4.7182255495
  0
LINE
  5
2E3
100
AcDbEntity
  8
DRAFT
100
AcDbLine
 62
7
  6
CONTINUOUS
 10
22.0234517822
 20
0.7451324614
 11
22.020734445
 21
1.3912567649
  0
LINE
  5
2E4
100
AcDbEntity
  8
ASSI
100
AcDbLine
 62
7
  6
CONTINUOUS
 10
22.0234517822
 20
0.7451324614
 11
22.020734445
 21
1.3912567649
  0
LINE
  5
2E5
100
AcDbEntity
  8
RACCORDO
100
AcDbLine
 62
7
  6
CONTINUOUS
 10
21.9618673328
 20
-1.7114473092
 11
21.9628154131
 21
-1.9976272574
  0
LINE
  5
2E6
100
AcDbEntity
  8
RACCORDO
100
AcDbLine
 62
7
  6
CONTINUOUS
 10
22.0278950586
 20
3.5663666728
 11
22.0286939785
 21
3.3269105763
  0
LINE
  5
2E7
100
AcDbEntity
  8
ASSI
100
AcDbLine
 62
7
  6
CONTINUOUS
 10
22.0278950586
 20
3.5663666728
 11
22.0286939785
 21
3.3269105763
  0
LINE
  5
2E8
100
AcDbEntity
  8
RACCORDO
100
AcDbLine
 62
253
  6
CONTINUOUS
 10
22.0515543368
 20
4.7182255495
 11
22.0517349793
 21
4.5997851037
  0
LINE
  5
2E9
100
AcDbEntity
  8
ASSI
100
AcDbLine
 62
253
  6
CONTINUOUS
 10
22.0515543368
 20
4.7182255495
 11
22.0517349793
 21
4.5997851037
  0
LINE
  5
2EA
100
AcDbEntity
  8
RACCORDO
100
AcDbLine
 62
253
  6
CONTINUOUS
 10
20.8196855463
 20
3.1037257808
 11
20.8195708927
 21
3.3368434162
  0
LINE
  5
2EB
100
AcDbEntity
  8
ASSI
100
AcDbLine
 62
253
  6
CONTINUOUS
 10
20.8196855463
 20
3.1037257808
 11
20.8195708927
 21
3.3368434162
  0
LINE
  5
2EC
100
AcDbEntity
  8
RACCORDO
100
AcDbLine
 62
7
  6
CONTINUOUS
 10
20.9072165303
 20
4.5416222687
 11
20.9072165303
 21
3.9722762131
  0
LINE
  5
2ED
100
AcDbEntity
  8
RACCORDO
100
AcDbLine
 62
7
  6
CONTINUOUS
 10
20.9072165303
 20
-1.1897626833
 11
20.9072165303
 21
-1.7591087389
  0
LINE
  5
2EE
100
AcDbEntity
  8
RACCORDO
100
AcDbLine
 62
7
  6
CONTINUOUS
 10
20.9372165303
 20
-1.728834618
 11
20.9372165303
 21
-1.1897626833
  0
LINE
  5
2EF
100
AcDbEntity
  8
RACCORDO
100
AcDbLine
 62
7
  6
CONTINUOUS
 10
20.9372165303
 20
3.9722762131
 11
20.9372165303
 21
4.5113481478
  0
LINE
  5
2F0
100
AcDbEntity
  8
RACCORDO
100
AcDbLine
 62
7
  6
CONTINUOUS
 10
20.9808541926
 20
-0.7266056367
 11
20.9806540518
 21
3.5976272823
  0
LINE
  5
2F1
100
AcDbEntity
  8
RACCORDO
100
AcDbLine
 62
253
  6
CONTINUOUS
 10
21.0176926087
 20
-1.6483585396
 11
21.0176926087
 21
4.4308720694
  0
LINE
  5
2F2
100
AcDbEntity
  8
RACCORDO
100
AcDbLine
 62
253
  6
CONTINUOUS
 10
21.6176012258
 20
-2.2482671567
 11
21.6176012258
 21
5.0307806865
  0
LINE
  5
2F3
100
AcDbEntity
  8
RACCORDO
100
AcDbLine
 62
7
  6
CONTINUOUS
 10
21.9857823127
 20
-0.8960127922
 11
21.9853993608
 21
3.5091191666
  0
LINE
  5
2F4
100
AcDbEntity
  8
DRAFT
100
AcDbLine
 62
7
  6
CONTINUOUS
 10
22.0072165303
 20
5.1112567649
 11
22.0072165303
 21
4.4412567649
  0
LINE
  5
2F5
100
AcDbEntity
  8
DRAFT
100
AcDbLine
 62
7
  6
CONTINUOUS
 10
22.0072165303
 20
-1.6587432351
 11
22.0072165303
 21
-2.3287432351
  0
LINE
  5
2F6
100
AcDbEntity
  8
RACCORDO
100
AcDbLine
 62
7
  6
CONTINUOUS
 10
22.0072165303
 20
-2.2087489466
 11
22.0072165303
 21
-1.5587432351
  0
LINE
  5
2F7
100
AcDbEntity
  8
DRAFT
100
AcDbLine
 62
7
  6
CONTINUOUS
 10
22.0072165303
 20
-1.5587432351
 11
22.0072165303
 21
-1.0087432351
  0
LINE
  5
2F8
100
AcDbEntity
  8
ASSI
100
AcDbLine
 62
7
  6
CONTINUOUS
 10
22.0072165303
 20
-2.2087489466
 11
22.0072165303
 21
-1.0087432351
  0
LINE
  5
2F9
100
AcDbEntity
  8
DRAFT
100
AcDbLine
 62
7
  6
CONTINUOUS
 10
22.0072165303
 20
3.7912567649
 11
22.0072165303
 21
4.3412567649
  0
LINE
  5
2FA
100
AcDbEntity
  8
RACCORDO
100
AcDbLine
 62
7
  6
CONTINUOUS
 10
22.0072165303
 20
4.3412567649
 11
22.0072165303
 21
4.9912624764
  0
LINE
  5
2FB
100
AcDbEntity
  8
ASSI
100
AcDbLine
 62
7
  6
CONTINUOUS
 10
22.0072165303
 20
3.7912567649
 11
22.0072165303
 21
4.9912624764
  0
LINE
  5
2FC
100
AcDbEntity
  8
RACCORDO
100
AcDbLine
 62
7
  6
CONTINUOUS
 10
22.0287196745
 20
3.1080837314
 11
22.0286939785
 21
3.3269105763
  0
LINE
  5
2FD
100
AcDbEntity
  8
ASSI
100
AcDbLine
 62
7
  6
CONTINUOUS
 10
22.0287196745
 20
3.1080837314
 11
22.0286939785
 21
3.3269105763
  0
LINE
  5
2FE
100
AcDbEntity
  8
RACCORDO
100
AcDbLine
 62
7
  6
CONTINUOUS
 10
22.0517349793
 20
4.5997851037
 11
22.0517349793
 21
-1.8172715739
  0
LINE
  5
2FF
100
AcDbEntity
  8
ASSI
100
AcDbLine
 62
7
  6
CONTINUOUS
 10
22.0517349793
 20
4.5997851037
 11
22.0517349793
 21
-1.8172715739
  0
LINE
  5
300
100
AcDbEntity
  8
DRAFT
100
AcDbLine
 62
7
  6
CONTINUOUS
 10
22.0237605714
 20
2.2765161457
 11
22.022372758
 21
3.0953889316
  0
LINE
  5
301
100
AcDbEntity
  8
ASSI
100
AcDbLine
 62
7
  6
CONTINUOUS
 10
22.0237605714
 20
2.2765161457
 11
22.022372758
 21
3.0953889316
  0
LINE
  5
302
100
AcDbEntity
  8
DRAFT
100
AcDbLine
 62
7
  6
CONTINUOUS
 10
22.0231557672
 20
-0.0880090421
 11
22.0234517822
 21
0.7451324614
  0
LINE
  5
303
100
AcDbEntity
  8
ASSI
100
AcDbLine
 62
7
  6
CONTINUOUS
 10
22.0231557672
 20
-0.0880090421
 11
22.0234517822
 21
0.7451324614
  0
LINE
  5
304
100
AcDbEntity
  8
RACCORDO
100
AcDbLine
 62
253
  6
CONTINUOUS
 10
20.8195718987
 20
-0.5541127378
 11
20.8196855463
 21
-0.321212251
  0
LINE
  5
305
100
AcDbEntity
  8
ASSI
100
AcDbLine
 62
253
  6
CONTINUOUS
 10
20.8195718987
 20
-0.5541127378
 11
20.8196855463
 21
-0.321212251
  0
LINE
  5
306
100
AcDbEntity
  8
RACCORDO
100
AcDbLine
 62
7
  6
CONTINUOUS
 10
20.9808541926
 20
-0.7266056367
 11
20.9806540518
 21
-0.8151137525
  0
LINE
  5
307
100
AcDbEntity
  8
RACCORDO
100
AcDbLine
 62
7
  6
CONTINUOUS
 10
21.9622796605
 20
4.672109692
 11
21.9618673328
 21
-1.7114473092
  0
LINE
  5
308
100
AcDbEntity
  8
RACCORDO
100
AcDbLine
 62
7
  6
CONTINUOUS
 10
22.0287196745
 20
-0.3255702016
 11
22.0283465423
 21
-0.6934953445
  0
LINE
  5
309
100
AcDbEntity
  8
ASSI
100
AcDbLine
 62
7
  6
CONTINUOUS
 10
22.0287196745
 20
-0.3255702016
 11
22.0283465423
 21
-0.6934953445
  0
LINE
  5
30A
100
AcDbEntity
  8
DRAFT
100
AcDbLine
 62
7
  6
CONTINUOUS
 10
22.022372758
 20
-0.3128754018
 11
22.0231557672
 21
-0.0880090421
  0
LINE
  5
30B
100
AcDbEntity
  8
ASSI
100
AcDbLine
 62
7
  6
CONTINUOUS
 10
22.022372758
 20
-0.3128754018
 11
22.0231557672
 21
-0.0880090421
  0
LINE
  5
30C
100
AcDbEntity
  8
RACCORDO
100
AcDbLine
 62
7
  6
CONTINUOUS
 10
21.9853993608
 20
3.5091191666
 11
21.9857823127
 21
3.678526322
  0
LINE
  5
30D
100
AcDbEntity
  8
RACCORDO
100
AcDbLine
 62
253
  6
CONTINUOUS
 10
22.0517349793
 20
-1.8172715739
 11
22.0513316236
 21
-1.9910942525
  0
LINE
  5
30E
100
AcDbEntity
  8
ASSI
100
AcDbLine
 62
253
  6
CONTINUOUS
 10
22.0517349793
 20
-1.8172715739
 11
22.0513316236
 21
-1.9910942525
  0
LINE
  5
30F
100
AcDbEntity
  8
DRAFT
100
AcDbLine
 62
7
  6
CONTINUOUS
 10
22.0219258689
 20
1.591201976
 11
22.0237605714
 21
2.2765161457
  0
LINE
  5
310
100
AcDbEntity
  8
ASSI
100
AcDbLine
 62
7
  6
CONTINUOUS
 10
22.0219258689
 20
1.591201976
 11
22.0237605714
 21
2.2765161457
  0
LINE
  5
311
100
AcDbEntity
  8
DRAFT
100
AcDbLine
 62
7
  6
CONTINUOUS
 10
22.020734445
 20
1.3912567649
 11
22.0219258689
 21
1.591201976
  0
LINE
  5
312
100
AcDbEntity
  8
ASSI
100
AcDbLine
 62
7
  6
CONTINUOUS
 10
22.020734445
 20
1.3912567649
 11
22.0219258689
 21
1.591201976
  0
LINE
  5
313
100
AcDbEntity
  8
RACCORDO
100
AcDbLine
 62
7
  6
CONTINUOUS
 10
20.9806540518
 20
-0.8151137525
 11
20.9800883065
 21
-0.8960049283
  0
LINE
  5
314
100
AcDbEntity
  8
RACCORDO
100
AcDbLine
 62
7
  6
CONTINUOUS
 10
21.9635352244
 20
4.8730739275
 11
21.9622796605
 21
4.672109692
  0
LINE
  5
315
100
AcDbEntity
  8
RACCORDO
100
AcDbLine
 62
7
  6
CONTINUOUS
 10
22.0283465423
 20
-0.6934953445
 11
22.0272883641
 21
-0.8614807632
  0
LINE
  5
316
100
AcDbEntity
  8
ASSI
100
AcDbLine
 62
7
  6
CONTINUOUS
 10
22.0283465423
 20
-0.6934953445
 11
22.0272883641
 21
-0.8614807632
  0
LINE
  5
317
100
AcDbEntity
  8
RACCORDO
100
AcDbLine
 62
253
  6
CONTINUOUS
 10
20.8189916208
 20
-0.6409842997
 11
20.8195718987
 21
-0.5541127378
  0
LINE
  5
318
100
AcDbEntity
  8
ASSI
100
AcDbLine
 62
253
  6
CONTINUOUS
 10
20.8189916208
 20
-0.6409842997
 11
20.8195718987
 21
-0.5541127378
  0
LINE
  5
319
100
AcDbEntity
  8
RACCORDO
100
AcDbLine
 62
7
  6
CONTINUOUS
 10
21.9857823127
 20
3.678526322
 11
21.9865203218
 21
3.7799001748
  0
LINE
  5
31A
100
AcDbEntity
  8
RACCORDO
100
AcDbLine
 62
253
  6
CONTINUOUS
 10
22.0513316236
 20
-1.9910942525
 11
22.0506545266
 21
-2.084315787
  0
LINE
  5
31B
100
AcDbEntity
  8
ASSI
100
AcDbLine
 62
253
  6
CONTINUOUS
 10
22.0513316236
 20
-1.9910942525
 11
22.0506545266
 21
-2.084315787
  0
LINE
  5
31C
100
AcDbEntity
  8
RACCORDO
100
AcDbLine
 62
7
  6
CONTINUOUS
 10
20.8085663215
 20
-0.5722936407
 11
20.811348697
 21
-0.3128754018
  0
LINE
  5
31D
100
AcDbEntity
  8
ASSI
100
AcDbLine
 62
7
  6
CONTINUOUS
 10
20.8085663215
 20
-0.5722936407
 11
20.811348697
 21
-0.3128754018
  0
LWPOLYLINE
  5
31E
100
AcDbEntity
  8
RACCORDO
100
AcDbPolyline
 62
7
  6
CONTINUOUS
 90
7
 70
0
 10
22.0272883641
 20
-0.8614807632
 10
22.026558718
 20
-0.9228474003
 10
22.0261515097
 20
-0.9469670327
 10
22.0257293672
 20
-0.965977422
 10
22.0252966284
 20
-0.9796186635
 10
22.0248489555
 20
-0.9881506619
 10
22.0243863483
 20
-0.9915734171
  0
LWPOLYLINE
  5
31F
100
AcDbEntity
  8
ASSI
100
AcDbPolyline
 62
7
  6
CONTINUOUS
 90
7
 70
0
 10
22.0272883641
 20
-0.8614807632
 10
22.026558718
 20
-0.9228474003
 10
22.0261515097
 20
-0.9469670327
 10
22.0257293672
 20
-0.965977422
 10
22.0252966284
 20
-0.9796186635
 10
22.0248489555
 20
-0.9881506619
 10
22.0243863483
 20
-0.9915734171
  0
LINE
  5
320
100
AcDbEntity
  8
RACCORDO
100
AcDbLine
 62
253
  6
CONTINUOUS
 10
22.0506545266
 20
-2.084315787
 11
22.0502200344
 21
-2.1195612173
  0
LINE
  5
321
100
AcDbEntity
  8
ASSI
100
AcDbLine
 62
253
  6
CONTINUOUS
 10
22.0506545266
 20
-2.084315787
 11
22.0502200344
 21
-2.1195612173
  0
LINE
  5
322
100
AcDbEntity
  8
RACCORDO
100
AcDbLine
 62
253
  6
CONTINUOUS
 10
20.8183554942
 20
-0.69153775
 11
20.8189916208
 21
-0.6409842997
  0
LINE
  5
323
100
AcDbEntity
  8
ASSI
100
AcDbLine
 62
253
  6
CONTINUOUS
 10
20.8183554942
 20
-0.69153775
 11
20.8189916208
 21
-0.6409842997
  0
LWPOLYLINE
  5
324
100
AcDbEntity
  8
RACCORDO
100
AcDbPolyline
 62
7
  6
CONTINUOUS
 90
8
 70
0
 10
20.9800883065
 20
-0.8960049283
 10
20.9791766011
 20
-0.9675193952
 10
20.9786122372
 20
-0.9973800488
 10
20.9779777535
 20
-1.0234300509
 10
20.9773027895
 20
-1.0444514405
 10
20.9765972249
 20
-1.0600382308
 10
20.9758511799
 20
-1.0705964086
 10
20.9750646545
 20
-1.0761259739
  0
LWPOLYLINE
  5
325
100
AcDbEntity
  8
RACCORDO
100
AcDbPolyline
 62
7
  6
CONTINUOUS
 90
5
 70
0
 10
21.9865203218
 20
3.7799001748
 10
21.9871749883
 20
3.8269682007
 10
21.9875277298
 20
3.8425537701
 10
21.9879007035
 20
3.8531108711
 10
21.9882939094
 20
3.8586395037
  0
LINE
  5
326
100
AcDbEntity
  8
RACCORDO
100
AcDbLine
 62
7
  6
CONTINUOUS
 10
20.8049769721
 20
-0.7967954725
 11
20.8085663215
 21
-0.5722936407
  0
LINE
  5
327
100
AcDbEntity
  8
ASSI
100
AcDbLine
 62
7
  6
CONTINUOUS
 10
20.8049769721
 20
-0.7967954725
 11
20.8085663215
 21
-0.5722936407
  0
LWPOLYLINE
  5
328
100
AcDbEntity
  8
RACCORDO
100
AcDbPolyline
 62
7
  6
CONTINUOUS
 90
16
 70
0
 10
20.8049769721
 20
3.5793090023
 10
20.8053079379
 20
3.595652701
 10
20.8068708961
 20
3.6113812885
 10
20.8095349415
 20
3.6264133013
 10
20.8131516019
 20
3.6406338074
 10
20.8176014474
 20
3.6540516069
 10
20.8228322479
 20
3.6667846554
 10
20.828744524
 20
3.6787867051
 10
20.835254627
 20
3.6900532618
 10
20.8424059294
 20
3.7007457075
 10
20.8501641193
 20
3.7108558993
 10
20.8584625075
 20
3.7203351263
 10
20.8673500919
 20
3.7292513941
 10
20.8768264189
 20
3.737596332
 10
20.8868207901
 20
3.7453044553
 10
20.8972922996
 20
3.7523444413
  0
LWPOLYLINE
  5
329
100
AcDbEntity
  8
ASSI
100
AcDbPolyline
 62
7
  6
CONTINUOUS
 90
16
 70
0
 10
20.8049769721
 20
3.5793090023
 10
20.8053079379
 20
3.595652701
 10
20.8068708961
 20
3.6113812885
 10
20.8095349415
 20
3.6264133013
 10
20.8131516019
 20
3.6406338074
 10
20.8176014474
 20
3.6540516069
 10
20.8228322479
 20
3.6667846554
 10
20.828744524
 20
3.6787867051
 10
20.835254627
 20
3.6900532618
 10
20.8424059294
 20
3.7007457075
 10
20.8501641193
 20
3.7108558993
 10
20.8584625075
 20
3.7203351263
 10
20.8673500919
 20
3.7292513941
 10
20.8768264189
 20
3.737596332
 10
20.8868207901
 20
3.7453044553
 10
20.8972922996
 20
3.7523444413
  0
LWPOLYLINE
  5
32A
100
AcDbEntity
  8
RACCORDO
100
AcDbPolyline
 62
253
  6
CONTINUOUS
 90
6
 70
0
 10
22.0502200344
 20
-2.1195612173
 10
22.0497389853
 20
-2.1455352912
 10
22.0494874477
 20
-2.1548385232
 10
22.0492326675
 20
-2.1615181624
 10
22.0489725949
 20
-2.1656580704
 10
22.04870723
 20
-2.167258247
  0
LWPOLYLINE
  5
32B
100
AcDbEntity
  8
ASSI
100
AcDbPolyline
 62
253
  6
CONTINUOUS
 90
6
 70
0
 10
22.0502200344
 20
-2.1195612173
 10
22.0497389853
 20
-2.1455352912
 10
22.0494874477
 20
-2.1548385232
 10
22.0492326675
 20
-2.1615181624
 10
22.0489725949
 20
-2.1656580704
 10
22.04870723
 20
-2.167258247
  0
LWPOLYLINE
  5
32C
100
AcDbEntity
  8
RACCORDO
100
AcDbPolyline
 62
253
  6
CONTINUOUS
 90
16
 70
0
 10
21.0176926087
 20
4.4308720694
 10
21.0210175259
 20
4.4937638935
 10
21.0309172768
 20
4.5559623829
 10
21.0472826912
 20
4.6167820709
 10
21.0699364334
 20
4.6755596064
 10
21.098627141
 20
4.7316396907
 10
21.1330251065
 20
4.7843858308
 10
21.1727356937
 20
4.8332102028
 10
21.21732369
 20
4.877592693
 10
21.2663106297
 20
4.9170625905
 10
21.3192366031
 20
4.9512318704
 10
21.375449889
 20
4.9796635832
 10
21.434089956
 20
5.001967613
 10
21.4944048557
 20
5.0179571942
 10
21.5557989114
 20
5.0275699478
 10
21.6176012258
 20
5.0307806865
  0
LWPOLYLINE
  5
32D
100
AcDbEntity
  8
RACCORDO
100
AcDbPolyline
 62
7
  6
CONTINUOUS
 90
16
 70
0
 10
20.9072165303
 20
4.5416222687
 10
20.9108051599
 20
4.6054845236
 10
20.9206005554
 20
4.6673158713
 10
20.9366027169
 20
4.7271163117
 10
20.9591212864
 20
4.7854901021
 10
20.9878466219
 20
4.8418329853
 10
21.0218497973
 20
4.8943321894
 10
21.0613008788
 20
4.9428627129
 10
21.1060298002
 20
4.9875495574
 10
21.1545974373
 20
5.0269549557
 10
21.2071495268
 20
5.0609087141
 10
21.263540332
 20
5.0895810263
 10
21.3218935181
 20
5.1120447061
 10
21.38158364
 20
5.1279906915
 10
21.4432361429
 20
5.1377280444
 10
21.5068510265
 20
5.1412567649
  0
LWPOLYLINE
  5
32E
100
AcDbEntity
  8
RACCORDO
100
AcDbPolyline
 62
7
  6
CONTINUOUS
 90
16
 70
0
 10
20.9372165303
 20
4.5113481478
 10
20.9408022159
 20
4.5751760382
 10
20.9505907691
 20
4.636980836
 10
20.96658219
 20
4.6967625415
 10
20.9890833949
 20
4.7551236802
 10
21.0177874674
 20
4.8114617264
 10
21.0517736584
 20
4.863969103
 10
21.0912188678
 20
4.9125271004
 10
21.1359461956
 20
4.9572544281
 10
21.1845041931
 20
4.9966996374
 10
21.2370115695
 20
5.0306858282
 10
21.2933496156
 20
5.0593899006
 10
21.3517107541
 20
5.0818911053
 10
21.4114924594
 20
5.0978825261
 10
21.4732972572
 20
5.1076710793
 10
21.5371251474
 20
5.1112567649
  0
LWPOLYLINE
  5
32F
100
AcDbEntity
  8
RACCORDO
100
AcDbPolyline
 62
7
  6
CONTINUOUS
 90
13
 70
0
 10
22.0072165303
 20
4.9912624764
 10
22.0086783864
 20
5.0113676239
 10
22.012484274
 20
5.0305015565
 10
22.0186341932
 20
5.0486642745
 10
22.0273114534
 20
5.0661300731
 10
22.0383327451
 20
5.0826246569
 10
22.0511481395
 20
5.0973251399
 10
22.0658486226
 20
5.1101405371
 10
22.0823432084
 20
5.1211618334
 10
22.0998090096
 20
5.1298390975
 10
22.1179717306
 20
5.1359890188
 10
22.137105667
 20
5.139794908
 10
22.1572108188
 20
5.1412567649
  0
LWPOLYLINE
  5
330
100
AcDbEntity
  8
ASSI
100
AcDbPolyline
 62
7
  6
CONTINUOUS
 90
13
 70
0
 10
22.0072165303
 20
4.9912624764
 10
22.0086783864
 20
5.0113676239
 10
22.012484274
 20
5.0305015565
 10
22.0186341932
 20
5.0486642745
 10
22.0273114534
 20
5.0661300731
 10
22.0383327451
 20
5.0826246569
 10
22.0511481395
 20
5.0973251399
 10
22.0658486226
 20
5.1101405371
 10
22.0823432084
 20
5.1211618334
 10
22.0998090096
 20
5.1298390975
 10
22.1179717306
 20
5.1359890188
 10
22.137105667
 20
5.139794908
 10
22.1572108188
 20
5.1412567649
  0
LWPOLYLINE
  5
331
100
AcDbEntity
  8
RACCORDO
100
AcDbPolyline
 62
253
  6
CONTINUOUS
 90
9
 70
0
 10
20.8144827777
 20
3.5745564615
 10
20.8175254646
 20
3.6092814412
 10
20.8265505167
 20
3.6429515243
 10
20.8412837654
 20
3.6745438602
 10
20.8612776352
 20
3.7030987173
 10
20.8859247399
 20
3.7277486386
 10
20.914476335
 20
3.7477447938
 10
20.9460650628
 20
3.762479727
 10
20.9787756079
 20
3.7712495851
  0
LWPOLYLINE
  5
332
100
AcDbEntity
  8
ASSI
100
AcDbPolyline
 62
253
  6
CONTINUOUS
 90
9
 70
0
 10
20.8144827777
 20
3.5745564615
 10
20.8175254646
 20
3.6092814412
 10
20.8265505167
 20
3.6429515243
 10
20.8412837654
 20
3.6745438602
 10
20.8612776352
 20
3.7030987173
 10
20.8859247399
 20
3.7277486386
 10
20.914476335
 20
3.7477447938
 10
20.9460650628
 20
3.762479727
 10
20.9787756079
 20
3.7712495851
  0
LWPOLYLINE
  5
333
100
AcDbEntity
  8
RACCORDO
100
AcDbPolyline
 62
7
  6
CONTINUOUS
 90
7
 70
0
 10
21.9669815556
 20
5.0307806865
 10
21.9664315789
 20
5.0261829403
 10
21.9658995551
 20
5.015542835
 10
21.9653854842
 20
4.9988603707
 10
21.9648842796
 20
4.9758294459
 10
21.9644010278
 20
4.946756162
 10
21.9635352244
 20
4.8730739275
  0
LINE
  5
334
100
AcDbEntity
  8
RACCORDO
100
AcDbLine
 62
7
  6
CONTINUOUS
 10
22.0072165303
 20
3.9722762131
 11
21.9882939094
 21
3.8586395037
  0
LWPOLYLINE
  5
335
100
AcDbEntity
  8
0
100
AcDbPolyline
 62
7
  6
CONTINUOUS
 90
36
 70
0
 10
20.5311123567
 20
0.1333052385
 10
20.5156816753
 20
0.0511992334
 10
20.4959374322
 20
-0.0252459723
 10
20.4718796274
 20
-0.0960154065
 10
20.4433316502
 20
-0.1615602035
 10
20.4104701113
 20
-0.2215405409
 10
20.3738248427
 20
-0.2748794155
 10
20.3333250587
 20
-0.3216098385
 10
20.289041545
 20
-0.362113523
 10
20.2417164911
 20
-0.3959412631
 10
20.1908242343
 20
-0.4233273881
 10
20.1368904373
 20
-0.444455179
 10
20.0822342776
 20
-0.4588087804
 10
20.0270597679
 20
-0.4662122405
 10
19.9711628956
 20
-0.4670397152
 10
19.9162507997
 20
-0.4615356308
 10
19.8624279551
 20
-0.4496390133
 10
19.8095898871
 20
-0.431259105
 10
19.7591303101
 20
-0.4065229162
 10
19.7108773356
 20
-0.3746639657
 10
19.6650028522
 20
-0.3360264688
 10
19.6234162396
 20
-0.292451023
 10
19.5869010166
 20
-0.2442356208
 10
19.5546736645
 20
-0.1907954795
 10
19.5262930077
 20
-0.132780863
 10
19.5016533781
 20
-0.070025541
 10
19.4808604437
 20
-0.002572085
 10
19.4637900331
 20
0.0685013895
 10
19.4503792102
 20
0.1431674999
 10
19.4406909109
 20
0.2213017192
 10
19.434789772
 20
0.3015653807
 10
19.4325121541
 20
0.3840149384
 10
19.4340216965
 20
0.4682016553
 10
19.4398739539
 20
0.5519725046
 10
19.4499453688
 20
0.6352920016
 10
19.4643594986
 20
0.7177394786
  0
LWPOLYLINE
  5
336
100
AcDbEntity
  8
RACCORDO
100
AcDbPolyline
 62
253
  6
CONTINUOUS
 90
8
 70
0
 10
20.8144827777
 20
-0.7920429317
 10
20.8150361952
 20
-0.790026693
 10
20.8155724631
 20
-0.7849300641
 10
20.8160915815
 20
-0.7767530447
 10
20.8165990624
 20
-0.7653384908
 10
20.8170893939
 20
-0.7508435465
 10
20.8175460398
 20
-0.7337396447
 10
20.8183554942
 20
-0.69153775
  0
LWPOLYLINE
  5
337
100
AcDbEntity
  8
ASSI
100
AcDbPolyline
 62
253
  6
CONTINUOUS
 90
8
 70
0
 10
20.8144827777
 20
-0.7920429317
 10
20.8150361952
 20
-0.790026693
 10
20.8155724631
 20
-0.7849300641
 10
20.8160915815
 20
-0.7767530447
 10
20.8165990624
 20
-0.7653384908
 10
20.8170893939
 20
-0.7508435465
 10
20.8175460398
 20
-0.7337396447
 10
20.8183554942
 20
-0.69153775
  0
LINE
  5
338
100
AcDbEntity
  8
RACCORDO
100
AcDbLine
 62
7
  6
CONTINUOUS
 10
22.0072165303
 20
5.1112567649
 11
21.9669815556
 21
5.0307806865
  0
LWPOLYLINE
  5
339
100
AcDbEntity
  8
0
100
AcDbPolyline
 62
7
  6
CONTINUOUS
 90
34
 70
0
 10
19.5756316614
 20
3.0091183054
 10
19.5937164422
 20
3.0366974603
 10
19.6134307119
 20
3.0630111232
 10
19.6347744704
 20
3.0880762013
 10
19.6577609996
 20
3.1121087641
 10
19.6823770176
 20
3.134926056
 10
19.7085826787
 20
3.1559625127
 10
19.7365360962
 20
3.1752641562
 10
19.7660791568
 20
3.1928507341
 10
19.7966976753
 20
3.2081437127
 10
19.8283430342
 20
3.2210741296
 10
19.8610638509
 20
3.2317881644
 10
19.8944917924
 20
3.2400402635
 10
19.9285025419
 20
3.2458767197
 10
19.9632204161
 20
3.2492975702
 10
19.9986500316
 20
3.2499820772
 10
20.0349281821
 20
3.2480216607
 10
20.0719180738
 20
3.2433200484
 10
20.1092139415
 20
3.2352568945
 10
20.1469436325
 20
3.2238054524
 10
20.1849792995
 20
3.208904389
 10
20.2225316346
 20
3.18984373
 10
20.2598731186
 20
3.1661444664
 10
20.2967312707
 20
3.1380740113
 10
20.3314993411
 20
3.1060243064
 10
20.3637806758
 20
3.0699243783
 10
20.3939719287
 20
3.029623849
 10
20.4216563119
 20
2.9854251708
 10
20.4467745288
 20
2.9371248918
 10
20.4693858759
 20
2.8847604096
 10
20.4892514548
 20
2.8290546338
 10
20.5062916326
 20
2.770254599
 10
20.5205860421
 20
2.7081039785
 10
20.5321346834
 20
2.6426272726
  0
LWPOLYLINE
  5
33A
100
AcDbEntity
  8
0
100
AcDbPolyline
 62
7
  6
CONTINUOUS
 90
40
 70
0
 10
19.5756316614
 20
1.0091183054
 10
19.5944059456
 20
1.0377166384
 10
19.6149343436
 20
1.0649333056
 10
19.6372168554
 20
1.0907877629
 10
19.6612714588
 20
1.1155214595
 10
19.6870801759
 20
1.1389312076
 10
19.7145890728
 20
1.160387614
 10
19.7439880224
 20
1.1799395954
 10
19.7750871517
 20
1.1976132004
 10
19.8072629092
 20
1.2127743339
 10
19.8404338988
 20
1.2253372518
 10
19.8746815164
 20
1.235472445
 10
19.9096263981
 20
1.2429398444
 10
19.9451667189
 20
1.2477995843
 10
19.9814043038
 20
1.250035911
 10
20.018265263
 20
1.2492860971
 10
20.055866055
 20
1.2456459653
 10
20.0940902213
 20
1.2390014986
 10
20.1325144966
 20
1.2286515394
 10
20.1713582274
 20
1.2144905186
 10
20.2104020673
 20
1.1965039983
 10
20.2485647115
 20
1.1740849209
 10
20.2859898367
 20
1.1467285258
 10
20.3225337663
 20
1.114691741
 10
20.3566841666
 20
1.0785007747
 10
20.3880496907
 20
1.0381053589
 10
20.4170216855
 20
0.993326881
 10
20.4432618575
 20
0.9445439308
 10
20.466730518
 20
0.8914430216
 10
20.4874673558
 20
0.8341926343
 10
20.5052531441
 20
0.7739781179
 10
20.5199875174
 20
0.7110619328
 10
20.5317708412
 20
0.6452435185
 10
20.5406849854
 20
0.5770973147
 10
20.5468671831
 20
0.5066556468
 10
20.5501802012
 20
0.4340923378
 10
20.5502942105
 20
0.3602422241
 10
20.547099268
 20
0.2854942356
 10
20.5407053168
 20
0.2097864824
 10
20.5311123567
 20
0.1333052385
  0
LINE
  5
33B
100
AcDbEntity
  8
RACCORDO
100
AcDbLine
 62
7
  6
CONTINUOUS
 10
22.0072165303
 20
-2.3287432351
 11
21.9669815556
 21
-2.2482671567
  0
LINE
  5
33C
100
AcDbEntity
  8
DRAFT
100
AcDbLine
 62
7
  6
CONTINUOUS
 10
22.022372758
 20
-0.3128754018
 11
22.0287196745
 21
-0.3255702016
  0
LINE
  5
33D
100
AcDbEntity
  8
ASSI
100
AcDbLine
 62
7
  6
CONTINUOUS
 10
22.022372758
 20
-0.3128754018
 11
22.0287196745
 21
-0.3255702016
  0
LINE
  5
33E
100
AcDbEntity
  8
RACCORDO
100
AcDbLine
 62
7
  6
CONTINUOUS
 10
22.0072165303
 20
-1.1897626833
 11
21.9882939094
 21
-1.0761259739
  0
LWPOLYLINE
  5
33F
100
AcDbEntity
  8
RACCORDO
100
AcDbPolyline
 62
7
  6
CONTINUOUS
 90
7
 70
0
 10
20.9750646545
 20
3.8586395037
 10
20.9758511799
 20
3.8531099384
 10
20.9765972249
 20
3.8425517606
 10
20.9773027895
 20
3.8269649703
 10
20.9779777535
 20
3.8059435807
 10
20.9786122372
 20
3.7798935786
 10
20.9791766011
 20
3.750032925
  0
LWPOLYLINE
  5
340
100
AcDbEntity
  8
0
100
AcDbPolyline
 62
7
  6
CONTINUOUS
 90
38
 70
0
 10
20.5321346834
 20
2.6426272726
 10
20.5421162979
 20
2.5630438954
 10
20.5482500402
 20
2.4824834834
 10
20.5505359104
 20
2.4011448831
 10
20.5491111359
 20
2.318604332
 10
20.5438384893
 20
2.2357144278
 10
20.5343062876
 20
2.154580455
 10
20.5204807659
 20
2.0751431035
 10
20.5023956891
 20
1.9978186008
 10
20.4797406694
 20
1.9252859363
 10
20.4521092627
 20
1.8575997225
 10
20.419907913
 20
1.7946817954
 10
20.3840455652
 20
1.7387532428
 10
20.34432973
 20
1.6901807874
 10
20.3009528967
 20
1.6481511741
 10
20.255401477
 20
1.6129585104
 10
20.207783468
 20
1.58459766
 10
20.1579908727
 20
1.5626355108
 10
20.1071861114
 20
1.5467426235
 10
20.0553901108
 20
1.5366996465
 10
20.0025819442
 20
1.5325227868
 10
19.9498612522
 20
1.53430374
 10
19.8970341263
 20
1.5420684178
 10
19.844294475
 20
1.5558701169
 10
19.7933236644
 20
1.5759147495
 10
19.7438349728
 20
1.6031553826
 10
19.6961151219
 20
1.6370126616
 10
19.6527056437
 20
1.6753597152
 10
19.6144736215
 20
1.7184885131
 10
19.5805519721
 20
1.7663888148
 10
19.5508809769
 20
1.8162618072
 10
19.5258071951
 20
1.8677314405
 10
19.5049840677
 20
1.9211492914
 10
19.4873121993
 20
1.9746085896
 10
19.4727534252
 20
2.0278954834
 10
19.4613459101
 20
2.0810637395
 10
19.4521047531
 20
2.1325165263
 10
19.4449844555
 20
2.1816123693
  0
LINE
  5
341
100
AcDbEntity
  8
RACCORDO
100
AcDbLine
 62
253
  6
CONTINUOUS
 10
22.19948719
 20
5.0817758237
 11
22.1999839049
 21
5.0515676228
  0
LINE
  5
342
100
AcDbEntity
  8
ASSI
100
AcDbLine
 62
253
  6
CONTINUOUS
 10
22.19948719
 20
5.0817758237
 11
22.1999839049
 21
5.0515676228
  0
LINE
  5
343
100
AcDbEntity
  8
RACCORDO
100
AcDbLine
 62
253
  6
CONTINUOUS
 10
22.1999839049
 20
5.0515676228
 11
22.2006501816
 21
4.9811957951
  0
LINE
  5
344
100
AcDbEntity
  8
ASSI
100
AcDbLine
 62
253
  6
CONTINUOUS
 10
22.1999839049
 20
5.0515676228
 11
22.2006501816
 21
4.9811957951
  0
LINE
  5
345
100
AcDbEntity
  8
RACCORDO
100
AcDbLine
 62
253
  6
CONTINUOUS
 10
22.2006501816
 20
4.9811957951
 11
22.2015471152
 21
4.7698662695
  0
LINE
  5
346
100
AcDbEntity
  8
ASSI
100
AcDbLine
 62
253
  6
CONTINUOUS
 10
22.2006501816
 20
4.9811957951
 11
22.2015471152
 21
4.7698662695
  0
LINE
  5
347
100
AcDbEntity
  8
RACCORDO
100
AcDbLine
 62
253
  6
CONTINUOUS
 10
22.2015471152
 20
4.7698662695
 11
22.2017292678
 21
-1.817158356
  0
LINE
  5
348
100
AcDbEntity
  8
ASSI
100
AcDbLine
 62
253
  6
CONTINUOUS
 10
22.2015471152
 20
4.7698662695
 11
22.2017292678
 21
-1.817158356
  0
LINE
  5
349
100
AcDbEntity
  8
DRAFT
100
AcDbLine
 62
7
  6
CONTINUOUS
 10
22.8037255173
 20
4.3447477779
 11
22.8037255173
 21
-1.5622342481
  0
LINE
  5
34A
100
AcDbEntity
  8
ASSI
100
AcDbLine
 62
7
  6
CONTINUOUS
 10
22.8037255173
 20
4.3447477779
 11
22.8037255173
 21
-1.5622342481
  0
LINE
  5
34B
100
AcDbEntity
  8
DRAFT
100
AcDbLine
 62
7
  6
CONTINUOUS
 10
22.8072165303
 20
4.3412567649
 11
22.8072165303
 21
-1.5587432351
  0
LINE
  5
34C
100
AcDbEntity
  8
ASSI
100
AcDbLine
 62
7
  6
CONTINUOUS
 10
22.8072165303
 20
4.3412567649
 11
22.8072165303
 21
-1.5587432351
  0
LINE
  5
34D
100
AcDbEntity
  8
RACCORDO
100
AcDbLine
 62
253
  6
CONTINUOUS
 10
22.2017293574
 20
-1.817158356
 11
22.2011827602
 21
-2.1027210985
  0
LINE
  5
34E
100
AcDbEntity
  8
ASSI
100
AcDbLine
 62
253
  6
CONTINUOUS
 10
22.2017293574
 20
-1.817158356
 11
22.2011827602
 21
-2.1027210985
  0
LINE
  5
34F
100
AcDbEntity
  8
RACCORDO
100
AcDbLine
 62
253
  6
CONTINUOUS
 10
22.2011827602
 20
-2.1027210985
 11
22.2004390806
 21
-2.2253417831
  0
LINE
  5
350
100
AcDbEntity
  8
ASSI
100
AcDbLine
 62
253
  6
CONTINUOUS
 10
22.2011827602
 20
-2.1027210985
 11
22.2004390806
 21
-2.2253417831
  0
LINE
  5
351
100
AcDbEntity
  8
RACCORDO
100
AcDbLine
 62
253
  6
CONTINUOUS
 10
22.2004390806
 20
-2.2253417831
 11
22.199983325
 21
-2.2690989301
  0
LINE
  5
352
100
AcDbEntity
  8
ASSI
100
AcDbLine
 62
253
  6
CONTINUOUS
 10
22.2004390806
 20
-2.2253417831
 11
22.199983325
 21
-2.2690989301
  0
LWPOLYLINE
  5
353
100
AcDbEntity
  8
RACCORDO
100
AcDbPolyline
 62
253
  6
CONTINUOUS
 90
5
 70
0
 10
22.199983325
 20
-2.2690989301
 10
22.1994866765
 20
-2.2992854602
 10
22.1992310405
 20
-2.30898924
 10
22.1989693212
 20
-2.3149933721
 10
22.1987015184
 20
-2.3172525354
  0
LWPOLYLINE
  5
354
100
AcDbEntity
  8
ASSI
100
AcDbPolyline
 62
253
  6
CONTINUOUS
 90
5
 70
0
 10
22.199983325
 20
-2.2690989301
 10
22.1994866765
 20
-2.2992854602
 10
22.1992310405
 20
-2.30898924
 10
22.1989693212
 20
-2.3149933721
 10
22.1987015184
 20
-2.3172525354
  0
LINE
  5
355
100
AcDbEntity
  8
RACCORDO
100
AcDbLine
 62
7
  6
CONTINUOUS
 10
20.9750646545
 20
-1.0761259739
 11
20.9372165303
 21
-1.1897626833
  0
LINE
  5
356
100
AcDbEntity
  8
DRAFT
100
AcDbLine
 62
7
  6
CONTINUOUS
 10
22.0287196745
 20
3.1080837314
 11
22.022372758
 21
3.0953889316
  0
LINE
  5
357
100
AcDbEntity
  8
ASSI
100
AcDbLine
 62
7
  6
CONTINUOUS
 10
22.0287196745
 20
3.1080837314
 11
22.022372758
 21
3.0953889316
  0
LINE
  5
358
100
AcDbEntity
  8
RACCORDO
100
AcDbLine
 62
7
  6
CONTINUOUS
 10
20.811348697
 20
3.0953889316
 11
20.8196855463
 21
3.1037257808
  0
LINE
  5
359
100
AcDbEntity
  8
ASSI
100
AcDbLine
 62
7
  6
CONTINUOUS
 10
20.811348697
 20
3.0953889316
 11
20.8196855463
 21
3.1037257808
  0
LWPOLYLINE
  5
35A
100
AcDbEntity
  8
RACCORDO
100
AcDbPolyline
 62
7
  6
CONTINUOUS
 90
16
 70
0
 10
20.8972922996
 20
-0.9698309115
 10
20.8868258747
 20
-0.9627946309
 10
20.8768295099
 20
-0.9550853846
 10
20.8673451197
 20
-0.9467331881
 10
20.858442022
 20
-0.9377996319
 10
20.8501248758
 20
-0.9282944768
 10
20.8423527488
 20
-0.9181579741
 10
20.8351929418
 20
-0.9074406032
 10
20.8286786684
 20
-0.8961499776
 10
20.8227693152
 20
-0.8841316128
 10
20.8175475646
 20
-0.8713927848
 10
20.8131102204
 20
-0.8579790315
 10
20.8095079475
 20
-0.8437746284
 10
20.8068576482
 20
-0.8287717988
 10
20.8053047118
 20
-0.8130850515
 10
20.8049769721
 20
-0.7967954725
  0
LWPOLYLINE
  5
35B
100
AcDbEntity
  8
ASSI
100
AcDbPolyline
 62
7
  6
CONTINUOUS
 90
16
 70
0
 10
20.8972922996
 20
-0.9698309115
 10
20.8868258747
 20
-0.9627946309
 10
20.8768295099
 20
-0.9550853846
 10
20.8673451197
 20
-0.9467331881
 10
20.858442022
 20
-0.9377996319
 10
20.8501248758
 20
-0.9282944768
 10
20.8423527488
 20
-0.9181579741
 10
20.8351929418
 20
-0.9074406032
 10
20.8286786684
 20
-0.8961499776
 10
20.8227693152
 20
-0.8841316128
 10
20.8175475646
 20
-0.8713927848
 10
20.8131102204
 20
-0.8579790315
 10
20.8095079475
 20
-0.8437746284
 10
20.8068576482
 20
-0.8287717988
 10
20.8053047118
 20
-0.8130850515
 10
20.8049769721
 20
-0.7967954725
  0
LINE
  5
35C
100
AcDbEntity
  8
RACCORDO
100
AcDbLine
 62
7
  6
CONTINUOUS
 10
20.8196855463
 20
-0.321212251
 11
20.811348697
 21
-0.3128754018
  0
LINE
  5
35D
100
AcDbEntity
  8
ASSI
100
AcDbLine
 62
7
  6
CONTINUOUS
 10
20.8196855463
 20
-0.321212251
 11
20.811348697
 21
-0.3128754018
  0
LINE
  5
35E
100
AcDbEntity
  8
RACCORDO
100
AcDbLine
 62
7
  6
CONTINUOUS
 10
20.9750646545
 20
3.8586395037
 11
20.9372165303
 21
3.9722762131
  0
LWPOLYLINE
  5
35F
100
AcDbEntity
  8
RACCORDO
100
AcDbPolyline
 62
253
  6
CONTINUOUS
 90
5
 70
0
 10
22.04870723
 20
4.9497717768
 10
22.0489728092
 20
4.9481671936
 10
22.0492330492
 20
4.9440220464
 10
22.0494879499
 20
4.9373363352
 10
22.0497395471
 20
4.9280262575
  0
LWPOLYLINE
  5
360
100
AcDbEntity
  8
ASSI
100
AcDbPolyline
 62
253
  6
CONTINUOUS
 90
5
 70
0
 10
22.04870723
 20
4.9497717768
 10
22.0489728092
 20
4.9481671936
 10
22.0492330492
 20
4.9440220464
 10
22.0494879499
 20
4.9373363352
 10
22.0497395471
 20
4.9280262575
  0
LWPOLYLINE
  5
361
100
AcDbEntity
  8
RACCORDO
100
AcDbPolyline
 62
7
  6
CONTINUOUS
 90
5
 70
0
 10
22.0243863483
 20
3.774086947
 10
22.024848954
 20
3.7706642409
 10
22.025296626
 20
3.7621322794
 10
22.0257293643
 20
3.7484910624
 10
22.026151507
 20
3.7294806907
  0
LWPOLYLINE
  5
362
100
AcDbEntity
  8
ASSI
100
AcDbPolyline
 62
7
  6
CONTINUOUS
 90
5
 70
0
 10
22.0243863483
 20
3.774086947
 10
22.024848954
 20
3.7706642409
 10
22.025296626
 20
3.7621322794
 10
22.0257293643
 20
3.7484910624
 10
22.026151507
 20
3.7294806907
  0
LWPOLYLINE
  5
363
100
AcDbEntity
  8
RACCORDO
100
AcDbPolyline
 62
253
  6
CONTINUOUS
 90
4
 70
0
 10
22.1987015184
 20
5.0997660652
 10
22.1989695416
 20
5.0975034591
 10
22.1992314321
 20
5.0914909593
 10
22.19948719
 20
5.0817758237
  0
LWPOLYLINE
  5
364
100
AcDbEntity
  8
ASSI
100
AcDbPolyline
 62
253
  6
CONTINUOUS
 90
4
 70
0
 10
22.1987015184
 20
5.0997660652
 10
22.1989695416
 20
5.0975034591
 10
22.1992314321
 20
5.0914909593
 10
22.19948719
 20
5.0817758237
  0
LINE
  5
365
100
AcDbEntity
  8
CURVE
100
AcDbLine
 62
253
  6
CONTINUOUS
 10
23.9072165482
 20
0.3912567649
 11
23.9072165482
 21
1.7912567649
  0
LINE
  5
366
100
AcDbEntity
  8
SCRITTE
100
AcDbLine
 62
253
  6
CONTINUOUS
 10
24.5072165303
 20
5.1342752707
 11
24.5072165303
 21
5.1220576558
  0
LINE
  5
367
100
AcDbEntity
  8
CURVE
100
AcDbLine
 62
253
  6
CONTINUOUS
 10
24.7072165422
 20
0.3912567649
 11
24.7072165422
 21
1.7912567649
  0
LINE
  5
368
100
AcDbEntity
  8
CURVE
100
AcDbLine
 62
253
  6
CONTINUOUS
 10
25.1072166018
 20
1.3912567887
 11
25.1072166018
 21
0.7912567828
  0
LINE
  5
369
100
AcDbEntity
  8
SCRITTE
100
AcDbLine
 62
253
  6
CONTINUOUS
 10
25.3072165661
 20
5.1220576558
 11
25.3072165661
 21
5.1342752707
  0
LINE
  5
36A
100
AcDbEntity
  8
0
100
AcDbLine
 62
7
  6
CONTINUOUS
 10
25.3457145303
 20
3.8089207649
 11
25.3457145303
 21
2.1089557649
  0
LINE
  5
36B
100
AcDbEntity
  8
ASSI
100
AcDbLine
 62
7
  6
CONTINUOUS
 10
25.3457145303
 20
3.8089207649
 11
25.3457145303
 21
2.1089557649
  0
LINE
  5
36C
100
AcDbEntity
  8
0
100
AcDbLine
 62
7
  6
CONTINUOUS
 10
24.8594505303
 20
3.8088187649
 11
24.5255285303
 21
2.6387507649
  0
LINE
  5
36D
100
AcDbEntity
  8
ASSI
100
AcDbLine
 62
7
  6
CONTINUOUS
 10
24.8594505303
 20
3.8088187649
 11
24.5255285303
 21
2.6387507649
  0
LINE
  5
36E
100
AcDbEntity
  8
0
100
AcDbLine
 62
7
  6
CONTINUOUS
 10
24.6676325303
 20
2.1089557649
 11
25.2140365303
 21
3.8088187649
  0
LINE
  5
36F
100
AcDbEntity
  8
ASSI
100
AcDbLine
 62
7
  6
CONTINUOUS
 10
24.6676325303
 20
2.1089557649
 11
25.2140365303
 21
3.8088187649
  0
LINE
  5
370
100
AcDbEntity
  8
RACCORDO
100
AcDbLine
 62
7
  6
CONTINUOUS
 10
19.0162724289
 20
-0.9996873365
 11
19.0072165303
 21
-1.0087432351
  0
LINE
  5
371
100
AcDbEntity
  8
ASSI
100
AcDbLine
 62
7
  6
CONTINUOUS
 10
19.0162724289
 20
-0.9996873365
 11
19.0072165303
 21
-1.0087432351
  0
LINE
  5
372
100
AcDbEntity
  8
RACCORDO
100
AcDbLine
 62
7
  6
CONTINUOUS
 10
54.6242843746
 20
-0.4441108953
 11
54.5720640773
 21
-0.4542523745
  0
LINE
  5
373
100
AcDbEntity
  8
ASSI
100
AcDbLine
 62
7
  6
CONTINUOUS
 10
54.6242843746
 20
-0.4441108953
 11
54.5720640773
 21
-0.4542523745
  0
LWPOLYLINE
  5
374
100
AcDbEntity
  8
RACCORDO
100
AcDbPolyline
 62
7
  6
CONTINUOUS
 90
6
 70
0
 10
20.8972922996
 20
-0.9698309115
 10
20.91261129
 20
-0.978391642
 10
20.9285930049
 20
-0.9856661949
 10
20.9452374445
 20
-0.9915380664
 10
20.9625446086
 20
-0.9958976252
 10
20.9785886197
 20
-0.9983497098
  0
LWPOLYLINE
  5
375
100
AcDbEntity
  8
ASSI
100
AcDbPolyline
 62
7
  6
CONTINUOUS
 90
6
 70
0
 10
20.8972922996
 20
-0.9698309115
 10
20.91261129
 20
-0.978391642
 10
20.9285930049
 20
-0.9856661949
 10
20.9452374445
 20
-0.9915380664
 10
20.9625446086
 20
-0.9958976252
 10
20.9785886197
 20
-0.9983497098
  0
LINE
  5
376
100
AcDbEntity
  8
RACCORDO
100
AcDbLine
 62
7
  6
CONTINUOUS
 10
19.0162724289
 20
3.7822008663
 11
19.0072165303
 21
3.7912567649
  0
LINE
  5
377
100
AcDbEntity
  8
ASSI
100
AcDbLine
 62
7
  6
CONTINUOUS
 10
19.0162724289
 20
3.7822008663
 11
19.0072165303
 21
3.7912567649
  0
LINE
  5
378
100
AcDbEntity
  8
SCRITTE
100
AcDbLine
 62
253
  6
CONTINUOUS
 10
24.3072165661
 20
-1.3087432351
 11
23.5072165303
 21
0.0912567649
  0
LINE
  5
379
100
AcDbEntity
  8
SCRITTE
100
AcDbLine
 62
253
  6
CONTINUOUS
 10
25.507216578
 20
-1.3087432351
 11
24.7072165422
 21
0.0912567649
  0
LINE
  5
37A
100
AcDbEntity
  8
CURVE
100
AcDbLine
 62
253
  6
CONTINUOUS
 10
25.1072166018
 20
0.7912567828
 11
25.2072165542
 21
0.5912567738
  0
LINE
  5
37B
100
AcDbEntity
  8
0
100
AcDbLine
 62
7
  6
CONTINUOUS
 10
23.8160505303
 20
3.8088187649
 11
24.3549405303
 21
2.1089557649
  0
LINE
  5
37C
100
AcDbEntity
  8
ASSI
100
AcDbLine
 62
7
  6
CONTINUOUS
 10
23.8160505303
 20
3.8088187649
 11
24.3549405303
 21
2.1089557649
  0
LINE
  5
37D
100
AcDbEntity
  8
0
100
AcDbLine
 62
7
  6
CONTINUOUS
 10
24.5255285303
 20
2.6387507649
 11
24.2015035303
 21
3.8088187649
  0
LINE
  5
37E
100
AcDbEntity
  8
ASSI
100
AcDbLine
 62
7
  6
CONTINUOUS
 10
24.5255285303
 20
2.6387507649
 11
24.2015035303
 21
3.8088187649
  0
LINE
  5
37F
100
AcDbEntity
  8
0
100
AcDbLine
 62
7
  6
CONTINUOUS
 10
25.7005425303
 20
2.1089557649
 11
25.7005425303
 21
3.8089207649
  0
LINE
  5
380
100
AcDbEntity
  8
ASSI
100
AcDbLine
 62
7
  6
CONTINUOUS
 10
25.7005425303
 20
2.1089557649
 11
25.7005425303
 21
3.8089207649
  0
LINE
  5
381
100
AcDbEntity
  8
CURVE
100
AcDbLine
 62
253
  6
CONTINUOUS
 10
25.8072166018
 20
0.7912567828
 11
25.8072166018
 21
1.3912567887
  0
LINE
  5
382
100
AcDbEntity
  8
SCRITTE
100
AcDbLine
 62
253
  6
CONTINUOUS
 10
26.3072165303
 20
-1.3087432351
 11
26.3072165303
 21
-0.5087431993
  0
LINE
  5
383
100
AcDbEntity
  8
SCRITTE
100
AcDbLine
 62
253
  6
CONTINUOUS
 10
26.9072165542
 20
5.1342752707
 11
26.9072165542
 21
5.1220576558
  0
LINE
  5
384
100
AcDbEntity
  8
0
100
AcDbLine
 62
7
  6
CONTINUOUS
 10
26.2310125303
 20
2.1089557649
 11
26.3075845303
 21
3.2189347649
  0
LINE
  5
385
100
AcDbEntity
  8
ASSI
100
AcDbLine
 62
7
  6
CONTINUOUS
 10
26.2310125303
 20
2.1089557649
 11
26.3075845303
 21
3.2189347649
  0
LINE
  5
386
100
AcDbEntity
  8
0
100
AcDbLine
 62
7
  6
CONTINUOUS
 10
26.0450445303
 20
3.8088187649
 11
25.8915575303
 21
2.1089557649
  0
LINE
  5
387
100
AcDbEntity
  8
ASSI
100
AcDbLine
 62
7
  6
CONTINUOUS
 10
26.0450445303
 20
3.8088187649
 11
25.8915575303
 21
2.1089557649
  0
LINE
  5
388
100
AcDbEntity
  8
0
100
AcDbLine
 62
7
  6
CONTINUOUS
 10
27.1054885303
 20
3.8088187649
 11
26.7506605303
 21
2.8650497649
  0
LINE
  5
389
100
AcDbEntity
  8
ASSI
100
AcDbLine
 62
7
  6
CONTINUOUS
 10
27.1054885303
 20
3.8088187649
 11
26.7506605303
 21
2.8650497649
  0
LINE
  5
38A
100
AcDbEntity
  8
0
100
AcDbLine
 62
7
  6
CONTINUOUS
 10
26.7736045303
 20
2.1089557649
 11
27.1954955303
 21
3.2143077649
  0
LINE
  5
38B
100
AcDbEntity
  8
ASSI
100
AcDbLine
 62
7
  6
CONTINUOUS
 10
26.7736045303
 20
2.1089557649
 11
27.1954955303
 21
3.2143077649
  0
LINE
  5
38C
100
AcDbEntity
  8
CURVE
100
AcDbLine
 62
253
  6
CONTINUOUS
 10
25.2072165542
 20
1.5912567768
 11
25.1072166018
 21
1.3912567887
  0
LINE
  5
38D
100
AcDbEntity
  8
CURVE
100
AcDbLine
 62
253
  6
CONTINUOUS
 10
25.7072164826
 20
0.5912567738
 11
25.8072166018
 21
0.7912567828
  0
LINE
  5
38E
100
AcDbEntity
  8
SCRITTE
100
AcDbLine
 62
253
  6
CONTINUOUS
 10
24.3072165661
 20
0.0912567649
 11
23.5072165303
 21
-1.3087432351
  0
LINE
  5
38F
100
AcDbEntity
  8
CURVE
100
AcDbLine
 62
253
  6
CONTINUOUS
 10
23.9072165482
 20
1.7912567649
 11
23.5072165303
 21
1.3912567887
  0
LINE
  5
390
100
AcDbEntity
  8
RACCORDO
100
AcDbLine
 62
253
  6
CONTINUOUS
 10
20.9372165303
 20
-1.728834618
 11
21.0176926087
 21
-1.6483585396
  0
LINE
  5
391
100
AcDbEntity
  8
CURVE
100
AcDbLine
 62
253
  6
CONTINUOUS
 10
24.7072165422
 20
1.7912567649
 11
24.3072165661
 21
1.3912567887
  0
LINE
  5
392
100
AcDbEntity
  8
RACCORDO
100
AcDbLine
 62
7
  6
CONTINUOUS
 10
22.0243863483
 20
-0.9915734171
 11
22.0072165303
 21
-1.0087432351
  0
LINE
  5
393
100
AcDbEntity
  8
ASSI
100
AcDbLine
 62
7
  6
CONTINUOUS
 10
22.0243863483
 20
-0.9915734171
 11
22.0072165303
 21
-1.0087432351
  0
LINE
  5
394
100
AcDbEntity
  8
SCRITTE
100
AcDbLine
 62
253
  6
CONTINUOUS
 10
39.4884665303
 20
-1.3087432351
 11
39.6634665303
 21
-1.2649932351
  0
LWPOLYLINE
  5
395
100
AcDbEntity
  8
RACCORDO
100
AcDbPolyline
 62
7
  6
CONTINUOUS
 90
6
 70
0
 10
54.6105867355
 20
-1.5070586459
 10
54.6081787037
 20
-1.5073667864
 10
54.6033370981
 20
-1.5076490576
 10
54.5960619188
 20
-1.5079054596
 10
54.586007088
 20
-1.5081418215
 10
54.5735186835
 20
-1.5083523141
  0
LINE
  5
396
100
AcDbEntity
  8
RACCORDO
100
AcDbLine
 62
7
  6
CONTINUOUS
 10
40.7072165303
 20
-2.3456529334
 11
40.5999425923
 21
-2.3563533538
  0
LINE
  5
397
100
AcDbEntity
  8
ASSI
100
AcDbLine
 62
7
  6
CONTINUOUS
 10
40.7072165303
 20
-2.3456529334
 11
40.5999425923
 21
-2.3563533538
  0
LWPOLYLINE
  5
398
100
AcDbEntity
  8
RACCORDO
100
AcDbPolyline
 62
7
  6
CONTINUOUS
 90
6
 70
0
 10
55.5072317608
 20
-1.5087432351
 10
55.5245848957
 20
-1.5072198676
 10
55.5414117244
 20
-1.5027064829
 10
55.5572011781
 20
-1.4953394012
 10
55.5714733862
 20
-1.4853415005
 10
55.5778903812
 20
-1.4794601995
  0
LWPOLYLINE
  5
399
100
AcDbEntity
  8
RACCORDO
100
AcDbPolyline
 62
7
  6
CONTINUOUS
 90
13
 70
0
 10
22.1572108188
 20
-2.3587432351
 10
22.137105667
 20
-2.3572813782
 10
22.1179717306
 20
-2.353475489
 10
22.0998090096
 20
-2.3473255677
 10
22.0823432084
 20
-2.3386483036
 10
22.0658486226
 20
-2.3276270073
 10
22.0511481395
 20
-2.3148116101
 10
22.0383327451
 20
-2.3001111271
 10
22.0273114534
 20
-2.2836165433
 10
22.0186341932
 20
-2.2661507447
 10
22.012484274
 20
-2.2479880267
 10
22.0086783864
 20
-2.2288540941
 10
22.0072165303
 20
-2.2087489466
  0
LWPOLYLINE
  5
39A
100
AcDbEntity
  8
ASSI
100
AcDbPolyline
 62
7
  6
CONTINUOUS
 90
13
 70
0
 10
22.1572108188
 20
-2.3587432351
 10
22.137105667
 20
-2.3572813782
 10
22.1179717306
 20
-2.353475489
 10
22.0998090096
 20
-2.3473255677
 10
22.0823432084
 20
-2.3386483036
 10
22.0658486226
 20
-2.3276270073
 10
22.0511481395
 20
-2.3148116101
 10
22.0383327451
 20
-2.3001111271
 10
22.0273114534
 20
-2.2836165433
 10
22.0186341932
 20
-2.2661507447
 10
22.012484274
 20
-2.2479880267
 10
22.0086783864
 20
-2.2288540941
 10
22.0072165303
 20
-2.2087489466
  0
LWPOLYLINE
  5
39B
100
AcDbEntity
  8
RACCORDO
100
AcDbPolyline
 62
253
  6
CONTINUOUS
 90
10
 70
0
 10
22.1987015184
 20
-2.3172525354
 10
22.1726565318
 20
-2.3149720219
 10
22.1474028329
 20
-2.3082037337
 10
22.1237076684
 20
-2.2971533022
 10
22.1022909342
 20
-2.2821564571
 10
22.083803304
 20
-2.263668826
 10
22.0688064601
 20
-2.2422520917
 10
22.0577560301
 20
-2.2185569281
 10
22.0509877431
 20
-2.1933032309
 10
22.04870723
 20
-2.167258247
  0
LWPOLYLINE
  5
39C
100
AcDbEntity
  8
ASSI
100
AcDbPolyline
 62
253
  6
CONTINUOUS
 90
10
 70
0
 10
22.1987015184
 20
-2.3172525354
 10
22.1726565318
 20
-2.3149720219
 10
22.1474028329
 20
-2.3082037337
 10
22.1237076684
 20
-2.2971533022
 10
22.1022909342
 20
-2.2821564571
 10
22.083803304
 20
-2.263668826
 10
22.0688064601
 20
-2.2422520917
 10
22.0577560301
 20
-2.2185569281
 10
22.0509877431
 20
-2.1933032309
 10
22.04870723
 20
-2.167258247
  0
LINE
  5
39D
100
AcDbEntity
  8
RACCORDO
100
AcDbLine
 62
253
  6
CONTINUOUS
 10
21.0176926087
 20
4.4308720694
 11
20.9372165303
 21
4.5113481478
  0
LINE
  5
39E
100
AcDbEntity
  8
CURVE
100
AcDbLine
 62
253
  6
CONTINUOUS
 10
25.2072165542
 20
0.5912567738
 11
25.4072164588
 21
0.3912567649
  0
LINE
  5
39F
100
AcDbEntity
  8
RACCORDO
100
AcDbLine
 62
7
  6
CONTINUOUS
 10
22.0072165303
 20
3.7912567649
 11
22.0243863483
 21
3.774086947
  0
LINE
  5
3A0
100
AcDbEntity
  8
ASSI
100
AcDbLine
 62
7
  6
CONTINUOUS
 10
22.0072165303
 20
3.7912567649
 11
22.0243863483
 21
3.774086947
  0
LINE
  5
3A1
100
AcDbEntity
  8
RACCORDO
100
AcDbLine
 62
253
  6
CONTINUOUS
 10
21.6176012258
 20
5.0307806865
 11
21.5371251474
 21
5.1112567649
  0
LINE
  5
3A2
100
AcDbEntity
  8
SCRITTE
100
AcDbLine
 62
253
  6
CONTINUOUS
 10
26.3072165303
 20
-0.5087431993
 11
25.9072165542
 21
0.0912567649
  0
LINE
  5
3A3
100
AcDbEntity
  8
SCRITTE
100
AcDbLine
 62
253
  6
CONTINUOUS
 10
27.5072166257
 20
-0.5087431993
 11
27.1072164826
 21
0.0912567649
  0
LINE
  5
3A4
100
AcDbEntity
  8
CURVE
100
AcDbLine
 62
253
  6
CONTINUOUS
 10
25.8072166018
 20
1.3912567887
 11
25.7072164826
 21
1.5912567768
  0
LINE
  5
3A5
100
AcDbEntity
  8
0
100
AcDbLine
 62
7
  6
CONTINUOUS
 10
27.6155125303
 20
2.1089557649
 11
27.4565555303
 21
3.8088187649
  0
LINE
  5
3A6
100
AcDbEntity
  8
ASSI
100
AcDbLine
 62
7
  6
CONTINUOUS
 10
27.6155125303
 20
2.1089557649
 11
27.4565555303
 21
3.8088187649
  0
LINE
  5
3A7
100
AcDbEntity
  8
0
100
AcDbLine
 62
7
  6
CONTINUOUS
 10
27.1954955303
 20
3.2143077649
 11
27.2683965303
 21
2.1089557649
  0
LINE
  5
3A8
100
AcDbEntity
  8
ASSI
100
AcDbLine
 62
7
  6
CONTINUOUS
 10
27.1954955303
 20
3.2143077649
 11
27.2683965303
 21
2.1089557649
  0
LINE
  5
3A9
100
AcDbEntity
  8
SCRITTE
100
AcDbLine
 62
253
  6
CONTINUOUS
 10
27.5072166257
 20
-1.3087432351
 11
27.5072166257
 21
-0.5087431993
  0
LINE
  5
3AA
100
AcDbEntity
  8
SCRITTE
100
AcDbLine
 62
253
  6
CONTINUOUS
 10
27.6072163873
 20
5.1238030294
 11
27.6072163873
 21
5.1325298972
  0
LINE
  5
3AB
100
AcDbEntity
  8
CURVE
100
AcDbLine
 62
253
  6
CONTINUOUS
 10
27.907216435
 20
1.5912567768
 11
27.907216435
 21
1.3912567887
  0
LINE
  5
3AC
100
AcDbEntity
  8
SCRITTE
100
AcDbLine
 62
253
  6
CONTINUOUS
 10
28.1738832288
 20
5.1342752707
 11
28.1738832288
 21
5.1220576558
  0
LINE
  5
3AD
100
AcDbEntity
  8
CURVE
100
AcDbLine
 62
253
  6
CONTINUOUS
 10
28.307216578
 20
1.7912567649
 11
28.307216578
 21
1.1912568007
  0
LINE
  5
3AE
100
AcDbEntity
  8
0
100
AcDbLine
 62
7
  6
CONTINUOUS
 10
28.1927005303
 20
2.7108987649
 11
28.3693745303
 21
3.3417397649
  0
LINE
  5
3AF
100
AcDbEntity
  8
ASSI
100
AcDbLine
 62
7
  6
CONTINUOUS
 10
28.1927005303
 20
2.7108987649
 11
28.3693745303
 21
3.3417397649
  0
LINE
  5
3B0
100
AcDbEntity
  8
0
100
AcDbLine
 62
7
  6
CONTINUOUS
 10
28.0222075303
 20
2.1089557649
 11
28.1201185303
 21
2.4483087649
  0
LINE
  5
3B1
100
AcDbEntity
  8
ASSI
100
AcDbLine
 62
7
  6
CONTINUOUS
 10
28.0222075303
 20
2.1089557649
 11
28.1201185303
 21
2.4483087649
  0
LINE
  5
3B2
100
AcDbEntity
  8
0
100
AcDbLine
 62
7
  6
CONTINUOUS
 10
28.2044145303
 20
3.8088187649
 11
27.6712295303
 21
2.1089557649
  0
LINE
  5
3B3
100
AcDbEntity
  8
ASSI
100
AcDbLine
 62
7
  6
CONTINUOUS
 10
28.2044145303
 20
3.8088187649
 11
27.6712295303
 21
2.1089557649
  0
LINE
  5
3B4
100
AcDbEntity
  8
SCRITTE
100
AcDbLine
 62
253
  6
CONTINUOUS
 10
25.507216578
 20
0.0912567649
 11
24.7072165422
 21
-1.3087432351
  0
LINE
  5
3B5
100
AcDbEntity
  8
CURVE
100
AcDbLine
 62
253
  6
CONTINUOUS
 10
27.207216435
 20
1.4912567411
 11
27.4072166734
 21
1.7912567649
  0
LINE
  5
3B6
100
AcDbEntity
  8
SCRITTE
100
AcDbLine
 62
253
  6
CONTINUOUS
 10
26.7072166734
 20
0.0912567649
 11
26.3072165303
 21
-0.5087431993
  0
LINE
  5
3B7
100
AcDbEntity
  8
CURVE
100
AcDbLine
 62
253
  6
CONTINUOUS
 10
25.4072164588
 20
1.7912567649
 11
25.2072165542
 21
1.5912567768
  0
LINE
  5
3B8
100
AcDbEntity
  8
RACCORDO
100
AcDbLine
 62
253
  6
CONTINUOUS
 10
21.5371251474
 20
-2.3287432351
 11
21.6176012258
 21
-2.2482671567
  0
LINE
  5
3B9
100
AcDbEntity
  8
RACCORDO
100
AcDbLine
 62
253
  6
CONTINUOUS
 10
22.04870723
 20
-2.167258247
 11
22.0072165303
 21
-2.2087489466
  0
LINE
  5
3BA
100
AcDbEntity
  8
ASSI
100
AcDbLine
 62
253
  6
CONTINUOUS
 10
22.04870723
 20
-2.167258247
 11
22.0072165303
 21
-2.2087489466
  0
LINE
  5
3BB
100
AcDbEntity
  8
DRAFT
100
AcDbLine
 62
7
  6
CONTINUOUS
 10
22.8037255173
 20
-1.5622342481
 11
22.8072165303
 21
-1.5587432351
  0
LINE
  5
3BC
100
AcDbEntity
  8
RACCORDO
100
AcDbLine
 62
253
  6
CONTINUOUS
 10
22.1987015184
 20
-2.3172525354
 11
22.1572108188
 21
-2.3587432351
  0
LINE
  5
3BD
100
AcDbEntity
  8
ASSI
100
AcDbLine
 62
253
  6
CONTINUOUS
 10
22.1987015184
 20
-2.3172525354
 11
22.1572108188
 21
-2.3587432351
  0
LINE
  5
3BE
100
AcDbEntity
  8
CURVE
100
AcDbLine
 62
253
  6
CONTINUOUS
 10
25.507216578
 20
0.3912567649
 11
25.7072164826
 21
0.5912567738
  0
LINE
  5
3BF
100
AcDbEntity
  8
SCRITTE
100
AcDbLine
 62
253
  6
CONTINUOUS
 10
39.4884665303
 20
-0.5212432351
 11
39.3134665303
 21
-0.5649932351
  0
LINE
  5
3C0
100
AcDbEntity
  8
RACCORDO
100
AcDbLine
 62
7
  6
CONTINUOUS
 10
54.5720640773
 20
-0.4542523745
 11
54.5072165303
 21
-0.4587432351
  0
LINE
  5
3C1
100
AcDbEntity
  8
ASSI
100
AcDbLine
 62
7
  6
CONTINUOUS
 10
54.5720640773
 20
-0.4542523745
 11
54.5072165303
 21
-0.4587432351
  0
LWPOLYLINE
  5
3C2
100
AcDbEntity
  8
RACCORDO
100
AcDbPolyline
 62
7
  6
CONTINUOUS
 90
16
 70
0
 10
40.9599631883
 20
-2.4111243893
 10
41.0237880115
 20
-2.4075398082
 10
41.0855847822
 20
-2.3977556488
 10
41.1453535004
 20
-2.3817719112
 10
41.2036971542
 20
-2.3592796924
 10
41.2600127555
 20
-2.3305878954
 10
41.3124913401
 20
-2.2966232294
 10
41.3610085297
 20
-2.257216
 10
41.4056887025
 20
-2.2125359017
 10
41.4450960287
 20
-2.1640187274
 10
41.479060819
 20
-2.1115400667
 10
41.5077527625
 20
-2.0552243301
 10
41.5302450971
 20
-1.9968805419
 10
41.5462289019
 20
-1.9371117105
 10
41.5560130977
 20
-1.8753148275
 10
41.5595976846
 20
-1.8114898931
  0
LWPOLYLINE
  5
3C3
100
AcDbEntity
  8
RACCORDO
100
AcDbPolyline
 62
253
  6
CONTINUOUS
 90
19
 70
0
 10
40.8657486768
 20
-1.8172715739
 10
40.8744842871
 20
-1.8168877479
 10
40.8830530355
 20
-1.8157676853
 10
40.8914549222
 20
-1.8139113859
 10
40.89975986
 20
-1.8112946485
 10
40.907897936
 20
-1.8079416743
 10
40.9156594115
 20
-1.8039250676
 10
40.9230300357
 20
-1.7992264187
 10
40.9300240595
 20
-1.7938641374
 10
40.9364744966
 20
-1.7879660572
 10
40.9423647648
 20
-1.7815213595
 10
40.9477114463
 20
-1.7745408629
 10
40.9523973027
 20
-1.7671848577
 10
40.9564075421
 20
-1.7594404163
 10
40.9597569563
 20
-1.7513204663
 10
40.9623726823
 20
-1.7430240806
 10
40.9642304327
 20
-1.7346176167
 10
40.965354495
 20
-1.726034717
 10
40.9657448691
 20
-1.7172753816
  0
LWPOLYLINE
  5
3C4
100
AcDbEntity
  8
ASSI
100
AcDbPolyline
 62
253
  6
CONTINUOUS
 90
19
 70
0
 10
40.8657486768
 20
-1.8172715739
 10
40.8744842871
 20
-1.8168877479
 10
40.8830530355
 20
-1.8157676853
 10
40.8914549222
 20
-1.8139113859
 10
40.89975986
 20
-1.8112946485
 10
40.907897936
 20
-1.8079416743
 10
40.9156594115
 20
-1.8039250676
 10
40.9230300357
 20
-1.7992264187
 10
40.9300240595
 20
-1.7938641374
 10
40.9364744966
 20
-1.7879660572
 10
40.9423647648
 20
-1.7815213595
 10
40.9477114463
 20
-1.7745408629
 10
40.9523973027
 20
-1.7671848577
 10
40.9564075421
 20
-1.7594404163
 10
40.9597569563
 20
-1.7513204663
 10
40.9623726823
 20
-1.7430240806
 10
40.9642304327
 20
-1.7346176167
 10
40.965354495
 20
-1.726034717
 10
40.9657448691
 20
-1.7172753816
  0
LWPOLYLINE
  5
3C5
100
AcDbEntity
  8
RACCORDO
100
AcDbPolyline
 62
253
  6
CONTINUOUS
 90
19
 70
0
 10
40.8657486768
 20
-2.3172525354
 10
40.9180382658
 20
-2.3149663182
 10
40.9699298655
 20
-2.3081316845
 10
41.021028592
 20
-2.2968006511
 10
41.0709455907
 20
-2.2810594565
 10
41.1193010083
 20
-2.2610278901
 10
41.1657268811
 20
-2.2368583746
 10
41.2098699083
 20
-2.2087348377
 10
41.2513941736
 20
-2.1768712928
 10
41.2899837057
 20
-2.1415101826
 10
41.3253448711
 20
-2.1029205391
 10
41.3572085171
 20
-2.0613960603
 10
41.3853320797
 20
-2.0172528703
 10
41.40950153
 20
-1.970826969
 10
41.4295330026
 20
-1.9224716043
 10
41.4452741037
 20
-1.8725547105
 10
41.456605058
 20
-1.8214561293
 10
41.4634396352
 20
-1.7695647261
 10
41.4657258307
 20
-1.7172753816
  0
LWPOLYLINE
  5
3C6
100
AcDbEntity
  8
ASSI
100
AcDbPolyline
 62
253
  6
CONTINUOUS
 90
19
 70
0
 10
40.8657486768
 20
-2.3172525354
 10
40.9180382658
 20
-2.3149663182
 10
40.9699298655
 20
-2.3081316845
 10
41.021028592
 20
-2.2968006511
 10
41.0709455907
 20
-2.2810594565
 10
41.1193010083
 20
-2.2610278901
 10
41.1657268811
 20
-2.2368583746
 10
41.2098699083
 20
-2.2087348377
 10
41.2513941736
 20
-2.1768712928
 10
41.2899837057
 20
-2.1415101826
 10
41.3253448711
 20
-2.1029205391
 10
41.3572085171
 20
-2.0613960603
 10
41.3853320797
 20
-2.0172528703
 10
41.40950153
 20
-1.970826969
 10
41.4295330026
 20
-1.9224716043
 10
41.4452741037
 20
-1.8725547105
 10
41.456605058
 20
-1.8214561293
 10
41.4634396352
 20
-1.7695647261
 10
41.4657258307
 20
-1.7172753816
  0
LWPOLYLINE
  5
3C7
100
AcDbEntity
  8
RACCORDO
100
AcDbPolyline
 62
7
  6
CONTINUOUS
 90
4
 70
0
 10
40.5701450529
 20
-2.3572831301
 10
40.5841429486
 20
-2.3569907022
 10
40.5940754617
 20
-2.3566807767
 10
40.5999425923
 20
-2.3563533538
  0
LWPOLYLINE
  5
3C8
100
AcDbEntity
  8
ASSI
100
AcDbPolyline
 62
7
  6
CONTINUOUS
 90
4
 70
0
 10
40.5701450529
 20
-2.3572831301
 10
40.5841429486
 20
-2.3569907022
 10
40.5940754617
 20
-2.3566807767
 10
40.5999425923
 20
-2.3563533538
  0
LINE
  5
3C9
100
AcDbEntity
  8
RACCORDO
100
AcDbLine
 62
7
  6
CONTINUOUS
 10
40.5292842958
 20
-2.3578232723
 11
40.5701450529
 21
-2.3572831301
  0
LINE
  5
3CA
100
AcDbEntity
  8
ASSI
100
AcDbLine
 62
7
  6
CONTINUOUS
 10
40.5292842958
 20
-2.3578232723
 11
40.5701450529
 21
-2.3572831301
  0
LINE
  5
3CB
100
AcDbEntity
  8
RACCORDO
100
AcDbLine
 62
7
  6
CONTINUOUS
 10
54.5735186835
 20
-1.5083523141
 11
54.5447019307
 21
-1.5086374016
  0
LINE
  5
3CC
100
AcDbEntity
  8
RACCORDO
100
AcDbLine
 62
7
  6
CONTINUOUS
 10
40.4432446523
 20
-2.358429599
 11
40.5292842958
 21
-2.3578232723
  0
LINE
  5
3CD
100
AcDbEntity
  8
ASSI
100
AcDbLine
 62
7
  6
CONTINUOUS
 10
40.4432446523
 20
-2.358429599
 11
40.5292842958
 21
-2.3578232723
  0
LINE
  5
3CE
100
AcDbEntity
  8
RACCORDO
100
AcDbLine
 62
7
  6
CONTINUOUS
 10
54.5447019307
 20
-1.5086374016
 11
54.5106498936
 21
-1.5087432351
  0
LINE
  5
3CF
100
AcDbEntity
  8
RACCORDO
100
AcDbLine
 62
7
  6
CONTINUOUS
 10
40.7072165303
 20
-2.4111243893
 11
40.9599631883
 21
-2.4111243893
  0
LINE
  5
3D0
100
AcDbEntity
  8
DRAFT
100
AcDbLine
 62
7
  6
CONTINUOUS
 10
40.6548353761
 20
-2.3587432351
 11
33.2595976846
 21
-2.3587432351
  0
LINE
  5
3D1
100
AcDbEntity
  8
DRAFT
100
AcDbLine
 62
7
  6
CONTINUOUS
 10
33.1072165303
 20
-2.3587432351
 11
29.9072165303
 21
-2.3587432351
  0
LINE
  5
3D2
100
AcDbEntity
  8
RACCORDO
100
AcDbLine
 62
7
  6
CONTINUOUS
 10
21.5068510265
 20
-2.3587432351
 11
29.9072165303
 21
-2.3587432351
  0
LINE
  5
3D3
100
AcDbEntity
  8
RACCORDO
100
AcDbLine
 62
7
  6
CONTINUOUS
 10
33.1072165303
 20
-2.3587432351
 11
40.4432446523
 21
-2.358429599
  0
LINE
  5
3D4
100
AcDbEntity
  8
ASSI
100
AcDbLine
 62
7
  6
CONTINUOUS
 10
22.1572108188
 20
-2.3587432351
 11
40.4432446523
 21
-2.358429599
  0
LINE
  5
3D5
100
AcDbEntity
  8
RACCORDO
100
AcDbLine
 62
7
  6
CONTINUOUS
 10
40.8941490748
 20
-2.3456529334
 11
40.7072165303
 21
-2.3456529334
  0
LINE
  5
3D6
100
AcDbEntity
  8
ASSI
100
AcDbLine
 62
7
  6
CONTINUOUS
 10
40.8941490748
 20
-2.3456529334
 11
40.7072165303
 21
-2.3456529334
  0
LINE
  5
3D7
100
AcDbEntity
  8
RACCORDO
100
AcDbLine
 62
7
  6
CONTINUOUS
 10
22.0072165303
 20
-2.3287432351
 11
21.5371251474
 21
-2.3287432351
  0
LINE
  5
3D8
100
AcDbEntity
  8
RACCORDO
100
AcDbLine
 62
7
  6
CONTINUOUS
 10
22.1987015184
 20
-2.3172525354
 11
40.8657486768
 21
-2.3172525354
  0
LINE
  5
3D9
100
AcDbEntity
  8
ASSI
100
AcDbLine
 62
7
  6
CONTINUOUS
 10
22.1987015184
 20
-2.3172525354
 11
40.8657486768
 21
-2.3172525354
  0
LINE
  5
3DA
100
AcDbEntity
  8
RACCORDO
100
AcDbLine
 62
253
  6
CONTINUOUS
 10
21.6176012258
 20
-2.2482671567
 11
21.9669815556
 21
-2.2482671567
  0
LINE
  5
3DB
100
AcDbEntity
  8
RACCORDO
100
AcDbLine
 62
253
  6
CONTINUOUS
 10
22.0517349793
 20
-1.8172715739
 11
40.8657486768
 21
-1.8172715739
  0
LINE
  5
3DC
100
AcDbEntity
  8
ASSI
100
AcDbLine
 62
253
  6
CONTINUOUS
 10
22.0517349793
 20
-1.8172715739
 11
40.8657486768
 21
-1.8172715739
  0
LINE
  5
3DD
100
AcDbEntity
  8
RACCORDO
100
AcDbLine
 62
253
  6
CONTINUOUS
 10
40.9657448691
 20
-1.7172753816
 11
41.4657258307
 21
-1.7172753816
  0
LINE
  5
3DE
100
AcDbEntity
  8
ASSI
100
AcDbLine
 62
253
  6
CONTINUOUS
 10
40.9657448691
 20
-1.7172753816
 11
41.4657258307
 21
-1.7172753816
  0
LINE
  5
3DF
100
AcDbEntity
  8
RACCORDO
100
AcDbLine
 62
253
  6
CONTINUOUS
 10
21.0176926087
 20
-1.6483585396
 11
21.9618368178
 21
-1.6483585396
  0
LINE
  5
3E0
100
AcDbEntity
  8
DRAFT
100
AcDbLine
 62
7
  6
CONTINUOUS
 10
22.8037255173
 20
-1.5622342481
 11
40.7107075433
 21
-1.5622342481
  0
LINE
  5
3E1
100
AcDbEntity
  8
ASSI
100
AcDbLine
 62
7
  6
CONTINUOUS
 10
22.8037255173
 20
-1.5622342481
 11
40.7107075433
 21
-1.5622342481
  0
LINE
  5
3E2
100
AcDbEntity
  8
DRAFT
100
AcDbLine
 62
7
  6
CONTINUOUS
 10
22.8072165303
 20
-1.5587432351
 11
40.7072165303
 21
-1.5587432351
  0
LINE
  5
3E3
100
AcDbEntity
  8
ASSI
100
AcDbLine
 62
7
  6
CONTINUOUS
 10
22.8072165303
 20
-1.5587432351
 11
40.7072165303
 21
-1.5587432351
  0
LINE
  5
3E4
100
AcDbEntity
  8
RACCORDO
100
AcDbLine
 62
7
  6
CONTINUOUS
 10
55.5072317608
 20
-1.5087432351
 11
41.5595976846
 21
-1.5087432351
  0
LINE
  5
3E5
100
AcDbEntity
  8
DRAFT
100
AcDbLine
 62
7
  6
CONTINUOUS
 10
54.5072165303
 20
-1.5087432351
 11
41.4941262286
 21
-1.5087432351
  0
LINE
  5
3E6
100
AcDbEntity
  8
ASSI
100
AcDbLine
 62
7
  6
CONTINUOUS
 10
54.5072165303
 20
-1.5087432351
 11
41.4941262286
 21
-1.5087432351
  0
LINE
  5
3E7
100
AcDbEntity
  8
RACCORDO
100
AcDbLine
 62
253
  6
CONTINUOUS
 10
41.489839646
 20
-1.5001694169
 11
54.4986427121
 21
-1.5001694169
  0
LINE
  5
3E8
100
AcDbEntity
  8
ASSI
100
AcDbLine
 62
253
  6
CONTINUOUS
 10
41.489839646
 20
-1.5001694169
 11
54.4986427121
 21
-1.5001694169
  0
LINE
  5
3E9
100
AcDbEntity
  8
RACCORDO
100
AcDbLine
 62
253
  6
CONTINUOUS
 10
54.6262525251
 20
-1.4992281376
 11
55.497716535
 21
-1.4992280093
  0
LINE
  5
3EA
100
AcDbEntity
  8
RACCORDO
100
AcDbLine
 62
253
  6
CONTINUOUS
 10
54.6297705074
 20
-1.4871738931
 11
55.4963097576
 21
-1.4871719662
  0
LINE
  5
3EB
100
AcDbEntity
  8
RACCORDO
100
AcDbLine
 62
253
  6
CONTINUOUS
 10
41.4878718084
 20
-1.4703619713
 11
54.4947067371
 21
-1.4703619713
  0
LINE
  5
3EC
100
AcDbEntity
  8
ASSI
100
AcDbLine
 62
253
  6
CONTINUOUS
 10
41.4878718084
 20
-1.4703619713
 11
54.4947067371
 21
-1.4703619713
  0
LWPOLYLINE
  5
3ED
100
AcDbEntity
  8
RACCORDO
100
AcDbPolyline
 62
7
  6
CONTINUOUS
 90
16
 70
0
 10
21.5068510265
 20
-2.3587432351
 10
21.4429887716
 20
-2.3551546055
 10
21.3811574239
 20
-2.34535921
 10
21.3213569835
 20
-2.3293570485
 10
21.2629831931
 20
-2.306838479
 10
21.2066403099
 20
-2.2781131435
 10
21.1541411058
 20
-2.244109968
 10
21.1056105822
 20
-2.2046588865
 10
21.0609237378
 20
-2.1599299651
 10
21.0215183395
 20
-2.1113623281
 10
20.9875645811
 20
-2.0588102385
 10
20.9588922689
 20
-2.0024194334
 10
20.9364285891
 20
-1.9440662474
 10
20.9204826037
 20
-1.8843761254
 10
20.9107452508
 20
-1.8227236226
 10
20.9072165303
 20
-1.7591087389
  0
LWPOLYLINE
  5
3EE
100
AcDbEntity
  8
RACCORDO
100
AcDbPolyline
 62
7
  6
CONTINUOUS
 90
16
 70
0
 10
21.5371251474
 20
-2.3287432351
 10
21.4732972571
 20
-2.3251575495
 10
21.4114924592
 20
-2.3153689963
 10
21.3517107538
 20
-2.2993775754
 10
21.2933496151
 20
-2.2768763705
 10
21.2370115688
 20
-2.248172298
 10
21.1845041923
 20
-2.214186107
 10
21.1359461948
 20
-2.1747408976
 10
21.0912188671
 20
-2.1300135698
 10
21.0517736579
 20
-2.0814555723
 10
21.017787467
 20
-2.0289481959
 10
20.9890833946
 20
-1.9726101499
 10
20.9665821899
 20
-1.9142490113
 10
20.9505907691
 20
-1.854467306
 10
20.9408022159
 20
-1.7926625083
 10
20.9372165303
 20
-1.728834618
  0
LWPOLYLINE
  5
3EF
100
AcDbEntity
  8
RACCORDO
100
AcDbPolyline
 62
7
  6
CONTINUOUS
 90
9
 70
0
 10
20.8196855463
 20
-0.321212251
 10
20.821893525
 20
-0.3216579567
 10
20.826958789
 20
-0.3220829958
 10
20.8348813385
 20
-0.3224873683
 10
20.8458722083
 20
-0.3228766874
 10
20.8597203636
 20
-0.3232453399
 10
20.8757926994
 20
-0.3235764866
 10
20.8941922698
 20
-0.3238683854
 10
20.9367216855
 20
-0.3243280528
  0
LWPOLYLINE
  5
3F0
100
AcDbEntity
  8
ASSI
100
AcDbPolyline
 62
7
  6
CONTINUOUS
 90
9
 70
0
 10
20.8196855463
 20
-0.321212251
 10
20.821893525
 20
-0.3216579567
 10
20.826958789
 20
-0.3220829958
 10
20.8348813385
 20
-0.3224873683
 10
20.8458722083
 20
-0.3228766874
 10
20.8597203636
 20
-0.3232453399
 10
20.8757926994
 20
-0.3235764866
 10
20.8941922698
 20
-0.3238683854
 10
20.9367216855
 20
-0.3243280528
  0
LINE
  5
3F1
100
AcDbEntity
  8
RACCORDO
100
AcDbLine
 62
253
  6
CONTINUOUS
 10
20.8144827777
 20
3.5745564615
 11
20.8049769721
 21
3.5793090023
  0
LINE
  5
3F2
100
AcDbEntity
  8
ASSI
100
AcDbLine
 62
253
  6
CONTINUOUS
 10
20.8144827777
 20
3.5745564615
 11
20.8049769721
 21
3.5793090023
  0
LINE
  5
3F3
100
AcDbEntity
  8
RACCORDO
100
AcDbLine
 62
253
  6
CONTINUOUS
 10
22.0072165303
 20
4.9912624764
 11
22.04870723
 21
4.9497717768
  0
LINE
  5
3F4
100
AcDbEntity
  8
ASSI
100
AcDbLine
 62
253
  6
CONTINUOUS
 10
22.0072165303
 20
4.9912624764
 11
22.04870723
 21
4.9497717768
  0
LINE
  5
3F5
100
AcDbEntity
  8
DRAFT
100
AcDbLine
 62
7
  6
CONTINUOUS
 10
22.8037255173
 20
4.3447477779
 11
22.8072165303
 21
4.3412567649
  0
LINE
  5
3F6
100
AcDbEntity
  8
RACCORDO
100
AcDbLine
 62
253
  6
CONTINUOUS
 10
22.1572108188
 20
5.1412567649
 11
22.1987015184
 21
5.0997660652
  0
LINE
  5
3F7
100
AcDbEntity
  8
ASSI
100
AcDbLine
 62
253
  6
CONTINUOUS
 10
22.1572108188
 20
5.1412567649
 11
22.1987015184
 21
5.0997660652
  0
LINE
  5
3F8
100
AcDbEntity
  8
CURVE
100
AcDbLine
 62
253
  6
CONTINUOUS
 10
25.7072164826
 20
1.5912567768
 11
25.507216578
 21
1.7912567649
  0
LINE
  5
3F9
100
AcDbEntity
  8
0
100
AcDbLine
 62
7
  6
CONTINUOUS
 10
26.3075845303
 20
3.2189347649
 11
26.7238405303
 21
2.1089557649
  0
LINE
  5
3FA
100
AcDbEntity
  8
ASSI
100
AcDbLine
 62
7
  6
CONTINUOUS
 10
26.3075845303
 20
3.2189347649
 11
26.7238405303
 21
2.1089557649
  0
LINE
  5
3FB
100
AcDbEntity
  8
0
100
AcDbLine
 62
7
  6
CONTINUOUS
 10
26.7506605303
 20
2.8650497649
 11
26.3995795303
 21
3.8088187649
  0
LINE
  5
3FC
100
AcDbEntity
  8
ASSI
100
AcDbLine
 62
7
  6
CONTINUOUS
 10
26.7506605303
 20
2.8650497649
 11
26.3995795303
 21
3.8088187649
  0
LINE
  5
3FD
100
AcDbEntity
  8
CURVE
100
AcDbLine
 62
253
  6
CONTINUOUS
 10
28.9072166257
 20
0.9912567709
 11
28.9072166257
 21
0.5912567738
  0
LINE
  5
3FE
100
AcDbEntity
  8
0
100
AcDbLine
 62
7
  6
CONTINUOUS
 10
29.1734231942
 20
3.7889588471
 11
29.1734231942
 21
2.1089560782
  0
LINE
  5
3FF
100
AcDbEntity
  8
ASSI
100
AcDbLine
 62
7
  6
CONTINUOUS
 10
29.1734231942
 20
3.7889588471
 11
29.1734231942
 21
2.1089560782
  0
LINE
  5
400
100
AcDbEntity
  8
CURVE
100
AcDbLine
 62
253
  6
CONTINUOUS
 10
29.307216435
 20
1.3912567887
 11
29.307216435
 21
0.7912567828
  0
LINE
  5
401
100
AcDbEntity
  8
0
100
AcDbLine
 62
7
  6
CONTINUOUS
 10
29.5150579619
 20
3.0525849334
 11
29.5150579619
 21
3.5192304159
  0
LINE
  5
402
100
AcDbEntity
  8
ASSI
100
AcDbLine
 62
7
  6
CONTINUOUS
 10
29.5150579619
 20
3.0525849334
 11
29.5150579619
 21
3.5192304159
  0
LINE
  5
403
100
AcDbEntity
  8
0
100
AcDbLine
 62
7
  6
CONTINUOUS
 10
29.5268235263
 20
2.1089560782
 11
29.5268235263
 21
2.7741884808
  0
LINE
  5
404
100
AcDbEntity
  8
ASSI
100
AcDbLine
 62
7
  6
CONTINUOUS
 10
29.5268235263
 20
2.1089560782
 11
29.5268235263
 21
2.7741884808
  0
LINE
  5
405
100
AcDbEntity
  8
CURVE
100
AcDbLine
 62
253
  6
CONTINUOUS
 10
30.007216435
 20
0.7912567828
 11
30.007216435
 21
1.3912567887
  0
LINE
  5
406
100
AcDbEntity
  8
0
100
AcDbLine
 62
7
  6
CONTINUOUS
 10
30.0856687131
 20
2.9024369565
 11
30.0856687131
 21
2.9124816637
  0
LINE
  5
407
100
AcDbEntity
  8
ASSI
100
AcDbLine
 62
7
  6
CONTINUOUS
 10
30.0856687131
 20
2.9024369565
 11
30.0856687131
 21
2.9124816637
  0
LWPOLYLINE
  5
408
100
AcDbEntity
  8
0
100
AcDbPolyline
 62
7
  6
CONTINUOUS
 90
16
 70
0
 10
29.9934690088
 20
3.3167428861
 10
29.991659743
 20
3.2833026704
 10
29.9871546905
 20
3.251776655
 10
29.9799538515
 20
3.2221648397
 10
29.9698804688
 20
3.1941785335
 10
29.9571112995
 20
3.1681064276
 10
29.9421766147
 20
3.1448145954
 10
29.9252390605
 20
3.1246676742
 10
29.9061359909
 20
3.1073010267
 10
29.884909739
 20
3.0924868146
 10
29.8613970602
 20
3.0803032424
 10
29.8357611991
 20
3.0706721055
 10
29.8085342232
 20
3.0631309514
 10
29.7798934885
 20
3.0575256293
 10
29.749661639
 20
3.05401029
 10
29.7178386748
 20
3.0525849334
  0
LWPOLYLINE
  5
409
100
AcDbEntity
  8
ASSI
100
AcDbPolyline
 62
7
  6
CONTINUOUS
 90
16
 70
0
 10
29.9934690088
 20
3.3167428861
 10
29.991659743
 20
3.2833026704
 10
29.9871546905
 20
3.251776655
 10
29.9799538515
 20
3.2221648397
 10
29.9698804688
 20
3.1941785335
 10
29.9571112995
 20
3.1681064276
 10
29.9421766147
 20
3.1448145954
 10
29.9252390605
 20
3.1246676742
 10
29.9061359909
 20
3.1073010267
 10
29.884909739
 20
3.0924868146
 10
29.8613970602
 20
3.0803032424
 10
29.8357611991
 20
3.0706721055
 10
29.8085342232
 20
3.0631309514
 10
29.7798934885
 20
3.0575256293
 10
29.749661639
 20
3.05401029
 10
29.7178386748
 20
3.0525849334
  0
LINE
  5
40A
100
AcDbEntity
  8
CURVE
100
AcDbLine
 62
253
  6
CONTINUOUS
 10
29.4072167211
 20
1.5912567768
 11
29.307216435
 21
1.3912567887
  0
LINE
  5
40B
100
AcDbEntity
  8
SCRITTE
100
AcDbLine
 62
253
  6
CONTINUOUS
 10
28.307216578
 20
-1.3087432351
 11
29.007216578
 21
0.0912567649
  0
LINE
  5
40C
100
AcDbEntity
  8
SCRITTE
100
AcDbLine
 62
253
  6
CONTINUOUS
 10
27.907216435
 20
0.0912567649
 11
27.5072166257
 21
-0.5087431993
  0
LINE
  5
40D
100
AcDbEntity
  8
CURVE
100
AcDbLine
 62
253
  6
CONTINUOUS
 10
27.907216435
 20
1.3912567887
 11
27.207216435
 21
0.3912567649
  0
LINE
  5
40E
100
AcDbEntity
  8
CURVE
100
AcDbLine
 62
253
  6
CONTINUOUS
 10
29.6072166257
 20
1.7912567649
 11
29.4072167211
 21
1.5912567768
  0
LWPOLYLINE
  5
40F
100
AcDbEntity
  8
0
100
AcDbPolyline
 62
7
  6
CONTINUOUS
 90
40
 70
0
 10
30.1371070914
 20
2.9404574518
 10
30.157483192
 20
2.9577083093
 10
30.1677599306
 20
2.9667230118
 10
30.1780458465
 20
2.9761850663
 10
30.1883606031
 20
2.9860374344
 10
30.1986845369
 20
2.9963371545
 10
30.2089260614
 20
3.0073375451
 10
30.2190978568
 20
3.0190620642
 10
30.2291872428
 20
3.0314872537
 10
30.2390645933
 20
3.0447960574
 10
30.2487420361
 20
3.0590371597
 10
30.2582074433
 20
3.0741618762
 10
30.2672948041
 20
3.0902070975
 10
30.2760225443
 20
3.1071903703
 10
30.284372238
 20
3.1250941479
 10
30.2921225976
 20
3.1439026818
 10
30.29927778
 20
3.1636053621
 10
30.3058336282
 20
3.1842127988
 10
30.3115563831
 20
3.2057410721
 10
30.3164475258
 20
3.2281868796
 10
30.3205055751
 20
3.2515535238
 10
30.3234923289
 20
3.2758669936
 10
30.3254302728
 20
3.3011618891
 10
30.3262969211
 20
3.3274036102
 10
30.3257866151
 20
3.3545143449
 10
30.3240167205
 20
3.3825282098
 10
30.3208698715
 20
3.4114110883
 10
30.3156883124
 20
3.4409828198
 10
30.3085370371
 20
3.4713429264
 10
30.2993510516
 20
3.5023918859
 10
30.2872776177
 20
3.5336509708
 10
30.2722086087
 20
3.5653305559
 10
30.2542521512
 20
3.5972202665
 10
30.2328798868
 20
3.6282102508
 10
30.2072776619
 20
3.65874442
 10
30.1782596301
 20
3.688378863
 10
30.1477398941
 20
3.7146719943
 10
30.1163564882
 20
3.736809952
 10
30.0834713781
 20
3.755606598
 10
30.0490845639
 20
3.7710619323
  0
LWPOLYLINE
  5
410
100
AcDbEntity
  8
ASSI
100
AcDbPolyline
 62
7
  6
CONTINUOUS
 90
40
 70
0
 10
30.1371070914
 20
2.9404574518
 10
30.157483192
 20
2.9577083093
 10
30.1677599306
 20
2.9667230118
 10
30.1780458465
 20
2.9761850663
 10
30.1883606031
 20
2.9860374344
 10
30.1986845369
 20
2.9963371545
 10
30.2089260614
 20
3.0073375451
 10
30.2190978568
 20
3.0190620642
 10
30.2291872428
 20
3.0314872537
 10
30.2390645933
 20
3.0447960574
 10
30.2487420361
 20
3.0590371597
 10
30.2582074433
 20
3.0741618762
 10
30.2672948041
 20
3.0902070975
 10
30.2760225443
 20
3.1071903703
 10
30.284372238
 20
3.1250941479
 10
30.2921225976
 20
3.1439026818
 10
30.29927778
 20
3.1636053621
 10
30.3058336282
 20
3.1842127988
 10
30.3115563831
 20
3.2057410721
 10
30.3164475258
 20
3.2281868796
 10
30.3205055751
 20
3.2515535238
 10
30.3234923289
 20
3.2758669936
 10
30.3254302728
 20
3.3011618891
 10
30.3262969211
 20
3.3274036102
 10
30.3257866151
 20
3.3545143449
 10
30.3240167205
 20
3.3825282098
 10
30.3208698715
 20
3.4114110883
 10
30.3156883124
 20
3.4409828198
 10
30.3085370371
 20
3.4713429264
 10
30.2993510516
 20
3.5023918859
 10
30.2872776177
 20
3.5336509708
 10
30.2722086087
 20
3.5653305559
 10
30.2542521512
 20
3.5972202665
 10
30.2328798868
 20
3.6282102508
 10
30.2072776619
 20
3.65874442
 10
30.1782596301
 20
3.688378863
 10
30.1477398941
 20
3.7146719943
 10
30.1163564882
 20
3.736809952
 10
30.0834713781
 20
3.755606598
 10
30.0490845639
 20
3.7710619323
  0
LINE
  5
411
100
AcDbEntity
  8
0
100
AcDbLine
 62
7
  6
CONTINUOUS
 10
30.1270077295
 20
2.9322212967
 11
30.1371070914
 21
2.9404574518
  0
LINE
  5
412
100
AcDbEntity
  8
ASSI
100
AcDbLine
 62
7
  6
CONTINUOUS
 10
30.1270077295
 20
2.9322212967
 11
30.1371070914
 21
2.9404574518
  0
LINE
  5
413
100
AcDbEntity
  8
RACCORDO
100
AcDbLine
 62
253
  6
CONTINUOUS
 10
20.8049769721
 20
-0.7967954725
 11
20.8144827777
 21
-0.7920429317
  0
LINE
  5
414
100
AcDbEntity
  8
ASSI
100
AcDbLine
 62
253
  6
CONTINUOUS
 10
20.8049769721
 20
-0.7967954725
 11
20.8144827777
 21
-0.7920429317
  0
LWPOLYLINE
  5
415
100
AcDbEntity
  8
0
100
AcDbPolyline
 62
7
  6
CONTINUOUS
 90
5
 70
0
 10
30.0856687131
 20
2.9124816637
 10
30.0961364643
 20
2.9154937238
 10
30.106522416
 20
2.9197394327
 10
30.1168265681
 20
2.9252187904
 10
30.1270077295
 20
2.9322212967
  0
LWPOLYLINE
  5
416
100
AcDbEntity
  8
ASSI
100
AcDbPolyline
 62
7
  6
CONTINUOUS
 90
5
 70
0
 10
30.0856687131
 20
2.9124816637
 10
30.0961364643
 20
2.9154937238
 10
30.106522416
 20
2.9197394327
 10
30.1168265681
 20
2.9252187904
 10
30.1270077295
 20
2.9322212967
  0
LINE
  5
417
100
AcDbEntity
  8
RACCORDO
100
AcDbLine
 62
7
  6
CONTINUOUS
 10
21.9864655521
 20
-0.9915907604
 11
22.0243863483
 21
-0.9915734171
  0
LINE
  5
418
100
AcDbEntity
  8
ASSI
100
AcDbLine
 62
7
  6
CONTINUOUS
 10
21.9864655521
 20
-0.9915907604
 11
22.0243863483
 21
-0.9915734171
  0
LINE
  5
419
100
AcDbEntity
  8
RACCORDO
100
AcDbLine
 62
253
  6
CONTINUOUS
 10
21.9853993608
 20
-0.4915983185
 11
22.0287196745
 21
-0.4915785057
  0
LINE
  5
41A
100
AcDbEntity
  8
ASSI
100
AcDbLine
 62
253
  6
CONTINUOUS
 10
21.9853993608
 20
-0.4915983185
 11
22.0287196745
 21
-0.4915785057
  0
LINE
  5
41B
100
AcDbEntity
  8
CURVE
100
AcDbLine
 62
253
  6
CONTINUOUS
 10
35.3072165542
 20
-1.3087432351
 11
34.8072164588
 21
-1.3087432351
  0
LINE
  5
41C
100
AcDbEntity
  8
SCRITTE
100
AcDbLine
 62
253
  6
CONTINUOUS
 10
30.1072167211
 20
-1.3087432351
 11
29.4072167211
 21
-1.3087432351
  0
LINE
  5
41D
100
AcDbEntity
  8
SCRITTE
100
AcDbLine
 62
253
  6
CONTINUOUS
 10
29.007216578
 20
-1.3087432351
 11
28.307216578
 21
-1.3087432351
  0
LINE
  5
41E
100
AcDbEntity
  8
CURVE
100
AcDbLine
 62
253
  6
CONTINUOUS
 10
33.2072165333
 20
-1.3087432351
 11
33.3072165482
 21
-1.3087432351
  0
LINE
  5
41F
100
AcDbEntity
  8
SCRITTE
100
AcDbLine
 62
253
  6
CONTINUOUS
 10
39.3572165303
 20
-1.3087432351
 11
39.4884665303
 21
-1.3087432351
  0
LINE
  5
420
100
AcDbEntity
  8
CURVE
100
AcDbLine
 62
253
  6
CONTINUOUS
 10
34.2405498676
 20
-1.2420765672
 11
34.2738831572
 21
-1.2420765672
  0
LINE
  5
421
100
AcDbEntity
  8
DRAFT
100
AcDbLine
 62
7
  6
CONTINUOUS
 10
20.9072165303
 20
-1.1897626833
 11
20.9372165303
 21
-1.1897626833
  0
LINE
  5
422
100
AcDbEntity
  8
CURVE
100
AcDbLine
 62
253
  6
CONTINUOUS
 10
34.3072165303
 20
-1.0754098948
 11
34.2738831572
 21
-1.0754098948
  0
LINE
  5
423
100
AcDbEntity
  8
DRAFT
100
AcDbLine
 62
7
  6
CONTINUOUS
 10
22.0072165303
 20
-1.0087432351
 11
21.986658623
 21
-1.0087432351
  0
LINE
  5
424
100
AcDbEntity
  8
ASSI
100
AcDbLine
 62
7
  6
CONTINUOUS
 10
22.0072165303
 20
-1.0087432351
 11
21.986658623
 21
-1.0087432351
  0
LINE
  5
425
100
AcDbEntity
  8
DRAFT
100
AcDbLine
 62
7
  6
CONTINUOUS
 10
20.9783354711
 20
-1.0087432351
 11
19.0072165303
 21
-1.0087432351
  0
LINE
  5
426
100
AcDbEntity
  8
ASSI
100
AcDbLine
 62
7
  6
CONTINUOUS
 10
20.9783354711
 20
-1.0087432351
 11
19.0072165303
 21
-1.0087432351
  0
LINE
  5
427
100
AcDbEntity
  8
RACCORDO
100
AcDbLine
 62
7
  6
CONTINUOUS
 10
19.0162724289
 20
-0.9996873365
 11
20.97855604
 21
-0.9996873365
  0
LINE
  5
428
100
AcDbEntity
  8
ASSI
100
AcDbLine
 62
7
  6
CONTINUOUS
 10
19.0162724289
 20
-0.9996873365
 11
20.97855604
 21
-0.9996873365
  0
LINE
  5
429
100
AcDbEntity
  8
RACCORDO
100
AcDbLine
 62
253
  6
CONTINUOUS
 10
19.0171747131
 20
-0.9698309115
 11
20.8972922996
 21
-0.9698309115
  0
LINE
  5
42A
100
AcDbEntity
  8
ASSI
100
AcDbLine
 62
253
  6
CONTINUOUS
 10
19.0171747131
 20
-0.9698309115
 11
20.8972922996
 21
-0.9698309115
  0
LINE
  5
42B
100
AcDbEntity
  8
SCRITTE
100
AcDbLine
 62
253
  6
CONTINUOUS
 10
39.4447165303
 20
-0.5212432351
 11
39.4884665303
 21
-0.5212432351
  0
LINE
  5
42C
100
AcDbEntity
  8
CURVE
100
AcDbLine
 62
253
  6
CONTINUOUS
 10
35.0072165303
 20
-0.5087431993
 11
35.2072166018
 21
-0.5087431993
  0
LINE
  5
42D
100
AcDbEntity
  8
RACCORDO
100
AcDbLine
 62
253
  6
CONTINUOUS
 10
54.4676069599
 20
-0.4937078809
 11
41.4743229517
 21
-0.4937078809
  0
LINE
  5
42E
100
AcDbEntity
  8
ASSI
100
AcDbLine
 62
253
  6
CONTINUOUS
 10
54.4676069599
 20
-0.4937078809
 11
41.4743229517
 21
-0.4937078809
  0
LINE
  5
42F
100
AcDbEntity
  8
RACCORDO
100
AcDbLine
 62
253
  6
CONTINUOUS
 10
20.8196855463
 20
-0.4920447944
 11
20.9808541926
 21
-0.492044793
  0
LINE
  5
430
100
AcDbEntity
  8
ASSI
100
AcDbLine
 62
253
  6
CONTINUOUS
 10
20.8196855463
 20
-0.4920447944
 11
20.9808541926
 21
-0.492044793
  0
LINE
  5
431
100
AcDbEntity
  8
0
100
AcDbLine
 62
7
  6
CONTINUOUS
 10
19.0168256169
 20
-0.3587432351
 11
7.7260812174
 21
-0.3587432351
  0
LINE
  5
432
100
AcDbEntity
  8
DRAFT
100
AcDbLine
 62
7
  6
CONTINUOUS
 10
22.022372758
 20
-0.3128754018
 11
21.9853993608
 21
-0.3128754018
  0
LINE
  5
433
100
AcDbEntity
  8
ASSI
100
AcDbLine
 62
7
  6
CONTINUOUS
 10
22.022372758
 20
-0.3128754018
 11
21.9853993608
 21
-0.3128754018
  0
LINE
  5
434
100
AcDbEntity
  8
DRAFT
100
AcDbLine
 62
7
  6
CONTINUOUS
 10
20.9808541926
 20
-0.3128754018
 11
20.811348697
 21
-0.3128754018
  0
LINE
  5
435
100
AcDbEntity
  8
ASSI
100
AcDbLine
 62
7
  6
CONTINUOUS
 10
20.9808541926
 20
-0.3128754018
 11
20.811348697
 21
-0.3128754018
  0
LINE
  5
436
100
AcDbEntity
  8
RACCORDO
100
AcDbLine
 62
253
  6
CONTINUOUS
 10
55.4218569231
 20
-0.225859585
 11
55.080424236
 21
-0.225859585
  0
LINE
  5
437
100
AcDbEntity
  8
RACCORDO
100
AcDbLine
 62
253
  6
CONTINUOUS
 10
55.3670394154
 20
-0.1162245783
 11
55.1900592428
 21
-0.1162245783
  0
LINE
  5
438
100
AcDbEntity
  8
SCRITTE
100
AcDbLine
 62
253
  6
CONTINUOUS
 10
39.4884665303
 20
0.0037567649
 11
39.4009665303
 21
0.0037567649
  0
LINE
  5
439
100
AcDbEntity
  8
RACCORDO
100
AcDbLine
 62
253
  6
CONTINUOUS
 10
54.6552129723
 20
0.0808479431
 11
54.4844222691
 21
0.0808479431
  0
LINE
  5
43A
100
AcDbEntity
  8
ASSI
100
AcDbLine
 62
253
  6
CONTINUOUS
 10
54.6552129723
 20
0.0808479431
 11
54.4844222691
 21
0.0808479431
  0
LINE
  5
43B
100
AcDbEntity
  8
CURVE
100
AcDbLine
 62
253
  6
CONTINUOUS
 10
33.3072165482
 20
0.0912567649
 11
33.2072165333
 21
0.0912567649
  0
LINE
  5
43C
100
AcDbEntity
  8
SCRITTE
100
AcDbLine
 62
253
  6
CONTINUOUS
 10
30.1072167211
 20
0.0912567649
 11
29.4072167211
 21
0.0912567649
  0
LINE
  5
43D
100
AcDbEntity
  8
SCRITTE
100
AcDbLine
 62
253
  6
CONTINUOUS
 10
29.007216578
 20
0.0912567649
 11
28.307216578
 21
0.0912567649
  0
LINE
  5
43E
100
AcDbEntity
  8
CURVE
100
AcDbLine
 62
253
  6
CONTINUOUS
 10
34.8072164588
 20
0.0912567649
 11
35.2072166018
 21
0.0912567649
  0
LINE
  5
43F
100
AcDbEntity
  8
RACCORDO
100
AcDbLine
 62
253
  6
CONTINUOUS
 10
54.463578868
 20
0.1452631855
 11
41.4723090592
 21
0.1452631855
  0
LINE
  5
440
100
AcDbEntity
  8
ASSI
100
AcDbLine
 62
253
  6
CONTINUOUS
 10
54.463578868
 20
0.1452631855
 11
41.4723090592
 21
0.1452631855
  0
LINE
  5
441
100
AcDbEntity
  8
RACCORDO
100
AcDbLine
 62
7
  6
CONTINUOUS
 10
22.0287196745
 20
-0.3255702016
 11
21.9853993608
 21
-0.325530573
  0
LINE
  5
442
100
AcDbEntity
  8
ASSI
100
AcDbLine
 62
7
  6
CONTINUOUS
 10
22.0287196745
 20
-0.3255702016
 11
21.9853993608
 21
-0.325530573
  0
LINE
  5
443
100
AcDbEntity
  8
RACCORDO
100
AcDbLine
 62
7
  6
CONTINUOUS
 10
20.9367216855
 20
-0.3243280528
 11
20.9808541926
 21
-0.3245711345
  0
LINE
  5
444
100
AcDbEntity
  8
ASSI
100
AcDbLine
 62
7
  6
CONTINUOUS
 10
20.9367216855
 20
-0.3243280528
 11
20.9808541926
 21
-0.3245711345
  0
LINE
  5
445
100
AcDbEntity
  8
CURVE
100
AcDbLine
 62
253
  6
CONTINUOUS
 10
27.7072165303
 20
1.7912567649
 11
27.907216435
 21
1.5912567768
  0
LINE
  5
446
100
AcDbEntity
  8
CURVE
100
AcDbLine
 62
253
  6
CONTINUOUS
 10
28.7072163873
 20
1.1912568007
 11
28.9072166257
 21
0.9912567709
  0
LINE
  5
447
100
AcDbEntity
  8
CURVE
100
AcDbLine
 62
253
  6
CONTINUOUS
 10
29.4072167211
 20
0.5912567738
 11
29.6072166257
 21
0.3912567649
  0
LINE
  5
448
100
AcDbEntity
  8
CURVE
100
AcDbLine
 62
253
  6
CONTINUOUS
 10
29.307216435
 20
0.7912567828
 11
29.4072167211
 21
0.5912567738
  0
LINE
  5
449
100
AcDbEntity
  8
CURVE
100
AcDbLine
 62
253
  6
CONTINUOUS
 10
30.007216435
 20
1.3912567887
 11
29.9072168164
 21
1.5912567768
  0
LINE
  5
44A
100
AcDbEntity
  8
0
100
AcDbLine
 62
7
  6
CONTINUOUS
 10
29.0692285303
 20
2.1089557649
 11
28.5476685303
 21
3.8088187649
  0
LINE
  5
44B
100
AcDbEntity
  8
ASSI
100
AcDbLine
 62
7
  6
CONTINUOUS
 10
29.0692285303
 20
2.1089557649
 11
28.5476685303
 21
3.8088187649
  0
LINE
  5
44C
100
AcDbEntity
  8
0
100
AcDbLine
 62
7
  6
CONTINUOUS
 10
30.017964893
 20
2.2877640498
 11
30.0701937454
 21
2.1089560782
  0
LINE
  5
44D
100
AcDbEntity
  8
ASSI
100
AcDbLine
 62
7
  6
CONTINUOUS
 10
30.017964893
 20
2.2877640498
 11
30.0701937454
 21
2.1089560782
  0
LINE
  5
44E
100
AcDbEntity
  8
0
100
AcDbLine
 62
7
  6
CONTINUOUS
 10
28.6033355303
 20
2.4483087649
 11
28.6952545303
 21
2.1089557649
  0
LINE
  5
44F
100
AcDbEntity
  8
ASSI
100
AcDbLine
 62
7
  6
CONTINUOUS
 10
28.6033355303
 20
2.4483087649
 11
28.6952545303
 21
2.1089557649
  0
LINE
  5
450
100
AcDbEntity
  8
0
100
AcDbLine
 62
7
  6
CONTINUOUS
 10
28.3693745303
 20
3.3417397649
 11
28.5324225303
 21
2.7108987649
  0
LINE
  5
451
100
AcDbEntity
  8
ASSI
100
AcDbLine
 62
7
  6
CONTINUOUS
 10
28.3693745303
 20
3.3417397649
 11
28.5324225303
 21
2.7108987649
  0
LINE
  5
452
100
AcDbEntity
  8
SCRITTE
100
AcDbLine
 62
253
  6
CONTINUOUS
 10
30.5405495458
 20
5.1342752707
 11
30.5405495458
 21
5.1220576558
  0
LINE
  5
453
100
AcDbEntity
  8
SCRITTE
100
AcDbLine
 62
253
  6
CONTINUOUS
 10
31.1738831334
 20
5.1342752707
 11
31.1738831334
 21
5.1220576558
  0
LINE
  5
454
100
AcDbEntity
  8
CURVE
100
AcDbLine
 62
253
  6
CONTINUOUS
 10
31.5072165303
 20
3.3626853619
 11
31.5072165303
 21
2.7198282126
  0
LINE
  5
455
100
AcDbEntity
  8
SCRITTE
100
AcDbLine
 62
253
  6
CONTINUOUS
 10
31.8738831334
 20
5.1342752707
 11
31.8738831334
 21
5.1220576558
  0
LINE
  5
456
100
AcDbEntity
  8
CURVE
100
AcDbLine
 62
253
  6
CONTINUOUS
 10
31.2072165303
 20
1.7912567649
 11
30.8072167211
 21
0.3912567649
  0
LINE
  5
457
100
AcDbEntity
  8
CURVE
100
AcDbLine
 62
253
  6
CONTINUOUS
 10
29.9072168164
 20
0.5912567738
 11
30.007216435
 21
0.7912567828
  0
LINE
  5
458
100
AcDbEntity
  8
CURVE
100
AcDbLine
 62
253
  6
CONTINUOUS
 10
31.6143593923
 20
3.5769710634
 11
31.5072165303
 21
3.3626853619
  0
LINE
  5
459
100
AcDbEntity
  8
SCRITTE
100
AcDbLine
 62
253
  6
CONTINUOUS
 10
29.4072167211
 20
-1.3087432351
 11
30.1072167211
 21
0.0912567649
  0
LINE
  5
45A
100
AcDbEntity
  8
CURVE
100
AcDbLine
 62
253
  6
CONTINUOUS
 10
32.1500736796
 20
2.5055424888
 11
32.2572165303
 21
2.7198282126
  0
LINE
  5
45B
100
AcDbEntity
  8
CURVE
100
AcDbLine
 62
253
  6
CONTINUOUS
 10
32.7929308288
 20
3.5769710634
 11
32.6857879333
 21
3.3626853619
  0
LINE
  5
45C
100
AcDbEntity
  8
CURVE
100
AcDbLine
 62
253
  6
CONTINUOUS
 10
31.8286451049
 20
3.7912567649
 11
31.6143593923
 21
3.5769710634
  0
LINE
  5
45D
100
AcDbEntity
  8
CURVE
100
AcDbLine
 62
253
  6
CONTINUOUS
 10
28.9072166257
 20
0.5912567738
 11
28.7072163873
 21
0.3912567649
  0
LINE
  5
45E
100
AcDbEntity
  8
CURVE
100
AcDbLine
 62
253
  6
CONTINUOUS
 10
33.0072165303
 20
3.7912567649
 11
32.7929308288
 21
3.5769710634
  0
LINE
  5
45F
100
AcDbEntity
  8
CURVE
100
AcDbLine
 62
253
  6
CONTINUOUS
 10
29.7072162442
 20
0.3912567649
 11
29.9072168164
 21
0.5912567738
  0
LINE
  5
460
100
AcDbEntity
  8
CURVE
100
AcDbLine
 62
253
  6
CONTINUOUS
 10
31.935787978
 20
2.2912567649
 11
32.1500736796
 21
2.5055424888
  0
LINE
  5
461
100
AcDbEntity
  8
CURVE
100
AcDbLine
 62
253
  6
CONTINUOUS
 10
33.8643593364
 20
3.5769710634
 11
34.0786451273
 21
3.7912567649
  0
LINE
  5
462
100
AcDbEntity
  8
CURVE
100
AcDbLine
 62
253
  6
CONTINUOUS
 10
28.7072163873
 20
0.3912567649
 11
28.307216578
 21
0.3912567649
  0
LINE
  5
463
100
AcDbEntity
  8
CURVE
100
AcDbLine
 62
253
  6
CONTINUOUS
 10
25.4072164588
 20
0.3912567649
 11
25.507216578
 21
0.3912567649
  0
LINE
  5
464
100
AcDbEntity
  8
CURVE
100
AcDbLine
 62
253
  6
CONTINUOUS
 10
27.207216435
 20
0.3912567649
 11
27.907216435
 21
0.3912567649
  0
LINE
  5
465
100
AcDbEntity
  8
CURVE
100
AcDbLine
 62
253
  6
CONTINUOUS
 10
29.6072166257
 20
0.3912567649
 11
29.7072162442
 21
0.3912567649
  0
LINE
  5
466
100
AcDbEntity
  8
RACCORDO
100
AcDbLine
 62
253
  6
CONTINUOUS
 10
54.6665818385
 20
0.789177036
 11
54.4792884264
 21
0.789177036
  0
LINE
  5
467
100
AcDbEntity
  8
ASSI
100
AcDbLine
 62
253
  6
CONTINUOUS
 10
54.6665818385
 20
0.789177036
 11
54.4792884264
 21
0.789177036
  0
LINE
  5
468
100
AcDbEntity
  8
CURVE
100
AcDbLine
 62
253
  6
CONTINUOUS
 10
26.8072166257
 20
0.8912567768
 11
26.207216578
 21
0.8912567768
  0
LINE
  5
469
100
AcDbEntity
  8
ASSI
100
AcDbLine
 62
7
  6
CONTINUOUS
 10
46.8072165303
 20
0.8912567649
 11
47.8655170547
 21
0.8912567649
  0
LINE
  5
46A
100
AcDbEntity
  8
0
100
AcDbLine
 62
7
  6
CONTINUOUS
 10
19.0168259674
 20
1.1412567649
 11
7.7260812174
 21
1.1412567649
  0
LINE
  5
46B
100
AcDbEntity
  8
CURVE
100
AcDbLine
 62
253
  6
CONTINUOUS
 10
28.307216578
 20
1.1912568007
 11
28.7072163873
 21
1.1912568007
  0
LINE
  5
46C
100
AcDbEntity
  8
DRAFT
100
AcDbLine
 62
7
  6
CONTINUOUS
 10
22.020734445
 20
1.3912567649
 11
21.9853993608
 21
1.3912567649
  0
LINE
  5
46D
100
AcDbEntity
  8
ASSI
100
AcDbLine
 62
7
  6
CONTINUOUS
 10
22.020734445
 20
1.3912567649
 11
21.9853993608
 21
1.3912567649
  0
LINE
  5
46E
100
AcDbEntity
  8
DRAFT
100
AcDbLine
 62
7
  6
CONTINUOUS
 10
20.9808541926
 20
1.3912567649
 11
19.020734445
 21
1.3912567649
  0
LINE
  5
46F
100
AcDbEntity
  8
ASSI
100
AcDbLine
 62
7
  6
CONTINUOUS
 10
20.9808541926
 20
1.3912567649
 11
19.020734445
 21
1.3912567649
  0
LINE
  5
470
100
AcDbEntity
  8
0
100
AcDbLine
 62
7
  6
CONTINUOUS
 10
19.0168259674
 20
1.6412567649
 11
7.7260812174
 21
1.6412567649
  0
LINE
  5
471
100
AcDbEntity
  8
CURVE
100
AcDbLine
 62
253
  6
CONTINUOUS
 10
29.7072162442
 20
1.7912567649
 11
29.6072166257
 21
1.7912567649
  0
LINE
  5
472
100
AcDbEntity
  8
CURVE
100
AcDbLine
 62
253
  6
CONTINUOUS
 10
28.9072166257
 20
1.7912567649
 11
28.307216578
 21
1.7912567649
  0
LINE
  5
473
100
AcDbEntity
  8
CURVE
100
AcDbLine
 62
253
  6
CONTINUOUS
 10
25.507216578
 20
1.7912567649
 11
25.4072164588
 21
1.7912567649
  0
LINE
  5
474
100
AcDbEntity
  8
CURVE
100
AcDbLine
 62
253
  6
CONTINUOUS
 10
27.4072166734
 20
1.7912567649
 11
27.7072165303
 21
1.7912567649
  0
LINE
  5
475
100
AcDbEntity
  8
ASSI
100
AcDbLine
 62
7
  6
CONTINUOUS
 10
46.8072165303
 20
1.8912567649
 11
47.8655170547
 21
1.8912567649
  0
LINE
  5
476
100
AcDbEntity
  8
SCRITTE
100
AcDbLine
 62
253
  6
CONTINUOUS
 10
39.2259665303
 20
-1.2649932351
 11
39.3572165303
 21
-1.3087432351
  0
LINE
  5
477
100
AcDbEntity
  8
CURVE
100
AcDbLine
 62
253
  6
CONTINUOUS
 10
32.107216435
 20
0.7245900992
 11
31.840550118
 21
0.9245901082
  0
LINE
  5
478
100
AcDbEntity
  8
CURVE
100
AcDbLine
 62
253
  6
CONTINUOUS
 10
29.9072168164
 20
1.5912567768
 11
29.7072162442
 21
1.7912567649
  0
LINE
  5
479
100
AcDbEntity
  8
CURVE
100
AcDbLine
 62
253
  6
CONTINUOUS
 10
33.0072165348
 20
-1.1087432262
 11
33.2072165333
 21
-1.3087432351
  0
LINE
  5
47A
100
AcDbEntity
  8
CURVE
100
AcDbLine
 62
253
  6
CONTINUOUS
 10
34.2072164946
 20
-1.2087432306
 11
34.2405498676
 21
-1.2420765672
  0
LINE
  5
47B
100
AcDbEntity
  8
CURVE
100
AcDbLine
 62
253
  6
CONTINUOUS
 10
33.5072165363
 20
-0.1087432232
 11
33.3072165482
 21
0.0912567649
  0
LINE
  5
47C
100
AcDbEntity
  8
CURVE
100
AcDbLine
 62
253
  6
CONTINUOUS
 10
32.9072165303
 20
-0.9087432172
 11
33.0072165348
 21
-1.1087432262
  0
LWPOLYLINE
  5
47D
100
AcDbEntity
  8
0
100
AcDbPolyline
 62
7
  6
CONTINUOUS
 90
6
 70
0
 10
29.915036162
 20
2.6244101695
 10
29.9333328652
 20
2.5707176162
 10
29.9511728025
 20
2.5160590096
 10
29.968555974
 20
2.4604343496
 10
29.9852256823
 20
2.4037489397
 10
30.017964893
 20
2.2877640498
  0
LWPOLYLINE
  5
47E
100
AcDbEntity
  8
ASSI
100
AcDbPolyline
 62
7
  6
CONTINUOUS
 90
6
 70
0
 10
29.915036162
 20
2.6244101695
 10
29.9333328652
 20
2.5707176162
 10
29.9511728025
 20
2.5160590096
 10
29.968555974
 20
2.4604343496
 10
29.9852256823
 20
2.4037489397
 10
30.017964893
 20
2.2877640498
  0
LINE
  5
47F
100
AcDbEntity
  8
CURVE
100
AcDbLine
 62
253
  6
CONTINUOUS
 10
30.8072167211
 20
0.3912567649
 11
30.4072162442
 21
1.7912567649
  0
LINE
  5
480
100
AcDbEntity
  8
0
100
AcDbLine
 62
7
  6
CONTINUOUS
 10
30.3316751265
 20
2.4135725924
 11
30.2901957773
 21
2.5690368092
  0
LINE
  5
481
100
AcDbEntity
  8
ASSI
100
AcDbLine
 62
7
  6
CONTINUOUS
 10
30.3316751265
 20
2.4135725924
 11
30.2901957773
 21
2.5690368092
  0
LINE
  5
482
100
AcDbEntity
  8
0
100
AcDbLine
 62
7
  6
CONTINUOUS
 10
30.4114970888
 20
2.1089560782
 11
30.3316751265
 21
2.4135725924
  0
LINE
  5
483
100
AcDbEntity
  8
ASSI
100
AcDbLine
 62
7
  6
CONTINUOUS
 10
30.4114970888
 20
2.1089560782
 11
30.3316751265
 21
2.4135725924
  0
LWPOLYLINE
  5
484
100
AcDbEntity
  8
0
100
AcDbPolyline
 62
7
  6
CONTINUOUS
 90
13
 70
0
 10
30.2901957773
 20
2.5690368092
 10
30.2808240557
 20
2.6068493929
 10
30.2700472052
 20
2.6436077806
 10
30.2578652258
 20
2.6793119722
 10
30.2443073085
 20
2.7144930858
 10
30.2293442624
 20
2.7486200032
 10
30.2128885141
 20
2.7800993702
 10
30.1947984068
 20
2.8086872297
 10
30.1752155974
 20
2.8346275387
 10
30.1544774835
 20
2.8570588142
 10
30.1326965311
 20
2.8756938952
 10
30.1097602743
 20
2.8908199426
 10
30.0856687131
 20
2.9024369565
  0
LWPOLYLINE
  5
485
100
AcDbEntity
  8
ASSI
100
AcDbPolyline
 62
7
  6
CONTINUOUS
 90
13
 70
0
 10
30.2901957773
 20
2.5690368092
 10
30.2808240557
 20
2.6068493929
 10
30.2700472052
 20
2.6436077806
 10
30.2578652258
 20
2.6793119722
 10
30.2443073085
 20
2.7144930858
 10
30.2293442624
 20
2.7486200032
 10
30.2128885141
 20
2.7800993702
 10
30.1947984068
 20
2.8086872297
 10
30.1752155974
 20
2.8346275387
 10
30.1544774835
 20
2.8570588142
 10
30.1326965311
 20
2.8756938952
 10
30.1097602743
 20
2.8908199426
 10
30.0856687131
 20
2.9024369565
  0
LINE
  5
486
100
AcDbEntity
  8
CURVE
100
AcDbLine
 62
253
  6
CONTINUOUS
 10
32.2572165303
 20
2.7198282126
 11
32.2572165303
 21
3.3626853619
  0
LINE
  5
487
100
AcDbEntity
  8
CURVE
100
AcDbLine
 62
253
  6
CONTINUOUS
 10
32.6857879333
 20
3.3626853619
 11
32.6857879333
 21
2.7198282126
  0
LINE
  5
488
100
AcDbEntity
  8
CURVE
100
AcDbLine
 62
253
  6
CONTINUOUS
 10
32.9072165303
 20
-0.3087432113
 11
32.9072165303
 21
-0.9087432172
  0
LINE
  5
489
100
AcDbEntity
  8
SCRITTE
100
AcDbLine
 62
253
  6
CONTINUOUS
 10
33.3738834195
 20
5.1325298972
 11
33.3738834195
 21
5.1238030294
  0
LINE
  5
48A
100
AcDbEntity
  8
CURVE
100
AcDbLine
 62
253
  6
CONTINUOUS
 10
33.4357879333
 20
2.7198282126
 11
33.4357879333
 21
3.3626853619
  0
LINE
  5
48B
100
AcDbEntity
  8
CURVE
100
AcDbLine
 62
253
  6
CONTINUOUS
 10
33.3286451273
 20
2.5055424888
 11
33.4357879333
 21
2.7198282126
  0
LINE
  5
48C
100
AcDbEntity
  8
CURVE
100
AcDbLine
 62
253
  6
CONTINUOUS
 10
33.1143593364
 20
2.2912567649
 11
33.3286451273
 21
2.5055424888
  0
LINE
  5
48D
100
AcDbEntity
  8
CURVE
100
AcDbLine
 62
253
  6
CONTINUOUS
 10
34.5072165303
 20
2.7198282126
 11
34.0786451273
 21
2.2912567649
  0
LINE
  5
48E
100
AcDbEntity
  8
CURVE
100
AcDbLine
 62
253
  6
CONTINUOUS
 10
36.7929306798
 20
3.2555424664
 11
36.6500737243
 21
3.1483996604
  0
LINE
  5
48F
100
AcDbEntity
  8
CURVE
100
AcDbLine
 62
253
  6
CONTINUOUS
 10
35.6500736051
 20
3.2555424664
 11
35.4715021424
 21
3.1483996604
  0
LINE
  5
490
100
AcDbEntity
  8
CURVE
100
AcDbLine
 62
253
  6
CONTINUOUS
 10
31.840550118
 20
0.9245901082
 11
31.6072163396
 21
0.8245901141
  0
LINE
  5
491
100
AcDbEntity
  8
CURVE
100
AcDbLine
 62
253
  6
CONTINUOUS
 10
32.3738834195
 20
0.8245901141
 11
32.107216435
 21
0.7245900992
  0
LWPOLYLINE
  5
492
100
AcDbEntity
  8
RACCORDO
100
AcDbPolyline
 62
7
  6
CONTINUOUS
 90
7
 70
0
 10
20.8757926994
 20
3.1060900164
 10
20.8597203636
 20
3.1057588697
 10
20.8458722083
 20
3.1053902172
 10
20.8348813385
 20
3.1050008981
 10
20.826958789
 20
3.1045965256
 10
20.821893525
 20
3.1041714865
 10
20.8196855463
 20
3.1037257808
  0
LWPOLYLINE
  5
493
100
AcDbEntity
  8
ASSI
100
AcDbPolyline
 62
7
  6
CONTINUOUS
 90
7
 70
0
 10
20.8757926994
 20
3.1060900164
 10
20.8597203636
 20
3.1057588697
 10
20.8458722083
 20
3.1053902172
 10
20.8348813385
 20
3.1050008981
 10
20.826958789
 20
3.1045965256
 10
20.821893525
 20
3.1041714865
 10
20.8196855463
 20
3.1037257808
  0
LINE
  5
494
100
AcDbEntity
  8
RACCORDO
100
AcDbLine
 62
7
  6
CONTINUOUS
 10
20.9148160209
 20
3.1066363081
 11
20.8757926994
 21
3.1060900164
  0
LINE
  5
495
100
AcDbEntity
  8
ASSI
100
AcDbLine
 62
7
  6
CONTINUOUS
 10
20.9148160209
 20
3.1066363081
 11
20.8757926994
 21
3.1060900164
  0
LWPOLYLINE
  5
496
100
AcDbEntity
  8
RACCORDO
100
AcDbPolyline
 62
7
  6
CONTINUOUS
 90
3
 70
0
 10
20.9808541926
 20
3.1070846643
 10
20.9595951748
 20
3.1069938678
 10
20.9148160209
 20
3.1066363081
  0
LWPOLYLINE
  5
497
100
AcDbEntity
  8
ASSI
100
AcDbPolyline
 62
7
  6
CONTINUOUS
 90
3
 70
0
 10
20.9808541926
 20
3.1070846643
 10
20.9595951748
 20
3.1069938678
 10
20.9148160209
 20
3.1066363081
  0
LINE
  5
498
100
AcDbEntity
  8
RACCORDO
100
AcDbLine
 62
7
  6
CONTINUOUS
 10
22.0287196745
 20
3.1080837314
 11
21.9853993608
 21
3.1080441028
  0
LINE
  5
499
100
AcDbEntity
  8
ASSI
100
AcDbLine
 62
7
  6
CONTINUOUS
 10
22.0287196745
 20
3.1080837314
 11
21.9853993608
 21
3.1080441028
  0
LINE
  5
49A
100
AcDbEntity
  8
RACCORDO
100
AcDbLine
 62
253
  6
CONTINUOUS
 10
54.4792884264
 20
1.9933364938
 11
54.6665818385
 21
1.9933364938
  0
LINE
  5
49B
100
AcDbEntity
  8
ASSI
100
AcDbLine
 62
253
  6
CONTINUOUS
 10
54.4792884264
 20
1.9933364938
 11
54.6665818385
 21
1.9933364938
  0
LINE
  5
49C
100
AcDbEntity
  8
0
100
AcDbLine
 62
7
  6
CONTINUOUS
 10
24.3549405303
 20
2.1089557649
 11
24.6676325303
 21
2.1089557649
  0
LINE
  5
49D
100
AcDbEntity
  8
ASSI
100
AcDbLine
 62
7
  6
CONTINUOUS
 10
24.3549405303
 20
2.1089557649
 11
24.6676325303
 21
2.1089557649
  0
LINE
  5
49E
100
AcDbEntity
  8
0
100
AcDbLine
 62
7
  6
CONTINUOUS
 10
25.3457145303
 20
2.1089557649
 11
25.7005425303
 21
2.1089557649
  0
LINE
  5
49F
100
AcDbEntity
  8
ASSI
100
AcDbLine
 62
7
  6
CONTINUOUS
 10
25.3457145303
 20
2.1089557649
 11
25.7005425303
 21
2.1089557649
  0
LINE
  5
4A0
100
AcDbEntity
  8
0
100
AcDbLine
 62
7
  6
CONTINUOUS
 10
25.8915575303
 20
2.1089557649
 11
26.2310125303
 21
2.1089557649
  0
LINE
  5
4A1
100
AcDbEntity
  8
ASSI
100
AcDbLine
 62
7
  6
CONTINUOUS
 10
25.8915575303
 20
2.1089557649
 11
26.2310125303
 21
2.1089557649
  0
LINE
  5
4A2
100
AcDbEntity
  8
0
100
AcDbLine
 62
7
  6
CONTINUOUS
 10
26.7238405303
 20
2.1089557649
 11
26.7736045303
 21
2.1089557649
  0
LINE
  5
4A3
100
AcDbEntity
  8
ASSI
100
AcDbLine
 62
7
  6
CONTINUOUS
 10
26.7238405303
 20
2.1089557649
 11
26.7736045303
 21
2.1089557649
  0
LINE
  5
4A4
100
AcDbEntity
  8
0
100
AcDbLine
 62
7
  6
CONTINUOUS
 10
27.2683965303
 20
2.1089557649
 11
27.6155125303
 21
2.1089557649
  0
LINE
  5
4A5
100
AcDbEntity
  8
ASSI
100
AcDbLine
 62
7
  6
CONTINUOUS
 10
27.2683965303
 20
2.1089557649
 11
27.6155125303
 21
2.1089557649
  0
LINE
  5
4A6
100
AcDbEntity
  8
0
100
AcDbLine
 62
7
  6
CONTINUOUS
 10
27.6712295303
 20
2.1089557649
 11
28.0222075303
 21
2.1089557649
  0
LINE
  5
4A7
100
AcDbEntity
  8
ASSI
100
AcDbLine
 62
7
  6
CONTINUOUS
 10
27.6712295303
 20
2.1089557649
 11
28.0222075303
 21
2.1089557649
  0
LINE
  5
4A8
100
AcDbEntity
  8
0
100
AcDbLine
 62
7
  6
CONTINUOUS
 10
28.6952545303
 20
2.1089557649
 11
29.0692285303
 21
2.1089557649
  0
LINE
  5
4A9
100
AcDbEntity
  8
ASSI
100
AcDbLine
 62
7
  6
CONTINUOUS
 10
28.6952545303
 20
2.1089557649
 11
29.0692285303
 21
2.1089557649
  0
LINE
  5
4AA
100
AcDbEntity
  8
0
100
AcDbLine
 62
7
  6
CONTINUOUS
 10
29.1734231942
 20
2.1089560782
 11
29.5268235263
 21
2.1089560782
  0
LINE
  5
4AB
100
AcDbEntity
  8
ASSI
100
AcDbLine
 62
7
  6
CONTINUOUS
 10
29.1734231942
 20
2.1089560782
 11
29.5268235263
 21
2.1089560782
  0
LINE
  5
4AC
100
AcDbEntity
  8
0
100
AcDbLine
 62
7
  6
CONTINUOUS
 10
30.0701937454
 20
2.1089560782
 11
30.4114970888
 21
2.1089560782
  0
LINE
  5
4AD
100
AcDbEntity
  8
ASSI
100
AcDbLine
 62
7
  6
CONTINUOUS
 10
30.0701937454
 20
2.1089560782
 11
30.4114970888
 21
2.1089560782
  0
LINE
  5
4AE
100
AcDbEntity
  8
CURVE
100
AcDbLine
 62
253
  6
CONTINUOUS
 10
35.5786449485
 20
2.2912567649
 11
35.0429309182
 21
2.2912567649
  0
LINE
  5
4AF
100
AcDbEntity
  8
CURVE
100
AcDbLine
 62
253
  6
CONTINUOUS
 10
31.8286451049
 20
2.2912567649
 11
31.935787978
 21
2.2912567649
  0
LINE
  5
4B0
100
AcDbEntity
  8
CURVE
100
AcDbLine
 62
253
  6
CONTINUOUS
 10
33.0072165303
 20
2.2912567649
 11
33.1143593364
 21
2.2912567649
  0
LINE
  5
4B1
100
AcDbEntity
  8
CURVE
100
AcDbLine
 62
253
  6
CONTINUOUS
 10
36.3286449485
 20
2.2912567649
 11
36.6500737243
 21
2.2912567649
  0
LINE
  5
4B2
100
AcDbEntity
  8
CURVE
100
AcDbLine
 62
253
  6
CONTINUOUS
 10
37.5429306798
 20
2.3626853377
 11
37.614359694
 21
2.3626853377
  0
LINE
  5
4B3
100
AcDbEntity
  8
0
100
AcDbLine
 62
7
  6
CONTINUOUS
 10
28.1201185303
 20
2.4483087649
 11
28.6033355303
 21
2.4483087649
  0
LINE
  5
4B4
100
AcDbEntity
  8
ASSI
100
AcDbLine
 62
7
  6
CONTINUOUS
 10
28.1201185303
 20
2.4483087649
 11
28.6033355303
 21
2.4483087649
  0
LINE
  5
4B5
100
AcDbEntity
  8
CURVE
100
AcDbLine
 62
253
  6
CONTINUOUS
 10
37.614359694
 20
2.5412567724
 11
37.5429306798
 21
2.5412567724
  0
LINE
  5
4B6
100
AcDbEntity
  8
RACCORDO
100
AcDbLine
 62
253
  6
CONTINUOUS
 10
41.4723090592
 20
2.6372503443
 11
54.463578868
 21
2.6372503443
  0
LINE
  5
4B7
100
AcDbEntity
  8
ASSI
100
AcDbLine
 62
253
  6
CONTINUOUS
 10
41.4723090592
 20
2.6372503443
 11
54.463578868
 21
2.6372503443
  0
LINE
  5
4B8
100
AcDbEntity
  8
RACCORDO
100
AcDbLine
 62
253
  6
CONTINUOUS
 10
54.4844222691
 20
2.7016655867
 11
54.6552129723
 21
2.7016655867
  0
LINE
  5
4B9
100
AcDbEntity
  8
ASSI
100
AcDbLine
 62
253
  6
CONTINUOUS
 10
54.4844222691
 20
2.7016655867
 11
54.6552129723
 21
2.7016655867
  0
LINE
  5
4BA
100
AcDbEntity
  8
0
100
AcDbLine
 62
7
  6
CONTINUOUS
 10
28.5324225303
 20
2.7108987649
 11
28.1927005303
 21
2.7108987649
  0
LINE
  5
4BB
100
AcDbEntity
  8
ASSI
100
AcDbLine
 62
7
  6
CONTINUOUS
 10
28.5324225303
 20
2.7108987649
 11
28.1927005303
 21
2.7108987649
  0
LINE
  5
4BC
100
AcDbEntity
  8
0
100
AcDbLine
 62
7
  6
CONTINUOUS
 10
29.5268235263
 20
2.7741884808
 11
29.7170738493
 21
2.7741884808
  0
LINE
  5
4BD
100
AcDbEntity
  8
ASSI
100
AcDbLine
 62
7
  6
CONTINUOUS
 10
29.5268235263
 20
2.7741884808
 11
29.7170738493
 21
2.7741884808
  0
LINE
  5
4BE
100
AcDbEntity
  8
RACCORDO
100
AcDbLine
 62
253
  6
CONTINUOUS
 10
55.1900592428
 20
2.8987381081
 11
55.3670394154
 21
2.8987381081
  0
LINE
  5
4BF
100
AcDbEntity
  8
CURVE
100
AcDbLine
 62
253
  6
CONTINUOUS
 10
34.5429306798
 20
2.9341139141
 11
34.0786451273
 21
2.9341139141
  0
LINE
  5
4C0
100
AcDbEntity
  8
CURVE
100
AcDbLine
 62
253
  6
CONTINUOUS
 10
38.1500733666
 20
2.9341139141
 11
38.6857877545
 21
2.9341139141
  0
LINE
  5
4C1
100
AcDbEntity
  8
RACCORDO
100
AcDbLine
 62
253
  6
CONTINUOUS
 10
55.080424236
 20
3.0083731148
 11
55.4218569517
 21
3.0083731148
  0
LINE
  5
4C2
100
AcDbEntity
  8
0
100
AcDbLine
 62
7
  6
CONTINUOUS
 10
29.7178386748
 20
3.0525849334
 11
29.5150579619
 21
3.0525849334
  0
LINE
  5
4C3
100
AcDbEntity
  8
ASSI
100
AcDbLine
 62
7
  6
CONTINUOUS
 10
29.7178386748
 20
3.0525849334
 11
29.5150579619
 21
3.0525849334
  0
LINE
  5
4C4
100
AcDbEntity
  8
DRAFT
100
AcDbLine
 62
7
  6
CONTINUOUS
 10
22.022372758
 20
3.0953889316
 11
21.9853993608
 21
3.0953889316
  0
LINE
  5
4C5
100
AcDbEntity
  8
ASSI
100
AcDbLine
 62
7
  6
CONTINUOUS
 10
22.022372758
 20
3.0953889316
 11
21.9853993608
 21
3.0953889316
  0
LINE
  5
4C6
100
AcDbEntity
  8
DRAFT
100
AcDbLine
 62
7
  6
CONTINUOUS
 10
20.9808541926
 20
3.0953889316
 11
20.811348697
 21
3.0953889316
  0
LINE
  5
4C7
100
AcDbEntity
  8
ASSI
100
AcDbLine
 62
7
  6
CONTINUOUS
 10
20.9808541926
 20
3.0953889316
 11
20.811348697
 21
3.0953889316
  0
LINE
  5
4C8
100
AcDbEntity
  8
0
100
AcDbLine
 62
7
  6
CONTINUOUS
 10
19.0168256169
 20
3.1412567649
 11
7.7260812174
 21
3.1412567649
  0
LINE
  5
4C9
100
AcDbEntity
  8
CURVE
100
AcDbLine
 62
253
  6
CONTINUOUS
 10
36.6500737243
 20
3.1483996604
 11
36.3286449485
 21
3.1483996604
  0
LINE
  5
4CA
100
AcDbEntity
  8
CURVE
100
AcDbLine
 62
253
  6
CONTINUOUS
 10
35.2572165303
 20
3.1483996604
 11
35.4715021424
 21
3.1483996604
  0
LINE
  5
4CB
100
AcDbEntity
  8
RACCORDO
100
AcDbLine
 62
253
  6
CONTINUOUS
 10
20.8196855463
 20
3.2745583242
 11
20.9808541926
 21
3.2745583253
  0
LINE
  5
4CC
100
AcDbEntity
  8
ASSI
100
AcDbLine
 62
253
  6
CONTINUOUS
 10
20.8196855463
 20
3.2745583242
 11
20.9808541926
 21
3.2745583253
  0
LINE
  5
4CD
100
AcDbEntity
  8
RACCORDO
100
AcDbLine
 62
253
  6
CONTINUOUS
 10
41.4743229517
 20
3.2762214107
 11
54.4676069599
 21
3.2762214107
  0
LINE
  5
4CE
100
AcDbEntity
  8
ASSI
100
AcDbLine
 62
253
  6
CONTINUOUS
 10
41.4743229517
 20
3.2762214107
 11
54.4676069599
 21
3.2762214107
  0
LINE
  5
4CF
100
AcDbEntity
  8
RACCORDO
100
AcDbLine
 62
253
  6
CONTINUOUS
 10
21.9853993608
 20
3.2741118483
 11
22.0287196745
 21
3.2740920355
  0
LINE
  5
4D0
100
AcDbEntity
  8
ASSI
100
AcDbLine
 62
253
  6
CONTINUOUS
 10
21.9853993608
 20
3.2741118483
 11
22.0287196745
 21
3.2740920355
  0
LWPOLYLINE
  5
4D1
100
AcDbEntity
  8
0
100
AcDbPolyline
 62
7
  6
CONTINUOUS
 90
10
 70
0
 10
29.7170738493
 20
2.7741884808
 10
29.7456183292
 20
2.7718650047
 10
29.7727890472
 20
2.7656273856
 10
29.7985860033
 20
2.7554756235
 10
29.8233604041
 20
2.7409637136
 10
29.846761043
 20
2.7225376608
 10
29.8677343002
 20
2.7015354786
 10
29.8859289692
 20
2.6784031716
 10
29.9016962565
 20
2.6526947352
 10
29.915036162
 20
2.6244101695
  0
LWPOLYLINE
  5
4D2
100
AcDbEntity
  8
ASSI
100
AcDbPolyline
 62
7
  6
CONTINUOUS
 90
10
 70
0
 10
29.7170738493
 20
2.7741884808
 10
29.7456183292
 20
2.7718650047
 10
29.7727890472
 20
2.7656273856
 10
29.7985860033
 20
2.7554756235
 10
29.8233604041
 20
2.7409637136
 10
29.846761043
 20
2.7225376608
 10
29.8677343002
 20
2.7015354786
 10
29.8859289692
 20
2.6784031716
 10
29.9016962565
 20
2.6526947352
 10
29.915036162
 20
2.6244101695
  0
LWPOLYLINE
  5
4D3
100
AcDbEntity
  8
0
100
AcDbPolyline
 62
7
  6
CONTINUOUS
 90
13
 70
0
 10
29.7930337606
 20
3.5292368818
 10
29.8223467161
 20
3.5236548293
 10
29.8495110771
 20
3.5156511869
 10
29.8745268438
 20
3.5052259546
 10
29.8974593512
 20
3.4923056728
 10
29.9182432642
 20
3.4769638012
 10
29.936682577
 20
3.4594207184
 10
29.952868281
 20
3.4394400565
 10
29.9667093848
 20
3.4172581835
 10
29.9777369075
 20
3.3938045817
 10
29.9857945223
 20
3.3693890786
 10
29.9910385561
 20
3.3437018468
 10
29.9934690088
 20
3.3167428861
  0
LWPOLYLINE
  5
4D4
100
AcDbEntity
  8
ASSI
100
AcDbPolyline
 62
7
  6
CONTINUOUS
 90
13
 70
0
 10
29.7930337606
 20
3.5292368818
 10
29.8223467161
 20
3.5236548293
 10
29.8495110771
 20
3.5156511869
 10
29.8745268438
 20
3.5052259546
 10
29.8974593512
 20
3.4923056728
 10
29.9182432642
 20
3.4769638012
 10
29.936682577
 20
3.4594207184
 10
29.952868281
 20
3.4394400565
 10
29.9667093848
 20
3.4172581835
 10
29.9777369075
 20
3.3938045817
 10
29.9857945223
 20
3.3693890786
 10
29.9910385561
 20
3.3437018468
 10
29.9934690088
 20
3.3167428861
  0
LINE
  5
4D5
100
AcDbEntity
  8
SCRITTE
100
AcDbLine
 62
253
  6
CONTINUOUS
 10
39.6634665303
 20
-0.0399932351
 11
39.4884665303
 21
0.0037567649
  0
LWPOLYLINE
  5
4D6
100
AcDbEntity
  8
0
100
AcDbPolyline
 62
7
  6
CONTINUOUS
 90
13
 70
0
 10
30.0490845639
 20
3.7710619323
 10
29.9899826336
 20
3.7894016765
 10
29.9281684859
 20
3.8044640156
 10
29.8636421208
 20
3.8162489495
 10
29.796308502
 20
3.8246702886
 10
29.7262626656
 20
3.8298142224
 10
29.653789721
 20
3.8319393204
 10
29.5788043265
 20
3.8308670554
 10
29.5013918237
 20
3.8267759545
 10
29.4220933458
 20
3.8204601682
 10
29.3410892704
 20
3.8121844133
 10
29.2581992199
 20
3.8016839729
 10
29.1734231942
 20
3.7889588471
  0
LWPOLYLINE
  5
4D7
100
AcDbEntity
  8
ASSI
100
AcDbPolyline
 62
7
  6
CONTINUOUS
 90
13
 70
0
 10
30.0490845639
 20
3.7710619323
 10
29.9899826336
 20
3.7894016765
 10
29.9281684859
 20
3.8044640156
 10
29.8636421208
 20
3.8162489495
 10
29.796308502
 20
3.8246702886
 10
29.7262626656
 20
3.8298142224
 10
29.653789721
 20
3.8319393204
 10
29.5788043265
 20
3.8308670554
 10
29.5013918237
 20
3.8267759545
 10
29.4220933458
 20
3.8204601682
 10
29.3410892704
 20
3.8121844133
 10
29.2581992199
 20
3.8016839729
 10
29.1734231942
 20
3.7889588471
  0
LINE
  5
4D8
100
AcDbEntity
  8
SCRITTE
100
AcDbLine
 62
253
  6
CONTINUOUS
 10
39.3134665303
 20
-0.4774932351
 11
39.4447165303
 21
-0.5212432351
  0
LINE
  5
4D9
100
AcDbEntity
  8
SCRITTE
100
AcDbLine
 62
253
  6
CONTINUOUS
 10
39.7947165303
 20
-0.0837432351
 11
39.6634665303
 21
-0.0399932351
  0
LINE
  5
4DA
100
AcDbEntity
  8
SCRITTE
100
AcDbLine
 62
253
  6
CONTINUOUS
 10
39.1384665303
 20
-1.2212432351
 11
39.2259665303
 21
-1.2649932351
  0
LINE
  5
4DB
100
AcDbEntity
  8
SCRITTE
100
AcDbLine
 62
253
  6
CONTINUOUS
 10
39.2259665303
 20
-0.4337432351
 11
39.3134665303
 21
-0.4774932351
  0
LINE
  5
4DC
100
AcDbEntity
  8
CURVE
100
AcDbLine
 62
253
  6
CONTINUOUS
 10
31.6143593923
 20
2.5055424888
 11
31.8286451049
 21
2.2912567649
  0
LINE
  5
4DD
100
AcDbEntity
  8
CURVE
100
AcDbLine
 62
253
  6
CONTINUOUS
 10
35.2072166018
 20
-0.5087431993
 11
35.4072165065
 21
-0.7087432291
  0
LINE
  5
4DE
100
AcDbEntity
  8
CURVE
100
AcDbLine
 62
253
  6
CONTINUOUS
 10
32.7929308288
 20
2.5055424888
 11
33.0072165303
 21
2.2912567649
  0
LINE
  5
4DF
100
AcDbEntity
  8
CURVE
100
AcDbLine
 62
253
  6
CONTINUOUS
 10
32.1500736796
 20
3.5769710634
 11
31.935787978
 21
3.7912567649
  0
LINE
  5
4E0
100
AcDbEntity
  8
CURVE
100
AcDbLine
 62
253
  6
CONTINUOUS
 10
35.2072166018
 20
0.0912567649
 11
35.3738831334
 21
-0.1087432232
  0
LINE
  5
4E1
100
AcDbEntity
  8
CURVE
100
AcDbLine
 62
253
  6
CONTINUOUS
 10
31.5072165303
 20
2.7198282126
 11
31.6143593923
 21
2.5055424888
  0
LINE
  5
4E2
100
AcDbEntity
  8
CURVE
100
AcDbLine
 62
253
  6
CONTINUOUS
 10
33.6072165303
 20
-0.3087432113
 11
33.5072165363
 21
-0.1087432232
  0
LINE
  5
4E3
100
AcDbEntity
  8
CURVE
100
AcDbLine
 62
253
  6
CONTINUOUS
 10
34.3405499034
 20
-1.1420765679
 11
34.3072165303
 21
-1.0754098948
  0
LINE
  5
4E4
100
AcDbEntity
  8
CURVE
100
AcDbLine
 62
253
  6
CONTINUOUS
 10
32.2572165303
 20
3.3626853619
 11
32.1500736796
 21
3.5769710634
  0
LINE
  5
4E5
100
AcDbEntity
  8
CURVE
100
AcDbLine
 62
253
  6
CONTINUOUS
 10
32.6857879333
 20
2.7198282126
 11
32.7929308288
 21
2.5055424888
  0
LINE
  5
4E6
100
AcDbEntity
  8
CURVE
100
AcDbLine
 62
253
  6
CONTINUOUS
 10
33.6072165303
 20
-0.9087432172
 11
33.6072165303
 21
-0.3087432113
  0
LINE
  5
4E7
100
AcDbEntity
  8
CURVE
100
AcDbLine
 62
253
  6
CONTINUOUS
 10
33.8643593364
 20
3.1483996604
 11
33.8643593364
 21
3.5769710634
  0
LINE
  5
4E8
100
AcDbEntity
  8
CURVE
100
AcDbLine
 62
253
  6
CONTINUOUS
 10
34.2072164946
 20
-1.1754098993
 11
34.2072164946
 21
-1.2087432306
  0
LINE
  5
4E9
100
AcDbEntity
  8
CURVE
100
AcDbLine
 62
253
  6
CONTINUOUS
 10
34.3405499034
 20
-1.1754098993
 11
34.3405499034
 21
-1.1420765679
  0
LINE
  5
4EA
100
AcDbEntity
  8
SCRITTE
100
AcDbLine
 62
253
  6
CONTINUOUS
 10
34.5405496411
 20
5.1342752707
 11
34.5405496411
 21
5.1220576558
  0
LINE
  5
4EB
100
AcDbEntity
  8
CURVE
100
AcDbLine
 62
253
  6
CONTINUOUS
 10
34.6143593364
 20
3.5769710634
 11
34.6143593364
 21
3.1483996604
  0
LINE
  5
4EC
100
AcDbEntity
  8
CURVE
100
AcDbLine
 62
253
  6
CONTINUOUS
 10
34.6143593364
 20
3.1483996604
 11
34.5072165303
 21
2.7198282126
  0
LINE
  5
4ED
100
AcDbEntity
  8
CURVE
100
AcDbLine
 62
253
  6
CONTINUOUS
 10
34.3072165303
 20
-1.2754099011
 11
34.3405499034
 21
-1.1754098993
  0
LINE
  5
4EE
100
AcDbEntity
  8
CURVE
100
AcDbLine
 62
253
  6
CONTINUOUS
 10
33.0072165348
 20
-0.1087432232
 11
32.9072165303
 21
-0.3087432113
  0
LINE
  5
4EF
100
AcDbEntity
  8
CURVE
100
AcDbLine
 62
253
  6
CONTINUOUS
 10
33.5072165363
 20
-1.1087432262
 11
33.6072165303
 21
-0.9087432172
  0
LINE
  5
4F0
100
AcDbEntity
  8
CURVE
100
AcDbLine
 62
253
  6
CONTINUOUS
 10
36.1857879929
 20
3.5769710634
 11
36.3286449485
 21
3.7912567649
  0
LINE
  5
4F1
100
AcDbEntity
  8
CURVE
100
AcDbLine
 62
253
  6
CONTINUOUS
 10
33.2072165333
 20
0.0912567649
 11
33.0072165348
 21
-0.1087432232
  0
LINE
  5
4F2
100
AcDbEntity
  8
CURVE
100
AcDbLine
 62
253
  6
CONTINUOUS
 10
36.3286449485
 20
3.1483996604
 11
36.1143593364
 21
2.9341139141
  0
LINE
  5
4F3
100
AcDbEntity
  8
CURVE
100
AcDbLine
 62
253
  6
CONTINUOUS
 10
35.6857881122
 20
2.3983996268
 11
35.5786449485
 21
2.2912567649
  0
LINE
  5
4F4
100
AcDbEntity
  8
CURVE
100
AcDbLine
 62
253
  6
CONTINUOUS
 10
36.6500737243
 20
2.2912567649
 11
36.8643593364
 21
2.5055424888
  0
LINE
  5
4F5
100
AcDbEntity
  8
CURVE
100
AcDbLine
 62
253
  6
CONTINUOUS
 10
33.3072165482
 20
-1.3087432351
 11
33.5072165363
 21
-1.1087432262
  0
LWPOLYLINE
  5
4F6
100
AcDbEntity
  8
0
100
AcDbPolyline
 62
7
  6
CONTINUOUS
 90
10
 70
0
 10
29.5150579619
 20
3.5192304159
 10
29.5462023516
 20
3.5244221438
 10
29.577281731
 20
3.52860092
 10
29.6082961002
 20
3.5317667445
 10
29.6392448419
 20
3.5339289813
 10
29.6701285734
 20
3.5350782665
 10
29.7009491459
 20
3.5351865083
 10
29.7317071764
 20
3.5342443428
 10
29.762402048
 20
3.532261134
 10
29.7930337606
 20
3.5292368818
  0
LWPOLYLINE
  5
4F7
100
AcDbEntity
  8
ASSI
100
AcDbPolyline
 62
7
  6
CONTINUOUS
 90
10
 70
0
 10
29.5150579619
 20
3.5192304159
 10
29.5462023516
 20
3.5244221438
 10
29.577281731
 20
3.52860092
 10
29.6082961002
 20
3.5317667445
 10
29.6392448419
 20
3.5339289813
 10
29.6701285734
 20
3.5350782665
 10
29.7009491459
 20
3.5351865083
 10
29.7317071764
 20
3.5342443428
 10
29.762402048
 20
3.532261134
 10
29.7930337606
 20
3.5292368818
  0
LINE
  5
4F8
100
AcDbEntity
  8
SCRITTE
100
AcDbLine
 62
253
  6
CONTINUOUS
 10
38.0405503087
 20
5.1342752707
 11
37.6405504994
 21
5.1220576558
  0
LINE
  5
4F9
100
AcDbEntity
  8
SCRITTE
100
AcDbLine
 62
253
  6
CONTINUOUS
 10
33.5738833241
 20
5.1342752707
 11
33.3738834195
 21
5.1325298972
  0
LINE
  5
4FA
100
AcDbEntity
  8
RACCORDO
100
AcDbLine
 62
253
  6
CONTINUOUS
 10
20.8972922996
 20
3.7523444413
 11
19.0171747131
 21
3.7523444413
  0
LINE
  5
4FB
100
AcDbEntity
  8
ASSI
100
AcDbLine
 62
253
  6
CONTINUOUS
 10
20.8972922996
 20
3.7523444413
 11
19.0171747131
 21
3.7523444413
  0
LINE
  5
4FC
100
AcDbEntity
  8
RACCORDO
100
AcDbLine
 62
7
  6
CONTINUOUS
 10
20.97855604
 20
3.7822008663
 11
19.0162724289
 21
3.7822008663
  0
LINE
  5
4FD
100
AcDbEntity
  8
ASSI
100
AcDbLine
 62
7
  6
CONTINUOUS
 10
20.97855604
 20
3.7822008663
 11
19.0162724289
 21
3.7822008663
  0
LINE
  5
4FE
100
AcDbEntity
  8
CURVE
100
AcDbLine
 62
253
  6
CONTINUOUS
 10
38.6857877545
 20
3.7912567649
 11
38.1500733666
 21
3.7912567649
  0
LINE
  5
4FF
100
AcDbEntity
  8
CURVE
100
AcDbLine
 62
253
  6
CONTINUOUS
 10
33.1143593364
 20
3.7912567649
 11
33.0072165303
 21
3.7912567649
  0
LINE
  5
500
100
AcDbEntity
  8
CURVE
100
AcDbLine
 62
253
  6
CONTINUOUS
 10
31.935787978
 20
3.7912567649
 11
31.8286451049
 21
3.7912567649
  0
LINE
  5
501
100
AcDbEntity
  8
DRAFT
100
AcDbLine
 62
7
  6
CONTINUOUS
 10
22.0072165303
 20
3.7912567649
 11
21.986658623
 21
3.7912567649
  0
LINE
  5
502
100
AcDbEntity
  8
ASSI
100
AcDbLine
 62
7
  6
CONTINUOUS
 10
22.0072165303
 20
3.7912567649
 11
21.986658623
 21
3.7912567649
  0
LINE
  5
503
100
AcDbEntity
  8
DRAFT
100
AcDbLine
 62
7
  6
CONTINUOUS
 10
20.9783354711
 20
3.7912567649
 11
19.0072165303
 21
3.7912567649
  0
LINE
  5
504
100
AcDbEntity
  8
ASSI
100
AcDbLine
 62
7
  6
CONTINUOUS
 10
20.9783354711
 20
3.7912567649
 11
19.0072165303
 21
3.7912567649
  0
LINE
  5
505
100
AcDbEntity
  8
CURVE
100
AcDbLine
 62
253
  6
CONTINUOUS
 10
34.0786451273
 20
3.7912567649
 11
34.4000737243
 21
3.7912567649
  0
LINE
  5
506
100
AcDbEntity
  8
CURVE
100
AcDbLine
 62
253
  6
CONTINUOUS
 10
35.0429309182
 20
3.7912567649
 11
35.4715021424
 21
3.7912567649
  0
LINE
  5
507
100
AcDbEntity
  8
CURVE
100
AcDbLine
 62
253
  6
CONTINUOUS
 10
36.3286449485
 20
3.7912567649
 11
36.6500737243
 21
3.7912567649
  0
LINE
  5
508
100
AcDbEntity
  8
0
100
AcDbLine
 62
7
  6
CONTINUOUS
 10
28.5476685303
 20
3.8088187649
 11
28.2044145303
 21
3.8088187649
  0
LINE
  5
509
100
AcDbEntity
  8
ASSI
100
AcDbLine
 62
7
  6
CONTINUOUS
 10
28.5476685303
 20
3.8088187649
 11
28.2044145303
 21
3.8088187649
  0
LINE
  5
50A
100
AcDbEntity
  8
0
100
AcDbLine
 62
7
  6
CONTINUOUS
 10
27.4565555303
 20
3.8088187649
 11
27.1054885303
 21
3.8088187649
  0
LINE
  5
50B
100
AcDbEntity
  8
ASSI
100
AcDbLine
 62
7
  6
CONTINUOUS
 10
27.4565555303
 20
3.8088187649
 11
27.1054885303
 21
3.8088187649
  0
LINE
  5
50C
100
AcDbEntity
  8
0
100
AcDbLine
 62
7
  6
CONTINUOUS
 10
26.3995795303
 20
3.8088187649
 11
26.0450445303
 21
3.8088187649
  0
LINE
  5
50D
100
AcDbEntity
  8
ASSI
100
AcDbLine
 62
7
  6
CONTINUOUS
 10
26.3995795303
 20
3.8088187649
 11
26.0450445303
 21
3.8088187649
  0
LINE
  5
50E
100
AcDbEntity
  8
0
100
AcDbLine
 62
7
  6
CONTINUOUS
 10
25.2140365303
 20
3.8088187649
 11
24.8594505303
 21
3.8088187649
  0
LINE
  5
50F
100
AcDbEntity
  8
ASSI
100
AcDbLine
 62
7
  6
CONTINUOUS
 10
25.2140365303
 20
3.8088187649
 11
24.8594505303
 21
3.8088187649
  0
LINE
  5
510
100
AcDbEntity
  8
0
100
AcDbLine
 62
7
  6
CONTINUOUS
 10
24.2015035303
 20
3.8088187649
 11
23.8160505303
 21
3.8088187649
  0
LINE
  5
511
100
AcDbEntity
  8
ASSI
100
AcDbLine
 62
7
  6
CONTINUOUS
 10
24.2015035303
 20
3.8088187649
 11
23.8160505303
 21
3.8088187649
  0
LINE
  5
512
100
AcDbEntity
  8
0
100
AcDbLine
 62
7
  6
CONTINUOUS
 10
25.7005425303
 20
3.8089207649
 11
25.3457145303
 21
3.8089207649
  0
LINE
  5
513
100
AcDbEntity
  8
ASSI
100
AcDbLine
 62
7
  6
CONTINUOUS
 10
25.7005425303
 20
3.8089207649
 11
25.3457145303
 21
3.8089207649
  0
LINE
  5
514
100
AcDbEntity
  8
DRAFT
100
AcDbLine
 62
7
  6
CONTINUOUS
 10
20.9072165303
 20
3.9722762131
 11
20.9372165303
 21
3.9722762131
  0
LINE
  5
515
100
AcDbEntity
  8
RACCORDO
100
AcDbLine
 62
253
  6
CONTINUOUS
 10
54.4947067371
 20
4.2528755011
 11
41.4878718084
 21
4.2528755011
  0
LINE
  5
516
100
AcDbEntity
  8
ASSI
100
AcDbLine
 62
253
  6
CONTINUOUS
 10
54.4947067371
 20
4.2528755011
 11
41.4878718084
 21
4.2528755011
  0
LINE
  5
517
100
AcDbEntity
  8
RACCORDO
100
AcDbLine
 62
253
  6
CONTINUOUS
 10
55.496309821
 20
4.2696863699
 11
54.6297705074
 21
4.2696874229
  0
LINE
  5
518
100
AcDbEntity
  8
RACCORDO
100
AcDbLine
 62
253
  6
CONTINUOUS
 10
55.497716535
 20
4.2817415391
 11
54.6262525251
 21
4.2817416674
  0
LINE
  5
519
100
AcDbEntity
  8
RACCORDO
100
AcDbLine
 62
253
  6
CONTINUOUS
 10
54.4986427121
 20
4.2826829467
 11
41.489839646
 21
4.2826829467
  0
LINE
  5
51A
100
AcDbEntity
  8
ASSI
100
AcDbLine
 62
253
  6
CONTINUOUS
 10
54.4986427121
 20
4.2826829467
 11
41.489839646
 21
4.2826829467
  0
LINE
  5
51B
100
AcDbEntity
  8
DRAFT
100
AcDbLine
 62
7
  6
CONTINUOUS
 10
54.5072165303
 20
4.2912567649
 11
41.4941262286
 21
4.2912567649
  0
LINE
  5
51C
100
AcDbEntity
  8
ASSI
100
AcDbLine
 62
7
  6
CONTINUOUS
 10
54.5072165303
 20
4.2912567649
 11
41.4941262286
 21
4.2912567649
  0
LINE
  5
51D
100
AcDbEntity
  8
RACCORDO
100
AcDbLine
 62
7
  6
CONTINUOUS
 10
41.5595976846
 20
4.2912567649
 11
55.5072317608
 21
4.2912567649
  0
LINE
  5
51E
100
AcDbEntity
  8
DRAFT
100
AcDbLine
 62
7
  6
CONTINUOUS
 10
40.7072165303
 20
4.3412567649
 11
22.8072165303
 21
4.3412567649
  0
LINE
  5
51F
100
AcDbEntity
  8
ASSI
100
AcDbLine
 62
7
  6
CONTINUOUS
 10
40.7072165303
 20
4.3412567649
 11
22.8072165303
 21
4.3412567649
  0
LINE
  5
520
100
AcDbEntity
  8
DRAFT
100
AcDbLine
 62
7
  6
CONTINUOUS
 10
40.7107075433
 20
4.3447477779
 11
22.8037255173
 21
4.3447477779
  0
LINE
  5
521
100
AcDbEntity
  8
ASSI
100
AcDbLine
 62
7
  6
CONTINUOUS
 10
40.7107075433
 20
4.3447477779
 11
22.8037255173
 21
4.3447477779
  0
LINE
  5
522
100
AcDbEntity
  8
RACCORDO
100
AcDbLine
 62
253
  6
CONTINUOUS
 10
21.9618368178
 20
4.4308720694
 11
21.0176926087
 21
4.4308720694
  0
LINE
  5
523
100
AcDbEntity
  8
RACCORDO
100
AcDbLine
 62
253
  6
CONTINUOUS
 10
40.9657448691
 20
4.4997889114
 11
41.4657258307
 21
4.4997889049
  0
LINE
  5
524
100
AcDbEntity
  8
ASSI
100
AcDbLine
 62
253
  6
CONTINUOUS
 10
40.9657448691
 20
4.4997889114
 11
41.4657258307
 21
4.4997889049
  0
LINE
  5
525
100
AcDbEntity
  8
RACCORDO
100
AcDbLine
 62
253
  6
CONTINUOUS
 10
40.8657486768
 20
4.5997851037
 11
22.0517349793
 21
4.5997851037
  0
LINE
  5
526
100
AcDbEntity
  8
ASSI
100
AcDbLine
 62
253
  6
CONTINUOUS
 10
40.8657486768
 20
4.5997851037
 11
22.0517349793
 21
4.5997851037
  0
LINE
  5
527
100
AcDbEntity
  8
RACCORDO
100
AcDbLine
 62
253
  6
CONTINUOUS
 10
21.9669815556
 20
5.0307806865
 11
21.6176012258
 21
5.0307806865
  0
LINE
  5
528
100
AcDbEntity
  8
RACCORDO
100
AcDbLine
 62
7
  6
CONTINUOUS
 10
40.8657486768
 20
5.0997660652
 11
22.1987015184
 21
5.0997660652
  0
LINE
  5
529
100
AcDbEntity
  8
ASSI
100
AcDbLine
 62
7
  6
CONTINUOUS
 10
40.8657486768
 20
5.0997660652
 11
22.1987015184
 21
5.0997660652
  0
LINE
  5
52A
100
AcDbEntity
  8
RACCORDO
100
AcDbLine
 62
7
  6
CONTINUOUS
 10
21.5371251474
 20
5.1112567649
 11
22.0072165303
 21
5.1112567649
  0
LINE
  5
52B
100
AcDbEntity
  8
SCRITTE
100
AcDbLine
 62
253
  6
CONTINUOUS
 10
26.9072165542
 20
5.1220576558
 11
27.4072164826
 21
5.1220576558
  0
LINE
  5
52C
100
AcDbEntity
  8
SCRITTE
100
AcDbLine
 62
253
  6
CONTINUOUS
 10
28.1738832288
 20
5.1220576558
 11
28.7738832765
 21
5.1220576558
  0
LINE
  5
52D
100
AcDbEntity
  8
SCRITTE
100
AcDbLine
 62
253
  6
CONTINUOUS
 10
33.5738833241
 20
5.1220576558
 11
33.9738831334
 21
5.1220576558
  0
LINE
  5
52E
100
AcDbEntity
  8
SCRITTE
100
AcDbLine
 62
253
  6
CONTINUOUS
 10
38.3072159581
 20
5.125548403
 11
37.7738833241
 21
5.125548403
  0
LINE
  5
52F
100
AcDbEntity
  8
SCRITTE
100
AcDbLine
 62
253
  6
CONTINUOUS
 10
26.3738832526
 20
5.125548403
 11
25.8405498676
 21
5.125548403
  0
LINE
  5
530
100
AcDbEntity
  8
RACCORDO
100
AcDbLine
 62
7
  6
CONTINUOUS
 10
40.7072165303
 20
5.1281664632
 11
40.8941490748
 21
5.1281664632
  0
LINE
  5
531
100
AcDbEntity
  8
ASSI
100
AcDbLine
 62
7
  6
CONTINUOUS
 10
40.7072165303
 20
5.1281664632
 11
40.8941490748
 21
5.1281664632
  0
LINE
  5
532
100
AcDbEntity
  8
SCRITTE
100
AcDbLine
 62
253
  6
CONTINUOUS
 10
35.2405496411
 20
5.1290391503
 11
34.5405496411
 21
5.1290391503
  0
LINE
  5
533
100
AcDbEntity
  8
SCRITTE
100
AcDbLine
 62
253
  6
CONTINUOUS
 10
28.1738832288
 20
5.1290391503
 11
28.573883038
 21
5.1290391503
  0
LINE
  5
534
100
AcDbEntity
  8
RACCORDO
100
AcDbLine
 62
7
  6
CONTINUOUS
 10
21.9864655521
 20
3.7741042902
 11
22.0243863483
 21
3.774086947
  0
LINE
  5
535
100
AcDbEntity
  8
ASSI
100
AcDbLine
 62
7
  6
CONTINUOUS
 10
21.9864655521
 20
3.7741042902
 11
22.0243863483
 21
3.774086947
  0
LWPOLYLINE
  5
536
100
AcDbEntity
  8
RACCORDO
100
AcDbPolyline
 62
7
  6
CONTINUOUS
 90
8
 70
0
 10
54.5283735824
 20
4.2912255263
 10
54.5596349385
 20
4.2910329803
 10
54.5735186835
 20
4.2908658439
 10
54.586007088
 20
4.2906553513
 10
54.5960619188
 20
4.2904189894
 10
54.6033370981
 20
4.2901625874
 10
54.6081787037
 20
4.2898803162
 10
54.6105867355
 20
4.2895721757
  0
LINE
  5
537
100
AcDbEntity
  8
SCRITTE
100
AcDbLine
 62
253
  6
CONTINUOUS
 10
27.6072163873
 20
5.1325298972
 11
27.4072164826
 21
5.1342752707
  0
LINE
  5
538
100
AcDbEntity
  8
SCRITTE
100
AcDbLine
 62
253
  6
CONTINUOUS
 10
24.9072165482
 20
5.1272937765
 11
24.5072165303
 21
5.1342752707
  0
LINE
  5
539
100
AcDbEntity
  8
SCRITTE
100
AcDbLine
 62
253
  6
CONTINUOUS
 10
31.8738831334
 20
5.1220576558
 11
31.1738831334
 21
5.1342752707
  0
LINE
  5
53A
100
AcDbEntity
  8
SCRITTE
100
AcDbLine
 62
253
  6
CONTINUOUS
 10
26.507216578
 20
5.1220576558
 11
26.1072166018
 21
5.1342752707
  0
LWPOLYLINE
  5
53B
100
AcDbEntity
  8
RACCORDO
100
AcDbPolyline
 62
253
  6
CONTINUOUS
 90
10
 70
0
 10
55.4670242084
 20
3.1308403711
 10
55.4842336983
 20
3.1298174424
 10
55.5009296013
 20
3.1270652623
 10
55.5166136739
 20
3.1226659673
 10
55.5308178379
 20
3.116750863
 10
55.543118254
 20
3.1094964638
 10
55.5531479206
 20
3.1011191944
 10
55.5606074964
 20
3.0918690108
 10
55.5652742877
 20
3.0820219713
 10
55.5670089674
 20
3.0718719356
  0
LINE
  5
53C
100
AcDbEntity
  8
RACCORDO
100
AcDbLine
 62
7
  6
CONTINUOUS
 10
54.5072165303
 20
3.2412567649
 11
54.5720640756
 21
3.236765905
  0
LINE
  5
53D
100
AcDbEntity
  8
ASSI
100
AcDbLine
 62
7
  6
CONTINUOUS
 10
54.5072165303
 20
3.2412567649
 11
54.5720640756
 21
3.236765905
  0
LINE
  5
53E
100
AcDbEntity
  8
SCRITTE
100
AcDbLine
 62
253
  6
CONTINUOUS
 10
39.8822165303
 20
-0.1274932351
 11
39.7947165303
 21
-0.0837432351
  0
LINE
  5
53F
100
AcDbEntity
  8
CURVE
100
AcDbLine
 62
253
  6
CONTINUOUS
 10
33.3286451273
 20
3.5769710634
 11
33.1143593364
 21
3.7912567649
  0
LINE
  5
540
100
AcDbEntity
  8
CURVE
100
AcDbLine
 62
253
  6
CONTINUOUS
 10
34.0786451273
 20
2.9341139141
 11
33.8643593364
 21
3.1483996604
  0
LINE
  5
541
100
AcDbEntity
  8
SCRITTE
100
AcDbLine
 62
253
  6
CONTINUOUS
 10
39.0509665303
 20
-1.1337432351
 11
39.1384665303
 21
-1.2212432351
  0
LINE
  5
542
100
AcDbEntity
  8
CURVE
100
AcDbLine
 62
253
  6
CONTINUOUS
 10
34.4000737243
 20
3.7912567649
 11
34.6143593364
 21
3.5769710634
  0
LINE
  5
543
100
AcDbEntity
  8
CURVE
100
AcDbLine
 62
253
  6
CONTINUOUS
 10
33.4357879333
 20
3.3626853619
 11
33.3286451273
 21
3.5769710634
  0
LINE
  5
544
100
AcDbEntity
  8
SCRITTE
100
AcDbLine
 62
253
  6
CONTINUOUS
 10
35.2405496411
 20
5.1220576558
 11
35.2405496411
 21
5.1342752707
  0
LINE
  5
545
100
AcDbEntity
  8
CURVE
100
AcDbLine
 62
253
  6
CONTINUOUS
 10
35.3738831334
 20
-0.1087432232
 11
35.3738831334
 21
-0.408743247
  0
LINE
  5
546
100
AcDbEntity
  8
CURVE
100
AcDbLine
 62
253
  6
CONTINUOUS
 10
35.4072165065
 20
-0.7087432291
 11
35.4072165065
 21
-1.2087432306
  0
LINE
  5
547
100
AcDbEntity
  8
CURVE
100
AcDbLine
 62
253
  6
CONTINUOUS
 10
35.6500736051
 20
3.5769710634
 11
35.6500736051
 21
3.2555424664
  0
LINE
  5
548
100
AcDbEntity
  8
CURVE
100
AcDbLine
 62
253
  6
CONTINUOUS
 10
35.6857881122
 20
2.9341139141
 11
35.6857881122
 21
2.3983996268
  0
LINE
  5
549
100
AcDbEntity
  8
SCRITTE
100
AcDbLine
 62
253
  6
CONTINUOUS
 10
35.9072171025
 20
5.1342752707
 11
35.9072171025
 21
5.1220576558
  0
LINE
  5
54A
100
AcDbEntity
  8
CURVE
100
AcDbLine
 62
253
  6
CONTINUOUS
 10
36.1143593364
 20
2.9341139141
 11
36.1143593364
 21
2.5055424888
  0
LINE
  5
54B
100
AcDbEntity
  8
CURVE
100
AcDbLine
 62
253
  6
CONTINUOUS
 10
36.1857879929
 20
3.2555424664
 11
36.1857879929
 21
3.5769710634
  0
LINE
  5
54C
100
AcDbEntity
  8
SCRITTE
100
AcDbLine
 62
253
  6
CONTINUOUS
 10
36.540549355
 20
5.1342752707
 11
36.540549355
 21
5.1220576558
  0
LINE
  5
54D
100
AcDbEntity
  8
CURVE
100
AcDbLine
 62
253
  6
CONTINUOUS
 10
34.2405498676
 20
-1.1087432262
 11
34.2072164946
 21
-1.1754098993
  0
LINE
  5
54E
100
AcDbEntity
  8
CURVE
100
AcDbLine
 62
253
  6
CONTINUOUS
 10
34.2405498676
 20
-1.4087432396
 11
34.3072165303
 21
-1.2754099011
  0
LINE
  5
54F
100
AcDbEntity
  8
CURVE
100
AcDbLine
 62
253
  6
CONTINUOUS
 10
37.5429306798
 20
2.5412567724
 11
37.5072165303
 21
2.469828194
  0
LINE
  5
550
100
AcDbEntity
  8
CURVE
100
AcDbLine
 62
253
  6
CONTINUOUS
 10
37.614359694
 20
2.3626853377
 11
37.6500738435
 21
2.4341139104
  0
LINE
  5
551
100
AcDbEntity
  8
CURVE
100
AcDbLine
 62
253
  6
CONTINUOUS
 10
34.2738831572
 20
-1.0754098948
 11
34.2405498676
 21
-1.1087432262
  0
LINE
  5
552
100
AcDbEntity
  8
DRAFT
100
AcDbLine
 62
7
  6
CONTINUOUS
 10
40.7072165303
 20
5.1936379191
 11
40.6548353761
 21
5.1412567649
  0
LINE
  5
553
100
AcDbEntity
  8
CURVE
100
AcDbLine
 62
253
  6
CONTINUOUS
 10
34.2738831572
 20
-1.2420765672
 11
34.3405499034
 21
-1.1754098993
  0
LINE
  5
554
100
AcDbEntity
  8
CURVE
100
AcDbLine
 62
253
  6
CONTINUOUS
 10
38.6857877545
 20
2.9341139141
 11
38.9000733666
 21
3.1483996604
  0
LINE
  5
555
100
AcDbEntity
  8
RACCORDO
100
AcDbLine
 62
253
  6
CONTINUOUS
 10
40.8941490748
 20
5.1281664632
 11
40.8657486768
 21
5.0997660652
  0
LINE
  5
556
100
AcDbEntity
  8
ASSI
100
AcDbLine
 62
253
  6
CONTINUOUS
 10
40.8941490748
 20
5.1281664632
 11
40.8657486768
 21
5.0997660652
  0
LINE
  5
557
100
AcDbEntity
  8
DRAFT
100
AcDbLine
 62
7
  6
CONTINUOUS
 10
40.7107075433
 20
4.3447477779
 11
40.7072165303
 21
4.3412567649
  0
LINE
  5
558
100
AcDbEntity
  8
CURVE
100
AcDbLine
 62
253
  6
CONTINUOUS
 10
35.4072165065
 20
-1.2087432306
 11
35.3072165542
 21
-1.3087432351
  0
LINE
  5
559
100
AcDbEntity
  8
RACCORDO
100
AcDbLine
 62
253
  6
CONTINUOUS
 10
41.4941262286
 20
4.5281893094
 11
41.4657258307
 21
4.4997889114
  0
LINE
  5
55A
100
AcDbEntity
  8
ASSI
100
AcDbLine
 62
253
  6
CONTINUOUS
 10
41.4941262286
 20
4.5281893094
 11
41.4657258307
 21
4.4997889114
  0
LINE
  5
55B
100
AcDbEntity
  8
CURVE
100
AcDbLine
 62
253
  6
CONTINUOUS
 10
35.3738831334
 20
-0.408743247
 11
35.2072166018
 21
-0.5087431993
  0
LINE
  5
55C
100
AcDbEntity
  8
SCRITTE
100
AcDbLine
 62
253
  6
CONTINUOUS
 10
39.4009665303
 20
0.0037567649
 11
39.2697165303
 21
-0.0399932351
  0
LWPOLYLINE
  5
55D
100
AcDbEntity
  8
RACCORDO
100
AcDbPolyline
 62
7
  6
CONTINUOUS
 90
6
 70
0
 10
20.9805144974
 20
3.7811575808
 10
20.9625446086
 20
3.778411155
 10
20.9452374445
 20
3.7740515962
 10
20.9285930049
 20
3.7681797247
 10
20.91261129
 20
3.7609051718
 10
20.8972922996
 20
3.7523444413
  0
LWPOLYLINE
  5
55E
100
AcDbEntity
  8
ASSI
100
AcDbPolyline
 62
7
  6
CONTINUOUS
 90
6
 70
0
 10
20.9805144974
 20
3.7811575808
 10
20.9625446086
 20
3.778411155
 10
20.9452374445
 20
3.7740515962
 10
20.9285930049
 20
3.7681797247
 10
20.91261129
 20
3.7609051718
 10
20.8972922996
 20
3.7523444413
  0
LWPOLYLINE
  5
55F
100
AcDbEntity
  8
RACCORDO
100
AcDbPolyline
 62
253
  6
CONTINUOUS
 90
10
 70
0
 10
22.1987015184
 20
5.0997660652
 10
22.1726538975
 20
5.0974850871
 10
22.1473983829
 20
5.0907156437
 10
22.1237023147
 20
5.079663741
 10
22.1022855054
 20
5.0646654317
 10
22.0837985618
 20
5.0461767046
 10
22.0688030421
 20
5.0247597019
 10
22.0577541866
 20
5.0010653939
 10
22.0509872027
 20
4.9758136975
 10
22.04870723
 20
4.9497717768
  0
LWPOLYLINE
  5
560
100
AcDbEntity
  8
ASSI
100
AcDbPolyline
 62
253
  6
CONTINUOUS
 90
10
 70
0
 10
22.1987015184
 20
5.0997660652
 10
22.1726538975
 20
5.0974850871
 10
22.1473983829
 20
5.0907156437
 10
22.1237023147
 20
5.079663741
 10
22.1022855054
 20
5.0646654317
 10
22.0837985618
 20
5.0461767046
 10
22.0688030421
 20
5.0247597019
 10
22.0577541866
 20
5.0010653939
 10
22.0509872027
 20
4.9758136975
 10
22.04870723
 20
4.9497717768
  0
LINE
  5
561
100
AcDbEntity
  8
SCRITTE
100
AcDbLine
 62
253
  6
CONTINUOUS
 10
26.1072166018
 20
5.1342752707
 11
25.7072165422
 21
5.1220576558
  0
LINE
  5
562
100
AcDbEntity
  8
SCRITTE
100
AcDbLine
 62
253
  6
CONTINUOUS
 10
25.3072165661
 20
5.1342752707
 11
24.9072165482
 21
5.1272937765
  0
LINE
  5
563
100
AcDbEntity
  8
SCRITTE
100
AcDbLine
 62
253
  6
CONTINUOUS
 10
27.4072164826
 20
5.1220576558
 11
27.6072163873
 21
5.1238030294
  0
LINE
  5
564
100
AcDbEntity
  8
SCRITTE
100
AcDbLine
 62
253
  6
CONTINUOUS
 10
33.9738831334
 20
5.1342752707
 11
33.5738833241
 21
5.1342752707
  0
LINE
  5
565
100
AcDbEntity
  8
SCRITTE
100
AcDbLine
 62
253
  6
CONTINUOUS
 10
28.7738832765
 20
5.1342752707
 11
28.1738832288
 21
5.1342752707
  0
LINE
  5
566
100
AcDbEntity
  8
SCRITTE
100
AcDbLine
 62
253
  6
CONTINUOUS
 10
27.4072164826
 20
5.1342752707
 11
26.9072165542
 21
5.1342752707
  0
LINE
  5
567
100
AcDbEntity
  8
DRAFT
100
AcDbLine
 62
7
  6
CONTINUOUS
 10
40.6548353761
 20
5.1412567649
 11
33.2595976846
 21
5.1412567649
  0
LINE
  5
568
100
AcDbEntity
  8
RACCORDO
100
AcDbLine
 62
7
  6
CONTINUOUS
 10
21.5068510265
 20
5.1412567649
 11
29.9072165303
 21
5.1412567649
  0
LINE
  5
569
100
AcDbEntity
  8
DRAFT
100
AcDbLine
 62
7
  6
CONTINUOUS
 10
29.9072165303
 20
5.1412567649
 11
33.1072165303
 21
5.1412567649
  0
LINE
  5
56A
100
AcDbEntity
  8
RACCORDO
100
AcDbLine
 62
7
  6
CONTINUOUS
 10
40.9599631883
 20
5.1936379191
 11
40.7072165303
 21
5.1936379191
  0
LINE
  5
56B
100
AcDbEntity
  8
RACCORDO
100
AcDbLine
 62
7
  6
CONTINUOUS
 10
40.4432446523
 20
5.1409431288
 11
33.1072165303
 21
5.1412567649
  0
LINE
  5
56C
100
AcDbEntity
  8
ASSI
100
AcDbLine
 62
7
  6
CONTINUOUS
 10
40.4432446523
 20
5.1409431288
 11
22.1572108188
 21
5.1412567649
  0
LINE
  5
56D
100
AcDbEntity
  8
SCRITTE
100
AcDbLine
 62
253
  6
CONTINUOUS
 10
33.3738834195
 20
5.1238030294
 11
33.5738833241
 21
5.1220576558
  0
LINE
  5
56E
100
AcDbEntity
  8
RACCORDO
100
AcDbLine
 62
7
  6
CONTINUOUS
 10
40.5292842958
 20
5.1403368021
 11
40.4432446523
 21
5.1409431288
  0
LINE
  5
56F
100
AcDbEntity
  8
ASSI
100
AcDbLine
 62
7
  6
CONTINUOUS
 10
40.5292842958
 20
5.1403368021
 11
40.4432446523
 21
5.1409431288
  0
LINE
  5
570
100
AcDbEntity
  8
SCRITTE
100
AcDbLine
 62
253
  6
CONTINUOUS
 10
37.240549355
 20
5.1220576558
 11
36.540549355
 21
5.1342752707
  0
LINE
  5
571
100
AcDbEntity
  8
SCRITTE
100
AcDbLine
 62
253
  6
CONTINUOUS
 10
38.440550118
 20
5.1220576558
 11
38.0405503087
 21
5.1342752707
  0
LWPOLYLINE
  5
572
100
AcDbEntity
  8
RACCORDO
100
AcDbPolyline
 62
7
  6
CONTINUOUS
 90
5
 70
0
 10
40.5999425923
 20
5.1388668836
 10
40.5940754617
 20
5.1391943065
 10
40.5841429486
 20
5.139504232
 10
40.5701450529
 20
5.1397966599
 10
40.5292842958
 20
5.1403368021
  0
LWPOLYLINE
  5
573
100
AcDbEntity
  8
ASSI
100
AcDbPolyline
 62
7
  6
CONTINUOUS
 90
5
 70
0
 10
40.5999425923
 20
5.1388668836
 10
40.5940754617
 20
5.1391943065
 10
40.5841429486
 20
5.139504232
 10
40.5701450529
 20
5.1397966599
 10
40.5292842958
 20
5.1403368021
  0
LWPOLYLINE
  5
574
100
AcDbEntity
  8
RACCORDO
100
AcDbPolyline
 62
7
  6
CONTINUOUS
 90
16
 70
0
 10
40.8941490748
 20
5.1281664632
 10
40.9579693625
 20
5.1245840256
 10
41.0197723498
 20
5.1147956122
 10
41.0795580366
 20
5.0988012232
 10
41.137932605
 20
5.076291889
 10
41.1942898729
 20
5.0475765792
 10
41.2468112946
 20
5.0135822017
 10
41.2953717614
 20
4.9741366535
 10
41.3400963819
 20
4.9294120376
 10
41.3795419362
 20
4.8808515717
 10
41.4135363214
 20
4.8283301453
 10
41.4422516404
 20
4.7719728689
 10
41.4647609817
 20
4.7135982922
 10
41.480755375
 20
4.6538125983
 10
41.4905437906
 20
4.592009604
 10
41.4941262286
 20
4.5281893094
  0
LWPOLYLINE
  5
575
100
AcDbEntity
  8
ASSI
100
AcDbPolyline
 62
7
  6
CONTINUOUS
 90
16
 70
0
 10
40.8941490748
 20
5.1281664632
 10
40.9579693625
 20
5.1245840256
 10
41.0197723498
 20
5.1147956122
 10
41.0795580366
 20
5.0988012232
 10
41.137932605
 20
5.076291889
 10
41.1942898729
 20
5.0475765792
 10
41.2468112946
 20
5.0135822017
 10
41.2953717614
 20
4.9741366535
 10
41.3400963819
 20
4.9294120376
 10
41.3795419362
 20
4.8808515717
 10
41.4135363214
 20
4.8283301453
 10
41.4422516404
 20
4.7719728689
 10
41.4647609817
 20
4.7135982922
 10
41.480755375
 20
4.6538125983
 10
41.4905437906
 20
4.592009604
 10
41.4941262286
 20
4.5281893094
  0
LWPOLYLINE
  5
576
100
AcDbEntity
  8
RACCORDO
100
AcDbPolyline
 62
7
  6
CONTINUOUS
 90
6
 70
0
 10
55.5071708342
 20
4.2912567649
 10
55.5245452749
 20
4.2897404232
 10
55.5413898786
 20
4.2852280363
 10
55.5571925892
 20
4.2778578917
 10
55.5714734593
 20
4.2678549641
 10
55.5778904564
 20
4.2619737294
  0
LINE
  5
577
100
AcDbEntity
  8
RACCORDO
100
AcDbLine
 62
7
  6
CONTINUOUS
 10
40.7072165303
 20
5.1281664632
 11
40.5999425923
 21
5.1388668836
  0
LINE
  5
578
100
AcDbEntity
  8
ASSI
100
AcDbLine
 62
7
  6
CONTINUOUS
 10
40.7072165303
 20
5.1281664632
 11
40.5999425923
 21
5.1388668836
  0
LINE
  5
579
100
AcDbEntity
  8
CURVE
100
AcDbLine
 62
253
  6
CONTINUOUS
 10
36.3286449485
 20
3.1483996604
 11
36.1857879929
 21
3.2555424664
  0
LINE
  5
57A
100
AcDbEntity
  8
DRAFT
100
AcDbLine
 62
7
  6
CONTINUOUS
 10
40.7072165303
 20
-2.4111243893
 11
40.6548353761
 21
-2.3587432351
  0
LINE
  5
57B
100
AcDbEntity
  8
RACCORDO
100
AcDbLine
 62
253
  6
CONTINUOUS
 10
40.8941490748
 20
-2.3456529334
 11
40.8657486768
 21
-2.3172525354
  0
LINE
  5
57C
100
AcDbEntity
  8
ASSI
100
AcDbLine
 62
253
  6
CONTINUOUS
 10
40.8941490748
 20
-2.3456529334
 11
40.8657486768
 21
-2.3172525354
  0
LINE
  5
57D
100
AcDbEntity
  8
CURVE
100
AcDbLine
 62
253
  6
CONTINUOUS
 10
35.4715021424
 20
3.1483996604
 11
35.6857881122
 21
2.9341139141
  0
LINE
  5
57E
100
AcDbEntity
  8
CURVE
100
AcDbLine
 62
253
  6
CONTINUOUS
 10
36.1143593364
 20
2.5055424888
 11
36.3286449485
 21
2.2912567649
  0
LINE
  5
57F
100
AcDbEntity
  8
SCRITTE
100
AcDbLine
 62
253
  6
CONTINUOUS
 10
39.1822165303
 20
-0.3899932351
 11
39.2259665303
 21
-0.4337432351
  0
LINE
  5
580
100
AcDbEntity
  8
DRAFT
100
AcDbLine
 62
7
  6
CONTINUOUS
 10
40.7107075433
 20
-1.5622342481
 11
40.7072165303
 21
-1.5587432351
  0
LINE
  5
581
100
AcDbEntity
  8
RACCORDO
100
AcDbLine
 62
253
  6
CONTINUOUS
 10
41.4941262286
 20
-1.7456757796
 11
41.4657258307
 21
-1.7172753816
  0
LINE
  5
582
100
AcDbEntity
  8
ASSI
100
AcDbLine
 62
253
  6
CONTINUOUS
 10
41.4941262286
 20
-1.7456757796
 11
41.4657258307
 21
-1.7172753816
  0
LINE
  5
583
100
AcDbEntity
  8
CURVE
100
AcDbLine
 62
253
  6
CONTINUOUS
 10
36.8643593364
 20
2.9341139141
 11
36.6500737243
 21
3.1483996604
  0
LINE
  5
584
100
AcDbEntity
  8
CURVE
100
AcDbLine
 62
253
  6
CONTINUOUS
 10
35.4715021424
 20
3.7912567649
 11
35.6500736051
 21
3.5769710634
  0
LINE
  5
585
100
AcDbEntity
  8
CURVE
100
AcDbLine
 62
253
  6
CONTINUOUS
 10
36.7072163873
 20
-1.3087432351
 11
36.4072165303
 21
-0.3087432113
  0
LINE
  5
586
100
AcDbEntity
  8
CURVE
100
AcDbLine
 62
253
  6
CONTINUOUS
 10
36.1072166734
 20
-1.3087432351
 11
35.8072164826
 21
0.0912567649
  0
LINE
  5
587
100
AcDbEntity
  8
CURVE
100
AcDbLine
 62
253
  6
CONTINUOUS
 10
36.7929306798
 20
3.5769710634
 11
36.7929306798
 21
3.2555424664
  0
LINE
  5
588
100
AcDbEntity
  8
CURVE
100
AcDbLine
 62
253
  6
CONTINUOUS
 10
36.8643593364
 20
2.5055424888
 11
36.8643593364
 21
2.9341139141
  0
LINE
  5
589
100
AcDbEntity
  8
SCRITTE
100
AcDbLine
 62
253
  6
CONTINUOUS
 10
37.240549355
 20
5.1342752707
 11
37.240549355
 21
5.1220576558
  0
LINE
  5
58A
100
AcDbEntity
  8
CURVE
100
AcDbLine
 62
253
  6
CONTINUOUS
 10
37.5072165303
 20
2.469828194
 11
37.5072165303
 21
2.4341139104
  0
LINE
  5
58B
100
AcDbEntity
  8
CURVE
100
AcDbLine
 62
253
  6
CONTINUOUS
 10
37.6500738435
 20
2.4341139104
 11
37.6500738435
 21
2.469828194
  0
LINE
  5
58C
100
AcDbEntity
  8
CURVE
100
AcDbLine
 62
253
  6
CONTINUOUS
 10
38.1500733666
 20
3.7912567649
 11
38.1500733666
 21
2.2912567649
  0
LINE
  5
58D
100
AcDbEntity
  8
CURVE
100
AcDbLine
 62
253
  6
CONTINUOUS
 10
37.007216578
 20
0.0912567649
 11
36.7072163873
 21
-1.3087432351
  0
LINE
  5
58E
100
AcDbEntity
  8
CURVE
100
AcDbLine
 62
253
  6
CONTINUOUS
 10
36.4072165303
 20
-0.3087432113
 11
36.1072166734
 21
-1.3087432351
  0
LINE
  5
58F
100
AcDbEntity
  8
SCRITTE
100
AcDbLine
 62
253
  6
CONTINUOUS
 10
39.2697165303
 20
-0.0399932351
 11
39.1822165303
 21
-0.1274932351
  0
LINE
  5
590
100
AcDbEntity
  8
SCRITTE
100
AcDbLine
 62
253
  6
CONTINUOUS
 10
39.3134665303
 20
-0.5649932351
 11
39.1384665303
 21
-0.6524932351
  0
LINE
  5
591
100
AcDbEntity
  8
RACCORDO
100
AcDbLine
 62
7
  6
CONTINUOUS
 10
54.5720640756
 20
3.236765905
 11
54.6242843737
 21
3.2266244259
  0
LINE
  5
592
100
AcDbEntity
  8
ASSI
100
AcDbLine
 62
7
  6
CONTINUOUS
 10
54.5720640756
 20
3.236765905
 11
54.6242843737
 21
3.2266244259
  0
LINE
  5
593
100
AcDbEntity
  8
CURVE
100
AcDbLine
 62
253
  6
CONTINUOUS
 10
38.9000733666
 20
3.5769710634
 11
38.6857877545
 21
3.7912567649
  0
LINE
  5
594
100
AcDbEntity
  8
CURVE
100
AcDbLine
 62
253
  6
CONTINUOUS
 10
36.6500737243
 20
3.7912567649
 11
36.7929306798
 21
3.5769710634
  0
LINE
  5
595
100
AcDbEntity
  8
CURVE
100
AcDbLine
 62
253
  6
CONTINUOUS
 10
38.9000733666
 20
2.2912567649
 11
38.4715021424
 21
2.9341139141
  0
LINE
  5
596
100
AcDbEntity
  8
CURVE
100
AcDbLine
 62
253
  6
CONTINUOUS
 10
37.5072165303
 20
2.4341139104
 11
37.5429306798
 21
2.3626853377
  0
LINE
  5
597
100
AcDbEntity
  8
CURVE
100
AcDbLine
 62
253
  6
CONTINUOUS
 10
37.6500738435
 20
2.469828194
 11
37.614359694
 21
2.5412567724
  0
LINE
  5
598
100
AcDbEntity
  8
SCRITTE
100
AcDbLine
 62
253
  6
CONTINUOUS
 10
39.1384665303
 20
-0.3024932351
 11
39.1822165303
 21
-0.3899932351
  0
LINE
  5
599
100
AcDbEntity
  8
SCRITTE
100
AcDbLine
 62
253
  6
CONTINUOUS
 10
39.0072165303
 20
-1.0024932351
 11
39.0509665303
 21
-1.1337432351
  0
LINE
  5
59A
100
AcDbEntity
  8
CURVE
100
AcDbLine
 62
253
  6
CONTINUOUS
 10
38.9000733666
 20
3.1483996604
 11
38.9000733666
 21
3.5769710634
  0
LINE
  5
59B
100
AcDbEntity
  8
SCRITTE
100
AcDbLine
 62
253
  6
CONTINUOUS
 10
39.0072165303
 20
-0.8712432351
 11
39.0072165303
 21
-1.0024932351
  0
LINE
  5
59C
100
AcDbEntity
  8
SCRITTE
100
AcDbLine
 62
253
  6
CONTINUOUS
 10
39.1384665303
 20
-0.2587432351
 11
39.1384665303
 21
-0.3024932351
  0
LINE
  5
59D
100
AcDbEntity
  8
SCRITTE
100
AcDbLine
 62
253
  6
CONTINUOUS
 10
39.1822165303
 20
-0.1274932351
 11
39.1384665303
 21
-0.2587432351
  0
LINE
  5
59E
100
AcDbEntity
  8
SCRITTE
100
AcDbLine
 62
253
  6
CONTINUOUS
 10
39.0509665303
 20
-0.7399932351
 11
39.0072165303
 21
-0.8712432351
  0
LINE
  5
59F
100
AcDbEntity
  8
RACCORDO
100
AcDbLine
 62
7
  6
CONTINUOUS
 10
41.489839646
 20
4.2826829467
 11
41.4941262286
 21
4.2912567649
  0
LINE
  5
5A0
100
AcDbEntity
  8
ASSI
100
AcDbLine
 62
7
  6
CONTINUOUS
 10
41.489839646
 20
4.2826829467
 11
41.4941262286
 21
4.2912567649
  0
LINE
  5
5A1
100
AcDbEntity
  8
SCRITTE
100
AcDbLine
 62
253
  6
CONTINUOUS
 10
39.1384665303
 20
-0.6524932351
 11
39.0509665303
 21
-0.7399932351
  0
LINE
  5
5A2
100
AcDbEntity
  8
SCRITTE
100
AcDbLine
 62
253
  6
CONTINUOUS
 10
39.7947165303
 20
-1.1774932351
 11
39.8822165303
 21
-1.0899932351
  0
LINE
  5
5A3
100
AcDbEntity
  8
SCRITTE
100
AcDbLine
 62
253
  6
CONTINUOUS
 10
39.6634665303
 20
-1.2649932351
 11
39.7947165303
 21
-1.1774932351
  0
LINE
  5
5A4
100
AcDbEntity
  8
RACCORDO
100
AcDbLine
 62
7
  6
CONTINUOUS
 10
41.4941262286
 20
-1.5087432351
 11
41.489839646
 21
-1.5001694169
  0
LINE
  5
5A5
100
AcDbEntity
  8
ASSI
100
AcDbLine
 62
7
  6
CONTINUOUS
 10
41.4941262286
 20
-1.5087432351
 11
41.489839646
 21
-1.5001694169
  0
LWPOLYLINE
  5
5A6
100
AcDbEntity
  8
RACCORDO
100
AcDbPolyline
 62
253
  6
CONTINUOUS
 90
19
 70
0
 10
40.9657448691
 20
4.4997889114
 10
40.9653610432
 20
4.5085245216
 10
40.9642409805
 20
4.5170932701
 10
40.9623846812
 20
4.5254951568
 10
40.9597679437
 20
4.5338000946
 10
40.9564149695
 20
4.5419381706
 10
40.9523983629
 20
4.5496996461
 10
40.947699714
 20
4.5570702703
 10
40.9423374326
 20
4.564064294
 10
40.9364393525
 20
4.5705147312
 10
40.9299946547
 20
4.5764049993
 10
40.9230141581
 20
4.5817516809
 10
40.9156581529
 20
4.5864375373
 10
40.9079137115
 20
4.5904477767
 10
40.8997937615
 20
4.5937971908
 10
40.8914973758
 20
4.5964129169
 10
40.8830909119
 20
4.5982706673
 10
40.8745080122
 20
4.5993947295
 10
40.8657486768
 20
4.5997851037
  0
LWPOLYLINE
  5
5A7
100
AcDbEntity
  8
ASSI
100
AcDbPolyline
 62
253
  6
CONTINUOUS
 90
19
 70
0
 10
40.9657448691
 20
4.4997889114
 10
40.9653610432
 20
4.5085245216
 10
40.9642409805
 20
4.5170932701
 10
40.9623846812
 20
4.5254951568
 10
40.9597679437
 20
4.5338000946
 10
40.9564149695
 20
4.5419381706
 10
40.9523983629
 20
4.5496996461
 10
40.947699714
 20
4.5570702703
 10
40.9423374326
 20
4.564064294
 10
40.9364393525
 20
4.5705147312
 10
40.9299946547
 20
4.5764049993
 10
40.9230141581
 20
4.5817516809
 10
40.9156581529
 20
4.5864375373
 10
40.9079137115
 20
4.5904477767
 10
40.8997937615
 20
4.5937971908
 10
40.8914973758
 20
4.5964129169
 10
40.8830909119
 20
4.5982706673
 10
40.8745080122
 20
4.5993947295
 10
40.8657486768
 20
4.5997851037
  0
LWPOLYLINE
  5
5A8
100
AcDbEntity
  8
RACCORDO
100
AcDbPolyline
 62
253
  6
CONTINUOUS
 90
19
 70
0
 10
41.4657258307
 20
4.4997889114
 10
41.4634396134
 20
4.5520785004
 10
41.4566049797
 20
4.6039701001
 10
41.4452739463
 20
4.6550688266
 10
41.4295327518
 20
4.7049858253
 10
41.4095011853
 20
4.7533412428
 10
41.3853316699
 20
4.7997671157
 10
41.357208133
 20
4.8439101429
 10
41.325344588
 20
4.8854344082
 10
41.2899834778
 20
4.9240239403
 10
41.2513938343
 20
4.9593851057
 10
41.2098693555
 20
4.9912487517
 10
41.1657261655
 20
5.0193723143
 10
41.1193002642
 20
5.0435417646
 10
41.0709448995
 20
5.0635732372
 10
41.0210280057
 20
5.0793143383
 10
40.9699294245
 20
5.0906452925
 10
40.9180380213
 20
5.0974798698
 10
40.8657486768
 20
5.0997660652
  0
LWPOLYLINE
  5
5A9
100
AcDbEntity
  8
ASSI
100
AcDbPolyline
 62
253
  6
CONTINUOUS
 90
19
 70
0
 10
41.4657258307
 20
4.4997889114
 10
41.4634396134
 20
4.5520785004
 10
41.4566049797
 20
4.6039701001
 10
41.4452739463
 20
4.6550688266
 10
41.4295327518
 20
4.7049858253
 10
41.4095011853
 20
4.7533412428
 10
41.3853316699
 20
4.7997671157
 10
41.357208133
 20
4.8439101429
 10
41.325344588
 20
4.8854344082
 10
41.2899834778
 20
4.9240239403
 10
41.2513938343
 20
4.9593851057
 10
41.2098693555
 20
4.9912487517
 10
41.1657261655
 20
5.0193723143
 10
41.1193002642
 20
5.0435417646
 10
41.0709448995
 20
5.0635732372
 10
41.0210280057
 20
5.0793143383
 10
40.9699294245
 20
5.0906452925
 10
40.9180380213
 20
5.0974798698
 10
40.8657486768
 20
5.0997660652
  0
LINE
  5
5AA
100
AcDbEntity
  8
RACCORDO
100
AcDbLine
 62
7
  6
CONTINUOUS
 10
41.4865614945
 20
-1.4284905291
 11
41.4878718084
 21
-1.4703619713
  0
LINE
  5
5AB
100
AcDbEntity
  8
ASSI
100
AcDbLine
 62
7
  6
CONTINUOUS
 10
41.4865614945
 20
-1.4284905291
 11
41.4878718084
 21
-1.4703619713
  0
LINE
  5
5AC
100
AcDbEntity
  8
RACCORDO
100
AcDbLine
 62
7
  6
CONTINUOUS
 10
41.4840217321
 20
-1.3220177855
 11
41.4865614945
 21
-1.4284905291
  0
LINE
  5
5AD
100
AcDbEntity
  8
ASSI
100
AcDbLine
 62
7
  6
CONTINUOUS
 10
41.4840217321
 20
-1.3220177855
 11
41.4865614945
 21
-1.4284905291
  0
LINE
  5
5AE
100
AcDbEntity
  8
RACCORDO
100
AcDbLine
 62
7
  6
CONTINUOUS
 10
41.4804142518
 20
-1.1054840219
 11
41.4840217321
 21
-1.3220177855
  0
LINE
  5
5AF
100
AcDbEntity
  8
ASSI
100
AcDbLine
 62
7
  6
CONTINUOUS
 10
41.4804142518
 20
-1.1054840219
 11
41.4840217321
 21
-1.3220177855
  0
LINE
  5
5B0
100
AcDbEntity
  8
RACCORDO
100
AcDbLine
 62
7
  6
CONTINUOUS
 10
41.4761629644
 20
-0.7219247379
 11
41.4804142518
 21
-1.1054840219
  0
LINE
  5
5B1
100
AcDbEntity
  8
ASSI
100
AcDbLine
 62
7
  6
CONTINUOUS
 10
41.4761629644
 20
-0.7219247379
 11
41.4804142518
 21
-1.1054840219
  0
LINE
  5
5B2
100
AcDbEntity
  8
RACCORDO
100
AcDbLine
 62
7
  6
CONTINUOUS
 10
41.4761629644
 20
-0.7219247379
 11
41.4732243678
 21
-0.3005700959
  0
LINE
  5
5B3
100
AcDbEntity
  8
ASSI
100
AcDbLine
 62
7
  6
CONTINUOUS
 10
41.4761629644
 20
-0.7219247379
 11
41.4732243678
 21
-0.3005700959
  0
LINE
  5
5B4
100
AcDbEntity
  8
DRAFT
100
AcDbLine
 62
7
  6
CONTINUOUS
 10
40.6548353761
 20
5.1412567649
 11
40.6548353761
 21
5.1333914077
  0
LINE
  5
5B5
100
AcDbEntity
  8
DRAFT
100
AcDbLine
 62
7
  6
CONTINUOUS
 10
40.6548353761
 20
-2.3508778779
 11
40.6548353761
 21
-2.3587432351
  0
LINE
  5
5B6
100
AcDbEntity
  8
DRAFT
100
AcDbLine
 62
7
  6
CONTINUOUS
 10
40.7072165303
 20
5.1936379191
 11
40.7072165303
 21
5.1281664632
  0
LINE
  5
5B7
100
AcDbEntity
  8
DRAFT
100
AcDbLine
 62
7
  6
CONTINUOUS
 10
40.7072165303
 20
-2.3456529334
 11
40.7072165303
 21
-2.4111243893
  0
LINE
  5
5B8
100
AcDbEntity
  8
DRAFT
100
AcDbLine
 62
7
  6
CONTINUOUS
 10
40.7072165303
 20
-1.5587432351
 11
40.7072165303
 21
4.3412567649
  0
LINE
  5
5B9
100
AcDbEntity
  8
ASSI
100
AcDbLine
 62
7
  6
CONTINUOUS
 10
40.7072165303
 20
-1.5587432351
 11
40.7072165303
 21
4.3412567649
  0
LINE
  5
5BA
100
AcDbEntity
  8
DRAFT
100
AcDbLine
 62
7
  6
CONTINUOUS
 10
40.7107075433
 20
-1.5622342481
 11
40.7107075433
 21
4.3447477779
  0
LINE
  5
5BB
100
AcDbEntity
  8
ASSI
100
AcDbLine
 62
7
  6
CONTINUOUS
 10
40.7107075433
 20
-1.5622342481
 11
40.7107075433
 21
4.3447477779
  0
LINE
  5
5BC
100
AcDbEntity
  8
RACCORDO
100
AcDbLine
 62
253
  6
CONTINUOUS
 10
40.8657486768
 20
-1.8172715739
 11
40.8657486703
 21
-2.3172525354
  0
LINE
  5
5BD
100
AcDbEntity
  8
ASSI
100
AcDbLine
 62
253
  6
CONTINUOUS
 10
40.8657486768
 20
-1.8172715739
 11
40.8657486703
 21
-2.3172525354
  0
LINE
  5
5BE
100
AcDbEntity
  8
RACCORDO
100
AcDbLine
 62
253
  6
CONTINUOUS
 10
40.8657486768
 20
4.5997851037
 11
40.8657486768
 21
5.0997660652
  0
LINE
  5
5BF
100
AcDbEntity
  8
ASSI
100
AcDbLine
 62
253
  6
CONTINUOUS
 10
40.8657486768
 20
4.5997851037
 11
40.8657486768
 21
5.0997660652
  0
LINE
  5
5C0
100
AcDbEntity
  8
RACCORDO
100
AcDbLine
 62
253
  6
CONTINUOUS
 10
40.9657448691
 20
-1.7172753816
 11
40.9657448691
 21
4.4997889114
  0
LINE
  5
5C1
100
AcDbEntity
  8
ASSI
100
AcDbLine
 62
253
  6
CONTINUOUS
 10
40.9657448691
 20
-1.7172753816
 11
40.9657448691
 21
4.4997889114
  0
LINE
  5
5C2
100
AcDbEntity
  8
RACCORDO
100
AcDbLine
 62
7
  6
CONTINUOUS
 10
41.4657258307
 20
-1.7172753816
 11
41.4657258307
 21
4.4997889114
  0
LINE
  5
5C3
100
AcDbEntity
  8
ASSI
100
AcDbLine
 62
7
  6
CONTINUOUS
 10
41.4657258307
 20
-1.7172753816
 11
41.4657258307
 21
4.4997889114
  0
LINE
  5
5C4
100
AcDbEntity
  8
RACCORDO
100
AcDbLine
 62
7
  6
CONTINUOUS
 10
41.4732243678
 20
-0.3005700959
 11
41.4723090592
 21
2.6372503443
  0
LINE
  5
5C5
100
AcDbEntity
  8
ASSI
100
AcDbLine
 62
7
  6
CONTINUOUS
 10
41.4732243678
 20
-0.3005700959
 11
41.4723090592
 21
2.6372503443
  0
LINE
  5
5C6
100
AcDbEntity
  8
RACCORDO
100
AcDbLine
 62
7
  6
CONTINUOUS
 10
41.4941262286
 20
4.5281893094
 11
41.4941262286
 21
4.2912567649
  0
LINE
  5
5C7
100
AcDbEntity
  8
ASSI
100
AcDbLine
 62
7
  6
CONTINUOUS
 10
41.4941262286
 20
4.5281893094
 11
41.4941262286
 21
4.2912567649
  0
LINE
  5
5C8
100
AcDbEntity
  8
RACCORDO
100
AcDbLine
 62
7
  6
CONTINUOUS
 10
41.4941262286
 20
-1.5087432351
 11
41.4941262286
 21
-1.7456757796
  0
LINE
  5
5C9
100
AcDbEntity
  8
ASSI
100
AcDbLine
 62
7
  6
CONTINUOUS
 10
41.4941262286
 20
-1.5087432351
 11
41.4941262286
 21
-1.7456757796
  0
LINE
  5
5CA
100
AcDbEntity
  8
RACCORDO
100
AcDbLine
 62
7
  6
CONTINUOUS
 10
41.5595976846
 20
-1.8114898931
 11
41.5595976846
 21
-1.5087432351
  0
LINE
  5
5CB
100
AcDbEntity
  8
RACCORDO
100
AcDbLine
 62
7
  6
CONTINUOUS
 10
41.5595976846
 20
4.2912567649
 11
41.5595976846
 21
4.5940034229
  0
LINE
  5
5CC
100
AcDbEntity
  8
RACCORDO
100
AcDbLine
 62
7
  6
CONTINUOUS
 10
41.4723090592
 20
2.6372503443
 11
41.4732243678
 21
3.0830836257
  0
LINE
  5
5CD
100
AcDbEntity
  8
ASSI
100
AcDbLine
 62
7
  6
CONTINUOUS
 10
41.4723090592
 20
2.6372503443
 11
41.4732243678
 21
3.0830836257
  0
LINE
  5
5CE
100
AcDbEntity
  8
RACCORDO
100
AcDbLine
 62
7
  6
CONTINUOUS
 10
41.4761629643
 20
3.5044382646
 11
41.4732243678
 21
3.0830836257
  0
LINE
  5
5CF
100
AcDbEntity
  8
ASSI
100
AcDbLine
 62
7
  6
CONTINUOUS
 10
41.4761629643
 20
3.5044382646
 11
41.4732243678
 21
3.0830836257
  0
LINE
  5
5D0
100
AcDbEntity
  8
RACCORDO
100
AcDbLine
 62
7
  6
CONTINUOUS
 10
41.4804142518
 20
3.8879975482
 11
41.4761629643
 21
3.5044382646
  0
LINE
  5
5D1
100
AcDbEntity
  8
ASSI
100
AcDbLine
 62
7
  6
CONTINUOUS
 10
41.4804142518
 20
3.8879975482
 11
41.4761629643
 21
3.5044382646
  0
LINE
  5
5D2
100
AcDbEntity
  8
RACCORDO
100
AcDbLine
 62
7
  6
CONTINUOUS
 10
41.484021732
 20
4.1045313113
 11
41.4804142518
 21
3.8879975482
  0
LINE
  5
5D3
100
AcDbEntity
  8
ASSI
100
AcDbLine
 62
7
  6
CONTINUOUS
 10
41.484021732
 20
4.1045313113
 11
41.4804142518
 21
3.8879975482
  0
LWPOLYLINE
  5
5D4
100
AcDbEntity
  8
RACCORDO
100
AcDbPolyline
 62
7
  6
CONTINUOUS
 90
3
 70
0
 10
41.4878718084
 20
4.2528755011
 10
41.4865614945
 20
4.2110040571
 10
41.484021732
 20
4.1045313113
  0
LWPOLYLINE
  5
5D5
100
AcDbEntity
  8
ASSI
100
AcDbPolyline
 62
7
  6
CONTINUOUS
 90
3
 70
0
 10
41.4878718084
 20
4.2528755011
 10
41.4865614945
 20
4.2110040571
 10
41.484021732
 20
4.1045313113
  0
LWPOLYLINE
  5
5D6
100
AcDbEntity
  8
RACCORDO
100
AcDbPolyline
 62
7
  6
CONTINUOUS
 90
10
 70
0
 10
41.4878718084
 20
4.2528755011
 10
41.4880871044
 20
4.2587217722
 10
41.4883033439
 20
4.2639360564
 10
41.4885205269
 20
4.2685183538
 10
41.4887387939
 20
4.2724707926
 10
41.4889580044
 20
4.2757912446
 10
41.489177737
 20
4.2784733245
 10
41.4893978512
 20
4.2805149039
 10
41.4896184876
 20
4.2819181113
 10
41.489839646
 20
4.2826829467
  0
LWPOLYLINE
  5
5D7
100
AcDbEntity
  8
ASSI
100
AcDbPolyline
 62
7
  6
CONTINUOUS
 90
10
 70
0
 10
41.4878718084
 20
4.2528755011
 10
41.4880871044
 20
4.2587217722
 10
41.4883033439
 20
4.2639360564
 10
41.4885205269
 20
4.2685183538
 10
41.4887387939
 20
4.2724707926
 10
41.4889580044
 20
4.2757912446
 10
41.489177737
 20
4.2784733245
 10
41.4893978512
 20
4.2805149039
 10
41.4896184876
 20
4.2819181113
 10
41.489839646
 20
4.2826829467
  0
LWPOLYLINE
  5
5D8
100
AcDbEntity
  8
RACCORDO
100
AcDbPolyline
 62
253
  6
CONTINUOUS
 90
22
 70
0
 10
55.4766744221
 20
2.9535556444
 10
55.4829001451
 20
2.9567866496
 10
55.4890837026
 20
2.9602614481
 10
55.4952053414
 20
2.96398004
 10
55.5012422431
 20
2.9679408122
 10
55.507174747
 20
2.9721453779
 10
55.5129856154
 20
2.9765985764
 10
55.518650614
 20
2.98130349
 10
55.5241438171
 20
2.9862570365
 10
55.529442593
 20
2.9914548091
 10
55.5345174303
 20
2.9968989967
 10
55.5393408309
 20
3.0025874105
 10
55.5438895582
 20
3.0085090773
 10
55.5481293826
 20
3.0146653194
 10
55.5520296149
 20
3.0210548145
 10
55.5555659454
 20
3.0276626234
 10
55.5586962111
 20
3.034483897
 10
55.5613876386
 20
3.0415234845
 10
55.5636148389
 20
3.0487809931
 10
55.5653307504
 20
3.056256292
 10
55.5664789482
 20
3.0639495122
 10
55.5670086535
 20
3.0718606536
  0
LINE
  5
5D9
100
AcDbEntity
  8
RACCORDO
100
AcDbLine
 62
253
  6
CONTINUOUS
 10
55.3670394154
 20
2.8987381081
 11
55.4766744221
 21
2.9535556444
  0
LINE
  5
5DA
100
AcDbEntity
  8
RACCORDO
100
AcDbLine
 62
253
  6
CONTINUOUS
 10
55.4766744221
 20
-0.1710420859
 11
55.3670394154
 21
-0.1162245783
  0
LWPOLYLINE
  5
5DB
100
AcDbEntity
  8
RACCORDO
100
AcDbPolyline
 62
7
  6
CONTINUOUS
 90
10
 70
0
 10
41.489839646
 20
-1.5001694169
 10
41.4896184876
 20
-1.4994045815
 10
41.4893978512
 20
-1.4980013741
 10
41.489177737
 20
-1.4959597947
 10
41.4889580044
 20
-1.4932777148
 10
41.4887387939
 20
-1.4899572628
 10
41.4885205269
 20
-1.486004824
 10
41.4883033439
 20
-1.4814225266
 10
41.4880871044
 20
-1.4762082424
 10
41.4878718084
 20
-1.4703619713
  0
LWPOLYLINE
  5
5DC
100
AcDbEntity
  8
ASSI
100
AcDbPolyline
 62
7
  6
CONTINUOUS
 90
10
 70
0
 10
41.489839646
 20
-1.5001694169
 10
41.4896184876
 20
-1.4994045815
 10
41.4893978512
 20
-1.4980013741
 10
41.489177737
 20
-1.4959597947
 10
41.4889580044
 20
-1.4932777148
 10
41.4887387939
 20
-1.4899572628
 10
41.4885205269
 20
-1.486004824
 10
41.4883033439
 20
-1.4814225266
 10
41.4880871044
 20
-1.4762082424
 10
41.4878718084
 20
-1.4703619713
  0
LWPOLYLINE
  5
5DD
100
AcDbEntity
  8
RACCORDO
100
AcDbPolyline
 62
7
  6
CONTINUOUS
 90
16
 70
0
 10
41.5595976846
 20
4.5940034229
 10
41.5560130977
 20
4.6578283573
 10
41.5462289019
 20
4.7196252403
 10
41.5302450971
 20
4.7793940717
 10
41.5077527625
 20
4.8377378599
 10
41.479060819
 20
4.8940535965
 10
41.4450960287
 20
4.9465322572
 10
41.4056887025
 20
4.9950494315
 10
41.3610085297
 20
5.0397295298
 10
41.3124913401
 20
5.0791367592
 10
41.2600127555
 20
5.1131014252
 10
41.2036971542
 20
5.1417932222
 10
41.1453535004
 20
5.164285441
 10
41.0855847822
 20
5.1802691786
 10
41.0237880115
 20
5.190053338
 10
40.9599631883
 20
5.1936379191
  0
LWPOLYLINE
  5
5DE
100
AcDbEntity
  8
RACCORDO
100
AcDbPolyline
 62
7
  6
CONTINUOUS
 90
16
 70
0
 10
41.4941262286
 20
-1.7456757796
 10
41.490543791
 20
-1.8094960673
 10
41.4807553776
 20
-1.8712990546
 10
41.4647609886
 20
-1.9310847414
 10
41.4422516544
 20
-1.9894593098
 10
41.4135363446
 20
-2.0458165777
 10
41.3795419672
 20
-2.0983379993
 10
41.3400964189
 20
-2.1468984661
 10
41.295371803
 20
-2.1916230867
 10
41.2468113371
 20
-2.231068641
 10
41.1942899107
 20
-2.2650630262
 10
41.1379326344
 20
-2.2937783452
 10
41.0795580576
 20
-2.3162876865
 10
41.0197723637
 20
-2.3322820798
 10
40.9579693694
 20
-2.3420704954
 10
40.8941490748
 20
-2.3456529334
  0
LWPOLYLINE
  5
5DF
100
AcDbEntity
  8
ASSI
100
AcDbPolyline
 62
7
  6
CONTINUOUS
 90
16
 70
0
 10
41.4941262286
 20
-1.7456757796
 10
41.490543791
 20
-1.8094960673
 10
41.4807553776
 20
-1.8712990546
 10
41.4647609886
 20
-1.9310847414
 10
41.4422516544
 20
-1.9894593098
 10
41.4135363446
 20
-2.0458165777
 10
41.3795419672
 20
-2.0983379993
 10
41.3400964189
 20
-2.1468984661
 10
41.295371803
 20
-2.1916230867
 10
41.2468113371
 20
-2.231068641
 10
41.1942899107
 20
-2.2650630262
 10
41.1379326344
 20
-2.2937783452
 10
41.0795580576
 20
-2.3162876865
 10
41.0197723637
 20
-2.3322820798
 10
40.9579693694
 20
-2.3420704954
 10
40.8941490748
 20
-2.3456529334
  0
LINE
  5
5E0
100
AcDbEntity
  8
RACCORDO
100
AcDbLine
 62
7
  6
CONTINUOUS
 10
54.6262525251
 20
-1.4992281376
 11
54.6105867355
 21
-1.5070586459
  0
LINE
  5
5E1
100
AcDbEntity
  8
RACCORDO
100
AcDbLine
 62
7
  6
CONTINUOUS
 10
54.6262525251
 20
4.2817416674
 11
54.6105867355
 21
4.2895721757
  0
LINE
  5
5E2
100
AcDbEntity
  8
RACCORDO
100
AcDbLine
 62
7
  6
CONTINUOUS
 10
54.5072165303
 20
4.2912567649
 11
54.4986427121
 21
4.2826829467
  0
LINE
  5
5E3
100
AcDbEntity
  8
ASSI
100
AcDbLine
 62
7
  6
CONTINUOUS
 10
54.5072165303
 20
4.2912567649
 11
54.4986427121
 21
4.2826829467
  0
LINE
  5
5E4
100
AcDbEntity
  8
RACCORDO
100
AcDbLine
 62
7
  6
CONTINUOUS
 10
54.5072165303
 20
-1.5087432351
 11
54.4986427121
 21
-1.5001694169
  0
LINE
  5
5E5
100
AcDbEntity
  8
ASSI
100
AcDbLine
 62
7
  6
CONTINUOUS
 10
54.5072165303
 20
-1.5087432351
 11
54.4986427121
 21
-1.5001694169
  0
LINE
  5
5E6
100
AcDbEntity
  8
RACCORDO
100
AcDbLine
 62
253
  6
CONTINUOUS
 10
55.497716535
 20
-1.4992280093
 11
55.5072317608
 21
-1.5087432351
  0
LINE
  5
5E7
100
AcDbEntity
  8
RACCORDO
100
AcDbLine
 62
253
  6
CONTINUOUS
 10
55.5977014329
 20
-1.3992433681
 11
55.607186067
 21
-1.4087280023
  0
LINE
  5
5E8
100
AcDbEntity
  8
ASSI
100
AcDbLine
 62
7
  6
CONTINUOUS
 10
46.8072165303
 20
0.8912567649
 11
46.8072165303
 21
1.8912567649
  0
LINE
  5
5E9
100
AcDbEntity
  8
ASSI
100
AcDbLine
 62
7
  6
CONTINUOUS
 10
47.8655170547
 20
0.8912567649
 11
47.8655170547
 21
1.8912567649
  0
LWPOLYLINE
  5
5EA
100
AcDbEntity
  8
RACCORDO
100
AcDbPolyline
 62
7
  6
CONTINUOUS
 90
13
 70
0
 10
54.5072165303
 20
3.2412567649
 10
54.5060081806
 20
3.2399493987
 10
54.5048051065
 20
3.2360855147
 10
54.503607308
 20
3.2296651127
 10
54.5024132198
 20
3.2206721593
 10
54.5012244073
 20
3.209122688
 10
54.5000455662
 20
3.1950647995
 10
54.4988766457
 20
3.178487852
 10
54.4977176965
 20
3.1594024873
 10
54.4965735663
 20
3.1378887317
 10
54.4954443379
 20
3.1139369983
 10
54.4943299284
 20
3.0875568739
 10
54.4921594396
 20
3.0278284911
  0
LWPOLYLINE
  5
5EB
100
AcDbEntity
  8
ASSI
100
AcDbPolyline
 62
7
  6
CONTINUOUS
 90
13
 70
0
 10
54.5072165303
 20
3.2412567649
 10
54.5060081806
 20
3.2399493987
 10
54.5048051065
 20
3.2360855147
 10
54.503607308
 20
3.2296651127
 10
54.5024132198
 20
3.2206721593
 10
54.5012244073
 20
3.209122688
 10
54.5000455662
 20
3.1950647995
 10
54.4988766457
 20
3.178487852
 10
54.4977176965
 20
3.1594024873
 10
54.4965735663
 20
3.1378887317
 10
54.4954443379
 20
3.1139369983
 10
54.4943299284
 20
3.0875568739
 10
54.4921594396
 20
3.0278284911
  0
LINE
  5
5EC
100
AcDbEntity
  8
RACCORDO
100
AcDbLine
 62
253
  6
CONTINUOUS
 10
55.5072317608
 20
4.2912567649
 11
55.497716535
 21
4.2817415391
  0
LINE
  5
5ED
100
AcDbEntity
  8
RACCORDO
100
AcDbLine
 62
253
  6
CONTINUOUS
 10
55.607186067
 20
4.1912415321
 11
55.5977014329
 21
4.1817568979
  0
LINE
  5
5EE
100
AcDbEntity
  8
RACCORDO
100
AcDbLine
 62
7
  6
CONTINUOUS
 10
55.6066377278
 20
3.2909673857
 11
55.6106972205
 21
3.2950268784
  0
LWPOLYLINE
  5
5EF
100
AcDbEntity
  8
RACCORDO
100
AcDbPolyline
 62
253
  6
CONTINUOUS
 90
10
 70
0
 10
55.4218569517
 20
3.008373109
 10
55.4286332986
 20
3.0034187107
 10
55.4353566626
 20
2.9980744343
 10
55.4419744739
 20
2.9923820667
 10
55.4484349878
 20
2.9863861165
 10
55.4546876897
 20
2.980133466
 10
55.4606836898
 20
2.9736730048
 10
55.4663761053
 20
2.9670552471
 10
55.4717204273
 20
2.9603319372
 10
55.4766748686
 20
2.9535556445
  0
LINE
  5
5F0
100
AcDbEntity
  8
RACCORDO
100
AcDbLine
 62
7
  6
CONTINUOUS
 10
55.6106972205
 20
-0.5125133486
 11
55.6066377278
 21
-0.5084538559
  0
LWPOLYLINE
  5
5F1
100
AcDbEntity
  8
RACCORDO
100
AcDbPolyline
 62
253
  6
CONTINUOUS
 90
22
 70
0
 10
55.4218569231
 20
-0.225859585
 10
55.4250608599
 20
-0.2292900293
 10
55.4282137254
 20
-0.2329727995
 10
55.4313155195
 20
-0.2369071327
 10
55.4343779632
 20
-0.2410933148
 10
55.4373893355
 20
-0.2455293624
 10
55.4403144735
 20
-0.2502110351
 10
55.4431530601
 20
-0.2551381913
 10
55.4459054124
 20
-0.2603089566
 10
55.4485373184
 20
-0.265716443
 10
55.4510495285
 20
-0.2713602047
 10
55.4534412923
 20
-0.2772383771
 10
55.4556761462
 20
-0.2833419211
 10
55.4577553806
 20
-0.2896657552
 10
55.4596777053
 20
-0.2962124041
 10
55.4614027858
 20
-0.3029841715
 10
55.4629190899
 20
-0.3098361476
 10
55.4642381499
 20
-0.3169108833
 10
55.4653542287
 20
-0.3246390274
 10
55.4662654141
 20
-0.3331595883
 10
55.4669736184
 20
-0.3423229622
 10
55.4674788415
 20
-0.3521234771
  0
LWPOLYLINE
  5
5F2
100
AcDbEntity
  8
RACCORDO
100
AcDbPolyline
 62
253
  6
CONTINUOUS
 90
22
 70
0
 10
55.4218569517
 20
3.0083731148
 10
55.4249867362
 20
3.01171817
 10
55.4280748656
 20
3.0153160969
 10
55.43112134
 20
3.0191661495
 10
55.4341368214
 20
3.0232646176
 10
55.4371106478
 20
3.0276135574
 10
55.4400108333
 20
3.0322207559
 10
55.4428393726
 20
3.0370883433
 10
55.445594271
 20
3.0422121013
 10
55.4482375588
 20
3.0475901732
 10
55.4507705965
 20
3.0532234217
 10
55.4531920235
 20
3.0591085197
 10
55.4554597878
 20
3.0652372658
 10
55.4575757713
 20
3.0716096718
 10
55.459538092
 20
3.0782229418
 10
55.4612990525
 20
3.0850646616
 10
55.4628618846
 20
3.0921282408
 10
55.4642233565
 20
3.0994172555
 10
55.4653260746
 20
3.1069344818
 10
55.466150908
 20
3.1146796724
 10
55.4667169877
 20
3.1226495866
 10
55.4670243138
 20
3.1308423806
  0
LWPOLYLINE
  5
5F3
100
AcDbEntity
  8
RACCORDO
100
AcDbPolyline
 62
7
  6
CONTINUOUS
 90
3
 70
0
 10
55.1278496457
 20
-0.178408434
 10
55.140156278
 20
-0.1661405407
 10
55.1774757881
 20
-0.1287209763
  0
LINE
  5
5F4
100
AcDbEntity
  8
RACCORDO
100
AcDbLine
 62
7
  6
CONTINUOUS
 10
55.1774757881
 20
-0.1287209763
 11
55.1900592428
 21
-0.1162245783
  0
LWPOLYLINE
  5
5F5
100
AcDbEntity
  8
RACCORDO
100
AcDbPolyline
 62
7
  6
CONTINUOUS
 90
3
 70
0
 10
55.080424236
 20
-0.225859585
 10
55.0920166687
 20
-0.214374214
 10
55.1278496457
 20
-0.178408434
  0
LWPOLYLINE
  5
5F6
100
AcDbEntity
  8
RACCORDO
100
AcDbPolyline
 62
7
  6
CONTINUOUS
 90
10
 70
0
 10
54.6262525251
 20
4.2817416674
 10
54.6266470384
 20
4.2814163972
 10
54.6270407963
 20
4.2808370855
 10
54.6274337988
 20
4.2800037324
 10
54.6278262474
 20
4.2789156461
 10
54.6282179405
 20
4.2775735183
 10
54.6286082735
 20
4.2759794246
 10
54.6289970449
 20
4.2741340567
 10
54.6293844562
 20
4.2720367228
 10
54.6297705074
 20
4.2696874229
  0
LWPOLYLINE
  5
5F7
100
AcDbEntity
  8
RACCORDO
100
AcDbPolyline
 62
7
  6
CONTINUOUS
 90
3
 70
0
 10
55.1278753871
 20
2.9609477052
 10
55.0919096071
 20
2.9967806822
 10
55.080424236
 20
3.0083731148
  0
LWPOLYLINE
  5
5F8
100
AcDbEntity
  8
RACCORDO
100
AcDbPolyline
 62
7
  6
CONTINUOUS
 90
3
 70
0
 10
55.1775628448
 20
2.9113215628
 10
55.1401432804
 20
2.9486410728
 10
55.1278753871
 20
2.9609477052
  0
LINE
  5
5F9
100
AcDbEntity
  8
RACCORDO
100
AcDbLine
 62
7
  6
CONTINUOUS
 10
55.1900592428
 20
2.8987381081
 11
55.1775628448
 21
2.9113215628
  0
LWPOLYLINE
  5
5FA
100
AcDbEntity
  8
RACCORDO
100
AcDbPolyline
 62
7
  6
CONTINUOUS
 90
10
 70
0
 10
54.4986427121
 20
4.2826829467
 10
54.4982003601
 20
4.2819181057
 10
54.4977590527
 20
4.2805148923
 10
54.4973187899
 20
4.2784733065
 10
54.4968792906
 20
4.2757912176
 10
54.4964408359
 20
4.2724707562
 10
54.4960042689
 20
4.2685183146
 10
54.4955698706
 20
4.2639360236
 10
54.49513736
 20
4.2587217524
 10
54.4947067371
 20
4.2528755011
  0
LWPOLYLINE
  5
5FB
100
AcDbEntity
  8
ASSI
100
AcDbPolyline
 62
7
  6
CONTINUOUS
 90
10
 70
0
 10
54.4986427121
 20
4.2826829467
 10
54.4982003601
 20
4.2819181057
 10
54.4977590527
 20
4.2805148923
 10
54.4973187899
 20
4.2784733065
 10
54.4968792906
 20
4.2757912176
 10
54.4964408359
 20
4.2724707562
 10
54.4960042689
 20
4.2685183146
 10
54.4955698706
 20
4.2639360236
 10
54.49513736
 20
4.2587217524
 10
54.4947067371
 20
4.2528755011
  0
LWPOLYLINE
  5
5FC
100
AcDbEntity
  8
RACCORDO
100
AcDbPolyline
 62
7
  6
CONTINUOUS
 90
10
 70
0
 10
54.735292594
 20
-0.6517293503
 10
54.7244566927
 20
-0.6638197702
 10
54.7146404132
 20
-0.6766043092
 10
54.7058437557
 20
-0.6900689486
 10
54.6979793159
 20
-0.7042413207
 10
54.691134498
 20
-0.7190621568
 10
54.6855715147
 20
-0.7343883509
 10
54.6813777702
 20
-0.7501631599
 10
54.6784658602
 20
-0.7664130964
 10
54.6768357849
 20
-0.7831215496
  0
LWPOLYLINE
  5
5FD
100
AcDbEntity
  8
RACCORDO
100
AcDbPolyline
 62
7
  6
CONTINUOUS
 90
9
 70
0
 10
55.080424236
 20
-0.225859585
 10
55.0765766438
 20
-0.2298039533
 10
55.0728081146
 20
-0.2338420733
 10
55.0691186485
 20
-0.237973617
 10
55.0655084044
 20
-0.2422010406
 10
55.0619772233
 20
-0.2465211966
 10
55.0585246286
 20
-0.2509253668
 10
55.0551504615
 20
-0.2554104319
 10
55.0518548808
 20
-0.2599788391
  0
LINE
  5
5FE
100
AcDbEntity
  8
RACCORDO
100
AcDbLine
 62
253
  6
CONTINUOUS
 10
55.6106972205
 20
-1.4052168488
 11
55.607186067
 21
-1.4087280023
  0
LINE
  5
5FF
100
AcDbEntity
  8
RACCORDO
100
AcDbLine
 62
253
  6
CONTINUOUS
 10
55.607186067
 20
4.1912415321
 11
55.6106972205
 21
4.1877303786
  0
LWPOLYLINE
  5
600
100
AcDbEntity
  8
RACCORDO
100
AcDbPolyline
 62
7
  6
CONTINUOUS
 90
6
 70
0
 10
54.735292594
 20
3.4342428801
 10
54.7931508208
 20
3.3720614504
 10
54.848755443
 20
3.3089459849
 10
54.9021064607
 20
3.2448964838
 10
54.9532038739
 20
3.179912947
 10
55.0020476825
 20
3.1139953745
  0
LINE
  5
601
100
AcDbEntity
  8
RACCORDO
100
AcDbLine
 62
253
  6
CONTINUOUS
 10
55.5837989408
 20
4.2555242933
 11
55.5873147971
 21
4.2520112802
  0
LWPOLYLINE
  5
602
100
AcDbEntity
  8
RACCORDO
100
AcDbPolyline
 62
7
  6
CONTINUOUS
 90
6
 70
0
 10
55.5778904564
 20
4.2619737294
 10
55.5837989408
 20
4.2555242933
 10
55.5937949907
 20
4.2412416212
 10
55.6011587471
 20
4.2254415541
 10
55.605667695
 20
4.2086043431
 10
55.607186067
 20
4.1912415321
  0
LWPOLYLINE
  5
603
100
AcDbEntity
  8
RACCORDO
100
AcDbPolyline
 62
253
  6
CONTINUOUS
 90
6
 70
0
 10
55.4977165609
 20
4.281741539
 10
55.4974797728
 20
4.2811590428
 10
55.4972439181
 20
4.2800036235
 10
55.4970089968
 20
4.278276472
 10
55.4967750088
 20
4.2759794357
 10
55.4965419542
 20
4.2731150167
  0
LINE
  5
604
100
AcDbEntity
  8
RACCORDO
100
AcDbLine
 62
253
  6
CONTINUOUS
 10
55.4218569517
 20
3.0083731148
 11
55.3670394154
 21
2.8987381081
  0
LWPOLYLINE
  5
605
100
AcDbEntity
  8
RACCORDO
100
AcDbPolyline
 62
253
  6
CONTINUOUS
 90
7
 70
0
 10
55.5977014329
 20
4.1817568979
 10
55.5974636227
 20
4.1812820862
 10
55.5972271523
 20
4.1803543061
 10
55.5969920217
 20
4.1789735576
 10
55.5967582309
 20
4.1771398409
 10
55.5965257799
 20
4.1748531557
 10
55.5962946687
 20
4.1721135023
  0
LWPOLYLINE
  5
606
100
AcDbEntity
  8
RACCORDO
100
AcDbPolyline
 62
7
  6
CONTINUOUS
 90
7
 70
0
 10
55.0518548808
 20
-0.2599788391
 10
55.0020477748
 20
-0.3314817304
 10
54.9532040215
 20
-0.3973992344
 10
54.9021066268
 20
-0.4623827483
 10
54.8487555907
 20
-0.5264322723
 10
54.7931509131
 20
-0.5895478063
 10
54.735292594
 20
-0.6517293503
  0
LWPOLYLINE
  5
607
100
AcDbEntity
  8
RACCORDO
100
AcDbPolyline
 62
253
  6
CONTINUOUS
 90
10
 70
0
 10
55.4766746368
 20
-0.1710420859
 10
55.4717202429
 20
-0.1778184085
 10
55.4663759614
 20
-0.1845417433
 10
55.4606835795
 20
-0.19115952
 10
55.4546876066
 20
-0.1976199937
 10
55.4484349257
 20
-0.2038726494
 10
55.4419744271
 20
-0.2098685969
 10
55.435356626
 20
-0.2155609537
 10
55.4286332678
 20
-0.2209052106
 10
55.4218569231
 20
-0.2258595805
  0
LWPOLYLINE
  5
608
100
AcDbEntity
  8
RACCORDO
100
AcDbPolyline
 62
7
  6
CONTINUOUS
 90
4
 70
0
 10
55.5812901384
 20
-1.4760465968
 10
55.5917341661
 20
-1.4638240642
 10
55.5999527159
 20
-1.4503764617
 10
55.6062847559
 20
-1.4348031274
  0
LINE
  5
609
100
AcDbEntity
  8
RACCORDO
100
AcDbLine
 62
253
  6
CONTINUOUS
 10
55.5837945196
 20
-1.4730158696
 11
55.5873161048
 21
-1.4694961918
  0
LWPOLYLINE
  5
60A
100
AcDbEntity
  8
RACCORDO
100
AcDbPolyline
 62
7
  6
CONTINUOUS
 90
6
 70
0
 10
55.5778903812
 20
-1.4794601995
 10
55.5837945196
 20
-1.4730158696
 10
55.5937900325
 20
-1.4587366827
 10
55.6011557331
 20
-1.4429373461
 10
55.6056670285
 20
-1.426097326
 10
55.607186067
 20
-1.4087280023
  0
LINE
  5
60B
100
AcDbEntity
  8
RACCORDO
100
AcDbLine
 62
253
  6
CONTINUOUS
 10
55.5937949907
 20
4.2412416212
 11
55.5973110808
 21
4.2377330713
  0
LWPOLYLINE
  5
60C
100
AcDbEntity
  8
RACCORDO
100
AcDbPolyline
 62
7
  6
CONTINUOUS
 90
10
 70
0
 10
55.0020476825
 20
3.1139953745
 10
55.0518548808
 20
3.0424923689
 10
55.0551504615
 20
3.0379239617
 10
55.0585246286
 20
3.0334388966
 10
55.0619772233
 20
3.0290347264
 10
55.0655084044
 20
3.0247145704
 10
55.0691186485
 20
3.0204871468
 10
55.0728081146
 20
3.0163556031
 10
55.0765766438
 20
3.0123174831
 10
55.080424236
 20
3.0083731148
  0
LINE
  5
60D
100
AcDbEntity
  8
RACCORDO
100
AcDbLine
 62
253
  6
CONTINUOUS
 10
55.3670394154
 20
-0.1162245783
 11
55.4218569231
 21
-0.225859585
  0
LWPOLYLINE
  5
60E
100
AcDbEntity
  8
RACCORDO
100
AcDbPolyline
 62
7
  6
CONTINUOUS
 90
10
 70
0
 10
55.6066377278
 20
-0.5084538559
 10
55.6052351959
 20
-0.5053331934
 10
55.6038412312
 20
-0.4988704973
 10
55.6024558338
 20
-0.4890657675
 10
55.6010765976
 20
-0.475889513
 10
55.5997059287
 20
-0.4593712249
 10
55.5983510448
 20
-0.4395993764
 10
55.5970120016
 20
-0.4165564752
 10
55.5956887435
 20
-0.3902600136
 10
55.5943883213
 20
-0.3608509421
  0
LINE
  5
60F
100
AcDbEntity
  8
RACCORDO
100
AcDbLine
 62
7
  6
CONTINUOUS
 10
55.6106972205
 20
-0.5125133486
 11
55.6108298661
 21
-0.5128179812
  0
LWPOLYLINE
  5
610
100
AcDbEntity
  8
RACCORDO
100
AcDbPolyline
 62
7
  6
CONTINUOUS
 90
10
 70
0
 10
54.6768357849
 20
3.5656350794
 10
54.6784652227
 20
3.5489292564
 10
54.681376479
 20
3.5326813686
 10
54.6855695539
 20
3.5169080085
 10
54.6911316176
 20
3.5015826963
 10
54.6979754998
 20
3.4867621107
 10
54.7058396897
 20
3.4725891928
 10
54.7146370168
 20
3.4591231451
 10
54.7244546516
 20
3.4463363718
 10
54.735292594
 20
3.4342428801
  0
LWPOLYLINE
  5
611
100
AcDbEntity
  8
RACCORDO
100
AcDbPolyline
 62
253
  6
CONTINUOUS
 90
10
 70
0
 10
55.5962946687
 20
4.1721135023
 10
55.5947166893
 20
4.1890162557
 10
55.590163195
 20
4.2054078838
 10
55.5827718729
 20
4.2207927558
 10
55.5727662176
 20
4.2347056824
 10
55.5604487712
 20
4.2467259837
 10
55.5461919744
 20
4.2564902082
 10
55.5304269073
 20
4.2637031195
 10
55.5136302566
 20
4.2681466238
 10
55.4963098992
 20
4.2696863663
  0
LWPOLYLINE
  5
612
100
AcDbEntity
  8
RACCORDO
100
AcDbPolyline
 62
253
  6
CONTINUOUS
 90
10
 70
0
 10
55.5977014329
 20
4.1817568979
 10
55.5961777255
 20
4.1991158201
 10
55.5916634654
 20
4.2159474784
 10
55.5842957749
 20
4.2317406487
 10
55.5742984439
 20
4.2460156502
 10
55.5619751278
 20
4.2583389201
 10
55.5477001213
 20
4.2683361787
 10
55.5319069967
 20
4.27570379
 10
55.5150754375
 20
4.2802179863
 10
55.4977166633
 20
4.2817416674
  0
LINE
  5
613
100
AcDbEntity
  8
RACCORDO
100
AcDbLine
 62
253
  6
CONTINUOUS
 10
55.6091827995
 20
4.2050966198
 11
55.6106972205
 21
4.1877303786
  0
LWPOLYLINE
  5
614
100
AcDbEntity
  8
RACCORDO
100
AcDbPolyline
 62
253
  6
CONTINUOUS
 90
7
 70
0
 10
55.5962946687
 20
-1.3895999725
 10
55.5965257799
 20
-1.3923396259
 10
55.5967582309
 20
-1.3946263111
 10
55.5969920217
 20
-1.3964600278
 10
55.5972271523
 20
-1.3978407763
 10
55.5974636227
 20
-1.3987685564
 10
55.5977014329
 20
-1.3992433681
  0
LWPOLYLINE
  5
615
100
AcDbEntity
  8
RACCORDO
100
AcDbPolyline
 62
253
  6
CONTINUOUS
 90
6
 70
0
 10
55.4965419237
 20
-1.490601075
 10
55.4967749966
 20
-1.4934657707
 10
55.4970089968
 20
-1.4957629422
 10
55.4972439242
 20
-1.4974901315
 10
55.4974797789
 20
-1.4986455357
 10
55.4977165609
 20
-1.4992280092
  0
LWPOLYLINE
  5
616
100
AcDbEntity
  8
RACCORDO
100
AcDbPolyline
 62
7
  6
CONTINUOUS
 90
10
 70
0
 10
54.4947067371
 20
-1.4703619713
 10
54.49513736
 20
-1.4762082226
 10
54.4955698706
 20
-1.4814224938
 10
54.4960042689
 20
-1.4860047848
 10
54.4964408359
 20
-1.4899572264
 10
54.4968792906
 20
-1.4932776878
 10
54.4973187899
 20
-1.4959597767
 10
54.4977590527
 20
-1.4980013625
 10
54.4982003601
 20
-1.4994045759
 10
54.4986427121
 20
-1.5001694169
  0
LWPOLYLINE
  5
617
100
AcDbEntity
  8
ASSI
100
AcDbPolyline
 62
7
  6
CONTINUOUS
 90
10
 70
0
 10
54.4947067371
 20
-1.4703619713
 10
54.49513736
 20
-1.4762082226
 10
54.4955698706
 20
-1.4814224938
 10
54.4960042689
 20
-1.4860047848
 10
54.4964408359
 20
-1.4899572264
 10
54.4968792906
 20
-1.4932776878
 10
54.4973187899
 20
-1.4959597767
 10
54.4977590527
 20
-1.4980013625
 10
54.4982003601
 20
-1.4994045759
 10
54.4986427121
 20
-1.5001694169
  0
LWPOLYLINE
  5
618
100
AcDbEntity
  8
RACCORDO
100
AcDbPolyline
 62
7
  6
CONTINUOUS
 90
4
 70
0
 10
55.610838745
 20
4.1874585898
 10
55.6098388095
 20
4.2015828867
 10
55.6056035013
 20
4.2194351881
 10
55.59857582
 20
4.2355136056
  0
LWPOLYLINE
  5
619
100
AcDbEntity
  8
RACCORDO
100
AcDbPolyline
 62
253
  6
CONTINUOUS
 90
22
 70
0
 10
55.5670089544
 20
-0.2893588637
 10
55.5664866069
 20
-0.2815103076
 10
55.5653557464
 20
-0.2738802393
 10
55.5636673435
 20
-0.2664686588
 10
55.5614781671
 20
-0.2592763525
 10
55.5588351573
 20
-0.252302534
 10
55.5557626312
 20
-0.2455448443
 10
55.5522952303
 20
-0.2390022919
 10
55.5484727257
 20
-0.2326758682
 10
55.544308572
 20
-0.2265661882
 10
55.5398272347
 20
-0.2206696958
 10
55.535062353
 20
-0.2149899471
 10
55.530031627
 20
-0.2095382248
 10
55.5247587154
 20
-0.204315404
 10
55.5192710558
 20
-0.1993206096
 10
55.5135881632
 20
-0.1945625
 10
55.5077301378
 20
-0.1900424594
 10
55.501722513
 20
-0.1857591035
 10
55.4955916156
 20
-0.1817169377
 10
55.4893604664
 20
-0.1779174637
 10
55.4830481895
 20
-0.1743591798
 10
55.4766744221
 20
-0.1710420859
  0
LWPOLYLINE
  5
61A
100
AcDbEntity
  8
RACCORDO
100
AcDbPolyline
 62
7
  6
CONTINUOUS
 90
11
 70
0
 10
54.4954443699
 20
-0.3314241889
 10
54.496573595
 20
-0.3553757762
 10
54.4977177211
 20
-0.3768893954
 10
54.4988766654
 20
-0.3959746287
 10
54.5000455813
 20
-0.4125514671
 10
54.501224418
 20
-0.426609276
 10
54.5024132263
 20
-0.4381586899
 10
54.5036073111
 20
-0.4471516033
 10
54.5048051076
 20
-0.4535719811
 10
54.5060081807
 20
-0.4574358583
 10
54.5072165303
 20
-0.4587432351
  0
LWPOLYLINE
  5
61B
100
AcDbEntity
  8
ASSI
100
AcDbPolyline
 62
7
  6
CONTINUOUS
 90
11
 70
0
 10
54.4954443699
 20
-0.3314241889
 10
54.496573595
 20
-0.3553757762
 10
54.4977177211
 20
-0.3768893954
 10
54.4988766654
 20
-0.3959746287
 10
54.5000455813
 20
-0.4125514671
 10
54.501224418
 20
-0.426609276
 10
54.5024132263
 20
-0.4381586899
 10
54.5036073111
 20
-0.4471516033
 10
54.5048051076
 20
-0.4535719811
 10
54.5060081807
 20
-0.4574358583
 10
54.5072165303
 20
-0.4587432351
  0
LWPOLYLINE
  5
61C
100
AcDbEntity
  8
RACCORDO
100
AcDbPolyline
 62
253
  6
CONTINUOUS
 90
5
 70
0
 10
55.587047255
 20
-1.2149225639
 10
55.589258546
 20
-1.2672388215
 10
55.591538066
 20
-1.3137554539
 10
55.5938834402
 20
-1.3545425042
 10
55.5962946687
 20
-1.3895999725
  0
LWPOLYLINE
  5
61D
100
AcDbEntity
  8
RACCORDO
100
AcDbPolyline
 62
253
  6
CONTINUOUS
 90
5
 70
0
 10
55.4870766891
 20
-1.3065492899
 10
55.4892887257
 20
-1.3608673975
 10
55.4915655783
 20
-1.4093518269
 10
55.4939059223
 20
-1.4515521255
 10
55.4965419237
 20
-1.490601075
  0
LWPOLYLINE
  5
61E
100
AcDbEntity
  8
RACCORDO
100
AcDbPolyline
 62
7
  6
CONTINUOUS
 90
5
 70
0
 10
54.484539003
 20
-1.257184401
 10
54.487005904
 20
-1.3220154869
 10
54.4895189344
 20
-1.3790411896
 10
54.4920858788
 20
-1.4284900177
 10
54.4947067371
 20
-1.4703619713
  0
LWPOLYLINE
  5
61F
100
AcDbEntity
  8
ASSI
100
AcDbPolyline
 62
7
  6
CONTINUOUS
 90
5
 70
0
 10
54.484539003
 20
-1.257184401
 10
54.487005904
 20
-1.3220154869
 10
54.4895189344
 20
-1.3790411896
 10
54.4920858788
 20
-1.4284900177
 10
54.4947067371
 20
-1.4703619713
  0
LINE
  5
620
100
AcDbEntity
  8
RACCORDO
100
AcDbLine
 62
7
  6
CONTINUOUS
 10
54.4932349727
 20
-0.2763446118
 11
54.4954443699
 21
-0.3314241889
  0
LINE
  5
621
100
AcDbEntity
  8
ASSI
100
AcDbLine
 62
7
  6
CONTINUOUS
 10
54.4932349727
 20
-0.2763446118
 11
54.4954443699
 21
-0.3314241889
  0
LINE
  5
622
100
AcDbEntity
  8
RACCORDO
100
AcDbLine
 62
7
  6
CONTINUOUS
 10
55.5943883213
 20
-0.3608509421
 11
55.5918562437
 21
-0.2926621084
  0
LINE
  5
623
100
AcDbEntity
  8
RACCORDO
100
AcDbLine
 62
253
  6
CONTINUOUS
 10
55.5828151119
 20
-1.0933114324
 11
55.587047255
 21
-1.2149225639
  0
LINE
  5
624
100
AcDbEntity
  8
RACCORDO
100
AcDbLine
 62
253
  6
CONTINUOUS
 10
55.4828391161
 20
-1.18078407
 11
55.4870766891
 21
-1.3065492899
  0
LINE
  5
625
100
AcDbEntity
  8
RACCORDO
100
AcDbLine
 62
7
  6
CONTINUOUS
 10
54.4911033953
 20
-0.2119678584
 11
54.4932349727
 21
-0.2763446118
  0
LINE
  5
626
100
AcDbEntity
  8
ASSI
100
AcDbLine
 62
7
  6
CONTINUOUS
 10
54.4911033953
 20
-0.2119678584
 11
54.4932349727
 21
-0.2763446118
  0
LINE
  5
627
100
AcDbEntity
  8
ASSI
100
AcDbLine
 62
7
  6
CONTINUOUS
 10
54.6533755998
 20
2.7559911605
 11
54.6591616313
 21
2.5733395802
  0
LINE
  5
628
100
AcDbEntity
  8
RACCORDO
100
AcDbLine
 62
7
  6
CONTINUOUS
 10
54.4797902968
 20
-1.1054771317
 11
54.484539003
 21
-1.257184401
  0
LINE
  5
629
100
AcDbEntity
  8
ASSI
100
AcDbLine
 62
7
  6
CONTINUOUS
 10
54.4797902968
 20
-1.1054771317
 11
54.484539003
 21
-1.257184401
  0
LINE
  5
62A
100
AcDbEntity
  8
RACCORDO
100
AcDbLine
 62
7
  6
CONTINUOUS
 10
55.5918562437
 20
-0.2926621084
 11
55.5894356541
 21
-0.2125781631
  0
LINE
  5
62B
100
AcDbEntity
  8
RACCORDO
100
AcDbLine
 62
7
  6
CONTINUOUS
 10
54.4890626778
 20
-0.1387139523
 11
54.4911033953
 21
-0.2119678584
  0
LINE
  5
62C
100
AcDbEntity
  8
ASSI
100
AcDbLine
 62
7
  6
CONTINUOUS
 10
54.4890626778
 20
-0.1387139523
 11
54.4911033953
 21
-0.2119678584
  0
LINE
  5
62D
100
AcDbEntity
  8
RACCORDO
100
AcDbLine
 62
253
  6
CONTINUOUS
 10
55.5788072927
 20
-0.9495113755
 11
55.5828151119
 21
-1.0933114324
  0
LINE
  5
62E
100
AcDbEntity
  8
RACCORDO
100
AcDbLine
 62
253
  6
CONTINUOUS
 10
55.4788323066
 20
-1.0321141046
 11
55.4828391161
 21
-1.18078407
  0
LINE
  5
62F
100
AcDbEntity
  8
RACCORDO
100
AcDbLine
 62
7
  6
CONTINUOUS
 10
54.475354258
 20
-0.9261152752
 11
54.4797902968
 21
-1.1054771317
  0
LINE
  5
630
100
AcDbEntity
  8
ASSI
100
AcDbLine
 62
7
  6
CONTINUOUS
 10
54.475354258
 20
-0.9261152752
 11
54.4797902968
 21
-1.1054771317
  0
LINE
  5
631
100
AcDbEntity
  8
ASSI
100
AcDbLine
 62
7
  6
CONTINUOUS
 10
54.6591616313
 20
2.5733395802
 11
54.6640874978
 21
2.3699063968
  0
LINE
  5
632
100
AcDbEntity
  8
RACCORDO
100
AcDbLine
 62
7
  6
CONTINUOUS
 10
55.5894356541
 20
-0.2125781631
 11
55.5860449873
 21
-0.0712065181
  0
LINE
  5
633
100
AcDbEntity
  8
RACCORDO
100
AcDbLine
 62
7
  6
CONTINUOUS
 10
54.4861937358
 20
-0.0129922541
 11
54.4890626778
 21
-0.1387139523
  0
LINE
  5
634
100
AcDbEntity
  8
ASSI
100
AcDbLine
 62
7
  6
CONTINUOUS
 10
54.4861937358
 20
-0.0129922541
 11
54.4890626778
 21
-0.1387139523
  0
LINE
  5
635
100
AcDbEntity
  8
RACCORDO
100
AcDbLine
 62
253
  6
CONTINUOUS
 10
55.5732859564
 20
-0.6945046362
 11
55.5788072927
 21
-0.9495113755
  0
LINE
  5
636
100
AcDbEntity
  8
RACCORDO
100
AcDbLine
 62
253
  6
CONTINUOUS
 10
55.4732716391
 20
-0.7677720209
 11
55.4788323066
 21
-1.0321141046
  0
LINE
  5
637
100
AcDbEntity
  8
RACCORDO
100
AcDbLine
 62
7
  6
CONTINUOUS
 10
54.4693994453
 20
-0.6108494984
 11
54.475354258
 21
-0.9261152752
  0
LINE
  5
638
100
AcDbEntity
  8
ASSI
100
AcDbLine
 62
7
  6
CONTINUOUS
 10
54.4693994453
 20
-0.6108494984
 11
54.475354258
 21
-0.9261152752
  0
LINE
  5
639
100
AcDbEntity
  8
RACCORDO
100
AcDbLine
 62
7
  6
CONTINUOUS
 10
54.6640874978
 20
2.3699063968
 11
54.6650601666
 21
2.3164980871
  0
LINE
  5
63A
100
AcDbEntity
  8
RACCORDO
100
AcDbLine
 62
7
  6
CONTINUOUS
 10
55.5860449873
 20
-0.0712065181
 11
55.5829928344
 21
0.0935509817
  0
LINE
  5
63B
100
AcDbEntity
  8
RACCORDO
100
AcDbLine
 62
7
  6
CONTINUOUS
 10
54.4861937358
 20
-0.0129922541
 11
54.4833789301
 21
0.1461514736
  0
LINE
  5
63C
100
AcDbEntity
  8
ASSI
100
AcDbLine
 62
7
  6
CONTINUOUS
 10
54.4861937358
 20
-0.0129922541
 11
54.4833789301
 21
0.1461514736
  0
LWPOLYLINE
  5
63D
100
AcDbEntity
  8
RACCORDO
100
AcDbPolyline
 62
253
  6
CONTINUOUS
 90
3
 70
0
 10
55.5670089544
 20
-0.2893603562
 10
55.5684565754
 20
-0.3973562525
 10
55.5732859564
 20
-0.6945046362
  0
LINE
  5
63E
100
AcDbEntity
  8
RACCORDO
100
AcDbLine
 62
7
  6
CONTINUOUS
 10
55.5829928344
 20
0.0935509817
 11
55.579536613
 21
0.344709048
  0
LINE
  5
63F
100
AcDbEntity
  8
RACCORDO
100
AcDbLine
 62
7
  6
CONTINUOUS
 10
54.6650601666
 20
2.3164980871
 11
54.6657982155
 21
2.2604440083
  0
LINE
  5
640
100
AcDbEntity
  8
RACCORDO
100
AcDbLine
 62
7
  6
CONTINUOUS
 10
54.4660497677
 20
-0.367578534
 11
54.4693994453
 21
-0.6108494984
  0
LINE
  5
641
100
AcDbEntity
  8
ASSI
100
AcDbLine
 62
7
  6
CONTINUOUS
 10
54.4660497677
 20
-0.367578534
 11
54.4693994453
 21
-0.6108494984
  0
LWPOLYLINE
  5
642
100
AcDbEntity
  8
RACCORDO
100
AcDbPolyline
 62
253
  6
CONTINUOUS
 90
3
 70
0
 10
55.4674788415
 20
-0.3521234771
 10
55.4687241947
 20
-0.4617591477
 10
55.4732716391
 20
-0.7677720209
  0
LINE
  5
643
100
AcDbEntity
  8
RACCORDO
100
AcDbLine
 62
7
  6
CONTINUOUS
 10
54.4833789301
 20
0.1461514736
 11
54.4809338913
 21
0.3655302288
  0
LINE
  5
644
100
AcDbEntity
  8
ASSI
100
AcDbLine
 62
7
  6
CONTINUOUS
 10
54.4833789301
 20
0.1461514736
 11
54.4809338913
 21
0.3655302288
  0
LINE
  5
645
100
AcDbEntity
  8
RACCORDO
100
AcDbLine
 62
7
  6
CONTINUOUS
 10
54.6657982155
 20
2.2604440083
 11
54.6662986305
 21
2.2020567149
  0
LINE
  5
646
100
AcDbEntity
  8
RACCORDO
100
AcDbLine
 62
7
  6
CONTINUOUS
 10
55.579536613
 20
0.344709048
 11
55.578104628
 21
0.4936679918
  0
LINE
  5
647
100
AcDbEntity
  8
RACCORDO
100
AcDbLine
 62
7
  6
CONTINUOUS
 10
54.4644006786
 20
-0.1577901479
 11
54.4660497677
 21
-0.367578534
  0
LINE
  5
648
100
AcDbEntity
  8
ASSI
100
AcDbLine
 62
7
  6
CONTINUOUS
 10
54.4644006786
 20
-0.1577901479
 11
54.4660497677
 21
-0.367578534
  0
LINE
  5
649
100
AcDbEntity
  8
RACCORDO
100
AcDbLine
 62
7
  6
CONTINUOUS
 10
54.4809338913
 20
0.3655302288
 11
54.4795584478
 21
0.6142927202
  0
LINE
  5
64A
100
AcDbEntity
  8
ASSI
100
AcDbLine
 62
7
  6
CONTINUOUS
 10
54.4809338913
 20
0.3655302288
 11
54.4795584478
 21
0.6142927202
  0
LINE
  5
64B
100
AcDbEntity
  8
RACCORDO
100
AcDbLine
 62
7
  6
CONTINUOUS
 10
55.578104628
 20
0.4936679918
 11
55.5776063512
 21
0.610027474
  0
LINE
  5
64C
100
AcDbEntity
  8
RACCORDO
100
AcDbLine
 62
7
  6
CONTINUOUS
 10
54.6662986305
 20
2.2020567149
 11
54.6665818385
 21
2.11236702
  0
LINE
  5
64D
100
AcDbEntity
  8
RACCORDO
100
AcDbLine
 62
7
  6
CONTINUOUS
 10
54.463578868
 20
0.1452631855
 11
54.4644006786
 21
-0.1577901479
  0
LINE
  5
64E
100
AcDbEntity
  8
ASSI
100
AcDbLine
 62
7
  6
CONTINUOUS
 10
54.463578868
 20
0.1452631855
 11
54.4644006786
 21
-0.1577901479
  0
LINE
  5
64F
100
AcDbEntity
  8
DRAFT
100
AcDbLine
 62
7
  6
CONTINUOUS
 10
54.5072165303
 20
-1.5087432351
 11
54.5072165303
 21
-0.4587432351
  0
LINE
  5
650
100
AcDbEntity
  8
ASSI
100
AcDbLine
 62
7
  6
CONTINUOUS
 10
54.5072165303
 20
-1.5087432351
 11
54.5072165303
 21
-0.4587432351
  0
LINE
  5
651
100
AcDbEntity
  8
DRAFT
100
AcDbLine
 62
7
  6
CONTINUOUS
 10
54.5072165303
 20
3.2412567649
 11
54.5072165303
 21
4.2912567649
  0
LINE
  5
652
100
AcDbEntity
  8
ASSI
100
AcDbLine
 62
7
  6
CONTINUOUS
 10
54.5072165303
 20
3.2412567649
 11
54.5072165303
 21
4.2912567649
  0
LINE
  5
653
100
AcDbEntity
  8
ASSI
100
AcDbLine
 62
253
  6
CONTINUOUS
 10
54.5106476528
 20
-1.5087432351
 11
54.5106476528
 21
-0.4587432351
  0
LINE
  5
654
100
AcDbEntity
  8
ASSI
100
AcDbLine
 62
253
  6
CONTINUOUS
 10
54.5106476528
 20
3.2412567649
 11
54.5106476528
 21
4.2912567649
  0
LINE
  5
655
100
AcDbEntity
  8
ASSI
100
AcDbLine
 62
253
  6
CONTINUOUS
 10
54.6105867355
 20
4.2895721757
 11
54.6105867355
 21
3.2888040792
  0
LINE
  5
656
100
AcDbEntity
  8
ASSI
100
AcDbLine
 62
7
  6
CONTINUOUS
 10
54.6105867355
 20
3.2888040792
 11
54.6105867355
 21
3.2292845852
  0
LINE
  5
657
100
AcDbEntity
  8
ASSI
100
AcDbLine
 62
7
  6
CONTINUOUS
 10
54.6105867355
 20
-0.4467710548
 11
54.6105867355
 21
-0.5062905494
  0
LINE
  5
658
100
AcDbEntity
  8
ASSI
100
AcDbLine
 62
253
  6
CONTINUOUS
 10
54.6105867355
 20
-0.5062905494
 11
54.6105867355
 21
-1.5070586459
  0
LINE
  5
659
100
AcDbEntity
  8
RACCORDO
100
AcDbLine
 62
253
  6
CONTINUOUS
 10
54.6768357849
 20
3.5656350794
 11
54.6768357849
 21
-0.7831215496
  0
LINE
  5
65A
100
AcDbEntity
  8
RACCORDO
100
AcDbLine
 62
253
  6
CONTINUOUS
 10
54.735292594
 20
3.4342428801
 11
54.735292594
 21
-0.6517293503
  0
LINE
  5
65B
100
AcDbEntity
  8
RACCORDO
100
AcDbLine
 62
253
  6
CONTINUOUS
 10
55.0486378866
 20
3.0471437663
 11
55.0486378866
 21
-0.2646302365
  0
LINE
  5
65C
100
AcDbEntity
  8
RACCORDO
100
AcDbLine
 62
253
  6
CONTINUOUS
 10
55.1900592428
 20
2.8987381081
 11
55.1900592428
 21
-0.1162245783
  0
LINE
  5
65D
100
AcDbEntity
  8
RACCORDO
100
AcDbLine
 62
253
  6
CONTINUOUS
 10
55.3670394154
 20
-0.1162245783
 11
55.3670394154
 21
2.8987381081
  0
LINE
  5
65E
100
AcDbEntity
  8
RACCORDO
100
AcDbLine
 62
253
  6
CONTINUOUS
 10
55.5670089544
 20
-0.2893603562
 11
55.5670089544
 21
3.0718696749
  0
LINE
  5
65F
100
AcDbEntity
  8
RACCORDO
100
AcDbLine
 62
7
  6
CONTINUOUS
 10
55.6108495254
 20
-1.4049428777
 11
55.6108495254
 21
-0.5128179815
  0
LINE
  5
660
100
AcDbEntity
  8
RACCORDO
100
AcDbLine
 62
7
  6
CONTINUOUS
 10
55.6108495254
 20
3.2953315113
 11
55.6108495254
 21
4.187456282
  0
LINE
  5
661
100
AcDbEntity
  8
RACCORDO
100
AcDbLine
 62
7
  6
CONTINUOUS
 10
55.5776063512
 20
0.610027474
 11
55.57755916
 21
2.1425881458
  0
LINE
  5
662
100
AcDbEntity
  8
RACCORDO
100
AcDbLine
 62
7
  6
CONTINUOUS
 10
54.4795584478
 20
0.6142927202
 11
54.4793593343
 21
2.0817645805
  0
LINE
  5
663
100
AcDbEntity
  8
ASSI
100
AcDbLine
 62
7
  6
CONTINUOUS
 10
54.4795584478
 20
0.6142927202
 11
54.4793593343
 21
2.0817645805
  0
LINE
  5
664
100
AcDbEntity
  8
RACCORDO
100
AcDbLine
 62
7
  6
CONTINUOUS
 10
54.6665818385
 20
2.11236702
 11
54.6664549533
 21
0.6100305386
  0
LINE
  5
665
100
AcDbEntity
  8
RACCORDO
100
AcDbLine
 62
7
  6
CONTINUOUS
 10
54.464042702
 20
2.8662480192
 11
54.463578868
 21
0.1452631855
  0
LINE
  5
666
100
AcDbEntity
  8
ASSI
100
AcDbLine
 62
7
  6
CONTINUOUS
 10
54.464042702
 20
2.8662480192
 11
54.463578868
 21
0.1452631855
  0
LINE
  5
667
100
AcDbEntity
  8
RACCORDO
100
AcDbLine
 62
7
  6
CONTINUOUS
 10
55.57755916
 20
2.1425881458
 11
55.5779346404
 21
2.2604490087
  0
LINE
  5
668
100
AcDbEntity
  8
RACCORDO
100
AcDbLine
 62
7
  6
CONTINUOUS
 10
54.4793593343
 20
2.0817645805
 11
54.4803457263
 21
2.3358301698
  0
LINE
  5
669
100
AcDbEntity
  8
ASSI
100
AcDbLine
 62
7
  6
CONTINUOUS
 10
54.4793593343
 20
2.0817645805
 11
54.4803457263
 21
2.3358301698
  0
LINE
  5
66A
100
AcDbEntity
  8
RACCORDO
100
AcDbLine
 62
7
  6
CONTINUOUS
 10
54.6664549533
 20
0.6100305386
 11
54.6660793831
 21
0.5511017476
  0
LINE
  5
66B
100
AcDbEntity
  8
RACCORDO
100
AcDbLine
 62
7
  6
CONTINUOUS
 10
54.4654095864
 20
3.0830792215
 11
54.464042702
 21
2.8662480192
  0
LINE
  5
66C
100
AcDbEntity
  8
ASSI
100
AcDbLine
 62
7
  6
CONTINUOUS
 10
54.4654095864
 20
3.0830792215
 11
54.464042702
 21
2.8662480192
  0
LINE
  5
66D
100
AcDbEntity
  8
RACCORDO
100
AcDbLine
 62
7
  6
CONTINUOUS
 10
55.5779346404
 20
2.2604490087
 11
55.5787897103
 21
2.3699063968
  0
LINE
  5
66E
100
AcDbEntity
  8
RACCORDO
100
AcDbLine
 62
7
  6
CONTINUOUS
 10
54.4803457263
 20
2.3358301698
 11
54.4824504932
 21
2.5672492442
  0
LINE
  5
66F
100
AcDbEntity
  8
ASSI
100
AcDbLine
 62
7
  6
CONTINUOUS
 10
54.4803457263
 20
2.3358301698
 11
54.4824504932
 21
2.5672492442
  0
LINE
  5
670
100
AcDbEntity
  8
RACCORDO
100
AcDbLine
 62
7
  6
CONTINUOUS
 10
54.6660793831
 20
0.5511017476
 11
54.6654581418
 21
0.4936726916
  0
LINE
  5
671
100
AcDbEntity
  8
RACCORDO
100
AcDbLine
 62
7
  6
CONTINUOUS
 10
54.4676069599
 20
3.2762214107
 11
54.4654095864
 21
3.0830792215
  0
LINE
  5
672
100
AcDbEntity
  8
ASSI
100
AcDbLine
 62
7
  6
CONTINUOUS
 10
54.4676069599
 20
3.2762214107
 11
54.4654095864
 21
3.0830792215
  0
LINE
  5
673
100
AcDbEntity
  8
RACCORDO
100
AcDbLine
 62
7
  6
CONTINUOUS
 10
55.5787897103
 20
2.3699063968
 11
55.582058302
 21
2.6292261496
  0
LINE
  5
674
100
AcDbEntity
  8
RACCORDO
100
AcDbLine
 62
7
  6
CONTINUOUS
 10
54.4824504932
 20
2.5672492442
 11
54.4844222691
 21
2.7016655867
  0
LINE
  5
675
100
AcDbEntity
  8
ASSI
100
AcDbLine
 62
7
  6
CONTINUOUS
 10
54.4824504932
 20
2.5672492442
 11
54.4844222691
 21
2.7016655867
  0
LWPOLYLINE
  5
676
100
AcDbEntity
  8
RACCORDO
100
AcDbPolyline
 62
7
  6
CONTINUOUS
 90
3
 70
0
 10
54.6654581418
 20
0.4936726916
 10
54.6646032853
 20
0.4389935898
 10
54.6640874978
 20
0.412607133
  0
LINE
  5
677
100
AcDbEntity
  8
RACCORDO
100
AcDbLine
 62
253
  6
CONTINUOUS
 10
55.4726879279
 20
3.5157694286
 11
55.4670243138
 21
3.1308423806
  0
LINE
  5
678
100
AcDbEntity
  8
RACCORDO
100
AcDbLine
 62
253
  6
CONTINUOUS
 10
55.5726712292
 20
3.4436271507
 11
55.5670089544
 21
3.0718696749
  0
LINE
  5
679
100
AcDbEntity
  8
RACCORDO
100
AcDbLine
 62
7
  6
CONTINUOUS
 10
55.582058302
 20
2.6292261496
 11
55.5849866125
 21
2.801233146
  0
LINE
  5
67A
100
AcDbEntity
  8
RACCORDO
100
AcDbLine
 62
7
  6
CONTINUOUS
 10
54.4732701009
 20
3.6094301724
 11
54.4676069599
 21
3.2762214107
  0
LINE
  5
67B
100
AcDbEntity
  8
ASSI
100
AcDbLine
 62
7
  6
CONTINUOUS
 10
54.4732701009
 20
3.6094301724
 11
54.4676069599
 21
3.2762214107
  0
LINE
  5
67C
100
AcDbEntity
  8
RACCORDO
100
AcDbLine
 62
7
  6
CONTINUOUS
 10
54.4871212546
 20
2.8393955711
 11
54.4844222691
 21
2.7016655867
  0
LINE
  5
67D
100
AcDbEntity
  8
ASSI
100
AcDbLine
 62
7
  6
CONTINUOUS
 10
54.4871212546
 20
2.8393955711
 11
54.4844222691
 21
2.7016655867
  0
LINE
  5
67E
100
AcDbEntity
  8
RACCORDO
100
AcDbLine
 62
253
  6
CONTINUOUS
 10
55.4772211133
 20
3.7453645963
 11
55.4726879279
 21
3.5157694286
  0
LINE
  5
67F
100
AcDbEntity
  8
RACCORDO
100
AcDbLine
 62
253
  6
CONTINUOUS
 10
55.5772030504
 20
3.6654416213
 11
55.5726712292
 21
3.4436271507
  0
LINE
  5
680
100
AcDbEntity
  8
RACCORDO
100
AcDbLine
 62
7
  6
CONTINUOUS
 10
54.4775336435
 20
3.8017554074
 11
54.4732701009
 21
3.6094301724
  0
LINE
  5
681
100
AcDbEntity
  8
ASSI
100
AcDbLine
 62
7
  6
CONTINUOUS
 10
54.4775336435
 20
3.8017554074
 11
54.4732701009
 21
3.6094301724
  0
LINE
  5
682
100
AcDbEntity
  8
RACCORDO
100
AcDbLine
 62
7
  6
CONTINUOUS
 10
55.5849866125
 20
2.801233146
 11
55.5882701966
 21
2.9506788914
  0
LINE
  5
683
100
AcDbEntity
  8
RACCORDO
100
AcDbLine
 62
253
  6
CONTINUOUS
 10
55.4806059046
 20
3.8842916
 11
55.4772211133
 21
3.7453645963
  0
LINE
  5
684
100
AcDbEntity
  8
ASSI
100
AcDbLine
 62
7
  6
CONTINUOUS
 10
54.6640874978
 20
0.412607133
 11
54.6591616332
 21
0.209174021
  0
LINE
  5
685
100
AcDbEntity
  8
RACCORDO
100
AcDbLine
 62
7
  6
CONTINUOUS
 10
54.4900710656
 20
2.958949135
 11
54.4871212546
 21
2.8393955711
  0
LINE
  5
686
100
AcDbEntity
  8
ASSI
100
AcDbLine
 62
7
  6
CONTINUOUS
 10
54.4900710656
 20
2.958949135
 11
54.4871212546
 21
2.8393955711
  0
LINE
  5
687
100
AcDbEntity
  8
RACCORDO
100
AcDbLine
 62
253
  6
CONTINUOUS
 10
55.5805896227
 20
3.7997437843
 11
55.5772030504
 21
3.6654416213
  0
LINE
  5
688
100
AcDbEntity
  8
RACCORDO
100
AcDbLine
 62
7
  6
CONTINUOUS
 10
55.5882701966
 20
2.9506788914
 11
55.5906316708
 21
3.0366207487
  0
LINE
  5
689
100
AcDbEntity
  8
RACCORDO
100
AcDbLine
 62
253
  6
CONTINUOUS
 10
55.4841692041
 20
4.0060365361
 11
55.4806059046
 21
3.8842916
  0
LINE
  5
68A
100
AcDbEntity
  8
RACCORDO
100
AcDbLine
 62
7
  6
CONTINUOUS
 10
54.4921594396
 20
3.0278284911
 11
54.4900710656
 21
2.958949135
  0
LINE
  5
68B
100
AcDbEntity
  8
ASSI
100
AcDbLine
 62
7
  6
CONTINUOUS
 10
54.4921594396
 20
3.0278284911
 11
54.4900710656
 21
2.958949135
  0
LINE
  5
68C
100
AcDbEntity
  8
RACCORDO
100
AcDbLine
 62
253
  6
CONTINUOUS
 10
55.5841554611
 20
3.9174444151
 11
55.5805896227
 21
3.7997437843
  0
LWPOLYLINE
  5
68D
100
AcDbEntity
  8
ASSI
100
AcDbPolyline
 62
7
  6
CONTINUOUS
 90
13
 70
0
 10
54.6591616332
 20
0.209174021
 10
54.6533756047
 20
0.026522503
 10
54.6501582416
 20
-0.0570592496
 10
54.6467723072
 20
-0.1341692276
 10
54.6432162216
 20
-0.2046899766
 10
54.6394915648
 20
-0.268738951
 10
54.6356459714
 20
-0.3254903197
 10
54.63167833
 20
-0.3748468279
 10
54.627589752
 20
-0.4169057304
 10
54.6234312066
 20
-0.4511329605
 10
54.6192196836
 20
-0.4773504959
 10
54.6149381933
 20
-0.4957363589
 10
54.6105867355
 20
-0.5062905494
  0
LWPOLYLINE
  5
68E
100
AcDbEntity
  8
RACCORDO
100
AcDbPolyline
 62
7
  6
CONTINUOUS
 90
12
 70
0
 10
55.5906316708
 20
3.0366207487
 10
55.5931113746
 20
3.1108401047
 10
55.5943887903
 20
3.1433757434
 10
55.5956891573
 20
3.1727824116
 10
55.5970123479
 20
3.1990764794
 10
55.5983513234
 20
3.2221173353
 10
55.5997061396
 20
3.2418876054
 10
55.6010767407
 20
3.2584046635
 10
55.6024559207
 20
3.2715800196
 10
55.6038412775
 20
3.281384177
 10
55.6052352132
 20
3.2878466324
 10
55.6066377278
 20
3.2909673857
  0
LINE
  5
68F
100
AcDbEntity
  8
RACCORDO
100
AcDbLine
 62
253
  6
CONTINUOUS
 10
55.4867171274
 20
4.0795418772
 11
55.4841692041
 21
4.0060365361
  0
LINE
  5
690
100
AcDbEntity
  8
RACCORDO
100
AcDbLine
 62
253
  6
CONTINUOUS
 10
55.5867031673
 20
3.9884299353
 11
55.5841554611
 21
3.9174444151
  0
LWPOLYLINE
  5
691
100
AcDbEntity
  8
RACCORDO
100
AcDbPolyline
 62
7
  6
CONTINUOUS
 90
10
 70
0
 10
54.6768357849
 20
-0.7831215496
 10
54.6723055811
 20
-0.8952456518
 10
54.6675858708
 20
-0.9991208607
 10
54.6626766538
 20
-1.0947471761
 10
54.6575583453
 20
-1.1824247616
 10
54.6522505301
 20
-1.2618534536
 10
54.6468119632
 20
-1.3321327618
 10
54.6412622296
 20
-1.3929625228
 10
54.6355817443
 20
-1.4446428999
 10
54.6297705074
 20
-1.4871738931
  0
LWPOLYLINE
  5
692
100
AcDbEntity
  8
RACCORDO
100
AcDbPolyline
 62
7
  6
CONTINUOUS
 90
7
 70
0
 10
54.4947067371
 20
4.2528755011
 10
54.4920858788
 20
4.2110035475
 10
54.4895189344
 20
4.1615547194
 10
54.487005904
 20
4.1045290167
 10
54.484539003
 20
4.0396979308
 10
54.482126016
 20
3.9672899702
 10
54.4775336435
 20
3.8017554074
  0
LWPOLYLINE
  5
693
100
AcDbEntity
  8
ASSI
100
AcDbPolyline
 62
7
  6
CONTINUOUS
 90
7
 70
0
 10
54.4947067371
 20
4.2528755011
 10
54.4920858788
 20
4.2110035475
 10
54.4895189344
 20
4.1615547194
 10
54.487005904
 20
4.1045290167
 10
54.484539003
 20
4.0396979308
 10
54.482126016
 20
3.9672899702
 10
54.4775336435
 20
3.8017554074
  0
LWPOLYLINE
  5
694
100
AcDbEntity
  8
RACCORDO
100
AcDbPolyline
 62
253
  6
CONTINUOUS
 90
7
 70
0
 10
55.4965419542
 20
4.2731150167
 10
55.4948660545
 20
4.2491510186
 10
55.4934475659
 20
4.2262891815
 10
55.4920543554
 20
4.2011871283
 10
55.4906885237
 20
4.1739942435
 10
55.4893479699
 20
4.144744966
 10
55.4867171274
 20
4.0795418772
  0
LWPOLYLINE
  5
695
100
AcDbEntity
  8
RACCORDO
100
AcDbPolyline
 62
253
  6
CONTINUOUS
 90
7
 70
0
 10
55.5962946687
 20
4.1721135023
 10
55.5948517391
 20
4.1521497294
 10
55.5934338219
 20
4.1301013239
 10
55.5920409171
 20
4.1059682856
 10
55.5906749984
 20
4.079748702
 10
55.5893340921
 20
4.0514444856
 10
55.5867031673
 20
3.9884299353
  0
LINE
  5
696
100
AcDbEntity
  8
RACCORDO
100
AcDbLine
 62
253
  6
CONTINUOUS
 10
55.6091829287
 20
-1.4225823556
 11
55.6106972205
 21
-1.4052168488
  0
LWPOLYLINE
  5
697
100
AcDbEntity
  8
RACCORDO
100
AcDbPolyline
 62
253
  6
CONTINUOUS
 90
10
 70
0
 10
55.5977014329
 20
-1.3992433681
 10
55.5961777398
 20
-1.4166022096
 10
55.5916635139
 20
-1.4334338154
 10
55.5842958646
 20
-1.4492269636
 10
55.5742985676
 20
-1.463501973
 10
55.5619752682
 20
-1.4758252724
 10
55.5477002588
 20
-1.4858225694
 10
55.5319071106
 20
-1.4931902187
 10
55.5150755048
 20
-1.4977044446
 10
55.4977166633
 20
-1.4992281376
  0
LWPOLYLINE
  5
698
100
AcDbEntity
  8
RACCORDO
100
AcDbPolyline
 62
253
  6
CONTINUOUS
 90
10
 70
0
 10
55.5962946687
 20
-1.3895999725
 10
55.59471657
 20
-1.4065025368
 10
55.5901629972
 20
-1.4228939714
 10
55.5827716345
 20
-1.4382786565
 10
55.5727659709
 20
-1.4521914129
 10
55.5604485427
 20
-1.4642115676
 10
55.5461917861
 20
-1.4739756728
 10
55.5304267755
 20
-1.4811884962
 10
55.5136301898
 20
-1.4856319472
 10
55.4963098992
 20
-1.4871716712
  0
LWPOLYLINE
  5
699
100
AcDbEntity
  8
RACCORDO
100
AcDbPolyline
 62
7
  6
CONTINUOUS
 90
10
 70
0
 10
54.6297705074
 20
-1.4871738931
 10
54.6293844562
 20
-1.489523193
 10
54.6289970449
 20
-1.4916205269
 10
54.6286082735
 20
-1.4934658948
 10
54.6282179405
 20
-1.4950599885
 10
54.6278262474
 20
-1.4964021163
 10
54.6274337988
 20
-1.4974902026
 10
54.6270407963
 20
-1.4983235557
 10
54.6266470384
 20
-1.4989028674
 10
54.6262525251
 20
-1.4992281376
  0
LWPOLYLINE
  5
69A
100
AcDbEntity
  8
RACCORDO
100
AcDbPolyline
 62
253
  6
CONTINUOUS
 90
10
 70
0
 10
55.5670089562
 20
-0.2893587878
 10
55.5652744777
 20
-0.2995085783
 10
55.5606079584
 20
-0.3093554971
 10
55.5531486397
 20
-0.3186056839
 10
55.5431049928
 20
-0.3269929633
 10
55.5307851475
 20
-0.3342543277
 10
55.5166143621
 20
-0.3401529743
 10
55.5010528787
 20
-0.3445252475
 10
55.4845553268
 20
-0.3472686064
 10
55.4676115664
 20
-0.3483218005
  0
LWPOLYLINE
  5
69B
100
AcDbEntity
  8
RACCORDO
100
AcDbPolyline
 62
7
  6
CONTINUOUS
 90
3
 70
0
 10
55.6062847559
 20
-1.4348031274
 10
55.6100469864
 20
-1.4174750713
 10
55.6108329458
 20
-1.4049476549
  0
LINE
  5
69C
100
AcDbEntity
  8
RACCORDO
100
AcDbLine
 62
253
  6
CONTINUOUS
 10
55.6046755037
 20
-1.439420016
 11
55.6091829287
 21
-1.4225823556
  0
LINE
  5
69D
100
AcDbEntity
  8
RACCORDO
100
AcDbLine
 62
7
  6
CONTINUOUS
 10
55.6108298661
 20
3.295331511
 11
55.6106972205
 21
3.2950268784
  0
LINE
  5
69E
100
AcDbEntity
  8
RACCORDO
100
AcDbLine
 62
253
  6
CONTINUOUS
 10
55.5973119543
 20
-1.4552180281
 11
55.6046755037
 21
-1.439420016
  0
LINE
  5
69F
100
AcDbEntity
  8
RACCORDO
100
AcDbLine
 62
253
  6
CONTINUOUS
 10
55.6108495086
 20
-1.404943435
 11
55.6106972205
 21
-1.4052168488
  0
LINE
  5
6A0
100
AcDbEntity
  8
RACCORDO
100
AcDbLine
 62
253
  6
CONTINUOUS
 10
55.5948070561
 20
-1.4587960478
 11
55.5973119543
 21
-1.4552180281
  0
LWPOLYLINE
  5
6A1
100
AcDbEntity
  8
RACCORDO
100
AcDbPolyline
 62
7
  6
CONTINUOUS
 90
3
 70
0
 10
55.59857582
 20
4.2355136056
 10
55.589331598
 20
4.2495242399
 10
55.5811717959
 20
4.2586822194
  0
LINE
  5
6A2
100
AcDbEntity
  8
RACCORDO
100
AcDbLine
 62
253
  6
CONTINUOUS
 10
55.6106972205
 20
4.1877303786
 11
55.6108495202
 21
4.1874555434
  0
LINE
  5
6A3
100
AcDbEntity
  8
RACCORDO
100
AcDbLine
 62
253
  6
CONTINUOUS
 10
55.5973110808
 20
4.2377330713
 11
55.6046750497
 21
4.2219347939
  0
LWPOLYLINE
  5
6A4
100
AcDbEntity
  8
ASSI
100
AcDbPolyline
 62
7
  6
CONTINUOUS
 90
12
 70
0
 10
54.6105867355
 20
3.2888040792
 10
54.6149381887
 20
3.2782499131
 10
54.6192196755
 20
3.2598640759
 10
54.6234311959
 20
3.2336465677
 10
54.6275897398
 20
3.1994193697
 10
54.6316783174
 20
3.1573605006
 10
54.635645959
 20
3.1080040172
 10
54.6394915533
 20
3.0512526617
 10
54.6432162116
 20
2.9872036918
 10
54.6467722987
 20
2.9166829373
 10
54.6501582348
 20
2.8395729412
 10
54.6533755998
 20
2.7559911605
  0
LINE
  5
6A5
100
AcDbEntity
  8
RACCORDO
100
AcDbLine
 62
253
  6
CONTINUOUS
 10
55.6046750497
 20
4.2219347939
 11
55.6091827995
 21
4.2050966198
  0
LWPOLYLINE
  5
6A6
100
AcDbEntity
  8
RACCORDO
100
AcDbPolyline
 62
7
  6
CONTINUOUS
 90
10
 70
0
 10
54.6297705074
 20
4.2696874229
 10
54.6355817818
 20
4.2271559906
 10
54.6412622903
 20
4.175475337
 10
54.6468120328
 20
4.1146454622
 10
54.6522505877
 20
4.0443662731
 10
54.6575583768
 20
3.9649378627
 10
54.6626766645
 20
3.8772605102
 10
54.6675858726
 20
3.7816343087
 10
54.6723055794
 20
3.6777591651
 10
54.6768357849
 20
3.5656350794
  0
LWPOLYLINE
  5
6A7
100
AcDbEntity
  8
RACCORDO
100
AcDbPolyline
 62
253
  6
CONTINUOUS
 90
15
 70
0
 10
-25.3121457986
 20
-0.9888717676
 10
-25.2607502507
 20
-0.9803221345
 10
-25.2105181842
 20
-0.9664771681
 10
-25.1619878778
 20
-0.9474829831
 10
-25.1156914667
 20
-0.9235449213
 10
-25.0721467722
 20
-0.8949301214
 10
-25.0318272686
 20
-0.8619545045
 10
-24.9951630284
 20
-0.8249753767
 10
-24.9625518162
 20
-0.7843965164
 10
-24.9343456465
 20
-0.7406625152
 10
-24.9108439778
 20
-0.6942460878
 10
-24.892296644
 20
-0.6456424678
 10
-24.8789034976
 20
-0.5953748792
 10
-24.8708094573
 20
-0.5439902542
 10
-24.8681015342
 20
-0.4920447944
  0
LWPOLYLINE
  5
6A8
100
AcDbEntity
  8
ASSI
100
AcDbPolyline
 62
253
  6
CONTINUOUS
 90
15
 70
0
 10
-25.3121457986
 20
-0.9888717676
 10
-25.2607502507
 20
-0.9803221345
 10
-25.2105181842
 20
-0.9664771681
 10
-25.1619878778
 20
-0.9474829831
 10
-25.1156914667
 20
-0.9235449213
 10
-25.0721467722
 20
-0.8949301214
 10
-25.0318272686
 20
-0.8619545045
 10
-24.9951630284
 20
-0.8249753767
 10
-24.9625518162
 20
-0.7843965164
 10
-24.9343456465
 20
-0.7406625152
 10
-24.9108439778
 20
-0.6942460878
 10
-24.892296644
 20
-0.6456424678
 10
-24.8789034976
 20
-0.5953748792
 10
-24.8708094573
 20
-0.5439902542
 10
-24.8681015342
 20
-0.4920447944
  0
LINE
  5
6A9
100
AcDbEntity
  8
RACCORDO
100
AcDbLine
 62
7
  6
CONTINUOUS
 10
-27.2786864048
 20
-2.3287432351
 11
-22.668214961
 21
-2.2482671567
  0
LINE
  5
6AA
100
AcDbEntity
  8
RACCORDO
100
AcDbLine
 62
7
  6
CONTINUOUS
 10
-22.5243231371
 20
-2.3172525354
 11
-27.2786864048
 21
-2.3587432351
  0
LINE
  5
6AB
100
AcDbEntity
  8
ASSI
100
AcDbLine
 62
7
  6
CONTINUOUS
 10
-22.5243231371
 20
-2.3172525354
 11
-27.2786864048
 21
-2.3587432351
  0
LINE
  5
6AC
100
AcDbEntity
  8
RACCORDO
100
AcDbLine
 62
7
  6
CONTINUOUS
 10
-27.2786864048
 20
-2.3587432351
 11
-28.2786864048
 21
-2.3500163673
  0
LINE
  5
6AD
100
AcDbEntity
  8
ASSI
100
AcDbLine
 62
7
  6
CONTINUOUS
 10
-27.2786864048
 20
-2.3587432351
 11
-28.2786864048
 21
-2.3500163673
  0
LINE
  5
6AE
100
AcDbEntity
  8
DRAFT
100
AcDbLine
 62
7
  6
CONTINUOUS
 10
-25.7786864048
 20
-2.4111243893
 11
-27.2786864048
 21
-2.3587432351
  0
LINE
  5
6AF
100
AcDbEntity
  8
RACCORDO
100
AcDbLine
 62
7
  6
CONTINUOUS
 10
-27.2786864048
 20
-2.3587432351
 11
-29.0461361532
 21
-2.2970225298
  0
LWPOLYLINE
  5
6B0
100
AcDbEntity
  8
RACCORDO
100
AcDbPolyline
 62
253
  6
CONTINUOUS
 90
16
 70
0
 10
-25.3624033686
 20
-0.7920429317
 10
-25.3306981054
 20
-0.790026693
 10
-25.2999753366
 20
-0.7849300641
 10
-25.2702350621
 20
-0.7767530447
 10
-25.2411614998
 20
-0.7653384908
 10
-25.2130704318
 20
-0.7508435465
 10
-25.1869092049
 20
-0.7337396447
 10
-25.1627574774
 20
-0.7139431761
 10
-25.140535591
 20
-0.69153775
 10
-25.120951918
 20
-0.6672456268
 10
-25.1040919213
 20
-0.6409842997
 10
-25.089870138
 20
-0.6128362755
 10
-25.0787385518
 20
-0.5837713348
 10
-25.070847824
 20
-0.5541127378
 10
-25.0660472934
 20
-0.5235372243
 10
-25.0643369599
 20
-0.4920447944
  0
LWPOLYLINE
  5
6B1
100
AcDbEntity
  8
ASSI
100
AcDbPolyline
 62
253
  6
CONTINUOUS
 90
16
 70
0
 10
-25.3624033686
 20
-0.7920429317
 10
-25.3306981054
 20
-0.790026693
 10
-25.2999753366
 20
-0.7849300641
 10
-25.2702350621
 20
-0.7767530447
 10
-25.2411614998
 20
-0.7653384908
 10
-25.2130704318
 20
-0.7508435465
 10
-25.1869092049
 20
-0.7337396447
 10
-25.1627574774
 20
-0.7139431761
 10
-25.140535591
 20
-0.69153775
 10
-25.120951918
 20
-0.6672456268
 10
-25.1040919213
 20
-0.6409842997
 10
-25.089870138
 20
-0.6128362755
 10
-25.0787385518
 20
-0.5837713348
 10
-25.070847824
 20
-0.5541127378
 10
-25.0660472934
 20
-0.5235372243
 10
-25.0643369599
 20
-0.4920447944
  0
LINE
  5
6B2
100
AcDbEntity
  8
RACCORDO
100
AcDbLine
 62
253
  6
CONTINUOUS
 10
-25.3641485427
 20
-0.9920353163
 11
-25.3121457986
 21
-0.9888717676
  0
LINE
  5
6B3
100
AcDbEntity
  8
ASSI
100
AcDbLine
 62
253
  6
CONTINUOUS
 10
-25.3641485427
 20
-0.9920353163
 11
-25.3121457986
 21
-0.9888717676
  0
LINE
  5
6B4
100
AcDbEntity
  8
RACCORDO
100
AcDbLine
 62
7
  6
CONTINUOUS
 10
-25.1103688202
 20
-1.0761259739
 11
-29.5286864048
 21
-1.3076801867
  0
LINE
  5
6B5
100
AcDbEntity
  8
RACCORDO
100
AcDbLine
 62
253
  6
CONTINUOUS
 10
-27.2786864048
 20
-1.728834618
 11
-22.668214961
 21
-1.6483585396
  0
LINE
  5
6B6
100
AcDbEntity
  8
RACCORDO
100
AcDbLine
 62
253
  6
CONTINUOUS
 10
-22.0286864048
 20
-1.8172715739
 11
-22.1035675726
 21
-1.8172715492
  0
LINE
  5
6B7
100
AcDbEntity
  8
ASSI
100
AcDbLine
 62
253
  6
CONTINUOUS
 10
-22.0286864048
 20
-1.8172715739
 11
-22.1035675726
 21
-1.8172715492
  0
LINE
  5
6B8
100
AcDbEntity
  8
RACCORDO
100
AcDbLine
 62
253
  6
CONTINUOUS
 10
-29.5286864048
 20
-1.6973880336
 11
-29.0461361532
 21
-1.6973880336
  0
LINE
  5
6B9
100
AcDbEntity
  8
RACCORDO
100
AcDbLine
 62
253
  6
CONTINUOUS
 10
-22.668214961
 20
-1.6483585396
 11
-22.0786864048
 21
-1.6483585396
  0
LINE
  5
6BA
100
AcDbEntity
  8
RACCORDO
100
AcDbLine
 62
253
  6
CONTINUOUS
 10
-27.2786864048
 20
-1.7591087389
 11
-29.0461361532
 21
-1.6973880336
  0
LINE
  5
6BB
100
AcDbEntity
  8
RACCORDO
100
AcDbLine
 62
7
  6
CONTINUOUS
 10
-25.3112201429
 20
-0.9915734171
 11
-27.2786864048
 21
-1.0087432351
  0
LINE
  5
6BC
100
AcDbEntity
  8
ASSI
100
AcDbLine
 62
7
  6
CONTINUOUS
 10
-25.3112201429
 20
-0.9915734171
 11
-27.2786864048
 21
-1.0087432351
  0
LINE
  5
6BD
100
AcDbEntity
  8
RACCORDO
100
AcDbLine
 62
253
  6
CONTINUOUS
 10
-25.9069906079
 20
-0.7967954725
 11
-25.3624033686
 21
-0.7920429317
  0
LINE
  5
6BE
100
AcDbEntity
  8
ASSI
100
AcDbLine
 62
253
  6
CONTINUOUS
 10
-25.9069906079
 20
-0.7967954725
 11
-25.3624033686
 21
-0.7920429317
  0
LINE
  5
6BF
100
AcDbEntity
  8
RACCORDO
100
AcDbLine
 62
253
  6
CONTINUOUS
 10
-24.8681015342
 20
-0.4920447944
 11
-24.8146701377
 21
-0.4915785057
  0
LINE
  5
6C0
100
AcDbEntity
  8
ASSI
100
AcDbLine
 62
253
  6
CONTINUOUS
 10
-24.8681015342
 20
-0.4920447944
 11
-24.8146701377
 21
-0.4915785057
  0
LINE
  5
6C1
100
AcDbEntity
  8
RACCORDO
100
AcDbLine
 62
253
  6
CONTINUOUS
 10
-25.0643369599
 20
-0.4920447944
 11
-24.8681015342
 21
-0.4920447944
  0
LINE
  5
6C2
100
AcDbEntity
  8
ASSI
100
AcDbLine
 62
253
  6
CONTINUOUS
 10
-25.0643369599
 20
-0.4920447944
 11
-24.8681015342
 21
-0.4920447944
  0
LINE
  5
6C3
100
AcDbEntity
  8
RACCORDO
100
AcDbLine
 62
7
  6
CONTINUOUS
 10
-27.2786864048
 20
-1.0087432351
 11
-27.7077237626
 21
-1.0049990828
  0
LINE
  5
6C4
100
AcDbEntity
  8
ASSI
100
AcDbLine
 62
7
  6
CONTINUOUS
 10
-27.2786864048
 20
-1.0087432351
 11
-27.7077237626
 21
-1.0049990828
  0
LINE
  5
6C5
100
AcDbEntity
  8
DRAFT
100
AcDbLine
 62
7
  6
CONTINUOUS
 10
-28.4577500413
 20
-1.1381626028
 11
-28.5286864048
 21
-1.1369244039
  0
LINE
  5
6C6
100
AcDbEntity
  8
RACCORDO
100
AcDbLine
 62
253
  6
CONTINUOUS
 10
-29.5286864048
 20
-0.0553588401
 11
-29.7251959236
 21
-0.0553588401
  0
LINE
  5
6C7
100
AcDbEntity
  8
RACCORDO
100
AcDbLine
 62
253
  6
CONTINUOUS
 10
-30.2339221268
 20
-0.0464789912
 11
-30.5286864048
 21
-0.0464789912
  0
LINE
  5
6C8
100
AcDbEntity
  8
RACCORDO
100
AcDbLine
 62
7
  6
CONTINUOUS
 10
-30.2339221268
 20
-0.3464332998
 11
-29.7251959236
 21
-0.3553131487
  0
LINE
  5
6C9
100
AcDbEntity
  8
RACCORDO
100
AcDbLine
 62
7
  6
CONTINUOUS
 10
-24.8146701377
 20
-0.3255702016
 11
-25.5419547348
 21
-0.3128754018
  0
LINE
  5
6CA
100
AcDbEntity
  8
ASSI
100
AcDbLine
 62
7
  6
CONTINUOUS
 10
-24.8146701377
 20
-0.3255702016
 11
-25.5419547348
 21
-0.3128754018
  0
LINE
  5
6CB
100
AcDbEntity
  8
RACCORDO
100
AcDbLine
 62
253
  6
CONTINUOUS
 10
-30.2339221268
 20
-0.0464789912
 11
-29.7251959236
 21
-0.0554364703
  0
LINE
  5
6CC
100
AcDbEntity
  8
RACCORDO
100
AcDbLine
 62
7
  6
CONTINUOUS
 10
-27.3955805105
 20
1.1867315452
 11
-26.58215009
 21
1.2293616271
  0
LINE
  5
6CD
100
AcDbEntity
  8
RACCORDO
100
AcDbLine
 62
7
  6
CONTINUOUS
 10
-27.8209387718
 20
2.0780740665
 11
-27.6504578956
 21
2.0691395424
  0
LINE
  5
6CE
100
AcDbEntity
  8
RACCORDO
100
AcDbLine
 62
7
  6
CONTINUOUS
 10
-26.3433899371
 20
2.0006390133
 11
-26.1753203138
 21
1.9918308576
  0
LWPOLYLINE
  5
6CF
100
AcDbEntity
  8
RACCORDO
100
AcDbPolyline
 62
253
  6
CONTINUOUS
 90
10
 70
0
 10
-29.0461361532
 20
-2.2970225298
 10
-29.0475854116
 20
-2.2946908443
 10
-29.0488944607
 20
-2.287819261
 10
-29.0500513755
 20
-2.2764601024
 10
-29.0510443943
 20
-2.2606998369
 10
-29.0518657109
 20
-2.2406582627
 10
-29.0525115416
 20
-2.2164875694
 10
-29.0529766174
 20
-2.1883714465
 10
-29.0532560783
 20
-2.1565235973
 10
-29.0533492154
 20
-2.1211859142
  0
LINE
  5
6D0
100
AcDbEntity
  8
RACCORDO
100
AcDbLine
 62
7
  6
CONTINUOUS
 10
-30.5286864048
 20
-0.0464789912
 11
-30.5286864048
 21
2.828992521
  0
LINE
  5
6D1
100
AcDbEntity
  8
RACCORDO
100
AcDbLine
 62
253
  6
CONTINUOUS
 10
-30.2339221268
 20
2.828992521
 11
-29.7251959236
 21
2.8378647466
  0
LINE
  5
6D2
100
AcDbEntity
  8
RACCORDO
100
AcDbLine
 62
7
  6
CONTINUOUS
 10
-24.8146701377
 20
3.1080837314
 11
-25.5419547348
 21
3.0953889316
  0
LINE
  5
6D3
100
AcDbEntity
  8
ASSI
100
AcDbLine
 62
7
  6
CONTINUOUS
 10
-24.8146701377
 20
3.1080837314
 11
-25.5419547348
 21
3.0953889316
  0
LINE
  5
6D4
100
AcDbEntity
  8
RACCORDO
100
AcDbLine
 62
7
  6
CONTINUOUS
 10
-30.2339221268
 20
3.1289468296
 11
-29.7251959236
 21
3.1378266785
  0
LINE
  5
6D5
100
AcDbEntity
  8
DRAFT
100
AcDbLine
 62
7
  6
CONTINUOUS
 10
-26.5971612476
 20
3.2031528308
 11
-27.0375875378
 21
3.1954651613
  0
LINE
  5
6D6
100
AcDbEntity
  8
RACCORDO
100
AcDbLine
 62
253
  6
CONTINUOUS
 10
-30.5286864048
 20
2.828992521
 11
-30.2339221268
 21
2.828992521
  0
LINE
  5
6D7
100
AcDbEntity
  8
RACCORDO
100
AcDbLine
 62
253
  6
CONTINUOUS
 10
-29.5286864048
 20
2.8378723699
 11
-29.7251959236
 21
2.8378723699
  0
LWPOLYLINE
  5
6D8
100
AcDbEntity
  8
RACCORDO
100
AcDbPolyline
 62
253
  6
CONTINUOUS
 90
7
 70
0
 10
-30.2339221268
 20
-0.3464332998
 10
-30.2345628821
 20
-0.34383465
 10
-30.2351024241
 20
-0.3361045253
 10
-30.235531351
 20
-0.3233719827
 10
-30.2358421895
 20
-0.3058502198
 10
-30.236029404
 20
-0.2838393372
 10
-30.2360896514
 20
-0.2577266863
  0
LINE
  5
6D9
100
AcDbEntity
  8
RACCORDO
100
AcDbLine
 62
253
  6
CONTINUOUS
 10
-30.2339221268
 20
2.828992521
 11
-30.2351024241
 21
2.9069404826
  0
LINE
  5
6DA
100
AcDbEntity
  8
RACCORDO
100
AcDbLine
 62
253
  6
CONTINUOUS
 10
-30.2351024241
 20
2.9069404826
 11
-30.2358421895
 21
2.9795759216
  0
LWPOLYLINE
  5
6DB
100
AcDbEntity
  8
RACCORDO
100
AcDbPolyline
 62
253
  6
CONTINUOUS
 90
8
 70
0
 10
-30.2358421895
 20
2.9795759216
 10
-30.2360896514
 20
3.0418765347
 10
-30.2360216523
 20
3.0678074754
 10
-30.2358263645
 20
3.0895918453
 10
-30.2355096841
 20
3.1067553832
 10
-30.235080487
 20
3.1190740917
 10
-30.234547667
 20
3.1264793223
 10
-30.2339221268
 20
3.1289468296
  0
LINE
  5
6DC
100
AcDbEntity
  8
RACCORDO
100
AcDbLine
 62
253
  6
CONTINUOUS
 10
-30.2339221268
 20
-0.0464789912
 11
-30.2339221268
 21
2.828992521
  0
LINE
  5
6DD
100
AcDbEntity
  8
RACCORDO
100
AcDbLine
 62
253
  6
CONTINUOUS
 10
-30.2360896514
 20
-0.2577266863
 11
-30.2358263645
 21
-0.19492768
  0
LINE
  5
6DE
100
AcDbEntity
  8
RACCORDO
100
AcDbLine
 62
253
  6
CONTINUOUS
 10
-30.2358263645
 20
-0.19492768
 11
-30.235080487
 21
-0.1227141411
  0
LINE
  5
6DF
100
AcDbEntity
  8
RACCORDO
100
AcDbLine
 62
253
  6
CONTINUOUS
 10
-30.235080487
 20
-0.1227141411
 11
-30.2339221268
 21
-0.0464789912
  0
LINE
  5
6E0
100
AcDbEntity
  8
DRAFT
100
AcDbLine
 62
7
  6
CONTINUOUS
 10
-28.4577500413
 20
3.9206761326
 11
-28.5286864048
 21
3.9194379337
  0
LINE
  5
6E1
100
AcDbEntity
  8
RACCORDO
100
AcDbLine
 62
7
  6
CONTINUOUS
 10
-27.2786864048
 20
3.7912567649
 11
-27.7077237626
 21
3.7875126126
  0
LINE
  5
6E2
100
AcDbEntity
  8
ASSI
100
AcDbLine
 62
7
  6
CONTINUOUS
 10
-27.2786864048
 20
3.7912567649
 11
-27.7077237626
 21
3.7875126126
  0
LINE
  5
6E3
100
AcDbEntity
  8
RACCORDO
100
AcDbLine
 62
253
  6
CONTINUOUS
 10
-25.0643369599
 20
3.2745583242
 11
-24.8681015342
 21
3.2745583339
  0
LINE
  5
6E4
100
AcDbEntity
  8
ASSI
100
AcDbLine
 62
253
  6
CONTINUOUS
 10
-25.0643369599
 20
3.2745583242
 11
-24.8681015342
 21
3.2745583339
  0
LINE
  5
6E5
100
AcDbEntity
  8
RACCORDO
100
AcDbLine
 62
253
  6
CONTINUOUS
 10
-24.8681015342
 20
3.2745583242
 11
-24.8146701377
 21
3.2740920355
  0
LINE
  5
6E6
100
AcDbEntity
  8
ASSI
100
AcDbLine
 62
253
  6
CONTINUOUS
 10
-24.8681015342
 20
3.2745583242
 11
-24.8146701377
 21
3.2740920355
  0
LINE
  5
6E7
100
AcDbEntity
  8
RACCORDO
100
AcDbLine
 62
253
  6
CONTINUOUS
 10
-25.3624033686
 20
3.5745564615
 11
-25.9069906079
 21
3.5793090023
  0
LINE
  5
6E8
100
AcDbEntity
  8
ASSI
100
AcDbLine
 62
253
  6
CONTINUOUS
 10
-25.3624033686
 20
3.5745564615
 11
-25.9069906079
 21
3.5793090023
  0
LINE
  5
6E9
100
AcDbEntity
  8
RACCORDO
100
AcDbLine
 62
7
  6
CONTINUOUS
 10
-25.3112201429
 20
3.774086947
 11
-27.2786864048
 21
3.7912567649
  0
LINE
  5
6EA
100
AcDbEntity
  8
ASSI
100
AcDbLine
 62
7
  6
CONTINUOUS
 10
-25.3112201429
 20
3.774086947
 11
-27.2786864048
 21
3.7912567649
  0
LWPOLYLINE
  5
6EB
100
AcDbEntity
  8
DRAFT
100
AcDbPolyline
 62
7
  6
CONTINUOUS
 90
10
 70
0
 10
-27.3776792242
 20
1.1968576706
 10
-27.3994290914
 20
1.2102350946
 10
-27.4212981452
 20
1.2234815116
 10
-27.4432863855
 20
1.2365969217
 10
-27.4653945359
 20
1.2495762346
 10
-27.4876218729
 20
1.2624245407
 10
-27.5099662259
 20
1.2751571106
 10
-27.5324268715
 20
1.2877790345
 10
-27.5550045332
 20
1.3002852224
 10
-27.5776992109
 20
1.312675674
  0
LWPOLYLINE
  5
6EC
100
AcDbEntity
  8
ASSI
100
AcDbPolyline
 62
7
  6
CONTINUOUS
 90
10
 70
0
 10
-27.3776792242
 20
1.1968576706
 10
-27.3994290914
 20
1.2102350946
 10
-27.4212981452
 20
1.2234815116
 10
-27.4432863855
 20
1.2365969217
 10
-27.4653945359
 20
1.2495762346
 10
-27.4876218729
 20
1.2624245407
 10
-27.5099662259
 20
1.2751571106
 10
-27.5324268715
 20
1.2877790345
 10
-27.5550045332
 20
1.3002852224
 10
-27.5776992109
 20
1.312675674
  0
LWPOLYLINE
  5
6ED
100
AcDbEntity
  8
RACCORDO
100
AcDbPolyline
 62
253
  6
CONTINUOUS
 90
6
 70
0
 10
-29.7240486206
 20
3.1097211428
 10
-29.7242153402
 20
3.1197476309
 10
-29.7244117404
 20
3.127618991
 10
-29.7246371154
 20
3.1332774081
 10
-29.7248972945
 20
3.136687267
 10
-29.72519534
 20
3.1378266786
  0
LINE
  5
6EE
100
AcDbEntity
  8
RACCORDO
100
AcDbLine
 62
253
  6
CONTINUOUS
 10
-29.7242153402
 20
-0.157995393
 11
-29.72519534
 21
-0.0554364805
  0
LINE
  5
6EF
100
AcDbEntity
  8
RACCORDO
100
AcDbLine
 62
253
  6
CONTINUOUS
 10
-29.7238274005
 20
3.0835710494
 11
-29.7240486206
 21
3.1097211428
  0
LINE
  5
6F0
100
AcDbEntity
  8
RACCORDO
100
AcDbLine
 62
253
  6
CONTINUOUS
 10
-29.7237706102
 20
-0.2482263507
 11
-29.7242153402
 21
-0.157995393
  0
LINE
  5
6F1
100
AcDbEntity
  8
RACCORDO
100
AcDbLine
 62
253
  6
CONTINUOUS
 10
-29.7237510647
 20
3.0499937065
 11
-29.7238274005
 21
3.0835710494
  0
LINE
  5
6F2
100
AcDbEntity
  8
RACCORDO
100
AcDbLine
 62
253
  6
CONTINUOUS
 10
-29.7251959236
 20
-0.0554364703
 11
-29.7251959236
 21
2.8378647466
  0
LINE
  5
6F3
100
AcDbEntity
  8
DRAFT
100
AcDbLine
 62
7
  6
CONTINUOUS
 10
-29.5286864048
 20
4.0901937165
 11
-29.5286864048
 21
-1.3076801867
  0
LINE
  5
6F4
100
AcDbEntity
  8
RACCORDO
100
AcDbLine
 62
7
  6
CONTINUOUS
 10
-29.5286864048
 20
-1.7973271163
 11
-29.5286864048
 21
-1.3076801867
  0
LINE
  5
6F5
100
AcDbEntity
  8
RACCORDO
100
AcDbLine
 62
7
  6
CONTINUOUS
 10
-29.5286864048
 20
4.0901937165
 11
-29.5286864048
 21
4.5798406461
  0
LINE
  5
6F6
100
AcDbEntity
  8
RACCORDO
100
AcDbLine
 62
253
  6
CONTINUOUS
 10
-29.7237704829
 20
-0.2851610421
 11
-29.7237706102
 21
-0.2482263507
  0
LINE
  5
6F7
100
AcDbEntity
  8
RACCORDO
100
AcDbLine
 62
253
  6
CONTINUOUS
 10
-29.7239186693
 20
2.9879155286
 11
-29.7237510647
 21
3.0499937065
  0
LINE
  5
6F8
100
AcDbEntity
  8
RACCORDO
100
AcDbLine
 62
253
  6
CONTINUOUS
 10
-29.7246375586
 20
2.8899852908
 11
-29.7239186693
 21
2.9879155286
  0
LINE
  5
6F9
100
AcDbEntity
  8
RACCORDO
100
AcDbLine
 62
253
  6
CONTINUOUS
 10
-29.7251959808
 20
2.8378647456
 11
-29.7246375586
 21
2.8899852908
  0
LWPOLYLINE
  5
6FA
100
AcDbEntity
  8
RACCORDO
100
AcDbPolyline
 62
253
  6
CONTINUOUS
 90
8
 70
0
 10
-29.7251959808
 20
-0.3553131476
 10
-29.7248979224
 20
-0.3541767853
 10
-29.7246375586
 20
-0.3507641428
 10
-29.7244119006
 20
-0.3451015041
 10
-29.7242151885
 20
-0.3372314473
 10
-29.7240482702
 20
-0.3272145555
 10
-29.7239186693
 20
-0.3151310137
 10
-29.7237704829
 20
-0.2851610421
  0
LWPOLYLINE
  5
6FB
100
AcDbEntity
  8
DRAFT
100
AcDbPolyline
 62
7
  6
CONTINUOUS
 90
10
 70
0
 10
-27.3776792242
 20
1.5856558592
 10
-27.3994290914
 20
1.5722784352
 10
-27.4212981452
 20
1.5590320182
 10
-27.4432863855
 20
1.5459166081
 10
-27.4653945359
 20
1.5329372952
 10
-27.4876218729
 20
1.5200889891
 10
-27.5099662259
 20
1.5073564192
 10
-27.5324268715
 20
1.4947344953
 10
-27.5550045332
 20
1.4822283074
 10
-27.5776992109
 20
1.4698378558
  0
LWPOLYLINE
  5
6FC
100
AcDbEntity
  8
ASSI
100
AcDbPolyline
 62
7
  6
CONTINUOUS
 90
10
 70
0
 10
-27.3776792242
 20
1.5856558592
 10
-27.3994290914
 20
1.5722784352
 10
-27.4212981452
 20
1.5590320182
 10
-27.4432863855
 20
1.5459166081
 10
-27.4653945359
 20
1.5329372952
 10
-27.4876218729
 20
1.5200889891
 10
-27.5099662259
 20
1.5073564192
 10
-27.5324268715
 20
1.4947344953
 10
-27.5550045332
 20
1.4822283074
 10
-27.5776992109
 20
1.4698378558
  0
LINE
  5
6FD
100
AcDbEntity
  8
RACCORDO
100
AcDbLine
 62
253
  6
CONTINUOUS
 10
-29.0461361532
 20
4.4799015634
 11
-27.2786864048
 21
4.5416222687
  0
LINE
  5
6FE
100
AcDbEntity
  8
RACCORDO
100
AcDbLine
 62
253
  6
CONTINUOUS
 10
-22.668214961
 20
4.4308720694
 11
-22.0786864048
 21
4.4308720637
  0
LINE
  5
6FF
100
AcDbEntity
  8
RACCORDO
100
AcDbLine
 62
253
  6
CONTINUOUS
 10
-29.5286864048
 20
4.4799015634
 11
-29.0461361533
 21
4.4799015668
  0
LINE
  5
700
100
AcDbEntity
  8
RACCORDO
100
AcDbLine
 62
253
  6
CONTINUOUS
 10
-22.0286864048
 20
4.5997851037
 11
-22.1035675791
 21
4.5997851037
  0
LINE
  5
701
100
AcDbEntity
  8
ASSI
100
AcDbLine
 62
253
  6
CONTINUOUS
 10
-22.0286864048
 20
4.5997851037
 11
-22.1035675791
 21
4.5997851037
  0
LINE
  5
702
100
AcDbEntity
  8
RACCORDO
100
AcDbLine
 62
253
  6
CONTINUOUS
 10
-22.668214961
 20
4.4308720694
 11
-27.2786864048
 21
4.5113481478
  0
LINE
  5
703
100
AcDbEntity
  8
RACCORDO
100
AcDbLine
 62
7
  6
CONTINUOUS
 10
-25.1103688202
 20
3.8586395037
 11
-29.5286864048
 21
4.0901937165
  0
LINE
  5
704
100
AcDbEntity
  8
RACCORDO
100
AcDbLine
 62
7
  6
CONTINUOUS
 10
-25.3121284844
 20
3.7713833338
 11
-25.3641485427
 21
3.7745488461
  0
LINE
  5
705
100
AcDbEntity
  8
ASSI
100
AcDbLine
 62
7
  6
CONTINUOUS
 10
-25.3121284844
 20
3.7713833338
 11
-25.3641485427
 21
3.7745488461
  0
LINE
  5
706
100
AcDbEntity
  8
0
100
AcDbLine
 62
7
  6
CONTINUOUS
 10
-26.1094461651
 20
2.6151677865
 11
-26.2831777332
 21
2.6617190199
  0
LWPOLYLINE
  5
707
100
AcDbEntity
  8
DRAFT
100
AcDbPolyline
 62
7
  6
CONTINUOUS
 90
10
 70
0
 10
-26.3799478868
 20
1.4699867078
 10
-26.4026796509
 20
1.4823993802
 10
-26.4252977725
 20
1.4949305666
 10
-26.4478022516
 20
1.5075802668
 10
-26.4701938191
 20
1.5203432447
 10
-26.4924717442
 20
1.5332247366
 10
-26.5146338342
 20
1.5462404511
 10
-26.5366793581
 20
1.5593956245
 10
-26.5586090469
 20
1.5726850205
 10
-26.5804229006
 20
1.5861086392
  0
LWPOLYLINE
  5
708
100
AcDbEntity
  8
ASSI
100
AcDbPolyline
 62
7
  6
CONTINUOUS
 90
10
 70
0
 10
-26.3799478868
 20
1.4699867078
 10
-26.4026796509
 20
1.4823993802
 10
-26.4252977725
 20
1.4949305666
 10
-26.4478022516
 20
1.5075802668
 10
-26.4701938191
 20
1.5203432447
 10
-26.4924717442
 20
1.5332247366
 10
-26.5146338342
 20
1.5462404511
 10
-26.5366793581
 20
1.5593956245
 10
-26.5586090469
 20
1.5726850205
 10
-26.5804229006
 20
1.5861086392
  0
LINE
  5
709
100
AcDbEntity
  8
RACCORDO
100
AcDbLine
 62
253
  6
CONTINUOUS
 10
-29.0461361532
 20
4.4799015634
 11
-29.0488942315
 21
4.5839667987
  0
LINE
  5
70A
100
AcDbEntity
  8
RACCORDO
100
AcDbLine
 62
253
  6
CONTINUOUS
 10
-29.0488942315
 20
4.5839667987
 11
-29.0510446139
 21
4.6848706779
  0
LINE
  5
70B
100
AcDbEntity
  8
RACCORDO
100
AcDbLine
 62
253
  6
CONTINUOUS
 10
-29.0510446139
 20
4.6848706779
 11
-29.0525125163
 21
4.7795525289
  0
LWPOLYLINE
  5
70C
100
AcDbEntity
  8
RACCORDO
100
AcDbPolyline
 62
253
  6
CONTINUOUS
 90
12
 70
0
 10
-29.0525125163
 20
4.7795525289
 10
-29.0532564823
 20
4.865140348
 10
-29.0533492154
 20
4.903699444
 10
-29.0532560783
 20
4.9390371271
 10
-29.0529766175
 20
4.9708849763
 10
-29.0525115416
 20
4.9990010992
 10
-29.0518657109
 20
5.0231717925
 10
-29.0510443943
 20
5.0432133667
 10
-29.0500513755
 20
5.0589736322
 10
-29.0488944607
 20
5.0703327908
 10
-29.0475854116
 20
5.0772043741
 10
-29.0461361532
 20
5.0795360597
  0
LINE
  5
70D
100
AcDbEntity
  8
RACCORDO
100
AcDbLine
 62
253
  6
CONTINUOUS
 10
-29.0461361532
 20
-1.6973880336
 11
-29.0461361532
 21
-1.2823907996
  0
LINE
  5
70E
100
AcDbEntity
  8
RACCORDO
100
AcDbLine
 62
253
  6
CONTINUOUS
 10
-29.0461361532
 20
4.0649043294
 11
-29.0461361532
 21
4.4799015634
  0
LINE
  5
70F
100
AcDbEntity
  8
DRAFT
100
AcDbLine
 62
7
  6
CONTINUOUS
 10
-28.5286864048
 20
4.0377859372
 11
-28.5286864048
 21
-1.2552724074
  0
LINE
  5
710
100
AcDbEntity
  8
RACCORDO
100
AcDbLine
 62
7
  6
CONTINUOUS
 10
-28.4786864048
 20
-0.9955912519
 11
-28.4786864048
 21
3.7781047817
  0
LINE
  5
711
100
AcDbEntity
  8
ASSI
100
AcDbLine
 62
7
  6
CONTINUOUS
 10
-28.4786864048
 20
-0.9955912519
 11
-28.4786864048
 21
3.7781047817
  0
LINE
  5
712
100
AcDbEntity
  8
RACCORDO
100
AcDbLine
 62
253
  6
CONTINUOUS
 10
-29.0533492154
 20
-2.1211859142
 11
-29.0529774234
 21
-2.0411393841
  0
LINE
  5
713
100
AcDbEntity
  8
RACCORDO
100
AcDbLine
 62
253
  6
CONTINUOUS
 10
-29.0529774234
 20
-2.0411393841
 11
-29.0518664233
 21
-1.9506608067
  0
LINE
  5
714
100
AcDbEntity
  8
RACCORDO
100
AcDbLine
 62
253
  6
CONTINUOUS
 10
-29.0518664233
 20
-1.9506608067
 11
-29.0500512402
 21
-1.8524950257
  0
LWPOLYLINE
  5
715
100
AcDbEntity
  8
RACCORDO
100
AcDbPolyline
 62
253
  6
CONTINUOUS
 90
3
 70
0
 10
-29.0500512402
 20
-1.8524950257
 10
-29.0475852274
 20
-1.7496196704
 10
-29.0461361532
 20
-1.6973880336
  0
LWPOLYLINE
  5
716
100
AcDbEntity
  8
DRAFT
100
AcDbPolyline
 62
7
  6
CONTINUOUS
 90
10
 70
0
 10
-26.3799478868
 20
1.312526822
 10
-26.4026796509
 20
1.3001141496
 10
-26.4252977725
 20
1.2875829632
 10
-26.4478022516
 20
1.274933263
 10
-26.4701938191
 20
1.2621702851
 10
-26.4924717442
 20
1.2492887932
 10
-26.5146338342
 20
1.2362730787
 10
-26.5366793581
 20
1.2231179053
 10
-26.5586090469
 20
1.2098285093
 10
-26.5804229006
 20
1.1964048906
  0
LWPOLYLINE
  5
717
100
AcDbEntity
  8
ASSI
100
AcDbPolyline
 62
7
  6
CONTINUOUS
 90
10
 70
0
 10
-26.3799478868
 20
1.312526822
 10
-26.4026796509
 20
1.3001141496
 10
-26.4252977725
 20
1.2875829632
 10
-26.4478022516
 20
1.274933263
 10
-26.4701938191
 20
1.2621702851
 10
-26.4924717442
 20
1.2492887932
 10
-26.5146338342
 20
1.2362730787
 10
-26.5366793581
 20
1.2231179053
 10
-26.5586090469
 20
1.2098285093
 10
-26.5804229006
 20
1.1964048906
  0
LINE
  5
718
100
AcDbEntity
  8
RACCORDO
100
AcDbLine
 62
7
  6
CONTINUOUS
 10
-29.0461361532
 20
5.0795360597
 11
-27.2786864048
 21
5.1412567649
  0
LINE
  5
719
100
AcDbEntity
  8
DRAFT
100
AcDbLine
 62
7
  6
CONTINUOUS
 10
-25.7786864048
 20
5.1936379191
 11
-27.2786864048
 21
5.1412567649
  0
LINE
  5
71A
100
AcDbEntity
  8
RACCORDO
100
AcDbLine
 62
7
  6
CONTINUOUS
 10
-27.2786864048
 20
5.1412567649
 11
-28.2786864048
 21
5.1325298971
  0
LINE
  5
71B
100
AcDbEntity
  8
ASSI
100
AcDbLine
 62
7
  6
CONTINUOUS
 10
-27.2786864048
 20
5.1412567649
 11
-28.2786864048
 21
5.1325298971
  0
LINE
  5
71C
100
AcDbEntity
  8
RACCORDO
100
AcDbLine
 62
7
  6
CONTINUOUS
 10
-27.2786864048
 20
5.1412567649
 11
-22.5243231371
 21
5.0997660652
  0
LINE
  5
71D
100
AcDbEntity
  8
ASSI
100
AcDbLine
 62
7
  6
CONTINUOUS
 10
-27.2786864048
 20
5.1412567649
 11
-22.5243231371
 21
5.0997660652
  0
LINE
  5
71E
100
AcDbEntity
  8
RACCORDO
100
AcDbLine
 62
7
  6
CONTINUOUS
 10
-22.668214961
 20
5.0307806865
 11
-27.2786864048
 21
5.1112567649
  0
LINE
  5
71F
100
AcDbEntity
  8
RACCORDO
100
AcDbLine
 62
7
  6
CONTINUOUS
 10
-25.2753617288
 20
3.7658278995
 11
-25.3121284844
 21
3.7713833338
  0
LINE
  5
720
100
AcDbEntity
  8
ASSI
100
AcDbLine
 62
7
  6
CONTINUOUS
 10
-25.2753617288
 20
3.7658278995
 11
-25.3121284844
 21
3.7713833338
  0
LINE
  5
721
100
AcDbEntity
  8
RACCORDO
100
AcDbLine
 62
7
  6
CONTINUOUS
 10
-28.2786864048
 20
-2.3500163673
 11
-28.2786864048
 21
-2.3238224656
  0
LINE
  5
722
100
AcDbEntity
  8
ASSI
100
AcDbLine
 62
7
  6
CONTINUOUS
 10
-28.2786864048
 20
-2.3500163673
 11
-28.2786864048
 21
-2.3238224656
  0
LINE
  5
723
100
AcDbEntity
  8
RACCORDO
100
AcDbLine
 62
7
  6
CONTINUOUS
 10
-28.2786864048
 20
5.1063359954
 11
-28.2786864048
 21
5.1325298971
  0
LINE
  5
724
100
AcDbEntity
  8
ASSI
100
AcDbLine
 62
7
  6
CONTINUOUS
 10
-28.2786864048
 20
5.1063359954
 11
-28.2786864048
 21
5.1325298971
  0
LINE
  5
725
100
AcDbEntity
  8
RACCORDO
100
AcDbLine
 62
253
  6
CONTINUOUS
 10
-27.8655104937
 20
-2.3536220989
 11
-27.8655104937
 21
-2.3382508864
  0
LINE
  5
726
100
AcDbEntity
  8
ASSI
100
AcDbLine
 62
253
  6
CONTINUOUS
 10
-27.8655104937
 20
-2.3536220989
 11
-27.8655104937
 21
-2.3382508864
  0
LINE
  5
727
100
AcDbEntity
  8
RACCORDO
100
AcDbLine
 62
253
  6
CONTINUOUS
 10
-27.8655104937
 20
5.1207644162
 11
-27.8655104937
 21
5.1361356287
  0
LINE
  5
728
100
AcDbEntity
  8
ASSI
100
AcDbLine
 62
253
  6
CONTINUOUS
 10
-27.8655104937
 20
5.1207644162
 11
-27.8655104937
 21
5.1361356287
  0
LINE
  5
729
100
AcDbEntity
  8
DRAFT
100
AcDbLine
 62
7
  6
CONTINUOUS
 10
-27.5776992109
 20
1.4698378558
 11
-27.5776992109
 21
1.312675674
  0
LINE
  5
72A
100
AcDbEntity
  8
ASSI
100
AcDbLine
 62
7
  6
CONTINUOUS
 10
-27.5776992109
 20
1.4698378558
 11
-27.5776992109
 21
1.312675674
  0
LINE
  5
72B
100
AcDbEntity
  8
DRAFT
100
AcDbLine
 62
7
  6
CONTINUOUS
 10
-27.3776792242
 20
1.5856558592
 11
-27.3776792242
 21
1.1968576706
  0
LINE
  5
72C
100
AcDbEntity
  8
ASSI
100
AcDbLine
 62
7
  6
CONTINUOUS
 10
-27.3776792242
 20
1.5856558592
 11
-27.3776792242
 21
1.1968576706
  0
LINE
  5
72D
100
AcDbEntity
  8
RACCORDO
100
AcDbLine
 62
7
  6
CONTINUOUS
 10
-27.2786864048
 20
-2.3587432351
 11
-27.2786864048
 21
-1.1897626833
  0
LINE
  5
72E
100
AcDbEntity
  8
DRAFT
100
AcDbLine
 62
7
  6
CONTINUOUS
 10
-27.2786864048
 20
-1.1897626833
 11
-27.2786864048
 21
-0.6661597841
  0
LINE
  5
72F
100
AcDbEntity
  8
ASSI
100
AcDbLine
 62
7
  6
CONTINUOUS
 10
-27.2786864048
 20
-1.1897626833
 11
-27.2786864048
 21
-0.6661597841
  0
LINE
  5
730
100
AcDbEntity
  8
DRAFT
100
AcDbLine
 62
7
  6
CONTINUOUS
 10
-27.2786864048
 20
3.4486733139
 11
-27.2786864048
 21
3.9722762131
  0
LINE
  5
731
100
AcDbEntity
  8
ASSI
100
AcDbLine
 62
7
  6
CONTINUOUS
 10
-27.2786864048
 20
3.4486733139
 11
-27.2786864048
 21
3.9722762131
  0
LINE
  5
732
100
AcDbEntity
  8
RACCORDO
100
AcDbLine
 62
7
  6
CONTINUOUS
 10
-27.2786864048
 20
3.9722762131
 11
-27.2786864048
 21
5.1412567649
  0
LINE
  5
733
100
AcDbEntity
  8
DRAFT
100
AcDbLine
 62
7
  6
CONTINUOUS
 10
-26.5804229006
 20
1.1964048906
 11
-26.5804229006
 21
1.5861086392
  0
LINE
  5
734
100
AcDbEntity
  8
ASSI
100
AcDbLine
 62
7
  6
CONTINUOUS
 10
-26.5804229006
 20
1.1964048906
 11
-26.5804229006
 21
1.5861086392
  0
LINE
  5
735
100
AcDbEntity
  8
DRAFT
100
AcDbLine
 62
7
  6
CONTINUOUS
 10
-26.3799478868
 20
1.312526822
 11
-26.3799478868
 21
1.4699867078
  0
LINE
  5
736
100
AcDbEntity
  8
ASSI
100
AcDbLine
 62
7
  6
CONTINUOUS
 10
-26.3799478868
 20
1.312526822
 11
-26.3799478868
 21
1.4699867078
  0
LINE
  5
737
100
AcDbEntity
  8
0
100
AcDbLine
 62
7
  6
CONTINUOUS
 10
-26.7856954786
 20
1.1103807127
 11
-26.7562595926
 21
1.2202369347
  0
LINE
  5
738
100
AcDbEntity
  8
DRAFT
100
AcDbLine
 62
7
  6
CONTINUOUS
 10
-26.754222247
 20
-0.3176409101
 11
-26.7998179116
 21
-0.4878062468
  0
LINE
  5
739
100
AcDbEntity
  8
0
100
AcDbLine
 62
7
  6
CONTINUOUS
 10
-26.6880799096
 20
-0.457164677
 11
-26.6388367177
 21
-0.2733865828
  0
LINE
  5
73A
100
AcDbEntity
  8
0
100
AcDbLine
 62
7
  6
CONTINUOUS
 10
-26.3526611362
 20
0.7946352273
 11
-26.3027732681
 21
0.9808192856
  0
LINE
  5
73B
100
AcDbEntity
  8
DRAFT
100
AcDbLine
 62
7
  6
CONTINUOUS
 10
-25.7786864048
 20
5.1936379191
 11
-25.7786864048
 21
5.1281664632
  0
LINE
  5
73C
100
AcDbEntity
  8
DRAFT
100
AcDbLine
 62
7
  6
CONTINUOUS
 10
-25.7786864048
 20
-2.3456529334
 11
-25.7786864048
 21
-2.4111243893
  0
LWPOLYLINE
  5
73D
100
AcDbEntity
  8
RACCORDO
100
AcDbPolyline
 62
253
  6
CONTINUOUS
 90
16
 70
0
 10
-25.0643369599
 20
3.2745583242
 10
-25.0660748013
 20
3.3061746159
 10
-25.0709054603
 20
3.3368434162
 10
-25.0788289368
 20
3.3665647252
 10
-25.0899981101
 20
3.3956547136
 10
-25.104260101
 20
3.4237972107
 10
-25.1211562718
 20
3.4500437044
 10
-25.1407715163
 20
3.4743169343
 10
-25.1630209406
 20
3.4966941609
 10
-25.1871912261
 20
3.5164586536
 10
-25.2133676003
 20
3.5335266238
 10
-25.2414648356
 20
3.5479818601
 10
-25.2705139303
 20
3.5593589985
 10
-25.3001918837
 20
3.5675029175
 10
-25.3308216965
 20
3.5725687385
 10
-25.3624033686
 20
3.5745564615
  0
LWPOLYLINE
  5
73E
100
AcDbEntity
  8
ASSI
100
AcDbPolyline
 62
253
  6
CONTINUOUS
 90
16
 70
0
 10
-25.0643369599
 20
3.2745583242
 10
-25.0660748013
 20
3.3061746159
 10
-25.0709054603
 20
3.3368434162
 10
-25.0788289368
 20
3.3665647252
 10
-25.0899981101
 20
3.3956547136
 10
-25.104260101
 20
3.4237972107
 10
-25.1211562718
 20
3.4500437044
 10
-25.1407715163
 20
3.4743169343
 10
-25.1630209406
 20
3.4966941609
 10
-25.1871912261
 20
3.5164586536
 10
-25.2133676003
 20
3.5335266238
 10
-25.2414648356
 20
3.5479818601
 10
-25.2705139303
 20
3.5593589985
 10
-25.3001918837
 20
3.5675029175
 10
-25.3308216965
 20
3.5725687385
 10
-25.3624033686
 20
3.5745564615
  0
LWPOLYLINE
  5
73F
100
AcDbEntity
  8
RACCORDO
100
AcDbPolyline
 62
253
  6
CONTINUOUS
 90
15
 70
0
 10
-24.8681015342
 20
3.2745583242
 10
-24.8708076987
 20
3.3264870497
 10
-24.8788989404
 20
3.3778668573
 10
-24.8922918614
 20
3.4281411469
 10
-24.9108479436
 20
3.4767685015
 10
-24.9343689117
 20
3.5232165235
 10
-24.9625948212
 20
3.5669695913
 10
-24.9952180242
 20
3.6075504063
 10
-25.0318875196
 20
3.6445227122
 10
-25.0722038247
 20
3.6774854904
 10
-25.1157293321
 20
3.7060805614
 10
-25.1619946932
 20
3.7299995754
 10
-25.210501851
 20
3.7489852533
 10
-25.2607276307
 20
3.7628306725
 10
-25.2753617288
 20
3.7658278995
  0
LWPOLYLINE
  5
740
100
AcDbEntity
  8
ASSI
100
AcDbPolyline
 62
253
  6
CONTINUOUS
 90
15
 70
0
 10
-24.8681015342
 20
3.2745583242
 10
-24.8708076987
 20
3.3264870497
 10
-24.8788989404
 20
3.3778668573
 10
-24.8922918614
 20
3.4281411469
 10
-24.9108479436
 20
3.4767685015
 10
-24.9343689117
 20
3.5232165235
 10
-24.9625948212
 20
3.5669695913
 10
-24.9952180242
 20
3.6075504063
 10
-25.0318875196
 20
3.6445227122
 10
-25.0722038247
 20
3.6774854904
 10
-25.1157293321
 20
3.7060805614
 10
-25.1619946932
 20
3.7299995754
 10
-25.210501851
 20
3.7489852533
 10
-25.2607276307
 20
3.7628306725
 10
-25.2753617288
 20
3.7658278995
  0
LWPOLYLINE
  5
741
100
AcDbEntity
  8
RACCORDO
100
AcDbPolyline
 62
253
  6
CONTINUOUS
 90
6
 70
0
 10
-25.3620984063
 20
3.7030987173
 10
-25.3623135075
 20
3.7277486386
 10
-25.362637374
 20
3.7477447938
 10
-25.3630601671
 20
3.762479727
 10
-25.363569043
 20
3.7715058112
 10
-25.3641485427
 20
3.7745488461
  0
LWPOLYLINE
  5
742
100
AcDbEntity
  8
ASSI
100
AcDbPolyline
 62
253
  6
CONTINUOUS
 90
6
 70
0
 10
-25.3620984063
 20
3.7030987173
 10
-25.3623135075
 20
3.7277486386
 10
-25.362637374
 20
3.7477447938
 10
-25.3630601671
 20
3.762479727
 10
-25.363569043
 20
3.7715058112
 10
-25.3641485427
 20
3.7745488461
  0
LINE
  5
743
100
AcDbEntity
  8
RACCORDO
100
AcDbLine
 62
253
  6
CONTINUOUS
 10
-25.3624033686
 20
-0.7920429317
 11
-25.3620172112
 21
-0.8604329312
  0
LINE
  5
744
100
AcDbEntity
  8
ASSI
100
AcDbLine
 62
253
  6
CONTINUOUS
 10
-25.3624033686
 20
-0.7920429317
 11
-25.3620172112
 21
-0.8604329312
  0
LINE
  5
745
100
AcDbEntity
  8
RACCORDO
100
AcDbLine
 62
253
  6
CONTINUOUS
 10
-25.0643369599
 20
-0.4920447944
 11
-25.0643369599
 21
-0.321212251
  0
LINE
  5
746
100
AcDbEntity
  8
ASSI
100
AcDbLine
 62
253
  6
CONTINUOUS
 10
-25.0643369599
 20
-0.4920447944
 11
-25.0643369599
 21
-0.321212251
  0
LINE
  5
747
100
AcDbEntity
  8
RACCORDO
100
AcDbLine
 62
253
  6
CONTINUOUS
 10
-25.0643369599
 20
3.1037257808
 11
-25.0643369599
 21
3.2745583242
  0
LINE
  5
748
100
AcDbEntity
  8
ASSI
100
AcDbLine
 62
253
  6
CONTINUOUS
 10
-25.0643369599
 20
3.1037257808
 11
-25.0643369599
 21
3.2745583242
  0
LINE
  5
749
100
AcDbEntity
  8
RACCORDO
100
AcDbLine
 62
253
  6
CONTINUOUS
 10
-24.8681015342
 20
-0.4920447944
 11
-24.8681015342
 21
-0.3246375531
  0
LINE
  5
74A
100
AcDbEntity
  8
ASSI
100
AcDbLine
 62
253
  6
CONTINUOUS
 10
-24.8681015342
 20
-0.4920447944
 11
-24.8681015342
 21
-0.3246375531
  0
LINE
  5
74B
100
AcDbEntity
  8
RACCORDO
100
AcDbLine
 62
253
  6
CONTINUOUS
 10
-24.8681015342
 20
3.1071510829
 11
-24.8681015342
 21
3.2745583242
  0
LINE
  5
74C
100
AcDbEntity
  8
ASSI
100
AcDbLine
 62
253
  6
CONTINUOUS
 10
-24.8681015342
 20
3.1071510829
 11
-24.8681015342
 21
3.2745583242
  0
LINE
  5
74D
100
AcDbEntity
  8
RACCORDO
100
AcDbLine
 62
7
  6
CONTINUOUS
 10
-24.8146701377
 20
-0.4915785057
 11
-24.8146701377
 21
-0.3255702016
  0
LINE
  5
74E
100
AcDbEntity
  8
ASSI
100
AcDbLine
 62
7
  6
CONTINUOUS
 10
-24.8146701377
 20
-0.4915785057
 11
-24.8146701377
 21
-0.3255702016
  0
LINE
  5
74F
100
AcDbEntity
  8
RACCORDO
100
AcDbLine
 62
7
  6
CONTINUOUS
 10
-24.8146701377
 20
3.1080837314
 11
-24.8146701377
 21
3.2740920355
  0
LINE
  5
750
100
AcDbEntity
  8
ASSI
100
AcDbLine
 62
7
  6
CONTINUOUS
 10
-24.8146701377
 20
3.1080837314
 11
-24.8146701377
 21
3.2740920355
  0
LINE
  5
751
100
AcDbEntity
  8
RACCORDO
100
AcDbLine
 62
7
  6
CONTINUOUS
 10
-24.7786864048
 20
-0.7266056367
 11
-24.7786864048
 21
3.5091191666
  0
LINE
  5
752
100
AcDbEntity
  8
RACCORDO
100
AcDbLine
 62
253
  6
CONTINUOUS
 10
-25.3620171375
 20
3.6429515243
 11
-25.3620984063
 21
3.7030987173
  0
LINE
  5
753
100
AcDbEntity
  8
ASSI
100
AcDbLine
 62
253
  6
CONTINUOUS
 10
-25.3620171375
 20
3.6429515243
 11
-25.3620984063
 21
3.7030987173
  0
LWPOLYLINE
  5
754
100
AcDbEntity
  8
RACCORDO
100
AcDbPolyline
 62
253
  6
CONTINUOUS
 90
7
 70
0
 10
-25.3620172112
 20
-0.8604329312
 10
-25.3620984575
 20
-0.9205794885
 10
-25.3623135336
 20
-0.9452304766
 10
-25.3626373771
 20
-0.9652280997
 10
-25.3630601543
 20
-0.9799645335
 10
-25.3635690255
 20
-0.988991803
 10
-25.3641485336
 20
-0.9920353162
  0
LWPOLYLINE
  5
755
100
AcDbEntity
  8
ASSI
100
AcDbPolyline
 62
253
  6
CONTINUOUS
 90
7
 70
0
 10
-25.3620172112
 20
-0.8604329312
 10
-25.3620984575
 20
-0.9205794885
 10
-25.3623135336
 20
-0.9452304766
 10
-25.3626373771
 20
-0.9652280997
 10
-25.3630601543
 20
-0.9799645335
 10
-25.3635690255
 20
-0.988991803
 10
-25.3641485336
 20
-0.9920353162
  0
LINE
  5
756
100
AcDbEntity
  8
RACCORDO
100
AcDbLine
 62
253
  6
CONTINUOUS
 10
-25.3624033686
 20
3.5745564615
 11
-25.3620171375
 21
3.6429515243
  0
LINE
  5
757
100
AcDbEntity
  8
ASSI
100
AcDbLine
 62
253
  6
CONTINUOUS
 10
-25.3624033686
 20
3.5745564615
 11
-25.3620171375
 21
3.6429515243
  0
LINE
  5
758
100
AcDbEntity
  8
RACCORDO
100
AcDbLine
 62
253
  6
CONTINUOUS
 10
-22.668214961
 20
-1.6483585396
 11
-22.6654863858
 21
-1.834268611
  0
LWPOLYLINE
  5
759
100
AcDbEntity
  8
RACCORDO
100
AcDbPolyline
 62
253
  6
CONTINUOUS
 90
7
 70
0
 10
-22.6640681176
 20
4.9170625905
 10
-22.6643955169
 20
4.9512318704
 10
-22.664880446
 20
4.9796635832
 10
-22.6655146939
 20
5.001967613
 10
-22.6662883952
 20
5.0179571942
 10
-22.6671922412
 20
5.0275699478
 10
-22.668214961
 20
5.0307806865
  0
LINE
  5
75A
100
AcDbEntity
  8
RACCORDO
100
AcDbLine
 62
253
  6
CONTINUOUS
 10
-22.6654863858
 20
-1.834268611
 11
-22.6643777595
 21
-1.9491262529
  0
LINE
  5
75B
100
AcDbEntity
  8
RACCORDO
100
AcDbLine
 62
253
  6
CONTINUOUS
 10
-22.6643777595
 20
-1.9491262529
 11
-22.6638984097
 21
-2.0506967865
  0
LINE
  5
75C
100
AcDbEntity
  8
RACCORDO
100
AcDbLine
 62
253
  6
CONTINUOUS
 10
-22.668214961
 20
-1.6483585396
 11
-22.668214961
 21
4.4308720694
  0
LINE
  5
75D
100
AcDbEntity
  8
RACCORDO
100
AcDbLine
 62
253
  6
CONTINUOUS
 10
-22.6638984099
 20
4.8332102028
 11
-22.6640681176
 21
4.9170625905
  0
LWPOLYLINE
  5
75E
100
AcDbEntity
  8
RACCORDO
100
AcDbPolyline
 62
253
  6
CONTINUOUS
 90
8
 70
0
 10
-22.6638984097
 20
-2.0506967865
 10
-22.6640681184
 20
-2.1345491805
 10
-22.6643955183
 20
-2.1687184447
 10
-22.6648804481
 20
-2.1971501352
 10
-22.6655146959
 20
-2.2194541379
 10
-22.6662883964
 20
-2.2354436924
 10
-22.6671922408
 20
-2.2450564259
 10
-22.6682149581
 20
-2.2482671566
  0
LINE
  5
75F
100
AcDbEntity
  8
RACCORDO
100
AcDbLine
 62
253
  6
CONTINUOUS
 10
-22.6643777601
 20
4.7316396907
 11
-22.6638984099
 21
4.8332102028
  0
LINE
  5
760
100
AcDbEntity
  8
RACCORDO
100
AcDbLine
 62
253
  6
CONTINUOUS
 10
-22.6662623389
 20
4.5559623829
 11
-22.6643777601
 21
4.7316396907
  0
LINE
  5
761
100
AcDbEntity
  8
RACCORDO
100
AcDbLine
 62
253
  6
CONTINUOUS
 10
-22.668214961
 20
4.4308720694
 11
-22.6662623389
 21
4.5559623829
  0
LWPOLYLINE
  5
762
100
AcDbEntity
  8
RACCORDO
100
AcDbPolyline
 62
253
  6
CONTINUOUS
 90
4
 70
0
 10
-22.5243231371
 20
5.0997660652
 10
-22.5241157396
 20
5.0974850871
 10
-22.523954422
 20
5.0907156437
 10
-22.5238440831
 20
5.079663741
  0
LWPOLYLINE
  5
763
100
AcDbEntity
  8
ASSI
100
AcDbPolyline
 62
253
  6
CONTINUOUS
 90
4
 70
0
 10
-22.5243231371
 20
5.0997660652
 10
-22.5241157396
 20
5.0974850871
 10
-22.523954422
 20
5.0907156437
 10
-22.5238440831
 20
5.079663741
  0
LINE
  5
764
100
AcDbEntity
  8
RACCORDO
100
AcDbLine
 62
253
  6
CONTINUOUS
 10
-22.523788055
 20
-2.263668826
 11
-22.5239137523
 21
-2.2272912999
  0
LINE
  5
765
100
AcDbEntity
  8
ASSI
100
AcDbLine
 62
253
  6
CONTINUOUS
 10
-22.523788055
 20
-2.263668826
 11
-22.5239137523
 21
-2.2272912999
  0
LINE
  5
766
100
AcDbEntity
  8
RACCORDO
100
AcDbLine
 62
253
  6
CONTINUOUS
 10
-22.5238440831
 20
5.079663741
 11
-22.523788086
 21
5.0461767046
  0
LINE
  5
767
100
AcDbEntity
  8
ASSI
100
AcDbLine
 62
253
  6
CONTINUOUS
 10
-22.5238440831
 20
5.079663741
 11
-22.523788086
 21
5.0461767046
  0
LINE
  5
768
100
AcDbEntity
  8
RACCORDO
100
AcDbLine
 62
7
  6
CONTINUOUS
 10
-22.0786864048
 20
-1.6483585396
 11
-22.0786864048
 21
4.4308720694
  0
LINE
  5
769
100
AcDbEntity
  8
RACCORDO
100
AcDbLine
 62
7
  6
CONTINUOUS
 10
-22.0286864048
 20
4.5996209383
 11
-22.0286864048
 21
-1.817158356
  0
LINE
  5
76A
100
AcDbEntity
  8
ASSI
100
AcDbLine
 62
7
  6
CONTINUOUS
 10
-22.0286864048
 20
4.5996209383
 11
-22.0286864048
 21
-1.817158356
  0
LINE
  5
76B
100
AcDbEntity
  8
RACCORDO
100
AcDbLine
 62
253
  6
CONTINUOUS
 10
-22.523788086
 20
5.0461767046
 11
-22.5239137707
 21
5.0098048349
  0
LINE
  5
76C
100
AcDbEntity
  8
ASSI
100
AcDbLine
 62
253
  6
CONTINUOUS
 10
-22.523788086
 20
5.0461767046
 11
-22.5239137707
 21
5.0098048349
  0
LWPOLYLINE
  5
76D
100
AcDbEntity
  8
RACCORDO
100
AcDbPolyline
 62
253
  6
CONTINUOUS
 90
5
 70
0
 10
-22.5243231371
 20
-2.3172525354
 10
-22.5241157491
 20
-2.3149720219
 10
-22.5239544303
 20
-2.3082037337
 10
-22.5238440818
 20
-2.2971533022
 10
-22.523788055
 20
-2.263668826
  0
LWPOLYLINE
  5
76E
100
AcDbEntity
  8
ASSI
100
AcDbPolyline
 62
253
  6
CONTINUOUS
 90
5
 70
0
 10
-22.5243231371
 20
-2.3172525354
 10
-22.5241157491
 20
-2.3149720219
 10
-22.5239544303
 20
-2.3082037337
 10
-22.5238440818
 20
-2.2971533022
 10
-22.523788055
 20
-2.263668826
  0
ARC
  5
76F
100
AcDbEntity
  8
RACCORDO
100
AcDbCircle
 62
7
  6
CONTINUOUS
 10
-26.9786864048
 20
0.3912567649
 40
1.6
100
AcDbArc
 50
301.7143149194
 51
38.6821874535
  0
ARC
  5
770
100
AcDbEntity
  8
RACCORDO
100
AcDbCircle
 62
7
  6
CONTINUOUS
 10
-26.9786864048
 20
0.3912567649
 40
1.6
100
AcDbArc
 50
201.7867892983
 51
238.7016622811
  0
ARC
  5
771
100
AcDbEntity
  8
ASSI
100
AcDbCircle
 62
7
  6
CONTINUOUS
 10
-26.9786864048
 20
0.3912567649
 40
1.6
100
AcDbArc
 50
301.7143149194
 51
38.6821874535
  0
ARC
  5
772
100
AcDbEntity
  8
ASSI
100
AcDbCircle
 62
7
  6
CONTINUOUS
 10
-26.9786864048
 20
0.3912567649
 40
1.6
100
AcDbArc
 50
201.7867892983
 51
238.7016622811
  0
CIRCLE
  5
773
100
AcDbEntity
  8
0
100
AcDbCircle
 62
7
  6
CONTINUOUS
 10
-26.9786864048
 20
0.3912567649
 40
0.75
  0
ARC
  5
774
100
AcDbEntity
  8
RACCORDO
100
AcDbCircle
 62
7
  6
CONTINUOUS
 10
-27.9786864048
 20
-0.9955912519
 40
0.5
100
AcDbArc
 50
180.0
 51
210.5064810837
  0
ARC
  5
775
100
AcDbEntity
  8
ASSI
100
AcDbCircle
 62
7
  6
CONTINUOUS
 10
-27.9786864048
 20
-0.9955912519
 40
0.5
100
AcDbArc
 50
180.0
 51
210.5064810837
  0
ARC
  5
776
100
AcDbEntity
  8
RACCORDO
100
AcDbCircle
 62
7
  6
CONTINUOUS
 10
-29.0286864048
 20
-1.7973216493
 40
0.5
100
AcDbArc
 50
180.0006264786
 51
268.0000218541
  0
CIRCLE
  5
777
100
AcDbEntity
  8
0
100
AcDbCircle
 62
7
  6
CONTINUOUS
 10
-26.9786864048
 20
0.3912567649
 40
0.4
  0
ARC
  5
778
100
AcDbEntity
  8
RACCORDO
100
AcDbCircle
 62
7
  6
CONTINUOUS
 10
-30.2286864048
 20
-0.0464789912
 40
0.3
100
AcDbArc
 50
180.0
 51
269.0
  0
ARC
  5
779
100
AcDbEntity
  8
RACCORDO
100
AcDbCircle
 62
7
  6
CONTINUOUS
 10
-27.7059784555
 20
-0.8050066982
 40
0.2
100
AcDbArc
 50
238.7016622811
 51
269.5
  0
ARC
  5
77A
100
AcDbEntity
  8
RACCORDO
100
AcDbCircle
 62
7
  6
CONTINUOUS
 10
-28.2786864048
 20
-0.1283584774
 40
0.2
100
AcDbArc
 50
180.0
 51
201.7867892983
  0
ARC
  5
77B
100
AcDbEntity
  8
ASSI
100
AcDbCircle
 62
7
  6
CONTINUOUS
 10
-27.7059784555
 20
-0.8050066982
 40
0.2
100
AcDbArc
 50
238.7016622811
 51
269.5
  0
ARC
  5
77C
100
AcDbEntity
  8
ASSI
100
AcDbCircle
 62
7
  6
CONTINUOUS
 10
-28.2786864048
 20
-0.1283584774
 40
0.2
100
AcDbArc
 50
180.0
 51
201.7867892983
  0
ARC
  5
77D
100
AcDbEntity
  8
RACCORDO
100
AcDbCircle
 62
7
  6
CONTINUOUS
 10
-29.7286864048
 20
-0.5552826877
 40
0.2
100
AcDbArc
 50
0.0
 51
89.0000119293
  0
ARC
  5
77E
100
AcDbEntity
  8
RACCORDO
100
AcDbCircle
 62
7
  6
CONTINUOUS
 10
-28.3286864048
 20
0.9375550682
 40
0.2
100
AcDbArc
 50
138.7022362975
 51
180.0
  0
ARC
  5
77F
100
AcDbEntity
  8
RACCORDO
100
AcDbCircle
 62
7
  6
CONTINUOUS
 10
-26.9786864048
 20
2.3912567649
 40
1.6
100
AcDbArc
 50
321.3178125465
 51
58.2856850806
  0
ARC
  5
780
100
AcDbEntity
  8
RACCORDO
100
AcDbCircle
 62
7
  6
CONTINUOUS
 10
-26.9786864048
 20
2.3912567649
 40
1.6
100
AcDbArc
 50
121.2983377189
 51
158.2132107017
  0
ARC
  5
781
100
AcDbEntity
  8
ASSI
100
AcDbCircle
 62
7
  6
CONTINUOUS
 10
-26.9786864048
 20
2.3912567649
 40
1.6
100
AcDbArc
 50
321.3178125465
 51
58.2856850806
  0
ARC
  5
782
100
AcDbEntity
  8
ASSI
100
AcDbCircle
 62
7
  6
CONTINUOUS
 10
-26.9786864048
 20
2.3912567649
 40
1.6
100
AcDbArc
 50
121.2983377189
 51
158.2132107017
  0
CIRCLE
  5
783
100
AcDbEntity
  8
0
100
AcDbCircle
 62
7
  6
CONTINUOUS
 10
-26.9786864048
 20
2.3912567649
 40
0.75
  0
ARC
  5
784
100
AcDbEntity
  8
RACCORDO
100
AcDbCircle
 62
7
  6
CONTINUOUS
 10
-27.9786864048
 20
3.7781047817
 40
0.5
100
AcDbArc
 50
149.4935189163
 51
180.0
  0
ARC
  5
785
100
AcDbEntity
  8
ASSI
100
AcDbCircle
 62
7
  6
CONTINUOUS
 10
-27.9786864048
 20
3.7781047817
 40
0.5
100
AcDbArc
 50
149.4935189163
 51
180.0
  0
ARC
  5
786
100
AcDbEntity
  8
RACCORDO
100
AcDbCircle
 62
7
  6
CONTINUOUS
 10
-29.0286864048
 20
4.5798350042
 40
0.5
100
AcDbArc
 50
91.9999774483
 51
179.9993534814
  0
CIRCLE
  5
787
100
AcDbEntity
  8
0
100
AcDbCircle
 62
7
  6
CONTINUOUS
 10
-26.9786864048
 20
2.3912567649
 40
0.4
  0
ARC
  5
788
100
AcDbEntity
  8
RACCORDO
100
AcDbCircle
 62
7
  6
CONTINUOUS
 10
-30.2286864048
 20
2.828992521
 40
0.3
100
AcDbArc
 50
91.0
 51
180.0
  0
ARC
  5
789
100
AcDbEntity
  8
RACCORDO
100
AcDbCircle
 62
7
  6
CONTINUOUS
 10
-27.7059784555
 20
3.587520228
 40
0.2
100
AcDbArc
 50
90.5
 51
121.2983377189
  0
ARC
  5
78A
100
AcDbEntity
  8
RACCORDO
100
AcDbCircle
 62
7
  6
CONTINUOUS
 10
-28.2786864048
 20
2.9108720072
 40
0.2
100
AcDbArc
 50
158.2132107017
 51
180.0
  0
ARC
  5
78B
100
AcDbEntity
  8
ASSI
100
AcDbCircle
 62
7
  6
CONTINUOUS
 10
-27.7059784555
 20
3.587520228
 40
0.2
100
AcDbArc
 50
90.5
 51
121.2983377189
  0
ARC
  5
78C
100
AcDbEntity
  8
ASSI
100
AcDbCircle
 62
7
  6
CONTINUOUS
 10
-28.2786864048
 20
2.9108720072
 40
0.2
100
AcDbArc
 50
158.2132107017
 51
180.0
  0
ARC
  5
78D
100
AcDbEntity
  8
RACCORDO
100
AcDbCircle
 62
7
  6
CONTINUOUS
 10
-29.7286864048
 20
3.3377962175
 40
0.2
100
AcDbArc
 50
271.0
 51
360.0
  0
ARC
  5
78E
100
AcDbEntity
  8
RACCORDO
100
AcDbCircle
 62
7
  6
CONTINUOUS
 10
-28.3286864048
 20
2.3049584616
 40
0.2
100
AcDbArc
 50
180.0
 51
221.2977640754
  0
ARC
  5
78F
100
AcDbEntity
  8
RACCORDO
100
AcDbCircle
 62
7
  6
CONTINUOUS
 10
-22.6786864048
 20
-1.6483585396
 40
0.6
100
AcDbArc
 50
271.0
 51
360.0
  0
ARC
  5
790
100
AcDbEntity
  8
RACCORDO
100
AcDbCircle
 62
7
  6
CONTINUOUS
 10
-22.5286864048
 20
-1.8172660984
 40
0.5
100
AcDbArc
 50
270.499994527
 51
359.9993725557
  0
ARC
  5
791
100
AcDbEntity
  8
ASSI
100
AcDbCircle
 62
7
  6
CONTINUOUS
 10
-22.5286864048
 20
-1.8172660984
 40
0.5
100
AcDbArc
 50
270.499994527
 51
359.9993725557
  0
ARC
  5
792
100
AcDbEntity
  8
RACCORDO
100
AcDbCircle
 62
7
  6
CONTINUOUS
 10
-25.1286864048
 20
-0.7266056367
 40
0.35
100
AcDbArc
 50
273.0
 51
360.0
  0
ARC
  5
793
100
AcDbEntity
  8
RACCORDO
100
AcDbCircle
 62
7
  6
CONTINUOUS
 10
-26.2427285201
 20
-0.7996949519
 40
0.2
100
AcDbArc
 50
270.5
 51
301.7143149194
  0
ARC
  5
794
100
AcDbEntity
  8
ASSI
100
AcDbCircle
 62
7
  6
CONTINUOUS
 10
-26.2427285201
 20
-0.7996949519
 40
0.2
100
AcDbArc
 50
270.5
 51
301.7143149194
  0
ARC
  5
795
100
AcDbEntity
  8
DRAFT
100
AcDbCircle
 62
7
  6
CONTINUOUS
 10
-25.7786864048
 20
1.3912567649
 40
2.2
100
AcDbArc
 50
200.0883146301
 51
207.8619718643
  0
ARC
  5
796
100
AcDbEntity
  8
DRAFT
100
AcDbCircle
 62
7
  6
CONTINUOUS
 10
-25.7786864048
 20
1.3912567649
 40
2.2
100
AcDbArc
 50
152.1284458219
 51
159.9211106176
  0
ARC
  5
797
100
AcDbEntity
  8
DRAFT
100
AcDbCircle
 62
7
  6
CONTINUOUS
 10
-25.7786864048
 20
1.3912567649
 40
2.2
100
AcDbArc
 50
124.9057227251
 51
128.1596397213
  0
ARC
  5
798
100
AcDbEntity
  8
RACCORDO
100
AcDbCircle
 62
7
  6
CONTINUOUS
 10
-22.6786864048
 20
4.4308720694
 40
0.6
100
AcDbArc
 50
0.0
 51
89.0
  0
ARC
  5
799
100
AcDbEntity
  8
RACCORDO
100
AcDbCircle
 62
7
  6
CONTINUOUS
 10
-22.5286864048
 20
4.5997851037
 40
0.5
100
AcDbArc
 50
359.981188034
 51
89.5
  0
ARC
  5
79A
100
AcDbEntity
  8
ASSI
100
AcDbCircle
 62
7
  6
CONTINUOUS
 10
-22.5286864048
 20
4.5997851037
 40
0.5
100
AcDbArc
 50
359.981188034
 51
89.5
  0
ARC
  5
79B
100
AcDbEntity
  8
RACCORDO
100
AcDbCircle
 62
7
  6
CONTINUOUS
 10
-25.1286864048
 20
3.5091191666
 40
0.35
100
AcDbArc
 50
0.0
 51
87.0
  0
ARC
  5
79C
100
AcDbEntity
  8
RACCORDO
100
AcDbCircle
 62
7
  6
CONTINUOUS
 10
-26.2427285201
 20
3.5822084817
 40
0.2
100
AcDbArc
 50
58.2856850806
 51
89.5
  0
ARC
  5
79D
100
AcDbEntity
  8
ASSI
100
AcDbCircle
 62
7
  6
CONTINUOUS
 10
-26.2427285201
 20
3.5822084817
 40
0.2
100
AcDbArc
 50
58.2856850806
 51
89.5
  0
ELLIPSE
  5
79E
100
AcDbEntity
  8
DRAFT
100
AcDbEllipse
 62
7
  6
CONTINUOUS
 10
-26.9795084534
 20
2.3912567649
 30
0.0
 11
0.8986285802
 21
0.0
 31
0.0
 40
0.9999995816
 41
5.1725642146
 42
10.5365348994
  0
ELLIPSE
  5
79F
100
AcDbEntity
  8
DRAFT
100
AcDbEllipse
 62
7
  6
CONTINUOUS
 10
-26.9795084534
 20
0.3912567649
 30
0.0
 11
0.8986285802
 21
0.0
 31
0.0
 40
0.9999995816
 41
2.029835715
 42
7.3938063997
  0
ELLIPSE
  5
7A0
100
AcDbEntity
  8
DRAFT
100
AcDbEllipse
 62
7
  6
CONTINUOUS
 10
-26.9791890446
 20
0.3912567649
 30
0.0
 11
1.0990125844
 21
0.0
 31
0.0
 40
0.9999998954
 41
-1.8468022765
 42
0.9941040743
  0
ELLIPSE
  5
7A1
100
AcDbEntity
  8
DRAFT
100
AcDbEllipse
 62
7
  6
CONTINUOUS
 10
-26.9791890446
 20
2.3912567649
 30
0.0
 11
1.0990125844
 21
0.0
 31
0.0
 40
0.9999998954
 41
-0.9941040743
 42
1.8468022765
  0
ELLIPSE
  5
7A2
100
AcDbEntity
  8
RACCORDO
100
AcDbEllipse
 62
7
  6
CONTINUOUS
 10
-25.3155854072
 20
3.2741060028
 30
0.0
 11
0.5009007152
 21
-0.0038254608
 31
0.0
 40
0.9981726973
 41
0.0076230607
 42
1.4635937072
  0
ELLIPSE
  5
7A3
100
AcDbEntity
  8
DRAFT
100
AcDbEllipse
 62
7
  6
CONTINUOUS
 10
-26.9781836396
 20
2.3912567649
 30
0.0
 11
1.0992869979
 21
-0.0
 31
0.0
 40
0.9999998954
 41
1.8476822578
 42
4.1355613032
  0
ELLIPSE
  5
7A4
100
AcDbEntity
  8
DRAFT
100
AcDbEllipse
 62
7
  6
CONTINUOUS
 10
-26.9781836396
 20
0.3912567649
 30
0.0
 11
1.0992869979
 21
-0.0
 31
0.0
 40
0.9999998954
 41
2.147624004
 42
4.4355030494
  0
ELLIPSE
  5
7A5
100
AcDbEntity
  8
RACCORDO
100
AcDbEllipse
 62
7
  6
CONTINUOUS
 10
-25.3155854072
 20
-0.491592473
 30
0.0
 11
0.5009007152
 21
0.0038254608
 31
0.0
 40
0.9981726973
 41
-1.5697047011
 42
-0.0076230607
  0
ELLIPSE
  5
7A6
100
AcDbEntity
  8
ASSI
100
AcDbEllipse
 62
7
  6
CONTINUOUS
 10
-26.9795084534
 20
0.3912567649
 30
0.0
 11
0.8986285802
 21
0.0
 31
0.0
 40
0.9999995816
 41
2.029835715
 42
7.3938063997
  0
ELLIPSE
  5
7A7
100
AcDbEntity
  8
ASSI
100
AcDbEllipse
 62
7
  6
CONTINUOUS
 10
-26.9795084534
 20
2.3912567649
 30
0.0
 11
0.8986285802
 21
0.0
 31
0.0
 40
0.9999995816
 41
5.1725642146
 42
10.5365348994
  0
ELLIPSE
  5
7A8
100
AcDbEntity
  8
ASSI
100
AcDbEllipse
 62
7
  6
CONTINUOUS
 10
-26.9781836396
 20
2.3912567649
 30
0.0
 11
1.0992869979
 21
-0.0
 31
0.0
 40
0.9999998954
 41
1.8476822578
 42
4.1355613032
  0
ELLIPSE
  5
7A9
100
AcDbEntity
  8
ASSI
100
AcDbEllipse
 62
7
  6
CONTINUOUS
 10
-26.9781836396
 20
0.3912567649
 30
0.0
 11
1.0992869979
 21
-0.0
 31
0.0
 40
0.9999998954
 41
2.147624004
 42
4.4355030494
  0
ELLIPSE
  5
7AA
100
AcDbEntity
  8
ASSI
100
AcDbEllipse
 62
7
  6
CONTINUOUS
 10
-26.9791890446
 20
0.3912567649
 30
0.0
 11
1.0990125844
 21
0.0
 31
0.0
 40
0.9999998954
 41
-1.8468022765
 42
0.9941040743
  0
ELLIPSE
  5
7AB
100
AcDbEntity
  8
ASSI
100
AcDbEllipse
 62
7
  6
CONTINUOUS
 10
-26.9791890446
 20
2.3912567649
 30
0.0
 11
1.0990125844
 21
0.0
 31
0.0
 40
0.9999998954
 41
-0.9941040743
 42
1.8468022765
  0
ELLIPSE
  5
7AC
100
AcDbEntity
  8
ASSI
100
AcDbEllipse
 62
7
  6
CONTINUOUS
 10
-25.3155854072
 20
3.2741060028
 30
0.0
 11
0.5009007152
 21
-0.0038254608
 31
0.0
 40
0.9981726973
 41
0.0076230607
 42
1.4635937072
  0
ELLIPSE
  5
7AD
100
AcDbEntity
  8
ASSI
100
AcDbEllipse
 62
7
  6
CONTINUOUS
 10
-25.3155854072
 20
-0.491592473
 30
0.0
 11
0.5009007152
 21
0.0038254608
 31
0.0
 40
0.9981726973
 41
-1.5697047011
 42
-0.0076230607
  0
ENDSEC
  0
SECTION
  2
OBJECTS
  0
DICTIONARY
  5
C
100
AcDbDictionary
280
0
281
1
  3
ACAD_GROUP
350
D
  3
ACAD_MLINESTYLE
350
17
  3
ACAD_LAYOUT
350
1A
  3
ACAD_PLOTSETTINGS
350
19
  3
ACAD_PLOTSTYLENAME
350
E
  0
DICTIONARY
  5
D
102
{ACAD_REACTORS
330
C
102
}
100
AcDbDictionary
280
0
281
1
  0
ACDBDICTIONARYWDFLT
  5
E
102
{ACAD_REACTORS
330
C
102
}
100
AcDbDictionary
281
1
  3
Normal
350
F
100
AcDbDictionaryWithDefault
340
F
  0
DICTIONARY
  5
17
102
{ACAD_REACTORS
330
C
102
}
100
AcDbDictionary
280
0
281
1
  3
Standard
350
18
  0
DICTIONARY
  5
19
102
{ACAD_REACTORS
330
C
102
}
100
AcDbDictionary
281
1
  0
DICTIONARY
  5
1A
102
{ACAD_REACTORS
330
C
102
}
100
AcDbDictionary
281
1
  3
Model
350
7AE
  3
Layout1
350
7AF
  0
ACDBPLACEHOLDER
  5
F
102
{ACAD_REACTORS
330
E
102
}
  0
MLINESTYLE
  5
18
102
{ACAD_REACTORS
330
17
102
}
100
AcDbMlineStyle
  2
STANDARD
 70
0
  3

 62
256
 51
90.0
 52
90.0
 71
2
 49
0.5
 62
256
  6
BYLAYER
 49
-0.5
 62
256
  6
BYLAYER
  0
LAYOUT
  5
7AE
102
{ACAD_REACTORS
330
1A
102
}
100
AcDbPlotSettings
  1

  2
none_device
  4
ISO_A4_(297.00_x_210.00_MM)
  6

 40
0.0
 41
0.0
 42
0.0
 43
0.0
 44
297.0
 45
210.0
 46
0.0
 47
0.0
 48
0.0
 49
0.0
140
0.0
141
0.0
142
1.0
143
1.0
 70
1024
 72
1
 73
0
 74
0
  7

 75
0
147
1.0
148
0.0
149
0.0
100
AcDbLayout
  1
Model
 70
0
 71
0
 10
0.0
 20
0.0
 11
297.0
 21
210.0
 12
0.0
 22
0.0
 32
0.0
 14
0.0
 24
0.0
 34
0.0
 15
0.0
 25
0.0
 35
0.0
146
0.0
 13
0.0
 23
0.0
 33
0.0
 16
1.0
 26
0.0
 36
0.0
 17
0.0
 27
1.0
 37
0.0
 76
0
330
212
345
0
346
0
  0
LAYOUT
  5
7AF
102
{ACAD_REACTORS
330
1A
102
}
100
AcDbPlotSettings
  1

  2
none_device
  4
ISO_A4_(297.00_x_210.00_MM)
  6

 40
0.0
 41
0.0
 42
0.0
 43
0.0
 44
297.0
 45
210.0
 46
0.0
 47
0.0
 48
0.0
 49
0.0
140
0.0
141
0.0
142
1.0
143
1.0
 70
0
 72
1
 73
0
 74
0
  7

 75
0
147
1.0
148
0.0
149
0.0
100
AcDbLayout
  1
Layout1
 70
0
 71
1
 10
0.0
 20
0.0
 11
297.0
 21
210.0
 12
0.0
 22
0.0
 32
0.0
 14
0.0
 24
0.0
 34
0.0
 15
0.0
 25
0.0
 35
0.0
146
0.0
 13
0.0
 23
0.0
 33
0.0
 16
1.0
 26
0.0
 36
0.0
 17
0.0
 27
1.0
 37
0.0
 76
0
330
213
345
0
346
0
  0
ENDSEC
  0
EOF
