  0
SECTION
  2
HEADER
  9
$ACADVER
  1
AC1021
  9
$DWGCODEPAGE
  3
ANSI_1252
  9
$EXTMAX
 10
297.0
 20
210.0
 30
0.0
  9
$EXTMIN
 10
0.0
 20
0.0
 30
0.0
  9
$LIMMIN
 10
0.0
 20
0.0
  9
$LIMMAX
 10
297.0
 20
210.0
  9
$VIEWCTR
 10
148.5
 20
105.0
  9
$VIEWSIZE
 40
210.0
  9
$CLAYER
  8
0
  9
$LTSCALE
 40
16.335
  9
$CELTYPE
  6
BYLAYER
  9
$DIMSCALE
 40
1.0
  9
$DIMASZ
 40
3.0
  9
$DIMEXO
 40
0.5
  9
$DIMDLI
 40
11.286
  9
$DIMEXE
 40
1.5
  9
$DIMCEN
 40
2.673
  9
$DIMLFAC
 40
1.0
  9
$DIMBLK
  1
_FILLED
  9
$DIMALT
 70
0
  9
$DIMALTF
 40
0.0393700787
  9
$DIMTXT
 40
3.0
  9
$DIMTOL
 70
1
  9
$DIMLIM
 70
0
  9
$DIMTFAC
 40
1.0
  9
$DIMTP
 40
0.01
  9
$DIMTM
 40
0.01
  9
$DIMGAP
 40
0.625
  9
$DIMDSEP
 70
44
  9
$AUNITS
 70
0
  9
$PDMODE
 70
3
  9
$PDSIZE
 40
3.0
  9
$HANDSEED
  5
7AB
  9
$TILEMODE
 70
1
  9
$MEASUREMENT
 70
1
  9
$INSUNITS
 70
4
  0
ENDSEC
  0
SECTION
  2
CLASSES
  0
CLASS
  1
ACDBDICTIONARYWDFLT
  2
AcDbDictionaryWithDefault
  3
AutoCAD 2000
 90
0
 91
1
280
0
281
0
  0
CLASS
  1
ACDBPLACEHOLDER
  2
AcDbPlaceHolder
  3
AutoCAD 2000
 90
0
 91
1
280
0
281
0
  0
CLASS
  1
LAYOUT
  2
AcDbLayout
  3
AutoCAD 2000
 90
0
 91
0
280
0
281
0
  0
ENDSEC
  0
SECTION
  2
TABLES
  0
TABLE
  2
VPORT
  5
8
100
AcDbSymbolTable
 70
2
  0
VPORT
  5
1F4
100
AcDbSymbolTableRecord
100
AcDbViewportTableRecord
  2
*ACTIVE
 70
0
 10
0.0
 20
0.0
 11
1.0
 21
1.0
 12
148.5
 22
105.0
 13
0.0
 23
0.0
 14
1.0
 24
1.0
 15
0.0
 25
0.0
 16
0.0
 26
0.0
 36
1.0
 17
0.0
 27
0.0
 37
0.0
 40
210.0
 41
1.4142857143
 42
50.0
 43
0.0
 44
0.0
 50
0.0
 51
0.0
 71
0
 72
100
 73
1
 74
1
 75
0
 76
0
 77
0
 78
0
  0
ENDTAB
  0
TABLE
  2
LTYPE
  5
5
100
AcDbSymbolTable
 70
6
  0
LTYPE
  5
14
100
AcDbSymbolTableRecord
100
AcDbLinetypeTableRecord
  2
BYBLOCK
 70
0
  3

 72
65
 73
0
 40
0.0
  0
LTYPE
  5
15
100
AcDbSymbolTableRecord
100
AcDbLinetypeTableRecord
  2
BYLAYER
 70
0
  3

 72
65
 73
0
 40
0.0
  0
LTYPE
  5
16
100
AcDbSymbolTableRecord
100
AcDbLinetypeTableRecord
  2
CONTINUOUS
 70
64
  3
Solid line
 72
65
 73
0
 40
0.0
  0
LTYPE
  5
1F5
100
AcDbSymbolTableRecord
100
AcDbLinetypeTableRecord
  2
CENTER
 70
64
  3
____ _ ____ _ ____ _ ____ _ ____ _ ____ _ ____
 72
65
 73
4
 40
0.6
 49
0.375
 74
0
 49
-0.075
 74
0
 49
0.075
 74
0
 49
-0.075
 74
0
  0
LTYPE
  5
1F6
100
AcDbSymbolTableRecord
100
AcDbLinetypeTableRecord
  2
HIDDEN
 70
64
  3
- - - - - - - - - - - - - - - - - - - -
 72
65
 73
2
 40
0.2
 49
0.1
 74
0
 49
-0.1
 74
0
  0
LTYPE
  5
1F7
100
AcDbSymbolTableRecord
100
AcDbLinetypeTableRecord
  2
PHANTOM
 70
64
  3
_____ _ _ _____ _ _ _____ _ _ _____
 72
65
 73
6
 40
0.8
 49
0.45
 74
0
 49
-0.05
 74
0
 49
0.1
 74
0
 49
-0.05
 74
0
 49
0.1
 74
0
 49
-0.05
 74
0
  0
LTYPE
  5
1F8
100
AcDbSymbolTableRecord
100
AcDbLinetypeTableRecord
  2
DOT
 70
64
  3
. . . . . . . . . . . . . . . . . . . .
 72
65
 73
2
 40
0.2
 49
0.1
 74
0
 49
-0.1
 74
0
  0
LTYPE
  5
1F9
100
AcDbSymbolTableRecord
100
AcDbLinetypeTableRecord
  2
DASHED
 70
64
  3
- - - - - - - - - - - - - - - - - - - -
 72
65
 73
2
 40
0.2
 49
0.1
 74
0
 49
-0.1
 74
0
  0
ENDTAB
  0
TABLE
  2
LAYER
  5
2
100
AcDbSymbolTable
 70
36
  0
LAYER
  5
10
100
AcDbSymbolTableRecord
100
AcDbLayerTableRecord
  2
0
 70
0
 62
7
  6
CONTINUOUS
370
-3
390
F
  0
LAYER
  5
1FA
100
AcDbSymbolTableRecord
100
AcDbLayerTableRecord
  2
DEFAULT_1
 70
0
 62
7
  6
CENTER
370
-3
390
F
  0
LAYER
  5
1FB
100
AcDbSymbolTableRecord
100
AcDbLayerTableRecord
  2
DEFAULT_2
 70
0
 62
7
  6
HIDDEN
370
-3
390
F
  0
LAYER
  5
1FC
100
AcDbSymbolTableRecord
100
AcDbLayerTableRecord
  2
DEFAULT_3
 70
0
 62
7
  6
PHANTOM
370
-3
390
F
  0
LAYER
  5
1FD
100
AcDbSymbolTableRecord
100
AcDbLayerTableRecord
  2
ASSI
 70
0
 62
7
  6
CONTINUOUS
370
-3
390
F
  0
LAYER
  5
1FE
100
AcDbSymbolTableRecord
100
AcDbLayerTableRecord
  2
COLORI
 70
0
 62
7
  6
CONTINUOUS
370
-3
390
F
  0
LAYER
  5
1FF
100
AcDbSymbolTableRecord
100
AcDbLayerTableRecord
  2
COORDINATE
 70
0
 62
7
  6
CONTINUOUS
370
-3
390
F
  0
LAYER
  5
200
100
AcDbSymbolTableRecord
100
AcDbLayerTableRecord
  2
COPY_PUBLISH
 70
0
 62
7
  6
CONTINUOUS
370
-3
390
F
  0
LAYER
  5
201
100
AcDbSymbolTableRecord
100
AcDbLayerTableRecord
  2
COSMETICI
 70
0
 62
7
  6
CONTINUOUS
370
-3
390
F
  0
LAYER
  5
202
100
AcDbSymbolTableRecord
100
AcDbLayerTableRecord
  2
CURVE
 70
0
 62
7
  6
CONTINUOUS
370
-3
390
F
  0
LAYER
  5
203
100
AcDbSymbolTableRecord
100
AcDbLayerTableRecord
  2
DRAFT
 70
0
 62
7
  6
CONTINUOUS
370
-3
390
F
  0
LAYER
  5
204
100
AcDbSymbolTableRecord
100
AcDbLayerTableRecord
  2
IMPORT_IGES
 70
0
 62
7
  6
CONTINUOUS
370
-3
390
F
  0
LAYER
  5
205
100
AcDbSymbolTableRecord
100
AcDbLayerTableRecord
  2
NOTE
 70
0
 62
7
  6
CONTINUOUS
370
-3
390
F
  0
LAYER
  5
206
100
AcDbSymbolTableRecord
100
AcDbLayerTableRecord
  2
PIANI
 70
0
 62
7
  6
CONTINUOUS
370
-3
390
F
  0
LAYER
  5
207
100
AcDbSymbolTableRecord
100
AcDbLayerTableRecord
  2
PUNTI
 70
0
 62
7
  6
CONTINUOUS
370
-3
390
F
  0
LAYER
  5
208
100
AcDbSymbolTableRecord
100
AcDbLayerTableRecord
  2
RACCORDO
 70
0
 62
7
  6
CONTINUOUS
370
-3
390
F
  0
LAYER
  5
209
100
AcDbSymbolTableRecord
100
AcDbLayerTableRecord
  2
SCRITTE
 70
0
 62
7
  6
CONTINUOUS
370
-3
390
F
  0
LAYER
  5
20A
100
AcDbSymbolTableRecord
100
AcDbLayerTableRecord
  2
SIMBOLI
 70
0
 62
7
  6
CONTINUOUS
370
-3
390
F
  0
LAYER
  5
20B
100
AcDbSymbolTableRecord
100
AcDbLayerTableRecord
  2
SMUSSO
 70
0
 62
7
  6
CONTINUOUS
370
-3
390
F
  0
LAYER
  5
20C
100
AcDbSymbolTableRecord
100
AcDbLayerTableRecord
  2
SNAPLINE
 70
0
 62
7
  6
CONTINUOUS
370
-3
390
F
  0
LAYER
  5
20D
100
AcDbSymbolTableRecord
100
AcDbLayerTableRecord
  2
SUPERFICI
 70
0
 62
7
  6
CONTINUOUS
370
-3
390
F
  0
LAYER
  5
20E
100
AcDbSymbolTableRecord
100
AcDbLayerTableRecord
  2
TRASH
 70
0
 62
7
  6
CONTINUOUS
370
-3
390
F
  0
LAYER
  5
20F
100
AcDbSymbolTableRecord
100
AcDbLayerTableRecord
  2
XSEC_DATUMS
 70
0
 62
7
  6
CONTINUOUS
370
-3
390
F
  0
ENDTAB
  0
TABLE
  2
STYLE
  5
3
100
AcDbSymbolTable
 70
1
  0
STYLE
  5
11
100
AcDbSymbolTableRecord
100
AcDbTextStyleTableRecord
  2
STANDARD
 70
0
 40
0.0
 41
0.8
 50
0.0
 71
0
 42
0.2
  3
txt
  4

  0
STYLE
  5
210
100
AcDbSymbolTableRecord
100
AcDbTextStyleTableRecord
  2
TEXTSTYLE_1
 70
0
 40
0.0
 41
0.8
 50
0.0
 71
0
 42
0.2
  3
gdt
  4

  0
ENDTAB
  0
TABLE
  2
VIEW
  5
6
100
AcDbSymbolTable
 70
0
  0
ENDTAB
  0
TABLE
  2
UCS
  5
7
100
AcDbSymbolTable
 70
0
  0
ENDTAB
  0
TABLE
  2
APPID
  5
9
100
AcDbSymbolTable
 70
1
  0
APPID
  5
211
100
AcDbSymbolTableRecord
100
AcDbRegAppTableRecord
  2
ACAD
 70
0
  0
ENDTAB
  0
TABLE
  2
BLOCK_RECORD
  5
1
100
AcDbSymbolTable
 70
0
  0
BLOCK_RECORD
  5
212
100
AcDbSymbolTableRecord
100
AcDbBlockTableRecord
  2
*Model_Space
  0
BLOCK_RECORD
  5
213
100
AcDbSymbolTableRecord
100
AcDbBlockTableRecord
  2
*Paper_Space
  0
BLOCK_RECORD
  5
214
100
AcDbSymbolTableRecord
100
AcDbBlockTableRecord
  2
_FILLED
  0
BLOCK_RECORD
  5
215
100
AcDbSymbolTableRecord
100
AcDbBlockTableRecord
  2
*D0
  0
BLOCK_RECORD
  5
216
100
AcDbSymbolTableRecord
100
AcDbBlockTableRecord
  2
*D1
  0
BLOCK_RECORD
  5
217
100
AcDbSymbolTableRecord
100
AcDbBlockTableRecord
  2
*D2
  0
BLOCK_RECORD
  5
218
100
AcDbSymbolTableRecord
100
AcDbBlockTableRecord
  2
*D3
  0
BLOCK_RECORD
  5
219
100
AcDbSymbolTableRecord
100
AcDbBlockTableRecord
  2
*D4
  0
BLOCK_RECORD
  5
21A
100
AcDbSymbolTableRecord
100
AcDbBlockTableRecord
  2
*D5
  0
BLOCK_RECORD
  5
21B
100
AcDbSymbolTableRecord
100
AcDbBlockTableRecord
  2
*D6
  0
ENDTAB
  0
TABLE
  2
DIMSTYLE
  5
A
100
AcDbSymbolTable
 70
1
100
AcDbDimStyleTable
 71
0
  0
DIMSTYLE
105
21C
100
AcDbSymbolTableRecord
100
AcDbDimStyleTableRecord
  2
STANDARD
 70
0
  3

  4

 40
1.0
 41
3.0
 42
0.5
 43
0.38
 44
1.5
 45
0.0
 46
0.0
 47
0.01
 48
0.01
140
3.0
141
0.09
142
0.0
143
25.4
144
1.0
145
0.0
146
1.0
147
0.625
 71
1.0
 72
0.0
 73
0
 74
0
 75
0
 76
0
 77
1
 78
8
170
0
171
2
172
0
173
0
174
0
175
0
176
0
177
0
178
0
270
2
271
2
272
2
273
2
274
2
275
0
280
0
281
0
282
0
283
1
284
8
285
0
286
0
287
3
288
0
340
11
278
44
341
214
342
214
343
214
344
214
  0
DIMSTYLE
105
21D
100
AcDbSymbolTableRecord
100
AcDbDimStyleTableRecord
  2
DIMSTYLE_1
 70
0
  3

  4

 40
1.0
 41
3.0
 42
0.5
 43
0.38
 44
1.5
 45
0.0
 46
0.0
 47
0.0
 48
0.0
140
3.0
141
0.09
142
0.0
143
25.4
144
1.0
145
0.0
146
1.0
147
0.75
 71
0.0
 72
0.0
 73
0
 74
0
 75
0
 76
0
 77
1
 78
8
170
0
171
2
172
0
173
0
174
0
175
0
176
0
177
0
178
0
270
2
271
2
272
2
273
2
274
2
275
0
280
0
281
0
282
0
283
1
284
8
285
0
286
0
287
3
288
0
340
11
278
44
341
214
342
214
343
214
344
214
  0
DIMSTYLE
105
21E
100
AcDbSymbolTableRecord
100
AcDbDimStyleTableRecord
  2
DIMSTYLE_2
 70
0
  3

  4

 40
1.0
 41
3.0
 42
0.5
 43
0.38
 44
1.5
 45
0.0
 46
0.0
 47
0.0
 48
0.0
140
3.0
141
0.09
142
0.0
143
25.4
144
1.0
145
0.0
146
1.0
147
0.75
 71
0.0
 72
0.0
 73
0
 74
0
 75
0
 76
0
 77
1
 78
8
170
0
171
2
172
0
173
0
174
0
175
0
176
0
177
0
178
0
270
2
271
1
272
1
273
2
274
2
275
0
280
0
281
0
282
0
283
1
284
8
285
0
286
0
287
3
288
0
340
11
278
44
341
214
342
214
343
214
344
214
  0
ENDTAB
  0
ENDSEC
  0
SECTION
  2
BLOCKS
  0
BLOCK
  5
20
100
AcDbEntity
  8
0
100
AcDbBlockBegin
  2
*Model_Space
 70
0
 10
0.0
 20
0.0
 30
0.0
  3
*Model_Space
  1

  0
ENDBLK
  5
21
100
AcDbEntity
  8
0
100
AcDbBlockEnd
  0
BLOCK
  5
1C
100
AcDbEntity
  8
0
100
AcDbBlockBegin
  2
*Paper_Space
 70
0
 10
0.0
 20
0.0
 30
0.0
  3
*Paper_Space
  1

  0
ENDBLK
  5
1D
100
AcDbEntity
  8
0
100
AcDbBlockEnd
  0
BLOCK
  5
21F
100
AcDbEntity
  8
0
100
AcDbBlockBegin
  2
_FILLED
 70
64
 10
0.0
 20
0.0
  3
_FILLED
  1

  0
SOLID
  5
220
100
AcDbEntity
  8
0
  6
BYBLOCK
 62
0
100
AcDbTrace
 10
0.0
 20
0.0
 11
-1.0
 21
0.3166666667
 12
-1.0
 22
-0.3166666667
 13
-1.0
 23
-0.3166666667
  0
ENDBLK
  5
221
100
AcDbEntity
  8
0
  6
BYBLOCK
 62
0
100
AcDbBlockEnd
  0
BLOCK
  5
222
100
AcDbEntity
  8
0
100
AcDbBlockBegin
 62
7
  6
CONTINUOUS
  2
*D0
 70
65
 10
0.0
 20
0.0
  3
*D0
  1

  0
MTEXT
  5
223
100
AcDbEntity
  8
0
100
AcDbMText
 62
7
  6
CONTINUOUS
  7
STANDARD
 71
2
 72
1
 10
-20.4759827401
 20
-9.4039695331
 30
0.0
 11
1.0
 21
0.0
 31
0.0
 44
0.9
  1
7,5
 40
3.0
 41
9.3214285714
  0
LINE
  5
224
100
AcDbEntity
  8
0
100
AcDbLine
 62
7
  6
CONTINUOUS
 10
-16.7259827401
 20
-5.0601167177
 11
-16.7259827401
 21
-14.6539695331
  0
LINE
  5
225
100
AcDbEntity
  8
0
100
AcDbLine
 62
7
  6
CONTINUOUS
 10
-24.2259827401
 20
-4.5505253305
 11
-24.2259827401
 21
-14.6539695331
  0
LINE
  5
226
100
AcDbEntity
  8
0
100
AcDbLine
 62
7
  6
CONTINUOUS
 10
-16.7259827401
 20
-13.1539695331
 11
-12.7259827401
 21
-13.1539695331
  0
LINE
  5
227
100
AcDbEntity
  8
0
100
AcDbLine
 62
7
  6
CONTINUOUS
 10
-12.7259827401
 20
-13.1539695331
 11
-20.4759827401
 21
-13.1539695331
  0
LINE
  5
228
100
AcDbEntity
  8
0
100
AcDbLine
 62
7
  6
CONTINUOUS
 10
-24.2259827401
 20
-13.1539695331
 11
-28.2259827401
 21
-13.1539695331
  0
LINE
  5
229
100
AcDbEntity
  8
0
100
AcDbLine
 62
7
  6
CONTINUOUS
 10
-28.2259827401
 20
-13.1539695331
 11
-20.4759827401
 21
-13.1539695331
  0
INSERT
  5
22A
100
AcDbEntity
  8
0
100
AcDbBlockReference
 62
7
  6
CONTINUOUS
  2
_FILLED
 10
-16.7259827401
 20
-13.1539695331
 41
3.0
 42
3.0
 43
3.0
 50
180.0
  0
INSERT
  5
22B
100
AcDbEntity
  8
0
100
AcDbBlockReference
 62
7
  6
CONTINUOUS
  2
_FILLED
 10
-24.2259827401
 20
-13.1539695331
 41
3.0
 42
3.0
 43
3.0
 50
0.0
  0
ENDBLK
  5
22C
100
AcDbEntity
  8
0
  6
BYBLOCK
 62
0
100
AcDbBlockEnd
  0
BLOCK
  5
22D
100
AcDbEntity
  8
0
100
AcDbBlockBegin
 62
7
  6
CONTINUOUS
  2
*D1
 70
65
 10
0.0
 20
0.0
  3
*D1
  1

  0
MTEXT
  5
22E
100
AcDbEntity
  8
0
100
AcDbMText
 62
7
  6
CONTINUOUS
  7
STANDARD
 71
2
 72
1
 10
-48.548808773
 20
-1.3515883789
 30
0.0
 11
0.0
 21
1.0
 31
0.0
 44
0.9
  1
7,5
 40
3.0
 41
9.3214285714
  0
LINE
  5
22F
100
AcDbEntity
  8
0
100
AcDbLine
 62
7
  6
CONTINUOUS
 10
-22.4759827401
 20
2.3984116211
 11
-46.298808773
 21
2.3984116211
  0
LINE
  5
230
100
AcDbEntity
  8
0
100
AcDbLine
 62
7
  6
CONTINUOUS
 10
-22.4759827401
 20
-5.1015883789
 11
-46.298808773
 21
-5.1015883789
  0
LINE
  5
231
100
AcDbEntity
  8
0
100
AcDbLine
 62
7
  6
CONTINUOUS
 10
-44.798808773
 20
2.3984116211
 11
-44.798808773
 21
6.3984116211
  0
LINE
  5
232
100
AcDbEntity
  8
0
100
AcDbLine
 62
7
  6
CONTINUOUS
 10
-44.798808773
 20
6.3984116211
 11
-44.798808773
 21
-1.3515883789
  0
LINE
  5
233
100
AcDbEntity
  8
0
100
AcDbLine
 62
7
  6
CONTINUOUS
 10
-44.798808773
 20
-5.1015883789
 11
-44.798808773
 21
-9.1015883789
  0
LINE
  5
234
100
AcDbEntity
  8
0
100
AcDbLine
 62
7
  6
CONTINUOUS
 10
-44.798808773
 20
-9.1015883789
 11
-44.798808773
 21
-1.3515883789
  0
INSERT
  5
235
100
AcDbEntity
  8
0
100
AcDbBlockReference
 62
7
  6
CONTINUOUS
  2
_FILLED
 10
-44.798808773
 20
2.3984116211
 41
3.0
 42
3.0
 43
3.0
 50
270.0
  0
INSERT
  5
236
100
AcDbEntity
  8
0
100
AcDbBlockReference
 62
7
  6
CONTINUOUS
  2
_FILLED
 10
-44.798808773
 20
-5.1015883789
 41
3.0
 42
3.0
 43
3.0
 50
90.0
  0
ENDBLK
  5
237
100
AcDbEntity
  8
0
  6
BYBLOCK
 62
0
100
AcDbBlockEnd
  0
BLOCK
  5
238
100
AcDbEntity
  8
0
100
AcDbBlockBegin
 62
7
  6
CONTINUOUS
  2
*D2
 70
65
 10
0.0
 20
0.0
  3
*D2
  1

  0
MTEXT
  5
239
100
AcDbEntity
  8
0
100
AcDbMText
 62
7
  6
CONTINUOUS
  7
STANDARD
 71
2
 72
1
 10
22.9247252491
 20
-19.4039695331
 30
0.0
 11
1.0
 21
0.0
 31
0.0
 44
0.9
  1
132,6
 40
3.0
 41
15.4285714286
  0
LINE
  5
23A
100
AcDbEntity
  8
0
100
AcDbLine
 62
7
  6
CONTINUOUS
 10
-4.349190556
 20
-3.2515883789
 11
-4.349190556
 21
-24.6539695331
  0
LINE
  5
23B
100
AcDbEntity
  8
0
100
AcDbLine
 62
7
  6
CONTINUOUS
 10
50.1986410541
 20
-2.572698634
 11
50.1986410541
 21
-24.6539695331
  0
LINE
  5
23C
100
AcDbEntity
  8
0
100
AcDbLine
 62
7
  6
CONTINUOUS
 10
-4.349190556
 20
-23.1539695331
 11
22.9247252491
 21
-23.1539695331
  0
LINE
  5
23D
100
AcDbEntity
  8
0
100
AcDbLine
 62
7
  6
CONTINUOUS
 10
50.1986410541
 20
-23.1539695331
 11
22.9247252491
 21
-23.1539695331
  0
INSERT
  5
23E
100
AcDbEntity
  8
0
100
AcDbBlockReference
 62
7
  6
CONTINUOUS
  2
_FILLED
 10
-4.349190556
 20
-23.1539695331
 41
3.0
 42
3.0
 43
3.0
 50
180.0
  0
INSERT
  5
23F
100
AcDbEntity
  8
0
100
AcDbBlockReference
 62
7
  6
CONTINUOUS
  2
_FILLED
 10
50.1986410541
 20
-23.1539695331
 41
3.0
 42
3.0
 43
3.0
 50
360.0
  0
ENDBLK
  5
240
100
AcDbEntity
  8
0
  6
BYBLOCK
 62
0
100
AcDbBlockEnd
  0
BLOCK
  5
241
100
AcDbEntity
  8
0
100
AcDbBlockBegin
 62
7
  6
CONTINUOUS
  2
*D3
 70
65
 10
0.0
 20
0.0
  3
*D3
  1

  0
MTEXT
  5
242
100
AcDbEntity
  8
0
100
AcDbMText
 62
7
  6
CONTINUOUS
  7
STANDARD
 71
2
 72
1
 10
0.650809444
 20
-9.4039695331
 30
0.0
 11
1.0
 21
0.0
 31
0.0
 44
0.9
  1
10
 40
3.0
 41
6.1071428571
  0
LINE
  5
243
100
AcDbEntity
  8
0
100
AcDbLine
 62
7
  6
CONTINUOUS
 10
5.650809444
 20
-3.6015883789
 11
5.650809444
 21
-14.6539695331
  0
LINE
  5
244
100
AcDbEntity
  8
0
100
AcDbLine
 62
7
  6
CONTINUOUS
 10
-4.349190556
 20
-3.2515883789
 11
-4.349190556
 21
-14.6539695331
  0
LINE
  5
245
100
AcDbEntity
  8
0
100
AcDbLine
 62
7
  6
CONTINUOUS
 10
5.650809444
 20
-13.1539695331
 11
9.650809444
 21
-13.1539695331
  0
LINE
  5
246
100
AcDbEntity
  8
0
100
AcDbLine
 62
7
  6
CONTINUOUS
 10
9.650809444
 20
-13.1539695331
 11
0.650809444
 21
-13.1539695331
  0
LINE
  5
247
100
AcDbEntity
  8
0
100
AcDbLine
 62
7
  6
CONTINUOUS
 10
-4.349190556
 20
-13.1539695331
 11
-8.349190556
 21
-13.1539695331
  0
LINE
  5
248
100
AcDbEntity
  8
0
100
AcDbLine
 62
7
  6
CONTINUOUS
 10
-8.349190556
 20
-13.1539695331
 11
0.650809444
 21
-13.1539695331
  0
INSERT
  5
249
100
AcDbEntity
  8
0
100
AcDbBlockReference
 62
7
  6
CONTINUOUS
  2
_FILLED
 10
5.650809444
 20
-13.1539695331
 41
3.0
 42
3.0
 43
3.0
 50
180.0
  0
INSERT
  5
24A
100
AcDbEntity
  8
0
100
AcDbBlockReference
 62
7
  6
CONTINUOUS
  2
_FILLED
 10
-4.349190556
 20
-13.1539695331
 41
3.0
 42
3.0
 43
3.0
  0
ENDBLK
  5
24B
100
AcDbEntity
  8
0
  6
BYBLOCK
 62
0
100
AcDbBlockEnd
  0
BLOCK
  5
24C
100
AcDbEntity
  8
0
100
AcDbBlockBegin
 62
7
  6
CONTINUOUS
  2
*D4
 70
65
 10
0.0
 20
0.0
  3
*D4
  1

  0
MTEXT
  5
24D
100
AcDbEntity
  8
0
100
AcDbMText
 62
7
  6
CONTINUOUS
  7
STANDARD
 71
2
 72
1
 10
32.9002966904
 20
24.7720996748
 30
0.0
 11
1.0
 21
0.0
 31
0.0
 44
0.9
  1
34,6
 40
3.0
 41
12.8571428571
  0
LINE
  5
24E
100
AcDbEntity
  8
0
100
AcDbLine
 62
7
  6
CONTINUOUS
 10
15.6019523268
 20
1.2662740228
 11
15.6019523268
 21
22.5220996748
  0
LINE
  5
24F
100
AcDbEntity
  8
0
100
AcDbLine
 62
7
  6
CONTINUOUS
 10
50.1986410541
 20
-0.1304781238
 11
50.1986410541
 21
22.5220996748
  0
LINE
  5
250
100
AcDbEntity
  8
0
100
AcDbLine
 62
7
  6
CONTINUOUS
 10
15.6019523268
 20
21.0220996748
 11
32.9002966904
 21
21.0220996748
  0
LINE
  5
251
100
AcDbEntity
  8
0
100
AcDbLine
 62
7
  6
CONTINUOUS
 10
50.1986410541
 20
21.0220996748
 11
32.9002966904
 21
21.0220996748
  0
INSERT
  5
252
100
AcDbEntity
  8
0
100
AcDbBlockReference
 62
7
  6
CONTINUOUS
  2
_FILLED
 10
15.6019523268
 20
21.0220996748
 41
3.0
 42
3.0
 43
3.0
 50
180.0
  0
INSERT
  5
253
100
AcDbEntity
  8
0
100
AcDbBlockReference
 62
7
  6
CONTINUOUS
  2
_FILLED
 10
50.1986410541
 20
21.0220996748
 41
3.0
 42
3.0
 43
3.0
  0
ENDBLK
  5
254
100
AcDbEntity
  8
0
  6
BYBLOCK
 62
0
100
AcDbBlockEnd
  0
BLOCK
  5
255
100
AcDbEntity
  8
0
100
AcDbBlockBegin
 62
7
  6
CONTINUOUS
  2
*D5
 70
65
 10
0.0
 20
0.0
  3
*D5
  1

  0
MTEXT
  5
256
100
AcDbEntity
  8
0
100
AcDbMText
 62
7
  6
CONTINUOUS
  7
STANDARD
 71
2
 72
1
 10
25.8443881458
 20
14.7720996748
 30
0.0
 11
1.0
 21
0.0
 31
0.0
 44
0.9
  1
20,5
 40
3.0
 41
12.8571428571
  0
LINE
  5
257
100
AcDbEntity
  8
0
100
AcDbLine
 62
7
  6
CONTINUOUS
 10
15.6019523268
 20
1.2662740228
 11
15.6019523268
 21
12.5220996748
  0
LINE
  5
258
100
AcDbEntity
  8
0
100
AcDbLine
 62
7
  6
CONTINUOUS
 10
36.0868239648
 20
2.2569437611
 11
36.0868239648
 21
12.5220996748
  0
LINE
  5
259
100
AcDbEntity
  8
0
100
AcDbLine
 62
7
  6
CONTINUOUS
 10
15.6019523268
 20
11.0220996748
 11
25.8443881458
 21
11.0220996748
  0
LINE
  5
25A
100
AcDbEntity
  8
0
100
AcDbLine
 62
7
  6
CONTINUOUS
 10
36.0868239648
 20
11.0220996748
 11
25.8443881458
 21
11.0220996748
  0
INSERT
  5
25B
100
AcDbEntity
  8
0
100
AcDbBlockReference
 62
7
  6
CONTINUOUS
  2
_FILLED
 10
15.6019523268
 20
11.0220996748
 41
3.0
 42
3.0
 43
3.0
 50
180.0
  0
INSERT
  5
25C
100
AcDbEntity
  8
0
100
AcDbBlockReference
 62
7
  6
CONTINUOUS
  2
_FILLED
 10
36.0868239648
 20
11.0220996748
 41
3.0
 42
3.0
 43
3.0
  0
ENDBLK
  5
25D
100
AcDbEntity
  8
0
  6
BYBLOCK
 62
0
100
AcDbBlockEnd
  0
BLOCK
  5
25E
100
AcDbEntity
  8
0
100
AcDbBlockBegin
 62
7
  6
CONTINUOUS
  2
*D6
 70
65
 10
0.0
 20
0.0
  3
*D6
  1

  0
MTEXT
  5
25F
100
AcDbEntity
  8
0
100
AcDbMText
 62
7
  6
CONTINUOUS
  7
STANDARD
 71
1
 72
1
 10
56.8009860443
 20
6.8748381885
 30
0.0
 11
0.0
 21
1.0
 31
0.0
 44
0.9
  1
5,8
 40
3.0
 41
9.3214285714
  0
LINE
  5
260
100
AcDbEntity
  8
0
100
AcDbLine
 62
7
  6
CONTINUOUS
 10
50.6188146951
 20
1.5388963215
 11
62.0509852579
 21
1.5388946367
  0
LINE
  5
261
100
AcDbEntity
  8
0
100
AcDbLine
 62
7
  6
CONTINUOUS
 10
50.628329895
 20
-4.2515884526
 11
62.0509844045
 21
-4.251590136
  0
LINE
  5
262
100
AcDbEntity
  8
0
100
AcDbLine
 62
7
  6
CONTINUOUS
 10
60.5509852579
 20
1.5388948578
 11
60.5509860443
 21
13.0891239028
  0
LINE
  5
263
100
AcDbEntity
  8
0
100
AcDbLine
 62
7
  6
CONTINUOUS
 10
60.5509860443
 20
13.0891239028
 11
60.5509848312
 21
-1.3563475286
  0
LINE
  5
264
100
AcDbEntity
  8
0
100
AcDbLine
 62
7
  6
CONTINUOUS
 10
60.5509844045
 20
-4.2515899149
 11
60.550983815
 21
-8.2515899149
  0
LINE
  5
265
100
AcDbEntity
  8
0
100
AcDbLine
 62
7
  6
CONTINUOUS
 10
60.550983815
 20
-8.2515899149
 11
60.5509848312
 21
-1.3563475286
  0
INSERT
  5
266
100
AcDbEntity
  8
0
100
AcDbBlockReference
 62
7
  6
CONTINUOUS
  2
_FILLED
 10
60.5509852579
 20
1.5388948578
 41
3.0
 42
3.0
 43
3.0
 50
269.9999960991
  0
INSERT
  5
267
100
AcDbEntity
  8
0
100
AcDbBlockReference
 62
7
  6
CONTINUOUS
  2
_FILLED
 10
60.5509844045
 20
-4.2515899149
 41
3.0
 42
3.0
 43
3.0
 50
89.999991556
  0
ENDBLK
  5
268
100
AcDbEntity
  8
0
  6
BYBLOCK
 62
0
100
AcDbBlockEnd
  0
ENDSEC
  0
SECTION
  2
ENTITIES
  0
DIMENSION
  5
269
100
AcDbEntity
  8
0
100
AcDbDimension
 62
7
  6
CONTINUOUS
  2
*D0
 10
-24.2259827401
 20
-13.1539695331
 11
-20.9045541
 21
-13.1539695331
 70
160
 71
2
 42
7.5
  3
DIMSTYLE_1
100
AcDbAlignedDimension
 13
-16.7259827401
 23
-4.5601167177
 14
-24.2259827401
 24
-4.0505253305
 50
180.0
100
AcDbRotatedDimension
  0
DIMENSION
  5
26A
100
AcDbEntity
  8
0
100
AcDbDimension
 62
7
  6
CONTINUOUS
  2
*D1
 10
-44.798808773
 20
-5.1015883789
 11
-44.798808773
 21
-1.7801589667
 70
160
 71
2
 42
7.5
  3
DIMSTYLE_1
100
AcDbAlignedDimension
 13
-21.9759827401
 23
2.3984116211
 14
-21.9759827401
 24
-5.1015883789
 50
270.0
100
AcDbRotatedDimension
  0
DIMENSION
  5
26B
100
AcDbEntity
  8
0
100
AcDbDimension
 62
7
  6
CONTINUOUS
  2
*D2
 10
50.1986410541
 20
-23.1539695331
 11
22.4961542187
 21
-23.1539695331
 70
160
 71
2
 42
132.5703263896
  3
DIMSTYLE_2
100
AcDbAlignedDimension
 13
-4.349190556
 23
-2.7515883789
 14
50.1986410541
 24
-2.072698634
100
AcDbRotatedDimension
  0
DIMENSION
  5
26C
100
AcDbEntity
  8
0
100
AcDbDimension
 62
7
  6
CONTINUOUS
  2
*D3
 10
-4.349190556
 20
-13.1539695331
 11
0.2222380414
 21
-13.1539695331
 70
160
 71
2
 42
10.0
  3
DIMSTYLE_1
100
AcDbAlignedDimension
 13
5.650809444
 23
-3.1015883789
 14
-4.349190556
 24
-2.7515883789
 50
180.0
100
AcDbRotatedDimension
  0
DIMENSION
  5
26D
100
AcDbEntity
  8
0
100
AcDbDimension
 62
7
  6
CONTINUOUS
  2
*D4
 10
50.1986410541
 20
21.0220996748
 11
32.4717254448
 21
21.0220996748
 70
160
 71
2
 42
34.5966887273
  3
DIMSTYLE_1
100
AcDbAlignedDimension
 13
15.6019523268
 23
0.7662740228
 14
50.1986410541
 24
-0.6304781238
100
AcDbRotatedDimension
  0
DIMENSION
  5
26E
100
AcDbEntity
  8
0
100
AcDbDimension
 62
7
  6
CONTINUOUS
  2
*D5
 10
36.0868239648
 20
11.0220996748
 11
25.4158171463
 21
11.0220996748
 70
160
 71
2
 42
20.484871638
  3
DIMSTYLE_2
100
AcDbAlignedDimension
 13
15.6019523268
 23
0.7662740228
 14
36.0868239648
 24
1.7569437611
100
AcDbRotatedDimension
  0
DIMENSION
  5
26F
100
AcDbEntity
  8
0
100
AcDbDimension
 62
7
  6
CONTINUOUS
  2
*D6
 10
60.5509844045
 20
-4.2515899149
 11
60.5509858036
 21
9.5534097223
 70
160
 71
1
 42
5.7904847727
  3
DIMSTYLE_2
100
AcDbAlignedDimension
 13
50.1188146951
 23
1.5388963556
 14
50.128329895
 24
-4.2515884185
 50
269.999991556
100
AcDbRotatedDimension
  0
LINE
  5
270
100
AcDbEntity
  8
0
100
AcDbLine
 62
7
  6
CONTINUOUS
 10
-4.349190556
 20
-2.7515883789
 11
-4.349190556
 21
-1.9515883789
  0
LINE
  5
271
100
AcDbEntity
  8
0
100
AcDbLine
 62
7
  6
CONTINUOUS
 10
-4.349190556
 20
-0.7515883789
 11
-4.349190556
 21
0.0484116211
  0
LINE
  5
272
100
AcDbEntity
  8
0
100
AcDbLine
 62
7
  6
CONTINUOUS
 10
7.7561524904
 20
-3.1015883789
 11
5.650809444
 21
-3.1015883789
  0
LINE
  5
273
100
AcDbEntity
  8
0
100
AcDbLine
 62
7
  6
CONTINUOUS
 10
5.650809444
 20
-2.7515883789
 11
-4.349190556
 21
-2.7515883789
  0
LINE
  5
274
100
AcDbEntity
  8
0
100
AcDbLine
 62
7
  6
CONTINUOUS
 10
5.650809444
 20
-1.9515883789
 11
-4.349190556
 21
-1.9515883789
  0
LINE
  5
275
100
AcDbEntity
  8
0
100
AcDbLine
 62
7
  6
CONTINUOUS
 10
7.7561524904
 20
-1.6015883789
 11
5.650809444
 21
-1.6015883789
  0
LINE
  5
276
100
AcDbEntity
  8
0
100
AcDbLine
 62
7
  6
CONTINUOUS
 10
7.7561524904
 20
-1.1015883789
 11
5.650809444
 21
-1.1015883789
  0
LINE
  5
277
100
AcDbEntity
  8
0
100
AcDbLine
 62
7
  6
CONTINUOUS
 10
5.650809444
 20
-0.7515883789
 11
-4.349190556
 21
-0.7515883789
  0
LINE
  5
278
100
AcDbEntity
  8
0
100
AcDbLine
 62
7
  6
CONTINUOUS
 10
5.650809444
 20
0.0484116211
 11
-4.349190556
 21
0.0484116211
  0
LINE
  5
279
100
AcDbEntity
  8
0
100
AcDbLine
 62
7
  6
CONTINUOUS
 10
7.7561524904
 20
0.3984116211
 11
5.650809444
 21
0.3984116211
  0
LINE
  5
27A
100
AcDbEntity
  8
0
100
AcDbLine
 62
7
  6
CONTINUOUS
 10
5.650809444
 20
-3.1015883789
 11
5.650809444
 21
-1.6015883789
  0
LINE
  5
27B
100
AcDbEntity
  8
0
100
AcDbLine
 62
7
  6
CONTINUOUS
 10
5.650809444
 20
-1.1015883789
 11
5.650809444
 21
0.3984116211
  0
LINE
  5
27C
100
AcDbEntity
  8
0
100
AcDbLine
 62
7
  6
CONTINUOUS
 10
7.7561524904
 20
-3.1015883789
 11
7.7561524904
 21
-1.6015883789
  0
LINE
  5
27D
100
AcDbEntity
  8
0
100
AcDbLine
 62
7
  6
CONTINUOUS
 10
7.7561524904
 20
-1.1015883789
 11
7.7561524904
 21
0.3984116211
  0
LINE
  5
27E
100
AcDbEntity
  8
0
100
AcDbLine
 62
7
  6
CONTINUOUS
 10
10.7563544904
 20
0.3984116211
 11
10.7563544904
 21
-1.1015883789
  0
LINE
  5
27F
100
AcDbEntity
  8
0
100
AcDbLine
 62
7
  6
CONTINUOUS
 10
10.7563544904
 20
-1.6015883789
 11
10.7563544904
 21
-3.1015883789
  0
LWPOLYLINE
  5
280
100
AcDbEntity
  8
0
100
AcDbPolyline
 62
7
  6
CONTINUOUS
 90
24
 70
0
 10
14.0660825897
 20
-0.5612327745
 10
14.0611286501
 20
-0.5140258145
 10
14.0574926638
 20
-0.4686515912
 10
14.0550386953
 20
-0.4253200336
 10
14.0539026801
 20
-0.3839151234
 10
14.0536440191
 20
-0.3438744694
 10
14.0541654305
 20
-0.3052448182
 10
14.0555641961
 20
-0.2680262136
 10
14.0576915629
 20
-0.2315789354
 10
14.0604728987
 20
-0.1959128002
 10
14.0639828358
 20
-0.1610474977
 10
14.0682965169
 20
-0.1263612387
 10
14.0733843194
 20
-0.0916868068
 10
14.079275866
 20
-0.0572241775
 10
14.0861351682
 20
-0.0229074019
 10
14.0939696025
 20
0.0113732377
 10
14.1027717924
 20
0.0454740823
 10
14.1126836191
 20
0.0790849677
 10
14.1237157437
 20
0.1122166726
 10
14.1358575052
 20
0.1448376933
 10
14.1492188013
 20
0.1765876743
 10
14.1638362647
 20
0.2073501276
 10
14.1796732628
 20
0.237244385
 10
14.1967297955
 20
0.2662731616
  0
LWPOLYLINE
  5
281
100
AcDbEntity
  8
RACCORDO
100
AcDbPolyline
 62
7
  6
CONTINUOUS
 90
6
 70
0
 10
13.6378901958
 20
1.0297366873
 10
13.6377884603
 20
1.03310311
 10
13.6376855181
 20
1.035751903
 10
13.6375817397
 20
1.0376708058
 10
13.6374767547
 20
1.038872079
 10
13.637370563
 20
1.0393557225
  0
LWPOLYLINE
  5
282
100
AcDbEntity
  8
ASSI
100
AcDbPolyline
 62
7
  6
CONTINUOUS
 90
6
 70
0
 10
13.6378901958
 20
1.0297366873
 10
13.6377884603
 20
1.03310311
 10
13.6376855181
 20
1.035751903
 10
13.6375817397
 20
1.0376708058
 10
13.6374767547
 20
1.038872079
 10
13.637370563
 20
1.0393557225
  0
LINE
  5
283
100
AcDbEntity
  8
DRAFT
100
AcDbLine
 62
7
  6
CONTINUOUS
 10
13.6283146645
 20
0.7058281701
 11
13.629193172
 21
0.6716477294
  0
LINE
  5
284
100
AcDbEntity
  8
ASSI
100
AcDbLine
 62
7
  6
CONTINUOUS
 10
13.6283146645
 20
0.7058281701
 11
13.629193172
 21
0.6716477294
  0
LINE
  5
285
100
AcDbEntity
  8
RACCORDO
100
AcDbLine
 62
7
  6
CONTINUOUS
 10
13.6380863426
 20
1.0209735583
 11
13.6378901958
 21
1.0297366873
  0
LINE
  5
286
100
AcDbEntity
  8
ASSI
100
AcDbLine
 62
7
  6
CONTINUOUS
 10
13.6380863426
 20
1.0209735583
 11
13.6378901958
 21
1.0297366873
  0
LINE
  5
287
100
AcDbEntity
  8
DRAFT
100
AcDbLine
 62
7
  6
CONTINUOUS
 10
13.629193172
 20
0.6716477294
 11
13.6308117012
 21
0.5780843055
  0
LINE
  5
288
100
AcDbEntity
  8
ASSI
100
AcDbLine
 62
7
  6
CONTINUOUS
 10
13.629193172
 20
0.6716477294
 11
13.6308117012
 21
0.5780843055
  0
LINE
  5
289
100
AcDbEntity
  8
RACCORDO
100
AcDbLine
 62
7
  6
CONTINUOUS
 10
13.638822842
 20
0.9684614745
 11
13.6380863426
 21
1.0209735583
  0
LINE
  5
28A
100
AcDbEntity
  8
ASSI
100
AcDbLine
 62
7
  6
CONTINUOUS
 10
13.638822842
 20
0.9684614745
 11
13.6380863426
 21
1.0209735583
  0
LINE
  5
28B
100
AcDbEntity
  8
DRAFT
100
AcDbLine
 62
7
  6
CONTINUOUS
 10
13.6308117012
 20
0.5780843055
 11
13.6326926493
 21
0.3984116211
  0
LINE
  5
28C
100
AcDbEntity
  8
ASSI
100
AcDbLine
 62
7
  6
CONTINUOUS
 10
13.6308117012
 20
0.5780843055
 11
13.6326926493
 21
0.3984116211
  0
LINE
  5
28D
100
AcDbEntity
  8
DRAFT
100
AcDbLine
 62
7
  6
CONTINUOUS
 10
13.6309241097
 20
-1.4301694698
 11
13.6326909449
 21
-1.6015883789
  0
LINE
  5
28E
100
AcDbEntity
  8
ASSI
100
AcDbLine
 62
7
  6
CONTINUOUS
 10
13.6309241097
 20
-1.4301694698
 11
13.6326909449
 21
-1.6015883789
  0
LINE
  5
28F
100
AcDbEntity
  8
DRAFT
100
AcDbLine
 62
7
  6
CONTINUOUS
 10
13.6382001126
 20
-1.6349980786
 11
13.6361578367
 21
-1.4303183218
  0
LINE
  5
290
100
AcDbEntity
  8
ASSI
100
AcDbLine
 62
7
  6
CONTINUOUS
 10
13.6382001126
 20
-1.6349980786
 11
13.6361578367
 21
-1.4303183218
  0
LINE
  5
291
100
AcDbEntity
  8
RACCORDO
100
AcDbLine
 62
7
  6
CONTINUOUS
 10
13.6412817844
 20
0.7225053425
 11
13.638822842
 21
0.9684614745
  0
LINE
  5
292
100
AcDbEntity
  8
ASSI
100
AcDbLine
 62
7
  6
CONTINUOUS
 10
13.6412817844
 20
0.7225053425
 11
13.638822842
 21
0.9684614745
  0
LINE
  5
293
100
AcDbEntity
  8
RACCORDO
100
AcDbLine
 62
7
  6
CONTINUOUS
 10
13.6439983062
 20
0.212732916
 11
13.6412817844
 21
0.7225053425
  0
LINE
  5
294
100
AcDbEntity
  8
ASSI
100
AcDbLine
 62
7
  6
CONTINUOUS
 10
13.6439983062
 20
0.212732916
 11
13.6412817844
 21
0.7225053425
  0
LINE
  5
295
100
AcDbEntity
  8
DRAFT
100
AcDbLine
 62
7
  6
CONTINUOUS
 10
13.6402501296
 20
-2.0938118773
 11
13.6382001126
 21
-1.6349980786
  0
LINE
  5
296
100
AcDbEntity
  8
ASSI
100
AcDbLine
 62
7
  6
CONTINUOUS
 10
13.6402501296
 20
-2.0938118773
 11
13.6382001126
 21
-1.6349980786
  0
LINE
  5
297
100
AcDbEntity
  8
RACCORDO
100
AcDbLine
 62
7
  6
CONTINUOUS
 10
13.644606069
 20
-2.0274473784
 11
13.6418325792
 21
-1.3515883789
  0
LINE
  5
298
100
AcDbEntity
  8
ASSI
100
AcDbLine
 62
7
  6
CONTINUOUS
 10
13.644606069
 20
-2.0274473784
 11
13.6418325792
 21
-1.3515883789
  0
LINE
  5
299
100
AcDbEntity
  8
DRAFT
100
AcDbLine
 62
7
  6
CONTINUOUS
 10
13.6283146645
 20
-3.7515883789
 11
13.6283146645
 21
-3.4505984237
  0
LINE
  5
29A
100
AcDbEntity
  8
ASSI
100
AcDbLine
 62
7
  6
CONTINUOUS
 10
13.6283146645
 20
-3.7515883789
 11
13.6283146645
 21
-3.4505984237
  0
LINE
  5
29B
100
AcDbEntity
  8
DRAFT
100
AcDbLine
 62
7
  6
CONTINUOUS
 10
13.6283146645
 20
0.7474216659
 11
13.6283146645
 21
1.0484116211
  0
LINE
  5
29C
100
AcDbEntity
  8
ASSI
100
AcDbLine
 62
7
  6
CONTINUOUS
 10
13.6283146645
 20
0.7474216659
 11
13.6283146645
 21
1.0484116211
  0
LINE
  5
29D
100
AcDbEntity
  8
DRAFT
100
AcDbLine
 62
7
  6
CONTINUOUS
 10
13.6309241097
 20
-1.273007288
 11
13.6309241097
 21
-1.4301694698
  0
LINE
  5
29E
100
AcDbEntity
  8
ASSI
100
AcDbLine
 62
7
  6
CONTINUOUS
 10
13.6309241097
 20
-1.273007288
 11
13.6309241097
 21
-1.4301694698
  0
LINE
  5
29F
100
AcDbEntity
  8
DRAFT
100
AcDbLine
 62
7
  6
CONTINUOUS
 10
13.6361578367
 20
-1.4303183218
 11
13.6361578367
 21
-1.272858436
  0
LINE
  5
2A0
100
AcDbEntity
  8
ASSI
100
AcDbLine
 62
7
  6
CONTINUOUS
 10
13.6361578367
 20
-1.4303183218
 11
13.6361578367
 21
-1.272858436
  0
LINE
  5
2A1
100
AcDbEntity
  8
RACCORDO
100
AcDbLine
 62
7
  6
CONTINUOUS
 10
13.6447236911
 20
-0.6018895465
 11
13.6439983062
 21
0.212732916
  0
LINE
  5
2A2
100
AcDbEntity
  8
ASSI
100
AcDbLine
 62
7
  6
CONTINUOUS
 10
13.6447236911
 20
-0.6018895465
 11
13.6439983062
 21
0.212732916
  0
LINE
  5
2A3
100
AcDbEntity
  8
DRAFT
100
AcDbLine
 62
7
  6
CONTINUOUS
 10
13.6399955381
 20
-2.7093043622
 11
13.6402501296
 21
-2.0938118773
  0
LINE
  5
2A4
100
AcDbEntity
  8
ASSI
100
AcDbLine
 62
7
  6
CONTINUOUS
 10
13.6399955381
 20
-2.7093043622
 11
13.6402501296
 21
-2.0938118773
  0
LINE
  5
2A5
100
AcDbEntity
  8
RACCORDO
100
AcDbLine
 62
7
  6
CONTINUOUS
 10
13.6442157472
 20
-2.8448038639
 11
13.644606069
 21
-2.0274473784
  0
LINE
  5
2A6
100
AcDbEntity
  8
ASSI
100
AcDbLine
 62
7
  6
CONTINUOUS
 10
13.6442157472
 20
-2.8448038639
 11
13.644606069
 21
-2.0274473784
  0
LINE
  5
2A7
100
AcDbEntity
  8
RACCORDO
100
AcDbLine
 62
7
  6
CONTINUOUS
 10
13.6426060296
 20
-1.2294976367
 11
13.6447236911
 21
-0.6018895465
  0
LINE
  5
2A8
100
AcDbEntity
  8
ASSI
100
AcDbLine
 62
7
  6
CONTINUOUS
 10
13.6426060296
 20
-1.2294976367
 11
13.6447236911
 21
-0.6018895465
  0
LINE
  5
2A9
100
AcDbEntity
  8
RACCORDO
100
AcDbLine
 62
7
  6
CONTINUOUS
 10
13.6418325792
 20
-1.3515883789
 11
13.6426060296
 21
-1.2294976367
  0
LINE
  5
2AA
100
AcDbEntity
  8
ASSI
100
AcDbLine
 62
7
  6
CONTINUOUS
 10
13.6418325792
 20
-1.3515883789
 11
13.6426060296
 21
-1.2294976367
  0
LINE
  5
2AB
100
AcDbEntity
  8
DRAFT
100
AcDbLine
 62
7
  6
CONTINUOUS
 10
13.6381988033
 20
-3.0683531005
 11
13.6399955381
 21
-2.7093043622
  0
LINE
  5
2AC
100
AcDbEntity
  8
ASSI
100
AcDbLine
 62
7
  6
CONTINUOUS
 10
13.6381988033
 20
-3.0683531005
 11
13.6399955381
 21
-2.7093043622
  0
LINE
  5
2AD
100
AcDbEntity
  8
RACCORDO
100
AcDbLine
 62
7
  6
CONTINUOUS
 10
13.6417112182
 20
-3.3686957253
 11
13.6442157472
 21
-2.8448038639
  0
LINE
  5
2AE
100
AcDbEntity
  8
ASSI
100
AcDbLine
 62
7
  6
CONTINUOUS
 10
13.6417112182
 20
-3.3686957253
 11
13.6442157472
 21
-2.8448038639
  0
LINE
  5
2AF
100
AcDbEntity
  8
RACCORDO
100
AcDbLine
 62
7
  6
CONTINUOUS
 10
13.6393537133
 20
-3.6278608965
 11
13.6417112182
 21
-3.3686957253
  0
LINE
  5
2B0
100
AcDbEntity
  8
ASSI
100
AcDbLine
 62
7
  6
CONTINUOUS
 10
13.6393537133
 20
-3.6278608965
 11
13.6417112182
 21
-3.3686957253
  0
LINE
  5
2B1
100
AcDbEntity
  8
DRAFT
100
AcDbLine
 62
7
  6
CONTINUOUS
 10
13.6326909449
 20
-1.1015883789
 11
13.6309241097
 21
-1.273007288
  0
LINE
  5
2B2
100
AcDbEntity
  8
ASSI
100
AcDbLine
 62
7
  6
CONTINUOUS
 10
13.6326909449
 20
-1.1015883789
 11
13.6309241097
 21
-1.273007288
  0
LINE
  5
2B3
100
AcDbEntity
  8
DRAFT
100
AcDbLine
 62
7
  6
CONTINUOUS
 10
13.6361535276
 20
-3.2731794227
 11
13.6381988033
 21
-3.0683531005
  0
LINE
  5
2B4
100
AcDbEntity
  8
ASSI
100
AcDbLine
 62
7
  6
CONTINUOUS
 10
13.6361535276
 20
-3.2731794227
 11
13.6381988033
 21
-3.0683531005
  0
LINE
  5
2B5
100
AcDbEntity
  8
DRAFT
100
AcDbLine
 62
7
  6
CONTINUOUS
 10
13.6326926493
 20
-3.1015883789
 11
13.6308117012
 21
-3.2812610633
  0
LINE
  5
2B6
100
AcDbEntity
  8
ASSI
100
AcDbLine
 62
7
  6
CONTINUOUS
 10
13.6326926493
 20
-3.1015883789
 11
13.6308117012
 21
-3.2812610633
  0
LINE
  5
2B7
100
AcDbEntity
  8
RACCORDO
100
AcDbLine
 62
7
  6
CONTINUOUS
 10
13.6381807539
 20
-3.7187536097
 11
13.6393537133
 21
-3.6278608965
  0
LINE
  5
2B8
100
AcDbEntity
  8
ASSI
100
AcDbLine
 62
7
  6
CONTINUOUS
 10
13.6381807539
 20
-3.7187536097
 11
13.6393537133
 21
-3.6278608965
  0
LINE
  5
2B9
100
AcDbEntity
  8
DRAFT
100
AcDbLine
 62
7
  6
CONTINUOUS
 10
13.6308117012
 20
-3.2812610633
 11
13.629193172
 21
-3.3748244872
  0
LINE
  5
2BA
100
AcDbEntity
  8
ASSI
100
AcDbLine
 62
7
  6
CONTINUOUS
 10
13.6308117012
 20
-3.2812610633
 11
13.629193172
 21
-3.3748244872
  0
LINE
  5
2BB
100
AcDbEntity
  8
DRAFT
100
AcDbLine
 62
7
  6
CONTINUOUS
 10
13.629193172
 20
-3.3748244872
 11
13.6283146645
 21
-3.4090049279
  0
LINE
  5
2BC
100
AcDbEntity
  8
ASSI
100
AcDbLine
 62
7
  6
CONTINUOUS
 10
13.629193172
 20
-3.3748244872
 11
13.6283146645
 21
-3.4090049279
  0
LWPOLYLINE
  5
2BD
100
AcDbEntity
  8
DRAFT
100
AcDbPolyline
 62
7
  6
CONTINUOUS
 90
6
 70
0
 10
13.6309327248
 20
-3.4505984237
 10
13.6319082287
 20
-3.4447435979
 10
13.6328095764
 20
-3.4291477995
 10
13.6336870573
 20
-3.4041556772
 10
13.634540725
 20
-3.3694963293
 10
13.6361535276
 20
-3.2731794227
  0
LWPOLYLINE
  5
2BE
100
AcDbEntity
  8
ASSI
100
AcDbPolyline
 62
7
  6
CONTINUOUS
 90
6
 70
0
 10
13.6309327248
 20
-3.4505984237
 10
13.6319082287
 20
-3.4447435979
 10
13.6328095764
 20
-3.4291477995
 10
13.6336870573
 20
-3.4041556772
 10
13.634540725
 20
-3.3694963293
 10
13.6361535276
 20
-3.2731794227
  0
LWPOLYLINE
  5
2BF
100
AcDbEntity
  8
RACCORDO
100
AcDbPolyline
 62
253
  6
CONTINUOUS
 90
9
 70
0
 10
15.4355809119
 20
-3.5348880755
 10
15.4386230588
 20
-3.5696099984
 10
15.4476468064
 20
-3.603278075
 10
15.4623784714
 20
-3.6348695395
 10
15.4823709858
 20
-3.6634246323
 10
15.5070173524
 20
-3.6880756204
 10
15.5355689878
 20
-3.7080732435
 10
15.567158626
 20
-3.7228096773
 10
15.5998737378
 20
-3.7315814273
  0
LWPOLYLINE
  5
2C0
100
AcDbEntity
  8
ASSI
100
AcDbPolyline
 62
253
  6
CONTINUOUS
 90
9
 70
0
 10
15.4355809119
 20
-3.5348880755
 10
15.4386230588
 20
-3.5696099984
 10
15.4476468064
 20
-3.603278075
 10
15.4623784714
 20
-3.6348695395
 10
15.4823709858
 20
-3.6634246323
 10
15.5070173524
 20
-3.6880756204
 10
15.5355689878
 20
-3.7080732435
 10
15.567158626
 20
-3.7228096773
 10
15.5998737378
 20
-3.7315814273
  0
LWPOLYLINE
  5
2C1
100
AcDbEntity
  8
RACCORDO
100
AcDbPolyline
 62
253
  6
CONTINUOUS
 90
16
 70
0
 10
15.6387907429
 20
-4.3912036834
 10
15.6421156629
 20
-4.4540955343
 10
15.6520154217
 20
-4.5162940473
 10
15.6683808482
 20
-4.5771137548
 10
15.6910346048
 20
-4.6358913036
 10
15.7197253285
 20
-4.6919713967
 10
15.7541233142
 20
-4.7447175456
 10
15.7938339306
 20
-4.7935419303
 10
15.8384219617
 20
-4.8379244303
 10
15.8874089297
 20
-4.8773943243
 10
15.9403349189
 20
-4.9115635885
 10
15.9965482084
 20
-4.939995279
 10
16.0551882602
 20
-4.9622992817
 10
16.115503123
 20
-4.9782888362
 10
16.1768971217
 20
-4.9879015697
 10
16.23869936
 20
-4.9911123004
  0
LWPOLYLINE
  5
2C2
100
AcDbEntity
  8
RACCORDO
100
AcDbPolyline
 62
253
  6
CONTINUOUS
 90
7
 70
0
 10
15.4386392512
 20
0.7736135098
 10
15.4381823409
 20
0.79068148
 10
15.4376919018
 20
0.8051367163
 10
15.437184848
 20
0.8165138547
 10
15.4366668174
 20
0.8246577737
 10
15.436132172
 20
0.8297235947
 10
15.4355809119
 20
0.8317113177
  0
LWPOLYLINE
  5
2C3
100
AcDbEntity
  8
ASSI
100
AcDbPolyline
 62
253
  6
CONTINUOUS
 90
7
 70
0
 10
15.4386392512
 20
0.7736135098
 10
15.4381823409
 20
0.79068148
 10
15.4376919018
 20
0.8051367163
 10
15.437184848
 20
0.8165138547
 10
15.4366668174
 20
0.8246577737
 10
15.436132172
 20
0.8297235947
 10
15.4355809119
 20
0.8317113177
  0
LINE
  5
2C4
100
AcDbEntity
  8
RACCORDO
100
AcDbLine
 62
253
  6
CONTINUOUS
 10
15.4394495103
 20
0.7314717905
 11
15.4386392512
 21
0.7736135098
  0
LINE
  5
2C5
100
AcDbEntity
  8
ASSI
100
AcDbLine
 62
253
  6
CONTINUOUS
 10
15.4394495103
 20
0.7314717905
 11
15.4386392512
 21
0.7736135098
  0
LINE
  5
2C6
100
AcDbEntity
  8
RACCORDO
100
AcDbLine
 62
7
  6
CONTINUOUS
 10
15.4296644557
 20
0.6119620268
 11
15.4260751063
 21
0.8364638585
  0
LINE
  5
2C7
100
AcDbEntity
  8
ASSI
100
AcDbLine
 62
7
  6
CONTINUOUS
 10
15.4296644557
 20
0.6119620268
 11
15.4260751063
 21
0.8364638585
  0
LINE
  5
2C8
100
AcDbEntity
  8
RACCORDO
100
AcDbLine
 62
253
  6
CONTINUOUS
 10
15.4400868194
 20
0.6809520669
 11
15.4394495103
 21
0.7314717905
  0
LINE
  5
2C9
100
AcDbEntity
  8
ASSI
100
AcDbLine
 62
253
  6
CONTINUOUS
 10
15.4400868194
 20
0.6809520669
 11
15.4394495103
 21
0.7314717905
  0
LINE
  5
2CA
100
AcDbEntity
  8
RACCORDO
100
AcDbLine
 62
7
  6
CONTINUOUS
 10
15.6002747352
 20
1.0071877812
 11
15.6011864406
 21
0.9356733143
  0
LINE
  5
2CB
100
AcDbEntity
  8
RACCORDO
100
AcDbLine
 62
7
  6
CONTINUOUS
 10
15.4324468311
 20
0.3525437878
 11
15.4296644557
 21
0.6119620268
  0
LINE
  5
2CC
100
AcDbEntity
  8
ASSI
100
AcDbLine
 62
7
  6
CONTINUOUS
 10
15.4324468311
 20
0.3525437878
 11
15.4296644557
 21
0.6119620268
  0
LINE
  5
2CD
100
AcDbEntity
  8
RACCORDO
100
AcDbLine
 62
7
  6
CONTINUOUS
 10
15.6011864406
 20
0.9356733143
 11
15.6017521859
 21
0.8547821385
  0
LINE
  5
2CE
100
AcDbEntity
  8
RACCORDO
100
AcDbLine
 62
253
  6
CONTINUOUS
 10
15.4406690268
 20
0.5939982724
 11
15.4400868194
 21
0.6809520669
  0
LINE
  5
2CF
100
AcDbEntity
  8
ASSI
100
AcDbLine
 62
253
  6
CONTINUOUS
 10
15.4406690268
 20
0.5939982724
 11
15.4400868194
 21
0.6809520669
  0
LINE
  5
2D0
100
AcDbEntity
  8
RACCORDO
100
AcDbLine
 62
253
  6
CONTINUOUS
 10
15.4407836804
 20
0.360880637
 11
15.4406690268
 21
0.5939982724
  0
LINE
  5
2D1
100
AcDbEntity
  8
ASSI
100
AcDbLine
 62
253
  6
CONTINUOUS
 10
15.4407836804
 20
0.360880637
 11
15.4406690268
 21
0.5939982724
  0
LINE
  5
2D2
100
AcDbEntity
  8
RACCORDO
100
AcDbLine
 62
7
  6
CONTINUOUS
 10
15.5283146645
 20
1.7987771249
 11
15.5283146645
 21
1.2294310693
  0
LINE
  5
2D3
100
AcDbEntity
  8
RACCORDO
100
AcDbLine
 62
7
  6
CONTINUOUS
 10
15.5283146645
 20
-3.9326078271
 11
15.5283146645
 21
-4.5019538827
  0
LINE
  5
2D4
100
AcDbEntity
  8
RACCORDO
100
AcDbLine
 62
7
  6
CONTINUOUS
 10
15.5583146645
 20
-4.4716797618
 11
15.5583146645
 21
-3.9326078271
  0
LINE
  5
2D5
100
AcDbEntity
  8
RACCORDO
100
AcDbLine
 62
7
  6
CONTINUOUS
 10
15.5583146645
 20
1.2294310693
 11
15.5583146645
 21
1.768503004
  0
LINE
  5
2D6
100
AcDbEntity
  8
RACCORDO
100
AcDbLine
 62
7
  6
CONTINUOUS
 10
15.6019523268
 20
-3.4694507805
 11
15.6017521859
 21
0.8547821385
  0
LINE
  5
2D7
100
AcDbEntity
  8
RACCORDO
100
AcDbLine
 62
253
  6
CONTINUOUS
 10
15.6387907429
 20
-4.3912036834
 11
15.6387907429
 21
1.6880269256
  0
LINE
  5
2D8
100
AcDbEntity
  8
RACCORDO
100
AcDbLine
 62
253
  6
CONTINUOUS
 10
15.4406700329
 20
-3.2969578816
 11
15.4407836804
 21
-3.0640573948
  0
LINE
  5
2D9
100
AcDbEntity
  8
ASSI
100
AcDbLine
 62
253
  6
CONTINUOUS
 10
15.4406700329
 20
-3.2969578816
 11
15.4407836804
 21
-3.0640573948
  0
LINE
  5
2DA
100
AcDbEntity
  8
RACCORDO
100
AcDbLine
 62
7
  6
CONTINUOUS
 10
15.6019523268
 20
-3.4694507805
 11
15.6017521859
 21
-3.5579588963
  0
LINE
  5
2DB
100
AcDbEntity
  8
RACCORDO
100
AcDbLine
 62
7
  6
CONTINUOUS
 10
15.6017521859
 20
-3.5579588963
 11
15.6011864406
 21
-3.6388500721
  0
LINE
  5
2DC
100
AcDbEntity
  8
RACCORDO
100
AcDbLine
 62
253
  6
CONTINUOUS
 10
15.440089755
 20
-3.3838294435
 11
15.4406700329
 21
-3.2969578816
  0
LINE
  5
2DD
100
AcDbEntity
  8
ASSI
100
AcDbLine
 62
253
  6
CONTINUOUS
 10
15.440089755
 20
-3.3838294435
 11
15.4406700329
 21
-3.2969578816
  0
LINE
  5
2DE
100
AcDbEntity
  8
RACCORDO
100
AcDbLine
 62
7
  6
CONTINUOUS
 10
15.4296644557
 20
-3.3151387845
 11
15.4324468311
 21
-3.0557205456
  0
LINE
  5
2DF
100
AcDbEntity
  8
ASSI
100
AcDbLine
 62
7
  6
CONTINUOUS
 10
15.4296644557
 20
-3.3151387845
 11
15.4324468311
 21
-3.0557205456
  0
LINE
  5
2E0
100
AcDbEntity
  8
RACCORDO
100
AcDbLine
 62
253
  6
CONTINUOUS
 10
15.4394536284
 20
-3.4343828938
 11
15.440089755
 21
-3.3838294435
  0
LINE
  5
2E1
100
AcDbEntity
  8
ASSI
100
AcDbLine
 62
253
  6
CONTINUOUS
 10
15.4394536284
 20
-3.4343828938
 11
15.440089755
 21
-3.3838294435
  0
LWPOLYLINE
  5
2E2
100
AcDbEntity
  8
RACCORDO
100
AcDbPolyline
 62
7
  6
CONTINUOUS
 90
8
 70
0
 10
15.6011864406
 20
-3.6388500721
 10
15.6002747352
 20
-3.710364539
 10
15.5997103713
 20
-3.7402251926
 10
15.5990758877
 20
-3.7662751947
 10
15.5984009237
 20
-3.7872965843
 10
15.597695359
 20
-3.8028833746
 10
15.5969493141
 20
-3.8134415524
 10
15.5961627887
 20
-3.8189711177
  0
LINE
  5
2E3
100
AcDbEntity
  8
RACCORDO
100
AcDbLine
 62
7
  6
CONTINUOUS
 10
15.4260751063
 20
-3.5396406163
 11
15.4296644557
 21
-3.3151387845
  0
LINE
  5
2E4
100
AcDbEntity
  8
ASSI
100
AcDbLine
 62
7
  6
CONTINUOUS
 10
15.4260751063
 20
-3.5396406163
 11
15.4296644557
 21
-3.3151387845
  0
LWPOLYLINE
  5
2E5
100
AcDbEntity
  8
RACCORDO
100
AcDbPolyline
 62
7
  6
CONTINUOUS
 90
16
 70
0
 10
15.4260751063
 20
0.8364638585
 10
15.426406072
 20
0.8528075572
 10
15.4279690303
 20
0.8685361447
 10
15.4306330756
 20
0.8835681575
 10
15.4342497361
 20
0.8977886636
 10
15.4386995816
 20
0.9112064631
 10
15.4439303821
 20
0.9239395116
 10
15.4498426581
 20
0.9359415613
 10
15.4563527611
 20
0.947208118
 10
15.4635040636
 20
0.9579005637
 10
15.4712622535
 20
0.9680107555
 10
15.4795606417
 20
0.9774899825
 10
15.488448226
 20
0.9864062503
 10
15.4979245531
 20
0.9947511882
 10
15.5079189242
 20
1.0024593115
 10
15.5183904337
 20
1.0094992975
  0
LWPOLYLINE
  5
2E6
100
AcDbEntity
  8
ASSI
100
AcDbPolyline
 62
7
  6
CONTINUOUS
 90
16
 70
0
 10
15.4260751063
 20
0.8364638585
 10
15.426406072
 20
0.8528075572
 10
15.4279690303
 20
0.8685361447
 10
15.4306330756
 20
0.8835681575
 10
15.4342497361
 20
0.8977886636
 10
15.4386995816
 20
0.9112064631
 10
15.4439303821
 20
0.9239395116
 10
15.4498426581
 20
0.9359415613
 10
15.4563527611
 20
0.947208118
 10
15.4635040636
 20
0.9579005637
 10
15.4712622535
 20
0.9680107555
 10
15.4795606417
 20
0.9774899825
 10
15.488448226
 20
0.9864062503
 10
15.4979245531
 20
0.9947511882
 10
15.5079189242
 20
1.0024593115
 10
15.5183904337
 20
1.0094992975
  0
LWPOLYLINE
  5
2E7
100
AcDbEntity
  8
RACCORDO
100
AcDbPolyline
 62
253
  6
CONTINUOUS
 90
16
 70
0
 10
15.6387907429
 20
1.6880269256
 10
15.64211566
 20
1.7509187497
 10
15.6520154109
 20
1.8131172391
 10
15.6683808254
 20
1.8739369271
 10
15.6910345676
 20
1.9327144626
 10
15.7197252752
 20
1.9887945469
 10
15.7541232407
 20
2.041540687
 10
15.7938338279
 20
2.090365059
 10
15.8384218241
 20
2.1347475492
 10
15.8874087639
 20
2.1742174467
 10
15.9403347373
 20
2.2083867266
 10
15.9965480232
 20
2.2368184394
 10
16.0551880901
 20
2.2591224692
 10
16.1155029898
 20
2.2751120504
 10
16.1768970456
 20
2.284724804
 10
16.23869936
 20
2.2879355427
  0
LWPOLYLINE
  5
2E8
100
AcDbEntity
  8
RACCORDO
100
AcDbPolyline
 62
7
  6
CONTINUOUS
 90
16
 70
0
 10
15.5283146645
 20
1.7987771249
 10
15.531903294
 20
1.8626393798
 10
15.5416986896
 20
1.9244707275
 10
15.5577008511
 20
1.9842711679
 10
15.5802194206
 20
2.0426449583
 10
15.6089447561
 20
2.0989878415
 10
15.6429479315
 20
2.1514870456
 10
15.682399013
 20
2.2000175691
 10
15.7271279344
 20
2.2447044136
 10
15.7756955715
 20
2.2841098119
 10
15.828247661
 20
2.3180635703
 10
15.8846384662
 20
2.3467358825
 10
15.9429916522
 20
2.3691995623
 10
16.0026817742
 20
2.3851455477
 10
16.064334277
 20
2.3948829006
 10
16.1279491607
 20
2.3984116211
  0
LWPOLYLINE
  5
2E9
100
AcDbEntity
  8
RACCORDO
100
AcDbPolyline
 62
7
  6
CONTINUOUS
 90
16
 70
0
 10
15.5583146645
 20
1.768503004
 10
15.5619003501
 20
1.8323308944
 10
15.5716889033
 20
1.8941356922
 10
15.5876803241
 20
1.9539173977
 10
15.610181529
 20
2.0122785364
 10
15.6388856016
 20
2.0686165826
 10
15.6728717926
 20
2.1211239592
 10
15.712317002
 20
2.1696819566
 10
15.7570443298
 20
2.2144092843
 10
15.8056023272
 20
2.2538544936
 10
15.8581097037
 20
2.2878406844
 10
15.9144477497
 20
2.3165447568
 10
15.9728088882
 20
2.3390459616
 10
16.0325905935
 20
2.3550373823
 10
16.0943953913
 20
2.3648259355
 10
16.1582232816
 20
2.3684116211
  0
LWPOLYLINE
  5
2EA
100
AcDbEntity
  8
RACCORDO
100
AcDbPolyline
 62
253
  6
CONTINUOUS
 90
9
 70
0
 10
15.4355809119
 20
0.8317113177
 10
15.4386235988
 20
0.8664362974
 10
15.4476486508
 20
0.9001063805
 10
15.4623818996
 20
0.9316987164
 10
15.4823757693
 20
0.9602535735
 10
15.5070228741
 20
0.9849034948
 10
15.5355744692
 20
1.00489965
 10
15.5671631969
 20
1.0196345832
 10
15.5998737421
 20
1.0284044413
  0
LWPOLYLINE
  5
2EB
100
AcDbEntity
  8
ASSI
100
AcDbPolyline
 62
253
  6
CONTINUOUS
 90
9
 70
0
 10
15.4355809119
 20
0.8317113177
 10
15.4386235988
 20
0.8664362974
 10
15.4476486508
 20
0.9001063805
 10
15.4623818996
 20
0.9316987164
 10
15.4823757693
 20
0.9602535735
 10
15.5070228741
 20
0.9849034948
 10
15.5355744692
 20
1.00489965
 10
15.5671631969
 20
1.0196345832
 10
15.5998737421
 20
1.0284044413
  0
LWPOLYLINE
  5
2EC
100
AcDbEntity
  8
0
100
AcDbPolyline
 62
7
  6
CONTINUOUS
 90
36
 70
0
 10
15.1522104909
 20
-2.6095399053
 10
15.1367798095
 20
-2.6916459104
 10
15.1170355663
 20
-2.7680911161
 10
15.0929777615
 20
-2.8388605503
 10
15.0644297843
 20
-2.9044053473
 10
15.0315682454
 20
-2.9643856847
 10
14.9949229769
 20
-3.0177245593
 10
14.9544231928
 20
-3.0644549823
 10
14.9101396791
 20
-3.1049586668
 10
14.8628146252
 20
-3.1387864069
 10
14.8119223684
 20
-3.1661725319
 10
14.7579885715
 20
-3.1873003228
 10
14.7033324118
 20
-3.2016539242
 10
14.6481579021
 20
-3.2090573843
 10
14.5922610297
 20
-3.209884859
 10
14.5373489338
 20
-3.2043807746
 10
14.4835260893
 20
-3.1924841571
 10
14.4306880213
 20
-3.1741042488
 10
14.3802284443
 20
-3.14936806
 10
14.3319754698
 20
-3.1175091095
 10
14.2861009863
 20
-3.0788716126
 10
14.2445143738
 20
-3.0352961668
 10
14.2079991508
 20
-2.9870807646
 10
14.1757717987
 20
-2.9336406233
 10
14.1473911419
 20
-2.8756260068
 10
14.1227515122
 20
-2.8128706848
 10
14.1019585779
 20
-2.7454172288
 10
14.0848881673
 20
-2.6743437543
 10
14.0714773443
 20
-2.5996776439
 10
14.0617890451
 20
-2.5215434246
 10
14.0558879062
 20
-2.4412797631
 10
14.0536102883
 20
-2.3588302054
 10
14.0551198307
 20
-2.2746434885
 10
14.060972088
 20
-2.1908726392
 10
14.0710435029
 20
-2.1075531422
 10
14.0854576328
 20
-2.0251056652
  0
LWPOLYLINE
  5
2ED
100
AcDbEntity
  8
RACCORDO
100
AcDbPolyline
 62
7
  6
CONTINUOUS
 90
8
 70
0
 10
13.637370563
 20
-3.7425324803
 10
13.6374767547
 20
-3.7420488368
 10
13.6375817397
 20
-3.7408475636
 10
13.6376855181
 20
-3.7389286608
 10
13.6377884603
 20
-3.7362798678
 10
13.6378901958
 20
-3.7329134451
 10
13.6379896133
 20
-3.7288661744
 10
13.6381807539
 20
-3.7187536097
  0
LWPOLYLINE
  5
2EE
100
AcDbEntity
  8
ASSI
100
AcDbPolyline
 62
7
  6
CONTINUOUS
 90
8
 70
0
 10
13.637370563
 20
-3.7425324803
 10
13.6374767547
 20
-3.7420488368
 10
13.6375817397
 20
-3.7408475636
 10
13.6376855181
 20
-3.7389286608
 10
13.6377884603
 20
-3.7362798678
 10
13.6378901958
 20
-3.7329134451
 10
13.6379896133
 20
-3.7288661744
 10
13.6381807539
 20
-3.7187536097
  0
LWPOLYLINE
  5
2EF
100
AcDbEntity
  8
0
100
AcDbPolyline
 62
7
  6
CONTINUOUS
 90
5
 70
0
 10
14.0854576328
 20
-2.0251056652
 10
14.1051407043
 20
-1.946177842
 10
14.1304014597
 20
-1.87167635
 10
14.1609311568
 20
-1.8008484707
 10
14.1967297955
 20
-1.7337268384
  0
LWPOLYLINE
  5
2F0
100
AcDbEntity
  8
0
100
AcDbPolyline
 62
7
  6
CONTINUOUS
 90
38
 70
0
 10
15.1532328175
 20
-0.1002178712
 10
15.1632144321
 20
-0.1798012484
 10
15.1693481744
 20
-0.2603616604
 10
15.1716340445
 20
-0.3417002607
 10
15.1702092701
 20
-0.4242408118
 10
15.1649366234
 20
-0.507130716
 10
15.1554044217
 20
-0.5882646888
 10
15.1415789
 20
-0.6677020403
 10
15.1234938233
 20
-0.745026543
 10
15.1008388036
 20
-0.8175592075
 10
15.0732073969
 20
-0.8852454213
 10
15.0410060472
 20
-0.9481633484
 10
15.0051436993
 20
-1.004091901
 10
14.9654278642
 20
-1.0526643564
 10
14.9220510308
 20
-1.0946939697
 10
14.8764996111
 20
-1.1298866334
 10
14.8288816022
 20
-1.1582474838
 10
14.7790890069
 20
-1.180209633
 10
14.7282842456
 20
-1.1961025203
 10
14.676488245
 20
-1.2061454972
 10
14.6236800783
 20
-1.210322357
 10
14.5709593863
 20
-1.2085414038
 10
14.5181322604
 20
-1.200776726
 10
14.4653926091
 20
-1.1869750269
 10
14.4144217986
 20
-1.1669303943
 10
14.3649331069
 20
-1.1396897612
 10
14.3172132561
 20
-1.1058324822
 10
14.2738037779
 20
-1.0674854286
 10
14.2355717557
 20
-1.0243566307
 10
14.2016501062
 20
-0.976456329
 10
14.1719791111
 20
-0.9265833366
 10
14.1469053293
 20
-0.8751137033
 10
14.1260822018
 20
-0.8216958524
 10
14.1084103334
 20
-0.7682365542
 10
14.0938515593
 20
-0.7149496604
 10
14.0824440443
 20
-0.6617814043
 10
14.0732028873
 20
-0.6103286175
 10
14.0660825897
 20
-0.5612327745
  0
LWPOLYLINE
  5
2F1
100
AcDbEntity
  8
RACCORDO
100
AcDbPolyline
 62
7
  6
CONTINUOUS
 90
4
 70
0
 10
16.6093920436
 20
-3.8189711177
 10
16.6089988377
 20
-3.8134424851
 10
16.608625864
 20
-3.8028853841
 10
16.6082731225
 20
-3.7872998147
  0
LWPOLYLINE
  5
2F2
100
AcDbEntity
  8
RACCORDO
100
AcDbPolyline
 62
7
  6
CONTINUOUS
 90
5
 70
0
 10
16.5859824137
 20
-4.9361610599
 10
16.5864836184
 20
-4.9591919847
 10
16.5869976893
 20
-4.975874449
 10
16.587529713
 20
-4.9865145543
 10
16.5880796897
 20
-4.9911123005
  0
LINE
  5
2F3
100
AcDbEntity
  8
RACCORDO
100
AcDbLine
 62
253
  6
CONTINUOUS
 10
16.6708376813
 20
2.1851811138
 11
16.6713187506
 21
2.1591906737
  0
LINE
  5
2F4
100
AcDbEntity
  8
ASSI
100
AcDbLine
 62
253
  6
CONTINUOUS
 10
16.6708376813
 20
2.1851811138
 11
16.6713187506
 21
2.1591906737
  0
LINE
  5
2F5
100
AcDbEntity
  8
RACCORDO
100
AcDbLine
 62
253
  6
CONTINUOUS
 10
16.8205853242
 20
2.3389306799
 11
16.821082039
 21
2.308722479
  0
LINE
  5
2F6
100
AcDbEntity
  8
ASSI
100
AcDbLine
 62
253
  6
CONTINUOUS
 10
16.8205853242
 20
2.3389306799
 11
16.821082039
 21
2.308722479
  0
LINE
  5
2F7
100
AcDbEntity
  8
RACCORDO
100
AcDbLine
 62
7
  6
CONTINUOUS
 10
16.6472496411
 20
0.9866355469
 11
16.6480361111
 21
0.9340667345
  0
LINE
  5
2F8
100
AcDbEntity
  8
ASSI
100
AcDbLine
 62
7
  6
CONTINUOUS
 10
16.6472496411
 20
0.9866355469
 11
16.6480361111
 21
0.9340667345
  0
LINE
  5
2F9
100
AcDbEntity
  8
RACCORDO
100
AcDbLine
 62
7
  6
CONTINUOUS
 10
16.5850491234
 20
-4.8728904377
 11
16.5859824137
 21
-4.9361610599
  0
LINE
  5
2FA
100
AcDbEntity
  8
RACCORDO
100
AcDbLine
 62
7
  6
CONTINUOUS
 10
16.6082731225
 20
-3.7872998147
 11
16.6076184559
 21
-3.7402317888
  0
LINE
  5
2FB
100
AcDbEntity
  8
RACCORDO
100
AcDbLine
 62
253
  6
CONTINUOUS
 10
16.6713187506
 20
2.1591906737
 11
16.671948398
 21
2.1032877456
  0
LINE
  5
2FC
100
AcDbEntity
  8
ASSI
100
AcDbLine
 62
253
  6
CONTINUOUS
 10
16.6713187506
 20
2.1591906737
 11
16.671948398
 21
2.1032877456
  0
LINE
  5
2FD
100
AcDbEntity
  8
RACCORDO
100
AcDbLine
 62
253
  6
CONTINUOUS
 10
16.821082039
 20
2.308722479
 11
16.8217483158
 21
2.2383506513
  0
LINE
  5
2FE
100
AcDbEntity
  8
ASSI
100
AcDbLine
 62
253
  6
CONTINUOUS
 10
16.821082039
 20
2.308722479
 11
16.8217483158
 21
2.2383506513
  0
LINE
  5
2FF
100
AcDbEntity
  8
RACCORDO
100
AcDbLine
 62
7
  6
CONTINUOUS
 10
16.5839135473
 20
-4.7404724012
 11
16.5850491234
 21
-4.8728904377
  0
LINE
  5
300
100
AcDbEntity
  8
RACCORDO
100
AcDbLine
 62
7
  6
CONTINUOUS
 10
16.6480361111
 20
0.9340667345
 11
16.6489931927
 21
0.823521529
  0
LINE
  5
301
100
AcDbEntity
  8
ASSI
100
AcDbLine
 62
7
  6
CONTINUOUS
 10
16.6480361111
 20
0.9340667345
 11
16.6489931927
 21
0.823521529
  0
LINE
  5
302
100
AcDbEntity
  8
RACCORDO
100
AcDbLine
 62
7
  6
CONTINUOUS
 10
16.6076184559
 20
-3.7402317888
 11
16.6068804469
 21
-3.638857936
  0
LINE
  5
303
100
AcDbEntity
  8
RACCORDO
100
AcDbLine
 62
253
  6
CONTINUOUS
 10
16.671948398
 20
2.1032877456
 11
16.672652471
 21
1.9753804057
  0
LINE
  5
304
100
AcDbEntity
  8
ASSI
100
AcDbLine
 62
253
  6
CONTINUOUS
 10
16.671948398
 20
2.1032877456
 11
16.672652471
 21
1.9753804057
  0
LINE
  5
305
100
AcDbEntity
  8
RACCORDO
100
AcDbLine
 62
253
  6
CONTINUOUS
 10
16.8217483158
 20
2.2383506513
 11
16.8226452493
 21
2.0270211257
  0
LINE
  5
306
100
AcDbEntity
  8
ASSI
100
AcDbLine
 62
253
  6
CONTINUOUS
 10
16.8217483158
 20
2.2383506513
 11
16.8226452493
 21
2.0270211257
  0
LINE
  5
307
100
AcDbEntity
  8
DRAFT
100
AcDbLine
 62
7
  6
CONTINUOUS
 10
16.6445499163
 20
-1.9977126824
 11
16.6418325792
 21
-1.3515883789
  0
LINE
  5
308
100
AcDbEntity
  8
ASSI
100
AcDbLine
 62
7
  6
CONTINUOUS
 10
16.6445499163
 20
-1.9977126824
 11
16.6418325792
 21
-1.3515883789
  0
LINE
  5
309
100
AcDbEntity
  8
RACCORDO
100
AcDbLine
 62
7
  6
CONTINUOUS
 10
16.5829654669
 20
-4.454292453
 11
16.5839135473
 21
-4.7404724012
  0
LINE
  5
30A
100
AcDbEntity
  8
RACCORDO
100
AcDbLine
 62
7
  6
CONTINUOUS
 10
16.6489931927
 20
0.823521529
 11
16.6497921127
 21
0.5840654325
  0
LINE
  5
30B
100
AcDbEntity
  8
ASSI
100
AcDbLine
 62
7
  6
CONTINUOUS
 10
16.6489931927
 20
0.823521529
 11
16.6497921127
 21
0.5840654325
  0
LINE
  5
30C
100
AcDbEntity
  8
RACCORDO
100
AcDbLine
 62
253
  6
CONTINUOUS
 10
16.672652471
 20
1.9753804057
 11
16.6728331135
 21
1.8569399599
  0
LINE
  5
30D
100
AcDbEntity
  8
ASSI
100
AcDbLine
 62
253
  6
CONTINUOUS
 10
16.672652471
 20
1.9753804057
 11
16.6728331135
 21
1.8569399599
  0
LINE
  5
30E
100
AcDbEntity
  8
RACCORDO
100
AcDbLine
 62
253
  6
CONTINUOUS
 10
16.23869936
 20
-4.9911123005
 11
16.23869936
 21
2.2879355427
  0
LINE
  5
30F
100
AcDbEntity
  8
RACCORDO
100
AcDbLine
 62
7
  6
CONTINUOUS
 10
16.6068804469
 20
-3.638857936
 11
16.606497495
 21
0.7662740228
  0
LINE
  5
310
100
AcDbEntity
  8
DRAFT
100
AcDbLine
 62
7
  6
CONTINUOUS
 10
16.6283146645
 20
2.3684116211
 11
16.6283146645
 21
1.6984116211
  0
LINE
  5
311
100
AcDbEntity
  8
DRAFT
100
AcDbLine
 62
7
  6
CONTINUOUS
 10
16.6283146645
 20
-4.4015883789
 11
16.6283146645
 21
-5.0715883789
  0
LINE
  5
312
100
AcDbEntity
  8
RACCORDO
100
AcDbLine
 62
7
  6
CONTINUOUS
 10
16.6283146645
 20
-4.9515940904
 11
16.6283146645
 21
-4.3015883789
  0
LINE
  5
313
100
AcDbEntity
  8
DRAFT
100
AcDbLine
 62
7
  6
CONTINUOUS
 10
16.6283146645
 20
-4.3015883789
 11
16.6283146645
 21
-3.7515883789
  0
LINE
  5
314
100
AcDbEntity
  8
ASSI
100
AcDbLine
 62
7
  6
CONTINUOUS
 10
16.6283146645
 20
-4.9515940904
 11
16.6283146645
 21
-3.7515883789
  0
LINE
  5
315
100
AcDbEntity
  8
DRAFT
100
AcDbLine
 62
7
  6
CONTINUOUS
 10
16.6283146645
 20
1.0484116211
 11
16.6283146645
 21
1.5984116211
  0
LINE
  5
316
100
AcDbEntity
  8
RACCORDO
100
AcDbLine
 62
7
  6
CONTINUOUS
 10
16.6283146645
 20
1.5984116211
 11
16.6283146645
 21
2.2484173326
  0
LINE
  5
317
100
AcDbEntity
  8
ASSI
100
AcDbLine
 62
7
  6
CONTINUOUS
 10
16.6283146645
 20
1.0484116211
 11
16.6283146645
 21
2.2484173326
  0
LINE
  5
318
100
AcDbEntity
  8
RACCORDO
100
AcDbLine
 62
7
  6
CONTINUOUS
 10
16.6498178087
 20
0.3652385876
 11
16.6497921127
 21
0.5840654325
  0
LINE
  5
319
100
AcDbEntity
  8
ASSI
100
AcDbLine
 62
7
  6
CONTINUOUS
 10
16.6498178087
 20
0.3652385876
 11
16.6497921127
 21
0.5840654325
  0
LINE
  5
31A
100
AcDbEntity
  8
RACCORDO
100
AcDbLine
 62
7
  6
CONTINUOUS
 10
16.6728331135
 20
1.8569399599
 11
16.6728331135
 21
-4.5601167177
  0
LINE
  5
31B
100
AcDbEntity
  8
ASSI
100
AcDbLine
 62
7
  6
CONTINUOUS
 10
16.6728331135
 20
1.8569399599
 11
16.6728331135
 21
-4.5601167177
  0
LINE
  5
31C
100
AcDbEntity
  8
RACCORDO
100
AcDbLine
 62
253
  6
CONTINUOUS
 10
16.8226452493
 20
2.0270211257
 11
16.822827402
 21
-4.5600034998
  0
LINE
  5
31D
100
AcDbEntity
  8
ASSI
100
AcDbLine
 62
253
  6
CONTINUOUS
 10
16.8226452493
 20
2.0270211257
 11
16.822827402
 21
-4.5600034998
  0
LINE
  5
31E
100
AcDbEntity
  8
DRAFT
100
AcDbLine
 62
7
  6
CONTINUOUS
 10
16.6448587055
 20
-0.4663289981
 11
16.6434708921
 21
0.3525437878
  0
LINE
  5
31F
100
AcDbEntity
  8
ASSI
100
AcDbLine
 62
7
  6
CONTINUOUS
 10
16.6448587055
 20
-0.4663289981
 11
16.6434708921
 21
0.3525437878
  0
LINE
  5
320
100
AcDbEntity
  8
DRAFT
100
AcDbLine
 62
7
  6
CONTINUOUS
 10
16.6442539014
 20
-2.8308541859
 11
16.6445499163
 21
-1.9977126824
  0
LINE
  5
321
100
AcDbEntity
  8
ASSI
100
AcDbLine
 62
7
  6
CONTINUOUS
 10
16.6442539014
 20
-2.8308541859
 11
16.6445499163
 21
-1.9977126824
  0
LINE
  5
322
100
AcDbEntity
  8
RACCORDO
100
AcDbLine
 62
7
  6
CONTINUOUS
 10
16.5833777947
 20
1.9292645482
 11
16.5829654669
 21
-4.454292453
  0
LINE
  5
323
100
AcDbEntity
  8
RACCORDO
100
AcDbLine
 62
7
  6
CONTINUOUS
 10
16.6498178087
 20
-3.0684153454
 11
16.6494446765
 21
-3.4363404883
  0
LINE
  5
324
100
AcDbEntity
  8
ASSI
100
AcDbLine
 62
7
  6
CONTINUOUS
 10
16.6498178087
 20
-3.0684153454
 11
16.6494446765
 21
-3.4363404883
  0
LINE
  5
325
100
AcDbEntity
  8
DRAFT
100
AcDbLine
 62
7
  6
CONTINUOUS
 10
16.6434708921
 20
-3.0557205456
 11
16.6442539014
 21
-2.8308541859
  0
LINE
  5
326
100
AcDbEntity
  8
ASSI
100
AcDbLine
 62
7
  6
CONTINUOUS
 10
16.6434708921
 20
-3.0557205456
 11
16.6442539014
 21
-2.8308541859
  0
LINE
  5
327
100
AcDbEntity
  8
RACCORDO
100
AcDbLine
 62
253
  6
CONTINUOUS
 10
16.8228274915
 20
-4.5600034998
 11
16.8222808944
 21
-4.8455662423
  0
LINE
  5
328
100
AcDbEntity
  8
ASSI
100
AcDbLine
 62
253
  6
CONTINUOUS
 10
16.8228274915
 20
-4.5600034998
 11
16.8222808944
 21
-4.8455662423
  0
LINE
  5
329
100
AcDbEntity
  8
RACCORDO
100
AcDbLine
 62
7
  6
CONTINUOUS
 10
16.606497495
 20
0.7662740228
 11
16.6068804469
 21
0.9356811782
  0
LINE
  5
32A
100
AcDbEntity
  8
RACCORDO
100
AcDbLine
 62
253
  6
CONTINUOUS
 10
16.6728331135
 20
-4.5601167177
 11
16.6724297577
 21
-4.7339393963
  0
LINE
  5
32B
100
AcDbEntity
  8
ASSI
100
AcDbLine
 62
253
  6
CONTINUOUS
 10
16.6728331135
 20
-4.5601167177
 11
16.6724297577
 21
-4.7339393963
  0
LINE
  5
32C
100
AcDbEntity
  8
DRAFT
100
AcDbLine
 62
7
  6
CONTINUOUS
 10
16.643024003
 20
-1.1516431678
 11
16.6448587055
 21
-0.4663289981
  0
LINE
  5
32D
100
AcDbEntity
  8
ASSI
100
AcDbLine
 62
7
  6
CONTINUOUS
 10
16.643024003
 20
-1.1516431678
 11
16.6448587055
 21
-0.4663289981
  0
LINE
  5
32E
100
AcDbEntity
  8
DRAFT
100
AcDbLine
 62
7
  6
CONTINUOUS
 10
16.6418325792
 20
-1.3515883789
 11
16.643024003
 21
-1.1516431678
  0
LINE
  5
32F
100
AcDbEntity
  8
ASSI
100
AcDbLine
 62
7
  6
CONTINUOUS
 10
16.6418325792
 20
-1.3515883789
 11
16.643024003
 21
-1.1516431678
  0
LINE
  5
330
100
AcDbEntity
  8
RACCORDO
100
AcDbLine
 62
253
  6
CONTINUOUS
 10
16.8222808944
 20
-4.8455662423
 11
16.8215372148
 21
-4.9681869269
  0
LINE
  5
331
100
AcDbEntity
  8
ASSI
100
AcDbLine
 62
253
  6
CONTINUOUS
 10
16.8222808944
 20
-4.8455662423
 11
16.8215372148
 21
-4.9681869269
  0
LINE
  5
332
100
AcDbEntity
  8
RACCORDO
100
AcDbLine
 62
7
  6
CONTINUOUS
 10
16.5846333586
 20
2.1302287837
 11
16.5833777947
 21
1.9292645482
  0
LINE
  5
333
100
AcDbEntity
  8
RACCORDO
100
AcDbLine
 62
7
  6
CONTINUOUS
 10
16.6494446765
 20
-3.4363404883
 11
16.6483864982
 21
-3.604325907
  0
LINE
  5
334
100
AcDbEntity
  8
ASSI
100
AcDbLine
 62
7
  6
CONTINUOUS
 10
16.6494446765
 20
-3.4363404883
 11
16.6483864982
 21
-3.604325907
  0
LINE
  5
335
100
AcDbEntity
  8
RACCORDO
100
AcDbLine
 62
7
  6
CONTINUOUS
 10
16.6068804469
 20
0.9356811782
 11
16.6076184559
 21
1.037055031
  0
LINE
  5
336
100
AcDbEntity
  8
RACCORDO
100
AcDbLine
 62
253
  6
CONTINUOUS
 10
16.6724297577
 20
-4.7339393963
 11
16.6717526608
 21
-4.8271609308
  0
LINE
  5
337
100
AcDbEntity
  8
ASSI
100
AcDbLine
 62
253
  6
CONTINUOUS
 10
16.6724297577
 20
-4.7339393963
 11
16.6717526608
 21
-4.8271609308
  0
LINE
  5
338
100
AcDbEntity
  8
RACCORDO
100
AcDbLine
 62
253
  6
CONTINUOUS
 10
16.8215372148
 20
-4.9681869269
 11
16.8210814592
 21
-5.0119440739
  0
LINE
  5
339
100
AcDbEntity
  8
ASSI
100
AcDbLine
 62
253
  6
CONTINUOUS
 10
16.8215372148
 20
-4.9681869269
 11
16.8210814592
 21
-5.0119440739
  0
LWPOLYLINE
  5
33A
100
AcDbEntity
  8
RACCORDO
100
AcDbPolyline
 62
7
  6
CONTINUOUS
 90
7
 70
0
 10
16.6483864982
 20
-3.604325907
 10
16.6476568521
 20
-3.6656925441
 10
16.6472496439
 20
-3.6898121765
 10
16.6468275014
 20
-3.7088225658
 10
16.6463947626
 20
-3.7224638073
 10
16.6459470896
 20
-3.7309958057
 10
16.6454844824
 20
-3.7344185609
  0
LWPOLYLINE
  5
33B
100
AcDbEntity
  8
ASSI
100
AcDbPolyline
 62
7
  6
CONTINUOUS
 90
7
 70
0
 10
16.6483864982
 20
-3.604325907
 10
16.6476568521
 20
-3.6656925441
 10
16.6472496439
 20
-3.6898121765
 10
16.6468275014
 20
-3.7088225658
 10
16.6463947626
 20
-3.7224638073
 10
16.6459470896
 20
-3.7309958057
 10
16.6454844824
 20
-3.7344185609
  0
LINE
  5
33C
100
AcDbEntity
  8
RACCORDO
100
AcDbLine
 62
253
  6
CONTINUOUS
 10
16.6717526608
 20
-4.8271609308
 11
16.6713181686
 21
-4.8624063611
  0
LINE
  5
33D
100
AcDbEntity
  8
ASSI
100
AcDbLine
 62
253
  6
CONTINUOUS
 10
16.6717526608
 20
-4.8271609308
 11
16.6713181686
 21
-4.8624063611
  0
LWPOLYLINE
  5
33E
100
AcDbEntity
  8
RACCORDO
100
AcDbPolyline
 62
7
  6
CONTINUOUS
 90
5
 70
0
 10
16.6076184559
 20
1.037055031
 10
16.6082731225
 20
1.0841230569
 10
16.608625864
 20
1.0997086263
 10
16.6089988377
 20
1.1102657273
 10
16.6093920436
 20
1.1157943599
  0
LWPOLYLINE
  5
33F
100
AcDbEntity
  8
RACCORDO
100
AcDbPolyline
 62
253
  6
CONTINUOUS
 90
5
 70
0
 10
16.8210814592
 20
-5.0119440739
 10
16.8205848107
 20
-5.042130604
 10
16.8203291747
 20
-5.0518343838
 10
16.8200674553
 20
-5.0578385159
 10
16.8197996526
 20
-5.0600976792
  0
LWPOLYLINE
  5
340
100
AcDbEntity
  8
ASSI
100
AcDbPolyline
 62
253
  6
CONTINUOUS
 90
5
 70
0
 10
16.8210814592
 20
-5.0119440739
 10
16.8205848107
 20
-5.042130604
 10
16.8203291747
 20
-5.0518343838
 10
16.8200674553
 20
-5.0578385159
 10
16.8197996526
 20
-5.0600976792
  0
LWPOLYLINE
  5
341
100
AcDbEntity
  8
RACCORDO
100
AcDbPolyline
 62
253
  6
CONTINUOUS
 90
6
 70
0
 10
16.6713181686
 20
-4.8624063611
 10
16.6708371195
 20
-4.888380435
 10
16.6705855819
 20
-4.897683667
 10
16.6703308016
 20
-4.9043633062
 10
16.6700707291
 20
-4.9085032142
 10
16.6698053641
 20
-4.9101033908
  0
LWPOLYLINE
  5
342
100
AcDbEntity
  8
ASSI
100
AcDbPolyline
 62
253
  6
CONTINUOUS
 90
6
 70
0
 10
16.6713181686
 20
-4.8624063611
 10
16.6708371195
 20
-4.888380435
 10
16.6705855819
 20
-4.897683667
 10
16.6703308016
 20
-4.9043633062
 10
16.6700707291
 20
-4.9085032142
 10
16.6698053641
 20
-4.9101033908
  0
LWPOLYLINE
  5
343
100
AcDbEntity
  8
RACCORDO
100
AcDbPolyline
 62
7
  6
CONTINUOUS
 90
13
 70
0
 10
16.6283146645
 20
2.2484173326
 10
16.6297765206
 20
2.2685224801
 10
16.6335824082
 20
2.2876564127
 10
16.6397323273
 20
2.3058191307
 10
16.6484095875
 20
2.3232849293
 10
16.6594308793
 20
2.3397795131
 10
16.6722462736
 20
2.3544799961
 10
16.6869467568
 20
2.3672953933
 10
16.7034413426
 20
2.3783166896
 10
16.7209071438
 20
2.3869939537
 10
16.7390698647
 20
2.393143875
 10
16.7582038011
 20
2.3969497642
 10
16.7783089529
 20
2.3984116211
  0
LWPOLYLINE
  5
344
100
AcDbEntity
  8
ASSI
100
AcDbPolyline
 62
7
  6
CONTINUOUS
 90
13
 70
0
 10
16.6283146645
 20
2.2484173326
 10
16.6297765206
 20
2.2685224801
 10
16.6335824082
 20
2.2876564127
 10
16.6397323273
 20
2.3058191307
 10
16.6484095875
 20
2.3232849293
 10
16.6594308793
 20
2.3397795131
 10
16.6722462736
 20
2.3544799961
 10
16.6869467568
 20
2.3672953933
 10
16.7034413426
 20
2.3783166896
 10
16.7209071438
 20
2.3869939537
 10
16.7390698647
 20
2.393143875
 10
16.7582038011
 20
2.3969497642
 10
16.7783089529
 20
2.3984116211
  0
LWPOLYLINE
  5
345
100
AcDbEntity
  8
RACCORDO
100
AcDbPolyline
 62
7
  6
CONTINUOUS
 90
7
 70
0
 10
16.5880796897
 20
2.2879355427
 10
16.587529713
 20
2.2833377965
 10
16.5869976893
 20
2.2726976912
 10
16.5864836184
 20
2.2560152269
 10
16.5859824137
 20
2.2329843021
 10
16.585499162
 20
2.2039110182
 10
16.5846333586
 20
2.1302287837
  0
LINE
  5
346
100
AcDbEntity
  8
RACCORDO
100
AcDbLine
 62
7
  6
CONTINUOUS
 10
16.6283146645
 20
1.2294310693
 11
16.6093920436
 21
1.1157943599
  0
LWPOLYLINE
  5
347
100
AcDbEntity
  8
RACCORDO
100
AcDbPolyline
 62
253
  6
CONTINUOUS
 90
8
 70
0
 10
15.4355809119
 20
-3.5348880755
 10
15.4361343293
 20
-3.5328718368
 10
15.4366705973
 20
-3.5277752078
 10
15.4371897157
 20
-3.5195981885
 10
15.4376971966
 20
-3.5081836346
 10
15.438187528
 20
-3.4936886903
 10
15.4386441739
 20
-3.4765847885
 10
15.4394536284
 20
-3.4343828938
  0
LWPOLYLINE
  5
348
100
AcDbEntity
  8
ASSI
100
AcDbPolyline
 62
253
  6
CONTINUOUS
 90
8
 70
0
 10
15.4355809119
 20
-3.5348880755
 10
15.4361343293
 20
-3.5328718368
 10
15.4366705973
 20
-3.5277752078
 10
15.4371897157
 20
-3.5195981885
 10
15.4376971966
 20
-3.5081836346
 10
15.438187528
 20
-3.4936886903
 10
15.4386441739
 20
-3.4765847885
 10
15.4394536284
 20
-3.4343828938
  0
LINE
  5
349
100
AcDbEntity
  8
RACCORDO
100
AcDbLine
 62
7
  6
CONTINUOUS
 10
15.5961627887
 20
-3.8189711177
 11
15.5583146645
 21
-3.9326078271
  0
LINE
  5
34A
100
AcDbEntity
  8
RACCORDO
100
AcDbLine
 62
7
  6
CONTINUOUS
 10
16.6283146645
 20
2.3684116211
 11
16.5880796897
 21
2.2879355427
  0
LWPOLYLINE
  5
34B
100
AcDbEntity
  8
0
100
AcDbPolyline
 62
7
  6
CONTINUOUS
 90
34
 70
0
 10
14.1967297955
 20
0.2662731616
 10
14.2148145764
 20
0.2938523165
 10
14.2345288461
 20
0.3201659795
 10
14.2558726046
 20
0.3452310575
 10
14.2788591338
 20
0.3692636203
 10
14.3034751517
 20
0.3920809122
 10
14.3296808129
 20
0.4131173689
 10
14.3576342303
 20
0.4324190124
 10
14.387177291
 20
0.4500055903
 10
14.4177958094
 20
0.4652985689
 10
14.4494411683
 20
0.4782289858
 10
14.4821619851
 20
0.4889430206
 10
14.5155899265
 20
0.4971951197
 10
14.5496006761
 20
0.5030315759
 10
14.5843185503
 20
0.5064524264
 10
14.6197481657
 20
0.5071369334
 10
14.6560263162
 20
0.5051765169
 10
14.693016208
 20
0.5004749046
 10
14.7303120756
 20
0.4924117507
 10
14.7680417667
 20
0.4809603086
 10
14.8060774336
 20
0.4660592452
 10
14.8436297687
 20
0.4469985862
 10
14.8809712527
 20
0.4232993226
 10
14.9178294049
 20
0.3952288675
 10
14.9525974753
 20
0.3631791626
 10
14.98487881
 20
0.3270792345
 10
15.0150700629
 20
0.2867787052
 10
15.042754446
 20
0.242580027
 10
15.0678726629
 20
0.194279748
 10
15.0904840101
 20
0.1419152658
 10
15.1103495889
 20
0.08620949
 10
15.1273897667
 20
0.0274094552
 10
15.1416841763
 20
-0.0347411653
 10
15.1532328175
 20
-0.1002178712
  0
LWPOLYLINE
  5
34C
100
AcDbEntity
  8
0
100
AcDbPolyline
 62
7
  6
CONTINUOUS
 90
40
 70
0
 10
14.1967297955
 20
-1.7337268384
 10
14.2155040798
 20
-1.7051285054
 10
14.2360324778
 20
-1.6779118382
 10
14.2583149895
 20
-1.6520573809
 10
14.2823695929
 20
-1.6273236843
 10
14.30817831
 20
-1.6039139362
 10
14.335687207
 20
-1.5824575298
 10
14.3650861565
 20
-1.5629055484
 10
14.3961852859
 20
-1.5452319434
 10
14.4283610434
 20
-1.5300708099
 10
14.4615320329
 20
-1.517507892
 10
14.4957796506
 20
-1.5073726988
 10
14.5307245322
 20
-1.4999052994
 10
14.5662648531
 20
-1.4950455595
 10
14.602502438
 20
-1.4928092328
 10
14.6393633972
 20
-1.4935590467
 10
14.6769641892
 20
-1.4971991785
 10
14.7151883555
 20
-1.5038436452
 10
14.7536126308
 20
-1.5141936044
 10
14.7924563616
 20
-1.5283546252
 10
14.8315002014
 20
-1.5463411455
 10
14.8696628457
 20
-1.5687602229
 10
14.9070879708
 20
-1.596116618
 10
14.9436319004
 20
-1.6281534028
 10
14.9777823007
 20
-1.6643443691
 10
15.0091478248
 20
-1.7047397849
 10
15.0381198196
 20
-1.7495182628
 10
15.0643599917
 20
-1.798301213
 10
15.0878286522
 20
-1.8514021221
 10
15.10856549
 20
-1.9086525095
 10
15.1263512783
 20
-1.9688670259
 10
15.1410856516
 20
-2.031783211
 10
15.1528689753
 20
-2.0976016253
 10
15.1617831196
 20
-2.1657478291
 10
15.1679653172
 20
-2.236189497
 10
15.1712783353
 20
-2.3087528059
 10
15.1713923447
 20
-2.3826029196
 10
15.1681974022
 20
-2.4573509082
 10
15.1618034509
 20
-2.5330586614
 10
15.1522104909
 20
-2.6095399053
  0
LINE
  5
34D
100
AcDbEntity
  8
RACCORDO
100
AcDbLine
 62
7
  6
CONTINUOUS
 10
16.6283146645
 20
-5.0715883789
 11
16.5880796897
 21
-4.9911123005
  0
LINE
  5
34E
100
AcDbEntity
  8
DRAFT
100
AcDbLine
 62
7
  6
CONTINUOUS
 10
16.6434708921
 20
-3.0557205456
 11
16.6498178087
 21
-3.0684153454
  0
LINE
  5
34F
100
AcDbEntity
  8
ASSI
100
AcDbLine
 62
7
  6
CONTINUOUS
 10
16.6434708921
 20
-3.0557205456
 11
16.6498178087
 21
-3.0684153454
  0
LINE
  5
350
100
AcDbEntity
  8
RACCORDO
100
AcDbLine
 62
7
  6
CONTINUOUS
 10
15.5961627887
 20
1.1157943599
 11
15.5583146645
 21
1.2294310693
  0
LINE
  5
351
100
AcDbEntity
  8
RACCORDO
100
AcDbLine
 62
7
  6
CONTINUOUS
 10
16.6283146645
 20
-3.9326078271
 11
16.6093920436
 21
-3.8189711177
  0
LWPOLYLINE
  5
352
100
AcDbEntity
  8
RACCORDO
100
AcDbPolyline
 62
7
  6
CONTINUOUS
 90
7
 70
0
 10
15.5961627887
 20
1.1157943599
 10
15.5969493141
 20
1.1102647946
 10
15.597695359
 20
1.0997066168
 10
15.5984009237
 20
1.0841198265
 10
15.5990758877
 20
1.0630984369
 10
15.5997103713
 20
1.0370484348
 10
15.6002747352
 20
1.0071877812
  0
LWPOLYLINE
  5
353
100
AcDbEntity
  8
RACCORDO
100
AcDbPolyline
 62
7
  6
CONTINUOUS
 90
5
 70
0
 10
16.6454844824
 20
1.0312418032
 10
16.6459470882
 20
1.0278190971
 10
16.6463947602
 20
1.0192871356
 10
16.6468274985
 20
1.0056459186
 10
16.6472496411
 20
0.9866355469
  0
LWPOLYLINE
  5
354
100
AcDbEntity
  8
ASSI
100
AcDbPolyline
 62
7
  6
CONTINUOUS
 90
5
 70
0
 10
16.6454844824
 20
1.0312418032
 10
16.6459470882
 20
1.0278190971
 10
16.6463947602
 20
1.0192871356
 10
16.6468274985
 20
1.0056459186
 10
16.6472496411
 20
0.9866355469
  0
LINE
  5
355
100
AcDbEntity
  8
DRAFT
100
AcDbLine
 62
7
  6
CONTINUOUS
 10
17.4248236515
 20
1.6019026341
 11
17.4248236515
 21
-4.3050793919
  0
LINE
  5
356
100
AcDbEntity
  8
ASSI
100
AcDbLine
 62
7
  6
CONTINUOUS
 10
17.4248236515
 20
1.6019026341
 11
17.4248236515
 21
-4.3050793919
  0
LINE
  5
357
100
AcDbEntity
  8
DRAFT
100
AcDbLine
 62
7
  6
CONTINUOUS
 10
17.4283146645
 20
1.5984116211
 11
17.4283146645
 21
-4.3015883789
  0
LINE
  5
358
100
AcDbEntity
  8
ASSI
100
AcDbLine
 62
7
  6
CONTINUOUS
 10
17.4283146645
 20
1.5984116211
 11
17.4283146645
 21
-4.3015883789
  0
LINE
  5
359
100
AcDbEntity
  8
CURVE
100
AcDbLine
 62
253
  6
CONTINUOUS
 10
18.5283146824
 20
-2.3515883789
 11
18.5283146824
 21
-0.9515883789
  0
LINE
  5
35A
100
AcDbEntity
  8
DRAFT
100
AcDbLine
 62
7
  6
CONTINUOUS
 10
16.6498178087
 20
0.3652385876
 11
16.6434708921
 21
0.3525437878
  0
LINE
  5
35B
100
AcDbEntity
  8
ASSI
100
AcDbLine
 62
7
  6
CONTINUOUS
 10
16.6498178087
 20
0.3652385876
 11
16.6434708921
 21
0.3525437878
  0
LINE
  5
35C
100
AcDbEntity
  8
RACCORDO
100
AcDbLine
 62
7
  6
CONTINUOUS
 10
15.4407836804
 20
-3.0640573948
 11
15.4324468311
 21
-3.0557205456
  0
LINE
  5
35D
100
AcDbEntity
  8
ASSI
100
AcDbLine
 62
7
  6
CONTINUOUS
 10
15.4407836804
 20
-3.0640573948
 11
15.4324468311
 21
-3.0557205456
  0
LWPOLYLINE
  5
35E
100
AcDbEntity
  8
RACCORDO
100
AcDbPolyline
 62
253
  6
CONTINUOUS
 90
5
 70
0
 10
16.6698053641
 20
2.206926633
 10
16.6700709434
 20
2.2053220498
 10
16.6703311833
 20
2.2011769026
 10
16.6705860841
 20
2.1944911914
 10
16.6708376813
 20
2.1851811138
  0
LWPOLYLINE
  5
35F
100
AcDbEntity
  8
ASSI
100
AcDbPolyline
 62
253
  6
CONTINUOUS
 90
5
 70
0
 10
16.6698053641
 20
2.206926633
 10
16.6700709434
 20
2.2053220498
 10
16.6703311833
 20
2.2011769026
 10
16.6705860841
 20
2.1944911914
 10
16.6708376813
 20
2.1851811138
  0
LWPOLYLINE
  5
360
100
AcDbEntity
  8
RACCORDO
100
AcDbPolyline
 62
253
  6
CONTINUOUS
 90
4
 70
0
 10
16.8197996526
 20
2.3569209214
 10
16.8200676757
 20
2.3546583153
 10
16.8203295662
 20
2.3486458155
 10
16.8205853242
 20
2.3389306799
  0
LWPOLYLINE
  5
361
100
AcDbEntity
  8
ASSI
100
AcDbPolyline
 62
253
  6
CONTINUOUS
 90
4
 70
0
 10
16.8197996526
 20
2.3569209214
 10
16.8200676757
 20
2.3546583153
 10
16.8203295662
 20
2.3486458155
 10
16.8205853242
 20
2.3389306799
  0
LINE
  5
362
100
AcDbEntity
  8
SCRITTE
100
AcDbLine
 62
253
  6
CONTINUOUS
 10
19.1283146645
 20
2.3914301269
 11
19.1283146645
 21
2.379212512
  0
LINE
  5
363
100
AcDbEntity
  8
CURVE
100
AcDbLine
 62
253
  6
CONTINUOUS
 10
19.3283146764
 20
-2.3515883789
 11
19.3283146764
 21
-0.9515883789
  0
LINE
  5
364
100
AcDbEntity
  8
CURVE
100
AcDbLine
 62
253
  6
CONTINUOUS
 10
19.728314736
 20
-1.3515883551
 11
19.728314736
 21
-1.951588361
  0
LINE
  5
365
100
AcDbEntity
  8
0
100
AcDbLine
 62
7
  6
CONTINUOUS
 10
19.4805486645
 20
1.0659736211
 11
19.1466266645
 21
-0.1040943789
  0
LINE
  5
366
100
AcDbEntity
  8
ASSI
100
AcDbLine
 62
7
  6
CONTINUOUS
 10
19.4805486645
 20
1.0659736211
 11
19.1466266645
 21
-0.1040943789
  0
LINE
  5
367
100
AcDbEntity
  8
0
100
AcDbLine
 62
7
  6
CONTINUOUS
 10
19.2887306645
 20
-0.6338893789
 11
19.8351346645
 21
1.0659736211
  0
LINE
  5
368
100
AcDbEntity
  8
ASSI
100
AcDbLine
 62
7
  6
CONTINUOUS
 10
19.2887306645
 20
-0.6338893789
 11
19.8351346645
 21
1.0659736211
  0
LINE
  5
369
100
AcDbEntity
  8
RACCORDO
100
AcDbLine
 62
7
  6
CONTINUOUS
 10
15.4324468311
 20
0.3525437878
 11
15.4407836804
 21
0.360880637
  0
LINE
  5
36A
100
AcDbEntity
  8
ASSI
100
AcDbLine
 62
7
  6
CONTINUOUS
 10
15.4324468311
 20
0.3525437878
 11
15.4407836804
 21
0.360880637
  0
LINE
  5
36B
100
AcDbEntity
  8
SCRITTE
100
AcDbLine
 62
253
  6
CONTINUOUS
 10
18.9283147002
 20
-4.0515883789
 11
18.1283146645
 21
-2.6515883789
  0
LINE
  5
36C
100
AcDbEntity
  8
0
100
AcDbLine
 62
7
  6
CONTINUOUS
 10
18.4371486645
 20
1.0659736211
 11
18.9760386645
 21
-0.6338893789
  0
LINE
  5
36D
100
AcDbEntity
  8
ASSI
100
AcDbLine
 62
7
  6
CONTINUOUS
 10
18.4371486645
 20
1.0659736211
 11
18.9760386645
 21
-0.6338893789
  0
LINE
  5
36E
100
AcDbEntity
  8
0
100
AcDbLine
 62
7
  6
CONTINUOUS
 10
19.1466266645
 20
-0.1040943789
 11
18.8226016645
 21
1.0659736211
  0
LINE
  5
36F
100
AcDbEntity
  8
ASSI
100
AcDbLine
 62
7
  6
CONTINUOUS
 10
19.1466266645
 20
-0.1040943789
 11
18.8226016645
 21
1.0659736211
  0
LINE
  5
370
100
AcDbEntity
  8
SCRITTE
100
AcDbLine
 62
253
  6
CONTINUOUS
 10
19.9283147002
 20
2.379212512
 11
19.9283147002
 21
2.3914301269
  0
LINE
  5
371
100
AcDbEntity
  8
0
100
AcDbLine
 62
7
  6
CONTINUOUS
 10
19.9668126645
 20
1.0660756211
 11
19.9668126645
 21
-0.6338893789
  0
LINE
  5
372
100
AcDbEntity
  8
ASSI
100
AcDbLine
 62
7
  6
CONTINUOUS
 10
19.9668126645
 20
1.0660756211
 11
19.9668126645
 21
-0.6338893789
  0
LINE
  5
373
100
AcDbEntity
  8
0
100
AcDbLine
 62
7
  6
CONTINUOUS
 10
20.3216406645
 20
-0.6338893789
 11
20.3216406645
 21
1.0660756211
  0
LINE
  5
374
100
AcDbEntity
  8
ASSI
100
AcDbLine
 62
7
  6
CONTINUOUS
 10
20.3216406645
 20
-0.6338893789
 11
20.3216406645
 21
1.0660756211
  0
LINE
  5
375
100
AcDbEntity
  8
CURVE
100
AcDbLine
 62
253
  6
CONTINUOUS
 10
20.428314736
 20
-1.951588361
 11
20.428314736
 21
-1.3515883551
  0
LINE
  5
376
100
AcDbEntity
  8
SCRITTE
100
AcDbLine
 62
253
  6
CONTINUOUS
 10
20.9283146645
 20
-4.0515883789
 11
20.9283146645
 21
-3.2515883431
  0
LINE
  5
377
100
AcDbEntity
  8
0
100
AcDbLine
 62
7
  6
CONTINUOUS
 10
20.8521106645
 20
-0.6338893789
 11
20.9286826645
 21
0.4760896211
  0
LINE
  5
378
100
AcDbEntity
  8
ASSI
100
AcDbLine
 62
7
  6
CONTINUOUS
 10
20.8521106645
 20
-0.6338893789
 11
20.9286826645
 21
0.4760896211
  0
LINE
  5
379
100
AcDbEntity
  8
0
100
AcDbLine
 62
7
  6
CONTINUOUS
 10
20.6661426645
 20
1.0659736211
 11
20.5126556645
 21
-0.6338893789
  0
LINE
  5
37A
100
AcDbEntity
  8
ASSI
100
AcDbLine
 62
7
  6
CONTINUOUS
 10
20.6661426645
 20
1.0659736211
 11
20.5126556645
 21
-0.6338893789
  0
LINE
  5
37B
100
AcDbEntity
  8
CURVE
100
AcDbLine
 62
253
  6
CONTINUOUS
 10
19.8283146883
 20
-1.151588367
 11
19.728314736
 21
-1.3515883551
  0
LINE
  5
37C
100
AcDbEntity
  8
SCRITTE
100
AcDbLine
 62
253
  6
CONTINUOUS
 10
18.9283147002
 20
-2.6515883789
 11
18.1283146645
 21
-4.0515883789
  0
LINE
  5
37D
100
AcDbEntity
  8
RACCORDO
100
AcDbLine
 62
7
  6
CONTINUOUS
 10
13.637370563
 20
-3.7425324803
 11
13.6283146645
 21
-3.7515883789
  0
LINE
  5
37E
100
AcDbEntity
  8
ASSI
100
AcDbLine
 62
7
  6
CONTINUOUS
 10
13.637370563
 20
-3.7425324803
 11
13.6283146645
 21
-3.7515883789
  0
LWPOLYLINE
  5
37F
100
AcDbEntity
  8
RACCORDO
100
AcDbPolyline
 62
7
  6
CONTINUOUS
 90
6
 70
0
 10
15.5183904337
 20
-3.7126760553
 10
15.5337094241
 20
-3.7212367858
 10
15.5496911391
 20
-3.7285113387
 10
15.5663355786
 20
-3.7343832102
 10
15.5836427428
 20
-3.738742769
 10
15.5996867539
 20
-3.7411948536
  0
LWPOLYLINE
  5
380
100
AcDbEntity
  8
ASSI
100
AcDbPolyline
 62
7
  6
CONTINUOUS
 90
6
 70
0
 10
15.5183904337
 20
-3.7126760553
 10
15.5337094241
 20
-3.7212367858
 10
15.5496911391
 20
-3.7285113387
 10
15.5663355786
 20
-3.7343832102
 10
15.5836427428
 20
-3.738742769
 10
15.5996867539
 20
-3.7411948536
  0
LWPOLYLINE
  5
381
100
AcDbEntity
  8
RACCORDO
100
AcDbPolyline
 62
7
  6
CONTINUOUS
 90
16
 70
0
 10
15.5183904337
 20
-3.7126760553
 10
15.5079240088
 20
-3.7056397747
 10
15.4979276441
 20
-3.6979305284
 10
15.4884432538
 20
-3.6895783319
 10
15.4795401562
 20
-3.6806447757
 10
15.47122301
 20
-3.6711396206
 10
15.4634508829
 20
-3.6610031179
 10
15.456291076
 20
-3.650285747
 10
15.4497768025
 20
-3.6389951214
 10
15.4438674494
 20
-3.6269767566
 10
15.4386456987
 20
-3.6142379286
 10
15.4342083546
 20
-3.6008241753
 10
15.4306060817
 20
-3.5866197722
 10
15.4279557823
 20
-3.5716169426
 10
15.4264028459
 20
-3.5559301953
 10
15.4260751063
 20
-3.5396406163
  0
LWPOLYLINE
  5
382
100
AcDbEntity
  8
ASSI
100
AcDbPolyline
 62
7
  6
CONTINUOUS
 90
16
 70
0
 10
15.5183904337
 20
-3.7126760553
 10
15.5079240088
 20
-3.7056397747
 10
15.4979276441
 20
-3.6979305284
 10
15.4884432538
 20
-3.6895783319
 10
15.4795401562
 20
-3.6806447757
 10
15.47122301
 20
-3.6711396206
 10
15.4634508829
 20
-3.6610031179
 10
15.456291076
 20
-3.650285747
 10
15.4497768025
 20
-3.6389951214
 10
15.4438674494
 20
-3.6269767566
 10
15.4386456987
 20
-3.6142379286
 10
15.4342083546
 20
-3.6008241753
 10
15.4306060817
 20
-3.5866197722
 10
15.4279557823
 20
-3.5716169426
 10
15.4264028459
 20
-3.5559301953
 10
15.4260751063
 20
-3.5396406163
  0
LINE
  5
383
100
AcDbEntity
  8
RACCORDO
100
AcDbLine
 62
7
  6
CONTINUOUS
 10
13.637370563
 20
1.0393557225
 11
13.6283146645
 21
1.0484116211
  0
LINE
  5
384
100
AcDbEntity
  8
ASSI
100
AcDbLine
 62
7
  6
CONTINUOUS
 10
13.637370563
 20
1.0393557225
 11
13.6283146645
 21
1.0484116211
  0
LINE
  5
385
100
AcDbEntity
  8
SCRITTE
100
AcDbLine
 62
253
  6
CONTINUOUS
 10
20.1283147122
 20
-4.0515883789
 11
19.3283146764
 21
-2.6515883789
  0
LINE
  5
386
100
AcDbEntity
  8
CURVE
100
AcDbLine
 62
253
  6
CONTINUOUS
 10
19.728314736
 20
-1.951588361
 11
19.8283146883
 21
-2.15158837
  0
LINE
  5
387
100
AcDbEntity
  8
0
100
AcDbLine
 62
7
  6
CONTINUOUS
 10
22.2366106645
 20
-0.6338893789
 11
22.0776536645
 21
1.0659736211
  0
LINE
  5
388
100
AcDbEntity
  8
ASSI
100
AcDbLine
 62
7
  6
CONTINUOUS
 10
22.2366106645
 20
-0.6338893789
 11
22.0776536645
 21
1.0659736211
  0
LINE
  5
389
100
AcDbEntity
  8
0
100
AcDbLine
 62
7
  6
CONTINUOUS
 10
21.8165936645
 20
0.4714626211
 11
21.8894946645
 21
-0.6338893789
  0
LINE
  5
38A
100
AcDbEntity
  8
ASSI
100
AcDbLine
 62
7
  6
CONTINUOUS
 10
21.8165936645
 20
0.4714626211
 11
21.8894946645
 21
-0.6338893789
  0
LINE
  5
38B
100
AcDbEntity
  8
SCRITTE
100
AcDbLine
 62
253
  6
CONTINUOUS
 10
21.5283146883
 20
2.3914301269
 11
21.5283146883
 21
2.379212512
  0
LINE
  5
38C
100
AcDbEntity
  8
SCRITTE
100
AcDbLine
 62
253
  6
CONTINUOUS
 10
22.1283147598
 20
-4.0515883789
 11
22.1283147598
 21
-3.2515883431
  0
LINE
  5
38D
100
AcDbEntity
  8
SCRITTE
100
AcDbLine
 62
253
  6
CONTINUOUS
 10
22.2283145214
 20
2.3809578856
 11
22.2283145214
 21
2.3896847534
  0
LINE
  5
38E
100
AcDbEntity
  8
CURVE
100
AcDbLine
 62
253
  6
CONTINUOUS
 10
22.5283145691
 20
-1.151588367
 11
22.5283145691
 21
-1.3515883551
  0
LINE
  5
38F
100
AcDbEntity
  8
0
100
AcDbLine
 62
7
  6
CONTINUOUS
 10
22.8255126645
 20
1.0659736211
 11
22.2923276645
 21
-0.6338893789
  0
LINE
  5
390
100
AcDbEntity
  8
ASSI
100
AcDbLine
 62
7
  6
CONTINUOUS
 10
22.8255126645
 20
1.0659736211
 11
22.2923276645
 21
-0.6338893789
  0
LINE
  5
391
100
AcDbEntity
  8
0
100
AcDbLine
 62
7
  6
CONTINUOUS
 10
21.7265866645
 20
1.0659736211
 11
21.3717586645
 21
0.1222046211
  0
LINE
  5
392
100
AcDbEntity
  8
ASSI
100
AcDbLine
 62
7
  6
CONTINUOUS
 10
21.7265866645
 20
1.0659736211
 11
21.3717586645
 21
0.1222046211
  0
LINE
  5
393
100
AcDbEntity
  8
0
100
AcDbLine
 62
7
  6
CONTINUOUS
 10
21.3947026645
 20
-0.6338893789
 11
21.8165936645
 21
0.4714626211
  0
LINE
  5
394
100
AcDbEntity
  8
ASSI
100
AcDbLine
 62
7
  6
CONTINUOUS
 10
21.3947026645
 20
-0.6338893789
 11
21.8165936645
 21
0.4714626211
  0
LINE
  5
395
100
AcDbEntity
  8
CURVE
100
AcDbLine
 62
253
  6
CONTINUOUS
 10
20.3283146168
 20
-2.15158837
 11
20.428314736
 21
-1.951588361
  0
LINE
  5
396
100
AcDbEntity
  8
SCRITTE
100
AcDbLine
 62
253
  6
CONTINUOUS
 10
20.1283147122
 20
-2.6515883789
 11
19.3283146764
 21
-4.0515883789
  0
LINE
  5
397
100
AcDbEntity
  8
CURVE
100
AcDbLine
 62
253
  6
CONTINUOUS
 10
18.5283146824
 20
-0.9515883789
 11
18.1283146645
 21
-1.3515883551
  0
LINE
  5
398
100
AcDbEntity
  8
RACCORDO
100
AcDbLine
 62
253
  6
CONTINUOUS
 10
15.5583146645
 20
-4.4716797618
 11
15.6387907429
 21
-4.3912036834
  0
LINE
  5
399
100
AcDbEntity
  8
CURVE
100
AcDbLine
 62
253
  6
CONTINUOUS
 10
19.3283146764
 20
-0.9515883789
 11
18.9283147002
 21
-1.3515883551
  0
LINE
  5
39A
100
AcDbEntity
  8
RACCORDO
100
AcDbLine
 62
7
  6
CONTINUOUS
 10
16.6454844824
 20
-3.7344185609
 11
16.6283146645
 21
-3.7515883789
  0
LINE
  5
39B
100
AcDbEntity
  8
ASSI
100
AcDbLine
 62
7
  6
CONTINUOUS
 10
16.6454844824
 20
-3.7344185609
 11
16.6283146645
 21
-3.7515883789
  0
LINE
  5
39C
100
AcDbEntity
  8
RACCORDO
100
AcDbLine
 62
253
  6
CONTINUOUS
 10
15.6387907429
 20
1.6880269256
 11
15.5583146645
 21
1.768503004
  0
LINE
  5
39D
100
AcDbEntity
  8
CURVE
100
AcDbLine
 62
253
  6
CONTINUOUS
 10
19.8283146883
 20
-2.15158837
 11
20.028314593
 21
-2.3515883789
  0
LINE
  5
39E
100
AcDbEntity
  8
RACCORDO
100
AcDbLine
 62
7
  6
CONTINUOUS
 10
16.6283146645
 20
1.0484116211
 11
16.6454844824
 21
1.0312418032
  0
LINE
  5
39F
100
AcDbEntity
  8
ASSI
100
AcDbLine
 62
7
  6
CONTINUOUS
 10
16.6283146645
 20
1.0484116211
 11
16.6454844824
 21
1.0312418032
  0
LINE
  5
3A0
100
AcDbEntity
  8
SCRITTE
100
AcDbLine
 62
253
  6
CONTINUOUS
 10
20.9283146645
 20
-3.2515883431
 11
20.5283146883
 21
-2.6515883789
  0
LINE
  5
3A1
100
AcDbEntity
  8
SCRITTE
100
AcDbLine
 62
253
  6
CONTINUOUS
 10
22.1283147598
 20
-3.2515883431
 11
21.7283146168
 21
-2.6515883789
  0
LINE
  5
3A2
100
AcDbEntity
  8
CURVE
100
AcDbLine
 62
253
  6
CONTINUOUS
 10
20.428314736
 20
-1.3515883551
 11
20.3283146168
 21
-1.151588367
  0
LINE
  5
3A3
100
AcDbEntity
  8
0
100
AcDbLine
 62
7
  6
CONTINUOUS
 10
20.9286826645
 20
0.4760896211
 11
21.3449386645
 21
-0.6338893789
  0
LINE
  5
3A4
100
AcDbEntity
  8
ASSI
100
AcDbLine
 62
7
  6
CONTINUOUS
 10
20.9286826645
 20
0.4760896211
 11
21.3449386645
 21
-0.6338893789
  0
LINE
  5
3A5
100
AcDbEntity
  8
0
100
AcDbLine
 62
7
  6
CONTINUOUS
 10
21.3717586645
 20
0.1222046211
 11
21.0206776645
 21
1.0659736211
  0
LINE
  5
3A6
100
AcDbEntity
  8
ASSI
100
AcDbLine
 62
7
  6
CONTINUOUS
 10
21.3717586645
 20
0.1222046211
 11
21.0206776645
 21
1.0659736211
  0
LINE
  5
3A7
100
AcDbEntity
  8
SCRITTE
100
AcDbLine
 62
253
  6
CONTINUOUS
 10
22.7949813629
 20
2.3914301269
 11
22.7949813629
 21
2.379212512
  0
LINE
  5
3A8
100
AcDbEntity
  8
CURVE
100
AcDbLine
 62
253
  6
CONTINUOUS
 10
22.9283147122
 20
-0.9515883789
 11
22.9283147122
 21
-1.5515883431
  0
LINE
  5
3A9
100
AcDbEntity
  8
CURVE
100
AcDbLine
 62
253
  6
CONTINUOUS
 10
23.5283147598
 20
-1.7515883729
 11
23.5283147598
 21
-2.15158837
  0
LINE
  5
3AA
100
AcDbEntity
  8
0
100
AcDbLine
 62
7
  6
CONTINUOUS
 10
23.7945213284
 20
1.0461137033
 11
23.7945213284
 21
-0.6338890656
  0
LINE
  5
3AB
100
AcDbEntity
  8
ASSI
100
AcDbLine
 62
7
  6
CONTINUOUS
 10
23.7945213284
 20
1.0461137033
 11
23.7945213284
 21
-0.6338890656
  0
LINE
  5
3AC
100
AcDbEntity
  8
CURVE
100
AcDbLine
 62
253
  6
CONTINUOUS
 10
23.9283145691
 20
-1.3515883551
 11
23.9283145691
 21
-1.951588361
  0
LINE
  5
3AD
100
AcDbEntity
  8
0
100
AcDbLine
 62
7
  6
CONTINUOUS
 10
22.8137986645
 20
-0.0319463789
 11
22.9904726645
 21
0.5988946211
  0
LINE
  5
3AE
100
AcDbEntity
  8
ASSI
100
AcDbLine
 62
7
  6
CONTINUOUS
 10
22.8137986645
 20
-0.0319463789
 11
22.9904726645
 21
0.5988946211
  0
LINE
  5
3AF
100
AcDbEntity
  8
0
100
AcDbLine
 62
7
  6
CONTINUOUS
 10
22.6433056645
 20
-0.6338893789
 11
22.7412166645
 21
-0.2945363789
  0
LINE
  5
3B0
100
AcDbEntity
  8
ASSI
100
AcDbLine
 62
7
  6
CONTINUOUS
 10
22.6433056645
 20
-0.6338893789
 11
22.7412166645
 21
-0.2945363789
  0
LINE
  5
3B1
100
AcDbEntity
  8
CURVE
100
AcDbLine
 62
253
  6
CONTINUOUS
 10
21.8283145691
 20
-1.2515884027
 11
22.0283148075
 21
-0.9515883789
  0
LINE
  5
3B2
100
AcDbEntity
  8
SCRITTE
100
AcDbLine
 62
253
  6
CONTINUOUS
 10
21.3283148075
 20
-2.6515883789
 11
20.9283146645
 21
-3.2515883431
  0
LINE
  5
3B3
100
AcDbEntity
  8
CURVE
100
AcDbLine
 62
253
  6
CONTINUOUS
 10
20.028314593
 20
-0.9515883789
 11
19.8283146883
 21
-1.151588367
  0
LINE
  5
3B4
100
AcDbEntity
  8
RACCORDO
100
AcDbLine
 62
253
  6
CONTINUOUS
 10
16.1582232816
 20
-5.0715883789
 11
16.23869936
 21
-4.9911123005
  0
LINE
  5
3B5
100
AcDbEntity
  8
RACCORDO
100
AcDbLine
 62
253
  6
CONTINUOUS
 10
16.6698053641
 20
-4.9101033908
 11
16.6283146645
 21
-4.9515940904
  0
LINE
  5
3B6
100
AcDbEntity
  8
ASSI
100
AcDbLine
 62
253
  6
CONTINUOUS
 10
16.6698053641
 20
-4.9101033908
 11
16.6283146645
 21
-4.9515940904
  0
LINE
  5
3B7
100
AcDbEntity
  8
DRAFT
100
AcDbLine
 62
7
  6
CONTINUOUS
 10
17.4248236515
 20
-4.3050793919
 11
17.4283146645
 21
-4.3015883789
  0
LINE
  5
3B8
100
AcDbEntity
  8
RACCORDO
100
AcDbLine
 62
253
  6
CONTINUOUS
 10
16.8197996526
 20
-5.0600976792
 11
16.7783089529
 21
-5.1015883789
  0
LINE
  5
3B9
100
AcDbEntity
  8
ASSI
100
AcDbLine
 62
253
  6
CONTINUOUS
 10
16.8197996526
 20
-5.0600976792
 11
16.7783089529
 21
-5.1015883789
  0
LINE
  5
3BA
100
AcDbEntity
  8
RACCORDO
100
AcDbLine
 62
253
  6
CONTINUOUS
 10
16.23869936
 20
2.2879355427
 11
16.1582232816
 21
2.3684116211
  0
LINE
  5
3BB
100
AcDbEntity
  8
RACCORDO
100
AcDbLine
 62
253
  6
CONTINUOUS
 10
16.6283146645
 20
2.2484173326
 11
16.6698053641
 21
2.206926633
  0
LINE
  5
3BC
100
AcDbEntity
  8
ASSI
100
AcDbLine
 62
253
  6
CONTINUOUS
 10
16.6283146645
 20
2.2484173326
 11
16.6698053641
 21
2.206926633
  0
LINE
  5
3BD
100
AcDbEntity
  8
DRAFT
100
AcDbLine
 62
7
  6
CONTINUOUS
 10
17.4248236515
 20
1.6019026341
 11
17.4283146645
 21
1.5984116211
  0
LINE
  5
3BE
100
AcDbEntity
  8
RACCORDO
100
AcDbLine
 62
253
  6
CONTINUOUS
 10
16.7783089529
 20
2.3984116211
 11
16.8197996526
 21
2.3569209214
  0
LINE
  5
3BF
100
AcDbEntity
  8
ASSI
100
AcDbLine
 62
253
  6
CONTINUOUS
 10
16.7783089529
 20
2.3984116211
 11
16.8197996526
 21
2.3569209214
  0
LINE
  5
3C0
100
AcDbEntity
  8
CURVE
100
AcDbLine
 62
253
  6
CONTINUOUS
 10
20.3283146168
 20
-1.151588367
 11
20.1283147122
 21
-0.9515883789
  0
LINE
  5
3C1
100
AcDbEntity
  8
0
100
AcDbLine
 62
7
  6
CONTINUOUS
 10
23.2244336645
 20
-0.2945363789
 11
23.3163526645
 21
-0.6338893789
  0
LINE
  5
3C2
100
AcDbEntity
  8
ASSI
100
AcDbLine
 62
7
  6
CONTINUOUS
 10
23.2244336645
 20
-0.2945363789
 11
23.3163526645
 21
-0.6338893789
  0
LINE
  5
3C3
100
AcDbEntity
  8
0
100
AcDbLine
 62
7
  6
CONTINUOUS
 10
22.9904726645
 20
0.5988946211
 11
23.1535206645
 21
-0.0319463789
  0
LINE
  5
3C4
100
AcDbEntity
  8
ASSI
100
AcDbLine
 62
7
  6
CONTINUOUS
 10
22.9904726645
 20
0.5988946211
 11
23.1535206645
 21
-0.0319463789
  0
LINE
  5
3C5
100
AcDbEntity
  8
0
100
AcDbLine
 62
7
  6
CONTINUOUS
 10
24.1361560961
 20
0.3097397896
 11
24.1361560961
 21
0.7763852721
  0
LINE
  5
3C6
100
AcDbEntity
  8
ASSI
100
AcDbLine
 62
7
  6
CONTINUOUS
 10
24.1361560961
 20
0.3097397896
 11
24.1361560961
 21
0.7763852721
  0
LINE
  5
3C7
100
AcDbEntity
  8
0
100
AcDbLine
 62
7
  6
CONTINUOUS
 10
24.1479216605
 20
-0.6338890656
 11
24.1479216605
 21
0.031343337
  0
LINE
  5
3C8
100
AcDbEntity
  8
ASSI
100
AcDbLine
 62
7
  6
CONTINUOUS
 10
24.1479216605
 20
-0.6338890656
 11
24.1479216605
 21
0.031343337
  0
LINE
  5
3C9
100
AcDbEntity
  8
CURVE
100
AcDbLine
 62
253
  6
CONTINUOUS
 10
24.6283145691
 20
-1.951588361
 11
24.6283145691
 21
-1.3515883551
  0
LINE
  5
3CA
100
AcDbEntity
  8
0
100
AcDbLine
 62
7
  6
CONTINUOUS
 10
24.7067668472
 20
0.1595918127
 11
24.7067668472
 21
0.1696365199
  0
LINE
  5
3CB
100
AcDbEntity
  8
ASSI
100
AcDbLine
 62
7
  6
CONTINUOUS
 10
24.7067668472
 20
0.1595918127
 11
24.7067668472
 21
0.1696365199
  0
LINE
  5
3CC
100
AcDbEntity
  8
SCRITTE
100
AcDbLine
 62
253
  6
CONTINUOUS
 10
25.1616476799
 20
2.3914301269
 11
25.1616476799
 21
2.379212512
  0
LWPOLYLINE
  5
3CD
100
AcDbEntity
  8
0
100
AcDbPolyline
 62
7
  6
CONTINUOUS
 90
16
 70
0
 10
24.6145671429
 20
0.5738977423
 10
24.6127578771
 20
0.5404575266
 10
24.6082528247
 20
0.5089315112
 10
24.6010519856
 20
0.4793196959
 10
24.5909786029
 20
0.4513333897
 10
24.5782094336
 20
0.4252612838
 10
24.5632747489
 20
0.4019694516
 10
24.5463371947
 20
0.3818225304
 10
24.527234125
 20
0.3644558829
 10
24.5060078732
 20
0.3496416708
 10
24.4824951943
 20
0.3374580986
 10
24.4568593332
 20
0.3278269617
 10
24.4296323574
 20
0.3202858076
 10
24.4009916227
 20
0.3146804855
 10
24.3707597732
 20
0.3111651462
 10
24.3389368089
 20
0.3097397896
  0
LWPOLYLINE
  5
3CE
100
AcDbEntity
  8
ASSI
100
AcDbPolyline
 62
7
  6
CONTINUOUS
 90
16
 70
0
 10
24.6145671429
 20
0.5738977423
 10
24.6127578771
 20
0.5404575266
 10
24.6082528247
 20
0.5089315112
 10
24.6010519856
 20
0.4793196959
 10
24.5909786029
 20
0.4513333897
 10
24.5782094336
 20
0.4252612838
 10
24.5632747489
 20
0.4019694516
 10
24.5463371947
 20
0.3818225304
 10
24.527234125
 20
0.3644558829
 10
24.5060078732
 20
0.3496416708
 10
24.4824951943
 20
0.3374580986
 10
24.4568593332
 20
0.3278269617
 10
24.4296323574
 20
0.3202858076
 10
24.4009916227
 20
0.3146804855
 10
24.3707597732
 20
0.3111651462
 10
24.3389368089
 20
0.3097397896
  0
LINE
  5
3CF
100
AcDbEntity
  8
CURVE
100
AcDbLine
 62
253
  6
CONTINUOUS
 10
24.0283148552
 20
-1.151588367
 11
23.9283145691
 21
-1.3515883551
  0
LINE
  5
3D0
100
AcDbEntity
  8
SCRITTE
100
AcDbLine
 62
253
  6
CONTINUOUS
 10
22.9283147122
 20
-4.0515883789
 11
23.6283147122
 21
-2.6515883789
  0
LINE
  5
3D1
100
AcDbEntity
  8
SCRITTE
100
AcDbLine
 62
253
  6
CONTINUOUS
 10
22.5283145691
 20
-2.6515883789
 11
22.1283147598
 21
-3.2515883431
  0
LINE
  5
3D2
100
AcDbEntity
  8
CURVE
100
AcDbLine
 62
253
  6
CONTINUOUS
 10
22.5283145691
 20
-1.3515883551
 11
21.8283145691
 21
-2.3515883789
  0
LINE
  5
3D3
100
AcDbEntity
  8
CURVE
100
AcDbLine
 62
253
  6
CONTINUOUS
 10
20.1283147122
 20
-2.3515883789
 11
20.3283146168
 21
-2.15158837
  0
LINE
  5
3D4
100
AcDbEntity
  8
RACCORDO
100
AcDbLine
 62
7
  6
CONTINUOUS
 10
49.2453825088
 20
-3.1869560391
 11
49.1931622114
 21
-3.1970975183
  0
LINE
  5
3D5
100
AcDbEntity
  8
ASSI
100
AcDbLine
 62
7
  6
CONTINUOUS
 10
49.2453825088
 20
-3.1869560391
 11
49.1931622114
 21
-3.1970975183
  0
LWPOLYLINE
  5
3D6
100
AcDbEntity
  8
RACCORDO
100
AcDbPolyline
 62
7
  6
CONTINUOUS
 90
6
 70
0
 10
49.2316848697
 20
-4.2499037897
 10
49.2292768378
 20
-4.2502119302
 10
49.2244352323
 20
-4.2504942014
 10
49.2171600529
 20
-4.2507506034
 10
49.2071052222
 20
-4.2509869653
 10
49.1946168176
 20
-4.2511974579
  0
LINE
  5
3D7
100
AcDbEntity
  8
CURVE
100
AcDbLine
 62
253
  6
CONTINUOUS
 10
22.3283146645
 20
-0.9515883789
 11
22.5283145691
 21
-1.151588367
  0
LINE
  5
3D8
100
AcDbEntity
  8
CURVE
100
AcDbLine
 62
253
  6
CONTINUOUS
 10
23.3283145214
 20
-1.5515883431
 11
23.5283147598
 21
-1.7515883729
  0
LINE
  5
3D9
100
AcDbEntity
  8
CURVE
100
AcDbLine
 62
253
  6
CONTINUOUS
 10
24.0283148552
 20
-2.15158837
 11
24.2283147598
 21
-2.3515883789
  0
LINE
  5
3DA
100
AcDbEntity
  8
CURVE
100
AcDbLine
 62
253
  6
CONTINUOUS
 10
23.9283145691
 20
-1.951588361
 11
24.0283148552
 21
-2.15158837
  0
LINE
  5
3DB
100
AcDbEntity
  8
CURVE
100
AcDbLine
 62
253
  6
CONTINUOUS
 10
24.6283145691
 20
-1.3515883551
 11
24.5283149506
 21
-1.151588367
  0
LWPOLYLINE
  5
3DC
100
AcDbEntity
  8
0
100
AcDbPolyline
 62
7
  6
CONTINUOUS
 90
6
 70
0
 10
24.5361342962
 20
-0.1184349743
 10
24.5544309994
 20
-0.1721275276
 10
24.5722709367
 20
-0.2267861342
 10
24.5896541081
 20
-0.2824107942
 10
24.6063238164
 20
-0.3390962041
 10
24.6390630272
 20
-0.455081094
  0
LWPOLYLINE
  5
3DD
100
AcDbEntity
  8
ASSI
100
AcDbPolyline
 62
7
  6
CONTINUOUS
 90
6
 70
0
 10
24.5361342962
 20
-0.1184349743
 10
24.5544309994
 20
-0.1721275276
 10
24.5722709367
 20
-0.2267861342
 10
24.5896541081
 20
-0.2824107942
 10
24.6063238164
 20
-0.3390962041
 10
24.6390630272
 20
-0.455081094
  0
LINE
  5
3DE
100
AcDbEntity
  8
0
100
AcDbLine
 62
7
  6
CONTINUOUS
 10
23.6903266645
 20
-0.6338893789
 11
23.1687666645
 21
1.0659736211
  0
LINE
  5
3DF
100
AcDbEntity
  8
ASSI
100
AcDbLine
 62
7
  6
CONTINUOUS
 10
23.6903266645
 20
-0.6338893789
 11
23.1687666645
 21
1.0659736211
  0
LINE
  5
3E0
100
AcDbEntity
  8
0
100
AcDbLine
 62
7
  6
CONTINUOUS
 10
24.6390630272
 20
-0.455081094
 11
24.6912918796
 21
-0.6338890656
  0
LINE
  5
3E1
100
AcDbEntity
  8
ASSI
100
AcDbLine
 62
7
  6
CONTINUOUS
 10
24.6390630272
 20
-0.455081094
 11
24.6912918796
 21
-0.6338890656
  0
LINE
  5
3E2
100
AcDbEntity
  8
CURVE
100
AcDbLine
 62
253
  6
CONTINUOUS
 10
25.4283148552
 20
-2.3515883789
 11
25.0283143784
 21
-0.9515883789
  0
LWPOLYLINE
  5
3E3
100
AcDbEntity
  8
0
100
AcDbPolyline
 62
7
  6
CONTINUOUS
 90
13
 70
0
 10
24.9112939114
 20
-0.1738083346
 10
24.9019221898
 20
-0.1359957509
 10
24.8911453393
 20
-0.0992373632
 10
24.8789633599
 20
-0.0635331716
 10
24.8654054427
 20
-0.028352058
 10
24.8504423965
 20
0.0057748594
 10
24.8339866483
 20
0.0372542264
 10
24.815896541
 20
0.0658420859
 10
24.7963137315
 20
0.0917823949
 10
24.7755756177
 20
0.1142136704
 10
24.7537946653
 20
0.1328487514
 10
24.7308584085
 20
0.1479747988
 10
24.7067668472
 20
0.1595918127
  0
LWPOLYLINE
  5
3E4
100
AcDbEntity
  8
ASSI
100
AcDbPolyline
 62
7
  6
CONTINUOUS
 90
13
 70
0
 10
24.9112939114
 20
-0.1738083346
 10
24.9019221898
 20
-0.1359957509
 10
24.8911453393
 20
-0.0992373632
 10
24.8789633599
 20
-0.0635331716
 10
24.8654054427
 20
-0.028352058
 10
24.8504423965
 20
0.0057748594
 10
24.8339866483
 20
0.0372542264
 10
24.815896541
 20
0.0658420859
 10
24.7963137315
 20
0.0917823949
 10
24.7755756177
 20
0.1142136704
 10
24.7537946653
 20
0.1328487514
 10
24.7308584085
 20
0.1479747988
 10
24.7067668472
 20
0.1595918127
  0
LINE
  5
3E5
100
AcDbEntity
  8
SCRITTE
100
AcDbLine
 62
253
  6
CONTINUOUS
 10
25.7949812676
 20
2.3914301269
 11
25.7949812676
 21
2.379212512
  0
LINE
  5
3E6
100
AcDbEntity
  8
CURVE
100
AcDbLine
 62
253
  6
CONTINUOUS
 10
26.1283146645
 20
0.6198402181
 11
26.1283146645
 21
-0.0230169312
  0
LINE
  5
3E7
100
AcDbEntity
  8
SCRITTE
100
AcDbLine
 62
253
  6
CONTINUOUS
 10
26.4949812676
 20
2.3914301269
 11
26.4949812676
 21
2.379212512
  0
LINE
  5
3E8
100
AcDbEntity
  8
CURVE
100
AcDbLine
 62
253
  6
CONTINUOUS
 10
25.8283146645
 20
-0.9515883789
 11
25.4283148552
 21
-2.3515883789
  0
LINE
  5
3E9
100
AcDbEntity
  8
CURVE
100
AcDbLine
 62
253
  6
CONTINUOUS
 10
24.5283149506
 20
-2.15158837
 11
24.6283145691
 21
-1.951588361
  0
LINE
  5
3EA
100
AcDbEntity
  8
CURVE
100
AcDbLine
 62
253
  6
CONTINUOUS
 10
26.2354575264
 20
0.8341259196
 11
26.1283146645
 21
0.6198402181
  0
LINE
  5
3EB
100
AcDbEntity
  8
SCRITTE
100
AcDbLine
 62
253
  6
CONTINUOUS
 10
24.0283148552
 20
-4.0515883789
 11
24.7283148552
 21
-2.6515883789
  0
LINE
  5
3EC
100
AcDbEntity
  8
CURVE
100
AcDbLine
 62
253
  6
CONTINUOUS
 10
24.2283147598
 20
-0.9515883789
 11
24.0283148552
 21
-1.151588367
  0
LINE
  5
3ED
100
AcDbEntity
  8
CURVE
100
AcDbLine
 62
253
  6
CONTINUOUS
 10
26.4497432391
 20
1.0484116211
 11
26.2354575264
 21
0.8341259196
  0
LINE
  5
3EE
100
AcDbEntity
  8
CURVE
100
AcDbLine
 62
253
  6
CONTINUOUS
 10
23.5283147598
 20
-2.15158837
 11
23.3283145214
 21
-2.3515883789
  0
LWPOLYLINE
  5
3EF
100
AcDbEntity
  8
0
100
AcDbPolyline
 62
7
  6
CONTINUOUS
 90
40
 70
0
 10
24.7582052256
 20
0.197612308
 10
24.7785813261
 20
0.2148631655
 10
24.7888580648
 20
0.223877868
 10
24.7991439807
 20
0.2333399225
 10
24.8094587372
 20
0.2431922906
 10
24.819782671
 20
0.2534920107
 10
24.8300241956
 20
0.2644924013
 10
24.8401959909
 20
0.2762169204
 10
24.850285377
 20
0.2886421099
 10
24.8601627274
 20
0.3019509136
 10
24.8698401703
 20
0.3161920159
 10
24.8793055775
 20
0.3313167324
 10
24.8883929383
 20
0.3473619537
 10
24.8971206784
 20
0.3643452265
 10
24.9054703722
 20
0.3822490041
 10
24.9132207318
 20
0.401057538
 10
24.9203759142
 20
0.4207602183
 10
24.9269317624
 20
0.441367655
 10
24.9326545173
 20
0.4628959284
 10
24.9375456599
 20
0.4853417358
 10
24.9416037093
 20
0.50870838
 10
24.9445904631
 20
0.5330218498
 10
24.9465284069
 20
0.5583167453
 10
24.9473950553
 20
0.5845584664
 10
24.9468847493
 20
0.6116692011
 10
24.9451148547
 20
0.639683066
 10
24.9419680057
 20
0.6685659445
 10
24.9367864465
 20
0.698137676
 10
24.9296351713
 20
0.7284977826
 10
24.9204491858
 20
0.7595467421
 10
24.9083757518
 20
0.790805827
 10
24.8933067428
 20
0.8224854121
 10
24.8753502854
 20
0.8543751227
 10
24.853978021
 20
0.885365107
 10
24.8283757961
 20
0.9158992762
 10
24.7993577643
 20
0.9455337192
 10
24.7688380283
 20
0.9718268505
 10
24.7374546224
 20
0.9939648082
 10
24.7045695123
 20
1.0127614542
 10
24.670182698
 20
1.0282167885
  0
LWPOLYLINE
  5
3F0
100
AcDbEntity
  8
ASSI
100
AcDbPolyline
 62
7
  6
CONTINUOUS
 90
40
 70
0
 10
24.7582052256
 20
0.197612308
 10
24.7785813261
 20
0.2148631655
 10
24.7888580648
 20
0.223877868
 10
24.7991439807
 20
0.2333399225
 10
24.8094587372
 20
0.2431922906
 10
24.819782671
 20
0.2534920107
 10
24.8300241956
 20
0.2644924013
 10
24.8401959909
 20
0.2762169204
 10
24.850285377
 20
0.2886421099
 10
24.8601627274
 20
0.3019509136
 10
24.8698401703
 20
0.3161920159
 10
24.8793055775
 20
0.3313167324
 10
24.8883929383
 20
0.3473619537
 10
24.8971206784
 20
0.3643452265
 10
24.9054703722
 20
0.3822490041
 10
24.9132207318
 20
0.401057538
 10
24.9203759142
 20
0.4207602183
 10
24.9269317624
 20
0.441367655
 10
24.9326545173
 20
0.4628959284
 10
24.9375456599
 20
0.4853417358
 10
24.9416037093
 20
0.50870838
 10
24.9445904631
 20
0.5330218498
 10
24.9465284069
 20
0.5583167453
 10
24.9473950553
 20
0.5845584664
 10
24.9468847493
 20
0.6116692011
 10
24.9451148547
 20
0.639683066
 10
24.9419680057
 20
0.6685659445
 10
24.9367864465
 20
0.698137676
 10
24.9296351713
 20
0.7284977826
 10
24.9204491858
 20
0.7595467421
 10
24.9083757518
 20
0.790805827
 10
24.8933067428
 20
0.8224854121
 10
24.8753502854
 20
0.8543751227
 10
24.853978021
 20
0.885365107
 10
24.8283757961
 20
0.9158992762
 10
24.7993577643
 20
0.9455337192
 10
24.7688380283
 20
0.9718268505
 10
24.7374546224
 20
0.9939648082
 10
24.7045695123
 20
1.0127614542
 10
24.670182698
 20
1.0282167885
  0
LINE
  5
3F1
100
AcDbEntity
  8
0
100
AcDbLine
 62
7
  6
CONTINUOUS
 10
24.7481058637
 20
0.1893761529
 11
24.7582052256
 21
0.197612308
  0
LINE
  5
3F2
100
AcDbEntity
  8
ASSI
100
AcDbLine
 62
7
  6
CONTINUOUS
 10
24.7481058637
 20
0.1893761529
 11
24.7582052256
 21
0.197612308
  0
LINE
  5
3F3
100
AcDbEntity
  8
RACCORDO
100
AcDbLine
 62
253
  6
CONTINUOUS
 10
15.4260751063
 20
-3.5396406163
 11
15.4355809119
 21
-3.5348880755
  0
LINE
  5
3F4
100
AcDbEntity
  8
ASSI
100
AcDbLine
 62
253
  6
CONTINUOUS
 10
15.4260751063
 20
-3.5396406163
 11
15.4355809119
 21
-3.5348880755
  0
LINE
  5
3F5
100
AcDbEntity
  8
RACCORDO
100
AcDbLine
 62
7
  6
CONTINUOUS
 10
35.3283146645
 20
-5.0884980772
 11
35.2210407264
 21
-5.0991984976
  0
LINE
  5
3F6
100
AcDbEntity
  8
ASSI
100
AcDbLine
 62
7
  6
CONTINUOUS
 10
35.3283146645
 20
-5.0884980772
 11
35.2210407264
 21
-5.0991984976
  0
LWPOLYLINE
  5
3F7
100
AcDbEntity
  8
RACCORDO
100
AcDbPolyline
 62
7
  6
CONTINUOUS
 90
6
 70
0
 10
50.128329895
 20
-4.2515883789
 10
50.1456830299
 20
-4.2500650114
 10
50.1625098585
 20
-4.2455516267
 10
50.1782993123
 20
-4.238184545
 10
50.1925715204
 20
-4.2281866443
 10
50.1989885154
 20
-4.2223053433
  0
LWPOLYLINE
  5
3F8
100
AcDbEntity
  8
RACCORDO
100
AcDbPolyline
 62
7
  6
CONTINUOUS
 90
16
 70
0
 10
35.5810613225
 20
-5.1539695331
 10
35.6448861457
 20
-5.150384952
 10
35.7066829164
 20
-5.1406007926
 10
35.7664516346
 20
-5.124617055
 10
35.8247952884
 20
-5.1021248362
 10
35.8811108897
 20
-5.0734330391
 10
35.9335894742
 20
-5.0394683732
 10
35.9821066638
 20
-5.0000611438
 10
36.0267868367
 20
-4.9553810455
 10
36.0661941629
 20
-4.9068638712
 10
36.1001589531
 20
-4.8543852105
 10
36.1288508967
 20
-4.7980694739
 10
36.1513432312
 20
-4.7397256857
 10
36.167327036
 20
-4.6799568543
 10
36.1771112319
 20
-4.6181599713
 10
36.1806958187
 20
-4.5543350369
  0
LWPOLYLINE
  5
3F9
100
AcDbEntity
  8
RACCORDO
100
AcDbPolyline
 62
253
  6
CONTINUOUS
 90
19
 70
0
 10
35.486846811
 20
-5.0600976792
 10
35.5391364
 20
-5.057811462
 10
35.5910279997
 20
-5.0509768283
 10
35.6421267262
 20
-5.0396457949
 10
35.6920437248
 20
-5.0239046003
 10
35.7403991424
 20
-5.0038730339
 10
35.7868250152
 20
-4.9797035184
 10
35.8309680424
 20
-4.9515799815
 10
35.8724923077
 20
-4.9197164366
 10
35.9110818399
 20
-4.8843553264
 10
35.9464430053
 20
-4.8457656828
 10
35.9783066512
 20
-4.8042412041
 10
36.0064302138
 20
-4.7600980141
 10
36.0305996642
 20
-4.7136721127
 10
36.0506311367
 20
-4.6653167481
 10
36.0663722379
 20
-4.6153998543
 10
36.0777031921
 20
-4.5643012731
 10
36.0845377693
 20
-4.5124098699
 10
36.0868239648
 20
-4.4601205254
  0
LWPOLYLINE
  5
3FA
100
AcDbEntity
  8
ASSI
100
AcDbPolyline
 62
253
  6
CONTINUOUS
 90
19
 70
0
 10
35.486846811
 20
-5.0600976792
 10
35.5391364
 20
-5.057811462
 10
35.5910279997
 20
-5.0509768283
 10
35.6421267262
 20
-5.0396457949
 10
35.6920437248
 20
-5.0239046003
 10
35.7403991424
 20
-5.0038730339
 10
35.7868250152
 20
-4.9797035184
 10
35.8309680424
 20
-4.9515799815
 10
35.8724923077
 20
-4.9197164366
 10
35.9110818399
 20
-4.8843553264
 10
35.9464430053
 20
-4.8457656828
 10
35.9783066512
 20
-4.8042412041
 10
36.0064302138
 20
-4.7600980141
 10
36.0305996642
 20
-4.7136721127
 10
36.0506311367
 20
-4.6653167481
 10
36.0663722379
 20
-4.6153998543
 10
36.0777031921
 20
-4.5643012731
 10
36.0845377693
 20
-4.5124098699
 10
36.0868239648
 20
-4.4601205254
  0
LWPOLYLINE
  5
3FB
100
AcDbEntity
  8
RACCORDO
100
AcDbPolyline
 62
7
  6
CONTINUOUS
 90
4
 70
0
 10
35.1912431871
 20
-5.1001282739
 10
35.2052410828
 20
-5.099835846
 10
35.2151735959
 20
-5.0995259205
 10
35.2210407264
 20
-5.0991984976
  0
LWPOLYLINE
  5
3FC
100
AcDbEntity
  8
ASSI
100
AcDbPolyline
 62
7
  6
CONTINUOUS
 90
4
 70
0
 10
35.1912431871
 20
-5.1001282739
 10
35.2052410828
 20
-5.099835846
 10
35.2151735959
 20
-5.0995259205
 10
35.2210407264
 20
-5.0991984976
  0
LINE
  5
3FD
100
AcDbEntity
  8
RACCORDO
100
AcDbLine
 62
7
  6
CONTINUOUS
 10
35.15038243
 20
-5.1006684161
 11
35.1912431871
 21
-5.1001282739
  0
LINE
  5
3FE
100
AcDbEntity
  8
ASSI
100
AcDbLine
 62
7
  6
CONTINUOUS
 10
35.15038243
 20
-5.1006684161
 11
35.1912431871
 21
-5.1001282739
  0
LINE
  5
3FF
100
AcDbEntity
  8
RACCORDO
100
AcDbLine
 62
7
  6
CONTINUOUS
 10
35.0643427865
 20
-5.1012747428
 11
35.15038243
 21
-5.1006684161
  0
LINE
  5
400
100
AcDbEntity
  8
ASSI
100
AcDbLine
 62
7
  6
CONTINUOUS
 10
35.0643427865
 20
-5.1012747428
 11
35.15038243
 21
-5.1006684161
  0
LINE
  5
401
100
AcDbEntity
  8
RACCORDO
100
AcDbLine
 62
7
  6
CONTINUOUS
 10
35.3283146645
 20
-5.1539695331
 11
35.5810613225
 21
-5.1539695331
  0
LINE
  5
402
100
AcDbEntity
  8
DRAFT
100
AcDbLine
 62
7
  6
CONTINUOUS
 10
35.2759335102
 20
-5.1015883789
 11
27.8806958187
 21
-5.1015883789
  0
LINE
  5
403
100
AcDbEntity
  8
DRAFT
100
AcDbLine
 62
7
  6
CONTINUOUS
 10
27.7283146645
 20
-5.1015883789
 11
24.5283146645
 21
-5.1015883789
  0
LINE
  5
404
100
AcDbEntity
  8
RACCORDO
100
AcDbLine
 62
7
  6
CONTINUOUS
 10
16.1279491607
 20
-5.1015883789
 11
24.5283146645
 21
-5.1015883789
  0
LINE
  5
405
100
AcDbEntity
  8
RACCORDO
100
AcDbLine
 62
7
  6
CONTINUOUS
 10
27.7283146645
 20
-5.1015883789
 11
35.0643427865
 21
-5.1012747428
  0
LINE
  5
406
100
AcDbEntity
  8
ASSI
100
AcDbLine
 62
7
  6
CONTINUOUS
 10
16.7783089529
 20
-5.1015883789
 11
35.0643427865
 21
-5.1012747428
  0
LINE
  5
407
100
AcDbEntity
  8
RACCORDO
100
AcDbLine
 62
7
  6
CONTINUOUS
 10
35.515247209
 20
-5.0884980772
 11
35.3283146645
 21
-5.0884980772
  0
LINE
  5
408
100
AcDbEntity
  8
ASSI
100
AcDbLine
 62
7
  6
CONTINUOUS
 10
35.515247209
 20
-5.0884980772
 11
35.3283146645
 21
-5.0884980772
  0
LINE
  5
409
100
AcDbEntity
  8
RACCORDO
100
AcDbLine
 62
7
  6
CONTINUOUS
 10
16.6283146645
 20
-5.0715883789
 11
16.1582232816
 21
-5.0715883789
  0
LINE
  5
40A
100
AcDbEntity
  8
RACCORDO
100
AcDbLine
 62
7
  6
CONTINUOUS
 10
16.8197996526
 20
-5.0600976792
 11
35.486846811
 21
-5.0600976792
  0
LINE
  5
40B
100
AcDbEntity
  8
ASSI
100
AcDbLine
 62
7
  6
CONTINUOUS
 10
16.8197996526
 20
-5.0600976792
 11
35.486846811
 21
-5.0600976792
  0
LINE
  5
40C
100
AcDbEntity
  8
RACCORDO
100
AcDbLine
 62
253
  6
CONTINUOUS
 10
16.23869936
 20
-4.9911123005
 11
16.5880796897
 21
-4.9911123005
  0
LWPOLYLINE
  5
40D
100
AcDbEntity
  8
RACCORDO
100
AcDbPolyline
 62
7
  6
CONTINUOUS
 90
16
 70
0
 10
16.1279491607
 20
-5.1015883789
 10
16.0640869058
 20
-5.0979997493
 10
16.0022555581
 20
-5.0882043538
 10
15.9424551177
 20
-5.0722021923
 10
15.8840813272
 20
-5.0496836228
 10
15.827738444
 20
-5.0209582873
 10
15.7752392399
 20
-4.9869551118
 10
15.7267087164
 20
-4.9475040303
 10
15.6820218719
 20
-4.9027751089
 10
15.6426164737
 20
-4.8542074719
 10
15.6086627153
 20
-4.8016553823
 10
15.579990403
 20
-4.7452645772
 10
15.5575267232
 20
-4.6869113912
 10
15.5415807379
 20
-4.6272212692
 10
15.531843385
 20
-4.5655687664
 10
15.5283146645
 20
-4.5019538827
  0
LWPOLYLINE
  5
40E
100
AcDbEntity
  8
RACCORDO
100
AcDbPolyline
 62
7
  6
CONTINUOUS
 90
16
 70
0
 10
16.1582232816
 20
-5.0715883789
 10
16.0943953912
 20
-5.0680026933
 10
16.0325905933
 20
-5.0582141401
 10
15.9728088879
 20
-5.0422227192
 10
15.9144477492
 20
-5.0197215143
 10
15.858109703
 20
-4.9910174418
 10
15.8056023264
 20
-4.9570312508
 10
15.757044329
 20
-4.9175860414
 10
15.7123170013
 20
-4.8728587136
 10
15.672871792
 20
-4.8243007161
 10
15.6388856012
 20
-4.7717933397
 10
15.6101815288
 20
-4.7154552937
 10
15.587680324
 20
-4.6570941551
 10
15.5716889032
 20
-4.5973124498
 10
15.5619003501
 20
-4.5355076521
 10
15.5583146645
 20
-4.4716797618
  0
LWPOLYLINE
  5
40F
100
AcDbEntity
  8
RACCORDO
100
AcDbPolyline
 62
7
  6
CONTINUOUS
 90
13
 70
0
 10
16.7783089529
 20
-5.1015883789
 10
16.7582038011
 20
-5.100126522
 10
16.7390698647
 20
-5.0963206328
 10
16.7209071438
 20
-5.0901707115
 10
16.7034413426
 20
-5.0814934474
 10
16.6869467568
 20
-5.0704721511
 10
16.6722462736
 20
-5.0576567539
 10
16.6594308793
 20
-5.0429562709
 10
16.6484095875
 20
-5.0264616871
 10
16.6397323273
 20
-5.0089958885
 10
16.6335824082
 20
-4.9908331705
 10
16.6297765206
 20
-4.9716992379
 10
16.6283146645
 20
-4.9515940904
  0
LWPOLYLINE
  5
410
100
AcDbEntity
  8
ASSI
100
AcDbPolyline
 62
7
  6
CONTINUOUS
 90
13
 70
0
 10
16.7783089529
 20
-5.1015883789
 10
16.7582038011
 20
-5.100126522
 10
16.7390698647
 20
-5.0963206328
 10
16.7209071438
 20
-5.0901707115
 10
16.7034413426
 20
-5.0814934474
 10
16.6869467568
 20
-5.0704721511
 10
16.6722462736
 20
-5.0576567539
 10
16.6594308793
 20
-5.0429562709
 10
16.6484095875
 20
-5.0264616871
 10
16.6397323273
 20
-5.0089958885
 10
16.6335824082
 20
-4.9908331705
 10
16.6297765206
 20
-4.9716992379
 10
16.6283146645
 20
-4.9515940904
  0
LWPOLYLINE
  5
411
100
AcDbEntity
  8
RACCORDO
100
AcDbPolyline
 62
253
  6
CONTINUOUS
 90
10
 70
0
 10
16.8197996526
 20
-5.0600976792
 10
16.7937546659
 20
-5.0578171657
 10
16.768500967
 20
-5.0510488775
 10
16.7448058025
 20
-5.039998446
 10
16.7233890684
 20
-5.0250016009
 10
16.7049014381
 20
-5.0065139698
 10
16.6899045943
 20
-4.9850972355
 10
16.6788541643
 20
-4.9614020719
 10
16.6720858772
 20
-4.9361483747
 10
16.6698053641
 20
-4.9101033908
  0
LWPOLYLINE
  5
412
100
AcDbEntity
  8
ASSI
100
AcDbPolyline
 62
253
  6
CONTINUOUS
 90
10
 70
0
 10
16.8197996526
 20
-5.0600976792
 10
16.7937546659
 20
-5.0578171657
 10
16.768500967
 20
-5.0510488775
 10
16.7448058025
 20
-5.039998446
 10
16.7233890684
 20
-5.0250016009
 10
16.7049014381
 20
-5.0065139698
 10
16.6899045943
 20
-4.9850972355
 10
16.6788541643
 20
-4.9614020719
 10
16.6720858772
 20
-4.9361483747
 10
16.6698053641
 20
-4.9101033908
  0
LWPOLYLINE
  5
413
100
AcDbEntity
  8
RACCORDO
100
AcDbPolyline
 62
7
  6
CONTINUOUS
 90
9
 70
0
 10
15.4407836804
 20
-3.0640573948
 10
15.4429916591
 20
-3.0645031005
 10
15.4480569232
 20
-3.0649281396
 10
15.4559794727
 20
-3.0653325121
 10
15.4669703425
 20
-3.0657218312
 10
15.4808184977
 20
-3.0660904837
 10
15.4968908335
 20
-3.0664216304
 10
15.515290404
 20
-3.0667135291
 10
15.5578198197
 20
-3.0671731966
  0
LWPOLYLINE
  5
414
100
AcDbEntity
  8
ASSI
100
AcDbPolyline
 62
7
  6
CONTINUOUS
 90
9
 70
0
 10
15.4407836804
 20
-3.0640573948
 10
15.4429916591
 20
-3.0645031005
 10
15.4480569232
 20
-3.0649281396
 10
15.4559794727
 20
-3.0653325121
 10
15.4669703425
 20
-3.0657218312
 10
15.4808184977
 20
-3.0660904837
 10
15.4968908335
 20
-3.0664216304
 10
15.515290404
 20
-3.0667135291
 10
15.5578198197
 20
-3.0671731966
  0
LINE
  5
415
100
AcDbEntity
  8
RACCORDO
100
AcDbLine
 62
253
  6
CONTINUOUS
 10
15.4355809119
 20
0.8317113177
 11
15.4260751063
 21
0.8364638585
  0
LINE
  5
416
100
AcDbEntity
  8
ASSI
100
AcDbLine
 62
253
  6
CONTINUOUS
 10
15.4355809119
 20
0.8317113177
 11
15.4260751063
 21
0.8364638585
  0
LINE
  5
417
100
AcDbEntity
  8
CURVE
100
AcDbLine
 62
253
  6
CONTINUOUS
 10
24.5283149506
 20
-1.151588367
 11
24.3283143784
 21
-0.9515883789
  0
LINE
  5
418
100
AcDbEntity
  8
CURVE
100
AcDbLine
 62
253
  6
CONTINUOUS
 10
27.6283146689
 20
-3.85158837
 11
27.8283146675
 21
-4.0515883789
  0
LINE
  5
419
100
AcDbEntity
  8
0
100
AcDbLine
 62
7
  6
CONTINUOUS
 10
24.9527732606
 20
-0.3292725514
 11
24.9112939114
 21
-0.1738083346
  0
LINE
  5
41A
100
AcDbEntity
  8
ASSI
100
AcDbLine
 62
7
  6
CONTINUOUS
 10
24.9527732606
 20
-0.3292725514
 11
24.9112939114
 21
-0.1738083346
  0
LINE
  5
41B
100
AcDbEntity
  8
0
100
AcDbLine
 62
7
  6
CONTINUOUS
 10
25.0325952229
 20
-0.6338890656
 11
24.9527732606
 21
-0.3292725514
  0
LINE
  5
41C
100
AcDbEntity
  8
ASSI
100
AcDbLine
 62
7
  6
CONTINUOUS
 10
25.0325952229
 20
-0.6338890656
 11
24.9527732606
 21
-0.3292725514
  0
LINE
  5
41D
100
AcDbEntity
  8
CURVE
100
AcDbLine
 62
253
  6
CONTINUOUS
 10
26.8783146645
 20
-0.0230169312
 11
26.8783146645
 21
0.6198402181
  0
LINE
  5
41E
100
AcDbEntity
  8
CURVE
100
AcDbLine
 62
253
  6
CONTINUOUS
 10
27.3068860675
 20
0.6198402181
 11
27.3068860675
 21
-0.0230169312
  0
LINE
  5
41F
100
AcDbEntity
  8
CURVE
100
AcDbLine
 62
253
  6
CONTINUOUS
 10
27.5283146645
 20
-3.0515883551
 11
27.5283146645
 21
-3.651588361
  0
LINE
  5
420
100
AcDbEntity
  8
CURVE
100
AcDbLine
 62
253
  6
CONTINUOUS
 10
26.7711718137
 20
-0.237302655
 11
26.8783146645
 21
-0.0230169312
  0
LINE
  5
421
100
AcDbEntity
  8
CURVE
100
AcDbLine
 62
253
  6
CONTINUOUS
 10
27.414028963
 20
0.8341259196
 11
27.3068860675
 21
0.6198402181
  0
LINE
  5
422
100
AcDbEntity
  8
CURVE
100
AcDbLine
 62
253
  6
CONTINUOUS
 10
27.9497432614
 20
-0.237302655
 11
28.0568860675
 21
-0.0230169312
  0
LINE
  5
423
100
AcDbEntity
  8
CURVE
100
AcDbLine
 62
253
  6
CONTINUOUS
 10
27.6283146645
 20
1.0484116211
 11
27.414028963
 21
0.8341259196
  0
LINE
  5
424
100
AcDbEntity
  8
CURVE
100
AcDbLine
 62
253
  6
CONTINUOUS
 10
24.3283143784
 20
-2.3515883789
 11
24.5283149506
 21
-2.15158837
  0
LINE
  5
425
100
AcDbEntity
  8
CURVE
100
AcDbLine
 62
253
  6
CONTINUOUS
 10
26.5568861122
 20
-0.4515883789
 11
26.7711718137
 21
-0.237302655
  0
LINE
  5
426
100
AcDbEntity
  8
CURVE
100
AcDbLine
 62
253
  6
CONTINUOUS
 10
28.4854574705
 20
0.8341259196
 11
28.6997432614
 21
1.0484116211
  0
LWPOLYLINE
  5
427
100
AcDbEntity
  8
0
100
AcDbPolyline
 62
7
  6
CONTINUOUS
 90
5
 70
0
 10
24.7067668472
 20
0.1696365199
 10
24.7172345985
 20
0.17264858
 10
24.7276205501
 20
0.1768942889
 10
24.7379247022
 20
0.1823736466
 10
24.7481058637
 20
0.1893761529
  0
LWPOLYLINE
  5
428
100
AcDbEntity
  8
ASSI
100
AcDbPolyline
 62
7
  6
CONTINUOUS
 90
5
 70
0
 10
24.7067668472
 20
0.1696365199
 10
24.7172345985
 20
0.17264858
 10
24.7276205501
 20
0.1768942889
 10
24.7379247022
 20
0.1823736466
 10
24.7481058637
 20
0.1893761529
  0
LINE
  5
429
100
AcDbEntity
  8
SCRITTE
100
AcDbLine
 62
253
  6
CONTINUOUS
 10
34.1095646645
 20
-4.0515883789
 11
34.2845646645
 21
-4.0078383789
  0
LINE
  5
42A
100
AcDbEntity
  8
SCRITTE
100
AcDbLine
 62
253
  6
CONTINUOUS
 10
34.1095646645
 20
-3.2640883789
 11
33.9345646645
 21
-3.3078383789
  0
LINE
  5
42B
100
AcDbEntity
  8
RACCORDO
100
AcDbLine
 62
7
  6
CONTINUOUS
 10
49.1931622114
 20
-3.1970975183
 11
49.1283146645
 21
-3.2015883789
  0
LINE
  5
42C
100
AcDbEntity
  8
ASSI
100
AcDbLine
 62
7
  6
CONTINUOUS
 10
49.1931622114
 20
-3.1970975183
 11
49.1283146645
 21
-3.2015883789
  0
LWPOLYLINE
  5
42D
100
AcDbEntity
  8
RACCORDO
100
AcDbPolyline
 62
253
  6
CONTINUOUS
 90
19
 70
0
 10
35.486846811
 20
-4.5601167177
 10
35.4955824212
 20
-4.5597328917
 10
35.5041511697
 20
-4.5586128291
 10
35.5125530564
 20
-4.5567565297
 10
35.5208579941
 20
-4.5541397923
 10
35.5289960701
 20
-4.5507868181
 10
35.5367575457
 20
-4.5467702114
 10
35.5441281699
 20
-4.5420715625
 10
35.5511221936
 20
-4.5367092812
 10
35.5575726308
 20
-4.530811201
 10
35.5634628989
 20
-4.5243665033
 10
35.5688095805
 20
-4.5173860067
 10
35.5734954369
 20
-4.5100300015
 10
35.5775056762
 20
-4.5022855601
 10
35.5808550904
 20
-4.4941656101
 10
35.5834708165
 20
-4.4858692244
 10
35.5853285669
 20
-4.4774627605
 10
35.5864526291
 20
-4.4688798608
 10
35.5868430033
 20
-4.4601205254
  0
LWPOLYLINE
  5
42E
100
AcDbEntity
  8
ASSI
100
AcDbPolyline
 62
253
  6
CONTINUOUS
 90
19
 70
0
 10
35.486846811
 20
-4.5601167177
 10
35.4955824212
 20
-4.5597328917
 10
35.5041511697
 20
-4.5586128291
 10
35.5125530564
 20
-4.5567565297
 10
35.5208579941
 20
-4.5541397923
 10
35.5289960701
 20
-4.5507868181
 10
35.5367575457
 20
-4.5467702114
 10
35.5441281699
 20
-4.5420715625
 10
35.5511221936
 20
-4.5367092812
 10
35.5575726308
 20
-4.530811201
 10
35.5634628989
 20
-4.5243665033
 10
35.5688095805
 20
-4.5173860067
 10
35.5734954369
 20
-4.5100300015
 10
35.5775056762
 20
-4.5022855601
 10
35.5808550904
 20
-4.4941656101
 10
35.5834708165
 20
-4.4858692244
 10
35.5853285669
 20
-4.4774627605
 10
35.5864526291
 20
-4.4688798608
 10
35.5868430033
 20
-4.4601205254
  0
LINE
  5
42F
100
AcDbEntity
  8
RACCORDO
100
AcDbLine
 62
7
  6
CONTINUOUS
 10
49.1946168176
 20
-4.2511974579
 11
49.1658000648
 21
-4.2514825454
  0
LINE
  5
430
100
AcDbEntity
  8
RACCORDO
100
AcDbLine
 62
7
  6
CONTINUOUS
 10
49.1658000648
 20
-4.2514825454
 11
49.1317480278
 21
-4.2515883789
  0
LINE
  5
431
100
AcDbEntity
  8
RACCORDO
100
AcDbLine
 62
7
  6
CONTINUOUS
 10
16.6075636863
 20
-3.7344359042
 11
16.6454844824
 21
-3.7344185609
  0
LINE
  5
432
100
AcDbEntity
  8
ASSI
100
AcDbLine
 62
7
  6
CONTINUOUS
 10
16.6075636863
 20
-3.7344359042
 11
16.6454844824
 21
-3.7344185609
  0
LINE
  5
433
100
AcDbEntity
  8
RACCORDO
100
AcDbLine
 62
253
  6
CONTINUOUS
 10
16.6728331135
 20
-4.5601167177
 11
35.486846811
 21
-4.5601167177
  0
LINE
  5
434
100
AcDbEntity
  8
ASSI
100
AcDbLine
 62
253
  6
CONTINUOUS
 10
16.6728331135
 20
-4.5601167177
 11
35.486846811
 21
-4.5601167177
  0
LINE
  5
435
100
AcDbEntity
  8
RACCORDO
100
AcDbLine
 62
253
  6
CONTINUOUS
 10
35.5868430033
 20
-4.4601205254
 11
36.0868239648
 21
-4.4601205254
  0
LINE
  5
436
100
AcDbEntity
  8
ASSI
100
AcDbLine
 62
253
  6
CONTINUOUS
 10
35.5868430033
 20
-4.4601205254
 11
36.0868239648
 21
-4.4601205254
  0
LINE
  5
437
100
AcDbEntity
  8
RACCORDO
100
AcDbLine
 62
253
  6
CONTINUOUS
 10
15.6387907429
 20
-4.3912036834
 11
16.582934952
 21
-4.3912036834
  0
LINE
  5
438
100
AcDbEntity
  8
DRAFT
100
AcDbLine
 62
7
  6
CONTINUOUS
 10
17.4248236515
 20
-4.3050793919
 11
35.3318056775
 21
-4.3050793919
  0
LINE
  5
439
100
AcDbEntity
  8
ASSI
100
AcDbLine
 62
7
  6
CONTINUOUS
 10
17.4248236515
 20
-4.3050793919
 11
35.3318056775
 21
-4.3050793919
  0
LINE
  5
43A
100
AcDbEntity
  8
DRAFT
100
AcDbLine
 62
7
  6
CONTINUOUS
 10
17.4283146645
 20
-4.3015883789
 11
35.3283146645
 21
-4.3015883789
  0
LINE
  5
43B
100
AcDbEntity
  8
ASSI
100
AcDbLine
 62
7
  6
CONTINUOUS
 10
17.4283146645
 20
-4.3015883789
 11
35.3283146645
 21
-4.3015883789
  0
LINE
  5
43C
100
AcDbEntity
  8
RACCORDO
100
AcDbLine
 62
7
  6
CONTINUOUS
 10
50.128329895
 20
-4.2515883789
 11
36.1806958187
 21
-4.2515883789
  0
LINE
  5
43D
100
AcDbEntity
  8
DRAFT
100
AcDbLine
 62
7
  6
CONTINUOUS
 10
49.1283146645
 20
-4.2515883789
 11
36.1152243628
 21
-4.2515883789
  0
LINE
  5
43E
100
AcDbEntity
  8
ASSI
100
AcDbLine
 62
7
  6
CONTINUOUS
 10
49.1283146645
 20
-4.2515883789
 11
36.1152243628
 21
-4.2515883789
  0
LINE
  5
43F
100
AcDbEntity
  8
RACCORDO
100
AcDbLine
 62
253
  6
CONTINUOUS
 10
36.1109377802
 20
-4.2430145607
 11
49.1197408463
 21
-4.2430145607
  0
LINE
  5
440
100
AcDbEntity
  8
ASSI
100
AcDbLine
 62
253
  6
CONTINUOUS
 10
36.1109377802
 20
-4.2430145607
 11
49.1197408463
 21
-4.2430145607
  0
LINE
  5
441
100
AcDbEntity
  8
RACCORDO
100
AcDbLine
 62
253
  6
CONTINUOUS
 10
49.2473506593
 20
-4.2420732814
 11
50.1188146691
 21
-4.2420731531
  0
LINE
  5
442
100
AcDbEntity
  8
RACCORDO
100
AcDbLine
 62
253
  6
CONTINUOUS
 10
49.2508686415
 20
-4.2300190369
 11
50.1174078918
 21
-4.23001711
  0
LINE
  5
443
100
AcDbEntity
  8
RACCORDO
100
AcDbLine
 62
253
  6
CONTINUOUS
 10
36.1089699426
 20
-4.2132071151
 11
49.1158048713
 21
-4.2132071151
  0
LINE
  5
444
100
AcDbEntity
  8
ASSI
100
AcDbLine
 62
253
  6
CONTINUOUS
 10
36.1089699426
 20
-4.2132071151
 11
49.1158048713
 21
-4.2132071151
  0
LINE
  5
445
100
AcDbEntity
  8
CURVE
100
AcDbLine
 62
253
  6
CONTINUOUS
 10
29.9283146883
 20
-4.0515883789
 11
29.428314593
 21
-4.0515883789
  0
LINE
  5
446
100
AcDbEntity
  8
SCRITTE
100
AcDbLine
 62
253
  6
CONTINUOUS
 10
24.7283148552
 20
-4.0515883789
 11
24.0283148552
 21
-4.0515883789
  0
LINE
  5
447
100
AcDbEntity
  8
SCRITTE
100
AcDbLine
 62
253
  6
CONTINUOUS
 10
23.6283147122
 20
-4.0515883789
 11
22.9283147122
 21
-4.0515883789
  0
LINE
  5
448
100
AcDbEntity
  8
CURVE
100
AcDbLine
 62
253
  6
CONTINUOUS
 10
27.8283146675
 20
-4.0515883789
 11
27.9283146824
 21
-4.0515883789
  0
LINE
  5
449
100
AcDbEntity
  8
SCRITTE
100
AcDbLine
 62
253
  6
CONTINUOUS
 10
33.9783146645
 20
-4.0515883789
 11
34.1095646645
 21
-4.0515883789
  0
LINE
  5
44A
100
AcDbEntity
  8
CURVE
100
AcDbLine
 62
253
  6
CONTINUOUS
 10
28.8616480018
 20
-3.984921711
 11
28.8949812914
 21
-3.984921711
  0
LINE
  5
44B
100
AcDbEntity
  8
DRAFT
100
AcDbLine
 62
7
  6
CONTINUOUS
 10
15.5283146645
 20
-3.9326078271
 11
15.5583146645
 21
-3.9326078271
  0
LINE
  5
44C
100
AcDbEntity
  8
CURVE
100
AcDbLine
 62
253
  6
CONTINUOUS
 10
28.9283146645
 20
-3.8182550386
 11
28.8949812914
 21
-3.8182550386
  0
LINE
  5
44D
100
AcDbEntity
  8
DRAFT
100
AcDbLine
 62
7
  6
CONTINUOUS
 10
16.6283146645
 20
-3.7515883789
 11
16.6077567572
 21
-3.7515883789
  0
LINE
  5
44E
100
AcDbEntity
  8
ASSI
100
AcDbLine
 62
7
  6
CONTINUOUS
 10
16.6283146645
 20
-3.7515883789
 11
16.6077567572
 21
-3.7515883789
  0
LINE
  5
44F
100
AcDbEntity
  8
DRAFT
100
AcDbLine
 62
7
  6
CONTINUOUS
 10
15.5994336053
 20
-3.7515883789
 11
13.6283146645
 21
-3.7515883789
  0
LINE
  5
450
100
AcDbEntity
  8
ASSI
100
AcDbLine
 62
7
  6
CONTINUOUS
 10
15.5994336053
 20
-3.7515883789
 11
13.6283146645
 21
-3.7515883789
  0
LINE
  5
451
100
AcDbEntity
  8
RACCORDO
100
AcDbLine
 62
7
  6
CONTINUOUS
 10
13.637370563
 20
-3.7425324803
 11
15.5996541742
 21
-3.7425324803
  0
LINE
  5
452
100
AcDbEntity
  8
ASSI
100
AcDbLine
 62
7
  6
CONTINUOUS
 10
13.637370563
 20
-3.7425324803
 11
15.5996541742
 21
-3.7425324803
  0
LINE
  5
453
100
AcDbEntity
  8
RACCORDO
100
AcDbLine
 62
253
  6
CONTINUOUS
 10
13.6382728473
 20
-3.7126760553
 11
15.5183904337
 21
-3.7126760553
  0
LINE
  5
454
100
AcDbEntity
  8
ASSI
100
AcDbLine
 62
253
  6
CONTINUOUS
 10
13.6382728473
 20
-3.7126760553
 11
15.5183904337
 21
-3.7126760553
  0
LINE
  5
455
100
AcDbEntity
  8
CURVE
100
AcDbLine
 62
253
  6
CONTINUOUS
 10
26.7283145691
 20
-2.0182550446
 11
26.4616482521
 21
-1.8182550356
  0
LINE
  5
456
100
AcDbEntity
  8
CURVE
100
AcDbLine
 62
253
  6
CONTINUOUS
 10
28.8283146287
 20
-3.9515883744
 11
28.8616480018
 21
-3.984921711
  0
LINE
  5
457
100
AcDbEntity
  8
CURVE
100
AcDbLine
 62
253
  6
CONTINUOUS
 10
28.1283146704
 20
-2.851588367
 11
27.9283146824
 21
-2.6515883789
  0
LINE
  5
458
100
AcDbEntity
  8
CURVE
100
AcDbLine
 62
253
  6
CONTINUOUS
 10
27.5283146645
 20
-3.651588361
 11
27.6283146689
 21
-3.85158837
  0
LINE
  5
459
100
AcDbEntity
  8
CURVE
100
AcDbLine
 62
253
  6
CONTINUOUS
 10
26.1283146645
 20
-0.0230169312
 11
26.2354575264
 21
-0.237302655
  0
LINE
  5
45A
100
AcDbEntity
  8
CURVE
100
AcDbLine
 62
253
  6
CONTINUOUS
 10
28.2283146645
 20
-3.0515883551
 11
28.1283146704
 21
-2.851588367
  0
LINE
  5
45B
100
AcDbEntity
  8
CURVE
100
AcDbLine
 62
253
  6
CONTINUOUS
 10
28.9616480375
 20
-3.8849217117
 11
28.9283146645
 21
-3.8182550386
  0
LINE
  5
45C
100
AcDbEntity
  8
SCRITTE
100
AcDbLine
 62
253
  6
CONTINUOUS
 10
27.9949815537
 20
2.3896847534
 11
27.9949815537
 21
2.3809578856
  0
LINE
  5
45D
100
AcDbEntity
  8
CURVE
100
AcDbLine
 62
253
  6
CONTINUOUS
 10
28.0568860675
 20
-0.0230169312
 11
28.0568860675
 21
0.6198402181
  0
LINE
  5
45E
100
AcDbEntity
  8
CURVE
100
AcDbLine
 62
253
  6
CONTINUOUS
 10
28.2283146645
 20
-3.651588361
 11
28.2283146645
 21
-3.0515883551
  0
LINE
  5
45F
100
AcDbEntity
  8
CURVE
100
AcDbLine
 62
253
  6
CONTINUOUS
 10
28.4854574705
 20
0.4055545166
 11
28.4854574705
 21
0.8341259196
  0
LINE
  5
460
100
AcDbEntity
  8
CURVE
100
AcDbLine
 62
253
  6
CONTINUOUS
 10
28.8283146287
 20
-3.9182550431
 11
28.8283146287
 21
-3.9515883744
  0
LINE
  5
461
100
AcDbEntity
  8
CURVE
100
AcDbLine
 62
253
  6
CONTINUOUS
 10
28.9616480375
 20
-3.9182550431
 11
28.9616480375
 21
-3.8849217117
  0
LINE
  5
462
100
AcDbEntity
  8
SCRITTE
100
AcDbLine
 62
253
  6
CONTINUOUS
 10
29.1616477753
 20
2.3914301269
 11
29.1616477753
 21
2.379212512
  0
LINE
  5
463
100
AcDbEntity
  8
CURVE
100
AcDbLine
 62
253
  6
CONTINUOUS
 10
29.2354574705
 20
0.8341259196
 11
29.2354574705
 21
0.4055545166
  0
LINE
  5
464
100
AcDbEntity
  8
CURVE
100
AcDbLine
 62
253
  6
CONTINUOUS
 10
29.2354574705
 20
0.4055545166
 11
29.1283146645
 21
-0.0230169312
  0
LINE
  5
465
100
AcDbEntity
  8
CURVE
100
AcDbLine
 62
253
  6
CONTINUOUS
 10
27.6283146689
 20
-2.851588367
 11
27.5283146645
 21
-3.0515883551
  0
LINE
  5
466
100
AcDbEntity
  8
CURVE
100
AcDbLine
 62
253
  6
CONTINUOUS
 10
27.7354574705
 20
-0.4515883789
 11
27.9497432614
 21
-0.237302655
  0
LINE
  5
467
100
AcDbEntity
  8
CURVE
100
AcDbLine
 62
253
  6
CONTINUOUS
 10
29.1283146645
 20
-0.0230169312
 11
28.6997432614
 21
-0.4515883789
  0
LINE
  5
468
100
AcDbEntity
  8
CURVE
100
AcDbLine
 62
253
  6
CONTINUOUS
 10
30.2711717392
 20
0.5126973226
 11
30.0926002766
 21
0.4055545166
  0
LINE
  5
469
100
AcDbEntity
  8
RACCORDO
100
AcDbLine
 62
253
  6
CONTINUOUS
 10
16.606497495
 20
-3.2344434623
 11
16.6498178087
 21
-3.2344236495
  0
LINE
  5
46A
100
AcDbEntity
  8
ASSI
100
AcDbLine
 62
253
  6
CONTINUOUS
 10
16.606497495
 20
-3.2344434623
 11
16.6498178087
 21
-3.2344236495
  0
LINE
  5
46B
100
AcDbEntity
  8
SCRITTE
100
AcDbLine
 62
253
  6
CONTINUOUS
 10
34.0658146645
 20
-3.2640883789
 11
34.1095646645
 21
-3.2640883789
  0
LINE
  5
46C
100
AcDbEntity
  8
CURVE
100
AcDbLine
 62
253
  6
CONTINUOUS
 10
29.6283146645
 20
-3.2515883431
 11
29.828314736
 21
-3.2515883431
  0
LINE
  5
46D
100
AcDbEntity
  8
RACCORDO
100
AcDbLine
 62
253
  6
CONTINUOUS
 10
49.0887050941
 20
-3.2365530247
 11
36.0954210859
 21
-3.2365530247
  0
LINE
  5
46E
100
AcDbEntity
  8
ASSI
100
AcDbLine
 62
253
  6
CONTINUOUS
 10
49.0887050941
 20
-3.2365530247
 11
36.0954210859
 21
-3.2365530247
  0
LINE
  5
46F
100
AcDbEntity
  8
RACCORDO
100
AcDbLine
 62
253
  6
CONTINUOUS
 10
15.4407836804
 20
-3.2348899382
 11
15.6019523268
 21
-3.2348899368
  0
LINE
  5
470
100
AcDbEntity
  8
ASSI
100
AcDbLine
 62
253
  6
CONTINUOUS
 10
15.4407836804
 20
-3.2348899382
 11
15.6019523268
 21
-3.2348899368
  0
LINE
  5
471
100
AcDbEntity
  8
0
100
AcDbLine
 62
7
  6
CONTINUOUS
 10
13.637923751
 20
-3.1015883789
 11
10.7563544904
 21
-3.1015883789
  0
LINE
  5
472
100
AcDbEntity
  8
DRAFT
100
AcDbLine
 62
7
  6
CONTINUOUS
 10
16.6434708921
 20
-3.0557205456
 11
16.606497495
 21
-3.0557205456
  0
LINE
  5
473
100
AcDbEntity
  8
ASSI
100
AcDbLine
 62
7
  6
CONTINUOUS
 10
16.6434708921
 20
-3.0557205456
 11
16.606497495
 21
-3.0557205456
  0
LINE
  5
474
100
AcDbEntity
  8
DRAFT
100
AcDbLine
 62
7
  6
CONTINUOUS
 10
15.6019523268
 20
-3.0557205456
 11
15.4324468311
 21
-3.0557205456
  0
LINE
  5
475
100
AcDbEntity
  8
ASSI
100
AcDbLine
 62
7
  6
CONTINUOUS
 10
15.6019523268
 20
-3.0557205456
 11
15.4324468311
 21
-3.0557205456
  0
LINE
  5
476
100
AcDbEntity
  8
RACCORDO
100
AcDbLine
 62
253
  6
CONTINUOUS
 10
50.0429550572
 20
-2.9687047288
 11
49.7015223702
 21
-2.9687047288
  0
LINE
  5
477
100
AcDbEntity
  8
RACCORDO
100
AcDbLine
 62
253
  6
CONTINUOUS
 10
49.9881375495
 20
-2.8590697221
 11
49.811157377
 21
-2.8590697221
  0
LINE
  5
478
100
AcDbEntity
  8
SCRITTE
100
AcDbLine
 62
253
  6
CONTINUOUS
 10
34.1095646645
 20
-2.7390883789
 11
34.0220646645
 21
-2.7390883789
  0
LINE
  5
479
100
AcDbEntity
  8
RACCORDO
100
AcDbLine
 62
253
  6
CONTINUOUS
 10
49.2763111064
 20
-2.6619972007
 11
49.1055204032
 21
-2.6619972007
  0
LINE
  5
47A
100
AcDbEntity
  8
ASSI
100
AcDbLine
 62
253
  6
CONTINUOUS
 10
49.2763111064
 20
-2.6619972007
 11
49.1055204032
 21
-2.6619972007
  0
LINE
  5
47B
100
AcDbEntity
  8
CURVE
100
AcDbLine
 62
253
  6
CONTINUOUS
 10
27.9283146824
 20
-2.6515883789
 11
27.8283146675
 21
-2.6515883789
  0
LINE
  5
47C
100
AcDbEntity
  8
SCRITTE
100
AcDbLine
 62
253
  6
CONTINUOUS
 10
24.7283148552
 20
-2.6515883789
 11
24.0283148552
 21
-2.6515883789
  0
LINE
  5
47D
100
AcDbEntity
  8
SCRITTE
100
AcDbLine
 62
253
  6
CONTINUOUS
 10
23.6283147122
 20
-2.6515883789
 11
22.9283147122
 21
-2.6515883789
  0
LINE
  5
47E
100
AcDbEntity
  8
CURVE
100
AcDbLine
 62
253
  6
CONTINUOUS
 10
29.428314593
 20
-2.6515883789
 11
29.828314736
 21
-2.6515883789
  0
LINE
  5
47F
100
AcDbEntity
  8
RACCORDO
100
AcDbLine
 62
253
  6
CONTINUOUS
 10
49.0846770022
 20
-2.5975819583
 11
36.0934071933
 21
-2.5975819583
  0
LINE
  5
480
100
AcDbEntity
  8
ASSI
100
AcDbLine
 62
253
  6
CONTINUOUS
 10
49.0846770022
 20
-2.5975819583
 11
36.0934071933
 21
-2.5975819583
  0
LINE
  5
481
100
AcDbEntity
  8
CURVE
100
AcDbLine
 62
253
  6
CONTINUOUS
 10
23.3283145214
 20
-2.3515883789
 11
22.9283147122
 21
-2.3515883789
  0
LINE
  5
482
100
AcDbEntity
  8
CURVE
100
AcDbLine
 62
253
  6
CONTINUOUS
 10
20.028314593
 20
-2.3515883789
 11
20.1283147122
 21
-2.3515883789
  0
LINE
  5
483
100
AcDbEntity
  8
CURVE
100
AcDbLine
 62
253
  6
CONTINUOUS
 10
21.8283145691
 20
-2.3515883789
 11
22.5283145691
 21
-2.3515883789
  0
LINE
  5
484
100
AcDbEntity
  8
CURVE
100
AcDbLine
 62
253
  6
CONTINUOUS
 10
24.2283147598
 20
-2.3515883789
 11
24.3283143784
 21
-2.3515883789
  0
LINE
  5
485
100
AcDbEntity
  8
RACCORDO
100
AcDbLine
 62
7
  6
CONTINUOUS
 10
16.6498178087
 20
-3.0684153454
 11
16.606497495
 21
-3.0683757168
  0
LINE
  5
486
100
AcDbEntity
  8
ASSI
100
AcDbLine
 62
7
  6
CONTINUOUS
 10
16.6498178087
 20
-3.0684153454
 11
16.606497495
 21
-3.0683757168
  0
LINE
  5
487
100
AcDbEntity
  8
RACCORDO
100
AcDbLine
 62
7
  6
CONTINUOUS
 10
15.5578198197
 20
-3.0671731966
 11
15.6019523268
 21
-3.0674162783
  0
LINE
  5
488
100
AcDbEntity
  8
ASSI
100
AcDbLine
 62
7
  6
CONTINUOUS
 10
15.5578198197
 20
-3.0671731966
 11
15.6019523268
 21
-3.0674162783
  0
LINE
  5
489
100
AcDbEntity
  8
SCRITTE
100
AcDbLine
 62
253
  6
CONTINUOUS
 10
33.8470646645
 20
-4.0078383789
 11
33.9783146645
 21
-4.0515883789
  0
LINE
  5
48A
100
AcDbEntity
  8
CURVE
100
AcDbLine
 62
253
  6
CONTINUOUS
 10
26.2354575264
 20
-0.237302655
 11
26.4497432391
 21
-0.4515883789
  0
LINE
  5
48B
100
AcDbEntity
  8
CURVE
100
AcDbLine
 62
253
  6
CONTINUOUS
 10
29.828314736
 20
-3.2515883431
 11
30.0283146406
 21
-3.4515883729
  0
LINE
  5
48C
100
AcDbEntity
  8
CURVE
100
AcDbLine
 62
253
  6
CONTINUOUS
 10
27.414028963
 20
-0.237302655
 11
27.6283146645
 21
-0.4515883789
  0
LINE
  5
48D
100
AcDbEntity
  8
CURVE
100
AcDbLine
 62
253
  6
CONTINUOUS
 10
26.7711718137
 20
0.8341259196
 11
26.5568861122
 21
1.0484116211
  0
LINE
  5
48E
100
AcDbEntity
  8
CURVE
100
AcDbLine
 62
253
  6
CONTINUOUS
 10
29.828314736
 20
-2.6515883789
 11
29.9949812676
 21
-2.851588367
  0
LINE
  5
48F
100
AcDbEntity
  8
CURVE
100
AcDbLine
 62
253
  6
CONTINUOUS
 10
26.8783146645
 20
0.6198402181
 11
26.7711718137
 21
0.8341259196
  0
LINE
  5
490
100
AcDbEntity
  8
CURVE
100
AcDbLine
 62
253
  6
CONTINUOUS
 10
27.3068860675
 20
-0.0230169312
 11
27.414028963
 21
-0.237302655
  0
LINE
  5
491
100
AcDbEntity
  8
CURVE
100
AcDbLine
 62
253
  6
CONTINUOUS
 10
28.0568860675
 20
0.6198402181
 11
27.9497432614
 21
0.8341259196
  0
LINE
  5
492
100
AcDbEntity
  8
SCRITTE
100
AcDbLine
 62
253
  6
CONTINUOUS
 10
29.8616477753
 20
2.379212512
 11
29.8616477753
 21
2.3914301269
  0
LINE
  5
493
100
AcDbEntity
  8
CURVE
100
AcDbLine
 62
253
  6
CONTINUOUS
 10
29.9949812676
 20
-2.851588367
 11
29.9949812676
 21
-3.1515883908
  0
LINE
  5
494
100
AcDbEntity
  8
CURVE
100
AcDbLine
 62
253
  6
CONTINUOUS
 10
30.0283146406
 20
-3.4515883729
 11
30.0283146406
 21
-3.9515883744
  0
LINE
  5
495
100
AcDbEntity
  8
CURVE
100
AcDbLine
 62
253
  6
CONTINUOUS
 10
30.2711717392
 20
0.8341259196
 11
30.2711717392
 21
0.5126973226
  0
LINE
  5
496
100
AcDbEntity
  8
CURVE
100
AcDbLine
 62
253
  6
CONTINUOUS
 10
30.3068862463
 20
0.1912687703
 11
30.3068862463
 21
-0.344445517
  0
LINE
  5
497
100
AcDbEntity
  8
SCRITTE
100
AcDbLine
 62
253
  6
CONTINUOUS
 10
30.5283152367
 20
2.3914301269
 11
30.5283152367
 21
2.379212512
  0
LINE
  5
498
100
AcDbEntity
  8
CURVE
100
AcDbLine
 62
253
  6
CONTINUOUS
 10
28.9283146645
 20
-4.0182550449
 11
28.9616480375
 21
-3.9182550431
  0
LINE
  5
499
100
AcDbEntity
  8
CURVE
100
AcDbLine
 62
253
  6
CONTINUOUS
 10
28.1283146704
 20
-3.85158837
 11
28.2283146645
 21
-3.651588361
  0
LINE
  5
49A
100
AcDbEntity
  8
CURVE
100
AcDbLine
 62
253
  6
CONTINUOUS
 10
28.8616480018
 20
-3.85158837
 11
28.8283146287
 21
-3.9182550431
  0
LINE
  5
49B
100
AcDbEntity
  8
CURVE
100
AcDbLine
 62
253
  6
CONTINUOUS
 10
28.8616480018
 20
-4.1515883834
 11
28.9283146645
 21
-4.0182550449
  0
LINE
  5
49C
100
AcDbEntity
  8
CURVE
100
AcDbLine
 62
253
  6
CONTINUOUS
 10
30.8068861271
 20
0.8341259196
 11
30.9497430826
 21
1.0484116211
  0
LINE
  5
49D
100
AcDbEntity
  8
CURVE
100
AcDbLine
 62
253
  6
CONTINUOUS
 10
27.8283146675
 20
-2.6515883789
 11
27.6283146689
 21
-2.851588367
  0
LINE
  5
49E
100
AcDbEntity
  8
CURVE
100
AcDbLine
 62
253
  6
CONTINUOUS
 10
30.9497430826
 20
0.4055545166
 11
30.7354574705
 21
0.1912687703
  0
LINE
  5
49F
100
AcDbEntity
  8
CURVE
100
AcDbLine
 62
253
  6
CONTINUOUS
 10
30.3068862463
 20
-0.344445517
 11
30.1997430826
 21
-0.4515883789
  0
LINE
  5
4A0
100
AcDbEntity
  8
CURVE
100
AcDbLine
 62
253
  6
CONTINUOUS
 10
31.2711718584
 20
-0.4515883789
 11
31.4854574705
 21
-0.237302655
  0
LINE
  5
4A1
100
AcDbEntity
  8
CURVE
100
AcDbLine
 62
253
  6
CONTINUOUS
 10
31.414028814
 20
0.5126973226
 11
31.2711718584
 21
0.4055545166
  0
LINE
  5
4A2
100
AcDbEntity
  8
CURVE
100
AcDbLine
 62
253
  6
CONTINUOUS
 10
26.4616482521
 20
-1.8182550356
 11
26.2283144737
 21
-1.9182550297
  0
LINE
  5
4A3
100
AcDbEntity
  8
CURVE
100
AcDbLine
 62
253
  6
CONTINUOUS
 10
26.9949815537
 20
-1.9182550297
 11
26.7283145691
 21
-2.0182550446
  0
LINE
  5
4A4
100
AcDbEntity
  8
RACCORDO
100
AcDbLine
 62
253
  6
CONTINUOUS
 10
49.2876799726
 20
-1.9536681078
 11
49.1003865606
 21
-1.9536681078
  0
LINE
  5
4A5
100
AcDbEntity
  8
ASSI
100
AcDbLine
 62
253
  6
CONTINUOUS
 10
49.2876799726
 20
-1.9536681078
 11
49.1003865606
 21
-1.9536681078
  0
LINE
  5
4A6
100
AcDbEntity
  8
CURVE
100
AcDbLine
 62
253
  6
CONTINUOUS
 10
21.4283147598
 20
-1.851588367
 11
20.8283147122
 21
-1.851588367
  0
LINE
  5
4A7
100
AcDbEntity
  8
ASSI
100
AcDbLine
 62
7
  6
CONTINUOUS
 10
41.4283146645
 20
-1.8515883789
 11
42.4866151889
 21
-1.8515883789
  0
LINE
  5
4A8
100
AcDbEntity
  8
0
100
AcDbLine
 62
7
  6
CONTINUOUS
 10
13.6379241016
 20
-1.6015883789
 11
10.7563544904
 21
-1.6015883789
  0
LINE
  5
4A9
100
AcDbEntity
  8
CURVE
100
AcDbLine
 62
253
  6
CONTINUOUS
 10
22.9283147122
 20
-1.5515883431
 11
23.3283145214
 21
-1.5515883431
  0
LINE
  5
4AA
100
AcDbEntity
  8
DRAFT
100
AcDbLine
 62
7
  6
CONTINUOUS
 10
16.6418325792
 20
-1.3515883789
 11
16.606497495
 21
-1.3515883789
  0
LINE
  5
4AB
100
AcDbEntity
  8
ASSI
100
AcDbLine
 62
7
  6
CONTINUOUS
 10
16.6418325792
 20
-1.3515883789
 11
16.606497495
 21
-1.3515883789
  0
LINE
  5
4AC
100
AcDbEntity
  8
DRAFT
100
AcDbLine
 62
7
  6
CONTINUOUS
 10
15.6019523268
 20
-1.3515883789
 11
13.6418325792
 21
-1.3515883789
  0
LINE
  5
4AD
100
AcDbEntity
  8
ASSI
100
AcDbLine
 62
7
  6
CONTINUOUS
 10
15.6019523268
 20
-1.3515883789
 11
13.6418325792
 21
-1.3515883789
  0
LINE
  5
4AE
100
AcDbEntity
  8
0
100
AcDbLine
 62
7
  6
CONTINUOUS
 10
13.6379241016
 20
-1.1015883789
 11
10.7563544904
 21
-1.1015883789
  0
LINE
  5
4AF
100
AcDbEntity
  8
CURVE
100
AcDbLine
 62
253
  6
CONTINUOUS
 10
24.3283143784
 20
-0.9515883789
 11
24.2283147598
 21
-0.9515883789
  0
LINE
  5
4B0
100
AcDbEntity
  8
CURVE
100
AcDbLine
 62
253
  6
CONTINUOUS
 10
23.5283147598
 20
-0.9515883789
 11
22.9283147122
 21
-0.9515883789
  0
LINE
  5
4B1
100
AcDbEntity
  8
CURVE
100
AcDbLine
 62
253
  6
CONTINUOUS
 10
20.1283147122
 20
-0.9515883789
 11
20.028314593
 21
-0.9515883789
  0
LINE
  5
4B2
100
AcDbEntity
  8
CURVE
100
AcDbLine
 62
253
  6
CONTINUOUS
 10
22.0283148075
 20
-0.9515883789
 11
22.3283146645
 21
-0.9515883789
  0
LINE
  5
4B3
100
AcDbEntity
  8
SCRITTE
100
AcDbLine
 62
253
  6
CONTINUOUS
 10
34.2845646645
 20
-2.7828383789
 11
34.1095646645
 21
-2.7390883789
  0
LINE
  5
4B4
100
AcDbEntity
  8
SCRITTE
100
AcDbLine
 62
253
  6
CONTINUOUS
 10
33.9345646645
 20
-3.2203383789
 11
34.0658146645
 21
-3.2640883789
  0
LINE
  5
4B5
100
AcDbEntity
  8
SCRITTE
100
AcDbLine
 62
253
  6
CONTINUOUS
 10
34.4158146645
 20
-2.8265883789
 11
34.2845646645
 21
-2.7828383789
  0
LINE
  5
4B6
100
AcDbEntity
  8
SCRITTE
100
AcDbLine
 62
253
  6
CONTINUOUS
 10
33.7595646645
 20
-3.9640883789
 11
33.8470646645
 21
-4.0078383789
  0
LINE
  5
4B7
100
AcDbEntity
  8
SCRITTE
100
AcDbLine
 62
253
  6
CONTINUOUS
 10
33.8470646645
 20
-3.1765883789
 11
33.9345646645
 21
-3.2203383789
  0
LINE
  5
4B8
100
AcDbEntity
  8
SCRITTE
100
AcDbLine
 62
253
  6
CONTINUOUS
 10
34.5033146645
 20
-2.8703383789
 11
34.4158146645
 21
-2.8265883789
  0
LINE
  5
4B9
100
AcDbEntity
  8
CURVE
100
AcDbLine
 62
253
  6
CONTINUOUS
 10
27.9497432614
 20
0.8341259196
 11
27.7354574705
 21
1.0484116211
  0
LINE
  5
4BA
100
AcDbEntity
  8
CURVE
100
AcDbLine
 62
253
  6
CONTINUOUS
 10
28.6997432614
 20
0.1912687703
 11
28.4854574705
 21
0.4055545166
  0
LINE
  5
4BB
100
AcDbEntity
  8
CURVE
100
AcDbLine
 62
253
  6
CONTINUOUS
 10
31.3283145214
 20
-4.0515883789
 11
31.0283146645
 21
-3.0515883551
  0
LINE
  5
4BC
100
AcDbEntity
  8
CURVE
100
AcDbLine
 62
253
  6
CONTINUOUS
 10
30.7283148075
 20
-4.0515883789
 11
30.4283146168
 21
-2.6515883789
  0
LINE
  5
4BD
100
AcDbEntity
  8
CURVE
100
AcDbLine
 62
253
  6
CONTINUOUS
 10
30.7354574705
 20
0.1912687703
 11
30.7354574705
 21
-0.237302655
  0
LINE
  5
4BE
100
AcDbEntity
  8
CURVE
100
AcDbLine
 62
253
  6
CONTINUOUS
 10
30.8068861271
 20
0.5126973226
 11
30.8068861271
 21
0.8341259196
  0
LINE
  5
4BF
100
AcDbEntity
  8
SCRITTE
100
AcDbLine
 62
253
  6
CONTINUOUS
 10
31.1616474892
 20
2.3914301269
 11
31.1616474892
 21
2.379212512
  0
LINE
  5
4C0
100
AcDbEntity
  8
CURVE
100
AcDbLine
 62
253
  6
CONTINUOUS
 10
31.414028814
 20
0.8341259196
 11
31.414028814
 21
0.5126973226
  0
LINE
  5
4C1
100
AcDbEntity
  8
CURVE
100
AcDbLine
 62
253
  6
CONTINUOUS
 10
31.4854574705
 20
-0.237302655
 11
31.4854574705
 21
0.1912687703
  0
LINE
  5
4C2
100
AcDbEntity
  8
SCRITTE
100
AcDbLine
 62
253
  6
CONTINUOUS
 10
31.8616474892
 20
2.3914301269
 11
31.8616474892
 21
2.379212512
  0
LINE
  5
4C3
100
AcDbEntity
  8
CURVE
100
AcDbLine
 62
253
  6
CONTINUOUS
 10
31.6283147122
 20
-2.6515883789
 11
31.3283145214
 21
-4.0515883789
  0
LINE
  5
4C4
100
AcDbEntity
  8
CURVE
100
AcDbLine
 62
253
  6
CONTINUOUS
 10
31.0283146645
 20
-3.0515883551
 11
30.7283148075
 21
-4.0515883789
  0
LINE
  5
4C5
100
AcDbEntity
  8
CURVE
100
AcDbLine
 62
253
  6
CONTINUOUS
 10
32.164028814
 20
-0.2015883714
 11
32.1283146645
 21
-0.2730169498
  0
LINE
  5
4C6
100
AcDbEntity
  8
CURVE
100
AcDbLine
 62
253
  6
CONTINUOUS
 10
32.2354578282
 20
-0.3801598061
 11
32.2711719776
 21
-0.3087312334
  0
LINE
  5
4C7
100
AcDbEntity
  8
CURVE
100
AcDbLine
 62
253
  6
CONTINUOUS
 10
27.9283146824
 20
-4.0515883789
 11
28.1283146704
 21
-3.85158837
  0
LINE
  5
4C8
100
AcDbEntity
  8
CURVE
100
AcDbLine
 62
253
  6
CONTINUOUS
 10
28.8949812914
 20
-3.8182550386
 11
28.8616480018
 21
-3.85158837
  0
LINE
  5
4C9
100
AcDbEntity
  8
DRAFT
100
AcDbLine
 62
7
  6
CONTINUOUS
 10
35.3283146645
 20
2.4507927753
 11
35.2759335102
 21
2.3984116211
  0
LINE
  5
4CA
100
AcDbEntity
  8
CURVE
100
AcDbLine
 62
253
  6
CONTINUOUS
 10
28.8949812914
 20
-3.984921711
 11
28.9616480375
 21
-3.9182550431
  0
LINE
  5
4CB
100
AcDbEntity
  8
RACCORDO
100
AcDbLine
 62
253
  6
CONTINUOUS
 10
35.515247209
 20
2.3853213194
 11
35.486846811
 21
2.3569209214
  0
LINE
  5
4CC
100
AcDbEntity
  8
ASSI
100
AcDbLine
 62
253
  6
CONTINUOUS
 10
35.515247209
 20
2.3853213194
 11
35.486846811
 21
2.3569209214
  0
LWPOLYLINE
  5
4CD
100
AcDbEntity
  8
RACCORDO
100
AcDbPolyline
 62
7
  6
CONTINUOUS
 90
3
 70
0
 10
15.6019523268
 20
0.3642395205
 10
15.5806933089
 20
0.364148724
 10
15.535914155
 20
0.3637911643
  0
LWPOLYLINE
  5
4CE
100
AcDbEntity
  8
ASSI
100
AcDbPolyline
 62
7
  6
CONTINUOUS
 90
3
 70
0
 10
15.6019523268
 20
0.3642395205
 10
15.5806933089
 20
0.364148724
 10
15.535914155
 20
0.3637911643
  0
LINE
  5
4CF
100
AcDbEntity
  8
RACCORDO
100
AcDbLine
 62
7
  6
CONTINUOUS
 10
16.6498178087
 20
0.3652385876
 11
16.606497495
 21
0.365198959
  0
LINE
  5
4D0
100
AcDbEntity
  8
ASSI
100
AcDbLine
 62
7
  6
CONTINUOUS
 10
16.6498178087
 20
0.3652385876
 11
16.606497495
 21
0.365198959
  0
LINE
  5
4D1
100
AcDbEntity
  8
ASSI
100
AcDbLine
 62
7
  6
CONTINUOUS
 10
41.4283146645
 20
-0.8515883789
 11
42.4866151889
 21
-0.8515883789
  0
LINE
  5
4D2
100
AcDbEntity
  8
RACCORDO
100
AcDbLine
 62
253
  6
CONTINUOUS
 10
49.1003865606
 20
-0.74950865
 11
49.2876799726
 21
-0.74950865
  0
LINE
  5
4D3
100
AcDbEntity
  8
ASSI
100
AcDbLine
 62
253
  6
CONTINUOUS
 10
49.1003865606
 20
-0.74950865
 11
49.2876799726
 21
-0.74950865
  0
LINE
  5
4D4
100
AcDbEntity
  8
0
100
AcDbLine
 62
7
  6
CONTINUOUS
 10
18.9760386645
 20
-0.6338893789
 11
19.2887306645
 21
-0.6338893789
  0
LINE
  5
4D5
100
AcDbEntity
  8
ASSI
100
AcDbLine
 62
7
  6
CONTINUOUS
 10
18.9760386645
 20
-0.6338893789
 11
19.2887306645
 21
-0.6338893789
  0
LINE
  5
4D6
100
AcDbEntity
  8
0
100
AcDbLine
 62
7
  6
CONTINUOUS
 10
19.9668126645
 20
-0.6338893789
 11
20.3216406645
 21
-0.6338893789
  0
LINE
  5
4D7
100
AcDbEntity
  8
ASSI
100
AcDbLine
 62
7
  6
CONTINUOUS
 10
19.9668126645
 20
-0.6338893789
 11
20.3216406645
 21
-0.6338893789
  0
LINE
  5
4D8
100
AcDbEntity
  8
0
100
AcDbLine
 62
7
  6
CONTINUOUS
 10
20.5126556645
 20
-0.6338893789
 11
20.8521106645
 21
-0.6338893789
  0
LINE
  5
4D9
100
AcDbEntity
  8
ASSI
100
AcDbLine
 62
7
  6
CONTINUOUS
 10
20.5126556645
 20
-0.6338893789
 11
20.8521106645
 21
-0.6338893789
  0
LINE
  5
4DA
100
AcDbEntity
  8
0
100
AcDbLine
 62
7
  6
CONTINUOUS
 10
21.3449386645
 20
-0.6338893789
 11
21.3947026645
 21
-0.6338893789
  0
LINE
  5
4DB
100
AcDbEntity
  8
ASSI
100
AcDbLine
 62
7
  6
CONTINUOUS
 10
21.3449386645
 20
-0.6338893789
 11
21.3947026645
 21
-0.6338893789
  0
LINE
  5
4DC
100
AcDbEntity
  8
0
100
AcDbLine
 62
7
  6
CONTINUOUS
 10
21.8894946645
 20
-0.6338893789
 11
22.2366106645
 21
-0.6338893789
  0
LINE
  5
4DD
100
AcDbEntity
  8
ASSI
100
AcDbLine
 62
7
  6
CONTINUOUS
 10
21.8894946645
 20
-0.6338893789
 11
22.2366106645
 21
-0.6338893789
  0
LINE
  5
4DE
100
AcDbEntity
  8
0
100
AcDbLine
 62
7
  6
CONTINUOUS
 10
22.2923276645
 20
-0.6338893789
 11
22.6433056645
 21
-0.6338893789
  0
LINE
  5
4DF
100
AcDbEntity
  8
ASSI
100
AcDbLine
 62
7
  6
CONTINUOUS
 10
22.2923276645
 20
-0.6338893789
 11
22.6433056645
 21
-0.6338893789
  0
LINE
  5
4E0
100
AcDbEntity
  8
0
100
AcDbLine
 62
7
  6
CONTINUOUS
 10
23.3163526645
 20
-0.6338893789
 11
23.6903266645
 21
-0.6338893789
  0
LINE
  5
4E1
100
AcDbEntity
  8
ASSI
100
AcDbLine
 62
7
  6
CONTINUOUS
 10
23.3163526645
 20
-0.6338893789
 11
23.6903266645
 21
-0.6338893789
  0
LINE
  5
4E2
100
AcDbEntity
  8
0
100
AcDbLine
 62
7
  6
CONTINUOUS
 10
23.7945213284
 20
-0.6338890656
 11
24.1479216605
 21
-0.6338890656
  0
LINE
  5
4E3
100
AcDbEntity
  8
ASSI
100
AcDbLine
 62
7
  6
CONTINUOUS
 10
23.7945213284
 20
-0.6338890656
 11
24.1479216605
 21
-0.6338890656
  0
LINE
  5
4E4
100
AcDbEntity
  8
0
100
AcDbLine
 62
7
  6
CONTINUOUS
 10
24.6912918796
 20
-0.6338890656
 11
25.0325952229
 21
-0.6338890656
  0
LINE
  5
4E5
100
AcDbEntity
  8
ASSI
100
AcDbLine
 62
7
  6
CONTINUOUS
 10
24.6912918796
 20
-0.6338890656
 11
25.0325952229
 21
-0.6338890656
  0
LINE
  5
4E6
100
AcDbEntity
  8
CURVE
100
AcDbLine
 62
253
  6
CONTINUOUS
 10
30.1997430826
 20
-0.4515883789
 11
29.6640290524
 21
-0.4515883789
  0
LINE
  5
4E7
100
AcDbEntity
  8
CURVE
100
AcDbLine
 62
253
  6
CONTINUOUS
 10
26.4497432391
 20
-0.4515883789
 11
26.5568861122
 21
-0.4515883789
  0
LINE
  5
4E8
100
AcDbEntity
  8
CURVE
100
AcDbLine
 62
253
  6
CONTINUOUS
 10
27.6283146645
 20
-0.4515883789
 11
27.7354574705
 21
-0.4515883789
  0
LINE
  5
4E9
100
AcDbEntity
  8
CURVE
100
AcDbLine
 62
253
  6
CONTINUOUS
 10
30.9497430826
 20
-0.4515883789
 11
31.2711718584
 21
-0.4515883789
  0
LINE
  5
4EA
100
AcDbEntity
  8
CURVE
100
AcDbLine
 62
253
  6
CONTINUOUS
 10
32.164028814
 20
-0.3801598061
 11
32.2354578282
 21
-0.3801598061
  0
LINE
  5
4EB
100
AcDbEntity
  8
0
100
AcDbLine
 62
7
  6
CONTINUOUS
 10
22.7412166645
 20
-0.2945363789
 11
23.2244336645
 21
-0.2945363789
  0
LINE
  5
4EC
100
AcDbEntity
  8
ASSI
100
AcDbLine
 62
7
  6
CONTINUOUS
 10
22.7412166645
 20
-0.2945363789
 11
23.2244336645
 21
-0.2945363789
  0
LINE
  5
4ED
100
AcDbEntity
  8
CURVE
100
AcDbLine
 62
253
  6
CONTINUOUS
 10
32.2354578282
 20
-0.2015883714
 11
32.164028814
 21
-0.2015883714
  0
LINE
  5
4EE
100
AcDbEntity
  8
RACCORDO
100
AcDbLine
 62
253
  6
CONTINUOUS
 10
36.0934071933
 20
-0.1055947995
 11
49.0846770022
 21
-0.1055947995
  0
LINE
  5
4EF
100
AcDbEntity
  8
ASSI
100
AcDbLine
 62
253
  6
CONTINUOUS
 10
36.0934071933
 20
-0.1055947995
 11
49.0846770022
 21
-0.1055947995
  0
LINE
  5
4F0
100
AcDbEntity
  8
RACCORDO
100
AcDbLine
 62
253
  6
CONTINUOUS
 10
49.1055204032
 20
-0.0411795571
 11
49.2763111064
 21
-0.0411795571
  0
LINE
  5
4F1
100
AcDbEntity
  8
ASSI
100
AcDbLine
 62
253
  6
CONTINUOUS
 10
49.1055204032
 20
-0.0411795571
 11
49.2763111064
 21
-0.0411795571
  0
LINE
  5
4F2
100
AcDbEntity
  8
0
100
AcDbLine
 62
7
  6
CONTINUOUS
 10
23.1535206645
 20
-0.0319463789
 11
22.8137986645
 21
-0.0319463789
  0
LINE
  5
4F3
100
AcDbEntity
  8
ASSI
100
AcDbLine
 62
7
  6
CONTINUOUS
 10
23.1535206645
 20
-0.0319463789
 11
22.8137986645
 21
-0.0319463789
  0
LINE
  5
4F4
100
AcDbEntity
  8
0
100
AcDbLine
 62
7
  6
CONTINUOUS
 10
24.1479216605
 20
0.031343337
 11
24.3381719835
 21
0.031343337
  0
LINE
  5
4F5
100
AcDbEntity
  8
ASSI
100
AcDbLine
 62
7
  6
CONTINUOUS
 10
24.1479216605
 20
0.031343337
 11
24.3381719835
 21
0.031343337
  0
LINE
  5
4F6
100
AcDbEntity
  8
RACCORDO
100
AcDbLine
 62
253
  6
CONTINUOUS
 10
49.811157377
 20
0.1558929643
 11
49.9881375495
 21
0.1558929643
  0
LINE
  5
4F7
100
AcDbEntity
  8
CURVE
100
AcDbLine
 62
253
  6
CONTINUOUS
 10
29.164028814
 20
0.1912687703
 11
28.6997432614
 21
0.1912687703
  0
LINE
  5
4F8
100
AcDbEntity
  8
RACCORDO
100
AcDbLine
 62
253
  6
CONTINUOUS
 10
49.7015223702
 20
0.265527971
 11
50.0429550859
 21
0.265527971
  0
LINE
  5
4F9
100
AcDbEntity
  8
0
100
AcDbLine
 62
7
  6
CONTINUOUS
 10
24.3389368089
 20
0.3097397896
 11
24.1361560961
 21
0.3097397896
  0
LINE
  5
4FA
100
AcDbEntity
  8
ASSI
100
AcDbLine
 62
7
  6
CONTINUOUS
 10
24.3389368089
 20
0.3097397896
 11
24.1361560961
 21
0.3097397896
  0
LINE
  5
4FB
100
AcDbEntity
  8
DRAFT
100
AcDbLine
 62
7
  6
CONTINUOUS
 10
16.6434708921
 20
0.3525437878
 11
16.606497495
 21
0.3525437878
  0
LINE
  5
4FC
100
AcDbEntity
  8
ASSI
100
AcDbLine
 62
7
  6
CONTINUOUS
 10
16.6434708921
 20
0.3525437878
 11
16.606497495
 21
0.3525437878
  0
LINE
  5
4FD
100
AcDbEntity
  8
DRAFT
100
AcDbLine
 62
7
  6
CONTINUOUS
 10
15.6019523268
 20
0.3525437878
 11
15.4324468311
 21
0.3525437878
  0
LINE
  5
4FE
100
AcDbEntity
  8
ASSI
100
AcDbLine
 62
7
  6
CONTINUOUS
 10
15.6019523268
 20
0.3525437878
 11
15.4324468311
 21
0.3525437878
  0
LINE
  5
4FF
100
AcDbEntity
  8
0
100
AcDbLine
 62
7
  6
CONTINUOUS
 10
13.637923751
 20
0.3984116211
 11
10.7563544904
 21
0.3984116211
  0
LINE
  5
500
100
AcDbEntity
  8
CURVE
100
AcDbLine
 62
253
  6
CONTINUOUS
 10
31.2711718584
 20
0.4055545166
 11
30.9497430826
 21
0.4055545166
  0
LINE
  5
501
100
AcDbEntity
  8
CURVE
100
AcDbLine
 62
253
  6
CONTINUOUS
 10
29.8783146645
 20
0.4055545166
 11
30.0926002766
 21
0.4055545166
  0
LWPOLYLINE
  5
502
100
AcDbEntity
  8
0
100
AcDbPolyline
 62
7
  6
CONTINUOUS
 90
10
 70
0
 10
24.3381719835
 20
0.031343337
 10
24.3667164634
 20
0.0290198609
 10
24.3938871814
 20
0.0227822418
 10
24.4196841374
 20
0.0126304797
 10
24.4444585382
 20
-0.0018814302
 10
24.4678591772
 20
-0.020307483
 10
24.4888324344
 20
-0.0413096652
 10
24.5070271033
 20
-0.0644419722
 10
24.5227943906
 20
-0.0901504086
 10
24.5361342962
 20
-0.1184349743
  0
LWPOLYLINE
  5
503
100
AcDbEntity
  8
ASSI
100
AcDbPolyline
 62
7
  6
CONTINUOUS
 90
10
 70
0
 10
24.3381719835
 20
0.031343337
 10
24.3667164634
 20
0.0290198609
 10
24.3938871814
 20
0.0227822418
 10
24.4196841374
 20
0.0126304797
 10
24.4444585382
 20
-0.0018814302
 10
24.4678591772
 20
-0.020307483
 10
24.4888324344
 20
-0.0413096652
 10
24.5070271033
 20
-0.0644419722
 10
24.5227943906
 20
-0.0901504086
 10
24.5361342962
 20
-0.1184349743
  0
LWPOLYLINE
  5
504
100
AcDbEntity
  8
0
100
AcDbPolyline
 62
7
  6
CONTINUOUS
 90
13
 70
0
 10
24.4141318947
 20
0.786391738
 10
24.4434448502
 20
0.7808096855
 10
24.4706092113
 20
0.7728060431
 10
24.4956249779
 20
0.7623808108
 10
24.5185574854
 20
0.749460529
 10
24.5393413984
 20
0.7341186574
 10
24.5577807111
 20
0.7165755746
 10
24.5739664152
 20
0.6965949127
 10
24.587807519
 20
0.6744130397
 10
24.5988350417
 20
0.6509594379
 10
24.6068926565
 20
0.6265439348
 10
24.6121366902
 20
0.600856703
 10
24.6145671429
 20
0.5738977423
  0
LWPOLYLINE
  5
505
100
AcDbEntity
  8
ASSI
100
AcDbPolyline
 62
7
  6
CONTINUOUS
 90
13
 70
0
 10
24.4141318947
 20
0.786391738
 10
24.4434448502
 20
0.7808096855
 10
24.4706092113
 20
0.7728060431
 10
24.4956249779
 20
0.7623808108
 10
24.5185574854
 20
0.749460529
 10
24.5393413984
 20
0.7341186574
 10
24.5577807111
 20
0.7165755746
 10
24.5739664152
 20
0.6965949127
 10
24.587807519
 20
0.6744130397
 10
24.5988350417
 20
0.6509594379
 10
24.6068926565
 20
0.6265439348
 10
24.6121366902
 20
0.600856703
 10
24.6145671429
 20
0.5738977423
  0
LWPOLYLINE
  5
506
100
AcDbEntity
  8
0
100
AcDbPolyline
 62
7
  6
CONTINUOUS
 90
13
 70
0
 10
24.670182698
 20
1.0282167885
 10
24.6110807678
 20
1.0465565327
 10
24.5492666201
 20
1.0616188718
 10
24.484740255
 20
1.0734038057
 10
24.4174066361
 20
1.0818251448
 10
24.3473607998
 20
1.0869690786
 10
24.2748878551
 20
1.0890941766
 10
24.1999024607
 20
1.0880219116
 10
24.1224899579
 20
1.0839308107
 10
24.0431914799
 20
1.0776150244
 10
23.9621874046
 20
1.0693392695
 10
23.8792973541
 20
1.0588388291
 10
23.7945213284
 20
1.0461137033
  0
LWPOLYLINE
  5
507
100
AcDbEntity
  8
ASSI
100
AcDbPolyline
 62
7
  6
CONTINUOUS
 90
13
 70
0
 10
24.670182698
 20
1.0282167885
 10
24.6110807678
 20
1.0465565327
 10
24.5492666201
 20
1.0616188718
 10
24.484740255
 20
1.0734038057
 10
24.4174066361
 20
1.0818251448
 10
24.3473607998
 20
1.0869690786
 10
24.2748878551
 20
1.0890941766
 10
24.1999024607
 20
1.0880219116
 10
24.1224899579
 20
1.0839308107
 10
24.0431914799
 20
1.0776150244
 10
23.9621874046
 20
1.0693392695
 10
23.8792973541
 20
1.0588388291
 10
23.7945213284
 20
1.0461137033
  0
LINE
  5
508
100
AcDbEntity
  8
CURVE
100
AcDbLine
 62
253
  6
CONTINUOUS
 10
30.9497430826
 20
0.4055545166
 11
30.8068861271
 21
0.5126973226
  0
LINE
  5
509
100
AcDbEntity
  8
SCRITTE
100
AcDbLine
 62
253
  6
CONTINUOUS
 10
33.6720646645
 20
-3.8765883789
 11
33.7595646645
 21
-3.9640883789
  0
LINE
  5
50A
100
AcDbEntity
  8
CURVE
100
AcDbLine
 62
253
  6
CONTINUOUS
 10
29.0211718584
 20
1.0484116211
 11
29.2354574705
 21
0.8341259196
  0
LINE
  5
50B
100
AcDbEntity
  8
DRAFT
100
AcDbLine
 62
7
  6
CONTINUOUS
 10
35.3283146645
 20
-5.1539695331
 11
35.2759335102
 21
-5.1015883789
  0
LINE
  5
50C
100
AcDbEntity
  8
RACCORDO
100
AcDbLine
 62
253
  6
CONTINUOUS
 10
35.515247209
 20
-5.0884980772
 11
35.486846811
 21
-5.0600976792
  0
LINE
  5
50D
100
AcDbEntity
  8
ASSI
100
AcDbLine
 62
253
  6
CONTINUOUS
 10
35.515247209
 20
-5.0884980772
 11
35.486846811
 21
-5.0600976792
  0
LINE
  5
50E
100
AcDbEntity
  8
CURVE
100
AcDbLine
 62
253
  6
CONTINUOUS
 10
30.7354574705
 20
-0.237302655
 11
30.9497430826
 21
-0.4515883789
  0
LINE
  5
50F
100
AcDbEntity
  8
CURVE
100
AcDbLine
 62
253
  6
CONTINUOUS
 10
30.0926002766
 20
0.4055545166
 11
30.3068862463
 21
0.1912687703
  0
LINE
  5
510
100
AcDbEntity
  8
SCRITTE
100
AcDbLine
 62
253
  6
CONTINUOUS
 10
33.8033146645
 20
-3.1328383789
 11
33.8470646645
 21
-3.1765883789
  0
LINE
  5
511
100
AcDbEntity
  8
DRAFT
100
AcDbLine
 62
7
  6
CONTINUOUS
 10
35.3318056775
 20
-4.3050793919
 11
35.3283146645
 21
-4.3015883789
  0
LINE
  5
512
100
AcDbEntity
  8
CURVE
100
AcDbLine
 62
253
  6
CONTINUOUS
 10
30.0926002766
 20
1.0484116211
 11
30.2711717392
 21
0.8341259196
  0
LINE
  5
513
100
AcDbEntity
  8
CURVE
100
AcDbLine
 62
253
  6
CONTINUOUS
 10
32.1283146645
 20
-0.2730169498
 11
32.1283146645
 21
-0.3087312334
  0
LINE
  5
514
100
AcDbEntity
  8
CURVE
100
AcDbLine
 62
253
  6
CONTINUOUS
 10
32.2711719776
 20
-0.3087312334
 11
32.2711719776
 21
-0.2730169498
  0
LINE
  5
515
100
AcDbEntity
  8
CURVE
100
AcDbLine
 62
253
  6
CONTINUOUS
 10
33.4140290524
 20
0.6198402181
 11
33.0926002766
 21
-0.4515883789
  0
LINE
  5
516
100
AcDbEntity
  8
DRAFT
100
AcDbLine
 62
7
  6
CONTINUOUS
 10
35.3318056775
 20
1.6019026341
 11
35.3283146645
 21
1.5984116211
  0
LINE
  5
517
100
AcDbEntity
  8
CURVE
100
AcDbLine
 62
253
  6
CONTINUOUS
 10
30.0283146406
 20
-3.9515883744
 11
29.9283146883
 21
-4.0515883789
  0
LINE
  5
518
100
AcDbEntity
  8
RACCORDO
100
AcDbLine
 62
253
  6
CONTINUOUS
 10
36.1152243628
 20
1.7853441656
 11
36.0868239648
 21
1.7569437676
  0
LINE
  5
519
100
AcDbEntity
  8
ASSI
100
AcDbLine
 62
253
  6
CONTINUOUS
 10
36.1152243628
 20
1.7853441656
 11
36.0868239648
 21
1.7569437676
  0
LINE
  5
51A
100
AcDbEntity
  8
CURVE
100
AcDbLine
 62
253
  6
CONTINUOUS
 10
29.9949812676
 20
-3.1515883908
 11
29.828314736
 21
-3.2515883431
  0
LINE
  5
51B
100
AcDbEntity
  8
SCRITTE
100
AcDbLine
 62
253
  6
CONTINUOUS
 10
34.0220646645
 20
-2.7390883789
 11
33.8908146645
 21
-2.7828383789
  0
LWPOLYLINE
  5
51C
100
AcDbEntity
  8
0
100
AcDbPolyline
 62
7
  6
CONTINUOUS
 90
10
 70
0
 10
24.1361560961
 20
0.7763852721
 10
24.1673004858
 20
0.781577
 10
24.1983798652
 20
0.7857557762
 10
24.2293942343
 20
0.7889216007
 10
24.2603429761
 20
0.7910838375
 10
24.2912267076
 20
0.7922331227
 10
24.32204728
 20
0.7923413645
 10
24.3528053106
 20
0.791399199
 10
24.3835001822
 20
0.7894159902
 10
24.4141318947
 20
0.786391738
  0
LWPOLYLINE
  5
51D
100
AcDbEntity
  8
ASSI
100
AcDbPolyline
 62
7
  6
CONTINUOUS
 90
10
 70
0
 10
24.1361560961
 20
0.7763852721
 10
24.1673004858
 20
0.781577
 10
24.1983798652
 20
0.7857557762
 10
24.2293942343
 20
0.7889216007
 10
24.2603429761
 20
0.7910838375
 10
24.2912267076
 20
0.7922331227
 10
24.32204728
 20
0.7923413645
 10
24.3528053106
 20
0.791399199
 10
24.3835001822
 20
0.7894159902
 10
24.4141318947
 20
0.786391738
  0
LWPOLYLINE
  5
51E
100
AcDbEntity
  8
RACCORDO
100
AcDbPolyline
 62
7
  6
CONTINUOUS
 90
7
 70
0
 10
15.4968908335
 20
0.3632448726
 10
15.4808184977
 20
0.3629137259
 10
15.4669703425
 20
0.3625450734
 10
15.4559794727
 20
0.3621557543
 10
15.4480569232
 20
0.3617513818
 10
15.4429916591
 20
0.3613263427
 10
15.4407836804
 20
0.360880637
  0
LWPOLYLINE
  5
51F
100
AcDbEntity
  8
ASSI
100
AcDbPolyline
 62
7
  6
CONTINUOUS
 90
7
 70
0
 10
15.4968908335
 20
0.3632448726
 10
15.4808184977
 20
0.3629137259
 10
15.4669703425
 20
0.3625450734
 10
15.4559794727
 20
0.3621557543
 10
15.4480569232
 20
0.3617513818
 10
15.4429916591
 20
0.3613263427
 10
15.4407836804
 20
0.360880637
  0
LINE
  5
520
100
AcDbEntity
  8
RACCORDO
100
AcDbLine
 62
7
  6
CONTINUOUS
 10
15.535914155
 20
0.3637911643
 11
15.4968908335
 21
0.3632448726
  0
LINE
  5
521
100
AcDbEntity
  8
ASSI
100
AcDbLine
 62
7
  6
CONTINUOUS
 10
15.535914155
 20
0.3637911643
 11
15.4968908335
 21
0.3632448726
  0
LINE
  5
522
100
AcDbEntity
  8
RACCORDO
100
AcDbLine
 62
253
  6
CONTINUOUS
 10
15.4407836804
 20
0.5317131804
 11
15.6019523268
 21
0.5317131815
  0
LINE
  5
523
100
AcDbEntity
  8
ASSI
100
AcDbLine
 62
253
  6
CONTINUOUS
 10
15.4407836804
 20
0.5317131804
 11
15.6019523268
 21
0.5317131815
  0
LINE
  5
524
100
AcDbEntity
  8
RACCORDO
100
AcDbLine
 62
253
  6
CONTINUOUS
 10
36.0954210859
 20
0.5333762669
 11
49.0887050941
 21
0.5333762669
  0
LINE
  5
525
100
AcDbEntity
  8
ASSI
100
AcDbLine
 62
253
  6
CONTINUOUS
 10
36.0954210859
 20
0.5333762669
 11
49.0887050941
 21
0.5333762669
  0
LINE
  5
526
100
AcDbEntity
  8
RACCORDO
100
AcDbLine
 62
253
  6
CONTINUOUS
 10
15.5183904337
 20
1.0094992975
 11
13.6382728473
 21
1.0094992975
  0
LINE
  5
527
100
AcDbEntity
  8
ASSI
100
AcDbLine
 62
253
  6
CONTINUOUS
 10
15.5183904337
 20
1.0094992975
 11
13.6382728473
 21
1.0094992975
  0
LINE
  5
528
100
AcDbEntity
  8
RACCORDO
100
AcDbLine
 62
7
  6
CONTINUOUS
 10
15.5996541742
 20
1.0393557225
 11
13.637370563
 21
1.0393557225
  0
LINE
  5
529
100
AcDbEntity
  8
ASSI
100
AcDbLine
 62
7
  6
CONTINUOUS
 10
15.5996541742
 20
1.0393557225
 11
13.637370563
 21
1.0393557225
  0
LINE
  5
52A
100
AcDbEntity
  8
CURVE
100
AcDbLine
 62
253
  6
CONTINUOUS
 10
27.7354574705
 20
1.0484116211
 11
27.6283146645
 21
1.0484116211
  0
LINE
  5
52B
100
AcDbEntity
  8
CURVE
100
AcDbLine
 62
253
  6
CONTINUOUS
 10
26.5568861122
 20
1.0484116211
 11
26.4497432391
 21
1.0484116211
  0
LINE
  5
52C
100
AcDbEntity
  8
DRAFT
100
AcDbLine
 62
7
  6
CONTINUOUS
 10
16.6283146645
 20
1.0484116211
 11
16.6077567572
 21
1.0484116211
  0
LINE
  5
52D
100
AcDbEntity
  8
ASSI
100
AcDbLine
 62
7
  6
CONTINUOUS
 10
16.6283146645
 20
1.0484116211
 11
16.6077567572
 21
1.0484116211
  0
LINE
  5
52E
100
AcDbEntity
  8
DRAFT
100
AcDbLine
 62
7
  6
CONTINUOUS
 10
15.5994336053
 20
1.0484116211
 11
13.6283146645
 21
1.0484116211
  0
LINE
  5
52F
100
AcDbEntity
  8
ASSI
100
AcDbLine
 62
7
  6
CONTINUOUS
 10
15.5994336053
 20
1.0484116211
 11
13.6283146645
 21
1.0484116211
  0
LINE
  5
530
100
AcDbEntity
  8
CURVE
100
AcDbLine
 62
253
  6
CONTINUOUS
 10
28.6997432614
 20
1.0484116211
 11
29.0211718584
 21
1.0484116211
  0
LINE
  5
531
100
AcDbEntity
  8
CURVE
100
AcDbLine
 62
253
  6
CONTINUOUS
 10
29.6640290524
 20
1.0484116211
 11
30.0926002766
 21
1.0484116211
  0
LINE
  5
532
100
AcDbEntity
  8
CURVE
100
AcDbLine
 62
253
  6
CONTINUOUS
 10
30.9497430826
 20
1.0484116211
 11
31.2711718584
 21
1.0484116211
  0
LINE
  5
533
100
AcDbEntity
  8
0
100
AcDbLine
 62
7
  6
CONTINUOUS
 10
23.1687666645
 20
1.0659736211
 11
22.8255126645
 21
1.0659736211
  0
LINE
  5
534
100
AcDbEntity
  8
ASSI
100
AcDbLine
 62
7
  6
CONTINUOUS
 10
23.1687666645
 20
1.0659736211
 11
22.8255126645
 21
1.0659736211
  0
LINE
  5
535
100
AcDbEntity
  8
0
100
AcDbLine
 62
7
  6
CONTINUOUS
 10
22.0776536645
 20
1.0659736211
 11
21.7265866645
 21
1.0659736211
  0
LINE
  5
536
100
AcDbEntity
  8
ASSI
100
AcDbLine
 62
7
  6
CONTINUOUS
 10
22.0776536645
 20
1.0659736211
 11
21.7265866645
 21
1.0659736211
  0
LINE
  5
537
100
AcDbEntity
  8
0
100
AcDbLine
 62
7
  6
CONTINUOUS
 10
21.0206776645
 20
1.0659736211
 11
20.6661426645
 21
1.0659736211
  0
LINE
  5
538
100
AcDbEntity
  8
ASSI
100
AcDbLine
 62
7
  6
CONTINUOUS
 10
21.0206776645
 20
1.0659736211
 11
20.6661426645
 21
1.0659736211
  0
LINE
  5
539
100
AcDbEntity
  8
0
100
AcDbLine
 62
7
  6
CONTINUOUS
 10
19.8351346645
 20
1.0659736211
 11
19.4805486645
 21
1.0659736211
  0
LINE
  5
53A
100
AcDbEntity
  8
ASSI
100
AcDbLine
 62
7
  6
CONTINUOUS
 10
19.8351346645
 20
1.0659736211
 11
19.4805486645
 21
1.0659736211
  0
LINE
  5
53B
100
AcDbEntity
  8
0
100
AcDbLine
 62
7
  6
CONTINUOUS
 10
18.8226016645
 20
1.0659736211
 11
18.4371486645
 21
1.0659736211
  0
LINE
  5
53C
100
AcDbEntity
  8
ASSI
100
AcDbLine
 62
7
  6
CONTINUOUS
 10
18.8226016645
 20
1.0659736211
 11
18.4371486645
 21
1.0659736211
  0
LINE
  5
53D
100
AcDbEntity
  8
0
100
AcDbLine
 62
7
  6
CONTINUOUS
 10
20.3216406645
 20
1.0660756211
 11
19.9668126645
 21
1.0660756211
  0
LINE
  5
53E
100
AcDbEntity
  8
ASSI
100
AcDbLine
 62
7
  6
CONTINUOUS
 10
20.3216406645
 20
1.0660756211
 11
19.9668126645
 21
1.0660756211
  0
LINE
  5
53F
100
AcDbEntity
  8
DRAFT
100
AcDbLine
 62
7
  6
CONTINUOUS
 10
15.5283146645
 20
1.2294310693
 11
15.5583146645
 21
1.2294310693
  0
LINE
  5
540
100
AcDbEntity
  8
RACCORDO
100
AcDbLine
 62
253
  6
CONTINUOUS
 10
49.1158048713
 20
1.5100303573
 11
36.1089699426
 21
1.5100303573
  0
LINE
  5
541
100
AcDbEntity
  8
ASSI
100
AcDbLine
 62
253
  6
CONTINUOUS
 10
49.1158048713
 20
1.5100303573
 11
36.1089699426
 21
1.5100303573
  0
LINE
  5
542
100
AcDbEntity
  8
RACCORDO
100
AcDbLine
 62
253
  6
CONTINUOUS
 10
50.1174079552
 20
1.5268412261
 11
49.2508686415
 21
1.5268422791
  0
LINE
  5
543
100
AcDbEntity
  8
RACCORDO
100
AcDbLine
 62
253
  6
CONTINUOUS
 10
50.1188146691
 20
1.5388963953
 11
49.2473506593
 21
1.5388965236
  0
LINE
  5
544
100
AcDbEntity
  8
RACCORDO
100
AcDbLine
 62
253
  6
CONTINUOUS
 10
49.1197408463
 20
1.5398378029
 11
36.1109377802
 21
1.5398378029
  0
LINE
  5
545
100
AcDbEntity
  8
ASSI
100
AcDbLine
 62
253
  6
CONTINUOUS
 10
49.1197408463
 20
1.5398378029
 11
36.1109377802
 21
1.5398378029
  0
LINE
  5
546
100
AcDbEntity
  8
DRAFT
100
AcDbLine
 62
7
  6
CONTINUOUS
 10
49.1283146645
 20
1.5484116211
 11
36.1152243628
 21
1.5484116211
  0
LINE
  5
547
100
AcDbEntity
  8
ASSI
100
AcDbLine
 62
7
  6
CONTINUOUS
 10
49.1283146645
 20
1.5484116211
 11
36.1152243628
 21
1.5484116211
  0
LINE
  5
548
100
AcDbEntity
  8
RACCORDO
100
AcDbLine
 62
7
  6
CONTINUOUS
 10
36.1806958187
 20
1.5484116211
 11
50.128329895
 21
1.5484116211
  0
LINE
  5
549
100
AcDbEntity
  8
DRAFT
100
AcDbLine
 62
7
  6
CONTINUOUS
 10
35.3283146645
 20
1.5984116211
 11
17.4283146645
 21
1.5984116211
  0
LINE
  5
54A
100
AcDbEntity
  8
ASSI
100
AcDbLine
 62
7
  6
CONTINUOUS
 10
35.3283146645
 20
1.5984116211
 11
17.4283146645
 21
1.5984116211
  0
LINE
  5
54B
100
AcDbEntity
  8
DRAFT
100
AcDbLine
 62
7
  6
CONTINUOUS
 10
35.3318056775
 20
1.6019026341
 11
17.4248236515
 21
1.6019026341
  0
LINE
  5
54C
100
AcDbEntity
  8
ASSI
100
AcDbLine
 62
7
  6
CONTINUOUS
 10
35.3318056775
 20
1.6019026341
 11
17.4248236515
 21
1.6019026341
  0
LINE
  5
54D
100
AcDbEntity
  8
RACCORDO
100
AcDbLine
 62
253
  6
CONTINUOUS
 10
16.582934952
 20
1.6880269256
 11
15.6387907429
 21
1.6880269256
  0
LINE
  5
54E
100
AcDbEntity
  8
RACCORDO
100
AcDbLine
 62
253
  6
CONTINUOUS
 10
35.5868430033
 20
1.7569437676
 11
36.0868239648
 21
1.7569437611
  0
LINE
  5
54F
100
AcDbEntity
  8
ASSI
100
AcDbLine
 62
253
  6
CONTINUOUS
 10
35.5868430033
 20
1.7569437676
 11
36.0868239648
 21
1.7569437611
  0
LINE
  5
550
100
AcDbEntity
  8
RACCORDO
100
AcDbLine
 62
253
  6
CONTINUOUS
 10
16.606497495
 20
0.5312667045
 11
16.6498178087
 21
0.5312468917
  0
LINE
  5
551
100
AcDbEntity
  8
ASSI
100
AcDbLine
 62
253
  6
CONTINUOUS
 10
16.606497495
 20
0.5312667045
 11
16.6498178087
 21
0.5312468917
  0
LINE
  5
552
100
AcDbEntity
  8
RACCORDO
100
AcDbLine
 62
7
  6
CONTINUOUS
 10
16.6075636863
 20
1.0312591464
 11
16.6454844824
 21
1.0312418032
  0
LINE
  5
553
100
AcDbEntity
  8
ASSI
100
AcDbLine
 62
7
  6
CONTINUOUS
 10
16.6075636863
 20
1.0312591464
 11
16.6454844824
 21
1.0312418032
  0
LWPOLYLINE
  5
554
100
AcDbEntity
  8
RACCORDO
100
AcDbPolyline
 62
7
  6
CONTINUOUS
 90
8
 70
0
 10
49.1494717166
 20
1.5483803825
 10
49.1807330726
 20
1.5481878365
 10
49.1946168176
 20
1.5480207001
 10
49.2071052222
 20
1.5478102075
 10
49.2171600529
 20
1.5475738457
 10
49.2244352323
 20
1.5473174436
 10
49.2292768378
 20
1.5470351724
 10
49.2316848697
 20
1.5467270319
  0
LWPOLYLINE
  5
555
100
AcDbEntity
  8
RACCORDO
100
AcDbPolyline
 62
253
  6
CONTINUOUS
 90
10
 70
0
 10
50.0881223426
 20
0.3879952273
 10
50.1053318324
 20
0.3869722986
 10
50.1220277355
 20
0.3842201185
 10
50.137711808
 20
0.3798208235
 10
50.151915972
 20
0.3739057192
 10
50.1642163881
 20
0.36665132
 10
50.1742460547
 20
0.3582740506
 10
50.1817056305
 20
0.349023867
 10
50.1863724218
 20
0.3391768275
 10
50.1881071016
 20
0.3290267918
  0
LINE
  5
556
100
AcDbEntity
  8
RACCORDO
100
AcDbLine
 62
7
  6
CONTINUOUS
 10
49.1283146645
 20
0.4984116211
 11
49.1931622098
 21
0.4939207613
  0
LINE
  5
557
100
AcDbEntity
  8
ASSI
100
AcDbLine
 62
7
  6
CONTINUOUS
 10
49.1283146645
 20
0.4984116211
 11
49.1931622098
 21
0.4939207613
  0
LINE
  5
558
100
AcDbEntity
  8
RACCORDO
100
AcDbLine
 62
253
  6
CONTINUOUS
 10
36.1152243628
 20
-4.4885209234
 11
36.0868239648
 21
-4.4601205254
  0
LINE
  5
559
100
AcDbEntity
  8
ASSI
100
AcDbLine
 62
253
  6
CONTINUOUS
 10
36.1152243628
 20
-4.4885209234
 11
36.0868239648
 21
-4.4601205254
  0
LINE
  5
55A
100
AcDbEntity
  8
CURVE
100
AcDbLine
 62
253
  6
CONTINUOUS
 10
31.4854574705
 20
0.1912687703
 11
31.2711718584
 21
0.4055545166
  0
LINE
  5
55B
100
AcDbEntity
  8
CURVE
100
AcDbLine
 62
253
  6
CONTINUOUS
 10
31.2711718584
 20
1.0484116211
 11
31.414028814
 21
0.8341259196
  0
LINE
  5
55C
100
AcDbEntity
  8
CURVE
100
AcDbLine
 62
253
  6
CONTINUOUS
 10
32.1283146645
 20
-0.3087312334
 11
32.164028814
 21
-0.3801598061
  0
LINE
  5
55D
100
AcDbEntity
  8
CURVE
100
AcDbLine
 62
253
  6
CONTINUOUS
 10
32.2711719776
 20
-0.2730169498
 11
32.2354578282
 21
-0.2015883714
  0
LINE
  5
55E
100
AcDbEntity
  8
SCRITTE
100
AcDbLine
 62
253
  6
CONTINUOUS
 10
33.7595646645
 20
-3.0453383789
 11
33.8033146645
 21
-3.1328383789
  0
LINE
  5
55F
100
AcDbEntity
  8
SCRITTE
100
AcDbLine
 62
253
  6
CONTINUOUS
 10
33.6283146645
 20
-3.7453383789
 11
33.6720646645
 21
-3.8765883789
  0
LINE
  5
560
100
AcDbEntity
  8
CURVE
100
AcDbLine
 62
253
  6
CONTINUOUS
 10
33.0926002766
 20
-0.4515883789
 11
32.7711715008
 21
1.0484116211
  0
LINE
  5
561
100
AcDbEntity
  8
SCRITTE
100
AcDbLine
 62
253
  6
CONTINUOUS
 10
33.6283146645
 20
-3.6140883789
 11
33.6283146645
 21
-3.7453383789
  0
LINE
  5
562
100
AcDbEntity
  8
SCRITTE
100
AcDbLine
 62
253
  6
CONTINUOUS
 10
33.7595646645
 20
-3.0015883789
 11
33.7595646645
 21
-3.0453383789
  0
LINE
  5
563
100
AcDbEntity
  8
CURVE
100
AcDbLine
 62
253
  6
CONTINUOUS
 10
34.0568858887
 20
1.0484116211
 11
33.7354578282
 21
-0.4515883789
  0
LINE
  5
564
100
AcDbEntity
  8
SCRITTE
100
AcDbLine
 62
253
  6
CONTINUOUS
 10
33.8033146645
 20
-2.8703383789
 11
33.7595646645
 21
-3.0015883789
  0
LINE
  5
565
100
AcDbEntity
  8
SCRITTE
100
AcDbLine
 62
253
  6
CONTINUOUS
 10
33.6720646645
 20
-3.4828383789
 11
33.6283146645
 21
-3.6140883789
  0
LINE
  5
566
100
AcDbEntity
  8
RACCORDO
100
AcDbLine
 62
7
  6
CONTINUOUS
 10
36.1109377802
 20
1.5398378029
 11
36.1152243628
 21
1.5484116211
  0
LINE
  5
567
100
AcDbEntity
  8
ASSI
100
AcDbLine
 62
7
  6
CONTINUOUS
 10
36.1109377802
 20
1.5398378029
 11
36.1152243628
 21
1.5484116211
  0
LINE
  5
568
100
AcDbEntity
  8
SCRITTE
100
AcDbLine
 62
253
  6
CONTINUOUS
 10
33.8908146645
 20
-2.7828383789
 11
33.8033146645
 21
-2.8703383789
  0
LINE
  5
569
100
AcDbEntity
  8
SCRITTE
100
AcDbLine
 62
253
  6
CONTINUOUS
 10
33.7595646645
 20
-3.3953383789
 11
33.6720646645
 21
-3.4828383789
  0
LINE
  5
56A
100
AcDbEntity
  8
SCRITTE
100
AcDbLine
 62
253
  6
CONTINUOUS
 10
33.9345646645
 20
-3.3078383789
 11
33.7595646645
 21
-3.3953383789
  0
LINE
  5
56B
100
AcDbEntity
  8
SCRITTE
100
AcDbLine
 62
253
  6
CONTINUOUS
 10
32.6616484429
 20
2.3914301269
 11
32.2616486336
 21
2.379212512
  0
LINE
  5
56C
100
AcDbEntity
  8
SCRITTE
100
AcDbLine
 62
253
  6
CONTINUOUS
 10
20.728314736
 20
2.3914301269
 11
20.3283146764
 21
2.379212512
  0
LINE
  5
56D
100
AcDbEntity
  8
SCRITTE
100
AcDbLine
 62
253
  6
CONTINUOUS
 10
19.9283147002
 20
2.3914301269
 11
19.5283146824
 21
2.3844486327
  0
LINE
  5
56E
100
AcDbEntity
  8
SCRITTE
100
AcDbLine
 62
253
  6
CONTINUOUS
 10
28.1949814583
 20
2.3914301269
 11
27.9949815537
 21
2.3896847534
  0
LINE
  5
56F
100
AcDbEntity
  8
SCRITTE
100
AcDbLine
 62
253
  6
CONTINUOUS
 10
22.0283146168
 20
2.379212512
 11
22.2283145214
 21
2.3809578856
  0
LINE
  5
570
100
AcDbEntity
  8
RACCORDO
100
AcDbLine
 62
253
  6
CONTINUOUS
 10
35.486846811
 20
1.8569399599
 11
16.6728331135
 21
1.8569399599
  0
LINE
  5
571
100
AcDbEntity
  8
ASSI
100
AcDbLine
 62
253
  6
CONTINUOUS
 10
35.486846811
 20
1.8569399599
 11
16.6728331135
 21
1.8569399599
  0
LINE
  5
572
100
AcDbEntity
  8
RACCORDO
100
AcDbLine
 62
253
  6
CONTINUOUS
 10
16.5880796897
 20
2.2879355427
 11
16.23869936
 21
2.2879355427
  0
LINE
  5
573
100
AcDbEntity
  8
RACCORDO
100
AcDbLine
 62
7
  6
CONTINUOUS
 10
35.486846811
 20
2.3569209214
 11
16.8197996526
 21
2.3569209214
  0
LINE
  5
574
100
AcDbEntity
  8
ASSI
100
AcDbLine
 62
7
  6
CONTINUOUS
 10
35.486846811
 20
2.3569209214
 11
16.8197996526
 21
2.3569209214
  0
LINE
  5
575
100
AcDbEntity
  8
RACCORDO
100
AcDbLine
 62
7
  6
CONTINUOUS
 10
16.1582232816
 20
2.3684116211
 11
16.6283146645
 21
2.3684116211
  0
LINE
  5
576
100
AcDbEntity
  8
SCRITTE
100
AcDbLine
 62
253
  6
CONTINUOUS
 10
21.5283146883
 20
2.379212512
 11
22.0283146168
 21
2.379212512
  0
LINE
  5
577
100
AcDbEntity
  8
SCRITTE
100
AcDbLine
 62
253
  6
CONTINUOUS
 10
22.7949813629
 20
2.379212512
 11
23.3949814106
 21
2.379212512
  0
LINE
  5
578
100
AcDbEntity
  8
SCRITTE
100
AcDbLine
 62
253
  6
CONTINUOUS
 10
28.1949814583
 20
2.379212512
 11
28.5949812676
 21
2.379212512
  0
LINE
  5
579
100
AcDbEntity
  8
SCRITTE
100
AcDbLine
 62
253
  6
CONTINUOUS
 10
32.9283140923
 20
2.3827032592
 11
32.3949814583
 21
2.3827032592
  0
LINE
  5
57A
100
AcDbEntity
  8
SCRITTE
100
AcDbLine
 62
253
  6
CONTINUOUS
 10
20.9949813868
 20
2.3827032592
 11
20.4616480018
 21
2.3827032592
  0
LINE
  5
57B
100
AcDbEntity
  8
RACCORDO
100
AcDbLine
 62
7
  6
CONTINUOUS
 10
35.3283146645
 20
2.3853213194
 11
35.515247209
 21
2.3853213194
  0
LINE
  5
57C
100
AcDbEntity
  8
ASSI
100
AcDbLine
 62
7
  6
CONTINUOUS
 10
35.3283146645
 20
2.3853213194
 11
35.515247209
 21
2.3853213194
  0
LINE
  5
57D
100
AcDbEntity
  8
SCRITTE
100
AcDbLine
 62
253
  6
CONTINUOUS
 10
29.8616477753
 20
2.3861940065
 11
29.1616477753
 21
2.3861940065
  0
LINE
  5
57E
100
AcDbEntity
  8
SCRITTE
100
AcDbLine
 62
253
  6
CONTINUOUS
 10
22.7949813629
 20
2.3861940065
 11
23.1949811722
 21
2.3861940065
  0
LINE
  5
57F
100
AcDbEntity
  8
SCRITTE
100
AcDbLine
 62
253
  6
CONTINUOUS
 10
28.5949812676
 20
2.3914301269
 11
28.1949814583
 21
2.3914301269
  0
LINE
  5
580
100
AcDbEntity
  8
SCRITTE
100
AcDbLine
 62
253
  6
CONTINUOUS
 10
23.3949814106
 20
2.3914301269
 11
22.7949813629
 21
2.3914301269
  0
LINE
  5
581
100
AcDbEntity
  8
SCRITTE
100
AcDbLine
 62
253
  6
CONTINUOUS
 10
22.0283146168
 20
2.3914301269
 11
21.5283146883
 21
2.3914301269
  0
LINE
  5
582
100
AcDbEntity
  8
DRAFT
100
AcDbLine
 62
7
  6
CONTINUOUS
 10
35.2759335102
 20
2.3984116211
 11
27.8806958187
 21
2.3984116211
  0
LINE
  5
583
100
AcDbEntity
  8
RACCORDO
100
AcDbLine
 62
7
  6
CONTINUOUS
 10
16.1279491607
 20
2.3984116211
 11
24.5283146645
 21
2.3984116211
  0
LINE
  5
584
100
AcDbEntity
  8
DRAFT
100
AcDbLine
 62
7
  6
CONTINUOUS
 10
24.5283146645
 20
2.3984116211
 11
27.7283146645
 21
2.3984116211
  0
LINE
  5
585
100
AcDbEntity
  8
RACCORDO
100
AcDbLine
 62
7
  6
CONTINUOUS
 10
35.5810613225
 20
2.4507927753
 11
35.3283146645
 21
2.4507927753
  0
LINE
  5
586
100
AcDbEntity
  8
RACCORDO
100
AcDbLine
 62
7
  6
CONTINUOUS
 10
35.0643427865
 20
2.398097985
 11
27.7283146645
 21
2.3984116211
  0
LINE
  5
587
100
AcDbEntity
  8
ASSI
100
AcDbLine
 62
7
  6
CONTINUOUS
 10
35.0643427865
 20
2.398097985
 11
16.7783089529
 21
2.3984116211
  0
LINE
  5
588
100
AcDbEntity
  8
SCRITTE
100
AcDbLine
 62
253
  6
CONTINUOUS
 10
22.2283145214
 20
2.3896847534
 11
22.0283146168
 21
2.3914301269
  0
LINE
  5
589
100
AcDbEntity
  8
SCRITTE
100
AcDbLine
 62
253
  6
CONTINUOUS
 10
27.9949815537
 20
2.3809578856
 11
28.1949814583
 21
2.379212512
  0
LINE
  5
58A
100
AcDbEntity
  8
RACCORDO
100
AcDbLine
 62
7
  6
CONTINUOUS
 10
35.15038243
 20
2.3974916583
 11
35.0643427865
 21
2.398097985
  0
LINE
  5
58B
100
AcDbEntity
  8
ASSI
100
AcDbLine
 62
7
  6
CONTINUOUS
 10
35.15038243
 20
2.3974916583
 11
35.0643427865
 21
2.398097985
  0
LINE
  5
58C
100
AcDbEntity
  8
SCRITTE
100
AcDbLine
 62
253
  6
CONTINUOUS
 10
19.5283146824
 20
2.3844486327
 11
19.1283146645
 21
2.3914301269
  0
LINE
  5
58D
100
AcDbEntity
  8
SCRITTE
100
AcDbLine
 62
253
  6
CONTINUOUS
 10
26.4949812676
 20
2.379212512
 11
25.7949812676
 21
2.3914301269
  0
LINE
  5
58E
100
AcDbEntity
  8
SCRITTE
100
AcDbLine
 62
253
  6
CONTINUOUS
 10
31.8616474892
 20
2.379212512
 11
31.1616474892
 21
2.3914301269
  0
LINE
  5
58F
100
AcDbEntity
  8
SCRITTE
100
AcDbLine
 62
253
  6
CONTINUOUS
 10
21.1283147122
 20
2.379212512
 11
20.728314736
 21
2.3914301269
  0
LINE
  5
590
100
AcDbEntity
  8
SCRITTE
100
AcDbLine
 62
253
  6
CONTINUOUS
 10
33.0616482521
 20
2.379212512
 11
32.6616484429
 21
2.3914301269
  0
LWPOLYLINE
  5
591
100
AcDbEntity
  8
RACCORDO
100
AcDbPolyline
 62
7
  6
CONTINUOUS
 90
5
 70
0
 10
35.2210407264
 20
2.3960217398
 10
35.2151735959
 20
2.3963491627
 10
35.2052410828
 20
2.3966590882
 10
35.1912431871
 20
2.3969515161
 10
35.15038243
 20
2.3974916583
  0
LWPOLYLINE
  5
592
100
AcDbEntity
  8
ASSI
100
AcDbPolyline
 62
7
  6
CONTINUOUS
 90
5
 70
0
 10
35.2210407264
 20
2.3960217398
 10
35.2151735959
 20
2.3963491627
 10
35.2052410828
 20
2.3966590882
 10
35.1912431871
 20
2.3969515161
 10
35.15038243
 20
2.3974916583
  0
LWPOLYLINE
  5
593
100
AcDbEntity
  8
RACCORDO
100
AcDbPolyline
 62
7
  6
CONTINUOUS
 90
16
 70
0
 10
35.515247209
 20
2.3853213194
 10
35.5790674967
 20
2.3817388818
 10
35.6408704839
 20
2.3719504684
 10
35.7006561708
 20
2.3559560794
 10
35.7590307391
 20
2.3334467452
 10
35.8153880071
 20
2.3047314354
 10
35.8679094287
 20
2.2707370579
 10
35.9164698955
 20
2.2312915097
 10
35.9611945161
 20
2.1865668938
 10
36.0006400704
 20
2.1380064279
 10
36.0346344556
 20
2.0854850015
 10
36.0633497746
 20
2.0291277251
 10
36.0858591159
 20
1.9707531484
 10
36.1018535092
 20
1.9109674545
 10
36.1116419248
 20
1.8491644602
 10
36.1152243628
 20
1.7853441656
  0
LWPOLYLINE
  5
594
100
AcDbEntity
  8
ASSI
100
AcDbPolyline
 62
7
  6
CONTINUOUS
 90
16
 70
0
 10
35.515247209
 20
2.3853213194
 10
35.5790674967
 20
2.3817388818
 10
35.6408704839
 20
2.3719504684
 10
35.7006561708
 20
2.3559560794
 10
35.7590307391
 20
2.3334467452
 10
35.8153880071
 20
2.3047314354
 10
35.8679094287
 20
2.2707370579
 10
35.9164698955
 20
2.2312915097
 10
35.9611945161
 20
2.1865668938
 10
36.0006400704
 20
2.1380064279
 10
36.0346344556
 20
2.0854850015
 10
36.0633497746
 20
2.0291277251
 10
36.0858591159
 20
1.9707531484
 10
36.1018535092
 20
1.9109674545
 10
36.1116419248
 20
1.8491644602
 10
36.1152243628
 20
1.7853441656
  0
LINE
  5
595
100
AcDbEntity
  8
RACCORDO
100
AcDbLine
 62
7
  6
CONTINUOUS
 10
35.3283146645
 20
2.3853213194
 11
35.2210407264
 21
2.3960217398
  0
LINE
  5
596
100
AcDbEntity
  8
ASSI
100
AcDbLine
 62
7
  6
CONTINUOUS
 10
35.3283146645
 20
2.3853213194
 11
35.2210407264
 21
2.3960217398
  0
LINE
  5
597
100
AcDbEntity
  8
RACCORDO
100
AcDbLine
 62
7
  6
CONTINUOUS
 10
36.1152243628
 20
-4.2515883789
 11
36.1109377802
 21
-4.2430145607
  0
LINE
  5
598
100
AcDbEntity
  8
ASSI
100
AcDbLine
 62
7
  6
CONTINUOUS
 10
36.1152243628
 20
-4.2515883789
 11
36.1109377802
 21
-4.2430145607
  0
LINE
  5
599
100
AcDbEntity
  8
CURVE
100
AcDbLine
 62
253
  6
CONTINUOUS
 10
33.7354578282
 20
-0.4515883789
 11
33.4140290524
 21
0.6198402181
  0
LWPOLYLINE
  5
59A
100
AcDbEntity
  8
RACCORDO
100
AcDbPolyline
 62
253
  6
CONTINUOUS
 90
19
 70
0
 10
35.5868430033
 20
1.7569437676
 10
35.5864591773
 20
1.7656793778
 10
35.5853391147
 20
1.7742481263
 10
35.5834828153
 20
1.782650013
 10
35.5808660778
 20
1.7909549508
 10
35.5775131036
 20
1.7990930268
 10
35.573496497
 20
1.8068545023
 10
35.5687978481
 20
1.8142251265
 10
35.5634355668
 20
1.8212191502
 10
35.5575374866
 20
1.8276695874
 10
35.5510927888
 20
1.8335598555
 10
35.5441122923
 20
1.8389065371
 10
35.5367562871
 20
1.8435923935
 10
35.5290118457
 20
1.8476026329
 10
35.5208918957
 20
1.850952047
 10
35.5125955099
 20
1.8535677731
 10
35.504189046
 20
1.8554255235
 10
35.4956061464
 20
1.8565495857
 10
35.486846811
 20
1.8569399599
  0
LWPOLYLINE
  5
59B
100
AcDbEntity
  8
ASSI
100
AcDbPolyline
 62
253
  6
CONTINUOUS
 90
19
 70
0
 10
35.5868430033
 20
1.7569437676
 10
35.5864591773
 20
1.7656793778
 10
35.5853391147
 20
1.7742481263
 10
35.5834828153
 20
1.782650013
 10
35.5808660778
 20
1.7909549508
 10
35.5775131036
 20
1.7990930268
 10
35.573496497
 20
1.8068545023
 10
35.5687978481
 20
1.8142251265
 10
35.5634355668
 20
1.8212191502
 10
35.5575374866
 20
1.8276695874
 10
35.5510927888
 20
1.8335598555
 10
35.5441122923
 20
1.8389065371
 10
35.5367562871
 20
1.8435923935
 10
35.5290118457
 20
1.8476026329
 10
35.5208918957
 20
1.850952047
 10
35.5125955099
 20
1.8535677731
 10
35.504189046
 20
1.8554255235
 10
35.4956061464
 20
1.8565495857
 10
35.486846811
 20
1.8569399599
  0
LINE
  5
59C
100
AcDbEntity
  8
RACCORDO
100
AcDbLine
 62
7
  6
CONTINUOUS
 10
36.1076596287
 20
-4.1713356729
 11
36.1089699426
 21
-4.2132071151
  0
LINE
  5
59D
100
AcDbEntity
  8
ASSI
100
AcDbLine
 62
7
  6
CONTINUOUS
 10
36.1076596287
 20
-4.1713356729
 11
36.1089699426
 21
-4.2132071151
  0
LWPOLYLINE
  5
59E
100
AcDbEntity
  8
RACCORDO
100
AcDbPolyline
 62
7
  6
CONTINUOUS
 90
3
 70
0
 10
36.1038865284
 20
-4.0000333618
 10
36.1051198662
 20
-4.0648629292
 10
36.1076596287
 20
-4.1713356729
  0
LWPOLYLINE
  5
59F
100
AcDbEntity
  8
ASSI
100
AcDbPolyline
 62
7
  6
CONTINUOUS
 90
3
 70
0
 10
36.1038865284
 20
-4.0000333618
 10
36.1051198662
 20
-4.0648629292
 10
36.1076596287
 20
-4.1713356729
  0
LINE
  5
5A0
100
AcDbEntity
  8
DRAFT
100
AcDbLine
 62
7
  6
CONTINUOUS
 10
35.2759335102
 20
2.3984116211
 11
35.2759335102
 21
2.3905462639
  0
LINE
  5
5A1
100
AcDbEntity
  8
DRAFT
100
AcDbLine
 62
7
  6
CONTINUOUS
 10
35.2759335102
 20
-5.0937230217
 11
35.2759335102
 21
-5.1015883789
  0
LINE
  5
5A2
100
AcDbEntity
  8
DRAFT
100
AcDbLine
 62
7
  6
CONTINUOUS
 10
35.3283146645
 20
2.4507927753
 11
35.3283146645
 21
2.3853213194
  0
LINE
  5
5A3
100
AcDbEntity
  8
DRAFT
100
AcDbLine
 62
7
  6
CONTINUOUS
 10
35.3283146645
 20
-5.0884980772
 11
35.3283146645
 21
-5.1539695331
  0
LINE
  5
5A4
100
AcDbEntity
  8
DRAFT
100
AcDbLine
 62
7
  6
CONTINUOUS
 10
35.3283146645
 20
-4.3015883789
 11
35.3283146645
 21
1.5984116211
  0
LINE
  5
5A5
100
AcDbEntity
  8
ASSI
100
AcDbLine
 62
7
  6
CONTINUOUS
 10
35.3283146645
 20
-4.3015883789
 11
35.3283146645
 21
1.5984116211
  0
LINE
  5
5A6
100
AcDbEntity
  8
DRAFT
100
AcDbLine
 62
7
  6
CONTINUOUS
 10
35.3318056775
 20
-4.3050793919
 11
35.3318056775
 21
1.6019026341
  0
LINE
  5
5A7
100
AcDbEntity
  8
ASSI
100
AcDbLine
 62
7
  6
CONTINUOUS
 10
35.3318056775
 20
-4.3050793919
 11
35.3318056775
 21
1.6019026341
  0
LINE
  5
5A8
100
AcDbEntity
  8
RACCORDO
100
AcDbLine
 62
253
  6
CONTINUOUS
 10
35.486846811
 20
-4.5601167177
 11
35.4868468045
 21
-5.0600976792
  0
LINE
  5
5A9
100
AcDbEntity
  8
ASSI
100
AcDbLine
 62
253
  6
CONTINUOUS
 10
35.486846811
 20
-4.5601167177
 11
35.4868468045
 21
-5.0600976792
  0
LINE
  5
5AA
100
AcDbEntity
  8
RACCORDO
100
AcDbLine
 62
253
  6
CONTINUOUS
 10
35.486846811
 20
1.8569399599
 11
35.486846811
 21
2.3569209214
  0
LINE
  5
5AB
100
AcDbEntity
  8
ASSI
100
AcDbLine
 62
253
  6
CONTINUOUS
 10
35.486846811
 20
1.8569399599
 11
35.486846811
 21
2.3569209214
  0
LINE
  5
5AC
100
AcDbEntity
  8
RACCORDO
100
AcDbLine
 62
253
  6
CONTINUOUS
 10
35.5868430033
 20
-4.4601205254
 11
35.5868430033
 21
1.7569437676
  0
LINE
  5
5AD
100
AcDbEntity
  8
ASSI
100
AcDbLine
 62
253
  6
CONTINUOUS
 10
35.5868430033
 20
-4.4601205254
 11
35.5868430033
 21
1.7569437676
  0
LWPOLYLINE
  5
5AE
100
AcDbEntity
  8
RACCORDO
100
AcDbPolyline
 62
7
  6
CONTINUOUS
 90
5
 70
0
 10
36.1089699426
 20
1.5100303573
 10
36.1076596286
 20
1.4681589133
 10
36.1063762698
 20
1.41871085
 10
36.1051198662
 20
1.3616861675
 10
36.1026801456
 20
1.2244504131
  0
LWPOLYLINE
  5
5AF
100
AcDbEntity
  8
ASSI
100
AcDbPolyline
 62
7
  6
CONTINUOUS
 90
5
 70
0
 10
36.1089699426
 20
1.5100303573
 10
36.1076596286
 20
1.4681589133
 10
36.1063762698
 20
1.41871085
 10
36.1051198662
 20
1.3616861675
 10
36.1026801456
 20
1.2244504131
  0
LWPOLYLINE
  5
5B0
100
AcDbEntity
  8
RACCORDO
100
AcDbPolyline
 62
7
  6
CONTINUOUS
 90
10
 70
0
 10
36.1089699426
 20
1.5100303573
 10
36.1091852385
 20
1.5158766284
 10
36.109401478
 20
1.5210909126
 10
36.109618661
 20
1.52567321
 10
36.109836928
 20
1.5296256488
 10
36.1100561385
 20
1.5329461008
 10
36.1102758712
 20
1.5356281807
 10
36.1104959854
 20
1.5376697601
 10
36.1107166217
 20
1.5390729675
 10
36.1109377802
 20
1.5398378029
  0
LWPOLYLINE
  5
5B1
100
AcDbEntity
  8
ASSI
100
AcDbPolyline
 62
7
  6
CONTINUOUS
 90
10
 70
0
 10
36.1089699426
 20
1.5100303573
 10
36.1091852385
 20
1.5158766284
 10
36.109401478
 20
1.5210909126
 10
36.109618661
 20
1.52567321
 10
36.109836928
 20
1.5296256488
 10
36.1100561385
 20
1.5329461008
 10
36.1102758712
 20
1.5356281807
 10
36.1104959854
 20
1.5376697601
 10
36.1107166217
 20
1.5390729675
 10
36.1109377802
 20
1.5398378029
  0
LINE
  5
5B2
100
AcDbEntity
  8
SCRITTE
100
AcDbLine
 62
253
  6
CONTINUOUS
 10
34.4158146645
 20
-3.9203383789
 11
34.5033146645
 21
-3.8328383789
  0
LINE
  5
5B3
100
AcDbEntity
  8
SCRITTE
100
AcDbLine
 62
253
  6
CONTINUOUS
 10
34.2845646645
 20
-4.0078383789
 11
34.4158146645
 21
-3.9203383789
  0
LWPOLYLINE
  5
5B4
100
AcDbEntity
  8
RACCORDO
100
AcDbPolyline
 62
7
  6
CONTINUOUS
 90
6
 70
0
 10
15.6016126315
 20
1.038312437
 10
15.5836427428
 20
1.0355660112
 10
15.5663355786
 20
1.0312064524
 10
15.5496911391
 20
1.025334581
 10
15.5337094241
 20
1.018060028
 10
15.5183904337
 20
1.0094992975
  0
LWPOLYLINE
  5
5B5
100
AcDbEntity
  8
ASSI
100
AcDbPolyline
 62
7
  6
CONTINUOUS
 90
6
 70
0
 10
15.6016126315
 20
1.038312437
 10
15.5836427428
 20
1.0355660112
 10
15.5663355786
 20
1.0312064524
 10
15.5496911391
 20
1.025334581
 10
15.5337094241
 20
1.018060028
 10
15.5183904337
 20
1.0094992975
  0
LWPOLYLINE
  5
5B6
100
AcDbEntity
  8
RACCORDO
100
AcDbPolyline
 62
253
  6
CONTINUOUS
 90
10
 70
0
 10
16.8197996526
 20
2.3569209214
 10
16.7937520317
 20
2.3546399433
 10
16.7684965171
 20
2.3478704999
 10
16.7448004488
 20
2.3368185972
 10
16.7233836396
 20
2.3218202879
 10
16.704896696
 20
2.3033315608
 10
16.6899011763
 20
2.2819145581
 10
16.6788523208
 20
2.2582202501
 10
16.6720853368
 20
2.2329685537
 10
16.6698053641
 20
2.206926633
  0
LWPOLYLINE
  5
5B7
100
AcDbEntity
  8
ASSI
100
AcDbPolyline
 62
253
  6
CONTINUOUS
 90
10
 70
0
 10
16.8197996526
 20
2.3569209214
 10
16.7937520317
 20
2.3546399433
 10
16.7684965171
 20
2.3478704999
 10
16.7448004488
 20
2.3368185972
 10
16.7233836396
 20
2.3218202879
 10
16.704896696
 20
2.3033315608
 10
16.6899011763
 20
2.2819145581
 10
16.6788523208
 20
2.2582202501
 10
16.6720853368
 20
2.2329685537
 10
16.6698053641
 20
2.206926633
  0
LWPOLYLINE
  5
5B8
100
AcDbEntity
  8
RACCORDO
100
AcDbPolyline
 62
7
  6
CONTINUOUS
 90
6
 70
0
 10
50.1282689684
 20
1.5484116211
 10
50.1456434091
 20
1.5468952794
 10
50.1624880128
 20
1.5423828925
 10
50.1782907233
 20
1.5350127479
 10
50.1925715934
 20
1.5250098203
 10
50.1989885906
 20
1.5191285856
  0
LINE
  5
5B9
100
AcDbEntity
  8
RACCORDO
100
AcDbLine
 62
7
  6
CONTINUOUS
 10
49.1931622098
 20
0.4939207613
 11
49.2453825079
 21
0.4837792821
  0
LINE
  5
5BA
100
AcDbEntity
  8
ASSI
100
AcDbLine
 62
7
  6
CONTINUOUS
 10
49.1931622098
 20
0.4939207613
 11
49.2453825079
 21
0.4837792821
  0
LWPOLYLINE
  5
5BB
100
AcDbEntity
  8
RACCORDO
100
AcDbPolyline
 62
7
  6
CONTINUOUS
 90
10
 70
0
 10
36.1109377802
 20
-4.2430145607
 10
36.1107166217
 20
-4.2422497253
 10
36.1104959854
 20
-4.2408465179
 10
36.1102758712
 20
-4.2388049385
 10
36.1100561385
 20
-4.2361228586
 10
36.109836928
 20
-4.2328024066
 10
36.109618661
 20
-4.2288499678
 10
36.109401478
 20
-4.2242676704
 10
36.1091852385
 20
-4.2190533862
 10
36.1089699426
 20
-4.2132071151
  0
LWPOLYLINE
  5
5BC
100
AcDbEntity
  8
ASSI
100
AcDbPolyline
 62
7
  6
CONTINUOUS
 90
10
 70
0
 10
36.1109377802
 20
-4.2430145607
 10
36.1107166217
 20
-4.2422497253
 10
36.1104959854
 20
-4.2408465179
 10
36.1102758712
 20
-4.2388049385
 10
36.1100561385
 20
-4.2361228586
 10
36.109836928
 20
-4.2328024066
 10
36.109618661
 20
-4.2288499678
 10
36.109401478
 20
-4.2242676704
 10
36.1091852385
 20
-4.2190533862
 10
36.1089699426
 20
-4.2132071151
  0
LWPOLYLINE
  5
5BD
100
AcDbEntity
  8
RACCORDO
100
AcDbPolyline
 62
7
  6
CONTINUOUS
 90
16
 70
0
 10
36.1806958187
 20
1.8511582791
 10
36.1771112319
 20
1.9149832135
 10
36.167327036
 20
1.9767800965
 10
36.1513432312
 20
2.0365489279
 10
36.1288508967
 20
2.0948927161
 10
36.1001589531
 20
2.1512084527
 10
36.0661941629
 20
2.2036871134
 10
36.0267868367
 20
2.2522042877
 10
35.9821066638
 20
2.296884386
 10
35.9335894742
 20
2.3362916154
 10
35.8811108897
 20
2.3702562814
 10
35.8247952884
 20
2.3989480784
 10
35.7664516346
 20
2.4214402972
 10
35.7066829164
 20
2.4374240348
 10
35.6448861457
 20
2.4472081942
 10
35.5810613225
 20
2.4507927753
  0
LWPOLYLINE
  5
5BE
100
AcDbEntity
  8
RACCORDO
100
AcDbPolyline
 62
253
  6
CONTINUOUS
 90
19
 70
0
 10
36.0868239648
 20
1.7569437676
 10
36.0845377476
 20
1.8092333566
 10
36.0777031139
 20
1.8611249563
 10
36.0663720805
 20
1.9122236828
 10
36.0506308859
 20
1.9621406815
 10
36.0305993195
 20
2.010496099
 10
36.006429804
 20
2.0569219719
 10
35.9783062671
 20
2.1010649991
 10
35.9464427222
 20
2.1425892644
 10
35.9110816119
 20
2.1811787965
 10
35.8724919684
 20
2.2165399619
 10
35.8309674897
 20
2.2484036079
 10
35.7868242997
 20
2.2765271705
 10
35.7403983983
 20
2.3006966208
 10
35.6920430337
 20
2.3207280934
 10
35.6421261399
 20
2.3364691945
 10
35.5910275587
 20
2.3478001487
 10
35.5391361555
 20
2.354634726
 10
35.486846811
 20
2.3569209214
  0
LWPOLYLINE
  5
5BF
100
AcDbEntity
  8
ASSI
100
AcDbPolyline
 62
253
  6
CONTINUOUS
 90
19
 70
0
 10
36.0868239648
 20
1.7569437676
 10
36.0845377476
 20
1.8092333566
 10
36.0777031139
 20
1.8611249563
 10
36.0663720805
 20
1.9122236828
 10
36.0506308859
 20
1.9621406815
 10
36.0305993195
 20
2.010496099
 10
36.006429804
 20
2.0569219719
 10
35.9783062671
 20
2.1010649991
 10
35.9464427222
 20
2.1425892644
 10
35.9110816119
 20
2.1811787965
 10
35.8724919684
 20
2.2165399619
 10
35.8309674897
 20
2.2484036079
 10
35.7868242997
 20
2.2765271705
 10
35.7403983983
 20
2.3006966208
 10
35.6920430337
 20
2.3207280934
 10
35.6421261399
 20
2.3364691945
 10
35.5910275587
 20
2.3478001487
 10
35.5391361555
 20
2.354634726
 10
35.486846811
 20
2.3569209214
  0
LINE
  5
5C0
100
AcDbEntity
  8
RACCORDO
100
AcDbLine
 62
7
  6
CONTINUOUS
 10
36.1003841445
 20
-3.7620946168
 11
36.1038865284
 21
-4.0000333618
  0
LINE
  5
5C1
100
AcDbEntity
  8
ASSI
100
AcDbLine
 62
7
  6
CONTINUOUS
 10
36.1003841445
 20
-3.7620946168
 11
36.1038865284
 21
-4.0000333618
  0
LINE
  5
5C2
100
AcDbEntity
  8
RACCORDO
100
AcDbLine
 62
7
  6
CONTINUOUS
 10
36.0954210859
 20
-3.2365530247
 11
36.1003841445
 21
-3.7620946168
  0
LINE
  5
5C3
100
AcDbEntity
  8
ASSI
100
AcDbLine
 62
7
  6
CONTINUOUS
 10
36.0954210859
 20
-3.2365530247
 11
36.1003841445
 21
-3.7620946168
  0
LINE
  5
5C4
100
AcDbEntity
  8
RACCORDO
100
AcDbLine
 62
7
  6
CONTINUOUS
 10
36.0954210859
 20
-3.2365530247
 11
36.0936391008
 21
-2.8265835988
  0
LINE
  5
5C5
100
AcDbEntity
  8
ASSI
100
AcDbLine
 62
7
  6
CONTINUOUS
 10
36.0954210859
 20
-3.2365530247
 11
36.0936391008
 21
-2.8265835988
  0
LINE
  5
5C6
100
AcDbEntity
  8
RACCORDO
100
AcDbLine
 62
7
  6
CONTINUOUS
 10
36.0868239648
 20
-4.4601205254
 11
36.0868239648
 21
1.7569437676
  0
LINE
  5
5C7
100
AcDbEntity
  8
ASSI
100
AcDbLine
 62
7
  6
CONTINUOUS
 10
36.0868239648
 20
-4.4601205254
 11
36.0868239648
 21
1.7569437676
  0
LINE
  5
5C8
100
AcDbEntity
  8
RACCORDO
100
AcDbLine
 62
7
  6
CONTINUOUS
 10
36.1152243628
 20
1.7853441656
 11
36.1152243628
 21
1.5484116211
  0
LINE
  5
5C9
100
AcDbEntity
  8
ASSI
100
AcDbLine
 62
7
  6
CONTINUOUS
 10
36.1152243628
 20
1.7853441656
 11
36.1152243628
 21
1.5484116211
  0
LINE
  5
5CA
100
AcDbEntity
  8
RACCORDO
100
AcDbLine
 62
7
  6
CONTINUOUS
 10
36.1152243628
 20
-4.2515883789
 11
36.1152243628
 21
-4.4885209234
  0
LINE
  5
5CB
100
AcDbEntity
  8
ASSI
100
AcDbLine
 62
7
  6
CONTINUOUS
 10
36.1152243628
 20
-4.2515883789
 11
36.1152243628
 21
-4.4885209234
  0
LINE
  5
5CC
100
AcDbEntity
  8
RACCORDO
100
AcDbLine
 62
7
  6
CONTINUOUS
 10
36.1806958187
 20
-4.5543350369
 11
36.1806958187
 21
-4.2515883789
  0
LINE
  5
5CD
100
AcDbEntity
  8
RACCORDO
100
AcDbLine
 62
7
  6
CONTINUOUS
 10
36.1806958187
 20
1.5484116211
 11
36.1806958187
 21
1.8511582791
  0
LINE
  5
5CE
100
AcDbEntity
  8
RACCORDO
100
AcDbLine
 62
7
  6
CONTINUOUS
 10
36.0936391008
 20
-2.8265835988
 11
36.0934343298
 21
-0.0279086971
  0
LINE
  5
5CF
100
AcDbEntity
  8
ASSI
100
AcDbLine
 62
7
  6
CONTINUOUS
 10
36.0936391008
 20
-2.8265835988
 11
36.0934343298
 21
-0.0279086971
  0
LINE
  5
5D0
100
AcDbEntity
  8
RACCORDO
100
AcDbLine
 62
7
  6
CONTINUOUS
 10
36.0934343298
 20
-0.0279086971
 11
36.0946425652
 21
0.4072503942
  0
LINE
  5
5D1
100
AcDbEntity
  8
ASSI
100
AcDbLine
 62
7
  6
CONTINUOUS
 10
36.0934343298
 20
-0.0279086971
 11
36.0946425652
 21
0.4072503942
  0
LINE
  5
5D2
100
AcDbEntity
  8
RACCORDO
100
AcDbLine
 62
7
  6
CONTINUOUS
 10
36.0982525126
 20
0.8665922447
 11
36.0946425652
 21
0.4072503942
  0
LINE
  5
5D3
100
AcDbEntity
  8
ASSI
100
AcDbLine
 62
7
  6
CONTINUOUS
 10
36.0982525126
 20
0.8665922447
 11
36.0946425652
 21
0.4072503942
  0
LINE
  5
5D4
100
AcDbEntity
  8
RACCORDO
100
AcDbLine
 62
7
  6
CONTINUOUS
 10
36.1026801456
 20
1.2244504131
 11
36.0982525126
 21
0.8665922447
  0
LINE
  5
5D5
100
AcDbEntity
  8
ASSI
100
AcDbLine
 62
7
  6
CONTINUOUS
 10
36.1026801456
 20
1.2244504131
 11
36.0982525126
 21
0.8665922447
  0
LWPOLYLINE
  5
5D6
100
AcDbEntity
  8
RACCORDO
100
AcDbPolyline
 62
7
  6
CONTINUOUS
 90
16
 70
0
 10
36.1152243628
 20
-4.4885209234
 10
36.1116419251
 20
-4.5523412111
 10
36.1018535118
 20
-4.6141441984
 10
36.0858591227
 20
-4.6739298852
 10
36.0633497886
 20
-4.7323044536
 10
36.0346344788
 20
-4.7886617215
 10
36.0006401013
 20
-4.8411831431
 10
35.961194553
 20
-4.8897436099
 10
35.9164699371
 20
-4.9344682305
 10
35.8679094713
 20
-4.9739137848
 10
35.8153880449
 20
-5.00790817
 10
35.7590307685
 20
-5.036623489
 10
35.7006561918
 20
-5.0591328303
 10
35.6408704979
 20
-5.0751272236
 10
35.5790675036
 20
-5.0849156392
 10
35.515247209
 20
-5.0884980772
  0
LWPOLYLINE
  5
5D7
100
AcDbEntity
  8
ASSI
100
AcDbPolyline
 62
7
  6
CONTINUOUS
 90
16
 70
0
 10
36.1152243628
 20
-4.4885209234
 10
36.1116419251
 20
-4.5523412111
 10
36.1018535118
 20
-4.6141441984
 10
36.0858591227
 20
-4.6739298852
 10
36.0633497886
 20
-4.7323044536
 10
36.0346344788
 20
-4.7886617215
 10
36.0006401013
 20
-4.8411831431
 10
35.961194553
 20
-4.8897436099
 10
35.9164699371
 20
-4.9344682305
 10
35.8679094713
 20
-4.9739137848
 10
35.8153880449
 20
-5.00790817
 10
35.7590307685
 20
-5.036623489
 10
35.7006561918
 20
-5.0591328303
 10
35.6408704979
 20
-5.0751272236
 10
35.5790675036
 20
-5.0849156392
 10
35.515247209
 20
-5.0884980772
  0
LWPOLYLINE
  5
5D8
100
AcDbEntity
  8
RACCORDO
100
AcDbPolyline
 62
253
  6
CONTINUOUS
 90
22
 70
0
 10
50.0977725563
 20
0.2107105006
 10
50.1039982793
 20
0.2139415058
 10
50.1101818368
 20
0.2174163043
 10
50.1163034756
 20
0.2211348962
 10
50.1223403773
 20
0.2250956684
 10
50.1282728811
 20
0.2293002341
 10
50.1340837496
 20
0.2337534326
 10
50.1397487481
 20
0.2384583462
 10
50.1452419513
 20
0.2434118927
 10
50.1505407271
 20
0.2486096653
 10
50.1556155644
 20
0.2540538529
 10
50.1604389651
 20
0.2597422667
 10
50.1649876924
 20
0.2656639335
 10
50.1692275167
 20
0.2718201756
 10
50.1731277491
 20
0.2782096707
 10
50.1766640796
 20
0.2848174796
 10
50.1797943452
 20
0.2916387532
 10
50.1824857727
 20
0.2986783407
 10
50.1847129731
 20
0.3059358493
 10
50.1864288845
 20
0.3134111482
 10
50.1875770824
 20
0.3211043684
 10
50.1881067877
 20
0.3290155098
  0
LINE
  5
5D9
100
AcDbEntity
  8
RACCORDO
100
AcDbLine
 62
253
  6
CONTINUOUS
 10
49.9881375495
 20
0.1558929643
 11
50.0977725563
 21
0.2107105006
  0
LINE
  5
5DA
100
AcDbEntity
  8
RACCORDO
100
AcDbLine
 62
253
  6
CONTINUOUS
 10
50.0977725563
 20
-2.9138872297
 11
49.9881375495
 21
-2.8590697221
  0
LINE
  5
5DB
100
AcDbEntity
  8
RACCORDO
100
AcDbLine
 62
7
  6
CONTINUOUS
 10
49.2473506593
 20
1.5388965236
 11
49.2316848697
 21
1.5467270319
  0
LINE
  5
5DC
100
AcDbEntity
  8
RACCORDO
100
AcDbLine
 62
7
  6
CONTINUOUS
 10
49.1283146645
 20
-4.2515883789
 11
49.1197408463
 21
-4.2430145607
  0
LINE
  5
5DD
100
AcDbEntity
  8
ASSI
100
AcDbLine
 62
7
  6
CONTINUOUS
 10
49.1283146645
 20
-4.2515883789
 11
49.1197408463
 21
-4.2430145607
  0
LINE
  5
5DE
100
AcDbEntity
  8
ASSI
100
AcDbLine
 62
7
  6
CONTINUOUS
 10
41.4283146645
 20
-1.8515883789
 11
41.4283146645
 21
-0.8515883789
  0
LINE
  5
5DF
100
AcDbEntity
  8
ASSI
100
AcDbLine
 62
7
  6
CONTINUOUS
 10
42.4866151889
 20
-1.8515883789
 11
42.4866151889
 21
-0.8515883789
  0
LINE
  5
5E0
100
AcDbEntity
  8
RACCORDO
100
AcDbLine
 62
7
  6
CONTINUOUS
 10
49.1283146645
 20
1.5484116211
 11
49.1197408463
 21
1.5398378029
  0
LINE
  5
5E1
100
AcDbEntity
  8
ASSI
100
AcDbLine
 62
7
  6
CONTINUOUS
 10
49.1283146645
 20
1.5484116211
 11
49.1197408463
 21
1.5398378029
  0
LINE
  5
5E2
100
AcDbEntity
  8
RACCORDO
100
AcDbLine
 62
253
  6
CONTINUOUS
 10
50.128329895
 20
1.5484116211
 11
50.1188146691
 21
1.5388963953
  0
LINE
  5
5E3
100
AcDbEntity
  8
RACCORDO
100
AcDbLine
 62
253
  6
CONTINUOUS
 10
50.2282842012
 20
1.4483963883
 11
50.218799567
 21
1.4389117541
  0
LINE
  5
5E4
100
AcDbEntity
  8
RACCORDO
100
AcDbLine
 62
7
  6
CONTINUOUS
 10
49.2473506593
 20
-4.2420732814
 11
49.2316848697
 21
-4.2499037897
  0
LINE
  5
5E5
100
AcDbEntity
  8
RACCORDO
100
AcDbLine
 62
253
  6
CONTINUOUS
 10
50.1188146691
 20
-4.2420731531
 11
50.128329895
 21
-4.2515883789
  0
LINE
  5
5E6
100
AcDbEntity
  8
RACCORDO
100
AcDbLine
 62
253
  6
CONTINUOUS
 10
50.218799567
 20
-4.1420885119
 11
50.2282842012
 21
-4.1515731461
  0
LWPOLYLINE
  5
5E7
100
AcDbEntity
  8
RACCORDO
100
AcDbPolyline
 62
7
  6
CONTINUOUS
 90
13
 70
0
 10
49.1283146645
 20
0.4984116211
 10
49.1271063147
 20
0.4971042549
 10
49.1259032406
 20
0.4932403709
 10
49.1247054421
 20
0.4868199689
 10
49.123511354
 20
0.4778270155
 10
49.1223225415
 20
0.4662775442
 10
49.1211437003
 20
0.4522196557
 10
49.1199747798
 20
0.4356427082
 10
49.1188158307
 20
0.4165573435
 10
49.1176717004
 20
0.3950435879
 10
49.116542472
 20
0.3710918545
 10
49.1154280625
 20
0.3447117301
 10
49.1132575738
 20
0.2849833473
  0
LWPOLYLINE
  5
5E8
100
AcDbEntity
  8
ASSI
100
AcDbPolyline
 62
7
  6
CONTINUOUS
 90
13
 70
0
 10
49.1283146645
 20
0.4984116211
 10
49.1271063147
 20
0.4971042549
 10
49.1259032406
 20
0.4932403709
 10
49.1247054421
 20
0.4868199689
 10
49.123511354
 20
0.4778270155
 10
49.1223225415
 20
0.4662775442
 10
49.1211437003
 20
0.4522196557
 10
49.1199747798
 20
0.4356427082
 10
49.1188158307
 20
0.4165573435
 10
49.1176717004
 20
0.3950435879
 10
49.116542472
 20
0.3710918545
 10
49.1154280625
 20
0.3447117301
 10
49.1132575738
 20
0.2849833473
  0
LWPOLYLINE
  5
5E9
100
AcDbEntity
  8
RACCORDO
100
AcDbPolyline
 62
253
  6
CONTINUOUS
 90
22
 70
0
 10
50.0429550859
 20
0.265527971
 10
50.0460848703
 20
0.2688730262
 10
50.0491729998
 20
0.2724709531
 10
50.0522194742
 20
0.2763210057
 10
50.0552349556
 20
0.2804194738
 10
50.0582087819
 20
0.2847684136
 10
50.0611089674
 20
0.2893756121
 10
50.0639375067
 20
0.2942431995
 10
50.0666924052
 20
0.2993669575
 10
50.0693356929
 20
0.3047450294
 10
50.0718687307
 20
0.3103782779
 10
50.0742901577
 20
0.3162633759
 10
50.076557922
 20
0.322392122
 10
50.0786739054
 20
0.328764528
 10
50.0806362262
 20
0.335377798
 10
50.0823971867
 20
0.3422195178
 10
50.0839600188
 20
0.349283097
 10
50.0853214906
 20
0.3565721117
 10
50.0864242088
 20
0.364089338
 10
50.0872490422
 20
0.3718345286
 10
50.0878151219
 20
0.3798044428
 10
50.0881224479
 20
0.3879972368
  0
LINE
  5
5EA
100
AcDbEntity
  8
RACCORDO
100
AcDbLine
 62
7
  6
CONTINUOUS
 10
50.227735862
 20
0.5481222419
 11
50.2317953547
 21
0.5521817346
  0
LWPOLYLINE
  5
5EB
100
AcDbEntity
  8
RACCORDO
100
AcDbPolyline
 62
253
  6
CONTINUOUS
 90
10
 70
0
 10
50.0429550859
 20
0.2655279652
 10
50.0497314327
 20
0.2605735669
 10
50.0564547967
 20
0.2552292905
 10
50.063072608
 20
0.2495369229
 10
50.069533122
 20
0.2435409727
 10
50.0757858239
 20
0.2372883222
 10
50.0817818239
 20
0.230827861
 10
50.0874742395
 20
0.2242101033
 10
50.0928185615
 20
0.2174867934
 10
50.0977730028
 20
0.2107105007
  0
LINE
  5
5EC
100
AcDbEntity
  8
RACCORDO
100
AcDbLine
 62
7
  6
CONTINUOUS
 10
50.2317953547
 20
-3.2553584924
 11
50.227735862
 21
-3.2512989997
  0
LWPOLYLINE
  5
5ED
100
AcDbEntity
  8
RACCORDO
100
AcDbPolyline
 62
253
  6
CONTINUOUS
 90
22
 70
0
 10
50.0429550572
 20
-2.9687047288
 10
50.0461589941
 20
-2.9721351731
 10
50.0493118596
 20
-2.9758179433
 10
50.0524136537
 20
-2.9797522765
 10
50.0554760974
 20
-2.9839384586
 10
50.0584874697
 20
-2.9883745062
 10
50.0614126077
 20
-2.9930561789
 10
50.0642511943
 20
-2.9979833351
 10
50.0670035466
 20
-3.0031541004
 10
50.0696354526
 20
-3.0085615868
 10
50.0721476627
 20
-3.0142053485
 10
50.0745394264
 20
-3.0200835209
 10
50.0767742804
 20
-3.0261870649
 10
50.0788535148
 20
-3.032510899
 10
50.0807758394
 20
-3.0390575479
 10
50.08250092
 20
-3.0458293153
 10
50.084017224
 20
-3.0526812914
 10
50.085336284
 20
-3.0597560271
 10
50.0864523629
 20
-3.0674841712
 10
50.0873635483
 20
-3.0760047321
 10
50.0880717525
 20
-3.085168106
 10
50.0885769757
 20
-3.0949686209
  0
LWPOLYLINE
  5
5EE
100
AcDbEntity
  8
RACCORDO
100
AcDbPolyline
 62
7
  6
CONTINUOUS
 90
10
 70
0
 10
49.1197408463
 20
1.5398378029
 10
49.1192984943
 20
1.5390729619
 10
49.1188571869
 20
1.5376697486
 10
49.1184169241
 20
1.5356281627
 10
49.1179774248
 20
1.5329460738
 10
49.1175389701
 20
1.5296256124
 10
49.1171024031
 20
1.5256731708
 10
49.1166680048
 20
1.5210908798
 10
49.1162354942
 20
1.5158766086
 10
49.1158048713
 20
1.5100303573
  0
LWPOLYLINE
  5
5EF
100
AcDbEntity
  8
ASSI
100
AcDbPolyline
 62
7
  6
CONTINUOUS
 90
10
 70
0
 10
49.1197408463
 20
1.5398378029
 10
49.1192984943
 20
1.5390729619
 10
49.1188571869
 20
1.5376697486
 10
49.1184169241
 20
1.5356281627
 10
49.1179774248
 20
1.5329460738
 10
49.1175389701
 20
1.5296256124
 10
49.1171024031
 20
1.5256731708
 10
49.1166680048
 20
1.5210908798
 10
49.1162354942
 20
1.5158766086
 10
49.1158048713
 20
1.5100303573
  0
LINE
  5
5F0
100
AcDbEntity
  8
RACCORDO
100
AcDbLine
 62
7
  6
CONTINUOUS
 10
49.7368118871
 20
-2.9334152119
 11
49.7985739222
 21
-2.87156612
  0
LINE
  5
5F1
100
AcDbEntity
  8
RACCORDO
100
AcDbLine
 62
7
  6
CONTINUOUS
 10
49.7985739222
 20
-2.87156612
 11
49.811157377
 21
-2.8590697221
  0
LWPOLYLINE
  5
5F2
100
AcDbEntity
  8
RACCORDO
100
AcDbPolyline
 62
7
  6
CONTINUOUS
 90
4
 70
0
 10
49.7015223702
 20
-2.9687047288
 10
49.7131148029
 20
-2.9572193578
 10
49.7248779752
 20
-2.9454339794
 10
49.7368118871
 20
-2.9334152119
  0
LWPOLYLINE
  5
5F3
100
AcDbEntity
  8
RACCORDO
100
AcDbPolyline
 62
7
  6
CONTINUOUS
 90
10
 70
0
 10
49.2473506593
 20
1.5388965236
 10
49.2477451726
 20
1.5385712534
 10
49.2481389305
 20
1.5379919417
 10
49.248531933
 20
1.5371585886
 10
49.2489243815
 20
1.5360705023
 10
49.2493160747
 20
1.5347283745
 10
49.2497064077
 20
1.5331342808
 10
49.2500951791
 20
1.5312889129
 10
49.2504825904
 20
1.529191579
 10
49.2508686415
 20
1.5268422791
  0
LWPOLYLINE
  5
5F4
100
AcDbEntity
  8
RACCORDO
100
AcDbPolyline
 62
7
  6
CONTINUOUS
 90
3
 70
0
 10
49.7489735212
 20
0.2181025614
 10
49.7130077412
 20
0.2539355384
 10
49.7015223702
 20
0.265527971
  0
LWPOLYLINE
  5
5F5
100
AcDbEntity
  8
RACCORDO
100
AcDbPolyline
 62
7
  6
CONTINUOUS
 90
3
 70
0
 10
49.798660979
 20
0.168476419
 10
49.7612414145
 20
0.205795929
 10
49.7489735212
 20
0.2181025614
  0
LINE
  5
5F6
100
AcDbEntity
  8
RACCORDO
100
AcDbLine
 62
7
  6
CONTINUOUS
 10
49.811157377
 20
0.1558929643
 11
49.798660979
 21
0.168476419
  0
LWPOLYLINE
  5
5F7
100
AcDbEntity
  8
RACCORDO
100
AcDbPolyline
 62
7
  6
CONTINUOUS
 90
10
 70
0
 10
49.3563907282
 20
-3.3945744941
 10
49.3455548268
 20
-3.406664914
 10
49.3357385474
 20
-3.419449453
 10
49.3269418899
 20
-3.4329140924
 10
49.31907745
 20
-3.4470864645
 10
49.3122326322
 20
-3.4619073006
 10
49.3066696489
 20
-3.4772334947
 10
49.3024759043
 20
-3.4930083037
 10
49.2995639944
 20
-3.5092582402
 10
49.297933919
 20
-3.5259666934
  0
LWPOLYLINE
  5
5F8
100
AcDbEntity
  8
RACCORDO
100
AcDbPolyline
 62
7
  6
CONTINUOUS
 90
9
 70
0
 10
49.7015223702
 20
-2.9687047288
 10
49.697674778
 20
-2.9726490971
 10
49.6939062488
 20
-2.9766872171
 10
49.6902167827
 20
-2.9808187608
 10
49.6866065386
 20
-2.9850461844
 10
49.6830753575
 20
-2.9893663404
 10
49.6796227628
 20
-2.9937705106
 10
49.6762485957
 20
-2.9982555757
 10
49.672953015
 20
-3.0028239829
  0
LINE
  5
5F9
100
AcDbEntity
  8
RACCORDO
100
AcDbLine
 62
253
  6
CONTINUOUS
 10
50.2317953547
 20
-4.1480619926
 11
50.2282842012
 21
-4.1515731461
  0
LINE
  5
5FA
100
AcDbEntity
  8
RACCORDO
100
AcDbLine
 62
253
  6
CONTINUOUS
 10
50.2282842012
 20
1.4483963883
 11
50.2317953547
 21
1.4448852348
  0
LWPOLYLINE
  5
5FB
100
AcDbEntity
  8
RACCORDO
100
AcDbPolyline
 62
7
  6
CONTINUOUS
 90
6
 70
0
 10
49.3563907282
 20
0.6913977363
 10
49.414248955
 20
0.6292163066
 10
49.4698535772
 20
0.5661008411
 10
49.5232045949
 20
0.50205134
 10
49.574302008
 20
0.4370678032
 10
49.6231458166
 20
0.3711502307
  0
LINE
  5
5FC
100
AcDbEntity
  8
RACCORDO
100
AcDbLine
 62
253
  6
CONTINUOUS
 10
50.2048970749
 20
1.5126791495
 11
50.2084129313
 21
1.5091661364
  0
LWPOLYLINE
  5
5FD
100
AcDbEntity
  8
RACCORDO
100
AcDbPolyline
 62
7
  6
CONTINUOUS
 90
6
 70
0
 10
50.1989885906
 20
1.5191285856
 10
50.2048970749
 20
1.5126791495
 10
50.2148931249
 20
1.4983964774
 10
50.2222568812
 20
1.4825964103
 10
50.2267658292
 20
1.4657591993
 10
50.2282842012
 20
1.4483963883
  0
LWPOLYLINE
  5
5FE
100
AcDbEntity
  8
RACCORDO
100
AcDbPolyline
 62
253
  6
CONTINUOUS
 90
6
 70
0
 10
50.1188146951
 20
1.5388963952
 10
50.118577907
 20
1.538313899
 10
50.1183420523
 20
1.5371584797
 10
50.118107131
 20
1.5354313282
 10
50.117873143
 20
1.5331342919
 10
50.1176400884
 20
1.530269873
  0
LINE
  5
5FF
100
AcDbEntity
  8
RACCORDO
100
AcDbLine
 62
7
  6
CONTINUOUS
 10
50.2319280003
 20
0.5524863672
 11
50.2317953547
 21
0.5521817346
  0
LINE
  5
600
100
AcDbEntity
  8
RACCORDO
100
AcDbLine
 62
253
  6
CONTINUOUS
 10
50.0429550859
 20
0.265527971
 11
49.9881375495
 21
0.1558929643
  0
LWPOLYLINE
  5
601
100
AcDbEntity
  8
RACCORDO
100
AcDbPolyline
 62
253
  6
CONTINUOUS
 90
7
 70
0
 10
50.218799567
 20
1.4389117541
 10
50.2185617568
 20
1.4384369424
 10
50.2183252864
 20
1.4375091623
 10
50.2180901558
 20
1.4361284138
 10
50.217856365
 20
1.4342946971
 10
50.2176239141
 20
1.432008012
 10
50.2173928029
 20
1.4292683585
  0
LWPOLYLINE
  5
602
100
AcDbEntity
  8
RACCORDO
100
AcDbPolyline
 62
7
  6
CONTINUOUS
 90
7
 70
0
 10
49.672953015
 20
-3.0028239829
 10
49.6231459089
 20
-3.0743268742
 10
49.5743021557
 20
-3.1402443782
 10
49.523204761
 20
-3.2052278921
 10
49.4698537248
 20
-3.2692774161
 10
49.4142490472
 20
-3.3323929501
 10
49.3563907282
 20
-3.3945744941
  0
LWPOLYLINE
  5
603
100
AcDbEntity
  8
RACCORDO
100
AcDbPolyline
 62
253
  6
CONTINUOUS
 90
10
 70
0
 10
50.0977727709
 20
-2.9138872297
 10
50.0928183771
 20
-2.9206635523
 10
50.0874740956
 20
-2.9273868871
 10
50.0817817137
 20
-2.9340046638
 10
50.0757857408
 20
-2.9404651375
 10
50.0695330599
 20
-2.9467177932
 10
50.0630725612
 20
-2.9527137407
 10
50.0564547602
 20
-2.9584060975
 10
50.049731402
 20
-2.9637503544
 10
50.0429550572
 20
-2.9687047243
  0
LWPOLYLINE
  5
604
100
AcDbEntity
  8
RACCORDO
100
AcDbPolyline
 62
7
  6
CONTINUOUS
 90
4
 70
0
 10
50.2023882726
 20
-4.2188917406
 10
50.2128323003
 20
-4.206669208
 10
50.2210508501
 20
-4.1932216055
 10
50.2273828901
 20
-4.1776482712
  0
LINE
  5
605
100
AcDbEntity
  8
RACCORDO
100
AcDbLine
 62
253
  6
CONTINUOUS
 10
50.2048926538
 20
-4.2158610134
 11
50.208414239
 21
-4.2123413356
  0
LWPOLYLINE
  5
606
100
AcDbEntity
  8
RACCORDO
100
AcDbPolyline
 62
7
  6
CONTINUOUS
 90
6
 70
0
 10
50.1989885154
 20
-4.2223053433
 10
50.2048926538
 20
-4.2158610134
 10
50.2148881666
 20
-4.2015818265
 10
50.2222538673
 20
-4.1857824899
 10
50.2267651627
 20
-4.1689424698
 10
50.2282842012
 20
-4.1515731461
  0
LINE
  5
607
100
AcDbEntity
  8
RACCORDO
100
AcDbLine
 62
253
  6
CONTINUOUS
 10
50.2148931249
 20
1.4983964774
 11
50.2184092149
 21
1.4948879275
  0
LWPOLYLINE
  5
608
100
AcDbEntity
  8
RACCORDO
100
AcDbPolyline
 62
7
  6
CONTINUOUS
 90
10
 70
0
 10
49.6231458166
 20
0.3711502307
 10
49.672953015
 20
0.2996472251
 10
49.6762485957
 20
0.2950788179
 10
49.6796227628
 20
0.2905937528
 10
49.6830753575
 20
0.2861895826
 10
49.6866065386
 20
0.2818694266
 10
49.6902167827
 20
0.277642003
 10
49.6939062488
 20
0.2735104593
 10
49.697674778
 20
0.2694723393
 10
49.7015223702
 20
0.265527971
  0
LINE
  5
609
100
AcDbEntity
  8
RACCORDO
100
AcDbLine
 62
253
  6
CONTINUOUS
 10
49.9881375495
 20
-2.8590697221
 11
50.0429550572
 21
-2.9687047288
  0
LWPOLYLINE
  5
60A
100
AcDbEntity
  8
RACCORDO
100
AcDbPolyline
 62
7
  6
CONTINUOUS
 90
10
 70
0
 10
50.227735862
 20
-3.2512989997
 10
50.2263333301
 20
-3.2481783372
 10
50.2249393654
 20
-3.2417156411
 10
50.2235539679
 20
-3.2319109113
 10
50.2221747318
 20
-3.2187346568
 10
50.2208040628
 20
-3.2022163687
 10
50.2194491789
 20
-3.1824445202
 10
50.2181101358
 20
-3.159401619
 10
50.2167868777
 20
-3.1331051574
 10
50.2154864554
 20
-3.1036960859
  0
LINE
  5
60B
100
AcDbEntity
  8
RACCORDO
100
AcDbLine
 62
7
  6
CONTINUOUS
 10
50.2317953547
 20
-3.2553584924
 11
50.2319280003
 21
-3.255663125
  0
LWPOLYLINE
  5
60C
100
AcDbEntity
  8
RACCORDO
100
AcDbPolyline
 62
7
  6
CONTINUOUS
 90
10
 70
0
 10
49.297933919
 20
0.8227899356
 10
49.2995633568
 20
0.8060841126
 10
49.3024746132
 20
0.7898362248
 10
49.3066676881
 20
0.7740628647
 10
49.3122297517
 20
0.7587375525
 10
49.319073634
 20
0.7439169669
 10
49.3269378238
 20
0.729744049
 10
49.335735151
 20
0.7162780013
 10
49.3455527858
 20
0.703491228
 10
49.3563907282
 20
0.6913977363
  0
LWPOLYLINE
  5
60D
100
AcDbEntity
  8
RACCORDO
100
AcDbPolyline
 62
253
  6
CONTINUOUS
 90
10
 70
0
 10
50.2173928029
 20
1.4292683585
 10
50.2158148235
 20
1.4461711119
 10
50.2112613291
 20
1.46256274
 10
50.203870007
 20
1.477947612
 10
50.1938643517
 20
1.4918605386
 10
50.1815469054
 20
1.5038808399
 10
50.1672901085
 20
1.5136450644
 10
50.1515250415
 20
1.5208579757
 10
50.1347283908
 20
1.52530148
 10
50.1174080333
 20
1.5268412225
  0
LWPOLYLINE
  5
60E
100
AcDbEntity
  8
RACCORDO
100
AcDbPolyline
 62
253
  6
CONTINUOUS
 90
10
 70
0
 10
50.218799567
 20
1.4389117541
 10
50.2172758597
 20
1.4562706763
 10
50.2127615996
 20
1.4731023346
 10
50.2053939091
 20
1.4888955049
 10
50.1953965781
 20
1.5031705064
 10
50.1830732619
 20
1.5154937763
 10
50.1687982554
 20
1.5254910349
 10
50.1530051308
 20
1.5328586462
 10
50.1361735717
 20
1.5373728425
 10
50.1188147975
 20
1.5388965236
  0
LINE
  5
60F
100
AcDbEntity
  8
RACCORDO
100
AcDbLine
 62
253
  6
CONTINUOUS
 10
50.2302809336
 20
1.462251476
 11
50.2317953547
 21
1.4448852348
  0
LWPOLYLINE
  5
610
100
AcDbEntity
  8
RACCORDO
100
AcDbPolyline
 62
253
  6
CONTINUOUS
 90
7
 70
0
 10
50.2173928029
 20
-4.1324451163
 10
50.2176239141
 20
-4.1351847697
 10
50.217856365
 20
-4.1374714549
 10
50.2180901558
 20
-4.1393051716
 10
50.2183252864
 20
-4.1406859201
 10
50.2185617568
 20
-4.1416137002
 10
50.218799567
 20
-4.1420885119
  0
LWPOLYLINE
  5
611
100
AcDbEntity
  8
RACCORDO
100
AcDbPolyline
 62
253
  6
CONTINUOUS
 90
6
 70
0
 10
50.1176400579
 20
-4.2334462188
 10
50.1178731308
 20
-4.2363109145
 10
50.118107131
 20
-4.238608086
 10
50.1183420584
 20
-4.2403352753
 10
50.1185779131
 20
-4.2414906795
 10
50.1188146951
 20
-4.242073153
  0
LWPOLYLINE
  5
612
100
AcDbEntity
  8
RACCORDO
100
AcDbPolyline
 62
7
  6
CONTINUOUS
 90
10
 70
0
 10
49.1158048713
 20
-4.2132071151
 10
49.1162354942
 20
-4.2190533664
 10
49.1166680048
 20
-4.2242676376
 10
49.1171024031
 20
-4.2288499286
 10
49.1175389701
 20
-4.2328023702
 10
49.1179774248
 20
-4.2361228316
 10
49.1184169241
 20
-4.2388049205
 10
49.1188571869
 20
-4.2408465063
 10
49.1192984943
 20
-4.2422497197
 10
49.1197408463
 20
-4.2430145607
  0
LWPOLYLINE
  5
613
100
AcDbEntity
  8
ASSI
100
AcDbPolyline
 62
7
  6
CONTINUOUS
 90
10
 70
0
 10
49.1158048713
 20
-4.2132071151
 10
49.1162354942
 20
-4.2190533664
 10
49.1166680048
 20
-4.2242676376
 10
49.1171024031
 20
-4.2288499286
 10
49.1175389701
 20
-4.2328023702
 10
49.1179774248
 20
-4.2361228316
 10
49.1184169241
 20
-4.2388049205
 10
49.1188571869
 20
-4.2408465063
 10
49.1192984943
 20
-4.2422497197
 10
49.1197408463
 20
-4.2430145607
  0
LWPOLYLINE
  5
614
100
AcDbEntity
  8
RACCORDO
100
AcDbPolyline
 62
7
  6
CONTINUOUS
 90
4
 70
0
 10
50.2319368791
 20
1.444613446
 10
50.2309369436
 20
1.4587377429
 10
50.2267016355
 20
1.4765900443
 10
50.2196739541
 20
1.4926684618
  0
LWPOLYLINE
  5
615
100
AcDbEntity
  8
RACCORDO
100
AcDbPolyline
 62
253
  6
CONTINUOUS
 90
22
 70
0
 10
50.1881070886
 20
-3.0322040075
 10
50.187584741
 20
-3.0243554514
 10
50.1864538806
 20
-3.0167253831
 10
50.1847654776
 20
-3.0093138026
 10
50.1825763012
 20
-3.0021214963
 10
50.1799332915
 20
-2.9951476778
 10
50.1768607653
 20
-2.9883899881
 10
50.1733933644
 20
-2.9818474357
 10
50.1695708599
 20
-2.975521012
 10
50.1654067061
 20
-2.969411332
 10
50.1609253688
 20
-2.9635148396
 10
50.1561604872
 20
-2.9578350909
 10
50.1511297611
 20
-2.9523833686
 10
50.1458568496
 20
-2.9471605478
 10
50.14036919
 20
-2.9421657534
 10
50.1346862974
 20
-2.9374076438
 10
50.128828272
 20
-2.9328876032
 10
50.1228206471
 20
-2.9286042473
 10
50.1166897498
 20
-2.9245620815
 10
50.1104586006
 20
-2.9207626075
 10
50.1041463236
 20
-2.9172043236
 10
50.0977725563
 20
-2.9138872297
  0
LWPOLYLINE
  5
616
100
AcDbEntity
  8
RACCORDO
100
AcDbPolyline
 62
7
  6
CONTINUOUS
 90
11
 70
0
 10
49.1165425041
 20
-3.0742693327
 10
49.1176717291
 20
-3.09822092
 10
49.1188158553
 20
-3.1197345392
 10
49.1199747996
 20
-3.1388197725
 10
49.1211437154
 20
-3.1553966109
 10
49.1223225522
 20
-3.1694544197
 10
49.1235113604
 20
-3.1810038337
 10
49.1247054453
 20
-3.1899967471
 10
49.1259032418
 20
-3.1964171249
 10
49.1271063148
 20
-3.2002810021
 10
49.1283146645
 20
-3.2015883789
  0
LWPOLYLINE
  5
617
100
AcDbEntity
  8
ASSI
100
AcDbPolyline
 62
7
  6
CONTINUOUS
 90
11
 70
0
 10
49.1165425041
 20
-3.0742693327
 10
49.1176717291
 20
-3.09822092
 10
49.1188158553
 20
-3.1197345392
 10
49.1199747996
 20
-3.1388197725
 10
49.1211437154
 20
-3.1553966109
 10
49.1223225522
 20
-3.1694544197
 10
49.1235113604
 20
-3.1810038337
 10
49.1247054453
 20
-3.1899967471
 10
49.1259032418
 20
-3.1964171249
 10
49.1271063148
 20
-3.2002810021
 10
49.1283146645
 20
-3.2015883789
  0
LWPOLYLINE
  5
618
100
AcDbEntity
  8
RACCORDO
100
AcDbPolyline
 62
253
  6
CONTINUOUS
 90
5
 70
0
 10
50.2081453891
 20
-3.9577677077
 10
50.2103566802
 20
-4.0100839653
 10
50.2126362001
 20
-4.0566005977
 10
50.2149815743
 20
-4.097387648
 10
50.2173928029
 20
-4.1324451163
  0
LWPOLYLINE
  5
619
100
AcDbEntity
  8
RACCORDO
100
AcDbPolyline
 62
253
  6
CONTINUOUS
 90
5
 70
0
 10
50.1081748233
 20
-4.0493944337
 10
50.1103868599
 20
-4.1037125413
 10
50.1126637125
 20
-4.1521969707
 10
50.1150040564
 20
-4.1943972693
 10
50.1176400579
 20
-4.2334462188
  0
LWPOLYLINE
  5
61A
100
AcDbEntity
  8
RACCORDO
100
AcDbPolyline
 62
7
  6
CONTINUOUS
 90
5
 70
0
 10
49.1056371371
 20
-4.0000295447
 10
49.1081040382
 20
-4.0648606307
 10
49.1106170685
 20
-4.1218863334
 10
49.1131840129
 20
-4.1713351615
 10
49.1158048713
 20
-4.2132071151
  0
LWPOLYLINE
  5
61B
100
AcDbEntity
  8
ASSI
100
AcDbPolyline
 62
7
  6
CONTINUOUS
 90
5
 70
0
 10
49.1056371371
 20
-4.0000295447
 10
49.1081040382
 20
-4.0648606307
 10
49.1106170685
 20
-4.1218863334
 10
49.1131840129
 20
-4.1713351615
 10
49.1158048713
 20
-4.2132071151
  0
LINE
  5
61C
100
AcDbEntity
  8
RACCORDO
100
AcDbLine
 62
7
  6
CONTINUOUS
 10
49.1143331068
 20
-3.0191897556
 11
49.1165425041
 21
-3.0742693327
  0
LINE
  5
61D
100
AcDbEntity
  8
ASSI
100
AcDbLine
 62
7
  6
CONTINUOUS
 10
49.1143331068
 20
-3.0191897556
 11
49.1165425041
 21
-3.0742693327
  0
LINE
  5
61E
100
AcDbEntity
  8
RACCORDO
100
AcDbLine
 62
7
  6
CONTINUOUS
 10
50.2154864554
 20
-3.1036960859
 11
50.2129543778
 21
-3.0355072522
  0
LINE
  5
61F
100
AcDbEntity
  8
RACCORDO
100
AcDbLine
 62
253
  6
CONTINUOUS
 10
50.2039132461
 20
-3.8361565762
 11
50.2081453891
 21
-3.9577677077
  0
LINE
  5
620
100
AcDbEntity
  8
RACCORDO
100
AcDbLine
 62
253
  6
CONTINUOUS
 10
50.1039372503
 20
-3.9236292138
 11
50.1081748233
 21
-4.0493944337
  0
LINE
  5
621
100
AcDbEntity
  8
RACCORDO
100
AcDbLine
 62
7
  6
CONTINUOUS
 10
49.1122015294
 20
-2.9548130022
 11
49.1143331068
 21
-3.0191897556
  0
LINE
  5
622
100
AcDbEntity
  8
ASSI
100
AcDbLine
 62
7
  6
CONTINUOUS
 10
49.1122015294
 20
-2.9548130022
 11
49.1143331068
 21
-3.0191897556
  0
LINE
  5
623
100
AcDbEntity
  8
ASSI
100
AcDbLine
 62
7
  6
CONTINUOUS
 10
49.2744737339
 20
0.0131460167
 11
49.2802597655
 21
-0.1695055636
  0
LINE
  5
624
100
AcDbEntity
  8
RACCORDO
100
AcDbLine
 62
7
  6
CONTINUOUS
 10
49.100888431
 20
-3.8483222755
 11
49.1056371371
 21
-4.0000295447
  0
LINE
  5
625
100
AcDbEntity
  8
ASSI
100
AcDbLine
 62
7
  6
CONTINUOUS
 10
49.100888431
 20
-3.8483222755
 11
49.1056371371
 21
-4.0000295447
  0
LINE
  5
626
100
AcDbEntity
  8
RACCORDO
100
AcDbLine
 62
7
  6
CONTINUOUS
 10
50.2129543778
 20
-3.0355072522
 11
50.2105337882
 21
-2.9554233069
  0
LINE
  5
627
100
AcDbEntity
  8
RACCORDO
100
AcDbLine
 62
7
  6
CONTINUOUS
 10
49.1101608119
 20
-2.8815590961
 11
49.1122015294
 21
-2.9548130022
  0
LINE
  5
628
100
AcDbEntity
  8
ASSI
100
AcDbLine
 62
7
  6
CONTINUOUS
 10
49.1101608119
 20
-2.8815590961
 11
49.1122015294
 21
-2.9548130022
  0
LINE
  5
629
100
AcDbEntity
  8
RACCORDO
100
AcDbLine
 62
253
  6
CONTINUOUS
 10
50.1999054269
 20
-3.6923565193
 11
50.2039132461
 21
-3.8361565762
  0
LINE
  5
62A
100
AcDbEntity
  8
RACCORDO
100
AcDbLine
 62
253
  6
CONTINUOUS
 10
50.0999304408
 20
-3.7749592484
 11
50.1039372503
 21
-3.9236292138
  0
LINE
  5
62B
100
AcDbEntity
  8
RACCORDO
100
AcDbLine
 62
7
  6
CONTINUOUS
 10
49.0964523922
 20
-3.668960419
 11
49.100888431
 21
-3.8483222755
  0
LINE
  5
62C
100
AcDbEntity
  8
ASSI
100
AcDbLine
 62
7
  6
CONTINUOUS
 10
49.0964523922
 20
-3.668960419
 11
49.100888431
 21
-3.8483222755
  0
LINE
  5
62D
100
AcDbEntity
  8
ASSI
100
AcDbLine
 62
7
  6
CONTINUOUS
 10
49.2802597655
 20
-0.1695055636
 11
49.2851856319
 21
-0.372938747
  0
LINE
  5
62E
100
AcDbEntity
  8
RACCORDO
100
AcDbLine
 62
7
  6
CONTINUOUS
 10
50.2105337882
 20
-2.9554233069
 11
50.2071431215
 21
-2.8140516619
  0
LINE
  5
62F
100
AcDbEntity
  8
RACCORDO
100
AcDbLine
 62
7
  6
CONTINUOUS
 10
49.10729187
 20
-2.7558373979
 11
49.1101608119
 21
-2.8815590961
  0
LINE
  5
630
100
AcDbEntity
  8
ASSI
100
AcDbLine
 62
7
  6
CONTINUOUS
 10
49.10729187
 20
-2.7558373979
 11
49.1101608119
 21
-2.8815590961
  0
LINE
  5
631
100
AcDbEntity
  8
RACCORDO
100
AcDbLine
 62
253
  6
CONTINUOUS
 10
50.1943840905
 20
-3.43734978
 11
50.1999054269
 21
-3.6923565193
  0
LINE
  5
632
100
AcDbEntity
  8
RACCORDO
100
AcDbLine
 62
253
  6
CONTINUOUS
 10
50.0943697732
 20
-3.5106171647
 11
50.0999304408
 21
-3.7749592484
  0
LINE
  5
633
100
AcDbEntity
  8
RACCORDO
100
AcDbLine
 62
7
  6
CONTINUOUS
 10
49.0904975794
 20
-3.3536946422
 11
49.0964523922
 21
-3.668960419
  0
LINE
  5
634
100
AcDbEntity
  8
ASSI
100
AcDbLine
 62
7
  6
CONTINUOUS
 10
49.0904975794
 20
-3.3536946422
 11
49.0964523922
 21
-3.668960419
  0
LINE
  5
635
100
AcDbEntity
  8
RACCORDO
100
AcDbLine
 62
7
  6
CONTINUOUS
 10
49.2851856319
 20
-0.372938747
 11
49.2861583008
 21
-0.4263470567
  0
LINE
  5
636
100
AcDbEntity
  8
RACCORDO
100
AcDbLine
 62
7
  6
CONTINUOUS
 10
50.2071431215
 20
-2.8140516619
 11
50.2040909686
 21
-2.6492941621
  0
LINE
  5
637
100
AcDbEntity
  8
RACCORDO
100
AcDbLine
 62
7
  6
CONTINUOUS
 10
49.10729187
 20
-2.7558373979
 11
49.1044770642
 21
-2.5966936702
  0
LINE
  5
638
100
AcDbEntity
  8
ASSI
100
AcDbLine
 62
7
  6
CONTINUOUS
 10
49.10729187
 20
-2.7558373979
 11
49.1044770642
 21
-2.5966936702
  0
LWPOLYLINE
  5
639
100
AcDbEntity
  8
RACCORDO
100
AcDbPolyline
 62
253
  6
CONTINUOUS
 90
3
 70
0
 10
50.1881070886
 20
-3.0322055
 10
50.1895547096
 20
-3.1402013963
 10
50.1943840905
 20
-3.43734978
  0
LINE
  5
63A
100
AcDbEntity
  8
RACCORDO
100
AcDbLine
 62
7
  6
CONTINUOUS
 10
50.2040909686
 20
-2.6492941621
 11
50.2006347472
 21
-2.3981360958
  0
LINE
  5
63B
100
AcDbEntity
  8
RACCORDO
100
AcDbLine
 62
7
  6
CONTINUOUS
 10
49.2861583008
 20
-0.4263470567
 11
49.2868963497
 21
-0.4824011355
  0
LINE
  5
63C
100
AcDbEntity
  8
RACCORDO
100
AcDbLine
 62
7
  6
CONTINUOUS
 10
49.0871479019
 20
-3.1104236778
 11
49.0904975794
 21
-3.3536946422
  0
LINE
  5
63D
100
AcDbEntity
  8
ASSI
100
AcDbLine
 62
7
  6
CONTINUOUS
 10
49.0871479019
 20
-3.1104236778
 11
49.0904975794
 21
-3.3536946422
  0
LWPOLYLINE
  5
63E
100
AcDbEntity
  8
RACCORDO
100
AcDbPolyline
 62
253
  6
CONTINUOUS
 90
3
 70
0
 10
50.0885769757
 20
-3.0949686209
 10
50.0898223289
 20
-3.2046042915
 10
50.0943697732
 20
-3.5106171647
  0
LINE
  5
63F
100
AcDbEntity
  8
RACCORDO
100
AcDbLine
 62
7
  6
CONTINUOUS
 10
49.1044770642
 20
-2.5966936702
 11
49.1020320255
 21
-2.377314915
  0
LINE
  5
640
100
AcDbEntity
  8
ASSI
100
AcDbLine
 62
7
  6
CONTINUOUS
 10
49.1044770642
 20
-2.5966936702
 11
49.1020320255
 21
-2.377314915
  0
LINE
  5
641
100
AcDbEntity
  8
RACCORDO
100
AcDbLine
 62
7
  6
CONTINUOUS
 10
49.2868963497
 20
-0.4824011355
 11
49.2873967647
 21
-0.5407884289
  0
LINE
  5
642
100
AcDbEntity
  8
RACCORDO
100
AcDbLine
 62
7
  6
CONTINUOUS
 10
50.2006347472
 20
-2.3981360958
 11
50.1992027622
 21
-2.249177152
  0
LINE
  5
643
100
AcDbEntity
  8
RACCORDO
100
AcDbLine
 62
7
  6
CONTINUOUS
 10
49.0854988128
 20
-2.9006352917
 11
49.0871479019
 21
-3.1104236778
  0
LINE
  5
644
100
AcDbEntity
  8
ASSI
100
AcDbLine
 62
7
  6
CONTINUOUS
 10
49.0854988128
 20
-2.9006352917
 11
49.0871479019
 21
-3.1104236778
  0
LINE
  5
645
100
AcDbEntity
  8
RACCORDO
100
AcDbLine
 62
7
  6
CONTINUOUS
 10
49.1020320255
 20
-2.377314915
 11
49.100656582
 21
-2.1285524236
  0
LINE
  5
646
100
AcDbEntity
  8
ASSI
100
AcDbLine
 62
7
  6
CONTINUOUS
 10
49.1020320255
 20
-2.377314915
 11
49.100656582
 21
-2.1285524236
  0
LINE
  5
647
100
AcDbEntity
  8
RACCORDO
100
AcDbLine
 62
7
  6
CONTINUOUS
 10
50.1992027622
 20
-2.249177152
 11
50.1987044853
 21
-2.1328176698
  0
LINE
  5
648
100
AcDbEntity
  8
RACCORDO
100
AcDbLine
 62
7
  6
CONTINUOUS
 10
49.2873967647
 20
-0.5407884289
 11
49.2876799726
 21
-0.6304781238
  0
LINE
  5
649
100
AcDbEntity
  8
RACCORDO
100
AcDbLine
 62
7
  6
CONTINUOUS
 10
49.0846770022
 20
-2.5975819583
 11
49.0854988128
 21
-2.9006352917
  0
LINE
  5
64A
100
AcDbEntity
  8
ASSI
100
AcDbLine
 62
7
  6
CONTINUOUS
 10
49.0846770022
 20
-2.5975819583
 11
49.0854988128
 21
-2.9006352917
  0
LINE
  5
64B
100
AcDbEntity
  8
DRAFT
100
AcDbLine
 62
7
  6
CONTINUOUS
 10
49.1283146645
 20
-4.2515883789
 11
49.1283146645
 21
-3.2015883789
  0
LINE
  5
64C
100
AcDbEntity
  8
ASSI
100
AcDbLine
 62
7
  6
CONTINUOUS
 10
49.1283146645
 20
-4.2515883789
 11
49.1283146645
 21
-3.2015883789
  0
LINE
  5
64D
100
AcDbEntity
  8
DRAFT
100
AcDbLine
 62
7
  6
CONTINUOUS
 10
49.1283146645
 20
0.4984116211
 11
49.1283146645
 21
1.5484116211
  0
LINE
  5
64E
100
AcDbEntity
  8
ASSI
100
AcDbLine
 62
7
  6
CONTINUOUS
 10
49.1283146645
 20
0.4984116211
 11
49.1283146645
 21
1.5484116211
  0
LINE
  5
64F
100
AcDbEntity
  8
ASSI
100
AcDbLine
 62
253
  6
CONTINUOUS
 10
49.131745787
 20
-4.2515883789
 11
49.131745787
 21
-3.2015883789
  0
LINE
  5
650
100
AcDbEntity
  8
ASSI
100
AcDbLine
 62
253
  6
CONTINUOUS
 10
49.131745787
 20
0.4984116211
 11
49.131745787
 21
1.5484116211
  0
LINE
  5
651
100
AcDbEntity
  8
ASSI
100
AcDbLine
 62
253
  6
CONTINUOUS
 10
49.2316848697
 20
1.5467270319
 11
49.2316848697
 21
0.5459589355
  0
LINE
  5
652
100
AcDbEntity
  8
ASSI
100
AcDbLine
 62
7
  6
CONTINUOUS
 10
49.2316848697
 20
0.5459589355
 11
49.2316848697
 21
0.4864394414
  0
LINE
  5
653
100
AcDbEntity
  8
ASSI
100
AcDbLine
 62
7
  6
CONTINUOUS
 10
49.2316848697
 20
-3.1896161986
 11
49.2316848697
 21
-3.2491356932
  0
LINE
  5
654
100
AcDbEntity
  8
ASSI
100
AcDbLine
 62
253
  6
CONTINUOUS
 10
49.2316848697
 20
-3.2491356932
 11
49.2316848697
 21
-4.2499037897
  0
LINE
  5
655
100
AcDbEntity
  8
RACCORDO
100
AcDbLine
 62
253
  6
CONTINUOUS
 10
49.297933919
 20
0.8227899356
 11
49.297933919
 21
-3.5259666934
  0
LINE
  5
656
100
AcDbEntity
  8
RACCORDO
100
AcDbLine
 62
253
  6
CONTINUOUS
 10
49.3563907282
 20
0.6913977363
 11
49.3563907282
 21
-3.3945744941
  0
LINE
  5
657
100
AcDbEntity
  8
RACCORDO
100
AcDbLine
 62
253
  6
CONTINUOUS
 10
49.6697360207
 20
0.3042986225
 11
49.6697360207
 21
-3.0074753803
  0
LINE
  5
658
100
AcDbEntity
  8
RACCORDO
100
AcDbLine
 62
253
  6
CONTINUOUS
 10
49.811157377
 20
0.1558929643
 11
49.811157377
 21
-2.8590697221
  0
LINE
  5
659
100
AcDbEntity
  8
RACCORDO
100
AcDbLine
 62
253
  6
CONTINUOUS
 10
49.9881375495
 20
-2.8590697221
 11
49.9881375495
 21
0.1558929643
  0
LINE
  5
65A
100
AcDbEntity
  8
RACCORDO
100
AcDbLine
 62
253
  6
CONTINUOUS
 10
50.1881070886
 20
-3.0322055
 11
50.1881070886
 21
0.3290245311
  0
LINE
  5
65B
100
AcDbEntity
  8
RACCORDO
100
AcDbLine
 62
7
  6
CONTINUOUS
 10
50.2319476595
 20
-4.1477880215
 11
50.2319476595
 21
-3.2556631253
  0
LINE
  5
65C
100
AcDbEntity
  8
RACCORDO
100
AcDbLine
 62
7
  6
CONTINUOUS
 10
50.2319476595
 20
0.5524863675
 11
50.2319476595
 21
1.4446111382
  0
LINE
  5
65D
100
AcDbEntity
  8
RACCORDO
100
AcDbLine
 62
7
  6
CONTINUOUS
 10
50.1987044853
 20
-2.1328176698
 11
50.1986572941
 21
-0.600256998
  0
LINE
  5
65E
100
AcDbEntity
  8
RACCORDO
100
AcDbLine
 62
7
  6
CONTINUOUS
 10
49.100656582
 20
-2.1285524236
 11
49.1004574685
 21
-0.6610805633
  0
LINE
  5
65F
100
AcDbEntity
  8
ASSI
100
AcDbLine
 62
7
  6
CONTINUOUS
 10
49.100656582
 20
-2.1285524236
 11
49.1004574685
 21
-0.6610805633
  0
LINE
  5
660
100
AcDbEntity
  8
RACCORDO
100
AcDbLine
 62
7
  6
CONTINUOUS
 10
49.2876799726
 20
-0.6304781238
 11
49.2875530874
 21
-2.1328146052
  0
LINE
  5
661
100
AcDbEntity
  8
RACCORDO
100
AcDbLine
 62
7
  6
CONTINUOUS
 10
49.0851408361
 20
0.1234028754
 11
49.0846770022
 21
-2.5975819583
  0
LINE
  5
662
100
AcDbEntity
  8
ASSI
100
AcDbLine
 62
7
  6
CONTINUOUS
 10
49.0851408361
 20
0.1234028754
 11
49.0846770022
 21
-2.5975819583
  0
LINE
  5
663
100
AcDbEntity
  8
RACCORDO
100
AcDbLine
 62
7
  6
CONTINUOUS
 10
50.1986572941
 20
-0.600256998
 11
50.1990327745
 21
-0.4823961351
  0
LINE
  5
664
100
AcDbEntity
  8
RACCORDO
100
AcDbLine
 62
7
  6
CONTINUOUS
 10
49.1004574685
 20
-0.6610805633
 11
49.1014438605
 21
-0.4070149739
  0
LINE
  5
665
100
AcDbEntity
  8
ASSI
100
AcDbLine
 62
7
  6
CONTINUOUS
 10
49.1004574685
 20
-0.6610805633
 11
49.1014438605
 21
-0.4070149739
  0
LINE
  5
666
100
AcDbEntity
  8
RACCORDO
100
AcDbLine
 62
7
  6
CONTINUOUS
 10
49.2875530874
 20
-2.1328146052
 11
49.2871775172
 21
-2.1917433962
  0
LINE
  5
667
100
AcDbEntity
  8
RACCORDO
100
AcDbLine
 62
7
  6
CONTINUOUS
 10
49.0865077206
 20
0.3402340777
 11
49.0851408361
 21
0.1234028754
  0
LINE
  5
668
100
AcDbEntity
  8
ASSI
100
AcDbLine
 62
7
  6
CONTINUOUS
 10
49.0865077206
 20
0.3402340777
 11
49.0851408361
 21
0.1234028754
  0
LINE
  5
669
100
AcDbEntity
  8
RACCORDO
100
AcDbLine
 62
7
  6
CONTINUOUS
 10
50.1990327745
 20
-0.4823961351
 11
50.1998878444
 21
-0.372938747
  0
LINE
  5
66A
100
AcDbEntity
  8
RACCORDO
100
AcDbLine
 62
7
  6
CONTINUOUS
 10
49.1014438605
 20
-0.4070149739
 11
49.1035486273
 21
-0.1755958996
  0
LINE
  5
66B
100
AcDbEntity
  8
ASSI
100
AcDbLine
 62
7
  6
CONTINUOUS
 10
49.1014438605
 20
-0.4070149739
 11
49.1035486273
 21
-0.1755958996
  0
LINE
  5
66C
100
AcDbEntity
  8
RACCORDO
100
AcDbLine
 62
7
  6
CONTINUOUS
 10
49.2871775172
 20
-2.1917433962
 11
49.286556276
 21
-2.2491724522
  0
LINE
  5
66D
100
AcDbEntity
  8
RACCORDO
100
AcDbLine
 62
7
  6
CONTINUOUS
 10
49.0887050941
 20
0.5333762669
 11
49.0865077206
 21
0.3402340777
  0
LINE
  5
66E
100
AcDbEntity
  8
ASSI
100
AcDbLine
 62
7
  6
CONTINUOUS
 10
49.0887050941
 20
0.5333762669
 11
49.0865077206
 21
0.3402340777
  0
LINE
  5
66F
100
AcDbEntity
  8
RACCORDO
100
AcDbLine
 62
7
  6
CONTINUOUS
 10
50.1998878444
 20
-0.372938747
 11
50.2031564362
 21
-0.1136189942
  0
LINE
  5
670
100
AcDbEntity
  8
RACCORDO
100
AcDbLine
 62
7
  6
CONTINUOUS
 10
49.1035486273
 20
-0.1755958996
 11
49.1055204032
 21
-0.0411795571
  0
LINE
  5
671
100
AcDbEntity
  8
ASSI
100
AcDbLine
 62
7
  6
CONTINUOUS
 10
49.1035486273
 20
-0.1755958996
 11
49.1055204032
 21
-0.0411795571
  0
LWPOLYLINE
  5
672
100
AcDbEntity
  8
RACCORDO
100
AcDbPolyline
 62
7
  6
CONTINUOUS
 90
3
 70
0
 10
49.286556276
 20
-2.2491724522
 10
49.2857014194
 20
-2.303851554
 10
49.2851856319
 20
-2.3302380108
  0
LINE
  5
673
100
AcDbEntity
  8
RACCORDO
100
AcDbLine
 62
253
  6
CONTINUOUS
 10
50.093786062
 20
0.7729242848
 11
50.0881224479
 21
0.3879972368
  0
LINE
  5
674
100
AcDbEntity
  8
RACCORDO
100
AcDbLine
 62
253
  6
CONTINUOUS
 10
50.1937693634
 20
0.7007820069
 11
50.1881070886
 21
0.3290245311
  0
LINE
  5
675
100
AcDbEntity
  8
RACCORDO
100
AcDbLine
 62
7
  6
CONTINUOUS
 10
50.2031564362
 20
-0.1136189942
 11
50.2060847466
 21
0.0583880022
  0
LINE
  5
676
100
AcDbEntity
  8
RACCORDO
100
AcDbLine
 62
7
  6
CONTINUOUS
 10
49.0943682351
 20
0.8665850286
 11
49.0887050941
 21
0.5333762669
  0
LINE
  5
677
100
AcDbEntity
  8
ASSI
100
AcDbLine
 62
7
  6
CONTINUOUS
 10
49.0943682351
 20
0.8665850286
 11
49.0887050941
 21
0.5333762669
  0
LINE
  5
678
100
AcDbEntity
  8
RACCORDO
100
AcDbLine
 62
7
  6
CONTINUOUS
 10
49.1082193888
 20
0.0965504273
 11
49.1055204032
 21
-0.0411795571
  0
LINE
  5
679
100
AcDbEntity
  8
ASSI
100
AcDbLine
 62
7
  6
CONTINUOUS
 10
49.1082193888
 20
0.0965504273
 11
49.1055204032
 21
-0.0411795571
  0
LINE
  5
67A
100
AcDbEntity
  8
RACCORDO
100
AcDbLine
 62
253
  6
CONTINUOUS
 10
50.0983192475
 20
1.0025194525
 11
50.093786062
 21
0.7729242848
  0
LINE
  5
67B
100
AcDbEntity
  8
RACCORDO
100
AcDbLine
 62
253
  6
CONTINUOUS
 10
50.1983011846
 20
0.9225964775
 11
50.1937693634
 21
0.7007820069
  0
LINE
  5
67C
100
AcDbEntity
  8
RACCORDO
100
AcDbLine
 62
7
  6
CONTINUOUS
 10
49.0986317776
 20
1.0589102636
 11
49.0943682351
 21
0.8665850286
  0
LINE
  5
67D
100
AcDbEntity
  8
ASSI
100
AcDbLine
 62
7
  6
CONTINUOUS
 10
49.0986317776
 20
1.0589102636
 11
49.0943682351
 21
0.8665850286
  0
LINE
  5
67E
100
AcDbEntity
  8
RACCORDO
100
AcDbLine
 62
7
  6
CONTINUOUS
 10
50.2060847466
 20
0.0583880022
 11
50.2093683308
 21
0.2078337476
  0
LINE
  5
67F
100
AcDbEntity
  8
RACCORDO
100
AcDbLine
 62
253
  6
CONTINUOUS
 10
50.1017040388
 20
1.1414464562
 11
50.0983192475
 21
1.0025194525
  0
LINE
  5
680
100
AcDbEntity
  8
ASSI
100
AcDbLine
 62
7
  6
CONTINUOUS
 10
49.2851856319
 20
-2.3302380108
 11
49.2802597674
 21
-2.5336711228
  0
LINE
  5
681
100
AcDbEntity
  8
RACCORDO
100
AcDbLine
 62
7
  6
CONTINUOUS
 10
49.1111691998
 20
0.2161039912
 11
49.1082193888
 21
0.0965504273
  0
LINE
  5
682
100
AcDbEntity
  8
ASSI
100
AcDbLine
 62
7
  6
CONTINUOUS
 10
49.1111691998
 20
0.2161039912
 11
49.1082193888
 21
0.0965504273
  0
LINE
  5
683
100
AcDbEntity
  8
RACCORDO
100
AcDbLine
 62
253
  6
CONTINUOUS
 10
50.2016877569
 20
1.0568986405
 11
50.1983011846
 21
0.9225964775
  0
LINE
  5
684
100
AcDbEntity
  8
RACCORDO
100
AcDbLine
 62
7
  6
CONTINUOUS
 10
50.2093683308
 20
0.2078337476
 11
50.2117298049
 21
0.2937756049
  0
LINE
  5
685
100
AcDbEntity
  8
RACCORDO
100
AcDbLine
 62
253
  6
CONTINUOUS
 10
50.1052673383
 20
1.2631913923
 11
50.1017040388
 21
1.1414464562
  0
LINE
  5
686
100
AcDbEntity
  8
RACCORDO
100
AcDbLine
 62
7
  6
CONTINUOUS
 10
49.1132575738
 20
0.2849833473
 11
49.1111691998
 21
0.2161039912
  0
LINE
  5
687
100
AcDbEntity
  8
ASSI
100
AcDbLine
 62
7
  6
CONTINUOUS
 10
49.1132575738
 20
0.2849833473
 11
49.1111691998
 21
0.2161039912
  0
LINE
  5
688
100
AcDbEntity
  8
RACCORDO
100
AcDbLine
 62
253
  6
CONTINUOUS
 10
50.2052535953
 20
1.1745992713
 11
50.2016877569
 21
1.0568986405
  0
LWPOLYLINE
  5
689
100
AcDbEntity
  8
ASSI
100
AcDbPolyline
 62
7
  6
CONTINUOUS
 90
13
 70
0
 10
49.2802597674
 20
-2.5336711228
 10
49.2744737388
 20
-2.7163226408
 10
49.2712563757
 20
-2.7999043934
 10
49.2678704413
 20
-2.8770143714
 10
49.2643143558
 20
-2.9475351204
 10
49.2605896989
 20
-3.0115840948
 10
49.2567441055
 20
-3.0683354635
 10
49.2527764641
 20
-3.1176919717
 10
49.2486878861
 20
-3.1597508742
 10
49.2445293408
 20
-3.1939781043
 10
49.2403178178
 20
-3.2201956397
 10
49.2360363274
 20
-3.2385815027
 10
49.2316848697
 20
-3.2491356932
  0
LWPOLYLINE
  5
68A
100
AcDbEntity
  8
RACCORDO
100
AcDbPolyline
 62
7
  6
CONTINUOUS
 90
12
 70
0
 10
50.2117298049
 20
0.2937756049
 10
50.2142095088
 20
0.3679949609
 10
50.2154869245
 20
0.4005305996
 10
50.2167872914
 20
0.4299372678
 10
50.2181104821
 20
0.4562313356
 10
50.2194494576
 20
0.4792721915
 10
50.2208042738
 20
0.4990424616
 10
50.2221748749
 20
0.5155595197
 10
50.2235540549
 20
0.5287348758
 10
50.2249394117
 20
0.5385390332
 10
50.2263333474
 20
0.5450014886
 10
50.227735862
 20
0.5481222419
  0
LINE
  5
68B
100
AcDbEntity
  8
RACCORDO
100
AcDbLine
 62
253
  6
CONTINUOUS
 10
50.1078152616
 20
1.3366967334
 11
50.1052673383
 21
1.2631913923
  0
LINE
  5
68C
100
AcDbEntity
  8
RACCORDO
100
AcDbLine
 62
253
  6
CONTINUOUS
 10
50.2078013015
 20
1.2455847915
 11
50.2052535953
 21
1.1745992713
  0
LWPOLYLINE
  5
68D
100
AcDbEntity
  8
RACCORDO
100
AcDbPolyline
 62
7
  6
CONTINUOUS
 90
10
 70
0
 10
49.297933919
 20
-3.5259666934
 10
49.2934037153
 20
-3.6380907956
 10
49.288684005
 20
-3.7419660045
 10
49.283774788
 20
-3.8375923199
 10
49.2786564794
 20
-3.9252699053
 10
49.2733486642
 20
-4.0046985974
 10
49.2679100973
 20
-4.0749779056
 10
49.2623603638
 20
-4.1358076666
 10
49.2566798785
 20
-4.1874880437
 10
49.2508686415
 20
-4.2300190369
  0
LWPOLYLINE
  5
68E
100
AcDbEntity
  8
RACCORDO
100
AcDbPolyline
 62
7
  6
CONTINUOUS
 90
7
 70
0
 10
49.1158048713
 20
1.5100303573
 10
49.1131840129
 20
1.4681584037
 10
49.1106170685
 20
1.4187095756
 10
49.1081040382
 20
1.3616838729
 10
49.1056371371
 20
1.296852787
 10
49.1032241501
 20
1.2244448264
 10
49.0986317776
 20
1.0589102636
  0
LWPOLYLINE
  5
68F
100
AcDbEntity
  8
ASSI
100
AcDbPolyline
 62
7
  6
CONTINUOUS
 90
7
 70
0
 10
49.1158048713
 20
1.5100303573
 10
49.1131840129
 20
1.4681584037
 10
49.1106170685
 20
1.4187095756
 10
49.1081040382
 20
1.3616838729
 10
49.1056371371
 20
1.296852787
 10
49.1032241501
 20
1.2244448264
 10
49.0986317776
 20
1.0589102636
  0
LWPOLYLINE
  5
690
100
AcDbEntity
  8
RACCORDO
100
AcDbPolyline
 62
253
  6
CONTINUOUS
 90
7
 70
0
 10
50.1176400884
 20
1.530269873
 10
50.1159641887
 20
1.5063058748
 10
50.1145457001
 20
1.4834440377
 10
50.1131524895
 20
1.4583419845
 10
50.1117866578
 20
1.4311490997
 10
50.1104461041
 20
1.4018998222
 10
50.1078152616
 20
1.3366967334
  0
LWPOLYLINE
  5
691
100
AcDbEntity
  8
RACCORDO
100
AcDbPolyline
 62
253
  6
CONTINUOUS
 90
7
 70
0
 10
50.2173928029
 20
1.4292683585
 10
50.2159498733
 20
1.4093045856
 10
50.2145319561
 20
1.3872561801
 10
50.2131390513
 20
1.3631231418
 10
50.2117731326
 20
1.3369035582
 10
50.2104322263
 20
1.3085993418
 10
50.2078013015
 20
1.2455847915
  0
LINE
  5
692
100
AcDbEntity
  8
RACCORDO
100
AcDbLine
 62
253
  6
CONTINUOUS
 10
50.2302810629
 20
-4.1654274994
 11
50.2317953547
 21
-4.1480619926
  0
LWPOLYLINE
  5
693
100
AcDbEntity
  8
RACCORDO
100
AcDbPolyline
 62
253
  6
CONTINUOUS
 90
10
 70
0
 10
50.218799567
 20
-4.1420885119
 10
50.217275874
 20
-4.1594473534
 10
50.2127616481
 20
-4.1762789592
 10
50.2053939988
 20
-4.1920721074
 10
50.1953967018
 20
-4.2063471168
 10
50.1830734024
 20
-4.2186704162
 10
50.168798393
 20
-4.2286677132
 10
50.1530052448
 20
-4.2360353625
 10
50.1361736389
 20
-4.2405495884
 10
50.1188147975
 20
-4.2420732814
  0
LWPOLYLINE
  5
694
100
AcDbEntity
  8
RACCORDO
100
AcDbPolyline
 62
253
  6
CONTINUOUS
 90
10
 70
0
 10
50.2173928028
 20
-4.1324451163
 10
50.2158147041
 20
-4.1493476806
 10
50.2112611313
 20
-4.1657391152
 10
50.2038697686
 20
-4.1811238003
 10
50.193864105
 20
-4.1950365567
 10
50.1815466769
 20
-4.2070567114
 10
50.1672899202
 20
-4.2168208166
 10
50.1515249096
 20
-4.22403364
 10
50.1347283239
 20
-4.228477091
 10
50.1174080333
 20
-4.230016815
  0
LWPOLYLINE
  5
695
100
AcDbEntity
  8
RACCORDO
100
AcDbPolyline
 62
7
  6
CONTINUOUS
 90
10
 70
0
 10
49.2508686415
 20
-4.2300190369
 10
49.2504825904
 20
-4.2323683368
 10
49.2500951791
 20
-4.2344656707
 10
49.2497064077
 20
-4.2363110386
 10
49.2493160747
 20
-4.2379051323
 10
49.2489243815
 20
-4.2392472601
 10
49.248531933
 20
-4.2403353464
 10
49.2481389305
 20
-4.2411686995
 10
49.2477451726
 20
-4.2417480112
 10
49.2473506593
 20
-4.2420732814
  0
LWPOLYLINE
  5
696
100
AcDbEntity
  8
RACCORDO
100
AcDbPolyline
 62
253
  6
CONTINUOUS
 90
10
 70
0
 10
50.1881070904
 20
-3.0322039316
 10
50.1863726119
 20
-3.0423537221
 10
50.1817060926
 20
-3.0522006409
 10
50.1742467738
 20
-3.0614508277
 10
50.1642031269
 20
-3.0698381071
 10
50.1518832816
 20
-3.0770994715
 10
50.1377124962
 20
-3.0829981181
 10
50.1221510128
 20
-3.0873703913
 10
50.1056534609
 20
-3.0901137501
 10
50.0887097006
 20
-3.0911669443
  0
LWPOLYLINE
  5
697
100
AcDbEntity
  8
RACCORDO
100
AcDbPolyline
 62
7
  6
CONTINUOUS
 90
3
 70
0
 10
50.2273828901
 20
-4.1776482712
 10
50.2311451206
 20
-4.1603202151
 10
50.23193108
 20
-4.1477927987
  0
LINE
  5
698
100
AcDbEntity
  8
RACCORDO
100
AcDbLine
 62
253
  6
CONTINUOUS
 10
50.2257736378
 20
-4.1822651598
 11
50.2302810629
 21
-4.1654274994
  0
LINE
  5
699
100
AcDbEntity
  8
RACCORDO
100
AcDbLine
 62
253
  6
CONTINUOUS
 10
50.2184100884
 20
-4.1980631719
 11
50.2257736378
 21
-4.1822651598
  0
LINE
  5
69A
100
AcDbEntity
  8
RACCORDO
100
AcDbLine
 62
253
  6
CONTINUOUS
 10
50.2319476428
 20
-4.1477885788
 11
50.2317953547
 21
-4.1480619926
  0
LINE
  5
69B
100
AcDbEntity
  8
RACCORDO
100
AcDbLine
 62
253
  6
CONTINUOUS
 10
50.2159051903
 20
-4.2016411916
 11
50.2184100884
 21
-4.1980631719
  0
LWPOLYLINE
  5
69C
100
AcDbEntity
  8
RACCORDO
100
AcDbPolyline
 62
7
  6
CONTINUOUS
 90
3
 70
0
 10
50.2196739541
 20
1.4926684618
 10
50.2104297322
 20
1.5066790961
 10
50.2022699301
 20
1.5158370756
  0
LINE
  5
69D
100
AcDbEntity
  8
RACCORDO
100
AcDbLine
 62
253
  6
CONTINUOUS
 10
50.2317953547
 20
1.4448852348
 11
50.2319476543
 21
1.4446103996
  0
LINE
  5
69E
100
AcDbEntity
  8
RACCORDO
100
AcDbLine
 62
253
  6
CONTINUOUS
 10
50.2184092149
 20
1.4948879275
 11
50.2257731839
 21
1.4790896501
  0
LWPOLYLINE
  5
69F
100
AcDbEntity
  8
ASSI
100
AcDbPolyline
 62
7
  6
CONTINUOUS
 90
12
 70
0
 10
49.2316848697
 20
0.5459589355
 10
49.2360363228
 20
0.5354047693
 10
49.2403178096
 20
0.5170189321
 10
49.2445293301
 20
0.4908014239
 10
49.248687874
 20
0.4565742259
 10
49.2527764516
 20
0.4145153568
 10
49.2567440932
 20
0.3651588734
 10
49.2605896874
 20
0.3084075179
 10
49.2643143457
 20
0.244358548
 10
49.2678704329
 20
0.1738377935
 10
49.271256369
 20
0.0967277975
 10
49.2744737339
 20
0.0131460167
  0
LINE
  5
6A0
100
AcDbEntity
  8
RACCORDO
100
AcDbLine
 62
253
  6
CONTINUOUS
 10
50.2257731839
 20
1.4790896501
 11
50.2302809336
 21
1.462251476
  0
LWPOLYLINE
  5
6A1
100
AcDbEntity
  8
RACCORDO
100
AcDbPolyline
 62
7
  6
CONTINUOUS
 90
10
 70
0
 10
49.2508686415
 20
1.5268422791
 10
49.2566799159
 20
1.4843108468
 10
49.2623604244
 20
1.4326301932
 10
49.2679101669
 20
1.3718003184
 10
49.2733487219
 20
1.3015211293
 10
49.2786565109
 20
1.2220927189
 10
49.2837747987
 20
1.1344153664
 10
49.2886840067
 20
1.0387891649
 10
49.2934037135
 20
0.9349140213
 10
49.297933919
 20
0.8227899356
  0
LWPOLYLINE
  5
6A2
100
AcDbEntity
  8
RACCORDO
100
AcDbPolyline
 62
253
  6
CONTINUOUS
 90
15
 70
0
 10
-20.0094421339
 20
-3.7317169114
 10
-19.9580465859
 20
-3.7231672783
 10
-19.9078145195
 20
-3.7093223119
 10
-19.8592842131
 20
-3.6903281269
 10
-19.812987802
 20
-3.6663900651
 10
-19.7694431075
 20
-3.6377752652
 10
-19.7291236039
 20
-3.6047996483
 10
-19.6924593636
 20
-3.5678205205
 10
-19.6598481515
 20
-3.5272416602
 10
-19.6316419817
 20
-3.483507659
 10
-19.608140313
 20
-3.4370912316
 10
-19.5895929793
 20
-3.3884876115
 10
-19.5761998328
 20
-3.338220023
 10
-19.5681057925
 20
-3.286835398
 10
-19.5653978694
 20
-3.2348899382
  0
LWPOLYLINE
  5
6A3
100
AcDbEntity
  8
ASSI
100
AcDbPolyline
 62
253
  6
CONTINUOUS
 90
15
 70
0
 10
-20.0094421339
 20
-3.7317169114
 10
-19.9580465859
 20
-3.7231672783
 10
-19.9078145195
 20
-3.7093223119
 10
-19.8592842131
 20
-3.6903281269
 10
-19.812987802
 20
-3.6663900651
 10
-19.7694431075
 20
-3.6377752652
 10
-19.7291236039
 20
-3.6047996483
 10
-19.6924593636
 20
-3.5678205205
 10
-19.6598481515
 20
-3.5272416602
 10
-19.6316419817
 20
-3.483507659
 10
-19.608140313
 20
-3.4370912316
 10
-19.5895929793
 20
-3.3884876115
 10
-19.5761998328
 20
-3.338220023
 10
-19.5681057925
 20
-3.286835398
 10
-19.5653978694
 20
-3.2348899382
  0
LINE
  5
6A4
100
AcDbEntity
  8
RACCORDO
100
AcDbLine
 62
7
  6
CONTINUOUS
 10
-21.9759827401
 20
-5.0715883789
 11
-17.3655112962
 21
-4.9911123005
  0
LINE
  5
6A5
100
AcDbEntity
  8
RACCORDO
100
AcDbLine
 62
7
  6
CONTINUOUS
 10
-17.2216194724
 20
-5.0600976792
 11
-21.9759827401
 21
-5.1015883789
  0
LINE
  5
6A6
100
AcDbEntity
  8
ASSI
100
AcDbLine
 62
7
  6
CONTINUOUS
 10
-17.2216194724
 20
-5.0600976792
 11
-21.9759827401
 21
-5.1015883789
  0
LINE
  5
6A7
100
AcDbEntity
  8
RACCORDO
100
AcDbLine
 62
7
  6
CONTINUOUS
 10
-21.9759827401
 20
-5.1015883789
 11
-22.9759827401
 21
-5.0928615111
  0
LINE
  5
6A8
100
AcDbEntity
  8
ASSI
100
AcDbLine
 62
7
  6
CONTINUOUS
 10
-21.9759827401
 20
-5.1015883789
 11
-22.9759827401
 21
-5.0928615111
  0
LINE
  5
6A9
100
AcDbEntity
  8
DRAFT
100
AcDbLine
 62
7
  6
CONTINUOUS
 10
-20.4759827401
 20
-5.1539695331
 11
-21.9759827401
 21
-5.1015883789
  0
LINE
  5
6AA
100
AcDbEntity
  8
RACCORDO
100
AcDbLine
 62
7
  6
CONTINUOUS
 10
-21.9759827401
 20
-5.1015883789
 11
-23.7434324885
 21
-5.0398676736
  0
LWPOLYLINE
  5
6AB
100
AcDbEntity
  8
RACCORDO
100
AcDbPolyline
 62
253
  6
CONTINUOUS
 90
16
 70
0
 10
-20.0596997038
 20
-3.5348880755
 10
-20.0279944406
 20
-3.5328718368
 10
-19.9972716718
 20
-3.5277752078
 10
-19.9675313974
 20
-3.5195981885
 10
-19.938457835
 20
-3.5081836346
 10
-19.910366767
 20
-3.4936886903
 10
-19.8842055402
 20
-3.4765847885
 10
-19.8600538126
 20
-3.4567883199
 10
-19.8378319262
 20
-3.4343828938
 10
-19.8182482532
 20
-3.4100907706
 10
-19.8013882565
 20
-3.3838294435
 10
-19.7871664732
 20
-3.3556814193
 10
-19.7760348871
 20
-3.3266164786
 10
-19.7681441593
 20
-3.2969578816
 10
-19.7633436286
 20
-3.2663823681
 10
-19.7616332951
 20
-3.2348899382
  0
LWPOLYLINE
  5
6AC
100
AcDbEntity
  8
ASSI
100
AcDbPolyline
 62
253
  6
CONTINUOUS
 90
16
 70
0
 10
-20.0596997038
 20
-3.5348880755
 10
-20.0279944406
 20
-3.5328718368
 10
-19.9972716718
 20
-3.5277752078
 10
-19.9675313974
 20
-3.5195981885
 10
-19.938457835
 20
-3.5081836346
 10
-19.910366767
 20
-3.4936886903
 10
-19.8842055402
 20
-3.4765847885
 10
-19.8600538126
 20
-3.4567883199
 10
-19.8378319262
 20
-3.4343828938
 10
-19.8182482532
 20
-3.4100907706
 10
-19.8013882565
 20
-3.3838294435
 10
-19.7871664732
 20
-3.3556814193
 10
-19.7760348871
 20
-3.3266164786
 10
-19.7681441593
 20
-3.2969578816
 10
-19.7633436286
 20
-3.2663823681
 10
-19.7616332951
 20
-3.2348899382
  0
LINE
  5
6AD
100
AcDbEntity
  8
RACCORDO
100
AcDbLine
 62
253
  6
CONTINUOUS
 10
-20.061444878
 20
-3.7348804601
 11
-20.0094421339
 21
-3.7317169114
  0
LINE
  5
6AE
100
AcDbEntity
  8
ASSI
100
AcDbLine
 62
253
  6
CONTINUOUS
 10
-20.061444878
 20
-3.7348804601
 11
-20.0094421339
 21
-3.7317169114
  0
LINE
  5
6AF
100
AcDbEntity
  8
RACCORDO
100
AcDbLine
 62
7
  6
CONTINUOUS
 10
-19.8076651554
 20
-3.8189711177
 11
-24.2259827401
 21
-4.0505253305
  0
LINE
  5
6B0
100
AcDbEntity
  8
RACCORDO
100
AcDbLine
 62
253
  6
CONTINUOUS
 10
-21.9759827401
 20
-4.4716797618
 11
-17.3655112962
 21
-4.3912036834
  0
LINE
  5
6B1
100
AcDbEntity
  8
RACCORDO
100
AcDbLine
 62
253
  6
CONTINUOUS
 10
-16.7259827401
 20
-4.5601167177
 11
-16.8008639078
 21
-4.5601166929
  0
LINE
  5
6B2
100
AcDbEntity
  8
ASSI
100
AcDbLine
 62
253
  6
CONTINUOUS
 10
-16.7259827401
 20
-4.5601167177
 11
-16.8008639078
 21
-4.5601166929
  0
LINE
  5
6B3
100
AcDbEntity
  8
RACCORDO
100
AcDbLine
 62
253
  6
CONTINUOUS
 10
-24.2259827401
 20
-4.4402331774
 11
-23.7434324885
 21
-4.4402331774
  0
LINE
  5
6B4
100
AcDbEntity
  8
RACCORDO
100
AcDbLine
 62
253
  6
CONTINUOUS
 10
-17.3655112962
 20
-4.3912036834
 11
-16.7759827401
 21
-4.3912036834
  0
LINE
  5
6B5
100
AcDbEntity
  8
RACCORDO
100
AcDbLine
 62
253
  6
CONTINUOUS
 10
-21.9759827401
 20
-4.5019538827
 11
-23.7434324885
 21
-4.4402331774
  0
LINE
  5
6B6
100
AcDbEntity
  8
RACCORDO
100
AcDbLine
 62
7
  6
CONTINUOUS
 10
-20.0085164782
 20
-3.7344185609
 11
-21.9759827401
 21
-3.7515883789
  0
LINE
  5
6B7
100
AcDbEntity
  8
ASSI
100
AcDbLine
 62
7
  6
CONTINUOUS
 10
-20.0085164782
 20
-3.7344185609
 11
-21.9759827401
 21
-3.7515883789
  0
LINE
  5
6B8
100
AcDbEntity
  8
RACCORDO
100
AcDbLine
 62
253
  6
CONTINUOUS
 10
-20.6042869432
 20
-3.5396406163
 11
-20.0596997038
 21
-3.5348880755
  0
LINE
  5
6B9
100
AcDbEntity
  8
ASSI
100
AcDbLine
 62
253
  6
CONTINUOUS
 10
-20.6042869432
 20
-3.5396406163
 11
-20.0596997038
 21
-3.5348880755
  0
LINE
  5
6BA
100
AcDbEntity
  8
RACCORDO
100
AcDbLine
 62
253
  6
CONTINUOUS
 10
-19.5653978694
 20
-3.2348899382
 11
-19.5119664729
 21
-3.2344236495
  0
LINE
  5
6BB
100
AcDbEntity
  8
ASSI
100
AcDbLine
 62
253
  6
CONTINUOUS
 10
-19.5653978694
 20
-3.2348899382
 11
-19.5119664729
 21
-3.2344236495
  0
LINE
  5
6BC
100
AcDbEntity
  8
RACCORDO
100
AcDbLine
 62
253
  6
CONTINUOUS
 10
-19.7616332951
 20
-3.2348899382
 11
-19.5653978694
 21
-3.2348899382
  0
LINE
  5
6BD
100
AcDbEntity
  8
ASSI
100
AcDbLine
 62
253
  6
CONTINUOUS
 10
-19.7616332951
 20
-3.2348899382
 11
-19.5653978694
 21
-3.2348899382
  0
LINE
  5
6BE
100
AcDbEntity
  8
RACCORDO
100
AcDbLine
 62
7
  6
CONTINUOUS
 10
-21.9759827401
 20
-3.7515883789
 11
-22.4050200978
 21
-3.7478442266
  0
LINE
  5
6BF
100
AcDbEntity
  8
ASSI
100
AcDbLine
 62
7
  6
CONTINUOUS
 10
-21.9759827401
 20
-3.7515883789
 11
-22.4050200978
 21
-3.7478442266
  0
LINE
  5
6C0
100
AcDbEntity
  8
DRAFT
100
AcDbLine
 62
7
  6
CONTINUOUS
 10
-23.1550463765
 20
-3.8810077466
 11
-23.2259827401
 21
-3.8797695477
  0
LINE
  5
6C1
100
AcDbEntity
  8
RACCORDO
100
AcDbLine
 62
253
  6
CONTINUOUS
 10
-24.2259827401
 20
-2.7982039839
 11
-24.4224922588
 21
-2.7982039839
  0
LINE
  5
6C2
100
AcDbEntity
  8
RACCORDO
100
AcDbLine
 62
253
  6
CONTINUOUS
 10
-24.931218462
 20
-2.789324135
 11
-25.2259827401
 21
-2.789324135
  0
LINE
  5
6C3
100
AcDbEntity
  8
RACCORDO
100
AcDbLine
 62
7
  6
CONTINUOUS
 10
-24.931218462
 20
-3.0892784436
 11
-24.4224922588
 21
-3.0981582925
  0
LINE
  5
6C4
100
AcDbEntity
  8
RACCORDO
100
AcDbLine
 62
7
  6
CONTINUOUS
 10
-19.5119664729
 20
-3.0684153454
 11
-20.23925107
 21
-3.0557205456
  0
LINE
  5
6C5
100
AcDbEntity
  8
ASSI
100
AcDbLine
 62
7
  6
CONTINUOUS
 10
-19.5119664729
 20
-3.0684153454
 11
-20.23925107
 21
-3.0557205456
  0
LINE
  5
6C6
100
AcDbEntity
  8
RACCORDO
100
AcDbLine
 62
253
  6
CONTINUOUS
 10
-24.931218462
 20
-2.789324135
 11
-24.4224922588
 21
-2.7982816141
  0
LINE
  5
6C7
100
AcDbEntity
  8
RACCORDO
100
AcDbLine
 62
7
  6
CONTINUOUS
 10
-22.0928768457
 20
-1.5561135986
 11
-21.2794464252
 21
-1.5134835167
  0
LINE
  5
6C8
100
AcDbEntity
  8
RACCORDO
100
AcDbLine
 62
7
  6
CONTINUOUS
 10
-22.5182351071
 20
-0.6647710773
 11
-22.3477542308
 21
-0.6737056014
  0
LINE
  5
6C9
100
AcDbEntity
  8
RACCORDO
100
AcDbLine
 62
7
  6
CONTINUOUS
 10
-21.0406862723
 20
-0.7422061305
 11
-20.872616649
 21
-0.7510142862
  0
LWPOLYLINE
  5
6CA
100
AcDbEntity
  8
RACCORDO
100
AcDbPolyline
 62
253
  6
CONTINUOUS
 90
10
 70
0
 10
-23.7434324885
 20
-5.0398676736
 10
-23.7448817469
 20
-5.0375359881
 10
-23.7461907959
 20
-5.0306644048
 10
-23.7473477107
 20
-5.0193052462
 10
-23.7483407296
 20
-5.0035449807
 10
-23.7491620461
 20
-4.9835034065
 10
-23.7498078769
 20
-4.9593327132
 10
-23.7502729527
 20
-4.9312165903
 10
-23.7505524136
 20
-4.8993687411
 10
-23.7506455507
 20
-4.864031058
  0
LINE
  5
6CB
100
AcDbEntity
  8
RACCORDO
100
AcDbLine
 62
7
  6
CONTINUOUS
 10
-25.2259827401
 20
-2.789324135
 11
-25.2259827401
 21
0.0861473772
  0
LINE
  5
6CC
100
AcDbEntity
  8
RACCORDO
100
AcDbLine
 62
253
  6
CONTINUOUS
 10
-24.931218462
 20
0.0861473772
 11
-24.4224922588
 21
0.0950196028
  0
LINE
  5
6CD
100
AcDbEntity
  8
RACCORDO
100
AcDbLine
 62
7
  6
CONTINUOUS
 10
-19.5119664729
 20
0.3652385876
 11
-20.23925107
 21
0.3525437878
  0
LINE
  5
6CE
100
AcDbEntity
  8
ASSI
100
AcDbLine
 62
7
  6
CONTINUOUS
 10
-19.5119664729
 20
0.3652385876
 11
-20.23925107
 21
0.3525437878
  0
LINE
  5
6CF
100
AcDbEntity
  8
RACCORDO
100
AcDbLine
 62
7
  6
CONTINUOUS
 10
-24.931218462
 20
0.3861016858
 11
-24.4224922588
 21
0.3949815347
  0
LINE
  5
6D0
100
AcDbEntity
  8
DRAFT
100
AcDbLine
 62
7
  6
CONTINUOUS
 10
-21.2944575829
 20
0.460307687
 11
-21.734883873
 21
0.4526200175
  0
LINE
  5
6D1
100
AcDbEntity
  8
RACCORDO
100
AcDbLine
 62
253
  6
CONTINUOUS
 10
-25.2259827401
 20
0.0861473772
 11
-24.931218462
 21
0.0861473772
  0
LINE
  5
6D2
100
AcDbEntity
  8
RACCORDO
100
AcDbLine
 62
253
  6
CONTINUOUS
 10
-24.2259827401
 20
0.0950272261
 11
-24.4224922588
 21
0.0950272261
  0
LWPOLYLINE
  5
6D3
100
AcDbEntity
  8
RACCORDO
100
AcDbPolyline
 62
253
  6
CONTINUOUS
 90
7
 70
0
 10
-24.931218462
 20
-3.0892784436
 10
-24.9318592173
 20
-3.0866797938
 10
-24.9323987593
 20
-3.0789496691
 10
-24.9328276863
 20
-3.0662171265
 10
-24.9331385248
 20
-3.0486953636
 10
-24.9333257392
 20
-3.026684481
 10
-24.9333859866
 20
-3.0005718301
  0
LINE
  5
6D4
100
AcDbEntity
  8
RACCORDO
100
AcDbLine
 62
253
  6
CONTINUOUS
 10
-24.931218462
 20
0.0861473772
 11
-24.9323987593
 21
0.1640953388
  0
LINE
  5
6D5
100
AcDbEntity
  8
RACCORDO
100
AcDbLine
 62
253
  6
CONTINUOUS
 10
-24.9323987593
 20
0.1640953388
 11
-24.9331385248
 21
0.2367307778
  0
LWPOLYLINE
  5
6D6
100
AcDbEntity
  8
RACCORDO
100
AcDbPolyline
 62
253
  6
CONTINUOUS
 90
8
 70
0
 10
-24.9331385248
 20
0.2367307778
 10
-24.9333859866
 20
0.2990313909
 10
-24.9333179875
 20
0.3249623316
 10
-24.9331226997
 20
0.3467467015
 10
-24.9328060193
 20
0.3639102394
 10
-24.9323768222
 20
0.3762289479
 10
-24.9318440023
 20
0.3836341785
 10
-24.931218462
 20
0.3861016858
  0
LINE
  5
6D7
100
AcDbEntity
  8
RACCORDO
100
AcDbLine
 62
253
  6
CONTINUOUS
 10
-24.931218462
 20
-2.789324135
 11
-24.931218462
 21
0.0861473772
  0
LINE
  5
6D8
100
AcDbEntity
  8
RACCORDO
100
AcDbLine
 62
253
  6
CONTINUOUS
 10
-24.9333859866
 20
-3.0005718301
 11
-24.9331226997
 21
-2.9377728238
  0
LINE
  5
6D9
100
AcDbEntity
  8
RACCORDO
100
AcDbLine
 62
253
  6
CONTINUOUS
 10
-24.9331226997
 20
-2.9377728238
 11
-24.9323768222
 21
-2.8655592849
  0
LINE
  5
6DA
100
AcDbEntity
  8
RACCORDO
100
AcDbLine
 62
253
  6
CONTINUOUS
 10
-24.9323768222
 20
-2.8655592849
 11
-24.931218462
 21
-2.789324135
  0
LINE
  5
6DB
100
AcDbEntity
  8
DRAFT
100
AcDbLine
 62
7
  6
CONTINUOUS
 10
-23.1550463765
 20
1.1778309888
 11
-23.2259827401
 21
1.1765927899
  0
LINE
  5
6DC
100
AcDbEntity
  8
RACCORDO
100
AcDbLine
 62
7
  6
CONTINUOUS
 10
-21.9759827401
 20
1.0484116211
 11
-22.4050200978
 21
1.0446674688
  0
LINE
  5
6DD
100
AcDbEntity
  8
ASSI
100
AcDbLine
 62
7
  6
CONTINUOUS
 10
-21.9759827401
 20
1.0484116211
 11
-22.4050200978
 21
1.0446674688
  0
LINE
  5
6DE
100
AcDbEntity
  8
RACCORDO
100
AcDbLine
 62
253
  6
CONTINUOUS
 10
-19.7616332951
 20
0.5317131804
 11
-19.5653978695
 21
0.5317131901
  0
LINE
  5
6DF
100
AcDbEntity
  8
ASSI
100
AcDbLine
 62
253
  6
CONTINUOUS
 10
-19.7616332951
 20
0.5317131804
 11
-19.5653978695
 21
0.5317131901
  0
LINE
  5
6E0
100
AcDbEntity
  8
RACCORDO
100
AcDbLine
 62
253
  6
CONTINUOUS
 10
-19.5653978694
 20
0.5317131804
 11
-19.5119664729
 21
0.5312468917
  0
LINE
  5
6E1
100
AcDbEntity
  8
ASSI
100
AcDbLine
 62
253
  6
CONTINUOUS
 10
-19.5653978694
 20
0.5317131804
 11
-19.5119664729
 21
0.5312468917
  0
LINE
  5
6E2
100
AcDbEntity
  8
RACCORDO
100
AcDbLine
 62
253
  6
CONTINUOUS
 10
-20.0596997038
 20
0.8317113177
 11
-20.6042869432
 21
0.8364638585
  0
LINE
  5
6E3
100
AcDbEntity
  8
ASSI
100
AcDbLine
 62
253
  6
CONTINUOUS
 10
-20.0596997038
 20
0.8317113177
 11
-20.6042869432
 21
0.8364638585
  0
LINE
  5
6E4
100
AcDbEntity
  8
RACCORDO
100
AcDbLine
 62
7
  6
CONTINUOUS
 10
-20.0085164782
 20
1.0312418032
 11
-21.9759827401
 21
1.0484116211
  0
LINE
  5
6E5
100
AcDbEntity
  8
ASSI
100
AcDbLine
 62
7
  6
CONTINUOUS
 10
-20.0085164782
 20
1.0312418032
 11
-21.9759827401
 21
1.0484116211
  0
LWPOLYLINE
  5
6E6
100
AcDbEntity
  8
DRAFT
100
AcDbPolyline
 62
7
  6
CONTINUOUS
 90
10
 70
0
 10
-22.0749755594
 20
-1.5459874731
 10
-22.0967254266
 20
-1.5326100492
 10
-22.1185944804
 20
-1.5193636322
 10
-22.1405827208
 20
-1.5062482221
 10
-22.1626908712
 20
-1.4932689092
 10
-22.1849182081
 20
-1.4804206031
 10
-22.2072625612
 20
-1.4676880332
 10
-22.2297232068
 20
-1.4550661093
 10
-22.2523008684
 20
-1.4425599214
 10
-22.2749955461
 20
-1.4301694698
  0
LWPOLYLINE
  5
6E7
100
AcDbEntity
  8
ASSI
100
AcDbPolyline
 62
7
  6
CONTINUOUS
 90
10
 70
0
 10
-22.0749755594
 20
-1.5459874731
 10
-22.0967254266
 20
-1.5326100492
 10
-22.1185944804
 20
-1.5193636322
 10
-22.1405827208
 20
-1.5062482221
 10
-22.1626908712
 20
-1.4932689092
 10
-22.1849182081
 20
-1.4804206031
 10
-22.2072625612
 20
-1.4676880332
 10
-22.2297232068
 20
-1.4550661093
 10
-22.2523008684
 20
-1.4425599214
 10
-22.2749955461
 20
-1.4301694698
  0
LWPOLYLINE
  5
6E8
100
AcDbEntity
  8
RACCORDO
100
AcDbPolyline
 62
253
  6
CONTINUOUS
 90
6
 70
0
 10
-24.4213449559
 20
0.3668759991
 10
-24.4215116754
 20
0.3769024871
 10
-24.4217080757
 20
0.3847738472
 10
-24.4219334506
 20
0.3904322643
 10
-24.4221936297
 20
0.3938421233
 10
-24.4224916753
 20
0.3949815348
  0
LINE
  5
6E9
100
AcDbEntity
  8
RACCORDO
100
AcDbLine
 62
253
  6
CONTINUOUS
 10
-24.4215116754
 20
-2.9008405368
 11
-24.4224916753
 21
-2.7982816243
  0
LINE
  5
6EA
100
AcDbEntity
  8
RACCORDO
100
AcDbLine
 62
253
  6
CONTINUOUS
 10
-24.4211237357
 20
0.3407259056
 11
-24.4213449559
 21
0.3668759991
  0
LINE
  5
6EB
100
AcDbEntity
  8
RACCORDO
100
AcDbLine
 62
253
  6
CONTINUOUS
 10
-24.4210669454
 20
-2.9910714945
 11
-24.4215116754
 21
-2.9008405368
  0
LINE
  5
6EC
100
AcDbEntity
  8
RACCORDO
100
AcDbLine
 62
253
  6
CONTINUOUS
 10
-24.4210473999
 20
0.3071485627
 11
-24.4211237357
 21
0.3407259056
  0
LINE
  5
6ED
100
AcDbEntity
  8
RACCORDO
100
AcDbLine
 62
253
  6
CONTINUOUS
 10
-24.4224922588
 20
-2.7982816141
 11
-24.4224922588
 21
0.0950196028
  0
LINE
  5
6EE
100
AcDbEntity
  8
DRAFT
100
AcDbLine
 62
7
  6
CONTINUOUS
 10
-24.2259827401
 20
1.3473485727
 11
-24.2259827401
 21
-4.0505253305
  0
LINE
  5
6EF
100
AcDbEntity
  8
RACCORDO
100
AcDbLine
 62
7
  6
CONTINUOUS
 10
-24.2259827401
 20
-4.5401722601
 11
-24.2259827401
 21
-4.0505253305
  0
LINE
  5
6F0
100
AcDbEntity
  8
RACCORDO
100
AcDbLine
 62
7
  6
CONTINUOUS
 10
-24.2259827401
 20
1.3473485727
 11
-24.2259827401
 21
1.8369955023
  0
LINE
  5
6F1
100
AcDbEntity
  8
RACCORDO
100
AcDbLine
 62
253
  6
CONTINUOUS
 10
-24.4210668181
 20
-3.0280061859
 11
-24.4210669454
 21
-2.9910714945
  0
LINE
  5
6F2
100
AcDbEntity
  8
RACCORDO
100
AcDbLine
 62
253
  6
CONTINUOUS
 10
-24.4212150045
 20
0.2450703848
 11
-24.4210473999
 21
0.3071485627
  0
LINE
  5
6F3
100
AcDbEntity
  8
RACCORDO
100
AcDbLine
 62
253
  6
CONTINUOUS
 10
-24.4219338939
 20
0.147140147
 11
-24.4212150045
 21
0.2450703848
  0
LINE
  5
6F4
100
AcDbEntity
  8
RACCORDO
100
AcDbLine
 62
253
  6
CONTINUOUS
 10
-24.4224923161
 20
0.0950196018
 11
-24.4219338939
 21
0.147140147
  0
LWPOLYLINE
  5
6F5
100
AcDbEntity
  8
RACCORDO
100
AcDbPolyline
 62
253
  6
CONTINUOUS
 90
8
 70
0
 10
-24.4224923161
 20
-3.0981582914
 10
-24.4221942576
 20
-3.0970219291
 10
-24.4219338939
 20
-3.0936092866
 10
-24.4217082358
 20
-3.0879466479
 10
-24.4215115237
 20
-3.0800765911
 10
-24.4213446054
 20
-3.0700596993
 10
-24.4212150045
 20
-3.0579761575
 10
-24.4210668181
 20
-3.0280061859
  0
LWPOLYLINE
  5
6F6
100
AcDbEntity
  8
DRAFT
100
AcDbPolyline
 62
7
  6
CONTINUOUS
 90
10
 70
0
 10
-22.0749755594
 20
-1.1571892846
 10
-22.0967254266
 20
-1.1705667086
 10
-22.1185944804
 20
-1.1838131256
 10
-22.1405827208
 20
-1.1969285357
 10
-22.1626908712
 20
-1.2099078486
 10
-22.1849182081
 20
-1.2227561547
 10
-22.2072625612
 20
-1.2354887246
 10
-22.2297232068
 20
-1.2481106485
 10
-22.2523008684
 20
-1.2606168363
 10
-22.2749955461
 20
-1.273007288
  0
LWPOLYLINE
  5
6F7
100
AcDbEntity
  8
ASSI
100
AcDbPolyline
 62
7
  6
CONTINUOUS
 90
10
 70
0
 10
-22.0749755594
 20
-1.1571892846
 10
-22.0967254266
 20
-1.1705667086
 10
-22.1185944804
 20
-1.1838131256
 10
-22.1405827208
 20
-1.1969285357
 10
-22.1626908712
 20
-1.2099078486
 10
-22.1849182081
 20
-1.2227561547
 10
-22.2072625612
 20
-1.2354887246
 10
-22.2297232068
 20
-1.2481106485
 10
-22.2523008684
 20
-1.2606168363
 10
-22.2749955461
 20
-1.273007288
  0
LINE
  5
6F8
100
AcDbEntity
  8
RACCORDO
100
AcDbLine
 62
253
  6
CONTINUOUS
 10
-23.7434324885
 20
1.7370564196
 11
-21.9759827401
 21
1.7987771249
  0
LINE
  5
6F9
100
AcDbEntity
  8
RACCORDO
100
AcDbLine
 62
253
  6
CONTINUOUS
 10
-17.3655112962
 20
1.6880269256
 11
-16.7759827401
 21
1.6880269199
  0
LINE
  5
6FA
100
AcDbEntity
  8
RACCORDO
100
AcDbLine
 62
253
  6
CONTINUOUS
 10
-24.2259827401
 20
1.7370564196
 11
-23.7434324885
 21
1.737056423
  0
LINE
  5
6FB
100
AcDbEntity
  8
RACCORDO
100
AcDbLine
 62
253
  6
CONTINUOUS
 10
-16.7259827401
 20
1.8569399599
 11
-16.8008639144
 21
1.8569399599
  0
LINE
  5
6FC
100
AcDbEntity
  8
ASSI
100
AcDbLine
 62
253
  6
CONTINUOUS
 10
-16.7259827401
 20
1.8569399599
 11
-16.8008639144
 21
1.8569399599
  0
LINE
  5
6FD
100
AcDbEntity
  8
RACCORDO
100
AcDbLine
 62
253
  6
CONTINUOUS
 10
-17.3655112962
 20
1.6880269256
 11
-21.9759827401
 21
1.768503004
  0
LINE
  5
6FE
100
AcDbEntity
  8
RACCORDO
100
AcDbLine
 62
7
  6
CONTINUOUS
 10
-19.8076651554
 20
1.1157943599
 11
-24.2259827401
 21
1.3473485727
  0
LINE
  5
6FF
100
AcDbEntity
  8
RACCORDO
100
AcDbLine
 62
7
  6
CONTINUOUS
 10
-20.0094248196
 20
1.02853819
 11
-20.061444878
 21
1.0317037023
  0
LINE
  5
700
100
AcDbEntity
  8
ASSI
100
AcDbLine
 62
7
  6
CONTINUOUS
 10
-20.0094248196
 20
1.02853819
 11
-20.061444878
 21
1.0317037023
  0
LINE
  5
701
100
AcDbEntity
  8
0
100
AcDbLine
 62
7
  6
CONTINUOUS
 10
-20.8067425003
 20
-0.1276773573
 11
-20.9804740685
 21
-0.0811261239
  0
LWPOLYLINE
  5
702
100
AcDbEntity
  8
DRAFT
100
AcDbPolyline
 62
7
  6
CONTINUOUS
 90
10
 70
0
 10
-21.0772442221
 20
-1.272858436
 10
-21.0999759861
 20
-1.2604457635
 10
-21.1225941077
 20
-1.2479145772
 10
-21.1450985868
 20
-1.235264877
 10
-21.1674901544
 20
-1.2225018991
 10
-21.1897680795
 20
-1.2096204072
 10
-21.2119301694
 20
-1.1966046927
 10
-21.2339756934
 20
-1.1834495193
 10
-21.2559053822
 20
-1.1701601233
 10
-21.2777192358
 20
-1.1567365046
  0
LWPOLYLINE
  5
703
100
AcDbEntity
  8
ASSI
100
AcDbPolyline
 62
7
  6
CONTINUOUS
 90
10
 70
0
 10
-21.0772442221
 20
-1.272858436
 10
-21.0999759861
 20
-1.2604457635
 10
-21.1225941077
 20
-1.2479145772
 10
-21.1450985868
 20
-1.235264877
 10
-21.1674901544
 20
-1.2225018991
 10
-21.1897680795
 20
-1.2096204072
 10
-21.2119301694
 20
-1.1966046927
 10
-21.2339756934
 20
-1.1834495193
 10
-21.2559053822
 20
-1.1701601233
 10
-21.2777192358
 20
-1.1567365046
  0
LINE
  5
704
100
AcDbEntity
  8
RACCORDO
100
AcDbLine
 62
253
  6
CONTINUOUS
 10
-23.7434324885
 20
1.7370564196
 11
-23.7461905667
 21
1.8411216549
  0
LINE
  5
705
100
AcDbEntity
  8
RACCORDO
100
AcDbLine
 62
253
  6
CONTINUOUS
 10
-23.7461905667
 20
1.8411216549
 11
-23.7483409492
 21
1.9420255341
  0
LINE
  5
706
100
AcDbEntity
  8
RACCORDO
100
AcDbLine
 62
253
  6
CONTINUOUS
 10
-23.7483409492
 20
1.9420255341
 11
-23.7498088515
 21
2.0367073851
  0
LWPOLYLINE
  5
707
100
AcDbEntity
  8
RACCORDO
100
AcDbPolyline
 62
253
  6
CONTINUOUS
 90
12
 70
0
 10
-23.7498088515
 20
2.0367073851
 10
-23.7505528175
 20
2.1222952042
 10
-23.7506455507
 20
2.1608543002
 10
-23.7505524136
 20
2.1961919833
 10
-23.7502729527
 20
2.2280398325
 10
-23.7498078769
 20
2.2561559554
 10
-23.7491620461
 20
2.2803266487
 10
-23.7483407295
 20
2.3003682229
 10
-23.7473477107
 20
2.3161284884
 10
-23.7461907959
 20
2.327487647
 10
-23.7448817469
 20
2.3343592303
 10
-23.7434324885
 20
2.3366909159
  0
LINE
  5
708
100
AcDbEntity
  8
RACCORDO
100
AcDbLine
 62
253
  6
CONTINUOUS
 10
-23.7434324885
 20
-4.4402331774
 11
-23.7434324885
 21
-4.0252359434
  0
LINE
  5
709
100
AcDbEntity
  8
RACCORDO
100
AcDbLine
 62
253
  6
CONTINUOUS
 10
-23.7434324885
 20
1.3220591856
 11
-23.7434324885
 21
1.7370564196
  0
LINE
  5
70A
100
AcDbEntity
  8
DRAFT
100
AcDbLine
 62
7
  6
CONTINUOUS
 10
-23.2259827401
 20
1.2949407934
 11
-23.2259827401
 21
-3.9981175512
  0
LINE
  5
70B
100
AcDbEntity
  8
RACCORDO
100
AcDbLine
 62
7
  6
CONTINUOUS
 10
-23.1759827401
 20
-3.7384363957
 11
-23.1759827401
 21
1.0352596379
  0
LINE
  5
70C
100
AcDbEntity
  8
ASSI
100
AcDbLine
 62
7
  6
CONTINUOUS
 10
-23.1759827401
 20
-3.7384363957
 11
-23.1759827401
 21
1.0352596379
  0
LINE
  5
70D
100
AcDbEntity
  8
RACCORDO
100
AcDbLine
 62
253
  6
CONTINUOUS
 10
-23.7506455507
 20
-4.864031058
 11
-23.7502737586
 21
-4.7839845279
  0
LINE
  5
70E
100
AcDbEntity
  8
RACCORDO
100
AcDbLine
 62
253
  6
CONTINUOUS
 10
-23.7502737586
 20
-4.7839845279
 11
-23.7491627585
 21
-4.6935059505
  0
LINE
  5
70F
100
AcDbEntity
  8
RACCORDO
100
AcDbLine
 62
253
  6
CONTINUOUS
 10
-23.7491627585
 20
-4.6935059505
 11
-23.7473475755
 21
-4.5953401695
  0
LWPOLYLINE
  5
710
100
AcDbEntity
  8
RACCORDO
100
AcDbPolyline
 62
253
  6
CONTINUOUS
 90
3
 70
0
 10
-23.7473475755
 20
-4.5953401695
 10
-23.7448815626
 20
-4.4924648142
 10
-23.7434324885
 20
-4.4402331774
  0
LWPOLYLINE
  5
711
100
AcDbEntity
  8
DRAFT
100
AcDbPolyline
 62
7
  6
CONTINUOUS
 90
10
 70
0
 10
-21.0772442221
 20
-1.4303183218
 10
-21.0999759861
 20
-1.4427309942
 10
-21.1225941077
 20
-1.4552621806
 10
-21.1450985868
 20
-1.4679118808
 10
-21.1674901544
 20
-1.4806748587
 10
-21.1897680795
 20
-1.4935563506
 10
-21.2119301694
 20
-1.5065720651
 10
-21.2339756934
 20
-1.5197272385
 10
-21.2559053822
 20
-1.5330166345
 10
-21.2777192358
 20
-1.5464402532
  0
LWPOLYLINE
  5
712
100
AcDbEntity
  8
ASSI
100
AcDbPolyline
 62
7
  6
CONTINUOUS
 90
10
 70
0
 10
-21.0772442221
 20
-1.4303183218
 10
-21.0999759861
 20
-1.4427309942
 10
-21.1225941077
 20
-1.4552621806
 10
-21.1450985868
 20
-1.4679118808
 10
-21.1674901544
 20
-1.4806748587
 10
-21.1897680795
 20
-1.4935563506
 10
-21.2119301694
 20
-1.5065720651
 10
-21.2339756934
 20
-1.5197272385
 10
-21.2559053822
 20
-1.5330166345
 10
-21.2777192358
 20
-1.5464402532
  0
LINE
  5
713
100
AcDbEntity
  8
RACCORDO
100
AcDbLine
 62
7
  6
CONTINUOUS
 10
-23.7434324885
 20
2.3366909159
 11
-21.9759827401
 21
2.3984116211
  0
LINE
  5
714
100
AcDbEntity
  8
DRAFT
100
AcDbLine
 62
7
  6
CONTINUOUS
 10
-20.4759827401
 20
2.4507927753
 11
-21.9759827401
 21
2.3984116211
  0
LINE
  5
715
100
AcDbEntity
  8
RACCORDO
100
AcDbLine
 62
7
  6
CONTINUOUS
 10
-21.9759827401
 20
2.3984116211
 11
-22.9759827401
 21
2.3896847533
  0
LINE
  5
716
100
AcDbEntity
  8
ASSI
100
AcDbLine
 62
7
  6
CONTINUOUS
 10
-21.9759827401
 20
2.3984116211
 11
-22.9759827401
 21
2.3896847533
  0
LINE
  5
717
100
AcDbEntity
  8
RACCORDO
100
AcDbLine
 62
7
  6
CONTINUOUS
 10
-21.9759827401
 20
2.3984116211
 11
-17.2216194724
 21
2.3569209214
  0
LINE
  5
718
100
AcDbEntity
  8
ASSI
100
AcDbLine
 62
7
  6
CONTINUOUS
 10
-21.9759827401
 20
2.3984116211
 11
-17.2216194724
 21
2.3569209214
  0
LINE
  5
719
100
AcDbEntity
  8
RACCORDO
100
AcDbLine
 62
7
  6
CONTINUOUS
 10
-17.3655112962
 20
2.2879355427
 11
-21.9759827401
 21
2.3684116211
  0
LINE
  5
71A
100
AcDbEntity
  8
RACCORDO
100
AcDbLine
 62
7
  6
CONTINUOUS
 10
-19.972658064
 20
1.0229827557
 11
-20.0094248196
 21
1.02853819
  0
LINE
  5
71B
100
AcDbEntity
  8
ASSI
100
AcDbLine
 62
7
  6
CONTINUOUS
 10
-19.972658064
 20
1.0229827557
 11
-20.0094248196
 21
1.02853819
  0
LINE
  5
71C
100
AcDbEntity
  8
RACCORDO
100
AcDbLine
 62
7
  6
CONTINUOUS
 10
-22.9759827401
 20
-5.0928615111
 11
-22.9759827401
 21
-5.0666676094
  0
LINE
  5
71D
100
AcDbEntity
  8
ASSI
100
AcDbLine
 62
7
  6
CONTINUOUS
 10
-22.9759827401
 20
-5.0928615111
 11
-22.9759827401
 21
-5.0666676094
  0
LINE
  5
71E
100
AcDbEntity
  8
RACCORDO
100
AcDbLine
 62
7
  6
CONTINUOUS
 10
-22.9759827401
 20
2.3634908516
 11
-22.9759827401
 21
2.3896847533
  0
LINE
  5
71F
100
AcDbEntity
  8
ASSI
100
AcDbLine
 62
7
  6
CONTINUOUS
 10
-22.9759827401
 20
2.3634908516
 11
-22.9759827401
 21
2.3896847533
  0
LINE
  5
720
100
AcDbEntity
  8
RACCORDO
100
AcDbLine
 62
253
  6
CONTINUOUS
 10
-22.5628068289
 20
-5.0964672427
 11
-22.5628068289
 21
-5.0810960302
  0
LINE
  5
721
100
AcDbEntity
  8
ASSI
100
AcDbLine
 62
253
  6
CONTINUOUS
 10
-22.5628068289
 20
-5.0964672427
 11
-22.5628068289
 21
-5.0810960302
  0
LINE
  5
722
100
AcDbEntity
  8
RACCORDO
100
AcDbLine
 62
253
  6
CONTINUOUS
 10
-22.5628068289
 20
2.3779192724
 11
-22.5628068289
 21
2.3932904849
  0
LINE
  5
723
100
AcDbEntity
  8
ASSI
100
AcDbLine
 62
253
  6
CONTINUOUS
 10
-22.5628068289
 20
2.3779192724
 11
-22.5628068289
 21
2.3932904849
  0
LINE
  5
724
100
AcDbEntity
  8
DRAFT
100
AcDbLine
 62
7
  6
CONTINUOUS
 10
-22.2749955461
 20
-1.273007288
 11
-22.2749955461
 21
-1.4301694698
  0
LINE
  5
725
100
AcDbEntity
  8
ASSI
100
AcDbLine
 62
7
  6
CONTINUOUS
 10
-22.2749955461
 20
-1.273007288
 11
-22.2749955461
 21
-1.4301694698
  0
LINE
  5
726
100
AcDbEntity
  8
DRAFT
100
AcDbLine
 62
7
  6
CONTINUOUS
 10
-22.0749755594
 20
-1.1571892846
 11
-22.0749755594
 21
-1.5459874731
  0
LINE
  5
727
100
AcDbEntity
  8
ASSI
100
AcDbLine
 62
7
  6
CONTINUOUS
 10
-22.0749755594
 20
-1.1571892846
 11
-22.0749755594
 21
-1.5459874731
  0
LINE
  5
728
100
AcDbEntity
  8
RACCORDO
100
AcDbLine
 62
7
  6
CONTINUOUS
 10
-21.9759827401
 20
-5.1015883789
 11
-21.9759827401
 21
-3.9326078271
  0
LINE
  5
729
100
AcDbEntity
  8
DRAFT
100
AcDbLine
 62
7
  6
CONTINUOUS
 10
-21.9759827401
 20
-3.9326078271
 11
-21.9759827401
 21
-3.4090049279
  0
LINE
  5
72A
100
AcDbEntity
  8
ASSI
100
AcDbLine
 62
7
  6
CONTINUOUS
 10
-21.9759827401
 20
-3.9326078271
 11
-21.9759827401
 21
-3.4090049279
  0
LINE
  5
72B
100
AcDbEntity
  8
DRAFT
100
AcDbLine
 62
7
  6
CONTINUOUS
 10
-21.9759827401
 20
0.7058281701
 11
-21.9759827401
 21
1.2294310693
  0
LINE
  5
72C
100
AcDbEntity
  8
ASSI
100
AcDbLine
 62
7
  6
CONTINUOUS
 10
-21.9759827401
 20
0.7058281701
 11
-21.9759827401
 21
1.2294310693
  0
LINE
  5
72D
100
AcDbEntity
  8
RACCORDO
100
AcDbLine
 62
7
  6
CONTINUOUS
 10
-21.9759827401
 20
1.2294310693
 11
-21.9759827401
 21
2.3984116211
  0
LINE
  5
72E
100
AcDbEntity
  8
DRAFT
100
AcDbLine
 62
7
  6
CONTINUOUS
 10
-21.2777192358
 20
-1.5464402532
 11
-21.2777192358
 21
-1.1567365046
  0
LINE
  5
72F
100
AcDbEntity
  8
ASSI
100
AcDbLine
 62
7
  6
CONTINUOUS
 10
-21.2777192358
 20
-1.5464402532
 11
-21.2777192358
 21
-1.1567365046
  0
LINE
  5
730
100
AcDbEntity
  8
DRAFT
100
AcDbLine
 62
7
  6
CONTINUOUS
 10
-21.0772442221
 20
-1.4303183218
 11
-21.0772442221
 21
-1.272858436
  0
LINE
  5
731
100
AcDbEntity
  8
ASSI
100
AcDbLine
 62
7
  6
CONTINUOUS
 10
-21.0772442221
 20
-1.4303183218
 11
-21.0772442221
 21
-1.272858436
  0
LINE
  5
732
100
AcDbEntity
  8
0
100
AcDbLine
 62
7
  6
CONTINUOUS
 10
-21.4829918138
 20
-1.6324644311
 11
-21.4535559279
 21
-1.5226082091
  0
LINE
  5
733
100
AcDbEntity
  8
DRAFT
100
AcDbLine
 62
7
  6
CONTINUOUS
 10
-21.4515185823
 20
-3.0604860539
 11
-21.4971142468
 21
-3.2306513906
  0
LINE
  5
734
100
AcDbEntity
  8
0
100
AcDbLine
 62
7
  6
CONTINUOUS
 10
-21.3853762449
 20
-3.2000098208
 11
-21.336133053
 21
-3.0162317266
  0
LINE
  5
735
100
AcDbEntity
  8
0
100
AcDbLine
 62
7
  6
CONTINUOUS
 10
-21.0499574714
 20
-1.9482099165
 11
-21.0000696034
 21
-1.7620258582
  0
LINE
  5
736
100
AcDbEntity
  8
DRAFT
100
AcDbLine
 62
7
  6
CONTINUOUS
 10
-20.4759827401
 20
2.4507927753
 11
-20.4759827401
 21
2.3853213194
  0
LINE
  5
737
100
AcDbEntity
  8
DRAFT
100
AcDbLine
 62
7
  6
CONTINUOUS
 10
-20.4759827401
 20
-5.0884980772
 11
-20.4759827401
 21
-5.1539695331
  0
LWPOLYLINE
  5
738
100
AcDbEntity
  8
RACCORDO
100
AcDbPolyline
 62
253
  6
CONTINUOUS
 90
16
 70
0
 10
-19.7616332951
 20
0.5317131804
 10
-19.7633711365
 20
0.5633294721
 10
-19.7682017955
 20
0.5939982724
 10
-19.7761252721
 20
0.6237195814
 10
-19.7872944454
 20
0.6528095698
 10
-19.8015564363
 20
0.6809520669
 10
-19.8184526071
 20
0.7071985606
 10
-19.8380678515
 20
0.7314717905
 10
-19.8603172759
 20
0.7538490171
 10
-19.8844875613
 20
0.7736135098
 10
-19.9106639355
 20
0.79068148
 10
-19.9387611709
 20
0.8051367163
 10
-19.9678102655
 20
0.8165138547
 10
-19.997488219
 20
0.8246577737
 10
-20.0281180317
 20
0.8297235947
 10
-20.0596997038
 20
0.8317113177
  0
LWPOLYLINE
  5
739
100
AcDbEntity
  8
ASSI
100
AcDbPolyline
 62
253
  6
CONTINUOUS
 90
16
 70
0
 10
-19.7616332951
 20
0.5317131804
 10
-19.7633711365
 20
0.5633294721
 10
-19.7682017955
 20
0.5939982724
 10
-19.7761252721
 20
0.6237195814
 10
-19.7872944454
 20
0.6528095698
 10
-19.8015564363
 20
0.6809520669
 10
-19.8184526071
 20
0.7071985606
 10
-19.8380678515
 20
0.7314717905
 10
-19.8603172759
 20
0.7538490171
 10
-19.8844875613
 20
0.7736135098
 10
-19.9106639355
 20
0.79068148
 10
-19.9387611709
 20
0.8051367163
 10
-19.9678102655
 20
0.8165138547
 10
-19.997488219
 20
0.8246577737
 10
-20.0281180317
 20
0.8297235947
 10
-20.0596997038
 20
0.8317113177
  0
LWPOLYLINE
  5
73A
100
AcDbEntity
  8
RACCORDO
100
AcDbPolyline
 62
253
  6
CONTINUOUS
 90
15
 70
0
 10
-19.5653978694
 20
0.5317131804
 10
-19.5681040339
 20
0.5836419059
 10
-19.5761952756
 20
0.6350217135
 10
-19.5895881966
 20
0.6852960031
 10
-19.6081442788
 20
0.7339233577
 10
-19.6316652469
 20
0.7803713797
 10
-19.6598911565
 20
0.8241244475
 10
-19.6925143595
 20
0.8647052625
 10
-19.7291838548
 20
0.9016775684
 10
-19.76950016
 20
0.9346403466
 10
-19.8130256674
 20
0.9632354176
 10
-19.8592910284
 20
0.9871544316
 10
-19.9077981862
 20
1.0061401095
 10
-19.958023966
 20
1.0199855287
 10
-19.972658064
 20
1.0229827557
  0
LWPOLYLINE
  5
73B
100
AcDbEntity
  8
ASSI
100
AcDbPolyline
 62
253
  6
CONTINUOUS
 90
15
 70
0
 10
-19.5653978694
 20
0.5317131804
 10
-19.5681040339
 20
0.5836419059
 10
-19.5761952756
 20
0.6350217135
 10
-19.5895881966
 20
0.6852960031
 10
-19.6081442788
 20
0.7339233577
 10
-19.6316652469
 20
0.7803713797
 10
-19.6598911565
 20
0.8241244475
 10
-19.6925143595
 20
0.8647052625
 10
-19.7291838548
 20
0.9016775684
 10
-19.76950016
 20
0.9346403466
 10
-19.8130256674
 20
0.9632354176
 10
-19.8592910284
 20
0.9871544316
 10
-19.9077981862
 20
1.0061401095
 10
-19.958023966
 20
1.0199855287
 10
-19.972658064
 20
1.0229827557
  0
LWPOLYLINE
  5
73C
100
AcDbEntity
  8
RACCORDO
100
AcDbPolyline
 62
253
  6
CONTINUOUS
 90
6
 70
0
 10
-20.0593947415
 20
0.9602535735
 10
-20.0596098427
 20
0.9849034948
 10
-20.0599337093
 20
1.00489965
 10
-20.0603565023
 20
1.0196345832
 10
-20.0608653782
 20
1.0286606674
 10
-20.061444878
 20
1.0317037023
  0
LWPOLYLINE
  5
73D
100
AcDbEntity
  8
ASSI
100
AcDbPolyline
 62
253
  6
CONTINUOUS
 90
6
 70
0
 10
-20.0593947415
 20
0.9602535735
 10
-20.0596098427
 20
0.9849034948
 10
-20.0599337093
 20
1.00489965
 10
-20.0603565023
 20
1.0196345832
 10
-20.0608653782
 20
1.0286606674
 10
-20.061444878
 20
1.0317037023
  0
LINE
  5
73E
100
AcDbEntity
  8
RACCORDO
100
AcDbLine
 62
253
  6
CONTINUOUS
 10
-20.0596997038
 20
-3.5348880755
 11
-20.0593135465
 21
-3.603278075
  0
LINE
  5
73F
100
AcDbEntity
  8
ASSI
100
AcDbLine
 62
253
  6
CONTINUOUS
 10
-20.0596997038
 20
-3.5348880755
 11
-20.0593135465
 21
-3.603278075
  0
LINE
  5
740
100
AcDbEntity
  8
RACCORDO
100
AcDbLine
 62
253
  6
CONTINUOUS
 10
-19.7616332951
 20
-3.2348899382
 11
-19.7616332951
 21
-3.0640573948
  0
LINE
  5
741
100
AcDbEntity
  8
ASSI
100
AcDbLine
 62
253
  6
CONTINUOUS
 10
-19.7616332951
 20
-3.2348899382
 11
-19.7616332951
 21
-3.0640573948
  0
LINE
  5
742
100
AcDbEntity
  8
RACCORDO
100
AcDbLine
 62
253
  6
CONTINUOUS
 10
-19.7616332951
 20
0.360880637
 11
-19.7616332951
 21
0.5317131804
  0
LINE
  5
743
100
AcDbEntity
  8
ASSI
100
AcDbLine
 62
253
  6
CONTINUOUS
 10
-19.7616332951
 20
0.360880637
 11
-19.7616332951
 21
0.5317131804
  0
LINE
  5
744
100
AcDbEntity
  8
RACCORDO
100
AcDbLine
 62
253
  6
CONTINUOUS
 10
-19.5653978694
 20
-3.2348899382
 11
-19.5653978694
 21
-3.0674826969
  0
LINE
  5
745
100
AcDbEntity
  8
ASSI
100
AcDbLine
 62
253
  6
CONTINUOUS
 10
-19.5653978694
 20
-3.2348899382
 11
-19.5653978694
 21
-3.0674826969
  0
LINE
  5
746
100
AcDbEntity
  8
RACCORDO
100
AcDbLine
 62
253
  6
CONTINUOUS
 10
-19.5653978694
 20
0.3643059391
 11
-19.5653978694
 21
0.5317131804
  0
LINE
  5
747
100
AcDbEntity
  8
ASSI
100
AcDbLine
 62
253
  6
CONTINUOUS
 10
-19.5653978694
 20
0.3643059391
 11
-19.5653978694
 21
0.5317131804
  0
LINE
  5
748
100
AcDbEntity
  8
RACCORDO
100
AcDbLine
 62
7
  6
CONTINUOUS
 10
-19.5119664729
 20
-3.2344236495
 11
-19.5119664729
 21
-3.0684153454
  0
LINE
  5
749
100
AcDbEntity
  8
ASSI
100
AcDbLine
 62
7
  6
CONTINUOUS
 10
-19.5119664729
 20
-3.2344236495
 11
-19.5119664729
 21
-3.0684153454
  0
LINE
  5
74A
100
AcDbEntity
  8
RACCORDO
100
AcDbLine
 62
7
  6
CONTINUOUS
 10
-19.5119664729
 20
0.3652385876
 11
-19.5119664729
 21
0.5312468917
  0
LINE
  5
74B
100
AcDbEntity
  8
ASSI
100
AcDbLine
 62
7
  6
CONTINUOUS
 10
-19.5119664729
 20
0.3652385876
 11
-19.5119664729
 21
0.5312468917
  0
LINE
  5
74C
100
AcDbEntity
  8
RACCORDO
100
AcDbLine
 62
7
  6
CONTINUOUS
 10
-19.4759827401
 20
-3.4694507805
 11
-19.4759827401
 21
0.7662740228
  0
LINE
  5
74D
100
AcDbEntity
  8
RACCORDO
100
AcDbLine
 62
253
  6
CONTINUOUS
 10
-20.0593134727
 20
0.9001063805
 11
-20.0593947415
 21
0.9602535735
  0
LINE
  5
74E
100
AcDbEntity
  8
ASSI
100
AcDbLine
 62
253
  6
CONTINUOUS
 10
-20.0593134727
 20
0.9001063805
 11
-20.0593947415
 21
0.9602535735
  0
LWPOLYLINE
  5
74F
100
AcDbEntity
  8
RACCORDO
100
AcDbPolyline
 62
253
  6
CONTINUOUS
 90
7
 70
0
 10
-20.0593135465
 20
-3.603278075
 10
-20.0593947927
 20
-3.6634246323
 10
-20.0596098689
 20
-3.6880756204
 10
-20.0599337123
 20
-3.7080732435
 10
-20.0603564895
 20
-3.7228096773
 10
-20.0608653608
 20
-3.7318369468
 10
-20.0614448689
 20
-3.73488046
  0
LWPOLYLINE
  5
750
100
AcDbEntity
  8
ASSI
100
AcDbPolyline
 62
253
  6
CONTINUOUS
 90
7
 70
0
 10
-20.0593135465
 20
-3.603278075
 10
-20.0593947927
 20
-3.6634246323
 10
-20.0596098689
 20
-3.6880756204
 10
-20.0599337123
 20
-3.7080732435
 10
-20.0603564895
 20
-3.7228096773
 10
-20.0608653608
 20
-3.7318369468
 10
-20.0614448689
 20
-3.73488046
  0
LINE
  5
751
100
AcDbEntity
  8
RACCORDO
100
AcDbLine
 62
253
  6
CONTINUOUS
 10
-20.0596997038
 20
0.8317113177
 11
-20.0593134727
 21
0.9001063805
  0
LINE
  5
752
100
AcDbEntity
  8
ASSI
100
AcDbLine
 62
253
  6
CONTINUOUS
 10
-20.0596997038
 20
0.8317113177
 11
-20.0593134727
 21
0.9001063805
  0
LINE
  5
753
100
AcDbEntity
  8
RACCORDO
100
AcDbLine
 62
253
  6
CONTINUOUS
 10
-17.3655112962
 20
-4.3912036834
 11
-17.3627827211
 21
-4.5771137548
  0
LWPOLYLINE
  5
754
100
AcDbEntity
  8
RACCORDO
100
AcDbPolyline
 62
253
  6
CONTINUOUS
 90
7
 70
0
 10
-17.3613644528
 20
2.1742174467
 10
-17.3616918521
 20
2.2083867266
 10
-17.3621767813
 20
2.2368184394
 10
-17.3628110292
 20
2.2591224692
 10
-17.3635847305
 20
2.2751120504
 10
-17.3644885765
 20
2.284724804
 10
-17.3655112962
 20
2.2879355427
  0
LINE
  5
755
100
AcDbEntity
  8
RACCORDO
100
AcDbLine
 62
253
  6
CONTINUOUS
 10
-17.3627827211
 20
-4.5771137548
 11
-17.3616740947
 21
-4.6919713967
  0
LINE
  5
756
100
AcDbEntity
  8
RACCORDO
100
AcDbLine
 62
253
  6
CONTINUOUS
 10
-17.3616740947
 20
-4.6919713967
 11
-17.3611947449
 21
-4.7935419303
  0
LINE
  5
757
100
AcDbEntity
  8
RACCORDO
100
AcDbLine
 62
253
  6
CONTINUOUS
 10
-17.3655112962
 20
-4.3912036834
 11
-17.3655112962
 21
1.6880269256
  0
LINE
  5
758
100
AcDbEntity
  8
RACCORDO
100
AcDbLine
 62
253
  6
CONTINUOUS
 10
-17.3611947451
 20
2.090365059
 11
-17.3613644528
 21
2.1742174467
  0
LWPOLYLINE
  5
759
100
AcDbEntity
  8
RACCORDO
100
AcDbPolyline
 62
253
  6
CONTINUOUS
 90
8
 70
0
 10
-17.3611947449
 20
-4.7935419303
 10
-17.3613644536
 20
-4.8773943243
 10
-17.3616918536
 20
-4.9115635885
 10
-17.3621767833
 20
-4.939995279
 10
-17.3628110312
 20
-4.9622992817
 10
-17.3635847317
 20
-4.9782888362
 10
-17.364488576
 20
-4.9879015697
 10
-17.3655112933
 20
-4.9911123004
  0
LINE
  5
75A
100
AcDbEntity
  8
RACCORDO
100
AcDbLine
 62
253
  6
CONTINUOUS
 10
-17.3616740954
 20
1.9887945469
 11
-17.3611947451
 21
2.090365059
  0
LINE
  5
75B
100
AcDbEntity
  8
RACCORDO
100
AcDbLine
 62
253
  6
CONTINUOUS
 10
-17.3635586741
 20
1.8131172391
 11
-17.3616740954
 21
1.9887945469
  0
LINE
  5
75C
100
AcDbEntity
  8
RACCORDO
100
AcDbLine
 62
253
  6
CONTINUOUS
 10
-17.3655112962
 20
1.6880269256
 11
-17.3635586741
 21
1.8131172391
  0
LWPOLYLINE
  5
75D
100
AcDbEntity
  8
RACCORDO
100
AcDbPolyline
 62
253
  6
CONTINUOUS
 90
4
 70
0
 10
-17.2216194724
 20
2.3569209214
 10
-17.2214120749
 20
2.3546399433
 10
-17.2212507573
 20
2.3478704999
 10
-17.2211404183
 20
2.3368185972
  0
LWPOLYLINE
  5
75E
100
AcDbEntity
  8
ASSI
100
AcDbPolyline
 62
253
  6
CONTINUOUS
 90
4
 70
0
 10
-17.2216194724
 20
2.3569209214
 10
-17.2214120749
 20
2.3546399433
 10
-17.2212507573
 20
2.3478704999
 10
-17.2211404183
 20
2.3368185972
  0
LINE
  5
75F
100
AcDbEntity
  8
RACCORDO
100
AcDbLine
 62
253
  6
CONTINUOUS
 10
-17.2210843903
 20
-5.0065139698
 11
-17.2212100876
 21
-4.9701364437
  0
LINE
  5
760
100
AcDbEntity
  8
ASSI
100
AcDbLine
 62
253
  6
CONTINUOUS
 10
-17.2210843903
 20
-5.0065139698
 11
-17.2212100876
 21
-4.9701364437
  0
LINE
  5
761
100
AcDbEntity
  8
RACCORDO
100
AcDbLine
 62
253
  6
CONTINUOUS
 10
-17.2211404183
 20
2.3368185972
 11
-17.2210844212
 21
2.3033315608
  0
LINE
  5
762
100
AcDbEntity
  8
ASSI
100
AcDbLine
 62
253
  6
CONTINUOUS
 10
-17.2211404183
 20
2.3368185972
 11
-17.2210844212
 21
2.3033315608
  0
LINE
  5
763
100
AcDbEntity
  8
RACCORDO
100
AcDbLine
 62
7
  6
CONTINUOUS
 10
-16.7759827401
 20
-4.3912036834
 11
-16.7759827401
 21
1.6880269256
  0
LINE
  5
764
100
AcDbEntity
  8
RACCORDO
100
AcDbLine
 62
7
  6
CONTINUOUS
 10
-16.7259827401
 20
1.8567757945
 11
-16.7259827401
 21
-4.5600034998
  0
LINE
  5
765
100
AcDbEntity
  8
ASSI
100
AcDbLine
 62
7
  6
CONTINUOUS
 10
-16.7259827401
 20
1.8567757945
 11
-16.7259827401
 21
-4.5600034998
  0
LINE
  5
766
100
AcDbEntity
  8
RACCORDO
100
AcDbLine
 62
253
  6
CONTINUOUS
 10
-17.2210844212
 20
2.3033315608
 11
-17.2212101059
 21
2.2669596911
  0
LINE
  5
767
100
AcDbEntity
  8
ASSI
100
AcDbLine
 62
253
  6
CONTINUOUS
 10
-17.2210844212
 20
2.3033315608
 11
-17.2212101059
 21
2.2669596911
  0
LWPOLYLINE
  5
768
100
AcDbEntity
  8
RACCORDO
100
AcDbPolyline
 62
253
  6
CONTINUOUS
 90
5
 70
0
 10
-17.2216194724
 20
-5.0600976792
 10
-17.2214120844
 20
-5.0578171657
 10
-17.2212507655
 20
-5.0510488775
 10
-17.221140417
 20
-5.039998446
 10
-17.2210843903
 20
-5.0065139698
  0
LWPOLYLINE
  5
769
100
AcDbEntity
  8
ASSI
100
AcDbPolyline
 62
253
  6
CONTINUOUS
 90
5
 70
0
 10
-17.2216194724
 20
-5.0600976792
 10
-17.2214120844
 20
-5.0578171657
 10
-17.2212507655
 20
-5.0510488775
 10
-17.221140417
 20
-5.039998446
 10
-17.2210843903
 20
-5.0065139698
  0
ARC
  5
76A
100
AcDbEntity
  8
RACCORDO
100
AcDbCircle
 62
7
  6
CONTINUOUS
 10
-21.6759827401
 20
-2.3515883789
 40
1.6
100
AcDbArc
 50
301.7143149194
 51
38.6821874535
  0
ARC
  5
76B
100
AcDbEntity
  8
RACCORDO
100
AcDbCircle
 62
7
  6
CONTINUOUS
 10
-21.6759827401
 20
-2.3515883789
 40
1.6
100
AcDbArc
 50
201.7867892983
 51
238.7016622811
  0
ARC
  5
76C
100
AcDbEntity
  8
ASSI
100
AcDbCircle
 62
7
  6
CONTINUOUS
 10
-21.6759827401
 20
-2.3515883789
 40
1.6
100
AcDbArc
 50
301.7143149194
 51
38.6821874535
  0
ARC
  5
76D
100
AcDbEntity
  8
ASSI
100
AcDbCircle
 62
7
  6
CONTINUOUS
 10
-21.6759827401
 20
-2.3515883789
 40
1.6
100
AcDbArc
 50
201.7867892983
 51
238.7016622811
  0
CIRCLE
  5
76E
100
AcDbEntity
  8
0
100
AcDbCircle
 62
7
  6
CONTINUOUS
 10
-21.6759827401
 20
-2.3515883789
 40
0.75
  0
ARC
  5
76F
100
AcDbEntity
  8
RACCORDO
100
AcDbCircle
 62
7
  6
CONTINUOUS
 10
-22.6759827401
 20
-3.7384363957
 40
0.5
100
AcDbArc
 50
180.0
 51
210.5064810837
  0
ARC
  5
770
100
AcDbEntity
  8
ASSI
100
AcDbCircle
 62
7
  6
CONTINUOUS
 10
-22.6759827401
 20
-3.7384363957
 40
0.5
100
AcDbArc
 50
180.0
 51
210.5064810837
  0
ARC
  5
771
100
AcDbEntity
  8
RACCORDO
100
AcDbCircle
 62
7
  6
CONTINUOUS
 10
-23.7259827401
 20
-4.5401667931
 40
0.5
100
AcDbArc
 50
180.0006264786
 51
268.0000218541
  0
CIRCLE
  5
772
100
AcDbEntity
  8
0
100
AcDbCircle
 62
7
  6
CONTINUOUS
 10
-21.6759827401
 20
-2.3515883789
 40
0.4
  0
ARC
  5
773
100
AcDbEntity
  8
RACCORDO
100
AcDbCircle
 62
7
  6
CONTINUOUS
 10
-24.9259827401
 20
-2.789324135
 40
0.3
100
AcDbArc
 50
180.0
 51
269.0
  0
ARC
  5
774
100
AcDbEntity
  8
RACCORDO
100
AcDbCircle
 62
7
  6
CONTINUOUS
 10
-22.4032747907
 20
-3.547851842
 40
0.2
100
AcDbArc
 50
238.7016622811
 51
269.5
  0
ARC
  5
775
100
AcDbEntity
  8
RACCORDO
100
AcDbCircle
 62
7
  6
CONTINUOUS
 10
-22.9759827401
 20
-2.8712036212
 40
0.2
100
AcDbArc
 50
180.0
 51
201.7867892983
  0
ARC
  5
776
100
AcDbEntity
  8
ASSI
100
AcDbCircle
 62
7
  6
CONTINUOUS
 10
-22.4032747907
 20
-3.547851842
 40
0.2
100
AcDbArc
 50
238.7016622811
 51
269.5
  0
ARC
  5
777
100
AcDbEntity
  8
ASSI
100
AcDbCircle
 62
7
  6
CONTINUOUS
 10
-22.9759827401
 20
-2.8712036212
 40
0.2
100
AcDbArc
 50
180.0
 51
201.7867892983
  0
ARC
  5
778
100
AcDbEntity
  8
RACCORDO
100
AcDbCircle
 62
7
  6
CONTINUOUS
 10
-24.4259827401
 20
-3.2981278315
 40
0.2
100
AcDbArc
 50
0.0
 51
89.0000119293
  0
ARC
  5
779
100
AcDbEntity
  8
RACCORDO
100
AcDbCircle
 62
7
  6
CONTINUOUS
 10
-23.0259827401
 20
-1.8052900756
 40
0.2
100
AcDbArc
 50
138.7022362975
 51
180.0
  0
ARC
  5
77A
100
AcDbEntity
  8
RACCORDO
100
AcDbCircle
 62
7
  6
CONTINUOUS
 10
-21.6759827401
 20
-0.3515883789
 40
1.6
100
AcDbArc
 50
321.3178125465
 51
58.2856850806
  0
ARC
  5
77B
100
AcDbEntity
  8
RACCORDO
100
AcDbCircle
 62
7
  6
CONTINUOUS
 10
-21.6759827401
 20
-0.3515883789
 40
1.6
100
AcDbArc
 50
121.2983377189
 51
158.2132107017
  0
ARC
  5
77C
100
AcDbEntity
  8
ASSI
100
AcDbCircle
 62
7
  6
CONTINUOUS
 10
-21.6759827401
 20
-0.3515883789
 40
1.6
100
AcDbArc
 50
321.3178125465
 51
58.2856850806
  0
ARC
  5
77D
100
AcDbEntity
  8
ASSI
100
AcDbCircle
 62
7
  6
CONTINUOUS
 10
-21.6759827401
 20
-0.3515883789
 40
1.6
100
AcDbArc
 50
121.2983377189
 51
158.2132107017
  0
CIRCLE
  5
77E
100
AcDbEntity
  8
0
100
AcDbCircle
 62
7
  6
CONTINUOUS
 10
-21.6759827401
 20
-0.3515883789
 40
0.75
  0
ARC
  5
77F
100
AcDbEntity
  8
RACCORDO
100
AcDbCircle
 62
7
  6
CONTINUOUS
 10
-22.6759827401
 20
1.0352596379
 40
0.5
100
AcDbArc
 50
149.4935189164
 51
180.0
  0
ARC
  5
780
100
AcDbEntity
  8
ASSI
100
AcDbCircle
 62
7
  6
CONTINUOUS
 10
-22.6759827401
 20
1.0352596379
 40
0.5
100
AcDbArc
 50
149.4935189164
 51
180.0
  0
ARC
  5
781
100
AcDbEntity
  8
RACCORDO
100
AcDbCircle
 62
7
  6
CONTINUOUS
 10
-23.7259827401
 20
1.8369898604
 40
0.5
100
AcDbArc
 50
91.9999774483
 51
179.9993534814
  0
CIRCLE
  5
782
100
AcDbEntity
  8
0
100
AcDbCircle
 62
7
  6
CONTINUOUS
 10
-21.6759827401
 20
-0.3515883789
 40
0.4
  0
ARC
  5
783
100
AcDbEntity
  8
RACCORDO
100
AcDbCircle
 62
7
  6
CONTINUOUS
 10
-24.9259827401
 20
0.0861473772
 40
0.3
100
AcDbArc
 50
91.0
 51
180.0
  0
ARC
  5
784
100
AcDbEntity
  8
RACCORDO
100
AcDbCircle
 62
7
  6
CONTINUOUS
 10
-22.4032747907
 20
0.8446750842
 40
0.2
100
AcDbArc
 50
90.5
 51
121.2983377189
  0
ARC
  5
785
100
AcDbEntity
  8
RACCORDO
100
AcDbCircle
 62
7
  6
CONTINUOUS
 10
-22.9759827401
 20
0.1680268634
 40
0.2
100
AcDbArc
 50
158.2132107017
 51
180.0
  0
ARC
  5
786
100
AcDbEntity
  8
ASSI
100
AcDbCircle
 62
7
  6
CONTINUOUS
 10
-22.4032747907
 20
0.8446750842
 40
0.2
100
AcDbArc
 50
90.5
 51
121.2983377189
  0
ARC
  5
787
100
AcDbEntity
  8
ASSI
100
AcDbCircle
 62
7
  6
CONTINUOUS
 10
-22.9759827401
 20
0.1680268634
 40
0.2
100
AcDbArc
 50
158.2132107017
 51
180.0
  0
ARC
  5
788
100
AcDbEntity
  8
RACCORDO
100
AcDbCircle
 62
7
  6
CONTINUOUS
 10
-24.4259827401
 20
0.5949510737
 40
0.2
100
AcDbArc
 50
271.0
 51
360.0
  0
ARC
  5
789
100
AcDbEntity
  8
RACCORDO
100
AcDbCircle
 62
7
  6
CONTINUOUS
 10
-23.0259827401
 20
-0.4378866822
 40
0.2
100
AcDbArc
 50
180.0
 51
221.2977640754
  0
ARC
  5
78A
100
AcDbEntity
  8
RACCORDO
100
AcDbCircle
 62
7
  6
CONTINUOUS
 10
-17.3759827401
 20
-4.3912036834
 40
0.6
100
AcDbArc
 50
271.0
 51
360.0
  0
ARC
  5
78B
100
AcDbEntity
  8
RACCORDO
100
AcDbCircle
 62
7
  6
CONTINUOUS
 10
-17.2259827401
 20
-4.5601112422
 40
0.5
100
AcDbArc
 50
270.499994527
 51
359.9993725557
  0
ARC
  5
78C
100
AcDbEntity
  8
ASSI
100
AcDbCircle
 62
7
  6
CONTINUOUS
 10
-17.2259827401
 20
-4.5601112422
 40
0.5
100
AcDbArc
 50
270.499994527
 51
359.9993725557
  0
ARC
  5
78D
100
AcDbEntity
  8
RACCORDO
100
AcDbCircle
 62
7
  6
CONTINUOUS
 10
-19.8259827401
 20
-3.4694507805
 40
0.35
100
AcDbArc
 50
273.0
 51
360.0
  0
ARC
  5
78E
100
AcDbEntity
  8
RACCORDO
100
AcDbCircle
 62
7
  6
CONTINUOUS
 10
-20.9400248553
 20
-3.5425400957
 40
0.2
100
AcDbArc
 50
270.5
 51
301.7143149194
  0
ARC
  5
78F
100
AcDbEntity
  8
ASSI
100
AcDbCircle
 62
7
  6
CONTINUOUS
 10
-20.9400248553
 20
-3.5425400957
 40
0.2
100
AcDbArc
 50
270.5
 51
301.7143149194
  0
ARC
  5
790
100
AcDbEntity
  8
DRAFT
100
AcDbCircle
 62
7
  6
CONTINUOUS
 10
-20.4759827401
 20
-1.3515883789
 40
2.2
100
AcDbArc
 50
200.0883146301
 51
207.8619718643
  0
ARC
  5
791
100
AcDbEntity
  8
DRAFT
100
AcDbCircle
 62
7
  6
CONTINUOUS
 10
-20.4759827401
 20
-1.3515883789
 40
2.2
100
AcDbArc
 50
152.1284458219
 51
159.9211106176
  0
ARC
  5
792
100
AcDbEntity
  8
DRAFT
100
AcDbCircle
 62
7
  6
CONTINUOUS
 10
-20.4759827401
 20
-1.3515883789
 40
2.2
100
AcDbArc
 50
124.9057227251
 51
128.1596397213
  0
ARC
  5
793
100
AcDbEntity
  8
RACCORDO
100
AcDbCircle
 62
7
  6
CONTINUOUS
 10
-17.3759827401
 20
1.6880269256
 40
0.6
100
AcDbArc
 50
0.0
 51
89.0
  0
ARC
  5
794
100
AcDbEntity
  8
RACCORDO
100
AcDbCircle
 62
7
  6
CONTINUOUS
 10
-17.2259827401
 20
1.8569399599
 40
0.5
100
AcDbArc
 50
359.981188034
 51
89.5
  0
ARC
  5
795
100
AcDbEntity
  8
ASSI
100
AcDbCircle
 62
7
  6
CONTINUOUS
 10
-17.2259827401
 20
1.8569399599
 40
0.5
100
AcDbArc
 50
359.981188034
 51
89.5
  0
ARC
  5
796
100
AcDbEntity
  8
RACCORDO
100
AcDbCircle
 62
7
  6
CONTINUOUS
 10
-19.8259827401
 20
0.7662740228
 40
0.35
100
AcDbArc
 50
0.0
 51
87.0
  0
ARC
  5
797
100
AcDbEntity
  8
RACCORDO
100
AcDbCircle
 62
7
  6
CONTINUOUS
 10
-20.9400248553
 20
0.8393633379
 40
0.2
100
AcDbArc
 50
58.2856850806
 51
89.5
  0
ARC
  5
798
100
AcDbEntity
  8
ASSI
100
AcDbCircle
 62
7
  6
CONTINUOUS
 10
-20.9400248553
 20
0.8393633379
 40
0.2
100
AcDbArc
 50
58.2856850806
 51
89.5
  0
ELLIPSE
  5
799
100
AcDbEntity
  8
DRAFT
100
AcDbEllipse
 62
7
  6
CONTINUOUS
 10
-21.6768047886
 20
-0.3515883789
 30
0.0
 11
0.8986285802
 21
0.0
 31
0.0
 40
0.9999995816
 41
5.1725642146
 42
10.5365348994
  0
ELLIPSE
  5
79A
100
AcDbEntity
  8
DRAFT
100
AcDbEllipse
 62
7
  6
CONTINUOUS
 10
-21.6768047886
 20
-2.3515883789
 30
0.0
 11
0.8986285802
 21
0.0
 31
0.0
 40
0.9999995816
 41
2.029835715
 42
7.3938063997
  0
ELLIPSE
  5
79B
100
AcDbEntity
  8
DRAFT
100
AcDbEllipse
 62
7
  6
CONTINUOUS
 10
-21.6764853798
 20
-2.3515883789
 30
0.0
 11
1.0990125844
 21
-0.0
 31
0.0
 40
0.9999998954
 41
-1.8468022765
 42
0.9941040743
  0
ELLIPSE
  5
79C
100
AcDbEntity
  8
DRAFT
100
AcDbEllipse
 62
7
  6
CONTINUOUS
 10
-21.6764853798
 20
-0.3515883789
 30
0.0
 11
1.0990125844
 21
-0.0
 31
0.0
 40
0.9999998954
 41
-0.9941040743
 42
1.8468022765
  0
ELLIPSE
  5
79D
100
AcDbEntity
  8
RACCORDO
100
AcDbEllipse
 62
7
  6
CONTINUOUS
 10
-20.0128817424
 20
0.531260859
 30
0.0
 11
0.5009007152
 21
-0.0038254608
 31
0.0
 40
0.9981726973
 41
0.0076230607
 42
1.4635937072
  0
ELLIPSE
  5
79E
100
AcDbEntity
  8
DRAFT
100
AcDbEllipse
 62
7
  6
CONTINUOUS
 10
-21.6754799749
 20
-0.3515883789
 30
0.0
 11
1.0992869979
 21
0.0
 31
0.0
 40
0.9999998954
 41
1.8476822578
 42
4.1355613032
  0
ELLIPSE
  5
79F
100
AcDbEntity
  8
DRAFT
100
AcDbEllipse
 62
7
  6
CONTINUOUS
 10
-21.6754799749
 20
-2.3515883789
 30
0.0
 11
1.0992869979
 21
-0.0
 31
0.0
 40
0.9999998954
 41
2.147624004
 42
4.4355030494
  0
ELLIPSE
  5
7A0
100
AcDbEntity
  8
RACCORDO
100
AcDbEllipse
 62
7
  6
CONTINUOUS
 10
-20.0128817424
 20
-3.2344376168
 30
0.0
 11
0.5009007152
 21
0.0038254608
 31
0.0
 40
0.9981726973
 41
-1.5697047011
 42
-0.0076230607
  0
ELLIPSE
  5
7A1
100
AcDbEntity
  8
ASSI
100
AcDbEllipse
 62
7
  6
CONTINUOUS
 10
-21.6768047886
 20
-2.3515883789
 30
0.0
 11
0.8986285802
 21
0.0
 31
0.0
 40
0.9999995816
 41
2.029835715
 42
7.3938063997
  0
ELLIPSE
  5
7A2
100
AcDbEntity
  8
ASSI
100
AcDbEllipse
 62
7
  6
CONTINUOUS
 10
-21.6768047886
 20
-0.3515883789
 30
0.0
 11
0.8986285802
 21
0.0
 31
0.0
 40
0.9999995816
 41
5.1725642146
 42
10.5365348994
  0
ELLIPSE
  5
7A3
100
AcDbEntity
  8
ASSI
100
AcDbEllipse
 62
7
  6
CONTINUOUS
 10
-21.6754799749
 20
-0.3515883789
 30
0.0
 11
1.0992869979
 21
0.0
 31
0.0
 40
0.9999998954
 41
1.8476822578
 42
4.1355613032
  0
ELLIPSE
  5
7A4
100
AcDbEntity
  8
ASSI
100
AcDbEllipse
 62
7
  6
CONTINUOUS
 10
-21.6754799749
 20
-2.3515883789
 30
0.0
 11
1.0992869979
 21
-0.0
 31
0.0
 40
0.9999998954
 41
2.147624004
 42
4.4355030494
  0
ELLIPSE
  5
7A5
100
AcDbEntity
  8
ASSI
100
AcDbEllipse
 62
7
  6
CONTINUOUS
 10
-21.6764853798
 20
-2.3515883789
 30
0.0
 11
1.0990125844
 21
-0.0
 31
0.0
 40
0.9999998954
 41
-1.8468022765
 42
0.9941040743
  0
ELLIPSE
  5
7A6
100
AcDbEntity
  8
ASSI
100
AcDbEllipse
 62
7
  6
CONTINUOUS
 10
-21.6764853798
 20
-0.3515883789
 30
0.0
 11
1.0990125844
 21
-0.0
 31
0.0
 40
0.9999998954
 41
-0.9941040743
 42
1.8468022765
  0
ELLIPSE
  5
7A7
100
AcDbEntity
  8
ASSI
100
AcDbEllipse
 62
7
  6
CONTINUOUS
 10
-20.0128817424
 20
0.531260859
 30
0.0
 11
0.5009007152
 21
-0.0038254608
 31
0.0
 40
0.9981726973
 41
0.0076230607
 42
1.4635937072
  0
ELLIPSE
  5
7A8
100
AcDbEntity
  8
ASSI
100
AcDbEllipse
 62
7
  6
CONTINUOUS
 10
-20.0128817424
 20
-3.2344376168
 30
0.0
 11
0.5009007152
 21
0.0038254608
 31
0.0
 40
0.9981726973
 41
-1.5697047011
 42
-0.0076230607
  0
ENDSEC
  0
SECTION
  2
OBJECTS
  0
DICTIONARY
  5
C
100
AcDbDictionary
280
0
281
1
  3
ACAD_GROUP
350
D
  3
ACAD_MLINESTYLE
350
17
  3
ACAD_LAYOUT
350
1A
  3
ACAD_PLOTSETTINGS
350
19
  3
ACAD_PLOTSTYLENAME
350
E
  0
DICTIONARY
  5
D
102
{ACAD_REACTORS
330
C
102
}
100
AcDbDictionary
280
0
281
1
  0
ACDBDICTIONARYWDFLT
  5
E
102
{ACAD_REACTORS
330
C
102
}
100
AcDbDictionary
281
1
  3
Normal
350
F
100
AcDbDictionaryWithDefault
340
F
  0
DICTIONARY
  5
17
102
{ACAD_REACTORS
330
C
102
}
100
AcDbDictionary
280
0
281
1
  3
Standard
350
18
  0
DICTIONARY
  5
19
102
{ACAD_REACTORS
330
C
102
}
100
AcDbDictionary
281
1
  0
DICTIONARY
  5
1A
102
{ACAD_REACTORS
330
C
102
}
100
AcDbDictionary
281
1
  3
Model
350
7A9
  3
Layout1
350
7AA
  0
ACDBPLACEHOLDER
  5
F
102
{ACAD_REACTORS
330
E
102
}
  0
MLINESTYLE
  5
18
102
{ACAD_REACTORS
330
17
102
}
100
AcDbMlineStyle
  2
STANDARD
 70
0
  3

 62
256
 51
90.0
 52
90.0
 71
2
 49
0.5
 62
256
  6
BYLAYER
 49
-0.5
 62
256
  6
BYLAYER
  0
LAYOUT
  5
7A9
102
{ACAD_REACTORS
330
1A
102
}
100
AcDbPlotSettings
  1

  2
none_device
  4
ISO_A4_(297.00_x_210.00_MM)
  6

 40
0.0
 41
0.0
 42
0.0
 43
0.0
 44
297.0
 45
210.0
 46
0.0
 47
0.0
 48
0.0
 49
0.0
140
0.0
141
0.0
142
1.0
143
1.0
 70
1024
 72
1
 73
0
 74
0
  7

 75
0
147
1.0
148
0.0
149
0.0
100
AcDbLayout
  1
Model
 70
0
 71
0
 10
0.0
 20
0.0
 11
297.0
 21
210.0
 12
0.0
 22
0.0
 32
0.0
 14
0.0
 24
0.0
 34
0.0
 15
0.0
 25
0.0
 35
0.0
146
0.0
 13
0.0
 23
0.0
 33
0.0
 16
1.0
 26
0.0
 36
0.0
 17
0.0
 27
1.0
 37
0.0
 76
0
330
212
345
0
346
0
  0
LAYOUT
  5
7AA
102
{ACAD_REACTORS
330
1A
102
}
100
AcDbPlotSettings
  1

  2
none_device
  4
ISO_A4_(297.00_x_210.00_MM)
  6

 40
0.0
 41
0.0
 42
0.0
 43
0.0
 44
297.0
 45
210.0
 46
0.0
 47
0.0
 48
0.0
 49
0.0
140
0.0
141
0.0
142
1.0
143
1.0
 70
0
 72
1
 73
0
 74
0
  7

 75
0
147
1.0
148
0.0
149
0.0
100
AcDbLayout
  1
Layout1
 70
0
 71
1
 10
0.0
 20
0.0
 11
297.0
 21
210.0
 12
0.0
 22
0.0
 32
0.0
 14
0.0
 24
0.0
 34
0.0
 15
0.0
 25
0.0
 35
0.0
146
0.0
 13
0.0
 23
0.0
 33
0.0
 16
1.0
 26
0.0
 36
0.0
 17
0.0
 27
1.0
 37
0.0
 76
0
330
213
345
0
346
0
  0
ENDSEC
  0
EOF
