  0
SECTION
  2
HEADER
  9
$ACADVER
  1
AC1024
  9
$DWGCODEPAGE
  3
ANSI_1252
  9
$EXTMAX
 10
297.0
 20
210.0
 30
0.0
  9
$EXTMIN
 10
0.0
 20
0.0
 30
0.0
  9
$LIMMIN
 10
0.0
 20
0.0
  9
$LIMMAX
 10
297.0
 20
210.0
  9
$VIEWCTR
 10
148.5
 20
105.0
  9
$VIEWSIZE
 40
210.0
  9
$CLAYER
  8
0
  9
$LTSCALE
 40
16.335
  9
$CELTYPE
  6
BYLAYER
  9
$DIMSCALE
 40
1.0
  9
$DIMASZ
 40
3.0
  9
$DIMEXO
 40
0.5
  9
$DIMDLI
 40
11.286
  9
$DIMEXE
 40
1.5
  9
$DIMCEN
 40
2.673
  9
$DIMLFAC
 40
1.0
  9
$DIMBLK
  1
_FILLED
  9
$DIMALT
 70
0
  9
$DIMALTF
 40
0.0393700787
  9
$DIMTXT
 40
3.0
  9
$DIMTOL
 70
1
  9
$DIMLIM
 70
0
  9
$DIMTFAC
 40
1.0
  9
$DIMTP
 40
0.01
  9
$DIMTM
 40
0.01
  9
$DIMGAP
 40
0.625
  9
$DIMDSEP
 70
44
  9
$AUNITS
 70
0
  9
$PDMODE
 70
3
  9
$PDSIZE
 40
3.0
  9
$HANDSEED
  5
5EF
  9
$TILEMODE
 70
1
  9
$MEASUREMENT
 70
1
  9
$INSUNITS
 70
4
  0
ENDSEC
  0
SECTION
  2
CLASSES
  0
CLASS
  1
ACDBDICTIONARYWDFLT
  2
AcDbDictionaryWithDefault
  3
AutoCAD 2000
 90
0
 91
1
280
0
281
0
  0
CLASS
  1
ACDBPLACEHOLDER
  2
AcDbPlaceHolder
  3
AutoCAD 2000
 90
0
 91
1
280
0
281
0
  0
CLASS
  1
LAYOUT
  2
AcDbLayout
  3
AutoCAD 2000
 90
0
 91
0
280
0
281
0
  0
ENDSEC
  0
SECTION
  2
TABLES
  0
TABLE
  2
VPORT
  5
8
100
AcDbSymbolTable
 70
2
  0
VPORT
  5
1F4
100
AcDbSymbolTableRecord
100
AcDbViewportTableRecord
  2
*ACTIVE
 70
0
 10
0.0
 20
0.0
 11
1.0
 21
1.0
 12
148.5
 22
105.0
 13
0.0
 23
0.0
 14
1.0
 24
1.0
 15
0.0
 25
0.0
 16
0.0
 26
0.0
 36
1.0
 17
0.0
 27
0.0
 37
0.0
 40
210.0
 41
1.4142857143
 42
50.0
 43
0.0
 44
0.0
 50
0.0
 51
0.0
 71
0
 72
100
 73
1
 74
1
 75
0
 76
0
 77
0
 78
0
  0
ENDTAB
  0
TABLE
  2
LTYPE
  5
5
100
AcDbSymbolTable
 70
6
  0
LTYPE
  5
14
100
AcDbSymbolTableRecord
100
AcDbLinetypeTableRecord
  2
BYBLOCK
 70
0
  3

 72
65
 73
0
 40
0.0
  0
LTYPE
  5
15
100
AcDbSymbolTableRecord
100
AcDbLinetypeTableRecord
  2
BYLAYER
 70
0
  3

 72
65
 73
0
 40
0.0
  0
LTYPE
  5
16
100
AcDbSymbolTableRecord
100
AcDbLinetypeTableRecord
  2
CONTINUOUS
 70
64
  3
Solid line
 72
65
 73
0
 40
0.0
  0
LTYPE
  5
1F5
100
AcDbSymbolTableRecord
100
AcDbLinetypeTableRecord
  2
CENTER
 70
64
  3
____ _ ____ _ ____ _ ____ _ ____ _ ____ _ ____
 72
65
 73
4
 40
0.6
 49
0.375
 74
0
 49
-0.075
 74
0
 49
0.075
 74
0
 49
-0.075
 74
0
  0
LTYPE
  5
1F6
100
AcDbSymbolTableRecord
100
AcDbLinetypeTableRecord
  2
HIDDEN
 70
64
  3
- - - - - - - - - - - - - - - - - - - -
 72
65
 73
2
 40
0.2
 49
0.1
 74
0
 49
-0.1
 74
0
  0
LTYPE
  5
1F7
100
AcDbSymbolTableRecord
100
AcDbLinetypeTableRecord
  2
PHANTOM
 70
64
  3
_____ _ _ _____ _ _ _____ _ _ _____
 72
65
 73
6
 40
0.8
 49
0.45
 74
0
 49
-0.05
 74
0
 49
0.1
 74
0
 49
-0.05
 74
0
 49
0.1
 74
0
 49
-0.05
 74
0
  0
LTYPE
  5
1F8
100
AcDbSymbolTableRecord
100
AcDbLinetypeTableRecord
  2
DOT
 70
64
  3
. . . . . . . . . . . . . . . . . . . .
 72
65
 73
2
 40
0.2
 49
0.1
 74
0
 49
-0.1
 74
0
  0
LTYPE
  5
1F9
100
AcDbSymbolTableRecord
100
AcDbLinetypeTableRecord
  2
DASHED
 70
64
  3
- - - - - - - - - - - - - - - - - - - -
 72
65
 73
2
 40
0.2
 49
0.1
 74
0
 49
-0.1
 74
0
  0
ENDTAB
  0
TABLE
  2
LAYER
  5
2
100
AcDbSymbolTable
 70
36
  0
LAYER
  5
10
100
AcDbSymbolTableRecord
100
AcDbLayerTableRecord
  2
0
 70
0
 62
7
  6
CONTINUOUS
370
-3
390
F
  0
LAYER
  5
1FA
100
AcDbSymbolTableRecord
100
AcDbLayerTableRecord
  2
DEFAULT_1
 70
0
 62
7
  6
CENTER
370
-3
390
F
  0
LAYER
  5
1FB
100
AcDbSymbolTableRecord
100
AcDbLayerTableRecord
  2
DEFAULT_2
 70
0
 62
7
  6
HIDDEN
370
-3
390
F
  0
LAYER
  5
1FC
100
AcDbSymbolTableRecord
100
AcDbLayerTableRecord
  2
DEFAULT_3
 70
0
 62
7
  6
PHANTOM
370
-3
390
F
  0
LAYER
  5
1FD
100
AcDbSymbolTableRecord
100
AcDbLayerTableRecord
  2
0805_R_REF_60000
 70
0
 62
7
  6
CONTINUOUS
370
-3
390
F
  0
LAYER
  5
1FE
100
AcDbSymbolTableRecord
100
AcDbLayerTableRecord
  2
0805_R_REF_60000_1
 70
0
 62
7
  6
CONTINUOUS
370
-3
390
F
  0
LAYER
  5
1FF
100
AcDbSymbolTableRecord
100
AcDbLayerTableRecord
  2
0805_R_REF_60000_2
 70
0
 62
7
  6
CONTINUOUS
370
-3
390
F
  0
LAYER
  5
200
100
AcDbSymbolTableRecord
100
AcDbLayerTableRecord
  2
0805_R_REF_60000_3
 70
0
 62
7
  6
CONTINUOUS
370
-3
390
F
  0
LAYER
  5
201
100
AcDbSymbolTableRecord
100
AcDbLayerTableRecord
  2
43001010B0
 70
0
 62
7
  6
CONTINUOUS
370
-3
390
F
  0
LAYER
  5
202
100
AcDbSymbolTableRecord
100
AcDbLayerTableRecord
  2
ASSI
 70
0
 62
7
  6
CONTINUOUS
370
-3
390
F
  0
LAYER
  5
203
100
AcDbSymbolTableRecord
100
AcDbLayerTableRecord
  2
COLOR2
 70
0
 62
7
  6
CONTINUOUS
370
-3
390
F
  0
LAYER
  5
204
100
AcDbSymbolTableRecord
100
AcDbLayerTableRecord
  2
COORDINATE
 70
0
 62
7
  6
CONTINUOUS
370
-3
390
F
  0
LAYER
  5
205
100
AcDbSymbolTableRecord
100
AcDbLayerTableRecord
  2
COPY_PUBLISH
 70
0
 62
7
  6
CONTINUOUS
370
-3
390
F
  0
LAYER
  5
206
100
AcDbSymbolTableRecord
100
AcDbLayerTableRecord
  2
COSMETICI
 70
0
 62
7
  6
CONTINUOUS
370
-3
390
F
  0
LAYER
  5
207
100
AcDbSymbolTableRecord
100
AcDbLayerTableRecord
  2
CURVE
 70
0
 62
7
  6
CONTINUOUS
370
-3
390
F
  0
LAYER
  5
208
100
AcDbSymbolTableRecord
100
AcDbLayerTableRecord
  2
DRAFT
 70
0
 62
7
  6
CONTINUOUS
370
-3
390
F
  0
LAYER
  5
209
100
AcDbSymbolTableRecord
100
AcDbLayerTableRecord
  2
FIDUCIAL_1MM_0
 70
0
 62
7
  6
CONTINUOUS
370
-3
390
F
  0
LAYER
  5
20A
100
AcDbSymbolTableRecord
100
AcDbLayerTableRecord
  2
IMPORT_IGES
 70
0
 62
7
  6
CONTINUOUS
370
-3
390
F
  0
LAYER
  5
20B
100
AcDbSymbolTableRecord
100
AcDbLayerTableRecord
  2
NOTE
 70
0
 62
7
  6
CONTINUOUS
370
-3
390
F
  0
LAYER
  5
20C
100
AcDbSymbolTableRecord
100
AcDbLayerTableRecord
  2
PIANI
 70
0
 62
7
  6
CONTINUOUS
370
-3
390
F
  0
LAYER
  5
20D
100
AcDbSymbolTableRecord
100
AcDbLayerTableRecord
  2
PUNTI
 70
0
 62
7
  6
CONTINUOUS
370
-3
390
F
  0
LAYER
  5
20E
100
AcDbSymbolTableRecord
100
AcDbLayerTableRecord
  2
RACCORDO
 70
0
 62
7
  6
CONTINUOUS
370
-3
390
F
  0
LAYER
  5
20F
100
AcDbSymbolTableRecord
100
AcDbLayerTableRecord
  2
SIMBOLI
 70
0
 62
7
  6
CONTINUOUS
370
-3
390
F
  0
LAYER
  5
210
100
AcDbSymbolTableRecord
100
AcDbLayerTableRecord
  2
SMUSSO
 70
0
 62
7
  6
CONTINUOUS
370
-3
390
F
  0
LAYER
  5
211
100
AcDbSymbolTableRecord
100
AcDbLayerTableRecord
  2
SOT323_H1_1_REF_110000
 70
0
 62
7
  6
CONTINUOUS
370
-3
390
F
  0
LAYER
  5
212
100
AcDbSymbolTableRecord
100
AcDbLayerTableRecord
  2
SOT323_H1_1_REF_110000_1
 70
0
 62
7
  6
CONTINUOUS
370
-3
390
F
  0
LAYER
  5
213
100
AcDbSymbolTableRecord
100
AcDbLayerTableRecord
  2
SUPERFICI
 70
0
 62
7
  6
CONTINUOUS
370
-3
390
F
  0
LAYER
  5
214
100
AcDbSymbolTableRecord
100
AcDbLayerTableRecord
  2
TRASH
 70
0
 62
7
  6
CONTINUOUS
370
-3
390
F
  0
LAYER
  5
215
100
AcDbSymbolTableRecord
100
AcDbLayerTableRecord
  2
VG_LED-SMT-1_6-0_75-1_0_100000
 70
0
 62
7
  6
CONTINUOUS
370
-3
390
F
  0
LAYER
  5
216
100
AcDbSymbolTableRecord
100
AcDbLayerTableRecord
  2
___SHELL
 70
0
 62
7
  6
CONTINUOUS
370
-3
390
F
  0
ENDTAB
  0
TABLE
  2
STYLE
  5
3
100
AcDbSymbolTable
 70
1
  0
STYLE
  5
11
100
AcDbSymbolTableRecord
100
AcDbTextStyleTableRecord
  2
STANDARD
 70
0
 40
0.0
 41
0.8
 50
0.0
 71
0
 42
0.2
  3
txt
  4

  0
STYLE
  5
217
100
AcDbSymbolTableRecord
100
AcDbTextStyleTableRecord
  2
TEXTSTYLE_1
 70
0
 40
0.0
 41
0.8
 50
0.0
 71
0
 42
0.2
  3
gdt
  4

  0
ENDTAB
  0
TABLE
  2
VIEW
  5
6
100
AcDbSymbolTable
 70
0
  0
ENDTAB
  0
TABLE
  2
UCS
  5
7
100
AcDbSymbolTable
 70
0
  0
ENDTAB
  0
TABLE
  2
APPID
  5
9
100
AcDbSymbolTable
 70
1
  0
APPID
  5
218
100
AcDbSymbolTableRecord
100
AcDbRegAppTableRecord
  2
ACAD
 70
0
  0
ENDTAB
  0
TABLE
  2
BLOCK_RECORD
  5
1
100
AcDbSymbolTable
 70
0
  0
BLOCK_RECORD
  5
219
100
AcDbSymbolTableRecord
100
AcDbBlockTableRecord
  2
*Model_Space
  0
BLOCK_RECORD
  5
21A
100
AcDbSymbolTableRecord
100
AcDbBlockTableRecord
  2
*Paper_Space
  0
BLOCK_RECORD
  5
21B
100
AcDbSymbolTableRecord
100
AcDbBlockTableRecord
  2
_FILLED
  0
BLOCK_RECORD
  5
21C
100
AcDbSymbolTableRecord
100
AcDbBlockTableRecord
  2
*D0
  0
BLOCK_RECORD
  5
21D
100
AcDbSymbolTableRecord
100
AcDbBlockTableRecord
  2
*D1
  0
BLOCK_RECORD
  5
21E
100
AcDbSymbolTableRecord
100
AcDbBlockTableRecord
  2
*D2
  0
BLOCK_RECORD
  5
21F
100
AcDbSymbolTableRecord
100
AcDbBlockTableRecord
  2
*D3
  0
ENDTAB
  0
TABLE
  2
DIMSTYLE
  5
A
100
AcDbSymbolTable
 70
1
100
AcDbDimStyleTable
 71
0
  0
DIMSTYLE
105
220
100
AcDbSymbolTableRecord
100
AcDbDimStyleTableRecord
  2
STANDARD
 70
0
  3

  4

 40
1.0
 41
3.0
 42
0.5
 43
0.38
 44
1.5
 45
0.0
 46
0.0
 47
0.01
 48
0.01
140
3.0
141
0.09
142
0.0
143
25.4
144
1.0
145
0.0
146
1.0
147
0.625
 71
1
 72
0
 73
0
 74
0
 75
0
 76
0
 77
1
 78
8
 79
2
170
0
171
1
172
0
173
0
174
0
175
0
176
0
177
0
178
0
270
2
179
2
271
2
272
2
273
2
274
2
275
0
280
0
281
0
282
0
283
1
284
8
285
0
286
0
287
3
288
0
340
11
278
44
341
21B
342
21B
343
21B
344
21B
  0
DIMSTYLE
105
221
100
AcDbSymbolTableRecord
100
AcDbDimStyleTableRecord
  2
DIMSTYLE_1
 70
0
  3

  4

 40
1.0
 41
3.0
 42
0.5
 43
0.38
 44
1.5
 45
0.0
 46
0.0
 47
0.0
 48
0.0
140
3.0
141
0.09
142
0.0
143
25.4
144
1.0
145
0.0
146
1.0
147
0.75
 71
0
 72
0
 73
0
 74
0
 75
0
 76
0
 77
1
 78
8
 79
2
170
0
171
1
172
0
173
0
174
0
175
0
176
0
177
0
178
0
270
2
179
2
271
2
272
2
273
2
274
2
275
0
280
0
281
0
282
0
283
1
284
8
285
0
286
0
287
3
288
0
340
11
278
44
341
21B
342
21B
343
21B
344
21B
  0
DIMSTYLE
105
222
100
AcDbSymbolTableRecord
100
AcDbDimStyleTableRecord
  2
DIMSTYLE_2
 70
0
  3

  4

 40
1.0
 41
3.0
 42
0.5
 43
0.38
 44
1.5
 45
0.0
 46
0.0
 47
0.0
 48
0.0
140
3.0
141
0.09
142
0.0
143
25.4
144
1.0
145
0.0
146
1.0
147
0.75
 71
0
 72
0
 73
0
 74
0
 75
0
 76
0
 77
1
 78
8
 79
2
170
0
171
1
172
0
173
0
174
0
175
0
176
0
177
0
178
0
270
2
179
2
271
0
272
0
273
2
274
2
275
0
280
0
281
0
282
0
283
1
284
8
285
0
286
0
287
3
288
0
340
11
278
44
341
21B
342
21B
343
21B
344
21B
  0
ENDTAB
  0
ENDSEC
  0
SECTION
  2
BLOCKS
  0
BLOCK
  5
20
100
AcDbEntity
  8
0
100
AcDbBlockBegin
  2
*Model_Space
 70
0
 10
0.0
 20
0.0
 30
0.0
  3
*Model_Space
  1

  0
ENDBLK
  5
21
100
AcDbEntity
  8
0
100
AcDbBlockEnd
  0
BLOCK
  5
1C
100
AcDbEntity
  8
0
100
AcDbBlockBegin
  2
*Paper_Space
 70
0
 10
0.0
 20
0.0
 30
0.0
  3
*Paper_Space
  1

  0
ENDBLK
  5
1D
100
AcDbEntity
  8
0
100
AcDbBlockEnd
  0
BLOCK
  5
223
100
AcDbEntity
  8
0
100
AcDbBlockBegin
  2
_FILLED
 70
64
 10
0.0
 20
0.0
  3
_FILLED
  1

  0
SOLID
  5
224
100
AcDbEntity
  8
0
  6
BYBLOCK
 62
0
100
AcDbTrace
 10
0.0
 20
0.0
 11
-1.0
 21
0.3166666667
 12
-1.0
 22
-0.3166666667
 13
-1.0
 23
-0.3166666667
  0
ENDBLK
  5
225
100
AcDbEntity
  8
0
  6
BYBLOCK
 62
0
100
AcDbBlockEnd
  0
BLOCK
  5
226
100
AcDbEntity
  8
0
100
AcDbBlockBegin
 62
7
  6
CONTINUOUS
  2
*D0
 70
65
 10
0.0
 20
0.0
  3
*D0
  1

  0
MTEXT
  5
227
100
AcDbEntity
  8
0
100
AcDbMText
 62
7
  6
CONTINUOUS
  7
STANDARD
 71
1
 72
1
 10
35.7610584278
 20
88.8301433539
 30
0.0
 11
1.0
 21
0.0
 31
0.0
 73
2
 44
0.9
  1
{\ftxt;\W0.0001;\H0.0001;\~}{\ftxt;\W1.8571428571;\H3.0; }{\ftxt;\W0.0001;\H0.0001;\~}
 40
3.0
 41
8.3571428571
  0
LINE
  5
228
100
AcDbEntity
  8
0
100
AcDbLine
 62
7
  6
CONTINUOUS
 10
30.7582267716
 20
77.8980370328
 11
30.76337351
 21
86.5831052264
  0
LINE
  5
229
100
AcDbEntity
  8
0
100
AcDbLine
 62
7
  6
CONTINUOUS
 10
27.6582267716
 20
77.899874081
 11
27.66337351
 21
86.5849422746
  0
LINE
  5
22A
100
AcDbEntity
  8
0
100
AcDbLine
 62
7
  6
CONTINUOUS
 10
30.7624846159
 20
85.0831054898
 11
41.3324869992
 21
85.0801433539
  0
LINE
  5
22B
100
AcDbEntity
  8
0
100
AcDbLine
 62
7
  6
CONTINUOUS
 10
41.3324869992
 20
85.0801433539
 11
29.2124846159
 21
85.0840240139
  0
LINE
  5
22C
100
AcDbEntity
  8
0
100
AcDbLine
 62
7
  6
CONTINUOUS
 10
27.6624846159
 20
85.084942538
 11
23.6624853182
 21
85.0873129224
  0
LINE
  5
22D
100
AcDbEntity
  8
0
100
AcDbLine
 62
7
  6
CONTINUOUS
 10
23.6624853182
 20
85.0873129224
 11
29.2124846159
 21
85.0840240139
  0
INSERT
  5
22E
100
AcDbEntity
  8
0
100
AcDbBlockReference
 62
7
  6
CONTINUOUS
  2
_FILLED
 10
30.7624846159
 20
85.0831054898
 41
3.0
 42
3.0
 43
3.0
 50
179.98394344
  0
INSERT
  5
22F
100
AcDbEntity
  8
0
100
AcDbBlockReference
 62
7
  6
CONTINUOUS
  2
_FILLED
 10
27.6624846159
 20
85.084942538
 41
3.0
 42
3.0
 43
3.0
 50
359.9660467428
  0
ENDBLK
  5
230
100
AcDbEntity
  8
0
  6
BYBLOCK
 62
0
100
AcDbBlockEnd
  0
BLOCK
  5
231
100
AcDbEntity
  8
0
100
AcDbBlockBegin
 62
7
  6
CONTINUOUS
  2
*D1
 70
65
 10
0.0
 20
0.0
  3
*D1
  1

  0
MTEXT
  5
232
100
AcDbEntity
  8
0
100
AcDbMText
 62
7
  6
CONTINUOUS
  7
STANDARD
 71
3
 72
1
 10
34.260817211
 20
69.3860401283
 30
0.0
 11
0.0
 21
1.0
 31
0.0
 73
2
 44
0.9
  1
{\ftxt;\W0.0001;\H0.0001;\~}{\ftxt;\W1.9285714286;\H3.0; }{\ftxt;\W0.0001;\H0.0001;\~}
 40
3.0
 41
8.6785714286
  0
LINE
  5
233
100
AcDbEntity
  8
0
100
AcDbLine
 62
7
  6
CONTINUOUS
 10
28.1579304736
 20
78.0998741688
 11
39.510817211
 21
78.0998741688
  0
LINE
  5
234
100
AcDbEntity
  8
0
100
AcDbLine
 62
7
  6
CONTINUOUS
 10
28.1579304736
 20
70.9998741688
 11
39.510817211
 21
70.9998741688
  0
LINE
  5
235
100
AcDbEntity
  8
0
100
AcDbLine
 62
7
  6
CONTINUOUS
 10
38.010817211
 20
78.0998741688
 11
38.010817211
 21
82.0998741688
  0
LINE
  5
236
100
AcDbEntity
  8
0
100
AcDbLine
 62
7
  6
CONTINUOUS
 10
38.010817211
 20
82.0998741688
 11
38.010817211
 21
74.5498741688
  0
LINE
  5
237
100
AcDbEntity
  8
0
100
AcDbLine
 62
7
  6
CONTINUOUS
 10
38.010817211
 20
70.9998741688
 11
38.010817211
 21
63.6003258426
  0
LINE
  5
238
100
AcDbEntity
  8
0
100
AcDbLine
 62
7
  6
CONTINUOUS
 10
38.010817211
 20
63.6003258426
 11
38.010817211
 21
74.5498741688
  0
INSERT
  5
239
100
AcDbEntity
  8
0
100
AcDbBlockReference
 62
7
  6
CONTINUOUS
  2
_FILLED
 10
38.010817211
 20
78.0998741688
 41
3.0
 42
3.0
 43
3.0
 50
270.0
  0
INSERT
  5
23A
100
AcDbEntity
  8
0
100
AcDbBlockReference
 62
7
  6
CONTINUOUS
  2
_FILLED
 10
38.010817211
 20
70.9998741688
 41
3.0
 42
3.0
 43
3.0
 50
90.0
  0
ENDBLK
  5
23B
100
AcDbEntity
  8
0
  6
BYBLOCK
 62
0
100
AcDbBlockEnd
  0
BLOCK
  5
23C
100
AcDbEntity
  8
0
100
AcDbBlockBegin
 62
7
  6
CONTINUOUS
  2
*D2
 70
65
 10
0.0
 20
0.0
  3
*D2
  1

  0
MTEXT
  5
23D
100
AcDbEntity
  8
0
100
AcDbMText
 62
7
  6
CONTINUOUS
  7
STANDARD
 71
2
 72
1
 10
12.0560421477
 20
88.4638395548
 30
0.0
 11
1.0
 21
0.0
 31
0.0
 73
2
 44
0.9
  1
{\ftxt;\W0.0001;\H0.0001;\~}{\ftxt;\W3.2142857143;\H3.0; }{\ftxt;\W0.0001;\H0.0001;\~}
 40
3.0
 41
14.4642857143
  0
LINE
  5
23E
100
AcDbEntity
  8
0
100
AcDbLine
 62
7
  6
CONTINUOUS
 10
21.1310421477
 20
78.4498798803
 11
21.1310421477
 21
86.2138395548
  0
LINE
  5
23F
100
AcDbEntity
  8
0
100
AcDbLine
 62
7
  6
CONTINUOUS
 10
2.9810421477
 20
78.4498798803
 11
2.9810421477
 21
86.2138395548
  0
LINE
  5
240
100
AcDbEntity
  8
0
100
AcDbLine
 62
7
  6
CONTINUOUS
 10
21.1310421477
 20
84.7138395548
 11
12.0560421477
 21
84.7138395548
  0
LINE
  5
241
100
AcDbEntity
  8
0
100
AcDbLine
 62
7
  6
CONTINUOUS
 10
2.9810421477
 20
84.7138395548
 11
12.0560421477
 21
84.7138395548
  0
INSERT
  5
242
100
AcDbEntity
  8
0
100
AcDbBlockReference
 62
7
  6
CONTINUOUS
  2
_FILLED
 10
21.1310421477
 20
84.7138395548
 41
3.0
 42
3.0
 43
3.0
  0
INSERT
  5
243
100
AcDbEntity
  8
0
100
AcDbBlockReference
 62
7
  6
CONTINUOUS
  2
_FILLED
 10
2.9810421477
 20
84.7138395548
 41
3.0
 42
3.0
 43
3.0
 50
180.0
  0
ENDBLK
  5
244
100
AcDbEntity
  8
0
  6
BYBLOCK
 62
0
100
AcDbBlockEnd
  0
BLOCK
  5
245
100
AcDbEntity
  8
0
100
AcDbBlockBegin
 62
7
  6
CONTINUOUS
  2
*D3
 70
65
 10
0.0
 20
0.0
  3
*D3
  1

  0
MTEXT
  5
246
100
AcDbEntity
  8
0
100
AcDbMText
 62
7
  6
CONTINUOUS
  7
STANDARD
 71
2
 72
1
 10
-10.7222255493
 20
68.1818066409
 30
0.0
 11
1.0
 21
0.0
 31
0.0
 73
2
 44
0.9
  1
{\ftxt;\W0.0001;\H0.0001;\~}{\ftxt;\W2.1428571429;\H3.0; }{\ftxt;\W0.0001;\H0.0001;\~}
 40
3.0
 41
9.6428571429
  0
LINE
  5
247
100
AcDbEntity
  8
0
100
AcDbLine
 62
7
  6
CONTINUOUS
 10
3.6454414796
 20
75.1998741688
 11
3.6454414796
 21
62.9318066409
  0
LINE
  5
248
100
AcDbEntity
  8
0
100
AcDbLine
 62
7
  6
CONTINUOUS
 10
-25.0898925781
 20
75.5998741688
 11
-25.0898925781
 21
62.9318066409
  0
LINE
  5
249
100
AcDbEntity
  8
0
100
AcDbLine
 62
7
  6
CONTINUOUS
 10
3.6454414796
 20
64.4318066409
 11
-10.7222255493
 21
64.4318066409
  0
LINE
  5
24A
100
AcDbEntity
  8
0
100
AcDbLine
 62
7
  6
CONTINUOUS
 10
-25.0898925781
 20
64.4318066409
 11
-10.7222255493
 21
64.4318066409
  0
INSERT
  5
24B
100
AcDbEntity
  8
0
100
AcDbBlockReference
 62
7
  6
CONTINUOUS
  2
_FILLED
 10
3.6454414796
 20
64.4318066409
 41
3.0
 42
3.0
 43
3.0
  0
INSERT
  5
24C
100
AcDbEntity
  8
0
100
AcDbBlockReference
 62
7
  6
CONTINUOUS
  2
_FILLED
 10
-25.0898925781
 20
64.4318066409
 41
3.0
 42
3.0
 43
3.0
 50
180.0
  0
ENDBLK
  5
24D
100
AcDbEntity
  8
0
  6
BYBLOCK
 62
0
100
AcDbBlockEnd
  0
ENDSEC
  0
SECTION
  2
ENTITIES
  0
DIMENSION
  5
24E
100
AcDbEntity
  8
0
100
AcDbDimension
 62
7
  6
CONTINUOUS
  2
*D0
 10
27.6624846159
 20
85.084942538
 11
38.1176011208
 21
85.0810442931
 70
160
 71
1
 72
2
 41
0.9
 42
3.1000005443
  1
{\ftxt;\W0.0001;\H0.0001;\~}{\ftxt;\W1.8571428571;\H3.0; }{\ftxt;\W0.0001;\H0.0001;\~}
  3
DIMSTYLE_1
100
AcDbAlignedDimension
 13
30.7580866517
 23
77.3980370524
 14
27.6580866517
 24
77.3998741006
 50
179.9660467428
100
AcDbRotatedDimension
  0
DIMENSION
  5
24F
100
AcDbEntity
  8
0
100
AcDbDimension
 62
7
  6
CONTINUOUS
  2
*D1
 10
38.010817211
 20
70.9998741688
 11
38.010817211
 21
66.0646125248
 70
160
 71
3
 72
2
 41
0.9
 42
7.1
  1
{\ftxt;\W0.0001;\H0.0001;\~}{\ftxt;\W1.9285714286;\H3.0; }{\ftxt;\W0.0001;\H0.0001;\~}
  3
DIMSTYLE_1
100
AcDbAlignedDimension
 13
27.6579304736
 23
78.0998741688
 14
27.6579304736
 24
70.9998741688
 50
270.0
100
AcDbRotatedDimension
  0
DIMENSION
  5
250
100
AcDbEntity
  8
0
100
AcDbDimension
 62
7
  6
CONTINUOUS
  2
*D2
 10
2.9810421477
 20
84.7138395548
 11
11.6274708624
 21
84.7138395548
 70
160
 71
2
 72
2
 41
0.9
 42
18.15
  1
{\ftxt;\W0.0001;\H0.0001;\~}{\ftxt;\W3.2142857143;\H3.0; }{\ftxt;\W0.0001;\H0.0001;\~}
  3
DIMSTYLE_1
100
AcDbAlignedDimension
 13
21.1310421477
 23
77.9498798803
 14
2.9810421477
 24
77.9498798803
 50
180.0
100
AcDbRotatedDimension
  0
DIMENSION
  5
251
100
AcDbEntity
  8
0
100
AcDbDimension
 62
7
  6
CONTINUOUS
  2
*D3
 10
-25.0898925781
 20
64.4318066409
 11
-11.150797328
 21
64.4318066409
 70
160
 71
2
 72
2
 41
0.9
  1
{\ftxt;\W0.0001;\H0.0001;\~}{\ftxt;\W2.1428571429;\H3.0; }{\ftxt;\W0.0001;\H0.0001;\~}
  3
DIMSTYLE_2
100
AcDbAlignedDimension
 13
3.6454414796
 23
75.6998741688
 14
-25.0898925781
 24
76.0998741688
 50
180.0
100
AcDbRotatedDimension
  0
LINE
  5
252
100
AcDbEntity
  8
ASSI
100
AcDbLine
 62
7
  6
CONTINUOUS
 10
-25.0898925781
 20
72.5998741688
 11
-25.0898925781
 21
72.9998741688
  0
LINE
  5
253
100
AcDbEntity
  8
ASSI
100
AcDbLine
 62
7
  6
CONTINUOUS
 10
-25.0898925781
 20
76.0998741688
 11
-25.0898925781
 21
76.4998741688
  0
LINE
  5
254
100
AcDbEntity
  8
0
100
AcDbLine
 62
7
  6
CONTINUOUS
 10
-2.8417109285
 20
72.1998741688
 11
-10.0898925781
 21
72.1998741688
  0
LINE
  5
255
100
AcDbEntity
  8
ASSI
100
AcDbLine
 62
7
  6
CONTINUOUS
 10
-10.0898925781
 20
72.5998741688
 11
-25.0898925781
 21
72.5998741688
  0
LINE
  5
256
100
AcDbEntity
  8
ASSI
100
AcDbLine
 62
7
  6
CONTINUOUS
 10
-10.0898925781
 20
72.9998741688
 11
-25.0898925781
 21
72.9998741688
  0
LINE
  5
257
100
AcDbEntity
  8
0
100
AcDbLine
 62
7
  6
CONTINUOUS
 10
-2.9673652954
 20
73.3998741688
 11
-10.0898925781
 21
73.3998741688
  0
LINE
  5
258
100
AcDbEntity
  8
0
100
AcDbLine
 62
7
  6
CONTINUOUS
 10
-3.7806442061
 20
75.6998741688
 11
-10.0898925781
 21
75.6998741688
  0
LINE
  5
259
100
AcDbEntity
  8
ASSI
100
AcDbLine
 62
7
  6
CONTINUOUS
 10
-10.0898925781
 20
76.0998741688
 11
-25.0898925781
 21
76.0998741688
  0
LINE
  5
25A
100
AcDbEntity
  8
ASSI
100
AcDbLine
 62
7
  6
CONTINUOUS
 10
-10.0898925781
 20
76.4998741688
 11
-25.0898925781
 21
76.4998741688
  0
LINE
  5
25B
100
AcDbEntity
  8
0
100
AcDbLine
 62
7
  6
CONTINUOUS
 10
-4.3218497254
 20
76.8998741688
 11
-10.0898925781
 21
76.8998741688
  0
LINE
  5
25C
100
AcDbEntity
  8
0
100
AcDbLine
 62
7
  6
CONTINUOUS
 10
-10.0898925781
 20
76.8998741688
 11
-10.0898925781
 21
75.6998741688
  0
LINE
  5
25D
100
AcDbEntity
  8
0
100
AcDbLine
 62
7
  6
CONTINUOUS
 10
-10.0898925781
 20
73.3998741688
 11
-10.0898925781
 21
72.1998741688
  0
LINE
  5
25E
100
AcDbEntity
  8
0
100
AcDbLine
 62
7
  6
CONTINUOUS
 10
-3.8972929007
 20
75.9731596094
 11
-4.3218497254
 21
76.8998741688
  0
LINE
  5
25F
100
AcDbEntity
  8
0
100
AcDbLine
 62
7
  6
CONTINUOUS
 10
-3.7806442061
 20
75.6998741688
 11
-3.8972929007
 21
75.9731596094
  0
LINE
  5
260
100
AcDbEntity
  8
0
100
AcDbLine
 62
7
  6
CONTINUOUS
 10
-2.8320577919
 20
72.2956439232
 11
-2.9310649539
 21
73.2748448851
  0
LINE
  5
261
100
AcDbEntity
  8
0
100
AcDbLine
 62
7
  6
CONTINUOUS
 10
-2.8417109285
 20
72.1998741688
 11
-2.8320577919
 21
72.2956439232
  0
LINE
  5
262
100
AcDbEntity
  8
0
100
AcDbLine
 62
7
  6
CONTINUOUS
 10
-2.9310649539
 20
73.2748448851
 11
-2.9673652954
 21
73.3998741688
  0
LWPOLYLINE
  5
263
100
AcDbEntity
  8
0
100
AcDbPolyline
 62
7
  6
CONTINUOUS
 90
2
 70
0
 43
0.3500000006
 10
-11.2222253952
 20
65.1818060303
 10
-11.2222253952
 20
66.681806488
  0
LWPOLYLINE
  5
264
100
AcDbEntity
  8
0
100
AcDbPolyline
 62
7
  6
CONTINUOUS
 90
3
 70
0
 43
0.3500000006
 10
-13.936511776
 20
67.3246599426
 10
-13.0793681717
 20
68.1818069458
 10
-13.0793681717
 20
65.1818060303
  0
LWPOLYLINE
  5
265
100
AcDbEntity
  8
0
100
AcDbPolyline
 62
7
  6
CONTINUOUS
 90
3
 70
0
 43
0.3500000006
 10
7.2346137142
 20
87.6066927795
 10
8.0917561855
 20
88.4638397827
 10
8.0917561855
 20
85.4638388672
  0
LINE
  5
266
100
AcDbEntity
  8
0
100
AcDbLine
 62
7
  6
CONTINUOUS
 10
0.0691370461
 20
73.2748448851
 11
0.1681442081
 21
72.2956439232
  0
LINE
  5
267
100
AcDbEntity
  8
0
100
AcDbLine
 62
7
  6
CONTINUOUS
 10
0.1681442081
 20
72.2956439232
 11
0.1584910715
 21
72.1998741688
  0
LINE
  5
268
100
AcDbEntity
  8
0
100
AcDbLine
 62
7
  6
CONTINUOUS
 10
-0.8970909007
 20
75.9731596094
 11
-0.7804422061
 21
75.6998741688
  0
LINE
  5
269
100
AcDbEntity
  8
0
100
AcDbLine
 62
7
  6
CONTINUOUS
 10
0.0328367046
 20
73.3998741688
 11
0.0691370461
 21
73.2748448851
  0
LWPOLYLINE
  5
26A
100
AcDbEntity
  8
0
100
AcDbPolyline
 62
7
  6
CONTINUOUS
 90
10
 70
0
 43
0.3500000006
 10
-8.7936541157
 20
68.1818069458
 10
-9.4365115356
 20
67.5389534912
 10
-9.8650827713
 20
66.681806488
 10
-9.8650827713
 20
65.610375
 10
-9.4365115356
 20
65.1818060303
 10
-8.7936541157
 20
65.1818060303
 10
-8.36508288
 20
65.610375
 10
-8.36508288
 20
66.4675220032
 10
-8.7936541157
 20
66.8960909729
 10
-9.7222260704
 20
66.8960909729
  0
LWPOLYLINE
  5
26B
100
AcDbEntity
  8
0
100
AcDbPolyline
 62
7
  6
CONTINUOUS
 90
3
 70
0
 43
0.3500000006
 10
-10.7222252426
 20
65.8246594849
 10
-12.2222257004
 20
65.8246594849
 10
-11.5793688469
 20
68.1818069458
  0
LINE
  5
26C
100
AcDbEntity
  8
0
100
AcDbLine
 62
7
  6
CONTINUOUS
 10
-1.3216477254
 20
76.8998741688
 11
-0.8970909007
 21
75.9731596094
  0
LINE
  5
26D
100
AcDbEntity
  8
RACCORDO
100
AcDbLine
 62
250
  6
CONTINUOUS
 10
3.006797831
 20
71.1756241405
 11
3.0090783398
 21
71.149579181
  0
LINE
  5
26E
100
AcDbEntity
  8
ASSI
100
AcDbLine
 62
250
  6
CONTINUOUS
 10
3.006797831
 20
71.1756241405
 11
3.0090783398
 21
71.149579181
  0
LWPOLYLINE
  5
26F
100
AcDbEntity
  8
0
100
AcDbPolyline
 62
7
  6
CONTINUOUS
 90
3
 70
0
 43
0.3500000006
 10
13.020328228
 20
87.6066927795
 10
13.8774706993
 20
88.4638397827
 10
13.8774706993
 20
85.4638388672
  0
LWPOLYLINE
  5
270
100
AcDbEntity
  8
RACCORDO
100
AcDbPolyline
 62
250
  6
CONTINUOUS
 90
9
 70
0
 10
3.0090783398
 20
71.149579181
 10
3.0158466165
 20
71.1243254996
 10
3.0268970344
 20
71.1006303422
 10
3.0418938686
 20
71.0792136049
 10
3.060381495
 20
71.0607259642
 10
3.0817982307
 20
71.0457291076
 10
3.1054934022
 20
71.0346786654
 10
3.1307471142
 20
71.0279103689
 10
3.1567921195
 20
71.0256298521
  0
LWPOLYLINE
  5
271
100
AcDbEntity
  8
ASSI
100
AcDbPolyline
 62
250
  6
CONTINUOUS
 90
9
 70
0
 10
3.0090783398
 20
71.149579181
 10
3.0158466165
 20
71.1243254996
 10
3.0268970344
 20
71.1006303422
 10
3.0418938686
 20
71.0792136049
 10
3.060381495
 20
71.0607259642
 10
3.0817982307
 20
71.0457291076
 10
3.1054934022
 20
71.0346786654
 10
3.1307471142
 20
71.0279103689
 10
3.1567921195
 20
71.0256298521
  0
LINE
  5
272
100
AcDbEntity
  8
RACCORDO
100
AcDbLine
 62
250
  6
CONTINUOUS
 10
3.2398192423
 20
74.032509351
 11
3.2388858684
 21
74.0498741688
  0
LINE
  5
273
100
AcDbEntity
  8
ASSI
100
AcDbLine
 62
250
  6
CONTINUOUS
 10
3.2398192423
 20
74.032509351
 11
3.2388858684
 21
74.0498741688
  0
LINE
  5
274
100
AcDbEntity
  8
RACCORDO
100
AcDbLine
 62
7
  6
CONTINUOUS
 10
2.9814006854
 20
77.8652136201
 11
2.9810421477
 21
77.8754633906
  0
LINE
  5
275
100
AcDbEntity
  8
ASSI
100
AcDbLine
 62
7
  6
CONTINUOUS
 10
2.9814006854
 20
77.8652136201
 11
2.9810421477
 21
77.8754633906
  0
LWPOLYLINE
  5
276
100
AcDbEntity
  8
RACCORDO
100
AcDbPolyline
 62
7
  6
CONTINUOUS
 90
6
 70
0
 10
3.006797831
 20
77.8835841264
 10
3.0071434175
 20
77.8734112922
 10
3.008178097
 20
77.8632853012
 10
3.0098971053
 20
77.853252781
 10
3.0122925266
 20
77.8433599288
 10
3.0153533307
 20
77.8336522984
  0
LWPOLYLINE
  5
277
100
AcDbEntity
  8
ASSI
100
AcDbPolyline
 62
7
  6
CONTINUOUS
 90
6
 70
0
 10
3.006797831
 20
77.8835841264
 10
3.0071434175
 20
77.8734112922
 10
3.008178097
 20
77.8632853012
 10
3.0098971053
 20
77.853252781
 10
3.0122925266
 20
77.8433599288
 10
3.0153533307
 20
77.8336522984
  0
LINE
  5
278
100
AcDbEntity
  8
DRAFT
100
AcDbLine
 62
7
  6
CONTINUOUS
 10
3.6472353359
 20
76.8635646015
 11
3.6477944112
 21
76.8355536443
  0
LINE
  5
279
100
AcDbEntity
  8
ASSI
100
AcDbLine
 62
7
  6
CONTINUOUS
 10
3.6472353359
 20
76.8635646015
 11
3.6477944112
 21
76.8355536443
  0
LINE
  5
27A
100
AcDbEntity
  8
DRAFT
100
AcDbLine
 62
7
  6
CONTINUOUS
 10
3.6472086431
 20
73.3646281941
 11
3.6478733652
 21
73.3311789691
  0
LINE
  5
27B
100
AcDbEntity
  8
ASSI
100
AcDbLine
 62
7
  6
CONTINUOUS
 10
3.6472086431
 20
73.3646281941
 11
3.6478733652
 21
73.3311789691
  0
LINE
  5
27C
100
AcDbEntity
  8
DRAFT
100
AcDbLine
 62
7
  6
CONTINUOUS
 10
3.6477944112
 20
76.8355536443
 11
3.6488127091
 21
76.7589697154
  0
LINE
  5
27D
100
AcDbEntity
  8
ASSI
100
AcDbLine
 62
7
  6
CONTINUOUS
 10
3.6477944112
 20
76.8355536443
 11
3.6488127091
 21
76.7589697154
  0
LINE
  5
27E
100
AcDbEntity
  8
DRAFT
100
AcDbLine
 62
7
  6
CONTINUOUS
 10
3.6478733652
 20
73.3311789691
 11
3.6487748524
 21
73.2626381884
  0
LINE
  5
27F
100
AcDbEntity
  8
ASSI
100
AcDbLine
 62
7
  6
CONTINUOUS
 10
3.6478733652
 20
73.3311789691
 11
3.6487748524
 21
73.2626381884
  0
LINE
  5
280
100
AcDbEntity
  8
DRAFT
100
AcDbLine
 62
7
  6
CONTINUOUS
 10
3.6488127091
 20
76.7589697154
 11
3.6499530641
 21
76.6043990782
  0
LINE
  5
281
100
AcDbEntity
  8
ASSI
100
AcDbLine
 62
7
  6
CONTINUOUS
 10
3.6488127091
 20
76.7589697154
 11
3.6499530641
 21
76.6043990782
  0
LINE
  5
282
100
AcDbEntity
  8
DRAFT
100
AcDbLine
 62
7
  6
CONTINUOUS
 10
3.6487748524
 20
73.2626381884
 11
3.6499369288
 21
73.1075163295
  0
LINE
  5
283
100
AcDbEntity
  8
ASSI
100
AcDbLine
 62
7
  6
CONTINUOUS
 10
3.6487748524
 20
73.2626381884
 11
3.6499369288
 21
73.1075163295
  0
LINE
  5
284
100
AcDbEntity
  8
DRAFT
100
AcDbLine
 62
7
  6
CONTINUOUS
 10
3.6499369288
 20
73.1075163295
 11
3.650664147
 21
72.8428571168
  0
LINE
  5
285
100
AcDbEntity
  8
ASSI
100
AcDbLine
 62
7
  6
CONTINUOUS
 10
3.6499369288
 20
73.1075163295
 11
3.650664147
 21
72.8428571168
  0
LINE
  5
286
100
AcDbEntity
  8
DRAFT
100
AcDbLine
 62
7
  6
CONTINUOUS
 10
3.6499530641
 20
76.6043990782
 11
3.6506752907
 21
76.3105361272
  0
LINE
  5
287
100
AcDbEntity
  8
ASSI
100
AcDbLine
 62
7
  6
CONTINUOUS
 10
3.6499530641
 20
76.6043990782
 11
3.6506752907
 21
76.3105361272
  0
LINE
  5
288
100
AcDbEntity
  8
RACCORDO
100
AcDbLine
 62
7
  6
CONTINUOUS
 10
2.9810421477
 20
71.1498684572
 11
2.9810421477
 21
71.2242849469
  0
LINE
  5
289
100
AcDbEntity
  8
ASSI
100
AcDbLine
 62
7
  6
CONTINUOUS
 10
2.9810421477
 20
71.1498684572
 11
2.9810421477
 21
71.2242849469
  0
LINE
  5
28A
100
AcDbEntity
  8
RACCORDO
100
AcDbLine
 62
7
  6
CONTINUOUS
 10
2.9810421477
 20
77.8754633906
 11
2.9810421477
 21
77.9498798803
  0
LINE
  5
28B
100
AcDbEntity
  8
ASSI
100
AcDbLine
 62
7
  6
CONTINUOUS
 10
2.9810421477
 20
77.8754633906
 11
2.9810421477
 21
77.9498798803
  0
LINE
  5
28C
100
AcDbEntity
  8
RACCORDO
100
AcDbLine
 62
7
  6
CONTINUOUS
 10
3.006797831
 20
77.924124197
 11
3.006797831
 21
77.8835841264
  0
LINE
  5
28D
100
AcDbEntity
  8
ASSI
100
AcDbLine
 62
7
  6
CONTINUOUS
 10
3.006797831
 20
77.924124197
 11
3.006797831
 21
77.8835841264
  0
LINE
  5
28E
100
AcDbEntity
  8
RACCORDO
100
AcDbLine
 62
7
  6
CONTINUOUS
 10
3.006797831
 20
71.2161642112
 11
3.006797831
 21
71.1756241405
  0
LINE
  5
28F
100
AcDbEntity
  8
ASSI
100
AcDbLine
 62
7
  6
CONTINUOUS
 10
3.006797831
 20
71.2161642112
 11
3.006797831
 21
71.1756241405
  0
LINE
  5
290
100
AcDbEntity
  8
RACCORDO
100
AcDbLine
 62
250
  6
CONTINUOUS
 10
3.1567921195
 20
71.2161642112
 11
3.1567921195
 21
71.0256298521
  0
LINE
  5
291
100
AcDbEntity
  8
ASSI
100
AcDbLine
 62
250
  6
CONTINUOUS
 10
3.1567921195
 20
71.2161642112
 11
3.1567921195
 21
71.0256298521
  0
LINE
  5
292
100
AcDbEntity
  8
RACCORDO
100
AcDbLine
 62
250
  6
CONTINUOUS
 10
3.1567921195
 20
77.8835841264
 11
3.1567921195
 21
78.0741184855
  0
LINE
  5
293
100
AcDbEntity
  8
ASSI
100
AcDbLine
 62
250
  6
CONTINUOUS
 10
3.1567921195
 20
77.8835841264
 11
3.1567921195
 21
78.0741184855
  0
LINE
  5
294
100
AcDbEntity
  8
RACCORDO
100
AcDbLine
 62
7
  6
CONTINUOUS
 10
3.1810421477
 20
74.0498741688
 11
3.1810421477
 21
75.0498741688
  0
LINE
  5
295
100
AcDbEntity
  8
ASSI
100
AcDbLine
 62
7
  6
CONTINUOUS
 10
3.1810421477
 20
74.0498741688
 11
3.1810421477
 21
75.0498741688
  0
LINE
  5
296
100
AcDbEntity
  8
RACCORDO
100
AcDbLine
 62
250
  6
CONTINUOUS
 10
3.2388858684
 20
74.0498741688
 11
3.2388858684
 21
75.0498741688
  0
LINE
  5
297
100
AcDbEntity
  8
ASSI
100
AcDbLine
 62
250
  6
CONTINUOUS
 10
3.2388858684
 20
74.0498741688
 11
3.2388858684
 21
75.0498741688
  0
LINE
  5
298
100
AcDbEntity
  8
RACCORDO
100
AcDbLine
 62
250
  6
CONTINUOUS
 10
3.5497115713
 20
74.0498741688
 11
3.5497115713
 21
75.0498741688
  0
LINE
  5
299
100
AcDbEntity
  8
ASSI
100
AcDbLine
 62
250
  6
CONTINUOUS
 10
3.5497115713
 20
74.0498741688
 11
3.5497115713
 21
75.0498741688
  0
LINE
  5
29A
100
AcDbEntity
  8
DRAFT
100
AcDbLine
 62
7
  6
CONTINUOUS
 10
3.6310421477
 20
75.6998741688
 11
3.6310421477
 21
75.1498741688
  0
LINE
  5
29B
100
AcDbEntity
  8
ASSI
100
AcDbLine
 62
7
  6
CONTINUOUS
 10
3.6310421477
 20
75.6998741688
 11
3.6310421477
 21
75.1498741688
  0
LINE
  5
29C
100
AcDbEntity
  8
DRAFT
100
AcDbLine
 62
7
  6
CONTINUOUS
 10
3.6310421477
 20
73.9498741688
 11
3.6310421477
 21
73.3998741688
  0
LINE
  5
29D
100
AcDbEntity
  8
ASSI
100
AcDbLine
 62
7
  6
CONTINUOUS
 10
3.6310421477
 20
73.9498741688
 11
3.6310421477
 21
73.3998741688
  0
LINE
  5
29E
100
AcDbEntity
  8
0
100
AcDbLine
 62
7
  6
CONTINUOUS
 10
3.656797831
 20
76.9079949045
 11
3.656797831
 21
75.1498741688
  0
LINE
  5
29F
100
AcDbEntity
  8
ASSI
100
AcDbLine
 62
7
  6
CONTINUOUS
 10
3.656797831
 20
76.9079949045
 11
3.656797831
 21
75.1498741688
  0
LINE
  5
2A0
100
AcDbEntity
  8
0
100
AcDbLine
 62
7
  6
CONTINUOUS
 10
3.656797831
 20
73.9498741688
 11
3.656797831
 21
72.191753433
  0
LINE
  5
2A1
100
AcDbEntity
  8
ASSI
100
AcDbLine
 62
7
  6
CONTINUOUS
 10
3.656797831
 20
73.9498741688
 11
3.656797831
 21
72.191753433
  0
LINE
  5
2A2
100
AcDbEntity
  8
DRAFT
100
AcDbLine
 62
7
  6
CONTINUOUS
 10
3.650664147
 20
72.8428571168
 11
3.6502146955
 21
72.5539220228
  0
LINE
  5
2A3
100
AcDbEntity
  8
ASSI
100
AcDbLine
 62
7
  6
CONTINUOUS
 10
3.650664147
 20
72.8428571168
 11
3.6502146955
 21
72.5539220228
  0
LINE
  5
2A4
100
AcDbEntity
  8
DRAFT
100
AcDbLine
 62
7
  6
CONTINUOUS
 10
3.6506752907
 20
76.3105361272
 11
3.6501176652
 21
76.029950641
  0
LINE
  5
2A5
100
AcDbEntity
  8
ASSI
100
AcDbLine
 62
7
  6
CONTINUOUS
 10
3.6506752907
 20
76.3105361272
 11
3.6501176652
 21
76.029950641
  0
LINE
  5
2A6
100
AcDbEntity
  8
DRAFT
100
AcDbLine
 62
7
  6
CONTINUOUS
 10
3.6502146955
 20
72.5539220228
 11
3.6492448237
 21
72.3876591149
  0
LINE
  5
2A7
100
AcDbEntity
  8
ASSI
100
AcDbLine
 62
7
  6
CONTINUOUS
 10
3.6502146955
 20
72.5539220228
 11
3.6492448237
 21
72.3876591149
  0
LINE
  5
2A8
100
AcDbEntity
  8
DRAFT
100
AcDbLine
 62
7
  6
CONTINUOUS
 10
3.6501176652
 20
76.029950641
 11
3.6490419608
 21
75.8641897697
  0
LINE
  5
2A9
100
AcDbEntity
  8
ASSI
100
AcDbLine
 62
7
  6
CONTINUOUS
 10
3.6501176652
 20
76.029950641
 11
3.6490419608
 21
75.8641897697
  0
LWPOLYLINE
  5
2AA
100
AcDbEntity
  8
DRAFT
100
AcDbPolyline
 62
7
  6
CONTINUOUS
 90
3
 70
0
 10
3.6492448237
 20
72.3876591149
 10
3.6483278389
 20
72.2997102213
 10
3.6477944111
 20
72.2641946893
  0
LWPOLYLINE
  5
2AB
100
AcDbEntity
  8
ASSI
100
AcDbPolyline
 62
7
  6
CONTINUOUS
 90
3
 70
0
 10
3.6492448237
 20
72.3876591149
 10
3.6483278389
 20
72.2997102213
 10
3.6477944111
 20
72.2641946893
  0
LINE
  5
2AC
100
AcDbEntity
  8
DRAFT
100
AcDbLine
 62
7
  6
CONTINUOUS
 10
3.6490419608
 20
75.8641897697
 11
3.6481905543
 21
75.7892999273
  0
LINE
  5
2AD
100
AcDbEntity
  8
ASSI
100
AcDbLine
 62
7
  6
CONTINUOUS
 10
3.6490419608
 20
75.8641897697
 11
3.6481905543
 21
75.7892999273
  0
LWPOLYLINE
  5
2AE
100
AcDbEntity
  8
DRAFT
100
AcDbPolyline
 62
7
  6
CONTINUOUS
 90
8
 70
0
 10
3.6481905543
 20
75.7892999273
 10
3.6475461059
 20
75.7504755685
 10
3.647208643
 20
75.7351201392
 10
3.6468611103
 20
75.7224014863
 10
3.6465099803
 20
75.712499567
 10
3.6461574106
 20
75.7054743672
 10
3.6458012437
 20
75.7012659012
 10
3.6454414796
 20
75.6998741688
  0
LWPOLYLINE
  5
2AF
100
AcDbEntity
  8
ASSI
100
AcDbPolyline
 62
7
  6
CONTINUOUS
 90
8
 70
0
 10
3.6481905543
 20
75.7892999273
 10
3.6475461059
 20
75.7504755685
 10
3.647208643
 20
75.7351201392
 10
3.6468611103
 20
75.7224014863
 10
3.6465099803
 20
75.712499567
 10
3.6461574106
 20
75.7054743672
 10
3.6458012437
 20
75.7012659012
 10
3.6454414796
 20
75.6998741688
  0
LWPOLYLINE
  5
2B0
100
AcDbEntity
  8
DRAFT
100
AcDbPolyline
 62
7
  6
CONTINUOUS
 90
5
 70
0
 10
3.6477944111
 20
72.2641946893
 10
3.6472353359
 20
72.2361837337
 10
3.6466582499
 20
72.2163279261
 10
3.6460555163
 20
72.2039766948
 10
3.6455236135
 20
72.1998741688
  0
LWPOLYLINE
  5
2B1
100
AcDbEntity
  8
ASSI
100
AcDbPolyline
 62
7
  6
CONTINUOUS
 90
5
 70
0
 10
3.6477944111
 20
72.2641946893
 10
3.6472353359
 20
72.2361837337
 10
3.6466582499
 20
72.2163279261
 10
3.6460555163
 20
72.2039766948
 10
3.6455236135
 20
72.1998741688
  0
LWPOLYLINE
  5
2B2
100
AcDbEntity
  8
RACCORDO
100
AcDbPolyline
 62
7
  6
CONTINUOUS
 90
5
 70
0
 10
2.9810421477
 20
71.2242849469
 10
2.9814006854
 20
71.2345347173
 10
2.9824336142
 20
71.2446452244
 10
2.9841409339
 20
71.2546164679
 10
2.9865366727
 20
71.2644929392
  0
LWPOLYLINE
  5
2B3
100
AcDbEntity
  8
ASSI
100
AcDbPolyline
 62
7
  6
CONTINUOUS
 90
5
 70
0
 10
2.9810421477
 20
71.2242849469
 10
2.9814006854
 20
71.2345347173
 10
2.9824336142
 20
71.2446452244
 10
2.9841409339
 20
71.2546164679
 10
2.9865366727
 20
71.2644929392
  0
LINE
  5
2B4
100
AcDbEntity
  8
RACCORDO
100
AcDbLine
 62
250
  6
CONTINUOUS
 10
3.2398192423
 20
75.0672389865
 11
3.2388858684
 21
75.0498741688
  0
LINE
  5
2B5
100
AcDbEntity
  8
ASSI
100
AcDbLine
 62
250
  6
CONTINUOUS
 10
3.2398192423
 20
75.0672389865
 11
3.2388858684
 21
75.0498741688
  0
LWPOLYLINE
  5
2B6
100
AcDbEntity
  8
0
100
AcDbPolyline
 62
7
  6
CONTINUOUS
 90
10
 70
0
 10
4.2266738138
 20
77.1788451083
 10
4.204879767
 20
77.1039580237
 10
4.1884405812
 20
77.0254459837
 10
4.1773562565
 20
76.9433089883
 10
4.1721045149
 20
76.8572349501
 10
4.1722076343
 20
76.7675359564
 10
4.1762324483
 20
76.6751482701
 10
4.1837012347
 20
76.5803839787
 10
4.1950917157
 20
76.4829309946
 10
4.2104038912
 20
76.3827893178
  0
LWPOLYLINE
  5
2B7
100
AcDbEntity
  8
ASSI
100
AcDbPolyline
 62
7
  6
CONTINUOUS
 90
10
 70
0
 10
4.2266738138
 20
77.1788451083
 10
4.204879767
 20
77.1039580237
 10
4.1884405812
 20
77.0254459837
 10
4.1773562565
 20
76.9433089883
 10
4.1721045149
 20
76.8572349501
 10
4.1722076343
 20
76.7675359564
 10
4.1762324483
 20
76.6751482701
 10
4.1837012347
 20
76.5803839787
 10
4.1950917157
 20
76.4829309946
 10
4.2104038912
 20
76.3827893178
  0
LWPOLYLINE
  5
2B8
100
AcDbEntity
  8
RACCORDO
100
AcDbPolyline
 62
250
  6
CONTINUOUS
 90
4
 70
0
 10
3.2532595175
 20
75.1141529297
 10
3.2471169352
 20
75.0998741688
 10
3.2425910042
 20
75.0840761831
 10
3.2398192423
 20
75.0672389865
  0
LWPOLYLINE
  5
2B9
100
AcDbEntity
  8
ASSI
100
AcDbPolyline
 62
250
  6
CONTINUOUS
 90
4
 70
0
 10
3.2532595175
 20
75.1141529297
 10
3.2471169352
 20
75.0998741688
 10
3.2425910042
 20
75.0840761831
 10
3.2398192423
 20
75.0672389865
  0
LINE
  5
2BA
100
AcDbEntity
  8
RACCORDO
100
AcDbLine
 62
250
  6
CONTINUOUS
 10
3.1567921195
 20
77.8835841264
 11
3.0339239914
 21
77.7975509369
  0
LINE
  5
2BB
100
AcDbEntity
  8
ASSI
100
AcDbLine
 62
250
  6
CONTINUOUS
 10
3.1567921195
 20
77.8835841264
 11
3.0339239914
 21
77.7975509369
  0
LINE
  5
2BC
100
AcDbEntity
  8
RACCORDO
100
AcDbLine
 62
250
  6
CONTINUOUS
 10
3.1567921195
 20
71.2161642112
 11
3.0339239914
 21
71.3021974006
  0
LINE
  5
2BD
100
AcDbEntity
  8
ASSI
100
AcDbLine
 62
250
  6
CONTINUOUS
 10
3.1567921195
 20
71.2161642112
 11
3.0339239914
 21
71.3021974006
  0
LWPOLYLINE
  5
2BE
100
AcDbEntity
  8
RACCORDO
100
AcDbPolyline
 62
250
  6
CONTINUOUS
 90
3
 70
0
 10
3.2471169352
 20
73.9998741688
 10
3.2425910042
 20
74.0156721544
 10
3.2398192423
 20
74.032509351
  0
LWPOLYLINE
  5
2BF
100
AcDbEntity
  8
ASSI
100
AcDbPolyline
 62
250
  6
CONTINUOUS
 90
3
 70
0
 10
3.2471169352
 20
73.9998741688
 10
3.2425910042
 20
74.0156721544
 10
3.2398192423
 20
74.032509351
  0
LWPOLYLINE
  5
2C0
100
AcDbEntity
  8
DRAFT
100
AcDbPolyline
 62
7
  6
CONTINUOUS
 90
6
 70
0
 10
3.6454414796
 20
73.3998741688
 10
3.6458012437
 20
73.3984824364
 10
3.6461574107
 20
73.3942739699
 10
3.6465099803
 20
73.3872487693
 10
3.6468611103
 20
73.3773468487
 10
3.6472086431
 20
73.3646281941
  0
LWPOLYLINE
  5
2C1
100
AcDbEntity
  8
ASSI
100
AcDbPolyline
 62
7
  6
CONTINUOUS
 90
6
 70
0
 10
3.6454414796
 20
73.3998741688
 10
3.6458012437
 20
73.3984824364
 10
3.6461574107
 20
73.3942739699
 10
3.6465099803
 20
73.3872487693
 10
3.6468611103
 20
73.3773468487
 10
3.6472086431
 20
73.3646281941
  0
LWPOLYLINE
  5
2C2
100
AcDbEntity
  8
RACCORDO
100
AcDbPolyline
 62
7
  6
CONTINUOUS
 90
3
 70
0
 10
2.984140934
 20
77.8451318695
 10
2.9824336142
 20
77.8551031131
 10
2.9814006854
 20
77.8652136201
  0
LWPOLYLINE
  5
2C3
100
AcDbEntity
  8
ASSI
100
AcDbPolyline
 62
7
  6
CONTINUOUS
 90
3
 70
0
 10
2.984140934
 20
77.8451318695
 10
2.9824336142
 20
77.8551031131
 10
2.9814006854
 20
77.8652136201
  0
LINE
  5
2C4
100
AcDbEntity
  8
RACCORDO
100
AcDbLine
 62
250
  6
CONTINUOUS
 10
3.7954616496
 20
74.0406262228
 11
3.7954616496
 21
75.0591221148
  0
LINE
  5
2C5
100
AcDbEntity
  8
ASSI
100
AcDbLine
 62
250
  6
CONTINUOUS
 10
3.7954616496
 20
74.0406262228
 11
3.7954616496
 21
75.0591221148
  0
LINE
  5
2C6
100
AcDbEntity
  8
RACCORDO
100
AcDbLine
 62
250
  6
CONTINUOUS
 10
3.8067921195
 20
76.955287922
 11
3.8067921195
 21
75.0498741688
  0
LINE
  5
2C7
100
AcDbEntity
  8
ASSI
100
AcDbLine
 62
250
  6
CONTINUOUS
 10
3.8067921195
 20
76.955287922
 11
3.8067921195
 21
75.0498741688
  0
LINE
  5
2C8
100
AcDbEntity
  8
RACCORDO
100
AcDbLine
 62
250
  6
CONTINUOUS
 10
3.8067921195
 20
74.0498741688
 11
3.8067921195
 21
72.1444604155
  0
LINE
  5
2C9
100
AcDbEntity
  8
ASSI
100
AcDbLine
 62
250
  6
CONTINUOUS
 10
3.8067921195
 20
74.0498741688
 11
3.8067921195
 21
72.1444604155
  0
LINE
  5
2CA
100
AcDbEntity
  8
0
100
AcDbLine
 62
7
  6
CONTINUOUS
 10
4.1922571477
 20
73.2256251688
 11
4.1922571477
 21
72.9030541688
  0
LINE
  5
2CB
100
AcDbEntity
  8
ASSI
100
AcDbLine
 62
7
  6
CONTINUOUS
 10
4.1922571477
 20
73.2256251688
 11
4.1922571477
 21
72.9030541688
  0
LINE
  5
2CC
100
AcDbEntity
  8
0
100
AcDbLine
 62
7
  6
CONTINUOUS
 10
4.1923491477
 20
75.8139211688
 11
4.1923491477
 21
75.5018721688
  0
LINE
  5
2CD
100
AcDbEntity
  8
ASSI
100
AcDbLine
 62
7
  6
CONTINUOUS
 10
4.1923491477
 20
75.8139211688
 11
4.1923491477
 21
75.5018721688
  0
LINE
  5
2CE
100
AcDbEntity
  8
0
100
AcDbLine
 62
7
  6
CONTINUOUS
 10
4.1923491477
 20
74.8220001688
 11
4.1923491477
 21
74.5028491688
  0
LINE
  5
2CF
100
AcDbEntity
  8
ASSI
100
AcDbLine
 62
7
  6
CONTINUOUS
 10
4.1923491477
 20
74.8220001688
 11
4.1923491477
 21
74.5028491688
  0
LINE
  5
2D0
100
AcDbEntity
  8
0
100
AcDbLine
 62
7
  6
CONTINUOUS
 10
4.1923491477
 20
73.8611131688
 11
4.1923491477
 21
73.5388091688
  0
LINE
  5
2D1
100
AcDbEntity
  8
ASSI
100
AcDbLine
 62
7
  6
CONTINUOUS
 10
4.1923491477
 20
73.8611131688
 11
4.1923491477
 21
73.5388091688
  0
LINE
  5
2D2
100
AcDbEntity
  8
0
100
AcDbLine
 62
7
  6
CONTINUOUS
 10
4.1923491477
 20
72.7833471688
 11
4.1923491477
 21
72.4609961688
  0
LINE
  5
2D3
100
AcDbEntity
  8
ASSI
100
AcDbLine
 62
7
  6
CONTINUOUS
 10
4.1923491477
 20
72.7833471688
 11
4.1923491477
 21
72.4609961688
  0
LINE
  5
2D4
100
AcDbEntity
  8
0
100
AcDbLine
 62
7
  6
CONTINUOUS
 10
4.1923491477
 20
71.8628621688
 11
4.1923491477
 21
71.5124501688
  0
LINE
  5
2D5
100
AcDbEntity
  8
ASSI
100
AcDbLine
 62
7
  6
CONTINUOUS
 10
4.1923491477
 20
71.8628621688
 11
4.1923491477
 21
71.5124501688
  0
LWPOLYLINE
  5
2D6
100
AcDbEntity
  8
0
100
AcDbPolyline
 62
7
  6
CONTINUOUS
 90
10
 70
0
 10
4.4465147687
 20
76.9460716508
 10
4.4538801834
 20
76.9812435731
 10
4.4651006333
 20
77.0128827348
 10
4.4801761184
 20
77.0409891361
 10
4.4995471438
 20
77.0658277421
 10
4.5227732043
 20
77.0871335876
 10
4.5485327846
 20
77.104111777
 10
4.5763853795
 20
77.1164973451
 10
4.6067714941
 20
77.124555257
 10
4.6396911284
 20
77.1282855128
  0
LWPOLYLINE
  5
2D7
100
AcDbEntity
  8
ASSI
100
AcDbPolyline
 62
7
  6
CONTINUOUS
 90
10
 70
0
 10
4.4465147687
 20
76.9460716508
 10
4.4538801834
 20
76.9812435731
 10
4.4651006333
 20
77.0128827348
 10
4.4801761184
 20
77.0409891361
 10
4.4995471438
 20
77.0658277421
 10
4.5227732043
 20
77.0871335876
 10
4.5485327846
 20
77.104111777
 10
4.5763853795
 20
77.1164973451
 10
4.6067714941
 20
77.124555257
 10
4.6396911284
 20
77.1282855128
  0
LWPOLYLINE
  5
2D8
100
AcDbEntity
  8
RACCORDO
100
AcDbPolyline
 62
7
  6
CONTINUOUS
 90
5
 70
0
 10
2.9865366727
 20
71.2644929392
 10
2.9896068025
 20
71.274230147
 10
2.9933092394
 20
71.283694618
 10
2.9976299553
 20
71.292841861
 10
3.0025829782
 20
71.3017163671
  0
LWPOLYLINE
  5
2D9
100
AcDbEntity
  8
ASSI
100
AcDbPolyline
 62
7
  6
CONTINUOUS
 90
5
 70
0
 10
2.9865366727
 20
71.2644929392
 10
2.9896068025
 20
71.274230147
 10
2.9933092394
 20
71.283694618
 10
2.9976299553
 20
71.292841861
 10
3.0025829782
 20
71.3017163671
  0
LWPOLYLINE
  5
2DA
100
AcDbEntity
  8
RACCORDO
100
AcDbPolyline
 62
250
  6
CONTINUOUS
 90
5
 70
0
 10
3.5640852205
 20
75.1141529299
 10
3.5579426383
 20
75.0998741689
 10
3.5534167072
 20
75.0840761832
 10
3.5506449453
 20
75.0672389866
 10
3.5497115713
 20
75.0498741688
  0
LWPOLYLINE
  5
2DB
100
AcDbEntity
  8
ASSI
100
AcDbPolyline
 62
250
  6
CONTINUOUS
 90
5
 70
0
 10
3.5640852205
 20
75.1141529299
 10
3.5579426383
 20
75.0998741689
 10
3.5534167072
 20
75.0840761832
 10
3.5506449453
 20
75.0672389866
 10
3.5497115713
 20
75.0498741688
  0
LINE
  5
2DC
100
AcDbEntity
  8
RACCORDO
100
AcDbLine
 62
7
  6
CONTINUOUS
 10
3.6454271353
 20
76.9006182977
 11
3.656797831
 21
76.9079949045
  0
LINE
  5
2DD
100
AcDbEntity
  8
ASSI
100
AcDbLine
 62
7
  6
CONTINUOUS
 10
3.6454271353
 20
76.9006182977
 11
3.656797831
 21
76.9079949045
  0
LINE
  5
2DE
100
AcDbEntity
  8
RACCORDO
100
AcDbLine
 62
250
  6
CONTINUOUS
 10
2.9810421477
 20
77.8754633906
 11
3.006797831
 21
77.8835841264
  0
LINE
  5
2DF
100
AcDbEntity
  8
ASSI
100
AcDbLine
 62
250
  6
CONTINUOUS
 10
2.9810421477
 20
77.8754633906
 11
3.006797831
 21
77.8835841264
  0
LINE
  5
2E0
100
AcDbEntity
  8
RACCORDO
100
AcDbLine
 62
250
  6
CONTINUOUS
 10
3.0081683082
 20
77.7894302012
 11
3.0339239914
 21
77.7975509369
  0
LINE
  5
2E1
100
AcDbEntity
  8
ASSI
100
AcDbLine
 62
250
  6
CONTINUOUS
 10
3.0081683082
 20
77.7894302012
 11
3.0339239914
 21
77.7975509369
  0
LINE
  5
2E2
100
AcDbEntity
  8
RACCORDO
100
AcDbLine
 62
250
  6
CONTINUOUS
 10
2.9810421477
 20
71.2242849469
 11
3.006797831
 21
71.2161642112
  0
LINE
  5
2E3
100
AcDbEntity
  8
ASSI
100
AcDbLine
 62
250
  6
CONTINUOUS
 10
2.9810421477
 20
71.2242849469
 11
3.006797831
 21
71.2161642112
  0
LINE
  5
2E4
100
AcDbEntity
  8
RACCORDO
100
AcDbLine
 62
250
  6
CONTINUOUS
 10
3.0081683082
 20
71.3103181363
 11
3.0339239914
 21
71.3021974006
  0
LINE
  5
2E5
100
AcDbEntity
  8
ASSI
100
AcDbLine
 62
250
  6
CONTINUOUS
 10
3.0081683082
 20
71.3103181363
 11
3.0339239914
 21
71.3021974006
  0
LINE
  5
2E6
100
AcDbEntity
  8
RACCORDO
100
AcDbLine
 62
7
  6
CONTINUOUS
 10
3.6454271353
 20
72.1991300398
 11
3.656797831
 21
72.191753433
  0
LINE
  5
2E7
100
AcDbEntity
  8
ASSI
100
AcDbLine
 62
7
  6
CONTINUOUS
 10
3.6454271353
 20
72.1991300398
 11
3.656797831
 21
72.191753433
  0
LWPOLYLINE
  5
2E8
100
AcDbEntity
  8
RACCORDO
100
AcDbPolyline
 62
250
  6
CONTINUOUS
 90
5
 70
0
 10
3.5640852207
 20
73.9855954074
 10
3.5579426384
 20
73.9998741683
 10
3.5534167072
 20
74.015672154
 10
3.5506449453
 20
74.0325093508
 10
3.5497115713
 20
74.0498741688
  0
LWPOLYLINE
  5
2E9
100
AcDbEntity
  8
ASSI
100
AcDbPolyline
 62
250
  6
CONTINUOUS
 90
5
 70
0
 10
3.5640852207
 20
73.9855954074
 10
3.5579426384
 20
73.9998741683
 10
3.5534167072
 20
74.015672154
 10
3.5506449453
 20
74.0325093508
 10
3.5497115713
 20
74.0498741688
  0
LWPOLYLINE
  5
2EA
100
AcDbEntity
  8
DRAFT
100
AcDbPolyline
 62
7
  6
CONTINUOUS
 90
4
 70
0
 10
3.6454271353
 20
76.9006182977
 10
3.6460555164
 20
76.8957716423
 10
3.6466582499
 20
76.8834204103
 10
3.6472353359
 20
76.8635646015
  0
LWPOLYLINE
  5
2EB
100
AcDbEntity
  8
ASSI
100
AcDbPolyline
 62
7
  6
CONTINUOUS
 90
4
 70
0
 10
3.6454271353
 20
76.9006182977
 10
3.6460555164
 20
76.8957716423
 10
3.6466582499
 20
76.8834204103
 10
3.6472353359
 20
76.8635646015
  0
LINE
  5
2EC
100
AcDbEntity
  8
0
100
AcDbLine
 62
7
  6
CONTINUOUS
 10
4.8798347218
 20
76.8777124819
 11
4.8798347218
 21
76.6933663793
  0
LINE
  5
2ED
100
AcDbEntity
  8
ASSI
100
AcDbLine
 62
7
  6
CONTINUOUS
 10
4.8798347218
 20
76.8777124819
 11
4.8798347218
 21
76.6933663793
  0
LINE
  5
2EE
100
AcDbEntity
  8
0
100
AcDbLine
 62
7
  6
CONTINUOUS
 10
5.132922406
 20
76.7040623469
 11
5.132922406
 21
76.8770171861
  0
LINE
  5
2EF
100
AcDbEntity
  8
ASSI
100
AcDbLine
 62
7
  6
CONTINUOUS
 10
5.132922406
 20
76.7040623469
 11
5.132922406
 21
76.8770171861
  0
LINE
  5
2F0
100
AcDbEntity
  8
0
100
AcDbLine
 62
7
  6
CONTINUOUS
 10
5.1904581477
 20
75.8000611688
 11
5.1904581477
 21
75.4912231688
  0
LINE
  5
2F1
100
AcDbEntity
  8
ASSI
100
AcDbLine
 62
7
  6
CONTINUOUS
 10
5.1904581477
 20
75.8000611688
 11
5.1904581477
 21
75.4912231688
  0
LWPOLYLINE
  5
2F2
100
AcDbEntity
  8
0
100
AcDbPolyline
 62
7
  6
CONTINUOUS
 90
10
 70
0
 10
5.132922406
 20
76.8770171861
 10
5.1346100167
 20
76.9016913279
 10
5.1398103985
 20
76.9254310663
 10
5.1485235512
 20
76.9482364012
 10
5.1609526659
 20
76.9704207775
 10
5.1768945515
 20
76.9916707504
 10
5.1957396357
 20
77.011045985
 10
5.2172847277
 20
77.0282330365
 10
5.2417330181
 20
77.0435453498
 10
5.2690845072
 20
77.0569829249
  0
LWPOLYLINE
  5
2F3
100
AcDbEntity
  8
ASSI
100
AcDbPolyline
 62
7
  6
CONTINUOUS
 90
10
 70
0
 10
5.132922406
 20
76.8770171861
 10
5.1346100167
 20
76.9016913279
 10
5.1398103985
 20
76.9254310663
 10
5.1485235512
 20
76.9482364012
 10
5.1609526659
 20
76.9704207775
 10
5.1768945515
 20
76.9916707504
 10
5.1957396357
 20
77.011045985
 10
5.2172847277
 20
77.0282330365
 10
5.2417330181
 20
77.0435453498
 10
5.2690845072
 20
77.0569829249
  0
LINE
  5
2F4
100
AcDbEntity
  8
RACCORDO
100
AcDbLine
 62
7
  6
CONTINUOUS
 10
5.969119487
 20
78.0741184855
 11
5.9810421477
 21
78.0800793618
  0
LINE
  5
2F5
100
AcDbEntity
  8
ASSI
100
AcDbLine
 62
7
  6
CONTINUOUS
 10
5.969119487
 20
78.0741184855
 11
5.9810421477
 21
78.0800793618
  0
LWPOLYLINE
  5
2F6
100
AcDbEntity
  8
RACCORDO
100
AcDbPolyline
 62
250
  6
CONTINUOUS
 90
10
 70
0
 10
20.9642443201
 20
71.0166777079
 10
20.9902892155
 20
71.0189582052
 10
21.0155428559
 20
71.0257264548
 10
21.0392379969
 20
71.0367768405
 10
21.0606547425
 20
71.0517736497
 10
21.0791424083
 20
71.0702612661
 10
21.094139295
 20
71.0916780063
 10
21.1051897654
 20
71.1153731961
 10
21.1119580833
 20
71.1406269426
 10
21.1142386086
 20
71.1666719964
  0
LWPOLYLINE
  5
2F7
100
AcDbEntity
  8
ASSI
100
AcDbPolyline
 62
250
  6
CONTINUOUS
 90
10
 70
0
 10
20.9642443201
 20
71.0166777079
 10
20.9902892155
 20
71.0189582052
 10
21.0155428559
 20
71.0257264548
 10
21.0392379969
 20
71.0367768405
 10
21.0606547425
 20
71.0517736497
 10
21.0791424083
 20
71.0702612661
 10
21.094139295
 20
71.0916780063
 10
21.1051897654
 20
71.1153731961
 10
21.1119580833
 20
71.1406269426
 10
21.1142386086
 20
71.1666719964
  0
LWPOLYLINE
  5
2F8
100
AcDbEntity
  8
RACCORDO
100
AcDbPolyline
 62
7
  6
CONTINUOUS
 90
10
 70
0
 10
3.656797831
 20
72.191753433
 10
3.6591324661
 20
72.1909004523
 10
3.665697425
 20
72.1888404887
 10
3.6763979406
 20
72.1855735422
 10
3.6910019827
 20
72.1809575687
 10
3.7091646511
 20
72.1751346124
 10
3.7304505953
 20
72.1685308057
 10
3.7542961365
 20
72.1612881927
 10
3.7800030844
 20
72.1532647293
 10
3.8067921195
 20
72.1444604155
  0
LWPOLYLINE
  5
2F9
100
AcDbEntity
  8
ASSI
100
AcDbPolyline
 62
7
  6
CONTINUOUS
 90
10
 70
0
 10
3.656797831
 20
72.191753433
 10
3.6591324661
 20
72.1909004523
 10
3.665697425
 20
72.1888404887
 10
3.6763979406
 20
72.1855735422
 10
3.6910019827
 20
72.1809575687
 10
3.7091646511
 20
72.1751346124
 10
3.7304505953
 20
72.1685308057
 10
3.7542961365
 20
72.1612881927
 10
3.7800030844
 20
72.1532647293
 10
3.8067921195
 20
72.1444604155
  0
LWPOLYLINE
  5
2FA
100
AcDbEntity
  8
RACCORDO
100
AcDbPolyline
 62
7
  6
CONTINUOUS
 90
5
 70
0
 10
3.0153533307
 20
77.8336522984
 10
3.0190654234
 20
77.824174591
 10
3.0234117114
 20
77.814970449
 10
3.0283721814
 20
77.8060822551
 10
3.0339239914
 20
77.7975509369
  0
LWPOLYLINE
  5
2FB
100
AcDbEntity
  8
ASSI
100
AcDbPolyline
 62
7
  6
CONTINUOUS
 90
5
 70
0
 10
3.0153533307
 20
77.8336522984
 10
3.0190654234
 20
77.824174591
 10
3.0234117114
 20
77.814970449
 10
3.0283721814
 20
77.8060822551
 10
3.0339239914
 20
77.7975509369
  0
LWPOLYLINE
  5
2FC
100
AcDbEntity
  8
0
100
AcDbPolyline
 62
7
  6
CONTINUOUS
 90
10
 70
0
 10
4.4556115559
 20
76.6933663793
 10
4.4508714444
 20
76.7218829109
 10
4.447060549
 20
76.7502738207
 10
4.4441788696
 20
76.7785391086
 10
4.442222242
 20
76.806657335
 10
4.4411948305
 20
76.8346499395
 10
4.4411091281
 20
76.8625812414
 10
4.4419692992
 20
76.8904726805
 10
4.4437711794
 20
76.918302817
 10
4.4465147687
 20
76.9460716508
  0
LWPOLYLINE
  5
2FD
100
AcDbEntity
  8
ASSI
100
AcDbPolyline
 62
7
  6
CONTINUOUS
 90
10
 70
0
 10
4.4556115559
 20
76.6933663793
 10
4.4508714444
 20
76.7218829109
 10
4.447060549
 20
76.7502738207
 10
4.4441788696
 20
76.7785391086
 10
4.442222242
 20
76.806657335
 10
4.4411948305
 20
76.8346499395
 10
4.4411091281
 20
76.8625812414
 10
4.4419692992
 20
76.8904726805
 10
4.4437711794
 20
76.918302817
 10
4.4465147687
 20
76.9460716508
  0
LINE
  5
2FE
100
AcDbEntity
  8
0
100
AcDbLine
 62
7
  6
CONTINUOUS
 10
5.4291771477
 20
75.4252391688
 11
5.4291771477
 21
75.8645281688
  0
LINE
  5
2FF
100
AcDbEntity
  8
ASSI
100
AcDbLine
 62
7
  6
CONTINUOUS
 10
5.4291771477
 20
75.4252391688
 11
5.4291771477
 21
75.8645281688
  0
LINE
  5
300
100
AcDbEntity
  8
0
100
AcDbLine
 62
7
  6
CONTINUOUS
 10
5.7376791477
 20
72.0023501688
 11
5.7376791477
 21
72.2866161688
  0
LINE
  5
301
100
AcDbEntity
  8
ASSI
100
AcDbLine
 62
7
  6
CONTINUOUS
 10
5.7376791477
 20
72.0023501688
 11
5.7376791477
 21
72.2866161688
  0
LINE
  5
302
100
AcDbEntity
  8
0
100
AcDbLine
 62
7
  6
CONTINUOUS
 10
5.7376791477
 20
72.9030541688
 11
5.7376791477
 21
73.2256251688
  0
LINE
  5
303
100
AcDbEntity
  8
ASSI
100
AcDbLine
 62
7
  6
CONTINUOUS
 10
5.7376791477
 20
72.9030541688
 11
5.7376791477
 21
73.2256251688
  0
LINE
  5
304
100
AcDbEntity
  8
0
100
AcDbLine
 62
7
  6
CONTINUOUS
 10
5.7376791477
 20
73.3992751688
 11
5.7376791477
 21
73.7078701688
  0
LINE
  5
305
100
AcDbEntity
  8
ASSI
100
AcDbLine
 62
7
  6
CONTINUOUS
 10
5.7376791477
 20
73.3992751688
 11
5.7376791477
 21
73.7078701688
  0
LINE
  5
306
100
AcDbEntity
  8
0
100
AcDbLine
 62
7
  6
CONTINUOUS
 10
5.7376791477
 20
74.1558961688
 11
5.7376791477
 21
74.2011361688
  0
LINE
  5
307
100
AcDbEntity
  8
ASSI
100
AcDbLine
 62
7
  6
CONTINUOUS
 10
5.7376791477
 20
74.1558961688
 11
5.7376791477
 21
74.2011361688
  0
LINE
  5
308
100
AcDbEntity
  8
0
100
AcDbLine
 62
7
  6
CONTINUOUS
 10
5.7376791477
 20
74.6509471688
 11
5.7376791477
 21
74.9665071688
  0
LINE
  5
309
100
AcDbEntity
  8
ASSI
100
AcDbLine
 62
7
  6
CONTINUOUS
 10
5.7376791477
 20
74.6509471688
 11
5.7376791477
 21
74.9665071688
  0
LINE
  5
30A
100
AcDbEntity
  8
0
100
AcDbLine
 62
7
  6
CONTINUOUS
 10
5.7376791477
 20
75.0171591688
 11
5.7376791477
 21
75.3362291688
  0
LINE
  5
30B
100
AcDbEntity
  8
ASSI
100
AcDbLine
 62
7
  6
CONTINUOUS
 10
5.7376791477
 20
75.0171591688
 11
5.7376791477
 21
75.3362291688
  0
LINE
  5
30C
100
AcDbEntity
  8
0
100
AcDbLine
 62
7
  6
CONTINUOUS
 10
5.7376791477
 20
75.9480901688
 11
5.7376791477
 21
76.2880671688
  0
LINE
  5
30D
100
AcDbEntity
  8
ASSI
100
AcDbLine
 62
7
  6
CONTINUOUS
 10
5.7376791477
 20
75.9480901688
 11
5.7376791477
 21
76.2880671688
  0
LINE
  5
30E
100
AcDbEntity
  8
0
100
AcDbLine
 62
7
  6
CONTINUOUS
 10
5.7376791356
 20
76.3827893178
 11
5.7376791356
 21
76.7040623469
  0
LINE
  5
30F
100
AcDbEntity
  8
ASSI
100
AcDbLine
 62
7
  6
CONTINUOUS
 10
5.7376791356
 20
76.3827893178
 11
5.7376791356
 21
76.7040623469
  0
LINE
  5
310
100
AcDbEntity
  8
0
100
AcDbLine
 62
7
  6
CONTINUOUS
 10
5.7376791356
 20
77.1980352734
 11
5.7376791356
 21
77.5083110401
  0
LINE
  5
311
100
AcDbEntity
  8
ASSI
100
AcDbLine
 62
7
  6
CONTINUOUS
 10
5.7376791356
 20
77.1980352734
 11
5.7376791356
 21
77.5083110401
  0
LINE
  5
312
100
AcDbEntity
  8
RACCORDO
100
AcDbLine
 62
7
  6
CONTINUOUS
 10
5.966572832
 20
77.9511935972
 11
5.9665240756
 21
77.5998741688
  0
LINE
  5
313
100
AcDbEntity
  8
ASSI
100
AcDbLine
 62
7
  6
CONTINUOUS
 10
5.966572832
 20
77.9511935972
 11
5.9665240756
 21
77.5998741688
  0
LINE
  5
314
100
AcDbEntity
  8
DRAFT
100
AcDbLine
 62
7
  6
CONTINUOUS
 10
5.9665240756
 20
77.5998741688
 11
5.9810421477
 21
78.0800793618
  0
LINE
  5
315
100
AcDbEntity
  8
ASSI
100
AcDbLine
 62
7
  6
CONTINUOUS
 10
5.9665240756
 20
77.5998741688
 11
5.9810421477
 21
78.0800793618
  0
LWPOLYLINE
  5
316
100
AcDbEntity
  8
RACCORDO
100
AcDbPolyline
 62
7
  6
CONTINUOUS
 90
8
 70
0
 10
5.969119487
 20
78.0741184855
 10
5.968647358
 20
78.0710872704
 10
5.9682141824
 20
78.06424342
 10
5.9678199602
 20
78.0535869342
 10
5.9674553792
 20
78.0385792383
 10
5.9671297517
 20
78.019758907
 10
5.966871014
 20
77.9987416648
 10
5.966572832
 20
77.9511935972
  0
LWPOLYLINE
  5
317
100
AcDbEntity
  8
ASSI
100
AcDbPolyline
 62
7
  6
CONTINUOUS
 90
8
 70
0
 10
5.969119487
 20
78.0741184855
 10
5.968647358
 20
78.0710872704
 10
5.9682141824
 20
78.06424342
 10
5.9678199602
 20
78.0535869342
 10
5.9674553792
 20
78.0385792383
 10
5.9671297517
 20
78.019758907
 10
5.966871014
 20
77.9987416648
 10
5.966572832
 20
77.9511935972
  0
LINE
  5
318
100
AcDbEntity
  8
CURVE
100
AcDbLine
 62
250
  6
CONTINUOUS
 10
6.9810421477
 20
76.9498741926
 11
7.0810421522
 21
77.1498741807
  0
LINE
  5
319
100
AcDbEntity
  8
RACCORDO
100
AcDbLine
 62
7
  6
CONTINUOUS
 10
3.0025829782
 20
71.3017163671
 11
3.0081683082
 21
71.3103181363
  0
LINE
  5
31A
100
AcDbEntity
  8
ASSI
100
AcDbLine
 62
7
  6
CONTINUOUS
 10
3.0025829782
 20
71.3017163671
 11
3.0081683082
 21
71.3103181363
  0
LWPOLYLINE
  5
31B
100
AcDbEntity
  8
RACCORDO
100
AcDbPolyline
 62
7
  6
CONTINUOUS
 90
10
 70
0
 10
3.0339239914
 20
71.3021974006
 10
3.0283721813
 20
71.2936660824
 10
3.0234117114
 20
71.2847778884
 10
3.0190654233
 20
71.2755737464
 10
3.0153533306
 20
71.266096039
 10
3.0122925265
 20
71.2563884086
 10
3.0098971052
 20
71.2464955564
 10
3.008178097
 20
71.2364630362
 10
3.0071434175
 20
71.2263370453
 10
3.006797831
 20
71.2161642112
  0
LWPOLYLINE
  5
31C
100
AcDbEntity
  8
ASSI
100
AcDbPolyline
 62
7
  6
CONTINUOUS
 90
10
 70
0
 10
3.0339239914
 20
71.3021974006
 10
3.0283721813
 20
71.2936660824
 10
3.0234117114
 20
71.2847778884
 10
3.0190654233
 20
71.2755737464
 10
3.0153533306
 20
71.266096039
 10
3.0122925265
 20
71.2563884086
 10
3.0098971052
 20
71.2464955564
 10
3.008178097
 20
71.2364630362
 10
3.0071434175
 20
71.2263370453
 10
3.006797831
 20
71.2161642112
  0
LINE
  5
31D
100
AcDbEntity
  8
RACCORDO
100
AcDbLine
 62
7
  6
CONTINUOUS
 10
3.0081683082
 20
71.3103181363
 11
3.6310421477
 21
72.1998741688
  0
LINE
  5
31E
100
AcDbEntity
  8
ASSI
100
AcDbLine
 62
7
  6
CONTINUOUS
 10
3.0081683082
 20
71.3103181363
 11
3.6310421477
 21
72.1998741688
  0
LINE
  5
31F
100
AcDbEntity
  8
RACCORDO
100
AcDbLine
 62
7
  6
CONTINUOUS
 10
3.656797831
 20
72.191753433
 11
3.0339239914
 21
71.3021974006
  0
LINE
  5
320
100
AcDbEntity
  8
ASSI
100
AcDbLine
 62
7
  6
CONTINUOUS
 10
3.656797831
 20
72.191753433
 11
3.0339239914
 21
71.3021974006
  0
LINE
  5
321
100
AcDbEntity
  8
RACCORDO
100
AcDbLine
 62
250
  6
CONTINUOUS
 10
3.8067921195
 20
72.1444604155
 11
3.1567921195
 21
71.2161642112
  0
LINE
  5
322
100
AcDbEntity
  8
ASSI
100
AcDbLine
 62
250
  6
CONTINUOUS
 10
3.8067921195
 20
72.1444604155
 11
3.1567921195
 21
71.2161642112
  0
LINE
  5
323
100
AcDbEntity
  8
CURVE
100
AcDbLine
 62
250
  6
CONTINUOUS
 10
7.0810421522
 20
77.1498741807
 11
7.2810421507
 21
77.3498741688
  0
LINE
  5
324
100
AcDbEntity
  8
DRAFT
100
AcDbLine
 62
7
  6
CONTINUOUS
 10
7.9915151867
 20
78.0998741688
 11
7.9823731169
 21
78.095303482
  0
LINE
  5
325
100
AcDbEntity
  8
ASSI
100
AcDbLine
 62
7
  6
CONTINUOUS
 10
7.9915151867
 20
78.0998741688
 11
7.9823731169
 21
78.095303482
  0
LWPOLYLINE
  5
326
100
AcDbEntity
  8
0
100
AcDbPolyline
 62
7
  6
CONTINUOUS
 90
6
 70
0
 10
5.2690845072
 20
77.0569829249
 10
5.318331088
 20
77.0737435948
 10
5.3683538089
 20
77.0900590417
 10
5.4191526701
 20
77.1059292656
 10
5.4708226953
 20
77.1211233648
 10
5.5762060945
 20
77.1508685994
  0
LWPOLYLINE
  5
327
100
AcDbEntity
  8
ASSI
100
AcDbPolyline
 62
7
  6
CONTINUOUS
 90
6
 70
0
 10
5.2690845072
 20
77.0569829249
 10
5.318331088
 20
77.0737435948
 10
5.3683538089
 20
77.0900590417
 10
5.4191526701
 20
77.1059292656
 10
5.4708226953
 20
77.1211233648
 10
5.5762060945
 20
77.1508685994
  0
LWPOLYLINE
  5
328
100
AcDbEntity
  8
RACCORDO
100
AcDbPolyline
 62
7
  6
CONTINUOUS
 90
6
 70
0
 10
3.6763979406
 20
76.9141747954
 10
3.7092263827
 20
76.9244179377
 10
3.7304505953
 20
76.9312175319
 10
3.7541379112
 20
76.9389619712
 10
3.7797978797
 20
76.9471344343
 10
3.8067921195
 20
76.955287922
  0
LWPOLYLINE
  5
329
100
AcDbEntity
  8
ASSI
100
AcDbPolyline
 62
7
  6
CONTINUOUS
 90
6
 70
0
 10
3.6763979406
 20
76.9141747954
 10
3.7092263827
 20
76.9244179377
 10
3.7304505953
 20
76.9312175319
 10
3.7541379112
 20
76.9389619712
 10
3.7797978797
 20
76.9471344343
 10
3.8067921195
 20
76.955287922
  0
LINE
  5
32A
100
AcDbEntity
  8
0
100
AcDbLine
 62
7
  6
CONTINUOUS
 10
5.5762060945
 20
77.1508685994
 11
5.7376791356
 21
77.1980352734
  0
LINE
  5
32B
100
AcDbEntity
  8
ASSI
100
AcDbLine
 62
7
  6
CONTINUOUS
 10
5.5762060945
 20
77.1508685994
 11
5.7376791356
 21
77.1980352734
  0
LINE
  5
32C
100
AcDbEntity
  8
CURVE
100
AcDbLine
 62
250
  6
CONTINUOUS
 10
14.5872921477
 20
72.1498741688
 11
14.7622921477
 21
72.1936241688
  0
LWPOLYLINE
  5
32D
100
AcDbEntity
  8
RACCORDO
100
AcDbPolyline
 62
250
  6
CONTINUOUS
 90
16
 70
0
 10
20.3719897113
 20
71.0256298605
 10
20.3823593049
 20
71.0258277115
 10
20.3927159985
 20
71.0263766715
 10
20.4030493791
 20
71.0272764441
 10
20.4133453253
 20
71.0285255425
 10
20.4235972013
 20
71.0301232566
 10
20.4338056224
 20
71.0320714875
 10
20.4439603096
 20
71.0343699722
 10
20.4540502242
 20
71.0370179369
 10
20.464074194
 20
71.0400190815
 10
20.474020638
 20
71.043373157
 10
20.4838786747
 20
71.0470797394
 10
20.4936471268
 20
71.051144786
 10
20.5033172244
 20
71.0555709085
 10
20.5128732296
 20
71.0603554998
 10
20.5223027262
 20
71.0654975394
  0
LWPOLYLINE
  5
32E
100
AcDbEntity
  8
ASSI
100
AcDbPolyline
 62
250
  6
CONTINUOUS
 90
16
 70
0
 10
20.3719897113
 20
71.0256298605
 10
20.3823593049
 20
71.0258277115
 10
20.3927159985
 20
71.0263766715
 10
20.4030493791
 20
71.0272764441
 10
20.4133453253
 20
71.0285255425
 10
20.4235972013
 20
71.0301232566
 10
20.4338056224
 20
71.0320714875
 10
20.4439603096
 20
71.0343699722
 10
20.4540502242
 20
71.0370179369
 10
20.464074194
 20
71.0400190815
 10
20.474020638
 20
71.043373157
 10
20.4838786747
 20
71.0470797394
 10
20.4936471268
 20
71.051144786
 10
20.5033172244
 20
71.0555709085
 10
20.5128732296
 20
71.0603554998
 10
20.5223027262
 20
71.0654975394
  0
LINE
  5
32F
100
AcDbEntity
  8
0
100
AcDbLine
 62
7
  6
CONTINUOUS
 10
20.967835567
 20
71.0130864611
 11
19.4367032152
 21
71.006855663
  0
LINE
  5
330
100
AcDbEntity
  8
ASSI
100
AcDbLine
 62
7
  6
CONTINUOUS
 10
20.967835567
 20
71.0130864611
 11
19.4367032152
 21
71.006855663
  0
LINE
  5
331
100
AcDbEntity
  8
RACCORDO
100
AcDbLine
 62
7
  6
CONTINUOUS
 10
17.9705691088
 20
70.9998741688
 11
3.1310364362
 21
70.9998741688
  0
LINE
  5
332
100
AcDbEntity
  8
ASSI
100
AcDbLine
 62
7
  6
CONTINUOUS
 10
17.9705691088
 20
70.9998741688
 11
3.1310364362
 21
70.9998741688
  0
LINE
  5
333
100
AcDbEntity
  8
0
100
AcDbLine
 62
7
  6
CONTINUOUS
 10
19.4367032152
 20
71.006855663
 11
17.9845331607
 21
71.006855663
  0
LINE
  5
334
100
AcDbEntity
  8
ASSI
100
AcDbLine
 62
7
  6
CONTINUOUS
 10
19.4367032152
 20
71.006855663
 11
17.9845331607
 21
71.006855663
  0
LINE
  5
335
100
AcDbEntity
  8
DRAFT
100
AcDbLine
 62
7
  6
CONTINUOUS
 10
19.9810421477
 20
71.0196689757
 11
17.9810421477
 21
71.0196689757
  0
LINE
  5
336
100
AcDbEntity
  8
ASSI
100
AcDbLine
 62
7
  6
CONTINUOUS
 10
19.9810421477
 20
71.0196689757
 11
17.9810421477
 21
71.0196689757
  0
LINE
  5
337
100
AcDbEntity
  8
RACCORDO
100
AcDbLine
 62
7
  6
CONTINUOUS
 10
3.1567921195
 20
71.0256298521
 11
17.969119487
 21
71.0256298521
  0
LINE
  5
338
100
AcDbEntity
  8
ASSI
100
AcDbLine
 62
7
  6
CONTINUOUS
 10
3.1567921195
 20
71.0256298521
 11
17.969119487
 21
71.0256298521
  0
LINE
  5
339
100
AcDbEntity
  8
RACCORDO
100
AcDbLine
 62
7
  6
CONTINUOUS
 10
19.9929648084
 20
71.0256298521
 11
20.3719902667
 21
71.0256298521
  0
LINE
  5
33A
100
AcDbEntity
  8
ASSI
100
AcDbLine
 62
7
  6
CONTINUOUS
 10
19.9929648084
 20
71.0256298521
 11
20.3719902667
 21
71.0256298521
  0
LINE
  5
33B
100
AcDbEntity
  8
RACCORDO
100
AcDbLine
 62
250
  6
CONTINUOUS
 10
19.9955602198
 20
71.1756241405
 11
20.372003215
 21
71.1756241519
  0
LINE
  5
33C
100
AcDbEntity
  8
ASSI
100
AcDbLine
 62
250
  6
CONTINUOUS
 10
19.9955602198
 20
71.1756241405
 11
20.372003215
 21
71.1756241519
  0
LINE
  5
33D
100
AcDbEntity
  8
RACCORDO
100
AcDbLine
 62
250
  6
CONTINUOUS
 10
3.006797831
 20
71.1756241405
 11
17.9665240756
 21
71.1756241405
  0
LINE
  5
33E
100
AcDbEntity
  8
ASSI
100
AcDbLine
 62
250
  6
CONTINUOUS
 10
3.006797831
 20
71.1756241405
 11
17.9665240756
 21
71.1756241405
  0
LINE
  5
33F
100
AcDbEntity
  8
RACCORDO
100
AcDbLine
 62
250
  6
CONTINUOUS
 10
3.1567921195
 20
71.2161642112
 11
3.006797831
 21
71.2161642112
  0
LINE
  5
340
100
AcDbEntity
  8
ASSI
100
AcDbLine
 62
250
  6
CONTINUOUS
 10
3.1567921195
 20
71.2161642112
 11
3.006797831
 21
71.2161642112
  0
LINE
  5
341
100
AcDbEntity
  8
RACCORDO
100
AcDbLine
 62
250
  6
CONTINUOUS
 10
20.9642443201
 20
71.0166777079
 11
20.3719902667
 21
71.0256298521
  0
LINE
  5
342
100
AcDbEntity
  8
ASSI
100
AcDbLine
 62
250
  6
CONTINUOUS
 10
20.9642443201
 20
71.0166777079
 11
20.3719902667
 21
71.0256298521
  0
LINE
  5
343
100
AcDbEntity
  8
0
100
AcDbLine
 62
7
  6
CONTINUOUS
 10
4.1923491477
 20
72.4609961688
 11
5.2560471477
 21
72.1574301688
  0
LINE
  5
344
100
AcDbEntity
  8
ASSI
100
AcDbLine
 62
7
  6
CONTINUOUS
 10
4.1923491477
 20
72.4609961688
 11
5.2560471477
 21
72.1574301688
  0
LINE
  5
345
100
AcDbEntity
  8
0
100
AcDbLine
 62
7
  6
CONTINUOUS
 10
5.7376791477
 20
72.2866161688
 11
4.1923491477
 21
72.7833471688
  0
LINE
  5
346
100
AcDbEntity
  8
ASSI
100
AcDbLine
 62
7
  6
CONTINUOUS
 10
5.7376791477
 20
72.2866161688
 11
4.1923491477
 21
72.7833471688
  0
LINE
  5
347
100
AcDbEntity
  8
CURVE
100
AcDbLine
 62
250
  6
CONTINUOUS
 10
7.2810421507
 20
72.1498741688
 11
7.0810421522
 21
72.3498741777
  0
LINE
  5
348
100
AcDbEntity
  8
RACCORDO
100
AcDbLine
 62
7
  6
CONTINUOUS
 10
3.6310421477
 20
76.8998741688
 11
3.0081683082
 21
77.7894302012
  0
LINE
  5
349
100
AcDbEntity
  8
ASSI
100
AcDbLine
 62
7
  6
CONTINUOUS
 10
3.6310421477
 20
76.8998741688
 11
3.0081683082
 21
77.7894302012
  0
LINE
  5
34A
100
AcDbEntity
  8
RACCORDO
100
AcDbLine
 62
7
  6
CONTINUOUS
 10
3.0339239914
 20
77.7975509369
 11
3.656797831
 21
76.9079949045
  0
LINE
  5
34B
100
AcDbEntity
  8
ASSI
100
AcDbLine
 62
7
  6
CONTINUOUS
 10
3.0339239914
 20
77.7975509369
 11
3.656797831
 21
76.9079949045
  0
LINE
  5
34C
100
AcDbEntity
  8
RACCORDO
100
AcDbLine
 62
250
  6
CONTINUOUS
 10
3.1567921195
 20
77.8835841264
 11
3.8067921195
 21
76.955287922
  0
LINE
  5
34D
100
AcDbEntity
  8
ASSI
100
AcDbLine
 62
250
  6
CONTINUOUS
 10
3.1567921195
 20
77.8835841264
 11
3.8067921195
 21
76.955287922
  0
LWPOLYLINE
  5
34E
100
AcDbEntity
  8
RACCORDO
100
AcDbPolyline
 62
7
  6
CONTINUOUS
 90
7
 70
0
 10
3.0081683082
 20
77.7894302012
 10
3.0025829782
 20
77.7980319704
 10
2.9976299553
 20
77.8069064765
 10
2.9933092395
 20
77.8160537194
 10
2.9896068026
 20
77.8255181903
 10
2.9865366728
 20
77.8352553982
 10
2.984140934
 20
77.8451318695
  0
LWPOLYLINE
  5
34F
100
AcDbEntity
  8
ASSI
100
AcDbPolyline
 62
7
  6
CONTINUOUS
 90
7
 70
0
 10
3.0081683082
 20
77.7894302012
 10
3.0025829782
 20
77.7980319704
 10
2.9976299553
 20
77.8069064765
 10
2.9933092395
 20
77.8160537194
 10
2.9896068026
 20
77.8255181903
 10
2.9865366728
 20
77.8352553982
 10
2.984140934
 20
77.8451318695
  0
LINE
  5
350
100
AcDbEntity
  8
CURVE
100
AcDbLine
 62
250
  6
CONTINUOUS
 10
6.9810421477
 20
72.5498741867
 11
6.9810421477
 21
73.1498741926
  0
LINE
  5
351
100
AcDbEntity
  8
CURVE
100
AcDbLine
 62
250
  6
CONTINUOUS
 10
6.9810421477
 20
76.3498741867
 11
6.9810421477
 21
76.9498741926
  0
LINE
  5
352
100
AcDbEntity
  8
CURVE
100
AcDbLine
 62
250
  6
CONTINUOUS
 10
8.1810421596
 20
77.1498741807
 11
8.3810421477
 21
77.3498741688
  0
LINE
  5
353
100
AcDbEntity
  8
CURVE
100
AcDbLine
 62
250
  6
CONTINUOUS
 10
7.5810421537
 20
76.1498741777
 11
7.3810421656
 21
75.9498741688
  0
LINE
  5
354
100
AcDbEntity
  8
RACCORDO
100
AcDbLine
 62
7
  6
CONTINUOUS
 10
3.8067921195
 20
74.0498741688
 11
3.7954616496
 21
74.0406262228
  0
LINE
  5
355
100
AcDbEntity
  8
ASSI
100
AcDbLine
 62
7
  6
CONTINUOUS
 10
3.8067921195
 20
74.0498741688
 11
3.7954616496
 21
74.0406262228
  0
LWPOLYLINE
  5
356
100
AcDbEntity
  8
RACCORDO
100
AcDbPolyline
 62
7
  6
CONTINUOUS
 90
3
 70
0
 10
3.7954616496
 20
74.0406262231
 10
3.7769094798
 20
74.0276908478
 10
3.7592262037
 20
74.015698495
  0
LWPOLYLINE
  5
357
100
AcDbEntity
  8
ASSI
100
AcDbPolyline
 62
7
  6
CONTINUOUS
 90
3
 70
0
 10
3.7954616496
 20
74.0406262231
 10
3.7769094798
 20
74.0276908478
 10
3.7592262037
 20
74.015698495
  0
LWPOLYLINE
  5
358
100
AcDbEntity
  8
RACCORDO
100
AcDbPolyline
 62
7
  6
CONTINUOUS
 90
3
 70
0
 10
3.7592262037
 20
74.015698495
 10
3.7136827202
 20
73.98544566
 10
3.701001373
 20
73.9771593085
  0
LWPOLYLINE
  5
359
100
AcDbEntity
  8
ASSI
100
AcDbPolyline
 62
7
  6
CONTINUOUS
 90
3
 70
0
 10
3.7592262037
 20
74.015698495
 10
3.7136827202
 20
73.98544566
 10
3.701001373
 20
73.9771593085
  0
LWPOLYLINE
  5
35A
100
AcDbEntity
  8
RACCORDO
100
AcDbPolyline
 62
7
  6
CONTINUOUS
 90
7
 70
0
 10
3.701001373
 20
73.9771593085
 10
3.6894190934
 20
73.9695019671
 10
3.6793552121
 20
73.9626885153
 10
3.671136677
 20
73.957264459
 10
3.6648298479
 20
73.9534116335
 10
3.660362593
 20
73.9509482034
 10
3.6577024109
 20
73.9498741688
  0
LWPOLYLINE
  5
35B
100
AcDbEntity
  8
ASSI
100
AcDbPolyline
 62
7
  6
CONTINUOUS
 90
7
 70
0
 10
3.701001373
 20
73.9771593085
 10
3.6894190934
 20
73.9695019671
 10
3.6793552121
 20
73.9626885153
 10
3.671136677
 20
73.957264459
 10
3.6648298479
 20
73.9534116335
 10
3.660362593
 20
73.9509482034
 10
3.6577024109
 20
73.9498741688
  0
LINE
  5
35C
100
AcDbEntity
  8
0
100
AcDbLine
 62
7
  6
CONTINUOUS
 10
5.7376791477
 20
76.2880671688
 11
4.1923491477
 21
75.8139211688
  0
LINE
  5
35D
100
AcDbEntity
  8
ASSI
100
AcDbLine
 62
7
  6
CONTINUOUS
 10
5.7376791477
 20
76.2880671688
 11
4.1923491477
 21
75.8139211688
  0
LINE
  5
35E
100
AcDbEntity
  8
CURVE
100
AcDbLine
 62
250
  6
CONTINUOUS
 10
14.5872921477
 20
72.9373741688
 11
14.4122921477
 21
72.8936241688
  0
LINE
  5
35F
100
AcDbEntity
  8
DRAFT
100
AcDbLine
 62
7
  6
CONTINUOUS
 10
19.9955602198
 20
71.4998741688
 11
17.9665240756
 21
71.4998741688
  0
LINE
  5
360
100
AcDbEntity
  8
ASSI
100
AcDbLine
 62
7
  6
CONTINUOUS
 10
19.9955602198
 20
71.4998741688
 11
17.9665240756
 21
71.4998741688
  0
LINE
  5
361
100
AcDbEntity
  8
CURVE
100
AcDbLine
 62
250
  6
CONTINUOUS
 10
7.3810421656
 20
72.1498741688
 11
7.2810421507
 21
72.1498741688
  0
LINE
  5
362
100
AcDbEntity
  8
CURVE
100
AcDbLine
 62
250
  6
CONTINUOUS
 10
14.4560421477
 20
72.1498741688
 11
14.5872921477
 21
72.1498741688
  0
LINE
  5
363
100
AcDbEntity
  8
0
100
AcDbLine
 62
7
  6
CONTINUOUS
 10
3.6464931054
 20
72.1998741688
 11
0.1584910715
 21
72.1998741688
  0
LINE
  5
364
100
AcDbEntity
  8
RACCORDO
100
AcDbLine
 62
250
  6
CONTINUOUS
 10
21.0717556365
 20
71.3189683011
 11
20.7176446881
 21
71.3243208221
  0
LINE
  5
365
100
AcDbEntity
  8
ASSI
100
AcDbLine
 62
250
  6
CONTINUOUS
 10
21.0717556365
 20
71.3189683011
 11
20.7176446881
 21
71.3243208221
  0
LWPOLYLINE
  5
366
100
AcDbEntity
  8
RACCORDO
100
AcDbPolyline
 62
7
  6
CONTINUOUS
 90
3
 70
0
 10
3.7603376336
 20
75.0833729782
 10
3.7776835138
 20
75.0716072116
 10
3.7954616496
 20
75.0591221145
  0
LWPOLYLINE
  5
367
100
AcDbEntity
  8
ASSI
100
AcDbPolyline
 62
7
  6
CONTINUOUS
 90
3
 70
0
 10
3.7603376336
 20
75.0833729782
 10
3.7776835138
 20
75.0716072116
 10
3.7954616496
 20
75.0591221145
  0
LINE
  5
368
100
AcDbEntity
  8
RACCORDO
100
AcDbLine
 62
7
  6
CONTINUOUS
 10
3.7954616496
 20
75.0591221148
 11
3.8067921195
 21
75.0498741688
  0
LINE
  5
369
100
AcDbEntity
  8
ASSI
100
AcDbLine
 62
7
  6
CONTINUOUS
 10
3.7954616496
 20
75.0591221148
 11
3.8067921195
 21
75.0498741688
  0
LINE
  5
36A
100
AcDbEntity
  8
CURVE
100
AcDbLine
 62
250
  6
CONTINUOUS
 10
8.314375485
 20
72.2165408367
 11
8.281042112
 21
72.2498741732
  0
LINE
  5
36B
100
AcDbEntity
  8
CURVE
100
AcDbLine
 62
250
  6
CONTINUOUS
 10
7.0810421522
 20
72.3498741777
 11
6.9810421477
 21
72.5498741867
  0
LINE
  5
36C
100
AcDbEntity
  8
CURVE
100
AcDbLine
 62
250
  6
CONTINUOUS
 10
7.3810421656
 20
75.4498741688
 11
7.3810421656
 21
74.0498741688
  0
LINE
  5
36D
100
AcDbEntity
  8
CURVE
100
AcDbLine
 62
250
  6
CONTINUOUS
 10
7.6810421477
 20
76.9498741926
 11
7.6810421477
 21
76.3498741867
  0
LINE
  5
36E
100
AcDbEntity
  8
CURVE
100
AcDbLine
 62
250
  6
CONTINUOUS
 10
7.6810421477
 20
73.1498741926
 11
7.6810421477
 21
72.5498741867
  0
LINE
  5
36F
100
AcDbEntity
  8
CURVE
100
AcDbLine
 62
250
  6
CONTINUOUS
 10
7.6810421477
 20
76.3498741867
 11
7.5810421537
 21
76.1498741777
  0
LINE
  5
370
100
AcDbEntity
  8
CURVE
100
AcDbLine
 62
250
  6
CONTINUOUS
 10
8.0810421239
 20
76.9498741926
 11
8.1810421596
 21
77.1498741807
  0
LINE
  5
371
100
AcDbEntity
  8
CURVE
100
AcDbLine
 62
250
  6
CONTINUOUS
 10
6.9810421477
 20
73.1498741926
 11
7.0810421522
 21
73.3498741807
  0
LINE
  5
372
100
AcDbEntity
  8
CURVE
100
AcDbLine
 62
250
  6
CONTINUOUS
 10
7.9810421716
 20
75.4498741688
 11
7.7810421835
 21
75.1498741449
  0
LINE
  5
373
100
AcDbEntity
  8
RACCORDO
100
AcDbLine
 62
250
  6
CONTINUOUS
 10
2.9810421477
 20
71.1498684572
 11
3.006797831
 21
71.1756241405
  0
LINE
  5
374
100
AcDbEntity
  8
ASSI
100
AcDbLine
 62
250
  6
CONTINUOUS
 10
2.9810421477
 20
71.1498684572
 11
3.006797831
 21
71.1756241405
  0
LINE
  5
375
100
AcDbEntity
  8
CURVE
100
AcDbLine
 62
250
  6
CONTINUOUS
 10
6.9810421477
 20
75.0498741926
 11
7.3810421656
 21
75.4498741688
  0
LINE
  5
376
100
AcDbEntity
  8
CURVE
100
AcDbLine
 62
250
  6
CONTINUOUS
 10
9.3810421716
 20
77.3498741688
 11
9.1810421
 21
77.1498741807
  0
LINE
  5
377
100
AcDbEntity
  8
RACCORDO
100
AcDbLine
 62
250
  6
CONTINUOUS
 10
3.1310364362
 20
70.9998741688
 11
3.1567921195
 21
71.0256298521
  0
LINE
  5
378
100
AcDbEntity
  8
ASSI
100
AcDbLine
 62
250
  6
CONTINUOUS
 10
3.1310364362
 20
70.9998741688
 11
3.1567921195
 21
71.0256298521
  0
LINE
  5
379
100
AcDbEntity
  8
CURVE
100
AcDbLine
 62
250
  6
CONTINUOUS
 10
8.6810421716
 20
76.1498741777
 11
8.4810421
 21
75.9498741688
  0
LINE
  5
37A
100
AcDbEntity
  8
CURVE
100
AcDbLine
 62
250
  6
CONTINUOUS
 10
8.3477087747
 20
72.2165408367
 11
8.314375485
 21
72.2165408367
  0
LINE
  5
37B
100
AcDbEntity
  8
CURVE
100
AcDbLine
 62
250
  6
CONTINUOUS
 10
8.3477087747
 20
72.3832075091
 11
8.3810421477
 21
72.3832075091
  0
LINE
  5
37C
100
AcDbEntity
  8
0
100
AcDbLine
 62
7
  6
CONTINUOUS
 10
4.1922571477
 20
72.9030541688
 11
5.7376791477
 21
72.9030541688
  0
LINE
  5
37D
100
AcDbEntity
  8
ASSI
100
AcDbLine
 62
7
  6
CONTINUOUS
 10
4.1922571477
 20
72.9030541688
 11
5.7376791477
 21
72.9030541688
  0
LINE
  5
37E
100
AcDbEntity
  8
CURVE
100
AcDbLine
 62
250
  6
CONTINUOUS
 10
14.5435421477
 20
72.9373741688
 11
14.5872921477
 21
72.9373741688
  0
LINE
  5
37F
100
AcDbEntity
  8
0
100
AcDbLine
 62
7
  6
CONTINUOUS
 10
4.1923491477
 20
74.5028491688
 11
5.0503211477
 21
74.1802781688
  0
LINE
  5
380
100
AcDbEntity
  8
ASSI
100
AcDbLine
 62
7
  6
CONTINUOUS
 10
4.1923491477
 20
74.5028491688
 11
5.0503211477
 21
74.1802781688
  0
LINE
  5
381
100
AcDbEntity
  8
0
100
AcDbLine
 62
7
  6
CONTINUOUS
 10
5.7376791477
 20
74.2011361688
 11
4.7328141477
 21
74.5846731688
  0
LINE
  5
382
100
AcDbEntity
  8
ASSI
100
AcDbLine
 62
7
  6
CONTINUOUS
 10
5.7376791477
 20
74.2011361688
 11
4.7328141477
 21
74.5846731688
  0
LINE
  5
383
100
AcDbEntity
  8
RACCORDO
100
AcDbLine
 62
7
  6
CONTINUOUS
 10
3.6577024109
 20
75.1498741688
 11
3.6603235877
 21
75.14882032
  0
LINE
  5
384
100
AcDbEntity
  8
ASSI
100
AcDbLine
 62
7
  6
CONTINUOUS
 10
3.6577024109
 20
75.1498741688
 11
3.6603235877
 21
75.14882032
  0
LWPOLYLINE
  5
385
100
AcDbEntity
  8
RACCORDO
100
AcDbPolyline
 62
7
  6
CONTINUOUS
 90
6
 70
0
 10
3.6603235877
 20
75.14882032
 10
3.6647071818
 20
75.1464125821
 10
3.6708805483
 20
75.142650955
 10
3.6788437731
 20
75.1374328501
 10
3.6885726084
 20
75.130860856
 10
3.7603376336
 20
75.0833729782
  0
LWPOLYLINE
  5
386
100
AcDbEntity
  8
ASSI
100
AcDbPolyline
 62
7
  6
CONTINUOUS
 90
6
 70
0
 10
3.6603235877
 20
75.14882032
 10
3.6647071818
 20
75.1464125821
 10
3.6708805483
 20
75.142650955
 10
3.6788437731
 20
75.1374328501
 10
3.6885726084
 20
75.130860856
 10
3.7603376336
 20
75.0833729782
  0
LINE
  5
387
100
AcDbEntity
  8
CURVE
100
AcDbLine
 62
250
  6
CONTINUOUS
 10
7.3810421656
 20
73.5498741688
 11
7.5810421537
 21
73.3498741807
  0
LINE
  5
388
100
AcDbEntity
  8
RACCORDO
100
AcDbLine
 62
250
  6
CONTINUOUS
 10
2.9810421477
 20
77.9498798803
 11
3.006797831
 21
77.924124197
  0
LINE
  5
389
100
AcDbEntity
  8
ASSI
100
AcDbLine
 62
250
  6
CONTINUOUS
 10
2.9810421477
 20
77.9498798803
 11
3.006797831
 21
77.924124197
  0
LINE
  5
38A
100
AcDbEntity
  8
RACCORDO
100
AcDbLine
 62
250
  6
CONTINUOUS
 10
3.1310364362
 20
78.0998741688
 11
3.1567921195
 21
78.0741184855
  0
LINE
  5
38B
100
AcDbEntity
  8
ASSI
100
AcDbLine
 62
250
  6
CONTINUOUS
 10
3.1310364362
 20
78.0998741688
 11
3.1567921195
 21
78.0741184855
  0
LWPOLYLINE
  5
38C
100
AcDbEntity
  8
0
100
AcDbPolyline
 62
7
  6
CONTINUOUS
 90
31
 70
0
 10
4.9697452407
 20
77.2730529606
 10
4.9578299009
 20
77.2869361575
 10
4.9451488971
 20
77.3007343215
 10
4.9314895135
 20
77.3142866803
 10
4.9168992144
 20
77.3276368469
 10
4.9013305356
 20
77.3407412082
 10
4.8844283684
 20
77.3533081525
 10
4.8660492624
 20
77.3653564742
 10
4.846336668
 20
77.3768673789
 10
4.8253658276
 20
77.3874928707
 10
4.8031155369
 20
77.3972436235
 10
4.7796070002
 20
77.4061089636
 10
4.7549790732
 20
77.4137088735
 10
4.7292807768
 20
77.420023024
 10
4.7024630902
 20
77.4250717445
 10
4.6745178067
 20
77.4285360053
 10
4.6454211895
 20
77.430495672
 10
4.6151969755
 20
77.4308708791
 10
4.5839081679
 20
77.4291029998
 10
4.5513444542
 20
77.4253764134
 10
4.517716147
 20
77.4195067406
 10
4.483717187
 20
77.4103822169
 10
4.4489854532
 20
77.3977222129
 10
4.4138830667
 20
77.3818073579
 10
4.3801903306
 20
77.3623677751
 10
4.3479274711
 20
77.3390292882
 10
4.3170742621
 20
77.3121660735
 10
4.2893503293
 20
77.282630783
 10
4.2653288813
 20
77.2507076339
 10
4.2444367094
 20
77.2161124091
 10
4.2266738138
 20
77.1788451083
  0
LWPOLYLINE
  5
38D
100
AcDbEntity
  8
ASSI
100
AcDbPolyline
 62
7
  6
CONTINUOUS
 90
31
 70
0
 10
4.9697452407
 20
77.2730529606
 10
4.9578299009
 20
77.2869361575
 10
4.9451488971
 20
77.3007343215
 10
4.9314895135
 20
77.3142866803
 10
4.9168992144
 20
77.3276368469
 10
4.9013305356
 20
77.3407412082
 10
4.8844283684
 20
77.3533081525
 10
4.8660492624
 20
77.3653564742
 10
4.846336668
 20
77.3768673789
 10
4.8253658276
 20
77.3874928707
 10
4.8031155369
 20
77.3972436235
 10
4.7796070002
 20
77.4061089636
 10
4.7549790732
 20
77.4137088735
 10
4.7292807768
 20
77.420023024
 10
4.7024630902
 20
77.4250717445
 10
4.6745178067
 20
77.4285360053
 10
4.6454211895
 20
77.430495672
 10
4.6151969755
 20
77.4308708791
 10
4.5839081679
 20
77.4291029998
 10
4.5513444542
 20
77.4253764134
 10
4.517716147
 20
77.4195067406
 10
4.483717187
 20
77.4103822169
 10
4.4489854532
 20
77.3977222129
 10
4.4138830667
 20
77.3818073579
 10
4.3801903306
 20
77.3623677751
 10
4.3479274711
 20
77.3390292882
 10
4.3170742621
 20
77.3121660735
 10
4.2893503293
 20
77.282630783
 10
4.2653288813
 20
77.2507076339
 10
4.2444367094
 20
77.2161124091
 10
4.2266738138
 20
77.1788451083
  0
LINE
  5
38E
100
AcDbEntity
  8
0
100
AcDbLine
 62
7
  6
CONTINUOUS
 10
4.9809658218
 20
77.2591383216
 11
4.9697452407
 21
77.2730529606
  0
LINE
  5
38F
100
AcDbEntity
  8
ASSI
100
AcDbLine
 62
7
  6
CONTINUOUS
 10
4.9809658218
 20
77.2591383216
 11
4.9697452407
 21
77.2730529606
  0
LWPOLYLINE
  5
390
100
AcDbEntity
  8
0
100
AcDbPolyline
 62
7
  6
CONTINUOUS
 90
3
 70
0
 10
5.001109992
 20
77.2310539449
 10
4.9914207389
 20
77.2451386497
 10
4.9809658218
 20
77.2591383216
  0
LWPOLYLINE
  5
391
100
AcDbEntity
  8
ASSI
100
AcDbPolyline
 62
7
  6
CONTINUOUS
 90
3
 70
0
 10
5.001109992
 20
77.2310539449
 10
4.9914207389
 20
77.2451386497
 10
4.9809658218
 20
77.2591383216
  0
LINE
  5
392
100
AcDbEntity
  8
CURVE
100
AcDbLine
 62
250
  6
CONTINUOUS
 10
7.5810421537
 20
73.3498741807
 11
7.6810421477
 21
73.1498741926
  0
LINE
  5
393
100
AcDbEntity
  8
CURVE
100
AcDbLine
 62
250
  6
CONTINUOUS
 10
8.3810421477
 20
72.3832075091
 11
8.4143755208
 21
72.3165408359
  0
LINE
  5
394
100
AcDbEntity
  8
DRAFT
100
AcDbLine
 62
7
  6
CONTINUOUS
 10
7.9955602198
 20
77.5998741688
 11
7.9810421477
 21
78.0800793618
  0
LINE
  5
395
100
AcDbEntity
  8
ASSI
100
AcDbLine
 62
7
  6
CONTINUOUS
 10
7.9955602198
 20
77.5998741688
 11
7.9810421477
 21
78.0800793618
  0
LWPOLYLINE
  5
396
100
AcDbEntity
  8
RACCORDO
100
AcDbPolyline
 62
7
  6
CONTINUOUS
 90
6
 70
0
 10
7.9949545437
 20
78.019758907
 10
7.9946289162
 20
78.0385792383
 10
7.9942643353
 20
78.0535869342
 10
7.9938701131
 20
78.06424342
 10
7.9934369374
 20
78.0710872704
 10
7.9929648084
 20
78.0741184855
  0
LWPOLYLINE
  5
397
100
AcDbEntity
  8
ASSI
100
AcDbPolyline
 62
7
  6
CONTINUOUS
 90
6
 70
0
 10
7.9949545437
 20
78.019758907
 10
7.9946289162
 20
78.0385792383
 10
7.9942643353
 20
78.0535869342
 10
7.9938701131
 20
78.06424342
 10
7.9934369374
 20
78.0710872704
 10
7.9929648084
 20
78.0741184855
  0
LINE
  5
398
100
AcDbEntity
  8
RACCORDO
100
AcDbLine
 62
7
  6
CONTINUOUS
 10
7.9953958173
 20
77.9760660865
 11
7.9949545437
 21
78.019758907
  0
LINE
  5
399
100
AcDbEntity
  8
ASSI
100
AcDbLine
 62
7
  6
CONTINUOUS
 10
7.9953958173
 20
77.9760660865
 11
7.9949545437
 21
78.019758907
  0
LINE
  5
39A
100
AcDbEntity
  8
RACCORDO
100
AcDbLine
 62
7
  6
CONTINUOUS
 10
7.9955602198
 20
77.924124197
 11
7.9953958173
 21
77.9760660865
  0
LINE
  5
39B
100
AcDbEntity
  8
ASSI
100
AcDbLine
 62
7
  6
CONTINUOUS
 10
7.9955602198
 20
77.924124197
 11
7.9953958173
 21
77.9760660865
  0
LINE
  5
39C
100
AcDbEntity
  8
RACCORDO
100
AcDbLine
 62
7
  6
CONTINUOUS
 10
7.9955602198
 20
77.924124197
 11
7.9955602198
 21
77.5998741688
  0
LINE
  5
39D
100
AcDbEntity
  8
ASSI
100
AcDbLine
 62
7
  6
CONTINUOUS
 10
7.9955602198
 20
77.924124197
 11
7.9955602198
 21
77.5998741688
  0
LINE
  5
39E
100
AcDbEntity
  8
CURVE
100
AcDbLine
 62
250
  6
CONTINUOUS
 10
8.0810421239
 20
76.3498741867
 11
8.0810421239
 21
76.9498741926
  0
LINE
  5
39F
100
AcDbEntity
  8
CURVE
100
AcDbLine
 62
250
  6
CONTINUOUS
 10
8.281042112
 20
72.2498741732
 11
8.281042112
 21
72.2832075046
  0
LINE
  5
3A0
100
AcDbEntity
  8
CURVE
100
AcDbLine
 62
250
  6
CONTINUOUS
 10
8.4143755208
 20
72.3165408359
 11
8.4143755208
 21
72.2832075046
  0
LINE
  5
3A1
100
AcDbEntity
  8
CURVE
100
AcDbLine
 62
250
  6
CONTINUOUS
 10
8.4810421
 20
75.0498741926
 11
8.4810421
 21
75.2498741807
  0
LWPOLYLINE
  5
3A2
100
AcDbEntity
  8
0
100
AcDbPolyline
 62
7
  6
CONTINUOUS
 90
3
 70
0
 43
0.3500000006
 10
12.0203279228
 20
85.7495545349
 10
11.9488990059
 20
85.53527005
 10
11.806042305
 20
85.2495543823
  0
LINE
  5
3A3
100
AcDbEntity
  8
CURVE
100
AcDbLine
 62
250
  6
CONTINUOUS
 10
8.7810421239
 20
76.3498741867
 11
8.6810421716
 21
76.1498741777
  0
LINE
  5
3A4
100
AcDbEntity
  8
CURVE
100
AcDbLine
 62
250
  6
CONTINUOUS
 10
7.7810421835
 20
74.0498741688
 11
8.4810421
 21
75.0498741926
  0
LINE
  5
3A5
100
AcDbEntity
  8
CURVE
100
AcDbLine
 62
250
  6
CONTINUOUS
 10
9.3810421716
 20
75.9498741688
 11
9.7810421477
 21
76.3498741867
  0
LINE
  5
3A6
100
AcDbEntity
  8
CURVE
100
AcDbLine
 62
250
  6
CONTINUOUS
 10
7.0810421522
 20
73.3498741807
 11
7.2810421507
 21
73.5498741688
  0
LINE
  5
3A7
100
AcDbEntity
  8
RACCORDO
100
AcDbLine
 62
7
  6
CONTINUOUS
 10
14.069119487
 20
78.0741184855
 11
14.0810421477
 21
78.0800793618
  0
LINE
  5
3A8
100
AcDbEntity
  8
ASSI
100
AcDbLine
 62
7
  6
CONTINUOUS
 10
14.069119487
 20
78.0741184855
 11
14.0810421477
 21
78.0800793618
  0
LINE
  5
3A9
100
AcDbEntity
  8
0
100
AcDbLine
 62
7
  6
CONTINUOUS
 10
4.7286071477
 20
73.7774811688
 11
5.7376791477
 21
74.1558961688
  0
LINE
  5
3AA
100
AcDbEntity
  8
ASSI
100
AcDbLine
 62
7
  6
CONTINUOUS
 10
4.7286071477
 20
73.7774811688
 11
5.7376791477
 21
74.1558961688
  0
LINE
  5
3AB
100
AcDbEntity
  8
0
100
AcDbLine
 62
7
  6
CONTINUOUS
 10
5.0503211477
 20
74.1802781688
 11
4.1923491477
 21
73.8611131688
  0
LINE
  5
3AC
100
AcDbEntity
  8
ASSI
100
AcDbLine
 62
7
  6
CONTINUOUS
 10
5.0503211477
 20
74.1802781688
 11
4.1923491477
 21
73.8611131688
  0
LINE
  5
3AD
100
AcDbEntity
  8
0
100
AcDbLine
 62
7
  6
CONTINUOUS
 10
5.2560471477
 20
72.1574301688
 11
4.1923491477
 21
71.8628621688
  0
LINE
  5
3AE
100
AcDbEntity
  8
ASSI
100
AcDbLine
 62
7
  6
CONTINUOUS
 10
5.2560471477
 20
72.1574301688
 11
4.1923491477
 21
71.8628621688
  0
LINE
  5
3AF
100
AcDbEntity
  8
0
100
AcDbLine
 62
7
  6
CONTINUOUS
 10
5.7376791477
 20
73.2256251688
 11
4.1922571477
 21
73.2256251688
  0
LINE
  5
3B0
100
AcDbEntity
  8
ASSI
100
AcDbLine
 62
7
  6
CONTINUOUS
 10
5.7376791477
 20
73.2256251688
 11
4.1922571477
 21
73.2256251688
  0
LINE
  5
3B1
100
AcDbEntity
  8
0
100
AcDbLine
 62
7
  6
CONTINUOUS
 10
3.6454414796
 20
73.3998741688
 11
0.0328367046
 21
73.3998741688
  0
LINE
  5
3B2
100
AcDbEntity
  8
CURVE
100
AcDbLine
 62
250
  6
CONTINUOUS
 10
14.5872921477
 20
73.4623741688
 11
14.4997921477
 21
73.4623741688
  0
LINE
  5
3B3
100
AcDbEntity
  8
CURVE
100
AcDbLine
 62
250
  6
CONTINUOUS
 10
7.2810421507
 20
73.5498741688
 11
7.3810421656
 21
73.5498741688
  0
LINE
  5
3B4
100
AcDbEntity
  8
0
100
AcDbLine
 62
7
  6
CONTINUOUS
 10
5.7376791477
 20
73.7078701688
 11
4.7286071477
 21
73.7774811688
  0
LINE
  5
3B5
100
AcDbEntity
  8
ASSI
100
AcDbLine
 62
7
  6
CONTINUOUS
 10
5.7376791477
 20
73.7078701688
 11
4.7286071477
 21
73.7774811688
  0
LINE
  5
3B6
100
AcDbEntity
  8
0
100
AcDbLine
 62
7
  6
CONTINUOUS
 10
4.1923491477
 20
73.5388091688
 11
5.7376791477
 21
73.3992751688
  0
LINE
  5
3B7
100
AcDbEntity
  8
ASSI
100
AcDbLine
 62
7
  6
CONTINUOUS
 10
4.1923491477
 20
73.5388091688
 11
5.7376791477
 21
73.3992751688
  0
LWPOLYLINE
  5
3B8
100
AcDbEntity
  8
RACCORDO
100
AcDbPolyline
 62
250
  6
CONTINUOUS
 90
7
 70
0
 10
3.3003233879
 20
73.9498741688
 10
3.2896548746
 20
73.9513933935
 10
3.2793105187
 20
73.9559049067
 10
3.2696046281
 20
73.9632716284
 10
3.2608321116
 20
73.9732697245
 10
3.2532595175
 20
73.9855954078
 10
3.2471169352
 20
73.9998741688
  0
LWPOLYLINE
  5
3B9
100
AcDbEntity
  8
ASSI
100
AcDbPolyline
 62
250
  6
CONTINUOUS
 90
7
 70
0
 10
3.3003233879
 20
73.9498741688
 10
3.2896548746
 20
73.9513933935
 10
3.2793105187
 20
73.9559049067
 10
3.2696046281
 20
73.9632716284
 10
3.2608321116
 20
73.9732697245
 10
3.2532595175
 20
73.9855954078
 10
3.2471169352
 20
73.9998741688
  0
LWPOLYLINE
  5
3BA
100
AcDbEntity
  8
RACCORDO
100
AcDbPolyline
 62
250
  6
CONTINUOUS
 90
6
 70
0
 10
3.6111490909
 20
73.9498741688
 10
3.6004805777
 20
73.9513933934
 10
3.5901362219
 20
73.9559049066
 10
3.5804303314
 20
73.9632716282
 10
3.5716578148
 20
73.9732697241
 10
3.5640852207
 20
73.9855954074
  0
LWPOLYLINE
  5
3BB
100
AcDbEntity
  8
ASSI
100
AcDbPolyline
 62
250
  6
CONTINUOUS
 90
6
 70
0
 10
3.6111490909
 20
73.9498741688
 10
3.6004805777
 20
73.9513933934
 10
3.5901362219
 20
73.9559049066
 10
3.5804303314
 20
73.9632716282
 10
3.5716578148
 20
73.9732697241
 10
3.5640852207
 20
73.9855954074
  0
LINE
  5
3BC
100
AcDbEntity
  8
CURVE
100
AcDbLine
 62
250
  6
CONTINUOUS
 10
7.0810421522
 20
76.1498741777
 11
6.9810421477
 21
76.3498741867
  0
LINE
  5
3BD
100
AcDbEntity
  8
CURVE
100
AcDbLine
 62
250
  6
CONTINUOUS
 10
8.7810421239
 20
76.9498741926
 11
8.7810421239
 21
76.3498741867
  0
LWPOLYLINE
  5
3BE
100
AcDbEntity
  8
0
100
AcDbPolyline
 62
7
  6
CONTINUOUS
 90
4
 70
0
 43
0.3500000006
 10
8.9488992233
 20
85.8924078369
 10
8.9488992233
 20
86.7495548401
 10
9.377470459
 20
87.1781238098
 10
10.0203273125
 20
87.1781238098
  0
LINE
  5
3BF
100
AcDbEntity
  8
CURVE
100
AcDbLine
 62
250
  6
CONTINUOUS
 10
9.1810421
 20
77.1498741807
 11
9.1810421
 21
76.7498742045
  0
LINE
  5
3C0
100
AcDbEntity
  8
CURVE
100
AcDbLine
 62
250
  6
CONTINUOUS
 10
9.2810422193
 20
73.5498741688
 11
9.2810422193
 21
72.1498741688
  0
LINE
  5
3C1
100
AcDbEntity
  8
CURVE
100
AcDbLine
 62
250
  6
CONTINUOUS
 10
9.7810421477
 20
76.3498741867
 11
9.8810421
 21
76.7498742045
  0
LINE
  5
3C2
100
AcDbEntity
  8
CURVE
100
AcDbLine
 62
250
  6
CONTINUOUS
 10
8.4143755208
 20
72.2832075046
 11
8.3810421477
 21
72.1832075027
  0
LINE
  5
3C3
100
AcDbEntity
  8
CURVE
100
AcDbLine
 62
250
  6
CONTINUOUS
 10
7.6810421477
 20
72.5498741867
 11
7.5810421537
 21
72.3498741777
  0
LINE
  5
3C4
100
AcDbEntity
  8
CURVE
100
AcDbLine
 62
250
  6
CONTINUOUS
 10
8.281042112
 20
72.2832075046
 11
8.314375485
 21
72.3498741777
  0
LINE
  5
3C5
100
AcDbEntity
  8
CURVE
100
AcDbLine
 62
250
  6
CONTINUOUS
 10
10.0810420047
 20
75.4498741688
 11
9.8810421
 21
75.1498741449
  0
LINE
  5
3C6
100
AcDbEntity
  8
CURVE
100
AcDbLine
 62
250
  6
CONTINUOUS
 10
11.3810420524
 20
76.9498741926
 11
11.7810421954
 21
77.3498741688
  0
LINE
  5
3C7
100
AcDbEntity
  8
RACCORDO
100
AcDbLine
 62
7
  6
CONTINUOUS
 10
3.6577024107
 20
73.9498741688
 11
3.2813112967
 21
73.9498741688
  0
LINE
  5
3C8
100
AcDbEntity
  8
ASSI
100
AcDbLine
 62
7
  6
CONTINUOUS
 10
3.6577024107
 20
73.9498741688
 11
3.2813112967
 21
73.9498741688
  0
LINE
  5
3C9
100
AcDbEntity
  8
CURVE
100
AcDbLine
 62
250
  6
CONTINUOUS
 10
19.6477085601
 20
74.0498741688
 11
19.2477087508
 21
74.0498741688
  0
LINE
  5
3CA
100
AcDbEntity
  8
CURVE
100
AcDbLine
 62
250
  6
CONTINUOUS
 10
18.2810417663
 20
74.0498741688
 11
17.7810423385
 21
74.0498741688
  0
LINE
  5
3CB
100
AcDbEntity
  8
CURVE
100
AcDbLine
 62
250
  6
CONTINUOUS
 10
16.1477085601
 20
74.0498741688
 11
15.7477087508
 21
74.0498741688
  0
LINE
  5
3CC
100
AcDbEntity
  8
CURVE
100
AcDbLine
 62
250
  6
CONTINUOUS
 10
10.5810421
 20
74.0498741688
 11
9.8810421
 21
74.0498741688
  0
LINE
  5
3CD
100
AcDbEntity
  8
CURVE
100
AcDbLine
 62
250
  6
CONTINUOUS
 10
8.4810421
 20
74.0498741688
 11
7.7810421835
 21
74.0498741688
  0
LINE
  5
3CE
100
AcDbEntity
  8
RACCORDO
100
AcDbLine
 62
250
  6
CONTINUOUS
 10
3.8067921195
 20
74.0498741688
 11
3.1810421477
 21
74.0498741688
  0
LINE
  5
3CF
100
AcDbEntity
  8
ASSI
100
AcDbLine
 62
250
  6
CONTINUOUS
 10
3.8067921195
 20
74.0498741688
 11
3.1810421477
 21
74.0498741688
  0
LINE
  5
3D0
100
AcDbEntity
  8
CURVE
100
AcDbLine
 62
250
  6
CONTINUOUS
 10
11.6810422431
 20
74.3498741718
 11
10.9810422431
 21
74.3498741718
  0
LINE
  5
3D1
100
AcDbEntity
  8
CURVE
100
AcDbLine
 62
250
  6
CONTINUOUS
 10
14.4810422431
 20
74.4498741867
 11
15.0143755446
 21
74.4498741867
  0
LINE
  5
3D2
100
AcDbEntity
  8
CURVE
100
AcDbLine
 62
250
  6
CONTINUOUS
 10
8.8810420762
 20
74.5498741807
 11
9.4810421239
 21
74.5498741807
  0
LINE
  5
3D3
100
AcDbEntity
  8
0
100
AcDbLine
 62
7
  6
CONTINUOUS
 10
5.1904581477
 20
75.4912231688
 11
4.6169671477
 21
75.6518361688
  0
LINE
  5
3D4
100
AcDbEntity
  8
ASSI
100
AcDbLine
 62
7
  6
CONTINUOUS
 10
5.1904581477
 20
75.4912231688
 11
4.6169671477
 21
75.6518361688
  0
LINE
  5
3D5
100
AcDbEntity
  8
0
100
AcDbLine
 62
7
  6
CONTINUOUS
 10
5.7376791477
 20
75.3362291688
 11
5.4291771477
 21
75.4252391688
  0
LINE
  5
3D6
100
AcDbEntity
  8
ASSI
100
AcDbLine
 62
7
  6
CONTINUOUS
 10
5.7376791477
 20
75.3362291688
 11
5.4291771477
 21
75.4252391688
  0
LINE
  5
3D7
100
AcDbEntity
  8
0
100
AcDbLine
 62
7
  6
CONTINUOUS
 10
4.1923491477
 20
75.5018721688
 11
5.7376791477
 21
75.0171591688
  0
LINE
  5
3D8
100
AcDbEntity
  8
ASSI
100
AcDbLine
 62
7
  6
CONTINUOUS
 10
4.1923491477
 20
75.5018721688
 11
5.7376791477
 21
75.0171591688
  0
LINE
  5
3D9
100
AcDbEntity
  8
CURVE
100
AcDbLine
 62
250
  6
CONTINUOUS
 10
14.3247921477
 20
72.1936241688
 11
14.4560421477
 21
72.1498741688
  0
LINE
  5
3DA
100
AcDbEntity
  8
CURVE
100
AcDbLine
 62
250
  6
CONTINUOUS
 10
14.4122921477
 20
72.9811241688
 11
14.5435421477
 21
72.9373741688
  0
LINE
  5
3DB
100
AcDbEntity
  8
CURVE
100
AcDbLine
 62
250
  6
CONTINUOUS
 10
14.2372921477
 20
72.2373741688
 11
14.3247921477
 21
72.1936241688
  0
LINE
  5
3DC
100
AcDbEntity
  8
CURVE
100
AcDbLine
 62
250
  6
CONTINUOUS
 10
7.2810421507
 20
75.9498741688
 11
7.0810421522
 21
76.1498741777
  0
LINE
  5
3DD
100
AcDbEntity
  8
CURVE
100
AcDbLine
 62
250
  6
CONTINUOUS
 10
8.4810421
 20
75.2498741807
 11
8.281042112
 21
75.4498741688
  0
LINE
  5
3DE
100
AcDbEntity
  8
CURVE
100
AcDbLine
 62
250
  6
CONTINUOUS
 10
7.5810421537
 20
77.1498741807
 11
7.6810421477
 21
76.9498741926
  0
LINE
  5
3DF
100
AcDbEntity
  8
CURVE
100
AcDbLine
 62
250
  6
CONTINUOUS
 10
8.1810421596
 20
76.1498741777
 11
8.0810421239
 21
76.3498741867
  0
LINE
  5
3E0
100
AcDbEntity
  8
CURVE
100
AcDbLine
 62
250
  6
CONTINUOUS
 10
9.6810421954
 20
73.5498741688
 11
9.9810420524
 21
72.1498741688
  0
LINE
  5
3E1
100
AcDbEntity
  8
CURVE
100
AcDbLine
 62
250
  6
CONTINUOUS
 10
9.8810421
 20
76.7498742045
 11
9.8810421
 21
77.1498741807
  0
LINE
  5
3E2
100
AcDbEntity
  8
CURVE
100
AcDbLine
 62
250
  6
CONTINUOUS
 10
10.2810422431
 20
76.2498741718
 11
10.5810421
 21
77.3498741688
  0
LINE
  5
3E3
100
AcDbEntity
  8
CURVE
100
AcDbLine
 62
250
  6
CONTINUOUS
 10
8.3810421477
 20
72.1832075027
 11
8.314375485
 21
72.0498741643
  0
LINE
  5
3E4
100
AcDbEntity
  8
CURVE
100
AcDbLine
 62
250
  6
CONTINUOUS
 10
9.8810421
 20
74.0498741688
 11
10.5810421
 21
75.0498741926
  0
LINE
  5
3E5
100
AcDbEntity
  8
CURVE
100
AcDbLine
 62
250
  6
CONTINUOUS
 10
7.5810421537
 20
72.3498741777
 11
7.3810421656
 21
72.1498741688
  0
LINE
  5
3E6
100
AcDbEntity
  8
CURVE
100
AcDbLine
 62
250
  6
CONTINUOUS
 10
8.8810420762
 20
73.1498741926
 11
9.2810422193
 21
73.5498741688
  0
LINE
  5
3E7
100
AcDbEntity
  8
CURVE
100
AcDbLine
 62
250
  6
CONTINUOUS
 10
8.314375485
 20
72.3498741777
 11
8.3477087747
 21
72.3832075091
  0
LINE
  5
3E8
100
AcDbEntity
  8
CURVE
100
AcDbLine
 62
250
  6
CONTINUOUS
 10
8.4143755208
 20
72.2832075046
 11
8.3477087747
 21
72.2165408367
  0
LINE
  5
3E9
100
AcDbEntity
  8
0
100
AcDbLine
 62
7
  6
CONTINUOUS
 10
5.7376791477
 20
74.9665071688
 11
4.1923491477
 21
74.8220001688
  0
LINE
  5
3EA
100
AcDbEntity
  8
ASSI
100
AcDbLine
 62
7
  6
CONTINUOUS
 10
5.7376791477
 20
74.9665071688
 11
4.1923491477
 21
74.8220001688
  0
LINE
  5
3EB
100
AcDbEntity
  8
0
100
AcDbLine
 62
7
  6
CONTINUOUS
 10
4.7328141477
 20
74.5846731688
 11
5.7376791477
 21
74.6509471688
  0
LINE
  5
3EC
100
AcDbEntity
  8
ASSI
100
AcDbLine
 62
7
  6
CONTINUOUS
 10
4.7328141477
 20
74.5846731688
 11
5.7376791477
 21
74.6509471688
  0
LINE
  5
3ED
100
AcDbEntity
  8
RACCORDO
100
AcDbLine
 62
250
  6
CONTINUOUS
 10
3.1810421477
 20
75.0498741688
 11
3.8067921195
 21
75.0498741688
  0
LINE
  5
3EE
100
AcDbEntity
  8
ASSI
100
AcDbLine
 62
250
  6
CONTINUOUS
 10
3.1810421477
 20
75.0498741688
 11
3.8067921195
 21
75.0498741688
  0
LINE
  5
3EF
100
AcDbEntity
  8
RACCORDO
100
AcDbLine
 62
7
  6
CONTINUOUS
 10
3.2810421477
 20
75.1498741688
 11
3.6577024107
 21
75.1498741688
  0
LINE
  5
3F0
100
AcDbEntity
  8
ASSI
100
AcDbLine
 62
7
  6
CONTINUOUS
 10
3.2810421477
 20
75.1498741688
 11
3.6577024107
 21
75.1498741688
  0
LINE
  5
3F1
100
AcDbEntity
  8
CURVE
100
AcDbLine
 62
250
  6
CONTINUOUS
 10
10.3810421954
 20
75.4498741688
 11
10.0810420047
 21
75.4498741688
  0
LINE
  5
3F2
100
AcDbEntity
  8
CURVE
100
AcDbLine
 62
250
  6
CONTINUOUS
 10
8.281042112
 20
75.4498741688
 11
7.9810421716
 21
75.4498741688
  0
LINE
  5
3F3
100
AcDbEntity
  8
CURVE
100
AcDbLine
 62
250
  6
CONTINUOUS
 10
15.7477087508
 20
75.4498741688
 11
16.1477085601
 21
75.4498741688
  0
LINE
  5
3F4
100
AcDbEntity
  8
CURVE
100
AcDbLine
 62
250
  6
CONTINUOUS
 10
17.7810423385
 20
75.4498741688
 11
18.2810417663
 21
75.4498741688
  0
LINE
  5
3F5
100
AcDbEntity
  8
CURVE
100
AcDbLine
 62
250
  6
CONTINUOUS
 10
19.2477087508
 20
75.4498741688
 11
19.6477085601
 21
75.4498741688
  0
LINE
  5
3F6
100
AcDbEntity
  8
CURVE
100
AcDbLine
 62
250
  6
CONTINUOUS
 10
14.7622921477
 20
73.4186241688
 11
14.5872921477
 21
73.4623741688
  0
LINE
  5
3F7
100
AcDbEntity
  8
CURVE
100
AcDbLine
 62
250
  6
CONTINUOUS
 10
14.8935421477
 20
73.3748741688
 11
14.7622921477
 21
73.4186241688
  0
LINE
  5
3F8
100
AcDbEntity
  8
RACCORDO
100
AcDbLine
 62
7
  6
CONTINUOUS
 10
17.969119487
 20
71.0256298521
 11
17.9810421477
 21
71.0196689757
  0
LINE
  5
3F9
100
AcDbEntity
  8
ASSI
100
AcDbLine
 62
7
  6
CONTINUOUS
 10
17.969119487
 20
71.0256298521
 11
17.9810421477
 21
71.0196689757
  0
LINE
  5
3FA
100
AcDbEntity
  8
CURVE
100
AcDbLine
 62
250
  6
CONTINUOUS
 10
14.3247921477
 20
73.0248741688
 11
14.4122921477
 21
72.9811241688
  0
LINE
  5
3FB
100
AcDbEntity
  8
CURVE
100
AcDbLine
 62
250
  6
CONTINUOUS
 10
8.3810421477
 20
75.9498741688
 11
8.1810421596
 21
76.1498741777
  0
LINE
  5
3FC
100
AcDbEntity
  8
CURVE
100
AcDbLine
 62
250
  6
CONTINUOUS
 10
7.3810421656
 20
77.3498741688
 11
7.5810421537
 21
77.1498741807
  0
LINE
  5
3FD
100
AcDbEntity
  8
CURVE
100
AcDbLine
 62
250
  6
CONTINUOUS
 10
8.6810421716
 20
77.1498741807
 11
8.7810421239
 21
76.9498741926
  0
LINE
  5
3FE
100
AcDbEntity
  8
CURVE
100
AcDbLine
 62
250
  6
CONTINUOUS
 10
10.2810422431
 20
73.1498741926
 11
10.5810421
 21
72.1498741688
  0
LINE
  5
3FF
100
AcDbEntity
  8
CURVE
100
AcDbLine
 62
250
  6
CONTINUOUS
 10
10.5810421
 20
75.0498741926
 11
10.5810421
 21
75.2498741807
  0
LINE
  5
400
100
AcDbEntity
  8
CURVE
100
AcDbLine
 62
250
  6
CONTINUOUS
 10
10.7477087985
 20
75.9498741688
 11
10.7477087985
 21
76.6498741688
  0
LINE
  5
401
100
AcDbEntity
  8
CURVE
100
AcDbLine
 62
250
  6
CONTINUOUS
 10
10.5810421
 20
72.1498741688
 11
10.8810422908
 21
73.5498741688
  0
LINE
  5
402
100
AcDbEntity
  8
CURVE
100
AcDbLine
 62
250
  6
CONTINUOUS
 10
10.9810422431
 20
74.3498741718
 11
11.2810421
 21
75.4498741688
  0
LINE
  5
403
100
AcDbEntity
  8
CURVE
100
AcDbLine
 62
250
  6
CONTINUOUS
 10
9.9810420524
 20
72.1498741688
 11
10.2810422431
 21
73.1498741926
  0
LINE
  5
404
100
AcDbEntity
  8
CURVE
100
AcDbLine
 62
250
  6
CONTINUOUS
 10
13.681041957
 20
76.7498742045
 11
13.4810420524
 21
76.5498741747
  0
LINE
  5
405
100
AcDbEntity
  8
0
100
AcDbLine
 62
7
  6
CONTINUOUS
 10
4.1923491477
 20
71.5124501688
 11
5.7376791477
 21
72.0023501688
  0
LINE
  5
406
100
AcDbEntity
  8
ASSI
100
AcDbLine
 62
7
  6
CONTINUOUS
 10
4.1923491477
 20
71.5124501688
 11
5.7376791477
 21
72.0023501688
  0
LWPOLYLINE
  5
407
100
AcDbEntity
  8
RACCORDO
100
AcDbPolyline
 62
250
  6
CONTINUOUS
 90
6
 70
0
 10
3.6111490909
 20
75.1498741688
 10
3.6004805776
 20
75.1483549441
 10
3.5901362217
 20
75.1438434309
 10
3.5804303312
 20
75.1364767092
 10
3.5716578146
 20
75.1264786132
 10
3.5640852205
 20
75.1141529299
  0
LWPOLYLINE
  5
408
100
AcDbEntity
  8
ASSI
100
AcDbPolyline
 62
250
  6
CONTINUOUS
 90
6
 70
0
 10
3.6111490909
 20
75.1498741688
 10
3.6004805776
 20
75.1483549441
 10
3.5901362217
 20
75.1438434309
 10
3.5804303312
 20
75.1364767092
 10
3.5716578146
 20
75.1264786132
 10
3.5640852205
 20
75.1141529299
  0
LWPOLYLINE
  5
409
100
AcDbEntity
  8
RACCORDO
100
AcDbPolyline
 62
250
  6
CONTINUOUS
 90
6
 70
0
 10
3.3003233879
 20
75.1498741688
 10
3.2896548746
 20
75.1483549441
 10
3.2793105187
 20
75.1438434309
 10
3.2696046281
 20
75.1364767092
 10
3.2608321116
 20
75.1264786131
 10
3.2532595175
 20
75.1141529297
  0
LWPOLYLINE
  5
40A
100
AcDbEntity
  8
ASSI
100
AcDbPolyline
 62
250
  6
CONTINUOUS
 90
6
 70
0
 10
3.3003233879
 20
75.1498741688
 10
3.2896548746
 20
75.1483549441
 10
3.2793105187
 20
75.1438434309
 10
3.2696046281
 20
75.1364767092
 10
3.2608321116
 20
75.1264786131
 10
3.2532595175
 20
75.1141529297
  0
LINE
  5
40B
100
AcDbEntity
  8
0
100
AcDbLine
 62
7
  6
CONTINUOUS
 10
3.6454414796
 20
75.6998741688
 11
-0.7804422061
 21
75.6998741688
  0
LINE
  5
40C
100
AcDbEntity
  8
CURVE
100
AcDbLine
 62
250
  6
CONTINUOUS
 10
8.4810421
 20
75.9498741688
 11
8.3810421477
 21
75.9498741688
  0
LINE
  5
40D
100
AcDbEntity
  8
CURVE
100
AcDbLine
 62
250
  6
CONTINUOUS
 10
7.3810421656
 20
75.9498741688
 11
7.2810421507
 21
75.9498741688
  0
LINE
  5
40E
100
AcDbEntity
  8
CURVE
100
AcDbLine
 62
250
  6
CONTINUOUS
 10
12.4810421954
 20
76.0165408367
 11
12.4143754493
 21
76.0165408367
  0
LINE
  5
40F
100
AcDbEntity
  8
CURVE
100
AcDbLine
 62
250
  6
CONTINUOUS
 10
18.9096136104
 20
76.0498741688
 11
19.4096136104
 21
76.0498741688
  0
LINE
  5
410
100
AcDbEntity
  8
CURVE
100
AcDbLine
 62
250
  6
CONTINUOUS
 10
19.6953279982
 20
76.0498741688
 11
20.1953279982
 21
76.0498741688
  0
LINE
  5
411
100
AcDbEntity
  8
CURVE
100
AcDbLine
 62
250
  6
CONTINUOUS
 10
12.4143754493
 20
76.1832075091
 11
12.4810421954
 21
76.1832075091
  0
LINE
  5
412
100
AcDbEntity
  8
CURVE
100
AcDbLine
 62
250
  6
CONTINUOUS
 10
10.9810422431
 20
76.2498741718
 11
10.2810422431
 21
76.2498741718
  0
LINE
  5
413
100
AcDbEntity
  8
CURVE
100
AcDbLine
 62
250
  6
CONTINUOUS
 10
14.9810421477
 20
73.3311241688
 11
14.8935421477
 21
73.3748741688
  0
LINE
  5
414
100
AcDbEntity
  8
DRAFT
100
AcDbLine
 62
7
  6
CONTINUOUS
 10
5.9705691088
 20
78.0998741688
 11
5.9797111786
 21
78.095303482
  0
LINE
  5
415
100
AcDbEntity
  8
ASSI
100
AcDbLine
 62
7
  6
CONTINUOUS
 10
5.9705691088
 20
78.0998741688
 11
5.9797111786
 21
78.095303482
  0
LINE
  5
416
100
AcDbEntity
  8
CURVE
100
AcDbLine
 62
250
  6
CONTINUOUS
 10
10.5810421
 20
75.2498741807
 11
10.3810421954
 21
75.4498741688
  0
LINE
  5
417
100
AcDbEntity
  8
CURVE
100
AcDbLine
 62
250
  6
CONTINUOUS
 10
8.4810421
 20
77.3498741688
 11
8.6810421716
 21
77.1498741807
  0
LINE
  5
418
100
AcDbEntity
  8
CURVE
100
AcDbLine
 62
250
  6
CONTINUOUS
 10
9.1810421
 20
76.7498742045
 11
9.3810421716
 21
76.5498741747
  0
LINE
  5
419
100
AcDbEntity
  8
CURVE
100
AcDbLine
 62
250
  6
CONTINUOUS
 10
11.4477087985
 20
74.0498741688
 11
11.4477087985
 21
74.7498741688
  0
LINE
  5
41A
100
AcDbEntity
  8
CURVE
100
AcDbLine
 62
250
  6
CONTINUOUS
 10
11.7810421954
 20
77.3498741688
 11
11.7810421954
 21
75.9498741688
  0
LINE
  5
41B
100
AcDbEntity
  8
CURVE
100
AcDbLine
 62
250
  6
CONTINUOUS
 10
12.3810422431
 20
76.1165408359
 11
12.4143754493
 21
76.1832075091
  0
LINE
  5
41C
100
AcDbEntity
  8
CURVE
100
AcDbLine
 62
250
  6
CONTINUOUS
 10
12.5143754016
 20
76.0832075046
 11
12.4810421954
 21
76.0165408367
  0
LINE
  5
41D
100
AcDbEntity
  8
0
100
AcDbLine
 62
7
  6
CONTINUOUS
 10
5.4291771477
 20
75.8645281688
 11
5.7376791477
 21
75.9480901688
  0
LINE
  5
41E
100
AcDbEntity
  8
ASSI
100
AcDbLine
 62
7
  6
CONTINUOUS
 10
5.4291771477
 20
75.8645281688
 11
5.7376791477
 21
75.9480901688
  0
LINE
  5
41F
100
AcDbEntity
  8
0
100
AcDbLine
 62
7
  6
CONTINUOUS
 10
4.6169671477
 20
75.6518361688
 11
5.1904581477
 21
75.8000611688
  0
LINE
  5
420
100
AcDbEntity
  8
ASSI
100
AcDbLine
 62
7
  6
CONTINUOUS
 10
4.6169671477
 20
75.6518361688
 11
5.1904581477
 21
75.8000611688
  0
LINE
  5
421
100
AcDbEntity
  8
0
100
AcDbLine
 62
7
  6
CONTINUOUS
 10
4.2104038912
 20
76.3827893178
 11
5.7376791356
 21
76.3827893178
  0
LINE
  5
422
100
AcDbEntity
  8
ASSI
100
AcDbLine
 62
7
  6
CONTINUOUS
 10
4.2104038912
 20
76.3827893178
 11
5.7376791356
 21
76.3827893178
  0
LINE
  5
423
100
AcDbEntity
  8
CURVE
100
AcDbLine
 62
250
  6
CONTINUOUS
 10
13.4810420524
 20
76.5498741747
 11
12.981041957
 21
76.5498741747
  0
LINE
  5
424
100
AcDbEntity
  8
CURVE
100
AcDbLine
 62
250
  6
CONTINUOUS
 10
9.3810421716
 20
76.5498741747
 11
9.8143753539
 21
76.5498741747
  0
LINE
  5
425
100
AcDbEntity
  8
0
100
AcDbLine
 62
7
  6
CONTINUOUS
 10
4.8798347218
 20
76.6933663793
 11
4.4556115559
 21
76.6933663793
  0
LINE
  5
426
100
AcDbEntity
  8
ASSI
100
AcDbLine
 62
7
  6
CONTINUOUS
 10
4.8798347218
 20
76.6933663793
 11
4.4556115559
 21
76.6933663793
  0
LINE
  5
427
100
AcDbEntity
  8
0
100
AcDbLine
 62
7
  6
CONTINUOUS
 10
5.7376791356
 20
76.7040623469
 11
5.132922406
 21
76.7040623469
  0
LINE
  5
428
100
AcDbEntity
  8
ASSI
100
AcDbLine
 62
7
  6
CONTINUOUS
 10
5.7376791356
 20
76.7040623469
 11
5.132922406
 21
76.7040623469
  0
LINE
  5
429
100
AcDbEntity
  8
0
100
AcDbLine
 62
7
  6
CONTINUOUS
 10
3.6464931053
 20
76.8998741688
 11
-1.3216477254
 21
76.8998741688
  0
LINE
  5
42A
100
AcDbEntity
  8
CURVE
100
AcDbLine
 62
250
  6
CONTINUOUS
 10
18.9096136104
 20
77.0498741688
 11
19.4096136104
 21
77.0498741688
  0
LINE
  5
42B
100
AcDbEntity
  8
CURVE
100
AcDbLine
 62
250
  6
CONTINUOUS
 10
19.6953279982
 20
77.0498741688
 11
20.1953279982
 21
77.0498741688
  0
LWPOLYLINE
  5
42C
100
AcDbEntity
  8
0
100
AcDbPolyline
 62
7
  6
CONTINUOUS
 90
13
 70
0
 10
4.6396911284
 20
77.1282855128
 10
4.6779597537
 20
77.1256353536
 10
4.7132316921
 20
77.1192303767
 10
4.7455069437
 20
77.1090705823
 10
4.7751581831
 20
77.0949071446
 10
4.8018127357
 20
77.0769888893
 10
4.8243525768
 20
77.0560622931
 10
4.8420758434
 20
77.0320468493
 10
4.8556843986
 20
77.0050230647
 10
4.8661658075
 20
76.9759789359
 10
4.8738492586
 20
76.9452437953
 10
4.8784055633
 20
76.9124883107
 10
4.8798347218
 20
76.8777124819
  0
LWPOLYLINE
  5
42D
100
AcDbEntity
  8
ASSI
100
AcDbPolyline
 62
7
  6
CONTINUOUS
 90
13
 70
0
 10
4.6396911284
 20
77.1282855128
 10
4.6779597537
 20
77.1256353536
 10
4.7132316921
 20
77.1192303767
 10
4.7455069437
 20
77.1090705823
 10
4.7751581831
 20
77.0949071446
 10
4.8018127357
 20
77.0769888893
 10
4.8243525768
 20
77.0560622931
 10
4.8420758434
 20
77.0320468493
 10
4.8556843986
 20
77.0050230647
 10
4.8661658075
 20
76.9759789359
 10
4.8738492586
 20
76.9452437953
 10
4.8784055633
 20
76.9124883107
 10
4.8798347218
 20
76.8777124819
  0
LINE
  5
42E
100
AcDbEntity
  8
RACCORDO
100
AcDbLine
 62
7
  6
CONTINUOUS
 10
7.9929648084
 20
78.0741184855
 11
7.9810421477
 21
78.0800793618
  0
LINE
  5
42F
100
AcDbEntity
  8
ASSI
100
AcDbLine
 62
7
  6
CONTINUOUS
 10
7.9929648084
 20
78.0741184855
 11
7.9810421477
 21
78.0800793618
  0
LINE
  5
430
100
AcDbEntity
  8
CURVE
100
AcDbLine
 62
250
  6
CONTINUOUS
 10
14.1497921477
 20
72.3248741688
 11
14.2372921477
 21
72.2373741688
  0
LINE
  5
431
100
AcDbEntity
  8
CURVE
100
AcDbLine
 62
250
  6
CONTINUOUS
 10
9.8810421
 20
77.1498741807
 11
9.6810421954
 21
77.3498741688
  0
LINE
  5
432
100
AcDbEntity
  8
CURVE
100
AcDbLine
 62
250
  6
CONTINUOUS
 10
14.2810421477
 20
73.0686241688
 11
14.3247921477
 21
73.0248741688
  0
LINE
  5
433
100
AcDbEntity
  8
CURVE
100
AcDbLine
 62
250
  6
CONTINUOUS
 10
12.3810422431
 20
76.0832075046
 11
12.3810422431
 21
76.1165408359
  0
LINE
  5
434
100
AcDbEntity
  8
CURVE
100
AcDbLine
 62
250
  6
CONTINUOUS
 10
12.5143754016
 20
76.1165408359
 11
12.5143754016
 21
76.0832075046
  0
LINE
  5
435
100
AcDbEntity
  8
CURVE
100
AcDbLine
 62
250
  6
CONTINUOUS
 10
12.4810421954
 20
74.0498741688
 11
12.8810423385
 21
75.4498741688
  0
LINE
  5
436
100
AcDbEntity
  8
CURVE
100
AcDbLine
 62
250
  6
CONTINUOUS
 10
14.4997921477
 20
73.4623741688
 11
14.3685421477
 21
73.4186241688
  0
LINE
  5
437
100
AcDbEntity
  8
RACCORDO
100
AcDbLine
 62
250
  6
CONTINUOUS
 10
20.7176446881
 20
77.7754275154
 11
21.0717556365
 21
77.7807800364
  0
LINE
  5
438
100
AcDbEntity
  8
ASSI
100
AcDbLine
 62
250
  6
CONTINUOUS
 10
20.7176446881
 20
77.7754275154
 11
21.0717556365
 21
77.7807800364
  0
LINE
  5
439
100
AcDbEntity
  8
RACCORDO
100
AcDbLine
 62
250
  6
CONTINUOUS
 10
20.3719902667
 20
78.0741184855
 11
20.9642443201
 21
78.0830706296
  0
LINE
  5
43A
100
AcDbEntity
  8
ASSI
100
AcDbLine
 62
250
  6
CONTINUOUS
 10
20.3719902667
 20
78.0741184855
 11
20.9642443201
 21
78.0830706296
  0
LINE
  5
43B
100
AcDbEntity
  8
0
100
AcDbLine
 62
7
  6
CONTINUOUS
 10
5.0252422803
 20
77.2310539449
 11
5.001109992
 21
77.2310539449
  0
LINE
  5
43C
100
AcDbEntity
  8
ASSI
100
AcDbLine
 62
7
  6
CONTINUOUS
 10
5.0252422803
 20
77.2310539449
 11
5.001109992
 21
77.2310539449
  0
LINE
  5
43D
100
AcDbEntity
  8
CURVE
100
AcDbLine
 62
250
  6
CONTINUOUS
 10
9.6810421954
 20
77.3498741688
 11
9.3810421716
 21
77.3498741688
  0
LINE
  5
43E
100
AcDbEntity
  8
CURVE
100
AcDbLine
 62
250
  6
CONTINUOUS
 10
7.2810421507
 20
77.3498741688
 11
7.3810421656
 21
77.3498741688
  0
LINE
  5
43F
100
AcDbEntity
  8
CURVE
100
AcDbLine
 62
250
  6
CONTINUOUS
 10
8.3810421477
 20
77.3498741688
 11
8.4810421
 21
77.3498741688
  0
LINE
  5
440
100
AcDbEntity
  8
CURVE
100
AcDbLine
 62
250
  6
CONTINUOUS
 10
12.981041957
 20
77.3498741688
 11
13.4810420524
 21
77.3498741688
  0
LINE
  5
441
100
AcDbEntity
  8
DRAFT
100
AcDbLine
 62
7
  6
CONTINUOUS
 10
5.9665240756
 20
77.5998741688
 11
7.9955602198
 21
77.5998741688
  0
LINE
  5
442
100
AcDbEntity
  8
ASSI
100
AcDbLine
 62
7
  6
CONTINUOUS
 10
5.9665240756
 20
77.5998741688
 11
7.9955602198
 21
77.5998741688
  0
LINE
  5
443
100
AcDbEntity
  8
DRAFT
100
AcDbLine
 62
7
  6
CONTINUOUS
 10
14.0665240756
 20
77.5998741688
 11
16.0955602198
 21
77.5998741688
  0
LINE
  5
444
100
AcDbEntity
  8
ASSI
100
AcDbLine
 62
7
  6
CONTINUOUS
 10
14.0665240756
 20
77.5998741688
 11
16.0955602198
 21
77.5998741688
  0
LINE
  5
445
100
AcDbEntity
  8
RACCORDO
100
AcDbLine
 62
250
  6
CONTINUOUS
 10
3.1567921195
 20
77.8835841264
 11
3.006797831
 21
77.8835841264
  0
LINE
  5
446
100
AcDbEntity
  8
ASSI
100
AcDbLine
 62
250
  6
CONTINUOUS
 10
3.1567921195
 20
77.8835841264
 11
3.006797831
 21
77.8835841264
  0
LINE
  5
447
100
AcDbEntity
  8
RACCORDO
100
AcDbLine
 62
250
  6
CONTINUOUS
 10
20.3720477067
 20
77.924124197
 11
16.0955602198
 21
77.924124197
  0
LINE
  5
448
100
AcDbEntity
  8
ASSI
100
AcDbLine
 62
250
  6
CONTINUOUS
 10
20.3720477067
 20
77.924124197
 11
16.0955602198
 21
77.924124197
  0
LINE
  5
449
100
AcDbEntity
  8
RACCORDO
100
AcDbLine
 62
250
  6
CONTINUOUS
 10
14.0665240756
 20
77.924124197
 11
7.9955602198
 21
77.924124197
  0
LINE
  5
44A
100
AcDbEntity
  8
ASSI
100
AcDbLine
 62
250
  6
CONTINUOUS
 10
14.0665240756
 20
77.924124197
 11
7.9955602198
 21
77.924124197
  0
LINE
  5
44B
100
AcDbEntity
  8
RACCORDO
100
AcDbLine
 62
250
  6
CONTINUOUS
 10
5.9665240756
 20
77.924124197
 11
3.006797831
 21
77.924124197
  0
LINE
  5
44C
100
AcDbEntity
  8
ASSI
100
AcDbLine
 62
250
  6
CONTINUOUS
 10
5.9665240756
 20
77.924124197
 11
3.006797831
 21
77.924124197
  0
LINE
  5
44D
100
AcDbEntity
  8
CURVE
100
AcDbLine
 62
250
  6
CONTINUOUS
 10
12.4143754493
 20
76.0165408367
 11
12.3810422431
 21
76.0832075046
  0
LINE
  5
44E
100
AcDbEntity
  8
CURVE
100
AcDbLine
 62
250
  6
CONTINUOUS
 10
12.0810420524
 20
75.4498741688
 11
12.4810421954
 21
74.0498741688
  0
LINE
  5
44F
100
AcDbEntity
  8
CURVE
100
AcDbLine
 62
250
  6
CONTINUOUS
 10
12.981041957
 20
75.9498741688
 11
12.981041957
 21
77.3498741688
  0
LWPOLYLINE
  5
450
100
AcDbEntity
  8
RACCORDO
100
AcDbPolyline
 62
7
  6
CONTINUOUS
 90
8
 70
0
 10
14.069119487
 20
78.0741184855
 10
14.068647358
 20
78.0710872704
 10
14.0682141824
 20
78.06424342
 10
14.0678199602
 20
78.0535869342
 10
14.0674553792
 20
78.0385792383
 10
14.0671297517
 20
78.019758907
 10
14.066871014
 20
77.9987416648
 10
14.066572832
 20
77.9511935972
  0
LWPOLYLINE
  5
451
100
AcDbEntity
  8
ASSI
100
AcDbPolyline
 62
7
  6
CONTINUOUS
 90
8
 70
0
 10
14.069119487
 20
78.0741184855
 10
14.068647358
 20
78.0710872704
 10
14.0682141824
 20
78.06424342
 10
14.0678199602
 20
78.0535869342
 10
14.0674553792
 20
78.0385792383
 10
14.0671297517
 20
78.019758907
 10
14.066871014
 20
77.9987416648
 10
14.066572832
 20
77.9511935972
  0
LINE
  5
452
100
AcDbEntity
  8
CURVE
100
AcDbLine
 62
250
  6
CONTINUOUS
 10
15.5477088462
 20
75.2498741807
 11
15.7477087508
 21
75.4498741688
  0
LINE
  5
453
100
AcDbEntity
  8
CURVE
100
AcDbLine
 62
250
  6
CONTINUOUS
 10
14.4122921477
 20
72.8936241688
 11
14.2372921477
 21
72.8061241688
  0
LWPOLYLINE
  5
454
100
AcDbEntity
  8
RACCORDO
100
AcDbPolyline
 62
7
  6
CONTINUOUS
 90
4
 70
0
 10
3.656797831
 20
76.9079949045
 10
3.6591995018
 20
76.9086352753
 10
3.6657587479
 20
76.9107133576
 10
3.6763979406
 20
76.9141747954
  0
LWPOLYLINE
  5
455
100
AcDbEntity
  8
ASSI
100
AcDbPolyline
 62
7
  6
CONTINUOUS
 90
4
 70
0
 10
3.656797831
 20
76.9079949045
 10
3.6591995018
 20
76.9086352753
 10
3.6657587479
 20
76.9107133576
 10
3.6763979406
 20
76.9141747954
  0
LINE
  5
456
100
AcDbEntity
  8
0
100
AcDbLine
 62
7
  6
CONTINUOUS
 10
5.4603963217
 20
77.4356514657
 11
5.3194239257
 21
77.3980371206
  0
LINE
  5
457
100
AcDbEntity
  8
ASSI
100
AcDbLine
 62
7
  6
CONTINUOUS
 10
5.4603963217
 20
77.4356514657
 11
5.3194239257
 21
77.3980371206
  0
LINE
  5
458
100
AcDbEntity
  8
0
100
AcDbLine
 62
7
  6
CONTINUOUS
 10
5.7376791356
 20
77.5083110401
 11
5.4603963217
 21
77.4356514657
  0
LINE
  5
459
100
AcDbEntity
  8
ASSI
100
AcDbLine
 62
7
  6
CONTINUOUS
 10
5.7376791356
 20
77.5083110401
 11
5.4603963217
 21
77.4356514657
  0
LWPOLYLINE
  5
45A
100
AcDbEntity
  8
0
100
AcDbPolyline
 62
7
  6
CONTINUOUS
 90
10
 70
0
 10
5.3194239257
 20
77.3980371206
 10
5.2764795974
 20
77.387378538
 10
5.2357034349
 20
77.3748698689
 10
5.1970954381
 20
77.3605111132
 10
5.1601273351
 20
77.3444671899
 10
5.1253273978
 20
77.32657318
 10
5.094280442
 20
77.3063343263
 10
5.0675147399
 20
77.2835857097
 10
5.0445020193
 20
77.2584922492
 10
5.0252422803
 20
77.2310539449
  0
LWPOLYLINE
  5
45B
100
AcDbEntity
  8
ASSI
100
AcDbPolyline
 62
7
  6
CONTINUOUS
 90
10
 70
0
 10
5.3194239257
 20
77.3980371206
 10
5.2764795974
 20
77.387378538
 10
5.2357034349
 20
77.3748698689
 10
5.1970954381
 20
77.3605111132
 10
5.1601273351
 20
77.3444671899
 10
5.1253273978
 20
77.32657318
 10
5.094280442
 20
77.3063343263
 10
5.0675147399
 20
77.2835857097
 10
5.0445020193
 20
77.2584922492
 10
5.0252422803
 20
77.2310539449
  0
LWPOLYLINE
  5
45C
100
AcDbEntity
  8
RACCORDO
100
AcDbPolyline
 62
250
  6
CONTINUOUS
 90
10
 70
0
 10
3.1567921195
 20
78.0741184855
 10
3.1307471599
 20
78.0718379767
 10
3.1054934785
 20
78.0650697
 10
3.0817983212
 20
78.0540192821
 10
3.0603815839
 20
78.0390224479
 10
3.0418939432
 20
78.0205348215
 10
3.0268970866
 20
77.9991180858
 10
3.0158466443
 20
77.9754229143
 10
3.0090783479
 20
77.9501692023
 10
3.006797831
 20
77.924124197
  0
LWPOLYLINE
  5
45D
100
AcDbEntity
  8
ASSI
100
AcDbPolyline
 62
250
  6
CONTINUOUS
 90
10
 70
0
 10
3.1567921195
 20
78.0741184855
 10
3.1307471599
 20
78.0718379767
 10
3.1054934785
 20
78.0650697
 10
3.0817983212
 20
78.0540192821
 10
3.0603815839
 20
78.0390224479
 10
3.0418939432
 20
78.0205348215
 10
3.0268970866
 20
77.9991180858
 10
3.0158466443
 20
77.9754229143
 10
3.0090783479
 20
77.9501692023
 10
3.006797831
 20
77.924124197
  0
LINE
  5
45E
100
AcDbEntity
  8
RACCORDO
100
AcDbLine
 62
7
  6
CONTINUOUS
 10
20.3719902667
 20
78.0741184855
 11
16.0929648084
 21
78.0741184855
  0
LINE
  5
45F
100
AcDbEntity
  8
ASSI
100
AcDbLine
 62
7
  6
CONTINUOUS
 10
20.3719902667
 20
78.0741184855
 11
16.0929648084
 21
78.0741184855
  0
LINE
  5
460
100
AcDbEntity
  8
RACCORDO
100
AcDbLine
 62
7
  6
CONTINUOUS
 10
14.069119487
 20
78.0741184855
 11
7.9929648084
 21
78.0741184855
  0
LINE
  5
461
100
AcDbEntity
  8
ASSI
100
AcDbLine
 62
7
  6
CONTINUOUS
 10
14.069119487
 20
78.0741184855
 11
7.9929648084
 21
78.0741184855
  0
LINE
  5
462
100
AcDbEntity
  8
RACCORDO
100
AcDbLine
 62
7
  6
CONTINUOUS
 10
5.969119487
 20
78.0741184855
 11
3.1567921195
 21
78.0741184855
  0
LINE
  5
463
100
AcDbEntity
  8
ASSI
100
AcDbLine
 62
7
  6
CONTINUOUS
 10
5.969119487
 20
78.0741184855
 11
3.1567921195
 21
78.0741184855
  0
LINE
  5
464
100
AcDbEntity
  8
DRAFT
100
AcDbLine
 62
7
  6
CONTINUOUS
 10
5.9810421477
 20
78.0800793618
 11
7.9810421477
 21
78.0800793618
  0
LINE
  5
465
100
AcDbEntity
  8
ASSI
100
AcDbLine
 62
7
  6
CONTINUOUS
 10
5.9810421477
 20
78.0800793618
 11
7.9810421477
 21
78.0800793618
  0
LINE
  5
466
100
AcDbEntity
  8
DRAFT
100
AcDbLine
 62
7
  6
CONTINUOUS
 10
14.0810421477
 20
78.0800793618
 11
16.0810421477
 21
78.0800793618
  0
LINE
  5
467
100
AcDbEntity
  8
ASSI
100
AcDbLine
 62
7
  6
CONTINUOUS
 10
14.0810421477
 20
78.0800793618
 11
16.0810421477
 21
78.0800793618
  0
LINE
  5
468
100
AcDbEntity
  8
DRAFT
100
AcDbLine
 62
7
  6
CONTINUOUS
 10
5.9810421477
 20
78.0946380481
 11
7.9810421477
 21
78.0946380481
  0
LINE
  5
469
100
AcDbEntity
  8
ASSI
100
AcDbLine
 62
7
  6
CONTINUOUS
 10
5.9810421477
 20
78.0946380481
 11
7.9810421477
 21
78.0946380481
  0
LINE
  5
46A
100
AcDbEntity
  8
RACCORDO
100
AcDbLine
 62
7
  6
CONTINUOUS
 10
20.9810478593
 20
78.0998741688
 11
7.9915151867
 21
78.0998741688
  0
LINE
  5
46B
100
AcDbEntity
  8
ASSI
100
AcDbLine
 62
7
  6
CONTINUOUS
 10
20.9810478593
 20
78.0998741688
 11
7.9915151867
 21
78.0998741688
  0
LINE
  5
46C
100
AcDbEntity
  8
RACCORDO
100
AcDbLine
 62
7
  6
CONTINUOUS
 10
3.1310364362
 20
78.0998741688
 11
5.9705691088
 21
78.0998741688
  0
LINE
  5
46D
100
AcDbEntity
  8
ASSI
100
AcDbLine
 62
7
  6
CONTINUOUS
 10
3.1310364362
 20
78.0998741688
 11
5.9705691088
 21
78.0998741688
  0
LWPOLYLINE
  5
46E
100
AcDbEntity
  8
RACCORDO
100
AcDbPolyline
 62
250
  6
CONTINUOUS
 90
7
 70
0
 10
20.3720477067
 20
77.924124197
 10
20.3858062873
 20
77.9238330008
 10
20.3997807264
 20
77.9223402767
 10
20.4139710239
 20
77.9196460248
 10
20.4283771799
 20
77.915750245
 10
20.4429991942
 20
77.9106529373
 10
20.457837067
 20
77.9043541018
  0
LWPOLYLINE
  5
46F
100
AcDbEntity
  8
ASSI
100
AcDbPolyline
 62
250
  6
CONTINUOUS
 90
7
 70
0
 10
20.3720477067
 20
77.924124197
 10
20.3858062873
 20
77.9238330008
 10
20.3997807264
 20
77.9223402767
 10
20.4139710239
 20
77.9196460248
 10
20.4283771799
 20
77.915750245
 10
20.4429991942
 20
77.9106529373
 10
20.457837067
 20
77.9043541018
  0
LINE
  5
470
100
AcDbEntity
  8
CURVE
100
AcDbLine
 62
250
  6
CONTINUOUS
 10
15.7477087508
 20
74.0498741688
 11
15.5477088462
 21
74.2498741777
  0
LINE
  5
471
100
AcDbEntity
  8
CURVE
100
AcDbLine
 62
250
  6
CONTINUOUS
 10
12.4810421954
 20
76.1832075091
 11
12.5143754016
 21
76.1165408359
  0
LINE
  5
472
100
AcDbEntity
  8
CURVE
100
AcDbLine
 62
250
  6
CONTINUOUS
 10
14.2372921477
 20
73.1561241688
 11
14.2810421477
 21
73.0686241688
  0
LINE
  5
473
100
AcDbEntity
  8
CURVE
100
AcDbLine
 62
250
  6
CONTINUOUS
 10
14.1060421477
 20
72.4561241688
 11
14.1497921477
 21
72.3248741688
  0
LINE
  5
474
100
AcDbEntity
  8
CURVE
100
AcDbLine
 62
250
  6
CONTINUOUS
 10
13.681041957
 20
77.1498741807
 11
13.681041957
 21
76.7498742045
  0
LINE
  5
475
100
AcDbEntity
  8
CURVE
100
AcDbLine
 62
250
  6
CONTINUOUS
 10
14.1060421477
 20
72.5873741688
 11
14.1060421477
 21
72.4561241688
  0
LINE
  5
476
100
AcDbEntity
  8
CURVE
100
AcDbLine
 62
250
  6
CONTINUOUS
 10
14.2372921477
 20
73.1998741688
 11
14.2372921477
 21
73.1561241688
  0
LINE
  5
477
100
AcDbEntity
  8
RACCORDO
100
AcDbLine
 62
7
  6
CONTINUOUS
 10
14.066572832
 20
77.9511935972
 11
14.0665240756
 21
77.5998741688
  0
LINE
  5
478
100
AcDbEntity
  8
ASSI
100
AcDbLine
 62
7
  6
CONTINUOUS
 10
14.066572832
 20
77.9511935972
 11
14.0665240756
 21
77.5998741688
  0
LINE
  5
479
100
AcDbEntity
  8
DRAFT
100
AcDbLine
 62
7
  6
CONTINUOUS
 10
14.0665240756
 20
77.5998741688
 11
14.0810421477
 21
78.0800793618
  0
LINE
  5
47A
100
AcDbEntity
  8
ASSI
100
AcDbLine
 62
7
  6
CONTINUOUS
 10
14.0665240756
 20
77.5998741688
 11
14.0810421477
 21
78.0800793618
  0
LINE
  5
47B
100
AcDbEntity
  8
CURVE
100
AcDbLine
 62
250
  6
CONTINUOUS
 10
14.3477087508
 20
74.0498741688
 11
14.7477085601
 21
75.4498741688
  0
LINE
  5
47C
100
AcDbEntity
  8
CURVE
100
AcDbLine
 62
250
  6
CONTINUOUS
 10
15.4810421477
 20
76.0498741688
 11
16.0524707447
 21
77.0498741688
  0
LINE
  5
47D
100
AcDbEntity
  8
CURVE
100
AcDbLine
 62
250
  6
CONTINUOUS
 10
14.3685421477
 20
73.4186241688
 11
14.2810421477
 21
73.3311241688
  0
LINE
  5
47E
100
AcDbEntity
  8
CURVE
100
AcDbLine
 62
250
  6
CONTINUOUS
 10
14.2372921477
 20
72.8061241688
 11
14.1497921477
 21
72.7186241688
  0
LINE
  5
47F
100
AcDbEntity
  8
CURVE
100
AcDbLine
 62
250
  6
CONTINUOUS
 10
14.7622921477
 20
72.1936241688
 11
14.8935421477
 21
72.2811241688
  0
LWPOLYLINE
  5
480
100
AcDbEntity
  8
RACCORDO
100
AcDbPolyline
 62
250
  6
CONTINUOUS
 90
28
 70
0
 10
20.9642454459
 20
78.0830706466
 10
20.9699537139
 20
78.0826178028
 10
20.9755542621
 20
78.0815861456
 10
20.9810269413
 20
78.0800132442
 10
20.9863400873
 20
78.0779399039
 10
20.9914932861
 20
78.0754018899
 10
20.9965160166
 20
78.0724225544
 10
21.0014005183
 20
78.0690311583
 10
21.0061332367
 20
78.0652589397
 10
21.0107353424
 20
78.0611209008
 10
21.015202008
 20
78.0566405467
 10
21.0195237005
 20
78.0518443382
 10
21.0237141937
 20
78.0467440366
 10
21.0277700621
 20
78.0413601382
 10
21.0316853943
 20
78.035715018
 10
21.0354697281
 20
78.0298181625
 10
21.0391048683
 20
78.0237122355
 10
21.0426048673
 20
78.0173942298
 10
21.0460203448
 20
78.0107912542
 10
21.0493139718
 20
78.0039521081
 10
21.0525080482
 20
77.9968454376
 10
21.0557154254
 20
77.9892425228
 10
21.0588836506
 20
77.9811341768
 10
21.0620034362
 20
77.9725001305
 10
21.0652032065
 20
77.9630465761
 10
21.0684672311
 20
77.9526405626
 10
21.071664633
 20
77.9413400427
 10
21.0747153096
 20
77.929116562
  0
LWPOLYLINE
  5
481
100
AcDbEntity
  8
ASSI
100
AcDbPolyline
 62
250
  6
CONTINUOUS
 90
28
 70
0
 10
20.9642454459
 20
78.0830706466
 10
20.9699537139
 20
78.0826178028
 10
20.9755542621
 20
78.0815861456
 10
20.9810269413
 20
78.0800132442
 10
20.9863400873
 20
78.0779399039
 10
20.9914932861
 20
78.0754018899
 10
20.9965160166
 20
78.0724225544
 10
21.0014005183
 20
78.0690311583
 10
21.0061332367
 20
78.0652589397
 10
21.0107353424
 20
78.0611209008
 10
21.015202008
 20
78.0566405467
 10
21.0195237005
 20
78.0518443382
 10
21.0237141937
 20
78.0467440366
 10
21.0277700621
 20
78.0413601382
 10
21.0316853943
 20
78.035715018
 10
21.0354697281
 20
78.0298181625
 10
21.0391048683
 20
78.0237122355
 10
21.0426048673
 20
78.0173942298
 10
21.0460203448
 20
78.0107912542
 10
21.0493139718
 20
78.0039521081
 10
21.0525080482
 20
77.9968454376
 10
21.0557154254
 20
77.9892425228
 10
21.0588836506
 20
77.9811341768
 10
21.0620034362
 20
77.9725001305
 10
21.0652032065
 20
77.9630465761
 10
21.0684672311
 20
77.9526405626
 10
21.071664633
 20
77.9413400427
 10
21.0747153096
 20
77.929116562
  0
LINE
  5
482
100
AcDbEntity
  8
CURVE
100
AcDbLine
 62
250
  6
CONTINUOUS
 10
13.4810420524
 20
77.3498741688
 11
13.681041957
 21
77.1498741807
  0
LINE
  5
483
100
AcDbEntity
  8
CURVE
100
AcDbLine
 62
250
  6
CONTINUOUS
 10
13.2810421477
 20
76.5498741747
 11
13.681041957
 21
75.9498741688
  0
LINE
  5
484
100
AcDbEntity
  8
CURVE
100
AcDbLine
 62
250
  6
CONTINUOUS
 10
14.2810421477
 20
73.3311241688
 11
14.2372921477
 21
73.1998741688
  0
LINE
  5
485
100
AcDbEntity
  8
CURVE
100
AcDbLine
 62
250
  6
CONTINUOUS
 10
14.1497921477
 20
72.7186241688
 11
14.1060421477
 21
72.5873741688
  0
LINE
  5
486
100
AcDbEntity
  8
CURVE
100
AcDbLine
 62
250
  6
CONTINUOUS
 10
16.3381850134
 20
76.0498741688
 11
16.9096136104
 21
77.0498741688
  0
LINE
  5
487
100
AcDbEntity
  8
CURVE
100
AcDbLine
 62
250
  6
CONTINUOUS
 10
17.4810421477
 20
76.6213027657
 11
17.7667565356
 21
77.0498741688
  0
LINE
  5
488
100
AcDbEntity
  8
CURVE
100
AcDbLine
 62
250
  6
CONTINUOUS
 10
14.8935421477
 20
72.2811241688
 11
14.9810421477
 21
72.3686241688
  0
LINE
  5
489
100
AcDbEntity
  8
RACCORDO
100
AcDbLine
 62
250
  6
CONTINUOUS
 10
20.9642443201
 20
78.0830706296
 11
20.9810478593
 21
78.0998741688
  0
LINE
  5
48A
100
AcDbEntity
  8
ASSI
100
AcDbLine
 62
250
  6
CONTINUOUS
 10
20.9642443201
 20
78.0830706296
 11
20.9810478593
 21
78.0998741688
  0
LINE
  5
48B
100
AcDbEntity
  8
RACCORDO
100
AcDbLine
 62
250
  6
CONTINUOUS
 10
20.9642443201
 20
71.0166777079
 11
20.967835567
 21
71.0130864611
  0
LINE
  5
48C
100
AcDbEntity
  8
ASSI
100
AcDbLine
 62
250
  6
CONTINUOUS
 10
20.9642443201
 20
71.0166777079
 11
20.967835567
 21
71.0130864611
  0
LINE
  5
48D
100
AcDbEntity
  8
CURVE
100
AcDbLine
 62
250
  6
CONTINUOUS
 10
14.7477085601
 20
75.4498741688
 11
15.1477090369
 21
74.0498741688
  0
LINE
  5
48E
100
AcDbEntity
  8
CURVE
100
AcDbLine
 62
250
  6
CONTINUOUS
 10
15.5477088462
 20
74.2498741777
 11
15.5477088462
 21
75.2498741807
  0
LINE
  5
48F
100
AcDbEntity
  8
CURVE
100
AcDbLine
 62
250
  6
CONTINUOUS
 10
17.5143753539
 20
75.3165408434
 11
16.7143757354
 21
74.0832075027
  0
LINE
  5
490
100
AcDbEntity
  8
CURVE
100
AcDbLine
 62
250
  6
CONTINUOUS
 10
18.338185073
 20
76.6213027657
 11
18.6238992225
 21
77.0498741688
  0
LWPOLYLINE
  5
491
100
AcDbEntity
  8
RACCORDO
100
AcDbPolyline
 62
250
  6
CONTINUOUS
 90
10
 70
0
 10
21.0717556365
 20
77.78076615
 10
21.0805255151
 20
77.7901512562
 10
21.0881291526
 20
77.7992654669
 10
21.0945979821
 20
77.8081087819
 10
21.0999634252
 20
77.81669132
 10
21.1042746048
 20
77.8250029624
 10
21.1075868909
 20
77.8330133533
 10
21.1099417272
 20
77.8407123739
 10
21.1113768184
 20
77.848110143
 10
21.1119365923
 20
77.8552066604
  0
LWPOLYLINE
  5
492
100
AcDbEntity
  8
ASSI
100
AcDbPolyline
 62
250
  6
CONTINUOUS
 90
10
 70
0
 10
21.0717556365
 20
77.78076615
 10
21.0805255151
 20
77.7901512562
 10
21.0881291526
 20
77.7992654669
 10
21.0945979821
 20
77.8081087819
 10
21.0999634252
 20
77.81669132
 10
21.1042746048
 20
77.8250029624
 10
21.1075868909
 20
77.8330133533
 10
21.1099417272
 20
77.8407123739
 10
21.1113768184
 20
77.848110143
 10
21.1119365923
 20
77.8552066604
  0
LINE
  5
493
100
AcDbEntity
  8
RACCORDO
100
AcDbLine
 62
250
  6
CONTINUOUS
 10
21.114238434
 20
77.9330761666
 11
21.1310421477
 21
77.9498798803
  0
LINE
  5
494
100
AcDbEntity
  8
ASSI
100
AcDbLine
 62
250
  6
CONTINUOUS
 10
21.114238434
 20
77.9330761666
 11
21.1310421477
 21
77.9498798803
  0
LINE
  5
495
100
AcDbEntity
  8
CURVE
100
AcDbLine
 62
250
  6
CONTINUOUS
 10
19.0477081786
 20
75.2498741807
 11
19.2477087508
 21
75.4498741688
  0
LINE
  5
496
100
AcDbEntity
  8
CURVE
100
AcDbLine
 62
250
  6
CONTINUOUS
 10
18.4810423385
 20
74.2498741777
 11
18.2810417663
 21
74.0498741688
  0
LWPOLYLINE
  5
497
100
AcDbEntity
  8
RACCORDO
100
AcDbPolyline
 62
250
  6
CONTINUOUS
 90
22
 70
0
 10
20.457837067
 20
77.9043532633
 10
20.471930325
 20
77.9006911831
 10
20.4859262166
 20
77.896797582
 10
20.4997947833
 20
77.8926724599
 10
20.5134713474
 20
77.8883177293
 10
20.5269643943
 20
77.8837314778
 10
20.5403521327
 20
77.8789079681
 10
20.5536068705
 20
77.8738503838
 10
20.5666961376
 20
77.8685555414
 10
20.5796827775
 20
77.8630081527
 10
20.5925325791
 20
77.85720927
 10
20.6052056673
 20
77.8511578411
 10
20.6177433005
 20
77.8448354215
 10
20.6300999977
 20
77.8382399777
 10
20.6422236875
 20
77.8313735433
 10
20.65412812
 20
77.8242237752
 10
20.6657515965
 20
77.8167845527
 10
20.6770259182
 20
77.8090619964
 10
20.6879332297
 20
77.8010621255
 10
20.6984066123
 20
77.7927869463
 10
20.7083406327
 20
77.7842344524
 10
20.7176446881
 20
77.7754046438
  0
LWPOLYLINE
  5
498
100
AcDbEntity
  8
ASSI
100
AcDbPolyline
 62
250
  6
CONTINUOUS
 90
22
 70
0
 10
20.457837067
 20
77.9043532633
 10
20.471930325
 20
77.9006911831
 10
20.4859262166
 20
77.896797582
 10
20.4997947833
 20
77.8926724599
 10
20.5134713474
 20
77.8883177293
 10
20.5269643943
 20
77.8837314778
 10
20.5403521327
 20
77.8789079681
 10
20.5536068705
 20
77.8738503838
 10
20.5666961376
 20
77.8685555414
 10
20.5796827775
 20
77.8630081527
 10
20.5925325791
 20
77.85720927
 10
20.6052056673
 20
77.8511578411
 10
20.6177433005
 20
77.8448354215
 10
20.6300999977
 20
77.8382399777
 10
20.6422236875
 20
77.8313735433
 10
20.65412812
 20
77.8242237752
 10
20.6657515965
 20
77.8167845527
 10
20.6770259182
 20
77.8090619964
 10
20.6879332297
 20
77.8010621255
 10
20.6984066123
 20
77.7927869463
 10
20.7083406327
 20
77.7842344524
 10
20.7176446881
 20
77.7754046438
  0
LINE
  5
499
100
AcDbEntity
  8
RACCORDO
100
AcDbLine
 62
7
  6
CONTINUOUS
 10
16.0929648084
 20
78.0741184855
 11
16.0810421477
 21
78.0800793618
  0
LINE
  5
49A
100
AcDbEntity
  8
ASSI
100
AcDbLine
 62
7
  6
CONTINUOUS
 10
16.0929648084
 20
78.0741184855
 11
16.0810421477
 21
78.0800793618
  0
LINE
  5
49B
100
AcDbEntity
  8
RACCORDO
100
AcDbLine
 62
250
  6
CONTINUOUS
 10
21.1142393251
 20
71.1666712798
 11
21.1172219417
 21
71.1636886632
  0
LINE
  5
49C
100
AcDbEntity
  8
ASSI
100
AcDbLine
 62
250
  6
CONTINUOUS
 10
21.1142393251
 20
71.1666712798
 11
21.1172219417
 21
71.1636886632
  0
LINE
  5
49D
100
AcDbEntity
  8
CURVE
100
AcDbLine
 62
250
  6
CONTINUOUS
 10
19.2477087508
 20
74.0498741688
 11
19.0477081786
 21
74.2498741777
  0
LINE
  5
49E
100
AcDbEntity
  8
CURVE
100
AcDbLine
 62
250
  6
CONTINUOUS
 10
15.4810421477
 20
77.0498741688
 11
16.0524707447
 21
76.0498741688
  0
LINE
  5
49F
100
AcDbEntity
  8
DRAFT
100
AcDbLine
 62
7
  6
CONTINUOUS
 10
16.0955602198
 20
77.5998741688
 11
16.0810421477
 21
78.0800793618
  0
LINE
  5
4A0
100
AcDbEntity
  8
ASSI
100
AcDbLine
 62
7
  6
CONTINUOUS
 10
16.0955602198
 20
77.5998741688
 11
16.0810421477
 21
78.0800793618
  0
LWPOLYLINE
  5
4A1
100
AcDbEntity
  8
RACCORDO
100
AcDbPolyline
 62
7
  6
CONTINUOUS
 90
6
 70
0
 10
16.0949545437
 20
78.019758907
 10
16.0946289162
 20
78.0385792383
 10
16.0942643353
 20
78.0535869342
 10
16.0938701131
 20
78.06424342
 10
16.0934369374
 20
78.0710872704
 10
16.0929648084
 20
78.0741184855
  0
LWPOLYLINE
  5
4A2
100
AcDbEntity
  8
ASSI
100
AcDbPolyline
 62
7
  6
CONTINUOUS
 90
6
 70
0
 10
16.0949545437
 20
78.019758907
 10
16.0946289162
 20
78.0385792383
 10
16.0942643353
 20
78.0535869342
 10
16.0938701131
 20
78.06424342
 10
16.0934369374
 20
78.0710872704
 10
16.0929648084
 20
78.0741184855
  0
LINE
  5
4A3
100
AcDbEntity
  8
RACCORDO
100
AcDbLine
 62
7
  6
CONTINUOUS
 10
16.0953958173
 20
77.9760660865
 11
16.0949545437
 21
78.019758907
  0
LINE
  5
4A4
100
AcDbEntity
  8
ASSI
100
AcDbLine
 62
7
  6
CONTINUOUS
 10
16.0953958173
 20
77.9760660865
 11
16.0949545437
 21
78.019758907
  0
LINE
  5
4A5
100
AcDbEntity
  8
RACCORDO
100
AcDbLine
 62
7
  6
CONTINUOUS
 10
16.0955602198
 20
77.924124197
 11
16.0953958173
 21
77.9760660865
  0
LINE
  5
4A6
100
AcDbEntity
  8
ASSI
100
AcDbLine
 62
7
  6
CONTINUOUS
 10
16.0955602198
 20
77.924124197
 11
16.0953958173
 21
77.9760660865
  0
LINE
  5
4A7
100
AcDbEntity
  8
RACCORDO
100
AcDbLine
 62
7
  6
CONTINUOUS
 10
16.0955602198
 20
77.924124197
 11
16.0955602198
 21
77.5998741688
  0
LINE
  5
4A8
100
AcDbEntity
  8
ASSI
100
AcDbLine
 62
7
  6
CONTINUOUS
 10
16.0955602198
 20
77.924124197
 11
16.0955602198
 21
77.5998741688
  0
LINE
  5
4A9
100
AcDbEntity
  8
0
100
AcDbLine
 62
7
  6
CONTINUOUS
 10
17.9705691088
 20
70.9998741688
 11
17.9845331607
 21
71.006855663
  0
LINE
  5
4AA
100
AcDbEntity
  8
ASSI
100
AcDbLine
 62
7
  6
CONTINUOUS
 10
17.9705691088
 20
70.9998741688
 11
17.9845331607
 21
71.006855663
  0
LINE
  5
4AB
100
AcDbEntity
  8
CURVE
100
AcDbLine
 62
250
  6
CONTINUOUS
 10
18.2810417663
 20
75.4498741688
 11
18.4810423385
 21
75.2498741807
  0
LINE
  5
4AC
100
AcDbEntity
  8
CURVE
100
AcDbLine
 62
250
  6
CONTINUOUS
 10
16.3381850134
 20
77.0498741688
 11
16.9096136104
 21
76.0498741688
  0
LWPOLYLINE
  5
4AD
100
AcDbEntity
  8
0
100
AcDbPolyline
 62
7
  6
CONTINUOUS
 90
10
 70
0
 43
0.3500000006
 10
11.9488990059
 20
85.9638390198
 10
12.0203279228
 20
85.8209857178
 10
12.0203279228
 20
85.7495545349
 10
11.8774712219
 20
85.6066921692
 10
11.806042305
 20
85.6066921692
 10
11.7346133881
 20
85.6781233521
 10
11.7346133881
 20
85.7495545349
 10
11.806042305
 20
85.8924078369
 10
11.8774712219
 20
85.9638390198
 10
11.9488990059
 20
85.9638390198
  0
LINE
  5
4AE
100
AcDbEntity
  8
CURVE
100
AcDbLine
 62
250
  6
CONTINUOUS
 10
17.4810421477
 20
76.6213027657
 11
17.4810421477
 21
76.0498741688
  0
LINE
  5
4AF
100
AcDbEntity
  8
CURVE
100
AcDbLine
 62
250
  6
CONTINUOUS
 10
19.4096136104
 20
77.0498741688
 11
18.9096136104
 21
76.0498741688
  0
LINE
  5
4B0
100
AcDbEntity
  8
RACCORDO
100
AcDbLine
 62
7
  6
CONTINUOUS
 10
19.9929648084
 20
71.0256298521
 11
19.9810421477
 21
71.0196689757
  0
LINE
  5
4B1
100
AcDbEntity
  8
ASSI
100
AcDbLine
 62
7
  6
CONTINUOUS
 10
19.9929648084
 20
71.0256298521
 11
19.9810421477
 21
71.0196689757
  0
LWPOLYLINE
  5
4B2
100
AcDbEntity
  8
RACCORDO
100
AcDbPolyline
 62
250
  6
CONTINUOUS
 90
16
 70
0
 10
20.457837067
 20
71.1953943304
 10
20.4524427672
 20
71.1928334869
 10
20.4469898083
 20
71.1904519521
 10
20.4414781903
 20
71.1882497263
 10
20.4359031948
 20
71.1862276941
 10
20.4302695401
 20
71.1843849709
 10
20.4245913817
 20
71.1827189017
 10
20.4188690304
 20
71.1812290867
 10
20.4131021753
 20
71.1799159258
 10
20.4073040386
 20
71.1787779648
 10
20.4014746401
 20
71.1778148054
 10
20.39561396
 20
71.1770268459
 10
20.3897351611
 20
71.1764138267
 10
20.3838426312
 20
71.1759756614
 10
20.3779319824
 20
71.1757124365
 10
20.372003215
 20
71.1756241519
  0
LWPOLYLINE
  5
4B3
100
AcDbEntity
  8
ASSI
100
AcDbPolyline
 62
250
  6
CONTINUOUS
 90
16
 70
0
 10
20.457837067
 20
71.1953943304
 10
20.4524427672
 20
71.1928334869
 10
20.4469898083
 20
71.1904519521
 10
20.4414781903
 20
71.1882497263
 10
20.4359031948
 20
71.1862276941
 10
20.4302695401
 20
71.1843849709
 10
20.4245913817
 20
71.1827189017
 10
20.4188690304
 20
71.1812290867
 10
20.4131021753
 20
71.1799159258
 10
20.4073040386
 20
71.1787779648
 10
20.4014746401
 20
71.1778148054
 10
20.39561396
 20
71.1770268459
 10
20.3897351611
 20
71.1764138267
 10
20.3838426312
 20
71.1759756614
 10
20.3779319824
 20
71.1757124365
 10
20.372003215
 20
71.1756241519
  0
LWPOLYLINE
  5
4B4
100
AcDbEntity
  8
RACCORDO
100
AcDbPolyline
 62
250
  6
CONTINUOUS
 90
7
 70
0
 10
20.5223123198
 20
78.0342454141
 10
20.4967203984
 20
78.0472093728
 10
20.471019213
 20
78.0574075594
 10
20.4454790468
 20
78.0650020016
 10
20.4203344548
 20
78.0701799005
 10
20.3957847441
 20
78.0731464764
 10
20.3719952152
 20
78.0741185603
  0
LWPOLYLINE
  5
4B5
100
AcDbEntity
  8
ASSI
100
AcDbPolyline
 62
250
  6
CONTINUOUS
 90
7
 70
0
 10
20.5223123198
 20
78.0342454141
 10
20.4967203984
 20
78.0472093728
 10
20.471019213
 20
78.0574075594
 10
20.4454790468
 20
78.0650020016
 10
20.4203344548
 20
78.0701799005
 10
20.3957847441
 20
78.0731464764
 10
20.3719952152
 20
78.0741185603
  0
LINE
  5
4B6
100
AcDbEntity
  8
CURVE
100
AcDbLine
 62
250
  6
CONTINUOUS
 10
17.195327879
 20
77.0498741688
 11
17.4810421477
 21
76.6213027657
  0
LINE
  5
4B7
100
AcDbEntity
  8
DRAFT
100
AcDbLine
 62
7
  6
CONTINUOUS
 10
17.9665240756
 20
71.4998741688
 11
17.9810421477
 21
71.0196689757
  0
LINE
  5
4B8
100
AcDbEntity
  8
ASSI
100
AcDbLine
 62
7
  6
CONTINUOUS
 10
17.9665240756
 20
71.4998741688
 11
17.9810421477
 21
71.0196689757
  0
LWPOLYLINE
  5
4B9
100
AcDbEntity
  8
RACCORDO
100
AcDbPolyline
 62
7
  6
CONTINUOUS
 90
6
 70
0
 10
17.9671297517
 20
71.0799894306
 10
17.9674553792
 20
71.0611690993
 10
17.9678199602
 20
71.0461614033
 10
17.9682141824
 20
71.0355049176
 10
17.968647358
 20
71.0286610671
 10
17.969119487
 20
71.0256298521
  0
LWPOLYLINE
  5
4BA
100
AcDbEntity
  8
ASSI
100
AcDbPolyline
 62
7
  6
CONTINUOUS
 90
6
 70
0
 10
17.9671297517
 20
71.0799894306
 10
17.9674553792
 20
71.0611690993
 10
17.9678199602
 20
71.0461614033
 10
17.9682141824
 20
71.0355049176
 10
17.968647358
 20
71.0286610671
 10
17.969119487
 20
71.0256298521
  0
LINE
  5
4BB
100
AcDbEntity
  8
RACCORDO
100
AcDbLine
 62
7
  6
CONTINUOUS
 10
17.9666884781
 20
71.1236822511
 11
17.9671297517
 21
71.0799894306
  0
LINE
  5
4BC
100
AcDbEntity
  8
ASSI
100
AcDbLine
 62
7
  6
CONTINUOUS
 10
17.9666884781
 20
71.1236822511
 11
17.9671297517
 21
71.0799894306
  0
LINE
  5
4BD
100
AcDbEntity
  8
RACCORDO
100
AcDbLine
 62
7
  6
CONTINUOUS
 10
17.9665240756
 20
71.1756241405
 11
17.9666884781
 21
71.1236822511
  0
LINE
  5
4BE
100
AcDbEntity
  8
ASSI
100
AcDbLine
 62
7
  6
CONTINUOUS
 10
17.9665240756
 20
71.1756241405
 11
17.9666884781
 21
71.1236822511
  0
LINE
  5
4BF
100
AcDbEntity
  8
CURVE
100
AcDbLine
 62
250
  6
CONTINUOUS
 10
17.7810423385
 20
74.0498741688
 11
17.7810423385
 21
75.4498741688
  0
LINE
  5
4C0
100
AcDbEntity
  8
RACCORDO
100
AcDbLine
 62
7
  6
CONTINUOUS
 10
17.9665240756
 20
71.1756241405
 11
17.9665240756
 21
71.4998741688
  0
LINE
  5
4C1
100
AcDbEntity
  8
ASSI
100
AcDbLine
 62
7
  6
CONTINUOUS
 10
17.9665240756
 20
71.1756241405
 11
17.9665240756
 21
71.4998741688
  0
LINE
  5
4C2
100
AcDbEntity
  8
CURVE
100
AcDbLine
 62
250
  6
CONTINUOUS
 10
18.338185073
 20
76.6213027657
 11
18.338185073
 21
76.0498741688
  0
LINE
  5
4C3
100
AcDbEntity
  8
CURVE
100
AcDbLine
 62
250
  6
CONTINUOUS
 10
18.4810423385
 20
75.2498741807
 11
18.4810423385
 21
74.2498741777
  0
LINE
  5
4C4
100
AcDbEntity
  8
RACCORDO
100
AcDbLine
 62
250
  6
CONTINUOUS
 10
20.5222982232
 20
78.034253294
 11
20.4578379017
 21
77.9043530858
  0
LINE
  5
4C5
100
AcDbEntity
  8
ASSI
100
AcDbLine
 62
250
  6
CONTINUOUS
 10
20.5222982232
 20
78.034253294
 11
20.4578379017
 21
77.9043530858
  0
LINE
  5
4C6
100
AcDbEntity
  8
CURVE
100
AcDbLine
 62
250
  6
CONTINUOUS
 10
20.1953279982
 20
77.0498741688
 11
19.6953279982
 21
76.0498741688
  0
LWPOLYLINE
  5
4C7
100
AcDbEntity
  8
RACCORDO
100
AcDbPolyline
 62
250
  6
CONTINUOUS
 90
19
 70
0
 10
20.5223027262
 20
71.0654975394
 10
20.5412720907
 20
71.0770162041
 10
20.5589933072
 20
71.0893129261
 10
20.575485333
 20
71.1021836943
 10
20.5907051547
 20
71.1153392119
 10
20.6047896825
 20
71.1286956002
 10
20.6179987852
 20
71.1424326156
 10
20.6303917052
 20
71.1565230047
 10
20.6419418245
 20
71.1708111822
 10
20.6527194619
 20
71.1853610488
 10
20.6627472454
 20
71.200134447
 10
20.672025129
 20
71.2150399907
 10
20.680564538
 20
71.2300867291
 10
20.6883196428
 20
71.2451133302
 10
20.6953707715
 20
71.2601733266
 10
20.7018592557
 20
71.2756216548
 10
20.7077838359
 20
71.2915571384
 10
20.7130606693
 20
71.3078053392
 10
20.7176551827
 20
71.3243206635
  0
LWPOLYLINE
  5
4C8
100
AcDbEntity
  8
ASSI
100
AcDbPolyline
 62
250
  6
CONTINUOUS
 90
19
 70
0
 10
20.5223027262
 20
71.0654975394
 10
20.5412720907
 20
71.0770162041
 10
20.5589933072
 20
71.0893129261
 10
20.575485333
 20
71.1021836943
 10
20.5907051547
 20
71.1153392119
 10
20.6047896825
 20
71.1286956002
 10
20.6179987852
 20
71.1424326156
 10
20.6303917052
 20
71.1565230047
 10
20.6419418245
 20
71.1708111822
 10
20.6527194619
 20
71.1853610488
 10
20.6627472454
 20
71.200134447
 10
20.672025129
 20
71.2150399907
 10
20.680564538
 20
71.2300867291
 10
20.6883196428
 20
71.2451133302
 10
20.6953707715
 20
71.2601733266
 10
20.7018592557
 20
71.2756216548
 10
20.7077838359
 20
71.2915571384
 10
20.7130606693
 20
71.3078053392
 10
20.7176551827
 20
71.3243206635
  0
LINE
  5
4C9
100
AcDbEntity
  8
CURVE
100
AcDbLine
 62
250
  6
CONTINUOUS
 10
18.0524706851
 20
77.0498741688
 11
18.338185073
 21
76.6213027657
  0
LINE
  5
4CA
100
AcDbEntity
  8
RACCORDO
100
AcDbLine
 62
250
  6
CONTINUOUS
 10
20.5222761892
 20
71.0654825151
 11
20.4578245544
 21
71.1953888657
  0
LINE
  5
4CB
100
AcDbEntity
  8
ASSI
100
AcDbLine
 62
250
  6
CONTINUOUS
 10
20.5222761892
 20
71.0654825151
 11
20.4578245544
 21
71.1953888657
  0
LINE
  5
4CC
100
AcDbEntity
  8
CURVE
100
AcDbLine
 62
250
  6
CONTINUOUS
 10
19.0477081786
 20
74.2498741777
 11
19.0477081786
 21
75.2498741807
  0
LWPOLYLINE
  5
4CD
100
AcDbEntity
  8
RACCORDO
100
AcDbPolyline
 62
250
  6
CONTINUOUS
 90
11
 70
0
 10
21.114238434
 20
77.9330761666
 10
21.1141186685
 20
77.9327734612
 10
21.1140019034
 20
77.9322200071
 10
21.1138881386
 20
77.9314158044
 10
21.1137773868
 20
77.9303456268
 10
21.1136696354
 20
77.9290247006
 10
21.1135648467
 20
77.9274987045
 10
21.1134630311
 20
77.925771093
 10
21.1133641782
 20
77.9238384116
 10
21.1132682184
 20
77.9217359762
 10
21.1130849616
 20
77.9170259657
  0
LWPOLYLINE
  5
4CE
100
AcDbEntity
  8
ASSI
100
AcDbPolyline
 62
250
  6
CONTINUOUS
 90
11
 70
0
 10
21.114238434
 20
77.9330761666
 10
21.1141186685
 20
77.9327734612
 10
21.1140019034
 20
77.9322200071
 10
21.1138881386
 20
77.9314158044
 10
21.1137773868
 20
77.9303456268
 10
21.1136696354
 20
77.9290247006
 10
21.1135648467
 20
77.9274987045
 10
21.1134630311
 20
77.925771093
 10
21.1133641782
 20
77.9238384116
 10
21.1132682184
 20
77.9217359762
 10
21.1130849616
 20
77.9170259657
  0
LWPOLYLINE
  5
4CF
100
AcDbEntity
  8
RACCORDO
100
AcDbPolyline
 62
250
  6
CONTINUOUS
 90
10
 70
0
 10
21.1142393251
 20
71.1666712798
 10
21.1141174768
 20
71.1669810186
 10
21.1139987659
 20
71.1675488907
 10
21.1138831923
 20
71.1683748962
 10
21.1137707958
 20
71.1694745976
 10
21.1136615367
 20
71.1708324323
 10
21.1135552954
 20
71.1724017133
 10
21.1134520561
 20
71.1741788146
 10
21.1133518345
 20
71.1761673621
 10
21.1132545581
 20
71.1783315468
  0
LWPOLYLINE
  5
4D0
100
AcDbEntity
  8
ASSI
100
AcDbPolyline
 62
250
  6
CONTINUOUS
 90
10
 70
0
 10
21.1142393251
 20
71.1666712798
 10
21.1141174768
 20
71.1669810186
 10
21.1139987659
 20
71.1675488907
 10
21.1138831923
 20
71.1683748962
 10
21.1137707958
 20
71.1694745976
 10
21.1136615367
 20
71.1708324323
 10
21.1135552954
 20
71.1724017133
 10
21.1134520561
 20
71.1741788146
 10
21.1133518345
 20
71.1761673621
 10
21.1132545581
 20
71.1783315468
  0
LINE
  5
4D1
100
AcDbEntity
  8
RACCORDO
100
AcDbLine
 62
7
  6
CONTINUOUS
 10
19.9955114635
 20
71.1485547403
 11
19.9955602198
 21
71.4998741688
  0
LINE
  5
4D2
100
AcDbEntity
  8
ASSI
100
AcDbLine
 62
7
  6
CONTINUOUS
 10
19.9955114635
 20
71.1485547403
 11
19.9955602198
 21
71.4998741688
  0
LINE
  5
4D3
100
AcDbEntity
  8
DRAFT
100
AcDbLine
 62
7
  6
CONTINUOUS
 10
19.9955602198
 20
71.4998741688
 11
19.9810421477
 21
71.0196689757
  0
LINE
  5
4D4
100
AcDbEntity
  8
ASSI
100
AcDbLine
 62
7
  6
CONTINUOUS
 10
19.9955602198
 20
71.4998741688
 11
19.9810421477
 21
71.0196689757
  0
LINE
  5
4D5
100
AcDbEntity
  8
RACCORDO
100
AcDbLine
 62
250
  6
CONTINUOUS
 10
21.075874896
 20
77.7993824628
 11
21.071748695
 21
77.7807799315
  0
LINE
  5
4D6
100
AcDbEntity
  8
ASSI
100
AcDbLine
 62
250
  6
CONTINUOUS
 10
21.075874896
 20
77.7993824628
 11
21.071748695
 21
77.7807799315
  0
LWPOLYLINE
  5
4D7
100
AcDbEntity
  8
RACCORDO
100
AcDbPolyline
 62
250
  6
CONTINUOUS
 90
19
 70
0
 10
20.7176446881
 20
71.3243418089
 10
20.7089585365
 20
71.3160718468
 10
20.6996347094
 20
71.3079790338
 10
20.6897304064
 20
71.3000633699
 10
20.6793942586
 20
71.2923687289
 10
20.6686002619
 20
71.2848512369
 10
20.6570962763
 20
71.2773792728
 10
20.6448059061
 20
71.269891412
 10
20.6318245352
 20
71.262449079
 10
20.6181100771
 20
71.2551049259
 10
20.6037078707
 20
71.2478589602
 10
20.5886143043
 20
71.2407111744
 10
20.5727013669
 20
71.2337141983
 10
20.5560716499
 20
71.2268711133
 10
20.5386806293
 20
71.220178838
 10
20.5201568697
 20
71.2136807578
 10
20.5003976264
 20
71.2073913348
 10
20.4795969272
 20
71.2012961069
 10
20.457837067
 20
71.1953950742
  0
LWPOLYLINE
  5
4D8
100
AcDbEntity
  8
ASSI
100
AcDbPolyline
 62
250
  6
CONTINUOUS
 90
19
 70
0
 10
20.7176446881
 20
71.3243418089
 10
20.7089585365
 20
71.3160718468
 10
20.6996347094
 20
71.3079790338
 10
20.6897304064
 20
71.3000633699
 10
20.6793942586
 20
71.2923687289
 10
20.6686002619
 20
71.2848512369
 10
20.6570962763
 20
71.2773792728
 10
20.6448059061
 20
71.269891412
 10
20.6318245352
 20
71.262449079
 10
20.6181100771
 20
71.2551049259
 10
20.6037078707
 20
71.2478589602
 10
20.5886143043
 20
71.2407111744
 10
20.5727013669
 20
71.2337141983
 10
20.5560716499
 20
71.2268711133
 10
20.5386806293
 20
71.220178838
 10
20.5201568697
 20
71.2136807578
 10
20.5003976264
 20
71.2073913348
 10
20.4795969272
 20
71.2012961069
 10
20.457837067
 20
71.1953950742
  0
LWPOLYLINE
  5
4D9
100
AcDbEntity
  8
RACCORDO
100
AcDbPolyline
 62
250
  6
CONTINUOUS
 90
10
 70
0
 10
21.0747257144
 20
71.1706829953
 10
21.0822089016
 20
71.1776703345
 10
21.0889353349
 20
71.1850784487
 10
21.0948626932
 20
71.1928607228
 10
21.0999536859
 20
71.2009681909
 10
21.1041762806
 20
71.2093498352
 10
21.1075039083
 20
71.2179529056
 10
21.1099156375
 20
71.2267232657
 10
21.1113963019
 20
71.2356057337
 10
21.1119365923
 20
71.24454442
  0
LWPOLYLINE
  5
4DA
100
AcDbEntity
  8
ASSI
100
AcDbPolyline
 62
250
  6
CONTINUOUS
 90
10
 70
0
 10
21.0747257144
 20
71.1706829953
 10
21.0822089016
 20
71.1776703345
 10
21.0889353349
 20
71.1850784487
 10
21.0948626932
 20
71.1928607228
 10
21.0999536859
 20
71.2009681909
 10
21.1041762806
 20
71.2093498352
 10
21.1075039083
 20
71.2179529056
 10
21.1099156375
 20
71.2267232657
 10
21.1113963019
 20
71.2356057337
 10
21.1119365923
 20
71.24454442
  0
LWPOLYLINE
  5
4DB
100
AcDbEntity
  8
0
100
AcDbPolyline
 62
7
  6
CONTINUOUS
 90
13
 70
0
 43
0.3500000006
 10
9.377470459
 20
87.1781238098
 10
9.0917564907
 20
87.3924082947
 10
9.0917564907
 20
88.035270813
 10
9.377470459
 20
88.4638397827
 10
10.0203273125
 20
88.4638397827
 10
10.3060418472
 20
88.035270813
 10
10.3060418472
 20
87.3924082947
 10
10.0203273125
 20
87.1781238098
 10
10.4488996811
 20
86.7495548401
 10
10.4488996811
 20
85.8924078369
 10
10.0203273125
 20
85.4638388672
 10
9.377470459
 20
85.4638388672
 10
8.9488992233
 20
85.8924078369
  0
LWPOLYLINE
  5
4DC
100
AcDbEntity
  8
RACCORDO
100
AcDbPolyline
 62
250
  6
CONTINUOUS
 90
11
 70
0
 10
21.071750683
 20
71.318968376
 10
21.0741527694
 20
71.3086798825
 10
21.076324672
 20
71.2979430792
 10
21.0782244899
 20
71.2867741981
 10
21.079815448
 20
71.2752019145
 10
21.0810479849
 20
71.2632415633
 10
21.0818569856
 20
71.2508960733
 10
21.0821991583
 20
71.2382048956
 10
21.0820227045
 20
71.2252023083
 10
21.0812421212
 20
71.2118939268
 10
21.0797925624
 20
71.1983207431
  0
LWPOLYLINE
  5
4DD
100
AcDbEntity
  8
ASSI
100
AcDbPolyline
 62
250
  6
CONTINUOUS
 90
11
 70
0
 10
21.071750683
 20
71.318968376
 10
21.0741527694
 20
71.3086798825
 10
21.076324672
 20
71.2979430792
 10
21.0782244899
 20
71.2867741981
 10
21.079815448
 20
71.2752019145
 10
21.0810479849
 20
71.2632415633
 10
21.0818569856
 20
71.2508960733
 10
21.0821991583
 20
71.2382048956
 10
21.0820227045
 20
71.2252023083
 10
21.0812421212
 20
71.2118939268
 10
21.0797925624
 20
71.1983207431
  0
LWPOLYLINE
  5
4DE
100
AcDbEntity
  8
RACCORDO
100
AcDbPolyline
 62
250
  6
CONTINUOUS
 90
10
 70
0
 10
21.1142386086
 20
77.9330763412
 10
21.1119580831
 20
77.9591213957
 10
21.1051897648
 20
77.9843751427
 10
21.0941392939
 20
78.0080703328
 10
21.0791424066
 20
78.0294870732
 10
21.0606547403
 20
78.0479746893
 10
21.0392379946
 20
78.0629714981
 10
21.015542854
 20
78.0740218833
 10
20.9902892143
 20
78.0807901325
 10
20.9642443201
 20
78.0830706296
  0
LWPOLYLINE
  5
4DF
100
AcDbEntity
  8
ASSI
100
AcDbPolyline
 62
250
  6
CONTINUOUS
 90
10
 70
0
 10
21.1142386086
 20
77.9330763412
 10
21.1119580831
 20
77.9591213957
 10
21.1051897648
 20
77.9843751427
 10
21.0941392939
 20
78.0080703328
 10
21.0791424066
 20
78.0294870732
 10
21.0606547403
 20
78.0479746893
 10
21.0392379946
 20
78.0629714981
 10
21.015542854
 20
78.0740218833
 10
20.9902892143
 20
78.0807901325
 10
20.9642443201
 20
78.0830706296
  0
LWPOLYLINE
  5
4E0
100
AcDbEntity
  8
RACCORDO
100
AcDbPolyline
 62
250
  6
CONTINUOUS
 90
13
 70
0
 10
21.1119365923
 20
71.24454442
 10
21.1113911992
 20
71.2515635355
 10
21.1100889254
 20
71.2584588299
 10
21.1081126624
 20
71.265230303
 10
21.1055463466
 20
71.2718945923
 10
21.1024670614
 20
71.2784350603
 10
21.0989384749
 20
71.2848017952
 10
21.0950266493
 20
71.2909883731
 10
21.0907977928
 20
71.2970012179
 10
21.0863030605
 20
71.3028096882
 10
21.0815945943
 20
71.3084035704
 10
21.0767287603
 20
71.3137930782
 10
21.0717556365
 20
71.3189782116
  0
LWPOLYLINE
  5
4E1
100
AcDbEntity
  8
ASSI
100
AcDbPolyline
 62
250
  6
CONTINUOUS
 90
13
 70
0
 10
21.1119365923
 20
71.24454442
 10
21.1113911992
 20
71.2515635355
 10
21.1100889254
 20
71.2584588299
 10
21.1081126624
 20
71.265230303
 10
21.1055463466
 20
71.2718945923
 10
21.1024670614
 20
71.2784350603
 10
21.0989384749
 20
71.2848017952
 10
21.0950266493
 20
71.2909883731
 10
21.0907977928
 20
71.2970012179
 10
21.0863030605
 20
71.3028096882
 10
21.0815945943
 20
71.3084035704
 10
21.0767287603
 20
71.3137930782
 10
21.0717556365
 20
71.3189782116
  0
LWPOLYLINE
  5
4E2
100
AcDbEntity
  8
RACCORDO
100
AcDbPolyline
 62
250
  6
CONTINUOUS
 90
10
 70
0
 10
21.1119365772
 20
77.8552058854
 10
21.1113961691
 20
77.8641437814
 10
21.1099155118
 20
77.8730256534
 10
21.1075038518
 20
77.8817956173
 10
21.1041762324
 20
77.8903986266
 10
21.0999535568
 20
77.8987803909
 10
21.094862604
 20
77.9068877575
 10
21.0889355748
 20
77.9146696117
 10
21.0822097437
 20
77.9220771561
 10
21.0747274826
 20
77.9290638183
  0
LWPOLYLINE
  5
4E3
100
AcDbEntity
  8
ASSI
100
AcDbPolyline
 62
250
  6
CONTINUOUS
 90
10
 70
0
 10
21.1119365772
 20
77.8552058854
 10
21.1113961691
 20
77.8641437814
 10
21.1099155118
 20
77.8730256534
 10
21.1075038518
 20
77.8817956173
 10
21.1041762324
 20
77.8903986266
 10
21.0999535568
 20
77.8987803909
 10
21.094862604
 20
77.9068877575
 10
21.0889355748
 20
77.9146696117
 10
21.0822097437
 20
77.9220771561
 10
21.0747274826
 20
77.9290638183
  0
LINE
  5
4E4
100
AcDbEntity
  8
RACCORDO
100
AcDbLine
 62
250
  6
CONTINUOUS
 10
21.1132545581
 20
71.1783315468
 11
21.1130688426
 21
71.1831816329
  0
LINE
  5
4E5
100
AcDbEntity
  8
ASSI
100
AcDbLine
 62
250
  6
CONTINUOUS
 10
21.1132545581
 20
71.1783315468
 11
21.1130688426
 21
71.1831816329
  0
LINE
  5
4E6
100
AcDbEntity
  8
RACCORDO
100
AcDbLine
 62
250
  6
CONTINUOUS
 10
21.1130688426
 20
71.1831816329
 11
21.1128946441
 21
71.1886500358
  0
LINE
  5
4E7
100
AcDbEntity
  8
ASSI
100
AcDbLine
 62
250
  6
CONTINUOUS
 10
21.1130688426
 20
71.1831816329
 11
21.1128946441
 21
71.1886500358
  0
LINE
  5
4E8
100
AcDbEntity
  8
RACCORDO
100
AcDbLine
 62
250
  6
CONTINUOUS
 10
21.1128946441
 20
71.1886500358
 11
21.1126550264
 21
71.1978702649
  0
LINE
  5
4E9
100
AcDbEntity
  8
ASSI
100
AcDbLine
 62
250
  6
CONTINUOUS
 10
21.1128946441
 20
71.1886500358
 11
21.1126550264
 21
71.1978702649
  0
LINE
  5
4EA
100
AcDbEntity
  8
RACCORDO
100
AcDbLine
 62
250
  6
CONTINUOUS
 10
21.1126550264
 20
71.1978702649
 11
21.1123754326
 21
71.2117182909
  0
LINE
  5
4EB
100
AcDbEntity
  8
ASSI
100
AcDbLine
 62
250
  6
CONTINUOUS
 10
21.1126550264
 20
71.1978702649
 11
21.1123754326
 21
71.2117182909
  0
LINE
  5
4EC
100
AcDbEntity
  8
RACCORDO
100
AcDbLine
 62
250
  6
CONTINUOUS
 10
21.1123754326
 20
71.2117182909
 11
21.1121224558
 21
71.2283547333
  0
LINE
  5
4ED
100
AcDbEntity
  8
ASSI
100
AcDbLine
 62
250
  6
CONTINUOUS
 10
21.1123754326
 20
71.2117182909
 11
21.1121224558
 21
71.2283547333
  0
LINE
  5
4EE
100
AcDbEntity
  8
RACCORDO
100
AcDbLine
 62
250
  6
CONTINUOUS
 10
21.1121224558
 20
71.2283547333
 11
21.1119365923
 21
71.2445440114
  0
LINE
  5
4EF
100
AcDbEntity
  8
ASSI
100
AcDbLine
 62
250
  6
CONTINUOUS
 10
21.1121224558
 20
71.2283547333
 11
21.1119365923
 21
71.2445440114
  0
LINE
  5
4F0
100
AcDbEntity
  8
RACCORDO
100
AcDbLine
 62
250
  6
CONTINUOUS
 10
20.3719902664
 20
78.0741184855
 11
20.3719902667
 21
77.924124197
  0
LINE
  5
4F1
100
AcDbEntity
  8
ASSI
100
AcDbLine
 62
250
  6
CONTINUOUS
 10
20.3719902664
 20
78.0741184855
 11
20.3719902667
 21
77.924124197
  0
LINE
  5
4F2
100
AcDbEntity
  8
RACCORDO
100
AcDbLine
 62
250
  6
CONTINUOUS
 10
20.3719902664
 20
71.0256298521
 11
20.3719902667
 21
71.1756241519
  0
LINE
  5
4F3
100
AcDbEntity
  8
ASSI
100
AcDbLine
 62
250
  6
CONTINUOUS
 10
20.3719902664
 20
71.0256298521
 11
20.3719902667
 21
71.1756241519
  0
LINE
  5
4F4
100
AcDbEntity
  8
RACCORDO
100
AcDbLine
 62
250
  6
CONTINUOUS
 10
20.457837067
 20
77.9043541018
 11
20.457837067
 21
71.1953943304
  0
LINE
  5
4F5
100
AcDbEntity
  8
ASSI
100
AcDbLine
 62
250
  6
CONTINUOUS
 10
20.457837067
 20
77.9043541018
 11
20.457837067
 21
71.1953943304
  0
LINE
  5
4F6
100
AcDbEntity
  8
RACCORDO
100
AcDbLine
 62
250
  6
CONTINUOUS
 10
20.7176446881
 20
77.7754275154
 11
20.7176446881
 21
71.3243208221
  0
LINE
  5
4F7
100
AcDbEntity
  8
ASSI
100
AcDbLine
 62
250
  6
CONTINUOUS
 10
20.7176446881
 20
77.7754275154
 11
20.7176446881
 21
71.3243208221
  0
LINE
  5
4F8
100
AcDbEntity
  8
RACCORDO
100
AcDbLine
 62
250
  6
CONTINUOUS
 10
21.0717556365
 20
71.3189683011
 11
21.0717556365
 21
77.7807800364
  0
LINE
  5
4F9
100
AcDbEntity
  8
ASSI
100
AcDbLine
 62
250
  6
CONTINUOUS
 10
21.0717556365
 20
71.3189683011
 11
21.0717556365
 21
77.7807800364
  0
LINE
  5
4FA
100
AcDbEntity
  8
RACCORDO
100
AcDbLine
 62
7
  6
CONTINUOUS
 10
21.1119365923
 20
71.2445440114
 11
21.1119365923
 21
77.8552027726
  0
LINE
  5
4FB
100
AcDbEntity
  8
ASSI
100
AcDbLine
 62
7
  6
CONTINUOUS
 10
21.1119365923
 20
71.2445440114
 11
21.1119365923
 21
77.8552027726
  0
LINE
  5
4FC
100
AcDbEntity
  8
RACCORDO
100
AcDbLine
 62
7
  6
CONTINUOUS
 10
21.1172219417
 20
71.1636886632
 11
21.1172219417
 21
71.5151919221
  0
LINE
  5
4FD
100
AcDbEntity
  8
ASSI
100
AcDbLine
 62
7
  6
CONTINUOUS
 10
21.1172219417
 20
71.1636886632
 11
21.1172219417
 21
71.5151919221
  0
LINE
  5
4FE
100
AcDbEntity
  8
RACCORDO
100
AcDbLine
 62
7
  6
CONTINUOUS
 10
21.1310421477
 20
71.65374236
 11
21.1310421477
 21
77.9498798803
  0
LINE
  5
4FF
100
AcDbEntity
  8
ASSI
100
AcDbLine
 62
7
  6
CONTINUOUS
 10
21.1310421477
 20
71.65374236
 11
21.1310421477
 21
77.9498798803
  0
LINE
  5
500
100
AcDbEntity
  8
RACCORDO
100
AcDbLine
 62
250
  6
CONTINUOUS
 10
21.1121997056
 20
77.8770392233
 11
21.1119365923
 21
77.8552027726
  0
LINE
  5
501
100
AcDbEntity
  8
ASSI
100
AcDbLine
 62
250
  6
CONTINUOUS
 10
21.1121997056
 20
77.8770392233
 11
21.1119365923
 21
77.8552027726
  0
LINE
  5
502
100
AcDbEntity
  8
RACCORDO
100
AcDbLine
 62
250
  6
CONTINUOUS
 10
21.1124642618
 20
77.8928544195
 11
21.1121997056
 21
77.8770392233
  0
LINE
  5
503
100
AcDbEntity
  8
ASSI
100
AcDbLine
 62
250
  6
CONTINUOUS
 10
21.1124642618
 20
77.8928544195
 11
21.1121997056
 21
77.8770392233
  0
LINE
  5
504
100
AcDbEntity
  8
RACCORDO
100
AcDbLine
 62
250
  6
CONTINUOUS
 10
21.1126769082
 20
77.9028137529
 11
21.1124642618
 21
77.8928544195
  0
LINE
  5
505
100
AcDbEntity
  8
ASSI
100
AcDbLine
 62
250
  6
CONTINUOUS
 10
21.1126769082
 20
77.9028137529
 11
21.1124642618
 21
77.8928544195
  0
LINE
  5
506
100
AcDbEntity
  8
RACCORDO
100
AcDbLine
 62
250
  6
CONTINUOUS
 10
21.1129131418
 20
77.9117257306
 11
21.1126769082
 21
77.9028137529
  0
LINE
  5
507
100
AcDbEntity
  8
ASSI
100
AcDbLine
 62
250
  6
CONTINUOUS
 10
21.1129131418
 20
77.9117257306
 11
21.1126769082
 21
77.9028137529
  0
LINE
  5
508
100
AcDbEntity
  8
RACCORDO
100
AcDbLine
 62
250
  6
CONTINUOUS
 10
21.1130849616
 20
77.9170259657
 11
21.1129131418
 21
77.9117257306
  0
LINE
  5
509
100
AcDbEntity
  8
ASSI
100
AcDbLine
 62
250
  6
CONTINUOUS
 10
21.1130849616
 20
77.9170259657
 11
21.1129131418
 21
77.9117257306
  0
LWPOLYLINE
  5
50A
100
AcDbEntity
  8
0
100
AcDbPolyline
 62
7
  6
CONTINUOUS
 90
10
 70
0
 10
21.1172219417
 20
71.1636886632
 10
21.1149407241
 20
71.1377641707
 10
21.108773533
 20
71.1136375137
 10
21.0987203684
 20
71.0913086921
 10
21.0843723551
 20
71.0701111818
 10
21.0661383683
 20
71.050711507
 10
21.0452450336
 20
71.0351092402
 10
21.022101226
 20
71.0239709058
 10
20.9962980705
 20
71.0166299794
 10
20.967835567
 20
71.0130864611
  0
LWPOLYLINE
  5
50B
100
AcDbEntity
  8
ASSI
100
AcDbPolyline
 62
7
  6
CONTINUOUS
 90
10
 70
0
 10
21.1172219417
 20
71.1636886632
 10
21.1149407241
 20
71.1377641707
 10
21.108773533
 20
71.1136375137
 10
21.0987203684
 20
71.0913086921
 10
21.0843723551
 20
71.0701111818
 10
21.0661383683
 20
71.050711507
 10
21.0452450336
 20
71.0351092402
 10
21.022101226
 20
71.0239709058
 10
20.9962980705
 20
71.0166299794
 10
20.967835567
 20
71.0130864611
  0
LINE
  5
50C
100
AcDbEntity
  8
RACCORDO
100
AcDbLine
 62
250
  6
CONTINUOUS
 10
21.1310421477
 20
71.65374236
 11
21.1295493038
 21
71.6237365211
  0
LINE
  5
50D
100
AcDbEntity
  8
ASSI
100
AcDbLine
 62
250
  6
CONTINUOUS
 10
21.1310421477
 20
71.65374236
 11
21.1295493038
 21
71.6237365211
  0
LINE
  5
50E
100
AcDbEntity
  8
RACCORDO
100
AcDbLine
 62
7
  6
CONTINUOUS
 10
21.1295493038
 20
71.6237365211
 11
21.1172219417
 21
71.5001521539
  0
LINE
  5
50F
100
AcDbEntity
  8
ASSI
100
AcDbLine
 62
7
  6
CONTINUOUS
 10
21.1295493038
 20
71.6237365211
 11
21.1172219417
 21
71.5001521539
  0
LWPOLYLINE
  5
510
100
AcDbEntity
  8
RACCORDO
100
AcDbPolyline
 62
7
  6
CONTINUOUS
 90
8
 70
0
 10
19.9929648084
 20
71.0256298521
 10
19.9934369374
 20
71.0286610671
 10
19.9938701131
 20
71.0355049176
 10
19.9942643353
 20
71.0461614033
 10
19.9946289162
 20
71.0611690993
 10
19.9949545437
 20
71.0799894306
 10
19.9952132815
 20
71.1010066728
 10
19.9955114635
 20
71.1485547403
  0
LWPOLYLINE
  5
511
100
AcDbEntity
  8
ASSI
100
AcDbPolyline
 62
7
  6
CONTINUOUS
 90
8
 70
0
 10
19.9929648084
 20
71.0256298521
 10
19.9934369374
 20
71.0286610671
 10
19.9938701131
 20
71.0355049176
 10
19.9942643353
 20
71.0461614033
 10
19.9946289162
 20
71.0611690993
 10
19.9949545437
 20
71.0799894306
 10
19.9952132815
 20
71.1010066728
 10
19.9955114635
 20
71.1485547403
  0
LWPOLYLINE
  5
512
100
AcDbEntity
  8
RACCORDO
100
AcDbPolyline
 62
250
  6
CONTINUOUS
 90
3
 70
0
 10
21.0797925624
 20
71.1983207431
 10
21.0776358204
 20
71.1845576186
 10
21.0747235063
 20
71.1706734423
  0
LWPOLYLINE
  5
513
100
AcDbEntity
  8
ASSI
100
AcDbPolyline
 62
250
  6
CONTINUOUS
 90
3
 70
0
 10
21.0797925624
 20
71.1983207431
 10
21.0776358204
 20
71.1845576186
 10
21.0747235063
 20
71.1706734423
  0
LWPOLYLINE
  5
514
100
AcDbEntity
  8
RACCORDO
100
AcDbPolyline
 62
250
  6
CONTINUOUS
 90
28
 70
0
 10
21.0747235063
 20
71.1706734423
 10
21.0718495492
 20
71.1591453191
 10
21.0688419403
 20
71.1484127752
 10
21.0657655424
 20
71.138454435
 10
21.0627329547
 20
71.1293402042
 10
21.0597529793
 20
71.1209416725
 10
21.0567013005
 20
71.1129615169
 10
21.053575077
 20
71.1053761162
 10
21.0504206893
 20
71.0981982391
 10
21.0471419377
 20
71.0912305692
 10
21.0437099475
 20
71.0844387514
 10
21.0401588721
 20
71.0778887926
 10
21.0364667945
 20
71.0715603909
 10
21.0326305442
 20
71.0654641791
 10
21.0286587894
 20
71.0596293924
 10
21.0245447622
 20
71.0540701918
 10
21.020297038
 20
71.0488111372
 10
21.0159179625
 20
71.0438700547
 10
21.0113910062
 20
71.0392559607
 10
21.0067255278
 20
71.0349953698
 10
21.001927461
 20
71.0311128269
 10
20.9969744519
 20
71.0276230563
 10
20.9918804229
 20
71.0245579389
 10
20.9866538418
 20
71.0219476768
 10
20.9812645085
 20
71.0198162265
 10
20.975713078
 20
71.0182001795
 10
20.9700324644
 20
71.0171412263
 10
20.9642437079
 20
71.0166777172
  0
LWPOLYLINE
  5
515
100
AcDbEntity
  8
ASSI
100
AcDbPolyline
 62
250
  6
CONTINUOUS
 90
28
 70
0
 10
21.0747235063
 20
71.1706734423
 10
21.0718495492
 20
71.1591453191
 10
21.0688419403
 20
71.1484127752
 10
21.0657655424
 20
71.138454435
 10
21.0627329547
 20
71.1293402042
 10
21.0597529793
 20
71.1209416725
 10
21.0567013005
 20
71.1129615169
 10
21.053575077
 20
71.1053761162
 10
21.0504206893
 20
71.0981982391
 10
21.0471419377
 20
71.0912305692
 10
21.0437099475
 20
71.0844387514
 10
21.0401588721
 20
71.0778887926
 10
21.0364667945
 20
71.0715603909
 10
21.0326305442
 20
71.0654641791
 10
21.0286587894
 20
71.0596293924
 10
21.0245447622
 20
71.0540701918
 10
21.020297038
 20
71.0488111372
 10
21.0159179625
 20
71.0438700547
 10
21.0113910062
 20
71.0392559607
 10
21.0067255278
 20
71.0349953698
 10
21.001927461
 20
71.0311128269
 10
20.9969744519
 20
71.0276230563
 10
20.9918804229
 20
71.0245579389
 10
20.9866538418
 20
71.0219476768
 10
20.9812645085
 20
71.0198162265
 10
20.975713078
 20
71.0182001795
 10
20.9700324644
 20
71.0171412263
 10
20.9642437079
 20
71.0166777172
  0
LWPOLYLINE
  5
516
100
AcDbEntity
  8
0
100
AcDbPolyline
 62
7
  6
CONTINUOUS
 90
8
 70
0
 43
0.3500000006
 10
14.7346131706
 20
85.4638388672
 10
15.5917567749
 20
85.4638388672
 10
16.0203280106
 20
85.8924078369
 10
16.0203280106
 20
86.7495548401
 10
15.5917567749
 20
87.1781238098
 10
14.7346131706
 20
87.1781238098
 10
14.7346131706
 20
88.4638397827
 10
16.0203280106
 20
88.4638397827
  0
LWPOLYLINE
  5
517
100
AcDbEntity
  8
RACCORDO
100
AcDbPolyline
 62
250
  6
CONTINUOUS
 90
22
 70
0
 10
20.7176561288
 20
77.7754276884
 10
20.7127217261
 20
77.7930631085
 10
20.7070650995
 20
77.8102352909
 10
20.7007514298
 20
77.8268930073
 10
20.6938507391
 20
77.8429669025
 10
20.6864266488
 20
77.8584483295
 10
20.6785238195
 20
77.8733852943
 10
20.6701997449
 20
77.8877501049
 10
20.6615039719
 20
77.9015243889
 10
20.6524471512
 20
77.9147696571
 10
20.6430729449
 20
77.9274669343
 10
20.6334204085
 20
77.9396053022
 10
20.6234721749
 20
77.9512513369
 10
20.613259449
 20
77.9623885835
 10
20.6028118448
 20
77.9730067664
 10
20.592090147
 20
77.9831688791
 10
20.5811150348
 20
77.9928557582
 10
20.5699090074
 20
78.0020523517
 10
20.5584184236
 20
78.0108096742
 10
20.5466321041
 20
78.0191227364
 10
20.53459084
 20
78.02694288
 10
20.5223123198
 20
78.0342454141
  0
LWPOLYLINE
  5
518
100
AcDbEntity
  8
ASSI
100
AcDbPolyline
 62
250
  6
CONTINUOUS
 90
22
 70
0
 10
20.7176561288
 20
77.7754276884
 10
20.7127217261
 20
77.7930631085
 10
20.7070650995
 20
77.8102352909
 10
20.7007514298
 20
77.8268930073
 10
20.6938507391
 20
77.8429669025
 10
20.6864266488
 20
77.8584483295
 10
20.6785238195
 20
77.8733852943
 10
20.6701997449
 20
77.8877501049
 10
20.6615039719
 20
77.9015243889
 10
20.6524471512
 20
77.9147696571
 10
20.6430729449
 20
77.9274669343
 10
20.6334204085
 20
77.9396053022
 10
20.6234721749
 20
77.9512513369
 10
20.613259449
 20
77.9623885835
 10
20.6028118448
 20
77.9730067664
 10
20.592090147
 20
77.9831688791
 10
20.5811150348
 20
77.9928557582
 10
20.5699090074
 20
78.0020523517
 10
20.5584184236
 20
78.0108096742
 10
20.5466321041
 20
78.0191227364
 10
20.53459084
 20
78.02694288
 10
20.5223123198
 20
78.0342454141
  0
LWPOLYLINE
  5
519
100
AcDbEntity
  8
RACCORDO
100
AcDbPolyline
 62
250
  6
CONTINUOUS
 90
9
 70
0
 10
21.0747153096
 20
77.929116562
 10
21.0776857299
 20
77.9150039108
 10
21.0799558697
 20
77.9002415553
 10
21.0814707942
 20
77.8848523453
 10
21.0821650395
 20
77.8688852846
 10
21.0819954063
 20
77.8523546126
 10
21.0809310872
 20
77.8352367758
 10
21.0789150528
 20
77.8175549167
 10
21.075874896
 20
77.7993824628
  0
LWPOLYLINE
  5
51A
100
AcDbEntity
  8
ASSI
100
AcDbPolyline
 62
250
  6
CONTINUOUS
 90
9
 70
0
 10
21.0747153096
 20
77.929116562
 10
21.0776857299
 20
77.9150039108
 10
21.0799558697
 20
77.9002415553
 10
21.0814707942
 20
77.8848523453
 10
21.0821650395
 20
77.8688852846
 10
21.0819954063
 20
77.8523546126
 10
21.0809310872
 20
77.8352367758
 10
21.0789150528
 20
77.8175549167
 10
21.075874896
 20
77.7993824628
  0
LWPOLYLINE
  5
51B
100
AcDbEntity
  8
0
100
AcDbPolyline
 62
7
  6
CONTINUOUS
 90
5
 70
0
 43
0.3500000006
 10
36.6182020569
 20
87.5444250183
 10
36.9753443756
 20
87.7587185669
 10
36.9753443756
 20
88.4015720215
 10
36.6182020569
 20
88.8301409912
 10
35.7610573196
 20
88.8301409912
  0
LWPOLYLINE
  5
51C
100
AcDbEntity
  8
0
100
AcDbPolyline
 62
7
  6
CONTINUOUS
 90
4
 70
0
 43
0.3500000006
 10
34.9036746597
 20
63.6003227234
 10
34.2608166733
 20
63.6003227234
 10
34.2608166733
 20
65.1003231812
 10
37.2608175888
 20
64.2431852417
  0
LWPOLYLINE
  5
51D
100
AcDbEntity
  8
0
100
AcDbPolyline
 62
7
  6
CONTINUOUS
 90
3
 70
0
 43
0.3500000006
 10
36.9751019211
 20
66.6717548218
 10
37.1893886719
 20
66.6003236389
 10
37.4751020737
 20
66.4574703369
  0
LINE
  5
51E
100
AcDbEntity
  8
RACCORDO
100
AcDbLine
 62
7
  6
CONTINUOUS
 10
27.6579304736
 20
70.9998741688
 11
30.6092394539
 21
71.0256298521
  0
LINE
  5
51F
100
AcDbEntity
  8
ASSI
100
AcDbLine
 62
7
  6
CONTINUOUS
 10
27.6579304736
 20
70.9998741688
 11
30.6092394539
 21
71.0256298521
  0
LINE
  5
520
100
AcDbEntity
  8
RACCORDO
100
AcDbLine
 62
250
  6
CONTINUOUS
 10
27.6579304736
 20
71.1498684572
 11
30.6092394539
 21
71.1756241405
  0
LINE
  5
521
100
AcDbEntity
  8
ASSI
100
AcDbLine
 62
250
  6
CONTINUOUS
 10
27.6579304736
 20
71.1498684572
 11
30.6092394539
 21
71.1756241405
  0
LINE
  5
522
100
AcDbEntity
  8
RACCORDO
100
AcDbLine
 62
250
  6
CONTINUOUS
 10
30.7579304736
 20
71.1756241405
 11
30.6092394539
 21
71.1756241405
  0
LINE
  5
523
100
AcDbEntity
  8
ASSI
100
AcDbLine
 62
250
  6
CONTINUOUS
 10
30.7579304736
 20
71.1756241405
 11
30.6092394539
 21
71.1756241405
  0
LINE
  5
524
100
AcDbEntity
  8
RACCORDO
100
AcDbLine
 62
250
  6
CONTINUOUS
 10
27.6579304736
 20
71.2242849469
 11
30.7579304736
 21
71.2161642112
  0
LINE
  5
525
100
AcDbEntity
  8
ASSI
100
AcDbLine
 62
250
  6
CONTINUOUS
 10
27.6579304736
 20
71.2242849469
 11
30.7579304736
 21
71.2161642112
  0
LINE
  5
526
100
AcDbEntity
  8
RACCORDO
100
AcDbLine
 62
250
  6
CONTINUOUS
 10
27.6579304736
 20
71.3103181363
 11
30.6092394539
 21
71.3021974006
  0
LINE
  5
527
100
AcDbEntity
  8
ASSI
100
AcDbLine
 62
250
  6
CONTINUOUS
 10
27.6579304736
 20
71.3103181363
 11
30.6092394539
 21
71.3021974006
  0
LINE
  5
528
100
AcDbEntity
  8
DRAFT
100
AcDbLine
 62
7
  6
CONTINUOUS
 10
27.6579304736
 20
72.1998741688
 11
29.2319304736
 21
72.1998741688
  0
LINE
  5
529
100
AcDbEntity
  8
ASSI
100
AcDbLine
 62
7
  6
CONTINUOUS
 10
27.6579304736
 20
72.1998741688
 11
29.2319304736
 21
72.1998741688
  0
LINE
  5
52A
100
AcDbEntity
  8
RACCORDO
100
AcDbLine
 62
7
  6
CONTINUOUS
 10
29.3062867859
 20
72.1991300398
 11
30.6092394539
 21
72.191753433
  0
LINE
  5
52B
100
AcDbEntity
  8
ASSI
100
AcDbLine
 62
7
  6
CONTINUOUS
 10
29.3062867859
 20
72.1991300398
 11
30.6092394539
 21
72.191753433
  0
LWPOLYLINE
  5
52C
100
AcDbEntity
  8
RACCORDO
100
AcDbPolyline
 62
7
  6
CONTINUOUS
 90
10
 70
0
 10
30.6092394539
 20
72.191753433
 10
30.6343241617
 20
72.1909004523
 10
30.6588449824
 20
72.1888404887
 10
30.6820746448
 20
72.1855735422
 10
30.7032858312
 20
72.1809575687
 10
30.7218114528
 20
72.1751346124
 10
30.7370504631
 20
72.1685308057
 10
30.7484444293
 20
72.1612881927
 10
30.7555189135
 20
72.1532647293
 10
30.7579304736
 20
72.1444604155
  0
LWPOLYLINE
  5
52D
100
AcDbEntity
  8
ASSI
100
AcDbPolyline
 62
7
  6
CONTINUOUS
 90
10
 70
0
 10
30.6092394539
 20
72.191753433
 10
30.6343241617
 20
72.1909004523
 10
30.6588449824
 20
72.1888404887
 10
30.6820746448
 20
72.1855735422
 10
30.7032858312
 20
72.1809575687
 10
30.7218114528
 20
72.1751346124
 10
30.7370504631
 20
72.1685308057
 10
30.7484444293
 20
72.1612881927
 10
30.7555189135
 20
72.1532647293
 10
30.7579304736
 20
72.1444604155
  0
LINE
  5
52E
100
AcDbEntity
  8
RACCORDO
100
AcDbLine
 62
7
  6
CONTINUOUS
 10
28.3556430749
 20
76.8475867701
 11
28.4079304736
 21
76.8998741688
  0
LWPOLYLINE
  5
52F
100
AcDbEntity
  8
0
100
AcDbPolyline
 62
7
  6
CONTINUOUS
 90
3
 70
0
 43
0.3500000006
 10
39.6182029724
 20
87.9730030518
 10
40.4753454437
 20
88.8301409912
 10
40.4753454437
 20
85.8301400757
  0
LINE
  5
530
100
AcDbEntity
  8
RACCORDO
100
AcDbLine
 62
7
  6
CONTINUOUS
 10
27.6579304736
 20
72.2498741688
 11
28.7579304736
 21
72.2594737233
  0
LINE
  5
531
100
AcDbEntity
  8
RACCORDO
100
AcDbLine
 62
250
  6
CONTINUOUS
 10
27.6579304736
 20
72.3498703611
 11
28.7505153392
 21
72.3594052048
  0
LINE
  5
532
100
AcDbEntity
  8
0
100
AcDbLine
 62
7
  6
CONTINUOUS
 10
28.9076664049
 20
72.2998741688
 11
28.7579304736
 21
72.2998741688
  0
LINE
  5
533
100
AcDbEntity
  8
ASSI
100
AcDbLine
 62
7
  6
CONTINUOUS
 10
28.9076664049
 20
72.2998741688
 11
28.7579304736
 21
72.2998741688
  0
LINE
  5
534
100
AcDbEntity
  8
RACCORDO
100
AcDbLine
 62
7
  6
CONTINUOUS
 10
28.4079304736
 20
72.1998741688
 11
28.3556430749
 21
72.2521615674
  0
LINE
  5
535
100
AcDbEntity
  8
ASSI
100
AcDbLine
 62
7
  6
CONTINUOUS
 10
27.6579304736
 20
75.6998741688
 11
27.6579304736
 21
73.3998741688
  0
LINE
  5
536
100
AcDbEntity
  8
DRAFT
100
AcDbLine
 62
7
  6
CONTINUOUS
 10
27.6579304736
 20
75.7498741688
 11
27.6579304736
 21
73.3498741688
  0
LINE
  5
537
100
AcDbEntity
  8
ASSI
100
AcDbLine
 62
7
  6
CONTINUOUS
 10
27.6579304736
 20
70.9998741688
 11
27.6579304736
 21
72.1998741688
  0
LINE
  5
538
100
AcDbEntity
  8
RACCORDO
100
AcDbLine
 62
7
  6
CONTINUOUS
 10
27.6579304736
 20
70.9998741688
 11
27.6579304736
 21
73.3498741688
  0
LINE
  5
539
100
AcDbEntity
  8
RACCORDO
100
AcDbLine
 62
7
  6
CONTINUOUS
 10
27.6579304736
 20
75.7498741688
 11
27.6579304736
 21
78.0998741688
  0
LINE
  5
53A
100
AcDbEntity
  8
ASSI
100
AcDbLine
 62
7
  6
CONTINUOUS
 10
27.6579304736
 20
76.8998741688
 11
27.6579304736
 21
78.0998741688
  0
LWPOLYLINE
  5
53B
100
AcDbEntity
  8
RACCORDO
100
AcDbPolyline
 62
250
  6
CONTINUOUS
 90
7
 70
0
 10
30.7379926041
 20
77.8407235636
 10
30.7231000764
 20
77.828461185
 10
30.7047328006
 20
77.8178619035
 10
30.6834792357
 20
77.8092569753
 10
30.66000288
 20
77.8028982818
 10
30.6350056294
 20
77.7989608276
 10
30.6092394539
 20
77.7975509369
  0
LWPOLYLINE
  5
53C
100
AcDbEntity
  8
ASSI
100
AcDbPolyline
 62
250
  6
CONTINUOUS
 90
7
 70
0
 10
30.7379926041
 20
77.8407235636
 10
30.7231000764
 20
77.828461185
 10
30.7047328006
 20
77.8178619035
 10
30.6834792357
 20
77.8092569753
 10
30.66000288
 20
77.8028982818
 10
30.6350056294
 20
77.7989608276
 10
30.6092394539
 20
77.7975509369
  0
LINE
  5
53D
100
AcDbEntity
  8
IMPORT_IGES
100
AcDbLine
 62
7
  6
CONTINUOUS
 10
28.5804474215
 20
72.9626229881
 11
28.6540903038
 21
72.9428904373
  0
LINE
  5
53E
100
AcDbEntity
  8
IMPORT_IGES
100
AcDbLine
 62
250
  6
CONTINUOUS
 10
28.6883273702
 20
73.0303092257
 11
28.6130840675
 21
73.0504706079
  0
LWPOLYLINE
  5
53F
100
AcDbEntity
  8
RACCORDO
100
AcDbPolyline
 62
250
  6
CONTINUOUS
 90
7
 70
0
 10
30.7379919742
 20
71.2590254028
 10
30.7230992031
 20
71.2712877528
 10
30.7047318022
 20
71.2818869179
 10
30.6834782521
 20
71.2904916912
 10
30.6600020626
 20
71.2968502293
 10
30.6350051454
 20
71.3007875609
 10
30.6092394539
 20
71.3021974006
  0
LWPOLYLINE
  5
540
100
AcDbEntity
  8
ASSI
100
AcDbPolyline
 62
250
  6
CONTINUOUS
 90
7
 70
0
 10
30.7379919742
 20
71.2590254028
 10
30.7230992031
 20
71.2712877528
 10
30.7047318022
 20
71.2818869179
 10
30.6834782521
 20
71.2904916912
 10
30.6600020626
 20
71.2968502293
 10
30.6350051454
 20
71.3007875609
 10
30.6092394539
 20
71.3021974006
  0
LINE
  5
541
100
AcDbEntity
  8
RACCORDO
100
AcDbLine
 62
250
  6
CONTINUOUS
 10
27.6579304736
 20
73.2498779765
 11
28.7505153392
 21
73.2403431328
  0
LINE
  5
542
100
AcDbEntity
  8
RACCORDO
100
AcDbLine
 62
250
  6
CONTINUOUS
 10
28.1596757807
 20
76.8998741688
 11
28.1596757807
 21
76.8454955038
  0
LINE
  5
543
100
AcDbEntity
  8
RACCORDO
100
AcDbLine
 62
250
  6
CONTINUOUS
 10
28.1596757807
 20
75.7542528337
 11
28.1596757807
 21
75.6998741688
  0
LINE
  5
544
100
AcDbEntity
  8
RACCORDO
100
AcDbLine
 62
250
  6
CONTINUOUS
 10
28.1596757807
 20
73.3998741688
 11
28.1596757807
 21
73.3454955038
  0
LINE
  5
545
100
AcDbEntity
  8
RACCORDO
100
AcDbLine
 62
250
  6
CONTINUOUS
 10
28.1596757807
 20
72.2542528337
 11
28.1596757807
 21
72.1998741688
  0
LINE
  5
546
100
AcDbEntity
  8
0
100
AcDbLine
 62
7
  6
CONTINUOUS
 10
28.7579304736
 20
73.2998741688
 11
28.9076664049
 21
73.2998741688
  0
LINE
  5
547
100
AcDbEntity
  8
ASSI
100
AcDbLine
 62
7
  6
CONTINUOUS
 10
28.7579304736
 20
73.2998741688
 11
28.9076664049
 21
73.2998741688
  0
LINE
  5
548
100
AcDbEntity
  8
DRAFT
100
AcDbLine
 62
7
  6
CONTINUOUS
 10
27.6579304736
 20
73.3998741688
 11
29.2319304736
 21
73.3998741688
  0
LINE
  5
549
100
AcDbEntity
  8
ASSI
100
AcDbLine
 62
7
  6
CONTINUOUS
 10
27.6579304736
 20
73.3998741688
 11
29.2319304736
 21
73.3998741688
  0
LINE
  5
54A
100
AcDbEntity
  8
RACCORDO
100
AcDbLine
 62
7
  6
CONTINUOUS
 10
27.6579304736
 20
73.3498741688
 11
28.7579304736
 21
73.3402746142
  0
LINE
  5
54B
100
AcDbEntity
  8
RACCORDO
100
AcDbLine
 62
7
  6
CONTINUOUS
 10
28.3579304736
 20
76.8998741688
 11
28.3579304736
 21
76.8437653613
  0
LINE
  5
54C
100
AcDbEntity
  8
RACCORDO
100
AcDbLine
 62
7
  6
CONTINUOUS
 10
28.3579304736
 20
75.7559829762
 11
28.3579304736
 21
75.6998741688
  0
LINE
  5
54D
100
AcDbEntity
  8
RACCORDO
100
AcDbLine
 62
7
  6
CONTINUOUS
 10
28.3579304736
 20
73.3998741688
 11
28.3579304736
 21
73.3437653613
  0
LINE
  5
54E
100
AcDbEntity
  8
RACCORDO
100
AcDbLine
 62
7
  6
CONTINUOUS
 10
28.3579304736
 20
72.2559829762
 11
28.3579304736
 21
72.1998741688
  0
LINE
  5
54F
100
AcDbEntity
  8
0
100
AcDbLine
 62
7
  6
CONTINUOUS
 10
28.3679304736
 20
75.7559829762
 11
28.3679304736
 21
75.6998741688
  0
LINE
  5
550
100
AcDbEntity
  8
0
100
AcDbLine
 62
7
  6
CONTINUOUS
 10
28.3679304736
 20
73.3998741688
 11
28.3679304736
 21
73.3437653613
  0
LWPOLYLINE
  5
551
100
AcDbEntity
  8
RACCORDO
100
AcDbPolyline
 62
250
  6
CONTINUOUS
 90
7
 70
0
 10
30.5946346786
 20
73.9498741688
 10
30.6083357631
 20
73.9513933934
 10
30.6216205471
 20
73.9559049066
 10
30.6340853792
 20
73.9632716282
 10
30.6453515217
 20
73.9732697241
 10
30.6550766587
 20
73.9855954074
 10
30.6629652967
 20
73.9998741683
  0
LWPOLYLINE
  5
552
100
AcDbEntity
  8
ASSI
100
AcDbPolyline
 62
250
  6
CONTINUOUS
 90
7
 70
0
 10
30.5946346786
 20
73.9498741688
 10
30.6083357631
 20
73.9513933934
 10
30.6216205471
 20
73.9559049066
 10
30.6340853792
 20
73.9632716282
 10
30.6453515217
 20
73.9732697241
 10
30.6550766587
 20
73.9855954074
 10
30.6629652967
 20
73.9998741683
  0
LINE
  5
553
100
AcDbEntity
  8
IMPORT_IGES
100
AcDbLine
 62
7
  6
CONTINUOUS
 10
28.5079304736
 20
75.7572920064
 11
28.5079304736
 21
75.6998741688
  0
LINE
  5
554
100
AcDbEntity
  8
IMPORT_IGES
100
AcDbLine
 62
7
  6
CONTINUOUS
 10
28.5079304737
 20
73.3424563312
 11
28.5079304737
 21
73.3998741688
  0
LWPOLYLINE
  5
555
100
AcDbEntity
  8
RACCORDO
100
AcDbPolyline
 62
250
  6
CONTINUOUS
 90
4
 70
0
 10
30.3526065295
 20
73.9498741688
 10
30.3663076142
 20
73.9513933935
 10
30.3795923983
 20
73.9559049067
 10
30.3920572304
 20
73.9632716284
  0
LWPOLYLINE
  5
556
100
AcDbEntity
  8
ASSI
100
AcDbPolyline
 62
250
  6
CONTINUOUS
 90
4
 70
0
 10
30.3526065295
 20
73.9498741688
 10
30.3663076142
 20
73.9513933935
 10
30.3795923983
 20
73.9559049067
 10
30.3920572304
 20
73.9632716284
  0
LINE
  5
557
100
AcDbEntity
  8
RACCORDO
100
AcDbLine
 62
7
  6
CONTINUOUS
 10
30.6244307401
 20
73.9498741688
 11
29.9792664943
 21
73.9498741688
  0
LINE
  5
558
100
AcDbEntity
  8
ASSI
100
AcDbLine
 62
7
  6
CONTINUOUS
 10
30.6244307401
 20
73.9498741688
 11
29.9792664943
 21
73.9498741688
  0
LINE
  5
559
100
AcDbEntity
  8
RACCORDO
100
AcDbLine
 62
250
  6
CONTINUOUS
 10
30.7579304736
 20
74.0498741688
 11
29.8579304736
 21
74.0498741688
  0
LINE
  5
55A
100
AcDbEntity
  8
ASSI
100
AcDbLine
 62
250
  6
CONTINUOUS
 10
30.7579304736
 20
74.0498741688
 11
29.8579304736
 21
74.0498741688
  0
LWPOLYLINE
  5
55B
100
AcDbEntity
  8
RACCORDO
100
AcDbPolyline
 62
250
  6
CONTINUOUS
 90
4
 70
0
 10
30.2235946821
 20
73.9498741688
 10
30.2093702561
 20
73.9513933935
 10
30.1955780321
 20
73.9559049067
 10
30.1826370799
 20
73.9632716284
  0
LWPOLYLINE
  5
55C
100
AcDbEntity
  8
ASSI
100
AcDbPolyline
 62
250
  6
CONTINUOUS
 90
4
 70
0
 10
30.2235946821
 20
73.9498741688
 10
30.2093702561
 20
73.9513933935
 10
30.1955780321
 20
73.9559049067
 10
30.1826370799
 20
73.9632716284
  0
LWPOLYLINE
  5
55D
100
AcDbEntity
  8
0
100
AcDbPolyline
 62
7
  6
CONTINUOUS
 90
3
 70
0
 43
0.3500000006
 10
35.1179591446
 20
67.671755127
 10
34.2608166733
 20
68.5288930664
 10
37.2608175888
 20
68.5288930664
  0
LINE
  5
55E
100
AcDbEntity
  8
RACCORDO
100
AcDbLine
 62
7
  6
CONTINUOUS
 10
28.7579304736
 20
76.8402746142
 11
28.7579304736
 21
76.7470877643
  0
LINE
  5
55F
100
AcDbEntity
  8
0
100
AcDbLine
 62
7
  6
CONTINUOUS
 10
28.7579304736
 20
76.8998741688
 11
28.7579304736
 21
76.8402746142
  0
LINE
  5
560
100
AcDbEntity
  8
ASSI
100
AcDbLine
 62
7
  6
CONTINUOUS
 10
28.7579304736
 20
76.8998741688
 11
28.7579304736
 21
76.8402746142
  0
LINE
  5
561
100
AcDbEntity
  8
RACCORDO
100
AcDbLine
 62
7
  6
CONTINUOUS
 10
28.7579304736
 20
75.8526605733
 11
28.7579304736
 21
75.7594737233
  0
LINE
  5
562
100
AcDbEntity
  8
RACCORDO
100
AcDbLine
 62
7
  6
CONTINUOUS
 10
28.7579304736
 20
73.3402746142
 11
28.7579304736
 21
73.2470877643
  0
LINE
  5
563
100
AcDbEntity
  8
0
100
AcDbLine
 62
7
  6
CONTINUOUS
 10
28.7579304736
 20
73.3998741688
 11
28.7579304736
 21
73.3402746142
  0
LINE
  5
564
100
AcDbEntity
  8
ASSI
100
AcDbLine
 62
7
  6
CONTINUOUS
 10
28.7579304736
 20
73.3998741688
 11
28.7579304736
 21
73.3402746142
  0
LINE
  5
565
100
AcDbEntity
  8
RACCORDO
100
AcDbLine
 62
7
  6
CONTINUOUS
 10
28.7579304736
 20
72.3526605733
 11
28.7579304736
 21
72.2594737233
  0
LINE
  5
566
100
AcDbEntity
  8
0
100
AcDbLine
 62
7
  6
CONTINUOUS
 10
28.7579304736
 20
72.1998741688
 11
28.7579304736
 21
72.2594737233
  0
LINE
  5
567
100
AcDbEntity
  8
ASSI
100
AcDbLine
 62
7
  6
CONTINUOUS
 10
28.7579304736
 20
72.1998741688
 11
28.7579304736
 21
72.2594737233
  0
LINE
  5
568
100
AcDbEntity
  8
0
100
AcDbLine
 62
7
  6
CONTINUOUS
 10
28.7579304736
 20
75.6998741688
 11
28.7579304736
 21
75.7594737233
  0
LINE
  5
569
100
AcDbEntity
  8
ASSI
100
AcDbLine
 62
7
  6
CONTINUOUS
 10
28.7579304736
 20
75.6998741688
 11
28.7579304736
 21
75.7594737233
  0
LWPOLYLINE
  5
56A
100
AcDbEntity
  8
RACCORDO
100
AcDbPolyline
 62
250
  6
CONTINUOUS
 90
7
 70
0
 10
30.1826370799
 20
75.1364767092
 10
30.1709406036
 20
75.1264786131
 10
30.1608439949
 20
75.1141529297
 10
30.1526540341
 20
75.0998741688
 10
30.1466195689
 20
75.0840761831
 10
30.1429239537
 20
75.0672389865
 10
30.1416794777
 20
75.0498741688
  0
LWPOLYLINE
  5
56B
100
AcDbEntity
  8
ASSI
100
AcDbPolyline
 62
250
  6
CONTINUOUS
 90
7
 70
0
 10
30.1826370799
 20
75.1364767092
 10
30.1709406036
 20
75.1264786131
 10
30.1608439949
 20
75.1141529297
 10
30.1526540341
 20
75.0998741688
 10
30.1466195689
 20
75.0840761831
 10
30.1429239537
 20
75.0672389865
 10
30.1416794777
 20
75.0498741688
  0
LWPOLYLINE
  5
56C
100
AcDbEntity
  8
RACCORDO
100
AcDbPolyline
 62
250
  6
CONTINUOUS
 90
7
 70
0
 10
30.1826370799
 20
73.9632716284
 10
30.1709406036
 20
73.9732697245
 10
30.1608439949
 20
73.9855954078
 10
30.1526540341
 20
73.9998741688
 10
30.1466195689
 20
74.0156721544
 10
30.1429239537
 20
74.032509351
 10
30.1416794777
 20
74.0498741688
  0
LWPOLYLINE
  5
56D
100
AcDbEntity
  8
ASSI
100
AcDbPolyline
 62
250
  6
CONTINUOUS
 90
7
 70
0
 10
30.1826370799
 20
73.9632716284
 10
30.1709406036
 20
73.9732697245
 10
30.1608439949
 20
73.9855954078
 10
30.1526540341
 20
73.9998741688
 10
30.1466195689
 20
74.0156721544
 10
30.1429239537
 20
74.032509351
 10
30.1416794777
 20
74.0498741688
  0
LWPOLYLINE
  5
56E
100
AcDbEntity
  8
RACCORDO
100
AcDbPolyline
 62
250
  6
CONTINUOUS
 90
4
 70
0
 10
30.2235946821
 20
75.1498741688
 10
30.2093702561
 20
75.1483549441
 10
30.1955780321
 20
75.1438434309
 10
30.1826370799
 20
75.1364767092
  0
LWPOLYLINE
  5
56F
100
AcDbEntity
  8
ASSI
100
AcDbPolyline
 62
250
  6
CONTINUOUS
 90
4
 70
0
 10
30.2235946821
 20
75.1498741688
 10
30.2093702561
 20
75.1483549441
 10
30.1955780321
 20
75.1438434309
 10
30.1826370799
 20
75.1364767092
  0
LINE
  5
570
100
AcDbEntity
  8
RACCORDO
100
AcDbLine
 62
250
  6
CONTINUOUS
 10
29.8579304736
 20
75.0498741688
 11
30.7575231788
 21
75.0498741688
  0
LINE
  5
571
100
AcDbEntity
  8
ASSI
100
AcDbLine
 62
250
  6
CONTINUOUS
 10
29.8579304736
 20
75.0498741688
 11
30.7575231788
 21
75.0498741688
  0
LINE
  5
572
100
AcDbEntity
  8
RACCORDO
100
AcDbLine
 62
7
  6
CONTINUOUS
 10
29.8579304736
 20
75.0498741688
 11
29.8579304736
 21
74.0498741688
  0
LINE
  5
573
100
AcDbEntity
  8
ASSI
100
AcDbLine
 62
7
  6
CONTINUOUS
 10
29.8579304736
 20
75.0498741688
 11
29.8579304736
 21
74.0498741688
  0
LINE
  5
574
100
AcDbEntity
  8
RACCORDO
100
AcDbLine
 62
7
  6
CONTINUOUS
 10
29.9792664943
 20
75.1498741688
 11
30.6244307401
 21
75.1498741688
  0
LINE
  5
575
100
AcDbEntity
  8
ASSI
100
AcDbLine
 62
7
  6
CONTINUOUS
 10
29.9792664943
 20
75.1498741688
 11
30.6244307401
 21
75.1498741688
  0
LINE
  5
576
100
AcDbEntity
  8
RACCORDO
100
AcDbLine
 62
7
  6
CONTINUOUS
 10
30.6244307403
 20
75.1498741688
 11
30.6402873771
 21
75.14882032
  0
LINE
  5
577
100
AcDbEntity
  8
ASSI
100
AcDbLine
 62
7
  6
CONTINUOUS
 10
30.6244307403
 20
75.1498741688
 11
30.6402873771
 21
75.14882032
  0
LWPOLYLINE
  5
578
100
AcDbEntity
  8
RACCORDO
100
AcDbPolyline
 62
250
  6
CONTINUOUS
 90
4
 70
0
 10
30.3526065295
 20
75.1498741688
 10
30.3663076142
 20
75.1483549441
 10
30.3795923983
 20
75.1438434309
 10
30.3920572304
 20
75.1364767092
  0
LWPOLYLINE
  5
579
100
AcDbEntity
  8
ASSI
100
AcDbPolyline
 62
250
  6
CONTINUOUS
 90
4
 70
0
 10
30.3526065295
 20
75.1498741688
 10
30.3663076142
 20
75.1483549441
 10
30.3795923983
 20
75.1438434309
 10
30.3920572304
 20
75.1364767092
  0
LWPOLYLINE
  5
57A
100
AcDbEntity
  8
RACCORDO
100
AcDbPolyline
 62
250
  6
CONTINUOUS
 90
7
 70
0
 10
30.5946346786
 20
75.1498741688
 10
30.6083357632
 20
75.1483549441
 10
30.6216205473
 20
75.1438434309
 10
30.6340853794
 20
75.1364767092
 10
30.6453515219
 20
75.1264786132
 10
30.6550766589
 20
75.1141529299
 10
30.6629652968
 20
75.0998741689
  0
LWPOLYLINE
  5
57B
100
AcDbEntity
  8
ASSI
100
AcDbPolyline
 62
250
  6
CONTINUOUS
 90
7
 70
0
 10
30.5946346786
 20
75.1498741688
 10
30.6083357632
 20
75.1483549441
 10
30.6216205473
 20
75.1438434309
 10
30.6340853794
 20
75.1364767092
 10
30.6453515219
 20
75.1264786132
 10
30.6550766589
 20
75.1141529299
 10
30.6629652968
 20
75.0998741689
  0
LWPOLYLINE
  5
57C
100
AcDbEntity
  8
RACCORDO
100
AcDbPolyline
 62
7
  6
CONTINUOUS
 90
3
 70
0
 10
30.6402873771
 20
75.14882032
 10
30.6560123879
 20
75.1464125821
 10
30.6713973533
 20
75.142650955
  0
LWPOLYLINE
  5
57D
100
AcDbEntity
  8
ASSI
100
AcDbPolyline
 62
7
  6
CONTINUOUS
 90
3
 70
0
 10
30.6402873771
 20
75.14882032
 10
30.6560123879
 20
75.1464125821
 10
30.6713973533
 20
75.142650955
  0
LINE
  5
57E
100
AcDbEntity
  8
RACCORDO
100
AcDbLine
 62
250
  6
CONTINUOUS
 10
30.1416794777
 20
74.0498741688
 11
30.1416794777
 21
75.0498741688
  0
LINE
  5
57F
100
AcDbEntity
  8
ASSI
100
AcDbLine
 62
250
  6
CONTINUOUS
 10
30.1416794777
 20
74.0498741688
 11
30.1416794777
 21
75.0498741688
  0
LINE
  5
580
100
AcDbEntity
  8
RACCORDO
100
AcDbLine
 62
250
  6
CONTINUOUS
 10
30.2645522843
 20
73.9498741688
 11
30.2645522843
 21
75.1498741688
  0
LINE
  5
581
100
AcDbEntity
  8
ASSI
100
AcDbLine
 62
250
  6
CONTINUOUS
 10
30.2645522843
 20
73.9498741688
 11
30.2645522843
 21
75.1498741688
  0
LWPOLYLINE
  5
582
100
AcDbEntity
  8
RACCORDO
100
AcDbPolyline
 62
250
  6
CONTINUOUS
 90
4
 70
0
 10
30.7579304736
 20
77.8835841264
 10
30.7556699616
 20
77.8687037841
 10
30.7489565576
 20
77.854271937
 10
30.7379926041
 20
77.8407235636
  0
LWPOLYLINE
  5
583
100
AcDbEntity
  8
ASSI
100
AcDbPolyline
 62
250
  6
CONTINUOUS
 90
4
 70
0
 10
30.7579304736
 20
77.8835841264
 10
30.7556699616
 20
77.8687037841
 10
30.7489565576
 20
77.854271937
 10
30.7379926041
 20
77.8407235636
  0
LWPOLYLINE
  5
584
100
AcDbEntity
  8
RACCORDO
100
AcDbPolyline
 62
7
  6
CONTINUOUS
 90
10
 70
0
 10
30.6713973533
 20
75.142650955
 10
30.686219813
 20
75.1374328501
 10
30.7002567818
 20
75.130860856
 10
30.7132856055
 20
75.1232427388
 10
30.7251258112
 20
75.1145721562
 10
30.7354748586
 20
75.1048554505
 10
30.74400262
 20
75.0944194142
 10
30.7505557895
 20
75.0833729782
 10
30.7550790008
 20
75.0716072116
 10
30.7575019296
 20
75.0591221145
  0
LWPOLYLINE
  5
585
100
AcDbEntity
  8
ASSI
100
AcDbPolyline
 62
7
  6
CONTINUOUS
 90
10
 70
0
 10
30.6713973533
 20
75.142650955
 10
30.686219813
 20
75.1374328501
 10
30.7002567818
 20
75.130860856
 10
30.7132856055
 20
75.1232427388
 10
30.7251258112
 20
75.1145721562
 10
30.7354748586
 20
75.1048554505
 10
30.74400262
 20
75.0944194142
 10
30.7505557895
 20
75.0833729782
 10
30.7550790008
 20
75.0716072116
 10
30.7575019296
 20
75.0591221145
  0
LWPOLYLINE
  5
586
100
AcDbEntity
  8
RACCORDO
100
AcDbPolyline
 62
250
  6
CONTINUOUS
 90
4
 70
0
 10
30.7579304736
 20
71.2161642112
 10
30.755669862
 20
71.2310448788
 10
30.7489562178
 20
71.2454769384
 10
30.7379919742
 20
71.2590254028
  0
LWPOLYLINE
  5
587
100
AcDbEntity
  8
ASSI
100
AcDbPolyline
 62
250
  6
CONTINUOUS
 90
4
 70
0
 10
30.7579304736
 20
71.2161642112
 10
30.755669862
 20
71.2310448788
 10
30.7489562178
 20
71.2454769384
 10
30.7379919742
 20
71.2590254028
  0
LINE
  5
588
100
AcDbEntity
  8
RACCORDO
100
AcDbLine
 62
250
  6
CONTINUOUS
 10
30.3131558287
 20
73.9498741688
 11
30.3131558287
 21
75.1498741688
  0
LINE
  5
589
100
AcDbEntity
  8
ASSI
100
AcDbLine
 62
250
  6
CONTINUOUS
 10
30.3131558287
 20
73.9498741688
 11
30.3131558287
 21
75.1498741688
  0
LINE
  5
58A
100
AcDbEntity
  8
RACCORDO
100
AcDbLine
 62
250
  6
CONTINUOUS
 10
30.4315079312
 20
74.0498741688
 11
30.4315079312
 21
75.0498741688
  0
LINE
  5
58B
100
AcDbEntity
  8
ASSI
100
AcDbLine
 62
250
  6
CONTINUOUS
 10
30.4315079312
 20
74.0498741688
 11
30.4315079312
 21
75.0498741688
  0
LWPOLYLINE
  5
58C
100
AcDbEntity
  8
RACCORDO
100
AcDbPolyline
 62
250
  6
CONTINUOUS
 90
7
 70
0
 10
30.3920572304
 20
73.9632716284
 10
30.4033233729
 20
73.9732697245
 10
30.4130485099
 20
73.9855954078
 10
30.4209371478
 20
73.9998741688
 10
30.4267495945
 20
74.0156721544
 10
30.4303092416
 20
74.032509351
 10
30.4315079312
 20
74.0498741688
  0
LWPOLYLINE
  5
58D
100
AcDbEntity
  8
ASSI
100
AcDbPolyline
 62
250
  6
CONTINUOUS
 90
7
 70
0
 10
30.3920572304
 20
73.9632716284
 10
30.4033233729
 20
73.9732697245
 10
30.4130485099
 20
73.9855954078
 10
30.4209371478
 20
73.9998741688
 10
30.4267495945
 20
74.0156721544
 10
30.4303092416
 20
74.032509351
 10
30.4315079312
 20
74.0498741688
  0
LWPOLYLINE
  5
58E
100
AcDbEntity
  8
RACCORDO
100
AcDbPolyline
 62
7
  6
CONTINUOUS
 90
7
 70
0
 10
30.7142710489
 20
73.9771593085
 10
30.7013305418
 20
73.9695019671
 10
30.6870495904
 20
73.9626885153
 10
30.6719429795
 20
73.957264459
 10
30.6563733623
 20
73.9534116335
 10
30.640463438
 20
73.9509482034
 10
30.6244307403
 20
73.9498741688
  0
LWPOLYLINE
  5
58F
100
AcDbEntity
  8
ASSI
100
AcDbPolyline
 62
7
  6
CONTINUOUS
 90
7
 70
0
 10
30.7142710489
 20
73.9771593085
 10
30.7013305418
 20
73.9695019671
 10
30.6870495904
 20
73.9626885153
 10
30.6719429795
 20
73.957264459
 10
30.6563733623
 20
73.9534116335
 10
30.640463438
 20
73.9509482034
 10
30.6244307403
 20
73.9498741688
  0
LINE
  5
590
100
AcDbEntity
  8
RACCORDO
100
AcDbLine
 62
7
  6
CONTINUOUS
 10
27.6579304736
 20
75.7498741688
 11
28.7579304736
 21
75.7594737233
  0
LINE
  5
591
100
AcDbEntity
  8
RACCORDO
100
AcDbLine
 62
250
  6
CONTINUOUS
 10
27.6579304736
 20
75.8498703611
 11
28.7505153392
 21
75.8594052048
  0
LINE
  5
592
100
AcDbEntity
  8
DRAFT
100
AcDbLine
 62
7
  6
CONTINUOUS
 10
27.6579304736
 20
75.6998741688
 11
29.2319304736
 21
75.6998741688
  0
LINE
  5
593
100
AcDbEntity
  8
ASSI
100
AcDbLine
 62
7
  6
CONTINUOUS
 10
27.6579304736
 20
75.6998741688
 11
29.2319304736
 21
75.6998741688
  0
LINE
  5
594
100
AcDbEntity
  8
0
100
AcDbLine
 62
7
  6
CONTINUOUS
 10
28.7579304736
 20
75.7998741688
 11
28.9076664049
 21
75.7998741688
  0
LINE
  5
595
100
AcDbEntity
  8
ASSI
100
AcDbLine
 62
7
  6
CONTINUOUS
 10
28.7579304736
 20
75.7998741688
 11
28.9076664049
 21
75.7998741688
  0
LWPOLYLINE
  5
596
100
AcDbEntity
  8
RACCORDO
100
AcDbPolyline
 62
250
  6
CONTINUOUS
 90
7
 70
0
 10
30.3920572304
 20
75.1364767092
 10
30.4033233729
 20
75.1264786131
 10
30.4130485099
 20
75.1141529297
 10
30.4209371478
 20
75.0998741688
 10
30.4267495945
 20
75.0840761831
 10
30.4303092416
 20
75.0672389865
 10
30.4315079312
 20
75.0498741688
  0
LWPOLYLINE
  5
597
100
AcDbEntity
  8
ASSI
100
AcDbPolyline
 62
250
  6
CONTINUOUS
 90
7
 70
0
 10
30.3920572304
 20
75.1364767092
 10
30.4033233729
 20
75.1264786131
 10
30.4130485099
 20
75.1141529297
 10
30.4209371478
 20
75.0998741688
 10
30.4267495945
 20
75.0840761831
 10
30.4303092416
 20
75.0672389865
 10
30.4315079312
 20
75.0498741688
  0
LINE
  5
598
100
AcDbEntity
  8
RACCORDO
100
AcDbLine
 62
250
  6
CONTINUOUS
 10
30.6092394539
 20
71.1756241405
 11
30.6097185118
 21
71.1006303422
  0
LINE
  5
599
100
AcDbEntity
  8
ASSI
100
AcDbLine
 62
250
  6
CONTINUOUS
 10
30.6092394539
 20
71.1756241405
 11
30.6097185118
 21
71.1006303422
  0
LINE
  5
59A
100
AcDbEntity
  8
0
100
AcDbLine
 62
250
  6
CONTINUOUS
 10
30.6092394539
 20
76.9079949045
 11
30.6092394539
 21
75.1498741688
  0
LINE
  5
59B
100
AcDbEntity
  8
0
100
AcDbLine
 62
250
  6
CONTINUOUS
 10
30.6092394539
 20
73.9498741688
 11
30.6092394539
 21
72.191753433
  0
LINE
  5
59C
100
AcDbEntity
  8
RACCORDO
100
AcDbLine
 62
250
  6
CONTINUOUS
 10
30.6097185118
 20
78.0540192821
 11
30.6097745375
 21
78.0205348215
  0
LINE
  5
59D
100
AcDbEntity
  8
ASSI
100
AcDbLine
 62
250
  6
CONTINUOUS
 10
30.6097185118
 20
78.0540192821
 11
30.6097745375
 21
78.0205348215
  0
LWPOLYLINE
  5
59E
100
AcDbEntity
  8
RACCORDO
100
AcDbPolyline
 62
250
  6
CONTINUOUS
 90
6
 70
0
 10
30.6097185118
 20
71.1006303422
 10
30.6097745375
 20
71.0607259642
 10
30.6097185121
 20
71.0457291076
 10
30.6096081632
 20
71.0346786654
 10
30.6094468434
 20
71.0279103689
 10
30.6092394539
 20
71.0256298521
  0
LWPOLYLINE
  5
59F
100
AcDbEntity
  8
ASSI
100
AcDbPolyline
 62
250
  6
CONTINUOUS
 90
6
 70
0
 10
30.6097185118
 20
71.1006303422
 10
30.6097745375
 20
71.0607259642
 10
30.6097185121
 20
71.0457291076
 10
30.6096081632
 20
71.0346786654
 10
30.6094468434
 20
71.0279103689
 10
30.6092394539
 20
71.0256298521
  0
LINE
  5
5A0
100
AcDbEntity
  8
RACCORDO
100
AcDbLine
 62
250
  6
CONTINUOUS
 10
30.6735360803
 20
74.0498741688
 11
30.6735360803
 21
75.0498741688
  0
LINE
  5
5A1
100
AcDbEntity
  8
ASSI
100
AcDbLine
 62
250
  6
CONTINUOUS
 10
30.6735360803
 20
74.0498741688
 11
30.6735360803
 21
75.0498741688
  0
LINE
  5
5A2
100
AcDbEntity
  8
RACCORDO
100
AcDbLine
 62
7
  6
CONTINUOUS
 10
30.7579304736
 20
71.1756241405
 11
30.7579304736
 21
77.924124197
  0
LINE
  5
5A3
100
AcDbEntity
  8
ASSI
100
AcDbLine
 62
7
  6
CONTINUOUS
 10
30.7579304736
 20
71.1756241405
 11
30.7579304736
 21
77.924124197
  0
LINE
  5
5A4
100
AcDbEntity
  8
RACCORDO
100
AcDbLine
 62
250
  6
CONTINUOUS
 10
30.6092394539
 20
72.191753433
 11
30.6092832622
 21
71.2364630362
  0
LINE
  5
5A5
100
AcDbEntity
  8
RACCORDO
100
AcDbLine
 62
250
  6
CONTINUOUS
 10
30.6092394539
 20
77.924124197
 11
30.6092832622
 21
77.814970449
  0
LINE
  5
5A6
100
AcDbEntity
  8
ASSI
100
AcDbLine
 62
250
  6
CONTINUOUS
 10
30.6092394539
 20
77.924124197
 11
30.6092832622
 21
77.814970449
  0
LINE
  5
5A7
100
AcDbEntity
  8
RACCORDO
100
AcDbLine
 62
250
  6
CONTINUOUS
 10
30.6092832622
 20
71.2364630362
 11
30.6092394539
 21
71.1756241405
  0
LINE
  5
5A8
100
AcDbEntity
  8
ASSI
100
AcDbLine
 62
250
  6
CONTINUOUS
 10
30.6092394539
 20
73.9498741688
 11
30.6092394539
 21
71.1756241405
  0
LINE
  5
5A9
100
AcDbEntity
  8
RACCORDO
100
AcDbLine
 62
250
  6
CONTINUOUS
 10
30.6092832622
 20
77.814970449
 11
30.6092394539
 21
76.9079949045
  0
LINE
  5
5AA
100
AcDbEntity
  8
ASSI
100
AcDbLine
 62
250
  6
CONTINUOUS
 10
30.6092832622
 20
77.814970449
 11
30.6092394539
 21
75.1498741688
  0
LWPOLYLINE
  5
5AB
100
AcDbEntity
  8
RACCORDO
100
AcDbPolyline
 62
250
  6
CONTINUOUS
 90
3
 70
0
 10
30.6097745375
 20
78.0205348215
 10
30.6094468434
 20
77.9501692023
 10
30.6092394539
 20
77.924124197
  0
LWPOLYLINE
  5
5AC
100
AcDbEntity
  8
ASSI
100
AcDbPolyline
 62
250
  6
CONTINUOUS
 90
3
 70
0
 10
30.6097745375
 20
78.0205348215
 10
30.6094468434
 20
77.9501692023
 10
30.6092394539
 20
77.924124197
  0
LWPOLYLINE
  5
5AD
100
AcDbEntity
  8
RACCORDO
100
AcDbPolyline
 62
250
  6
CONTINUOUS
 90
4
 70
0
 10
30.6629652967
 20
73.9998741683
 10
30.6687777435
 20
74.015672154
 10
30.6723373907
 20
74.0325093508
 10
30.6735360803
 20
74.0498741688
  0
LWPOLYLINE
  5
5AE
100
AcDbEntity
  8
ASSI
100
AcDbPolyline
 62
250
  6
CONTINUOUS
 90
4
 70
0
 10
30.6629652967
 20
73.9998741683
 10
30.6687777435
 20
74.015672154
 10
30.6723373907
 20
74.0325093508
 10
30.6735360803
 20
74.0498741688
  0
LINE
  5
5AF
100
AcDbEntity
  8
RACCORDO
100
AcDbLine
 62
7
  6
CONTINUOUS
 10
30.7435177506
 20
74.0046491647
 11
30.7352387126
 21
73.9945759011
  0
LINE
  5
5B0
100
AcDbEntity
  8
ASSI
100
AcDbLine
 62
7
  6
CONTINUOUS
 10
30.7435177506
 20
74.0046491647
 11
30.7352387126
 21
73.9945759011
  0
LWPOLYLINE
  5
5B1
100
AcDbEntity
  8
RACCORDO
100
AcDbPolyline
 62
7
  6
CONTINUOUS
 90
3
 70
0
 10
30.7352387126
 20
73.9945759011
 10
30.725534214
 20
73.98544566
 10
30.7142710489
 20
73.9771593085
  0
LWPOLYLINE
  5
5B2
100
AcDbEntity
  8
ASSI
100
AcDbPolyline
 62
7
  6
CONTINUOUS
 90
3
 70
0
 10
30.7352387126
 20
73.9945759011
 10
30.725534214
 20
73.98544566
 10
30.7142710489
 20
73.9771593085
  0
LWPOLYLINE
  5
5B3
100
AcDbEntity
  8
RACCORDO
100
AcDbPolyline
 62
250
  6
CONTINUOUS
 90
4
 70
0
 10
30.6629652968
 20
75.0998741689
 10
30.6687777435
 20
75.0840761832
 10
30.6723373907
 20
75.0672389866
 10
30.6735360803
 20
75.0498741688
  0
LWPOLYLINE
  5
5B4
100
AcDbEntity
  8
ASSI
100
AcDbPolyline
 62
250
  6
CONTINUOUS
 90
4
 70
0
 10
30.6629652968
 20
75.0998741689
 10
30.6687777435
 20
75.0840761832
 10
30.6723373907
 20
75.0672389866
 10
30.6735360803
 20
75.0498741688
  0
LWPOLYLINE
  5
5B5
100
AcDbEntity
  8
RACCORDO
100
AcDbPolyline
 62
250
  6
CONTINUOUS
 90
4
 70
0
 10
30.6092394539
 20
78.0741184855
 10
30.6094468431
 20
78.0718379767
 10
30.6096081628
 20
78.0650697
 10
30.6097185118
 20
78.0540192821
  0
LWPOLYLINE
  5
5B6
100
AcDbEntity
  8
ASSI
100
AcDbPolyline
 62
250
  6
CONTINUOUS
 90
4
 70
0
 10
30.6092394539
 20
78.0741184855
 10
30.6094468431
 20
78.0718379767
 10
30.6096081628
 20
78.0650697
 10
30.6097185118
 20
78.0540192821
  0
LWPOLYLINE
  5
5B7
100
AcDbEntity
  8
RACCORDO
100
AcDbPolyline
 62
7
  6
CONTINUOUS
 90
4
 70
0
 10
30.7575019296
 20
74.0406262231
 10
30.7549237654
 20
74.0276908478
 10
30.7501889835
 20
74.015698495
 10
30.7435177506
 20
74.0046491647
  0
LWPOLYLINE
  5
5B8
100
AcDbEntity
  8
ASSI
100
AcDbPolyline
 62
7
  6
CONTINUOUS
 90
4
 70
0
 10
30.7575019296
 20
74.0406262231
 10
30.7549237654
 20
74.0276908478
 10
30.7501889835
 20
74.015698495
 10
30.7435177506
 20
74.0046491647
  0
LINE
  5
5B9
100
AcDbEntity
  8
IMPORT_IGES
100
AcDbLine
 62
250
  6
CONTINUOUS
 10
28.613084067
 20
76.0492777294
 11
28.6883273703
 21
76.0694391117
  0
LINE
  5
5BA
100
AcDbEntity
  8
IMPORT_IGES
100
AcDbLine
 62
7
  6
CONTINUOUS
 10
28.6540903038
 20
76.1568579003
 11
28.5804474227
 21
76.1371253497
  0
LWPOLYLINE
  5
5BB
100
AcDbEntity
  8
RACCORDO
100
AcDbPolyline
 62
7
  6
CONTINUOUS
 90
10
 70
0
 10
30.6092394539
 20
76.9079949045
 10
30.6343241617
 20
76.9086352753
 10
30.6588449824
 20
76.9107133576
 10
30.6820746448
 20
76.9141747954
 10
30.7032858312
 20
76.9187701456
 10
30.7218114528
 20
76.9244179377
 10
30.7370504631
 20
76.9312175319
 10
30.7484444293
 20
76.9389619712
 10
30.7555189135
 20
76.9471344343
 10
30.7579304736
 20
76.955287922
  0
LWPOLYLINE
  5
5BC
100
AcDbEntity
  8
ASSI
100
AcDbPolyline
 62
7
  6
CONTINUOUS
 90
10
 70
0
 10
30.6092394539
 20
76.9079949045
 10
30.6343241617
 20
76.9086352753
 10
30.6588449824
 20
76.9107133576
 10
30.6820746448
 20
76.9141747954
 10
30.7032858312
 20
76.9187701456
 10
30.7218114528
 20
76.9244179377
 10
30.7370504631
 20
76.9312175319
 10
30.7484444293
 20
76.9389619712
 10
30.7555189135
 20
76.9471344343
 10
30.7579304736
 20
76.955287922
  0
LINE
  5
5BD
100
AcDbEntity
  8
RACCORDO
100
AcDbLine
 62
7
  6
CONTINUOUS
 10
29.3062867861
 20
76.9006182977
 11
30.6092394539
 21
76.9079949045
  0
LINE
  5
5BE
100
AcDbEntity
  8
ASSI
100
AcDbLine
 62
7
  6
CONTINUOUS
 10
29.3062867861
 20
76.9006182977
 11
30.6092394539
 21
76.9079949045
  0
LINE
  5
5BF
100
AcDbEntity
  8
0
100
AcDbLine
 62
7
  6
CONTINUOUS
 10
28.9076664049
 20
76.7998741688
 11
28.7579304736
 21
76.7998741688
  0
LINE
  5
5C0
100
AcDbEntity
  8
ASSI
100
AcDbLine
 62
7
  6
CONTINUOUS
 10
28.9076664049
 20
76.7998741688
 11
28.7579304736
 21
76.7998741688
  0
LINE
  5
5C1
100
AcDbEntity
  8
DRAFT
100
AcDbLine
 62
7
  6
CONTINUOUS
 10
27.6579304736
 20
76.8998741688
 11
29.2319304736
 21
76.8998741688
  0
LINE
  5
5C2
100
AcDbEntity
  8
ASSI
100
AcDbLine
 62
7
  6
CONTINUOUS
 10
27.6579304736
 20
76.8998741688
 11
29.2319304736
 21
76.8998741688
  0
LINE
  5
5C3
100
AcDbEntity
  8
RACCORDO
100
AcDbLine
 62
250
  6
CONTINUOUS
 10
27.6579304736
 20
76.7498779765
 11
28.7505153392
 21
76.7403431328
  0
LINE
  5
5C4
100
AcDbEntity
  8
RACCORDO
100
AcDbLine
 62
7
  6
CONTINUOUS
 10
27.6579304736
 20
76.8498741688
 11
28.7579304736
 21
76.8402746142
  0
LINE
  5
5C5
100
AcDbEntity
  8
RACCORDO
100
AcDbLine
 62
250
  6
CONTINUOUS
 10
27.6579304736
 20
77.7894302012
 11
30.6092394539
 21
77.7975509369
  0
LINE
  5
5C6
100
AcDbEntity
  8
ASSI
100
AcDbLine
 62
250
  6
CONTINUOUS
 10
27.6579304736
 20
77.7894302012
 11
30.6092394539
 21
77.7975509369
  0
LINE
  5
5C7
100
AcDbEntity
  8
RACCORDO
100
AcDbLine
 62
250
  6
CONTINUOUS
 10
30.7579304736
 20
77.8835841264
 11
27.6579304736
 21
77.8754633906
  0
LINE
  5
5C8
100
AcDbEntity
  8
ASSI
100
AcDbLine
 62
250
  6
CONTINUOUS
 10
30.7579304736
 20
77.8835841264
 11
27.6579304736
 21
77.8754633906
  0
LINE
  5
5C9
100
AcDbEntity
  8
RACCORDO
100
AcDbLine
 62
250
  6
CONTINUOUS
 10
30.7579304736
 20
77.924124197
 11
30.6092394539
 21
77.924124197
  0
LINE
  5
5CA
100
AcDbEntity
  8
ASSI
100
AcDbLine
 62
250
  6
CONTINUOUS
 10
30.7579304736
 20
77.924124197
 11
30.6092394539
 21
77.924124197
  0
LINE
  5
5CB
100
AcDbEntity
  8
RACCORDO
100
AcDbLine
 62
250
  6
CONTINUOUS
 10
27.6579304736
 20
77.9498798803
 11
30.6092394539
 21
77.924124197
  0
LINE
  5
5CC
100
AcDbEntity
  8
ASSI
100
AcDbLine
 62
250
  6
CONTINUOUS
 10
27.6579304736
 20
77.9498798803
 11
30.6092394539
 21
77.924124197
  0
LWPOLYLINE
  5
5CD
100
AcDbEntity
  8
0
100
AcDbPolyline
 62
7
  6
CONTINUOUS
 90
3
 70
0
 43
0.3500000006
 10
38.6182026672
 20
86.1158557434
 10
38.5467714844
 20
85.9015712585
 10
38.4039136505
 20
85.6158555908
  0
LWPOLYLINE
  5
5CE
100
AcDbEntity
  8
0
100
AcDbPolyline
 62
7
  6
CONTINUOUS
 90
10
 70
0
 43
0.3500000006
 10
36.7608174362
 20
66.6003236389
 10
36.9036752701
 20
66.6717548218
 10
36.9751019211
 20
66.6717548218
 10
37.1179597549
 20
66.5289015198
 10
37.1179597549
 20
66.4574703369
 10
37.046530838
 20
66.3860391541
 10
36.9751019211
 20
66.3860391541
 10
36.8322463531
 20
66.4574703369
 10
36.7608174362
 20
66.5289015198
 10
36.7608174362
 20
66.6003236389
  0
LWPOLYLINE
  5
5CF
100
AcDbEntity
  8
0
100
AcDbPolyline
 62
7
  6
CONTINUOUS
 90
6
 70
0
 43
0.3500000006
 10
35.7610573196
 20
85.8301400757
 10
36.8324865417
 20
85.8301400757
 10
37.0467732925
 20
86.0444245605
 10
37.0467732925
 20
87.1158560486
 10
36.6182020569
 20
87.5444250183
 10
36.1896308212
 20
87.5444250183
  0
LINE
  5
5D0
100
AcDbEntity
  8
RACCORDO
100
AcDbLine
 62
7
  6
CONTINUOUS
 10
27.6579304736
 20
78.0998741688
 11
30.6092394539
 21
78.0741184855
  0
LINE
  5
5D1
100
AcDbEntity
  8
ASSI
100
AcDbLine
 62
7
  6
CONTINUOUS
 10
27.6579304736
 20
78.0998741688
 11
30.6092394539
 21
78.0741184855
  0
LWPOLYLINE
  5
5D2
100
AcDbEntity
  8
0
100
AcDbPolyline
 62
7
  6
CONTINUOUS
 90
10
 70
0
 43
0.3500000006
 10
38.5467714844
 20
86.3301402283
 10
38.6182026672
 20
86.1872869263
 10
38.6182026672
 20
86.1158557434
 10
38.4753448334
 20
85.9730024414
 10
38.4039136505
 20
85.9730024414
 10
38.3324869995
 20
86.0444245605
 10
38.3324869995
 20
86.1158557434
 10
38.4039136505
 20
86.2587181091
 10
38.4753448334
 20
86.3301402283
 10
38.5467714844
 20
86.3301402283
  0
ARC
  5
5D3
100
AcDbEntity
  8
RACCORDO
100
AcDbCircle
 62
7
  6
CONTINUOUS
 10
3.2810421477
 20
74.0498741688
 40
0.1
100
AcDbArc
 50
180.0
 51
270.0
  0
ARC
  5
5D4
100
AcDbEntity
  8
RACCORDO
100
AcDbCircle
 62
7
  6
CONTINUOUS
 10
3.2810421477
 20
75.0498741688
 40
0.1
100
AcDbArc
 50
90.0
 51
180.0
  0
ARC
  5
5D5
100
AcDbEntity
  8
ASSI
100
AcDbCircle
 62
7
  6
CONTINUOUS
 10
3.2810421477
 20
74.0498741688
 40
0.1
100
AcDbArc
 50
180.0
 51
270.0
  0
ARC
  5
5D6
100
AcDbEntity
  8
ASSI
100
AcDbCircle
 62
7
  6
CONTINUOUS
 10
3.2810421477
 20
75.0498741688
 40
0.1
100
AcDbArc
 50
90.0
 51
180.0
  0
CIRCLE
  5
5D7
100
AcDbEntity
  8
0
100
AcDbCircle
 62
7
  6
CONTINUOUS
 10
29.2319304736
 20
76.2998741688
 40
0.6
  0
CIRCLE
  5
5D8
100
AcDbEntity
  8
0
100
AcDbCircle
 62
7
  6
CONTINUOUS
 10
29.2319304736
 20
72.7998741688
 40
0.6
  0
ARC
  5
5D9
100
AcDbEntity
  8
RACCORDO
100
AcDbCircle
 62
7
  6
CONTINUOUS
 10
29.1579304736
 20
76.2998741688
 40
0.6
100
AcDbArc
 50
131.8103148958
 51
228.1896851042
  0
ARC
  5
5DA
100
AcDbEntity
  8
RACCORDO
100
AcDbCircle
 62
7
  6
CONTINUOUS
 10
29.1579304736
 20
72.7998741688
 40
0.6
100
AcDbArc
 50
131.8103148958
 51
228.1896851042
  0
ARC
  5
5DB
100
AcDbEntity
  8
DRAFT
100
AcDbCircle
 62
7
  6
CONTINUOUS
 10
29.3079304736
 20
76.2998741688
 40
0.6
100
AcDbArc
 50
270.0
 51
90.1576529986
  0
ARC
  5
5DC
100
AcDbEntity
  8
DRAFT
100
AcDbCircle
 62
7
  6
CONTINUOUS
 10
29.3079304736
 20
72.7998741688
 40
0.6
100
AcDbArc
 50
269.8423470134
 51
90.0
  0
ARC
  5
5DD
100
AcDbEntity
  8
ASSI
100
AcDbCircle
 62
7
  6
CONTINUOUS
 10
29.3079304736
 20
76.2998741688
 40
0.6
100
AcDbArc
 50
270.0
 51
90.1576529986
  0
ARC
  5
5DE
100
AcDbEntity
  8
ASSI
100
AcDbCircle
 62
7
  6
CONTINUOUS
 10
29.3079304736
 20
72.7998741688
 40
0.6
100
AcDbArc
 50
269.8423470134
 51
90.0
  0
CIRCLE
  5
5DF
100
AcDbEntity
  8
ASSI
100
AcDbCircle
 62
7
  6
CONTINUOUS
 10
29.2319304736
 20
76.2998741688
 40
0.2
  0
CIRCLE
  5
5E0
100
AcDbEntity
  8
ASSI
100
AcDbCircle
 62
7
  6
CONTINUOUS
 10
29.2319304736
 20
72.7998741688
 40
0.2
  0
ARC
  5
5E1
100
AcDbEntity
  8
RACCORDO
100
AcDbCircle
 62
7
  6
CONTINUOUS
 10
30.6079304736
 20
71.1756241405
 40
0.15
100
AcDbArc
 50
270.5
 51
360.0
  0
ARC
  5
5E2
100
AcDbEntity
  8
RACCORDO
100
AcDbCircle
 62
7
  6
CONTINUOUS
 10
30.6079304736
 20
77.924124197
 40
0.15
100
AcDbArc
 50
0.0
 51
89.5
  0
ARC
  5
5E3
100
AcDbEntity
  8
ASSI
100
AcDbCircle
 62
7
  6
CONTINUOUS
 10
30.6079304736
 20
71.1756241405
 40
0.15
100
AcDbArc
 50
270.5
 51
360.0
  0
ARC
  5
5E4
100
AcDbEntity
  8
ASSI
100
AcDbCircle
 62
7
  6
CONTINUOUS
 10
30.6079304736
 20
77.924124197
 40
0.15
100
AcDbArc
 50
0.0
 51
89.5
  0
ARC
  5
5E5
100
AcDbEntity
  8
RACCORDO
100
AcDbCircle
 62
7
  6
CONTINUOUS
 10
30.6579304671
 20
74.0498741688
 40
0.1
100
AcDbArc
 50
354.693735604
 51
360.0
  0
ARC
  5
5E6
100
AcDbEntity
  8
RACCORDO
100
AcDbCircle
 62
7
  6
CONTINUOUS
 10
30.6579304671
 20
75.0498741688
 40
0.1
100
AcDbArc
 50
0.0
 51
5.306264396
  0
ARC
  5
5E7
100
AcDbEntity
  8
ASSI
100
AcDbCircle
 62
7
  6
CONTINUOUS
 10
30.6579304671
 20
74.0498741688
 40
0.1
100
AcDbArc
 50
354.693735604
 51
360.0
  0
ARC
  5
5E8
100
AcDbEntity
  8
ASSI
100
AcDbCircle
 62
7
  6
CONTINUOUS
 10
30.6579304671
 20
75.0498741688
 40
0.1
100
AcDbArc
 50
0.0
 51
5.306264396
  0
ELLIPSE
  5
5E9
100
AcDbEntity
  8
RACCORDO
100
AcDbEllipse
 62
7
  6
CONTINUOUS
 10
29.9792664943
 20
74.0498741688
 30
0.0
 11
0.1213360207
 21
-0.0
 31
0.0
 40
0.82415757
 41
-3.1415926536
 42
-1.5707963268
  0
ELLIPSE
  5
5EA
100
AcDbEntity
  8
RACCORDO
100
AcDbEllipse
 62
7
  6
CONTINUOUS
 10
29.9792664943
 20
75.0498741688
 30
0.0
 11
0.1213360207
 21
0.0
 31
0.0
 40
0.82415757
 41
1.5707963268
 42
3.1415926536
  0
ELLIPSE
  5
5EB
100
AcDbEntity
  8
ASSI
100
AcDbEllipse
 62
7
  6
CONTINUOUS
 10
29.9792664943
 20
74.0498741688
 30
0.0
 11
0.1213360207
 21
-0.0
 31
0.0
 40
0.82415757
 41
-3.1415926536
 42
-1.5707963268
  0
ELLIPSE
  5
5EC
100
AcDbEntity
  8
ASSI
100
AcDbEllipse
 62
7
  6
CONTINUOUS
 10
29.9792664943
 20
75.0498741688
 30
0.0
 11
0.1213360207
 21
0.0
 31
0.0
 40
0.82415757
 41
1.5707963268
 42
3.1415926536
  0
ENDSEC
  0
SECTION
  2
OBJECTS
  0
DICTIONARY
  5
C
100
AcDbDictionary
280
0
281
1
  3
ACAD_GROUP
350
D
  3
ACAD_MLINESTYLE
350
17
  3
ACAD_LAYOUT
350
1A
  3
ACAD_PLOTSETTINGS
350
19
  3
ACAD_PLOTSTYLENAME
350
E
  0
DICTIONARY
  5
D
102
{ACAD_REACTORS
330
C
102
}
100
AcDbDictionary
280
0
281
1
  0
ACDBDICTIONARYWDFLT
  5
E
102
{ACAD_REACTORS
330
C
102
}
100
AcDbDictionary
281
1
  3
Normal
350
F
100
AcDbDictionaryWithDefault
340
F
  0
DICTIONARY
  5
17
102
{ACAD_REACTORS
330
C
102
}
100
AcDbDictionary
280
0
281
1
  3
Standard
350
18
  0
DICTIONARY
  5
19
102
{ACAD_REACTORS
330
C
102
}
100
AcDbDictionary
281
1
  0
DICTIONARY
  5
1A
102
{ACAD_REACTORS
330
C
102
}
100
AcDbDictionary
281
1
  3
Model
350
5ED
  3
Layout1
350
5EE
  0
ACDBPLACEHOLDER
  5
F
102
{ACAD_REACTORS
330
E
102
}
  0
MLINESTYLE
  5
18
102
{ACAD_REACTORS
330
17
102
}
100
AcDbMlineStyle
  2
STANDARD
 70
0
  3

 62
256
 51
90.0
 52
90.0
 71
2
 49
0.5
 62
256
  6
BYLAYER
 49
-0.5
 62
256
  6
BYLAYER
  0
LAYOUT
  5
5ED
102
{ACAD_REACTORS
330
1A
102
}
100
AcDbPlotSettings
  1

  2
none_device
  4
ISO_A4_(297.00_x_210.00_MM)
  6

 40
0.0
 41
0.0
 42
0.0
 43
0.0
 44
297.0
 45
210.0
 46
0.0
 47
0.0
 48
0.0
 49
0.0
140
0.0
141
0.0
142
1.0
143
1.0
 70
1024
 72
1
 73
0
 74
0
  7

 75
0
147
1.0
148
0.0
149
0.0
100
AcDbLayout
  1
Model
 70
0
 71
0
 10
0.0
 20
0.0
 11
297.0
 21
210.0
 12
0.0
 22
0.0
 32
0.0
 14
0.0
 24
0.0
 34
0.0
 15
0.0
 25
0.0
 35
0.0
146
0.0
 13
0.0
 23
0.0
 33
0.0
 16
1.0
 26
0.0
 36
0.0
 17
0.0
 27
1.0
 37
0.0
 76
0
330
219
345
0
346
0
  0
LAYOUT
  5
5EE
102
{ACAD_REACTORS
330
1A
102
}
100
AcDbPlotSettings
  1

  2
none_device
  4
ISO_A4_(297.00_x_210.00_MM)
  6

 40
0.0
 41
0.0
 42
0.0
 43
0.0
 44
297.0
 45
210.0
 46
0.0
 47
0.0
 48
0.0
 49
0.0
140
0.0
141
0.0
142
1.0
143
1.0
 70
0
 72
1
 73
0
 74
0
  7

 75
0
147
1.0
148
0.0
149
0.0
100
AcDbLayout
  1
Layout1
 70
0
 71
1
 10
0.0
 20
0.0
 11
297.0
 21
210.0
 12
0.0
 22
0.0
 32
0.0
 14
0.0
 24
0.0
 34
0.0
 15
0.0
 25
0.0
 35
0.0
146
0.0
 13
0.0
 23
0.0
 33
0.0
 16
1.0
 26
0.0
 36
0.0
 17
0.0
 27
1.0
 37
0.0
 76
0
330
21A
345
0
346
0
  0
ENDSEC
  0
EOF
