  0
SECTION
  2
HEADER
  9
$ACADVER
  1
AC1021
  9
$DWGCODEPAGE
  3
ANSI_1252
  9
$EXTMAX
 10
297.0
 20
210.0
 30
0.0
  9
$EXTMIN
 10
0.0
 20
0.0
 30
0.0
  9
$LIMMIN
 10
0.0
 20
0.0
  9
$LIMMAX
 10
297.0
 20
210.0
  9
$VIEWCTR
 10
148.5
 20
105.0
  9
$VIEWSIZE
 40
210.0
  9
$CLAYER
  8
0
  9
$LTSCALE
 40
16.335
  9
$CELTYPE
  6
BYLAYER
  9
$DIMSCALE
 40
1.0
  9
$DIMASZ
 40
3.0
  9
$DIMEXO
 40
0.5
  9
$DIMDLI
 40
11.286
  9
$DIMEXE
 40
1.5
  9
$DIMCEN
 40
2.673
  9
$DIMLFAC
 40
1.0
  9
$DIMBLK
  1
_FILLED
  9
$DIMALT
 70
0
  9
$DIMALTF
 40
0.0393700787
  9
$DIMTXT
 40
3.0
  9
$DIMTOL
 70
1
  9
$DIMLIM
 70
0
  9
$DIMTFAC
 40
1.0
  9
$DIMTP
 40
0.01
  9
$DIMTM
 40
0.01
  9
$DIMGAP
 40
0.625
  9
$DIMDSEP
 70
44
  9
$AUNITS
 70
0
  9
$PDMODE
 70
3
  9
$PDSIZE
 40
3.0
  9
$HANDSEED
  5
6A7
  9
$TILEMODE
 70
1
  9
$MEASUREMENT
 70
1
  9
$INSUNITS
 70
4
  0
ENDSEC
  0
SECTION
  2
CLASSES
  0
CLASS
  1
ACDBDICTIONARYWDFLT
  2
AcDbDictionaryWithDefault
  3
AutoCAD 2000
 90
0
 91
1
280
0
281
0
  0
CLASS
  1
ACDBPLACEHOLDER
  2
AcDbPlaceHolder
  3
AutoCAD 2000
 90
0
 91
1
280
0
281
0
  0
CLASS
  1
LAYOUT
  2
AcDbLayout
  3
AutoCAD 2000
 90
0
 91
0
280
0
281
0
  0
ENDSEC
  0
SECTION
  2
TABLES
  0
TABLE
  2
VPORT
  5
8
100
AcDbSymbolTable
 70
2
  0
VPORT
  5
1F4
100
AcDbSymbolTableRecord
100
AcDbViewportTableRecord
  2
*ACTIVE
 70
0
 10
0.0
 20
0.0
 11
1.0
 21
1.0
 12
148.5
 22
105.0
 13
0.0
 23
0.0
 14
1.0
 24
1.0
 15
0.0
 25
0.0
 16
0.0
 26
0.0
 36
1.0
 17
0.0
 27
0.0
 37
0.0
 40
210.0
 41
1.4142857143
 42
50.0
 43
0.0
 44
0.0
 50
0.0
 51
0.0
 71
0
 72
100
 73
1
 74
1
 75
0
 76
0
 77
0
 78
0
  0
ENDTAB
  0
TABLE
  2
LTYPE
  5
5
100
AcDbSymbolTable
 70
6
  0
LTYPE
  5
14
100
AcDbSymbolTableRecord
100
AcDbLinetypeTableRecord
  2
BYBLOCK
 70
0
  3

 72
65
 73
0
 40
0.0
  0
LTYPE
  5
15
100
AcDbSymbolTableRecord
100
AcDbLinetypeTableRecord
  2
BYLAYER
 70
0
  3

 72
65
 73
0
 40
0.0
  0
LTYPE
  5
16
100
AcDbSymbolTableRecord
100
AcDbLinetypeTableRecord
  2
CONTINUOUS
 70
64
  3
Solid line
 72
65
 73
0
 40
0.0
  0
LTYPE
  5
1F5
100
AcDbSymbolTableRecord
100
AcDbLinetypeTableRecord
  2
CENTER
 70
64
  3
____ _ ____ _ ____ _ ____ _ ____ _ ____ _ ____
 72
65
 73
4
 40
0.6
 49
0.375
 74
0
 49
-0.075
 74
0
 49
0.075
 74
0
 49
-0.075
 74
0
  0
LTYPE
  5
1F6
100
AcDbSymbolTableRecord
100
AcDbLinetypeTableRecord
  2
HIDDEN
 70
64
  3
- - - - - - - - - - - - - - - - - - - -
 72
65
 73
2
 40
0.2
 49
0.1
 74
0
 49
-0.1
 74
0
  0
LTYPE
  5
1F7
100
AcDbSymbolTableRecord
100
AcDbLinetypeTableRecord
  2
PHANTOM
 70
64
  3
_____ _ _ _____ _ _ _____ _ _ _____
 72
65
 73
6
 40
0.8
 49
0.45
 74
0
 49
-0.05
 74
0
 49
0.1
 74
0
 49
-0.05
 74
0
 49
0.1
 74
0
 49
-0.05
 74
0
  0
LTYPE
  5
1F8
100
AcDbSymbolTableRecord
100
AcDbLinetypeTableRecord
  2
DOT
 70
64
  3
. . . . . . . . . . . . . . . . . . . .
 72
65
 73
2
 40
0.2
 49
0.1
 74
0
 49
-0.1
 74
0
  0
LTYPE
  5
1F9
100
AcDbSymbolTableRecord
100
AcDbLinetypeTableRecord
  2
DASHED
 70
64
  3
- - - - - - - - - - - - - - - - - - - -
 72
65
 73
2
 40
0.2
 49
0.1
 74
0
 49
-0.1
 74
0
  0
ENDTAB
  0
TABLE
  2
LAYER
  5
2
100
AcDbSymbolTable
 70
36
  0
LAYER
  5
10
100
AcDbSymbolTableRecord
100
AcDbLayerTableRecord
  2
0
 70
0
 62
7
  6
CONTINUOUS
370
-3
390
F
  0
LAYER
  5
1FA
100
AcDbSymbolTableRecord
100
AcDbLayerTableRecord
  2
DEFAULT_1
 70
0
 62
7
  6
CENTER
370
-3
390
F
  0
LAYER
  5
1FB
100
AcDbSymbolTableRecord
100
AcDbLayerTableRecord
  2
DEFAULT_2
 70
0
 62
7
  6
HIDDEN
370
-3
390
F
  0
LAYER
  5
1FC
100
AcDbSymbolTableRecord
100
AcDbLayerTableRecord
  2
DEFAULT_3
 70
0
 62
7
  6
PHANTOM
370
-3
390
F
  0
LAYER
  5
1FD
100
AcDbSymbolTableRecord
100
AcDbLayerTableRecord
  2
ASSI
 70
0
 62
7
  6
CONTINUOUS
370
-3
390
F
  0
LAYER
  5
1FE
100
AcDbSymbolTableRecord
100
AcDbLayerTableRecord
  2
COORDINATE
 70
0
 62
7
  6
CONTINUOUS
370
-3
390
F
  0
LAYER
  5
1FF
100
AcDbSymbolTableRecord
100
AcDbLayerTableRecord
  2
COSMETICI
 70
0
 62
7
  6
CONTINUOUS
370
-3
390
F
  0
LAYER
  5
200
100
AcDbSymbolTableRecord
100
AcDbLayerTableRecord
  2
CURVE
 70
0
 62
7
  6
CONTINUOUS
370
-3
390
F
  0
LAYER
  5
201
100
AcDbSymbolTableRecord
100
AcDbLayerTableRecord
  2
INTF_7
 70
0
 62
7
  6
CONTINUOUS
370
-3
390
F
  0
LAYER
  5
202
100
AcDbSymbolTableRecord
100
AcDbLayerTableRecord
  2
NOTE
 70
0
 62
7
  6
CONTINUOUS
370
-3
390
F
  0
LAYER
  5
203
100
AcDbSymbolTableRecord
100
AcDbLayerTableRecord
  2
PIANI
 70
0
 62
7
  6
CONTINUOUS
370
-3
390
F
  0
LAYER
  5
204
100
AcDbSymbolTableRecord
100
AcDbLayerTableRecord
  2
PUNTI
 70
0
 62
7
  6
CONTINUOUS
370
-3
390
F
  0
LAYER
  5
205
100
AcDbSymbolTableRecord
100
AcDbLayerTableRecord
  2
RGB__255__255__255__
 70
0
 62
7
  6
CONTINUOUS
370
-3
390
F
  0
LAYER
  5
206
100
AcDbSymbolTableRecord
100
AcDbLayerTableRecord
  2
SIMBOLI
 70
0
 62
7
  6
CONTINUOUS
370
-3
390
F
  0
LAYER
  5
207
100
AcDbSymbolTableRecord
100
AcDbLayerTableRecord
  2
SNAPLINE
 70
0
 62
7
  6
CONTINUOUS
370
-3
390
F
  0
LAYER
  5
208
100
AcDbSymbolTableRecord
100
AcDbLayerTableRecord
  2
SUPERFICI
 70
0
 62
7
  6
CONTINUOUS
370
-3
390
F
  0
ENDTAB
  0
TABLE
  2
STYLE
  5
3
100
AcDbSymbolTable
 70
1
  0
STYLE
  5
11
100
AcDbSymbolTableRecord
100
AcDbTextStyleTableRecord
  2
STANDARD
 70
0
 40
0.0
 41
0.8
 50
0.0
 71
0
 42
0.2
  3
txt
  4

  0
STYLE
  5
209
100
AcDbSymbolTableRecord
100
AcDbTextStyleTableRecord
  2
TEXTSTYLE_1
 70
0
 40
0.0
 41
0.8
 50
0.0
 71
0
 42
0.2
  3
gdt
  4

  0
ENDTAB
  0
TABLE
  2
VIEW
  5
6
100
AcDbSymbolTable
 70
0
  0
ENDTAB
  0
TABLE
  2
UCS
  5
7
100
AcDbSymbolTable
 70
0
  0
ENDTAB
  0
TABLE
  2
APPID
  5
9
100
AcDbSymbolTable
 70
1
  0
APPID
  5
20A
100
AcDbSymbolTableRecord
100
AcDbRegAppTableRecord
  2
ACAD
 70
0
  0
ENDTAB
  0
TABLE
  2
BLOCK_RECORD
  5
1
100
AcDbSymbolTable
 70
0
  0
BLOCK_RECORD
  5
20B
100
AcDbSymbolTableRecord
100
AcDbBlockTableRecord
  2
*Model_Space
  0
BLOCK_RECORD
  5
20C
100
AcDbSymbolTableRecord
100
AcDbBlockTableRecord
  2
*Paper_Space
  0
BLOCK_RECORD
  5
20D
100
AcDbSymbolTableRecord
100
AcDbBlockTableRecord
  2
_FILLED
  0
BLOCK_RECORD
  5
20E
100
AcDbSymbolTableRecord
100
AcDbBlockTableRecord
  2
*D0
  0
BLOCK_RECORD
  5
20F
100
AcDbSymbolTableRecord
100
AcDbBlockTableRecord
  2
*D1
  0
BLOCK_RECORD
  5
210
100
AcDbSymbolTableRecord
100
AcDbBlockTableRecord
  2
*D2
  0
ENDTAB
  0
TABLE
  2
DIMSTYLE
  5
A
100
AcDbSymbolTable
 70
1
100
AcDbDimStyleTable
 71
0
  0
DIMSTYLE
105
211
100
AcDbSymbolTableRecord
100
AcDbDimStyleTableRecord
  2
STANDARD
 70
0
  3

  4

 40
1.0
 41
3.0
 42
0.5
 43
0.38
 44
1.5
 45
0.0
 46
0.0
 47
0.01
 48
0.01
140
3.0
141
0.09
142
0.0
143
25.4
144
1.0
145
0.0
146
1.0
147
0.625
 71
1.0
 72
0.0
 73
0
 74
0
 75
0
 76
0
 77
1
 78
8
170
0
171
2
172
0
173
0
174
0
175
0
176
0
177
0
178
0
270
2
271
2
272
2
273
2
274
2
275
0
280
0
281
0
282
0
283
1
284
8
285
0
286
0
287
3
288
0
340
11
278
44
341
20D
342
20D
343
20D
344
20D
  0
DIMSTYLE
105
212
100
AcDbSymbolTableRecord
100
AcDbDimStyleTableRecord
  2
DIMSTYLE_1
 70
0
  3

  4

 40
1.0
 41
3.0
 42
0.5
 43
0.38
 44
1.5
 45
0.0
 46
0.0
 47
0.0
 48
0.0
140
3.0
141
0.09
142
0.0
143
25.4
144
1.0
145
0.0
146
1.0
147
0.75
 71
0.0
 72
0.0
 73
0
 74
0
 75
0
 76
0
 77
1
 78
8
170
0
171
2
172
0
173
0
174
0
175
0
176
0
177
0
178
0
270
2
271
2
272
2
273
2
274
2
275
0
280
0
281
0
282
0
283
1
284
8
285
0
286
0
287
3
288
0
340
11
278
44
341
20D
342
20D
343
20D
344
20D
  0
ENDTAB
  0
ENDSEC
  0
SECTION
  2
BLOCKS
  0
BLOCK
  5
20
100
AcDbEntity
  8
0
100
AcDbBlockBegin
  2
*Model_Space
 70
0
 10
0.0
 20
0.0
 30
0.0
  3
*Model_Space
  1

  0
ENDBLK
  5
21
100
AcDbEntity
  8
0
100
AcDbBlockEnd
  0
BLOCK
  5
1C
100
AcDbEntity
  8
0
100
AcDbBlockBegin
  2
*Paper_Space
 70
0
 10
0.0
 20
0.0
 30
0.0
  3
*Paper_Space
  1

  0
ENDBLK
  5
1D
100
AcDbEntity
  8
0
100
AcDbBlockEnd
  0
BLOCK
  5
213
100
AcDbEntity
  8
0
100
AcDbBlockBegin
  2
_FILLED
 70
64
 10
0.0
 20
0.0
  3
_FILLED
  1

  0
SOLID
  5
214
100
AcDbEntity
  8
0
  6
BYBLOCK
 62
0
100
AcDbTrace
 10
0.0
 20
0.0
 11
-1.0
 21
0.3166666667
 12
-1.0
 22
-0.3166666667
 13
-1.0
 23
-0.3166666667
  0
ENDBLK
  5
215
100
AcDbEntity
  8
0
  6
BYBLOCK
 62
0
100
AcDbBlockEnd
  0
BLOCK
  5
216
100
AcDbEntity
  8
0
100
AcDbBlockBegin
 62
7
  6
CONTINUOUS
  2
*D0
 70
65
 10
0.0
 20
0.0
  3
*D0
  1

  0
MTEXT
  5
217
100
AcDbEntity
  8
0
100
AcDbMText
 62
7
  6
CONTINUOUS
  7
STANDARD
 71
2
 72
1
 10
0.0
 20
51.75
 30
0.0
 11
1.0
 21
0.0
 31
0.0
 44
0.9
  1
80
 40
3.0
 41
7.0714285714
  0
LINE
  5
218
100
AcDbEntity
  8
0
100
AcDbLine
 62
7
  6
CONTINUOUS
 10
-40.0
 20
13.5
 11
-40.0
 21
49.5
  0
LINE
  5
219
100
AcDbEntity
  8
0
100
AcDbLine
 62
7
  6
CONTINUOUS
 10
40.0
 20
13.5
 11
40.0
 21
49.5
  0
LINE
  5
21A
100
AcDbEntity
  8
0
100
AcDbLine
 62
7
  6
CONTINUOUS
 10
-40.0
 20
48.0
 11
0.0
 21
48.0
  0
LINE
  5
21B
100
AcDbEntity
  8
0
100
AcDbLine
 62
7
  6
CONTINUOUS
 10
40.0
 20
48.0
 11
0.0
 21
48.0
  0
INSERT
  5
21C
100
AcDbEntity
  8
0
100
AcDbBlockReference
 62
7
  6
CONTINUOUS
  2
_FILLED
 10
-40.0
 20
48.0
 41
3.0
 42
3.0
 43
3.0
 50
180.0
  0
INSERT
  5
21D
100
AcDbEntity
  8
0
100
AcDbBlockReference
 62
7
  6
CONTINUOUS
  2
_FILLED
 10
40.0
 20
48.0
 41
3.0
 42
3.0
 43
3.0
  0
ENDBLK
  5
21E
100
AcDbEntity
  8
0
  6
BYBLOCK
 62
0
100
AcDbBlockEnd
  0
BLOCK
  5
21F
100
AcDbEntity
  8
0
100
AcDbBlockBegin
 62
7
  6
CONTINUOUS
  2
*D1
 70
65
 10
0.0
 20
0.0
  3
*D1
  1

  0
MTEXT
  5
220
100
AcDbEntity
  8
0
100
AcDbMText
 62
7
  6
CONTINUOUS
  7
STANDARD
 71
2
 72
1
 10
44.25
 20
0.0
 30
0.0
 11
0.0
 21
1.0
 31
0.0
 44
0.9
  1
80
 40
3.0
 41
7.0714285714
  0
LINE
  5
221
100
AcDbEntity
  8
0
100
AcDbLine
 62
7
  6
CONTINUOUS
 10
13.5
 20
40.0
 11
49.5
 21
40.0
  0
LINE
  5
222
100
AcDbEntity
  8
0
100
AcDbLine
 62
7
  6
CONTINUOUS
 10
13.5
 20
-40.0
 11
49.5
 21
-40.0
  0
LINE
  5
223
100
AcDbEntity
  8
0
100
AcDbLine
 62
7
  6
CONTINUOUS
 10
48.0
 20
40.0
 11
48.0
 21
0.0
  0
LINE
  5
224
100
AcDbEntity
  8
0
100
AcDbLine
 62
7
  6
CONTINUOUS
 10
48.0
 20
-40.0
 11
48.0
 21
0.0
  0
INSERT
  5
225
100
AcDbEntity
  8
0
100
AcDbBlockReference
 62
7
  6
CONTINUOUS
  2
_FILLED
 10
48.0
 20
40.0
 41
3.0
 42
3.0
 43
3.0
 50
90.0
  0
INSERT
  5
226
100
AcDbEntity
  8
0
100
AcDbBlockReference
 62
7
  6
CONTINUOUS
  2
_FILLED
 10
48.0
 20
-40.0
 41
3.0
 42
3.0
 43
3.0
 50
270.0
  0
ENDBLK
  5
227
100
AcDbEntity
  8
0
  6
BYBLOCK
 62
0
100
AcDbBlockEnd
  0
BLOCK
  5
228
100
AcDbEntity
  8
0
100
AcDbBlockBegin
 62
7
  6
CONTINUOUS
  2
*D2
 70
65
 10
0.0
 20
0.0
  3
*D2
  1

  0
MTEXT
  5
229
100
AcDbEntity
  8
0
100
AcDbMText
 62
7
  6
CONTINUOUS
  7
STANDARD
 71
2
 72
1
 10
97.2834210936
 20
51.75
 30
0.0
 11
1.0
 21
0.0
 31
0.0
 44
0.9
  1
34
 40
3.0
 41
6.75
  0
LINE
  5
22A
100
AcDbEntity
  8
0
100
AcDbLine
 62
7
  6
CONTINUOUS
 10
80.2834210936
 20
38.7705432837
 11
80.2834210936
 21
49.5
  0
LINE
  5
22B
100
AcDbEntity
  8
0
100
AcDbLine
 62
7
  6
CONTINUOUS
 10
114.2834210936
 20
13.5
 11
114.2834210936
 21
49.5
  0
LINE
  5
22C
100
AcDbEntity
  8
0
100
AcDbLine
 62
7
  6
CONTINUOUS
 10
80.2834210936
 20
48.0
 11
97.2834210936
 21
48.0
  0
LINE
  5
22D
100
AcDbEntity
  8
0
100
AcDbLine
 62
7
  6
CONTINUOUS
 10
114.2834210936
 20
48.0
 11
97.2834210936
 21
48.0
  0
INSERT
  5
22E
100
AcDbEntity
  8
0
100
AcDbBlockReference
 62
7
  6
CONTINUOUS
  2
_FILLED
 10
80.2834210936
 20
48.0
 41
3.0
 42
3.0
 43
3.0
 50
180.0
  0
INSERT
  5
22F
100
AcDbEntity
  8
0
100
AcDbBlockReference
 62
7
  6
CONTINUOUS
  2
_FILLED
 10
114.2834210936
 20
48.0
 41
3.0
 42
3.0
 43
3.0
  0
ENDBLK
  5
230
100
AcDbEntity
  8
0
  6
BYBLOCK
 62
0
100
AcDbBlockEnd
  0
ENDSEC
  0
SECTION
  2
ENTITIES
  0
DIMENSION
  5
231
100
AcDbEntity
  8
0
100
AcDbDimension
 62
7
  6
CONTINUOUS
  2
*D0
 10
40.0
 20
48.0
 11
-0.4285713773
 21
48.0
 70
160
 71
2
 42
80.0
  3
DIMSTYLE_1
100
AcDbAlignedDimension
 13
-40.0
 23
13.0
 14
40.0
 24
13.0
100
AcDbRotatedDimension
  0
DIMENSION
  5
232
100
AcDbEntity
  8
0
100
AcDbDimension
 62
7
  6
CONTINUOUS
  2
*D1
 10
48.0
 20
-40.0
 11
48.0
 21
-0.4285703397
 70
160
 71
2
 42
80.0
  3
DIMSTYLE_1
100
AcDbAlignedDimension
 13
13.0
 23
40.0
 14
13.0
 24
-40.0
 50
270.0
100
AcDbRotatedDimension
  0
DIMENSION
  5
233
100
AcDbEntity
  8
0
100
AcDbDimension
 62
7
  6
CONTINUOUS
  2
*D2
 10
114.2834210936
 20
48.0
 11
96.8548469238
 21
48.0
 70
160
 71
2
 42
34.0
  3
DIMSTYLE_1
100
AcDbAlignedDimension
 13
80.2834210936
 23
38.2705432837
 14
114.2834210936
 24
13.0
100
AcDbRotatedDimension
  0
LINE
  5
234
100
AcDbEntity
  8
0
100
AcDbLine
 62
7
  6
CONTINUOUS
 10
-40.0
 20
13.0
 11
-40.0
 21
-13.0
  0
LINE
  5
235
100
AcDbEntity
  8
0
100
AcDbLine
 62
7
  6
CONTINUOUS
 10
-39.0
 20
13.0
 11
-39.0
 21
-13.0
  0
LINE
  5
236
100
AcDbEntity
  8
0
100
AcDbLine
 62
7
  6
CONTINUOUS
 10
-38.9475922207
 20
13.0
 11
-38.9475922207
 21
-13.0
  0
LINE
  5
237
100
AcDbEntity
  8
0
100
AcDbLine
 62
7
  6
CONTINUOUS
 10
-38.3887984284
 20
13.0
 11
-38.3887984284
 21
-13.0
  0
LINE
  5
238
100
AcDbEntity
  8
0
100
AcDbLine
 62
7
  6
CONTINUOUS
 10
-37.5227730246
 20
13.0
 11
-37.5227730246
 21
-13.0
  0
LINE
  5
239
100
AcDbEntity
  8
0
100
AcDbLine
 62
7
  6
CONTINUOUS
 10
-27.4684812385
 20
28.0886887624
 11
-27.3956104391
 21
28.2149046894
  0
LINE
  5
23A
100
AcDbEntity
  8
0
100
AcDbLine
 62
7
  6
CONTINUOUS
 10
-28.0886887624
 20
27.4684812385
 11
-28.2149046918
 21
27.3956104377
  0
LINE
  5
23B
100
AcDbEntity
  8
0
100
AcDbLine
 62
7
  6
CONTINUOUS
 10
-13.0
 20
-40.0
 11
13.0
 21
-40.0
  0
LINE
  5
23C
100
AcDbEntity
  8
0
100
AcDbLine
 62
7
  6
CONTINUOUS
 10
-13.0
 20
-39.0
 11
13.0
 21
-39.0
  0
LINE
  5
23D
100
AcDbEntity
  8
0
100
AcDbLine
 62
7
  6
CONTINUOUS
 10
-13.0
 20
-38.9475922207
 11
13.0
 21
-38.9475922207
  0
LINE
  5
23E
100
AcDbEntity
  8
0
100
AcDbLine
 62
7
  6
CONTINUOUS
 10
-13.0
 20
-38.3887984284
 11
13.0
 21
-38.3887984284
  0
LINE
  5
23F
100
AcDbEntity
  8
0
100
AcDbLine
 62
7
  6
CONTINUOUS
 10
-13.0
 20
-37.5227730246
 11
13.0
 21
-37.5227730246
  0
LINE
  5
240
100
AcDbEntity
  8
0
100
AcDbLine
 62
7
  6
CONTINUOUS
 10
-28.2261305266
 20
-27.5010189371
 11
-28.2862280339
 21
-27.4663216251
  0
LINE
  5
241
100
AcDbEntity
  8
0
100
AcDbLine
 62
7
  6
CONTINUOUS
 10
-27.5010189371
 20
-28.2261305266
 11
-27.466321624
 21
-28.2862280358
  0
LINE
  5
242
100
AcDbEntity
  8
0
100
AcDbLine
 62
253
  6
CONTINUOUS
 10
-35.9098624061
 20
-13.0
 11
-35.9098624061
 21
13.0
  0
LINE
  5
243
100
AcDbEntity
  8
0
100
AcDbLine
 62
253
  6
CONTINUOUS
 10
-35.0569942481
 20
13.0
 11
-35.0569942481
 21
-13.0
  0
LINE
  5
244
100
AcDbEntity
  8
0
100
AcDbLine
 62
253
  6
CONTINUOUS
 10
-34.3927806857
 20
-13.0
 11
-34.3927806857
 21
13.0
  0
LWPOLYLINE
  5
245
100
AcDbEntity
  8
0
100
AcDbPolyline
 62
7
  6
CONTINUOUS
 90
13
 70
0
 10
-30.6853481712
 20
14.6427251666
 10
-30.7001211043
 20
14.6044061159
 10
-30.70975877
 20
14.5660467667
 10
-30.7142611684
 20
14.527647119
 10
-30.7135000617
 20
14.4886253548
 10
-30.7076036877
 20
14.4495632922
 10
-30.6969567595
 20
14.4122063857
 10
-30.6814164933
 20
14.3766059038
 10
-30.661125673
 20
14.3427105781
 10
-30.6368973642
 20
14.3121120576
 10
-30.6090025887
 20
14.2853408923
 10
-30.5771703248
 20
14.2618665323
 10
-30.5414005723
 20
14.2416889776
  0
LINE
  5
246
100
AcDbEntity
  8
0
100
AcDbLine
 62
7
  6
CONTINUOUS
 10
-26.6957405775
 20
27.8816335263
 11
-26.6234628307
 21
28.0068222561
  0
LINE
  5
247
100
AcDbEntity
  8
0
100
AcDbLine
 62
7
  6
CONTINUOUS
 10
-27.8816335263
 20
26.6957405775
 11
-28.0068222561
 21
26.6234628307
  0
LWPOLYLINE
  5
248
100
AcDbEntity
  8
0
100
AcDbPolyline
 62
7
  6
CONTINUOUS
 90
13
 70
0
 10
-14.7785311225
 20
30.309765718
 10
-14.7401111352
 20
30.324927451
 10
-14.701618764
 20
30.3348999722
 10
-14.6630540089
 20
30.3396832814
 10
-14.6238252005
 20
30.3391500212
 10
-14.5845240082
 20
30.3334275491
 10
-14.5469254399
 20
30.3228979379
 10
-14.5110812477
 20
30.3074151222
 10
-14.4769396796
 20
30.2871251673
 10
-14.4461204872
 20
30.2628483433
 10
-14.419163588
 20
30.2348580733
 10
-14.3955290645
 20
30.202880934
 10
-14.3752169168
 20
30.1669169256
  0
LINE
  5
249
100
AcDbEntity
  8
0
100
AcDbLine
 62
253
  6
CONTINUOUS
 10
13.0
 20
-35.9098624061
 11
-13.0
 21
-35.9098624061
  0
LINE
  5
24A
100
AcDbEntity
  8
0
100
AcDbLine
 62
253
  6
CONTINUOUS
 10
-13.0
 20
-35.0569942481
 11
13.0
 21
-35.0569942481
  0
LINE
  5
24B
100
AcDbEntity
  8
0
100
AcDbLine
 62
253
  6
CONTINUOUS
 10
13.0
 20
-34.3927806857
 11
-13.0
 21
-34.3927806857
  0
LWPOLYLINE
  5
24C
100
AcDbEntity
  8
0
100
AcDbPolyline
 62
7
  6
CONTINUOUS
 90
19
 70
0
 10
-14.9323094237
 20
-32.0153910763
 10
-14.7702907506
 20
-32.0821783969
 10
-14.605871643
 20
-32.1343172033
 10
-14.4390521008
 20
-32.1718074953
 10
-14.2685985089
 20
-32.1946688714
 10
-14.0957444825
 20
-32.2028817332
 10
-13.9241908668
 20
-32.196387286
 10
-13.7539652161
 20
-32.174895002
 10
-13.5850399761
 20
-32.138695409
 10
-13.4210333288
 20
-32.0886012961
 10
-13.2620432451
 20
-32.0243356193
 10
-13.1079717541
 20
-31.9461754225
 10
-12.962143125
 20
-31.8557646262
 10
-12.824721841
 20
-31.75286486
 10
-12.6955434188
 20
-31.6377144943
 10
-12.5774386784
 20
-31.5126725598
 10
-12.4713512263
 20
-31.3785254001
 10
-12.376337456
 20
-31.2344866717
 10
-12.2923973674
 20
-31.0805563744
  0
LINE
  5
24D
100
AcDbEntity
  8
0
100
AcDbLine
 62
253
  6
CONTINUOUS
 10
-15.1283862665
 20
-31.5042452592
 11
-15.1418364984
 21
-31.4977829035
  0
LINE
  5
24E
100
AcDbEntity
  8
0
100
AcDbLine
 62
253
  6
CONTINUOUS
 10
-14.9988319175
 20
-31.2341171157
 11
-15.0239308084
 21
-31.2220521135
  0
LINE
  5
24F
100
AcDbEntity
  8
0
100
AcDbLine
 62
253
  6
CONTINUOUS
 10
-14.0705161261
 20
-31.390774484
 11
-13.9525399442
 21
-31.4483153126
  0
LINE
  5
250
100
AcDbEntity
  8
0
100
AcDbLine
 62
7
  6
CONTINUOUS
 10
-28.0190752906
 20
-26.728278276
 11
-28.0777609579
 21
-26.6943960902
  0
LINE
  5
251
100
AcDbEntity
  8
0
100
AcDbLine
 62
7
  6
CONTINUOUS
 10
-26.728278276
 20
-28.0190752906
 11
-26.6943960902
 21
-28.0777609579
  0
LINE
  5
252
100
AcDbEntity
  8
0
100
AcDbLine
 62
253
  6
CONTINUOUS
 10
-30.3929715908
 20
-16.6373769866
 11
-30.4061792975
 21
-16.6132261348
  0
LINE
  5
253
100
AcDbEntity
  8
0
100
AcDbLine
 62
253
  6
CONTINUOUS
 10
-30.6621537943
 20
-16.7695517255
 11
-30.6693117248
 21
-16.7564572243
  0
LWPOLYLINE
  5
254
100
AcDbEntity
  8
0
100
AcDbPolyline
 62
7
  6
CONTINUOUS
 90
19
 70
0
 10
-30.6693985946
 20
-16.7565046774
 10
-30.7459617729
 20
-16.6004919007
 10
-30.8086701296
 20
-16.4384907262
 10
-30.8570643664
 20
-16.2717244775
 10
-30.8907939661
 20
-16.1014585005
 10
-30.9096183274
 20
-15.928968514
 10
-30.9134013919
 20
-15.75553015
 10
-30.9021187785
 20
-15.5824452689
 10
-30.8758618313
 20
-15.4110173486
 10
-30.834826019
 20
-15.2425197431
 10
-30.7793185976
 20
-15.07821987
 10
-30.7097580238
 20
-14.9193529181
 10
-30.6266602669
 20
-14.7670993531
 10
-30.5306455227
 20
-14.6226093723
 10
-30.4224309257
 20
-14.4869699147
 10
-30.3028138549
 20
-14.3611860616
 10
-30.1726801648
 20
-14.2462070243
 10
-30.0330031211
 20
-14.1429144339
 10
-29.8848254125
 20
-14.052096233
  0
LINE
  5
255
100
AcDbEntity
  8
0
100
AcDbLine
 62
253
  6
CONTINUOUS
 10
-33.332120514
 20
13.0
 11
-33.332120514
 21
-13.0
  0
LWPOLYLINE
  5
256
100
AcDbEntity
  8
0
100
AcDbPolyline
 62
7
  6
CONTINUOUS
 90
6
 70
0
 10
-28.5715681474
 20
14.6947178608
 10
-28.5814583338
 20
14.6740906554
 10
-28.5891958198
 20
14.6576491364
 10
-28.5947351044
 20
14.6456034037
 10
-28.597952864
 20
14.637912182
 10
-28.598848792
 20
14.6345757778
  0
LINE
  5
257
100
AcDbEntity
  8
0
100
AcDbLine
 62
7
  6
CONTINUOUS
 10
-28.4579224936
 20
14.9178489307
 11
-28.4766643767
 21
14.8812196001
  0
LWPOLYLINE
  5
258
100
AcDbEntity
  8
0
100
AcDbPolyline
 62
7
  6
CONTINUOUS
 90
4
 70
0
 10
-28.4766643767
 20
14.8812196001
 10
-28.5133326332
 20
14.8107995438
 10
-28.5302369469
 20
14.7777426033
 10
-28.5715681474
 20
14.6947178608
  0
LWPOLYLINE
  5
259
100
AcDbEntity
  8
0
100
AcDbPolyline
 62
7
  6
CONTINUOUS
 90
3
 70
0
 10
-27.8423477348
 20
16.0374450104
 10
-27.8624938268
 20
16.0028000629
 10
-27.8827886475
 20
15.9670180877
  0
LWPOLYLINE
  5
25A
100
AcDbEntity
  8
0
100
AcDbPolyline
 62
7
  6
CONTINUOUS
 90
13
 70
0
 10
-29.0077959464
 20
14.1597933917
 10
-29.0281722748
 20
14.1249945402
 10
-29.0516964417
 20
14.0940358772
 10
-29.0783684469
 20
14.0669174025
 10
-29.1086944974
 20
14.0433847927
 10
-29.1421683863
 20
14.0236923714
 10
-29.1772714926
 20
14.0086031094
 10
-29.2140511248
 20
13.9982505983
 10
-29.2524599745
 20
13.9925012466
 10
-29.2908374955
 20
13.99171725
 10
-29.3286301723
 20
13.9960193404
 10
-29.3663915204
 20
14.005286786
 10
-29.4041215397
 20
14.0195195868
  0
LWPOLYLINE
  5
25B
100
AcDbEntity
  8
0
100
AcDbPolyline
 62
7
  6
CONTINUOUS
 90
3
 70
0
 10
-27.7719999041
 20
16.155905274
 10
-27.7874541407
 20
16.1302185183
 10
-27.8423477348
 20
16.0374450104
  0
LWPOLYLINE
  5
25C
100
AcDbEntity
  8
0
100
AcDbPolyline
 62
7
  6
CONTINUOUS
 90
10
 70
0
 10
-25.1097324066
 20
19.8368681618
 10
-25.0912398617
 20
19.8632067255
 10
-25.0758514986
 20
19.8906894776
 10
-25.0635673173
 20
19.9193164182
 10
-25.0543199395
 20
19.9494303855
 10
-25.0481767435
 20
19.9806885411
 10
-25.0453398645
 20
20.0120623704
 10
-25.0458766809
 20
20.043209035
 10
-25.0497198143
 20
20.0744713733
 10
-25.0568692647
 20
20.1058493851
  0
LWPOLYLINE
  5
25D
100
AcDbEntity
  8
0
100
AcDbPolyline
 62
7
  6
CONTINUOUS
 90
6
 70
0
 10
-27.7234657908
 20
16.2318946822
 10
-27.7255438724
 20
16.229547462
 10
-27.7302035164
 20
16.2228959818
 10
-27.7373523046
 20
16.2120326599
 10
-27.7467817585
 20
16.1970777456
 10
-27.7719999041
 20
16.155905274
  0
LWPOLYLINE
  5
25E
100
AcDbEntity
  8
0
100
AcDbPolyline
 62
253
  6
CONTINUOUS
 90
13
 70
0
 10
-18.0297591464
 20
25.8598917502
 10
-17.999643893
 20
25.8841163446
 10
-17.9728467326
 20
25.9117538352
 10
-17.9497763595
 20
25.9423169726
 10
-17.9308577716
 20
25.9751090784
 10
-17.9162321993
 20
26.0097244901
 10
-17.9059730991
 20
26.0461413938
 10
-17.9003905405
 20
26.0840433116
 10
-17.8998299232
 20
26.1225722446
 10
-17.9044422869
 20
26.1608881566
 10
-17.91423377
 20
26.198246247
 10
-17.9291362181
 20
26.2340072438
 10
-17.9489800896
 20
26.2674816794
  0
LINE
  5
25F
100
AcDbEntity
  8
0
100
AcDbLine
 62
7
  6
CONTINUOUS
 10
-18.6649205768
 20
26.3357689132
 11
-18.6792009828
 21
26.3243859011
  0
LWPOLYLINE
  5
260
100
AcDbEntity
  8
0
100
AcDbPolyline
 62
7
  6
CONTINUOUS
 90
14
 70
0
 10
-18.6792009828
 20
26.3243859011
 10
-18.7050434201
 20
26.3041622636
 10
-18.716315236
 20
26.2950877978
 10
-18.7264859708
 20
26.286570342
 10
-18.7358630257
 20
26.2786416307
 10
-18.7444228244
 20
26.2712881046
 10
-18.7520581036
 20
26.2644445471
 10
-18.7589137159
 20
26.2581720516
 10
-18.7649132999
 20
26.2524661116
 10
-18.7699673391
 20
26.2473067057
 10
-18.7741484235
 20
26.2428028204
 10
-18.7773868753
 20
26.239007515
 10
-18.7795035605
 20
26.2358759155
 10
-18.7803709836
 20
26.2333914459
  0
LINE
  5
261
100
AcDbEntity
  8
0
100
AcDbLine
 62
7
  6
CONTINUOUS
 10
-18.4677984804
 20
26.4133955962
 11
-18.5041138485
 21
26.3879673017
  0
LINE
  5
262
100
AcDbEntity
  8
0
100
AcDbLine
 62
253
  6
CONTINUOUS
 10
-18.1338089797
 20
25.7870360307
 11
-18.0297595324
 21
25.859892238
  0
LINE
  5
263
100
AcDbEntity
  8
0
100
AcDbLine
 62
253
  6
CONTINUOUS
 10
-18.0033544161
 20
25.8278845336
 11
-18.1127626495
 21
25.7512760638
  0
LINE
  5
264
100
AcDbEntity
  8
0
100
AcDbLine
 62
7
  6
CONTINUOUS
 10
-18.1700446444
 20
25.4264036692
 11
-17.6784826276
 21
25.7705990989
  0
LWPOLYLINE
  5
265
100
AcDbEntity
  8
0
100
AcDbPolyline
 62
7
  6
CONTINUOUS
 90
10
 70
0
 10
-19.9002841421
 20
25.4151662487
 10
-19.9256283068
 20
25.3974446357
 10
-19.9520541942
 20
25.3825901988
 10
-19.9795618041
 20
25.3706029379
 10
-20.0084559267
 20
25.3614186211
 10
-20.0384317719
 20
25.3551014803
 10
-20.0685749699
 20
25.3518442118
 10
-20.0985807308
 20
25.3517110478
 10
-20.1287538445
 20
25.354637756
 10
-20.1590943109
 20
25.3606243366
  0
LWPOLYLINE
  5
266
100
AcDbEntity
  8
0
100
AcDbPolyline
 62
7
  6
CONTINUOUS
 90
3
 70
0
 10
-18.3203274978
 20
26.573543442
 10
-18.34816922
 20
26.5561770408
 10
-18.3637488996
 20
26.5466515918
  0
LWPOLYLINE
  5
267
100
AcDbEntity
  8
0
100
AcDbPolyline
 62
253
  6
CONTINUOUS
 90
13
 70
0
 10
-18.1127626395
 20
25.7512761689
 10
-18.145877875
 20
25.7311580518
 10
-18.1811959813
 20
25.7155179648
 10
-18.218112222
 20
25.7045720726
 10
-18.2558147194
 20
25.69847399
 10
-18.2938643124
 20
25.6972105522
 10
-18.3322130087
 20
25.7008457054
 10
-18.3704513463
 20
25.7095624277
 10
-18.4076371917
 20
25.7233755072
 10
-18.4429094831
 20
25.7421175139
 10
-18.4755465031
 20
25.7655155443
 10
-18.5049525857
 20
25.7932634739
 10
-18.5305175479
 20
25.8249376306
  0
LWPOLYLINE
  5
268
100
AcDbEntity
  8
0
100
AcDbPolyline
 62
7
  6
CONTINUOUS
 90
13
 70
0
 10
-13.7925313028
 20
28.8750077708
 10
-13.7573664448
 20
28.8952238977
 10
-13.7260637416
 20
28.9186457922
 10
-13.6986231933
 20
28.9452734541
 10
-13.6747837893
 20
28.9756200314
 10
-13.6548065401
 20
29.0091723761
 10
-13.6394744777
 20
29.0443910451
 10
-13.628923932
 20
29.0813249598
 10
-13.623018573
 20
29.1199251988
 10
-13.6221324426
 20
29.1585055544
 10
-13.6263902212
 20
29.1965039575
 10
-13.6356672285
 20
29.2344824773
 10
-13.6499634643
 20
29.2724411138
  0
LWPOLYLINE
  5
269
100
AcDbEntity
  8
0
100
AcDbPolyline
 62
7
  6
CONTINUOUS
 90
10
 70
0
 10
-14.036550965
 20
-31.6880766584
 10
-14.1606626645
 20
-31.6983740202
 10
-14.2851962747
 20
-31.7009165764
 10
-14.4096691658
 20
-31.6956912331
 10
-14.5336001116
 20
-31.6827137711
 10
-14.6565069559
 20
-31.6620320749
 10
-14.7779085888
 20
-31.6337266224
 10
-14.8973324317
 20
-31.5979055292
 10
-15.0143161606
 20
-31.5547035043
 10
-15.1284053811
 20
-31.504285065
  0
LINE
  5
26A
100
AcDbEntity
  8
0
100
AcDbLine
 62
253
  6
CONTINUOUS
 10
-13.0
 20
-33.332120514
 11
13.0
 21
-33.332120514
  0
LINE
  5
26B
100
AcDbEntity
  8
0
100
AcDbLine
 62
253
  6
CONTINUOUS
 10
-12.6104694096
 20
-30.5328945696
 11
-12.4591769048
 21
-30.6066848547
  0
LINE
  5
26C
100
AcDbEntity
  8
0
100
AcDbLine
 62
253
  6
CONTINUOUS
 10
-29.8848865308
 20
-14.0519973094
 11
-29.7396429688
 21
-14.3140236314
  0
LINE
  5
26D
100
AcDbEntity
  8
0
100
AcDbLine
 62
253
  6
CONTINUOUS
 10
-26.2162718757
 20
12.2519988616
 11
-24.979920923
 21
13.4883498144
  0
LINE
  5
26E
100
AcDbEntity
  8
0
100
AcDbLine
 62
253
  6
CONTINUOUS
 10
-25.0978220849
 20
13.1820515251
 11
-25.9099735864
 21
12.3699000235
  0
LWPOLYLINE
  5
26F
100
AcDbEntity
  8
0
100
AcDbPolyline
 62
253
  6
CONTINUOUS
 90
16
 70
0
 10
-25.9099735864
 20
12.3699000235
 10
-25.9312146488
 20
12.3498406191
 10
-25.9529306763
 20
12.3310470479
 10
-25.9749021972
 20
12.3136601657
 10
-25.9967420781
 20
12.2979202663
 10
-26.0184243031
 20
12.283781651
 10
-26.0402830975
 20
12.2710345573
 10
-26.0621351745
 20
12.259851022
 10
-26.0837429058
 20
12.2504197153
 10
-26.1052969372
 20
12.2427773299
 10
-26.126494549
 20
12.2372146189
 10
-26.1469913795
 20
12.2340208863
 10
-26.1667407262
 20
12.2334882308
 10
-26.1853218211
 20
12.2360504017
 10
-26.2020386238
 20
12.2421066717
 10
-26.2162718757
 20
12.2519988616
  0
LWPOLYLINE
  5
270
100
AcDbEntity
  8
0
100
AcDbPolyline
 62
7
  6
CONTINUOUS
 90
13
 70
0
 10
18.2280591844
 20
-26.6201243311
 10
18.2306906228
 20
-26.6201589438
 10
18.2343574992
 20
-26.6192409036
 10
18.2390317638
 20
-26.617495708
 10
18.2446942944
 20
-26.6151070499
 10
18.2512713793
 20
-26.6121222761
 10
18.2586854089
 20
-26.6084359242
 10
18.26692452
 20
-26.6041389893
 10
18.2759668263
 20
-26.5993047556
 10
18.2858045569
 20
-26.5937761637
 10
18.2964624288
 20
-26.5876762281
 10
18.3079450479
 20
-26.5810318257
 10
18.3203274978
 20
-26.573543442
  0
LWPOLYLINE
  5
271
100
AcDbEntity
  8
0
100
AcDbPolyline
 62
7
  6
CONTINUOUS
 90
10
 70
0
 10
-31.1902986388
 20
-16.5871159392
 10
-31.1313052445
 20
-16.6081443382
 10
-31.0728781886
 20
-16.6280667584
 10
-31.015023697
 20
-16.6468865209
 10
-30.9581391599
 20
-16.6638723647
 10
-30.9018330975
 20
-16.6797587267
 10
-30.8449266901
 20
-16.696746559
 10
-30.7870255579
 20
-16.7155687353
 10
-30.7285182385
 20
-16.7354892225
 10
-30.6693985946
 20
-16.7565046774
  0
LINE
  5
272
100
AcDbEntity
  8
0
100
AcDbLine
 62
7
  6
CONTINUOUS
 10
-13.0132955224
 20
-26.4421527151
 11
-14.5493325607
 21
-25.0863066447
  0
LWPOLYLINE
  5
273
100
AcDbEntity
  8
0
100
AcDbPolyline
 62
7
  6
CONTINUOUS
 90
10
 70
0
 10
-15.1284053811
 20
-31.504285065
 10
-15.1043287196
 20
-31.5622326633
 10
-15.0813775963
 20
-31.6196260771
 10
-15.0595550287
 20
-31.6764716107
 10
-15.0396164127
 20
-31.7324197744
 10
-15.0208092021
 20
-31.7878260583
 10
-15.0008736567
 20
-31.8437524961
 10
-14.9790558205
 20
-31.9005515989
 10
-14.9561067865
 20
-31.9578647856
 10
-14.9320235632
 20
-32.0156856636
  0
LINE
  5
274
100
AcDbEntity
  8
0
100
AcDbLine
 62
7
  6
CONTINUOUS
 10
-28.598848792
 20
14.6345757778
 11
-28.5652530721
 21
14.4231174483
  0
LINE
  5
275
100
AcDbEntity
  8
0
100
AcDbLine
 62
253
  6
CONTINUOUS
 10
-24.9608370672
 20
10.9746536945
 11
-24.9608370672
 21
10.8187014434
  0
LINE
  5
276
100
AcDbEntity
  8
0
100
AcDbLine
 62
253
  6
CONTINUOUS
 10
-24.5366376159
 20
10.8187014434
 11
-24.5366376159
 21
10.9746536945
  0
LWPOLYLINE
  5
277
100
AcDbEntity
  8
0
100
AcDbPolyline
 62
253
  6
CONTINUOUS
 90
37
 70
0
 10
-23.8
 20
-3.0
 10
-23.787767322
 20
-2.7345410822
 10
-23.7535165546
 20
-2.4750650575
 10
-23.6972476977
 20
-2.2215719259
 10
-23.6181228945
 20
-1.9721731548
 10
-23.5169800018
 20
-1.7287572768
 10
-23.39633259
 20
-1.4969898896
 10
-23.2556888302
 20
-1.2772119864
 10
-23.0955405513
 20
-1.0690825741
 10
-22.9198768102
 20
-0.8772442713
 10
-22.7287057818
 20
-0.7022603214
 10
-22.5220192911
 20
-0.543567481
 10
-22.3037818706
 20
-0.404118639
 10
-22.0733859317
 20
-0.2840619224
 10
-21.831439063
 20
-0.1832492043
 10
-21.5837285622
 20
-0.1041889925
 10
-21.3302691243
 20
-0.047483942
 10
-21.0710460544
 20
-0.0125313978
 10
-20.8118025647
 20
-0.0000319038
 10
-20.5526199181
 20
-0.0104300143
 10
-20.2934168517
 20
-0.0432811749
 10
-20.0396927895
 20
-0.097952266
 10
-19.7914356869
 20
-0.1749244797
 10
-19.5486575885
 20
-0.2737166239
 10
-19.316894051
 20
-0.392252003
 10
-19.0965015538
 20
-0.5307978005
 10
-18.8871236175
 20
-0.6890868328
 10
-18.6932263608
 20
-0.8642408536
 10
-18.514830602
 20
-1.0569592192
 10
-18.3519155227
 20
-1.2665425734
 10
-18.2088847867
 20
-1.4880146001
 10
-18.0863573523
 20
-1.7218112036
 10
-17.9837142611
 20
-1.9674964797
 10
-17.9035023014
 20
-2.2187864002
 10
-17.8465704028
 20
-2.4735862891
 10
-17.8120696356
 20
-2.7339908223
 10
-17.8
 20
-3.0
  0
LINE
  5
278
100
AcDbEntity
  8
0
100
AcDbLine
 62
7
  6
CONTINUOUS
 10
-18.7803709835
 20
26.2333914459
 11
-18.8427105387
 21
25.8641114201
  0
LINE
  5
279
100
AcDbEntity
  8
0
100
AcDbLine
 62
253
  6
CONTINUOUS
 10
-18.5305175479
 20
25.8249376306
 11
-18.5878015859
 21
25.5000637073
  0
LINE
  5
27A
100
AcDbEntity
  8
0
100
AcDbLine
 62
253
  6
CONTINUOUS
 10
-18.1700466775
 20
25.4264022456
 11
-18.1127626495
 21
25.7512760638
  0
LINE
  5
27B
100
AcDbEntity
  8
0
100
AcDbLine
 62
253
  6
CONTINUOUS
 10
-14.3752185361
 20
30.1669203983
 11
-14.2416905651
 21
30.5414039767
  0
LINE
  5
27C
100
AcDbEntity
  8
0
100
AcDbLine
 62
7
  6
CONTINUOUS
 10
-14.6438923512
 20
30.68485749
 11
-14.7328787775
 21
30.4352455304
  0
LWPOLYLINE
  5
27D
100
AcDbEntity
  8
0
100
AcDbPolyline
 62
7
  6
CONTINUOUS
 90
3
 70
0
 10
-14.7328787775
 20
30.4352455304
 10
-14.7631931878
 20
30.35168224
 10
-14.7785431213
 20
30.3097978617
  0
LWPOLYLINE
  5
27E
100
AcDbEntity
  8
0
100
AcDbPolyline
 62
253
  6
CONTINUOUS
 90
13
 70
0
 10
-23.8204769177
 20
11.9266167165
 10
-23.794043381
 20
11.9550109034
 10
-23.7696330578
 20
11.9845087461
 10
-23.7476553522
 20
12.0146155135
 10
-23.7284788693
 20
12.0448262619
 10
-23.7124252326
 20
12.0746343037
 10
-23.6997636899
 20
12.1035397054
 10
-23.6907065977
 20
12.1310576723
 10
-23.6854058594
 20
12.1567266796
 10
-23.6839503777
 20
12.1801162125
 10
-23.6863645637
 20
12.2008339873
 10
-23.6926079271
 20
12.2185325304
 10
-23.7025757558
 20
12.2329150058
  0
LINE
  5
27F
100
AcDbEntity
  8
0
100
AcDbLine
 62
253
  6
CONTINUOUS
 10
-24.6545387778
 20
11.0925548564
 11
-23.8204769177
 21
11.9266167165
  0
LINE
  5
280
100
AcDbEntity
  8
0
100
AcDbLine
 62
253
  6
CONTINUOUS
 10
-23.7025757558
 20
11.8087155546
 11
-24.5366376159
 21
10.9746536945
  0
LINE
  5
281
100
AcDbEntity
  8
0
100
AcDbLine
 62
7
  6
CONTINUOUS
 10
-24.5366358609
 20
10.8187031985
 11
-23.5466252598
 21
11.8087137995
  0
LWPOLYLINE
  5
282
100
AcDbEntity
  8
0
100
AcDbPolyline
 62
253
  6
CONTINUOUS
 90
13
 70
0
 10
-24.5366376159
 20
10.9746536945
 10
-24.5661129403
 20
10.948816811
 10
-24.5987153604
 20
10.927037609
 10
-24.633890103
 20
10.9096914498
 10
-24.67104096
 20
10.8970774982
 10
-24.7095308319
 20
10.8894169493
 10
-24.7486916536
 20
10.8868447856
 10
-24.7878499016
 20
10.8894045839
 10
-24.826338923
 20
10.8970521032
 10
-24.8635001597
 20
10.9096564923
 10
-24.8986977728
 20
10.9270020868
 10
-24.9313295214
 20
10.9487920985
 10
-24.9608370672
 20
10.9746536945
  0
LINE
  5
283
100
AcDbEntity
  8
0
100
AcDbLine
 62
7
  6
CONTINUOUS
 10
-30.3103476725
 20
14.7774085423
 11
-30.6848574951
 21
14.6438923537
  0
LINE
  5
284
100
AcDbEntity
  8
0
100
AcDbLine
 62
253
  6
CONTINUOUS
 10
-30.5414039767
 20
14.2416905651
 11
-30.1669203983
 21
14.3752185361
  0
LINE
  5
285
100
AcDbEntity
  8
0
100
AcDbLine
 62
7
  6
CONTINUOUS
 10
-2.1125
 20
-23.0
 11
-2.375
 21
-23.0
  0
LINE
  5
286
100
AcDbEntity
  8
0
100
AcDbLine
 62
7
  6
CONTINUOUS
 10
-3.9791666389
 20
-23.0
 11
-4.1541666389
 21
-23.0
  0
LINE
  5
287
100
AcDbEntity
  8
0
100
AcDbLine
 62
7
  6
CONTINUOUS
 10
-2.375
 20
-22.7446808517
 11
-2.1125
 21
-22.7446808517
  0
LINE
  5
288
100
AcDbEntity
  8
0
100
AcDbLine
 62
7
  6
CONTINUOUS
 10
-1.8791665554
 20
-22.4893617034
 11
-1.7041665554
 21
-22.4893617034
  0
LINE
  5
289
100
AcDbEntity
  8
0
100
AcDbLine
 62
253
  6
CONTINUOUS
 10
17.6048191328
 20
-26.1883554309
 11
17.9296930561
 21
-26.2456394689
  0
LINE
  5
28A
100
AcDbEntity
  8
0
100
AcDbLine
 62
253
  6
CONTINUOUS
 10
18.0033544161
 20
-25.8278845336
 11
17.6784805944
 21
-25.7706005225
  0
LINE
  5
28B
100
AcDbEntity
  8
0
100
AcDbLine
 62
7
  6
CONTINUOUS
 10
17.8597280856
 20
-26.5524031438
 11
18.2280591844
 21
-26.6201243311
  0
LINE
  5
28C
100
AcDbEntity
  8
0
100
AcDbLine
 62
7
  6
CONTINUOUS
 10
-30.4828901712
 20
-16.82132248
 11
-30.3926288173
 21
-16.8469095146
  0
LINE
  5
28D
100
AcDbEntity
  8
0
100
AcDbLine
 62
7
  6
CONTINUOUS
 10
-28.6434070243
 20
-15.8772999629
 11
-28.7268978612
 21
-15.853643872
  0
LINE
  5
28E
100
AcDbEntity
  8
0
100
AcDbLine
 62
7
  6
CONTINUOUS
 10
-28.4278742754
 20
-15.939145633
 11
-28.5718987164
 21
-15.8980996766
  0
LINE
  5
28F
100
AcDbEntity
  8
0
100
AcDbLine
 62
7
  6
CONTINUOUS
 10
-30.3437883217
 20
-16.8611658585
 11
-30.1715965396
 21
-16.9103493672
  0
LINE
  5
290
100
AcDbEntity
  8
0
100
AcDbLine
 62
7
  6
CONTINUOUS
 10
-28.7268978612
 20
-15.853643872
 11
-28.892704992
 21
-15.8057656313
  0
LINE
  5
291
100
AcDbEntity
  8
0
100
AcDbLine
 62
7
  6
CONTINUOUS
 10
-30.6621627143
 20
-16.7695491449
 11
-30.4828901712
 21
-16.82132248
  0
LINE
  5
292
100
AcDbEntity
  8
0
100
AcDbLine
 62
7
  6
CONTINUOUS
 10
-2.375
 20
-23.0
 11
-2.5208332777
 21
-22.9574468099
  0
LINE
  5
293
100
AcDbEntity
  8
0
100
AcDbLine
 62
7
  6
CONTINUOUS
 10
-30.3926288173
 20
-16.8469095146
 11
-30.3437883217
 21
-16.8611658585
  0
LINE
  5
294
100
AcDbEntity
  8
0
100
AcDbLine
 62
7
  6
CONTINUOUS
 10
-28.5718987164
 20
-15.8980996766
 11
-28.6434070243
 21
-15.8772999629
  0
LINE
  5
295
100
AcDbEntity
  8
0
100
AcDbLine
 62
7
  6
CONTINUOUS
 10
13.6499619229
 20
-29.2724378084
 11
14.0195180763
 21
-29.4041183007
  0
LINE
  5
296
100
AcDbEntity
  8
0
100
AcDbLine
 62
253
  6
CONTINUOUS
 10
14.1601141903
 20
-29.0084477759
 11
13.7922023448
 21
-28.8743138714
  0
LINE
  5
297
100
AcDbEntity
  8
0
100
AcDbLine
 62
7
  6
CONTINUOUS
 10
-2.4916667223
 20
-22.7021276653
 11
-2.375
 21
-22.7446808517
  0
LINE
  5
298
100
AcDbEntity
  8
0
100
AcDbLine
 62
253
  6
CONTINUOUS
 10
-9.0866055194
 20
-23.6918887872
 11
-9.2378980242
 21
-23.6180985022
  0
LINE
  5
299
100
AcDbEntity
  8
0
100
AcDbLine
 62
253
  6
CONTINUOUS
 10
-9.3429198167
 20
-21.997193457
 11
-9.4608959986
 21
-21.9396526284
  0
LWPOLYLINE
  5
29A
100
AcDbEntity
  8
0
100
AcDbPolyline
 62
253
  6
CONTINUOUS
 90
10
 70
0
 10
-10.0480107885
 20
-21.0239348405
 10
-9.9345061185
 20
-21.0827481723
 10
-9.8250128845
 20
-21.1486852611
 10
-9.7199762968
 20
-21.2214723438
 10
-9.6198225931
 20
-21.3008085182
 10
-9.5249583076
 20
-21.3863656166
 10
-9.4357683088
 20
-21.4777893527
 10
-9.3526131506
 20
-21.5747028097
 10
-9.2758280188
 20
-21.6767082218
 10
-9.2057221355
 20
-21.7833870607
  0
LWPOLYLINE
  5
29B
100
AcDbEntity
  8
0
100
AcDbPolyline
 62
7
  6
CONTINUOUS
 90
19
 70
0
 10
-20.3022858914
 20
-10.6445552248
 10
-20.3931198201
 20
-10.4893877016
 10
-20.49526179
 20
-10.3449929634
 10
-20.6087118013
 20
-10.2113710103
 10
-20.7345332863
 20
-10.0876951358
 10
-20.8716628126
 20
-9.9747920463
 10
-21.0169100832
 20
-9.875141861
 10
-21.1704341668
 20
-9.7890351001
 10
-21.3320759946
 20
-9.7161812434
 10
-21.4981680636
 20
-9.6581888496
 10
-21.6688038844
 20
-9.6153698178
 10
-21.8438899465
 20
-9.5874122489
 10
-22.019478215
 20
-9.5749890051
 10
-22.1955753308
 20
-9.5784206877
 10
-22.372174653
 20
-9.5973866955
 10
-22.5453082244
 20
-9.6315980865
 10
-22.7136533926
 20
-9.6809585468
 10
-22.8785328099
 20
-9.7455643903
 10
-23.0399464764
 20
-9.8254156172
  0
LINE
  5
29C
100
AcDbEntity
  8
0
100
AcDbLine
 62
253
  6
CONTINUOUS
 10
-23.0467723431
 20
-10.6041048634
 11
-23.1920159051
 21
-10.3420785414
  0
LINE
  5
29D
100
AcDbEntity
  8
0
100
AcDbLine
 62
253
  6
CONTINUOUS
 10
-28.8743138713
 20
13.7922023448
 11
-29.00845145
 21
14.1601066241
  0
LINE
  5
29E
100
AcDbEntity
  8
0
100
AcDbLine
 62
7
  6
CONTINUOUS
 10
-29.4041183007
 20
14.0195180763
 11
-29.2724378084
 21
13.6499619229
  0
LWPOLYLINE
  5
29F
100
AcDbEntity
  8
0
100
AcDbPolyline
 62
7
  6
CONTINUOUS
 90
3
 70
0
 10
-14.2719770346
 20
-29.6803184025
 10
-14.4120647106
 20
-29.2740993201
 10
-14.429501599
 20
-29.2231052818
  0
LWPOLYLINE
  5
2A0
100
AcDbEntity
  8
0
100
AcDbPolyline
 62
7
  6
CONTINUOUS
 90
3
 70
0
 10
-15.3081149469
 20
-31.0152666372
 10
-15.2897167965
 20
-31.0690580078
 10
-15.1418334569
 20
-31.4977916804
  0
LINE
  5
2A1
100
AcDbEntity
  8
0
100
AcDbLine
 62
7
  6
CONTINUOUS
 10
-28.2261305266
 20
-27.5010189371
 11
-28.0190752905
 21
-26.728278276
  0
LINE
  5
2A2
100
AcDbEntity
  8
0
100
AcDbLine
 62
7
  6
CONTINUOUS
 10
-28.0777609579
 20
-26.6943960902
 11
-28.2862280339
 21
-27.4663216251
  0
LINE
  5
2A3
100
AcDbEntity
  8
0
100
AcDbLine
 62
7
  6
CONTINUOUS
 10
-25.7726104922
 20
-14.4719331759
 11
-25.7503029073
 21
-14.3934672744
  0
LINE
  5
2A4
100
AcDbEntity
  8
0
100
AcDbLine
 62
7
  6
CONTINUOUS
 10
-26.947962538
 20
-14.9659046885
 11
-26.9997489614
 21
-15.1475216887
  0
LINE
  5
2A5
100
AcDbEntity
  8
0
100
AcDbLine
 62
253
  6
CONTINUOUS
 10
-23.1920159045
 20
-10.342078541
 11
-23.0394164002
 21
-9.8251217911
  0
LINE
  5
2A6
100
AcDbEntity
  8
0
100
AcDbLine
 62
253
  6
CONTINUOUS
 10
8.6058669146
 20
23.5220488249
 11
9.0866055196
 21
23.6918887876
  0
LINE
  5
2A7
100
AcDbEntity
  8
0
100
AcDbLine
 62
7
  6
CONTINUOUS
 10
13.7137048522
 20
27.7555067747
 11
13.5368173619
 21
27.6948949797
  0
LINE
  5
2A8
100
AcDbEntity
  8
0
100
AcDbLine
 62
7
  6
CONTINUOUS
 10
13.0260748016
 20
26.4683088856
 11
13.1032656653
 21
26.4946924818
  0
LINE
  5
2A9
100
AcDbEntity
  8
0
100
AcDbLine
 62
7
  6
CONTINUOUS
 10
-27.4663216251
 20
-28.2862280339
 11
-26.6943960902
 21
-28.0777609579
  0
LINE
  5
2AA
100
AcDbEntity
  8
0
100
AcDbLine
 62
7
  6
CONTINUOUS
 10
-26.728278276
 20
-28.0190752905
 11
-27.5010189371
 21
-28.2261305266
  0
LINE
  5
2AB
100
AcDbEntity
  8
0
100
AcDbLine
 62
7
  6
CONTINUOUS
 10
27.5657565497
 20
-16.2520480507
 11
27.7234657908
 21
-16.2318946822
  0
LINE
  5
2AC
100
AcDbEntity
  8
0
100
AcDbLine
 62
7
  6
CONTINUOUS
 10
-3.4541667223
 20
-22.106382966
 11
-3.9791666389
 21
-22.106382966
  0
LINE
  5
2AD
100
AcDbEntity
  8
0
100
AcDbLine
 62
7
  6
CONTINUOUS
 10
-3.9791666389
 20
-21.8510638475
 11
-3.425
 21
-21.8510638475
  0
LINE
  5
2AE
100
AcDbEntity
  8
0
100
AcDbLine
 62
7
  6
CONTINUOUS
 10
-1.7041665554
 20
-21.5106383562
 11
-1.8791665554
 21
-21.5106383562
  0
LINE
  5
2AF
100
AcDbEntity
  8
0
100
AcDbLine
 62
7
  6
CONTINUOUS
 10
-2.1125
 20
-21.2553191185
 11
-2.375
 21
-21.2553191185
  0
LINE
  5
2B0
100
AcDbEntity
  8
0
100
AcDbLine
 62
7
  6
CONTINUOUS
 10
-3.425
 20
-21.2127659321
 11
-3.9791666389
 21
-21.2127659321
  0
LINE
  5
2B1
100
AcDbEntity
  8
0
100
AcDbLine
 62
7
  6
CONTINUOUS
 10
-4.1541666389
 20
-21.0
 11
-3.4541667223
 21
-21.0
  0
LINE
  5
2B2
100
AcDbEntity
  8
0
100
AcDbLine
 62
7
  6
CONTINUOUS
 10
-2.375
 20
-21.0
 11
-2.1125
 21
-21.0
  0
LWPOLYLINE
  5
2B3
100
AcDbEntity
  8
0
100
AcDbPolyline
 62
7
  6
CONTINUOUS
 90
10
 70
0
 10
20.1058493879
 20
-25.056869265
 10
20.0744713748
 20
-25.0497198145
 10
20.0432090357
 20
-25.045876681
 10
20.0120623704
 20
-25.0453398645
 10
19.9806885409
 20
-25.0481767435
 10
19.9494303853
 20
-25.0543199395
 10
19.9193164181
 20
-25.0635673173
 10
19.8906894776
 20
-25.0758514986
 10
19.8632067255
 20
-25.0912398617
 10
19.8368681618
 20
-25.1097324066
  0
LINE
  5
2B4
100
AcDbEntity
  8
0
100
AcDbLine
 62
7
  6
CONTINUOUS
 10
27.4684812385
 20
-28.0886887624
 11
26.6957405775
 21
-27.8816335263
  0
LINE
  5
2B5
100
AcDbEntity
  8
0
100
AcDbLine
 62
7
  6
CONTINUOUS
 10
26.6234628307
 20
-28.0068222561
 11
27.3956104391
 21
-28.2149046894
  0
LINE
  5
2B6
100
AcDbEntity
  8
0
100
AcDbLine
 62
7
  6
CONTINUOUS
 10
-3.4541667223
 20
-21.0
 11
-3.3083332777
 21
-21.0425531864
  0
LINE
  5
2B7
100
AcDbEntity
  8
0
100
AcDbLine
 62
7
  6
CONTINUOUS
 10
-2.1125
 20
-21.0
 11
-1.9666665554
 21
-21.0425531864
  0
LINE
  5
2B8
100
AcDbEntity
  8
0
100
AcDbLine
 62
253
  6
CONTINUOUS
 10
-29.8848817083
 20
-14.0519946363
 11
-30.3951008724
 21
-13.9024442737
  0
LINE
  5
2B9
100
AcDbEntity
  8
0
100
AcDbLine
 62
7
  6
CONTINUOUS
 10
-1.9958334446
 20
-21.2978723049
 11
-2.1125
 21
-21.2553191185
  0
LINE
  5
2BA
100
AcDbEntity
  8
0
100
AcDbLine
 62
7
  6
CONTINUOUS
 10
-3.3375
 20
-21.2553191185
 11
-3.425
 21
-21.2127659321
  0
LINE
  5
2BB
100
AcDbEntity
  8
0
100
AcDbLine
 62
7
  6
CONTINUOUS
 10
-4.5916666806
 20
-21.9787234068
 11
-5.0
 21
-21.6808511019
  0
LINE
  5
2BC
100
AcDbEntity
  8
0
100
AcDbLine
 62
7
  6
CONTINUOUS
 10
-2.5208332777
 20
-22.9574468099
 11
-2.6375
 21
-22.8723404259
  0
LINE
  5
2BD
100
AcDbEntity
  8
0
100
AcDbLine
 62
7
  6
CONTINUOUS
 10
-1.2666665554
 20
-21.9787234068
 11
-0.8583334446
 21
-22.2765957713
  0
LINE
  5
2BE
100
AcDbEntity
  8
0
100
AcDbLine
 62
7
  6
CONTINUOUS
 10
-4.9416666649
 20
-21.5531915426
 11
-4.3875
 21
-21.9787234068
  0
LWPOLYLINE
  5
2BF
100
AcDbEntity
  8
0
100
AcDbPolyline
 62
253
  6
CONTINUOUS
 90
13
 70
0
 10
-9.2057262509
 20
-21.7833994128
 10
-9.115518558
 20
-21.9373026851
 10
-9.0407588201
 20
-22.0958880408
 10
-8.9813959512
 20
-22.2576043411
 10
-8.9373732989
 20
-22.4202685214
 10
-8.9080713174
 20
-22.5829630338
 10
-8.8928444454
 20
-22.7462294386
 10
-8.8914835896
 20
-22.9085230689
 10
-8.9035901682
 20
-23.0687370689
 10
-8.9291618738
 20
-23.2282566393
 10
-8.9684209354
 20
-23.3866382295
 10
-9.0210387201
 20
-23.5416230163
 10
-9.0866062281
 20
-23.6918884249
  0
LWPOLYLINE
  5
2C0
100
AcDbEntity
  8
0
100
AcDbPolyline
 62
253
  6
CONTINUOUS
 90
13
 70
0
 10
-9.3429208243
 20
-21.9971955228
 10
-9.2654759495
 20
-22.1309756837
 10
-9.2010685155
 20
-22.2658680797
 10
-9.1496985222
 20
-22.4018727109
 10
-9.111772465
 20
-22.5395994247
 10
-9.0868838485
 20
-22.6784383736
 10
-9.0738131869
 20
-22.816560015
 10
-9.0722735876
 20
-22.9536681611
 10
-9.0825519431
 20
-23.0900589997
 10
-9.1042894455
 20
-23.2247915514
 10
-9.137366492
 20
-23.3575521562
 10
-9.1819026854
 20
-23.4886544741
 10
-9.2378980256
 20
-23.6180985051
  0
LINE
  5
2C1
100
AcDbEntity
  8
0
100
AcDbLine
 62
253
  6
CONTINUOUS
 10
-12.2926347877
 20
-31.0810431582
 11
-12.4591732412
 21
-30.6066773432
  0
LINE
  5
2C2
100
AcDbEntity
  8
0
100
AcDbLine
 62
7
  6
CONTINUOUS
 10
-28.2149046894
 20
27.3956104391
 11
-28.0068222561
 21
26.6234628307
  0
LINE
  5
2C3
100
AcDbEntity
  8
0
100
AcDbLine
 62
7
  6
CONTINUOUS
 10
-27.8816335263
 20
26.6957405775
 11
-28.0886887624
 21
27.4684812385
  0
LWPOLYLINE
  5
2C4
100
AcDbEntity
  8
0
100
AcDbPolyline
 62
7
  6
CONTINUOUS
 90
10
 70
0
 10
-25.3606243346
 20
20.159094288
 10
-25.3546377548
 20
20.1287538327
 10
-25.3517110471
 20
20.0985807273
 10
-25.3518442116
 20
20.0685749719
 10
-25.3551014801
 20
20.0384317755
 10
-25.3614186207
 20
20.0084559289
 10
-25.3706029375
 20
19.9795618051
 10
-25.3825901984
 20
19.9520541948
 10
-25.3974446354
 20
19.9256283072
 10
-25.4151662486
 20
19.9002841422
  0
LINE
  5
2C5
100
AcDbEntity
  8
0
100
AcDbLine
 62
253
  6
CONTINUOUS
 10
-14.0526302596
 20
-31.5505143784
 11
-14.0566019874
 21
-31.5118220045
  0
LWPOLYLINE
  5
2C6
100
AcDbEntity
  8
0
100
AcDbPolyline
 62
253
  6
CONTINUOUS
 90
10
 70
0
 10
-14.0365509098
 20
-31.688065609
 10
-14.0367511639
 20
-31.6839173113
 10
-14.0378176236
 20
-31.6766142171
 10
-14.0393772511
 20
-31.6665401735
 10
-14.0406004503
 20
-31.6541174205
 10
-14.0416996302
 20
-31.6397993483
 10
-14.0436129189
 20
-31.6239109172
 10
-14.045780433
 20
-31.6067014096
 10
-14.0477360933
 20
-31.5885751109
 10
-14.0526302596
 20
-31.5505143784
  0
LWPOLYLINE
  5
2C7
100
AcDbEntity
  8
0
100
AcDbPolyline
 62
7
  6
CONTINUOUS
 90
17
 70
0
 10
-15.3081149469
 20
-31.0152666372
 10
-15.3088749062
 20
-30.9963969645
 10
-15.3035186782
 20
-30.965532081
 10
-15.2920462629
 20
-30.9226719867
 10
-15.2742814203
 20
-30.8673360258
 10
-15.2504003904
 20
-30.8000048542
 10
-15.2209318933
 20
-30.7221204391
 10
-15.1857697984
 20
-30.6334784955
 10
-15.1450202363
 20
-30.5342833084
 10
-15.0995303182
 20
-30.4265896991
 10
-15.0492098626
 20
-30.3102359789
 10
-14.994149051
 20
-30.1853838364
 10
-14.9354655383
 20
-30.0545731589
 10
-14.8730634791
 20
-29.9176340924
 10
-14.807038719
 20
-29.7747364908
 10
-14.7387964494
 20
-29.6289298037
 10
-14.6688050678
 20
-29.4812305143
  0
LWPOLYLINE
  5
2C8
100
AcDbEntity
  8
0
100
AcDbPolyline
 62
253
  6
CONTINUOUS
 90
37
 70
0
 10
-17.8
 20
-3.0
 10
-17.812232678
 20
-3.2654589178
 10
-17.8464834454
 20
-3.5249349425
 10
-17.9027523023
 20
-3.7784280741
 10
-17.9818771055
 20
-4.0278268452
 10
-18.0830199982
 20
-4.2712427232
 10
-18.20366741
 20
-4.5030101104
 10
-18.3443111698
 20
-4.7227880136
 10
-18.5044594487
 20
-4.9309174259
 10
-18.6801231898
 20
-5.1227557287
 10
-18.8712942182
 20
-5.2977396786
 10
-19.0779807089
 20
-5.456432519
 10
-19.2962181294
 20
-5.595881361
 10
-19.5266140683
 20
-5.7159380776
 10
-19.768560937
 20
-5.8167507957
 10
-20.0162714378
 20
-5.8958110075
 10
-20.2697308757
 20
-5.952516058
 10
-20.5289539456
 20
-5.9874686022
 10
-20.7881974353
 20
-5.9999680962
 10
-21.0473800819
 20
-5.9895699857
 10
-21.3065831483
 20
-5.9567188251
 10
-21.5603072105
 20
-5.902047734
 10
-21.8085643131
 20
-5.8250755203
 10
-22.0513424115
 20
-5.7262833761
 10
-22.283105949
 20
-5.607747997
 10
-22.5034984462
 20
-5.4692021996
 10
-22.7128763825
 20
-5.3109131672
 10
-22.9067736392
 20
-5.1357591464
 10
-23.085169398
 20
-4.9430407808
 10
-23.2480844773
 20
-4.7334574266
 10
-23.3911152133
 20
-4.5119853999
 10
-23.5136426477
 20
-4.2781887964
 10
-23.6162857389
 20
-4.0325035203
 10
-23.6964976986
 20
-3.7812135998
 10
-23.7534295972
 20
-3.5264137109
 10
-23.7879303644
 20
-3.2660091777
 10
-23.8
 20
-3.0
  0
LINE
  5
2C9
100
AcDbEntity
  8
0
100
AcDbLine
 62
253
  6
CONTINUOUS
 10
-20.4692403168
 20
-11.1345488728
 11
-20.3022500527
 21
-10.6445364635
  0
LINE
  5
2CA
100
AcDbEntity
  8
0
100
AcDbLine
 62
253
  6
CONTINUOUS
 10
9.5674108257
 20
20.8315185192
 11
10.0480119598
 21
21.0239252615
  0
LINE
  5
2CB
100
AcDbEntity
  8
0
100
AcDbLine
 62
7
  6
CONTINUOUS
 10
1.7416662216
 20
-16.0425531864
 11
1.9458337784
 21
-16.0
  0
LINE
  5
2CC
100
AcDbEntity
  8
0
100
AcDbLine
 62
7
  6
CONTINUOUS
 10
2.0916662216
 20
-18.0
 11
1.8583337784
 21
-18.0
  0
LINE
  5
2CD
100
AcDbEntity
  8
0
100
AcDbLine
 62
7
  6
CONTINUOUS
 10
0.75
 20
-18.0
 11
0.6333337784
 21
-18.0
  0
LINE
  5
2CE
100
AcDbEntity
  8
0
100
AcDbLine
 62
7
  6
CONTINUOUS
 10
-0.65
 20
-18.0
 11
-0.825
 21
-18.0
  0
LINE
  5
2CF
100
AcDbEntity
  8
0
100
AcDbLine
 62
7
  6
CONTINUOUS
 10
-1.6416668892
 20
-18.0
 11
-1.8166668892
 21
-18.0
  0
LINE
  5
2D0
100
AcDbEntity
  8
0
100
AcDbLine
 62
7
  6
CONTINUOUS
 10
-3.6833331108
 20
-18.0
 11
-3.8583331108
 21
-18.0
  0
LINE
  5
2D1
100
AcDbEntity
  8
0
100
AcDbLine
 62
7
  6
CONTINUOUS
 10
-5.4333334446
 20
-18.0
 11
-5.6083334446
 21
-18.0
  0
LINE
  5
2D2
100
AcDbEntity
  8
0
100
AcDbLine
 62
7
  6
CONTINUOUS
 10
-6.425
 20
-18.0
 11
-6.6
 21
-18.0
  0
LINE
  5
2D3
100
AcDbEntity
  8
0
100
AcDbLine
 62
7
  6
CONTINUOUS
 10
-6.8333334446
 20
-18.0
 11
-7.0083334446
 21
-18.0
  0
LINE
  5
2D4
100
AcDbEntity
  8
0
100
AcDbLine
 62
7
  6
CONTINUOUS
 10
-7.825
 20
-18.0
 11
-8.0
 21
-18.0
  0
LINE
  5
2D5
100
AcDbEntity
  8
0
100
AcDbLine
 62
7
  6
CONTINUOUS
 10
-8.2333332777
 20
-18.0
 11
-8.4083332777
 21
-18.0
  0
LINE
  5
2D6
100
AcDbEntity
  8
0
100
AcDbLine
 62
7
  6
CONTINUOUS
 10
-9.225
 20
-18.0
 11
-9.4
 21
-18.0
  0
LINE
  5
2D7
100
AcDbEntity
  8
0
100
AcDbLine
 62
7
  6
CONTINUOUS
 10
-9.6333333611
 20
-18.0
 11
-9.8083333611
 21
-18.0
  0
LINE
  5
2D8
100
AcDbEntity
  8
0
100
AcDbLine
 62
7
  6
CONTINUOUS
 10
-10.625
 20
-18.0
 11
-10.8
 21
-18.0
  0
LINE
  5
2D9
100
AcDbEntity
  8
0
100
AcDbLine
 62
7
  6
CONTINUOUS
 10
0.6041662216
 20
-17.7872340381
 11
0.7791662216
 21
-17.7872340381
  0
LINE
  5
2DA
100
AcDbEntity
  8
0
100
AcDbLine
 62
7
  6
CONTINUOUS
 10
1.8875
 20
-17.7872340381
 11
2.0625
 21
-17.7872340381
  0
LINE
  5
2DB
100
AcDbEntity
  8
0
100
AcDbLine
 62
7
  6
CONTINUOUS
 10
0.225
 20
-17.5319148898
 11
0.3708331108
 21
-17.5319148898
  0
LINE
  5
2DC
100
AcDbEntity
  8
0
100
AcDbLine
 62
7
  6
CONTINUOUS
 10
1.45
 20
-17.5319148898
 11
1.5958337784
 21
-17.5319148898
  0
LINE
  5
2DD
100
AcDbEntity
  8
0
100
AcDbLine
 62
7
  6
CONTINUOUS
 10
-1.35
 20
-17.4042553306
 11
-1.6416668892
 21
-17.4042553306
  0
LINE
  5
2DE
100
AcDbEntity
  8
0
100
AcDbLine
 62
7
  6
CONTINUOUS
 10
-1.8166668892
 20
-17.4042553306
 11
-2.5166668892
 21
-17.4042553306
  0
LINE
  5
2DF
100
AcDbEntity
  8
0
100
AcDbLine
 62
7
  6
CONTINUOUS
 10
-3.3916668892
 20
-17.4042553306
 11
-3.6833331108
 21
-17.4042553306
  0
LINE
  5
2E0
100
AcDbEntity
  8
0
100
AcDbLine
 62
7
  6
CONTINUOUS
 10
-3.8583331108
 20
-17.4042553306
 11
-4.5583331108
 21
-17.4042553306
  0
LINE
  5
2E1
100
AcDbEntity
  8
0
100
AcDbLine
 62
7
  6
CONTINUOUS
 10
0.75
 20
-17.2765957713
 11
0.6041662216
 21
-17.2765957713
  0
LINE
  5
2E2
100
AcDbEntity
  8
0
100
AcDbLine
 62
7
  6
CONTINUOUS
 10
-2.75
 20
-17.2765957713
 11
-3.1583331108
 21
-17.2765957713
  0
LINE
  5
2E3
100
AcDbEntity
  8
0
100
AcDbLine
 62
7
  6
CONTINUOUS
 10
-4.7916668892
 20
-17.2765957713
 11
-5.2
 21
-17.2765957713
  0
LINE
  5
2E4
100
AcDbEntity
  8
0
100
AcDbLine
 62
7
  6
CONTINUOUS
 10
-4.3541668892
 20
-17.1489361525
 11
-3.8583331108
 21
-17.1489361525
  0
LINE
  5
2E5
100
AcDbEntity
  8
0
100
AcDbLine
 62
7
  6
CONTINUOUS
 10
-3.6833331108
 20
-17.1489361525
 11
-3.3916668892
 21
-17.1489361525
  0
LINE
  5
2E6
100
AcDbEntity
  8
0
100
AcDbLine
 62
7
  6
CONTINUOUS
 10
-2.3125
 20
-17.1489361525
 11
-1.8166668892
 21
-17.1489361525
  0
LINE
  5
2E7
100
AcDbEntity
  8
0
100
AcDbLine
 62
7
  6
CONTINUOUS
 10
-1.6416668892
 20
-17.1489361525
 11
-1.35
 21
-17.1489361525
  0
LINE
  5
2E8
100
AcDbEntity
  8
0
100
AcDbLine
 62
7
  6
CONTINUOUS
 10
-5.2
 20
-17.0638297796
 11
-4.7916668892
 21
-17.0638297796
  0
LINE
  5
2E9
100
AcDbEntity
  8
0
100
AcDbLine
 62
7
  6
CONTINUOUS
 10
-3.1583331108
 20
-17.0638297796
 11
-2.75
 21
-17.0638297796
  0
LINE
  5
2EA
100
AcDbEntity
  8
0
100
AcDbLine
 62
7
  6
CONTINUOUS
 10
2.0333337784
 20
-17.0638297796
 11
1.9166662216
 21
-17.0638297796
  0
LINE
  5
2EB
100
AcDbEntity
  8
0
100
AcDbLine
 62
7
  6
CONTINUOUS
 10
0.575
 20
-17.0638297796
 11
0.7791662216
 21
-17.0638297796
  0
LINE
  5
2EC
100
AcDbEntity
  8
0
100
AcDbLine
 62
7
  6
CONTINUOUS
 10
1.9166662216
 20
-16.893617034
 11
2.0333337784
 21
-16.893617034
  0
LINE
  5
2ED
100
AcDbEntity
  8
0
100
AcDbLine
 62
7
  6
CONTINUOUS
 10
1.625
 20
-16.4680850506
 11
1.4791662216
 21
-16.4680850506
  0
LINE
  5
2EE
100
AcDbEntity
  8
0
100
AcDbLine
 62
7
  6
CONTINUOUS
 10
2.0333337784
 20
-16.2127659321
 11
1.9166662216
 21
-16.2127659321
  0
LINE
  5
2EF
100
AcDbEntity
  8
0
100
AcDbLine
 62
7
  6
CONTINUOUS
 10
0.7791662216
 20
-16.2127659321
 11
0.575
 21
-16.2127659321
  0
LINE
  5
2F0
100
AcDbEntity
  8
0
100
AcDbLine
 62
7
  6
CONTINUOUS
 10
-0.2416668892
 20
-16.2127659321
 11
-1.1166668892
 21
-16.2127659321
  0
LINE
  5
2F1
100
AcDbEntity
  8
0
100
AcDbLine
 62
7
  6
CONTINUOUS
 10
-10.8
 20
-16.0
 11
-10.625
 21
-16.0
  0
LINE
  5
2F2
100
AcDbEntity
  8
0
100
AcDbLine
 62
7
  6
CONTINUOUS
 10
-9.8083333611
 20
-16.0
 11
-9.6333333611
 21
-16.0
  0
LINE
  5
2F3
100
AcDbEntity
  8
0
100
AcDbLine
 62
7
  6
CONTINUOUS
 10
-9.4
 20
-16.0
 11
-9.225
 21
-16.0
  0
LINE
  5
2F4
100
AcDbEntity
  8
0
100
AcDbLine
 62
7
  6
CONTINUOUS
 10
-8.4083332777
 20
-16.0
 11
-8.2333332777
 21
-16.0
  0
LINE
  5
2F5
100
AcDbEntity
  8
0
100
AcDbLine
 62
7
  6
CONTINUOUS
 10
-8.0
 20
-16.0
 11
-7.825
 21
-16.0
  0
LINE
  5
2F6
100
AcDbEntity
  8
0
100
AcDbLine
 62
7
  6
CONTINUOUS
 10
-7.0083334446
 20
-16.0
 11
-6.8333334446
 21
-16.0
  0
LINE
  5
2F7
100
AcDbEntity
  8
0
100
AcDbLine
 62
7
  6
CONTINUOUS
 10
-6.6
 20
-16.0
 11
-6.425
 21
-16.0
  0
LINE
  5
2F8
100
AcDbEntity
  8
0
100
AcDbLine
 62
7
  6
CONTINUOUS
 10
-5.6083334446
 20
-16.0
 11
-5.4333334446
 21
-16.0
  0
LINE
  5
2F9
100
AcDbEntity
  8
0
100
AcDbLine
 62
7
  6
CONTINUOUS
 10
-3.8583331108
 20
-16.0
 11
-3.6833331108
 21
-16.0
  0
LINE
  5
2FA
100
AcDbEntity
  8
0
100
AcDbLine
 62
7
  6
CONTINUOUS
 10
-1.8166668892
 20
-16.0
 11
-1.6416668892
 21
-16.0
  0
LINE
  5
2FB
100
AcDbEntity
  8
0
100
AcDbLine
 62
7
  6
CONTINUOUS
 10
-1.1166668892
 20
-16.0
 11
-0.0666668892
 21
-16.0
  0
LINE
  5
2FC
100
AcDbEntity
  8
0
100
AcDbLine
 62
7
  6
CONTINUOUS
 10
0.6041662216
 20
-16.0
 11
0.75
 21
-16.0
  0
LINE
  5
2FD
100
AcDbEntity
  8
0
100
AcDbLine
 62
7
  6
CONTINUOUS
 10
1.9458337784
 20
-16.0
 11
2.0041662216
 21
-16.0
  0
LWPOLYLINE
  5
2FE
100
AcDbEntity
  8
0
100
AcDbPolyline
 62
7
  6
CONTINUOUS
 90
3
 70
0
 10
25.0550404127
 20
-20.1067645745
 10
25.1917427126
 20
-20.129557997
 10
25.3625660626
 20
-20.1585724233
  0
LINE
  5
2FF
100
AcDbEntity
  8
0
100
AcDbLine
 62
7
  6
CONTINUOUS
 10
2.0041662216
 20
-16.0
 11
2.2083337784
 21
-16.0425531864
  0
LINE
  5
300
100
AcDbEntity
  8
0
100
AcDbLine
 62
7
  6
CONTINUOUS
 10
2.2083337784
 20
-17.106382966
 11
2.0333337784
 21
-17.0638297796
  0
LINE
  5
301
100
AcDbEntity
  8
0
100
AcDbLine
 62
7
  6
CONTINUOUS
 10
0.6333337784
 20
-18.0
 11
0.4875
 21
-17.9574468099
  0
LINE
  5
302
100
AcDbEntity
  8
0
100
AcDbLine
 62
7
  6
CONTINUOUS
 10
1.7416662216
 20
-17.7446808517
 11
1.8875
 21
-17.7872340381
  0
LINE
  5
303
100
AcDbEntity
  8
0
100
AcDbLine
 62
7
  6
CONTINUOUS
 10
0.6041662216
 20
-17.2765957713
 11
0.4583337784
 21
-17.2340425253
  0
LINE
  5
304
100
AcDbEntity
  8
0
100
AcDbLine
 62
7
  6
CONTINUOUS
 10
0.75
 20
-16.0
 11
0.8958337784
 21
-16.0425531864
  0
LINE
  5
305
100
AcDbEntity
  8
0
100
AcDbLine
 62
7
  6
CONTINUOUS
 10
2.1791662216
 20
-16.2553191185
 11
2.0333337784
 21
-16.2127659321
  0
LINE
  5
306
100
AcDbEntity
  8
0
100
AcDbLine
 62
7
  6
CONTINUOUS
 10
26.0907616911
 20
-24.7074022657
 11
25.8076155408
 21
-24.621722592
  0
LINE
  5
307
100
AcDbEntity
  8
0
100
AcDbLine
 62
7
  6
CONTINUOUS
 10
1.8583337784
 20
-18.0
 11
1.7416662216
 21
-17.9574468099
  0
LINE
  5
308
100
AcDbEntity
  8
0
100
AcDbLine
 62
7
  6
CONTINUOUS
 10
0.5166662216
 20
-17.7446808517
 11
0.6041662216
 21
-17.7872340381
  0
LINE
  5
309
100
AcDbEntity
  8
0
100
AcDbLine
 62
7
  6
CONTINUOUS
 10
0.4875
 20
-17.0212765932
 11
0.575
 21
-17.0638297796
  0
LWPOLYLINE
  5
30A
100
AcDbEntity
  8
0
100
AcDbPolyline
 62
253
  6
CONTINUOUS
 90
9
 70
0
 10
17.9296930561
 20
-26.2456394689
 10
17.9303916125
 20
-26.2459934067
 10
17.9314527567
 20
-26.2468672597
 10
17.9328764888
 20
-26.2482610278
 10
17.9346647767
 20
-26.2501769398
 10
17.9368156524
 20
-26.252612767
 10
17.939323212
 20
-26.2555618232
 10
17.9421854873
 20
-26.2590218796
 10
17.9454044466
 20
-26.262995165
  0
LINE
  5
30B
100
AcDbEntity
  8
0
100
AcDbLine
 62
7
  6
CONTINUOUS
 10
-1.9666665554
 20
-21.0425531864
 11
-1.85
 21
-21.1276595592
  0
LINE
  5
30C
100
AcDbEntity
  8
0
100
AcDbLine
 62
7
  6
CONTINUOUS
 10
-0.9166665554
 20
-22.4042553306
 11
-1.4708334446
 21
-21.9787234068
  0
LINE
  5
30D
100
AcDbEntity
  8
0
100
AcDbLine
 62
7
  6
CONTINUOUS
 10
-2.5791667223
 20
-22.6170212626
 11
-2.4916667223
 21
-22.7021276653
  0
LINE
  5
30E
100
AcDbEntity
  8
0
100
AcDbLine
 62
7
  6
CONTINUOUS
 10
-1.9083334446
 20
-21.3829786778
 11
-1.9958334446
 21
-21.2978723049
  0
LINE
  5
30F
100
AcDbEntity
  8
0
100
AcDbLine
 62
7
  6
CONTINUOUS
 10
-3.3083332777
 20
-21.0425531864
 11
-3.1916667223
 21
-21.1702127457
  0
LINE
  5
310
100
AcDbEntity
  8
0
100
AcDbLine
 62
7
  6
CONTINUOUS
 10
-2.6375
 20
-22.8723404259
 11
-2.7541667223
 21
-22.7021276653
  0
LINE
  5
311
100
AcDbEntity
  8
0
100
AcDbLine
 62
7
  6
CONTINUOUS
 10
-3.2791667223
 20
-21.3404254913
 11
-3.3375
 21
-21.2553191185
  0
LINE
  5
312
100
AcDbEntity
  8
0
100
AcDbLine
 62
7
  6
CONTINUOUS
 10
-10.3041666806
 20
-16.9787234068
 11
-10.8
 21
-16.0
  0
LINE
  5
313
100
AcDbEntity
  8
0
100
AcDbLine
 62
7
  6
CONTINUOUS
 10
-8.9041667223
 20
-16.9787234068
 11
-9.4
 21
-16.0
  0
LINE
  5
314
100
AcDbEntity
  8
0
100
AcDbLine
 62
7
  6
CONTINUOUS
 10
-9.8083333611
 20
-18.0
 11
-10.2166666806
 21
-17.1914893389
  0
LINE
  5
315
100
AcDbEntity
  8
0
100
AcDbLine
 62
7
  6
CONTINUOUS
 10
-10.625
 20
-16.0
 11
-10.2166666806
 21
-16.8085106611
  0
LINE
  5
316
100
AcDbEntity
  8
0
100
AcDbLine
 62
7
  6
CONTINUOUS
 10
-8.4083332777
 20
-18.0
 11
-8.8166667223
 21
-17.1914893389
  0
LINE
  5
317
100
AcDbEntity
  8
0
100
AcDbLine
 62
7
  6
CONTINUOUS
 10
-9.225
 20
-16.0
 11
-8.8166667223
 21
-16.8085106611
  0
LINE
  5
318
100
AcDbEntity
  8
0
100
AcDbLine
 62
7
  6
CONTINUOUS
 10
-10.1291666806
 20
-16.9787234068
 11
-9.6333333611
 21
-18.0
  0
LINE
  5
319
100
AcDbEntity
  8
0
100
AcDbLine
 62
7
  6
CONTINUOUS
 10
-8.7291667223
 20
-16.9787234068
 11
-8.2333332777
 21
-18.0
  0
LINE
  5
31A
100
AcDbEntity
  8
0
100
AcDbLine
 62
7
  6
CONTINUOUS
 10
-24.621722592
 20
25.8076155408
 11
-24.7074022657
 21
26.0907616911
  0
LINE
  5
31B
100
AcDbEntity
  8
0
100
AcDbLine
 62
7
  6
CONTINUOUS
 10
-20.1589518006
 20
25.3626682274
 11
-20.1353457237
 21
25.2259209118
  0
LWPOLYLINE
  5
31C
100
AcDbEntity
  8
0
100
AcDbPolyline
 62
7
  6
CONTINUOUS
 90
3
 70
0
 10
-20.1353457237
 20
25.2259209118
 10
-20.1123954921
 20
25.0892104005
 10
-20.1067645731
 20
25.055040412
  0
LWPOLYLINE
  5
31D
100
AcDbEntity
  8
0
100
AcDbPolyline
 62
253
  6
CONTINUOUS
 90
7
 70
0
 10
-14.0566019874
 20
-31.5118220045
 10
-14.0591518666
 20
-31.4922576995
 10
-14.0615340941
 20
-31.4720057465
 10
-14.0635288165
 20
-31.4523956816
 10
-14.0657066227
 20
-31.4332861803
 10
-14.0681423667
 20
-31.413008942
 10
-14.0705158082
 20
-31.3907731356
  0
LINE
  5
31E
100
AcDbEntity
  8
0
100
AcDbLine
 62
253
  6
CONTINUOUS
 10
-13.0
 20
39.0
 11
-13.0
 21
38.9475922207
  0
LINE
  5
31F
100
AcDbEntity
  8
0
100
AcDbLine
 62
253
  6
CONTINUOUS
 10
-13.0
 20
38.3887984284
 11
-13.0
 21
33.332120514
  0
LINE
  5
320
100
AcDbEntity
  8
0
100
AcDbLine
 62
253
  6
CONTINUOUS
 10
-13.0
 20
-33.332120514
 11
-13.0
 21
-38.3887984284
  0
LINE
  5
321
100
AcDbEntity
  8
0
100
AcDbLine
 62
253
  6
CONTINUOUS
 10
-13.0
 20
-38.9475922207
 11
-13.0
 21
-39.0
  0
LWPOLYLINE
  5
322
100
AcDbEntity
  8
0
100
AcDbPolyline
 62
253
  6
CONTINUOUS
 90
10
 70
0
 10
-13.9525351702
 20
-31.4483149124
 10
-13.9538984633
 20
-31.4889259624
 10
-13.9575685359
 20
-31.5275957958
 10
-13.9634728485
 20
-31.563559402
 10
-13.9714945245
 20
-31.5961047943
 10
-13.9814750135
 20
-31.6245886543
 10
-13.993217512
 20
-31.6484483959
 10
-14.0064901945
 20
-31.6672114132
 10
-14.0210305084
 20
-31.6805051529
 10
-14.0365509098
 20
-31.688065609
  0
LWPOLYLINE
  5
323
100
AcDbEntity
  8
0
100
AcDbPolyline
 62
7
  6
CONTINUOUS
 90
9
 70
0
 10
-3.7463657636
 20
32.294518016
 10
-3.777468556
 20
32.1923660247
 10
-3.8085136402
 20
32.0921044704
 10
-3.8395100361
 20
31.9937461935
 10
-3.8704415515
 20
31.8974488813
 10
-3.9013267447
 20
31.80307389
 10
-3.9322523505
 20
31.7102037569
 10
-3.9632773471
 20
31.6187227625
 10
-3.9943995623
 20
31.528799284
  0
LINE
  5
324
100
AcDbEntity
  8
0
100
AcDbLine
 62
7
  6
CONTINUOUS
 10
-3.9943995623
 20
31.528799284
 11
-4.0434971211
 21
31.3906455976
  0
LWPOLYLINE
  5
325
100
AcDbEntity
  8
0
100
AcDbPolyline
 62
7
  6
CONTINUOUS
 90
17
 70
0
 10
-25.7726104922
 20
-14.4719331759
 10
-25.7827156838
 20
-14.4877798512
 10
-25.8047127612
 20
-14.5099436074
 10
-25.8386017245
 20
-14.5384244446
 10
-25.8848010449
 20
-14.5735135186
 10
-25.9428922511
 20
-14.6149196736
 10
-26.0116199294
 20
-14.661769442
 10
-26.0911900072
 20
-14.7141709687
 10
-26.1813965572
 20
-14.7720161087
 10
-26.280366383
 20
-14.8341069595
 10
-26.388266395
 20
-14.9005243944
 10
-26.5049296829
 20
-14.97118754
 10
-26.6279823202
 20
-15.0446558738
 10
-26.7576002623
 20
-15.1210135477
 10
-26.8936075538
 20
-15.2001764099
 10
-27.0331024027
 20
-15.2804514819
 10
-27.1751175449
 20
-15.3612744377
  0
LWPOLYLINE
  5
326
100
AcDbEntity
  8
0
100
AcDbPolyline
 62
7
  6
CONTINUOUS
 90
12
 70
0
 10
-26.947962538
 20
-14.9659046885
 10
-26.9424352665
 20
-14.9589369416
 10
-26.9306499998
 20
-14.9487172485
 10
-26.9126067378
 20
-14.9352456091
 10
-26.8878330629
 20
-14.918219753
 10
-26.8568013927
 20
-14.8979419507
 10
-26.8209289802
 20
-14.8753190133
 10
-26.7800732521
 20
-14.8502807354
 10
-26.7343767816
 20
-14.8228973225
 10
-26.6856845417
 20
-14.7942862027
 10
-26.6346115234
 20
-14.7648198521
 10
-26.5805427357
 20
-14.7341257947
  0
LWPOLYLINE
  5
327
100
AcDbEntity
  8
0
100
AcDbPolyline
 62
7
  6
CONTINUOUS
 90
13
 70
0
 10
13.7137048522
 20
27.7555067747
 10
13.7203664765
 20
27.7613758306
 10
13.7299486594
 20
27.7736657469
 10
13.742451401
 20
27.7923765236
 10
13.7581518282
 20
27.8179957515
 10
13.7767728141
 20
27.8500358399
 10
13.7974829773
 20
27.8870340156
 10
13.8203449852
 20
27.929136335
 10
13.8452961705
 20
27.9761967418
 10
13.8713171494
 20
28.0263142943
 10
13.8980681275
 20
28.0788553451
 10
13.9258888993
 20
28.1344535416
 10
13.9547794648
 20
28.1931088837
  0
LWPOLYLINE
  5
328
100
AcDbEntity
  8
0
100
AcDbPolyline
 62
253
  6
CONTINUOUS
 90
10
 70
0
 10
9.3429208242
 20
21.9971955228
 10
9.3122191517
 20
21.9715145359
 10
9.2843020916
 20
21.9451545307
 10
9.2597319134
 20
21.9186209925
 10
9.2390425361
 20
21.8924706055
 10
9.2226246852
 20
21.867173527
 10
9.2107881347
 20
21.843121929
 10
9.2038658352
 20
21.8207952304
 10
9.2021303322
 20
21.8007298007
 10
9.2057301994
 20
21.7833924574
  0
LINE
  5
329
100
AcDbEntity
  8
0
100
AcDbLine
 62
7
  6
CONTINUOUS
 10
-28.1340719255
 20
-3.4923483348
 11
-28.0905633426
 21
-3.4601525878
  0
LWPOLYLINE
  5
32A
100
AcDbEntity
  8
0
100
AcDbPolyline
 62
253
  6
CONTINUOUS
 90
6
 70
0
 10
9.3962794789
 20
21.9000932251
 10
9.3754795548
 20
21.8866107731
 10
9.3554168092
 20
21.8745161851
 10
9.3355915882
 20
21.8629023494
 10
9.3159647876
 20
21.8507837768
 10
9.296461093
 20
21.8383921805
  0
LWPOLYLINE
  5
32B
100
AcDbEntity
  8
0
100
AcDbPolyline
 62
7
  6
CONTINUOUS
 90
10
 70
0
 10
-27.3309307122
 20
-2.942830178
 10
-27.4232785777
 20
-3.0018116734
 10
-27.5135443766
 20
-3.060393243
 10
-27.6017316806
 20
-3.1185590356
 10
-27.6877264785
 20
-3.1762143791
 10
-27.7716502972
 20
-3.233422139
 10
-27.853858617
 20
-3.2904067959
 10
-27.934470787
 20
-3.3472372846
 10
-28.0133716068
 20
-3.4038229159
 10
-28.0905633426
 20
-3.4601525878
  0
LWPOLYLINE
  5
32C
100
AcDbEntity
  8
0
100
AcDbPolyline
 62
253
  6
CONTINUOUS
 90
3
 70
0
 10
9.4178469508
 20
21.9133039147
 10
9.4035697429
 20
21.9045223383
 10
9.3962794789
 20
21.9000932251
  0
LWPOLYLINE
  5
32D
100
AcDbEntity
  8
0
100
AcDbPolyline
 62
253
  6
CONTINUOUS
 90
3
 70
0
 10
9.4395089659
 20
21.9264554895
 10
9.4323059336
 20
21.9220453438
 10
9.4178469508
 20
21.9133039147
  0
LWPOLYLINE
  5
32E
100
AcDbEntity
  8
0
100
AcDbPolyline
 62
253
  6
CONTINUOUS
 90
3
 70
0
 10
9.4608957619
 20
21.9396527439
 10
9.4537394793
 20
21.9352759334
 10
9.4395089659
 20
21.9264554895
  0
LWPOLYLINE
  5
32F
100
AcDbEntity
  8
0
100
AcDbPolyline
 62
253
  6
CONTINUOUS
 90
7
 70
0
 10
9.296461093
 20
21.8383921805
 10
9.2593264863
 20
21.8167668176
 10
9.2436502396
 20
21.8066190381
 10
9.2297187628
 20
21.7980822396
 10
9.2179256709
 20
21.7917859021
 10
9.2096435465
 20
21.7869607841
 10
9.2057301994
 20
21.7833924574
  0
LWPOLYLINE
  5
330
100
AcDbEntity
  8
0
100
AcDbPolyline
 62
7
  6
CONTINUOUS
 90
13
 70
0
 10
-28.4278742754
 20
-15.939145633
 10
-28.419017706
 20
-15.9381402535
 10
-28.4040886548
 20
-15.9335519108
 10
-28.3830871218
 20
-15.9253806048
 10
-28.3555064638
 20
-15.9133858977
 10
-28.321853324
 20
-15.8978082274
 10
-28.2836476324
 20
-15.8793689072
 10
-28.240754226
 20
-15.8579841821
 10
-28.1933082677
 20
-15.8337378071
 10
-28.1432351757
 20
-15.8076023606
 10
-28.0911767561
 20
-15.7799020354
 10
-28.0364912028
 20
-15.7503126386
 10
-27.9791785159
 20
-15.7188341703
  0
LWPOLYLINE
  5
331
100
AcDbEntity
  8
0
100
AcDbPolyline
 62
7
  6
CONTINUOUS
 90
13
 70
0
 10
-30.6621627143
 20
-16.7695491449
 10
-30.6568697794
 20
-16.7689574383
 10
-30.6479314153
 20
-16.7662149349
 10
-30.6353476219
 20
-16.7613216344
 10
-30.6188142992
 20
-16.7541332328
 10
-30.5986355472
 20
-16.7447940343
 10
-30.5757236664
 20
-16.7337369516
 10
-30.5499979097
 20
-16.7209119182
 10
-30.5215390242
 20
-16.7063690007
 10
-30.4915015517
 20
-16.6906913119
 10
-30.4602703396
 20
-16.6740732226
 10
-30.4274605406
 20
-16.656320362
 10
-22.2307195592
 20
-12.1129668053
  0
LINE
  5
332
100
AcDbEntity
  8
0
100
AcDbLine
 62
253
  6
CONTINUOUS
 10
-39.0
 20
-13.0
 11
-38.9475922207
 21
-13.0
  0
LINE
  5
333
100
AcDbEntity
  8
0
100
AcDbLine
 62
253
  6
CONTINUOUS
 10
-38.3887984284
 20
-13.0
 11
-33.332120514
 21
-13.0
  0
LINE
  5
334
100
AcDbEntity
  8
0
100
AcDbLine
 62
253
  6
CONTINUOUS
 10
33.332120514
 20
-13.0
 11
38.3887984284
 21
-13.0
  0
LINE
  5
335
100
AcDbEntity
  8
0
100
AcDbLine
 62
253
  6
CONTINUOUS
 10
38.9475922207
 20
-13.0
 11
39.0
 21
-13.0
  0
LINE
  5
336
100
AcDbEntity
  8
0
100
AcDbLine
 62
253
  6
CONTINUOUS
 10
23.5466235048
 20
-12.2329150058
 11
23.7025757558
 21
-12.2329150058
  0
LINE
  5
337
100
AcDbEntity
  8
0
100
AcDbLine
 62
253
  6
CONTINUOUS
 10
23.7025757558
 20
-11.8087155546
 11
23.5466235048
 21
-11.8087155546
  0
LWPOLYLINE
  5
338
100
AcDbEntity
  8
0
100
AcDbPolyline
 62
7
  6
CONTINUOUS
 90
10
 70
0
 10
25.4136728536
 20
-19.8991451767
 10
25.3808123075
 20
-19.8913978198
 10
25.3475919056
 20
-19.8841341438
 10
25.3140038364
 20
-19.8773481384
 10
25.2797965168
 20
-19.8713482633
 10
25.2452153559
 20
-19.8658212276
 10
25.2109988777
 20
-19.8598289639
 10
25.1773939334
 20
-19.8530593168
 10
25.1441595532
 20
-19.8458291023
 10
25.1113031382
 20
-19.838144282
  0
LINE
  5
339
100
AcDbEntity
  8
0
100
AcDbLine
 62
7
  6
CONTINUOUS
 10
26.8716706564
 20
-20.3715537795
 11
27.1641685799
 21
-20.44768802
  0
LWPOLYLINE
  5
33A
100
AcDbEntity
  8
0
100
AcDbPolyline
 62
7
  6
CONTINUOUS
 90
9
 70
0
 10
-32.294518016
 20
-3.7463657636
 10
-32.1923660247
 20
-3.777468556
 10
-32.0921044704
 20
-3.8085136402
 10
-31.9937461935
 20
-3.8395100361
 10
-31.8974488813
 20
-3.8704415515
 10
-31.80307389
 20
-3.9013267447
 10
-31.7102037569
 20
-3.9322523505
 10
-31.6187227625
 20
-3.9632773471
 10
-31.528799284
 20
-3.9943995623
  0
LINE
  5
33B
100
AcDbEntity
  8
0
100
AcDbLine
 62
7
  6
CONTINUOUS
 10
-31.528799284
 20
-3.9943995623
 11
-31.3906455976
 21
-4.0434971211
  0
LINE
  5
33C
100
AcDbEntity
  8
0
100
AcDbLine
 62
7
  6
CONTINUOUS
 10
0.8666662216
 20
-16.2553191185
 11
0.7791662216
 21
-16.2127659321
  0
LINE
  5
33D
100
AcDbEntity
  8
0
100
AcDbLine
 62
7
  6
CONTINUOUS
 10
2.2666662216
 20
-16.9787234068
 11
2.4125
 21
-17.0638297796
  0
LWPOLYLINE
  5
33E
100
AcDbEntity
  8
0
100
AcDbPolyline
 62
253
  6
CONTINUOUS
 90
10
 70
0
 10
18.0033544686
 20
-25.827884595
 10
18.0042202112
 20
-25.8284773503
 10
18.0056069788
 20
-25.8298162809
 10
18.0075138625
 20
-25.831900089
 10
18.0099397525
 20
-25.8347266151
 10
18.0128825188
 20
-25.8382933917
 10
18.0163390046
 20
-25.8425976342
 10
18.0203061251
 20
-25.8476355116
 10
18.0247808786
 20
-25.8534021628
 10
18.0297595237
 20
-25.8598922441
  0
LINE
  5
33F
100
AcDbEntity
  8
0
100
AcDbLine
 62
7
  6
CONTINUOUS
 10
1.7416662216
 20
-17.9574468099
 11
1.625
 21
-17.8723404259
  0
LINE
  5
340
100
AcDbEntity
  8
0
100
AcDbLine
 62
7
  6
CONTINUOUS
 10
1.6833337784
 20
-17.7021276653
 11
1.7416662216
 21
-17.7446808517
  0
LINE
  5
341
100
AcDbEntity
  8
0
100
AcDbLine
 62
7
  6
CONTINUOUS
 10
2.2083337784
 20
-16.0425531864
 11
2.325
 21
-16.1276595592
  0
LINE
  5
342
100
AcDbEntity
  8
0
100
AcDbLine
 62
7
  6
CONTINUOUS
 10
0.4875
 20
-17.9574468099
 11
0.3416668892
 21
-17.8297872394
  0
LINE
  5
343
100
AcDbEntity
  8
0
100
AcDbLine
 62
7
  6
CONTINUOUS
 10
0.4583337784
 20
-17.2340425253
 11
0.3125
 21
-17.106382966
  0
LINE
  5
344
100
AcDbEntity
  8
0
100
AcDbLine
 62
7
  6
CONTINUOUS
 10
0.8958337784
 20
-16.0425531864
 11
1.0416662216
 21
-16.1702127457
  0
LINE
  5
345
100
AcDbEntity
  8
0
100
AcDbLine
 62
7
  6
CONTINUOUS
 10
0.4291662216
 20
-17.6595744789
 11
0.5166662216
 21
-17.7446808517
  0
LINE
  5
346
100
AcDbEntity
  8
0
100
AcDbLine
 62
7
  6
CONTINUOUS
 10
0.4
 20
-16.9361702204
 11
0.4875
 21
-17.0212765932
  0
LINE
  5
347
100
AcDbEntity
  8
0
100
AcDbLine
 62
7
  6
CONTINUOUS
 10
1.625
 20
-17.8723404259
 11
1.5375
 21
-17.7872340381
  0
LINE
  5
348
100
AcDbEntity
  8
0
100
AcDbLine
 62
7
  6
CONTINUOUS
 10
0.9541662216
 20
-16.3404254913
 11
0.8666662216
 21
-16.2553191185
  0
LINE
  5
349
100
AcDbEntity
  8
0
100
AcDbLine
 62
7
  6
CONTINUOUS
 10
3.4923483348
 20
-28.1340719255
 11
3.4601525878
 21
-28.0905633426
  0
LWPOLYLINE
  5
34A
100
AcDbEntity
  8
0
100
AcDbPolyline
 62
253
  6
CONTINUOUS
 90
13
 70
0
 10
-24.9799209229
 20
13.4883498144
 10
-24.9699530942
 20
13.473967339
 10
-24.9637097308
 20
13.4562687959
 10
-24.9612955448
 20
13.4355510211
 10
-24.9627510265
 20
13.4121614882
 10
-24.9680517648
 20
13.3864924809
 10
-24.9771088571
 20
13.358974514
 10
-24.9897703998
 20
13.3300691123
 10
-25.0058240365
 20
13.3002610705
 10
-25.0250005193
 20
13.2700503221
 10
-25.0469782249
 20
13.2399435547
 10
-25.0713885482
 20
13.210445712
 10
-25.0978220849
 20
13.1820515251
  0
LINE
  5
34B
100
AcDbEntity
  8
0
100
AcDbLine
 62
7
  6
CONTINUOUS
 10
-1.85
 20
-21.1276595592
 11
-1.7333334446
 21
-21.2978723049
  0
LWPOLYLINE
  5
34C
100
AcDbEntity
  8
0
100
AcDbPolyline
 62
7
  6
CONTINUOUS
 90
10
 70
0
 10
2.942830178
 20
-27.3309307122
 10
3.0018116734
 20
-27.4232785777
 10
3.060393243
 20
-27.5135443766
 10
3.1185590356
 20
-27.6017316806
 10
3.1762143791
 20
-27.6877264785
 10
3.233422139
 20
-27.7716502972
 10
3.2904067959
 20
-27.853858617
 10
3.3472372846
 20
-27.934470787
 10
3.4038229159
 20
-28.0133716068
 10
3.4601525878
 20
-28.0905633426
  0
LINE
  5
34D
100
AcDbEntity
  8
0
100
AcDbLine
 62
7
  6
CONTINUOUS
 10
-3.1916667223
 20
-21.1702127457
 11
-3.1041667223
 21
-21.3404254913
  0
LINE
  5
34E
100
AcDbEntity
  8
0
100
AcDbLine
 62
7
  6
CONTINUOUS
 10
-7.5041665554
 20
-16.9787234068
 11
-8.0
 21
-16.0
  0
LINE
  5
34F
100
AcDbEntity
  8
0
100
AcDbLine
 62
7
  6
CONTINUOUS
 10
-6.1041665554
 20
-16.9787234068
 11
-6.6
 21
-16.0
  0
LINE
  5
350
100
AcDbEntity
  8
0
100
AcDbLine
 62
7
  6
CONTINUOUS
 10
-7.0083334446
 20
-18.0
 11
-7.4166665554
 21
-17.1914893389
  0
LINE
  5
351
100
AcDbEntity
  8
0
100
AcDbLine
 62
7
  6
CONTINUOUS
 10
-7.825
 20
-16.0
 11
-7.4166665554
 21
-16.8085106611
  0
LINE
  5
352
100
AcDbEntity
  8
0
100
AcDbLine
 62
7
  6
CONTINUOUS
 10
-5.6083334446
 20
-18.0
 11
-6.0166665554
 21
-17.1914893389
  0
LINE
  5
353
100
AcDbEntity
  8
0
100
AcDbLine
 62
7
  6
CONTINUOUS
 10
-6.425
 20
-16.0
 11
-6.0166665554
 21
-16.8085106611
  0
LINE
  5
354
100
AcDbEntity
  8
0
100
AcDbLine
 62
7
  6
CONTINUOUS
 10
-7.3291665554
 20
-16.9787234068
 11
-6.8333334446
 21
-18.0
  0
LINE
  5
355
100
AcDbEntity
  8
0
100
AcDbLine
 62
7
  6
CONTINUOUS
 10
-5.9291665554
 20
-16.9787234068
 11
-5.4333334446
 21
-18.0
  0
LINE
  5
356
100
AcDbEntity
  8
0
100
AcDbLine
 62
7
  6
CONTINUOUS
 10
-4.9416666649
 20
-22.4042553306
 11
-5.0
 21
-22.2765957713
  0
LINE
  5
357
100
AcDbEntity
  8
0
100
AcDbLine
 62
7
  6
CONTINUOUS
 10
-2.6375
 20
-22.4893617034
 11
-2.5791667223
 21
-22.6170212626
  0
LINE
  5
358
100
AcDbEntity
  8
0
100
AcDbLine
 62
7
  6
CONTINUOUS
 10
-20.3715537795
 20
26.8716706564
 11
-20.44768802
 21
27.1641685799
  0
LWPOLYLINE
  5
359
100
AcDbEntity
  8
0
100
AcDbPolyline
 62
253
  6
CONTINUOUS
 90
10
 70
0
 10
-18.112762685
 20
25.751276137
 10
-18.1130237317
 20
25.7522927368
 10
-18.1138079456
 20
25.7540543957
 10
-18.1151143284
 20
25.7565596882
 10
-18.1169411523
 20
25.75980673
 10
-18.1192867336
 20
25.7637925332
 10
-18.1221493939
 20
25.7685129504
 10
-18.1255264505
 20
25.7739635667
 10
-18.1294142612
 20
25.780139764
 10
-18.133808971
 20
25.7870360368
  0
LWPOLYLINE
  5
35A
100
AcDbEntity
  8
0
100
AcDbPolyline
 62
7
  6
CONTINUOUS
 90
10
 70
0
 10
-19.8381442834
 20
25.1113031402
 10
-19.8458291037
 20
25.1441595551
 10
-19.8530593182
 20
25.1773939352
 10
-19.8598289653
 20
25.2109988796
 10
-19.865821229
 20
25.2452153578
 10
-19.8713482646
 20
25.2797965186
 10
-19.8773481397
 20
25.3140038383
 10
-19.8841341451
 20
25.3475919075
 10
-19.8913978211
 20
25.3808123094
 10
-19.8991451779
 20
25.4136728554
  0
LWPOLYLINE
  5
35B
100
AcDbEntity
  8
0
100
AcDbPolyline
 62
253
  6
CONTINUOUS
 90
10
 70
0
 10
-9.2057261128
 20
-21.78339963
 10
-9.2021506077
 20
-21.8002885547
 10
-9.2036889644
 20
-21.8199319886
 10
-9.2103107779
 20
-21.8419416948
 10
-9.2218856199
 20
-21.865883453
 10
-9.2381845782
 20
-21.8912833755
 10
-9.2588833169
 20
-21.9176368789
 10
-9.2835707486
 20
-21.94442212
 10
-9.3117586565
 20
-21.9711106793
 10
-9.3428893304
 20
-21.9971754723
  0
LINE
  5
35C
100
AcDbEntity
  8
0
100
AcDbLine
 62
7
  6
CONTINUOUS
 10
3.0
 20
22.7765957117
 11
3.0291666675
 21
22.8191488981
  0
LINE
  5
35D
100
AcDbEntity
  8
0
100
AcDbLine
 62
7
  6
CONTINUOUS
 10
3.0
 20
22.2659574747
 11
3.175
 21
22.5212765932
  0
LINE
  5
35E
100
AcDbEntity
  8
0
100
AcDbLine
 62
7
  6
CONTINUOUS
 10
3.2333333403
 20
22.606382966
 11
3.3791666806
 21
22.8191488981
  0
LINE
  5
35F
100
AcDbEntity
  8
0
100
AcDbLine
 62
7
  6
CONTINUOUS
 10
3.4083333194
 20
22.7765957117
 11
3.2333333403
 21
22.5212765932
  0
LINE
  5
360
100
AcDbEntity
  8
0
100
AcDbLine
 62
7
  6
CONTINUOUS
 10
3.175
 20
22.4361702204
 11
3.0291666675
 21
22.2234042287
  0
LINE
  5
361
100
AcDbEntity
  8
0
100
AcDbLine
 62
7
  6
CONTINUOUS
 10
3.6416666806
 20
22.7765957117
 11
3.6708333194
 21
22.8191488981
  0
LINE
  5
362
100
AcDbEntity
  8
0
100
AcDbLine
 62
7
  6
CONTINUOUS
 10
3.4083333194
 20
22.2659574747
 11
3.3791666806
 21
22.2234042287
  0
LINE
  5
363
100
AcDbEntity
  8
0
100
AcDbLine
 62
7
  6
CONTINUOUS
 10
3.875
 20
22.606382966
 11
4.0208333612
 21
22.8191488981
  0
LINE
  5
364
100
AcDbEntity
  8
0
100
AcDbLine
 62
7
  6
CONTINUOUS
 10
3.6416666806
 20
22.2659574747
 11
3.8166666389
 21
22.5212765932
  0
LINE
  5
365
100
AcDbEntity
  8
0
100
AcDbLine
 62
7
  6
CONTINUOUS
 10
4.05
 20
22.7765957117
 11
3.875
 21
22.5212765932
  0
LINE
  5
366
100
AcDbEntity
  8
0
100
AcDbLine
 62
7
  6
CONTINUOUS
 10
3.8166666389
 20
22.4361702204
 11
3.6708333194
 21
22.2234042287
  0
LINE
  5
367
100
AcDbEntity
  8
0
100
AcDbLine
 62
7
  6
CONTINUOUS
 10
4.2833333612
 20
22.7765957117
 11
4.3125
 21
22.8191488981
  0
LINE
  5
368
100
AcDbEntity
  8
0
100
AcDbLine
 62
7
  6
CONTINUOUS
 10
4.05
 20
22.2659574747
 11
4.0208333611
 21
22.2234042287
  0
LINE
  5
369
100
AcDbEntity
  8
0
100
AcDbLine
 62
7
  6
CONTINUOUS
 10
4.5166667223
 20
22.606382966
 11
4.6625
 21
22.8191488981
  0
LINE
  5
36A
100
AcDbEntity
  8
0
100
AcDbLine
 62
7
  6
CONTINUOUS
 10
4.2833333611
 20
22.2659574747
 11
4.4583332777
 21
22.5212765932
  0
LINE
  5
36B
100
AcDbEntity
  8
0
100
AcDbLine
 62
7
  6
CONTINUOUS
 10
4.6916667223
 20
22.7765957117
 11
4.5166667223
 21
22.5212765932
  0
LINE
  5
36C
100
AcDbEntity
  8
0
100
AcDbLine
 62
7
  6
CONTINUOUS
 10
4.4583332777
 20
22.4361702204
 11
4.3125
 21
22.2234042287
  0
LINE
  5
36D
100
AcDbEntity
  8
0
100
AcDbLine
 62
7
  6
CONTINUOUS
 10
4.6916667223
 20
22.2659574747
 11
4.6625
 21
22.2234042287
  0
LINE
  5
36E
100
AcDbEntity
  8
0
100
AcDbLine
 62
7
  6
CONTINUOUS
 10
-29.6080619589
 20
-28.7808078514
 11
-29.8649900659
 21
-29.1398784764
  0
LINE
  5
36F
100
AcDbEntity
  8
0
100
AcDbLine
 62
7
  6
CONTINUOUS
 10
29.1398784764
 20
29.8649900659
 11
28.780807841
 21
29.6080619514
  0
LINE
  5
370
100
AcDbEntity
  8
0
100
AcDbLine
 62
7
  6
CONTINUOUS
 10
28.7808078414
 20
-29.6080619518
 11
29.5084461572
 21
-30.1286536811
  0
LINE
  5
371
100
AcDbEntity
  8
0
100
AcDbLine
 62
7
  6
CONTINUOUS
 10
2.2958337784
 20
-17.1914893389
 11
2.2083337784
 21
-17.106382966
  0
LINE
  5
372
100
AcDbEntity
  8
0
100
AcDbLine
 62
7
  6
CONTINUOUS
 10
2.2666662216
 20
-16.3404254913
 11
2.1791662216
 21
-16.2553191185
  0
LINE
  5
373
100
AcDbEntity
  8
0
100
AcDbLine
 62
253
  6
CONTINUOUS
 10
-23.8204769177
 20
11.9266167165
 11
-25.0978220849
 21
13.1820515251
  0
LINE
  5
374
100
AcDbEntity
  8
0
100
AcDbLine
 62
253
  6
CONTINUOUS
 10
-23.7025757558
 20
12.2329150058
 11
-24.979920923
 21
13.4883498144
  0
LINE
  5
375
100
AcDbEntity
  8
0
100
AcDbLine
 62
7
  6
CONTINUOUS
 10
-28.5652530721
 20
14.4231174483
 11
-24.9608388222
 21
10.8187031985
  0
LINE
  5
376
100
AcDbEntity
  8
0
100
AcDbLine
 62
253
  6
CONTINUOUS
 10
-26.2162718758
 20
12.2519988616
 11
-28.598848792
 21
14.6345757778
  0
LINE
  5
377
100
AcDbEntity
  8
0
100
AcDbLine
 62
253
  6
CONTINUOUS
 10
-24.6545387778
 20
11.0925548564
 11
-24.5366376159
 21
10.9746536944
  0
LINE
  5
378
100
AcDbEntity
  8
0
100
AcDbLine
 62
253
  6
CONTINUOUS
 10
-25.9099735864
 20
12.3699000235
 11
-28.4579224937
 21
14.9178489307
  0
LINE
  5
379
100
AcDbEntity
  8
0
100
AcDbLine
 62
253
  6
CONTINUOUS
 10
-25.0978220849
 20
13.1820515251
 11
-27.8827886475
 21
15.9670180877
  0
LINE
  5
37A
100
AcDbEntity
  8
0
100
AcDbLine
 62
253
  6
CONTINUOUS
 10
-23.7025757558
 20
11.8087155545
 11
-23.8204769177
 21
11.9266167165
  0
LINE
  5
37B
100
AcDbEntity
  8
0
100
AcDbLine
 62
253
  6
CONTINUOUS
 10
-27.7234657908
 20
16.2318946822
 11
-24.979920923
 21
13.4883498144
  0
LINE
  5
37C
100
AcDbEntity
  8
0
100
AcDbLine
 62
7
  6
CONTINUOUS
 10
-23.5466252598
 20
12.2329167608
 11
-27.5657565497
 21
16.2520480507
  0
LINE
  5
37D
100
AcDbEntity
  8
0
100
AcDbLine
 62
253
  6
CONTINUOUS
 10
-26.2162718758
 20
12.2519988616
 11
-24.9608370672
 21
10.9746536945
  0
LINE
  5
37E
100
AcDbEntity
  8
0
100
AcDbLine
 62
253
  6
CONTINUOUS
 10
-25.9099735864
 20
12.3699000235
 11
-24.6545387778
 21
11.0925548564
  0
LWPOLYLINE
  5
37F
100
AcDbEntity
  8
0
100
AcDbPolyline
 62
7
  6
CONTINUOUS
 90
13
 70
0
 10
-23.7025757558
 20
12.2329150058
 10
-23.676737975
 20
12.2034385116
 10
-23.6549559096
 20
12.1708307466
 10
-23.6376065674
 20
12.1356457558
 10
-23.6249904686
 20
12.0984777393
 10
-23.6173316123
 20
12.0599656061
 10
-23.6147668452
 20
12.0207835135
 10
-23.6173399824
 20
11.9816013976
 10
-23.6250068185
 20
11.9430918238
 10
-23.6376282552
 20
11.9059324572
 10
-23.6549775626
 20
11.8707623095
 10
-23.6767528376
 20
11.8381726744
 10
-23.7025757558
 20
11.8087155546
  0
LINE
  5
380
100
AcDbEntity
  8
0
100
AcDbLine
 62
7
  6
CONTINUOUS
 10
-30.1286536811
 20
29.5084461572
 11
-29.6080619592
 21
28.7808078518
  0
LINE
  5
381
100
AcDbEntity
  8
0
100
AcDbLine
 62
7
  6
CONTINUOUS
 10
1.625
 20
-17.6170212626
 11
1.6833337784
 21
-17.7021276653
  0
LINE
  5
382
100
AcDbEntity
  8
0
100
AcDbLine
 62
7
  6
CONTINUOUS
 10
2.325
 20
-16.1276595592
 11
2.4416662216
 21
-16.2978723049
  0
LINE
  5
383
100
AcDbEntity
  8
0
100
AcDbLine
 62
7
  6
CONTINUOUS
 10
0.3416668892
 20
-17.8297872394
 11
0.2541668892
 21
-17.6595744789
  0
LINE
  5
384
100
AcDbEntity
  8
0
100
AcDbLine
 62
7
  6
CONTINUOUS
 10
0.3125
 20
-17.106382966
 11
0.225
 21
-16.9361702204
  0
LINE
  5
385
100
AcDbEntity
  8
0
100
AcDbLine
 62
7
  6
CONTINUOUS
 10
-0.9166665554
 20
-21.5531915426
 11
-0.8583334446
 21
-21.6808511019
  0
LINE
  5
386
100
AcDbEntity
  8
0
100
AcDbLine
 62
7
  6
CONTINUOUS
 10
-2.7541667223
 20
-22.7021276653
 11
-2.8125
 21
-22.5319148898
  0
LINE
  5
387
100
AcDbEntity
  8
0
100
AcDbLine
 62
7
  6
CONTINUOUS
 10
-3.25
 20
-21.4680850506
 11
-3.2791667223
 21
-21.3404254913
  0
LINE
  5
388
100
AcDbEntity
  8
0
100
AcDbLine
 62
7
  6
CONTINUOUS
 10
-3.1041667223
 20
-21.3404254913
 11
-3.075
 21
-21.4680850506
  0
LINE
  5
389
100
AcDbEntity
  8
0
100
AcDbLine
 62
7
  6
CONTINUOUS
 10
-5.2
 20
-17.2765957713
 11
-5.2
 21
-17.0638297796
  0
LINE
  5
38A
100
AcDbEntity
  8
0
100
AcDbLine
 62
7
  6
CONTINUOUS
 10
-4.7916668892
 20
-17.0638297796
 11
-4.7916668892
 21
-17.2765957713
  0
LINE
  5
38B
100
AcDbEntity
  8
0
100
AcDbLine
 62
7
  6
CONTINUOUS
 10
-4.5583331108
 20
-17.4042553306
 11
-4.5583331108
 21
-17.1489361525
  0
LINE
  5
38C
100
AcDbEntity
  8
0
100
AcDbLine
 62
7
  6
CONTINUOUS
 10
-4.1541666389
 20
-23.0
 11
-4.1541666389
 21
-21.0
  0
LINE
  5
38D
100
AcDbEntity
  8
0
100
AcDbLine
 62
7
  6
CONTINUOUS
 10
-3.9791666389
 20
-21.2127659321
 11
-3.9791666389
 21
-21.8510638475
  0
LINE
  5
38E
100
AcDbEntity
  8
0
100
AcDbLine
 62
7
  6
CONTINUOUS
 10
-3.9791666389
 20
-22.106382966
 11
-3.9791666389
 21
-23.0
  0
LINE
  5
38F
100
AcDbEntity
  8
0
100
AcDbLine
 62
7
  6
CONTINUOUS
 10
-3.8583331108
 20
-18.0
 11
-3.8583331108
 21
-17.4042553306
  0
LINE
  5
390
100
AcDbEntity
  8
0
100
AcDbLine
 62
7
  6
CONTINUOUS
 10
-3.8583331108
 20
-17.1489361525
 11
-3.8583331108
 21
-16.3404254913
  0
LINE
  5
391
100
AcDbEntity
  8
0
100
AcDbLine
 62
7
  6
CONTINUOUS
 10
-3.6833331108
 20
-16.0
 11
-3.6833331108
 21
-17.1489361525
  0
LINE
  5
392
100
AcDbEntity
  8
0
100
AcDbLine
 62
7
  6
CONTINUOUS
 10
-3.6833331108
 20
-17.4042553306
 11
-3.6833331108
 21
-18.0
  0
LINE
  5
393
100
AcDbEntity
  8
0
100
AcDbLine
 62
7
  6
CONTINUOUS
 10
-3.3916668892
 20
-17.1489361525
 11
-3.3916668892
 21
-17.4042553306
  0
LINE
  5
394
100
AcDbEntity
  8
0
100
AcDbLine
 62
7
  6
CONTINUOUS
 10
-13.0207818579
 20
-26.4697373776
 11
-13.1217678345
 21
-26.8439173392
  0
LWPOLYLINE
  5
395
100
AcDbEntity
  8
0
100
AcDbPolyline
 62
253
  6
CONTINUOUS
 90
13
 70
0
 10
12.4592684507
 20
30.6066309129
 10
12.5363914586
 20
30.7492527117
 10
12.6247086971
 20
30.884423668
 10
12.7235574383
 20
31.0113143151
 10
12.8315806747
 20
31.1285221041
 10
12.9485386416
 20
31.2360864492
 10
13.0758071948
 20
31.3349676841
 10
13.2133196779
 20
31.4243343769
 10
13.3600907051
 20
31.502776454
 10
13.5165277795
 20
31.569666044
 10
13.6822636207
 20
31.6237922308
 10
13.8559823976
 20
31.6636789916
 10
14.0365509651
 20
31.6880766585
  0
LWPOLYLINE
  5
396
100
AcDbEntity
  8
0
100
AcDbPolyline
 62
253
  6
CONTINUOUS
 90
13
 70
0
 10
12.6104694096
 20
30.5328945696
 10
12.6778552542
 20
30.6563470662
 10
12.7534171712
 20
30.7717682835
 10
12.8371551606
 20
30.8791582214
 10
12.9290631879
 20
30.9786912808
 10
13.0291472876
 20
31.0701930608
 10
13.1374255628
 20
31.1531403589
 10
13.2541510436
 20
31.2281668393
 10
13.3790706999
 20
31.2946388378
 10
13.511443544
 20
31.3501321594
 10
13.65102258
 20
31.3938387393
 10
13.7980548038
 20
31.4265666424
 10
13.9525402154
 20
31.4483158686
  0
LINE
  5
397
100
AcDbEntity
  8
0
100
AcDbLine
 62
7
  6
CONTINUOUS
 10
2.0
 20
13.1705429008
 11
2.5014102688
 21
14.01
  0
LINE
  5
398
100
AcDbEntity
  8
0
100
AcDbLine
 62
7
  6
CONTINUOUS
 10
2.9862348367
 20
13.9051389436
 11
2.2232133093
 21
12.627694348
  0
LINE
  5
399
100
AcDbEntity
  8
0
100
AcDbLine
 62
7
  6
CONTINUOUS
 10
-24.2783397229
 20
-25.6616991483
 11
-24.0478319354
 21
-25.3386289499
  0
LWPOLYLINE
  5
39A
100
AcDbEntity
  8
0
100
AcDbPolyline
 62
7
  6
CONTINUOUS
 90
5
 70
0
 10
28.780807841
 20
29.6080619514
 10
28.7747028979
 20
29.602760327
 10
28.7634318677
 20
29.592250559
 10
28.7469947503
 20
29.5765326473
 10
28.6977556613
 20
29.5286264492
  0
LINE
  5
39B
100
AcDbEntity
  8
0
100
AcDbLine
 62
7
  6
CONTINUOUS
 10
25.33862895
 20
24.0478319354
 11
25.6616991483
 21
24.2783397229
  0
LWPOLYLINE
  5
39C
100
AcDbEntity
  8
0
100
AcDbPolyline
 62
7
  6
CONTINUOUS
 90
19
 70
0
 10
-30.3946271496
 20
-13.9021816849
 10
-30.5439416868
 20
-13.9940539654
 10
-30.6828012365
 20
-14.0964671382
 10
-30.8112057987
 20
-14.209421203
 10
-30.9298915053
 20
-14.3338992058
 10
-31.0381222243
 20
-14.4689181008
 10
-31.1336895605
 20
-14.6115287502
 10
-31.2163470165
 20
-14.7618831162
 10
-31.2863410895
 20
-14.9198292366
 10
-31.3422028758
 20
-15.0819620875
 10
-31.3836506503
 20
-15.2483652301
 10
-31.4109661382
 20
-15.4189551032
 10
-31.4235256111
 20
-15.5900759984
 10
-31.4210393871
 20
-15.7617353484
 10
-31.4037971481
 20
-15.9339257207
 10
-31.3720442119
 20
-16.1029691087
 10
-31.3258623512
 20
-16.2676395106
 10
-31.2651697932
 20
-16.4291629284
 10
-31.1899665381
 20
-16.587539362
  0
LINE
  5
39D
100
AcDbEntity
  8
0
100
AcDbLine
 62
7
  6
CONTINUOUS
 10
25.3129902458
 20
14.1510609078
 11
25.7363671639
 21
14.2881167273
  0
LWPOLYLINE
  5
39E
100
AcDbEntity
  8
0
100
AcDbPolyline
 62
253
  6
CONTINUOUS
 90
13
 70
0
 10
-24.9608370672
 20
10.9746536945
 10
-24.9464545917
 20
10.9646858658
 10
-24.9287560487
 20
10.9584425023
 10
-24.9080382738
 20
10.9560283163
 10
-24.8846487409
 20
10.957483798
 10
-24.8589797337
 20
10.9627845364
 10
-24.8314617667
 20
10.9718416286
 10
-24.802556365
 20
10.9845031713
 10
-24.7727483232
 20
11.000556808
 10
-24.7425375748
 20
11.0197332909
 10
-24.7124308074
 20
11.0417109964
 10
-24.6829329648
 20
11.0661213197
 10
-24.6545387778
 20
11.0925548564
  0
LWPOLYLINE
  5
39F
100
AcDbEntity
  8
0
100
AcDbPolyline
 62
7
  6
CONTINUOUS
 90
5
 70
0
 10
-29.6080619592
 20
28.7808078518
 10
-29.6027603315
 20
28.774702904
 10
-29.5922505612
 20
28.7634318706
 10
-29.5765326483
 20
28.7469947513
 10
-29.5286264521
 20
28.697755664
  0
LINE
  5
3A0
100
AcDbEntity
  8
0
100
AcDbLine
 62
7
  6
CONTINUOUS
 10
1.0416662216
 20
-16.1702127457
 11
1.1291662216
 21
-16.3404254913
  0
LINE
  5
3A1
100
AcDbEntity
  8
0
100
AcDbLine
 62
7
  6
CONTINUOUS
 10
0.3708331108
 20
-17.5319148898
 11
0.4291662216
 21
-17.6595744789
  0
LINE
  5
3A2
100
AcDbEntity
  8
0
100
AcDbLine
 62
7
  6
CONTINUOUS
 10
0.3416668892
 20
-16.8085106611
 11
0.4
 21
-16.9361702204
  0
LINE
  5
3A3
100
AcDbEntity
  8
0
100
AcDbLine
 62
7
  6
CONTINUOUS
 10
1.5375
 20
-17.7872340381
 11
1.4791662216
 21
-17.6595744789
  0
LINE
  5
3A4
100
AcDbEntity
  8
0
100
AcDbLine
 62
7
  6
CONTINUOUS
 10
1.0125
 20
-16.4680850506
 11
0.9541662216
 21
-16.3404254913
  0
LINE
  5
3A5
100
AcDbEntity
  8
0
100
AcDbLine
 62
7
  6
CONTINUOUS
 10
2.4125
 20
-17.0638297796
 11
2.4708337784
 21
-17.1914893389
  0
LINE
  5
3A6
100
AcDbEntity
  8
0
100
AcDbLine
 62
7
  6
CONTINUOUS
 10
2.325
 20
-16.4680850506
 11
2.2666662216
 21
-16.3404254913
  0
LINE
  5
3A7
100
AcDbEntity
  8
0
100
AcDbLine
 62
7
  6
CONTINUOUS
 10
1.5958337784
 20
-17.5319148898
 11
1.625
 21
-17.6170212626
  0
LINE
  5
3A8
100
AcDbEntity
  8
0
100
AcDbLine
 62
7
  6
CONTINUOUS
 10
2.3541662216
 20
-17.3617021441
 11
2.2958337784
 21
-17.1914893389
  0
LINE
  5
3A9
100
AcDbEntity
  8
0
100
AcDbLine
 62
7
  6
CONTINUOUS
 10
0.225
 20
-16.9361702204
 11
0.1666668892
 21
-16.7234042883
  0
LINE
  5
3AA
100
AcDbEntity
  8
0
100
AcDbLine
 62
7
  6
CONTINUOUS
 10
-1.8791665554
 20
-21.5106383562
 11
-1.9083334446
 21
-21.3829786778
  0
LINE
  5
3AB
100
AcDbEntity
  8
0
100
AcDbLine
 62
7
  6
CONTINUOUS
 10
0.2541668892
 20
-17.6595744789
 11
0.225
 21
-17.5319148898
  0
LINE
  5
3AC
100
AcDbEntity
  8
0
100
AcDbLine
 62
7
  6
CONTINUOUS
 10
0.3125
 20
-16.6808511019
 11
0.3416668892
 21
-16.8085106611
  0
LINE
  5
3AD
100
AcDbEntity
  8
0
100
AcDbLine
 62
7
  6
CONTINUOUS
 10
-2.6666667223
 20
-22.3191489577
 11
-2.6375
 21
-22.4893617034
  0
LINE
  5
3AE
100
AcDbEntity
  8
0
100
AcDbLine
 62
7
  6
CONTINUOUS
 10
-2.8125
 20
-22.5319148898
 11
-2.8416667223
 21
-22.3191489577
  0
LINE
  5
3AF
100
AcDbEntity
  8
0
100
AcDbLine
 62
7
  6
CONTINUOUS
 10
-1.7333334446
 20
-21.2978723049
 11
-1.7041665554
 21
-21.5106383562
  0
LINE
  5
3B0
100
AcDbEntity
  8
0
100
AcDbLine
 62
7
  6
CONTINUOUS
 10
1.1875
 20
-16.5531915426
 11
1.2166662216
 21
-16.8510638475
  0
LINE
  5
3B1
100
AcDbEntity
  8
0
100
AcDbLine
 62
7
  6
CONTINUOUS
 10
-3.25
 20
-21.595744729
 11
-3.25
 21
-21.4680850506
  0
LINE
  5
3B2
100
AcDbEntity
  8
0
100
AcDbLine
 62
7
  6
CONTINUOUS
 10
-3.1583331108
 20
-17.2765957713
 11
-3.1583331108
 21
-17.0638297796
  0
LINE
  5
3B3
100
AcDbEntity
  8
0
100
AcDbLine
 62
7
  6
CONTINUOUS
 10
-3.075
 20
-21.4680850506
 11
-3.075
 21
-21.6382979155
  0
LINE
  5
3B4
100
AcDbEntity
  8
0
100
AcDbLine
 62
7
  6
CONTINUOUS
 10
-2.8416667223
 20
-22.3191489577
 11
-2.8416667223
 21
-21.6808511019
  0
LINE
  5
3B5
100
AcDbEntity
  8
0
100
AcDbLine
 62
7
  6
CONTINUOUS
 10
-2.75
 20
-17.0638297796
 11
-2.75
 21
-17.2765957713
  0
LINE
  5
3B6
100
AcDbEntity
  8
0
100
AcDbLine
 62
7
  6
CONTINUOUS
 10
-2.6666667223
 20
-21.6808511019
 11
-2.6666667223
 21
-22.3191489577
  0
LINE
  5
3B7
100
AcDbEntity
  8
0
100
AcDbLine
 62
7
  6
CONTINUOUS
 10
-2.5166668892
 20
-17.4042553306
 11
-2.5166668892
 21
-17.1489361525
  0
LINE
  5
3B8
100
AcDbEntity
  8
0
100
AcDbLine
 62
7
  6
CONTINUOUS
 10
-1.8166668892
 20
-18.0
 11
-1.8166668892
 21
-17.4042553306
  0
LINE
  5
3B9
100
AcDbEntity
  8
0
100
AcDbLine
 62
7
  6
CONTINUOUS
 10
-1.8166668892
 20
-17.1489361525
 11
-1.8166668892
 21
-16.3404254913
  0
LINE
  5
3BA
100
AcDbEntity
  8
0
100
AcDbLine
 62
7
  6
CONTINUOUS
 10
-1.6416668892
 20
-16.0
 11
-1.6416668892
 21
-17.1489361525
  0
LINE
  5
3BB
100
AcDbEntity
  8
0
100
AcDbLine
 62
7
  6
CONTINUOUS
 10
-1.6416668892
 20
-17.4042553306
 11
-1.6416668892
 21
-18.0
  0
LINE
  5
3BC
100
AcDbEntity
  8
0
100
AcDbLine
 62
7
  6
CONTINUOUS
 10
-1.35
 20
-17.1489361525
 11
-1.35
 21
-17.4042553306
  0
LINE
  5
3BD
100
AcDbEntity
  8
0
100
AcDbLine
 62
7
  6
CONTINUOUS
 10
-1.1166668892
 20
-16.2127659321
 11
-1.1166668892
 21
-16.0
  0
LINE
  5
3BE
100
AcDbEntity
  8
0
100
AcDbLine
 62
7
  6
CONTINUOUS
 10
-0.0666668892
 20
-16.0
 11
-0.0666668892
 21
-16.2127659321
  0
LINE
  5
3BF
100
AcDbEntity
  8
0
100
AcDbLine
 62
7
  6
CONTINUOUS
 10
0.1666668892
 20
-16.7234042883
 11
0.1666668892
 21
-16.5531915426
  0
LINE
  5
3C0
100
AcDbEntity
  8
0
100
AcDbLine
 62
7
  6
CONTINUOUS
 10
0.3125
 20
-16.595744729
 11
0.3125
 21
-16.6808511019
  0
LWPOLYLINE
  5
3C1
100
AcDbEntity
  8
0
100
AcDbPolyline
 62
253
  6
CONTINUOUS
 90
34
 70
0
 10
1.25
 20
22.55
 10
1.2599521072
 20
22.7438229132
 10
1.2871475603
 20
22.932291889
 10
1.3315863593
 20
23.1154069276
 10
1.394089478
 20
23.2947238588
 10
1.4738359426
 20
23.4686868526
 10
1.5683628316
 20
23.6326284192
 10
1.6778869878
 20
23.7861068788
 10
1.8021915685
 20
23.929563911
 10
1.9381631238
 20
24.0596570654
 10
2.0860434329
 20
24.1761720247
 10
2.2455907167
 20
24.2793231061
 10
2.4129661876
 20
24.3664108112
 10
2.5886723281
 20
24.4371029164
 10
2.7722066557
 20
24.4917316454
 10
2.9582229354
 20
24.5285941708
 10
3.1465608851
 20
24.5471226314
 10
3.337380787
 20
24.5478848885
 10
3.525817253
 20
24.5308816986
 10
3.7119253284
 20
24.4956358799
 10
3.8956499679
 20
24.4426246141
 10
4.071960647
 20
24.3732802027
 10
4.2405465058
 20
24.2872495949
 10
4.4017184043
 20
24.1848858414
 10
4.5513783971
 20
24.0686803959
 10
4.6893336025
 20
23.9382784215
 10
4.8157769023
 20
23.7940347551
 10
4.9271889962
 20
23.6395053608
 10
5.0232474375
 20
23.474151139
 10
5.1042746731
 20
23.2985111894
 10
5.1677187431
 20
23.1177587744
 10
5.2127289943
 20
22.9336183149
 10
5.2401560799
 20
22.7443653901
 10
5.25
 20
22.55
  0
LINE
  5
3C2
100
AcDbEntity
  8
0
100
AcDbLine
 62
7
  6
CONTINUOUS
 10
-2.8416667223
 20
-21.6808511019
 11
-2.8125
 21
-21.4680850506
  0
LINE
  5
3C3
100
AcDbEntity
  8
0
100
AcDbLine
 62
253
  6
CONTINUOUS
 10
5.8942964347
 20
27.7304844808
 11
5.7152651897
 21
26.8882086957
  0
LINE
  5
3C4
100
AcDbEntity
  8
0
100
AcDbLine
 62
253
  6
CONTINUOUS
 10
-6.7594362591
 20
-31.8006473484
 11
-6.5804050143
 21
-30.9583715632
  0
LINE
  5
3C5
100
AcDbEntity
  8
0
100
AcDbLine
 62
253
  6
CONTINUOUS
 10
-5.7152651897
 20
-26.8882086957
 11
-5.8942964347
 21
-27.7304844808
  0
LINE
  5
3C6
100
AcDbEntity
  8
0
100
AcDbLine
 62
253
  6
CONTINUOUS
 10
6.5804050143
 20
30.9583715632
 11
6.7594362591
 21
31.8006473484
  0
LWPOLYLINE
  5
3C7
100
AcDbEntity
  8
0
100
AcDbPolyline
 62
7
  6
CONTINUOUS
 90
19
 70
0
 10
8.6061326385
 20
23.5225936397
 10
8.5348433856
 20
23.3572371852
 10
8.4789577385
 20
23.1892159411
 10
8.4384756971
 20
23.0185299076
 10
8.4133698046
 20
22.843853429
 10
8.4036675179
 20
22.6665121609
 10
8.4094512076
 20
22.4904830701
 10
8.4310406634
 20
22.3157892967
 10
8.4681160956
 20
22.1424077005
 10
8.5198005062
 20
21.9742458278
 10
8.5864005621
 20
21.8114131346
 10
8.6676095963
 20
21.653800165
 10
8.7616306099
 20
21.5049860977
 10
8.8687455876
 20
21.3651447966
 10
8.9886725448
 20
21.2341023979
 10
9.1187685287
 20
21.1149164895
 10
9.2581525548
 20
21.0086062674
 10
9.4077056077
 20
20.9141525355
 10
9.5674276871
 20
20.831555294
  0
LWPOLYLINE
  5
3C8
100
AcDbEntity
  8
0
100
AcDbPolyline
 62
7
  6
CONTINUOUS
 90
12
 70
0
 10
-14.2614108529
 20
-28.8223759342
 10
-14.2880976511
 20
-28.8785350766
 10
-14.313035469
 20
-28.9319718378
 10
-14.3365144686
 20
-28.9833441176
 10
-14.3582444878
 20
-29.0319940162
 10
-14.377355041
 20
-29.0759478344
 10
-14.3937695586
 20
-29.1150662048
 10
-14.40756461
 20
-29.1494884947
 10
-14.4180994176
 20
-29.1776591071
 10
-14.4251603886
 20
-29.1990595096
 10
-14.4289611158
 20
-29.2142082345
 10
-14.429501599
 20
-29.2231052818
  0
LWPOLYLINE
  5
3C9
100
AcDbEntity
  8
0
100
AcDbPolyline
 62
7
  6
CONTINUOUS
 90
12
 70
0
 10
-15.0410432028
 20
-31.2574852018
 10
-15.0570546061
 20
-31.2911791584
 10
-15.0720154085
 20
-31.3232372992
 10
-15.086099573
 20
-31.3540541155
 10
-15.0991331367
 20
-31.383235116
 10
-15.1105942115
 20
-31.4095968262
 10
-15.1204370259
 20
-31.4330559906
 10
-15.1287073514
 20
-31.4536958648
 10
-15.1350206146
 20
-31.4705827416
 10
-15.1392486244
 20
-31.4834053853
 10
-15.1415195718
 20
-31.4924750315
 10
-15.1418334569
 20
-31.4977916804
  0
LWPOLYLINE
  5
3CA
100
AcDbEntity
  8
0
100
AcDbPolyline
 62
7
  6
CONTINUOUS
 90
12
 70
0
 10
15.0410432028
 20
31.2574852018
 10
15.0570546061
 20
31.2911791584
 10
15.0720154085
 20
31.3232372992
 10
15.086099573
 20
31.3540541155
 10
15.0991331367
 20
31.383235116
 10
15.1105942115
 20
31.4095968262
 10
15.1204370259
 20
31.4330559906
 10
15.1287073514
 20
31.4536958648
 10
15.1350206146
 20
31.4705827416
 10
15.1392486244
 20
31.4834053853
 10
15.1415195718
 20
31.4924750315
 10
15.1418334569
 20
31.4977916804
  0
LINE
  5
3CB
100
AcDbEntity
  8
0
100
AcDbLine
 62
253
  6
CONTINUOUS
 10
10.1771976816
 20
21.2942387722
 11
10.0480107821
 21
21.0239348272
  0
LINE
  5
3CC
100
AcDbEntity
  8
0
100
AcDbLine
 62
253
  6
CONTINUOUS
 10
-10.1771977076
 20
-21.2942388266
 11
-10.0480107885
 21
-21.0239348405
  0
LINE
  5
3CD
100
AcDbEntity
  8
0
100
AcDbLine
 62
253
  6
CONTINUOUS
 10
15.1283809202
 20
31.5042341311
 11
14.9986887879
 21
31.2341700527
  0
LINE
  5
3CE
100
AcDbEntity
  8
0
100
AcDbLine
 62
253
  6
CONTINUOUS
 10
-15.1283809194
 20
-31.5042341295
 11
-14.9986887932
 21
-31.2341700639
  0
LINE
  5
3CF
100
AcDbEntity
  8
0
100
AcDbLine
 62
7
  6
CONTINUOUS
 10
-14.6688050678
 20
-29.4812305143
 11
-14.5221697765
 21
-29.1771046789
  0
LINE
  5
3D0
100
AcDbEntity
  8
0
100
AcDbLine
 62
7
  6
CONTINUOUS
 10
14.6688051541
 20
29.4812306821
 11
14.5221701142
 21
29.1771053712
  0
LINE
  5
3D1
100
AcDbEntity
  8
0
100
AcDbLine
 62
7
  6
CONTINUOUS
 10
-10.8
 20
-18.0
 11
-10.3041666806
 21
-16.9787234068
  0
LINE
  5
3D2
100
AcDbEntity
  8
0
100
AcDbLine
 62
7
  6
CONTINUOUS
 10
-9.4
 20
-18.0
 11
-8.9041667223
 21
-16.9787234068
  0
LINE
  5
3D3
100
AcDbEntity
  8
0
100
AcDbLine
 62
7
  6
CONTINUOUS
 10
12.2923973674
 20
31.0805563744
 11
8.6061326385
 21
23.5225936397
  0
LINE
  5
3D4
100
AcDbEntity
  8
0
100
AcDbLine
 62
253
  6
CONTINUOUS
 10
9.0866055196
 20
23.6918887876
 11
12.4591732412
 21
30.6066773432
  0
LINE
  5
3D5
100
AcDbEntity
  8
0
100
AcDbLine
 62
253
  6
CONTINUOUS
 10
12.6104694096
 20
30.5328945696
 11
9.2378980257
 21
23.6180985052
  0
LINE
  5
3D6
100
AcDbEntity
  8
0
100
AcDbLine
 62
253
  6
CONTINUOUS
 10
9.3429208242
 20
21.9971955228
 11
13.9525402154
 21
31.4483158686
  0
LINE
  5
3D7
100
AcDbEntity
  8
0
100
AcDbLine
 62
253
  6
CONTINUOUS
 10
9.460889155
 20
21.9396385082
 11
14.0705191556
 21
31.3907806127
  0
LINE
  5
3D8
100
AcDbEntity
  8
0
100
AcDbLine
 62
7
  6
CONTINUOUS
 10
15.0410432028
 20
31.2574852018
 11
10.9329004391
 21
22.8341968314
  0
LINE
  5
3D9
100
AcDbEntity
  8
0
100
AcDbLine
 62
7
  6
CONTINUOUS
 10
-14.2614108529
 20
-28.8223759342
 11
-13.9548687377
 21
-28.1932919203
  0
LINE
  5
3DA
100
AcDbEntity
  8
0
100
AcDbLine
 62
7
  6
CONTINUOUS
 10
-13.0133613678
 20
-26.4422424825
 11
-13.0260748016
 21
-26.4683088856
  0
LINE
  5
3DB
100
AcDbEntity
  8
0
100
AcDbLine
 62
7
  6
CONTINUOUS
 10
-13.5368173636
 20
-27.6948949786
 11
-13.1217678362
 21
-26.843917338
  0
LINE
  5
3DC
100
AcDbEntity
  8
0
100
AcDbLine
 62
7
  6
CONTINUOUS
 10
13.5368173633
 20
27.6948949788
 11
13.1217678339
 21
26.8439173343
  0
LINE
  5
3DD
100
AcDbEntity
  8
0
100
AcDbLine
 62
7
  6
CONTINUOUS
 10
13.0133613667
 20
26.4422424812
 11
13.0260748016
 21
26.4683088856
  0
LINE
  5
3DE
100
AcDbEntity
  8
0
100
AcDbLine
 62
7
  6
CONTINUOUS
 10
14.261410807
 20
28.822375842
 11
13.9548687377
 21
28.1932919203
  0
LINE
  5
3DF
100
AcDbEntity
  8
0
100
AcDbLine
 62
7
  6
CONTINUOUS
 10
-15.0410432028
 20
-31.2574852018
 11
-10.9329004391
 21
-22.8341968314
  0
LWPOLYLINE
  5
3E0
100
AcDbEntity
  8
0
100
AcDbPolyline
 62
7
  6
CONTINUOUS
 90
19
 70
0
 10
-14.5215868761
 20
-29.1759095559
 10
-13.9922006913
 20
-28.0914260304
 10
-13.9179979107
 20
-27.9418446298
 10
-13.8447224499
 20
-27.7958023592
 10
-13.7718614066
 20
-27.6523037487
 10
-13.699927683
 20
-27.5123442682
 10
-13.6304599861
 20
-27.3789103276
 10
-13.5635330408
 20
-27.2521818431
 10
-13.4990721222
 20
-27.1319788986
 10
-13.4383917629
 20
-27.0207481554
 10
-13.3815639167
 20
-26.9186603949
 10
-13.3285166298
 20
-26.8255448357
 10
-13.2803485728
 20
-26.7433357958
 10
-13.2371569238
 20
-26.6722445155
 10
-13.1988445046
 20
-26.6120597545
 10
-13.1662184516
 20
-26.5640821096
 10
-13.1395478101
 20
-26.528745113
 10
-13.1185635346
 20
-26.5056152325
 10
-13.1032656253
 20
-26.4946924682
  0
LWPOLYLINE
  5
3E1
100
AcDbEntity
  8
0
100
AcDbPolyline
 62
7
  6
CONTINUOUS
 90
19
 70
0
 10
14.5215868761
 20
29.1759095559
 10
13.9922007984
 20
28.0914262532
 10
13.9179979531
 20
27.9418447222
 10
13.8447224492
 20
27.7958023648
 10
13.7718613919
 20
27.652303726
 10
13.699927676
 20
27.5123442608
 10
13.6304599866
 20
27.3789103349
 10
13.5635330412
 20
27.2521818497
 10
13.4990721222
 20
27.1319789038
 10
13.438391762
 20
27.0207481583
 10
13.3815639146
 20
26.9186603945
 10
13.3285166259
 20
26.8255448311
 10
13.2803485666
 20
26.7433357859
 10
13.2371569121
 20
26.6722444962
 10
13.198844487
 20
26.6120597247
 10
13.1662184353
 20
26.564082077
 10
13.1395478051
 20
26.5287450882
 10
13.1185635485
 20
26.5056152231
 10
13.1032656653
 20
26.4946924818
  0
LINE
  5
3E2
100
AcDbEntity
  8
0
100
AcDbLine
 62
7
  6
CONTINUOUS
 10
-10.2166666806
 20
-16.8085106611
 11
-9.8083333611
 21
-16.0
  0
LINE
  5
3E3
100
AcDbEntity
  8
0
100
AcDbLine
 62
7
  6
CONTINUOUS
 10
-10.2166666806
 20
-17.1914893389
 11
-10.625
 21
-18.0
  0
LINE
  5
3E4
100
AcDbEntity
  8
0
100
AcDbLine
 62
7
  6
CONTINUOUS
 10
-8.8166667223
 20
-16.8085106611
 11
-8.4083332777
 21
-16.0
  0
LINE
  5
3E5
100
AcDbEntity
  8
0
100
AcDbLine
 62
7
  6
CONTINUOUS
 10
-8.8166667223
 20
-17.1914893389
 11
-9.225
 21
-18.0
  0
LINE
  5
3E6
100
AcDbEntity
  8
0
100
AcDbLine
 62
7
  6
CONTINUOUS
 10
-9.6333333611
 20
-16.0
 11
-10.1291666806
 21
-16.9787234068
  0
LINE
  5
3E7
100
AcDbEntity
  8
0
100
AcDbLine
 62
7
  6
CONTINUOUS
 10
-8.2333332777
 20
-16.0
 11
-8.7291667223
 21
-16.9787234068
  0
LWPOLYLINE
  5
3E8
100
AcDbEntity
  8
0
100
AcDbPolyline
 62
7
  6
CONTINUOUS
 90
4
 70
0
 10
-29.576532328
 20
-28.7469944189
 10
-29.5922503814
 20
-28.7634316817
 10
-29.6027602584
 20
-28.7747028259
 10
-29.6080619589
 20
-28.7808078514
  0
LINE
  5
3E9
100
AcDbEntity
  8
0
100
AcDbLine
 62
7
  6
CONTINUOUS
 10
-29.5286257163
 20
-28.6977549129
 11
-29.576532328
 21
-28.7469944189
  0
LINE
  5
3EA
100
AcDbEntity
  8
0
100
AcDbLine
 62
7
  6
CONTINUOUS
 10
-29.4249357775
 20
-28.5925740889
 11
-29.5286257163
 21
-28.6977549129
  0
LINE
  5
3EB
100
AcDbEntity
  8
0
100
AcDbLine
 62
7
  6
CONTINUOUS
 10
28.2866756581
 20
29.1192861202
 11
27.466321624
 21
28.2862280358
  0
LWPOLYLINE
  5
3EC
100
AcDbEntity
  8
0
100
AcDbPolyline
 62
7
  6
CONTINUOUS
 90
3
 70
0
 10
-28.3290255407
 20
-29.1618937542
 10
-28.2866756568
 20
-29.1192861189
 10
-27.466321624
 20
-28.2862280358
  0
LINE
  5
3ED
100
AcDbEntity
  8
0
100
AcDbLine
 62
7
  6
CONTINUOUS
 10
-29.2515480109
 20
-28.418447883
 11
-29.4249357775
 21
-28.5925740889
  0
LINE
  5
3EE
100
AcDbEntity
  8
0
100
AcDbLine
 62
7
  6
CONTINUOUS
 10
26.6943960902
 20
28.0777609578
 11
24.2783397229
 21
25.6616991483
  0
LINE
  5
3EF
100
AcDbEntity
  8
0
100
AcDbLine
 62
7
  6
CONTINUOUS
 10
-28.0190752905
 20
-26.728278276
 11
-25.3386289499
 21
-24.0478319354
  0
LINE
  5
3F0
100
AcDbEntity
  8
0
100
AcDbLine
 62
7
  6
CONTINUOUS
 10
24.0478319354
 20
25.3386289499
 11
26.728278276
 21
28.0190752905
  0
LINE
  5
3F1
100
AcDbEntity
  8
0
100
AcDbLine
 62
7
  6
CONTINUOUS
 10
-29.8649900659
 20
-29.1398784764
 11
-28.2261305266
 21
-27.5010189371
  0
LINE
  5
3F2
100
AcDbEntity
  8
0
100
AcDbLine
 62
7
  6
CONTINUOUS
 10
27.5010189371
 20
28.2261305266
 11
29.1398784764
 21
29.8649900659
  0
LINE
  5
3F3
100
AcDbEntity
  8
0
100
AcDbLine
 62
7
  6
CONTINUOUS
 10
-25.6616991483
 20
-24.2783397229
 11
-28.0777609579
 21
-26.6943960902
  0
LINE
  5
3F4
100
AcDbEntity
  8
0
100
AcDbLine
 62
7
  6
CONTINUOUS
 10
28.4633943149
 20
29.2964557683
 11
28.2866756581
 21
29.1192861202
  0
LINE
  5
3F5
100
AcDbEntity
  8
0
100
AcDbLine
 62
7
  6
CONTINUOUS
 10
-29.079586862
 20
-28.2473233696
 11
-29.2515480109
 21
-28.418447883
  0
LINE
  5
3F6
100
AcDbEntity
  8
0
100
AcDbLine
 62
7
  6
CONTINUOUS
 10
28.6315642425
 20
29.4635031833
 11
28.4633943149
 21
29.2964557683
  0
LINE
  5
3F7
100
AcDbEntity
  8
0
100
AcDbLine
 62
7
  6
CONTINUOUS
 10
29.042083009
 20
28.2102583507
 11
29.1618926562
 21
28.3290244481
  0
LINE
  5
3F8
100
AcDbEntity
  8
0
100
AcDbLine
 62
7
  6
CONTINUOUS
 10
-28.2862280334
 20
-27.4663216254
 11
-28.5329267723
 21
-27.7098306301
  0
LINE
  5
3F9
100
AcDbEntity
  8
0
100
AcDbLine
 62
7
  6
CONTINUOUS
 10
-29.079586862
 20
-28.2473233696
 11
-28.5329267723
 21
-27.7098306301
  0
LINE
  5
3FA
100
AcDbEntity
  8
0
100
AcDbLine
 62
7
  6
CONTINUOUS
 10
29.042083009
 20
28.2102583507
 11
28.2862280334
 21
27.4663216254
  0
LINE
  5
3FB
100
AcDbEntity
  8
0
100
AcDbLine
 62
7
  6
CONTINUOUS
 10
28.6977556613
 20
29.5286264492
 11
28.6315642425
 21
29.4635031833
  0
LWPOLYLINE
  5
3FC
100
AcDbEntity
  8
0
100
AcDbPolyline
 62
7
  6
CONTINUOUS
 90
12
 70
0
 10
-27.3670717103
 20
-15.3792475755
 10
-27.3130056406
 20
-15.3485550922
 10
-27.2619365703
 20
-15.3190909536
 10
-27.2132495152
 20
-15.2904826745
 10
-27.1675594597
 20
-15.26310274
 10
-27.1267113563
 20
-15.2380686053
 10
-27.09084777
 20
-15.2154504892
 10
-27.0598261358
 20
-15.1951781729
 10
-27.035063712
 20
-15.1781584548
 10
-27.0170329181
 20
-15.1646936012
 10
-27.0052613345
 20
-15.1544813458
 10
-26.9997489614
 20
-15.1475216887
  0
LWPOLYLINE
  5
3FD
100
AcDbEntity
  8
0
100
AcDbPolyline
 62
7
  6
CONTINUOUS
 90
12
 70
0
 10
27.3670716027
 20
15.3792475169
 10
27.3130055902
 20
15.3485550661
 10
27.261936557
 20
15.3190909484
 10
27.213249512
 20
15.2904826749
 10
27.1675594462
 20
15.2631027345
 10
27.126711333
 20
15.238068594
 10
27.0908477425
 20
15.2154504749
 10
27.0598261045
 20
15.1951781558
 10
27.0350636815
 20
15.1781584389
 10
27.0170328945
 20
15.1646935914
 10
27.0052613225
 20
15.1544813462
 10
26.9997489655
 20
15.1475217031
  0
LINE
  5
3FE
100
AcDbEntity
  8
0
100
AcDbLine
 62
7
  6
CONTINUOUS
 10
27.1751175286
 20
15.3612744291
 11
27.4696104354
 21
15.5262569424
  0
LINE
  5
3FF
100
AcDbEntity
  8
0
100
AcDbLine
 62
7
  6
CONTINUOUS
 10
-27.1751175449
 20
-15.3612744377
 11
-27.4696105013
 21
-15.5262569789
  0
LINE
  5
400
100
AcDbEntity
  8
0
100
AcDbLine
 62
7
  6
CONTINUOUS
 10
-23.0399464764
 20
-9.8254156172
 11
-30.3946271496
 21
-13.9021816849
  0
LINE
  5
401
100
AcDbEntity
  8
0
100
AcDbLine
 62
253
  6
CONTINUOUS
 10
-29.8848817083
 20
-14.0519946363
 11
-23.1920159045
 21
-10.342078541
  0
LINE
  5
402
100
AcDbEntity
  8
0
100
AcDbLine
 62
253
  6
CONTINUOUS
 10
-29.7392275131
 20
-14.3137933405
 11
-23.04720457
 21
-10.6043444507
  0
LINE
  5
403
100
AcDbEntity
  8
0
100
AcDbLine
 62
7
  6
CONTINUOUS
 10
27.3670716027
 20
15.3792475169
 11
27.9789890185
 21
15.7187291302
  0
LINE
  5
404
100
AcDbEntity
  8
0
100
AcDbLine
 62
7
  6
CONTINUOUS
 10
25.3129902458
 20
14.1510609078
 11
25.7503029073
 21
14.3934672744
  0
LINE
  5
405
100
AcDbEntity
  8
0
100
AcDbLine
 62
7
  6
CONTINUOUS
 10
-26.5805427357
 20
-14.7341257947
 11
-26.1681067862
 21
-14.505218451
  0
LINE
  5
406
100
AcDbEntity
  8
0
100
AcDbLine
 62
7
  6
CONTINUOUS
 10
26.1682384482
 20
14.5052914324
 11
26.5805427357
 21
14.7341257947
  0
LINE
  5
407
100
AcDbEntity
  8
0
100
AcDbLine
 62
7
  6
CONTINUOUS
 10
-25.3129902458
 20
-14.1510609078
 11
-25.7503029073
 21
-14.3934672744
  0
LINE
  5
408
100
AcDbEntity
  8
0
100
AcDbLine
 62
7
  6
CONTINUOUS
 10
-27.3670717103
 20
-15.3792475755
 11
-27.9789890185
 21
-15.7187291302
  0
LWPOLYLINE
  5
409
100
AcDbEntity
  8
0
100
AcDbPolyline
 62
7
  6
CONTINUOUS
 90
19
 70
0
 10
27.4696104354
 20
15.5262569424
 10
28.5264867022
 20
16.1116316563
 10
28.6730994579
 20
16.1916184038
 10
28.8169249858
 20
16.2692395029
 10
28.9589538589
 20
16.3450159325
 10
29.0981955042
 20
16.4184267135
 10
29.2316782029
 20
16.4879089092
 10
29.3592375285
 20
16.5533580107
 10
29.4810379074
 20
16.614878527
 10
29.5946009001
 20
16.6712210481
 10
29.6997698951
 20
16.7222871209
 10
29.7967015039
 20
16.7681751985
 10
29.8833871214
 20
16.8079312304
 10
29.9596283701
 20
16.8414385703
 10
30.0256236276
 20
16.8688138645
 10
30.0799594213
 20
16.8894530021
 10
30.1221645938
 20
16.9031546129
 10
30.1527103026
 20
16.9101200672
 10
30.1715965477
 20
16.9103493649
  0
LWPOLYLINE
  5
40A
100
AcDbEntity
  8
0
100
AcDbPolyline
 62
7
  6
CONTINUOUS
 90
19
 70
0
 10
-27.4696105013
 20
-15.5262569789
 10
-28.5264867863
 20
-16.1116317035
 10
-28.6730994934
 20
-16.1916184245
 10
-28.8169249894
 20
-16.2692395061
 10
-28.9589538526
 20
-16.3450159303
 10
-29.0981955047
 20
-16.4184267149
 10
-29.23167821
 20
-16.4879089143
 10
-29.3592375367
 20
-16.5533580163
 10
-29.4810379166
 20
-16.6148785331
 10
-29.5946009102
 20
-16.6712210546
 10
-29.699769906
 20
-16.7222871277
 10
-29.7967015154
 20
-16.7681752056
 10
-29.8833871335
 20
-16.8079312378
 10
-29.9596283834
 20
-16.8414385779
 10
-30.0256236419
 20
-16.8688138723
 10
-30.0799594342
 20
-16.8894530096
 10
-30.1221646022
 20
-16.9031546193
 10
-30.152710304
 20
-16.9101200718
 10
-30.1715965396
 20
-16.9103493672
  0
LWPOLYLINE
  5
40B
100
AcDbEntity
  8
0
100
AcDbPolyline
 62
7
  6
CONTINUOUS
 90
13
 70
0
 10
26.1681069237
 20
14.5052185272
 10
26.1191074951
 20
14.4782642154
 10
26.0717878204
 20
14.4525714816
 10
26.0261478997
 20
14.4281403258
 10
25.9817502949
 20
14.4047461537
 10
25.939032444
 20
14.3826135596
 10
25.8993066609
 20
14.3624163263
 10
25.8626416005
 20
14.3441978017
 10
25.8289686079
 20
14.3279146379
 10
25.799394033
 20
14.3141105747
 10
25.774286659
 20
14.3029668584
 10
25.7532777026
 20
14.2943022426
 10
25.7363671639
 20
14.2881167273
  0
LWPOLYLINE
  5
40C
100
AcDbEntity
  8
0
100
AcDbPolyline
 62
7
  6
CONTINUOUS
 90
13
 70
0
 10
-26.1681067862
 20
-14.505218451
 10
-26.1191074191
 20
-14.4782641728
 10
-26.0717877909
 20
-14.4525714645
 10
-26.0261479016
 20
-14.428140326
 10
-25.9817503082
 20
-14.4047461603
 10
-25.9390324536
 20
-14.3826135644
 10
-25.8993066672
 20
-14.3624163295
 10
-25.8626416111
 20
-14.3441978071
 10
-25.8289686231
 20
-14.3279146457
 10
-25.7993940462
 20
-14.3141105821
 10
-25.7742866612
 20
-14.3029668618
 10
-25.7532776872
 20
-14.2943022392
 10
-25.7363671242
 20
-14.2881167145
  0
LINE
  5
40D
100
AcDbEntity
  8
0
100
AcDbLine
 62
253
  6
CONTINUOUS
 10
-30.406351935
 20
-16.6127807494
 11
-30.6692891469
 21
-16.7564388588
  0
LINE
  5
40E
100
AcDbEntity
  8
0
100
AcDbLine
 62
253
  6
CONTINUOUS
 10
30.406351935
 20
16.6127807494
 11
30.6692891468
 21
16.7564388587
  0
LINE
  5
40F
100
AcDbEntity
  8
0
100
AcDbLine
 62
253
  6
CONTINUOUS
 10
20.4692553396
 20
11.1345570272
 11
20.7324726676
 21
11.2777318427
  0
LINE
  5
410
100
AcDbEntity
  8
0
100
AcDbLine
 62
253
  6
CONTINUOUS
 10
-20.4692553249
 20
-11.1345570192
 11
-20.7324726677
 21
-11.2777318427
  0
LWPOLYLINE
  5
411
100
AcDbEntity
  8
0
100
AcDbPolyline
 62
253
  6
CONTINUOUS
 90
19
 70
0
 10
-23.1920081705
 20
-10.3420924774
 10
-23.0350102606
 20
-10.2638617003
 10
-22.8718248303
 20
-10.1997376345
 10
-22.7037177441
 20
-10.1501946744
 10
-22.5320006464
 20
-10.1155961707
 10
-22.3579877194
 20
-10.0961838095
 10
-22.1829841068
 20
-10.092085899
 10
-22.008332796
 20
-10.1033224763
 10
-21.8353737049
 20
-10.1297968606
 10
-21.6654006613
 20
-10.1713043752
 10
-21.4997163299
 20
-10.2275251048
 10
-21.339590623
 20
-10.298027386
 10
-21.1862237489
 20
-10.3822872511
 10
-21.0407964597
 20
-10.4796650934
 10
-20.9044290916
 20
-10.5894214958
 10
-20.7781516445
 20
-10.7107463668
 10
-20.6629406571
 20
-10.8427294554
 10
-20.5597050368
 20
-10.9843596104
 10
-20.4692553249
 20
-11.1345570192
  0
LINE
  5
412
100
AcDbEntity
  8
0
100
AcDbLine
 62
253
  6
CONTINUOUS
 10
-27.7304844808
 20
5.8942964347
 11
-26.8882086957
 21
5.7152651897
  0
LINE
  5
413
100
AcDbEntity
  8
0
100
AcDbLine
 62
253
  6
CONTINUOUS
 10
31.8006473484
 20
-6.7594362591
 11
30.9583715632
 21
-6.5804050143
  0
LINE
  5
414
100
AcDbEntity
  8
0
100
AcDbLine
 62
253
  6
CONTINUOUS
 10
26.8882086957
 20
-5.7152651897
 11
27.7304844808
 21
-5.8942964347
  0
LINE
  5
415
100
AcDbEntity
  8
0
100
AcDbLine
 62
253
  6
CONTINUOUS
 10
-30.9583715632
 20
6.5804050143
 11
-31.8006473484
 21
6.7594362591
  0
LWPOLYLINE
  5
416
100
AcDbEntity
  8
0
100
AcDbPolyline
 62
7
  6
CONTINUOUS
 90
13
 70
0
 10
29.2724410577
 20
-13.6499634381
 10
29.2344824468
 20
-13.6356672068
 10
29.1965039458
 20
-13.6263902029
 10
29.1585055545
 20
-13.6221324264
 10
29.1199252014
 20
-13.6230185574
 10
29.0813249581
 20
-13.6289239158
 10
29.0443910393
 20
-13.6394744613
 10
29.0091723571
 20
-13.6548065399
 10
28.9756199993
 20
-13.6747838057
 10
28.9452734438
 20
-13.6986231809
 10
28.9186458496
 20
-13.7260636397
 10
28.8952240576
 20
-13.7573662079
 10
28.8750080678
 20
-13.7925308856
  0
LINE
  5
417
100
AcDbEntity
  8
0
100
AcDbLine
 62
7
  6
CONTINUOUS
 10
29.4041214954
 20
-14.0195195661
 11
30.1669168717
 21
-14.3752168916
  0
LINE
  5
418
100
AcDbEntity
  8
0
100
AcDbLine
 62
7
  6
CONTINUOUS
 10
-30.5414005723
 20
14.2416889776
 11
-29.2724411031
 21
13.6499634593
  0
LINE
  5
419
100
AcDbEntity
  8
0
100
AcDbLine
 62
7
  6
CONTINUOUS
 10
30.5414005244
 20
-14.2416889553
 11
29.2724410577
 21
-13.6499634381
  0
LINE
  5
41A
100
AcDbEntity
  8
0
100
AcDbLine
 62
7
  6
CONTINUOUS
 10
-29.4041215397
 20
14.0195195868
 11
-30.1669169207
 21
14.3752169145
  0
LWPOLYLINE
  5
41B
100
AcDbEntity
  8
0
100
AcDbPolyline
 62
7
  6
CONTINUOUS
 90
13
 70
0
 10
-30.1669169207
 20
14.3752169145
 10
-30.2028809308
 20
14.3955290637
 10
-30.2348580713
 20
14.4191635883
 10
-30.2628483421
 20
14.4461204882
 10
-30.2871251662
 20
14.4769396807
 10
-30.3074151207
 20
14.5110812485
 10
-30.3228979363
 20
14.5469254404
 10
-30.3334275474
 20
14.5845240083
 10
-30.3391500196
 20
14.6238252002
 10
-30.3396832797
 20
14.6630540088
 10
-30.3348999703
 20
14.701618765
 10
-30.3249274488
 20
14.7401111379
 10
-30.3097657153
 20
14.7785311274
  0
LWPOLYLINE
  5
41C
100
AcDbEntity
  8
0
100
AcDbPolyline
 62
7
  6
CONTINUOUS
 90
4
 70
0
 10
28.7469944194
 20
-29.5765323286
 10
28.7634316802
 20
-29.5922503805
 10
28.7747028208
 20
-29.602760255
 10
28.7808078414
 20
-29.6080619518
  0
LINE
  5
41D
100
AcDbEntity
  8
0
100
AcDbLine
 62
7
  6
CONTINUOUS
 10
28.6977549123
 20
-29.5286257156
 11
28.7469944194
 21
-29.5765323286
  0
LINE
  5
41E
100
AcDbEntity
  8
0
100
AcDbLine
 62
7
  6
CONTINUOUS
 10
28.5925740876
 20
-29.4249357761
 11
28.6977549123
 21
-29.5286257156
  0
LINE
  5
41F
100
AcDbEntity
  8
0
100
AcDbLine
 62
7
  6
CONTINUOUS
 10
-29.1192861189
 20
28.2866756568
 11
-28.2539467228
 21
27.4343314646
  0
LINE
  5
420
100
AcDbEntity
  8
0
100
AcDbLine
 62
7
  6
CONTINUOUS
 10
-28.2539467228
 20
27.4343314646
 11
-28.2149046918
 21
27.3956104377
  0
LINE
  5
421
100
AcDbEntity
  8
0
100
AcDbLine
 62
7
  6
CONTINUOUS
 10
28.253946723
 20
-27.4343314668
 11
28.2149046894
 21
-27.3956104391
  0
LWPOLYLINE
  5
422
100
AcDbEntity
  8
0
100
AcDbPolyline
 62
7
  6
CONTINUOUS
 90
3
 70
0
 10
29.1618937633
 20
-28.3290255497
 10
29.1192861202
 20
-28.2866756581
 10
28.253946723
 20
-27.4343314668
  0
LINE
  5
423
100
AcDbEntity
  8
0
100
AcDbLine
 62
7
  6
CONTINUOUS
 10
28.4184478779
 20
-29.2515480058
 11
28.5925740876
 21
-29.4249357761
  0
LINE
  5
424
100
AcDbEntity
  8
0
100
AcDbLine
 62
7
  6
CONTINUOUS
 10
-28.0068222561
 20
26.6234628307
 11
-26.0907616911
 21
24.7074022657
  0
LINE
  5
425
100
AcDbEntity
  8
0
100
AcDbLine
 62
7
  6
CONTINUOUS
 10
24.7074022657
 20
-26.0907616911
 11
26.6234628307
 21
-28.0068222561
  0
LINE
  5
426
100
AcDbEntity
  8
0
100
AcDbLine
 62
7
  6
CONTINUOUS
 10
26.6957405775
 20
-27.8816335263
 11
24.621722592
 21
-25.8076155408
  0
LINE
  5
427
100
AcDbEntity
  8
0
100
AcDbLine
 62
7
  6
CONTINUOUS
 10
-25.8076155408
 20
24.621722592
 11
-27.8816335263
 21
26.6957405775
  0
LINE
  5
428
100
AcDbEntity
  8
0
100
AcDbLine
 62
7
  6
CONTINUOUS
 10
29.5084461572
 20
-30.1286536811
 11
27.4684812385
 21
-28.0886887624
  0
LINE
  5
429
100
AcDbEntity
  8
0
100
AcDbLine
 62
7
  6
CONTINUOUS
 10
-28.0886887624
 20
27.4684812385
 11
-30.1286536811
 21
29.5084461572
  0
LINE
  5
42A
100
AcDbEntity
  8
0
100
AcDbLine
 62
7
  6
CONTINUOUS
 10
-29.5084461572
 20
30.1286536811
 11
-27.4684812385
 21
28.0886887624
  0
LINE
  5
42B
100
AcDbEntity
  8
0
100
AcDbLine
 62
7
  6
CONTINUOUS
 10
28.0886887624
 20
-27.4684812385
 11
30.1286536811
 21
-29.5084461572
  0
LINE
  5
42C
100
AcDbEntity
  8
0
100
AcDbLine
 62
7
  6
CONTINUOUS
 10
-29.2964557704
 20
28.463394317
 11
-29.1192861189
 21
28.2866756568
  0
LINE
  5
42D
100
AcDbEntity
  8
0
100
AcDbLine
 62
7
  6
CONTINUOUS
 10
28.2473233423
 20
-29.0795868342
 11
28.4184478779
 21
-29.2515480058
  0
LINE
  5
42E
100
AcDbEntity
  8
0
100
AcDbLine
 62
7
  6
CONTINUOUS
 10
-29.4635031865
 20
28.6315642458
 11
-29.2964557704
 21
28.463394317
  0
LINE
  5
42F
100
AcDbEntity
  8
0
100
AcDbLine
 62
7
  6
CONTINUOUS
 10
-28.2102584163
 20
29.0420830758
 11
-28.3290244428
 21
29.1618926507
  0
LINE
  5
430
100
AcDbEntity
  8
0
100
AcDbLine
 62
7
  6
CONTINUOUS
 10
27.3956104391
 20
-28.2149046894
 11
27.7098328287
 21
-28.5329290097
  0
LINE
  5
431
100
AcDbEntity
  8
0
100
AcDbLine
 62
7
  6
CONTINUOUS
 10
28.2473233423
 20
-29.0795868342
 11
27.7098328287
 21
-28.5329290097
  0
LINE
  5
432
100
AcDbEntity
  8
0
100
AcDbLine
 62
7
  6
CONTINUOUS
 10
-28.2102584163
 20
29.0420830758
 11
-27.3956104377
 21
28.2149046918
  0
LINE
  5
433
100
AcDbEntity
  8
0
100
AcDbLine
 62
7
  6
CONTINUOUS
 10
-29.5286264521
 20
28.697755664
 11
-29.4635031865
 21
28.6315642458
  0
LWPOLYLINE
  5
434
100
AcDbEntity
  8
0
100
AcDbPolyline
 62
253
  6
CONTINUOUS
 90
13
 70
0
 10
18.544445958
 20
-25.8505319897
 10
18.5210503281
 20
-25.8217923135
 10
18.4940574811
 20
-25.7964587372
 10
18.4639451856
 20
-25.7749154491
 10
18.4314027127
 20
-25.7575542782
 10
18.396836453
 20
-25.7444995035
 10
18.3602674263
 20
-25.735823768
 10
18.3220058826
 20
-25.7318204061
 10
18.2829081422
 20
-25.7327957115
 10
18.2438196673
 20
-25.7388656295
 10
18.205496103
 20
-25.7500073529
 10
18.1685900241
 20
-25.7661287135
 10
18.1338086447
 20
-25.7870355072
  0
LINE
  5
435
100
AcDbEntity
  8
0
100
AcDbLine
 62
253
  6
CONTINUOUS
 10
17.9454044466
 20
-26.262995165
 11
18.2280591844
 21
-26.6201243311
  0
LINE
  5
436
100
AcDbEntity
  8
0
100
AcDbLine
 62
253
  6
CONTINUOUS
 10
18.4677984804
 20
-26.4133955962
 11
18.0297595324
 21
-25.8598922381
  0
LINE
  5
437
100
AcDbEntity
  8
0
100
AcDbLine
 62
7
  6
CONTINUOUS
 10
-18.8427105387
 20
25.8641114201
 11
-18.5878030095
 21
25.5000657404
  0
LINE
  5
438
100
AcDbEntity
  8
0
100
AcDbLine
 62
7
  6
CONTINUOUS
 10
17.6048209093
 20
-26.1883579681
 11
17.8597280856
 21
-26.5524031438
  0
LINE
  5
439
100
AcDbEntity
  8
0
100
AcDbLine
 62
253
  6
CONTINUOUS
 10
-18.1338089797
 20
25.7870360307
 11
-18.5041138485
 21
26.3879673017
  0
LWPOLYLINE
  5
43A
100
AcDbEntity
  8
0
100
AcDbPolyline
 62
253
  6
CONTINUOUS
 90
10
 70
0
 10
-18.7803709835
 20
26.2333914459
 10
-18.5414529498
 20
25.8456374979
 10
-18.5388202274
 20
25.841253716
 10
-18.5365477909
 20
25.8373806438
 10
-18.534634219
 20
25.8340156699
 10
-18.5330809329
 20
25.8311614058
 10
-18.5318921964
 20
25.8288256864
 10
-18.5310694307
 20
25.8270111231
 10
-18.5306112145
 20
25.8257151046
 10
-18.5305175479
 20
25.8249376306
  0
LWPOLYLINE
  5
43B
100
AcDbEntity
  8
0
100
AcDbPolyline
 62
253
  6
CONTINUOUS
 90
13
 70
0
 10
-17.9296930561
 20
26.2456394689
 10
-17.9095749563
 20
26.2125242667
 10
-17.8939348758
 20
26.1772061919
 10
-17.8829889809
 20
26.1402899788
 10
-17.8768908884
 20
26.102587504
 10
-17.8756274354
 20
26.0645379263
 10
-17.8792625711
 20
26.0261892343
 10
-17.8879792772
 20
25.9879508884
 10
-17.901792346
 20
25.9507650247
 10
-17.9205343496
 20
25.9154927083
 10
-17.9439323868
 20
25.8828556595
 10
-17.9716803349
 20
25.853449547
 10
-18.0033545229
 20
25.8278845569
  0
LWPOLYLINE
  5
43C
100
AcDbEntity
  8
0
100
AcDbPolyline
 62
7
  6
CONTINUOUS
 90
13
 70
0
 10
14.2416889607
 20
-30.5414005359
 10
14.2618665262
 20
-30.5771703012
 10
14.2853408942
 20
-30.6090025746
 10
14.3121120645
 20
-30.636897356
 10
14.342710586
 20
-30.6611256661
 10
14.3766059098
 20
-30.6814164842
 10
14.4122063896
 20
-30.6969567486
 10
14.4495632935
 20
-30.7076036768
 10
14.4886253535
 20
-30.7135000512
 10
14.5276471189
 20
-30.7142611577
 10
14.566046773
 20
-30.7097587581
 10
14.6044061325
 20
-30.7001210906
 10
14.6427251975
 20
-30.6853481551
  0
LINE
  5
43D
100
AcDbEntity
  8
0
100
AcDbLine
 62
7
  6
CONTINUOUS
 10
-14.3752169168
 20
30.1669169256
 11
-14.0195195879
 21
29.4041215422
  0
LINE
  5
43E
100
AcDbEntity
  8
0
100
AcDbLine
 62
7
  6
CONTINUOUS
 10
13.6499634431
 20
-29.2724410683
 11
14.2416889607
 21
-30.5414005359
  0
LINE
  5
43F
100
AcDbEntity
  8
0
100
AcDbLine
 62
7
  6
CONTINUOUS
 10
-13.6499634643
 20
29.2724411138
 11
-14.241688983
 21
30.5414005837
  0
LINE
  5
440
100
AcDbEntity
  8
0
100
AcDbLine
 62
7
  6
CONTINUOUS
 10
14.3752168939
 20
-30.1669168765
 11
14.0195195672
 21
-29.4041214979
  0
LWPOLYLINE
  5
441
100
AcDbEntity
  8
0
100
AcDbPolyline
 62
7
  6
CONTINUOUS
 90
13
 70
0
 10
-14.0195195879
 20
29.4041215422
 10
-14.005286787
 20
29.3663915217
 10
-13.9960193413
 20
29.3286301728
 10
-13.9917172508
 20
29.2908374955
 10
-13.9925012474
 20
29.2524599745
 10
-13.9982505992
 20
29.2140511251
 10
-14.0086031103
 20
29.1772714931
 10
-14.0236923796
 20
29.1421683813
 10
-14.0433848081
 20
29.108694487
 10
-14.0669174033
 20
29.0783684476
 10
-14.0940358341
 20
29.0516964757
 10
-14.1249944314
 20
29.0281723587
 10
-14.1597931954
 20
29.0077960967
  0
LINE
  5
442
100
AcDbEntity
  8
0
100
AcDbLine
 62
7
  6
CONTINUOUS
 10
1.1291662216
 20
-16.3404254913
 11
1.1875
 21
-16.5531915426
  0
LINE
  5
443
100
AcDbEntity
  8
0
100
AcDbLine
 62
7
  6
CONTINUOUS
 10
1.0416662216
 20
-16.595744729
 11
1.0125
 21
-16.4680850506
  0
LINE
  5
444
100
AcDbEntity
  8
0
100
AcDbLine
 62
7
  6
CONTINUOUS
 10
1.4791662216
 20
-17.6595744789
 11
1.45
 21
-17.5319148898
  0
LINE
  5
445
100
AcDbEntity
  8
0
100
AcDbLine
 62
7
  6
CONTINUOUS
 10
2.4708337784
 20
-17.1914893389
 11
2.5
 21
-17.3617021442
  0
LINE
  5
446
100
AcDbEntity
  8
0
100
AcDbLine
 62
7
  6
CONTINUOUS
 10
2.4416662216
 20
-16.2978723049
 11
2.4708337784
 21
-16.4680850506
  0
LINE
  5
447
100
AcDbEntity
  8
0
100
AcDbLine
 62
7
  6
CONTINUOUS
 10
1.0416662216
 20
-16.6808511019
 11
1.0416662216
 21
-16.595744729
  0
LINE
  5
448
100
AcDbEntity
  8
0
100
AcDbLine
 62
7
  6
CONTINUOUS
 10
1.0708337784
 20
-17.1489361525
 11
1.0708337784
 21
-17.0638297796
  0
LINE
  5
449
100
AcDbEntity
  8
0
100
AcDbLine
 62
7
  6
CONTINUOUS
 10
1.2166662216
 20
-16.8510638475
 11
1.2166662216
 21
-17.1489361525
  0
LINE
  5
44A
100
AcDbEntity
  8
0
100
AcDbLine
 62
7
  6
CONTINUOUS
 10
1.9166662216
 20
-17.0638297796
 11
1.9166662216
 21
-16.893617034
  0
LINE
  5
44B
100
AcDbEntity
  8
0
100
AcDbLine
 62
7
  6
CONTINUOUS
 10
2.325
 20
-16.5531915426
 11
2.325
 21
-16.4680850506
  0
LINE
  5
44C
100
AcDbEntity
  8
0
100
AcDbLine
 62
7
  6
CONTINUOUS
 10
2.3541662216
 20
-17.5319148898
 11
2.3541662216
 21
-17.3617021441
  0
LINE
  5
44D
100
AcDbEntity
  8
0
100
AcDbLine
 62
7
  6
CONTINUOUS
 10
2.4708337784
 20
-16.4680850506
 11
2.4708337784
 21
-16.5531915426
  0
LINE
  5
44E
100
AcDbEntity
  8
0
100
AcDbLine
 62
7
  6
CONTINUOUS
 10
2.5
 20
-17.3617021442
 11
2.5
 21
-17.5319148898
  0
LINE
  5
44F
100
AcDbEntity
  8
0
100
AcDbLine
 62
7
  6
CONTINUOUS
 10
3.175
 20
22.1382978559
 11
3.175
 21
22.4361702204
  0
LINE
  5
450
100
AcDbEntity
  8
0
100
AcDbLine
 62
7
  6
CONTINUOUS
 10
3.175
 20
22.606382966
 11
3.175
 21
22.904255271
  0
LINE
  5
451
100
AcDbEntity
  8
0
100
AcDbLine
 62
7
  6
CONTINUOUS
 10
3.2333333403
 20
22.904255271
 11
3.2333333403
 21
22.606382966
  0
LINE
  5
452
100
AcDbEntity
  8
0
100
AcDbLine
 62
7
  6
CONTINUOUS
 10
3.2333333403
 20
22.4361702204
 11
3.2333333403
 21
22.1382978559
  0
LINE
  5
453
100
AcDbEntity
  8
0
100
AcDbLine
 62
7
  6
CONTINUOUS
 10
3.8166666389
 20
22.1382978559
 11
3.8166666389
 21
22.4361702204
  0
LINE
  5
454
100
AcDbEntity
  8
0
100
AcDbLine
 62
7
  6
CONTINUOUS
 10
3.8166666389
 20
22.606382966
 11
3.8166666389
 21
22.904255271
  0
LINE
  5
455
100
AcDbEntity
  8
0
100
AcDbLine
 62
7
  6
CONTINUOUS
 10
3.875
 20
22.904255271
 11
3.875
 21
22.606382966
  0
LINE
  5
456
100
AcDbEntity
  8
0
100
AcDbLine
 62
7
  6
CONTINUOUS
 10
3.875
 20
22.4361702204
 11
3.875
 21
22.1382978559
  0
LWPOLYLINE
  5
457
100
AcDbEntity
  8
0
100
AcDbPolyline
 62
253
  6
CONTINUOUS
 90
34
 70
0
 10
5.25
 20
22.55
 10
5.2400478928
 20
22.3561770868
 10
5.2128524397
 20
22.167708111
 10
5.1684136407
 20
21.9845930724
 10
5.105910522
 20
21.8052761412
 10
5.0261640574
 20
21.6313131474
 10
4.9316371684
 20
21.4673715808
 10
4.8221130122
 20
21.3138931212
 10
4.6978084315
 20
21.170436089
 10
4.5618368762
 20
21.0403429346
 10
4.4139565671
 20
20.9238279753
 10
4.2544092833
 20
20.8206768939
 10
4.0870338124
 20
20.7335891888
 10
3.9113276719
 20
20.6628970836
 10
3.7277933443
 20
20.6082683546
 10
3.5417770646
 20
20.5714058292
 10
3.3534391149
 20
20.5528773686
 10
3.162619213
 20
20.5521151115
 10
2.974182747
 20
20.5691183014
 10
2.7880746716
 20
20.6043641201
 10
2.6043500321
 20
20.6573753859
 10
2.428039353
 20
20.7267197973
 10
2.2594534942
 20
20.8127504051
 10
2.0982815957
 20
20.9151141586
 10
1.9486216029
 20
21.0313196041
 10
1.8106663975
 20
21.1617215785
 10
1.6842230977
 20
21.3059652449
 10
1.5728110038
 20
21.4604946392
 10
1.4767525625
 20
21.625848861
 10
1.3957253269
 20
21.8014888106
 10
1.3322812569
 20
21.9822412256
 10
1.2872710057
 20
22.1663816851
 10
1.2598439201
 20
22.3556346099
 10
1.25
 20
22.55
  0
LINE
  5
458
100
AcDbEntity
  8
0
100
AcDbLine
 62
7
  6
CONTINUOUS
 10
1.2166662216
 20
-17.1489361525
 11
1.1875
 21
-17.446808517
  0
LINE
  5
459
100
AcDbEntity
  8
0
100
AcDbLine
 62
7
  6
CONTINUOUS
 10
1.0416662216
 20
-17.4042553306
 11
1.0708337784
 21
-17.1489361525
  0
LINE
  5
45A
100
AcDbEntity
  8
0
100
AcDbLine
 62
7
  6
CONTINUOUS
 10
-1.7041665554
 20
-22.4893617034
 11
-1.7333334446
 21
-22.7021276653
  0
LINE
  5
45B
100
AcDbEntity
  8
0
100
AcDbLine
 62
7
  6
CONTINUOUS
 10
-2.6375
 20
-21.5106383562
 11
-2.6666667223
 21
-21.6808511019
  0
LINE
  5
45C
100
AcDbEntity
  8
0
100
AcDbLine
 62
7
  6
CONTINUOUS
 10
1.4791662216
 20
-16.4680850506
 11
1.5083337784
 21
-16.2978723049
  0
LINE
  5
45D
100
AcDbEntity
  8
0
100
AcDbLine
 62
7
  6
CONTINUOUS
 10
-3.2791667223
 20
-21.7234042883
 11
-3.25
 21
-21.595744729
  0
LINE
  5
45E
100
AcDbEntity
  8
0
100
AcDbLine
 62
7
  6
CONTINUOUS
 10
-3.075
 20
-21.6382979155
 11
-3.1041667223
 21
-21.7659574747
  0
LINE
  5
45F
100
AcDbEntity
  8
0
100
AcDbLine
 62
7
  6
CONTINUOUS
 10
-1.9083334446
 20
-22.6170212627
 11
-1.8791665554
 21
-22.4893617034
  0
LINE
  5
460
100
AcDbEntity
  8
0
100
AcDbLine
 62
7
  6
CONTINUOUS
 10
0.3416668892
 20
-16.4680850506
 11
0.3125
 21
-16.595744729
  0
LWPOLYLINE
  5
461
100
AcDbEntity
  8
0
100
AcDbPolyline
 62
7
  6
CONTINUOUS
 90
19
 70
0
 10
-8.6061326386
 20
-23.52259364
 10
-8.5348433857
 20
-23.3572371853
 10
-8.4789577385
 20
-23.1892159412
 10
-8.4384756972
 20
-23.0185299076
 10
-8.4133698046
 20
-22.843853429
 10
-8.4036675179
 20
-22.6665121609
 10
-8.4094512076
 20
-22.4904830701
 10
-8.4310406634
 20
-22.3157892967
 10
-8.4681160957
 20
-22.1424077005
 10
-8.5198005063
 20
-21.9742458279
 10
-8.5864005622
 20
-21.8114131346
 10
-8.6676095963
 20
-21.653800165
 10
-8.76163061
 20
-21.5049860978
 10
-8.8687455877
 20
-21.3651447966
 10
-8.9886725449
 20
-21.234102398
 10
-9.1187685288
 20
-21.1149164896
 10
-9.2581525549
 20
-21.0086062674
 10
-9.4077056078
 20
-20.9141525356
 10
-9.5674276872
 20
-20.831555294
  0
LWPOLYLINE
  5
462
100
AcDbEntity
  8
0
100
AcDbPolyline
 62
7
  6
CONTINUOUS
 90
12
 70
0
 10
14.261410807
 20
28.822375842
 10
14.2880976293
 20
28.8785350349
 10
14.3130354629
 20
28.931971829
 10
14.3365144669
 20
28.983344118
 10
14.3582444823
 20
29.0319940082
 10
14.3773550317
 20
29.0759478183
 10
14.3937695485
 20
29.1150661862
 10
14.4075645994
 20
29.149488474
 10
14.4180994073
 20
29.1776590876
 10
14.42516038
 20
29.1990594957
 10
14.4289611097
 20
29.2142082295
 10
14.4295015964
 20
29.2231052891
  0
LINE
  5
463
100
AcDbEntity
  8
0
100
AcDbLine
 62
7
  6
CONTINUOUS
 10
-8.0
 20
-18.0
 11
-7.5041665554
 21
-16.9787234068
  0
LINE
  5
464
100
AcDbEntity
  8
0
100
AcDbLine
 62
7
  6
CONTINUOUS
 10
-6.6
 20
-18.0
 11
-6.1041665554
 21
-16.9787234068
  0
LINE
  5
465
100
AcDbEntity
  8
0
100
AcDbLine
 62
253
  6
CONTINUOUS
 10
-9.4608891277
 20
-21.9396384522
 11
-14.0705191442
 21
-31.3907805894
  0
LINE
  5
466
100
AcDbEntity
  8
0
100
AcDbLine
 62
253
  6
CONTINUOUS
 10
-9.3429208243
 20
-21.9971955228
 11
-13.9525402153
 21
-31.4483158685
  0
LINE
  5
467
100
AcDbEntity
  8
0
100
AcDbLine
 62
253
  6
CONTINUOUS
 10
-12.6104694096
 20
-30.5328945696
 11
-9.2378980256
 21
-23.6180985051
  0
LINE
  5
468
100
AcDbEntity
  8
0
100
AcDbLine
 62
253
  6
CONTINUOUS
 10
-9.0866055195
 20
-23.6918887875
 11
-12.4591732412
 21
-30.6066773432
  0
LINE
  5
469
100
AcDbEntity
  8
0
100
AcDbLine
 62
7
  6
CONTINUOUS
 10
-12.2923973674
 20
-31.0805563744
 11
-8.6061326386
 21
-23.52259364
  0
LINE
  5
46A
100
AcDbEntity
  8
0
100
AcDbLine
 62
7
  6
CONTINUOUS
 10
-7.4166665554
 20
-16.8085106611
 11
-7.0083334446
 21
-16.0
  0
LINE
  5
46B
100
AcDbEntity
  8
0
100
AcDbLine
 62
7
  6
CONTINUOUS
 10
-7.4166665554
 20
-17.1914893389
 11
-7.825
 21
-18.0
  0
LINE
  5
46C
100
AcDbEntity
  8
0
100
AcDbLine
 62
7
  6
CONTINUOUS
 10
-6.0166665554
 20
-16.8085106611
 11
-5.6083334446
 21
-16.0
  0
LINE
  5
46D
100
AcDbEntity
  8
0
100
AcDbLine
 62
7
  6
CONTINUOUS
 10
-6.0166665554
 20
-17.1914893389
 11
-6.425
 21
-18.0
  0
LINE
  5
46E
100
AcDbEntity
  8
0
100
AcDbLine
 62
7
  6
CONTINUOUS
 10
-6.8333334446
 20
-16.0
 11
-7.3291665554
 21
-16.9787234068
  0
LINE
  5
46F
100
AcDbEntity
  8
0
100
AcDbLine
 62
7
  6
CONTINUOUS
 10
-5.4333334446
 20
-16.0
 11
-5.9291665554
 21
-16.9787234068
  0
LWPOLYLINE
  5
470
100
AcDbEntity
  8
0
100
AcDbPolyline
 62
253
  6
CONTINUOUS
 90
13
 70
0
 10
-12.4592684507
 20
-30.6066309129
 10
-12.5363914598
 20
-30.7492527137
 10
-12.6247086995
 20
-30.8844236714
 10
-12.7235574419
 20
-31.0113143193
 10
-12.8315806791
 20
-31.1285221085
 10
-12.9485386464
 20
-31.2360864533
 10
-13.0758071998
 20
-31.3349676876
 10
-13.2133196826
 20
-31.4243343797
 10
-13.360090709
 20
-31.5027764558
 10
-13.5165277823
 20
-31.5696660451
 10
-13.6822636227
 20
-31.6237922313
 10
-13.8559823985
 20
-31.6636789917
 10
-14.036550965
 20
-31.6880766584
  0
LWPOLYLINE
  5
471
100
AcDbEntity
  8
0
100
AcDbPolyline
 62
253
  6
CONTINUOUS
 90
13
 70
0
 10
-12.6104694096
 20
-30.5328945696
 10
-12.6778552543
 20
-30.6563470662
 10
-12.7534171712
 20
-30.7717682834
 10
-12.8371551604
 20
-30.8791582212
 10
-12.9290631875
 20
-30.9786912804
 10
-13.0291472869
 20
-31.0701930602
 10
-13.1374255617
 20
-31.1531403582
 10
-13.2541510421
 20
-31.2281668384
 10
-13.3790706978
 20
-31.2946388369
 10
-13.5114435418
 20
-31.3501321586
 10
-13.6510225781
 20
-31.3938387386
 10
-13.7980548026
 20
-31.4265666419
 10
-13.9525402153
 20
-31.4483158685
  0
LWPOLYLINE
  5
472
100
AcDbEntity
  8
0
100
AcDbPolyline
 62
7
  6
CONTINUOUS
 90
4
 70
0
 10
29.5765323286
 20
28.7469944194
 10
29.5922503805
 20
28.7634316801
 10
29.6027602547
 20
28.7747028206
 10
29.6080619514
 20
28.780807841
  0
LINE
  5
473
100
AcDbEntity
  8
0
100
AcDbLine
 62
7
  6
CONTINUOUS
 10
29.5286257156
 20
28.6977549123
 11
29.5765323286
 21
28.7469944194
  0
LINE
  5
474
100
AcDbEntity
  8
0
100
AcDbLine
 62
7
  6
CONTINUOUS
 10
29.4249357761
 20
28.5925740876
 11
29.5286257156
 21
28.6977549123
  0
LINE
  5
475
100
AcDbEntity
  8
0
100
AcDbLine
 62
7
  6
CONTINUOUS
 10
29.2515480058
 20
28.4184478778
 11
29.4249357761
 21
28.5925740876
  0
LINE
  5
476
100
AcDbEntity
  8
0
100
AcDbLine
 62
7
  6
CONTINUOUS
 10
29.8649900659
 20
29.1398784764
 11
28.2261305266
 21
27.5010189371
  0
LINE
  5
477
100
AcDbEntity
  8
0
100
AcDbLine
 62
7
  6
CONTINUOUS
 10
-27.5010189371
 20
-28.2261305266
 11
-29.1398784764
 21
-29.8649900659
  0
LINE
  5
478
100
AcDbEntity
  8
0
100
AcDbLine
 62
7
  6
CONTINUOUS
 10
28.0190752905
 20
26.728278276
 11
25.3386289499
 21
24.0478319354
  0
LINE
  5
479
100
AcDbEntity
  8
0
100
AcDbLine
 62
7
  6
CONTINUOUS
 10
-24.0478319354
 20
-25.3386289499
 11
-26.728278276
 21
-28.0190752905
  0
LINE
  5
47A
100
AcDbEntity
  8
0
100
AcDbLine
 62
7
  6
CONTINUOUS
 10
-26.6943960902
 20
-28.0777609578
 11
-24.2783397229
 21
-25.6616991483
  0
LINE
  5
47B
100
AcDbEntity
  8
0
100
AcDbLine
 62
7
  6
CONTINUOUS
 10
25.6616991483
 20
24.2783397229
 11
28.0777609579
 21
26.6943960902
  0
LINE
  5
47C
100
AcDbEntity
  8
0
100
AcDbLine
 62
7
  6
CONTINUOUS
 10
-28.5084904497
 20
-29.3414133824
 11
-28.3290255407
 21
-29.1618937542
  0
LINE
  5
47D
100
AcDbEntity
  8
0
100
AcDbLine
 62
7
  6
CONTINUOUS
 10
29.1618926562
 20
28.3290244481
 11
29.2515480058
 21
28.4184478778
  0
LINE
  5
47E
100
AcDbEntity
  8
0
100
AcDbLine
 62
7
  6
CONTINUOUS
 10
-28.6315642458
 20
-29.4635031865
 11
-28.5084904497
 21
-29.3414133824
  0
LINE
  5
47F
100
AcDbEntity
  8
0
100
AcDbLine
 62
7
  6
CONTINUOUS
 10
-28.6977556641
 20
-29.5286264521
 11
-28.6315642458
 21
-29.4635031865
  0
LWPOLYLINE
  5
480
100
AcDbEntity
  8
0
100
AcDbPolyline
 62
7
  6
CONTINUOUS
 90
5
 70
0
 10
-28.7808078514
 20
-29.6080619588
 10
-28.7747029038
 20
-29.6027603313
 10
-28.7634318705
 20
-29.5922505611
 10
-28.7469947513
 20
-29.5765326483
 10
-28.6977556641
 20
-29.5286264521
  0
LWPOLYLINE
  5
481
100
AcDbEntity
  8
0
100
AcDbPolyline
 62
7
  6
CONTINUOUS
 90
19
 70
0
 10
30.3946271495
 20
13.9021816848
 10
30.5439416867
 20
13.9940539654
 10
30.6828012365
 20
14.0964671381
 10
30.8112057987
 20
14.209421203
 10
30.9298915053
 20
14.3338992058
 10
31.0381222243
 20
14.4689181008
 10
31.1336895605
 20
14.6115287502
 10
31.2163470164
 20
14.7618831162
 10
31.2863410895
 20
14.9198292366
 10
31.3422028758
 20
15.0819620875
 10
31.3836506503
 20
15.2483652301
 10
31.4109661382
 20
15.4189551032
 10
31.4235256111
 20
15.5900759984
 10
31.4210393871
 20
15.7617353484
 10
31.4037971481
 20
15.9339257206
 10
31.3720442119
 20
16.1029691087
 10
31.3258623512
 20
16.2676395106
 10
31.2651697932
 20
16.4291629284
 10
31.1899665381
 20
16.5875393621
  0
LINE
  5
482
100
AcDbEntity
  8
0
100
AcDbLine
 62
253
  6
CONTINUOUS
 10
29.7392275132
 20
14.3137933406
 11
23.0472045695
 21
10.6043444504
  0
LINE
  5
483
100
AcDbEntity
  8
0
100
AcDbLine
 62
253
  6
CONTINUOUS
 10
29.8848817083
 20
14.0519946363
 11
23.1920159045
 21
10.342078541
  0
LINE
  5
484
100
AcDbEntity
  8
0
100
AcDbLine
 62
7
  6
CONTINUOUS
 10
23.0399464758
 20
9.8254156168
 11
30.3946271495
 21
13.9021816848
  0
LWPOLYLINE
  5
485
100
AcDbEntity
  8
0
100
AcDbPolyline
 62
253
  6
CONTINUOUS
 90
19
 70
0
 10
23.192008185
 20
10.3420924514
 10
23.0350102707
 20
10.2638616772
 10
22.8718248365
 20
10.1997376151
 10
22.7037177473
 20
10.1501946593
 10
22.5320006473
 20
10.1155961604
 10
22.357987719
 20
10.0961838041
 10
22.1829841061
 20
10.0920858985
 10
22.0083327957
 20
10.1033224805
 10
21.8353737058
 20
10.129796869
 10
21.6654006641
 20
10.1713043872
 10
21.499716335
 20
10.2275251195
 10
21.3395906307
 20
10.2980274027
 10
21.1862237591
 20
10.3822872687
 10
21.0407964723
 20
10.479665111
 10
20.9044291061
 20
10.5894215126
 10
20.7781516603
 20
10.710746382
 10
20.6629406734
 20
10.8427294685
 10
20.5597050527
 20
10.9843596211
 10
20.4692553396
 20
11.1345570272
  0
LWPOLYLINE
  5
486
100
AcDbEntity
  8
0
100
AcDbPolyline
 62
7
  6
CONTINUOUS
 90
13
 70
0
 10
-29.2724411031
 20
13.6499634593
 10
-29.2344824715
 20
13.6356672243
 10
-29.1965039553
 20
13.6263902177
 10
-29.1585055544
 20
13.6221324395
 10
-29.1199251993
 20
13.62301857
 10
-29.0813249595
 20
13.6289239289
 10
-29.044391044
 20
13.6394744746
 10
-29.0091723644
 20
13.6548065509
 10
-28.9756200091
 20
13.674783814
 10
-28.9452734521
 20
13.6986231909
 10
-28.9186458516
 20
13.7260636573
 10
-28.8952240494
 20
13.7573662375
 10
-28.8750080456
 20
13.7925309316
  0
LWPOLYLINE
  5
487
100
AcDbEntity
  8
0
100
AcDbPolyline
 62
7
  6
CONTINUOUS
 90
13
 70
0
 10
30.1669168717
 20
-14.3752168916
 10
30.2028808991
 20
-14.3955290556
 10
30.2348580522
 20
-14.4191635908
 10
30.262848331
 20
-14.4461204975
 10
30.2871251568
 20
-14.4769396913
 10
30.3074151084
 20
-14.5110812566
 10
30.3228979215
 20
-14.5469254457
 10
30.3334275327
 20
-14.5845240101
 10
30.3391500054
 20
-14.6238251984
 10
30.3396832653
 20
-14.6630540086
 10
30.3348999542
 20
-14.7016187734
 10
30.3249274303
 20
-14.7401111601
 10
30.3097656935
 20
-14.7785311687
  0
LWPOLYLINE
  5
488
100
AcDbEntity
  8
0
100
AcDbPolyline
 62
7
  6
CONTINUOUS
 90
4
 70
0
 10
-28.7469944189
 20
29.576532328
 10
-28.7634316818
 20
29.5922503815
 10
-28.7747028261
 20
29.6027602586
 10
-28.7808078518
 20
29.6080619592
  0
LINE
  5
489
100
AcDbEntity
  8
0
100
AcDbLine
 62
7
  6
CONTINUOUS
 10
-28.6977549129
 20
29.5286257163
 11
-28.7469944189
 21
29.576532328
  0
LINE
  5
48A
100
AcDbEntity
  8
0
100
AcDbLine
 62
7
  6
CONTINUOUS
 10
-28.5925740889
 20
29.4249357775
 11
-28.6977549129
 21
29.5286257163
  0
LINE
  5
48B
100
AcDbEntity
  8
0
100
AcDbLine
 62
7
  6
CONTINUOUS
 10
-28.418447883
 20
29.2515480109
 11
-28.5925740889
 21
29.4249357775
  0
LINE
  5
48C
100
AcDbEntity
  8
0
100
AcDbLine
 62
7
  6
CONTINUOUS
 10
-26.6957405775
 20
27.8816335263
 11
-24.621722592
 21
25.8076155408
  0
LINE
  5
48D
100
AcDbEntity
  8
0
100
AcDbLine
 62
7
  6
CONTINUOUS
 10
25.8076155408
 20
-24.621722592
 11
27.8816335263
 21
-26.6957405775
  0
LINE
  5
48E
100
AcDbEntity
  8
0
100
AcDbLine
 62
7
  6
CONTINUOUS
 10
28.0068222561
 20
-26.6234628307
 11
26.0907616911
 21
-24.7074022657
  0
LINE
  5
48F
100
AcDbEntity
  8
0
100
AcDbLine
 62
7
  6
CONTINUOUS
 10
-24.7074022657
 20
26.0907616911
 11
-26.6234628307
 21
28.0068222561
  0
LINE
  5
490
100
AcDbEntity
  8
0
100
AcDbLine
 62
7
  6
CONTINUOUS
 10
29.3414133807
 20
-28.5084904481
 11
29.1618937633
 21
-28.3290255497
  0
LINE
  5
491
100
AcDbEntity
  8
0
100
AcDbLine
 62
7
  6
CONTINUOUS
 10
-28.3290244428
 20
29.1618926507
 11
-28.418447883
 21
29.2515480109
  0
LINE
  5
492
100
AcDbEntity
  8
0
100
AcDbLine
 62
7
  6
CONTINUOUS
 10
29.4635031833
 20
-28.6315642425
 11
29.3414133807
 21
-28.5084904481
  0
LINE
  5
493
100
AcDbEntity
  8
0
100
AcDbLine
 62
7
  6
CONTINUOUS
 10
29.5286264492
 20
-28.6977556613
 11
29.4635031833
 21
-28.6315642425
  0
LWPOLYLINE
  5
494
100
AcDbEntity
  8
0
100
AcDbPolyline
 62
7
  6
CONTINUOUS
 90
5
 70
0
 10
29.6080619518
 20
-28.7808078414
 10
29.6027603272
 20
-28.7747028981
 10
29.5922505591
 20
-28.7634318678
 10
29.5765326473
 20
-28.7469947503
 10
29.5286264492
 20
-28.6977556613
  0
LWPOLYLINE
  5
495
100
AcDbEntity
  8
0
100
AcDbPolyline
 62
253
  6
CONTINUOUS
 90
13
 70
0
 10
-18.544445958
 20
25.8505319897
 10
-18.5210503281
 20
25.8217923135
 10
-18.4940574811
 20
25.7964587372
 10
-18.4639451856
 20
25.7749154491
 10
-18.4314027127
 20
25.7575542782
 10
-18.396836453
 20
25.7444995035
 10
-18.3602674263
 20
25.735823768
 10
-18.3220058826
 20
25.7318204061
 10
-18.2829081422
 20
25.7327957115
 10
-18.2438196673
 20
25.7388656295
 10
-18.205496103
 20
25.7500073529
 10
-18.1685900241
 20
25.7661287135
 10
-18.1338086447
 20
25.7870355072
  0
LINE
  5
496
100
AcDbEntity
  8
0
100
AcDbLine
 62
253
  6
CONTINUOUS
 10
-18.4677984803
 20
26.4133955962
 11
-18.0297595324
 21
25.859892238
  0
LINE
  5
497
100
AcDbEntity
  8
0
100
AcDbLine
 62
253
  6
CONTINUOUS
 10
-17.9454044466
 20
26.262995165
 11
-18.2280591844
 21
26.6201243311
  0
LINE
  5
498
100
AcDbEntity
  8
0
100
AcDbLine
 62
7
  6
CONTINUOUS
 10
18.8427105387
 20
-25.8641114201
 11
18.5878033625
 21
-25.5000662445
  0
LINE
  5
499
100
AcDbEntity
  8
0
100
AcDbLine
 62
7
  6
CONTINUOUS
 10
-17.6048205564
 20
26.188357464
 11
-17.8597280856
 21
26.5524031438
  0
LINE
  5
49A
100
AcDbEntity
  8
0
100
AcDbLine
 62
253
  6
CONTINUOUS
 10
18.1338089797
 20
-25.7870360307
 11
18.5041138485
 21
-26.3879673017
  0
LWPOLYLINE
  5
49B
100
AcDbEntity
  8
0
100
AcDbPolyline
 62
253
  6
CONTINUOUS
 90
10
 70
0
 10
18.7803709835
 20
-26.2333914459
 10
18.5414529498
 20
-25.8456374979
 10
18.5388202274
 20
-25.841253716
 10
18.5365477909
 20
-25.8373806438
 10
18.534634219
 20
-25.8340156699
 10
18.5330809329
 20
-25.8311614058
 10
18.5318921964
 20
-25.8288256864
 10
18.5310694307
 20
-25.8270111231
 10
18.5306112145
 20
-25.8257151046
 10
18.5305175479
 20
-25.8249376306
  0
LWPOLYLINE
  5
49C
100
AcDbEntity
  8
0
100
AcDbPolyline
 62
253
  6
CONTINUOUS
 90
13
 70
0
 10
17.9296930561
 20
-26.2456394689
 10
17.9095749563
 20
-26.2125242667
 10
17.8939348758
 20
-26.1772061919
 10
17.8829889809
 20
-26.1402899788
 10
17.8768908884
 20
-26.102587504
 10
17.8756274354
 20
-26.0645379263
 10
17.8792625711
 20
-26.0261892343
 10
17.8879792772
 20
-25.9879508884
 10
17.901792346
 20
-25.9507650247
 10
17.9205343496
 20
-25.9154927083
 10
17.9439323868
 20
-25.8828556595
 10
17.9716803349
 20
-25.853449547
 10
18.0033545229
 20
-25.8278845569
  0
LWPOLYLINE
  5
49D
100
AcDbEntity
  8
0
100
AcDbPolyline
 62
7
  6
CONTINUOUS
 90
13
 70
0
 10
-14.241688983
 20
30.5414005837
 10
-14.2618665342
 20
30.5771703321
 10
-14.2853408917
 20
30.6090025931
 10
-14.3121120555
 20
30.6368973667
 10
-14.3427105756
 20
30.6611256751
 10
-14.376605902
 20
30.6814164961
 10
-14.4122063845
 20
30.6969567629
 10
-14.4495632918
 20
30.707603691
 10
-14.4886253552
 20
30.7135000649
 10
-14.5276471191
 20
30.7142611717
 10
-14.5660467647
 20
30.7097587736
 10
-14.6044061108
 20
30.7001211084
 10
-14.6427251573
 20
30.685348176
  0
LWPOLYLINE
  5
49E
100
AcDbEntity
  8
0
100
AcDbPolyline
 62
7
  6
CONTINUOUS
 90
13
 70
0
 10
14.0195195672
 20
-29.4041214979
 10
14.00528677
 20
-29.3663914977
 10
13.996019327
 20
-29.3286301636
 10
13.9917172382
 20
-29.2908374956
 10
13.9925012352
 20
-29.2524599767
 10
13.9982505865
 20
-29.2140511238
 10
14.0086030975
 20
-29.1772714885
 10
14.0236923691
 20
-29.1421683741
 10
14.0433848005
 20
-29.1086944773
 10
14.0669173935
 20
-29.0783684396
 10
14.0940358158
 20
-29.0516964748
 10
14.1249943998
 20
-29.0281723691
 10
14.1597931456
 20
-29.0077961225
  0
LINE
  5
49F
100
AcDbEntity
  8
0
100
AcDbLine
 62
7
  6
CONTINUOUS
 10
4.4583332777
 20
22.1382978559
 11
4.4583332777
 21
22.4361702204
  0
LINE
  5
4A0
100
AcDbEntity
  8
0
100
AcDbLine
 62
7
  6
CONTINUOUS
 10
4.4583332777
 20
22.606382966
 11
4.4583332777
 21
22.904255271
  0
LINE
  5
4A1
100
AcDbEntity
  8
0
100
AcDbLine
 62
7
  6
CONTINUOUS
 10
4.5166667223
 20
22.904255271
 11
4.5166667223
 21
22.606382966
  0
LINE
  5
4A2
100
AcDbEntity
  8
0
100
AcDbLine
 62
7
  6
CONTINUOUS
 10
4.5166667223
 20
22.4361702204
 11
4.5166667223
 21
22.1382978559
  0
LINE
  5
4A3
100
AcDbEntity
  8
0
100
AcDbLine
 62
7
  6
CONTINUOUS
 10
2.4708337784
 20
-16.5531915426
 11
2.4416662216
 21
-16.7234042883
  0
LINE
  5
4A4
100
AcDbEntity
  8
0
100
AcDbLine
 62
7
  6
CONTINUOUS
 10
1.0125
 20
-16.8085106611
 11
1.0416662216
 21
-16.6808511019
  0
LINE
  5
4A5
100
AcDbEntity
  8
0
100
AcDbLine
 62
7
  6
CONTINUOUS
 10
1.0125
 20
-17.5319148898
 11
1.0416662216
 21
-17.4042553306
  0
LINE
  5
4A6
100
AcDbEntity
  8
0
100
AcDbLine
 62
7
  6
CONTINUOUS
 10
2.5
 20
-17.5319148898
 11
2.4708337784
 21
-17.6595744789
  0
LINE
  5
4A7
100
AcDbEntity
  8
0
100
AcDbLine
 62
7
  6
CONTINUOUS
 10
13.0207818575
 20
26.4697373777
 11
13.1217678325
 21
26.8439173353
  0
LINE
  5
4A8
100
AcDbEntity
  8
0
100
AcDbLine
 62
7
  6
CONTINUOUS
 10
0.1666668892
 20
-16.5531915426
 11
0.225
 21
-16.3404254913
  0
LINE
  5
4A9
100
AcDbEntity
  8
0
100
AcDbLine
 62
7
  6
CONTINUOUS
 10
1.1875
 20
-17.446808517
 11
1.1291662216
 21
-17.6595744789
  0
LINE
  5
4AA
100
AcDbEntity
  8
0
100
AcDbLine
 62
7
  6
CONTINUOUS
 10
-0.825
 20
-18.0
 11
-0.2416668892
 21
-16.2127659321
  0
LINE
  5
4AB
100
AcDbEntity
  8
0
100
AcDbLine
 62
7
  6
CONTINUOUS
 10
-0.0666668892
 20
-16.2127659321
 11
-0.65
 21
-18.0
  0
LINE
  5
4AC
100
AcDbEntity
  8
0
100
AcDbLine
 62
7
  6
CONTINUOUS
 10
-2.8125
 20
-21.4680850506
 11
-2.7541667223
 21
-21.2978723049
  0
LINE
  5
4AD
100
AcDbEntity
  8
0
100
AcDbLine
 62
7
  6
CONTINUOUS
 10
2.2666662216
 20
-16.7234042883
 11
2.325
 21
-16.5531915426
  0
LINE
  5
4AE
100
AcDbEntity
  8
0
100
AcDbLine
 62
7
  6
CONTINUOUS
 10
2.325
 20
-17.6170212627
 11
2.3541662216
 21
-17.5319148898
  0
LINE
  5
4AF
100
AcDbEntity
  8
0
100
AcDbLine
 62
7
  6
CONTINUOUS
 10
-5.0
 20
-21.6808511019
 11
-4.9416666649
 21
-21.5531915426
  0
LINE
  5
4B0
100
AcDbEntity
  8
0
100
AcDbLine
 62
7
  6
CONTINUOUS
 10
-2.5791667223
 20
-21.3829786777
 11
-2.6375
 21
-21.5106383562
  0
LINE
  5
4B1
100
AcDbEntity
  8
0
100
AcDbLine
 62
7
  6
CONTINUOUS
 10
0.4
 20
-16.3404254913
 11
0.3416668892
 21
-16.4680850506
  0
LINE
  5
4B2
100
AcDbEntity
  8
0
100
AcDbLine
 62
7
  6
CONTINUOUS
 10
0.9541662216
 20
-16.9361702204
 11
1.0125
 21
-16.8085106611
  0
LINE
  5
4B3
100
AcDbEntity
  8
0
100
AcDbLine
 62
7
  6
CONTINUOUS
 10
-3.1041667223
 20
-21.7659574747
 11
-3.1916667223
 21
-21.9361702204
  0
LINE
  5
4B4
100
AcDbEntity
  8
0
100
AcDbLine
 62
7
  6
CONTINUOUS
 10
0.225
 20
-16.3404254913
 11
0.3125
 21
-16.1702127457
  0
LINE
  5
4B5
100
AcDbEntity
  8
0
100
AcDbLine
 62
7
  6
CONTINUOUS
 10
-4.5583331108
 20
-17.1489361525
 11
-3.8583331108
 21
-16.0
  0
LINE
  5
4B6
100
AcDbEntity
  8
0
100
AcDbLine
 62
7
  6
CONTINUOUS
 10
-2.5166668892
 20
-17.1489361525
 11
-1.8166668892
 21
-16.0
  0
LINE
  5
4B7
100
AcDbEntity
  8
0
100
AcDbLine
 62
7
  6
CONTINUOUS
 10
-3.8583331108
 20
-16.3404254913
 11
-4.3541668892
 21
-17.1489361525
  0
LINE
  5
4B8
100
AcDbEntity
  8
0
100
AcDbLine
 62
7
  6
CONTINUOUS
 10
-1.8166668892
 20
-16.3404254913
 11
-2.3125
 21
-17.1489361525
  0
LINE
  5
4B9
100
AcDbEntity
  8
0
100
AcDbLine
 62
7
  6
CONTINUOUS
 10
24.2783397229
 20
25.6616991483
 11
24.0478319354
 21
25.3386289499
  0
LINE
  5
4BA
100
AcDbEntity
  8
0
100
AcDbLine
 62
7
  6
CONTINUOUS
 10
29.6080619514
 20
28.780807841
 11
29.8649900659
 21
29.1398784764
  0
LINE
  5
4BB
100
AcDbEntity
  8
0
100
AcDbLine
 62
7
  6
CONTINUOUS
 10
-29.1398784764
 20
-29.8649900659
 11
-28.7808078514
 21
-29.6080619588
  0
LINE
  5
4BC
100
AcDbEntity
  8
0
100
AcDbLine
 62
7
  6
CONTINUOUS
 10
-25.33862895
 20
-24.0478319354
 11
-25.6616991483
 21
-24.2783397229
  0
LINE
  5
4BD
100
AcDbEntity
  8
0
100
AcDbLine
 62
7
  6
CONTINUOUS
 10
-25.3129902458
 20
-14.1510609078
 11
-25.7363671242
 21
-14.2881167145
  0
LWPOLYLINE
  5
4BE
100
AcDbEntity
  8
0
100
AcDbPolyline
 62
253
  6
CONTINUOUS
 90
13
 70
0
 10
24.9608370672
 20
-10.9746536945
 10
24.9464545917
 20
-10.9646858658
 10
24.9287560487
 20
-10.9584425023
 10
24.9080382738
 20
-10.9560283163
 10
24.8846487409
 20
-10.957483798
 10
24.8589797337
 20
-10.9627845364
 10
24.8314617667
 20
-10.9718416286
 10
24.802556365
 20
-10.9845031713
 10
24.7727483232
 20
-11.000556808
 10
24.7425375748
 20
-11.0197332909
 10
24.7124308074
 20
-11.0417109964
 10
24.6829329648
 20
-11.0661213197
 10
24.6545387778
 20
-11.0925548564
  0
LINE
  5
4BF
100
AcDbEntity
  8
0
100
AcDbLine
 62
7
  6
CONTINUOUS
 10
-28.7808078518
 20
29.6080619592
 11
-29.5084461572
 21
30.1286536811
  0
LINE
  5
4C0
100
AcDbEntity
  8
0
100
AcDbLine
 62
253
  6
CONTINUOUS
 10
23.7025757558
 20
-12.2329150058
 11
24.979920923
 21
-13.4883498144
  0
LINE
  5
4C1
100
AcDbEntity
  8
0
100
AcDbLine
 62
7
  6
CONTINUOUS
 10
23.546625695
 20
-12.232917196
 11
27.5657565497
 21
-16.2520480507
  0
LINE
  5
4C2
100
AcDbEntity
  8
0
100
AcDbLine
 62
7
  6
CONTINUOUS
 10
30.1286536811
 20
-29.5084461572
 11
29.6080619518
 21
-28.7808078414
  0
LINE
  5
4C3
100
AcDbEntity
  8
0
100
AcDbLine
 62
7
  6
CONTINUOUS
 10
1.7767866907
 20
12.627694348
 11
1.0110837287
 21
13.9096281801
  0
LINE
  5
4C4
100
AcDbEntity
  8
0
100
AcDbLine
 62
7
  6
CONTINUOUS
 10
0.9541662216
 20
-17.6595744789
 11
1.0125
 21
-17.5319148898
  0
LINE
  5
4C5
100
AcDbEntity
  8
0
100
AcDbLine
 62
7
  6
CONTINUOUS
 10
1.6833337784
 20
-16.3404254913
 11
1.625
 21
-16.4680850506
  0
LINE
  5
4C6
100
AcDbEntity
  8
0
100
AcDbLine
 62
7
  6
CONTINUOUS
 10
-0.8583334446
 20
-22.2765957713
 11
-0.9166665554
 21
-22.4042553306
  0
LINE
  5
4C7
100
AcDbEntity
  8
0
100
AcDbLine
 62
7
  6
CONTINUOUS
 10
2.4416662216
 20
-16.7234042883
 11
2.3833337784
 21
-16.8510638475
  0
LINE
  5
4C8
100
AcDbEntity
  8
0
100
AcDbLine
 62
7
  6
CONTINUOUS
 10
2.4708337784
 20
-17.6595744789
 11
2.4125
 21
-17.7872340381
  0
LINE
  5
4C9
100
AcDbEntity
  8
0
100
AcDbLine
 62
7
  6
CONTINUOUS
 10
1.1291662216
 20
-17.6595744789
 11
1.0416662216
 21
-17.8297872394
  0
LINE
  5
4CA
100
AcDbEntity
  8
0
100
AcDbLine
 62
7
  6
CONTINUOUS
 10
-3.3375
 20
-21.8085106611
 11
-3.2791667223
 21
-21.7234042883
  0
LINE
  5
4CB
100
AcDbEntity
  8
0
100
AcDbLine
 62
7
  6
CONTINUOUS
 10
-2.7541667223
 20
-21.2978723049
 11
-2.6375
 21
-21.1276595593
  0
LINE
  5
4CC
100
AcDbEntity
  8
0
100
AcDbLine
 62
7
  6
CONTINUOUS
 10
1.5083337784
 20
-16.2978723049
 11
1.625
 21
-16.1276595593
  0
LINE
  5
4CD
100
AcDbEntity
  8
0
100
AcDbLine
 62
7
  6
CONTINUOUS
 10
2.2083337784
 20
-16.8085106611
 11
2.2666662216
 21
-16.7234042883
  0
LINE
  5
4CE
100
AcDbEntity
  8
0
100
AcDbLine
 62
7
  6
CONTINUOUS
 10
-1.7333334446
 20
-22.7021276653
 11
-1.85
 21
-22.8723404259
  0
LWPOLYLINE
  5
4CF
100
AcDbEntity
  8
0
100
AcDbPolyline
 62
7
  6
CONTINUOUS
 90
12
 70
0
 10
26.947962538
 20
14.9659046885
 10
26.9424352665
 20
14.9589369416
 10
26.9306499998
 20
14.9487172485
 10
26.9126067378
 20
14.9352456091
 10
26.8878330629
 20
14.918219753
 10
26.8568013927
 20
14.8979419507
 10
26.8209289802
 20
14.8753190133
 10
26.7800732521
 20
14.8502807354
 10
26.7343767816
 20
14.8228973225
 10
26.6856845417
 20
14.7942862027
 10
26.6346115234
 20
14.7648198521
 10
26.5805427357
 20
14.7341257947
  0
LWPOLYLINE
  5
4D0
100
AcDbEntity
  8
0
100
AcDbPolyline
 62
7
  6
CONTINUOUS
 90
13
 70
0
 10
-13.7137048533
 20
-27.7555067751
 10
-13.7203664769
 20
-27.7613758304
 10
-13.7299486593
 20
-27.7736657462
 10
-13.7424514005
 20
-27.7923765227
 10
-13.7581518278
 20
-27.8179957509
 10
-13.7767728138
 20
-27.8500358397
 10
-13.7974829772
 20
-27.8870340157
 10
-13.8203449849
 20
-27.9291363347
 10
-13.8452961698
 20
-27.9761967409
 10
-13.8713171494
 20
-28.0263142946
 10
-13.8980681294
 20
-28.0788553493
 10
-13.9258889041
 20
-28.1344535515
 10
-13.9547794734
 20
-28.1931089013
  0
LINE
  5
4D1
100
AcDbEntity
  8
0
100
AcDbLine
 62
253
  6
CONTINUOUS
 10
-23.7025757558
 20
11.8087155546
 11
-23.5466235048
 21
11.8087155546
  0
LWPOLYLINE
  5
4D2
100
AcDbEntity
  8
0
100
AcDbPolyline
 62
253
  6
CONTINUOUS
 90
10
 70
0
 10
-18.0033544685
 20
25.827884595
 10
-18.0042202112
 20
25.8284773502
 10
-18.0056069787
 20
25.8298162808
 10
-18.0075138625
 20
25.831900089
 10
-18.0099397525
 20
25.834726615
 10
-18.0128825188
 20
25.8382933917
 10
-18.0163390046
 20
25.8425976341
 10
-18.020306125
 20
25.8476355116
 10
-18.0247808786
 20
25.8534021628
 10
-18.0297595237
 20
25.8598922441
  0
LINE
  5
4D3
100
AcDbEntity
  8
0
100
AcDbLine
 62
253
  6
CONTINUOUS
 10
23.8204769177
 20
-11.9266167165
 11
25.0978220849
 21
-13.1820515251
  0
LINE
  5
4D4
100
AcDbEntity
  8
0
100
AcDbLine
 62
253
  6
CONTINUOUS
 10
27.7234657908
 20
-16.2318946822
 11
24.979920923
 21
-13.4883498144
  0
LINE
  5
4D5
100
AcDbEntity
  8
0
100
AcDbLine
 62
253
  6
CONTINUOUS
 10
23.7025757558
 20
-11.8087155546
 11
23.8204769177
 21
-11.9266167165
  0
LINE
  5
4D6
100
AcDbEntity
  8
0
100
AcDbLine
 62
253
  6
CONTINUOUS
 10
25.0978220849
 20
-13.1820515251
 11
27.8827886475
 21
-15.9670180877
  0
LINE
  5
4D7
100
AcDbEntity
  8
0
100
AcDbLine
 62
253
  6
CONTINUOUS
 10
25.9099735864
 20
-12.3699000235
 11
28.4579224937
 21
-14.9178489307
  0
LINE
  5
4D8
100
AcDbEntity
  8
0
100
AcDbLine
 62
253
  6
CONTINUOUS
 10
24.6545387778
 20
-11.0925548564
 11
24.5366376159
 21
-10.9746536945
  0
LINE
  5
4D9
100
AcDbEntity
  8
0
100
AcDbLine
 62
253
  6
CONTINUOUS
 10
26.2162718758
 20
-12.2519988616
 11
28.598848792
 21
-14.6345757778
  0
LINE
  5
4DA
100
AcDbEntity
  8
0
100
AcDbLine
 62
7
  6
CONTINUOUS
 10
28.5652530721
 20
-14.4231174483
 11
24.9608392573
 21
-10.8187036336
  0
LINE
  5
4DB
100
AcDbEntity
  8
0
100
AcDbLine
 62
253
  6
CONTINUOUS
 10
25.9099735864
 20
-12.3699000235
 11
24.6545387778
 21
-11.0925548564
  0
LINE
  5
4DC
100
AcDbEntity
  8
0
100
AcDbLine
 62
253
  6
CONTINUOUS
 10
26.2162718758
 20
-12.2519988616
 11
24.9608370672
 21
-10.9746536945
  0
LWPOLYLINE
  5
4DD
100
AcDbEntity
  8
0
100
AcDbPolyline
 62
7
  6
CONTINUOUS
 90
13
 70
0
 10
23.7025757558
 20
-12.2329150058
 10
23.676737975
 20
-12.2034385116
 10
23.6549559096
 20
-12.1708307466
 10
23.6376065674
 20
-12.1356457558
 10
23.6249904686
 20
-12.0984777393
 10
23.6173316123
 20
-12.0599656061
 10
23.6147668452
 20
-12.0207835135
 10
23.6173399824
 20
-11.9816013976
 10
23.6250068185
 20
-11.9430918238
 10
23.6376282552
 20
-11.9059324572
 10
23.6549775626
 20
-11.8707623095
 10
23.6767528376
 20
-11.8381726744
 10
23.7025757558
 20
-11.8087155546
  0
LINE
  5
4DE
100
AcDbEntity
  8
0
100
AcDbLine
 62
7
  6
CONTINUOUS
 10
1.4985897312
 20
14.01
 11
2.0
 21
13.1705429008
  0
LWPOLYLINE
  5
4DF
100
AcDbEntity
  8
0
100
AcDbPolyline
 62
253
  6
CONTINUOUS
 90
10
 70
0
 10
18.112762685
 20
-25.7512761371
 10
18.1130237317
 20
-25.7522927368
 10
18.1138079456
 20
-25.7540543957
 10
18.1151143285
 20
-25.7565596882
 10
18.1169411523
 20
-25.75980673
 10
18.1192867336
 20
-25.7637925333
 10
18.1221493939
 20
-25.7685129504
 10
18.1255264505
 20
-25.7739635668
 10
18.1294142612
 20
-25.780139764
 10
18.133808971
 20
-25.7870360368
  0
LWPOLYLINE
  5
4E0
100
AcDbEntity
  8
0
100
AcDbPolyline
 62
253
  6
CONTINUOUS
 90
13
 70
0
 10
13.9525351832
 20
31.4483176347
 10
13.951982823
 20
31.4745158829
 10
13.9538244547
 20
31.5010989983
 10
13.9575987724
 20
31.527554629
 10
13.9619718164
 20
31.5532024302
 10
13.9666639713
 20
31.5777207914
 10
13.9730628654
 20
31.6010174546
 10
13.9809913019
 20
31.6225419442
 10
13.9895203886
 20
31.6417307327
 10
13.9995985168
 20
31.6583627825
 10
14.0113601288
 20
31.6719910818
 10
14.0238428548
 20
31.6820343818
 10
14.0365521966
 20
31.6880658716
  0
LINE
  5
4E1
100
AcDbEntity
  8
0
100
AcDbLine
 62
253
  6
CONTINUOUS
 10
13.0
 20
-39.0
 11
13.0
 21
-38.9475922207
  0
LINE
  5
4E2
100
AcDbEntity
  8
0
100
AcDbLine
 62
253
  6
CONTINUOUS
 10
13.0
 20
-38.3887984284
 11
13.0
 21
-33.332120514
  0
LINE
  5
4E3
100
AcDbEntity
  8
0
100
AcDbLine
 62
253
  6
CONTINUOUS
 10
13.0
 20
33.332120514
 11
13.0
 21
38.3887984284
  0
LINE
  5
4E4
100
AcDbEntity
  8
0
100
AcDbLine
 62
253
  6
CONTINUOUS
 10
13.0
 20
38.9475922207
 11
13.0
 21
39.0
  0
LWPOLYLINE
  5
4E5
100
AcDbEntity
  8
0
100
AcDbPolyline
 62
7
  6
CONTINUOUS
 90
9
 70
0
 10
3.7463657636
 20
-32.294518016
 10
3.777468556
 20
-32.1923660247
 10
3.8085136402
 20
-32.0921044704
 10
3.8395100361
 20
-31.9937461935
 10
3.8704415515
 20
-31.8974488813
 10
3.9013267447
 20
-31.80307389
 10
3.9322523505
 20
-31.7102037569
 10
3.9632773471
 20
-31.6187227625
 10
3.9943995623
 20
-31.528799284
  0
LINE
  5
4E6
100
AcDbEntity
  8
0
100
AcDbLine
 62
7
  6
CONTINUOUS
 10
3.9943995623
 20
-31.528799284
 11
4.0434971211
 21
-31.3906455976
  0
LWPOLYLINE
  5
4E7
100
AcDbEntity
  8
0
100
AcDbPolyline
 62
7
  6
CONTINUOUS
 90
17
 70
0
 10
25.7726104937
 20
14.4719331813
 10
25.782715681
 20
14.4877798522
 10
25.8047127552
 20
14.5099436052
 10
25.8386017165
 20
14.5384244403
 10
25.8848010363
 20
14.5735135138
 10
25.9428922432
 20
14.6149196693
 10
26.0116199222
 20
14.6617694383
 10
26.0911900004
 20
14.7141709652
 10
26.1813965508
 20
14.7720161056
 10
26.2803663771
 20
14.8341069567
 10
26.3882663896
 20
14.9005243918
 10
26.504929678
 20
14.9711875378
 10
26.627982316
 20
15.0446558719
 10
26.7576002611
 20
15.1210135476
 10
26.8936075557
 20
15.2001764115
 10
27.0331024003
 20
15.2804514812
 10
27.1751175286
 20
15.3612744291
  0
LINE
  5
4E8
100
AcDbEntity
  8
0
100
AcDbLine
 62
7
  6
CONTINUOUS
 10
2.2666662216
 20
-17.7021276653
 11
2.325
 21
-17.6170212627
  0
LINE
  5
4E9
100
AcDbEntity
  8
0
100
AcDbLine
 62
7
  6
CONTINUOUS
 10
-3.1916667223
 20
-21.9361702204
 11
-3.3083332777
 21
-22.0638297796
  0
LINE
  5
4EA
100
AcDbEntity
  8
0
100
AcDbLine
 62
7
  6
CONTINUOUS
 10
2.3833337784
 20
-16.8510638475
 11
2.2666662216
 21
-16.9787234068
  0
LINE
  5
4EB
100
AcDbEntity
  8
0
100
AcDbLine
 62
7
  6
CONTINUOUS
 10
0.4875
 20
-16.2553191185
 11
0.4
 21
-16.3404254913
  0
LINE
  5
4EC
100
AcDbEntity
  8
0
100
AcDbLine
 62
7
  6
CONTINUOUS
 10
0.8666662216
 20
-17.0212765932
 11
0.9541662216
 21
-16.9361702204
  0
LINE
  5
4ED
100
AcDbEntity
  8
0
100
AcDbLine
 62
7
  6
CONTINUOUS
 10
1.7708337784
 20
-16.2553191185
 11
1.6833337784
 21
-16.3404254913
  0
LINE
  5
4EE
100
AcDbEntity
  8
0
100
AcDbLine
 62
7
  6
CONTINUOUS
 10
1.0708337784
 20
-17.0638297796
 11
0.8958337784
 21
-17.2340425253
  0
LINE
  5
4EF
100
AcDbEntity
  8
0
100
AcDbLine
 62
7
  6
CONTINUOUS
 10
0.8666662216
 20
-17.7446808517
 11
0.9541662216
 21
-17.6595744789
  0
LINE
  5
4F0
100
AcDbEntity
  8
0
100
AcDbLine
 62
7
  6
CONTINUOUS
 10
-2.4916667223
 20
-21.2978723049
 11
-2.5791667223
 21
-21.3829786777
  0
LINE
  5
4F1
100
AcDbEntity
  8
0
100
AcDbLine
 62
7
  6
CONTINUOUS
 10
2.4125
 20
-17.7872340381
 11
2.325
 21
-17.8723404259
  0
LINE
  5
4F2
100
AcDbEntity
  8
0
100
AcDbLine
 62
7
  6
CONTINUOUS
 10
-1.9958334446
 20
-22.7021276653
 11
-1.9083334446
 21
-22.6170212627
  0
LINE
  5
4F3
100
AcDbEntity
  8
0
100
AcDbLine
 62
7
  6
CONTINUOUS
 10
0.3125
 20
-16.1702127457
 11
0.4583337784
 21
-16.0425531864
  0
LINE
  5
4F4
100
AcDbEntity
  8
0
100
AcDbLine
 62
7
  6
CONTINUOUS
 10
1.0416662216
 20
-17.8297872394
 11
0.8958337784
 21
-17.9574468099
  0
LINE
  5
4F5
100
AcDbEntity
  8
0
100
AcDbLine
 62
7
  6
CONTINUOUS
 10
-4.3875
 20
-21.9787234068
 11
-4.9416666649
 21
-22.4042553306
  0
LINE
  5
4F6
100
AcDbEntity
  8
0
100
AcDbLine
 62
7
  6
CONTINUOUS
 10
28.1340719255
 20
3.4923483348
 11
28.0905633426
 21
3.4601525878
  0
LINE
  5
4F7
100
AcDbEntity
  8
0
100
AcDbLine
 62
7
  6
CONTINUOUS
 10
1.625
 20
-16.1276595593
 11
1.7416662216
 21
-16.0425531864
  0
LINE
  5
4F8
100
AcDbEntity
  8
0
100
AcDbLine
 62
7
  6
CONTINUOUS
 10
-5.0
 20
-22.2765957713
 11
-4.5916666806
 21
-21.9787234068
  0
LINE
  5
4F9
100
AcDbEntity
  8
0
100
AcDbLine
 62
7
  6
CONTINUOUS
 10
-2.6375
 20
-21.1276595593
 11
-2.5208332777
 21
-21.0425531864
  0
LWPOLYLINE
  5
4FA
100
AcDbEntity
  8
0
100
AcDbPolyline
 62
7
  6
CONTINUOUS
 90
10
 70
0
 10
27.3309307122
 20
2.942830178
 10
27.4232785777
 20
3.0018116734
 10
27.5135443766
 20
3.060393243
 10
27.6017316806
 20
3.1185590356
 10
27.6877264785
 20
3.1762143791
 10
27.7716502972
 20
3.233422139
 10
27.853858617
 20
3.2904067959
 10
27.934470787
 20
3.3472372846
 10
28.0133716068
 20
3.4038229159
 10
28.0905633426
 20
3.4601525878
  0
LINE
  5
4FB
100
AcDbEntity
  8
0
100
AcDbLine
 62
253
  6
CONTINUOUS
 10
-9.4608956939
 20
-21.9396527801
 11
-9.2057261128
 21
-21.78339963
  0
LINE
  5
4FC
100
AcDbEntity
  8
0
100
AcDbLine
 62
7
  6
CONTINUOUS
 10
0.575
 20
-16.2127659321
 11
0.4875
 21
-16.2553191185
  0
LINE
  5
4FD
100
AcDbEntity
  8
0
100
AcDbLine
 62
7
  6
CONTINUOUS
 10
0.4583337784
 20
-16.0425531864
 11
0.6041662216
 21
-16.0
  0
LWPOLYLINE
  5
4FE
100
AcDbEntity
  8
0
100
AcDbPolyline
 62
7
  6
CONTINUOUS
 90
13
 70
0
 10
28.427874308
 20
15.9391456237
 10
28.4190176997
 20
15.9381402347
 10
28.4040886212
 20
15.9335518859
 10
28.3830870726
 20
15.9253805773
 10
28.3555064147
 20
15.9133858725
 10
28.3218532867
 20
15.8978082079
 10
28.2836476061
 20
15.8793688931
 10
28.2407541981
 20
15.8579841675
 10
28.1933082375
 20
15.8337377917
 10
28.1432351658
 20
15.8076023566
 10
28.0911767967
 20
15.7799020591
 10
28.0364913164
 20
15.7503127023
 10
27.979178725
 20
15.7188342862
  0
LWPOLYLINE
  5
4FF
100
AcDbEntity
  8
0
100
AcDbPolyline
 62
7
  6
CONTINUOUS
 90
13
 70
0
 10
30.6621627143
 20
16.7695491449
 10
30.6568697794
 20
16.7689574383
 10
30.6479314153
 20
16.7662149349
 10
30.6353476219
 20
16.7613216344
 10
30.6188142992
 20
16.7541332328
 10
30.5986355472
 20
16.7447940343
 10
30.5757236664
 20
16.7337369516
 10
30.5499979097
 20
16.7209119182
 10
30.5215390242
 20
16.7063690007
 10
30.4915015517
 20
16.6906913119
 10
30.4602703396
 20
16.6740732226
 10
30.4274605405
 20
16.656320362
 10
22.2307195592
 20
12.1129668053
  0
LINE
  5
500
100
AcDbEntity
  8
0
100
AcDbLine
 62
253
  6
CONTINUOUS
 10
-23.5466235048
 20
12.2329150058
 11
-23.7025757558
 21
12.2329150058
  0
LINE
  5
501
100
AcDbEntity
  8
0
100
AcDbLine
 62
253
  6
CONTINUOUS
 10
39.0
 20
13.0
 11
38.9475922207
 21
13.0
  0
LINE
  5
502
100
AcDbEntity
  8
0
100
AcDbLine
 62
253
  6
CONTINUOUS
 10
38.3887984284
 20
13.0
 11
33.332120514
 21
13.0
  0
LINE
  5
503
100
AcDbEntity
  8
0
100
AcDbLine
 62
253
  6
CONTINUOUS
 10
-33.332120514
 20
13.0
 11
-38.3887984284
 21
13.0
  0
LINE
  5
504
100
AcDbEntity
  8
0
100
AcDbLine
 62
253
  6
CONTINUOUS
 10
-38.9475922207
 20
13.0
 11
-39.0
 21
13.0
  0
LINE
  5
505
100
AcDbEntity
  8
0
100
AcDbLine
 62
7
  6
CONTINUOUS
 10
2.5014102688
 20
14.01
 11
2.34
 21
14.01
  0
LINE
  5
506
100
AcDbEntity
  8
0
100
AcDbLine
 62
7
  6
CONTINUOUS
 10
1.66
 20
14.01
 11
1.4985897312
 21
14.01
  0
LINE
  5
507
100
AcDbEntity
  8
0
100
AcDbLine
 62
7
  6
CONTINUOUS
 10
1.34
 20
14.48
 11
1.66
 21
14.48
  0
LINE
  5
508
100
AcDbEntity
  8
0
100
AcDbLine
 62
7
  6
CONTINUOUS
 10
2.34
 20
14.48
 11
2.6654419047
 21
14.48
  0
LINE
  5
509
100
AcDbEntity
  8
0
100
AcDbLine
 62
7
  6
CONTINUOUS
 10
2.78
 20
14.74
 11
1.22
 21
14.74
  0
LINE
  5
50A
100
AcDbEntity
  8
0
100
AcDbLine
 62
7
  6
CONTINUOUS
 10
1.22
 20
15.26
 11
2.78
 21
15.26
  0
LWPOLYLINE
  5
50B
100
AcDbEntity
  8
0
100
AcDbPolyline
 62
7
  6
CONTINUOUS
 90
10
 70
0
 10
-25.4136728536
 20
19.8991451767
 10
-25.3808123075
 20
19.8913978198
 10
-25.3475919056
 20
19.8841341438
 10
-25.3140038364
 20
19.8773481384
 10
-25.2797965168
 20
19.8713482633
 10
-25.2452153559
 20
19.8658212276
 10
-25.2109988777
 20
19.8598289639
 10
-25.1773939334
 20
19.8530593168
 10
-25.1441595532
 20
19.8458291023
 10
-25.1113031382
 20
19.838144282
  0
LINE
  5
50C
100
AcDbEntity
  8
0
100
AcDbLine
 62
7
  6
CONTINUOUS
 10
-26.8716706564
 20
20.3715537795
 11
-27.1641685799
 21
20.44768802
  0
LWPOLYLINE
  5
50D
100
AcDbEntity
  8
0
100
AcDbPolyline
 62
7
  6
CONTINUOUS
 90
9
 70
0
 10
32.294518016
 20
3.7463657636
 10
32.1923660247
 20
3.777468556
 10
32.0921044704
 20
3.8085136402
 10
31.9937461935
 20
3.8395100361
 10
31.8974488813
 20
3.8704415515
 10
31.80307389
 20
3.9013267447
 10
31.7102037569
 20
3.9322523505
 10
31.6187227625
 20
3.9632773471
 10
31.528799284
 20
3.9943995623
  0
LINE
  5
50E
100
AcDbEntity
  8
0
100
AcDbLine
 62
7
  6
CONTINUOUS
 10
31.528799284
 20
3.9943995623
 11
31.3906455976
 21
4.0434971211
  0
LWPOLYLINE
  5
50F
100
AcDbEntity
  8
0
100
AcDbPolyline
 62
253
  6
CONTINUOUS
 90
9
 70
0
 10
-17.9296930561
 20
26.2456394689
 10
-17.9303916125
 20
26.2459934067
 10
-17.9314527567
 20
26.2468672597
 10
-17.9328764888
 20
26.2482610278
 10
-17.9346647767
 20
26.2501769398
 10
-17.9368156524
 20
26.252612767
 10
-17.939323212
 20
26.2555618232
 10
-17.9421854873
 20
26.2590218796
 10
-17.9454044466
 20
26.262995165
  0
LINE
  5
510
100
AcDbEntity
  8
0
100
AcDbLine
 62
7
  6
CONTINUOUS
 10
-3.4923483348
 20
28.1340719255
 11
-3.4601525878
 21
28.0905633426
  0
LWPOLYLINE
  5
511
100
AcDbEntity
  8
0
100
AcDbPolyline
 62
253
  6
CONTINUOUS
 90
13
 70
0
 10
24.9799209229
 20
-13.4883498144
 10
24.9699530942
 20
-13.473967339
 10
24.9637097308
 20
-13.4562687959
 10
24.9612955448
 20
-13.4355510211
 10
24.9627510265
 20
-13.4121614882
 10
24.9680517648
 20
-13.3864924809
 10
24.9771088571
 20
-13.358974514
 10
24.9897703998
 20
-13.3300691123
 10
25.0058240365
 20
-13.3002610705
 10
25.0250005193
 20
-13.2700503221
 10
25.0469782249
 20
-13.2399435547
 10
25.0713885482
 20
-13.210445712
 10
25.0978220849
 20
-13.1820515251
  0
LINE
  5
512
100
AcDbEntity
  8
0
100
AcDbLine
 62
7
  6
CONTINUOUS
 10
3.0291666675
 20
22.2234042287
 11
3.0
 21
22.2659574747
  0
LINE
  5
513
100
AcDbEntity
  8
0
100
AcDbLine
 62
7
  6
CONTINUOUS
 10
3.3791666806
 20
22.2234042287
 11
3.2333333403
 21
22.4361702204
  0
LINE
  5
514
100
AcDbEntity
  8
0
100
AcDbLine
 62
7
  6
CONTINUOUS
 10
3.175
 20
22.5212765932
 11
3.0
 21
22.7765957117
  0
LINE
  5
515
100
AcDbEntity
  8
0
100
AcDbLine
 62
7
  6
CONTINUOUS
 10
3.2333333403
 20
22.5212765932
 11
3.4083333194
 21
22.2659574747
  0
LINE
  5
516
100
AcDbEntity
  8
0
100
AcDbLine
 62
7
  6
CONTINUOUS
 10
3.0291666675
 20
22.8191488981
 11
3.175
 21
22.606382966
  0
LWPOLYLINE
  5
517
100
AcDbEntity
  8
0
100
AcDbPolyline
 62
7
  6
CONTINUOUS
 90
10
 70
0
 10
-2.942830178
 20
27.3309307122
 10
-3.0018116734
 20
27.4232785777
 10
-3.060393243
 20
27.5135443766
 10
-3.1185590356
 20
27.6017316806
 10
-3.1762143791
 20
27.6877264785
 10
-3.233422139
 20
27.7716502972
 10
-3.2904067959
 20
27.853858617
 10
-3.3472372846
 20
27.934470787
 10
-3.4038229159
 20
28.0133716068
 10
-3.4601525878
 20
28.0905633426
  0
LINE
  5
518
100
AcDbEntity
  8
0
100
AcDbLine
 62
7
  6
CONTINUOUS
 10
20.3715537795
 20
-26.8716706564
 11
20.44768802
 21
-27.1641685799
  0
LWPOLYLINE
  5
519
100
AcDbEntity
  8
0
100
AcDbPolyline
 62
7
  6
CONTINUOUS
 90
10
 70
0
 10
19.8381442834
 20
-25.1113031402
 10
19.8458291037
 20
-25.1441595551
 10
19.8530593182
 20
-25.1773939352
 10
19.8598289653
 20
-25.2109988796
 10
19.865821229
 20
-25.2452153578
 10
19.8713482646
 20
-25.2797965186
 10
19.8773481397
 20
-25.3140038383
 10
19.8841341451
 20
-25.3475919075
 10
19.8913978211
 20
-25.3808123094
 10
19.8991451779
 20
-25.4136728554
  0
LINE
  5
51A
100
AcDbEntity
  8
0
100
AcDbLine
 62
7
  6
CONTINUOUS
 10
20.1589518006
 20
-25.3626682274
 11
20.1411876255
 21
-25.2601049662
  0
LWPOLYLINE
  5
51B
100
AcDbEntity
  8
0
100
AcDbPolyline
 62
7
  6
CONTINUOUS
 90
17
 70
0
 10
15.3081149663
 20
31.0152665806
 10
15.3088749372
 20
30.9963969733
 10
15.3035187177
 20
30.965532138
 10
15.2920463077
 20
30.9226720747
 10
15.2742814661
 20
30.8673361222
 10
15.2504004341
 20
30.8000049418
 10
15.2209319345
 20
30.7221205171
 10
15.1857698379
 20
30.6334785691
 10
15.1450202737
 20
30.5342833768
 10
15.0995303531
 20
30.4265897619
 10
15.0492098949
 20
30.3102360356
 10
14.9941490804
 20
30.1853838866
 10
14.9354655647
 20
30.0545732023
 10
14.8730634899
 20
29.9176341029
 10
14.8070387139
 20
29.7747364681
 10
14.7387964654
 20
29.6289298249
 10
14.6688051541
 20
29.4812306821
  0
LWPOLYLINE
  5
51C
100
AcDbEntity
  8
0
100
AcDbPolyline
 62
253
  6
CONTINUOUS
 90
37
 70
0
 10
17.8
 20
3.0
 10
17.812232678
 20
3.2654589178
 10
17.8464834454
 20
3.5249349425
 10
17.9027523023
 20
3.7784280741
 10
17.9818771055
 20
4.0278268452
 10
18.0830199982
 20
4.2712427232
 10
18.20366741
 20
4.5030101104
 10
18.3443111698
 20
4.7227880136
 10
18.5044594487
 20
4.9309174259
 10
18.6801231898
 20
5.1227557287
 10
18.8712942182
 20
5.2977396786
 10
19.0779807089
 20
5.456432519
 10
19.2962181294
 20
5.595881361
 10
19.5266140683
 20
5.7159380776
 10
19.768560937
 20
5.8167507957
 10
20.0162714378
 20
5.8958110075
 10
20.2697308757
 20
5.952516058
 10
20.5289539456
 20
5.9874686022
 10
20.7881974353
 20
5.9999680962
 10
21.0473800819
 20
5.9895699857
 10
21.3065831483
 20
5.9567188251
 10
21.5603072105
 20
5.902047734
 10
21.8085643131
 20
5.8250755203
 10
22.0513424115
 20
5.7262833761
 10
22.283105949
 20
5.607747997
 10
22.5034984462
 20
5.4692021996
 10
22.7128763825
 20
5.3109131672
 10
22.9067736392
 20
5.1357591464
 10
23.085169398
 20
4.9430407808
 10
23.2480844773
 20
4.7334574266
 10
23.3911152133
 20
4.5119853999
 10
23.5136426477
 20
4.2781887964
 10
23.6162857389
 20
4.0325035203
 10
23.6964976986
 20
3.7812135998
 10
23.7534295972
 20
3.5264137109
 10
23.7879303644
 20
3.2660091777
 10
23.8
 20
3.0
  0
LINE
  5
51D
100
AcDbEntity
  8
0
100
AcDbLine
 62
253
  6
CONTINUOUS
 10
23.1920159045
 20
10.342078541
 11
23.0394164002
 21
9.8251217911
  0
LINE
  5
51E
100
AcDbEntity
  8
0
100
AcDbLine
 62
253
  6
CONTINUOUS
 10
20.4692403168
 20
11.1345488728
 11
20.3022500527
 21
10.6445364635
  0
LINE
  5
51F
100
AcDbEntity
  8
0
100
AcDbLine
 62
7
  6
CONTINUOUS
 10
-1.4708334446
 20
-21.9787234068
 11
-0.9166665554
 21
-21.5531915426
  0
LINE
  5
520
100
AcDbEntity
  8
0
100
AcDbLine
 62
7
  6
CONTINUOUS
 10
2.2083337784
 20
-17.7446808517
 11
2.2666662216
 21
-17.7021276653
  0
LINE
  5
521
100
AcDbEntity
  8
0
100
AcDbLine
 62
7
  6
CONTINUOUS
 10
2.325
 20
-17.8723404259
 11
2.2083337784
 21
-17.9574468099
  0
LINE
  5
522
100
AcDbEntity
  8
0
100
AcDbLine
 62
7
  6
CONTINUOUS
 10
-0.8583334446
 20
-21.6808511019
 11
-1.2666665554
 21
-21.9787234068
  0
LINE
  5
523
100
AcDbEntity
  8
0
100
AcDbLine
 62
7
  6
CONTINUOUS
 10
-1.85
 20
-22.8723404259
 11
-1.9666665554
 21
-22.9574468099
  0
LINE
  5
524
100
AcDbEntity
  8
0
100
AcDbLine
 62
7
  6
CONTINUOUS
 10
0.7791662216
 20
-17.0638297796
 11
0.8666662216
 21
-17.0212765932
  0
LINE
  5
525
100
AcDbEntity
  8
0
100
AcDbLine
 62
7
  6
CONTINUOUS
 10
2.0333337784
 20
-16.893617034
 11
2.2083337784
 21
-16.8085106611
  0
LINE
  5
526
100
AcDbEntity
  8
0
100
AcDbLine
 62
7
  6
CONTINUOUS
 10
0.7791662216
 20
-17.7872340381
 11
0.8666662216
 21
-17.7446808517
  0
LINE
  5
527
100
AcDbEntity
  8
0
100
AcDbLine
 62
7
  6
CONTINUOUS
 10
-3.425
 20
-21.8510638475
 11
-3.3375
 21
-21.8085106611
  0
LINE
  5
528
100
AcDbEntity
  8
0
100
AcDbLine
 62
253
  6
CONTINUOUS
 10
-9.5674108258
 20
-20.8315185192
 11
-10.0480119597
 21
-21.0239252615
  0
LINE
  5
529
100
AcDbEntity
  8
0
100
AcDbLine
 62
7
  6
CONTINUOUS
 10
2.2083337784
 20
-17.9574468099
 11
2.0916662216
 21
-18.0
  0
LINE
  5
52A
100
AcDbEntity
  8
0
100
AcDbLine
 62
7
  6
CONTINUOUS
 10
-2.375
 20
-21.2553191185
 11
-2.4916667223
 21
-21.2978723049
  0
LINE
  5
52B
100
AcDbEntity
  8
0
100
AcDbLine
 62
253
  6
CONTINUOUS
 10
-8.6058669146
 20
-23.5220488249
 11
-9.0866055195
 21
-23.6918887875
  0
LINE
  5
52C
100
AcDbEntity
  8
0
100
AcDbLine
 62
7
  6
CONTINUOUS
 10
1.9166662216
 20
-16.2127659321
 11
1.7708337784
 21
-16.2553191185
  0
LINE
  5
52D
100
AcDbEntity
  8
0
100
AcDbLine
 62
7
  6
CONTINUOUS
 10
0.8958337784
 20
-17.2340425253
 11
0.75
 21
-17.2765957713
  0
LINE
  5
52E
100
AcDbEntity
  8
0
100
AcDbLine
 62
7
  6
CONTINUOUS
 10
0.8958337784
 20
-17.9574468099
 11
0.75
 21
-18.0
  0
LINE
  5
52F
100
AcDbEntity
  8
0
100
AcDbLine
 62
7
  6
CONTINUOUS
 10
2.0625
 20
-17.7872340381
 11
2.2083337784
 21
-17.7446808517
  0
LINE
  5
530
100
AcDbEntity
  8
0
100
AcDbLine
 62
7
  6
CONTINUOUS
 10
-25.0550404127
 20
20.1067645745
 11
-25.1917427126
 21
20.129557997
  0
LINE
  5
531
100
AcDbEntity
  8
0
100
AcDbLine
 62
7
  6
CONTINUOUS
 10
-25.1917427126
 20
20.129557997
 11
-25.3625660626
 21
20.1585724233
  0
LINE
  5
532
100
AcDbEntity
  8
0
100
AcDbLine
 62
7
  6
CONTINUOUS
 10
-26.0907616911
 20
24.7074022657
 11
-25.8076155408
 21
24.621722592
  0
LINE
  5
533
100
AcDbEntity
  8
0
100
AcDbLine
 62
7
  6
CONTINUOUS
 10
3.6708333194
 20
22.2234042287
 11
3.6416666806
 21
22.2659574747
  0
LINE
  5
534
100
AcDbEntity
  8
0
100
AcDbLine
 62
7
  6
CONTINUOUS
 10
3.3791666806
 20
22.8191488981
 11
3.4083333194
 21
22.7765957117
  0
LINE
  5
535
100
AcDbEntity
  8
0
100
AcDbLine
 62
7
  6
CONTINUOUS
 10
3.8166666389
 20
22.5212765932
 11
3.6416666806
 21
22.7765957117
  0
LINE
  5
536
100
AcDbEntity
  8
0
100
AcDbLine
 62
7
  6
CONTINUOUS
 10
4.0208333611
 20
22.2234042287
 11
3.875
 21
22.4361702204
  0
LINE
  5
537
100
AcDbEntity
  8
0
100
AcDbLine
 62
7
  6
CONTINUOUS
 10
3.6708333194
 20
22.8191488981
 11
3.8166666389
 21
22.606382966
  0
LINE
  5
538
100
AcDbEntity
  8
0
100
AcDbLine
 62
7
  6
CONTINUOUS
 10
3.875
 20
22.5212765932
 11
4.05
 21
22.2659574747
  0
LINE
  5
539
100
AcDbEntity
  8
0
100
AcDbLine
 62
7
  6
CONTINUOUS
 10
4.3125
 20
22.2234042287
 11
4.2833333611
 21
22.2659574747
  0
LINE
  5
53A
100
AcDbEntity
  8
0
100
AcDbLine
 62
7
  6
CONTINUOUS
 10
4.0208333612
 20
22.8191488981
 11
4.05
 21
22.7765957117
  0
LINE
  5
53B
100
AcDbEntity
  8
0
100
AcDbLine
 62
7
  6
CONTINUOUS
 10
4.6625
 20
22.2234042287
 11
4.5166667223
 21
22.4361702204
  0
LINE
  5
53C
100
AcDbEntity
  8
0
100
AcDbLine
 62
7
  6
CONTINUOUS
 10
4.4583332777
 20
22.5212765932
 11
4.2833333612
 21
22.7765957117
  0
LINE
  5
53D
100
AcDbEntity
  8
0
100
AcDbLine
 62
7
  6
CONTINUOUS
 10
4.3125
 20
22.8191488981
 11
4.4583332777
 21
22.606382966
  0
LINE
  5
53E
100
AcDbEntity
  8
0
100
AcDbLine
 62
7
  6
CONTINUOUS
 10
4.5166667223
 20
22.5212765932
 11
4.6916667223
 21
22.2659574747
  0
LINE
  5
53F
100
AcDbEntity
  8
0
100
AcDbLine
 62
7
  6
CONTINUOUS
 10
4.6625
 20
22.8191488981
 11
4.6916667223
 21
22.7765957117
  0
LWPOLYLINE
  5
540
100
AcDbEntity
  8
0
100
AcDbPolyline
 62
253
  6
CONTINUOUS
 90
13
 70
0
 10
9.2057262509
 20
21.7833994128
 10
9.115518558
 20
21.9373026851
 10
9.0407588201
 20
22.0958880409
 10
8.9813959512
 20
22.2576043413
 10
8.9373732989
 20
22.4202685216
 10
8.9080713174
 20
22.5829630341
 10
8.8928444454
 20
22.7462294389
 10
8.8914835897
 20
22.9085230693
 10
8.9035901683
 20
23.0687370693
 10
8.9291618739
 20
23.2282566396
 10
8.9684209354
 20
23.3866382297
 10
9.0210387201
 20
23.5416230165
 10
9.0866062281
 20
23.691888425
  0
LWPOLYLINE
  5
541
100
AcDbEntity
  8
0
100
AcDbPolyline
 62
253
  6
CONTINUOUS
 90
13
 70
0
 10
9.3429208242
 20
21.9971955228
 10
9.2654759496
 20
22.1309756836
 10
9.2010685156
 20
22.2658680796
 10
9.1496985224
 20
22.4018727107
 10
9.1117724651
 20
22.5395994245
 10
9.0868838486
 20
22.6784383734
 10
9.073813187
 20
22.8165600148
 10
9.0722735876
 20
22.9536681609
 10
9.0825519431
 20
23.0900589995
 10
9.1042894455
 20
23.2247915512
 10
9.137366492
 20
23.3575521562
 10
9.1819026854
 20
23.4886544741
 10
9.2378980257
 20
23.6180985052
  0
LINE
  5
542
100
AcDbEntity
  8
0
100
AcDbLine
 62
7
  6
CONTINUOUS
 10
24.621722592
 20
-25.8076155408
 11
24.7074022657
 21
-26.0907616911
  0
LINE
  5
543
100
AcDbEntity
  8
0
100
AcDbLine
 62
7
  6
CONTINUOUS
 10
20.1411876255
 20
-25.2601049662
 11
20.1180688676
 21
-25.1233835306
  0
LINE
  5
544
100
AcDbEntity
  8
0
100
AcDbLine
 62
7
  6
CONTINUOUS
 10
20.1180688676
 20
-25.1233835306
 11
20.1067645731
 21
-25.055040412
  0
LINE
  5
545
100
AcDbEntity
  8
0
100
AcDbLine
 62
253
  6
CONTINUOUS
 10
14.0365521966
 20
31.6880658716
 11
14.0705159165
 21
31.3907739716
  0
LINE
  5
546
100
AcDbEntity
  8
0
100
AcDbLine
 62
7
  6
CONTINUOUS
 10
18.7803709835
 20
-26.2333914459
 11
18.8427105387
 21
-25.8641114201
  0
LINE
  5
547
100
AcDbEntity
  8
0
100
AcDbLine
 62
253
  6
CONTINUOUS
 10
18.1700466775
 20
-25.4264022456
 11
18.1127626495
 21
-25.7512760638
  0
LINE
  5
548
100
AcDbEntity
  8
0
100
AcDbLine
 62
253
  6
CONTINUOUS
 10
18.5305175479
 20
-25.8249376306
 11
18.5878015859
 21
-25.5000637073
  0
LINE
  5
549
100
AcDbEntity
  8
0
100
AcDbLine
 62
7
  6
CONTINUOUS
 10
28.2261305266
 20
27.5010189371
 11
28.0190752905
 21
26.728278276
  0
LINE
  5
54A
100
AcDbEntity
  8
0
100
AcDbLine
 62
7
  6
CONTINUOUS
 10
28.0777609579
 20
26.6943960902
 11
28.2862280339
 21
27.4663216251
  0
LINE
  5
54B
100
AcDbEntity
  8
0
100
AcDbLine
 62
7
  6
CONTINUOUS
 10
25.7726104937
 20
14.4719331813
 11
25.7503029073
 21
14.3934672744
  0
LINE
  5
54C
100
AcDbEntity
  8
0
100
AcDbLine
 62
7
  6
CONTINUOUS
 10
26.947962538
 20
14.9659046885
 11
26.9997489655
 21
15.1475217031
  0
LINE
  5
54D
100
AcDbEntity
  8
0
100
AcDbLine
 62
7
  6
CONTINUOUS
 10
-2.1125
 20
-22.7446808517
 11
-1.9958334446
 21
-22.7021276653
  0
LINE
  5
54E
100
AcDbEntity
  8
0
100
AcDbLine
 62
7
  6
CONTINUOUS
 10
-13.7137048533
 20
-27.7555067751
 11
-13.5368173619
 21
-27.6948949797
  0
LINE
  5
54F
100
AcDbEntity
  8
0
100
AcDbLine
 62
7
  6
CONTINUOUS
 10
-13.0260748016
 20
-26.4683088856
 11
-13.1032656253
 21
-26.4946924682
  0
LINE
  5
550
100
AcDbEntity
  8
0
100
AcDbLine
 62
7
  6
CONTINUOUS
 10
-2.5208332777
 20
-21.0425531864
 11
-2.375
 21
-21.0
  0
LINE
  5
551
100
AcDbEntity
  8
0
100
AcDbLine
 62
7
  6
CONTINUOUS
 10
-3.3083332777
 20
-22.0638297796
 11
-3.4541667223
 21
-22.106382966
  0
LINE
  5
552
100
AcDbEntity
  8
0
100
AcDbLine
 62
7
  6
CONTINUOUS
 10
-1.9666665554
 20
-22.9574468099
 11
-2.1125
 21
-23.0
  0
LINE
  5
553
100
AcDbEntity
  8
0
100
AcDbLine
 62
7
  6
CONTINUOUS
 10
27.4663216251
 20
28.2862280339
 11
26.6943960902
 21
28.0777609579
  0
LINE
  5
554
100
AcDbEntity
  8
0
100
AcDbLine
 62
7
  6
CONTINUOUS
 10
26.728278276
 20
28.0190752905
 11
27.5010189371
 21
28.2261305266
  0
LINE
  5
555
100
AcDbEntity
  8
0
100
AcDbLine
 62
7
  6
CONTINUOUS
 10
-27.5657565497
 20
16.2520480507
 11
-27.7234657908
 21
16.2318946822
  0
LINE
  5
556
100
AcDbEntity
  8
0
100
AcDbLine
 62
7
  6
CONTINUOUS
 10
4.5166667223
 20
22.1382978559
 11
4.4583332777
 21
22.1382978559
  0
LINE
  5
557
100
AcDbEntity
  8
0
100
AcDbLine
 62
7
  6
CONTINUOUS
 10
3.875
 20
22.1382978559
 11
3.8166666389
 21
22.1382978559
  0
LINE
  5
558
100
AcDbEntity
  8
0
100
AcDbLine
 62
7
  6
CONTINUOUS
 10
3.2333333403
 20
22.1382978559
 11
3.175
 21
22.1382978559
  0
LINE
  5
559
100
AcDbEntity
  8
0
100
AcDbLine
 62
7
  6
CONTINUOUS
 10
3.175
 20
22.904255271
 11
3.2333333403
 21
22.904255271
  0
LINE
  5
55A
100
AcDbEntity
  8
0
100
AcDbLine
 62
7
  6
CONTINUOUS
 10
3.8166666389
 20
22.904255271
 11
3.875
 21
22.904255271
  0
LINE
  5
55B
100
AcDbEntity
  8
0
100
AcDbLine
 62
7
  6
CONTINUOUS
 10
4.4583332777
 20
22.904255271
 11
4.5166667223
 21
22.904255271
  0
LINE
  5
55C
100
AcDbEntity
  8
0
100
AcDbLine
 62
253
  6
CONTINUOUS
 10
-18.0033544161
 20
25.8278845336
 11
-17.6784805944
 21
25.7706005225
  0
LINE
  5
55D
100
AcDbEntity
  8
0
100
AcDbLine
 62
253
  6
CONTINUOUS
 10
-17.6048191328
 20
26.1883554309
 11
-17.9296930561
 21
26.2456394689
  0
LINE
  5
55E
100
AcDbEntity
  8
0
100
AcDbLine
 62
7
  6
CONTINUOUS
 10
-17.8597280856
 20
26.5524031438
 11
-18.2280591844
 21
26.6201243311
  0
LWPOLYLINE
  5
55F
100
AcDbEntity
  8
0
100
AcDbPolyline
 62
7
  6
CONTINUOUS
 90
10
 70
0
 10
-20.1058493879
 20
25.056869265
 10
-20.0744713748
 20
25.0497198145
 10
-20.0432090357
 20
25.045876681
 10
-20.0120623704
 20
25.0453398645
 10
-19.9806885409
 20
25.0481767435
 10
-19.9494303853
 20
25.0543199395
 10
-19.9193164181
 20
25.0635673173
 10
-19.8906894776
 20
25.0758514986
 10
-19.8632067255
 20
25.0912398617
 10
-19.8368681618
 20
25.1097324066
  0
LINE
  5
560
100
AcDbEntity
  8
0
100
AcDbLine
 62
7
  6
CONTINUOUS
 10
-27.4684812385
 20
28.0886887624
 11
-26.6957405775
 21
27.8816335263
  0
LINE
  5
561
100
AcDbEntity
  8
0
100
AcDbLine
 62
7
  6
CONTINUOUS
 10
-26.6234628307
 20
28.0068222561
 11
-27.3956104391
 21
28.2149046894
  0
LINE
  5
562
100
AcDbEntity
  8
0
100
AcDbLine
 62
7
  6
CONTINUOUS
 10
28.427874308
 20
15.9391456237
 11
28.5479434218
 21
15.9049684467
  0
LINE
  5
563
100
AcDbEntity
  8
0
100
AcDbLine
 62
7
  6
CONTINUOUS
 10
28.6434070243
 20
15.8772999629
 11
28.7268978612
 21
15.853643872
  0
LINE
  5
564
100
AcDbEntity
  8
0
100
AcDbLine
 62
253
  6
CONTINUOUS
 10
29.8848817083
 20
14.0519946363
 11
30.3951008724
 21
13.9024442737
  0
LINE
  5
565
100
AcDbEntity
  8
0
100
AcDbLine
 62
7
  6
CONTINUOUS
 10
-13.6499619229
 20
29.2724378084
 11
-14.0195180763
 21
29.4041183007
  0
LINE
  5
566
100
AcDbEntity
  8
0
100
AcDbLine
 62
253
  6
CONTINUOUS
 10
-14.1601141903
 20
29.0084477759
 11
-13.7922023448
 21
28.8743138714
  0
LWPOLYLINE
  5
567
100
AcDbEntity
  8
0
100
AcDbPolyline
 62
7
  6
CONTINUOUS
 90
19
 70
0
 10
20.3022858914
 20
10.6445552248
 10
20.3931198201
 20
10.4893877016
 10
20.4952617901
 20
10.3449929635
 10
20.6087118014
 20
10.2113710104
 10
20.7345332864
 20
10.0876951358
 10
20.8716628127
 20
9.9747920464
 10
21.0169100833
 20
9.8751418611
 10
21.1704341668
 20
9.7890351002
 10
21.3320759946
 20
9.7161812435
 10
21.4981680636
 20
9.6581888498
 10
21.6688038845
 20
9.6153698179
 10
21.8438899465
 20
9.587412249
 10
22.0194782151
 20
9.5749890052
 10
22.1955753308
 20
9.5784206878
 10
22.3721746531
 20
9.5973866955
 10
22.5453082244
 20
9.6315980865
 10
22.7136533925
 20
9.6809585467
 10
22.8785328096
 20
9.7455643902
 10
23.0399464758
 20
9.8254156168
  0
LINE
  5
568
100
AcDbEntity
  8
0
100
AcDbLine
 62
253
  6
CONTINUOUS
 10
28.8743138713
 20
-13.7922023448
 11
29.00845145
 21
-14.1601066241
  0
LINE
  5
569
100
AcDbEntity
  8
0
100
AcDbLine
 62
7
  6
CONTINUOUS
 10
29.4041183007
 20
-14.0195180763
 11
29.2724378084
 21
-13.6499619229
  0
LINE
  5
56A
100
AcDbEntity
  8
0
100
AcDbLine
 62
253
  6
CONTINUOUS
 10
12.2926347877
 20
31.0810431582
 11
12.4591732412
 21
30.6066773432
  0
LINE
  5
56B
100
AcDbEntity
  8
0
100
AcDbLine
 62
7
  6
CONTINUOUS
 10
14.3946111646
 20
29.3250454966
 11
14.4295015964
 21
29.2231052891
  0
LINE
  5
56C
100
AcDbEntity
  8
0
100
AcDbLine
 62
7
  6
CONTINUOUS
 10
27.8816335263
 20
-26.6957405775
 11
28.0886887624
 21
-27.4684812385
  0
LINE
  5
56D
100
AcDbEntity
  8
0
100
AcDbLine
 62
7
  6
CONTINUOUS
 10
28.2149046894
 20
-27.3956104391
 11
28.0068222561
 21
-26.6234628307
  0
LWPOLYLINE
  5
56E
100
AcDbEntity
  8
0
100
AcDbPolyline
 62
7
  6
CONTINUOUS
 90
10
 70
0
 10
25.3606243346
 20
-20.159094288
 10
25.3546377548
 20
-20.1287538327
 10
25.3517110471
 20
-20.0985807273
 10
25.3518442116
 20
-20.0685749719
 10
25.3551014801
 20
-20.0384317755
 10
25.3614186207
 20
-20.0084559289
 10
25.3706029375
 20
-19.9795618051
 10
25.3825901984
 20
-19.9520541948
 10
25.3974446354
 20
-19.9256283072
 10
25.4151662486
 20
-19.9002841422
  0
LINE
  5
56F
100
AcDbEntity
  8
0
100
AcDbLine
 62
253
  6
CONTINUOUS
 10
24.5366376159
 20
-10.8187014434
 11
24.5366376159
 21
-10.9746536945
  0
LINE
  5
570
100
AcDbEntity
  8
0
100
AcDbLine
 62
253
  6
CONTINUOUS
 10
24.9608370672
 20
-10.9746536945
 11
24.9608370672
 21
-10.8187014434
  0
LWPOLYLINE
  5
571
100
AcDbEntity
  8
0
100
AcDbPolyline
 62
253
  6
CONTINUOUS
 90
37
 70
0
 10
23.8
 20
3.0
 10
23.787767322
 20
2.7345410822
 10
23.7535165546
 20
2.4750650575
 10
23.6972476977
 20
2.2215719259
 10
23.6181228945
 20
1.9721731548
 10
23.5169800018
 20
1.7287572768
 10
23.39633259
 20
1.4969898896
 10
23.2556888302
 20
1.2772119864
 10
23.0955405513
 20
1.0690825741
 10
22.9198768102
 20
0.8772442713
 10
22.7287057818
 20
0.7022603214
 10
22.5220192911
 20
0.543567481
 10
22.3037818706
 20
0.404118639
 10
22.0733859317
 20
0.2840619224
 10
21.831439063
 20
0.1832492043
 10
21.5837285622
 20
0.1041889925
 10
21.3302691243
 20
0.047483942
 10
21.0710460544
 20
0.0125313978
 10
20.8118025647
 20
0.0000319038
 10
20.5526199181
 20
0.0104300143
 10
20.2934168517
 20
0.0432811749
 10
20.0396927895
 20
0.097952266
 10
19.7914356869
 20
0.1749244797
 10
19.5486575885
 20
0.2737166239
 10
19.316894051
 20
0.392252003
 10
19.0965015538
 20
0.5307978005
 10
18.8871236175
 20
0.6890868328
 10
18.6932263608
 20
0.8642408536
 10
18.514830602
 20
1.0569592192
 10
18.3519155227
 20
1.2665425734
 10
18.2088847867
 20
1.4880146001
 10
18.0863573523
 20
1.7218112036
 10
17.9837142611
 20
1.9674964797
 10
17.9035023014
 20
2.2187864002
 10
17.8465704028
 20
2.4735862891
 10
17.8120696356
 20
2.7339908223
 10
17.8
 20
3.0
  0
LINE
  5
572
100
AcDbEntity
  8
0
100
AcDbLine
 62
253
  6
CONTINUOUS
 10
14.3752185361
 20
-30.1669203983
 11
14.2416905651
 21
-30.5414039767
  0
LINE
  5
573
100
AcDbEntity
  8
0
100
AcDbLine
 62
7
  6
CONTINUOUS
 10
14.6438923512
 20
-30.68485749
 11
14.7328787775
 21
-30.4352455304
  0
LWPOLYLINE
  5
574
100
AcDbEntity
  8
0
100
AcDbPolyline
 62
7
  6
CONTINUOUS
 90
3
 70
0
 10
14.7328787775
 20
-30.4352455304
 10
14.7631931878
 20
-30.35168224
 10
14.7785431213
 20
-30.3097978617
  0
LWPOLYLINE
  5
575
100
AcDbEntity
  8
0
100
AcDbPolyline
 62
253
  6
CONTINUOUS
 90
13
 70
0
 10
23.8204769177
 20
-11.9266167165
 10
23.794043381
 20
-11.9550109034
 10
23.7696330578
 20
-11.9845087461
 10
23.7476553522
 20
-12.0146155135
 10
23.7284788693
 20
-12.0448262619
 10
23.7124252326
 20
-12.0746343037
 10
23.6997636899
 20
-12.1035397054
 10
23.6907065977
 20
-12.1310576723
 10
23.6854058594
 20
-12.1567266796
 10
23.6839503777
 20
-12.1801162125
 10
23.6863645636
 20
-12.2008339873
 10
23.6926079271
 20
-12.2185325304
 10
23.7025757558
 20
-12.2329150058
  0
LINE
  5
576
100
AcDbEntity
  8
0
100
AcDbLine
 62
7
  6
CONTINUOUS
 10
24.5366354257
 20
-10.8187036336
 11
23.546625695
 21
-11.8087133644
  0
LINE
  5
577
100
AcDbEntity
  8
0
100
AcDbLine
 62
253
  6
CONTINUOUS
 10
23.7025757558
 20
-11.8087155546
 11
24.5366376159
 21
-10.9746536945
  0
LINE
  5
578
100
AcDbEntity
  8
0
100
AcDbLine
 62
253
  6
CONTINUOUS
 10
24.6545387778
 20
-11.0925548564
 11
23.8204769177
 21
-11.9266167165
  0
LWPOLYLINE
  5
579
100
AcDbEntity
  8
0
100
AcDbPolyline
 62
253
  6
CONTINUOUS
 90
16
 70
0
 10
25.9099735864
 20
-12.3699000235
 10
25.9312146488
 20
-12.3498406191
 10
25.9529306763
 20
-12.3310470479
 10
25.9749021972
 20
-12.3136601657
 10
25.9967420781
 20
-12.2979202663
 10
26.0184243031
 20
-12.283781651
 10
26.0402830975
 20
-12.2710345573
 10
26.0621351745
 20
-12.259851022
 10
26.0837429058
 20
-12.2504197153
 10
26.1052969372
 20
-12.2427773299
 10
26.126494549
 20
-12.2372146189
 10
26.1469913795
 20
-12.2340208863
 10
26.1667407262
 20
-12.2334882308
 10
26.1853218211
 20
-12.2360504017
 10
26.2020386238
 20
-12.2421066717
 10
26.2162718757
 20
-12.2519988616
  0
LWPOLYLINE
  5
57A
100
AcDbEntity
  8
0
100
AcDbPolyline
 62
253
  6
CONTINUOUS
 90
13
 70
0
 10
24.5366376159
 20
-10.9746536945
 10
24.5661129403
 20
-10.948816811
 10
24.5987153604
 20
-10.927037609
 10
24.633890103
 20
-10.9096914498
 10
24.67104096
 20
-10.8970774982
 10
24.7095308319
 20
-10.8894169493
 10
24.7486916536
 20
-10.8868447856
 10
24.7878499016
 20
-10.8894045839
 10
24.826338923
 20
-10.8970521032
 10
24.8635001597
 20
-10.9096564923
 10
24.8986977728
 20
-10.9270020868
 10
24.9313295214
 20
-10.9487920985
 10
24.9608370672
 20
-10.9746536945
  0
LINE
  5
57B
100
AcDbEntity
  8
0
100
AcDbLine
 62
253
  6
CONTINUOUS
 10
30.5414039767
 20
-14.2416905651
 11
30.1669203983
 21
-14.3752185361
  0
LINE
  5
57C
100
AcDbEntity
  8
0
100
AcDbLine
 62
7
  6
CONTINUOUS
 10
30.3103476725
 20
-14.7774085423
 11
30.6848574951
 21
-14.6438923537
  0
LWPOLYLINE
  5
57D
100
AcDbEntity
  8
0
100
AcDbPolyline
 62
7
  6
CONTINUOUS
 90
13
 70
0
 10
-18.2280591844
 20
26.6201243311
 10
-18.2306906228
 20
26.6201589438
 10
-18.2343574992
 20
26.6192409036
 10
-18.2390317638
 20
26.617495708
 10
-18.2446942944
 20
26.6151070499
 10
-18.2512713793
 20
26.6121222761
 10
-18.2586854089
 20
26.6084359242
 10
-18.26692452
 20
26.6041389893
 10
-18.2759668263
 20
26.5993047556
 10
-18.2858045569
 20
26.5937761637
 10
-18.2964624288
 20
26.5876762281
 10
-18.3079450479
 20
26.5810318257
 10
-18.3203274978
 20
26.573543442
  0
LINE
  5
57E
100
AcDbEntity
  8
0
100
AcDbLine
 62
7
  6
CONTINUOUS
 10
30.4828901712
 20
16.82132248
 11
30.3926288173
 21
16.8469095146
  0
LINE
  5
57F
100
AcDbEntity
  8
0
100
AcDbLine
 62
7
  6
CONTINUOUS
 10
30.3437883217
 20
16.8611658585
 11
30.1715965477
 21
16.9103493649
  0
LINE
  5
580
100
AcDbEntity
  8
0
100
AcDbLine
 62
7
  6
CONTINUOUS
 10
28.7268978612
 20
15.853643872
 11
28.892704992
 21
15.8057656313
  0
LINE
  5
581
100
AcDbEntity
  8
0
100
AcDbLine
 62
7
  6
CONTINUOUS
 10
30.6621627143
 20
16.7695491449
 11
30.4828901712
 21
16.82132248
  0
LWPOLYLINE
  5
582
100
AcDbEntity
  8
0
100
AcDbPolyline
 62
7
  6
CONTINUOUS
 90
3
 70
0
 10
28.5479434218
 20
15.9049684467
 10
28.6196230942
 20
15.8842615231
 10
28.6434070243
 20
15.8772999629
  0
LINE
  5
583
100
AcDbEntity
  8
0
100
AcDbLine
 62
7
  6
CONTINUOUS
 10
30.3926288173
 20
16.8469095146
 11
30.3437883217
 21
16.8611658585
  0
LWPOLYLINE
  5
584
100
AcDbEntity
  8
0
100
AcDbPolyline
 62
7
  6
CONTINUOUS
 90
10
 70
0
 10
31.1902986388
 20
16.5871159392
 10
31.1313052445
 20
16.6081443382
 10
31.0728781886
 20
16.6280667584
 10
31.015023697
 20
16.6468865209
 10
30.9581391599
 20
16.6638723647
 10
30.9018330975
 20
16.6797587267
 10
30.8449266901
 20
16.696746559
 10
30.7870255579
 20
16.7155687353
 10
30.7285182385
 20
16.7354892225
 10
30.6693985947
 20
16.7565046775
  0
LINE
  5
585
100
AcDbEntity
  8
0
100
AcDbLine
 62
253
  6
CONTINUOUS
 10
9.3429198167
 20
21.997193457
 11
9.4608959986
 21
21.9396526284
  0
LINE
  5
586
100
AcDbEntity
  8
0
100
AcDbLine
 62
253
  6
CONTINUOUS
 10
9.0866055195
 20
23.6918887874
 11
9.2378980243
 21
23.6180985024
  0
LWPOLYLINE
  5
587
100
AcDbEntity
  8
0
100
AcDbPolyline
 62
253
  6
CONTINUOUS
 90
10
 70
0
 10
10.0480107821
 20
21.0239348272
 10
9.9345061114
 20
21.0827481615
 10
9.8250128771
 20
21.1486852528
 10
9.7199762896
 20
21.2214723378
 10
9.6198225866
 20
21.3008085143
 10
9.5249583023
 20
21.3863656146
 10
9.435768305
 20
21.4777893523
 10
9.3526131486
 20
21.5747028103
 10
9.2758280189
 20
21.6767082231
 10
9.2057221378
 20
21.7833870621
  0
LINE
  5
588
100
AcDbEntity
  8
0
100
AcDbLine
 62
253
  6
CONTINUOUS
 10
23.0467723431
 20
10.6041048634
 11
23.1920159051
 21
10.3420785414
  0
LWPOLYLINE
  5
589
100
AcDbEntity
  8
0
100
AcDbPolyline
 62
7
  6
CONTINUOUS
 90
10
 70
0
 10
15.1284053811
 20
31.5042850649
 10
15.1043287196
 20
31.5622326633
 10
15.0813775963
 20
31.6196260771
 10
15.0595550287
 20
31.6764716107
 10
15.0396164127
 20
31.7324197744
 10
15.0208092021
 20
31.7878260583
 10
15.0008736567
 20
31.8437524961
 10
14.9790558205
 20
31.9005515989
 10
14.9561067865
 20
31.9578647856
 10
14.9320235632
 20
32.0156856636
  0
LINE
  5
58A
100
AcDbEntity
  8
0
100
AcDbLine
 62
7
  6
CONTINUOUS
 10
14.2719770346
 20
29.6803184025
 11
14.3946111646
 21
29.3250454966
  0
LWPOLYLINE
  5
58B
100
AcDbEntity
  8
0
100
AcDbPolyline
 62
7
  6
CONTINUOUS
 90
3
 70
0
 10
15.3081149663
 20
31.0152665806
 10
15.2897168073
 20
31.0690579763
 10
15.1418334569
 20
31.4977916804
  0
LINE
  5
58C
100
AcDbEntity
  8
0
100
AcDbLine
 62
7
  6
CONTINUOUS
 10
28.598848792
 20
-14.6345757778
 11
28.5652530721
 21
-14.4231174483
  0
LINE
  5
58D
100
AcDbEntity
  8
0
100
AcDbLine
 62
253
  6
CONTINUOUS
 10
25.0978220849
 20
-13.1820515251
 11
25.9099735864
 21
-12.3699000235
  0
LINE
  5
58E
100
AcDbEntity
  8
0
100
AcDbLine
 62
253
  6
CONTINUOUS
 10
24.979920923
 20
-13.4883498144
 11
26.2162718757
 21
-12.2519988616
  0
LWPOLYLINE
  5
58F
100
AcDbEntity
  8
0
100
AcDbPolyline
 62
7
  6
CONTINUOUS
 90
10
 70
0
 10
14.0365509651
 20
31.6880766585
 10
14.1606626648
 20
31.6983740203
 10
14.2851962752
 20
31.7009165764
 10
14.4096691663
 20
31.6956912331
 10
14.5336001121
 20
31.682713771
 10
14.6565069564
 20
31.6620320748
 10
14.7779085893
 20
31.6337266223
 10
14.897332432
 20
31.5979055291
 10
15.0143161608
 20
31.5547035042
 10
15.1284053811
 20
31.5042850649
  0
LINE
  5
590
100
AcDbEntity
  8
0
100
AcDbLine
 62
7
  6
CONTINUOUS
 10
13.0132955196
 20
26.4421527146
 11
14.5493325371
 21
25.0863066644
  0
LINE
  5
591
100
AcDbEntity
  8
0
100
AcDbLine
 62
253
  6
CONTINUOUS
 10
33.332120514
 20
-13.0
 11
33.332120514
 21
13.0
  0
LINE
  5
592
100
AcDbEntity
  8
0
100
AcDbLine
 62
253
  6
CONTINUOUS
 10
34.3927806857
 20
13.0
 11
34.3927806857
 21
-13.0
  0
LWPOLYLINE
  5
593
100
AcDbEntity
  8
0
100
AcDbPolyline
 62
7
  6
CONTINUOUS
 90
13
 70
0
 10
30.6853481502
 20
-14.6427252069
 10
30.7001210864
 20
-14.6044061376
 10
30.7097587545
 20
-14.5660467749
 10
30.7142611544
 20
-14.5276471189
 10
30.713500048
 20
-14.4886253531
 10
30.7076036735
 20
-14.449563294
 10
30.6969567453
 20
-14.4122063908
 10
30.6814164814
 20
-14.3766059116
 10
30.661125664
 20
-14.3427105884
 10
30.6368973535
 20
-14.3121120667
 10
30.6090025701
 20
-14.2853408948
 10
30.5771702938
 20
-14.2618665243
 10
30.5414005244
 20
-14.2416889553
  0
LWPOLYLINE
  5
594
100
AcDbEntity
  8
0
100
AcDbPolyline
 62
7
  6
CONTINUOUS
 90
6
 70
0
 10
28.5715681474
 20
-14.6947178608
 10
28.5814583338
 20
-14.6740906554
 10
28.5891958198
 20
-14.6576491364
 10
28.5947351044
 20
-14.6456034037
 10
28.597952864
 20
-14.637912182
 10
28.598848792
 20
-14.6345757778
  0
LINE
  5
595
100
AcDbEntity
  8
0
100
AcDbLine
 62
7
  6
CONTINUOUS
 10
28.4579224936
 20
-14.9178489307
 11
28.4766643767
 21
-14.8812196001
  0
LWPOLYLINE
  5
596
100
AcDbEntity
  8
0
100
AcDbPolyline
 62
7
  6
CONTINUOUS
 90
4
 70
0
 10
28.4766643767
 20
-14.8812196001
 10
28.5133326332
 20
-14.8107995438
 10
28.5302369469
 20
-14.7777426033
 10
28.5715681474
 20
-14.6947178608
  0
LWPOLYLINE
  5
597
100
AcDbEntity
  8
0
100
AcDbPolyline
 62
7
  6
CONTINUOUS
 90
3
 70
0
 10
27.8423477348
 20
-16.0374450105
 10
27.8624938268
 20
-16.0028000629
 10
27.8827886475
 20
-15.9670180877
  0
LWPOLYLINE
  5
598
100
AcDbEntity
  8
0
100
AcDbPolyline
 62
7
  6
CONTINUOUS
 90
13
 70
0
 10
29.0077959743
 20
-14.1597933392
 10
29.0281722864
 20
-14.1249945071
 10
29.0516964413
 20
-14.0940358583
 10
29.0783684389
 20
-14.0669173928
 10
29.1086944876
 20
-14.0433847853
 10
29.142168379
 20
-14.0236923611
 10
29.1772714881
 20
-14.0086030966
 10
29.2140511236
 20
-13.9982505856
 10
29.2524599767
 20
-13.9925012344
 10
29.2908374956
 20
-13.9917172373
 10
29.328630163
 20
-13.996019326
 10
29.3663914963
 20
-14.005286769
 10
29.4041214954
 20
-14.0195195661
  0
LINE
  5
599
100
AcDbEntity
  8
0
100
AcDbLine
 62
7
  6
CONTINUOUS
 10
27.7874541407
 20
-16.1302185183
 11
27.8423477348
 21
-16.0374450105
  0
LINE
  5
59A
100
AcDbEntity
  8
0
100
AcDbLine
 62
7
  6
CONTINUOUS
 10
27.7719999041
 20
-16.155905274
 11
27.7874541407
 21
-16.1302185183
  0
LWPOLYLINE
  5
59B
100
AcDbEntity
  8
0
100
AcDbPolyline
 62
7
  6
CONTINUOUS
 90
10
 70
0
 10
25.1097324066
 20
-19.8368681618
 10
25.0912398617
 20
-19.8632067255
 10
25.0758514986
 20
-19.8906894776
 10
25.0635673173
 20
-19.9193164182
 10
25.0543199395
 20
-19.9494303855
 10
25.0481767435
 20
-19.9806885411
 10
25.0453398645
 20
-20.0120623704
 10
25.0458766809
 20
-20.043209035
 10
25.0497198143
 20
-20.0744713733
 10
25.0568692647
 20
-20.1058493851
  0
LWPOLYLINE
  5
59C
100
AcDbEntity
  8
0
100
AcDbPolyline
 62
7
  6
CONTINUOUS
 90
6
 70
0
 10
27.7234657908
 20
-16.2318946822
 10
27.7255438724
 20
-16.229547462
 10
27.7302035164
 20
-16.2228959818
 10
27.7373523046
 20
-16.2120326599
 10
27.7467817585
 20
-16.1970777456
 10
27.7719999041
 20
-16.155905274
  0
LWPOLYLINE
  5
59D
100
AcDbEntity
  8
0
100
AcDbPolyline
 62
253
  6
CONTINUOUS
 90
13
 70
0
 10
18.0297591464
 20
-25.8598917502
 10
17.999643893
 20
-25.8841163446
 10
17.9728467326
 20
-25.9117538352
 10
17.9497763595
 20
-25.9423169726
 10
17.9308577716
 20
-25.9751090784
 10
17.9162321993
 20
-26.0097244901
 10
17.9059730991
 20
-26.0461413938
 10
17.9003905405
 20
-26.0840433116
 10
17.8998299232
 20
-26.1225722446
 10
17.9044422869
 20
-26.1608881566
 10
17.91423377
 20
-26.198246247
 10
17.9291362181
 20
-26.2340072438
 10
17.9489800896
 20
-26.2674816794
  0
LINE
  5
59E
100
AcDbEntity
  8
0
100
AcDbLine
 62
7
  6
CONTINUOUS
 10
18.6649205767
 20
-26.3357689132
 11
18.6792009828
 21
-26.3243859011
  0
LWPOLYLINE
  5
59F
100
AcDbEntity
  8
0
100
AcDbPolyline
 62
7
  6
CONTINUOUS
 90
14
 70
0
 10
18.6792009828
 20
-26.3243859011
 10
18.7050434201
 20
-26.3041622636
 10
18.716315236
 20
-26.2950877978
 10
18.7264859708
 20
-26.286570342
 10
18.7358630257
 20
-26.2786416307
 10
18.7444228244
 20
-26.2712881046
 10
18.7520581036
 20
-26.2644445471
 10
18.7589137159
 20
-26.2581720516
 10
18.7649132999
 20
-26.2524661116
 10
18.7699673391
 20
-26.2473067057
 10
18.7741484235
 20
-26.2428028204
 10
18.7773868753
 20
-26.239007515
 10
18.7795035605
 20
-26.2358759155
 10
18.7803709836
 20
-26.2333914459
  0
LINE
  5
5A0
100
AcDbEntity
  8
0
100
AcDbLine
 62
7
  6
CONTINUOUS
 10
18.1700441403
 20
-25.4264040221
 11
17.6784831317
 21
-25.7705987459
  0
LINE
  5
5A1
100
AcDbEntity
  8
0
100
AcDbLine
 62
253
  6
CONTINUOUS
 10
18.0033544161
 20
-25.8278845336
 11
18.1127626495
 21
-25.7512760638
  0
LINE
  5
5A2
100
AcDbEntity
  8
0
100
AcDbLine
 62
253
  6
CONTINUOUS
 10
18.1338089797
 20
-25.7870360307
 11
18.0297595324
 21
-25.8598922381
  0
LINE
  5
5A3
100
AcDbEntity
  8
0
100
AcDbLine
 62
7
  6
CONTINUOUS
 10
18.4677984804
 20
-26.4133955962
 11
18.5041138485
 21
-26.3879673017
  0
LWPOLYLINE
  5
5A4
100
AcDbEntity
  8
0
100
AcDbPolyline
 62
7
  6
CONTINUOUS
 90
10
 70
0
 10
19.9002841421
 20
-25.4151662487
 10
19.9256283068
 20
-25.3974446357
 10
19.9520541942
 20
-25.3825901988
 10
19.9795618041
 20
-25.3706029379
 10
20.0084559267
 20
-25.3614186211
 10
20.0384317719
 20
-25.3551014803
 10
20.0685749699
 20
-25.3518442118
 10
20.0985807308
 20
-25.3517110478
 10
20.1287538445
 20
-25.354637756
 10
20.1590943109
 20
-25.3606243366
  0
LWPOLYLINE
  5
5A5
100
AcDbEntity
  8
0
100
AcDbPolyline
 62
7
  6
CONTINUOUS
 90
3
 70
0
 10
18.3203274978
 20
-26.573543442
 10
18.34816922
 20
-26.5561770408
 10
18.3637488996
 20
-26.5466515918
  0
LWPOLYLINE
  5
5A6
100
AcDbEntity
  8
0
100
AcDbPolyline
 62
253
  6
CONTINUOUS
 90
13
 70
0
 10
18.1127626395
 20
-25.7512761689
 10
18.145877875
 20
-25.7311580518
 10
18.1811959813
 20
-25.7155179648
 10
18.218112222
 20
-25.7045720726
 10
18.2558147194
 20
-25.69847399
 10
18.2938643124
 20
-25.6972105522
 10
18.3322130087
 20
-25.7008457054
 10
18.3704513463
 20
-25.7095624277
 10
18.4076371917
 20
-25.7233755072
 10
18.4429094831
 20
-25.7421175139
 10
18.4755465031
 20
-25.7655155443
 10
18.5049525857
 20
-25.7932634739
 10
18.5305175479
 20
-25.8249376306
  0
LWPOLYLINE
  5
5A7
100
AcDbEntity
  8
0
100
AcDbPolyline
 62
7
  6
CONTINUOUS
 90
13
 70
0
 10
13.7925312518
 20
-28.8750077967
 10
13.7573664124
 20
-28.895223908
 10
13.7260637228
 20
-28.918645791
 10
13.6986231833
 20
-28.9452734458
 10
13.6747837813
 20
-28.9756200214
 10
13.6548065294
 20
-29.0091723687
 10
13.6394744645
 20
-29.0443910404
 10
13.6289239189
 20
-29.0813249585
 10
13.6230185604
 20
-29.1199252009
 10
13.6221324295
 20
-29.1585055545
 10
13.6263902064
 20
-29.196503948
 10
13.6356672109
 20
-29.2344824526
 10
13.6499634431
 20
-29.2724410683
  0
LWPOLYLINE
  5
5A8
100
AcDbEntity
  8
0
100
AcDbPolyline
 62
7
  6
CONTINUOUS
 90
13
 70
0
 10
14.7785311638
 20
-30.3097656961
 10
14.7401111575
 20
-30.3249274325
 10
14.7016187724
 20
-30.3348999561
 10
14.6630540087
 20
-30.339683267
 10
14.6238251987
 20
-30.339150007
 10
14.58452401
 20
-30.3334275344
 10
14.5469254451
 20
-30.3228979232
 10
14.5110812557
 20
-30.3074151098
 10
14.4769396902
 20
-30.2871251579
 10
14.4461204965
 20
-30.2628483322
 10
14.4191635905
 20
-30.2348580541
 10
14.3955290563
 20
-30.2028809022
 10
14.3752168939
 20
-30.1669168765
  0
LINE
  5
5A9
100
AcDbEntity
  8
0
100
AcDbLine
 62
253
  6
CONTINUOUS
 10
13.0
 20
33.332120514
 11
-13.0
 21
33.332120514
  0
LINE
  5
5AA
100
AcDbEntity
  8
0
100
AcDbLine
 62
253
  6
CONTINUOUS
 10
-13.0
 20
34.3927806857
 11
13.0
 21
34.3927806857
  0
LINE
  5
5AB
100
AcDbEntity
  8
0
100
AcDbLine
 62
253
  6
CONTINUOUS
 10
12.6104694096
 20
30.5328945696
 11
12.4591769048
 21
30.6066848547
  0
LINE
  5
5AC
100
AcDbEntity
  8
0
100
AcDbLine
 62
253
  6
CONTINUOUS
 10
14.0705161261
 20
31.390774484
 11
13.9525399442
 21
31.4483153126
  0
LINE
  5
5AD
100
AcDbEntity
  8
0
100
AcDbLine
 62
253
  6
CONTINUOUS
 10
29.8848865308
 20
14.0519973094
 11
29.7396429688
 21
14.3140236314
  0
LINE
  5
5AE
100
AcDbEntity
  8
0
100
AcDbLine
 62
253
  6
CONTINUOUS
 10
35.0569942481
 20
-13.0
 11
35.0569942481
 21
13.0
  0
LINE
  5
5AF
100
AcDbEntity
  8
0
100
AcDbLine
 62
253
  6
CONTINUOUS
 10
35.9098624061
 20
13.0
 11
35.9098624061
 21
-13.0
  0
LINE
  5
5B0
100
AcDbEntity
  8
0
100
AcDbLine
 62
7
  6
CONTINUOUS
 10
37.5227730246
 20
-13.0
 11
37.5227730246
 21
13.0
  0
LINE
  5
5B1
100
AcDbEntity
  8
0
100
AcDbLine
 62
7
  6
CONTINUOUS
 10
26.6957405775
 20
-27.8816335263
 11
26.6234628307
 21
-28.0068222561
  0
LINE
  5
5B2
100
AcDbEntity
  8
0
100
AcDbLine
 62
7
  6
CONTINUOUS
 10
27.4684812385
 20
-28.0886887624
 11
27.3956104391
 21
-28.2149046894
  0
LINE
  5
5B3
100
AcDbEntity
  8
0
100
AcDbLine
 62
7
  6
CONTINUOUS
 10
27.8816335263
 20
-26.6957405775
 11
28.0068222561
 21
-26.6234628307
  0
LINE
  5
5B4
100
AcDbEntity
  8
0
100
AcDbLine
 62
7
  6
CONTINUOUS
 10
28.0886887624
 20
-27.4684812385
 11
28.2149046894
 21
-27.3956104391
  0
LINE
  5
5B5
100
AcDbEntity
  8
0
100
AcDbLine
 62
253
  6
CONTINUOUS
 10
13.0
 20
35.0569942481
 11
-13.0
 21
35.0569942481
  0
LINE
  5
5B6
100
AcDbEntity
  8
0
100
AcDbLine
 62
253
  6
CONTINUOUS
 10
-13.0
 20
35.9098624061
 11
13.0
 21
35.9098624061
  0
LINE
  5
5B7
100
AcDbEntity
  8
0
100
AcDbLine
 62
7
  6
CONTINUOUS
 10
13.0
 20
37.5227730246
 11
-13.0
 21
37.5227730246
  0
LWPOLYLINE
  5
5B8
100
AcDbEntity
  8
0
100
AcDbPolyline
 62
7
  6
CONTINUOUS
 90
19
 70
0
 10
14.9323094238
 20
32.0153910763
 10
14.7702907507
 20
32.0821783969
 10
14.605871643
 20
32.1343172032
 10
14.4390521008
 20
32.1718074953
 10
14.2685985089
 20
32.1946688714
 10
14.0957444825
 20
32.2028817332
 10
13.9241908668
 20
32.196387286
 10
13.7539652161
 20
32.174895002
 10
13.5850399761
 20
32.138695409
 10
13.4210333288
 20
32.0886012961
 10
13.2620432451
 20
32.0243356193
 10
13.1079717541
 20
31.9461754225
 10
12.9621431251
 20
31.8557646262
 10
12.824721841
 20
31.75286486
 10
12.6955434188
 20
31.6377144943
 10
12.5774386784
 20
31.5126725598
 10
12.4713512263
 20
31.3785254001
 10
12.376337456
 20
31.2344866716
 10
12.2923973674
 20
31.0805563744
  0
LINE
  5
5B9
100
AcDbEntity
  8
0
100
AcDbLine
 62
253
  6
CONTINUOUS
 10
15.1283862665
 20
31.5042452592
 11
15.1418364984
 21
31.4977829035
  0
LINE
  5
5BA
100
AcDbEntity
  8
0
100
AcDbLine
 62
253
  6
CONTINUOUS
 10
14.998832036
 20
31.2341170587
 11
15.0239308084
 21
31.2220521135
  0
LINE
  5
5BB
100
AcDbEntity
  8
0
100
AcDbLine
 62
7
  6
CONTINUOUS
 10
28.0190752906
 20
26.728278276
 11
28.0777609579
 21
26.6943960902
  0
LINE
  5
5BC
100
AcDbEntity
  8
0
100
AcDbLine
 62
7
  6
CONTINUOUS
 10
28.2261305266
 20
27.5010189371
 11
28.2862280339
 21
27.4663216251
  0
LINE
  5
5BD
100
AcDbEntity
  8
0
100
AcDbLine
 62
7
  6
CONTINUOUS
 10
26.728278276
 20
28.0190752906
 11
26.6943960902
 21
28.0777609579
  0
LINE
  5
5BE
100
AcDbEntity
  8
0
100
AcDbLine
 62
7
  6
CONTINUOUS
 10
27.5010189371
 20
28.2261305266
 11
27.466321624
 21
28.2862280358
  0
LINE
  5
5BF
100
AcDbEntity
  8
0
100
AcDbLine
 62
253
  6
CONTINUOUS
 10
30.3929715908
 20
16.6373769866
 11
30.4061792976
 21
16.6132261347
  0
LINE
  5
5C0
100
AcDbEntity
  8
0
100
AcDbLine
 62
253
  6
CONTINUOUS
 10
30.6621537943
 20
16.7695517255
 11
30.6693117248
 21
16.7564572243
  0
LWPOLYLINE
  5
5C1
100
AcDbEntity
  8
0
100
AcDbPolyline
 62
7
  6
CONTINUOUS
 90
19
 70
0
 10
30.6693985947
 20
16.7565046775
 10
30.7459617729
 20
16.6004919007
 10
30.8086701297
 20
16.4384907262
 10
30.8570643665
 20
16.2717244775
 10
30.8907939661
 20
16.1014585005
 10
30.9096183275
 20
15.928968514
 10
30.9134013919
 20
15.75553015
 10
30.9021187786
 20
15.5824452689
 10
30.8758618313
 20
15.4110173486
 10
30.834826019
 20
15.2425197431
 10
30.7793185977
 20
15.0782198699
 10
30.7097580239
 20
14.9193529181
 10
30.6266602669
 20
14.767099353
 10
30.5306455227
 20
14.6226093722
 10
30.4224309257
 20
14.4869699147
 10
30.302813855
 20
14.3611860616
 10
30.1726801648
 20
14.2462070243
 10
30.0330031211
 20
14.1429144339
 10
29.8848254125
 20
14.052096233
  0
LINE
  5
5C2
100
AcDbEntity
  8
0
100
AcDbLine
 62
7
  6
CONTINUOUS
 10
38.3887984284
 20
-13.0
 11
38.3887984284
 21
13.0
  0
LINE
  5
5C3
100
AcDbEntity
  8
0
100
AcDbLine
 62
7
  6
CONTINUOUS
 10
38.9475922207
 20
-13.0
 11
38.9475922207
 21
13.0
  0
LINE
  5
5C4
100
AcDbEntity
  8
0
100
AcDbLine
 62
7
  6
CONTINUOUS
 10
39.0
 20
-13.0
 11
39.0
 21
13.0
  0
LINE
  5
5C5
100
AcDbEntity
  8
0
100
AcDbLine
 62
7
  6
CONTINUOUS
 10
40.0
 20
-13.0
 11
40.0
 21
13.0
  0
LINE
  5
5C6
100
AcDbEntity
  8
0
100
AcDbLine
 62
7
  6
CONTINUOUS
 10
13.0
 20
38.3887984284
 11
-13.0
 21
38.3887984284
  0
LINE
  5
5C7
100
AcDbEntity
  8
0
100
AcDbLine
 62
7
  6
CONTINUOUS
 10
13.0
 20
38.9475922207
 11
-13.0
 21
38.9475922207
  0
LINE
  5
5C8
100
AcDbEntity
  8
0
100
AcDbLine
 62
7
  6
CONTINUOUS
 10
13.0
 20
39.0
 11
-13.0
 21
39.0
  0
LINE
  5
5C9
100
AcDbEntity
  8
0
100
AcDbLine
 62
7
  6
CONTINUOUS
 10
13.0
 20
40.0
 11
-13.0
 21
40.0
  0
LINE
  5
5CA
100
AcDbEntity
  8
0
100
AcDbLine
 62
7
  6
CONTINUOUS
 10
114.2834210936
 20
-38.9475922207
 11
113.2834210936
 21
-39.0
  0
LINE
  5
5CB
100
AcDbEntity
  8
0
100
AcDbLine
 62
7
  6
CONTINUOUS
 10
113.2834210936
 20
-40.0
 11
80.2834210936
 21
-38.2705432837
  0
LINE
  5
5CC
100
AcDbEntity
  8
0
100
AcDbLine
 62
253
  6
CONTINUOUS
 10
80.2834210936
 20
-13.0
 11
114.2834210936
 21
-13.0
  0
LINE
  5
5CD
100
AcDbEntity
  8
0
100
AcDbLine
 62
7
  6
CONTINUOUS
 10
80.2834210936
 20
38.2705432837
 11
80.2834210936
 21
-38.2705432837
  0
LINE
  5
5CE
100
AcDbEntity
  8
0
100
AcDbLine
 62
253
  6
CONTINUOUS
 10
114.2834210936
 20
13.0
 11
80.2834210936
 21
13.0
  0
LINE
  5
5CF
100
AcDbEntity
  8
0
100
AcDbLine
 62
7
  6
CONTINUOUS
 10
113.2834210936
 20
-40.0
 11
113.2834210936
 21
40.0
  0
LINE
  5
5D0
100
AcDbEntity
  8
0
100
AcDbLine
 62
7
  6
CONTINUOUS
 10
114.2834210936
 20
-38.9475922207
 11
114.2834210936
 21
38.9475922207
  0
LINE
  5
5D1
100
AcDbEntity
  8
0
100
AcDbLine
 62
7
  6
CONTINUOUS
 10
80.2834210936
 20
38.2705432837
 11
113.2834210936
 21
40.0
  0
LINE
  5
5D2
100
AcDbEntity
  8
0
100
AcDbLine
 62
7
  6
CONTINUOUS
 10
113.2834210936
 20
39.0
 11
114.2834210936
 21
38.9475922207
  0
ARC
  5
5D3
100
AcDbEntity
  8
0
100
AcDbCircle
 62
7
  6
CONTINUOUS
 10
-13.0
 20
-13.0
 40
27.0
100
AcDbArc
 50
180.0
 51
270.0
  0
ARC
  5
5D4
100
AcDbEntity
  8
0
100
AcDbCircle
 62
7
  6
CONTINUOUS
 10
-13.0
 20
-13.0
 40
26.0
100
AcDbArc
 50
180.0
 51
270.0
  0
ARC
  5
5D5
100
AcDbEntity
  8
0
100
AcDbCircle
 62
7
  6
CONTINUOUS
 10
-13.0
 20
-13.0
 40
25.9475922207
100
AcDbArc
 50
180.0
 51
270.0
  0
ARC
  5
5D6
100
AcDbEntity
  8
0
100
AcDbCircle
 62
7
  6
CONTINUOUS
 10
-13.0
 20
-13.0
 40
25.3887984284
100
AcDbArc
 50
180.0
 51
270.0
  0
ARC
  5
5D7
100
AcDbEntity
  8
0
100
AcDbCircle
 62
7
  6
CONTINUOUS
 10
-13.0
 20
-13.0
 40
24.5227730246
100
AcDbArc
 50
180.0
 51
270.0
  0
ARC
  5
5D8
100
AcDbEntity
  8
0
100
AcDbCircle
 62
7
  6
CONTINUOUS
 10
-13.0
 20
-13.0
 40
23.3435979908
100
AcDbArc
 50
223.7414235182
 51
226.2585764818
  0
ARC
  5
5D9
100
AcDbEntity
  8
0
100
AcDbCircle
 62
253
  6
CONTINUOUS
 10
-13.0
 20
-13.0
 40
22.9098624061
100
AcDbArc
 50
180.0
 51
223.5369107885
  0
ARC
  5
5DA
100
AcDbEntity
  8
0
100
AcDbCircle
 62
253
  6
CONTINUOUS
 10
-13.0
 20
-13.0
 40
22.9098624061
100
AcDbArc
 50
226.4630892115
 51
270.0
  0
ARC
  5
5DB
100
AcDbEntity
  8
0
100
AcDbCircle
 62
253
  6
CONTINUOUS
 10
-13.0
 20
-13.0
 40
22.0569942481
100
AcDbArc
 50
180.0
 51
223.4729009708
  0
ARC
  5
5DC
100
AcDbEntity
  8
0
100
AcDbCircle
 62
253
  6
CONTINUOUS
 10
-13.0
 20
-13.0
 40
22.0569942481
100
AcDbArc
 50
226.5270990292
 51
270.0
  0
ARC
  5
5DD
100
AcDbEntity
  8
0
100
AcDbCircle
 62
253
  6
CONTINUOUS
 10
-13.0
 20
-13.0
 40
21.3927806857
100
AcDbArc
 50
180.0
 51
223.4410055368
  0
ARC
  5
5DE
100
AcDbEntity
  8
0
100
AcDbCircle
 62
253
  6
CONTINUOUS
 10
-13.0
 20
-13.0
 40
21.3927806857
100
AcDbArc
 50
226.5589944632
 51
270.0
  0
ARC
  5
5DF
100
AcDbEntity
  8
0
100
AcDbCircle
 62
253
  6
CONTINUOUS
 10
-13.0
 20
-13.0
 40
20.332120514
100
AcDbArc
 50
227.7575771456
 51
270.0
  0
ARC
  5
5E0
100
AcDbEntity
  8
0
100
AcDbCircle
 62
253
  6
CONTINUOUS
 10
-13.0
 20
-13.0
 40
20.332120514
100
AcDbArc
 50
180.0
 51
222.2424228544
  0
ARC
  5
5E1
100
AcDbEntity
  8
0
100
AcDbCircle
 62
7
  6
CONTINUOUS
 10
-29.344428022
 20
-6.2373507245
 40
3.8610927272
100
AcDbArc
 50
139.8230579265
 51
58.5681653659
  0
ARC
  5
5E2
100
AcDbEntity
  8
0
100
AcDbCircle
 62
7
  6
CONTINUOUS
 10
-29.344428022
 20
-6.2373507245
 40
3.0471308021
100
AcDbArc
 50
133.4617117686
 51
65.7015142709
  0
ARC
  5
5E3
100
AcDbEntity
  8
0
100
AcDbCircle
 62
7
  6
CONTINUOUS
 10
-29.344428022
 20
-6.2373507245
 40
3.0
100
AcDbArc
 50
133.0058105257
 51
66.205840174
  0
ARC
  5
5E4
100
AcDbEntity
  8
0
100
AcDbCircle
 62
7
  6
CONTINUOUS
 10
-6.2373507245
 20
-29.344428022
 40
2.5110927272
100
AcDbArc
 50
78.0
 51
258.0000000007
  0
ARC
  5
5E5
100
AcDbEntity
  8
0
100
AcDbCircle
 62
7
  6
CONTINUOUS
 10
-24.7383917375
 20
-17.3220083778
 40
2.0
100
AcDbArc
 50
343.4032368469
 51
86.596763153
  0
ARC
  5
5E6
100
AcDbEntity
  8
0
100
AcDbCircle
 62
253
  6
CONTINUOUS
 10
-10.909405962
 20
-22.8270892708
 40
1.6987521849
100
AcDbArc
 50
31.4942070284
 51
64.4672408672
  0
ARC
  5
5E7
100
AcDbEntity
  8
0
100
AcDbCircle
 62
253
  6
CONTINUOUS
 10
-14.2630869243
 20
-29.7032753264
 40
1.698453691
100
AcDbArc
 50
244.330378688
 51
276.5100833537
  0
ARC
  5
5E8
100
AcDbEntity
  8
0
100
AcDbCircle
 62
7
  6
CONTINUOUS
 10
-6.2373507245
 20
-29.344428022
 40
1.6971308021
100
AcDbArc
 50
77.9999999972
 51
258.0000000037
  0
ARC
  5
5E9
100
AcDbEntity
  8
0
100
AcDbCircle
 62
253
  6
CONTINUOUS
 10
-22.223332851
 20
-12.0875693921
 40
1.6966263917
100
AcDbArc
 50
28.5108775074
 51
119.0504082426
  0
ARC
  5
5EA
100
AcDbEntity
  8
0
100
AcDbCircle
 62
253
  6
CONTINUOUS
 10
-28.9179482838
 20
-15.798446901
 40
1.6966115061
100
AcDbArc
 50
118.9504489862
 51
208.6998979081
  0
ARC
  5
5EB
100
AcDbEntity
  8
0
100
AcDbCircle
 62
7
  6
CONTINUOUS
 10
-6.2373507245
 20
-29.344428022
 40
1.65
100
AcDbArc
 50
78.0000000015
 51
258.0000000007
  0
ARC
  5
5EC
100
AcDbEntity
  8
0
100
AcDbCircle
 62
7
  6
CONTINUOUS
 10
-29.344428022
 20
6.2373507245
 40
2.5110927272
100
AcDbArc
 50
348.0000000009
 51
168.0000000006
  0
ARC
  5
5ED
100
AcDbEntity
  8
0
100
AcDbCircle
 62
7
  6
CONTINUOUS
 10
-29.344428022
 20
6.2373507245
 40
1.6971308021
100
AcDbArc
 50
347.9999999972
 51
168.0000000037
  0
ARC
  5
5EE
100
AcDbEntity
  8
0
100
AcDbCircle
 62
7
  6
CONTINUOUS
 10
-29.344428022
 20
6.2373507245
 40
1.65
100
AcDbArc
 50
348.0000000015
 51
168.0000000007
  0
ARC
  5
5EF
100
AcDbEntity
  8
0
100
AcDbCircle
 62
7
  6
CONTINUOUS
 10
-21.2132034356
 20
21.2132034356
 40
6.0
100
AcDbArc
 50
82.6698869643
 51
125.617160365
  0
ARC
  5
5F0
100
AcDbEntity
  8
0
100
AcDbCircle
 62
7
  6
CONTINUOUS
 10
-21.2132034356
 20
21.2132034356
 40
6.0
100
AcDbArc
 50
144.382839635
 51
187.3301130357
  0
ARC
  5
5F1
100
AcDbEntity
  8
0
100
AcDbCircle
 62
7
  6
CONTINUOUS
 10
-21.2132034356
 20
21.2132034356
 40
5.7207189611
100
AcDbArc
 50
143.4288850597
 51
188.4602400553
  0
ARC
  5
5F2
100
AcDbEntity
  8
0
100
AcDbCircle
 62
7
  6
CONTINUOUS
 10
-21.2132034356
 20
21.2132034356
 40
5.7207189611
100
AcDbArc
 50
81.5397599447
 51
126.5711149403
  0
ARC
  5
5F3
100
AcDbEntity
  8
0
100
AcDbCircle
 62
7
  6
CONTINUOUS
 10
-21.2132034356
 20
21.2132034356
 40
4.2792810389
100
AcDbArc
 50
75.7396390555
 51
194.2603612484
  0
ARC
  5
5F4
100
AcDbEntity
  8
0
100
AcDbCircle
 62
7
  6
CONTINUOUS
 10
-21.2132034356
 20
21.2132034356
 40
4.0
100
AcDbArc
 50
73.9283925183
 51
196.0716075223
  0
ARC
  5
5F5
100
AcDbEntity
  8
0
100
AcDbCircle
 62
7
  6
CONTINUOUS
 10
-13.0
 20
13.0
 40
27.0
100
AcDbArc
 50
90.0
 51
180.0
  0
ARC
  5
5F6
100
AcDbEntity
  8
0
100
AcDbCircle
 62
7
  6
CONTINUOUS
 10
-13.0
 20
13.0
 40
26.0
100
AcDbArc
 50
90.0
 51
180.0
  0
ARC
  5
5F7
100
AcDbEntity
  8
0
100
AcDbCircle
 62
7
  6
CONTINUOUS
 10
-13.0
 20
13.0
 40
25.9475922207
100
AcDbArc
 50
90.0
 51
180.0
  0
ARC
  5
5F8
100
AcDbEntity
  8
0
100
AcDbCircle
 62
7
  6
CONTINUOUS
 10
-13.0
 20
13.0
 40
25.3887984284
100
AcDbArc
 50
90.0
 51
180.0
  0
ARC
  5
5F9
100
AcDbEntity
  8
0
100
AcDbCircle
 62
7
  6
CONTINUOUS
 10
-13.0
 20
13.0
 40
24.5227730246
100
AcDbArc
 50
90.0
 51
180.0
  0
ARC
  5
5FA
100
AcDbEntity
  8
0
100
AcDbCircle
 62
7
  6
CONTINUOUS
 10
-13.0
 20
13.0
 40
23.7890641147
100
AcDbArc
 50
133.9436887368
 51
136.0563112632
  0
ARC
  5
5FB
100
AcDbEntity
  8
0
100
AcDbCircle
 62
253
  6
CONTINUOUS
 10
-13.0
 20
13.0
 40
22.9098624061
100
AcDbArc
 50
136.4630892115
 51
180.0
  0
ARC
  5
5FC
100
AcDbEntity
  8
0
100
AcDbCircle
 62
253
  6
CONTINUOUS
 10
-13.0
 20
13.0
 40
22.9098624061
100
AcDbArc
 50
90.0
 51
133.5369107885
  0
ARC
  5
5FD
100
AcDbEntity
  8
0
100
AcDbCircle
 62
253
  6
CONTINUOUS
 10
-13.0
 20
13.0
 40
22.0569942481
100
AcDbArc
 50
136.5270990292
 51
180.0
  0
ARC
  5
5FE
100
AcDbEntity
  8
0
100
AcDbCircle
 62
253
  6
CONTINUOUS
 10
-13.0
 20
13.0
 40
22.0569942481
100
AcDbArc
 50
90.0
 51
133.4729009708
  0
ARC
  5
5FF
100
AcDbEntity
  8
0
100
AcDbCircle
 62
253
  6
CONTINUOUS
 10
-13.0
 20
13.0
 40
21.3927806857
100
AcDbArc
 50
136.5589944632
 51
180.0
  0
ARC
  5
600
100
AcDbEntity
  8
0
100
AcDbCircle
 62
253
  6
CONTINUOUS
 10
-13.0
 20
13.0
 40
21.3927806857
100
AcDbArc
 50
90.0
 51
133.4410055368
  0
ARC
  5
601
100
AcDbEntity
  8
0
100
AcDbCircle
 62
253
  6
CONTINUOUS
 10
-13.0
 20
13.0
 40
20.332120514
100
AcDbArc
 50
90.0
 51
132.3494328607
  0
ARC
  5
602
100
AcDbEntity
  8
0
100
AcDbCircle
 62
253
  6
CONTINUOUS
 10
-13.0
 20
13.0
 40
20.332120514
100
AcDbArc
 50
137.6505671393
 51
180.0
  0
CIRCLE
  5
603
100
AcDbEntity
  8
0
100
AcDbCircle
 62
7
  6
CONTINUOUS
 10
-12.7279220614
 20
12.7279220614
 40
9.9088457268
  0
CIRCLE
  5
604
100
AcDbEntity
  8
0
100
AcDbCircle
 62
7
  6
CONTINUOUS
 10
-12.7279220614
 20
12.7279220614
 40
8.35
  0
CIRCLE
  5
605
100
AcDbEntity
  8
0
100
AcDbCircle
 62
7
  6
CONTINUOUS
 10
-12.7279220614
 20
12.7279220614
 40
8.05
  0
CIRCLE
  5
606
100
AcDbEntity
  8
0
100
AcDbCircle
 62
7
  6
CONTINUOUS
 10
-12.7279220614
 20
12.7279220614
 40
7.6169872981
  0
ARC
  5
607
100
AcDbEntity
  8
0
100
AcDbCircle
 62
7
  6
CONTINUOUS
 10
-6.2373507245
 20
29.344428022
 40
3.8610927272
100
AcDbArc
 50
49.8230579265
 51
328.5681653659
  0
ARC
  5
608
100
AcDbEntity
  8
0
100
AcDbCircle
 62
7
  6
CONTINUOUS
 10
-6.2373507245
 20
29.344428022
 40
3.0471308021
100
AcDbArc
 50
43.4617117686
 51
335.7015142709
  0
ARC
  5
609
100
AcDbEntity
  8
0
100
AcDbCircle
 62
7
  6
CONTINUOUS
 10
-6.2373507245
 20
29.344428022
 40
3.0
100
AcDbArc
 50
43.0058105257
 51
336.205840174
  0
ARC
  5
60A
100
AcDbEntity
  8
0
100
AcDbCircle
 62
7
  6
CONTINUOUS
 10
6.2373507245
 20
-29.344428022
 40
3.8610927272
100
AcDbArc
 50
229.8230579265
 51
148.5681653659
  0
ARC
  5
60B
100
AcDbEntity
  8
0
100
AcDbCircle
 62
7
  6
CONTINUOUS
 10
6.2373507245
 20
-29.344428022
 40
3.0471308021
100
AcDbArc
 50
223.4617117686
 51
155.7015142709
  0
ARC
  5
60C
100
AcDbEntity
  8
0
100
AcDbCircle
 62
7
  6
CONTINUOUS
 10
6.2373507245
 20
-29.344428022
 40
3.0
100
AcDbArc
 50
223.0058105257
 51
156.205840174
  0
ARC
  5
60D
100
AcDbEntity
  8
0
100
AcDbCircle
 62
7
  6
CONTINUOUS
 10
13.0
 20
-13.0
 40
27.0
100
AcDbArc
 50
270.0
 51
360.0
  0
ARC
  5
60E
100
AcDbEntity
  8
0
100
AcDbCircle
 62
7
  6
CONTINUOUS
 10
13.0
 20
-13.0
 40
26.0
100
AcDbArc
 50
270.0
 51
360.0
  0
ARC
  5
60F
100
AcDbEntity
  8
0
100
AcDbCircle
 62
7
  6
CONTINUOUS
 10
13.0
 20
-13.0
 40
25.9475922207
100
AcDbArc
 50
270.0
 51
360.0
  0
ARC
  5
610
100
AcDbEntity
  8
0
100
AcDbCircle
 62
7
  6
CONTINUOUS
 10
13.0
 20
-13.0
 40
25.3887984284
100
AcDbArc
 50
270.0
 51
360.0
  0
ARC
  5
611
100
AcDbEntity
  8
0
100
AcDbCircle
 62
7
  6
CONTINUOUS
 10
13.0
 20
-13.0
 40
24.5227730246
100
AcDbArc
 50
270.0
 51
360.0
  0
ARC
  5
612
100
AcDbEntity
  8
0
100
AcDbCircle
 62
7
  6
CONTINUOUS
 10
13.0
 20
-13.0
 40
23.7890641147
100
AcDbArc
 50
313.9436887368
 51
316.0563112632
  0
ARC
  5
613
100
AcDbEntity
  8
0
100
AcDbCircle
 62
253
  6
CONTINUOUS
 10
13.0
 20
-13.0
 40
22.9098624061
100
AcDbArc
 50
316.4630892115
 51
360.0
  0
ARC
  5
614
100
AcDbEntity
  8
0
100
AcDbCircle
 62
253
  6
CONTINUOUS
 10
13.0
 20
-13.0
 40
22.9098624061
100
AcDbArc
 50
270.0
 51
313.5369107885
  0
ARC
  5
615
100
AcDbEntity
  8
0
100
AcDbCircle
 62
253
  6
CONTINUOUS
 10
13.0
 20
-13.0
 40
22.0569942481
100
AcDbArc
 50
316.5270990292
 51
360.0
  0
ARC
  5
616
100
AcDbEntity
  8
0
100
AcDbCircle
 62
253
  6
CONTINUOUS
 10
13.0
 20
-13.0
 40
22.0569942481
100
AcDbArc
 50
270.0
 51
313.4729009708
  0
ARC
  5
617
100
AcDbEntity
  8
0
100
AcDbCircle
 62
253
  6
CONTINUOUS
 10
13.0
 20
-13.0
 40
21.3927806857
100
AcDbArc
 50
316.5589944632
 51
360.0
  0
ARC
  5
618
100
AcDbEntity
  8
0
100
AcDbCircle
 62
253
  6
CONTINUOUS
 10
13.0
 20
-13.0
 40
21.3927806857
100
AcDbArc
 50
270.0
 51
313.4410055368
  0
ARC
  5
619
100
AcDbEntity
  8
0
100
AcDbCircle
 62
253
  6
CONTINUOUS
 10
13.0
 20
-13.0
 40
20.332120514
100
AcDbArc
 50
317.6505671393
 51
360.0
  0
ARC
  5
61A
100
AcDbEntity
  8
0
100
AcDbCircle
 62
253
  6
CONTINUOUS
 10
13.0
 20
-13.0
 40
20.332120514
100
AcDbArc
 50
270.0
 51
312.3494328607
  0
CIRCLE
  5
61B
100
AcDbEntity
  8
0
100
AcDbCircle
 62
7
  6
CONTINUOUS
 10
12.7279220614
 20
-12.7279220614
 40
9.9088457268
  0
CIRCLE
  5
61C
100
AcDbEntity
  8
0
100
AcDbCircle
 62
7
  6
CONTINUOUS
 10
12.7279220614
 20
-12.7279220614
 40
8.35
  0
CIRCLE
  5
61D
100
AcDbEntity
  8
0
100
AcDbCircle
 62
7
  6
CONTINUOUS
 10
12.7279220614
 20
-12.7279220614
 40
8.05
  0
CIRCLE
  5
61E
100
AcDbEntity
  8
0
100
AcDbCircle
 62
7
  6
CONTINUOUS
 10
12.7279220614
 20
-12.7279220614
 40
7.6169872981
  0
ARC
  5
61F
100
AcDbEntity
  8
0
100
AcDbCircle
 62
7
  6
CONTINUOUS
 10
21.2132034356
 20
-21.2132034356
 40
6.0
100
AcDbArc
 50
324.382839635
 51
7.3301130357
  0
ARC
  5
620
100
AcDbEntity
  8
0
100
AcDbCircle
 62
7
  6
CONTINUOUS
 10
21.2132034356
 20
-21.2132034356
 40
6.0
100
AcDbArc
 50
262.6698869643
 51
305.617160365
  0
ARC
  5
621
100
AcDbEntity
  8
0
100
AcDbCircle
 62
7
  6
CONTINUOUS
 10
21.2132034356
 20
-21.2132034356
 40
5.7207189611
100
AcDbArc
 50
323.4288850597
 51
8.4602400553
  0
ARC
  5
622
100
AcDbEntity
  8
0
100
AcDbCircle
 62
7
  6
CONTINUOUS
 10
21.2132034356
 20
-21.2132034356
 40
5.7207189611
100
AcDbArc
 50
261.5397599447
 51
306.5711149403
  0
ARC
  5
623
100
AcDbEntity
  8
0
100
AcDbCircle
 62
7
  6
CONTINUOUS
 10
21.2132034356
 20
-21.2132034356
 40
4.2792810389
100
AcDbArc
 50
255.7396390555
 51
14.2603612484
  0
ARC
  5
624
100
AcDbEntity
  8
0
100
AcDbCircle
 62
7
  6
CONTINUOUS
 10
21.2132034356
 20
-21.2132034356
 40
4.0
100
AcDbArc
 50
253.9283925183
 51
16.0716075223
  0
ARC
  5
625
100
AcDbEntity
  8
0
100
AcDbCircle
 62
7
  6
CONTINUOUS
 10
29.344428022
 20
-6.2373507245
 40
2.5110927272
100
AcDbArc
 50
168.0000000008
 51
348.0000000006
  0
ARC
  5
626
100
AcDbEntity
  8
0
100
AcDbCircle
 62
7
  6
CONTINUOUS
 10
29.344428022
 20
-6.2373507245
 40
1.6971308021
100
AcDbArc
 50
167.9999999972
 51
348.0000000037
  0
ARC
  5
627
100
AcDbEntity
  8
0
100
AcDbCircle
 62
7
  6
CONTINUOUS
 10
29.344428022
 20
-6.2373507245
 40
1.65
100
AcDbArc
 50
168.0000000015
 51
348.0000000007
  0
ARC
  5
628
100
AcDbEntity
  8
0
100
AcDbCircle
 62
7
  6
CONTINUOUS
 10
0.0
 20
0.0
 40
35.3264855721
100
AcDbArc
 50
46.586710687
 51
64.9951677558
  0
ARC
  5
629
100
AcDbEntity
  8
0
100
AcDbCircle
 62
7
  6
CONTINUOUS
 10
0.0
 20
0.0
 40
35.3264855721
100
AcDbArc
 50
28.0050694171
 51
43.413289313
  0
ARC
  5
62A
100
AcDbEntity
  8
0
100
AcDbCircle
 62
7
  6
CONTINUOUS
 10
0.0
 20
0.0
 40
35.3264855721
100
AcDbArc
 50
226.586710687
 51
244.9951677559
  0
ARC
  5
62B
100
AcDbEntity
  8
0
100
AcDbCircle
 62
7
  6
CONTINUOUS
 10
0.0
 20
0.0
 40
35.3264855721
100
AcDbArc
 50
208.0050694169
 51
223.413289313
  0
ARC
  5
62C
100
AcDbEntity
  8
0
100
AcDbCircle
 62
7
  6
CONTINUOUS
 10
0.0
 20
0.0
 40
34.9334272275
100
AcDbArc
 50
223.5028206913
 51
226.4971793087
  0
ARC
  5
62D
100
AcDbEntity
  8
0
100
AcDbCircle
 62
7
  6
CONTINUOUS
 10
0.0
 20
0.0
 40
34.9334272275
100
AcDbArc
 50
43.5028206913
 51
46.4971793087
  0
ARC
  5
62E
100
AcDbEntity
  8
0
100
AcDbCircle
 62
253
  6
CONTINUOUS
 10
0.0
 20
0.0
 40
34.5872910397
100
AcDbArc
 50
209.2695374752
 51
243.7304625248
  0
ARC
  5
62F
100
AcDbEntity
  8
0
100
AcDbCircle
 62
253
  6
CONTINUOUS
 10
0.0
 20
0.0
 40
34.5872910397
100
AcDbArc
 50
29.2695374752
 51
63.7304625248
  0
ARC
  5
630
100
AcDbEntity
  8
0
100
AcDbCircle
 62
7
  6
CONTINUOUS
 10
0.0
 20
0.0
 40
34.0
100
AcDbArc
 50
115.509985223
 51
126.9704168536
  0
ARC
  5
631
100
AcDbEntity
  8
0
100
AcDbCircle
 62
7
  6
CONTINUOUS
 10
0.0
 20
0.0
 40
34.0
100
AcDbArc
 50
323.0295831464
 51
334.4900146828
  0
ARC
  5
632
100
AcDbEntity
  8
0
100
AcDbCircle
 62
7
  6
CONTINUOUS
 10
0.0
 20
0.0
 40
34.0
100
AcDbArc
 50
295.5099852993
 51
306.9704168536
  0
ARC
  5
633
100
AcDbEntity
  8
0
100
AcDbCircle
 62
7
  6
CONTINUOUS
 10
0.0
 20
0.0
 40
34.0
100
AcDbArc
 50
143.0295831464
 51
154.4900147593
  0
ARC
  5
634
100
AcDbEntity
  8
0
100
AcDbCircle
 62
7
  6
CONTINUOUS
 10
0.0
 20
0.0
 40
33.7207189611
100
AcDbArc
 50
142.8340441016
 51
154.0069170863
  0
ARC
  5
635
100
AcDbEntity
  8
0
100
AcDbCircle
 62
7
  6
CONTINUOUS
 10
0.0
 20
0.0
 40
33.7207189611
100
AcDbArc
 50
115.9930829042
 51
127.1659558984
  0
ARC
  5
636
100
AcDbEntity
  8
0
100
AcDbCircle
 62
7
  6
CONTINUOUS
 10
0.0
 20
0.0
 40
33.7207189611
100
AcDbArc
 50
322.8340441016
 51
334.0069170071
  0
ARC
  5
637
100
AcDbEntity
  8
0
100
AcDbCircle
 62
7
  6
CONTINUOUS
 10
0.0
 20
0.0
 40
33.7207189611
100
AcDbArc
 50
295.9930829835
 51
307.1659558984
  0
ARC
  5
638
100
AcDbEntity
  8
0
100
AcDbCircle
 62
253
  6
CONTINUOUS
 10
0.0
 20
0.0
 40
32.5900319702
100
AcDbArc
 50
209.4606894716
 51
243.5393105284
  0
ARC
  5
639
100
AcDbEntity
  8
0
100
AcDbCircle
 62
253
  6
CONTINUOUS
 10
0.0
 20
0.0
 40
32.5900319702
100
AcDbArc
 50
29.4606894716
 51
63.5393105284
  0
ARC
  5
63A
100
AcDbEntity
  8
0
100
AcDbCircle
 62
7
  6
CONTINUOUS
 10
-0.0
 20
-0.0
 40
32.5110927272
100
AcDbArc
 50
78.0
 51
96.6170909493
  0
ARC
  5
63B
100
AcDbEntity
  8
0
100
AcDbCircle
 62
7
  6
CONTINUOUS
 10
0.0
 20
-0.0
 40
32.5110927272
100
AcDbArc
 50
168.0
 51
186.6170909493
  0
ARC
  5
63C
100
AcDbEntity
  8
0
100
AcDbCircle
 62
7
  6
CONTINUOUS
 10
-0.0
 20
0.0
 40
32.5110927272
100
AcDbArc
 50
348.0
 51
6.6170909493
  0
ARC
  5
63D
100
AcDbEntity
  8
0
100
AcDbCircle
 62
7
  6
CONTINUOUS
 10
0.0
 20
0.0
 40
32.5110927272
100
AcDbArc
 50
258.0
 51
276.6170909493
  0
ARC
  5
63E
100
AcDbEntity
  8
0
100
AcDbCircle
 62
7
  6
CONTINUOUS
 10
0.0
 20
0.0
 40
32.2792810389
100
AcDbArc
 50
125.3263027541
 51
128.0612360722
  0
ARC
  5
63F
100
AcDbEntity
  8
0
100
AcDbCircle
 62
7
  6
CONTINUOUS
 10
0.0
 20
0.0
 40
32.2792810389
100
AcDbArc
 50
141.9387639276
 51
153.9812609115
  0
ARC
  5
640
100
AcDbEntity
  8
0
100
AcDbCircle
 62
7
  6
CONTINUOUS
 10
0.0
 20
0.0
 40
32.2792810389
100
AcDbArc
 50
116.0187386583
 51
124.673697246
  0
ARC
  5
641
100
AcDbEntity
  8
0
100
AcDbCircle
 62
7
  6
CONTINUOUS
 10
0.0
 20
0.0
 40
32.2792810389
100
AcDbArc
 50
305.3263027541
 51
308.0612360722
  0
ARC
  5
642
100
AcDbEntity
  8
0
100
AcDbCircle
 62
7
  6
CONTINUOUS
 10
0.0
 20
0.0
 40
32.2792810389
100
AcDbArc
 50
321.9387639276
 51
333.981261017
  0
ARC
  5
643
100
AcDbEntity
  8
0
100
AcDbCircle
 62
7
  6
CONTINUOUS
 10
0.0
 20
0.0
 40
32.2792810389
100
AcDbArc
 50
296.0187385589
 51
304.673697246
  0
ARC
  5
644
100
AcDbEntity
  8
0
100
AcDbCircle
 62
7
  6
CONTINUOUS
 10
0.0
 20
0.0
 40
32.130912987
100
AcDbArc
 50
150.2024844028
 51
152.3361464168
  0
ARC
  5
645
100
AcDbEntity
  8
0
100
AcDbCircle
 62
7
  6
CONTINUOUS
 10
0.0
 20
0.0
 40
32.130912987
100
AcDbArc
 50
330.2024844028
 51
332.3361464168
  0
ARC
  5
646
100
AcDbEntity
  8
0
100
AcDbCircle
 62
7
  6
CONTINUOUS
 10
0.0
 20
0.0
 40
32.0
100
AcDbArc
 50
115.5320937351
 51
123.9256411772
  0
ARC
  5
647
100
AcDbEntity
  8
0
100
AcDbCircle
 62
7
  6
CONTINUOUS
 10
0.0
 20
0.0
 40
32.0
100
AcDbArc
 50
333.2099568643
 51
334.4679071682
  0
ARC
  5
648
100
AcDbEntity
  8
0
100
AcDbCircle
 62
7
  6
CONTINUOUS
 10
0.0
 20
0.0
 40
32.0
100
AcDbArc
 50
321.6910121557
 51
329.4775121859
  0
ARC
  5
649
100
AcDbEntity
  8
0
100
AcDbCircle
 62
7
  6
CONTINUOUS
 10
0.0
 20
0.0
 40
32.0
100
AcDbArc
 50
306.0743588229
 51
308.3089878443
  0
ARC
  5
64A
100
AcDbEntity
  8
0
100
AcDbCircle
 62
7
  6
CONTINUOUS
 10
0.0
 20
0.0
 40
32.0
100
AcDbArc
 50
295.5320936327
 51
303.9256411772
  0
ARC
  5
64B
100
AcDbEntity
  8
0
100
AcDbCircle
 62
7
  6
CONTINUOUS
 10
0.0
 20
0.0
 40
32.0
100
AcDbArc
 50
153.2099568643
 51
154.4679070768
  0
ARC
  5
64C
100
AcDbEntity
  8
0
100
AcDbCircle
 62
7
  6
CONTINUOUS
 10
0.0
 20
0.0
 40
32.0
100
AcDbArc
 50
141.6910121557
 51
149.4775121859
  0
ARC
  5
64D
100
AcDbEntity
  8
0
100
AcDbCircle
 62
7
  6
CONTINUOUS
 10
0.0
 20
0.0
 40
32.0
100
AcDbArc
 50
126.0743588229
 51
128.3089878443
  0
ARC
  5
64E
100
AcDbEntity
  8
0
100
AcDbCircle
 62
7
  6
CONTINUOUS
 10
-0.0
 20
0.0
 40
31.6971308021
100
AcDbArc
 50
348.0000000002
 51
7.2964562997
  0
ARC
  5
64F
100
AcDbEntity
  8
0
100
AcDbCircle
 62
7
  6
CONTINUOUS
 10
0.0
 20
-0.0
 40
31.6971308021
100
AcDbArc
 50
168.0000000002
 51
187.2964562997
  0
ARC
  5
650
100
AcDbEntity
  8
0
100
AcDbCircle
 62
7
  6
CONTINUOUS
 10
-0.0
 20
-0.0
 40
31.6971308021
100
AcDbArc
 50
78.0000000002
 51
97.2964562997
  0
ARC
  5
651
100
AcDbEntity
  8
0
100
AcDbCircle
 62
7
  6
CONTINUOUS
 10
0.0
 20
0.0
 40
31.6971308021
100
AcDbArc
 50
258.0000000002
 51
277.2964562997
  0
ARC
  5
652
100
AcDbEntity
  8
0
100
AcDbCircle
 62
7
  6
CONTINUOUS
 10
0.0
 20
0.0
 40
31.65
100
AcDbArc
 50
258.0
 51
277.3399753074
  0
ARC
  5
653
100
AcDbEntity
  8
0
100
AcDbCircle
 62
7
  6
CONTINUOUS
 10
0.0
 20
0.0
 40
31.65
100
AcDbArc
 50
348.0
 51
7.3399753074
  0
ARC
  5
654
100
AcDbEntity
  8
0
100
AcDbCircle
 62
7
  6
CONTINUOUS
 10
0.0
 20
0.0
 40
31.65
100
AcDbArc
 50
168.0
 51
187.3399753074
  0
ARC
  5
655
100
AcDbEntity
  8
0
100
AcDbCircle
 62
7
  6
CONTINUOUS
 10
0.0
 20
0.0
 40
31.65
100
AcDbArc
 50
78.0
 51
97.3399753074
  0
ARC
  5
656
100
AcDbEntity
  8
0
100
AcDbCircle
 62
253
  6
CONTINUOUS
 10
0.0
 20
0.0
 40
31.5551524713
100
AcDbArc
 50
209.4757985374
 51
243.5242014626
  0
ARC
  5
657
100
AcDbEntity
  8
0
100
AcDbCircle
 62
253
  6
CONTINUOUS
 10
0.0
 20
0.0
 40
31.5551524713
100
AcDbArc
 50
29.4757985374
 51
63.5242014626
  0
ARC
  5
658
100
AcDbEntity
  8
0
100
AcDbCircle
 62
253
  6
CONTINUOUS
 10
0.0
 20
0.0
 40
29.5578934018
100
AcDbArc
 50
209.3154008194
 51
243.6845991806
  0
ARC
  5
659
100
AcDbEntity
  8
0
100
AcDbCircle
 62
253
  6
CONTINUOUS
 10
0.0
 20
0.0
 40
29.5578934018
100
AcDbArc
 50
29.3154008194
 51
63.6845991806
  0
ARC
  5
65A
100
AcDbEntity
  8
0
100
AcDbCircle
 62
7
  6
CONTINUOUS
 10
0.0
 20
0.0
 40
29.5
100
AcDbArc
 50
29.2035763312
 51
63.7964236688
  0
ARC
  5
65B
100
AcDbEntity
  8
0
100
AcDbCircle
 62
7
  6
CONTINUOUS
 10
0.0
 20
0.0
 40
29.5
100
AcDbArc
 50
209.2035763312
 51
243.7964236688
  0
ARC
  5
65C
100
AcDbEntity
  8
0
100
AcDbCircle
 62
7
  6
CONTINUOUS
 10
0.0
 20
0.0
 40
29.0
100
AcDbArc
 50
209.2070862831
 51
211.9019169689
  0
ARC
  5
65D
100
AcDbEntity
  8
0
100
AcDbCircle
 62
7
  6
CONTINUOUS
 10
0.0
 20
0.0
 40
29.0
100
AcDbArc
 50
218.0980830311
 51
239.8875581706
  0
ARC
  5
65E
100
AcDbEntity
  8
0
100
AcDbCircle
 62
7
  6
CONTINUOUS
 10
0.0
 20
0.0
 40
29.0
100
AcDbArc
 50
29.2070862831
 51
31.9019169689
  0
ARC
  5
65F
100
AcDbEntity
  8
0
100
AcDbCircle
 62
7
  6
CONTINUOUS
 10
0.0
 20
0.0
 40
29.0
100
AcDbArc
 50
38.0980830311
 51
59.8875581749
  0
ARC
  5
660
100
AcDbEntity
  8
0
100
AcDbCircle
 62
7
  6
CONTINUOUS
 10
0.0
 20
0.0
 40
28.35
100
AcDbArc
 50
257.9999999999
 51
277.0760630032
  0
ARC
  5
661
100
AcDbEntity
  8
0
100
AcDbCircle
 62
7
  6
CONTINUOUS
 10
0.0
 20
0.0
 40
28.35
100
AcDbArc
 50
347.9999999999
 51
7.0760630032
  0
ARC
  5
662
100
AcDbEntity
  8
0
100
AcDbCircle
 62
7
  6
CONTINUOUS
 10
0.0
 20
0.0
 40
28.35
100
AcDbArc
 50
167.9999999999
 51
187.0760630032
  0
ARC
  5
663
100
AcDbEntity
  8
0
100
AcDbCircle
 62
7
  6
CONTINUOUS
 10
0.0
 20
0.0
 40
28.35
100
AcDbArc
 50
77.9999999999
 51
97.0760630032
  0
ARC
  5
664
100
AcDbEntity
  8
0
100
AcDbCircle
 62
7
  6
CONTINUOUS
 10
-0.0
 20
-0.0
 40
28.3028691979
100
AcDbArc
 50
348.0000000002
 51
7.0222330129
  0
ARC
  5
665
100
AcDbEntity
  8
0
100
AcDbCircle
 62
7
  6
CONTINUOUS
 10
-0.0
 20
0.0
 40
28.3028691979
100
AcDbArc
 50
168.0000000002
 51
187.0222330129
  0
ARC
  5
666
100
AcDbEntity
  8
0
100
AcDbCircle
 62
7
  6
CONTINUOUS
 10
-0.0
 20
-0.0
 40
28.3028691979
100
AcDbArc
 50
258.0000000002
 51
277.0222330129
  0
ARC
  5
667
100
AcDbEntity
  8
0
100
AcDbCircle
 62
7
  6
CONTINUOUS
 10
0.0
 20
0.0
 40
28.3028691979
100
AcDbArc
 50
78.0000000002
 51
97.0222330129
  0
ARC
  5
668
100
AcDbEntity
  8
0
100
AcDbCircle
 62
7
  6
CONTINUOUS
 10
0.0
 20
0.0
 40
27.4889072728
100
AcDbArc
 50
78.0
 51
96.145587786
  0
ARC
  5
669
100
AcDbEntity
  8
0
100
AcDbCircle
 62
7
  6
CONTINUOUS
 10
-0.0
 20
0.0
 40
27.4889072728
100
AcDbArc
 50
167.9999999999
 51
186.145587786
  0
ARC
  5
66A
100
AcDbEntity
  8
0
100
AcDbCircle
 62
7
  6
CONTINUOUS
 10
-0.0
 20
-0.0
 40
27.4889072728
100
AcDbArc
 50
347.9999999999
 51
6.145587786
  0
ARC
  5
66B
100
AcDbEntity
  8
0
100
AcDbCircle
 62
7
  6
CONTINUOUS
 10
-0.0
 20
-0.0
 40
27.4889072728
100
AcDbArc
 50
258.0
 51
276.145587786
  0
ARC
  5
66C
100
AcDbEntity
  8
0
100
AcDbCircle
 62
7
  6
CONTINUOUS
 10
0.0
 20
0.0
 40
25.3165727725
100
AcDbArc
 50
208.5848688513
 51
244.4151311487
  0
ARC
  5
66D
100
AcDbEntity
  8
0
100
AcDbCircle
 62
7
  6
CONTINUOUS
 10
0.0
 20
0.0
 40
25.3165727725
100
AcDbArc
 50
28.5848688513
 51
64.4151311487
  0
ARC
  5
66E
100
AcDbEntity
  8
0
100
AcDbCircle
 62
253
  6
CONTINUOUS
 10
0.0
 20
0.0
 40
23.6012621425
100
AcDbArc
 50
208.5446270222
 51
244.4553729313
  0
ARC
  5
66F
100
AcDbEntity
  8
0
100
AcDbCircle
 62
253
  6
CONTINUOUS
 10
0.0
 20
0.0
 40
23.6012621425
100
AcDbArc
 50
28.5446270222
 51
64.4553729313
  0
ARC
  5
670
100
AcDbEntity
  8
0
100
AcDbCircle
 62
253
  6
CONTINUOUS
 10
0.0
 20
0.0
 40
23.3016732821
100
AcDbArc
 50
28.5446401902
 51
64.4553601783
  0
ARC
  5
671
100
AcDbEntity
  8
0
100
AcDbCircle
 62
253
  6
CONTINUOUS
 10
0.0
 20
0.0
 40
23.3016732821
100
AcDbArc
 50
208.5446401902
 51
244.4553601784
  0
ARC
  5
672
100
AcDbEntity
  8
0
100
AcDbCircle
 62
7
  6
CONTINUOUS
 10
0.0
 20
0.0
 40
22.9235144279
100
AcDbArc
 50
27.668170376
 51
65.3318296243
  0
ARC
  5
673
100
AcDbEntity
  8
0
100
AcDbCircle
 62
7
  6
CONTINUOUS
 10
0.0
 20
0.0
 40
22.9235144279
100
AcDbArc
 50
207.6681703759
 51
245.3318296241
  0
CIRCLE
  5
674
100
AcDbEntity
  8
0
100
AcDbCircle
 62
7
  6
CONTINUOUS
 10
0.0
 20
0.0
 40
3.9258776104
  0
ARC
  5
675
100
AcDbEntity
  8
0
100
AcDbCircle
 62
7
  6
CONTINUOUS
 10
2.66
 20
14.1
 40
0.38
100
AcDbArc
 50
329.1500000033
 51
90.0
  0
ARC
  5
676
100
AcDbEntity
  8
0
100
AcDbCircle
 62
7
  6
CONTINUOUS
 10
1.34
 20
14.1
 40
0.38
100
AcDbArc
 50
90.0
 51
210.8499999995
  0
ARC
  5
677
100
AcDbEntity
  8
0
100
AcDbCircle
 62
7
  6
CONTINUOUS
 10
2.0
 20
12.761020334
 40
0.26
100
AcDbArc
 50
210.8500000048
 51
329.149999997
  0
ARC
  5
678
100
AcDbEntity
  8
0
100
AcDbCircle
 62
7
  6
CONTINUOUS
 10
2.34
 20
14.245
 40
0.235
100
AcDbArc
 50
90.0
 51
270.0
  0
ARC
  5
679
100
AcDbEntity
  8
0
100
AcDbCircle
 62
7
  6
CONTINUOUS
 10
1.66
 20
14.245
 40
0.235
100
AcDbArc
 50
270.0
 51
90.0
  0
ARC
  5
67A
100
AcDbEntity
  8
0
100
AcDbCircle
 62
7
  6
CONTINUOUS
 10
13.0
 20
13.0
 40
27.0
100
AcDbArc
 50
0.0
 51
90.0
  0
ARC
  5
67B
100
AcDbEntity
  8
0
100
AcDbCircle
 62
7
  6
CONTINUOUS
 10
13.0
 20
13.0
 40
26.0
100
AcDbArc
 50
0.0
 51
90.0
  0
ARC
  5
67C
100
AcDbEntity
  8
0
100
AcDbCircle
 62
7
  6
CONTINUOUS
 10
13.0
 20
13.0
 40
25.9475922207
100
AcDbArc
 50
0.0
 51
90.0
  0
ARC
  5
67D
100
AcDbEntity
  8
0
100
AcDbCircle
 62
7
  6
CONTINUOUS
 10
13.0
 20
13.0
 40
25.3887984284
100
AcDbArc
 50
0.0
 51
90.0
  0
ARC
  5
67E
100
AcDbEntity
  8
0
100
AcDbCircle
 62
7
  6
CONTINUOUS
 10
13.0
 20
13.0
 40
24.5227730246
100
AcDbArc
 50
0.0
 51
90.0
  0
ARC
  5
67F
100
AcDbEntity
  8
0
100
AcDbCircle
 62
7
  6
CONTINUOUS
 10
13.0
 20
13.0
 40
23.3435979908
100
AcDbArc
 50
43.7414235182
 51
46.2585764818
  0
ARC
  5
680
100
AcDbEntity
  8
0
100
AcDbCircle
 62
253
  6
CONTINUOUS
 10
13.0
 20
13.0
 40
22.9098624061
100
AcDbArc
 50
0.0
 51
43.5369107885
  0
ARC
  5
681
100
AcDbEntity
  8
0
100
AcDbCircle
 62
253
  6
CONTINUOUS
 10
13.0
 20
13.0
 40
22.9098624061
100
AcDbArc
 50
46.4630892115
 51
90.0
  0
ARC
  5
682
100
AcDbEntity
  8
0
100
AcDbCircle
 62
253
  6
CONTINUOUS
 10
13.0
 20
13.0
 40
22.0569942481
100
AcDbArc
 50
0.0
 51
43.4729009708
  0
ARC
  5
683
100
AcDbEntity
  8
0
100
AcDbCircle
 62
253
  6
CONTINUOUS
 10
13.0
 20
13.0
 40
22.0569942481
100
AcDbArc
 50
46.5270990292
 51
90.0
  0
ARC
  5
684
100
AcDbEntity
  8
0
100
AcDbCircle
 62
253
  6
CONTINUOUS
 10
13.0
 20
13.0
 40
21.3927806857
100
AcDbArc
 50
0.0
 51
43.4410055368
  0
ARC
  5
685
100
AcDbEntity
  8
0
100
AcDbCircle
 62
253
  6
CONTINUOUS
 10
13.0
 20
13.0
 40
21.3927806857
100
AcDbArc
 50
46.5589944632
 51
90.0
  0
ARC
  5
686
100
AcDbEntity
  8
0
100
AcDbCircle
 62
253
  6
CONTINUOUS
 10
13.0
 20
13.0
 40
20.332120514
100
AcDbArc
 50
47.7575771456
 51
90.0
  0
ARC
  5
687
100
AcDbEntity
  8
0
100
AcDbCircle
 62
253
  6
CONTINUOUS
 10
13.0
 20
13.0
 40
20.332120514
100
AcDbArc
 50
0.0
 51
42.2424228544
  0
ARC
  5
688
100
AcDbEntity
  8
0
100
AcDbCircle
 62
7
  6
CONTINUOUS
 10
6.2373507245
 20
29.344428022
 40
2.5110927272
100
AcDbArc
 50
258.0
 51
78.0000000006
  0
ARC
  5
689
100
AcDbEntity
  8
0
100
AcDbCircle
 62
253
  6
CONTINUOUS
 10
10.9094059898
 20
22.8270892441
 40
1.698752186
100
AcDbArc
 50
211.4942046422
 51
244.4672396335
  0
ARC
  5
68A
100
AcDbEntity
  8
0
100
AcDbCircle
 62
253
  6
CONTINUOUS
 10
14.2630869576
 20
29.7032753281
 40
1.6984536895
100
AcDbArc
 50
64.3303752381
 51
96.5100840044
  0
ARC
  5
68B
100
AcDbEntity
  8
0
100
AcDbCircle
 62
7
  6
CONTINUOUS
 10
6.2373507245
 20
29.344428022
 40
1.6971308021
100
AcDbArc
 50
257.9999999972
 51
78.0000000037
  0
ARC
  5
68C
100
AcDbEntity
  8
0
100
AcDbCircle
 62
7
  6
CONTINUOUS
 10
6.2373507245
 20
29.344428022
 40
1.65
100
AcDbArc
 50
258.0000000015
 51
78.0000000007
  0
ARC
  5
68D
100
AcDbEntity
  8
0
100
AcDbCircle
 62
7
  6
CONTINUOUS
 10
2.0
 20
16.46
 40
1.04
100
AcDbArc
 50
294.4299396437
 51
245.5700603562
  0
ARC
  5
68E
100
AcDbEntity
  8
0
100
AcDbCircle
 62
7
  6
CONTINUOUS
 10
2.0
 20
16.46
 40
0.58
100
AcDbArc
 50
294.4299301163
 51
245.5700489636
  0
ARC
  5
68F
100
AcDbEntity
  8
0
100
AcDbCircle
 62
7
  6
CONTINUOUS
 10
2.78
 20
15.0
 40
0.26
100
AcDbArc
 50
270.0
 51
90.0
  0
ARC
  5
690
100
AcDbEntity
  8
0
100
AcDbCircle
 62
7
  6
CONTINUOUS
 10
1.22
 20
15.0
 40
0.26
100
AcDbArc
 50
90.0
 51
270.0
  0
ARC
  5
691
100
AcDbEntity
  8
0
100
AcDbCircle
 62
7
  6
CONTINUOUS
 10
2.335
 20
15.7225211867
 40
0.23
100
AcDbArc
 50
114.4299636676
 51
294.4299396455
  0
ARC
  5
692
100
AcDbEntity
  8
0
100
AcDbCircle
 62
7
  6
CONTINUOUS
 10
1.665
 20
15.7225211867
 40
0.23
100
AcDbArc
 50
245.5700603542
 51
65.5700890875
  0
ARC
  5
693
100
AcDbEntity
  8
0
100
AcDbCircle
 62
7
  6
CONTINUOUS
 10
29.344428022
 20
6.2373507245
 40
3.8610927272
100
AcDbArc
 50
319.8230579265
 51
238.5681653658
  0
ARC
  5
694
100
AcDbEntity
  8
0
100
AcDbCircle
 62
7
  6
CONTINUOUS
 10
29.344428022
 20
6.2373507245
 40
3.0471308021
100
AcDbArc
 50
313.4617117686
 51
245.7015142709
  0
ARC
  5
695
100
AcDbEntity
  8
0
100
AcDbCircle
 62
7
  6
CONTINUOUS
 10
29.344428022
 20
6.2373507245
 40
3.0
100
AcDbArc
 50
313.0058105257
 51
246.205840174
  0
ARC
  5
696
100
AcDbEntity
  8
0
100
AcDbCircle
 62
253
  6
CONTINUOUS
 10
22.2233327965
 20
12.0875693953
 40
1.6966263804
100
AcDbArc
 50
208.5108784789
 51
299.0504097793
  0
ARC
  5
697
100
AcDbEntity
  8
0
100
AcDbCircle
 62
7
  6
CONTINUOUS
 10
24.7383917375
 20
17.3220083778
 40
2.0
100
AcDbArc
 50
163.4032368469
 51
266.596763153
  0
ARC
  5
698
100
AcDbEntity
  8
0
100
AcDbCircle
 62
253
  6
CONTINUOUS
 10
28.9179482838
 20
15.798446901
 40
1.6966115061
100
AcDbArc
 50
298.950448991
 51
28.6998979033
  0
ELLIPSE
  5
699
100
AcDbEntity
  8
0
100
AcDbEllipse
 62
7
  6
CONTINUOUS
 10
-17.8506545991
 20
26.0163311506
 30
0.0
 11
0.2955323274
 21
-0.052110323
 31
0.0
 40
0.9996954599
 41
-0.7852541422
 42
0.7852541422
  0
ELLIPSE
  5
69A
100
AcDbEntity
  8
0
100
AcDbEllipse
 62
7
  6
CONTINUOUS
 10
24.7487373415
 20
-11.0309304138
 30
0.0
 11
-0.0
 21
0.3000913899
 31
0.0
 40
0.9996954599
 41
-0.7852561932
 42
0.7852561932
  0
ELLIPSE
  5
69B
100
AcDbEntity
  8
0
100
AcDbEllipse
 62
7
  6
CONTINUOUS
 10
23.7588524752
 20
-12.0208152802
 30
0.0
 11
-0.3000913899
 21
-0.0
 31
0.0
 40
0.9996954599
 41
-0.7852561932
 42
0.7852561932
  0
ELLIPSE
  5
69C
100
AcDbEntity
  8
0
100
AcDbEllipse
 62
7
  6
CONTINUOUS
 10
18.3420709577
 20
-25.6722377119
 30
0.0
 11
0.052110323
 21
0.2955323274
 31
0.0
 40
0.9996954599
 41
-0.7852561932
 42
0.785256193
  0
ELLIPSE
  5
69D
100
AcDbEntity
  8
0
100
AcDbEllipse
 62
7
  6
CONTINUOUS
 10
17.8506545991
 20
-26.0163311506
 30
0.0
 11
-0.2955323274
 21
0.052110323
 31
0.0
 40
0.9996954599
 41
-0.7852561932
 42
0.7852561931
  0
ELLIPSE
  5
69E
100
AcDbEntity
  8
0
100
AcDbEllipse
 62
7
  6
CONTINUOUS
 10
-18.6824168727
 20
26.6452136843
 30
0.0
 11
-0.1642236026
 21
0.2665022884
 31
0.0
 40
0.9583497527
 41
-3.6553778322
 42
-3.0854226067
  0
ELLIPSE
  5
69F
100
AcDbEntity
  8
0
100
AcDbEllipse
 62
7
  6
CONTINUOUS
 10
-18.6485477819
 20
26.668929077
 30
0.0
 11
-0.1942624537
 21
0.2454688584
 31
0.0
 40
0.9583497527
 41
-3.1977627007
 42
-2.627807475
  0
ELLIPSE
  5
6A0
100
AcDbEntity
  8
0
100
AcDbEllipse
 62
7
  6
CONTINUOUS
 10
18.6824168727
 20
-26.6452136843
 30
0.0
 11
-0.1642236026
 21
0.2665022884
 31
0.0
 40
0.9583497527
 41
-0.5137851786
 42
0.0561700469
  0
ELLIPSE
  5
6A1
100
AcDbEntity
  8
0
100
AcDbEllipse
 62
7
  6
CONTINUOUS
 10
18.6485477819
 20
-26.668929077
 30
0.0
 11
-0.1942624537
 21
0.2454688584
 31
0.0
 40
0.9583497527
 41
-0.0561700471
 42
0.5137851785
  0
ELLIPSE
  5
6A2
100
AcDbEntity
  8
0
100
AcDbEllipse
 62
7
  6
CONTINUOUS
 10
-24.7487373415
 20
11.0309304138
 30
0.0
 11
0.0
 21
-0.3000913899
 31
0.0
 40
0.9996954599
 41
-0.7852541422
 42
0.7852541422
  0
ELLIPSE
  5
6A3
100
AcDbEntity
  8
0
100
AcDbEllipse
 62
7
  6
CONTINUOUS
 10
-23.7588524752
 20
12.0208152802
 30
0.0
 11
0.3000913899
 21
0.0
 31
0.0
 40
0.9996954599
 41
-0.7852541422
 42
0.7852541422
  0
ELLIPSE
  5
6A4
100
AcDbEntity
  8
0
100
AcDbEllipse
 62
7
  6
CONTINUOUS
 10
-18.3420709577
 20
25.6722377119
 30
0.0
 11
-0.052110323
 21
-0.2955323274
 31
0.0
 40
0.9996954599
 41
-0.7852541423
 42
0.7852541421
  0
ENDSEC
  0
SECTION
  2
OBJECTS
  0
DICTIONARY
  5
C
100
AcDbDictionary
280
0
281
1
  3
ACAD_GROUP
350
D
  3
ACAD_MLINESTYLE
350
17
  3
ACAD_LAYOUT
350
1A
  3
ACAD_PLOTSETTINGS
350
19
  3
ACAD_PLOTSTYLENAME
350
E
  0
DICTIONARY
  5
D
102
{ACAD_REACTORS
330
C
102
}
100
AcDbDictionary
280
0
281
1
  0
ACDBDICTIONARYWDFLT
  5
E
102
{ACAD_REACTORS
330
C
102
}
100
AcDbDictionary
281
1
  3
Normal
350
F
100
AcDbDictionaryWithDefault
340
F
  0
DICTIONARY
  5
17
102
{ACAD_REACTORS
330
C
102
}
100
AcDbDictionary
280
0
281
1
  3
Standard
350
18
  0
DICTIONARY
  5
19
102
{ACAD_REACTORS
330
C
102
}
100
AcDbDictionary
281
1
  0
DICTIONARY
  5
1A
102
{ACAD_REACTORS
330
C
102
}
100
AcDbDictionary
281
1
  3
Model
350
6A5
  3
Layout1
350
6A6
  0
ACDBPLACEHOLDER
  5
F
102
{ACAD_REACTORS
330
E
102
}
  0
MLINESTYLE
  5
18
102
{ACAD_REACTORS
330
17
102
}
100
AcDbMlineStyle
  2
STANDARD
 70
0
  3

 62
256
 51
90.0
 52
90.0
 71
2
 49
0.5
 62
256
  6
BYLAYER
 49
-0.5
 62
256
  6
BYLAYER
  0
LAYOUT
  5
6A5
102
{ACAD_REACTORS
330
1A
102
}
100
AcDbPlotSettings
  1

  2
none_device
  4
ISO_A4_(297.00_x_210.00_MM)
  6

 40
0.0
 41
0.0
 42
0.0
 43
0.0
 44
297.0
 45
210.0
 46
0.0
 47
0.0
 48
0.0
 49
0.0
140
0.0
141
0.0
142
1.0
143
1.0
 70
1024
 72
1
 73
0
 74
0
  7

 75
0
147
1.0
148
0.0
149
0.0
100
AcDbLayout
  1
Model
 70
0
 71
0
 10
0.0
 20
0.0
 11
297.0
 21
210.0
 12
0.0
 22
0.0
 32
0.0
 14
0.0
 24
0.0
 34
0.0
 15
0.0
 25
0.0
 35
0.0
146
0.0
 13
0.0
 23
0.0
 33
0.0
 16
1.0
 26
0.0
 36
0.0
 17
0.0
 27
1.0
 37
0.0
 76
0
330
20B
345
0
346
0
  0
LAYOUT
  5
6A6
102
{ACAD_REACTORS
330
1A
102
}
100
AcDbPlotSettings
  1

  2
none_device
  4
ISO_A4_(297.00_x_210.00_MM)
  6

 40
0.0
 41
0.0
 42
0.0
 43
0.0
 44
297.0
 45
210.0
 46
0.0
 47
0.0
 48
0.0
 49
0.0
140
0.0
141
0.0
142
1.0
143
1.0
 70
0
 72
1
 73
0
 74
0
  7

 75
0
147
1.0
148
0.0
149
0.0
100
AcDbLayout
  1
Layout1
 70
0
 71
1
 10
0.0
 20
0.0
 11
297.0
 21
210.0
 12
0.0
 22
0.0
 32
0.0
 14
0.0
 24
0.0
 34
0.0
 15
0.0
 25
0.0
 35
0.0
146
0.0
 13
0.0
 23
0.0
 33
0.0
 16
1.0
 26
0.0
 36
0.0
 17
0.0
 27
1.0
 37
0.0
 76
0
330
20C
345
0
346
0
  0
ENDSEC
  0
EOF
