  0
SECTION
  2
HEADER
  9
$ACADVER
  1
AC1021
  9
$DWGCODEPAGE
  3
ANSI_1252
  9
$EXTMAX
 10
297.0
 20
210.0
 30
0.0
  9
$EXTMIN
 10
0.0
 20
0.0
 30
0.0
  9
$LIMMIN
 10
0.0
 20
0.0
  9
$LIMMAX
 10
297.0
 20
210.0
  9
$VIEWCTR
 10
148.5
 20
105.0
  9
$VIEWSIZE
 40
210.0
  9
$CLAYER
  8
0
  9
$LTSCALE
 40
16.335
  9
$CELTYPE
  6
BYLAYER
  9
$DIMSCALE
 40
1.0
  9
$DIMASZ
 40
3.0
  9
$DIMEXO
 40
0.5
  9
$DIMDLI
 40
11.286
  9
$DIMEXE
 40
1.5
  9
$DIMCEN
 40
2.673
  9
$DIMLFAC
 40
1.0
  9
$DIMBLK
  1
_FILLED
  9
$DIMALT
 70
0
  9
$DIMALTF
 40
0.0393700787
  9
$DIMTXT
 40
3.0
  9
$DIMTOL
 70
1
  9
$DIMLIM
 70
0
  9
$DIMTFAC
 40
1.0
  9
$DIMTP
 40
0.01
  9
$DIMTM
 40
0.01
  9
$DIMGAP
 40
0.625
  9
$DIMDSEP
 70
44
  9
$AUNITS
 70
0
  9
$PDMODE
 70
3
  9
$PDSIZE
 40
3.0
  9
$HANDSEED
  5
663
  9
$TILEMODE
 70
1
  9
$MEASUREMENT
 70
1
  9
$INSUNITS
 70
4
  0
ENDSEC
  0
SECTION
  2
CLASSES
  0
CLASS
  1
ACDBDICTIONARYWDFLT
  2
AcDbDictionaryWithDefault
  3
AutoCAD 2000
 90
0
 91
1
280
0
281
0
  0
CLASS
  1
ACDBPLACEHOLDER
  2
AcDbPlaceHolder
  3
AutoCAD 2000
 90
0
 91
1
280
0
281
0
  0
CLASS
  1
LAYOUT
  2
AcDbLayout
  3
AutoCAD 2000
 90
0
 91
0
280
0
281
0
  0
ENDSEC
  0
SECTION
  2
TABLES
  0
TABLE
  2
VPORT
  5
8
100
AcDbSymbolTable
 70
2
  0
VPORT
  5
1F4
100
AcDbSymbolTableRecord
100
AcDbViewportTableRecord
  2
*ACTIVE
 70
0
 10
0.0
 20
0.0
 11
1.0
 21
1.0
 12
148.5
 22
105.0
 13
0.0
 23
0.0
 14
1.0
 24
1.0
 15
0.0
 25
0.0
 16
0.0
 26
0.0
 36
1.0
 17
0.0
 27
0.0
 37
0.0
 40
210.0
 41
1.4142857143
 42
50.0
 43
0.0
 44
0.0
 50
0.0
 51
0.0
 71
0
 72
100
 73
1
 74
1
 75
0
 76
0
 77
0
 78
0
  0
ENDTAB
  0
TABLE
  2
LTYPE
  5
5
100
AcDbSymbolTable
 70
6
  0
LTYPE
  5
14
100
AcDbSymbolTableRecord
100
AcDbLinetypeTableRecord
  2
BYBLOCK
 70
0
  3

 72
65
 73
0
 40
0.0
  0
LTYPE
  5
15
100
AcDbSymbolTableRecord
100
AcDbLinetypeTableRecord
  2
BYLAYER
 70
0
  3

 72
65
 73
0
 40
0.0
  0
LTYPE
  5
16
100
AcDbSymbolTableRecord
100
AcDbLinetypeTableRecord
  2
CONTINUOUS
 70
64
  3
Solid line
 72
65
 73
0
 40
0.0
  0
LTYPE
  5
1F5
100
AcDbSymbolTableRecord
100
AcDbLinetypeTableRecord
  2
CENTER
 70
64
  3
____ _ ____ _ ____ _ ____ _ ____ _ ____ _ ____
 72
65
 73
4
 40
0.6
 49
0.375
 74
0
 49
-0.075
 74
0
 49
0.075
 74
0
 49
-0.075
 74
0
  0
LTYPE
  5
1F6
100
AcDbSymbolTableRecord
100
AcDbLinetypeTableRecord
  2
HIDDEN
 70
64
  3
- - - - - - - - - - - - - - - - - - - -
 72
65
 73
2
 40
0.2
 49
0.1
 74
0
 49
-0.1
 74
0
  0
LTYPE
  5
1F7
100
AcDbSymbolTableRecord
100
AcDbLinetypeTableRecord
  2
PHANTOM
 70
64
  3
_____ _ _ _____ _ _ _____ _ _ _____
 72
65
 73
6
 40
0.8
 49
0.45
 74
0
 49
-0.05
 74
0
 49
0.1
 74
0
 49
-0.05
 74
0
 49
0.1
 74
0
 49
-0.05
 74
0
  0
LTYPE
  5
1F8
100
AcDbSymbolTableRecord
100
AcDbLinetypeTableRecord
  2
DOT
 70
64
  3
. . . . . . . . . . . . . . . . . . . .
 72
65
 73
2
 40
0.2
 49
0.1
 74
0
 49
-0.1
 74
0
  0
LTYPE
  5
1F9
100
AcDbSymbolTableRecord
100
AcDbLinetypeTableRecord
  2
DASHED
 70
64
  3
- - - - - - - - - - - - - - - - - - - -
 72
65
 73
2
 40
0.2
 49
0.1
 74
0
 49
-0.1
 74
0
  0
ENDTAB
  0
TABLE
  2
LAYER
  5
2
100
AcDbSymbolTable
 70
36
  0
LAYER
  5
10
100
AcDbSymbolTableRecord
100
AcDbLayerTableRecord
  2
0
 70
0
 62
7
  6
CONTINUOUS
370
-3
390
F
  0
LAYER
  5
1FA
100
AcDbSymbolTableRecord
100
AcDbLayerTableRecord
  2
DEFAULT_1
 70
0
 62
7
  6
CENTER
370
-3
390
F
  0
LAYER
  5
1FB
100
AcDbSymbolTableRecord
100
AcDbLayerTableRecord
  2
DEFAULT_2
 70
0
 62
7
  6
HIDDEN
370
-3
390
F
  0
LAYER
  5
1FC
100
AcDbSymbolTableRecord
100
AcDbLayerTableRecord
  2
DEFAULT_3
 70
0
 62
7
  6
PHANTOM
370
-3
390
F
  0
LAYER
  5
1FD
100
AcDbSymbolTableRecord
100
AcDbLayerTableRecord
  2
ASSI
 70
0
 62
7
  6
CONTINUOUS
370
-3
390
F
  0
LAYER
  5
1FE
100
AcDbSymbolTableRecord
100
AcDbLayerTableRecord
  2
COORDINATE
 70
0
 62
7
  6
CONTINUOUS
370
-3
390
F
  0
LAYER
  5
1FF
100
AcDbSymbolTableRecord
100
AcDbLayerTableRecord
  2
COSMETICI
 70
0
 62
7
  6
CONTINUOUS
370
-3
390
F
  0
LAYER
  5
200
100
AcDbSymbolTableRecord
100
AcDbLayerTableRecord
  2
CURVE
 70
0
 62
7
  6
CONTINUOUS
370
-3
390
F
  0
LAYER
  5
201
100
AcDbSymbolTableRecord
100
AcDbLayerTableRecord
  2
INTF_7
 70
0
 62
7
  6
CONTINUOUS
370
-3
390
F
  0
LAYER
  5
202
100
AcDbSymbolTableRecord
100
AcDbLayerTableRecord
  2
NOTE
 70
0
 62
7
  6
CONTINUOUS
370
-3
390
F
  0
LAYER
  5
203
100
AcDbSymbolTableRecord
100
AcDbLayerTableRecord
  2
PIANI
 70
0
 62
7
  6
CONTINUOUS
370
-3
390
F
  0
LAYER
  5
204
100
AcDbSymbolTableRecord
100
AcDbLayerTableRecord
  2
PUNTI
 70
0
 62
7
  6
CONTINUOUS
370
-3
390
F
  0
LAYER
  5
205
100
AcDbSymbolTableRecord
100
AcDbLayerTableRecord
  2
RGB__255__255__255__
 70
0
 62
7
  6
CONTINUOUS
370
-3
390
F
  0
LAYER
  5
206
100
AcDbSymbolTableRecord
100
AcDbLayerTableRecord
  2
SCRITTE
 70
0
 62
7
  6
CONTINUOUS
370
-3
390
F
  0
LAYER
  5
207
100
AcDbSymbolTableRecord
100
AcDbLayerTableRecord
  2
SIMBOLI
 70
0
 62
7
  6
CONTINUOUS
370
-3
390
F
  0
LAYER
  5
208
100
AcDbSymbolTableRecord
100
AcDbLayerTableRecord
  2
SNAPLINE
 70
0
 62
7
  6
CONTINUOUS
370
-3
390
F
  0
LAYER
  5
209
100
AcDbSymbolTableRecord
100
AcDbLayerTableRecord
  2
SUPERFICI
 70
0
 62
7
  6
CONTINUOUS
370
-3
390
F
  0
ENDTAB
  0
TABLE
  2
STYLE
  5
3
100
AcDbSymbolTable
 70
1
  0
STYLE
  5
11
100
AcDbSymbolTableRecord
100
AcDbTextStyleTableRecord
  2
STANDARD
 70
0
 40
0.0
 41
0.8
 50
0.0
 71
0
 42
0.2
  3
txt
  4

  0
STYLE
  5
20A
100
AcDbSymbolTableRecord
100
AcDbTextStyleTableRecord
  2
TEXTSTYLE_1
 70
0
 40
0.0
 41
0.8
 50
0.0
 71
0
 42
0.2
  3
gdt
  4

  0
ENDTAB
  0
TABLE
  2
VIEW
  5
6
100
AcDbSymbolTable
 70
0
  0
ENDTAB
  0
TABLE
  2
UCS
  5
7
100
AcDbSymbolTable
 70
0
  0
ENDTAB
  0
TABLE
  2
APPID
  5
9
100
AcDbSymbolTable
 70
1
  0
APPID
  5
20B
100
AcDbSymbolTableRecord
100
AcDbRegAppTableRecord
  2
ACAD
 70
0
  0
ENDTAB
  0
TABLE
  2
BLOCK_RECORD
  5
1
100
AcDbSymbolTable
 70
0
  0
BLOCK_RECORD
  5
20C
100
AcDbSymbolTableRecord
100
AcDbBlockTableRecord
  2
*Model_Space
  0
BLOCK_RECORD
  5
20D
100
AcDbSymbolTableRecord
100
AcDbBlockTableRecord
  2
*Paper_Space
  0
BLOCK_RECORD
  5
20E
100
AcDbSymbolTableRecord
100
AcDbBlockTableRecord
  2
_FILLED
  0
BLOCK_RECORD
  5
20F
100
AcDbSymbolTableRecord
100
AcDbBlockTableRecord
  2
*D0
  0
BLOCK_RECORD
  5
210
100
AcDbSymbolTableRecord
100
AcDbBlockTableRecord
  2
*D1
  0
BLOCK_RECORD
  5
211
100
AcDbSymbolTableRecord
100
AcDbBlockTableRecord
  2
*D2
  0
ENDTAB
  0
TABLE
  2
DIMSTYLE
  5
A
100
AcDbSymbolTable
 70
1
100
AcDbDimStyleTable
 71
0
  0
DIMSTYLE
105
212
100
AcDbSymbolTableRecord
100
AcDbDimStyleTableRecord
  2
STANDARD
 70
0
  3

  4

 40
1.0
 41
3.0
 42
0.5
 43
0.38
 44
1.5
 45
0.0
 46
0.0
 47
0.01
 48
0.01
140
3.0
141
0.09
142
0.0
143
25.4
144
1.0
145
0.0
146
1.0
147
0.625
 71
1.0
 72
0.0
 73
0
 74
0
 75
0
 76
0
 77
1
 78
8
170
0
171
2
172
0
173
0
174
0
175
0
176
0
177
0
178
0
270
2
271
2
272
2
273
2
274
2
275
0
280
0
281
0
282
0
283
1
284
8
285
0
286
0
287
3
288
0
340
11
278
44
341
20E
342
20E
343
20E
344
20E
  0
DIMSTYLE
105
213
100
AcDbSymbolTableRecord
100
AcDbDimStyleTableRecord
  2
DIMSTYLE_1
 70
0
  3

  4

 40
1.0
 41
3.0
 42
0.5
 43
0.38
 44
1.5
 45
0.0
 46
0.0
 47
0.0
 48
0.0
140
3.0
141
0.09
142
0.0
143
25.4
144
1.0
145
0.0
146
1.0
147
0.75
 71
0.0
 72
0.0
 73
0
 74
0
 75
0
 76
0
 77
1
 78
8
170
0
171
2
172
0
173
0
174
0
175
0
176
0
177
0
178
0
270
2
271
2
272
2
273
2
274
2
275
0
280
0
281
0
282
0
283
1
284
8
285
0
286
0
287
3
288
0
340
11
278
44
341
20E
342
20E
343
20E
344
20E
  0
ENDTAB
  0
ENDSEC
  0
SECTION
  2
BLOCKS
  0
BLOCK
  5
20
100
AcDbEntity
  8
0
100
AcDbBlockBegin
  2
*Model_Space
 70
0
 10
0.0
 20
0.0
 30
0.0
  3
*Model_Space
  1

  0
ENDBLK
  5
21
100
AcDbEntity
  8
0
100
AcDbBlockEnd
  0
BLOCK
  5
1C
100
AcDbEntity
  8
0
100
AcDbBlockBegin
  2
*Paper_Space
 70
0
 10
0.0
 20
0.0
 30
0.0
  3
*Paper_Space
  1

  0
ENDBLK
  5
1D
100
AcDbEntity
  8
0
100
AcDbBlockEnd
  0
BLOCK
  5
214
100
AcDbEntity
  8
0
100
AcDbBlockBegin
  2
_FILLED
 70
64
 10
0.0
 20
0.0
  3
_FILLED
  1

  0
SOLID
  5
215
100
AcDbEntity
  8
0
  6
BYBLOCK
 62
0
100
AcDbTrace
 10
0.0
 20
0.0
 11
-1.0
 21
0.3166666667
 12
-1.0
 22
-0.3166666667
 13
-1.0
 23
-0.3166666667
  0
ENDBLK
  5
216
100
AcDbEntity
  8
0
  6
BYBLOCK
 62
0
100
AcDbBlockEnd
  0
BLOCK
  5
217
100
AcDbEntity
  8
0
100
AcDbBlockBegin
 62
7
  6
CONTINUOUS
  2
*D0
 70
65
 10
0.0
 20
0.0
  3
*D0
  1

  0
MTEXT
  5
218
100
AcDbEntity
  8
0
100
AcDbMText
 62
7
  6
CONTINUOUS
  7
STANDARD
 71
2
 72
1
 10
-0.0
 20
57.5
 30
0.0
 11
1.0
 21
0.0
 31
0.0
 44
0.9
  1
91,5
 40
3.0
 41
11.8928571429
  0
LINE
  5
219
100
AcDbEntity
  8
0
100
AcDbLine
 62
7
  6
CONTINUOUS
 10
-45.75
 20
14.75
 11
-45.75
 21
55.25
  0
LINE
  5
21A
100
AcDbEntity
  8
0
100
AcDbLine
 62
7
  6
CONTINUOUS
 10
45.75
 20
14.75
 11
45.75
 21
55.25
  0
LINE
  5
21B
100
AcDbEntity
  8
0
100
AcDbLine
 62
7
  6
CONTINUOUS
 10
-45.75
 20
53.75
 11
0.0
 21
53.75
  0
LINE
  5
21C
100
AcDbEntity
  8
0
100
AcDbLine
 62
7
  6
CONTINUOUS
 10
45.75
 20
53.75
 11
0.0
 21
53.75
  0
INSERT
  5
21D
100
AcDbEntity
  8
0
100
AcDbBlockReference
 62
7
  6
CONTINUOUS
  2
_FILLED
 10
-45.75
 20
53.75
 41
3.0
 42
3.0
 43
3.0
 50
180.0
  0
INSERT
  5
21E
100
AcDbEntity
  8
0
100
AcDbBlockReference
 62
7
  6
CONTINUOUS
  2
_FILLED
 10
45.75
 20
53.75
 41
3.0
 42
3.0
 43
3.0
  0
ENDBLK
  5
21F
100
AcDbEntity
  8
0
  6
BYBLOCK
 62
0
100
AcDbBlockEnd
  0
BLOCK
  5
220
100
AcDbEntity
  8
0
100
AcDbBlockBegin
 62
7
  6
CONTINUOUS
  2
*D1
 70
65
 10
0.0
 20
0.0
  3
*D1
  1

  0
MTEXT
  5
221
100
AcDbEntity
  8
0
100
AcDbMText
 62
7
  6
CONTINUOUS
  7
STANDARD
 71
2
 72
1
 10
-57.5
 20
0.0
 30
0.0
 11
0.0
 21
1.0
 31
0.0
 44
0.9
  1
91,5
 40
3.0
 41
11.8928571429
  0
LINE
  5
222
100
AcDbEntity
  8
0
100
AcDbLine
 62
7
  6
CONTINUOUS
 10
-14.75
 20
45.75
 11
-55.25
 21
45.75
  0
LINE
  5
223
100
AcDbEntity
  8
0
100
AcDbLine
 62
7
  6
CONTINUOUS
 10
-14.75
 20
-45.75
 11
-55.25
 21
-45.75
  0
LINE
  5
224
100
AcDbEntity
  8
0
100
AcDbLine
 62
7
  6
CONTINUOUS
 10
-53.75
 20
45.75
 11
-53.75
 21
0.0
  0
LINE
  5
225
100
AcDbEntity
  8
0
100
AcDbLine
 62
7
  6
CONTINUOUS
 10
-53.75
 20
-45.75
 11
-53.75
 21
0.0
  0
INSERT
  5
226
100
AcDbEntity
  8
0
100
AcDbBlockReference
 62
7
  6
CONTINUOUS
  2
_FILLED
 10
-53.75
 20
45.75
 41
3.0
 42
3.0
 43
3.0
 50
90.0
  0
INSERT
  5
227
100
AcDbEntity
  8
0
100
AcDbBlockReference
 62
7
  6
CONTINUOUS
  2
_FILLED
 10
-53.75
 20
-45.75
 41
3.0
 42
3.0
 43
3.0
 50
270.0
  0
ENDBLK
  5
228
100
AcDbEntity
  8
0
  6
BYBLOCK
 62
0
100
AcDbBlockEnd
  0
BLOCK
  5
229
100
AcDbEntity
  8
0
100
AcDbBlockBegin
 62
7
  6
CONTINUOUS
  2
*D2
 70
65
 10
0.0
 20
0.0
  3
*D2
  1

  0
MTEXT
  5
22A
100
AcDbEntity
  8
0
100
AcDbMText
 62
7
  6
CONTINUOUS
  7
STANDARD
 71
2
 72
1
 10
93.8757236506
 20
57.5
 30
0.0
 11
1.0
 21
0.0
 31
0.0
 44
0.9
  1
32
 40
3.0
 41
6.75
  0
LINE
  5
22B
100
AcDbEntity
  8
0
100
AcDbLine
 62
7
  6
CONTINUOUS
 10
77.8757236506
 20
44.6253588422
 11
77.8757236506
 21
55.25
  0
LINE
  5
22C
100
AcDbEntity
  8
0
100
AcDbLine
 62
7
  6
CONTINUOUS
 10
109.8757236506
 20
45.1975922207
 11
109.8757236506
 21
55.25
  0
LINE
  5
22D
100
AcDbEntity
  8
0
100
AcDbLine
 62
7
  6
CONTINUOUS
 10
77.8757236506
 20
53.75
 11
93.8757236506
 21
53.75
  0
LINE
  5
22E
100
AcDbEntity
  8
0
100
AcDbLine
 62
7
  6
CONTINUOUS
 10
109.8757236506
 20
53.75
 11
93.8757236506
 21
53.75
  0
INSERT
  5
22F
100
AcDbEntity
  8
0
100
AcDbBlockReference
 62
7
  6
CONTINUOUS
  2
_FILLED
 10
77.8757236506
 20
53.75
 41
3.0
 42
3.0
 43
3.0
 50
180.0
  0
INSERT
  5
230
100
AcDbEntity
  8
0
100
AcDbBlockReference
 62
7
  6
CONTINUOUS
  2
_FILLED
 10
109.8757236506
 20
53.75
 41
3.0
 42
3.0
 43
3.0
  0
ENDBLK
  5
231
100
AcDbEntity
  8
0
  6
BYBLOCK
 62
0
100
AcDbBlockEnd
  0
ENDSEC
  0
SECTION
  2
ENTITIES
  0
DIMENSION
  5
232
100
AcDbEntity
  8
0
100
AcDbDimension
 62
7
  6
CONTINUOUS
  2
*D0
 10
45.75
 20
53.75
 11
-0.4285713773
 21
53.75
 70
160
 71
2
 42
91.5
  3
DIMSTYLE_1
100
AcDbAlignedDimension
 13
-45.75
 23
14.25
 14
45.75
 24
14.25
100
AcDbRotatedDimension
  0
DIMENSION
  5
233
100
AcDbEntity
  8
0
100
AcDbDimension
 62
7
  6
CONTINUOUS
  2
*D1
 10
-53.75
 20
-45.75
 11
-53.75
 21
-0.4285698253
 70
160
 71
2
 42
91.5
  3
DIMSTYLE_1
100
AcDbAlignedDimension
 13
-14.25
 23
45.75
 14
-14.25
 24
-45.75
 50
270.0
100
AcDbRotatedDimension
  0
DIMENSION
  5
234
100
AcDbEntity
  8
0
100
AcDbDimension
 62
7
  6
CONTINUOUS
  2
*D2
 10
109.8757236506
 20
53.75
 11
93.4471507874
 21
53.75
 70
160
 71
2
 42
32.0
  3
DIMSTYLE_1
100
AcDbAlignedDimension
 13
77.8757236506
 23
44.1253588422
 14
109.8757236506
 24
44.6975922207
100
AcDbRotatedDimension
  0
LINE
  5
235
100
AcDbEntity
  8
0
100
AcDbLine
 62
7
  6
CONTINUOUS
 10
-45.75
 20
14.25
 11
-45.75
 21
-14.25
  0
LINE
  5
236
100
AcDbEntity
  8
0
100
AcDbLine
 62
7
  6
CONTINUOUS
 10
-44.75
 20
14.25
 11
-44.75
 21
-14.25
  0
LINE
  5
237
100
AcDbEntity
  8
0
100
AcDbLine
 62
7
  6
CONTINUOUS
 10
-44.6975922207
 20
14.25
 11
-44.6975922207
 21
-14.25
  0
LINE
  5
238
100
AcDbEntity
  8
0
100
AcDbLine
 62
7
  6
CONTINUOUS
 10
-44.1387984284
 20
14.25
 11
-44.1387984284
 21
-14.25
  0
LINE
  5
239
100
AcDbEntity
  8
0
100
AcDbLine
 62
7
  6
CONTINUOUS
 10
-43.2727730246
 20
14.25
 11
-43.2727730246
 21
-14.25
  0
LINE
  5
23A
100
AcDbEntity
  8
0
100
AcDbLine
 62
7
  6
CONTINUOUS
 10
-31.8443680492
 20
32.3905256444
 11
-31.7447536806
 21
32.563062792
  0
LINE
  5
23B
100
AcDbEntity
  8
0
100
AcDbLine
 62
7
  6
CONTINUOUS
 10
-31.0716273882
 20
32.1834704083
 11
-30.9722454863
 21
32.3556049117
  0
LINE
  5
23C
100
AcDbEntity
  8
0
100
AcDbLine
 62
7
  6
CONTINUOUS
 10
-32.3905256444
 20
31.8443680492
 11
-32.5630629986
 21
31.7447535613
  0
LINE
  5
23D
100
AcDbEntity
  8
0
100
AcDbLine
 62
7
  6
CONTINUOUS
 10
-32.1834704083
 20
31.0716273882
 11
-32.3556049117
 21
30.9722454863
  0
LINE
  5
23E
100
AcDbEntity
  8
0
100
AcDbLine
 62
7
  6
CONTINUOUS
 10
-14.25
 20
-45.75
 11
14.25
 21
-45.75
  0
LINE
  5
23F
100
AcDbEntity
  8
0
100
AcDbLine
 62
7
  6
CONTINUOUS
 10
-14.25
 20
-44.75
 11
14.25
 21
-44.75
  0
LINE
  5
240
100
AcDbEntity
  8
0
100
AcDbLine
 62
7
  6
CONTINUOUS
 10
-14.25
 20
-44.6975922207
 11
14.25
 21
-44.6975922207
  0
LINE
  5
241
100
AcDbEntity
  8
0
100
AcDbLine
 62
7
  6
CONTINUOUS
 10
-14.25
 20
-44.1387984284
 11
14.25
 21
-44.1387984284
  0
LINE
  5
242
100
AcDbEntity
  8
0
100
AcDbLine
 62
7
  6
CONTINUOUS
 10
-14.25
 20
-43.2727730246
 11
14.25
 21
-43.2727730246
  0
LINE
  5
243
100
AcDbEntity
  8
0
100
AcDbLine
 62
7
  6
CONTINUOUS
 10
-32.351114762
 20
-31.7000531011
 11
-32.4568936551
 21
-31.6389816287
  0
LINE
  5
244
100
AcDbEntity
  8
0
100
AcDbLine
 62
7
  6
CONTINUOUS
 10
-32.1440595259
 20
-30.9273124401
 11
-32.2496875166
 21
-30.8663280912
  0
LINE
  5
245
100
AcDbEntity
  8
0
100
AcDbLine
 62
7
  6
CONTINUOUS
 10
-31.7000531011
 20
-32.351114762
 11
-31.6389815982
 21
-32.4568937079
  0
LINE
  5
246
100
AcDbEntity
  8
0
100
AcDbLine
 62
7
  6
CONTINUOUS
 10
-30.9273124401
 20
-32.1440595259
 11
-30.8663280912
 21
-32.2496875166
  0
LINE
  5
247
100
AcDbEntity
  8
0
100
AcDbLine
 62
253
  6
CONTINUOUS
 10
-41.7646779646
 20
-14.25
 11
-41.7646779646
 21
14.25
  0
LINE
  5
248
100
AcDbEntity
  8
0
100
AcDbLine
 62
253
  6
CONTINUOUS
 10
-40.9118098067
 20
14.25
 11
-40.9118098067
 21
-14.25
  0
LINE
  5
249
100
AcDbEntity
  8
0
100
AcDbLine
 62
253
  6
CONTINUOUS
 10
-40.2475962443
 20
-14.25
 11
-40.2475962443
 21
14.25
  0
LINE
  5
24A
100
AcDbEntity
  8
0
100
AcDbLine
 62
253
  6
CONTINUOUS
 10
-39.1869360725
 20
14.25
 11
-39.1869360725
 21
-14.25
  0
LINE
  5
24B
100
AcDbEntity
  8
0
100
AcDbLine
 62
253
  6
CONTINUOUS
 10
14.25
 20
-41.7646779646
 11
-14.25
 21
-41.7646779646
  0
LINE
  5
24C
100
AcDbEntity
  8
0
100
AcDbLine
 62
253
  6
CONTINUOUS
 10
-14.25
 20
-40.9118098067
 11
14.25
 21
-40.9118098067
  0
LINE
  5
24D
100
AcDbEntity
  8
0
100
AcDbLine
 62
253
  6
CONTINUOUS
 10
14.25
 20
-40.2475962443
 11
-14.25
 21
-40.2475962443
  0
LINE
  5
24E
100
AcDbEntity
  8
0
100
AcDbLine
 62
253
  6
CONTINUOUS
 10
-14.25
 20
-39.1869360725
 11
14.25
 21
-39.1869360725
  0
LWPOLYLINE
  5
24F
100
AcDbEntity
  8
0
100
AcDbPolyline
 62
7
  6
CONTINUOUS
 90
13
 70
0
 10
-30.9119424953
 20
14.748366139
 10
-30.9267124157
 20
14.7100478879
 10
-30.9363474879
 20
14.6716895849
 10
-30.9408477119
 20
14.6332912299
 10
-30.9400848433
 20
14.5942710809
 10
-30.9341871265
 20
14.55521088
 10
-30.9235392944
 20
14.5178558535
 10
-30.9079985881
 20
14.4822572662
 10
-30.8877077664
 20
14.4483638532
 10
-30.8634798388
 20
14.4177670467
 10
-30.8355858082
 20
14.390997324
 10
-30.8037546716
 20
14.3675242077
 10
-30.767986429
 20
14.3473476978
  0
LWPOLYLINE
  5
250
100
AcDbEntity
  8
0
100
AcDbPolyline
 62
7
  6
CONTINUOUS
 90
19
 70
0
 10
-14.7678601456
 20
-32.4373997344
 10
-14.6062493348
 20
-32.5023433764
 10
-14.4423753265
 20
-32.5527936476
 10
-14.2762381206
 20
-32.5887505483
 10
-14.1066254588
 20
-32.6102252746
 10
-13.9347495995
 20
-32.6172066303
 10
-13.7642473178
 20
-32.6096610265
 10
-13.5951473617
 20
-32.587304806
 10
-13.4274209833
 20
-32.550421626
 10
-13.264618714
 20
-32.4998288689
 10
-13.1068374842
 20
-32.43525639
 10
-12.9539803635
 20
-32.3569743339
 10
-12.8093070929
 20
-32.2666105176
 10
-12.6729790909
 20
-32.1639326113
 10
-12.544834939
 20
-32.0491729447
 10
-12.4276501226
 20
-31.9246563234
 10
-12.3223498035
 20
-31.7911576827
 10
-12.2280088199
 20
-31.6479020872
 10
-12.1446271718
 20
-31.4948895371
  0
LINE
  5
251
100
AcDbEntity
  8
0
100
AcDbLine
 62
253
  6
CONTINUOUS
 10
-15.1283859912
 20
-31.5042453914
 11
-15.1418364984
 21
-31.4977829035
  0
LINE
  5
252
100
AcDbEntity
  8
0
100
AcDbLine
 62
253
  6
CONTINUOUS
 10
-14.9988316383
 20
-31.2341172499
 11
-15.0239308084
 21
-31.2220521135
  0
LINE
  5
253
100
AcDbEntity
  8
0
100
AcDbLine
 62
253
  6
CONTINUOUS
 10
-14.0705161264
 20
-31.3907744847
 11
-13.9525399445
 21
-31.4483153133
  0
LINE
  5
254
100
AcDbEntity
  8
0
100
AcDbLine
 62
253
  6
CONTINUOUS
 10
-30.3929715908
 20
-16.6373769866
 11
-30.4062178143
 21
-16.6131557052
  0
LINE
  5
255
100
AcDbEntity
  8
0
100
AcDbLine
 62
253
  6
CONTINUOUS
 10
-30.6621537943
 20
-16.7695517255
 11
-30.6693117246
 21
-16.7564572245
  0
LWPOLYLINE
  5
256
100
AcDbEntity
  8
0
100
AcDbPolyline
 62
7
  6
CONTINUOUS
 90
19
 70
0
 10
-30.6694754425
 20
-16.7565466601
 10
-30.7460392294
 20
-16.6005255719
 10
-30.808745163
 20
-16.4385158932
 10
-30.8571340012
 20
-16.271741463
 10
-30.8908553737
 20
-16.1014679855
 10
-30.9096688225
 20
-15.9289717835
 10
-30.9134385384
 20
-15.7555293455
 10
-30.9021405571
 20
-15.5824429424
 10
-30.8758666694
 20
-15.4110163577
 10
-30.8348128991
 20
-15.242523548
 10
-30.77928712
 20
-15.0782321024
 10
-30.7097083967
 20
-14.9193772616
 10
-30.626593417
 20
-14.7671397372
 10
-30.5305630663
 20
-14.6226695871
 10
-30.4223351109
 20
-14.4870534874
 10
-30.3027076411
 20
-14.3612963671
 10
-30.1725671457
 20
-14.2463470211
 10
-30.0328873783
 20
-14.1430864544
 10
-29.8847114617
 20
-14.052301978
  0
LWPOLYLINE
  5
257
100
AcDbEntity
  8
0
100
AcDbPolyline
 62
7
  6
CONTINUOUS
 90
6
 70
0
 10
-28.7840658413
 20
15.0554594263
 10
-28.7940815751
 20
15.0349335072
 10
-28.8019243926
 20
15.0185639898
 10
-28.8075441098
 20
15.0065634058
 10
-28.8108137882
 20
14.998896346
 10
-28.8117290577
 20
14.9955671808
  0
LINE
  5
258
100
AcDbEntity
  8
0
100
AcDbLine
 62
7
  6
CONTINUOUS
 10
-28.6692001029
 20
15.2772376773
 11
-28.6881412674
 21
15.2408447333
  0
LWPOLYLINE
  5
259
100
AcDbEntity
  8
0
100
AcDbPolyline
 62
7
  6
CONTINUOUS
 90
4
 70
0
 10
-28.6881412674
 20
15.2408447333
 10
-28.7251824011
 20
15.1708609992
 10
-28.7422639864
 20
15.1380076629
 10
-28.7840658413
 20
15.0554594263
  0
LWPOLYLINE
  5
25A
100
AcDbEntity
  8
0
100
AcDbPolyline
 62
7
  6
CONTINUOUS
 90
3
 70
0
 10
-28.1562265625
 20
16.2032206732
 10
-28.1763624054
 20
16.1685621185
 10
-28.1966470815
 20
16.1327653844
  0
LWPOLYLINE
  5
25B
100
AcDbEntity
  8
0
100
AcDbPolyline
 62
7
  6
CONTINUOUS
 90
13
 70
0
 10
-29.2836540121
 20
14.4029962053
 10
-29.3040856564
 20
14.3683262265
 10
-29.3276448939
 20
14.3374886147
 10
-29.3543317247
 20
14.3104833696
 10
-29.3846499227
 20
14.2870584902
 10
-29.4180957139
 20
14.2674659776
 10
-29.453157776
 20
14.2524618356
 10
-29.4898828572
 20
14.2421787035
 10
-29.5282242092
 20
14.236483942
 10
-29.5665302642
 20
14.2357356368
 10
-29.6042504997
 20
14.2400531497
 10
-29.6419354381
 20
14.2493171188
 10
-29.6795850795
 20
14.2635275442
  0
LINE
  5
25C
100
AcDbEntity
  8
0
100
AcDbLine
 62
7
  6
CONTINUOUS
 10
-28.1013649836
 20
16.2960281973
 11
-28.1562265625
 21
16.2032206732
  0
LINE
  5
25D
100
AcDbEntity
  8
0
100
AcDbLine
 62
7
  6
CONTINUOUS
 10
-28.0859208888
 20
16.321723732
 11
-28.1013649836
 21
16.2960281973
  0
LWPOLYLINE
  5
25E
100
AcDbEntity
  8
0
100
AcDbPolyline
 62
7
  6
CONTINUOUS
 90
6
 70
0
 10
-28.03742048
 20
16.3977382341
 10
-28.0394971737
 20
16.3953899593
 10
-28.0441536851
 20
16.3887362262
 10
-28.0512976309
 20
16.3778694184
 10
-28.0607203898
 20
16.3629096692
 10
-28.0859208888
 20
16.321723732
  0
LWPOLYLINE
  5
25F
100
AcDbEntity
  8
0
100
AcDbPolyline
 62
253
  6
CONTINUOUS
 90
13
 70
0
 10
-18.1961414451
 20
26.1764354558
 10
-18.1660566397
 20
26.2006322968
 10
-18.1392741283
 20
26.2282448986
 10
-18.1162052075
 20
26.2587903856
 10
-18.0972764429
 20
26.2915796804
 10
-18.0826364137
 20
26.3262058067
 10
-18.0723662097
 20
26.3626346835
 10
-18.0667763127
 20
26.4005442416
 10
-18.0662103864
 20
26.4390807864
 10
-18.0708195113
 20
26.4774051428
 10
-18.080610171
 20
26.5147724601
 10
-18.0955143029
 20
26.5505425424
 10
-18.1153623884
 20
26.584025385
  0
LINE
  5
260
100
AcDbEntity
  8
0
100
AcDbLine
 62
7
  6
CONTINUOUS
 10
-18.9049690004
 20
26.6003918957
 11
-18.9193488497
 21
26.5888925665
  0
LWPOLYLINE
  5
261
100
AcDbEntity
  8
0
100
AcDbPolyline
 62
7
  6
CONTINUOUS
 90
14
 70
0
 10
-18.9193488497
 20
26.5888925665
 10
-18.9453398471
 20
26.5685055177
 10
-18.9566557034
 20
26.5593728848
 10
-18.9668516306
 20
26.5508078533
 10
-18.9762429705
 20
26.5428440459
 10
-18.984807934
 20
26.5354659709
 10
-18.992438445
 20
26.5286048725
 10
-18.9992833544
 20
26.5223230409
 10
-19.0052682007
 20
26.5166142076
 10
-19.0103040478
 20
26.511455831
 10
-19.0144659413
 20
26.5069571619
 10
-19.0176867409
 20
26.5031698739
 10
-19.0197897289
 20
26.5000464258
 10
-19.0206504037
 20
26.4975686446
  0
LINE
  5
262
100
AcDbEntity
  8
0
100
AcDbLine
 62
7
  6
CONTINUOUS
 10
-18.6341807791
 20
26.7299393018
 11
-18.7446615351
 21
26.6525798436
  0
LINE
  5
263
100
AcDbEntity
  8
0
100
AcDbLine
 62
253
  6
CONTINUOUS
 10
-18.3743566663
 20
26.0516485727
 11
-18.1961418312
 21
26.1764359437
  0
LINE
  5
264
100
AcDbEntity
  8
0
100
AcDbLine
 62
253
  6
CONTINUOUS
 10
-18.1697367149
 20
26.1444282393
 11
-18.3533103362
 21
26.0158886058
  0
LINE
  5
265
100
AcDbEntity
  8
0
100
AcDbLine
 62
7
  6
CONTINUOUS
 10
-18.4363115601
 20
25.5451552148
 11
-17.69900393
 21
26.0614235754
  0
LWPOLYLINE
  5
266
100
AcDbEntity
  8
0
100
AcDbPolyline
 62
7
  6
CONTINUOUS
 90
3
 70
0
 10
-18.4865421539
 20
26.8897592616
 10
-18.5145884368
 20
26.8723089872
 10
-18.5303117673
 20
26.8627297145
  0
LWPOLYLINE
  5
267
100
AcDbEntity
  8
0
100
AcDbPolyline
 62
253
  6
CONTINUOUS
 90
13
 70
0
 10
-18.3533103261
 20
26.0158887109
 10
-18.3863889121
 20
25.9957897377
 10
-18.4216782832
 20
25.9801545651
 10
-18.45857707
 20
25.9692035028
 10
-18.4962801982
 20
25.9630945153
 10
-18.534344836
 20
25.9618210671
 10
-18.5727086903
 20
25.965449927
 10
-18.610956786
 20
25.974162388
 10
-18.648151696
 20
25.9879731612
 10
-18.6834331724
 20
26.0067151783
 10
-18.7160793336
 20
26.0301158517
 10
-18.7454935909
 20
26.0578688004
 10
-18.7710652345
 20
26.0895501726
  0
LWPOLYLINE
  5
268
100
AcDbEntity
  8
0
100
AcDbPolyline
 62
7
  6
CONTINUOUS
 90
13
 70
0
 10
-13.8982096827
 20
29.1015852024
 10
-13.8630417569
 20
29.1217999616
 10
-13.8317361678
 20
29.1452209781
 10
-13.8042929151
 20
29.171848252
 10
-13.7804509313
 20
29.2021949899
 10
-13.760471284
 20
29.2357479851
 10
-13.7451371764
 20
29.2709676181
 10
-13.734584962
 20
29.3079028239
 10
-13.7286782873
 20
29.3465046675
 10
-13.7277912946
 20
29.385086725
 10
-13.7320486981
 20
29.423086855
 10
-13.7413257836
 20
29.4610671989
 10
-13.7556225511
 20
29.4990277567
  0
LWPOLYLINE
  5
269
100
AcDbEntity
  8
0
100
AcDbPolyline
 62
7
  6
CONTINUOUS
 90
13
 70
0
 10
-14.9348394295
 20
30.3949954078
 10
-14.8963838465
 20
30.4102982079
 10
-14.8578441259
 20
30.4203922923
 10
-14.8192202678
 20
30.4252776611
 10
-14.7799170198
 20
30.4248272927
 10
-14.7405296342
 20
30.4191682087
 10
-14.7028438683
 20
30.4086814734
 10
-14.6669116466
 20
30.3932198223
 10
-14.6326810446
 20
30.37293052
 10
-14.601782046
 20
30.3486364248
 10
-14.5747579786
 20
30.3206118228
 10
-14.5510655145
 20
30.2885824279
 10
-14.5307046539
 20
30.2525482402
  0
LWPOLYLINE
  5
26A
100
AcDbEntity
  8
0
100
AcDbPolyline
 62
7
  6
CONTINUOUS
 90
10
 70
0
 10
-14.036524103
 20
-31.6883106163
 10
-14.1606489886
 20
-31.6986262725
 10
-14.2851979376
 20
-31.7011847095
 10
-14.4096880497
 20
-31.6959725819
 10
-14.533637892
 20
-31.6830054326
 10
-14.6565648953
 20
-31.662330947
 10
-14.7779873412
 20
-31.6340294984
 10
-14.8974322152
 20
-31.5982091402
 10
-15.0144369239
 20
-31.5550045082
 10
-15.1285467056
 20
-31.5045800961
  0
LINE
  5
26B
100
AcDbEntity
  8
0
100
AcDbLine
 62
253
  6
CONTINUOUS
 10
-12.6104694097
 20
-30.5328945699
 11
-12.4591769051
 21
-30.6066848548
  0
LINE
  5
26C
100
AcDbEntity
  8
0
100
AcDbLine
 62
253
  6
CONTINUOUS
 10
-29.8848865315
 20
-14.0519973098
 11
-29.7396429695
 21
-14.3140236318
  0
LWPOLYLINE
  5
26D
100
AcDbEntity
  8
0
100
AcDbPolyline
 62
253
  6
CONTINUOUS
 90
13
 70
0
 10
-23.9685880551
 20
11.9266167165
 10
-23.9421805514
 20
11.9549812634
 10
-23.9177809767
 20
11.9844614896
 10
-23.8958011675
 20
12.0145646938
 10
-23.876610181
 20
12.0447918957
 10
-23.8605384226
 20
12.0746301068
 10
-23.847866243
 20
12.1035620092
 10
-23.8388060918
 20
12.1311008193
 10
-23.8335089479
 20
12.1567851965
 10
-23.8320627981
 20
12.1801746114
 10
-23.8344855213
 20
12.2008775119
 10
-23.8407302823
 20
12.2185547196
 10
-23.8506868932
 20
12.2329150058
  0
LINE
  5
26E
100
AcDbEntity
  8
0
100
AcDbLine
 62
253
  6
CONTINUOUS
 10
-26.2162718758
 20
12.4001099989
 11
-25.1280320603
 21
13.4883498144
  0
LINE
  5
26F
100
AcDbEntity
  8
0
100
AcDbLine
 62
253
  6
CONTINUOUS
 10
-25.2459332222
 20
13.1820515251
 11
-25.9099735864
 21
12.5180111608
  0
LINE
  5
270
100
AcDbEntity
  8
0
100
AcDbLine
 62
253
  6
CONTINUOUS
 10
-24.6545387778
 20
11.2406659937
 11
-23.9685880551
 21
11.9266167165
  0
LWPOLYLINE
  5
271
100
AcDbEntity
  8
0
100
AcDbPolyline
 62
253
  6
CONTINUOUS
 90
13
 70
0
 10
-25.9099735864
 20
12.5180111608
 10
-25.9383677734
 20
12.4915776241
 10
-25.9678656161
 20
12.4671673009
 10
-25.9979723834
 20
12.4451895953
 10
-26.0281831318
 20
12.4260131124
 10
-26.0579911736
 20
12.4099594757
 10
-26.0868965753
 20
12.397297933
 10
-26.1144145423
 20
12.3882408408
 10
-26.1400835495
 20
12.3829401025
 10
-26.1634730824
 20
12.3814846208
 10
-26.1841908573
 20
12.3838988068
 10
-26.2018894003
 20
12.3901421702
 10
-26.2162718757
 20
12.4001099989
  0
LWPOLYLINE
  5
272
100
AcDbEntity
  8
0
100
AcDbPolyline
 62
7
  6
CONTINUOUS
 90
13
 70
0
 10
18.3941241469
 20
-26.9362670525
 10
18.3967470557
 20
-26.9363057058
 10
18.4004016744
 20
-26.9353977127
 10
18.4050624542
 20
-26.9336663217
 10
18.4107135675
 20
-26.9312938816
 10
18.4172834563
 20
-26.9283258401
 10
18.4246951257
 20
-26.9246543402
 10
18.4329392763
 20
-26.9203706943
 10
18.4419963128
 20
-26.9155470019
 10
18.4518587399
 20
-26.9100220277
 10
18.4625543184
 20
-26.9039207804
 10
18.4740900862
 20
-26.897269092
 10
18.4865421539
 20
-26.8897592616
  0
LINE
  5
273
100
AcDbEntity
  8
0
100
AcDbLine
 62
253
  6
CONTINUOUS
 10
-31.6205971405
 20
-16.4451279426
 11
-30.6694754425
 21
-16.7565466601
  0
LINE
  5
274
100
AcDbEntity
  8
0
100
AcDbLine
 62
7
  6
CONTINUOUS
 10
-13.0132955862
 20
-26.4421527947
 11
-14.5493327001
 21
-25.0863066596
  0
LINE
  5
275
100
AcDbEntity
  8
0
100
AcDbLine
 62
253
  6
CONTINUOUS
 10
-14.7675836583
 20
-32.437686435
 11
-15.1285467056
 21
-31.5045800961
  0
LINE
  5
276
100
AcDbEntity
  8
0
100
AcDbLine
 62
7
  6
CONTINUOUS
 10
-28.8117290577
 20
14.9955671808
 11
-28.7512719161
 21
14.6091362923
  0
LINE
  5
277
100
AcDbEntity
  8
0
100
AcDbLine
 62
253
  6
CONTINUOUS
 10
-24.9608370671
 20
11.1227648318
 11
-24.9608370671
 21
10.8187014434
  0
LINE
  5
278
100
AcDbEntity
  8
0
100
AcDbLine
 62
253
  6
CONTINUOUS
 10
-24.5366376159
 20
10.8187014434
 11
-24.5366376159
 21
11.1227648318
  0
LWPOLYLINE
  5
279
100
AcDbEntity
  8
0
100
AcDbPolyline
 62
253
  6
CONTINUOUS
 90
37
 70
0
 10
-23.8
 20
-3.0
 10
-23.787767322
 20
-2.7345410822
 10
-23.7535165546
 20
-2.4750650575
 10
-23.6972476977
 20
-2.2215719259
 10
-23.6181228945
 20
-1.9721731548
 10
-23.5169800018
 20
-1.7287572768
 10
-23.39633259
 20
-1.4969898896
 10
-23.2556888302
 20
-1.2772119864
 10
-23.0955405513
 20
-1.0690825741
 10
-22.9198768102
 20
-0.8772442713
 10
-22.7287057818
 20
-0.7022603214
 10
-22.5220192911
 20
-0.543567481
 10
-22.3037818706
 20
-0.404118639
 10
-22.0733859317
 20
-0.2840619224
 10
-21.831439063
 20
-0.1832492043
 10
-21.5837285622
 20
-0.1041889925
 10
-21.3302691243
 20
-0.047483942
 10
-21.0710460544
 20
-0.0125313978
 10
-20.8118025647
 20
-0.0000319038
 10
-20.5526199181
 20
-0.0104300143
 10
-20.2934168517
 20
-0.0432811749
 10
-20.0396927895
 20
-0.097952266
 10
-19.7914356869
 20
-0.1749244797
 10
-19.5486575885
 20
-0.2737166239
 10
-19.316894051
 20
-0.392252003
 10
-19.0965015538
 20
-0.5307978005
 10
-18.8871236175
 20
-0.6890868328
 10
-18.6932263608
 20
-0.8642408536
 10
-18.514830602
 20
-1.0569592192
 10
-18.3519155227
 20
-1.2665425734
 10
-18.2088847867
 20
-1.4880146001
 10
-18.0863573523
 20
-1.7218112036
 10
-17.9837142611
 20
-1.9674964797
 10
-17.9035023014
 20
-2.2187864002
 10
-17.8465704028
 20
-2.4735862891
 10
-17.8120696356
 20
-2.7339908223
 10
-17.8
 20
-3.0
  0
LINE
  5
27A
100
AcDbEntity
  8
0
100
AcDbLine
 62
7
  6
CONTINUOUS
 10
-19.0400825449
 20
26.3830176654
 11
-19.1072013089
 21
25.9803263671
  0
LINE
  5
27B
100
AcDbEntity
  8
0
100
AcDbLine
 62
7
  6
CONTINUOUS
 10
-19.0206504037
 20
26.4975686446
 11
-19.0400825449
 21
26.3830176654
  0
LINE
  5
27C
100
AcDbEntity
  8
0
100
AcDbLine
 62
253
  6
CONTINUOUS
 10
-18.7710652345
 20
26.0895501726
 11
-18.8540685016
 21
25.6188152529
  0
LINE
  5
27D
100
AcDbEntity
  8
0
100
AcDbLine
 62
253
  6
CONTINUOUS
 10
-18.4363135932
 20
25.5451537912
 11
-18.3533103362
 21
26.0158886058
  0
LINE
  5
27E
100
AcDbEntity
  8
0
100
AcDbLine
 62
7
  6
CONTINUOUS
 10
-32.351114762
 20
-31.7000531011
 11
-32.1440595259
 21
-30.9273124401
  0
LINE
  5
27F
100
AcDbEntity
  8
0
100
AcDbLine
 62
7
  6
CONTINUOUS
 10
-32.2496875166
 20
-30.8663280912
 11
-32.3921542191
 21
-31.3980128524
  0
LINE
  5
280
100
AcDbEntity
  8
0
100
AcDbLine
 62
7
  6
CONTINUOUS
 10
-32.3921542191
 20
-31.3980128524
 11
-32.4246845467
 21
-31.5192240498
  0
LINE
  5
281
100
AcDbEntity
  8
0
100
AcDbLine
 62
7
  6
CONTINUOUS
 10
-32.4246845467
 20
-31.5192240498
 11
-32.4568936551
 21
-31.6389816287
  0
LINE
  5
282
100
AcDbEntity
  8
0
100
AcDbLine
 62
7
  6
CONTINUOUS
 10
-26.947962542
 20
-14.9659047025
 11
-26.9997489571
 21
-15.1475216737
  0
LINE
  5
283
100
AcDbEntity
  8
0
100
AcDbLine
 62
7
  6
CONTINUOUS
 10
-14.5307062849
 20
30.2525517379
 11
-14.3473492851
 21
30.7679898329
  0
LINE
  5
284
100
AcDbEntity
  8
0
100
AcDbLine
 62
7
  6
CONTINUOUS
 10
-14.7500400275
 20
30.9114188135
 11
-14.8722317082
 21
30.5679081676
  0
LINE
  5
285
100
AcDbEntity
  8
0
100
AcDbLine
 62
7
  6
CONTINUOUS
 10
-14.8722317082
 20
30.5679081676
 11
-14.9349477196
 21
30.3952233363
  0
LINE
  5
286
100
AcDbEntity
  8
0
100
AcDbLine
 62
253
  6
CONTINUOUS
 10
-23.8506868931
 20
11.8087155546
 11
-24.5366376159
 21
11.1227648318
  0
LINE
  5
287
100
AcDbEntity
  8
0
100
AcDbLine
 62
7
  6
CONTINUOUS
 10
-24.5366358609
 20
10.8187031985
 11
-23.5466252598
 21
11.8087137995
  0
LWPOLYLINE
  5
288
100
AcDbEntity
  8
0
100
AcDbPolyline
 62
253
  6
CONTINUOUS
 90
13
 70
0
 10
-24.5366376159
 20
11.1227648318
 10
-24.5661391199
 20
11.0969078691
 10
-24.5987637203
 20
11.0751208348
 10
-24.6339534172
 20
11.0577763666
 10
-24.6711063385
 20
11.0451711184
 10
-24.7095870334
 20
11.0375206859
 10
-24.7487373415
 20
11.0349559194
 10
-24.7878876497
 20
11.0375206859
 10
-24.8263683446
 20
11.0451711184
 10
-24.8635212658
 20
11.0577763666
 10
-24.8987109628
 20
11.0751208348
 10
-24.9313355632
 20
11.0969078691
 10
-24.9608370672
 20
11.1227648318
  0
LINE
  5
289
100
AcDbEntity
  8
0
100
AcDbLine
 62
7
  6
CONTINUOUS
 10
-30.3959790025
 20
14.9333974023
 11
-30.9114188087
 21
14.7500400251
  0
LINE
  5
28A
100
AcDbEntity
  8
0
100
AcDbLine
 62
7
  6
CONTINUOUS
 10
-30.7679898329
 20
14.3473492851
 11
-30.2525517379
 21
14.5307062849
  0
LINE
  5
28B
100
AcDbEntity
  8
0
100
AcDbLine
 62
7
  6
CONTINUOUS
 10
13.7137048377
 20
27.7555067698
 11
13.536817362
 21
27.6948949797
  0
LINE
  5
28C
100
AcDbEntity
  8
0
100
AcDbLine
 62
7
  6
CONTINUOUS
 10
-31.6389816034
 20
-32.4568936989
 11
-30.8663280912
 21
-32.2496875166
  0
LINE
  5
28D
100
AcDbEntity
  8
0
100
AcDbLine
 62
7
  6
CONTINUOUS
 10
-30.9273124401
 20
-32.1440595259
 11
-31.7000531011
 21
-32.351114762
  0
LINE
  5
28E
100
AcDbEntity
  8
0
100
AcDbLine
 62
7
  6
CONTINUOUS
 10
-2.1125
 20
-23.0
 11
-2.375
 21
-23.0
  0
LINE
  5
28F
100
AcDbEntity
  8
0
100
AcDbLine
 62
7
  6
CONTINUOUS
 10
-3.9791666389
 20
-23.0
 11
-4.1541666389
 21
-23.0
  0
LINE
  5
290
100
AcDbEntity
  8
0
100
AcDbLine
 62
7
  6
CONTINUOUS
 10
-2.375
 20
-22.7446808517
 11
-2.1125
 21
-22.7446808517
  0
LINE
  5
291
100
AcDbEntity
  8
0
100
AcDbLine
 62
7
  6
CONTINUOUS
 10
-1.8791665554
 20
-22.4893617034
 11
-1.7041665554
 21
-22.4893617034
  0
LINE
  5
292
100
AcDbEntity
  8
0
100
AcDbLine
 62
7
  6
CONTINUOUS
 10
-3.4541667223
 20
-22.106382966
 11
-3.9791666389
 21
-22.106382966
  0
LINE
  5
293
100
AcDbEntity
  8
0
100
AcDbLine
 62
7
  6
CONTINUOUS
 10
-3.9791666389
 20
-21.8510638475
 11
-3.425
 21
-21.8510638475
  0
LINE
  5
294
100
AcDbEntity
  8
0
100
AcDbLine
 62
7
  6
CONTINUOUS
 10
-1.7041665554
 20
-21.5106383562
 11
-1.8791665554
 21
-21.5106383562
  0
LINE
  5
295
100
AcDbEntity
  8
0
100
AcDbLine
 62
7
  6
CONTINUOUS
 10
-2.1125
 20
-21.2553191185
 11
-2.375
 21
-21.2553191185
  0
LINE
  5
296
100
AcDbEntity
  8
0
100
AcDbLine
 62
7
  6
CONTINUOUS
 10
-3.425
 20
-21.2127659321
 11
-3.9791666389
 21
-21.2127659321
  0
LINE
  5
297
100
AcDbEntity
  8
0
100
AcDbLine
 62
7
  6
CONTINUOUS
 10
-4.1541666389
 20
-21.0
 11
-3.4541667223
 21
-21.0
  0
LINE
  5
298
100
AcDbEntity
  8
0
100
AcDbLine
 62
7
  6
CONTINUOUS
 10
-2.375
 20
-21.0
 11
-2.1125
 21
-21.0
  0
LINE
  5
299
100
AcDbEntity
  8
0
100
AcDbLine
 62
253
  6
CONTINUOUS
 10
17.6253404352
 20
-26.4791799074
 11
18.0960753549
 21
-26.5621831745
  0
LINE
  5
29A
100
AcDbEntity
  8
0
100
AcDbLine
 62
253
  6
CONTINUOUS
 10
18.1697367149
 20
-26.1444282393
 11
17.6990018969
 21
-26.061424999
  0
LINE
  5
29B
100
AcDbEntity
  8
0
100
AcDbLine
 62
7
  6
CONTINUOUS
 10
17.9933637265
 20
-26.8622524677
 11
18.3941241469
 21
-26.9362670525
  0
LINE
  5
29C
100
AcDbEntity
  8
0
100
AcDbLine
 62
7
  6
CONTINUOUS
 10
17.8784732425
 20
-26.8406910216
 11
17.9933637265
 21
-26.8622524677
  0
LINE
  5
29D
100
AcDbEntity
  8
0
100
AcDbLine
 62
7
  6
CONTINUOUS
 10
31.8443680492
 20
-32.3905256444
 11
31.0716273882
 21
-32.1834704083
  0
LINE
  5
29E
100
AcDbEntity
  8
0
100
AcDbLine
 62
7
  6
CONTINUOUS
 10
30.9722454863
 20
-32.3556049117
 11
31.7447536806
 21
-32.5630627919
  0
LINE
  5
29F
100
AcDbEntity
  8
0
100
AcDbLine
 62
7
  6
CONTINUOUS
 10
-30.4828901712
 20
-16.82132248
 11
-30.3926288173
 21
-16.8469095146
  0
LINE
  5
2A0
100
AcDbEntity
  8
0
100
AcDbLine
 62
7
  6
CONTINUOUS
 10
-28.6434070243
 20
-15.8772999629
 11
-28.7268978612
 21
-15.853643872
  0
LINE
  5
2A1
100
AcDbEntity
  8
0
100
AcDbLine
 62
7
  6
CONTINUOUS
 10
-28.4278743231
 20
-15.9391456194
 11
-28.5718987164
 21
-15.8980996766
  0
LINE
  5
2A2
100
AcDbEntity
  8
0
100
AcDbLine
 62
7
  6
CONTINUOUS
 10
-30.3437883217
 20
-16.8611658585
 11
-30.1715835377
 21
-16.9103530679
  0
LINE
  5
2A3
100
AcDbEntity
  8
0
100
AcDbLine
 62
7
  6
CONTINUOUS
 10
-28.7268978612
 20
-15.853643872
 11
-28.892704992
 21
-15.8057656313
  0
LINE
  5
2A4
100
AcDbEntity
  8
0
100
AcDbLine
 62
7
  6
CONTINUOUS
 10
-30.6621628332
 20
-16.7695491105
 11
-30.4828901712
 21
-16.82132248
  0
LINE
  5
2A5
100
AcDbEntity
  8
0
100
AcDbLine
 62
7
  6
CONTINUOUS
 10
-2.375
 20
-23.0
 11
-2.5208332777
 21
-22.9574468099
  0
LINE
  5
2A6
100
AcDbEntity
  8
0
100
AcDbLine
 62
7
  6
CONTINUOUS
 10
-3.4541667223
 20
-21.0
 11
-3.3083332777
 21
-21.0425531864
  0
LINE
  5
2A7
100
AcDbEntity
  8
0
100
AcDbLine
 62
7
  6
CONTINUOUS
 10
-30.3926288173
 20
-16.8469095146
 11
-30.3437883217
 21
-16.8611658585
  0
LINE
  5
2A8
100
AcDbEntity
  8
0
100
AcDbLine
 62
7
  6
CONTINUOUS
 10
-28.5718987164
 20
-15.8980996766
 11
-28.6434070243
 21
-15.8772999629
  0
LINE
  5
2A9
100
AcDbEntity
  8
0
100
AcDbLine
 62
253
  6
CONTINUOUS
 10
-29.8848817091
 20
-14.0519946367
 11
-30.8165884173
 21
-13.7765547491
  0
LINE
  5
2AA
100
AcDbEntity
  8
0
100
AcDbLine
 62
253
  6
CONTINUOUS
 10
13.7556210095
 20
-29.4990244507
 11
14.2635260445
 21
-29.6795818634
  0
LINE
  5
2AB
100
AcDbEntity
  8
0
100
AcDbLine
 62
7
  6
CONTINUOUS
 10
14.4034459496
 20
-29.2845483422
 11
13.8977724116
 21
-29.1006499706
  0
LINE
  5
2AC
100
AcDbEntity
  8
0
100
AcDbLine
 62
7
  6
CONTINUOUS
 10
-2.4916667223
 20
-22.7021276653
 11
-2.375
 21
-22.7446808517
  0
LINE
  5
2AD
100
AcDbEntity
  8
0
100
AcDbLine
 62
253
  6
CONTINUOUS
 10
-9.0866055206
 20
-23.6918887892
 11
-9.2378980253
 21
-23.6180985043
  0
LINE
  5
2AE
100
AcDbEntity
  8
0
100
AcDbLine
 62
253
  6
CONTINUOUS
 10
-9.3429198182
 20
-21.9971934601
 11
-9.4608960001
 21
-21.9396526316
  0
LWPOLYLINE
  5
2AF
100
AcDbEntity
  8
0
100
AcDbPolyline
 62
253
  6
CONTINUOUS
 90
10
 70
0
 10
-10.048010896
 20
-21.0239350654
 10
-9.9344938252
 20
-21.0827559824
 10
-9.8249921288
 20
-21.1487001132
 10
-9.7199507507
 20
-21.2214930368
 10
-9.6197956132
 20
-21.3008332096
 10
-9.5249327977
 20
-21.3863919222
 10
-9.4357466044
 20
-21.4778144719
 10
-9.3525970317
 20
-21.5747235474
 10
-9.2758187117
 20
-21.6767209971
 10
-9.2057202391
 20
-21.783388009
  0
LWPOLYLINE
  5
2B0
100
AcDbEntity
  8
0
100
AcDbPolyline
 62
7
  6
CONTINUOUS
 90
19
 70
0
 10
-20.1594220549
 20
-10.2357002284
 10
-20.2490368644
 20
-10.0780698204
 10
-20.3502632592
 20
-9.9312644985
 10
-20.4631012393
 20
-9.7952842626
 10
-20.5886323457
 20
-9.669271549
 10
-20.7257750374
 20
-9.5540839214
 10
-20.8712846912
 20
-9.4522940713
 10
-21.0253282066
 20
-9.3642007259
 10
-21.1877386839
 20
-9.289505158
 10
-21.3547708015
 20
-9.2298838771
 10
-21.526523264
 20
-9.1856584419
 10
-21.7028973666
 20
-9.1565072936
 10
-21.8798516729
 20
-9.143142265
 10
-22.0573945094
 20
-9.1458944249
 10
-22.2355175496
 20
-9.1644327044
 10
-22.4101543779
 20
-9.1984757301
 10
-22.5799495223
 20
-9.2479297107
 10
-22.7462584548
 20
-9.3128884374
 10
-22.9090811754
 20
-9.3933519103
  0
LINE
  5
2B1
100
AcDbEntity
  8
0
100
AcDbLine
 62
253
  6
CONTINUOUS
 10
-23.0467723432
 20
-10.6041048634
 11
-23.1920159052
 21
-10.3420785414
  0
LINE
  5
2B2
100
AcDbEntity
  8
0
100
AcDbLine
 62
253
  6
CONTINUOUS
 10
-29.1006499741
 20
13.8977724134
 11
-29.2845555055
 21
14.4034312888
  0
LINE
  5
2B3
100
AcDbEntity
  8
0
100
AcDbLine
 62
253
  6
CONTINUOUS
 10
-29.6795818634
 20
14.2635260445
 11
-29.4990244507
 21
13.7556210095
  0
LINE
  5
2B4
100
AcDbEntity
  8
0
100
AcDbLine
 62
253
  6
CONTINUOUS
 10
-12.1448588367
 20
-31.4953645205
 11
-12.4591734964
 21
-30.606677866
  0
LWPOLYLINE
  5
2B5
100
AcDbEntity
  8
0
100
AcDbPolyline
 62
7
  6
CONTINUOUS
 90
3
 70
0
 10
-14.2719770346
 20
-29.6803184025
 10
-14.4120647082
 20
-29.2740993271
 10
-14.4295015946
 20
-29.2231052945
  0
LWPOLYLINE
  5
2B6
100
AcDbEntity
  8
0
100
AcDbPolyline
 62
7
  6
CONTINUOUS
 90
3
 70
0
 10
-15.3081193168
 20
-31.0152538847
 10
-15.2897192242
 20
-31.069050923
 10
-15.1418334145
 20
-31.4977918027
  0
LINE
  5
2B7
100
AcDbEntity
  8
0
100
AcDbLine
 62
7
  6
CONTINUOUS
 10
-32.5630630408
 20
31.7447535369
 11
-32.3556049117
 21
30.9722454863
  0
LINE
  5
2B8
100
AcDbEntity
  8
0
100
AcDbLine
 62
7
  6
CONTINUOUS
 10
-32.1834704083
 20
31.0716273882
 11
-32.3905256443
 21
31.8443680492
  0
LINE
  5
2B9
100
AcDbEntity
  8
0
100
AcDbLine
 62
253
  6
CONTINUOUS
 10
-14.0525688138
 20
-31.5511053167
 11
-14.0565480753
 21
-31.5123060384
  0
LWPOLYLINE
  5
2BA
100
AcDbEntity
  8
0
100
AcDbPolyline
 62
253
  6
CONTINUOUS
 90
37
 70
0
 10
-17.8
 20
-3.0
 10
-17.812232678
 20
-3.2654589178
 10
-17.8464834454
 20
-3.5249349425
 10
-17.9027523023
 20
-3.7784280741
 10
-17.9818771055
 20
-4.0278268452
 10
-18.0830199982
 20
-4.2712427232
 10
-18.20366741
 20
-4.5030101104
 10
-18.3443111698
 20
-4.7227880136
 10
-18.5044594487
 20
-4.9309174259
 10
-18.6801231898
 20
-5.1227557287
 10
-18.8712942182
 20
-5.2977396786
 10
-19.0779807089
 20
-5.456432519
 10
-19.2962181294
 20
-5.595881361
 10
-19.5266140683
 20
-5.7159380776
 10
-19.768560937
 20
-5.8167507957
 10
-20.0162714378
 20
-5.8958110075
 10
-20.2697308757
 20
-5.952516058
 10
-20.5289539456
 20
-5.9874686022
 10
-20.7881974353
 20
-5.9999680962
 10
-21.0473800819
 20
-5.9895699857
 10
-21.3065831483
 20
-5.9567188251
 10
-21.5603072105
 20
-5.902047734
 10
-21.8085643131
 20
-5.8250755203
 10
-22.0513424115
 20
-5.7262833761
 10
-22.283105949
 20
-5.607747997
 10
-22.5034984462
 20
-5.4692021996
 10
-22.7128763825
 20
-5.3109131672
 10
-22.9067736392
 20
-5.1357591464
 10
-23.085169398
 20
-4.9430407808
 10
-23.2480844773
 20
-4.7334574266
 10
-23.3911152133
 20
-4.5119853999
 10
-23.5136426477
 20
-4.2781887964
 10
-23.6162857389
 20
-4.0325035203
 10
-23.6964976986
 20
-3.7812135998
 10
-23.7534295972
 20
-3.5264137109
 10
-23.7879303644
 20
-3.2660091777
 10
-23.8
 20
-3.0
  0
LINE
  5
2BB
100
AcDbEntity
  8
0
100
AcDbLine
 62
7
  6
CONTINUOUS
 10
-25.7726161335
 20
-14.4719530435
 11
-25.7503029073
 21
-14.3934672744
  0
LINE
  5
2BC
100
AcDbEntity
  8
0
100
AcDbLine
 62
253
  6
CONTINUOUS
 10
-23.1920159045
 20
-10.3420785411
 11
-22.9085315995
 21
-9.3930472756
  0
LINE
  5
2BD
100
AcDbEntity
  8
0
100
AcDbLine
 62
253
  6
CONTINUOUS
 10
8.1812345234
 20
23.3687303644
 11
9.0866055217
 21
23.6918887915
  0
LINE
  5
2BE
100
AcDbEntity
  8
0
100
AcDbLine
 62
7
  6
CONTINUOUS
 10
13.026074802
 20
26.4683088857
 11
13.1032852067
 21
26.4946991539
  0
LINE
  5
2BF
100
AcDbEntity
  8
0
100
AcDbLine
 62
7
  6
CONTINUOUS
 10
27.7482835831
 20
-16.4345750841
 11
28.03742048
 21
-16.3977382341
  0
LINE
  5
2C0
100
AcDbEntity
  8
0
100
AcDbLine
 62
7
  6
CONTINUOUS
 10
2.325
 20
-18.0
 11
2.15
 21
-18.0
  0
LINE
  5
2C1
100
AcDbEntity
  8
0
100
AcDbLine
 62
7
  6
CONTINUOUS
 10
0.75
 20
-18.0
 11
0.6333337784
 21
-18.0
  0
LINE
  5
2C2
100
AcDbEntity
  8
0
100
AcDbLine
 62
7
  6
CONTINUOUS
 10
-0.65
 20
-18.0
 11
-0.825
 21
-18.0
  0
LINE
  5
2C3
100
AcDbEntity
  8
0
100
AcDbLine
 62
7
  6
CONTINUOUS
 10
-1.6416668892
 20
-18.0
 11
-1.8166668892
 21
-18.0
  0
LINE
  5
2C4
100
AcDbEntity
  8
0
100
AcDbLine
 62
7
  6
CONTINUOUS
 10
-3.6833331108
 20
-18.0
 11
-3.8583331108
 21
-18.0
  0
LINE
  5
2C5
100
AcDbEntity
  8
0
100
AcDbLine
 62
7
  6
CONTINUOUS
 10
-5.4333334446
 20
-18.0
 11
-5.6083334446
 21
-18.0
  0
LINE
  5
2C6
100
AcDbEntity
  8
0
100
AcDbLine
 62
7
  6
CONTINUOUS
 10
-6.425
 20
-18.0
 11
-6.6
 21
-18.0
  0
LINE
  5
2C7
100
AcDbEntity
  8
0
100
AcDbLine
 62
7
  6
CONTINUOUS
 10
-6.8333334446
 20
-18.0
 11
-7.0083334446
 21
-18.0
  0
LINE
  5
2C8
100
AcDbEntity
  8
0
100
AcDbLine
 62
7
  6
CONTINUOUS
 10
-7.825
 20
-18.0
 11
-8.0
 21
-18.0
  0
LINE
  5
2C9
100
AcDbEntity
  8
0
100
AcDbLine
 62
7
  6
CONTINUOUS
 10
-8.2333332777
 20
-18.0
 11
-8.4083332777
 21
-18.0
  0
LINE
  5
2CA
100
AcDbEntity
  8
0
100
AcDbLine
 62
7
  6
CONTINUOUS
 10
-9.225
 20
-18.0
 11
-9.4
 21
-18.0
  0
LINE
  5
2CB
100
AcDbEntity
  8
0
100
AcDbLine
 62
7
  6
CONTINUOUS
 10
-9.6333333611
 20
-18.0
 11
-9.8083333611
 21
-18.0
  0
LINE
  5
2CC
100
AcDbEntity
  8
0
100
AcDbLine
 62
7
  6
CONTINUOUS
 10
-10.625
 20
-18.0
 11
-10.8
 21
-18.0
  0
LINE
  5
2CD
100
AcDbEntity
  8
0
100
AcDbLine
 62
7
  6
CONTINUOUS
 10
0.6041662216
 20
-17.7872340381
 11
0.7791662216
 21
-17.7872340381
  0
LINE
  5
2CE
100
AcDbEntity
  8
0
100
AcDbLine
 62
7
  6
CONTINUOUS
 10
0.225
 20
-17.5319148898
 11
0.3708331108
 21
-17.5319148898
  0
LINE
  5
2CF
100
AcDbEntity
  8
0
100
AcDbLine
 62
7
  6
CONTINUOUS
 10
2.6166662216
 20
-17.4042553306
 11
2.325
 21
-17.4042553306
  0
LINE
  5
2D0
100
AcDbEntity
  8
0
100
AcDbLine
 62
7
  6
CONTINUOUS
 10
2.15
 20
-17.4042553306
 11
1.45
 21
-17.4042553306
  0
LINE
  5
2D1
100
AcDbEntity
  8
0
100
AcDbLine
 62
7
  6
CONTINUOUS
 10
-1.35
 20
-17.4042553306
 11
-1.6416668892
 21
-17.4042553306
  0
LINE
  5
2D2
100
AcDbEntity
  8
0
100
AcDbLine
 62
7
  6
CONTINUOUS
 10
-1.8166668892
 20
-17.4042553306
 11
-2.5166668892
 21
-17.4042553306
  0
LINE
  5
2D3
100
AcDbEntity
  8
0
100
AcDbLine
 62
7
  6
CONTINUOUS
 10
-3.3916668892
 20
-17.4042553306
 11
-3.6833331108
 21
-17.4042553306
  0
LINE
  5
2D4
100
AcDbEntity
  8
0
100
AcDbLine
 62
7
  6
CONTINUOUS
 10
-3.8583331108
 20
-17.4042553306
 11
-4.5583331108
 21
-17.4042553306
  0
LINE
  5
2D5
100
AcDbEntity
  8
0
100
AcDbLine
 62
7
  6
CONTINUOUS
 10
0.75
 20
-17.2765957713
 11
0.6041662216
 21
-17.2765957713
  0
LINE
  5
2D6
100
AcDbEntity
  8
0
100
AcDbLine
 62
7
  6
CONTINUOUS
 10
-2.75
 20
-17.2765957713
 11
-3.1583331108
 21
-17.2765957713
  0
LINE
  5
2D7
100
AcDbEntity
  8
0
100
AcDbLine
 62
7
  6
CONTINUOUS
 10
-4.7916668892
 20
-17.2765957713
 11
-5.2
 21
-17.2765957713
  0
LINE
  5
2D8
100
AcDbEntity
  8
0
100
AcDbLine
 62
7
  6
CONTINUOUS
 10
-4.3541668892
 20
-17.1489361525
 11
-3.8583331108
 21
-17.1489361525
  0
LINE
  5
2D9
100
AcDbEntity
  8
0
100
AcDbLine
 62
7
  6
CONTINUOUS
 10
-3.6833331108
 20
-17.1489361525
 11
-3.3916668892
 21
-17.1489361525
  0
LINE
  5
2DA
100
AcDbEntity
  8
0
100
AcDbLine
 62
7
  6
CONTINUOUS
 10
-2.3125
 20
-17.1489361525
 11
-1.8166668892
 21
-17.1489361525
  0
LINE
  5
2DB
100
AcDbEntity
  8
0
100
AcDbLine
 62
7
  6
CONTINUOUS
 10
-1.6416668892
 20
-17.1489361525
 11
-1.35
 21
-17.1489361525
  0
LINE
  5
2DC
100
AcDbEntity
  8
0
100
AcDbLine
 62
7
  6
CONTINUOUS
 10
1.6541662216
 20
-17.1489361525
 11
2.15
 21
-17.1489361525
  0
LINE
  5
2DD
100
AcDbEntity
  8
0
100
AcDbLine
 62
7
  6
CONTINUOUS
 10
2.325
 20
-17.1489361525
 11
2.6166662216
 21
-17.1489361525
  0
LINE
  5
2DE
100
AcDbEntity
  8
0
100
AcDbLine
 62
7
  6
CONTINUOUS
 10
-5.2
 20
-17.0638297796
 11
-4.7916668892
 21
-17.0638297796
  0
LINE
  5
2DF
100
AcDbEntity
  8
0
100
AcDbLine
 62
7
  6
CONTINUOUS
 10
-3.1583331108
 20
-17.0638297796
 11
-2.75
 21
-17.0638297796
  0
LINE
  5
2E0
100
AcDbEntity
  8
0
100
AcDbLine
 62
7
  6
CONTINUOUS
 10
0.575
 20
-17.0638297796
 11
0.7791662216
 21
-17.0638297796
  0
LINE
  5
2E1
100
AcDbEntity
  8
0
100
AcDbLine
 62
7
  6
CONTINUOUS
 10
-2.1125
 20
-21.0
 11
-1.9666665554
 21
-21.0425531864
  0
LINE
  5
2E2
100
AcDbEntity
  8
0
100
AcDbLine
 62
7
  6
CONTINUOUS
 10
0.6333337784
 20
-18.0
 11
0.4875
 21
-17.9574468099
  0
LINE
  5
2E3
100
AcDbEntity
  8
0
100
AcDbLine
 62
7
  6
CONTINUOUS
 10
-1.9958334446
 20
-21.2978723049
 11
-2.1125
 21
-21.2553191185
  0
LINE
  5
2E4
100
AcDbEntity
  8
0
100
AcDbLine
 62
7
  6
CONTINUOUS
 10
-3.3375
 20
-21.2553191185
 11
-3.425
 21
-21.2127659321
  0
LINE
  5
2E5
100
AcDbEntity
  8
0
100
AcDbLine
 62
7
  6
CONTINUOUS
 10
-4.5916666806
 20
-21.9787234068
 11
-5.0
 21
-21.6808511019
  0
LINE
  5
2E6
100
AcDbEntity
  8
0
100
AcDbLine
 62
7
  6
CONTINUOUS
 10
-2.5208332777
 20
-22.9574468099
 11
-2.6375
 21
-22.8723404259
  0
LINE
  5
2E7
100
AcDbEntity
  8
0
100
AcDbLine
 62
7
  6
CONTINUOUS
 10
-1.2666665554
 20
-21.9787234068
 11
-0.8583334446
 21
-22.2765957713
  0
LINE
  5
2E8
100
AcDbEntity
  8
0
100
AcDbLine
 62
7
  6
CONTINUOUS
 10
-1.9666665554
 20
-21.0425531864
 11
-1.85
 21
-21.1276595592
  0
LINE
  5
2E9
100
AcDbEntity
  8
0
100
AcDbLine
 62
7
  6
CONTINUOUS
 10
-4.9416666649
 20
-21.5531915426
 11
-4.3875
 21
-21.9787234068
  0
LINE
  5
2EA
100
AcDbEntity
  8
0
100
AcDbLine
 62
7
  6
CONTINUOUS
 10
-0.9166665554
 20
-22.4042553306
 11
-1.4708334446
 21
-21.9787234068
  0
LINE
  5
2EB
100
AcDbEntity
  8
0
100
AcDbLine
 62
7
  6
CONTINUOUS
 10
-2.5791667223
 20
-22.6170212626
 11
-2.4916667223
 21
-22.7021276653
  0
LWPOLYLINE
  5
2EC
100
AcDbEntity
  8
0
100
AcDbPolyline
 62
253
  6
CONTINUOUS
 90
13
 70
0
 10
-9.2057295932
 20
-21.7833943391
 10
-9.1162377831
 20
-21.9359404487
 10
-9.0418318245
 20
-22.0933267745
 10
-8.9825221383
 20
-22.2540717615
 10
-8.9383192364
 20
-22.4160778275
 10
-8.9086923723
 20
-22.5784477722
 10
-8.8930802402
 20
-22.7416723015
 10
-8.8913434884
 20
-22.904228787
 10
-8.9031549064
 20
-23.0650035367
 10
-8.9285561115
 20
-23.2252675664
 10
-8.967802353
 20
-23.3845239574
 10
-9.0206114596
 20
-23.540518937
 10
-9.0866063764
 20
-23.6918883462
  0
LWPOLYLINE
  5
2ED
100
AcDbEntity
  8
0
100
AcDbPolyline
 62
253
  6
CONTINUOUS
 90
13
 70
0
 10
-9.342919931
 20
-21.9971936913
 10
-9.2654839799
 20
-22.1309370758
 10
-9.2010815231
 20
-22.2658157644
 10
-9.1497125605
 20
-22.4018297572
 10
-9.1117773217
 20
-22.5395882954
 10
-9.0868755772
 20
-22.6784821378
 10
-9.0738066382
 20
-22.8166835602
 10
-9.0723029607
 20
-22.9539387772
 10
-9.0826320887
 20
-23.0905015742
 10
-9.104395965
 20
-23.2253055826
 10
-9.1374619038
 20
-23.3579953462
 10
-9.181962591
 20
-23.4889263211
 10
-9.2378980265
 20
-23.6180985074
  0
LINE
  5
2EE
100
AcDbEntity
  8
0
100
AcDbLine
 62
7
  6
CONTINUOUS
 10
-10.3041666806
 20
-16.9787234068
 11
-10.8
 21
-16.0
  0
LINE
  5
2EF
100
AcDbEntity
  8
0
100
AcDbLine
 62
7
  6
CONTINUOUS
 10
-9.8083333611
 20
-18.0
 11
-10.2166666806
 21
-17.1914893389
  0
LINE
  5
2F0
100
AcDbEntity
  8
0
100
AcDbLine
 62
7
  6
CONTINUOUS
 10
-10.625
 20
-16.0
 11
-10.2166666806
 21
-16.8085106611
  0
LWPOLYLINE
  5
2F1
100
AcDbEntity
  8
0
100
AcDbPolyline
 62
253
  6
CONTINUOUS
 90
7
 70
0
 10
-14.0565480753
 20
-31.5123060384
 10
-14.0591170452
 20
-31.4926640238
 10
-14.0615056207
 20
-31.4723254304
 10
-14.0635011063
 20
-31.4526421401
 10
-14.0656873418
 20
-31.4334685339
 10
-14.0681351609
 20
-31.4131139167
 10
-14.0705163708
 20
-31.3907749036
  0
LWPOLYLINE
  5
2F2
100
AcDbEntity
  8
0
100
AcDbPolyline
 62
253
  6
CONTINUOUS
 90
10
 70
0
 10
-14.0365523174
 20
-31.6880640903
 10
-14.0367498638
 20
-31.6839565559
 10
-14.0378062821
 20
-31.6767315242
 10
-14.0393535274
 20
-31.6667565913
 10
-14.0405639055
 20
-31.6544361977
 10
-14.041650786
 20
-31.6402112418
 10
-14.0435558929
 20
-31.6244037365
 10
-14.0457106392
 20
-31.6072593985
 10
-14.0476551651
 20
-31.589174646
 10
-14.0525688138
 20
-31.5511053167
  0
LINE
  5
2F3
100
AcDbEntity
  8
0
100
AcDbLine
 62
253
  6
CONTINUOUS
 10
-14.25
 20
44.75
 11
-14.25
 21
44.6975922207
  0
LINE
  5
2F4
100
AcDbEntity
  8
0
100
AcDbLine
 62
253
  6
CONTINUOUS
 10
-14.25
 20
44.1387984284
 11
-14.25
 21
39.1869360725
  0
LINE
  5
2F5
100
AcDbEntity
  8
0
100
AcDbLine
 62
253
  6
CONTINUOUS
 10
-14.25
 20
-39.1869360725
 11
-14.25
 21
-44.1387984284
  0
LINE
  5
2F6
100
AcDbEntity
  8
0
100
AcDbLine
 62
253
  6
CONTINUOUS
 10
-14.25
 20
-44.6975922207
 11
-14.25
 21
-44.75
  0
LWPOLYLINE
  5
2F7
100
AcDbEntity
  8
0
100
AcDbPolyline
 62
7
  6
CONTINUOUS
 90
15
 70
0
 10
-15.3081193168
 20
-31.0152538847
 10
-15.3081031972
 20
-30.9906143532
 10
-15.2994167598
 20
-30.9490942292
 10
-15.2820600045
 20
-30.8906935129
 10
-15.2556694558
 20
-30.8144686767
 10
-15.2206085893
 20
-30.7213632481
 10
-15.1779678313
 20
-30.6142078092
 10
-15.1275466041
 20
-30.4926269993
 10
-15.0695454853
 20
-30.3569961791
 10
-15.005656635
 20
-30.2112720128
 10
-14.9357032653
 20
-30.0551431539
 10
-14.859862164
 20
-29.8889209488
 10
-14.7803558542
 20
-29.7174961015
 10
-14.6979251769
 20
-29.5424988465
 10
-14.6118292912
 20
-29.3622989493
  0
LWPOLYLINE
  5
2F8
100
AcDbEntity
  8
0
100
AcDbPolyline
 62
253
  6
CONTINUOUS
 90
10
 70
0
 10
-13.9525403293
 20
-31.4483161022
 10
-13.9538988435
 20
-31.4888950967
 10
-13.9575632134
 20
-31.5275530495
 10
-13.9634641
 20
-31.5635226972
 10
-13.9714905499
 20
-31.5960981276
 10
-13.981484761
 20
-31.6246168109
 10
-13.9932391683
 20
-31.6484867333
 10
-14.0065140278
 20
-31.6672373406
 10
-14.0210480597
 20
-31.680514357
 10
-14.0365523174
 20
-31.6880640903
  0
LINE
  5
2F9
100
AcDbEntity
  8
0
100
AcDbLine
 62
253
  6
CONTINUOUS
 10
-20.4692406217
 20
-11.1345483122
 11
-20.1593843373
 21
-10.2356811089
  0
LINE
  5
2FA
100
AcDbEntity
  8
0
100
AcDbLine
 62
7
  6
CONTINUOUS
 10
-4.0434971211
 20
31.3906455976
 11
-4.0203903827
 21
31.4552040707
  0
LWPOLYLINE
  5
2FB
100
AcDbEntity
  8
0
100
AcDbPolyline
 62
7
  6
CONTINUOUS
 90
15
 70
0
 10
-25.7726161335
 20
-14.4719530435
 10
-25.7866429908
 20
-14.4920651521
 10
-25.81745949
 20
-14.5210338655
 10
-25.8650656313
 20
-14.5588591839
 10
-25.9302991426
 20
-14.6061045077
 10
-26.0123222959
 20
-14.6622064363
 10
-26.108621907
 20
-14.7254747686
 10
-26.2195793859
 20
-14.7961033817
 10
-26.3448133226
 20
-14.8738983984
 10
-26.4806663024
 20
-14.9565879862
 10
-26.6274635585
 20
-15.044326785
 10
-26.7848798578
 20
-15.1369601549
 10
-26.9482820859
 20
-15.2317523438
 10
-27.1161258713
 20
-15.3277914341
 10
-27.2899555855
 20
-15.4259893433
  0
LINE
  5
2FC
100
AcDbEntity
  8
0
100
AcDbLine
 62
7
  6
CONTINUOUS
 10
-28.0776629742
 20
-3.4506690063
 11
-28.1340719255
 21
-3.4923483348
  0
LINE
  5
2FD
100
AcDbEntity
  8
0
100
AcDbLine
 62
253
  6
CONTINUOUS
 10
9.460895647
 20
21.9396528074
 11
9.20572983
 21
21.7833938847
  0
LINE
  5
2FE
100
AcDbEntity
  8
0
100
AcDbLine
 62
253
  6
CONTINUOUS
 10
9.1665928067
 20
20.6674507605
 11
10.0480116244
 21
21.0239254218
  0
LWPOLYLINE
  5
2FF
100
AcDbEntity
  8
0
100
AcDbPolyline
 62
7
  6
CONTINUOUS
 90
13
 70
0
 10
-28.4278743231
 20
-15.9391456194
 10
-28.4190176979
 20
-15.9381402267
 10
-28.4040886077
 20
-15.9335518756
 10
-28.3830870525
 20
-15.9253805664
 10
-28.3555063952
 20
-15.9133858629
 10
-28.3218532728
 20
-15.8978082012
 10
-28.2836475973
 20
-15.879368889
 10
-28.2407541854
 20
-15.8579841616
 10
-28.1933082204
 20
-15.8337377837
 10
-28.1432351634
 20
-15.8076023569
 10
-28.091176835
 20
-15.7799020817
 10
-28.0364914147
 20
-15.7503127576
 10
-27.9791789025
 20
-15.7188343846
  0
LWPOLYLINE
  5
300
100
AcDbEntity
  8
0
100
AcDbPolyline
 62
7
  6
CONTINUOUS
 90
13
 70
0
 10
-30.6621628332
 20
-16.7695491105
 10
-30.6568697045
 20
-16.76895734
 10
-30.6479312025
 20
-16.7662147931
 10
-30.6353473273
 20
-16.7613214699
 10
-30.6188139962
 20
-16.7541330721
 10
-30.5986352919
 20
-16.7447938979
 10
-30.5757234622
 20
-16.7337368427
 10
-30.5499976188
 20
-16.7209117667
 10
-30.5215386501
 20
-16.7063688097
 10
-30.4915014692
 20
-16.6906912852
 10
-30.4602710471
 20
-16.6740736313
 10
-30.4274624128
 20
-16.6563214099
 10
-22.2307195592
 20
-12.1129668053
  0
LINE
  5
301
100
AcDbEntity
  8
0
100
AcDbLine
 62
7
  6
CONTINUOUS
 10
0.7791662216
 20
-16.2127659321
 11
0.575
 21
-16.2127659321
  0
LINE
  5
302
100
AcDbEntity
  8
0
100
AcDbLine
 62
7
  6
CONTINUOUS
 10
-0.2416668892
 20
-16.2127659321
 11
-1.1166668892
 21
-16.2127659321
  0
LINE
  5
303
100
AcDbEntity
  8
0
100
AcDbLine
 62
7
  6
CONTINUOUS
 10
-10.8
 20
-16.0
 11
-10.625
 21
-16.0
  0
LINE
  5
304
100
AcDbEntity
  8
0
100
AcDbLine
 62
7
  6
CONTINUOUS
 10
-9.8083333611
 20
-16.0
 11
-9.6333333611
 21
-16.0
  0
LINE
  5
305
100
AcDbEntity
  8
0
100
AcDbLine
 62
7
  6
CONTINUOUS
 10
-9.4
 20
-16.0
 11
-9.225
 21
-16.0
  0
LINE
  5
306
100
AcDbEntity
  8
0
100
AcDbLine
 62
7
  6
CONTINUOUS
 10
-8.4083332777
 20
-16.0
 11
-8.2333332777
 21
-16.0
  0
LINE
  5
307
100
AcDbEntity
  8
0
100
AcDbLine
 62
7
  6
CONTINUOUS
 10
-8.0
 20
-16.0
 11
-7.825
 21
-16.0
  0
LINE
  5
308
100
AcDbEntity
  8
0
100
AcDbLine
 62
7
  6
CONTINUOUS
 10
-7.0083334446
 20
-16.0
 11
-6.8333334446
 21
-16.0
  0
LINE
  5
309
100
AcDbEntity
  8
0
100
AcDbLine
 62
7
  6
CONTINUOUS
 10
-6.6
 20
-16.0
 11
-6.425
 21
-16.0
  0
LINE
  5
30A
100
AcDbEntity
  8
0
100
AcDbLine
 62
7
  6
CONTINUOUS
 10
-5.6083334446
 20
-16.0
 11
-5.4333334446
 21
-16.0
  0
LINE
  5
30B
100
AcDbEntity
  8
0
100
AcDbLine
 62
7
  6
CONTINUOUS
 10
-3.8583331108
 20
-16.0
 11
-3.6833331108
 21
-16.0
  0
LINE
  5
30C
100
AcDbEntity
  8
0
100
AcDbLine
 62
7
  6
CONTINUOUS
 10
-1.8166668892
 20
-16.0
 11
-1.6416668892
 21
-16.0
  0
LINE
  5
30D
100
AcDbEntity
  8
0
100
AcDbLine
 62
7
  6
CONTINUOUS
 10
-1.1166668892
 20
-16.0
 11
-0.0666668892
 21
-16.0
  0
LINE
  5
30E
100
AcDbEntity
  8
0
100
AcDbLine
 62
7
  6
CONTINUOUS
 10
0.6041662216
 20
-16.0
 11
0.75
 21
-16.0
  0
LINE
  5
30F
100
AcDbEntity
  8
0
100
AcDbLine
 62
7
  6
CONTINUOUS
 10
2.15
 20
-16.0
 11
2.325
 21
-16.0
  0
LINE
  5
310
100
AcDbEntity
  8
0
100
AcDbLine
 62
253
  6
CONTINUOUS
 10
-44.75
 20
-14.25
 11
-44.6975922207
 21
-14.25
  0
LINE
  5
311
100
AcDbEntity
  8
0
100
AcDbLine
 62
253
  6
CONTINUOUS
 10
-44.1387984284
 20
-14.25
 11
-39.1869360725
 21
-14.25
  0
LINE
  5
312
100
AcDbEntity
  8
0
100
AcDbLine
 62
253
  6
CONTINUOUS
 10
39.1869360725
 20
-14.25
 11
44.1387984284
 21
-14.25
  0
LINE
  5
313
100
AcDbEntity
  8
0
100
AcDbLine
 62
253
  6
CONTINUOUS
 10
44.6975922207
 20
-14.25
 11
44.75
 21
-14.25
  0
LINE
  5
314
100
AcDbEntity
  8
0
100
AcDbLine
 62
7
  6
CONTINUOUS
 10
25.6150026262
 20
-20.2200480309
 11
25.1892180097
 21
-20.1386642074
  0
LINE
  5
315
100
AcDbEntity
  8
0
100
AcDbLine
 62
7
  6
CONTINUOUS
 10
26.9387108524
 20
-20.5234266033
 11
27.3413884115
 21
-20.6279174841
  0
LINE
  5
316
100
AcDbEntity
  8
0
100
AcDbLine
 62
7
  6
CONTINUOUS
 10
0.6041662216
 20
-17.2765957713
 11
0.4583337784
 21
-17.2340425253
  0
LINE
  5
317
100
AcDbEntity
  8
0
100
AcDbLine
 62
7
  6
CONTINUOUS
 10
0.75
 20
-16.0
 11
0.8958337784
 21
-16.0425531864
  0
LINE
  5
318
100
AcDbEntity
  8
0
100
AcDbLine
 62
7
  6
CONTINUOUS
 10
26.2675383864
 20
-24.884178961
 11
25.8779005083
 21
-24.7660574882
  0
LINE
  5
319
100
AcDbEntity
  8
0
100
AcDbLine
 62
7
  6
CONTINUOUS
 10
-31.3906455976
 20
-4.0434971211
 11
-31.4552040707
 21
-4.0203903827
  0
LINE
  5
31A
100
AcDbEntity
  8
0
100
AcDbLine
 62
7
  6
CONTINUOUS
 10
0.5166662216
 20
-17.7446808517
 11
0.6041662216
 21
-17.7872340381
  0
LINE
  5
31B
100
AcDbEntity
  8
0
100
AcDbLine
 62
7
  6
CONTINUOUS
 10
0.4875
 20
-17.0212765932
 11
0.575
 21
-17.0638297796
  0
LINE
  5
31C
100
AcDbEntity
  8
0
100
AcDbLine
 62
7
  6
CONTINUOUS
 10
0.8666662216
 20
-16.2553191185
 11
0.7791662216
 21
-16.2127659321
  0
LWPOLYLINE
  5
31D
100
AcDbEntity
  8
0
100
AcDbPolyline
 62
253
  6
CONTINUOUS
 90
9
 70
0
 10
18.0960753549
 20
-26.5621831745
 10
18.0967739113
 20
-26.5625371123
 10
18.0978350555
 20
-26.5634109653
 10
18.0992587876
 20
-26.5648047334
 10
18.1010470754
 20
-26.5667206454
 10
18.1031979512
 20
-26.5691564726
 10
18.1057055107
 20
-26.5721055288
 10
18.1085677861
 20
-26.5755655852
 10
18.1117867454
 20
-26.5795388707
  0
LINE
  5
31E
100
AcDbEntity
  8
0
100
AcDbLine
 62
7
  6
CONTINUOUS
 10
0.4875
 20
-17.9574468099
 11
0.3416668892
 21
-17.8297872394
  0
LINE
  5
31F
100
AcDbEntity
  8
0
100
AcDbLine
 62
7
  6
CONTINUOUS
 10
0.4583337784
 20
-17.2340425253
 11
0.3125
 21
-17.106382966
  0
LINE
  5
320
100
AcDbEntity
  8
0
100
AcDbLine
 62
7
  6
CONTINUOUS
 10
-1.9083334446
 20
-21.3829786778
 11
-1.9958334446
 21
-21.2978723049
  0
LINE
  5
321
100
AcDbEntity
  8
0
100
AcDbLine
 62
7
  6
CONTINUOUS
 10
-3.3083332777
 20
-21.0425531864
 11
-3.1916667223
 21
-21.1702127457
  0
LINE
  5
322
100
AcDbEntity
  8
0
100
AcDbLine
 62
7
  6
CONTINUOUS
 10
3.4506690063
 20
-28.0776629742
 11
3.4923483348
 21
-28.1340719255
  0
LWPOLYLINE
  5
323
100
AcDbEntity
  8
0
100
AcDbPolyline
 62
253
  6
CONTINUOUS
 90
13
 70
0
 10
-25.1280320603
 20
13.4883498144
 10
-25.1180642316
 20
13.473967339
 10
-25.1118208681
 20
13.4562687959
 10
-25.1094066822
 20
13.4355510211
 10
-25.1108621639
 20
13.4121614881
 10
-25.1161629022
 20
13.3864924809
 10
-25.1252199944
 20
13.358974514
 10
-25.1378815371
 20
13.3300691123
 10
-25.1539351738
 20
13.3002610705
 10
-25.1731116567
 20
13.2700503221
 10
-25.1950893622
 20
13.2399435547
 10
-25.2194996855
 20
13.2104457121
 10
-25.2459332222
 20
13.1820515251
  0
LINE
  5
324
100
AcDbEntity
  8
0
100
AcDbLine
 62
7
  6
CONTINUOUS
 10
-2.6375
 20
-22.8723404259
 11
-2.7541667223
 21
-22.7021276653
  0
LINE
  5
325
100
AcDbEntity
  8
0
100
AcDbLine
 62
7
  6
CONTINUOUS
 10
-3.2791667223
 20
-21.3404254913
 11
-3.3375
 21
-21.2553191185
  0
LINE
  5
326
100
AcDbEntity
  8
0
100
AcDbLine
 62
7
  6
CONTINUOUS
 10
-1.85
 20
-21.1276595592
 11
-1.7333334446
 21
-21.2978723049
  0
LINE
  5
327
100
AcDbEntity
  8
0
100
AcDbLine
 62
7
  6
CONTINUOUS
 10
-3.1916667223
 20
-21.1702127457
 11
-3.1041667223
 21
-21.3404254913
  0
LINE
  5
328
100
AcDbEntity
  8
0
100
AcDbLine
 62
7
  6
CONTINUOUS
 10
-8.9041667223
 20
-16.9787234068
 11
-9.4
 21
-16.0
  0
LINE
  5
329
100
AcDbEntity
  8
0
100
AcDbLine
 62
7
  6
CONTINUOUS
 10
-7.5041665554
 20
-16.9787234068
 11
-8.0
 21
-16.0
  0
LINE
  5
32A
100
AcDbEntity
  8
0
100
AcDbLine
 62
7
  6
CONTINUOUS
 10
-6.1041665554
 20
-16.9787234068
 11
-6.6
 21
-16.0
  0
LINE
  5
32B
100
AcDbEntity
  8
0
100
AcDbLine
 62
7
  6
CONTINUOUS
 10
-8.4083332777
 20
-18.0
 11
-8.8166667223
 21
-17.1914893389
  0
LINE
  5
32C
100
AcDbEntity
  8
0
100
AcDbLine
 62
7
  6
CONTINUOUS
 10
-9.225
 20
-16.0
 11
-8.8166667223
 21
-16.8085106611
  0
LINE
  5
32D
100
AcDbEntity
  8
0
100
AcDbLine
 62
7
  6
CONTINUOUS
 10
-7.0083334446
 20
-18.0
 11
-7.4166665554
 21
-17.1914893389
  0
LINE
  5
32E
100
AcDbEntity
  8
0
100
AcDbLine
 62
7
  6
CONTINUOUS
 10
-7.825
 20
-16.0
 11
-7.4166665554
 21
-16.8085106611
  0
LINE
  5
32F
100
AcDbEntity
  8
0
100
AcDbLine
 62
7
  6
CONTINUOUS
 10
-5.6083334446
 20
-18.0
 11
-6.0166665554
 21
-17.1914893389
  0
LINE
  5
330
100
AcDbEntity
  8
0
100
AcDbLine
 62
7
  6
CONTINUOUS
 10
-6.425
 20
-16.0
 11
-6.0166665554
 21
-16.8085106611
  0
LINE
  5
331
100
AcDbEntity
  8
0
100
AcDbLine
 62
7
  6
CONTINUOUS
 10
-10.1291666806
 20
-16.9787234068
 11
-9.6333333611
 21
-18.0
  0
LINE
  5
332
100
AcDbEntity
  8
0
100
AcDbLine
 62
7
  6
CONTINUOUS
 10
-8.7291667223
 20
-16.9787234068
 11
-8.2333332777
 21
-18.0
  0
LINE
  5
333
100
AcDbEntity
  8
0
100
AcDbLine
 62
7
  6
CONTINUOUS
 10
-7.3291665554
 20
-16.9787234068
 11
-6.8333334446
 21
-18.0
  0
LINE
  5
334
100
AcDbEntity
  8
0
100
AcDbLine
 62
7
  6
CONTINUOUS
 10
-5.9291665554
 20
-16.9787234068
 11
-5.4333334446
 21
-18.0
  0
LINE
  5
335
100
AcDbEntity
  8
0
100
AcDbLine
 62
7
  6
CONTINUOUS
 10
-4.9416666649
 20
-22.4042553306
 11
-5.0
 21
-22.2765957713
  0
LINE
  5
336
100
AcDbEntity
  8
0
100
AcDbLine
 62
7
  6
CONTINUOUS
 10
-24.7660574882
 20
25.8779005083
 11
-24.884178961
 21
26.2675383864
  0
LINE
  5
337
100
AcDbEntity
  8
0
100
AcDbLine
 62
7
  6
CONTINUOUS
 10
-20.5234266033
 20
26.9387108524
 11
-20.6279174841
 21
27.3413884115
  0
LWPOLYLINE
  5
338
100
AcDbEntity
  8
0
100
AcDbPolyline
 62
253
  6
CONTINUOUS
 90
10
 70
0
 10
-9.20572983
 20
-21.7833938847
 10
-9.2021525398
 20
-21.8002854347
 10
-9.2036894367
 20
-21.8199310431
 10
-9.2103101957
 20
-21.8419423501
 10
-9.2218840185
 20
-21.8658842427
 10
-9.2381821765
 20
-21.8912834859
 10
-9.2588824915
 20
-21.917638116
 10
-9.2835757786
 20
-21.9444273034
 10
-9.3117739717
 20
-21.9711216111
 10
-9.3429197041
 20
-21.9971935122
  0
LINE
  5
339
100
AcDbEntity
  8
0
100
AcDbLine
 62
7
  6
CONTINUOUS
 10
-20.2200480309
 20
25.6150026262
 11
-20.1745328486
 21
25.3798222872
  0
LWPOLYLINE
  5
33A
100
AcDbEntity
  8
0
100
AcDbPolyline
 62
7
  6
CONTINUOUS
 90
3
 70
0
 10
-20.1745328486
 20
25.3798222872
 10
-20.1475499145
 20
25.2370791426
 10
-20.1386642074
 20
25.1892180097
  0
LINE
  5
33B
100
AcDbEntity
  8
0
100
AcDbLine
 62
7
  6
CONTINUOUS
 10
3.0
 20
22.7765957117
 11
3.0291666675
 21
22.8191488981
  0
LINE
  5
33C
100
AcDbEntity
  8
0
100
AcDbLine
 62
7
  6
CONTINUOUS
 10
3.0
 20
22.2659574747
 11
3.175
 21
22.5212765932
  0
LINE
  5
33D
100
AcDbEntity
  8
0
100
AcDbLine
 62
7
  6
CONTINUOUS
 10
3.2333333403
 20
22.606382966
 11
3.3791666806
 21
22.8191488981
  0
LINE
  5
33E
100
AcDbEntity
  8
0
100
AcDbLine
 62
7
  6
CONTINUOUS
 10
3.4083333194
 20
22.7765957117
 11
3.2333333403
 21
22.5212765932
  0
LINE
  5
33F
100
AcDbEntity
  8
0
100
AcDbLine
 62
7
  6
CONTINUOUS
 10
3.175
 20
22.4361702204
 11
3.0291666675
 21
22.2234042287
  0
LINE
  5
340
100
AcDbEntity
  8
0
100
AcDbLine
 62
7
  6
CONTINUOUS
 10
3.6416666806
 20
22.7765957117
 11
3.6708333194
 21
22.8191488981
  0
LINE
  5
341
100
AcDbEntity
  8
0
100
AcDbLine
 62
7
  6
CONTINUOUS
 10
3.4083333194
 20
22.2659574747
 11
3.3791666806
 21
22.2234042287
  0
LINE
  5
342
100
AcDbEntity
  8
0
100
AcDbLine
 62
7
  6
CONTINUOUS
 10
3.875
 20
22.606382966
 11
4.0208333612
 21
22.8191488981
  0
LINE
  5
343
100
AcDbEntity
  8
0
100
AcDbLine
 62
7
  6
CONTINUOUS
 10
3.6416666806
 20
22.2659574747
 11
3.8166666389
 21
22.5212765932
  0
LINE
  5
344
100
AcDbEntity
  8
0
100
AcDbLine
 62
7
  6
CONTINUOUS
 10
4.05
 20
22.7765957117
 11
3.875
 21
22.5212765932
  0
LINE
  5
345
100
AcDbEntity
  8
0
100
AcDbLine
 62
7
  6
CONTINUOUS
 10
3.8166666389
 20
22.4361702204
 11
3.6708333194
 21
22.2234042287
  0
LINE
  5
346
100
AcDbEntity
  8
0
100
AcDbLine
 62
7
  6
CONTINUOUS
 10
4.2833333612
 20
22.7765957117
 11
4.3125
 21
22.8191488981
  0
LINE
  5
347
100
AcDbEntity
  8
0
100
AcDbLine
 62
7
  6
CONTINUOUS
 10
4.05
 20
22.2659574747
 11
4.0208333611
 21
22.2234042287
  0
LINE
  5
348
100
AcDbEntity
  8
0
100
AcDbLine
 62
7
  6
CONTINUOUS
 10
4.5166667223
 20
22.606382966
 11
4.6625
 21
22.8191488981
  0
LINE
  5
349
100
AcDbEntity
  8
0
100
AcDbLine
 62
7
  6
CONTINUOUS
 10
4.2833333611
 20
22.2659574747
 11
4.4583332777
 21
22.5212765932
  0
LINE
  5
34A
100
AcDbEntity
  8
0
100
AcDbLine
 62
7
  6
CONTINUOUS
 10
4.6916667223
 20
22.7765957117
 11
4.5166667223
 21
22.5212765932
  0
LINE
  5
34B
100
AcDbEntity
  8
0
100
AcDbLine
 62
7
  6
CONTINUOUS
 10
4.4583332777
 20
22.4361702204
 11
4.3125
 21
22.2234042287
  0
LINE
  5
34C
100
AcDbEntity
  8
0
100
AcDbLine
 62
7
  6
CONTINUOUS
 10
4.6916667223
 20
22.2659574747
 11
4.6625
 21
22.2234042287
  0
LINE
  5
34D
100
AcDbEntity
  8
0
100
AcDbLine
 62
7
  6
CONTINUOUS
 10
-34.1150435034
 20
-33.2877898436
 11
-34.5577395104
 21
-33.9066778495
  0
LWPOLYLINE
  5
34E
100
AcDbEntity
  8
0
100
AcDbPolyline
 62
7
  6
CONTINUOUS
 90
12
 70
0
 10
-26.947962542
 20
-14.9659047025
 10
-26.9424352583
 20
-14.9589369436
 10
-26.9306499833
 20
-14.948717242
 10
-26.912606717
 20
-14.9352455975
 10
-26.8878330432
 20
-14.918219741
 10
-26.856801378
 20
-14.8979419417
 10
-26.8209289702
 20
-14.8753190072
 10
-26.7800732388
 20
-14.8502807272
 10
-26.7343767648
 20
-14.822897312
 10
-26.6856845393
 20
-14.7942862001
 10
-26.6346115595
 20
-14.764819871
 10
-26.5805428281
 20
-14.7341258453
  0
LWPOLYLINE
  5
34F
100
AcDbEntity
  8
0
100
AcDbPolyline
 62
7
  6
CONTINUOUS
 90
13
 70
0
 10
13.7137048377
 20
27.7555067698
 10
13.7203664744
 20
27.7613758402
 10
13.7299486662
 20
27.7736657665
 10
13.7424514131
 20
27.7923765486
 10
13.7581518409
 20
27.8179957758
 10
13.7767728239
 20
27.8500358588
 10
13.7974829843
 20
27.8870340294
 10
13.8203449937
 20
27.9291363513
 10
13.8452961807
 20
27.9761967609
 10
13.8713171526
 20
28.0263142987
 10
13.8980681121
 20
28.0788553117
 10
13.9258888566
 20
28.1344534529
 10
13.9547793862
 20
28.1931087225
  0
LINE
  5
350
100
AcDbEntity
  8
0
100
AcDbLine
 62
7
  6
CONTINUOUS
 10
33.9066778495
 20
34.5577395104
 11
33.2877898436
 21
34.1150435034
  0
LINE
  5
351
100
AcDbEntity
  8
0
100
AcDbLine
 62
253
  6
CONTINUOUS
 10
23.5466235048
 20
-12.2329150058
 11
23.8506868931
 21
-12.2329150058
  0
LINE
  5
352
100
AcDbEntity
  8
0
100
AcDbLine
 62
253
  6
CONTINUOUS
 10
23.8506868931
 20
-11.8087155546
 11
23.5466235048
 21
-11.8087155546
  0
LWPOLYLINE
  5
353
100
AcDbEntity
  8
0
100
AcDbPolyline
 62
253
  6
CONTINUOUS
 90
10
 70
0
 10
18.1697367674
 20
-26.1444283006
 10
18.17060251
 20
-26.1450210559
 10
18.1719892776
 20
-26.1463599865
 10
18.1738961613
 20
-26.1484437946
 10
18.1763220513
 20
-26.1512703207
 10
18.1792648176
 20
-26.1548370973
 10
18.1827213034
 20
-26.1591413398
 10
18.1866884239
 20
-26.1641792172
 10
18.1911631774
 20
-26.1699458684
 10
18.1961418225
 20
-26.1764359498
  0
LINE
  5
354
100
AcDbEntity
  8
0
100
AcDbLine
 62
7
  6
CONTINUOUS
 10
33.2877898437
 20
-34.1150435036
 11
34.2749365943
 21
-34.8210941895
  0
LINE
  5
355
100
AcDbEntity
  8
0
100
AcDbLine
 62
7
  6
CONTINUOUS
 10
0.8958337784
 20
-16.0425531864
 11
1.0416662216
 21
-16.1702127457
  0
LINE
  5
356
100
AcDbEntity
  8
0
100
AcDbLine
 62
7
  6
CONTINUOUS
 10
0.4291662216
 20
-17.6595744789
 11
0.5166662216
 21
-17.7446808517
  0
LINE
  5
357
100
AcDbEntity
  8
0
100
AcDbLine
 62
7
  6
CONTINUOUS
 10
0.4
 20
-16.9361702204
 11
0.4875
 21
-17.0212765932
  0
LINE
  5
358
100
AcDbEntity
  8
0
100
AcDbLine
 62
7
  6
CONTINUOUS
 10
0.9541662216
 20
-16.3404254913
 11
0.8666662216
 21
-16.2553191185
  0
LINE
  5
359
100
AcDbEntity
  8
0
100
AcDbLine
 62
253
  6
CONTINUOUS
 10
-23.9685880551
 20
11.9266167165
 11
-25.2459332222
 21
13.1820515251
  0
LINE
  5
35A
100
AcDbEntity
  8
0
100
AcDbLine
 62
7
  6
CONTINUOUS
 10
-28.7512719161
 20
14.6091362923
 11
-24.9608388222
 21
10.8187031985
  0
LINE
  5
35B
100
AcDbEntity
  8
0
100
AcDbLine
 62
253
  6
CONTINUOUS
 10
-26.2162718758
 20
12.4001099989
 11
-28.8117290577
 21
14.9955671808
  0
LINE
  5
35C
100
AcDbEntity
  8
0
100
AcDbLine
 62
253
  6
CONTINUOUS
 10
-24.6545387778
 20
11.2406659937
 11
-24.5366376159
 21
11.1227648318
  0
LINE
  5
35D
100
AcDbEntity
  8
0
100
AcDbLine
 62
253
  6
CONTINUOUS
 10
-25.9099735864
 20
12.5180111608
 11
-28.6692001029
 21
15.2772376773
  0
LINE
  5
35E
100
AcDbEntity
  8
0
100
AcDbLine
 62
253
  6
CONTINUOUS
 10
-25.2459332222
 20
13.1820515251
 11
-28.1966470815
 21
16.1327653844
  0
LINE
  5
35F
100
AcDbEntity
  8
0
100
AcDbLine
 62
253
  6
CONTINUOUS
 10
-23.8506868931
 20
11.8087155545
 11
-23.9685880551
 21
11.9266167165
  0
LINE
  5
360
100
AcDbEntity
  8
0
100
AcDbLine
 62
253
  6
CONTINUOUS
 10
-28.03742048
 20
16.3977382341
 11
-25.1280320603
 21
13.4883498144
  0
LINE
  5
361
100
AcDbEntity
  8
0
100
AcDbLine
 62
253
  6
CONTINUOUS
 10
-26.2162718758
 20
12.4001099989
 11
-24.9608370671
 21
11.1227648318
  0
LINE
  5
362
100
AcDbEntity
  8
0
100
AcDbLine
 62
253
  6
CONTINUOUS
 10
-25.9099735864
 20
12.5180111608
 11
-24.6545387778
 21
11.2406659937
  0
LWPOLYLINE
  5
363
100
AcDbEntity
  8
0
100
AcDbPolyline
 62
253
  6
CONTINUOUS
 90
13
 70
0
 10
-23.8506868931
 20
12.2329150058
 10
-23.8248500097
 20
12.2034396814
 10
-23.8030708076
 20
12.1708372613
 10
-23.7857246484
 20
12.1356625187
 10
-23.7731106969
 20
12.0985116617
 10
-23.765450148
 20
12.0600217898
 10
-23.7628779843
 20
12.0208609681
 10
-23.7654377826
 20
11.9817027201
 10
-23.7730853019
 20
11.9432136987
 10
-23.785689691
 20
11.906052462
 10
-23.8030352854
 20
11.8708548489
 10
-23.8248252972
 20
11.8382231003
 10
-23.8506868931
 20
11.8087155545
  0
LINE
  5
364
100
AcDbEntity
  8
0
100
AcDbLine
 62
7
  6
CONTINUOUS
 10
-34.8210941895
 20
34.2749365943
 11
-34.1150435036
 21
33.2877898437
  0
LINE
  5
365
100
AcDbEntity
  8
0
100
AcDbLine
 62
7
  6
CONTINUOUS
 10
-2.6375
 20
-22.4893617034
 11
-2.5791667223
 21
-22.6170212626
  0
LINE
  5
366
100
AcDbEntity
  8
0
100
AcDbLine
 62
7
  6
CONTINUOUS
 10
-0.9166665554
 20
-21.5531915426
 11
-0.8583334446
 21
-21.6808511019
  0
LINE
  5
367
100
AcDbEntity
  8
0
100
AcDbLine
 62
7
  6
CONTINUOUS
 10
-2.7541667223
 20
-22.7021276653
 11
-2.8125
 21
-22.5319148898
  0
LWPOLYLINE
  5
368
100
AcDbEntity
  8
0
100
AcDbPolyline
 62
253
  6
CONTINUOUS
 90
10
 70
0
 10
-18.3533103717
 20
26.015888679
 10
-18.3535714184
 20
26.0169052788
 10
-18.3543556322
 20
26.0186669376
 10
-18.3556620151
 20
26.0211722302
 10
-18.3574888389
 20
26.0244192719
 10
-18.3598344202
 20
26.0284050752
 10
-18.3626970805
 20
26.0331254923
 10
-18.3660741372
 20
26.0385761087
 10
-18.3699619478
 20
26.0447523059
 10
-18.3743566576
 20
26.0516485788
  0
LINE
  5
369
100
AcDbEntity
  8
0
100
AcDbLine
 62
7
  6
CONTINUOUS
 10
-5.2
 20
-17.2765957713
 11
-5.2
 21
-17.0638297796
  0
LINE
  5
36A
100
AcDbEntity
  8
0
100
AcDbLine
 62
7
  6
CONTINUOUS
 10
-4.7916668892
 20
-17.0638297796
 11
-4.7916668892
 21
-17.2765957713
  0
LINE
  5
36B
100
AcDbEntity
  8
0
100
AcDbLine
 62
7
  6
CONTINUOUS
 10
-4.5583331108
 20
-17.4042553306
 11
-4.5583331108
 21
-17.1489361525
  0
LINE
  5
36C
100
AcDbEntity
  8
0
100
AcDbLine
 62
7
  6
CONTINUOUS
 10
-4.1541666389
 20
-23.0
 11
-4.1541666389
 21
-21.0
  0
LINE
  5
36D
100
AcDbEntity
  8
0
100
AcDbLine
 62
7
  6
CONTINUOUS
 10
-3.9791666389
 20
-21.2127659321
 11
-3.9791666389
 21
-21.8510638475
  0
LINE
  5
36E
100
AcDbEntity
  8
0
100
AcDbLine
 62
7
  6
CONTINUOUS
 10
-3.9791666389
 20
-22.106382966
 11
-3.9791666389
 21
-23.0
  0
LINE
  5
36F
100
AcDbEntity
  8
0
100
AcDbLine
 62
7
  6
CONTINUOUS
 10
-3.8583331108
 20
-18.0
 11
-3.8583331108
 21
-17.4042553306
  0
LINE
  5
370
100
AcDbEntity
  8
0
100
AcDbLine
 62
7
  6
CONTINUOUS
 10
-3.8583331108
 20
-17.1489361525
 11
-3.8583331108
 21
-16.3404254913
  0
LINE
  5
371
100
AcDbEntity
  8
0
100
AcDbLine
 62
7
  6
CONTINUOUS
 10
-13.0133613828
 20
-26.4422425136
 11
-13.121767841
 21
-26.8439173522
  0
LINE
  5
372
100
AcDbEntity
  8
0
100
AcDbLine
 62
7
  6
CONTINUOUS
 10
2.0
 20
13.1705429008
 11
2.5014102688
 21
14.01
  0
LINE
  5
373
100
AcDbEntity
  8
0
100
AcDbLine
 62
7
  6
CONTINUOUS
 10
2.9862348367
 20
13.9051389436
 11
2.2232133093
 21
12.627694348
  0
LINE
  5
374
100
AcDbEntity
  8
0
100
AcDbLine
 62
7
  6
CONTINUOUS
 10
-24.5007716353
 20
-25.8841310607
 11
-24.0857968332
 21
-25.3025439189
  0
LWPOLYLINE
  5
375
100
AcDbEntity
  8
0
100
AcDbPolyline
 62
7
  6
CONTINUOUS
 90
5
 70
0
 10
33.2877898436
 20
34.1150435034
 10
33.2816852521
 20
34.1097424857
 10
33.2704153978
 20
34.0992340814
 10
33.2539802807
 20
34.0835182904
 10
33.2047478858
 20
34.0356187807
  0
LINE
  5
376
100
AcDbEntity
  8
0
100
AcDbLine
 62
7
  6
CONTINUOUS
 10
25.3025439189
 20
24.0857968332
 11
25.8841310607
 21
24.5007716353
  0
LWPOLYLINE
  5
377
100
AcDbEntity
  8
0
100
AcDbPolyline
 62
7
  6
CONTINUOUS
 90
19
 70
0
 10
-30.8161267444
 20
-13.7762988397
 10
-30.9645539885
 20
-13.8675654109
 10
-31.1026666641
 20
-13.9692657735
 10
-31.2304647714
 20
-14.0813999276
 10
-31.3486740278
 20
-14.2049319269
 10
-31.4565687158
 20
-14.3388977175
 10
-31.5519716826
 20
-14.4804051385
 10
-31.6346426002
 20
-14.6296033878
 10
-31.7048217967
 20
-14.7863432673
 10
-31.761053104
 20
-14.9472850222
 10
-31.80306174
 20
-15.1125115288
 10
-31.8311224867
 20
-15.2819399108
 10
-31.8446035223
 20
-15.451981784
 10
-31.8432218413
 20
-15.6226463331
 10
-31.827260449
 20
-15.7939243736
 10
-31.79693654
 20
-15.9621999675
 10
-31.7523225123
 20
-16.1262678022
 10
-31.6933459678
 20
-16.2873331904
 10
-31.6200069064
 20
-16.445396132
  0
LINE
  5
378
100
AcDbEntity
  8
0
100
AcDbLine
 62
7
  6
CONTINUOUS
 10
25.3129902458
 20
14.1510609078
 11
25.7363671639
 21
14.2881167273
  0
LWPOLYLINE
  5
379
100
AcDbEntity
  8
0
100
AcDbPolyline
 62
253
  6
CONTINUOUS
 90
13
 70
0
 10
-24.9608370671
 20
11.1227648318
 10
-24.9464545917
 20
11.1127970031
 10
-24.9287560487
 20
11.1065536396
 10
-24.9080382738
 20
11.1041394537
 10
-24.8846487409
 20
11.1055949354
 10
-24.8589797337
 20
11.1108956737
 10
-24.8314617667
 20
11.1199527659
 10
-24.802556365
 20
11.1326143086
 10
-24.7727483232
 20
11.1486679453
 10
-24.7425375748
 20
11.1678444282
 10
-24.7124308075
 20
11.1898221337
 10
-24.6829329648
 20
11.214232457
 10
-24.6545387778
 20
11.2406659937
  0
LINE
  5
37A
100
AcDbEntity
  8
0
100
AcDbLine
 62
253
  6
CONTINUOUS
 10
-23.8506868931
 20
12.2329150058
 11
-25.1280320603
 21
13.4883498144
  0
LINE
  5
37B
100
AcDbEntity
  8
0
100
AcDbLine
 62
7
  6
CONTINUOUS
 10
-23.5466252598
 20
12.2329167609
 11
-27.7482835831
 21
16.4345750841
  0
LWPOLYLINE
  5
37C
100
AcDbEntity
  8
0
100
AcDbPolyline
 62
7
  6
CONTINUOUS
 90
5
 70
0
 10
-34.1150435036
 20
33.2877898437
 10
-34.1097424858
 20
33.2816852522
 10
-34.0992340814
 20
33.2704153978
 10
-34.0835182904
 20
33.2539802807
 10
-34.0356187807
 20
33.2047478858
  0
LINE
  5
37D
100
AcDbEntity
  8
0
100
AcDbLine
 62
7
  6
CONTINUOUS
 10
0.3416668892
 20
-17.8297872394
 11
0.2541668892
 21
-17.6595744789
  0
LINE
  5
37E
100
AcDbEntity
  8
0
100
AcDbLine
 62
7
  6
CONTINUOUS
 10
0.3125
 20
-17.106382966
 11
0.225
 21
-16.9361702204
  0
LINE
  5
37F
100
AcDbEntity
  8
0
100
AcDbLine
 62
7
  6
CONTINUOUS
 10
1.0416662216
 20
-16.1702127457
 11
1.1291662216
 21
-16.3404254913
  0
LINE
  5
380
100
AcDbEntity
  8
0
100
AcDbLine
 62
7
  6
CONTINUOUS
 10
0.3708331108
 20
-17.5319148898
 11
0.4291662216
 21
-17.6595744789
  0
LINE
  5
381
100
AcDbEntity
  8
0
100
AcDbLine
 62
7
  6
CONTINUOUS
 10
0.3416668892
 20
-16.8085106611
 11
0.4
 21
-16.9361702204
  0
LINE
  5
382
100
AcDbEntity
  8
0
100
AcDbLine
 62
7
  6
CONTINUOUS
 10
1.0125
 20
-16.4680850506
 11
0.9541662216
 21
-16.3404254913
  0
LINE
  5
383
100
AcDbEntity
  8
0
100
AcDbLine
 62
7
  6
CONTINUOUS
 10
0.225
 20
-16.9361702204
 11
0.1666668892
 21
-16.7234042883
  0
LINE
  5
384
100
AcDbEntity
  8
0
100
AcDbLine
 62
7
  6
CONTINUOUS
 10
-3.25
 20
-21.4680850506
 11
-3.2791667223
 21
-21.3404254913
  0
LINE
  5
385
100
AcDbEntity
  8
0
100
AcDbLine
 62
7
  6
CONTINUOUS
 10
-3.1041667223
 20
-21.3404254913
 11
-3.075
 21
-21.4680850506
  0
LINE
  5
386
100
AcDbEntity
  8
0
100
AcDbLine
 62
7
  6
CONTINUOUS
 10
-1.8791665554
 20
-21.5106383562
 11
-1.9083334446
 21
-21.3829786778
  0
LINE
  5
387
100
AcDbEntity
  8
0
100
AcDbLine
 62
7
  6
CONTINUOUS
 10
-2.6666667223
 20
-22.3191489577
 11
-2.6375
 21
-22.4893617034
  0
LINE
  5
388
100
AcDbEntity
  8
0
100
AcDbLine
 62
7
  6
CONTINUOUS
 10
-2.8125
 20
-22.5319148898
 11
-2.8416667223
 21
-22.3191489577
  0
LINE
  5
389
100
AcDbEntity
  8
0
100
AcDbLine
 62
7
  6
CONTINUOUS
 10
-1.7333334446
 20
-21.2978723049
 11
-1.7041665554
 21
-21.5106383562
  0
LINE
  5
38A
100
AcDbEntity
  8
0
100
AcDbLine
 62
7
  6
CONTINUOUS
 10
1.1875
 20
-16.5531915426
 11
1.2166662216
 21
-16.8510638475
  0
LINE
  5
38B
100
AcDbEntity
  8
0
100
AcDbLine
 62
7
  6
CONTINUOUS
 10
-3.6833331108
 20
-16.0
 11
-3.6833331108
 21
-17.1489361525
  0
LINE
  5
38C
100
AcDbEntity
  8
0
100
AcDbLine
 62
7
  6
CONTINUOUS
 10
-3.6833331108
 20
-17.4042553306
 11
-3.6833331108
 21
-18.0
  0
LINE
  5
38D
100
AcDbEntity
  8
0
100
AcDbLine
 62
7
  6
CONTINUOUS
 10
-3.3916668892
 20
-17.1489361525
 11
-3.3916668892
 21
-17.4042553306
  0
LINE
  5
38E
100
AcDbEntity
  8
0
100
AcDbLine
 62
7
  6
CONTINUOUS
 10
-3.25
 20
-21.595744729
 11
-3.25
 21
-21.4680850506
  0
LINE
  5
38F
100
AcDbEntity
  8
0
100
AcDbLine
 62
7
  6
CONTINUOUS
 10
-3.1583331108
 20
-17.2765957713
 11
-3.1583331108
 21
-17.0638297796
  0
LINE
  5
390
100
AcDbEntity
  8
0
100
AcDbLine
 62
7
  6
CONTINUOUS
 10
-3.075
 20
-21.4680850506
 11
-3.075
 21
-21.6382979155
  0
LINE
  5
391
100
AcDbEntity
  8
0
100
AcDbLine
 62
7
  6
CONTINUOUS
 10
-2.8416667223
 20
-22.3191489577
 11
-2.8416667223
 21
-21.6808511019
  0
LINE
  5
392
100
AcDbEntity
  8
0
100
AcDbLine
 62
7
  6
CONTINUOUS
 10
-2.75
 20
-17.0638297796
 11
-2.75
 21
-17.2765957713
  0
LINE
  5
393
100
AcDbEntity
  8
0
100
AcDbLine
 62
7
  6
CONTINUOUS
 10
-2.6666667223
 20
-21.6808511019
 11
-2.6666667223
 21
-22.3191489577
  0
LINE
  5
394
100
AcDbEntity
  8
0
100
AcDbLine
 62
7
  6
CONTINUOUS
 10
-2.5166668892
 20
-17.4042553306
 11
-2.5166668892
 21
-17.1489361525
  0
LINE
  5
395
100
AcDbEntity
  8
0
100
AcDbLine
 62
7
  6
CONTINUOUS
 10
-1.8166668892
 20
-18.0
 11
-1.8166668892
 21
-17.4042553306
  0
LINE
  5
396
100
AcDbEntity
  8
0
100
AcDbLine
 62
7
  6
CONTINUOUS
 10
-1.8166668892
 20
-17.1489361525
 11
-1.8166668892
 21
-16.3404254913
  0
LINE
  5
397
100
AcDbEntity
  8
0
100
AcDbLine
 62
7
  6
CONTINUOUS
 10
-1.6416668892
 20
-16.0
 11
-1.6416668892
 21
-17.1489361525
  0
LINE
  5
398
100
AcDbEntity
  8
0
100
AcDbLine
 62
7
  6
CONTINUOUS
 10
-1.6416668892
 20
-17.4042553306
 11
-1.6416668892
 21
-18.0
  0
LINE
  5
399
100
AcDbEntity
  8
0
100
AcDbLine
 62
7
  6
CONTINUOUS
 10
-1.35
 20
-17.1489361525
 11
-1.35
 21
-17.4042553306
  0
LINE
  5
39A
100
AcDbEntity
  8
0
100
AcDbLine
 62
7
  6
CONTINUOUS
 10
-1.1166668892
 20
-16.2127659321
 11
-1.1166668892
 21
-16.0
  0
LINE
  5
39B
100
AcDbEntity
  8
0
100
AcDbLine
 62
7
  6
CONTINUOUS
 10
-0.0666668892
 20
-16.0
 11
-0.0666668892
 21
-16.2127659321
  0
LINE
  5
39C
100
AcDbEntity
  8
0
100
AcDbLine
 62
7
  6
CONTINUOUS
 10
0.1666668892
 20
-16.7234042883
 11
0.1666668892
 21
-16.5531915426
  0
LINE
  5
39D
100
AcDbEntity
  8
0
100
AcDbLine
 62
7
  6
CONTINUOUS
 10
0.3125
 20
-16.595744729
 11
0.3125
 21
-16.6808511019
  0
LWPOLYLINE
  5
39E
100
AcDbEntity
  8
0
100
AcDbPolyline
 62
253
  6
CONTINUOUS
 90
34
 70
0
 10
1.25
 20
22.55
 10
1.2599521072
 20
22.7438229132
 10
1.2871475603
 20
22.932291889
 10
1.3315863593
 20
23.1154069276
 10
1.394089478
 20
23.2947238588
 10
1.4738359426
 20
23.4686868526
 10
1.5683628316
 20
23.6326284192
 10
1.6778869878
 20
23.7861068788
 10
1.8021915685
 20
23.929563911
 10
1.9381631238
 20
24.0596570654
 10
2.0860434329
 20
24.1761720247
 10
2.2455907167
 20
24.2793231061
 10
2.4129661876
 20
24.3664108112
 10
2.5886723281
 20
24.4371029164
 10
2.7722066557
 20
24.4917316454
 10
2.9582229354
 20
24.5285941708
 10
3.1465608851
 20
24.5471226314
 10
3.337380787
 20
24.5478848885
 10
3.525817253
 20
24.5308816986
 10
3.7119253284
 20
24.4956358799
 10
3.8956499679
 20
24.4426246141
 10
4.071960647
 20
24.3732802027
 10
4.2405465058
 20
24.2872495949
 10
4.4017184043
 20
24.1848858414
 10
4.5513783971
 20
24.0686803959
 10
4.6893336025
 20
23.9382784215
 10
4.8157769023
 20
23.7940347551
 10
4.9271889962
 20
23.6395053608
 10
5.0232474375
 20
23.474151139
 10
5.1042746731
 20
23.2985111894
 10
5.1677187431
 20
23.1177587744
 10
5.2127289943
 20
22.9336183149
 10
5.2401560799
 20
22.7443653901
 10
5.25
 20
22.55
  0
LINE
  5
39F
100
AcDbEntity
  8
0
100
AcDbLine
 62
7
  6
CONTINUOUS
 10
-2.8416667223
 20
-21.6808511019
 11
-2.8125
 21
-21.4680850506
  0
LINE
  5
3A0
100
AcDbEntity
  8
0
100
AcDbLine
 62
253
  6
CONTINUOUS
 10
6.5931069066
 20
31.0181292678
 11
6.5804050144
 21
30.9583715632
  0
LINE
  5
3A1
100
AcDbEntity
  8
0
100
AcDbLine
 62
253
  6
CONTINUOUS
 10
-6.5931069066
 20
-31.0181292678
 11
-6.5804050144
 21
-30.9583715632
  0
LINE
  5
3A2
100
AcDbEntity
  8
0
100
AcDbLine
 62
253
  6
CONTINUOUS
 10
-5.8815945425
 20
-27.6707267762
 11
-5.8942964347
 21
-27.7304844808
  0
LINE
  5
3A3
100
AcDbEntity
  8
0
100
AcDbLine
 62
253
  6
CONTINUOUS
 10
5.8815945425
 20
27.6707267762
 11
5.8942964347
 21
27.7304844808
  0
LWPOLYLINE
  5
3A4
100
AcDbEntity
  8
0
100
AcDbPolyline
 62
7
  6
CONTINUOUS
 90
19
 70
0
 10
8.1815100289
 20
23.3692952364
 10
8.1096832088
 20
23.2024999862
 10
8.053520006
 20
23.0330330427
 10
8.0130204205
 20
22.8608944057
 10
7.9881612153
 20
22.6847257851
 10
7.9789656274
 20
22.5058854712
 10
7.985503368
 20
22.3284483344
 10
8.0081045912
 20
22.152439734
 10
8.046439143
 20
21.9778343108
 10
8.099586272
 20
21.8086308573
 10
8.1678620255
 20
21.6449445123
 10
8.2509503561
 20
21.486660137
 10
8.346982371
 20
21.3374311076
 10
8.4562478505
 20
21.1974395315
 10
8.5784570142
 20
21.0665033013
 10
8.7108716273
 20
20.9477294709
 10
8.8525789448
 20
20.842153725
 10
9.0044917118
 20
20.748740379
 10
9.1666099281
 20
20.6674894328
  0
LWPOLYLINE
  5
3A5
100
AcDbEntity
  8
0
100
AcDbPolyline
 62
7
  6
CONTINUOUS
 90
12
 70
0
 10
-14.2614109028
 20
-28.822376035
 10
-14.2880976718
 20
-28.8785351165
 10
-14.3130354699
 20
-28.9319718365
 10
-14.3365144622
 20
-28.9833441015
 10
-14.3582444835
 20
-29.0319940051
 10
-14.3773550385
 20
-29.0759478277
 10
-14.3937695541
 20
-29.1150661935
 10
-14.4075646033
 20
-29.1494884784
 10
-14.4180994096
 20
-29.1776590902
 10
-14.4251603808
 20
-29.1990594981
 10
-14.4289611092
 20
-29.2142082328
 10
-14.4295015946
 20
-29.2231052945
  0
LWPOLYLINE
  5
3A6
100
AcDbEntity
  8
0
100
AcDbPolyline
 62
7
  6
CONTINUOUS
 90
12
 70
0
 10
-15.0410441444
 20
-31.2574871124
 10
-15.0570549728
 20
-31.2911798783
 10
-15.0720153835
 20
-31.3232372107
 10
-15.086099399
 20
-31.3540537274
 10
-15.0991329966
 20
-31.3832348105
 10
-15.1105941083
 20
-31.4095966073
 10
-15.1204368973
 20
-31.4330557173
 10
-15.1287072003
 20
-31.4536955408
 10
-15.1350204594
 20
-31.4705824263
 10
-15.1392484884
 20
-31.4834051565
 10
-15.1415194734
 20
-31.4924749486
 10
-15.1418334145
 20
-31.4977918027
  0
LWPOLYLINE
  5
3A7
100
AcDbEntity
  8
0
100
AcDbPolyline
 62
7
  6
CONTINUOUS
 90
12
 70
0
 10
15.0410441176
 20
31.2574870588
 10
15.0570549593
 20
31.2911798527
 10
15.0720153785
 20
31.3232372031
 10
15.0860993961
 20
31.3540537241
 10
15.0991329911
 20
31.3832348016
 10
15.1105941004
 20
31.4095965932
 10
15.1204368886
 20
31.433055701
 10
15.1287071912
 20
31.4536955229
 10
15.1350204505
 20
31.4705824095
 10
15.139248481
 20
31.4834051444
 10
15.1415194683
 20
31.492474944
 10
15.1418334125
 20
31.4977918083
  0
LWPOLYLINE
  5
3A8
100
AcDbEntity
  8
0
100
AcDbPolyline
 62
7
  6
CONTINUOUS
 90
12
 70
0
 10
14.2614108567
 20
28.8223759422
 10
14.2880976499
 20
28.8785350745
 10
14.3130354637
 20
28.9319718276
 10
14.3365144605
 20
28.9833441019
 10
14.3582444779
 20
29.0319939969
 10
14.3773550292
 20
29.0759478115
 10
14.393769544
 20
29.1150661748
 10
14.4075645925
 20
29.1494884575
 10
14.4180993992
 20
29.1776590705
 10
14.4251603721
 20
29.1990594841
 10
14.428961103
 20
29.2142082279
 10
14.4295015921
 20
29.2231053019
  0
LINE
  5
3A9
100
AcDbEntity
  8
0
100
AcDbLine
 62
253
  6
CONTINUOUS
 10
10.177197736
 20
21.2942388861
 11
10.0480108904
 21
21.0239350537
  0
LINE
  5
3AA
100
AcDbEntity
  8
0
100
AcDbLine
 62
253
  6
CONTINUOUS
 10
-10.1771977642
 20
-21.2942389452
 11
-10.048010896
 21
-21.0239350654
  0
LINE
  5
3AB
100
AcDbEntity
  8
0
100
AcDbLine
 62
253
  6
CONTINUOUS
 10
15.12838066
 20
31.5042342944
 11
14.9986888033
 21
31.2341700848
  0
LINE
  5
3AC
100
AcDbEntity
  8
0
100
AcDbLine
 62
253
  6
CONTINUOUS
 10
-15.1283806613
 20
-31.5042342971
 11
-14.9986888058
 21
-31.2341700901
  0
LINE
  5
3AD
100
AcDbEntity
  8
0
100
AcDbLine
 62
7
  6
CONTINUOUS
 10
-10.8
 20
-18.0
 11
-10.3041666806
 21
-16.9787234068
  0
LINE
  5
3AE
100
AcDbEntity
  8
0
100
AcDbLine
 62
7
  6
CONTINUOUS
 10
-9.4
 20
-18.0
 11
-8.9041667223
 21
-16.9787234068
  0
LINE
  5
3AF
100
AcDbEntity
  8
0
100
AcDbLine
 62
7
  6
CONTINUOUS
 10
12.1446274426
 20
31.4948900923
 11
8.1815100289
 21
23.3692952364
  0
LINE
  5
3B0
100
AcDbEntity
  8
0
100
AcDbLine
 62
253
  6
CONTINUOUS
 10
9.0866055217
 20
23.6918887915
 11
12.4591734964
 21
30.606677866
  0
LINE
  5
3B1
100
AcDbEntity
  8
0
100
AcDbLine
 62
253
  6
CONTINUOUS
 10
12.6104694087
 20
30.5328945684
 11
9.2378980265
 21
23.6180985074
  0
LINE
  5
3B2
100
AcDbEntity
  8
0
100
AcDbLine
 62
253
  6
CONTINUOUS
 10
9.342919931
 20
21.9971936913
 11
13.9525403293
 21
31.4483161022
  0
LINE
  5
3B3
100
AcDbEntity
  8
0
100
AcDbLine
 62
253
  6
CONTINUOUS
 10
9.4608891573
 20
21.939638565
 11
14.0705191618
 21
31.390780626
  0
LINE
  5
3B4
100
AcDbEntity
  8
0
100
AcDbLine
 62
7
  6
CONTINUOUS
 10
-14.0679104173
 20
-28.2457349697
 11
-14.6118292912
 21
-29.3622989493
  0
LINE
  5
3B5
100
AcDbEntity
  8
0
100
AcDbLine
 62
7
  6
CONTINUOUS
 10
15.0410441176
 20
31.2574870588
 11
10.9329004391
 21
22.8341968314
  0
LINE
  5
3B6
100
AcDbEntity
  8
0
100
AcDbLine
 62
7
  6
CONTINUOUS
 10
-14.2614109028
 20
-28.822376035
 11
-13.9548687377
 21
-28.1932919203
  0
LINE
  5
3B7
100
AcDbEntity
  8
0
100
AcDbLine
 62
7
  6
CONTINUOUS
 10
-13.0133613906
 20
-26.4422425083
 11
-13.0260748016
 21
-26.4683088856
  0
LINE
  5
3B8
100
AcDbEntity
  8
0
100
AcDbLine
 62
7
  6
CONTINUOUS
 10
-13.5368173649
 20
-27.694894978
 11
-13.1217678437
 21
-26.8439173502
  0
LINE
  5
3B9
100
AcDbEntity
  8
0
100
AcDbLine
 62
7
  6
CONTINUOUS
 10
13.5368173643
 20
27.6948949783
 11
13.1217678402
 21
26.8439173446
  0
LINE
  5
3BA
100
AcDbEntity
  8
0
100
AcDbLine
 62
7
  6
CONTINUOUS
 10
13.0133613942
 20
26.4422425123
 11
13.0260748016
 21
26.4683088856
  0
LINE
  5
3BB
100
AcDbEntity
  8
0
100
AcDbLine
 62
7
  6
CONTINUOUS
 10
14.2614108567
 20
28.8223759422
 11
13.9548687377
 21
28.1932919203
  0
LINE
  5
3BC
100
AcDbEntity
  8
0
100
AcDbLine
 62
7
  6
CONTINUOUS
 10
-15.0410441444
 20
-31.2574871124
 11
-10.9329004391
 21
-22.8341968314
  0
LINE
  5
3BD
100
AcDbEntity
  8
0
100
AcDbLine
 62
7
  6
CONTINUOUS
 10
14.0679104173
 20
28.2457349697
 11
14.6118292632
 21
29.3622988931
  0
LWPOLYLINE
  5
3BE
100
AcDbEntity
  8
0
100
AcDbPolyline
 62
7
  6
CONTINUOUS
 90
16
 70
0
 10
-14.0674113545
 20
-28.2447117393
 10
-13.9765905146
 20
-28.0598652993
 10
-13.8876145062
 20
-27.881114421
 10
-13.8004833295
 20
-27.7084591043
 10
-13.7143671917
 20
-27.5403096194
 10
-13.6300958856
 20
-27.3782556961
 10
-13.5501587887
 20
-27.227066524
 10
-13.4746935938
 20
-27.0870755279
 10
-13.4035626082
 20
-26.957949283
 10
-13.3388421314
 20
-26.8434567046
 10
-13.2807060178
 20
-26.7439891688
 10
-13.2289804129
 20
-26.6591552994
 10
-13.1852200532
 20
-26.5915498836
 10
-13.1499431841
 20
-26.5420378506
 10
-13.1226315601
 20
-26.5097542711
 10
-13.1032851812
 20
-26.4946991452
  0
LWPOLYLINE
  5
3BF
100
AcDbEntity
  8
0
100
AcDbPolyline
 62
7
  6
CONTINUOUS
 90
16
 70
0
 10
14.0674111957
 20
28.2447114137
 10
13.9765904243
 20
28.0598651108
 10
13.8876144666
 20
27.8811143336
 10
13.8004833225
 20
27.7084590822
 10
13.7143671934
 20
27.5403096145
 10
13.630095878
 20
27.3782556727
 10
13.5501587721
 20
27.2270664827
 10
13.4746935745
 20
27.0870754814
 10
13.4035625864
 20
26.9579492319
 10
13.3388421076
 20
26.8434566501
 10
13.2807059906
 20
26.7439891097
 10
13.2289803828
 20
26.6591552368
 10
13.1852200263
 20
26.5915498255
 10
13.1499431685
 20
26.5420378068
 10
13.122631562
 20
26.5097542496
 10
13.1032852067
 20
26.4946991539
  0
LINE
  5
3C0
100
AcDbEntity
  8
0
100
AcDbLine
 62
7
  6
CONTINUOUS
 10
-10.2166666806
 20
-16.8085106611
 11
-9.8083333611
 21
-16.0
  0
LINE
  5
3C1
100
AcDbEntity
  8
0
100
AcDbLine
 62
7
  6
CONTINUOUS
 10
-10.2166666806
 20
-17.1914893389
 11
-10.625
 21
-18.0
  0
LINE
  5
3C2
100
AcDbEntity
  8
0
100
AcDbLine
 62
7
  6
CONTINUOUS
 10
-8.8166667223
 20
-16.8085106611
 11
-8.4083332777
 21
-16.0
  0
LINE
  5
3C3
100
AcDbEntity
  8
0
100
AcDbLine
 62
7
  6
CONTINUOUS
 10
-8.8166667223
 20
-17.1914893389
 11
-9.225
 21
-18.0
  0
LINE
  5
3C4
100
AcDbEntity
  8
0
100
AcDbLine
 62
7
  6
CONTINUOUS
 10
-9.6333333611
 20
-16.0
 11
-10.1291666806
 21
-16.9787234068
  0
LINE
  5
3C5
100
AcDbEntity
  8
0
100
AcDbLine
 62
7
  6
CONTINUOUS
 10
-8.2333332777
 20
-16.0
 11
-8.7291667223
 21
-16.9787234068
  0
LWPOLYLINE
  5
3C6
100
AcDbEntity
  8
0
100
AcDbPolyline
 62
253
  6
CONTINUOUS
 90
13
 70
0
 10
12.4594518978
 20
30.6065421662
 10
12.5371265777
 20
30.7501544674
 10
12.6261338398
 20
30.8861835654
 10
12.7257903414
 20
31.0137873098
 10
12.8348234888
 20
31.1316579018
 10
12.9528818261
 20
31.2397061237
 10
13.0809532335
 20
31.3386240034
 10
13.2187284023
 20
31.427568209
 10
13.365291694
 20
31.5053508172
 10
13.521090226
 20
31.5715015933
 10
13.6857609856
 20
31.6249245305
 10
13.8579471537
 20
31.6642382608
 10
14.036524103
 20
31.6883106164
  0
LWPOLYLINE
  5
3C7
100
AcDbEntity
  8
0
100
AcDbPolyline
 62
253
  6
CONTINUOUS
 90
13
 70
0
 10
12.6104694087
 20
30.5328945684
 10
12.6777479369
 20
30.6562972219
 10
12.7533421581
 20
30.7717566803
 10
12.8372520724
 20
30.8792729437
 10
12.9295728484
 20
30.9791030135
 10
13.0302093174
 20
31.0709898883
 10
13.1388759735
 20
31.1541625635
 10
13.2557146294
 20
31.2291174565
 10
13.3805834723
 20
31.29535815
 10
13.5127715582
 20
31.3506243869
 10
13.6520419056
 20
31.3941627485
 10
13.798631496
 20
31.4267266536
 10
13.9525403293
 20
31.4483161022
  0
LWPOLYLINE
  5
3C8
100
AcDbEntity
  8
0
100
AcDbPolyline
 62
7
  6
CONTINUOUS
 90
4
 70
0
 10
-34.083518021
 20
-33.253980001
 10
-34.0992339248
 20
-33.2704152334
 10
-34.109742419
 20
-33.281685181
 10
-34.1150435034
 20
-33.2877898436
  0
LINE
  5
3C9
100
AcDbEntity
  8
0
100
AcDbLine
 62
7
  6
CONTINUOUS
 10
-34.0356181892
 20
-33.2047472819
 11
-34.083518021
 21
-33.253980001
  0
LINE
  5
3CA
100
AcDbEntity
  8
0
100
AcDbLine
 62
7
  6
CONTINUOUS
 10
-33.9319426335
 20
-33.0995809098
 11
-34.0356181892
 21
-33.2047472819
  0
LINE
  5
3CB
100
AcDbEntity
  8
0
100
AcDbLine
 62
7
  6
CONTINUOUS
 10
32.7937189336
 20
33.6263293913
 11
31.9841873171
 21
32.8041979854
  0
LINE
  5
3CC
100
AcDbEntity
  8
0
100
AcDbLine
 62
7
  6
CONTINUOUS
 10
-32.7543721264
 20
-33.5866356377
 11
-31.9187204968
 21
-32.7381439023
  0
LINE
  5
3CD
100
AcDbEntity
  8
0
100
AcDbLine
 62
7
  6
CONTINUOUS
 10
31.9841873171
 20
32.8041979854
 11
31.638981599
 21
32.4568937065
  0
LINE
  5
3CE
100
AcDbEntity
  8
0
100
AcDbLine
 62
7
  6
CONTINUOUS
 10
-31.9187204968
 20
-32.7381439023
 11
-31.6389815982
 21
-32.4568937079
  0
LINE
  5
3CF
100
AcDbEntity
  8
0
100
AcDbLine
 62
7
  6
CONTINUOUS
 10
-32.9254775384
 20
-33.7585776661
 11
-32.7543721264
 21
-33.5866356377
  0
LINE
  5
3D0
100
AcDbEntity
  8
0
100
AcDbLine
 62
7
  6
CONTINUOUS
 10
-33.7585766573
 20
-32.92547653
 11
-33.9319426335
 21
-33.0995809098
  0
LINE
  5
3D1
100
AcDbEntity
  8
0
100
AcDbLine
 62
7
  6
CONTINUOUS
 10
30.8663280912
 20
32.2496875166
 11
24.5007716353
 21
25.8841310607
  0
LINE
  5
3D2
100
AcDbEntity
  8
0
100
AcDbLine
 62
7
  6
CONTINUOUS
 10
-25.8841310607
 20
-24.5007716353
 11
-32.2496875166
 21
-30.8663280912
  0
LINE
  5
3D3
100
AcDbEntity
  8
0
100
AcDbLine
 62
7
  6
CONTINUOUS
 10
-32.1440595259
 20
-30.9273124401
 11
-25.3025439189
 21
-24.0857968332
  0
LINE
  5
3D4
100
AcDbEntity
  8
0
100
AcDbLine
 62
7
  6
CONTINUOUS
 10
24.0857968332
 20
25.3025439189
 11
30.9273124401
 21
32.1440595259
  0
LINE
  5
3D5
100
AcDbEntity
  8
0
100
AcDbLine
 62
7
  6
CONTINUOUS
 10
-34.5577395104
 20
-33.9066778495
 11
-32.351114762
 21
-31.7000531011
  0
LINE
  5
3D6
100
AcDbEntity
  8
0
100
AcDbLine
 62
7
  6
CONTINUOUS
 10
31.7000531011
 20
32.351114762
 11
33.9066778495
 21
34.5577395104
  0
LINE
  5
3D7
100
AcDbEntity
  8
0
100
AcDbLine
 62
7
  6
CONTINUOUS
 10
34.5577395104
 20
33.9066778495
 11
32.351114762
 21
31.7000531011
  0
LINE
  5
3D8
100
AcDbEntity
  8
0
100
AcDbLine
 62
7
  6
CONTINUOUS
 10
-31.7000531011
 20
-32.351114762
 11
-33.9066778495
 21
-34.5577395104
  0
LINE
  5
3D9
100
AcDbEntity
  8
0
100
AcDbLine
 62
7
  6
CONTINUOUS
 10
32.9704171433
 20
33.803478602
 11
32.7937189336
 21
33.6263293913
  0
LINE
  5
3DA
100
AcDbEntity
  8
0
100
AcDbLine
 62
7
  6
CONTINUOUS
 10
-33.5866352372
 20
-32.7543717296
 11
-33.7585766573
 21
-32.92547653
  0
LINE
  5
3DB
100
AcDbEntity
  8
0
100
AcDbLine
 62
7
  6
CONTINUOUS
 10
33.5866352372
 20
32.7543717296
 11
33.7585766573
 21
32.92547653
  0
LINE
  5
3DC
100
AcDbEntity
  8
0
100
AcDbLine
 62
7
  6
CONTINUOUS
 10
-32.4568936991
 20
-31.6389816033
 11
-32.8675067091
 21
-32.0468342943
  0
LINE
  5
3DD
100
AcDbEntity
  8
0
100
AcDbLine
 62
7
  6
CONTINUOUS
 10
32.4568936978
 20
31.6389816041
 11
32.8675067125
 21
32.0468342976
  0
LINE
  5
3DE
100
AcDbEntity
  8
0
100
AcDbLine
 62
7
  6
CONTINUOUS
 10
33.1385654849
 20
33.9705044799
 11
32.9704171433
 21
33.803478602
  0
LINE
  5
3DF
100
AcDbEntity
  8
0
100
AcDbLine
 62
7
  6
CONTINUOUS
 10
-32.8675067091
 20
-32.0468342943
 11
-33.0400069195
 21
-32.2169109195
  0
LINE
  5
3E0
100
AcDbEntity
  8
0
100
AcDbLine
 62
7
  6
CONTINUOUS
 10
32.8675067125
 20
32.0468342976
 11
33.0400077227
 21
32.2169117089
  0
LINE
  5
3E1
100
AcDbEntity
  8
0
100
AcDbLine
 62
7
  6
CONTINUOUS
 10
-33.5866352372
 20
-32.7543717296
 11
-33.0400069195
 21
-32.2169109195
  0
LINE
  5
3E2
100
AcDbEntity
  8
0
100
AcDbLine
 62
7
  6
CONTINUOUS
 10
33.5866352372
 20
32.7543717296
 11
33.0400077227
 21
32.2169117089
  0
LINE
  5
3E3
100
AcDbEntity
  8
0
100
AcDbLine
 62
7
  6
CONTINUOUS
 10
33.2047478858
 20
34.0356187807
 11
33.1385654849
 21
33.9705044799
  0
LWPOLYLINE
  5
3E4
100
AcDbEntity
  8
0
100
AcDbPolyline
 62
7
  6
CONTINUOUS
 90
12
 70
0
 10
-27.3670716285
 20
-15.3792475306
 10
-27.31300561
 20
-15.3485550761
 10
-27.2619365749
 20
-15.3190909571
 10
-27.2132495336
 20
-15.2904826855
 10
-27.1675594757
 20
-15.2631027494
 10
-27.1267113702
 20
-15.2380686132
 10
-27.0908477889
 20
-15.2154505002
 10
-27.05982616
 20
-15.1951781872
 10
-27.035063737
 20
-15.1781584685
 10
-27.0170329378
 20
-15.1646936092
 10
-27.0052613445
 20
-15.1544813442
 10
-26.9997489571
 20
-15.1475216737
  0
LWPOLYLINE
  5
3E5
100
AcDbEntity
  8
0
100
AcDbPolyline
 62
7
  6
CONTINUOUS
 90
12
 70
0
 10
27.367071516
 20
15.3792474693
 10
27.3130055571
 20
15.3485550487
 10
27.2619365606
 20
15.3190909515
 10
27.2132495296
 20
15.2904826857
 10
27.1675594609
 20
15.2631027433
 10
27.1267113449
 20
15.238068601
 10
27.090847759
 20
15.2154504847
 10
27.0598261258
 20
15.1951781685
 10
27.0350637036
 20
15.1781584511
 10
27.0170329119
 20
15.1646935985
 10
27.0052613313
 20
15.1544813447
 10
26.9997489616
 20
15.1475216896
  0
LINE
  5
3E6
100
AcDbEntity
  8
0
100
AcDbLine
 62
7
  6
CONTINUOUS
 10
-22.9090811754
 20
-9.3933519103
 11
-30.8161267444
 21
-13.7762988397
  0
LINE
  5
3E7
100
AcDbEntity
  8
0
100
AcDbLine
 62
253
  6
CONTINUOUS
 10
-29.8848817091
 20
-14.0519946367
 11
-23.1920159045
 21
-10.3420785411
  0
LINE
  5
3E8
100
AcDbEntity
  8
0
100
AcDbLine
 62
253
  6
CONTINUOUS
 10
-29.7392980425
 20
-14.3138324356
 11
-23.0471382062
 21
-10.6043076646
  0
LINE
  5
3E9
100
AcDbEntity
  8
0
100
AcDbLine
 62
7
  6
CONTINUOUS
 10
27.2899554031
 20
15.425989244
 11
28.3768843081
 21
16.0291670621
  0
LINE
  5
3EA
100
AcDbEntity
  8
0
100
AcDbLine
 62
7
  6
CONTINUOUS
 10
27.367071516
 20
15.3792474693
 11
27.9789890185
 21
15.7187291302
  0
LINE
  5
3EB
100
AcDbEntity
  8
0
100
AcDbLine
 62
7
  6
CONTINUOUS
 10
25.3129902458
 20
14.1510609078
 11
25.7503029073
 21
14.3934672744
  0
LINE
  5
3EC
100
AcDbEntity
  8
0
100
AcDbLine
 62
7
  6
CONTINUOUS
 10
-26.5805428281
 20
-14.7341258453
 11
-26.1681067862
 21
-14.505218451
  0
LINE
  5
3ED
100
AcDbEntity
  8
0
100
AcDbLine
 62
7
  6
CONTINUOUS
 10
26.1682384482
 20
14.5052914324
 11
26.5805428281
 21
14.7341258452
  0
LINE
  5
3EE
100
AcDbEntity
  8
0
100
AcDbLine
 62
7
  6
CONTINUOUS
 10
-25.3129902458
 20
-14.1510609078
 11
-25.7503029073
 21
-14.3934672744
  0
LINE
  5
3EF
100
AcDbEntity
  8
0
100
AcDbLine
 62
7
  6
CONTINUOUS
 10
-27.3670716285
 20
-15.3792475306
 11
-27.9789890185
 21
-15.7187291302
  0
LINE
  5
3F0
100
AcDbEntity
  8
0
100
AcDbLine
 62
7
  6
CONTINUOUS
 10
-27.2899555855
 20
-15.4259893433
 11
-28.3768844018
 21
-16.0291671141
  0
LWPOLYLINE
  5
3F1
100
AcDbEntity
  8
0
100
AcDbPolyline
 62
7
  6
CONTINUOUS
 90
16
 70
0
 10
28.3768843081
 20
16.0291670621
 10
28.5573591827
 20
16.1285214518
 10
28.7328258385
 20
16.2239407399
 10
28.9032842754
 20
16.3154249266
 10
29.0703235689
 20
16.4037989972
 10
29.2323546435
 20
16.4882379664
 10
29.3846102728
 20
16.566266878
 10
29.5267882128
 20
16.637692594
 10
29.6591907076
 20
16.7027082524
 10
29.7779572628
 20
16.7594183112
 10
29.8827231704
 20
16.807602661
 10
29.9738531384
 20
16.8474814111
 10
30.048580797
 20
16.877819348
 10
30.1059840226
 20
16.8982047338
 10
30.1469849388
 20
16.9090493063
 10
30.1715835454
 20
16.9103530657
  0
LWPOLYLINE
  5
3F2
100
AcDbEntity
  8
0
100
AcDbPolyline
 62
7
  6
CONTINUOUS
 90
16
 70
0
 10
-28.3768844018
 20
-16.0291671141
 10
-28.5573592366
 20
-16.1285214822
 10
-28.7328258629
 20
-16.2239407544
 10
-28.9032842808
 20
-16.3154249308
 10
-29.0703235693
 20
-16.4037989987
 10
-29.2323546493
 20
-16.4882379708
 10
-29.3846102839
 20
-16.5662668852
 10
-29.5267882254
 20
-16.637692602
 10
-29.6591907215
 20
-16.7027082611
 10
-29.7779572778
 20
-16.7594183204
 10
-29.882723187
 20
-16.8076026707
 10
-29.9738531564
 20
-16.8474814212
 10
-30.0485808134
 20
-16.8778193576
 10
-30.1059840338
 20
-16.8982047418
 10
-30.1469849419
 20
-16.9090493119
 10
-30.1715835377
 20
-16.9103530679
  0
LWPOLYLINE
  5
3F3
100
AcDbEntity
  8
0
100
AcDbPolyline
 62
7
  6
CONTINUOUS
 90
13
 70
0
 10
26.1681069236
 20
14.5052185271
 10
26.119107495
 20
14.4782642154
 10
26.0717878204
 20
14.4525714816
 10
26.0261478997
 20
14.4281403258
 10
25.9817502949
 20
14.4047461537
 10
25.939032444
 20
14.3826135596
 10
25.8993066609
 20
14.3624163263
 10
25.8626416005
 20
14.3441978017
 10
25.8289686079
 20
14.3279146379
 10
25.799394033
 20
14.3141105746
 10
25.774286659
 20
14.3029668584
 10
25.7532777026
 20
14.2943022426
 10
25.7363671639
 20
14.2881167273
  0
LWPOLYLINE
  5
3F4
100
AcDbEntity
  8
0
100
AcDbPolyline
 62
7
  6
CONTINUOUS
 90
13
 70
0
 10
-26.1681067862
 20
-14.505218451
 10
-26.1191074191
 20
-14.4782641728
 10
-26.0717877909
 20
-14.4525714645
 10
-26.0261479016
 20
-14.428140326
 10
-25.9817503082
 20
-14.4047461603
 10
-25.9390324537
 20
-14.3826135644
 10
-25.8993066673
 20
-14.3624163295
 10
-25.8626416111
 20
-14.3441978071
 10
-25.8289686231
 20
-14.3279146457
 10
-25.7993940462
 20
-14.3141105821
 10
-25.7742866612
 20
-14.3029668618
 10
-25.7532776872
 20
-14.2943022393
 10
-25.7363671242
 20
-14.2881167145
  0
LINE
  5
3F5
100
AcDbEntity
  8
0
100
AcDbLine
 62
253
  6
CONTINUOUS
 10
-30.4063519354
 20
-16.6127807496
 11
-30.6692891477
 21
-16.7564388592
  0
LINE
  5
3F6
100
AcDbEntity
  8
0
100
AcDbLine
 62
253
  6
CONTINUOUS
 10
30.4063519354
 20
16.6127807497
 11
30.6692891476
 21
16.7564388591
  0
LINE
  5
3F7
100
AcDbEntity
  8
0
100
AcDbLine
 62
253
  6
CONTINUOUS
 10
20.4692560827
 20
11.1345567047
 11
20.7324738053
 21
11.2777324604
  0
LINE
  5
3F8
100
AcDbEntity
  8
0
100
AcDbLine
 62
253
  6
CONTINUOUS
 10
-20.469256144
 20
-11.1345567381
 11
-20.7324738053
 21
-11.2777324604
  0
LWPOLYLINE
  5
3F9
100
AcDbEntity
  8
0
100
AcDbPolyline
 62
253
  6
CONTINUOUS
 90
19
 70
0
 10
-23.1920084705
 20
-10.342091937
 10
-23.035057287
 20
-10.2638819736
 10
-22.8719092113
 20
-10.1997660159
 10
-22.7038279918
 20
-10.1502214623
 10
-22.5321216518
 20
-10.1156146252
 10
-22.3581054459
 20
-10.0961913527
 10
-22.1830905042
 20
-10.0920834002
 10
-22.0084200495
 20
-10.1033127453
 10
-21.8354345392
 20
-10.1297846023
 10
-21.6654346661
 20
-10.1712943464
 10
-21.4997237465
 20
-10.227522167
 10
-21.3395723723
 20
-10.298036426
 10
-21.1861867791
 20
-10.3823098506
 10
-21.0407474916
 20
-10.4797013204
 10
-20.9043743764
 20
-10.5894699912
 10
-20.7781010532
 20
-10.7107999395
 10
-20.6629032202
 20
-10.8427770377
 10
-20.5596856823
 20
-10.9843896951
 10
-20.469256144
 20
-11.1345567381
  0
LINE
  5
3FA
100
AcDbEntity
  8
0
100
AcDbLine
 62
253
  6
CONTINUOUS
 10
-31.0181292678
 20
6.5931069066
 11
-30.9583715632
 21
6.5804050144
  0
LINE
  5
3FB
100
AcDbEntity
  8
0
100
AcDbLine
 62
253
  6
CONTINUOUS
 10
31.0181292678
 20
-6.5931069066
 11
30.9583715632
 21
-6.5804050144
  0
LINE
  5
3FC
100
AcDbEntity
  8
0
100
AcDbLine
 62
253
  6
CONTINUOUS
 10
27.6707267762
 20
-5.8815945425
 11
27.7304844808
 21
-5.8942964347
  0
LINE
  5
3FD
100
AcDbEntity
  8
0
100
AcDbLine
 62
253
  6
CONTINUOUS
 10
-27.6707267762
 20
5.8815945425
 11
-27.7304844808
 21
5.8942964347
  0
LWPOLYLINE
  5
3FE
100
AcDbEntity
  8
0
100
AcDbPolyline
 62
7
  6
CONTINUOUS
 90
13
 70
0
 10
29.677140696
 20
-14.2517762145
 10
29.6402311155
 20
-14.2384818102
 10
29.6021560683
 20
-14.230315743
 10
29.5636270391
 20
-14.2272667165
 10
29.5254635921
 20
-14.2292250098
 10
29.4881599666
 20
-14.2359718226
 10
29.4519022453
 20
-14.2473613118
 10
29.4172876048
 20
-14.2631999215
 10
29.3848551425
 20
-14.2832396503
 10
29.3547713855
 20
-14.3074505153
 10
29.3275277723
 20
-14.3356854094
 10
29.3038296266
 20
-14.3675117751
 10
29.2842177697
 20
-14.4024907875
  0
LWPOLYLINE
  5
3FF
100
AcDbEntity
  8
0
100
AcDbPolyline
 62
7
  6
CONTINUOUS
 90
13
 70
0
 10
29.4990277006
 20
-13.7556225249
 10
29.4610671685
 20
-13.7413257619
 10
29.4230868433
 20
-13.7320486797
 10
29.3850867251
 20
-13.7277912785
 10
29.3465046701
 20
-13.7286782717
 10
29.3079028222
 20
-13.7345849457
 10
29.2709676122
 20
-13.74513716
 10
29.2357479666
 20
-13.760471283
 10
29.202194959
 20
-13.7804509461
 10
29.1718482417
 20
-13.8042929027
 10
29.1452210321
 20
-13.8317360705
 10
29.1218001128
 20
-13.8630415317
 10
29.1015854837
 20
-13.8982092863
  0
LINE
  5
400
100
AcDbEntity
  8
0
100
AcDbLine
 62
253
  6
CONTINUOUS
 10
29.1958734448
 20
-14.5801123352
 11
30.3128111929
 21
-15.1009489608
  0
LINE
  5
401
100
AcDbEntity
  8
0
100
AcDbLine
 62
253
  6
CONTINUOUS
 10
29.6755929113
 20
-14.2522042616
 11
30.2641065423
 21
-14.5266326746
  0
LINE
  5
402
100
AcDbEntity
  8
0
100
AcDbLine
 62
7
  6
CONTINUOUS
 10
-30.767986429
 20
14.3473476978
 11
-29.499027746
 21
13.7556225461
  0
LINE
  5
403
100
AcDbEntity
  8
0
100
AcDbLine
 62
7
  6
CONTINUOUS
 10
30.7679863811
 20
-14.3473476755
 11
29.4990277006
 21
-13.7556225249
  0
LINE
  5
404
100
AcDbEntity
  8
0
100
AcDbLine
 62
7
  6
CONTINUOUS
 10
-29.6795850795
 20
14.2635275442
 11
-30.2525482353
 21
14.5307046516
  0
LWPOLYLINE
  5
405
100
AcDbEntity
  8
0
100
AcDbPolyline
 62
7
  6
CONTINUOUS
 90
13
 70
0
 10
-30.2525482353
 20
14.5307046516
 10
-30.2885824247
 20
14.5510655137
 10
-30.3206118208
 20
14.5747579789
 10
-30.3486364235
 20
14.6017820469
 10
-30.3729305189
 20
14.6326810457
 10
-30.3932198209
 20
14.6669116474
 10
-30.4086814717
 20
14.7028438688
 10
-30.419168207
 20
14.7405296343
 10
-30.424827291
 20
14.7799170194
 10
-30.4252776594
 20
14.8192202676
 10
-30.4203922904
 20
14.8578441268
 10
-30.4102982057
 20
14.896383849
 10
-30.3949954052
 20
14.9348394343
  0
LWPOLYLINE
  5
406
100
AcDbEntity
  8
0
100
AcDbPolyline
 62
7
  6
CONTINUOUS
 90
4
 70
0
 10
33.253980001
 20
-34.083518021
 10
33.2704152335
 20
-34.0992339248
 10
33.2816851811
 20
-34.109742419
 10
33.2877898437
 20
-34.1150435036
  0
LINE
  5
407
100
AcDbEntity
  8
0
100
AcDbLine
 62
7
  6
CONTINUOUS
 10
33.2047472819
 20
-34.0356181892
 11
33.253980001
 21
-34.083518021
  0
LINE
  5
408
100
AcDbEntity
  8
0
100
AcDbLine
 62
7
  6
CONTINUOUS
 10
33.0995809098
 20
-33.9319426335
 11
33.2047472819
 21
-34.0356181892
  0
LINE
  5
409
100
AcDbEntity
  8
0
100
AcDbLine
 62
7
  6
CONTINUOUS
 10
-33.6263293913
 20
32.7937189336
 11
-32.737021375
 21
31.917607801
  0
LINE
  5
40A
100
AcDbEntity
  8
0
100
AcDbLine
 62
7
  6
CONTINUOUS
 10
33.6263293913
 20
-32.7937189336
 11
32.737021375
 21
-31.917607801
  0
LINE
  5
40B
100
AcDbEntity
  8
0
100
AcDbLine
 62
7
  6
CONTINUOUS
 10
-32.737021375
 20
31.917607801
 11
-32.5630629986
 21
31.7447535613
  0
LINE
  5
40C
100
AcDbEntity
  8
0
100
AcDbLine
 62
7
  6
CONTINUOUS
 10
32.737021375
 20
-31.917607801
 11
32.5630629983
 21
-31.7447535614
  0
LINE
  5
40D
100
AcDbEntity
  8
0
100
AcDbLine
 62
7
  6
CONTINUOUS
 10
33.7585776661
 20
-32.9254775384
 11
33.6263293913
 21
-32.7937189336
  0
LINE
  5
40E
100
AcDbEntity
  8
0
100
AcDbLine
 62
7
  6
CONTINUOUS
 10
32.92547653
 20
-33.7585766573
 11
33.0995809098
 21
-33.9319426335
  0
LINE
  5
40F
100
AcDbEntity
  8
0
100
AcDbLine
 62
7
  6
CONTINUOUS
 10
-32.3556049117
 20
30.9722454863
 11
-26.2675383864
 21
24.884178961
  0
LINE
  5
410
100
AcDbEntity
  8
0
100
AcDbLine
 62
7
  6
CONTINUOUS
 10
24.884178961
 20
-26.2675383864
 11
30.9722454863
 21
-32.3556049117
  0
LINE
  5
411
100
AcDbEntity
  8
0
100
AcDbLine
 62
7
  6
CONTINUOUS
 10
31.0716273882
 20
-32.1834704083
 11
24.7660574882
 21
-25.8779005083
  0
LINE
  5
412
100
AcDbEntity
  8
0
100
AcDbLine
 62
7
  6
CONTINUOUS
 10
-25.8779005083
 20
24.7660574882
 11
-32.1834704083
 21
31.0716273882
  0
LINE
  5
413
100
AcDbEntity
  8
0
100
AcDbLine
 62
7
  6
CONTINUOUS
 10
34.2749365943
 20
-34.8210941895
 11
31.8443680492
 21
-32.3905256444
  0
LINE
  5
414
100
AcDbEntity
  8
0
100
AcDbLine
 62
7
  6
CONTINUOUS
 10
-32.3905256443
 20
31.8443680492
 11
-34.8210941895
 21
34.2749365943
  0
LINE
  5
415
100
AcDbEntity
  8
0
100
AcDbLine
 62
7
  6
CONTINUOUS
 10
-34.2749365943
 20
34.8210941895
 11
-31.8443680492
 21
32.3905256444
  0
LINE
  5
416
100
AcDbEntity
  8
0
100
AcDbLine
 62
7
  6
CONTINUOUS
 10
32.3905256443
 20
-31.8443680492
 11
34.8210941895
 21
-34.2749365943
  0
LINE
  5
417
100
AcDbEntity
  8
0
100
AcDbLine
 62
7
  6
CONTINUOUS
 10
-33.803478602
 20
32.9704171433
 11
-33.6263293913
 21
32.7937189336
  0
LINE
  5
418
100
AcDbEntity
  8
0
100
AcDbLine
 62
7
  6
CONTINUOUS
 10
32.7543717296
 20
-33.5866352372
 11
32.92547653
 21
-33.7585766573
  0
LINE
  5
419
100
AcDbEntity
  8
0
100
AcDbLine
 62
7
  6
CONTINUOUS
 10
-32.7543717296
 20
33.5866352372
 11
-32.92547653
 21
33.7585766573
  0
LINE
  5
41A
100
AcDbEntity
  8
0
100
AcDbLine
 62
7
  6
CONTINUOUS
 10
-33.9705044799
 20
33.1385654849
 11
-33.803478602
 21
32.9704171433
  0
LINE
  5
41B
100
AcDbEntity
  8
0
100
AcDbLine
 62
7
  6
CONTINUOUS
 10
31.7447535615
 20
-32.5630629983
 11
32.1254477154
 21
-32.9471124051
  0
LINE
  5
41C
100
AcDbEntity
  8
0
100
AcDbLine
 62
7
  6
CONTINUOUS
 10
-31.7447535613
 20
32.5630629986
 11
-32.1254477537
 21
32.9471124441
  0
LINE
  5
41D
100
AcDbEntity
  8
0
100
AcDbLine
 62
7
  6
CONTINUOUS
 10
32.7543717296
 20
-33.5866352372
 11
32.1254477154
 21
-32.9471124051
  0
LINE
  5
41E
100
AcDbEntity
  8
0
100
AcDbLine
 62
7
  6
CONTINUOUS
 10
-32.7543717296
 20
33.5866352372
 11
-32.1254477537
 21
32.9471124441
  0
LINE
  5
41F
100
AcDbEntity
  8
0
100
AcDbLine
 62
7
  6
CONTINUOUS
 10
-34.0356187807
 20
33.2047478858
 11
-33.9705044799
 21
33.1385654849
  0
LWPOLYLINE
  5
420
100
AcDbEntity
  8
0
100
AcDbPolyline
 62
253
  6
CONTINUOUS
 90
13
 70
0
 10
18.7849936446
 20
-26.1151445316
 10
18.7616249096
 20
-26.0864337088
 10
18.7346566816
 20
-26.0611135583
 10
18.7045621981
 20
-26.0395710004
 10
18.6720229715
 20
-26.0221997063
 10
18.6374464316
 20
-26.0091311331
 10
18.6008657194
 20
-26.000444949
 10
18.5625967319
 20
-25.9964346724
 10
18.5234914986
 20
-25.9974050575
 10
18.4843946053
 20
-26.0034721237
 10
18.446061733
 20
-26.0146134017
 10
18.4091463893
 20
-26.0307367778
 10
18.3743563313
 20
-26.0516480492
  0
LINE
  5
421
100
AcDbEntity
  8
0
100
AcDbLine
 62
253
  6
CONTINUOUS
 10
18.1117867454
 20
-26.5795388707
 11
18.3941241469
 21
-26.9362670525
  0
LINE
  5
422
100
AcDbEntity
  8
0
100
AcDbLine
 62
253
  6
CONTINUOUS
 10
18.6341807791
 20
-26.7299393018
 11
18.1961418312
 21
-26.1764359437
  0
LINE
  5
423
100
AcDbEntity
  8
0
100
AcDbLine
 62
7
  6
CONTINUOUS
 10
-19.1072013089
 20
25.9803263671
 11
-18.8540699253
 21
25.618817286
  0
LINE
  5
424
100
AcDbEntity
  8
0
100
AcDbLine
 62
7
  6
CONTINUOUS
 10
17.6253422118
 20
-26.4791824446
 11
17.8784732425
 21
-26.8406910216
  0
LINE
  5
425
100
AcDbEntity
  8
0
100
AcDbLine
 62
253
  6
CONTINUOUS
 10
-18.3743566663
 20
26.0516485727
 11
-18.7446615351
 21
26.6525798436
  0
LWPOLYLINE
  5
426
100
AcDbEntity
  8
0
100
AcDbPolyline
 62
253
  6
CONTINUOUS
 90
10
 70
0
 10
-19.0206504037
 20
26.4975686446
 10
-18.7820006364
 20
26.1102500399
 10
-18.779367914
 20
26.1058662579
 10
-18.7770954775
 20
26.1019931858
 10
-18.7751819056
 20
26.0986282119
 10
-18.7736286196
 20
26.0957739478
 10
-18.7724398831
 20
26.0934382283
 10
-18.7716171173
 20
26.0916236651
 10
-18.7711589012
 20
26.0903276465
 10
-18.7710652345
 20
26.0895501726
  0
LWPOLYLINE
  5
427
100
AcDbEntity
  8
0
100
AcDbPolyline
 62
253
  6
CONTINUOUS
 90
13
 70
0
 10
-18.0960753549
 20
26.5621831745
 10
-18.0759763991
 20
26.5291046218
 10
-18.060341233
 20
26.4938152823
 10
-18.0493901679
 20
26.456916523
 10
-18.0432811705
 20
26.4192134174
 10
-18.0420077072
 20
26.3811487949
 10
-18.0456365495
 20
26.3427849449
 10
-18.0543489944
 20
26.304536841
 10
-18.0681597568
 20
26.2673419127
 10
-18.0869017708
 20
26.2320604112
 10
-18.110302451
 20
26.1994142213
 10
-18.1380554182
 20
26.1699999339
 10
-18.1697368217
 20
26.1444282625
  0
LWPOLYLINE
  5
428
100
AcDbEntity
  8
0
100
AcDbPolyline
 62
7
  6
CONTINUOUS
 90
13
 70
0
 10
14.3473476809
 20
-30.7679863926
 10
14.3675242016
 20
-30.803754648
 10
14.3909973259
 20
-30.835585794
 10
14.4177670536
 20
-30.8634798306
 10
14.4483638611
 20
-30.8877077595
 10
14.4822572721
 20
-30.907998579
 10
14.5178558574
 20
-30.9235392835
 10
14.5552108814
 20
-30.9341871157
 10
14.5942710796
 20
-30.9400848328
 10
14.6332912298
 20
-30.9408477011
 10
14.6716895912
 20
-30.936347476
 10
14.7100479046
 20
-30.9267124021
 10
14.7483661699
 20
-30.9119424793
  0
LINE
  5
429
100
AcDbEntity
  8
0
100
AcDbLine
 62
7
  6
CONTINUOUS
 10
-14.5307046539
 20
30.2525482402
 11
-14.2635275442
 21
29.6795850795
  0
LINE
  5
42A
100
AcDbEntity
  8
0
100
AcDbLine
 62
7
  6
CONTINUOUS
 10
13.7556225299
 20
-29.4990277113
 11
14.3473476809
 21
-30.7679863926
  0
LINE
  5
42B
100
AcDbEntity
  8
0
100
AcDbLine
 62
7
  6
CONTINUOUS
 10
-13.7556225511
 20
29.4990277567
 11
-14.3473477032
 21
30.7679864404
  0
LINE
  5
42C
100
AcDbEntity
  8
0
100
AcDbLine
 62
7
  6
CONTINUOUS
 10
14.5307046308
 20
-30.2525481907
 11
14.2635275237
 21
-29.6795850355
  0
LWPOLYLINE
  5
42D
100
AcDbEntity
  8
0
100
AcDbPolyline
 62
7
  6
CONTINUOUS
 90
13
 70
0
 10
-14.2635275442
 20
29.6795850795
 10
-14.2493171188
 20
29.6419354381
 10
-14.2400531497
 20
29.6042504997
 10
-14.2357356368
 20
29.5665302643
 10
-14.236483942
 20
29.5282242093
 10
-14.2421787035
 20
29.4898828573
 10
-14.2524618355
 20
29.4531577761
 10
-14.2674659855
 20
29.418095708
 10
-14.2870585061
 20
29.3846499106
 10
-14.3104833695
 20
29.3543317248
 10
-14.3374885663
 20
29.3276449309
 10
-14.368326106
 20
29.3040857485
 10
-14.4029959884
 20
29.2836541778
  0
LINE
  5
42E
100
AcDbEntity
  8
0
100
AcDbLine
 62
7
  6
CONTINUOUS
 10
1.1291662216
 20
-16.3404254913
 11
1.1875
 21
-16.5531915426
  0
LINE
  5
42F
100
AcDbEntity
  8
0
100
AcDbLine
 62
7
  6
CONTINUOUS
 10
0.2541668892
 20
-17.6595744789
 11
0.225
 21
-17.5319148898
  0
LINE
  5
430
100
AcDbEntity
  8
0
100
AcDbLine
 62
7
  6
CONTINUOUS
 10
0.3125
 20
-16.6808511019
 11
0.3416668892
 21
-16.8085106611
  0
LINE
  5
431
100
AcDbEntity
  8
0
100
AcDbLine
 62
7
  6
CONTINUOUS
 10
1.0416662216
 20
-16.595744729
 11
1.0125
 21
-16.4680850506
  0
LINE
  5
432
100
AcDbEntity
  8
0
100
AcDbLine
 62
7
  6
CONTINUOUS
 10
1.0416662216
 20
-16.6808511019
 11
1.0416662216
 21
-16.595744729
  0
LINE
  5
433
100
AcDbEntity
  8
0
100
AcDbLine
 62
7
  6
CONTINUOUS
 10
1.0708337784
 20
-17.1489361525
 11
1.0708337784
 21
-17.0638297796
  0
LINE
  5
434
100
AcDbEntity
  8
0
100
AcDbLine
 62
7
  6
CONTINUOUS
 10
1.2166662216
 20
-16.8510638475
 11
1.2166662216
 21
-17.1489361525
  0
LINE
  5
435
100
AcDbEntity
  8
0
100
AcDbLine
 62
7
  6
CONTINUOUS
 10
1.45
 20
-17.4042553306
 11
1.45
 21
-17.1489361525
  0
LINE
  5
436
100
AcDbEntity
  8
0
100
AcDbLine
 62
7
  6
CONTINUOUS
 10
2.15
 20
-18.0
 11
2.15
 21
-17.4042553306
  0
LINE
  5
437
100
AcDbEntity
  8
0
100
AcDbLine
 62
7
  6
CONTINUOUS
 10
2.15
 20
-17.1489361525
 11
2.15
 21
-16.3404254913
  0
LINE
  5
438
100
AcDbEntity
  8
0
100
AcDbLine
 62
7
  6
CONTINUOUS
 10
2.325
 20
-16.0
 11
2.325
 21
-17.1489361525
  0
LINE
  5
439
100
AcDbEntity
  8
0
100
AcDbLine
 62
7
  6
CONTINUOUS
 10
2.325
 20
-17.4042553306
 11
2.325
 21
-18.0
  0
LINE
  5
43A
100
AcDbEntity
  8
0
100
AcDbLine
 62
7
  6
CONTINUOUS
 10
2.6166662216
 20
-17.1489361525
 11
2.6166662216
 21
-17.4042553306
  0
LINE
  5
43B
100
AcDbEntity
  8
0
100
AcDbLine
 62
7
  6
CONTINUOUS
 10
3.175
 20
22.1382978559
 11
3.175
 21
22.4361702204
  0
LINE
  5
43C
100
AcDbEntity
  8
0
100
AcDbLine
 62
7
  6
CONTINUOUS
 10
3.175
 20
22.606382966
 11
3.175
 21
22.904255271
  0
LINE
  5
43D
100
AcDbEntity
  8
0
100
AcDbLine
 62
7
  6
CONTINUOUS
 10
3.2333333403
 20
22.904255271
 11
3.2333333403
 21
22.606382966
  0
LINE
  5
43E
100
AcDbEntity
  8
0
100
AcDbLine
 62
7
  6
CONTINUOUS
 10
3.2333333403
 20
22.4361702204
 11
3.2333333403
 21
22.1382978559
  0
LINE
  5
43F
100
AcDbEntity
  8
0
100
AcDbLine
 62
7
  6
CONTINUOUS
 10
3.8166666389
 20
22.1382978559
 11
3.8166666389
 21
22.4361702204
  0
LINE
  5
440
100
AcDbEntity
  8
0
100
AcDbLine
 62
7
  6
CONTINUOUS
 10
3.8166666389
 20
22.606382966
 11
3.8166666389
 21
22.904255271
  0
LINE
  5
441
100
AcDbEntity
  8
0
100
AcDbLine
 62
7
  6
CONTINUOUS
 10
3.875
 20
22.904255271
 11
3.875
 21
22.606382966
  0
LINE
  5
442
100
AcDbEntity
  8
0
100
AcDbLine
 62
7
  6
CONTINUOUS
 10
3.875
 20
22.4361702204
 11
3.875
 21
22.1382978559
  0
LINE
  5
443
100
AcDbEntity
  8
0
100
AcDbLine
 62
7
  6
CONTINUOUS
 10
4.4583332777
 20
22.1382978559
 11
4.4583332777
 21
22.4361702204
  0
LINE
  5
444
100
AcDbEntity
  8
0
100
AcDbLine
 62
7
  6
CONTINUOUS
 10
4.4583332777
 20
22.606382966
 11
4.4583332777
 21
22.904255271
  0
LINE
  5
445
100
AcDbEntity
  8
0
100
AcDbLine
 62
7
  6
CONTINUOUS
 10
4.5166667223
 20
22.904255271
 11
4.5166667223
 21
22.606382966
  0
LINE
  5
446
100
AcDbEntity
  8
0
100
AcDbLine
 62
7
  6
CONTINUOUS
 10
4.5166667223
 20
22.4361702204
 11
4.5166667223
 21
22.1382978559
  0
LWPOLYLINE
  5
447
100
AcDbEntity
  8
0
100
AcDbPolyline
 62
253
  6
CONTINUOUS
 90
34
 70
0
 10
5.25
 20
22.55
 10
5.2400478928
 20
22.3561770868
 10
5.2128524397
 20
22.167708111
 10
5.1684136407
 20
21.9845930724
 10
5.105910522
 20
21.8052761412
 10
5.0261640574
 20
21.6313131474
 10
4.9316371684
 20
21.4673715808
 10
4.8221130122
 20
21.3138931212
 10
4.6978084315
 20
21.170436089
 10
4.5618368762
 20
21.0403429346
 10
4.4139565671
 20
20.9238279753
 10
4.2544092833
 20
20.8206768939
 10
4.0870338124
 20
20.7335891888
 10
3.9113276719
 20
20.6628970836
 10
3.7277933443
 20
20.6082683546
 10
3.5417770646
 20
20.5714058292
 10
3.3534391149
 20
20.5528773686
 10
3.162619213
 20
20.5521151115
 10
2.974182747
 20
20.5691183014
 10
2.7880746716
 20
20.6043641201
 10
2.6043500321
 20
20.6573753859
 10
2.428039353
 20
20.7267197973
 10
2.2594534942
 20
20.8127504051
 10
2.0982815957
 20
20.9151141586
 10
1.9486216029
 20
21.0313196041
 10
1.8106663975
 20
21.1617215785
 10
1.6842230977
 20
21.3059652449
 10
1.5728110038
 20
21.4604946392
 10
1.4767525625
 20
21.625848861
 10
1.3957253269
 20
21.8014888106
 10
1.3322812569
 20
21.9822412256
 10
1.2872710057
 20
22.1663816851
 10
1.2598439201
 20
22.3556346099
 10
1.25
 20
22.55
  0
LINE
  5
448
100
AcDbEntity
  8
0
100
AcDbLine
 62
7
  6
CONTINUOUS
 10
1.2166662216
 20
-17.1489361525
 11
1.1875
 21
-17.446808517
  0
LINE
  5
449
100
AcDbEntity
  8
0
100
AcDbLine
 62
7
  6
CONTINUOUS
 10
1.0416662216
 20
-17.4042553306
 11
1.0708337784
 21
-17.1489361525
  0
LINE
  5
44A
100
AcDbEntity
  8
0
100
AcDbLine
 62
7
  6
CONTINUOUS
 10
-1.7041665554
 20
-22.4893617034
 11
-1.7333334446
 21
-22.7021276653
  0
LINE
  5
44B
100
AcDbEntity
  8
0
100
AcDbLine
 62
7
  6
CONTINUOUS
 10
-2.6375
 20
-21.5106383562
 11
-2.6666667223
 21
-21.6808511019
  0
LINE
  5
44C
100
AcDbEntity
  8
0
100
AcDbLine
 62
7
  6
CONTINUOUS
 10
-3.2791667223
 20
-21.7234042883
 11
-3.25
 21
-21.595744729
  0
LINE
  5
44D
100
AcDbEntity
  8
0
100
AcDbLine
 62
7
  6
CONTINUOUS
 10
-3.075
 20
-21.6382979155
 11
-3.1041667223
 21
-21.7659574747
  0
LINE
  5
44E
100
AcDbEntity
  8
0
100
AcDbLine
 62
7
  6
CONTINUOUS
 10
-1.9083334446
 20
-22.6170212627
 11
-1.8791665554
 21
-22.4893617034
  0
LINE
  5
44F
100
AcDbEntity
  8
0
100
AcDbLine
 62
7
  6
CONTINUOUS
 10
0.3416668892
 20
-16.4680850506
 11
0.3125
 21
-16.595744729
  0
LINE
  5
450
100
AcDbEntity
  8
0
100
AcDbLine
 62
7
  6
CONTINUOUS
 10
1.0125
 20
-16.8085106611
 11
1.0416662216
 21
-16.6808511019
  0
LINE
  5
451
100
AcDbEntity
  8
0
100
AcDbLine
 62
7
  6
CONTINUOUS
 10
1.0125
 20
-17.5319148898
 11
1.0416662216
 21
-17.4042553306
  0
LINE
  5
452
100
AcDbEntity
  8
0
100
AcDbLine
 62
7
  6
CONTINUOUS
 10
0.1666668892
 20
-16.5531915426
 11
0.225
 21
-16.3404254913
  0
LINE
  5
453
100
AcDbEntity
  8
0
100
AcDbLine
 62
7
  6
CONTINUOUS
 10
-0.825
 20
-18.0
 11
-0.2416668892
 21
-16.2127659321
  0
LINE
  5
454
100
AcDbEntity
  8
0
100
AcDbLine
 62
7
  6
CONTINUOUS
 10
-2.8125
 20
-21.4680850506
 11
-2.7541667223
 21
-21.2978723049
  0
LWPOLYLINE
  5
455
100
AcDbEntity
  8
0
100
AcDbPolyline
 62
7
  6
CONTINUOUS
 90
19
 70
0
 10
-8.181510029
 20
-23.3692952364
 10
-8.1096832088
 20
-23.2024999863
 10
-8.053520006
 20
-23.0330330427
 10
-8.0130204205
 20
-22.8608944057
 10
-7.9881612153
 20
-22.6847257851
 10
-7.9789656274
 20
-22.5058854712
 10
-7.985503368
 20
-22.3284483344
 10
-8.0081045912
 20
-22.152439734
 10
-8.046439143
 20
-21.9778343108
 10
-8.099586272
 20
-21.8086308573
 10
-8.1678620255
 20
-21.6449445123
 10
-8.2509503561
 20
-21.486660137
 10
-8.346982371
 20
-21.3374311076
 10
-8.4562478505
 20
-21.1974395315
 10
-8.5784570142
 20
-21.0665033013
 10
-8.7108716273
 20
-20.9477294709
 10
-8.8525789449
 20
-20.842153725
 10
-9.0044917119
 20
-20.7487403789
 10
-9.1666099284
 20
-20.6674894327
  0
LINE
  5
456
100
AcDbEntity
  8
0
100
AcDbLine
 62
7
  6
CONTINUOUS
 10
-5.0
 20
-21.6808511019
 11
-4.9416666649
 21
-21.5531915426
  0
LINE
  5
457
100
AcDbEntity
  8
0
100
AcDbLine
 62
7
  6
CONTINUOUS
 10
-8.0
 20
-18.0
 11
-7.5041665554
 21
-16.9787234068
  0
LINE
  5
458
100
AcDbEntity
  8
0
100
AcDbLine
 62
7
  6
CONTINUOUS
 10
-6.6
 20
-18.0
 11
-6.1041665554
 21
-16.9787234068
  0
LINE
  5
459
100
AcDbEntity
  8
0
100
AcDbLine
 62
253
  6
CONTINUOUS
 10
-9.4608891259
 20
-21.9396385005
 11
-14.0705191547
 21
-31.3907806115
  0
LINE
  5
45A
100
AcDbEntity
  8
0
100
AcDbLine
 62
253
  6
CONTINUOUS
 10
-9.342919931
 20
-21.9971936913
 11
-13.9525403293
 21
-31.4483161022
  0
LINE
  5
45B
100
AcDbEntity
  8
0
100
AcDbLine
 62
253
  6
CONTINUOUS
 10
-12.6104694087
 20
-30.5328945684
 11
-9.2378980265
 21
-23.6180985074
  0
LINE
  5
45C
100
AcDbEntity
  8
0
100
AcDbLine
 62
253
  6
CONTINUOUS
 10
-9.0866055217
 20
-23.6918887915
 11
-12.4591734964
 21
-30.606677866
  0
LINE
  5
45D
100
AcDbEntity
  8
0
100
AcDbLine
 62
7
  6
CONTINUOUS
 10
-12.1446271718
 20
-31.4948895371
 11
-8.181510029
 21
-23.3692952364
  0
LINE
  5
45E
100
AcDbEntity
  8
0
100
AcDbLine
 62
7
  6
CONTINUOUS
 10
-7.4166665554
 20
-16.8085106611
 11
-7.0083334446
 21
-16.0
  0
LINE
  5
45F
100
AcDbEntity
  8
0
100
AcDbLine
 62
7
  6
CONTINUOUS
 10
-7.4166665554
 20
-17.1914893389
 11
-7.825
 21
-18.0
  0
LINE
  5
460
100
AcDbEntity
  8
0
100
AcDbLine
 62
7
  6
CONTINUOUS
 10
-6.0166665554
 20
-16.8085106611
 11
-5.6083334446
 21
-16.0
  0
LINE
  5
461
100
AcDbEntity
  8
0
100
AcDbLine
 62
7
  6
CONTINUOUS
 10
-6.0166665554
 20
-17.1914893389
 11
-6.425
 21
-18.0
  0
LINE
  5
462
100
AcDbEntity
  8
0
100
AcDbLine
 62
7
  6
CONTINUOUS
 10
-6.8333334446
 20
-16.0
 11
-7.3291665554
 21
-16.9787234068
  0
LINE
  5
463
100
AcDbEntity
  8
0
100
AcDbLine
 62
7
  6
CONTINUOUS
 10
-5.4333334446
 20
-16.0
 11
-5.9291665554
 21
-16.9787234068
  0
LWPOLYLINE
  5
464
100
AcDbEntity
  8
0
100
AcDbPolyline
 62
253
  6
CONTINUOUS
 90
13
 70
0
 10
-12.4594518978
 20
-30.6065421662
 10
-12.5371265777
 20
-30.7501544674
 10
-12.6261338398
 20
-30.8861835654
 10
-12.7257903414
 20
-31.0137873098
 10
-12.8348234888
 20
-31.1316579017
 10
-12.9528818261
 20
-31.2397061237
 10
-13.0809532335
 20
-31.3386240034
 10
-13.2187284023
 20
-31.427568209
 10
-13.365291694
 20
-31.5053508172
 10
-13.521090226
 20
-31.5715015933
 10
-13.6857609856
 20
-31.6249245305
 10
-13.8579471537
 20
-31.6642382608
 10
-14.036524103
 20
-31.6883106163
  0
LWPOLYLINE
  5
465
100
AcDbEntity
  8
0
100
AcDbPolyline
 62
253
  6
CONTINUOUS
 90
13
 70
0
 10
-12.6104694087
 20
-30.5328945684
 10
-12.6777479369
 20
-30.6562972219
 10
-12.7533421581
 20
-30.7717566803
 10
-12.8372520724
 20
-30.8792729437
 10
-12.9295728484
 20
-30.9791030135
 10
-13.0302093174
 20
-31.0709898883
 10
-13.1388759735
 20
-31.1541625635
 10
-13.2557146294
 20
-31.2291174565
 10
-13.3805834723
 20
-31.29535815
 10
-13.5127715582
 20
-31.3506243869
 10
-13.6520419056
 20
-31.3941627485
 10
-13.798631496
 20
-31.4267266536
 10
-13.9525403293
 20
-31.4483161022
  0
LWPOLYLINE
  5
466
100
AcDbEntity
  8
0
100
AcDbPolyline
 62
7
  6
CONTINUOUS
 90
4
 70
0
 10
34.083518021
 20
33.253980001
 10
34.0992339248
 20
33.2704152334
 10
34.109742419
 20
33.281685181
 10
34.1150435034
 20
33.2877898436
  0
LINE
  5
467
100
AcDbEntity
  8
0
100
AcDbLine
 62
7
  6
CONTINUOUS
 10
34.0356181892
 20
33.2047472819
 11
34.083518021
 21
33.253980001
  0
LINE
  5
468
100
AcDbEntity
  8
0
100
AcDbLine
 62
7
  6
CONTINUOUS
 10
33.9319426335
 20
33.0995809098
 11
34.0356181892
 21
33.2047472819
  0
LINE
  5
469
100
AcDbEntity
  8
0
100
AcDbLine
 62
7
  6
CONTINUOUS
 10
33.7585766573
 20
32.92547653
 11
33.9319426335
 21
33.0995809098
  0
LINE
  5
46A
100
AcDbEntity
  8
0
100
AcDbLine
 62
7
  6
CONTINUOUS
 10
32.1440595259
 20
30.9273124401
 11
25.3025439189
 21
24.0857968332
  0
LINE
  5
46B
100
AcDbEntity
  8
0
100
AcDbLine
 62
7
  6
CONTINUOUS
 10
-24.0857968332
 20
-25.3025439189
 11
-30.9273124401
 21
-32.1440595259
  0
LINE
  5
46C
100
AcDbEntity
  8
0
100
AcDbLine
 62
7
  6
CONTINUOUS
 10
-30.8663280912
 20
-32.2496875166
 11
-24.5007716353
 21
-25.8841310607
  0
LINE
  5
46D
100
AcDbEntity
  8
0
100
AcDbLine
 62
7
  6
CONTINUOUS
 10
25.8841310607
 20
24.5007716353
 11
32.2496875166
 21
30.8663280912
  0
LINE
  5
46E
100
AcDbEntity
  8
0
100
AcDbLine
 62
7
  6
CONTINUOUS
 10
-33.0995819128
 20
-33.9319436272
 11
-32.9254775384
 21
-33.7585776661
  0
LINE
  5
46F
100
AcDbEntity
  8
0
100
AcDbLine
 62
7
  6
CONTINUOUS
 10
-33.2047478858
 20
-34.0356187807
 11
-33.0995819128
 21
-33.9319436272
  0
LWPOLYLINE
  5
470
100
AcDbEntity
  8
0
100
AcDbPolyline
 62
7
  6
CONTINUOUS
 90
5
 70
0
 10
-33.2877898436
 20
-34.1150435034
 10
-33.2816852521
 20
-34.1097424857
 10
-33.2704153978
 20
-34.0992340814
 10
-33.2539802807
 20
-34.0835182904
 10
-33.2047478858
 20
-34.0356187807
  0
LWPOLYLINE
  5
471
100
AcDbEntity
  8
0
100
AcDbPolyline
 62
7
  6
CONTINUOUS
 90
19
 70
0
 10
30.8161262037
 20
13.77629854
 10
30.964553665
 20
13.8675652718
 10
31.1026665025
 20
13.9692657535
 10
31.2304647162
 20
14.0813999853
 10
31.3486740051
 20
14.2049320069
 10
31.4565686702
 20
14.3388977785
 10
31.5519716147
 20
14.4804051802
 10
31.634642529
 20
14.6296034234
 10
31.7048217227
 20
14.7863432967
 10
31.7610530277
 20
14.9472850452
 10
31.803061662
 20
15.1125115452
 10
31.8311224076
 20
15.2819399204
 10
31.8446034427
 20
15.4519817868
 10
31.8432217693
 20
15.6226463082
 10
31.8272603854
 20
15.7939243208
 10
31.7969364622
 20
15.9621999499
 10
31.7523223902
 20
16.1262679038
 10
31.6933457789
 20
16.2873334742
 10
31.6200066283
 20
16.445396661
  0
LINE
  5
472
100
AcDbEntity
  8
0
100
AcDbLine
 62
253
  6
CONTINUOUS
 10
29.7392980426
 20
14.3138324357
 11
23.0471382059
 21
10.6043076644
  0
LINE
  5
473
100
AcDbEntity
  8
0
100
AcDbLine
 62
253
  6
CONTINUOUS
 10
29.8848817091
 20
14.0519946367
 11
23.1920159045
 21
10.3420785411
  0
LINE
  5
474
100
AcDbEntity
  8
0
100
AcDbLine
 62
7
  6
CONTINUOUS
 10
22.9090811752
 20
9.3933519102
 11
30.8161262037
 21
13.77629854
  0
LWPOLYLINE
  5
475
100
AcDbEntity
  8
0
100
AcDbPolyline
 62
253
  6
CONTINUOUS
 90
19
 70
0
 10
23.1920083955
 20
10.3420920722
 10
23.0350572329
 20
10.2638820952
 10
22.8719091752
 20
10.1997661211
 10
22.7038279704
 20
10.1502215489
 10
22.5321216414
 20
10.1156146919
 10
22.3581054428
 20
10.0961913987
 10
22.1830905047
 20
10.0920834258
 10
22.0084200502
 20
10.1033127515
 10
21.835434537
 20
10.1297845909
 10
21.6654346584
 20
10.1712943199
 10
21.4997237313
 20
10.2275221281
 10
21.3395723484
 20
10.2980363778
 10
21.1861867461
 20
10.3823097964
 10
21.0407474497
 20
10.4797012634
 10
20.9043743265
 20
10.5894699346
 10
20.7781009969
 20
10.7107998859
 10
20.6629031597
 20
10.8427769894
 10
20.5596856201
 20
10.9843896536
 10
20.4692560827
 20
11.1345567047
  0
LWPOLYLINE
  5
476
100
AcDbEntity
  8
0
100
AcDbPolyline
 62
7
  6
CONTINUOUS
 90
13
 70
0
 10
-29.499027746
 20
13.7556225461
 10
-29.4610671931
 20
13.7413257794
 10
-29.4230868528
 20
13.7320486946
 10
-29.385086725
 20
13.7277912915
 10
-29.346504668
 20
13.7286782843
 10
-29.3079028235
 20
13.7345849589
 10
-29.270967617
 20
13.7451371732
 10
-29.2357479739
 20
13.7604712939
 10
-29.2021949687
 20
13.7804509544
 10
-29.17184825
 20
13.8042929127
 10
-29.145221034
 20
13.8317360881
 10
-29.1218001045
 20
13.8630415614
 10
-29.1015854615
 20
13.8982093324
  0
LWPOLYLINE
  5
477
100
AcDbEntity
  8
0
100
AcDbPolyline
 62
7
  6
CONTINUOUS
 90
4
 70
0
 10
-33.253980001
 20
34.083518021
 10
-33.2704152335
 20
34.0992339248
 10
-33.2816851811
 20
34.109742419
 10
-33.2877898437
 20
34.1150435036
  0
LINE
  5
478
100
AcDbEntity
  8
0
100
AcDbLine
 62
7
  6
CONTINUOUS
 10
-33.2047472819
 20
34.0356181892
 11
-33.253980001
 21
34.083518021
  0
LINE
  5
479
100
AcDbEntity
  8
0
100
AcDbLine
 62
7
  6
CONTINUOUS
 10
-33.0995809098
 20
33.9319426335
 11
-33.2047472819
 21
34.0356181892
  0
LINE
  5
47A
100
AcDbEntity
  8
0
100
AcDbLine
 62
7
  6
CONTINUOUS
 10
-32.92547653
 20
33.7585766573
 11
-33.0995809098
 21
33.9319426335
  0
LINE
  5
47B
100
AcDbEntity
  8
0
100
AcDbLine
 62
7
  6
CONTINUOUS
 10
-31.0716273882
 20
32.1834704083
 11
-24.7660574882
 21
25.8779005083
  0
LINE
  5
47C
100
AcDbEntity
  8
0
100
AcDbLine
 62
7
  6
CONTINUOUS
 10
25.8779005083
 20
-24.7660574882
 11
32.1834704083
 21
-31.0716273882
  0
LINE
  5
47D
100
AcDbEntity
  8
0
100
AcDbLine
 62
7
  6
CONTINUOUS
 10
32.3556049117
 20
-30.9722454863
 11
26.2675383864
 21
-24.884178961
  0
LINE
  5
47E
100
AcDbEntity
  8
0
100
AcDbLine
 62
7
  6
CONTINUOUS
 10
-24.884178961
 20
26.2675383864
 11
-30.9722454863
 21
32.3556049117
  0
LINE
  5
47F
100
AcDbEntity
  8
0
100
AcDbLine
 62
7
  6
CONTINUOUS
 10
33.9319436272
 20
-33.0995819128
 11
33.7585776661
 21
-32.9254775384
  0
LINE
  5
480
100
AcDbEntity
  8
0
100
AcDbLine
 62
7
  6
CONTINUOUS
 10
34.0356187807
 20
-33.2047478858
 11
33.9319436272
 21
-33.0995819128
  0
LWPOLYLINE
  5
481
100
AcDbEntity
  8
0
100
AcDbPolyline
 62
7
  6
CONTINUOUS
 90
5
 70
0
 10
34.1150435036
 20
-33.2877898437
 10
34.1097424858
 20
-33.2816852522
 10
34.0992340814
 20
-33.2704153978
 10
34.0835182904
 20
-33.2539802807
 10
34.0356187807
 20
-33.2047478858
  0
LWPOLYLINE
  5
482
100
AcDbEntity
  8
0
100
AcDbPolyline
 62
253
  6
CONTINUOUS
 90
13
 70
0
 10
-18.7849936446
 20
26.1151445316
 10
-18.7616249096
 20
26.0864337088
 10
-18.7346566816
 20
26.0611135583
 10
-18.7045621981
 20
26.0395710004
 10
-18.6720229715
 20
26.0221997063
 10
-18.6374464316
 20
26.0091311331
 10
-18.6008657194
 20
26.000444949
 10
-18.5625967319
 20
25.9964346724
 10
-18.5234914986
 20
25.9974050575
 10
-18.4843946053
 20
26.0034721237
 10
-18.446061733
 20
26.0146134017
 10
-18.4091463893
 20
26.0307367778
 10
-18.3743563313
 20
26.0516480492
  0
LINE
  5
483
100
AcDbEntity
  8
0
100
AcDbLine
 62
253
  6
CONTINUOUS
 10
-18.6341807791
 20
26.7299393018
 11
-18.1961418312
 21
26.1764359437
  0
LINE
  5
484
100
AcDbEntity
  8
0
100
AcDbLine
 62
253
  6
CONTINUOUS
 10
-18.1117867454
 20
26.5795388707
 11
-18.3941241469
 21
26.9362670525
  0
LINE
  5
485
100
AcDbEntity
  8
0
100
AcDbLine
 62
7
  6
CONTINUOUS
 10
19.1072013089
 20
-25.9803263671
 11
18.8540702782
 21
-25.6188177901
  0
LINE
  5
486
100
AcDbEntity
  8
0
100
AcDbLine
 62
7
  6
CONTINUOUS
 10
-17.6253418588
 20
26.4791819406
 11
-17.8784732425
 21
26.8406910216
  0
LINE
  5
487
100
AcDbEntity
  8
0
100
AcDbLine
 62
253
  6
CONTINUOUS
 10
18.3743566663
 20
-26.0516485727
 11
18.7446615351
 21
-26.6525798436
  0
LWPOLYLINE
  5
488
100
AcDbEntity
  8
0
100
AcDbPolyline
 62
253
  6
CONTINUOUS
 90
10
 70
0
 10
19.0206504037
 20
-26.4975686446
 10
18.7820006364
 20
-26.1102500399
 10
18.779367914
 20
-26.1058662579
 10
18.7770954775
 20
-26.1019931858
 10
18.7751819056
 20
-26.0986282119
 10
18.7736286196
 20
-26.0957739478
 10
18.7724398831
 20
-26.0934382283
 10
18.7716171173
 20
-26.0916236651
 10
18.7711589012
 20
-26.0903276465
 10
18.7710652345
 20
-26.0895501726
  0
LWPOLYLINE
  5
489
100
AcDbEntity
  8
0
100
AcDbPolyline
 62
253
  6
CONTINUOUS
 90
13
 70
0
 10
18.0960753549
 20
-26.5621831745
 10
18.0759763991
 20
-26.5291046218
 10
18.060341233
 20
-26.4938152823
 10
18.0493901679
 20
-26.456916523
 10
18.0432811705
 20
-26.4192134174
 10
18.0420077072
 20
-26.3811487949
 10
18.0456365495
 20
-26.3427849449
 10
18.0543489944
 20
-26.304536841
 10
18.0681597568
 20
-26.2673419127
 10
18.0869017708
 20
-26.2320604112
 10
18.110302451
 20
-26.1994142213
 10
18.1380554182
 20
-26.1699999339
 10
18.1697368217
 20
-26.1444282625
  0
LWPOLYLINE
  5
48A
100
AcDbEntity
  8
0
100
AcDbPolyline
 62
7
  6
CONTINUOUS
 90
13
 70
0
 10
-14.3473477032
 20
30.7679864404
 10
-14.3675242096
 20
30.803754679
 10
-14.3909973234
 20
30.8355858126
 10
-14.4177670446
 20
30.8634798413
 10
-14.4483638508
 20
30.8877077686
 10
-14.4822572643
 20
30.9079985909
 10
-14.5178558523
 20
30.9235392977
 10
-14.5552108796
 20
30.9341871298
 10
-14.5942710813
 20
30.9400848465
 10
-14.63329123
 20
30.9408477151
 10
-14.671689583
 20
30.9363474915
 10
-14.7100478829
 20
30.9267124198
 10
-14.7483661297
 20
30.9119425001
  0
LWPOLYLINE
  5
48B
100
AcDbEntity
  8
0
100
AcDbPolyline
 62
7
  6
CONTINUOUS
 90
13
 70
0
 10
14.2635275237
 20
-29.6795850355
 10
14.2493171019
 20
-29.6419354142
 10
14.2400531355
 20
-29.6042504906
 10
14.2357356243
 20
-29.5665302644
 10
14.23648393
 20
-29.5282242115
 10
14.242178691
 20
-29.4898828561
 10
14.2524618229
 20
-29.4531577716
 10
14.2674659752
 20
-29.4180957009
 10
14.2870584985
 20
-29.3846499011
 10
14.3104833598
 20
-29.3543317169
 10
14.3374885483
 20
-29.32764493
 10
14.3683260748
 20
-29.3040857589
 10
14.4029959393
 20
-29.2836542034
  0
LINE
  5
48C
100
AcDbEntity
  8
0
100
AcDbLine
 62
7
  6
CONTINUOUS
 10
13.0133613851
 20
26.4422425184
 11
13.121767838
 21
26.8439173462
  0
LINE
  5
48D
100
AcDbEntity
  8
0
100
AcDbLine
 62
7
  6
CONTINUOUS
 10
1.1875
 20
-17.446808517
 11
1.1291662216
 21
-17.6595744789
  0
LINE
  5
48E
100
AcDbEntity
  8
0
100
AcDbLine
 62
7
  6
CONTINUOUS
 10
-0.0666668892
 20
-16.2127659321
 11
-0.65
 21
-18.0
  0
LINE
  5
48F
100
AcDbEntity
  8
0
100
AcDbLine
 62
7
  6
CONTINUOUS
 10
-2.5791667223
 20
-21.3829786777
 11
-2.6375
 21
-21.5106383562
  0
LINE
  5
490
100
AcDbEntity
  8
0
100
AcDbLine
 62
7
  6
CONTINUOUS
 10
0.4
 20
-16.3404254913
 11
0.3416668892
 21
-16.4680850506
  0
LINE
  5
491
100
AcDbEntity
  8
0
100
AcDbLine
 62
7
  6
CONTINUOUS
 10
0.9541662216
 20
-16.9361702204
 11
1.0125
 21
-16.8085106611
  0
LINE
  5
492
100
AcDbEntity
  8
0
100
AcDbLine
 62
7
  6
CONTINUOUS
 10
0.9541662216
 20
-17.6595744789
 11
1.0125
 21
-17.5319148898
  0
LINE
  5
493
100
AcDbEntity
  8
0
100
AcDbLine
 62
7
  6
CONTINUOUS
 10
-0.8583334446
 20
-22.2765957713
 11
-0.9166665554
 21
-22.4042553306
  0
LINE
  5
494
100
AcDbEntity
  8
0
100
AcDbLine
 62
7
  6
CONTINUOUS
 10
-3.1041667223
 20
-21.7659574747
 11
-3.1916667223
 21
-21.9361702204
  0
LINE
  5
495
100
AcDbEntity
  8
0
100
AcDbLine
 62
7
  6
CONTINUOUS
 10
0.225
 20
-16.3404254913
 11
0.3125
 21
-16.1702127457
  0
LINE
  5
496
100
AcDbEntity
  8
0
100
AcDbLine
 62
7
  6
CONTINUOUS
 10
1.1291662216
 20
-17.6595744789
 11
1.0416662216
 21
-17.8297872394
  0
LINE
  5
497
100
AcDbEntity
  8
0
100
AcDbLine
 62
7
  6
CONTINUOUS
 10
-4.5583331108
 20
-17.1489361525
 11
-3.8583331108
 21
-16.0
  0
LINE
  5
498
100
AcDbEntity
  8
0
100
AcDbLine
 62
7
  6
CONTINUOUS
 10
-2.5166668892
 20
-17.1489361525
 11
-1.8166668892
 21
-16.0
  0
LINE
  5
499
100
AcDbEntity
  8
0
100
AcDbLine
 62
7
  6
CONTINUOUS
 10
-3.8583331108
 20
-16.3404254913
 11
-4.3541668892
 21
-17.1489361525
  0
LINE
  5
49A
100
AcDbEntity
  8
0
100
AcDbLine
 62
7
  6
CONTINUOUS
 10
-1.8166668892
 20
-16.3404254913
 11
-2.3125
 21
-17.1489361525
  0
LINE
  5
49B
100
AcDbEntity
  8
0
100
AcDbLine
 62
7
  6
CONTINUOUS
 10
24.5007716353
 20
25.8841310607
 11
24.0857968332
 21
25.3025439189
  0
LINE
  5
49C
100
AcDbEntity
  8
0
100
AcDbLine
 62
7
  6
CONTINUOUS
 10
34.1150435034
 20
33.2877898436
 11
34.5577395104
 21
33.9066778495
  0
LINE
  5
49D
100
AcDbEntity
  8
0
100
AcDbLine
 62
7
  6
CONTINUOUS
 10
-33.9066778495
 20
-34.5577395104
 11
-33.2877898436
 21
-34.1150435034
  0
LINE
  5
49E
100
AcDbEntity
  8
0
100
AcDbLine
 62
7
  6
CONTINUOUS
 10
-25.302543919
 20
-24.0857968332
 11
-25.8841310607
 21
-24.5007716353
  0
LINE
  5
49F
100
AcDbEntity
  8
0
100
AcDbLine
 62
7
  6
CONTINUOUS
 10
-25.3129902458
 20
-14.1510609078
 11
-25.7363671242
 21
-14.2881167145
  0
LWPOLYLINE
  5
4A0
100
AcDbEntity
  8
0
100
AcDbPolyline
 62
253
  6
CONTINUOUS
 90
13
 70
0
 10
24.9608370671
 20
-11.1227648318
 10
24.9464545917
 20
-11.1127970031
 10
24.9287560487
 20
-11.1065536396
 10
24.9080382738
 20
-11.1041394537
 10
24.8846487409
 20
-11.1055949354
 10
24.8589797337
 20
-11.1108956737
 10
24.8314617667
 20
-11.1199527659
 10
24.802556365
 20
-11.1326143086
 10
24.7727483232
 20
-11.1486679453
 10
24.7425375748
 20
-11.1678444282
 10
24.7124308075
 20
-11.1898221337
 10
24.6829329648
 20
-11.214232457
 10
24.6545387778
 20
-11.2406659937
  0
LINE
  5
4A1
100
AcDbEntity
  8
0
100
AcDbLine
 62
7
  6
CONTINUOUS
 10
-33.2877898437
 20
34.1150435036
 11
-34.2749365943
 21
34.8210941895
  0
LINE
  5
4A2
100
AcDbEntity
  8
0
100
AcDbLine
 62
253
  6
CONTINUOUS
 10
23.8506868931
 20
-12.2329150058
 11
25.1280320603
 21
-13.4883498144
  0
LINE
  5
4A3
100
AcDbEntity
  8
0
100
AcDbLine
 62
253
  6
CONTINUOUS
 10
23.9685880551
 20
-11.9266167165
 11
25.2459332222
 21
-13.1820515251
  0
LINE
  5
4A4
100
AcDbEntity
  8
0
100
AcDbLine
 62
7
  6
CONTINUOUS
 10
23.546625695
 20
-12.232917196
 11
27.7482835831
 21
-16.4345750841
  0
LINE
  5
4A5
100
AcDbEntity
  8
0
100
AcDbLine
 62
253
  6
CONTINUOUS
 10
28.03742048
 20
-16.3977382341
 11
25.1280320603
 21
-13.4883498144
  0
LINE
  5
4A6
100
AcDbEntity
  8
0
100
AcDbLine
 62
253
  6
CONTINUOUS
 10
23.8506868932
 20
-11.8087155546
 11
23.9685880551
 21
-11.9266167165
  0
LINE
  5
4A7
100
AcDbEntity
  8
0
100
AcDbLine
 62
253
  6
CONTINUOUS
 10
25.2459332222
 20
-13.1820515251
 11
28.1966470815
 21
-16.1327653844
  0
LINE
  5
4A8
100
AcDbEntity
  8
0
100
AcDbLine
 62
7
  6
CONTINUOUS
 10
34.8210941895
 20
-34.2749365943
 11
34.1150435036
 21
-33.2877898437
  0
LINE
  5
4A9
100
AcDbEntity
  8
0
100
AcDbLine
 62
7
  6
CONTINUOUS
 10
1.7767866907
 20
12.627694348
 11
1.0137651633
 21
13.9051389436
  0
LINE
  5
4AA
100
AcDbEntity
  8
0
100
AcDbLine
 62
7
  6
CONTINUOUS
 10
1.4985897312
 20
14.01
 11
2.0
 21
13.1705429008
  0
LINE
  5
4AB
100
AcDbEntity
  8
0
100
AcDbLine
 62
7
  6
CONTINUOUS
 10
1.45
 20
-17.1489361525
 11
2.15
 21
-16.0
  0
LINE
  5
4AC
100
AcDbEntity
  8
0
100
AcDbLine
 62
7
  6
CONTINUOUS
 10
2.15
 20
-16.3404254913
 11
1.6541662216
 21
-17.1489361525
  0
LINE
  5
4AD
100
AcDbEntity
  8
0
100
AcDbLine
 62
7
  6
CONTINUOUS
 10
-3.3375
 20
-21.8085106611
 11
-3.2791667223
 21
-21.7234042883
  0
LINE
  5
4AE
100
AcDbEntity
  8
0
100
AcDbLine
 62
7
  6
CONTINUOUS
 10
-2.7541667223
 20
-21.2978723049
 11
-2.6375
 21
-21.1276595593
  0
LINE
  5
4AF
100
AcDbEntity
  8
0
100
AcDbLine
 62
7
  6
CONTINUOUS
 10
-1.7333334446
 20
-22.7021276653
 11
-1.85
 21
-22.8723404259
  0
LWPOLYLINE
  5
4B0
100
AcDbEntity
  8
0
100
AcDbPolyline
 62
7
  6
CONTINUOUS
 90
15
 70
0
 10
25.7726161408
 20
14.4719530694
 10
25.7866429693
 20
14.4920651529
 10
25.8174594473
 20
14.5210338478
 10
25.8650655748
 20
14.5588591542
 10
25.930299082
 20
14.6061044745
 10
26.0123222386
 20
14.6622064062
 10
26.108621854
 20
14.7254747421
 10
26.2195793362
 20
14.7961033573
 10
26.3448132773
 20
14.8738983767
 10
26.4806662621
 20
14.9565879675
 10
26.6274635356
 20
15.0443267762
 10
26.7848798529
 20
15.1369601564
 10
26.9482820643
 20
15.2317523357
 10
27.1161257866
 20
15.3277913902
 10
27.2899554031
 20
15.425989244
  0
LWPOLYLINE
  5
4B1
100
AcDbEntity
  8
0
100
AcDbPolyline
 62
7
  6
CONTINUOUS
 90
12
 70
0
 10
26.947962542
 20
14.9659047025
 10
26.9424352583
 20
14.9589369436
 10
26.9306499833
 20
14.948717242
 10
26.912606717
 20
14.9352455975
 10
26.8878330432
 20
14.918219741
 10
26.856801378
 20
14.8979419417
 10
26.8209289702
 20
14.8753190072
 10
26.7800732388
 20
14.8502807272
 10
26.7343767648
 20
14.822897312
 10
26.6856845393
 20
14.7942862001
 10
26.6346115595
 20
14.764819871
 10
26.5805428281
 20
14.7341258452
  0
LINE
  5
4B2
100
AcDbEntity
  8
0
100
AcDbLine
 62
7
  6
CONTINUOUS
 10
-3.1916667223
 20
-21.9361702204
 11
-3.3083332777
 21
-22.0638297796
  0
LINE
  5
4B3
100
AcDbEntity
  8
0
100
AcDbLine
 62
7
  6
CONTINUOUS
 10
0.4875
 20
-16.2553191185
 11
0.4
 21
-16.3404254913
  0
LINE
  5
4B4
100
AcDbEntity
  8
0
100
AcDbLine
 62
7
  6
CONTINUOUS
 10
0.8666662216
 20
-17.0212765932
 11
0.9541662216
 21
-16.9361702204
  0
LINE
  5
4B5
100
AcDbEntity
  8
0
100
AcDbLine
 62
7
  6
CONTINUOUS
 10
1.0708337784
 20
-17.0638297796
 11
0.8958337784
 21
-17.2340425253
  0
LINE
  5
4B6
100
AcDbEntity
  8
0
100
AcDbLine
 62
7
  6
CONTINUOUS
 10
0.8666662216
 20
-17.7446808517
 11
0.9541662216
 21
-17.6595744789
  0
LWPOLYLINE
  5
4B7
100
AcDbEntity
  8
0
100
AcDbPolyline
 62
7
  6
CONTINUOUS
 90
13
 70
0
 10
-13.7137048388
 20
-27.7555067701
 10
-13.7203664748
 20
-27.7613758399
 10
-13.729948666
 20
-27.7736657658
 10
-13.7424514126
 20
-27.7923765477
 10
-13.7581518405
 20
-27.8179957751
 10
-13.7767728236
 20
-27.8500358585
 10
-13.7974829842
 20
-27.8870340295
 10
-13.8203449934
 20
-27.9291363509
 10
-13.84529618
 20
-27.9761967599
 10
-13.8713171526
 20
-28.0263142991
 10
-13.8980681141
 20
-28.078855316
 10
-13.9258888615
 20
-28.1344534632
 10
-13.954779395
 20
-28.1931087406
  0
LINE
  5
4B8
100
AcDbEntity
  8
0
100
AcDbLine
 62
7
  6
CONTINUOUS
 10
0.3125
 20
-16.1702127457
 11
0.4583337784
 21
-16.0425531864
  0
LWPOLYLINE
  5
4B9
100
AcDbEntity
  8
0
100
AcDbPolyline
 62
7
  6
CONTINUOUS
 90
13
 70
0
 10
28.4278743175
 20
15.939145621
 10
28.4190176994
 20
15.9381402301
 10
28.4040886141
 20
15.9335518804
 10
28.3830870619
 20
15.9253805717
 10
28.3555064047
 20
15.913385868
 10
28.3218532804
 20
15.8978082054
 10
28.283647603
 20
15.8793688922
 10
28.2407541906
 20
15.8579841645
 10
28.193308225
 20
15.8337377863
 10
28.1432351659
 20
15.8076023582
 10
28.0911768329
 20
15.7799020805
 10
28.0364914062
 20
15.7503127529
 10
27.979178886
 20
15.7188343754
  0
LWPOLYLINE
  5
4BA
100
AcDbEntity
  8
0
100
AcDbPolyline
 62
7
  6
CONTINUOUS
 90
13
 70
0
 10
30.6621628389
 20
16.7695491089
 10
30.6568697001
 20
16.7689573346
 10
30.6479311908
 20
16.7662147851
 10
30.635347311
 20
16.7613214603
 10
30.6188139788
 20
16.754133062
 10
30.5986352761
 20
16.7447938884
 10
30.5757234485
 20
16.733736834
 10
30.5499976102
 20
16.7209117607
 10
30.521538647
 20
16.7063688066
 10
30.4915014618
 20
16.6906912798
 10
30.4602710224
 20
16.6740736165
 10
30.427462361
 20
16.6563213806
 10
22.2307195592
 20
12.1129668053
  0
LINE
  5
4BB
100
AcDbEntity
  8
0
100
AcDbLine
 62
253
  6
CONTINUOUS
 10
-23.8506868931
 20
11.8087155546
 11
-23.5466235048
 21
11.8087155546
  0
LINE
  5
4BC
100
AcDbEntity
  8
0
100
AcDbLine
 62
253
  6
CONTINUOUS
 10
-23.5466235048
 20
12.2329150058
 11
-23.8506868931
 21
12.2329150058
  0
LINE
  5
4BD
100
AcDbEntity
  8
0
100
AcDbLine
 62
7
  6
CONTINUOUS
 10
-26.9387108524
 20
20.5234266033
 11
-27.3413884115
 21
20.6279174841
  0
LWPOLYLINE
  5
4BE
100
AcDbEntity
  8
0
100
AcDbPolyline
 62
253
  6
CONTINUOUS
 90
10
 70
0
 10
-18.1697367673
 20
26.1444283006
 10
-18.17060251
 20
26.1450210559
 10
-18.1719892775
 20
26.1463599864
 10
-18.1738961612
 20
26.1484437946
 10
-18.1763220513
 20
26.1512703206
 10
-18.1792648176
 20
26.1548370973
 10
-18.1827213034
 20
26.1591413397
 10
-18.1866884238
 20
26.1641792172
 10
-18.1911631774
 20
26.1699458684
 10
-18.1961418225
 20
26.1764359497
  0
LINE
  5
4BF
100
AcDbEntity
  8
0
100
AcDbLine
 62
253
  6
CONTINUOUS
 10
25.9099735864
 20
-12.5180111608
 11
28.6692001029
 21
-15.2772376773
  0
LINE
  5
4C0
100
AcDbEntity
  8
0
100
AcDbLine
 62
253
  6
CONTINUOUS
 10
24.6545387778
 20
-11.2406659937
 11
24.5366376159
 21
-11.1227648318
  0
LINE
  5
4C1
100
AcDbEntity
  8
0
100
AcDbLine
 62
253
  6
CONTINUOUS
 10
26.2162718758
 20
-12.4001099989
 11
28.8117290577
 21
-14.9955671808
  0
LINE
  5
4C2
100
AcDbEntity
  8
0
100
AcDbLine
 62
7
  6
CONTINUOUS
 10
28.7512719161
 20
-14.6091362923
 11
24.9608392573
 21
-10.8187036336
  0
LINE
  5
4C3
100
AcDbEntity
  8
0
100
AcDbLine
 62
253
  6
CONTINUOUS
 10
25.9099735864
 20
-12.5180111608
 11
24.6545387778
 21
-11.2406659937
  0
LINE
  5
4C4
100
AcDbEntity
  8
0
100
AcDbLine
 62
253
  6
CONTINUOUS
 10
26.2162718758
 20
-12.4001099989
 11
24.9608370671
 21
-11.1227648318
  0
LWPOLYLINE
  5
4C5
100
AcDbEntity
  8
0
100
AcDbPolyline
 62
253
  6
CONTINUOUS
 90
13
 70
0
 10
23.8506868931
 20
-12.2329150058
 10
23.8248500097
 20
-12.2034396814
 10
23.8030708076
 20
-12.1708372613
 10
23.7857246484
 20
-12.1356625187
 10
23.7731106969
 20
-12.0985116617
 10
23.765450148
 20
-12.0600217898
 10
23.7628779843
 20
-12.0208609681
 10
23.7654377826
 20
-11.9817027201
 10
23.7730853019
 20
-11.9432136987
 10
23.785689691
 20
-11.906052462
 10
23.8030352854
 20
-11.8708548489
 10
23.8248252972
 20
-11.8382231003
 10
23.8506868931
 20
-11.8087155545
  0
LWPOLYLINE
  5
4C6
100
AcDbEntity
  8
0
100
AcDbPolyline
 62
253
  6
CONTINUOUS
 90
13
 70
0
 10
25.1280320603
 20
-13.4883498144
 10
25.1180642316
 20
-13.473967339
 10
25.1118208681
 20
-13.4562687959
 10
25.1094066822
 20
-13.4355510211
 10
25.1108621639
 20
-13.4121614881
 10
25.1161629022
 20
-13.3864924809
 10
25.1252199944
 20
-13.358974514
 10
25.1378815371
 20
-13.3300691123
 10
25.1539351738
 20
-13.3002610705
 10
25.1731116567
 20
-13.2700503221
 10
25.1950893622
 20
-13.2399435547
 10
25.2194996855
 20
-13.2104457121
 10
25.2459332222
 20
-13.1820515251
  0
LINE
  5
4C7
100
AcDbEntity
  8
0
100
AcDbLine
 62
7
  6
CONTINUOUS
 10
20.5234266033
 20
-26.9387108524
 11
20.6279174841
 21
-27.3413884115
  0
LWPOLYLINE
  5
4C8
100
AcDbEntity
  8
0
100
AcDbPolyline
 62
253
  6
CONTINUOUS
 90
10
 70
0
 10
18.3533103717
 20
-26.015888679
 10
18.3535714184
 20
-26.0169052788
 10
18.3543556322
 20
-26.0186669377
 10
18.3556620151
 20
-26.0211722302
 10
18.3574888389
 20
-26.024419272
 10
18.3598344203
 20
-26.0284050753
 10
18.3626970805
 20
-26.0331254924
 10
18.3660741372
 20
-26.0385761088
 10
18.3699619478
 20
-26.044752306
 10
18.3743566577
 20
-26.0516485788
  0
LWPOLYLINE
  5
4C9
100
AcDbEntity
  8
0
100
AcDbPolyline
 62
253
  6
CONTINUOUS
 90
13
 70
0
 10
13.9525406123
 20
31.4483149876
 10
13.9521953293
 20
31.4731161902
 10
13.953814019
 20
31.4984252234
 10
13.9571049774
 20
31.5238658616
 10
13.9610524696
 20
31.5488313691
 10
13.9654792449
 20
31.5730390323
 10
13.9715887293
 20
31.5964247106
 10
13.979245122
 20
31.6183899702
 10
13.987707602
 20
31.6383125106
 10
13.9978965664
 20
31.6559067786
 10
14.0099735602
 20
31.6705687775
 10
14.023031663
 20
31.6815021854
 10
14.0365523174
 20
31.6880640903
  0
LINE
  5
4CA
100
AcDbEntity
  8
0
100
AcDbLine
 62
253
  6
CONTINUOUS
 10
14.25
 20
-44.75
 11
14.25
 21
-44.6975922207
  0
LINE
  5
4CB
100
AcDbEntity
  8
0
100
AcDbLine
 62
253
  6
CONTINUOUS
 10
14.25
 20
-44.1387984284
 11
14.25
 21
-39.1869360725
  0
LINE
  5
4CC
100
AcDbEntity
  8
0
100
AcDbLine
 62
253
  6
CONTINUOUS
 10
14.25
 20
39.1869360725
 11
14.25
 21
44.1387984284
  0
LINE
  5
4CD
100
AcDbEntity
  8
0
100
AcDbLine
 62
253
  6
CONTINUOUS
 10
14.25
 20
44.6975922207
 11
14.25
 21
44.75
  0
LWPOLYLINE
  5
4CE
100
AcDbEntity
  8
0
100
AcDbPolyline
 62
7
  6
CONTINUOUS
 90
15
 70
0
 10
15.3081193142
 20
31.0152538923
 10
15.3081031918
 20
30.9906143497
 10
15.2994167523
 20
30.9490942175
 10
15.2820599957
 20
30.8906934958
 10
15.2556694466
 20
30.8144686581
 10
15.2206085804
 20
30.7213632308
 10
15.1779678229
 20
30.6142077935
 10
15.127546596
 20
30.4926269847
 10
15.0695454779
 20
30.3569961659
 10
15.0056566283
 20
30.2112720012
 10
14.9357032612
 20
30.0551431478
 10
14.8598621626
 20
29.8889209484
 10
14.7803558503
 20
29.7174960958
 10
14.6979251636
 20
29.542498821
 10
14.6118292632
 20
29.3622988931
  0
LWPOLYLINE
  5
4CF
100
AcDbEntity
  8
0
100
AcDbPolyline
 62
253
  6
CONTINUOUS
 90
37
 70
0
 10
17.8
 20
3.0
 10
17.812232678
 20
3.2654589178
 10
17.8464834454
 20
3.5249349425
 10
17.9027523023
 20
3.7784280741
 10
17.9818771055
 20
4.0278268452
 10
18.0830199982
 20
4.2712427232
 10
18.20366741
 20
4.5030101104
 10
18.3443111698
 20
4.7227880136
 10
18.5044594487
 20
4.9309174259
 10
18.6801231898
 20
5.1227557287
 10
18.8712942182
 20
5.2977396786
 10
19.0779807089
 20
5.456432519
 10
19.2962181294
 20
5.595881361
 10
19.5266140683
 20
5.7159380776
 10
19.768560937
 20
5.8167507957
 10
20.0162714378
 20
5.8958110075
 10
20.2697308757
 20
5.952516058
 10
20.5289539456
 20
5.9874686022
 10
20.7881974353
 20
5.9999680962
 10
21.0473800819
 20
5.9895699857
 10
21.3065831483
 20
5.9567188251
 10
21.5603072105
 20
5.902047734
 10
21.8085643131
 20
5.8250755203
 10
22.0513424115
 20
5.7262833761
 10
22.283105949
 20
5.607747997
 10
22.5034984462
 20
5.4692021996
 10
22.7128763825
 20
5.3109131672
 10
22.9067736392
 20
5.1357591464
 10
23.085169398
 20
4.9430407808
 10
23.2480844773
 20
4.7334574266
 10
23.3911152133
 20
4.5119853999
 10
23.5136426477
 20
4.2781887964
 10
23.6162857389
 20
4.0325035203
 10
23.6964976986
 20
3.7812135998
 10
23.7534295972
 20
3.5264137109
 10
23.7879303644
 20
3.2660091777
 10
23.8
 20
3.0
  0
LINE
  5
4D0
100
AcDbEntity
  8
0
100
AcDbLine
 62
253
  6
CONTINUOUS
 10
20.4692406217
 20
11.1345483122
 11
20.1593843373
 21
10.2356811089
  0
LINE
  5
4D1
100
AcDbEntity
  8
0
100
AcDbLine
 62
7
  6
CONTINUOUS
 10
4.0434971211
 20
-31.3906455976
 11
4.0203903827
 21
-31.4552040707
  0
LINE
  5
4D2
100
AcDbEntity
  8
0
100
AcDbLine
 62
7
  6
CONTINUOUS
 10
-2.4916667223
 20
-21.2978723049
 11
-2.5791667223
 21
-21.3829786777
  0
LINE
  5
4D3
100
AcDbEntity
  8
0
100
AcDbLine
 62
7
  6
CONTINUOUS
 10
-1.9958334446
 20
-22.7021276653
 11
-1.9083334446
 21
-22.6170212627
  0
LINE
  5
4D4
100
AcDbEntity
  8
0
100
AcDbLine
 62
7
  6
CONTINUOUS
 10
1.0416662216
 20
-17.8297872394
 11
0.8958337784
 21
-17.9574468099
  0
LINE
  5
4D5
100
AcDbEntity
  8
0
100
AcDbLine
 62
7
  6
CONTINUOUS
 10
-4.3875
 20
-21.9787234068
 11
-4.9416666649
 21
-22.4042553306
  0
LINE
  5
4D6
100
AcDbEntity
  8
0
100
AcDbLine
 62
7
  6
CONTINUOUS
 10
-1.4708334446
 20
-21.9787234068
 11
-0.9166665554
 21
-21.5531915426
  0
LINE
  5
4D7
100
AcDbEntity
  8
0
100
AcDbLine
 62
7
  6
CONTINUOUS
 10
28.0776629742
 20
3.4506690063
 11
28.1340719255
 21
3.4923483348
  0
LINE
  5
4D8
100
AcDbEntity
  8
0
100
AcDbLine
 62
7
  6
CONTINUOUS
 10
-5.0
 20
-22.2765957713
 11
-4.5916666806
 21
-21.9787234068
  0
LINE
  5
4D9
100
AcDbEntity
  8
0
100
AcDbLine
 62
7
  6
CONTINUOUS
 10
-2.6375
 20
-21.1276595593
 11
-2.5208332777
 21
-21.0425531864
  0
LINE
  5
4DA
100
AcDbEntity
  8
0
100
AcDbLine
 62
7
  6
CONTINUOUS
 10
-0.8583334446
 20
-21.6808511019
 11
-1.2666665554
 21
-21.9787234068
  0
LINE
  5
4DB
100
AcDbEntity
  8
0
100
AcDbLine
 62
7
  6
CONTINUOUS
 10
-1.85
 20
-22.8723404259
 11
-1.9666665554
 21
-22.9574468099
  0
LINE
  5
4DC
100
AcDbEntity
  8
0
100
AcDbLine
 62
253
  6
CONTINUOUS
 10
-9.460895647
 20
-21.9396528074
 11
-9.20572983
 21
-21.7833938847
  0
LINE
  5
4DD
100
AcDbEntity
  8
0
100
AcDbLine
 62
7
  6
CONTINUOUS
 10
0.575
 20
-16.2127659321
 11
0.4875
 21
-16.2553191185
  0
LINE
  5
4DE
100
AcDbEntity
  8
0
100
AcDbLine
 62
7
  6
CONTINUOUS
 10
0.7791662216
 20
-17.0638297796
 11
0.8666662216
 21
-17.0212765932
  0
LINE
  5
4DF
100
AcDbEntity
  8
0
100
AcDbLine
 62
7
  6
CONTINUOUS
 10
0.7791662216
 20
-17.7872340381
 11
0.8666662216
 21
-17.7446808517
  0
LINE
  5
4E0
100
AcDbEntity
  8
0
100
AcDbLine
 62
253
  6
CONTINUOUS
 10
-9.1665928067
 20
-20.6674507605
 11
-10.0480116244
 21
-21.0239254218
  0
LINE
  5
4E1
100
AcDbEntity
  8
0
100
AcDbLine
 62
7
  6
CONTINUOUS
 10
0.4583337784
 20
-16.0425531864
 11
0.6041662216
 21
-16.0
  0
LINE
  5
4E2
100
AcDbEntity
  8
0
100
AcDbLine
 62
7
  6
CONTINUOUS
 10
0.8958337784
 20
-17.2340425253
 11
0.75
 21
-17.2765957713
  0
LINE
  5
4E3
100
AcDbEntity
  8
0
100
AcDbLine
 62
7
  6
CONTINUOUS
 10
0.8958337784
 20
-17.9574468099
 11
0.75
 21
-18.0
  0
LINE
  5
4E4
100
AcDbEntity
  8
0
100
AcDbLine
 62
7
  6
CONTINUOUS
 10
2.5014102688
 20
14.01
 11
2.34
 21
14.01
  0
LINE
  5
4E5
100
AcDbEntity
  8
0
100
AcDbLine
 62
7
  6
CONTINUOUS
 10
1.66
 20
14.01
 11
1.4985897312
 21
14.01
  0
LINE
  5
4E6
100
AcDbEntity
  8
0
100
AcDbLine
 62
253
  6
CONTINUOUS
 10
44.75
 20
14.25
 11
44.6975922207
 21
14.25
  0
LINE
  5
4E7
100
AcDbEntity
  8
0
100
AcDbLine
 62
253
  6
CONTINUOUS
 10
44.1387984284
 20
14.25
 11
39.1869360725
 21
14.25
  0
LINE
  5
4E8
100
AcDbEntity
  8
0
100
AcDbLine
 62
253
  6
CONTINUOUS
 10
-39.1869360725
 20
14.25
 11
-44.1387984284
 21
14.25
  0
LINE
  5
4E9
100
AcDbEntity
  8
0
100
AcDbLine
 62
253
  6
CONTINUOUS
 10
-44.6975922207
 20
14.25
 11
-44.75
 21
14.25
  0
LINE
  5
4EA
100
AcDbEntity
  8
0
100
AcDbLine
 62
7
  6
CONTINUOUS
 10
1.34
 20
14.48
 11
1.66
 21
14.48
  0
LINE
  5
4EB
100
AcDbEntity
  8
0
100
AcDbLine
 62
7
  6
CONTINUOUS
 10
2.34
 20
14.48
 11
2.66
 21
14.48
  0
LINE
  5
4EC
100
AcDbEntity
  8
0
100
AcDbLine
 62
7
  6
CONTINUOUS
 10
2.78
 20
14.74
 11
1.22
 21
14.74
  0
LINE
  5
4ED
100
AcDbEntity
  8
0
100
AcDbLine
 62
7
  6
CONTINUOUS
 10
1.22
 20
15.26
 11
2.78
 21
15.26
  0
LINE
  5
4EE
100
AcDbEntity
  8
0
100
AcDbLine
 62
7
  6
CONTINUOUS
 10
-25.6150026262
 20
20.2200480309
 11
-25.1892180097
 21
20.1386642074
  0
LINE
  5
4EF
100
AcDbEntity
  8
0
100
AcDbLine
 62
7
  6
CONTINUOUS
 10
-26.2675383864
 20
24.884178961
 11
-25.8779005083
 21
24.7660574882
  0
LINE
  5
4F0
100
AcDbEntity
  8
0
100
AcDbLine
 62
7
  6
CONTINUOUS
 10
31.3906455976
 20
4.0434971211
 11
31.4552040707
 21
4.0203903827
  0
LWPOLYLINE
  5
4F1
100
AcDbEntity
  8
0
100
AcDbPolyline
 62
253
  6
CONTINUOUS
 90
9
 70
0
 10
-18.0960753549
 20
26.5621831745
 10
-18.0967739113
 20
26.5625371123
 10
-18.0978350555
 20
26.5634109653
 10
-18.0992587876
 20
26.5648047334
 10
-18.1010470754
 20
26.5667206454
 10
-18.1031979512
 20
26.5691564726
 10
-18.1057055107
 20
26.5721055288
 10
-18.1085677861
 20
26.5755655852
 10
-18.1117867454
 20
26.5795388707
  0
LINE
  5
4F2
100
AcDbEntity
  8
0
100
AcDbLine
 62
7
  6
CONTINUOUS
 10
-3.4506690063
 20
28.0776629742
 11
-3.4923483348
 21
28.1340719255
  0
LINE
  5
4F3
100
AcDbEntity
  8
0
100
AcDbLine
 62
7
  6
CONTINUOUS
 10
3.0291666675
 20
22.2234042287
 11
3.0
 21
22.2659574747
  0
LINE
  5
4F4
100
AcDbEntity
  8
0
100
AcDbLine
 62
7
  6
CONTINUOUS
 10
3.3791666806
 20
22.2234042287
 11
3.2333333403
 21
22.4361702204
  0
LINE
  5
4F5
100
AcDbEntity
  8
0
100
AcDbLine
 62
7
  6
CONTINUOUS
 10
3.175
 20
22.5212765932
 11
3.0
 21
22.7765957117
  0
LINE
  5
4F6
100
AcDbEntity
  8
0
100
AcDbLine
 62
7
  6
CONTINUOUS
 10
3.2333333403
 20
22.5212765932
 11
3.4083333194
 21
22.2659574747
  0
LINE
  5
4F7
100
AcDbEntity
  8
0
100
AcDbLine
 62
7
  6
CONTINUOUS
 10
3.0291666675
 20
22.8191488981
 11
3.175
 21
22.606382966
  0
LINE
  5
4F8
100
AcDbEntity
  8
0
100
AcDbLine
 62
7
  6
CONTINUOUS
 10
3.6708333194
 20
22.2234042287
 11
3.6416666806
 21
22.2659574747
  0
LINE
  5
4F9
100
AcDbEntity
  8
0
100
AcDbLine
 62
7
  6
CONTINUOUS
 10
3.3791666806
 20
22.8191488981
 11
3.4083333194
 21
22.7765957117
  0
LINE
  5
4FA
100
AcDbEntity
  8
0
100
AcDbLine
 62
7
  6
CONTINUOUS
 10
3.8166666389
 20
22.5212765932
 11
3.6416666806
 21
22.7765957117
  0
LINE
  5
4FB
100
AcDbEntity
  8
0
100
AcDbLine
 62
7
  6
CONTINUOUS
 10
4.0208333611
 20
22.2234042287
 11
3.875
 21
22.4361702204
  0
LINE
  5
4FC
100
AcDbEntity
  8
0
100
AcDbLine
 62
7
  6
CONTINUOUS
 10
3.6708333194
 20
22.8191488981
 11
3.8166666389
 21
22.606382966
  0
LINE
  5
4FD
100
AcDbEntity
  8
0
100
AcDbLine
 62
7
  6
CONTINUOUS
 10
3.875
 20
22.5212765932
 11
4.05
 21
22.2659574747
  0
LINE
  5
4FE
100
AcDbEntity
  8
0
100
AcDbLine
 62
7
  6
CONTINUOUS
 10
4.3125
 20
22.2234042287
 11
4.2833333611
 21
22.2659574747
  0
LINE
  5
4FF
100
AcDbEntity
  8
0
100
AcDbLine
 62
7
  6
CONTINUOUS
 10
4.0208333612
 20
22.8191488981
 11
4.05
 21
22.7765957117
  0
LINE
  5
500
100
AcDbEntity
  8
0
100
AcDbLine
 62
7
  6
CONTINUOUS
 10
4.6625
 20
22.2234042287
 11
4.5166667223
 21
22.4361702204
  0
LINE
  5
501
100
AcDbEntity
  8
0
100
AcDbLine
 62
7
  6
CONTINUOUS
 10
4.4583332777
 20
22.5212765932
 11
4.2833333612
 21
22.7765957117
  0
LINE
  5
502
100
AcDbEntity
  8
0
100
AcDbLine
 62
7
  6
CONTINUOUS
 10
4.3125
 20
22.8191488981
 11
4.4583332777
 21
22.606382966
  0
LINE
  5
503
100
AcDbEntity
  8
0
100
AcDbLine
 62
7
  6
CONTINUOUS
 10
4.5166667223
 20
22.5212765932
 11
4.6916667223
 21
22.2659574747
  0
LINE
  5
504
100
AcDbEntity
  8
0
100
AcDbLine
 62
7
  6
CONTINUOUS
 10
4.6625
 20
22.8191488981
 11
4.6916667223
 21
22.7765957117
  0
LINE
  5
505
100
AcDbEntity
  8
0
100
AcDbLine
 62
7
  6
CONTINUOUS
 10
24.7660574882
 20
-25.8779005083
 11
24.884178961
 21
-26.2675383864
  0
LWPOLYLINE
  5
506
100
AcDbEntity
  8
0
100
AcDbPolyline
 62
253
  6
CONTINUOUS
 90
10
 70
0
 10
9.20572983
 20
21.7833938847
 10
9.2021525398
 20
21.8002854347
 10
9.2036894367
 20
21.8199310431
 10
9.2103101957
 20
21.8419423501
 10
9.2218840185
 20
21.8658842427
 10
9.2381821765
 20
21.8912834859
 10
9.2588824915
 20
21.917638116
 10
9.2835757786
 20
21.9444273034
 10
9.3117739717
 20
21.9711216111
 10
9.3429197041
 20
21.9971935122
  0
LINE
  5
507
100
AcDbEntity
  8
0
100
AcDbLine
 62
7
  6
CONTINUOUS
 10
20.2200480309
 20
-25.6150026262
 11
20.1745328486
 21
-25.3798222872
  0
LWPOLYLINE
  5
508
100
AcDbEntity
  8
0
100
AcDbPolyline
 62
7
  6
CONTINUOUS
 90
3
 70
0
 10
20.1745328486
 20
-25.3798222872
 10
20.1475499145
 20
-25.2370791426
 10
20.1386642074
 20
-25.1892180097
  0
LINE
  5
509
100
AcDbEntity
  8
0
100
AcDbLine
 62
253
  6
CONTINUOUS
 10
14.0365523174
 20
31.6880640903
 11
14.0705159056
 21
31.3907739498
  0
LINE
  5
50A
100
AcDbEntity
  8
0
100
AcDbLine
 62
7
  6
CONTINUOUS
 10
25.7726161408
 20
14.4719530694
 11
25.7503029073
 21
14.3934672744
  0
LINE
  5
50B
100
AcDbEntity
  8
0
100
AcDbLine
 62
7
  6
CONTINUOUS
 10
26.947962542
 20
14.9659047025
 11
26.9997489616
 21
15.1475216896
  0
LINE
  5
50C
100
AcDbEntity
  8
0
100
AcDbLine
 62
253
  6
CONTINUOUS
 10
23.1920159045
 20
10.3420785411
 11
22.9085315995
 21
9.3930472756
  0
LINE
  5
50D
100
AcDbEntity
  8
0
100
AcDbLine
 62
7
  6
CONTINUOUS
 10
-3.425
 20
-21.8510638475
 11
-3.3375
 21
-21.8085106611
  0
LINE
  5
50E
100
AcDbEntity
  8
0
100
AcDbLine
 62
7
  6
CONTINUOUS
 10
-2.375
 20
-21.2553191185
 11
-2.4916667223
 21
-21.2978723049
  0
LINE
  5
50F
100
AcDbEntity
  8
0
100
AcDbLine
 62
7
  6
CONTINUOUS
 10
-2.1125
 20
-22.7446808517
 11
-1.9958334446
 21
-22.7021276653
  0
LINE
  5
510
100
AcDbEntity
  8
0
100
AcDbLine
 62
253
  6
CONTINUOUS
 10
-8.1812345234
 20
-23.3687303644
 11
-9.0866055217
 21
-23.6918887915
  0
LINE
  5
511
100
AcDbEntity
  8
0
100
AcDbLine
 62
7
  6
CONTINUOUS
 10
-13.7137048388
 20
-27.7555067701
 11
-13.536817362
 21
-27.6948949797
  0
LINE
  5
512
100
AcDbEntity
  8
0
100
AcDbLine
 62
7
  6
CONTINUOUS
 10
-13.0260748019
 20
-26.4683088857
 11
-13.1032851812
 21
-26.4946991452
  0
LINE
  5
513
100
AcDbEntity
  8
0
100
AcDbLine
 62
7
  6
CONTINUOUS
 10
-2.5208332777
 20
-21.0425531864
 11
-2.375
 21
-21.0
  0
LINE
  5
514
100
AcDbEntity
  8
0
100
AcDbLine
 62
7
  6
CONTINUOUS
 10
-3.3083332777
 20
-22.0638297796
 11
-3.4541667223
 21
-22.106382966
  0
LINE
  5
515
100
AcDbEntity
  8
0
100
AcDbLine
 62
7
  6
CONTINUOUS
 10
-1.9666665554
 20
-22.9574468099
 11
-2.1125
 21
-23.0
  0
LINE
  5
516
100
AcDbEntity
  8
0
100
AcDbLine
 62
7
  6
CONTINUOUS
 10
-27.7482835831
 20
16.4345750841
 11
-28.03742048
 21
16.3977382341
  0
LINE
  5
517
100
AcDbEntity
  8
0
100
AcDbLine
 62
7
  6
CONTINUOUS
 10
4.5166667223
 20
22.1382978559
 11
4.4583332777
 21
22.1382978559
  0
LINE
  5
518
100
AcDbEntity
  8
0
100
AcDbLine
 62
7
  6
CONTINUOUS
 10
3.875
 20
22.1382978559
 11
3.8166666389
 21
22.1382978559
  0
LINE
  5
519
100
AcDbEntity
  8
0
100
AcDbLine
 62
7
  6
CONTINUOUS
 10
3.2333333403
 20
22.1382978559
 11
3.175
 21
22.1382978559
  0
LINE
  5
51A
100
AcDbEntity
  8
0
100
AcDbLine
 62
253
  6
CONTINUOUS
 10
29.8848817091
 20
14.0519946367
 11
30.8165884173
 21
13.7765547491
  0
LWPOLYLINE
  5
51B
100
AcDbEntity
  8
0
100
AcDbPolyline
 62
253
  6
CONTINUOUS
 90
13
 70
0
 10
9.2057295932
 20
21.7833943391
 10
9.1162377831
 20
21.9359404487
 10
9.0418318245
 20
22.0933267745
 10
8.9825221383
 20
22.2540717615
 10
8.9383192364
 20
22.4160778275
 10
8.9086923723
 20
22.5784477722
 10
8.8930802402
 20
22.7416723015
 10
8.8913434884
 20
22.904228787
 10
8.9031549064
 20
23.0650035367
 10
8.9285561115
 20
23.2252675664
 10
8.967802353
 20
23.3845239574
 10
9.0206114596
 20
23.540518937
 10
9.0866063764
 20
23.6918883462
  0
LWPOLYLINE
  5
51C
100
AcDbEntity
  8
0
100
AcDbPolyline
 62
253
  6
CONTINUOUS
 90
13
 70
0
 10
9.342919931
 20
21.9971936913
 10
9.2654839799
 20
22.1309370758
 10
9.2010815231
 20
22.2658157644
 10
9.1497125605
 20
22.4018297572
 10
9.1117773217
 20
22.5395882954
 10
9.0868755772
 20
22.6784821378
 10
9.0738066382
 20
22.8166835602
 10
9.0723029607
 20
22.9539387772
 10
9.0826320887
 20
23.0905015742
 10
9.104395965
 20
23.2253055826
 10
9.1374619038
 20
23.3579953462
 10
9.181962591
 20
23.4889263211
 10
9.2378980265
 20
23.6180985074
  0
LINE
  5
51D
100
AcDbEntity
  8
0
100
AcDbLine
 62
253
  6
CONTINUOUS
 10
12.1448588367
 20
31.4953645205
 11
12.4591734964
 21
30.606677866
  0
LINE
  5
51E
100
AcDbEntity
  8
0
100
AcDbLine
 62
253
  6
CONTINUOUS
 10
24.5366376159
 20
-10.8187014434
 11
24.5366376159
 21
-11.1227648318
  0
LINE
  5
51F
100
AcDbEntity
  8
0
100
AcDbLine
 62
253
  6
CONTINUOUS
 10
24.9608370671
 20
-11.1227648318
 11
24.9608370671
 21
-10.8187014434
  0
LWPOLYLINE
  5
520
100
AcDbEntity
  8
0
100
AcDbPolyline
 62
253
  6
CONTINUOUS
 90
37
 70
0
 10
23.8
 20
3.0
 10
23.787767322
 20
2.7345410822
 10
23.7535165546
 20
2.4750650575
 10
23.6972476977
 20
2.2215719259
 10
23.6181228945
 20
1.9721731548
 10
23.5169800018
 20
1.7287572768
 10
23.39633259
 20
1.4969898896
 10
23.2556888302
 20
1.2772119864
 10
23.0955405513
 20
1.0690825741
 10
22.9198768102
 20
0.8772442713
 10
22.7287057818
 20
0.7022603214
 10
22.5220192911
 20
0.543567481
 10
22.3037818706
 20
0.404118639
 10
22.0733859317
 20
0.2840619224
 10
21.831439063
 20
0.1832492043
 10
21.5837285622
 20
0.1041889925
 10
21.3302691243
 20
0.047483942
 10
21.0710460544
 20
0.0125313978
 10
20.8118025647
 20
0.0000319038
 10
20.5526199181
 20
0.0104300143
 10
20.2934168517
 20
0.0432811749
 10
20.0396927895
 20
0.097952266
 10
19.7914356869
 20
0.1749244797
 10
19.5486575885
 20
0.2737166239
 10
19.316894051
 20
0.392252003
 10
19.0965015538
 20
0.5307978005
 10
18.8871236175
 20
0.6890868328
 10
18.6932263608
 20
0.8642408536
 10
18.514830602
 20
1.0569592192
 10
18.3519155227
 20
1.2665425734
 10
18.2088847867
 20
1.4880146001
 10
18.0863573523
 20
1.7218112036
 10
17.9837142611
 20
1.9674964797
 10
17.9035023014
 20
2.2187864002
 10
17.8465704028
 20
2.4735862891
 10
17.8120696356
 20
2.7339908223
 10
17.8
 20
3.0
  0
LINE
  5
521
100
AcDbEntity
  8
0
100
AcDbLine
 62
7
  6
CONTINUOUS
 10
19.0400825449
 20
-26.3830176654
 11
19.1072013089
 21
-25.9803263671
  0
LINE
  5
522
100
AcDbEntity
  8
0
100
AcDbLine
 62
7
  6
CONTINUOUS
 10
19.0206504037
 20
-26.4975686446
 11
19.0400825449
 21
-26.3830176654
  0
LINE
  5
523
100
AcDbEntity
  8
0
100
AcDbLine
 62
253
  6
CONTINUOUS
 10
18.4363135932
 20
-25.5451537912
 11
18.3533103362
 21
-26.0158886058
  0
LINE
  5
524
100
AcDbEntity
  8
0
100
AcDbLine
 62
253
  6
CONTINUOUS
 10
18.7710652345
 20
-26.0895501726
 11
18.8540685016
 21
-25.6188152529
  0
LINE
  5
525
100
AcDbEntity
  8
0
100
AcDbLine
 62
7
  6
CONTINUOUS
 10
32.351114762
 20
31.7000531011
 11
32.1440595259
 21
30.9273124401
  0
LINE
  5
526
100
AcDbEntity
  8
0
100
AcDbLine
 62
7
  6
CONTINUOUS
 10
32.2496875166
 20
30.8663280912
 11
32.4568936551
 21
31.6389816287
  0
LINE
  5
527
100
AcDbEntity
  8
0
100
AcDbLine
 62
7
  6
CONTINUOUS
 10
14.5307062849
 20
-30.2525517379
 11
14.3473492851
 21
-30.7679898329
  0
LINE
  5
528
100
AcDbEntity
  8
0
100
AcDbLine
 62
7
  6
CONTINUOUS
 10
14.7500400275
 20
-30.9114188135
 11
14.8722317082
 21
-30.5679081676
  0
LINE
  5
529
100
AcDbEntity
  8
0
100
AcDbLine
 62
7
  6
CONTINUOUS
 10
14.8722317082
 20
-30.5679081676
 11
14.9349477196
 21
-30.3952233363
  0
LWPOLYLINE
  5
52A
100
AcDbEntity
  8
0
100
AcDbPolyline
 62
253
  6
CONTINUOUS
 90
13
 70
0
 10
23.9685880551
 20
-11.9266167165
 10
23.9421805514
 20
-11.9549812634
 10
23.9177809767
 20
-11.9844614896
 10
23.8958011675
 20
-12.0145646938
 10
23.876610181
 20
-12.0447918957
 10
23.8605384226
 20
-12.0746301068
 10
23.847866243
 20
-12.1035620092
 10
23.8388060918
 20
-12.1311008193
 10
23.8335089479
 20
-12.1567851965
 10
23.8320627981
 20
-12.1801746114
 10
23.8344855213
 20
-12.2008775119
 10
23.8407302823
 20
-12.2185547196
 10
23.8506868932
 20
-12.2329150058
  0
LINE
  5
52B
100
AcDbEntity
  8
0
100
AcDbLine
 62
7
  6
CONTINUOUS
 10
24.5366354257
 20
-10.8187036336
 11
23.546625695
 21
-11.8087133644
  0
LINE
  5
52C
100
AcDbEntity
  8
0
100
AcDbLine
 62
253
  6
CONTINUOUS
 10
23.8506868931
 20
-11.8087155546
 11
24.5366376159
 21
-11.1227648318
  0
LINE
  5
52D
100
AcDbEntity
  8
0
100
AcDbLine
 62
253
  6
CONTINUOUS
 10
24.6545387778
 20
-11.2406659937
 11
23.9685880551
 21
-11.9266167165
  0
LWPOLYLINE
  5
52E
100
AcDbEntity
  8
0
100
AcDbPolyline
 62
253
  6
CONTINUOUS
 90
13
 70
0
 10
24.5366376159
 20
-11.1227648318
 10
24.5661391199
 20
-11.0969078691
 10
24.5987637203
 20
-11.0751208348
 10
24.6339534172
 20
-11.0577763666
 10
24.6711063385
 20
-11.0451711184
 10
24.7095870334
 20
-11.0375206859
 10
24.7487373415
 20
-11.0349559194
 10
24.7878876497
 20
-11.0375206859
 10
24.8263683446
 20
-11.0451711184
 10
24.8635212658
 20
-11.0577763666
 10
24.8987109628
 20
-11.0751208348
 10
24.9313355632
 20
-11.0969078691
 10
24.9608370672
 20
-11.1227648318
  0
LINE
  5
52F
100
AcDbEntity
  8
0
100
AcDbLine
 62
7
  6
CONTINUOUS
 10
30.7679898329
 20
-14.3473492851
 11
30.2641065423
 21
-14.5266326746
  0
LINE
  5
530
100
AcDbEntity
  8
0
100
AcDbLine
 62
7
  6
CONTINUOUS
 10
30.396822624
 20
-14.9330971538
 11
30.9114191828
 21
-14.7500370018
  0
LINE
  5
531
100
AcDbEntity
  8
0
100
AcDbLine
 62
7
  6
CONTINUOUS
 10
31.6389816034
 20
32.4568936989
 11
31.6091917939
 21
32.4488751138
  0
LINE
  5
532
100
AcDbEntity
  8
0
100
AcDbLine
 62
7
  6
CONTINUOUS
 10
31.6091917939
 20
32.4488751138
 11
31.4587674711
 21
32.4084506891
  0
LINE
  5
533
100
AcDbEntity
  8
0
100
AcDbLine
 62
7
  6
CONTINUOUS
 10
30.9273124401
 20
32.1440595259
 11
31.7000531011
 21
32.351114762
  0
LINE
  5
534
100
AcDbEntity
  8
0
100
AcDbLine
 62
7
  6
CONTINUOUS
 10
31.4587674711
 20
32.4084506891
 11
30.8663280912
 21
32.2496875166
  0
LINE
  5
535
100
AcDbEntity
  8
0
100
AcDbLine
 62
7
  6
CONTINUOUS
 10
3.175
 20
22.904255271
 11
3.2333333403
 21
22.904255271
  0
LINE
  5
536
100
AcDbEntity
  8
0
100
AcDbLine
 62
7
  6
CONTINUOUS
 10
3.8166666389
 20
22.904255271
 11
3.875
 21
22.904255271
  0
LINE
  5
537
100
AcDbEntity
  8
0
100
AcDbLine
 62
7
  6
CONTINUOUS
 10
4.4583332777
 20
22.904255271
 11
4.5166667223
 21
22.904255271
  0
LINE
  5
538
100
AcDbEntity
  8
0
100
AcDbLine
 62
253
  6
CONTINUOUS
 10
-18.1697367149
 20
26.1444282393
 11
-17.6990018969
 21
26.061424999
  0
LINE
  5
539
100
AcDbEntity
  8
0
100
AcDbLine
 62
253
  6
CONTINUOUS
 10
-17.6253404352
 20
26.4791799074
 11
-18.0960753549
 21
26.5621831745
  0
LINE
  5
53A
100
AcDbEntity
  8
0
100
AcDbLine
 62
7
  6
CONTINUOUS
 10
-17.9933637265
 20
26.8622524677
 11
-18.3941241469
 21
26.9362670525
  0
LINE
  5
53B
100
AcDbEntity
  8
0
100
AcDbLine
 62
7
  6
CONTINUOUS
 10
-17.8784732425
 20
26.8406910216
 11
-17.9933637265
 21
26.8622524677
  0
LINE
  5
53C
100
AcDbEntity
  8
0
100
AcDbLine
 62
7
  6
CONTINUOUS
 10
-31.8443680492
 20
32.3905256444
 11
-31.0716273882
 21
32.1834704083
  0
LINE
  5
53D
100
AcDbEntity
  8
0
100
AcDbLine
 62
7
  6
CONTINUOUS
 10
-30.9722454863
 20
32.3556049117
 11
-31.7447536806
 21
32.563062792
  0
LINE
  5
53E
100
AcDbEntity
  8
0
100
AcDbLine
 62
7
  6
CONTINUOUS
 10
28.6434070243
 20
15.8772999629
 11
28.7268978612
 21
15.853643872
  0
LINE
  5
53F
100
AcDbEntity
  8
0
100
AcDbLine
 62
7
  6
CONTINUOUS
 10
30.4828901712
 20
16.82132248
 11
30.3926288173
 21
16.8469095146
  0
LINE
  5
540
100
AcDbEntity
  8
0
100
AcDbLine
 62
7
  6
CONTINUOUS
 10
28.4278743175
 20
15.939145621
 11
28.5957869916
 21
15.8911947611
  0
LINE
  5
541
100
AcDbEntity
  8
0
100
AcDbLine
 62
7
  6
CONTINUOUS
 10
30.3437883217
 20
16.8611658585
 11
30.1715835454
 21
16.9103530657
  0
LINE
  5
542
100
AcDbEntity
  8
0
100
AcDbLine
 62
7
  6
CONTINUOUS
 10
28.7268978612
 20
15.853643872
 11
28.892704992
 21
15.8057656313
  0
LINE
  5
543
100
AcDbEntity
  8
0
100
AcDbLine
 62
7
  6
CONTINUOUS
 10
30.6621628389
 20
16.7695491089
 11
30.4828901712
 21
16.82132248
  0
LINE
  5
544
100
AcDbEntity
  8
0
100
AcDbLine
 62
7
  6
CONTINUOUS
 10
28.5957869916
 20
15.8911947611
 11
28.6434070243
 21
15.8772999629
  0
LINE
  5
545
100
AcDbEntity
  8
0
100
AcDbLine
 62
7
  6
CONTINUOUS
 10
30.3926288173
 20
16.8469095146
 11
30.3437883217
 21
16.8611658585
  0
LINE
  5
546
100
AcDbEntity
  8
0
100
AcDbLine
 62
253
  6
CONTINUOUS
 10
31.6205971405
 20
16.4451279426
 11
30.6694754425
 21
16.7565466601
  0
LINE
  5
547
100
AcDbEntity
  8
0
100
AcDbLine
 62
253
  6
CONTINUOUS
 10
-13.7556210095
 20
29.4990244507
 11
-14.2635260445
 21
29.6795818634
  0
LINE
  5
548
100
AcDbEntity
  8
0
100
AcDbLine
 62
7
  6
CONTINUOUS
 10
-14.4034459496
 20
29.2845483422
 11
-13.8977724116
 21
29.1006499706
  0
LINE
  5
549
100
AcDbEntity
  8
0
100
AcDbLine
 62
253
  6
CONTINUOUS
 10
9.3429198182
 20
21.9971934601
 11
9.4608960001
 21
21.9396526316
  0
LINE
  5
54A
100
AcDbEntity
  8
0
100
AcDbLine
 62
253
  6
CONTINUOUS
 10
9.0866055206
 20
23.6918887892
 11
9.2378980253
 21
23.6180985043
  0
LWPOLYLINE
  5
54B
100
AcDbEntity
  8
0
100
AcDbPolyline
 62
253
  6
CONTINUOUS
 90
10
 70
0
 10
10.0480108904
 20
21.0239350537
 10
9.9344938186
 20
21.0827559731
 10
9.8249921219
 20
21.1487001062
 10
9.7199507439
 20
21.2214930319
 10
9.619795607
 20
21.3008332067
 10
9.5249327925
 20
21.386391921
 10
9.4357466007
 20
21.477814472
 10
9.3525970298
 20
21.5747235484
 10
9.2758187118
 20
21.6767209986
 10
9.2057202414
 20
21.7833880104
  0
LWPOLYLINE
  5
54C
100
AcDbEntity
  8
0
100
AcDbPolyline
 62
7
  6
CONTINUOUS
 90
19
 70
0
 10
20.1594220549
 20
10.2357002284
 10
20.2490368644
 20
10.0780698204
 10
20.3502632592
 20
9.9312644985
 10
20.4631012392
 20
9.7952842626
 10
20.5886323457
 20
9.6692715489
 10
20.7257750374
 20
9.5540839214
 10
20.8712846912
 20
9.4522940713
 10
21.0253282065
 20
9.3642007259
 10
21.1877386839
 20
9.289505158
 10
21.3547708015
 20
9.229883877
 10
21.526523264
 20
9.1856584419
 10
21.7028973666
 20
9.1565072936
 10
21.8798516729
 20
9.143142265
 10
22.0573945094
 20
9.1458944249
 10
22.2355175496
 20
9.1644327044
 10
22.4101543779
 20
9.1984757301
 10
22.5799495223
 20
9.2479297107
 10
22.7462584547
 20
9.3128884374
 10
22.9090811752
 20
9.3933519102
  0
LINE
  5
54D
100
AcDbEntity
  8
0
100
AcDbLine
 62
253
  6
CONTINUOUS
 10
23.0467723432
 20
10.6041048634
 11
23.1920159052
 21
10.3420785414
  0
LINE
  5
54E
100
AcDbEntity
  8
0
100
AcDbLine
 62
253
  6
CONTINUOUS
 10
14.7675836585
 20
32.4376864351
 11
15.1285467056
 21
31.504580096
  0
LINE
  5
54F
100
AcDbEntity
  8
0
100
AcDbLine
 62
253
  6
CONTINUOUS
 10
29.1006514302
 20
-13.8977730497
 11
29.2842177697
 21
-14.4024907875
  0
LINE
  5
550
100
AcDbEntity
  8
0
100
AcDbLine
 62
7
  6
CONTINUOUS
 10
29.6755929113
 20
-14.2522042616
 11
29.4990244507
 21
-13.7556210095
  0
LWPOLYLINE
  5
551
100
AcDbEntity
  8
0
100
AcDbPolyline
 62
7
  6
CONTINUOUS
 90
3
 70
0
 10
14.2719770346
 20
29.6803184025
 10
14.4120647068
 20
29.2740993313
 10
14.4295015921
 20
29.2231053019
  0
LWPOLYLINE
  5
552
100
AcDbEntity
  8
0
100
AcDbPolyline
 62
7
  6
CONTINUOUS
 90
3
 70
0
 10
15.3081193142
 20
31.0152538923
 10
15.2897192228
 20
31.0690509273
 10
15.1418334125
 20
31.4977918083
  0
LINE
  5
553
100
AcDbEntity
  8
0
100
AcDbLine
 62
7
  6
CONTINUOUS
 10
32.1834704083
 20
-31.0716273882
 11
32.3905256443
 21
-31.8443680492
  0
LINE
  5
554
100
AcDbEntity
  8
0
100
AcDbLine
 62
7
  6
CONTINUOUS
 10
32.5630630408
 20
-31.7447535369
 11
32.3556049117
 21
-30.9722454863
  0
LINE
  5
555
100
AcDbEntity
  8
0
100
AcDbLine
 62
7
  6
CONTINUOUS
 10
28.8117290577
 20
-14.9955671808
 11
28.7512719161
 21
-14.6091362923
  0
LINE
  5
556
100
AcDbEntity
  8
0
100
AcDbLine
 62
253
  6
CONTINUOUS
 10
25.2459332222
 20
-13.1820515251
 11
25.9099735864
 21
-12.5180111608
  0
LINE
  5
557
100
AcDbEntity
  8
0
100
AcDbLine
 62
253
  6
CONTINUOUS
 10
25.1280320603
 20
-13.4883498144
 11
26.2162718758
 21
-12.4001099989
  0
LWPOLYLINE
  5
558
100
AcDbEntity
  8
0
100
AcDbPolyline
 62
253
  6
CONTINUOUS
 90
13
 70
0
 10
25.9099735864
 20
-12.5180111608
 10
25.9383677734
 20
-12.4915776241
 10
25.9678656161
 20
-12.4671673009
 10
25.9979723834
 20
-12.4451895953
 10
26.0281831318
 20
-12.4260131124
 10
26.0579911736
 20
-12.4099594757
 10
26.0868965753
 20
-12.397297933
 10
26.1144145423
 20
-12.3882408408
 10
26.1400835495
 20
-12.3829401025
 10
26.1634730824
 20
-12.3814846208
 10
26.1841908573
 20
-12.3838988068
 10
26.2018894003
 20
-12.3901421702
 10
26.2162718757
 20
-12.4001099989
  0
LWPOLYLINE
  5
559
100
AcDbEntity
  8
0
100
AcDbPolyline
 62
7
  6
CONTINUOUS
 90
10
 70
0
 10
14.036524103
 20
31.6883106164
 10
14.1606489887
 20
31.6986262725
 10
14.2851979378
 20
31.7011847096
 10
14.4096880499
 20
31.6959725819
 10
14.5336378923
 20
31.6830054326
 10
14.6565648955
 20
31.6623309469
 10
14.7779873414
 20
31.6340294983
 10
14.8974322154
 20
31.5982091402
 10
15.014436924
 20
31.5550045081
 10
15.1285467056
 20
31.504580096
  0
LWPOLYLINE
  5
55A
100
AcDbEntity
  8
0
100
AcDbPolyline
 62
7
  6
CONTINUOUS
 90
13
 70
0
 10
-18.3941241469
 20
26.9362670525
 10
-18.3967470557
 20
26.9363057058
 10
-18.4004016744
 20
26.9353977127
 10
-18.4050624542
 20
26.9336663217
 10
-18.4107135675
 20
26.9312938816
 10
-18.4172834563
 20
26.9283258401
 10
-18.4246951257
 20
26.9246543402
 10
-18.4329392763
 20
26.9203706943
 10
-18.4419963128
 20
26.9155470019
 10
-18.4518587399
 20
26.9100220277
 10
-18.4625543184
 20
26.9039207804
 10
-18.4740900862
 20
26.897269092
 10
-18.4865421539
 20
26.8897592616
  0
LINE
  5
55B
100
AcDbEntity
  8
0
100
AcDbLine
 62
7
  6
CONTINUOUS
 10
13.0132955915
 20
26.4421528081
 11
14.549332678
 21
25.086306703
  0
LWPOLYLINE
  5
55C
100
AcDbEntity
  8
0
100
AcDbPolyline
 62
7
  6
CONTINUOUS
 90
13
 70
0
 10
30.9119424744
 20
-14.7483661793
 10
30.9267123979
 20
-14.7100479097
 10
30.9363474724
 20
-14.6716895932
 10
30.9408476978
 20
-14.6332912298
 10
30.9400848296
 20
-14.5942710792
 10
30.9341871123
 20
-14.5552108818
 10
30.9235392801
 20
-14.5178558586
 10
30.9079985762
 20
-14.482257274
 10
30.8877077574
 20
-14.4483638636
 10
30.863479828
 20
-14.4177670557
 10
30.8355857896
 20
-14.3909973265
 10
30.8037546406
 20
-14.3675241997
 10
30.7679863811
 20
-14.3473476755
  0
LWPOLYLINE
  5
55D
100
AcDbEntity
  8
0
100
AcDbPolyline
 62
7
  6
CONTINUOUS
 90
13
 70
0
 10
30.396822624
 20
-14.9330971538
 10
30.4123774837
 20
-14.8955176335
 10
30.4228095737
 20
-14.8565035631
 10
30.4280540497
 20
-14.8167755436
 10
30.4281554206
 20
-14.7771353346
 10
30.4232505372
 20
-14.7381671588
 10
30.4134379022
 20
-14.700244834
 10
30.3989009498
 20
-14.6640018374
 10
30.3799005076
 20
-14.6300537281
 10
30.3565693349
 20
-14.5987754436
 10
30.3291661543
 20
-14.5707093722
 10
30.2981760773
 20
-14.5464914191
 10
30.2641065125
 20
-14.5266327385
  0
LINE
  5
55E
100
AcDbEntity
  8
0
100
AcDbLine
 62
7
  6
CONTINUOUS
 10
29.283314051
 20
-14.4020613985
 11
29.2553494467
 21
-14.4596784831
  0
LWPOLYLINE
  5
55F
100
AcDbEntity
  8
0
100
AcDbPolyline
 62
7
  6
CONTINUOUS
 90
6
 70
0
 10
28.7840658413
 20
-15.0554594263
 10
28.794081575
 20
-15.0349335072
 10
28.8019243926
 20
-15.0185639898
 10
28.8075441098
 20
-15.0065634058
 10
28.8108137882
 20
-14.998896346
 10
28.8117290577
 20
-14.9955671808
  0
LINE
  5
560
100
AcDbEntity
  8
0
100
AcDbLine
 62
7
  6
CONTINUOUS
 10
29.2553494467
 20
-14.4596784831
 11
29.2260221673
 21
-14.5194034011
  0
LINE
  5
561
100
AcDbEntity
  8
0
100
AcDbLine
 62
7
  6
CONTINUOUS
 10
29.2260221673
 20
-14.5194034011
 11
29.1958734389
 21
-14.5801123324
  0
LINE
  5
562
100
AcDbEntity
  8
0
100
AcDbLine
 62
7
  6
CONTINUOUS
 10
30.31281193
 20
-15.1009493045
 11
30.3958427323
 21
-14.9345341422
  0
LINE
  5
563
100
AcDbEntity
  8
0
100
AcDbLine
 62
7
  6
CONTINUOUS
 10
28.6692001029
 20
-15.2772376773
 11
28.6881412674
 21
-15.2408447333
  0
LWPOLYLINE
  5
564
100
AcDbEntity
  8
0
100
AcDbPolyline
 62
7
  6
CONTINUOUS
 90
4
 70
0
 10
28.6881412674
 20
-15.2408447333
 10
28.725182401
 20
-15.1708609993
 10
28.7422639863
 20
-15.1380076629
 10
28.7840658413
 20
-15.0554594263
  0
LWPOLYLINE
  5
565
100
AcDbEntity
  8
0
100
AcDbPolyline
 62
7
  6
CONTINUOUS
 90
3
 70
0
 10
28.1562265625
 20
-16.2032206732
 10
28.1763624054
 20
-16.1685621186
 10
28.1966470815
 20
-16.1327653844
  0
LWPOLYLINE
  5
566
100
AcDbEntity
  8
0
100
AcDbPolyline
 62
7
  6
CONTINUOUS
 90
3
 70
0
 10
28.0859208887
 20
-16.321723732
 10
28.1013649836
 20
-16.2960281973
 10
28.1562265625
 20
-16.2032206732
  0
LWPOLYLINE
  5
567
100
AcDbEntity
  8
0
100
AcDbPolyline
 62
7
  6
CONTINUOUS
 90
6
 70
0
 10
28.03742048
 20
-16.3977382341
 10
28.0394971736
 20
-16.3953899593
 10
28.044153685
 20
-16.3887362263
 10
28.0512976309
 20
-16.3778694184
 10
28.0607203897
 20
-16.3629096692
 10
28.0859208887
 20
-16.321723732
  0
LWPOLYLINE
  5
568
100
AcDbEntity
  8
0
100
AcDbPolyline
 62
253
  6
CONTINUOUS
 90
13
 70
0
 10
18.1961414452
 20
-26.1764354558
 10
18.1660566397
 20
-26.2006322968
 10
18.1392741284
 20
-26.2282448986
 10
18.1162052075
 20
-26.2587903856
 10
18.0972764429
 20
-26.2915796804
 10
18.0826364137
 20
-26.3262058067
 10
18.0723662097
 20
-26.3626346835
 10
18.0667763127
 20
-26.4005442416
 10
18.0662103864
 20
-26.4390807864
 10
18.0708195113
 20
-26.4774051428
 10
18.080610171
 20
-26.5147724601
 10
18.0955143029
 20
-26.5505425424
 10
18.1153623884
 20
-26.584025385
  0
LINE
  5
569
100
AcDbEntity
  8
0
100
AcDbLine
 62
7
  6
CONTINUOUS
 10
18.9049690004
 20
-26.6003918957
 11
18.9193488497
 21
-26.5888925665
  0
LWPOLYLINE
  5
56A
100
AcDbEntity
  8
0
100
AcDbPolyline
 62
7
  6
CONTINUOUS
 90
14
 70
0
 10
18.9193488497
 20
-26.5888925665
 10
18.9453398471
 20
-26.5685055177
 10
18.9566557034
 20
-26.5593728848
 10
18.9668516306
 20
-26.5508078533
 10
18.9762429705
 20
-26.5428440459
 10
18.984807934
 20
-26.5354659709
 10
18.992438445
 20
-26.5286048725
 10
18.9992833544
 20
-26.5223230409
 10
19.0052682007
 20
-26.5166142076
 10
19.0103040479
 20
-26.511455831
 10
19.0144659413
 20
-26.5069571619
 10
19.0176867409
 20
-26.5031698739
 10
19.0197897289
 20
-26.5000464258
 10
19.0206504037
 20
-26.4975686446
  0
LINE
  5
56B
100
AcDbEntity
  8
0
100
AcDbLine
 62
7
  6
CONTINUOUS
 10
18.436311056
 20
-25.5451555678
 11
17.6990044341
 21
-26.0614232224
  0
LINE
  5
56C
100
AcDbEntity
  8
0
100
AcDbLine
 62
253
  6
CONTINUOUS
 10
18.1697367149
 20
-26.1444282393
 11
18.3533103362
 21
-26.0158886058
  0
LINE
  5
56D
100
AcDbEntity
  8
0
100
AcDbLine
 62
253
  6
CONTINUOUS
 10
18.3743566663
 20
-26.0516485727
 11
18.1961418312
 21
-26.1764359437
  0
LINE
  5
56E
100
AcDbEntity
  8
0
100
AcDbLine
 62
7
  6
CONTINUOUS
 10
18.6341807791
 20
-26.7299393018
 11
18.7446615351
 21
-26.6525798436
  0
LWPOLYLINE
  5
56F
100
AcDbEntity
  8
0
100
AcDbPolyline
 62
7
  6
CONTINUOUS
 90
3
 70
0
 10
18.4865421539
 20
-26.8897592616
 10
18.5145884368
 20
-26.8723089872
 10
18.5303117673
 20
-26.8627297145
  0
LWPOLYLINE
  5
570
100
AcDbEntity
  8
0
100
AcDbPolyline
 62
253
  6
CONTINUOUS
 90
13
 70
0
 10
18.3533103261
 20
-26.0158887109
 10
18.3863889121
 20
-25.9957897377
 10
18.4216782832
 20
-25.9801545651
 10
18.45857707
 20
-25.9692035028
 10
18.4962801982
 20
-25.9630945153
 10
18.534344836
 20
-25.9618210671
 10
18.5727086903
 20
-25.965449927
 10
18.610956786
 20
-25.974162388
 10
18.648151696
 20
-25.9879731612
 10
18.6834331724
 20
-26.0067151783
 10
18.7160793336
 20
-26.0301158517
 10
18.7454935909
 20
-26.0578688004
 10
18.7710652345
 20
-26.0895501726
  0
LWPOLYLINE
  5
571
100
AcDbEntity
  8
0
100
AcDbPolyline
 62
7
  6
CONTINUOUS
 90
13
 70
0
 10
13.8982096319
 20
-29.1015852282
 10
13.8630417246
 20
-29.1217999718
 10
13.831736149
 20
-29.1452209769
 10
13.8042929051
 20
-29.1718482437
 10
13.7804509233
 20
-29.2021949799
 10
13.7604712732
 20
-29.2357479776
 10
13.7451371631
 20
-29.2709676134
 10
13.7345849489
 20
-29.3079028225
 10
13.7286782747
 20
-29.3465046696
 10
13.7277912816
 20
-29.3850867251
 10
13.7320486832
 20
-29.4230868455
 10
13.741325766
 20
-29.4610671743
 10
13.7556225299
 20
-29.4990277113
  0
LWPOLYLINE
  5
572
100
AcDbEntity
  8
0
100
AcDbPolyline
 62
7
  6
CONTINUOUS
 90
13
 70
0
 10
14.9348394711
 20
-30.3949953857
 10
14.8963838689
 20
-30.4102981891
 10
14.8578441344
 20
-30.420392276
 10
14.8192202676
 20
-30.4252776464
 10
14.7799170179
 20
-30.4248272784
 10
14.740529636
 20
-30.4191681938
 10
14.7028438736
 20
-30.4086814585
 10
14.6669116547
 20
-30.3932198099
 10
14.6326810554
 20
-30.3729305105
 10
14.6017820554
 20
-30.3486364135
 10
14.5747579812
 20
-30.3206118035
 10
14.5510655063
 20
-30.2885823959
 10
14.5307046308
 20
-30.2525481907
  0
LINE
  5
573
100
AcDbEntity
  8
0
100
AcDbLine
 62
253
  6
CONTINUOUS
 10
15.1283859912
 20
31.5042453914
 11
15.1418364984
 21
31.4977829035
  0
LINE
  5
574
100
AcDbEntity
  8
0
100
AcDbLine
 62
253
  6
CONTINUOUS
 10
14.9988316944
 20
31.2341172229
 11
15.0239308084
 21
31.2220521135
  0
LINE
  5
575
100
AcDbEntity
  8
0
100
AcDbLine
 62
253
  6
CONTINUOUS
 10
12.6104694097
 20
30.5328945699
 11
12.4591769051
 21
30.6066848548
  0
LINE
  5
576
100
AcDbEntity
  8
0
100
AcDbLine
 62
253
  6
CONTINUOUS
 10
14.0705161264
 20
31.3907744847
 11
13.9525399445
 21
31.4483153133
  0
LINE
  5
577
100
AcDbEntity
  8
0
100
AcDbLine
 62
253
  6
CONTINUOUS
 10
29.8848865315
 20
14.0519973098
 11
29.7396429695
 21
14.3140236318
  0
LINE
  5
578
100
AcDbEntity
  8
0
100
AcDbLine
 62
253
  6
CONTINUOUS
 10
30.3929715908
 20
16.6373769866
 11
30.4062178144
 21
16.6131557051
  0
LINE
  5
579
100
AcDbEntity
  8
0
100
AcDbLine
 62
253
  6
CONTINUOUS
 10
30.6621537943
 20
16.7695517255
 11
30.6693117246
 21
16.7564572245
  0
LWPOLYLINE
  5
57A
100
AcDbEntity
  8
0
100
AcDbPolyline
 62
7
  6
CONTINUOUS
 90
19
 70
0
 10
30.6694754425
 20
16.7565466601
 10
30.7460392295
 20
16.6005255719
 10
30.8087451631
 20
16.4385158932
 10
30.8571340012
 20
16.271741463
 10
30.8908553737
 20
16.1014679855
 10
30.9096688226
 20
15.9289717835
 10
30.9134385385
 20
15.7555293455
 10
30.9021405572
 20
15.5824429423
 10
30.8758666694
 20
15.4110163577
 10
30.8348128991
 20
15.242523548
 10
30.7792871201
 20
15.0782321024
 10
30.7097083968
 20
14.9193772616
 10
30.6265934171
 20
14.7671397372
 10
30.5305630663
 20
14.6226695871
 10
30.4223351109
 20
14.4870534873
 10
30.3027076411
 20
14.3612963671
 10
30.1725671457
 20
14.2463470211
 10
30.0328873784
 20
14.1430864543
 10
29.8847114617
 20
14.052301978
  0
LINE
  5
57B
100
AcDbEntity
  8
0
100
AcDbLine
 62
253
  6
CONTINUOUS
 10
39.1869360725
 20
-14.25
 11
39.1869360725
 21
14.25
  0
LINE
  5
57C
100
AcDbEntity
  8
0
100
AcDbLine
 62
253
  6
CONTINUOUS
 10
14.25
 20
39.1869360725
 11
-14.25
 21
39.1869360725
  0
LWPOLYLINE
  5
57D
100
AcDbEntity
  8
0
100
AcDbPolyline
 62
7
  6
CONTINUOUS
 90
19
 70
0
 10
14.7678597614
 20
32.4373999356
 10
14.6062491296
 20
32.502343523
 10
14.4423752539
 20
32.5527937534
 10
14.2762381341
 20
32.5887506269
 10
14.1066254964
 20
32.6102253446
 10
13.9347496148
 20
32.6172067053
 10
13.7642473108
 20
32.6096611059
 10
13.595147348
 20
32.5873048845
 10
13.4274209628
 20
32.550421703
 10
13.2646186871
 20
32.4998289439
 10
13.1068374509
 20
32.4352564624
 10
12.9539803241
 20
32.3569744032
 10
12.8093070477
 20
32.2666105833
 10
12.6729790276
 20
32.1639326536
 10
12.5448348579
 20
32.0491729632
 10
12.4276500622
 20
31.9246563755
 10
12.322349815
 20
31.791157845
 10
12.2280089418
 20
31.6479024173
 10
12.1446274426
 20
31.4948900923
  0
LINE
  5
57E
100
AcDbEntity
  8
0
100
AcDbLine
 62
253
  6
CONTINUOUS
 10
40.2475962443
 20
14.25
 11
40.2475962443
 21
-14.25
  0
LINE
  5
57F
100
AcDbEntity
  8
0
100
AcDbLine
 62
253
  6
CONTINUOUS
 10
40.9118098067
 20
-14.25
 11
40.9118098067
 21
14.25
  0
LINE
  5
580
100
AcDbEntity
  8
0
100
AcDbLine
 62
253
  6
CONTINUOUS
 10
41.7646779646
 20
14.25
 11
41.7646779646
 21
-14.25
  0
LINE
  5
581
100
AcDbEntity
  8
0
100
AcDbLine
 62
7
  6
CONTINUOUS
 10
43.2727730246
 20
-14.25
 11
43.2727730246
 21
14.25
  0
LINE
  5
582
100
AcDbEntity
  8
0
100
AcDbLine
 62
7
  6
CONTINUOUS
 10
31.0716273882
 20
-32.1834704083
 11
30.9722454863
 21
-32.3556049117
  0
LINE
  5
583
100
AcDbEntity
  8
0
100
AcDbLine
 62
7
  6
CONTINUOUS
 10
32.1834704083
 20
-31.0716273882
 11
32.3556049117
 21
-30.9722454863
  0
LINE
  5
584
100
AcDbEntity
  8
0
100
AcDbLine
 62
253
  6
CONTINUOUS
 10
-14.25
 20
40.2475962443
 11
14.25
 21
40.2475962443
  0
LINE
  5
585
100
AcDbEntity
  8
0
100
AcDbLine
 62
253
  6
CONTINUOUS
 10
14.25
 20
40.9118098067
 11
-14.25
 21
40.9118098067
  0
LINE
  5
586
100
AcDbEntity
  8
0
100
AcDbLine
 62
253
  6
CONTINUOUS
 10
-14.25
 20
41.7646779646
 11
14.25
 21
41.7646779646
  0
LINE
  5
587
100
AcDbEntity
  8
0
100
AcDbLine
 62
7
  6
CONTINUOUS
 10
14.25
 20
43.2727730246
 11
-14.25
 21
43.2727730246
  0
LINE
  5
588
100
AcDbEntity
  8
0
100
AcDbLine
 62
7
  6
CONTINUOUS
 10
32.1440595259
 20
30.9273124401
 11
32.2496875166
 21
30.8663280912
  0
LINE
  5
589
100
AcDbEntity
  8
0
100
AcDbLine
 62
7
  6
CONTINUOUS
 10
32.351114762
 20
31.7000531011
 11
32.4568936551
 21
31.6389816287
  0
LINE
  5
58A
100
AcDbEntity
  8
0
100
AcDbLine
 62
7
  6
CONTINUOUS
 10
30.9273124401
 20
32.1440595259
 11
30.8663280912
 21
32.2496875166
  0
LINE
  5
58B
100
AcDbEntity
  8
0
100
AcDbLine
 62
7
  6
CONTINUOUS
 10
31.7000531011
 20
32.351114762
 11
31.638981599
 21
32.4568937065
  0
LINE
  5
58C
100
AcDbEntity
  8
0
100
AcDbLine
 62
7
  6
CONTINUOUS
 10
44.1387984284
 20
-14.25
 11
44.1387984284
 21
14.25
  0
LINE
  5
58D
100
AcDbEntity
  8
0
100
AcDbLine
 62
7
  6
CONTINUOUS
 10
44.6975922207
 20
-14.25
 11
44.6975922207
 21
14.25
  0
LINE
  5
58E
100
AcDbEntity
  8
0
100
AcDbLine
 62
7
  6
CONTINUOUS
 10
44.75
 20
-14.25
 11
44.75
 21
14.25
  0
LINE
  5
58F
100
AcDbEntity
  8
0
100
AcDbLine
 62
7
  6
CONTINUOUS
 10
45.75
 20
-14.25
 11
45.75
 21
14.25
  0
LINE
  5
590
100
AcDbEntity
  8
0
100
AcDbLine
 62
7
  6
CONTINUOUS
 10
31.8443680492
 20
-32.3905256444
 11
31.7447536806
 21
-32.5630627919
  0
LINE
  5
591
100
AcDbEntity
  8
0
100
AcDbLine
 62
7
  6
CONTINUOUS
 10
32.3905256444
 20
-31.8443680492
 11
32.5630629983
 21
-31.7447535614
  0
LINE
  5
592
100
AcDbEntity
  8
0
100
AcDbLine
 62
7
  6
CONTINUOUS
 10
14.25
 20
44.1387984284
 11
-14.25
 21
44.1387984284
  0
LINE
  5
593
100
AcDbEntity
  8
0
100
AcDbLine
 62
7
  6
CONTINUOUS
 10
14.25
 20
44.6975922207
 11
-14.25
 21
44.6975922207
  0
LINE
  5
594
100
AcDbEntity
  8
0
100
AcDbLine
 62
7
  6
CONTINUOUS
 10
14.25
 20
44.75
 11
-14.25
 21
44.75
  0
LINE
  5
595
100
AcDbEntity
  8
0
100
AcDbLine
 62
7
  6
CONTINUOUS
 10
14.25
 20
45.75
 11
-14.25
 21
45.75
  0
LINE
  5
596
100
AcDbEntity
  8
0
100
AcDbLine
 62
7
  6
CONTINUOUS
 10
109.8757236506
 20
-44.6975922207
 11
108.8757236506
 21
-44.75
  0
LINE
  5
597
100
AcDbEntity
  8
0
100
AcDbLine
 62
7
  6
CONTINUOUS
 10
108.8757236506
 20
-45.75
 11
77.8757236506
 21
-44.1253588422
  0
LINE
  5
598
100
AcDbEntity
  8
0
100
AcDbLine
 62
253
  6
CONTINUOUS
 10
77.8757236506
 20
-14.25
 11
109.8757236506
 21
-14.25
  0
LINE
  5
599
100
AcDbEntity
  8
0
100
AcDbLine
 62
7
  6
CONTINUOUS
 10
77.8757236506
 20
44.1253588422
 11
77.8757236506
 21
-44.1253588422
  0
LINE
  5
59A
100
AcDbEntity
  8
0
100
AcDbLine
 62
253
  6
CONTINUOUS
 10
109.8757236506
 20
14.25
 11
77.8757236506
 21
14.25
  0
LINE
  5
59B
100
AcDbEntity
  8
0
100
AcDbLine
 62
7
  6
CONTINUOUS
 10
108.8757236506
 20
-45.75
 11
108.8757236506
 21
45.75
  0
LINE
  5
59C
100
AcDbEntity
  8
0
100
AcDbLine
 62
7
  6
CONTINUOUS
 10
109.8757236506
 20
-44.6975922207
 11
109.8757236506
 21
44.6975922207
  0
LINE
  5
59D
100
AcDbEntity
  8
0
100
AcDbLine
 62
7
  6
CONTINUOUS
 10
77.8757236506
 20
44.1253588422
 11
108.8757236506
 21
45.75
  0
LINE
  5
59E
100
AcDbEntity
  8
0
100
AcDbLine
 62
7
  6
CONTINUOUS
 10
108.8757236506
 20
44.75
 11
109.8757236506
 21
44.6975922207
  0
ARC
  5
59F
100
AcDbEntity
  8
0
100
AcDbCircle
 62
7
  6
CONTINUOUS
 10
-14.25
 20
-14.25
 40
31.5
100
AcDbArc
 50
180.0
 51
270.0
  0
ARC
  5
5A0
100
AcDbEntity
  8
0
100
AcDbCircle
 62
7
  6
CONTINUOUS
 10
-14.25
 20
-14.25
 40
30.5
100
AcDbArc
 50
180.0
 51
270.0
  0
ARC
  5
5A1
100
AcDbEntity
  8
0
100
AcDbCircle
 62
7
  6
CONTINUOUS
 10
-14.25
 20
-14.25
 40
30.4475922207
100
AcDbArc
 50
180.0
 51
270.0
  0
ARC
  5
5A2
100
AcDbEntity
  8
0
100
AcDbCircle
 62
7
  6
CONTINUOUS
 10
-14.25
 20
-14.25
 40
29.8887984284
100
AcDbArc
 50
180.0
 51
270.0
  0
ARC
  5
5A3
100
AcDbEntity
  8
0
100
AcDbCircle
 62
7
  6
CONTINUOUS
 10
-14.25
 20
-14.25
 40
29.0227730246
100
AcDbArc
 50
180.0
 51
270.0
  0
ARC
  5
5A4
100
AcDbEntity
  8
0
100
AcDbCircle
 62
7
  6
CONTINUOUS
 10
-14.25
 20
-14.25
 40
28.262860225
100
AcDbArc
 50
224.0666750998
 51
225.9333249001
  0
ARC
  5
5A5
100
AcDbEntity
  8
0
100
AcDbCircle
 62
253
  6
CONTINUOUS
 10
-14.25
 20
-14.25
 40
27.5146779646
100
AcDbArc
 50
180.0
 51
223.7818118354
  0
ARC
  5
5A6
100
AcDbEntity
  8
0
100
AcDbCircle
 62
253
  6
CONTINUOUS
 10
-14.25
 20
-14.25
 40
27.5146779646
100
AcDbArc
 50
226.2181881646
 51
270.0
  0
ARC
  5
5A7
100
AcDbEntity
  8
0
100
AcDbCircle
 62
253
  6
CONTINUOUS
 10
-14.25
 20
-14.25
 40
26.6618098067
100
AcDbArc
 50
180.0
 51
223.7366965733
  0
ARC
  5
5A8
100
AcDbEntity
  8
0
100
AcDbCircle
 62
253
  6
CONTINUOUS
 10
-14.25
 20
-14.25
 40
26.6618098067
100
AcDbArc
 50
226.2633034267
 51
270.0
  0
ARC
  5
5A9
100
AcDbEntity
  8
0
100
AcDbCircle
 62
253
  6
CONTINUOUS
 10
-14.25
 20
-14.25
 40
25.9975962443
100
AcDbArc
 50
180.0
 51
223.7171930306
  0
ARC
  5
5AA
100
AcDbEntity
  8
0
100
AcDbCircle
 62
253
  6
CONTINUOUS
 10
-14.25
 20
-14.25
 40
25.9975962443
100
AcDbArc
 50
226.2828069694
 51
270.0
  0
ARC
  5
5AB
100
AcDbEntity
  8
0
100
AcDbCircle
 62
253
  6
CONTINUOUS
 10
-14.25
 20
-14.25
 40
24.9369360725
100
AcDbArc
 50
226.6516407189
 51
270.0
  0
ARC
  5
5AC
100
AcDbEntity
  8
0
100
AcDbCircle
 62
253
  6
CONTINUOUS
 10
-14.25
 20
-14.25
 40
24.9369360725
100
AcDbArc
 50
180.0
 51
223.3483592811
  0
ARC
  5
5AD
100
AcDbEntity
  8
0
100
AcDbCircle
 62
7
  6
CONTINUOUS
 10
-29.344428022
 20
-6.2373507245
 40
3.0610927272
100
AcDbArc
 50
133.59448661
 51
65.5544854124
  0
ARC
  5
5AE
100
AcDbEntity
  8
0
100
AcDbCircle
 62
7
  6
CONTINUOUS
 10
-29.344428022
 20
-6.2373507245
 40
3.0
100
AcDbArc
 50
133.0058105257
 51
66.205840174
  0
ARC
  5
5AF
100
AcDbEntity
  8
0
100
AcDbCircle
 62
7
  6
CONTINUOUS
 10
-24.7383917375
 20
-17.3220083778
 40
2.0
100
AcDbArc
 50
343.4032368469
 51
86.596763153
  0
ARC
  5
5B0
100
AcDbEntity
  8
0
100
AcDbCircle
 62
7
  6
CONTINUOUS
 10
-6.2373507245
 20
-29.344428022
 40
1.7110927272
100
AcDbArc
 50
78.0000000011
 51
258.0000000009
  0
ARC
  5
5B1
100
AcDbEntity
  8
0
100
AcDbCircle
 62
253
  6
CONTINUOUS
 10
-10.9094334258
 20
-22.8271232904
 40
1.6987957017
100
AcDbArc
 50
31.4947000795
 51
64.4668996088
  0
ARC
  5
5B2
100
AcDbEntity
  8
0
100
AcDbCircle
 62
253
  6
CONTINUOUS
 10
-14.263086375
 20
-29.7032702918
 40
1.6984587038
100
AcDbArc
 50
244.3304460052
 51
276.5100452489
  0
ARC
  5
5B3
100
AcDbEntity
  8
0
100
AcDbCircle
 62
253
  6
CONTINUOUS
 10
-22.2233336856
 20
-12.087568893
 40
1.6966266413
100
AcDbArc
 50
28.5108492472
 51
119.0478294553
  0
ARC
  5
5B4
100
AcDbEntity
  8
0
100
AcDbCircle
 62
253
  6
CONTINUOUS
 10
-28.9179482844
 20
-15.7984469014
 40
1.6966116752
100
AcDbArc
 50
118.9531721342
 51
208.6971871018
  0
ARC
  5
5B5
100
AcDbEntity
  8
0
100
AcDbCircle
 62
7
  6
CONTINUOUS
 10
-6.2373507245
 20
-29.344428022
 40
1.65
100
AcDbArc
 50
78.0000000015
 51
258.0000000007
  0
ARC
  5
5B6
100
AcDbEntity
  8
0
100
AcDbCircle
 62
7
  6
CONTINUOUS
 10
-29.344428022
 20
6.2373507245
 40
1.7110927272
100
AcDbArc
 50
348.0000000011
 51
168.0000000009
  0
ARC
  5
5B7
100
AcDbEntity
  8
0
100
AcDbCircle
 62
7
  6
CONTINUOUS
 10
-29.344428022
 20
6.2373507245
 40
1.65
100
AcDbArc
 50
348.0000000015
 51
168.0000000007
  0
ARC
  5
5B8
100
AcDbEntity
  8
0
100
AcDbCircle
 62
7
  6
CONTINUOUS
 10
-21.3899801309
 20
21.3899801309
 40
6.0
100
AcDbArc
 50
144.382839635
 51
187.2968710816
  0
ARC
  5
5B9
100
AcDbEntity
  8
0
100
AcDbCircle
 62
7
  6
CONTINUOUS
 10
-21.3899801309
 20
21.3899801309
 40
6.0
100
AcDbArc
 50
82.7031289184
 51
125.617160365
  0
ARC
  5
5BA
100
AcDbEntity
  8
0
100
AcDbCircle
 62
7
  6
CONTINUOUS
 10
-21.3899801309
 20
21.3899801309
 40
5.6159885716
100
AcDbArc
 50
143.047365466
 51
188.8762678413
  0
ARC
  5
5BB
100
AcDbEntity
  8
0
100
AcDbCircle
 62
7
  6
CONTINUOUS
 10
-21.3899801309
 20
21.3899801309
 40
5.6159885716
100
AcDbArc
 50
81.1237321587
 51
126.9526345341
  0
ARC
  5
5BC
100
AcDbEntity
  8
0
100
AcDbCircle
 62
7
  6
CONTINUOUS
 10
-21.3899801309
 20
21.3899801309
 40
4.3840114284
100
AcDbArc
 50
74.5222955124
 51
195.4777044876
  0
ARC
  5
5BD
100
AcDbEntity
  8
0
100
AcDbCircle
 62
7
  6
CONTINUOUS
 10
-21.3899801309
 20
21.3899801309
 40
4.0
100
AcDbArc
 50
71.7701990082
 51
198.2298009918
  0
ARC
  5
5BE
100
AcDbEntity
  8
0
100
AcDbCircle
 62
7
  6
CONTINUOUS
 10
-14.25
 20
14.25
 40
31.5
100
AcDbArc
 50
90.0
 51
180.0
  0
ARC
  5
5BF
100
AcDbEntity
  8
0
100
AcDbCircle
 62
7
  6
CONTINUOUS
 10
-14.25
 20
14.25
 40
30.5
100
AcDbArc
 50
90.0
 51
180.0
  0
ARC
  5
5C0
100
AcDbEntity
  8
0
100
AcDbCircle
 62
7
  6
CONTINUOUS
 10
-14.25
 20
14.25
 40
30.4475922207
100
AcDbArc
 50
90.0
 51
180.0
  0
ARC
  5
5C1
100
AcDbEntity
  8
0
100
AcDbCircle
 62
7
  6
CONTINUOUS
 10
-14.25
 20
14.25
 40
29.8887984284
100
AcDbArc
 50
90.0
 51
180.0
  0
ARC
  5
5C2
100
AcDbEntity
  8
0
100
AcDbCircle
 62
7
  6
CONTINUOUS
 10
-14.25
 20
14.25
 40
29.0227730246
100
AcDbArc
 50
90.0
 51
180.0
  0
ARC
  5
5C3
100
AcDbEntity
  8
0
100
AcDbCircle
 62
7
  6
CONTINUOUS
 10
-14.25
 20
14.25
 40
28.7083263489
100
AcDbArc
 50
134.2292192904
 51
135.7707807096
  0
ARC
  5
5C4
100
AcDbEntity
  8
0
100
AcDbCircle
 62
253
  6
CONTINUOUS
 10
-14.25
 20
14.25
 40
27.5146779646
100
AcDbArc
 50
136.2181881646
 51
180.0
  0
ARC
  5
5C5
100
AcDbEntity
  8
0
100
AcDbCircle
 62
253
  6
CONTINUOUS
 10
-14.25
 20
14.25
 40
27.5146779646
100
AcDbArc
 50
90.0
 51
133.7818118354
  0
ARC
  5
5C6
100
AcDbEntity
  8
0
100
AcDbCircle
 62
253
  6
CONTINUOUS
 10
-14.25
 20
14.25
 40
26.6618098067
100
AcDbArc
 50
136.2633034267
 51
180.0
  0
ARC
  5
5C7
100
AcDbEntity
  8
0
100
AcDbCircle
 62
253
  6
CONTINUOUS
 10
-14.25
 20
14.25
 40
26.6618098067
100
AcDbArc
 50
90.0
 51
133.7366965733
  0
ARC
  5
5C8
100
AcDbEntity
  8
0
100
AcDbCircle
 62
253
  6
CONTINUOUS
 10
-14.25
 20
14.25
 40
25.9975962443
100
AcDbArc
 50
136.2828069694
 51
180.0
  0
ARC
  5
5C9
100
AcDbEntity
  8
0
100
AcDbCircle
 62
253
  6
CONTINUOUS
 10
-14.25
 20
14.25
 40
25.9975962443
100
AcDbArc
 50
90.0
 51
133.7171930306
  0
ARC
  5
5CA
100
AcDbEntity
  8
0
100
AcDbCircle
 62
253
  6
CONTINUOUS
 10
-14.25
 20
14.25
 40
24.9369360725
100
AcDbArc
 50
136.854010873
 51
180.0
  0
ARC
  5
5CB
100
AcDbEntity
  8
0
100
AcDbCircle
 62
253
  6
CONTINUOUS
 10
-14.25
 20
14.25
 40
24.9369360725
100
AcDbArc
 50
90.0
 51
133.145989127
  0
CIRCLE
  5
5CC
100
AcDbEntity
  8
0
100
AcDbCircle
 62
7
  6
CONTINUOUS
 10
-12.7279220614
 20
12.7279220614
 40
9.9088457268
  0
CIRCLE
  5
5CD
100
AcDbEntity
  8
0
100
AcDbCircle
 62
7
  6
CONTINUOUS
 10
-12.7279220614
 20
12.7279220614
 40
8.35
  0
CIRCLE
  5
5CE
100
AcDbEntity
  8
0
100
AcDbCircle
 62
7
  6
CONTINUOUS
 10
-12.7279220614
 20
12.7279220614
 40
8.05
  0
CIRCLE
  5
5CF
100
AcDbEntity
  8
0
100
AcDbCircle
 62
7
  6
CONTINUOUS
 10
-12.7279220614
 20
12.7279220614
 40
7.6169872981
  0
ARC
  5
5D0
100
AcDbEntity
  8
0
100
AcDbCircle
 62
7
  6
CONTINUOUS
 10
-6.2373507245
 20
29.344428022
 40
3.0610927272
100
AcDbArc
 50
43.59448661
 51
335.5544854124
  0
ARC
  5
5D1
100
AcDbEntity
  8
0
100
AcDbCircle
 62
7
  6
CONTINUOUS
 10
-6.2373507245
 20
29.344428022
 40
3.0
100
AcDbArc
 50
43.0058105257
 51
336.205840174
  0
ARC
  5
5D2
100
AcDbEntity
  8
0
100
AcDbCircle
 62
7
  6
CONTINUOUS
 10
6.2373507245
 20
-29.344428022
 40
3.0610927272
100
AcDbArc
 50
223.59448661
 51
155.5544854124
  0
ARC
  5
5D3
100
AcDbEntity
  8
0
100
AcDbCircle
 62
7
  6
CONTINUOUS
 10
6.2373507245
 20
-29.344428022
 40
3.0
100
AcDbArc
 50
223.0058105257
 51
156.205840174
  0
ARC
  5
5D4
100
AcDbEntity
  8
0
100
AcDbCircle
 62
7
  6
CONTINUOUS
 10
14.25
 20
-14.25
 40
31.5
100
AcDbArc
 50
270.0
 51
360.0
  0
ARC
  5
5D5
100
AcDbEntity
  8
0
100
AcDbCircle
 62
7
  6
CONTINUOUS
 10
14.25
 20
-14.25
 40
30.5
100
AcDbArc
 50
270.0
 51
360.0
  0
ARC
  5
5D6
100
AcDbEntity
  8
0
100
AcDbCircle
 62
7
  6
CONTINUOUS
 10
14.25
 20
-14.25
 40
30.4475922207
100
AcDbArc
 50
270.0
 51
360.0
  0
ARC
  5
5D7
100
AcDbEntity
  8
0
100
AcDbCircle
 62
7
  6
CONTINUOUS
 10
14.25
 20
-14.25
 40
29.8887984284
100
AcDbArc
 50
270.0
 51
360.0
  0
ARC
  5
5D8
100
AcDbEntity
  8
0
100
AcDbCircle
 62
7
  6
CONTINUOUS
 10
14.25
 20
-14.25
 40
29.0227730246
100
AcDbArc
 50
270.0
 51
360.0
  0
ARC
  5
5D9
100
AcDbEntity
  8
0
100
AcDbCircle
 62
7
  6
CONTINUOUS
 10
14.25
 20
-14.25
 40
28.7083263489
100
AcDbArc
 50
314.2292192904
 51
315.7707807096
  0
ARC
  5
5DA
100
AcDbEntity
  8
0
100
AcDbCircle
 62
253
  6
CONTINUOUS
 10
14.25
 20
-14.25
 40
27.5146779646
100
AcDbArc
 50
316.2181881646
 51
360.0
  0
ARC
  5
5DB
100
AcDbEntity
  8
0
100
AcDbCircle
 62
253
  6
CONTINUOUS
 10
14.25
 20
-14.25
 40
27.5146779646
100
AcDbArc
 50
270.0
 51
313.7818118354
  0
ARC
  5
5DC
100
AcDbEntity
  8
0
100
AcDbCircle
 62
253
  6
CONTINUOUS
 10
14.25
 20
-14.25
 40
26.6618098067
100
AcDbArc
 50
316.2633034267
 51
360.0
  0
ARC
  5
5DD
100
AcDbEntity
  8
0
100
AcDbCircle
 62
253
  6
CONTINUOUS
 10
14.25
 20
-14.25
 40
26.6618098067
100
AcDbArc
 50
270.0
 51
313.7366965733
  0
ARC
  5
5DE
100
AcDbEntity
  8
0
100
AcDbCircle
 62
253
  6
CONTINUOUS
 10
14.25
 20
-14.25
 40
25.9975962443
100
AcDbArc
 50
316.2828069694
 51
360.0
  0
ARC
  5
5DF
100
AcDbEntity
  8
0
100
AcDbCircle
 62
253
  6
CONTINUOUS
 10
14.25
 20
-14.25
 40
25.9975962443
100
AcDbArc
 50
270.0
 51
313.7171930306
  0
ARC
  5
5E0
100
AcDbEntity
  8
0
100
AcDbCircle
 62
253
  6
CONTINUOUS
 10
14.25
 20
-14.25
 40
24.9369360725
100
AcDbArc
 50
270.0
 51
313.145989127
  0
ARC
  5
5E1
100
AcDbEntity
  8
0
100
AcDbCircle
 62
253
  6
CONTINUOUS
 10
14.25
 20
-14.25
 40
24.9369360725
100
AcDbArc
 50
316.854010873
 51
360.0
  0
CIRCLE
  5
5E2
100
AcDbEntity
  8
0
100
AcDbCircle
 62
7
  6
CONTINUOUS
 10
12.7279220614
 20
-12.7279220614
 40
9.9088457268
  0
CIRCLE
  5
5E3
100
AcDbEntity
  8
0
100
AcDbCircle
 62
7
  6
CONTINUOUS
 10
12.7279220614
 20
-12.7279220614
 40
8.35
  0
CIRCLE
  5
5E4
100
AcDbEntity
  8
0
100
AcDbCircle
 62
7
  6
CONTINUOUS
 10
12.7279220614
 20
-12.7279220614
 40
8.05
  0
CIRCLE
  5
5E5
100
AcDbEntity
  8
0
100
AcDbCircle
 62
7
  6
CONTINUOUS
 10
12.7279220614
 20
-12.7279220614
 40
7.6169872981
  0
ARC
  5
5E6
100
AcDbEntity
  8
0
100
AcDbCircle
 62
7
  6
CONTINUOUS
 10
21.3899801309
 20
-21.3899801309
 40
6.0
100
AcDbArc
 50
262.7031289184
 51
305.617160365
  0
ARC
  5
5E7
100
AcDbEntity
  8
0
100
AcDbCircle
 62
7
  6
CONTINUOUS
 10
21.3899801309
 20
-21.3899801309
 40
6.0
100
AcDbArc
 50
324.382839635
 51
7.2968710816
  0
ARC
  5
5E8
100
AcDbEntity
  8
0
100
AcDbCircle
 62
7
  6
CONTINUOUS
 10
21.3899801309
 20
-21.3899801309
 40
5.6159885716
100
AcDbArc
 50
323.047365466
 51
8.8762678413
  0
ARC
  5
5E9
100
AcDbEntity
  8
0
100
AcDbCircle
 62
7
  6
CONTINUOUS
 10
21.3899801309
 20
-21.3899801309
 40
5.6159885716
100
AcDbArc
 50
261.1237321587
 51
306.9526345341
  0
ARC
  5
5EA
100
AcDbEntity
  8
0
100
AcDbCircle
 62
7
  6
CONTINUOUS
 10
21.3899801309
 20
-21.3899801309
 40
4.3840114284
100
AcDbArc
 50
254.5222955124
 51
15.4777044876
  0
ARC
  5
5EB
100
AcDbEntity
  8
0
100
AcDbCircle
 62
7
  6
CONTINUOUS
 10
21.3899801309
 20
-21.3899801309
 40
4.0
100
AcDbArc
 50
251.7701990082
 51
18.2298009918
  0
ARC
  5
5EC
100
AcDbEntity
  8
0
100
AcDbCircle
 62
7
  6
CONTINUOUS
 10
29.344428022
 20
-6.2373507245
 40
1.7110927272
100
AcDbArc
 50
168.0000000011
 51
348.0000000009
  0
ARC
  5
5ED
100
AcDbEntity
  8
0
100
AcDbCircle
 62
7
  6
CONTINUOUS
 10
29.344428022
 20
-6.2373507245
 40
1.65
100
AcDbArc
 50
168.0000000015
 51
348.0000000007
  0
ARC
  5
5EE
100
AcDbEntity
  8
0
100
AcDbCircle
 62
7
  6
CONTINUOUS
 10
0.0
 20
0.0
 40
35.6409322478
100
AcDbArc
 50
226.5727081969
 51
245.5215250642
  0
ARC
  5
5EF
100
AcDbEntity
  8
0
100
AcDbCircle
 62
7
  6
CONTINUOUS
 10
0.0
 20
0.0
 40
35.6409322478
100
AcDbArc
 50
207.4786998131
 51
223.4272918031
  0
ARC
  5
5F0
100
AcDbEntity
  8
0
100
AcDbCircle
 62
7
  6
CONTINUOUS
 10
0.0
 20
0.0
 40
35.6409322478
100
AcDbArc
 50
46.5727081969
 51
65.5215257603
  0
ARC
  5
5F1
100
AcDbEntity
  8
0
100
AcDbCircle
 62
7
  6
CONTINUOUS
 10
0.0
 20
0.0
 40
35.6409322478
100
AcDbArc
 50
27.4787007739
 51
43.4272918031
  0
ARC
  5
5F2
100
AcDbEntity
  8
0
100
AcDbCircle
 62
7
  6
CONTINUOUS
 10
0.0
 20
0.0
 40
34.9334272275
100
AcDbArc
 50
43.5887281804
 51
46.4112718196
  0
ARC
  5
5F3
100
AcDbEntity
  8
0
100
AcDbCircle
 62
7
  6
CONTINUOUS
 10
0.0
 20
0.0
 40
34.9334272275
100
AcDbArc
 50
223.5887281804
 51
226.4112718196
  0
ARC
  5
5F4
100
AcDbEntity
  8
0
100
AcDbCircle
 62
253
  6
CONTINUOUS
 10
0.0
 20
0.0
 40
34.5872910397
100
AcDbArc
 50
209.2695374752
 51
243.7304625248
  0
ARC
  5
5F5
100
AcDbEntity
  8
0
100
AcDbCircle
 62
253
  6
CONTINUOUS
 10
0.0
 20
0.0
 40
34.5872910397
100
AcDbArc
 50
29.2695374752
 51
63.7304625248
  0
ARC
  5
5F6
100
AcDbEntity
  8
0
100
AcDbCircle
 62
7
  6
CONTINUOUS
 10
0.0
 20
0.0
 40
34.25
100
AcDbArc
 50
295.5062297859
 51
307.0330042131
  0
ARC
  5
5F7
100
AcDbEntity
  8
0
100
AcDbCircle
 62
7
  6
CONTINUOUS
 10
0.0
 20
0.0
 40
34.25
100
AcDbArc
 50
142.9669957869
 51
154.4937702722
  0
ARC
  5
5F8
100
AcDbEntity
  8
0
100
AcDbCircle
 62
7
  6
CONTINUOUS
 10
0.0
 20
0.0
 40
34.25
100
AcDbArc
 50
115.5062297102
 51
127.0330042131
  0
ARC
  5
5F9
100
AcDbEntity
  8
0
100
AcDbCircle
 62
7
  6
CONTINUOUS
 10
0.0
 20
0.0
 40
34.25
100
AcDbArc
 50
322.9669957869
 51
334.4937701964
  0
ARC
  5
5FA
100
AcDbEntity
  8
0
100
AcDbCircle
 62
7
  6
CONTINUOUS
 10
0.0
 20
0.0
 40
33.8659885716
100
AcDbArc
 50
322.6978085541
 51
333.5188672902
  0
ARC
  5
5FB
100
AcDbEntity
  8
0
100
AcDbCircle
 62
7
  6
CONTINUOUS
 10
0.0
 20
0.0
 40
33.8659885716
100
AcDbArc
 50
296.1675866702
 51
307.3021914459
  0
ARC
  5
5FC
100
AcDbEntity
  8
0
100
AcDbCircle
 62
7
  6
CONTINUOUS
 10
0.0
 20
0.0
 40
33.8659885716
100
AcDbArc
 50
142.6978085541
 51
153.8324134003
  0
ARC
  5
5FD
100
AcDbEntity
  8
0
100
AcDbCircle
 62
7
  6
CONTINUOUS
 10
0.0
 20
0.0
 40
33.8659885716
100
AcDbArc
 50
116.1675865905
 51
127.3021914459
  0
ARC
  5
5FE
100
AcDbEntity
  8
0
100
AcDbCircle
 62
7
  6
CONTINUOUS
 10
0.0
 20
0.0
 40
32.6340114284
100
AcDbArc
 50
305.4015090437
 51
308.2869627804
  0
ARC
  5
5FF
100
AcDbEntity
  8
0
100
AcDbCircle
 62
7
  6
CONTINUOUS
 10
0.0
 20
0.0
 40
32.6340114284
100
AcDbArc
 50
321.7130372196
 51
333.462939396
  0
ARC
  5
600
100
AcDbEntity
  8
0
100
AcDbCircle
 62
7
  6
CONTINUOUS
 10
0.0
 20
0.0
 40
32.6340114284
100
AcDbArc
 50
296.1899993722
 51
304.5984909563
  0
ARC
  5
601
100
AcDbEntity
  8
0
100
AcDbCircle
 62
7
  6
CONTINUOUS
 10
0.0
 20
0.0
 40
32.6340114284
100
AcDbArc
 50
125.4015090437
 51
128.2869627804
  0
ARC
  5
602
100
AcDbEntity
  8
0
100
AcDbCircle
 62
7
  6
CONTINUOUS
 10
0.0
 20
0.0
 40
32.6340114284
100
AcDbArc
 50
141.7130372196
 51
153.8100000606
  0
ARC
  5
603
100
AcDbEntity
  8
0
100
AcDbCircle
 62
7
  6
CONTINUOUS
 10
0.0
 20
0.0
 40
32.6340114284
100
AcDbArc
 50
116.1899994694
 51
124.5984909563
  0
ARC
  5
604
100
AcDbEntity
  8
0
100
AcDbCircle
 62
253
  6
CONTINUOUS
 10
0.0
 20
0.0
 40
32.5900319702
100
AcDbArc
 50
209.4606894716
 51
243.5393105284
  0
ARC
  5
605
100
AcDbEntity
  8
0
100
AcDbCircle
 62
253
  6
CONTINUOUS
 10
0.0
 20
0.0
 40
32.5900319702
100
AcDbArc
 50
29.4606894716
 51
63.5393105284
  0
ARC
  5
606
100
AcDbEntity
  8
0
100
AcDbCircle
 62
7
  6
CONTINUOUS
 10
0.0
 20
0.0
 40
32.4856433765
100
AcDbArc
 50
330.223886003
 51
331.9477477413
  0
ARC
  5
607
100
AcDbEntity
  8
0
100
AcDbCircle
 62
7
  6
CONTINUOUS
 10
0.0
 20
0.0
 40
32.4856433765
100
AcDbArc
 50
150.223886003
 51
151.9477477413
  0
ARC
  5
608
100
AcDbEntity
  8
0
100
AcDbCircle
 62
7
  6
CONTINUOUS
 10
0.0
 20
0.0
 40
32.25
100
AcDbArc
 50
295.5280067416
 51
303.6674198757
  0
ARC
  5
609
100
AcDbEntity
  8
0
100
AcDbCircle
 62
7
  6
CONTINUOUS
 10
0.0
 20
0.0
 40
32.25
100
AcDbArc
 50
153.063902229
 51
154.4719939172
  0
ARC
  5
60A
100
AcDbEntity
  8
0
100
AcDbCircle
 62
7
  6
CONTINUOUS
 10
0.0
 20
0.0
 40
32.25
100
AcDbArc
 50
141.3578246316
 51
149.3628618306
  0
ARC
  5
60B
100
AcDbEntity
  8
0
100
AcDbCircle
 62
7
  6
CONTINUOUS
 10
0.0
 20
0.0
 40
32.25
100
AcDbArc
 50
126.3325801243
 51
128.6421753684
  0
ARC
  5
60C
100
AcDbEntity
  8
0
100
AcDbCircle
 62
7
  6
CONTINUOUS
 10
0.0
 20
0.0
 40
32.25
100
AcDbArc
 50
115.5280068427
 51
123.6674198757
  0
ARC
  5
60D
100
AcDbEntity
  8
0
100
AcDbCircle
 62
7
  6
CONTINUOUS
 10
0.0
 20
0.0
 40
32.25
100
AcDbArc
 50
333.063902229
 51
334.4719940081
  0
ARC
  5
60E
100
AcDbEntity
  8
0
100
AcDbCircle
 62
7
  6
CONTINUOUS
 10
0.0
 20
0.0
 40
32.25
100
AcDbArc
 50
321.3578246316
 51
329.3628618306
  0
ARC
  5
60F
100
AcDbEntity
  8
0
100
AcDbCircle
 62
7
  6
CONTINUOUS
 10
0.0
 20
0.0
 40
32.25
100
AcDbArc
 50
306.3325801243
 51
308.6421753684
  0
ARC
  5
610
100
AcDbEntity
  8
0
100
AcDbCircle
 62
7
  6
CONTINUOUS
 10
0.0
 20
0.0
 40
31.7110927272
100
AcDbArc
 50
78.0
 51
97.2836659062
  0
ARC
  5
611
100
AcDbEntity
  8
0
100
AcDbCircle
 62
7
  6
CONTINUOUS
 10
0.0
 20
0.0
 40
31.7110927272
100
AcDbArc
 50
168.0
 51
187.2836659062
  0
ARC
  5
612
100
AcDbEntity
  8
0
100
AcDbCircle
 62
7
  6
CONTINUOUS
 10
0.0
 20
0.0
 40
31.7110927272
100
AcDbArc
 50
258.0
 51
277.2836659062
  0
ARC
  5
613
100
AcDbEntity
  8
0
100
AcDbCircle
 62
7
  6
CONTINUOUS
 10
0.0
 20
0.0
 40
31.7110927272
100
AcDbArc
 50
348.0
 51
7.2836659062
  0
ARC
  5
614
100
AcDbEntity
  8
0
100
AcDbCircle
 62
7
  6
CONTINUOUS
 10
0.0
 20
0.0
 40
31.65
100
AcDbArc
 50
348.0
 51
7.3399753074
  0
ARC
  5
615
100
AcDbEntity
  8
0
100
AcDbCircle
 62
7
  6
CONTINUOUS
 10
0.0
 20
0.0
 40
31.65
100
AcDbArc
 50
258.0
 51
277.3399753074
  0
ARC
  5
616
100
AcDbEntity
  8
0
100
AcDbCircle
 62
7
  6
CONTINUOUS
 10
0.0
 20
0.0
 40
31.65
100
AcDbArc
 50
168.0
 51
187.3399753074
  0
ARC
  5
617
100
AcDbEntity
  8
0
100
AcDbCircle
 62
7
  6
CONTINUOUS
 10
0.0
 20
0.0
 40
31.65
100
AcDbArc
 50
78.0
 51
97.3399753074
  0
ARC
  5
618
100
AcDbEntity
  8
0
100
AcDbCircle
 62
253
  6
CONTINUOUS
 10
0.0
 20
0.0
 40
31.5551524713
100
AcDbArc
 50
209.4757985374
 51
243.5242014626
  0
ARC
  5
619
100
AcDbEntity
  8
0
100
AcDbCircle
 62
253
  6
CONTINUOUS
 10
0.0
 20
0.0
 40
31.5551524713
100
AcDbArc
 50
29.4757985374
 51
63.5242014626
  0
ARC
  5
61A
100
AcDbEntity
  8
0
100
AcDbCircle
 62
253
  6
CONTINUOUS
 10
0.0
 20
0.0
 40
29.5578934018
100
AcDbArc
 50
209.3154008194
 51
243.6845991806
  0
ARC
  5
61B
100
AcDbEntity
  8
0
100
AcDbCircle
 62
253
  6
CONTINUOUS
 10
0.0
 20
0.0
 40
29.5578934018
100
AcDbArc
 50
29.3154008194
 51
63.6845991806
  0
ARC
  5
61C
100
AcDbEntity
  8
0
100
AcDbCircle
 62
7
  6
CONTINUOUS
 10
0.0
 20
0.0
 40
29.5
100
AcDbArc
 50
209.2035763312
 51
243.7964236688
  0
ARC
  5
61D
100
AcDbEntity
  8
0
100
AcDbCircle
 62
7
  6
CONTINUOUS
 10
0.0
 20
0.0
 40
29.5
100
AcDbArc
 50
29.2035763312
 51
63.7964236688
  0
ARC
  5
61E
100
AcDbEntity
  8
0
100
AcDbCircle
 62
7
  6
CONTINUOUS
 10
0.0
 20
0.0
 40
29.0
100
AcDbArc
 50
209.2070862831
 51
211.9019169689
  0
ARC
  5
61F
100
AcDbEntity
  8
0
100
AcDbCircle
 62
7
  6
CONTINUOUS
 10
0.0
 20
0.0
 40
29.0
100
AcDbArc
 50
218.0980830311
 51
239.8875576997
  0
ARC
  5
620
100
AcDbEntity
  8
0
100
AcDbCircle
 62
7
  6
CONTINUOUS
 10
0.0
 20
0.0
 40
29.0
100
AcDbArc
 50
29.2070862831
 51
31.9019169689
  0
ARC
  5
621
100
AcDbEntity
  8
0
100
AcDbCircle
 62
7
  6
CONTINUOUS
 10
0.0
 20
0.0
 40
29.0
100
AcDbArc
 50
38.0980830311
 51
59.887557598
  0
ARC
  5
622
100
AcDbEntity
  8
0
100
AcDbCircle
 62
7
  6
CONTINUOUS
 10
0.0
 20
0.0
 40
28.35
100
AcDbArc
 50
347.9999999999
 51
7.0760630032
  0
ARC
  5
623
100
AcDbEntity
  8
0
100
AcDbCircle
 62
7
  6
CONTINUOUS
 10
0.0
 20
0.0
 40
28.35
100
AcDbArc
 50
257.9999999999
 51
277.0760630032
  0
ARC
  5
624
100
AcDbEntity
  8
0
100
AcDbCircle
 62
7
  6
CONTINUOUS
 10
0.0
 20
0.0
 40
28.35
100
AcDbArc
 50
167.9999999999
 51
187.0760630032
  0
ARC
  5
625
100
AcDbEntity
  8
0
100
AcDbCircle
 62
7
  6
CONTINUOUS
 10
0.0
 20
0.0
 40
28.35
100
AcDbArc
 50
77.9999999999
 51
97.0760630032
  0
ARC
  5
626
100
AcDbEntity
  8
0
100
AcDbCircle
 62
7
  6
CONTINUOUS
 10
0.0
 20
0.0
 40
28.2889072728
100
AcDbArc
 50
77.9999999999
 51
97.006363524
  0
ARC
  5
627
100
AcDbEntity
  8
0
100
AcDbCircle
 62
7
  6
CONTINUOUS
 10
0.0
 20
0.0
 40
28.2889072728
100
AcDbArc
 50
167.9999999999
 51
187.006363524
  0
ARC
  5
628
100
AcDbEntity
  8
0
100
AcDbCircle
 62
7
  6
CONTINUOUS
 10
0.0
 20
0.0
 40
28.2889072728
100
AcDbArc
 50
257.9999999999
 51
277.006363524
  0
ARC
  5
629
100
AcDbEntity
  8
0
100
AcDbCircle
 62
7
  6
CONTINUOUS
 10
0.0
 20
0.0
 40
28.2889072728
100
AcDbArc
 50
347.9999999999
 51
7.006363524
  0
ARC
  5
62A
100
AcDbEntity
  8
0
100
AcDbCircle
 62
7
  6
CONTINUOUS
 10
0.0
 20
0.0
 40
25.3165727725
100
AcDbArc
 50
208.5848688513
 51
244.4151311487
  0
ARC
  5
62B
100
AcDbEntity
  8
0
100
AcDbCircle
 62
7
  6
CONTINUOUS
 10
0.0
 20
0.0
 40
25.3165727725
100
AcDbArc
 50
28.5848688513
 51
64.4151311487
  0
ARC
  5
62C
100
AcDbEntity
  8
0
100
AcDbCircle
 62
253
  6
CONTINUOUS
 10
0.0
 20
0.0
 40
23.6012621425
100
AcDbArc
 50
208.5446270211
 51
244.4553729313
  0
ARC
  5
62D
100
AcDbEntity
  8
0
100
AcDbCircle
 62
253
  6
CONTINUOUS
 10
0.0
 20
0.0
 40
23.6012621425
100
AcDbArc
 50
28.5446270211
 51
64.4553729313
  0
ARC
  5
62E
100
AcDbEntity
  8
0
100
AcDbCircle
 62
253
  6
CONTINUOUS
 10
0.0
 20
0.0
 40
23.3016732821
100
AcDbArc
 50
28.5446386211
 51
64.4553610922
  0
ARC
  5
62F
100
AcDbEntity
  8
0
100
AcDbCircle
 62
253
  6
CONTINUOUS
 10
0.0
 20
0.0
 40
23.3016732821
100
AcDbArc
 50
208.5446386211
 51
244.4553610922
  0
ARC
  5
630
100
AcDbEntity
  8
0
100
AcDbCircle
 62
7
  6
CONTINUOUS
 10
0.0
 20
0.0
 40
22.6090677522
100
AcDbArc
 50
206.9186260943
 51
246.0813739072
  0
ARC
  5
631
100
AcDbEntity
  8
0
100
AcDbCircle
 62
7
  6
CONTINUOUS
 10
0.0
 20
0.0
 40
22.6090677522
100
AcDbArc
 50
26.9186260943
 51
66.081373908
  0
CIRCLE
  5
632
100
AcDbEntity
  8
0
100
AcDbCircle
 62
7
  6
CONTINUOUS
 10
0.0
 20
0.0
 40
3.9258776104
  0
ARC
  5
633
100
AcDbEntity
  8
0
100
AcDbCircle
 62
7
  6
CONTINUOUS
 10
2.66
 20
14.1
 40
0.38
100
AcDbArc
 50
329.1500000033
 51
90.0
  0
ARC
  5
634
100
AcDbEntity
  8
0
100
AcDbCircle
 62
7
  6
CONTINUOUS
 10
1.34
 20
14.1
 40
0.38
100
AcDbArc
 50
90.0
 51
210.8499999956
  0
ARC
  5
635
100
AcDbEntity
  8
0
100
AcDbCircle
 62
7
  6
CONTINUOUS
 10
2.0
 20
12.761020334
 40
0.26
100
AcDbArc
 50
210.8500000048
 51
329.149999997
  0
ARC
  5
636
100
AcDbEntity
  8
0
100
AcDbCircle
 62
7
  6
CONTINUOUS
 10
2.34
 20
14.245
 40
0.235
100
AcDbArc
 50
90.0
 51
270.0
  0
ARC
  5
637
100
AcDbEntity
  8
0
100
AcDbCircle
 62
7
  6
CONTINUOUS
 10
1.66
 20
14.245
 40
0.235
100
AcDbArc
 50
270.0
 51
90.0
  0
ARC
  5
638
100
AcDbEntity
  8
0
100
AcDbCircle
 62
7
  6
CONTINUOUS
 10
14.25
 20
14.25
 40
31.5
100
AcDbArc
 50
0.0
 51
90.0
  0
ARC
  5
639
100
AcDbEntity
  8
0
100
AcDbCircle
 62
7
  6
CONTINUOUS
 10
14.25
 20
14.25
 40
30.5
100
AcDbArc
 50
0.0
 51
90.0
  0
ARC
  5
63A
100
AcDbEntity
  8
0
100
AcDbCircle
 62
7
  6
CONTINUOUS
 10
14.25
 20
14.25
 40
30.4475922207
100
AcDbArc
 50
0.0
 51
90.0
  0
ARC
  5
63B
100
AcDbEntity
  8
0
100
AcDbCircle
 62
7
  6
CONTINUOUS
 10
14.25
 20
14.25
 40
29.8887984284
100
AcDbArc
 50
0.0
 51
90.0
  0
ARC
  5
63C
100
AcDbEntity
  8
0
100
AcDbCircle
 62
7
  6
CONTINUOUS
 10
14.25
 20
14.25
 40
29.0227730246
100
AcDbArc
 50
0.0
 51
90.0
  0
ARC
  5
63D
100
AcDbEntity
  8
0
100
AcDbCircle
 62
7
  6
CONTINUOUS
 10
14.25
 20
14.25
 40
28.262860225
100
AcDbArc
 50
44.0666750998
 51
45.9333249001
  0
ARC
  5
63E
100
AcDbEntity
  8
0
100
AcDbCircle
 62
253
  6
CONTINUOUS
 10
14.25
 20
14.25
 40
27.5146779646
100
AcDbArc
 50
0.0
 51
43.7818118354
  0
ARC
  5
63F
100
AcDbEntity
  8
0
100
AcDbCircle
 62
253
  6
CONTINUOUS
 10
14.25
 20
14.25
 40
27.5146779646
100
AcDbArc
 50
46.2181881646
 51
90.0
  0
ARC
  5
640
100
AcDbEntity
  8
0
100
AcDbCircle
 62
253
  6
CONTINUOUS
 10
14.25
 20
14.25
 40
26.6618098067
100
AcDbArc
 50
0.0
 51
43.7366965733
  0
ARC
  5
641
100
AcDbEntity
  8
0
100
AcDbCircle
 62
253
  6
CONTINUOUS
 10
14.25
 20
14.25
 40
26.6618098067
100
AcDbArc
 50
46.2633034267
 51
90.0
  0
ARC
  5
642
100
AcDbEntity
  8
0
100
AcDbCircle
 62
253
  6
CONTINUOUS
 10
14.25
 20
14.25
 40
25.9975962443
100
AcDbArc
 50
0.0
 51
43.7171930306
  0
ARC
  5
643
100
AcDbEntity
  8
0
100
AcDbCircle
 62
253
  6
CONTINUOUS
 10
14.25
 20
14.25
 40
25.9975962443
100
AcDbArc
 50
46.2828069694
 51
90.0
  0
ARC
  5
644
100
AcDbEntity
  8
0
100
AcDbCircle
 62
253
  6
CONTINUOUS
 10
14.25
 20
14.25
 40
24.9369360725
100
AcDbArc
 50
46.6516407189
 51
90.0
  0
ARC
  5
645
100
AcDbEntity
  8
0
100
AcDbCircle
 62
253
  6
CONTINUOUS
 10
14.25
 20
14.25
 40
24.9369360725
100
AcDbArc
 50
0.0
 51
43.3483592811
  0
ARC
  5
646
100
AcDbEntity
  8
0
100
AcDbCircle
 62
7
  6
CONTINUOUS
 10
6.2373507245
 20
29.344428022
 40
1.7110927272
100
AcDbArc
 50
258.0000000011
 51
78.0000000009
  0
ARC
  5
647
100
AcDbEntity
  8
0
100
AcDbCircle
 62
253
  6
CONTINUOUS
 10
10.909433446
 20
22.8271232696
 40
1.6987957005
100
AcDbArc
 50
211.4946978246
 51
244.4668986905
  0
ARC
  5
648
100
AcDbEntity
  8
0
100
AcDbCircle
 62
253
  6
CONTINUOUS
 10
14.2630864079
 20
29.7032702933
 40
1.6984587013
100
AcDbArc
 50
64.3304448831
 51
96.5100460651
  0
ARC
  5
649
100
AcDbEntity
  8
0
100
AcDbCircle
 62
7
  6
CONTINUOUS
 10
6.2373507245
 20
29.344428022
 40
1.65
100
AcDbArc
 50
258.0000000015
 51
78.0000000007
  0
ARC
  5
64A
100
AcDbEntity
  8
0
100
AcDbCircle
 62
7
  6
CONTINUOUS
 10
2.0
 20
16.46
 40
1.04
100
AcDbArc
 50
294.4299396437
 51
245.5700603562
  0
ARC
  5
64B
100
AcDbEntity
  8
0
100
AcDbCircle
 62
7
  6
CONTINUOUS
 10
2.0
 20
16.46
 40
0.58
100
AcDbArc
 50
294.4299301163
 51
245.5700489636
  0
ARC
  5
64C
100
AcDbEntity
  8
0
100
AcDbCircle
 62
7
  6
CONTINUOUS
 10
2.78
 20
15.0
 40
0.26
100
AcDbArc
 50
270.0
 51
90.0
  0
ARC
  5
64D
100
AcDbEntity
  8
0
100
AcDbCircle
 62
7
  6
CONTINUOUS
 10
1.22
 20
15.0
 40
0.26
100
AcDbArc
 50
90.0
 51
270.0
  0
ARC
  5
64E
100
AcDbEntity
  8
0
100
AcDbCircle
 62
7
  6
CONTINUOUS
 10
2.335
 20
15.7225211867
 40
0.23
100
AcDbArc
 50
114.4299636676
 51
294.4299396455
  0
ARC
  5
64F
100
AcDbEntity
  8
0
100
AcDbCircle
 62
7
  6
CONTINUOUS
 10
1.665
 20
15.7225211867
 40
0.23
100
AcDbArc
 50
245.5700603542
 51
65.5700890875
  0
ARC
  5
650
100
AcDbEntity
  8
0
100
AcDbCircle
 62
7
  6
CONTINUOUS
 10
29.344428022
 20
6.2373507245
 40
3.0610927272
100
AcDbArc
 50
313.59448661
 51
245.5544854124
  0
ARC
  5
651
100
AcDbEntity
  8
0
100
AcDbCircle
 62
7
  6
CONTINUOUS
 10
29.344428022
 20
6.2373507245
 40
3.0
100
AcDbArc
 50
313.0058105257
 51
246.205840174
  0
ARC
  5
652
100
AcDbEntity
  8
0
100
AcDbCircle
 62
253
  6
CONTINUOUS
 10
22.2233336862
 20
12.0875688938
 40
1.6966266421
100
AcDbArc
 50
208.510849262
 51
299.0478294145
  0
ARC
  5
653
100
AcDbEntity
  8
0
100
AcDbCircle
 62
7
  6
CONTINUOUS
 10
24.7383917375
 20
17.3220083778
 40
2.0
100
AcDbArc
 50
163.4032368469
 51
266.596763153
  0
ARC
  5
654
100
AcDbEntity
  8
0
100
AcDbCircle
 62
253
  6
CONTINUOUS
 10
28.9179482844
 20
15.7984469014
 40
1.6966116752
100
AcDbArc
 50
298.95317214
 51
28.6971870959
  0
ELLIPSE
  5
655
100
AcDbEntity
  8
0
100
AcDbEllipse
 62
7
  6
CONTINUOUS
 10
17.8711759015
 20
-26.3071556272
 30
0.0
 11
-0.2955323274
 21
0.052110323
 31
0.0
 40
0.9996954599
 41
-0.7852561932
 42
0.7852561932
  0
ELLIPSE
  5
656
100
AcDbEntity
  8
0
100
AcDbEllipse
 62
7
  6
CONTINUOUS
 10
-24.7487373415
 20
11.0309304138
 30
0.0
 11
0.0
 21
-0.3000913899
 31
0.0
 40
0.9996954599
 41
-0.7852541422
 42
0.7852541422
  0
ELLIPSE
  5
657
100
AcDbEntity
  8
0
100
AcDbEllipse
 62
7
  6
CONTINUOUS
 10
-23.7588524752
 20
12.0208152802
 30
0.0
 11
0.3000913899
 21
0.0
 31
0.0
 40
0.9996954599
 41
-0.7852541422
 42
0.7852541424
  0
ELLIPSE
  5
658
100
AcDbEntity
  8
0
100
AcDbEllipse
 62
7
  6
CONTINUOUS
 10
-18.6083378735
 20
25.7909892575
 30
0.0
 11
-0.052110323
 21
-0.2955323274
 31
0.0
 40
0.9996954599
 41
-0.7852541423
 42
0.7852541423
  0
ELLIPSE
  5
659
100
AcDbEntity
  8
0
100
AcDbEllipse
 62
7
  6
CONTINUOUS
 10
-17.8711759015
 20
26.3071556272
 30
0.0
 11
0.2955323274
 21
-0.052110323
 31
0.0
 40
0.9996954599
 41
-0.7852541423
 42
0.7852541423
  0
ELLIPSE
  5
65A
100
AcDbEntity
  8
0
100
AcDbEllipse
 62
7
  6
CONTINUOUS
 10
18.9229645594
 20
-26.9098262262
 30
0.0
 11
-0.1642236026
 21
0.2665022884
 31
0.0
 40
0.9583497527
 41
-0.5121381259
 42
0.0561700469
  0
ELLIPSE
  5
65B
100
AcDbEntity
  8
0
100
AcDbEllipse
 62
7
  6
CONTINUOUS
 10
18.8149300807
 20
-26.9854727826
 30
0.0
 11
-0.1942624537
 21
0.2454688584
 31
0.0
 40
0.9583497527
 41
-0.0561700467
 42
0.5121381259
  0
ELLIPSE
  5
65C
100
AcDbEntity
  8
0
100
AcDbEllipse
 62
7
  6
CONTINUOUS
 10
24.7487373415
 20
-11.0309304138
 30
0.0
 11
-0.0
 21
0.3000913899
 31
0.0
 40
0.9996954599
 41
-0.7852561932
 42
0.7852561932
  0
ELLIPSE
  5
65D
100
AcDbEntity
  8
0
100
AcDbEllipse
 62
7
  6
CONTINUOUS
 10
23.7588524752
 20
-12.0208152802
 30
0.0
 11
-0.3000913899
 21
-0.0
 31
0.0
 40
0.9996954599
 41
-0.7852561932
 42
0.7852561932
  0
ELLIPSE
  5
65E
100
AcDbEntity
  8
0
100
AcDbEllipse
 62
7
  6
CONTINUOUS
 10
18.6083378735
 20
-25.7909892575
 30
0.0
 11
0.052110323
 21
0.2955323274
 31
0.0
 40
0.9996954599
 41
-0.7852561932
 42
0.7852561932
  0
ELLIPSE
  5
65F
100
AcDbEntity
  8
0
100
AcDbEllipse
 62
7
  6
CONTINUOUS
 10
-18.9229645594
 20
26.9098262262
 30
0.0
 11
-0.1642236026
 21
0.2665022884
 31
0.0
 40
0.9583497527
 41
-3.6537307795
 42
-3.0854226067
  0
ELLIPSE
  5
660
100
AcDbEntity
  8
0
100
AcDbEllipse
 62
7
  6
CONTINUOUS
 10
-18.8149300807
 20
26.9854727826
 30
0.0
 11
-0.1942624537
 21
0.2454688584
 31
0.0
 40
0.9583497527
 41
-3.1977627003
 42
-2.6294545277
  0
ENDSEC
  0
SECTION
  2
OBJECTS
  0
DICTIONARY
  5
C
100
AcDbDictionary
280
0
281
1
  3
ACAD_GROUP
350
D
  3
ACAD_MLINESTYLE
350
17
  3
ACAD_LAYOUT
350
1A
  3
ACAD_PLOTSETTINGS
350
19
  3
ACAD_PLOTSTYLENAME
350
E
  0
DICTIONARY
  5
D
102
{ACAD_REACTORS
330
C
102
}
100
AcDbDictionary
280
0
281
1
  0
ACDBDICTIONARYWDFLT
  5
E
102
{ACAD_REACTORS
330
C
102
}
100
AcDbDictionary
281
1
  3
Normal
350
F
100
AcDbDictionaryWithDefault
340
F
  0
DICTIONARY
  5
17
102
{ACAD_REACTORS
330
C
102
}
100
AcDbDictionary
280
0
281
1
  3
Standard
350
18
  0
DICTIONARY
  5
19
102
{ACAD_REACTORS
330
C
102
}
100
AcDbDictionary
281
1
  0
DICTIONARY
  5
1A
102
{ACAD_REACTORS
330
C
102
}
100
AcDbDictionary
281
1
  3
Model
350
661
  3
Layout1
350
662
  0
ACDBPLACEHOLDER
  5
F
102
{ACAD_REACTORS
330
E
102
}
  0
MLINESTYLE
  5
18
102
{ACAD_REACTORS
330
17
102
}
100
AcDbMlineStyle
  2
STANDARD
 70
0
  3

 62
256
 51
90.0
 52
90.0
 71
2
 49
0.5
 62
256
  6
BYLAYER
 49
-0.5
 62
256
  6
BYLAYER
  0
LAYOUT
  5
661
102
{ACAD_REACTORS
330
1A
102
}
100
AcDbPlotSettings
  1

  2
none_device
  4
ISO_A4_(297.00_x_210.00_MM)
  6

 40
0.0
 41
0.0
 42
0.0
 43
0.0
 44
297.0
 45
210.0
 46
0.0
 47
0.0
 48
0.0
 49
0.0
140
0.0
141
0.0
142
1.0
143
1.0
 70
1024
 72
1
 73
0
 74
0
  7

 75
0
147
1.0
148
0.0
149
0.0
100
AcDbLayout
  1
Model
 70
0
 71
0
 10
0.0
 20
0.0
 11
297.0
 21
210.0
 12
0.0
 22
0.0
 32
0.0
 14
0.0
 24
0.0
 34
0.0
 15
0.0
 25
0.0
 35
0.0
146
0.0
 13
0.0
 23
0.0
 33
0.0
 16
1.0
 26
0.0
 36
0.0
 17
0.0
 27
1.0
 37
0.0
 76
0
330
20C
345
0
346
0
  0
LAYOUT
  5
662
102
{ACAD_REACTORS
330
1A
102
}
100
AcDbPlotSettings
  1

  2
none_device
  4
ISO_A4_(297.00_x_210.00_MM)
  6

 40
0.0
 41
0.0
 42
0.0
 43
0.0
 44
297.0
 45
210.0
 46
0.0
 47
0.0
 48
0.0
 49
0.0
140
0.0
141
0.0
142
1.0
143
1.0
 70
0
 72
1
 73
0
 74
0
  7

 75
0
147
1.0
148
0.0
149
0.0
100
AcDbLayout
  1
Layout1
 70
0
 71
1
 10
0.0
 20
0.0
 11
297.0
 21
210.0
 12
0.0
 22
0.0
 32
0.0
 14
0.0
 24
0.0
 34
0.0
 15
0.0
 25
0.0
 35
0.0
146
0.0
 13
0.0
 23
0.0
 33
0.0
 16
1.0
 26
0.0
 36
0.0
 17
0.0
 27
1.0
 37
0.0
 76
0
330
20D
345
0
346
0
  0
ENDSEC
  0
EOF
