  0
SECTION
  2
HEADER
  9
$ACADVER
  1
AC1015
  9
$DWGCODEPAGE
  3
ANSI_1252
  9
$EXTMAX
 10
297.0
 20
210.0
 30
0.0
  9
$EXTMIN
 10
0.0
 20
0.0
 30
0.0
  9
$LIMMIN
 10
0.0
 20
0.0
  9
$LIMMAX
 10
297.0
 20
210.0
  9
$VIEWCTR
 10
148.5
 20
105.0
  9
$VIEWSIZE
 40
210.0
  9
$CLAYER
  8
0
  9
$LTSCALE
 40
16.335
  9
$CELTYPE
  6
BYLAYER
  9
$DIMSCALE
 40
1.0
  9
$DIMASZ
 40
3.0
  9
$DIMEXO
 40
1.85625
  9
$DIMDLI
 40
11.286
  9
$DIMEXE
 40
5.346
  9
$DIMCEN
 40
2.673
  9
$DIMLFAC
 40
1.0
  9
$DIMBLK
  1
_FILLED
  9
$DIMTXT
 40
3.0
  9
$DIMTOL
 70
1
  9
$DIMLIM
 70
0
  9
$DIMTFAC
 40
1.0
  9
$DIMTP
 40
0.01
  9
$DIMTM
 40
0.01
  9
$PDMODE
 70
3
  9
$PDSIZE
 40
3.0
  9
$HANDSEED
  5
2EC
  9
$TILEMODE
 70
1
  9
$MEASUREMENT
 70
1
  9
$INSUNITS
 70
4
  0
ENDSEC
  0
SECTION
  2
CLASSES
  0
CLASS
  1
ACDBDICTIONARYWDFLT
  2
AcDbDictionaryWithDefault
  3
AutoCAD 2000
 90
0
280
0
281
0
  0
CLASS
  1
ACDBPLACEHOLDER
  2
AcDbPlaceHolder
  3
AutoCAD 2000
 90
0
280
0
281
0
  0
CLASS
  1
LAYOUT
  2
AcDbLayout
  3
AutoCAD 2000
 90
0
280
0
281
0
  0
ENDSEC
  0
SECTION
  2
TABLES
  0
TABLE
  2
VPORT
  5
8
100
AcDbSymbolTable
 70
2
  0
VPORT
  5
1F4
100
AcDbSymbolTableRecord
100
AcDbViewportTableRecord
  2
*ACTIVE
 70
0
 10
0.0
 20
0.0
 11
1.0
 21
1.0
 12
148.5
 22
105.0
 13
0.0
 23
0.0
 14
1.0
 24
1.0
 15
0.0
 25
0.0
 16
0.0
 26
0.0
 36
1.0
 17
0.0
 27
0.0
 37
0.0
 40
210.0
 41
1.4142857143
 42
50.0
 43
0.0
 44
0.0
 50
0.0
 51
0.0
 71
0
 72
100
 73
1
 74
1
 75
0
 76
0
 77
0
 78
0
  0
ENDTAB
  0
TABLE
  2
LTYPE
  5
5
100
AcDbSymbolTable
 70
6
  0
LTYPE
  5
14
100
AcDbSymbolTableRecord
100
AcDbLinetypeTableRecord
  2
BYBLOCK
 70
0
  3

 72
65
 73
0
 40
0.0
  0
LTYPE
  5
15
100
AcDbSymbolTableRecord
100
AcDbLinetypeTableRecord
  2
BYLAYER
 70
0
  3

 72
65
 73
0
 40
0.0
  0
LTYPE
  5
16
100
AcDbSymbolTableRecord
100
AcDbLinetypeTableRecord
  2
CONTINUOUS
 70
64
  3
Solid line
 72
65
 73
0
 40
0.0
  0
LTYPE
  5
1F5
100
AcDbSymbolTableRecord
100
AcDbLinetypeTableRecord
  2
CENTER
 70
64
  3
____ _ ____ _ ____ _ ____ _ ____ _ ____ _ ____
 72
65
 73
4
 40
0.6
 49
0.375
 74
0
 49
-0.075
 74
0
 49
0.075
 74
0
 49
-0.075
 74
0
  0
LTYPE
  5
1F6
100
AcDbSymbolTableRecord
100
AcDbLinetypeTableRecord
  2
HIDDEN
 70
64
  3
- - - - - - - - - - - - - - - - - - - -
 72
65
 73
2
 40
0.2
 49
0.1
 74
0
 49
-0.1
 74
0
  0
LTYPE
  5
1F7
100
AcDbSymbolTableRecord
100
AcDbLinetypeTableRecord
  2
PHANTOM
 70
64
  3
_____ _ _ _____ _ _ _____ _ _ _____
 72
65
 73
6
 40
0.8
 49
0.45
 74
0
 49
-0.05
 74
0
 49
0.1
 74
0
 49
-0.05
 74
0
 49
0.1
 74
0
 49
-0.05
 74
0
  0
LTYPE
  5
1F8
100
AcDbSymbolTableRecord
100
AcDbLinetypeTableRecord
  2
DOT
 70
64
  3
. . . . . . . . . . . . . . . . . . . .
 72
65
 73
2
 40
0.2
 49
0.1
 74
0
 49
-0.1
 74
0
  0
LTYPE
  5
1F9
100
AcDbSymbolTableRecord
100
AcDbLinetypeTableRecord
  2
DASHED
 70
64
  3
- - - - - - - - - - - - - - - - - - - -
 72
65
 73
2
 40
0.2
 49
0.1
 74
0
 49
-0.1
 74
0
  0
ENDTAB
  0
TABLE
  2
LAYER
  5
2
100
AcDbSymbolTable
 70
36
  0
LAYER
  5
10
100
AcDbSymbolTableRecord
100
AcDbLayerTableRecord
  2
0
 70
0
 62
7
  6
CONTINUOUS
370
-3
390
F
  0
LAYER
  5
1FA
100
AcDbSymbolTableRecord
100
AcDbLayerTableRecord
  2
DEFAULT_1
 70
0
 62
7
  6
CENTER
370
-3
390
F
  0
LAYER
  5
1FB
100
AcDbSymbolTableRecord
100
AcDbLayerTableRecord
  2
DEFAULT_2
 70
0
 62
7
  6
HIDDEN
370
-3
390
F
  0
LAYER
  5
1FC
100
AcDbSymbolTableRecord
100
AcDbLayerTableRecord
  2
DEFAULT_3
 70
0
 62
7
  6
PHANTOM
370
-3
390
F
  0
LAYER
  5
1FD
100
AcDbSymbolTableRecord
100
AcDbLayerTableRecord
  2
ASSI
 70
0
 62
7
  6
CONTINUOUS
370
-3
390
F
  0
LAYER
  5
1FE
100
AcDbSymbolTableRecord
100
AcDbLayerTableRecord
  2
COORDINATE
 70
0
 62
7
  6
CONTINUOUS
370
-3
390
F
  0
LAYER
  5
1FF
100
AcDbSymbolTableRecord
100
AcDbLayerTableRecord
  2
COPY_PUBLISH
 70
0
 62
7
  6
CONTINUOUS
370
-3
390
F
  0
LAYER
  5
200
100
AcDbSymbolTableRecord
100
AcDbLayerTableRecord
  2
COSMETIC
 70
0
 62
7
  6
CONTINUOUS
370
-3
390
F
  0
LAYER
  5
201
100
AcDbSymbolTableRecord
100
AcDbLayerTableRecord
  2
CURVE
 70
0
 62
7
  6
CONTINUOUS
370
-3
390
F
  0
LAYER
  5
202
100
AcDbSymbolTableRecord
100
AcDbLayerTableRecord
  2
IMPORT_IGES
 70
0
 62
7
  6
CONTINUOUS
370
-3
390
F
  0
LAYER
  5
203
100
AcDbSymbolTableRecord
100
AcDbLayerTableRecord
  2
INTFCLR_3
 70
0
 62
7
  6
CONTINUOUS
370
-3
390
F
  0
LAYER
  5
204
100
AcDbSymbolTableRecord
100
AcDbLayerTableRecord
  2
INTF_BLUE
 70
0
 62
7
  6
CONTINUOUS
370
-3
390
F
  0
LAYER
  5
205
100
AcDbSymbolTableRecord
100
AcDbLayerTableRecord
  2
INTF_YELLOW
 70
0
 62
7
  6
CONTINUOUS
370
-3
390
F
  0
LAYER
  5
206
100
AcDbSymbolTableRecord
100
AcDbLayerTableRecord
  2
PIANI
 70
0
 62
7
  6
CONTINUOUS
370
-3
390
F
  0
LAYER
  5
207
100
AcDbSymbolTableRecord
100
AcDbLayerTableRecord
  2
RACCORDO
 70
0
 62
7
  6
CONTINUOUS
370
-3
390
F
  0
LAYER
  5
208
100
AcDbSymbolTableRecord
100
AcDbLayerTableRecord
  2
SNAPLINE
 70
0
 62
7
  6
CONTINUOUS
370
-3
390
F
  0
LAYER
  5
209
100
AcDbSymbolTableRecord
100
AcDbLayerTableRecord
  2
TRASH
 70
0
 62
7
  6
CONTINUOUS
370
-3
390
F
  0
ENDTAB
  0
TABLE
  2
STYLE
  5
3
100
AcDbSymbolTable
 70
1
  0
STYLE
  5
11
100
AcDbSymbolTableRecord
100
AcDbTextStyleTableRecord
  2
STANDARD
 70
0
 40
0.0
 41
0.8
 50
0.0
 71
0
 42
0.2
  3
txt
  4

  0
STYLE
  5
20A
100
AcDbSymbolTableRecord
100
AcDbTextStyleTableRecord
  2
TEXTSTYLE_1
 70
0
 40
0.0
 41
0.8
 50
0.0
 71
0
 42
0.2
  3
gdt
  4

  0
ENDTAB
  0
TABLE
  2
VIEW
  5
6
100
AcDbSymbolTable
 70
0
  0
ENDTAB
  0
TABLE
  2
UCS
  5
7
100
AcDbSymbolTable
 70
0
  0
ENDTAB
  0
TABLE
  2
APPID
  5
9
100
AcDbSymbolTable
 70
1
  0
APPID
  5
20B
100
AcDbSymbolTableRecord
100
AcDbRegAppTableRecord
  2
ACAD
 70
0
  0
ENDTAB
  0
TABLE
  2
BLOCK_RECORD
  5
1
100
AcDbSymbolTable
 70
0
  0
BLOCK_RECORD
  5
20C
100
AcDbSymbolTableRecord
100
AcDbBlockTableRecord
  2
*Model_Space
  0
BLOCK_RECORD
  5
20D
100
AcDbSymbolTableRecord
100
AcDbBlockTableRecord
  2
*Paper_Space
  0
BLOCK_RECORD
  5
20E
100
AcDbSymbolTableRecord
100
AcDbBlockTableRecord
  2
_FILLED
  0
BLOCK_RECORD
  5
20F
100
AcDbSymbolTableRecord
100
AcDbBlockTableRecord
  2
*D0
  0
BLOCK_RECORD
  5
210
100
AcDbSymbolTableRecord
100
AcDbBlockTableRecord
  2
*D1
  0
BLOCK_RECORD
  5
211
100
AcDbSymbolTableRecord
100
AcDbBlockTableRecord
  2
*D2
  0
ENDTAB
  0
TABLE
  2
DIMSTYLE
  5
A
100
AcDbSymbolTable
 70
1
100
AcDbDimStyleTable
 71
0
  0
DIMSTYLE
105
212
100
AcDbSymbolTableRecord
100
AcDbDimStyleTableRecord
  2
STANDARD
 70
0
  3

  4

 40
1.0
 41
3.0
 42
0.0625
 43
0.38
 44
0.18
 45
0.0
 46
0.0
 47
0.01
 48
0.01
140
3.0
141
0.09
142
0.0
143
25.4
144
1.0
145
0.0
146
1.0
147
0.09
 71
1.0
 72
0.0
 73
0
 74
0
 75
0
 76
0
 77
1
 78
8
170
0
171
2
172
0
173
0
174
0
175
0
176
0
177
0
178
0
270
2
271
2
272
2
273
2
274
2
275
0
280
0
281
0
282
0
283
1
284
8
285
0
286
0
287
3
288
0
340
11
341
20E
342
20E
343
20E
344
20E
  0
DIMSTYLE
105
213
100
AcDbSymbolTableRecord
100
AcDbDimStyleTableRecord
  2
DIMSTYLE_1
 70
0
  3

  4

 40
1.0
 41
3.0
 42
0.0625
 43
0.38
 44
0.18
 45
0.0
 46
0.0
 47
0.0
 48
0.0
140
3.0
141
0.09
142
0.0
143
25.4
144
1.0
145
0.0
146
1.0
147
0.09
 71
0.0
 72
0.0
 73
0
 74
0
 75
0
 76
0
 77
1
 78
8
170
0
171
2
172
0
173
0
174
0
175
0
176
0
177
0
178
0
270
2
271
2
272
2
273
2
274
2
275
0
280
0
281
0
282
0
283
1
284
8
285
0
286
0
287
3
288
0
340
11
341
20E
342
20E
343
20E
344
20E
  0
DIMSTYLE
105
214
100
AcDbSymbolTableRecord
100
AcDbDimStyleTableRecord
  2
DIMSTYLE_2
 70
0
  3

  4

 40
1.0
 41
3.0
 42
0.0625
 43
0.38
 44
0.18
 45
0.0
 46
0.0
 47
0.0
 48
0.0
140
3.0
141
0.09
142
0.0
143
25.4
144
1.0
145
0.0
146
1.0
147
0.09
 71
0.0
 72
0.0
 73
1
 74
1
 75
0
 76
0
 77
1
 78
8
170
0
171
2
172
0
173
0
174
0
175
0
176
0
177
0
178
0
270
2
271
2
272
2
273
2
274
2
275
0
280
0
281
0
282
0
283
1
284
8
285
0
286
0
287
3
288
0
340
11
341
20E
342
20E
343
20E
344
20E
  0
ENDTAB
  0
ENDSEC
  0
SECTION
  2
BLOCKS
  0
BLOCK
  5
20
100
AcDbEntity
  8
0
100
AcDbBlockBegin
  2
*Model_Space
 70
0
 10
0.0
 20
0.0
 30
0.0
  3
*Model_Space
  1

  0
ENDBLK
  5
21
100
AcDbEntity
  8
0
100
AcDbBlockEnd
  0
BLOCK
  5
1C
100
AcDbEntity
  8
0
100
AcDbBlockBegin
  2
*Paper_Space
 70
0
 10
0.0
 20
0.0
 30
0.0
  3
*Paper_Space
  1

  0
ENDBLK
  5
1D
100
AcDbEntity
  8
0
100
AcDbBlockEnd
  0
BLOCK
  5
215
100
AcDbEntity
  8
0
100
AcDbBlockBegin
  2
_FILLED
 70
64
 10
0.0
 20
0.0
  3
_FILLED
  1

  0
SOLID
  5
216
100
AcDbEntity
  8
0
  6
BYBLOCK
 62
0
100
AcDbTrace
 10
0.0
 20
0.0
 11
-1.0
 21
0.3166666667
 12
-1.0
 22
-0.3166666667
 13
-1.0
 23
-0.3166666667
  0
ENDBLK
  5
217
100
AcDbEntity
  8
0
  6
BYBLOCK
 62
0
100
AcDbBlockEnd
  0
BLOCK
  5
218
100
AcDbEntity
  8
0
100
AcDbBlockBegin
 62
7
  6
CONTINUOUS
  2
*D0
 70
65
 10
0.0
 20
0.0
  3
*D0
  1

  0
MTEXT
  5
219
100
AcDbEntity
  8
0
100
AcDbMText
 62
7
  6
CONTINUOUS
  7
STANDARD
 71
2
 72
1
 10
0.0
 20
38.9061850312
 30
0.0
 11
1.0
 21
0.0
 31
0.0
 44
0.9
  1
52,25
 40
3.0
 41
10.7142857143
  0
LINE
  5
21A
100
AcDbEntity
  8
0
100
AcDbLine
 62
7
  6
CONTINUOUS
 10
26.125
 20
7.8284447908
 11
26.125
 21
36.6561850312
  0
LINE
  5
21B
100
AcDbEntity
  8
0
100
AcDbLine
 62
7
  6
CONTINUOUS
 10
-26.125
 20
7.8284447908
 11
-26.125
 21
36.6561850312
  0
LINE
  5
21C
100
AcDbEntity
  8
0
100
AcDbLine
 62
7
  6
CONTINUOUS
 10
26.125
 20
35.1561850312
 11
0.0
 21
35.1561850312
  0
LINE
  5
21D
100
AcDbEntity
  8
0
100
AcDbLine
 62
7
  6
CONTINUOUS
 10
-26.125
 20
35.1561850312
 11
0.0
 21
35.1561850312
  0
INSERT
  5
21E
100
AcDbEntity
  8
0
100
AcDbBlockReference
 62
7
  6
CONTINUOUS
  2
_FILLED
 10
26.125
 20
35.1561850312
 41
3.0
 42
3.0
 43
3.0
  0
INSERT
  5
21F
100
AcDbEntity
  8
0
100
AcDbBlockReference
 62
7
  6
CONTINUOUS
  2
_FILLED
 10
-26.125
 20
35.1561850312
 41
3.0
 42
3.0
 43
3.0
 50
180.0
  0
ENDBLK
  5
220
100
AcDbEntity
  8
0
  6
BYBLOCK
 62
0
100
AcDbBlockEnd
  0
BLOCK
  5
221
100
AcDbEntity
  8
0
100
AcDbBlockBegin
 62
7
  6
CONTINUOUS
  2
*D1
 70
65
 10
0.0
 20
0.0
  3
*D1
  1

  0
MTEXT
  5
222
100
AcDbEntity
  8
0
100
AcDbMText
 62
7
  6
CONTINUOUS
  7
TEXTSTYLE_1
 71
1
 72
1
 10
29.2947097437
 20
28.2061070959
 30
0.0
 11
1.0
 21
0.0
 31
0.0
 44
0.9
  1
{\Fgdt;n}\Ftxt;54,25
 40
3.0
 41
14.7142857143
  0
LINE
  5
223
100
AcDbEntity
  8
0
100
AcDbLine
 62
7
  6
CONTINUOUS
 10
20.5329223826
 20
17.755877509
 11
0.0
 21
0.0311850312
  0
LINE
  5
224
100
AcDbEntity
  8
0
100
AcDbLine
 62
7
  6
CONTINUOUS
 10
0.0
 20
0.0311850312
 11
28.2947097437
 21
24.4561070959
  0
LINE
  5
225
100
AcDbEntity
  8
0
100
AcDbLine
 62
7
  6
CONTINUOUS
 10
28.2947097437
 20
24.4561070959
 11
45.508995458
 21
24.4561070959
  0
LINE
  5
226
100
AcDbEntity
  8
0
100
AcDbLine
 62
7
  6
CONTINUOUS
 10
45.508995458
 20
24.4561070959
 11
28.2947097437
 21
24.4561070959
  0
LINE
  5
227
100
AcDbEntity
  8
0
100
AcDbLine
 62
7
  6
CONTINUOUS
 10
-20.5329223826
 20
-17.6935074466
 11
0.0
 21
0.0311850312
  0
INSERT
  5
228
100
AcDbEntity
  8
0
100
AcDbBlockReference
 62
7
  6
CONTINUOUS
  2
_FILLED
 10
20.5329223826
 20
17.755877509
 41
3.0
 42
3.0
 43
3.0
 50
40.8018377396
  0
INSERT
  5
229
100
AcDbEntity
  8
0
100
AcDbBlockReference
 62
7
  6
CONTINUOUS
  2
_FILLED
 10
-20.5329223826
 20
-17.6935074466
 41
3.0
 42
3.0
 43
3.0
 50
220.8018377396
  0
ENDBLK
  5
22A
100
AcDbEntity
  8
0
  6
BYBLOCK
 62
0
100
AcDbBlockEnd
  0
BLOCK
  5
22B
100
AcDbEntity
  8
0
100
AcDbBlockBegin
 62
7
  6
CONTINUOUS
  2
*D2
 70
65
 10
0.0
 20
0.0
  3
*D2
  1

  0
MTEXT
  5
22C
100
AcDbEntity
  8
0
100
AcDbMText
 62
7
  6
CONTINUOUS
  7
STANDARD
 71
2
 72
1
 10
-60.2027027027
 20
38.9061850312
 30
0.0
 11
1.0
 21
0.0
 31
0.0
 44
0.9
  1
19,25
 40
3.0
 41
10.2857142857
  0
LINE
  5
22D
100
AcDbEntity
  8
0
100
AcDbLine
 62
7
  6
CONTINUOUS
 10
-50.5777027027
 20
27.1561850312
 11
-50.5777027027
 21
36.6561850312
  0
LINE
  5
22E
100
AcDbEntity
  8
0
100
AcDbLine
 62
7
  6
CONTINUOUS
 10
-69.8277027027
 20
27.1561850312
 11
-69.8277027027
 21
36.6561850312
  0
LINE
  5
22F
100
AcDbEntity
  8
0
100
AcDbLine
 62
7
  6
CONTINUOUS
 10
-50.5777027027
 20
35.1561850312
 11
-60.2027027027
 21
35.1561850312
  0
LINE
  5
230
100
AcDbEntity
  8
0
100
AcDbLine
 62
7
  6
CONTINUOUS
 10
-69.8277027027
 20
35.1561850312
 11
-60.2027027027
 21
35.1561850312
  0
INSERT
  5
231
100
AcDbEntity
  8
0
100
AcDbBlockReference
 62
7
  6
CONTINUOUS
  2
_FILLED
 10
-50.5777027027
 20
35.1561850312
 41
3.0
 42
3.0
 43
3.0
  0
INSERT
  5
232
100
AcDbEntity
  8
0
100
AcDbBlockReference
 62
7
  6
CONTINUOUS
  2
_FILLED
 10
-69.8277027027
 20
35.1561850312
 41
3.0
 42
3.0
 43
3.0
 50
180.0
  0
ENDBLK
  5
233
100
AcDbEntity
  8
0
  6
BYBLOCK
 62
0
100
AcDbBlockEnd
  0
ENDSEC
  0
SECTION
  2
ENTITIES
  0
DIMENSION
  5
234
100
AcDbEntity
  8
0
100
AcDbDimension
 62
7
  6
CONTINUOUS
  2
*D0
 10
-26.125
 20
35.1561850312
 11
-5.3571428571
 21
37.4061850312
 70
160
 71
2
 42
52.25
  3
DIMSTYLE_1
100
AcDbAlignedDimension
 13
26.125
 23
7.8284447908
 14
-26.125
 24
7.8284447908
 50
180.0
100
AcDbRotatedDimension
  0
DIMENSION
  5
235
100
AcDbEntity
  8
0
100
AcDbDimension
 62
7
  6
CONTINUOUS
  2
*D1
 10
20.5329223826
 20
17.755877509
 11
36.6518526009
 21
26.7061070959
 70
163
 71
1
 42
54.25
  1
<>
  3
DIMSTYLE_2
100
AcDbDiametricDimension
 15
-20.5329223826
 25
-17.6935074466
  0
DIMENSION
  5
236
100
AcDbEntity
  8
0
100
AcDbDimension
 62
7
  6
CONTINUOUS
  2
*D2
 10
-69.8277027027
 20
35.1561850312
 11
-65.3455598456
 21
37.4061850312
 70
160
 71
2
 42
19.25
  3
DIMSTYLE_1
100
AcDbAlignedDimension
 13
-50.5777027027
 23
27.1561850312
 14
-69.8277027027
 24
27.1561850312
 50
180.0
100
AcDbRotatedDimension
  0
LINE
  5
237
100
AcDbEntity
  8
RACCORDO
100
AcDbLine
 62
7
  6
CONTINUOUS
 10
-26.125
 20
7.3284447908
 11
-26.125
 21
2.5311850312
  0
LINE
  5
238
100
AcDbEntity
  8
RACCORDO
100
AcDbLine
 62
7
  6
CONTINUOUS
 10
-26.125
 20
1.0311850312
 11
-26.125
 21
-2.9688149688
  0
LINE
  5
239
100
AcDbEntity
  8
RACCORDO
100
AcDbLine
 62
7
  6
CONTINUOUS
 10
-26.125
 20
-4.4688149688
 11
-26.125
 21
-7.2660747285
  0
LINE
  5
23A
100
AcDbEntity
  8
0
100
AcDbLine
 62
7
  6
CONTINUOUS
 10
-26.125
 20
-4.4688149688
 11
-26.125
 21
-2.9688149688
  0
LINE
  5
23B
100
AcDbEntity
  8
0
100
AcDbLine
 62
7
  6
CONTINUOUS
 10
-26.125
 20
1.0311850312
 11
-26.125
 21
2.5311850312
  0
LINE
  5
23C
100
AcDbEntity
  8
RACCORDO
100
AcDbLine
 62
253
  6
CONTINUOUS
 10
-25.625
 20
7.2596011786
 11
-25.625
 21
2.5311850312
  0
LINE
  5
23D
100
AcDbEntity
  8
RACCORDO
100
AcDbLine
 62
253
  6
CONTINUOUS
 10
-25.625
 20
1.0311850312
 11
-25.625
 21
-2.9688149688
  0
LINE
  5
23E
100
AcDbEntity
  8
RACCORDO
100
AcDbLine
 62
253
  6
CONTINUOUS
 10
-25.625
 20
-4.4688149688
 11
-25.625
 21
-7.1972311162
  0
LINE
  5
23F
100
AcDbEntity
  8
0
100
AcDbLine
 62
7
  6
CONTINUOUS
 10
-24.0
 20
6.0311850312
 11
-24.0
 21
2.5311850312
  0
LINE
  5
240
100
AcDbEntity
  8
0
100
AcDbLine
 62
7
  6
CONTINUOUS
 10
-24.0
 20
1.0311850312
 11
-24.0
 21
-2.9688149688
  0
LINE
  5
241
100
AcDbEntity
  8
0
100
AcDbLine
 62
7
  6
CONTINUOUS
 10
-24.0
 20
-4.4688149688
 11
-24.0
 21
-5.9688149688
  0
LINE
  5
242
100
AcDbEntity
  8
0
100
AcDbLine
 62
7
  6
CONTINUOUS
 10
-23.75
 20
5.7811850312
 11
-23.75
 21
0.2811850312
  0
LINE
  5
243
100
AcDbEntity
  8
0
100
AcDbLine
 62
7
  6
CONTINUOUS
 10
-23.75
 20
-0.2188149688
 11
-23.75
 21
-5.7188149688
  0
LINE
  5
244
100
AcDbEntity
  8
ASSI
100
AcDbLine
 62
7
  6
CONTINUOUS
 10
-19.125
 20
15.0311850312
 11
-19.125
 21
10.0311850312
  0
LINE
  5
245
100
AcDbEntity
  8
ASSI
100
AcDbLine
 62
7
  6
CONTINUOUS
 10
-13.875
 20
10.0311850312
 11
-13.875
 21
15.0311850312
  0
LINE
  5
246
100
AcDbEntity
  8
0
100
AcDbLine
 62
7
  6
CONTINUOUS
 10
-12.25
 20
-5.7188149688
 11
-12.25
 21
-0.2188149688
  0
LINE
  5
247
100
AcDbEntity
  8
0
100
AcDbLine
 62
7
  6
CONTINUOUS
 10
-12.25
 20
0.2811850312
 11
-12.25
 21
5.7811850312
  0
LINE
  5
248
100
AcDbEntity
  8
0
100
AcDbLine
 62
7
  6
CONTINUOUS
 10
-12.0
 20
-5.9688149688
 11
-12.0
 21
6.0311850312
  0
LINE
  5
249
100
AcDbEntity
  8
0
100
AcDbLine
 62
253
  6
CONTINUOUS
 10
-7.6625049019
 20
15.6218657104
 11
-7.1050880846
 21
17.5731690805
  0
LINE
  5
24A
100
AcDbEntity
  8
0
100
AcDbLine
 62
253
  6
CONTINUOUS
 10
-6.5139093093
 20
17.5731690805
 11
-7.4261711957
 21
14.7378536257
  0
LINE
  5
24B
100
AcDbEntity
  8
0
100
AcDbLine
 62
253
  6
CONTINUOUS
 10
-8.5751112979
 20
-4.145760715
 11
-8.5751112979
 21
2.8539889096
  0
LINE
  5
24C
100
AcDbEntity
  8
0
100
AcDbLine
 62
253
  6
CONTINUOUS
 10
-7.6931662719
 20
2.1132928916
 11
-7.6931662719
 21
0.602273015
  0
LINE
  5
24D
100
AcDbEntity
  8
0
100
AcDbLine
 62
253
  6
CONTINUOUS
 10
-7.440985116
 20
0.602273015
 11
-7.440985116
 21
1.7129725321
  0
LINE
  5
24E
100
AcDbEntity
  8
0
100
AcDbLine
 62
253
  6
CONTINUOUS
 10
-3.9197506976
 20
15.9980703855
 11
-3.3278829028
 21
17.5731690805
  0
LINE
  5
24F
100
AcDbEntity
  8
0
100
AcDbLine
 62
253
  6
CONTINUOUS
 10
-3.1776766405
 20
16.5816699457
 11
-3.8804765832
 21
14.7378536257
  0
LINE
  5
250
100
AcDbEntity
  8
0
100
AcDbLine
 62
253
  6
CONTINUOUS
 10
-6.7188926259
 20
2.1132928916
 11
-6.7188926259
 21
0.9998372962
  0
LINE
  5
251
100
AcDbEntity
  8
0
100
AcDbLine
 62
253
  6
CONTINUOUS
 10
-6.4674004896
 20
0.602273015
 11
-6.4674004896
 21
2.1132928916
  0
LINE
  5
252
100
AcDbEntity
  8
0
100
AcDbLine
 62
253
  6
CONTINUOUS
 10
-6.2941120724
 20
14.7378536257
 11
-6.2941120724
 21
17.5731690805
  0
LINE
  5
253
100
AcDbEntity
  8
0
100
AcDbLine
 62
253
  6
CONTINUOUS
 10
-5.7022442776
 20
17.5731690805
 11
-5.7022442776
 21
14.7378536257
  0
LINE
  5
254
100
AcDbEntity
  8
0
100
AcDbLine
 62
253
  6
CONTINUOUS
 10
-4.9136614008
 20
0.8875271093
 11
-4.9136614008
 21
0.602273015
  0
LINE
  5
255
100
AcDbEntity
  8
0
100
AcDbLine
 62
253
  6
CONTINUOUS
 10
-4.6583796569
 20
16.5892491608
 11
-4.7865372935
 21
14.7378536257
  0
LINE
  5
256
100
AcDbEntity
  8
0
100
AcDbLine
 62
253
  6
CONTINUOUS
 10
-5.3529113649
 20
14.7378536257
 11
-5.0972851113
 21
17.5731690805
  0
LINE
  5
257
100
AcDbEntity
  8
0
100
AcDbLine
 62
253
  6
CONTINUOUS
 10
-1.1698736672
 20
16.7938879676
 11
-1.4647740353
 21
15.7410660928
  0
LINE
  5
258
100
AcDbEntity
  8
0
100
AcDbLine
 62
253
  6
CONTINUOUS
 10
-1.5853524568
 20
15.3035386775
 11
-1.7500281296
 21
14.7378536257
  0
LINE
  5
259
100
AcDbEntity
  8
0
100
AcDbLine
 62
253
  6
CONTINUOUS
 10
-2.3350057289
 20
14.7378536257
 11
-1.4454814878
 21
17.5731690805
  0
LINE
  5
25A
100
AcDbEntity
  8
0
100
AcDbLine
 62
7
  6
CONTINUOUS
 10
-24.0
 20
-5.9688149688
 11
-12.0
 21
-5.9688149688
  0
LINE
  5
25B
100
AcDbEntity
  8
0
100
AcDbLine
 62
7
  6
CONTINUOUS
 10
-23.75
 20
-5.7188149688
 11
-12.25
 21
-5.7188149688
  0
LINE
  5
25C
100
AcDbEntity
  8
0
100
AcDbLine
 62
253
  6
CONTINUOUS
 10
-7.43478394
 20
1.7129725321
 11
-6.746453408
 21
0.602273015
  0
LINE
  5
25D
100
AcDbEntity
  8
0
100
AcDbLine
 62
253
  6
CONTINUOUS
 10
-6.7237157628
 20
0.9998372962
 11
-7.4134243339
 21
2.1132928916
  0
LINE
  5
25E
100
AcDbEntity
  8
0
100
AcDbLine
 62
253
  6
CONTINUOUS
 10
-4.6194500522
 20
0.602273015
 11
-4.6194500522
 21
0.8875271093
  0
LINE
  5
25F
100
AcDbEntity
  8
RACCORDO
100
AcDbLine
 62
7
  6
CONTINUOUS
 10
-26.125
 20
-4.4688149688
 11
-24.0
 21
-4.4688149688
  0
LINE
  5
260
100
AcDbEntity
  8
0
100
AcDbLine
 62
253
  6
CONTINUOUS
 10
13.4252829844
 20
-4.145760715
 11
-8.5751112979
 21
-4.145760715
  0
LINE
  5
261
100
AcDbEntity
  8
RACCORDO
100
AcDbLine
 62
7
  6
CONTINUOUS
 10
-24.0
 20
-2.9688149688
 11
-26.125
 21
-2.9688149688
  0
LINE
  5
262
100
AcDbEntity
  8
0
100
AcDbLine
 62
253
  6
CONTINUOUS
 10
-7.9477589962
 20
14.7378536257
 11
-8.8462404915
 21
17.5731690805
  0
LINE
  5
263
100
AcDbEntity
  8
0
100
AcDbLine
 62
253
  6
CONTINUOUS
 10
-8.2026962303
 20
17.5731690805
 11
-7.6625049019
 21
15.6218657104
  0
LINE
  5
264
100
AcDbEntity
  8
0
100
AcDbLine
 62
253
  6
CONTINUOUS
 10
-2.7422162839
 20
17.5731690805
 11
-2.476254737
 21
14.7378536257
  0
LINE
  5
265
100
AcDbEntity
  8
0
100
AcDbLine
 62
253
  6
CONTINUOUS
 10
-3.0557201799
 20
14.7378536257
 11
-3.1776766405
 21
16.5816699457
  0
LINE
  5
266
100
AcDbEntity
  8
0
100
AcDbLine
 62
253
  6
CONTINUOUS
 10
0.1688913215
 20
14.7378536257
 11
0.1688913215
 21
17.5394071224
  0
LINE
  5
267
100
AcDbEntity
  8
0
100
AcDbLine
 62
7
  6
CONTINUOUS
 10
-12.25
 20
-0.2188149688
 11
-23.75
 21
-0.2188149688
  0
LINE
  5
268
100
AcDbEntity
  8
0
100
AcDbLine
 62
7
  6
CONTINUOUS
 10
-23.75
 20
0.2811850312
 11
-12.25
 21
0.2811850312
  0
LINE
  5
269
100
AcDbEntity
  8
0
100
AcDbLine
 62
253
  6
CONTINUOUS
 10
0.7387104907
 20
17.0901663748
 11
0.7387104907
 21
16.3115742815
  0
LINE
  5
26A
100
AcDbEntity
  8
0
100
AcDbLine
 62
253
  6
CONTINUOUS
 10
0.7586920577
 20
15.8471751037
 11
0.7586920577
 21
14.7378536257
  0
LINE
  5
26B
100
AcDbEntity
  8
0
100
AcDbLine
 62
253
  6
CONTINUOUS
 10
-7.6931662719
 20
0.602273015
 11
-7.440985116
 21
0.602273015
  0
LINE
  5
26C
100
AcDbEntity
  8
0
100
AcDbLine
 62
253
  6
CONTINUOUS
 10
-6.746453408
 20
0.602273015
 11
-6.4674004896
 21
0.602273015
  0
LINE
  5
26D
100
AcDbEntity
  8
0
100
AcDbLine
 62
253
  6
CONTINUOUS
 10
-4.9136614008
 20
0.602273015
 11
-4.6194500522
 21
0.602273015
  0
LINE
  5
26E
100
AcDbEntity
  8
0
100
AcDbLine
 62
253
  6
CONTINUOUS
 10
-4.6194500522
 20
0.8875271093
 11
-4.9136614008
 21
0.8875271093
  0
LINE
  5
26F
100
AcDbEntity
  8
0
100
AcDbLine
 62
253
  6
CONTINUOUS
 10
-6.7188926259
 20
0.9998372962
 11
-6.7237157628
 21
0.9998372962
  0
LINE
  5
270
100
AcDbEntity
  8
RACCORDO
100
AcDbLine
 62
7
  6
CONTINUOUS
 10
-26.125
 20
1.0311850312
 11
-24.0
 21
1.0311850312
  0
LINE
  5
271
100
AcDbEntity
  8
0
100
AcDbLine
 62
253
  6
CONTINUOUS
 10
-7.440985116
 20
1.7129725321
 11
-7.43478394
 21
1.7129725321
  0
LINE
  5
272
100
AcDbEntity
  8
0
100
AcDbLine
 62
253
  6
CONTINUOUS
 10
-6.4674004896
 20
2.1132928916
 11
-6.7188926259
 21
2.1132928916
  0
LINE
  5
273
100
AcDbEntity
  8
0
100
AcDbLine
 62
253
  6
CONTINUOUS
 10
-7.4134243339
 20
2.1132928916
 11
-7.6931662719
 21
2.1132928916
  0
LINE
  5
274
100
AcDbEntity
  8
RACCORDO
100
AcDbLine
 62
7
  6
CONTINUOUS
 10
-24.0
 20
2.5311850312
 11
-26.125
 21
2.5311850312
  0
LINE
  5
275
100
AcDbEntity
  8
0
100
AcDbLine
 62
253
  6
CONTINUOUS
 10
-8.5751112979
 20
2.8539889096
 11
13.4252829844
 21
2.8539889096
  0
LINE
  5
276
100
AcDbEntity
  8
0
100
AcDbLine
 62
253
  6
CONTINUOUS
 10
-3.9645369685
 20
14.7378536257
 11
-4.6583796569
 21
16.5892491608
  0
LINE
  5
277
100
AcDbEntity
  8
0
100
AcDbLine
 62
253
  6
CONTINUOUS
 10
-4.5047282969
 20
17.5731690805
 11
-3.9197506976
 21
15.9980703855
  0
LINE
  5
278
100
AcDbEntity
  8
0
100
AcDbLine
 62
253
  6
CONTINUOUS
 10
3.743869265
 20
8.8351953821
 11
3.743869265
 21
18.7889440793
  0
LINE
  5
279
100
AcDbEntity
  8
0
100
AcDbLine
 62
253
  6
CONTINUOUS
 10
4.4439131294
 20
18.7889440793
 11
4.4439131294
 21
8.8351953821
  0
LINE
  5
27A
100
AcDbEntity
  8
0
100
AcDbLine
 62
253
  6
CONTINUOUS
 10
-0.8729062405
 20
17.5731690805
 11
-0.0019855272
 21
14.7378536257
  0
LINE
  5
27B
100
AcDbEntity
  8
0
100
AcDbLine
 62
253
  6
CONTINUOUS
 10
-0.626237241
 20
14.7378536257
 11
-0.779888601
 21
15.3035386775
  0
LINE
  5
27C
100
AcDbEntity
  8
0
100
AcDbLine
 62
253
  6
CONTINUOUS
 10
-0.8983999639
 20
15.7410660928
 11
-1.1698736672
 21
16.7938879676
  0
LINE
  5
27D
100
AcDbEntity
  8
0
100
AcDbLine
 62
253
  6
CONTINUOUS
 10
10.214451874
 20
16.4912361296
 11
10.1462389384
 21
16.1052129258
  0
LINE
  5
27E
100
AcDbEntity
  8
0
100
AcDbLine
 62
253
  6
CONTINUOUS
 10
9.6611691741
 20
15.716089134
 11
9.8844115088
 21
16.8989634492
  0
LINE
  5
27F
100
AcDbEntity
  8
0
100
AcDbLine
 62
7
  6
CONTINUOUS
 10
-12.25
 20
5.7811850312
 11
-23.75
 21
5.7811850312
  0
LINE
  5
280
100
AcDbEntity
  8
0
100
AcDbLine
 62
7
  6
CONTINUOUS
 10
-12.0
 20
6.0311850312
 11
-24.0
 21
6.0311850312
  0
LINE
  5
281
100
AcDbEntity
  8
0
100
AcDbLine
 62
253
  6
CONTINUOUS
 10
7.9527451959
 20
15.9687870546
 11
7.9527451959
 21
16.3641120223
  0
LINE
  5
282
100
AcDbEntity
  8
0
100
AcDbLine
 62
253
  6
CONTINUOUS
 10
8.5153296598
 20
14.6572383381
 11
8.5153296598
 21
16.2989996747
  0
LINE
  5
283
100
AcDbEntity
  8
0
100
AcDbLine
 62
253
  6
CONTINUOUS
 10
8.9511345261
 20
16.939271093
 11
8.9511345261
 21
14.6572383381
  0
LINE
  5
284
100
AcDbEntity
  8
0
100
AcDbLine
 62
253
  6
CONTINUOUS
 10
11.9121960491
 20
15.6819826662
 11
11.9604274177
 21
16.0369999902
  0
LINE
  5
285
100
AcDbEntity
  8
0
100
AcDbLine
 62
253
  6
CONTINUOUS
 10
4.4439131294
 20
8.8351953821
 11
3.743869265
 21
8.8351953821
  0
LINE
  5
286
100
AcDbEntity
  8
0
100
AcDbLine
 62
253
  6
CONTINUOUS
 10
11.036452199
 20
16.8989634492
 11
11.036452199
 21
16.4912361296
  0
LINE
  5
287
100
AcDbEntity
  8
0
100
AcDbLine
 62
253
  6
CONTINUOUS
 10
13.4252829844
 20
2.8539889096
 11
13.4252829844
 21
-4.145760715
  0
LINE
  5
288
100
AcDbEntity
  8
0
100
AcDbLine
 62
253
  6
CONTINUOUS
 10
11.3527121732
 20
15.2603027007
 11
11.7743921388
 21
15.3114624024
  0
LINE
  5
289
100
AcDbEntity
  8
0
100
AcDbLine
 62
253
  6
CONTINUOUS
 10
9.6084591784
 20
15.2416991728
 11
10.0425414959
 21
15.2866576985
  0
LINE
  5
28A
100
AcDbEntity
  8
0
100
AcDbLine
 62
253
  6
CONTINUOUS
 10
8.9511345261
 20
14.6572383381
 11
8.5153296598
 21
14.6572383381
  0
LINE
  5
28B
100
AcDbEntity
  8
0
100
AcDbLine
 62
253
  6
CONTINUOUS
 10
2.2338829177
 20
14.7378536257
 11
1.6647527681
 21
14.7378536257
  0
LINE
  5
28C
100
AcDbEntity
  8
0
100
AcDbLine
 62
253
  6
CONTINUOUS
 10
0.7586920577
 20
14.7378536257
 11
0.1688913215
 21
14.7378536257
  0
LINE
  5
28D
100
AcDbEntity
  8
0
100
AcDbLine
 62
253
  6
CONTINUOUS
 10
-0.0019855272
 20
14.7378536257
 11
-0.626237241
 21
14.7378536257
  0
LINE
  5
28E
100
AcDbEntity
  8
0
100
AcDbLine
 62
253
  6
CONTINUOUS
 10
-1.7500281296
 20
14.7378536257
 11
-2.3350057289
 21
14.7378536257
  0
LINE
  5
28F
100
AcDbEntity
  8
0
100
AcDbLine
 62
253
  6
CONTINUOUS
 10
-2.476254737
 20
14.7378536257
 11
-3.0557201799
 21
14.7378536257
  0
LINE
  5
290
100
AcDbEntity
  8
0
100
AcDbLine
 62
253
  6
CONTINUOUS
 10
-3.8804765832
 20
14.7378536257
 11
-3.9645369685
 21
14.7378536257
  0
LINE
  5
291
100
AcDbEntity
  8
0
100
AcDbLine
 62
253
  6
CONTINUOUS
 10
-4.7865372935
 20
14.7378536257
 11
-5.3529113649
 21
14.7378536257
  0
LINE
  5
292
100
AcDbEntity
  8
0
100
AcDbLine
 62
253
  6
CONTINUOUS
 10
-5.7022442776
 20
14.7378536257
 11
-6.2941120724
 21
14.7378536257
  0
LINE
  5
293
100
AcDbEntity
  8
0
100
AcDbLine
 62
253
  6
CONTINUOUS
 10
-7.4261711957
 20
14.7378536257
 11
-7.9477589962
 21
14.7378536257
  0
LINE
  5
294
100
AcDbEntity
  8
0
100
AcDbLine
 62
253
  6
CONTINUOUS
 10
-0.779888601
 20
15.3035386775
 11
-1.5853524568
 21
15.3035386775
  0
LINE
  5
295
100
AcDbEntity
  8
0
100
AcDbLine
 62
253
  6
CONTINUOUS
 10
-1.4647740353
 20
15.7410660928
 11
-0.8983999639
 21
15.7410660928
  0
LINE
  5
296
100
AcDbEntity
  8
0
100
AcDbLine
 62
253
  6
CONTINUOUS
 10
1.0756410514
 20
15.8471751037
 11
0.7586920577
 21
15.8471751037
  0
LINE
  5
297
100
AcDbEntity
  8
0
100
AcDbLine
 62
253
  6
CONTINUOUS
 10
0.7387104907
 20
16.3115742815
 11
1.0770190905
 21
16.3115742815
  0
LINE
  5
298
100
AcDbEntity
  8
0
100
AcDbLine
 62
253
  6
CONTINUOUS
 10
11.036452199
 20
16.4912361296
 11
10.214451874
 21
16.4912361296
  0
LINE
  5
299
100
AcDbEntity
  8
0
100
AcDbLine
 62
253
  6
CONTINUOUS
 10
9.8844115088
 20
16.8989634492
 11
11.036452199
 21
16.8989634492
  0
LINE
  5
29A
100
AcDbEntity
  8
0
100
AcDbLine
 62
253
  6
CONTINUOUS
 10
8.5976674962
 20
16.939271093
 11
8.9511345261
 21
16.939271093
  0
LINE
  5
29B
100
AcDbEntity
  8
0
100
AcDbLine
 62
253
  6
CONTINUOUS
 10
-8.8462404915
 20
17.5731690805
 11
-8.2026962303
 21
17.5731690805
  0
LINE
  5
29C
100
AcDbEntity
  8
0
100
AcDbLine
 62
253
  6
CONTINUOUS
 10
-7.1050880846
 20
17.5731690805
 11
-6.5139093093
 21
17.5731690805
  0
LINE
  5
29D
100
AcDbEntity
  8
0
100
AcDbLine
 62
253
  6
CONTINUOUS
 10
-6.2941120724
 20
17.5731690805
 11
-5.7022442776
 21
17.5731690805
  0
LINE
  5
29E
100
AcDbEntity
  8
0
100
AcDbLine
 62
253
  6
CONTINUOUS
 10
-5.0972851113
 20
17.5731690805
 11
-4.5047282969
 21
17.5731690805
  0
LINE
  5
29F
100
AcDbEntity
  8
0
100
AcDbLine
 62
253
  6
CONTINUOUS
 10
-3.3278829028
 20
17.5731690805
 11
-2.7422162839
 21
17.5731690805
  0
LINE
  5
2A0
100
AcDbEntity
  8
0
100
AcDbLine
 62
253
  6
CONTINUOUS
 10
-1.4454814878
 20
17.5731690805
 11
-0.8729062405
 21
17.5731690805
  0
LINE
  5
2A1
100
AcDbEntity
  8
0
100
AcDbLine
 62
253
  6
CONTINUOUS
 10
10.014636204
 20
15.6649294323
 11
9.6611691741
 21
15.716089134
  0
LINE
  5
2A2
100
AcDbEntity
  8
0
100
AcDbLine
 62
253
  6
CONTINUOUS
 10
3.743869265
 20
18.7889440793
 11
4.4439131294
 21
18.7889440793
  0
LINE
  5
2A3
100
AcDbEntity
  8
0
100
AcDbLine
 62
253
  6
CONTINUOUS
 10
11.7867944907
 20
16.2772955588
 11
11.3850960921
 21
16.3455084944
  0
LINE
  5
2A4
100
AcDbEntity
  8
RACCORDO
100
AcDbLine
 62
253
  6
CONTINUOUS
 10
25.625
 20
-7.1972311162
 11
25.625
 21
7.2596011786
  0
LINE
  5
2A5
100
AcDbEntity
  8
RACCORDO
100
AcDbLine
 62
7
  6
CONTINUOUS
 10
26.125
 20
-7.2660747285
 11
26.125
 21
7.3284447908
  0
LINE
  5
2A6
100
AcDbEntity
  8
0
100
AcDbLine
 62
7
  6
CONTINUOUS
 10
-51.0777027027
 20
-27.0938149688
 11
-69.3277027027
 21
-27.0938149688
  0
LINE
  5
2A7
100
AcDbEntity
  8
RACCORDO
100
AcDbLine
 62
7
  6
CONTINUOUS
 10
-69.8277027027
 20
-26.5938149688
 11
-69.8277027027
 21
26.65618503
  0
LINE
  5
2A8
100
AcDbEntity
  8
RACCORDO
100
AcDbLine
 62
253
  6
CONTINUOUS
 10
-69.3277027027
 20
-27.0938149688
 11
-69.3277027027
 21
27.1561850312
  0
LINE
  5
2A9
100
AcDbEntity
  8
RACCORDO
100
AcDbLine
 62
7
  6
CONTINUOUS
 10
-51.0777027027
 20
-7.2660747285
 11
-69.3277027027
 21
-7.2660747285
  0
LINE
  5
2AA
100
AcDbEntity
  8
RACCORDO
100
AcDbLine
 62
7
  6
CONTINUOUS
 10
-51.0777027027
 20
7.3284447908
 11
-69.3277027027
 21
7.3284447908
  0
LINE
  5
2AB
100
AcDbEntity
  8
RACCORDO
100
AcDbLine
 62
253
  6
CONTINUOUS
 10
-51.0777027027
 20
-27.0938149688
 11
-51.0777027027
 21
27.1561850312
  0
LINE
  5
2AC
100
AcDbEntity
  8
RACCORDO
100
AcDbLine
 62
7
  6
CONTINUOUS
 10
-50.5777027027
 20
26.6561850299
 11
-50.5777027027
 21
-26.5938149676
  0
LINE
  5
2AD
100
AcDbEntity
  8
0
100
AcDbLine
 62
7
  6
CONTINUOUS
 10
-51.0777027027
 20
27.1561850312
 11
-69.3277027027
 21
27.1561850312
  0
ARC
  5
2AE
100
AcDbEntity
  8
RACCORDO
100
AcDbCircle
 62
7
  6
CONTINUOUS
 10
0.0
 20
0.0311850312
 40
27.125
100
AcDbArc
 50
15.6061618092
 51
164.3938381908
  0
ARC
  5
2AF
100
AcDbEntity
  8
RACCORDO
100
AcDbCircle
 62
7
  6
CONTINUOUS
 10
0.0
 20
0.0311850312
 40
27.125
100
AcDbArc
 50
195.6061618092
 51
344.3938381908
  0
ARC
  5
2B0
100
AcDbEntity
  8
RACCORDO
100
AcDbCircle
 62
253
  6
CONTINUOUS
 10
0.0
 20
0.0311850312
 40
26.625
100
AcDbArc
 50
195.7529383741
 51
344.2470616259
  0
ARC
  5
2B1
100
AcDbEntity
  8
RACCORDO
100
AcDbCircle
 62
253
  6
CONTINUOUS
 10
0.0
 20
0.0311850312
 40
26.625
100
AcDbArc
 50
15.7529383741
 51
164.2470616259
  0
ARC
  5
2B2
100
AcDbEntity
  8
ASSI
100
AcDbCircle
 62
7
  6
CONTINUOUS
 10
-16.5
 20
15.0311850312
 40
2.625
100
AcDbArc
 50
0.0
 51
180.0
  0
ARC
  5
2B3
100
AcDbEntity
  8
ASSI
100
AcDbCircle
 62
7
  6
CONTINUOUS
 10
-16.5
 20
10.0311850312
 40
2.625
100
AcDbArc
 50
180.0
 51
360.0
  0
CIRCLE
  5
2B4
100
AcDbEntity
  8
ASSI
100
AcDbCircle
 62
7
  6
CONTINUOUS
 10
-16.5
 20
15.0311850312
 40
2.0
  0
CIRCLE
  5
2B5
100
AcDbEntity
  8
ASSI
100
AcDbCircle
 62
7
  6
CONTINUOUS
 10
-16.5
 20
10.0311850312
 40
2.0
  0
ARC
  5
2B6
100
AcDbEntity
  8
RACCORDO
100
AcDbCircle
 62
7
  6
CONTINUOUS
 10
-69.3277027027
 20
26.6561850312
 40
0.5
100
AcDbArc
 50
90.0
 51
180.0
  0
ARC
  5
2B7
100
AcDbEntity
  8
RACCORDO
100
AcDbCircle
 62
7
  6
CONTINUOUS
 10
-69.3277027027
 20
-26.5938149688
 40
0.5
100
AcDbArc
 50
180.0
 51
270.0
  0
ARC
  5
2B8
100
AcDbEntity
  8
RACCORDO
100
AcDbCircle
 62
7
  6
CONTINUOUS
 10
-51.0777027027
 20
-26.5938149688
 40
0.5
100
AcDbArc
 50
270.0
 51
360.0
  0
ARC
  5
2B9
100
AcDbEntity
  8
RACCORDO
100
AcDbCircle
 62
7
  6
CONTINUOUS
 10
-51.0777027027
 20
26.6561850312
 40
0.5
100
AcDbArc
 50
0.0
 51
90.0
  0
LINE
  5
2BA
100
AcDbEntity
  8
RACCORDO
100
AcDbLine
 62
7
  6
CONTINUOUS
 10
26.125
 20
7.3284447908
 11
25.625
 21
7.2596011786
  0
LINE
  5
2BB
100
AcDbEntity
  8
RACCORDO
100
AcDbLine
 62
7
  6
CONTINUOUS
 10
-26.125
 20
7.3284447908
 11
-25.625
 21
7.2596011786
  0
LINE
  5
2BC
100
AcDbEntity
  8
RACCORDO
100
AcDbLine
 62
7
  6
CONTINUOUS
 10
-26.125
 20
-7.2660747285
 11
-25.625
 21
-7.1972311162
  0
LINE
  5
2BD
100
AcDbEntity
  8
RACCORDO
100
AcDbLine
 62
7
  6
CONTINUOUS
 10
26.125
 20
-7.2660747285
 11
25.625
 21
-7.1972311162
  0
SPLINE
  5
2BE
100
AcDbEntity
  8
0
100
AcDbSpline
 62
253
  6
CONTINUOUS
 70
0
 71
3
 72
20
 73
16
 74
14
 42
0.0000001
 43
0.0000001
 44
0.0000000001
 12
1.6624828883
 22
-0.6022259442
 32
0.0
 13
-1.7553502458
 23
-0.2127697268
 33
0.0
 40
0.0
 40
0.0
 40
0.0
 40
0.0
 40
0.0798093524
 40
0.1893976882
 40
0.2530253742
 40
0.3224166954
 40
0.3985539926
 40
0.4832689163
 40
0.5373502016
 40
0.5876890799
 40
0.6789149956
 40
0.7598630854
 40
0.8316459625
 40
0.9442834527
 40
1.0
 40
1.0
 40
1.0
 40
1.0
 10
1.6296127709
 20
17.5097792817
 30
0.0
 10
1.6738399985
 20
17.4937581942
 30
0.0
 10
1.7726784832
 20
17.4393038847
 30
0.0
 10
1.8858268042
 20
17.3398160227
 30
0.0
 10
1.9721785346
 20
17.2252011747
 30
0.0
 10
2.0302453124
 20
17.1158220209
 30
0.0
 10
2.0729622874
 20
16.9862959699
 30
0.0
 10
2.0911063191
 20
16.8602767454
 30
0.0
 10
2.0931195814
 20
16.7486652505
 30
0.0
 10
2.0841314489
 20
16.6335687953
 30
0.0
 10
2.0550431652
 20
16.5046414628
 30
0.0
 10
1.9967676297
 20
16.3726885407
 30
0.0
 10
1.9098845822
 20
16.2404552098
 30
0.0
 10
1.8064964369
 20
16.147719162
 30
0.0
 10
1.723536196
 20
16.0819482517
 30
0.0
 10
1.690935511
 20
16.0779966535
 30
0.0
 11
1.6296127709
 21
17.5097792817
 31
0.0
 11
1.7546267558
 21
17.4443116584
 31
0.0
 11
1.9000529449
 21
17.3162509152
 31
0.0
 11
1.9677437329
 21
17.2263863476
 31
0.0
 11
2.0253253121
 21
17.1180393689
 31
0.0
 11
2.0677269294
 21
16.9902652685
 31
0.0
 11
2.0898778314
 21
16.8421193362
 31
0.0
 11
2.0915744747
 21
16.7465079486
 31
0.0
 11
2.0844921747
 21
16.6577810371
 31
0.0
 11
2.0484720627
 21
16.5005486595
 31
0.0
 11
1.9907801327
 21
16.3695582374
 31
0.0
 11
1.9203790217
 21
16.263945805
 31
0.0
 11
1.7772998054
 21
16.1253990455
 31
0.0
 11
1.690935511
 21
16.0779966535
 31
0.0
  0
SPLINE
  5
2BF
100
AcDbEntity
  8
0
100
AcDbSpline
 62
253
  6
CONTINUOUS
 70
0
 71
3
 72
9
 73
5
 74
3
 42
0.0000001
 43
0.0000001
 44
0.0000000001
 12
1.4549883397
 22
0.2142183999
 32
0.0
 13
1.3835590488
 23
-0.4986431089
 33
0.0
 40
0.0
 40
0.0
 40
0.0
 40
0.0
 40
0.7040723023
 40
1.0
 40
1.0
 40
1.0
 40
1.0
 10
0.1688913215
 20
17.5394071224
 30
0.0
 10
0.5103636516
 20
17.5896822031
 30
0.0
 10
1.0030585615
 20
17.6392985762
 30
0.0
 10
1.4931349563
 20
17.5589667175
 30
0.0
 10
1.6296127709
 20
17.5097792817
 30
0.0
 11
0.1688913215
 21
17.5394071224
 31
0.0
 11
1.2028512862
 21
17.5951315787
 31
0.0
 11
1.6296127709
 21
17.5097792817
 31
0.0
  0
SPLINE
  5
2C0
100
AcDbEntity
  8
0
100
AcDbSpline
 62
253
  6
CONTINUOUS
 70
0
 71
3
 72
9
 73
5
 74
3
 42
0.0000001
 43
0.0000001
 44
0.0000000001
 12
-0.461983002
 22
0.0524522186
 32
0.0
 13
-0.45847833
 23
-0.0773120321
 33
0.0
 40
0.0
 40
0.0
 40
0.0
 40
0.0
 40
0.7298020546
 40
1.0
 40
1.0
 40
1.0
 40
1.0
 10
1.2024206489
 20
17.106702844
 30
0.0
 10
1.0900352676
 20
17.1194627563
 30
0.0
 10
0.9333115212
 20
17.1199719639
 30
0.0
 10
0.7800037916
 20
17.0971295589
 30
0.0
 10
0.7387104907
 20
17.0901663748
 30
0.0
 11
1.2024206489
 21
17.106702844
 31
0.0
 11
0.8631000516
 21
17.1077686712
 31
0.0
 11
0.7387104907
 21
17.0901663748
 31
0.0
  0
SPLINE
  5
2C1
100
AcDbEntity
  8
0
100
AcDbSpline
 62
253
  6
CONTINUOUS
 70
0
 71
3
 72
21
 73
17
 74
15
 42
0.0000001
 43
0.0000001
 44
0.0000000001
 12
-0.371410697
 22
1.287161506
 32
0.0
 13
-1.3396755758
 23
-0.0
 33
0.0
 40
0.0
 40
0.0
 40
0.0
 40
0.0
 40
0.090026035
 40
0.2958490082
 40
0.4120663708
 40
0.5210936143
 40
0.6108901336
 40
0.6448187343
 40
0.6694368581
 40
0.7039020108
 40
0.7355626544
 40
0.7918179772
 40
0.8407159476
 40
0.8838909188
 40
0.954681105
 40
1.0
 40
1.0
 40
1.0
 40
1.0
 10
1.6647527681
 20
14.7378536257
 30
0.0
 10
1.6536072239
 20
14.7764796413
 30
0.0
 10
1.6167528028
 20
14.9033491155
 30
0.0
 10
1.5650369947
 20
15.0799445383
 30
0.0
 10
1.5101862742
 20
15.2644621689
 30
0.0
 10
1.4694690287
 20
15.3991251192
 30
0.0
 10
1.438670943
 20
15.4983989736
 30
0.0
 10
1.4180870323
 20
15.5613654388
 30
0.0
 10
1.4045072869
 20
15.6006216924
 30
0.0
 10
1.3889272741
 20
15.6380917832
 30
0.0
 10
1.3633386508
 20
15.6864469658
 30
0.0
 10
1.3274488581
 20
15.7364004356
 30
0.0
 10
1.2785605408
 20
15.7817421452
 30
0.0
 10
1.2164861488
 20
15.8203210415
 30
0.0
 10
1.147793336
 20
15.8427415926
 30
0.0
 10
1.0958785904
 20
15.8471751037
 30
0.0
 10
1.0756410514
 20
15.8471751037
 30
0.0
 11
1.6647527681
 21
14.7378536257
 31
0.0
 11
1.631152299
 21
14.8536842718
 31
0.0
 11
1.5535622379
 21
15.1182785456
 31
0.0
 11
1.5091514289
 21
15.2675037624
 31
0.0
 11
1.4667996041
 21
15.4072899497
 31
0.0
 11
1.4308588909
 21
15.5220937953
 31
0.0
 11
1.4166527409
 21
15.5652700548
 31
0.0
 11
1.4056814167
 21
15.596371987
 31
0.0
 11
1.3877739735
 21
15.6389300466
 31
0.0
 11
1.3678741602
 21
15.6763870739
 31
0.0
 11
1.3234943033
 21
15.7372980171
 31
0.0
 11
1.2753356047
 21
15.7817047889
 31
0.0
 11
1.2261918235
 21
15.8122073615
 31
0.0
 11
1.136124049
 21
15.8418997978
 31
0.0
 11
1.0756410514
 21
15.8471751037
 31
0.0
  0
SPLINE
  5
2C2
100
AcDbEntity
  8
0
100
AcDbSpline
 62
253
  6
CONTINUOUS
 70
0
 71
3
 72
9
 73
5
 74
3
 42
0.0000001
 43
0.0000001
 44
0.0000000001
 12
0.207649865
 22
-0.7653380737
 32
0.0
 13
0.2070011751
 23
-0.7655137797
 33
0.0
 40
0.0
 40
0.0
 40
0.0
 40
0.0
 40
0.22943003
 40
1.0
 40
1.0
 40
1.0
 40
1.0
 10
2.0320001891
 20
15.5047323866
 30
0.0
 10
2.0478805606
 20
15.4462018742
 30
0.0
 10
2.1154288991
 20
15.1906397382
 30
0.0
 10
2.1807132879
 20
14.9344809358
 30
0.0
 10
2.2338829177
 20
14.7378536257
 30
0.0
 11
2.0320001891
 21
15.5047323866
 31
0.0
 11
2.0787566252
 21
15.3289032098
 31
0.0
 11
2.2338829177
 21
14.7378536257
 31
0.0
  0
SPLINE
  5
2C3
100
AcDbEntity
  8
0
100
AcDbSpline
 62
253
  6
CONTINUOUS
 70
0
 71
3
 72
9
 73
5
 74
3
 42
0.0000001
 43
0.0000001
 44
0.0000000001
 12
-0.0074660342
 22
0.5226223946
 32
0.0
 13
-0.5190957078
 23
0.0610700833
 33
0.0
 40
0.0
 40
0.0
 40
0.0
 40
0.0
 40
0.4985272191
 40
1.0
 40
1.0
 40
1.0
 40
1.0
 10
1.5365951315
 20
16.751857775
 30
0.0
 10
1.5353544577
 20
16.838704938
 30
0.0
 10
1.4645111271
 20
17.0198783174
 30
0.0
 10
1.2891914383
 20
17.0964945159
 30
0.0
 10
1.2024206489
 20
17.106702844
 30
0.0
 11
1.5365951315
 21
16.751857775
 31
0.0
 11
1.4387543551
 21
16.9933591278
 31
0.0
 11
1.2024206489
 21
17.106702844
 31
0.0
  0
SPLINE
  5
2C4
100
AcDbEntity
  8
0
100
AcDbSpline
 62
253
  6
CONTINUOUS
 70
0
 71
3
 72
9
 73
5
 74
3
 42
0.0000001
 43
0.0000001
 44
0.0000000001
 12
0.6179040976
 22
-0.2925901023
 32
0.0
 13
0.1798873574
 23
-0.6595869771
 33
0.0
 40
0.0
 40
0.0
 40
0.0
 40
0.0
 40
0.2570580211
 40
1.0
 40
1.0
 40
1.0
 40
1.0
 10
1.690935511
 20
16.0779966535
 30
0.0
 10
1.7438812459
 20
16.052925776
 30
0.0
 10
1.9279120163
 20
15.9047184492
 30
0.0
 10
1.987451566
 20
15.6680773379
 30
0.0
 10
2.0320001891
 20
15.5047323866
 30
0.0
 11
1.690935511
 21
16.0779966535
 31
0.0
 11
1.8302681835
 21
15.970886411
 31
0.0
 11
2.0320001891
 21
15.5047323866
 31
0.0
  0
SPLINE
  5
2C5
100
AcDbEntity
  8
0
100
AcDbSpline
 62
253
  6
CONTINUOUS
 70
0
 71
3
 72
9
 73
5
 74
3
 42
0.0000001
 43
0.0000001
 44
0.0000000001
 12
0.7057796843
 22
0.0158602176
 32
0.0
 13
-0.0103371867
 23
0.7058821799
 33
0.0
 40
0.0
 40
0.0
 40
0.0
 40
0.0
 40
0.4792065318
 40
1.0
 40
1.0
 40
1.0
 40
1.0
 10
1.0770190905
 20
16.3115742815
 30
0.0
 10
1.1897571688
 20
16.3141077215
 30
0.0
 10
1.4517766252
 20
16.361758194
 30
0.0
 10
1.5383896446
 20
16.6293181654
 30
0.0
 10
1.5365951315
 20
16.751857775
 30
0.0
 11
1.0770190905
 21
16.3115742815
 31
0.0
 11
1.4005998975
 21
16.4102763323
 31
0.0
 11
1.5365951315
 21
16.751857775
 31
0.0
  0
SPLINE
  5
2C6
100
AcDbEntity
  8
0
100
AcDbSpline
 62
253
  6
CONTINUOUS
 70
0
 71
3
 72
17
 73
13
 74
11
 42
0.0000001
 43
0.0000001
 44
0.0000000001
 12
-1.1112993774
 22
-0.0002275456
 32
0.0
 13
1.1112520924
 23
-0.0002257602
 33
0.0
 40
0.0
 40
0.0
 40
0.0
 40
0.0
 40
0.0686330914
 40
0.1310224254
 40
0.2495099063
 40
0.3723930179
 40
0.500809622
 40
0.6281287217
 40
0.75073546
 40
0.8690220732
 40
0.9313704281
 40
1.0
 40
1.0
 40
1.0
 40
1.0
 10
-5.6860523181
 20
0.7628145705
 30
0.0
 10
-5.7114762887
 20
0.7628093648
 30
0.0
 10
-5.7600107176
 20
0.768094368
 30
0.0
 10
-5.8470562862
 20
0.801280674
 30
0.0
 10
-5.931785578
 20
0.8815226657
 30
0.0
 10
-5.9862542087
 20
1.0094307162
 30
0.0
 10
-6.0032646861
 20
1.1496467802
 30
0.0
 10
-5.9860870014
 20
1.2897037762
 30
0.0
 10
-5.93177936
 20
1.4170594429
 30
0.0
 10
-5.8470155079
 20
1.4970028638
 30
0.0
 10
-5.7599897906
 20
1.5299659917
 30
0.0
 10
-5.7114739032
 20
1.5352106524
 30
0.0
 10
-5.6860523181
 20
1.5352054878
 30
0.0
 11
-5.6860523181
 21
0.7628145705
 31
0.0
 11
-5.7615483802
 21
0.771677856
 31
0.0
 11
-5.8259806375
 21
0.7966417461
 31
0.0
 11
-5.922902789
 21
0.8851155409
 31
0.0
 11
-5.979287895
 21
1.0089852272
 31
0.0
 11
-5.9974891554
 21
1.1500435585
 31
0.0
 11
-5.9792516692
 21
1.2898714637
 31
0.0
 11
-5.922902789
 21
1.4134212821
 31
0.0
 11
-5.8259878827
 21
1.501572721
 31
0.0
 11
-5.7615510972
 21
1.5263989567
 31
0.0
 11
-5.6860523181
 21
1.5352054878
 31
0.0
  0
SPLINE
  5
2C7
100
AcDbEntity
  8
0
100
AcDbSpline
 62
253
  6
CONTINUOUS
 70
0
 71
3
 72
20
 73
16
 74
14
 42
0.0000001
 43
0.0000001
 44
0.0000000001
 12
1.8235999793
 22
0.0000006114
 32
0.0
 13
-1.8222986417
 23
-0.0612140183
 33
0.0
 40
0.0
 40
0.0
 40
0.0
 40
0.0
 40
0.0687390006
 40
0.1316230564
 40
0.2473998329
 40
0.3639642967
 40
0.4266984185
 40
0.4935908563
 40
0.5602178618
 40
0.6227280921
 40
0.7389865573
 40
0.8546422604
 40
0.9175120958
 40
0.9862493151
 40
1.0
 40
1.0
 40
1.0
 40
1.0
 10
-5.6860523181
 20
0.5719561547
 30
0.0
 10
-5.6442681714
 20
0.5719561687
 30
0.0
 10
-5.5642586812
 20
0.5785605666
 30
0.0
 10
-5.4190254702
 20
0.6196051615
 30
0.0
 10
-5.2656553169
 20
0.7241822822
 30
0.0
 10
-5.1750711614
 20
0.8849982748
 30
0.0
 10
-5.1398471459
 20
1.0306394563
 30
0.0
 10
-5.131207413
 20
1.1498820597
 30
0.0
 10
-5.1398445912
 20
1.2689899357
 30
0.0
 10
-5.1750957217
 20
1.4141349172
 30
0.0
 10
-5.2657784187
 20
1.5744455249
 30
0.0
 10
-5.4190939138
 20
1.6785741524
 30
0.0
 10
-5.5642695594
 20
1.7194870736
 30
0.0
 10
-5.6526278794
 20
1.7267510547
 30
0.0
 10
-5.7027694698
 20
1.7259264443
 30
0.0
 10
-5.711122088
 20
1.7256458661
 30
0.0
 11
-5.6860523181
 21
0.5719561547
 31
0.0
 11
-5.5614474051
 21
0.5830087662
 31
0.0
 11
-5.451570352
 21
0.6149983448
 31
0.0
 11
-5.2783249985
 21
0.7349092787
 31
0.0
 11
-5.1709671396
 21
0.9178655015
 31
0.0
 11
-5.1434494212
 21
1.0286657666
 31
0.0
 11
-5.1341476573
 21
1.1500435585
 31
0.0
 11
-5.1434494212
 21
1.2709368835
 31
0.0
 11
-5.1709671396
 21
1.3813172774
 31
0.0
 11
-5.2783249985
 21
1.5636275443
 31
0.0
 11
-5.451570352
 21
1.6831509047
 31
0.0
 11
-5.5614474386
 21
1.7150476652
 31
0.0
 11
-5.6860523181
 21
1.7260639036
 31
0.0
 11
-5.711122088
 21
1.7256458661
 31
0.0
  0
SPLINE
  5
2C8
100
AcDbEntity
  8
0
100
AcDbSpline
 62
253
  6
CONTINUOUS
 70
0
 71
3
 72
23
 73
19
 74
17
 42
0.0000001
 43
0.0000001
 44
0.0000000001
 12
3.1047778646
 22
0.0
 32
0.0
 13
-3.1123346657
 23
0.007498914
 33
0.0
 40
0.0
 40
0.0
 40
0.0
 40
0.0
 40
0.0965602262
 40
0.1879851958
 40
0.2489394948
 40
0.3196849657
 40
0.4026953879
 40
0.4493235896
 40
0.4995416312
 40
0.5496583938
 40
0.5962333592
 40
0.6792866489
 40
0.750282668
 40
0.8116928549
 40
0.8579900021
 40
0.9030731832
 40
0.9495999467
 40
1.0
 40
1.0
 40
1.0
 40
1.0
 10
6.8072501914
 20
16.939271093
 30
0.0
 10
6.9071828756
 20
16.939271093
 30
0.0
 10
7.1069772693
 20
16.9064211824
 30
0.0
 10
7.3151813909
 20
16.7366210352
 30
0.0
 10
7.4312612945
 20
16.5347598136
 30
0.0
 10
7.4986349549
 20
16.3216237201
 30
0.0
 10
7.5300847337
 20
16.1160590919
 30
0.0
 10
7.5431287431
 20
15.9303249039
 30
0.0
 10
7.5462615701
 20
15.7782061589
 30
0.0
 10
7.543118108
 20
15.6261399866
 30
0.0
 10
7.5299973686
 20
15.4405338144
 30
0.0
 10
7.4982963223
 20
15.234700274
 30
0.0
 10
7.4305124841
 20
15.0210606866
 30
0.0
 10
7.3372987874
 20
14.8589781207
 30
0.0
 10
7.2250135828
 20
14.7455090183
 30
0.0
 10
7.1018072203
 20
14.6706059504
 30
0.0
 10
6.9600573703
 20
14.6269312206
 30
0.0
 10
6.859537469
 20
14.6183550065
 30
0.0
 10
6.8072501914
 20
14.6184809884
 30
0.0
 11
6.8072501914
 21
16.939271093
 31
0.0
 11
7.1012031576
 21
16.8803599213
 31
0.0
 11
7.3233258355
 21
16.7036264064
 31
0.0
 11
7.4203430182
 21
16.5411362174
 31
0.0
 11
7.4896809935
 21
16.332718569
 31
0.0
 11
7.5313074637
 21
16.0783734611
 31
0.0
 11
7.5417187914
 21
15.9339781098
 31
0.0
 11
7.5451901311
 21
15.7781008937
 31
0.0
 11
7.5417019696
 21
15.622538581
 31
0.0
 11
7.5312374852
 21
15.4783127932
 31
0.0
 11
7.4893795474
 21
15.2238707919
 31
0.0
 11
7.4196163178
 21
15.0147748898
 31
0.0
 11
7.3219477964
 21
14.851025087
 31
0.0
 11
7.22040354
 21
14.7492870439
 31
0.0
 11
7.1007725203
 21
14.676617013
 31
0.0
 11
6.9630547375
 21
14.6330149945
 31
0.0
 11
6.8072501914
 21
14.6184809884
 31
0.0
  0
SPLINE
  5
2C9
100
AcDbEntity
  8
0
100
AcDbSpline
 62
253
  6
CONTINUOUS
 70
0
 71
3
 72
19
 73
15
 74
13
 42
0.0000001
 43
0.0000001
 44
0.0000000001
 12
-1.5540987295
 22
1.9495436989
 32
0.0
 13
2.4931793949
 23
-0.0
 33
0.0
 40
0.0
 40
0.0
 40
0.0
 40
0.0
 40
0.0707429358
 40
0.1557918581
 40
0.2581196566
 40
0.3163433428
 40
0.3794570203
 40
0.4415764564
 40
0.4993247169
 40
0.6023682368
 40
0.6905590307
 40
0.7669669235
 40
0.8797795337
 40
1.0
 40
1.0
 40
1.0
 40
1.0
 10
6.2722265096
 20
14.8735904773
 30
0.0
 10
6.2355793407
 20
14.9195626256
 30
0.0
 10
6.1720133707
 20
15.0344939745
 30
0.0
 10
6.1113052567
 20
15.2411941186
 30
0.0
 10
6.0829801942
 20
15.4439068102
 30
0.0
 10
6.0711863527
 20
15.6294397166
 30
0.0
 10
6.0682886312
 20
15.7819246177
 30
0.0
 10
6.0713659373
 20
15.9340187766
 30
0.0
 10
6.0845247047
 20
16.1188545488
 30
0.0
 10
6.1161737211
 20
16.3239542974
 30
0.0
 10
6.1842221604
 20
16.5370362314
 30
0.0
 10
6.2997611475
 20
16.7388379961
 30
0.0
 10
6.508409352
 20
16.9074895208
 30
0.0
 10
6.7073397949
 20
16.939271093
 30
0.0
 10
6.8072501914
 20
16.939271093
 30
0.0
 11
6.2722265096
 21
14.8735904773
 31
0.0
 11
6.1834022
 21
15.0259660746
 31
0.0
 11
6.1199962524
 21
15.2283063552
 31
0.0
 11
6.0819763688
 21
15.4805790215
 31
0.0
 11
6.072476108
 21
15.6254299062
 31
0.0
 11
6.0693102516
 21
15.7827517757
 31
0.0
 11
6.0727984131
 21
15.937587388
 31
0.0
 11
6.0832628975
 21
16.0811833689
 31
0.0
 11
6.1251208353
 21
16.3346564365
 31
0.0
 11
6.1948840649
 21
16.5431709783
 31
0.0
 11
6.2925525863
 21
16.7067269943
 31
0.0
 11
6.5132110977
 21
16.8811350683
 31
0.0
 11
6.8072501914
 21
16.939271093
 31
0.0
  0
SPLINE
  5
2CA
100
AcDbEntity
  8
0
100
AcDbSpline
 62
253
  6
CONTINUOUS
 70
0
 71
3
 72
20
 73
16
 74
14
 42
0.0000001
 43
0.0000001
 44
0.0000000001
 12
-1.4810956398
 22
0.0
 32
0.0
 13
0.3853113033
 23
-1.4300977218
 33
0.0
 40
0.0
 40
0.0
 40
0.0
 40
0.0
 40
0.1012731629
 40
0.1615539418
 40
0.2409742425
 40
0.3090791031
 40
0.3958923834
 40
0.5018317869
 40
0.5620517279
 40
0.6271301034
 40
0.6920062349
 40
0.7516165466
 40
0.8550973971
 40
0.9377646391
 40
1.0
 40
1.0
 40
1.0
 40
1.0
 10
6.8072501914
 20
16.5780525931
 30
0.0
 10
6.757251778
 20
16.5780525931
 30
0.0
 10
6.6730940446
 20
16.5495363672
 30
0.0
 10
6.6016961924
 20
16.4511323595
 30
0.0
 10
6.568876537
 20
16.3529488701
 30
0.0
 10
6.5471772736
 20
16.2392489196
 30
0.0
 10
6.5341488709
 20
16.1109786401
 30
0.0
 10
6.5278148428
 20
15.9862287679
 30
0.0
 10
6.5251708518
 20
15.8720904952
 30
0.0
 10
6.5245447869
 20
15.7782010479
 30
0.0
 10
6.5251309145
 20
15.6846107961
 30
0.0
 10
6.5275186502
 20
15.5720897962
 30
0.0
 10
6.5330940633
 20
15.4508347731
 30
0.0
 10
6.5449254371
 20
15.3287577062
 30
0.0
 10
6.5574109994
 20
15.2581030957
 30
0.0
 10
6.5654043288
 20
15.2284355464
 30
0.0
 11
6.8072501914
 21
16.5780525931
 31
0.0
 11
6.6660011833
 21
16.5275819109
 31
0.0
 11
6.6109657466
 21
16.4572803848
 31
0.0
 11
6.5698829558
 21
16.3470587884
 31
0.0
 11
6.550186686
 21
16.2481306531
 31
0.0
 11
6.5360779341
 21
16.1203282922
 31
0.0
 11
6.5275889979
 21
15.9636517057
 31
0.0
 11
6.5254620538
 21
15.8744855779
 31
0.0
 11
6.5247521752
 21
15.7781008937
 31
0.0
 11
6.5253967853
 21
15.6820153005
 31
0.0
 11
6.5273252326
 21
15.5937477914
 31
0.0
 11
6.535001341
 21
15.4406751002
 31
0.0
 11
6.547715905
 21
15.3188989689
 31
0.0
 11
6.5654043288
 21
15.2284355464
 31
0.0
  0
SPLINE
  5
2CB
100
AcDbEntity
  8
0
100
AcDbSpline
 62
253
  6
CONTINUOUS
 70
0
 71
3
 72
25
 73
21
 74
19
 42
0.0000001
 43
0.0000001
 44
0.0000000001
 12
0.4835465329
 22
-1.7947015549
 32
0.0
 13
-0.4827691205
 23
1.7949108326
 33
0.0
 40
0.0
 40
0.0
 40
0.0
 40
0.0
 40
0.0713419314
 40
0.1214512505
 40
0.1620399815
 40
0.2029020276
 40
0.2435946031
 40
0.2846487036
 40
0.3327195944
 40
0.3960486306
 40
0.4499540802
 40
0.518864692
 40
0.6031223141
 40
0.6510686488
 40
0.702912892
 40
0.7546051627
 40
0.8020951724
 40
0.8845253205
 40
0.9503808095
 40
1.0
 40
1.0
 40
1.0
 40
1.0
 10
6.5654043288
 20
15.2284355464
 30
0.0
 10
6.5769033766
 20
15.185756388
 30
0.0
 10
6.5997945361
 20
15.1137249266
 30
0.0
 10
6.6577239257
 20
15.0282216807
 30
0.0
 10
6.731191034
 20
14.9878413604
 30
0.0
 10
6.8071347621
 20
14.9755731563
 30
0.0
 10
6.88342808
 20
14.9880713507
 30
0.0
 10
6.9554491451
 20
15.0283368983
 30
0.0
 10
7.012605755
 20
15.1065596127
 30
0.0
 10
7.0451332465
 20
15.2045631752
 30
0.0
 10
7.0669903547
 20
15.3178776386
 30
0.0
 10
7.0798124862
 20
15.4456810662
 30
0.0
 10
7.0860608278
 20
15.5701438911
 30
0.0
 10
7.0886505567
 20
15.6841521698
 30
0.0
 10
7.0892591482
 20
15.7780064152
 30
0.0
 10
7.0886990609
 20
15.8715798022
 30
0.0
 10
7.0864124588
 20
15.9840765284
 30
0.0
 10
7.081031224
 20
16.1053048924
 30
0.0
 10
7.0694536948
 20
16.2273931182
 30
0.0
 10
7.057080925
 20
16.2980789001
 30
0.0
 10
7.049096054
 20
16.327766241
 30
0.0
 11
6.5654043288
 21
15.2284355464
 31
0.0
 11
6.6108796192
 21
15.1038737306
 31
0.0
 11
6.6666902028
 21
15.029308896
 31
0.0
 11
6.7323193151
 21
14.9921018402
 31
0.0
 11
6.8072501914
 21
14.9796994883
 31
0.0
 11
6.8818365578
 21
14.9922525632
 31
0.0
 11
6.9481546897
 21
15.0299979155
 31
0.0
 11
7.0031901263
 21
15.1003855691
 31
0.0
 11
7.0442729171
 21
15.2106932929
 31
0.0
 11
7.0639153573
 21
15.3089431746
 31
0.0
 11
7.077905684
 21
15.4362610686
 31
0.0
 11
7.0862761949
 21
15.592646975
 31
0.0
 11
7.0883641126
 21
15.6817404328
 31
0.0
 11
7.089059188
 21
15.7781008937
 31
0.0
 11
7.0884441842
 21
15.8741794218
 31
0.0
 11
7.0865937899
 21
15.9624297726
 31
0.0
 11
7.0791545319
 21
16.1154620916
 31
0.0
 11
7.0666768185
 21
16.2372301485
 31
0.0
 11
7.049096054
 21
16.327766241
 31
0.0
  0
SPLINE
  5
2CC
100
AcDbEntity
  8
0
100
AcDbSpline
 62
253
  6
CONTINUOUS
 70
0
 71
3
 72
11
 73
7
 74
5
 42
0.0000001
 43
0.0000001
 44
0.0000000001
 12
-0.0984274791
 22
0.364686429
 32
0.0
 13
-0.3777355691
 23
0.0
 33
0.0
 40
0.0
 40
0.0
 40
0.0
 40
0.0
 40
0.3514580511
 40
0.6000573051
 40
0.8004028285
 40
1.0
 40
1.0
 40
1.0
 40
1.0
 10
7.049096054
 20
16.327766241
 30
0.0
 10
7.0375650106
 20
16.3704902348
 30
0.0
 10
7.0144393012
 20
16.4428265511
 30
0.0
 10
6.9561034224
 20
16.5283809739
 30
0.0
 10
6.8830871641
 20
16.5696391334
 30
0.0
 10
6.8323818418
 20
16.5780525931
 30
0.0
 10
6.8072501914
 20
16.5780525931
 30
0.0
 11
7.049096054
 21
16.327766241
 31
0.0
 11
7.003405445
 21
16.4524141842
 31
0.0
 11
6.9471211603
 21
16.5275819109
 31
0.0
 11
6.8815781755
 21
16.5654133907
 31
0.0
 11
6.8072501914
 21
16.5780525931
 31
0.0
  0
SPLINE
  5
2CD
100
AcDbEntity
  8
0
100
AcDbSpline
 62
253
  6
CONTINUOUS
 70
0
 71
3
 72
8
 73
4
 74
2
 42
0.0000001
 43
0.0000001
 44
0.0000000001
 12
-0.4764815692
 22
-0.4455412076
 32
0.0
 13
-0.6194500492
 23
-0.2045074325
 33
0.0
 40
0.0
 40
0.0
 40
0.0
 40
0.0
 40
1.0
 40
1.0
 40
1.0
 40
1.0
 10
8.5153296598
 20
16.2989996747
 30
0.0
 10
8.35650247
 20
16.1504859388
 30
0.0
 10
8.1592285456
 20
16.0369561988
 30
0.0
 10
7.9527451959
 20
15.9687870546
 30
0.0
 11
8.5153296598
 21
16.2989996747
 31
0.0
 11
7.9527451959
 21
15.9687870546
 31
0.0
  0
SPLINE
  5
2CE
100
AcDbEntity
  8
0
100
AcDbSpline
 62
253
  6
CONTINUOUS
 70
0
 71
3
 72
9
 73
5
 74
3
 42
0.0000001
 43
0.0000001
 44
0.0000000001
 12
0.4066321452
 22
0.1330796111
 32
0.0
 13
0.3369747773
 23
0.2636434786
 33
0.0
 40
0.0
 40
0.0
 40
0.0
 40
0.0
 40
0.2187191255
 40
1.0
 40
1.0
 40
1.0
 40
1.0
 10
7.9527451959
 20
16.3641120223
 30
0.0
 10
7.9823912716
 20
16.3738143744
 30
0.0
 10
8.115180179
 20
16.4266672629
 30
0.0
 10
8.2353358886
 20
16.5071534104
 30
0.0
 10
8.3230932049
 20
16.5758132795
 30
0.0
 11
7.9527451959
 21
16.3641120223
 31
0.0
 11
8.0398738714
 21
16.3982561709
 31
0.0
 11
8.3230932049
 21
16.5758132795
 31
0.0
  0
SPLINE
  5
2CF
100
AcDbEntity
  8
0
100
AcDbSpline
 62
253
  6
CONTINUOUS
 70
0
 71
3
 72
9
 73
5
 74
3
 42
0.0000001
 43
0.0000001
 44
0.0000000001
 12
0.3626319139
 22
0.2813201188
 32
0.0
 13
0.1547729086
 23
0.4320743697
 33
0.0
 40
0.0
 40
0.0
 40
0.0
 40
0.0
 40
0.2676847635
 40
1.0
 40
1.0
 40
1.0
 40
1.0
 10
8.3230932049
 20
16.5758132795
 30
0.0
 10
8.3554502176
 20
16.6009149827
 30
0.0
 10
8.4710243833
 20
16.7010860541
 30
0.0
 10
8.5598866431
 20
16.8337995449
 30
0.0
 10
8.5976674962
 20
16.939271093
 30
0.0
 11
8.3230932049
 21
16.5758132795
 31
0.0
 11
8.4154110589
 21
16.6568753532
 31
0.0
 11
8.5976674962
 21
16.939271093
 31
0.0
  0
SPLINE
  5
2D0
100
AcDbEntity
  8
0
100
AcDbSpline
 62
253
  6
CONTINUOUS
 70
0
 71
3
 72
19
 73
15
 74
13
 42
0.0000001
 43
0.0000001
 44
0.0000000001
 12
0.1537245319
 22
-1.2169858777
 32
0.0
 13
-0.1892213438
 23
1.2119287624
 33
0.0
 40
0.0
 40
0.0
 40
0.0
 40
0.0
 40
0.1117193016
 40
0.2134897689
 40
0.3096732718
 40
0.4027541888
 40
0.4565486132
 40
0.5086372034
 40
0.6179477027
 40
0.7450770791
 40
0.8203130116
 40
0.9057285619
 40
0.9858425439
 40
1.0
 40
1.0
 40
1.0
 40
1.0
 10
10.0425414959
 20
15.2866576985
 30
0.0
 10
10.0482661616
 20
15.2413374277
 30
0.0
 10
10.0701085691
 20
15.1548451258
 30
0.0
 10
10.1456374868
 20
15.0497939679
 30
0.0
 10
10.2468800827
 20
14.9818030151
 30
0.0
 10
10.3472597536
 20
14.9633472426
 30
0.0
 10
10.4287394968
 20
14.9716237792
 30
0.0
 10
10.5126590855
 20
15.0004133814
 30
0.0
 10
10.607730766
 20
15.0772738901
 30
0.0
 10
10.6647097071
 20
15.1954677119
 30
0.0
 10
10.6858329485
 20
15.3115183639
 30
0.0
 10
10.6909537209
 20
15.410051534
 30
0.0
 10
10.6871105253
 20
15.483630406
 30
0.0
 10
10.6817229231
 20
15.5217992904
 30
0.0
 10
10.6808299588
 20
15.5275185665
 30
0.0
 11
10.0425414959
 21
15.2866576985
 31
0.0
 11
10.0794040419
 21
15.1546673907
 31
0.0
 11
10.1524401143
 21
15.0534245803
 31
0.0
 11
10.2511421651
 21
14.9887859336
 31
0.0
 11
10.3632800971
 21
14.9672971363
 31
0.0
 11
10.4289038265
 21
14.9742142467
 31
0.0
 11
10.4893276114
 21
14.9949871096
 31
0.0
 11
10.5944461567
 21
15.0782292842
 31
0.0
 11
10.6654582342
 21
15.2170667238
 31
0.0
 11
10.6832489344
 21
15.3076243481
 31
0.0
 11
10.689186345
 21
15.4122315118
 31
0.0
 11
10.6832650833
 21
15.5103252875
 31
0.0
 11
10.6808299588
 21
15.5275185665
 31
0.0
  0
SPLINE
  5
2D1
100
AcDbEntity
  8
0
100
AcDbSpline
 62
253
  6
CONTINUOUS
 70
0
 71
3
 72
8
 73
4
 74
2
 42
0.0000001
 43
0.0000001
 44
0.0000000001
 12
0.2740926791
 22
0.1370463396
 32
0.0
 13
0.3064449313
 23
0.0
 33
0.0
 40
0.0
 40
0.0
 40
0.0
 40
0.0
 40
1.0
 40
1.0
 40
1.0
 40
1.0
 10
10.1462389384
 20
16.1052129258
 30
0.0
 10
10.2376031648
 20
16.150895039
 30
0.0
 10
10.3417470742
 20
16.1780767434
 30
0.0
 10
10.4438953847
 20
16.1780767434
 30
0.0
 11
10.1462389384
 21
16.1052129258
 31
0.0
 11
10.4438953847
 21
16.1780767434
 31
0.0
  0
SPLINE
  5
2D2
100
AcDbEntity
  8
0
100
AcDbSpline
 62
253
  6
CONTINUOUS
 70
0
 71
3
 72
13
 73
9
 74
7
 42
0.0000001
 43
0.0000001
 44
0.0000000001
 12
1.1446517526
 22
0.0
 32
0.0
 13
-0.0
 23
-1.1446517526
 33
0.0
 40
0.0
 40
0.0
 40
0.0
 40
0.0
 40
0.2386423323
 40
0.3561908971
 40
0.4791277835
 40
0.604529773
 40
0.7299146194
 40
1.0
 40
1.0
 40
1.0
 40
1.0
 10
10.4438953847
 20
16.1780767434
 30
0.0
 10
10.534949506
 20
16.1780767434
 30
0.0
 10
10.6736493172
 20
16.1529592842
 30
0.0
 10
10.833613205
 20
16.0620759567
 30
0.0
 10
10.9393795929
 20
15.9696282559
 30
0.0
 10
11.0280294894
 20
15.8566898351
 30
0.0
 10
11.1154520931
 20
15.6767205015
 30
0.0
 10
11.1370490536
 20
15.5230342165
 30
0.0
 10
11.1370490536
 20
15.4199829817
 30
0.0
 11
10.4438953847
 21
16.1780767434
 31
0.0
 11
10.7119239902
 21
16.1253667477
 31
0.0
 11
10.8292403348
 21
16.0594792531
 31
0.0
 11
10.9355108347
 21
15.9672367606
 31
0.0
 11
11.0236838055
 21
15.8539684059
 31
0.0
 11
11.0866644989
 21
15.7250033245
 31
0.0
 11
11.1370490536
 21
15.4199829817
 31
0.0
  0
SPLINE
  5
2D3
100
AcDbEntity
  8
0
100
AcDbSpline
 62
253
  6
CONTINUOUS
 70
0
 71
3
 72
20
 73
16
 74
14
 42
0.0000001
 43
0.0000001
 44
0.0000000001
 12
0.0
 22
-2.3189221271
 32
0.0
 13
-0.312202407
 23
2.2978097155
 33
0.0
 40
0.0
 40
0.0
 40
0.0
 40
0.0
 40
0.1158276247
 40
0.1725854593
 40
0.2304562436
 40
0.3077693057
 40
0.3816184557
 40
0.4566499882
 40
0.5373156997
 40
0.6021872706
 40
0.6621935256
 40
0.7191100503
 40
0.7750029602
 40
0.8844202106
 40
1.0
 40
1.0
 40
1.0
 40
1.0
 10
11.1370490536
 20
15.4199829817
 30
0.0
 10
11.1370490536
 20
15.3304512345
 30
0.0
 10
11.1175887746
 20
15.1954963107
 30
0.0
 10
11.0482680227
 20
15.03067225
 30
0.0
 10
10.9692370501
 20
14.9044550116
 30
0.0
 10
10.8595276879
 20
14.7838583859
 30
0.0
 10
10.711966041
 20
14.6865209745
 30
0.0
 10
10.5420083049
 20
14.6293525802
 30
0.0
 10
10.3709640411
 20
14.6142081964
 30
0.0
 10
10.2119635345
 20
14.6247240833
 30
0.0
 10
10.0742509602
 20
14.6559774155
 30
0.0
 10
9.9508342069
 20
14.7093565386
 30
0.0
 10
9.8090171786
 20
14.8078740826
 30
0.0
 10
9.6691805711
 20
14.981706003
 30
0.0
 10
9.6204872745
 20
15.1531723851
 30
0.0
 10
9.6084591784
 20
15.2416991728
 30
0.0
 11
11.1370490536
 21
15.4199829817
 31
0.0
 11
11.0963107726
 21
15.1544951358
 31
0.0
 11
11.0454848147
 21
15.0330877376
 31
0.0
 11
10.9744404394
 21
14.9192380226
 31
0.0
 11
10.8526669996
 21
14.7876568201
 31
0.0
 11
10.7095124218
 21
14.6936702469
 31
0.0
 11
10.5449121105
 21
14.637278303
 31
0.0
 11
10.35880147
 21
14.6184809884
 31
0.0
 11
10.2087405479
 21
14.6290423662
 31
0.0
 11
10.0732459296
 21
14.6607264996
 31
0.0
 11
9.9522853176
 21
14.7135333887
 31
0.0
 11
9.8458264139
 21
14.7874630334
 31
0.0
 11
9.6872227259
 21
14.9855130907
 31
0.0
 11
9.6084591784
 21
15.2416991728
 31
0.0
  0
SPLINE
  5
2D4
100
AcDbEntity
  8
0
100
AcDbSpline
 62
253
  6
CONTINUOUS
 70
0
 71
3
 72
19
 73
15
 74
13
 42
0.0000001
 43
0.0000001
 44
0.0000000001
 12
0.1373533945
 22
-1.12774366
 32
0.0
 13
-0.1664340592
 23
1.1249120824
 33
0.0
 40
0.0
 40
0.0
 40
0.0
 40
0.0
 40
0.2369459995
 40
0.3398317338
 40
0.390951497
 40
0.4445094806
 40
0.5016364437
 40
0.5565413167
 40
0.6694244982
 40
0.7299540734
 40
0.7921728381
 40
0.8585870434
 40
0.9312582854
 40
1.0
 40
1.0
 40
1.0
 40
1.0
 10
11.7743921388
 20
15.3114624024
 30
0.0
 10
11.7852405846
 20
15.2223909528
 30
0.0
 10
11.8328865355
 20
15.0878194554
 30
0.0
 10
11.960787885
 20
15.0045489476
 30
0.0
 10
12.0368032252
 20
14.9829662106
 30
0.0
 10
12.0982046229
 20
14.977865607
 30
0.0
 10
12.1610616641
 20
14.9836445884
 30
0.0
 10
12.2428321009
 20
15.009810783
 30
0.0
 10
12.3136050485
 20
15.064503924
 30
0.0
 10
12.3664665002
 20
15.136898304
 30
0.0
 10
12.3955652416
 20
15.2029779223
 30
0.0
 10
12.4125542883
 20
15.2776758147
 30
0.0
 10
12.4175686235
 20
15.3564838592
 30
0.0
 10
12.414186988
 20
15.4100973667
 30
0.0
 10
12.4103733338
 20
15.4358734952
 30
0.0
 11
11.7743921388
 21
15.3114624024
 31
0.0
 11
11.8825682084
 21
15.0649656578
 31
0.0
 11
11.9804089847
 21
15.0010160307
 31
0.0
 11
12.0362411003
 21
14.9850286239
 31
0.0
 11
12.0968532889
 21
14.9796994883
 31
0.0
 11
12.161438106
 21
14.986094451
 31
0.0
 11
12.2207906808
 21
15.0052793391
 31
0.0
 11
12.3235407214
 21
15.0820188917
 31
0.0
 11
12.3639829393
 21
15.1376356886
 31
0.0
 11
12.3928302501
 21
15.202166676
 31
0.0
 11
12.4101149515
 21
15.2756118538
 31
0.0
 11
12.4158693413
 21
15.3579712221
 31
0.0
 11
12.4103733338
 21
15.4358734952
 31
0.0
  0
SPLINE
  5
2D5
100
AcDbEntity
  8
0
100
AcDbSpline
 62
253
  6
CONTINUOUS
 70
0
 71
3
 72
17
 73
13
 74
11
 42
0.0000001
 43
0.0000001
 44
0.0000000001
 12
0.9088648836
 22
-0.0239174969
 32
0.0
 13
-0.9103001459
 23
0.0257902793
 33
0.0
 40
0.0
 40
0.0
 40
0.0
 40
0.0
 40
0.3081312368
 40
0.4374624432
 40
0.5034674525
 40
0.5742662355
 40
0.6343431626
 40
0.6896610765
 40
0.7939583075
 40
0.8978172331
 40
0.9525570283
 40
1.0
 40
1.0
 40
1.0
 40
1.0
 10
11.9604274177
 20
16.0369999902
 30
0.0
 10
12.0537773046
 20
16.0345434142
 30
0.0
 10
12.2022480402
 20
16.0607978785
 30
0.0
 10
12.2963434328
 20
16.1891321205
 30
0.0
 10
12.3194116181
 20
16.2669334297
 30
0.0
 10
12.3243720638
 20
16.3267628898
 30
0.0
 10
12.3203586855
 20
16.3832690067
 30
0.0
 10
12.3039092189
 20
16.4481596541
 30
0.0
 10
12.2597454495
 20
16.517839748
 30
0.0
 10
12.1903580423
 20
16.5621359245
 30
0.0
 10
12.1295495355
 20
16.5777298552
 30
0.0
 10
12.098624232
 20
16.5806120685
 30
0.0
 10
12.0842284507
 20
16.5810199243
 30
0.0
 11
11.9604274177
 21
16.0369999902
 31
0.0
 11
12.2298340624
 21
16.1138256702
 31
0.0
 11
12.299597292
 21
16.2084797311
 31
0.0
 11
12.3170380994
 21
16.2658998214
 31
0.0
 11
12.3228517019
 21
16.3300055545
 31
0.0
 11
12.3185883934
 21
16.3844596309
 31
0.0
 11
12.305798468
 21
16.4331001049
 31
0.0
 11
12.2546387663
 21
16.5129402455
 31
0.0
 11
12.1752723267
 21
16.5640999472
 31
0.0
 11
12.1271755322
 21
16.5768898726
 31
0.0
 11
12.0842284507
 21
16.5810199243
 31
0.0
  0
SPLINE
  5
2D6
100
AcDbEntity
  8
0
100
AcDbSpline
 62
253
  6
CONTINUOUS
 70
0
 71
3
 72
23
 73
19
 74
17
 42
0.0000001
 43
0.0000001
 44
0.0000000001
 12
0.4171411145
 22
2.0548062308
 32
0.0
 13
-0.3980664837
 23
-2.0658094174
 33
0.0
 40
0.0
 40
0.0
 40
0.0
 40
0.0
 40
0.0919092227
 40
0.1690858178
 40
0.2403733267
 40
0.3158693996
 40
0.3965134994
 40
0.4384524978
 40
0.4821351561
 40
0.5551279832
 40
0.6228077352
 40
0.6879667447
 40
0.7537192802
 40
0.8067302789
 40
0.8565997001
 40
0.9051524208
 40
0.9543689664
 40
1.0
 40
1.0
 40
1.0
 40
1.0
 10
11.3850960921
 20
16.3455084944
 30
0.0
 10
11.3978757973
 20
16.4084603756
 30
0.0
 10
11.4286385769
 20
16.5230282631
 30
0.0
 10
11.5023403107
 20
16.6759398586
 30
0.0
 10
11.6103134792
 20
16.7924295328
 30
0.0
 10
11.7474693285
 20
16.8759846047
 30
0.0
 10
11.880310771
 20
16.9192019297
 30
0.0
 10
11.9954133993
 20
16.9365077108
 30
0.0
 10
12.1062938859
 20
16.9416109376
 30
0.0
 10
12.2354454023
 20
16.9317967416
 30
0.0
 10
12.3751405447
 20
16.8934887742
 30
0.0
 10
12.4990221854
 20
16.8282604389
 30
0.0
 10
12.5969444591
 20
16.7435007624
 30
0.0
 10
12.6718954721
 20
16.6519058858
 30
0.0
 10
12.7232453159
 20
16.5585869051
 30
0.0
 10
12.7539167903
 20
16.4592683232
 30
0.0
 10
12.7634468445
 20
16.3589508817
 30
0.0
 10
12.7574719965
 20
16.2922944024
 30
0.0
 10
12.7514172682
 20
16.2608727294
 30
0.0
 11
11.3850960921
 21
16.3455084944
 31
0.0
 11
11.4375477055
 21
16.5309408812
 31
0.0
 11
11.5111866701
 21
16.675032095
 31
0.0
 11
11.6124725442
 21
16.7849522453
 31
0.0
 11
11.7468313567
 21
16.868646589
 31
0.0
 11
11.907415976
 21
16.9215934351
 31
0.0
 11
11.9943454817
 21
16.9348489871
 31
0.0
 11
12.0858289761
 21
16.939271093
 31
0.0
 11
12.2383391475
 21
16.9264811676
 31
0.0
 11
12.3749588055
 21
16.8881113913
 31
0.0
 11
12.49568795
 21
16.8241617642
 31
0.0
 11
12.6005265812
 21
16.7346322862
 31
0.0
 11
12.670413619
 21
16.6482033962
 31
0.0
 11
12.7203729194
 21
16.5563484772
 31
0.0
 11
12.7503721847
 21
16.4590675293
 31
0.0
 11
12.7603791171
 21
16.3563605524
 31
0.0
 11
12.7514172682
 21
16.2608727294
 31
0.0
  0
SPLINE
  5
2D7
100
AcDbEntity
  8
0
100
AcDbSpline
 62
253
  6
CONTINUOUS
 70
0
 71
3
 72
22
 73
18
 74
16
 42
0.0000001
 43
0.0000001
 44
0.0000000001
 12
2.0718080237
 22
-0.4439588622
 32
0.0
 13
-2.0688113235
 23
0.4707279581
 33
0.0
 40
0.0
 40
0.0
 40
0.0
 40
0.0
 40
0.0888867179
 40
0.174562708
 40
0.2610681016
 40
0.3055941137
 40
0.352593378
 40
0.420896839
 40
0.4865872934
 40
0.5525589286
 40
0.6216791482
 40
0.6916283897
 40
0.7601654387
 40
0.8300880026
 40
0.9040327981
 40
0.9738495334
 40
1.0
 40
1.0
 40
1.0
 40
1.0
 10
12.4330948301
 20
15.8788700031
 30
0.0
 10
12.4944802352
 20
15.8657159877
 30
0.0
 10
12.6128581641
 20
15.8221585296
 30
0.0
 10
12.7539021375
 20
15.6975312324
 30
0.0
 10
12.8291276699
 20
15.560313897
 30
0.0
 10
12.8579265823
 20
15.4373257208
 30
0.0
 10
12.8655032523
 20
15.3243227612
 30
0.0
 10
12.8538718894
 20
15.19618904
 30
0.0
 10
12.8123913321
 20
15.0600688876
 30
0.0
 10
12.7422099018
 20
14.9355980255
 30
0.0
 10
12.6465538146
 20
14.825759663
 30
0.0
 10
12.5315366945
 20
14.733384765
 30
0.0
 10
12.3993947558
 20
14.6661475007
 30
0.0
 10
12.2537091466
 20
14.6263992599
 30
0.0
 10
12.1025152282
 20
14.6147477625
 30
0.0
 10
11.9823595409
 20
14.6231662582
 30
0.0
 10
11.9156555772
 20
14.6359222695
 30
0.0
 10
11.8976221167
 20
14.6400255214
 30
0.0
 11
12.4330948301
 21
15.8788700031
 31
0.0
 11
12.6087948158
 21
15.811044641
 31
0.0
 11
12.745220687
 21
15.6912844302
 31
0.0
 11
12.8331137435
 21
15.5304414286
 31
0.0
 11
12.8550493269
 21
15.438683403
 31
0.0
 11
12.8623540108
 21
15.3393676942
 31
0.0
 11
12.8487189598
 21
15.1952872464
 31
0.0
 11
12.807792275
 21
15.0622526433
 31
0.0
 11
12.7395416587
 21
14.9402638849
 31
0.0
 11
12.6439348129
 21
14.8293209711
 31
0.0
 11
12.5279265289
 21
14.7370784787
 31
0.0
 11
12.3985146614
 21
14.671190984
 31
0.0
 11
12.2557315082
 21
14.6316584873
 31
0.0
 11
12.0996093671
 21
14.6184809884
 31
0.0
 11
11.9520945875
 21
14.6295645138
 31
0.0
 11
11.8976221167
 21
14.6400255214
 31
0.0
  0
SPLINE
  5
2D8
100
AcDbEntity
  8
0
100
AcDbSpline
 62
253
  6
CONTINUOUS
 70
0
 71
3
 72
23
 73
19
 74
17
 42
0.0000001
 43
0.0000001
 44
0.0000000001
 12
3.1047778646
 22
0.0
 32
0.0
 13
-3.1123346657
 23
0.007498914
 33
0.0
 40
0.0
 40
0.0
 40
0.0
 40
0.0
 40
0.0965602262
 40
0.1879851958
 40
0.2489394948
 40
0.3196849657
 40
0.4026953879
 40
0.4493235896
 40
0.4995416312
 40
0.5496583938
 40
0.5962333592
 40
0.6792866489
 40
0.750282668
 40
0.8116928549
 40
0.8579900021
 40
0.9030731832
 40
0.9495999467
 40
1.0
 40
1.0
 40
1.0
 40
1.0
 10
13.8703896147
 20
16.939271093
 30
0.0
 10
13.970322299
 20
16.939271093
 30
0.0
 10
14.1701166926
 20
16.9064211824
 30
0.0
 10
14.3783208143
 20
16.7366210352
 30
0.0
 10
14.4944007179
 20
16.5347598136
 30
0.0
 10
14.5617743783
 20
16.3216237201
 30
0.0
 10
14.5932241571
 20
16.1160590919
 30
0.0
 10
14.6062681665
 20
15.9303249039
 30
0.0
 10
14.6094009934
 20
15.7782061589
 30
0.0
 10
14.6062575314
 20
15.6261399866
 30
0.0
 10
14.593136792
 20
15.4405338144
 30
0.0
 10
14.5614357456
 20
15.234700274
 30
0.0
 10
14.4936519075
 20
15.0210606866
 30
0.0
 10
14.4004382108
 20
14.8589781207
 30
0.0
 10
14.2881530061
 20
14.7455090183
 30
0.0
 10
14.1649466437
 20
14.6706059504
 30
0.0
 10
14.0231967937
 20
14.6269312206
 30
0.0
 10
13.9226768924
 20
14.6183550065
 30
0.0
 10
13.8703896147
 20
14.6184809884
 30
0.0
 11
13.8703896147
 21
16.939271093
 31
0.0
 11
14.1643425809
 21
16.8803599213
 31
0.0
 11
14.3864652589
 21
16.7036264064
 31
0.0
 11
14.4834824415
 21
16.5411362174
 31
0.0
 11
14.5528204169
 21
16.332718569
 31
0.0
 11
14.5944468871
 21
16.0783734611
 31
0.0
 11
14.6048582148
 21
15.9339781098
 31
0.0
 11
14.6083295545
 21
15.7781008937
 31
0.0
 11
14.604841393
 21
15.622538581
 31
0.0
 11
14.5943769086
 21
15.4783127932
 31
0.0
 11
14.5525189708
 21
15.2238707919
 31
0.0
 11
14.4827557412
 21
15.0147748898
 31
0.0
 11
14.3850872198
 21
14.851025087
 31
0.0
 11
14.2835429634
 21
14.7492870439
 31
0.0
 11
14.1639119437
 21
14.676617013
 31
0.0
 11
14.0261941608
 21
14.6330149945
 31
0.0
 11
13.8703896147
 21
14.6184809884
 31
0.0
  0
SPLINE
  5
2D9
100
AcDbEntity
  8
0
100
AcDbSpline
 62
253
  6
CONTINUOUS
 70
0
 71
3
 72
19
 73
15
 74
13
 42
0.0000001
 43
0.0000001
 44
0.0000000001
 12
-1.5540987295
 22
1.9495436989
 32
0.0
 13
2.4931793949
 23
0.0
 33
0.0
 40
0.0
 40
0.0
 40
0.0
 40
0.0
 40
0.0707429358
 40
0.1557918581
 40
0.2581196566
 40
0.3163433428
 40
0.3794570203
 40
0.4415764564
 40
0.4993247169
 40
0.6023682368
 40
0.6905590307
 40
0.7669669235
 40
0.8797795337
 40
1.0
 40
1.0
 40
1.0
 40
1.0
 10
13.3353659329
 20
14.8735904773
 30
0.0
 10
13.298718764
 20
14.9195626256
 30
0.0
 10
13.2351527941
 20
15.0344939745
 30
0.0
 10
13.1744446801
 20
15.2411941186
 30
0.0
 10
13.1461196176
 20
15.4439068102
 30
0.0
 10
13.1343257761
 20
15.6294397166
 30
0.0
 10
13.1314280546
 20
15.7819246177
 30
0.0
 10
13.1345053607
 20
15.9340187766
 30
0.0
 10
13.1476641281
 20
16.1188545488
 30
0.0
 10
13.1793131445
 20
16.3239542974
 30
0.0
 10
13.2473615838
 20
16.5370362314
 30
0.0
 10
13.3629005709
 20
16.7388379961
 30
0.0
 10
13.5715487754
 20
16.9074895208
 30
0.0
 10
13.7704792182
 20
16.939271093
 30
0.0
 10
13.8703896147
 20
16.939271093
 30
0.0
 11
13.3353659329
 21
14.8735904773
 31
0.0
 11
13.2465416234
 21
15.0259660746
 31
0.0
 11
13.1831356757
 21
15.2283063552
 31
0.0
 11
13.1451157922
 21
15.4805790215
 31
0.0
 11
13.1356155314
 21
15.6254299062
 31
0.0
 11
13.132449675
 21
15.7827517757
 31
0.0
 11
13.1359378365
 21
15.937587388
 31
0.0
 11
13.1464023209
 21
16.0811833689
 31
0.0
 11
13.1882602587
 21
16.3346564365
 31
0.0
 11
13.2580234883
 21
16.5431709783
 31
0.0
 11
13.3556920097
 21
16.7067269943
 31
0.0
 11
13.5763505211
 21
16.8811350683
 31
0.0
 11
13.8703896147
 21
16.939271093
 31
0.0
  0
SPLINE
  5
2DA
100
AcDbEntity
  8
0
100
AcDbSpline
 62
253
  6
CONTINUOUS
 70
0
 71
3
 72
20
 73
16
 74
14
 42
0.0000001
 43
0.0000001
 44
0.0000000001
 12
-1.4810956398
 22
0.0
 32
0.0
 13
0.3853113033
 23
-1.4300977218
 33
0.0
 40
0.0
 40
0.0
 40
0.0
 40
0.0
 40
0.1012731629
 40
0.1615539418
 40
0.2409742425
 40
0.3090791031
 40
0.3958923834
 40
0.5018317869
 40
0.5620517279
 40
0.6271301034
 40
0.6920062349
 40
0.7516165466
 40
0.8550973971
 40
0.9377646391
 40
1.0
 40
1.0
 40
1.0
 40
1.0
 10
13.8703896147
 20
16.5780525931
 30
0.0
 10
13.8203912014
 20
16.5780525931
 30
0.0
 10
13.7362334679
 20
16.5495363672
 30
0.0
 10
13.6648356158
 20
16.4511323595
 30
0.0
 10
13.6320159604
 20
16.3529488701
 30
0.0
 10
13.610316697
 20
16.2392489196
 30
0.0
 10
13.5972882942
 20
16.1109786401
 30
0.0
 10
13.5909542661
 20
15.9862287679
 30
0.0
 10
13.5883102751
 20
15.8720904952
 30
0.0
 10
13.5876842103
 20
15.7782010479
 30
0.0
 10
13.5882703378
 20
15.6846107961
 30
0.0
 10
13.5906580736
 20
15.5720897962
 30
0.0
 10
13.5962334867
 20
15.4508347731
 30
0.0
 10
13.6080648604
 20
15.3287577062
 30
0.0
 10
13.6205504228
 20
15.2581030957
 30
0.0
 10
13.6285437521
 20
15.2284355464
 30
0.0
 11
13.8703896147
 21
16.5780525931
 31
0.0
 11
13.7291406067
 21
16.5275819109
 31
0.0
 11
13.67410517
 21
16.4572803848
 31
0.0
 11
13.6330223792
 21
16.3470587884
 31
0.0
 11
13.6133261094
 21
16.2481306531
 31
0.0
 11
13.5992173575
 21
16.1203282922
 31
0.0
 11
13.5907284213
 21
15.9636517057
 31
0.0
 11
13.5886014771
 21
15.8744855779
 31
0.0
 11
13.5878915986
 21
15.7781008937
 31
0.0
 11
13.5885362087
 21
15.6820153005
 31
0.0
 11
13.590464656
 21
15.5937477914
 31
0.0
 11
13.5981407644
 21
15.4406751002
 31
0.0
 11
13.6108553283
 21
15.3188989689
 31
0.0
 11
13.6285437521
 21
15.2284355464
 31
0.0
  0
SPLINE
  5
2DB
100
AcDbEntity
  8
0
100
AcDbSpline
 62
253
  6
CONTINUOUS
 70
0
 71
3
 72
25
 73
21
 74
19
 42
0.0000001
 43
0.0000001
 44
0.0000000001
 12
0.4835465329
 22
-1.7947015549
 32
0.0
 13
-0.4827691205
 23
1.7949108326
 33
0.0
 40
0.0
 40
0.0
 40
0.0
 40
0.0
 40
0.0713419314
 40
0.1214512505
 40
0.1620399815
 40
0.2029020276
 40
0.2435946031
 40
0.2846487036
 40
0.3327195944
 40
0.3960486306
 40
0.4499540802
 40
0.518864692
 40
0.6031223141
 40
0.6510686488
 40
0.702912892
 40
0.7546051627
 40
0.8020951724
 40
0.8845253205
 40
0.9503808095
 40
1.0
 40
1.0
 40
1.0
 40
1.0
 10
13.6285437521
 20
15.2284355464
 30
0.0
 10
13.6400428
 20
15.185756388
 30
0.0
 10
13.6629339595
 20
15.1137249266
 30
0.0
 10
13.7208633491
 20
15.0282216807
 30
0.0
 10
13.7943304573
 20
14.9878413604
 30
0.0
 10
13.8702741854
 20
14.9755731563
 30
0.0
 10
13.9465675034
 20
14.9880713507
 30
0.0
 10
14.0185885685
 20
15.0283368983
 30
0.0
 10
14.0757451783
 20
15.1065596127
 30
0.0
 10
14.1082726699
 20
15.2045631752
 30
0.0
 10
14.1301297781
 20
15.3178776386
 30
0.0
 10
14.1429519096
 20
15.4456810662
 30
0.0
 10
14.1492002511
 20
15.5701438911
 30
0.0
 10
14.1517899801
 20
15.6841521698
 30
0.0
 10
14.1523985715
 20
15.7780064152
 30
0.0
 10
14.1518384843
 20
15.8715798022
 30
0.0
 10
14.1495518821
 20
15.9840765284
 30
0.0
 10
14.1441706474
 20
16.1053048924
 30
0.0
 10
14.1325931182
 20
16.2273931182
 30
0.0
 10
14.1202203483
 20
16.2980789001
 30
0.0
 10
14.1122354773
 20
16.327766241
 30
0.0
 11
13.6285437521
 21
15.2284355464
 31
0.0
 11
13.6740190425
 21
15.1038737306
 31
0.0
 11
13.7298296262
 21
15.029308896
 31
0.0
 11
13.7954587385
 21
14.9921018402
 31
0.0
 11
13.8703896147
 21
14.9796994883
 31
0.0
 11
13.9449759812
 21
14.9922525632
 31
0.0
 11
14.011294113
 21
15.0299979155
 31
0.0
 11
14.0663295497
 21
15.1003855691
 31
0.0
 11
14.1074123405
 21
15.2106932929
 31
0.0
 11
14.1270547807
 21
15.3089431746
 31
0.0
 11
14.1410451073
 21
15.4362610686
 31
0.0
 11
14.1494156183
 21
15.592646975
 31
0.0
 11
14.151503536
 21
15.6817404328
 31
0.0
 11
14.1521986113
 21
15.7781008937
 31
0.0
 11
14.1515836076
 21
15.8741794218
 31
0.0
 11
14.1497332133
 21
15.9624297726
 31
0.0
 11
14.1422939553
 21
16.1154620916
 31
0.0
 11
14.1298162418
 21
16.2372301485
 31
0.0
 11
14.1122354773
 21
16.327766241
 31
0.0
  0
SPLINE
  5
2DC
100
AcDbEntity
  8
0
100
AcDbSpline
 62
253
  6
CONTINUOUS
 70
0
 71
3
 72
11
 73
7
 74
5
 42
0.0000001
 43
0.0000001
 44
0.0000000001
 12
-0.0984274791
 22
0.364686429
 32
0.0
 13
-0.3777355691
 23
0.0
 33
0.0
 40
0.0
 40
0.0
 40
0.0
 40
0.0
 40
0.3514580511
 40
0.6000573051
 40
0.8004028285
 40
1.0
 40
1.0
 40
1.0
 40
1.0
 10
14.1122354773
 20
16.327766241
 30
0.0
 10
14.100704434
 20
16.3704902348
 30
0.0
 10
14.0775787246
 20
16.4428265511
 30
0.0
 10
14.0192428458
 20
16.5283809739
 30
0.0
 10
13.9462265875
 20
16.5696391334
 30
0.0
 10
13.8955212651
 20
16.5780525931
 30
0.0
 10
13.8703896147
 20
16.5780525931
 30
0.0
 11
14.1122354773
 21
16.327766241
 31
0.0
 11
14.0665448683
 21
16.4524141842
 31
0.0
 11
14.0102605837
 21
16.5275819109
 31
0.0
 11
13.9447175989
 21
16.5654133907
 31
0.0
 11
13.8703896147
 21
16.5780525931
 31
0.0
  0
SPLINE
  5
2DD
100
AcDbEntity
  8
0
100
AcDbSpline
 62
253
  6
CONTINUOUS
 70
0
 71
3
 72
17
 73
13
 74
11
 42
0.0000001
 43
0.0000001
 44
0.0000000001
 12
1.1101102443
 22
-0.0002255282
 32
0.0
 13
-1.1101574807
 23
-0.0002273118
 33
0.0
 40
0.0
 40
0.0
 40
0.0
 40
0.0
 40
0.0684959953
 40
0.1307643627
 40
0.249035943
 40
0.3717405446
 40
0.4991893454
 40
0.6277367474
 40
0.7507180891
 40
0.8691909698
 40
0.931500463
 40
1.0
 40
1.0
 40
1.0
 40
1.0
 10
-5.6860523181
 20
1.5352054878
 30
0.0
 10
-5.6607062827
 20
1.5352003386
 30
0.0
 10
-5.6123180556
 20
1.5299655233
 30
0.0
 10
-5.5254909165
 20
1.4969709624
 30
0.0
 10
-5.44092224
 20
1.4170036535
 30
0.0
 10
-5.3867059603
 20
1.2896912826
 30
0.0
 10
-5.3695286635
 20
1.1496467853
 30
0.0
 10
-5.3865389073
 20
1.0094432537
 30
0.0
 10
-5.4409161769
 20
0.8815783911
 30
0.0
 10
-5.5254502366
 20
0.8013127792
 30
0.0
 10
-5.6122970716
 20
0.7680948657
 30
0.0
 10
-5.6607038936
 20
0.7628197607
 30
0.0
 10
-5.6860523181
 20
0.7628145705
 30
0.0
 11
-5.6860523181
 21
1.5352054878
 31
0.0
 11
-5.6107809693
 21
1.5263989567
 31
0.0
 11
-5.546515093
 21
1.501572721
 31
0.0
 11
-5.4498047394
 21
1.4134212821
 31
0.0
 11
-5.3935312207
 21
1.2898714637
 31
0.0
 11
-5.3753045003
 21
1.1500435585
 31
0.0
 11
-5.393495011
 21
1.0089852796
 31
0.0
 11
-5.4498047394
 21
0.8851155409
 31
0.0
 11
-5.5465223349
 21
0.7966417356
 31
0.0
 11
-5.610783685
 21
0.7716778521
 31
0.0
 11
-5.6860523181
 21
0.7628145705
 31
0.0
  0
SPLINE
  5
2DE
100
AcDbEntity
  8
0
100
AcDbSpline
 62
253
  6
CONTINUOUS
 70
0
 71
3
 72
19
 73
15
 74
13
 42
0.0000001
 43
0.0000001
 44
0.0000000001
 12
-1.7730653366
 22
-0.0595601904
 32
0.0
 13
1.7743315159
 23
0.0000005949
 33
0.0
 40
0.0
 40
0.0
 40
0.0
 40
0.0
 40
0.0565300194
 40
0.1211879172
 40
0.2401651978
 40
0.3597197819
 40
0.4239764322
 40
0.492454777
 40
0.5612059193
 40
0.6256926399
 40
0.745561541
 40
0.8646631418
 40
0.9293356452
 40
1.0
 40
1.0
 40
1.0
 40
1.0
 10
-5.711122088
 20
1.7256458661
 30
0.0
 10
-5.7445325606
 20
1.7245235532
 30
0.0
 10
-5.8159529873
 20
1.7172086088
 30
0.0
 10
-5.9531545562
 20
1.6785625438
 30
0.0
 10
-6.1066368822
 20
1.5744745336
 30
0.0
 10
-6.197564672
 20
1.4141695098
 30
0.0
 10
-6.2329283395
 20
1.2689983105
 30
0.0
 10
-6.2415967292
 20
1.1498820606
 30
0.0
 10
-6.2329257762
 20
1.0306311134
 30
0.0
 10
-6.1975893915
 20
0.8849637322
 30
0.0
 10
-6.1067601269
 20
0.7241530271
 30
0.0
 10
-5.9532229098
 20
0.619616753
 30
0.0
 10
-5.8078902436
 20
0.578564922
 30
0.0
 10
-5.7278463153
 20
0.5719561407
 30
0.0
 10
-5.6860523181
 20
0.5719561547
 30
0.0
 11
-5.711122088
 21
1.7256458661
 31
0.0
 11
-5.8106868039
 21
1.7150476652
 31
0.0
 11
-5.9206419436
 21
1.6831509047
 31
0.0
 11
-6.0941241475
 21
1.5636275443
 31
0.0
 11
-6.2017188569
 21
1.3813172774
 31
0.0
 11
-6.2293146282
 21
1.2709368835
 31
0.0
 11
-6.2386459985
 21
1.1500435585
 31
0.0
 11
-6.2293146282
 21
1.0286657666
 31
0.0
 11
-6.2017188569
 21
0.9178655015
 31
0.0
 11
-6.0941241475
 21
0.7349092787
 31
0.0
 11
-5.9206419436
 21
0.6149983448
 31
0.0
 11
-5.8106868376
 21
0.5830087662
 31
0.0
 11
-5.6860523181
 21
0.5719561547
 31
0.0
  0
SPLINE
  5
2DF
100
AcDbEntity
  8
0
100
AcDbSpline
 62
253
  6
CONTINUOUS
 70
0
 71
3
 72
10
 73
6
 74
4
 42
0.0000001
 43
0.0000001
 44
0.0000000001
 12
-0.6131447127
 22
0.0014773217
 32
0.0
 13
-0.3807972404
 23
0.4786611622
 33
0.0
 40
0.0
 40
0.0
 40
0.0
 40
0.0
 40
0.2594068271
 40
0.5040791021
 40
1.0
 40
1.0
 40
1.0
 40
1.0
 10
6.8072501914
 20
14.6184809884
 30
0.0
 10
6.7542322165
 20
14.6186087308
 30
0.0
 10
6.6511699965
 20
14.6280181747
 30
0.0
 10
6.455901536
 20
14.6924990492
 30
0.0
 10
6.335174946
 20
14.7944644529
 30
0.0
 10
6.2722265096
 20
14.8735904773
 30
0.0
 11
6.8072501914
 21
14.6184809884
 31
0.0
 11
6.6493839696
 21
14.6344091825
 31
0.0
 11
6.5075697501
 21
14.6822152969
 31
0.0
 11
6.2722265096
 21
14.8735904773
 31
0.0
  0
SPLINE
  5
2E0
100
AcDbEntity
  8
0
100
AcDbSpline
 62
253
  6
CONTINUOUS
 70
0
 71
3
 72
15
 73
11
 74
9
 42
0.0000001
 43
0.0000001
 44
0.0000000001
 12
-0.1351981638
 22
0.8659199861
 32
0.0
 13
-0.5852981062
 23
-0.6523635142
 33
0.0
 40
0.0
 40
0.0
 40
0.0
 40
0.0
 40
0.0792582618
 40
0.2486979448
 40
0.4010352079
 40
0.4781480655
 40
0.5604570585
 40
0.6651822121
 40
0.7700442965
 40
1.0
 40
1.0
 40
1.0
 40
1.0
 10
10.6808299588
 20
15.5275185665
 30
0.0
 10
10.6772581017
 20
15.5503956708
 30
0.0
 10
10.6618397045
 20
15.6215354887
 30
0.0
 10
10.607712482
 20
15.7298890715
 30
0.0
 10
10.5095051319
 20
15.8007450718
 30
0.0
 10
10.4216680871
 20
15.8269044882
 30
0.0
 10
10.3443188418
 20
15.8334276297
 30
0.0
 10
10.2588024452
 20
15.8240099585
 30
0.0
 10
10.1370606554
 20
15.779832639
 30
0.0
 10
10.0595004166
 20
15.7149343359
 30
0.0
 10
10.014636204
 20
15.6649294323
 30
0.0
 11
10.6808299588
 21
15.5275185665
 31
0.0
 11
10.6655874254
 21
15.5953384576
 31
0.0
 11
10.595479686
 21
15.7262521724
 31
0.0
 11
10.4873897439
 21
15.8046281464
 31
0.0
 11
10.4227187994
 21
15.8242598207
 31
0.0
 11
10.3508777452
 21
15.8308108894
 31
0.0
 11
10.259679548
 21
15.8204432983
 31
0.0
 11
10.1731968283
 21
15.7893405251
 31
0.0
 11
10.014636204
 21
15.6649294323
 31
0.0
  0
SPLINE
  5
2E1
100
AcDbEntity
  8
0
100
AcDbSpline
 62
253
  6
CONTINUOUS
 70
0
 71
3
 72
12
 73
8
 74
6
 42
0.0000001
 43
0.0000001
 44
0.0000000001
 12
-0.0947254247
 22
0.640240196
 32
0.0
 13
-0.6226475916
 23
-0.1743413256
 33
0.0
 40
0.0
 40
0.0
 40
0.0
 40
0.0
 40
0.1102901141
 40
0.313053701
 40
0.5013834297
 40
0.6868974466
 40
1.0
 40
1.0
 40
1.0
 40
1.0
 10
12.4103733338
 20
15.4358734952
 30
0.0
 10
12.4068909078
 20
15.4594108832
 30
0.0
 10
12.3918706404
 20
15.5255444692
 30
0.0
 10
12.3362811636
 20
15.6216564129
 30
0.0
 10
12.2339231221
 20
15.6992633034
 30
0.0
 10
12.0838071533
 20
15.7255925254
 30
0.0
 10
11.9771802327
 20
15.7001782376
 30
0.0
 10
11.9121960491
 20
15.6819826662
 30
0.0
 11
12.4103733338
 21
15.4358734952
 31
0.0
 11
12.3938637794
 21
15.5052491513
 31
0.0
 11
12.3276748387
 21
15.6184206126
 31
0.0
 11
12.2295326163
 21
15.6905092832
 31
0.0
 11
12.1120117191
 21
15.71453884
 31
0.0
 11
11.9121960491
 21
15.6819826662
 31
0.0
  0
SPLINE
  5
2E2
100
AcDbEntity
  8
0
100
AcDbSpline
 62
253
  6
CONTINUOUS
 70
0
 71
3
 72
12
 73
8
 74
6
 42
0.0000001
 43
0.0000001
 44
0.0000000001
 12
-0.4678556966
 22
0.0132551106
 32
0.0
 13
-0.0516024158
 23
-0.4644217422
 33
0.0
 40
0.0
 40
0.0
 40
0.0
 40
0.0
 40
0.0230772781
 40
0.138580176
 40
0.2493637407
 40
0.4740373608
 40
1.0
 40
1.0
 40
1.0
 40
1.0
 10
12.0842284507
 20
16.5810199243
 30
0.0
 10
12.0806295054
 20
16.5811218883
 30
0.0
 10
12.0590036606
 20
16.5813850149
 30
0.0
 10
12.0200685144
 20
16.5782025405
 30
0.0
 10
11.95226247
 20
16.5584202924
 30
0.0
 10
11.8368827144
 20
16.4819760873
 30
0.0
 10
11.7958414717
 20
16.3587183872
 30
0.0
 10
11.7867944907
 20
16.2772955588
 30
0.0
 11
12.0842284507
 21
16.5810199243
 31
0.0
 11
12.0734266242
 21
16.5811531811
 31
0.0
 11
12.0196723332
 21
16.5763085123
 31
0.0
 11
11.969987564
 21
16.5617745062
 31
0.0
 11
11.8825682084
 21
16.5036384815
 31
0.0
 11
11.7867944907
 21
16.2772955588
 31
0.0
  0
SPLINE
  5
2E3
100
AcDbEntity
  8
0
100
AcDbSpline
 62
253
  6
CONTINUOUS
 70
0
 71
3
 72
10
 73
6
 74
4
 42
0.0000001
 43
0.0000001
 44
0.0000000001
 12
-0.0969906167
 22
-0.5033433799
 32
0.0
 13
-0.4485760449
 23
-0.2444845742
 33
0.0
 40
0.0
 40
0.0
 40
0.0
 40
0.0
 40
0.0936388783
 40
0.3696316321
 40
1.0
 40
1.0
 40
1.0
 40
1.0
 10
12.7514172682
 20
16.2608727294
 30
0.0
 10
12.748389904
 20
16.2451618929
 30
0.0
 10
12.7333012069
 20
16.1837828434
 30
0.0
 10
12.6571809197
 20
16.0283225238
 30
0.0
 10
12.5273508799
 20
15.9302417838
 30
0.0
 10
12.4330948301
 20
15.8788700031
 30
0.0
 11
12.7514172682
 21
16.2608727294
 31
0.0
 11
12.7399077003
 21
16.2143148654
 31
0.0
 11
12.6785149816
 21
16.0873845449
 31
0.0
 11
12.4330948301
 21
15.8788700031
 31
0.0
  0
SPLINE
  5
2E4
100
AcDbEntity
  8
0
100
AcDbSpline
 62
253
  6
CONTINUOUS
 70
0
 71
3
 72
13
 73
9
 74
7
 42
0.0000001
 43
0.0000001
 44
0.0000000001
 12
-0.8603531544
 22
0.1957608599
 32
0.0
 13
-0.0978272537
 23
0.8757117067
 33
0.0
 40
0.0
 40
0.0
 40
0.0
 40
0.0
 40
0.0943223974
 40
0.2456923375
 40
0.396696623
 40
0.5464632977
 40
0.6934678806
 40
1.0
 40
1.0
 40
1.0
 40
1.0
 10
11.8976221167
 20
14.6400255214
 30
0.0
 10
11.870571926
 20
14.6461803993
 30
0.0
 10
11.8009490379
 20
14.6658893195
 30
0.0
 10
11.6941584155
 20
14.7144021293
 30
0.0
 10
11.5860414399
 20
14.7928628925
 30
0.0
 10
11.4943918749
 20
14.8882740186
 30
0.0
 10
11.398452547
 20
15.0384758933
 30
0.0
 10
11.362707905
 20
15.1708247789
 30
0.0
 10
11.3527121732
 20
15.2603027007
 30
0.0
 11
11.8976221167
 21
14.6400255214
 31
0.0
 11
11.8176281157
 21
14.662836622
 31
0.0
 11
11.6963391427
 21
14.7183296107
 31
0.0
 11
11.5883568599
 21
14.7960757778
 31
0.0
 11
11.4972770879
 21
14.8915749642
 31
0.0
 11
11.4276430495
 21
15.000800712
 31
0.0
 11
11.3527121732
 21
15.2603027007
 31
0.0
  0
SPLINE
  5
2E5
100
AcDbEntity
  8
0
100
AcDbSpline
 62
253
  6
CONTINUOUS
 70
0
 71
3
 72
10
 73
6
 74
4
 42
0.0000001
 43
0.0000001
 44
0.0000000001
 12
-0.6131447127
 22
0.0014773217
 32
0.0
 13
-0.3807972404
 23
0.4786611622
 33
0.0
 40
0.0
 40
0.0
 40
0.0
 40
0.0
 40
0.2594068271
 40
0.5040791021
 40
1.0
 40
1.0
 40
1.0
 40
1.0
 10
13.8703896147
 20
14.6184809884
 30
0.0
 10
13.8173716399
 20
14.6186087308
 30
0.0
 10
13.7143094199
 20
14.6280181747
 30
0.0
 10
13.5190409594
 20
14.6924990492
 30
0.0
 10
13.3983143694
 20
14.7944644529
 30
0.0
 10
13.3353659329
 20
14.8735904773
 30
0.0
 11
13.8703896147
 21
14.6184809884
 31
0.0
 11
13.7125233929
 21
14.6344091825
 31
0.0
 11
13.5707091735
 21
14.6822152969
 31
0.0
 11
13.3353659329
 21
14.8735904773
 31
0.0
  0
SPLINE
  5
2E6
100
AcDbEntity
  8
RACCORDO
100
AcDbSpline
 62
7
  6
CONTINUOUS
 70
0
 71
3
 72
14
 73
10
 74
8
 42
0.0000001
 43
0.0000001
 44
0.0000000001
 12
0.512949738
 22
0.0
 32
0.0
 13
0.0
 23
0.512949738
 33
0.0
 40
0.0
 40
0.0
 40
0.0
 40
0.0
 40
0.374749678
 40
0.6923689726
 40
0.8148654973
 40
0.9073129952
 40
0.9416067295
 40
0.9679336905
 40
1.0
 40
1.0
 40
1.0
 40
1.0
 10
-51.0777027027
 20
-7.2660747285
 30
0.0
 10
-51.0136267863
 20
-7.2660747285
 30
0.0
 10
-50.8952293213
 20
-7.2629759096
 30
0.0
 10
-50.7562348215
 20
-7.2516603843
 30
0.0
 10
-50.6662297695
 20
-7.2370801769
 30
0.0
 10
-50.6248114412
 20
-7.2273088671
 30
0.0
 10
-50.6000407192
 20
-7.2179449582
 30
0.0
 10
-50.5864107552
 20
-7.2110068353
 30
0.0
 10
-50.5777027027
 20
-7.2027139179
 30
0.0
 10
-50.5777027027
 20
-7.1972311162
 30
0.0
 11
-51.0777027027
 21
-7.2660747285
 31
0.0
 11
-50.8855470243
 21
-7.260811385
 31
0.0
 11
-50.7233119255
 21
-7.2458584606
 31
0.0
 11
-50.661348489
 21
-7.2354318358
 31
0.0
 11
-50.615440916
 21
-7.2235474607
 31
0.0
 11
-50.599038099
 21
-7.217192184
 31
0.0
 11
-50.5872301297
 21
-7.2106392542
 31
0.0
 11
-50.5777027027
 21
-7.1972311162
 31
0.0
  0
SPLINE
  5
2E7
100
AcDbEntity
  8
RACCORDO
100
AcDbSpline
 62
7
  6
CONTINUOUS
 70
0
 71
3
 72
14
 73
10
 74
8
 42
0.0000001
 43
0.0000001
 44
0.0000000001
 12
0.512949738
 22
0.0
 32
0.0
 13
0.0
 23
-0.512949738
 33
0.0
 40
0.0
 40
0.0
 40
0.0
 40
0.0
 40
0.374749678
 40
0.6923689726
 40
0.8148654973
 40
0.9073129952
 40
0.9416067295
 40
0.9679336905
 40
1.0
 40
1.0
 40
1.0
 40
1.0
 10
-51.0777027027
 20
7.3284447908
 30
0.0
 10
-51.0136267863
 20
7.3284447908
 30
0.0
 10
-50.8952293213
 20
7.325345972
 30
0.0
 10
-50.7562348215
 20
7.3140304466
 30
0.0
 10
-50.6662297695
 20
7.2994502392
 30
0.0
 10
-50.6248114412
 20
7.2896789295
 30
0.0
 10
-50.6000407192
 20
7.2803150206
 30
0.0
 10
-50.5864107552
 20
7.2733768977
 30
0.0
 10
-50.5777027027
 20
7.2650839803
 30
0.0
 10
-50.5777027027
 20
7.2596011786
 30
0.0
 11
-51.0777027027
 21
7.3284447908
 31
0.0
 11
-50.8855470243
 21
7.3231814473
 31
0.0
 11
-50.7233119255
 21
7.308228523
 31
0.0
 11
-50.661348489
 21
7.2978018981
 31
0.0
 11
-50.615440916
 21
7.285917523
 31
0.0
 11
-50.599038099
 21
7.2795622464
 31
0.0
 11
-50.5872301297
 21
7.2730093165
 31
0.0
 11
-50.5777027027
 21
7.2596011786
 31
0.0
  0
SPLINE
  5
2E8
100
AcDbEntity
  8
RACCORDO
100
AcDbSpline
 62
7
  6
CONTINUOUS
 70
0
 71
3
 72
14
 73
10
 74
8
 42
0.0000001
 43
0.0000001
 44
0.0000000001
 12
-0.512949738
 22
0.0
 32
0.0
 13
0.0
 23
-0.512949738
 33
0.0
 40
0.0
 40
0.0
 40
0.0
 40
0.0
 40
0.374749678
 40
0.6923689726
 40
0.8148654973
 40
0.9073129952
 40
0.9416067295
 40
0.9679336905
 40
1.0
 40
1.0
 40
1.0
 40
1.0
 10
-69.3277027027
 20
7.3284447908
 30
0.0
 10
-69.3917786191
 20
7.3284447908
 30
0.0
 10
-69.5101760841
 20
7.325345972
 30
0.0
 10
-69.6491705839
 20
7.3140304466
 30
0.0
 10
-69.7391756359
 20
7.2994502392
 30
0.0
 10
-69.7805939642
 20
7.2896789295
 30
0.0
 10
-69.8053646862
 20
7.2803150206
 30
0.0
 10
-69.8189946502
 20
7.2733768977
 30
0.0
 10
-69.8277027027
 20
7.2650839803
 30
0.0
 10
-69.8277027027
 20
7.2596011786
 30
0.0
 11
-69.3277027027
 21
7.3284447908
 31
0.0
 11
-69.5198583812
 21
7.3231814473
 31
0.0
 11
-69.6820934799
 21
7.308228523
 31
0.0
 11
-69.7440569164
 21
7.2978018981
 31
0.0
 11
-69.7899644894
 21
7.285917523
 31
0.0
 11
-69.8063673064
 21
7.2795622464
 31
0.0
 11
-69.8181752757
 21
7.2730093165
 31
0.0
 11
-69.8277027027
 21
7.2596011786
 31
0.0
  0
SPLINE
  5
2E9
100
AcDbEntity
  8
RACCORDO
100
AcDbSpline
 62
7
  6
CONTINUOUS
 70
0
 71
3
 72
14
 73
10
 74
8
 42
0.0000001
 43
0.0000001
 44
0.0000000001
 12
-0.512949738
 22
0.0
 32
0.0
 13
0.0
 23
0.512949738
 33
0.0
 40
0.0
 40
0.0
 40
0.0
 40
0.0
 40
0.374749678
 40
0.6923689726
 40
0.8148654973
 40
0.9073129952
 40
0.9416067295
 40
0.9679336905
 40
1.0
 40
1.0
 40
1.0
 40
1.0
 10
-69.3277027027
 20
-7.2660747285
 30
0.0
 10
-69.3917786191
 20
-7.2660747285
 30
0.0
 10
-69.5101760841
 20
-7.2629759096
 30
0.0
 10
-69.6491705839
 20
-7.2516603843
 30
0.0
 10
-69.7391756359
 20
-7.2370801769
 30
0.0
 10
-69.7805939642
 20
-7.2273088671
 30
0.0
 10
-69.8053646862
 20
-7.2179449582
 30
0.0
 10
-69.8189946502
 20
-7.2110068353
 30
0.0
 10
-69.8277027027
 20
-7.2027139179
 30
0.0
 10
-69.8277027027
 20
-7.1972311162
 30
0.0
 11
-69.3277027027
 21
-7.2660747285
 31
0.0
 11
-69.5198583812
 21
-7.260811385
 31
0.0
 11
-69.6820934799
 21
-7.2458584606
 31
0.0
 11
-69.7440569164
 21
-7.2354318358
 31
0.0
 11
-69.7899644894
 21
-7.2235474607
 31
0.0
 11
-69.8063673064
 21
-7.217192184
 31
0.0
 11
-69.8181752757
 21
-7.2106392542
 31
0.0
 11
-69.8277027027
 21
-7.1972311162
 31
0.0
  0
ENDSEC
  0
SECTION
  2
OBJECTS
  0
DICTIONARY
  5
C
100
AcDbDictionary
280
0
281
1
  3
ACAD_GROUP
350
D
  3
ACAD_MLINESTYLE
350
17
  3
ACAD_LAYOUT
350
1A
  3
ACAD_PLOTSETTINGS
350
19
  3
ACAD_PLOTSTYLENAME
350
E
  0
DICTIONARY
  5
D
102
{ACAD_REACTORS
330
C
102
}
100
AcDbDictionary
280
0
281
1
  0
ACDBDICTIONARYWDFLT
  5
E
102
{ACAD_REACTORS
330
C
102
}
100
AcDbDictionary
281
1
  3
Normal
350
F
100
AcDbDictionaryWithDefault
340
F
  0
DICTIONARY
  5
17
102
{ACAD_REACTORS
330
C
102
}
100
AcDbDictionary
280
0
281
1
  3
Standard
350
18
  0
DICTIONARY
  5
19
102
{ACAD_REACTORS
330
C
102
}
100
AcDbDictionary
281
1
  0
DICTIONARY
  5
1A
102
{ACAD_REACTORS
330
C
102
}
100
AcDbDictionary
281
1
  3
Model
350
2EA
  3
Layout1
350
2EB
  0
ACDBPLACEHOLDER
  5
F
102
{ACAD_REACTORS
330
E
102
}
  0
MLINESTYLE
  5
18
102
{ACAD_REACTORS
330
17
102
}
100
AcDbMlineStyle
  2
STANDARD
 70
0
  3

 62
256
 51
90.0
 52
90.0
 71
2
 49
0.5
 62
256
  6
BYLAYER
 49
-0.5
 62
256
  6
BYLAYER
  0
LAYOUT
  5
2EA
102
{ACAD_REACTORS
330
1A
102
}
100
AcDbPlotSettings
  1

  2
none_device
  4
ISO_A4_(297.00_x_210.00_MM)
  6

 40
0.0
 41
0.0
 42
0.0
 43
0.0
 44
297.0
 45
210.0
 46
0.0
 47
0.0
 48
0.0
 49
0.0
140
0.0
141
0.0
142
1.0
143
1.0
 70
1024
 72
1
 73
0
 74
0
  7

 75
0
147
1.0
148
0.0
149
0.0
100
AcDbLayout
  1
Model
 70
0
 71
0
 10
0.0
 20
0.0
 11
297.0
 21
210.0
 12
0.0
 22
0.0
 32
0.0
 14
0.0
 24
0.0
 34
0.0
 15
0.0
 25
0.0
 35
0.0
146
0.0
 13
0.0
 23
0.0
 33
0.0
 16
1.0
 26
0.0
 36
0.0
 17
0.0
 27
1.0
 37
0.0
 76
0
330
20C
345
0
346
0
  0
LAYOUT
  5
2EB
102
{ACAD_REACTORS
330
1A
102
}
100
AcDbPlotSettings
  1

  2
none_device
  4
ISO_A4_(297.00_x_210.00_MM)
  6

 40
0.0
 41
0.0
 42
0.0
 43
0.0
 44
297.0
 45
210.0
 46
0.0
 47
0.0
 48
0.0
 49
0.0
140
0.0
141
0.0
142
1.0
143
1.0
 70
0
 72
1
 73
0
 74
0
  7

 75
0
147
1.0
148
0.0
149
0.0
100
AcDbLayout
  1
Layout1
 70
0
 71
1
 10
0.0
 20
0.0
 11
297.0
 21
210.0
 12
0.0
 22
0.0
 32
0.0
 14
0.0
 24
0.0
 34
0.0
 15
0.0
 25
0.0
 35
0.0
146
0.0
 13
0.0
 23
0.0
 33
0.0
 16
1.0
 26
0.0
 36
0.0
 17
0.0
 27
1.0
 37
0.0
 76
0
330
20D
345
0
346
0
  0
ENDSEC
  0
EOF
