  0
SECTION
  2
HEADER
  9
$ACADVER
  1
AC1024
  9
$DWGCODEPAGE
  3
ANSI_1252
  9
$EXTMAX
 10
297.0
 20
210.0
 30
0.0
  9
$EXTMIN
 10
0.0
 20
0.0
 30
0.0
  9
$LIMMIN
 10
0.0
 20
0.0
  9
$LIMMAX
 10
297.0
 20
210.0
  9
$VIEWCTR
 10
148.5
 20
105.0
  9
$VIEWSIZE
 40
210.0
  9
$CLAYER
  8
0
  9
$LTSCALE
 40
16.335
  9
$CELTYPE
  6
BYLAYER
  9
$DIMSCALE
 40
1.0
  9
$DIMASZ
 40
3.0
  9
$DIMEXO
 40
0.5
  9
$DIMDLI
 40
11.286
  9
$DIMEXE
 40
1.5
  9
$DIMCEN
 40
2.673
  9
$DIMLFAC
 40
1.0
  9
$DIMBLK
  1
_FILLED
  9
$DIMALT
 70
0
  9
$DIMALTF
 40
0.0393700787
  9
$DIMTXT
 40
3.0
  9
$DIMTOL
 70
1
  9
$DIMLIM
 70
0
  9
$DIMTFAC
 40
1.0
  9
$DIMTP
 40
0.01
  9
$DIMTM
 40
0.01
  9
$DIMGAP
 40
0.625
  9
$DIMDSEP
 70
44
  9
$AUNITS
 70
0
  9
$PDMODE
 70
3
  9
$PDSIZE
 40
3.0
  9
$HANDSEED
  5
6EF
  9
$TILEMODE
 70
1
  9
$MEASUREMENT
 70
1
  9
$INSUNITS
 70
4
  0
ENDSEC
  0
SECTION
  2
CLASSES
  0
CLASS
  1
ACDBDICTIONARYWDFLT
  2
AcDbDictionaryWithDefault
  3
AutoCAD 2000
 90
0
 91
1
280
0
281
0
  0
CLASS
  1
ACDBPLACEHOLDER
  2
AcDbPlaceHolder
  3
AutoCAD 2000
 90
0
 91
1
280
0
281
0
  0
CLASS
  1
LAYOUT
  2
AcDbLayout
  3
AutoCAD 2000
 90
0
 91
0
280
0
281
0
  0
ENDSEC
  0
SECTION
  2
TABLES
  0
TABLE
  2
VPORT
  5
8
100
AcDbSymbolTable
 70
2
  0
VPORT
  5
1F4
100
AcDbSymbolTableRecord
100
AcDbViewportTableRecord
  2
*ACTIVE
 70
0
 10
0.0
 20
0.0
 11
1.0
 21
1.0
 12
148.5
 22
105.0
 13
0.0
 23
0.0
 14
1.0
 24
1.0
 15
0.0
 25
0.0
 16
0.0
 26
0.0
 36
1.0
 17
0.0
 27
0.0
 37
0.0
 40
210.0
 41
1.4142857143
 42
50.0
 43
0.0
 44
0.0
 50
0.0
 51
0.0
 71
0
 72
100
 73
1
 74
1
 75
0
 76
0
 77
0
 78
0
  0
ENDTAB
  0
TABLE
  2
LTYPE
  5
5
100
AcDbSymbolTable
 70
6
  0
LTYPE
  5
14
100
AcDbSymbolTableRecord
100
AcDbLinetypeTableRecord
  2
BYBLOCK
 70
0
  3

 72
65
 73
0
 40
0.0
  0
LTYPE
  5
15
100
AcDbSymbolTableRecord
100
AcDbLinetypeTableRecord
  2
BYLAYER
 70
0
  3

 72
65
 73
0
 40
0.0
  0
LTYPE
  5
16
100
AcDbSymbolTableRecord
100
AcDbLinetypeTableRecord
  2
CONTINUOUS
 70
64
  3
Solid line
 72
65
 73
0
 40
0.0
  0
LTYPE
  5
1F5
100
AcDbSymbolTableRecord
100
AcDbLinetypeTableRecord
  2
CENTER
 70
64
  3
____ _ ____ _ ____ _ ____ _ ____ _ ____ _ ____
 72
65
 73
4
 40
0.6
 49
0.375
 74
0
 49
-0.075
 74
0
 49
0.075
 74
0
 49
-0.075
 74
0
  0
LTYPE
  5
1F6
100
AcDbSymbolTableRecord
100
AcDbLinetypeTableRecord
  2
HIDDEN
 70
64
  3
- - - - - - - - - - - - - - - - - - - -
 72
65
 73
2
 40
0.2
 49
0.1
 74
0
 49
-0.1
 74
0
  0
LTYPE
  5
1F7
100
AcDbSymbolTableRecord
100
AcDbLinetypeTableRecord
  2
PHANTOM
 70
64
  3
_____ _ _ _____ _ _ _____ _ _ _____
 72
65
 73
6
 40
0.8
 49
0.45
 74
0
 49
-0.05
 74
0
 49
0.1
 74
0
 49
-0.05
 74
0
 49
0.1
 74
0
 49
-0.05
 74
0
  0
LTYPE
  5
1F8
100
AcDbSymbolTableRecord
100
AcDbLinetypeTableRecord
  2
DOT
 70
64
  3
. . . . . . . . . . . . . . . . . . . .
 72
65
 73
2
 40
0.2
 49
0.1
 74
0
 49
-0.1
 74
0
  0
LTYPE
  5
1F9
100
AcDbSymbolTableRecord
100
AcDbLinetypeTableRecord
  2
DASHED
 70
64
  3
- - - - - - - - - - - - - - - - - - - -
 72
65
 73
2
 40
0.2
 49
0.1
 74
0
 49
-0.1
 74
0
  0
ENDTAB
  0
TABLE
  2
LAYER
  5
2
100
AcDbSymbolTable
 70
36
  0
LAYER
  5
10
100
AcDbSymbolTableRecord
100
AcDbLayerTableRecord
  2
0
 70
0
 62
7
  6
CONTINUOUS
370
-3
390
F
  0
LAYER
  5
1FA
100
AcDbSymbolTableRecord
100
AcDbLayerTableRecord
  2
DEFAULT_1
 70
0
 62
7
  6
CENTER
370
-3
390
F
  0
LAYER
  5
1FB
100
AcDbSymbolTableRecord
100
AcDbLayerTableRecord
  2
DEFAULT_2
 70
0
 62
7
  6
HIDDEN
370
-3
390
F
  0
LAYER
  5
1FC
100
AcDbSymbolTableRecord
100
AcDbLayerTableRecord
  2
DEFAULT_3
 70
0
 62
7
  6
PHANTOM
370
-3
390
F
  0
LAYER
  5
1FD
100
AcDbSymbolTableRecord
100
AcDbLayerTableRecord
  2
ASSI
 70
0
 62
7
  6
CONTINUOUS
370
-3
390
F
  0
LAYER
  5
1FE
100
AcDbSymbolTableRecord
100
AcDbLayerTableRecord
  2
COORDINATE
 70
0
 62
7
  6
CONTINUOUS
370
-3
390
F
  0
LAYER
  5
1FF
100
AcDbSymbolTableRecord
100
AcDbLayerTableRecord
  2
COPY_PUBLISH
 70
0
 62
7
  6
CONTINUOUS
370
-3
390
F
  0
LAYER
  5
200
100
AcDbSymbolTableRecord
100
AcDbLayerTableRecord
  2
COSMETIC
 70
0
 62
7
  6
CONTINUOUS
370
-3
390
F
  0
LAYER
  5
201
100
AcDbSymbolTableRecord
100
AcDbLayerTableRecord
  2
COSMETICI
 70
0
 62
7
  6
CONTINUOUS
370
-3
390
F
  0
LAYER
  5
202
100
AcDbSymbolTableRecord
100
AcDbLayerTableRecord
  2
CURVE
 70
0
 62
7
  6
CONTINUOUS
370
-3
390
F
  0
LAYER
  5
203
100
AcDbSymbolTableRecord
100
AcDbLayerTableRecord
  2
DRAFT
 70
0
 62
7
  6
CONTINUOUS
370
-3
390
F
  0
LAYER
  5
204
100
AcDbSymbolTableRecord
100
AcDbLayerTableRecord
  2
IMPORT_IGES
 70
0
 62
7
  6
CONTINUOUS
370
-3
390
F
  0
LAYER
  5
205
100
AcDbSymbolTableRecord
100
AcDbLayerTableRecord
  2
INTF_11
 70
0
 62
7
  6
CONTINUOUS
370
-3
390
F
  0
LAYER
  5
206
100
AcDbSymbolTableRecord
100
AcDbLayerTableRecord
  2
NOTE
 70
0
 62
7
  6
CONTINUOUS
370
-3
390
F
  0
LAYER
  5
207
100
AcDbSymbolTableRecord
100
AcDbLayerTableRecord
  2
PIANI
 70
0
 62
7
  6
CONTINUOUS
370
-3
390
F
  0
LAYER
  5
208
100
AcDbSymbolTableRecord
100
AcDbLayerTableRecord
  2
PUNTI
 70
0
 62
7
  6
CONTINUOUS
370
-3
390
F
  0
LAYER
  5
209
100
AcDbSymbolTableRecord
100
AcDbLayerTableRecord
  2
RACCORDO
 70
0
 62
7
  6
CONTINUOUS
370
-3
390
F
  0
LAYER
  5
20A
100
AcDbSymbolTableRecord
100
AcDbLayerTableRecord
  2
SIMBOLI
 70
0
 62
7
  6
CONTINUOUS
370
-3
390
F
  0
LAYER
  5
20B
100
AcDbSymbolTableRecord
100
AcDbLayerTableRecord
  2
SMUSSO
 70
0
 62
7
  6
CONTINUOUS
370
-3
390
F
  0
LAYER
  5
20C
100
AcDbSymbolTableRecord
100
AcDbLayerTableRecord
  2
SNAPLINE
 70
0
 62
7
  6
CONTINUOUS
370
-3
390
F
  0
LAYER
  5
20D
100
AcDbSymbolTableRecord
100
AcDbLayerTableRecord
  2
SUPERFICI
 70
0
 62
7
  6
CONTINUOUS
370
-3
390
F
  0
LAYER
  5
20E
100
AcDbSymbolTableRecord
100
AcDbLayerTableRecord
  2
TRASH
 70
0
 62
7
  6
CONTINUOUS
370
-3
390
F
  0
ENDTAB
  0
TABLE
  2
STYLE
  5
3
100
AcDbSymbolTable
 70
1
  0
STYLE
  5
11
100
AcDbSymbolTableRecord
100
AcDbTextStyleTableRecord
  2
STANDARD
 70
0
 40
0.0
 41
0.8
 50
0.0
 71
0
 42
0.2
  3
txt
  4

  0
STYLE
  5
20F
100
AcDbSymbolTableRecord
100
AcDbTextStyleTableRecord
  2
TEXTSTYLE_1
 70
0
 40
0.0
 41
0.8
 50
0.0
 71
0
 42
0.2
  3
gdt
  4

  0
ENDTAB
  0
TABLE
  2
VIEW
  5
6
100
AcDbSymbolTable
 70
0
  0
ENDTAB
  0
TABLE
  2
UCS
  5
7
100
AcDbSymbolTable
 70
0
  0
ENDTAB
  0
TABLE
  2
APPID
  5
9
100
AcDbSymbolTable
 70
1
  0
APPID
  5
210
100
AcDbSymbolTableRecord
100
AcDbRegAppTableRecord
  2
ACAD
 70
0
  0
ENDTAB
  0
TABLE
  2
BLOCK_RECORD
  5
1
100
AcDbSymbolTable
 70
0
  0
BLOCK_RECORD
  5
211
100
AcDbSymbolTableRecord
100
AcDbBlockTableRecord
  2
*Model_Space
  0
BLOCK_RECORD
  5
212
100
AcDbSymbolTableRecord
100
AcDbBlockTableRecord
  2
*Paper_Space
  0
BLOCK_RECORD
  5
213
100
AcDbSymbolTableRecord
100
AcDbBlockTableRecord
  2
_FILLED
  0
BLOCK_RECORD
  5
214
100
AcDbSymbolTableRecord
100
AcDbBlockTableRecord
  2
*D0
  0
BLOCK_RECORD
  5
215
100
AcDbSymbolTableRecord
100
AcDbBlockTableRecord
  2
*D1
  0
BLOCK_RECORD
  5
216
100
AcDbSymbolTableRecord
100
AcDbBlockTableRecord
  2
*D2
  0
ENDTAB
  0
TABLE
  2
DIMSTYLE
  5
A
100
AcDbSymbolTable
 70
1
100
AcDbDimStyleTable
 71
0
  0
DIMSTYLE
105
217
100
AcDbSymbolTableRecord
100
AcDbDimStyleTableRecord
  2
STANDARD
 70
0
  3

  4

 40
1.0
 41
3.0
 42
0.5
 43
0.38
 44
1.5
 45
0.0
 46
0.0
 47
0.01
 48
0.01
140
3.0
141
0.09
142
0.0
143
25.4
144
1.0
145
0.0
146
1.0
147
0.625
 71
1.0
 72
0.0
 73
0
 74
0
 75
0
 76
0
 77
1
 78
8
 79
2
170
0
171
1
172
0
173
0
174
0
175
0
176
0
177
0
178
0
270
2
179
2
271
2
272
2
273
2
274
2
275
0
280
0
281
0
282
0
283
1
284
8
285
0
286
0
287
3
288
0
340
11
278
44
341
213
342
213
343
213
344
213
  0
DIMSTYLE
105
218
100
AcDbSymbolTableRecord
100
AcDbDimStyleTableRecord
  2
DIMSTYLE_1
 70
0
  3

  4

 40
1.0
 41
3.0
 42
0.5
 43
0.38
 44
1.5
 45
0.0
 46
0.0
 47
0.0
 48
0.0
140
3.0
141
0.09
142
0.0
143
25.4
144
1.0
145
0.0
146
1.0
147
0.75
 71
0.0
 72
0.0
 73
0
 74
0
 75
0
 76
0
 77
1
 78
8
 79
2
170
0
171
1
172
0
173
0
174
0
175
0
176
0
177
0
178
0
270
2
179
2
271
2
272
2
273
2
274
2
275
0
280
0
281
0
282
0
283
1
284
8
285
0
286
0
287
3
288
0
340
11
278
44
341
213
342
213
343
213
344
213
  0
DIMSTYLE
105
219
100
AcDbSymbolTableRecord
100
AcDbDimStyleTableRecord
  2
DIMSTYLE_2
 70
0
  3

  4

 40
1.0
 41
3.0
 42
0.5
 43
0.38
 44
1.5
 45
0.0
 46
0.0
 47
0.0
 48
0.0
140
3.0
141
0.09
142
0.0
143
25.4
144
1.0
145
0.0
146
1.0
147
0.75
 71
0.0
 72
0.0
 73
0
 74
0
 75
0
 76
0
 77
1
 78
8
 79
2
170
0
171
1
172
0
173
0
174
0
175
0
176
0
177
0
178
0
270
2
179
2
271
1
272
1
273
2
274
2
275
0
280
0
281
0
282
0
283
1
284
8
285
0
286
0
287
3
288
0
340
11
278
44
341
213
342
213
343
213
344
213
  0
ENDTAB
  0
ENDSEC
  0
SECTION
  2
BLOCKS
  0
BLOCK
  5
20
100
AcDbEntity
  8
0
100
AcDbBlockBegin
  2
*Model_Space
 70
0
 10
0.0
 20
0.0
 30
0.0
  3
*Model_Space
  1

  0
ENDBLK
  5
21
100
AcDbEntity
  8
0
100
AcDbBlockEnd
  0
BLOCK
  5
1C
100
AcDbEntity
  8
0
100
AcDbBlockBegin
  2
*Paper_Space
 70
0
 10
0.0
 20
0.0
 30
0.0
  3
*Paper_Space
  1

  0
ENDBLK
  5
1D
100
AcDbEntity
  8
0
100
AcDbBlockEnd
  0
BLOCK
  5
21A
100
AcDbEntity
  8
0
100
AcDbBlockBegin
  2
_FILLED
 70
64
 10
0.0
 20
0.0
  3
_FILLED
  1

  0
SOLID
  5
21B
100
AcDbEntity
  8
0
  6
BYBLOCK
 62
0
100
AcDbTrace
 10
0.0
 20
0.0
 11
-1.0
 21
0.3166666667
 12
-1.0
 22
-0.3166666667
 13
-1.0
 23
-0.3166666667
  0
ENDBLK
  5
21C
100
AcDbEntity
  8
0
  6
BYBLOCK
 62
0
100
AcDbBlockEnd
  0
BLOCK
  5
21D
100
AcDbEntity
  8
0
100
AcDbBlockBegin
 62
7
  6
CONTINUOUS
  2
*D0
 70
65
 10
0.0
 20
0.0
  3
*D0
  1

  0
LINE
  5
21E
100
AcDbEntity
  8
0
100
AcDbLine
 62
7
  6
CONTINUOUS
 10
-26.65
 20
11.9449489743
 11
-26.65
 21
26.6449489743
  0
LINE
  5
21F
100
AcDbEntity
  8
0
100
AcDbLine
 62
7
  6
CONTINUOUS
 10
26.65
 20
11.9449489743
 11
26.65
 21
26.6449489743
  0
LINE
  5
220
100
AcDbEntity
  8
0
100
AcDbLine
 62
7
  6
CONTINUOUS
 10
-26.65
 20
25.1449489743
 11
0.0
 21
25.1449489743
  0
LINE
  5
221
100
AcDbEntity
  8
0
100
AcDbLine
 62
7
  6
CONTINUOUS
 10
26.65
 20
25.1449489743
 11
0.0
 21
25.1449489743
  0
INSERT
  5
222
100
AcDbEntity
  8
0
100
AcDbBlockReference
 62
7
  6
CONTINUOUS
  2
_FILLED
 10
-26.65
 20
25.1449489743
 41
3.0
 42
3.0
 43
3.0
 50
180.0
  0
INSERT
  5
223
100
AcDbEntity
  8
0
100
AcDbBlockReference
 62
7
  6
CONTINUOUS
  2
_FILLED
 10
26.65
 20
25.1449489743
 41
3.0
 42
3.0
 43
3.0
  0
ENDBLK
  5
224
100
AcDbEntity
  8
0
  6
BYBLOCK
 62
0
100
AcDbBlockEnd
  0
BLOCK
  5
225
100
AcDbEntity
  8
0
100
AcDbBlockBegin
 62
7
  6
CONTINUOUS
  2
*D1
 70
65
 10
0.0
 20
0.0
  3
*D1
  1

  0
LINE
  5
226
100
AcDbEntity
  8
0
100
AcDbLine
 62
7
  6
CONTINUOUS
 10
9.6814515351
 20
17.1449489743
 11
36.15
 21
17.1449489743
  0
LINE
  5
227
100
AcDbEntity
  8
0
100
AcDbLine
 62
7
  6
CONTINUOUS
 10
5.1
 20
-17.1449489743
 11
36.15
 21
-17.1449489743
  0
LINE
  5
228
100
AcDbEntity
  8
0
100
AcDbLine
 62
7
  6
CONTINUOUS
 10
34.65
 20
17.1449489743
 11
34.65
 21
0.0
  0
LINE
  5
229
100
AcDbEntity
  8
0
100
AcDbLine
 62
7
  6
CONTINUOUS
 10
34.65
 20
-17.1449489743
 11
34.65
 21
0.0
  0
INSERT
  5
22A
100
AcDbEntity
  8
0
100
AcDbBlockReference
 62
7
  6
CONTINUOUS
  2
_FILLED
 10
34.65
 20
17.1449489743
 41
3.0
 42
3.0
 43
3.0
 50
90.0
  0
INSERT
  5
22B
100
AcDbEntity
  8
0
100
AcDbBlockReference
 62
7
  6
CONTINUOUS
  2
_FILLED
 10
34.65
 20
-17.1449489743
 41
3.0
 42
3.0
 43
3.0
 50
270.0
  0
ENDBLK
  5
22C
100
AcDbEntity
  8
0
  6
BYBLOCK
 62
0
100
AcDbBlockEnd
  0
BLOCK
  5
22D
100
AcDbEntity
  8
0
100
AcDbBlockBegin
 62
7
  6
CONTINUOUS
  2
*D2
 70
65
 10
0.0
 20
0.0
  3
*D2
  1

  0
LINE
  5
22E
100
AcDbEntity
  8
0
100
AcDbLine
 62
7
  6
CONTINUOUS
 10
-37.4002847228
 20
12.8147136894
 11
-37.4002847228
 21
26.6449489743
  0
LINE
  5
22F
100
AcDbEntity
  8
0
100
AcDbLine
 62
7
  6
CONTINUOUS
 10
-53.9502847228
 20
4.7916747764
 11
-53.9502847228
 21
26.6449489743
  0
LINE
  5
230
100
AcDbEntity
  8
0
100
AcDbLine
 62
7
  6
CONTINUOUS
 10
-37.4002847228
 20
25.1449489743
 11
-45.6752847228
 21
25.1449489743
  0
LINE
  5
231
100
AcDbEntity
  8
0
100
AcDbLine
 62
7
  6
CONTINUOUS
 10
-53.9502847228
 20
25.1449489743
 11
-45.6752847228
 21
25.1449489743
  0
INSERT
  5
232
100
AcDbEntity
  8
0
100
AcDbBlockReference
 62
7
  6
CONTINUOUS
  2
_FILLED
 10
-37.4002847228
 20
25.1449489743
 41
3.0
 42
3.0
 43
3.0
  0
INSERT
  5
233
100
AcDbEntity
  8
0
100
AcDbBlockReference
 62
7
  6
CONTINUOUS
  2
_FILLED
 10
-53.9502847228
 20
25.1449489743
 41
3.0
 42
3.0
 43
3.0
 50
180.0
  0
ENDBLK
  5
234
100
AcDbEntity
  8
0
  6
BYBLOCK
 62
0
100
AcDbBlockEnd
  0
ENDSEC
  0
SECTION
  2
ENTITIES
  0
SPLINE
  5
235
100
AcDbEntity
  8
CURVE
100
AcDbSpline
 62
250
  6
CONTINUOUS
 70
0
 71
3
 72
8
 73
4
 74
0
 42
0.0000001
 43
0.0000001
 44
0.0000000001
 40
0.0
 40
0.0
 40
0.0
 40
0.0
 40
1.0
 40
1.0
 40
1.0
 40
1.0
 10
5.0850980212
 20
3.9765278636
 30
0.0
 10
5.1262623787
 20
3.9396965876
 30
0.0
 10
5.180355072
 20
3.9068862096
 30
0.0
 10
5.2495222092
 20
3.8785096795
 30
0.0
  0
SPLINE
  5
236
100
AcDbEntity
  8
CURVE
100
AcDbSpline
 62
250
  6
CONTINUOUS
 70
0
 71
3
 72
8
 73
4
 74
0
 42
0.0000001
 43
0.0000001
 44
0.0000000001
 40
0.0
 40
0.0
 40
0.0
 40
0.0
 40
1.0
 40
1.0
 40
1.0
 40
1.0
 10
4.9515686453
 20
4.1684821787
 30
0.0
 10
4.9808316231
 20
4.0939940125
 30
0.0
 10
5.0251709938
 20
4.0301467955
 30
0.0
 10
5.0850980212
 20
3.9765278636
 30
0.0
  0
SPLINE
  5
237
100
AcDbEntity
  8
CURVE
100
AcDbSpline
 62
250
  6
CONTINUOUS
 70
0
 71
3
 72
8
 73
4
 74
0
 42
0.0000001
 43
0.0000001
 44
0.0000000001
 40
0.0
 40
0.0
 40
0.0
 40
0.0
 40
1.0
 40
1.0
 40
1.0
 40
1.0
 10
4.908117485
 20
4.4141168088
 30
0.0
 10
4.908117485
 20
4.3245533318
 30
0.0
 10
4.9223054886
 20
4.2429708004
 30
0.0
 10
4.9515686453
 20
4.1684821787
 30
0.0
  0
SPLINE
  5
238
100
AcDbEntity
  8
CURVE
100
AcDbSpline
 62
250
  6
CONTINUOUS
 70
0
 71
3
 72
8
 73
4
 74
0
 42
0.0000001
 43
0.0000001
 44
0.0000000001
 40
0.0
 40
0.0
 40
0.0
 40
0.0
 40
1.0
 40
1.0
 40
1.0
 40
1.0
 10
5.0777114704
 20
4.8581645441
 30
0.0
 10
4.9639830589
 20
4.7448807627
 30
0.0
 10
4.908117485
 20
4.597677514
 30
0.0
 10
4.908117485
 20
4.4141168088
 30
0.0
  0
SPLINE
  5
239
100
AcDbEntity
  8
CURVE
100
AcDbSpline
 62
250
  6
CONTINUOUS
 70
0
 71
3
 72
8
 73
4
 74
0
 42
0.0000001
 43
0.0000001
 44
0.0000000001
 40
0.0
 40
0.0
 40
0.0
 40
0.0
 40
1.0
 40
1.0
 40
1.0
 40
1.0
 10
5.5288537979
 20
5.0277593524
 30
0.0
 10
5.3408590317
 20
5.0277593524
 30
0.0
 10
5.1909960747
 20
4.9710062534
 30
0.0
 10
5.0777114704
 20
4.8581645441
 30
0.0
  0
SPLINE
  5
23A
100
AcDbEntity
  8
CURVE
100
AcDbSpline
 62
250
  6
CONTINUOUS
 70
0
 71
3
 72
8
 73
4
 74
0
 42
0.0000001
 43
0.0000001
 44
0.0000000001
 40
0.0
 40
0.0
 40
0.0
 40
0.0
 40
1.0
 40
1.0
 40
1.0
 40
1.0
 10
5.8736289501
 20
4.9573508406
 30
0.0
 10
5.7815822601
 20
5.0038166315
 30
0.0
 10
5.6663028717
 20
5.0277593524
 30
0.0
 10
5.5288537979
 20
5.0277593524
 30
0.0
  0
SPLINE
  5
23B
100
AcDbEntity
  8
CURVE
100
AcDbSpline
 62
250
  6
CONTINUOUS
 70
0
 71
3
 72
8
 73
4
 74
0
 42
0.0000001
 43
0.0000001
 44
0.0000000001
 40
0.0
 40
0.0
 40
0.0
 40
0.0
 40
1.0
 40
1.0
 40
1.0
 40
1.0
 10
6.0956872147
 20
4.7405531865
 30
0.0
 10
6.0405182838
 20
4.8388780684
 30
0.0
 10
5.9660300255
 20
4.9107061535
 30
0.0
 10
5.8736289501
 20
4.9573508406
 30
0.0
  0
SPLINE
  5
23C
100
AcDbEntity
  8
CURVE
100
AcDbSpline
 62
250
  6
CONTINUOUS
 70
0
 71
3
 72
8
 73
4
 74
0
 42
0.0000001
 43
0.0000001
 44
0.0000000001
 40
0.0
 40
0.0
 40
0.0
 40
0.0
 40
1.0
 40
1.0
 40
1.0
 40
1.0
 10
6.1788537979
 20
4.4158903092
 30
0.0
 10
6.1788537979
 20
4.534717086
 30
0.0
 10
6.1504777908
 20
4.6429026276
 30
0.0
 10
6.0956872147
 20
4.7405531865
 30
0.0
  0
SPLINE
  5
23D
100
AcDbEntity
  8
CURVE
100
AcDbSpline
 62
250
  6
CONTINUOUS
 70
0
 71
3
 72
8
 73
4
 74
0
 42
0.0000001
 43
0.0000001
 44
0.0000000001
 40
0.0
 40
0.0
 40
0.0
 40
0.0
 40
1.0
 40
1.0
 40
1.0
 40
1.0
 10
6.0956914376
 20
4.0965400082
 30
0.0
 10
6.1504777908
 20
4.1897648186
 30
0.0
 10
6.1788537979
 20
4.296176821
 30
0.0
 10
6.1788537979
 20
4.4158903092
 30
0.0
  0
SPLINE
  5
23E
100
AcDbEntity
  8
CURVE
100
AcDbSpline
 62
250
  6
CONTINUOUS
 70
0
 71
3
 72
8
 73
4
 74
0
 42
0.0000001
 43
0.0000001
 44
0.0000000001
 40
0.0
 40
0.0
 40
0.0
 40
0.0
 40
1.0
 40
1.0
 40
1.0
 40
1.0
 10
5.8401096344
 20
3.8802832186
 30
0.0
 10
5.9553890228
 20
3.9308289111
 30
0.0
 10
6.0405182838
 20
4.0026570156
 30
0.0
 10
6.0956914376
 20
4.0965400082
 30
0.0
  0
SPLINE
  5
23F
100
AcDbEntity
  8
CURVE
100
AcDbSpline
 62
250
  6
CONTINUOUS
 70
0
 71
3
 72
8
 73
4
 74
0
 42
0.0000001
 43
0.0000001
 44
0.0000000001
 40
0.0
 40
0.0
 40
0.0
 40
0.0
 40
1.0
 40
1.0
 40
1.0
 40
1.0
 10
5.7622038127
 20
4.0042841516
 30
0.0
 10
5.7292636871
 20
3.9698466569
 30
0.0
 10
5.6840378761
 20
3.9388098181
 30
0.0
 10
5.6272846222
 20
3.9113200575
 30
0.0
  0
SPLINE
  5
240
100
AcDbEntity
  8
CURVE
100
AcDbSpline
 62
250
  6
CONTINUOUS
 70
0
 71
3
 72
8
 73
4
 74
0
 42
0.0000001
 43
0.0000001
 44
0.0000000001
 40
0.0
 40
0.0
 40
0.0
 40
0.0
 40
1.0
 40
1.0
 40
1.0
 40
1.0
 10
12.0122783184
 20
3.4949489743
 30
0.0
 10
12.3410640955
 20
3.4949489743
 30
0.0
 10
12.5989086032
 20
3.5727115855
 30
0.0
 10
12.7874733027
 20
3.7292421382
 30
0.0
  0
SPLINE
  5
241
100
AcDbEntity
  8
CURVE
100
AcDbSpline
 62
250
  6
CONTINUOUS
 70
0
 71
3
 72
8
 73
4
 74
0
 42
0.0000001
 43
0.0000001
 44
0.0000000001
 40
0.0
 40
0.0
 40
0.0
 40
0.0
 40
1.0
 40
1.0
 40
1.0
 40
1.0
 10
12.7874733027
 20
3.7292421382
 30
0.0
 10
12.9522510245
 20
3.8660267428
 30
0.0
 10
13.034106411
 20
4.0542941526
 30
0.0
 10
13.034106411
 20
4.2916747764
 30
0.0
  0
SPLINE
  5
242
100
AcDbEntity
  8
CURVE
100
AcDbSpline
 62
250
  6
CONTINUOUS
 70
0
 71
3
 72
8
 73
4
 74
0
 42
0.0000001
 43
0.0000001
 44
0.0000000001
 40
0.0
 40
0.0
 40
0.0
 40
0.0
 40
1.0
 40
1.0
 40
1.0
 40
1.0
 10
13.034106411
 20
4.2916747764
 30
0.0
 10
13.034106411
 20
4.5263268188
 30
0.0
 10
12.9508867674
 20
4.7132300571
 30
0.0
 10
12.7843702008
 20
4.8509264059
 30
0.0
  0
SPLINE
  5
243
100
AcDbEntity
  8
CURVE
100
AcDbSpline
 62
250
  6
CONTINUOUS
 70
0
 71
3
 72
8
 73
4
 74
0
 42
0.0000001
 43
0.0000001
 44
0.0000000001
 40
0.0
 40
0.0
 40
0.0
 40
0.0
 40
1.0
 40
1.0
 40
1.0
 40
1.0
 10
12.7843702008
 20
4.8509264059
 30
0.0
 10
12.5961800814
 20
5.0065451101
 30
0.0
 10
12.3356071115
 20
5.0856720642
 30
0.0
 10
12.0
 20
5.0856720642
 30
0.0
  0
SPLINE
  5
244
100
AcDbEntity
  8
CURVE
100
AcDbSpline
 62
250
  6
CONTINUOUS
 70
0
 71
3
 72
8
 73
4
 74
0
 42
0.0000001
 43
0.0000001
 44
0.0000000001
 40
0.0
 40
0.0
 40
0.0
 40
0.0
 40
1.0
 40
1.0
 40
1.0
 40
1.0
 10
12.0
 20
5.0856720642
 30
0.0
 10
11.6698498726
 20
5.0856720642
 30
0.0
 10
11.4147340059
 20
5.0106379226
 30
0.0
 10
11.2349272404
 20
4.8629639246
 30
0.0
  0
SPLINE
  5
245
100
AcDbEntity
  8
CURVE
100
AcDbSpline
 62
250
  6
CONTINUOUS
 70
0
 71
3
 72
8
 73
4
 74
0
 42
0.0000001
 43
0.0000001
 44
0.0000000001
 40
0.0
 40
0.0
 40
0.0
 40
0.0
 40
1.0
 40
1.0
 40
1.0
 40
1.0
 10
11.2349272404
 20
4.8629639246
 30
0.0
 10
11.0559345484
 20
4.7159585193
 30
0.0
 10
10.965893507
 20
4.5249625877
 30
0.0
 10
10.965893507
 20
4.2903104857
 30
0.0
  0
SPLINE
  5
246
100
AcDbEntity
  8
CURVE
100
AcDbSpline
 62
250
  6
CONTINUOUS
 70
0
 71
3
 72
8
 73
4
 74
0
 42
0.0000001
 43
0.0000001
 44
0.0000000001
 40
0.0
 40
0.0
 40
0.0
 40
0.0
 40
1.0
 40
1.0
 40
1.0
 40
1.0
 10
10.965893507
 20
4.2903104857
 30
0.0
 10
10.965893507
 20
4.1279640034
 30
0.0
 10
11.0040928125
 20
3.9901740983
 30
0.0
 10
11.0792854424
 20
3.8770463802
 30
0.0
  0
SPLINE
  5
247
100
AcDbEntity
  8
CURVE
100
AcDbSpline
 62
250
  6
CONTINUOUS
 70
0
 71
3
 72
8
 73
4
 74
0
 42
0.0000001
 43
0.0000001
 44
0.0000000001
 40
0.0
 40
0.0
 40
0.0
 40
0.0
 40
1.0
 40
1.0
 40
1.0
 40
1.0
 10
11.0792854424
 20
3.8770463802
 30
0.0
 10
11.1555252075
 20
3.7623432413
 30
0.0
 10
11.2701227665
 20
3.6709380582
 30
0.0
 10
11.4242837457
 20
3.5999967205
 30
0.0
  0
SPLINE
  5
248
100
AcDbEntity
  8
CURVE
100
AcDbSpline
 62
250
  6
CONTINUOUS
 70
0
 71
3
 72
8
 73
4
 74
0
 42
0.0000001
 43
0.0000001
 44
0.0000000001
 40
0.0
 40
0.0
 40
0.0
 40
0.0
 40
1.0
 40
1.0
 40
1.0
 40
1.0
 10
11.4242837457
 20
3.5999967205
 30
0.0
 10
11.5784447193
 20
3.5290553853
 30
0.0
 10
11.7748976946
 20
3.4949489743
 30
0.0
 10
12.0122783184
 20
3.4949489743
 30
0.0
  0
SPLINE
  5
249
100
AcDbEntity
  8
CURVE
100
AcDbSpline
 62
250
  6
CONTINUOUS
 70
0
 71
3
 72
8
 73
4
 74
0
 42
0.0000001
 43
0.0000001
 44
0.0000000001
 40
0.0
 40
0.0
 40
0.0
 40
0.0
 40
1.0
 40
1.0
 40
1.0
 40
1.0
 10
11.9986357689
 20
3.8360130921
 30
0.0
 10
11.7639836073
 20
3.8360130921
 30
0.0
 10
11.5907230377
 20
3.8783050314
 30
0.0
 10
11.4788540313
 20
3.9628889015
 30
0.0
  0
SPLINE
  5
24A
100
AcDbEntity
  8
CURVE
100
AcDbSpline
 62
250
  6
CONTINUOUS
 70
0
 71
3
 72
8
 73
4
 74
0
 42
0.0000001
 43
0.0000001
 44
0.0000000001
 40
0.0
 40
0.0
 40
0.0
 40
0.0
 40
1.0
 40
1.0
 40
1.0
 40
1.0
 10
11.4788540313
 20
3.9628889015
 30
0.0
 10
11.3669849634
 20
4.0474728182
 30
0.0
 10
11.3110505342
 20
4.1566133932
 30
0.0
 10
11.3110505342
 20
4.2916747764
 30
0.0
  0
SPLINE
  5
24B
100
AcDbEntity
  8
CURVE
100
AcDbSpline
 62
250
  6
CONTINUOUS
 70
0
 71
3
 72
8
 73
4
 74
0
 42
0.0000001
 43
0.0000001
 44
0.0000000001
 40
0.0
 40
0.0
 40
0.0
 40
0.0
 40
1.0
 40
1.0
 40
1.0
 40
1.0
 10
11.3110505342
 20
4.2916747764
 30
0.0
 10
11.3110505342
 20
4.4267361596
 30
0.0
 10
11.3669849634
 20
4.535876675
 30
0.0
 10
11.47773417
 20
4.6187687075
 30
0.0
  0
SPLINE
  5
24C
100
AcDbEntity
  8
CURVE
100
AcDbSpline
 62
250
  6
CONTINUOUS
 70
0
 71
3
 72
8
 73
4
 74
0
 42
0.0000001
 43
0.0000001
 44
0.0000000001
 40
0.0
 40
0.0
 40
0.0
 40
0.0
 40
1.0
 40
1.0
 40
1.0
 40
1.0
 10
11.47773417
 20
4.6187687075
 30
0.0
 10
11.5893588066
 20
4.7023159698
 30
0.0
 10
11.759890914
 20
4.7446078494
 30
0.0
 10
11.9918144941
 20
4.7446078494
 30
0.0
  0
SPLINE
  5
24D
100
AcDbEntity
  8
CURVE
100
AcDbSpline
 62
250
  6
CONTINUOUS
 70
0
 71
3
 72
8
 73
4
 74
0
 42
0.0000001
 43
0.0000001
 44
0.0000000001
 40
0.0
 40
0.0
 40
0.0
 40
0.0
 40
1.0
 40
1.0
 40
1.0
 40
1.0
 10
11.9918144941
 20
4.7446078494
 30
0.0
 10
12.229195118
 20
4.7446078494
 30
0.0
 10
12.4038199186
 20
4.7009517387
 30
0.0
 10
12.5187433143
 20
4.6154432358
 30
0.0
  0
SPLINE
  5
24E
100
AcDbEntity
  8
CURVE
100
AcDbSpline
 62
250
  6
CONTINUOUS
 70
0
 71
3
 72
8
 73
4
 74
0
 42
0.0000001
 43
0.0000001
 44
0.0000000001
 40
0.0
 40
0.0
 40
0.0
 40
0.0
 40
1.0
 40
1.0
 40
1.0
 40
1.0
 10
12.5187433143
 20
4.6154432358
 30
0.0
 10
12.6330150068
 20
4.5304196313
 30
0.0
 10
12.6889495254
 20
4.421279116
 30
0.0
 10
12.6889495254
 20
4.2916747764
 30
0.0
  0
SPLINE
  5
24F
100
AcDbEntity
  8
CURVE
100
AcDbSpline
 62
250
  6
CONTINUOUS
 70
0
 71
3
 72
8
 73
4
 74
0
 42
0.0000001
 43
0.0000001
 44
0.0000000001
 40
0.0
 40
0.0
 40
0.0
 40
0.0
 40
1.0
 40
1.0
 40
1.0
 40
1.0
 10
12.6889495254
 20
4.2916747764
 30
0.0
 10
12.6889495254
 20
4.1620703772
 30
0.0
 10
12.6316507459
 20
4.0542941526
 30
0.0
 10
12.5170532023
 20
3.9669817115
 30
0.0
  0
SPLINE
  5
250
100
AcDbEntity
  8
CURVE
100
AcDbSpline
 62
250
  6
CONTINUOUS
 70
0
 71
3
 72
8
 73
4
 74
0
 42
0.0000001
 43
0.0000001
 44
0.0000000001
 40
0.0
 40
0.0
 40
0.0
 40
0.0
 40
1.0
 40
1.0
 40
1.0
 40
1.0
 10
12.5170532023
 20
3.9669817115
 30
0.0
 10
12.4024556875
 20
3.8796692923
 30
0.0
 10
12.229195118
 20
3.8360130921
 30
0.0
 10
11.9986357689
 20
3.8360130921
 30
0.0
  0
SPLINE
  5
251
100
AcDbEntity
  8
CURVE
100
AcDbSpline
 62
250
  6
CONTINUOUS
 70
0
 71
3
 72
8
 73
4
 74
0
 42
0.0000001
 43
0.0000001
 44
0.0000000001
 40
0.0
 40
0.0
 40
0.0
 40
0.0
 40
1.0
 40
1.0
 40
1.0
 40
1.0
 10
12.0668485761
 20
5.3421522811
 30
0.0
 10
12.3669849634
 20
5.3421522811
 30
0.0
 10
12.5716234744
 20
5.3626161054
 30
0.0
 10
12.6834925048
 20
5.4062722761
 30
0.0
  0
SPLINE
  5
252
100
AcDbEntity
  8
CURVE
100
AcDbSpline
 62
250
  6
CONTINUOUS
 70
0
 71
3
 72
8
 73
4
 74
0
 42
0.0000001
 43
0.0000001
 44
0.0000000001
 40
0.0
 40
0.0
 40
0.0
 40
0.0
 40
1.0
 40
1.0
 40
1.0
 40
1.0
 10
12.6834925048
 20
5.4062722761
 30
0.0
 10
12.7953615338
 20
5.4499284461
 30
0.0
 10
12.8813096881
 20
5.5195056632
 30
0.0
 10
12.9422145859
 20
5.6153111341
 30
0.0
  0
SPLINE
  5
253
100
AcDbEntity
  8
CURVE
100
AcDbSpline
 62
250
  6
CONTINUOUS
 70
0
 71
3
 72
8
 73
4
 74
0
 42
0.0000001
 43
0.0000001
 44
0.0000000001
 40
0.0
 40
0.0
 40
0.0
 40
0.0
 40
1.0
 40
1.0
 40
1.0
 40
1.0
 10
12.9422145859
 20
5.6153111341
 30
0.0
 10
13.002728513
 20
5.7105015949
 30
0.0
 10
13.034106411
 20
5.8441986278
 30
0.0
 10
13.034106411
 20
6.0160948471
 30
0.0
  0
SPLINE
  5
254
100
AcDbEntity
  8
CURVE
100
AcDbSpline
 62
250
  6
CONTINUOUS
 70
0
 71
3
 72
8
 73
4
 74
0
 42
0.0000001
 43
0.0000001
 44
0.0000000001
 40
0.0
 40
0.0
 40
0.0
 40
0.0
 40
1.0
 40
1.0
 40
1.0
 40
1.0
 10
13.034106411
 20
6.0160948471
 30
0.0
 10
13.034106411
 20
6.1798056796
 30
0.0
 10
12.997271487
 20
6.3121387199
 30
0.0
 10
12.9236016945
 20
6.4130935345
 30
0.0
  0
SPLINE
  5
255
100
AcDbEntity
  8
CURVE
100
AcDbSpline
 62
250
  6
CONTINUOUS
 70
0
 71
3
 72
8
 73
4
 74
0
 42
0.0000001
 43
0.0000001
 44
0.0000000001
 40
0.0
 40
0.0
 40
0.0
 40
0.0
 40
1.0
 40
1.0
 40
1.0
 40
1.0
 10
12.9236016945
 20
6.4130935345
 30
0.0
 10
12.8499317914
 20
6.5140485004
 30
0.0
 10
12.7530695796
 20
6.5781685546
 30
0.0
 10
12.6330150337
 20
6.6068179976
 30
0.0
  0
SPLINE
  5
256
100
AcDbEntity
  8
CURVE
100
AcDbSpline
 62
250
  6
CONTINUOUS
 70
0
 71
3
 72
8
 73
4
 74
0
 42
0.0000001
 43
0.0000001
 44
0.0000000001
 40
0.0
 40
0.0
 40
0.0
 40
0.0
 40
1.0
 40
1.0
 40
1.0
 40
1.0
 10
12.6330150337
 20
6.6068179976
 30
0.0
 10
12.512960434
 20
6.6354674533
 30
0.0
 10
12.3192360401
 20
6.650474234
 30
0.0
 10
12.0504775047
 20
6.650474234
 30
0.0
  0
SPLINE
  5
257
100
AcDbEntity
  8
CURVE
100
AcDbSpline
 62
250
  6
CONTINUOUS
 70
0
 71
3
 72
8
 73
4
 74
0
 42
0.0000001
 43
0.0000001
 44
0.0000000001
 40
0.0
 40
0.0
 40
0.0
 40
0.0
 40
1.0
 40
1.0
 40
1.0
 40
1.0
 10
12.1064119935
 20
6.3203241065
 30
0.0
 10
12.305593431
 20
6.3203241065
 30
0.0
 10
12.4365620613
 20
6.3107742504
 30
0.0
 10
12.4965893614
 20
6.2930390035
 30
0.0
  0
SPLINE
  5
258
100
AcDbEntity
  8
CURVE
100
AcDbSpline
 62
250
  6
CONTINUOUS
 70
0
 71
3
 72
8
 73
4
 74
0
 42
0.0000001
 43
0.0000001
 44
0.0000000001
 40
0.0
 40
0.0
 40
0.0
 40
0.0
 40
1.0
 40
1.0
 40
1.0
 40
1.0
 10
12.4965893614
 20
6.2930390035
 30
0.0
 10
12.5566166341
 20
6.2753037647
 30
0.0
 10
12.604365617
 20
6.2425615028
 30
0.0
 10
12.6387924424
 20
6.1936754869
 30
0.0
  0
SPLINE
  5
259
100
AcDbEntity
  8
CURVE
100
AcDbSpline
 62
250
  6
CONTINUOUS
 70
0
 71
3
 72
8
 73
4
 74
0
 42
0.0000001
 43
0.0000001
 44
0.0000000001
 40
0.0
 40
0.0
 40
0.0
 40
0.0
 40
1.0
 40
1.0
 40
1.0
 40
1.0
 10
12.6387924424
 20
6.1936754869
 30
0.0
 10
12.672578454
 20
6.1456994251
 30
0.0
 10
12.6889495254
 20
6.0829436019
 30
0.0
 10
12.6889495254
 20
6.0065452293
 30
0.0
  0
SPLINE
  5
25A
100
AcDbEntity
  8
CURVE
100
AcDbSpline
 62
250
  6
CONTINUOUS
 70
0
 71
3
 72
8
 73
4
 74
0
 42
0.0000001
 43
0.0000001
 44
0.0000000001
 40
0.0
 40
0.0
 40
0.0
 40
0.0
 40
1.0
 40
1.0
 40
1.0
 40
1.0
 10
12.6889495254
 20
6.0065452293
 30
0.0
 10
12.6889495254
 20
5.9165043071
 30
0.0
 10
12.6657571495
 20
5.8441986278
 30
0.0
 10
12.6166916354
 20
5.7882224244
 30
0.0
  0
SPLINE
  5
25B
100
AcDbEntity
  8
CURVE
100
AcDbSpline
 62
250
  6
CONTINUOUS
 70
0
 71
3
 72
8
 73
4
 74
0
 42
0.0000001
 43
0.0000001
 44
0.0000000001
 40
0.0
 40
0.0
 40
0.0
 40
0.0
 40
1.0
 40
1.0
 40
1.0
 40
1.0
 10
12.6166916354
 20
5.7882224244
 30
0.0
 10
12.5688949525
 20
5.7336937622
 30
0.0
 10
12.5006821156
 20
5.6982232765
 30
0.0
 10
12.4120471211
 20
5.6843197003
 30
0.0
  0
SPLINE
  5
25C
100
AcDbEntity
  8
CURVE
100
AcDbSpline
 62
250
  6
CONTINUOUS
 70
0
 71
3
 72
8
 73
4
 74
0
 42
0.0000001
 43
0.0000001
 44
0.0000000001
 40
0.0
 40
0.0
 40
0.0
 40
0.0
 40
1.0
 40
1.0
 40
1.0
 40
1.0
 10
12.4120471211
 20
5.6843197003
 30
0.0
 10
12.3615279794
 20
5.6763951019
 30
0.0
 10
12.252387464
 20
5.6723024085
 30
0.0
 10
12.0832196474
 20
5.6723024085
 30
0.0
  0
SPLINE
  5
25D
100
AcDbEntity
  8
CURVE
100
AcDbSpline
 62
250
  6
CONTINUOUS
 70
0
 71
3
 72
8
 73
4
 74
0
 42
0.0000001
 43
0.0000001
 44
0.0000000001
 40
0.0
 40
0.0
 40
0.0
 40
0.0
 40
1.0
 40
1.0
 40
1.0
 40
1.0
 10
-12.0122783184
 20
8.4949489743
 30
0.0
 10
-12.3410640955
 20
8.4949489743
 30
0.0
 10
-12.5989086032
 20
8.4171863631
 30
0.0
 10
-12.7874733027
 20
8.2606558104
 30
0.0
  0
SPLINE
  5
25E
100
AcDbEntity
  8
CURVE
100
AcDbSpline
 62
250
  6
CONTINUOUS
 70
0
 71
3
 72
8
 73
4
 74
0
 42
0.0000001
 43
0.0000001
 44
0.0000000001
 40
0.0
 40
0.0
 40
0.0
 40
0.0
 40
1.0
 40
1.0
 40
1.0
 40
1.0
 10
-12.7874733027
 20
8.2606558104
 30
0.0
 10
-12.9522510245
 20
8.1238712058
 30
0.0
 10
-13.034106411
 20
7.935603796
 30
0.0
 10
-13.034106411
 20
7.6982231722
 30
0.0
  0
SPLINE
  5
25F
100
AcDbEntity
  8
CURVE
100
AcDbSpline
 62
250
  6
CONTINUOUS
 70
0
 71
3
 72
8
 73
4
 74
0
 42
0.0000001
 43
0.0000001
 44
0.0000000001
 40
0.0
 40
0.0
 40
0.0
 40
0.0
 40
1.0
 40
1.0
 40
1.0
 40
1.0
 10
-13.034106411
 20
7.6982231722
 30
0.0
 10
-13.034106411
 20
7.4635711298
 30
0.0
 10
-12.9508867674
 20
7.2766678915
 30
0.0
 10
-12.7843702008
 20
7.1389715427
 30
0.0
  0
SPLINE
  5
260
100
AcDbEntity
  8
CURVE
100
AcDbSpline
 62
250
  6
CONTINUOUS
 70
0
 71
3
 72
8
 73
4
 74
0
 42
0.0000001
 43
0.0000001
 44
0.0000000001
 40
0.0
 40
0.0
 40
0.0
 40
0.0
 40
1.0
 40
1.0
 40
1.0
 40
1.0
 10
-12.7843702008
 20
7.1389715427
 30
0.0
 10
-12.5961800814
 20
6.9833528385
 30
0.0
 10
-12.3356071115
 20
6.9042258844
 30
0.0
 10
-12.0
 20
6.9042258844
 30
0.0
  0
SPLINE
  5
261
100
AcDbEntity
  8
CURVE
100
AcDbSpline
 62
250
  6
CONTINUOUS
 70
0
 71
3
 72
8
 73
4
 74
0
 42
0.0000001
 43
0.0000001
 44
0.0000000001
 40
0.0
 40
0.0
 40
0.0
 40
0.0
 40
1.0
 40
1.0
 40
1.0
 40
1.0
 10
-12.0
 20
6.9042258844
 30
0.0
 10
-11.6698498726
 20
6.9042258844
 30
0.0
 10
-11.4147340059
 20
6.9792600259
 30
0.0
 10
-11.2349272404
 20
7.126934024
 30
0.0
  0
SPLINE
  5
262
100
AcDbEntity
  8
CURVE
100
AcDbSpline
 62
250
  6
CONTINUOUS
 70
0
 71
3
 72
8
 73
4
 74
0
 42
0.0000001
 43
0.0000001
 44
0.0000000001
 40
0.0
 40
0.0
 40
0.0
 40
0.0
 40
1.0
 40
1.0
 40
1.0
 40
1.0
 10
-11.2349272404
 20
7.126934024
 30
0.0
 10
-11.0559345484
 20
7.2739394293
 30
0.0
 10
-10.965893507
 20
7.4649353609
 30
0.0
 10
-10.965893507
 20
7.6995874629
 30
0.0
  0
SPLINE
  5
263
100
AcDbEntity
  8
CURVE
100
AcDbSpline
 62
250
  6
CONTINUOUS
 70
0
 71
3
 72
8
 73
4
 74
0
 42
0.0000001
 43
0.0000001
 44
0.0000000001
 40
0.0
 40
0.0
 40
0.0
 40
0.0
 40
1.0
 40
1.0
 40
1.0
 40
1.0
 10
-10.965893507
 20
7.6995874629
 30
0.0
 10
-10.965893507
 20
7.8619339451
 30
0.0
 10
-11.0040928125
 20
7.9997238502
 30
0.0
 10
-11.0792854424
 20
8.1128515683
 30
0.0
  0
SPLINE
  5
264
100
AcDbEntity
  8
CURVE
100
AcDbSpline
 62
250
  6
CONTINUOUS
 70
0
 71
3
 72
8
 73
4
 74
0
 42
0.0000001
 43
0.0000001
 44
0.0000000001
 40
0.0
 40
0.0
 40
0.0
 40
0.0
 40
1.0
 40
1.0
 40
1.0
 40
1.0
 10
-11.0792854424
 20
8.1128515683
 30
0.0
 10
-11.1555252075
 20
8.2275547073
 30
0.0
 10
-11.2701227665
 20
8.3189598903
 30
0.0
 10
-11.4242837457
 20
8.3899012281
 30
0.0
  0
SPLINE
  5
265
100
AcDbEntity
  8
CURVE
100
AcDbSpline
 62
250
  6
CONTINUOUS
 70
0
 71
3
 72
8
 73
4
 74
0
 42
0.0000001
 43
0.0000001
 44
0.0000000001
 40
0.0
 40
0.0
 40
0.0
 40
0.0
 40
1.0
 40
1.0
 40
1.0
 40
1.0
 10
-11.4242837457
 20
8.3899012281
 30
0.0
 10
-11.5784447193
 20
8.4608425632
 30
0.0
 10
-11.7748976946
 20
8.4949489743
 30
0.0
 10
-12.0122783184
 20
8.4949489743
 30
0.0
  0
SPLINE
  5
266
100
AcDbEntity
  8
CURVE
100
AcDbSpline
 62
250
  6
CONTINUOUS
 70
0
 71
3
 72
8
 73
4
 74
0
 42
0.0000001
 43
0.0000001
 44
0.0000000001
 40
0.0
 40
0.0
 40
0.0
 40
0.0
 40
1.0
 40
1.0
 40
1.0
 40
1.0
 10
-11.9986357689
 20
8.1538848564
 30
0.0
 10
-11.7639836073
 20
8.1538848564
 30
0.0
 10
-11.5907230377
 20
8.1115929172
 30
0.0
 10
-11.4788540313
 20
8.027009047
 30
0.0
  0
SPLINE
  5
267
100
AcDbEntity
  8
CURVE
100
AcDbSpline
 62
250
  6
CONTINUOUS
 70
0
 71
3
 72
8
 73
4
 74
0
 42
0.0000001
 43
0.0000001
 44
0.0000000001
 40
0.0
 40
0.0
 40
0.0
 40
0.0
 40
1.0
 40
1.0
 40
1.0
 40
1.0
 10
-11.4788540313
 20
8.027009047
 30
0.0
 10
-11.3669849634
 20
7.9424251303
 30
0.0
 10
-11.3110505342
 20
7.8332845554
 30
0.0
 10
-11.3110505342
 20
7.6982231722
 30
0.0
  0
SPLINE
  5
268
100
AcDbEntity
  8
CURVE
100
AcDbSpline
 62
250
  6
CONTINUOUS
 70
0
 71
3
 72
8
 73
4
 74
0
 42
0.0000001
 43
0.0000001
 44
0.0000000001
 40
0.0
 40
0.0
 40
0.0
 40
0.0
 40
1.0
 40
1.0
 40
1.0
 40
1.0
 10
-11.3110505342
 20
7.6982231722
 30
0.0
 10
-11.3110505342
 20
7.5631617889
 30
0.0
 10
-11.3669849634
 20
7.4540212736
 30
0.0
 10
-11.47773417
 20
7.371129241
 30
0.0
  0
SPLINE
  5
269
100
AcDbEntity
  8
CURVE
100
AcDbSpline
 62
250
  6
CONTINUOUS
 70
0
 71
3
 72
8
 73
4
 74
0
 42
0.0000001
 43
0.0000001
 44
0.0000000001
 40
0.0
 40
0.0
 40
0.0
 40
0.0
 40
1.0
 40
1.0
 40
1.0
 40
1.0
 10
-11.47773417
 20
7.371129241
 30
0.0
 10
-11.5893588066
 20
7.2875819788
 30
0.0
 10
-11.759890914
 20
7.2452900991
 30
0.0
 10
-11.9918144941
 20
7.2452900991
 30
0.0
  0
SPLINE
  5
26A
100
AcDbEntity
  8
CURVE
100
AcDbSpline
 62
250
  6
CONTINUOUS
 70
0
 71
3
 72
8
 73
4
 74
0
 42
0.0000001
 43
0.0000001
 44
0.0000000001
 40
0.0
 40
0.0
 40
0.0
 40
0.0
 40
1.0
 40
1.0
 40
1.0
 40
1.0
 10
-11.9918144941
 20
7.2452900991
 30
0.0
 10
-12.229195118
 20
7.2452900991
 30
0.0
 10
-12.4038199186
 20
7.2889462099
 30
0.0
 10
-12.5187433143
 20
7.3744547127
 30
0.0
  0
SPLINE
  5
26B
100
AcDbEntity
  8
CURVE
100
AcDbSpline
 62
250
  6
CONTINUOUS
 70
0
 71
3
 72
8
 73
4
 74
0
 42
0.0000001
 43
0.0000001
 44
0.0000000001
 40
0.0
 40
0.0
 40
0.0
 40
0.0
 40
1.0
 40
1.0
 40
1.0
 40
1.0
 10
-12.5187433143
 20
7.3744547127
 30
0.0
 10
-12.6330150068
 20
7.4594783172
 30
0.0
 10
-12.6889495254
 20
7.5686188326
 30
0.0
 10
-12.6889495254
 20
7.6982231722
 30
0.0
  0
SPLINE
  5
26C
100
AcDbEntity
  8
CURVE
100
AcDbSpline
 62
250
  6
CONTINUOUS
 70
0
 71
3
 72
8
 73
4
 74
0
 42
0.0000001
 43
0.0000001
 44
0.0000000001
 40
0.0
 40
0.0
 40
0.0
 40
0.0
 40
1.0
 40
1.0
 40
1.0
 40
1.0
 10
-12.6889495254
 20
7.6982231722
 30
0.0
 10
-12.6889495254
 20
7.8278275714
 30
0.0
 10
-12.6316507459
 20
7.935603796
 30
0.0
 10
-12.5170532023
 20
8.0229162371
 30
0.0
  0
SPLINE
  5
26D
100
AcDbEntity
  8
CURVE
100
AcDbSpline
 62
250
  6
CONTINUOUS
 70
0
 71
3
 72
8
 73
4
 74
0
 42
0.0000001
 43
0.0000001
 44
0.0000000001
 40
0.0
 40
0.0
 40
0.0
 40
0.0
 40
1.0
 40
1.0
 40
1.0
 40
1.0
 10
-12.5170532023
 20
8.0229162371
 30
0.0
 10
-12.4024556875
 20
8.1102286563
 30
0.0
 10
-12.229195118
 20
8.1538848564
 30
0.0
 10
-11.9986357689
 20
8.1538848564
 30
0.0
  0
SPLINE
  5
26E
100
AcDbEntity
  8
CURVE
100
AcDbSpline
 62
250
  6
CONTINUOUS
 70
0
 71
3
 72
8
 73
4
 74
0
 42
0.0000001
 43
0.0000001
 44
0.0000000001
 40
0.0
 40
0.0
 40
0.0
 40
0.0
 40
1.0
 40
1.0
 40
1.0
 40
1.0
 10
-12.0668485761
 20
6.6477456674
 30
0.0
 10
-12.3669849634
 20
6.6477456674
 30
0.0
 10
-12.5716234744
 20
6.6272818432
 30
0.0
 10
-12.6834925048
 20
6.5836256725
 30
0.0
  0
SPLINE
  5
26F
100
AcDbEntity
  8
CURVE
100
AcDbSpline
 62
250
  6
CONTINUOUS
 70
0
 71
3
 72
8
 73
4
 74
0
 42
0.0000001
 43
0.0000001
 44
0.0000000001
 40
0.0
 40
0.0
 40
0.0
 40
0.0
 40
1.0
 40
1.0
 40
1.0
 40
1.0
 10
-12.6834925048
 20
6.5836256725
 30
0.0
 10
-12.7953615338
 20
6.5399695024
 30
0.0
 10
-12.8813096881
 20
6.4703922853
 30
0.0
 10
-12.9422145859
 20
6.3745868144
 30
0.0
  0
SPLINE
  5
270
100
AcDbEntity
  8
CURVE
100
AcDbSpline
 62
250
  6
CONTINUOUS
 70
0
 71
3
 72
8
 73
4
 74
0
 42
0.0000001
 43
0.0000001
 44
0.0000000001
 40
0.0
 40
0.0
 40
0.0
 40
0.0
 40
1.0
 40
1.0
 40
1.0
 40
1.0
 10
-12.9422145859
 20
6.3745868144
 30
0.0
 10
-13.002728513
 20
6.2793963537
 30
0.0
 10
-13.034106411
 20
6.1456993208
 30
0.0
 10
-13.034106411
 20
5.9738031015
 30
0.0
  0
SPLINE
  5
271
100
AcDbEntity
  8
CURVE
100
AcDbSpline
 62
250
  6
CONTINUOUS
 70
0
 71
3
 72
8
 73
4
 74
0
 42
0.0000001
 43
0.0000001
 44
0.0000000001
 40
0.0
 40
0.0
 40
0.0
 40
0.0
 40
1.0
 40
1.0
 40
1.0
 40
1.0
 10
-13.034106411
 20
5.9738031015
 30
0.0
 10
-13.034106411
 20
5.8100922689
 30
0.0
 10
-12.997271487
 20
5.6777592287
 30
0.0
 10
-12.9236016945
 20
5.5768044141
 30
0.0
  0
SPLINE
  5
272
100
AcDbEntity
  8
CURVE
100
AcDbSpline
 62
250
  6
CONTINUOUS
 70
0
 71
3
 72
8
 73
4
 74
0
 42
0.0000001
 43
0.0000001
 44
0.0000000001
 40
0.0
 40
0.0
 40
0.0
 40
0.0
 40
1.0
 40
1.0
 40
1.0
 40
1.0
 10
-12.9236016945
 20
5.5768044141
 30
0.0
 10
-12.8499317914
 20
5.4758494482
 30
0.0
 10
-12.7530695796
 20
5.4117293939
 30
0.0
 10
-12.6330150337
 20
5.383079951
 30
0.0
  0
SPLINE
  5
273
100
AcDbEntity
  8
CURVE
100
AcDbSpline
 62
250
  6
CONTINUOUS
 70
0
 71
3
 72
8
 73
4
 74
0
 42
0.0000001
 43
0.0000001
 44
0.0000000001
 40
0.0
 40
0.0
 40
0.0
 40
0.0
 40
1.0
 40
1.0
 40
1.0
 40
1.0
 10
-12.6330150337
 20
5.383079951
 30
0.0
 10
-12.512960434
 20
5.3544304952
 30
0.0
 10
-12.3192360401
 20
5.3394237146
 30
0.0
 10
-12.0504775047
 20
5.3394237146
 30
0.0
  0
SPLINE
  5
274
100
AcDbEntity
  8
CURVE
100
AcDbSpline
 62
250
  6
CONTINUOUS
 70
0
 71
3
 72
8
 73
4
 74
0
 42
0.0000001
 43
0.0000001
 44
0.0000000001
 40
0.0
 40
0.0
 40
0.0
 40
0.0
 40
1.0
 40
1.0
 40
1.0
 40
1.0
 10
-12.1064119935
 20
5.669573842
 30
0.0
 10
-12.305593431
 20
5.669573842
 30
0.0
 10
-12.4365620613
 20
5.6791236982
 30
0.0
 10
-12.4965893614
 20
5.6968589451
 30
0.0
  0
SPLINE
  5
275
100
AcDbEntity
  8
CURVE
100
AcDbSpline
 62
250
  6
CONTINUOUS
 70
0
 71
3
 72
8
 73
4
 74
0
 42
0.0000001
 43
0.0000001
 44
0.0000000001
 40
0.0
 40
0.0
 40
0.0
 40
0.0
 40
1.0
 40
1.0
 40
1.0
 40
1.0
 10
-12.4965893614
 20
5.6968589451
 30
0.0
 10
-12.5566166341
 20
5.7145941839
 30
0.0
 10
-12.604365617
 20
5.7473364458
 30
0.0
 10
-12.6387924424
 20
5.7962224617
 30
0.0
  0
SPLINE
  5
276
100
AcDbEntity
  8
CURVE
100
AcDbSpline
 62
250
  6
CONTINUOUS
 70
0
 71
3
 72
8
 73
4
 74
0
 42
0.0000001
 43
0.0000001
 44
0.0000000001
 40
0.0
 40
0.0
 40
0.0
 40
0.0
 40
1.0
 40
1.0
 40
1.0
 40
1.0
 10
-12.6387924424
 20
5.7962224617
 30
0.0
 10
-12.672578454
 20
5.8441985235
 30
0.0
 10
-12.6889495254
 20
5.9069543466
 30
0.0
 10
-12.6889495254
 20
5.9833527193
 30
0.0
  0
SPLINE
  5
277
100
AcDbEntity
  8
CURVE
100
AcDbSpline
 62
250
  6
CONTINUOUS
 70
0
 71
3
 72
8
 73
4
 74
0
 42
0.0000001
 43
0.0000001
 44
0.0000000001
 40
0.0
 40
0.0
 40
0.0
 40
0.0
 40
1.0
 40
1.0
 40
1.0
 40
1.0
 10
-12.6889495254
 20
5.9833527193
 30
0.0
 10
-12.6889495254
 20
6.0733936414
 30
0.0
 10
-12.6657571495
 20
6.1456993208
 30
0.0
 10
-12.6166916354
 20
6.2016755241
 30
0.0
  0
SPLINE
  5
278
100
AcDbEntity
  8
CURVE
100
AcDbSpline
 62
250
  6
CONTINUOUS
 70
0
 71
3
 72
8
 73
4
 74
0
 42
0.0000001
 43
0.0000001
 44
0.0000000001
 40
0.0
 40
0.0
 40
0.0
 40
0.0
 40
1.0
 40
1.0
 40
1.0
 40
1.0
 10
-12.6166916354
 20
6.2016755241
 30
0.0
 10
-12.5688949525
 20
6.2562041864
 30
0.0
 10
-12.5006821156
 20
6.2916746721
 30
0.0
 10
-12.4120471211
 20
6.3055782483
 30
0.0
  0
SPLINE
  5
279
100
AcDbEntity
  8
CURVE
100
AcDbSpline
 62
250
  6
CONTINUOUS
 70
0
 71
3
 72
8
 73
4
 74
0
 42
0.0000001
 43
0.0000001
 44
0.0000000001
 40
0.0
 40
0.0
 40
0.0
 40
0.0
 40
1.0
 40
1.0
 40
1.0
 40
1.0
 10
-12.4120471211
 20
6.3055782483
 30
0.0
 10
-12.3615279794
 20
6.3135028467
 30
0.0
 10
-12.252387464
 20
6.31759554
 30
0.0
 10
-12.0832196474
 20
6.31759554
 30
0.0
  0
SPLINE
  5
27A
100
AcDbEntity
  8
CURVE
100
AcDbSpline
 62
250
  6
CONTINUOUS
 70
0
 71
3
 72
8
 73
4
 74
0
 42
0.0000001
 43
0.0000001
 44
0.0000000001
 40
0.0
 40
0.0
 40
0.0
 40
0.0
 40
1.0
 40
1.0
 40
1.0
 40
1.0
 10
-3.1506139293
 20
10.5031345994
 30
0.0
 10
-3.3443383232
 20
10.5031345994
 30
0.0
 10
-3.4957708076
 20
10.4349217326
 30
0.0
 10
-3.6034030149
 20
10.2983825495
 30
0.0
  0
SPLINE
  5
27B
100
AcDbEntity
  8
CURVE
100
AcDbSpline
 62
250
  6
CONTINUOUS
 70
0
 71
3
 72
8
 73
4
 74
0
 42
0.0000001
 43
0.0000001
 44
0.0000000001
 40
0.0
 40
0.0
 40
0.0
 40
0.0
 40
1.0
 40
1.0
 40
1.0
 40
1.0
 10
-3.6034030149
 20
10.2983825495
 30
0.0
 10
-3.7345156923
 20
10.1320567042
 30
0.0
 10
-3.8
 20
9.8619339377
 30
0.0
 10
-3.8
 20
9.4853991777
 30
0.0
  0
SPLINE
  5
27C
100
AcDbEntity
  8
CURVE
100
AcDbSpline
 62
250
  6
CONTINUOUS
 70
0
 71
3
 72
8
 73
4
 74
0
 42
0.0000001
 43
0.0000001
 44
0.0000000001
 40
0.0
 40
0.0
 40
0.0
 40
0.0
 40
1.0
 40
1.0
 40
1.0
 40
1.0
 10
-3.8
 20
9.4853991777
 30
0.0
 10
-3.8
 20
9.1006788522
 30
0.0
 10
-3.7413369671
 20
8.8346488387
 30
0.0
 10
-3.6217006403
 20
8.684248886
 30
0.0
  0
SPLINE
  5
27D
100
AcDbEntity
  8
CURVE
100
AcDbSpline
 62
250
  6
CONTINUOUS
 70
0
 71
3
 72
8
 73
4
 74
0
 42
0.0000001
 43
0.0000001
 44
0.0000000001
 40
0.0
 40
0.0
 40
0.0
 40
0.0
 40
1.0
 40
1.0
 40
1.0
 40
1.0
 10
-3.6217006403
 20
8.684248886
 30
0.0
 10
-3.5025920823
 20
8.5345124141
 30
0.0
 10
-3.3457026139
 20
8.4608425632
 30
0.0
 10
-3.1506139293
 20
8.4608425632
 30
0.0
  0
SPLINE
  5
27E
100
AcDbEntity
  8
CURVE
100
AcDbSpline
 62
250
  6
CONTINUOUS
 70
0
 71
3
 72
8
 73
4
 74
0
 42
0.0000001
 43
0.0000001
 44
0.0000000001
 40
0.0
 40
0.0
 40
0.0
 40
0.0
 40
1.0
 40
1.0
 40
1.0
 40
1.0
 10
-3.1506139293
 20
8.4608425632
 30
0.0
 10
-2.9568894759
 20
8.4608425632
 30
0.0
 10
-2.806821312
 20
8.5290553853
 30
0.0
 10
-2.697983185
 20
8.6657214004
 30
0.0
  0
SPLINE
  5
27F
100
AcDbEntity
  8
CURVE
100
AcDbSpline
 62
250
  6
CONTINUOUS
 70
0
 71
3
 72
8
 73
4
 74
0
 42
0.0000001
 43
0.0000001
 44
0.0000000001
 40
0.0
 40
0.0
 40
0.0
 40
0.0
 40
1.0
 40
1.0
 40
1.0
 40
1.0
 10
-2.697983185
 20
8.6657214004
 30
0.0
 10
-2.5667121068
 20
8.8305560559
 30
0.0
 10
-2.5012278214
 20
9.1020430833
 30
0.0
 10
-2.5012278214
 20
9.4813064248
 30
0.0
  0
SPLINE
  5
280
100
AcDbEntity
  8
CURVE
100
AcDbSpline
 62
250
  6
CONTINUOUS
 70
0
 71
3
 72
8
 73
4
 74
0
 42
0.0000001
 43
0.0000001
 44
0.0000000001
 40
0.0
 40
0.0
 40
0.0
 40
0.0
 40
1.0
 40
1.0
 40
1.0
 40
1.0
 10
-2.5012278214
 20
9.4813064248
 30
0.0
 10
-2.5012278214
 20
9.8605697066
 30
0.0
 10
-2.5667121068
 20
10.1320567042
 30
0.0
 10
-2.6963355356
 20
10.2957525132
 30
0.0
  0
SPLINE
  5
281
100
AcDbEntity
  8
CURVE
100
AcDbSpline
 62
250
  6
CONTINUOUS
 70
0
 71
3
 72
8
 73
4
 74
0
 42
0.0000001
 43
0.0000001
 44
0.0000000001
 40
0.0
 40
0.0
 40
0.0
 40
0.0
 40
1.0
 40
1.0
 40
1.0
 40
1.0
 10
-2.6963355356
 20
10.2957525132
 30
0.0
 10
-2.8054570809
 20
10.4335573823
 30
0.0
 10
-2.9568894759
 20
10.5031345994
 30
0.0
 10
-3.1506139293
 20
10.5031345994
 30
0.0
  0
SPLINE
  5
282
100
AcDbEntity
  8
CURVE
100
AcDbSpline
 62
250
  6
CONTINUOUS
 70
0
 71
3
 72
8
 73
4
 74
0
 42
0.0000001
 43
0.0000001
 44
0.0000000001
 40
0.0
 40
0.0
 40
0.0
 40
0.0
 40
1.0
 40
1.0
 40
1.0
 40
1.0
 10
-3.1506139293
 20
10.1852627903
 30
0.0
 10
-3.1042291775
 20
10.1852627903
 30
0.0
 10
-3.063301529
 20
10.1702558905
 30
0.0
 10
-3.0278308467
 20
10.1402422798
 30
0.0
  0
SPLINE
  5
283
100
AcDbEntity
  8
CURVE
100
AcDbSpline
 62
250
  6
CONTINUOUS
 70
0
 71
3
 72
8
 73
4
 74
0
 42
0.0000001
 43
0.0000001
 44
0.0000000001
 40
0.0
 40
0.0
 40
0.0
 40
0.0
 40
1.0
 40
1.0
 40
1.0
 40
1.0
 10
-3.0278308467
 20
10.1402422798
 30
0.0
 10
-2.9923601404
 20
10.1102286488
 30
0.0
 10
-2.9623465195
 20
10.0515656382
 30
0.0
 10
-2.9384252182
 20
9.9640819382
 30
0.0
  0
SPLINE
  5
284
100
AcDbEntity
  8
CURVE
100
AcDbSpline
 62
250
  6
CONTINUOUS
 70
0
 71
3
 72
8
 73
4
 74
0
 42
0.0000001
 43
0.0000001
 44
0.0000000001
 40
0.0
 40
0.0
 40
0.0
 40
0.0
 40
1.0
 40
1.0
 40
1.0
 40
1.0
 10
-2.9384252182
 20
9.9640819382
 30
0.0
 10
-2.9145975962
 20
9.8769408375
 30
0.0
 10
-2.9023192778
 20
9.7159584672
 30
0.0
 10
-2.9023192778
 20
9.4813064248
 30
0.0
  0
SPLINE
  5
285
100
AcDbEntity
  8
CURVE
100
AcDbSpline
 62
250
  6
CONTINUOUS
 70
0
 71
3
 72
8
 73
4
 74
0
 42
0.0000001
 43
0.0000001
 44
0.0000000001
 40
0.0
 40
0.0
 40
0.0
 40
0.0
 40
1.0
 40
1.0
 40
1.0
 40
1.0
 10
-2.9023192778
 20
9.4813064248
 30
0.0
 10
-2.9023192778
 20
9.2466543228
 30
0.0
 10
-2.9159618273
 20
9.080215028
 30
0.0
 10
-2.9420419351
 20
8.982031016
 30
0.0
  0
SPLINE
  5
286
100
AcDbEntity
  8
CURVE
100
AcDbSpline
 62
250
  6
CONTINUOUS
 70
0
 71
3
 72
8
 73
4
 74
0
 42
0.0000001
 43
0.0000001
 44
0.0000000001
 40
0.0
 40
0.0
 40
0.0
 40
0.0
 40
1.0
 40
1.0
 40
1.0
 40
1.0
 10
-2.9420419351
 20
8.982031016
 30
0.0
 10
-2.9623465195
 20
8.9055901677
 30
0.0
 10
-2.9909959093
 20
8.8523841709
 30
0.0
 10
-3.0267433647
 20
8.8227070556
 30
0.0
  0
SPLINE
  5
287
100
AcDbEntity
  8
CURVE
100
AcDbSpline
 62
250
  6
CONTINUOUS
 70
0
 71
3
 72
8
 73
4
 74
0
 42
0.0000001
 43
0.0000001
 44
0.0000000001
 40
0.0
 40
0.0
 40
0.0
 40
0.0
 40
1.0
 40
1.0
 40
1.0
 40
1.0
 10
-3.0267433647
 20
8.8227070556
 30
0.0
 10
-3.063301529
 20
8.7923568994
 30
0.0
 10
-3.1042291775
 20
8.7787143201
 30
0.0
 10
-3.1506139293
 20
8.7787143201
 30
0.0
  0
SPLINE
  5
288
100
AcDbEntity
  8
CURVE
100
AcDbSpline
 62
250
  6
CONTINUOUS
 70
0
 71
3
 72
8
 73
4
 74
0
 42
0.0000001
 43
0.0000001
 44
0.0000000001
 40
0.0
 40
0.0
 40
0.0
 40
0.0
 40
1.0
 40
1.0
 40
1.0
 40
1.0
 10
-3.1506139293
 20
8.7787143201
 30
0.0
 10
-3.1969986215
 20
8.7787143201
 30
0.0
 10
-3.2392905608
 20
8.7923568994
 30
0.0
 10
-3.2750939278
 20
8.8219634992
 30
0.0
  0
SPLINE
  5
289
100
AcDbEntity
  8
CURVE
100
AcDbSpline
 62
250
  6
CONTINUOUS
 70
0
 71
3
 72
8
 73
4
 74
0
 42
0.0000001
 43
0.0000001
 44
0.0000000001
 40
0.0
 40
0.0
 40
0.0
 40
0.0
 40
1.0
 40
1.0
 40
1.0
 40
1.0
 10
-3.2750939278
 20
8.8219634992
 30
0.0
 10
-3.3102319494
 20
8.85101991
 30
0.0
 10
-3.3402455702
 20
8.9096829504
 30
0.0
 10
-3.3640719813
 20
8.996819529
 30
0.0
  0
SPLINE
  5
28A
100
AcDbEntity
  8
CURVE
100
AcDbSpline
 62
250
  6
CONTINUOUS
 70
0
 71
3
 72
8
 73
4
 74
0
 42
0.0000001
 43
0.0000001
 44
0.0000000001
 40
0.0
 40
0.0
 40
0.0
 40
0.0
 40
1.0
 40
1.0
 40
1.0
 40
1.0
 10
-3.3640719813
 20
8.996819529
 30
0.0
 10
-3.3879945531
 20
9.0843077809
 30
0.0
 10
-3.3989085808
 20
9.2466543228
 30
0.0
 10
-3.3989085808
 20
9.4813064248
 30
0.0
  0
SPLINE
  5
28B
100
AcDbEntity
  8
CURVE
100
AcDbSpline
 62
250
  6
CONTINUOUS
 70
0
 71
3
 72
8
 73
4
 74
0
 42
0.0000001
 43
0.0000001
 44
0.0000000001
 40
0.0
 40
0.0
 40
0.0
 40
0.0
 40
1.0
 40
1.0
 40
1.0
 40
1.0
 10
-3.3989085808
 20
9.4813064248
 30
0.0
 10
-3.3989085808
 20
9.7159584672
 30
0.0
 10
-3.3866302624
 20
9.882397762
 30
0.0
 10
-3.3603158625
 20
9.9822377884
 30
0.0
  0
SPLINE
  5
28C
100
AcDbEntity
  8
CURVE
100
AcDbSpline
 62
250
  6
CONTINUOUS
 70
0
 71
3
 72
8
 73
4
 74
0
 42
0.0000001
 43
0.0000001
 44
0.0000000001
 40
0.0
 40
0.0
 40
0.0
 40
0.0
 40
1.0
 40
1.0
 40
1.0
 40
1.0
 10
-3.3603158625
 20
9.9822377884
 30
0.0
 10
-3.3402455702
 20
10.058386913
 30
0.0
 10
-3.3115961805
 20
10.1102286488
 30
0.0
 10
-3.2750411233
 20
10.1405762105
 30
0.0
  0
SPLINE
  5
28D
100
AcDbEntity
  8
CURVE
100
AcDbSpline
 62
250
  6
CONTINUOUS
 70
0
 71
3
 72
8
 73
4
 74
0
 42
0.0000001
 43
0.0000001
 44
0.0000000001
 40
0.0
 40
0.0
 40
0.0
 40
0.0
 40
1.0
 40
1.0
 40
1.0
 40
1.0
 10
-3.2750411233
 20
10.1405762105
 30
0.0
 10
-3.2392905608
 20
10.1702558905
 30
0.0
 10
-3.1969986215
 20
10.1852627903
 30
0.0
 10
-3.1506139293
 20
10.1852627903
 30
0.0
  0
SPLINE
  5
28E
100
AcDbEntity
  8
CURVE
100
AcDbSpline
 62
250
  6
CONTINUOUS
 70
0
 71
3
 72
8
 73
4
 74
0
 42
0.0000001
 43
0.0000001
 44
0.0000000001
 40
0.0
 40
0.0
 40
0.0
 40
0.0
 40
1.0
 40
1.0
 40
1.0
 40
1.0
 10
-1.5748976126
 20
10.5031345994
 30
0.0
 10
-1.6185539618
 20
10.3803514153
 30
0.0
 10
-1.6990450278
 20
10.2739394814
 30
0.0
 10
-1.8163711004
 20
10.1825342749
 30
0.0
  0
SPLINE
  5
28F
100
AcDbEntity
  8
CURVE
100
AcDbSpline
 62
250
  6
CONTINUOUS
 70
0
 71
3
 72
8
 73
4
 74
0
 42
0.0000001
 43
0.0000001
 44
0.0000000001
 40
0.0
 40
0.0
 40
0.0
 40
0.0
 40
1.0
 40
1.0
 40
1.0
 40
1.0
 10
-1.8163711004
 20
10.1825342749
 30
0.0
 10
-1.9336971894
 20
10.0911290556
 30
0.0
 10
-2.0428377047
 20
10.0297374636
 30
0.0
 10
-2.1424283639
 20
9.9969953209
 30
0.0
  0
SPLINE
  5
290
100
AcDbEntity
  8
CURVE
100
AcDbSpline
 62
250
  6
CONTINUOUS
 70
0
 71
3
 72
8
 73
4
 74
0
 42
0.0000001
 43
0.0000001
 44
0.0000000001
 40
0.0
 40
0.0
 40
0.0
 40
0.0
 40
1.0
 40
1.0
 40
1.0
 40
1.0
 10
-2.1424283639
 20
9.6491099507
 30
0.0
 10
-1.9527967826
 20
9.7118657738
 30
0.0
 10
-1.7877217188
 20
9.8087279707
 30
0.0
 10
-1.647203292
 20
9.9396965415
 30
0.0
  0
SPLINE
  5
291
100
AcDbEntity
  8
CURVE
100
AcDbSpline
 62
250
  6
CONTINUOUS
 70
0
 71
3
 72
8
 73
4
 74
0
 42
0.0000001
 43
0.0000001
 44
0.0000000001
 40
0.0
 40
0.0
 40
0.0
 40
0.0
 40
1.0
 40
1.0
 40
1.0
 40
1.0
 10
0.6079124555
 20
10.005180946
 30
0.0
 10
0.5806273565
 20
10.1661631972
 30
0.0
 10
0.5165075406
 20
10.2903104931
 30
0.0
 10
0.4169167623
 20
10.3748943717
 30
0.0
  0
SPLINE
  5
292
100
AcDbEntity
  8
CURVE
100
AcDbSpline
 62
250
  6
CONTINUOUS
 70
0
 71
3
 72
8
 73
4
 74
0
 42
0.0000001
 43
0.0000001
 44
0.0000000001
 40
0.0
 40
0.0
 40
0.0
 40
0.0
 40
1.0
 40
1.0
 40
1.0
 40
1.0
 10
0.4169167623
 20
10.3748943717
 30
0.0
 10
0.3173259839
 20
10.4594782502
 30
0.0
 10
0.1918143377
 20
10.5031345994
 30
0.0
 10
0.0403820619
 20
10.5031345994
 30
0.0
  0
SPLINE
  5
293
100
AcDbEntity
  8
CURVE
100
AcDbSpline
 62
250
  6
CONTINUOUS
 70
0
 71
3
 72
8
 73
4
 74
0
 42
0.0000001
 43
0.0000001
 44
0.0000000001
 40
0.0
 40
0.0
 40
0.0
 40
0.0
 40
1.0
 40
1.0
 40
1.0
 40
1.0
 10
0.0403820619
 20
10.5031345994
 30
0.0
 10
-0.1765347376
 20
10.5031345994
 30
0.0
 10
-0.3525238886
 20
10.4212791831
 30
0.0
 10
-0.4876493861
 20
10.2603507687
 30
0.0
  0
SPLINE
  5
294
100
AcDbEntity
  8
CURVE
100
AcDbSpline
 62
250
  6
CONTINUOUS
 70
0
 71
3
 72
8
 73
4
 74
0
 42
0.0000001
 43
0.0000001
 44
0.0000000001
 40
0.0
 40
0.0
 40
0.0
 40
0.0
 40
1.0
 40
1.0
 40
1.0
 40
1.0
 10
-0.4876493861
 20
10.2603507687
 30
0.0
 10
-0.6240108863
 20
10.0979503304
 30
0.0
 10
-0.6908594027
 20
9.8332846076
 30
0.0
 10
-0.6908594027
 20
9.4676638156
 30
0.0
  0
SPLINE
  5
295
100
AcDbEntity
  8
CURVE
100
AcDbSpline
 62
250
  6
CONTINUOUS
 70
0
 71
3
 72
8
 73
4
 74
0
 42
0.0000001
 43
0.0000001
 44
0.0000000001
 40
0.0
 40
0.0
 40
0.0
 40
0.0
 40
1.0
 40
1.0
 40
1.0
 40
1.0
 10
-0.6908594027
 20
9.4676638156
 30
0.0
 10
-0.6908594027
 20
9.1102286488
 30
0.0
 10
-0.6267393485
 20
8.8523841709
 30
0.0
 10
-0.4961749173
 20
8.6951599408
 30
0.0
  0
SPLINE
  5
296
100
AcDbEntity
  8
CURVE
100
AcDbSpline
 62
250
  6
CONTINUOUS
 70
0
 71
3
 72
8
 73
4
 74
0
 42
0.0000001
 43
0.0000001
 44
0.0000000001
 40
0.0
 40
0.0
 40
0.0
 40
0.0
 40
1.0
 40
1.0
 40
1.0
 40
1.0
 10
-0.4961749173
 20
8.6951599408
 30
0.0
 10
-0.3661664382
 20
8.5386051819
 30
0.0
 10
-0.1997271433
 20
8.4608425632
 30
0.0
 10
0.0021828756
 20
8.4608425632
 30
0.0
  0
SPLINE
  5
297
100
AcDbEntity
  8
CURVE
100
AcDbSpline
 62
250
  6
CONTINUOUS
 70
0
 71
3
 72
8
 73
4
 74
0
 42
0.0000001
 43
0.0000001
 44
0.0000000001
 40
0.0
 40
0.0
 40
0.0
 40
0.0
 40
1.0
 40
1.0
 40
1.0
 40
1.0
 10
0.0021828756
 20
8.4608425632
 30
0.0
 10
0.1904501066
 20
8.4608425632
 30
0.0
 10
0.344611083
 20
8.5222341031
 30
0.0
 10
0.4650062772
 20
8.6460494578
 30
0.0
  0
SPLINE
  5
298
100
AcDbEntity
  8
CURVE
100
AcDbSpline
 62
250
  6
CONTINUOUS
 70
0
 71
3
 72
8
 73
4
 74
0
 42
0.0000001
 43
0.0000001
 44
0.0000000001
 40
0.0
 40
0.0
 40
0.0
 40
0.0
 40
1.0
 40
1.0
 40
1.0
 40
1.0
 10
0.4650062772
 20
8.6460494578
 30
0.0
 10
0.5847205266
 20
8.7691645235
 30
0.0
 10
0.6447476491
 20
8.9342395574
 30
0.0
 10
0.6447476491
 20
9.1388780386
 30
0.0
  0
SPLINE
  5
299
100
AcDbEntity
  8
CURVE
100
AcDbSpline
 62
250
  6
CONTINUOUS
 70
0
 71
3
 72
8
 73
4
 74
0
 42
0.0000001
 43
0.0000001
 44
0.0000000001
 40
0.0
 40
0.0
 40
0.0
 40
0.0
 40
1.0
 40
1.0
 40
1.0
 40
1.0
 10
0.6447476491
 20
9.1388780386
 30
0.0
 10
0.6447476491
 20
9.3312382013
 30
0.0
 10
0.5874489889
 20
9.4881276995
 30
0.0
 10
0.4725113915
 20
9.6105909516
 30
0.0
  0
SPLINE
  5
29A
100
AcDbEntity
  8
CURVE
100
AcDbSpline
 62
250
  6
CONTINUOUS
 70
0
 71
3
 72
8
 73
4
 74
0
 42
0.0000001
 43
0.0000001
 44
0.0000000001
 40
0.0
 40
0.0
 40
0.0
 40
0.0
 40
1.0
 40
1.0
 40
1.0
 40
1.0
 10
0.4725113915
 20
9.6105909516
 30
0.0
 10
0.3582538709
 20
9.7323295981
 30
0.0
 10
0.2218278989
 20
9.7937211901
 30
0.0
 10
0.0622099981
 20
9.7937211901
 30
0.0
  0
SPLINE
  5
29B
100
AcDbEntity
  8
CURVE
100
AcDbSpline
 62
250
  6
CONTINUOUS
 70
0
 71
3
 72
8
 73
4
 74
0
 42
0.0000001
 43
0.0000001
 44
0.0000000001
 40
0.0
 40
0.0
 40
0.0
 40
0.0
 40
1.0
 40
1.0
 40
1.0
 40
1.0
 10
0.0622099981
 20
9.7937211901
 30
0.0
 10
-0.0796726599
 20
9.7937211901
 30
0.0
 10
-0.1983629122
 20
9.7364224106
 30
0.0
 10
-0.2938607588
 20
9.6245533139
 30
0.0
  0
SPLINE
  5
29C
100
AcDbEntity
  8
CURVE
100
AcDbSpline
 62
250
  6
CONTINUOUS
 70
0
 71
3
 72
8
 73
4
 74
0
 42
0.0000001
 43
0.0000001
 44
0.0000000001
 40
0.0
 40
0.0
 40
0.0
 40
0.0
 40
1.0
 40
1.0
 40
1.0
 40
1.0
 10
-0.2938607588
 20
9.6245533139
 30
0.0
 10
-0.2802182093
 20
9.8537484318
 30
0.0
 10
-0.2447477236
 20
10.005180946
 30
0.0
 10
-0.1884843753
 20
10.078597665
 30
0.0
  0
SPLINE
  5
29D
100
AcDbEntity
  8
CURVE
100
AcDbSpline
 62
250
  6
CONTINUOUS
 70
0
 71
3
 72
8
 73
4
 74
0
 42
0.0000001
 43
0.0000001
 44
0.0000000001
 40
0.0
 40
0.0
 40
0.0
 40
0.0
 40
1.0
 40
1.0
 40
1.0
 40
1.0
 10
-0.1884843753
 20
10.078597665
 30
0.0
 10
-0.1328786269
 20
10.1511562974
 30
0.0
 10
-0.0646656409
 20
10.1879912526
 30
0.0
 10
0.0171896562
 20
10.1879912526
 30
0.0
  0
SPLINE
  5
29E
100
AcDbEntity
  8
CURVE
100
AcDbSpline
 62
250
  6
CONTINUOUS
 70
0
 71
3
 72
8
 73
4
 74
0
 42
0.0000001
 43
0.0000001
 44
0.0000000001
 40
0.0
 40
0.0
 40
0.0
 40
0.0
 40
1.0
 40
1.0
 40
1.0
 40
1.0
 10
0.0171896562
 20
10.1879912526
 30
0.0
 10
0.0772170171
 20
10.1879912526
 30
0.0
 10
0.1276945218
 20
10.1688916594
 30
0.0
 10
0.1655513324
 20
10.1330629134
 30
0.0
  0
SPLINE
  5
29F
100
AcDbEntity
  8
CURVE
100
AcDbSpline
 62
250
  6
CONTINUOUS
 70
0
 71
3
 72
8
 73
4
 74
0
 42
0.0000001
 43
0.0000001
 44
0.0000000001
 40
0.0
 40
0.0
 40
0.0
 40
0.0
 40
1.0
 40
1.0
 40
1.0
 40
1.0
 10
0.1655513324
 20
10.1330629134
 30
0.0
 10
0.2040928945
 20
10.0965860993
 30
0.0
 10
0.2272853002
 20
10.0406515509
 30
0.0
 10
0.236834918
 20
9.9642531783
 30
0.0
  0
SPLINE
  5
2A0
100
AcDbEntity
  8
CURVE
100
AcDbSpline
 62
250
  6
CONTINUOUS
 70
0
 71
3
 72
8
 73
4
 74
0
 42
0.0000001
 43
0.0000001
 44
0.0000000001
 40
0.0
 40
0.0
 40
0.0
 40
0.0
 40
1.0
 40
1.0
 40
1.0
 40
1.0
 10
-0.2611187354
 20
9.1688916594
 30
0.0
 10
-0.2611187354
 20
9.2807606966
 30
0.0
 10
-0.2365620986
 20
9.3667088658
 30
0.0
 10
-0.1851010366
 20
9.42434526
 30
0.0
  0
SPLINE
  5
2A1
100
AcDbEntity
  8
CURVE
100
AcDbSpline
 62
250
  6
CONTINUOUS
 70
0
 71
3
 72
8
 73
4
 74
0
 42
0.0000001
 43
0.0000001
 44
0.0000000001
 40
0.0
 40
0.0
 40
0.0
 40
0.0
 40
1.0
 40
1.0
 40
1.0
 40
1.0
 10
-0.1851010366
 20
9.42434526
 30
0.0
 10
-0.134242858
 20
9.4813064248
 30
0.0
 10
-0.0714870349
 20
9.5113201052
 30
0.0
 10
0.0021828756
 20
9.5113201052
 30
0.0
  0
SPLINE
  5
2A2
100
AcDbEntity
  8
CURVE
100
AcDbSpline
 62
250
  6
CONTINUOUS
 70
0
 71
3
 72
8
 73
4
 74
0
 42
0.0000001
 43
0.0000001
 44
0.0000000001
 40
0.0
 40
0.0
 40
0.0
 40
0.0
 40
1.0
 40
1.0
 40
1.0
 40
1.0
 10
0.0021828756
 20
9.5113201052
 30
0.0
 10
0.0785812482
 20
9.5113201052
 30
0.0
 10
0.1413368329
 20
9.479942134
 30
0.0
 10
0.1927823238
 20
9.4195794412
 30
0.0
  0
SPLINE
  5
2A3
100
AcDbEntity
  8
CURVE
100
AcDbSpline
 62
250
  6
CONTINUOUS
 70
0
 71
3
 72
8
 73
4
 74
0
 42
0.0000001
 43
0.0000001
 44
0.0000000001
 40
0.0
 40
0.0
 40
0.0
 40
0.0
 40
1.0
 40
1.0
 40
1.0
 40
1.0
 10
0.1927823238
 20
9.4195794412
 30
0.0
 10
0.2436560735
 20
9.359887591
 30
0.0
 10
0.2695769414
 20
9.2643896252
 30
0.0
 10
0.2695769414
 20
9.1347852856
 30
0.0
  0
SPLINE
  5
2A4
100
AcDbEntity
  8
CURVE
100
AcDbSpline
 62
250
  6
CONTINUOUS
 70
0
 71
3
 72
8
 73
4
 74
0
 42
0.0000001
 43
0.0000001
 44
0.0000000001
 40
0.0
 40
0.0
 40
0.0
 40
0.0
 40
1.0
 40
1.0
 40
1.0
 40
1.0
 10
0.2695769414
 20
9.1347852856
 30
0.0
 10
0.2695769414
 20
9.0079094082
 30
0.0
 10
0.2450203046
 20
8.9165042252
 30
0.0
 10
0.1985773041
 20
8.8619839951
 30
0.0
  0
SPLINE
  5
2A5
100
AcDbEntity
  8
CURVE
100
AcDbSpline
 62
250
  6
CONTINUOUS
 70
0
 71
3
 72
8
 73
4
 74
0
 42
0.0000001
 43
0.0000001
 44
0.0000000001
 40
0.0
 40
0.0
 40
0.0
 40
0.0
 40
1.0
 40
1.0
 40
1.0
 40
1.0
 10
0.1985773041
 20
8.8619839951
 30
0.0
 10
0.1508869275
 20
8.8059994489
 30
0.0
 10
0.0922235593
 20
8.7787143201
 30
0.0
 10
0.0212823495
 20
8.7787143201
 30
0.0
  0
SPLINE
  5
2A6
100
AcDbEntity
  8
CURVE
100
AcDbSpline
 62
250
  6
CONTINUOUS
 70
0
 71
3
 72
8
 73
4
 74
0
 42
0.0000001
 43
0.0000001
 44
0.0000000001
 40
0.0
 40
0.0
 40
0.0
 40
0.0
 40
1.0
 40
1.0
 40
1.0
 40
1.0
 10
0.0212823495
 20
8.7787143201
 30
0.0
 10
-0.0523875609
 20
8.7787143201
 30
0.0
 10
-0.1178718463
 20
8.8114564926
 30
0.0
 10
-0.1751705691
 20
8.8796692472
 30
0.0
  0
SPLINE
  5
2A7
100
AcDbEntity
  8
CURVE
100
AcDbSpline
 62
250
  6
CONTINUOUS
 70
0
 71
3
 72
8
 73
4
 74
0
 42
0.0000001
 43
0.0000001
 44
0.0000000001
 40
0.0
 40
0.0
 40
0.0
 40
0.0
 40
1.0
 40
1.0
 40
1.0
 40
1.0
 10
-0.1751705691
 20
8.8796692472
 30
0.0
 10
-0.2324694052
 20
8.9478821367
 30
0.0
 10
-0.2611187354
 20
9.0433800727
 30
0.0
 10
-0.2611187354
 20
9.1688916594
 30
0.0
  0
SPLINE
  5
2A8
100
AcDbEntity
  8
CURVE
100
AcDbSpline
 62
250
  6
CONTINUOUS
 70
0
 71
3
 72
8
 73
4
 74
0
 42
0.0000001
 43
0.0000001
 44
0.0000000001
 40
0.0
 40
0.0
 40
0.0
 40
0.0
 40
1.0
 40
1.0
 40
1.0
 40
1.0
 10
2.425102149
 20
8.9574319333
 30
0.0
 10
2.452387248
 20
8.7909926385
 30
0.0
 10
2.5137790784
 20
8.6668452978
 30
0.0
 10
2.6103486647
 20
8.583288527
 30
0.0
  0
SPLINE
  5
2A9
100
AcDbEntity
  8
CURVE
100
AcDbSpline
 62
250
  6
CONTINUOUS
 70
0
 71
3
 72
8
 73
4
 74
0
 42
0.0000001
 43
0.0000001
 44
0.0000000001
 40
0.0
 40
0.0
 40
0.0
 40
0.0
 40
1.0
 40
1.0
 40
1.0
 40
1.0
 10
2.6103486647
 20
8.583288527
 30
0.0
 10
2.7061390027
 20
8.5004060002
 30
0.0
 10
2.8330148801
 20
8.4594783061
 30
0.0
 10
2.9899043187
 20
8.4594783061
 30
0.0
  0
SPLINE
  5
2AA
100
AcDbEntity
  8
CURVE
100
AcDbSpline
 62
250
  6
CONTINUOUS
 70
0
 71
3
 72
8
 73
4
 74
0
 42
0.0000001
 43
0.0000001
 44
0.0000000001
 40
0.0
 40
0.0
 40
0.0
 40
0.0
 40
1.0
 40
1.0
 40
1.0
 40
1.0
 10
2.9899043187
 20
8.4594783061
 30
0.0
 10
3.2068213567
 20
8.4594783061
 30
0.0
 10
3.3828105077
 20
8.5399694391
 30
0.0
 10
3.5191718535
 20
8.7023698043
 30
0.0
  0
SPLINE
  5
2AB
100
AcDbEntity
  8
CURVE
100
AcDbSpline
 62
250
  6
CONTINUOUS
 70
0
 71
3
 72
8
 73
4
 74
0
 42
0.0000001
 43
0.0000001
 44
0.0000000001
 40
0.0
 40
0.0
 40
0.0
 40
0.0
 40
1.0
 40
1.0
 40
1.0
 40
1.0
 10
3.5191718535
 20
8.7023698043
 30
0.0
 10
3.6542972669
 20
8.8632982284
 30
0.0
 10
3.7225102529
 20
9.1279640109
 30
0.0
 10
3.7225102529
 20
9.4935847432
 30
0.0
  0
SPLINE
  5
2AC
100
AcDbEntity
  8
CURVE
100
AcDbSpline
 62
250
  6
CONTINUOUS
 70
0
 71
3
 72
8
 73
4
 74
0
 42
0.0000001
 43
0.0000001
 44
0.0000000001
 40
0.0
 40
0.0
 40
0.0
 40
0.0
 40
1.0
 40
1.0
 40
1.0
 40
1.0
 10
3.7225102529
 20
9.4935847432
 30
0.0
 10
3.7225102529
 20
9.8523842007
 30
0.0
 10
3.6570257291
 20
10.1102286488
 30
0.0
 10
3.5270181401
 20
10.2667823396
 30
0.0
  0
SPLINE
  5
2AD
100
AcDbEntity
  8
CURVE
100
AcDbSpline
 62
250
  6
CONTINUOUS
 70
0
 71
3
 72
8
 73
4
 74
0
 42
0.0000001
 43
0.0000001
 44
0.0000000001
 40
0.0
 40
0.0
 40
0.0
 40
0.0
 40
1.0
 40
1.0
 40
1.0
 40
1.0
 10
3.5270181401
 20
10.2667823396
 30
0.0
 10
3.3964528188
 20
10.4240076453
 30
0.0
 10
3.2300137624
 20
10.5031345994
 30
0.0
 10
3.0281037435
 20
10.5031345994
 30
0.0
  0
SPLINE
  5
2AE
100
AcDbEntity
  8
CURVE
100
AcDbSpline
 62
250
  6
CONTINUOUS
 70
0
 71
3
 72
8
 73
4
 74
0
 42
0.0000001
 43
0.0000001
 44
0.0000000001
 40
0.0
 40
0.0
 40
0.0
 40
0.0
 40
1.0
 40
1.0
 40
1.0
 40
1.0
 10
3.0281037435
 20
10.5031345994
 30
0.0
 10
2.8412007436
 20
10.5031345994
 30
0.0
 10
2.6870397672
 20
10.440378657
 30
0.0
 10
2.5669850454
 20
10.3162313611
 30
0.0
  0
SPLINE
  5
2AF
100
AcDbEntity
  8
CURVE
100
AcDbSpline
 62
250
  6
CONTINUOUS
 70
0
 71
3
 72
8
 73
4
 74
0
 42
0.0000001
 43
0.0000001
 44
0.0000000001
 40
0.0
 40
0.0
 40
0.0
 40
0.0
 40
1.0
 40
1.0
 40
1.0
 40
1.0
 10
2.5669850454
 20
10.3162313611
 30
0.0
 10
2.4469303235
 20
10.1920840651
 30
0.0
 10
2.386903201
 20
10.0283732325
 30
0.0
 10
2.386903201
 20
9.8264633328
 30
0.0
  0
SPLINE
  5
2B0
100
AcDbEntity
  8
CURVE
100
AcDbSpline
 62
250
  6
CONTINUOUS
 70
0
 71
3
 72
8
 73
4
 74
0
 42
0.0000001
 43
0.0000001
 44
0.0000000001
 40
0.0
 40
0.0
 40
0.0
 40
0.0
 40
1.0
 40
1.0
 40
1.0
 40
1.0
 10
2.386903201
 20
9.8264633328
 30
0.0
 10
2.386903201
 20
9.6313745886
 30
0.0
 10
2.4428376302
 20
9.4731208593
 30
0.0
 10
2.5574353015
 20
9.3517019065
 30
0.0
  0
SPLINE
  5
2B1
100
AcDbEntity
  8
CURVE
100
AcDbSpline
 62
250
  6
CONTINUOUS
 70
0
 71
3
 72
8
 73
4
 74
0
 42
0.0000001
 43
0.0000001
 44
0.0000000001
 40
0.0
 40
0.0
 40
0.0
 40
0.0
 40
1.0
 40
1.0
 40
1.0
 40
1.0
 10
2.5574353015
 20
9.3517019065
 30
0.0
 10
2.6720327482
 20
9.2302831918
 30
0.0
 10
2.8070940122
 20
9.1702559501
 30
0.0
 10
2.9653476819
 20
9.1702559501
 30
0.0
  0
SPLINE
  5
2B2
100
AcDbEntity
  8
CURVE
100
AcDbSpline
 62
250
  6
CONTINUOUS
 70
0
 71
3
 72
8
 73
4
 74
0
 42
0.0000001
 43
0.0000001
 44
0.0000000001
 40
0.0
 40
0.0
 40
0.0
 40
0.0
 40
1.0
 40
1.0
 40
1.0
 40
1.0
 10
2.9653476819
 20
9.1702559501
 30
0.0
 10
3.1099590406
 20
9.1702559501
 30
0.0
 10
3.2300137624
 20
9.2261904389
 30
0.0
 10
3.3268760785
 20
9.338059476
 30
0.0
  0
SPLINE
  5
2B3
100
AcDbEntity
  8
CURVE
100
AcDbSpline
 62
250
  6
CONTINUOUS
 70
0
 71
3
 72
8
 73
4
 74
0
 42
0.0000001
 43
0.0000001
 44
0.0000000001
 40
0.0
 40
0.0
 40
0.0
 40
0.0
 40
1.0
 40
1.0
 40
1.0
 40
1.0
 10
3.3268760785
 20
9.338059476
 30
0.0
 10
3.3105048284
 20
9.1088644177
 30
0.0
 10
3.2750343427
 20
8.9574319333
 30
0.0
 10
3.220358504
 20
8.8852060419
 30
0.0
  0
SPLINE
  5
2B4
100
AcDbEntity
  8
CURVE
100
AcDbSpline
 62
250
  6
CONTINUOUS
 70
0
 71
3
 72
8
 73
4
 74
0
 42
0.0000001
 43
0.0000001
 44
0.0000000001
 40
0.0
 40
0.0
 40
0.0
 40
0.0
 40
1.0
 40
1.0
 40
1.0
 40
1.0
 10
3.220358504
 20
8.8852060419
 30
0.0
 10
3.1645292386
 20
8.8114564926
 30
0.0
 10
3.0976809606
 20
8.7759857983
 30
0.0
 10
3.0185536489
 20
8.7759857983
 30
0.0
  0
SPLINE
  5
2B5
100
AcDbEntity
  8
CURVE
100
AcDbSpline
 62
250
  6
CONTINUOUS
 70
0
 71
3
 72
8
 73
4
 74
0
 42
0.0000001
 43
0.0000001
 44
0.0000000001
 40
0.0
 40
0.0
 40
0.0
 40
0.0
 40
1.0
 40
1.0
 40
1.0
 40
1.0
 10
3.0185536489
 20
8.7759857983
 30
0.0
 10
2.9557980642
 20
8.7759857983
 30
0.0
 10
2.9053205594
 20
8.7937211305
 30
0.0
 10
2.8667826684
 20
8.8301945003
 30
0.0
  0
SPLINE
  5
2B6
100
AcDbEntity
  8
CURVE
100
AcDbSpline
 62
250
  6
CONTINUOUS
 70
0
 71
3
 72
8
 73
4
 74
0
 42
0.0000001
 43
0.0000001
 44
0.0000000001
 40
0.0
 40
0.0
 40
0.0
 40
0.0
 40
1.0
 40
1.0
 40
1.0
 40
1.0
 10
2.8667826684
 20
8.8301945003
 30
0.0
 10
2.8289221868
 20
8.8660267502
 30
0.0
 10
2.80436555
 20
8.921961239
 30
0.0
 10
2.7961801633
 20
8.9983596117
 30
0.0
  0
SPLINE
  5
2B7
100
AcDbEntity
  8
CURVE
100
AcDbSpline
 62
250
  6
CONTINUOUS
 70
0
 71
3
 72
8
 73
4
 74
0
 42
0.0000001
 43
0.0000001
 44
0.0000000001
 40
0.0
 40
0.0
 40
0.0
 40
0.0
 40
1.0
 40
1.0
 40
1.0
 40
1.0
 10
3.2927693471
 20
9.7950854212
 30
0.0
 10
3.2927693471
 20
9.6818520934
 30
0.0
 10
3.2668484792
 20
9.5959039837
 30
0.0
 10
3.2167096489
 20
9.5383120769
 30
0.0
  0
SPLINE
  5
2B8
100
AcDbEntity
  8
CURVE
100
AcDbSpline
 62
250
  6
CONTINUOUS
 70
0
 71
3
 72
8
 73
4
 74
0
 42
0.0000001
 43
0.0000001
 44
0.0000000001
 40
0.0
 40
0.0
 40
0.0
 40
0.0
 40
1.0
 40
1.0
 40
1.0
 40
1.0
 10
3.2167096489
 20
9.5383120769
 30
0.0
 10
3.1658934698
 20
9.479942134
 30
0.0
 10
3.1045021161
 20
9.4512927443
 30
0.0
 10
3.0308322057
 20
9.4512927443
 30
0.0
  0
SPLINE
  5
2B9
100
AcDbEntity
  8
CURVE
100
AcDbSpline
 62
250
  6
CONTINUOUS
 70
0
 71
3
 72
8
 73
4
 74
0
 42
0.0000001
 43
0.0000001
 44
0.0000000001
 40
0.0
 40
0.0
 40
0.0
 40
0.0
 40
1.0
 40
1.0
 40
1.0
 40
1.0
 10
3.0308322057
 20
9.4512927443
 30
0.0
 10
2.9544338331
 20
9.4512927443
 30
0.0
 10
2.8903135404
 20
9.4813064248
 30
0.0
 10
2.8394423891
 20
9.5409955339
 30
0.0
  0
SPLINE
  5
2BA
100
AcDbEntity
  8
CURVE
100
AcDbSpline
 62
250
  6
CONTINUOUS
 70
0
 71
3
 72
8
 73
4
 74
0
 42
0.0000001
 43
0.0000001
 44
0.0000000001
 40
0.0
 40
0.0
 40
0.0
 40
0.0
 40
1.0
 40
1.0
 40
1.0
 40
1.0
 10
2.8394423891
 20
9.5409955339
 30
0.0
 10
2.7879947767
 20
9.6013610274
 30
0.0
 10
2.7634381399
 20
9.696858874
 30
0.0
 10
2.7634381399
 20
9.8264633328
 30
0.0
  0
SPLINE
  5
2BB
100
AcDbEntity
  8
CURVE
100
AcDbSpline
 62
250
  6
CONTINUOUS
 70
0
 71
3
 72
8
 73
4
 74
0
 42
0.0000001
 43
0.0000001
 44
0.0000000001
 40
0.0
 40
0.0
 40
0.0
 40
0.0
 40
1.0
 40
1.0
 40
1.0
 40
1.0
 10
2.7634381399
 20
9.8264633328
 30
0.0
 10
2.7634381399
 20
9.9533392102
 30
0.0
 10
2.7866300687
 20
10.0447443635
 30
0.0
 10
2.8330148508
 20
10.1006788169
 30
0.0
  0
SPLINE
  5
2BC
100
AcDbEntity
  8
CURVE
100
AcDbSpline
 62
250
  6
CONTINUOUS
 70
0
 71
3
 72
8
 73
4
 74
0
 42
0.0000001
 43
0.0000001
 44
0.0000000001
 40
0.0
 40
0.0
 40
0.0
 40
0.0
 40
1.0
 40
1.0
 40
1.0
 40
1.0
 10
2.8330148508
 20
10.1006788169
 30
0.0
 10
2.8793996915
 20
10.156613341
 30
0.0
 10
2.939426814
 20
10.1852627903
 30
0.0
 10
3.0103682622
 20
10.1852627903
 30
0.0
  0
SPLINE
  5
2BD
100
AcDbEntity
  8
CURVE
100
AcDbSpline
 62
250
  6
CONTINUOUS
 70
0
 71
3
 72
8
 73
4
 74
0
 42
0.0000001
 43
0.0000001
 44
0.0000000001
 40
0.0
 40
0.0
 40
0.0
 40
0.0
 40
1.0
 40
1.0
 40
1.0
 40
1.0
 10
3.0103682622
 20
10.1852627903
 30
0.0
 10
3.0840381727
 20
10.1852627903
 30
0.0
 10
3.1495226964
 20
10.1511562974
 30
0.0
 10
3.2068213274
 20
10.0829435251
 30
0.0
  0
SPLINE
  5
2BE
100
AcDbEntity
  8
CURVE
100
AcDbSpline
 62
250
  6
CONTINUOUS
 70
0
 71
3
 72
8
 73
4
 74
0
 42
0.0000001
 43
0.0000001
 44
0.0000000001
 40
0.0
 40
0.0
 40
0.0
 40
0.0
 40
1.0
 40
1.0
 40
1.0
 40
1.0
 10
3.2068213274
 20
10.0829435251
 30
0.0
 10
3.264120017
 20
10.014730683
 30
0.0
 10
3.2927693471
 20
9.9178684861
 30
0.0
 10
3.2927693471
 20
9.7950854212
 30
0.0
  0
SPLINE
  5
2BF
100
AcDbEntity
  8
CURVE
100
AcDbSpline
 62
250
  6
CONTINUOUS
 70
0
 71
3
 72
8
 73
4
 74
0
 42
0.0000001
 43
0.0000001
 44
0.0000000001
 40
0.0
 40
0.0
 40
0.0
 40
0.0
 40
1.0
 40
1.0
 40
1.0
 40
1.0
 10
-3.4191680253
 20
7.5000650198
 30
0.0
 10
-3.537858367
 20
7.5000650198
 30
0.0
 10
-3.6340384483
 20
7.4427661509
 30
0.0
 10
-3.7077082489
 20
7.3291918414
 30
0.0
  0
SPLINE
  5
2C0
100
AcDbEntity
  8
CURVE
100
AcDbSpline
 62
250
  6
CONTINUOUS
 70
0
 71
3
 72
8
 73
4
 74
0
 42
0.0000001
 43
0.0000001
 44
0.0000000001
 40
0.0
 40
0.0
 40
0.0
 40
0.0
 40
1.0
 40
1.0
 40
1.0
 40
1.0
 10
-3.7077082489
 20
7.3291918414
 30
0.0
 10
-3.7813780904
 20
7.215617469
 30
0.0
 10
-3.8182130456
 20
7.0181413502
 30
0.0
 10
-3.8182130456
 20
6.7367634535
 30
0.0
  0
SPLINE
  5
2C1
100
AcDbEntity
  8
CURVE
100
AcDbSpline
 62
250
  6
CONTINUOUS
 70
0
 71
3
 72
8
 73
4
 74
0
 42
0.0000001
 43
0.0000001
 44
0.0000000001
 40
0.0
 40
0.0
 40
0.0
 40
0.0
 40
1.0
 40
1.0
 40
1.0
 40
1.0
 10
-3.8182130456
 20
6.7367634535
 30
0.0
 10
-3.8182130456
 20
6.4502695561
 30
0.0
 10
-3.7813780904
 20
6.2497238726
 30
0.0
 10
-3.7077082706
 20
6.1371727153
 30
0.0
  0
SPLINE
  5
2C2
100
AcDbEntity
  8
CURVE
100
AcDbSpline
 62
250
  6
CONTINUOUS
 70
0
 71
3
 72
8
 73
4
 74
0
 42
0.0000001
 43
0.0000001
 44
0.0000000001
 40
0.0
 40
0.0
 40
0.0
 40
0.0
 40
1.0
 40
1.0
 40
1.0
 40
1.0
 10
-3.7077082706
 20
6.1371727153
 30
0.0
 10
-3.6340384483
 20
6.0246215541
 30
0.0
 10
-3.537858367
 20
5.969369166
 30
0.0
 10
-3.4181448519
 20
5.969369166
 30
0.0
  0
SPLINE
  5
2C3
100
AcDbEntity
  8
CURVE
100
AcDbSpline
 62
250
  6
CONTINUOUS
 70
0
 71
3
 72
8
 73
4
 74
0
 42
0.0000001
 43
0.0000001
 44
0.0000000001
 40
0.0
 40
0.0
 40
0.0
 40
0.0
 40
1.0
 40
1.0
 40
1.0
 40
1.0
 10
-3.4181448519
 20
5.969369166
 30
0.0
 10
-3.2994545102
 20
5.969369166
 30
0.0
 10
-3.2032744288
 20
6.0256447442
 30
0.0
 10
-3.1296045839
 20
6.1392191388
 30
0.0
  0
SPLINE
  5
2C4
100
AcDbEntity
  8
CURVE
100
AcDbSpline
 62
250
  6
CONTINUOUS
 70
0
 71
3
 72
8
 73
4
 74
0
 42
0.0000001
 43
0.0000001
 44
0.0000000001
 40
0.0
 40
0.0
 40
0.0
 40
0.0
 40
1.0
 40
1.0
 40
1.0
 40
1.0
 10
-3.1296045839
 20
6.1392191388
 30
0.0
 10
-3.0559347868
 20
6.2527934596
 30
0.0
 10
-3.0190998316
 20
6.4512927741
 30
0.0
 10
-3.0190998316
 20
6.7336938441
 30
0.0
  0
SPLINE
  5
2C5
100
AcDbEntity
  8
CURVE
100
AcDbSpline
 62
250
  6
CONTINUOUS
 70
0
 71
3
 72
8
 73
4
 74
0
 42
0.0000001
 43
0.0000001
 44
0.0000000001
 40
0.0
 40
0.0
 40
0.0
 40
0.0
 40
1.0
 40
1.0
 40
1.0
 40
1.0
 10
-3.0190998316
 20
6.7336938441
 30
0.0
 10
-3.0190998316
 20
7.0171181768
 30
0.0
 10
-3.0559347868
 20
7.215617469
 30
0.0
 10
-3.1296046018
 20
7.3291918006
 30
0.0
  0
SPLINE
  5
2C6
100
AcDbEntity
  8
CURVE
100
AcDbSpline
 62
250
  6
CONTINUOUS
 70
0
 71
3
 72
8
 73
4
 74
0
 42
0.0000001
 43
0.0000001
 44
0.0000000001
 40
0.0
 40
0.0
 40
0.0
 40
0.0
 40
1.0
 40
1.0
 40
1.0
 40
1.0
 10
-3.1296046018
 20
7.3291918006
 30
0.0
 10
-3.2032744288
 20
7.4427661509
 30
0.0
 10
-3.3004776835
 20
7.5000650198
 30
0.0
 10
-3.4191680253
 20
7.5000650198
 30
0.0
  0
SPLINE
  5
2C7
100
AcDbEntity
  8
CURVE
100
AcDbSpline
 62
250
  6
CONTINUOUS
 70
0
 71
3
 72
8
 73
4
 74
0
 42
0.0000001
 43
0.0000001
 44
0.0000000001
 40
0.0
 40
0.0
 40
0.0
 40
0.0
 40
1.0
 40
1.0
 40
1.0
 40
1.0
 10
-3.4191680253
 20
7.2616610736
 30
0.0
 10
-3.3721011579
 20
7.2616610736
 30
0.0
 10
-3.3342431188
 20
7.2309653372
 30
0.0
 10
-3.3072126355
 20
7.1697643396
 30
0.0
  0
SPLINE
  5
2C8
100
AcDbEntity
  8
CURVE
100
AcDbSpline
 62
250
  6
CONTINUOUS
 70
0
 71
3
 72
8
 73
4
 74
0
 42
0.0000001
 43
0.0000001
 44
0.0000000001
 40
0.0
 40
0.0
 40
0.0
 40
0.0
 40
1.0
 40
1.0
 40
1.0
 40
1.0
 10
-3.3072126355
 20
7.1697643396
 30
0.0
 10
-3.2800138593
 20
7.1081823021
 30
0.0
 10
-3.2656892538
 20
6.9628889174
 30
0.0
 10
-3.2656892538
 20
6.7336938441
 30
0.0
  0
SPLINE
  5
2C9
100
AcDbEntity
  8
CURVE
100
AcDbSpline
 62
250
  6
CONTINUOUS
 70
0
 71
3
 72
8
 73
4
 74
0
 42
0.0000001
 43
0.0000001
 44
0.0000000001
 40
0.0
 40
0.0
 40
0.0
 40
0.0
 40
1.0
 40
1.0
 40
1.0
 40
1.0
 10
-3.2656892538
 20
6.7336938441
 30
0.0
 10
-3.2656892538
 20
6.5055219442
 30
0.0
 10
-3.2800138593
 20
6.3602286488
 30
0.0
 10
-3.3072113335
 20
6.2986495367
 30
0.0
  0
SPLINE
  5
2CA
100
AcDbEntity
  8
CURVE
100
AcDbSpline
 62
250
  6
CONTINUOUS
 70
0
 71
3
 72
8
 73
4
 74
0
 42
0.0000001
 43
0.0000001
 44
0.0000000001
 40
0.0
 40
0.0
 40
0.0
 40
0.0
 40
1.0
 40
1.0
 40
1.0
 40
1.0
 10
-3.3072113335
 20
6.2986495367
 30
0.0
 10
-3.3342431188
 20
6.2374455691
 30
0.0
 10
-3.3721011579
 20
6.2077729836
 30
0.0
 10
-3.4191680253
 20
6.2077729836
 30
0.0
  0
SPLINE
  5
2CB
100
AcDbEntity
  8
CURVE
100
AcDbSpline
 62
250
  6
CONTINUOUS
 70
0
 71
3
 72
8
 73
4
 74
0
 42
0.0000001
 43
0.0000001
 44
0.0000000001
 40
0.0
 40
0.0
 40
0.0
 40
0.0
 40
1.0
 40
1.0
 40
1.0
 40
1.0
 10
-3.4191680253
 20
6.2077729836
 30
0.0
 10
-3.4652117193
 20
6.2077729836
 30
0.0
 10
-3.5030698478
 20
6.2374455691
 30
0.0
 10
-3.530696012
 20
6.2988370922
 30
0.0
  0
SPLINE
  5
2CC
100
AcDbEntity
  8
CURVE
100
AcDbSpline
 62
250
  6
CONTINUOUS
 70
0
 71
3
 72
8
 73
4
 74
0
 42
0.0000001
 43
0.0000001
 44
0.0000000001
 40
0.0
 40
0.0
 40
0.0
 40
0.0
 40
1.0
 40
1.0
 40
1.0
 40
1.0
 10
-3.530696012
 20
6.2988370922
 30
0.0
 10
-3.5583221912
 20
6.3602286488
 30
0.0
 10
-3.5716237128
 20
6.5044987709
 30
0.0
 10
-3.5716237128
 20
6.7336938441
 30
0.0
  0
SPLINE
  5
2CD
100
AcDbEntity
  8
CURVE
100
AcDbSpline
 62
250
  6
CONTINUOUS
 70
0
 71
3
 72
8
 73
4
 74
0
 42
0.0000001
 43
0.0000001
 44
0.0000000001
 40
0.0
 40
0.0
 40
0.0
 40
0.0
 40
1.0
 40
1.0
 40
1.0
 40
1.0
 10
-3.5716237128
 20
6.7336938441
 30
0.0
 10
-3.5716237128
 20
6.9628889174
 30
0.0
 10
-3.5583221912
 20
7.1081823021
 30
0.0
 10
-3.5306960287
 20
7.1695737992
 30
0.0
  0
SPLINE
  5
2CE
100
AcDbEntity
  8
CURVE
100
AcDbSpline
 62
250
  6
CONTINUOUS
 70
0
 71
3
 72
8
 73
4
 74
0
 42
0.0000001
 43
0.0000001
 44
0.0000000001
 40
0.0
 40
0.0
 40
0.0
 40
0.0
 40
1.0
 40
1.0
 40
1.0
 40
1.0
 10
-3.5306960287
 20
7.1695737992
 30
0.0
 10
-3.5030698478
 20
7.2309653372
 30
0.0
 10
-3.4652117193
 20
7.2616610736
 30
0.0
 10
-3.4191680253
 20
7.2616610736
 30
0.0
  0
SPLINE
  5
2CF
100
AcDbEntity
  8
CURVE
100
AcDbSpline
 62
250
  6
CONTINUOUS
 70
0
 71
3
 72
8
 73
4
 74
0
 42
0.0000001
 43
0.0000001
 44
0.0000000001
 40
0.0
 40
0.0
 40
0.0
 40
0.0
 40
1.0
 40
1.0
 40
1.0
 40
1.0
 10
-2.0879947543
 20
6.8042941004
 30
0.0
 10
-2.1545022726
 20
6.7705287546
 30
0.0
 10
-2.20463866
 20
6.7203923673
 30
0.0
 10
-2.2400562195
 20
6.6557169233
 30
0.0
  0
SPLINE
  5
2D0
100
AcDbEntity
  8
CURVE
100
AcDbSpline
 62
250
  6
CONTINUOUS
 70
0
 71
3
 72
8
 73
4
 74
0
 42
0.0000001
 43
0.0000001
 44
0.0000000001
 40
0.0
 40
0.0
 40
0.0
 40
0.0
 40
1.0
 40
1.0
 40
1.0
 40
1.0
 10
-2.2400562195
 20
6.6557169233
 30
0.0
 10
-2.2752390504
 20
6.5914701134
 30
0.0
 10
-2.2926331758
 20
6.5137075097
 30
0.0
 10
-2.2926331758
 20
6.4236665577
 30
0.0
  0
SPLINE
  5
2D1
100
AcDbEntity
  8
CURVE
100
AcDbSpline
 62
250
  6
CONTINUOUS
 70
0
 71
3
 72
8
 73
4
 74
0
 42
0.0000001
 43
0.0000001
 44
0.0000000001
 40
0.0
 40
0.0
 40
0.0
 40
0.0
 40
1.0
 40
1.0
 40
1.0
 40
1.0
 10
-2.2926331758
 20
6.4236665577
 30
0.0
 10
-2.2926331758
 20
6.2845124141
 30
0.0
 10
-2.2547750473
 20
6.1740076378
 30
0.0
 10
-2.1770124449
 20
6.09215225
 30
0.0
  0
SPLINE
  5
2D2
100
AcDbEntity
  8
CURVE
100
AcDbSpline
 62
250
  6
CONTINUOUS
 70
0
 71
3
 72
8
 73
4
 74
0
 42
0.0000001
 43
0.0000001
 44
0.0000000001
 40
0.0
 40
0.0
 40
0.0
 40
0.0
 40
1.0
 40
1.0
 40
1.0
 40
1.0
 10
-2.1770124449
 20
6.09215225
 30
0.0
 10
-2.0992498398
 20
6.0102968592
 30
0.0
 10
-2.0010234118
 20
5.969369166
 30
0.0
 10
-1.8823331594
 20
5.969369166
 30
0.0
  0
SPLINE
  5
2D3
100
AcDbEntity
  8
CURVE
100
AcDbSpline
 62
250
  6
CONTINUOUS
 70
0
 71
3
 72
8
 73
4
 74
0
 42
0.0000001
 43
0.0000001
 44
0.0000000001
 40
0.0
 40
0.0
 40
0.0
 40
0.0
 40
1.0
 40
1.0
 40
1.0
 40
1.0
 10
-1.8823331594
 20
5.969369166
 30
0.0
 10
-1.8066169024
 20
5.969369166
 30
0.0
 10
-1.7390860319
 20
5.9888098204
 30
0.0
 10
-1.6782926357
 20
6.0255924159
 30
0.0
  0
SPLINE
  5
2D4
100
AcDbEntity
  8
CURVE
100
AcDbSpline
 62
250
  6
CONTINUOUS
 70
0
 71
3
 72
8
 73
4
 74
0
 42
0.0000001
 43
0.0000001
 44
0.0000000001
 40
0.0
 40
0.0
 40
0.0
 40
0.0
 40
1.0
 40
1.0
 40
1.0
 40
1.0
 10
-1.6782926357
 20
6.0255924159
 30
0.0
 10
-1.6173262596
 20
6.0624796715
 30
0.0
 10
-1.5702595711
 20
6.1167088695
 30
0.0
 10
-1.5356730515
 20
6.1874076476
 30
0.0
  0
SPLINE
  5
2D5
100
AcDbEntity
  8
CURVE
100
AcDbSpline
 62
250
  6
CONTINUOUS
 70
0
 71
3
 72
8
 73
4
 74
0
 42
0.0000001
 43
0.0000001
 44
0.0000000001
 40
0.0
 40
0.0
 40
0.0
 40
0.0
 40
1.0
 40
1.0
 40
1.0
 40
1.0
 10
-1.5356730515
 20
6.1874076476
 30
0.0
 10
-1.500682354
 20
6.2589326114
 30
0.0
 10
-1.4832880497
 20
6.3407879979
 30
0.0
 10
-1.4832880497
 20
6.4328752965
 30
0.0
  0
SPLINE
  5
2D6
100
AcDbEntity
  8
CURVE
100
AcDbSpline
 62
250
  6
CONTINUOUS
 70
0
 71
3
 72
8
 73
4
 74
0
 42
0.0000001
 43
0.0000001
 44
0.0000000001
 40
0.0
 40
0.0
 40
0.0
 40
0.0
 40
1.0
 40
1.0
 40
1.0
 40
1.0
 10
-1.4832880497
 20
6.4328752965
 30
0.0
 10
-1.4832880497
 20
6.5229162485
 30
0.0
 10
-1.500682354
 20
6.5986324609
 30
0.0
 10
-1.5356892412
 20
6.6609240166
 30
0.0
  0
SPLINE
  5
2D7
100
AcDbEntity
  8
CURVE
100
AcDbSpline
 62
250
  6
CONTINUOUS
 70
0
 71
3
 72
8
 73
4
 74
0
 42
0.0000001
 43
0.0000001
 44
0.0000000001
 40
0.0
 40
0.0
 40
0.0
 40
0.0
 40
1.0
 40
1.0
 40
1.0
 40
1.0
 10
-1.5356892412
 20
6.6609240166
 30
0.0
 10
-1.5702595711
 20
6.7224387586
 30
0.0
 10
-1.6234652996
 20
6.7705287546
 30
0.0
 10
-1.6930425167
 20
6.8042941004
 30
0.0
  0
SPLINE
  5
2D8
100
AcDbEntity
  8
CURVE
100
AcDbSpline
 62
250
  6
CONTINUOUS
 70
0
 71
3
 72
8
 73
4
 74
0
 42
0.0000001
 43
0.0000001
 44
0.0000000001
 40
0.0
 40
0.0
 40
0.0
 40
0.0
 40
1.0
 40
1.0
 40
1.0
 40
1.0
 10
-1.6930425167
 20
6.8042941004
 30
0.0
 10
-1.6408596039
 20
6.8319203168
 30
0.0
 10
-1.5999319553
 20
6.8728480548
 30
0.0
 10
-1.5692362636
 20
6.9260539741
 30
0.0
  0
SPLINE
  5
2D9
100
AcDbEntity
  8
CURVE
100
AcDbSpline
 62
250
  6
CONTINUOUS
 70
0
 71
3
 72
8
 73
4
 74
0
 42
0.0000001
 43
0.0000001
 44
0.0000000001
 40
0.0
 40
0.0
 40
0.0
 40
0.0
 40
1.0
 40
1.0
 40
1.0
 40
1.0
 10
-1.5692362636
 20
6.9260539741
 30
0.0
 10
-1.5385404825
 20
6.9792600483
 30
0.0
 10
-1.5231925249
 20
7.0426979572
 30
0.0
 10
-1.5231925249
 20
7.1153446049
 30
0.0
  0
SPLINE
  5
2DA
100
AcDbEntity
  8
CURVE
100
AcDbSpline
 62
250
  6
CONTINUOUS
 70
0
 71
3
 72
8
 73
4
 74
0
 42
0.0000001
 43
0.0000001
 44
0.0000000001
 40
0.0
 40
0.0
 40
0.0
 40
0.0
 40
1.0
 40
1.0
 40
1.0
 40
1.0
 10
-1.5231925249
 20
7.1153446049
 30
0.0
 10
-1.5231925249
 20
7.2227797717
 30
0.0
 10
-1.5549116135
 20
7.3128207237
 30
0.0
 10
-1.6176249962
 20
7.3872611111
 30
0.0
  0
SPLINE
  5
2DB
100
AcDbEntity
  8
CURVE
100
AcDbSpline
 62
250
  6
CONTINUOUS
 70
0
 71
3
 72
8
 73
4
 74
0
 42
0.0000001
 43
0.0000001
 44
0.0000000001
 40
0.0
 40
0.0
 40
0.0
 40
0.0
 40
1.0
 40
1.0
 40
1.0
 40
1.0
 10
-1.6176249962
 20
7.3872611111
 30
0.0
 10
-1.6807640791
 20
7.4622068018
 30
0.0
 10
-1.7718282938
 20
7.5000650198
 30
0.0
 10
-1.8915418983
 20
7.5000650198
 30
0.0
  0
SPLINE
  5
2DC
100
AcDbEntity
  8
CURVE
100
AcDbSpline
 62
250
  6
CONTINUOUS
 70
0
 71
3
 72
8
 73
4
 74
0
 42
0.0000001
 43
0.0000001
 44
0.0000000001
 40
0.0
 40
0.0
 40
0.0
 40
0.0
 40
1.0
 40
1.0
 40
1.0
 40
1.0
 10
-1.8915418983
 20
7.5000650198
 30
0.0
 10
-2.0051161051
 20
7.5000650198
 30
0.0
 10
-2.0951571465
 20
7.4642532379
 30
0.0
 10
-2.1619295716
 20
7.39493225
 30
0.0
  0
SPLINE
  5
2DD
100
AcDbEntity
  8
CURVE
100
AcDbSpline
 62
250
  6
CONTINUOUS
 70
0
 71
3
 72
8
 73
4
 74
0
 42
0.0000001
 43
0.0000001
 44
0.0000000001
 40
0.0
 40
0.0
 40
0.0
 40
0.0
 40
1.0
 40
1.0
 40
1.0
 40
1.0
 10
-2.1619295716
 20
7.39493225
 30
0.0
 10
-2.2291953564
 20
7.3250990719
 30
0.0
 10
-2.2619374394
 20
7.2309653372
 30
0.0
 10
-2.2619374394
 20
7.1132982582
 30
0.0
  0
SPLINE
  5
2DE
100
AcDbEntity
  8
CURVE
100
AcDbSpline
 62
250
  6
CONTINUOUS
 70
0
 71
3
 72
8
 73
4
 74
0
 42
0.0000001
 43
0.0000001
 44
0.0000000001
 40
0.0
 40
0.0
 40
0.0
 40
0.0
 40
1.0
 40
1.0
 40
1.0
 40
1.0
 10
-2.2619374394
 20
7.1132982582
 30
0.0
 10
-2.2619374394
 20
7.0406516105
 30
0.0
 10
-2.247612834
 20
6.978236875
 30
0.0
 10
-2.2187945655
 20
6.9271728929
 30
0.0
  0
SPLINE
  5
2DF
100
AcDbEntity
  8
CURVE
100
AcDbSpline
 62
250
  6
CONTINUOUS
 70
0
 71
3
 72
8
 73
4
 74
0
 42
0.0000001
 43
0.0000001
 44
0.0000000001
 40
0.0
 40
0.0
 40
0.0
 40
0.0
 40
1.0
 40
1.0
 40
1.0
 40
1.0
 10
-2.2187945655
 20
6.9271728929
 30
0.0
 10
-2.1892908812
 20
6.8748944015
 30
0.0
 10
-2.1463167071
 20
6.8339667529
 30
0.0
 10
-2.0879947543
 20
6.8042941004
 30
0.0
  0
SPLINE
  5
2E0
100
AcDbEntity
  8
CURVE
100
AcDbSpline
 62
250
  6
CONTINUOUS
 70
0
 71
3
 72
8
 73
4
 74
0
 42
0.0000001
 43
0.0000001
 44
0.0000000001
 40
0.0
 40
0.0
 40
0.0
 40
0.0
 40
1.0
 40
1.0
 40
1.0
 40
1.0
 10
-2.0388815403
 20
7.0928343445
 30
0.0
 10
-2.0388815403
 20
7.1491099507
 30
0.0
 10
-2.0255801082
 20
7.1920840353
 30
0.0
 10
-1.9972181431
 20
7.2240556812
 30
0.0
  0
SPLINE
  5
2E1
100
AcDbEntity
  8
CURVE
100
AcDbSpline
 62
250
  6
CONTINUOUS
 70
0
 71
3
 72
8
 73
4
 74
0
 42
0.0000001
 43
0.0000001
 44
0.0000000001
 40
0.0
 40
0.0
 40
0.0
 40
0.0
 40
1.0
 40
1.0
 40
1.0
 40
1.0
 10
-1.9972181431
 20
7.2240556812
 30
0.0
 10
-1.969304502
 20
7.2555219442
 30
0.0
 10
-1.9334927201
 20
7.2718930751
 30
0.0
 10
-1.8894953728
 20
7.2718930751
 30
0.0
  0
SPLINE
  5
2E2
100
AcDbEntity
  8
CURVE
100
AcDbSpline
 62
250
  6
CONTINUOUS
 70
0
 71
3
 72
8
 73
4
 74
0
 42
0.0000001
 43
0.0000001
 44
0.0000000001
 40
0.0
 40
0.0
 40
0.0
 40
0.0
 40
1.0
 40
1.0
 40
1.0
 40
1.0
 10
-1.8894953728
 20
7.2718930751
 30
0.0
 10
-1.8485677242
 20
7.2718930751
 30
0.0
 10
-1.8137791157
 20
7.2555219442
 30
0.0
 10
-1.7864078103
 20
7.2246025313
 30
0.0
  0
SPLINE
  5
2E3
100
AcDbEntity
  8
CURVE
100
AcDbSpline
 62
250
  6
CONTINUOUS
 70
0
 71
3
 72
8
 73
4
 74
0
 42
0.0000001
 43
0.0000001
 44
0.0000000001
 40
0.0
 40
0.0
 40
0.0
 40
0.0
 40
1.0
 40
1.0
 40
1.0
 40
1.0
 10
-1.7864078103
 20
7.2246025313
 30
0.0
 10
-1.7585266829
 20
7.1931072086
 30
0.0
 10
-1.7442022562
 20
7.150133124
 30
0.0
 10
-1.7442022562
 20
7.0928343445
 30
0.0
  0
SPLINE
  5
2E4
100
AcDbEntity
  8
CURVE
100
AcDbSpline
 62
250
  6
CONTINUOUS
 70
0
 71
3
 72
8
 73
4
 74
0
 42
0.0000001
 43
0.0000001
 44
0.0000000001
 40
0.0
 40
0.0
 40
0.0
 40
0.0
 40
1.0
 40
1.0
 40
1.0
 40
1.0
 10
-1.7442022562
 20
7.0928343445
 30
0.0
 10
-1.7442022562
 20
7.0345123917
 30
0.0
 10
-1.7585266829
 20
6.9905151338
 30
0.0
 10
-1.786685452
 20
6.9592845127
 30
0.0
  0
SPLINE
  5
2E5
100
AcDbEntity
  8
CURVE
100
AcDbSpline
 62
250
  6
CONTINUOUS
 70
0
 71
3
 72
8
 73
4
 74
0
 42
0.0000001
 43
0.0000001
 44
0.0000000001
 40
0.0
 40
0.0
 40
0.0
 40
0.0
 40
1.0
 40
1.0
 40
1.0
 40
1.0
 10
-1.786685452
 20
6.9592845127
 30
0.0
 10
-1.814802289
 20
6.9281003982
 30
0.0
 10
-1.8495908976
 20
6.91275253
 30
0.0
 10
-1.8925650716
 20
6.91275253
 30
0.0
  0
SPLINE
  5
2E6
100
AcDbEntity
  8
CURVE
100
AcDbSpline
 62
250
  6
CONTINUOUS
 70
0
 71
3
 72
8
 73
4
 74
0
 42
0.0000001
 43
0.0000001
 44
0.0000000001
 40
0.0
 40
0.0
 40
0.0
 40
0.0
 40
1.0
 40
1.0
 40
1.0
 40
1.0
 10
-1.8925650716
 20
6.91275253
 30
0.0
 10
-1.9355390668
 20
6.91275253
 30
0.0
 10
-1.9703276753
 20
6.9281003982
 30
0.0
 10
-1.9976990585
 20
6.959019899
 30
0.0
  0
SPLINE
  5
2E7
100
AcDbEntity
  8
CURVE
100
AcDbSpline
 62
250
  6
CONTINUOUS
 70
0
 71
3
 72
8
 73
4
 74
0
 42
0.0000001
 43
0.0000001
 44
0.0000000001
 40
0.0
 40
0.0
 40
0.0
 40
0.0
 40
1.0
 40
1.0
 40
1.0
 40
1.0
 10
-1.9976990585
 20
6.959019899
 30
0.0
 10
-2.0255801082
 20
6.9905151338
 30
0.0
 10
-2.0388815403
 20
7.0345123917
 30
0.0
 10
-2.0388815403
 20
7.0928343445
 30
0.0
  0
SPLINE
  5
2E8
100
AcDbEntity
  8
CURVE
100
AcDbSpline
 62
250
  6
CONTINUOUS
 70
0
 71
3
 72
8
 73
4
 74
0
 42
0.0000001
 43
0.0000001
 44
0.0000000001
 40
0.0
 40
0.0
 40
0.0
 40
0.0
 40
1.0
 40
1.0
 40
1.0
 40
1.0
 10
-2.0613917112
 20
6.4512927741
 30
0.0
 10
-2.0613917112
 20
6.5208698571
 30
0.0
 10
-2.0450207591
 20
6.5761222452
 30
0.0
 10
-2.0119653141
 20
6.6178229533
 30
0.0
  0
SPLINE
  5
2E9
100
AcDbEntity
  8
CURVE
100
AcDbSpline
 62
250
  6
CONTINUOUS
 70
0
 71
3
 72
8
 73
4
 74
0
 42
0.0000001
 43
0.0000001
 44
0.0000000001
 40
0.0
 40
0.0
 40
0.0
 40
0.0
 40
1.0
 40
1.0
 40
1.0
 40
1.0
 10
-2.0119653141
 20
6.6178229533
 30
0.0
 10
-1.9785132408
 20
6.6600240231
 30
0.0
 10
-1.9386087656
 20
6.6815110654
 30
0.0
 10
-1.8905187249
 20
6.6815110654
 30
0.0
  0
SPLINE
  5
2EA
100
AcDbEntity
  8
CURVE
100
AcDbSpline
 62
250
  6
CONTINUOUS
 70
0
 71
3
 72
8
 73
4
 74
0
 42
0.0000001
 43
0.0000001
 44
0.0000000001
 40
0.0
 40
0.0
 40
0.0
 40
0.0
 40
1.0
 40
1.0
 40
1.0
 40
1.0
 10
-1.8905187249
 20
6.6815110654
 30
0.0
 10
-1.8424286842
 20
6.6815110654
 30
0.0
 10
-1.8015010357
 20
6.6600240231
 30
0.0
 10
-1.7682995672
 20
6.6186499943
 30
0.0
  0
SPLINE
  5
2EB
100
AcDbEntity
  8
CURVE
100
AcDbSpline
 62
250
  6
CONTINUOUS
 70
0
 71
3
 72
8
 73
4
 74
0
 42
0.0000001
 43
0.0000001
 44
0.0000000001
 40
0.0
 40
0.0
 40
0.0
 40
0.0
 40
1.0
 40
1.0
 40
1.0
 40
1.0
 10
-1.7682995672
 20
6.6186499943
 30
0.0
 10
-1.7349933386
 20
6.5771454186
 30
0.0
 10
-1.7175990343
 20
6.5208698571
 30
0.0
 10
-1.7175990343
 20
6.4492463827
 30
0.0
  0
SPLINE
  5
2EC
100
AcDbEntity
  8
CURVE
100
AcDbSpline
 62
250
  6
CONTINUOUS
 70
0
 71
3
 72
8
 73
4
 74
0
 42
0.0000001
 43
0.0000001
 44
0.0000000001
 40
0.0
 40
0.0
 40
0.0
 40
0.0
 40
1.0
 40
1.0
 40
1.0
 40
1.0
 10
-1.7175990343
 20
6.4492463827
 30
0.0
 10
-1.7175990343
 20
6.3663678006
 30
0.0
 10
-1.7339701653
 20
6.303953065
 30
0.0
 10
-1.7669606945
 20
6.2621995616
 30
0.0
  0
SPLINE
  5
2ED
100
AcDbEntity
  8
CURVE
100
AcDbSpline
 62
250
  6
CONTINUOUS
 70
0
 71
3
 72
8
 73
4
 74
0
 42
0.0000001
 43
0.0000001
 44
0.0000000001
 40
0.0
 40
0.0
 40
0.0
 40
0.0
 40
1.0
 40
1.0
 40
1.0
 40
1.0
 10
-1.7669606945
 20
6.2621995616
 30
0.0
 10
-1.799454689
 20
6.2210744828
 30
0.0
 10
-1.8393591642
 20
6.2006106362
 30
0.0
 10
-1.8874490261
 20
6.2006106362
 30
0.0
  0
SPLINE
  5
2EE
100
AcDbEntity
  8
CURVE
100
AcDbSpline
 62
250
  6
CONTINUOUS
 70
0
 71
3
 72
8
 73
4
 74
0
 42
0.0000001
 43
0.0000001
 44
0.0000000001
 40
0.0
 40
0.0
 40
0.0
 40
0.0
 40
1.0
 40
1.0
 40
1.0
 40
1.0
 10
-1.8874490261
 20
6.2006106362
 30
0.0
 10
-1.9355390668
 20
6.2006106362
 30
0.0
 10
-1.9764668941
 20
6.2220976785
 30
0.0
 10
-2.0102989856
 20
6.2650189991
 30
0.0
  0
SPLINE
  5
2EF
100
AcDbEntity
  8
CURVE
100
AcDbSpline
 62
250
  6
CONTINUOUS
 70
0
 71
3
 72
8
 73
4
 74
0
 42
0.0000001
 43
0.0000001
 44
0.0000000001
 40
0.0
 40
0.0
 40
0.0
 40
0.0
 40
1.0
 40
1.0
 40
1.0
 40
1.0
 10
-2.0102989856
 20
6.2650189991
 30
0.0
 10
-2.0450207591
 20
6.3090690211
 30
0.0
 10
-2.0613917112
 20
6.3704605609
 30
0.0
 10
-2.0613917112
 20
6.4512927741
 30
0.0
  0
SPLINE
  5
2F0
100
AcDbEntity
  8
CURVE
100
AcDbSpline
 62
250
  6
CONTINUOUS
 70
0
 71
3
 72
8
 73
4
 74
0
 42
0.0000001
 43
0.0000001
 44
0.0000000001
 40
0.0
 40
0.0
 40
0.0
 40
0.0
 40
1.0
 40
1.0
 40
1.0
 40
1.0
 10
-0.5358120203
 20
7.1276229531
 30
0.0
 10
-0.5532063246
 20
7.2524524242
 30
0.0
 10
-0.5931107998
 20
7.3455628962
 30
0.0
 10
-0.6555254683
 20
7.4069544357
 30
0.0
  0
SPLINE
  5
2F1
100
AcDbEntity
  8
CURVE
100
AcDbSpline
 62
250
  6
CONTINUOUS
 70
0
 71
3
 72
8
 73
4
 74
0
 42
0.0000001
 43
0.0000001
 44
0.0000000001
 40
0.0
 40
0.0
 40
0.0
 40
0.0
 40
1.0
 40
1.0
 40
1.0
 40
1.0
 10
-0.6555254683
 20
7.4069544357
 30
0.0
 10
-0.7179400921
 20
7.4683459312
 30
0.0
 10
-0.7946795225
 20
7.5000650198
 30
0.0
 10
-0.8857437372
 20
7.5000650198
 30
0.0
  0
SPLINE
  5
2F2
100
AcDbEntity
  8
CURVE
100
AcDbSpline
 62
250
  6
CONTINUOUS
 70
0
 71
3
 72
8
 73
4
 74
0
 42
0.0000001
 43
0.0000001
 44
0.0000000001
 40
0.0
 40
0.0
 40
0.0
 40
0.0
 40
1.0
 40
1.0
 40
1.0
 40
1.0
 10
-0.8857437372
 20
7.5000650198
 30
0.0
 10
-1.0177356005
 20
7.5000650198
 30
0.0
 10
-1.1251705885
 20
7.4396966309
 30
0.0
 10
-1.2090724902
 20
7.3189597838
 30
0.0
  0
SPLINE
  5
2F3
100
AcDbEntity
  8
CURVE
100
AcDbSpline
 62
250
  6
CONTINUOUS
 70
0
 71
3
 72
8
 73
4
 74
0
 42
0.0000001
 43
0.0000001
 44
0.0000000001
 40
0.0
 40
0.0
 40
0.0
 40
0.0
 40
1.0
 40
1.0
 40
1.0
 40
1.0
 10
-1.2090724902
 20
7.3189597838
 30
0.0
 10
-1.2929742336
 20
7.1982231647
 30
0.0
 10
-1.3349250555
 20
6.9997238726
 30
0.0
 10
-1.3349250555
 20
6.7255083233
 30
0.0
  0
SPLINE
  5
2F4
100
AcDbEntity
  8
CURVE
100
AcDbSpline
 62
250
  6
CONTINUOUS
 70
0
 71
3
 72
8
 73
4
 74
0
 42
0.0000001
 43
0.0000001
 44
0.0000000001
 40
0.0
 40
0.0
 40
0.0
 40
0.0
 40
1.0
 40
1.0
 40
1.0
 40
1.0
 10
-1.3349250555
 20
6.7255083233
 30
0.0
 10
-1.3349250555
 20
6.4553855568
 30
0.0
 10
-1.2950205803
 20
6.2609789804
 30
0.0
 10
-1.2141884605
 20
6.1443350609
 30
0.0
  0
SPLINE
  5
2F5
100
AcDbEntity
  8
CURVE
100
AcDbSpline
 62
250
  6
CONTINUOUS
 70
0
 71
3
 72
8
 73
4
 74
0
 42
0.0000001
 43
0.0000001
 44
0.0000000001
 40
0.0
 40
0.0
 40
0.0
 40
0.0
 40
1.0
 40
1.0
 40
1.0
 40
1.0
 10
-1.2141884605
 20
6.1443350609
 30
0.0
 10
-1.1333563328
 20
6.02769113
 30
0.0
 10
-1.0310372114
 20
5.969369166
 30
0.0
 10
-0.9082539082
 20
5.969369166
 30
0.0
  0
SPLINE
  5
2F6
100
AcDbEntity
  8
CURVE
100
AcDbSpline
 62
250
  6
CONTINUOUS
 70
0
 71
3
 72
8
 73
4
 74
0
 42
0.0000001
 43
0.0000001
 44
0.0000000001
 40
0.0
 40
0.0
 40
0.0
 40
0.0
 40
1.0
 40
1.0
 40
1.0
 40
1.0
 10
-0.9082539082
 20
5.969369166
 30
0.0
 10
-0.7967258692
 20
5.969369166
 30
0.0
 10
-0.7025924921
 20
6.0133664365
 30
0.0
 10
-0.6268762367
 20
6.1034073606
 30
0.0
  0
SPLINE
  5
2F7
100
AcDbEntity
  8
CURVE
100
AcDbSpline
 62
250
  6
CONTINUOUS
 70
0
 71
3
 72
8
 73
4
 74
0
 42
0.0000001
 43
0.0000001
 44
0.0000000001
 40
0.0
 40
0.0
 40
0.0
 40
0.0
 40
1.0
 40
1.0
 40
1.0
 40
1.0
 10
-0.6268762367
 20
6.1034073606
 30
0.0
 10
-0.5511599779
 20
6.1934482888
 30
0.0
 10
-0.512278676
 20
6.3172545642
 30
0.0
 10
-0.512278676
 20
6.4758493811
 30
0.0
  0
SPLINE
  5
2F8
100
AcDbEntity
  8
CURVE
100
AcDbSpline
 62
250
  6
CONTINUOUS
 70
0
 71
3
 72
8
 73
4
 74
0
 42
0.0000001
 43
0.0000001
 44
0.0000000001
 40
0.0
 40
0.0
 40
0.0
 40
0.0
 40
1.0
 40
1.0
 40
1.0
 40
1.0
 10
-0.512278676
 20
6.4758493811
 30
0.0
 10
-0.512278676
 20
6.6242122859
 30
0.0
 10
-0.5491136312
 20
6.7439258009
 30
0.0
 10
-0.6204870931
 20
6.8331427174
 30
0.0
  0
SPLINE
  5
2F9
100
AcDbEntity
  8
CURVE
100
AcDbSpline
 62
250
  6
CONTINUOUS
 70
0
 71
3
 72
8
 73
4
 74
0
 42
0.0000001
 43
0.0000001
 44
0.0000000001
 40
0.0
 40
0.0
 40
0.0
 40
0.0
 40
1.0
 40
1.0
 40
1.0
 40
1.0
 10
-0.6204870931
 20
6.8331427174
 30
0.0
 10
-0.6923604012
 20
6.9229844421
 30
0.0
 10
-0.7762620449
 20
6.9680048734
 30
0.0
 10
-0.8724421263
 20
6.9680048734
 30
0.0
  0
SPLINE
  5
2FA
100
AcDbEntity
  8
CURVE
100
AcDbSpline
 62
250
  6
CONTINUOUS
 70
0
 71
3
 72
8
 73
4
 74
0
 42
0.0000001
 43
0.0000001
 44
0.0000000001
 40
0.0
 40
0.0
 40
0.0
 40
0.0
 40
1.0
 40
1.0
 40
1.0
 40
1.0
 10
-0.8724421263
 20
6.9680048734
 30
0.0
 10
-0.9164396524
 20
6.9680048734
 30
0.0
 10
-0.9563441277
 20
6.956749788
 30
0.0
 10
-0.9920618788
 20
6.9361239533
 30
0.0
  0
SPLINE
  5
2FB
100
AcDbEntity
  8
CURVE
100
AcDbSpline
 62
250
  6
CONTINUOUS
 70
0
 71
3
 72
8
 73
4
 74
0
 42
0.0000001
 43
0.0000001
 44
0.0000000001
 40
0.0
 40
0.0
 40
0.0
 40
0.0
 40
1.0
 40
1.0
 40
1.0
 40
1.0
 10
-0.9920618788
 20
6.9361239533
 30
0.0
 10
-1.0289905071
 20
6.9147988767
 30
0.0
 10
-1.061732769
 20
6.8830799669
 30
0.0
 10
-1.0903823376
 20
6.8411290556
 30
0.0
  0
SPLINE
  5
2FC
100
AcDbEntity
  8
CURVE
100
AcDbSpline
 62
250
  6
CONTINUOUS
 70
0
 71
3
 72
8
 73
4
 74
0
 42
0.0000001
 43
0.0000001
 44
0.0000000001
 40
0.0
 40
0.0
 40
0.0
 40
0.0
 40
1.0
 40
1.0
 40
1.0
 40
1.0
 10
-1.0903823376
 20
6.8411290556
 30
0.0
 10
-1.0821965933
 20
7.010978958
 30
0.0
 10
-1.0607095957
 20
7.1235301703
 30
0.0
 10
-1.0267179271
 20
7.1796680692
 30
0.0
  0
SPLINE
  5
2FD
100
AcDbEntity
  8
CURVE
100
AcDbSpline
 62
250
  6
CONTINUOUS
 70
0
 71
3
 72
8
 73
4
 74
0
 42
0.0000001
 43
0.0000001
 44
0.0000000001
 40
0.0
 40
0.0
 40
0.0
 40
0.0
 40
1.0
 40
1.0
 40
1.0
 40
1.0
 10
-1.0267179271
 20
7.1796680692
 30
0.0
 10
-0.9931790829
 20
7.2350581199
 30
0.0
 10
-0.95020473
 20
7.2637075097
 30
0.0
 10
-0.8990453482
 20
7.2637075097
 30
0.0
  0
SPLINE
  5
2FE
100
AcDbEntity
  8
CURVE
100
AcDbSpline
 62
250
  6
CONTINUOUS
 70
0
 71
3
 72
8
 73
4
 74
0
 42
0.0000001
 43
0.0000001
 44
0.0000000001
 40
0.0
 40
0.0
 40
0.0
 40
0.0
 40
1.0
 40
1.0
 40
1.0
 40
1.0
 10
-0.8990453482
 20
7.2637075097
 30
0.0
 10
-0.8202595711
 20
7.2637075097
 30
0.0
 10
-0.7752388716
 20
7.2074319035
 30
0.0
 10
-0.7639839649
 20
7.0969271273
 30
0.0
  0
SPLINE
  5
2FF
100
AcDbEntity
  8
CURVE
100
AcDbSpline
 62
250
  6
CONTINUOUS
 70
0
 71
3
 72
8
 73
4
 74
0
 42
0.0000001
 43
0.0000001
 44
0.0000000001
 40
0.0
 40
0.0
 40
0.0
 40
0.0
 40
1.0
 40
1.0
 40
1.0
 40
1.0
 10
-1.0699185133
 20
6.4993828148
 30
0.0
 10
-1.0699185133
 20
6.584307766
 30
0.0
 10
-1.0545705557
 20
6.6487688929
 30
0.0
 10
-1.0231874885
 20
6.6919849862
 30
0.0
  0
SPLINE
  5
300
100
AcDbEntity
  8
CURVE
100
AcDbSpline
 62
250
  6
CONTINUOUS
 70
0
 71
3
 72
8
 73
4
 74
0
 42
0.0000001
 43
0.0000001
 44
0.0000000001
 40
0.0
 40
0.0
 40
0.0
 40
0.0
 40
1.0
 40
1.0
 40
1.0
 40
1.0
 10
-1.0231874885
 20
6.6919849862
 30
0.0
 10
-0.9921559095
 20
6.7347170621
 30
0.0
 10
-0.9532746077
 20
6.7562040597
 30
0.0
 10
-0.9082539082
 20
6.7562040597
 30
0.0
  0
SPLINE
  5
301
100
AcDbEntity
  8
CURVE
100
AcDbSpline
 62
250
  6
CONTINUOUS
 70
0
 71
3
 72
8
 73
4
 74
0
 42
0.0000001
 43
0.0000001
 44
0.0000000001
 40
0.0
 40
0.0
 40
0.0
 40
0.0
 40
1.0
 40
1.0
 40
1.0
 40
1.0
 10
-0.9082539082
 20
6.7562040597
 30
0.0
 10
-0.862210393
 20
6.7562040597
 30
0.0
 10
-0.8223059177
 20
6.7336938441
 30
0.0
 10
-0.7912653786
 20
6.6889142537
 30
0.0
  0
SPLINE
  5
302
100
AcDbEntity
  8
CURVE
100
AcDbSpline
 62
250
  6
CONTINUOUS
 70
0
 71
3
 72
8
 73
4
 74
0
 42
0.0000001
 43
0.0000001
 44
0.0000000001
 40
0.0
 40
0.0
 40
0.0
 40
0.0
 40
1.0
 40
1.0
 40
1.0
 40
1.0
 10
-0.7912653786
 20
6.6889142537
 30
0.0
 10
-0.759890914
 20
6.6436529368
 30
0.0
 10
-0.7435201406
 20
6.5720294625
 30
0.0
 10
-0.7435201406
 20
6.4738029897
 30
0.0
  0
SPLINE
  5
303
100
AcDbEntity
  8
CURVE
100
AcDbSpline
 62
250
  6
CONTINUOUS
 70
0
 71
3
 72
8
 73
4
 74
0
 42
0.0000001
 43
0.0000001
 44
0.0000000001
 40
0.0
 40
0.0
 40
0.0
 40
0.0
 40
1.0
 40
1.0
 40
1.0
 40
1.0
 10
-0.7435201406
 20
6.4738029897
 30
0.0
 10
-0.7435201406
 20
6.3796692997
 30
0.0
 10
-0.7588677406
 20
6.3111154124
 30
0.0
 10
-0.7880972311
 20
6.2695787593
 30
0.0
  0
SPLINE
  5
304
100
AcDbEntity
  8
CURVE
100
AcDbSpline
 62
250
  6
CONTINUOUS
 70
0
 71
3
 72
8
 73
4
 74
0
 42
0.0000001
 43
0.0000001
 44
0.0000000001
 40
0.0
 40
0.0
 40
0.0
 40
0.0
 40
1.0
 40
1.0
 40
1.0
 40
1.0
 10
-0.7880972311
 20
6.2695787593
 30
0.0
 10
-0.8171896935
 20
6.2282368303
 30
0.0
 10
-0.8530014753
 20
6.2077729836
 30
0.0
 10
-0.8969990015
 20
6.2077729836
 30
0.0
  0
SPLINE
  5
305
100
AcDbEntity
  8
CURVE
100
AcDbSpline
 62
250
  6
CONTINUOUS
 70
0
 71
3
 72
8
 73
4
 74
0
 42
0.0000001
 43
0.0000001
 44
0.0000000001
 40
0.0
 40
0.0
 40
0.0
 40
0.0
 40
1.0
 40
1.0
 40
1.0
 40
1.0
 10
-0.8969990015
 20
6.2077729836
 30
0.0
 10
-0.9420193434
 20
6.2077729836
 30
0.0
 10
-0.9819238186
 20
6.232329613
 30
0.0
 10
-1.017392739
 20
6.2827056721
 30
0.0
  0
SPLINE
  5
306
100
AcDbEntity
  8
CURVE
100
AcDbSpline
 62
250
  6
CONTINUOUS
 70
0
 71
3
 72
8
 73
4
 74
0
 42
0.0000001
 43
0.0000001
 44
0.0000000001
 40
0.0
 40
0.0
 40
0.0
 40
0.0
 40
1.0
 40
1.0
 40
1.0
 40
1.0
 10
-1.017392739
 20
6.2827056721
 30
0.0
 10
-1.052524209
 20
6.3326024547
 30
0.0
 10
-1.0699185133
 20
6.4042259068
 30
0.0
 10
-1.0699185133
 20
6.4993828148
 30
0.0
  0
SPLINE
  5
307
100
AcDbEntity
  8
CURVE
100
AcDbSpline
 62
250
  6
CONTINUOUS
 70
0
 71
3
 72
8
 73
4
 74
0
 42
0.0000001
 43
0.0000001
 44
0.0000000001
 40
0.0
 40
0.0
 40
0.0
 40
0.0
 40
1.0
 40
1.0
 40
1.0
 40
1.0
 10
-0.0508189201
 20
6.2620021761
 30
0.0
 10
-0.0385404825
 20
6.2875819788
 30
0.0
 10
-0.0231925249
 20
6.3141849995
 30
0.0
 10
-0.0029755267
 20
6.3409725508
 30
0.0
  0
SPLINE
  5
308
100
AcDbEntity
  8
CURVE
100
AcDbSpline
 62
250
  6
CONTINUOUS
 70
0
 71
3
 72
8
 73
4
 74
0
 42
0.0000001
 43
0.0000001
 44
0.0000000001
 40
0.0
 40
0.0
 40
0.0
 40
0.0
 40
1.0
 40
1.0
 40
1.0
 40
1.0
 10
-0.0029755267
 20
6.3409725508
 30
0.0
 10
0.0177351236
 20
6.3684141919
 30
0.0
 10
0.0658249855
 20
6.4246897757
 30
0.0
 10
0.1414449541
 20
6.5097002879
 30
0.0
  0
SPLINE
  5
309
100
AcDbEntity
  8
CURVE
100
AcDbSpline
 62
250
  6
CONTINUOUS
 70
0
 71
3
 72
8
 73
4
 74
0
 42
0.0000001
 43
0.0000001
 44
0.0000000001
 40
0.0
 40
0.0
 40
0.0
 40
0.0
 40
1.0
 40
1.0
 40
1.0
 40
1.0
 10
0.1414449541
 20
6.5097002879
 30
0.0
 10
0.222373724
 20
6.6006788522
 30
0.0
 10
0.2806956768
 20
6.6753718913
 30
0.0
 10
0.3154840498
 20
6.7336937713
 30
0.0
  0
SPLINE
  5
30A
100
AcDbEntity
  8
CURVE
100
AcDbSpline
 62
250
  6
CONTINUOUS
 70
0
 71
3
 72
8
 73
4
 74
0
 42
0.0000001
 43
0.0000001
 44
0.0000000001
 40
0.0
 40
0.0
 40
0.0
 40
0.0
 40
1.0
 40
1.0
 40
1.0
 40
1.0
 10
0.3154840498
 20
6.7336937713
 30
0.0
 10
0.3502725363
 20
6.7920158416
 30
0.0
 10
0.3758525848
 20
6.8493146211
 30
0.0
 10
0.3920893624
 20
6.9066511797
 30
0.0
  0
SPLINE
  5
30B
100
AcDbEntity
  8
CURVE
100
AcDbSpline
 62
250
  6
CONTINUOUS
 70
0
 71
3
 72
8
 73
4
 74
0
 42
0.0000001
 43
0.0000001
 44
0.0000000001
 40
0.0
 40
0.0
 40
0.0
 40
0.0
 40
1.0
 40
1.0
 40
1.0
 40
1.0
 10
0.3920893624
 20
6.9066511797
 30
0.0
 10
0.4085944891
 20
6.9649353534
 30
0.0
 10
0.4178034067
 20
7.0242804796
 30
0.0
 10
0.4178034067
 20
7.0856720418
 30
0.0
  0
SPLINE
  5
30C
100
AcDbEntity
  8
CURVE
100
AcDbSpline
 62
250
  6
CONTINUOUS
 70
0
 71
3
 72
8
 73
4
 74
0
 42
0.0000001
 43
0.0000001
 44
0.0000000001
 40
0.0
 40
0.0
 40
0.0
 40
0.0
 40
1.0
 40
1.0
 40
1.0
 40
1.0
 10
0.4178034067
 20
7.0856720418
 30
0.0
 10
0.4178034067
 20
7.194130382
 30
0.0
 10
0.3850611448
 20
7.2903104633
 30
0.0
 10
0.3195768459
 20
7.3742121823
 30
0.0
  0
SPLINE
  5
30D
100
AcDbEntity
  8
CURVE
100
AcDbSpline
 62
250
  6
CONTINUOUS
 70
0
 71
3
 72
8
 73
4
 74
0
 42
0.0000001
 43
0.0000001
 44
0.0000000001
 40
0.0
 40
0.0
 40
0.0
 40
0.0
 40
1.0
 40
1.0
 40
1.0
 40
1.0
 10
0.3195768459
 20
7.3742121823
 30
0.0
 10
0.2540924549
 20
7.4581140191
 30
0.0
 10
0.1568892002
 20
7.5000650198
 30
0.0
 10
0.027966857
 20
7.5000650198
 30
0.0
  0
SPLINE
  5
30E
100
AcDbEntity
  8
CURVE
100
AcDbSpline
 62
250
  6
CONTINUOUS
 70
0
 71
3
 72
8
 73
4
 74
0
 42
0.0000001
 43
0.0000001
 44
0.0000000001
 40
0.0
 40
0.0
 40
0.0
 40
0.0
 40
1.0
 40
1.0
 40
1.0
 40
1.0
 10
0.027966857
 20
7.5000650198
 30
0.0
 10
-0.089700222
 20
7.5000650198
 30
0.0
 10
-0.1838339567
 20
7.4642532379
 30
0.0
 10
-0.2544340802
 20
7.3926298529
 30
0.0
  0
SPLINE
  5
30F
100
AcDbEntity
  8
CURVE
100
AcDbSpline
 62
250
  6
CONTINUOUS
 70
0
 71
3
 72
8
 73
4
 74
0
 42
0.0000001
 43
0.0000001
 44
0.0000000001
 40
0.0
 40
0.0
 40
0.0
 40
0.0
 40
1.0
 40
1.0
 40
1.0
 40
1.0
 10
-0.2544340802
 20
7.3926298529
 30
0.0
 10
-0.32503438
 20
7.3210062892
 30
0.0
 10
-0.3669852018
 20
7.2084550768
 30
0.0
 10
-0.3813099861
 20
7.0559994787
 30
0.0
  0
SPLINE
  5
310
100
AcDbEntity
  8
CURVE
100
AcDbSpline
 62
250
  6
CONTINUOUS
 70
0
 71
3
 72
8
 73
4
 74
0
 42
0.0000001
 43
0.0000001
 44
0.0000000001
 40
0.0
 40
0.0
 40
0.0
 40
0.0
 40
1.0
 40
1.0
 40
1.0
 40
1.0
 10
-0.1469990015
 20
7.027350089
 30
0.0
 10
-0.1388132572
 20
7.1828752965
 30
0.0
 10
-0.0825376511
 20
7.2616610736
 30
0.0
 10
0.021827817
 20
7.2616610736
 30
0.0
  0
SPLINE
  5
311
100
AcDbEntity
  8
CURVE
100
AcDbSpline
 62
250
  6
CONTINUOUS
 70
0
 71
3
 72
8
 73
4
 74
0
 42
0.0000001
 43
0.0000001
 44
0.0000000001
 40
0.0
 40
0.0
 40
0.0
 40
0.0
 40
1.0
 40
1.0
 40
1.0
 40
1.0
 10
0.021827817
 20
7.2616610736
 30
0.0
 10
0.0688948631
 20
7.2616610736
 30
0.0
 10
0.107776165
 20
7.2442668587
 30
0.0
 10
0.136901972
 20
7.2110532051
 30
0.0
  0
SPLINE
  5
312
100
AcDbEntity
  8
CURVE
100
AcDbSpline
 62
250
  6
CONTINUOUS
 70
0
 71
3
 72
8
 73
4
 74
0
 42
0.0000001
 43
0.0000001
 44
0.0000000001
 40
0.0
 40
0.0
 40
0.0
 40
0.0
 40
1.0
 40
1.0
 40
1.0
 40
1.0
 10
0.136901972
 20
7.2110532051
 30
0.0
 10
0.1660981178
 20
7.1777593404
 30
0.0
 10
0.1814457178
 20
7.1286461264
 30
0.0
 10
0.1814457178
 20
7.0631617815
 30
0.0
  0
SPLINE
  5
313
100
AcDbEntity
  8
CURVE
100
AcDbSpline
 62
250
  6
CONTINUOUS
 70
0
 71
3
 72
8
 73
4
 74
0
 42
0.0000001
 43
0.0000001
 44
0.0000000001
 40
0.0
 40
0.0
 40
0.0
 40
0.0
 40
1.0
 40
1.0
 40
1.0
 40
1.0
 10
0.1814457178
 20
7.0631617815
 30
0.0
 10
0.1814457178
 20
7.0017702192
 30
0.0
 10
0.1630282402
 20
6.9403787464
 30
0.0
 10
0.1280715423
 20
6.8801085086
 30
0.0
  0
SPLINE
  5
314
100
AcDbEntity
  8
CURVE
100
AcDbSpline
 62
250
  6
CONTINUOUS
 70
0
 71
3
 72
8
 73
4
 74
0
 42
0.0000001
 43
0.0000001
 44
0.0000000001
 40
0.0
 40
0.0
 40
0.0
 40
0.0
 40
1.0
 40
1.0
 40
1.0
 40
1.0
 10
0.1280715423
 20
6.8801085086
 30
0.0
 10
0.1036831141
 20
6.8380594462
 30
0.0
 10
0.0402452946
 20
6.7582504958
 30
0.0
 10
-0.0632631869
 20
6.6407299096
 30
0.0
  0
SPLINE
  5
315
100
AcDbEntity
  8
CURVE
100
AcDbSpline
 62
250
  6
CONTINUOUS
 70
0
 71
3
 72
8
 73
4
 74
0
 42
0.0000001
 43
0.0000001
 44
0.0000000001
 40
0.0
 40
0.0
 40
0.0
 40
0.0
 40
1.0
 40
1.0
 40
1.0
 40
1.0
 10
-0.0632631869
 20
6.6407299096
 30
0.0
 10
-0.19406569
 20
6.4922204674
 30
0.0
 10
-0.2830835581
 20
6.3735301256
 30
0.0
 10
-0.3281038955
 20
6.2824660205
 30
0.0
  0
SPLINE
  5
316
100
AcDbEntity
  8
CURVE
100
AcDbSpline
 62
250
  6
CONTINUOUS
 70
0
 71
3
 72
8
 73
4
 74
0
 42
0.0000001
 43
0.0000001
 44
0.0000000001
 40
0.0
 40
0.0
 40
0.0
 40
0.0
 40
1.0
 40
1.0
 40
1.0
 40
1.0
 10
-0.3281038955
 20
6.2824660205
 30
0.0
 10
-0.3731242418
 20
6.1914018974
 30
0.0
 10
-0.4007506371
 20
6.0952218272
 30
0.0
 10
-0.4089360237
 20
5.9949489743
 30
0.0
  0
SPLINE
  5
317
100
AcDbEntity
  8
CURVE
100
AcDbSpline
 62
250
  6
CONTINUOUS
 70
0
 71
3
 72
8
 73
4
 74
0
 42
0.0000001
 43
0.0000001
 44
0.0000000001
 40
0.0
 40
0.0
 40
0.0
 40
0.0
 40
1.0
 40
1.0
 40
1.0
 40
1.0
 10
3.6347200871
 20
6.2476774812
 30
0.0
 10
3.6183493137
 20
6.2476774812
 30
0.0
 10
3.5784444809
 20
6.2446079165
 30
0.0
 10
3.5129599571
 20
6.2405151338
 30
0.0
  0
SPLINE
  5
318
100
AcDbEntity
  8
CURVE
100
AcDbSpline
 62
250
  6
CONTINUOUS
 70
0
 71
3
 72
8
 73
4
 74
0
 42
0.0000001
 43
0.0000001
 44
0.0000000001
 40
0.0
 40
0.0
 40
0.0
 40
0.0
 40
1.0
 40
1.0
 40
1.0
 40
1.0
 10
3.6582534313
 20
6.8493146211
 30
0.0
 10
3.6326737404
 20
6.8165724486
 30
0.0
 10
3.5919502518
 20
6.7629339428
 30
0.0
 10
3.5375168324
 20
6.6866270215
 30
0.0
  0
SPLINE
  5
319
100
AcDbEntity
  8
CURVE
100
AcDbSpline
 62
250
  6
CONTINUOUS
 70
0
 71
3
 72
8
 73
4
 74
0
 42
0.0000001
 43
0.0000001
 44
0.0000000001
 40
0.0
 40
0.0
 40
0.0
 40
0.0
 40
1.0
 40
1.0
 40
1.0
 40
1.0
 10
-4.8090722919
 20
4.0265997172
 30
0.0
 10
-4.8090722919
 20
3.9210744843
 30
0.0
 10
-4.8055252135
 20
3.8510199189
 30
0.0
 10
-4.7973400535
 20
3.8171630269
 30
0.0
  0
SPLINE
  5
31A
100
AcDbEntity
  8
CURVE
100
AcDbSpline
 62
250
  6
CONTINUOUS
 70
0
 71
3
 72
8
 73
4
 74
0
 42
0.0000001
 43
0.0000001
 44
0.0000000001
 40
0.0
 40
0.0
 40
0.0
 40
0.0
 40
1.0
 40
1.0
 40
1.0
 40
1.0
 10
-4.7973400535
 20
3.8171630269
 30
0.0
 10
-4.7860163987
 20
3.7703241427
 30
0.0
 10
-4.7656207561
 20
3.7348534752
 30
0.0
 10
-4.73364883
 20
3.7100864875
 30
0.0
  0
SPLINE
  5
31B
100
AcDbEntity
  8
CURVE
100
AcDbSpline
 62
250
  6
CONTINUOUS
 70
0
 71
3
 72
8
 73
4
 74
0
 42
0.0000001
 43
0.0000001
 44
0.0000000001
 40
0.0
 40
0.0
 40
0.0
 40
0.0
 40
1.0
 40
1.0
 40
1.0
 40
1.0
 10
-4.73364883
 20
3.7100864875
 30
0.0
 10
-4.7026603281
 20
3.6860813074
 30
0.0
 10
-4.6609822154
 20
3.6727798071
 30
0.0
 10
-4.6086630225
 20
3.6727798071
 30
0.0
  0
SPLINE
  5
31C
100
AcDbEntity
  8
CURVE
100
AcDbSpline
 62
250
  6
CONTINUOUS
 70
0
 71
3
 72
8
 73
4
 74
0
 42
0.0000001
 43
0.0000001
 44
0.0000000001
 40
0.0
 40
0.0
 40
0.0
 40
0.0
 40
1.0
 40
1.0
 40
1.0
 40
1.0
 10
-4.6086630225
 20
3.6727798071
 30
0.0
 10
-4.5492496729
 20
3.6727798071
 30
0.0
 10
-4.4960437298
 20
3.6851945402
 30
0.0
 10
-4.448158288
 20
3.7100240089
 30
0.0
  0
SPLINE
  5
31D
100
AcDbEntity
  8
CURVE
100
AcDbSpline
 62
250
  6
CONTINUOUS
 70
0
 71
3
 72
8
 73
4
 74
0
 42
0.0000001
 43
0.0000001
 44
0.0000000001
 40
0.0
 40
0.0
 40
0.0
 40
0.0
 40
1.0
 40
1.0
 40
1.0
 40
1.0
 10
-4.4658936024
 20
3.9033391506
 30
0.0
 10
-4.5013642311
 20
3.887377356
 30
0.0
 10
-4.5288539529
 20
3.8793964491
 30
0.0
 10
-4.5474761724
 20
3.8793964491
 30
0.0
  0
SPLINE
  5
31E
100
AcDbEntity
  8
CURVE
100
AcDbSpline
 62
250
  6
CONTINUOUS
 70
0
 71
3
 72
8
 73
4
 74
0
 42
0.0000001
 43
0.0000001
 44
0.0000000001
 40
0.0
 40
0.0
 40
0.0
 40
0.0
 40
1.0
 40
1.0
 40
1.0
 40
1.0
 10
-4.5474761724
 20
3.8793964491
 30
0.0
 10
-4.5731923938
 20
3.8793964491
 30
0.0
 10
-4.5900409579
 20
3.890924415
 30
0.0
 10
-4.5981957282
 20
3.9148063896
 30
0.0
  0
SPLINE
  5
31F
100
AcDbEntity
  8
CURVE
100
AcDbSpline
 62
250
  6
CONTINUOUS
 70
0
 71
3
 72
8
 73
4
 74
0
 42
0.0000001
 43
0.0000001
 44
0.0000000001
 40
0.0
 40
0.0
 40
0.0
 40
0.0
 40
1.0
 40
1.0
 40
1.0
 40
1.0
 10
-4.5981957282
 20
3.9148063896
 30
0.0
 10
-4.602455616
 20
3.9272818521
 30
0.0
 10
-4.6042292714
 20
3.9751672551
 30
0.0
 10
-4.6042292714
 20
4.0576365561
 30
0.0
  0
SPLINE
  5
320
100
AcDbEntity
  8
CURVE
100
AcDbSpline
 62
250
  6
CONTINUOUS
 70
0
 71
3
 72
8
 73
4
 74
0
 42
0.0000001
 43
0.0000001
 44
0.0000000001
 40
0.0
 40
0.0
 40
0.0
 40
0.0
 40
1.0
 40
1.0
 40
1.0
 40
1.0
 10
-4.3133697748
 20
4.0265997172
 30
0.0
 10
-4.3133697748
 20
3.9210744843
 30
0.0
 10
-4.309822619
 20
3.8510199189
 30
0.0
 10
-4.301637459
 20
3.8171630269
 30
0.0
  0
SPLINE
  5
321
100
AcDbEntity
  8
CURVE
100
AcDbSpline
 62
250
  6
CONTINUOUS
 70
0
 71
3
 72
8
 73
4
 74
0
 42
0.0000001
 43
0.0000001
 44
0.0000000001
 40
0.0
 40
0.0
 40
0.0
 40
0.0
 40
1.0
 40
1.0
 40
1.0
 40
1.0
 10
-4.301637459
 20
3.8171630269
 30
0.0
 10
-4.2903138041
 20
3.7703241427
 30
0.0
 10
-4.2699180841
 20
3.7348534752
 30
0.0
 10
-4.2379462697
 20
3.7100865435
 30
0.0
  0
SPLINE
  5
322
100
AcDbEntity
  8
CURVE
100
AcDbSpline
 62
250
  6
CONTINUOUS
 70
0
 71
3
 72
8
 73
4
 74
0
 42
0.0000001
 43
0.0000001
 44
0.0000000001
 40
0.0
 40
0.0
 40
0.0
 40
0.0
 40
1.0
 40
1.0
 40
1.0
 40
1.0
 10
-4.2379462697
 20
3.7100865435
 30
0.0
 10
-4.2069577336
 20
3.6860813074
 30
0.0
 10
-4.1652796984
 20
3.6727798071
 30
0.0
 10
-4.1129605055
 20
3.6727798071
 30
0.0
  0
SPLINE
  5
323
100
AcDbEntity
  8
CURVE
100
AcDbSpline
 62
250
  6
CONTINUOUS
 70
0
 71
3
 72
8
 73
4
 74
0
 42
0.0000001
 43
0.0000001
 44
0.0000000001
 40
0.0
 40
0.0
 40
0.0
 40
0.0
 40
1.0
 40
1.0
 40
1.0
 40
1.0
 10
-4.1129605055
 20
3.6727798071
 30
0.0
 10
-4.0535470009
 20
3.6727798071
 30
0.0
 10
-4.0003410578
 20
3.6851945402
 30
0.0
 10
-3.952455616
 20
3.7100240089
 30
0.0
  0
SPLINE
  5
324
100
AcDbEntity
  8
CURVE
100
AcDbSpline
 62
250
  6
CONTINUOUS
 70
0
 71
3
 72
8
 73
4
 74
0
 42
0.0000001
 43
0.0000001
 44
0.0000000001
 40
0.0
 40
0.0
 40
0.0
 40
0.0
 40
1.0
 40
1.0
 40
1.0
 40
1.0
 10
-3.9701909304
 20
3.9033391506
 30
0.0
 10
-4.0056617141
 20
3.887377356
 30
0.0
 10
-4.0331514359
 20
3.8793964491
 30
0.0
 10
-4.0517735004
 20
3.8793964491
 30
0.0
  0
SPLINE
  5
325
100
AcDbEntity
  8
CURVE
100
AcDbSpline
 62
250
  6
CONTINUOUS
 70
0
 71
3
 72
8
 73
4
 74
0
 42
0.0000001
 43
0.0000001
 44
0.0000000001
 40
0.0
 40
0.0
 40
0.0
 40
0.0
 40
1.0
 40
1.0
 40
1.0
 40
1.0
 10
-4.0517735004
 20
3.8793964491
 30
0.0
 10
-4.0774897218
 20
3.8793964491
 30
0.0
 10
-4.0943382859
 20
3.890924415
 30
0.0
 10
-4.1024931467
 20
3.9148063565
 30
0.0
  0
SPLINE
  5
326
100
AcDbEntity
  8
CURVE
100
AcDbSpline
 62
250
  6
CONTINUOUS
 70
0
 71
3
 72
8
 73
4
 74
0
 42
0.0000001
 43
0.0000001
 44
0.0000000001
 40
0.0
 40
0.0
 40
0.0
 40
0.0
 40
1.0
 40
1.0
 40
1.0
 40
1.0
 10
-4.1024931467
 20
3.9148063565
 30
0.0
 10
-4.106753099
 20
3.9272818521
 30
0.0
 10
-4.1085265994
 20
3.9751672551
 30
0.0
 10
-4.1085265994
 20
4.0576365561
 30
0.0
  0
SPLINE
  5
327
100
AcDbEntity
  8
CURVE
100
AcDbSpline
 62
250
  6
CONTINUOUS
 70
0
 71
3
 72
8
 73
4
 74
0
 42
0.0000001
 43
0.0000001
 44
0.0000000001
 40
0.0
 40
0.0
 40
0.0
 40
0.0
 40
1.0
 40
1.0
 40
1.0
 40
1.0
 10
-3.0497271538
 20
4.0390144527
 30
0.0
 10
-3.0390858412
 20
3.9255083129
 30
0.0
 10
-3.001841712
 20
3.8359448843
 30
0.0
 10
-2.9371077043
 20
3.7703241445
 30
0.0
  0
SPLINE
  5
328
100
AcDbEntity
  8
CURVE
100
AcDbSpline
 62
250
  6
CONTINUOUS
 70
0
 71
3
 72
8
 73
4
 74
0
 42
0.0000001
 43
0.0000001
 44
0.0000000001
 40
0.0
 40
0.0
 40
0.0
 40
0.0
 40
1.0
 40
1.0
 40
1.0
 40
1.0
 10
-2.9371077043
 20
3.7703241445
 30
0.0
 10
-2.8723737001
 20
3.7047034083
 30
0.0
 10
-2.7925649405
 20
3.6727798071
 30
0.0
 10
-2.6994543076
 20
3.6727798071
 30
0.0
  0
SPLINE
  5
329
100
AcDbEntity
  8
CURVE
100
AcDbSpline
 62
250
  6
CONTINUOUS
 70
0
 71
3
 72
8
 73
4
 74
0
 42
0.0000001
 43
0.0000001
 44
0.0000000001
 40
0.0
 40
0.0
 40
0.0
 40
0.0
 40
1.0
 40
1.0
 40
1.0
 40
1.0
 10
-2.6994543076
 20
3.6727798071
 30
0.0
 10
-2.6019099236
 20
3.6727798071
 30
0.0
 10
-2.5176671028
 20
3.7109107749
 30
0.0
 10
-2.4467258468
 20
3.7889462425
 30
0.0
  0
SPLINE
  5
32A
100
AcDbEntity
  8
CURVE
100
AcDbSpline
 62
250
  6
CONTINUOUS
 70
0
 71
3
 72
8
 73
4
 74
0
 42
0.0000001
 43
0.0000001
 44
0.0000000001
 40
0.0
 40
0.0
 40
0.0
 40
0.0
 40
1.0
 40
1.0
 40
1.0
 40
1.0
 10
-2.4467258468
 20
3.7889462425
 30
0.0
 10
-2.3757845879
 20
3.8669817135
 30
0.0
 10
-2.3403136492
 20
3.9654128284
 30
0.0
 10
-2.3403136492
 20
4.0842395664
 30
0.0
  0
SPLINE
  5
32B
100
AcDbEntity
  8
CURVE
100
AcDbSpline
 62
250
  6
CONTINUOUS
 70
0
 71
3
 72
8
 73
4
 74
0
 42
0.0000001
 43
0.0000001
 44
0.0000000001
 40
0.0
 40
0.0
 40
0.0
 40
0.0
 40
1.0
 40
1.0
 40
1.0
 40
1.0
 10
-2.3403136492
 20
4.0842395664
 30
0.0
 10
-2.3403136492
 20
4.1658220977
 30
0.0
 10
-2.3598227739
 20
4.2332163543
 30
0.0
 10
-2.3972731322
 20
4.2880544985
 30
0.0
  0
SPLINE
  5
32C
100
AcDbEntity
  8
CURVE
100
AcDbSpline
 62
250
  6
CONTINUOUS
 70
0
 71
3
 72
8
 73
4
 74
0
 42
0.0000001
 43
0.0000001
 44
0.0000000001
 40
0.0
 40
0.0
 40
0.0
 40
0.0
 40
1.0
 40
1.0
 40
1.0
 40
1.0
 10
-2.3972731322
 20
4.2880544985
 30
0.0
 10
-2.4343110323
 20
4.3422886849
 30
0.0
 10
-2.4830832243
 20
4.3777593524
 30
0.0
 10
-2.5424967289
 20
4.3937211663
 30
0.0
  0
SPLINE
  5
32D
100
AcDbEntity
  8
CURVE
100
AcDbSpline
 62
250
  6
CONTINUOUS
 70
0
 71
3
 72
8
 73
4
 74
0
 42
0.0000001
 43
0.0000001
 44
0.0000000001
 40
0.0
 40
0.0
 40
0.0
 40
0.0
 40
1.0
 40
1.0
 40
1.0
 40
1.0
 10
-2.5424967289
 20
4.3937211663
 30
0.0
 10
-2.4910639763
 20
4.4274182946
 30
0.0
 10
-2.4529330969
 20
4.4673227519
 30
0.0
 10
-2.4274066925
 20
4.5126541517
 30
0.0
  0
SPLINE
  5
32E
100
AcDbEntity
  8
CURVE
100
AcDbSpline
 62
250
  6
CONTINUOUS
 70
0
 71
3
 72
8
 73
4
 74
0
 42
0.0000001
 43
0.0000001
 44
0.0000000001
 40
0.0
 40
0.0
 40
0.0
 40
0.0
 40
1.0
 40
1.0
 40
1.0
 40
1.0
 10
-2.4274066925
 20
4.5126541517
 30
0.0
 10
-2.4015006542
 20
4.5586597294
 30
0.0
 10
-2.388199091
 20
4.6092054218
 30
0.0
 10
-2.388199091
 20
4.6659585208
 30
0.0
  0
SPLINE
  5
32F
100
AcDbEntity
  8
CURVE
100
AcDbSpline
 62
250
  6
CONTINUOUS
 70
0
 71
3
 72
8
 73
4
 74
0
 42
0.0000001
 43
0.0000001
 44
0.0000000001
 40
0.0
 40
0.0
 40
0.0
 40
0.0
 40
1.0
 40
1.0
 40
1.0
 40
1.0
 10
-2.388199091
 20
4.6659585208
 30
0.0
 10
-2.388199091
 20
4.7502013415
 30
0.0
 10
-2.4174624681
 20
4.8264633328
 30
0.0
 10
-2.4744783895
 20
4.8954127859
 30
0.0
  0
SPLINE
  5
330
100
AcDbEntity
  8
CURVE
100
AcDbSpline
 62
250
  6
CONTINUOUS
 70
0
 71
3
 72
8
 73
4
 74
0
 42
0.0000001
 43
0.0000001
 44
0.0000000001
 40
0.0
 40
0.0
 40
0.0
 40
0.0
 40
1.0
 40
1.0
 40
1.0
 40
1.0
 10
-2.4744783895
 20
4.8954127859
 30
0.0
 10
-2.5318554163
 20
4.9647989244
 30
0.0
 10
-2.6090042353
 20
4.9993828804
 30
0.0
 10
-2.7056615591
 20
4.9993828804
 30
0.0
  0
SPLINE
  5
331
100
AcDbEntity
  8
CURVE
100
AcDbSpline
 62
250
  6
CONTINUOUS
 70
0
 71
3
 72
8
 73
4
 74
0
 42
0.0000001
 43
0.0000001
 44
0.0000000001
 40
0.0
 40
0.0
 40
0.0
 40
0.0
 40
1.0
 40
1.0
 40
1.0
 40
1.0
 10
-2.7056615591
 20
4.9993828804
 30
0.0
 10
-2.7916781902
 20
4.9993828804
 30
0.0
 10
-2.8635061979
 20
4.9718930036
 30
0.0
 10
-2.9200373774
 20
4.9184534297
 30
0.0
  0
SPLINE
  5
332
100
AcDbEntity
  8
CURVE
100
AcDbSpline
 62
250
  6
CONTINUOUS
 70
0
 71
3
 72
8
 73
4
 74
0
 42
0.0000001
 43
0.0000001
 44
0.0000000001
 40
0.0
 40
0.0
 40
0.0
 40
0.0
 40
1.0
 40
1.0
 40
1.0
 40
1.0
 10
-2.9200373774
 20
4.9184534297
 30
0.0
 10
-2.9770123959
 20
4.8645942897
 30
0.0
 10
-3.0151432753
 20
4.778577891
 30
0.0
 10
-3.0346520901
 20
4.6597511918
 30
0.0
  0
SPLINE
  5
333
100
AcDbEntity
  8
CURVE
100
AcDbSpline
 62
250
  6
CONTINUOUS
 70
0
 71
3
 72
8
 73
4
 74
0
 42
0.0000001
 43
0.0000001
 44
0.0000000001
 40
0.0
 40
0.0
 40
0.0
 40
0.0
 40
1.0
 40
1.0
 40
1.0
 40
1.0
 10
-2.8457708836
 20
4.6207334072
 30
0.0
 10
-2.8413368225
 20
4.6774865061
 30
0.0
 10
-2.8262620687
 20
4.7209380418
 30
0.0
 10
-2.8011795185
 20
4.7499809988
 30
0.0
  0
SPLINE
  5
334
100
AcDbEntity
  8
CURVE
100
AcDbSpline
 62
250
  6
CONTINUOUS
 70
0
 71
3
 72
8
 73
4
 74
0
 42
0.0000001
 43
0.0000001
 44
0.0000000001
 40
0.0
 40
0.0
 40
0.0
 40
0.0
 40
1.0
 40
1.0
 40
1.0
 40
1.0
 10
-2.8011795185
 20
4.7499809988
 30
0.0
 10
-2.7757163763
 20
4.7794646412
 30
0.0
 10
-2.7464529991
 20
4.7945397049
 30
0.0
 10
-2.7118691206
 20
4.7945397049
 30
0.0
  0
SPLINE
  5
335
100
AcDbEntity
  8
CURVE
100
AcDbSpline
 62
250
  6
CONTINUOUS
 70
0
 71
3
 72
8
 73
4
 74
0
 42
0.0000001
 43
0.0000001
 44
0.0000000001
 40
0.0
 40
0.0
 40
0.0
 40
0.0
 40
1.0
 40
1.0
 40
1.0
 40
1.0
 10
-2.7118691206
 20
4.7945397049
 30
0.0
 10
-2.6772852421
 20
4.7945397049
 30
0.0
 10
-2.6489086151
 20
4.7812382192
 30
0.0
 10
-2.6275904491
 20
4.7564396107
 30
0.0
  0
SPLINE
  5
336
100
AcDbEntity
  8
CURVE
100
AcDbSpline
 62
250
  6
CONTINUOUS
 70
0
 71
3
 72
8
 73
4
 74
0
 42
0.0000001
 43
0.0000001
 44
0.0000000001
 40
0.0
 40
0.0
 40
0.0
 40
0.0
 40
1.0
 40
1.0
 40
1.0
 40
1.0
 10
-2.6275904491
 20
4.7564396107
 30
0.0
 10
-2.6054569244
 20
4.7306925267
 30
0.0
 10
-2.5939291716
 20
4.6952218205
 30
0.0
 10
-2.5939291716
 20
4.6508834571
 30
0.0
  0
SPLINE
  5
337
100
AcDbEntity
  8
CURVE
100
AcDbSpline
 62
250
  6
CONTINUOUS
 70
0
 71
3
 72
8
 73
4
 74
0
 42
0.0000001
 43
0.0000001
 44
0.0000000001
 40
0.0
 40
0.0
 40
0.0
 40
0.0
 40
1.0
 40
1.0
 40
1.0
 40
1.0
 10
-2.5939291716
 20
4.6508834571
 30
0.0
 10
-2.5939291716
 20
4.5967906863
 30
0.0
 10
-2.6098909855
 20
4.5559994787
 30
0.0
 10
-2.6404743519
 20
4.5263024571
 30
0.0
  0
SPLINE
  5
338
100
AcDbEntity
  8
CURVE
100
AcDbSpline
 62
250
  6
CONTINUOUS
 70
0
 71
3
 72
8
 73
4
 74
0
 42
0.0000001
 43
0.0000001
 44
0.0000000001
 40
0.0
 40
0.0
 40
0.0
 40
0.0
 40
1.0
 40
1.0
 40
1.0
 40
1.0
 10
-2.6404743519
 20
4.5263024571
 30
0.0
 10
-2.6710776806
 20
4.4965860516
 30
0.0
 10
-2.7127558708
 20
4.4823978156
 30
0.0
 10
-2.7650750637
 20
4.4841713161
 30
0.0
  0
SPLINE
  5
339
100
AcDbEntity
  8
CURVE
100
AcDbSpline
 62
250
  6
CONTINUOUS
 70
0
 71
3
 72
8
 73
4
 74
0
 42
0.0000001
 43
0.0000001
 44
0.0000000001
 40
0.0
 40
0.0
 40
0.0
 40
0.0
 40
1.0
 40
1.0
 40
1.0
 40
1.0
 10
-2.7872441292
 20
4.2811017573
 30
0.0
 10
-2.7517735004
 20
4.2935164929
 30
0.0
 10
-2.7207366228
 20
4.2997238606
 30
0.0
 10
-2.6941338062
 20
4.2997238606
 30
0.0
  0
SPLINE
  5
33A
100
AcDbEntity
  8
CURVE
100
AcDbSpline
 62
250
  6
CONTINUOUS
 70
0
 71
3
 72
8
 73
4
 74
0
 42
0.0000001
 43
0.0000001
 44
0.0000000001
 40
0.0
 40
0.0
 40
0.0
 40
0.0
 40
1.0
 40
1.0
 40
1.0
 40
1.0
 10
-2.6941338062
 20
4.2997238606
 30
0.0
 10
-2.6542291164
 20
4.2997238606
 30
0.0
 10
-2.6205319881
 20
4.2811017573
 30
0.0
 10
-2.5929809743
 20
4.2456789652
 30
0.0
  0
SPLINE
  5
33B
100
AcDbEntity
  8
CURVE
100
AcDbSpline
 62
250
  6
CONTINUOUS
 70
0
 71
3
 72
8
 73
4
 74
0
 42
0.0000001
 43
0.0000001
 44
0.0000000001
 40
0.0
 40
0.0
 40
0.0
 40
0.0
 40
1.0
 40
1.0
 40
1.0
 40
1.0
 10
-2.5929809743
 20
4.2456789652
 30
0.0
 10
-2.5646657944
 20
4.2092736721
 30
0.0
 10
-2.5504774809
 20
4.1596147299
 30
0.0
 10
-2.5504774809
 20
4.0966543019
 30
0.0
  0
SPLINE
  5
33C
100
AcDbEntity
  8
CURVE
100
AcDbSpline
 62
250
  6
CONTINUOUS
 70
0
 71
3
 72
8
 73
4
 74
0
 42
0.0000001
 43
0.0000001
 44
0.0000000001
 40
0.0
 40
0.0
 40
0.0
 40
0.0
 40
1.0
 40
1.0
 40
1.0
 40
1.0
 10
-2.5504774809
 20
4.0966543019
 30
0.0
 10
-2.5504774809
 20
4.0283732564
 30
0.0
 10
-2.5655525446
 20
3.9751672551
 30
0.0
 10
-2.5943162987
 20
3.9366679823
 30
0.0
  0
SPLINE
  5
33D
100
AcDbEntity
  8
CURVE
100
AcDbSpline
 62
250
  6
CONTINUOUS
 70
0
 71
3
 72
8
 73
4
 74
0
 42
0.0000001
 43
0.0000001
 44
0.0000000001
 40
0.0
 40
0.0
 40
0.0
 40
0.0
 40
1.0
 40
1.0
 40
1.0
 40
1.0
 10
-2.5943162987
 20
3.9366679823
 30
0.0
 10
-2.6231922388
 20
3.8980185524
 30
0.0
 10
-2.6595499277
 20
3.8793964491
 30
0.0
 10
-2.701227808
 20
3.8793964491
 30
0.0
  0
SPLINE
  5
33E
100
AcDbEntity
  8
CURVE
100
AcDbSpline
 62
250
  6
CONTINUOUS
 70
0
 71
3
 72
8
 73
4
 74
0
 42
0.0000001
 43
0.0000001
 44
0.0000000001
 40
0.0
 40
0.0
 40
0.0
 40
0.0
 40
1.0
 40
1.0
 40
1.0
 40
1.0
 10
-2.701227808
 20
3.8793964491
 30
0.0
 10
-2.7393586874
 20
3.8793964491
 30
0.0
 10
-2.7730558157
 20
3.8953582436
 30
0.0
 10
-2.8012120062
 20
3.9274738024
 30
0.0
  0
SPLINE
  5
33F
100
AcDbEntity
  8
CURVE
100
AcDbSpline
 62
250
  6
CONTINUOUS
 70
0
 71
3
 72
8
 73
4
 74
0
 42
0.0000001
 43
0.0000001
 44
0.0000000001
 40
0.0
 40
0.0
 40
0.0
 40
0.0
 40
1.0
 40
1.0
 40
1.0
 40
1.0
 10
-2.8012120062
 20
3.9274738024
 30
0.0
 10
-2.8298090696
 20
3.9600922302
 30
0.0
 10
-2.8466576338
 20
4.006204094
 30
0.0
 10
-2.8519781351
 20
4.0682777524
 30
0.0
  0
SPLINE
  5
340
100
AcDbEntity
  8
CURVE
100
AcDbSpline
 62
250
  6
CONTINUOUS
 70
0
 71
3
 72
8
 73
4
 74
0
 42
0.0000001
 43
0.0000001
 44
0.0000000001
 40
0.0
 40
0.0
 40
0.0
 40
0.0
 40
1.0
 40
1.0
 40
1.0
 40
1.0
 10
-1.7967258453
 20
4.0292600066
 30
0.0
 10
-1.7843110323
 20
3.9148671165
 30
0.0
 10
-1.7461801529
 20
3.8270772174
 30
0.0
 10
-1.6823328964
 20
3.7650035453
 30
0.0
  0
SPLINE
  5
341
100
AcDbEntity
  8
CURVE
100
AcDbSpline
 62
250
  6
CONTINUOUS
 70
0
 71
3
 72
8
 73
4
 74
0
 42
0.0000001
 43
0.0000001
 44
0.0000000001
 40
0.0
 40
0.0
 40
0.0
 40
0.0
 40
1.0
 40
1.0
 40
1.0
 40
1.0
 10
-1.6823328964
 20
3.7650035453
 30
0.0
 10
-1.6184856415
 20
3.7029298746
 30
0.0
 10
-1.5395633221
 20
3.6727798071
 30
0.0
 10
-1.4446794987
 20
3.6727798071
 30
0.0
  0
SPLINE
  5
342
100
AcDbEntity
  8
CURVE
100
AcDbSpline
 62
250
  6
CONTINUOUS
 70
0
 71
3
 72
8
 73
4
 74
0
 42
0.0000001
 43
0.0000001
 44
0.0000000001
 40
0.0
 40
0.0
 40
0.0
 40
0.0
 40
1.0
 40
1.0
 40
1.0
 40
1.0
 10
-1.4446794987
 20
3.6727798071
 30
0.0
 10
-1.3276262999
 20
3.6727798071
 30
0.0
 10
-1.2380626678
 20
3.7206652101
 30
0.0
 10
-1.1751023674
 20
3.8164359424
 30
0.0
  0
SPLINE
  5
343
100
AcDbEntity
  8
CURVE
100
AcDbSpline
 62
250
  6
CONTINUOUS
 70
0
 71
3
 72
8
 73
4
 74
0
 42
0.0000001
 43
0.0000001
 44
0.0000000001
 40
0.0
 40
0.0
 40
0.0
 40
0.0
 40
1.0
 40
1.0
 40
1.0
 40
1.0
 10
-1.1751023674
 20
3.8164359424
 30
0.0
 10
-1.1121419668
 20
3.9122068271
 30
0.0
 10
-1.080218339
 20
4.0168452904
 30
0.0
 10
-1.080218339
 20
4.1312381804
 30
0.0
  0
SPLINE
  5
344
100
AcDbEntity
  8
CURVE
100
AcDbSpline
 62
250
  6
CONTINUOUS
 70
0
 71
3
 72
8
 73
4
 74
0
 42
0.0000001
 43
0.0000001
 44
0.0000000001
 40
0.0
 40
0.0
 40
0.0
 40
0.0
 40
1.0
 40
1.0
 40
1.0
 40
1.0
 10
-1.080218339
 20
4.1312381804
 30
0.0
 10
-1.080218339
 20
4.2695738107
 30
0.0
 10
-1.1174624681
 20
4.3804196805
 30
0.0
 10
-1.1923020511
 20
4.4652378629
 30
0.0
  0
SPLINE
  5
345
100
AcDbEntity
  8
CURVE
100
AcDbSpline
 62
250
  6
CONTINUOUS
 70
0
 71
3
 72
8
 73
4
 74
0
 42
0.0000001
 43
0.0000001
 44
0.0000000001
 40
0.0
 40
0.0
 40
0.0
 40
0.0
 40
1.0
 40
1.0
 40
1.0
 40
1.0
 10
-1.1923020511
 20
4.4652378629
 30
0.0
 10
-1.2504774809
 20
4.5311700076
 30
0.0
 10
-1.3214187384
 20
4.5648671359
 30
0.0
 10
-1.4056615591
 20
4.5648671359
 30
0.0
  0
SPLINE
  5
346
100
AcDbEntity
  8
CURVE
100
AcDbSpline
 62
250
  6
CONTINUOUS
 70
0
 71
3
 72
8
 73
4
 74
0
 42
0.0000001
 43
0.0000001
 44
0.0000000001
 40
0.0
 40
0.0
 40
0.0
 40
0.0
 40
1.0
 40
1.0
 40
1.0
 40
1.0
 10
-1.4056615591
 20
4.5648671359
 30
0.0
 10
-1.4526602507
 20
4.5648671359
 30
0.0
 10
-1.4996589422
 20
4.5506788224
 30
0.0
 10
-1.5457708836
 20
4.5223023504
 30
0.0
  0
SPLINE
  5
347
100
AcDbEntity
  8
CURVE
100
AcDbSpline
 62
250
  6
CONTINUOUS
 70
0
 71
3
 72
8
 73
4
 74
0
 42
0.0000001
 43
0.0000001
 44
0.0000000001
 40
0.0
 40
0.0
 40
0.0
 40
0.0
 40
1.0
 40
1.0
 40
1.0
 40
1.0
 10
-1.6069575787
 20
4.2713473499
 30
0.0
 10
-1.559959197
 20
4.3343077779
 30
0.0
 10
-1.5076396942
 20
4.366231367
 30
0.0
 10
-1.4491132498
 20
4.366231367
 30
0.0
  0
SPLINE
  5
348
100
AcDbEntity
  8
CURVE
100
AcDbSpline
 62
250
  6
CONTINUOUS
 70
0
 71
3
 72
8
 73
4
 74
0
 42
0.0000001
 43
0.0000001
 44
0.0000000001
 40
0.0
 40
0.0
 40
0.0
 40
0.0
 40
1.0
 40
1.0
 40
1.0
 40
1.0
 10
-1.4491132498
 20
4.366231367
 30
0.0
 10
-1.4030013084
 20
4.366231367
 30
0.0
 10
-1.364870429
 20
4.3467224747
 30
0.0
 10
-1.334720311
 20
4.3077047604
 30
0.0
  0
SPLINE
  5
349
100
AcDbEntity
  8
CURVE
100
AcDbSpline
 62
250
  6
CONTINUOUS
 70
0
 71
3
 72
8
 73
4
 74
0
 42
0.0000001
 43
0.0000001
 44
0.0000000001
 40
0.0
 40
0.0
 40
0.0
 40
0.0
 40
1.0
 40
1.0
 40
1.0
 40
1.0
 10
-1.334720311
 20
4.3077047604
 30
0.0
 10
-1.3045701742
 20
4.2686870218
 30
0.0
 10
-1.2894951105
 20
4.2083868832
 30
0.0
 10
-1.2894951105
 20
4.1268043518
 30
0.0
  0
SPLINE
  5
34A
100
AcDbEntity
  8
CURVE
100
AcDbSpline
 62
250
  6
CONTINUOUS
 70
0
 71
3
 72
8
 73
4
 74
0
 42
0.0000001
 43
0.0000001
 44
0.0000000001
 40
0.0
 40
0.0
 40
0.0
 40
0.0
 40
1.0
 40
1.0
 40
1.0
 40
1.0
 10
-1.2894951105
 20
4.1268043518
 30
0.0
 10
-1.2894951105
 20
4.0407879919
 30
0.0
 10
-1.3045701742
 20
3.9769407943
 30
0.0
 10
-1.3347203016
 20
3.9352627591
 30
0.0
  0
SPLINE
  5
34B
100
AcDbEntity
  8
CURVE
100
AcDbSpline
 62
250
  6
CONTINUOUS
 70
0
 71
3
 72
8
 73
4
 74
0
 42
0.0000001
 43
0.0000001
 44
0.0000000001
 40
0.0
 40
0.0
 40
0.0
 40
0.0
 40
1.0
 40
1.0
 40
1.0
 40
1.0
 10
-1.3347203016
 20
3.9352627591
 30
0.0
 10
-1.364870429
 20
3.8935847238
 30
0.0
 10
-1.401227808
 20
3.8731890813
 30
0.0
 10
-1.4429059982
 20
3.8731890813
 30
0.0
  0
SPLINE
  5
34C
100
AcDbEntity
  8
CURVE
100
AcDbSpline
 62
250
  6
CONTINUOUS
 70
0
 71
3
 72
8
 73
4
 74
0
 42
0.0000001
 43
0.0000001
 44
0.0000000001
 40
0.0
 40
0.0
 40
0.0
 40
0.0
 40
1.0
 40
1.0
 40
1.0
 40
1.0
 10
-1.4429059982
 20
3.8731890813
 30
0.0
 10
-1.478376627
 20
3.8731890813
 30
0.0
 10
-1.511187005
 20
3.8891508758
 30
0.0
 10
-1.5409086681
 20
3.9215342841
 30
0.0
  0
SPLINE
  5
34D
100
AcDbEntity
  8
CURVE
100
AcDbSpline
 62
250
  6
CONTINUOUS
 70
0
 71
3
 72
8
 73
4
 74
0
 42
0.0000001
 43
0.0000001
 44
0.0000000001
 40
0.0
 40
0.0
 40
0.0
 40
0.0
 40
1.0
 40
1.0
 40
1.0
 40
1.0
 10
-1.5409086681
 20
3.9215342841
 30
0.0
 10
-1.5706001997
 20
3.9538848624
 30
0.0
 10
-1.5874487638
 20
3.9991099566
 30
0.0
 10
-1.5927695751
 20
4.0558630169
 30
0.0
  0
SPLINE
  5
34E
100
AcDbEntity
  8
CURVE
100
AcDbSpline
 62
250
  6
CONTINUOUS
 70
0
 71
3
 72
8
 73
4
 74
0
 42
0.0000001
 43
0.0000001
 44
0.0000000001
 40
0.0
 40
0.0
 40
0.0
 40
0.0
 40
1.0
 40
1.0
 40
1.0
 40
1.0
 10
-0.4248975277
 20
4.5276229292
 30
0.0
 10
-0.4568211555
 20
4.5710744649
 30
0.0
 10
-0.491405344
 20
4.603884843
 30
0.0
 10
-0.5288409517
 20
4.6257223457
 30
0.0
  0
SPLINE
  5
34F
100
AcDbEntity
  8
CURVE
100
AcDbSpline
 62
250
  6
CONTINUOUS
 70
0
 71
3
 72
8
 73
4
 74
0
 42
0.0000001
 43
0.0000001
 44
0.0000000001
 40
0.0
 40
0.0
 40
0.0
 40
0.0
 40
1.0
 40
1.0
 40
1.0
 40
1.0
 10
-0.5288409517
 20
4.6257223457
 30
0.0
 10
-0.5658936024
 20
4.6473364562
 30
0.0
 10
-0.6057982922
 20
4.6588643641
 30
0.0
 10
-0.6492493629
 20
4.6588643641
 30
0.0
  0
SPLINE
  5
350
100
AcDbEntity
  8
CURVE
100
AcDbSpline
 62
250
  6
CONTINUOUS
 70
0
 71
3
 72
8
 73
4
 74
0
 42
0.0000001
 43
0.0000001
 44
0.0000000001
 40
0.0
 40
0.0
 40
0.0
 40
0.0
 40
1.0
 40
1.0
 40
1.0
 40
1.0
 10
-0.6492493629
 20
4.6588643641
 30
0.0
 10
-0.7405868053
 20
4.6588643641
 30
0.0
 10
-0.8177353144
 20
4.6171863288
 30
0.0
 10
-0.8802004533
 20
4.535228638
 30
0.0
  0
SPLINE
  5
351
100
AcDbEntity
  8
CURVE
100
AcDbSpline
 62
250
  6
CONTINUOUS
 70
0
 71
3
 72
8
 73
4
 74
0
 42
0.0000001
 43
0.0000001
 44
0.0000000001
 40
0.0
 40
0.0
 40
0.0
 40
0.0
 40
1.0
 40
1.0
 40
1.0
 40
1.0
 10
-0.8802004533
 20
4.535228638
 30
0.0
 10
-0.9427695751
 20
4.4531345159
 30
0.0
 10
-0.9738061428
 20
4.3316474885
 30
0.0
 10
-0.9738061428
 20
4.1711427152
 30
0.0
  0
SPLINE
  5
352
100
AcDbEntity
  8
CURVE
100
AcDbSpline
 62
250
  6
CONTINUOUS
 70
0
 71
3
 72
8
 73
4
 74
0
 42
0.0000001
 43
0.0000001
 44
0.0000000001
 40
0.0
 40
0.0
 40
0.0
 40
0.0
 40
1.0
 40
1.0
 40
1.0
 40
1.0
 10
-0.9738061428
 20
4.1711427152
 30
0.0
 10
-0.9738061428
 20
4.0106379226
 30
0.0
 10
-0.9418828249
 20
3.887377356
 30
0.0
 10
-0.8780355663
 20
3.8013609789
 30
0.0
  0
SPLINE
  5
353
100
AcDbEntity
  8
CURVE
100
AcDbSpline
 62
250
  6
CONTINUOUS
 70
0
 71
3
 72
8
 73
4
 74
0
 42
0.0000001
 43
0.0000001
 44
0.0000000001
 40
0.0
 40
0.0
 40
0.0
 40
0.0
 40
1.0
 40
1.0
 40
1.0
 40
1.0
 10
-0.8780355663
 20
3.8013609789
 30
0.0
 10
-0.8141883135
 20
3.7153446095
 30
0.0
 10
-0.7388133049
 20
3.6727798071
 30
0.0
 10
-0.6519099236
 20
3.6727798071
 30
0.0
  0
SPLINE
  5
354
100
AcDbEntity
  8
CURVE
100
AcDbSpline
 62
250
  6
CONTINUOUS
 70
0
 71
3
 72
8
 73
4
 74
0
 42
0.0000001
 43
0.0000001
 44
0.0000000001
 40
0.0
 40
0.0
 40
0.0
 40
0.0
 40
1.0
 40
1.0
 40
1.0
 40
1.0
 10
-0.6519099236
 20
3.6727798071
 30
0.0
 10
-0.6075717926
 20
3.6727798071
 30
0.0
 10
-0.5632330418
 20
3.686968074
 30
0.0
 10
-0.5208674113
 20
3.7130053887
 30
0.0
  0
SPLINE
  5
355
100
AcDbEntity
  8
CURVE
100
AcDbSpline
 62
250
  6
CONTINUOUS
 70
0
 71
3
 72
8
 73
4
 74
0
 42
0.0000001
 43
0.0000001
 44
0.0000000001
 40
0.0
 40
0.0
 40
0.0
 40
0.0
 40
1.0
 40
1.0
 40
1.0
 40
1.0
 10
-0.5208674113
 20
3.7130053887
 30
0.0
 10
-0.4781037807
 20
3.7392873086
 30
0.0
 10
-0.4417460918
 20
3.7800785743
 30
0.0
 10
-0.409822464
 20
3.8332845852
 30
0.0
  0
SPLINE
  5
356
100
AcDbEntity
  8
CURVE
100
AcDbSpline
 62
250
  6
CONTINUOUS
 70
0
 71
3
 72
8
 73
4
 74
0
 42
0.0000001
 43
0.0000001
 44
0.0000000001
 40
0.0
 40
0.0
 40
0.0
 40
0.0
 40
1.0
 40
1.0
 40
1.0
 40
1.0
 10
-0.7645293713
 20
4.1862177402
 30
0.0
 10
-0.7645293713
 20
4.2802150071
 30
0.0
 10
-0.7485672474
 20
4.3502695531
 30
0.0
 10
-0.7154622508
 20
4.3970581813
 30
0.0
  0
SPLINE
  5
357
100
AcDbEntity
  8
CURVE
100
AcDbSpline
 62
250
  6
CONTINUOUS
 70
0
 71
3
 72
8
 73
4
 74
0
 42
0.0000001
 43
0.0000001
 44
0.0000000001
 40
0.0
 40
0.0
 40
0.0
 40
0.0
 40
1.0
 40
1.0
 40
1.0
 40
1.0
 10
-0.7154622508
 20
4.3970581813
 30
0.0
 10
-0.682060051
 20
4.4442668587
 30
0.0
 10
-0.6421553612
 20
4.4682095796
 30
0.0
 10
-0.5951566696
 20
4.4682095796
 30
0.0
  0
SPLINE
  5
358
100
AcDbEntity
  8
CURVE
100
AcDbSpline
 62
250
  6
CONTINUOUS
 70
0
 71
3
 72
8
 73
4
 74
0
 42
0.0000001
 43
0.0000001
 44
0.0000000001
 40
0.0
 40
0.0
 40
0.0
 40
0.0
 40
1.0
 40
1.0
 40
1.0
 40
1.0
 10
-0.5951566696
 20
4.4682095796
 30
0.0
 10
-0.5454980373
 20
4.4682095796
 30
0.0
 10
-0.5047069073
 20
4.4442668587
 30
0.0
 10
-0.4727832615
 20
4.3963814289
 30
0.0
  0
SPLINE
  5
359
100
AcDbEntity
  8
CURVE
100
AcDbSpline
 62
250
  6
CONTINUOUS
 70
0
 71
3
 72
8
 73
4
 74
0
 42
0.0000001
 43
0.0000001
 44
0.0000000001
 40
0.0
 40
0.0
 40
0.0
 40
0.0
 40
1.0
 40
1.0
 40
1.0
 40
1.0
 10
-0.4727832615
 20
4.3963814289
 30
0.0
 10
-0.4408596516
 20
4.3484960526
 30
0.0
 10
-0.4240110874
 20
4.2704605609
 30
0.0
 10
-0.4240110874
 20
4.1613882691
 30
0.0
  0
SPLINE
  5
35A
100
AcDbEntity
  8
CURVE
100
AcDbSpline
 62
250
  6
CONTINUOUS
 70
0
 71
3
 72
8
 73
4
 74
0
 42
0.0000001
 43
0.0000001
 44
0.0000000001
 40
0.0
 40
0.0
 40
0.0
 40
0.0
 40
1.0
 40
1.0
 40
1.0
 40
1.0
 10
-0.4240110874
 20
4.1613882691
 30
0.0
 10
-0.4240110874
 20
4.0638439238
 30
0.0
 10
-0.4408596516
 20
3.9911290497
 30
0.0
 10
-0.4739718545
 20
3.9425642674
 30
0.0
  0
SPLINE
  5
35B
100
AcDbEntity
  8
CURVE
100
AcDbSpline
 62
250
  6
CONTINUOUS
 70
0
 71
3
 72
8
 73
4
 74
0
 42
0.0000001
 43
0.0000001
 44
0.0000000001
 40
0.0
 40
0.0
 40
0.0
 40
0.0
 40
1.0
 40
1.0
 40
1.0
 40
1.0
 10
-0.4739718545
 20
3.9425642674
 30
0.0
 10
-0.507366848
 20
3.8935847238
 30
0.0
 10
-0.5454980373
 20
3.8696420223
 30
0.0
 10
-0.5907232285
 20
3.8696420223
 30
0.0
  0
SPLINE
  5
35C
100
AcDbEntity
  8
CURVE
100
AcDbSpline
 62
250
  6
CONTINUOUS
 70
0
 71
3
 72
8
 73
4
 74
0
 42
0.0000001
 43
0.0000001
 44
0.0000000001
 40
0.0
 40
0.0
 40
0.0
 40
0.0
 40
1.0
 40
1.0
 40
1.0
 40
1.0
 10
-0.5907232285
 20
3.8696420223
 30
0.0
 10
-0.6244203568
 20
3.8696420223
 30
0.0
 10
-0.6545704842
 20
3.8793964491
 30
0.0
 10
-0.6811731165
 20
3.9006787041
 30
0.0
  0
SPLINE
  5
35D
100
AcDbEntity
  8
CURVE
100
AcDbSpline
 62
250
  6
CONTINUOUS
 70
0
 71
3
 72
8
 73
4
 74
0
 42
0.0000001
 43
0.0000001
 44
0.0000000001
 40
0.0
 40
0.0
 40
0.0
 40
0.0
 40
1.0
 40
1.0
 40
1.0
 40
1.0
 10
-0.6811731165
 20
3.9006787041
 30
0.0
 10
-0.7077761173
 20
3.9219612539
 30
0.0
 10
-0.7290587425
 20
3.9529980928
 30
0.0
 10
-0.7431128243
 20
3.9947210041
 30
0.0
  0
SPLINE
  5
35E
100
AcDbEntity
  8
CURVE
100
AcDbSpline
 62
250
  6
CONTINUOUS
 70
0
 71
3
 72
8
 73
4
 74
0
 42
0.0000001
 43
0.0000001
 44
0.0000000001
 40
0.0
 40
0.0
 40
0.0
 40
0.0
 40
1.0
 40
1.0
 40
1.0
 40
1.0
 10
-0.7431128243
 20
3.9947210041
 30
0.0
 10
-0.7574353695
 20
4.0372409135
 30
0.0
 10
-0.7645293713
 20
4.1002013803
 30
0.0
 10
-0.7645293713
 20
4.1862177402
 30
0.0
  0
SPLINE
  5
35F
100
AcDbEntity
  8
CURVE
100
AcDbSpline
 62
250
  6
CONTINUOUS
 70
0
 71
3
 72
8
 73
4
 74
0
 42
0.0000001
 43
0.0000001
 44
0.0000000001
 40
0.0
 40
0.0
 40
0.0
 40
0.0
 40
1.0
 40
1.0
 40
1.0
 40
1.0
 10
0.3457023621
 20
3.6949489743
 30
0.0
 10
0.5026605606
 20
3.6949489743
 30
0.0
 10
0.6028648853
 20
3.7002695743
 30
0.0
 10
0.6463285538
 20
3.7108615397
 30
0.0
  0
SPLINE
  5
360
100
AcDbEntity
  8
CURVE
100
AcDbSpline
 62
250
  6
CONTINUOUS
 70
0
 71
3
 72
8
 73
4
 74
0
 42
0.0000001
 43
0.0000001
 44
0.0000000001
 40
0.0
 40
0.0
 40
0.0
 40
0.0
 40
1.0
 40
1.0
 40
1.0
 40
1.0
 10
0.6463285538
 20
3.7108615397
 30
0.0
 10
0.7083903313
 20
3.7259858083
 30
0.0
 10
0.7615959644
 20
3.7658903092
 30
0.0
 10
0.8074089357
 20
3.8317183168
 30
0.0
  0
SPLINE
  5
361
100
AcDbEntity
  8
CURVE
100
AcDbSpline
 62
250
  6
CONTINUOUS
 70
0
 71
3
 72
8
 73
4
 74
0
 42
0.0000001
 43
0.0000001
 44
0.0000000001
 40
0.0
 40
0.0
 40
0.0
 40
0.0
 40
1.0
 40
1.0
 40
1.0
 40
1.0
 10
0.8074089357
 20
3.8317183168
 30
0.0
 10
0.8529334068
 20
3.8971317828
 30
0.0
 10
0.8759889126
 20
3.9769407943
 30
0.0
 10
0.8759889126
 20
4.0718248308
 30
0.0
  0
SPLINE
  5
362
100
AcDbEntity
  8
CURVE
100
AcDbSpline
 62
250
  6
CONTINUOUS
 70
0
 71
3
 72
8
 73
4
 74
0
 42
0.0000001
 43
0.0000001
 44
0.0000000001
 40
0.0
 40
0.0
 40
0.0
 40
0.0
 40
1.0
 40
1.0
 40
1.0
 40
1.0
 10
0.8759889126
 20
4.0718248308
 30
0.0
 10
0.8759889126
 20
4.1498602838
 30
0.0
 10
0.857366848
 20
4.2154810399
 30
0.0
 10
0.8216938175
 20
4.2703283788
 30
0.0
  0
SPLINE
  5
363
100
AcDbEntity
  8
CURVE
100
AcDbSpline
 62
250
  6
CONTINUOUS
 70
0
 71
3
 72
8
 73
4
 74
0
 42
0.0000001
 43
0.0000001
 44
0.0000000001
 40
0.0
 40
0.0
 40
0.0
 40
0.0
 40
1.0
 40
1.0
 40
1.0
 40
1.0
 10
0.8216938175
 20
4.2703283788
 30
0.0
 10
0.7864255905
 20
4.3245533318
 30
0.0
 10
0.7367669582
 20
4.3626842886
 30
0.0
 10
0.6738061428
 20
4.3857402593
 30
0.0
  0
SPLINE
  5
364
100
AcDbEntity
  8
CURVE
100
AcDbSpline
 62
250
  6
CONTINUOUS
 70
0
 71
3
 72
8
 73
4
 74
0
 42
0.0000001
 43
0.0000001
 44
0.0000000001
 40
0.0
 40
0.0
 40
0.0
 40
0.0
 40
1.0
 40
1.0
 40
1.0
 40
1.0
 10
0.6738061428
 20
4.3857402593
 30
0.0
 10
0.7181448936
 20
4.4096829802
 30
0.0
 10
0.7545019627
 20
4.4469271094
 30
0.0
 10
0.7823306827
 20
4.4972839677
 30
0.0
  0
SPLINE
  5
365
100
AcDbEntity
  8
CURVE
100
AcDbSpline
 62
250
  6
CONTINUOUS
 70
0
 71
3
 72
8
 73
4
 74
0
 42
0.0000001
 43
0.0000001
 44
0.0000000001
 40
0.0
 40
0.0
 40
0.0
 40
0.0
 40
1.0
 40
1.0
 40
1.0
 40
1.0
 10
0.7823306827
 20
4.4972839677
 30
0.0
 10
0.8103681564
 20
4.5480185718
 30
0.0
 10
0.8245567799
 20
4.6047715932
 30
0.0
 10
0.8245567799
 20
4.6677320212
 30
0.0
  0
SPLINE
  5
366
100
AcDbEntity
  8
CURVE
100
AcDbSpline
 62
250
  6
CONTINUOUS
 70
0
 71
3
 72
8
 73
4
 74
0
 42
0.0000001
 43
0.0000001
 44
0.0000000001
 40
0.0
 40
0.0
 40
0.0
 40
0.0
 40
1.0
 40
1.0
 40
1.0
 40
1.0
 10
0.8245567799
 20
4.6677320212
 30
0.0
 10
0.8245567799
 20
4.7351263553
 30
0.0
 10
0.8077082157
 20
4.7963132054
 30
0.0
 10
0.7750266841
 20
4.8504836836
 30
0.0
  0
SPLINE
  5
367
100
AcDbEntity
  8
CURVE
100
AcDbSpline
 62
250
  6
CONTINUOUS
 70
0
 71
3
 72
8
 73
4
 74
0
 42
0.0000001
 43
0.0000001
 44
0.0000000001
 40
0.0
 40
0.0
 40
0.0
 40
0.0
 40
1.0
 40
1.0
 40
1.0
 40
1.0
 10
0.7750266841
 20
4.8504836836
 30
0.0
 10
0.7429738998
 20
4.9036119968
 30
0.0
 10
0.7030698299
 20
4.9417429537
 30
0.0
 10
0.6552586723
 20
4.9631908496
 30
0.0
  0
SPLINE
  5
368
100
AcDbEntity
  8
CURVE
100
AcDbSpline
 62
250
  6
CONTINUOUS
 70
0
 71
3
 72
8
 73
4
 74
0
 42
0.0000001
 43
0.0000001
 44
0.0000000001
 40
0.0
 40
0.0
 40
0.0
 40
0.0
 40
1.0
 40
1.0
 40
1.0
 40
1.0
 10
0.6552586723
 20
4.9631908496
 30
0.0
 10
0.6081853867
 20
4.9843077392
 30
0.0
 10
0.5257160664
 20
4.9949489743
 30
0.0
 10
0.4095496178
 20
4.9949489743
 30
0.0
  0
SPLINE
  5
369
100
AcDbEntity
  8
CURVE
100
AcDbSpline
 62
250
  6
CONTINUOUS
 70
0
 71
3
 72
8
 73
4
 74
0
 42
0.0000001
 43
0.0000001
 44
0.0000000001
 40
0.0
 40
0.0
 40
0.0
 40
0.0
 40
1.0
 40
1.0
 40
1.0
 40
1.0
 10
0.3217597961
 20
4.778577891
 30
0.0
 10
0.435266304
 20
4.778577891
 30
0.0
 10
0.5035470009
 20
4.7750308126
 30
0.0
 10
0.5273850328
 20
4.76929206
 30
0.0
  0
SPLINE
  5
36A
100
AcDbEntity
  8
CURVE
100
AcDbSpline
 62
250
  6
CONTINUOUS
 70
0
 71
3
 72
8
 73
4
 74
0
 42
0.0000001
 43
0.0000001
 44
0.0000000001
 40
0.0
 40
0.0
 40
0.0
 40
0.0
 40
1.0
 40
1.0
 40
1.0
 40
1.0
 10
0.5273850328
 20
4.76929206
 30
0.0
 10
0.5514327526
 20
4.7635028273
 30
0.0
 10
0.5718283176
 20
4.7484278411
 30
0.0
 10
0.5886768818
 20
4.7244851202
 30
0.0
  0
SPLINE
  5
36B
100
AcDbEntity
  8
CURVE
100
AcDbSpline
 62
250
  6
CONTINUOUS
 70
0
 71
3
 72
8
 73
4
 74
0
 42
0.0000001
 43
0.0000001
 44
0.0000000001
 40
0.0
 40
0.0
 40
0.0
 40
0.0
 40
1.0
 40
1.0
 40
1.0
 40
1.0
 10
0.5886768818
 20
4.7244851202
 30
0.0
 10
0.6055254459
 20
4.7005423993
 30
0.0
 10
0.6143929482
 20
4.6695055992
 30
0.0
 10
0.6143929482
 20
4.6313746423
 30
0.0
  0
SPLINE
  5
36C
100
AcDbEntity
  8
CURVE
100
AcDbSpline
 62
250
  6
CONTINUOUS
 70
0
 71
3
 72
8
 73
4
 74
0
 42
0.0000001
 43
0.0000001
 44
0.0000000001
 40
0.0
 40
0.0
 40
0.0
 40
0.0
 40
1.0
 40
1.0
 40
1.0
 40
1.0
 10
0.6143929482
 20
4.6313746423
 30
0.0
 10
0.6143929482
 20
4.5879230291
 30
0.0
 10
0.6037519455
 20
4.5533391506
 30
0.0
 10
0.5830972893
 20
4.5287294357
 30
0.0
  0
SPLINE
  5
36D
100
AcDbEntity
  8
CURVE
100
AcDbSpline
 62
250
  6
CONTINUOUS
 70
0
 71
3
 72
8
 73
4
 74
0
 42
0.0000001
 43
0.0000001
 44
0.0000000001
 40
0.0
 40
0.0
 40
0.0
 40
0.0
 40
1.0
 40
1.0
 40
1.0
 40
1.0
 10
0.5830972893
 20
4.5287294357
 30
0.0
 10
0.5620737553
 20
4.5036802084
 30
0.0
 10
0.5336971283
 20
4.4877183944
 30
0.0
 10
0.4973974161
 20
4.4820465892
 30
0.0
  0
SPLINE
  5
36E
100
AcDbEntity
  8
CURVE
100
AcDbSpline
 62
250
  6
CONTINUOUS
 70
0
 71
3
 72
8
 73
4
 74
0
 42
0.0000001
 43
0.0000001
 44
0.0000000001
 40
0.0
 40
0.0
 40
0.0
 40
0.0
 40
1.0
 40
1.0
 40
1.0
 40
1.0
 10
0.4973974161
 20
4.4820465892
 30
0.0
 10
0.4769438744
 20
4.4788507372
 30
0.0
 10
0.4246246815
 20
4.477963987
 30
0.0
 10
0.3394954205
 20
4.477963987
 30
0.0
  0
SPLINE
  5
36F
100
AcDbEntity
  8
CURVE
100
AcDbSpline
 62
250
  6
CONTINUOUS
 70
0
 71
3
 72
8
 73
4
 74
0
 42
0.0000001
 43
0.0000001
 44
0.0000000001
 40
0.0
 40
0.0
 40
0.0
 40
0.0
 40
1.0
 40
1.0
 40
1.0
 40
1.0
 10
0.3714190483
 20
4.2615929038
 30
0.0
 10
0.4636423111
 20
4.2615929038
 30
0.0
 10
0.5248296261
 20
4.2562722862
 30
0.0
 10
0.5549797535
 20
4.2456310898
 30
0.0
  0
SPLINE
  5
370
100
AcDbEntity
  8
CURVE
100
AcDbSpline
 62
250
  6
CONTINUOUS
 70
0
 71
3
 72
8
 73
4
 74
0
 42
0.0000001
 43
0.0000001
 44
0.0000000001
 40
0.0
 40
0.0
 40
0.0
 40
0.0
 40
1.0
 40
1.0
 40
1.0
 40
1.0
 10
0.5549797535
 20
4.2456310898
 30
0.0
 10
0.5851298809
 20
4.2349898935
 30
0.0
 10
0.6090724468
 20
4.2163677901
 30
0.0
 10
0.6268076701
 20
4.1888781708
 30
0.0
  0
SPLINE
  5
371
100
AcDbEntity
  8
CURVE
100
AcDbSpline
 62
250
  6
CONTINUOUS
 70
0
 71
3
 72
8
 73
4
 74
0
 42
0.0000001
 43
0.0000001
 44
0.0000000001
 40
0.0
 40
0.0
 40
0.0
 40
0.0
 40
1.0
 40
1.0
 40
1.0
 40
1.0
 10
0.6268076701
 20
4.1888781708
 30
0.0
 10
0.6445430756
 20
4.1613882691
 30
0.0
 10
0.6542976379
 20
4.1268043518
 30
0.0
 10
0.6542976379
 20
4.0842395664
 30
0.0
  0
SPLINE
  5
372
100
AcDbEntity
  8
CURVE
100
AcDbSpline
 62
250
  6
CONTINUOUS
 70
0
 71
3
 72
8
 73
4
 74
0
 42
0.0000001
 43
0.0000001
 44
0.0000000001
 40
0.0
 40
0.0
 40
0.0
 40
0.0
 40
1.0
 40
1.0
 40
1.0
 40
1.0
 10
0.6542976379
 20
4.0842395664
 30
0.0
 10
0.6542976379
 20
4.0425615311
 30
0.0
 10
0.6454295158
 20
4.0088643834
 30
0.0
 10
0.6285809561
 20
3.9822613897
 30
0.0
  0
SPLINE
  5
373
100
AcDbEntity
  8
CURVE
100
AcDbSpline
 62
250
  6
CONTINUOUS
 70
0
 71
3
 72
8
 73
4
 74
0
 42
0.0000001
 43
0.0000001
 44
0.0000000001
 40
0.0
 40
0.0
 40
0.0
 40
0.0
 40
1.0
 40
1.0
 40
1.0
 40
1.0
 10
0.6285809561
 20
3.9822613897
 30
0.0
 10
0.6117323875
 20
3.9556583822
 30
0.0
 10
0.5904503822
 20
3.9370362789
 30
0.0
 10
0.5656207592
 20
3.9281686131
 30
0.0
  0
SPLINE
  5
374
100
AcDbEntity
  8
CURVE
100
AcDbSpline
 62
250
  6
CONTINUOUS
 70
0
 71
3
 72
8
 73
4
 74
0
 42
0.0000001
 43
0.0000001
 44
0.0000000001
 40
0.0
 40
0.0
 40
0.0
 40
0.0
 40
1.0
 40
1.0
 40
1.0
 40
1.0
 10
0.5656207592
 20
3.9281686131
 30
0.0
 10
0.5407911301
 20
3.9193009451
 30
0.0
 10
0.4849249363
 20
3.9148671165
 30
0.0
 10
0.3971351147
 20
3.9148671165
 30
0.0
  0
SPLINE
  5
375
100
AcDbEntity
  8
CURVE
100
AcDbSpline
 62
250
  6
CONTINUOUS
 70
0
 71
3
 72
8
 73
4
 74
0
 42
0.0000001
 43
0.0000001
 44
0.0000000001
 40
0.0
 40
0.0
 40
0.0
 40
0.0
 40
1.0
 40
1.0
 40
1.0
 40
1.0
 10
3.2968622684
 20
4.7457675129
 30
0.0
 10
3.2002049446
 20
4.5967906863
 30
0.0
 10
3.1239425659
 20
4.4309653729
 30
0.0
 10
3.0673145287
 20
4.2473662453
 30
0.0
  0
SPLINE
  5
376
100
AcDbEntity
  8
CURVE
100
AcDbSpline
 62
250
  6
CONTINUOUS
 70
0
 71
3
 72
8
 73
4
 74
0
 42
0.0000001
 43
0.0000001
 44
0.0000000001
 40
0.0
 40
0.0
 40
0.0
 40
0.0
 40
1.0
 40
1.0
 40
1.0
 40
1.0
 10
3.0673145287
 20
4.2473662453
 30
0.0
 10
3.0104366779
 20
4.0629571736
 30
0.0
 10
2.9793994904
 20
3.8793964491
 30
0.0
 10
2.9749660492
 20
3.6949489743
 30
0.0
  0
SPLINE
  5
377
100
AcDbEntity
  8
CURVE
100
AcDbSpline
 62
250
  6
CONTINUOUS
 70
0
 71
3
 72
8
 73
4
 74
0
 42
0.0000001
 43
0.0000001
 44
0.0000000001
 40
0.0
 40
0.0
 40
0.0
 40
0.0
 40
1.0
 40
1.0
 40
1.0
 40
1.0
 10
3.1718283176
 20
3.6949489743
 30
0.0
 10
3.1718283176
 20
3.8137757123
 30
0.0
 10
3.1877898216
 20
3.9459039554
 30
0.0
 10
3.2197134474
 20
4.0913336848
 30
0.0
  0
SPLINE
  5
378
100
AcDbEntity
  8
CURVE
100
AcDbSpline
 62
250
  6
CONTINUOUS
 70
0
 71
3
 72
8
 73
4
 74
0
 42
0.0000001
 43
0.0000001
 44
0.0000000001
 40
0.0
 40
0.0
 40
0.0
 40
0.0
 40
1.0
 40
1.0
 40
1.0
 40
1.0
 10
3.3562754484
 20
4.5010198869
 30
0.0
 10
3.4148022175
 20
4.6287143141
 30
0.0
 10
3.4733289719
 20
4.7271454484
 30
0.0
 10
3.5309686661
 20
4.7963132054
 30
0.0
  0
SPLINE
  5
379
100
AcDbEntity
  8
CURVE
100
AcDbSpline
 62
250
  6
CONTINUOUS
 70
0
 71
3
 72
8
 73
4
 74
0
 42
0.0000001
 43
0.0000001
 44
0.0000000001
 40
0.0
 40
0.0
 40
0.0
 40
0.0
 40
1.0
 40
1.0
 40
1.0
 40
1.0
 10
3.6639836788
 20
4.0292600066
 30
0.0
 10
3.6763981819
 20
3.9148671165
 30
0.0
 10
3.7145293713
 20
3.8270772174
 30
0.0
 10
3.7783766277
 20
3.7650035453
 30
0.0
  0
SPLINE
  5
37A
100
AcDbEntity
  8
CURVE
100
AcDbSpline
 62
250
  6
CONTINUOUS
 70
0
 71
3
 72
8
 73
4
 74
0
 42
0.0000001
 43
0.0000001
 44
0.0000000001
 40
0.0
 40
0.0
 40
0.0
 40
0.0
 40
1.0
 40
1.0
 40
1.0
 40
1.0
 10
3.7783766277
 20
3.7650035453
 30
0.0
 10
3.8422238827
 20
3.7029298746
 30
0.0
 10
3.9211462021
 20
3.6727798071
 30
0.0
 10
4.0160300255
 20
3.6727798071
 30
0.0
  0
SPLINE
  5
37B
100
AcDbEntity
  8
CURVE
100
AcDbSpline
 62
250
  6
CONTINUOUS
 70
0
 71
3
 72
8
 73
4
 74
0
 42
0.0000001
 43
0.0000001
 44
0.0000000001
 40
0.0
 40
0.0
 40
0.0
 40
0.0
 40
1.0
 40
1.0
 40
1.0
 40
1.0
 10
4.0160300255
 20
3.6727798071
 30
0.0
 10
4.1330829144
 20
3.6727798071
 30
0.0
 10
4.2226468563
 20
3.7206652101
 30
0.0
 10
4.2856070485
 20
3.8164360136
 30
0.0
  0
SPLINE
  5
37C
100
AcDbEntity
  8
CURVE
100
AcDbSpline
 62
250
  6
CONTINUOUS
 70
0
 71
3
 72
8
 73
4
 74
0
 42
0.0000001
 43
0.0000001
 44
0.0000000001
 40
0.0
 40
0.0
 40
0.0
 40
0.0
 40
1.0
 40
1.0
 40
1.0
 40
1.0
 10
4.2856070485
 20
3.8164360136
 30
0.0
 10
4.3485672474
 20
3.9122068271
 30
0.0
 10
4.3804908752
 20
4.0168452904
 30
0.0
 10
4.3804908752
 20
4.1312381804
 30
0.0
  0
SPLINE
  5
37D
100
AcDbEntity
  8
CURVE
100
AcDbSpline
 62
250
  6
CONTINUOUS
 70
0
 71
3
 72
8
 73
4
 74
0
 42
0.0000001
 43
0.0000001
 44
0.0000000001
 40
0.0
 40
0.0
 40
0.0
 40
0.0
 40
1.0
 40
1.0
 40
1.0
 40
1.0
 10
4.3804908752
 20
4.1312381804
 30
0.0
 10
4.3804908752
 20
4.2695738107
 30
0.0
 10
4.3432467461
 20
4.3804196805
 30
0.0
 10
4.2684072996
 20
4.4652377082
 30
0.0
  0
SPLINE
  5
37E
100
AcDbEntity
  8
CURVE
100
AcDbSpline
 62
250
  6
CONTINUOUS
 70
0
 71
3
 72
8
 73
4
 74
0
 42
0.0000001
 43
0.0000001
 44
0.0000000001
 40
0.0
 40
0.0
 40
0.0
 40
0.0
 40
1.0
 40
1.0
 40
1.0
 40
1.0
 10
4.2684072996
 20
4.4652377082
 30
0.0
 10
4.2102317333
 20
4.5311700076
 30
0.0
 10
4.1392904758
 20
4.5648671359
 30
0.0
 10
4.0550476551
 20
4.5648671359
 30
0.0
  0
SPLINE
  5
37F
100
AcDbEntity
  8
CURVE
100
AcDbSpline
 62
250
  6
CONTINUOUS
 70
0
 71
3
 72
8
 73
4
 74
0
 42
0.0000001
 43
0.0000001
 44
0.0000000001
 40
0.0
 40
0.0
 40
0.0
 40
0.0
 40
1.0
 40
1.0
 40
1.0
 40
1.0
 10
4.0550476551
 20
4.5648671359
 30
0.0
 10
4.0080489635
 20
4.5648671359
 30
0.0
 10
3.961050272
 20
4.5506788224
 30
0.0
 10
3.9149386406
 20
4.5223023504
 30
0.0
  0
SPLINE
  5
380
100
AcDbEntity
  8
CURVE
100
AcDbSpline
 62
250
  6
CONTINUOUS
 70
0
 71
3
 72
8
 73
4
 74
0
 42
0.0000001
 43
0.0000001
 44
0.0000000001
 40
0.0
 40
0.0
 40
0.0
 40
0.0
 40
1.0
 40
1.0
 40
1.0
 40
1.0
 10
3.8537519455
 20
4.2713473499
 30
0.0
 10
3.9007506371
 20
4.3343077779
 30
0.0
 10
3.9530698299
 20
4.366231367
 30
0.0
 10
4.0115959644
 20
4.366231367
 30
0.0
  0
SPLINE
  5
381
100
AcDbEntity
  8
CURVE
100
AcDbSpline
 62
250
  6
CONTINUOUS
 70
0
 71
3
 72
8
 73
4
 74
0
 42
0.0000001
 43
0.0000001
 44
0.0000000001
 40
0.0
 40
0.0
 40
0.0
 40
0.0
 40
1.0
 40
1.0
 40
1.0
 40
1.0
 10
4.0115959644
 20
4.366231367
 30
0.0
 10
4.0577082157
 20
4.366231367
 30
0.0
 10
4.0958387852
 20
4.3467224747
 30
0.0
 10
4.1259889032
 20
4.3077047604
 30
0.0
  0
SPLINE
  5
382
100
AcDbEntity
  8
CURVE
100
AcDbSpline
 62
250
  6
CONTINUOUS
 70
0
 71
3
 72
8
 73
4
 74
0
 42
0.0000001
 43
0.0000001
 44
0.0000000001
 40
0.0
 40
0.0
 40
0.0
 40
0.0
 40
1.0
 40
1.0
 40
1.0
 40
1.0
 10
4.1259889032
 20
4.3077047604
 30
0.0
 10
4.15613904
 20
4.2686870218
 30
0.0
 10
4.1712141037
 20
4.2083868832
 30
0.0
 10
4.1712141037
 20
4.1268043518
 30
0.0
  0
SPLINE
  5
383
100
AcDbEntity
  8
CURVE
100
AcDbSpline
 62
250
  6
CONTINUOUS
 70
0
 71
3
 72
8
 73
4
 74
0
 42
0.0000001
 43
0.0000001
 44
0.0000000001
 40
0.0
 40
0.0
 40
0.0
 40
0.0
 40
1.0
 40
1.0
 40
1.0
 40
1.0
 10
4.1712141037
 20
4.1268043518
 30
0.0
 10
4.1712141037
 20
4.0407879919
 30
0.0
 10
4.15613904
 20
3.9769407943
 30
0.0
 10
4.1259889126
 20
3.9352627591
 30
0.0
  0
SPLINE
  5
384
100
AcDbEntity
  8
CURVE
100
AcDbSpline
 62
250
  6
CONTINUOUS
 70
0
 71
3
 72
8
 73
4
 74
0
 42
0.0000001
 43
0.0000001
 44
0.0000000001
 40
0.0
 40
0.0
 40
0.0
 40
0.0
 40
1.0
 40
1.0
 40
1.0
 40
1.0
 10
4.1259889126
 20
3.9352627591
 30
0.0
 10
4.0958387852
 20
3.8935847238
 30
0.0
 10
4.0594817162
 20
3.8731890813
 30
0.0
 10
4.0178035259
 20
3.8731890813
 30
0.0
  0
SPLINE
  5
385
100
AcDbEntity
  8
CURVE
100
AcDbSpline
 62
250
  6
CONTINUOUS
 70
0
 71
3
 72
8
 73
4
 74
0
 42
0.0000001
 43
0.0000001
 44
0.0000000001
 40
0.0
 40
0.0
 40
0.0
 40
0.0
 40
1.0
 40
1.0
 40
1.0
 40
1.0
 10
4.0178035259
 20
3.8731890813
 30
0.0
 10
3.9823328972
 20
3.8731890813
 30
0.0
 10
3.9495222092
 20
3.8891508758
 30
0.0
 10
3.9198005461
 20
3.9215342841
 30
0.0
  0
SPLINE
  5
386
100
AcDbEntity
  8
CURVE
100
AcDbSpline
 62
250
  6
CONTINUOUS
 70
0
 71
3
 72
8
 73
4
 74
0
 42
0.0000001
 43
0.0000001
 44
0.0000000001
 40
0.0
 40
0.0
 40
0.0
 40
0.0
 40
1.0
 40
1.0
 40
1.0
 40
1.0
 10
3.9198005461
 20
3.9215342841
 30
0.0
 10
3.8901090145
 20
3.9538848624
 30
0.0
 10
3.8732604504
 20
3.9991099566
 30
0.0
 10
3.867939949
 20
4.0558630169
 30
0.0
  0
SPLINE
  5
387
100
AcDbEntity
  8
CURVE
100
AcDbSpline
 62
250
  6
CONTINUOUS
 70
0
 71
3
 72
8
 73
4
 74
0
 42
0.0000001
 43
0.0000001
 44
0.0000000001
 40
0.0
 40
0.0
 40
0.0
 40
0.0
 40
1.0
 40
1.0
 40
1.0
 40
1.0
 10
5.460573101
 20
3.9113200575
 30
0.0
 10
5.4055939674
 20
3.9361495286
 30
0.0
 10
5.363028717
 20
3.9645260588
 30
0.0
 10
5.3328786599
 20
3.9946761983
 30
0.0
  0
SPLINE
  5
388
100
AcDbEntity
  8
CURVE
100
AcDbSpline
 62
250
  6
CONTINUOUS
 70
0
 71
3
 72
8
 73
4
 74
0
 42
0.0000001
 43
0.0000001
 44
0.0000000001
 40
0.0
 40
0.0
 40
0.0
 40
0.0
 40
1.0
 40
1.0
 40
1.0
 40
1.0
 10
5.3328786599
 20
3.9946761983
 30
0.0
 10
5.2849934578
 20
4.0425615311
 30
0.0
 10
5.2477493286
 20
4.1010881305
 30
0.0
 10
5.2220326424
 20
4.1702559263
 30
0.0
  0
SPLINE
  5
389
100
AcDbEntity
  8
CURVE
100
AcDbSpline
 62
250
  6
CONTINUOUS
 70
0
 71
3
 72
8
 73
4
 74
0
 42
0.0000001
 43
0.0000001
 44
0.0000000001
 40
0.0
 40
0.0
 40
0.0
 40
0.0
 40
1.0
 40
1.0
 40
1.0
 40
1.0
 10
5.2220326424
 20
4.1702559263
 30
0.0
 10
5.1963159561
 20
4.2394237221
 30
0.0
 10
5.1839020729
 20
4.3139121354
 30
0.0
 10
5.1839020729
 20
4.3946079165
 30
0.0
  0
SPLINE
  5
38A
100
AcDbEntity
  8
CURVE
100
AcDbSpline
 62
250
  6
CONTINUOUS
 70
0
 71
3
 72
8
 73
4
 74
0
 42
0.0000001
 43
0.0000001
 44
0.0000000001
 40
0.0
 40
0.0
 40
0.0
 40
0.0
 40
1.0
 40
1.0
 40
1.0
 40
1.0
 10
5.1839020729
 20
4.3946079165
 30
0.0
 10
5.1839020729
 20
4.5338302583
 30
0.0
 10
5.2175992012
 20
4.6420157999
 30
0.0
 10
5.284993477
 20
4.7182777742
 30
0.0
  0
SPLINE
  5
38B
100
AcDbEntity
  8
CURVE
100
AcDbSpline
 62
250
  6
CONTINUOUS
 70
0
 71
3
 72
8
 73
4
 74
0
 42
0.0000001
 43
0.0000001
 44
0.0000000001
 40
0.0
 40
0.0
 40
0.0
 40
0.0
 40
1.0
 40
1.0
 40
1.0
 40
1.0
 10
5.284993477
 20
4.7182777742
 30
0.0
 10
5.3523877144
 20
4.7945397049
 30
0.0
 10
5.4366305351
 20
4.8335574121
 30
0.0
 10
5.53772192
 20
4.8335574121
 30
0.0
  0
SPLINE
  5
38C
100
AcDbEntity
  8
CURVE
100
AcDbSpline
 62
250
  6
CONTINUOUS
 70
0
 71
3
 72
8
 73
4
 74
0
 42
0.0000001
 43
0.0000001
 44
0.0000000001
 40
0.0
 40
0.0
 40
0.0
 40
0.0
 40
1.0
 40
1.0
 40
1.0
 40
1.0
 10
5.53772192
 20
4.8335574121
 30
0.0
 10
5.6423603058
 20
4.8335574121
 30
0.0
 10
5.7292636871
 20
4.7954264552
 30
0.0
 10
5.7966579437
 20
4.7209380418
 30
0.0
  0
SPLINE
  5
38D
100
AcDbEntity
  8
CURVE
100
AcDbSpline
 62
250
  6
CONTINUOUS
 70
0
 71
3
 72
8
 73
4
 74
0
 42
0.0000001
 43
0.0000001
 44
0.0000000001
 40
0.0
 40
0.0
 40
0.0
 40
0.0
 40
1.0
 40
1.0
 40
1.0
 40
1.0
 10
5.7966579437
 20
4.7209380418
 30
0.0
 10
5.8640522003
 20
4.6464496285
 30
0.0
 10
5.8986357689
 20
4.5356038362
 30
0.0
 10
5.8986357689
 20
4.3901740879
 30
0.0
  0
SPLINE
  5
38E
100
AcDbEntity
  8
CURVE
100
AcDbSpline
 62
250
  6
CONTINUOUS
 70
0
 71
3
 72
8
 73
4
 74
0
 42
0.0000001
 43
0.0000001
 44
0.0000000001
 40
0.0
 40
0.0
 40
0.0
 40
0.0
 40
1.0
 40
1.0
 40
1.0
 40
1.0
 10
5.8986357689
 20
4.3901740879
 30
0.0
 10
5.8986357689
 20
4.3147989244
 30
0.0
 10
5.887108326
 20
4.2438575506
 30
0.0
 10
5.8641873382
 20
4.1764175136
 30
0.0
  0
SPLINE
  5
38F
100
AcDbEntity
  8
CURVE
100
AcDbSpline
 62
250
  6
CONTINUOUS
 70
0
 71
3
 72
8
 73
4
 74
0
 42
0.0000001
 43
0.0000001
 44
0.0000000001
 40
0.0
 40
0.0
 40
0.0
 40
0.0
 40
1.0
 40
1.0
 40
1.0
 40
1.0
 10
5.8641873382
 20
4.1764175136
 30
0.0
 10
5.8409960747
 20
4.1081822485
 30
0.0
 10
5.8072989464
 20
4.0514291883
 30
0.0
 10
5.7622038127
 20
4.0042841516
 30
0.0
  0
DIMENSION
  5
390
100
AcDbEntity
  8
0
100
AcDbDimension
 62
7
  6
CONTINUOUS
  2
*D0
 10
26.65
 20
25.1449489743
 11
-4.0714285714
 21
25.1449489743
 70
160
 71
2
 72
2
 41
0.9
 42
53.3
  3
DIMSTYLE_1
100
AcDbAlignedDimension
 13
-26.65
 23
11.4449489743
 14
26.65
 24
11.4449489743
100
AcDbRotatedDimension
  0
DIMENSION
  5
391
100
AcDbEntity
  8
0
100
AcDbDimension
 62
7
  6
CONTINUOUS
  2
*D1
 10
34.65
 20
-17.1449489743
 11
34.65
 21
-4.1785714286
 70
160
 71
2
 72
2
 41
0.9
 42
34.2898979486
  3
DIMSTYLE_2
100
AcDbAlignedDimension
 13
9.1814515351
 23
17.1449489743
 14
4.6
 24
-17.1449489743
 50
270.0
100
AcDbRotatedDimension
  0
DIMENSION
  5
392
100
AcDbEntity
  8
0
100
AcDbDimension
 62
7
  6
CONTINUOUS
  2
*D2
 10
-53.9502847228
 20
25.1449489743
 11
-49.7467132942
 21
25.1449489743
 70
160
 71
2
 72
2
 41
0.9
 42
16.55
  3
DIMSTYLE_2
100
AcDbAlignedDimension
 13
-37.4002847228
 23
12.3147136894
 14
-53.9502847228
 24
4.2916747764
 50
180.0
100
AcDbRotatedDimension
  0
LINE
  5
393
100
AcDbEntity
  8
0
100
AcDbLine
 62
7
  6
CONTINUOUS
 10
-26.65
 20
11.4449489743
 11
-26.65
 21
0.5449489743
  0
LINE
  5
394
100
AcDbEntity
  8
0
100
AcDbLine
 62
250
  6
CONTINUOUS
 10
-26.15
 20
0.0449489743
 11
-26.15
 21
11.9449489743
  0
LWPOLYLINE
  5
395
100
AcDbEntity
  8
0
100
AcDbPolyline
 62
7
  6
CONTINUOUS
 90
5
 70
0
 43
0.3500000006
 10
-1.0714285848
 20
27.6092349701
 10
-0.7142856996
 20
27.823519455
 10
-0.7142856996
 20
28.4663774414
 10
-1.0714285848
 20
28.894950943
 10
-1.9285714102
 20
28.894950943
  0
LWPOLYLINE
  5
396
100
AcDbEntity
  8
0
100
AcDbPolyline
 62
7
  6
CONTINUOUS
 90
5
 70
0
 43
0.3500000006
 10
2.7857141647
 20
27.6092349701
 10
3.1428570499
 20
27.823519455
 10
3.1428570499
 20
28.4663774414
 10
2.7857141647
 20
28.894950943
 10
1.9285714102
 20
28.894950943
  0
LINE
  5
397
100
AcDbEntity
  8
0
100
AcDbLine
 62
7
  6
CONTINUOUS
 10
-14.7023573216
 20
14.0812024957
 11
-10.233504247
 21
16.8458319401
  0
LINE
  5
398
100
AcDbEntity
  8
0
100
AcDbLine
 62
250
  6
CONTINUOUS
 10
-14.584078684
 20
14.0152920456
 11
-10.1998755562
 21
16.7275533025
  0
LINE
  5
399
100
AcDbEntity
  8
0
100
AcDbLine
 62
7
  6
CONTINUOUS
 10
-14.5
 20
12.8949489743
 11
-9.5
 21
15.7449489743
  0
LINE
  5
39A
100
AcDbEntity
  8
0
100
AcDbLine
 62
7
  6
CONTINUOUS
 10
4.6
 20
-17.1449489743
 11
-4.6
 21
-17.1449489743
  0
LINE
  5
39B
100
AcDbEntity
  8
0
100
AcDbLine
 62
250
  6
CONTINUOUS
 10
5.0
 20
-16.6550510257
 11
-5.0
 21
-16.6550510257
  0
LINE
  5
39C
100
AcDbEntity
  8
0
100
AcDbLine
 62
7
  6
CONTINUOUS
 10
-15.65
 20
-0.1638212928
 11
-15.65
 21
0.0449489743
  0
LINE
  5
39D
100
AcDbEntity
  8
0
100
AcDbLine
 62
7
  6
CONTINUOUS
 10
-15.65
 20
11.9449489743
 11
-15.65
 21
12.3806241395
  0
LINE
  5
39E
100
AcDbEntity
  8
0
100
AcDbLine
 62
250
  6
CONTINUOUS
 10
-15.5317213624
 20
-0.0844897975
 11
-15.5317213624
 21
12.3147136894
  0
LINE
  5
39F
100
AcDbEntity
  8
CURVE
100
AcDbLine
 62
7
  6
CONTINUOUS
 10
-13.0224034357
 20
7.8428215107
 11
-12.4201838313
 21
8.4450411152
  0
LINE
  5
3A0
100
AcDbEntity
  8
0
100
AcDbLine
 62
7
  6
CONTINUOUS
 10
-14.5
 20
12.8949489743
 11
-14.5
 21
-0.9050510257
  0
LINE
  5
3A1
100
AcDbEntity
  8
CURVE
100
AcDbLine
 62
250
  6
CONTINUOUS
 10
-13.0
 20
4.6218247995
 11
-13.0
 21
4.2916746721
  0
LINE
  5
3A2
100
AcDbEntity
  8
0
100
AcDbLine
 62
250
  6
CONTINUOUS
 10
-14.290794942
 20
-1.9346387927
 11
-13.9536871679
 21
-1.1126499019
  0
LINE
  5
3A3
100
AcDbEntity
  8
CURVE
100
AcDbLine
 62
7
  6
CONTINUOUS
 10
-12.9965526514
 20
7.448650867
 11
-12.6839660845
 21
7.7612374339
  0
LINE
  5
3A4
100
AcDbEntity
  8
CURVE
100
AcDbLine
 62
7
  6
CONTINUOUS
 10
-12.3332263257
 20
8.1119771927
 11
-11.9511506245
 21
8.494052894
  0
LINE
  5
3A5
100
AcDbEntity
  8
CURVE
100
AcDbLine
 62
7
  6
CONTINUOUS
 10
-12.8373542213
 20
7.1878278691
 11
-12.5880653188
 21
7.4371167716
  0
LINE
  5
3A6
100
AcDbEntity
  8
CURVE
100
AcDbLine
 62
7
  6
CONTINUOUS
 10
-11.8757537003
 20
8.1494283901
 11
-11.5799362334
 21
8.4452458569
  0
LINE
  5
3A7
100
AcDbEntity
  8
CURVE
100
AcDbLine
 62
7
  6
CONTINUOUS
 10
-5.6498664071
 20
14.3753156832
 11
-5.5174531161
 21
14.5077289743
  0
LINE
  5
3A8
100
AcDbEntity
  8
CURVE
100
AcDbLine
 62
7
  6
CONTINUOUS
 10
-12.5884653057
 20
7.0166953567
 11
-12.3216255539
 21
7.2835351085
  0
LINE
  5
3A9
100
AcDbEntity
  8
CURVE
100
AcDbLine
 62
7
  6
CONTINUOUS
 10
-11.5398963197
 20
8.0652643427
 11
-11.289339534
 21
8.3158211284
  0
LINE
  5
3AA
100
AcDbEntity
  8
CURVE
100
AcDbLine
 62
7
  6
CONTINUOUS
 10
-5.5487631379
 20
14.0563975245
 11
-5.0974316881
 21
14.5077289743
  0
LINE
  5
3AB
100
AcDbEntity
  8
CURVE
100
AcDbLine
 62
7
  6
CONTINUOUS
 10
-13.0181175008
 20
6.1670217335
 11
-12.5711500002
 21
6.6139892342
  0
LINE
  5
3AC
100
AcDbEntity
  8
CURVE
100
AcDbLine
 62
7
  6
CONTINUOUS
 10
-12.2622149536
 20
6.9229242808
 11
-11.9388580501
 21
7.2462811842
  0
LINE
  5
3AD
100
AcDbEntity
  8
CURVE
100
AcDbLine
 62
7
  6
CONTINUOUS
 10
-11.3379721706
 20
7.8471670637
 11
-11.0766114081
 21
8.1085278262
  0
LINE
  5
3AE
100
AcDbEntity
  8
CURVE
100
AcDbLine
 62
7
  6
CONTINUOUS
 10
-5.4476598686
 20
13.7374793657
 11
-4.9391711652
 21
14.2459680691
  0
LINE
  5
3AF
100
AcDbEntity
  8
CURVE
100
AcDbLine
 62
7
  6
CONTINUOUS
 10
-13.0078303545
 20
5.7572874518
 11
-12.6758279663
 21
6.08928984
  0
LINE
  5
3B0
100
AcDbEntity
  8
CURVE
100
AcDbLine
 62
7
  6
CONTINUOUS
 10
-12.4739412621
 20
6.2911765442
 11
-12.1177320542
 21
6.6473857521
  0
LINE
  5
3B1
100
AcDbEntity
  8
CURVE
100
AcDbLine
 62
7
  6
CONTINUOUS
 10
-11.8551345009
 20
6.9099833054
 11
-10.9705355404
 21
7.7945822659
  0
LINE
  5
3B2
100
AcDbEntity
  8
CURVE
100
AcDbLine
 62
7
  6
CONTINUOUS
 10
-5.3465565993
 20
13.418561207
 11
-4.8480810004
 21
13.9170368059
  0
LINE
  5
3B3
100
AcDbEntity
  8
CURVE
100
AcDbLine
 62
7
  6
CONTINUOUS
 10
-12.8500607819
 20
5.4950355964
 11
-12.5958223462
 21
5.7492740321
  0
LINE
  5
3B4
100
AcDbEntity
  8
CURVE
100
AcDbLine
 62
7
  6
CONTINUOUS
 10
-12.0275008383
 20
6.31759554
 11
-11.6973507109
 21
6.6477456674
  0
LINE
  5
3B5
100
AcDbEntity
  8
CURVE
100
AcDbLine
 62
7
  6
CONTINUOUS
 10
-5.24545333
 20
13.0996430482
 11
-4.7569908356
 21
13.5881055427
  0
LINE
  5
3B6
100
AcDbEntity
  8
CURVE
100
AcDbLine
 62
7
  6
CONTINUOUS
 10
-3.8559167469
 20
14.4891796314
 11
-3.837367404
 21
14.5077289743
  0
LINE
  5
3B7
100
AcDbEntity
  8
CURVE
100
AcDbLine
 62
7
  6
CONTINUOUS
 10
-12.5567414197
 20
5.3683335306
 11
-12.2533527434
 21
5.6717222068
  0
LINE
  5
3B8
100
AcDbEntity
  8
CURVE
100
AcDbLine
 62
7
  6
CONTINUOUS
 10
-11.6074794102
 20
6.31759554
 11
-11.2773292828
 21
6.6477456674
  0
LINE
  5
3B9
100
AcDbEntity
  8
CURVE
100
AcDbLine
 62
7
  6
CONTINUOUS
 10
-5.1443500608
 20
12.7807248895
 11
-4.6659006708
 21
13.2591742795
  0
LINE
  5
3BA
100
AcDbEntity
  8
CURVE
100
AcDbLine
 62
7
  6
CONTINUOUS
 10
-4.0236562526
 20
13.9014186977
 11
-3.417345976
 21
14.5077289743
  0
LINE
  5
3BB
100
AcDbEntity
  8
CURVE
100
AcDbLine
 62
250
  6
CONTINUOUS
 10
-11.3383356333
 20
5.1088643655
 11
-11.3383356333
 21
4.6218247995
  0
LINE
  5
3BC
100
AcDbEntity
  8
CURVE
100
AcDbLine
 62
250
  6
CONTINUOUS
 10
-11.3383356333
 20
4.2916746721
 11
-11.3383356333
 21
3.8059993372
  0
LINE
  5
3BD
100
AcDbEntity
  8
CURVE
100
AcDbLine
 62
250
  6
CONTINUOUS
 10
-11.0
 20
3.8059993372
 11
-11.0
 21
5.1088643655
  0
LINE
  5
3BE
100
AcDbEntity
  8
CURVE
100
AcDbLine
 62
250
  6
CONTINUOUS
 10
-11.0
 20
5.3394237146
 11
-11.0
 21
5.669573842
  0
LINE
  5
3BF
100
AcDbEntity
  8
CURVE
100
AcDbLine
 62
250
  6
CONTINUOUS
 10
-11.0
 20
6.31759554
 11
-11.0
 21
6.6477456674
  0
LINE
  5
3C0
100
AcDbEntity
  8
CURVE
100
AcDbLine
 62
7
  6
CONTINUOUS
 10
-13.0
 20
4.5050535222
 11
-12.8832287227
 21
4.6218247995
  0
LINE
  5
3C1
100
AcDbEntity
  8
CURVE
100
AcDbLine
 62
7
  6
CONTINUOUS
 10
-12.1645333811
 20
5.3405201412
 11
-11.8354796802
 21
5.669573842
  0
LINE
  5
3C2
100
AcDbEntity
  8
CURVE
100
AcDbLine
 62
7
  6
CONTINUOUS
 10
-11.1874579822
 20
6.31759554
 11
-11.0
 21
6.5050535222
  0
LINE
  5
3C3
100
AcDbEntity
  8
CURVE
100
AcDbLine
 62
7
  6
CONTINUOUS
 10
-5.0432467915
 20
12.4618067307
 11
-4.574810506
 21
12.9302430162
  0
LINE
  5
3C4
100
AcDbEntity
  8
CURVE
100
AcDbLine
 62
7
  6
CONTINUOUS
 10
-4.1913957583
 20
13.3136577639
 11
-3.3327163431
 21
14.1723371792
  0
LINE
  5
3C5
100
AcDbEntity
  8
CURVE
100
AcDbLine
 62
7
  6
CONTINUOUS
 10
-12.7933574221
 20
4.2916746721
 11
-12.4632072947
 21
4.6218247995
  0
LINE
  5
3C6
100
AcDbEntity
  8
CURVE
100
AcDbLine
 62
7
  6
CONTINUOUS
 10
-11.7456083796
 20
5.3394237146
 11
-11.4154582522
 21
5.669573842
  0
LINE
  5
3C7
100
AcDbEntity
  8
CURVE
100
AcDbLine
 62
7
  6
CONTINUOUS
 10
-4.9421435222
 20
12.142888572
 11
-4.4837203412
 21
12.601311753
  0
LINE
  5
3C8
100
AcDbEntity
  8
CURVE
100
AcDbLine
 62
7
  6
CONTINUOUS
 10
-4.359135264
 20
12.7258968302
 11
-3.5316842988
 21
13.5533477954
  0
LINE
  5
3C9
100
AcDbEntity
  8
CURVE
100
AcDbLine
 62
7
  6
CONTINUOUS
 10
-2.992545
 20
14.0924870942
 11
-2.5771231199
 21
14.5079089743
  0
LINE
  5
3CA
100
AcDbEntity
  8
CURVE
100
AcDbLine
 62
7
  6
CONTINUOUS
 10
-12.3733359941
 20
4.2916746721
 11
-12.0431858667
 21
4.6218247995
  0
LINE
  5
3CB
100
AcDbEntity
  8
CURVE
100
AcDbLine
 62
7
  6
CONTINUOUS
 10
-11.3255869516
 20
5.3394237146
 11
-11.0
 21
5.6650106662
  0
LINE
  5
3CC
100
AcDbEntity
  8
CURVE
100
AcDbLine
 62
7
  6
CONTINUOUS
 10
-4.8410402529
 20
11.8239704133
 11
-3.7306522546
 21
12.9343584116
  0
LINE
  5
3CD
100
AcDbEntity
  8
CURVE
100
AcDbLine
 62
7
  6
CONTINUOUS
 10
-2.992545
 20
13.6724656662
 11
-2.366403
 21
14.2986076662
  0
LINE
  5
3CE
100
AcDbEntity
  8
CURVE
100
AcDbLine
 62
7
  6
CONTINUOUS
 10
-11.9533145661
 20
4.2916746721
 11
-11.6231644387
 21
4.6218247995
  0
LINE
  5
3CF
100
AcDbEntity
  8
CURVE
100
AcDbLine
 62
7
  6
CONTINUOUS
 10
-11.3383356333
 20
4.9066536049
 11
-11.1361248726
 21
5.1088643655
  0
LINE
  5
3D0
100
AcDbEntity
  8
CURVE
100
AcDbLine
 62
7
  6
CONTINUOUS
 10
-4.7368992639
 20
11.5080899743
 11
-3.9296202103
 21
12.3153690279
  0
LINE
  5
3D1
100
AcDbEntity
  8
CURVE
100
AcDbLine
 62
7
  6
CONTINUOUS
 10
-2.992545
 20
13.2524442382
 11
-2.366403
 21
13.8785862382
  0
LINE
  5
3D2
100
AcDbEntity
  8
CURVE
100
AcDbLine
 62
7
  6
CONTINUOUS
 10
-1.7605872871
 20
14.4844019511
 11
-1.7372602639
 21
14.5077289743
  0
LINE
  5
3D3
100
AcDbEntity
  8
CURVE
100
AcDbLine
 62
7
  6
CONTINUOUS
 10
-11.533293138
 20
4.2916746721
 11
-11.0
 21
4.8249678101
  0
LINE
  5
3D4
100
AcDbEntity
  8
CURVE
100
AcDbLine
 62
7
  6
CONTINUOUS
 10
-4.3168778359
 20
11.5080899743
 11
-4.128588166
 21
11.6963796441
  0
LINE
  5
3D5
100
AcDbEntity
  8
CURVE
100
AcDbLine
 62
7
  6
CONTINUOUS
 10
-2.992545
 20
12.8324228101
 11
-2.366403
 21
13.4585648101
  0
LINE
  5
3D6
100
AcDbEntity
  8
CURVE
100
AcDbLine
 62
7
  6
CONTINUOUS
 10
-1.8022769678
 20
14.0226908424
 11
-1.3172388359
 21
14.5077289743
  0
LINE
  5
3D7
100
AcDbEntity
  8
CURVE
100
AcDbLine
 62
7
  6
CONTINUOUS
 10
-11.3383356333
 20
4.0666107488
 11
-11.0
 21
4.4049463821
  0
LINE
  5
3D8
100
AcDbEntity
  8
CURVE
100
AcDbLine
 62
7
  6
CONTINUOUS
 10
-2.992545
 20
12.4124013821
 11
-2.366403
 21
13.0385433821
  0
LINE
  5
3D9
100
AcDbEntity
  8
CURVE
100
AcDbLine
 62
7
  6
CONTINUOUS
 10
-1.8439666485
 20
13.5609797336
 11
-1.0689658895
 21
14.3359804926
  0
LINE
  5
3DA
100
AcDbEntity
  8
CURVE
100
AcDbLine
 62
7
  6
CONTINUOUS
 10
-11.1789256169
 20
3.8059993372
 11
-11.0
 21
3.9849249541
  0
LINE
  5
3DB
100
AcDbEntity
  8
CURVE
100
AcDbLine
 62
7
  6
CONTINUOUS
 10
-2.992545
 20
11.9923799541
 11
-2.366403
 21
12.6185219541
  0
LINE
  5
3DC
100
AcDbEntity
  8
CURVE
100
AcDbLine
 62
7
  6
CONTINUOUS
 10
-1.8856563292
 20
13.0992686249
 11
-0.9550829503
 21
14.0298420038
  0
LINE
  5
3DD
100
AcDbEntity
  8
CURVE
100
AcDbLine
 62
7
  6
CONTINUOUS
 10
-2.992545
 20
11.5723585261
 11
-2.366403
 21
12.1985005261
  0
LINE
  5
3DE
100
AcDbEntity
  8
CURVE
100
AcDbLine
 62
7
  6
CONTINUOUS
 10
-1.9273460098
 20
12.6375575162
 11
-1.3097985275
 21
13.2551049986
  0
LINE
  5
3DF
100
AcDbEntity
  8
CURVE
100
AcDbLine
 62
7
  6
CONTINUOUS
 10
-1.2414422279
 20
13.3234612981
 11
-0.8412000111
 21
13.7237035149
  0
LINE
  5
3E0
100
AcDbEntity
  8
0
100
AcDbLine
 62
250
  6
CONTINUOUS
 10
-9.1478228444
 20
17.0266703367
 11
-9.1478228444
 21
15.7449489743
  0
LINE
  5
3E1
100
AcDbEntity
  8
CURVE
100
AcDbLine
 62
7
  6
CONTINUOUS
 10
-2.6367921238
 20
11.5080899743
 11
-2.366403
 21
11.778479098
  0
LINE
  5
3E2
100
AcDbEntity
  8
CURVE
100
AcDbLine
 62
7
  6
CONTINUOUS
 10
-1.9690356905
 20
12.1758464075
 11
-1.3409205669
 21
12.8039615312
  0
LINE
  5
3E3
100
AcDbEntity
  8
CURVE
100
AcDbLine
 62
7
  6
CONTINUOUS
 10
-1.1268879946
 20
13.0179941034
 11
-0.7273170719
 21
13.4175650261
  0
LINE
  5
3E4
100
AcDbEntity
  8
CURVE
100
AcDbLine
 62
7
  6
CONTINUOUS
 10
-0.0378240507
 20
14.1070580473
 11
0.3628468762
 21
14.5077289743
  0
LINE
  5
3E5
100
AcDbEntity
  8
CURVE
100
AcDbLine
 62
7
  6
CONTINUOUS
 10
-3.7496153782
 20
9.9752452919
 11
-3.2258516964
 21
10.4990089736
  0
LINE
  5
3E6
100
AcDbEntity
  8
CURVE
100
AcDbLine
 62
7
  6
CONTINUOUS
 10
-2.0107253712
 20
11.7141352988
 11
-1.3720426063
 21
12.3528180637
  0
LINE
  5
3E7
100
AcDbEntity
  8
CURVE
100
AcDbLine
 62
7
  6
CONTINUOUS
 10
-1.0123337613
 20
12.7125269087
 11
-0.6134341328
 21
13.1114265373
  0
LINE
  5
3E8
100
AcDbEntity
  8
CURVE
100
AcDbLine
 62
7
  6
CONTINUOUS
 10
-0.2908809938
 20
13.4339796762
 11
0.7366444505
 21
14.4615051205
  0
LINE
  5
3E9
100
AcDbEntity
  8
CURVE
100
AcDbLine
 62
7
  6
CONTINUOUS
 10
-3.7996457213
 20
9.5051935207
 11
-3.3707909311
 21
9.9340483108
  0
LINE
  5
3EA
100
AcDbEntity
  8
CURVE
100
AcDbLine
 62
7
  6
CONTINUOUS
 10
-3.1216795079
 20
10.1831597341
 11
-2.8664428119
 21
10.4383964301
  0
LINE
  5
3EB
100
AcDbEntity
  8
CURVE
100
AcDbLine
 62
7
  6
CONTINUOUS
 10
-1.7967492677
 20
11.5080899743
 11
-1.4031646457
 21
11.9016745963
  0
LINE
  5
3EC
100
AcDbEntity
  8
CURVE
100
AcDbLine
 62
7
  6
CONTINUOUS
 10
-0.897779528
 20
12.407059714
 11
0.7725624437
 21
14.0774016857
  0
LINE
  5
3ED
100
AcDbEntity
  8
CURVE
100
AcDbLine
 62
7
  6
CONTINUOUS
 10
-3.7755846237
 20
9.1092331902
 11
-3.3988835218
 21
9.4859342922
  0
LINE
  5
3EE
100
AcDbEntity
  8
CURVE
100
AcDbLine
 62
7
  6
CONTINUOUS
 10
-2.9350033802
 20
9.9498144338
 11
-2.6529359059
 21
10.2318819081
  0
LINE
  5
3EF
100
AcDbEntity
  8
CURVE
100
AcDbLine
 62
7
  6
CONTINUOUS
 10
-0.7832252947
 20
12.1015925193
 11
0.0851219091
 21
12.9699397231
  0
LINE
  5
3F0
100
AcDbEntity
  8
CURVE
100
AcDbLine
 62
7
  6
CONTINUOUS
 10
0.2903416998
 20
13.1751595138
 11
0.808480437
 21
13.693298251
  0
LINE
  5
3F1
100
AcDbEntity
  8
CURVE
100
AcDbLine
 62
7
  6
CONTINUOUS
 10
-3.6828467079
 20
8.781949678
 11
-3.3805368223
 21
9.0842595637
  0
LINE
  5
3F2
100
AcDbEntity
  8
CURVE
100
AcDbLine
 62
7
  6
CONTINUOUS
 10
-2.9029008657
 20
9.5618955202
 11
-2.5407479183
 21
9.9240484677
  0
LINE
  5
3F3
100
AcDbEntity
  8
CURVE
100
AcDbLine
 62
7
  6
CONTINUOUS
 10
-0.6686710614
 20
11.7961253246
 11
-0.1741513211
 21
12.2906450648
  0
LINE
  5
3F4
100
AcDbEntity
  8
CURVE
100
AcDbLine
 62
7
  6
CONTINUOUS
 10
0.3163291981
 20
12.781125584
 11
0.8443984303
 21
13.3091948162
  0
LINE
  5
3F5
100
AcDbEntity
  8
CURVE
100
AcDbLine
 62
7
  6
CONTINUOUS
 10
-3.4866957529
 20
8.558079205
 11
-3.2437649471
 21
8.8010100108
  0
LINE
  5
3F6
100
AcDbEntity
  8
CURVE
100
AcDbLine
 62
7
  6
CONTINUOUS
 10
-2.917412429
 20
9.1273625289
 11
-2.5023179318
 21
9.5424570261
  0
LINE
  5
3F7
100
AcDbEntity
  8
CURVE
100
AcDbLine
 62
7
  6
CONTINUOUS
 10
-2.1424283639
 20
9.9023465941
 11
-1.9640180828
 21
10.0807568751
  0
LINE
  5
3F8
100
AcDbEntity
  8
CURVE
100
AcDbLine
 62
7
  6
CONTINUOUS
 10
-1.5987204786
 20
10.4460544793
 11
-1.5416403586
 21
10.5031345994
  0
LINE
  5
3F9
100
AcDbEntity
  8
CURVE
100
AcDbLine
 62
7
  6
CONTINUOUS
 10
-0.5366849836
 20
11.5080899743
 11
-0.4334245514
 21
11.6113504066
  0
LINE
  5
3FA
100
AcDbEntity
  8
CURVE
100
AcDbLine
 62
7
  6
CONTINUOUS
 10
0.3423166963
 20
12.3870916543
 11
0.8803164236
 21
12.9250913815
  0
LINE
  5
3FB
100
AcDbEntity
  8
CURVE
100
AcDbLine
 62
7
  6
CONTINUOUS
 10
1.8642197766
 20
13.9089947345
 11
2.4629540164
 21
14.5077289743
  0
LINE
  5
3FC
100
AcDbEntity
  8
CURVE
100
AcDbLine
 62
7
  6
CONTINUOUS
 10
-4.4817508988
 20
7.1430026311
 11
-4.1246885101
 21
7.5000650198
  0
LINE
  5
3FD
100
AcDbEntity
  8
CURVE
100
AcDbLine
 62
7
  6
CONTINUOUS
 10
-3.1635223975
 20
8.4612311324
 11
-2.5301514193
 21
9.0946021105
  0
LINE
  5
3FE
100
AcDbEntity
  8
CURVE
100
AcDbLine
 62
7
  6
CONTINUOUS
 10
-1.8221149849
 20
9.802638545
 11
-1.2638471976
 21
10.3609063323
  0
LINE
  5
3FF
100
AcDbEntity
  8
CURVE
100
AcDbLine
 62
7
  6
CONTINUOUS
 10
0.3683041946
 20
11.9930577245
 11
0.9162344169
 21
12.5409879468
  0
LINE
  5
400
100
AcDbEntity
  8
CURVE
100
AcDbLine
 62
7
  6
CONTINUOUS
 10
1.6722650421
 20
13.2970185719
 11
2.7106214449
 21
14.3353749748
  0
LINE
  5
401
100
AcDbEntity
  8
0
100
AcDbLine
 62
250
  6
CONTINUOUS
 10
-15.65
 20
-0.1638212928
 11
-15.5317213624
 21
-0.0844897975
  0
LINE
  5
402
100
AcDbEntity
  8
CURVE
100
AcDbLine
 62
250
  6
CONTINUOUS
 10
-7.76459
 20
2.5321549743
 11
-7.76459
 21
1.7616289743
  0
LINE
  5
403
100
AcDbEntity
  8
CURVE
100
AcDbLine
 62
250
  6
CONTINUOUS
 10
-7.76459
 20
-1.7717550257
 11
-7.76459
 21
-2.5422810257
  0
LINE
  5
404
100
AcDbEntity
  8
0
100
AcDbLine
 62
250
  6
CONTINUOUS
 10
-6.3325667714
 20
-5.0367723881
 11
-6.3325667787
 21
-3.7550510257
  0
LINE
  5
405
100
AcDbEntity
  8
CURVE
100
AcDbLine
 62
250
  6
CONTINUOUS
 10
-4.439875
 20
12.4429839743
 11
-3.850623
 21
14.5077289743
  0
LINE
  5
406
100
AcDbEntity
  8
CURVE
100
AcDbLine
 62
250
  6
CONTINUOUS
 10
-5.7712141812
 20
3.6949489743
 11
-5.6834242821
 21
3.9893555299
  0
LINE
  5
407
100
AcDbEntity
  8
CURVE
100
AcDbLine
 62
250
  6
CONTINUOUS
 10
-5.6178035647
 20
4.2092736721
 11
-5.4732605666
 21
4.6916747421
  0
LINE
  5
408
100
AcDbEntity
  8
CURVE
100
AcDbLine
 62
250
  6
CONTINUOUS
 10
-5.5849931866
 20
4.9949489743
 11
-6.0
 21
3.6949489743
  0
LINE
  5
409
100
AcDbEntity
  8
CURVE
100
AcDbLine
 62
250
  6
CONTINUOUS
 10
-3.224908
 20
14.5077289743
 11
-4.189112
 21
11.5080899743
  0
LWPOLYLINE
  5
40A
100
AcDbEntity
  8
0
100
AcDbPolyline
 62
7
  6
CONTINUOUS
 90
3
 70
0
 43
0.3500000006
 10
0.9285714591
 20
26.1806611633
 10
0.8571428254
 20
25.9663766785
 10
0.7142856996
 20
25.6806610107
  0
LINE
  5
40B
100
AcDbEntity
  8
CURVE
100
AcDbLine
 62
250
  6
CONTINUOUS
 10
-4.5937928706
 20
6.5495192468
 11
-4.3113917559
 21
7.0611154348
  0
LINE
  5
40C
100
AcDbEntity
  8
CURVE
100
AcDbLine
 62
250
  6
CONTINUOUS
 10
-4.2817191929
 20
7.5000650198
 11
-4.8148024147
 21
6.5484960288
  0
LINE
  5
40D
100
AcDbEntity
  8
CURVE
100
AcDbLine
 62
7
  6
CONTINUOUS
 10
-10.4554647688
 20
0.749267333
 11
-8.7739203588
 21
2.4308117431
  0
LINE
  5
40E
100
AcDbEntity
  8
CURVE
100
AcDbLine
 62
7
  6
CONTINUOUS
 10
-4.8148024147
 20
6.3899296871
 11
-4.5181146643
 21
6.6866174376
  0
LINE
  5
40F
100
AcDbEntity
  8
CURVE
100
AcDbLine
 62
7
  6
CONTINUOUS
 10
-4.3113917559
 20
6.8933403459
 11
-4.083219856
 21
7.1215122458
  0
LINE
  5
410
100
AcDbEntity
  8
CURVE
100
AcDbLine
 62
7
  6
CONTINUOUS
 10
-1.647203292
 20
9.5575288099
 11
-1.2638471976
 21
9.9408849043
  0
LINE
  5
411
100
AcDbEntity
  8
CURVE
100
AcDbLine
 62
7
  6
CONTINUOUS
 10
0.3942916929
 20
11.5990237947
 11
0.9521524101
 21
12.156884512
  0
LINE
  5
412
100
AcDbEntity
  8
CURVE
100
AcDbLine
 62
7
  6
CONTINUOUS
 10
1.4803103076
 20
12.6850424094
 11
2.2903445103
 21
13.4950766122
  0
LINE
  5
413
100
AcDbEntity
  8
CURVE
100
AcDbLine
 62
7
  6
CONTINUOUS
 10
2.3709768316
 20
13.5757089334
 11
2.809236747
 21
14.0139688489
  0
LINE
  5
414
100
AcDbEntity
  8
CURVE
100
AcDbLine
 62
7
  6
CONTINUOUS
 10
-10.5591387166
 20
0.2255719572
 11
-8.2502249829
 21
2.5344856909
  0
LINE
  5
415
100
AcDbEntity
  8
CURVE
100
AcDbLine
 62
7
  6
CONTINUOUS
 10
-4.4879199563
 20
6.2967907176
 11
-4.083219856
 21
6.7014908178
  0
LINE
  5
416
100
AcDbEntity
  8
CURVE
100
AcDbLine
 62
7
  6
CONTINUOUS
 10
-3.8070766361
 20
6.9776340378
 11
-3.3048389282
 21
7.4798717457
  0
LINE
  5
417
100
AcDbEntity
  8
CURVE
100
AcDbLine
 62
7
  6
CONTINUOUS
 10
-1.647203292
 20
9.1375073819
 11
-1.2638471976
 21
9.5208634762
  0
LINE
  5
418
100
AcDbEntity
  8
CURVE
100
AcDbLine
 62
7
  6
CONTINUOUS
 10
0.7233793004
 20
11.5080899743
 11
0.9880704034
 21
11.7727810773
  0
LINE
  5
419
100
AcDbEntity
  8
CURVE
100
AcDbLine
 62
7
  6
CONTINUOUS
 10
1.2883555731
 20
12.0730662469
 11
2.1269519785
 21
12.9116626523
  0
LINE
  5
41A
100
AcDbEntity
  8
CURVE
100
AcDbLine
 62
7
  6
CONTINUOUS
 10
2.4572403014
 20
13.2419509753
 11
2.9078520491
 21
13.692562723
  0
LINE
  5
41B
100
AcDbEntity
  8
CURVE
100
AcDbLine
 62
7
  6
CONTINUOUS
 10
-10.5623093972
 20
-0.1976201514
 11
-9.655428269
 21
0.7092609768
  0
LINE
  5
41C
100
AcDbEntity
  8
CURVE
100
AcDbLine
 62
7
  6
CONTINUOUS
 10
-8.7339140026
 20
1.6307752432
 11
-7.8270328743
 21
2.5376563715
  0
LINE
  5
41D
100
AcDbEntity
  8
CURVE
100
AcDbLine
 62
7
  6
CONTINUOUS
 10
-5.6859334285
 20
4.6787558173
 11
-5.3697402715
 21
4.9949489743
  0
LINE
  5
41E
100
AcDbEntity
  8
CURVE
100
AcDbLine
 62
7
  6
CONTINUOUS
 10
-4.3113917559
 20
6.0532974899
 11
-4.083219856
 21
6.2814693898
  0
LINE
  5
41F
100
AcDbEntity
  8
CURVE
100
AcDbLine
 62
7
  6
CONTINUOUS
 10
-4.0678985282
 20
6.2967907176
 11
-3.9307642579
 21
6.4339249879
  0
LINE
  5
420
100
AcDbEntity
  8
CURVE
100
AcDbLine
 62
7
  6
CONTINUOUS
 10
-3.8120833497
 20
6.5526058961
 11
-3.5712629556
 21
6.7934262902
  0
LINE
  5
421
100
AcDbEntity
  8
CURVE
100
AcDbLine
 62
7
  6
CONTINUOUS
 10
-3.2845169434
 20
7.0801723025
 11
-3.0972781003
 21
7.2674111455
  0
LINE
  5
422
100
AcDbEntity
  8
CURVE
100
AcDbLine
 62
7
  6
CONTINUOUS
 10
-1.647203292
 20
8.7174859539
 11
-1.2638471976
 21
9.1008420482
  0
LINE
  5
423
100
AcDbEntity
  8
CURVE
100
AcDbLine
 62
7
  6
CONTINUOUS
 10
-0.6819853793
 20
9.6827038665
 11
0.1325390485
 21
10.4972282943
  0
LINE
  5
424
100
AcDbEntity
  8
CURVE
100
AcDbLine
 62
7
  6
CONTINUOUS
 10
1.1434007285
 20
11.5080899743
 11
2.2056107285
 21
12.5702999743
  0
LINE
  5
425
100
AcDbEntity
  8
CURVE
100
AcDbLine
 62
7
  6
CONTINUOUS
 10
2.5435037713
 20
12.9081930171
 11
3.0064673512
 21
13.3711565971
  0
LINE
  5
426
100
AcDbEntity
  8
CURVE
100
AcDbLine
 62
7
  6
CONTINUOUS
 10
3.7619682236
 20
14.1266574694
 11
4.1564245426
 21
14.5211137884
  0
LINE
  5
427
100
AcDbEntity
  8
CURVE
100
AcDbLine
 62
7
  6
CONTINUOUS
 10
-10.507778661
 20
-0.5631108432
 11
-9.798141763
 21
0.1465260548
  0
LINE
  5
428
100
AcDbEntity
  8
CURVE
100
AcDbLine
 62
7
  6
CONTINUOUS
 10
-8.1711790805
 20
1.7734887372
 11
-7.76459
 21
2.1800778178
  0
LINE
  5
429
100
AcDbEntity
  8
CURVE
100
AcDbLine
 62
7
  6
CONTINUOUS
 10
-5.8828973793
 20
4.0617704385
 11
-5.5674957682
 21
4.3771720496
  0
LINE
  5
42A
100
AcDbEntity
  8
CURVE
100
AcDbLine
 62
7
  6
CONTINUOUS
 10
-5.4217614014
 20
4.5229064164
 11
-5.2562959249
 21
4.6883718929
  0
LINE
  5
42B
100
AcDbEntity
  8
CURVE
100
AcDbLine
 62
7
  6
CONTINUOUS
 10
-3.7418754771
 20
6.2027923406
 11
-3.5538388421
 21
6.3908289757
  0
LINE
  5
42C
100
AcDbEntity
  8
CURVE
100
AcDbLine
 62
7
  6
CONTINUOUS
 10
-3.2660468249
 20
6.6786209929
 11
-3.0254791045
 21
6.9191887133
  0
LINE
  5
42D
100
AcDbEntity
  8
CURVE
100
AcDbLine
 62
7
  6
CONTINUOUS
 10
-1.4497188435
 20
8.4949489743
 11
-1.2638471976
 21
8.6808206202
  0
LINE
  5
42E
100
AcDbEntity
  8
CURVE
100
AcDbLine
 62
7
  6
CONTINUOUS
 10
-0.6828194021
 20
9.2618484157
 11
-0.291842433
 21
9.6528253847
  0
LINE
  5
42F
100
AcDbEntity
  8
CURVE
100
AcDbLine
 62
7
  6
CONTINUOUS
 10
0.1767495443
 20
10.121417362
 11
0.4238423682
 21
10.3685101859
  0
LINE
  5
430
100
AcDbEntity
  8
CURVE
100
AcDbLine
 62
7
  6
CONTINUOUS
 10
1.5634221565
 20
11.5080899743
 11
1.7982430905
 21
11.7429109083
  0
LINE
  5
431
100
AcDbEntity
  8
CURVE
100
AcDbLine
 62
7
  6
CONTINUOUS
 10
2.1622561565
 20
12.1069239743
 11
2.6256321565
 21
12.5702999743
  0
LINE
  5
432
100
AcDbEntity
  8
CURVE
100
AcDbLine
 62
7
  6
CONTINUOUS
 10
2.6297672412
 20
12.574435059
 11
3.1050826534
 21
13.0497504712
  0
LINE
  5
433
100
AcDbEntity
  8
CURVE
100
AcDbLine
 62
7
  6
CONTINUOUS
 10
3.7619682236
 20
13.7066360414
 11
4.597081263
 21
14.5417490808
  0
LINE
  5
434
100
AcDbEntity
  8
CURVE
100
AcDbLine
 62
7
  6
CONTINUOUS
 10
-10.4120668591
 20
-0.8874204693
 11
-9.7860831703
 21
-0.2614367805
  0
LINE
  5
435
100
AcDbEntity
  8
CURVE
100
AcDbLine
 62
7
  6
CONTINUOUS
 10
-5.8296974155
 20
3.6949489743
 11
-5.7463650847
 21
3.7782813051
  0
LINE
  5
436
100
AcDbEntity
  8
CURVE
100
AcDbLine
 62
7
  6
CONTINUOUS
 10
-5.5352908599
 20
3.9893555299
 11
-5.1523686528
 21
4.372277737
  0
LINE
  5
437
100
AcDbEntity
  8
CURVE
100
AcDbLine
 62
7
  6
CONTINUOUS
 10
-4.9030695975
 20
4.6215767923
 11
-4.8879511687
 21
4.6366952211
  0
LINE
  5
438
100
AcDbEntity
  8
CURVE
100
AcDbLine
 62
7
  6
CONTINUOUS
 10
-4.8090722919
 20
4.7155740979
 11
-4.6042292714
 21
4.9204171183
  0
LINE
  5
439
100
AcDbEntity
  8
CURVE
100
AcDbLine
 62
7
  6
CONTINUOUS
 10
-3.5349798187
 20
5.989666571
 11
-3.0299074715
 21
6.4947389183
  0
LINE
  5
43A
100
AcDbEntity
  8
CURVE
100
AcDbLine
 62
7
  6
CONTINUOUS
 10
-2.8809689283
 20
6.6436774614
 11
-2.842112151
 21
6.6825342387
  0
LINE
  5
43B
100
AcDbEntity
  8
CURVE
100
AcDbLine
 62
7
  6
CONTINUOUS
 10
-2.2267396542
 20
7.2979067356
 11
-2.0564574952
 21
7.4681888946
  0
LINE
  5
43C
100
AcDbEntity
  8
CURVE
100
AcDbLine
 62
7
  6
CONTINUOUS
 10
-0.6134573494
 20
8.9111890403
 11
-0.2526993964
 21
9.2719469934
  0
LINE
  5
43D
100
AcDbEntity
  8
CURVE
100
AcDbLine
 62
7
  6
CONTINUOUS
 10
-0.0139582124
 20
9.5106881774
 11
0.2403352865
 21
9.7649816762
  0
LINE
  5
43E
100
AcDbEntity
  8
CURVE
100
AcDbLine
 62
7
  6
CONTINUOUS
 10
0.464743865
 20
9.9893902548
 11
0.5836260983
 21
10.1082724881
  0
LINE
  5
43F
100
AcDbEntity
  8
CURVE
100
AcDbLine
 62
7
  6
CONTINUOUS
 10
2.5822775845
 20
12.1069239743
 11
3.2036979555
 21
12.7283443453
  0
LINE
  5
440
100
AcDbEntity
  8
CURVE
100
AcDbLine
 62
7
  6
CONTINUOUS
 10
3.7619682236
 20
13.2866146133
 11
4.3648292358
 21
13.8894756256
  0
LINE
  5
441
100
AcDbEntity
  8
CURVE
100
AcDbLine
 62
7
  6
CONTINUOUS
 10
4.4901402978
 20
14.0147866876
 11
4.9912526521
 21
14.5158990419
  0
LINE
  5
442
100
AcDbEntity
  8
CURVE
100
AcDbLine
 62
7
  6
CONTINUOUS
 10
-10.2834093926
 20
-1.1787844309
 11
-9.7030740625
 21
-0.5984491008
  0
LINE
  5
443
100
AcDbEntity
  8
CURVE
100
AcDbLine
 62
7
  6
CONTINUOUS
 10
-5.2228617982
 20
3.8817631636
 11
-5.0484413807
 21
4.056183581
  0
LINE
  5
444
100
AcDbEntity
  8
CURVE
100
AcDbLine
 62
7
  6
CONTINUOUS
 10
-4.8090722919
 20
4.2955526699
 11
-4.4679297406
 21
4.6366952211
  0
LINE
  5
445
100
AcDbEntity
  8
CURVE
100
AcDbLine
 62
7
  6
CONTINUOUS
 10
-4.3133697748
 20
4.7912551869
 11
-4.2011527448
 21
4.903472217
  0
LINE
  5
446
100
AcDbEntity
  8
CURVE
100
AcDbLine
 62
7
  6
CONTINUOUS
 10
-2.7096077938
 20
6.395017168
 11
-2.422090723
 21
6.6825342387
  0
LINE
  5
447
100
AcDbEntity
  8
CURVE
100
AcDbLine
 62
7
  6
CONTINUOUS
 10
-2.2027181334
 20
6.9019068283
 11
-2.0378152801
 21
7.0668096816
  0
LINE
  5
448
100
AcDbEntity
  8
CURVE
100
AcDbLine
 62
7
  6
CONTINUOUS
 10
-1.8413492649
 20
7.2632756968
 11
-1.6692047124
 21
7.4354202494
  0
LINE
  5
449
100
AcDbEntity
  8
CURVE
100
AcDbLine
 62
7
  6
CONTINUOUS
 10
-0.4549797408
 20
8.6496452209
 11
-0.1962361991
 21
8.9083887626
  0
LINE
  5
44A
100
AcDbEntity
  8
CURVE
100
AcDbLine
 62
7
  6
CONTINUOUS
 10
0.2374000128
 20
9.3420249746
 11
0.4880479542
 21
9.5926729159
  0
LINE
  5
44B
100
AcDbEntity
  8
CURVE
100
AcDbLine
 62
7
  6
CONTINUOUS
 10
2.8084713878
 20
11.9130963495
 11
3.3023132576
 21
12.4069382194
  0
LINE
  5
44C
100
AcDbEntity
  8
CURVE
100
AcDbLine
 62
7
  6
CONTINUOUS
 10
3.7619682236
 20
12.8665931853
 11
4.3648292358
 21
13.4694541975
  0
LINE
  5
44D
100
AcDbEntity
  8
CURVE
100
AcDbLine
 62
7
  6
CONTINUOUS
 10
4.9015410713
 20
14.006166033
 11
5.327437562
 21
14.4320625237
  0
LINE
  5
44E
100
AcDbEntity
  8
CURVE
100
AcDbLine
 62
7
  6
CONTINUOUS
 10
-10.1263504478
 20
-1.4417469141
 11
-9.5715350808
 21
-0.8869315471
  0
LINE
  5
44F
100
AcDbEntity
  8
CURVE
100
AcDbLine
 62
7
  6
CONTINUOUS
 10
-4.9896545594
 20
3.6949489743
 11
-4.9445141086
 21
3.7400894251
  0
LINE
  5
450
100
AcDbEntity
  8
CURVE
100
AcDbLine
 62
7
  6
CONTINUOUS
 10
-4.8052745739
 20
3.8793289598
 11
-4.6042292714
 21
4.0803742623
  0
LINE
  5
451
100
AcDbEntity
  8
CURVE
100
AcDbLine
 62
7
  6
CONTINUOUS
 10
-4.3133697748
 20
4.3712337589
 11
-4.0479083126
 21
4.6366952211
  0
LINE
  5
452
100
AcDbEntity
  8
CURVE
100
AcDbLine
 62
7
  6
CONTINUOUS
 10
-2.2917343883
 20
6.3928691454
 11
-1.5252827317
 21
7.159320802
  0
LINE
  5
453
100
AcDbEntity
  8
CURVE
100
AcDbLine
 62
7
  6
CONTINUOUS
 10
-0.1955060724
 20
8.4890974614
 11
0.1117448234
 21
8.7963483571
  0
LINE
  5
454
100
AcDbEntity
  8
CURVE
100
AcDbLine
 62
7
  6
CONTINUOUS
 10
0.2326311596
 20
8.9172346933
 11
0.6270661539
 21
9.3116696876
  0
LINE
  5
455
100
AcDbEntity
  8
CURVE
100
AcDbLine
 62
7
  6
CONTINUOUS
 10
1.3303597743
 20
10.0149633081
 11
1.8185310656
 21
10.5031345994
  0
LINE
  5
456
100
AcDbEntity
  8
CURVE
100
AcDbLine
 62
7
  6
CONTINUOUS
 10
2.8979927464
 20
11.5825962801
 11
3.4009285597
 21
12.0855320935
  0
LINE
  5
457
100
AcDbEntity
  8
CURVE
100
AcDbLine
 62
7
  6
CONTINUOUS
 10
3.7619682236
 20
12.4465717573
 11
4.4886474421
 21
13.1732509758
  0
LINE
  5
458
100
AcDbEntity
  8
CURVE
100
AcDbLine
 62
7
  6
CONTINUOUS
 10
5.1508632085
 20
13.8354667422
 11
5.5729471155
 21
14.2575506492
  0
LINE
  5
459
100
AcDbEntity
  8
CURVE
100
AcDbLine
 62
250
  6
CONTINUOUS
 10
-4.6042292714
 20
4.9692327529
 11
-4.8090722919
 21
4.8238030046
  0
LINE
  5
45A
100
AcDbEntity
  8
CURVE
100
AcDbLine
 62
250
  6
CONTINUOUS
 10
-4.1085265994
 20
4.9692327529
 11
-4.3133697748
 21
4.8238030046
  0
LINE
  5
45B
100
AcDbEntity
  8
0
100
AcDbLine
 62
250
  6
CONTINUOUS
 10
-14.4090735796
 20
-2.013970288
 11
-14.290794942
 21
-1.9346387927
  0
LINE
  5
45C
100
AcDbEntity
  8
0
100
AcDbLine
 62
7
  6
CONTINUOUS
 10
-7.1146473745
 20
-5.0055046306
 11
-14.4090735796
 21
-2.013970288
  0
LINE
  5
45D
100
AcDbEntity
  8
0
100
AcDbLine
 62
250
  6
CONTINUOUS
 10
-7.0913357413
 20
-4.887225993
 11
-14.290794942
 21
-1.9346387927
  0
LINE
  5
45E
100
AcDbEntity
  8
CURVE
100
AcDbLine
 62
250
  6
CONTINUOUS
 10
-4.448158288
 20
3.7100240089
 11
-4.4658936024
 21
3.9033391506
  0
LINE
  5
45F
100
AcDbEntity
  8
0
100
AcDbLine
 62
7
  6
CONTINUOUS
 10
-5.0
 20
-5.1550510257
 11
-5.0
 21
-16.6550510257
  0
LINE
  5
460
100
AcDbEntity
  8
CURVE
100
AcDbLine
 62
250
  6
CONTINUOUS
 10
-4.9030695975
 20
4.6366952211
 11
-4.9030695975
 21
4.4380594522
  0
LINE
  5
461
100
AcDbEntity
  8
CURVE
100
AcDbLine
 62
250
  6
CONTINUOUS
 10
-4.8148024147
 20
6.5484960288
 11
-4.8148024147
 21
6.2967907176
  0
LINE
  5
462
100
AcDbEntity
  8
CURVE
100
AcDbLine
 62
250
  6
CONTINUOUS
 10
-4.8090722919
 20
4.8238030046
 11
-4.8090722919
 21
4.6366952211
  0
LINE
  5
463
100
AcDbEntity
  8
CURVE
100
AcDbLine
 62
250
  6
CONTINUOUS
 10
-4.8090722919
 20
4.4380594522
 11
-4.8090722919
 21
4.0265997172
  0
LINE
  5
464
100
AcDbEntity
  8
CURVE
100
AcDbLine
 62
250
  6
CONTINUOUS
 10
-4.6042292714
 20
4.0576365561
 11
-4.6042292714
 21
4.4380594522
  0
LINE
  5
465
100
AcDbEntity
  8
CURVE
100
AcDbLine
 62
250
  6
CONTINUOUS
 10
-4.6042292714
 20
4.6366952211
 11
-4.6042292714
 21
4.9692327529
  0
LINE
  5
466
100
AcDbEntity
  8
CURVE
100
AcDbLine
 62
250
  6
CONTINUOUS
 10
-4.4650068521
 20
4.4380594522
 11
-4.4650068521
 21
4.6366952211
  0
LINE
  5
467
100
AcDbEntity
  8
CURVE
100
AcDbLine
 62
250
  6
CONTINUOUS
 10
-4.407367003
 20
4.6366952211
 11
-4.407367003
 21
4.4380594522
  0
LINE
  5
468
100
AcDbEntity
  8
CURVE
100
AcDbLine
 62
250
  6
CONTINUOUS
 10
-4.3133697748
 20
4.8238030046
 11
-4.3133697748
 21
4.6366952211
  0
LINE
  5
469
100
AcDbEntity
  8
CURVE
100
AcDbLine
 62
250
  6
CONTINUOUS
 10
-4.3133697748
 20
4.4380594522
 11
-4.3133697748
 21
4.0265997172
  0
LINE
  5
46A
100
AcDbEntity
  8
CURVE
100
AcDbLine
 62
250
  6
CONTINUOUS
 10
-4.3113917559
 20
7.0611154348
 11
-4.3113917559
 21
6.5495192468
  0
LINE
  5
46B
100
AcDbEntity
  8
CURVE
100
AcDbLine
 62
250
  6
CONTINUOUS
 10
-4.3113917559
 20
6.2967907176
 11
-4.3113917559
 21
5.9949489743
  0
LINE
  5
46C
100
AcDbEntity
  8
CURVE
100
AcDbLine
 62
250
  6
CONTINUOUS
 10
-4.1085265994
 20
4.0576365561
 11
-4.1085265994
 21
4.4380594522
  0
LINE
  5
46D
100
AcDbEntity
  8
CURVE
100
AcDbLine
 62
250
  6
CONTINUOUS
 10
-4.1085265994
 20
4.6366952211
 11
-4.1085265994
 21
4.9692327529
  0
LINE
  5
46E
100
AcDbEntity
  8
CURVE
100
AcDbLine
 62
250
  6
CONTINUOUS
 10
-4.083219856
 20
5.9949489743
 11
-4.083219856
 21
6.2967907176
  0
LINE
  5
46F
100
AcDbEntity
  8
CURVE
100
AcDbLine
 62
250
  6
CONTINUOUS
 10
-4.083219856
 20
6.5495192468
 11
-4.083219856
 21
7.5000650198
  0
LINE
  5
470
100
AcDbEntity
  8
CURVE
100
AcDbLine
 62
250
  6
CONTINUOUS
 10
-3.9693041801
 20
4.4380594522
 11
-3.9693041801
 21
4.6366952211
  0
LINE
  5
471
100
AcDbEntity
  8
0
100
AcDbLine
 62
250
  6
CONTINUOUS
 10
-7.0913357413
 20
-4.887225993
 11
-7.1146473745
 21
-5.0055046306
  0
LINE
  5
472
100
AcDbEntity
  8
0
100
AcDbLine
 62
250
  6
CONTINUOUS
 10
-6.3325667714
 20
-5.0367723881
 11
-6.3558784045
 21
-5.1550510257
  0
LINE
  5
473
100
AcDbEntity
  8
CURVE
100
AcDbLine
 62
250
  6
CONTINUOUS
 10
-0.513327
 20
12.8423199743
 11
0.112816
 21
14.5077289743
  0
LINE
  5
474
100
AcDbEntity
  8
CURVE
100
AcDbLine
 62
250
  6
CONTINUOUS
 10
0.271646
 20
13.4586319743
 11
-0.472837
 21
11.5080899743
  0
LINE
  5
475
100
AcDbEntity
  8
0
100
AcDbLine
 62
250
  6
CONTINUOUS
 10
-7.0913357413
 20
-4.887225993
 11
-6.6270167941
 21
-3.7550510257
  0
LINE
  5
476
100
AcDbEntity
  8
CURVE
100
AcDbLine
 62
250
  6
CONTINUOUS
 10
1.1549796209
 20
9.2343760044
 11
1.6147340879
 21
9.9178684861
  0
LINE
  5
477
100
AcDbEntity
  8
CURVE
100
AcDbLine
 62
250
  6
CONTINUOUS
 10
1.6638473615
 20
10.5031345994
 11
0.7961801633
 21
9.2330117137
  0
LINE
  5
478
100
AcDbEntity
  8
CURVE
100
AcDbLine
 62
7
  6
CONTINUOUS
 10
-9.9433999866
 20
-1.6788178809
 11
-9.4005956385
 21
-1.1360135328
  0
LINE
  5
479
100
AcDbEntity
  8
CURVE
100
AcDbLine
 62
7
  6
CONTINUOUS
 10
-4.5914386035
 20
3.6731435022
 11
-4.4570994393
 21
3.8074826664
  0
LINE
  5
47A
100
AcDbEntity
  8
CURVE
100
AcDbLine
 62
7
  6
CONTINUOUS
 10
-4.3126083461
 20
3.9519737596
 11
-4.1085265994
 21
4.1560555063
  0
LINE
  5
47B
100
AcDbEntity
  8
CURVE
100
AcDbLine
 62
7
  6
CONTINUOUS
 10
-2.1746929657
 20
6.08988914
 11
-2.0054127255
 21
6.2591693802
  0
LINE
  5
47C
100
AcDbEntity
  8
CURVE
100
AcDbLine
 62
7
  6
CONTINUOUS
 10
-1.7281296356
 20
6.5364524701
 11
-1.562965783
 21
6.7016163227
  0
LINE
  5
47D
100
AcDbEntity
  8
CURVE
100
AcDbLine
 62
7
  6
CONTINUOUS
 10
-1.3246526835
 20
6.9399294222
 11
-0.7806070241
 21
7.4839750816
  0
LINE
  5
47E
100
AcDbEntity
  8
CURVE
100
AcDbLine
 62
7
  6
CONTINUOUS
 10
0.2332465459
 20
8.4978286516
 11
0.6007128324
 21
8.8652949381
  0
LINE
  5
47F
100
AcDbEntity
  8
CURVE
100
AcDbLine
 62
7
  6
CONTINUOUS
 10
0.7961801633
 20
9.060762269
 11
1.5355138056
 21
9.8000959112
  0
LINE
  5
480
100
AcDbEntity
  8
CURVE
100
AcDbLine
 62
7
  6
CONTINUOUS
 10
1.6147340879
 20
9.8793161936
 11
1.9858116254
 21
10.2503937311
  0
LINE
  5
481
100
AcDbEntity
  8
CURVE
100
AcDbLine
 62
7
  6
CONTINUOUS
 10
3.2435078686
 20
11.5080899743
 11
3.4995438619
 21
11.7641259676
  0
LINE
  5
482
100
AcDbEntity
  8
CURVE
100
AcDbLine
 62
7
  6
CONTINUOUS
 10
3.7619682236
 20
12.0265503293
 11
4.3855911743
 21
12.65017328
  0
LINE
  5
483
100
AcDbEntity
  8
CURVE
100
AcDbLine
 62
7
  6
CONTINUOUS
 10
4.4174004657
 20
12.6819825714
 11
4.9481630463
 21
13.212745152
  0
LINE
  5
484
100
AcDbEntity
  8
CURVE
100
AcDbLine
 62
7
  6
CONTINUOUS
 10
5.1810490464
 20
13.4456311521
 11
5.7356444861
 21
14.0002265918
  0
LINE
  5
485
100
AcDbEntity
  8
CURVE
100
AcDbLine
 62
7
  6
CONTINUOUS
 10
-9.7357253803
 20
-1.8911647027
 11
-9.1939283658
 21
-1.3493676882
  0
LINE
  5
486
100
AcDbEntity
  8
CURVE
100
AcDbLine
 62
7
  6
CONTINUOUS
 10
-4.1664088486
 20
3.6781518291
 11
-3.9677565292
 21
3.8768041485
  0
LINE
  5
487
100
AcDbEntity
  8
CURVE
100
AcDbLine
 62
7
  6
CONTINUOUS
 10
-1.8750019169
 20
5.9695587607
 11
-1.4875660519
 21
6.3569946258
  0
LINE
  5
488
100
AcDbEntity
  8
CURVE
100
AcDbLine
 62
7
  6
CONTINUOUS
 10
-1.3255157097
 20
6.5190449679
 11
-0.8766642169
 21
6.9678964608
  0
LINE
  5
489
100
AcDbEntity
  8
CURVE
100
AcDbLine
 62
7
  6
CONTINUOUS
 10
-0.7450920305
 20
7.0994686471
 11
-0.5716725626
 21
7.2728881151
  0
LINE
  5
48A
100
AcDbEntity
  8
CURVE
100
AcDbLine
 62
7
  6
CONTINUOUS
 10
1.0528439543
 20
8.897404632
 11
1.3898153267
 21
9.2343760044
  0
LINE
  5
48B
100
AcDbEntity
  8
CURVE
100
AcDbLine
 62
7
  6
CONTINUOUS
 10
1.6147340879
 20
9.4592947655
 11
1.9858116254
 21
9.8303723031
  0
LINE
  5
48C
100
AcDbEntity
  8
CURVE
100
AcDbLine
 62
7
  6
CONTINUOUS
 10
3.7619682236
 20
11.6065289012
 11
4.3855911743
 21
12.230151852
  0
LINE
  5
48D
100
AcDbEntity
  8
CURVE
100
AcDbLine
 62
7
  6
CONTINUOUS
 10
4.8230558699
 20
12.6676165476
 11
5.7958179439
 21
13.6403786216
  0
LINE
  5
48E
100
AcDbEntity
  8
CURVE
100
AcDbLine
 62
7
  6
CONTINUOUS
 10
-9.5034240414
 20
-2.0788847917
 11
-8.9518253064
 21
-1.5272860568
  0
LINE
  5
48F
100
AcDbEntity
  8
CURVE
100
AcDbLine
 62
7
  6
CONTINUOUS
 10
-3.7295902754
 20
3.6949489743
 11
-3.6225784898
 21
3.8019607599
  0
LINE
  5
490
100
AcDbEntity
  8
CURVE
100
AcDbLine
 62
7
  6
CONTINUOUS
 10
-2.648885107
 20
4.7756541427
 11
-2.5010932138
 21
4.9234460358
  0
LINE
  5
491
100
AcDbEntity
  8
CURVE
100
AcDbLine
 62
7
  6
CONTINUOUS
 10
-1.2390758199
 20
6.1854634298
 11
-1.0554555359
 21
6.3690837138
  0
LINE
  5
492
100
AcDbEntity
  8
CURVE
100
AcDbLine
 62
7
  6
CONTINUOUS
 10
-0.7718501827
 20
6.652689067
 11
-0.6081529007
 21
6.816386349
  0
LINE
  5
493
100
AcDbEntity
  8
CURVE
100
AcDbLine
 62
7
  6
CONTINUOUS
 10
-0.3699310789
 20
7.0546081707
 11
0.0733840993
 21
7.497923349
  0
LINE
  5
494
100
AcDbEntity
  8
CURVE
100
AcDbLine
 62
7
  6
CONTINUOUS
 10
1.4728653824
 20
8.897404632
 11
1.9858116254
 21
9.4103508751
  0
LINE
  5
495
100
AcDbEntity
  8
CURVE
100
AcDbLine
 62
7
  6
CONTINUOUS
 10
2.3872911322
 20
9.8118303818
 11
3.0767522486
 21
10.5012914982
  0
LINE
  5
496
100
AcDbEntity
  8
CURVE
100
AcDbLine
 62
7
  6
CONTINUOUS
 10
4.0835502713
 20
11.508089521
 11
4.3855911743
 21
11.810130424
  0
LINE
  5
497
100
AcDbEntity
  8
CURVE
100
AcDbLine
 62
7
  6
CONTINUOUS
 10
5.0466920943
 20
12.4712313439
 11
5.4441635905
 21
12.8687028401
  0
LINE
  5
498
100
AcDbEntity
  8
CURVE
100
AcDbLine
 62
7
  6
CONTINUOUS
 10
-9.2455448304
 20
-2.2410270088
 11
-8.6713408815
 21
-1.6668230599
  0
LINE
  5
499
100
AcDbEntity
  8
CURVE
100
AcDbLine
 62
7
  6
CONTINUOUS
 10
-6.0451964865
 20
0.9593213351
 11
-4.6489743608
 21
2.3555434608
  0
LINE
  5
49A
100
AcDbEntity
  8
CURVE
100
AcDbLine
 62
7
  6
CONTINUOUS
 10
-3.0383441655
 20
3.9661736562
 11
-2.950875032
 21
4.0536427896
  0
LINE
  5
49B
100
AcDbEntity
  8
CURVE
100
AcDbLine
 62
7
  6
CONTINUOUS
 10
-2.7051753622
 20
4.2993424594
 11
-2.3925723192
 21
4.6119455024
  0
LINE
  5
49C
100
AcDbEntity
  8
CURVE
100
AcDbLine
 62
7
  6
CONTINUOUS
 10
-1.0176051714
 20
5.9869126502
 11
-0.5126825583
 21
6.4918352633
  0
LINE
  5
49D
100
AcDbEntity
  8
CURVE
100
AcDbLine
 62
7
  6
CONTINUOUS
 10
0.1633033777
 20
7.1678211993
 11
0.3405385162
 21
7.3450563379
  0
LINE
  5
49E
100
AcDbEntity
  8
CURVE
100
AcDbLine
 62
7
  6
CONTINUOUS
 10
1.6147340879
 20
8.6192519095
 11
2.2298581828
 21
9.2343760044
  0
LINE
  5
49F
100
AcDbEntity
  8
CURVE
100
AcDbLine
 62
7
  6
CONTINUOUS
 10
2.4688818913
 20
9.4733997129
 11
2.7653428303
 21
9.7698606519
  0
LINE
  5
4A0
100
AcDbEntity
  8
CURVE
100
AcDbLine
 62
7
  6
CONTINUOUS
 10
3.1399325265
 20
10.1444503481
 11
3.3894727779
 21
10.3939905995
  0
LINE
  5
4A1
100
AcDbEntity
  8
CURVE
100
AcDbLine
 62
7
  6
CONTINUOUS
 10
5.1556572218
 20
12.1601750434
 11
5.6275372119
 21
12.6320550335
  0
LINE
  5
4A2
100
AcDbEntity
  8
CURVE
100
AcDbLine
 62
7
  6
CONTINUOUS
 10
-8.9598702193
 20
-2.3753738257
 11
-8.3447025605
 21
-1.7602061669
  0
LINE
  5
4A3
100
AcDbEntity
  8
CURVE
100
AcDbLine
 62
7
  6
CONTINUOUS
 10
-6.2055026473
 20
0.3789937463
 11
-4.068646772
 21
2.5158496216
  0
LINE
  5
4A4
100
AcDbEntity
  8
CURVE
100
AcDbLine
 62
7
  6
CONTINUOUS
 10
-2.8680062772
 20
3.7164901163
 11
-2.7049497022
 21
3.8795466914
  0
LINE
  5
4A5
100
AcDbEntity
  8
CURVE
100
AcDbLine
 62
7
  6
CONTINUOUS
 10
-2.5565421867
 20
4.0279542069
 11
-2.3630910152
 21
4.2214053784
  0
LINE
  5
4A6
100
AcDbEntity
  8
CURVE
100
AcDbLine
 62
7
  6
CONTINUOUS
 10
-1.6792789886
 20
4.9052174049
 11
-1.6072827337
 21
4.9772136599
  0
LINE
  5
4A7
100
AcDbEntity
  8
CURVE
100
AcDbLine
 62
7
  6
CONTINUOUS
 10
-0.3498046514
 20
6.2346917422
 11
0.4112326756
 21
6.9957290691
  0
LINE
  5
4A8
100
AcDbEntity
  8
CURVE
100
AcDbLine
 62
7
  6
CONTINUOUS
 10
0.6255115271
 20
7.2100079206
 11
0.9104525807
 21
7.4949489743
  0
LINE
  5
4A9
100
AcDbEntity
  8
CURVE
100
AcDbLine
 62
7
  6
CONTINUOUS
 10
1.9104525807
 20
8.4949489743
 11
1.9858116254
 21
8.570308019
  0
LINE
  5
4AA
100
AcDbEntity
  8
CURVE
100
AcDbLine
 62
7
  6
CONTINUOUS
 10
2.6712923824
 20
9.255788776
 11
2.9021468817
 21
9.4866432753
  0
LINE
  5
4AB
100
AcDbEntity
  8
CURVE
100
AcDbLine
 62
7
  6
CONTINUOUS
 10
3.2883833907
 20
9.8728797843
 11
3.5895170157
 21
10.1740134092
  0
LINE
  5
4AC
100
AcDbEntity
  8
CURVE
100
AcDbLine
 62
7
  6
CONTINUOUS
 10
5.2494722701
 20
11.8339686637
 11
5.7332543193
 21
12.3177507129
  0
LINE
  5
4AD
100
AcDbEntity
  8
CURVE
100
AcDbLine
 62
7
  6
CONTINUOUS
 10
-8.6423291526
 20
-2.477854187
 11
-7.9533070903
 21
-1.7888321248
  0
LINE
  5
4AE
100
AcDbEntity
  8
CURVE
100
AcDbLine
 62
7
  6
CONTINUOUS
 10
-6.2337806673
 20
-0.0693057017
 11
-5.1492602638
 21
1.0152147018
  0
LINE
  5
4AF
100
AcDbEntity
  8
CURVE
100
AcDbLine
 62
7
  6
CONTINUOUS
 10
-4.7048677275
 20
1.4596072381
 11
-3.620347324
 21
2.5441276416
  0
LINE
  5
4B0
100
AcDbEntity
  8
CURVE
100
AcDbLine
 62
7
  6
CONTINUOUS
 10
-1.756120042
 20
4.4083549236
 11
-1.5290250356
 21
4.6354499299
  0
LINE
  5
4B1
100
AcDbEntity
  8
CURVE
100
AcDbLine
 62
7
  6
CONTINUOUS
 10
-1.4204809531
 20
4.7439940125
 11
-1.1872613057
 21
4.9772136599
  0
LINE
  5
4B2
100
AcDbEntity
  8
CURVE
100
AcDbLine
 62
7
  6
CONTINUOUS
 10
-0.1695259913
 20
5.9949489743
 11
0.0975272105
 21
6.2620021761
  0
LINE
  5
4B3
100
AcDbEntity
  8
CURVE
100
AcDbLine
 62
7
  6
CONTINUOUS
 10
0.6255115271
 20
6.7899864926
 11
0.8567529917
 21
7.0212279572
  0
LINE
  5
4B4
100
AcDbEntity
  8
CURVE
100
AcDbLine
 62
7
  6
CONTINUOUS
 10
0.8832295849
 20
7.0477045505
 11
1.0559645253
 21
7.2204394909
  0
LINE
  5
4B5
100
AcDbEntity
  8
CURVE
100
AcDbLine
 62
7
  6
CONTINUOUS
 10
2.5219971092
 20
8.6864720747
 11
2.8010715156
 21
8.9655464812
  0
LINE
  5
4B6
100
AcDbEntity
  8
CURVE
100
AcDbLine
 62
7
  6
CONTINUOUS
 10
3.0074596441
 20
9.1719346096
 11
3.6938251746
 21
9.8583001402
  0
LINE
  5
4B7
100
AcDbEntity
  8
CURVE
100
AcDbLine
 62
7
  6
CONTINUOUS
 10
5.3442549721
 20
11.5087299377
 11
5.82147983
 21
11.9859547956
  0
LINE
  5
4B8
100
AcDbEntity
  8
CURVE
100
AcDbLine
 62
7
  6
CONTINUOUS
 10
-8.2856035083
 20
-2.5411499708
 11
-7.76459
 21
-2.0201364625
  0
LINE
  5
4B9
100
AcDbEntity
  8
CURVE
100
AcDbLine
 62
7
  6
CONTINUOUS
 10
-6.1953190432
 20
-0.4508655057
 11
-5.3670164718
 21
0.3774370658
  0
LINE
  5
4BA
100
AcDbEntity
  8
CURVE
100
AcDbLine
 62
7
  6
CONTINUOUS
 10
-3.991014451
 20
1.7534390865
 11
-3.42959
 21
2.3148635375
  0
LINE
  5
4BB
100
AcDbEntity
  8
CURVE
100
AcDbLine
 62
7
  6
CONTINUOUS
 10
-2.0495045633
 20
3.6949489743
 11
-1.966098237
 21
3.7783553005
  0
LINE
  5
4BC
100
AcDbEntity
  8
CURVE
100
AcDbLine
 62
7
  6
CONTINUOUS
 10
-1.7850821139
 20
3.9593714236
 11
-1.702963674
 21
4.0414898635
  0
LINE
  5
4BD
100
AcDbEntity
  8
CURVE
100
AcDbLine
 62
7
  6
CONTINUOUS
 10
-1.3906039621
 20
4.3538495754
 11
-1.2369316372
 21
4.5075219004
  0
LINE
  5
4BE
100
AcDbEntity
  8
CURVE
100
AcDbLine
 62
7
  6
CONTINUOUS
 10
0.2504954367
 20
5.9949489743
 11
0.4178034067
 21
6.1622569443
  0
LINE
  5
4BF
100
AcDbEntity
  8
CURVE
100
AcDbLine
 62
7
  6
CONTINUOUS
 10
0.6255115271
 20
6.3699650646
 11
0.8567529917
 21
6.6012065292
  0
LINE
  5
4C0
100
AcDbEntity
  8
CURVE
100
AcDbLine
 62
7
  6
CONTINUOUS
 10
0.9547417997
 20
6.6991953372
 11
1.1313617502
 21
6.8758152878
  0
LINE
  5
4C1
100
AcDbEntity
  8
CURVE
100
AcDbLine
 62
7
  6
CONTINUOUS
 10
1.3566371596
 20
7.1010906972
 11
1.7504954367
 21
7.4949489743
  0
LINE
  5
4C2
100
AcDbEntity
  8
CURVE
100
AcDbLine
 62
7
  6
CONTINUOUS
 10
2.7542681964
 20
8.4987217339
 11
3.0320976004
 21
8.776551138
  0
LINE
  5
4C3
100
AcDbEntity
  8
CURVE
100
AcDbLine
 62
7
  6
CONTINUOUS
 10
3.2807875429
 20
9.0252410804
 11
3.7219898211
 21
9.4664433586
  0
LINE
  5
4C4
100
AcDbEntity
  8
CURVE
100
AcDbLine
 62
7
  6
CONTINUOUS
 10
5.7636359834
 20
11.508089521
 11
5.9083435693
 21
11.6527971068
  0
LINE
  5
4C5
100
AcDbEntity
  8
0
100
AcDbLine
 62
250
  6
CONTINUOUS
 10
14.7023573216
 20
14.0812024957
 11
14.584078684
 21
14.0152920456
  0
LINE
  5
4C6
100
AcDbEntity
  8
0
100
AcDbLine
 62
7
  6
CONTINUOUS
 10
-6.3558784045
 20
-5.1550510257
 11
-5.0
 21
-5.1550510257
  0
LINE
  5
4C7
100
AcDbEntity
  8
0
100
AcDbLine
 62
7
  6
CONTINUOUS
 10
5.0
 20
-5.1550510257
 11
6.3558784045
 21
-5.1550510257
  0
LINE
  5
4C8
100
AcDbEntity
  8
0
100
AcDbLine
 62
250
  6
CONTINUOUS
 10
6.3325667714
 20
-5.0367723881
 11
-6.3325667714
 21
-5.0367723881
  0
LINE
  5
4C9
100
AcDbEntity
  8
0
100
AcDbLine
 62
7
  6
CONTINUOUS
 10
-7.0
 20
-3.7550510257
 11
-14.5
 21
-0.9050510257
  0
LINE
  5
4CA
100
AcDbEntity
  8
0
100
AcDbLine
 62
250
  6
CONTINUOUS
 10
-14.584078684
 20
14.0152920456
 11
-14.0497540286
 21
13.151589178
  0
LINE
  5
4CB
100
AcDbEntity
  8
0
100
AcDbLine
 62
250
  6
CONTINUOUS
 10
-10.233504247
 20
16.8458319401
 11
-10.1998755562
 21
16.7275533025
  0
LINE
  5
4CC
100
AcDbEntity
  8
0
100
AcDbLine
 62
250
  6
CONTINUOUS
 10
-9.1814515351
 20
17.1449489743
 11
-9.1478228444
 21
17.0266703367
  0
LINE
  5
4CD
100
AcDbEntity
  8
CURVE
100
AcDbLine
 62
250
  6
CONTINUOUS
 10
-3.952455616
 20
3.7100240089
 11
-3.9701909304
 21
3.9033391506
  0
LINE
  5
4CE
100
AcDbEntity
  8
CURVE
100
AcDbLine
 62
250
  6
CONTINUOUS
 10
-3.93959
 20
0.3774369743
 11
-3.93959
 21
-0.3875630257
  0
LINE
  5
4CF
100
AcDbEntity
  8
CURVE
100
AcDbLine
 62
250
  6
CONTINUOUS
 10
-3.9307642579
 20
6.2967907176
 11
-3.9307642579
 21
6.5495192468
  0
LINE
  5
4D0
100
AcDbEntity
  8
CURVE
100
AcDbLine
 62
250
  6
CONTINUOUS
 10
-3.82653476
 20
3.9441304162
 11
-3.82653476
 21
3.6949489743
  0
LINE
  5
4D1
100
AcDbEntity
  8
CURVE
100
AcDbLine
 62
250
  6
CONTINUOUS
 10
-3.6225784898
 20
3.6949489743
 11
-3.6225784898
 21
3.9441304162
  0
LINE
  5
4D2
100
AcDbEntity
  8
CURVE
100
AcDbLine
 62
250
  6
CONTINUOUS
 10
-3.42959
 20
2.5321549743
 11
-3.42959
 21
1.7616289743
  0
LINE
  5
4D3
100
AcDbEntity
  8
CURVE
100
AcDbLine
 62
250
  6
CONTINUOUS
 10
-3.42959
 20
-1.7717550257
 11
-3.42959
 21
-2.5422810257
  0
LINE
  5
4D4
100
AcDbEntity
  8
CURVE
100
AcDbLine
 62
250
  6
CONTINUOUS
 10
-2.992545
 20
14.5079089743
 11
-2.992545
 21
11.5080899743
  0
LINE
  5
4D5
100
AcDbEntity
  8
CURVE
100
AcDbLine
 62
250
  6
CONTINUOUS
 10
-2.8809689283
 20
6.6825342387
 11
-2.8809689283
 21
6.395017168
  0
LINE
  5
4D6
100
AcDbEntity
  8
CURVE
100
AcDbLine
 62
250
  6
CONTINUOUS
 10
-2.417462647
 20
6.395017168
 11
-2.417462647
 21
6.6825342387
  0
LINE
  5
4D7
100
AcDbEntity
  8
CURVE
100
AcDbLine
 62
250
  6
CONTINUOUS
 10
-2.366403
 20
11.5080899743
 11
-2.366403
 21
14.5079089743
  0
LINE
  5
4D8
100
AcDbEntity
  8
CURVE
100
AcDbLine
 62
250
  6
CONTINUOUS
 10
-2.1700545073
 20
3.9441304162
 11
-2.1700545073
 21
3.6949489743
  0
LINE
  5
4D9
100
AcDbEntity
  8
CURVE
100
AcDbLine
 62
250
  6
CONTINUOUS
 10
-2.1424283639
 20
9.9969953209
 11
-2.1424283639
 21
9.6491099507
  0
LINE
  5
4DA
100
AcDbEntity
  8
CURVE
100
AcDbLine
 62
250
  6
CONTINUOUS
 10
-1.966098237
 20
3.6949489743
 11
-1.966098237
 21
3.9441304162
  0
LINE
  5
4DB
100
AcDbEntity
  8
CURVE
100
AcDbLine
 62
250
  6
CONTINUOUS
 10
-1.295195
 20
13.4667969743
 11
-1.430316
 21
11.5080899743
  0
LINE
  5
4DC
100
AcDbEntity
  8
CURVE
100
AcDbLine
 62
250
  6
CONTINUOUS
 10
-2.02933
 20
11.5080899743
 11
-1.758481
 21
14.5077289743
  0
LINE
  5
4DD
100
AcDbEntity
  8
CURVE
100
AcDbLine
 62
250
  6
CONTINUOUS
 10
-2.7650750637
 20
4.4841713161
 11
-2.7872441292
 21
4.2811017573
  0
LINE
  5
4DE
100
AcDbEntity
  8
CURVE
100
AcDbLine
 62
250
  6
CONTINUOUS
 10
-1.5457708836
 20
4.5223023504
 11
-1.5129605055
 21
4.7439940125
  0
LINE
  5
4DF
100
AcDbEntity
  8
CURVE
100
AcDbLine
 62
250
  6
CONTINUOUS
 10
-1.6681445837
 20
4.9772136599
 11
-1.7727829695
 21
4.3006106496
  0
LINE
  5
4E0
100
AcDbEntity
  8
CURVE
100
AcDbLine
 62
250
  6
CONTINUOUS
 10
1.111143
 20
11.5080899743
 11
2.052021
 21
14.5077289743
  0
LINE
  5
4E1
100
AcDbEntity
  8
CURVE
100
AcDbLine
 62
7
  6
CONTINUOUS
 10
-7.8754162056
 20
-2.5509840961
 11
-7.76459
 21
-2.4401578905
  0
LINE
  5
4E2
100
AcDbEntity
  8
CURVE
100
AcDbLine
 62
7
  6
CONTINUOUS
 10
-6.1116677151
 20
-0.7872356055
 11
-4.9469950707
 21
0.3774370389
  0
LINE
  5
4E3
100
AcDbEntity
  8
CURVE
100
AcDbLine
 62
7
  6
CONTINUOUS
 10
-3.5496061021
 20
1.7748260074
 11
-3.42959
 21
1.8948421095
  0
LINE
  5
4E4
100
AcDbEntity
  8
CURVE
100
AcDbLine
 62
7
  6
CONTINUOUS
 10
-1.6117796207
 20
3.7126524888
 11
-1.450898839
 21
3.8735332705
  0
LINE
  5
4E5
100
AcDbEntity
  8
CURVE
100
AcDbLine
 62
7
  6
CONTINUOUS
 10
-1.2984174922
 20
4.0260146173
 11
-1.0884353924
 21
4.2359967171
  0
LINE
  5
4E6
100
AcDbEntity
  8
CURVE
100
AcDbLine
 62
7
  6
CONTINUOUS
 10
-0.952952061
 20
4.3714800485
 11
-0.66628219
 21
4.6581499195
  0
LINE
  5
4E7
100
AcDbEntity
  8
CURVE
100
AcDbLine
 62
7
  6
CONTINUOUS
 10
-0.4248975277
 20
4.8995345818
 11
-0.3294831352
 21
4.9949489743
  0
LINE
  5
4E8
100
AcDbEntity
  8
CURVE
100
AcDbLine
 62
7
  6
CONTINUOUS
 10
0.6705168648
 20
5.9949489743
 11
0.8567529917
 21
6.1811851012
  0
LINE
  5
4E9
100
AcDbEntity
  8
CURVE
100
AcDbLine
 62
7
  6
CONTINUOUS
 10
1.0262540145
 20
6.350686124
 11
1.2067589752
 21
6.5311910847
  0
LINE
  5
4EA
100
AcDbEntity
  8
CURVE
100
AcDbLine
 62
7
  6
CONTINUOUS
 10
1.2403808805
 20
6.56481299
 11
1.5139315189
 21
6.8383636284
  0
LINE
  5
4EB
100
AcDbEntity
  8
CURVE
100
AcDbLine
 62
7
  6
CONTINUOUS
 10
1.5842428207
 20
6.9086749303
 11
1.8154842854
 21
7.1399163949
  0
LINE
  5
4EC
100
AcDbEntity
  8
CURVE
100
AcDbLine
 62
7
  6
CONTINUOUS
 10
2.0610501766
 20
7.3854822861
 11
2.1705168648
 21
7.4949489743
  0
LINE
  5
4ED
100
AcDbEntity
  8
CURVE
100
AcDbLine
 62
7
  6
CONTINUOUS
 10
3.1518059433
 20
8.4762380528
 11
3.66098001
 21
8.9854121195
  0
LINE
  5
4EE
100
AcDbEntity
  8
CURVE
100
AcDbLine
 62
7
  6
CONTINUOUS
 10
-5.9929578737
 20
-1.0885471922
 11
-5.4006744554
 21
-0.496263774
  0
LINE
  5
4EF
100
AcDbEntity
  8
CURVE
100
AcDbLine
 62
7
  6
CONTINUOUS
 10
-5.2919737072
 20
-0.3875630257
 11
-4.5269736696
 21
0.3774370119
  0
LINE
  5
4F0
100
AcDbEntity
  8
CURVE
100
AcDbLine
 62
7
  6
CONTINUOUS
 10
-0.9490071866
 20
3.9554034949
 11
-0.7637656316
 21
4.1406450499
  0
LINE
  5
4F1
100
AcDbEntity
  8
CURVE
100
AcDbLine
 62
7
  6
CONTINUOUS
 10
-0.4879941994
 20
4.416416482
 11
-0.2200548172
 21
4.6843558643
  0
LINE
  5
4F2
100
AcDbEntity
  8
CURVE
100
AcDbLine
 62
7
  6
CONTINUOUS
 10
-0.0169849873
 20
4.8874256942
 11
0.0905382928
 21
4.9949489743
  0
LINE
  5
4F3
100
AcDbEntity
  8
CURVE
100
AcDbLine
 62
7
  6
CONTINUOUS
 10
1.0977662293
 20
6.0021769108
 11
1.4037617167
 21
6.3081723982
  0
LINE
  5
4F4
100
AcDbEntity
  8
CURVE
100
AcDbLine
 62
7
  6
CONTINUOUS
 10
1.5842428207
 20
6.4886535022
 11
1.8154842854
 21
6.7198949668
  0
LINE
  5
4F5
100
AcDbEntity
  8
CURVE
100
AcDbLine
 62
7
  6
CONTINUOUS
 10
2.0610501766
 20
6.9654608581
 11
2.3086631298
 21
7.2130738113
  0
LINE
  5
4F6
100
AcDbEntity
  8
CURVE
100
AcDbLine
 62
7
  6
CONTINUOUS
 10
-5.8446613951
 20
-1.3602721416
 11
-5.2833326352
 21
-0.7989433817
  0
LINE
  5
4F7
100
AcDbEntity
  8
CURVE
100
AcDbLine
 62
7
  6
CONTINUOUS
 10
-4.8719522792
 20
-0.3875630257
 11
-4.1069522685
 21
0.377436985
  0
LINE
  5
4F8
100
AcDbEntity
  8
CURVE
100
AcDbLine
 62
7
  6
CONTINUOUS
 10
-0.7772728119
 20
3.7071164415
 11
-0.6131506984
 21
3.8712385551
  0
LINE
  5
4F9
100
AcDbEntity
  8
CURVE
100
AcDbLine
 62
7
  6
CONTINUOUS
 10
-0.4330295164
 20
4.0513597371
 11
-0.2200548172
 21
4.2643344363
  0
LINE
  5
4FA
100
AcDbEntity
  8
CURVE
100
AcDbLine
 62
7
  6
CONTINUOUS
 10
-0.0169849873
 20
4.4674042662
 11
0.1976122856
 21
4.6820015391
  0
LINE
  5
4FB
100
AcDbEntity
  8
CURVE
100
AcDbLine
 62
7
  6
CONTINUOUS
 10
0.2941886376
 20
4.778577891
 11
0.5074874231
 21
4.9918766766
  0
LINE
  5
4FC
100
AcDbEntity
  8
CURVE
100
AcDbLine
 62
7
  6
CONTINUOUS
 10
1.5842428207
 20
6.0686320742
 11
1.8154842854
 21
6.2998735388
  0
LINE
  5
4FD
100
AcDbEntity
  8
CURVE
100
AcDbLine
 62
7
  6
CONTINUOUS
 10
2.0610501766
 20
6.5454394301
 11
2.4201777111
 21
6.9045669645
  0
LINE
  5
4FE
100
AcDbEntity
  8
CURVE
100
AcDbLine
 62
7
  6
CONTINUOUS
 10
2.79672575
 20
7.2811150034
 11
3.0105597208
 21
7.4949489743
  0
LINE
  5
4FF
100
AcDbEntity
  8
CURVE
100
AcDbLine
 62
7
  6
CONTINUOUS
 10
-5.6698362592
 20
-1.6054684337
 11
-5.1244423462
 21
-1.0600745207
  0
LINE
  5
500
100
AcDbEntity
  8
CURVE
100
AcDbLine
 62
7
  6
CONTINUOUS
 10
-4.4519308512
 20
-0.3875630257
 11
-3.93959
 21
0.1247778254
  0
LINE
  5
501
100
AcDbEntity
  8
CURVE
100
AcDbLine
 62
7
  6
CONTINUOUS
 10
-0.3694188512
 20
3.6949489743
 11
-0.2200548172
 21
3.8443130082
  0
LINE
  5
502
100
AcDbEntity
  8
CURVE
100
AcDbLine
 62
7
  6
CONTINUOUS
 10
-0.0169849873
 20
4.0473828382
 11
0.4139593933
 21
4.4783272188
  0
LINE
  5
503
100
AcDbEntity
  8
CURVE
100
AcDbLine
 62
7
  6
CONTINUOUS
 10
0.6100286751
 20
4.6743965005
 11
0.7790378413
 21
4.8434056668
  0
LINE
  5
504
100
AcDbEntity
  8
CURVE
100
AcDbLine
 62
7
  6
CONTINUOUS
 10
2.0610501766
 20
6.1254180021
 11
2.3086631298
 21
6.3730309552
  0
LINE
  5
505
100
AcDbEntity
  8
CURVE
100
AcDbLine
 62
7
  6
CONTINUOUS
 10
2.5864474588
 20
6.6508152843
 11
3.0443379879
 21
7.1087058133
  0
LINE
  5
506
100
AcDbEntity
  8
CURVE
100
AcDbLine
 62
7
  6
CONTINUOUS
 10
-5.4700362258
 20
-1.8256898283
 11
-4.9290625461
 21
-1.2847161487
  0
LINE
  5
507
100
AcDbEntity
  8
CURVE
100
AcDbLine
 62
7
  6
CONTINUOUS
 10
-4.0319094231
 20
-0.3875630257
 11
-3.93959
 21
-0.2952436026
  0
LINE
  5
508
100
AcDbEntity
  8
CURVE
100
AcDbLine
 62
7
  6
CONTINUOUS
 10
0.0506025769
 20
3.6949489743
 11
0.2705207191
 21
3.9148671165
  0
LINE
  5
509
100
AcDbEntity
  8
CURVE
100
AcDbLine
 62
7
  6
CONTINUOUS
 10
0.5860049176
 20
4.230351315
 11
0.7201810544
 21
4.3645274518
  0
LINE
  5
50A
100
AcDbEntity
  8
CURVE
100
AcDbLine
 62
7
  6
CONTINUOUS
 10
2.79672575
 20
6.4410721474
 11
3.0443379879
 21
6.6886843853
  0
LINE
  5
50B
100
AcDbEntity
  8
CURVE
100
AcDbLine
 62
7
  6
CONTINUOUS
 10
3.2366981506
 20
6.881044548
 11
3.4372328617
 21
7.0815792591
  0
LINE
  5
50C
100
AcDbEntity
  8
CURVE
100
AcDbLine
 62
7
  6
CONTINUOUS
 10
-5.2456890488
 20
-2.0213640794
 11
-4.6984839836
 21
-1.4741590142
  0
LINE
  5
50D
100
AcDbEntity
  8
CURVE
100
AcDbLine
 62
7
  6
CONTINUOUS
 10
0.4720729196
 20
3.696397889
 11
0.8750920053
 21
4.0994169747
  0
LINE
  5
50E
100
AcDbEntity
  8
CURVE
100
AcDbLine
 62
7
  6
CONTINUOUS
 10
0.9965894222
 20
4.2209143916
 11
1.0665312341
 21
4.2908562035
  0
LINE
  5
50F
100
AcDbEntity
  8
CURVE
100
AcDbLine
 62
7
  6
CONTINUOUS
 10
1.5507058433
 20
4.7750308126
 11
1.7706240049
 21
4.9949489743
  0
LINE
  5
510
100
AcDbEntity
  8
CURVE
100
AcDbLine
 62
7
  6
CONTINUOUS
 10
2.79672575
 20
6.0210507194
 11
3.0443379879
 21
6.2686629573
  0
LINE
  5
511
100
AcDbEntity
  8
CURVE
100
AcDbLine
 62
7
  6
CONTINUOUS
 10
3.622728031
 20
6.8470530004
 11
3.8572542897
 21
7.0815792591
  0
LINE
  5
512
100
AcDbEntity
  8
CURVE
100
AcDbLine
 62
7
  6
CONTINUOUS
 10
-4.996191271
 20
-2.1918877296
 11
-4.4308735501
 21
-1.6265700088
  0
LINE
  5
513
100
AcDbEntity
  8
CURVE
100
AcDbLine
 62
7
  6
CONTINUOUS
 10
1.2373712008
 20
4.0416747421
 11
1.3982944012
 21
4.2025979425
  0
LINE
  5
514
100
AcDbEntity
  8
CURVE
100
AcDbLine
 62
7
  6
CONTINUOUS
 10
1.9707272713
 20
4.7750308126
 11
2.1906454329
 21
4.9949489743
  0
LINE
  5
515
100
AcDbEntity
  8
CURVE
100
AcDbLine
 62
7
  6
CONTINUOUS
 10
3.2039558887
 20
6.0082594301
 11
3.723484809
 21
6.5277883504
  0
LINE
  5
516
100
AcDbEntity
  8
0
100
AcDbLine
 62
250
  6
CONTINUOUS
 10
15.65
 20
12.3806241395
 11
15.5317213624
 21
12.3147136894
  0
LINE
  5
517
100
AcDbEntity
  8
0
100
AcDbLine
 62
7
  6
CONTINUOUS
 10
-7.0
 20
-3.7550510257
 11
7.0
 21
-3.7550510257
  0
LINE
  5
518
100
AcDbEntity
  8
CURVE
100
AcDbLine
 62
250
  6
CONTINUOUS
 10
-0.5
 20
-2.2550510257
 11
-0.1698499322
 21
-2.2550510257
  0
LINE
  5
519
100
AcDbEntity
  8
CURVE
100
AcDbLine
 62
250
  6
CONTINUOUS
 10
0.150750339
 20
-2.2550510257
 11
0.4590722919
 21
-2.2550510257
  0
LINE
  5
51A
100
AcDbEntity
  8
CURVE
100
AcDbLine
 62
250
  6
CONTINUOUS
 10
1.1193724275
 20
-2.2550510257
 11
1.4522511363
 21
-2.2550510257
  0
LINE
  5
51B
100
AcDbEntity
  8
CURVE
100
AcDbLine
 62
250
  6
CONTINUOUS
 10
-4.929672569
 20
3.6949489743
 11
-5.357094118
 21
4.9949489743
  0
LINE
  5
51C
100
AcDbEntity
  8
CURVE
100
AcDbLine
 62
250
  6
CONTINUOUS
 10
-5.2568895221
 20
3.9893555299
 11
-5.1637789667
 21
3.6949489743
  0
LINE
  5
51D
100
AcDbEntity
  8
CURVE
100
AcDbLine
 62
250
  6
CONTINUOUS
 10
-5.4732605666
 20
4.6916747421
 11
-5.3260572791
 21
4.2092736721
  0
LINE
  5
51E
100
AcDbEntity
  8
CURVE
100
AcDbLine
 62
250
  6
CONTINUOUS
 10
-1.647203292
 20
9.9396965415
 11
-1.647203292
 21
8.4949489743
  0
LINE
  5
51F
100
AcDbEntity
  8
CURVE
100
AcDbLine
 62
250
  6
CONTINUOUS
 10
-1.2638471976
 20
8.4949489743
 11
-1.2638471976
 21
10.5031345994
  0
LINE
  5
520
100
AcDbEntity
  8
CURVE
100
AcDbLine
 62
250
  6
CONTINUOUS
 10
-1.1281037807
 20
4.7439940125
 11
-1.1281037807
 21
4.9772136599
  0
LINE
  5
521
100
AcDbEntity
  8
CURVE
100
AcDbLine
 62
250
  6
CONTINUOUS
 10
-0.5
 20
-0.2550510257
 11
-0.5
 21
-2.2550510257
  0
LINE
  5
522
100
AcDbEntity
  8
CURVE
100
AcDbLine
 62
250
  6
CONTINUOUS
 10
-0.4248975277
 20
4.9949489743
 11
-0.4248975277
 21
4.5276229292
  0
LINE
  5
523
100
AcDbEntity
  8
CURVE
100
AcDbLine
 62
250
  6
CONTINUOUS
 10
-0.409822464
 20
3.8332845852
 11
-0.409822464
 21
3.6949489743
  0
LINE
  5
524
100
AcDbEntity
  8
CURVE
100
AcDbLine
 62
250
  6
CONTINUOUS
 10
-0.2200548172
 20
3.6949489743
 11
-0.2200548172
 21
4.9949489743
  0
LINE
  5
525
100
AcDbEntity
  8
CURVE
100
AcDbLine
 62
250
  6
CONTINUOUS
 10
-0.1698499322
 20
-2.2550510257
 11
-0.1698499322
 21
-0.2550510257
  0
LINE
  5
526
100
AcDbEntity
  8
CURVE
100
AcDbLine
 62
250
  6
CONTINUOUS
 10
-0.0169849873
 20
4.9949489743
 11
-0.0169849873
 21
3.6949489743
  0
LINE
  5
527
100
AcDbEntity
  8
CURVE
100
AcDbLine
 62
250
  6
CONTINUOUS
 10
0.150750339
 20
-0.2550510257
 11
0.150750339
 21
-2.2550510257
  0
LINE
  5
528
100
AcDbEntity
  8
CURVE
100
AcDbLine
 62
250
  6
CONTINUOUS
 10
0.1976122856
 20
3.9148671165
 11
0.1976122856
 21
4.2615929038
  0
LINE
  5
529
100
AcDbEntity
  8
CURVE
100
AcDbLine
 62
250
  6
CONTINUOUS
 10
0.1976122856
 20
4.477963987
 11
0.1976122856
 21
4.778577891
  0
LINE
  5
52A
100
AcDbEntity
  8
CURVE
100
AcDbLine
 62
250
  6
CONTINUOUS
 10
1.3386762142
 20
5.9949489743
 11
1.5842428207
 21
7.1767361671
  0
LINE
  5
52B
100
AcDbEntity
  8
CURVE
100
AcDbLine
 62
250
  6
CONTINUOUS
 10
1.4420192242
 20
7.4949489743
 11
1.2199859619
 21
6.470733425
  0
LINE
  5
52C
100
AcDbEntity
  8
CURVE
100
AcDbLine
 62
250
  6
CONTINUOUS
 10
2.343116
 20
13.6835039743
 11
2.031349
 21
12.5702999743
  0
LINE
  5
52D
100
AcDbEntity
  8
CURVE
100
AcDbLine
 62
250
  6
CONTINUOUS
 10
1.903269
 20
12.1069239743
 11
1.730492
 21
11.5080899743
  0
LINE
  5
52E
100
AcDbEntity
  8
0
100
AcDbLine
 62
250
  6
CONTINUOUS
 10
10.1998755562
 20
16.7275533025
 11
9.5665305958
 21
15.7037902158
  0
LINE
  5
52F
100
AcDbEntity
  8
CURVE
100
AcDbLine
 62
250
  6
CONTINUOUS
 10
2.0208048344
 20
4.7750308126
 11
1.4612552166
 21
3.9317156807
  0
LINE
  5
530
100
AcDbEntity
  8
CURVE
100
AcDbLine
 62
250
  6
CONTINUOUS
 10
1.7210776806
 20
3.9148671165
 11
2.3045704842
 21
4.7909926266
  0
LINE
  5
531
100
AcDbEntity
  8
CURVE
100
AcDbLine
 62
250
  6
CONTINUOUS
 10
3.5375168324
 20
6.6866270215
 11
3.2039558887
 21
6.2190280915
  0
LINE
  5
532
100
AcDbEntity
  8
CURVE
100
AcDbLine
 62
250
  6
CONTINUOUS
 10
3.6316502094
 20
6.3991099507
 11
3.9733965397
 21
6.8779640109
  0
LINE
  5
533
100
AcDbEntity
  8
CURVE
100
AcDbLine
 62
250
  6
CONTINUOUS
 10
3.5129599571
 20
6.2405151338
 11
3.6316502094
 21
6.3991099507
  0
LINE
  5
534
100
AcDbEntity
  8
CURVE
100
AcDbLine
 62
7
  6
CONTINUOUS
 10
-4.7197733448
 20
-2.3354912315
 11
-4.1203406374
 21
-1.7360585241
  0
LINE
  5
535
100
AcDbEntity
  8
CURVE
100
AcDbLine
 62
7
  6
CONTINUOUS
 10
1.4612552166
 20
3.8455373299
 11
2.1009091346
 21
4.485191248
  0
LINE
  5
536
100
AcDbEntity
  8
CURVE
100
AcDbLine
 62
7
  6
CONTINUOUS
 10
3.6106668609
 20
5.9949489743
 11
3.8633953679
 21
6.2476774812
  0
LINE
  5
537
100
AcDbEntity
  8
CURVE
100
AcDbLine
 62
7
  6
CONTINUOUS
 10
-4.4130575709
 20
-2.4487968856
 11
-3.7530116088
 21
-1.7887509235
  0
LINE
  5
538
100
AcDbEntity
  8
CURVE
100
AcDbLine
 62
7
  6
CONTINUOUS
 10
1.730688289
 20
3.6949489743
 11
1.9506064312
 21
3.9148671165
  0
LINE
  5
539
100
AcDbEntity
  8
CURVE
100
AcDbLine
 62
7
  6
CONTINUOUS
 10
2.8321964741
 20
4.7964571594
 11
3.0129529746
 21
4.9772136599
  0
LINE
  5
53A
100
AcDbEntity
  8
CURVE
100
AcDbLine
 62
7
  6
CONTINUOUS
 10
-4.0700072831
 20
-2.5257680258
 11
-3.42959
 21
-1.8853507427
  0
LINE
  5
53B
100
AcDbEntity
  8
CURVE
100
AcDbLine
 62
7
  6
CONTINUOUS
 10
2.150709717
 20
3.6949489743
 11
2.3276259899
 21
3.8718652472
  0
LINE
  5
53C
100
AcDbEntity
  8
CURVE
100
AcDbLine
 62
7
  6
CONTINUOUS
 10
3.2015282557
 20
4.7457675129
 11
3.4329744026
 21
4.9772136599
  0
LINE
  5
53D
100
AcDbEntity
  8
CURVE
100
AcDbLine
 62
7
  6
CONTINUOUS
 10
-3.6792753519
 20
-2.5550575226
 11
-3.42959
 21
-2.3053721707
  0
LINE
  5
53E
100
AcDbEntity
  8
CURVE
100
AcDbLine
 62
7
  6
CONTINUOUS
 10
3.0449118132
 20
4.1691296424
 11
3.3397856834
 21
4.4640035126
  0
LINE
  5
53F
100
AcDbEntity
  8
CURVE
100
AcDbLine
 62
7
  6
CONTINUOUS
 10
3.781509011
 20
4.9057268403
 11
3.8529958306
 21
4.9772136599
  0
LINE
  5
540
100
AcDbEntity
  8
CURVE
100
AcDbLine
 62
7
  6
CONTINUOUS
 10
2.990752573
 20
3.6949489743
 11
3.1845313309
 21
3.8887277322
  0
LINE
  5
541
100
AcDbEntity
  8
CURVE
100
AcDbLine
 62
7
  6
CONTINUOUS
 10
3.7046679577
 20
4.408864359
 11
3.9317591636
 21
4.6359555649
  0
LINE
  5
542
100
AcDbEntity
  8
CURVE
100
AcDbLine
 62
7
  6
CONTINUOUS
 10
4.0397976113
 20
4.7439940125
 11
4.2730172587
 21
4.9772136599
  0
LINE
  5
543
100
AcDbEntity
  8
CURVE
100
AcDbLine
 62
7
  6
CONTINUOUS
 10
3.6755411594
 20
3.9597161326
 11
3.7572502463
 21
4.0414252195
  0
LINE
  5
544
100
AcDbEntity
  8
CURVE
100
AcDbLine
 62
7
  6
CONTINUOUS
 10
4.0698205441
 20
4.3539955174
 11
4.2235388813
 21
4.5077138545
  0
LINE
  5
545
100
AcDbEntity
  8
CURVE
100
AcDbLine
 62
7
  6
CONTINUOUS
 10
-0.5
 20
-0.6358464548
 11
-0.1698499322
 21
-0.305696387
  0
LINE
  5
546
100
AcDbEntity
  8
CURVE
100
AcDbLine
 62
7
  6
CONTINUOUS
 10
3.8486535983
 20
3.7128071435
 11
4.0093975177
 21
3.8735510629
  0
LINE
  5
547
100
AcDbEntity
  8
CURVE
100
AcDbLine
 62
7
  6
CONTINUOUS
 10
4.162403022
 20
4.0265565672
 11
4.3722178041
 21
4.2363713493
  0
LWPOLYLINE
  5
548
100
AcDbEntity
  8
0
100
AcDbPolyline
 62
7
  6
CONTINUOUS
 90
2
 70
0
 43
0.3500000006
 10
33.8999990158
 20
-1.0357139511
 10
32.400000824
 20
-1.0357139511
  0
LINE
  5
549
100
AcDbEntity
  8
CURVE
100
AcDbLine
 62
250
  6
CONTINUOUS
 10
-3.93959
 20
-0.3875630257
 11
-5.428126
 21
-0.3875630257
  0
LINE
  5
54A
100
AcDbEntity
  8
CURVE
100
AcDbLine
 62
250
  6
CONTINUOUS
 10
1.4522511363
 20
-0.2550510257
 11
1.1439290643
 21
-0.2550510257
  0
LINE
  5
54B
100
AcDbEntity
  8
CURVE
100
AcDbLine
 62
250
  6
CONTINUOUS
 10
0.4727148414
 20
-0.2550510257
 11
0.150750339
 21
-0.2550510257
  0
LINE
  5
54C
100
AcDbEntity
  8
CURVE
100
AcDbLine
 62
250
  6
CONTINUOUS
 10
-0.1698499322
 20
-0.2550510257
 11
-0.5
 21
-0.2550510257
  0
LINE
  5
54D
100
AcDbEntity
  8
0
100
AcDbLine
 62
250
  6
CONTINUOUS
 10
15.5317213624
 20
-0.0844897975
 11
14.5
 21
-0.084489819
  0
LINE
  5
54E
100
AcDbEntity
  8
0
100
AcDbLine
 62
250
  6
CONTINUOUS
 10
-15.5317213624
 20
-0.0844897975
 11
-14.5
 21
-0.0844897975
  0
LINE
  5
54F
100
AcDbEntity
  8
0
100
AcDbLine
 62
7
  6
CONTINUOUS
 10
-26.15
 20
0.0449489743
 11
-15.65
 21
0.0449489743
  0
LINE
  5
550
100
AcDbEntity
  8
0
100
AcDbLine
 62
7
  6
CONTINUOUS
 10
15.65
 20
0.0449489743
 11
26.15
 21
0.0449489743
  0
LINE
  5
551
100
AcDbEntity
  8
0
100
AcDbLine
 62
250
  6
CONTINUOUS
 10
-10.1998755562
 20
16.7275533025
 11
-9.5665305678
 21
15.7037902439
  0
LINE
  5
552
100
AcDbEntity
  8
CURVE
100
AcDbLine
 62
250
  6
CONTINUOUS
 10
0.4590722919
 20
-0.9508218854
 11
1.1193724275
 21
-2.2550510257
  0
LINE
  5
553
100
AcDbEntity
  8
CURVE
100
AcDbLine
 62
250
  6
CONTINUOUS
 10
-4.7409
 20
11.5080899743
 11
-5.691844
 21
14.5077289743
  0
LINE
  5
554
100
AcDbEntity
  8
CURVE
100
AcDbLine
 62
250
  6
CONTINUOUS
 10
-5.01166
 20
14.5077289743
 11
-4.439875
 21
12.4429839743
  0
LINE
  5
555
100
AcDbEntity
  8
CURVE
100
AcDbLine
 62
250
  6
CONTINUOUS
 10
0.732322
 20
14.5077289743
 11
1.012822
 21
11.5080899743
  0
LINE
  5
556
100
AcDbEntity
  8
CURVE
100
AcDbLine
 62
250
  6
CONTINUOUS
 10
0.400289
 20
11.5080899743
 11
0.271646
 21
13.4586319743
  0
LINE
  5
557
100
AcDbEntity
  8
CURVE
100
AcDbLine
 62
250
  6
CONTINUOUS
 10
0.4178034067
 20
5.9949489743
 11
0.4178034067
 21
6.2620021761
  0
LINE
  5
558
100
AcDbEntity
  8
CURVE
100
AcDbLine
 62
250
  6
CONTINUOUS
 10
0.4590722919
 20
-2.2550510257
 11
0.4590722919
 21
-0.9508218854
  0
LINE
  5
559
100
AcDbEntity
  8
CURVE
100
AcDbLine
 62
250
  6
CONTINUOUS
 10
0.6255115271
 20
7.4949489743
 11
0.6255115271
 21
5.9949489743
  0
LINE
  5
55A
100
AcDbEntity
  8
CURVE
100
AcDbLine
 62
250
  6
CONTINUOUS
 10
0.7961801633
 20
9.2330117137
 11
0.7961801633
 21
8.897404632
  0
LINE
  5
55B
100
AcDbEntity
  8
CURVE
100
AcDbLine
 62
250
  6
CONTINUOUS
 10
0.8567529917
 20
5.9949489743
 11
0.8567529917
 21
7.1767361671
  0
LINE
  5
55C
100
AcDbEntity
  8
CURVE
100
AcDbLine
 62
250
  6
CONTINUOUS
 10
0.9965894222
 20
4.2908562035
 11
0.9965894222
 21
4.0416747421
  0
LINE
  5
55D
100
AcDbEntity
  8
CURVE
100
AcDbLine
 62
250
  6
CONTINUOUS
 10
1.1439290643
 20
-0.2550510257
 11
1.1439290643
 21
-1.5906581372
  0
LINE
  5
55E
100
AcDbEntity
  8
CURVE
100
AcDbLine
 62
250
  6
CONTINUOUS
 10
1.3982944012
 20
4.0416747421
 11
1.3982944012
 21
4.2908562035
  0
LINE
  5
55F
100
AcDbEntity
  8
CURVE
100
AcDbLine
 62
250
  6
CONTINUOUS
 10
1.4522511363
 20
-2.2550510257
 11
1.4522511363
 21
-0.2550510257
  0
LINE
  5
560
100
AcDbEntity
  8
CURVE
100
AcDbLine
 62
250
  6
CONTINUOUS
 10
1.4612552166
 20
3.9317156807
 11
1.4612552166
 21
3.6949489743
  0
LINE
  5
561
100
AcDbEntity
  8
CURVE
100
AcDbLine
 62
250
  6
CONTINUOUS
 10
1.5242154121
 20
4.9949489743
 11
1.5242154121
 21
4.7750308126
  0
LINE
  5
562
100
AcDbEntity
  8
CURVE
100
AcDbLine
 62
250
  6
CONTINUOUS
 10
1.5842428207
 20
7.1767361671
 11
1.5842428207
 21
5.9949489743
  0
LINE
  5
563
100
AcDbEntity
  8
CURVE
100
AcDbLine
 62
250
  6
CONTINUOUS
 10
1.6147340879
 20
9.9178684861
 11
1.6147340879
 21
9.2343760044
  0
LINE
  5
564
100
AcDbEntity
  8
CURVE
100
AcDbLine
 62
250
  6
CONTINUOUS
 10
1.6147340879
 20
8.897404632
 11
1.6147340879
 21
8.4949489743
  0
LINE
  5
565
100
AcDbEntity
  8
CURVE
100
AcDbLine
 62
250
  6
CONTINUOUS
 10
1.8154842854
 20
5.9949489743
 11
1.8154842854
 21
7.4949489743
  0
LINE
  5
566
100
AcDbEntity
  8
CURVE
100
AcDbLine
 62
250
  6
CONTINUOUS
 10
1.9858116254
 20
8.4949489743
 11
1.9858116254
 21
8.897404632
  0
LINE
  5
567
100
AcDbEntity
  8
CURVE
100
AcDbLine
 62
250
  6
CONTINUOUS
 10
1.9858116254
 20
9.2343760044
 11
1.9858116254
 21
10.5031345994
  0
LINE
  5
568
100
AcDbEntity
  8
CURVE
100
AcDbLine
 62
250
  6
CONTINUOUS
 10
2.0610501766
 20
7.4949489743
 11
2.0610501766
 21
5.9949489743
  0
LINE
  5
569
100
AcDbEntity
  8
CURVE
100
AcDbLine
 62
250
  6
CONTINUOUS
 10
2.2341064557
 20
8.897404632
 11
2.2341064557
 21
9.2343760044
  0
LINE
  5
56A
100
AcDbEntity
  8
CURVE
100
AcDbLine
 62
250
  6
CONTINUOUS
 10
2.3045704842
 20
4.7909926266
 11
2.3045704842
 21
4.9949489743
  0
LINE
  5
56B
100
AcDbEntity
  8
CURVE
100
AcDbLine
 62
250
  6
CONTINUOUS
 10
2.3086631298
 20
5.9949489743
 11
2.3086631298
 21
6.6508152843
  0
LINE
  5
56C
100
AcDbEntity
  8
CURVE
100
AcDbLine
 62
250
  6
CONTINUOUS
 10
2.3086631298
 20
6.9045669645
 11
2.3086631298
 21
7.4949489743
  0
LINE
  5
56D
100
AcDbEntity
  8
CURVE
100
AcDbLine
 62
250
  6
CONTINUOUS
 10
2.3276259899
 20
3.6949489743
 11
2.3276259899
 21
3.9148671165
  0
LINE
  5
56E
100
AcDbEntity
  8
CURVE
100
AcDbLine
 62
7
  6
CONTINUOUS
 10
-0.5
 20
-1.0558678828
 11
-0.1698499322
 21
-0.725717815
  0
LINE
  5
56F
100
AcDbEntity
  8
CURVE
100
AcDbLine
 62
7
  6
CONTINUOUS
 10
0.150750339
 20
-0.4051175438
 11
0.3008168571
 21
-0.2550510257
  0
LINE
  5
570
100
AcDbEntity
  8
CURVE
100
AcDbLine
 62
7
  6
CONTINUOUS
 10
4.9103951295
 20
4.3545272466
 11
5.5822111784
 21
5.0263432956
  0
LINE
  5
571
100
AcDbEntity
  8
CURVE
100
AcDbLine
 62
7
  6
CONTINUOUS
 10
-0.5
 20
-1.4758893109
 11
-0.1698499322
 21
-1.1457392431
  0
LINE
  5
572
100
AcDbEntity
  8
CURVE
100
AcDbLine
 62
7
  6
CONTINUOUS
 10
0.150750339
 20
-0.8251389718
 11
0.5557037859
 21
-0.4201855249
  0
LINE
  5
573
100
AcDbEntity
  8
CURVE
100
AcDbLine
 62
7
  6
CONTINUOUS
 10
5.0211086961
 20
4.0452193852
 11
5.204010513
 21
4.2281212021
  0
LINE
  5
574
100
AcDbEntity
  8
CURVE
100
AcDbLine
 62
7
  6
CONTINUOUS
 10
5.7442218451
 20
4.7683325343
 11
5.9117010165
 21
4.9358117056
  0
LINE
  5
575
100
AcDbEntity
  8
CURVE
100
AcDbLine
 62
7
  6
CONTINUOUS
 10
-0.5
 20
-1.8959107389
 11
-0.1698499322
 21
-1.5657606711
  0
LINE
  5
576
100
AcDbEntity
  8
CURVE
100
AcDbLine
 62
7
  6
CONTINUOUS
 10
0.150750339
 20
-1.2451603999
 11
0.6961868233
 21
-0.6997239156
  0
LINE
  5
577
100
AcDbEntity
  8
CURVE
100
AcDbLine
 62
7
  6
CONTINUOUS
 10
5.0908597132
 20
3.6949489743
 11
5.3637182287
 21
3.9678074898
  0
LINE
  5
578
100
AcDbEntity
  8
CURVE
100
AcDbLine
 62
7
  6
CONTINUOUS
 10
5.8915040829
 20
4.495593344
 11
6.1097823114
 21
4.7138715725
  0
LINE
  5
579
100
AcDbEntity
  8
CURVE
100
AcDbLine
 62
7
  6
CONTINUOUS
 10
-0.4391188588
 20
-2.2550510257
 11
-0.1698499322
 21
-1.9857820991
  0
LINE
  5
57A
100
AcDbEntity
  8
CURVE
100
AcDbLine
 62
7
  6
CONTINUOUS
 10
0.150750339
 20
-1.6651818279
 11
0.4590722919
 21
-1.3568598751
  0
LINE
  5
57B
100
AcDbEntity
  8
CURVE
100
AcDbLine
 62
7
  6
CONTINUOUS
 10
0.5955461754
 20
-1.2203859915
 11
0.8366698606
 21
-0.9792623063
  0
LINE
  5
57C
100
AcDbEntity
  8
CURVE
100
AcDbLine
 62
7
  6
CONTINUOUS
 10
1.1439290643
 20
-0.6720031026
 11
1.4522511363
 21
-0.3636810306
  0
LINE
  5
57D
100
AcDbEntity
  8
CURVE
100
AcDbLine
 62
7
  6
CONTINUOUS
 10
5.6272846222
 20
3.8113524553
 11
6.1765596664
 21
4.3606274995
  0
LINE
  5
57E
100
AcDbEntity
  8
CURVE
100
AcDbLine
 62
7
  6
CONTINUOUS
 10
0.150750339
 20
-2.0852032559
 11
0.4590722919
 21
-1.7768813031
  0
LINE
  5
57F
100
AcDbEntity
  8
CURVE
100
AcDbLine
 62
7
  6
CONTINUOUS
 10
0.7367200481
 20
-1.4992335469
 11
0.9771528979
 21
-1.258800697
  0
LINE
  5
580
100
AcDbEntity
  8
CURVE
100
AcDbLine
 62
7
  6
CONTINUOUS
 10
1.1439290643
 20
-1.0920245307
 11
1.4522511363
 21
-0.7837024586
  0
LINE
  5
581
100
AcDbEntity
  8
CURVE
100
AcDbLine
 62
7
  6
CONTINUOUS
 10
5.9309025692
 20
3.6949489743
 11
6.1357456865
 21
3.8997920916
  0
LINE
  5
582
100
AcDbEntity
  8
CURVE
100
AcDbLine
 62
7
  6
CONTINUOUS
 10
0.4009239972
 20
-2.2550510257
 11
0.4590722919
 21
-2.1969027311
  0
LINE
  5
583
100
AcDbEntity
  8
CURVE
100
AcDbLine
 62
7
  6
CONTINUOUS
 10
0.8778939208
 20
-1.7780811022
 11
1.1176359352
 21
-1.5383390877
  0
LINE
  5
584
100
AcDbEntity
  8
CURVE
100
AcDbLine
 62
7
  6
CONTINUOUS
 10
1.1439290643
 20
-1.5120459587
 11
1.4522511363
 21
-1.2037238867
  0
LINE
  5
585
100
AcDbEntity
  8
CURVE
100
AcDbLine
 62
7
  6
CONTINUOUS
 10
1.0190677935
 20
-2.0569286575
 11
1.4522511363
 21
-1.6237453147
  0
LINE
  5
586
100
AcDbEntity
  8
CURVE
100
AcDbLine
 62
7
  6
CONTINUOUS
 10
11.0
 20
7.924003549
 11
11.2598950624
 21
8.1838986114
  0
LINE
  5
587
100
AcDbEntity
  8
CURVE
100
AcDbLine
 62
250
  6
CONTINUOUS
 10
-3.93959
 20
0.3774369743
 11
-5.428126
 21
0.3774369743
  0
LINE
  5
588
100
AcDbEntity
  8
CURVE
100
AcDbLine
 62
250
  6
CONTINUOUS
 10
1.1439290643
 20
-1.5906581372
 11
0.4727148414
 21
-0.2550510257
  0
LINE
  5
589
100
AcDbEntity
  8
CURVE
100
AcDbLine
 62
250
  6
CONTINUOUS
 10
0.8567529917
 20
7.1767361671
 11
1.0992493629
 21
5.9949489743
  0
LINE
  5
58A
100
AcDbEntity
  8
CURVE
100
AcDbLine
 62
250
  6
CONTINUOUS
 10
2.79672575
 20
7.4949489743
 11
2.79672575
 21
6.9045669645
  0
LINE
  5
58B
100
AcDbEntity
  8
CURVE
100
AcDbLine
 62
250
  6
CONTINUOUS
 10
2.79672575
 20
6.6508152843
 11
2.79672575
 21
5.9949489743
  0
LINE
  5
58C
100
AcDbEntity
  8
CURVE
100
AcDbLine
 62
250
  6
CONTINUOUS
 10
2.8321964741
 20
4.9772136599
 11
2.8321964741
 21
4.7457675129
  0
LINE
  5
58D
100
AcDbEntity
  8
CURVE
100
AcDbLine
 62
250
  6
CONTINUOUS
 10
3.0443379879
 20
5.9949489743
 11
3.0443379879
 21
7.4949489743
  0
LINE
  5
58E
100
AcDbEntity
  8
CURVE
100
AcDbLine
 62
250
  6
CONTINUOUS
 10
3.2039558887
 20
6.2190280915
 11
3.2039558887
 21
5.9949489743
  0
LINE
  5
58F
100
AcDbEntity
  8
CURVE
100
AcDbLine
 62
250
  6
CONTINUOUS
 10
3.2366981506
 20
7.0815792591
 11
3.2366981506
 21
6.8431754023
  0
LINE
  5
590
100
AcDbEntity
  8
CURVE
100
AcDbLine
 62
250
  6
CONTINUOUS
 10
3.5309686661
 20
4.7963132054
 11
3.5309686661
 21
4.9772136599
  0
LINE
  5
591
100
AcDbEntity
  8
CURVE
100
AcDbLine
 62
250
  6
CONTINUOUS
 10
3.7619682236
 20
14.4726828983
 11
3.7619682236
 21
11.508089521
  0
LINE
  5
592
100
AcDbEntity
  8
CURVE
100
AcDbLine
 62
250
  6
CONTINUOUS
 10
3.9733965397
 20
6.8779640109
 11
3.9733965397
 21
7.0815792591
  0
LINE
  5
593
100
AcDbEntity
  8
CURVE
100
AcDbLine
 62
250
  6
CONTINUOUS
 10
3.9999997616
 20
5.9949489743
 11
3.9999997616
 21
6.2476774812
  0
LINE
  5
594
100
AcDbEntity
  8
CURVE
100
AcDbLine
 62
250
  6
CONTINUOUS
 10
4.3326057434
 20
4.7439940125
 11
4.3326057434
 21
4.9772136599
  0
LINE
  5
595
100
AcDbEntity
  8
CURVE
100
AcDbLine
 62
250
  6
CONTINUOUS
 10
4.3648292358
 20
13.1732509758
 11
4.3648292358
 21
13.9967103966
  0
LINE
  5
596
100
AcDbEntity
  8
CURVE
100
AcDbLine
 62
250
  6
CONTINUOUS
 10
4.3855911743
 20
11.508089521
 11
4.3855911743
 21
12.6819825714
  0
LINE
  5
597
100
AcDbEntity
  8
CURVE
100
AcDbLine
 62
250
  6
CONTINUOUS
 10
3.9149386406
 20
4.5223023504
 11
3.9477487087
 21
4.7439940125
  0
LINE
  5
598
100
AcDbEntity
  8
CURVE
100
AcDbLine
 62
250
  6
CONTINUOUS
 10
3.7925646305
 20
4.9772136599
 11
3.6879262447
 21
4.3006106496
  0
LINE
  5
599
100
AcDbEntity
  8
0
100
AcDbLine
 62
250
  6
CONTINUOUS
 10
9.1478228444
 20
17.0266703367
 11
9.1814515351
 21
17.1449489743
  0
LINE
  5
59A
100
AcDbEntity
  8
CURVE
100
AcDbLine
 62
7
  6
CONTINUOUS
 10
1.2409668533
 20
-2.2550510257
 11
1.4522511363
 21
-2.0437667427
  0
LINE
  5
59B
100
AcDbEntity
  8
CURVE
100
AcDbLine
 62
7
  6
CONTINUOUS
 10
11.0
 20
7.503982121
 11
11.3383356333
 21
7.8423177543
  0
LINE
  5
59C
100
AcDbEntity
  8
CURVE
100
AcDbLine
 62
7
  6
CONTINUOUS
 10
11.0
 20
7.083960693
 11
11.6142625835
 21
7.6982232765
  0
LINE
  5
59D
100
AcDbEntity
  8
CURVE
100
AcDbLine
 62
7
  6
CONTINUOUS
 10
11.2170943181
 20
6.881033583
 11
11.3383356333
 21
7.0022748982
  0
LINE
  5
59E
100
AcDbEntity
  8
CURVE
100
AcDbLine
 62
7
  6
CONTINUOUS
 10
11.7041338841
 20
7.3680731491
 11
12.0342840115
 21
7.6982232765
  0
LINE
  5
59F
100
AcDbEntity
  8
CURVE
100
AcDbLine
 62
7
  6
CONTINUOUS
 10
11.0764062696
 20
6.3203241065
 11
11.406556397
 21
6.650474234
  0
LINE
  5
5A0
100
AcDbEntity
  8
CURVE
100
AcDbLine
 62
7
  6
CONTINUOUS
 10
12.1241553121
 20
7.3680731491
 11
12.4543054395
 21
7.6982232765
  0
LINE
  5
5A1
100
AcDbEntity
  8
CURVE
100
AcDbLine
 62
7
  6
CONTINUOUS
 10
11.4964276976
 20
6.3203241065
 11
11.8265778251
 21
6.650474234
  0
LINE
  5
5A2
100
AcDbEntity
  8
CURVE
100
AcDbLine
 62
7
  6
CONTINUOUS
 10
12.5441767402
 20
7.3680731491
 11
12.8743268676
 21
7.6982232765
  0
LINE
  5
5A3
100
AcDbEntity
  8
CURVE
100
AcDbLine
 62
7
  6
CONTINUOUS
 10
11.0
 20
5.4038749809
 11
11.2684274277
 21
5.6723024085
  0
LINE
  5
5A4
100
AcDbEntity
  8
CURVE
100
AcDbLine
 62
7
  6
CONTINUOUS
 10
11.9164491257
 20
6.3203241065
 11
12.2435023823
 21
6.6473773631
  0
LINE
  5
5A5
100
AcDbEntity
  8
CURVE
100
AcDbLine
 62
7
  6
CONTINUOUS
 10
12.9641981682
 20
7.3680731491
 11
13.0
 21
7.4038749809
  0
LINE
  5
5A6
100
AcDbEntity
  8
CURVE
100
AcDbLine
 62
7
  6
CONTINUOUS
 10
11.3582987283
 20
5.3421522811
 11
11.6884488557
 21
5.6723024085
  0
LINE
  5
5A7
100
AcDbEntity
  8
CURVE
100
AcDbLine
 62
7
  6
CONTINUOUS
 10
12.3308618723
 20
6.3147154252
 11
12.6247367428
 21
6.6085902957
  0
LINE
  5
5A8
100
AcDbEntity
  8
CURVE
100
AcDbLine
 62
250
  6
CONTINUOUS
 10
-2.8519781351
 20
4.0682777524
 11
-3.0497271538
 21
4.0390144527
  0
LINE
  5
5A9
100
AcDbEntity
  8
CURVE
100
AcDbLine
 62
250
  6
CONTINUOUS
 10
3.867939949
 20
4.0558630169
 11
3.6639836788
 21
4.0292600066
  0
LINE
  5
5AA
100
AcDbEntity
  8
CURVE
100
AcDbLine
 62
250
  6
CONTINUOUS
 10
-1.5927695751
 20
4.0558630169
 11
-1.7967258453
 21
4.0292600066
  0
LINE
  5
5AB
100
AcDbEntity
  8
CURVE
100
AcDbLine
 62
250
  6
CONTINUOUS
 10
6.1327415466
 20
3.8997920916
 11
5.8401096344
 21
3.8802832186
  0
LINE
  5
5AC
100
AcDbEntity
  8
CURVE
100
AcDbLine
 62
250
  6
CONTINUOUS
 10
-6.0
 20
3.6949489743
 11
-5.7712141812
 21
3.6949489743
  0
LINE
  5
5AD
100
AcDbEntity
  8
CURVE
100
AcDbLine
 62
250
  6
CONTINUOUS
 10
-5.1637789667
 20
3.6949489743
 11
-4.929672569
 21
3.6949489743
  0
LINE
  5
5AE
100
AcDbEntity
  8
CURVE
100
AcDbLine
 62
250
  6
CONTINUOUS
 10
-3.82653476
 20
3.6949489743
 11
-3.6225784898
 21
3.6949489743
  0
LINE
  5
5AF
100
AcDbEntity
  8
CURVE
100
AcDbLine
 62
250
  6
CONTINUOUS
 10
-2.1700545073
 20
3.6949489743
 11
-1.966098237
 21
3.6949489743
  0
LINE
  5
5B0
100
AcDbEntity
  8
CURVE
100
AcDbLine
 62
250
  6
CONTINUOUS
 10
-0.409822464
 20
3.6949489743
 11
-0.2200548172
 21
3.6949489743
  0
LINE
  5
5B1
100
AcDbEntity
  8
CURVE
100
AcDbLine
 62
250
  6
CONTINUOUS
 10
-0.0169849873
 20
3.6949489743
 11
0.3457023621
 21
3.6949489743
  0
LINE
  5
5B2
100
AcDbEntity
  8
CURVE
100
AcDbLine
 62
250
  6
CONTINUOUS
 10
1.4612552166
 20
3.6949489743
 11
2.3276259899
 21
3.6949489743
  0
LINE
  5
5B3
100
AcDbEntity
  8
CURVE
100
AcDbLine
 62
250
  6
CONTINUOUS
 10
2.9749660492
 20
3.6949489743
 11
3.1718283176
 21
3.6949489743
  0
LINE
  5
5B4
100
AcDbEntity
  8
CURVE
100
AcDbLine
 62
250
  6
CONTINUOUS
 10
4.8886083603
 20
3.6949489743
 11
5.460573101
 21
3.6949489743
  0
LINE
  5
5B5
100
AcDbEntity
  8
CURVE
100
AcDbLine
 62
250
  6
CONTINUOUS
 10
5.6272846222
 20
3.6949489743
 11
6.1965888023
 21
3.6949489743
  0
LINE
  5
5B6
100
AcDbEntity
  8
CURVE
100
AcDbLine
 62
250
  6
CONTINUOUS
 10
-11.3383356333
 20
3.8059993372
 11
-11.0
 21
3.8059993372
  0
LINE
  5
5B7
100
AcDbEntity
  8
CURVE
100
AcDbLine
 62
250
  6
CONTINUOUS
 10
6.1965888023
 20
3.8997920916
 11
6.1327415466
 21
3.8997920916
  0
LINE
  5
5B8
100
AcDbEntity
  8
CURVE
100
AcDbLine
 62
250
  6
CONTINUOUS
 10
4.9755117416
 20
3.8997920916
 11
4.8886083603
 21
3.8997920916
  0
LINE
  5
5B9
100
AcDbEntity
  8
CURVE
100
AcDbLine
 62
250
  6
CONTINUOUS
 10
2.3276259899
 20
3.9148671165
 11
1.7210776806
 21
3.9148671165
  0
LINE
  5
5BA
100
AcDbEntity
  8
CURVE
100
AcDbLine
 62
250
  6
CONTINUOUS
 10
0.3971351147
 20
3.9148671165
 11
0.1976122856
 21
3.9148671165
  0
LINE
  5
5BB
100
AcDbEntity
  8
CURVE
100
AcDbLine
 62
250
  6
CONTINUOUS
 10
-1.966098237
 20
3.9441304162
 11
-2.1700545073
 21
3.9441304162
  0
LINE
  5
5BC
100
AcDbEntity
  8
CURVE
100
AcDbLine
 62
250
  6
CONTINUOUS
 10
-3.6225784898
 20
3.9441304162
 11
-3.82653476
 21
3.9441304162
  0
LINE
  5
5BD
100
AcDbEntity
  8
CURVE
100
AcDbLine
 62
250
  6
CONTINUOUS
 10
-5.6834242821
 20
3.9893555299
 11
-5.2568895221
 21
3.9893555299
  0
LINE
  5
5BE
100
AcDbEntity
  8
CURVE
100
AcDbLine
 62
250
  6
CONTINUOUS
 10
0.9965894222
 20
4.0416747421
 11
1.3982944012
 21
4.0416747421
  0
LINE
  5
5BF
100
AcDbEntity
  8
CURVE
100
AcDbLine
 62
250
  6
CONTINUOUS
 10
-5.3260572791
 20
4.2092736721
 11
-5.6178035647
 21
4.2092736721
  0
LINE
  5
5C0
100
AcDbEntity
  8
CURVE
100
AcDbLine
 62
250
  6
CONTINUOUS
 10
0.1976122856
 20
4.2615929038
 11
0.3714190483
 21
4.2615929038
  0
LINE
  5
5C1
100
AcDbEntity
  8
CURVE
100
AcDbLine
 62
250
  6
CONTINUOUS
 10
1.3982944012
 20
4.2908562035
 11
0.9965894222
 21
4.2908562035
  0
LINE
  5
5C2
100
AcDbEntity
  8
CURVE
100
AcDbLine
 62
250
  6
CONTINUOUS
 10
-13.0
 20
4.2916746721
 11
-11.3383356333
 21
4.2916746721
  0
LINE
  5
5C3
100
AcDbEntity
  8
CURVE
100
AcDbLine
 62
250
  6
CONTINUOUS
 10
-4.9030695975
 20
4.4380594522
 11
-4.8090722919
 21
4.4380594522
  0
LINE
  5
5C4
100
AcDbEntity
  8
CURVE
100
AcDbLine
 62
250
  6
CONTINUOUS
 10
-4.6042292714
 20
4.4380594522
 11
-4.4650068521
 21
4.4380594522
  0
LINE
  5
5C5
100
AcDbEntity
  8
CURVE
100
AcDbLine
 62
250
  6
CONTINUOUS
 10
-4.407367003
 20
4.4380594522
 11
-4.3133697748
 21
4.4380594522
  0
LINE
  5
5C6
100
AcDbEntity
  8
CURVE
100
AcDbLine
 62
250
  6
CONTINUOUS
 10
-4.1085265994
 20
4.4380594522
 11
-3.9693041801
 21
4.4380594522
  0
LINE
  5
5C7
100
AcDbEntity
  8
CURVE
100
AcDbLine
 62
250
  6
CONTINUOUS
 10
0.3394954205
 20
4.477963987
 11
0.1976122856
 21
4.477963987
  0
LINE
  5
5C8
100
AcDbEntity
  8
CURVE
100
AcDbLine
 62
250
  6
CONTINUOUS
 10
5.2495222092
 20
3.8785096795
 11
4.9755117416
 21
3.8997920916
  0
LINE
  5
5C9
100
AcDbEntity
  8
CURVE
100
AcDbLine
 62
250
  6
CONTINUOUS
 10
-1.7727829695
 20
4.3006106496
 11
-1.6069575787
 21
4.2713473499
  0
LINE
  5
5CA
100
AcDbEntity
  8
CURVE
100
AcDbLine
 62
250
  6
CONTINUOUS
 10
-3.0346520901
 20
4.6597511918
 11
-2.8457708836
 21
4.6207334072
  0
LINE
  5
5CB
100
AcDbEntity
  8
0
100
AcDbLine
 62
250
  6
CONTINUOUS
 10
-15.5317213624
 20
12.3147136894
 11
-15.65
 21
12.3806241395
  0
LINE
  5
5CC
100
AcDbEntity
  8
CURVE
100
AcDbLine
 62
250
  6
CONTINUOUS
 10
-0.560654
 20
11.5080899743
 11
-1.295195
 21
13.4667969743
  0
LINE
  5
5CD
100
AcDbEntity
  8
CURVE
100
AcDbLine
 62
250
  6
CONTINUOUS
 10
-1.132856
 20
14.5077289743
 11
-0.513327
 21
12.8423199743
  0
LINE
  5
5CE
100
AcDbEntity
  8
CURVE
100
AcDbLine
 62
250
  6
CONTINUOUS
 10
1.2199859619
 20
6.470733425
 11
0.9959070683
 21
7.4949489743
  0
LINE
  5
5CF
100
AcDbEntity
  8
CURVE
100
AcDbLine
 62
250
  6
CONTINUOUS
 10
4.8886083603
 20
3.8997920916
 11
4.8886083603
 21
3.6949489743
  0
LINE
  5
5D0
100
AcDbEntity
  8
0
100
AcDbLine
 62
7
  6
CONTINUOUS
 10
5.0
 20
-5.1550510257
 11
5.0
 21
-16.6550510257
  0
LINE
  5
5D1
100
AcDbEntity
  8
CURVE
100
AcDbLine
 62
250
  6
CONTINUOUS
 10
5.3717495131
 20
12.9082944495
 11
5.3717495131
 21
12.9260197014
  0
LINE
  5
5D2
100
AcDbEntity
  8
CURVE
100
AcDbLine
 62
250
  6
CONTINUOUS
 10
5.460573101
 20
3.6949489743
 11
5.460573101
 21
3.9113200575
  0
LINE
  5
5D3
100
AcDbEntity
  8
CURVE
100
AcDbLine
 62
250
  6
CONTINUOUS
 10
5.6272846222
 20
3.9113200575
 11
5.6272846222
 21
3.6949489743
  0
LINE
  5
5D4
100
AcDbEntity
  8
CURVE
100
AcDbLine
 62
250
  6
CONTINUOUS
 10
6.1965888023
 20
3.6949489743
 11
6.1965888023
 21
3.8997920916
  0
LINE
  5
5D5
100
AcDbEntity
  8
0
100
AcDbLine
 62
250
  6
CONTINUOUS
 10
6.3325667714
 20
-5.0367723881
 11
6.3325667714
 21
-3.7550510257
  0
LINE
  5
5D6
100
AcDbEntity
  8
0
100
AcDbLine
 62
250
  6
CONTINUOUS
 10
10.1998755562
 20
16.7275533025
 11
10.233504247
 21
16.8458319401
  0
LINE
  5
5D7
100
AcDbEntity
  8
0
100
AcDbLine
 62
250
  6
CONTINUOUS
 10
14.584078684
 20
14.0152920456
 11
14.0497540677
 21
13.1515891557
  0
LINE
  5
5D8
100
AcDbEntity
  8
CURVE
100
AcDbLine
 62
7
  6
CONTINUOUS
 10
11.023533163
 20
4.5873652878
 11
11.4074222912
 21
4.971254416
  0
LINE
  5
5D9
100
AcDbEntity
  8
CURVE
100
AcDbLine
 62
7
  6
CONTINUOUS
 10
11.7783201563
 20
5.3421522811
 11
12.1085336425
 21
5.6723657673
  0
LINE
  5
5DA
100
AcDbEntity
  8
CURVE
100
AcDbLine
 62
7
  6
CONTINUOUS
 10
12.6349387079
 20
6.1987708327
 11
12.8902347673
 21
6.4540668921
  0
LINE
  5
5DB
100
AcDbEntity
  8
CURVE
100
AcDbLine
 62
7
  6
CONTINUOUS
 10
10.9809508926
 20
4.1247615894
 11
11.393105556
 21
4.5369162528
  0
LINE
  5
5DC
100
AcDbEntity
  8
CURVE
100
AcDbLine
 62
7
  6
CONTINUOUS
 10
11.4632577112
 20
4.607068408
 11
11.9404786171
 21
5.0842893139
  0
LINE
  5
5DD
100
AcDbEntity
  8
CURVE
100
AcDbLine
 62
7
  6
CONTINUOUS
 10
12.2000085402
 20
5.343819237
 11
13.0221587697
 21
6.1659694665
  0
LINE
  5
5DE
100
AcDbEntity
  8
CURVE
100
AcDbLine
 62
7
  6
CONTINUOUS
 10
11.1105955034
 20
3.8343847722
 11
11.3643954581
 21
4.0881847268
  0
LINE
  5
5DF
100
AcDbEntity
  8
CURVE
100
AcDbLine
 62
7
  6
CONTINUOUS
 10
12.0202815968
 20
4.7440708656
 11
12.3310351693
 21
5.0548244381
  0
LINE
  5
5E0
100
AcDbEntity
  8
CURVE
100
AcDbLine
 62
7
  6
CONTINUOUS
 10
12.681960025
 20
5.4057492938
 11
12.9893155946
 21
5.7131048633
  0
LINE
  5
5E1
100
AcDbEntity
  8
CURVE
100
AcDbLine
 62
7
  6
CONTINUOUS
 10
11.3396033957
 20
3.6433712364
 11
11.5949371271
 21
3.8987049678
  0
LINE
  5
5E2
100
AcDbEntity
  8
CURVE
100
AcDbLine
 62
7
  6
CONTINUOUS
 10
12.3830192915
 20
4.6867871322
 11
12.642105023
 21
4.9458728637
  0
LINE
  5
5E3
100
AcDbEntity
  8
CURVE
100
AcDbLine
 62
7
  6
CONTINUOUS
 10
11.6454404161
 20
3.5291868288
 11
11.9531092592
 21
3.8368556719
  0
LINE
  5
5E4
100
AcDbEntity
  8
CURVE
100
AcDbLine
 62
7
  6
CONTINUOUS
 10
12.6240023785
 20
4.5077487912
 11
12.8760106275
 21
4.7597570402
  0
LINE
  5
5E5
100
AcDbEntity
  8
CURVE
100
AcDbLine
 62
7
  6
CONTINUOUS
 10
12.0316935077
 20
3.4954184924
 11
12.4751162002
 21
3.9388411849
  0
LINE
  5
5E6
100
AcDbEntity
  8
CURVE
100
AcDbLine
 62
7
  6
CONTINUOUS
 10
12.640945838
 20
4.1046708227
 11
13.0140295639
 21
4.4777545486
  0
LINE
  5
5E7
100
AcDbEntity
  8
CURVE
100
AcDbLine
 62
7
  6
CONTINUOUS
 10
12.5411380588
 20
3.5848416154
 11
12.9977073122
 21
4.0414108689
  0
LINE
  5
5E8
100
AcDbEntity
  8
0
100
AcDbLine
 62
7
  6
CONTINUOUS
 10
14.5
 20
-0.9050510257
 11
7.0
 21
-3.7550510257
  0
LINE
  5
5E9
100
AcDbEntity
  8
CURVE
100
AcDbLine
 62
250
  6
CONTINUOUS
 10
-11.3383356333
 20
4.6218247995
 11
-13.0
 21
4.6218247995
  0
LINE
  5
5EA
100
AcDbEntity
  8
CURVE
100
AcDbLine
 62
250
  6
CONTINUOUS
 10
-3.9693041801
 20
4.6366952211
 11
-4.1085265994
 21
4.6366952211
  0
LINE
  5
5EB
100
AcDbEntity
  8
CURVE
100
AcDbLine
 62
250
  6
CONTINUOUS
 10
-4.3133697748
 20
4.6366952211
 11
-4.407367003
 21
4.6366952211
  0
LINE
  5
5EC
100
AcDbEntity
  8
CURVE
100
AcDbLine
 62
250
  6
CONTINUOUS
 10
-4.4650068521
 20
4.6366952211
 11
-4.6042292714
 21
4.6366952211
  0
LINE
  5
5ED
100
AcDbEntity
  8
CURVE
100
AcDbLine
 62
250
  6
CONTINUOUS
 10
-4.8090722919
 20
4.6366952211
 11
-4.9030695975
 21
4.6366952211
  0
LINE
  5
5EE
100
AcDbEntity
  8
CURVE
100
AcDbLine
 62
250
  6
CONTINUOUS
 10
-1.5129605055
 20
4.7439940125
 11
-1.1281037807
 21
4.7439940125
  0
LINE
  5
5EF
100
AcDbEntity
  8
CURVE
100
AcDbLine
 62
250
  6
CONTINUOUS
 10
3.9477487087
 20
4.7439940125
 11
4.3326057434
 21
4.7439940125
  0
LINE
  5
5F0
100
AcDbEntity
  8
CURVE
100
AcDbLine
 62
250
  6
CONTINUOUS
 10
2.8321964741
 20
4.7457675129
 11
3.2968622684
 21
4.7457675129
  0
LINE
  5
5F1
100
AcDbEntity
  8
CURVE
100
AcDbLine
 62
250
  6
CONTINUOUS
 10
1.5242154121
 20
4.7750308126
 11
2.0208048344
 21
4.7750308126
  0
LINE
  5
5F2
100
AcDbEntity
  8
CURVE
100
AcDbLine
 62
250
  6
CONTINUOUS
 10
0.1976122856
 20
4.778577891
 11
0.3217597961
 21
4.778577891
  0
LINE
  5
5F3
100
AcDbEntity
  8
CURVE
100
AcDbLine
 62
250
  6
CONTINUOUS
 10
4.3326057434
 20
4.9772136599
 11
3.7925646305
 21
4.9772136599
  0
LINE
  5
5F4
100
AcDbEntity
  8
CURVE
100
AcDbLine
 62
250
  6
CONTINUOUS
 10
3.5309686661
 20
4.9772136599
 11
2.8321964741
 21
4.9772136599
  0
LINE
  5
5F5
100
AcDbEntity
  8
CURVE
100
AcDbLine
 62
250
  6
CONTINUOUS
 10
-1.1281037807
 20
4.9772136599
 11
-1.6681445837
 21
4.9772136599
  0
LINE
  5
5F6
100
AcDbEntity
  8
CURVE
100
AcDbLine
 62
250
  6
CONTINUOUS
 10
2.3045704842
 20
4.9949489743
 11
1.5242154121
 21
4.9949489743
  0
LINE
  5
5F7
100
AcDbEntity
  8
CURVE
100
AcDbLine
 62
250
  6
CONTINUOUS
 10
0.4095496178
 20
4.9949489743
 11
-0.0169849873
 21
4.9949489743
  0
LINE
  5
5F8
100
AcDbEntity
  8
CURVE
100
AcDbLine
 62
250
  6
CONTINUOUS
 10
-0.2200548172
 20
4.9949489743
 11
-0.4248975277
 21
4.9949489743
  0
LINE
  5
5F9
100
AcDbEntity
  8
CURVE
100
AcDbLine
 62
250
  6
CONTINUOUS
 10
-5.357094118
 20
4.9949489743
 11
-5.5849931866
 21
4.9949489743
  0
LINE
  5
5FA
100
AcDbEntity
  8
CURVE
100
AcDbLine
 62
250
  6
CONTINUOUS
 10
-11.0
 20
5.1088643655
 11
-11.3383356333
 21
5.1088643655
  0
LINE
  5
5FB
100
AcDbEntity
  8
CURVE
100
AcDbLine
 62
250
  6
CONTINUOUS
 10
-12.0504775047
 20
5.3394237146
 11
-11.0
 21
5.3394237146
  0
LINE
  5
5FC
100
AcDbEntity
  8
CURVE
100
AcDbLine
 62
250
  6
CONTINUOUS
 10
11.0
 20
5.3421522811
 11
12.0668485761
 21
5.3421522811
  0
LINE
  5
5FD
100
AcDbEntity
  8
CURVE
100
AcDbLine
 62
250
  6
CONTINUOUS
 10
-11.0
 20
5.669573842
 11
-12.1064119935
 21
5.669573842
  0
LINE
  5
5FE
100
AcDbEntity
  8
CURVE
100
AcDbLine
 62
250
  6
CONTINUOUS
 10
12.0832196474
 20
5.6723024085
 11
11.0
 21
5.6723024085
  0
LINE
  5
5FF
100
AcDbEntity
  8
CURVE
100
AcDbLine
 62
250
  6
CONTINUOUS
 10
-4.3113917559
 20
5.9949489743
 11
-4.083219856
 21
5.9949489743
  0
LINE
  5
600
100
AcDbEntity
  8
CURVE
100
AcDbLine
 62
250
  6
CONTINUOUS
 10
-0.4089360237
 20
5.9949489743
 11
0.4178034067
 21
5.9949489743
  0
LINE
  5
601
100
AcDbEntity
  8
CURVE
100
AcDbLine
 62
250
  6
CONTINUOUS
 10
0.6255115271
 20
5.9949489743
 11
0.8567529917
 21
5.9949489743
  0
LINE
  5
602
100
AcDbEntity
  8
CURVE
100
AcDbLine
 62
250
  6
CONTINUOUS
 10
1.0992493629
 20
5.9949489743
 11
1.3386762142
 21
5.9949489743
  0
LINE
  5
603
100
AcDbEntity
  8
CURVE
100
AcDbLine
 62
250
  6
CONTINUOUS
 10
1.5842428207
 20
5.9949489743
 11
1.8154842854
 21
5.9949489743
  0
LINE
  5
604
100
AcDbEntity
  8
CURVE
100
AcDbLine
 62
250
  6
CONTINUOUS
 10
2.0610501766
 20
5.9949489743
 11
2.3086631298
 21
5.9949489743
  0
LINE
  5
605
100
AcDbEntity
  8
CURVE
100
AcDbLine
 62
250
  6
CONTINUOUS
 10
2.79672575
 20
5.9949489743
 11
3.0443379879
 21
5.9949489743
  0
LINE
  5
606
100
AcDbEntity
  8
CURVE
100
AcDbLine
 62
250
  6
CONTINUOUS
 10
3.2039558887
 20
5.9949489743
 11
3.9999997616
 21
5.9949489743
  0
LINE
  5
607
100
AcDbEntity
  8
CURVE
100
AcDbLine
 62
250
  6
CONTINUOUS
 10
3.9999997616
 20
6.2476774812
 11
3.6347200871
 21
6.2476774812
  0
LINE
  5
608
100
AcDbEntity
  8
CURVE
100
AcDbLine
 62
250
  6
CONTINUOUS
 10
0.4178034067
 20
6.2620021761
 11
-0.0508189201
 21
6.2620021761
  0
LINE
  5
609
100
AcDbEntity
  8
CURVE
100
AcDbLine
 62
250
  6
CONTINUOUS
 10
-4.8148024147
 20
6.2967907176
 11
-4.3113917559
 21
6.2967907176
  0
LINE
  5
60A
100
AcDbEntity
  8
CURVE
100
AcDbLine
 62
250
  6
CONTINUOUS
 10
-4.083219856
 20
6.2967907176
 11
-3.9307642579
 21
6.2967907176
  0
LINE
  5
60B
100
AcDbEntity
  8
CURVE
100
AcDbLine
 62
250
  6
CONTINUOUS
 10
-12.0832196474
 20
6.31759554
 11
-11.0
 21
6.31759554
  0
LINE
  5
60C
100
AcDbEntity
  8
CURVE
100
AcDbLine
 62
250
  6
CONTINUOUS
 10
11.0
 20
6.3203241065
 11
12.1064119935
 21
6.3203241065
  0
LINE
  5
60D
100
AcDbEntity
  8
CURVE
100
AcDbLine
 62
250
  6
CONTINUOUS
 10
-2.8809689283
 20
6.395017168
 11
-2.417462647
 21
6.395017168
  0
LINE
  5
60E
100
AcDbEntity
  8
CURVE
100
AcDbLine
 62
250
  6
CONTINUOUS
 10
-3.9307642579
 20
6.5495192468
 11
-4.083219856
 21
6.5495192468
  0
LINE
  5
60F
100
AcDbEntity
  8
CURVE
100
AcDbLine
 62
250
  6
CONTINUOUS
 10
-4.3113917559
 20
6.5495192468
 11
-4.5937928706
 21
6.5495192468
  0
LINE
  5
610
100
AcDbEntity
  8
CURVE
100
AcDbLine
 62
250
  6
CONTINUOUS
 10
3.6879262447
 20
4.3006106496
 11
3.8537519455
 21
4.2713473499
  0
LINE
  5
611
100
AcDbEntity
  8
0
100
AcDbLine
 62
250
  6
CONTINUOUS
 10
-14.584078684
 20
14.0152920456
 11
-14.7023573216
 21
14.0812024957
  0
LINE
  5
612
100
AcDbEntity
  8
0
100
AcDbLine
 62
250
  6
CONTINUOUS
 10
14.290794942
 20
-1.9346387927
 11
14.4090735796
 21
-2.013970288
  0
LINE
  5
613
100
AcDbEntity
  8
0
100
AcDbLine
 62
250
  6
CONTINUOUS
 10
7.0913357413
 20
-4.887225993
 11
6.6270167845
 21
-3.7550510257
  0
LINE
  5
614
100
AcDbEntity
  8
CURVE
100
AcDbLine
 62
250
  6
CONTINUOUS
 10
2.918174
 20
11.5080899743
 11
2.75597
 21
12.1069239743
  0
LINE
  5
615
100
AcDbEntity
  8
CURVE
100
AcDbLine
 62
250
  6
CONTINUOUS
 10
2.630836
 20
12.5702999743
 11
2.343116
 21
13.6835039743
  0
LINE
  5
616
100
AcDbEntity
  8
0
100
AcDbLine
 62
250
  6
CONTINUOUS
 10
6.3558784045
 20
-5.1550510257
 11
6.3325667714
 21
-5.0367723881
  0
LINE
  5
617
100
AcDbEntity
  8
0
100
AcDbLine
 62
250
  6
CONTINUOUS
 10
7.1146473745
 20
-5.0055046306
 11
7.0913357413
 21
-4.887225993
  0
LINE
  5
618
100
AcDbEntity
  8
0
100
AcDbLine
 62
250
  6
CONTINUOUS
 10
14.290794942
 20
-1.9346387927
 11
7.0913357413
 21
-4.887225993
  0
LINE
  5
619
100
AcDbEntity
  8
0
100
AcDbLine
 62
7
  6
CONTINUOUS
 10
14.4090735796
 20
-2.013970288
 11
7.1146473745
 21
-5.0055046306
  0
LINE
  5
61A
100
AcDbEntity
  8
CURVE
100
AcDbLine
 62
250
  6
CONTINUOUS
 10
-0.7639839649
 20
7.0969271273
 11
-0.5358120203
 21
7.1276229531
  0
LINE
  5
61B
100
AcDbEntity
  8
CURVE
100
AcDbLine
 62
250
  6
CONTINUOUS
 10
2.7961801633
 20
8.9983596117
 11
2.425102149
 21
8.9574319333
  0
LINE
  5
61C
100
AcDbEntity
  8
CURVE
100
AcDbLine
 62
250
  6
CONTINUOUS
 10
3.2366981506
 20
6.8431754023
 11
3.5497949123
 21
6.8452218384
  0
LINE
  5
61D
100
AcDbEntity
  8
CURVE
100
AcDbLine
 62
250
  6
CONTINUOUS
 10
-11.0
 20
6.6477456674
 11
-12.0668485761
 21
6.6477456674
  0
LINE
  5
61E
100
AcDbEntity
  8
CURVE
100
AcDbLine
 62
250
  6
CONTINUOUS
 10
12.0504775047
 20
6.650474234
 11
11.0
 21
6.650474234
  0
LINE
  5
61F
100
AcDbEntity
  8
CURVE
100
AcDbLine
 62
250
  6
CONTINUOUS
 10
2.3086631298
 20
6.6508152843
 11
2.79672575
 21
6.6508152843
  0
LINE
  5
620
100
AcDbEntity
  8
CURVE
100
AcDbLine
 62
250
  6
CONTINUOUS
 10
-2.417462647
 20
6.6825342387
 11
-2.8809689283
 21
6.6825342387
  0
LINE
  5
621
100
AcDbEntity
  8
CURVE
100
AcDbLine
 62
250
  6
CONTINUOUS
 10
11.0
 20
6.881033583
 11
11.3383356333
 21
6.881033583
  0
LINE
  5
622
100
AcDbEntity
  8
CURVE
100
AcDbLine
 62
250
  6
CONTINUOUS
 10
2.79672575
 20
6.9045669645
 11
2.3086631298
 21
6.9045669645
  0
LINE
  5
623
100
AcDbEntity
  8
CURVE
100
AcDbLine
 62
250
  6
CONTINUOUS
 10
3.9733965397
 20
7.0815792591
 11
3.2366981506
 21
7.0815792591
  0
LINE
  5
624
100
AcDbEntity
  8
CURVE
100
AcDbLine
 62
250
  6
CONTINUOUS
 10
11.3383356333
 20
7.3680731491
 11
13.0
 21
7.3680731491
  0
LINE
  5
625
100
AcDbEntity
  8
CURVE
100
AcDbLine
 62
250
  6
CONTINUOUS
 10
3.0443379879
 20
7.4949489743
 11
2.79672575
 21
7.4949489743
  0
LINE
  5
626
100
AcDbEntity
  8
CURVE
100
AcDbLine
 62
250
  6
CONTINUOUS
 10
2.3086631298
 20
7.4949489743
 11
2.0610501766
 21
7.4949489743
  0
LINE
  5
627
100
AcDbEntity
  8
CURVE
100
AcDbLine
 62
250
  6
CONTINUOUS
 10
1.8154842854
 20
7.4949489743
 11
1.4420192242
 21
7.4949489743
  0
LINE
  5
628
100
AcDbEntity
  8
CURVE
100
AcDbLine
 62
250
  6
CONTINUOUS
 10
0.9959070683
 20
7.4949489743
 11
0.6255115271
 21
7.4949489743
  0
LINE
  5
629
100
AcDbEntity
  8
CURVE
100
AcDbLine
 62
250
  6
CONTINUOUS
 10
-4.083219856
 20
7.5000650198
 11
-4.2817191929
 21
7.5000650198
  0
LINE
  5
62A
100
AcDbEntity
  8
CURVE
100
AcDbLine
 62
250
  6
CONTINUOUS
 10
13.0
 20
7.6982232765
 11
11.3383356333
 21
7.6982232765
  0
LINE
  5
62B
100
AcDbEntity
  8
CURVE
100
AcDbLine
 62
250
  6
CONTINUOUS
 10
11.3383356333
 20
8.1838986114
 11
11.0
 21
8.1838986114
  0
LINE
  5
62C
100
AcDbEntity
  8
CURVE
100
AcDbLine
 62
250
  6
CONTINUOUS
 10
-1.647203292
 20
8.4949489743
 11
-1.2638471976
 21
8.4949489743
  0
LINE
  5
62D
100
AcDbEntity
  8
CURVE
100
AcDbLine
 62
250
  6
CONTINUOUS
 10
1.6147340879
 20
8.4949489743
 11
1.9858116254
 21
8.4949489743
  0
LINE
  5
62E
100
AcDbEntity
  8
CURVE
100
AcDbLine
 62
250
  6
CONTINUOUS
 10
-0.3813099861
 20
7.0559994787
 11
-0.1469990015
 21
7.027350089
  0
LINE
  5
62F
100
AcDbEntity
  8
0
100
AcDbLine
 62
250
  6
CONTINUOUS
 10
15.5317213624
 20
-0.0844897975
 11
15.65
 21
-0.1638212928
  0
LINE
  5
630
100
AcDbEntity
  8
CURVE
100
AcDbLine
 62
250
  6
CONTINUOUS
 10
2.657739
 20
14.5077289743
 11
3.578102
 21
11.5080899743
  0
LINE
  5
631
100
AcDbEntity
  8
0
100
AcDbLine
 62
250
  6
CONTINUOUS
 10
9.1478228444
 20
17.0266703367
 11
9.1478228748
 21
15.7449489743
  0
LINE
  5
632
100
AcDbEntity
  8
CURVE
100
AcDbLine
 62
250
  6
CONTINUOUS
 10
0.236834918
 20
9.9642531783
 11
0.6079124555
 21
10.005180946
  0
LINE
  5
633
100
AcDbEntity
  8
CURVE
100
AcDbLine
 62
250
  6
CONTINUOUS
 10
0.7961801633
 20
8.897404632
 11
1.6147340879
 21
8.897404632
  0
LINE
  5
634
100
AcDbEntity
  8
CURVE
100
AcDbLine
 62
250
  6
CONTINUOUS
 10
1.9858116254
 20
8.897404632
 11
2.2341064557
 21
8.897404632
  0
LINE
  5
635
100
AcDbEntity
  8
CURVE
100
AcDbLine
 62
250
  6
CONTINUOUS
 10
2.2341064557
 20
9.2343760044
 11
1.9858116254
 21
9.2343760044
  0
LINE
  5
636
100
AcDbEntity
  8
CURVE
100
AcDbLine
 62
250
  6
CONTINUOUS
 10
1.6147340879
 20
9.2343760044
 11
1.1549796209
 21
9.2343760044
  0
LINE
  5
637
100
AcDbEntity
  8
CURVE
100
AcDbLine
 62
250
  6
CONTINUOUS
 10
1.9858116254
 20
10.5031345994
 11
1.6638473615
 21
10.5031345994
  0
LINE
  5
638
100
AcDbEntity
  8
CURVE
100
AcDbLine
 62
250
  6
CONTINUOUS
 10
-1.2638471976
 20
10.5031345994
 11
-1.5748976126
 21
10.5031345994
  0
LINE
  5
639
100
AcDbEntity
  8
CURVE
100
AcDbLine
 62
250
  6
CONTINUOUS
 10
11.0
 20
8.1838986114
 11
11.0
 21
6.881033583
  0
LINE
  5
63A
100
AcDbEntity
  8
CURVE
100
AcDbLine
 62
250
  6
CONTINUOUS
 10
11.0
 20
6.650474234
 11
11.0
 21
6.3203241065
  0
LINE
  5
63B
100
AcDbEntity
  8
CURVE
100
AcDbLine
 62
250
  6
CONTINUOUS
 10
11.0
 20
5.6723024085
 11
11.0
 21
5.3421522811
  0
LINE
  5
63C
100
AcDbEntity
  8
CURVE
100
AcDbLine
 62
250
  6
CONTINUOUS
 10
11.3383356333
 20
6.881033583
 11
11.3383356333
 21
7.3680731491
  0
LINE
  5
63D
100
AcDbEntity
  8
CURVE
100
AcDbLine
 62
250
  6
CONTINUOUS
 10
11.3383356333
 20
7.6982232765
 11
11.3383356333
 21
8.1838986114
  0
LINE
  5
63E
100
AcDbEntity
  8
CURVE
100
AcDbLine
 62
250
  6
CONTINUOUS
 10
-2.992545
 20
11.5080899743
 11
-2.366403
 21
11.5080899743
  0
LINE
  5
63F
100
AcDbEntity
  8
CURVE
100
AcDbLine
 62
250
  6
CONTINUOUS
 10
3.578102
 20
11.5080899743
 11
2.918174
 21
11.5080899743
  0
LINE
  5
640
100
AcDbEntity
  8
CURVE
100
AcDbLine
 62
250
  6
CONTINUOUS
 10
1.730492
 20
11.5080899743
 11
1.111143
 21
11.5080899743
  0
LINE
  5
641
100
AcDbEntity
  8
CURVE
100
AcDbLine
 62
250
  6
CONTINUOUS
 10
1.012822
 20
11.5080899743
 11
0.400289
 21
11.5080899743
  0
LINE
  5
642
100
AcDbEntity
  8
CURVE
100
AcDbLine
 62
250
  6
CONTINUOUS
 10
-0.472837
 20
11.5080899743
 11
-0.560654
 21
11.5080899743
  0
LINE
  5
643
100
AcDbEntity
  8
CURVE
100
AcDbLine
 62
250
  6
CONTINUOUS
 10
-1.430316
 20
11.5080899743
 11
-2.02933
 21
11.5080899743
  0
LINE
  5
644
100
AcDbEntity
  8
CURVE
100
AcDbLine
 62
250
  6
CONTINUOUS
 10
3.7619682236
 20
11.508089521
 11
4.3855911743
 21
11.508089521
  0
LINE
  5
645
100
AcDbEntity
  8
CURVE
100
AcDbLine
 62
250
  6
CONTINUOUS
 10
-4.189112
 20
11.5080899743
 11
-4.7409
 21
11.5080899743
  0
LINE
  5
646
100
AcDbEntity
  8
CURVE
100
AcDbLine
 62
250
  6
CONTINUOUS
 10
5.3444418279
 20
11.508089521
 11
5.9467179968
 21
11.508089521
  0
LINE
  5
647
100
AcDbEntity
  8
0
100
AcDbLine
 62
7
  6
CONTINUOUS
 10
-26.15
 20
11.9449489743
 11
-15.65
 21
11.9449489743
  0
LINE
  5
648
100
AcDbEntity
  8
0
100
AcDbLine
 62
7
  6
CONTINUOUS
 10
15.65
 20
11.9449489743
 11
26.15
 21
11.9449489743
  0
LINE
  5
649
100
AcDbEntity
  8
CURVE
100
AcDbLine
 62
250
  6
CONTINUOUS
 10
2.75597
 20
12.1069239743
 11
1.903269
 21
12.1069239743
  0
LINE
  5
64A
100
AcDbEntity
  8
0
100
AcDbLine
 62
250
  6
CONTINUOUS
 10
-15.5317213624
 20
12.3147136894
 11
-14.5
 21
12.3147137335
  0
LINE
  5
64B
100
AcDbEntity
  8
0
100
AcDbLine
 62
250
  6
CONTINUOUS
 10
15.5317213624
 20
12.3147136894
 11
14.5
 21
12.3147136894
  0
LINE
  5
64C
100
AcDbEntity
  8
CURVE
100
AcDbLine
 62
250
  6
CONTINUOUS
 10
2.031349
 20
12.5702999743
 11
2.630836
 21
12.5702999743
  0
LINE
  5
64D
100
AcDbEntity
  8
CURVE
100
AcDbLine
 62
250
  6
CONTINUOUS
 10
4.3855911743
 20
12.6819825714
 11
4.7213137446
 21
12.6819825714
  0
LWPOLYLINE
  5
64E
100
AcDbEntity
  8
0
100
AcDbPolyline
 62
7
  6
CONTINUOUS
 90
3
 70
0
 43
0.3500000006
 10
33.614285614
 20
1.0357133102
 10
33.8285723648
 20
0.9642866592
 10
34.1142857666
 20
0.8214288254
  0
LWPOLYLINE
  5
64F
100
AcDbEntity
  8
0
100
AcDbPolyline
 62
7
  6
CONTINUOUS
 90
10
 70
0
 43
0.3500000006
 10
0.8571428254
 20
26.3949501801
 10
0.9285714591
 20
26.2520923462
 10
0.9285714591
 20
26.1806611633
 10
0.7857142625
 20
26.0378078613
 10
0.7142856996
 20
26.0378078613
 10
0.6428571367
 20
26.1092345123
 10
0.6428571367
 20
26.1806611633
 10
0.7142856996
 20
26.3235189972
 10
0.7857142625
 20
26.3949501801
 10
0.8571428254
 20
26.3949501801
  0
LINE
  5
650
100
AcDbEntity
  8
0
100
AcDbLine
 62
250
  6
CONTINUOUS
 10
14.290794942
 20
-1.9346387927
 11
13.9536871425
 21
-1.1126499116
  0
LINE
  5
651
100
AcDbEntity
  8
CURVE
100
AcDbLine
 62
250
  6
CONTINUOUS
 10
13.0
 20
7.3680731491
 11
13.0
 21
7.6982232765
  0
LINE
  5
652
100
AcDbEntity
  8
0
100
AcDbLine
 62
7
  6
CONTINUOUS
 10
14.5
 20
-0.9050510257
 11
14.5
 21
12.8949489743
  0
LWPOLYLINE
  5
653
100
AcDbEntity
  8
0
100
AcDbPolyline
 62
7
  6
CONTINUOUS
 90
10
 70
0
 43
0.3500000006
 10
33.4000011292
 20
0.9642866592
 10
33.5428566971
 20
1.0357133102
 10
33.614285614
 20
1.0357133102
 10
33.7571434479
 20
0.8928577423
 10
33.7571434479
 20
0.8214288254
 10
33.6857145309
 20
0.7499999084
 10
33.614285614
 20
0.7499999084
 10
33.4714277802
 20
0.8214288254
 10
33.4000011292
 20
0.8928577423
 10
33.4000011292
 20
0.9642866592
  0
LINE
  5
654
100
AcDbEntity
  8
CURVE
100
AcDbLine
 62
250
  6
CONTINUOUS
 10
4.7226633831
 20
13.1732509758
 11
4.3648292358
 21
13.1732509758
  0
LINE
  5
655
100
AcDbEntity
  8
CURVE
100
AcDbLine
 62
250
  6
CONTINUOUS
 10
-5.691844
 20
14.5077289743
 11
-5.01166
 21
14.5077289743
  0
LINE
  5
656
100
AcDbEntity
  8
CURVE
100
AcDbLine
 62
250
  6
CONTINUOUS
 10
-3.850623
 20
14.5077289743
 11
-3.224908
 21
14.5077289743
  0
LINE
  5
657
100
AcDbEntity
  8
CURVE
100
AcDbLine
 62
250
  6
CONTINUOUS
 10
-1.758481
 20
14.5077289743
 11
-1.132856
 21
14.5077289743
  0
LINE
  5
658
100
AcDbEntity
  8
CURVE
100
AcDbLine
 62
250
  6
CONTINUOUS
 10
0.112816
 20
14.5077289743
 11
0.732322
 21
14.5077289743
  0
LINE
  5
659
100
AcDbEntity
  8
CURVE
100
AcDbLine
 62
250
  6
CONTINUOUS
 10
2.052021
 20
14.5077289743
 11
2.657739
 21
14.5077289743
  0
LINE
  5
65A
100
AcDbEntity
  8
CURVE
100
AcDbLine
 62
250
  6
CONTINUOUS
 10
-2.366403
 20
14.5079089743
 11
-2.992545
 21
14.5079089743
  0
LINE
  5
65B
100
AcDbEntity
  8
0
100
AcDbLine
 62
250
  6
CONTINUOUS
 10
15.5317213624
 20
12.3147136894
 11
15.5317213624
 21
-0.0844897975
  0
LINE
  5
65C
100
AcDbEntity
  8
0
100
AcDbLine
 62
7
  6
CONTINUOUS
 10
15.65
 20
-0.1638212928
 11
15.65
 21
0.0449489743
  0
LINE
  5
65D
100
AcDbEntity
  8
0
100
AcDbLine
 62
7
  6
CONTINUOUS
 10
15.65
 20
11.9449489743
 11
15.65
 21
12.3806241395
  0
LINE
  5
65E
100
AcDbEntity
  8
0
100
AcDbLine
 62
7
  6
CONTINUOUS
 10
9.5
 20
15.7449489743
 11
-9.5
 21
15.7449489743
  0
LINE
  5
65F
100
AcDbEntity
  8
0
100
AcDbLine
 62
250
  6
CONTINUOUS
 10
-9.1478228444
 20
17.0266703367
 11
9.1478228444
 21
17.0266703367
  0
LINE
  5
660
100
AcDbEntity
  8
0
100
AcDbLine
 62
7
  6
CONTINUOUS
 10
-9.1814515351
 20
17.1449489743
 11
9.1814515351
 21
17.1449489743
  0
LINE
  5
661
100
AcDbEntity
  8
0
100
AcDbLine
 62
7
  6
CONTINUOUS
 10
9.5
 20
15.7449489743
 11
14.5
 21
12.8949489743
  0
LINE
  5
662
100
AcDbEntity
  8
0
100
AcDbLine
 62
250
  6
CONTINUOUS
 10
10.1998755562
 20
16.7275533025
 11
14.584078684
 21
14.0152920456
  0
LINE
  5
663
100
AcDbEntity
  8
0
100
AcDbLine
 62
7
  6
CONTINUOUS
 10
10.233504247
 20
16.8458319401
 11
14.7023573216
 21
14.0812024957
  0
LINE
  5
664
100
AcDbEntity
  8
0
100
AcDbLine
 62
250
  6
CONTINUOUS
 10
26.15
 20
11.9449489743
 11
26.15
 21
0.0449489743
  0
LINE
  5
665
100
AcDbEntity
  8
0
100
AcDbLine
 62
7
  6
CONTINUOUS
 10
26.65
 20
11.4448563534
 11
26.65
 21
0.5450415951
  0
LWPOLYLINE
  5
666
100
AcDbEntity
  8
0
100
AcDbPolyline
 62
7
  6
CONTINUOUS
 90
8
 70
0
 43
0.3500000006
 10
-4.0714284382
 20
25.8949500275
 10
-3.2142856836
 20
25.8949500275
 10
-2.7857141647
 20
26.3235189972
 10
-2.7857141647
 20
27.1806614685
 10
-3.2142856836
 20
27.6092349701
 10
-4.0714284382
 20
27.6092349701
 10
-4.0714284382
 20
28.894950943
 10
-2.7857141647
 20
28.894950943
  0
LWPOLYLINE
  5
667
100
AcDbEntity
  8
0
100
AcDbPolyline
 62
7
  6
CONTINUOUS
 90
6
 70
0
 43
0.3500000006
 10
-1.9285714102
 20
25.8949500275
 10
-0.8571428254
 20
25.8949500275
 10
-0.6428571367
 20
26.1092345123
 10
-0.6428571367
 20
27.1806614685
 10
-1.0714285848
 20
27.6092349701
 10
-1.5000000329
 20
27.6092349701
  0
LWPOLYLINE
  5
668
100
AcDbEntity
  8
0
100
AcDbPolyline
 62
7
  6
CONTINUOUS
 90
6
 70
0
 43
0.3500000006
 10
1.9285714102
 20
25.8949500275
 10
3.0000000658
 20
25.8949500275
 10
3.2142856836
 20
26.1092345123
 10
3.2142856836
 20
27.1806614685
 10
2.7857141647
 20
27.6092349701
 10
2.3571427875
 20
27.6092349701
  0
LWPOLYLINE
  5
669
100
AcDbEntity
  8
0
100
AcDbPolyline
 62
7
  6
CONTINUOUS
 90
5
 70
0
 43
0.3500000006
 10
32.1857140732
 20
-3.3214290962
 10
31.9714295883
 20
-2.9642856445
 10
31.3285716019
 20
-2.9642856445
 10
30.9000003662
 20
-3.3214290962
 10
30.9000003662
 20
-4.1785715675
  0
LWPOLYLINE
  5
66A
100
AcDbEntity
  8
0
100
AcDbPolyline
 62
7
  6
CONTINUOUS
 90
3
 70
0
 43
0.3500000006
 10
33.2571432953
 20
-0.5357137985
 10
33.2571432953
 20
-2.0357142563
 10
30.9000003662
 20
-1.3928574028
  0
LWPOLYLINE
  5
66B
100
AcDbEntity
  8
0
100
AcDbPolyline
 62
7
  6
CONTINUOUS
 90
6
 70
0
 43
0.3500000006
 10
33.8999990158
 20
-4.1785715675
 10
33.8999990158
 20
-3.1071423454
 10
33.6857145309
 20
-2.8928567276
 10
32.6142853088
 20
-2.8928567276
 10
32.1857140732
 20
-3.3214290962
 10
32.1857140732
 20
-3.7500003319
  0
LWPOLYLINE
  5
66C
100
AcDbEntity
  8
0
100
AcDbPolyline
 62
7
  6
CONTINUOUS
 90
6
 70
0
 43
0.3500000006
 10
33.8999990158
 20
2.0357136154
 10
33.8999990158
 20
3.1071428375
 10
33.6857145309
 20
3.3214295883
 10
32.6142853088
 20
3.3214295883
 10
32.1857140732
 20
2.8928560867
 10
32.1857140732
 20
2.4642848511
  0
LWPOLYLINE
  5
66D
100
AcDbEntity
  8
0
100
AcDbPolyline
 62
7
  6
CONTINUOUS
 90
5
 70
0
 43
0.3500000006
 10
32.1857140732
 20
2.8928560867
 10
31.9714295883
 20
3.2500006714
 10
31.3285716019
 20
3.2500006714
 10
30.9000003662
 20
2.8928560867
 10
30.9000003662
 20
2.0357136154
  0
LWPOLYLINE
  5
66E
100
AcDbEntity
  8
0
100
AcDbPolyline
 62
7
  6
CONTINUOUS
 90
3
 70
0
 43
0.3500000006
 10
-49.7467114563
 20
28.0378039398
 10
-48.889568985
 20
28.894950943
 10
-48.889568985
 20
25.8949500275
  0
LWPOLYLINE
  5
66F
100
AcDbEntity
  8
0
100
AcDbPolyline
 62
7
  6
CONTINUOUS
 90
10
 70
0
 43
0.3500000006
 10
-46.9609995575
 20
28.894950943
 10
-47.6038575439
 20
28.2520929565
 10
-48.0324265137
 20
27.3949504852
 10
-48.0324265137
 20
26.3235189972
 10
-47.6038575439
 20
25.8949500275
 10
-46.9609995575
 20
25.8949500275
 10
-46.5324260559
 20
26.3235189972
 10
-46.5324260559
 20
27.1806614685
 10
-46.9609995575
 20
27.6092349701
 10
-47.8895686798
 20
27.6092349701
  0
LWPOLYLINE
  5
670
100
AcDbEntity
  8
0
100
AcDbPolyline
 62
7
  6
CONTINUOUS
 90
10
 70
0
 43
0.3500000006
 10
-42.8895716858
 20
28.894950943
 10
-43.5324296722
 20
28.2520929565
 10
-43.960998642
 20
27.3949504852
 10
-43.960998642
 20
26.3235189972
 10
-43.5324296722
 20
25.8949500275
 10
-42.8895716858
 20
25.8949500275
 10
-42.4609981842
 20
26.3235189972
 10
-42.4609981842
 20
27.1806614685
 10
-42.8895716858
 20
27.6092349701
 10
-43.8181408081
 20
27.6092349701
  0
LINE
  5
671
100
AcDbEntity
  8
0
100
AcDbLine
 62
7
  6
CONTINUOUS
 10
-41.0502847228
 20
-17.1449489743
 11
-50.2502847228
 21
-17.1449489743
  0
LINE
  5
672
100
AcDbEntity
  8
0
100
AcDbLine
 62
250
  6
CONTINUOUS
 10
-40.6502847228
 20
-16.6550510257
 11
-50.6502847228
 21
-16.6550510257
  0
LINE
  5
673
100
AcDbEntity
  8
0
100
AcDbLine
 62
7
  6
CONTINUOUS
 10
-53.9502847228
 20
-3.7550510257
 11
-53.9502847228
 21
15.7449489743
  0
LINE
  5
674
100
AcDbEntity
  8
0
100
AcDbLine
 62
7
  6
CONTINUOUS
 10
-53.9002847228
 20
-3.7550510257
 11
-53.9002847228
 21
15.7449489743
  0
LWPOLYLINE
  5
675
100
AcDbEntity
  8
0
100
AcDbPolyline
 62
7
  6
CONTINUOUS
 90
3
 70
0
 43
0.3500000006
 10
-44.9609989471
 20
26.1806611633
 10
-45.0324255981
 20
25.9663766785
 10
-45.175283432
 20
25.6806610107
  0
LINE
  5
676
100
AcDbEntity
  8
0
100
AcDbLine
 62
250
  6
CONTINUOUS
 10
-52.4264633325
 20
16.7275533025
 11
-52.4264633325
 21
14.0152920456
  0
LINE
  5
677
100
AcDbEntity
  8
0
100
AcDbLine
 62
250
  6
CONTINUOUS
 10
-52.4264633325
 20
12.3147136894
 11
-52.4264633325
 21
-0.0844897975
  0
LINE
  5
678
100
AcDbEntity
  8
0
100
AcDbLine
 62
250
  6
CONTINUOUS
 10
-52.4264633325
 20
-1.9346387927
 11
-52.4264633325
 21
-4.887225993
  0
LINE
  5
679
100
AcDbEntity
  8
0
100
AcDbLine
 62
7
  6
CONTINUOUS
 10
-50.6502847228
 20
-5.0677757011
 11
-50.6502847228
 21
-16.6550510257
  0
LINE
  5
67A
100
AcDbEntity
  8
0
100
AcDbLine
 62
7
  6
CONTINUOUS
 10
-38.8741061131
 20
-5.0367723881
 11
-45.6502847228
 21
-5.1550510257
  0
LINE
  5
67B
100
AcDbEntity
  8
0
100
AcDbLine
 62
250
  6
CONTINUOUS
 10
-38.8741061131
 20
-4.887225993
 11
-45.6502847228
 21
-5.0055046306
  0
LINE
  5
67C
100
AcDbEntity
  8
0
100
AcDbLine
 62
7
  6
CONTINUOUS
 10
-45.6502847228
 20
-5.1550510257
 11
-52.4264633325
 21
-5.0367723881
  0
LINE
  5
67D
100
AcDbEntity
  8
0
100
AcDbLine
 62
250
  6
CONTINUOUS
 10
-45.6502847228
 20
-5.0055046306
 11
-52.4264633325
 21
-4.887225993
  0
LINE
  5
67E
100
AcDbEntity
  8
0
100
AcDbLine
 62
7
  6
CONTINUOUS
 10
-53.9002847228
 20
-3.7550510257
 11
-53.9502847228
 21
-3.7550510257
  0
LINE
  5
67F
100
AcDbEntity
  8
0
100
AcDbLine
 62
250
  6
CONTINUOUS
 10
-45.6502847228
 20
-2.013970288
 11
-38.8741061131
 21
-1.9346387927
  0
LINE
  5
680
100
AcDbEntity
  8
0
100
AcDbLine
 62
250
  6
CONTINUOUS
 10
-52.4264633325
 20
-1.9346387927
 11
-45.6502847228
 21
-2.013970288
  0
LINE
  5
681
100
AcDbEntity
  8
0
100
AcDbLine
 62
7
  6
CONTINUOUS
 10
-45.6502847228
 20
16.8458319401
 11
-45.6502847228
 21
14.0812024957
  0
LINE
  5
682
100
AcDbEntity
  8
0
100
AcDbLine
 62
7
  6
CONTINUOUS
 10
-45.6502847228
 20
-2.013970288
 11
-45.6502847228
 21
-5.0055046306
  0
LINE
  5
683
100
AcDbEntity
  8
0
100
AcDbLine
 62
7
  6
CONTINUOUS
 10
-45.6502847228
 20
-0.1638212928
 11
-45.6502847228
 21
0.0449489743
  0
LINE
  5
684
100
AcDbEntity
  8
0
100
AcDbLine
 62
7
  6
CONTINUOUS
 10
-45.6502847228
 20
11.9449489743
 11
-45.6502847228
 21
12.3806241395
  0
LINE
  5
685
100
AcDbEntity
  8
0
100
AcDbLine
 62
250
  6
CONTINUOUS
 10
-45.6502847228
 20
-0.1638212928
 11
-38.8741061131
 21
-0.0844897975
  0
LINE
  5
686
100
AcDbEntity
  8
0
100
AcDbLine
 62
7
  6
CONTINUOUS
 10
-53.9002847228
 20
-0.9050510257
 11
-53.9502847228
 21
-0.9050510257
  0
LINE
  5
687
100
AcDbEntity
  8
0
100
AcDbLine
 62
250
  6
CONTINUOUS
 10
-38.8741061131
 20
-0.0844897975
 11
-37.4002847228
 21
-0.0844897975
  0
LINE
  5
688
100
AcDbEntity
  8
0
100
AcDbLine
 62
250
  6
CONTINUOUS
 10
-52.4264633325
 20
-0.0844897975
 11
-53.9002847228
 21
-0.0844897975
  0
LINE
  5
689
100
AcDbEntity
  8
0
100
AcDbLine
 62
250
  6
CONTINUOUS
 10
-52.4264633325
 20
-0.0844897975
 11
-45.6502847228
 21
-0.1638212928
  0
LINE
  5
68A
100
AcDbEntity
  8
0
100
AcDbLine
 62
7
  6
CONTINUOUS
 10
-40.6502847228
 20
-5.0677757011
 11
-40.6502847228
 21
-16.6550510257
  0
LINE
  5
68B
100
AcDbEntity
  8
0
100
AcDbLine
 62
250
  6
CONTINUOUS
 10
-38.8741061131
 20
-4.887225993
 11
-38.8741061131
 21
-1.9346387927
  0
LINE
  5
68C
100
AcDbEntity
  8
0
100
AcDbLine
 62
250
  6
CONTINUOUS
 10
-38.8741061131
 20
-0.0844897975
 11
-38.8741061131
 21
12.3147136894
  0
LINE
  5
68D
100
AcDbEntity
  8
0
100
AcDbLine
 62
250
  6
CONTINUOUS
 10
-38.8741061131
 20
14.0152920456
 11
-38.8741061131
 21
16.7275533025
  0
LINE
  5
68E
100
AcDbEntity
  8
0
100
AcDbLine
 62
7
  6
CONTINUOUS
 10
-37.4002847228
 20
-3.5370008454
 11
-37.4002847228
 21
15.5268987939
  0
LINE
  5
68F
100
AcDbEntity
  8
0
100
AcDbLine
 62
250
  6
CONTINUOUS
 10
-45.6502847228
 20
12.3806241395
 11
-52.4264633325
 21
12.3147136894
  0
LINE
  5
690
100
AcDbEntity
  8
0
100
AcDbLine
 62
250
  6
CONTINUOUS
 10
-38.8741061131
 20
12.3147136894
 11
-37.4002847228
 21
12.3147136894
  0
LINE
  5
691
100
AcDbEntity
  8
0
100
AcDbLine
 62
250
  6
CONTINUOUS
 10
-52.4264633325
 20
12.3147136894
 11
-53.9002847228
 21
12.3147136894
  0
LINE
  5
692
100
AcDbEntity
  8
0
100
AcDbLine
 62
250
  6
CONTINUOUS
 10
-38.8741061131
 20
12.3147136894
 11
-45.6502847228
 21
12.3806241395
  0
LWPOLYLINE
  5
693
100
AcDbEntity
  8
0
100
AcDbPolyline
 62
7
  6
CONTINUOUS
 90
10
 70
0
 43
0.3500000006
 10
-45.0324255981
 20
26.3949501801
 10
-44.9609989471
 20
26.2520923462
 10
-44.9609989471
 20
26.1806611633
 10
-45.103856781
 20
26.0378078613
 10
-45.175283432
 20
26.0378078613
 10
-45.2467146149
 20
26.1092345123
 10
-45.2467146149
 20
26.1806611633
 10
-45.175283432
 20
26.3235189972
 10
-45.103856781
 20
26.3949501801
 10
-45.0324255981
 20
26.3949501801
  0
LINE
  5
694
100
AcDbEntity
  8
0
100
AcDbLine
 62
250
  6
CONTINUOUS
 10
-45.6502847228
 20
14.0812024957
 11
-52.4264633325
 21
14.0152920456
  0
LINE
  5
695
100
AcDbEntity
  8
0
100
AcDbLine
 62
7
  6
CONTINUOUS
 10
-53.9002847228
 20
12.8949489743
 11
-53.9502847228
 21
12.8949489743
  0
LINE
  5
696
100
AcDbEntity
  8
0
100
AcDbLine
 62
250
  6
CONTINUOUS
 10
-38.8741061131
 20
14.0152920456
 11
-45.6502847228
 21
14.0812024957
  0
LINE
  5
697
100
AcDbEntity
  8
0
100
AcDbLine
 62
7
  6
CONTINUOUS
 10
-53.9002847228
 20
15.7449489743
 11
-53.9502847228
 21
15.7449489743
  0
LINE
  5
698
100
AcDbEntity
  8
0
100
AcDbLine
 62
250
  6
CONTINUOUS
 10
-52.4264633325
 20
16.7275533025
 11
-45.6502847228
 21
16.8458319401
  0
LINE
  5
699
100
AcDbEntity
  8
0
100
AcDbLine
 62
7
  6
CONTINUOUS
 10
-52.4264633325
 20
17.0266703367
 11
-45.6502847228
 21
17.1449489743
  0
LINE
  5
69A
100
AcDbEntity
  8
0
100
AcDbLine
 62
250
  6
CONTINUOUS
 10
-45.6502847228
 20
16.8458319401
 11
-38.8741061131
 21
16.7275533025
  0
LINE
  5
69B
100
AcDbEntity
  8
0
100
AcDbLine
 62
7
  6
CONTINUOUS
 10
-45.6502847228
 20
17.1449489743
 11
-38.8741061131
 21
17.0266703367
  0
ARC
  5
69C
100
AcDbEntity
  8
CURVE
100
AcDbCircle
 62
250
  6
CONTINUOUS
 10
-8.01959
 20
-0.0050630257
 40
2.5500000352
100
AcDbArc
 50
84.2608296022
 51
275.7391703978
  0
ARC
  5
69D
100
AcDbEntity
  8
CURVE
100
AcDbCircle
 62
250
  6
CONTINUOUS
 10
-3.68459
 20
-0.0050630257
 40
2.5500000352
100
AcDbArc
 50
84.2608296022
 51
275.7391703978
  0
ARC
  5
69E
100
AcDbEntity
  8
CURVE
100
AcDbCircle
 62
250
  6
CONTINUOUS
 10
5.1939609156
 20
3.6608549389
 40
2.0206348052
100
AcDbArc
 50
155.4307613978
 51
167.6993576709
  0
ARC
  5
69F
100
AcDbEntity
  8
0
100
AcDbCircle
 62
250
  6
CONTINUOUS
 10
-13.5314515212
 20
12.3143935782
 40
2.0002758217
100
AcDbArc
 50
121.7519304256
 51
179.9908307272
  0
ARC
  5
6A0
100
AcDbEntity
  8
0
100
AcDbCircle
 62
250
  6
CONTINUOUS
 10
13.5314524418
 20
12.3143940912
 40
2.0002748005
100
AcDbArc
 50
0.009154583
 51
58.248084263
  0
ARC
  5
6A1
100
AcDbEntity
  8
0
100
AcDbCircle
 62
250
  6
CONTINUOUS
 10
13.5315353812
 20
-0.0841607499
 40
2.0001860082
100
AcDbArc
 50
292.3085658675
 51
359.9905743564
  0
ARC
  5
6A2
100
AcDbEntity
  8
0
100
AcDbCircle
 62
250
  6
CONTINUOUS
 10
-13.5315354263
 20
-0.0841607801
 40
2.0001859632
100
AcDbArc
 50
180.0094247784
 51
247.6914349976
  0
ARC
  5
6A3
100
AcDbEntity
  8
0
100
AcDbCircle
 62
250
  6
CONTINUOUS
 10
-6.3324905388
 20
-3.0366902089
 40
2.0000821807
100
AcDbArc
 50
247.7030435878
 51
269.9978161882
  0
ARC
  5
6A4
100
AcDbEntity
  8
0
100
AcDbCircle
 62
250
  6
CONTINUOUS
 10
6.332490539
 20
-3.0366902095
 40
2.0000821801
100
AcDbArc
 50
270.0021838085
 51
292.2969564154
  0
ARC
  5
6A5
100
AcDbEntity
  8
0
100
AcDbCircle
 62
250
  6
CONTINUOUS
 10
9.1477321383
 20
15.0266559154
 40
2.0000144234
100
AcDbArc
 50
58.2598373663
 51
89.9974014803
  0
ARC
  5
6A6
100
AcDbEntity
  8
0
100
AcDbCircle
 62
250
  6
CONTINUOUS
 10
-9.1477321392
 20
15.0266559186
 40
2.0000144202
100
AcDbArc
 50
90.0025984939
 51
121.7401626595
  0
ARC
  5
6A7
100
AcDbEntity
  8
0
100
AcDbCircle
 62
7
  6
CONTINUOUS
 10
13.6502400079
 20
12.3805881404
 40
1.9997652996
100
AcDbArc
 50
0.0010314234
 51
58.2562074232
  0
ARC
  5
6A8
100
AcDbEntity
  8
0
100
AcDbCircle
 62
7
  6
CONTINUOUS
 10
-13.6502400846
 20
12.3805881831
 40
1.9997652996
100
AcDbArc
 50
121.7437913532
 51
179.9989698003
  0
ARC
  5
6A9
100
AcDbEntity
  8
0
100
AcDbCircle
 62
7
  6
CONTINUOUS
 10
6.3558795592
 20
-3.1553614939
 40
1.9996895318
100
AcDbArc
 50
269.9999669164
 51
292.2991733075
  0
ARC
  5
6AA
100
AcDbEntity
  8
0
100
AcDbCircle
 62
7
  6
CONTINUOUS
 10
-6.3558795592
 20
-3.1553614939
 40
1.9996895318
100
AcDbArc
 50
247.7008266925
 51
270.0000330836
  0
ARC
  5
6AB
100
AcDbEntity
  8
0
100
AcDbCircle
 62
7
  6
CONTINUOUS
 10
13.6503667607
 20
-0.1638629786
 40
1.9996332397
100
AcDbArc
 50
292.2979457963
 51
0.0011944276
  0
ARC
  5
6AC
100
AcDbEntity
  8
0
100
AcDbCircle
 62
7
  6
CONTINUOUS
 10
-13.6503667607
 20
-0.1638629786
 40
1.9996332397
100
AcDbArc
 50
179.9988055724
 51
247.7020542037
  0
ARC
  5
6AD
100
AcDbEntity
  8
0
100
AcDbCircle
 62
7
  6
CONTINUOUS
 10
9.1814946454
 20
15.1454052113
 40
1.9995437634
100
AcDbArc
 50
58.2560035453
 51
90.0012353013
  0
ARC
  5
6AE
100
AcDbEntity
  8
0
100
AcDbCircle
 62
7
  6
CONTINUOUS
 10
-9.1814946454
 20
15.1454052113
 40
1.9995437634
100
AcDbArc
 50
89.9987646987
 51
121.7439964547
  0
ARC
  5
6AF
100
AcDbEntity
  8
CURVE
100
AcDbCircle
 62
250
  6
CONTINUOUS
 10
-3.68459
 20
-0.0050630257
 40
1.7850001745
100
AcDbArc
 50
81.7867901066
 51
167.626372977
  0
ARC
  5
6B0
100
AcDbEntity
  8
CURVE
100
AcDbCircle
 62
250
  6
CONTINUOUS
 10
-8.01959
 20
-0.0050630257
 40
1.7850001745
100
AcDbArc
 50
81.7867901066
 51
278.2132098934
  0
ARC
  5
6B1
100
AcDbEntity
  8
CURVE
100
AcDbCircle
 62
250
  6
CONTINUOUS
 10
-3.68459
 20
-0.0050630257
 40
1.7849997292
100
AcDbArc
 50
192.373627023
 51
278.2132098934
  0
ARC
  5
6B2
100
AcDbEntity
  8
CURVE
100
AcDbCircle
 62
250
  6
CONTINUOUS
 10
3.5508595034
 20
8.2561290389
 40
1.4109076021
100
AcDbArc
 50
269.9567678406
 51
274.3654000347
  0
ARC
  5
6B3
100
AcDbEntity
  8
0
100
AcDbCircle
 62
7
  6
CONTINUOUS
 10
-26.15
 20
11.4449489743
 40
0.5
100
AcDbArc
 50
90.0
 51
180.0
  0
ARC
  5
6B4
100
AcDbEntity
  8
0
100
AcDbCircle
 62
7
  6
CONTINUOUS
 10
-26.15
 20
0.5449489743
 40
0.5
100
AcDbArc
 50
180.0
 51
270.0
  0
ARC
  5
6B5
100
AcDbEntity
  8
0
100
AcDbCircle
 62
7
  6
CONTINUOUS
 10
26.15
 20
11.4449489743
 40
0.5
100
AcDbArc
 50
0.0
 51
90.0
  0
ARC
  5
6B6
100
AcDbEntity
  8
0
100
AcDbCircle
 62
7
  6
CONTINUOUS
 10
26.15
 20
0.5449489743
 40
0.5
100
AcDbArc
 50
270.0
 51
360.0
  0
ARC
  5
6B7
100
AcDbEntity
  8
0
100
AcDbCircle
 62
7
  6
CONTINUOUS
 10
-4.5
 20
-16.6550510257
 40
0.5
100
AcDbArc
 50
180.0
 51
258.4630409672
  0
ARC
  5
6B8
100
AcDbEntity
  8
0
100
AcDbCircle
 62
7
  6
CONTINUOUS
 10
4.5
 20
-16.6550510257
 40
0.5
100
AcDbArc
 50
281.5369590328
 51
360.0
  0
ARC
  5
6B9
100
AcDbEntity
  8
0
100
AcDbCircle
 62
7
  6
CONTINUOUS
 10
-52.4002847228
 20
-3.5370008454
 40
1.5
100
AcDbArc
 50
184.2380928954
 51
269.0
  0
ARC
  5
6BA
100
AcDbEntity
  8
0
100
AcDbCircle
 62
250
  6
CONTINUOUS
 10
-52.6046432794
 20
-3.4982926573
 40
1.2956999607
100
AcDbArc
 50
189.1429438867
 51
191.2034429614
  0
ARC
  5
6BB
100
AcDbEntity
  8
0
100
AcDbCircle
 62
7
  6
CONTINUOUS
 10
-50.1502847228
 20
-16.6550510257
 40
0.5
100
AcDbArc
 50
180.0
 51
258.4630409672
  0
CIRCLE
  5
6BC
100
AcDbEntity
  8
0
100
AcDbCircle
 62
7
  6
CONTINUOUS
 10
-45.6502847228
 20
5.9949489743
 40
5.95
  0
CIRCLE
  5
6BD
100
AcDbEntity
  8
0
100
AcDbCircle
 62
250
  6
CONTINUOUS
 10
-45.6502847228
 20
5.9949489743
 40
5.45
  0
CIRCLE
  5
6BE
100
AcDbEntity
  8
0
100
AcDbCircle
 62
250
  6
CONTINUOUS
 10
-45.6502847228
 20
5.9949489743
 40
5.25
  0
CIRCLE
  5
6BF
100
AcDbEntity
  8
0
100
AcDbCircle
 62
7
  6
CONTINUOUS
 10
-45.6502847228
 20
5.9949489743
 40
4.75
  0
CIRCLE
  5
6C0
100
AcDbEntity
  8
0
100
AcDbCircle
 62
7
  6
CONTINUOUS
 10
-45.6502847228
 20
5.9949489743
 40
1.6
  0
ARC
  5
6C1
100
AcDbEntity
  8
0
100
AcDbCircle
 62
7
  6
CONTINUOUS
 10
-52.4002847228
 20
15.5268987939
 40
1.5
100
AcDbArc
 50
91.0
 51
175.7619096319
  0
ARC
  5
6C2
100
AcDbEntity
  8
0
100
AcDbCircle
 62
250
  6
CONTINUOUS
 10
-52.6031976019
 20
-0.545287241
 40
1.297202963
100
AcDbArc
 50
193.6980842301
 51
195.4823101531
  0
ARC
  5
6C3
100
AcDbEntity
  8
0
100
AcDbCircle
 62
250
  6
CONTINUOUS
 10
-52.6073964867
 20
-0.5462798492
 40
1.292888452
100
AcDbArc
 50
180.0331128677
 51
193.6994112399
  0
CIRCLE
  5
6C4
100
AcDbEntity
  8
0
100
AcDbCircle
 62
7
  6
CONTINUOUS
 10
-45.6502847228
 20
5.9949489743
 40
1.25
  0
ARC
  5
6C5
100
AcDbEntity
  8
0
100
AcDbCircle
 62
250
  6
CONTINUOUS
 10
-52.7911421714
 20
15.4485267699
 40
1.109419921
100
AcDbArc
 50
165.1493331747
 51
165.5036897351
  0
ARC
  5
6C6
100
AcDbEntity
  8
0
100
AcDbCircle
 62
250
  6
CONTINUOUS
 10
-52.8018193111
 20
15.4509906271
 40
1.0984659918
100
AcDbArc
 50
165.4887063431
 51
179.9411163441
  0
ARC
  5
6C7
100
AcDbEntity
  8
0
100
AcDbCircle
 62
250
  6
CONTINUOUS
 10
-52.8030228859
 20
12.7385657014
 40
1.0973132475
100
AcDbArc
 50
170.0652672219
 51
175.0039443452
  0
ARC
  5
6C8
100
AcDbEntity
  8
0
100
AcDbCircle
 62
7
  6
CONTINUOUS
 10
-38.9002847228
 20
-3.5370008454
 40
1.5
100
AcDbArc
 50
271.0
 51
360.0
  0
ARC
  5
6C9
100
AcDbEntity
  8
0
100
AcDbCircle
 62
250
  6
CONTINUOUS
 10
-38.6772476552
 20
-3.4995972703
 40
1.2769629325
100
AcDbArc
 50
358.3231229637
 51
359.9992382953
  0
ARC
  5
6CA
100
AcDbEntity
  8
0
100
AcDbCircle
 62
7
  6
CONTINUOUS
 10
-41.1502847228
 20
-16.6550510257
 40
0.5
100
AcDbArc
 50
281.5369590328
 51
360.0
  0
ARC
  5
6CB
100
AcDbEntity
  8
0
100
AcDbCircle
 62
7
  6
CONTINUOUS
 10
-38.9002847228
 20
15.5268987939
 40
1.5
100
AcDbArc
 50
0.0
 51
89.0
  0
ARC
  5
6CC
100
AcDbEntity
  8
0
100
AcDbCircle
 62
250
  6
CONTINUOUS
 10
-38.4844426177
 20
15.4519888971
 40
1.0841579027
100
AcDbArc
 50
0.0069040005
 51
4.9951944064
  0
SPLINE
  5
6CD
100
AcDbEntity
  8
CURVE
100
AcDbSpline
 62
250
  6
CONTINUOUS
 70
0
 71
3
 72
9
 73
5
 74
0
 42
0.0000001
 43
0.0000001
 44
0.0000000001
 40
0.0
 40
0.0
 40
0.0
 40
0.0
 40
0.3559141631
 40
1.0
 40
1.0
 40
1.0
 40
1.0
 10
4.7213137446
 20
12.6819825714
 30
0.0
 10
4.7758775332
 20
12.6819825714
 30
0.0
 10
4.9328429206
 20
12.6489424664
 30
0.0
 10
5.0359511227
 20
12.510124863
 30
0.0
 10
5.0706451696
 20
12.4176783703
 30
0.0
  0
SPLINE
  5
6CE
100
AcDbEntity
  8
CURVE
100
AcDbSpline
 62
250
  6
CONTINUOUS
 70
0
 71
3
 72
9
 73
5
 74
0
 42
0.0000001
 43
0.0000001
 44
0.0000000001
 40
0.0
 40
0.0
 40
0.0
 40
0.0
 40
0.5586214172
 40
1.0
 40
1.0
 40
1.0
 40
1.0
 10
5.0706451696
 20
12.4176783703
 30
0.0
 10
5.1328530063
 20
12.2520937806
 30
0.0
 10
5.214661842
 20
11.9454778605
 30
0.0
 10
5.3058245882
 20
11.6424084787
 30
0.0
 10
5.3444418279
 20
11.508089521
 30
0.0
  0
SPLINE
  5
6CF
100
AcDbEntity
  8
CURVE
100
AcDbSpline
 62
250
  6
CONTINUOUS
 70
0
 71
3
 72
9
 73
5
 74
0
 42
0.0000001
 43
0.0000001
 44
0.0000000001
 40
0.0
 40
0.0
 40
0.0
 40
0.0
 40
0.1980141723
 40
1.0
 40
1.0
 40
1.0
 40
1.0
 10
5.9467179968
 20
11.508089521
 30
0.0
 10
5.9321926051
 20
11.5615709025
 30
0.0
 10
5.8610973211
 20
11.8322666459
 30
0.0
 10
5.791666174
 20
12.103403764
 30
0.0
 10
5.7326653349
 20
12.3199645448
 30
0.0
  0
SPLINE
  5
6D0
100
AcDbEntity
  8
CURVE
100
AcDbSpline
 62
250
  6
CONTINUOUS
 70
0
 71
3
 72
9
 73
5
 74
0
 42
0.0000001
 43
0.0000001
 44
0.0000000001
 40
0.0
 40
0.0
 40
0.0
 40
0.0
 40
0.2426586216
 40
1.0
 40
1.0
 40
1.0
 40
1.0
 10
5.7326653349
 20
12.3199645448
 30
0.0
 10
5.7178155813
 20
12.3744730321
 30
0.0
 10
5.6610918145
 20
12.5945915871
 30
0.0
 10
5.5355308172
 20
12.8429866544
 30
0.0
 10
5.3717495131
 20
12.9082944495
 30
0.0
  0
SPLINE
  5
6D1
100
AcDbEntity
  8
CURVE
100
AcDbSpline
 62
250
  6
CONTINUOUS
 70
0
 71
3
 72
17
 73
13
 74
0
 42
0.0000001
 43
0.0000001
 44
0.0000000001
 40
0.0
 40
0.0
 40
0.0
 40
0.0
 40
0.0559780952
 40
0.1687540387
 40
0.321006234
 40
0.4122750837
 40
0.516613223
 40
0.6013931059
 40
0.6776022439
 40
0.8103422694
 40
0.9200404832
 40
1.0
 40
1.0
 40
1.0
 40
1.0
 10
5.3717495131
 20
12.9260197014
 30
0.0
 10
5.4063336128
 20
12.9304821659
 30
0.0
 10
5.4942419225
 20
12.9997170266
 30
0.0
 10
5.6400276189
 20
13.1316979858
 30
0.0
 10
5.7473723956
 20
13.3348621815
 30
0.0
 10
5.7951920337
 20
13.5468084236
 30
0.0
 10
5.7996845929
 20
13.7227193803
 30
0.0
 10
5.7760083058
 20
13.8870187868
 30
0.0
 10
5.7186251152
 20
14.0615997233
 30
0.0
 10
5.6108477403
 20
14.232692847
 30
0.0
 10
5.458674473
 20
14.3664921642
 30
0.0
 10
5.3540458831
 20
14.4241985842
 30
0.0
 10
5.3071918061
 20
14.441101358
 30
0.0
  0
SPLINE
  5
6D2
100
AcDbEntity
  8
CURVE
100
AcDbSpline
 62
250
  6
CONTINUOUS
 70
0
 71
3
 72
9
 73
5
 74
0
 42
0.0000001
 43
0.0000001
 44
0.0000000001
 40
0.0
 40
0.0
 40
0.0
 40
0.0
 40
0.2957417834
 40
1.0
 40
1.0
 40
1.0
 40
1.0
 10
5.3071918061
 20
14.441101358
 30
0.0
 10
5.1629489222
 20
14.4932130133
 30
0.0
 10
4.6444830744
 20
14.5781581173
 30
0.0
 10
4.1232976316
 20
14.5258406069
 30
0.0
 10
3.7619682236
 20
14.4726828983
 30
0.0
  0
SPLINE
  5
6D3
100
AcDbEntity
  8
CURVE
100
AcDbSpline
 62
250
  6
CONTINUOUS
 70
0
 71
3
 72
9
 73
5
 74
0
 42
0.0000001
 43
0.0000001
 44
0.0000000001
 40
0.0
 40
0.0
 40
0.0
 40
0.0
 40
0.2703953699
 40
1.0
 40
1.0
 40
1.0
 40
1.0
 10
4.3648292358
 20
13.9967103966
 30
0.0
 10
4.4085312717
 20
14.004167469
 30
0.0
 10
4.5706596654
 20
14.0286931861
 30
0.0
 10
4.7365280665
 20
14.0281607606
 30
0.0
 10
4.8553553391
 20
14.0143681666
 30
0.0
  0
SPLINE
  5
6D4
100
AcDbEntity
  8
CURVE
100
AcDbSpline
 62
250
  6
CONTINUOUS
 70
0
 71
3
 72
9
 73
5
 74
0
 42
0.0000001
 43
0.0000001
 44
0.0000000001
 40
0.0
 40
0.0
 40
0.0
 40
0.0
 40
0.5013510385
 40
1.0
 40
1.0
 40
1.0
 40
1.0
 10
4.8553553391
 20
14.0143681666
 30
0.0
 10
4.9471236773
 20
14.0037138833
 30
0.0
 10
5.1327358614
 20
13.9228985275
 30
0.0
 10
5.2076136158
 20
13.7312692058
 30
0.0
 10
5.2090505951
 20
13.6393936106
 30
0.0
  0
SPLINE
  5
6D5
100
AcDbEntity
  8
CURVE
100
AcDbSpline
 62
250
  6
CONTINUOUS
 70
0
 71
3
 72
10
 73
6
 74
0
 42
0.0000001
 43
0.0000001
 44
0.0000000001
 40
0.0
 40
0.0
 40
0.0
 40
0.0
 40
0.2929210355
 40
0.5275938042
 40
1.0
 40
1.0
 40
1.0
 40
1.0
 10
5.2090505951
 20
13.6393936106
 30
0.0
 10
5.2101930183
 20
13.5653559793
 30
0.0
 10
5.1942235572
 20
13.4277755963
 30
0.0
 10
5.0372778538
 20
13.2149896981
 30
0.0
 10
4.842051453
 20
13.1759175953
 30
0.0
 10
4.7226633831
 20
13.1732509758
 30
0.0
  0
SPLINE
  5
6D6
100
AcDbEntity
  8
0
100
AcDbSpline
 62
250
  6
CONTINUOUS
 70
0
 71
3
 72
14
 73
10
 74
0
 42
0.0000001
 43
0.0000001
 44
0.0000000001
 40
0.0
 40
0.0
 40
0.0
 40
0.0
 40
0.2664828332
 40
0.397004483
 40
0.5242884672
 40
0.6479029934
 40
0.7679187069
 40
0.8849108573
 40
1.0
 40
1.0
 40
1.0
 40
1.0
 10
-38.8741061131
 20
16.7275533025
 30
0.0
 10
-38.6912903196
 20
16.724839578
 30
0.0
 10
-38.416767275
 20
16.6778568438
 30
0.0
 10
-38.0865015524
 20
16.5322817122
 30
0.0
 10
-37.8671486144
 20
16.3869635423
 30
0.0
 10
-37.6826864593
 20
16.2095438204
 30
0.0
 10
-37.5394165224
 20
16.0058089458
 30
0.0
 10
-37.442546388
 20
15.7826770922
 30
0.0
 10
-37.4112716396
 20
15.6250530905
 30
0.0
 10
-37.4044023416
 20
15.546388898
 30
0.0
  0
SPLINE
  5
6D7
100
AcDbEntity
  8
0
100
AcDbSpline
 62
250
  6
CONTINUOUS
 70
0
 71
3
 72
14
 73
10
 74
0
 42
0.0000001
 43
0.0000001
 44
0.0000000001
 40
0.0
 40
0.0
 40
0.0
 40
0.0
 40
0.2673502872
 40
0.3980562978
 40
0.5252494751
 40
0.6485491054
 40
0.7681518187
 40
0.8848852316
 40
1.0
 40
1.0
 40
1.0
 40
1.0
 10
-38.8741061131
 20
14.0152920456
 30
0.0
 10
-38.6823540443
 20
14.0124456561
 30
0.0
 10
-38.3942949316
 20
13.960922708
 30
0.0
 10
-38.0514710133
 20
13.8012432957
 30
0.0
 10
-37.8268746824
 20
13.6423620891
 30
0.0
 10
-37.6422462867
 20
13.4492254922
 30
0.0
 10
-37.5045444616
 20
13.2287781212
 30
0.0
 10
-37.4195245856
 20
12.989341609
 30
0.0
 10
-37.4002847228
 20
12.8224313215
 30
0.0
 10
-37.4002847228
 20
12.7398582784
 30
0.0
  0
SPLINE
  5
6D8
100
AcDbEntity
  8
0
100
AcDbSpline
 62
250
  6
CONTINUOUS
 70
0
 71
3
 72
13
 73
9
 74
0
 42
0.0000001
 43
0.0000001
 44
0.0000000001
 40
0.0
 40
0.0
 40
0.0
 40
0.0
 40
0.2582511214
 40
0.5112976174
 40
0.635648091
 40
0.7582388156
 40
0.8795015123
 40
1.0
 40
1.0
 40
1.0
 40
1.0
 10
-38.8741061131
 20
-1.9346387927
 30
0.0
 10
-38.6817900203
 20
-1.9315329424
 30
0.0
 10
-38.29866211
 20
-1.856778557
 30
0.0
 10
-37.8876205714
 20
-1.5987628648
 30
0.0
 10
-37.6409643324
 20
-1.316946263
 30
0.0
 10
-37.5038001185
 20
-1.0772288322
 30
0.0
 10
-37.4193495773
 20
-0.8173939864
 30
0.0
 10
-37.4002847228
 20
-0.6367723301
 30
0.0
 10
-37.4002847228
 20
-0.5470270463
 30
0.0
  0
SPLINE
  5
6D9
100
AcDbEntity
  8
0
100
AcDbSpline
 62
250
  6
CONTINUOUS
 70
0
 71
3
 72
13
 73
9
 74
0
 42
0.0000001
 43
0.0000001
 44
0.0000000001
 40
0.0
 40
0.0
 40
0.0
 40
0.0
 40
0.2581140408
 40
0.5111782394
 40
0.6355749986
 40
0.7582248136
 40
0.8795048292
 40
1.0
 40
1.0
 40
1.0
 40
1.0
 10
-38.8741061131
 20
-4.887225993
 30
0.0
 10
-38.6850675083
 20
-4.8841730771
 30
0.0
 10
-38.30846276
 20
-4.8118459416
 30
0.0
 10
-37.9022094046
 20
-4.562259831
 30
0.0
 10
-37.6553996919
 20
-4.2888474529
 30
0.0
 10
-37.5159843158
 20
-4.0557172958
 30
0.0
 10
-37.4269661145
 20
-3.8022059381
 30
0.0
 10
-37.4034132919
 20
-3.6251873226
 30
0.0
 10
-37.4008315806
 20
-3.5369648418
 30
0.0
  0
SPLINE
  5
6DA
100
AcDbEntity
  8
0
100
AcDbSpline
 62
250
  6
CONTINUOUS
 70
0
 71
3
 72
21
 73
17
 74
0
 42
0.0000001
 43
0.0000001
 44
0.0000000001
 40
0.0
 40
0.0
 40
0.0
 40
0.0
 40
0.001094347
 40
0.0041374277
 40
0.009171474
 40
0.0161999083
 40
0.0362336792
 40
0.0642183342
 40
0.1001279027
 40
0.1439331402
 40
0.1955812012
 40
0.2550041202
 40
0.3969010847
 40
0.5690439336
 40
0.7704759811
 40
1.0
 40
1.0
 40
1.0
 40
1.0
 10
-52.4264633325
 20
17.0266703367
 30
0.0
 10
-52.4265724488
 20
17.0266686395
 30
0.0
 10
-52.4265965872
 20
17.0260630827
 30
0.0
 10
-52.4267546257
 20
17.025339433
 30
0.0
 10
-52.4268223791
 20
17.0237325092
 30
0.0
 10
-52.4269884954
 20
17.0205978612
 30
0.0
 10
-52.4271182487
 20
17.0150634747
 30
0.0
 10
-52.4272631757
 20
17.0067176559
 30
0.0
 10
-52.4273674982
 20
16.9959694645
 30
0.0
 10
-52.4274457625
 20
16.9828731689
 30
0.0
 10
-52.4274911467
 20
16.9674277052
 30
0.0
 10
-52.4275109986
 20
16.942201897
 30
0.0
 10
-52.4274429348
 20
16.9049594827
 30
0.0
 10
-52.4272409306
 20
16.8535565139
 30
0.0
 10
-52.426911786
 20
16.7934156229
 30
0.0
 10
-52.4266259077
 20
16.75044113
 30
0.0
 10
-52.4264633325
 20
16.7275533025
 30
0.0
  0
SPLINE
  5
6DB
100
AcDbEntity
  8
0
100
AcDbSpline
 62
250
  6
CONTINUOUS
 70
0
 71
3
 72
13
 73
9
 74
0
 42
0.0000001
 43
0.0000001
 44
0.0000000001
 40
0.0
 40
0.0
 40
0.0
 40
0.0
 40
0.2572598655
 40
0.5103295417
 40
0.6349745349
 40
0.7579870728
 40
0.8795234162
 40
1.0
 40
1.0
 40
1.0
 40
1.0
 10
-52.4264633325
 20
-4.887225993
 30
0.0
 10
-52.5966610752
 20
-4.8844773536
 30
0.0
 10
-52.9357906162
 20
-4.8253200153
 30
0.0
 10
-53.3124028032
 20
-4.6215908126
 30
0.0
 10
-53.5560105791
 20
-4.3949450655
 30
0.0
 10
-53.7042945635
 20
-4.1991697593
 30
0.0
 10
-53.8143335777
 20
-3.9827836694
 30
0.0
 10
-53.8601635789
 20
-3.8282345598
 30
0.0
 10
-53.8756517102
 20
-3.7500384752
 30
0.0
  0
SPLINE
  5
6DC
100
AcDbEntity
  8
0
100
AcDbSpline
 62
250
  6
CONTINUOUS
 70
0
 71
3
 72
11
 73
7
 74
0
 42
0.0000001
 43
0.0000001
 44
0.0000000001
 40
0.0
 40
0.0
 40
0.0
 40
0.0
 40
0.2572698753
 40
0.5107114423
 40
0.7582218649
 40
1.0
 40
1.0
 40
1.0
 40
1.0
 10
-52.4264633325
 20
-1.9346387927
 30
0.0
 10
-52.5881669367
 20
-1.9320273288
 30
0.0
 10
-52.9105246036
 20
-1.8782628336
 30
0.0
 10
-53.3419693746
 20
-1.6586580262
 30
0.0
 10
-53.6770043936
 20
-1.3220084769
 30
0.0
 10
-53.8127595538
 20
-1.0380354167
 30
0.0
 10
-53.8533288521
 20
-0.8915636976
 30
0.0
  0
SPLINE
  5
6DD
100
AcDbEntity
  8
0
100
AcDbSpline
 62
250
  6
CONTINUOUS
 70
0
 71
3
 72
13
 73
9
 74
0
 42
0.0000001
 43
0.0000001
 44
0.0000000001
 40
0.0
 40
0.0
 40
0.0
 40
0.0
 40
0.2657674414
 40
0.5227671882
 40
0.6467695135
 40
0.767304294
 40
0.8847495515
 40
1.0
 40
1.0
 40
1.0
 40
1.0
 10
-52.4264633325
 20
14.0152920456
 30
0.0
 10
-52.6003260393
 20
14.0127111977
 30
0.0
 10
-52.9437139651
 20
13.956909962
 30
0.0
 10
-53.3281891893
 20
13.7621486267
 30
0.0
 10
-53.5750021904
 20
13.5436316374
 30
0.0
 10
-53.7222855387
 20
13.356386019
 30
0.0
 10
-53.8289509312
 20
13.1498053702
 30
0.0
 10
-53.8708766692
 20
13.0021551769
 30
0.0
 10
-53.8838818351
 20
12.9278810337
 30
0.0
  0
SPLINE
  5
6DE
100
AcDbEntity
  8
0
100
AcDbSpline
 62
250
  6
CONTINUOUS
 70
0
 71
3
 72
12
 73
8
 74
0
 42
0.0000001
 43
0.0000001
 44
0.0000000001
 40
0.0
 40
0.0
 40
0.0
 40
0.0
 40
0.2649620049
 40
0.5219813262
 40
0.7665055349
 40
0.8844721298
 40
1.0
 40
1.0
 40
1.0
 40
1.0
 10
-52.4264633325
 20
16.7275533025
 30
0.0
 10
-52.591348033
 20
16.7251057353
 30
0.0
 10
-52.9174955475
 20
16.6743765605
 30
0.0
 10
-53.3544769063
 20
16.4668691243
 30
0.0
 10
-53.6397779672
 20
16.1955726693
 30
0.0
 10
-53.7939917045
 20
15.9395443052
 30
0.0
 10
-53.8450761638
 20
15.8023705192
 30
0.0
 10
-53.863504271
 20
15.7328717864
 30
0.0
  0
LINE
  5
6DF
100
AcDbEntity
  8
0
100
AcDbLine
 62
7
  6
CONTINUOUS
 10
-45.6502847228
 20
-2.013970288
 11
-45.6502847228
 21
-0.1638212928
  0
SPLINE
  5
6E0
100
AcDbEntity
  8
0
100
AcDbSpline
 62
250
  6
CONTINUOUS
 70
0
 71
3
 72
11
 73
7
 74
0
 42
0.0000001
 43
0.0000001
 44
0.0000000001
 40
0.0
 40
0.0
 40
0.0
 40
0.0
 40
0.3146392081
 40
0.6019818905
 40
0.8372241675
 40
1.0
 40
1.0
 40
1.0
 40
1.0
 10
-52.4264633325
 20
-0.0844897975
 30
0.0
 10
-52.428173898
 20
-0.2785299804
 30
0.0
 10
-52.4307170872
 20
-0.6497825604
 30
0.0
 10
-52.4322495805
 20
-1.1661263047
 30
0.0
 10
-52.4311587277
 20
-1.5888049563
 30
0.0
 10
-52.4287946871
 20
-1.8342769812
 30
0.0
 10
-52.4264633325
 20
-1.9346387927
 30
0.0
  0
SPLINE
  5
6E1
100
AcDbEntity
  8
0
100
AcDbSpline
 62
250
  6
CONTINUOUS
 70
0
 71
3
 72
11
 73
7
 74
0
 42
0.0000001
 43
0.0000001
 44
0.0000000001
 40
0.0
 40
0.0
 40
0.0
 40
0.0
 40
0.1627460755
 40
0.3979524518
 40
0.6853157008
 40
1.0
 40
1.0
 40
1.0
 40
1.0
 10
-38.8741061131
 20
-1.9346387927
 30
0.0
 10
-38.8717757141
 20
-1.8342953159
 30
0.0
 10
-38.8694104064
 20
-1.5888638162
 30
0.0
 10
-38.8683199765
 20
-1.1662129568
 30
0.0
 10
-38.8698523634
 20
-0.6498508673
 30
0.0
 10
-38.8723949026
 20
-0.2785577851
 30
0.0
 10
-38.8741061131
 20
-0.0844897975
 30
0.0
  0
SPLINE
  5
6E2
100
AcDbEntity
  8
0
100
AcDbSpline
 62
250
  6
CONTINUOUS
 70
0
 71
3
 72
18
 73
14
 74
0
 42
0.0000001
 43
0.0000001
 44
0.0000000001
 40
0.0
 40
0.0
 40
0.0
 40
0.0
 40
0.23196729
 40
0.4342468992
 40
0.6062444649
 40
0.747487394
 40
0.8576918998
 40
0.9010716006
 40
0.9365996672
 40
0.9642623346
 40
0.9840480283
 40
0.9959496763
 40
1.0
 40
1.0
 40
1.0
 40
1.0
 10
-52.4264633325
 20
-4.887225993
 30
0.0
 10
-52.4265421169
 20
-4.8987904159
 30
0.0
 10
-52.4266808463
 20
-4.9204394708
 30
0.0
 10
-52.4268403086
 20
-4.9506625596
 30
0.0
 10
-52.4269400647
 20
-4.976365604
 30
0.0
 10
-52.4269732767
 20
-4.9974706853
 30
0.0
 10
-52.4269627041
 20
-5.0121823374
 30
0.0
 10
-52.4268957546
 20
-5.0215903966
 30
0.0
 10
-52.4268705618
 20
-5.0269451527
 30
0.0
 10
-52.4267345141
 20
-5.030973018
 30
0.0
 10
-52.4268147748
 20
-5.0341766931
 30
0.0
 10
-52.4264520487
 20
-5.035523696
 30
0.0
 10
-52.4266652333
 20
-5.0367690624
 30
0.0
 10
-52.4264633325
 20
-5.0367723881
 30
0.0
  0
LINE
  5
6E3
100
AcDbEntity
  8
0
100
AcDbLine
 62
7
  6
CONTINUOUS
 10
-45.6502847228
 20
-5.0055046306
 11
-45.6502847228
 21
-5.1550510257
  0
SPLINE
  5
6E4
100
AcDbEntity
  8
0
100
AcDbSpline
 62
250
  6
CONTINUOUS
 70
0
 71
3
 72
18
 73
14
 74
0
 42
0.0000001
 43
0.0000001
 44
0.0000000001
 40
0.0
 40
0.0
 40
0.0
 40
0.0
 40
0.0040503052
 40
0.0159519081
 40
0.0357375421
 40
0.0634001466
 40
0.098928159
 40
0.1423078099
 40
0.2525121653
 40
0.3937550878
 40
0.5657529025
 40
0.7680326651
 40
1.0
 40
1.0
 40
1.0
 40
1.0
 10
-38.8741061131
 20
-5.0367723881
 30
0.0
 10
-38.8739042132
 20
-5.0367690627
 30
0.0
 10
-38.8741173965
 20
-5.0355237007
 30
0.0
 10
-38.8737546717
 20
-5.0341767031
 30
0.0
 10
-38.873834932
 20
-5.0309730366
 30
0.0
 10
-38.8736988843
 20
-5.0269451801
 30
0.0
 10
-38.8736736915
 20
-5.0215904323
 30
0.0
 10
-38.8736067419
 20
-5.0121823859
 30
0.0
 10
-38.8735961688
 20
-4.997470744
 30
0.0
 10
-38.8736293806
 20
-4.9763656582
 30
0.0
 10
-38.8737291364
 20
-4.950662594
 30
0.0
 10
-38.8738885986
 20
-4.9204394829
 30
0.0
 10
-38.8740273284
 20
-4.8987904181
 30
0.0
 10
-38.8741061131
 20
-4.887225993
 30
0.0
  0
LINE
  5
6E5
100
AcDbEntity
  8
0
100
AcDbLine
 62
7
  6
CONTINUOUS
 10
-45.6502847228
 20
16.8458319401
 11
-45.6502847228
 21
17.1449489743
  0
SPLINE
  5
6E6
100
AcDbEntity
  8
0
100
AcDbSpline
 62
250
  6
CONTINUOUS
 70
0
 71
3
 72
21
 73
17
 74
0
 42
0.0000001
 43
0.0000001
 44
0.0000000001
 40
0.0
 40
0.0
 40
0.0
 40
0.0
 40
0.2295238383
 40
0.4309552866
 40
0.6030971828
 40
0.7449941747
 40
0.8044173768
 40
0.8560657301
 40
0.8998711586
 40
0.9357809373
 40
0.9637658377
 40
0.9837998426
 40
0.9908283752
 40
0.9958624995
 40
0.9989056323
 40
1.0
 40
1.0
 40
1.0
 40
1.0
 10
-38.8741061131
 20
16.7275533025
 30
0.0
 10
-38.8739435403
 20
16.7504411121
 30
0.0
 10
-38.8736576648
 20
16.7934155272
 30
0.0
 10
-38.87332852
 20
16.8535562454
 30
0.0
 10
-38.8731265136
 20
16.9049590623
 30
0.0
 10
-38.8730584478
 20
16.9422014125
 30
0.0
 10
-38.8730782975
 20
16.9674272808
 30
0.0
 10
-38.8731236801
 20
16.982872821
 30
0.0
 10
-38.8732019438
 20
16.9959691857
 30
0.0
 10
-38.8733062657
 20
17.0067174416
 30
0.0
 10
-38.8734511925
 20
17.0150633291
 30
0.0
 10
-38.8735809456
 20
17.0205977735
 30
0.0
 10
-38.8737470631
 20
17.0237324619
 30
0.0
 10
-38.8738148161
 20
17.0253394097
 30
0.0
 10
-38.8739728577
 20
17.026063072
 30
0.0
 10
-38.8739969947
 20
17.0266686389
 30
0.0
 10
-38.8741061131
 20
17.0266703367
 30
0.0
  0
SPLINE
  5
6E7
100
AcDbEntity
  8
0
100
AcDbSpline
 62
250
  6
CONTINUOUS
 70
0
 71
3
 72
10
 73
6
 74
0
 42
0.0000001
 43
0.0000001
 44
0.0000000001
 40
0.0
 40
0.0
 40
0.0
 40
0.0
 40
0.1877517291
 40
0.427651268
 40
1.0
 40
1.0
 40
1.0
 40
1.0
 10
-52.4264633325
 20
14.0152920456
 30
0.0
 10
-52.4279451935
 20
13.9088722048
 30
0.0
 10
-52.4297733303
 20
13.6664541606
 30
0.0
 10
-52.4308732982
 20
13.0995883056
 30
0.0
 10
-52.4288416898
 20
12.6391502698
 30
0.0
 10
-52.4264633325
 20
12.3147136894
 30
0.0
  0
LINE
  5
6E8
100
AcDbEntity
  8
0
100
AcDbLine
 62
7
  6
CONTINUOUS
 10
-45.6502847228
 20
14.0812024957
 11
-45.6502847228
 21
12.3806241395
  0
SPLINE
  5
6E9
100
AcDbEntity
  8
0
100
AcDbSpline
 62
250
  6
CONTINUOUS
 70
0
 71
3
 72
10
 73
6
 74
0
 42
0.0000001
 43
0.0000001
 44
0.0000000001
 40
0.0
 40
0.0
 40
0.0
 40
0.0
 40
0.5723768172
 40
0.8122502049
 40
1.0
 40
1.0
 40
1.0
 40
1.0
 10
-38.8741061131
 20
12.3147136894
 30
0.0
 10
-38.8717287477
 20
12.6391661979
 30
0.0
 10
-38.8696954312
 20
13.0996053259
 30
0.0
 10
-38.8707968025
 20
13.6664711712
 30
0.0
 10
-38.8726236422
 20
13.9088733098
 30
0.0
 10
-38.8741061131
 20
14.0152920456
 30
0.0
  0
ELLIPSE
  5
6EA
100
AcDbEntity
  8
0
100
AcDbEllipse
 62
7
  6
CONTINUOUS
 10
-15.65
 20
5.9949489743
 30
0.0
 11
0.0
 21
5.95
 31
0.0
 40
0.0174550649
 41
3.1415926536
 42
6.2831853072
  0
ELLIPSE
  5
6EB
100
AcDbEntity
  8
0
100
AcDbEllipse
 62
7
  6
CONTINUOUS
 10
0.0
 20
-5.1550510257
 30
0.0
 11
5.0
 21
0.0
 31
0.0
 40
0.0174550649
 41
0.0
 42
3.1415926536
  0
ELLIPSE
  5
6EC
100
AcDbEntity
  8
0
100
AcDbEllipse
 62
7
  6
CONTINUOUS
 10
15.65
 20
5.9949489743
 30
0.0
 11
0.0
 21
5.95
 31
0.0
 40
0.0174550649
 41
0.0
 42
3.1415926536
  0
ENDSEC
  0
SECTION
  2
OBJECTS
  0
DICTIONARY
  5
C
100
AcDbDictionary
280
0
281
1
  3
ACAD_GROUP
350
D
  3
ACAD_MLINESTYLE
350
17
  3
ACAD_LAYOUT
350
1A
  3
ACAD_PLOTSETTINGS
350
19
  3
ACAD_PLOTSTYLENAME
350
E
  0
DICTIONARY
  5
D
102
{ACAD_REACTORS
330
C
102
}
100
AcDbDictionary
280
0
281
1
  0
ACDBDICTIONARYWDFLT
  5
E
102
{ACAD_REACTORS
330
C
102
}
100
AcDbDictionary
281
1
  3
Normal
350
F
100
AcDbDictionaryWithDefault
340
F
  0
DICTIONARY
  5
17
102
{ACAD_REACTORS
330
C
102
}
100
AcDbDictionary
280
0
281
1
  3
Standard
350
18
  0
DICTIONARY
  5
19
102
{ACAD_REACTORS
330
C
102
}
100
AcDbDictionary
281
1
  0
DICTIONARY
  5
1A
102
{ACAD_REACTORS
330
C
102
}
100
AcDbDictionary
281
1
  3
Model
350
6ED
  3
Layout1
350
6EE
  0
ACDBPLACEHOLDER
  5
F
102
{ACAD_REACTORS
330
E
102
}
  0
MLINESTYLE
  5
18
102
{ACAD_REACTORS
330
17
102
}
100
AcDbMlineStyle
  2
STANDARD
 70
0
  3

 62
256
 51
90.0
 52
90.0
 71
2
 49
0.5
 62
256
  6
BYLAYER
 49
-0.5
 62
256
  6
BYLAYER
  0
LAYOUT
  5
6ED
102
{ACAD_REACTORS
330
1A
102
}
100
AcDbPlotSettings
  1

  2
none_device
  4
ISO_A4_(297.00_x_210.00_MM)
  6

 40
0.0
 41
0.0
 42
0.0
 43
0.0
 44
297.0
 45
210.0
 46
0.0
 47
0.0
 48
0.0
 49
0.0
140
0.0
141
0.0
142
1.0
143
1.0
 70
1024
 72
1
 73
0
 74
0
  7

 75
0
147
1.0
148
0.0
149
0.0
100
AcDbLayout
  1
Model
 70
0
 71
0
 10
0.0
 20
0.0
 11
297.0
 21
210.0
 12
0.0
 22
0.0
 32
0.0
 14
0.0
 24
0.0
 34
0.0
 15
0.0
 25
0.0
 35
0.0
146
0.0
 13
0.0
 23
0.0
 33
0.0
 16
1.0
 26
0.0
 36
0.0
 17
0.0
 27
1.0
 37
0.0
 76
0
330
211
345
0
346
0
  0
LAYOUT
  5
6EE
102
{ACAD_REACTORS
330
1A
102
}
100
AcDbPlotSettings
  1

  2
none_device
  4
ISO_A4_(297.00_x_210.00_MM)
  6

 40
0.0
 41
0.0
 42
0.0
 43
0.0
 44
297.0
 45
210.0
 46
0.0
 47
0.0
 48
0.0
 49
0.0
140
0.0
141
0.0
142
1.0
143
1.0
 70
0
 72
1
 73
0
 74
0
  7

 75
0
147
1.0
148
0.0
149
0.0
100
AcDbLayout
  1
Layout1
 70
0
 71
1
 10
0.0
 20
0.0
 11
297.0
 21
210.0
 12
0.0
 22
0.0
 32
0.0
 14
0.0
 24
0.0
 34
0.0
 15
0.0
 25
0.0
 35
0.0
146
0.0
 13
0.0
 23
0.0
 33
0.0
 16
1.0
 26
0.0
 36
0.0
 17
0.0
 27
1.0
 37
0.0
 76
0
330
212
345
0
346
0
  0
ENDSEC
  0
EOF
