  0
SECTION
  2
HEADER
  9
$ACADVER
  1
AC1021
  9
$DWGCODEPAGE
  3
ANSI_1252
  9
$EXTMAX
 10
297.0
 20
210.0
 30
0.0
  9
$EXTMIN
 10
0.0
 20
0.0
 30
0.0
  9
$LIMMIN
 10
0.0
 20
0.0
  9
$LIMMAX
 10
297.0
 20
210.0
  9
$VIEWCTR
 10
148.5
 20
105.0
  9
$VIEWSIZE
 40
210.0
  9
$CLAYER
  8
0
  9
$LTSCALE
 40
16.335
  9
$CELTYPE
  6
BYLAYER
  9
$DIMSCALE
 40
1.0
  9
$DIMASZ
 40
3.0
  9
$DIMEXO
 40
0.5
  9
$DIMDLI
 40
11.286
  9
$DIMEXE
 40
1.5
  9
$DIMCEN
 40
2.673
  9
$DIMLFAC
 40
1.0
  9
$DIMBLK
  1
_FILLED
  9
$DIMALT
 70
0
  9
$DIMALTF
 40
0.0393700787
  9
$DIMTXT
 40
3.0
  9
$DIMTOL
 70
1
  9
$DIMLIM
 70
0
  9
$DIMTFAC
 40
1.0
  9
$DIMTP
 40
0.01
  9
$DIMTM
 40
0.01
  9
$DIMGAP
 40
0.625
  9
$DIMDSEP
 70
44
  9
$AUNITS
 70
0
  9
$PDMODE
 70
3
  9
$PDSIZE
 40
3.0
  9
$HANDSEED
  5
3C3
  9
$TILEMODE
 70
1
  9
$MEASUREMENT
 70
1
  9
$INSUNITS
 70
4
  0
ENDSEC
  0
SECTION
  2
CLASSES
  0
CLASS
  1
ACDBDICTIONARYWDFLT
  2
AcDbDictionaryWithDefault
  3
AutoCAD 2000
 90
0
 91
1
280
0
281
0
  0
CLASS
  1
ACDBPLACEHOLDER
  2
AcDbPlaceHolder
  3
AutoCAD 2000
 90
0
 91
1
280
0
281
0
  0
CLASS
  1
LAYOUT
  2
AcDbLayout
  3
AutoCAD 2000
 90
0
 91
0
280
0
281
0
  0
ENDSEC
  0
SECTION
  2
TABLES
  0
TABLE
  2
VPORT
  5
8
100
AcDbSymbolTable
 70
2
  0
VPORT
  5
1F4
100
AcDbSymbolTableRecord
100
AcDbViewportTableRecord
  2
*ACTIVE
 70
0
 10
0.0
 20
0.0
 11
1.0
 21
1.0
 12
148.5
 22
105.0
 13
0.0
 23
0.0
 14
1.0
 24
1.0
 15
0.0
 25
0.0
 16
0.0
 26
0.0
 36
1.0
 17
0.0
 27
0.0
 37
0.0
 40
210.0
 41
1.4142857143
 42
50.0
 43
0.0
 44
0.0
 50
0.0
 51
0.0
 71
0
 72
100
 73
1
 74
1
 75
0
 76
0
 77
0
 78
0
  0
ENDTAB
  0
TABLE
  2
LTYPE
  5
5
100
AcDbSymbolTable
 70
6
  0
LTYPE
  5
14
100
AcDbSymbolTableRecord
100
AcDbLinetypeTableRecord
  2
BYBLOCK
 70
0
  3

 72
65
 73
0
 40
0.0
  0
LTYPE
  5
15
100
AcDbSymbolTableRecord
100
AcDbLinetypeTableRecord
  2
BYLAYER
 70
0
  3

 72
65
 73
0
 40
0.0
  0
LTYPE
  5
16
100
AcDbSymbolTableRecord
100
AcDbLinetypeTableRecord
  2
CONTINUOUS
 70
64
  3
Solid line
 72
65
 73
0
 40
0.0
  0
LTYPE
  5
1F5
100
AcDbSymbolTableRecord
100
AcDbLinetypeTableRecord
  2
CENTER
 70
64
  3
____ _ ____ _ ____ _ ____ _ ____ _ ____ _ ____
 72
65
 73
4
 40
0.6
 49
0.375
 74
0
 49
-0.075
 74
0
 49
0.075
 74
0
 49
-0.075
 74
0
  0
LTYPE
  5
1F6
100
AcDbSymbolTableRecord
100
AcDbLinetypeTableRecord
  2
HIDDEN
 70
64
  3
- - - - - - - - - - - - - - - - - - - -
 72
65
 73
2
 40
0.2
 49
0.1
 74
0
 49
-0.1
 74
0
  0
LTYPE
  5
1F7
100
AcDbSymbolTableRecord
100
AcDbLinetypeTableRecord
  2
PHANTOM
 70
64
  3
_____ _ _ _____ _ _ _____ _ _ _____
 72
65
 73
6
 40
0.8
 49
0.45
 74
0
 49
-0.05
 74
0
 49
0.1
 74
0
 49
-0.05
 74
0
 49
0.1
 74
0
 49
-0.05
 74
0
  0
LTYPE
  5
1F8
100
AcDbSymbolTableRecord
100
AcDbLinetypeTableRecord
  2
DOT
 70
64
  3
. . . . . . . . . . . . . . . . . . . .
 72
65
 73
2
 40
0.2
 49
0.1
 74
0
 49
-0.1
 74
0
  0
LTYPE
  5
1F9
100
AcDbSymbolTableRecord
100
AcDbLinetypeTableRecord
  2
DASHED
 70
64
  3
- - - - - - - - - - - - - - - - - - - -
 72
65
 73
2
 40
0.2
 49
0.1
 74
0
 49
-0.1
 74
0
  0
ENDTAB
  0
TABLE
  2
LAYER
  5
2
100
AcDbSymbolTable
 70
36
  0
LAYER
  5
10
100
AcDbSymbolTableRecord
100
AcDbLayerTableRecord
  2
0
 70
0
 62
7
  6
CONTINUOUS
370
-3
390
F
  0
LAYER
  5
1FA
100
AcDbSymbolTableRecord
100
AcDbLayerTableRecord
  2
DEFAULT_1
 70
0
 62
7
  6
CENTER
370
-3
390
F
  0
LAYER
  5
1FB
100
AcDbSymbolTableRecord
100
AcDbLayerTableRecord
  2
DEFAULT_2
 70
0
 62
7
  6
HIDDEN
370
-3
390
F
  0
LAYER
  5
1FC
100
AcDbSymbolTableRecord
100
AcDbLayerTableRecord
  2
DEFAULT_3
 70
0
 62
7
  6
PHANTOM
370
-3
390
F
  0
LAYER
  5
1FD
100
AcDbSymbolTableRecord
100
AcDbLayerTableRecord
  2
ASSI
 70
0
 62
7
  6
CONTINUOUS
370
-3
390
F
  0
LAYER
  5
1FE
100
AcDbSymbolTableRecord
100
AcDbLayerTableRecord
  2
COLOR5
 70
0
 62
7
  6
CONTINUOUS
370
-3
390
F
  0
LAYER
  5
1FF
100
AcDbSymbolTableRecord
100
AcDbLayerTableRecord
  2
COLOR7
 70
0
 62
7
  6
CONTINUOUS
370
-3
390
F
  0
LAYER
  5
200
100
AcDbSymbolTableRecord
100
AcDbLayerTableRecord
  2
COORDINATE
 70
0
 62
7
  6
CONTINUOUS
370
-3
390
F
  0
LAYER
  5
201
100
AcDbSymbolTableRecord
100
AcDbLayerTableRecord
  2
COPY_PUBLISH
 70
0
 62
7
  6
CONTINUOUS
370
-3
390
F
  0
LAYER
  5
202
100
AcDbSymbolTableRecord
100
AcDbLayerTableRecord
  2
COSMETICI
 70
0
 62
7
  6
CONTINUOUS
370
-3
390
F
  0
LAYER
  5
203
100
AcDbSymbolTableRecord
100
AcDbLayerTableRecord
  2
CURVE
 70
0
 62
7
  6
CONTINUOUS
370
-3
390
F
  0
LAYER
  5
204
100
AcDbSymbolTableRecord
100
AcDbLayerTableRecord
  2
DRAFT
 70
0
 62
7
  6
CONTINUOUS
370
-3
390
F
  0
LAYER
  5
205
100
AcDbSymbolTableRecord
100
AcDbLayerTableRecord
  2
IMPORT_IGES
 70
0
 62
7
  6
CONTINUOUS
370
-3
390
F
  0
LAYER
  5
206
100
AcDbSymbolTableRecord
100
AcDbLayerTableRecord
  2
NOTE
 70
0
 62
7
  6
CONTINUOUS
370
-3
390
F
  0
LAYER
  5
207
100
AcDbSymbolTableRecord
100
AcDbLayerTableRecord
  2
PIANI
 70
0
 62
7
  6
CONTINUOUS
370
-3
390
F
  0
LAYER
  5
208
100
AcDbSymbolTableRecord
100
AcDbLayerTableRecord
  2
PUNTI
 70
0
 62
7
  6
CONTINUOUS
370
-3
390
F
  0
LAYER
  5
209
100
AcDbSymbolTableRecord
100
AcDbLayerTableRecord
  2
RACCORDO
 70
0
 62
7
  6
CONTINUOUS
370
-3
390
F
  0
LAYER
  5
20A
100
AcDbSymbolTableRecord
100
AcDbLayerTableRecord
  2
SIMBOLI
 70
0
 62
7
  6
CONTINUOUS
370
-3
390
F
  0
LAYER
  5
20B
100
AcDbSymbolTableRecord
100
AcDbLayerTableRecord
  2
SMUSSO
 70
0
 62
7
  6
CONTINUOUS
370
-3
390
F
  0
LAYER
  5
20C
100
AcDbSymbolTableRecord
100
AcDbLayerTableRecord
  2
SNAPLINE
 70
0
 62
7
  6
CONTINUOUS
370
-3
390
F
  0
LAYER
  5
20D
100
AcDbSymbolTableRecord
100
AcDbLayerTableRecord
  2
SUPERFICI
 70
0
 62
7
  6
CONTINUOUS
370
-3
390
F
  0
LAYER
  5
20E
100
AcDbSymbolTableRecord
100
AcDbLayerTableRecord
  2
TRASH
 70
0
 62
7
  6
CONTINUOUS
370
-3
390
F
  0
ENDTAB
  0
TABLE
  2
STYLE
  5
3
100
AcDbSymbolTable
 70
1
  0
STYLE
  5
11
100
AcDbSymbolTableRecord
100
AcDbTextStyleTableRecord
  2
STANDARD
 70
0
 40
0.0
 41
0.8
 50
0.0
 71
0
 42
0.2
  3
txt
  4

  0
STYLE
  5
20F
100
AcDbSymbolTableRecord
100
AcDbTextStyleTableRecord
  2
TEXTSTYLE_1
 70
0
 40
0.0
 41
0.8
 50
0.0
 71
0
 42
0.2
  3
gdt
  4

  0
ENDTAB
  0
TABLE
  2
VIEW
  5
6
100
AcDbSymbolTable
 70
0
  0
ENDTAB
  0
TABLE
  2
UCS
  5
7
100
AcDbSymbolTable
 70
0
  0
ENDTAB
  0
TABLE
  2
APPID
  5
9
100
AcDbSymbolTable
 70
1
  0
APPID
  5
210
100
AcDbSymbolTableRecord
100
AcDbRegAppTableRecord
  2
ACAD
 70
0
  0
ENDTAB
  0
TABLE
  2
BLOCK_RECORD
  5
1
100
AcDbSymbolTable
 70
0
  0
BLOCK_RECORD
  5
211
100
AcDbSymbolTableRecord
100
AcDbBlockTableRecord
  2
*Model_Space
  0
BLOCK_RECORD
  5
212
100
AcDbSymbolTableRecord
100
AcDbBlockTableRecord
  2
*Paper_Space
  0
BLOCK_RECORD
  5
213
100
AcDbSymbolTableRecord
100
AcDbBlockTableRecord
  2
_FILLED
  0
BLOCK_RECORD
  5
214
100
AcDbSymbolTableRecord
100
AcDbBlockTableRecord
  2
*D0
  0
BLOCK_RECORD
  5
215
100
AcDbSymbolTableRecord
100
AcDbBlockTableRecord
  2
*D1
  0
BLOCK_RECORD
  5
216
100
AcDbSymbolTableRecord
100
AcDbBlockTableRecord
  2
*D2
  0
ENDTAB
  0
TABLE
  2
DIMSTYLE
  5
A
100
AcDbSymbolTable
 70
1
100
AcDbDimStyleTable
 71
0
  0
DIMSTYLE
105
217
100
AcDbSymbolTableRecord
100
AcDbDimStyleTableRecord
  2
STANDARD
 70
0
  3

  4

 40
1.0
 41
3.0
 42
0.5
 43
0.38
 44
1.5
 45
0.0
 46
0.0
 47
0.01
 48
0.01
140
3.0
141
0.09
142
0.0
143
25.4
144
1.0
145
0.0
146
1.0
147
0.625
 71
1.0
 72
0.0
 73
0
 74
0
 75
0
 76
0
 77
1
 78
8
170
0
171
2
172
0
173
0
174
0
175
0
176
0
177
0
178
0
270
2
271
2
272
2
273
2
274
2
275
0
280
0
281
0
282
0
283
1
284
8
285
0
286
0
287
3
288
0
340
11
278
44
341
213
342
213
343
213
344
213
  0
DIMSTYLE
105
218
100
AcDbSymbolTableRecord
100
AcDbDimStyleTableRecord
  2
DIMSTYLE_1
 70
0
  3

  4

 40
1.0
 41
3.0
 42
0.5
 43
0.38
 44
1.5
 45
0.0
 46
0.0
 47
0.0
 48
0.0
140
3.0
141
0.09
142
0.0
143
25.4
144
1.0
145
0.0
146
1.0
147
0.75
 71
0.0
 72
0.0
 73
0
 74
0
 75
0
 76
0
 77
1
 78
8
170
0
171
2
172
0
173
0
174
0
175
0
176
0
177
0
178
0
270
2
271
2
272
2
273
2
274
2
275
0
280
0
281
0
282
0
283
1
284
8
285
0
286
0
287
3
288
0
340
11
278
44
341
213
342
213
343
213
344
213
  0
ENDTAB
  0
ENDSEC
  0
SECTION
  2
BLOCKS
  0
BLOCK
  5
20
100
AcDbEntity
  8
0
100
AcDbBlockBegin
  2
*Model_Space
 70
0
 10
0.0
 20
0.0
 30
0.0
  3
*Model_Space
  1

  0
ENDBLK
  5
21
100
AcDbEntity
  8
0
100
AcDbBlockEnd
  0
BLOCK
  5
1C
100
AcDbEntity
  8
0
100
AcDbBlockBegin
  2
*Paper_Space
 70
0
 10
0.0
 20
0.0
 30
0.0
  3
*Paper_Space
  1

  0
ENDBLK
  5
1D
100
AcDbEntity
  8
0
100
AcDbBlockEnd
  0
BLOCK
  5
219
100
AcDbEntity
  8
0
100
AcDbBlockBegin
  2
_FILLED
 70
64
 10
0.0
 20
0.0
  3
_FILLED
  1

  0
SOLID
  5
21A
100
AcDbEntity
  8
0
  6
BYBLOCK
 62
0
100
AcDbTrace
 10
0.0
 20
0.0
 11
-1.0
 21
0.3166666667
 12
-1.0
 22
-0.3166666667
 13
-1.0
 23
-0.3166666667
  0
ENDBLK
  5
21B
100
AcDbEntity
  8
0
  6
BYBLOCK
 62
0
100
AcDbBlockEnd
  0
BLOCK
  5
21C
100
AcDbEntity
  8
0
100
AcDbBlockBegin
 62
7
  6
CONTINUOUS
  2
*D0
 70
65
 10
0.0
 20
0.0
  3
*D0
  1

  0
MTEXT
  5
21D
100
AcDbEntity
  8
0
100
AcDbMText
 62
7
  6
CONTINUOUS
  7
STANDARD
 71
2
 72
1
 10
-0.9833119837
 20
188.7702646588
 30
0.0
 11
1.0
 21
0.0
 31
0.0
 44
0.9
  1
325
 40
3.0
 41
9.9642857143
  0
LINE
  5
21E
100
AcDbEntity
  8
0
100
AcDbLine
 62
7
  6
CONTINUOUS
 10
-163.4833119837
 20
172.3011422859
 11
-163.4833119837
 21
186.5202646588
  0
LINE
  5
21F
100
AcDbEntity
  8
0
100
AcDbLine
 62
7
  6
CONTINUOUS
 10
161.5166880163
 20
172.3011422859
 11
161.5166880163
 21
186.5202646588
  0
LINE
  5
220
100
AcDbEntity
  8
0
100
AcDbLine
 62
7
  6
CONTINUOUS
 10
-163.4833119837
 20
185.0202646588
 11
-0.9833119837
 21
185.0202646588
  0
LINE
  5
221
100
AcDbEntity
  8
0
100
AcDbLine
 62
7
  6
CONTINUOUS
 10
161.5166880163
 20
185.0202646588
 11
-0.9833119837
 21
185.0202646588
  0
INSERT
  5
222
100
AcDbEntity
  8
0
100
AcDbBlockReference
 62
7
  6
CONTINUOUS
  2
_FILLED
 10
-163.4833119837
 20
185.0202646588
 41
3.0
 42
3.0
 43
3.0
 50
180.0
  0
INSERT
  5
223
100
AcDbEntity
  8
0
100
AcDbBlockReference
 62
7
  6
CONTINUOUS
  2
_FILLED
 10
161.5166880163
 20
185.0202646588
 41
3.0
 42
3.0
 43
3.0
 50
0.0
  0
ENDBLK
  5
224
100
AcDbEntity
  8
0
  6
BYBLOCK
 62
0
100
AcDbBlockEnd
  0
BLOCK
  5
225
100
AcDbEntity
  8
0
100
AcDbBlockBegin
 62
7
  6
CONTINUOUS
  2
*D1
 70
65
 10
0.0
 20
0.0
  3
*D1
  1

  0
MTEXT
  5
226
100
AcDbEntity
  8
0
100
AcDbMText
 62
7
  6
CONTINUOUS
  7
STANDARD
 71
2
 72
1
 10
167.115794579
 20
0.3011422859
 30
0.0
 11
0.0
 21
1.0
 31
0.0
 44
0.9
  1
353
 40
3.0
 41
9.6428571429
  0
LINE
  5
227
100
AcDbEntity
  8
0
100
AcDbLine
 62
7
  6
CONTINUOUS
 10
157.0166880163
 20
176.8011422859
 11
172.365794579
 21
176.8011422859
  0
LINE
  5
228
100
AcDbEntity
  8
0
100
AcDbLine
 62
7
  6
CONTINUOUS
 10
157.0166880163
 20
-176.1988577141
 11
172.365794579
 21
-176.1988577141
  0
LINE
  5
229
100
AcDbEntity
  8
0
100
AcDbLine
 62
7
  6
CONTINUOUS
 10
170.865794579
 20
176.8011422859
 11
170.865794579
 21
0.3011422859
  0
LINE
  5
22A
100
AcDbEntity
  8
0
100
AcDbLine
 62
7
  6
CONTINUOUS
 10
170.865794579
 20
-176.1988577141
 11
170.865794579
 21
0.3011422859
  0
INSERT
  5
22B
100
AcDbEntity
  8
0
100
AcDbBlockReference
 62
7
  6
CONTINUOUS
  2
_FILLED
 10
170.865794579
 20
176.8011422859
 41
3.0
 42
3.0
 43
3.0
 50
90.0
  0
INSERT
  5
22C
100
AcDbEntity
  8
0
100
AcDbBlockReference
 62
7
  6
CONTINUOUS
  2
_FILLED
 10
170.865794579
 20
-176.1988577141
 41
3.0
 42
3.0
 43
3.0
 50
270.0
  0
ENDBLK
  5
22D
100
AcDbEntity
  8
0
  6
BYBLOCK
 62
0
100
AcDbBlockEnd
  0
BLOCK
  5
22E
100
AcDbEntity
  8
0
100
AcDbBlockBegin
 62
7
  6
CONTINUOUS
  2
*D2
 70
65
 10
0.0
 20
0.0
  3
*D2
  1

  0
MTEXT
  5
22F
100
AcDbEntity
  8
0
100
AcDbMText
 62
7
  6
CONTINUOUS
  7
STANDARD
 71
2
 72
1
 10
-290.8219291778
 20
188.5511422859
 30
0.0
 11
1.0
 21
0.0
 31
0.0
 44
0.9
  1
126
 40
3.0
 41
9.6428571429
  0
LINE
  5
230
100
AcDbEntity
  8
0
100
AcDbLine
 62
7
  6
CONTINUOUS
 10
-227.8219291778
 20
173.3011422859
 11
-227.8219291778
 21
186.3011422859
  0
LINE
  5
231
100
AcDbEntity
  8
0
100
AcDbLine
 62
7
  6
CONTINUOUS
 10
-353.8219291778
 20
172.3011422859
 11
-353.8219291778
 21
186.3011422859
  0
LINE
  5
232
100
AcDbEntity
  8
0
100
AcDbLine
 62
7
  6
CONTINUOUS
 10
-227.8219291778
 20
184.8011422859
 11
-290.8219291778
 21
184.8011422859
  0
LINE
  5
233
100
AcDbEntity
  8
0
100
AcDbLine
 62
7
  6
CONTINUOUS
 10
-353.8219291778
 20
184.8011422859
 11
-290.8219291778
 21
184.8011422859
  0
INSERT
  5
234
100
AcDbEntity
  8
0
100
AcDbBlockReference
 62
7
  6
CONTINUOUS
  2
_FILLED
 10
-227.8219291778
 20
184.8011422859
 41
3.0
 42
3.0
 43
3.0
  0
INSERT
  5
235
100
AcDbEntity
  8
0
100
AcDbBlockReference
 62
7
  6
CONTINUOUS
  2
_FILLED
 10
-353.8219291778
 20
184.8011422859
 41
3.0
 42
3.0
 43
3.0
 50
180.0
  0
ENDBLK
  5
236
100
AcDbEntity
  8
0
  6
BYBLOCK
 62
0
100
AcDbBlockEnd
  0
ENDSEC
  0
SECTION
  2
ENTITIES
  0
DIMENSION
  5
237
100
AcDbEntity
  8
0
100
AcDbDimension
 62
7
  6
CONTINUOUS
  2
*D0
 10
161.5166880163
 20
185.0202646588
 11
-1.4118833899
 21
185.0202646588
 70
160
 71
2
 42
325.0
  3
DIMSTYLE_1
100
AcDbAlignedDimension
 13
-163.4833119837
 23
171.8011422859
 14
161.5166880163
 24
171.8011422859
100
AcDbRotatedDimension
  0
DIMENSION
  5
238
100
AcDbEntity
  8
0
100
AcDbDimension
 62
7
  6
CONTINUOUS
  2
*D1
 10
170.865794579
 20
-176.1988577141
 11
170.865794579
 21
-0.1274259835
 70
160
 71
2
 42
353.0
  3
DIMSTYLE_1
100
AcDbAlignedDimension
 13
156.5166880163
 23
176.8011422859
 14
156.5166880163
 24
-176.1988577141
 50
270.0
100
AcDbRotatedDimension
  0
DIMENSION
  5
239
100
AcDbEntity
  8
0
100
AcDbDimension
 62
7
  6
CONTINUOUS
  2
*D2
 10
-353.8219291778
 20
184.8011422859
 11
-291.2505012817
 21
184.8011422859
 70
160
 71
2
 42
126.0
  3
DIMSTYLE_1
100
AcDbAlignedDimension
 13
-227.8219291778
 23
172.8011422859
 14
-353.8219291778
 24
171.8011422859
 50
180.0
100
AcDbRotatedDimension
  0
LINE
  5
23A
100
AcDbEntity
  8
RACCORDO
100
AcDbLine
 62
7
  6
CONTINUOUS
 10
-158.4833119837
 20
-176.1988577141
 11
156.5166880163
 21
-176.1988577141
  0
LINE
  5
23B
100
AcDbEntity
  8
0
100
AcDbLine
 62
7
  6
CONTINUOUS
 10
-164.7833119837
 20
172.8011422859
 11
-164.7833119837
 21
-172.1988577141
  0
LINE
  5
23C
100
AcDbEntity
  8
RACCORDO
100
AcDbLine
 62
7
  6
CONTINUOUS
 10
-163.4833119837
 20
171.8011422859
 11
-163.4833119837
 21
-171.1988577141
  0
LINE
  5
23D
100
AcDbEntity
  8
0
100
AcDbLine
 62
7
  6
CONTINUOUS
 10
0.6957331371
 20
-166.512237818
 11
1.0837278421
 21
-166.4270373092
  0
LINE
  5
23E
100
AcDbEntity
  8
0
100
AcDbLine
 62
7
  6
CONTINUOUS
 10
-3.0503518092
 20
-165.9706781165
 11
-2.662349312
 21
-165.8854759171
  0
LWPOLYLINE
  5
23F
100
AcDbEntity
  8
0
100
AcDbPolyline
 62
7
  6
CONTINUOUS
 90
3
 70
0
 10
-2.662349312
 20
-165.8854759171
 10
-2.2648729274
 20
-165.8003005586
 10
-2.2073333327
 20
-165.7881428316
  0
LWPOLYLINE
  5
240
100
AcDbEntity
  8
0
100
AcDbPolyline
 62
7
  6
CONTINUOUS
 90
3
 70
0
 10
0.2407093651
 20
-166.6095725937
 10
0.2982509751
 20
-166.5974144393
 10
0.6957331371
 20
-166.512237818
  0
LINE
  5
241
100
AcDbEntity
  8
RACCORDO
100
AcDbLine
 62
7
  6
CONTINUOUS
 10
161.4156675019
 20
-172.1988577141
 11
162.8166880163
 21
-172.1988577141
  0
LINE
  5
242
100
AcDbEntity
  8
RACCORDO
100
AcDbLine
 62
7
  6
CONTINUOUS
 10
-163.3822914693
 20
-172.1988577141
 11
-164.7833119837
 21
-172.1988577141
  0
LINE
  5
243
100
AcDbEntity
  8
RACCORDO
100
AcDbLine
 62
253
  6
CONTINUOUS
 10
161.5166880163
 20
-171.1988577141
 11
-163.4833119837
 21
-171.1988577141
  0
LINE
  5
244
100
AcDbEntity
  8
0
100
AcDbLine
 62
7
  6
CONTINUOUS
 10
0.1617378619
 20
-166.4272633742
 11
1.0837278421
 21
-166.4270373092
  0
LINE
  5
245
100
AcDbEntity
  8
0
100
AcDbLine
 62
7
  6
CONTINUOUS
 10
-2.1283618284
 20
-165.9704520587
 11
-3.0503518092
 21
-165.9706781165
  0
LINE
  5
246
100
AcDbEntity
  8
0
100
AcDbLine
 62
7
  6
CONTINUOUS
 10
-2.1283515668
 20
-166.4272109852
 11
-3.0503604388
 21
-166.4269591246
  0
LINE
  5
247
100
AcDbEntity
  8
0
100
AcDbLine
 62
7
  6
CONTINUOUS
 10
0.1617275994
 20
-165.970504443
 11
1.0837364714
 21
-165.9707563036
  0
LINE
  5
248
100
AcDbEntity
  8
0
100
AcDbLine
 62
7
  6
CONTINUOUS
 10
-2.606328912
 20
-166.5243060917
 11
-2.2073323078
 21
-166.6095164186
  0
LINE
  5
249
100
AcDbEntity
  8
0
100
AcDbLine
 62
7
  6
CONTINUOUS
 10
0.2407083403
 20
-165.7881990098
 11
0.639713259
 21
-165.8734111337
  0
LWPOLYLINE
  5
24A
100
AcDbEntity
  8
0
100
AcDbPolyline
 62
7
  6
CONTINUOUS
 90
3
 70
0
 10
0.639713259
 20
-165.8734111337
 10
1.0286029472
 20
-165.9585216394
 10
1.0837364714
 20
-165.9707563036
  0
LWPOLYLINE
  5
24B
100
AcDbEntity
  8
0
100
AcDbPolyline
 62
7
  6
CONTINUOUS
 90
3
 70
0
 10
-3.0503604388
 20
-166.4269591246
 10
-2.9952257715
 20
-166.4391940421
 10
-2.606328912
 20
-166.5243060917
  0
LINE
  5
24C
100
AcDbEntity
  8
RACCORDO
100
AcDbLine
 62
253
  6
CONTINUOUS
 10
-158.4833119837
 20
-176.1988577141
 11
-158.4833119837
 21
176.8011422859
  0
LINE
  5
24D
100
AcDbEntity
  8
0
100
AcDbLine
 62
7
  6
CONTINUOUS
 10
-2.1478057539
 20
167.2457197791
 11
-2.0181074921
 21
167.3144314972
  0
LINE
  5
24E
100
AcDbEntity
  8
0
100
AcDbLine
 62
7
  6
CONTINUOUS
 10
0.1811817864
 20
166.3565647926
 11
0.0514835247
 21
166.2878530745
  0
LINE
  5
24F
100
AcDbEntity
  8
0
100
AcDbLine
 62
7
  6
CONTINUOUS
 10
-2.1907831033
 20
167.2231303395
 11
-2.1478057539
 21
167.2457197791
  0
LINE
  5
250
100
AcDbEntity
  8
0
100
AcDbLine
 62
7
  6
CONTINUOUS
 10
0.2241591359
 20
166.3791542322
 11
0.1811817864
 21
166.3565647926
  0
LINE
  5
251
100
AcDbEntity
  8
0
100
AcDbLine
 62
7
  6
CONTINUOUS
 10
-2.0181074921
 20
167.3144314972
 11
-1.8873195184
 21
167.3824673796
  0
LINE
  5
252
100
AcDbEntity
  8
0
100
AcDbLine
 62
7
  6
CONTINUOUS
 10
0.0514835247
 20
166.2878530745
 11
-0.079304449
 21
166.2198171922
  0
LINE
  5
253
100
AcDbEntity
  8
0
100
AcDbLine
 62
7
  6
CONTINUOUS
 10
-1.8873195184
 20
167.3824673796
 11
-1.7581068386
 21
167.4485291086
  0
LINE
  5
254
100
AcDbEntity
  8
0
100
AcDbLine
 62
7
  6
CONTINUOUS
 10
-0.079304449
 20
166.2198171922
 11
-0.2085171288
 21
166.1537554632
  0
LINE
  5
255
100
AcDbEntity
  8
0
100
AcDbLine
 62
7
  6
CONTINUOUS
 10
-1.7581068386
 20
167.4485291086
 11
-1.6733300926
 21
167.4911603024
  0
LINE
  5
256
100
AcDbEntity
  8
0
100
AcDbLine
 62
7
  6
CONTINUOUS
 10
-0.2085171288
 20
166.1537554632
 11
-0.2932938748
 21
166.1111242694
  0
LINE
  5
257
100
AcDbEntity
  8
0
100
AcDbLine
 62
7
  6
CONTINUOUS
 10
-0.5613239301
 20
168.0086134055
 11
-0.7444896111
 21
167.9232485729
  0
LINE
  5
258
100
AcDbEntity
  8
0
100
AcDbLine
 62
7
  6
CONTINUOUS
 10
-1.4053000374
 20
165.5936711663
 11
-1.2221343563
 21
165.6790359989
  0
LINE
  5
259
100
AcDbEntity
  8
SUPERFICI
100
AcDbLine
 62
7
  6
CONTINUOUS
 10
-2.1054182707
 20
167.0399646585
 11
-2.1255901637
 21
167.0305933444
  0
LINE
  5
25A
100
AcDbEntity
  8
SUPERFICI
100
AcDbLine
 62
7
  6
CONTINUOUS
 10
0.1589661964
 20
166.5716912275
 11
0.1387943033
 21
166.5623199133
  0
LWPOLYLINE
  5
25B
100
AcDbEntity
  8
SUPERFICI
100
AcDbPolyline
 62
7
  6
CONTINUOUS
 90
10
 70
0
 10
-1.5030420639
 20
167.3208536717
 10
-1.5757064822
 20
167.2891787326
 10
-1.6457246057
 20
167.2560994677
 10
-1.7135700116
 20
167.2226905011
 10
-1.7795370975
 20
167.1911210582
 10
-1.8444731351
 20
167.1615285648
 10
-1.909322225
 20
167.1314022429
 10
-1.9743625313
 20
167.1000752247
 10
-2.0396375308
 20
167.0693637157
 10
-2.1053989739
 20
167.0399735722
  0
LWPOLYLINE
  5
25C
100
AcDbEntity
  8
SUPERFICI
100
AcDbPolyline
 62
7
  6
CONTINUOUS
 90
10
 70
0
 10
-0.4635819036
 20
166.2814309
 10
-0.3909174853
 20
166.3131058391
 10
-0.3208993618
 20
166.3461851041
 10
-0.2530539558
 20
166.3795940707
 10
-0.18708687
 20
166.4111635135
 10
-0.1221508324
 20
166.440756007
 10
-0.0573017425
 20
166.4708823288
 10
0.0077385639
 20
166.5022093471
 10
0.0730135633
 20
166.5329208561
 10
0.1387750064
 20
166.5623109996
  0
LINE
  5
25D
100
AcDbEntity
  8
0
100
AcDbLine
 62
7
  6
CONTINUOUS
 10
-0.5725971797
 20
168.0251636025
 11
-0.7549063222
 21
167.9461921318
  0
LINE
  5
25E
100
AcDbEntity
  8
0
100
AcDbLine
 62
7
  6
CONTINUOUS
 10
-1.3940267922
 20
165.5771209691
 11
-1.2117176381
 21
165.6560924414
  0
LINE
  5
25F
100
AcDbEntity
  8
CURVE
100
AcDbLine
 62
253
  6
CONTINUOUS
 10
99.4333554777
 20
-150.1988577141
 11
98.1833554777
 21
-150.1988577141
  0
LINE
  5
260
100
AcDbEntity
  8
CURVE
100
AcDbLine
 62
253
  6
CONTINUOUS
 10
92.3500205549
 20
-150.1988577141
 11
91.1000205549
 21
-150.1988577141
  0
LINE
  5
261
100
AcDbEntity
  8
CURVE
100
AcDbLine
 62
253
  6
CONTINUOUS
 10
89.4333554777
 20
-150.1988577141
 11
88.1833554777
 21
-150.1988577141
  0
LINE
  5
262
100
AcDbEntity
  8
CURVE
100
AcDbLine
 62
253
  6
CONTINUOUS
 10
85.2666880163
 20
-150.1988577141
 11
83.600021747
 21
-150.1988577141
  0
LINE
  5
263
100
AcDbEntity
  8
CURVE
100
AcDbLine
 62
253
  6
CONTINUOUS
 10
80.6833542856
 20
-150.1988577141
 11
79.4333542856
 21
-150.1988577141
  0
LINE
  5
264
100
AcDbEntity
  8
CURVE
100
AcDbLine
 62
253
  6
CONTINUOUS
 10
77.7666880163
 20
-150.1988577141
 11
76.5166880163
 21
-150.1988577141
  0
LINE
  5
265
100
AcDbEntity
  8
CURVE
100
AcDbLine
 62
253
  6
CONTINUOUS
 10
71.5166880163
 20
-150.1988577141
 11
69.850021449
 21
-150.1988577141
  0
LINE
  5
266
100
AcDbEntity
  8
CURVE
100
AcDbLine
 62
253
  6
CONTINUOUS
 10
101.1000205549
 20
-150.1988577141
 11
102.3500205549
 21
-150.1988577141
  0
LINE
  5
267
100
AcDbEntity
  8
CURVE
100
AcDbLine
 62
253
  6
CONTINUOUS
 10
107.5583530935
 20
-150.1988577141
 11
109.0166880163
 21
-150.1988577141
  0
LINE
  5
268
100
AcDbEntity
  8
CURVE
100
AcDbLine
 62
253
  6
CONTINUOUS
 10
97.3500205549
 20
-147.6456662311
 11
93.1833554777
 21
-147.6456662311
  0
LINE
  5
269
100
AcDbEntity
  8
CURVE
100
AcDbLine
 62
253
  6
CONTINUOUS
 10
97.1416880163
 20
-146.7946025028
 11
93.3916880163
 21
-146.7946025028
  0
LINE
  5
26A
100
AcDbEntity
  8
CURVE
100
AcDbLine
 62
253
  6
CONTINUOUS
 10
102.3500205549
 20
-145.7307725443
 11
105.8916880163
 21
-145.7307725443
  0
LINE
  5
26B
100
AcDbEntity
  8
CURVE
100
AcDbLine
 62
253
  6
CONTINUOUS
 10
102.3500205549
 20
-144.4541769518
 11
106.3083554777
 21
-144.4541769518
  0
LINE
  5
26C
100
AcDbEntity
  8
0
100
AcDbLine
 62
7
  6
CONTINUOUS
 10
-0.7549587126
 20
-167.3438972972
 11
-0.5726533207
 21
-167.4228780203
  0
LINE
  5
26D
100
AcDbEntity
  8
0
100
AcDbLine
 62
7
  6
CONTINUOUS
 10
-1.3939706467
 20
-164.974837408
 11
-1.2116652548
 21
-165.053818131
  0
LWPOLYLINE
  5
26E
100
AcDbEntity
  8
SUPERFICI
100
AcDbPolyline
 62
7
  6
CONTINUOUS
 90
10
 70
0
 10
-2.1053984777
 20
-166.4376913317
 10
-2.0397612493
 20
-166.4670134455
 10
-1.9745766431
 20
-166.4976870527
 10
-1.9095916337
 20
-166.5289992931
 10
-1.8447551009
 20
-166.559118639
 10
-1.7797959986
 20
-166.5887103646
 10
-1.7137890105
 20
-166.6202991483
 10
-1.6458902363
 20
-166.6537472502
 10
-1.5757971601
 20
-166.6868691821
 10
-1.503035467
 20
-166.7185811974
  0
LWPOLYLINE
  5
26F
100
AcDbEntity
  8
SUPERFICI
100
AcDbPolyline
 62
7
  6
CONTINUOUS
 90
10
 70
0
 10
0.1387745102
 20
-165.9600240966
 10
0.0731372818
 20
-165.9307019827
 10
0.0079526757
 20
-165.9000283755
 10
-0.0570323337
 20
-165.8687161351
 10
-0.1218688665
 20
-165.8385967892
 10
-0.1868279688
 20
-165.8090050636
 10
-0.252834957
 20
-165.7774162799
 10
-0.3207337311
 20
-165.743968178
 10
-0.3908268073
 20
-165.7108462461
 10
-0.4635885005
 20
-165.6791342309
  0
LINE
  5
270
100
AcDbEntity
  8
SUPERFICI
100
AcDbLine
 62
7
  6
CONTINUOUS
 10
-2.1054182774
 20
-166.4376800966
 11
-2.1255901563
 21
-166.4283087928
  0
LINE
  5
271
100
AcDbEntity
  8
SUPERFICI
100
AcDbLine
 62
7
  6
CONTINUOUS
 10
0.13879431
 20
-165.9600353316
 11
0.1589661889
 21
-165.9694066354
  0
LINE
  5
272
100
AcDbEntity
  8
0
100
AcDbLine
 62
7
  6
CONTINUOUS
 10
-0.7444896012
 20
-167.3209640078
 11
-0.5613239791
 21
-167.4063289258
  0
LINE
  5
273
100
AcDbEntity
  8
0
100
AcDbLine
 62
7
  6
CONTINUOUS
 10
-1.2221343662
 20
-165.0767514204
 11
-1.4052999883
 21
-164.9913865024
  0
LINE
  5
274
100
AcDbEntity
  8
0
100
AcDbLine
 62
7
  6
CONTINUOUS
 10
-1.6733303592
 20
-166.8888760903
 11
-1.7162409362
 21
-166.8674297153
  0
LINE
  5
275
100
AcDbEntity
  8
0
100
AcDbLine
 62
7
  6
CONTINUOUS
 10
-0.2932936083
 20
-165.5088393379
 11
-0.2503830312
 21
-165.5302857129
  0
LINE
  5
276
100
AcDbEntity
  8
0
100
AcDbLine
 62
7
  6
CONTINUOUS
 10
-1.7162409362
 20
-166.8674297153
 11
-1.802042336
 21
-166.8238889527
  0
LINE
  5
277
100
AcDbEntity
  8
0
100
AcDbLine
 62
7
  6
CONTINUOUS
 10
-0.2503830312
 20
-165.5302857129
 11
-0.1645816314
 21
-165.5738264755
  0
LINE
  5
278
100
AcDbEntity
  8
0
100
AcDbLine
 62
7
  6
CONTINUOUS
 10
-1.802042336
 20
-166.8238889527
 11
-1.888830217
 21
-166.779405211
  0
LINE
  5
279
100
AcDbEntity
  8
0
100
AcDbLine
 62
7
  6
CONTINUOUS
 10
-0.1645816314
 20
-165.5738264755
 11
-0.0777937504
 21
-165.6183102172
  0
LINE
  5
27A
100
AcDbEntity
  8
0
100
AcDbLine
 62
7
  6
CONTINUOUS
 10
-1.888830217
 20
-166.779405211
 11
-2.0190495536
 21
-166.7116391132
  0
LINE
  5
27B
100
AcDbEntity
  8
0
100
AcDbLine
 62
7
  6
CONTINUOUS
 10
-0.0777937504
 20
-165.6183102172
 11
0.0524255861
 21
-165.686076315
  0
LINE
  5
27C
100
AcDbEntity
  8
0
100
AcDbLine
 62
7
  6
CONTINUOUS
 10
-2.0190495536
 20
-166.7116391132
 11
-2.1907831954
 21
-166.6208457187
  0
LINE
  5
27D
100
AcDbEntity
  8
0
100
AcDbLine
 62
7
  6
CONTINUOUS
 10
0.0524255861
 20
-165.686076315
 11
0.224159228
 21
-165.7768697095
  0
LINE
  5
27E
100
AcDbEntity
  8
0
100
AcDbLine
 62
7
  6
CONTINUOUS
 10
-2.2072865508
 20
167.2117473437
 11
-2.1907831033
 21
167.2231303395
  0
LINE
  5
27F
100
AcDbEntity
  8
0
100
AcDbLine
 62
7
  6
CONTINUOUS
 10
0.2241591359
 20
166.3791542322
 11
0.2406625842
 21
166.3905372286
  0
LINE
  5
280
100
AcDbEntity
  8
CURVE
100
AcDbLine
 62
253
  6
CONTINUOUS
 10
106.3083554777
 20
-141.2626873745
 11
102.3500205549
 21
-141.2626873745
  0
LINE
  5
281
100
AcDbEntity
  8
CURVE
100
AcDbLine
 62
253
  6
CONTINUOUS
 10
106.1000205549
 20
-140.1988577141
 11
101.1000205549
 21
-140.1988577141
  0
LINE
  5
282
100
AcDbEntity
  8
CURVE
100
AcDbLine
 62
253
  6
CONTINUOUS
 10
66.5166880163
 20
-140.1988577141
 11
67.7666880163
 21
-140.1988577141
  0
LINE
  5
283
100
AcDbEntity
  8
CURVE
100
AcDbLine
 62
253
  6
CONTINUOUS
 10
73.6000211509
 20
-140.1988577141
 11
74.8500211509
 21
-140.1988577141
  0
LINE
  5
284
100
AcDbEntity
  8
CURVE
100
AcDbLine
 62
253
  6
CONTINUOUS
 10
76.5166880163
 20
-140.1988577141
 11
77.7666880163
 21
-140.1988577141
  0
LINE
  5
285
100
AcDbEntity
  8
CURVE
100
AcDbLine
 62
253
  6
CONTINUOUS
 10
79.4333542856
 20
-140.1988577141
 11
81.3083542856
 21
-140.1988577141
  0
LINE
  5
286
100
AcDbEntity
  8
CURVE
100
AcDbLine
 62
253
  6
CONTINUOUS
 10
87.5583554777
 20
-140.1988577141
 11
89.4333554777
 21
-140.1988577141
  0
LINE
  5
287
100
AcDbEntity
  8
CURVE
100
AcDbLine
 62
253
  6
CONTINUOUS
 10
94.4333554777
 20
-140.1988577141
 11
96.1000205549
 21
-140.1988577141
  0
LINE
  5
288
100
AcDbEntity
  8
0
100
AcDbLine
 62
7
  6
CONTINUOUS
 10
-2.2073042566
 20
-166.6094505682
 11
-2.1907831954
 21
-166.6208457187
  0
LINE
  5
289
100
AcDbEntity
  8
0
100
AcDbLine
 62
7
  6
CONTINUOUS
 10
0.224159228
 20
-165.7768697095
 11
0.2406802892
 21
-165.78826486
  0
LINE
  5
28A
100
AcDbEntity
  8
0
100
AcDbLine
 62
7
  6
CONTINUOUS
 10
-1.6733303592
 20
166.1111239097
 11
-1.5030354679
 21
166.2814188017
  0
LINE
  5
28B
100
AcDbEntity
  8
0
100
AcDbLine
 62
7
  6
CONTINUOUS
 10
-0.4635884995
 20
167.3208657701
 11
-0.2932936083
 21
167.4911606621
  0
LINE
  5
28C
100
AcDbEntity
  8
CURVE
100
AcDbLine
 62
253
  6
CONTINUOUS
 10
107.1416880163
 20
-140.4116236462
 11
106.1000205549
 21
-140.1988577141
  0
LINE
  5
28D
100
AcDbEntity
  8
0
100
AcDbLine
 62
7
  6
CONTINUOUS
 10
-1.5030354679
 20
-165.6791342299
 11
-1.6733300926
 21
-165.5088396976
  0
LINE
  5
28E
100
AcDbEntity
  8
0
100
AcDbLine
 62
7
  6
CONTINUOUS
 10
-0.4635884995
 20
-166.7185811983
 11
-0.2932938748
 21
-166.8888757306
  0
LINE
  5
28F
100
AcDbEntity
  8
0
100
AcDbLine
 62
7
  6
CONTINUOUS
 10
-1.3939048378
 20
168.0251345588
 11
-1.4052999883
 21
168.0086134976
  0
LINE
  5
290
100
AcDbEntity
  8
CURVE
100
AcDbLine
 62
253
  6
CONTINUOUS
 10
106.9333530935
 20
-141.4754533066
 11
106.3083554777
 21
-141.2626873745
  0
LINE
  5
291
100
AcDbEntity
  8
0
100
AcDbLine
 62
7
  6
CONTINUOUS
 10
-1.4053000374
 20
-167.4063288337
 11
-1.3939170417
 21
-167.4228322811
  0
LINE
  5
292
100
AcDbEntity
  8
0
100
AcDbLine
 62
7
  6
CONTINUOUS
 10
-1.4959546493
 20
167.8371545679
 11
-1.4052999883
 21
168.0086134976
  0
LINE
  5
293
100
AcDbEntity
  8
0
100
AcDbLine
 62
7
  6
CONTINUOUS
 10
-0.5613239791
 20
165.5936710742
 11
-0.5727191296
 21
165.577150013
  0
LINE
  5
294
100
AcDbEntity
  8
0
100
AcDbLine
 62
7
  6
CONTINUOUS
 10
-0.5727069267
 20
-164.9748831458
 11
-0.5613239301
 21
-164.9913865945
  0
LINE
  5
295
100
AcDbEntity
  8
0
100
AcDbLine
 62
7
  6
CONTINUOUS
 10
-1.4278225655
 20
-167.3634564786
 11
-1.4965173549
 21
-167.233823879
  0
LINE
  5
296
100
AcDbEntity
  8
0
100
AcDbLine
 62
7
  6
CONTINUOUS
 10
-1.4053000374
 20
-167.4063288337
 11
-1.4278225655
 21
-167.3634564786
  0
LINE
  5
297
100
AcDbEntity
  8
0
100
AcDbLine
 62
7
  6
CONTINUOUS
 10
-2.2073323078
 20
166.3904835814
 11
-2.1283515668
 21
166.5727890148
  0
LINE
  5
298
100
AcDbEntity
  8
0
100
AcDbLine
 62
7
  6
CONTINUOUS
 10
0.1617275994
 20
167.029495557
 11
0.2407083403
 21
167.2118009902
  0
LWPOLYLINE
  5
299
100
AcDbEntity
  8
SUPERFICI
100
AcDbPolyline
 62
7
  6
CONTINUOUS
 90
10
 70
0
 10
-1.2221432976
 20
167.9232292061
 10
-1.2510338824
 20
167.8583449258
 10
-1.2814613199
 20
167.7937198331
 10
-1.3126724955
 20
167.72909304
 10
-1.3427470372
 20
167.6643798546
 10
-1.3723430539
 20
167.5993376363
 10
-1.4040612694
 20
167.5331147471
 10
-1.4377503413
 20
167.4648763642
 10
-1.471120397
 20
167.3942867831
 10
-1.5030233696
 20
167.320872366
  0
LWPOLYLINE
  5
29A
100
AcDbEntity
  8
SUPERFICI
100
AcDbPolyline
 62
7
  6
CONTINUOUS
 90
10
 70
0
 10
-0.7444806698
 20
165.6790553657
 10
-0.7155900851
 20
165.743939646
 10
-0.6851626475
 20
165.8085647387
 10
-0.653951472
 20
165.8731915318
 10
-0.6238769302
 20
165.9379047172
 10
-0.5942809135
 20
166.0029469355
 10
-0.5625626981
 20
166.0691698247
 10
-0.5288736261
 20
166.1374082076
 10
-0.4955035704
 20
166.2079977887
 10
-0.4636005979
 20
166.2814122057
  0
LINE
  5
29B
100
AcDbEntity
  8
SUPERFICI
100
AcDbLine
 62
7
  6
CONTINUOUS
 10
-1.2221343662
 20
167.9232485796
 11
-1.2127630624
 21
167.9434204585
  0
LINE
  5
29C
100
AcDbEntity
  8
SUPERFICI
100
AcDbLine
 62
7
  6
CONTINUOUS
 10
-0.7444896012
 20
165.6790359922
 11
-0.753860905
 21
165.6588641133
  0
LINE
  5
29D
100
AcDbEntity
  8
0
100
AcDbLine
 62
7
  6
CONTINUOUS
 10
-2.1054182774
 20
166.5623199034
 11
-2.1907831954
 21
166.3791542813
  0
LINE
  5
29E
100
AcDbEntity
  8
0
100
AcDbLine
 62
7
  6
CONTINUOUS
 10
0.13879431
 20
167.0399646684
 11
0.224159228
 21
167.2231302905
  0
LINE
  5
29F
100
AcDbEntity
  8
0
100
AcDbLine
 62
7
  6
CONTINUOUS
 10
-1.6733300926
 20
167.4911603024
 11
-1.6302412339
 21
167.5768912734
  0
LINE
  5
2A0
100
AcDbEntity
  8
0
100
AcDbLine
 62
7
  6
CONTINUOUS
 10
-0.2932938748
 20
166.1111242694
 11
-0.3363827335
 21
166.0253932984
  0
LINE
  5
2A1
100
AcDbEntity
  8
0
100
AcDbLine
 62
7
  6
CONTINUOUS
 10
-1.6302412339
 20
167.5768912734
 11
-1.5638136999
 21
167.7067571816
  0
LINE
  5
2A2
100
AcDbEntity
  8
0
100
AcDbLine
 62
7
  6
CONTINUOUS
 10
-0.3363827335
 20
166.0253932984
 11
-0.4028102676
 21
165.8955273902
  0
LINE
  5
2A3
100
AcDbEntity
  8
0
100
AcDbLine
 62
7
  6
CONTINUOUS
 10
-1.5638136999
 20
167.7067571816
 11
-1.4959546493
 21
167.8371545679
  0
LINE
  5
2A4
100
AcDbEntity
  8
0
100
AcDbLine
 62
7
  6
CONTINUOUS
 10
-0.4028102676
 20
165.8955273902
 11
-0.4706693181
 21
165.7651300038
  0
LINE
  5
2A5
100
AcDbEntity
  8
0
100
AcDbLine
 62
7
  6
CONTINUOUS
 10
-0.4706693181
 20
165.7651300038
 11
-0.5613239791
 21
165.5936710742
  0
LINE
  5
2A6
100
AcDbEntity
  8
0
100
AcDbLine
 62
7
  6
CONTINUOUS
 10
-0.5388014019
 20
-165.0342589496
 11
-0.4701066125
 21
-165.1638915492
  0
LINE
  5
2A7
100
AcDbEntity
  8
0
100
AcDbLine
 62
7
  6
CONTINUOUS
 10
-0.5613239301
 20
-164.9913865945
 11
-0.5388014019
 21
-165.0342589496
  0
LINE
  5
2A8
100
AcDbEntity
  8
0
100
AcDbLine
 62
7
  6
CONTINUOUS
 10
-1.4965173549
 20
-167.233823879
 11
-1.5646652715
 21
-167.1028198512
  0
LINE
  5
2A9
100
AcDbEntity
  8
0
100
AcDbLine
 62
7
  6
CONTINUOUS
 10
-0.4701066125
 20
-165.1638915492
 11
-0.401958696
 21
-165.294895577
  0
LINE
  5
2AA
100
AcDbEntity
  8
0
100
AcDbLine
 62
7
  6
CONTINUOUS
 10
-1.5646652715
 20
-167.1028198512
 11
-1.6090891737
 21
-167.0161257866
  0
LINE
  5
2AB
100
AcDbEntity
  8
0
100
AcDbLine
 62
7
  6
CONTINUOUS
 10
-0.401958696
 20
-165.294895577
 11
-0.3575347937
 21
-165.3815896417
  0
LWPOLYLINE
  5
2AC
100
AcDbEntity
  8
0
100
AcDbPolyline
 62
7
  6
CONTINUOUS
 90
3
 70
0
 10
-1.6090891737
 20
-167.0161257866
 10
-1.6521671737
 20
-166.9311229717
 10
-1.6733303592
 20
-166.8888760903
  0
LWPOLYLINE
  5
2AD
100
AcDbEntity
  8
0
100
AcDbPolyline
 62
7
  6
CONTINUOUS
 90
3
 70
0
 10
-0.3575347937
 20
-165.3815896417
 10
-0.3144567937
 20
-165.4665924565
 10
-0.2932936083
 20
-165.5088393379
  0
LINE
  5
2AE
100
AcDbEntity
  8
0
100
AcDbLine
 62
7
  6
CONTINUOUS
 10
-2.1907831033
 20
-165.7768696605
 11
-2.1054182707
 21
-165.9600353415
  0
LINE
  5
2AF
100
AcDbEntity
  8
0
100
AcDbLine
 62
7
  6
CONTINUOUS
 10
0.2241591359
 20
-166.6208457678
 11
0.1387943033
 21
-166.4376800867
  0
LINE
  5
2B0
100
AcDbEntity
  8
SUPERFICI
100
AcDbLine
 62
7
  6
CONTINUOUS
 10
-1.2127630421
 20
-167.3411358942
 11
-1.2221343563
 21
-167.3209640011
  0
LINE
  5
2B1
100
AcDbEntity
  8
SUPERFICI
100
AcDbLine
 62
7
  6
CONTINUOUS
 10
-0.7444896111
 20
-165.0767514271
 11
-0.7538609252
 21
-165.0565795341
  0
LWPOLYLINE
  5
2B2
100
AcDbEntity
  8
SUPERFICI
100
AcDbPolyline
 62
7
  6
CONTINUOUS
 90
10
 70
0
 10
-1.503035467
 20
-166.7185811974
 10
-1.4713519364
 20
-166.7912527953
 10
-1.4382658015
 20
-166.861274864
 10
-1.4048527865
 20
-166.9291215634
 10
-1.3732853219
 20
-166.9950870761
 10
-1.3436999328
 20
-167.0600201971
 10
-1.3135792994
 20
-167.1248674702
 10
-1.2822534374
 20
-167.1899073946
 10
-1.2515404283
 20
-167.2551824459
 10
-1.2221456494
 20
-167.3209441338
  0
LWPOLYLINE
  5
2B3
100
AcDbEntity
  8
SUPERFICI
100
AcDbPolyline
 62
7
  6
CONTINUOUS
 90
10
 70
0
 10
-0.4635885005
 20
-165.6791342309
 10
-0.495272031
 20
-165.6064626329
 10
-0.5283581659
 20
-165.5364405642
 10
-0.5617711809
 20
-165.4685938648
 10
-0.5933386455
 20
-165.4026283521
 10
-0.6229240346
 20
-165.3376952312
 10
-0.653044668
 20
-165.272847958
 10
-0.6843705301
 20
-165.2078080336
 10
-0.7150835391
 20
-165.1425329824
 10
-0.744478318
 20
-165.0767712945
  0
LINE
  5
2B4
100
AcDbEntity
  8
0
100
AcDbLine
 62
7
  6
CONTINUOUS
 10
-2.2073333327
 20
-165.7881428316
 11
-2.1283618284
 21
-165.9704520587
  0
LINE
  5
2B5
100
AcDbEntity
  8
0
100
AcDbLine
 62
7
  6
CONTINUOUS
 10
0.2407093651
 20
-166.6095725937
 11
0.1617378619
 21
-166.4272633742
  0
LINE
  5
2B6
100
AcDbEntity
  8
0
100
AcDbLine
 62
7
  6
CONTINUOUS
 10
-1.3129422303
 20
168.4048026789
 11
-1.3939706467
 21
168.025162592
  0
LINE
  5
2B7
100
AcDbEntity
  8
0
100
AcDbLine
 62
7
  6
CONTINUOUS
 10
-0.5726533207
 20
165.5771219797
 11
-0.6536853248
 21
165.1974652939
  0
LWPOLYLINE
  5
2B8
100
AcDbEntity
  8
0
100
AcDbPolyline
 62
7
  6
CONTINUOUS
 90
3
 70
0
 10
-0.6536853248
 20
165.1974652939
 10
-0.7349874365
 20
164.8253165898
 10
-0.7552105732
 20
164.7340938308
  0
LWPOLYLINE
  5
2B9
100
AcDbEntity
  8
0
100
AcDbPolyline
 62
7
  6
CONTINUOUS
 90
3
 70
0
 10
-1.2114133942
 20
168.868190741
 10
-1.231638517
 20
168.7769589177
 10
-1.3129422303
 20
168.4048026789
  0
LINE
  5
2BA
100
AcDbEntity
  8
CURVE
100
AcDbLine
 62
253
  6
CONTINUOUS
 10
107.9750229391
 20
-141.0499214424
 11
107.1416880163
 21
-140.4116236462
  0
LINE
  5
2BB
100
AcDbEntity
  8
0
100
AcDbLine
 62
7
  6
CONTINUOUS
 10
-1.2926196844
 20
-167.8966576091
 11
-1.2114915821
 21
-168.2658975396
  0
LINE
  5
2BC
100
AcDbEntity
  8
0
100
AcDbLine
 62
7
  6
CONTINUOUS
 10
-0.7551323895
 20
-164.1318178882
 11
-0.6740001164
 21
-164.5010769875
  0
LWPOLYLINE
  5
2BD
100
AcDbEntity
  8
0
100
AcDbPolyline
 62
7
  6
CONTINUOUS
 90
3
 70
0
 10
-0.6740001164
 20
-164.5010769875
 10
-0.5927729646
 20
-164.8794617197
 10
-0.5725971797
 20
-164.9748363975
  0
LWPOLYLINE
  5
2BE
100
AcDbEntity
  8
0
100
AcDbPolyline
 62
7
  6
CONTINUOUS
 90
3
 70
0
 10
-1.3940267922
 20
-167.4228790309
 10
-1.3738498886
 20
-167.518258957
 10
-1.2926196844
 20
-167.8966576091
  0
LINE
  5
2BF
100
AcDbEntity
  8
CURVE
100
AcDbLine
 62
253
  6
CONTINUOUS
 10
107.3500229391
 20
-141.9009851708
 11
106.9333530935
 21
-141.4754533066
  0
LINE
  5
2C0
100
AcDbEntity
  8
0
100
AcDbLine
 62
7
  6
CONTINUOUS
 10
-1.2117176381
 20
165.6560924414
 11
-1.2114915821
 21
164.7341024604
  0
LINE
  5
2C1
100
AcDbEntity
  8
0
100
AcDbLine
 62
7
  6
CONTINUOUS
 10
-1.2117176381
 20
-167.3439075586
 11
-1.2114915821
 21
-168.2658975396
  0
LINE
  5
2C2
100
AcDbEntity
  8
0
100
AcDbLine
 62
7
  6
CONTINUOUS
 10
-0.7549063222
 20
167.9461921318
 11
-0.7551323895
 21
168.8681821118
  0
LINE
  5
2C3
100
AcDbEntity
  8
0
100
AcDbLine
 62
7
  6
CONTINUOUS
 10
-0.7549063222
 20
-165.0538078682
 11
-0.7551323895
 21
-164.1318178882
  0
LINE
  5
2C4
100
AcDbEntity
  8
0
100
AcDbLine
 62
7
  6
CONTINUOUS
 10
-1.2116652548
 20
167.946181869
 11
-1.2114133942
 21
168.868190741
  0
LINE
  5
2C5
100
AcDbEntity
  8
0
100
AcDbLine
 62
7
  6
CONTINUOUS
 10
-0.7549587126
 20
165.6561027028
 11
-0.7552105732
 21
164.7340938308
  0
LINE
  5
2C6
100
AcDbEntity
  8
0
100
AcDbLine
 62
7
  6
CONTINUOUS
 10
-1.2116652548
 20
-165.053818131
 11
-1.2114133942
 21
-164.131809259
  0
LINE
  5
2C7
100
AcDbEntity
  8
0
100
AcDbLine
 62
7
  6
CONTINUOUS
 10
-0.7549587126
 20
-167.3438972972
 11
-0.7552105732
 21
-168.2659061692
  0
LINE
  5
2C8
100
AcDbEntity
  8
CURVE
100
AcDbLine
 62
253
  6
CONTINUOUS
 10
108.6000229391
 20
-141.9009851708
 11
107.9750229391
 21
-141.0499214424
  0
LINE
  5
2C9
100
AcDbEntity
  8
0
100
AcDbLine
 62
7
  6
CONTINUOUS
 10
-1.3332882227
 20
-164.6896855062
 11
-1.3939706467
 21
-164.974837408
  0
LINE
  5
2CA
100
AcDbEntity
  8
CURVE
100
AcDbLine
 62
253
  6
CONTINUOUS
 10
83.600021747
 20
-150.1988577141
 11
80.6833542856
 21
-142.3265170349
  0
LINE
  5
2CB
100
AcDbEntity
  8
CURVE
100
AcDbLine
 62
253
  6
CONTINUOUS
 10
81.3083542856
 20
-140.1988577141
 11
84.4333542856
 21
-149.1350279047
  0
LINE
  5
2CC
100
AcDbEntity
  8
CURVE
100
AcDbLine
 62
253
  6
CONTINUOUS
 10
67.7666880163
 20
-140.1988577141
 11
70.6833545836
 21
-148.9222619726
  0
LINE
  5
2CD
100
AcDbEntity
  8
CURVE
100
AcDbLine
 62
253
  6
CONTINUOUS
 10
69.850021449
 20
-150.1988577141
 11
66.5166880163
 21
-140.1988577141
  0
LINE
  5
2CE
100
AcDbEntity
  8
0
100
AcDbLine
 62
7
  6
CONTINUOUS
 10
-1.3940267922
 20
165.5771209691
 11
-1.3333557648
 21
165.2919905773
  0
LINE
  5
2CF
100
AcDbEntity
  8
0
100
AcDbLine
 62
7
  6
CONTINUOUS
 10
-0.5726533207
 20
-167.4228780203
 11
-0.6536853248
 21
-167.8025347061
  0
LINE
  5
2D0
100
AcDbEntity
  8
0
100
AcDbLine
 62
7
  6
CONTINUOUS
 10
-1.2518985792
 20
-164.3149719261
 11
-1.3332882227
 21
-164.6896855062
  0
LWPOLYLINE
  5
2D1
100
AcDbEntity
  8
0
100
AcDbPolyline
 62
7
  6
CONTINUOUS
 90
3
 70
0
 10
-0.6536853248
 20
-167.8025347061
 10
-0.7349874365
 20
-168.1746834102
 10
-0.7552105732
 20
-168.2659061692
  0
LINE
  5
2D2
100
AcDbEntity
  8
0
100
AcDbLine
 62
7
  6
CONTINUOUS
 10
-1.2114133942
 20
-164.131809259
 11
-1.2518985792
 21
-164.3149719261
  0
LINE
  5
2D3
100
AcDbEntity
  8
CURVE
100
AcDbLine
 62
253
  6
CONTINUOUS
 10
109.0166880163
 20
-150.1988577141
 11
107.1416880163
 21
-145.3052406802
  0
LINE
  5
2D4
100
AcDbEntity
  8
CURVE
100
AcDbLine
 62
253
  6
CONTINUOUS
 10
105.8916880163
 20
-145.7307725443
 11
107.5583530935
 21
-150.1988577141
  0
LINE
  5
2D5
100
AcDbEntity
  8
CURVE
100
AcDbLine
 62
253
  6
CONTINUOUS
 10
96.1000205549
 20
-140.1988577141
 11
99.4333554777
 21
-150.1988577141
  0
LINE
  5
2D6
100
AcDbEntity
  8
CURVE
100
AcDbLine
 62
253
  6
CONTINUOUS
 10
98.1833554777
 20
-150.1988577141
 11
97.3500205549
 21
-147.6456662311
  0
LINE
  5
2D7
100
AcDbEntity
  8
CURVE
100
AcDbLine
 62
253
  6
CONTINUOUS
 10
95.2666880163
 20
-141.0499214424
 11
97.1416880163
 21
-146.7946025028
  0
LINE
  5
2D8
100
AcDbEntity
  8
0
100
AcDbLine
 62
7
  6
CONTINUOUS
 10
-1.2926196844
 20
165.1033423909
 11
-1.2114915821
 21
164.7341024604
  0
LINE
  5
2D9
100
AcDbEntity
  8
0
100
AcDbLine
 62
7
  6
CONTINUOUS
 10
-0.7551323895
 20
168.8681821118
 11
-0.6740001164
 21
168.4989230125
  0
LINE
  5
2DA
100
AcDbEntity
  8
0
100
AcDbLine
 62
7
  6
CONTINUOUS
 10
-1.3333557648
 20
165.2919905773
 11
-1.2926196844
 21
165.1033423909
  0
LWPOLYLINE
  5
2DB
100
AcDbEntity
  8
0
100
AcDbPolyline
 62
7
  6
CONTINUOUS
 90
3
 70
0
 10
-0.6740001164
 20
168.4989230125
 10
-0.5927729646
 20
168.1205382803
 10
-0.5725971797
 20
168.0251636025
  0
LINE
  5
2DC
100
AcDbEntity
  8
0
100
AcDbLine
 62
7
  6
CONTINUOUS
 10
-2.2073323078
 20
-166.6095164186
 11
-2.1283515668
 21
-166.4272109852
  0
LWPOLYLINE
  5
2DD
100
AcDbEntity
  8
SUPERFICI
100
AcDbPolyline
 62
7
  6
CONTINUOUS
 90
10
 70
0
 10
-1.503035467
 20
166.2814188026
 10
-1.4713519364
 20
166.2087472047
 10
-1.4382658015
 20
166.138725136
 10
-1.4048527865
 20
166.0708784366
 10
-1.3732853219
 20
166.0049129239
 10
-1.3436999328
 20
165.9399798029
 10
-1.3135792994
 20
165.8751325298
 10
-1.2822534374
 20
165.8100926054
 10
-1.2515404283
 20
165.7448175541
 10
-1.2221456494
 20
165.6790558662
  0
LINE
  5
2DE
100
AcDbEntity
  8
0
100
AcDbLine
 62
7
  6
CONTINUOUS
 10
-2.2073333327
 20
167.2118571684
 11
-2.1283618284
 21
167.0295479413
  0
LINE
  5
2DF
100
AcDbEntity
  8
CURVE
100
AcDbLine
 62
253
  6
CONTINUOUS
 10
107.5583530935
 20
-142.539282967
 11
107.3500229391
 21
-141.9009851708
  0
LINE
  5
2E0
100
AcDbEntity
  8
CURVE
100
AcDbLine
 62
253
  6
CONTINUOUS
 10
108.8083530935
 20
-142.539282967
 11
108.6000229391
 21
-141.9009851708
  0
LINE
  5
2E1
100
AcDbEntity
  8
CURVE
100
AcDbLine
 62
253
  6
CONTINUOUS
 10
76.5166880163
 20
-150.1988577141
 11
76.5166880163
 21
-140.1988577141
  0
LINE
  5
2E2
100
AcDbEntity
  8
CURVE
100
AcDbLine
 62
253
  6
CONTINUOUS
 10
77.7666880163
 20
-140.1988577141
 11
77.7666880163
 21
-150.1988577141
  0
LINE
  5
2E3
100
AcDbEntity
  8
CURVE
100
AcDbLine
 62
253
  6
CONTINUOUS
 10
79.4333542856
 20
-150.1988577141
 11
79.4333542856
 21
-140.1988577141
  0
LINE
  5
2E4
100
AcDbEntity
  8
CURVE
100
AcDbLine
 62
253
  6
CONTINUOUS
 10
80.6833542856
 20
-142.3265170349
 11
80.6833542856
 21
-150.1988577141
  0
LINE
  5
2E5
100
AcDbEntity
  8
0
100
AcDbLine
 62
7
  6
CONTINUOUS
 10
0.1617275994
 20
-165.970504443
 11
0.2407083403
 21
-165.7881990098
  0
LWPOLYLINE
  5
2E6
100
AcDbEntity
  8
SUPERFICI
100
AcDbPolyline
 62
7
  6
CONTINUOUS
 90
10
 70
0
 10
-1.2221432976
 20
-165.0767707939
 10
-1.2510338824
 20
-165.1416550742
 10
-1.2814613199
 20
-165.2062801669
 10
-1.3126724955
 20
-165.27090696
 10
-1.3427470372
 20
-165.3356201454
 10
-1.3723430539
 20
-165.4006623637
 10
-1.4040612694
 20
-165.4668852529
 10
-1.4377503413
 20
-165.5351236358
 10
-1.471120397
 20
-165.6057132169
 10
-1.5030233696
 20
-165.679127634
  0
LWPOLYLINE
  5
2E7
100
AcDbEntity
  8
SUPERFICI
100
AcDbPolyline
 62
7
  6
CONTINUOUS
 90
10
 70
0
 10
-0.7444806698
 20
-167.3209446343
 10
-0.7155900851
 20
-167.256060354
 10
-0.6851626475
 20
-167.1914352613
 10
-0.653951472
 20
-167.1268084682
 10
-0.6238769302
 20
-167.0620952828
 10
-0.5942809135
 20
-166.9970530645
 10
-0.5625626981
 20
-166.9308301753
 10
-0.5288736261
 20
-166.8625917924
 10
-0.4955035704
 20
-166.7920022113
 10
-0.4636005979
 20
-166.7185877943
  0
LINE
  5
2E8
100
AcDbEntity
  8
SUPERFICI
100
AcDbLine
 62
7
  6
CONTINUOUS
 10
-1.2221343662
 20
-165.0767514204
 11
-1.2127630624
 21
-165.0565795415
  0
LINE
  5
2E9
100
AcDbEntity
  8
SUPERFICI
100
AcDbLine
 62
7
  6
CONTINUOUS
 10
-0.7444896012
 20
-167.3209640078
 11
-0.753860905
 21
-167.3411358867
  0
LINE
  5
2EA
100
AcDbEntity
  8
0
100
AcDbLine
 62
7
  6
CONTINUOUS
 10
-2.1054182774
 20
-166.4376800966
 11
-2.1907831954
 21
-166.6208457187
  0
LINE
  5
2EB
100
AcDbEntity
  8
0
100
AcDbLine
 62
7
  6
CONTINUOUS
 10
0.13879431
 20
-165.9600353316
 11
0.224159228
 21
-165.7768697095
  0
LINE
  5
2EC
100
AcDbEntity
  8
0
100
AcDbLine
 62
7
  6
CONTINUOUS
 10
-1.6733300926
 20
-165.5088396976
 11
-1.6302412339
 21
-165.4231087266
  0
LINE
  5
2ED
100
AcDbEntity
  8
0
100
AcDbLine
 62
7
  6
CONTINUOUS
 10
-0.2932938748
 20
-166.8888757306
 11
-0.3363827335
 21
-166.9746067016
  0
LINE
  5
2EE
100
AcDbEntity
  8
0
100
AcDbLine
 62
7
  6
CONTINUOUS
 10
-1.6302412339
 20
-165.4231087266
 11
-1.5638136999
 21
-165.2932428184
  0
LINE
  5
2EF
100
AcDbEntity
  8
0
100
AcDbLine
 62
7
  6
CONTINUOUS
 10
-0.3363827335
 20
-166.9746067016
 11
-0.4028102676
 21
-167.1044726098
  0
LINE
  5
2F0
100
AcDbEntity
  8
0
100
AcDbLine
 62
7
  6
CONTINUOUS
 10
-1.5638136999
 20
-165.2932428184
 11
-1.4959546493
 21
-165.1628454321
  0
LINE
  5
2F1
100
AcDbEntity
  8
0
100
AcDbLine
 62
7
  6
CONTINUOUS
 10
-0.4028102676
 20
-167.1044726098
 11
-0.4706693181
 21
-167.2348699962
  0
LINE
  5
2F2
100
AcDbEntity
  8
0
100
AcDbLine
 62
7
  6
CONTINUOUS
 10
-1.4959546493
 20
-165.1628454321
 11
-1.4052999883
 21
-164.9913865024
  0
LINE
  5
2F3
100
AcDbEntity
  8
0
100
AcDbLine
 62
7
  6
CONTINUOUS
 10
-0.4706693181
 20
-167.2348699962
 11
-0.5613239791
 21
-167.4063289258
  0
LINE
  5
2F4
100
AcDbEntity
  8
0
100
AcDbLine
 62
7
  6
CONTINUOUS
 10
-1.4278225655
 20
165.6365435214
 11
-1.4965173549
 21
165.766176121
  0
LINE
  5
2F5
100
AcDbEntity
  8
0
100
AcDbLine
 62
7
  6
CONTINUOUS
 10
-0.5388014019
 20
167.9657410504
 11
-0.4701066125
 21
167.8361084508
  0
LINE
  5
2F6
100
AcDbEntity
  8
0
100
AcDbLine
 62
7
  6
CONTINUOUS
 10
-1.4053000374
 20
165.5936711663
 11
-1.4278225655
 21
165.6365435214
  0
LINE
  5
2F7
100
AcDbEntity
  8
0
100
AcDbLine
 62
7
  6
CONTINUOUS
 10
-0.5613239301
 20
168.0086134055
 11
-0.5388014019
 21
167.9657410504
  0
LINE
  5
2F8
100
AcDbEntity
  8
0
100
AcDbLine
 62
7
  6
CONTINUOUS
 10
-1.4965173549
 20
165.766176121
 11
-1.5646652715
 21
165.8971801488
  0
LINE
  5
2F9
100
AcDbEntity
  8
0
100
AcDbLine
 62
7
  6
CONTINUOUS
 10
-0.4701066125
 20
167.8361084508
 11
-0.401958696
 21
167.705104423
  0
LINE
  5
2FA
100
AcDbEntity
  8
0
100
AcDbLine
 62
7
  6
CONTINUOUS
 10
-1.5646652715
 20
165.8971801488
 11
-1.6090891737
 21
165.9838742134
  0
LINE
  5
2FB
100
AcDbEntity
  8
0
100
AcDbLine
 62
7
  6
CONTINUOUS
 10
-0.401958696
 20
167.705104423
 11
-0.3575347937
 21
167.6184103583
  0
LWPOLYLINE
  5
2FC
100
AcDbEntity
  8
0
100
AcDbPolyline
 62
7
  6
CONTINUOUS
 90
3
 70
0
 10
-1.6090891737
 20
165.9838742134
 10
-1.6521671737
 20
166.0688770283
 10
-1.6733303592
 20
166.1111239097
  0
LWPOLYLINE
  5
2FD
100
AcDbEntity
  8
0
100
AcDbPolyline
 62
7
  6
CONTINUOUS
 90
3
 70
0
 10
-0.3575347937
 20
167.6184103583
 10
-0.3144567937
 20
167.5334075435
 10
-0.2932936083
 20
167.4911606621
  0
LINE
  5
2FE
100
AcDbEntity
  8
0
100
AcDbLine
 62
7
  6
CONTINUOUS
 10
-2.1907831033
 20
167.2231303395
 11
-2.1054182707
 21
167.0399646585
  0
LINE
  5
2FF
100
AcDbEntity
  8
0
100
AcDbLine
 62
7
  6
CONTINUOUS
 10
0.2241591359
 20
166.3791542322
 11
0.1387943033
 21
166.5623199133
  0
LINE
  5
300
100
AcDbEntity
  8
SUPERFICI
100
AcDbLine
 62
7
  6
CONTINUOUS
 10
-1.2127630421
 20
165.6588641058
 11
-1.2221343563
 21
165.6790359989
  0
LINE
  5
301
100
AcDbEntity
  8
SUPERFICI
100
AcDbLine
 62
7
  6
CONTINUOUS
 10
-0.7444896111
 20
167.9232485729
 11
-0.7538609252
 21
167.9434204659
  0
LWPOLYLINE
  5
302
100
AcDbEntity
  8
SUPERFICI
100
AcDbPolyline
 62
7
  6
CONTINUOUS
 90
10
 70
0
 10
-0.4635885005
 20
167.3208657691
 10
-0.495272031
 20
167.3935373671
 10
-0.5283581659
 20
167.4635594358
 10
-0.5617711809
 20
167.5314061352
 10
-0.5933386455
 20
167.5973716479
 10
-0.6229240346
 20
167.6623047688
 10
-0.653044668
 20
167.727152042
 10
-0.6843705301
 20
167.7921919664
 10
-0.7150835391
 20
167.8574670176
 10
-0.744478318
 20
167.9232287055
  0
LINE
  5
303
100
AcDbEntity
  8
0
100
AcDbLine
 62
7
  6
CONTINUOUS
 10
0.2407093651
 20
166.3904274063
 11
0.1617378619
 21
166.5727366258
  0
LINE
  5
304
100
AcDbEntity
  8
CURVE
100
AcDbLine
 62
253
  6
CONTINUOUS
 10
88.1833554777
 20
-150.1988577141
 11
88.1833554777
 21
-142.3265170349
  0
LINE
  5
305
100
AcDbEntity
  8
CURVE
100
AcDbLine
 62
253
  6
CONTINUOUS
 10
89.4333554777
 20
-140.1988577141
 11
89.4333554777
 21
-150.1988577141
  0
LINE
  5
306
100
AcDbEntity
  8
0
100
AcDbLine
 62
7
  6
CONTINUOUS
 10
-1.3939048378
 20
-164.9748654412
 11
-1.4052999883
 21
-164.9913865024
  0
LINE
  5
307
100
AcDbEntity
  8
0
100
AcDbLine
 62
7
  6
CONTINUOUS
 10
-0.5613239791
 20
-167.4063289258
 11
-0.5727191296
 21
-167.422849987
  0
LINE
  5
308
100
AcDbEntity
  8
0
100
AcDbLine
 62
7
  6
CONTINUOUS
 10
-1.4053000374
 20
165.5936711663
 11
-1.3939170417
 21
165.5771677189
  0
LINE
  5
309
100
AcDbEntity
  8
0
100
AcDbLine
 62
7
  6
CONTINUOUS
 10
-0.5727069267
 20
168.0251168542
 11
-0.5613239301
 21
168.0086134055
  0
LINE
  5
30A
100
AcDbEntity
  8
CURVE
100
AcDbLine
 62
253
  6
CONTINUOUS
 10
101.1000205549
 20
-140.1988577141
 11
101.1000205549
 21
-150.1988577141
  0
LINE
  5
30B
100
AcDbEntity
  8
CURVE
100
AcDbLine
 62
253
  6
CONTINUOUS
 10
102.3500205549
 20
-150.1988577141
 11
102.3500205549
 21
-145.7307725443
  0
LINE
  5
30C
100
AcDbEntity
  8
CURVE
100
AcDbLine
 62
253
  6
CONTINUOUS
 10
102.3500205549
 20
-141.2626873745
 11
102.3500205549
 21
-144.4541769518
  0
LINE
  5
30D
100
AcDbEntity
  8
CURVE
100
AcDbLine
 62
253
  6
CONTINUOUS
 10
107.5583530935
 20
-143.1775813593
 11
107.5583530935
 21
-142.539282967
  0
LINE
  5
30E
100
AcDbEntity
  8
CURVE
100
AcDbLine
 62
253
  6
CONTINUOUS
 10
108.8083530935
 20
-143.3903472914
 11
108.8083530935
 21
-142.539282967
  0
LINE
  5
30F
100
AcDbEntity
  8
CURVE
100
AcDbLine
 62
253
  6
CONTINUOUS
 10
74.8500211509
 20
-140.1988577141
 11
71.5166880163
 21
-150.1988577141
  0
LINE
  5
310
100
AcDbEntity
  8
CURVE
100
AcDbLine
 62
253
  6
CONTINUOUS
 10
70.6833545836
 20
-148.9222619726
 11
73.6000211509
 21
-140.1988577141
  0
LINE
  5
311
100
AcDbEntity
  8
CURVE
100
AcDbLine
 62
253
  6
CONTINUOUS
 10
84.4333542856
 20
-149.1350279047
 11
87.5583554777
 21
-140.1988577141
  0
LINE
  5
312
100
AcDbEntity
  8
0
100
AcDbLine
 62
7
  6
CONTINUOUS
 10
-1.6733303592
 20
-166.8888760903
 11
-1.5030354679
 21
-166.7185811983
  0
LINE
  5
313
100
AcDbEntity
  8
0
100
AcDbLine
 62
7
  6
CONTINUOUS
 10
-0.4635884995
 20
-165.6791342299
 11
-0.2932936083
 21
-165.5088393379
  0
LINE
  5
314
100
AcDbEntity
  8
0
100
AcDbLine
 62
7
  6
CONTINUOUS
 10
-0.4635884995
 20
166.2814188017
 11
-0.2932938748
 21
166.1111242694
  0
LINE
  5
315
100
AcDbEntity
  8
0
100
AcDbLine
 62
7
  6
CONTINUOUS
 10
-1.5030354679
 20
167.3208657701
 11
-1.6733300926
 21
167.4911603024
  0
LINE
  5
316
100
AcDbEntity
  8
CURVE
100
AcDbLine
 62
253
  6
CONTINUOUS
 10
93.3916880163
 20
-146.7946025028
 11
95.2666880163
 21
-141.0499214424
  0
LINE
  5
317
100
AcDbEntity
  8
CURVE
100
AcDbLine
 62
253
  6
CONTINUOUS
 10
93.1833554777
 20
-147.6456662311
 11
92.3500205549
 21
-150.1988577141
  0
LINE
  5
318
100
AcDbEntity
  8
CURVE
100
AcDbLine
 62
253
  6
CONTINUOUS
 10
91.1000205549
 20
-150.1988577141
 11
94.4333554777
 21
-140.1988577141
  0
LINE
  5
319
100
AcDbEntity
  8
CURVE
100
AcDbLine
 62
253
  6
CONTINUOUS
 10
88.1833554777
 20
-142.3265170349
 11
85.2666880163
 21
-150.1988577141
  0
LINE
  5
31A
100
AcDbEntity
  8
0
100
AcDbLine
 62
7
  6
CONTINUOUS
 10
-2.2072865508
 20
-165.7882526563
 11
-2.1907831033
 21
-165.7768696605
  0
LINE
  5
31B
100
AcDbEntity
  8
0
100
AcDbLine
 62
7
  6
CONTINUOUS
 10
0.2241591359
 20
-166.6208457678
 11
0.2406625842
 21
-166.6094627714
  0
LINE
  5
31C
100
AcDbEntity
  8
0
100
AcDbLine
 62
7
  6
CONTINUOUS
 10
-2.1478057539
 20
-165.7542802209
 11
-2.0181074921
 21
-165.6855685028
  0
LINE
  5
31D
100
AcDbEntity
  8
0
100
AcDbLine
 62
7
  6
CONTINUOUS
 10
-2.1907831033
 20
-165.7768696605
 11
-2.1478057539
 21
-165.7542802209
  0
LINE
  5
31E
100
AcDbEntity
  8
0
100
AcDbLine
 62
7
  6
CONTINUOUS
 10
-2.0190495536
 20
166.2883608868
 11
-2.1907831954
 21
166.3791542813
  0
LINE
  5
31F
100
AcDbEntity
  8
0
100
AcDbLine
 62
7
  6
CONTINUOUS
 10
-2.2073042566
 20
166.3905494318
 11
-2.1907831954
 21
166.3791542813
  0
LINE
  5
320
100
AcDbEntity
  8
0
100
AcDbLine
 62
7
  6
CONTINUOUS
 10
0.224159228
 20
167.2231302905
 11
0.2406802892
 21
167.21173514
  0
LINE
  5
321
100
AcDbEntity
  8
RACCORDO
100
AcDbLine
 62
253
  6
CONTINUOUS
 10
156.5166880163
 20
-176.1988577141
 11
156.5166880163
 21
176.8011422859
  0
LINE
  5
322
100
AcDbEntity
  8
RACCORDO
100
AcDbLine
 62
7
  6
CONTINUOUS
 10
161.5166880163
 20
-171.1988577141
 11
161.5166880163
 21
171.8011422859
  0
LINE
  5
323
100
AcDbEntity
  8
CURVE
100
AcDbLine
 62
253
  6
CONTINUOUS
 10
107.3500229391
 20
-143.8158791556
 11
107.5583530935
 21
-143.1775813593
  0
LINE
  5
324
100
AcDbEntity
  8
CURVE
100
AcDbLine
 62
253
  6
CONTINUOUS
 10
108.6000229391
 20
-144.0286450877
 11
108.8083530935
 21
-143.3903472914
  0
LINE
  5
325
100
AcDbEntity
  8
0
100
AcDbLine
 62
7
  6
CONTINUOUS
 10
0.1811817864
 20
-166.6434352074
 11
0.0514835247
 21
-166.7121469255
  0
LINE
  5
326
100
AcDbEntity
  8
0
100
AcDbLine
 62
7
  6
CONTINUOUS
 10
0.2241591359
 20
-166.6208457678
 11
0.1811817864
 21
-166.6434352074
  0
LINE
  5
327
100
AcDbEntity
  8
0
100
AcDbLine
 62
7
  6
CONTINUOUS
 10
-2.0181074921
 20
-165.6855685028
 11
-1.8873195184
 21
-165.6175326204
  0
LINE
  5
328
100
AcDbEntity
  8
0
100
AcDbLine
 62
7
  6
CONTINUOUS
 10
0.0514835247
 20
-166.7121469255
 11
-0.079304449
 21
-166.7801828078
  0
LINE
  5
329
100
AcDbEntity
  8
0
100
AcDbLine
 62
7
  6
CONTINUOUS
 10
-1.8873195184
 20
-165.6175326204
 11
-1.7581068386
 21
-165.5514708914
  0
LINE
  5
32A
100
AcDbEntity
  8
0
100
AcDbLine
 62
7
  6
CONTINUOUS
 10
-0.079304449
 20
-166.7801828078
 11
-0.2085171288
 21
-166.8462445368
  0
LINE
  5
32B
100
AcDbEntity
  8
0
100
AcDbLine
 62
7
  6
CONTINUOUS
 10
-1.7581068386
 20
-165.5514708914
 11
-1.6733300926
 21
-165.5088396976
  0
LINE
  5
32C
100
AcDbEntity
  8
0
100
AcDbLine
 62
7
  6
CONTINUOUS
 10
-0.2085171288
 20
-166.8462445368
 11
-0.2932938748
 21
-166.8888757306
  0
LINE
  5
32D
100
AcDbEntity
  8
0
100
AcDbLine
 62
7
  6
CONTINUOUS
 10
-0.5613239301
 20
-164.9913865945
 11
-0.7444896111
 21
-165.0767514271
  0
LINE
  5
32E
100
AcDbEntity
  8
0
100
AcDbLine
 62
7
  6
CONTINUOUS
 10
-1.4053000374
 20
-167.4063288337
 11
-1.2221343563
 21
-167.3209640011
  0
LINE
  5
32F
100
AcDbEntity
  8
SUPERFICI
100
AcDbLine
 62
7
  6
CONTINUOUS
 10
-2.1054182707
 20
-165.9600353415
 11
-2.1255901637
 21
-165.9694066556
  0
LINE
  5
330
100
AcDbEntity
  8
SUPERFICI
100
AcDbLine
 62
7
  6
CONTINUOUS
 10
0.1589661964
 20
-166.4283087725
 11
0.1387943033
 21
-166.4376800867
  0
LWPOLYLINE
  5
331
100
AcDbEntity
  8
SUPERFICI
100
AcDbPolyline
 62
7
  6
CONTINUOUS
 90
10
 70
0
 10
-1.5030420639
 20
-165.6791463283
 10
-1.5757064822
 20
-165.7108212674
 10
-1.6457246057
 20
-165.7439005323
 10
-1.7135700116
 20
-165.7773094989
 10
-1.7795370975
 20
-165.8088789418
 10
-1.8444731351
 20
-165.8384714352
 10
-1.909322225
 20
-165.8685977571
 10
-1.9743625313
 20
-165.8999247753
 10
-2.0396375308
 20
-165.9306362843
 10
-2.1053989739
 20
-165.9600264278
  0
LWPOLYLINE
  5
332
100
AcDbEntity
  8
SUPERFICI
100
AcDbPolyline
 62
7
  6
CONTINUOUS
 90
10
 70
0
 10
-0.4635819036
 20
-166.7185691
 10
-0.3909174853
 20
-166.6868941609
 10
-0.3208993618
 20
-166.6538148959
 10
-0.2530539558
 20
-166.6204059293
 10
-0.18708687
 20
-166.5888364865
 10
-0.1221508324
 20
-166.559243993
 10
-0.0573017425
 20
-166.5291176712
 10
0.0077385639
 20
-166.4977906529
 10
0.0730135633
 20
-166.4670791439
 10
0.1387750064
 20
-166.4376890004
  0
LINE
  5
333
100
AcDbEntity
  8
0
100
AcDbLine
 62
7
  6
CONTINUOUS
 10
-0.5725971797
 20
-164.9748363975
 11
-0.7549063222
 21
-165.0538078682
  0
LINE
  5
334
100
AcDbEntity
  8
0
100
AcDbLine
 62
7
  6
CONTINUOUS
 10
-1.3940267922
 20
-167.4228790309
 11
-1.2117176381
 21
-167.3439075586
  0
LINE
  5
335
100
AcDbEntity
  8
0
100
AcDbLine
 62
7
  6
CONTINUOUS
 10
0.6957331371
 20
166.487762182
 11
1.0837278421
 21
166.5729626908
  0
LWPOLYLINE
  5
336
100
AcDbEntity
  8
0
100
AcDbPolyline
 62
7
  6
CONTINUOUS
 90
3
 70
0
 10
0.2407093651
 20
166.3904274063
 10
0.2982509751
 20
166.4025855607
 10
0.6957331371
 20
166.487762182
  0
LINE
  5
337
100
AcDbEntity
  8
0
100
AcDbLine
 62
7
  6
CONTINUOUS
 10
-2.606328912
 20
166.4756939083
 11
-2.2073323078
 21
166.3904835814
  0
LWPOLYLINE
  5
338
100
AcDbEntity
  8
0
100
AcDbPolyline
 62
7
  6
CONTINUOUS
 90
3
 70
0
 10
-3.0503604388
 20
166.5730408754
 10
-2.9952257715
 20
166.5608059579
 10
-2.606328912
 20
166.4756939083
  0
LINE
  5
339
100
AcDbEntity
  8
0
100
AcDbLine
 62
7
  6
CONTINUOUS
 10
-0.7549587126
 20
165.6561027028
 11
-0.5726533207
 21
165.5771219797
  0
LINE
  5
33A
100
AcDbEntity
  8
0
100
AcDbLine
 62
7
  6
CONTINUOUS
 10
-1.3939706467
 20
168.025162592
 11
-1.2116652548
 21
167.946181869
  0
LWPOLYLINE
  5
33B
100
AcDbEntity
  8
SUPERFICI
100
AcDbPolyline
 62
7
  6
CONTINUOUS
 90
10
 70
0
 10
-2.1053984777
 20
166.5623086683
 10
-2.0397612493
 20
166.5329865545
 10
-1.9745766431
 20
166.5023129473
 10
-1.9095916337
 20
166.4710007069
 10
-1.8447551009
 20
166.440881361
 10
-1.7797959986
 20
166.4112896354
 10
-1.7137890105
 20
166.3797008517
 10
-1.6458902363
 20
166.3462527498
 10
-1.5757971601
 20
166.3131308179
 10
-1.503035467
 20
166.2814188026
  0
LWPOLYLINE
  5
33C
100
AcDbEntity
  8
SUPERFICI
100
AcDbPolyline
 62
7
  6
CONTINUOUS
 90
10
 70
0
 10
0.1387745102
 20
167.0399759034
 10
0.0731372818
 20
167.0692980173
 10
0.0079526757
 20
167.0999716245
 10
-0.0570323337
 20
167.1312838649
 10
-0.1218688665
 20
167.1614032108
 10
-0.1868279688
 20
167.1909949364
 10
-0.252834957
 20
167.2225837201
 10
-0.3207337311
 20
167.256031822
 10
-0.3908268073
 20
167.2891537539
 10
-0.4635885005
 20
167.3208657691
  0
LINE
  5
33D
100
AcDbEntity
  8
SUPERFICI
100
AcDbLine
 62
7
  6
CONTINUOUS
 10
-2.1054182774
 20
166.5623199034
 11
-2.1255901563
 21
166.5716912072
  0
LINE
  5
33E
100
AcDbEntity
  8
SUPERFICI
100
AcDbLine
 62
7
  6
CONTINUOUS
 10
0.13879431
 20
167.0399646684
 11
0.1589661889
 21
167.0305933646
  0
LINE
  5
33F
100
AcDbEntity
  8
0
100
AcDbLine
 62
7
  6
CONTINUOUS
 10
-0.7444896012
 20
165.6790359922
 11
-0.5613239791
 21
165.5936710742
  0
LINE
  5
340
100
AcDbEntity
  8
0
100
AcDbLine
 62
7
  6
CONTINUOUS
 10
-1.2221343662
 20
167.9232485796
 11
-1.4052999883
 21
168.0086134976
  0
LINE
  5
341
100
AcDbEntity
  8
0
100
AcDbLine
 62
7
  6
CONTINUOUS
 10
-1.6733303592
 20
166.1111239097
 11
-1.7162409362
 21
166.1325702847
  0
LINE
  5
342
100
AcDbEntity
  8
0
100
AcDbLine
 62
7
  6
CONTINUOUS
 10
-0.2932936083
 20
167.4911606621
 11
-0.2503830312
 21
167.4697142871
  0
LINE
  5
343
100
AcDbEntity
  8
0
100
AcDbLine
 62
7
  6
CONTINUOUS
 10
-1.7162409362
 20
166.1325702847
 11
-1.802042336
 21
166.1761110473
  0
LINE
  5
344
100
AcDbEntity
  8
0
100
AcDbLine
 62
7
  6
CONTINUOUS
 10
-0.2503830312
 20
167.4697142871
 11
-0.1645816314
 21
167.4261735245
  0
LINE
  5
345
100
AcDbEntity
  8
0
100
AcDbLine
 62
7
  6
CONTINUOUS
 10
-1.802042336
 20
166.1761110473
 11
-1.888830217
 21
166.220594789
  0
LINE
  5
346
100
AcDbEntity
  8
0
100
AcDbLine
 62
7
  6
CONTINUOUS
 10
-0.1645816314
 20
167.4261735245
 11
-0.0777937504
 21
167.3816897828
  0
LINE
  5
347
100
AcDbEntity
  8
0
100
AcDbLine
 62
7
  6
CONTINUOUS
 10
-1.888830217
 20
166.220594789
 11
-2.0190495536
 21
166.2883608868
  0
LINE
  5
348
100
AcDbEntity
  8
0
100
AcDbLine
 62
7
  6
CONTINUOUS
 10
-0.0777937504
 20
167.3816897828
 11
0.0524255861
 21
167.313923685
  0
LINE
  5
349
100
AcDbEntity
  8
0
100
AcDbLine
 62
7
  6
CONTINUOUS
 10
0.0524255861
 20
167.313923685
 11
0.224159228
 21
167.2231302905
  0
LINE
  5
34A
100
AcDbEntity
  8
0
100
AcDbLine
 62
7
  6
CONTINUOUS
 10
162.8166880163
 20
172.8011422859
 11
162.8166880163
 21
-172.1988577141
  0
LINE
  5
34B
100
AcDbEntity
  8
CURVE
100
AcDbLine
 62
253
  6
CONTINUOUS
 10
107.9750229391
 20
-144.879708816
 11
108.6000229391
 21
-144.0286450877
  0
LINE
  5
34C
100
AcDbEntity
  8
CURVE
100
AcDbLine
 62
253
  6
CONTINUOUS
 10
106.9333530935
 20
-144.2414110197
 11
107.3500229391
 21
-143.8158791556
  0
LINE
  5
34D
100
AcDbEntity
  8
CURVE
100
AcDbLine
 62
253
  6
CONTINUOUS
 10
106.3083554777
 20
-144.4541769518
 11
106.9333530935
 21
-144.2414110197
  0
LINE
  5
34E
100
AcDbEntity
  8
0
100
AcDbLine
 62
7
  6
CONTINUOUS
 10
-3.0503518092
 20
167.0293218835
 11
-2.662349312
 21
167.1145240829
  0
LWPOLYLINE
  5
34F
100
AcDbEntity
  8
0
100
AcDbPolyline
 62
7
  6
CONTINUOUS
 90
3
 70
0
 10
-2.662349312
 20
167.1145240829
 10
-2.2648729274
 20
167.1996994414
 10
-2.2073333327
 20
167.2118571684
  0
LINE
  5
350
100
AcDbEntity
  8
RACCORDO
100
AcDbLine
 62
253
  6
CONTINUOUS
 10
161.5166880163
 20
171.8011422859
 11
-163.4833119837
 21
171.8011422859
  0
LINE
  5
351
100
AcDbEntity
  8
RACCORDO
100
AcDbLine
 62
7
  6
CONTINUOUS
 10
162.8166880163
 20
172.8011422859
 11
161.4156675019
 21
172.8011422859
  0
LINE
  5
352
100
AcDbEntity
  8
RACCORDO
100
AcDbLine
 62
7
  6
CONTINUOUS
 10
-163.3822914693
 20
172.8011422859
 11
-164.7833119837
 21
172.8011422859
  0
LINE
  5
353
100
AcDbEntity
  8
RACCORDO
100
AcDbLine
 62
7
  6
CONTINUOUS
 10
156.5166880163
 20
176.8011422859
 11
-158.4833119837
 21
176.8011422859
  0
LINE
  5
354
100
AcDbEntity
  8
0
100
AcDbLine
 62
7
  6
CONTINUOUS
 10
0.1617378619
 20
166.5727366258
 11
1.0837278421
 21
166.5729626908
  0
LINE
  5
355
100
AcDbEntity
  8
0
100
AcDbLine
 62
7
  6
CONTINUOUS
 10
-2.1283618284
 20
167.0295479413
 11
-3.0503518092
 21
167.0293218835
  0
LINE
  5
356
100
AcDbEntity
  8
0
100
AcDbLine
 62
7
  6
CONTINUOUS
 10
-2.1283515668
 20
166.5727890148
 11
-3.0503604388
 21
166.5730408754
  0
LINE
  5
357
100
AcDbEntity
  8
0
100
AcDbLine
 62
7
  6
CONTINUOUS
 10
0.1617275994
 20
167.029495557
 11
1.0837364714
 21
167.0292436964
  0
LINE
  5
358
100
AcDbEntity
  8
0
100
AcDbLine
 62
7
  6
CONTINUOUS
 10
0.2407083403
 20
167.2118009902
 11
0.639713259
 21
167.1265888663
  0
LWPOLYLINE
  5
359
100
AcDbEntity
  8
0
100
AcDbPolyline
 62
7
  6
CONTINUOUS
 90
3
 70
0
 10
0.639713259
 20
167.1265888663
 10
1.0286029472
 20
167.0414783606
 10
1.0837364714
 20
167.0292436964
  0
LINE
  5
35A
100
AcDbEntity
  8
CURVE
100
AcDbLine
 62
253
  6
CONTINUOUS
 10
107.1416880163
 20
-145.3052406802
 11
107.9750229391
 21
-144.879708816
  0
LINE
  5
35B
100
AcDbEntity
  8
RACCORDO
100
AcDbLine
 62
7
  6
CONTINUOUS
 10
-348.8219291778
 20
-176.1988577141
 11
-244.8219291778
 21
-176.1988577141
  0
LINE
  5
35C
100
AcDbEntity
  8
RACCORDO
100
AcDbLine
 62
7
  6
CONTINUOUS
 10
-227.8219291778
 20
-172.1988577141
 11
-254.8219291778
 21
-172.1988577141
  0
LINE
  5
35D
100
AcDbEntity
  8
RACCORDO
100
AcDbLine
 62
253
  6
CONTINUOUS
 10
-353.8219291778
 20
-171.1988577141
 11
-254.8219291778
 21
-171.1988577141
  0
LINE
  5
35E
100
AcDbEntity
  8
0
100
AcDbLine
 62
7
  6
CONTINUOUS
 10
-355.7842853921
 20
-170.1988577141
 11
-354.2219291778
 21
-170.1988577141
  0
LINE
  5
35F
100
AcDbEntity
  8
0
100
AcDbLine
 62
7
  6
CONTINUOUS
 10
-355.7842853921
 20
-162.1988577141
 11
-354.2219291778
 21
-162.1988577141
  0
LWPOLYLINE
  5
360
100
AcDbEntity
  8
0
100
AcDbPolyline
 62
7
  6
CONTINUOUS
 90
13
 70
0
 10
-356.9426361483
 20
166.4269210537
 10
-356.9330480034
 20
166.4391050809
 10
-356.9230535104
 20
166.4512955027
 10
-356.9126779086
 20
166.4634722536
 10
-356.9019308955
 20
166.4756240533
 10
-356.8908027737
 20
166.487762182
 10
-356.8792896901
 20
166.4999004138
 10
-356.8673970108
 20
166.5120358151
 10
-356.8551193698
 20
166.5241713196
 10
-356.842436816
 20
166.5363295019
 10
-356.8293426993
 20
166.548517887
 10
-356.81584367
 20
166.56072895
 10
-356.801939728
 20
166.5729626908
  0
LWPOLYLINE
  5
361
100
AcDbEntity
  8
0
100
AcDbPolyline
 62
7
  6
CONTINUOUS
 90
13
 70
0
 10
-356.9426326805
 20
-165.8247051322
 10
-356.9330441575
 20
-165.8368906782
 10
-356.9230501347
 20
-165.8490814861
 10
-356.9126750439
 20
-165.8612586109
 10
-356.9019283258
 20
-165.8734111337
 10
-356.8908005395
 20
-165.8855499734
 10
-356.8792877939
 20
-165.8976889423
 10
-356.8673954463
 20
-165.9098251179
 10
-356.8551181393
 20
-165.9219614227
 10
-356.8424359102
 20
-165.9341204357
 10
-356.8293421049
 20
-165.9463096834
 10
-356.8158433774
 20
-165.9585216394
 10
-356.801939728
 20
-165.9707563036
  0
LWPOLYLINE
  5
362
100
AcDbEntity
  8
0
100
AcDbPolyline
 62
7
  6
CONTINUOUS
 90
4
 70
0
 10
-356.9689372541
 20
166.3904274063
 10
-356.960576567
 20
166.4025855607
 10
-356.9518095318
 20
166.4147501098
 10
-356.9426361483
 20
166.4269210537
  0
LWPOLYLINE
  5
363
100
AcDbEntity
  8
0
100
AcDbPolyline
 62
7
  6
CONTINUOUS
 90
4
 70
0
 10
-356.9689408201
 20
-165.7881990098
 10
-356.9605769399
 20
-165.8003624555
 10
-356.9518075601
 20
-165.8125311629
 10
-356.9426326805
 20
-165.8247051322
  0
LINE
  5
364
100
AcDbEntity
  8
0
100
AcDbLine
 62
7
  6
CONTINUOUS
 10
-356.9708568291
 20
166.3791542322
 11
-356.9759755401
 21
166.3565647926
  0
LWPOLYLINE
  5
365
100
AcDbEntity
  8
0
100
AcDbPolyline
 62
7
  6
CONTINUOUS
 90
10
 70
0
 10
-356.801939728
 20
168.8681821118
 10
-356.824744601
 20
168.7769462319
 10
-356.8465130568
 20
168.6850112801
 10
-356.8672450952
 20
168.5923772563
 10
-356.8869753875
 20
168.4989230125
 10
-356.9056692624
 20
168.4047696966
 10
-356.9232227067
 20
168.3102807533
 10
-356.939601049
 20
168.2155773306
 10
-356.9548389606
 20
168.1205382803
 10
-356.9689364415
 20
168.0251636025
  0
LINE
  5
366
100
AcDbEntity
  8
0
100
AcDbLine
 62
7
  6
CONTINUOUS
 10
-356.9708568291
 20
166.3791542322
 11
-356.9689506
 21
166.3905372286
  0
LWPOLYLINE
  5
367
100
AcDbEntity
  8
0
100
AcDbPolyline
 62
7
  6
CONTINUOUS
 90
12
 70
0
 10
-356.9759755401
 20
166.3565647926
 10
-356.9807928308
 20
166.3337291732
 10
-356.9853217969
 20
166.3107742791
 10
-356.9895962686
 20
166.2878530745
 10
-356.9936062124
 20
166.2650657172
 10
-356.9973029138
 20
166.2423983433
 10
-357.0006966275
 20
166.2198171922
 10
-357.0038075842
 20
166.197463284
 10
-357.0066081912
 20
166.1754483482
 10
-357.0091002079
 20
166.1537554632
 10
-357.0113115868
 20
166.1323237362
 10
-357.0132548814
 20
166.1111242694
  0
LINE
  5
368
100
AcDbEntity
  8
0
100
AcDbLine
 62
7
  6
CONTINUOUS
 10
-356.9708568178
 20
-165.7768697095
 11
-356.9689485038
 21
-165.78826486
  0
LWPOLYLINE
  5
369
100
AcDbEntity
  8
0
100
AcDbPolyline
 62
7
  6
CONTINUOUS
 90
10
 70
0
 10
-356.9689403682
 20
-167.4228780203
 10
-356.9548386819
 20
-167.5182747995
 10
-356.9395975754
 20
-167.6133298388
 10
-356.9232170486
 20
-167.7080431382
 10
-356.9056625213
 20
-167.8025347061
 10
-356.8869685738
 20
-167.896684534
 10
-356.8672389466
 20
-167.9901325968
 10
-356.84650822
 20
-168.082758886
 10
-356.8247418138
 20
-168.1746834102
 10
-356.801939728
 20
-168.2659061692
  0
LWPOLYLINE
  5
36A
100
AcDbEntity
  8
0
100
AcDbPolyline
 62
7
  6
CONTINUOUS
 90
13
 70
0
 10
-357.013254828
 20
-165.5088393379
 10
-357.0112804881
 20
-165.5302857129
 10
-357.009042346
 20
-165.5519459575
 10
-357.0065279913
 20
-165.5738264755
 10
-357.0037083904
 20
-165.5959426099
 10
-357.0005832722
 20
-165.6183102172
 10
-356.997184585
 20
-165.6408664334
 10
-356.9934972982
 20
-165.6634503866
 10
-356.9895076072
 20
-165.686076315
 10
-356.9852551118
 20
-165.7088342972
 10
-356.9807465532
 20
-165.7316618455
 10
-356.9759514489
 20
-165.754381248
 10
-356.9708568178
 20
-165.7768697095
  0
LWPOLYLINE
  5
36B
100
AcDbEntity
  8
0
100
AcDbPolyline
 62
7
  6
CONTINUOUS
 90
13
 70
0
 10
-356.9689506003
 20
168.0251168542
 10
-356.9759640435
 20
167.9657410504
 10
-356.980774724
 20
167.9227667351
 10
-356.985301613
 20
167.8796297483
 10
-356.9895796991
 20
167.8361084508
 10
-356.9935970787
 20
167.7923132876
 10
-356.9973005116
 20
167.7486714545
 10
-357.0006996807
 20
167.705104423
 10
-357.0038155197
 20
167.661542934
 10
-357.0066183058
 20
167.6184103583
 10
-357.0091092589
 20
167.5757871193
 10
-357.0113172113
 20
167.5334075435
 10
-357.013254828
 20
167.4911606621
  0
LINE
  5
36C
100
AcDbEntity
  8
0
100
AcDbLine
 62
7
  6
CONTINUOUS
 10
-356.9759363734
 20
-167.3636927919
 11
-356.9689485039
 21
-167.422849987
  0
LWPOLYLINE
  5
36D
100
AcDbEntity
  8
0
100
AcDbPolyline
 62
7
  6
CONTINUOUS
 90
12
 70
0
 10
-357.0132548814
 20
-166.8888757306
 10
-357.0112828337
 20
-166.9317509708
 10
-357.0090453162
 20
-166.9746067016
 10
-357.0065298279
 20
-167.0175580206
 10
-357.0037065478
 20
-167.0608685821
 10
-357.0005757211
 20
-167.1044726098
 10
-356.9971712747
 20
-167.1479706399
 10
-356.9934774552
 20
-167.191397641
 10
-356.9894811314
 20
-167.2348699962
 10
-356.9852264503
 20
-167.2780829272
 10
-356.9807220588
 20
-167.3209638558
 10
-356.9759363734
 20
-167.3636927919
  0
LINE
  5
36E
100
AcDbEntity
  8
0
100
AcDbLine
 62
7
  6
CONTINUOUS
 10
-356.801939728
 20
168.8807382969
 11
-356.801939728
 21
168.868190741
  0
LINE
  5
36F
100
AcDbEntity
  8
0
100
AcDbLine
 62
7
  6
CONTINUOUS
 10
-356.801939728
 20
164.7341024604
 11
-356.801939728
 21
164.7215462748
  0
LINE
  5
370
100
AcDbEntity
  8
0
100
AcDbLine
 62
7
  6
CONTINUOUS
 10
-356.801939728
 20
-168.2784537252
 11
-356.801939728
 21
-168.2659061692
  0
LINE
  5
371
100
AcDbEntity
  8
0
100
AcDbLine
 62
7
  6
CONTINUOUS
 10
-356.801939728
 20
-166.4270373092
 11
-356.801939728
 21
-165.9707563036
  0
LINE
  5
372
100
AcDbEntity
  8
0
100
AcDbLine
 62
7
  6
CONTINUOUS
 10
-356.801939728
 20
-164.1318178882
 11
-356.801939728
 21
-164.1192617031
  0
LINE
  5
373
100
AcDbEntity
  8
0
100
AcDbLine
 62
7
  6
CONTINUOUS
 10
-356.801939728
 20
166.5729626908
 11
-356.801939728
 21
167.0292436964
  0
LINE
  5
374
100
AcDbEntity
  8
RACCORDO
100
AcDbLine
 62
253
  6
CONTINUOUS
 10
-356.1384363049
 20
-169.9848069839
 11
-356.1384363049
 21
-162.4129084443
  0
LINE
  5
375
100
AcDbEntity
  8
RACCORDO
100
AcDbLine
 62
253
  6
CONTINUOUS
 10
-356.1384363049
 20
163.0151930161
 11
-356.1384363049
 21
170.5870915557
  0
LINE
  5
376
100
AcDbEntity
  8
RACCORDO
100
AcDbLine
 62
253
  6
CONTINUOUS
 10
-355.7842853921
 20
-170.1988577141
 11
-355.7842853921
 21
-162.1988577141
  0
LINE
  5
377
100
AcDbEntity
  8
RACCORDO
100
AcDbLine
 62
253
  6
CONTINUOUS
 10
-355.7842853921
 20
162.8011422859
 11
-355.7842853921
 21
170.8011422859
  0
LINE
  5
378
100
AcDbEntity
  8
RACCORDO
100
AcDbLine
 62
253
  6
CONTINUOUS
 10
-354.2219291778
 20
-170.1988577141
 11
-354.2219291778
 21
-162.1988577141
  0
LINE
  5
379
100
AcDbEntity
  8
RACCORDO
100
AcDbLine
 62
253
  6
CONTINUOUS
 10
-354.2219291778
 20
162.8011422859
 11
-354.2219291778
 21
170.8011422859
  0
LINE
  5
37A
100
AcDbEntity
  8
RACCORDO
100
AcDbLine
 62
7
  6
CONTINUOUS
 10
-353.8219291778
 20
-171.1988577141
 11
-353.8219291778
 21
171.8011422859
  0
LWPOLYLINE
  5
37B
100
AcDbEntity
  8
0
100
AcDbPolyline
 62
7
  6
CONTINUOUS
 90
13
 70
0
 10
-357.013254828
 20
167.4911606621
 10
-357.0112804881
 20
167.4697142871
 10
-357.009042346
 20
167.4480540425
 10
-357.0065279913
 20
167.4261735245
 10
-357.0037083904
 20
167.4040573901
 10
-357.0005832722
 20
167.3816897828
 10
-356.997184585
 20
167.3591335666
 10
-356.9934972982
 20
167.3365496134
 10
-356.9895076072
 20
167.313923685
 10
-356.9852551118
 20
167.2911657028
 10
-356.9807465532
 20
167.2683381545
 10
-356.9759514489
 20
167.245618752
 10
-356.9708568178
 20
167.2231302905
  0
LWPOLYLINE
  5
37C
100
AcDbEntity
  8
0
100
AcDbPolyline
 62
7
  6
CONTINUOUS
 90
12
 70
0
 10
-357.0132548814
 20
166.1111242694
 10
-357.0112828337
 20
166.0682490292
 10
-357.0090453162
 20
166.0253932984
 10
-357.0065298279
 20
165.9824419794
 10
-357.0037065478
 20
165.9391314179
 10
-357.0005757211
 20
165.8955273902
 10
-356.9971712747
 20
165.8520293601
 10
-356.9934774552
 20
165.808602359
 10
-356.9894811314
 20
165.7651300038
 10
-356.9852264503
 20
165.7219170728
 10
-356.9807220588
 20
165.6790361442
 10
-356.9759363734
 20
165.6363072081
  0
LINE
  5
37D
100
AcDbEntity
  8
RACCORDO
100
AcDbLine
 62
253
  6
CONTINUOUS
 10
-348.8219291778
 20
-176.1988577141
 11
-348.8219291778
 21
176.8011422859
  0
LWPOLYLINE
  5
37E
100
AcDbEntity
  8
0
100
AcDbPolyline
 62
7
  6
CONTINUOUS
 90
13
 70
0
 10
-356.9689506003
 20
-164.9748831458
 10
-356.9759640435
 20
-165.0342589496
 10
-356.980774724
 20
-165.0772332649
 10
-356.985301613
 20
-165.1203702517
 10
-356.9895796991
 20
-165.1638915492
 10
-356.9935970787
 20
-165.2076867124
 10
-356.9973005116
 20
-165.2513285455
 10
-357.0006996807
 20
-165.294895577
 10
-357.0038155197
 20
-165.338457066
 10
-357.0066183058
 20
-165.3815896417
 10
-357.0091092589
 20
-165.4242128807
 10
-357.0113172113
 20
-165.4665924565
 10
-357.013254828
 20
-165.5088393379
  0
LINE
  5
37F
100
AcDbEntity
  8
0
100
AcDbLine
 62
7
  6
CONTINUOUS
 10
-356.9708568291
 20
-166.6208457678
 11
-356.9689506
 21
-166.6094627714
  0
LINE
  5
380
100
AcDbEntity
  8
0
100
AcDbLine
 62
7
  6
CONTINUOUS
 10
-356.9708568178
 20
167.2231302905
 11
-356.9689485038
 21
167.21173514
  0
LWPOLYLINE
  5
381
100
AcDbEntity
  8
0
100
AcDbPolyline
 62
7
  6
CONTINUOUS
 90
10
 70
0
 10
-356.9689403682
 20
165.5771219797
 10
-356.9548386819
 20
165.4817252005
 10
-356.9395975754
 20
165.3866701612
 10
-356.9232170486
 20
165.2919568618
 10
-356.9056625213
 20
165.1974652939
 10
-356.8869685738
 20
165.103315466
 10
-356.8672389466
 20
165.0098674032
 10
-356.84650822
 20
164.917241114
 10
-356.8247418138
 20
164.8253165898
 10
-356.801939728
 20
164.7340938308
  0
LINE
  5
382
100
AcDbEntity
  8
0
100
AcDbLine
 62
7
  6
CONTINUOUS
 10
-356.9759363734
 20
165.6363072081
 11
-356.9689485039
 21
165.577150013
  0
LWPOLYLINE
  5
383
100
AcDbEntity
  8
0
100
AcDbPolyline
 62
7
  6
CONTINUOUS
 90
12
 70
0
 10
-356.9759755401
 20
-166.6434352074
 10
-356.9807928308
 20
-166.6662708268
 10
-356.9853217969
 20
-166.6892257209
 10
-356.9895962686
 20
-166.7121469255
 10
-356.9936062124
 20
-166.7349342828
 10
-356.9973029138
 20
-166.7576016567
 10
-357.0006966275
 20
-166.7801828078
 10
-357.0038075842
 20
-166.802536716
 10
-357.0066081912
 20
-166.8245516518
 10
-357.0091002079
 20
-166.8462445368
 10
-357.0113115868
 20
-166.8676762638
 10
-357.0132548814
 20
-166.8888757306
  0
LINE
  5
384
100
AcDbEntity
  8
0
100
AcDbLine
 62
7
  6
CONTINUOUS
 10
-356.9708568291
 20
-166.6208457678
 11
-356.9759755401
 21
-166.6434352074
  0
LWPOLYLINE
  5
385
100
AcDbEntity
  8
0
100
AcDbPolyline
 62
7
  6
CONTINUOUS
 90
10
 70
0
 10
-356.801939728
 20
-164.1318178882
 10
-356.824744601
 20
-164.2230537681
 10
-356.8465130568
 20
-164.3149887199
 10
-356.8672450952
 20
-164.4076227437
 10
-356.8869753875
 20
-164.5010769875
 10
-356.9056692624
 20
-164.5952303034
 10
-356.9232227067
 20
-164.6897192467
 10
-356.939601049
 20
-164.7844226694
 10
-356.9548389606
 20
-164.8794617197
 10
-356.9689364415
 20
-164.9748363975
  0
LINE
  5
386
100
AcDbEntity
  8
0
100
AcDbLine
 62
7
  6
CONTINUOUS
 10
-254.8219291778
 20
172.8011422859
 11
-254.8219291778
 21
-172.1988577141
  0
LINE
  5
387
100
AcDbEntity
  8
ASSI
100
AcDbLine
 62
7
  6
CONTINUOUS
 10
-227.8319543036
 20
39.3011422859
 11
-227.8219291778
 21
39.3011422859
  0
LINE
  5
388
100
AcDbEntity
  8
RACCORDO
100
AcDbLine
 62
253
  6
CONTINUOUS
 10
-245.5219291778
 20
-172.1988577141
 11
-245.5219291778
 21
172.8011422859
  0
LINE
  5
389
100
AcDbEntity
  8
RACCORDO
100
AcDbLine
 62
7
  6
CONTINUOUS
 10
-244.8219291778
 20
176.8011422859
 11
-244.8219291778
 21
172.8011422859
  0
LINE
  5
38A
100
AcDbEntity
  8
RACCORDO
100
AcDbLine
 62
7
  6
CONTINUOUS
 10
-244.8219291778
 20
-172.1988577141
 11
-244.8219291778
 21
-176.1988577141
  0
LINE
  5
38B
100
AcDbEntity
  8
RACCORDO
100
AcDbLine
 62
7
  6
CONTINUOUS
 10
-243.5219291778
 20
-172.1988577141
 11
-243.5219291778
 21
172.8011422859
  0
LINE
  5
38C
100
AcDbEntity
  8
RACCORDO
100
AcDbLine
 62
253
  6
CONTINUOUS
 10
-241.5219291778
 20
172.8011422859
 11
-241.5219291778
 21
-172.1988577141
  0
LWPOLYLINE
  5
38D
100
AcDbEntity
  8
0
100
AcDbPolyline
 62
7
  6
CONTINUOUS
 90
4
 70
0
 10
-356.9689372541
 20
-166.6095725937
 10
-356.960576567
 20
-166.5974144393
 10
-356.9518095318
 20
-166.5852498902
 10
-356.9426361483
 20
-166.5730789463
  0
LWPOLYLINE
  5
38E
100
AcDbEntity
  8
0
100
AcDbPolyline
 62
7
  6
CONTINUOUS
 90
4
 70
0
 10
-356.9689408201
 20
167.2118009902
 10
-356.9605769399
 20
167.1996375445
 10
-356.9518075601
 20
167.1874688371
 10
-356.9426326805
 20
167.1752948678
  0
LINE
  5
38F
100
AcDbEntity
  8
RACCORDO
100
AcDbLine
 62
253
  6
CONTINUOUS
 10
-229.8219291778
 20
-172.1988577141
 11
-229.8219291778
 21
172.8011422859
  0
LWPOLYLINE
  5
390
100
AcDbEntity
  8
0
100
AcDbPolyline
 62
7
  6
CONTINUOUS
 90
13
 70
0
 10
-356.9426361483
 20
-166.5730789463
 10
-356.9330480034
 20
-166.5608949191
 10
-356.9230535104
 20
-166.5487044973
 10
-356.9126779086
 20
-166.5365277464
 10
-356.9019308955
 20
-166.5243759467
 10
-356.8908027737
 20
-166.512237818
 10
-356.8792896901
 20
-166.5000995862
 10
-356.8673970108
 20
-166.4879641849
 10
-356.8551193698
 20
-166.4758286804
 10
-356.842436816
 20
-166.4636704981
 10
-356.8293426993
 20
-166.451482113
 10
-356.81584367
 20
-166.43927105
 10
-356.801939728
 20
-166.4270373092
  0
LINE
  5
391
100
AcDbEntity
  8
ASSI
100
AcDbLine
 62
7
  6
CONTINUOUS
 10
-227.8319543036
 20
64.3011422859
 11
-227.8219291778
 21
64.3011422859
  0
LWPOLYLINE
  5
392
100
AcDbEntity
  8
0
100
AcDbPolyline
 62
7
  6
CONTINUOUS
 90
13
 70
0
 10
-356.9426326805
 20
167.1752948678
 10
-356.9330441575
 20
167.1631093218
 10
-356.9230501347
 20
167.1509185139
 10
-356.9126750439
 20
167.1387413891
 10
-356.9019283258
 20
167.1265888663
 10
-356.8908005395
 20
167.1144500266
 10
-356.8792877939
 20
167.1023110577
 10
-356.8673954463
 20
167.0901748821
 10
-356.8551181393
 20
167.0780385773
 10
-356.8424359102
 20
167.0658795643
 10
-356.8293421049
 20
167.0536903166
 10
-356.8158433774
 20
167.0414783606
 10
-356.801939728
 20
167.0292436964
  0
LINE
  5
393
100
AcDbEntity
  8
ASSI
100
AcDbLine
 62
7
  6
CONTINUOUS
 10
-227.8319543036
 20
39.3011422859
 11
-227.8319543036
 21
64.3011422859
  0
LINE
  5
394
100
AcDbEntity
  8
ASSI
100
AcDbLine
 62
7
  6
CONTINUOUS
 10
-227.8219291778
 20
-172.1988577141
 11
-227.8219291778
 21
39.3011422859
  0
LINE
  5
395
100
AcDbEntity
  8
ASSI
100
AcDbLine
 62
7
  6
CONTINUOUS
 10
-227.8219291778
 20
64.3011422859
 11
-227.8219291778
 21
172.8011422859
  0
LINE
  5
396
100
AcDbEntity
  8
0
100
AcDbLine
 62
7
  6
CONTINUOUS
 10
-355.7842853921
 20
162.8011422859
 11
-354.2219291778
 21
162.8011422859
  0
LINE
  5
397
100
AcDbEntity
  8
0
100
AcDbLine
 62
7
  6
CONTINUOUS
 10
-355.7842853921
 20
170.8011422859
 11
-354.2219291778
 21
170.8011422859
  0
LINE
  5
398
100
AcDbEntity
  8
RACCORDO
100
AcDbLine
 62
253
  6
CONTINUOUS
 10
-353.8219291778
 20
171.8011422859
 11
-254.8219291778
 21
171.8011422859
  0
LINE
  5
399
100
AcDbEntity
  8
RACCORDO
100
AcDbLine
 62
7
  6
CONTINUOUS
 10
-227.8219291778
 20
172.8011422859
 11
-254.8219291778
 21
172.8011422859
  0
LINE
  5
39A
100
AcDbEntity
  8
RACCORDO
100
AcDbLine
 62
7
  6
CONTINUOUS
 10
-348.8219291778
 20
176.8011422859
 11
-244.8219291778
 21
176.8011422859
  0
ARC
  5
39B
100
AcDbEntity
  8
RACCORDO
100
AcDbCircle
 62
7
  6
CONTINUOUS
 10
-158.4833119837
 20
-171.1988577141
 40
5.0
100
AcDbArc
 50
180.0
 51
270.0
  0
ARC
  5
39C
100
AcDbEntity
  8
RACCORDO
100
AcDbCircle
 62
7
  6
CONTINUOUS
 10
-158.4833119837
 20
171.8011422859
 40
5.0
100
AcDbArc
 50
90.0
 51
180.0
  0
ARC
  5
39D
100
AcDbEntity
  8
RACCORDO
100
AcDbCircle
 62
7
  6
CONTINUOUS
 10
156.5166880163
 20
171.8011422859
 40
5.0
100
AcDbArc
 50
0.0
 51
90.0
  0
ARC
  5
39E
100
AcDbEntity
  8
RACCORDO
100
AcDbCircle
 62
7
  6
CONTINUOUS
 10
156.5166880163
 20
-171.1988577141
 40
5.0
100
AcDbArc
 50
270.0
 51
360.0
  0
CIRCLE
  5
39F
100
AcDbEntity
  8
RACCORDO
100
AcDbCircle
 62
7
  6
CONTINUOUS
 10
-0.9833119837
 20
-166.1988577141
 40
4.0
  0
CIRCLE
  5
3A0
100
AcDbEntity
  8
RACCORDO
100
AcDbCircle
 62
7
  6
CONTINUOUS
 10
-0.9833119837
 20
166.8011422859
 40
4.0
  0
CIRCLE
  5
3A1
100
AcDbEntity
  8
RACCORDO
100
AcDbCircle
 62
253
  6
CONTINUOUS
 10
-0.9833119837
 20
-166.1988577141
 40
3.7859492698
  0
CIRCLE
  5
3A2
100
AcDbEntity
  8
RACCORDO
100
AcDbCircle
 62
253
  6
CONTINUOUS
 10
-0.9833119837
 20
166.8011422859
 40
3.7859492698
  0
ARC
  5
3A3
100
AcDbEntity
  8
0
100
AcDbCircle
 62
7
  6
CONTINUOUS
 10
-0.9833119837
 20
-166.1988577141
 40
2.079596011
100
AcDbArc
 50
353.7006497437
 51
6.2971830823
  0
ARC
  5
3A4
100
AcDbEntity
  8
0
100
AcDbCircle
 62
7
  6
CONTINUOUS
 10
-0.9833119837
 20
-166.1988577141
 40
2.079596011
100
AcDbArc
 50
83.7006497662
 51
96.2971830823
  0
ARC
  5
3A5
100
AcDbEntity
  8
0
100
AcDbCircle
 62
7
  6
CONTINUOUS
 10
-0.9833119837
 20
-166.1988577141
 40
2.079596011
100
AcDbArc
 50
173.7006496721
 51
186.2971830823
  0
ARC
  5
3A6
100
AcDbEntity
  8
0
100
AcDbCircle
 62
7
  6
CONTINUOUS
 10
-0.9833119837
 20
-166.1988577141
 40
2.079596011
100
AcDbArc
 50
263.7006496524
 51
276.2971830823
  0
ARC
  5
3A7
100
AcDbEntity
  8
0
100
AcDbCircle
 62
7
  6
CONTINUOUS
 10
-0.9833119837
 20
166.8011422859
 40
2.079596011
100
AcDbArc
 50
353.7006497437
 51
6.2971830823
  0
ARC
  5
3A8
100
AcDbEntity
  8
0
100
AcDbCircle
 62
7
  6
CONTINUOUS
 10
-0.9833119837
 20
166.8011422859
 40
2.079596011
100
AcDbArc
 50
83.7006497662
 51
96.2971830823
  0
ARC
  5
3A9
100
AcDbEntity
  8
0
100
AcDbCircle
 62
7
  6
CONTINUOUS
 10
-0.9833119837
 20
166.8011422859
 40
2.079596011
100
AcDbArc
 50
173.7006496721
 51
186.2971830823
  0
ARC
  5
3AA
100
AcDbEntity
  8
0
100
AcDbCircle
 62
7
  6
CONTINUOUS
 10
-0.9833119837
 20
166.8011422859
 40
2.079596011
100
AcDbArc
 50
263.7006496524
 51
276.2971830823
  0
ARC
  5
3AB
100
AcDbEntity
  8
SUPERFICI
100
AcDbCircle
 62
7
  6
CONTINUOUS
 10
-0.9833119837
 20
-166.1988577141
 40
1.1472225576
100
AcDbArc
 50
167.9841557561
 51
192.0159632826
  0
ARC
  5
3AC
100
AcDbEntity
  8
SUPERFICI
100
AcDbCircle
 62
7
  6
CONTINUOUS
 10
-0.9833119837
 20
-166.1988577141
 40
1.1472225576
100
AcDbArc
 50
347.9841557561
 51
12.0159632826
  0
ARC
  5
3AD
100
AcDbEntity
  8
SUPERFICI
100
AcDbCircle
 62
7
  6
CONTINUOUS
 10
-0.9833119837
 20
166.8011422859
 40
1.1472225576
100
AcDbArc
 50
167.9841557561
 51
192.0159632826
  0
ARC
  5
3AE
100
AcDbEntity
  8
SUPERFICI
100
AcDbCircle
 62
7
  6
CONTINUOUS
 10
-0.9833119837
 20
166.8011422859
 40
1.1472225576
100
AcDbArc
 50
347.9841557561
 51
12.0159632826
  0
ARC
  5
3AF
100
AcDbEntity
  8
SUPERFICI
100
AcDbCircle
 62
7
  6
CONTINUOUS
 10
-0.9833119837
 20
-166.1988577141
 40
1.147222495
100
AcDbArc
 50
257.9840335937
 51
282.0158463198
  0
ARC
  5
3B0
100
AcDbEntity
  8
SUPERFICI
100
AcDbCircle
 62
7
  6
CONTINUOUS
 10
-0.9833119837
 20
-166.1988577141
 40
1.147222495
100
AcDbArc
 50
77.9840335937
 51
102.0158463198
  0
ARC
  5
3B1
100
AcDbEntity
  8
SUPERFICI
100
AcDbCircle
 62
7
  6
CONTINUOUS
 10
-0.9833119837
 20
166.8011422859
 40
1.147222495
100
AcDbArc
 50
257.9840335937
 51
282.0158463198
  0
ARC
  5
3B2
100
AcDbEntity
  8
SUPERFICI
100
AcDbCircle
 62
7
  6
CONTINUOUS
 10
-0.9833119837
 20
166.8011422859
 40
1.147222495
100
AcDbArc
 50
77.9840335937
 51
102.0158463198
  0
ARC
  5
3B3
100
AcDbEntity
  8
0
100
AcDbCircle
 62
7
  6
CONTINUOUS
 10
-348.9278815587
 20
166.8011422859
 40
8.144047619
100
AcDbArc
 50
194.7944231584
 51
207.7020144293
  0
ARC
  5
3B4
100
AcDbEntity
  8
0
100
AcDbCircle
 62
7
  6
CONTINUOUS
 10
-348.9278815587
 20
166.8011422859
 40
8.144047619
100
AcDbArc
 50
152.2979855707
 51
165.2055768416
  0
ARC
  5
3B5
100
AcDbEntity
  8
0
100
AcDbCircle
 62
7
  6
CONTINUOUS
 10
-348.9278815587
 20
-166.1988577141
 40
8.144047619
100
AcDbArc
 50
194.7944231584
 51
207.7020144293
  0
ARC
  5
3B6
100
AcDbEntity
  8
0
100
AcDbCircle
 62
7
  6
CONTINUOUS
 10
-348.9278815587
 20
-166.1988577141
 40
8.144047619
100
AcDbArc
 50
152.2979855707
 51
165.2055768416
  0
ARC
  5
3B7
100
AcDbEntity
  8
RACCORDO
100
AcDbCircle
 62
7
  6
CONTINUOUS
 10
-348.8219291778
 20
171.8011422859
 40
5.0
100
AcDbArc
 50
90.0
 51
180.0
  0
ARC
  5
3B8
100
AcDbEntity
  8
RACCORDO
100
AcDbCircle
 62
7
  6
CONTINUOUS
 10
-348.8219291778
 20
-171.1988577141
 40
5.0
100
AcDbArc
 50
180.0
 51
270.0
  0
ARC
  5
3B9
100
AcDbEntity
  8
RACCORDO
100
AcDbCircle
 62
7
  6
CONTINUOUS
 10
-355.7842853921
 20
170.4011422859
 40
0.4
100
AcDbArc
 50
90.0
 51
152.2979855707
  0
ARC
  5
3BA
100
AcDbEntity
  8
RACCORDO
100
AcDbCircle
 62
7
  6
CONTINUOUS
 10
-355.7842853921
 20
163.2011422859
 40
0.4
100
AcDbArc
 50
207.7020144293
 51
270.0
  0
ARC
  5
3BB
100
AcDbEntity
  8
RACCORDO
100
AcDbCircle
 62
7
  6
CONTINUOUS
 10
-354.2219291778
 20
170.4011422859
 40
0.4
100
AcDbArc
 50
0.0
 51
90.0
  0
ARC
  5
3BC
100
AcDbEntity
  8
RACCORDO
100
AcDbCircle
 62
7
  6
CONTINUOUS
 10
-354.2219291778
 20
163.2011422859
 40
0.4
100
AcDbArc
 50
270.0
 51
360.0
  0
ARC
  5
3BD
100
AcDbEntity
  8
RACCORDO
100
AcDbCircle
 62
7
  6
CONTINUOUS
 10
-355.7842853921
 20
-162.5988577141
 40
0.4
100
AcDbArc
 50
90.0
 51
152.2979855707
  0
ARC
  5
3BE
100
AcDbEntity
  8
RACCORDO
100
AcDbCircle
 62
7
  6
CONTINUOUS
 10
-355.7842853921
 20
-169.7988577141
 40
0.4
100
AcDbArc
 50
207.7020144293
 51
270.0
  0
ARC
  5
3BF
100
AcDbEntity
  8
RACCORDO
100
AcDbCircle
 62
7
  6
CONTINUOUS
 10
-354.2219291778
 20
-162.5988577141
 40
0.4
100
AcDbArc
 50
0.0
 51
90.0
  0
ARC
  5
3C0
100
AcDbEntity
  8
RACCORDO
100
AcDbCircle
 62
7
  6
CONTINUOUS
 10
-354.2219291778
 20
-169.7988577141
 40
0.4
100
AcDbArc
 50
270.0
 51
360.0
  0
ENDSEC
  0
SECTION
  2
OBJECTS
  0
DICTIONARY
  5
C
100
AcDbDictionary
280
0
281
1
  3
ACAD_GROUP
350
D
  3
ACAD_MLINESTYLE
350
17
  3
ACAD_LAYOUT
350
1A
  3
ACAD_PLOTSETTINGS
350
19
  3
ACAD_PLOTSTYLENAME
350
E
  0
DICTIONARY
  5
D
102
{ACAD_REACTORS
330
C
102
}
100
AcDbDictionary
280
0
281
1
  0
ACDBDICTIONARYWDFLT
  5
E
102
{ACAD_REACTORS
330
C
102
}
100
AcDbDictionary
281
1
  3
Normal
350
F
100
AcDbDictionaryWithDefault
340
F
  0
DICTIONARY
  5
17
102
{ACAD_REACTORS
330
C
102
}
100
AcDbDictionary
280
0
281
1
  3
Standard
350
18
  0
DICTIONARY
  5
19
102
{ACAD_REACTORS
330
C
102
}
100
AcDbDictionary
281
1
  0
DICTIONARY
  5
1A
102
{ACAD_REACTORS
330
C
102
}
100
AcDbDictionary
281
1
  3
Model
350
3C1
  3
Layout1
350
3C2
  0
ACDBPLACEHOLDER
  5
F
102
{ACAD_REACTORS
330
E
102
}
  0
MLINESTYLE
  5
18
102
{ACAD_REACTORS
330
17
102
}
100
AcDbMlineStyle
  2
STANDARD
 70
0
  3

 62
256
 51
90.0
 52
90.0
 71
2
 49
0.5
 62
256
  6
BYLAYER
 49
-0.5
 62
256
  6
BYLAYER
  0
LAYOUT
  5
3C1
102
{ACAD_REACTORS
330
1A
102
}
100
AcDbPlotSettings
  1

  2
none_device
  4
ISO_A4_(297.00_x_210.00_MM)
  6

 40
0.0
 41
0.0
 42
0.0
 43
0.0
 44
297.0
 45
210.0
 46
0.0
 47
0.0
 48
0.0
 49
0.0
140
0.0
141
0.0
142
1.0
143
1.0
 70
1024
 72
1
 73
0
 74
0
  7

 75
0
147
1.0
148
0.0
149
0.0
100
AcDbLayout
  1
Model
 70
0
 71
0
 10
0.0
 20
0.0
 11
297.0
 21
210.0
 12
0.0
 22
0.0
 32
0.0
 14
0.0
 24
0.0
 34
0.0
 15
0.0
 25
0.0
 35
0.0
146
0.0
 13
0.0
 23
0.0
 33
0.0
 16
1.0
 26
0.0
 36
0.0
 17
0.0
 27
1.0
 37
0.0
 76
0
330
211
345
0
346
0
  0
LAYOUT
  5
3C2
102
{ACAD_REACTORS
330
1A
102
}
100
AcDbPlotSettings
  1

  2
none_device
  4
ISO_A4_(297.00_x_210.00_MM)
  6

 40
0.0
 41
0.0
 42
0.0
 43
0.0
 44
297.0
 45
210.0
 46
0.0
 47
0.0
 48
0.0
 49
0.0
140
0.0
141
0.0
142
1.0
143
1.0
 70
0
 72
1
 73
0
 74
0
  7

 75
0
147
1.0
148
0.0
149
0.0
100
AcDbLayout
  1
Layout1
 70
0
 71
1
 10
0.0
 20
0.0
 11
297.0
 21
210.0
 12
0.0
 22
0.0
 32
0.0
 14
0.0
 24
0.0
 34
0.0
 15
0.0
 25
0.0
 35
0.0
146
0.0
 13
0.0
 23
0.0
 33
0.0
 16
1.0
 26
0.0
 36
0.0
 17
0.0
 27
1.0
 37
0.0
 76
0
330
212
345
0
346
0
  0
ENDSEC
  0
EOF
