  0
SECTION
  2
HEADER
  9
$ACADVER
  1
AC1021
  9
$DWGCODEPAGE
  3
ANSI_1252
  9
$EXTMAX
 10
297.0
 20
210.0
 30
0.0
  9
$EXTMIN
 10
0.0
 20
0.0
 30
0.0
  9
$LIMMIN
 10
0.0
 20
0.0
  9
$LIMMAX
 10
297.0
 20
210.0
  9
$VIEWCTR
 10
148.5
 20
105.0
  9
$VIEWSIZE
 40
210.0
  9
$CLAYER
  8
0
  9
$LTSCALE
 40
16.335
  9
$CELTYPE
  6
BYLAYER
  9
$DIMSCALE
 40
1.0
  9
$DIMASZ
 40
3.0
  9
$DIMEXO
 40
0.5
  9
$DIMDLI
 40
11.286
  9
$DIMEXE
 40
1.5
  9
$DIMCEN
 40
2.673
  9
$DIMLFAC
 40
1.0
  9
$DIMBLK
  1
_FILLED
  9
$DIMALT
 70
0
  9
$DIMALTF
 40
0.0393700787
  9
$DIMTXT
 40
3.0
  9
$DIMTOL
 70
1
  9
$DIMLIM
 70
0
  9
$DIMTFAC
 40
1.0
  9
$DIMTP
 40
0.01
  9
$DIMTM
 40
0.01
  9
$DIMGAP
 40
0.625
  9
$DIMDSEP
 70
44
  9
$AUNITS
 70
0
  9
$PDMODE
 70
3
  9
$PDSIZE
 40
3.0
  9
$HANDSEED
  5
356
  9
$TILEMODE
 70
1
  9
$MEASUREMENT
 70
1
  9
$INSUNITS
 70
4
  0
ENDSEC
  0
SECTION
  2
CLASSES
  0
CLASS
  1
ACDBDICTIONARYWDFLT
  2
AcDbDictionaryWithDefault
  3
AutoCAD 2000
 90
0
 91
1
280
0
281
0
  0
CLASS
  1
ACDBPLACEHOLDER
  2
AcDbPlaceHolder
  3
AutoCAD 2000
 90
0
 91
1
280
0
281
0
  0
CLASS
  1
LAYOUT
  2
AcDbLayout
  3
AutoCAD 2000
 90
0
 91
0
280
0
281
0
  0
ENDSEC
  0
SECTION
  2
TABLES
  0
TABLE
  2
VPORT
  5
8
100
AcDbSymbolTable
 70
2
  0
VPORT
  5
1F4
100
AcDbSymbolTableRecord
100
AcDbViewportTableRecord
  2
*ACTIVE
 70
0
 10
0.0
 20
0.0
 11
1.0
 21
1.0
 12
148.5
 22
105.0
 13
0.0
 23
0.0
 14
1.0
 24
1.0
 15
0.0
 25
0.0
 16
0.0
 26
0.0
 36
1.0
 17
0.0
 27
0.0
 37
0.0
 40
210.0
 41
1.4142857143
 42
50.0
 43
0.0
 44
0.0
 50
0.0
 51
0.0
 71
0
 72
100
 73
1
 74
1
 75
0
 76
0
 77
0
 78
0
  0
ENDTAB
  0
TABLE
  2
LTYPE
  5
5
100
AcDbSymbolTable
 70
6
  0
LTYPE
  5
14
100
AcDbSymbolTableRecord
100
AcDbLinetypeTableRecord
  2
BYBLOCK
 70
0
  3

 72
65
 73
0
 40
0.0
  0
LTYPE
  5
15
100
AcDbSymbolTableRecord
100
AcDbLinetypeTableRecord
  2
BYLAYER
 70
0
  3

 72
65
 73
0
 40
0.0
  0
LTYPE
  5
16
100
AcDbSymbolTableRecord
100
AcDbLinetypeTableRecord
  2
CONTINUOUS
 70
64
  3
Solid line
 72
65
 73
0
 40
0.0
  0
LTYPE
  5
1F5
100
AcDbSymbolTableRecord
100
AcDbLinetypeTableRecord
  2
CENTER
 70
64
  3
____ _ ____ _ ____ _ ____ _ ____ _ ____ _ ____
 72
65
 73
4
 40
0.6
 49
0.375
 74
0
 49
-0.075
 74
0
 49
0.075
 74
0
 49
-0.075
 74
0
  0
LTYPE
  5
1F6
100
AcDbSymbolTableRecord
100
AcDbLinetypeTableRecord
  2
HIDDEN
 70
64
  3
- - - - - - - - - - - - - - - - - - - -
 72
65
 73
2
 40
0.2
 49
0.1
 74
0
 49
-0.1
 74
0
  0
LTYPE
  5
1F7
100
AcDbSymbolTableRecord
100
AcDbLinetypeTableRecord
  2
PHANTOM
 70
64
  3
_____ _ _ _____ _ _ _____ _ _ _____
 72
65
 73
6
 40
0.8
 49
0.45
 74
0
 49
-0.05
 74
0
 49
0.1
 74
0
 49
-0.05
 74
0
 49
0.1
 74
0
 49
-0.05
 74
0
  0
LTYPE
  5
1F8
100
AcDbSymbolTableRecord
100
AcDbLinetypeTableRecord
  2
DOT
 70
64
  3
. . . . . . . . . . . . . . . . . . . .
 72
65
 73
2
 40
0.2
 49
0.1
 74
0
 49
-0.1
 74
0
  0
LTYPE
  5
1F9
100
AcDbSymbolTableRecord
100
AcDbLinetypeTableRecord
  2
DASHED
 70
64
  3
- - - - - - - - - - - - - - - - - - - -
 72
65
 73
2
 40
0.2
 49
0.1
 74
0
 49
-0.1
 74
0
  0
ENDTAB
  0
TABLE
  2
LAYER
  5
2
100
AcDbSymbolTable
 70
36
  0
LAYER
  5
10
100
AcDbSymbolTableRecord
100
AcDbLayerTableRecord
  2
0
 70
0
 62
7
  6
CONTINUOUS
370
-3
390
F
  0
LAYER
  5
1FA
100
AcDbSymbolTableRecord
100
AcDbLayerTableRecord
  2
DEFAULT_1
 70
0
 62
7
  6
CENTER
370
-3
390
F
  0
LAYER
  5
1FB
100
AcDbSymbolTableRecord
100
AcDbLayerTableRecord
  2
DEFAULT_2
 70
0
 62
7
  6
HIDDEN
370
-3
390
F
  0
LAYER
  5
1FC
100
AcDbSymbolTableRecord
100
AcDbLayerTableRecord
  2
DEFAULT_3
 70
0
 62
7
  6
PHANTOM
370
-3
390
F
  0
LAYER
  5
1FD
100
AcDbSymbolTableRecord
100
AcDbLayerTableRecord
  2
ASSI
 70
0
 62
7
  6
CONTINUOUS
370
-3
390
F
  0
LAYER
  5
1FE
100
AcDbSymbolTableRecord
100
AcDbLayerTableRecord
  2
COORDINATE
 70
0
 62
7
  6
CONTINUOUS
370
-3
390
F
  0
LAYER
  5
1FF
100
AcDbSymbolTableRecord
100
AcDbLayerTableRecord
  2
COPY_PUBLISH
 70
0
 62
7
  6
CONTINUOUS
370
-3
390
F
  0
LAYER
  5
200
100
AcDbSymbolTableRecord
100
AcDbLayerTableRecord
  2
COSMETICI
 70
0
 62
7
  6
CONTINUOUS
370
-3
390
F
  0
LAYER
  5
201
100
AcDbSymbolTableRecord
100
AcDbLayerTableRecord
  2
CURVE
 70
0
 62
7
  6
CONTINUOUS
370
-3
390
F
  0
LAYER
  5
202
100
AcDbSymbolTableRecord
100
AcDbLayerTableRecord
  2
DRAFT
 70
0
 62
7
  6
CONTINUOUS
370
-3
390
F
  0
LAYER
  5
203
100
AcDbSymbolTableRecord
100
AcDbLayerTableRecord
  2
IMPORT_IGES
 70
0
 62
7
  6
CONTINUOUS
370
-3
390
F
  0
LAYER
  5
204
100
AcDbSymbolTableRecord
100
AcDbLayerTableRecord
  2
NOTE
 70
0
 62
7
  6
CONTINUOUS
370
-3
390
F
  0
LAYER
  5
205
100
AcDbSymbolTableRecord
100
AcDbLayerTableRecord
  2
PIANI
 70
0
 62
7
  6
CONTINUOUS
370
-3
390
F
  0
LAYER
  5
206
100
AcDbSymbolTableRecord
100
AcDbLayerTableRecord
  2
PUNTI
 70
0
 62
7
  6
CONTINUOUS
370
-3
390
F
  0
LAYER
  5
207
100
AcDbSymbolTableRecord
100
AcDbLayerTableRecord
  2
RACCORDO
 70
0
 62
7
  6
CONTINUOUS
370
-3
390
F
  0
LAYER
  5
208
100
AcDbSymbolTableRecord
100
AcDbLayerTableRecord
  2
SIMBOLI
 70
0
 62
7
  6
CONTINUOUS
370
-3
390
F
  0
LAYER
  5
209
100
AcDbSymbolTableRecord
100
AcDbLayerTableRecord
  2
SMUSSO
 70
0
 62
7
  6
CONTINUOUS
370
-3
390
F
  0
LAYER
  5
20A
100
AcDbSymbolTableRecord
100
AcDbLayerTableRecord
  2
SNAPLINE
 70
0
 62
7
  6
CONTINUOUS
370
-3
390
F
  0
LAYER
  5
20B
100
AcDbSymbolTableRecord
100
AcDbLayerTableRecord
  2
SUPERFICI
 70
0
 62
7
  6
CONTINUOUS
370
-3
390
F
  0
LAYER
  5
20C
100
AcDbSymbolTableRecord
100
AcDbLayerTableRecord
  2
TRASH
 70
0
 62
7
  6
CONTINUOUS
370
-3
390
F
  0
ENDTAB
  0
TABLE
  2
STYLE
  5
3
100
AcDbSymbolTable
 70
1
  0
STYLE
  5
11
100
AcDbSymbolTableRecord
100
AcDbTextStyleTableRecord
  2
STANDARD
 70
0
 40
0.0
 41
0.8
 50
0.0
 71
0
 42
0.2
  3
txt
  4

  0
STYLE
  5
20D
100
AcDbSymbolTableRecord
100
AcDbTextStyleTableRecord
  2
TEXTSTYLE_1
 70
0
 40
0.0
 41
0.8
 50
0.0
 71
0
 42
0.2
  3
gdt
  4

  0
ENDTAB
  0
TABLE
  2
VIEW
  5
6
100
AcDbSymbolTable
 70
0
  0
ENDTAB
  0
TABLE
  2
UCS
  5
7
100
AcDbSymbolTable
 70
0
  0
ENDTAB
  0
TABLE
  2
APPID
  5
9
100
AcDbSymbolTable
 70
1
  0
APPID
  5
20E
100
AcDbSymbolTableRecord
100
AcDbRegAppTableRecord
  2
ACAD
 70
0
  0
ENDTAB
  0
TABLE
  2
BLOCK_RECORD
  5
1
100
AcDbSymbolTable
 70
0
  0
BLOCK_RECORD
  5
20F
100
AcDbSymbolTableRecord
100
AcDbBlockTableRecord
  2
*Model_Space
  0
BLOCK_RECORD
  5
210
100
AcDbSymbolTableRecord
100
AcDbBlockTableRecord
  2
*Paper_Space
  0
BLOCK_RECORD
  5
211
100
AcDbSymbolTableRecord
100
AcDbBlockTableRecord
  2
_FILLED
  0
BLOCK_RECORD
  5
212
100
AcDbSymbolTableRecord
100
AcDbBlockTableRecord
  2
*D0
  0
BLOCK_RECORD
  5
213
100
AcDbSymbolTableRecord
100
AcDbBlockTableRecord
  2
*D1
  0
BLOCK_RECORD
  5
214
100
AcDbSymbolTableRecord
100
AcDbBlockTableRecord
  2
*D2
  0
ENDTAB
  0
TABLE
  2
DIMSTYLE
  5
A
100
AcDbSymbolTable
 70
1
100
AcDbDimStyleTable
 71
0
  0
DIMSTYLE
105
215
100
AcDbSymbolTableRecord
100
AcDbDimStyleTableRecord
  2
STANDARD
 70
0
  3

  4

 40
1.0
 41
3.0
 42
0.5
 43
0.38
 44
1.5
 45
0.0
 46
0.0
 47
0.01
 48
0.01
140
3.0
141
0.09
142
0.0
143
25.4
144
1.0
145
0.0
146
1.0
147
0.625
 71
1.0
 72
0.0
 73
0
 74
0
 75
0
 76
0
 77
1
 78
8
170
0
171
2
172
0
173
0
174
0
175
0
176
0
177
0
178
0
270
2
271
2
272
2
273
2
274
2
275
0
280
0
281
0
282
0
283
1
284
8
285
0
286
0
287
3
288
0
340
11
278
44
341
211
342
211
343
211
344
211
  0
DIMSTYLE
105
216
100
AcDbSymbolTableRecord
100
AcDbDimStyleTableRecord
  2
DIMSTYLE_1
 70
0
  3

  4

 40
1.0
 41
3.0
 42
0.5
 43
0.38
 44
1.5
 45
0.0
 46
0.0
 47
0.0
 48
0.0
140
3.0
141
0.09
142
0.0
143
25.4
144
1.0
145
0.0
146
1.0
147
0.75
 71
0.0
 72
0.0
 73
0
 74
0
 75
0
 76
0
 77
1
 78
8
170
0
171
2
172
0
173
0
174
0
175
0
176
0
177
0
178
0
270
2
271
2
272
2
273
2
274
2
275
0
280
0
281
0
282
0
283
1
284
8
285
0
286
0
287
3
288
0
340
11
278
44
341
211
342
211
343
211
344
211
  0
DIMSTYLE
105
217
100
AcDbSymbolTableRecord
100
AcDbDimStyleTableRecord
  2
DIMSTYLE_2
 70
0
  3

  4

 40
1.0
 41
3.0
 42
0.5
 43
0.38
 44
1.5
 45
0.0
 46
0.0
 47
0.0
 48
0.0
140
3.0
141
0.09
142
0.0
143
25.4
144
1.0
145
0.0
146
1.0
147
0.75
 71
0.0
 72
0.0
 73
0
 74
0
 75
0
 76
0
 77
1
 78
8
170
0
171
2
172
0
173
0
174
0
175
0
176
0
177
0
178
0
270
2
271
1
272
1
273
2
274
2
275
0
280
0
281
0
282
0
283
1
284
8
285
0
286
0
287
3
288
0
340
11
278
44
341
211
342
211
343
211
344
211
  0
ENDTAB
  0
ENDSEC
  0
SECTION
  2
BLOCKS
  0
BLOCK
  5
20
100
AcDbEntity
  8
0
100
AcDbBlockBegin
  2
*Model_Space
 70
0
 10
0.0
 20
0.0
 30
0.0
  3
*Model_Space
  1

  0
ENDBLK
  5
21
100
AcDbEntity
  8
0
100
AcDbBlockEnd
  0
BLOCK
  5
1C
100
AcDbEntity
  8
0
100
AcDbBlockBegin
  2
*Paper_Space
 70
0
 10
0.0
 20
0.0
 30
0.0
  3
*Paper_Space
  1

  0
ENDBLK
  5
1D
100
AcDbEntity
  8
0
100
AcDbBlockEnd
  0
BLOCK
  5
218
100
AcDbEntity
  8
0
100
AcDbBlockBegin
  2
_FILLED
 70
64
 10
0.0
 20
0.0
  3
_FILLED
  1

  0
SOLID
  5
219
100
AcDbEntity
  8
0
  6
BYBLOCK
 62
0
100
AcDbTrace
 10
0.0
 20
0.0
 11
-1.0
 21
0.3166666667
 12
-1.0
 22
-0.3166666667
 13
-1.0
 23
-0.3166666667
  0
ENDBLK
  5
21A
100
AcDbEntity
  8
0
  6
BYBLOCK
 62
0
100
AcDbBlockEnd
  0
BLOCK
  5
21B
100
AcDbEntity
  8
0
100
AcDbBlockBegin
 62
7
  6
CONTINUOUS
  2
*D0
 70
65
 10
0.0
 20
0.0
  3
*D0
  1

  0
MTEXT
  5
21C
100
AcDbEntity
  8
0
100
AcDbMText
 62
7
  6
CONTINUOUS
  7
STANDARD
 71
2
 72
1
 10
-0.6610865415
 20
83.9811499796
 30
0.0
 11
1.0
 21
0.0
 31
0.0
 44
0.9
  1
144
 40
3.0
 41
9.6428571429
  0
LINE
  5
21D
100
AcDbEntity
  8
0
100
AcDbLine
 62
7
  6
CONTINUOUS
 10
-72.6610865415
 20
51.9979174878
 11
-72.6610865415
 21
81.7311499796
  0
LINE
  5
21E
100
AcDbEntity
  8
0
100
AcDbLine
 62
7
  6
CONTINUOUS
 10
71.3389134585
 20
51.9979174878
 11
71.3389134585
 21
81.7311499796
  0
LINE
  5
21F
100
AcDbEntity
  8
0
100
AcDbLine
 62
7
  6
CONTINUOUS
 10
-72.6610865415
 20
80.2311499796
 11
-0.6610865415
 21
80.2311499796
  0
LINE
  5
220
100
AcDbEntity
  8
0
100
AcDbLine
 62
7
  6
CONTINUOUS
 10
71.3389134585
 20
80.2311499796
 11
-0.6610865415
 21
80.2311499796
  0
INSERT
  5
221
100
AcDbEntity
  8
0
100
AcDbBlockReference
 62
7
  6
CONTINUOUS
  2
_FILLED
 10
-72.6610865415
 20
80.2311499796
 41
3.0
 42
3.0
 43
3.0
 50
180.0
  0
INSERT
  5
222
100
AcDbEntity
  8
0
100
AcDbBlockReference
 62
7
  6
CONTINUOUS
  2
_FILLED
 10
71.3389134585
 20
80.2311499796
 41
3.0
 42
3.0
 43
3.0
 50
0.0
  0
ENDBLK
  5
223
100
AcDbEntity
  8
0
  6
BYBLOCK
 62
0
100
AcDbBlockEnd
  0
BLOCK
  5
224
100
AcDbEntity
  8
0
100
AcDbBlockBegin
 62
7
  6
CONTINUOUS
  2
*D1
 70
65
 10
0.0
 20
0.0
  3
*D1
  1

  0
MTEXT
  5
225
100
AcDbEntity
  8
0
100
AcDbMText
 62
7
  6
CONTINUOUS
  7
STANDARD
 71
2
 72
1
 10
89.8403879318
 20
-0.506193908
 30
0.0
 11
0.0
 21
1.0
 31
0.0
 44
0.9
  1
110
 40
3.0
 41
8.6785714286
  0
LINE
  5
226
100
AcDbEntity
  8
0
100
AcDbLine
 62
7
  6
CONTINUOUS
 10
68.8430248543
 20
54.493806092
 11
95.0903879318
 21
54.493806092
  0
LINE
  5
227
100
AcDbEntity
  8
0
100
AcDbLine
 62
7
  6
CONTINUOUS
 10
68.8430248543
 20
-55.506193908
 11
95.0903879318
 21
-55.506193908
  0
LINE
  5
228
100
AcDbEntity
  8
0
100
AcDbLine
 62
7
  6
CONTINUOUS
 10
93.5903879318
 20
54.493806092
 11
93.5903879318
 21
-0.506193908
  0
LINE
  5
229
100
AcDbEntity
  8
0
100
AcDbLine
 62
7
  6
CONTINUOUS
 10
93.5903879318
 20
-55.506193908
 11
93.5903879318
 21
-0.506193908
  0
INSERT
  5
22A
100
AcDbEntity
  8
0
100
AcDbBlockReference
 62
7
  6
CONTINUOUS
  2
_FILLED
 10
93.5903879318
 20
54.493806092
 41
3.0
 42
3.0
 43
3.0
 50
90.0
  0
INSERT
  5
22B
100
AcDbEntity
  8
0
100
AcDbBlockReference
 62
7
  6
CONTINUOUS
  2
_FILLED
 10
93.5903879318
 20
-55.506193908
 41
3.0
 42
3.0
 43
3.0
 50
270.0
  0
ENDBLK
  5
22C
100
AcDbEntity
  8
0
  6
BYBLOCK
 62
0
100
AcDbBlockEnd
  0
BLOCK
  5
22D
100
AcDbEntity
  8
0
100
AcDbBlockBegin
 62
7
  6
CONTINUOUS
  2
*D2
 70
65
 10
0.0
 20
0.0
  3
*D2
  1

  0
MTEXT
  5
22E
100
AcDbEntity
  8
0
100
AcDbMText
 62
7
  6
CONTINUOUS
  7
STANDARD
 71
2
 72
1
 10
-131.4844280465
 20
83.9811499796
 30
0.0
 11
1.0
 21
0.0
 31
0.0
 44
0.9
  1
42,5
 40
3.0
 41
12.8571428571
  0
LINE
  5
22F
100
AcDbEntity
  8
0
100
AcDbLine
 62
7
  6
CONTINUOUS
 10
-110.244068213
 20
45.9990326525
 11
-110.244068213
 21
81.7311499796
  0
LINE
  5
230
100
AcDbEntity
  8
0
100
AcDbLine
 62
7
  6
CONTINUOUS
 10
-152.72478788
 20
-10.0617224355
 11
-152.72478788
 21
81.7311499796
  0
LINE
  5
231
100
AcDbEntity
  8
0
100
AcDbLine
 62
7
  6
CONTINUOUS
 10
-110.244068213
 20
80.2311499796
 11
-131.4844280465
 21
80.2311499796
  0
LINE
  5
232
100
AcDbEntity
  8
0
100
AcDbLine
 62
7
  6
CONTINUOUS
 10
-152.72478788
 20
80.2311499796
 11
-131.4844280465
 21
80.2311499796
  0
INSERT
  5
233
100
AcDbEntity
  8
0
100
AcDbBlockReference
 62
7
  6
CONTINUOUS
  2
_FILLED
 10
-110.244068213
 20
80.2311499796
 41
3.0
 42
3.0
 43
3.0
  0
INSERT
  5
234
100
AcDbEntity
  8
0
100
AcDbBlockReference
 62
7
  6
CONTINUOUS
  2
_FILLED
 10
-152.72478788
 20
80.2311499796
 41
3.0
 42
3.0
 43
3.0
 50
180.0
  0
ENDBLK
  5
235
100
AcDbEntity
  8
0
  6
BYBLOCK
 62
0
100
AcDbBlockEnd
  0
ENDSEC
  0
SECTION
  2
ENTITIES
  0
DIMENSION
  5
236
100
AcDbEntity
  8
0
100
AcDbDimension
 62
7
  6
CONTINUOUS
  2
*D0
 10
71.3389134585
 20
80.2311499796
 11
-1.0896579223
 21
80.2311499796
 70
160
 71
2
 42
144.0
  3
DIMSTYLE_1
100
AcDbAlignedDimension
 13
-72.6610865415
 23
51.4979174878
 14
71.3389134585
 24
51.4979174878
100
AcDbRotatedDimension
  0
DIMENSION
  5
237
100
AcDbEntity
  8
0
100
AcDbDimension
 62
7
  6
CONTINUOUS
  2
*D1
 10
93.5903879318
 20
-55.506193908
 11
93.5903879318
 21
-0.9347647426
 70
160
 71
2
 42
110.0
  3
DIMSTYLE_1
100
AcDbAlignedDimension
 13
68.3430248543
 23
54.493806092
 14
68.3430248543
 24
-55.506193908
 50
270.0
100
AcDbRotatedDimension
  0
DIMENSION
  5
238
100
AcDbEntity
  8
0
100
AcDbDimension
 62
7
  6
CONTINUOUS
  2
*D2
 10
-152.72478788
 20
80.2311499796
 11
-131.9129968414
 21
80.2311499796
 70
160
 71
2
 42
42.480719667
  3
DIMSTYLE_2
100
AcDbAlignedDimension
 13
-110.244068213
 23
45.4990326525
 14
-152.72478788
 24
-10.5617224355
 50
180.0
100
AcDbRotatedDimension
  0
LWPOLYLINE
  5
239
100
AcDbEntity
  8
RACCORDO
100
AcDbPolyline
 62
253
  6
CONTINUOUS
 90
20
 70
0
 10
-67.8938498596
 20
52.7224580145
 10
-67.9074438285
 20
52.7112741729
 10
-67.9205050906
 20
52.6931125875
 10
-67.9332848335
 20
52.6680420794
 10
-67.9462776183
 20
52.6359814125
 10
-67.9593603102
 20
52.5969144758
 10
-67.9719451469
 20
52.5510999969
 10
-67.9844194863
 20
52.4986821335
 10
-67.9969877726
 20
52.4396216229
 10
-68.0089464397
 20
52.3741519771
 10
-68.0206571478
 20
52.3024768285
 10
-68.0324283275
 20
52.2246716929
 10
-68.0435061203
 20
52.1409294217
 10
-68.0542188734
 20
52.0515192722
 10
-68.0649271059
 20
51.9566275919
 10
-68.074885624
 20
51.8564052056
 10
-68.0843868105
 20
51.7511671658
 10
-68.0937978009
 20
51.6411935651
 10
-68.1024186617
 20
51.526619565
 10
-68.1184269446
 20
51.285073112
  0
LWPOLYLINE
  5
23A
100
AcDbEntity
  8
RACCORDO
100
AcDbPolyline
 62
253
  6
CONTINUOUS
 90
13
 70
0
 10
-70.8897384639
 20
49.7265694102
 10
-70.8788360213
 20
49.7355288452
 10
-70.8612456195
 20
49.7440561629
 10
-70.8370341035
 20
49.7523698774
 10
-70.8061117305
 20
49.7608842475
 10
-70.7684590861
 20
49.7694826686
 10
-70.7243382062
 20
49.777683251
 10
-70.67387154
 20
49.7858522751
 10
-70.6170030874
 20
49.7941473067
 10
-70.5539794664
 20
49.8019553758
 10
-70.4849814697
 20
49.8096289602
 10
-70.4100546202
 20
49.817436082
 10
-70.3294050359
 20
49.8246937892
  0
LWPOLYLINE
  5
23B
100
AcDbEntity
  8
RACCORDO
100
AcDbPolyline
 62
253
  6
CONTINUOUS
 90
14
 70
0
 10
-70.8897384639
 20
-50.7389572261
 10
-70.8788360213
 20
-50.7479166634
 10
-70.8612456194
 20
-50.7564439833
 10
-70.8370341034
 20
-50.7647576999
 10
-70.8061117303
 20
-50.7732720722
 10
-70.7684590858
 20
-50.7818704954
 10
-70.7243382058
 20
-50.7900710799
 10
-70.6738715395
 20
-50.7982401061
 10
-70.617003087
 20
-50.8065351397
 10
-70.553979466
 20
-50.8143432108
 10
-70.4849814693
 20
-50.8220167972
 10
-70.4100546198
 20
-50.8298239209
 10
-70.3294050355
 20
-50.8370816299
 10
-70.1518252951
 20
-50.8512613649
  0
LWPOLYLINE
  5
23C
100
AcDbEntity
  8
RACCORDO
100
AcDbPolyline
 62
253
  6
CONTINUOUS
 90
19
 70
0
 10
-67.8938498596
 20
-53.7348458304
 10
-67.9074438242
 20
-53.7236619889
 10
-67.9205050822
 20
-53.7055004035
 10
-67.933284821
 20
-53.6804298955
 10
-67.9462776016
 20
-53.6483692288
 10
-67.9593602894
 20
-53.6093022922
 10
-67.9719451221
 20
-53.5634878135
 10
-67.9844194576
 20
-53.5110699502
 10
-67.99698774
 20
-53.4520094395
 10
-68.0089464034
 20
-53.3865397936
 10
-68.0206571077
 20
-53.3148646449
 10
-68.0324282838
 20
-53.2370595092
 10
-68.0435060731
 20
-53.153317238
 10
-68.0542188228
 20
-53.0639070887
 10
-68.0649270519
 20
-52.9690154088
 10
-68.0748855668
 20
-52.8687930229
 10
-68.0843867503
 20
-52.7635549836
 10
-68.0937977377
 20
-52.6535813834
 10
-68.1024185958
 20
-52.5390073837
  0
LWPOLYLINE
  5
23D
100
AcDbEntity
  8
RACCORDO
100
AcDbPolyline
 62
253
  6
CONTINUOUS
 90
3
 70
0
 10
-68.1024185958
 20
-52.5390073837
 10
-68.1184268737
 20
-52.2974609318
 10
-68.1255197146
 20
-52.1709703894
  0
LWPOLYLINE
  5
23E
100
AcDbEntity
  8
RACCORDO
100
AcDbPolyline
 62
253
  6
CONTINUOUS
 90
3
 70
0
 10
-68.1255197146
 20
-52.1709703894
 10
-68.1382906229
 20
-51.9082232616
 10
-68.1436979826
 20
-51.7725025148
  0
LWPOLYLINE
  5
23F
100
AcDbEntity
  8
RACCORDO
100
AcDbPolyline
 62
253
  6
CONTINUOUS
 90
3
 70
0
 10
-68.1436979826
 20
-51.7725025148
 10
-68.1529662898
 20
-51.4941396763
 10
-68.1565670564
 20
-51.3520715955
  0
LINE
  5
240
100
AcDbEntity
  8
RACCORDO
100
AcDbLine
 62
253
  6
CONTINUOUS
 10
-68.1565670564
 20
-51.3520715955
 11
-68.1638536598
 21
-50.918614295
  0
LINE
  5
241
100
AcDbEntity
  8
RACCORDO
100
AcDbLine
 62
253
  6
CONTINUOUS
 10
-70.8656961434
 20
41.3628951746
 11
-70.8897384639
 21
49.7265694102
  0
LINE
  5
242
100
AcDbEntity
  8
RACCORDO
100
AcDbLine
 62
253
  6
CONTINUOUS
 10
-70.846614006
 20
32.9945878511
 11
-70.8656961434
 21
41.3628951746
  0
LWPOLYLINE
  5
243
100
AcDbEntity
  8
RACCORDO
100
AcDbPolyline
 62
253
  6
CONTINUOUS
 90
4
 70
0
 10
-68.1159617217
 20
30.8311523588
 10
-68.1250850532
 20
35.3045723132
 10
-68.1365453624
 20
39.9843343346
 10
-68.1638536598
 20
49.9062264791
  0
LINE
  5
244
100
AcDbEntity
  8
RACCORDO
100
AcDbLine
 62
253
  6
CONTINUOUS
 10
-70.8324930691
 20
24.6221172426
 11
-70.846614006
 21
32.9945878511
  0
LINE
  5
245
100
AcDbEntity
  8
RACCORDO
100
AcDbLine
 62
253
  6
CONTINUOUS
 10
-68.1033597105
 20
22.3939389581
 11
-68.1159617217
 21
30.8311523588
  0
LINE
  5
246
100
AcDbEntity
  8
RACCORDO
100
AcDbLine
 62
253
  6
CONTINUOUS
 10
-70.8233371234
 20
16.2470851731
 11
-70.8324930691
 21
24.6221172426
  0
LINE
  5
247
100
AcDbEntity
  8
RACCORDO
100
AcDbLine
 62
253
  6
CONTINUOUS
 10
-68.0958144025
 20
14.5039374307
 11
-68.1033597105
 21
22.3939389581
  0
LINE
  5
248
100
AcDbEntity
  8
RACCORDO
100
AcDbLine
 62
253
  6
CONTINUOUS
 10
-70.819147165
 20
7.8708427628
 11
-70.8233371234
 21
16.2470851731
  0
LINE
  5
249
100
AcDbEntity
  8
RACCORDO
100
AcDbLine
 62
253
  6
CONTINUOUS
 10
-68.0926434438
 20
6.8955775505
 11
-68.0958144025
 21
14.5039374307
  0
LINE
  5
24A
100
AcDbEntity
  8
RACCORDO
100
AcDbLine
 62
7
  6
CONTINUOUS
 10
-72.6610865415
 20
51.4979174878
 11
-72.6610865415
 21
-52.5103053037
  0
LINE
  5
24B
100
AcDbEntity
  8
RACCORDO
100
AcDbLine
 62
253
  6
CONTINUOUS
 10
-70.8194752382
 20
-9.6201571503
 11
-70.819147165
 21
7.8708427628
  0
LINE
  5
24C
100
AcDbEntity
  8
RACCORDO
100
AcDbLine
 62
253
  6
CONTINUOUS
 10
-68.0935817197
 20
-9.6516875871
 11
-68.0926434438
 21
6.8955775505
  0
LINE
  5
24D
100
AcDbEntity
  8
RACCORDO
100
AcDbLine
 62
253
  6
CONTINUOUS
 10
-70.8240228554
 20
-18.1867148019
 11
-70.8194752382
 21
-9.6201571503
  0
LINE
  5
24E
100
AcDbEntity
  8
RACCORDO
100
AcDbLine
 62
253
  6
CONTINUOUS
 10
-68.0977430909
 20
-18.2486471875
 11
-68.0935817197
 21
-9.6516875871
  0
LINE
  5
24F
100
AcDbEntity
  8
RACCORDO
100
AcDbLine
 62
253
  6
CONTINUOUS
 10
-70.8334217648
 20
-26.2916839826
 11
-70.8240228554
 21
-18.1867148019
  0
LINE
  5
250
100
AcDbEntity
  8
RACCORDO
100
AcDbLine
 62
253
  6
CONTINUOUS
 10
-68.1073242885
 20
-26.3825454436
 11
-68.0977430909
 21
-18.2486471875
  0
LINE
  5
251
100
AcDbEntity
  8
RACCORDO
100
AcDbLine
 62
253
  6
CONTINUOUS
 10
-70.8469305332
 20
-34.2032279953
 11
-70.8334217648
 21
-26.2916839826
  0
LINE
  5
252
100
AcDbEntity
  8
RACCORDO
100
AcDbLine
 62
253
  6
CONTINUOUS
 10
-68.1207578036
 20
-34.3226990887
 11
-68.1073242885
 21
-26.3825454436
  0
LINE
  5
253
100
AcDbEntity
  8
RACCORDO
100
AcDbLine
 62
253
  6
CONTINUOUS
 10
-70.8656214478
 20
-42.314766488
 11
-70.8469305332
 21
-34.2032279953
  0
LINE
  5
254
100
AcDbEntity
  8
RACCORDO
100
AcDbLine
 62
253
  6
CONTINUOUS
 10
-68.1397928294
 20
-42.4640615525
 11
-68.1207578036
 21
-34.3226990887
  0
LINE
  5
255
100
AcDbEntity
  8
RACCORDO
100
AcDbLine
 62
253
  6
CONTINUOUS
 10
-70.8897384639
 20
-50.7389572262
 11
-70.8656214478
 21
-42.314766488
  0
LINE
  5
256
100
AcDbEntity
  8
RACCORDO
100
AcDbLine
 62
253
  6
CONTINUOUS
 10
-68.1638536598
 20
-50.918614295
 11
-68.1397928294
 21
-42.4640615525
  0
LWPOLYLINE
  5
257
100
AcDbEntity
  8
RACCORDO
100
AcDbPolyline
 62
253
  6
CONTINUOUS
 90
3
 70
0
 10
-68.1529663778
 20
50.4817518562
 10
-68.1565671392
 20
50.3396837767
 10
-68.1638536598
 20
49.9062264791
  0
LWPOLYLINE
  5
258
100
AcDbEntity
  8
RACCORDO
100
AcDbPolyline
 62
253
  6
CONTINUOUS
 90
34
 70
0
 10
-70.8897384639
 20
49.7265694102
 10
-70.8859671865
 20
49.8688716807
 10
-70.8754414144
 20
50.0108527139
 10
-70.8581849088
 20
50.1521919977
 10
-70.834236625
 20
50.2925704686
 10
-70.8036506245
 20
50.431671232
 10
-70.7664959531
 20
50.5691802774
 10
-70.7228564851
 20
50.7047871877
 10
-70.6728307334
 20
50.8381858399
 10
-70.6165316272
 20
50.9690750967
 10
-70.5540862577
 20
51.0971594852
 10
-70.4856355909
 20
51.2221498633
 10
-70.4113341495
 20
51.3437640737
 10
-70.3313496641
 20
51.4617275805
 10
-70.2458626938
 20
51.5757740895
 10
-70.1550662195
 20
51.6856461488
 10
-70.0591652079
 20
51.7910957298
 10
-69.9583761488
 20
51.8918847874
 10
-69.8529265666
 20
51.9877857975
 10
-69.7430545061
 20
52.0785822702
 10
-69.6290079959
 20
52.1640692388
 10
-69.5110444883
 20
52.2440537225
 10
-69.3894302773
 20
52.3183551619
 10
-69.2644398988
 20
52.3868058268
 10
-69.1363555108
 20
52.449251194
 10
-69.005466256
 20
52.5055502974
 10
-68.8720676067
 20
52.5555760463
 10
-68.7364606996
 20
52.5992155118
 10
-68.5989516564
 20
52.6363701812
 10
-68.4598508954
 20
52.66695618
 10
-68.319472428
 20
52.6909044622
 10
-68.1781331494
 20
52.7081609664
 10
-68.0361521226
 20
52.7186867375
 10
-67.8938498597
 20
52.7224580145
  0
LWPOLYLINE
  5
259
100
AcDbEntity
  8
RACCORDO
100
AcDbPolyline
 62
253
  6
CONTINUOUS
 90
3
 70
0
 10
-68.1382907002
 20
50.8958354398
 10
-68.1436980615
 20
50.7601146928
 10
-68.1529663778
 20
50.4817518562
  0
LWPOLYLINE
  5
25A
100
AcDbEntity
  8
RACCORDO
100
AcDbPolyline
 62
253
  6
CONTINUOUS
 90
3
 70
0
 10
-68.1184269446
 20
51.285073112
 10
-68.1255197878
 20
51.1585825691
 10
-68.1382907002
 20
50.8958354398
  0
LWPOLYLINE
  5
25B
100
AcDbEntity
  8
RACCORDO
100
AcDbPolyline
 62
253
  6
CONTINUOUS
 90
13
 70
0
 10
69.1137808975
 20
-50.9438386065
 10
69.1943912248
 20
-50.9365443025
 10
69.2692813385
 20
-50.9286999503
 10
69.3382454811
 20
-50.9209881874
 10
69.4012380274
 20
-50.9131410671
 10
69.4580783472
 20
-50.9048065134
 10
69.5085202658
 20
-50.89659742
 10
69.5526195786
 20
-50.8883560525
 10
69.5902539119
 20
-50.8797164956
 10
69.6211616615
 20
-50.8711609067
 10
69.6453621728
 20
-50.8628057725
 10
69.6629449845
 20
-50.8542366992
 10
69.6738433489
 20
-50.845235194
  0
LWPOLYLINE
  5
25C
100
AcDbEntity
  8
RACCORDO
100
AcDbPolyline
 62
253
  6
CONTINUOUS
 90
3
 70
0
 10
68.839712497
 20
-50.964680885
 10
68.9362864491
 20
-50.9580882003
 10
69.1137808975
 20
-50.9438386065
  0
LWPOLYLINE
  5
25D
100
AcDbEntity
  8
RACCORDO
100
AcDbPolyline
 62
253
  6
CONTINUOUS
 90
3
 70
0
 10
68.5216163616
 20
-50.9830909075
 10
68.6321872734
 20
-50.9773393147
 10
68.839712497
 20
-50.964680885
  0
LINE
  5
25E
100
AcDbEntity
  8
RACCORDO
100
AcDbLine
 62
253
  6
CONTINUOUS
 10
68.2882876028
 20
-50.9939063597
 11
68.5216163616
 21
-50.9830909075
  0
LWPOLYLINE
  5
25F
100
AcDbEntity
  8
RACCORDO
100
AcDbPolyline
 62
253
  6
CONTINUOUS
 90
3
 70
0
 10
67.9115929733
 20
-51.0074518385
 10
68.040288733
 20
-51.0031048278
 10
68.2882876028
 20
-50.9939063597
  0
LWPOLYLINE
  5
260
100
AcDbEntity
  8
RACCORDO
100
AcDbPolyline
 62
253
  6
CONTINUOUS
 90
34
 70
0
 10
66.6779547447
 20
-53.8411237983
 10
66.8202570124
 20
-53.8373525211
 10
66.9622380432
 20
-53.8268267494
 10
67.1035773247
 20
-53.8095702443
 10
67.2439557937
 20
-53.7856219612
 10
67.3830565555
 20
-53.7550359616
 10
67.5205655994
 20
-53.7178812913
 10
67.6561725079
 20
-53.6742418245
 10
67.7895711584
 20
-53.6242160742
 10
67.920460414
 20
-53.5679169695
 10
68.0485448017
 20
-53.5054716014
 10
68.1735351794
 20
-53.4370209359
 10
68.2951493895
 20
-53.3627194959
 10
68.4131128962
 20
-53.2827350118
 10
68.5271594053
 20
-53.1972480428
 10
68.6370314647
 20
-53.1064515699
 10
68.7424810459
 20
-53.0105505597
 10
68.843270104
 20
-52.909761502
 10
68.9391711145
 20
-52.804311921
 10
69.0299675878
 20
-52.6944398619
 10
69.1154545571
 20
-52.580393353
 10
69.1954390416
 20
-52.4624298465
 10
69.2697404821
 20
-52.3408156364
 10
69.338191148
 20
-52.2158252587
 10
69.4006365167
 20
-52.0877408708
 10
69.456935622
 20
-51.9568516147
 10
69.5069613729
 20
-51.8234529635
 10
69.5506008402
 20
-51.6878460543
 10
69.587755511
 20
-51.5503370098
 10
69.618341511
 20
-51.4112362473
 10
69.6422897944
 20
-51.2708577775
 10
69.6595462997
 20
-51.129518495
 10
69.6700720716
 20
-50.9875374631
 10
69.6738433489
 20
-50.8452351941
  0
LWPOLYLINE
  5
261
100
AcDbEntity
  8
RACCORDO
100
AcDbPolyline
 62
253
  6
CONTINUOUS
 90
4
 70
0
 10
67.3716294792
 20
-51.0202690216
 10
67.5097751097
 20
-51.0176994045
 10
67.6459561009
 20
-51.0144925087
 10
67.9115929733
 20
-51.0074518385
  0
LINE
  5
262
100
AcDbEntity
  8
RACCORDO
100
AcDbLine
 62
253
  6
CONTINUOUS
 10
-65.9957724423
 20
-53.7259403073
 11
-67.8938498597
 21
-53.7348458304
  0
LWPOLYLINE
  5
263
100
AcDbEntity
  8
RACCORDO
100
AcDbPolyline
 62
253
  6
CONTINUOUS
 90
25
 70
0
 10
-59.0122425161
 20
-53.8010475504
 10
-53.8414960238
 20
-53.7806062781
 10
-48.6693218955
 20
-53.7620631472
 10
-43.4957201311
 20
-53.7454181578
 10
-38.3206315307
 20
-53.7306715816
 10
-33.1441152943
 20
-53.7178231469
 10
-27.9663490215
 20
-53.7068720383
 10
-22.7870070726
 20
-53.6978177653
 10
-17.6064150872
 20
-53.6906608184
 10
-12.425727585
 20
-53.685401854
 10
-7.2458809632
 20
-53.6820404465
 10
-2.0659388245
 20
-53.6805770215
 10
3.1157535039
 20
-53.6810135121
 10
8.2907072069
 20
-53.6833256007
 10
13.4674110995
 20
-53.6875376049
 10
18.6729863002
 20
-53.6937244108
 10
23.917450993
 20
-53.7018806102
 10
29.1907869939
 20
-53.7120116113
 10
34.4900608699
 20
-53.7242085249
 10
39.8197236208
 20
-53.738495521
 10
45.175324247
 20
-53.7548484296
 10
50.5405763157
 20
-53.7732858516
 10
55.9100510161
 20
-53.7938139872
 10
61.2891771591
 20
-53.8164266361
 10
66.6779547447
 20
-53.8411237983
  0
LINE
  5
264
100
AcDbEntity
  8
RACCORDO
100
AcDbLine
 62
7
  6
CONTINUOUS
 10
-69.6651979372
 20
-55.506193908
 11
68.3430248543
 21
-55.506193908
  0
LWPOLYLINE
  5
265
100
AcDbEntity
  8
RACCORDO
100
AcDbPolyline
 62
253
  6
CONTINUOUS
 90
3
 70
0
 10
-68.7247061142
 20
-50.9105627712
 10
-68.5865108443
 20
-50.9131167615
 10
-68.1638536598
 20
-50.918614295
  0
LINE
  5
266
100
AcDbEntity
  8
RACCORDO
100
AcDbLine
 62
253
  6
CONTINUOUS
 10
-63.9897338229
 20
-52.6772610646
 11
-58.6612514783
 21
-52.7773052381
  0
LINE
  5
267
100
AcDbEntity
  8
RACCORDO
100
AcDbLine
 62
253
  6
CONTINUOUS
 10
-59.0122425161
 20
-53.8010475504
 11
-65.8572256719
 21
-53.6538847886
  0
LWPOLYLINE
  5
268
100
AcDbEntity
  8
RACCORDO
100
AcDbPolyline
 62
253
  6
CONTINUOUS
 90
34
 70
0
 10
-67.8938498597
 20
-53.7348458304
 10
-68.0361521241
 20
-53.7310745533
 10
-68.1781331521
 20
-53.720548782
 10
-68.3194724316
 20
-53.7032922776
 10
-68.4598508995
 20
-53.6793439951
 10
-68.5989516608
 20
-53.6487579961
 10
-68.7364607041
 20
-53.6116033264
 10
-68.8720676117
 20
-53.5679638605
 10
-69.0054662613
 20
-53.5179381111
 10
-69.1363555164
 20
-53.4616390074
 10
-69.2644399043
 20
-53.3991936399
 10
-69.3894302826
 20
-53.3307429748
 10
-69.5110444934
 20
-53.2564415351
 10
-69.6290080008
 20
-53.1764570513
 10
-69.7430545107
 20
-53.0909700825
 10
-69.8529265709
 20
-53.0001736097
 10
-69.9583761529
 20
-52.9042725995
 10
-70.0591652117
 20
-52.8034835417
 10
-70.1550662229
 20
-52.6980339607
 10
-70.2458626969
 20
-52.5881619014
 10
-70.331349667
 20
-52.4741153923
 10
-70.4113341521
 20
-52.3561518855
 10
-70.4856355932
 20
-52.2345376752
 10
-70.5540862598
 20
-52.1095472971
 10
-70.616531629
 20
-51.9814629088
 10
-70.6728307348
 20
-51.8505736522
 10
-70.7228564863
 20
-51.7171750003
 10
-70.766495954
 20
-51.5815680904
 10
-70.8036506252
 20
-51.4440590452
 10
-70.8342366255
 20
-51.3049582821
 10
-70.8581849091
 20
-51.1645798116
 10
-70.8754414146
 20
-51.0232405284
 10
-70.8859671866
 20
-50.8812594958
 10
-70.8897384639
 20
-50.7389572262
  0
LWPOLYLINE
  5
269
100
AcDbEntity
  8
RACCORDO
100
AcDbPolyline
 62
253
  6
CONTINUOUS
 90
3
 70
0
 10
-69.126678721
 20
-50.9003721743
 10
-68.9950567415
 20
-50.9040705538
 10
-68.7247061142
 20
-50.9105627712
  0
LWPOLYLINE
  5
26A
100
AcDbEntity
  8
RACCORDO
100
AcDbPolyline
 62
253
  6
CONTINUOUS
 90
3
 70
0
 10
-69.5035310601
 20
-50.88689823
 10
-69.3811633831
 20
-50.8916599408
 10
-69.126678721
 20
-50.9003721743
  0
LWPOLYLINE
  5
26B
100
AcDbEntity
  8
RACCORDO
100
AcDbPolyline
 62
253
  6
CONTINUOUS
 90
3
 70
0
 10
-69.8475840629
 20
-50.8704159768
 10
-69.7369629322
 20
-50.8761378448
 10
-69.5035310601
 20
-50.88689823
  0
LWPOLYLINE
  5
26C
100
AcDbEntity
  8
RACCORDO
100
AcDbPolyline
 62
253
  6
CONTINUOUS
 90
3
 70
0
 10
-70.1518252951
 20
-50.8512613649
 10
-70.055205608
 20
-50.8578205879
 10
-69.8475840629
 20
-50.8704159768
  0
LWPOLYLINE
  5
26D
100
AcDbEntity
  8
RACCORDO
100
AcDbPolyline
 62
7
  6
CONTINUOUS
 90
30
 70
0
 10
-58.6612514783
 20
-52.7773052381
 10
-58.6527520741
 20
-52.7314105556
 10
-58.640451582
 20
-52.6843407631
 10
-58.6243463719
 20
-52.6360964123
 10
-58.6044784929
 20
-52.5866482011
 10
-58.5807984572
 20
-52.5360289912
 10
-58.553165717
 20
-52.4843385649
 10
-58.5215551714
 20
-52.4315977497
 10
-58.4859854083
 20
-52.3778057753
 10
-58.4463821509
 20
-52.3230384017
 10
-58.4027912689
 20
-52.2673743479
 10
-58.3551612882
 20
-52.2107672811
 10
-58.303271605
 20
-52.1531049484
 10
-58.2470488946
 20
-52.094327771
 10
-58.1865592682
 20
-52.0345225455
 10
-58.1217911102
 20
-51.9737968748
 10
-58.0526638482
 20
-51.9121389199
 10
-57.9792521176
 20
-51.8496017582
 10
-57.9017786562
 20
-51.7863996735
 10
-57.8202954602
 20
-51.7226277884
 10
-57.734747384
 20
-51.6582488585
 10
-57.645197552
 20
-51.5932842345
 10
-57.5518499705
 20
-51.5278863756
 10
-57.454498159
 20
-51.4619643072
 10
-57.3525876051
 20
-51.3951689712
 10
-57.2460753379
 20
-51.3274681001
 10
-57.1349976876
 20
-51.2589482565
 10
-57.018916075
 20
-51.1894328426
 10
-56.8976810643
 20
-51.1188828968
 10
-56.771433621
 20
-51.0473997629
  0
LINE
  5
26E
100
AcDbEntity
  8
RACCORDO
100
AcDbLine
 62
253
  6
CONTINUOUS
 10
66.9491113208
 20
-51.0258025288
 11
67.3716294792
 21
-51.0202690216
  0
LINE
  5
26F
100
AcDbEntity
  8
RACCORDO
100
AcDbLine
 62
253
  6
CONTINUOUS
 10
-60.6109597318
 20
-50.8846916594
 11
-68.1638536598
 21
-50.918614295
  0
LWPOLYLINE
  5
270
100
AcDbEntity
  8
RACCORDO
100
AcDbPolyline
 62
253
  6
CONTINUOUS
 90
25
 70
0
 10
-56.6401693334
 20
-50.9750186578
 10
-51.5567989703
 20
-50.9558424892
 10
-46.4716465503
 20
-50.9384930543
 10
-41.3849520058
 20
-50.9229703608
 10
-36.2971997048
 20
-50.9092746965
 10
-31.2083850624
 20
-50.8974057865
 10
-26.1180137868
 20
-50.8873627937
 10
-21.0256332668
 20
-50.8791451746
 10
-15.9321741279
 20
-50.8727534809
 10
-10.8392170558
 20
-50.8681885169
 10
-5.749260157
 20
-50.8654492207
 10
-0.6602844866
 20
-50.8645366576
 10
4.4329050427
 20
-50.8654548222
 10
9.5235614139
 20
-50.8681797207
 10
14.6179529601
 20
-50.8727353454
 10
19.740787567
 20
-50.8791976682
 10
24.9010457018
 20
-50.8875639154
 10
30.089217586
 20
-50.897836854
 10
35.3022563994
 20
-50.910100766
 10
40.5438481125
 20
-50.9243785676
 10
45.8097317016
 20
-50.9406473299
 10
51.0849484958
 20
-50.9589225645
 10
56.3643308136
 20
-50.9792094359
 10
61.6524816066
 20
-51.0015027609
 10
66.9491113208
 20
-51.0258025288
  0
LINE
  5
271
100
AcDbEntity
  8
RACCORDO
100
AcDbLine
 62
253
  6
CONTINUOUS
 10
-70.8897384639
 20
-50.7389572262
 11
-72.6610865415
 21
-52.5103053037
  0
LINE
  5
272
100
AcDbEntity
  8
RACCORDO
100
AcDbLine
 62
253
  6
CONTINUOUS
 10
-70.8897384639
 20
49.7265694102
 11
-72.6610865415
 21
51.4979174878
  0
LINE
  5
273
100
AcDbEntity
  8
RACCORDO
100
AcDbLine
 62
253
  6
CONTINUOUS
 10
-67.8938498597
 20
-53.7348458304
 11
-69.6651979372
 21
-55.506193908
  0
LINE
  5
274
100
AcDbEntity
  8
RACCORDO
100
AcDbLine
 62
253
  6
CONTINUOUS
 10
-67.8938498597
 20
52.7224580145
 11
-69.6651979372
 21
54.493806092
  0
LINE
  5
275
100
AcDbEntity
  8
RACCORDO
100
AcDbLine
 62
253
  6
CONTINUOUS
 10
68.4507330139
 20
-0.5025722717
 11
66.8784745133
 21
-0.506193909
  0
LINE
  5
276
100
AcDbEntity
  8
0
100
AcDbLine
 62
7
  6
CONTINUOUS
 10
-0.6610865415
 20
-0.506193908
 11
15.7469406948
 21
-0.506193908
  0
LINE
  5
277
100
AcDbEntity
  8
RACCORDO
100
AcDbLine
 62
7
  6
CONTINUOUS
 10
-0.6610865415
 20
-0.506193908
 11
-68.0937498946
 21
-0.506193908
  0
LINE
  5
278
100
AcDbEntity
  8
RACCORDO
100
AcDbLine
 62
7
  6
CONTINUOUS
 10
18.9041652398
 20
-0.506193908
 11
66.8784745035
 21
-0.5061955603
  0
LINE
  5
279
100
AcDbEntity
  8
RACCORDO
100
AcDbLine
 62
253
  6
CONTINUOUS
 10
-70.2591180761
 20
-0.5094300545
 11
-68.0937498763
 21
-0.5061939074
  0
LINE
  5
27A
100
AcDbEntity
  8
RACCORDO
100
AcDbLine
 62
253
  6
CONTINUOUS
 10
69.330509599
 20
-0.5037577032
 11
68.4507330139
 21
-0.5025722717
  0
LINE
  5
27B
100
AcDbEntity
  8
RACCORDO
100
AcDbLine
 62
253
  6
CONTINUOUS
 10
-70.6542382826
 20
-0.50809923
 11
-70.2591180761
 21
-0.5094300545
  0
LINE
  5
27C
100
AcDbEntity
  8
RACCORDO
100
AcDbLine
 62
253
  6
CONTINUOUS
 10
69.519635008
 20
-0.5048756214
 11
69.330509599
 21
-0.5037577032
  0
LWPOLYLINE
  5
27D
100
AcDbEntity
  8
RACCORDO
100
AcDbPolyline
 62
253
  6
CONTINUOUS
 90
5
 70
0
 10
-70.8199236126
 20
-0.506193908
 10
-70.8090546455
 20
-0.5065342768
 10
-70.791419071
 20
-0.506868707
 10
-70.7670568712
 20
-0.5071947973
 10
-70.6542382826
 20
-0.50809923
  0
LINE
  5
27E
100
AcDbEntity
  8
SMUSSO
100
AcDbLine
 62
7
  6
CONTINUOUS
 10
17.6810422537
 20
1.0492244262
 11
19.7418531564
 21
1.0432705011
  0
LINE
  5
27F
100
AcDbEntity
  8
SMUSSO
100
AcDbLine
 62
7
  6
CONTINUOUS
 10
19.7418531564
 20
1.0432705011
 11
20.7701656637
 21
1.0389883715
  0
LWPOLYLINE
  5
280
100
AcDbEntity
  8
RACCORDO
100
AcDbPolyline
 62
253
  6
CONTINUOUS
 90
4
 70
0
 10
69.6034984031
 20
-0.506193908
 10
69.5926332693
 20
-0.5058528595
 10
69.5750051606
 20
-0.5055177607
 10
69.519635008
 20
-0.5048756214
  0
LINE
  5
281
100
AcDbEntity
  8
RACCORDO
100
AcDbLine
 62
253
  6
CONTINUOUS
 10
66.5716767768
 20
52.7224580145
 11
68.3430248543
 21
54.493806092
  0
LINE
  5
282
100
AcDbEntity
  8
RACCORDO
100
AcDbLine
 62
253
  6
CONTINUOUS
 10
69.567565381
 20
49.7265694102
 11
71.3389134585
 21
51.4979174878
  0
LINE
  5
283
100
AcDbEntity
  8
SMUSSO
100
AcDbLine
 62
7
  6
CONTINUOUS
 10
20.7701656637
 20
1.0389883715
 11
19.8381117398
 21
0.2652569284
  0
LINE
  5
284
100
AcDbEntity
  8
SMUSSO
100
AcDbLine
 62
7
  6
CONTINUOUS
 10
19.8381117398
 20
0.2652569284
 11
18.9041652398
 21
-0.506193908
  0
LWPOLYLINE
  5
285
100
AcDbEntity
  8
RACCORDO
100
AcDbPolyline
 62
7
  6
CONTINUOUS
 90
25
 70
0
 10
18.9041652398
 20
-0.506193908
 10
15.9475350388
 20
-2.8779688352
 10
12.9729608499
 20
-5.227177111
 10
9.980578125
 20
-7.5537950046
 10
6.9703598565
 20
-9.8580012543
 10
3.9426017687
 20
-12.1395736003
 10
0.897922344
 20
-14.3978887944
 10
-2.1633043788
 20
-16.6327465169
 10
-5.2411884179
 20
-18.8443112383
 10
-8.3358386054
 20
-21.0325087894
 10
-11.4472862555
 20
-23.1974395104
 10
-14.5752407872
 20
-25.3389743186
 10
-17.7193296061
 20
-27.4566967116
 10
-20.8794748673
 20
-29.5506167077
 10
-24.0555005144
 20
-31.6207023299
 10
-27.2468887077
 20
-33.6664758906
 10
-30.4533270129
 20
-35.6878076727
 10
-33.6748803736
 20
-37.6848118677
 10
-36.911598831
 20
-39.6573782925
 10
-40.1635589422
 20
-41.6056195868
 10
-43.4304411539
 20
-43.5294132453
 10
-46.7117034119
 20
-45.4282979182
 10
-50.0070867847
 20
-47.3021184586
 10
-53.3166143688
 20
-49.1510256994
 10
-56.771433621
 20
-51.0473997629
  0
LINE
  5
286
100
AcDbEntity
  8
RACCORDO
100
AcDbLine
 62
253
  6
CONTINUOUS
 10
66.6779547447
 20
-53.8411237983
 11
68.3430248543
 21
-55.506193908
  0
LINE
  5
287
100
AcDbEntity
  8
RACCORDO
100
AcDbLine
 62
253
  6
CONTINUOUS
 10
69.6738433489
 20
-50.8452351941
 11
71.3389134585
 21
-52.5103053037
  0
LINE
  5
288
100
AcDbEntity
  8
RACCORDO
100
AcDbLine
 62
7
  6
CONTINUOUS
 10
69.5667354503
 20
49.4641562736
 11
69.5224419387
 21
49.4165176633
  0
LWPOLYLINE
  5
289
100
AcDbEntity
  8
RACCORDO
100
AcDbPolyline
 62
7
  6
CONTINUOUS
 90
25
 70
0
 10
66.9307542043
 20
43.8298064887
 10
65.1181413457
 20
41.9339885006
 10
63.2955071407
 20
40.0476474401
 10
61.4628985252
 20
38.1707988773
 10
59.6203366581
 20
36.3033969712
 10
57.7678939942
 20
34.4455175373
 10
55.9056945438
 20
32.5973581134
 10
54.033790215
 20
30.7589407818
 10
52.1522227593
 20
28.9302712929
 10
50.26110122
 20
27.1115222191
 10
48.3604874464
 20
25.3027227289
 10
46.4504129878
 20
23.5038693401
 10
44.5309415276
 20
21.7150851597
 10
42.6021628674
 20
19.9364204385
 10
40.6640800823
 20
18.167848486
 10
38.7166265998
 20
16.4093764831
 10
36.7598563055
 20
14.6610180209
 10
34.7938073048
 20
12.9227809701
 10
32.8183890453
 20
11.194663417
 10
30.8336474388
 20
9.4766706943
 10
28.8396277589
 20
7.7688169238
 10
26.8362382216
 20
6.0711128842
 10
24.8234783749
 20
4.3835680121
 10
22.8014391536
 20
2.7061904067
 10
20.7701656637
 20
1.0389883715
  0
LWPOLYLINE
  5
28A
100
AcDbEntity
  8
RACCORDO
100
AcDbPolyline
 62
7
  6
CONTINUOUS
 90
19
 70
0
 10
66.9307541789
 20
43.8298066855
 10
67.0254297795
 20
43.9270381601
 10
67.1184544784
 20
44.0185528794
 10
67.209754246
 20
44.1043574957
 10
67.2992174745
 20
44.1843174013
 10
67.3868306118
 20
44.2585810929
 10
67.472674815
 20
44.3275793792
 10
67.556709023
 20
44.3913299694
 10
67.6388826149
 20
44.4498280584
 10
67.7192655145
 20
44.5034695517
 10
67.797950786
 20
44.5523115177
 10
67.8747773522
 20
44.5963086288
 10
67.9494481293
 20
44.6357038879
 10
68.0218009205
 20
44.6704089642
 10
68.091987132
 20
44.7005269896
 10
68.1601900739
 20
44.7265883539
 10
68.2264665942
 20
44.7487734976
 10
68.2907554383
 20
44.7669138671
 10
68.3530609821
 20
44.7810153675
  0
LWPOLYLINE
  5
28B
100
AcDbEntity
  8
RACCORDO
100
AcDbPolyline
 62
7
  6
CONTINUOUS
 90
19
 70
0
 10
-59.0122425161
 20
-53.8010475504
 10
-58.9902834968
 20
-53.790937492
 10
-58.9684911706
 20
-53.7748670659
 10
-58.9468446453
 20
-53.752862183
 10
-58.9252504138
 20
-53.7249455205
 10
-58.9037603797
 20
-53.6911762954
 10
-58.8825725215
 20
-53.6516782306
 10
-58.8616770122
 20
-53.6065591812
 10
-58.8410449927
 20
-53.5559199968
 10
-58.8208475785
 20
-53.4999288602
 10
-58.8010917756
 20
-53.4387975484
 10
-58.7817364008
 20
-53.3726188354
 10
-58.7628801654
 20
-53.3013721612
 10
-58.7444801572
 20
-53.2250607844
 10
-58.7265438997
 20
-53.1439405512
 10
-58.7092469439
 20
-53.0583821062
 10
-58.6926397415
 20
-52.9686562995
 10
-58.6766453675
 20
-52.8748950607
 10
-58.6612514783
 20
-52.7773052381
  0
LWPOLYLINE
  5
28C
100
AcDbEntity
  8
RACCORDO
100
AcDbPolyline
 62
7
  6
CONTINUOUS
 90
22
 70
0
 10
68.3530609821
 20
44.7810153675
 10
68.4584100423
 20
44.803491273
 10
68.5607845108
 20
44.8271665616
 10
68.6599555198
 20
44.8520463349
 10
68.7557547527
 20
44.8782041798
 10
68.847895819
 20
44.9055781487
 10
68.9360000267
 20
44.9339721499
 10
69.0198630927
 20
44.9634065409
 10
69.0993153333
 20
44.9938786272
 10
69.1740814315
 20
45.025160537
 10
69.2439948488
 20
45.0572653655
 10
69.3089346718
 20
45.0902018656
 10
69.3687354476
 20
45.1237374046
 10
69.4232862366
 20
45.1578906252
 10
69.472484469
 20
45.1926672265
 10
69.5162120658
 20
45.227816273
 10
69.5543938386
 20
45.2633482736
 10
69.5869783962
 20
45.2992789741
 10
69.6139132211
 20
45.3353660236
 10
69.6351635549
 20
45.3715377674
 10
69.6507090893
 20
45.4078930273
 10
69.6605386134
 20
45.4444454155
  0
LINE
  5
28D
100
AcDbEntity
  8
RACCORDO
100
AcDbLine
 62
253
  6
CONTINUOUS
 10
-69.7369629334
 20
49.8637499942
 11
-69.5035310617
 21
49.8745103767
  0
LWPOLYLINE
  5
28E
100
AcDbEntity
  8
RACCORDO
100
AcDbPolyline
 62
253
  6
CONTINUOUS
 90
3
 70
0
 10
-69.5035310617
 20
49.8745103767
 10
-69.255427048
 20
49.883659436
 10
-69.1266787232
 20
49.8879843175
  0
LWPOLYLINE
  5
28F
100
AcDbEntity
  8
RACCORDO
100
AcDbPolyline
 62
253
  6
CONTINUOUS
 90
4
 70
0
 10
-69.1266787232
 20
49.8879843175
 10
-68.8609378489
 20
49.8949851738
 10
-68.7247061157
 20
49.8981749085
 10
-68.5865108454
 20
49.9007289016
  0
LINE
  5
290
100
AcDbEntity
  8
RACCORDO
100
AcDbLine
 62
253
  6
CONTINUOUS
 10
-68.5865108454
 20
49.9007289016
 11
-68.1638536598
 21
49.9062264791
  0
LWPOLYLINE
  5
291
100
AcDbEntity
  8
RACCORDO
100
AcDbPolyline
 62
253
  6
CONTINUOUS
 90
8
 70
0
 10
29.3396005266
 20
52.5944847772
 10
34.4409792919
 20
52.6062459595
 10
39.6467060475
 20
52.6201561626
 10
44.9397364049
 20
52.6361600742
 10
50.2825051754
 20
52.6543799859
 10
55.6624906294
 20
52.6748566619
 10
61.0922144966
 20
52.6975493381
 10
66.5716767768
 20
52.7224580145
  0
LWPOLYLINE
  5
292
100
AcDbEntity
  8
RACCORDO
100
AcDbPolyline
 62
253
  6
CONTINUOUS
 90
9
 70
0
 10
24.4259223042
 20
49.7680329935
 10
29.4599354974
 20
49.7777392894
 10
34.5819476339
 20
49.7895477091
 10
39.8086916339
 20
49.803513777
 10
45.1227466433
 20
49.8195819556
 10
50.4870923838
 20
49.8378750448
 10
55.8891690859
 20
49.8584339707
 10
61.3408270464
 20
49.8812177862
 10
66.8416805769
 20
49.9062264791
  0
LINE
  5
293
100
AcDbEntity
  8
RACCORDO
100
AcDbLine
 62
253
  6
CONTINUOUS
 10
14.6021245192
 20
49.754021649
 11
24.4259223042
 21
49.7680329935
  0
LWPOLYLINE
  5
294
100
AcDbEntity
  8
RACCORDO
100
AcDbPolyline
 62
253
  6
CONTINUOUS
 90
3
 70
0
 10
14.5411845323
 20
52.5708620056
 10
19.385185825
 20
52.576955309
 10
29.3396005266
 20
52.5944847772
  0
LINE
  5
295
100
AcDbEntity
  8
RACCORDO
100
AcDbLine
 62
253
  6
CONTINUOUS
 10
5.0157195998
 20
49.7470457172
 11
14.6021245192
 21
49.754021649
  0
LINE
  5
296
100
AcDbEntity
  8
RACCORDO
100
AcDbLine
 62
253
  6
CONTINUOUS
 10
4.9930129865
 20
52.5639139757
 11
14.5411845323
 21
52.5708620056
  0
LINE
  5
297
100
AcDbEntity
  8
RACCORDO
100
AcDbLine
 62
253
  6
CONTINUOUS
 10
-4.6621044191
 20
49.7464817899
 11
5.0157195998
 21
49.7470457172
  0
LINE
  5
298
100
AcDbEntity
  8
RACCORDO
100
AcDbLine
 62
253
  6
CONTINUOUS
 10
-4.6461690072
 20
52.5633523052
 11
4.9930129865
 21
52.5639139757
  0
LINE
  5
299
100
AcDbEntity
  8
RACCORDO
100
AcDbLine
 62
253
  6
CONTINUOUS
 10
-14.3393186387
 20
49.7524822684
 11
-4.6621044191
 21
49.7464817899
  0
LINE
  5
29A
100
AcDbEntity
  8
RACCORDO
100
AcDbLine
 62
253
  6
CONTINUOUS
 10
-14.2845398287
 20
52.5693287811
 11
-4.6461690072
 21
52.5633523052
  0
LINE
  5
29B
100
AcDbEntity
  8
RACCORDO
100
AcDbLine
 62
253
  6
CONTINUOUS
 10
-24.0073136672
 20
49.7650554864
 11
-14.3393186387
 21
49.7524822684
  0
LINE
  5
29C
100
AcDbEntity
  8
RACCORDO
100
AcDbLine
 62
253
  6
CONTINUOUS
 10
-23.9139312724
 20
52.5818517057
 11
-14.2845398287
 21
52.5693287811
  0
LINE
  5
29D
100
AcDbEntity
  8
RACCORDO
100
AcDbLine
 62
253
  6
CONTINUOUS
 10
-33.6770325644
 20
49.7842084694
 11
-24.0073136672
 21
49.7650554864
  0
LINE
  5
29E
100
AcDbEntity
  8
RACCORDO
100
AcDbLine
 62
253
  6
CONTINUOUS
 10
-33.5450362083
 20
52.6009280793
 11
-23.9139312724
 21
52.5818517057
  0
LWPOLYLINE
  5
29F
100
AcDbEntity
  8
RACCORDO
100
AcDbPolyline
 62
253
  6
CONTINUOUS
 90
5
 70
0
 10
-57.9445086337
 20
49.8614132079
 10
-52.9594115488
 20
49.8420624735
 10
-48.0876560537
 20
49.8248855276
 10
-43.2997777283
 20
49.8097458708
 10
-33.6770325644
 20
49.7842084694
  0
LWPOLYLINE
  5
2A0
100
AcDbEntity
  8
RACCORDO
100
AcDbPolyline
 62
253
  6
CONTINUOUS
 90
5
 70
0
 10
-57.7149224352
 20
52.6778239842
 10
-52.7502238799
 20
52.658550665
 10
-47.8981396321
 20
52.6414424315
 10
-43.1292321556
 20
52.6263633288
 10
-33.5450362083
 20
52.6009280793
  0
LINE
  5
2A1
100
AcDbEntity
  8
RACCORDO
100
AcDbLine
 62
253
  6
CONTINUOUS
 10
-68.1638536598
 20
49.9062264791
 11
-57.9445086337
 21
49.8614132079
  0
LINE
  5
2A2
100
AcDbEntity
  8
RACCORDO
100
AcDbLine
 62
253
  6
CONTINUOUS
 10
-67.8938498597
 20
52.7224580145
 11
-57.7149224352
 21
52.6778239842
  0
LWPOLYLINE
  5
2A3
100
AcDbEntity
  8
RACCORDO
100
AcDbPolyline
 62
253
  6
CONTINUOUS
 90
3
 70
0
 10
67.4025330312
 20
49.8981749555
 10
67.2643377614
 20
49.9007289459
 10
66.8416805769
 20
49.9062264791
  0
LWPOLYLINE
  5
2A4
100
AcDbEntity
  8
RACCORDO
100
AcDbPolyline
 62
253
  6
CONTINUOUS
 90
3
 70
0
 10
67.804505638
 20
49.8879843586
 10
67.6728836586
 20
49.8916827382
 10
67.4025330312
 20
49.8981749555
  0
LWPOLYLINE
  5
2A5
100
AcDbEntity
  8
RACCORDO
100
AcDbPolyline
 62
253
  6
CONTINUOUS
 90
3
 70
0
 10
68.1813579772
 20
49.8745104144
 10
68.0589903002
 20
49.8792721251
 10
67.804505638
 20
49.8879843586
  0
LWPOLYLINE
  5
2A6
100
AcDbEntity
  8
RACCORDO
100
AcDbPolyline
 62
253
  6
CONTINUOUS
 90
3
 70
0
 10
-70.3294050359
 20
49.8246937892
 10
-70.1518252957
 20
49.8388735205
 10
-70.0552056087
 20
49.8454327419
  0
LWPOLYLINE
  5
2A7
100
AcDbEntity
  8
RACCORDO
100
AcDbPolyline
 62
253
  6
CONTINUOUS
 90
3
 70
0
 10
-70.0552056087
 20
49.8454327419
 10
-69.847584064
 20
49.8580281277
 10
-69.7369629334
 20
49.8637499942
  0
LINE
  5
2A8
100
AcDbEntity
  8
RACCORDO
100
AcDbLine
 62
7
  6
CONTINUOUS
 10
68.3430248543
 20
54.493806092
 11
-69.6651979372
 21
54.493806092
  0
LWPOLYLINE
  5
2A9
100
AcDbEntity
  8
RACCORDO
100
AcDbPolyline
 62
253
  6
CONTINUOUS
 90
34
 70
0
 10
66.5716767768
 20
52.7224580145
 10
66.7139790411
 20
52.7186867374
 10
66.8559600692
 20
52.7081609661
 10
66.9972993487
 20
52.6909044617
 10
67.1376778165
 20
52.6669561792
 10
67.2767785778
 20
52.6363701801
 10
67.4142876212
 20
52.5992155105
 10
67.5498945288
 20
52.5555760445
 10
67.6832931784
 20
52.5055502952
 10
67.8141824335
 20
52.4492511915
 10
67.9422668214
 20
52.3868058239
 10
68.0672571997
 20
52.3183551589
 10
68.1888714105
 20
52.2440537192
 10
68.3068349179
 20
52.1640692354
 10
68.4208814278
 20
52.0785822666
 10
68.530753488
 20
51.9877857937
 10
68.6362030699
 20
51.8918847836
 10
68.7369921287
 20
51.7910957258
 10
68.83289314
 20
51.6856461448
 10
68.923689614
 20
51.5757740855
 10
69.0091765841
 20
51.4617275764
 10
69.0891610692
 20
51.3437640696
 10
69.1634625103
 20
51.2221498593
 10
69.2319131768
 20
51.0971594812
 10
69.2943585461
 20
50.9690750928
 10
69.3506576519
 20
50.8381858363
 10
69.4006834033
 20
50.7047871844
 10
69.4443228711
 20
50.5691802745
 10
69.4814775422
 20
50.4316712293
 10
69.5120635425
 20
50.2925704662
 10
69.5360118262
 20
50.1521919957
 10
69.5532683317
 20
50.0108527124
 10
69.5637941037
 20
49.8688716799
 10
69.567565381
 20
49.7265694102
  0
LWPOLYLINE
  5
2AA
100
AcDbEntity
  8
RACCORDO
100
AcDbPolyline
 62
253
  6
CONTINUOUS
 90
3
 70
0
 10
68.52541098
 20
49.8580281611
 10
68.4147898492
 20
49.8637500291
 10
68.1813579772
 20
49.8745104144
  0
LWPOLYLINE
  5
2AB
100
AcDbEntity
  8
RACCORDO
100
AcDbPolyline
 62
253
  6
CONTINUOUS
 90
3
 70
0
 10
68.8296522122
 20
49.8388735491
 10
68.7330325251
 20
49.8454327722
 10
68.52541098
 20
49.8580281611
  0
LINE
  5
2AC
100
AcDbEntity
  8
RACCORDO
100
AcDbLine
 62
253
  6
CONTINUOUS
 10
66.834394006
 20
50.3396837766
 11
66.8416805769
 21
49.9062264791
  0
LINE
  5
2AD
100
AcDbEntity
  8
RACCORDO
100
AcDbLine
 62
253
  6
CONTINUOUS
 10
66.9491113208
 20
-51.0258025288
 11
66.924866079
 21
-42.5485351855
  0
LINE
  5
2AE
100
AcDbEntity
  8
RACCORDO
100
AcDbLine
 62
253
  6
CONTINUOUS
 10
66.924866079
 20
-42.5485351855
 11
66.9056860303
 21
-34.3889655506
  0
LINE
  5
2AF
100
AcDbEntity
  8
RACCORDO
100
AcDbLine
 62
253
  6
CONTINUOUS
 10
66.9056860303
 20
-34.3889655506
 11
66.8921604996
 21
-26.434190486
  0
LINE
  5
2B0
100
AcDbEntity
  8
RACCORDO
100
AcDbLine
 62
253
  6
CONTINUOUS
 10
66.8921604996
 20
-26.434190486
 11
66.8825080747
 21
-18.2861323378
  0
LINE
  5
2B1
100
AcDbEntity
  8
RACCORDO
100
AcDbLine
 62
253
  6
CONTINUOUS
 10
66.8825080747
 20
-18.2861323378
 11
66.8783160159
 21
-9.672274839
  0
LINE
  5
2B2
100
AcDbEntity
  8
RACCORDO
100
AcDbLine
 62
253
  6
CONTINUOUS
 10
66.8783160159
 20
-9.672274839
 11
66.8779275495
 21
9.2517092131
  0
LINE
  5
2B3
100
AcDbEntity
  8
RACCORDO
100
AcDbLine
 62
253
  6
CONTINUOUS
 10
66.8779275495
 20
9.2517092131
 11
66.8803880545
 21
14.1771808686
  0
LWPOLYLINE
  5
2B4
100
AcDbEntity
  8
RACCORDO
100
AcDbPolyline
 62
253
  6
CONTINUOUS
 90
6
 70
0
 10
66.8803880545
 20
14.1771808686
 10
66.8905127751
 20
24.1598970202
 10
66.8980162749
 20
29.1370184993
 10
66.9071890448
 20
34.064547826
 10
66.918086964
 20
38.9622060327
 10
66.9307542043
 20
43.8298064887
  0
LINE
  5
2B5
100
AcDbEntity
  8
RACCORDO
100
AcDbLine
 62
253
  6
CONTINUOUS
 10
66.8416805769
 20
49.9062264791
 11
66.831420154
 21
46.5453836954
  0
LWPOLYLINE
  5
2B6
100
AcDbEntity
  8
RACCORDO
100
AcDbPolyline
 62
253
  6
CONTINUOUS
 90
3
 70
0
 10
66.9491113208
 20
-51.0258025288
 10
66.9417836523
 20
-51.4591533757
 10
66.9381643606
 20
-51.6011830504
  0
LWPOLYLINE
  5
2B7
100
AcDbEntity
  8
RACCORDO
100
AcDbPolyline
 62
253
  6
CONTINUOUS
 90
3
 70
0
 10
66.7802455389
 20
51.5266195652
 10
66.7962538187
 20
51.2850731122
 10
66.8033466606
 20
51.1585825693
  0
LWPOLYLINE
  5
2B8
100
AcDbEntity
  8
RACCORDO
100
AcDbPolyline
 62
253
  6
CONTINUOUS
 90
3
 70
0
 10
66.8033466606
 20
51.1585825693
 10
66.8161175705
 20
50.8958354399
 10
66.8215249308
 20
50.7601146929
  0
LINE
  5
2B9
100
AcDbEntity
  8
RACCORDO
100
AcDbLine
 62
253
  6
CONTINUOUS
 10
69.5224419387
 20
49.4165176633
 11
69.6605386134
 21
45.4444454155
  0
LWPOLYLINE
  5
2BA
100
AcDbEntity
  8
RACCORDO
100
AcDbPolyline
 62
253
  6
CONTINUOUS
 90
3
 70
0
 10
66.8215249308
 20
50.7601146929
 10
66.8307932415
 20
50.4817518562
 10
66.834394006
 20
50.3396837766
  0
LINE
  5
2BB
100
AcDbEntity
  8
RACCORDO
100
AcDbLine
 62
253
  6
CONTINUOUS
 10
68.3530609821
 20
44.7810153675
 11
68.2499960003
 21
48.0532603806
  0
LINE
  5
2BC
100
AcDbEntity
  8
RACCORDO
100
AcDbLine
 62
253
  6
CONTINUOUS
 10
69.6738433489
 20
-50.8452351941
 11
69.6495393252
 21
-42.3985001792
  0
LINE
  5
2BD
100
AcDbEntity
  8
RACCORDO
100
AcDbLine
 62
253
  6
CONTINUOUS
 10
69.6495393252
 20
-42.3985001792
 11
69.6307101688
 21
-34.2689129961
  0
LINE
  5
2BE
100
AcDbEntity
  8
RACCORDO
100
AcDbLine
 62
253
  6
CONTINUOUS
 10
69.6307101688
 20
-34.2689129961
 11
69.6171073924
 21
-26.3428822135
  0
LINE
  5
2BF
100
AcDbEntity
  8
RACCORDO
100
AcDbLine
 62
253
  6
CONTINUOUS
 10
69.6171073924
 20
-26.3428822135
 11
69.6076401747
 21
-18.2238882447
  0
LINE
  5
2C0
100
AcDbEntity
  8
RACCORDO
100
AcDbLine
 62
253
  6
CONTINUOUS
 10
69.6076401747
 20
-18.2238882447
 11
69.6030554087
 21
-9.6405818789
  0
LWPOLYLINE
  5
2C1
100
AcDbEntity
  8
RACCORDO
100
AcDbPolyline
 62
253
  6
CONTINUOUS
 90
10
 70
0
 10
69.6034984031
 20
-0.506193908
 10
69.6023747949
 20
4.54061309
 10
69.6031387957
 20
9.6190995723
 10
69.6057904053
 20
14.7292655387
 10
69.6103592992
 20
19.8937437704
 10
69.6168158019
 20
25.0899014863
 10
69.6250708874
 20
30.2498403431
 10
69.6350948801
 20
35.3509275597
 10
69.6469174554
 20
40.4157959172
 10
69.6605386134
 20
45.4444454155
  0
LINE
  5
2C2
100
AcDbEntity
  8
RACCORDO
100
AcDbLine
 62
7
  6
CONTINUOUS
 10
71.3389134585
 20
-52.5103053037
 11
71.3389134585
 21
51.4979174878
  0
LINE
  5
2C3
100
AcDbEntity
  8
RACCORDO
100
AcDbLine
 62
253
  6
CONTINUOUS
 10
69.6030554087
 20
-9.6405818789
 11
69.6034984031
 21
-0.506193908
  0
LINE
  5
2C4
100
AcDbEntity
  8
RACCORDO
100
AcDbLine
 62
253
  6
CONTINUOUS
 10
69.567565381
 20
49.7265694102
 11
69.5667354503
 21
49.4641562736
  0
LWPOLYLINE
  5
2C5
100
AcDbEntity
  8
RACCORDO
100
AcDbPolyline
 62
253
  6
CONTINUOUS
 90
3
 70
0
 10
66.9381643606
 20
-51.6011830504
 10
66.9288522104
 20
-51.8794661561
 10
66.92341947
 20
-52.0151459781
  0
LWPOLYLINE
  5
2C6
100
AcDbEntity
  8
RACCORDO
100
AcDbPolyline
 62
253
  6
CONTINUOUS
 90
3
 70
0
 10
66.92341947
 20
-52.0151459781
 10
66.9105914814
 20
-52.2778104147
 10
66.9034668885
 20
-52.4042595739
  0
LWPOLYLINE
  5
2C7
100
AcDbEntity
  8
RACCORDO
100
AcDbPolyline
 62
253
  6
CONTINUOUS
 90
20
 70
0
 10
66.9034668885
 20
-52.4042595739
 10
66.8873894007
 20
-52.6457244436
 10
66.8787310231
 20
-52.760258591
 10
66.869280997
 20
-52.8701933092
 10
66.8597388504
 20
-52.9753936154
 10
66.8497377617
 20
-53.0755795347
 10
66.8389857076
 20
-53.1704362631
 10
66.8282275316
 20
-53.259813234
 10
66.8171029262
 20
-53.3435240835
 10
66.8052839438
 20
-53.4212997576
 10
66.7935242559
 20
-53.4929477788
 10
66.7815154481
 20
-53.5583924722
 10
66.768896261
 20
-53.6174303299
 10
66.7563703507
 20
-53.6698283039
 10
66.7437330171
 20
-53.7156254086
 10
66.7305972546
 20
-53.7546775279
 10
66.7175513095
 20
-53.7867263831
 10
66.7047182067
 20
-53.8117880004
 10
66.6916030932
 20
-53.8299433814
 10
66.6779547446
 20
-53.8411237983
  0
LWPOLYLINE
  5
2C8
100
AcDbEntity
  8
RACCORDO
100
AcDbPolyline
 62
253
  6
CONTINUOUS
 90
14
 70
0
 10
69.567565381
 20
49.7265694102
 10
69.5566629384
 20
49.7355288475
 10
69.5390725365
 20
49.7440561674
 10
69.5148610204
 20
49.752369884
 10
69.4839386474
 20
49.7608842563
 10
69.4462860029
 20
49.7694826796
 10
69.4021651229
 20
49.7776832641
 10
69.3516984566
 20
49.7858522903
 10
69.2948300041
 20
49.7941473239
 10
69.2318063831
 20
49.801955395
 10
69.1628083864
 20
49.8096289814
 10
69.0878815369
 20
49.8174361051
 10
69.0072319526
 20
49.8246938142
 10
68.8296522122
 20
49.8388735491
  0
LWPOLYLINE
  5
2C9
100
AcDbEntity
  8
RACCORDO
100
AcDbPolyline
 62
253
  6
CONTINUOUS
 90
19
 70
0
 10
66.5716767767
 20
52.7224580145
 10
66.5852707429
 20
52.7112741729
 10
66.5983320026
 20
52.6931125875
 10
66.611111743
 20
52.6680420794
 10
66.6241045253
 20
52.6359814126
 10
66.6371872147
 20
52.5969144759
 10
66.6497720489
 20
52.5510999971
 10
66.662246386
 20
52.4986821337
 10
66.6748146699
 20
52.4396216231
 10
66.6867733347
 20
52.3741519772
 10
66.6984840405
 20
52.3024768287
 10
66.7102552181
 20
52.2246716931
 10
66.7213330087
 20
52.1409294219
 10
66.7320457598
 20
52.0515192725
 10
66.7427539902
 20
51.9566275921
 10
66.7527125064
 20
51.8564052058
 10
66.7622136911
 20
51.751167166
 10
66.7716246797
 20
51.6411935653
 10
66.7802455389
 20
51.5266195652
  0
LWPOLYLINE
  5
2CA
100
AcDbEntity
  8
RACCORDO
100
AcDbPolyline
 62
253
  6
CONTINUOUS
 90
19
 70
0
 10
-145.5434030018
 20
52.7224580145
 10
-145.5506631032
 20
52.7186867374
 10
-145.5575523813
 20
52.7081609661
 10
-145.564055284
 20
52.6909044617
 10
-145.5701571315
 20
52.6669561792
 10
-145.5758441492
 20
52.6363701801
 10
-145.581103499
 20
52.5992155105
 10
-145.5859233084
 20
52.5555760445
 10
-145.590292697
 20
52.5055502952
 10
-145.5942018012
 20
52.4492511915
 10
-145.5976417965
 20
52.3868058239
 10
-145.6006049173
 20
52.3183551589
 10
-145.6030844745
 20
52.2440537192
 10
-145.6050748708
 20
52.1640692354
 10
-145.606571613
 20
52.0785822666
 10
-145.6075713221
 20
51.9877857937
 10
-145.6080717416
 20
51.8918847836
 10
-145.6080717416
 20
51.7910957258
 10
-145.6065716132
 20
51.5757740855
  0
LINE
  5
2CB
100
AcDbEntity
  8
IMPORT_IGES
100
AcDbLine
 62
7
  6
CONTINUOUS
 10
-110.7266184647
 20
-51.0111158819
 11
-111.3788262462
 21
-51.0338914795
  0
LINE
  5
2CC
100
AcDbEntity
  8
RACCORDO
100
AcDbLine
 62
7
  6
CONTINUOUS
 10
-111.744068213
 20
-55.506193908
 11
-147.0882317079
 21
-53.6538847886
  0
LINE
  5
2CD
100
AcDbEntity
  8
RACCORDO
100
AcDbLine
 62
253
  6
CONTINUOUS
 10
-143.5154985693
 20
-50.8452351941
 11
-111.744068213
 21
-52.5103053037
  0
LINE
  5
2CE
100
AcDbEntity
  8
RACCORDO
100
AcDbLine
 62
253
  6
CONTINUOUS
 10
-149.4177981702
 20
-50.8645366573
 11
-146.3407498356
 21
-51.0258025288
  0
LWPOLYLINE
  5
2CF
100
AcDbEntity
  8
RACCORDO
100
AcDbPolyline
 62
7
  6
CONTINUOUS
 90
27
 70
0
 10
-147.0882317079
 20
-53.6538847886
 10
-147.1702371265
 20
-53.6484292911
 10
-147.2498569918
 20
-53.6410961394
 10
-147.3270913041
 20
-53.6318849895
 10
-147.4017375153
 20
-53.620810382
 10
-147.4739981734
 20
-53.6078568277
 10
-147.5444809222
 20
-53.5929787913
 10
-147.6132543978
 20
-53.5762465626
 10
-147.680249964
 20
-53.5575883535
 10
-147.7458693566
 20
-53.536745238
 10
-147.8102089475
 20
-53.5137815128
 10
-147.8731723649
 20
-53.4886305223
 10
-147.9348722285
 20
-53.4608363288
 10
-147.9955089595
 20
-53.4303779509
 10
-148.0548821368
 20
-53.397272536
 10
-148.1125031173
 20
-53.3611204669
 10
-148.1684958888
 20
-53.3218338925
 10
-148.2227364636
 20
-53.2794949187
 10
-148.2743642343
 20
-53.2339580431
 10
-148.3233458461
 20
-53.1851892811
 10
-148.369714654
 20
-53.1332151564
 10
-148.4127101161
 20
-53.0779803381
 10
-148.4522939328
 20
-53.0194805851
 10
-148.4885044039
 20
-52.9577110419
 10
-148.5206958864
 20
-52.8926149253
 10
-148.5486531661
 20
-52.8241696625
 10
-148.5604408157
 20
-52.7888225648
  0
LWPOLYLINE
  5
2D0
100
AcDbEntity
  8
RACCORDO
100
AcDbPolyline
 62
253
  6
CONTINUOUS
 90
18
 70
0
 10
-143.5154985693
 20
-53.8411237983
 10
-143.5227586708
 20
-53.8373525211
 10
-143.529647949
 20
-53.8268267494
 10
-143.5361508518
 20
-53.8095702443
 10
-143.5422526993
 20
-53.7856219612
 10
-143.547939717
 20
-53.7550359616
 10
-143.5531990669
 20
-53.7178812913
 10
-143.5580188762
 20
-53.6742418245
 10
-143.5623882648
 20
-53.6242160742
 10
-143.566297369
 20
-53.5679169695
 10
-143.5697373642
 20
-53.5054716014
 10
-143.572700485
 20
-53.4370209359
 10
-143.5751800422
 20
-53.3627194959
 10
-143.5771704384
 20
-53.2827350118
 10
-143.5786671805
 20
-53.1972480428
 10
-143.5796668896
 20
-53.1064515699
 10
-143.580167309
 20
-53.0105505597
 10
-143.580167309
 20
-52.909761502
  0
LINE
  5
2D1
100
AcDbEntity
  8
RACCORDO
100
AcDbLine
 62
7
  6
CONTINUOUS
 10
-146.1302836771
 20
44.7810153675
 11
-145.9724199302
 21
44.8271665616
  0
LINE
  5
2D2
100
AcDbEntity
  8
RACCORDO
100
AcDbLine
 62
7
  6
CONTINUOUS
 10
-145.9724199302
 20
44.8271665616
 11
-145.4974372495
 21
44.9634065409
  0
LWPOLYLINE
  5
2D3
100
AcDbEntity
  8
RACCORDO
100
AcDbPolyline
 62
253
  6
CONTINUOUS
 90
5
 70
0
 10
-146.3407498356
 20
-51.0258025288
 10
-146.3245611386
 20
-51.0239468568
 10
-146.3016031291
 20
-51.022183815
 10
-146.2719385758
 20
-51.0202690216
 10
-146.1929792498
 20
-51.0144925087
  0
LINE
  5
2D4
100
AcDbEntity
  8
RACCORDO
100
AcDbLine
 62
253
  6
CONTINUOUS
 10
-146.1929792498
 20
-51.0144925087
 11
-145.805998639
 21
-50.9885006304
  0
LINE
  5
2D5
100
AcDbEntity
  8
RACCORDO
100
AcDbLine
 62
253
  6
CONTINUOUS
 10
-145.805998639
 20
-50.9885006304
 11
-143.9388878938
 21
-50.8711609067
  0
LINE
  5
2D6
100
AcDbEntity
  8
RACCORDO
100
AcDbLine
 62
253
  6
CONTINUOUS
 10
-143.9388878938
 20
-50.8711609067
 11
-143.5154985693
 21
-50.845235194
  0
LINE
  5
2D7
100
AcDbEntity
  8
IMPORT_IGES
100
AcDbLine
 62
253
  6
CONTINUOUS
 10
-110.244068213
 20
-46.0291856253
 11
-111.244068213
 21
-46.0291856253
  0
LINE
  5
2D8
100
AcDbEntity
  8
IMPORT_IGES
100
AcDbLine
 62
253
  6
CONTINUOUS
 10
-111.244068213
 20
-41.0291856253
 11
-110.244068213
 21
-41.0291856253
  0
LINE
  5
2D9
100
AcDbEntity
  8
IMPORT_IGES
100
AcDbLine
 62
7
  6
CONTINUOUS
 10
-110.7266184647
 20
-36.0472553687
 11
-111.244068213
 21
-36.0291856253
  0
LWPOLYLINE
  5
2DA
100
AcDbEntity
  8
RACCORDO
100
AcDbPolyline
 62
7
  6
CONTINUOUS
 90
7
 70
0
 10
-148.4190942329
 20
47.161659634
 10
-148.450823917
 20
47.0621693171
 10
-148.4795617782
 20
46.9613887504
 10
-148.5053078165
 20
46.8593189718
 10
-148.5280620319
 20
46.7559610333
 10
-148.5478244243
 20
46.6513160013
 10
-148.5645949938
 20
46.5453849558
  0
LWPOLYLINE
  5
2DB
100
AcDbEntity
  8
RACCORDO
100
AcDbPolyline
 62
7
  6
CONTINUOUS
 90
28
 70
0
 10
-148.2906997566
 20
48.0532603802
 10
-148.2728964358
 20
48.1498765082
 10
-148.2504950841
 20
48.2420432589
 10
-148.2234957016
 20
48.3297574548
 10
-148.19164144
 20
48.4128035283
 10
-148.1551891475
 20
48.4913910723
 10
-148.1149093693
 20
48.5661552679
 10
-148.0709273053
 20
48.6371285254
 10
-148.0231177556
 20
48.7042741495
 10
-147.9718756658
 20
48.7681244948
 10
-147.9173100199
 20
48.8287266772
 10
-147.859311834
 20
48.8860304407
 10
-147.797949102
 20
48.9404226544
 10
-147.7333170228
 20
48.9919608703
 10
-147.6653203974
 20
49.0405851843
 10
-147.5937416234
 20
49.0865066285
 10
-147.5186604549
 20
49.129794101
 10
-147.4399971378
 20
49.1703768722
 10
-147.3572948068
 20
49.2082566968
 10
-147.2706236883
 20
49.2435116683
 10
-147.179913556
 20
49.2760621962
 10
-147.0844968659
 20
49.3056735356
 10
-146.9844257085
 20
49.3324373286
 10
-146.8796479933
 20
49.3562606813
 10
-146.7693399038
 20
49.3766319936
 10
-146.6532268345
 20
49.393380367
 10
-146.531583391
 20
49.4066757069
 10
-146.4044095731
 20
49.4165176633
  0
LWPOLYLINE
  5
2DC
100
AcDbEntity
  8
RACCORDO
100
AcDbPolyline
 62
7
  6
CONTINUOUS
 90
19
 70
0
 10
-149.575581866
 20
-48.0680963997
 10
-149.7349793713
 20
-47.229488626
 10
-150.0655245307
 20
-45.3636546816
 10
-150.3767991509
 20
-43.4724824134
 10
-150.6688099102
 20
-41.5560813389
 10
-150.9415768433
 20
-39.6145582597
 10
-151.1951013472
 20
-37.6480270382
 10
-151.4293820247
 20
-35.6566035162
 10
-151.6444347199
 20
-33.6403992004
 10
-151.8402607499
 20
-31.5995322776
 10
-152.0168587976
 20
-29.5341225089
 10
-152.1742407546
 20
-27.4442855147
 10
-152.3124079051
 20
-25.330143922
 10
-152.431358965
 20
-23.1918212047
 10
-152.5311019735
 20
-21.0294359601
 10
-152.6116382351
 20
-18.8431142377
 10
-152.6729664453
 20
-16.6329840503
 10
-152.7150907298
 20
-14.3991686224
 10
-152.730776761
 20
-13.0872100627
  0
LWPOLYLINE
  5
2DD
100
AcDbEntity
  8
RACCORDO
100
AcDbPolyline
 62
7
  6
CONTINUOUS
 90
7
 70
0
 10
-152.730776761
 20
-13.0872100627
 10
-152.7380123807
 20
-12.1417988254
 10
-152.7417301059
 20
-9.8610057843
 10
-152.7262441548
 20
-7.556914737
 10
-152.6915546106
 20
-5.2296572205
 10
-152.6376613902
 20
-2.8793713248
 10
-152.5645644934
 20
-0.506193908
  0
LWPOLYLINE
  5
2DE
100
AcDbEntity
  8
RACCORDO
100
AcDbPolyline
 62
7
  6
CONTINUOUS
 90
19
 70
0
 10
-152.7242762549
 20
-11.0883826321
 10
-152.7092903004
 20
-13.4410551087
 10
-152.6735546685
 20
-15.7684357284
 10
-152.6170678348
 20
-18.0703779658
 10
-152.5398256436
 20
-20.346744369
 10
-152.4418296095
 20
-22.597392017
 10
-152.3230782179
 20
-24.8221792087
 10
-152.1835627704
 20
-27.0209722773
 10
-152.0232848118
 20
-29.1936325237
 10
-151.8422427972
 20
-31.3400233233
 10
-151.6404233944
 20
-33.4600161017
 10
-151.4178280774
 20
-35.55347766
 10
-151.1744553721
 20
-37.6202752283
 10
-150.9102875241
 20
-39.6602829303
 10
-150.6253262172
 20
-41.6733709521
 10
-150.3195697675
 20
-43.6594128244
 10
-149.9929953684
 20
-45.6182897403
 10
-149.6455954178
 20
-47.5498797251
 10
-149.5880224473
 20
-47.8476088615
  0
LWPOLYLINE
  5
2DF
100
AcDbEntity
  8
RACCORDO
100
AcDbPolyline
 62
7
  6
CONTINUOUS
 90
19
 70
0
 10
-152.5645644934
 20
-0.506193908
 10
-152.5066287493
 20
1.9177331601
 10
-152.4293791568
 20
4.3648131988
 10
-152.3328157158
 20
6.8349007054
 10
-152.2169413574
 20
9.3278468744
 10
-152.0817531507
 20
11.8435053495
 10
-151.9272423024
 20
14.3817324059
 10
-151.7534101317
 20
16.9423763467
 10
-151.5602553194
 20
19.5252859058
 10
-151.3477651159
 20
22.1303163693
 10
-151.1159407208
 20
24.757314098
 10
-150.8647809343
 20
27.406122256
 10
-150.5942694075
 20
30.0765897264
 10
-150.3044075798
 20
32.7685569475
 10
-149.9951940118
 20
35.4818654275
 10
-149.666608036
 20
38.2163640901
 10
-149.3186427631
 20
40.9718942533
 10
-148.9513050824
 20
43.7482893841
 10
-148.5645949938
 20
46.5453849558
  0
LWPOLYLINE
  5
2E0
100
AcDbEntity
  8
RACCORDO
100
AcDbPolyline
 62
7
  6
CONTINUOUS
 90
6
 70
0
 10
-152.4879334047
 20
1.0492420942
 10
-152.5767052696
 20
-1.4276859586
 10
-152.6447255149
 20
-3.8800658984
 10
-152.6919941406
 20
-6.3077440883
 10
-152.7185110075
 20
-8.7105655103
 10
-152.7242762549
 20
-11.0883826321
  0
LINE
  5
2E1
100
AcDbEntity
  8
RACCORDO
100
AcDbLine
 62
253
  6
CONTINUOUS
 10
-148.4360217103
 20
48.7816988178
 11
-148.5645952333
 21
46.5453836954
  0
LINE
  5
2E2
100
AcDbEntity
  8
RACCORDO
100
AcDbLine
 62
253
  6
CONTINUOUS
 10
-148.3688138303
 20
49.9062264791
 11
-148.4360217103
 21
48.7816988178
  0
LWPOLYLINE
  5
2E3
100
AcDbEntity
  8
RACCORDO
100
AcDbPolyline
 62
7
  6
CONTINUOUS
 90
18
 70
0
 10
-148.8024577084
 20
44.4271800793
 10
-149.1673390804
 20
41.7118533764
 10
-149.5137383488
 20
39.015844343
 10
-149.8416746081
 20
36.3391434667
 10
-150.1511287639
 20
33.6820896287
 10
-150.4420435322
 20
31.045356964
 10
-150.7143940398
 20
28.4292690865
 10
-150.96820516
 20
25.8337963333
 10
-151.2034942288
 20
23.259069717
 10
-151.4202636229
 20
20.7052143373
 10
-151.6185109657
 20
18.1723957184
 10
-151.7982464635
 20
15.6608029317
 10
-151.9594734338
 20
13.1704231372
 10
-152.1021885592
 20
10.701552514
 10
-152.2263920935
 20
8.2548274679
 10
-152.3320841216
 20
5.8305363802
 10
-152.4192645587
 20
3.4286342511
 10
-152.4879334047
 20
1.0492420942
  0
LWPOLYLINE
  5
2E4
100
AcDbEntity
  8
RACCORDO
100
AcDbPolyline
 62
7
  6
CONTINUOUS
 90
25
 70
0
 10
-146.6910245929
 20
43.8298064887
 10
-146.9500160188
 20
41.9339885006
 10
-147.2000908293
 20
40.0476474401
 10
-147.4412518346
 20
38.1707988773
 10
-147.6735060433
 20
36.3033969712
 10
-147.8968502941
 20
34.4455175373
 10
-148.1112734078
 20
32.5973581134
 10
-148.3167776876
 20
30.7589407818
 10
-148.5133663351
 20
28.9302712929
 10
-148.7010324073
 20
27.1115222191
 10
-148.8797776798
 20
25.3027227289
 10
-149.0496064813
 20
23.5038693401
 10
-149.2105175665
 20
21.7150851597
 10
-149.3625103907
 20
19.9364204385
 10
-149.5055908934
 20
18.167848486
 10
-149.6397668661
 20
16.4093764831
 10
-149.7650382716
 20
14.6610180209
 10
-149.8814054956
 20
12.9227809701
 10
-149.9888741676
 20
11.194663417
 10
-150.0874420647
 20
9.4766706943
 10
-150.1771064155
 20
7.7688169238
 10
-150.2578690314
 20
6.0711128842
 10
-150.3297266416
 20
4.3835680121
 10
-150.3926721006
 20
2.7061904067
 10
-150.4466995552
 20
1.0389883715
  0
LWPOLYLINE
  5
2E5
100
AcDbEntity
  8
RACCORDO
100
AcDbPolyline
 62
7
  6
CONTINUOUS
 90
3
 70
0
 10
-148.2906997566
 20
48.0532603802
 10
-148.305062319
 20
47.9540921109
 10
-148.8024577084
 20
44.4271800793
  0
LWPOLYLINE
  5
2E6
100
AcDbEntity
  8
RACCORDO
100
AcDbPolyline
 62
7
  6
CONTINUOUS
 90
19
 70
0
 10
-146.6910242998
 20
43.8298066855
 10
-146.6758293344
 20
43.9270381601
 10
-146.6581331745
 20
44.0185528794
 10
-146.6380694768
 20
44.1043574957
 10
-146.6157889786
 20
44.1843174013
 10
-146.5914101408
 20
44.2585810929
 10
-146.5650053788
 20
44.3275793792
 10
-146.5366911081
 20
44.3913299694
 10
-146.5065884605
 20
44.4498280584
 10
-146.4747542176
 20
44.5034695517
 10
-146.4412405367
 20
44.5523115177
 10
-146.4062017363
 20
44.5963086288
 10
-146.3698599457
 20
44.6357038879
 10
-146.3324233097
 20
44.6704089642
 10
-146.2939403253
 20
44.7005269896
 10
-146.2543978268
 20
44.7265883539
 10
-146.2138527977
 20
44.7487734976
 10
-146.1724486331
 20
44.7669138671
 10
-146.1302836771
 20
44.7810153675
  0
LINE
  5
2E7
100
AcDbEntity
  8
IMPORT_IGES
100
AcDbLine
 62
7
  6
CONTINUOUS
 10
-110.7266184647
 20
-21.8294117004
 11
-111.244068213
 21
-21.8474814438
  0
LWPOLYLINE
  5
2E8
100
AcDbEntity
  8
RACCORDO
100
AcDbPolyline
 62
253
  6
CONTINUOUS
 90
31
 70
0
 10
-146.3407498356
 20
-51.0258025288
 10
-146.3286032572
 20
-51.1709914987
 10
-146.3093751182
 20
-51.3155853168
 10
-146.2831272205
 20
-51.4591533757
 10
-146.2500013428
 20
-51.6011830504
 10
-146.2100873859
 20
-51.741340785
 10
-146.1633822811
 20
-51.8794661561
 10
-146.1100458655
 20
-52.0151459781
 10
-146.050266385
 20
-52.1479767271
 10
-145.9840589031
 20
-52.2778104147
 10
-145.9116431159
 20
-52.4042595739
 10
-145.83326829
 20
-52.5269431329
 10
-145.7489667174
 20
-52.6457244436
 10
-145.6590067894
 20
-52.760258591
 10
-145.5636979237
 20
-52.8701933092
 10
-145.4630998422
 20
-52.9753936154
 10
-145.3575041366
 20
-53.0755795347
 10
-145.2472757645
 20
-53.1704362631
 10
-145.1325343806
 20
-53.259813234
 10
-145.0135406721
 20
-53.3435240835
 10
-144.8907043409
 20
-53.4212997576
 10
-144.7642864741
 20
-53.4929477788
 10
-144.63444241
 20
-53.5583924722
 10
-144.5015846467
 20
-53.6174303299
 10
-144.3662231831
 20
-53.6698283039
 10
-144.2282798907
 20
-53.7156254086
 10
-144.0881303873
 20
-53.7546775279
 10
-143.9467607888
 20
-53.7867263831
 10
-143.8044146451
 20
-53.8117880004
 10
-143.6607004934
 20
-53.8299433814
 10
-143.5154985693
 20
-53.8411237983
  0
LWPOLYLINE
  5
2E9
100
AcDbEntity
  8
RACCORDO
100
AcDbPolyline
 62
253
  6
CONTINUOUS
 90
13
 70
0
 10
-146.3407498356
 20
-51.0258025288
 10
-146.588329264
 20
-46.7523148753
 10
-146.8077585029
 20
-42.5485351855
 10
-147.0002248265
 20
-38.4146586875
 10
-147.1654360217
 20
-34.3889655506
 10
-147.3064058717
 20
-30.4335382227
 10
-147.4274364657
 20
-26.434190486
 10
-147.5280620667
 20
-22.3820252602
 10
-147.6072545767
 20
-18.2861323378
 10
-147.6652112425
 20
-14.059224957
 10
-147.6998554465
 20
-9.672274839
 10
-147.7084313448
 20
-5.1545448576
 10
-147.6885809741
 20
-0.5061955607
  0
LWPOLYLINE
  5
2EA
100
AcDbEntity
  8
RACCORDO
100
AcDbPolyline
 62
253
  6
CONTINUOUS
 90
13
 70
0
 10
-143.5154985693
 20
-50.8452351941
 10
-143.7602335461
 20
-46.586957184
 10
-143.9792469682
 20
-42.3985001792
 10
-144.1725388358
 20
-38.2798641798
 10
-144.3385286758
 20
-34.2689129961
 10
-144.4787969611
 20
-30.3277828178
 10
-144.5980851107
 20
-26.3428822135
 10
-144.698897816
 20
-22.3052704421
 10
-144.7787303856
 20
-18.2238882447
 10
-144.8348101639
 20
-14.0119664135
 10
-144.8662129325
 20
-9.6405818789
 10
-144.8738629098
 20
-5.1386577104
 10
-144.8577600959
 20
-0.506193908
  0
LWPOLYLINE
  5
2EB
100
AcDbEntity
  8
RACCORDO
100
AcDbPolyline
 62
253
  6
CONTINUOUS
 90
10
 70
0
 10
-147.688580952
 20
-0.5061955603
 10
-147.7087097691
 20
4.3571800485
 10
-147.6967415448
 20
9.2517092131
 10
-147.6520682555
 20
14.1771808686
 10
-147.5736989725
 20
19.1532938782
 10
-147.4611363525
 20
24.1598970202
 10
-147.3157020514
 20
29.1370184993
 10
-147.1387483622
 20
34.064547826
 10
-146.930332815
 20
38.9622060327
 10
-146.6910245929
 20
43.8298064887
  0
LINE
  5
2EC
100
AcDbEntity
  8
SMUSSO
100
AcDbLine
 62
7
  6
CONTINUOUS
 10
-150.4466995552
 20
1.0389883715
 11
-150.4880887889
 21
-0.506193908
  0
LWPOLYLINE
  5
2ED
100
AcDbEntity
  8
RACCORDO
100
AcDbPolyline
 62
7
  6
CONTINUOUS
 90
8
 70
0
 10
-150.4880887889
 20
-0.506193908
 10
-150.5732793782
 20
-2.8779688352
 10
-150.6395546477
 20
-5.227177111
 10
-150.6869163014
 20
-7.5537950046
 10
-150.7153643617
 20
-9.8580012543
 10
-150.7248927816
 20
-12.1395736003
 10
-150.7155021178
 20
-14.3978887944
 10
-150.7034318445
 20
-15.5404779956
  0
LINE
  5
2EE
100
AcDbEntity
  8
RACCORDO
100
AcDbLine
 62
253
  6
CONTINUOUS
 10
-145.5434030018
 20
49.7265694102
 11
-145.5592390233
 21
49.4641562736
  0
LINE
  5
2EF
100
AcDbEntity
  8
IMPORT_IGES
100
AcDbLine
 62
253
  6
CONTINUOUS
 10
-110.244068213
 20
-16.8474814438
 11
-111.244068213
 21
-16.8474814438
  0
LINE
  5
2F0
100
AcDbEntity
  8
RACCORDO
100
AcDbLine
 62
253
  6
CONTINUOUS
 10
-145.5575523818
 20
50.0108527124
 11
-145.5434030018
 21
49.7265694102
  0
LINE
  5
2F1
100
AcDbEntity
  8
RACCORDO
100
AcDbLine
 62
253
  6
CONTINUOUS
 10
-145.5701571322
 20
50.2925704662
 11
-145.5575523818
 21
50.0108527124
  0
LINE
  5
2F2
100
AcDbEntity
  8
RACCORDO
100
AcDbLine
 62
253
  6
CONTINUOUS
 10
-145.5811034998
 20
50.5691802745
 11
-145.5701571322
 21
50.2925704662
  0
LINE
  5
2F3
100
AcDbEntity
  8
RACCORDO
100
AcDbLine
 62
253
  6
CONTINUOUS
 10
-145.5902926978
 20
50.8381858363
 11
-145.5811034998
 21
50.5691802745
  0
LINE
  5
2F4
100
AcDbEntity
  8
RACCORDO
100
AcDbLine
 62
253
  6
CONTINUOUS
 10
-145.5976417971
 20
51.0971594812
 11
-145.5902926978
 21
50.8381858363
  0
LINE
  5
2F5
100
AcDbEntity
  8
RACCORDO
100
AcDbLine
 62
253
  6
CONTINUOUS
 10
-145.603084475
 20
51.3437640696
 11
-145.5976417971
 21
51.0971594812
  0
LINE
  5
2F6
100
AcDbEntity
  8
RACCORDO
100
AcDbLine
 62
253
  6
CONTINUOUS
 10
-145.6065716132
 20
51.5757740855
 11
-145.603084475
 21
51.3437640696
  0
LWPOLYLINE
  5
2F7
100
AcDbEntity
  8
RACCORDO
100
AcDbPolyline
 62
253
  6
CONTINUOUS
 90
10
 70
0
 10
-144.8577600959
 20
-0.506193908
 10
-144.8791998165
 20
4.54061309
 10
-144.8646218142
 20
9.6190995723
 10
-144.8140260888
 20
14.7292655387
 10
-144.7268463999
 20
19.8937437704
 10
-144.6036489881
 20
25.0899014863
 10
-144.4461325747
 20
30.2498403431
 10
-144.2548634002
 20
35.3509275597
 10
-144.0292752243
 20
40.4157959172
 10
-143.7693680468
 20
45.4444454155
  0
LINE
  5
2F8
100
AcDbEntity
  8
RACCORDO
100
AcDbLine
 62
253
  6
CONTINUOUS
 10
-143.580167309
 20
-52.909761502
 11
-143.5786671806
 21
-52.6944398619
  0
LINE
  5
2F9
100
AcDbEntity
  8
RACCORDO
100
AcDbLine
 62
253
  6
CONTINUOUS
 10
-143.5786671806
 20
-52.6944398619
 11
-143.5751800423
 21
-52.4624298465
  0
LINE
  5
2FA
100
AcDbEntity
  8
RACCORDO
100
AcDbLine
 62
253
  6
CONTINUOUS
 10
-143.5751800423
 20
-52.4624298465
 11
-143.5697373644
 21
-52.2158252587
  0
LINE
  5
2FB
100
AcDbEntity
  8
RACCORDO
100
AcDbLine
 62
253
  6
CONTINUOUS
 10
-143.5697373644
 20
-52.2158252587
 11
-143.562388265
 21
-51.9568516147
  0
LINE
  5
2FC
100
AcDbEntity
  8
RACCORDO
100
AcDbLine
 62
253
  6
CONTINUOUS
 10
-143.562388265
 20
-51.9568516147
 11
-143.5531990671
 21
-51.6878460543
  0
LINE
  5
2FD
100
AcDbEntity
  8
RACCORDO
100
AcDbLine
 62
253
  6
CONTINUOUS
 10
-143.5531990671
 20
-51.6878460543
 11
-143.5422526995
 21
-51.4112362473
  0
LINE
  5
2FE
100
AcDbEntity
  8
RACCORDO
100
AcDbLine
 62
253
  6
CONTINUOUS
 10
-143.5422526995
 20
-51.4112362473
 11
-143.5296479492
 21
-51.129518495
  0
LINE
  5
2FF
100
AcDbEntity
  8
RACCORDO
100
AcDbLine
 62
253
  6
CONTINUOUS
 10
-143.5296479492
 20
-51.129518495
 11
-143.5154985693
 21
-50.8452351941
  0
LINE
  5
300
100
AcDbEntity
  8
IMPORT_IGES
100
AcDbLine
 62
253
  6
CONTINUOUS
 10
-111.244068213
 20
-13.8474814438
 11
-110.244068213
 21
-13.8474814438
  0
LINE
  5
301
100
AcDbEntity
  8
IMPORT_IGES
100
AcDbLine
 62
7
  6
CONTINUOUS
 10
-110.7266184647
 20
-8.8655511871
 11
-111.244068213
 21
-8.8474814438
  0
LINE
  5
302
100
AcDbEntity
  8
RACCORDO
100
AcDbLine
 62
253
  6
CONTINUOUS
 10
-147.6723063202
 20
-0.5058456757
 11
-147.6885808132
 21
-0.506193909
  0
LINE
  5
303
100
AcDbEntity
  8
IMPORT_IGES
100
AcDbLine
 62
7
  6
CONTINUOUS
 10
-111.3828604979
 20
-1.9654919165
 11
-111.244068213
 21
-1.9630692882
  0
LINE
  5
304
100
AcDbEntity
  8
RACCORDO
100
AcDbLine
 62
253
  6
CONTINUOUS
 10
-147.61961687
 20
-0.5051523163
 11
-147.6723063202
 21
-0.5058456757
  0
LINE
  5
305
100
AcDbEntity
  8
RACCORDO
100
AcDbLine
 62
253
  6
CONTINUOUS
 10
-147.3060509546
 20
-0.50285929
 11
-147.61961687
 21
-0.5051523163
  0
LINE
  5
306
100
AcDbEntity
  8
RACCORDO
100
AcDbLine
 62
7
  6
CONTINUOUS
 10
-150.4880887889
 20
-0.506193908
 11
-147.688580952
 21
-0.5061955603
  0
LINE
  5
307
100
AcDbEntity
  8
0
100
AcDbLine
 62
7
  6
CONTINUOUS
 10
-152.744068213
 20
-0.506193908
 11
-152.5645644934
 21
-0.506193908
  0
LINE
  5
308
100
AcDbEntity
  8
RACCORDO
100
AcDbLine
 62
253
  6
CONTINUOUS
 10
-145.9600555684
 20
-0.5037577032
 11
-147.3060509546
 21
-0.50285929
  0
LINE
  5
309
100
AcDbEntity
  8
RACCORDO
100
AcDbLine
 62
253
  6
CONTINUOUS
 10
-144.8577600959
 20
-0.506193908
 11
-145.9600555684
 21
-0.5037577032
  0
LINE
  5
30A
100
AcDbEntity
  8
IMPORT_IGES
100
AcDbLine
 62
7
  6
CONTINUOUS
 10
-111.244068213
 20
-0.4585591027
 11
-111.3830188624
 21
-0.4561337101
  0
LINE
  5
30B
100
AcDbEntity
  8
IMPORT_IGES
100
AcDbLine
 62
7
  6
CONTINUOUS
 10
-110.7353420098
 20
1.7606475725
 11
-111.244068213
 21
1.7517677236
  0
LINE
  5
30C
100
AcDbEntity
  8
IMPORT_IGES
100
AcDbLine
 62
7
  6
CONTINUOUS
 10
-111.3828604979
 20
2.593806092
 11
-111.2440682152
 21
2.593806092
  0
LINE
  5
30D
100
AcDbEntity
  8
SMUSSO
100
AcDbLine
 62
7
  6
CONTINUOUS
 10
-152.4879340729
 20
1.0492244262
 11
-151.1290176885
 21
1.0432705011
  0
LINE
  5
30E
100
AcDbEntity
  8
SMUSSO
100
AcDbLine
 62
7
  6
CONTINUOUS
 10
-151.1290176885
 20
1.0432705011
 11
-150.4466995552
 21
1.0389883715
  0
LINE
  5
30F
100
AcDbEntity
  8
IMPORT_IGES
100
AcDbLine
 62
7
  6
CONTINUOUS
 10
-111.7127712583
 20
15.9913664276
 11
-111.7193166129
 21
15.9812261651
  0
LINE
  5
310
100
AcDbEntity
  8
IMPORT_IGES
100
AcDbLine
 62
7
  6
CONTINUOUS
 10
-111.2440682174
 20
9.593806092
 11
-111.3828604979
 21
9.593806092
  0
LINE
  5
311
100
AcDbEntity
  8
IMPORT_IGES
100
AcDbLine
 62
7
  6
CONTINUOUS
 10
-111.719316613
 20
15.9812261651
 11
-111.7127330909
 21
15.9814346008
  0
LINE
  5
312
100
AcDbEntity
  8
IMPORT_IGES
100
AcDbLine
 62
7
  6
CONTINUOUS
 10
-111.3830188624
 20
12.6437458942
 11
-111.244068213
 21
12.6461712868
  0
LINE
  5
313
100
AcDbEntity
  8
IMPORT_IGES
100
AcDbLine
 62
7
  6
CONTINUOUS
 10
-110.7353420098
 20
10.4269646116
 11
-111.244068213
 21
10.4358444605
  0
LINE
  5
314
100
AcDbEntity
  8
IMPORT_IGES
100
AcDbLine
 62
7
  6
CONTINUOUS
 10
-111.244068213
 20
14.1506814722
 11
-111.3828604979
 21
14.1531041006
  0
LINE
  5
315
100
AcDbEntity
  8
RACCORDO
100
AcDbLine
 62
253
  6
CONTINUOUS
 10
-145.8229346728
 20
48.5367071777
 11
-143.7693680468
 21
45.4444454155
  0
LINE
  5
316
100
AcDbEntity
  8
RACCORDO
100
AcDbLine
 62
253
  6
CONTINUOUS
 10
-146.1302836771
 20
44.7810153675
 11
-147.0944115371
 21
46.238103332
  0
LINE
  5
317
100
AcDbEntity
  8
RACCORDO
100
AcDbLine
 62
253
  6
CONTINUOUS
 10
-146.4044095731
 20
49.4165176633
 11
-145.8229346728
 21
48.5367071777
  0
LWPOLYLINE
  5
318
100
AcDbEntity
  8
RACCORDO
100
AcDbPolyline
 62
253
  6
CONTINUOUS
 90
3
 70
0
 10
-147.0944115371
 20
46.238103332
 10
-148.0522285029
 20
47.6907787683
 10
-148.2906997566
 20
48.0532603806
  0
LINE
  5
319
100
AcDbEntity
  8
RACCORDO
100
AcDbLine
 62
7
  6
CONTINUOUS
 10
-111.744068213
 20
-55.506193908
 11
-111.744068213
 21
54.493806092
  0
LINE
  5
31A
100
AcDbEntity
  8
IMPORT_IGES
100
AcDbLine
 62
7
  6
CONTINUOUS
 10
-111.7127712583
 20
34.6061787938
 11
-111.7127712583
 21
34.5962457565
  0
LINE
  5
31B
100
AcDbEntity
  8
IMPORT_IGES
100
AcDbLine
 62
7
  6
CONTINUOUS
 10
-111.7127712583
 20
15.9913664276
 11
-111.7127712583
 21
15.9814333902
  0
LINE
  5
31C
100
AcDbEntity
  8
IMPORT_IGES
100
AcDbLine
 62
7
  6
CONTINUOUS
 10
-111.382860498
 20
-1.9654919165
 11
-111.382860498
 21
-0.4555276458
  0
LINE
  5
31D
100
AcDbEntity
  8
IMPORT_IGES
100
AcDbLine
 62
7
  6
CONTINUOUS
 10
-111.382860498
 20
2.593806092
 11
-111.382860498
 21
9.593806092
  0
LINE
  5
31E
100
AcDbEntity
  8
IMPORT_IGES
100
AcDbLine
 62
7
  6
CONTINUOUS
 10
-111.382860498
 20
12.6431398298
 11
-111.382860498
 21
14.1531041006
  0
LINE
  5
31F
100
AcDbEntity
  8
IMPORT_IGES
100
AcDbLine
 62
7
  6
CONTINUOUS
 10
-111.244068213
 20
-50.1448535321
 11
-111.244068213
 21
49.1324657162
  0
LINE
  5
320
100
AcDbEntity
  8
IMPORT_IGES
100
AcDbLine
 62
253
  6
CONTINUOUS
 10
-110.7353420098
 20
10.4269646116
 11
-110.7353420098
 21
1.7606475725
  0
LINE
  5
321
100
AcDbEntity
  8
IMPORT_IGES
100
AcDbLine
 62
253
  6
CONTINUOUS
 10
-110.7266184647
 20
47.4527446313
 11
-110.7266184647
 21
37.4888841181
  0
LINE
  5
322
100
AcDbEntity
  8
IMPORT_IGES
100
AcDbLine
 62
253
  6
CONTINUOUS
 10
-110.7266184647
 20
-8.8655511871
 11
-110.7266184647
 21
-21.8294117004
  0
LINE
  5
323
100
AcDbEntity
  8
IMPORT_IGES
100
AcDbLine
 62
253
  6
CONTINUOUS
 10
-110.7266184647
 20
-36.0472553687
 11
-110.7266184647
 21
-51.0111158819
  0
LWPOLYLINE
  5
324
100
AcDbEntity
  8
0
100
AcDbPolyline
 62
253
  6
CONTINUOUS
 90
16
 70
0
 10
-111.244068213
 20
49.1324657162
 10
-111.2464039609
 20
49.1799647793
 10
-111.2534004064
 20
49.2271968924
 10
-111.2650359497
 20
49.2741620555
 10
-111.2812896802
 20
49.3209455805
 10
-111.3021218259
 20
49.3674621554
 10
-111.3274545296
 20
49.4134558448
 10
-111.3572117728
 20
49.4589128662
 10
-111.3913272096
 20
49.5038470021
 10
-111.4297053176
 20
49.5480436642
 10
-111.4722485279
 20
49.5914880851
 10
-111.5188671448
 20
49.6341950321
 10
-111.5694650309
 20
49.6759942198
 10
-111.6239390727
 20
49.7168288863
 10
-111.6821781839
 20
49.7567557933
 10
-111.744068213
 20
49.795774941
  0
LINE
  5
325
100
AcDbEntity
  8
IMPORT_IGES
100
AcDbLine
 62
7
  6
CONTINUOUS
 10
-110.244068213
 20
46.9530492178
 11
-110.244068213
 21
37.9885795316
  0
LINE
  5
326
100
AcDbEntity
  8
IMPORT_IGES
100
AcDbLine
 62
7
  6
CONTINUOUS
 10
-110.244068213
 20
9.9270386473
 11
-110.244068213
 21
2.2605735368
  0
LINE
  5
327
100
AcDbEntity
  8
IMPORT_IGES
100
AcDbLine
 62
7
  6
CONTINUOUS
 10
-110.244068213
 20
-50.5114204684
 11
-110.244068213
 21
-36.5469507822
  0
LINE
  5
328
100
AcDbEntity
  8
IMPORT_IGES
100
AcDbLine
 62
7
  6
CONTINUOUS
 10
-110.244068213
 20
-21.3296777533
 11
-110.244068213
 21
-9.3652851342
  0
LINE
  5
329
100
AcDbEntity
  8
IMPORT_IGES
100
AcDbLine
 62
7
  6
CONTINUOUS
 10
-111.7127330909
 20
34.6061775833
 11
-111.719316613
 21
34.6063860189
  0
LINE
  5
32A
100
AcDbEntity
  8
IMPORT_IGES
100
AcDbLine
 62
7
  6
CONTINUOUS
 10
-111.7193166129
 20
34.6063860189
 11
-111.7127712583
 21
34.5962457565
  0
LINE
  5
32B
100
AcDbEntity
  8
IMPORT_IGES
100
AcDbLine
 62
7
  6
CONTINUOUS
 10
-111.244068213
 20
37.4708143747
 11
-110.7266184647
 21
37.4888841181
  0
LINE
  5
32C
100
AcDbEntity
  8
IMPORT_IGES
100
AcDbLine
 62
7
  6
CONTINUOUS
 10
-110.7266184647
 20
39.0348675527
 11
-111.244068213
 21
39.0167978093
  0
LINE
  5
32D
100
AcDbEntity
  8
RACCORDO
100
AcDbLine
 62
7
  6
CONTINUOUS
 10
-145.4974372495
 20
44.9634065409
 11
-144.9286934485
 21
45.1237374046
  0
LINE
  5
32E
100
AcDbEntity
  8
RACCORDO
100
AcDbLine
 62
7
  6
CONTINUOUS
 10
-144.9286934485
 20
45.1237374046
 11
-144.1664798589
 21
45.3353660236
  0
LINE
  5
32F
100
AcDbEntity
  8
RACCORDO
100
AcDbLine
 62
7
  6
CONTINUOUS
 10
-144.1664798589
 20
45.3353660236
 11
-143.7693680468
 21
45.4444454155
  0
LINE
  5
330
100
AcDbEntity
  8
RACCORDO
100
AcDbLine
 62
7
  6
CONTINUOUS
 10
-145.5592390233
 20
49.4641562736
 11
-146.4044095731
 21
49.4165176633
  0
LINE
  5
331
100
AcDbEntity
  8
RACCORDO
100
AcDbLine
 62
253
  6
CONTINUOUS
 10
-145.5434030018
 20
49.7265694102
 11
-111.744068213
 21
51.4979174878
  0
LINE
  5
332
100
AcDbEntity
  8
RACCORDO
100
AcDbLine
 62
253
  6
CONTINUOUS
 10
-151.1563205699
 20
49.7601394254
 11
-148.3688138303
 21
49.9062264791
  0
LINE
  5
333
100
AcDbEntity
  8
RACCORDO
100
AcDbLine
 62
253
  6
CONTINUOUS
 10
-151.4272781913
 20
49.7459466761
 11
-151.271668754
 21
49.754021649
  0
LINE
  5
334
100
AcDbEntity
  8
IMPORT_IGES
100
AcDbLine
 62
7
  6
CONTINUOUS
 10
-110.7266184647
 20
45.998728066
 11
-111.244068213
 21
46.0167978093
  0
LINE
  5
335
100
AcDbEntity
  8
IMPORT_IGES
100
AcDbLine
 62
7
  6
CONTINUOUS
 10
-110.7266184647
 20
47.4527446313
 11
-111.244068213
 21
47.4708143747
  0
LWPOLYLINE
  5
336
100
AcDbEntity
  8
RACCORDO
100
AcDbPolyline
 62
253
  6
CONTINUOUS
 90
4
 70
0
 10
-148.3001365795
 20
49.9007289459
 10
-148.3297604986
 20
49.9026296701
 10
-148.3526737795
 20
49.9043806462
 10
-148.3688138303
 20
49.9062264791
  0
LINE
  5
337
100
AcDbEntity
  8
RACCORDO
100
AcDbLine
 62
253
  6
CONTINUOUS
 10
-145.5434030018
 20
49.7265694102
 11
-147.5638517544
 21
49.8517009253
  0
LINE
  5
338
100
AcDbEntity
  8
RACCORDO
100
AcDbLine
 62
253
  6
CONTINUOUS
 10
-147.5638517544
 20
49.8517009253
 11
-148.2212455596
 21
49.8949852183
  0
LINE
  5
339
100
AcDbEntity
  8
RACCORDO
100
AcDbLine
 62
253
  6
CONTINUOUS
 10
-148.2212455596
 20
49.8949852183
 11
-148.3001365795
 21
49.9007289459
  0
LWPOLYLINE
  5
33A
100
AcDbEntity
  8
0
100
AcDbPolyline
 62
253
  6
CONTINUOUS
 90
16
 70
0
 10
-111.744068213
 20
-50.8081627556
 10
-111.6821780523
 20
-50.7691435166
 10
-111.6239388124
 20
-50.7292165053
 10
-111.5694646484
 20
-50.6883817218
 10
-111.5188666313
 20
-50.6465823867
 10
-111.4722479005
 20
-50.6038752793
 10
-111.4297046438
 20
-50.5604307377
 10
-111.391326555
 20
-50.5162340046
 10
-111.3572111802
 20
-50.4712998372
 10
-111.3274540406
 20
-50.4258428454
 10
-111.3021214805
 20
-50.3798492795
 10
-111.2812894781
 20
-50.3333328891
 10
-111.2650358491
 20
-50.2865495333
 10
-111.2534003649
 20
-50.2395844984
 10
-111.2464039514
 20
-50.192352498
 10
-111.244068213
 20
-50.1448535321
  0
LWPOLYLINE
  5
33B
100
AcDbEntity
  8
RACCORDO
100
AcDbPolyline
 62
253
  6
CONTINUOUS
 90
31
 70
0
 10
-145.5434030018
 20
52.7224580145
 10
-145.688641198
 20
52.7112741729
 10
-145.8323896133
 20
52.6931125875
 10
-145.9747686708
 20
52.6680420794
 10
-146.1161712164
 20
52.6359814126
 10
-146.2563535152
 20
52.5969144759
 10
-146.3943277164
 20
52.5510999971
 10
-146.5297184444
 20
52.4986821337
 10
-146.6626044675
 20
52.4396216231
 10
-146.7924745524
 20
52.3741519772
 10
-146.9189162225
 20
52.3024768287
 10
-147.0417745458
 20
52.2246716931
 10
-147.1607876337
 20
52.1409294219
 10
-147.2755457167
 20
52.0515192725
 10
-147.3857883142
 20
51.9566275921
 10
-147.4913952634
 20
51.8564052058
 10
-147.5920015376
 20
51.751167166
 10
-147.6873156404
 20
51.6411935653
 10
-147.7772775039
 20
51.5266195652
 10
-147.8615776753
 20
51.4077977062
 10
-147.9399478276
 20
51.2850731122
 10
-148.0123554103
 20
51.1585825693
 10
-148.0785511701
 20
51.0287074364
 10
-148.1383154899
 20
50.8958354399
 10
-148.1916330996
 20
50.7601146929
 10
-148.2383158207
 20
50.62194901
 10
-148.2782039323
 20
50.4817518562
 10
-148.3113003335
 20
50.3396837766
 10
-148.3375151465
 20
50.1960785605
 10
-148.3567068498
 20
50.0514491676
 10
-148.3688138303
 20
49.9062264791
  0
LINE
  5
33C
100
AcDbEntity
  8
RACCORDO
100
AcDbLine
 62
253
  6
CONTINUOUS
 10
-151.271668754
 20
49.754021649
 11
-151.1563205699
 21
49.7601394254
  0
LINE
  5
33D
100
AcDbEntity
  8
RACCORDO
100
AcDbLine
 62
7
  6
CONTINUOUS
 10
-148.5899572553
 20
52.5627948716
 11
-111.744068213
 21
54.493806092
  0
ARC
  5
33E
100
AcDbEntity
  8
RACCORDO
100
AcDbCircle
 62
7
  6
CONTINUOUS
 10
-296.6310865415
 20
389.903806092
 40
500.0
100
AcDbArc
 50
297.4691292536
 51
317.080153064
  0
ARC
  5
33F
100
AcDbEntity
  8
0
100
AcDbCircle
 62
7
  6
CONTINUOUS
 10
597.2357783907
 20
-6.004347081
 40
750.0
100
AcDbArc
 50
179.5799682752
 51
180.5410989174
  0
ARC
  5
340
100
AcDbEntity
  8
0
100
AcDbCircle
 62
7
  6
CONTINUOUS
 10
597.2357783907
 20
4.9919592651
 40
750.0
100
AcDbArc
 50
176.5790174245
 51
180.4200317248
  0
ARC
  5
341
100
AcDbEntity
  8
0
100
AcDbCircle
 62
7
  6
CONTINUOUS
 10
597.2357783907
 20
-6.004347081
 40
748.0
100
AcDbArc
 50
180.7304758012
 51
183.4382929314
  0
ARC
  5
342
100
AcDbEntity
  8
RACCORDO
100
AcDbCircle
 62
7
  6
CONTINUOUS
 10
-148.4330987543
 20
49.5668984393
 40
3.0
100
AcDbArc
 50
93.0
 51
176.5790174193
  0
ARC
  5
343
100
AcDbEntity
  8
RACCORDO
100
AcDbCircle
 62
7
  6
CONTINUOUS
 10
-146.4231979851
 20
-50.6846206911
 40
3.0
100
AcDbArc
 50
183.4382929315
 51
267.0
  0
ARC
  5
344
100
AcDbEntity
  8
0
100
AcDbCircle
 62
7
  6
CONTINUOUS
 10
-114.244068213
 20
49.1324657162
 40
3.0
100
AcDbArc
 50
0.0
 51
33.5573097619
  0
ARC
  5
345
100
AcDbEntity
  8
0
100
AcDbCircle
 62
7
  6
CONTINUOUS
 10
-114.244068213
 20
-50.1448535321
 40
3.0
100
AcDbArc
 50
326.4426902381
 51
360.0
  0
ARC
  5
346
100
AcDbEntity
  8
IMPORT_IGES
100
AcDbCircle
 62
7
  6
CONTINUOUS
 10
-110.744068213
 20
45.4990326525
 40
0.5
100
AcDbArc
 50
0.0
 51
88.0
  0
ARC
  5
347
100
AcDbEntity
  8
IMPORT_IGES
100
AcDbCircle
 62
7
  6
CONTINUOUS
 10
-110.744068213
 20
39.5345629662
 40
0.5
100
AcDbArc
 50
272.0
 51
360.0
  0
ARC
  5
348
100
AcDbEntity
  8
IMPORT_IGES
100
AcDbCircle
 62
7
  6
CONTINUOUS
 10
-110.744068213
 20
-9.3652466007
 40
0.5
100
AcDbArc
 50
0.0
 51
88.0
  0
ARC
  5
349
100
AcDbEntity
  8
IMPORT_IGES
100
AcDbCircle
 62
7
  6
CONTINUOUS
 10
-110.744068213
 20
-21.3297162869
 40
0.5
100
AcDbArc
 50
272.0
 51
360.0
  0
ARC
  5
34A
100
AcDbEntity
  8
IMPORT_IGES
100
AcDbCircle
 62
7
  6
CONTINUOUS
 10
-110.744068213
 20
-36.5469507822
 40
0.5
100
AcDbArc
 50
0.0
 51
88.0
  0
ARC
  5
34B
100
AcDbEntity
  8
IMPORT_IGES
100
AcDbCircle
 62
7
  6
CONTINUOUS
 10
-110.744068213
 20
-50.5114204684
 40
0.5
100
AcDbArc
 50
272.0
 51
360.0
  0
ARC
  5
34C
100
AcDbEntity
  8
IMPORT_IGES
100
AcDbCircle
 62
7
  6
CONTINUOUS
 10
-110.744068213
 20
2.2605714201
 40
0.5
100
AcDbArc
 50
271.0
 51
360.0
  0
ARC
  5
34D
100
AcDbEntity
  8
IMPORT_IGES
100
AcDbCircle
 62
7
  6
CONTINUOUS
 10
-110.744068213
 20
9.927040764
 40
0.5
100
AcDbArc
 50
0.0
 51
89.0
  0
ARC
  5
34E
100
AcDbEntity
  8
IMPORT_IGES
100
AcDbCircle
 62
7
  6
CONTINUOUS
 10
-110.744068213
 20
37.9885795316
 40
0.5
100
AcDbArc
 50
272.0
 51
360.0
  0
ARC
  5
34F
100
AcDbEntity
  8
IMPORT_IGES
100
AcDbCircle
 62
7
  6
CONTINUOUS
 10
-110.744068213
 20
46.9530492178
 40
0.5
100
AcDbArc
 50
0.0
 51
88.0
  0
ELLIPSE
  5
350
100
AcDbEntity
  8
RACCORDO
100
AcDbEllipse
 62
7
  6
CONTINUOUS
 10
-69.6569695035
 20
-52.50207687
 30
0.0
 11
2.1271387303
 21
2.1271387303
 31
0.0
 40
0.9972646886
 41
-3.9256212891
 42
-2.3575640181
  0
ELLIPSE
  5
351
100
AcDbEntity
  8
RACCORDO
100
AcDbEllipse
 62
7
  6
CONTINUOUS
 10
-69.6569695035
 20
51.489689054
 30
0.0
 11
2.1271387303
 21
-2.1271387303
 31
0.0
 40
0.9972646886
 41
2.3575640181
 42
3.9256212891
  0
ELLIPSE
  5
352
100
AcDbEntity
  8
RACCORDO
100
AcDbEllipse
 62
7
  6
CONTINUOUS
 10
68.3347964205
 20
51.489689054
 30
0.0
 11
2.1271387303
 21
2.1271387303
 31
0.0
 40
0.9972646886
 41
-0.7840286355
 42
0.7840286355
  0
ELLIPSE
  5
353
100
AcDbEntity
  8
RACCORDO
100
AcDbEllipse
 62
7
  6
CONTINUOUS
 10
68.3347964205
 20
-52.50207687
 30
0.0
 11
2.1271387303
 21
-2.1271387303
 31
0.0
 40
0.9972646886
 41
-0.7840286355
 42
0.7840286355
  0
ENDSEC
  0
SECTION
  2
OBJECTS
  0
DICTIONARY
  5
C
100
AcDbDictionary
280
0
281
1
  3
ACAD_GROUP
350
D
  3
ACAD_MLINESTYLE
350
17
  3
ACAD_LAYOUT
350
1A
  3
ACAD_PLOTSETTINGS
350
19
  3
ACAD_PLOTSTYLENAME
350
E
  0
DICTIONARY
  5
D
102
{ACAD_REACTORS
330
C
102
}
100
AcDbDictionary
280
0
281
1
  0
ACDBDICTIONARYWDFLT
  5
E
102
{ACAD_REACTORS
330
C
102
}
100
AcDbDictionary
281
1
  3
Normal
350
F
100
AcDbDictionaryWithDefault
340
F
  0
DICTIONARY
  5
17
102
{ACAD_REACTORS
330
C
102
}
100
AcDbDictionary
280
0
281
1
  3
Standard
350
18
  0
DICTIONARY
  5
19
102
{ACAD_REACTORS
330
C
102
}
100
AcDbDictionary
281
1
  0
DICTIONARY
  5
1A
102
{ACAD_REACTORS
330
C
102
}
100
AcDbDictionary
281
1
  3
Model
350
354
  3
Layout1
350
355
  0
ACDBPLACEHOLDER
  5
F
102
{ACAD_REACTORS
330
E
102
}
  0
MLINESTYLE
  5
18
102
{ACAD_REACTORS
330
17
102
}
100
AcDbMlineStyle
  2
STANDARD
 70
0
  3

 62
256
 51
90.0
 52
90.0
 71
2
 49
0.5
 62
256
  6
BYLAYER
 49
-0.5
 62
256
  6
BYLAYER
  0
LAYOUT
  5
354
102
{ACAD_REACTORS
330
1A
102
}
100
AcDbPlotSettings
  1

  2
none_device
  4
ISO_A4_(297.00_x_210.00_MM)
  6

 40
0.0
 41
0.0
 42
0.0
 43
0.0
 44
297.0
 45
210.0
 46
0.0
 47
0.0
 48
0.0
 49
0.0
140
0.0
141
0.0
142
1.0
143
1.0
 70
1024
 72
1
 73
0
 74
0
  7

 75
0
147
1.0
148
0.0
149
0.0
100
AcDbLayout
  1
Model
 70
0
 71
0
 10
0.0
 20
0.0
 11
297.0
 21
210.0
 12
0.0
 22
0.0
 32
0.0
 14
0.0
 24
0.0
 34
0.0
 15
0.0
 25
0.0
 35
0.0
146
0.0
 13
0.0
 23
0.0
 33
0.0
 16
1.0
 26
0.0
 36
0.0
 17
0.0
 27
1.0
 37
0.0
 76
0
330
20F
345
0
346
0
  0
LAYOUT
  5
355
102
{ACAD_REACTORS
330
1A
102
}
100
AcDbPlotSettings
  1

  2
none_device
  4
ISO_A4_(297.00_x_210.00_MM)
  6

 40
0.0
 41
0.0
 42
0.0
 43
0.0
 44
297.0
 45
210.0
 46
0.0
 47
0.0
 48
0.0
 49
0.0
140
0.0
141
0.0
142
1.0
143
1.0
 70
0
 72
1
 73
0
 74
0
  7

 75
0
147
1.0
148
0.0
149
0.0
100
AcDbLayout
  1
Layout1
 70
0
 71
1
 10
0.0
 20
0.0
 11
297.0
 21
210.0
 12
0.0
 22
0.0
 32
0.0
 14
0.0
 24
0.0
 34
0.0
 15
0.0
 25
0.0
 35
0.0
146
0.0
 13
0.0
 23
0.0
 33
0.0
 16
1.0
 26
0.0
 36
0.0
 17
0.0
 27
1.0
 37
0.0
 76
0
330
210
345
0
346
0
  0
ENDSEC
  0
EOF
