  0
SECTION
  2
HEADER
  9
$ACADVER
  1
AC1021
  9
$DWGCODEPAGE
  3
ANSI_1252
  9
$EXTMAX
 10
297.0
 20
210.0
 30
0.0
  9
$EXTMIN
 10
0.0
 20
0.0
 30
0.0
  9
$LIMMIN
 10
0.0
 20
0.0
  9
$LIMMAX
 10
297.0
 20
210.0
  9
$VIEWCTR
 10
148.5
 20
105.0
  9
$VIEWSIZE
 40
210.0
  9
$CLAYER
  8
0
  9
$LTSCALE
 40
16.335
  9
$CELTYPE
  6
BYLAYER
  9
$DIMSCALE
 40
1.0
  9
$DIMASZ
 40
3.0
  9
$DIMEXO
 40
0.5
  9
$DIMDLI
 40
11.286
  9
$DIMEXE
 40
1.5
  9
$DIMCEN
 40
2.673
  9
$DIMLFAC
 40
1.0
  9
$DIMBLK
  1
_FILLED
  9
$DIMALT
 70
0
  9
$DIMALTF
 40
0.0393700787
  9
$DIMTXT
 40
3.0
  9
$DIMTOL
 70
1
  9
$DIMLIM
 70
0
  9
$DIMTFAC
 40
1.0
  9
$DIMTP
 40
0.01
  9
$DIMTM
 40
0.01
  9
$DIMGAP
 40
0.625
  9
$DIMDSEP
 70
44
  9
$AUNITS
 70
0
  9
$PDMODE
 70
3
  9
$PDSIZE
 40
3.0
  9
$HANDSEED
  5
4C6
  9
$TILEMODE
 70
1
  9
$MEASUREMENT
 70
1
  9
$INSUNITS
 70
4
  0
ENDSEC
  0
SECTION
  2
CLASSES
  0
CLASS
  1
ACDBDICTIONARYWDFLT
  2
AcDbDictionaryWithDefault
  3
AutoCAD 2000
 90
0
 91
1
280
0
281
0
  0
CLASS
  1
ACDBPLACEHOLDER
  2
AcDbPlaceHolder
  3
AutoCAD 2000
 90
0
 91
1
280
0
281
0
  0
CLASS
  1
LAYOUT
  2
AcDbLayout
  3
AutoCAD 2000
 90
0
 91
0
280
0
281
0
  0
ENDSEC
  0
SECTION
  2
TABLES
  0
TABLE
  2
VPORT
  5
8
100
AcDbSymbolTable
 70
2
  0
VPORT
  5
1F4
100
AcDbSymbolTableRecord
100
AcDbViewportTableRecord
  2
*ACTIVE
 70
0
 10
0.0
 20
0.0
 11
1.0
 21
1.0
 12
148.5
 22
105.0
 13
0.0
 23
0.0
 14
1.0
 24
1.0
 15
0.0
 25
0.0
 16
0.0
 26
0.0
 36
1.0
 17
0.0
 27
0.0
 37
0.0
 40
210.0
 41
1.4142857143
 42
50.0
 43
0.0
 44
0.0
 50
0.0
 51
0.0
 71
0
 72
100
 73
1
 74
1
 75
0
 76
0
 77
0
 78
0
  0
ENDTAB
  0
TABLE
  2
LTYPE
  5
5
100
AcDbSymbolTable
 70
6
  0
LTYPE
  5
14
100
AcDbSymbolTableRecord
100
AcDbLinetypeTableRecord
  2
BYBLOCK
 70
0
  3

 72
65
 73
0
 40
0.0
  0
LTYPE
  5
15
100
AcDbSymbolTableRecord
100
AcDbLinetypeTableRecord
  2
BYLAYER
 70
0
  3

 72
65
 73
0
 40
0.0
  0
LTYPE
  5
16
100
AcDbSymbolTableRecord
100
AcDbLinetypeTableRecord
  2
CONTINUOUS
 70
64
  3
Solid line
 72
65
 73
0
 40
0.0
  0
LTYPE
  5
1F5
100
AcDbSymbolTableRecord
100
AcDbLinetypeTableRecord
  2
CENTER
 70
64
  3
____ _ ____ _ ____ _ ____ _ ____ _ ____ _ ____
 72
65
 73
4
 40
0.6
 49
0.375
 74
0
 49
-0.075
 74
0
 49
0.075
 74
0
 49
-0.075
 74
0
  0
LTYPE
  5
1F6
100
AcDbSymbolTableRecord
100
AcDbLinetypeTableRecord
  2
HIDDEN
 70
64
  3
- - - - - - - - - - - - - - - - - - - -
 72
65
 73
2
 40
0.2
 49
0.1
 74
0
 49
-0.1
 74
0
  0
LTYPE
  5
1F7
100
AcDbSymbolTableRecord
100
AcDbLinetypeTableRecord
  2
PHANTOM
 70
64
  3
_____ _ _ _____ _ _ _____ _ _ _____
 72
65
 73
6
 40
0.8
 49
0.45
 74
0
 49
-0.05
 74
0
 49
0.1
 74
0
 49
-0.05
 74
0
 49
0.1
 74
0
 49
-0.05
 74
0
  0
LTYPE
  5
1F8
100
AcDbSymbolTableRecord
100
AcDbLinetypeTableRecord
  2
DOT
 70
64
  3
. . . . . . . . . . . . . . . . . . . .
 72
65
 73
2
 40
0.2
 49
0.1
 74
0
 49
-0.1
 74
0
  0
LTYPE
  5
1F9
100
AcDbSymbolTableRecord
100
AcDbLinetypeTableRecord
  2
DASHED
 70
64
  3
- - - - - - - - - - - - - - - - - - - -
 72
65
 73
2
 40
0.2
 49
0.1
 74
0
 49
-0.1
 74
0
  0
ENDTAB
  0
TABLE
  2
LAYER
  5
2
100
AcDbSymbolTable
 70
36
  0
LAYER
  5
10
100
AcDbSymbolTableRecord
100
AcDbLayerTableRecord
  2
0
 70
0
 62
7
  6
CONTINUOUS
370
-3
390
F
  0
LAYER
  5
1FA
100
AcDbSymbolTableRecord
100
AcDbLayerTableRecord
  2
DEFAULT_1
 70
0
 62
7
  6
CENTER
370
-3
390
F
  0
LAYER
  5
1FB
100
AcDbSymbolTableRecord
100
AcDbLayerTableRecord
  2
DEFAULT_2
 70
0
 62
7
  6
HIDDEN
370
-3
390
F
  0
LAYER
  5
1FC
100
AcDbSymbolTableRecord
100
AcDbLayerTableRecord
  2
DEFAULT_3
 70
0
 62
7
  6
PHANTOM
370
-3
390
F
  0
LAYER
  5
1FD
100
AcDbSymbolTableRecord
100
AcDbLayerTableRecord
  2
ASSI
 70
0
 62
7
  6
CONTINUOUS
370
-3
390
F
  0
LAYER
  5
1FE
100
AcDbSymbolTableRecord
100
AcDbLayerTableRecord
  2
COORDINATE
 70
0
 62
7
  6
CONTINUOUS
370
-3
390
F
  0
LAYER
  5
1FF
100
AcDbSymbolTableRecord
100
AcDbLayerTableRecord
  2
COPY_PUBLISH
 70
0
 62
7
  6
CONTINUOUS
370
-3
390
F
  0
LAYER
  5
200
100
AcDbSymbolTableRecord
100
AcDbLayerTableRecord
  2
COSMETIC
 70
0
 62
7
  6
CONTINUOUS
370
-3
390
F
  0
LAYER
  5
201
100
AcDbSymbolTableRecord
100
AcDbLayerTableRecord
  2
COSMETICI
 70
0
 62
7
  6
CONTINUOUS
370
-3
390
F
  0
LAYER
  5
202
100
AcDbSymbolTableRecord
100
AcDbLayerTableRecord
  2
CURVE
 70
0
 62
7
  6
CONTINUOUS
370
-3
390
F
  0
LAYER
  5
203
100
AcDbSymbolTableRecord
100
AcDbLayerTableRecord
  2
DRAFT
 70
0
 62
7
  6
CONTINUOUS
370
-3
390
F
  0
LAYER
  5
204
100
AcDbSymbolTableRecord
100
AcDbLayerTableRecord
  2
IGES
 70
0
 62
7
  6
CONTINUOUS
370
-3
390
F
  0
LAYER
  5
205
100
AcDbSymbolTableRecord
100
AcDbLayerTableRecord
  2
IMPORT_IGES
 70
0
 62
7
  6
CONTINUOUS
370
-3
390
F
  0
LAYER
  5
206
100
AcDbSymbolTableRecord
100
AcDbLayerTableRecord
  2
INTF_1
 70
0
 62
7
  6
CONTINUOUS
370
-3
390
F
  0
LAYER
  5
207
100
AcDbSymbolTableRecord
100
AcDbLayerTableRecord
  2
INTF_11
 70
0
 62
7
  6
CONTINUOUS
370
-3
390
F
  0
LAYER
  5
208
100
AcDbSymbolTableRecord
100
AcDbLayerTableRecord
  2
INTF_12
 70
0
 62
7
  6
CONTINUOUS
370
-3
390
F
  0
LAYER
  5
209
100
AcDbSymbolTableRecord
100
AcDbLayerTableRecord
  2
INTF_13
 70
0
 62
7
  6
CONTINUOUS
370
-3
390
F
  0
LAYER
  5
20A
100
AcDbSymbolTableRecord
100
AcDbLayerTableRecord
  2
INTF_2
 70
0
 62
7
  6
CONTINUOUS
370
-3
390
F
  0
LAYER
  5
20B
100
AcDbSymbolTableRecord
100
AcDbLayerTableRecord
  2
INTF_3
 70
0
 62
7
  6
CONTINUOUS
370
-3
390
F
  0
LAYER
  5
20C
100
AcDbSymbolTableRecord
100
AcDbLayerTableRecord
  2
INTF_GREEN
 70
0
 62
7
  6
CONTINUOUS
370
-3
390
F
  0
LAYER
  5
20D
100
AcDbSymbolTableRecord
100
AcDbLayerTableRecord
  2
INTF_RED
 70
0
 62
7
  6
CONTINUOUS
370
-3
390
F
  0
LAYER
  5
20E
100
AcDbSymbolTableRecord
100
AcDbLayerTableRecord
  2
INTF_YELLOW
 70
0
 62
7
  6
CONTINUOUS
370
-3
390
F
  0
LAYER
  5
20F
100
AcDbSymbolTableRecord
100
AcDbLayerTableRecord
  2
MIXEDCOLOR
 70
0
 62
7
  6
CONTINUOUS
370
-3
390
F
  0
LAYER
  5
210
100
AcDbSymbolTableRecord
100
AcDbLayerTableRecord
  2
NOTE
 70
0
 62
7
  6
CONTINUOUS
370
-3
390
F
  0
LAYER
  5
211
100
AcDbSymbolTableRecord
100
AcDbLayerTableRecord
  2
PIANI
 70
0
 62
7
  6
CONTINUOUS
370
-3
390
F
  0
LAYER
  5
212
100
AcDbSymbolTableRecord
100
AcDbLayerTableRecord
  2
PUNTI
 70
0
 62
7
  6
CONTINUOUS
370
-3
390
F
  0
LAYER
  5
213
100
AcDbSymbolTableRecord
100
AcDbLayerTableRecord
  2
RACCORDO
 70
0
 62
7
  6
CONTINUOUS
370
-3
390
F
  0
LAYER
  5
214
100
AcDbSymbolTableRecord
100
AcDbLayerTableRecord
  2
SIMBOLI
 70
0
 62
7
  6
CONTINUOUS
370
-3
390
F
  0
LAYER
  5
215
100
AcDbSymbolTableRecord
100
AcDbLayerTableRecord
  2
SKEL
 70
0
 62
7
  6
CONTINUOUS
370
-3
390
F
  0
LAYER
  5
216
100
AcDbSymbolTableRecord
100
AcDbLayerTableRecord
  2
SMUSSO
 70
0
 62
7
  6
CONTINUOUS
370
-3
390
F
  0
LAYER
  5
217
100
AcDbSymbolTableRecord
100
AcDbLayerTableRecord
  2
SNAPLINE
 70
0
 62
7
  6
CONTINUOUS
370
-3
390
F
  0
LAYER
  5
218
100
AcDbSymbolTableRecord
100
AcDbLayerTableRecord
  2
SUPERFICI
 70
0
 62
7
  6
CONTINUOUS
370
-3
390
F
  0
LAYER
  5
219
100
AcDbSymbolTableRecord
100
AcDbLayerTableRecord
  2
TRASH
 70
0
 62
7
  6
CONTINUOUS
370
-3
390
F
  0
LAYER
  5
21A
100
AcDbSymbolTableRecord
100
AcDbLayerTableRecord
  2
XSEC_DATUMS
 70
0
 62
7
  6
CONTINUOUS
370
-3
390
F
  0
ENDTAB
  0
TABLE
  2
STYLE
  5
3
100
AcDbSymbolTable
 70
1
  0
STYLE
  5
11
100
AcDbSymbolTableRecord
100
AcDbTextStyleTableRecord
  2
STANDARD
 70
0
 40
0.0
 41
0.8
 50
0.0
 71
0
 42
0.2
  3
txt
  4

  0
STYLE
  5
21B
100
AcDbSymbolTableRecord
100
AcDbTextStyleTableRecord
  2
TEXTSTYLE_1
 70
0
 40
0.0
 41
0.8
 50
0.0
 71
0
 42
0.2
  3
gdt
  4

  0
ENDTAB
  0
TABLE
  2
VIEW
  5
6
100
AcDbSymbolTable
 70
0
  0
ENDTAB
  0
TABLE
  2
UCS
  5
7
100
AcDbSymbolTable
 70
0
  0
ENDTAB
  0
TABLE
  2
APPID
  5
9
100
AcDbSymbolTable
 70
1
  0
APPID
  5
21C
100
AcDbSymbolTableRecord
100
AcDbRegAppTableRecord
  2
ACAD
 70
0
  0
ENDTAB
  0
TABLE
  2
BLOCK_RECORD
  5
1
100
AcDbSymbolTable
 70
0
  0
BLOCK_RECORD
  5
21D
100
AcDbSymbolTableRecord
100
AcDbBlockTableRecord
  2
*Model_Space
  0
BLOCK_RECORD
  5
21E
100
AcDbSymbolTableRecord
100
AcDbBlockTableRecord
  2
*Paper_Space
  0
BLOCK_RECORD
  5
21F
100
AcDbSymbolTableRecord
100
AcDbBlockTableRecord
  2
_FILLED
  0
BLOCK_RECORD
  5
220
100
AcDbSymbolTableRecord
100
AcDbBlockTableRecord
  2
*D0
  0
BLOCK_RECORD
  5
221
100
AcDbSymbolTableRecord
100
AcDbBlockTableRecord
  2
*D1
  0
BLOCK_RECORD
  5
222
100
AcDbSymbolTableRecord
100
AcDbBlockTableRecord
  2
*D2
  0
ENDTAB
  0
TABLE
  2
DIMSTYLE
  5
A
100
AcDbSymbolTable
 70
1
100
AcDbDimStyleTable
 71
0
  0
DIMSTYLE
105
223
100
AcDbSymbolTableRecord
100
AcDbDimStyleTableRecord
  2
STANDARD
 70
0
  3

  4

 40
1.0
 41
3.0
 42
0.5
 43
0.38
 44
1.5
 45
0.0
 46
0.0
 47
0.01
 48
0.01
140
3.0
141
0.09
142
0.0
143
25.4
144
1.0
145
0.0
146
1.0
147
0.625
 71
1.0
 72
0.0
 73
0
 74
0
 75
0
 76
0
 77
1
 78
8
170
0
171
2
172
0
173
0
174
0
175
0
176
0
177
0
178
0
270
2
271
2
272
2
273
2
274
2
275
0
280
0
281
0
282
0
283
1
284
8
285
0
286
0
287
3
288
0
340
11
278
44
341
21F
342
21F
343
21F
344
21F
  0
DIMSTYLE
105
224
100
AcDbSymbolTableRecord
100
AcDbDimStyleTableRecord
  2
DIMSTYLE_1
 70
0
  3

  4

 40
1.0
 41
3.0
 42
0.5
 43
0.38
 44
1.5
 45
0.0
 46
0.0
 47
0.0
 48
0.0
140
3.0
141
0.09
142
0.0
143
25.4
144
1.0
145
0.0
146
1.0
147
0.75
 71
0.0
 72
0.0
 73
0
 74
0
 75
0
 76
0
 77
1
 78
8
170
0
171
2
172
0
173
0
174
0
175
0
176
0
177
0
178
0
270
2
271
1
272
1
273
2
274
2
275
0
280
0
281
0
282
0
283
1
284
8
285
0
286
0
287
3
288
0
340
11
278
44
341
21F
342
21F
343
21F
344
21F
  0
ENDTAB
  0
ENDSEC
  0
SECTION
  2
BLOCKS
  0
BLOCK
  5
20
100
AcDbEntity
  8
0
100
AcDbBlockBegin
  2
*Model_Space
 70
0
 10
0.0
 20
0.0
 30
0.0
  3
*Model_Space
  1

  0
ENDBLK
  5
21
100
AcDbEntity
  8
0
100
AcDbBlockEnd
  0
BLOCK
  5
1C
100
AcDbEntity
  8
0
100
AcDbBlockBegin
  2
*Paper_Space
 70
0
 10
0.0
 20
0.0
 30
0.0
  3
*Paper_Space
  1

  0
ENDBLK
  5
1D
100
AcDbEntity
  8
0
100
AcDbBlockEnd
  0
BLOCK
  5
225
100
AcDbEntity
  8
0
100
AcDbBlockBegin
  2
_FILLED
 70
64
 10
0.0
 20
0.0
  3
_FILLED
  1

  0
SOLID
  5
226
100
AcDbEntity
  8
0
  6
BYBLOCK
 62
0
100
AcDbTrace
 10
0.0
 20
0.0
 11
-1.0
 21
0.3166666667
 12
-1.0
 22
-0.3166666667
 13
-1.0
 23
-0.3166666667
  0
ENDBLK
  5
227
100
AcDbEntity
  8
0
  6
BYBLOCK
 62
0
100
AcDbBlockEnd
  0
BLOCK
  5
228
100
AcDbEntity
  8
0
100
AcDbBlockBegin
 62
7
  6
CONTINUOUS
  2
*D0
 70
65
 10
0.0
 20
0.0
  3
*D0
  1

  0
MTEXT
  5
229
100
AcDbEntity
  8
0
100
AcDbMText
 62
7
  6
CONTINUOUS
  7
STANDARD
 71
2
 72
1
 10
0.1497825121
 20
50.1573067332
 30
0.0
 11
1.0
 21
0.0
 31
0.0
 44
0.9
  1
19,8
 40
3.0
 41
12.2142857143
  0
LINE
  5
22A
100
AcDbEntity
  8
0
100
AcDbLine
 62
7
  6
CONTINUOUS
 10
10.0248092816
 20
29.5410205793
 11
10.0248092816
 21
47.9073067332
  0
LINE
  5
22B
100
AcDbEntity
  8
0
100
AcDbLine
 62
7
  6
CONTINUOUS
 10
-9.7252442574
 20
29.5415622772
 11
-9.7252442574
 21
47.9073067332
  0
LINE
  5
22C
100
AcDbEntity
  8
0
100
AcDbLine
 62
7
  6
CONTINUOUS
 10
10.0248092816
 20
46.4073067332
 11
0.1497825121
 21
46.4073067332
  0
LINE
  5
22D
100
AcDbEntity
  8
0
100
AcDbLine
 62
7
  6
CONTINUOUS
 10
-9.7252442574
 20
46.4073067332
 11
0.1497825121
 21
46.4073067332
  0
INSERT
  5
22E
100
AcDbEntity
  8
0
100
AcDbBlockReference
 62
7
  6
CONTINUOUS
  2
_FILLED
 10
10.0248092816
 20
46.4073067332
 41
3.0
 42
3.0
 43
3.0
  0
INSERT
  5
22F
100
AcDbEntity
  8
0
100
AcDbBlockReference
 62
7
  6
CONTINUOUS
  2
_FILLED
 10
-9.7252442574
 20
46.4073067332
 41
3.0
 42
3.0
 43
3.0
 50
180.0
  0
ENDBLK
  5
230
100
AcDbEntity
  8
0
  6
BYBLOCK
 62
0
100
AcDbBlockEnd
  0
BLOCK
  5
231
100
AcDbEntity
  8
0
100
AcDbBlockBegin
 62
7
  6
CONTINUOUS
  2
*D1
 70
65
 10
0.0
 20
0.0
  3
*D1
  1

  0
MTEXT
  5
232
100
AcDbEntity
  8
0
100
AcDbMText
 62
7
  6
CONTINUOUS
  7
STANDARD
 71
2
 72
1
 10
50.4486881954
 20
6.7727376853
 30
0.0
 11
0.0
 21
1.0
 31
0.0
 44
0.9
  1
62,9
 40
3.0
 41
13.1785714286
  0
LINE
  5
233
100
AcDbEntity
  8
0
100
AcDbLine
 62
7
  6
CONTINUOUS
 10
45.3850351697
 20
38.2054198456
 11
55.6986881954
 21
38.2054198456
  0
LINE
  5
234
100
AcDbEntity
  8
0
100
AcDbLine
 62
7
  6
CONTINUOUS
 10
39.3635214091
 20
-24.6599444751
 11
55.6986881954
 21
-24.6599444751
  0
LINE
  5
235
100
AcDbEntity
  8
0
100
AcDbLine
 62
7
  6
CONTINUOUS
 10
54.1986881954
 20
38.2054198456
 11
54.1986881954
 21
6.7727376853
  0
LINE
  5
236
100
AcDbEntity
  8
0
100
AcDbLine
 62
7
  6
CONTINUOUS
 10
54.1986881954
 20
-24.6599444751
 11
54.1986881954
 21
6.7727376853
  0
INSERT
  5
237
100
AcDbEntity
  8
0
100
AcDbBlockReference
 62
7
  6
CONTINUOUS
  2
_FILLED
 10
54.1986881954
 20
38.2054198456
 41
3.0
 42
3.0
 43
3.0
 50
90.0
  0
INSERT
  5
238
100
AcDbEntity
  8
0
100
AcDbBlockReference
 62
7
  6
CONTINUOUS
  2
_FILLED
 10
54.1986881954
 20
-24.6599444751
 41
3.0
 42
3.0
 43
3.0
 50
270.0
  0
ENDBLK
  5
239
100
AcDbEntity
  8
0
  6
BYBLOCK
 62
0
100
AcDbBlockEnd
  0
BLOCK
  5
23A
100
AcDbEntity
  8
0
100
AcDbBlockBegin
 62
7
  6
CONTINUOUS
  2
*D2
 70
65
 10
0.0
 20
0.0
  3
*D2
  1

  0
MTEXT
  5
23B
100
AcDbEntity
  8
0
100
AcDbMText
 62
7
  6
CONTINUOUS
  7
STANDARD
 71
2
 72
1
 10
39.3354904417
 20
50.1573067332
 30
0.0
 11
1.0
 21
0.0
 31
0.0
 44
0.9
  1
13,7
 40
3.0
 41
11.8928571429
  0
LINE
  5
23C
100
AcDbEntity
  8
0
100
AcDbLine
 62
7
  6
CONTINUOUS
 10
32.4722928748
 20
20.0100637357
 11
32.4722928748
 21
47.9073067332
  0
LINE
  5
23D
100
AcDbEntity
  8
0
100
AcDbLine
 62
7
  6
CONTINUOUS
 10
46.1986880087
 20
38.0512165417
 11
46.1986880087
 21
47.9073067332
  0
LINE
  5
23E
100
AcDbEntity
  8
0
100
AcDbLine
 62
7
  6
CONTINUOUS
 10
32.4722928748
 20
46.4073067332
 11
28.4722928748
 21
46.4073067332
  0
LINE
  5
23F
100
AcDbEntity
  8
0
100
AcDbLine
 62
7
  6
CONTINUOUS
 10
28.4722928748
 20
46.4073067332
 11
39.3354904417
 21
46.4073067332
  0
LINE
  5
240
100
AcDbEntity
  8
0
100
AcDbLine
 62
7
  6
CONTINUOUS
 10
46.1986880087
 20
46.4073067332
 11
50.1986880087
 21
46.4073067332
  0
LINE
  5
241
100
AcDbEntity
  8
0
100
AcDbLine
 62
7
  6
CONTINUOUS
 10
50.1986880087
 20
46.4073067332
 11
39.3354904417
 21
46.4073067332
  0
INSERT
  5
242
100
AcDbEntity
  8
0
100
AcDbBlockReference
 62
7
  6
CONTINUOUS
  2
_FILLED
 10
32.4722928748
 20
46.4073067332
 41
3.0
 42
3.0
 43
3.0
  0
INSERT
  5
243
100
AcDbEntity
  8
0
100
AcDbBlockReference
 62
7
  6
CONTINUOUS
  2
_FILLED
 10
46.1986880087
 20
46.4073067332
 41
3.0
 42
3.0
 43
3.0
 50
180.0
  0
ENDBLK
  5
244
100
AcDbEntity
  8
0
  6
BYBLOCK
 62
0
100
AcDbBlockEnd
  0
ENDSEC
  0
SECTION
  2
ENTITIES
  0
DIMENSION
  5
245
100
AcDbEntity
  8
0
100
AcDbDimension
 62
7
  6
CONTINUOUS
  2
*D0
 10
-9.7252442574
 20
46.4073067332
 11
-0.2787888608
 21
46.4073067332
 70
160
 71
2
 42
19.750053539
  3
DIMSTYLE_1
100
AcDbAlignedDimension
 13
10.0248092816
 23
29.0410205793
 14
-9.7252442574
 24
29.0415622772
 50
180.0
100
AcDbRotatedDimension
  0
DIMENSION
  5
246
100
AcDbEntity
  8
0
100
AcDbDimension
 62
7
  6
CONTINUOUS
  2
*D1
 10
54.1986881954
 20
-24.6599444751
 11
54.1986881954
 21
6.3441664529
 70
160
 71
2
 42
62.8653643207
  3
DIMSTYLE_1
100
AcDbAlignedDimension
 13
44.8850351697
 23
38.2054198456
 14
38.8635214091
 24
-24.6599444751
 50
270.0
100
AcDbRotatedDimension
  0
DIMENSION
  5
247
100
AcDbEntity
  8
0
100
AcDbDimension
 62
7
  6
CONTINUOUS
  2
*D2
 10
46.1986880087
 20
46.4073067332
 11
38.9069195595
 21
46.4073067332
 70
160
 71
2
 42
13.7263951339
  3
DIMSTYLE_1
100
AcDbAlignedDimension
 13
32.4722928748
 23
19.5100637357
 14
46.1986880087
 24
37.5512165417
100
AcDbRotatedDimension
  0
LWPOLYLINE
  5
248
100
AcDbEntity
  8
SUPERFICI
100
AcDbPolyline
 62
7
  6
CONTINUOUS
 90
7
 70
0
 10
-1.4021362719
 20
14.0495447514
 10
-1.1472714958
 20
14.1469076721
 10
-0.8903228966
 20
14.2256133136
 10
-0.6317252587
 20
14.2855991876
 10
-0.3719044667
 20
14.3268245699
 10
-0.1112771163
 20
14.3492703441
 10
0.1497498441
 20
14.3529388148
  0
LWPOLYLINE
  5
249
100
AcDbEntity
  8
RACCORDO
100
AcDbPolyline
 62
253
  6
CONTINUOUS
 90
4
 70
0
 10
-9.4979949302
 20
30.3594436876
 10
-9.5804600701
 20
30.015659511
 10
-9.6452474581
 20
29.6827075735
 10
-9.6932181932
 20
29.3582818679
  0
LWPOLYLINE
  5
24A
100
AcDbEntity
  8
SUPERFICI
100
AcDbPolyline
 62
7
  6
CONTINUOUS
 90
7
 70
0
 10
-2.6978589653
 20
13.2135776684
 10
-2.4965782185
 20
13.3901492198
 10
-2.2891713371
 20
13.552275378
 10
-2.0758228022
 20
13.6996162163
 10
-1.8567280755
 20
13.8318327403
 10
-1.6320935143
 20
13.9485874214
 10
-1.4021362719
 20
14.0495447514
  0
LINE
  5
24B
100
AcDbEntity
  8
RACCORDO
100
AcDbLine
 62
253
  6
CONTINUOUS
 10
-9.6932181932
 20
29.3582818679
 11
-9.7251796036
 21
29.0423823941
  0
LWPOLYLINE
  5
24C
100
AcDbEntity
  8
SUPERFICI
100
AcDbPolyline
 62
7
  6
CONTINUOUS
 90
5
 70
0
 10
-2.3214576205
 20
12.2587020355
 10
-2.5708807165
 20
11.9928171372
 10
-2.8103628485
 20
11.6967986275
 10
-3.0355543946
 20
11.3735527296
 10
-3.2456611893
 20
11.023174056
  0
LWPOLYLINE
  5
24D
100
AcDbEntity
  8
SUPERFICI
100
AcDbPolyline
 62
7
  6
CONTINUOUS
 90
5
 70
0
 10
-2.196171251
 20
12.5921863536
 10
-2.5175402709
 20
12.2668602263
 10
-2.8140181857
 20
11.8991589448
 10
-3.0836927155
 20
11.500057197
 10
-3.3251648779
 20
11.0709737205
  0
LINE
  5
24E
100
AcDbEntity
  8
0
100
AcDbLine
 62
7
  6
CONTINUOUS
 10
0.4074157077
 20
7.7889679505
 11
1.5925575541
 21
8.4032851388
  0
LINE
  5
24F
100
AcDbEntity
  8
0
100
AcDbLine
 62
7
  6
CONTINUOUS
 10
0.4768212691
 20
7.1748989338
 11
1.5925645191
 21
7.7532466638
  0
LINE
  5
250
100
AcDbEntity
  8
0
100
AcDbLine
 62
7
  6
CONTINUOUS
 10
-1.2930648309
 20
4.7827756538
 11
1.5925724791
 21
5.7092589588
  0
LINE
  5
251
100
AcDbEntity
  8
0
100
AcDbLine
 62
7
  6
CONTINUOUS
 10
1.0250881591
 20
4.9499396338
 11
1.5925645191
 21
5.1321301038
  0
LINE
  5
252
100
AcDbEntity
  8
0
100
AcDbLine
 62
7
  6
CONTINUOUS
 10
-0.3943400359
 20
4.4941967988
 11
0.4768212691
 21
4.7738952788
  0
LWPOLYLINE
  5
253
100
AcDbEntity
  8
SUPERFICI
100
AcDbPolyline
 62
7
  6
CONTINUOUS
 90
7
 70
0
 10
-1.3080162227
 20
-24.4426395588
 10
-0.7176389392
 20
-24.5839829334
 10
-0.1134912408
 20
-24.6529754619
 10
0.4955295599
 20
-24.6479195763
 10
1.0984579601
 20
-24.5689615518
 10
1.6864184835
 20
-24.4178936145
 10
1.8982719287
 20
-24.3442231931
  0
LINE
  5
254
100
AcDbEntity
  8
SUPERFICI
100
AcDbLine
 62
7
  6
CONTINUOUS
 10
-1.5987718082
 20
-24.3442240698
 11
-1.3080162227
 21
-24.4426395588
  0
LWPOLYLINE
  5
255
100
AcDbEntity
  8
SUPERFICI
100
AcDbPolyline
 62
7
  6
CONTINUOUS
 90
10
 70
0
 10
-1.5987700575
 20
-24.3442262848
 10
-1.6529333315
 20
-24.3202755758
 10
-1.7036807708
 20
-24.2902130796
 10
-1.7505511157
 20
-24.2543504669
 10
-1.7929385936
 20
-24.213177208
 10
-1.8301777133
 20
-24.1672700395
 10
-1.861726803
 20
-24.1172942245
 10
-1.8871561875
 20
-24.0640187199
 10
-1.9061088614
 20
-24.0081368226
 10
-1.9183719642
 20
-23.9501639385
  0
LWPOLYLINE
  5
256
100
AcDbEntity
  8
RACCORDO
100
AcDbPolyline
 62
253
  6
CONTINUOUS
 90
8
 70
0
 10
-9.7447497144
 20
28.5927433831
 10
-9.7447390973
 20
28.4901890728
 10
-9.7431497017
 20
28.3910438419
 10
-9.7401214435
 20
28.2953056875
 10
-9.735784957
 20
28.2029766126
 10
-9.7302614716
 20
28.1135779921
 10
-9.7236621536
 20
28.0270928371
 10
-9.7161084646
 20
27.9435381365
  0
LWPOLYLINE
  5
257
100
AcDbEntity
  8
RACCORDO
100
AcDbPolyline
 62
7
  6
CONTINUOUS
 90
3
 70
0
 10
-9.7625694469
 20
29.1895922394
 10
-9.769052919
 20
28.9265160787
 10
-9.7641970224
 20
28.5670924081
  0
LINE
  5
258
100
AcDbEntity
  8
RACCORDO
100
AcDbLine
 62
7
  6
CONTINUOUS
 10
-9.7626018168
 20
29.188778867
 11
-9.7625694469
 21
29.1895922394
  0
LINE
  5
259
100
AcDbEntity
  8
RACCORDO
100
AcDbLine
 62
7
  6
CONTINUOUS
 10
-9.7390481517
 20
29.5628875739
 11
-9.7626258703
 21
29.1887783186
  0
LWPOLYLINE
  5
25A
100
AcDbEntity
  8
RACCORDO
100
AcDbPolyline
 62
253
  6
CONTINUOUS
 90
5
 70
0
 10
-9.7251796036
 20
29.0423823941
 10
-9.7333774856
 20
28.9240916849
 10
-9.7392531735
 20
28.8096946892
 10
-9.7429877503
 20
28.6991914071
 10
-9.7447497144
 20
28.5927433831
  0
LWPOLYLINE
  5
25B
100
AcDbEntity
  8
SUPERFICI
100
AcDbPolyline
 62
7
  6
CONTINUOUS
 90
7
 70
0
 10
-4.0925978801
 20
11.1547487751
 10
-3.9064838555
 20
11.5581927993
 10
-3.7021849858
 20
11.9393219248
 10
-3.4793822238
 20
12.2968475302
 10
-3.2378269236
 20
12.6293916853
 10
-2.977347987
 20
12.9354871185
 10
-2.6978589653
 20
13.2135776684
  0
LWPOLYLINE
  5
25C
100
AcDbEntity
  8
SUPERFICI
100
AcDbPolyline
 62
7
  6
CONTINUOUS
 90
15
 70
0
 10
-3.3251648779
 20
11.0709737205
 10
-3.5398336554
 20
10.6098037608
 10
-3.7299837148
 20
10.1224872941
 10
-3.8955633436
 20
9.6099708708
 10
-4.0366242543
 20
9.0708749855
 10
-4.1556062525
 20
8.5078141553
 10
-4.2527275262
 20
7.9215424317
 10
-4.3277698873
 20
7.3111106529
 10
-4.3825185776
 20
6.6766701256
 10
-4.4172594379
 20
6.018395346
 10
-4.4317066275
 20
5.3361494044
 10
-4.4267878655
 20
4.6296843755
 10
-4.4028123917
 20
3.8990308764
 10
-4.3594709664
 20
3.1445069539
 10
-4.2967635894
 20
2.3663843276
  0
LWPOLYLINE
  5
25D
100
AcDbEntity
  8
SUPERFICI
100
AcDbPolyline
 62
7
  6
CONTINUOUS
 90
19
 70
0
 10
-3.2456611893
 20
11.023174056
 10
-3.4414773982
 20
10.6450351573
 10
-3.621035896
 20
10.2410135561
 10
-3.7839362317
 20
9.8121942686
 10
-3.9305788564
 20
9.3570329224
 10
-4.0601979978
 20
8.8734791647
 10
-4.1729464436
 20
8.3602625326
 10
-4.2686714062
 20
7.8182180802
 10
-4.346148751
 20
7.2484807605
 10
-4.404786198
 20
6.643634166
 10
-4.4451760273
 20
6.0108330313
 10
-4.4678709433
 20
5.3733985856
 10
-4.4709969183
 20
4.7312247478
 10
-4.4564279801
 20
4.0848783723
 10
-4.4303389171
 20
3.4591346904
 10
-4.3931685297
 20
2.86343145
 10
-4.3444780174
 20
2.2890369042
 10
-4.2891257668
 20
1.7335675891
 10
-4.2278843161
 20
1.1971145129
  0
LINE
  5
25E
100
AcDbEntity
  8
0
100
AcDbLine
 62
7
  6
CONTINUOUS
 10
-1.2930578659
 20
0.9442377888
 11
0.5861677891
 21
1.4830979488
  0
LINE
  5
25F
100
AcDbEntity
  8
0
100
AcDbLine
 62
7
  6
CONTINUOUS
 10
-0.3103073109
 20
0.6489068638
 11
1.5925724791
 21
1.1945409838
  0
LWPOLYLINE
  5
260
100
AcDbEntity
  8
SUPERFICI
100
AcDbPolyline
 62
253
  6
CONTINUOUS
 90
21
 70
0
 10
0.1497497791
 20
-22.4953004653
 10
-0.0343600649
 20
-22.5327076675
 10
-0.2033579184
 20
-22.5904220837
 10
-0.3571417827
 20
-22.6680934946
 10
-0.4932478338
 20
-22.769061762
 10
-0.6141587935
 20
-22.8876852583
 10
-0.7272110679
 20
-23.0102484162
 10
-0.8343136942
 20
-23.1323232462
 10
-0.9336026851
 20
-23.2563421018
 10
-1.0266916976
 20
-23.3796376615
 10
-1.114507638
 20
-23.50041805
 10
-1.196198812
 20
-23.6181569712
 10
-1.2707162203
 20
-23.7321210567
 10
-1.3380515453
 20
-23.8410271593
 10
-1.398344771
 20
-23.9433672774
 10
-1.4507931288
 20
-24.0379387066
 10
-1.4953106304
 20
-24.1231496918
 10
-1.5321154432
 20
-24.1971585911
 10
-1.5608636132
 20
-24.2582714875
 10
-1.5814687884
 20
-24.3046105426
 10
-1.5940978007
 20
-24.3340357064
  0
LINE
  5
261
100
AcDbEntity
  8
RACCORDO
100
AcDbLine
 62
253
  6
CONTINUOUS
 10
-2.290543944
 20
-18.8999108346
 11
-2.2706184235
 21
-18.8972874146
  0
LWPOLYLINE
  5
262
100
AcDbEntity
  8
SUPERFICI
100
AcDbPolyline
 62
253
  6
CONTINUOUS
 90
16
 70
0
 10
0.1497498441
 20
-22.2379161855
 10
0.3861071569
 20
-22.259683982
 10
0.6107942897
 20
-22.3057392766
 10
0.8183105223
 20
-22.3760820693
 10
1.0081947352
 20
-22.4764902014
 10
1.1803966047
 20
-22.6011858316
 10
1.3369211007
 20
-22.732835436
 10
1.4776389357
 20
-22.8692217126
 10
1.603346548
 20
-23.0125619635
 10
1.7196688205
 20
-23.1521745708
 10
1.8248729178
 20
-23.286703497
 10
1.9166940777
 20
-23.4175047797
 10
1.9973872254
 20
-23.537964914
 10
2.0647972792
 20
-23.6488486503
 10
2.1193023336
 20
-23.7493912382
 10
2.1946269148
 20
-23.8897604463
  0
LINE
  5
263
100
AcDbEntity
  8
SUPERFICI
100
AcDbLine
 62
253
  6
CONTINUOUS
 10
2.4816063516
 20
-18.7080513758
 11
2.4486242351
 21
-18.7039007556
  0
LINE
  5
264
100
AcDbEntity
  8
RACCORDO
100
AcDbLine
 62
253
  6
CONTINUOUS
 10
2.5900908875
 20
-18.8999199166
 11
2.5701422098
 21
-18.8972905904
  0
LWPOLYLINE
  5
265
100
AcDbEntity
  8
RACCORDO
100
AcDbPolyline
 62
253
  6
CONTINUOUS
 90
5
 70
0
 10
-9.7092380031
 20
27.8649702365
 10
-9.7076776487
 20
27.862486232
 10
-9.698436494
 20
27.783794571
 10
-9.6884747881
 20
27.707605706
 10
-9.6783426931
 20
27.6370502366
  0
LWPOLYLINE
  5
266
100
AcDbEntity
  8
RACCORDO
100
AcDbPolyline
 62
7
  6
CONTINUOUS
 90
4
 70
0
 10
-9.7641970224
 20
28.5670924081
 10
-9.7440012519
 20
28.2128776346
 10
-9.7092380031
 20
27.8649702365
 10
-9.6783380518
 20
27.637016366
  0
LWPOLYLINE
  5
267
100
AcDbEntity
  8
RACCORDO
100
AcDbPolyline
 62
253
  6
CONTINUOUS
 90
3
 70
0
 10
10.0248127197
 20
29.0410446165
 10
10.0548239223
 20
29.1168042467
 10
10.0621446639
 20
29.1883525575
  0
LINE
  5
268
100
AcDbEntity
  8
0
100
AcDbLine
 62
7
  6
CONTINUOUS
 10
-1.2930578659
 20
-3.3201560962
 11
0.6938546491
 21
-2.6822297562
  0
LINE
  5
269
100
AcDbEntity
  8
0
100
AcDbLine
 62
7
  6
CONTINUOUS
 10
-1.2930578659
 20
-3.8972849512
 11
1.5925794441
 21
-2.9708086112
  0
LINE
  5
26A
100
AcDbEntity
  8
RACCORDO
100
AcDbLine
 62
253
  6
CONTINUOUS
 10
-2.6694095439
 20
-16.063112859
 11
-2.6457898029
 21
-16.0599244007
  0
LINE
  5
26B
100
AcDbEntity
  8
SUPERFICI
100
AcDbLine
 62
253
  6
CONTINUOUS
 10
-2.5389085273
 20
-15.9088959007
 11
-2.5026656377
 21
-15.9041877317
  0
LINE
  5
26C
100
AcDbEntity
  8
SUPERFICI
100
AcDbLine
 62
253
  6
CONTINUOUS
 10
2.8378766187
 20
-15.9087918176
 11
2.8028835141
 21
-15.9042427076
  0
LINE
  5
26D
100
AcDbEntity
  8
RACCORDO
100
AcDbLine
 62
253
  6
CONTINUOUS
 10
2.968837809
 20
-16.0631104763
 11
2.9452483578
 21
-16.0599188372
  0
LINE
  5
26E
100
AcDbEntity
  8
RACCORDO
100
AcDbLine
 62
253
  6
CONTINUOUS
 10
-3.4119242583
 20
-14.0180993506
 11
-3.4124843491
 21
-14.0175121934
  0
LWPOLYLINE
  5
26F
100
AcDbEntity
  8
SUPERFICI
100
AcDbPolyline
 62
253
  6
CONTINUOUS
 90
10
 70
0
 10
1.3261751904
 20
-23.379614852
 10
1.2330699476
 20
-23.2563007752
 10
1.133760583
 20
-23.1322589388
 10
1.0266370077
 20
-23.0101651333
 10
0.9135572094
 20
-22.8875904208
 10
0.7926182485
 20
-22.7689612649
 10
0.6565057628
 20
-22.6679972977
 10
0.5027447312
 20
-22.5903434726
 10
0.3337920015
 20
-22.5326606758
 10
0.1497497791
 20
-22.4953004653
  0
LWPOLYLINE
  5
270
100
AcDbEntity
  8
RACCORDO
100
AcDbPolyline
 62
253
  6
CONTINUOUS
 90
4
 70
0
 10
-3.3962534118
 20
-14.040919517
 10
-3.4068690111
 20
-14.0255197459
 10
-3.410070653
 20
-14.0207685348
 10
-3.4119242583
 20
-14.0180993506
  0
LINE
  5
271
100
AcDbEntity
  8
RACCORDO
100
AcDbLine
 62
253
  6
CONTINUOUS
 10
-3.3886530482
 20
-14.0522655408
 11
-3.3962534118
 21
-14.040919517
  0
LINE
  5
272
100
AcDbEntity
  8
RACCORDO
100
AcDbLine
 62
7
  6
CONTINUOUS
 10
-3.3658738628
 20
-14.138635436
 11
-3.3659227357
 21
-14.1385616808
  0
LWPOLYLINE
  5
273
100
AcDbEntity
  8
SUPERFICI
100
AcDbPolyline
 62
253
  6
CONTINUOUS
 90
5
 70
0
 10
1.6375573593
 20
-23.8410348599
 10
1.5702201814
 20
-23.732126165
 10
1.4956987733
 20
-23.6181561767
 10
1.4140014174
 20
-23.5004078163
 10
1.3261751904
 20
-23.379614852
  0
LINE
  5
274
100
AcDbEntity
  8
RACCORDO
100
AcDbLine
 62
7
  6
CONTINUOUS
 10
-3.3659227357
 20
-14.1385616808
 11
-3.376195248
 21
-14.1218977162
  0
LWPOLYLINE
  5
275
100
AcDbEntity
  8
RACCORDO
100
AcDbPolyline
 62
7
  6
CONTINUOUS
 90
5
 70
0
 10
-3.3761952514
 20
-14.1218977153
 10
-3.3575188163
 20
-14.1533288886
 10
-3.30230633
 20
-14.249766992
 10
-3.2211799452
 20
-14.400298833
 10
-3.1256438364
 20
-14.5917188704
  0
LWPOLYLINE
  5
276
100
AcDbEntity
  8
RACCORDO
100
AcDbPolyline
 62
253
  6
CONTINUOUS
 90
8
 70
0
 10
-3.2659947306
 20
-14.2525090257
 10
-3.2877097188
 20
-14.2150482197
 10
-3.3075636599
 20
-14.1813727212
 10
-3.3255541604
 20
-14.1514802678
 10
-3.3416973344
 20
-14.125373122
 10
-3.3560549752
 20
-14.1024574589
 10
-3.3686309516
 20
-14.0827307895
 10
-3.3886530482
 20
-14.0522655408
  0
LINE
  5
277
100
AcDbEntity
  8
RACCORDO
100
AcDbLine
 62
7
  6
CONTINUOUS
 10
-3.2699412412
 20
-14.2973931688
 11
-3.1710345317
 21
-14.482115575
  0
LINE
  5
278
100
AcDbEntity
  8
RACCORDO
100
AcDbLine
 62
7
  6
CONTINUOUS
 10
-3.1710345317
 20
-14.482115575
 11
-3.0571125151
 21
-14.7210973713
  0
LWPOLYLINE
  5
279
100
AcDbEntity
  8
SUPERFICI
100
AcDbPolyline
 62
253
  6
CONTINUOUS
 90
3
 70
0
 10
2.1946269148
 20
-23.8897604463
 10
2.2130823016
 20
-23.9295870666
 10
2.2178715281
 20
-23.9501647818
  0
LWPOLYLINE
  5
27A
100
AcDbEntity
  8
SUPERFICI
100
AcDbPolyline
 62
253
  6
CONTINUOUS
 90
9
 70
0
 10
1.8982719287
 20
-24.3442231931
 10
1.8935981226
 20
-24.3340350836
 10
1.880969523
 20
-24.3046107686
 10
1.8603649781
 20
-24.2582730399
 10
1.8316179149
 20
-24.197161949
 10
1.7948144576
 20
-24.1231552226
 10
1.7502978384
 20
-24.0379460776
 10
1.6978502483
 20
-23.9433754629
 10
1.6375573593
 20
-23.8410348599
  0
LINE
  5
27B
100
AcDbEntity
  8
RACCORDO
100
AcDbLine
 62
7
  6
CONTINUOUS
 10
-3.1256438364
 20
-14.5917188704
 11
-3.0242389066
 21
-14.8159152574
  0
LWPOLYLINE
  5
27C
100
AcDbEntity
  8
RACCORDO
100
AcDbPolyline
 62
253
  6
CONTINUOUS
 90
9
 70
0
 10
-3.0286250035
 20
-14.7237244826
 10
-3.0638534597
 20
-14.6457701887
 10
-3.0976579569
 20
-14.5737425053
 10
-3.1300278862
 20
-14.5076938474
 10
-3.1607521621
 20
-14.4468120586
 10
-3.1897498586
 20
-14.3910867369
 10
-3.2169950906
 20
-14.3405282843
 10
-3.2424188832
 20
-14.2943557514
 10
-3.2659947306
 20
-14.2525090257
  0
LWPOLYLINE
  5
27D
100
AcDbEntity
  8
RACCORDO
100
AcDbPolyline
 62
7
  6
CONTINUOUS
 90
3
 70
0
 10
-3.0571125151
 20
-14.7210973713
 10
-2.9424420725
 20
-14.9992280793
 10
-2.8372201047
 20
-15.3048863684
  0
LWPOLYLINE
  5
27E
100
AcDbEntity
  8
RACCORDO
100
AcDbPolyline
 62
253
  6
CONTINUOUS
 90
3
 70
0
 10
-2.954859306
 20
-14.8985395478
 10
-2.9921230648
 20
-14.807657802
 10
-3.0286250035
 20
-14.7237244826
  0
LINE
  5
27F
100
AcDbEntity
  8
RACCORDO
100
AcDbLine
 62
7
  6
CONTINUOUS
 10
-3.0242389066
 20
-14.8159152574
 11
-2.923416958
 21
-15.0685040562
  0
LINE
  5
280
100
AcDbEntity
  8
RACCORDO
100
AcDbLine
 62
7
  6
CONTINUOUS
 10
-2.923416958
 20
-15.0685040562
 11
-2.8303427804
 21
-15.3428175589
  0
LWPOLYLINE
  5
281
100
AcDbEntity
  8
SUPERFICI
100
AcDbPolyline
 62
7
  6
CONTINUOUS
 90
7
 70
0
 10
-2.3965136165
 20
-15.0842060034
 10
-2.4732924425
 20
-14.8303469015
 10
-2.5622691019
 20
-14.5822275462
 10
-2.6579072093
 20
-14.3413234991
 10
-2.7583613031
 20
-14.1098274637
 10
-2.8654768451
 20
-13.8905197219
 10
-2.9792538351
 20
-13.6859161875
  0
LINE
  5
282
100
AcDbEntity
  8
SUPERFICI
100
AcDbLine
 62
253
  6
CONTINUOUS
 10
-2.614537746
 20
-15.3366048343
 11
-2.6914180447
 21
-15.0695409178
  0
LWPOLYLINE
  5
283
100
AcDbEntity
  8
RACCORDO
100
AcDbPolyline
 62
253
  6
CONTINUOUS
 90
6
 70
0
 10
-2.7657162245
 20
-15.4628622143
 10
-2.8025693486
 20
-15.3344410309
 10
-2.840203908
 20
-15.2138447446
 10
-2.8782746118
 20
-15.1012102721
 10
-2.9168278211
 20
-14.9964006968
 10
-2.954859306
 20
-14.8985395478
  0
LINE
  5
284
100
AcDbEntity
  8
RACCORDO
100
AcDbLine
 62
7
  6
CONTINUOUS
 10
-2.8303427804
 20
-15.3428175589
 11
-2.7510406551
 21
-15.6313081416
  0
LINE
  5
285
100
AcDbEntity
  8
RACCORDO
100
AcDbLine
 62
7
  6
CONTINUOUS
 10
-2.8372201047
 20
-15.3048863684
 11
-2.7499818867
 21
-15.6269638139
  0
LWPOLYLINE
  5
286
100
AcDbEntity
  8
RACCORDO
100
AcDbPolyline
 62
253
  6
CONTINUOUS
 90
3
 70
0
 10
-2.7001097647
 20
-15.7447316723
 10
-2.7313424035
 20
-15.5995740148
 10
-2.7657162245
 20
-15.4628622143
  0
LINE
  5
287
100
AcDbEntity
  8
RACCORDO
100
AcDbLine
 62
7
  6
CONTINUOUS
 10
-2.7510406551
 20
-15.6313081416
 11
-2.7128968997
 21
-15.8147884999
  0
LWPOLYLINE
  5
288
100
AcDbEntity
  8
RACCORDO
100
AcDbPolyline
 62
7
  6
CONTINUOUS
 90
3
 70
0
 10
-2.7499818867
 20
-15.6269638139
 10
-2.6859094811
 20
-15.9514719351
 10
-2.6694092043
 20
-16.0631127878
  0
LINE
  5
289
100
AcDbEntity
  8
SUPERFICI
100
AcDbLine
 62
7
  6
CONTINUOUS
 10
-1.9183717217
 20
-23.9501655675
 11
-2.2401919485
 21
-21.8107493658
  0
LINE
  5
28A
100
AcDbEntity
  8
RACCORDO
100
AcDbLine
 62
7
  6
CONTINUOUS
 10
-2.2401919485
 20
-21.8107493658
 11
-2.3688609139
 21
-20.9553759428
  0
LINE
  5
28B
100
AcDbEntity
  8
RACCORDO
100
AcDbLine
 62
7
  6
CONTINUOUS
 10
-9.6783426931
 20
27.6370502366
 11
-3.4124843491
 21
-14.0175121934
  0
LINE
  5
28C
100
AcDbEntity
  8
RACCORDO
100
AcDbLine
 62
7
  6
CONTINUOUS
 10
-2.2905440165
 20
-18.8999108441
 11
-2.26370626
 21
-19.1529052631
  0
LWPOLYLINE
  5
28D
100
AcDbEntity
  8
SUPERFICI
100
AcDbPolyline
 62
7
  6
CONTINUOUS
 90
24
 70
0
 10
-4.2967635894
 20
2.3663843276
 10
-4.2361158586
 20
1.7745700018
 10
-4.1698363454
 20
1.199323341
 10
-4.0979250501
 20
0.640848831
 10
-4.0198355271
 20
0.0997288482
 10
-3.9361142219
 20
-0.4243022398
 10
-3.8484004703
 20
-0.9323543012
 10
-3.7569715108
 20
-1.4243344553
 10
-3.6615501049
 20
-1.9001670314
 10
-3.5629438722
 20
-2.3610146307
 10
-3.4613193476
 20
-2.8068294848
 10
-3.3565099963
 20
-3.2375927469
 10
-3.2488238331
 20
-3.6545241324
 10
-3.1384264626
 20
-4.0576412917
 10
-3.0251522803
 20
-4.4469264634
 10
-2.9088124879
 20
-4.8235504732
 10
-2.7896408759
 20
-5.1876305849
 10
-2.6674036537
 20
-5.5390903181
 10
-2.5412106522
 20
-5.8788093591
 10
-2.4110964736
 20
-6.2074252636
 10
-2.2770265155
 20
-6.5243653667
 10
-2.1380068015
 20
-6.8287027073
 10
-1.9943522946
 20
-7.1209187549
 10
-1.8457480316
 20
-7.4006352648
  0
LWPOLYLINE
  5
28E
100
AcDbEntity
  8
SUPERFICI
100
AcDbPolyline
 62
7
  6
CONTINUOUS
 90
3
 70
0
 10
-1.9023934596
 20
-18.6462259005
 10
-1.8803992254
 20
-18.8943081865
 10
-1.8686493233
 20
-19.1436946624
  0
LINE
  5
28F
100
AcDbEntity
  8
SUPERFICI
100
AcDbLine
 62
253
  6
CONTINUOUS
 10
-2.1241971634
 20
-18.9951734952
 11
-2.1488775322
 21
-18.7038981106
  0
LINE
  5
290
100
AcDbEntity
  8
RACCORDO
100
AcDbLine
 62
7
  6
CONTINUOUS
 10
-2.26370626
 20
-19.1529052631
 11
-2.2472114115
 21
-19.481695458
  0
LWPOLYLINE
  5
291
100
AcDbEntity
  8
RACCORDO
100
AcDbPolyline
 62
253
  6
CONTINUOUS
 90
6
 70
0
 10
-2.2294222905
 20
-19.4253352598
 10
-2.2336628412
 20
-19.3159464893
 10
-2.2398360729
 20
-19.2081220941
 10
-2.2479410935
 20
-19.1029461593
 10
-2.2581790428
 20
-18.9993345998
 10
-2.2706184314
 20
-18.8972874157
  0
LINE
  5
292
100
AcDbEntity
  8
SUPERFICI
100
AcDbLine
 62
253
  6
CONTINUOUS
 10
-2.1139369487
 20
-19.2728097954
 11
-2.1241971634
 21
-18.9951734952
  0
LINE
  5
293
100
AcDbEntity
  8
SUPERFICI
100
AcDbLine
 62
7
  6
CONTINUOUS
 10
-1.8686493233
 20
-19.1436946624
 11
-1.8671437533
 21
-19.3924732989
  0
LINE
  5
294
100
AcDbEntity
  8
0
100
AcDbLine
 62
7
  6
CONTINUOUS
 10
-1.2930648309
 20
4.2056249088
 11
-1.2930648309
 21
4.7827756538
  0
LINE
  5
295
100
AcDbEntity
  8
0
100
AcDbLine
 62
7
  6
CONTINUOUS
 10
-1.2930648309
 20
6.0940045638
 11
-1.2930648309
 21
7.4454284888
  0
LINE
  5
296
100
AcDbEntity
  8
0
100
AcDbLine
 62
7
  6
CONTINUOUS
 10
-1.2930578659
 20
-3.8972849512
 11
-1.2930578659
 21
-3.3201560962
  0
LINE
  5
297
100
AcDbEntity
  8
0
100
AcDbLine
 62
7
  6
CONTINUOUS
 10
-1.2930578659
 20
-2.0443103812
 11
-1.2930578659
 21
-1.4671815262
  0
LINE
  5
298
100
AcDbEntity
  8
0
100
AcDbLine
 62
7
  6
CONTINUOUS
 10
-1.2930578659
 20
-1.0824359212
 11
-1.2930578659
 21
-0.5053140312
  0
LINE
  5
299
100
AcDbEntity
  8
0
100
AcDbLine
 62
7
  6
CONTINUOUS
 10
-1.2930578659
 20
0.0717859688
 11
-1.2930578659
 21
0.9442377888
  0
LINE
  5
29A
100
AcDbEntity
  8
0
100
AcDbLine
 62
7
  6
CONTINUOUS
 10
-1.2930578659
 20
2.0219581088
 11
-1.2930578659
 21
2.8944109238
  0
LINE
  5
29B
100
AcDbEntity
  8
0
100
AcDbLine
 62
7
  6
CONTINUOUS
 10
-0.7592264359
 20
6.6631694388
 11
-0.7592264359
 21
7.3653250188
  0
LINE
  5
29C
100
AcDbEntity
  8
0
100
AcDbLine
 62
7
  6
CONTINUOUS
 10
-0.0570250859
 20
6.6631764038
 11
-0.0570250859
 21
7.3653250188
  0
LINE
  5
29D
100
AcDbEntity
  8
SUPERFICI
100
AcDbLine
 62
253
  6
CONTINUOUS
 10
0.1497498441
 20
13.5540550266
 11
0.1497498441
 21
14.3529388148
  0
LINE
  5
29E
100
AcDbEntity
  8
SUPERFICI
100
AcDbLine
 62
253
  6
CONTINUOUS
 10
0.1497498441
 20
-9.1178289072
 11
0.1497497809
 21
-22.4954278255
  0
LINE
  5
29F
100
AcDbEntity
  8
0
100
AcDbLine
 62
7
  6
CONTINUOUS
 10
0.4768143041
 20
6.6711980938
 11
0.4768212691
 21
7.1748989338
  0
LINE
  5
2A0
100
AcDbEntity
  8
0
100
AcDbLine
 62
7
  6
CONTINUOUS
 10
0.4768212691
 20
4.2145122488
 11
0.4768212691
 21
4.7738952788
  0
LWPOLYLINE
  5
2A1
100
AcDbEntity
  8
RACCORDO
100
AcDbPolyline
 62
253
  6
CONTINUOUS
 90
3
 70
0
 10
0.1497498441
 20
13.3319327539
 10
0.1489615282
 20
38.3907657257
 10
0.1490011278
 20
38.3930171248
  0
LINE
  5
2A2
100
AcDbEntity
  8
RACCORDO
100
AcDbLine
 62
7
  6
CONTINUOUS
 10
-2.2472114115
 20
-19.481695458
 11
-2.249690911
 21
-19.8004188742
  0
LWPOLYLINE
  5
2A3
100
AcDbEntity
  8
RACCORDO
100
AcDbPolyline
 62
253
  6
CONTINUOUS
 90
4
 70
0
 10
-2.2294025193
 20
-19.7428793767
 10
-2.2274419867
 20
-19.6388017035
 10
-2.2273272568
 20
-19.5330361502
 10
-2.2294222905
 20
-19.4253352598
  0
LWPOLYLINE
  5
2A4
100
AcDbEntity
  8
SUPERFICI
100
AcDbPolyline
 62
7
  6
CONTINUOUS
 90
3
 70
0
 10
-1.8671437533
 20
-19.3924732989
 10
-1.8773459124
 20
-19.6387426628
 10
-1.8977924037
 20
-19.8802569777
  0
LINE
  5
2A5
100
AcDbEntity
  8
RACCORDO
100
AcDbLine
 62
7
  6
CONTINUOUS
 10
-2.249690911
 20
-19.8004188742
 11
-2.2668170001
 21
-20.0960509444
  0
LWPOLYLINE
  5
2A6
100
AcDbEntity
  8
SUPERFICI
100
AcDbPolyline
 62
253
  6
CONTINUOUS
 90
3
 70
0
 10
-2.1314064725
 20
-19.7848349921
 10
-2.1167794451
 20
-19.5359463034
 10
-2.1139369487
 20
-19.2728097954
  0
LWPOLYLINE
  5
2A7
100
AcDbEntity
  8
RACCORDO
100
AcDbPolyline
 62
253
  6
CONTINUOUS
 90
4
 70
0
 10
-2.2437504686
 20
-20.0289196135
 10
-2.2376790224
 20
-19.9379383317
 10
-2.2328190691
 20
-19.8427592854
 10
-2.2294025193
 20
-19.7428793767
  0
LWPOLYLINE
  5
2A8
100
AcDbEntity
  8
RACCORDO
100
AcDbPolyline
 62
7
  6
CONTINUOUS
 90
5
 70
0
 10
-2.2668170001
 20
-20.0960509444
 10
-2.2923986079
 20
-20.35643656
 10
-2.3200425343
 20
-20.5694030552
 10
-2.3443518293
 20
-20.7277141477
 10
-2.3611390184
 20
-20.8245289423
  0
LWPOLYLINE
  5
2A9
100
AcDbEntity
  8
RACCORDO
100
AcDbPolyline
 62
253
  6
CONTINUOUS
 90
4
 70
0
 10
-2.2653535702
 20
-20.2699881368
 10
-2.2576480534
 20
-20.1949445161
 10
-2.2504263452
 20
-20.1147025406
 10
-2.2437504686
 20
-20.0289196135
  0
LWPOLYLINE
  5
2AA
100
AcDbEntity
  8
SUPERFICI
100
AcDbPolyline
 62
7
  6
CONTINUOUS
 90
3
 70
0
 10
-1.8977924037
 20
-19.8802569777
 10
-1.9240930365
 20
-20.1144850721
 10
-1.9547844139
 20
-20.339118456
  0
LWPOLYLINE
  5
2AB
100
AcDbEntity
  8
RACCORDO
100
AcDbPolyline
 62
253
  6
CONTINUOUS
 90
6
 70
0
 10
-2.3029437444
 20
-20.5689719285
 10
-2.2958253559
 20
-20.518478283
 10
-2.288415382
 20
-20.4635938961
 10
-2.2807311456
 20
-20.4043128268
 10
-2.2730590038
 20
-20.3398606038
 10
-2.2653535702
 20
-20.2699881368
  0
LWPOLYLINE
  5
2AC
100
AcDbEntity
  8
RACCORDO
100
AcDbPolyline
 62
253
  6
CONTINUOUS
 90
3
 70
0
 10
-2.3224047538
 20
-20.6964284426
 10
-2.316295156
 20
-20.6575258207
 10
-2.3029437444
 20
-20.5689719285
  0
LWPOLYLINE
  5
2AD
100
AcDbEntity
  8
RACCORDO
100
AcDbPolyline
 62
253
  6
CONTINUOUS
 90
3
 70
0
 10
-2.3384342844
 20
-20.7928094596
 10
-2.3335110276
 20
-20.7638130523
 10
-2.3224047538
 20
-20.6964284426
  0
LWPOLYLINE
  5
2AE
100
AcDbEntity
  8
SUPERFICI
100
AcDbPolyline
 62
7
  6
CONTINUOUS
 90
3
 70
0
 10
-1.9547844139
 20
-20.339118456
 10
-1.9913299328
 20
-20.5520495264
 10
-2.0337295932
 20
-20.7510553203
  0
LINE
  5
2AF
100
AcDbEntity
  8
RACCORDO
100
AcDbLine
 62
253
  6
CONTINUOUS
 10
-2.3507698037
 20
-20.8622937911
 11
-2.3384342844
 21
-20.7928094596
  0
LINE
  5
2B0
100
AcDbEntity
  8
RACCORDO
100
AcDbLine
 62
253
  6
CONTINUOUS
 10
-2.3595647554
 20
-20.909172627
 11
-2.3507698037
 21
-20.8622937911
  0
LINE
  5
2B1
100
AcDbEntity
  8
RACCORDO
100
AcDbLine
 62
253
  6
CONTINUOUS
 10
-2.365278495
 20
-20.9381186932
 11
-2.3595647554
 21
-20.909172627
  0
LWPOLYLINE
  5
2B2
100
AcDbEntity
  8
RACCORDO
100
AcDbPolyline
 62
253
  6
CONTINUOUS
 90
5
 70
0
 10
-2.3688609139
 20
-20.9553759428
 10
-2.3687100336
 20
-20.954769707
 10
-2.3682864782
 20
-20.9527231904
 10
-2.367581976
 20
-20.949236393
 10
-2.365278495
 20
-20.9381186932
  0
LWPOLYLINE
  5
2B3
100
AcDbEntity
  8
SUPERFICI
100
AcDbPolyline
 62
7
  6
CONTINUOUS
 90
4
 70
0
 10
1.6158525497
 20
-8.3745143661
 10
1.7324998445
 20
-8.2130444355
 10
1.8465612108
 20
-8.042671909
 10
1.95820169
 20
-7.8628145651
  0
LWPOLYLINE
  5
2B4
100
AcDbEntity
  8
SUPERFICI
100
AcDbPolyline
 62
7
  6
CONTINUOUS
 90
4
 70
0
 10
1.2503913775
 20
-8.7970173019
 10
1.374847628
 20
-8.6673494998
 10
1.4967843678
 20
-8.5265689827
 10
1.6158525497
 20
-8.3745143661
  0
LWPOLYLINE
  5
2B5
100
AcDbEntity
  8
SUPERFICI
100
AcDbPolyline
 62
7
  6
CONTINUOUS
 90
4
 70
0
 10
0.8532314979
 20
-9.1129220514
 10
0.9913783899
 20
-9.0205515725
 10
1.123066569
 20
-8.9154891618
 10
1.2503913775
 20
-8.7970173019
  0
LWPOLYLINE
  5
2B6
100
AcDbEntity
  8
SUPERFICI
100
AcDbPolyline
 62
7
  6
CONTINUOUS
 90
3
 70
0
 10
0.5686388172
 20
-9.2534092326
 10
0.7107212353
 20
-9.1919563139
 10
0.8532314979
 20
-9.1129220514
  0
LINE
  5
2B7
100
AcDbEntity
  8
SUPERFICI
100
AcDbLine
 62
7
  6
CONTINUOUS
 10
0.4285813151
 20
-9.2958881812
 11
0.5686388172
 21
-9.2534092326
  0
LWPOLYLINE
  5
2B8
100
AcDbEntity
  8
SUPERFICI
100
AcDbPolyline
 62
7
  6
CONTINUOUS
 90
7
 70
0
 10
0.6625654349
 20
-9.8520886745
 10
0.8125491037
 20
-9.8077863413
 10
0.959732213
 20
-9.7504505857
 10
1.1042704367
 20
-9.6800184968
 10
1.2463152116
 20
-9.5964481793
 10
1.3860132854
 20
-9.4997167989
 10
1.5235063267
 20
-9.3898187296
  0
LWPOLYLINE
  5
2B9
100
AcDbEntity
  8
SUPERFICI
100
AcDbPolyline
 62
7
  6
CONTINUOUS
 90
3
 70
0
 10
0.1497498441
 20
-9.3282829182
 10
0.2889516574
 20
-9.3208416704
 10
0.4285813151
 20
-9.2958881812
  0
LWPOLYLINE
  5
2BA
100
AcDbEntity
  8
SUPERFICI
100
AcDbPolyline
 62
7
  6
CONTINUOUS
 90
7
 70
0
 10
0.1497498441
 20
-9.9166048508
 10
0.2379905704
 20
-9.9143634308
 10
0.3250879341
 20
-9.9087569281
 10
0.4110680497
 20
-9.8997538124
 10
0.4959570057
 20
-9.8873252171
 10
0.5797808261
 20
-9.8714448112
 10
0.6625654349
 20
-9.8520886745
  0
LWPOLYLINE
  5
2BB
100
AcDbEntity
  8
SUPERFICI
100
AcDbPolyline
 62
7
  6
CONTINUOUS
 90
7
 70
0
 10
-0.3630269437
 20
-9.8519290172
 10
-0.2802488164
 20
-9.8712959081
 10
-0.196431404
 20
-9.8871933844
 10
-0.1115488323
 20
-9.8996453714
 10
-0.0255751286
 20
-9.9086782019
 10
0.0615157433
 20
-9.9143207407
 10
0.1497498441
 20
-9.9166045128
  0
LWPOLYLINE
  5
2BC
100
AcDbEntity
  8
SUPERFICI
100
AcDbPolyline
 62
7
  6
CONTINUOUS
 90
6
 70
0
 10
-0.5568307258
 20
-9.1109878311
 10
-0.4137175695
 20
-9.1907236851
 10
-0.2710197401
 20
-9.2527277186
 10
-0.130347885
 20
-9.2955832536
 10
0.0099086431
 20
-9.3207638363
 10
0.1497498441
 20
-9.3282829182
  0
LWPOLYLINE
  5
2BD
100
AcDbEntity
  8
SUPERFICI
100
AcDbPolyline
 62
7
  6
CONTINUOUS
 90
3
 70
0
 10
-0.8276864231
 20
-8.9119408253
 10
-0.6955272676
 20
-9.0178387188
 10
-0.5568307258
 20
-9.1109878311
  0
LWPOLYLINE
  5
2BE
100
AcDbEntity
  8
SUPERFICI
100
AcDbPolyline
 62
7
  6
CONTINUOUS
 90
6
 70
0
 10
-0.9869478257
 20
-8.5735933701
 10
-0.7816727026
 20
-8.7570699259
 10
-0.5653031151
 20
-8.9047485994
 10
-0.3380465943
 20
-9.0111588181
 10
-0.099695609
 20
-9.0820464746
 10
0.1497498406
 20
-9.1174867501
  0
LWPOLYLINE
  5
2BF
100
AcDbEntity
  8
SUPERFICI
100
AcDbPolyline
 62
7
  6
CONTINUOUS
 90
7
 70
0
 10
-1.5874160688
 20
-9.0373876022
 10
-1.4014699326
 20
-9.2342016141
 10
-1.2089385214
 20
-9.4062874649
 10
-1.0093354591
 20
-9.553825447
 10
-0.8021596055
 20
-9.6770550223
 10
-0.5868975591
 20
-9.7762889533
 10
-0.3630269437
 20
-9.8519290172
  0
LWPOLYLINE
  5
2C0
100
AcDbEntity
  8
SUPERFICI
100
AcDbPolyline
 62
7
  6
CONTINUOUS
 90
6
 70
0
 10
-1.4390670826
 20
-8.204274077
 10
-1.3220498681
 20
-8.3669235226
 10
-1.2026106865
 20
-8.520086389
 10
-1.0802852631
 20
-8.6619079928
 10
-0.955428964
 20
-8.7925555
 10
-0.8276864231
 20
-8.9119408253
  0
LINE
  5
2C1
100
AcDbEntity
  8
SUPERFICI
100
AcDbLine
 62
7
  6
CONTINUOUS
 10
-1.5535026676
 20
-8.0326511839
 11
-1.4390670826
 21
-8.204274077
  0
LWPOLYLINE
  5
2C2
100
AcDbEntity
  8
SUPERFICI
100
AcDbPolyline
 62
7
  6
CONTINUOUS
 90
6
 70
0
 10
-1.8457480316
 20
-7.4006352648
 10
-1.6902551464
 20
-7.6656619579
 10
-1.5288368287
 20
-7.916904795
 10
-1.3605298888
 20
-8.1536017863
 10
-1.180505891
 20
-8.3711063951
 10
-0.9869478257
 20
-8.5735933701
  0
LWPOLYLINE
  5
2C3
100
AcDbEntity
  8
SUPERFICI
100
AcDbPolyline
 62
7
  6
CONTINUOUS
 90
7
 70
0
 10
-2.4227774431
 20
-7.7359453528
 10
-2.2972776517
 20
-7.9784791524
 10
-2.1666041056
 20
-8.2104609027
 10
-2.030519339
 20
-8.4321135492
 10
-1.8887848336
 20
-8.6436632617
 10
-1.7411624764
 20
-8.8453415419
 10
-1.5874160688
 20
-9.0373876022
  0
LWPOLYLINE
  5
2C4
100
AcDbEntity
  8
SUPERFICI
100
AcDbPolyline
 62
7
  6
CONTINUOUS
 90
7
 70
0
 10
-2.6208132405
 20
-7.3060766354
 10
-2.5887259757
 20
-7.3799427533
 10
-2.5562780041
 20
-7.4529138545
 10
-2.523464274
 20
-7.5249948102
 10
-2.4902796946
 20
-7.5961904798
 10
-2.4567191383
 20
-7.6665057131
 10
-2.4227774431
 20
-7.7359453528
  0
LWPOLYLINE
  5
2C5
100
AcDbEntity
  8
SUPERFICI
100
AcDbPolyline
 62
7
  6
CONTINUOUS
 90
9
 70
0
 10
-2.4143725723
 20
-6.3198296228
 10
-2.3103538054
 20
-6.567547686
 10
-2.2055420606
 20
-6.8051835151
 10
-2.0997269648
 20
-7.0332590625
 10
-1.9929968451
 20
-7.2519548142
 10
-1.8852633742
 20
-7.4611586447
 10
-1.776051198
 20
-7.6609522572
 10
-1.6655162855
 20
-7.8514713306
 10
-1.5535026676
 20
-8.0326511839
  0
LWPOLYLINE
  5
2C6
100
AcDbEntity
  8
SUPERFICI
100
AcDbPolyline
 62
7
  6
CONTINUOUS
 90
10
 70
0
 10
-2.6208132405
 20
-7.3060766354
 10
-2.9271957131
 20
-6.5227858725
 10
-3.205500227
 20
-5.7257722808
 10
-3.4579749574
 20
-4.910520579
 10
-3.6851201189
 20
-4.0733771813
 10
-3.8908846101
 20
-3.2086643409
 10
-4.0821548134
 20
-2.3099696722
 10
-4.2616329949
 20
-1.3734025691
 10
-4.4281487082
 20
-0.3963353235
 10
-4.5818685196
 20
0.6246550441
  0
LINE
  5
2C7
100
AcDbEntity
  8
RACCORDO
100
AcDbLine
 62
253
  6
CONTINUOUS
 10
2.6681545416
 20
-20.9547888237
 11
2.6683606021
 21
-20.9553759428
  0
LINE
  5
2C8
100
AcDbEntity
  8
SUPERFICI
100
AcDbLine
 62
253
  6
CONTINUOUS
 10
-2.5512647204
 20
-15.6152896118
 11
-2.614537746
 21
-15.3366048343
  0
LWPOLYLINE
  5
2C9
100
AcDbEntity
  8
SUPERFICI
100
AcDbPolyline
 62
7
  6
CONTINUOUS
 90
5
 70
0
 10
2.3332292814
 20
-20.7510553202
 10
2.2908277341
 20
-20.5520391397
 10
2.2542810422
 20
-20.3390989375
 10
2.2235892055
 20
-20.1144584642
 10
2.1972891501
 20
-19.8802259444
  0
LWPOLYLINE
  5
2CA
100
AcDbEntity
  8
RACCORDO
100
AcDbPolyline
 62
253
  6
CONTINUOUS
 90
4
 70
0
 10
2.66375133
 20
-20.9330514804
 10
2.6667596966
 20
-20.9476969878
 10
2.6676330781
 20
-20.9522291721
 10
2.6681545416
 20
-20.9547888237
  0
LWPOLYLINE
  5
2CB
100
AcDbEntity
  8
SUPERFICI
100
AcDbPolyline
 62
7
  6
CONTINUOUS
 90
3
 70
0
 10
-2.283240388
 20
-15.600882584
 10
-2.3337780856
 20
-15.341874758
 10
-2.3965136165
 20
-15.0842060034
  0
LINE
  5
2CC
100
AcDbEntity
  8
RACCORDO
100
AcDbLine
 62
253
  6
CONTINUOUS
 10
2.6560432004
 20
-20.8933408827
 11
2.66375133
 21
-20.9330514804
  0
LWPOLYLINE
  5
2CD
100
AcDbEntity
  8
RACCORDO
100
AcDbPolyline
 62
7
  6
CONTINUOUS
 90
4
 70
0
 10
2.6665107246
 20
-20.8552034447
 10
2.6597840001
 20
-20.8199033294
 10
2.6408432077
 20
-20.7093269539
 10
2.6142276442
 20
-20.5316590597
  0
LINE
  5
2CE
100
AcDbEntity
  8
RACCORDO
100
AcDbLine
 62
253
  6
CONTINUOUS
 10
2.6440223739
 20
-20.8277087273
 11
2.6560432004
 21
-20.8933408827
  0
LWPOLYLINE
  5
2CF
100
AcDbEntity
  8
SUPERFICI
100
AcDbPolyline
 62
7
  6
CONTINUOUS
 90
18
 70
0
 10
-4.0121628947
 20
-0.3028135891
 10
-3.9322478514
 20
-0.768251701
 10
-3.8496994832
 20
-1.217965164
 10
-3.7647322398
 20
-1.6519442581
 10
-3.6771316715
 20
-2.0700975667
 10
-3.5877420711
 20
-2.4739915942
 10
-3.4966712689
 20
-2.8637188396
 10
-3.4038114346
 20
-3.2391575035
 10
-3.3096833697
 20
-3.6015601654
 10
-3.2143659473
 20
-3.9509768574
 10
-3.1177802942
 20
-4.2873736432
 10
-3.0202105927
 20
-4.6118787252
 10
-2.921763539
 20
-4.9246162877
 10
-2.8223324368
 20
-5.2255047318
 10
-2.7218813797
 20
-5.5153622173
 10
-2.6203227398
 20
-5.7942151745
 10
-2.5177441449
 20
-6.0620962038
 10
-2.4143725723
 20
-6.3198296228
  0
LINE
  5
2D0
100
AcDbEntity
  8
SUPERFICI
100
AcDbLine
 62
253
  6
CONTINUOUS
 10
-2.5023742582
 20
-15.9041882396
 11
-2.5512647204
 21
-15.6152896118
  0
LWPOLYLINE
  5
2D1
100
AcDbEntity
  8
RACCORDO
100
AcDbPolyline
 62
253
  6
CONTINUOUS
 90
3
 70
0
 10
-2.6457486794
 20
-16.0599188385
 10
-2.6715711967
 20
-15.8981799469
 10
-2.7001097647
 20
-15.7447316723
  0
LINE
  5
2D2
100
AcDbEntity
  8
SUPERFICI
100
AcDbLine
 62
7
  6
CONTINUOUS
 10
-2.2449005238
 20
-15.8591338354
 11
-2.283240388
 21
-15.600882584
  0
LINE
  5
2D3
100
AcDbEntity
  8
RACCORDO
100
AcDbLine
 62
7
  6
CONTINUOUS
 10
-2.6693391185
 20
-16.0631031022
 11
-2.428138462
 21
-17.8604295284
  0
LINE
  5
2D4
100
AcDbEntity
  8
RACCORDO
100
AcDbLine
 62
7
  6
CONTINUOUS
 10
-2.428138462
 20
-17.8604295284
 11
-2.2905439506
 21
-18.8999108354
  0
LWPOLYLINE
  5
2D5
100
AcDbEntity
  8
SUPERFICI
100
AcDbPolyline
 62
7
  6
CONTINUOUS
 90
4
 70
0
 10
-4.2278843161
 20
1.1971145129
 10
-4.1599811271
 20
0.679976855
 10
-4.0879569721
 20
0.1800203766
 10
-4.0121628947
 20
-0.3028135891
  0
LINE
  5
2D6
100
AcDbEntity
  8
RACCORDO
100
AcDbLine
 62
253
  6
CONTINUOUS
 10
-2.2706184314
 20
-18.8972874157
 11
-2.6457486794
 21
-16.0599188385
  0
LINE
  5
2D7
100
AcDbEntity
  8
SUPERFICI
100
AcDbLine
 62
253
  6
CONTINUOUS
 10
-2.5023742582
 20
-15.9041882396
 11
-2.2268673485
 21
-18.0787673196
  0
LWPOLYLINE
  5
2D8
100
AcDbEntity
  8
SUPERFICI
100
AcDbPolyline
 62
7
  6
CONTINUOUS
 90
16
 70
0
 10
-4.5818685196
 20
0.6246550441
 10
-4.6925201926
 20
1.5024238843
 10
-4.7863049067
 20
2.3532435119
 10
-4.8623424107
 20
3.178720365
 10
-4.9186538967
 20
3.9807152868
 10
-4.9546414171
 20
4.7596748155
 10
-4.9714291653
 20
5.5144146678
 10
-4.967574782
 20
6.244374973
 10
-4.9412734822
 20
6.9500649436
 10
-4.8935200817
 20
7.6312643377
 10
-4.8229311108
 20
8.2868686542
 10
-4.727545883
 20
8.9161246303
 10
-4.6080253361
 20
9.5190226381
 10
-4.4636914223
 20
10.0945208307
 10
-4.292312166
 20
10.6404277066
 10
-4.0925978801
 20
11.1547487751
  0
LINE
  5
2D9
100
AcDbEntity
  8
SUPERFICI
100
AcDbLine
 62
253
  6
CONTINUOUS
 10
-2.2268673485
 20
-18.0787673196
 11
-2.1488775322
 21
-18.7038981106
  0
LINE
  5
2DA
100
AcDbEntity
  8
RACCORDO
100
AcDbLine
 62
7
  6
CONTINUOUS
 10
2.5852071477
 20
-20.2970705954
 11
2.560419687
 21
-20.0160707389
  0
LWPOLYLINE
  5
2DB
100
AcDbEntity
  8
SUPERFICI
100
AcDbPolyline
 62
7
  6
CONTINUOUS
 90
4
 70
0
 10
2.1972891501
 20
-19.8802259444
 10
2.1768439499
 20
-19.6387103878
 10
2.1666428274
 20
-19.3924433868
 10
2.1681488567
 20
-19.1436709333
  0
LWPOLYLINE
  5
2DC
100
AcDbEntity
  8
RACCORDO
100
AcDbPolyline
 62
253
  6
CONTINUOUS
 90
11
 70
0
 10
2.53302224
 20
-19.8609963305
 10
2.5392176996
 20
-19.9696860907
 10
2.5463672812
 20
-20.0712412138
 10
2.5543179298
 20
-20.1655427938
 10
2.5630350859
 20
-20.2527097367
 10
2.5718074669
 20
-20.3333123533
 10
2.5805725483
 20
-20.4072285991
 10
2.5893817233
 20
-20.4745805187
 10
2.5978125812
 20
-20.5363045565
 10
2.6058503133
 20
-20.5923957766
 10
2.6206959117
 20
-20.6886458241
  0
LINE
  5
2DD
100
AcDbEntity
  8
RACCORDO
100
AcDbLine
 62
7
  6
CONTINUOUS
 10
2.560419687
 20
-20.0160707389
 11
2.5465780317
 21
-19.7045145041
  0
LWPOLYLINE
  5
2DE
100
AcDbEntity
  8
SUPERFICI
100
AcDbPolyline
 62
7
  6
CONTINUOUS
 90
16
 70
0
 10
4.7647500653
 20
5.4963415148
 10
4.7398203894
 20
6.1216778843
 10
4.6973791923
 20
6.7332296815
 10
4.6371950408
 20
7.3192272652
 10
4.5590052355
 20
7.8762677416
 10
4.4630724759
 20
8.4079542405
 10
4.3499534271
 20
8.913219713
 10
4.2194198937
 20
9.3920653899
 10
4.0717000711
 20
9.844863312
 10
3.9080352107
 20
10.2711580781
 10
3.7282153215
 20
10.6715500261
 10
3.5324503945
 20
11.0459115403
 10
3.322611654
 20
11.3927379724
 10
3.0979228047
 20
11.7127241811
 10
2.8591601419
 20
12.0057005266
 10
2.610523776
 20
12.2689128849
  0
LINE
  5
2DF
100
AcDbEntity
  8
RACCORDO
100
AcDbLine
 62
253
  6
CONTINUOUS
 10
2.5288476387
 20
-19.7449583405
 11
2.53302224
 21
-19.8609963305
  0
LWPOLYLINE
  5
2E0
100
AcDbEntity
  8
SUPERFICI
100
AcDbPolyline
 62
253
  6
CONTINUOUS
 90
3
 70
0
 10
2.4134709431
 20
-19.2887248578
 10
2.417008655
 20
-19.5569506409
 10
2.4327818184
 20
-19.8086426577
  0
LINE
  5
2E1
100
AcDbEntity
  8
0
100
AcDbLine
 62
7
  6
CONTINUOUS
 10
1.0250881591
 20
4.0384758538
 11
1.0250881591
 21
4.9499396338
  0
LINE
  5
2E2
100
AcDbEntity
  8
0
100
AcDbLine
 62
7
  6
CONTINUOUS
 10
1.5925645191
 20
5.1321301038
 11
1.5925724791
 21
5.7092589588
  0
LINE
  5
2E3
100
AcDbEntity
  8
0
100
AcDbLine
 62
7
  6
CONTINUOUS
 10
1.5925645191
 20
6.0940045638
 11
1.5925645191
 21
6.6711334188
  0
LINE
  5
2E4
100
AcDbEntity
  8
0
100
AcDbLine
 62
7
  6
CONTINUOUS
 10
1.5925724791
 20
0.0717859688
 11
1.5925724791
 21
0.6489068638
  0
LINE
  5
2E5
100
AcDbEntity
  8
0
100
AcDbLine
 62
7
  6
CONTINUOUS
 10
1.5925724791
 20
2.3172890338
 11
1.5925724791
 21
2.8944109238
  0
LINE
  5
2E6
100
AcDbEntity
  8
0
100
AcDbLine
 62
7
  6
CONTINUOUS
 10
1.5925794441
 20
-2.9708086112
 11
1.5925724791
 21
-2.3936648312
  0
LINE
  5
2E7
100
AcDbEntity
  8
0
100
AcDbLine
 62
7
  6
CONTINUOUS
 10
1.5925794441
 20
-1.0824428862
 11
1.5925724791
 21
-0.5053219912
  0
LINE
  5
2E8
100
AcDbEntity
  8
0
100
AcDbLine
 62
7
  6
CONTINUOUS
 10
1.5925724791
 20
1.1945409838
 11
1.5925645191
 21
1.7716479488
  0
LINE
  5
2E9
100
AcDbEntity
  8
0
100
AcDbLine
 62
7
  6
CONTINUOUS
 10
1.5925724791
 20
3.2791565288
 11
1.5925645191
 21
3.8562774238
  0
LINE
  5
2EA
100
AcDbEntity
  8
0
100
AcDbLine
 62
7
  6
CONTINUOUS
 10
1.5925645191
 20
7.7532466638
 11
1.5925575541
 21
8.4032851388
  0
LWPOLYLINE
  5
2EB
100
AcDbEntity
  8
RACCORDO
100
AcDbPolyline
 62
253
  6
CONTINUOUS
 90
3
 70
0
 10
2.527212361
 20
-19.4904510522
 10
2.5268367598
 20
-19.6213788112
 10
2.5288476387
 20
-19.7449583405
  0
LINE
  5
2EC
100
AcDbEntity
  8
RACCORDO
100
AcDbLine
 62
7
  6
CONTINUOUS
 10
2.5465780317
 20
-19.7045145041
 11
2.5497801093
 21
-19.3782620811
  0
LWPOLYLINE
  5
2ED
100
AcDbEntity
  8
SUPERFICI
100
AcDbPolyline
 62
7
  6
CONTINUOUS
 90
3
 70
0
 10
4.7591246372
 20
4.1943988544
 10
4.7706931118
 20
4.8521398982
 10
4.7647500653
 20
5.4963415148
  0
LWPOLYLINE
  5
2EE
100
AcDbEntity
  8
SUPERFICI
100
AcDbPolyline
 62
7
  6
CONTINUOUS
 90
10
 70
0
 10
5.2517976736
 20
4.7399598664
 10
5.2290490258
 20
4.2366383128
 10
5.2016141903
 20
3.7527533961
 10
5.1699074646
 20
3.2880192722
 10
5.1351795572
 20
2.8518137263
 10
5.0968423588
 20
2.4341456108
 10
5.0524134548
 20
2.0057528841
 10
5.0011435816
 20
1.5567397468
 10
4.9440757258
 20
1.0964824794
 10
4.8813293877
 20
0.6246606501
  0
LINE
  5
2EF
100
AcDbEntity
  8
SUPERFICI
100
AcDbLine
 62
7
  6
CONTINUOUS
 10
2.1681488567
 20
-19.1436709333
 11
2.1798989635
 21
-18.8942944674
  0
LWPOLYLINE
  5
2F0
100
AcDbEntity
  8
SUPERFICI
100
AcDbPolyline
 62
7
  6
CONTINUOUS
 90
22
 70
0
 10
4.646660723
 20
2.9731578803
 10
4.6977152045
 20
3.7745340626
 10
4.7259079623
 20
4.5554490547
 10
4.7312389963
 20
5.315593648
 10
4.7148800573
 20
6.0556212469
 10
4.6756593945
 20
6.7744313635
 10
4.6100617559
 20
7.4692024199
 10
4.5183076056
 20
8.1407426538
 10
4.4001764794
 20
8.7881836487
 10
4.251491733
 20
9.4063775549
 10
4.0719953794
 20
9.9971627138
 10
3.8619454055
 20
10.5590679766
 10
3.6179391272
 20
11.082293244
 10
3.3376884913
 20
11.5693628963
 10
3.023481551
 20
12.0186379767
 10
2.6787797814
 20
12.4145282881
 10
2.2983425938
 20
12.7567936635
 10
1.8874105768
 20
13.0470148938
 10
1.4651669713
 20
13.2726670511
 10
1.0380061907
 20
13.4299803729
 10
0.5995338214
 20
13.5237538308
 10
0.1497498636
 20
13.5542425605
  0
LWPOLYLINE
  5
2F1
100
AcDbEntity
  8
RACCORDO
100
AcDbPolyline
 62
7
  6
CONTINUOUS
 90
3
 70
0
 10
2.5497801093
 20
-19.3782620811
 10
2.5726116408
 20
-19.0497797095
 10
2.5900908875
 20
-18.8999199166
  0
LWPOLYLINE
  5
2F2
100
AcDbEntity
  8
SUPERFICI
100
AcDbPolyline
 62
253
  6
CONTINUOUS
 90
3
 70
0
 10
2.4483754246
 20
-18.7039142662
 10
2.4234578956
 20
-19.0040811571
 10
2.4134709431
 20
-19.2887248578
  0
LWPOLYLINE
  5
2F3
100
AcDbEntity
  8
SUPERFICI
100
AcDbPolyline
 62
7
  6
CONTINUOUS
 90
6
 70
0
 10
4.646660723
 20
2.9731578803
 10
4.5958043109
 20
2.3832243011
 10
4.5389961055
 20
1.8096426328
 10
4.476236107
 20
1.2526328186
 10
4.4068944705
 20
0.7128494561
 10
4.3316010407
 20
0.1899850035
  0
LINE
  5
2F4
100
AcDbEntity
  8
SUPERFICI
100
AcDbLine
 62
7
  6
CONTINUOUS
 10
2.1798989635
 20
-18.8942944674
 11
2.2018931479
 21
-18.6462259005
  0
LWPOLYLINE
  5
2F5
100
AcDbEntity
  8
RACCORDO
100
AcDbPolyline
 62
253
  6
CONTINUOUS
 90
5
 70
0
 10
2.5701181196
 20
-18.8972874157
 10
2.5528300812
 20
-19.0560206373
 10
2.5399719601
 20
-19.2077719653
 10
2.5313695603
 20
-19.3525413996
 10
2.527212361
 20
-19.4904510522
  0
LINE
  5
2F6
100
AcDbEntity
  8
SUPERFICI
100
AcDbLine
 62
253
  6
CONTINUOUS
 10
2.4483754246
 20
-18.7039142662
 11
2.6833196108
 21
-16.8336621919
  0
LINE
  5
2F7
100
AcDbEntity
  8
SUPERFICI
100
AcDbLine
 62
253
  6
CONTINUOUS
 10
2.6833196108
 20
-16.8336621919
 11
2.8018647648
 21
-15.904269289
  0
LWPOLYLINE
  5
2F8
100
AcDbEntity
  8
RACCORDO
100
AcDbPolyline
 62
253
  6
CONTINUOUS
 90
15
 70
0
 10
9.9881644458
 20
27.7089889096
 10
9.9982680752
 20
27.7864706911
 10
10.0076058585
 20
27.8663649818
 10
10.0160954351
 20
27.948571577
 10
10.0236676686
 20
28.0331906813
 10
10.0302382646
 20
28.1205229087
 10
10.0356934925
 20
28.2105499714
 10
10.0399314863
 20
28.3032901573
 10
10.0428374251
 20
28.3990989436
 10
10.0442974008
 20
28.4979737553
 10
10.0441866284
 20
28.5999171675
 10
10.0423324083
 20
28.7052923823
 10
10.0385611739
 20
28.8142204672
 10
10.0327288472
 20
28.9265803549
 10
10.0246800772
 20
29.0423720452
  0
LINE
  5
2F9
100
AcDbEntity
  8
RACCORDO
100
AcDbLine
 62
7
  6
CONTINUOUS
 10
2.590043235
 20
-18.899913903
 11
2.8081371407
 21
-17.2572258033
  0
LINE
  5
2FA
100
AcDbEntity
  8
RACCORDO
100
AcDbLine
 62
253
  6
CONTINUOUS
 10
2.9452483677
 20
-16.0599188385
 11
2.5701181196
 21
-18.8972874157
  0
LINE
  5
2FB
100
AcDbEntity
  8
RACCORDO
100
AcDbLine
 62
7
  6
CONTINUOUS
 10
2.8081371407
 20
-17.2572258033
 11
2.968837809
 21
-16.0631104763
  0
LWPOLYLINE
  5
2FC
100
AcDbEntity
  8
RACCORDO
100
AcDbPolyline
 62
7
  6
CONTINUOUS
 90
5
 70
0
 10
9.977685154
 20
27.6359980059
 10
9.9990717865
 20
27.7882771839
 10
10.0370412803
 20
28.1354236878
 10
10.0605918951
 20
28.4896773071
 10
10.0688398493
 20
28.8500054781
  0
LINE
  5
2FD
100
AcDbEntity
  8
RACCORDO
100
AcDbLine
 62
7
  6
CONTINUOUS
 10
2.5396916368
 20
-21.8107493658
 11
2.6683606021
 21
-20.9553759428
  0
LINE
  5
2FE
100
AcDbEntity
  8
SUPERFICI
100
AcDbLine
 62
7
  6
CONTINUOUS
 10
2.5396916368
 20
-21.8107493658
 11
2.2178715281
 21
-23.9501647818
  0
LINE
  5
2FF
100
AcDbEntity
  8
RACCORDO
100
AcDbLine
 62
7
  6
CONTINUOUS
 10
3.7119840374
 20
-14.0175121934
 11
9.9776894216
 21
27.6360302053
  0
LWPOLYLINE
  5
300
100
AcDbEntity
  8
RACCORDO
100
AcDbPolyline
 62
7
  6
CONTINUOUS
 90
3
 70
0
 10
2.9688899015
 20
-16.0631178203
 10
2.9898428115
 20
-15.9242342063
 10
3.0490255622
 20
-15.6289366375
  0
LWPOLYLINE
  5
301
100
AcDbEntity
  8
SUPERFICI
100
AcDbPolyline
 62
7
  6
CONTINUOUS
 90
20
 70
0
 10
4.3316010407
 20
0.1899850035
 10
4.2522453525
 20
-0.3172276688
 10
4.1691126231
 20
-0.8087239929
 10
4.0819176352
 20
-1.2843731896
 10
3.9916942717
 20
-1.7453721146
 10
3.8986259055
 20
-2.1917186951
 10
3.8025291637
 20
-2.6233239119
 10
3.7038878102
 20
-3.0412704544
 10
3.6028385433
 20
-3.4455545338
 10
3.4992446647
 20
-3.8361595474
 10
3.3931798445
 20
-4.2141562531
 10
3.2847895329
 20
-4.5795556014
 10
3.1739282796
 20
-4.9323716813
 10
3.0602334034
 20
-5.2736805253
 10
2.9438115752
 20
-5.6037439607
 10
2.824556124
 20
-5.9223508806
 10
2.7017843561
 20
-6.2298679034
 10
2.5755770333
 20
-6.5267438281
 10
2.4458533936
 20
-6.8126017318
 10
2.311688458
 20
-7.0865785655
  0
LWPOLYLINE
  5
302
100
AcDbEntity
  8
SUPERFICI
100
AcDbPolyline
 62
7
  6
CONTINUOUS
 90
9
 70
0
 10
4.3043164347
 20
-0.3478644369
 10
4.381720452
 20
0.1421669219
 10
4.4556849307
 20
0.6520117776
 10
4.5257389428
 20
1.1820188333
 10
4.5889598587
 20
1.7366739911
 10
4.6463806908
 20
2.3203170156
 10
4.6969684266
 20
2.928142242
 10
4.7347013988
 20
3.5508761993
 10
4.7591246372
 20
4.1943988544
  0
LINE
  5
303
100
AcDbEntity
  8
RACCORDO
100
AcDbLine
 62
7
  6
CONTINUOUS
 10
2.980322102
 20
-15.9873409797
 11
3.028236348
 21
-15.7280898794
  0
LWPOLYLINE
  5
304
100
AcDbEntity
  8
SUPERFICI
100
AcDbPolyline
 62
253
  6
CONTINUOUS
 90
3
 70
0
 10
2.8984144486
 20
-15.3855683587
 10
2.8409477769
 20
-15.6461730926
 10
2.8018647648
 20
-15.904269289
  0
LWPOLYLINE
  5
305
100
AcDbEntity
  8
SUPERFICI
100
AcDbPolyline
 62
253
  6
CONTINUOUS
 90
4
 70
0
 10
-1.9183717217
 20
-23.9501655675
 10
-1.9135820097
 20
-23.9295862363
 10
-1.895124762
 20
-23.8897557817
 10
-1.8197915133
 20
-23.749371672
  0
LWPOLYLINE
  5
306
100
AcDbEntity
  8
SUPERFICI
100
AcDbPolyline
 62
7
  6
CONTINUOUS
 90
4
 70
0
 10
2.6959927254
 20
-15.0842801966
 10
2.6332625149
 20
-15.3419338076
 10
2.5827316771
 20
-15.6009167893
 10
2.5444002121
 20
-15.8591338354
  0
LWPOLYLINE
  5
307
100
AcDbEntity
  8
RACCORDO
100
AcDbPolyline
 62
253
  6
CONTINUOUS
 90
5
 70
0
 10
3.0569810687
 20
-15.4939914118
 10
3.0251020943
 20
-15.6240084629
 10
2.9960457795
 20
-15.7617546604
 10
2.9694230523
 20
-15.9070581189
 10
2.9452483677
 20
-16.0599188385
  0
LINE
  5
308
100
AcDbEntity
  8
RACCORDO
100
AcDbLine
 62
7
  6
CONTINUOUS
 10
3.028236348
 20
-15.7280898794
 11
3.104797321
 21
-15.4267752802
  0
LINE
  5
309
100
AcDbEntity
  8
RACCORDO
100
AcDbLine
 62
7
  6
CONTINUOUS
 10
3.0490255622
 20
-15.6289366375
 11
3.1260181895
 21
-15.3400721053
  0
LINE
  5
30A
100
AcDbEntity
  8
SUPERFICI
100
AcDbLine
 62
253
  6
CONTINUOUS
 10
2.9735668685
 20
-15.1240504719
 11
2.8984144486
 21
-15.3855683587
  0
LINE
  5
30B
100
AcDbEntity
  8
RACCORDO
100
AcDbLine
 62
7
  6
CONTINUOUS
 10
3.104797321
 20
-15.4267752802
 11
3.1988325183
 21
-15.1348134822
  0
LINE
  5
30C
100
AcDbEntity
  8
RACCORDO
100
AcDbLine
 62
7
  6
CONTINUOUS
 10
3.1260181895
 20
-15.3400721053
 11
3.2172433991
 21
-15.0656133987
  0
LINE
  5
30D
100
AcDbEntity
  8
SUPERFICI
100
AcDbLine
 62
253
  6
CONTINUOUS
 10
3.0683171323
 20
-14.855371638
 11
2.9735668685
 21
-15.1240504719
  0
LWPOLYLINE
  5
30E
100
AcDbEntity
  8
RACCORDO
100
AcDbPolyline
 62
253
  6
CONTINUOUS
 90
6
 70
0
 10
3.2334379847
 20
-14.9515928611
 10
3.1976925504
 20
-15.0465360719
 10
3.1616050972
 20
-15.1478039518
 10
3.1260919327
 20
-15.2561134373
 10
3.0911264031
 20
-15.3715316218
 10
3.0569810687
 20
-15.4939914118
  0
LWPOLYLINE
  5
30F
100
AcDbEntity
  8
RACCORDO
100
AcDbPolyline
 62
7
  6
CONTINUOUS
 90
3
 70
0
 10
3.1988325183
 20
-15.1348134822
 10
3.3050762743
 20
-14.86012983
 10
3.4145513338
 20
-14.61402197
  0
LWPOLYLINE
  5
310
100
AcDbEntity
  8
RACCORDO
100
AcDbPolyline
 62
7
  6
CONTINUOUS
 90
3
 70
0
 10
3.2172433991
 20
-15.0656133987
 10
3.3165696237
 20
-14.8132510979
 10
3.4173338392
 20
-14.5898812159
  0
LWPOLYLINE
  5
311
100
AcDbEntity
  8
SUPERFICI
100
AcDbPolyline
 62
7
  6
CONTINUOUS
 90
10
 70
0
 10
2.9203549774
 20
-7.3061080963
 10
3.217965049
 20
-6.555482067
 10
3.4910924792
 20
-5.7768230566
 10
3.7419537163
 20
-4.9664865911
 10
3.9727253097
 20
-4.1152317782
 10
4.1855234235
 20
-3.2246676688
 10
4.3819913674
 20
-2.3074447193
 10
4.5631281177
 20
-1.3653674964
 10
4.7295237523
 20
-0.3892247856
 10
4.8813293877
 20
0.6246606501
  0
LINE
  5
312
100
AcDbEntity
  8
RACCORDO
100
AcDbLine
 62
253
  6
CONTINUOUS
 10
3.2686234869
 20
-14.8630237377
 11
3.2334379847
 21
-14.9515928611
  0
LWPOLYLINE
  5
313
100
AcDbEntity
  8
SUPERFICI
100
AcDbPolyline
 62
7
  6
CONTINUOUS
 90
18
 70
0
 10
2.7044057173
 20
-6.3428110737
 10
2.8074057958
 20
-6.087170079
 10
2.9096219997
 20
-5.8215025868
 10
3.0108310748
 20
-5.5449796447
 10
3.110939702
 20
-5.2575841456
 10
3.2100412003
 20
-4.9592745199
 10
3.3081922724
 20
-4.6491816214
 10
3.405486097
 20
-4.3274413447
 10
3.5018294953
 20
-3.9938744577
 10
3.5969996329
 20
-3.6471363512
 10
3.6910573971
 20
-3.287407437
 10
3.7839419006
 20
-2.9144880052
 10
3.8752476468
 20
-2.5264612312
 10
3.9651134251
 20
-2.1234489349
 10
4.0534004461
 20
-1.7053507308
 10
4.1392868457
 20
-1.2699201807
 10
4.2230019509
 20
-0.8175108327
 10
4.3043164347
 20
-0.3478644369
  0
LWPOLYLINE
  5
314
100
AcDbEntity
  8
RACCORDO
100
AcDbPolyline
 62
253
  6
CONTINUOUS
 90
3
 70
0
 10
3.3368809908
 20
-14.7039943082
 10
3.3032630452
 20
-14.7807792836
 10
3.2686234869
 20
-14.8630237377
  0
LINE
  5
315
100
AcDbEntity
  8
SUPERFICI
100
AcDbLine
 62
253
  6
CONTINUOUS
 10
-1.5940978007
 20
-24.3340357064
 11
-1.5987718082
 21
-24.3442240698
  0
LWPOLYLINE
  5
316
100
AcDbEntity
  8
RACCORDO
100
AcDbPolyline
 62
7
  6
CONTINUOUS
 90
4
 70
0
 10
3.4145513338
 20
-14.61402197
 10
3.5164100195
 20
-14.4085016577
 10
3.6006862796
 20
-14.2517715012
 10
3.6569593879
 20
-14.1534331944
  0
LWPOLYLINE
  5
317
100
AcDbEntity
  8
RACCORDO
100
AcDbPolyline
 62
7
  6
CONTINUOUS
 90
4
 70
0
 10
3.4173338392
 20
-14.5898812159
 10
3.5127363028
 20
-14.4009600402
 10
3.5939527076
 20
-14.2546562614
 10
3.649051148
 20
-14.1637054652
  0
LWPOLYLINE
  5
318
100
AcDbEntity
  8
SUPERFICI
100
AcDbPolyline
 62
7
  6
CONTINUOUS
 90
13
 70
0
 10
2.311688458
 20
-7.0865785655
 10
2.1733954945
 20
-7.3490457594
 10
2.030661235
 20
-7.5997319514
 10
1.8816208964
 20
-7.8368299817
 10
1.7271225565
 20
-8.0612057089
 10
1.5663181376
 20
-8.272120308
 10
1.3947986233
 20
-8.4653949294
 10
1.2104312552
 20
-8.6446571999
 10
1.0153487918
 20
-8.8064333751
 10
0.8115404927
 20
-8.9359781063
 10
0.5996694444
 20
-9.0284750183
 10
0.3790725604
 20
-9.0889585702
 10
0.1497498406
 20
-9.1174867501
  0
LWPOLYLINE
  5
319
100
AcDbEntity
  8
SUPERFICI
100
AcDbPolyline
 62
253
  6
CONTINUOUS
 90
15
 70
0
 10
-1.8197915133
 20
-23.749371672
 10
-1.7652793397
 20
-23.6488180168
 10
-1.6978603281
 20
-23.53792273
 10
-1.6171572538
 20
-23.4174502698
 10
-1.5253239009
 20
-23.286636178
 10
-1.4201063492
 20
-23.1520965717
 10
-1.3037713823
 20
-23.0124747702
 10
-1.1780505082
 20
-22.8691274543
 10
-1.0373210394
 20
-22.7327407838
 10
-0.8807853839
 20
-22.6011009029
 10
-0.7085759065
 20
-22.4764216675
 10
-0.5186952068
 20
-22.3760308052
 10
-0.3112007522
 20
-22.3057042254
 10
-0.0865511208
 20
-22.2596660188
 10
0.1497498441
 20
-22.2379161855
  0
LWPOLYLINE
  5
31A
100
AcDbEntity
  8
SUPERFICI
100
AcDbPolyline
 62
7
  6
CONTINUOUS
 90
7
 70
0
 10
2.0683640779
 20
-7.6736967833
 10
2.1772062825
 20
-7.4753806529
 10
2.2845703957
 20
-7.2677339436
 10
2.3909254886
 20
-7.0506907227
 10
2.4963528699
 20
-6.8243608476
 10
2.6007712309
 20
-6.5885669495
 10
2.7044057173
 20
-6.3428110737
  0
LWPOLYLINE
  5
31B
100
AcDbEntity
  8
SUPERFICI
100
AcDbPolyline
 62
7
  6
CONTINUOUS
 90
7
 70
0
 10
3.2787535233
 20
-13.6859161875
 10
3.1649636511
 20
-13.8905445224
 10
3.0578390079
 20
-14.1098743334
 10
2.9573795938
 20
-14.3413877502
 10
2.8617406941
 20
-14.5823031394
 10
2.7727670234
 20
-14.8304263522
 10
2.6959927254
 20
-15.0842801966
  0
LINE
  5
31C
100
AcDbEntity
  8
SUPERFICI
100
AcDbLine
 62
7
  6
CONTINUOUS
 10
1.95820169
 20
-7.8628145651
 11
2.0683640779
 21
-7.6736967833
  0
LWPOLYLINE
  5
31D
100
AcDbEntity
  8
SUPERFICI
100
AcDbPolyline
 62
7
  6
CONTINUOUS
 90
7
 70
0
 10
2.203431317
 20
-8.6244149515
 10
2.3344337875
 20
-8.4271759149
 10
2.4605764399
 20
-8.2211848046
 10
2.5820505107
 20
-8.0062606135
 10
2.6990463892
 20
-7.7822247512
 10
2.8117526304
 20
-7.5488997467
 10
2.9203549774
 20
-7.3061080963
  0
LWPOLYLINE
  5
31E
100
AcDbEntity
  8
SUPERFICI
100
AcDbPolyline
 62
7
  6
CONTINUOUS
 90
7
 70
0
 10
1.5235063267
 20
-9.3898187296
 10
1.6478561538
 20
-9.2812744723
 10
1.7675856215
 20
-9.165315911
 10
1.8828523022
 20
-9.0417910366
 10
1.9938127263
 20
-8.9105561595
 10
2.1006216423
 20
-8.7714745078
 10
2.203431317
 20
-8.6244149515
  0
LWPOLYLINE
  5
31F
100
AcDbEntity
  8
RACCORDO
100
AcDbPolyline
 62
253
  6
CONTINUOUS
 90
3
 70
0
 10
-9.7252439826
 20
29.0415766491
 10
-9.7552474002
 20
29.1171442841
 10
-9.7626018168
 20
29.188778867
  0
LWPOLYLINE
  5
320
100
AcDbEntity
  8
RACCORDO
100
AcDbPolyline
 62
253
  6
CONTINUOUS
 90
3
 70
0
 10
2.6206959117
 20
-20.6886458241
 10
2.6273019302
 20
-20.7297959835
 10
2.6440223739
 20
-20.8277087273
  0
LINE
  5
321
100
AcDbEntity
  8
RACCORDO
100
AcDbLine
 62
7
  6
CONTINUOUS
 10
2.6142276442
 20
-20.5316590597
 11
2.5852071477
 21
-20.2970705954
  0
LWPOLYLINE
  5
322
100
AcDbEntity
  8
RACCORDO
100
AcDbPolyline
 62
253
  6
CONTINUOUS
 90
11
 70
0
 10
3.5973541209
 20
-14.1976840414
 10
3.5782550603
 20
-14.2303904524
 10
3.5575803697
 20
-14.2665334313
 10
3.5353070677
 20
-14.3061619751
 10
3.5114437903
 20
-14.3498214714
 10
3.4860041118
 20
-14.3974538987
 10
3.4590177866
 20
-14.4491172785
 10
3.4305588008
 20
-14.5055310641
 10
3.4006427754
 20
-14.5666987154
 10
3.3693441879
 20
-14.6326167725
 10
3.3368809908
 20
-14.7039943082
  0
LINE
  5
323
100
AcDbEntity
  8
RACCORDO
100
AcDbLine
 62
7
  6
CONTINUOUS
 10
3.6569593879
 20
-14.1534331944
 11
3.6756841837
 21
-14.1219168053
  0
LINE
  5
324
100
AcDbEntity
  8
RACCORDO
100
AcDbLine
 62
7
  6
CONTINUOUS
 10
3.6654759151
 20
-14.1384854852
 11
3.675686011
 21
-14.121918571
  0
LWPOLYLINE
  5
325
100
AcDbEntity
  8
RACCORDO
100
AcDbPolyline
 62
253
  6
CONTINUOUS
 90
4
 70
0
 10
3.6448905293
 20
-14.1193407086
 10
3.6306927527
 20
-14.1423295161
 10
3.614847814
 20
-14.1684631951
 10
3.5973541209
 20
-14.1976840414
  0
LWPOLYLINE
  5
326
100
AcDbEntity
  8
RACCORDO
100
AcDbPolyline
 62
253
  6
CONTINUOUS
 90
3
 70
0
 10
3.6782231484
 20
-14.0671933852
 10
3.6686088364
 20
-14.0820530843
 10
3.6448905293
 20
-14.1193407086
  0
LINE
  5
327
100
AcDbEntity
  8
RACCORDO
100
AcDbLine
 62
7
  6
CONTINUOUS
 10
3.649051148
 20
-14.1637054652
 11
3.6653887898
 21
-14.1386170237
  0
LINE
  5
328
100
AcDbEntity
  8
RACCORDO
100
AcDbLine
 62
7
  6
CONTINUOUS
 10
3.6654098771
 20
-14.1385851995
 11
3.6654759151
 21
-14.1384854852
  0
LWPOLYLINE
  5
329
100
AcDbEntity
  8
RACCORDO
100
AcDbPolyline
 62
253
  6
CONTINUOUS
 90
3
 70
0
 10
3.6992217521
 20
-14.0358178456
 10
3.6934170045
 20
-14.0444175603
 10
3.6782231484
 20
-14.0671933852
  0
LWPOLYLINE
  5
32A
100
AcDbEntity
  8
RACCORDO
100
AcDbPolyline
 62
253
  6
CONTINUOUS
 90
5
 70
0
 10
3.7119840374
 20
-14.0175121934
 10
3.7114995785
 20
-14.0181228123
 10
3.7099877077
 20
-14.0202828748
 10
3.7074353232
 20
-14.0239923808
 10
3.6992217521
 20
-14.0358178456
  0
LINE
  5
32B
100
AcDbEntity
  8
0
100
AcDbLine
 62
7
  6
CONTINUOUS
 10
-1.2930578659
 20
-1.0824359212
 11
1.5925794441
 21
-1.0824428862
  0
LINE
  5
32C
100
AcDbEntity
  8
0
100
AcDbLine
 62
7
  6
CONTINUOUS
 10
-1.2930578659
 20
-0.5053140312
 11
1.5925724791
 21
-0.5053219912
  0
LINE
  5
32D
100
AcDbEntity
  8
0
100
AcDbLine
 62
7
  6
CONTINUOUS
 10
-1.2930578659
 20
0.0717859688
 11
1.5925724791
 21
0.0717859688
  0
LINE
  5
32E
100
AcDbEntity
  8
0
100
AcDbLine
 62
7
  6
CONTINUOUS
 10
0.6938546491
 20
-2.6822297562
 11
-1.2930578659
 21
-2.0443103812
  0
LINE
  5
32F
100
AcDbEntity
  8
0
100
AcDbLine
 62
7
  6
CONTINUOUS
 10
1.5925724791
 20
-2.3936648312
 11
-1.2930578659
 21
-1.4671815262
  0
LWPOLYLINE
  5
330
100
AcDbEntity
  8
RACCORDO
100
AcDbPolyline
 62
253
  6
CONTINUOUS
 90
3
 70
0
 10
10.0246800772
 20
29.0423720452
 10
9.9920691906
 20
29.3637959821
 10
9.9426344475
 20
29.6952801986
  0
LINE
  5
331
100
AcDbEntity
  8
RACCORDO
100
AcDbLine
 62
7
  6
CONTINUOUS
 10
10.0621446639
 20
29.1883525575
 11
10.0442463243
 21
29.4923960327
  0
LINE
  5
332
100
AcDbEntity
  8
RACCORDO
100
AcDbLine
 62
7
  6
CONTINUOUS
 10
10.0621446639
 20
29.1883525575
 11
10.0621097177
 21
29.1892317918
  0
LINE
  5
333
100
AcDbEntity
  8
RACCORDO
100
AcDbLine
 62
7
  6
CONTINUOUS
 10
10.0688398493
 20
28.8500054781
 11
10.0620840842
 21
29.1892328591
  0
LWPOLYLINE
  5
334
100
AcDbEntity
  8
SUPERFICI
100
AcDbPolyline
 62
7
  6
CONTINUOUS
 90
10
 70
0
 10
1.8982701559
 20
-24.3442253907
 10
1.9524333857
 20
-24.3202746623
 10
2.0031807808
 20
-24.2902121559
 10
2.0500510826
 20
-24.2543495423
 10
2.0924385197
 20
-24.2131762914
 10
2.1296776025
 20
-24.1672691393
 10
2.1612266608
 20
-24.1172933472
 10
2.1866560206
 20
-24.0640178701
 10
2.2056086772
 20
-24.0081360037
 10
2.2178717707
 20
-23.9501631528
  0
LINE
  5
335
100
AcDbEntity
  8
0
100
AcDbLine
 62
7
  6
CONTINUOUS
 10
-0.3103073109
 20
0.6489068638
 11
1.5925724791
 21
0.6489068638
  0
LINE
  5
336
100
AcDbEntity
  8
0
100
AcDbLine
 62
7
  6
CONTINUOUS
 10
-0.3103073109
 20
2.3172820688
 11
1.5925724791
 21
2.3172890338
  0
LINE
  5
337
100
AcDbEntity
  8
0
100
AcDbLine
 62
7
  6
CONTINUOUS
 10
-1.2930578659
 20
2.8944109238
 11
1.5925724791
 21
2.8944109238
  0
LINE
  5
338
100
AcDbEntity
  8
0
100
AcDbLine
 62
7
  6
CONTINUOUS
 10
0.5861677891
 20
1.4830979488
 11
-1.2930578659
 21
2.0219581088
  0
LINE
  5
339
100
AcDbEntity
  8
0
100
AcDbLine
 62
7
  6
CONTINUOUS
 10
1.5925645191
 20
1.7716479488
 11
-0.3103073109
 21
2.3172820688
  0
LINE
  5
33A
100
AcDbEntity
  8
0
100
AcDbLine
 62
7
  6
CONTINUOUS
 10
1.5925724791
 20
3.2791565288
 11
-1.2930648309
 21
4.2056249088
  0
LINE
  5
33B
100
AcDbEntity
  8
0
100
AcDbLine
 62
7
  6
CONTINUOUS
 10
1.5925645191
 20
3.8562774238
 11
1.0250881591
 21
4.0384758538
  0
LINE
  5
33C
100
AcDbEntity
  8
0
100
AcDbLine
 62
7
  6
CONTINUOUS
 10
0.4768212691
 20
4.2145122488
 11
-0.3943400359
 21
4.4941967988
  0
LINE
  5
33D
100
AcDbEntity
  8
0
100
AcDbLine
 62
7
  6
CONTINUOUS
 10
-1.2930648309
 20
6.0940045638
 11
1.5925645191
 21
6.0940045638
  0
LINE
  5
33E
100
AcDbEntity
  8
0
100
AcDbLine
 62
7
  6
CONTINUOUS
 10
-0.7592264359
 20
6.6631694388
 11
-0.0570250859
 21
6.6631764038
  0
LINE
  5
33F
100
AcDbEntity
  8
0
100
AcDbLine
 62
7
  6
CONTINUOUS
 10
0.4768143041
 20
6.6711980938
 11
1.5925645191
 21
6.6711334188
  0
LWPOLYLINE
  5
340
100
AcDbEntity
  8
SUPERFICI
100
AcDbPolyline
 62
7
  6
CONTINUOUS
 90
10
 70
0
 10
2.610523776
 20
12.2689128849
 10
2.3518023427
 20
12.5017446906
 10
2.0832072063
 20
12.7053360756
 10
1.8095725703
 20
12.8795734578
 10
1.5296155334
 20
13.0239814002
 10
1.2446189971
 20
13.1394092267
 10
0.9632658691
 20
13.2276811789
 10
0.6884504523
 20
13.2894599045
 10
0.417278444
 20
13.3242545826
 10
0.1497498441
 20
13.3321058766
  0
LWPOLYLINE
  5
341
100
AcDbEntity
  8
SUPERFICI
100
AcDbPolyline
 62
7
  6
CONTINUOUS
 90
16
 70
0
 10
2.9977753888
 20
13.2140797817
 10
3.333493646
 20
12.8729685645
 10
3.6410598625
 20
12.4920261988
 10
3.920730458
 20
12.0739935231
 10
4.1736734951
 20
11.6221556662
 10
4.3996903669
 20
11.1380548474
 10
4.5974485888
 20
10.6217491338
 10
4.7679892922
 20
10.0753957295
 10
4.9125295533
 20
9.5008621424
 10
5.0306725597
 20
8.8978048715
 10
5.1243391674
 20
8.2673115524
 10
5.1947989363
 20
7.6111248828
 10
5.2412800392
 20
6.92972085
 10
5.2648089784
 20
6.2236990483
 10
5.2678173163
 20
5.4937150436
 10
5.2517976736
 20
4.7399598664
  0
LWPOLYLINE
  5
342
100
AcDbEntity
  8
RACCORDO
100
AcDbPolyline
 62
253
  6
CONTINUOUS
 90
3
 70
0
 10
9.9426344475
 20
29.6952801986
 10
9.8753418447
 20
30.0368246945
 10
9.789225355
 20
30.3905860917
  0
LWPOLYLINE
  5
343
100
AcDbEntity
  8
RACCORDO
100
AcDbPolyline
 62
7
  6
CONTINUOUS
 90
13
 70
0
 10
10.0442463243
 20
29.4923960327
 10
9.8878163131
 20
30.6011063705
 10
9.5982510407
 20
31.6776395013
 10
9.1838781873
 20
32.7126140838
 10
8.6515760577
 20
33.6946486134
 10
8.010006835
 20
34.6100784183
 10
7.267098202
 20
35.4484207095
 10
6.4311815509
 20
36.1995626569
 10
5.5152986724
 20
36.8512799272
 10
4.5334558161
 20
37.3947387762
 10
3.5006806433
 20
37.8229872849
 10
2.4365486409
 20
38.1312348848
 10
1.3608449687
 20
38.3194998465
  0
LWPOLYLINE
  5
344
100
AcDbEntity
  8
SUPERFICI
100
AcDbPolyline
 62
7
  6
CONTINUOUS
 90
7
 70
0
 10
0.1497498636
 20
13.5542425605
 10
-0.2753587366
 20
13.5234263583
 10
-0.6868186376
 20
13.4411497495
 10
-1.0846298396
 20
13.3072304894
 10
-1.4725398112
 20
13.1176084443
 10
-1.8468010837
 20
12.8756311555
 10
-2.196171251
 20
12.5921863536
  0
LWPOLYLINE
  5
345
100
AcDbEntity
  8
SUPERFICI
100
AcDbPolyline
 62
7
  6
CONTINUOUS
 90
10
 70
0
 10
0.1497498441
 20
13.3321058766
 10
-0.119166852
 20
13.3241639884
 10
-0.391693004
 20
13.2890158158
 10
-0.6678286119
 20
13.2266198838
 10
-0.9504989797
 20
13.1374578797
 10
-1.2367788034
 20
13.0208728743
 10
-1.5178921706
 20
12.8750612674
 10
-1.7925052796
 20
12.6992122874
 10
-2.061951932
 20
12.4937566016
 10
-2.3214576205
 20
12.2587020355
  0
LWPOLYLINE
  5
346
100
AcDbEntity
  8
SUPERFICI
100
AcDbPolyline
 62
7
  6
CONTINUOUS
 90
7
 70
0
 10
1.7022406731
 20
14.0510212116
 10
1.9320895825
 20
13.950483697
 10
2.1566526448
 20
13.8339188512
 10
2.3757082395
 20
13.7016596705
 10
2.5890454602
 20
13.5540416234
 10
2.7964642275
 20
13.3914020832
 10
2.9977753888
 20
13.2140797817
  0
LWPOLYLINE
  5
347
100
AcDbEntity
  8
RACCORDO
100
AcDbPolyline
 62
253
  6
CONTINUOUS
 90
48
 70
0
 10
9.789225355
 20
30.3905860917
 10
9.6834423448
 20
30.7544077684
 10
9.5580114691
 20
31.1218198594
 10
9.4124807058
 20
31.4929870687
 10
9.2464772392
 20
31.8677446922
 10
9.0612313512
 20
32.2391287526
 10
8.8555374685
 20
32.6083694283
 10
8.6308531841
 20
32.9742365408
 10
8.3928205049
 20
33.326075578
 10
8.1431019567
 20
33.6625771574
 10
7.8813405998
 20
33.9850506614
 10
7.6152401129
 20
34.2867697251
 10
7.3504449069
 20
34.5642466045
 10
7.0857862969
 20
34.8209690435
 10
6.8210227901
 20
35.0606739089
 10
6.5570460109
 20
35.2834672193
 10
6.2946819857
 20
35.4892429561
 10
6.032502309
 20
35.6814199298
 10
5.7712792379
 20
35.8605574844
 10
5.5126532529
 20
36.0260962759
 10
5.2571817787
 20
36.1797770819
 10
5.0048363407
 20
36.3216541907
 10
4.7561824288
 20
36.451673314
 10
4.5121833788
 20
36.5714123648
 10
4.2739650585
 20
36.6807146743
 10
4.0414297256
 20
36.7797369113
 10
3.8139845385
 20
36.8705269957
 10
3.5920245359
 20
36.95318165
 10
3.3756777865
 20
37.0276041515
 10
3.1639295233
 20
37.0955522525
 10
2.9568905976
 20
37.1571906064
 10
2.7550299273
 20
37.2123545598
 10
2.5578027046
 20
37.2623079041
 10
2.3652042308
 20
37.3071456295
 10
2.1773272888
 20
37.3467727459
 10
1.9939863856
 20
37.3821680746
 10
1.8154725788
 20
37.4133753895
 10
1.6419567449
 20
37.4403509168
 10
1.4730258568
 20
37.4639421564
 10
1.3087436919
 20
37.4841921251
 10
1.1491716372
 20
37.5010578061
 10
0.9939440929
 20
37.5152576491
 10
0.8431303116
 20
37.5268346363
 10
0.6967032598
 20
37.5357457855
 10
0.5541869871
 20
37.5425806003
 10
0.4154309602
 20
37.5475355818
 10
0.2806141052
 20
37.5504142289
 10
0.1497498441
 20
37.5512165417
  0
LWPOLYLINE
  5
348
100
AcDbEntity
  8
SUPERFICI
100
AcDbPolyline
 62
7
  6
CONTINUOUS
 90
7
 70
0
 10
0.1497498441
 20
14.3529387738
 10
0.4093587013
 20
14.3493616495
 10
0.6691978615
 20
14.3271466527
 10
0.9288464723
 20
14.2862321932
 10
1.1878702535
 20
14.2265795053
 10
1.4458217585
 20
14.1481731047
 10
1.7022406731
 20
14.0510212116
  0
LWPOLYLINE
  5
349
100
AcDbEntity
  8
RACCORDO
100
AcDbPolyline
 62
7
  6
CONTINUOUS
 90
13
 70
0
 10
-0.9832494289
 20
38.3285897707
 10
-2.0608386167
 20
38.1485275146
 10
-3.1273949277
 20
37.8485200113
 10
-4.1633455967
 20
37.4284284689
 10
-5.1494903165
 20
36.8926819678
 10
-6.0705000732
 20
36.2481203857
 10
-6.912456624
 20
35.5034973128
 10
-7.6623134049
 20
34.6706461202
 10
-8.3114338251
 20
33.7598119817
 10
-8.8517849458
 20
32.7813032865
 10
-9.274812672
 20
31.7483996326
 10
-9.5733597631
 20
30.6724656673
 10
-9.7390481517
 20
29.5628875739
  0
LINE
  5
34A
100
AcDbEntity
  8
RACCORDO
100
AcDbLine
 62
7
  6
CONTINUOUS
 10
0.1490011437
 20
38.3930171126
 11
-0.9832494289
 21
38.3285897707
  0
LWPOLYLINE
  5
34B
100
AcDbEntity
  8
RACCORDO
100
AcDbPolyline
 62
253
  6
CONTINUOUS
 90
51
 70
0
 10
0.1497498441
 20
37.5512165417
 10
0.0223050168
 20
37.550445867
 10
-0.1089438087
 20
37.5477110547
 10
-0.243984235
 20
37.5430121047
 10
-0.3827306694
 20
37.5365217047
 10
-0.525242405
 20
37.528067167
 10
-0.6717204166
 20
37.5171304289
 10
-0.8221859044
 20
37.5037361873
 10
-0.9765799009
 20
37.4878597452
 10
-1.1349973628
 20
37.4689089488
 10
-1.2974182636
 20
37.4469057503
 10
-1.4638018584
 20
37.4218281975
 10
-1.6343030395
 20
37.3930182796
 10
-1.8087587601
 20
37.3604950231
 10
-1.9869491877
 20
37.3242394014
 10
-2.1688971269
 20
37.2835363239
 10
-2.3544582863
 20
37.2384326764
 10
-2.5437116296
 20
37.1888815731
 10
-2.7368058097
 20
37.1340272659
 10
-2.9333323502
 20
37.0739746203
 10
-3.1332754251
 20
37.0086187708
 10
-3.3373037696
 20
36.9367893731
 10
-3.5452174103
 20
36.8585815316
 10
-3.7568017461
 20
36.7739001419
 10
-3.9726449591
 20
36.6812895466
 10
-4.19269289
 20
36.5807379281
 10
-4.4165087951
 20
36.4722571039
 10
-4.6438555657
 20
36.354426869
 10
-4.8746561878
 20
36.2271900068
 10
-5.1085015539
 20
36.0906037338
 10
-5.3448510686
 20
35.9434194942
 10
-5.5829477349
 20
35.7858651458
 10
-5.8224047866
 20
35.6177128308
 10
-6.06315793
 20
35.4370304201
 10
-6.3046343264
 20
35.2440842104
 10
-6.546967625
 20
35.0386079051
 10
-6.7900774685
 20
34.8178704854
 10
-7.033166556
 20
34.5815684565
 10
-7.2754029602
 20
34.3300053132
 10
-7.5163991724
 20
34.0613605206
 10
-7.7560202575
 20
33.7734337614
 10
-7.9900874903
 20
33.468425353
 10
-8.2145998144
 20
33.1511157122
 10
-8.4286809708
 20
32.8206101671
 10
-8.6312143398
 20
32.4778033896
 10
-8.8181996709
 20
32.1301598124
 10
-8.9885719835
 20
31.7780192429
 10
-9.142687578
 20
31.4210418736
 10
-9.2788370165
 20
31.0656727148
 10
-9.3972848194
 20
30.711754096
 10
-9.4979949302
 20
30.3594436876
  0
LWPOLYLINE
  5
34C
100
AcDbEntity
  8
RACCORDO
100
AcDbPolyline
 62
7
  6
CONTINUOUS
 90
3
 70
0
 10
1.3608449687
 20
38.3194998465
 10
0.2917428811
 20
38.3917824936
 10
0.1490046802
 20
38.3930198688
  0
LWPOLYLINE
  5
34D
100
AcDbEntity
  8
0
100
AcDbPolyline
 62
7
  6
CONTINUOUS
 90
7
 70
0
 10
36.610303487
 20
28.6471168747
 10
36.56048777
 20
28.6286733675
 10
36.5117856069
 20
28.6070053018
 10
36.464375847
 20
28.5821689092
 10
36.4183992346
 20
28.5541990996
 10
36.3740609958
 20
28.5231812765
 10
36.3316362602
 20
28.4892594115
  0
LINE
  5
34E
100
AcDbEntity
  8
0
100
AcDbLine
 62
7
  6
CONTINUOUS
 10
40.7128596914
 20
34.1450625759
 11
40.7126249093
 21
34.1448458159
  0
LINE
  5
34F
100
AcDbEntity
  8
SUPERFICI
100
AcDbLine
 62
7
  6
CONTINUOUS
 10
38.1082809278
 20
31.1182690046
 11
38.203184342
 21
31.2016255594
  0
LINE
  5
350
100
AcDbEntity
  8
0
100
AcDbLine
 62
7
  6
CONTINUOUS
 10
38.2054921636
 20
31.2035598627
 11
38.1082809278
 21
31.1182690046
  0
LWPOLYLINE
  5
351
100
AcDbEntity
  8
RACCORDO
100
AcDbPolyline
 62
7
  6
CONTINUOUS
 90
10
 70
0
 10
44.8850351636
 20
38.2054210643
 10
44.4858979763
 20
37.8654444493
 10
44.0912822319
 20
37.5202955821
 10
43.7012436086
 20
37.1700241868
 10
43.315825184
 20
36.8146685678
 10
42.9350935428
 20
36.4542887518
 10
42.5591374913
 20
36.0889682234
 10
42.1880204839
 20
35.7187689097
 10
41.8217819141
 20
35.3437294468
 10
41.4604723208
 20
34.9638995367
  0
LWPOLYLINE
  5
352
100
AcDbEntity
  8
SUPERFICI
100
AcDbPolyline
 62
7
  6
CONTINUOUS
 90
3
 70
0
 10
38.203184342
 20
31.2016255594
 10
38.3016221058
 20
31.2804237699
 10
38.317741122
 20
31.2920874106
  0
LINE
  5
353
100
AcDbEntity
  8
0
100
AcDbLine
 62
7
  6
CONTINUOUS
 10
38.203184342
 20
31.2016255594
 11
38.3016221058
 21
31.2804237699
  0
LINE
  5
354
100
AcDbEntity
  8
0
100
AcDbLine
 62
7
  6
CONTINUOUS
 10
38.3177287021
 20
31.292069364
 11
38.2997439571
 21
31.2789901878
  0
LWPOLYLINE
  5
355
100
AcDbEntity
  8
0
100
AcDbPolyline
 62
253
  6
CONTINUOUS
 90
6
 70
0
 10
35.4588770946
 20
26.7980564986
 10
35.4120134368
 20
26.7706432969
 10
35.3702732592
 20
26.7386749783
 10
35.3335549402
 20
26.7025012759
 10
35.3016567186
 20
26.6627848658
 10
35.2745243661
 20
26.6200397622
  0
LINE
  5
356
100
AcDbEntity
  8
0
100
AcDbLine
 62
7
  6
CONTINUOUS
 10
39.2299442885
 20
32.3746066648
 11
39.2299072887
 21
32.3745645614
  0
LINE
  5
357
100
AcDbEntity
  8
0
100
AcDbLine
 62
7
  6
CONTINUOUS
 10
37.9363951049
 20
30.9464345369
 11
37.8466968041
 21
30.8442165345
  0
LWPOLYLINE
  5
358
100
AcDbEntity
  8
0
100
AcDbPolyline
 62
7
  6
CONTINUOUS
 90
6
 70
0
 10
36.2145956081
 20
27.2282665361
 10
36.1751830474
 20
27.1854269331
 10
36.1435195593
 20
27.1586120136
 10
36.1191132446
 20
27.148074471
 10
36.1030707082
 20
27.1540376639
 10
36.0986360239
 20
27.1640375684
  0
LWPOLYLINE
  5
359
100
AcDbEntity
  8
SUPERFICI
100
AcDbPolyline
 62
7
  6
CONTINUOUS
 90
3
 70
0
 10
37.9298829342
 20
30.9393305424
 10
38.0171213009
 20
31.0307396866
 10
38.1082809278
 20
31.1182690046
  0
LINE
  5
35A
100
AcDbEntity
  8
0
100
AcDbLine
 62
7
  6
CONTINUOUS
 10
38.0236017213
 20
31.037219848
 11
37.9298829342
 21
30.9393305424
  0
LINE
  5
35B
100
AcDbEntity
  8
0
100
AcDbLine
 62
7
  6
CONTINUOUS
 10
38.1133559243
 20
31.122920419
 11
38.0171213009
 21
31.0307396866
  0
LWPOLYLINE
  5
35C
100
AcDbEntity
  8
0
100
AcDbPolyline
 62
7
  6
CONTINUOUS
 90
10
 70
0
 10
36.3316362602
 20
28.4892594115
 10
36.3149089181
 20
28.4745970966
 10
36.2985936105
 20
28.4595193061
 10
36.2827004508
 20
28.44403703
 10
36.2672380102
 20
28.4281598077
 10
36.2522143526
 20
28.4118972193
 10
36.2376385155
 20
28.3952604506
 10
36.2235175163
 20
28.3782588656
 10
36.2098566064
 20
28.3608997697
 10
36.1966618656
 20
28.3431913971
  0
LWPOLYLINE
  5
35D
100
AcDbEntity
  8
RACCORDO
100
AcDbPolyline
 62
253
  6
CONTINUOUS
 90
5
 70
0
 10
32.5436963064
 20
19.5609261458
 10
32.495643487
 20
19.5254640052
 10
32.4822273501
 20
19.5147235184
 10
32.474728075
 20
19.5095900952
 10
32.4722928748
 20
19.5100637357
  0
LWPOLYLINE
  5
35E
100
AcDbEntity
  8
SUPERFICI
100
AcDbPolyline
 62
7
  6
CONTINUOUS
 90
5
 70
0
 10
36.9015946869
 20
29.2835781834
 10
36.9010434301
 20
29.2827396877
 10
36.8958517753
 20
29.2744248553
 10
36.8905402164
 20
29.2650191056
 10
36.8851841412
 20
29.2544018913
  0
LINE
  5
35F
100
AcDbEntity
  8
SUPERFICI
100
AcDbLine
 62
7
  6
CONTINUOUS
 10
39.2688899067
 20
32.7074869861
 11
39.1270949851
 21
32.4916876371
  0
LINE
  5
360
100
AcDbEntity
  8
0
100
AcDbLine
 62
7
  6
CONTINUOUS
 10
39.2688899157
 20
32.7074869999
 11
39.1270950036
 21
32.491687665
  0
LINE
  5
361
100
AcDbEntity
  8
SUPERFICI
100
AcDbLine
 62
7
  6
CONTINUOUS
 10
39.1270949851
 20
32.4916876371
 11
38.9551112382
 21
32.2325087773
  0
LINE
  5
362
100
AcDbEntity
  8
0
100
AcDbLine
 62
7
  6
CONTINUOUS
 10
39.1270950036
 20
32.491687665
 11
38.9551112666
 21
32.2325088198
  0
LINE
  5
363
100
AcDbEntity
  8
0
100
AcDbLine
 62
7
  6
CONTINUOUS
 10
37.6214253603
 20
30.536369554
 11
37.6929911728
 21
30.6435400938
  0
LINE
  5
364
100
AcDbEntity
  8
SUPERFICI
100
AcDbLine
 62
7
  6
CONTINUOUS
 10
36.2162760939
 20
27.8037019123
 11
36.21137721
 21
27.7963952596
  0
LINE
  5
365
100
AcDbEntity
  8
SUPERFICI
100
AcDbLine
 62
7
  6
CONTINUOUS
 10
38.9551112382
 20
32.2325087773
 11
38.7600100194
 21
31.9414526332
  0
LINE
  5
366
100
AcDbEntity
  8
0
100
AcDbLine
 62
7
  6
CONTINUOUS
 10
38.9551112666
 20
32.2325088198
 11
38.7600100579
 21
31.9414526904
  0
LINE
  5
367
100
AcDbEntity
  8
SUPERFICI
100
AcDbLine
 62
7
  6
CONTINUOUS
 10
39.3060195615
 20
32.1682124673
 11
39.0735202278
 21
31.821720726
  0
LINE
  5
368
100
AcDbEntity
  8
SUPERFICI
100
AcDbLine
 62
7
  6
CONTINUOUS
 10
38.7600100194
 20
31.9414526332
 11
38.5579114717
 21
31.6429852895
  0
LINE
  5
369
100
AcDbEntity
  8
0
100
AcDbLine
 62
7
  6
CONTINUOUS
 10
38.7600100579
 20
31.9414526904
 11
38.5579115198
 21
31.6429853602
  0
LINE
  5
36A
100
AcDbEntity
  8
SUPERFICI
100
AcDbLine
 62
7
  6
CONTINUOUS
 10
39.0735202278
 20
31.821720726
 11
38.8264162463
 21
31.4572460272
  0
LWPOLYLINE
  5
36B
100
AcDbEntity
  8
0
100
AcDbPolyline
 62
7
  6
CONTINUOUS
 90
7
 70
0
 10
36.1967037474
 20
28.3431574085
 10
36.1872579095
 20
28.3293051167
 10
36.1779344932
 20
28.3153301979
 10
36.1687358004
 20
28.3012339322
 10
36.1596641623
 20
28.2870176048
 10
36.1507219402
 20
28.2726825054
 10
36.1419227711
 20
28.2582485912
  0
LINE
  5
36C
100
AcDbEntity
  8
0
100
AcDbLine
 62
7
  6
CONTINUOUS
 10
38.98835139
 20
31.8046218724
 11
38.6744404307
 21
31.3446717375
  0
LINE
  5
36D
100
AcDbEntity
  8
0
100
AcDbLine
 62
7
  6
CONTINUOUS
 10
39.1619718219
 20
31.3813054566
 11
38.751335758
 21
30.7826836374
  0
LINE
  5
36E
100
AcDbEntity
  8
SUPERFICI
100
AcDbLine
 62
7
  6
CONTINUOUS
 10
36.905838589
 20
29.2897626204
 11
36.9015946869
 21
29.2835781834
  0
LINE
  5
36F
100
AcDbEntity
  8
SUPERFICI
100
AcDbLine
 62
7
  6
CONTINUOUS
 10
38.5579114717
 20
31.6429852895
 11
38.3298171943
 21
31.3096345127
  0
LWPOLYLINE
  5
370
100
AcDbEntity
  8
0
100
AcDbPolyline
 62
7
  6
CONTINUOUS
 90
3
 70
0
 10
38.5579115198
 20
31.6429853602
 10
38.3298172516
 20
31.3096345961
 10
38.317741122
 20
31.2920874105
  0
LINE
  5
371
100
AcDbEntity
  8
SUPERFICI
100
AcDbLine
 62
7
  6
CONTINUOUS
 10
38.8264162463
 20
31.4572460272
 11
38.5659653771
 21
31.0769928242
  0
LINE
  5
372
100
AcDbEntity
  8
0
100
AcDbLine
 62
7
  6
CONTINUOUS
 10
38.6744404307
 20
31.3446717375
 11
38.3491768692
 21
30.8726518483
  0
LINE
  5
373
100
AcDbEntity
  8
SUPERFICI
100
AcDbLine
 62
7
  6
CONTINUOUS
 10
38.3298171943
 20
31.3096345127
 11
38.0809617598
 21
30.9495406226
  0
LINE
  5
374
100
AcDbEntity
  8
SUPERFICI
100
AcDbLine
 62
7
  6
CONTINUOUS
 10
38.5659653771
 20
31.0769928242
 11
38.2935944267
 21
30.6834032528
  0
LINE
  5
375
100
AcDbEntity
  8
0
100
AcDbLine
 62
7
  6
CONTINUOUS
 10
38.3491768692
 20
30.8726518483
 11
38.0271623365
 21
30.4095535893
  0
LINE
  5
376
100
AcDbEntity
  8
0
100
AcDbLine
 62
7
  6
CONTINUOUS
 10
38.751335758
 20
30.7826836374
 11
38.3395013587
 21
30.1908549831
  0
LINE
  5
377
100
AcDbEntity
  8
0
100
AcDbLine
 62
7
  6
CONTINUOUS
 10
37.61198922
 20
29.1549630826
 11
38.2439263748
 21
30.0628232068
  0
LINE
  5
378
100
AcDbEntity
  8
0
100
AcDbLine
 62
7
  6
CONTINUOUS
 10
38.335376748
 20
30.1937439532
 11
38.2439263748
 21
30.0628232068
  0
LINE
  5
379
100
AcDbEntity
  8
SUPERFICI
100
AcDbLine
 62
7
  6
CONTINUOUS
 10
38.0809617598
 20
30.9495406226
 11
37.7762021349
 21
30.5129268476
  0
LINE
  5
37A
100
AcDbEntity
  8
0
100
AcDbLine
 62
7
  6
CONTINUOUS
 10
37.3931061232
 20
29.51259285
 11
38.0228847857
 21
30.4125502619
  0
LINE
  5
37B
100
AcDbEntity
  8
SUPERFICI
100
AcDbLine
 62
7
  6
CONTINUOUS
 10
38.2935944267
 20
30.6834032528
 11
38.0111852363
 21
30.2793816712
  0
LINE
  5
37C
100
AcDbEntity
  8
SUPERFICI
100
AcDbLine
 62
7
  6
CONTINUOUS
 10
37.7762021349
 20
30.5129268476
 11
37.4593665098
 21
30.0634999443
  0
LINE
  5
37D
100
AcDbEntity
  8
0
100
AcDbLine
 62
7
  6
CONTINUOUS
 10
37.2531924567
 20
28.6463746224
 11
37.61198922
 21
29.1549630826
  0
LINE
  5
37E
100
AcDbEntity
  8
SUPERFICI
100
AcDbLine
 62
7
  6
CONTINUOUS
 10
38.0111852363
 20
30.2793816712
 11
37.7209837079
 21
29.8683032008
  0
LINE
  5
37F
100
AcDbEntity
  8
0
100
AcDbLine
 62
7
  6
CONTINUOUS
 10
37.1544455402
 20
29.1755233867
 11
37.3931061232
 21
29.51259285
  0
LINE
  5
380
100
AcDbEntity
  8
SUPERFICI
100
AcDbLine
 62
7
  6
CONTINUOUS
 10
37.4593665098
 20
30.0634999443
 11
37.1441390323
 21
29.6206299028
  0
LINE
  5
381
100
AcDbEntity
  8
SUPERFICI
100
AcDbLine
 62
7
  6
CONTINUOUS
 10
37.7209837079
 20
29.8683032008
 11
37.4256475971
 21
29.4541042063
  0
LINE
  5
382
100
AcDbEntity
  8
0
100
AcDbLine
 62
7
  6
CONTINUOUS
 10
37.2967225136
 20
29.8344339565
 11
37.0675637659
 21
29.5138403331
  0
LINE
  5
383
100
AcDbEntity
  8
0
100
AcDbLine
 62
7
  6
CONTINUOUS
 10
36.9289147544
 20
28.8606856389
 11
37.1544455402
 21
29.1755233867
  0
LINE
  5
384
100
AcDbEntity
  8
SUPERFICI
100
AcDbLine
 62
7
  6
CONTINUOUS
 10
37.1441390323
 20
29.6206299028
 11
36.9554467076
 21
29.3582773431
  0
LINE
  5
385
100
AcDbEntity
  8
SUPERFICI
100
AcDbLine
 62
7
  6
CONTINUOUS
 10
37.4256475971
 20
29.4541042063
 11
37.1280230651
 21
29.040899367
  0
LWPOLYLINE
  5
386
100
AcDbEntity
  8
0
100
AcDbPolyline
 62
7
  6
CONTINUOUS
 90
3
 70
0
 10
36.7309726706
 20
27.9189036362
 10
36.9008935783
 20
28.1533409774
 10
37.2531924567
 20
28.6463746224
  0
LINE
  5
387
100
AcDbEntity
  8
SUPERFICI
100
AcDbLine
 62
7
  6
CONTINUOUS
 10
36.9554467076
 20
29.3582773431
 11
36.905838589
 21
29.2897626204
  0
LINE
  5
388
100
AcDbEntity
  8
0
100
AcDbLine
 62
7
  6
CONTINUOUS
 10
37.0675637659
 20
29.5138403331
 11
36.9074578769
 21
29.2920411007
  0
LINE
  5
389
100
AcDbEntity
  8
SUPERFICI
100
AcDbLine
 62
7
  6
CONTINUOUS
 10
37.1280230651
 20
29.040899367
 11
36.8314537876
 21
28.6334999716
  0
LINE
  5
38A
100
AcDbEntity
  8
SUPERFICI
100
AcDbLine
 62
7
  6
CONTINUOUS
 10
37.6938083979
 20
30.6447078381
 11
37.7676907971
 21
30.7455647852
  0
LINE
  5
38B
100
AcDbEntity
  8
0
100
AcDbLine
 62
7
  6
CONTINUOUS
 10
37.7707475511
 20
30.7495485526
 11
37.6929927993
 21
30.6435424166
  0
LINE
  5
38C
100
AcDbEntity
  8
SUPERFICI
100
AcDbLine
 62
7
  6
CONTINUOUS
 10
36.8314537876
 20
28.6334999716
 11
36.6125781434
 21
28.335826938
  0
LWPOLYLINE
  5
38D
100
AcDbEntity
  8
SUPERFICI
100
AcDbPolyline
 62
7
  6
CONTINUOUS
 90
3
 70
0
 10
36.2262195123
 20
27.8176121511
 10
36.2225313026
 20
27.8126262484
 10
36.216325533
 20
27.803774779
  0
LINE
  5
38E
100
AcDbEntity
  8
SUPERFICI
100
AcDbLine
 62
7
  6
CONTINUOUS
 10
36.6125781434
 20
28.335826938
 11
36.3991811544
 21
28.0483494644
  0
LINE
  5
38F
100
AcDbEntity
  8
SUPERFICI
100
AcDbLine
 62
7
  6
CONTINUOUS
 10
36.3991811544
 20
28.0483494644
 11
36.2262519407
 21
27.8176599452
  0
LWPOLYLINE
  5
390
100
AcDbEntity
  8
0
100
AcDbPolyline
 62
7
  6
CONTINUOUS
 90
4
 70
0
 10
36.2614556191
 20
27.2868254571
 10
36.4106174965
 20
27.4850207442
 10
36.5673957376
 20
27.6960570336
 10
36.7309726706
 20
27.9189036362
  0
LWPOLYLINE
  5
391
100
AcDbEntity
  8
0
100
AcDbPolyline
 62
7
  6
CONTINUOUS
 90
6
 70
0
 10
36.9289183645
 20
28.8606899833
 10
36.8740134891
 20
28.7893784714
 10
36.8291350232
 20
28.7358290621
 10
36.7962021875
 20
28.7026943489
 10
36.7764638884
 20
28.691937525
 10
36.771304919
 20
28.6981570304
  0
LINE
  5
392
100
AcDbEntity
  8
RACCORDO
100
AcDbLine
 62
253
  6
CONTINUOUS
 10
34.2706192949
 20
21.5049590396
 11
33.9678759548
 21
21.1260512338
  0
LINE
  5
393
100
AcDbEntity
  8
0
100
AcDbLine
 62
7
  6
CONTINUOUS
 10
36.2614556191
 20
27.2868254571
 11
36.2145956081
 21
27.2282665361
  0
LWPOLYLINE
  5
394
100
AcDbEntity
  8
SUPERFICI
100
AcDbPolyline
 62
7
  6
CONTINUOUS
 90
3
 70
0
 10
37.7676907971
 20
30.7455647852
 10
37.8466968041
 20
30.8442165345
 10
37.9298829342
 20
30.9393305424
  0
LINE
  5
395
100
AcDbEntity
  8
0
100
AcDbLine
 62
7
  6
CONTINUOUS
 10
37.8519897532
 20
30.8505219052
 11
37.7676907971
 21
30.7455647852
  0
LINE
  5
396
100
AcDbEntity
  8
RACCORDO
100
AcDbLine
 62
253
  6
CONTINUOUS
 10
40.277704926
 20
29.3582818679
 11
39.9258084035
 21
28.9240916849
  0
LINE
  5
397
100
AcDbEntity
  8
RACCORDO
100
AcDbLine
 62
253
  6
CONTINUOUS
 10
33.9678759548
 20
21.1260512338
 11
33.8182569757
 21
20.9427705843
  0
LINE
  5
398
100
AcDbEntity
  8
RACCORDO
100
AcDbLine
 62
253
  6
CONTINUOUS
 10
39.9258084035
 20
28.9240916849
 11
39.3347622363
 21
28.2029766126
  0
LWPOLYLINE
  5
399
100
AcDbEntity
  8
RACCORDO
100
AcDbPolyline
 62
253
  6
CONTINUOUS
 90
3
 70
0
 10
39.3347622363
 20
28.2029766126
 10
38.9249471253
 20
27.707605706
 10
38.8635111728
 20
27.6339196371
  0
LWPOLYLINE
  5
39A
100
AcDbEntity
  8
0
100
AcDbPolyline
 62
7
  6
CONTINUOUS
 90
4
 70
0
 10
39.9242909702
 20
33.2295340198
 10
40.0536597523
 20
33.3836226675
 10
40.1838391439
 20
33.5371014572
 10
40.2447318592
 20
33.6081642735
  0
LWPOLYLINE
  5
39B
100
AcDbEntity
  8
RACCORDO
100
AcDbPolyline
 62
253
  6
CONTINUOUS
 90
13
 70
0
 10
33.8182569757
 20
20.9427705843
 10
33.52536022
 20
20.5925613518
 10
33.3877644707
 20
20.4317720883
 10
33.2574514535
 20
20.2834010442
 10
33.1349023661
 20
20.1465014663
 10
33.0229406624
 20
20.0240167883
 10
32.9212659402
 20
19.9171644747
 10
32.8298775575
 20
19.824727061
 10
32.7506707072
 20
19.7459955875
 10
32.6831469823
 20
19.6820133476
 10
32.6262408208
 20
19.6317370477
 10
32.5799936553
 20
19.5913278477
 10
32.5436963064
 20
19.5609261458
  0
LINE
  5
39C
100
AcDbEntity
  8
0
100
AcDbLine
 62
7
  6
CONTINUOUS
 10
34.4671980262
 20
24.712818418
 11
34.7181241637
 21
25.2266175197
  0
LWPOLYLINE
  5
39D
100
AcDbEntity
  8
0
100
AcDbPolyline
 62
7
  6
CONTINUOUS
 90
3
 70
0
 10
37.437383278
 20
30.2003323284
 10
37.4946611565
 20
30.3166380758
 10
37.5181032122
 20
30.3607599654
  0
LINE
  5
39E
100
AcDbEntity
  8
0
100
AcDbLine
 62
7
  6
CONTINUOUS
 10
34.3812210553
 20
24.539493947
 11
34.4671980262
 21
24.712818418
  0
LWPOLYLINE
  5
39F
100
AcDbEntity
  8
0
100
AcDbPolyline
 62
7
  6
CONTINUOUS
 90
3
 70
0
 10
34.7556614634
 20
25.7401138768
 10
34.5787866634
 20
25.3863565293
 10
34.4053924629
 20
25.0308587503
  0
LINE
  5
3A0
100
AcDbEntity
  8
0
100
AcDbLine
 62
7
  6
CONTINUOUS
 10
34.7181241637
 20
25.2266175197
 11
34.8571819913
 21
25.5057121666
  0
LINE
  5
3A1
100
AcDbEntity
  8
0
100
AcDbLine
 62
7
  6
CONTINUOUS
 10
34.3489203972
 20
24.4749483219
 11
34.3812210553
 21
24.539493947
  0
LWPOLYLINE
  5
3A2
100
AcDbEntity
  8
SUPERFICI
100
AcDbPolyline
 62
7
  6
CONTINUOUS
 90
3
 70
0
 10
35.5788758043
 20
27.2472049155
 10
35.4455653148
 20
26.9817747466
 10
35.3183773954
 20
26.71753761
  0
LINE
  5
3A3
100
AcDbEntity
  8
SUPERFICI
100
AcDbLine
 62
7
  6
CONTINUOUS
 10
35.2804223566
 20
26.6340477308
 11
35.2673152422
 21
26.6082402309
  0
LINE
  5
3A4
100
AcDbEntity
  8
0
100
AcDbLine
 62
7
  6
CONTINUOUS
 10
34.8571819913
 20
25.5057121666
 11
34.9983135404
 21
25.7835465946
  0
LINE
  5
3A5
100
AcDbEntity
  8
0
100
AcDbLine
 62
7
  6
CONTINUOUS
 10
34.9360036715
 20
26.0921053554
 11
34.7556614634
 21
25.7401138768
  0
LINE
  5
3A6
100
AcDbEntity
  8
SUPERFICI
100
AcDbLine
 62
253
  6
CONTINUOUS
 10
35.2581037123
 20
26.588245411
 11
35.2745243661
 21
26.6200397622
  0
LWPOLYLINE
  5
3A7
100
AcDbEntity
  8
0
100
AcDbPolyline
 62
7
  6
CONTINUOUS
 90
3
 70
0
 10
34.9983135404
 20
25.7835465946
 10
35.1416584516
 20
26.0603943963
 10
35.1911205195
 20
26.1545717618
  0
LINE
  5
3A8
100
AcDbEntity
  8
SUPERFICI
100
AcDbLine
 62
7
  6
CONTINUOUS
 10
35.7182415391
 20
27.5131077331
 11
35.5788758043
 21
27.2472049155
  0
LINE
  5
3A9
100
AcDbEntity
  8
0
100
AcDbLine
 62
7
  6
CONTINUOUS
 10
35.1198117158
 20
26.4423274062
 11
34.9360036715
 21
26.0921053554
  0
LWPOLYLINE
  5
3AA
100
AcDbEntity
  8
SUPERFICI
100
AcDbPolyline
 62
7
  6
CONTINUOUS
 90
3
 70
0
 10
36.2060506871
 20
27.7875971929
 10
36.1918951926
 20
27.761038683
 10
36.180086646
 20
27.7328222882
  0
LINE
  5
3AB
100
AcDbEntity
  8
SUPERFICI
100
AcDbLine
 62
7
  6
CONTINUOUS
 10
35.8637697142
 20
27.7791190491
 11
35.7182415391
 21
27.5131077331
  0
LWPOLYLINE
  5
3AC
100
AcDbEntity
  8
0
100
AcDbPolyline
 62
7
  6
CONTINUOUS
 90
3
 70
0
 10
36.2563663867
 20
28.0280725675
 10
36.3484743648
 20
28.1962410845
 10
36.4416860641
 20
28.3606487402
  0
LWPOLYLINE
  5
3AD
100
AcDbEntity
  8
0
100
AcDbPolyline
 62
7
  6
CONTINUOUS
 90
3
 70
0
 10
35.4977026682
 20
27.13722992
 10
35.3070611806
 20
26.7907324218
 10
35.1198117158
 20
26.4423274062
  0
LWPOLYLINE
  5
3AE
100
AcDbEntity
  8
0
100
AcDbPolyline
 62
7
  6
CONTINUOUS
 90
3
 70
0
 10
37.5181032121
 20
30.3607599653
 10
37.5553319589
 20
30.4273181765
 10
37.6214253603
 20
30.536369554
  0
LINE
  5
3AF
100
AcDbEntity
  8
0
100
AcDbLine
 62
7
  6
CONTINUOUS
 10
35.691708764
 20
27.4817739279
 11
35.4977026682
 21
27.13722992
  0
LINE
  5
3B0
100
AcDbEntity
  8
0
100
AcDbLine
 62
7
  6
CONTINUOUS
 10
36.0156820751
 20
28.0452504179
 11
35.9056361636
 21
27.852463808
  0
LINE
  5
3B1
100
AcDbEntity
  8
SUPERFICI
100
AcDbLine
 62
7
  6
CONTINUOUS
 10
36.0156820751
 20
28.0452504179
 11
35.8637697142
 21
27.7791190491
  0
LINE
  5
3B2
100
AcDbEntity
  8
0
100
AcDbLine
 62
7
  6
CONTINUOUS
 10
35.889076175
 20
27.8243618068
 11
35.691708764
 21
27.4817739279
  0
LWPOLYLINE
  5
3B3
100
AcDbEntity
  8
SUPERFICI
100
AcDbPolyline
 62
7
  6
CONTINUOUS
 90
3
 70
0
 10
40.822448081
 20
34.5339373582
 10
40.8232863686
 20
34.5353881623
 10
40.8241496285
 20
34.5368608975
  0
LWPOLYLINE
  5
3B4
100
AcDbEntity
  8
0
100
AcDbPolyline
 62
7
  6
CONTINUOUS
 90
3
 70
0
 10
36.4416860641
 20
28.3606487402
 10
36.560296001
 20
28.5626136878
 10
36.6103032863
 20
28.6471168398
  0
LINE
  5
3B5
100
AcDbEntity
  8
SUPERFICI
100
AcDbLine
 62
7
  6
CONTINUOUS
 10
36.1419227711
 20
28.2582485912
 11
36.0156820751
 21
28.0452504179
  0
LINE
  5
3B6
100
AcDbEntity
  8
0
100
AcDbLine
 62
7
  6
CONTINUOUS
 10
36.1419227707
 20
28.2582485906
 11
36.0156820751
 21
28.0452504179
  0
LINE
  5
3B7
100
AcDbEntity
  8
SUPERFICI
100
AcDbLine
 62
7
  6
CONTINUOUS
 10
40.823019426
 20
34.5349471563
 11
40.8182583573
 21
34.5269954828
  0
LINE
  5
3B8
100
AcDbEntity
  8
0
100
AcDbLine
 62
7
  6
CONTINUOUS
 10
40.8195219489
 20
34.5290999693
 11
40.8100386273
 21
34.5134033059
  0
LINE
  5
3B9
100
AcDbEntity
  8
SUPERFICI
100
AcDbLine
 62
7
  6
CONTINUOUS
 10
40.8182583573
 20
34.5269954828
 11
40.8047647104
 21
34.5047261597
  0
LINE
  5
3BA
100
AcDbEntity
  8
0
100
AcDbLine
 62
7
  6
CONTINUOUS
 10
40.8100386273
 20
34.5134033059
 11
40.7753781665
 21
34.4566687129
  0
LINE
  5
3BB
100
AcDbEntity
  8
SUPERFICI
100
AcDbLine
 62
7
  6
CONTINUOUS
 10
40.8047647104
 20
34.5047261597
 11
40.7556526633
 21
34.4245620942
  0
LINE
  5
3BC
100
AcDbEntity
  8
0
100
AcDbLine
 62
7
  6
CONTINUOUS
 10
41.3667743613
 20
34.7997621663
 11
40.8438680775
 21
33.9531401383
  0
LINE
  5
3BD
100
AcDbEntity
  8
0
100
AcDbLine
 62
7
  6
CONTINUOUS
 10
40.7753781665
 20
34.4566687129
 11
40.6407551783
 21
34.2385972943
  0
LINE
  5
3BE
100
AcDbEntity
  8
SUPERFICI
100
AcDbLine
 62
7
  6
CONTINUOUS
 10
40.7556526633
 20
34.4245620942
 11
40.6221628101
 21
34.2086445383
  0
LWPOLYLINE
  5
3BF
100
AcDbEntity
  8
SUPERFICI
100
AcDbPolyline
 62
7
  6
CONTINUOUS
 90
3
 70
0
 10
39.3543447548
 20
32.839006159
 10
39.3554678719
 20
32.840814161
 10
39.3563377357
 20
32.842199271
  0
LINE
  5
3C0
100
AcDbEntity
  8
0
100
AcDbLine
 62
7
  6
CONTINUOUS
 10
36.6103032863
 20
28.6471168398
 11
36.7133980749
 21
28.8121530688
  0
LINE
  5
3C1
100
AcDbEntity
  8
RACCORDO
100
AcDbLine
 62
253
  6
CONTINUOUS
 10
44.8760964076
 20
38.1904761708
 11
44.855407482
 21
38.157219953
  0
LINE
  5
3C2
100
AcDbEntity
  8
0
100
AcDbLine
 62
7
  6
CONTINUOUS
 10
40.6407551783
 20
34.2385972943
 11
40.4894425535
 21
33.9959002152
  0
LINE
  5
3C3
100
AcDbEntity
  8
SUPERFICI
100
AcDbLine
 62
7
  6
CONTINUOUS
 10
40.6221628101
 20
34.2086445383
 11
40.4636951591
 21
33.9548366788
  0
LINE
  5
3C4
100
AcDbEntity
  8
RACCORDO
100
AcDbLine
 62
253
  6
CONTINUOUS
 10
36.9916600956
 20
26.243624814
 11
35.7733973033
 21
24.3014166754
  0
LINE
  5
3C5
100
AcDbEntity
  8
0
100
AcDbLine
 62
7
  6
CONTINUOUS
 10
36.7133980749
 20
28.8121530688
 11
36.7663130734
 21
28.8959499808
  0
LINE
  5
3C6
100
AcDbEntity
  8
0
100
AcDbLine
 62
7
  6
CONTINUOUS
 10
40.4894425535
 20
33.9959002152
 11
40.3190406838
 21
33.7253092563
  0
LINE
  5
3C7
100
AcDbEntity
  8
RACCORDO
100
AcDbLine
 62
253
  6
CONTINUOUS
 10
35.7733973033
 20
24.3014166754
 11
35.4404345446
 21
23.7737019152
  0
LINE
  5
3C8
100
AcDbEntity
  8
0
100
AcDbLine
 62
7
  6
CONTINUOUS
 10
40.8438680775
 20
33.9531401383
 11
40.5750622733
 21
33.5286297925
  0
LINE
  5
3C9
100
AcDbEntity
  8
RACCORDO
100
AcDbLine
 62
253
  6
CONTINUOUS
 10
44.855407482
 20
38.157219953
 11
44.7846191018
 21
38.0449825069
  0
LINE
  5
3CA
100
AcDbEntity
  8
SUPERFICI
100
AcDbLine
 62
7
  6
CONTINUOUS
 10
40.4636951591
 20
33.9548366788
 11
40.2869036841
 21
33.6745803662
  0
LINE
  5
3CB
100
AcDbEntity
  8
0
100
AcDbLine
 62
7
  6
CONTINUOUS
 10
40.3190406838
 20
33.7253092563
 11
40.2447318592
 21
33.6081642735
  0
LINE
  5
3CC
100
AcDbEntity
  8
RACCORDO
100
AcDbLine
 62
253
  6
CONTINUOUS
 10
37.375498237
 20
26.8480226077
 11
36.9916600956
 21
26.243624814
  0
LWPOLYLINE
  5
3CD
100
AcDbEntity
  8
SUPERFICI
100
AcDbPolyline
 62
7
  6
CONTINUOUS
 90
21
 70
0
 10
36.216325533
 20
27.803774779
 10
36.1953939325
 20
27.7713626198
 10
36.1805653828
 20
27.7462882425
 10
36.1679546787
 20
27.7233043847
 10
36.1554853277
 20
27.6987822077
 10
36.1419255109
 20
27.66966056
 10
36.1293242078
 20
27.6397244056
 10
36.1185148482
 20
27.6111738686
 10
36.1086196799
 20
27.5819543739
 10
36.0994555508
 20
27.5512510805
 10
36.0912184647
 20
27.5192885239
 10
36.0840752792
 20
27.4863603456
 10
36.0780076038
 20
27.4518281082
 10
36.0731267968
 20
27.4151397461
 10
36.0697481088
 20
27.3771367817
 10
36.0680661747
 20
27.3392244685
 10
36.0680623928
 20
27.3019649113
 10
36.0696875263
 20
27.2649029612
 10
36.0729370012
 20
27.2278769849
 10
36.0778124973
 20
27.1908586455
 10
36.0819713175
 20
27.1661567796
  0
LINE
  5
3CE
100
AcDbEntity
  8
RACCORDO
100
AcDbLine
 62
253
  6
CONTINUOUS
 10
44.7846191018
 20
38.0449825069
 11
44.6174641889
 21
37.782764051
  0
LINE
  5
3CF
100
AcDbEntity
  8
SUPERFICI
100
AcDbLine
 62
7
  6
CONTINUOUS
 10
40.2869036841
 20
33.6745803662
 11
40.1100257603
 21
33.3970422035
  0
LINE
  5
3D0
100
AcDbEntity
  8
SUPERFICI
100
AcDbLine
 62
7
  6
CONTINUOUS
 10
39.3558311605
 20
32.8413962707
 11
39.3511436232
 21
32.8340579785
  0
LINE
  5
3D1
100
AcDbEntity
  8
RACCORDO
100
AcDbLine
 62
253
  6
CONTINUOUS
 10
35.4404345446
 20
23.7737019152
 11
35.0862683271
 21
23.2188776544
  0
LINE
  5
3D2
100
AcDbEntity
  8
0
100
AcDbLine
 62
7
  6
CONTINUOUS
 10
40.5750622733
 20
33.5286297925
 11
40.2686515791
 21
33.0517089247
  0
LINE
  5
3D3
100
AcDbEntity
  8
RACCORDO
100
AcDbLine
 62
253
  6
CONTINUOUS
 10
37.6502542696
 20
27.2755854858
 11
37.375498237
 21
26.8480226077
  0
LINE
  5
3D4
100
AcDbEntity
  8
RACCORDO
100
AcDbLine
 62
253
  6
CONTINUOUS
 10
44.6174641889
 20
37.782764051
 11
44.2569788442
 21
37.2228508653
  0
LWPOLYLINE
  5
3D5
100
AcDbEntity
  8
RACCORDO
100
AcDbPolyline
 62
253
  6
CONTINUOUS
 90
3
 70
0
 10
46.1841611135
 20
37.528067167
 10
46.1684781953
 20
37.5037361873
 10
46.1313041299
 20
37.4469057503
  0
LINE
  5
3D6
100
AcDbEntity
  8
SUPERFICI
100
AcDbLine
 62
7
  6
CONTINUOUS
 10
40.1100257603
 20
33.3970422035
 11
39.9058961187
 21
33.0801583784
  0
LINE
  5
3D7
100
AcDbEntity
  8
SUPERFICI
100
AcDbLine
 62
7
  6
CONTINUOUS
 10
39.3511436232
 20
32.8340579785
 11
39.3282207708
 21
32.798572154
  0
LWPOLYLINE
  5
3D8
100
AcDbEntity
  8
0
100
AcDbPolyline
 62
7
  6
CONTINUOUS
 90
3
 70
0
 10
40.2686515791
 20
33.0517089247
 10
39.9322130196
 20
32.532706839
 10
39.5609264073
 20
31.9716014636
  0
LWPOLYLINE
  5
3D9
100
AcDbEntity
  8
RACCORDO
100
AcDbPolyline
 62
253
  6
CONTINUOUS
 90
28
 70
0
 10
35.0862683271
 20
23.2188776544
 10
34.8387424413
 20
22.8369619837
 10
34.7120036412
 20
22.6433913042
 10
34.5829047991
 20
22.4484155039
 10
34.452048604
 20
22.2528001505
 10
34.3196646929
 20
22.056950105
 10
34.1850469205
 20
21.8609579282
 10
34.0483701131
 20
21.6651444465
 10
33.9109370863
 20
21.4712231275
 10
33.774012006
 20
21.2817494828
 10
33.6380274689
 20
21.0976331436
 10
33.5045564836
 20
20.920639656
 10
33.3764352691
 20
20.7543903993
 10
33.2545599063
 20
20.6003902345
 10
33.1397486863
 20
20.459325509
 10
33.0340409144
 20
20.332656255
 10
32.9378962697
 20
20.2211751716
 10
32.8517159869
 20
20.1251149191
 10
32.7764152012
 20
20.0437290809
 10
32.7119124416
 20
19.976877176
 10
32.6578250499
 20
19.9240059033
 10
32.6135782252
 20
19.8824105014
 10
32.5785183729
 20
19.8509045565
 10
32.5518495685
 20
19.8287366161
 10
32.5323482456
 20
19.8133081292
 10
32.5191623781
 20
19.8031686247
 10
32.5118212153
 20
19.7980193579
 10
32.509687646
 20
19.7970152273
  0
LINE
  5
3DA
100
AcDbEntity
  8
RACCORDO
100
AcDbLine
 62
253
  6
CONTINUOUS
 10
44.2569788442
 20
37.2228508653
 11
43.7343132181
 21
36.4183848864
  0
LINE
  5
3DB
100
AcDbEntity
  8
SUPERFICI
100
AcDbLine
 62
7
  6
CONTINUOUS
 10
39.3282207708
 20
32.798572154
 11
39.2688899067
 21
32.7074869861
  0
LINE
  5
3DC
100
AcDbEntity
  8
0
100
AcDbLine
 62
7
  6
CONTINUOUS
 10
39.3165828765
 20
32.7806484498
 11
39.2688899157
 21
32.7074869999
  0
LINE
  5
3DD
100
AcDbEntity
  8
SUPERFICI
100
AcDbLine
 62
7
  6
CONTINUOUS
 10
39.9058961187
 20
33.0801583784
 11
39.7228892972
 21
32.7990482022
  0
LINE
  5
3DE
100
AcDbEntity
  8
RACCORDO
100
AcDbLine
 62
253
  6
CONTINUOUS
 10
37.8974328004
 20
27.6557416343
 11
37.6502542696
 21
27.2755854858
  0
LINE
  5
3DF
100
AcDbEntity
  8
RACCORDO
100
AcDbLine
 62
253
  6
CONTINUOUS
 10
43.7343132181
 20
36.4183848864
 11
43.0930713107
 21
35.4386150506
  0
LWPOLYLINE
  5
3E0
100
AcDbEntity
  8
0
100
AcDbPolyline
 62
7
  6
CONTINUOUS
 90
3
 70
0
 10
39.8298463354
 20
33.0766598766
 10
39.272005174
 20
32.2275576888
 10
38.98835139
 20
31.8046218724
  0
LINE
  5
3E1
100
AcDbEntity
  8
RACCORDO
100
AcDbLine
 62
253
  6
CONTINUOUS
 10
43.0930713107
 20
35.4386150506
 11
42.3977074077
 21
34.3821769809
  0
LINE
  5
3E2
100
AcDbEntity
  8
SUPERFICI
100
AcDbLine
 62
7
  6
CONTINUOUS
 10
39.7228892972
 20
32.7990482022
 11
39.5227339587
 21
32.4945743039
  0
LINE
  5
3E3
100
AcDbEntity
  8
RACCORDO
100
AcDbLine
 62
253
  6
CONTINUOUS
 10
38.1180527816
 20
27.9908550815
 11
37.8974328004
 21
27.6557416343
  0
LINE
  5
3E4
100
AcDbEntity
  8
RACCORDO
100
AcDbLine
 62
253
  6
CONTINUOUS
 10
46.1313041299
 20
37.4469057503
 11
46.0742853916
 21
37.3604950231
  0
LWPOLYLINE
  5
3E5
100
AcDbEntity
  8
0
100
AcDbPolyline
 62
7
  6
CONTINUOUS
 90
6
 70
0
 10
40.8197404501
 20
34.5295780041
 10
40.8951002814
 20
34.6432147091
 10
40.9870149481
 20
34.7429977417
 10
41.0929712995
 20
34.8264231531
 10
41.2091635735
 20
34.8917441952
 10
41.3319574916
 20
34.937530139
  0
LINE
  5
3E6
100
AcDbEntity
  8
RACCORDO
100
AcDbLine
 62
253
  6
CONTINUOUS
 10
42.3977074077
 20
34.3821769809
 11
41.5294768316
 21
33.0711069686
  0
LWPOLYLINE
  5
3E7
100
AcDbEntity
  8
RACCORDO
100
AcDbPolyline
 62
253
  6
CONTINUOUS
 90
6
 70
0
 10
46.1986880087
 20
37.5512165417
 10
46.1981764186
 20
37.550445867
 10
46.1965595996
 20
37.5477110547
 10
46.1937451779
 20
37.5430121047
 10
46.1896487567
 20
37.5365217047
 10
46.1841611135
 20
37.528067167
  0
LINE
  5
3E8
100
AcDbEntity
  8
RACCORDO
100
AcDbLine
 62
253
  6
CONTINUOUS
 10
46.0742853916
 20
37.3604950231
 11
45.9932219967
 21
37.2384326764
  0
LINE
  5
3E9
100
AcDbEntity
  8
SUPERFICI
100
AcDbLine
 62
7
  6
CONTINUOUS
 10
39.5227339587
 20
32.4945743039
 11
39.3060195615
 21
32.1682124673
  0
LINE
  5
3EA
100
AcDbEntity
  8
RACCORDO
100
AcDbLine
 62
253
  6
CONTINUOUS
 10
41.5294768316
 20
33.0711069686
 11
40.8168200905
 21
32.0011666313
  0
LINE
  5
3EB
100
AcDbEntity
  8
RACCORDO
100
AcDbLine
 62
253
  6
CONTINUOUS
 10
40.8168200905
 20
32.0011666313
 11
40.096146678
 21
30.9261711202
  0
LINE
  5
3EC
100
AcDbEntity
  8
RACCORDO
100
AcDbLine
 62
253
  6
CONTINUOUS
 10
38.8776014786
 20
29.1267881151
 11
38.1180527816
 21
27.9908550815
  0
LINE
  5
3ED
100
AcDbEntity
  8
0
100
AcDbLine
 62
7
  6
CONTINUOUS
 10
39.5609264073
 20
31.9716014636
 11
39.1619718219
 21
31.3813054566
  0
LINE
  5
3EE
100
AcDbEntity
  8
RACCORDO
100
AcDbLine
 62
253
  6
CONTINUOUS
 10
40.096146678
 20
30.9261711202
 11
39.6317272611
 21
30.2383992756
  0
LINE
  5
3EF
100
AcDbEntity
  8
RACCORDO
100
AcDbLine
 62
253
  6
CONTINUOUS
 10
39.6317272611
 20
30.2383992756
 11
38.8776014786
 21
29.1267881151
  0
LINE
  5
3F0
100
AcDbEntity
  8
RACCORDO
100
AcDbLine
 62
253
  6
CONTINUOUS
 10
45.9932219967
 20
37.2384326764
 11
45.3960606109
 21
36.354426869
  0
LINE
  5
3F1
100
AcDbEntity
  8
RACCORDO
100
AcDbLine
 62
253
  6
CONTINUOUS
 10
45.3960606109
 20
36.354426869
 11
44.7646827821
 21
35.4370304201
  0
LINE
  5
3F2
100
AcDbEntity
  8
RACCORDO
100
AcDbLine
 62
253
  6
CONTINUOUS
 10
44.7646827821
 20
35.4370304201
 11
44.3331964007
 21
34.8178704854
  0
LINE
  5
3F3
100
AcDbEntity
  8
RACCORDO
100
AcDbLine
 62
253
  6
CONTINUOUS
 10
44.3331964007
 20
34.8178704854
 11
43.9904393077
 21
34.3300053132
  0
LINE
  5
3F4
100
AcDbEntity
  8
RACCORDO
100
AcDbLine
 62
253
  6
CONTINUOUS
 10
43.9904393077
 20
34.3300053132
 11
43.5954289042
 21
33.7734337614
  0
LINE
  5
3F5
100
AcDbEntity
  8
RACCORDO
100
AcDbLine
 62
253
  6
CONTINUOUS
 10
43.5954289042
 20
33.7734337614
 11
43.1493913378
 21
33.1511157122
  0
LINE
  5
3F6
100
AcDbEntity
  8
RACCORDO
100
AcDbLine
 62
253
  6
CONTINUOUS
 10
43.1493913378
 20
33.1511157122
 11
42.6611687189
 21
32.4778033896
  0
LWPOLYLINE
  5
3F7
100
AcDbEntity
  8
RACCORDO
100
AcDbPolyline
 62
253
  6
CONTINUOUS
 90
9
 70
0
 10
42.6611687189
 20
32.4778033896
 10
42.1450479245
 20
31.7780192429
 10
41.8789050428
 20
31.4210418736
 10
41.6107660042
 20
31.0656727148
 10
41.3408225478
 20
30.711754096
 10
41.0698759433
 20
30.3594436876
 10
40.8016473722
 20
30.015659511
 10
40.5377010019
 20
29.6827075735
 10
40.277704926
 20
29.3582818679
  0
LINE
  5
3F8
100
AcDbEntity
  8
RACCORDO
100
AcDbLine
 62
253
  6
CONTINUOUS
 10
38.6936718824
 20
27.4086005534
 11
36.0795114032
 21
23.8817584219
  0
LINE
  5
3F9
100
AcDbEntity
  8
RACCORDO
100
AcDbLine
 62
253
  6
CONTINUOUS
 10
36.0795114032
 20
23.8817584219
 11
35.5616818996
 21
23.1893003406
  0
LINE
  5
3FA
100
AcDbEntity
  8
RACCORDO
100
AcDbLine
 62
253
  6
CONTINUOUS
 10
38.8635111728
 20
27.6339196371
 11
38.6936718824
 21
27.4086005534
  0
LINE
  5
3FB
100
AcDbEntity
  8
RACCORDO
100
AcDbLine
 62
253
  6
CONTINUOUS
 10
35.5616818996
 20
23.1893003406
 11
34.8620445036
 21
22.2652895868
  0
LWPOLYLINE
  5
3FC
100
AcDbEntity
  8
RACCORDO
100
AcDbPolyline
 62
253
  6
CONTINUOUS
 90
4
 70
0
 10
34.8620445036
 20
22.2652895868
 10
34.5690371919
 20
21.8856887674
 10
34.4208366998
 20
21.6948384233
 10
34.2706192949
 20
21.5049590396
  0
LWPOLYLINE
  5
3FD
100
AcDbEntity
  8
RACCORDO
100
AcDbPolyline
 62
7
  6
CONTINUOUS
 90
3
 70
0
 10
32.8660401445
 20
20.8528672675
 10
32.6840825366
 20
20.3259680942
 10
32.509687646
 20
19.7970152273
  0
LWPOLYLINE
  5
3FE
100
AcDbEntity
  8
SUPERFICI
100
AcDbPolyline
 62
7
  6
CONTINUOUS
 90
10
 70
0
 10
36.8184380912
 20
29.1210522908
 10
36.8273923707
 20
29.1435223007
 10
36.8367014438
 20
29.1650940074
 10
36.8463123219
 20
29.1857947918
 10
36.8566763456
 20
29.2066089908
 10
36.8669287395
 20
29.2259008778
 10
36.875676381
 20
29.2414688647
 10
36.883754572
 20
29.2551949121
 10
36.8934444127
 20
29.2709167642
 10
36.9015971975
 20
29.2835820167
  0
LWPOLYLINE
  5
3FF
100
AcDbEntity
  8
ASSI
100
AcDbPolyline
 62
7
  6
CONTINUOUS
 90
10
 70
0
 10
34.4053466942
 20
25.0307637473
 10
34.3796394975
 20
24.9715401114
 10
34.3587488441
 20
24.9107305113
 10
34.3427451505
 20
24.848722494
 10
34.3316530643
 20
24.7858086036
 10
34.3254972333
 20
24.7222813839
 10
34.3243023051
 20
24.6584333789
 10
34.3280929275
 20
24.5945571326
 10
34.3368937482
 20
24.5309451889
 10
34.3489203972
 20
24.4749483219
  0
LWPOLYLINE
  5
400
100
AcDbEntity
  8
0
100
AcDbPolyline
 62
7
  6
CONTINUOUS
 90
31
 70
0
 10
36.8851841412
 20
29.2544018913
 10
36.8776796847
 20
29.2372447902
 10
36.8714707152
 20
29.2202254686
 10
36.8664544649
 20
29.2036259921
 10
36.862592442
 20
29.1879790772
 10
36.8596960688
 20
29.1732383384
 10
36.8575291569
 20
29.1586900158
 10
36.8560654176
 20
29.1441829867
 10
36.8553279772
 20
29.1300524268
 10
36.8552353568
 20
29.1161902088
 10
36.8557714781
 20
29.1026354524
 10
36.8569077687
 20
29.0894492292
 10
36.8585167842
 20
29.0764838521
 10
36.8605306959
 20
29.0637407513
 10
36.8629298425
 20
29.0512319
 10
36.8656440249
 20
29.038773927
 10
36.8686217423
 20
29.0263057858
 10
36.8718421178
 20
29.0138702269
 10
36.8752893343
 20
29.0014249444
 10
36.8789325281
 20
28.9889107752
 10
36.8827466271
 20
28.9763728941
 10
36.8867307178
 20
28.9639346733
 10
36.8908560084
 20
28.9515907148
 10
36.8951003698
 20
28.9393516044
 10
36.899475275
 20
28.9273817433
 10
36.9039204793
 20
28.9158002304
 10
36.9084480839
 20
28.9045093399
 10
36.9131974823
 20
28.8933581951
 10
36.9182205257
 20
28.8823044915
 10
36.9234620624
 20
28.8714118417
 10
36.9289183645
 20
28.8606899833
  0
LINE
  5
401
100
AcDbEntity
  8
0
100
AcDbLine
 62
7
  6
CONTINUOUS
 10
37.3895069882
 20
30.0916829618
 11
37.4373832779
 21
30.2003323283
  0
LWPOLYLINE
  5
402
100
AcDbEntity
  8
RACCORDO
100
AcDbPolyline
 62
7
  6
CONTINUOUS
 90
7
 70
0
 10
34.1148878044
 20
23.965337087
 10
33.8882001167
 20
23.4529406541
 10
33.6688891044
 20
22.9378647559
 10
33.4569860475
 20
22.4202139965
 10
33.2525225027
 20
21.9000937131
 10
33.0555302167
 20
21.3776100114
 10
32.8660401445
 20
20.8528672675
  0
LINE
  5
403
100
AcDbEntity
  8
0
100
AcDbLine
 62
7
  6
CONTINUOUS
 10
35.6911702652
 20
26.8628593242
 11
35.7860815958
 21
27.0763076498
  0
LINE
  5
404
100
AcDbEntity
  8
0
100
AcDbLine
 62
7
  6
CONTINUOUS
 10
35.6504267521
 20
26.7738732289
 11
35.6911702652
 21
26.8628593242
  0
LWPOLYLINE
  5
405
100
AcDbEntity
  8
0
100
AcDbPolyline
 62
7
  6
CONTINUOUS
 90
6
 70
0
 10
35.7860815958
 20
27.0763076498
 10
35.8792483046
 20
27.2793110829
 10
35.9718728163
 20
27.4740860898
 10
36.0666171929
 20
27.6651270918
 10
36.1625473522
 20
27.8513682043
 10
36.2563663867
 20
28.0280725675
  0
LINE
  5
406
100
AcDbEntity
  8
RACCORDO
100
AcDbLine
 62
7
  6
CONTINUOUS
 10
34.3489203972
 20
24.4749483219
 11
34.1148878044
 21
23.965337087
  0
LWPOLYLINE
  5
407
100
AcDbEntity
  8
0
100
AcDbPolyline
 62
7
  6
CONTINUOUS
 90
3
 70
0
 10
41.4604723208
 20
34.9638995367
 10
41.4439363872
 20
34.9282187846
 10
41.3667743613
 20
34.7997621663
  0
LWPOLYLINE
  5
408
100
AcDbEntity
  8
SUPERFICI
100
AcDbPolyline
 62
7
  6
CONTINUOUS
 90
10
 70
0
 10
35.3183773954
 20
26.71753761
 10
35.2550293014
 20
26.5819596099
 10
35.2426264084
 20
26.5526704434
 10
35.2298467232
 20
26.5185704024
 10
35.2175232014
 20
26.4802823258
 10
35.2071241231
 20
26.4414298298
 10
35.1990613405
 20
26.4040946814
 10
35.1928654774
 20
26.3670076053
 10
35.1883592359
 20
26.3290526122
 10
35.1856210192
 20
26.2898905879
  0
LWPOLYLINE
  5
409
100
AcDbEntity
  8
0
100
AcDbPolyline
 62
7
  6
CONTINUOUS
 90
3
 70
0
 10
39.9242909702
 20
33.2295340198
 10
39.9093353864
 20
33.200467788
 10
39.8298463354
 20
33.0766598766
  0
LWPOLYLINE
  5
40A
100
AcDbEntity
  8
RACCORDO
100
AcDbPolyline
 62
253
  6
CONTINUOUS
 90
5
 70
0
 10
44.8850351697
 20
38.2054210653
 10
44.8844541525
 20
38.2043282807
 10
44.882851563
 20
38.2015867253
 10
44.8801106436
 20
38.1970296185
 10
44.8760964076
 20
38.1904761708
  0
LWPOLYLINE
  5
40B
100
AcDbEntity
  8
0
100
AcDbPolyline
 62
7
  6
CONTINUOUS
 90
22
 70
0
 10
36.180086646
 20
27.7328222882
 10
36.1720362159
 20
27.7080428062
 10
36.1657910684
 20
27.6833523274
 10
36.1611564227
 20
27.6590227904
 10
36.1579442149
 20
27.6354976123
 10
36.1559508107
 20
27.6127681641
 10
36.1551368951
 20
27.5904087842
 10
36.1556462635
 20
27.5686283138
 10
36.1573654431
 20
27.5476402017
 10
36.1599607224
 20
27.5268853574
 10
36.1632394071
 20
27.5061246106
 10
36.1672170895
 20
27.4855845027
 10
36.1718121122
 20
27.4652464881
 10
36.1769094428
 20
27.4450129302
 10
36.182492645
 20
27.4249350226
 10
36.1886515047
 20
27.4052513911
 10
36.1954370615
 20
27.3860227818
 10
36.2027378879
 20
27.3672217726
 10
36.2103986976
 20
27.3489831608
 10
36.2183214926
 20
27.3313541563
 10
36.2264903627
 20
27.3143005416
 10
36.2348538756
 20
27.2978289725
  0
LWPOLYLINE
  5
40C
100
AcDbEntity
  8
0
100
AcDbPolyline
 62
7
  6
CONTINUOUS
 90
3
 70
0
 10
37.3049834639
 20
29.8621050618
 10
37.3447199036
 20
29.9774592126
 10
37.3895069882
 20
30.0916829618
  0
LWPOLYLINE
  5
40D
100
AcDbEntity
  8
SUPERFICI
100
AcDbPolyline
 62
253
  6
CONTINUOUS
 90
10
 70
0
 10
38.8635111728
 20
-23.9501655675
 10
39.2388305242
 20
-23.9295862363
 10
39.6175288589
 20
-23.8897557817
 10
39.9828312485
 20
-23.8306742038
 10
40.326674721
 20
-23.749371672
 10
40.6477253029
 20
-23.6488180168
 10
40.95210921
 20
-23.53792273
 10
41.2410048688
 20
-23.4174502698
 10
41.5090689466
 20
-23.286636178
 10
41.7619988073
 20
-23.1520965717
  0
LWPOLYLINE
  5
40E
100
AcDbEntity
  8
SUPERFICI
100
AcDbPolyline
 62
253
  6
CONTINUOUS
 90
22
 70
0
 10
38.8635104651
 20
-24.3442240567
 10
38.527044989
 20
-24.3354297072
 10
38.2035106308
 20
-24.3074131418
 10
37.8934627893
 20
-24.2626497496
 10
37.5972794843
 20
-24.2036543972
 10
37.3151517054
 20
-24.1321533598
 10
37.0472650504
 20
-24.0491830029
 10
36.7940043515
 20
-23.956619858
 10
36.5551821429
 20
-23.8562649258
 10
36.3302122331
 20
-23.7488909052
 10
36.119201854
 20
-23.6360395122
 10
35.9219891261
 20
-23.5191228084
 10
35.7376664822
 20
-23.3984454466
 10
35.5654947406
 20
-23.274221265
 10
35.4060472405
 20
-23.1485534204
 10
35.2603096816
 20
-23.0245072645
 10
35.1253070214
 20
-22.8996142479
 10
35.0036827076
 20
-22.7783202139
 10
34.9041427277
 20
-22.6747880906
 10
34.8291541755
 20
-22.594793535
 10
34.7756939473
 20
-22.5348346182
 10
34.7442018821
 20
-22.4952581977
  0
LWPOLYLINE
  5
40F
100
AcDbEntity
  8
SUPERFICI
100
AcDbPolyline
 62
7
  6
CONTINUOUS
 90
4
 70
0
 10
37.6638642383
 20
-24.5137632554
 10
38.4313055714
 20
-24.6411531811
 10
39.2111414222
 20
-24.6477915747
 10
39.9805255451
 20
-24.5334361373
  0
LWPOLYLINE
  5
410
100
AcDbEntity
  8
SUPERFICI
100
AcDbPolyline
 62
253
  6
CONTINUOUS
 90
10
 70
0
 10
35.9777418966
 20
-23.178109931
 10
36.2278720231
 20
-23.3130268473
 10
36.4938351798
 20
-23.4427034955
 10
36.7813292948
 20
-23.5609888765
 10
37.082779436
 20
-23.6683888468
 10
37.3996327934
 20
-23.76439755
 10
37.7467349341
 20
-23.8413464177
 10
38.1205335211
 20
-23.8966792604
 10
38.4995970011
 20
-23.9329522676
 10
38.8635111728
 20
-23.9501654393
  0
LINE
  5
411
100
AcDbEntity
  8
SUPERFICI
100
AcDbLine
 62
253
  6
CONTINUOUS
 10
35.7453290236
 20
-23.0359792435
 11
35.9777418966
 21
-23.178109931
  0
LWPOLYLINE
  5
412
100
AcDbEntity
  8
SUPERFICI
100
AcDbPolyline
 62
7
  6
CONTINUOUS
 90
4
 70
0
 10
35.6037240147
 20
-23.4516516599
 10
36.231634338
 20
-23.9111862098
 10
36.9252300879
 20
-24.2689447744
 10
37.6638642383
 20
-24.5137632554
  0
LWPOLYLINE
  5
413
100
AcDbEntity
  8
SUPERFICI
100
AcDbPolyline
 62
253
  6
CONTINUOUS
 90
8
 70
0
 10
34.6566504692
 20
-22.23788129
 10
34.6792723517
 20
-22.2598755306
 10
34.7446429018
 20
-22.3070845605
 10
34.8477897866
 20
-22.3795083797
 10
34.9836281894
 20
-22.4832748377
 10
35.1466837509
 20
-22.6122560849
 10
35.3318233537
 20
-22.7480685727
 10
35.7453290236
 20
-23.0359792435
  0
LINE
  5
414
100
AcDbEntity
  8
SUPERFICI
100
AcDbLine
 62
7
  6
CONTINUOUS
 10
35.0561655195
 20
-22.9018544436
 11
35.6037240147
 21
-23.4516516599
  0
LINE
  5
415
100
AcDbEntity
  8
SUPERFICI
100
AcDbLine
 62
7
  6
CONTINUOUS
 10
34.7442018821
 20
-22.4952581977
 11
35.0561655195
 21
-22.9018544436
  0
LWPOLYLINE
  5
416
100
AcDbEntity
  8
RACCORDO
100
AcDbPolyline
 62
253
  6
CONTINUOUS
 90
8
 70
0
 10
39.4348539095
 20
-20.8800664401
 10
39.4981744546
 20
-20.8622937911
 10
39.5628007976
 20
-20.8418351897
 10
39.6288794048
 20
-20.8186653009
 10
39.696214955
 20
-20.7928094596
 10
39.7643634632
 20
-20.7638130523
 10
39.833296308
 20
-20.7316910304
 10
39.9029758089
 20
-20.6964284426
  0
LWPOLYLINE
  5
417
100
AcDbEntity
  8
SUPERFICI
100
AcDbPolyline
 62
253
  6
CONTINUOUS
 90
3
 70
0
 10
39.2364239671
 20
-20.9299907239
 10
39.5779522974
 20
-20.8584797742
 10
39.8905946131
 20
-20.7537566512
  0
LWPOLYLINE
  5
418
100
AcDbEntity
  8
RACCORDO
100
AcDbPolyline
 62
7
  6
CONTINUOUS
 90
7
 70
0
 10
39.1335038449
 20
-20.5893600091
 10
39.1808684775
 20
-20.5812024518
 10
39.2290938622
 20
-20.5715244122
 10
39.2785374227
 20
-20.5601438533
 10
39.3291987058
 20
-20.5469230853
 10
39.3809152805
 20
-20.5317597881
 10
39.4337754484
 20
-20.5144698583
  0
LINE
  5
419
100
AcDbEntity
  8
SUPERFICI
100
AcDbLine
 62
253
  6
CONTINUOUS
 10
38.8669306694
 20
-20.969483656
 11
39.2364239671
 21
-20.9299907239
  0
LWPOLYLINE
  5
41A
100
AcDbEntity
  8
RACCORDO
100
AcDbPolyline
 62
253
  6
CONTINUOUS
 90
4
 70
0
 10
36.8933061581
 20
-18.9001176742
 10
36.8291723052
 20
-18.9015295831
 10
36.764306343
 20
-18.9010291911
 10
36.7017504246
 20
-18.8986400538
  0
LWPOLYLINE
  5
41B
100
AcDbEntity
  8
RACCORDO
100
AcDbPolyline
 62
7
  6
CONTINUOUS
 90
7
 70
0
 10
38.8635111732
 20
-20.610750701
 10
38.9074257958
 20
-20.6101798273
 10
38.9518200834
 20
-20.6084484899
 10
38.9966610964
 20
-20.6055286839
 10
39.0417037938
 20
-20.6014144635
 10
39.0871219911
 20
-20.5960671375
 10
39.1335038449
 20
-20.5893600091
  0
LWPOLYLINE
  5
41C
100
AcDbEntity
  8
RACCORDO
100
AcDbPolyline
 62
253
  6
CONTINUOUS
 90
11
 70
0
 10
38.8635111728
 20
-20.9553759428
 10
38.9179789268
 20
-20.954769707
 10
38.972444617
 20
-20.9527231904
 10
39.0271717918
 20
-20.949236393
 10
39.0823048658
 20
-20.9443976835
 10
39.1382368489
 20
-20.9381186932
 10
39.1953308123
 20
-20.9301343158
 10
39.2533720771
 20
-20.9205061649
 10
39.3123739667
 20
-20.909172627
 10
39.3728291966
 20
-20.8956837552
 10
39.4348539095
 20
-20.8800664401
  0
LWPOLYLINE
  5
41D
100
AcDbEntity
  8
RACCORDO
100
AcDbPolyline
 62
253
  6
CONTINUOUS
 90
4
 70
0
 10
40.8311262646
 20
-18.8984052687
 10
40.8946965985
 20
-18.8998337466
 10
40.9591367809
 20
-18.8994552963
 10
41.0214675685
 20
-18.8972874146
  0
LINE
  5
41E
100
AcDbEntity
  8
SUPERFICI
100
AcDbLine
 62
253
  6
CONTINUOUS
 10
36.5231079841
 20
-18.7174049405
 11
36.4212230822
 21
-18.7129321917
  0
LWPOLYLINE
  5
41F
100
AcDbEntity
  8
SUPERFICI
100
AcDbPolyline
 62
253
  6
CONTINUOUS
 90
4
 70
0
 10
37.8867662269
 20
-20.7767650324
 10
38.1928364069
 20
-20.8789677345
 10
38.5198417594
 20
-20.9436961255
 10
38.8669306694
 20
-20.969483656
  0
LWPOLYLINE
  5
420
100
AcDbEntity
  8
RACCORDO
100
AcDbPolyline
 62
253
  6
CONTINUOUS
 90
18
 70
0
 10
37.8256750745
 20
-20.7003472012
 10
37.8974480371
 20
-20.7361840534
 10
37.9675024526
 20
-20.7684354329
 10
38.0356933836
 20
-20.7970988977
 10
38.1023443343
 20
-20.8221768897
 10
38.1675008621
 20
-20.8445614816
 10
38.2309844692
 20
-20.8643298115
 10
38.2927712001
 20
-20.8814047414
 10
38.3533379614
 20
-20.8964469293
 10
38.4126745376
 20
-20.909541774
 10
38.4707758168
 20
-20.9206038767
 10
38.5281312317
 20
-20.9300377003
 10
38.5845442033
 20
-20.9378995382
 10
38.639801982
 20
-20.9441330969
 10
38.694788606
 20
-20.9489739585
 10
38.750206947
 20
-20.9525006504
 10
38.8062700408
 20
-20.9546346453
 10
38.8635111728
 20
-20.9553759431
  0
LINE
  5
421
100
AcDbEntity
  8
RACCORDO
100
AcDbLine
 62
253
  6
CONTINUOUS
 10
37.7526728547
 20
-20.6600401293
 11
37.8256750745
 21
-20.7003472012
  0
LWPOLYLINE
  5
422
100
AcDbEntity
  8
RACCORDO
100
AcDbPolyline
 62
7
  6
CONTINUOUS
 90
19
 70
0
 10
37.9620004004
 20
-20.3602543485
 10
38.0214133933
 20
-20.3943763248
 10
38.0796278459
 20
-20.4249127425
 10
38.1366687379
 20
-20.452203965
 10
38.1922486429
 20
-20.4764099151
 10
38.2462935129
 20
-20.4977842924
 10
38.2992045108
 20
-20.5167358877
 10
38.3508667532
 20
-20.533430238
 10
38.4011501192
 20
-20.5480192059
 10
38.4504882764
 20
-20.5607870256
 10
38.4988453848
 20
-20.5718483849
 10
38.5461097057
 20
-20.5812959256
 10
38.5926334487
 20
-20.5892976923
 10
38.6381737085
 20
-20.5958965991
 10
38.6828763206
 20
-20.6011955098
 10
38.7276963572
 20
-20.6053405548
 10
38.772931484
 20
-20.6083392167
 10
38.818214935
 20
-20.6101460829
 10
38.8635111732
 20
-20.6107507013
  0
LWPOLYLINE
  5
423
100
AcDbEntity
  8
SUPERFICI
100
AcDbPolyline
 62
253
  6
CONTINUOUS
 90
3
 70
0
 10
37.3308212352
 20
-20.4574929449
 10
37.5980524428
 20
-20.6346605093
 10
37.8867662269
 20
-20.7767650324
  0
LWPOLYLINE
  5
424
100
AcDbEntity
  8
RACCORDO
100
AcDbPolyline
 62
7
  6
CONTINUOUS
 90
3
 70
0
 10
37.8406079164
 20
-20.2803574032
 10
37.9016396689
 20
-20.3223223159
 10
37.9620004004
 20
-20.3602543485
  0
LWPOLYLINE
  5
425
100
AcDbEntity
  8
RACCORDO
100
AcDbPolyline
 62
253
  6
CONTINUOUS
 90
5
 70
0
 10
37.4513082831
 20
-20.4512226218
 10
37.5275351429
 20
-20.5114128479
 10
37.6032465247
 20
-20.5661178722
 10
37.6784750177
 20
-20.6153141106
 10
37.7526728547
 20
-20.6600401293
  0
LINE
  5
426
100
AcDbEntity
  8
SUPERFICI
100
AcDbLine
 62
253
  6
CONTINUOUS
 10
37.0964216302
 20
-20.2565724158
 11
37.3308212352
 21
-20.4574929449
  0
LWPOLYLINE
  5
427
100
AcDbEntity
  8
RACCORDO
100
AcDbPolyline
 62
253
  6
CONTINUOUS
 90
3
 70
0
 10
37.2996118055
 20
-20.3132064944
 10
37.3748904232
 20
-20.3855236099
 10
37.4513082831
 20
-20.4512226218
  0
LWPOLYLINE
  5
428
100
AcDbEntity
  8
RACCORDO
100
AcDbPolyline
 62
7
  6
CONTINUOUS
 90
8
 70
0
 10
37.4176077466
 20
-19.8466816557
 10
37.4747443935
 20
-19.9256638306
 10
37.5338472643
 20
-19.9986158892
 10
37.5943517579
 20
-20.0657187896
 10
37.6556181739
 20
-20.1270567095
 10
37.7172132434
 20
-20.1829591664
 10
37.7789963641
 20
-20.2339709004
 10
37.8406079164
 20
-20.2803574032
  0
LWPOLYLINE
  5
429
100
AcDbEntity
  8
SUPERFICI
100
AcDbPolyline
 62
253
  6
CONTINUOUS
 90
3
 70
0
 10
36.7225798672
 20
-19.7771496125
 10
36.894273002
 20
-20.0289285033
 10
37.0964216302
 20
-20.2565724158
  0
LWPOLYLINE
  5
42A
100
AcDbEntity
  8
SUPERFICI
100
AcDbPolyline
 62
7
  6
CONTINUOUS
 90
10
 70
0
 10
34.7441982052
 20
-22.495385952
 10
34.7276089521
 20
-22.4696502089
 10
34.7126421287
 20
-22.44297637
 10
34.6993333902
 20
-22.4154328882
 10
34.6877283921
 20
-22.3871175716
 10
34.6778768106
 20
-22.3581419622
 10
34.6698174926
 20
-22.3286200092
 10
34.6635792348
 20
-22.2986703811
 10
34.6591856565
 20
-22.2683984373
 10
34.6566504122
 20
-22.2378801755
  0
LWPOLYLINE
  5
42B
100
AcDbEntity
  8
SUPERFICI
100
AcDbPolyline
 62
7
  6
CONTINUOUS
 90
4
 70
0
 10
32.874213504
 20
12.3605789047
 10
32.8503456066
 20
12.5872638991
 10
32.8312603714
 20
12.816095428
 10
32.8169577984
 20
13.0470734914
  0
LWPOLYLINE
  5
42C
100
AcDbEntity
  8
SUPERFICI
100
AcDbPolyline
 62
253
  6
CONTINUOUS
 90
3
 70
0
 10
36.4213940098
 20
-18.712984738
 10
36.4415074631
 20
-18.9914090028
 10
36.4974606405
 20
-19.2596890826
  0
LWPOLYLINE
  5
42D
100
AcDbEntity
  8
SUPERFICI
100
AcDbPolyline
 62
7
  6
CONTINUOUS
 90
6
 70
0
 10
32.7841485032
 20
13.6911873881
 10
32.7991813448
 20
13.4696899715
 10
32.818543133
 20
13.2501539051
 10
32.8422338676
 20
13.0325791887
 10
32.8702270334
 20
12.8169152231
 10
32.9025491458
 20
12.6032126076
  0
LINE
  5
42E
100
AcDbEntity
  8
SUPERFICI
100
AcDbLine
 62
7
  6
CONTINUOUS
 10
33.2136964611
 20
9.4519633714
 11
33.118550221
 21
11.0471334911
  0
LINE
  5
42F
100
AcDbEntity
  8
SUPERFICI
100
AcDbLine
 62
7
  6
CONTINUOUS
 10
33.0759973805
 20
11.7696854269
 11
32.9550644542
 21
13.8518533714
  0
LINE
  5
430
100
AcDbEntity
  8
RACCORDO
100
AcDbLine
 62
7
  6
CONTINUOUS
 10
32.4722928748
 20
19.5100637357
 11
32.768854464
 21
13.8421103959
  0
LINE
  5
431
100
AcDbEntity
  8
RACCORDO
100
AcDbLine
 62
7
  6
CONTINUOUS
 10
32.8104705563
 20
13.0467340626
 11
34.6566504692
 21
-22.23788129
  0
LWPOLYLINE
  5
432
100
AcDbEntity
  8
SUPERFICI
100
AcDbPolyline
 62
7
  6
CONTINUOUS
 90
7
 70
0
 10
35.1856210192
 20
26.2898905879
 10
35.1848034647
 20
26.2500410418
 10
35.1859922801
 20
26.2096020082
 10
35.1892725509
 20
26.1686135535
 10
35.1947233029
 20
26.1271960076
 10
35.2023940515
 20
26.0855678226
 10
35.2113489639
 20
26.0475800196
  0
LWPOLYLINE
  5
433
100
AcDbEntity
  8
0
100
AcDbPolyline
 62
7
  6
CONTINUOUS
 90
4
 70
0
 10
40.7126249093
 20
34.1448458159
 10
40.727722454
 20
34.2773042054
 10
40.7634081959
 20
34.4063348637
 10
40.8195219489
 20
34.5290999693
  0
LWPOLYLINE
  5
434
100
AcDbEntity
  8
SUPERFICI
100
AcDbPolyline
 62
7
  6
CONTINUOUS
 90
7
 70
0
 10
43.5410354861
 20
11.1547487751
 10
43.6963578639
 20
11.5581927993
 10
43.8487862446
 20
11.9393219248
 10
43.9972396946
 20
12.2968475302
 10
44.1405547102
 20
12.6293916853
 10
44.2774819034
 20
12.9354871185
 10
44.4066826987
 20
13.2135776684
  0
LWPOLYLINE
  5
435
100
AcDbEntity
  8
SUPERFICI
100
AcDbPolyline
 62
7
  6
CONTINUOUS
 90
5
 70
0
 10
44.4066826987
 20
13.2135776684
 10
44.4898092054
 20
13.3901492198
 10
44.5673617161
 20
13.552275378
 10
44.6390658244
 20
13.6996162163
 10
44.7046431626
 20
13.8318327403
  0
LWPOLYLINE
  5
436
100
AcDbEntity
  8
SUPERFICI
100
AcDbPolyline
 62
7
  6
CONTINUOUS
 90
7
 70
0
 10
44.8162846726
 20
14.0495447514
 10
44.8655836975
 20
14.1469076721
 10
44.9058898998
 20
14.2256133136
 10
44.9371789379
 20
14.2855991876
 10
44.9594379796
 20
14.3268245699
 10
44.9726655015
 20
14.3492703441
 10
44.9768710822
 20
14.3529388148
  0
LWPOLYLINE
  5
437
100
AcDbEntity
  8
SUPERFICI
100
AcDbPolyline
 62
7
  6
CONTINUOUS
 90
3
 70
0
 10
44.7046431626
 20
13.8318327403
 10
44.7638114714
 20
13.9485874214
 10
44.8162846726
 20
14.0495447514
  0
LWPOLYLINE
  5
438
100
AcDbEntity
  8
RACCORDO
100
AcDbPolyline
 62
253
  6
CONTINUOUS
 90
13
 70
0
 10
38.2705578494
 20
-14.094671951
 10
38.2045633672
 20
-14.113033156
 10
38.1370578619
 20
-14.1343632476
 10
38.0679490163
 20
-14.1585792057
 10
37.9972792361
 20
-14.1857640503
 10
37.9249346758
 20
-14.2168799757
 10
37.8504760672
 20
-14.252185965
 10
37.7745699652
 20
-14.291423035
 10
37.69858779
 20
-14.3347764304
 10
37.6224522103
 20
-14.3825726108
 10
37.5464650524
 20
-14.4344851167
 10
37.4726888448
 20
-14.4897198142
 10
37.4013968079
 20
-14.5483900898
  0
LINE
  5
439
100
AcDbEntity
  8
RACCORDO
100
AcDbLine
 62
7
  6
CONTINUOUS
 10
38.3872065796
 20
-14.3391576917
 11
38.4412913322
 21
-14.3248256486
  0
LINE
  5
43A
100
AcDbEntity
  8
RACCORDO
100
AcDbLine
 62
7
  6
CONTINUOUS
 10
38.43925639
 20
-14.3253318912
 11
38.4922016664
 21
-14.3129865155
  0
LWPOLYLINE
  5
43B
100
AcDbEntity
  8
SUPERFICI
100
AcDbPolyline
 62
253
  6
CONTINUOUS
 90
3
 70
0
 10
38.5108318705
 20
-13.7050068607
 10
38.1641181351
 20
-13.7757556862
 10
37.8475922706
 20
-13.8812759751
  0
LINE
  5
43C
100
AcDbEntity
  8
RACCORDO
100
AcDbLine
 62
7
  6
CONTINUOUS
 10
38.4902253599
 20
-14.3134166784
 11
38.5417553961
 21
-14.3029677029
  0
LINE
  5
43D
100
AcDbEntity
  8
SUPERFICI
100
AcDbLine
 62
253
  6
CONTINUOUS
 10
38.8860684307
 20
-13.6716103999
 11
38.5108318705
 21
-13.7050068607
  0
LINE
  5
43E
100
AcDbEntity
  8
SUPERFICI
100
AcDbLine
 62
253
  6
CONTINUOUS
 10
41.2213818167
 20
-15.9088959007
 11
41.3267933608
 21
-15.9041877317
  0
LWPOLYLINE
  5
43F
100
AcDbEntity
  8
RACCORDO
100
AcDbPolyline
 62
253
  6
CONTINUOUS
 90
4
 70
0
 10
36.8879986551
 20
-16.0635987544
 10
36.8227905609
 20
-16.0648947293
 10
36.7571352341
 20
-16.06416609
 10
36.6941970233
 20
-16.0614479544
  0
LWPOLYLINE
  5
440
100
AcDbEntity
  8
RACCORDO
100
AcDbPolyline
 62
7
  6
CONTINUOUS
 90
8
 70
0
 10
38.8635111728
 20
-14.2728870989
 10
38.8193261309
 20
-14.2734579576
 10
38.7744483026
 20
-14.2752009861
 10
38.7289121861
 20
-14.2781620493
 10
38.6829429872
 20
-14.2823675837
 10
38.6363932663
 20
-14.2878735191
 10
38.5887471293
 20
-14.2948154901
 10
38.5399763596
 20
-14.3033020022
  0
LWPOLYLINE
  5
441
100
AcDbEntity
  8
RACCORDO
100
AcDbPolyline
 62
253
  6
CONTINUOUS
 90
11
 70
0
 10
38.8635111728
 20
-14.0175123407
 10
38.8078167571
 20
-14.0180926477
 10
38.7517968065
 20
-14.0201447777
 10
38.6952712628
 20
-14.0236687309
 10
38.6380998727
 20
-14.0285591085
 10
38.5800281704
 20
-14.0349213091
 10
38.5206845781
 20
-14.0430715289
 10
38.4600983343
 20
-14.0529592552
 10
38.3983891182
 20
-14.0646350006
 10
38.3352087807
 20
-14.0785664991
 10
38.2705578494
 20
-14.094671951
  0
LWPOLYLINE
  5
442
100
AcDbEntity
  8
RACCORDO
100
AcDbPolyline
 62
253
  6
CONTINUOUS
 90
4
 70
0
 10
40.8374514747
 20
-16.0617975248
 10
40.9023616597
 20
-16.0630848134
 10
40.9678025766
 20
-16.062450336
 10
41.0306440403
 20
-16.0599244007
  0
LINE
  5
443
100
AcDbEntity
  8
SUPERFICI
100
AcDbLine
 62
253
  6
CONTINUOUS
 10
36.5182494176
 20
-15.9174897257
 11
36.4162014482
 21
-15.9127627993
  0
LWPOLYLINE
  5
444
100
AcDbEntity
  8
SUPERFICI
100
AcDbPolyline
 62
253
  6
CONTINUOUS
 90
4
 70
0
 10
39.8956438753
 20
-13.8688882595
 10
39.5873089289
 20
-13.7713124605
 10
39.2503787544
 20
-13.7057404918
 10
38.8860684307
 20
-13.6716103999
  0
LWPOLYLINE
  5
445
100
AcDbEntity
  8
RACCORDO
100
AcDbPolyline
 62
7
  6
CONTINUOUS
 90
19
 70
0
 10
39.9384846298
 20
-14.6420505696
 10
39.8740799025
 20
-14.594232313
 10
39.8095080787
 20
-14.5506525265
 10
39.7447990943
 20
-14.5109905193
 10
39.6801748156
 20
-14.475091375
 10
39.6158913278
 20
-14.4428253154
 10
39.5519633731
 20
-14.413955991
 10
39.4885449817
 20
-14.3883318412
 10
39.4258618182
 20
-14.3657987001
 10
39.3639925234
 20
-14.3461482178
 10
39.3030656003
 20
-14.3292087577
 10
39.2432581203
 20
-14.3148303301
 10
39.184690869
 20
-14.3028528437
 10
39.1275172335
 20
-14.2931270012
 10
39.0717952305
 20
-14.2854910065
 10
39.0174796663
 20
-14.2797831088
 10
38.9645993402
 20
-14.275865413
 10
38.9132592471
 20
-14.273610165
 10
38.8635111728
 20
-14.2728869516
  0
LWPOLYLINE
  5
446
100
AcDbEntity
  8
RACCORDO
100
AcDbPolyline
 62
253
  6
CONTINUOUS
 90
7
 70
0
 10
40.6135111635
 20
-18.8607504062
 10
40.6204460717
 20
-18.8691217971
 10
40.6409301689
 20
-18.877106156
 10
40.6740164199
 20
-18.8843343443
 10
40.7181751583
 20
-18.8904721836
 10
40.7713648068
 20
-18.895235905
 10
40.8311262646
 20
-18.8984052687
  0
LWPOLYLINE
  5
447
100
AcDbEntity
  8
RACCORDO
100
AcDbPolyline
 62
7
  6
CONTINUOUS
 90
3
 70
0
 10
37.3119280834
 20
-19.670301401
 10
37.3631066477
 20
-19.7615915089
 10
37.4176077466
 20
-19.8466816557
  0
LWPOLYLINE
  5
448
100
AcDbEntity
  8
RACCORDO
100
AcDbPolyline
 62
253
  6
CONTINUOUS
 90
7
 70
0
 10
36.8911308954
 20
-19.733271487
 10
36.9492680347
 20
-19.8478654455
 10
37.0134348277
 20
-19.9552289069
 10
37.0809314308
 20
-20.0554372088
 10
37.1513668605
 20
-20.1483364449
 10
37.2249851455
 20
-20.2340805215
 10
37.2996118055
 20
-20.3132064944
  0
LINE
  5
449
100
AcDbEntity
  8
RACCORDO
100
AcDbLine
 62
253
  6
CONTINUOUS
 10
36.8388868988
 20
-19.6112396991
 11
36.8911308954
 21
-19.733271487
  0
LWPOLYLINE
  5
44A
100
AcDbEntity
  8
RACCORDO
100
AcDbPolyline
 62
7
  6
CONTINUOUS
 90
3
 70
0
 10
37.2225523509
 20
-19.4687930451
 10
37.2647784379
 20
-19.5726555058
 10
37.3119280834
 20
-19.670301401
  0
LWPOLYLINE
  5
44B
100
AcDbEntity
  8
SUPERFICI
100
AcDbPolyline
 62
253
  6
CONTINUOUS
 90
3
 70
0
 10
36.4974606405
 20
-19.2596890826
 10
36.5897250509
 20
-19.5191286669
 10
36.7225798672
 20
-19.7771496125
  0
LWPOLYLINE
  5
44C
100
AcDbEntity
  8
RACCORDO
100
AcDbPolyline
 62
253
  6
CONTINUOUS
 90
3
 70
0
 10
36.7554219932
 20
-19.3460312916
 10
36.7925849951
 20
-19.4819774142
 10
36.8388868988
 20
-19.6112396991
  0
LWPOLYLINE
  5
44D
100
AcDbEntity
  8
SUPERFICI
100
AcDbPolyline
 62
253
  6
CONTINUOUS
 90
4
 70
0
 10
38.8635111728
 20
-20.3961504071
 10
38.8641796888
 20
-20.4056395979
 10
38.864807686
 20
-20.4332015812
 10
38.8653819049
 20
-20.4773919158
  0
LWPOLYLINE
  5
44E
100
AcDbEntity
  8
RACCORDO
100
AcDbPolyline
 62
253
  6
CONTINUOUS
 90
4
 70
0
 10
36.7017607408
 20
-18.8986365568
 10
36.7105469343
 20
-19.0544519728
 10
36.7284383832
 20
-19.203583551
 10
36.7554219932
 20
-19.3460312916
  0
LWPOLYLINE
  5
44F
100
AcDbEntity
  8
RACCORDO
100
AcDbPolyline
 62
7
  6
CONTINUOUS
 90
6
 70
0
 10
37.1135111729
 20
-18.8607404897
 10
37.1185796855
 20
-18.9927566405
 10
37.1330558368
 20
-19.1202634056
 10
37.155885963
 20
-19.2425248962
 10
37.1860243864
 20
-19.3587953076
 10
37.2225523509
 20
-19.4687930451
  0
LINE
  5
450
100
AcDbEntity
  8
SUPERFICI
100
AcDbLine
 62
253
  6
CONTINUOUS
 10
38.8653819049
 20
-20.4773919158
 11
38.866319043
 21
-20.6107126499
  0
LINE
  5
451
100
AcDbEntity
  8
RACCORDO
100
AcDbLine
 62
253
  6
CONTINUOUS
 10
36.6941970177
 20
-16.0614479562
 11
36.7017607408
 21
-18.8986365568
  0
LINE
  5
452
100
AcDbEntity
  8
SUPERFICI
100
AcDbLine
 62
7
  6
CONTINUOUS
 10
36.4212230822
 20
-18.7129321917
 11
36.4184248077
 21
-17.779313259
  0
LINE
  5
453
100
AcDbEntity
  8
SUPERFICI
100
AcDbLine
 62
7
  6
CONTINUOUS
 10
36.4189895167
 20
-16.8460241807
 11
36.4162014482
 21
-15.9127627993
  0
LINE
  5
454
100
AcDbEntity
  8
RACCORDO
100
AcDbLine
 62
7
  6
CONTINUOUS
 10
37.1135111728
 20
-16.0227606937
 11
37.1135111728
 21
-18.8607404897
  0
LINE
  5
455
100
AcDbEntity
  8
RACCORDO
100
AcDbLine
 62
253
  6
CONTINUOUS
 10
38.8635111728
 20
-14.2728864749
 11
38.8635111728
 21
27.6339196371
  0
LINE
  5
456
100
AcDbEntity
  8
RACCORDO
100
AcDbLine
 62
253
  6
CONTINUOUS
 10
38.8635111732
 20
-20.6107505291
 11
38.8635111728
 21
-21.8107493658
  0
LINE
  5
457
100
AcDbEntity
  8
SUPERFICI
100
AcDbLine
 62
253
  6
CONTINUOUS
 10
38.8635095269
 20
-24.3442262848
 11
38.8635111728
 21
-21.8107493658
  0
LINE
  5
458
100
AcDbEntity
  8
SUPERFICI
100
AcDbLine
 62
253
  6
CONTINUOUS
 10
38.866319049
 20
-20.6107141997
 11
38.8668904808
 21
-20.97025577
  0
LINE
  5
459
100
AcDbEntity
  8
SUPERFICI
100
AcDbLine
 62
7
  6
CONTINUOUS
 10
35.9135849228
 20
-18.6458641654
 11
35.9152848803
 21
-15.8588238431
  0
LINE
  5
45A
100
AcDbEntity
  8
SUPERFICI
100
AcDbLine
 62
7
  6
CONTINUOUS
 10
37.1151698611
 20
-15.9702892538
 11
37.1135549228
 21
-18.6461941571
  0
LINE
  5
45B
100
AcDbEntity
  8
SUPERFICI
100
AcDbLine
 62
7
  6
CONTINUOUS
 10
36.4184248077
 20
-17.779313259
 11
36.4189895167
 21
-16.8460241807
  0
LINE
  5
45C
100
AcDbEntity
  8
SUPERFICI
100
AcDbLine
 62
253
  6
CONTINUOUS
 10
38.8852918221
 20
-13.7477661846
 11
38.8860354791
 21
-13.6706899246
  0
LINE
  5
45D
100
AcDbEntity
  8
RACCORDO
100
AcDbLine
 62
7
  6
CONTINUOUS
 10
37.116934711
 20
-15.9144593064
 11
37.1135111775
 21
-16.0227606937
  0
LWPOLYLINE
  5
45E
100
AcDbEntity
  8
0
100
AcDbPolyline
 62
7
  6
CONTINUOUS
 90
9
 70
0
 10
39.2299072887
 20
32.3745645614
 10
39.2365051042
 20
32.507188888
 10
39.2639849056
 20
32.6368889257
 10
39.3121781305
 20
32.7616873745
 10
39.3794700724
 20
32.8778011907
 10
39.4638620749
 20
32.9813430457
 10
39.5636385102
 20
33.0701804249
 10
39.6756185006
 20
33.1422440407
 10
39.7962464158
 20
33.1954656458
  0
LWPOLYLINE
  5
45F
100
AcDbEntity
  8
RACCORDO
100
AcDbPolyline
 62
7
  6
CONTINUOUS
 90
10
 70
0
 10
37.1563071461
 20
-15.6392612876
 10
37.1858972856
 20
-15.5253091328
 10
37.2211060198
 20
-15.4188262054
 10
37.2613782648
 20
-15.3187501794
 10
37.3059243841
 20
-15.2250597104
 10
37.3538092836
 20
-15.1378642057
 10
37.4047167827
 20
-15.0563154958
 10
37.4580812725
 20
-14.9802680995
 10
37.5132723304
 20
-14.9097122408
 10
37.5701555437
 20
-14.8440816226
  0
LWPOLYLINE
  5
460
100
AcDbEntity
  8
SUPERFICI
100
AcDbPolyline
 62
253
  6
CONTINUOUS
 90
4
 70
0
 10
36.6260529553
 20
-15.0133873311
 10
36.529809276
 20
-15.2818745818
 10
36.4602130585
 20
-15.581376873
 10
36.4163631048
 20
-15.9126631957
  0
LWPOLYLINE
  5
461
100
AcDbEntity
  8
RACCORDO
100
AcDbPolyline
 62
253
  6
CONTINUOUS
 90
20
 70
0
 10
40.2792004126
 20
-14.5076938474
 10
40.2005439764
 20
-14.4468120586
 10
40.1213057605
 20
-14.3910867369
 10
40.0413764192
 20
-14.3405282843
 10
39.9614049383
 20
-14.2943557514
 10
39.8815216534
 20
-14.2525090257
 10
39.8017285158
 20
-14.2150482197
 10
39.7224911962
 20
-14.1813727212
 10
39.6439190587
 20
-14.1514802678
 10
39.5660285419
 20
-14.125373122
 10
39.4891584511
 20
-14.1024574589
 10
39.4135719081
 20
-14.0827307895
 10
39.3393036255
 20
-14.0661956028
 10
39.2664744946
 20
-14.0522655408
 10
39.1951092427
 20
-14.040919517
 10
39.125399333
 20
-14.032178618
 10
39.0575740433
 20
-14.0255197459
 10
38.99146744
 20
-14.0207685348
 10
38.9268357146
 20
-14.0180993506
 10
38.8635111728
 20
-14.0175121934
  0
LINE
  5
462
100
AcDbEntity
  8
RACCORDO
100
AcDbLine
 62
253
  6
CONTINUOUS
 10
40.3572041225
 20
-14.5737425053
 11
40.2792004126
 21
-14.5076938474
  0
LWPOLYLINE
  5
463
100
AcDbEntity
  8
SUPERFICI
100
AcDbPolyline
 62
253
  6
CONTINUOUS
 90
4
 70
0
 10
40.6459486841
 20
-14.354250235
 10
40.42423582
 20
-14.1642338429
 10
40.1745395656
 20
-14.0004894025
 10
39.8956438753
 20
-13.8688882595
  0
LWPOLYLINE
  5
464
100
AcDbEntity
  8
RACCORDO
100
AcDbPolyline
 62
253
  6
CONTINUOUS
 90
7
 70
0
 10
40.6134486329
 20
-16.0228871294
 10
40.6206102933
 20
-16.0316272499
 10
40.6417794836
 20
-16.0399505681
 10
40.6759436348
 20
-16.0474589128
 10
40.7214686005
 20
-16.0537930945
 10
40.77617682
 20
-16.0586500874
 10
40.8374514747
 20
-16.0617975248
  0
LWPOLYLINE
  5
465
100
AcDbEntity
  8
RACCORDO
100
AcDbPolyline
 62
7
  6
CONTINUOUS
 90
7
 70
0
 10
40.3042061088
 20
-15.0295580535
 10
40.2472427802
 20
-14.9516420617
 10
40.188293214
 20
-14.8795265989
 10
40.1275327358
 20
-14.8126716016
 10
40.0653976089
 20
-14.7509484241
 10
40.0023604164
 20
-14.6942305681
 10
39.9384846298
 20
-14.6420505696
  0
LWPOLYLINE
  5
466
100
AcDbEntity
  8
SUPERFICI
100
AcDbPolyline
 62
253
  6
CONTINUOUS
 90
4
 70
0
 10
41.1518032382
 20
-15.0695409178
 10
41.017914025
 20
-14.8126858457
 10
40.8452498532
 20
-14.5709128949
 10
40.6459486841
 20
-14.354250235
  0
LWPOLYLINE
  5
467
100
AcDbEntity
  8
RACCORDO
100
AcDbPolyline
 62
253
  6
CONTINUOUS
 90
10
 70
0
 10
40.9387789736
 20
-15.4628622143
 10
40.8918613714
 20
-15.3344410309
 10
40.8393477678
 20
-15.2138447446
 10
40.7815978182
 20
-15.1012102721
 10
40.7180435527
 20
-14.9964006968
 10
40.6512307013
 20
-14.8985395478
 10
40.5814987456
 20
-14.807657802
 10
40.5084390395
 20
-14.7237244826
 10
40.4335651447
 20
-14.6457701887
 10
40.3572041225
 20
-14.5737425053
  0
LWPOLYLINE
  5
468
100
AcDbEntity
  8
RACCORDO
100
AcDbPolyline
 62
7
  6
CONTINUOUS
 90
6
 70
0
 10
40.5372040901
 20
-15.5122399463
 10
40.4998340235
 20
-15.4024993237
 10
40.4570035862
 20
-15.2994084273
 10
40.4095739859
 20
-15.2029760158
 10
40.3585188018
 20
-15.1132906917
 10
40.3042061088
 20
-15.0295580535
  0
LINE
  5
469
100
AcDbEntity
  8
RACCORDO
100
AcDbLine
 62
7
  6
CONTINUOUS
 10
40.5684988111
 20
-15.6295254027
 11
40.5372040901
 21
-15.5122399463
  0
LWPOLYLINE
  5
46A
100
AcDbEntity
  8
SUPERFICI
100
AcDbPolyline
 62
7
  6
CONTINUOUS
 90
7
 70
0
 10
33.1185487364
 20
11.0471334911
 10
33.0656773362
 20
11.2602337991
 10
33.0176654805
 20
11.4756570114
 10
32.9745131694
 20
11.6934031281
 10
32.9362460304
 20
11.9135309392
 10
32.9028384361
 20
12.1359816547
 10
32.874213504
 20
12.3605789047
  0
LWPOLYLINE
  5
46B
100
AcDbEntity
  8
SUPERFICI
100
AcDbPolyline
 62
7
  6
CONTINUOUS
 90
5
 70
0
 10
32.9025491458
 20
12.6032126076
 10
32.9392797506
 20
12.3916231404
 10
32.9804453634
 20
12.1821974209
 10
33.0260194687
 20
11.9748848497
 10
33.0760020666
 20
11.7696854269
  0
LWPOLYLINE
  5
46C
100
AcDbEntity
  8
SUPERFICI
100
AcDbPolyline
 62
253
  6
CONTINUOUS
 90
4
 70
0
 10
41.3262253185
 20
-15.9041882396
 10
41.30227075
 20
-15.6152896118
 10
41.2445476024
 20
-15.3366048343
 10
41.1518032382
 20
-15.0695409178
  0
LWPOLYLINE
  5
46D
100
AcDbEntity
  8
RACCORDO
100
AcDbPolyline
 62
253
  6
CONTINUOUS
 90
5
 70
0
 10
41.0306264318
 20
-16.0599188385
 10
41.0214752658
 20
-15.8981799469
 10
41.0034203197
 20
-15.7447316723
 10
40.9763392924
 20
-15.5995740148
 10
40.9387789736
 20
-15.4628622143
  0
LWPOLYLINE
  5
46E
100
AcDbEntity
  8
RACCORDO
100
AcDbPolyline
 62
7
  6
CONTINUOUS
 90
4
 70
0
 10
40.6135111712
 20
-16.0229621475
 10
40.6080420403
 20
-15.8857745114
 10
40.5925806634
 20
-15.7543648677
 10
40.5684988111
 20
-15.6295254027
  0
LINE
  5
46F
100
AcDbEntity
  8
SUPERFICI
100
AcDbLine
 62
7
  6
CONTINUOUS
 10
40.6134674228
 20
-18.6461941571
 11
40.6134674228
 21
-16.0229621475
  0
LINE
  5
470
100
AcDbEntity
  8
RACCORDO
100
AcDbLine
 62
7
  6
CONTINUOUS
 10
40.6135111728
 20
-18.8607605901
 11
40.6135111728
 21
-16.0229621475
  0
LINE
  5
471
100
AcDbEntity
  8
SUPERFICI
100
AcDbLine
 62
7
  6
CONTINUOUS
 10
41.8134274231
 20
-15.8591338354
 11
41.8134374228
 21
-18.6462241564
  0
LINE
  5
472
100
AcDbEntity
  8
RACCORDO
100
AcDbLine
 62
253
  6
CONTINUOUS
 10
41.0214675716
 20
-18.8972874157
 11
41.0306264318
 21
-16.0599188385
  0
LINE
  5
473
100
AcDbEntity
  8
SUPERFICI
100
AcDbLine
 62
253
  6
CONTINUOUS
 10
41.3262253185
 20
-15.9041882396
 11
41.3131357054
 21
-18.7038981106
  0
LINE
  5
474
100
AcDbEntity
  8
SUPERFICI
100
AcDbLine
 62
7
  6
CONTINUOUS
 10
43.735804935
 20
-9.3280034984
 11
43.7468197235
 21
-9.1178289072
  0
LINE
  5
475
100
AcDbEntity
  8
RACCORDO
100
AcDbLine
 62
7
  6
CONTINUOUS
 10
46.1986880087
 20
37.5512165417
 11
44.9314741029
 21
13.3319327539
  0
LINE
  5
476
100
AcDbEntity
  8
SUPERFICI
100
AcDbLine
 62
7
  6
CONTINUOUS
 10
43.7458217192
 20
-9.328528456
 11
43.0703700506
 21
-22.2379161855
  0
LWPOLYLINE
  5
477
100
AcDbEntity
  8
SUPERFICI
100
AcDbPolyline
 62
253
  6
CONTINUOUS
 90
3
 70
0
 10
41.2249548768
 20
-19.2728097954
 10
41.2847615396
 20
-18.9951734952
 10
41.3131357054
 20
-18.7038981106
  0
LWPOLYLINE
  5
478
100
AcDbEntity
  8
RACCORDO
100
AcDbPolyline
 62
7
  6
CONTINUOUS
 90
12
 70
0
 10
37.4352608213
 20
-15.0117481951
 10
37.3928761736
 20
-15.074415981
 10
37.3529749953
 20
-15.1392875102
 10
37.3148333464
 20
-15.2079155033
 10
37.2786884984
 20
-15.2806023347
 10
37.2450831179
 20
-15.3571017116
 10
37.2141030133
 20
-15.4382835699
 10
37.1862196114
 20
-15.524219901
 10
37.1620130263
 20
-15.6146621001
 10
37.1419430377
 20
-15.7099592894
 10
37.1266641488
 20
-15.810055874
 10
37.116934711
 20
-15.9144593064
  0
LWPOLYLINE
  5
479
100
AcDbEntity
  8
RACCORDO
100
AcDbPolyline
 62
253
  6
CONTINUOUS
 90
7
 70
0
 10
37.1135111802
 20
-16.0228871261
 10
37.106281719
 20
-16.032057997
 10
37.084941779
 20
-16.0407868655
 10
37.0505198681
 20
-16.0486530318
 10
37.0046749973
 20
-16.0552773752
 10
36.9496167231
 20
-16.0603406263
 10
36.8879986551
 20
-16.0635987544
  0
LWPOLYLINE
  5
47A
100
AcDbEntity
  8
RACCORDO
100
AcDbPolyline
 62
253
  6
CONTINUOUS
 90
7
 70
0
 10
37.1135657533
 20
-18.8607504041
 10
37.1065419533
 20
-18.8695423312
 10
37.0857776636
 20
-18.8779215293
 10
37.05224671
 20
-18.8854951263
 10
37.0075216622
 20
-18.8919080317
 10
36.9537000838
 20
-18.8968595889
 10
36.8933061581
 20
-18.9001176742
  0
LWPOLYLINE
  5
47B
100
AcDbEntity
  8
RACCORDO
100
AcDbPolyline
 62
7
  6
CONTINUOUS
 90
4
 70
0
 10
37.5772493125
 20
-14.8363430362
 10
37.5273303472
 20
-14.8928715958
 10
37.4801756171
 20
-14.9511270225
 10
37.4352608213
 20
-15.0117481951
  0
LINE
  5
47C
100
AcDbEntity
  8
RACCORDO
100
AcDbLine
 62
7
  6
CONTINUOUS
 10
37.630350264
 20
-14.7812423338
 11
37.5701555437
 21
-14.8440816226
  0
LWPOLYLINE
  5
47D
100
AcDbEntity
  8
SUPERFICI
100
AcDbPolyline
 62
253
  6
CONTINUOUS
 90
4
 70
0
 10
37.0848759399
 20
-14.389367487
 10
36.9006361418
 20
-14.5785431211
 10
36.7490225096
 20
-14.7808766686
 10
36.6260529553
 20
-15.0133873311
  0
LWPOLYLINE
  5
47E
100
AcDbEntity
  8
RACCORDO
100
AcDbPolyline
 62
253
  6
CONTINUOUS
 90
17
 70
0
 10
37.3322419484
 20
-14.610382557
 10
37.2664632168
 20
-14.6745629226
 10
37.2046015016
 20
-14.740370823
 10
37.1461716292
 20
-14.8083666218
 10
37.0908347637
 20
-14.8790971167
 10
37.0384370938
 20
-14.9521662413
 10
36.988968553
 20
-15.0279700619
 10
36.9421435871
 20
-15.1082435757
 10
36.897407548
 20
-15.1932724866
 10
36.8553515842
 20
-15.2827710907
 10
36.8173711933
 20
-15.3776172731
 10
36.7831051549
 20
-15.4780777854
 10
36.752747024
 20
-15.5838858762
 10
36.7285080354
 20
-15.6951191756
 10
36.7110946968
 20
-15.8118035605
 10
36.6996744507
 20
-15.933913154
 10
36.6941970177
 20
-16.0614479562
  0
LINE
  5
47F
100
AcDbEntity
  8
RACCORDO
100
AcDbLine
 62
7
  6
CONTINUOUS
 10
37.6283222711
 20
-14.7832594421
 11
37.6873495889
 21
-14.7271386584
  0
LINE
  5
480
100
AcDbEntity
  8
RACCORDO
100
AcDbLine
 62
253
  6
CONTINUOUS
 10
37.4013968079
 20
-14.5483900898
 11
37.3322419484
 21
-14.610382557
  0
LINE
  5
481
100
AcDbEntity
  8
RACCORDO
100
AcDbLine
 62
7
  6
CONTINUOUS
 10
37.6861738623
 20
-14.7282063757
 11
37.7472338643
 21
-14.6752265646
  0
LINE
  5
482
100
AcDbEntity
  8
RACCORDO
100
AcDbLine
 62
7
  6
CONTINUOUS
 10
37.7439182228
 20
-14.6779789236
 11
37.8077725192
 21
-14.627301391
  0
LINE
  5
483
100
AcDbEntity
  8
RACCORDO
100
AcDbLine
 62
7
  6
CONTINUOUS
 10
37.8035572017
 20
-14.6305003231
 11
37.8685546556
 21
-14.58332572
  0
LINE
  5
484
100
AcDbEntity
  8
RACCORDO
100
AcDbLine
 62
7
  6
CONTINUOUS
 10
37.8648193198
 20
-14.5859157829
 11
37.9293524849
 21
-14.5431229711
  0
LINE
  5
485
100
AcDbEntity
  8
RACCORDO
100
AcDbLine
 62
7
  6
CONTINUOUS
 10
37.9263421758
 20
-14.5450292393
 11
37.9899730525
 21
-14.5065130378
  0
LWPOLYLINE
  5
486
100
AcDbEntity
  8
SUPERFICI
100
AcDbPolyline
 62
253
  6
CONTINUOUS
 90
4
 70
0
 10
37.8475922706
 20
-13.8812759751
 10
37.5607545235
 20
-14.0256797432
 10
37.3053121
 20
-14.2012930048
 10
37.0848759399
 20
-14.389367487
  0
LWPOLYLINE
  5
487
100
AcDbEntity
  8
RACCORDO
100
AcDbPolyline
 62
7
  6
CONTINUOUS
 90
6
 70
0
 10
38.2796398069
 20
-14.3732472901
 10
38.2239663133
 20
-14.3939562115
 10
38.1671945626
 20
-14.4173583964
 10
38.1088948812
 20
-14.4439112138
 10
38.0488429473
 20
-14.474058044
 10
37.9876945311
 20
-14.5078292493
  0
LINE
  5
488
100
AcDbEntity
  8
RACCORDO
100
AcDbLine
 62
7
  6
CONTINUOUS
 10
38.2796398069
 20
-14.3732472901
 11
38.3357185424
 21
-14.3545273462
  0
LINE
  5
489
100
AcDbEntity
  8
RACCORDO
100
AcDbLine
 62
7
  6
CONTINUOUS
 10
38.3341169196
 20
-14.3550330152
 11
38.3890908203
 21
-14.33862747
  0
LWPOLYLINE
  5
48A
100
AcDbEntity
  8
SUPERFICI
100
AcDbPolyline
 62
7
  6
CONTINUOUS
 90
3
 70
0
 10
43.7005139185
 20
-9.9086782019
 10
43.7038479431
 20
-9.9143207407
 10
43.7049576493
 20
-9.9166045128
  0
LWPOLYLINE
  5
48B
100
AcDbEntity
  8
SUPERFICI
100
AcDbPolyline
 62
7
  6
CONTINUOUS
 90
4
 70
0
 10
43.6666504271
 20
-9.8519290172
 10
43.6780297474
 20
-9.8712959081
 10
43.6875208291
 20
-9.8871933844
 10
43.7005139185
 20
-9.9086782019
  0
LINE
  5
48C
100
AcDbEntity
  8
SUPERFICI
100
AcDbLine
 62
7
  6
CONTINUOUS
 10
43.6261746142
 20
-9.7762889533
 11
43.6666504271
 21
-9.8519290172
  0
LINE
  5
48D
100
AcDbEntity
  8
SUPERFICI
100
AcDbLine
 62
7
  6
CONTINUOUS
 10
43.5736387746
 20
-9.6770550223
 11
43.6261746142
 21
-9.7762889533
  0
LWPOLYLINE
  5
48E
100
AcDbEntity
  8
SUPERFICI
100
AcDbPolyline
 62
7
  6
CONTINUOUS
 90
3
 70
0
 10
43.4391054032
 20
-9.4062874649
 10
43.5107575259
 20
-9.553825447
 10
43.5736387746
 20
-9.6770550223
  0
LINE
  5
48F
100
AcDbEntity
  8
SUPERFICI
100
AcDbLine
 62
7
  6
CONTINUOUS
 10
43.3601270544
 20
-9.2342016141
 11
43.4391054032
 21
-9.4062874649
  0
LINE
  5
490
100
AcDbEntity
  8
SUPERFICI
100
AcDbLine
 62
7
  6
CONTINUOUS
 10
43.2751468811
 20
-9.0373876022
 11
43.3601270544
 21
-9.2342016141
  0
LWPOLYLINE
  5
491
100
AcDbEntity
  8
SUPERFICI
100
AcDbPolyline
 62
7
  6
CONTINUOUS
 90
7
 70
0
 10
42.8026491018
 20
-7.7359453528
 10
42.8817370784
 20
-7.9784791524
 10
42.9616244018
 20
-8.2104609027
 10
43.0416547383
 20
-8.4321135492
 10
43.1211140331
 20
-8.6436632617
 10
43.1992259199
 20
-8.8453415419
 10
43.2751468811
 20
-9.0373876022
  0
LWPOLYLINE
  5
492
100
AcDbEntity
  8
SUPERFICI
100
AcDbPolyline
 62
7
  6
CONTINUOUS
 90
16
 70
0
 10
36.7712668684
 20
28.6984216865
 10
36.7693990003
 20
28.7122367455
 10
36.7652034551
 20
28.7533163095
 10
36.7631382355
 20
28.7905818356
 10
36.7626765884
 20
28.8226206685
 10
36.7632687252
 20
28.8506950503
 10
36.7647894747
 20
28.8787096224
 10
36.7673763235
 20
28.907981241
 10
36.7709710876
 20
28.9371028069
 10
36.7755358214
 20
28.9658746761
 10
36.7810881763
 20
28.9944762438
 10
36.7875609056
 20
29.0226274814
 10
36.7946846617
 20
29.0494661329
 10
36.8021696174
 20
29.0744362628
 10
36.8100309448
 20
29.0980536037
 10
36.8184380912
 20
29.1210522908
  0
LINE
  5
493
100
AcDbEntity
  8
RACCORDO
100
AcDbLine
 62
7
  6
CONTINUOUS
 10
46.1986878648
 20
37.5512165492
 11
46.1995197138
 21
37.6134487983
  0
LWPOLYLINE
  5
494
100
AcDbEntity
  8
SUPERFICI
100
AcDbPolyline
 62
7
  6
CONTINUOUS
 90
10
 70
0
 10
43.0703700935
 20
-22.2379153404
 10
43.0678352581
 20
-22.2684298707
 10
43.0634423339
 20
-22.2986993361
 10
43.0572047522
 20
-22.3286477287
 10
43.0491458943
 20
-22.3581697192
 10
43.0392943515
 20
-22.3871465306
 10
43.0276888257
 20
-22.4154639812
 10
43.0143788512
 20
-22.4430103836
 10
42.9994099108
 20
-22.4696878572
 10
42.9828175081
 20
-22.4954278255
  0
LWPOLYLINE
  5
495
100
AcDbEntity
  8
RACCORDO
100
AcDbPolyline
 62
253
  6
CONTINUOUS
 90
8
 70
0
 10
40.8721771497
 20
-19.6388017035
 10
40.9124202507
 20
-19.5330361502
 10
40.9460878761
 20
-19.4253352598
 10
40.9737109471
 20
-19.3159464893
 10
40.9950742125
 20
-19.2081220941
 10
41.0101131152
 20
-19.1029461593
 10
41.0189144806
 20
-18.9993345998
 10
41.0214675716
 20
-18.8972874157
  0
LINE
  5
496
100
AcDbEntity
  8
RACCORDO
100
AcDbLine
 62
253
  6
CONTINUOUS
 10
40.8257892035
 20
-19.7428793767
 11
40.8721771497
 21
-19.6388017035
  0
LWPOLYLINE
  5
497
100
AcDbEntity
  8
RACCORDO
100
AcDbPolyline
 62
7
  6
CONTINUOUS
 90
10
 70
0
 10
40.4171520826
 20
-19.6664027464
 10
40.4582635827
 20
-19.5815639056
 10
40.495238867
 20
-19.4932285821
 10
40.5272839425
 20
-19.402999086
 10
40.5543885338
 20
-19.3110569569
 10
40.5764515195
 20
-19.2178791526
 10
40.5931317318
 20
-19.1257268027
 10
40.6046274056
 20
-19.0356055682
 10
40.6113334186
 20
-18.9471914493
 10
40.6135111728
 20
-18.8607605901
  0
LWPOLYLINE
  5
498
100
AcDbEntity
  8
SUPERFICI
100
AcDbPolyline
 62
253
  6
CONTINUOUS
 90
3
 70
0
 10
41.0070590487
 20
-19.7848349921
 10
41.1332237418
 20
-19.5359463034
 10
41.2249548768
 20
-19.2728097954
  0
LWPOLYLINE
  5
499
100
AcDbEntity
  8
RACCORDO
100
AcDbPolyline
 62
7
  6
CONTINUOUS
 90
3
 70
0
 10
40.3241585868
 20
-19.8248076463
 10
40.3723628354
 20
-19.7474579066
 10
40.4171520826
 20
-19.6664027464
  0
LWPOLYLINE
  5
49A
100
AcDbEntity
  8
SUPERFICI
100
AcDbPolyline
 62
253
  6
CONTINUOUS
 90
3
 70
0
 10
40.6555599819
 20
-20.2317526623
 10
40.8467086424
 20
-20.0178741366
 10
41.0070590487
 20
-19.7848349921
  0
LWPOLYLINE
  5
49B
100
AcDbEntity
  8
RACCORDO
100
AcDbPolyline
 62
253
  6
CONTINUOUS
 90
7
 70
0
 10
40.4633685246
 20
-20.2699881368
 10
40.5311780597
 20
-20.1949445161
 10
40.5963889543
 20
-20.1147025406
 10
40.6591677782
 20
-20.0289196135
 10
40.7193664279
 20
-19.9379383317
 10
40.7749133514
 20
-19.8427592854
 10
40.8257892035
 20
-19.7428793767
  0
LWPOLYLINE
  5
49C
100
AcDbEntity
  8
SUPERFICI
100
AcDbPolyline
 62
253
  6
CONTINUOUS
 90
5
 70
0
 10
42.9828129281
 20
-22.4953007498
 10
42.9526243329
 20
-22.5327076675
 10
42.9001481174
 20
-22.5904220837
 10
42.8258486462
 20
-22.6680934946
 10
42.7268176488
 20
-22.769061762
  0
LINE
  5
49D
100
AcDbEntity
  8
SUPERFICI
100
AcDbLine
 62
253
  6
CONTINUOUS
 10
43.0485415381
 20
-22.2596660188
 11
43.0703700506
 21
-22.2379161855
  0
LWPOLYLINE
  5
49E
100
AcDbEntity
  8
SUPERFICI
100
AcDbPolyline
 62
253
  6
CONTINUOUS
 90
3
 70
0
 10
42.7268176488
 20
-22.769061762
 10
42.6055095981
 20
-22.8876852583
 10
42.4704702476
 20
-23.0102484162
  0
LWPOLYLINE
  5
49F
100
AcDbEntity
  8
SUPERFICI
100
AcDbPolyline
 62
7
  6
CONTINUOUS
 90
3
 70
0
 10
42.0576083804
 20
-23.5071022471
 10
42.6141985452
 20
-22.9672174107
 10
42.9828129281
 20
-22.4953007498
  0
LWPOLYLINE
  5
4A0
100
AcDbEntity
  8
RACCORDO
100
AcDbPolyline
 62
253
  6
CONTINUOUS
 90
3
 70
0
 10
40.3252422691
 20
-20.4043128268
 10
40.3946464155
 20
-20.3398606038
 10
40.4633685246
 20
-20.2699881368
  0
LINE
  5
4A1
100
AcDbEntity
  8
SUPERFICI
100
AcDbLine
 62
253
  6
CONTINUOUS
 10
40.4322907464
 20
-20.4305395202
 11
40.6555599819
 21
-20.2317526623
  0
LWPOLYLINE
  5
4A2
100
AcDbEntity
  8
SUPERFICI
100
AcDbPolyline
 62
253
  6
CONTINUOUS
 90
16
 70
0
 10
42.4704702476
 20
-23.0102484162
 10
42.3243437641
 20
-23.1323232462
 10
42.1642341384
 20
-23.2563421018
 10
41.9910469042
 20
-23.3796376615
 10
41.8051123165
 20
-23.50041805
 10
41.6058933161
 20
-23.6181569712
 10
41.3930787768
 20
-23.7321210567
 10
41.1665207334
 20
-23.8410271593
 10
40.9262183243
 20
-23.9433672774
 10
40.6720597483
 20
-24.0379387066
 10
40.4039346407
 20
-24.1231496918
 10
40.1220116166
 20
-24.1971585911
 10
39.8266517795
 20
-24.2582714875
 10
39.5181803452
 20
-24.3046105426
 10
39.1969363474
 20
-24.3340357064
 10
38.8635104651
 20
-24.3442240609
  0
LWPOLYLINE
  5
4A3
100
AcDbEntity
  8
RACCORDO
100
AcDbPolyline
 62
7
  6
CONTINUOUS
 90
9
 70
0
 10
39.8825751552
 20
-20.282999755
 10
39.9399720286
 20
-20.2402147166
 10
39.9972542932
 20
-20.1936990911
 10
40.0541265795
 20
-20.1433149788
 10
40.1105209086
 20
-20.0886785183
 10
40.1661996183
 20
-20.0294982466
 10
40.2206640301
 20
-19.9657900407
 10
40.2734039678
 20
-19.8976389144
 10
40.3241585868
 20
-19.8248076463
  0
LWPOLYLINE
  5
4A4
100
AcDbEntity
  8
RACCORDO
100
AcDbPolyline
 62
7
  6
CONTINUOUS
 90
3
 70
0
 10
39.768090248
 20
-20.3582177928
 10
39.8253124296
 20
-20.3222154184
 10
39.8825751552
 20
-20.282999755
  0
LWPOLYLINE
  5
4A5
100
AcDbEntity
  8
RACCORDO
100
AcDbPolyline
 62
253
  6
CONTINUOUS
 90
7
 70
0
 10
39.9029758089
 20
-20.6964284426
 10
39.9729465995
 20
-20.6575258207
 10
40.0431542731
 20
-20.6150688916
 10
40.1136582758
 20
-20.5689719285
 10
40.1841871181
 20
-20.518478283
 10
40.2547965726
 20
-20.4635938961
 10
40.3252422691
 20
-20.4043128268
  0
LWPOLYLINE
  5
4A6
100
AcDbEntity
  8
SUPERFICI
100
AcDbPolyline
 62
253
  6
CONTINUOUS
 90
3
 70
0
 10
39.8905946131
 20
-20.7537566512
 10
40.175848377
 20
-20.6096722568
 10
40.4322907464
 20
-20.4305395202
  0
LWPOLYLINE
  5
4A7
100
AcDbEntity
  8
RACCORDO
100
AcDbPolyline
 62
7
  6
CONTINUOUS
 90
7
 70
0
 10
39.4337754484
 20
-20.5144698583
 10
39.4877286081
 20
-20.494889188
 10
39.5425806486
 20
-20.4728961923
 10
39.598184679
 20
-20.4483557664
 10
39.6543681506
 20
-20.4211608266
 10
39.7110236872
 20
-20.3911739989
 10
39.768090248
 20
-20.3582177928
  0
LWPOLYLINE
  5
4A8
100
AcDbEntity
  8
RACCORDO
100
AcDbPolyline
 62
7
  6
CONTINUOUS
 90
10
 70
0
 10
46.1995197138
 20
37.6134487983
 10
46.1829103033
 20
37.7564427121
 10
46.1152910672
 20
37.9508504426
 10
46.0003064205
 20
38.1215703373
 10
45.8455681261
 20
38.2573010813
 10
45.661319562
 20
38.3490575741
 10
45.4597576293
 20
38.3907657257
 10
45.2542253405
 20
38.3796645503
 10
45.0583285382
 20
38.3164889384
 10
44.8850352143
 20
38.2054210083
  0
LWPOLYLINE
  5
4A9
100
AcDbEntity
  8
SUPERFICI
100
AcDbPolyline
 62
253
  6
CONTINUOUS
 90
9
 70
0
 10
41.7619988073
 20
-23.1520965717
 10
41.9960929354
 20
-23.0124747702
 10
42.2095487647
 20
-22.8691274543
 10
42.4095688614
 20
-22.7327407838
 10
42.5923617514
 20
-22.6011009029
 10
42.7524461838
 20
-22.4764216675
 10
42.8851306235
 20
-22.3760308052
 10
42.9853584689
 20
-22.3057042254
 10
43.0485415381
 20
-22.2596660188
  0
LWPOLYLINE
  5
4AA
100
AcDbEntity
  8
SUPERFICI
100
AcDbPolyline
 62
7
  6
CONTINUOUS
 90
4
 70
0
 10
39.9805255451
 20
-24.5334361373
 10
40.7229921323
 20
-24.3013067625
 10
41.4222678035
 20
-23.9555777543
 10
42.0576083804
 20
-23.5071022471
  0
LINE
  5
4AB
100
AcDbEntity
  8
SUPERFICI
100
AcDbLine
 62
7
  6
CONTINUOUS
 10
33.2776797968
 20
8.953382441
 11
33.0331159497
 21
8.9533835484
  0
LINE
  5
4AC
100
AcDbEntity
  8
SUPERFICI
100
AcDbLine
 62
7
  6
CONTINUOUS
 10
33.0058144664
 20
9.4519633714
 11
33.2136951589
 21
9.4519633714
  0
LINE
  5
4AD
100
AcDbEntity
  8
SUPERFICI
100
AcDbLine
 62
7
  6
CONTINUOUS
 10
32.9550707849
 20
13.8518533714
 11
32.7753738655
 21
13.8518533714
  0
LINE
  5
4AE
100
AcDbEntity
  8
SUPERFICI
100
AcDbLine
 62
7
  6
CONTINUOUS
 10
32.750134139
 20
14.3532506041
 11
32.9643386191
 21
14.3532553218
  0
LWPOLYLINE
  5
4AF
100
AcDbEntity
  8
0
100
AcDbPolyline
 62
7
  6
CONTINUOUS
 90
12
 70
0
 10
35.2114989766
 20
26.0478635666
 10
35.2168427616
 20
26.0445549999
 10
35.2351466753
 20
26.0571848825
 10
35.2636088272
 20
26.0902434349
 10
35.3023849365
 20
26.1448851925
 10
35.3499265492
 20
26.2181351827
 10
35.4005724699
 20
26.3010769564
 10
35.453827809
 20
26.3933144585
 10
35.5091269253
 20
26.4934680265
 10
35.5608091213
 20
26.5912959626
 10
35.6071749871
 20
26.6835647304
 10
35.6504267521
 20
26.7738732289
  0
LINE
  5
4B0
100
AcDbEntity
  8
0
100
AcDbLine
 62
253
  6
CONTINUOUS
 10
34.4053924629
 20
25.0308587503
 11
34.581127336
 21
24.9462098938
  0
LWPOLYLINE
  5
4B1
100
AcDbEntity
  8
RACCORDO
100
AcDbPolyline
 62
253
  6
CONTINUOUS
 90
10
 70
0
 10
38.8635111728
 20
27.6339196154
 10
38.7668603862
 20
27.6981895096
 10
38.6722442957
 20
27.7636115945
 10
38.5816547657
 20
27.8288086008
 10
38.4969988932
 20
27.8924079972
 10
38.4200588595
 20
27.9530708858
 10
38.3524544114
 20
28.009520188
 10
38.2956087624
 20
28.06056753
 10
38.2507186311
 20
28.1051382604
 10
38.2187290478
 20
28.1422940737
  0
LWPOLYLINE
  5
4B2
100
AcDbEntity
  8
RACCORDO
100
AcDbPolyline
 62
253
  6
CONTINUOUS
 90
10
 70
0
 10
40.0215851179
 20
29.0415766491
 10
39.9125466151
 20
29.1171442841
 10
39.800455003
 20
29.193858007
 10
39.6885503911
 20
29.2695002299
 10
39.5800674833
 20
29.3418843385
 10
39.4781420745
 20
29.4089178983
 10
39.3857204054
 20
29.4686631388
 10
39.3054739979
 20
29.5193929675
 10
39.239722431
 20
29.5596408939
 10
39.1903662893
 20
29.5882434189
  0
LINE
  5
4B3
100
AcDbEntity
  8
0
100
AcDbLine
 62
253
  6
CONTINUOUS
 10
38.0228847857
 20
30.4125502619
 11
38.0776908797
 21
30.3741752808
  0
LINE
  5
4B4
100
AcDbEntity
  8
0
100
AcDbLine
 62
253
  6
CONTINUOUS
 10
37.6929869862
 20
30.6435341146
 11
37.8102002275
 21
30.5614167632
  0
LINE
  5
4B5
100
AcDbEntity
  8
RACCORDO
100
AcDbLine
 62
253
  6
CONTINUOUS
 10
39.1903667664
 20
29.5882438581
 11
38.335376748
 21
30.1937439532
  0
LWPOLYLINE
  5
4B6
100
AcDbEntity
  8
0
100
AcDbPolyline
 62
253
  6
CONTINUOUS
 90
10
 70
0
 10
36.5370175788
 20
28.523291784
 10
36.4904594073
 20
28.5148629809
 10
36.4455951764
 20
28.50346064
 10
36.4026161713
 20
28.489105778
 10
36.3616663222
 20
28.4718165225
 10
36.3230166838
 20
28.4516200026
 10
36.2870156488
 20
28.4285901317
 10
36.2538715818
 20
28.4027976015
 10
36.2237046362
 20
28.3742800778
 10
36.1967037474
 20
28.3431574085
  0
LWPOLYLINE
  5
4B7
100
AcDbEntity
  8
0
100
AcDbPolyline
 62
253
  6
CONTINUOUS
 90
5
 70
0
 10
35.6909419843
 20
26.8622407852
 10
35.6265753304
 20
26.8535088749
 10
35.5663471902
 20
26.8397011801
 10
35.5104456732
 20
26.8210751201
 10
35.4588770946
 20
26.7980564986
  0
LINE
  5
4B8
100
AcDbEntity
  8
0
100
AcDbLine
 62
7
  6
CONTINUOUS
 10
39.7962464158
 20
33.1954656458
 11
39.9242909702
 21
33.2295340198
  0
LINE
  5
4B9
100
AcDbEntity
  8
0
100
AcDbLine
 62
7
  6
CONTINUOUS
 10
41.3319574916
 20
34.937530139
 11
41.4604723208
 21
34.9638995367
  0
ARC
  5
4BA
100
AcDbEntity
  8
0
100
AcDbCircle
 62
7
  6
CONTINUOUS
 10
-0.4081237709
 20
7.4454284888
 40
0.8849429377
100
AcDbArc
 50
22.842868527
 51
180.0
  0
ARC
  5
4BB
100
AcDbEntity
  8
0
100
AcDbCircle
 62
7
  6
CONTINUOUS
 10
-0.4081237709
 20
7.3653250188
 40
0.351100675
100
AcDbArc
 50
0.0
 51
180.0
  0
ARC
  5
4BC
100
AcDbEntity
  8
RACCORDO
100
AcDbCircle
 62
7
  6
CONTINUOUS
 10
-3.1158202649
 20
-13.9728862567
 40
0.3000002182
100
AcDbArc
 50
188.5546531159
 51
209.7823160441
  0
ARC
  5
4BD
100
AcDbEntity
  8
RACCORDO
100
AcDbCircle
 62
7
  6
CONTINUOUS
 10
3.4153215801
 20
-13.9728871416
 40
0.2999999816
100
AcDbArc
 50
330.213492825
 51
351.4454962379
  0
ARC
  5
4BE
100
AcDbEntity
  8
SUPERFICI
100
AcDbCircle
 62
7
  6
CONTINUOUS
 10
38.8635113004
 20
-18.6461176278
 40
2.9499263057
100
AcDbArc
 50
179.9950770536
 51
359.997897043
  0
ARC
  5
4BF
100
AcDbEntity
  8
SUPERFICI
100
AcDbCircle
 62
7
  6
CONTINUOUS
 10
38.8643571859
 20
-15.8079112018
 40
2.9495104932
100
AcDbArc
 50
359.0049251442
 51
180.989116195
  0
ARC
  5
4C0
100
AcDbEntity
  8
SUPERFICI
100
AcDbCircle
 62
7
  6
CONTINUOUS
 10
38.8635112996
 20
-18.6461964181
 40
1.74995625
100
AcDbArc
 50
180.0000645132
 51
359.9999348136
  0
ARC
  5
4C1
100
AcDbEntity
  8
RACCORDO
100
AcDbCircle
 62
7
  6
CONTINUOUS
 10
33.2711964376
 20
19.5518499743
 40
0.7999999493
100
AcDbArc
 50
162.1541833107
 51
182.9940976859
  0
ARC
  5
4C2
100
AcDbEntity
  8
SUPERFICI
100
AcDbCircle
 62
7
  6
CONTINUOUS
 10
74.7523611728
 20
0.4103800938
 40
32.4999980118
100
AcDbArc
 50
156.5722969716
 51
197.4366538737
  0
ARC
  5
4C3
100
AcDbEntity
  8
SUPERFICI
100
AcDbCircle
 62
7
  6
CONTINUOUS
 10
74.7514639516
 20
0.6244140656
 40
32.4991855118
100
AcDbArc
 50
156.5561068565
 51
197.4430870427
  0
ENDSEC
  0
SECTION
  2
OBJECTS
  0
DICTIONARY
  5
C
100
AcDbDictionary
280
0
281
1
  3
ACAD_GROUP
350
D
  3
ACAD_MLINESTYLE
350
17
  3
ACAD_LAYOUT
350
1A
  3
ACAD_PLOTSETTINGS
350
19
  3
ACAD_PLOTSTYLENAME
350
E
  0
DICTIONARY
  5
D
102
{ACAD_REACTORS
330
C
102
}
100
AcDbDictionary
280
0
281
1
  0
ACDBDICTIONARYWDFLT
  5
E
102
{ACAD_REACTORS
330
C
102
}
100
AcDbDictionary
281
1
  3
Normal
350
F
100
AcDbDictionaryWithDefault
340
F
  0
DICTIONARY
  5
17
102
{ACAD_REACTORS
330
C
102
}
100
AcDbDictionary
280
0
281
1
  3
Standard
350
18
  0
DICTIONARY
  5
19
102
{ACAD_REACTORS
330
C
102
}
100
AcDbDictionary
281
1
  0
DICTIONARY
  5
1A
102
{ACAD_REACTORS
330
C
102
}
100
AcDbDictionary
281
1
  3
Model
350
4C4
  3
Layout1
350
4C5
  0
ACDBPLACEHOLDER
  5
F
102
{ACAD_REACTORS
330
E
102
}
  0
MLINESTYLE
  5
18
102
{ACAD_REACTORS
330
17
102
}
100
AcDbMlineStyle
  2
STANDARD
 70
0
  3

 62
256
 51
90.0
 52
90.0
 71
2
 49
0.5
 62
256
  6
BYLAYER
 49
-0.5
 62
256
  6
BYLAYER
  0
LAYOUT
  5
4C4
102
{ACAD_REACTORS
330
1A
102
}
100
AcDbPlotSettings
  1

  2
none_device
  4
ISO_A4_(297.00_x_210.00_MM)
  6

 40
0.0
 41
0.0
 42
0.0
 43
0.0
 44
297.0
 45
210.0
 46
0.0
 47
0.0
 48
0.0
 49
0.0
140
0.0
141
0.0
142
1.0
143
1.0
 70
1024
 72
1
 73
0
 74
0
  7

 75
0
147
1.0
148
0.0
149
0.0
100
AcDbLayout
  1
Model
 70
0
 71
0
 10
0.0
 20
0.0
 11
297.0
 21
210.0
 12
0.0
 22
0.0
 32
0.0
 14
0.0
 24
0.0
 34
0.0
 15
0.0
 25
0.0
 35
0.0
146
0.0
 13
0.0
 23
0.0
 33
0.0
 16
1.0
 26
0.0
 36
0.0
 17
0.0
 27
1.0
 37
0.0
 76
0
330
21D
345
0
346
0
  0
LAYOUT
  5
4C5
102
{ACAD_REACTORS
330
1A
102
}
100
AcDbPlotSettings
  1

  2
none_device
  4
ISO_A4_(297.00_x_210.00_MM)
  6

 40
0.0
 41
0.0
 42
0.0
 43
0.0
 44
297.0
 45
210.0
 46
0.0
 47
0.0
 48
0.0
 49
0.0
140
0.0
141
0.0
142
1.0
143
1.0
 70
0
 72
1
 73
0
 74
0
  7

 75
0
147
1.0
148
0.0
149
0.0
100
AcDbLayout
  1
Layout1
 70
0
 71
1
 10
0.0
 20
0.0
 11
297.0
 21
210.0
 12
0.0
 22
0.0
 32
0.0
 14
0.0
 24
0.0
 34
0.0
 15
0.0
 25
0.0
 35
0.0
146
0.0
 13
0.0
 23
0.0
 33
0.0
 16
1.0
 26
0.0
 36
0.0
 17
0.0
 27
1.0
 37
0.0
 76
0
330
21E
345
0
346
0
  0
ENDSEC
  0
EOF
