  0
SECTION
  2
HEADER
  9
$ACADVER
  1
AC1021
  9
$DWGCODEPAGE
  3
ANSI_1252
  9
$EXTMAX
 10
297.0
 20
210.0
 30
0.0
  9
$EXTMIN
 10
0.0
 20
0.0
 30
0.0
  9
$LIMMIN
 10
0.0
 20
0.0
  9
$LIMMAX
 10
297.0
 20
210.0
  9
$VIEWCTR
 10
148.5
 20
105.0
  9
$VIEWSIZE
 40
210.0
  9
$CLAYER
  8
0
  9
$LTSCALE
 40
16.335
  9
$CELTYPE
  6
BYLAYER
  9
$DIMSCALE
 40
1.0
  9
$DIMASZ
 40
3.0
  9
$DIMEXO
 40
0.5
  9
$DIMDLI
 40
11.286
  9
$DIMEXE
 40
1.5
  9
$DIMCEN
 40
2.673
  9
$DIMLFAC
 40
1.0
  9
$DIMBLK
  1
_FILLED
  9
$DIMALT
 70
0
  9
$DIMALTF
 40
0.0393700787
  9
$DIMTXT
 40
3.0
  9
$DIMTOL
 70
1
  9
$DIMLIM
 70
0
  9
$DIMTFAC
 40
1.0
  9
$DIMTP
 40
0.01
  9
$DIMTM
 40
0.01
  9
$DIMGAP
 40
0.625
  9
$DIMDSEP
 70
44
  9
$AUNITS
 70
0
  9
$PDMODE
 70
3
  9
$PDSIZE
 40
3.0
  9
$HANDSEED
  5
43E
  9
$TILEMODE
 70
1
  9
$MEASUREMENT
 70
1
  9
$INSUNITS
 70
4
  0
ENDSEC
  0
SECTION
  2
CLASSES
  0
CLASS
  1
ACDBDICTIONARYWDFLT
  2
AcDbDictionaryWithDefault
  3
AutoCAD 2000
 90
0
 91
1
280
0
281
0
  0
CLASS
  1
ACDBPLACEHOLDER
  2
AcDbPlaceHolder
  3
AutoCAD 2000
 90
0
 91
1
280
0
281
0
  0
CLASS
  1
LAYOUT
  2
AcDbLayout
  3
AutoCAD 2000
 90
0
 91
0
280
0
281
0
  0
ENDSEC
  0
SECTION
  2
TABLES
  0
TABLE
  2
VPORT
  5
8
100
AcDbSymbolTable
 70
2
  0
VPORT
  5
1F4
100
AcDbSymbolTableRecord
100
AcDbViewportTableRecord
  2
*ACTIVE
 70
0
 10
0.0
 20
0.0
 11
1.0
 21
1.0
 12
148.5
 22
105.0
 13
0.0
 23
0.0
 14
1.0
 24
1.0
 15
0.0
 25
0.0
 16
0.0
 26
0.0
 36
1.0
 17
0.0
 27
0.0
 37
0.0
 40
210.0
 41
1.4142857143
 42
50.0
 43
0.0
 44
0.0
 50
0.0
 51
0.0
 71
0
 72
100
 73
1
 74
1
 75
0
 76
0
 77
0
 78
0
  0
ENDTAB
  0
TABLE
  2
LTYPE
  5
5
100
AcDbSymbolTable
 70
6
  0
LTYPE
  5
14
100
AcDbSymbolTableRecord
100
AcDbLinetypeTableRecord
  2
BYBLOCK
 70
0
  3

 72
65
 73
0
 40
0.0
  0
LTYPE
  5
15
100
AcDbSymbolTableRecord
100
AcDbLinetypeTableRecord
  2
BYLAYER
 70
0
  3

 72
65
 73
0
 40
0.0
  0
LTYPE
  5
16
100
AcDbSymbolTableRecord
100
AcDbLinetypeTableRecord
  2
CONTINUOUS
 70
64
  3
Solid line
 72
65
 73
0
 40
0.0
  0
LTYPE
  5
1F5
100
AcDbSymbolTableRecord
100
AcDbLinetypeTableRecord
  2
CENTER
 70
64
  3
____ _ ____ _ ____ _ ____ _ ____ _ ____ _ ____
 72
65
 73
4
 40
0.6
 49
0.375
 74
0
 49
-0.075
 74
0
 49
0.075
 74
0
 49
-0.075
 74
0
  0
LTYPE
  5
1F6
100
AcDbSymbolTableRecord
100
AcDbLinetypeTableRecord
  2
HIDDEN
 70
64
  3
- - - - - - - - - - - - - - - - - - - -
 72
65
 73
2
 40
0.2
 49
0.1
 74
0
 49
-0.1
 74
0
  0
LTYPE
  5
1F7
100
AcDbSymbolTableRecord
100
AcDbLinetypeTableRecord
  2
PHANTOM
 70
64
  3
_____ _ _ _____ _ _ _____ _ _ _____
 72
65
 73
6
 40
0.8
 49
0.45
 74
0
 49
-0.05
 74
0
 49
0.1
 74
0
 49
-0.05
 74
0
 49
0.1
 74
0
 49
-0.05
 74
0
  0
LTYPE
  5
1F8
100
AcDbSymbolTableRecord
100
AcDbLinetypeTableRecord
  2
DOT
 70
64
  3
. . . . . . . . . . . . . . . . . . . .
 72
65
 73
2
 40
0.2
 49
0.1
 74
0
 49
-0.1
 74
0
  0
LTYPE
  5
1F9
100
AcDbSymbolTableRecord
100
AcDbLinetypeTableRecord
  2
DASHED
 70
64
  3
- - - - - - - - - - - - - - - - - - - -
 72
65
 73
2
 40
0.2
 49
0.1
 74
0
 49
-0.1
 74
0
  0
ENDTAB
  0
TABLE
  2
LAYER
  5
2
100
AcDbSymbolTable
 70
36
  0
LAYER
  5
10
100
AcDbSymbolTableRecord
100
AcDbLayerTableRecord
  2
0
 70
0
 62
7
  6
CONTINUOUS
370
-3
390
F
  0
LAYER
  5
1FA
100
AcDbSymbolTableRecord
100
AcDbLayerTableRecord
  2
DEFAULT_1
 70
0
 62
7
  6
CENTER
370
-3
390
F
  0
LAYER
  5
1FB
100
AcDbSymbolTableRecord
100
AcDbLayerTableRecord
  2
DEFAULT_2
 70
0
 62
7
  6
HIDDEN
370
-3
390
F
  0
LAYER
  5
1FC
100
AcDbSymbolTableRecord
100
AcDbLayerTableRecord
  2
DEFAULT_3
 70
0
 62
7
  6
PHANTOM
370
-3
390
F
  0
LAYER
  5
1FD
100
AcDbSymbolTableRecord
100
AcDbLayerTableRecord
  2
ASSI
 70
0
 62
7
  6
CONTINUOUS
370
-3
390
F
  0
LAYER
  5
1FE
100
AcDbSymbolTableRecord
100
AcDbLayerTableRecord
  2
COLOR5
 70
0
 62
7
  6
CONTINUOUS
370
-3
390
F
  0
LAYER
  5
1FF
100
AcDbSymbolTableRecord
100
AcDbLayerTableRecord
  2
COORDINATE
 70
0
 62
7
  6
CONTINUOUS
370
-3
390
F
  0
LAYER
  5
200
100
AcDbSymbolTableRecord
100
AcDbLayerTableRecord
  2
COORD_ORIGINE
 70
0
 62
7
  6
CONTINUOUS
370
-3
390
F
  0
LAYER
  5
201
100
AcDbSymbolTableRecord
100
AcDbLayerTableRecord
  2
COSMETICI
 70
0
 62
7
  6
CONTINUOUS
370
-3
390
F
  0
LAYER
  5
202
100
AcDbSymbolTableRecord
100
AcDbLayerTableRecord
  2
CURVE
 70
0
 62
7
  6
CONTINUOUS
370
-3
390
F
  0
LAYER
  5
203
100
AcDbSymbolTableRecord
100
AcDbLayerTableRecord
  2
DRAFT
 70
0
 62
7
  6
CONTINUOUS
370
-3
390
F
  0
LAYER
  5
204
100
AcDbSymbolTableRecord
100
AcDbLayerTableRecord
  2
NOTE
 70
0
 62
7
  6
CONTINUOUS
370
-3
390
F
  0
LAYER
  5
205
100
AcDbSymbolTableRecord
100
AcDbLayerTableRecord
  2
PIANI
 70
0
 62
7
  6
CONTINUOUS
370
-3
390
F
  0
LAYER
  5
206
100
AcDbSymbolTableRecord
100
AcDbLayerTableRecord
  2
PIANI_ORIGINE
 70
0
 62
7
  6
CONTINUOUS
370
-3
390
F
  0
LAYER
  5
207
100
AcDbSymbolTableRecord
100
AcDbLayerTableRecord
  2
PUNTI
 70
0
 62
7
  6
CONTINUOUS
370
-3
390
F
  0
LAYER
  5
208
100
AcDbSymbolTableRecord
100
AcDbLayerTableRecord
  2
RACCORDO
 70
0
 62
7
  6
CONTINUOUS
370
-3
390
F
  0
LAYER
  5
209
100
AcDbSymbolTableRecord
100
AcDbLayerTableRecord
  2
SIMBOLI
 70
0
 62
7
  6
CONTINUOUS
370
-3
390
F
  0
LAYER
  5
20A
100
AcDbSymbolTableRecord
100
AcDbLayerTableRecord
  2
SNAPLINE
 70
0
 62
7
  6
CONTINUOUS
370
-3
390
F
  0
LAYER
  5
20B
100
AcDbSymbolTableRecord
100
AcDbLayerTableRecord
  2
SUPERFICI
 70
0
 62
7
  6
CONTINUOUS
370
-3
390
F
  0
LAYER
  5
20C
100
AcDbSymbolTableRecord
100
AcDbLayerTableRecord
  2
TRASH
 70
0
 62
7
  6
CONTINUOUS
370
-3
390
F
  0
ENDTAB
  0
TABLE
  2
STYLE
  5
3
100
AcDbSymbolTable
 70
1
  0
STYLE
  5
11
100
AcDbSymbolTableRecord
100
AcDbTextStyleTableRecord
  2
STANDARD
 70
0
 40
0.0
 41
0.8
 50
0.0
 71
0
 42
0.2
  3
txt
  4

  0
STYLE
  5
20D
100
AcDbSymbolTableRecord
100
AcDbTextStyleTableRecord
  2
TEXTSTYLE_1
 70
0
 40
0.0
 41
0.8
 50
0.0
 71
0
 42
0.2
  3
gdt
  4

  0
ENDTAB
  0
TABLE
  2
VIEW
  5
6
100
AcDbSymbolTable
 70
0
  0
ENDTAB
  0
TABLE
  2
UCS
  5
7
100
AcDbSymbolTable
 70
0
  0
ENDTAB
  0
TABLE
  2
APPID
  5
9
100
AcDbSymbolTable
 70
1
  0
APPID
  5
20E
100
AcDbSymbolTableRecord
100
AcDbRegAppTableRecord
  2
ACAD
 70
0
  0
ENDTAB
  0
TABLE
  2
BLOCK_RECORD
  5
1
100
AcDbSymbolTable
 70
0
  0
BLOCK_RECORD
  5
20F
100
AcDbSymbolTableRecord
100
AcDbBlockTableRecord
  2
*Model_Space
  0
BLOCK_RECORD
  5
210
100
AcDbSymbolTableRecord
100
AcDbBlockTableRecord
  2
*Paper_Space
  0
BLOCK_RECORD
  5
211
100
AcDbSymbolTableRecord
100
AcDbBlockTableRecord
  2
_FILLED
  0
BLOCK_RECORD
  5
212
100
AcDbSymbolTableRecord
100
AcDbBlockTableRecord
  2
*D0
  0
BLOCK_RECORD
  5
213
100
AcDbSymbolTableRecord
100
AcDbBlockTableRecord
  2
*D1
  0
BLOCK_RECORD
  5
214
100
AcDbSymbolTableRecord
100
AcDbBlockTableRecord
  2
*D2
  0
ENDTAB
  0
TABLE
  2
DIMSTYLE
  5
A
100
AcDbSymbolTable
 70
1
100
AcDbDimStyleTable
 71
0
  0
DIMSTYLE
105
215
100
AcDbSymbolTableRecord
100
AcDbDimStyleTableRecord
  2
STANDARD
 70
0
  3

  4

 40
1.0
 41
3.0
 42
0.5
 43
0.38
 44
1.5
 45
0.0
 46
0.0
 47
0.01
 48
0.01
140
3.0
141
0.09
142
0.0
143
25.4
144
1.0
145
0.0
146
1.0
147
0.625
 71
1.0
 72
0.0
 73
0
 74
0
 75
0
 76
0
 77
1
 78
8
170
0
171
2
172
0
173
0
174
0
175
0
176
0
177
0
178
0
270
2
271
2
272
2
273
2
274
2
275
0
280
0
281
0
282
0
283
1
284
8
285
0
286
0
287
3
288
0
340
11
278
44
341
211
342
211
343
211
344
211
  0
DIMSTYLE
105
216
100
AcDbSymbolTableRecord
100
AcDbDimStyleTableRecord
  2
DIMSTYLE_1
 70
0
  3

  4

 40
1.0
 41
3.0
 42
0.5
 43
0.38
 44
1.5
 45
0.0
 46
0.0
 47
0.0
 48
0.0
140
3.0
141
0.09
142
0.0
143
25.4
144
1.0
145
0.0
146
1.0
147
0.75
 71
0.0
 72
0.0
 73
0
 74
0
 75
0
 76
0
 77
1
 78
8
170
0
171
2
172
0
173
0
174
0
175
0
176
0
177
0
178
0
270
2
271
2
272
2
273
2
274
2
275
0
280
0
281
0
282
0
283
1
284
8
285
0
286
0
287
3
288
0
340
11
278
44
341
211
342
211
343
211
344
211
  0
ENDTAB
  0
ENDSEC
  0
SECTION
  2
BLOCKS
  0
BLOCK
  5
20
100
AcDbEntity
  8
0
100
AcDbBlockBegin
  2
*Model_Space
 70
0
 10
0.0
 20
0.0
 30
0.0
  3
*Model_Space
  1

  0
ENDBLK
  5
21
100
AcDbEntity
  8
0
100
AcDbBlockEnd
  0
BLOCK
  5
1C
100
AcDbEntity
  8
0
100
AcDbBlockBegin
  2
*Paper_Space
 70
0
 10
0.0
 20
0.0
 30
0.0
  3
*Paper_Space
  1

  0
ENDBLK
  5
1D
100
AcDbEntity
  8
0
100
AcDbBlockEnd
  0
BLOCK
  5
217
100
AcDbEntity
  8
0
100
AcDbBlockBegin
  2
_FILLED
 70
64
 10
0.0
 20
0.0
  3
_FILLED
  1

  0
SOLID
  5
218
100
AcDbEntity
  8
0
  6
BYBLOCK
 62
0
100
AcDbTrace
 10
0.0
 20
0.0
 11
-1.0
 21
0.3166666667
 12
-1.0
 22
-0.3166666667
 13
-1.0
 23
-0.3166666667
  0
ENDBLK
  5
219
100
AcDbEntity
  8
0
  6
BYBLOCK
 62
0
100
AcDbBlockEnd
  0
BLOCK
  5
21A
100
AcDbEntity
  8
0
100
AcDbBlockBegin
 62
7
  6
CONTINUOUS
  2
*D0
 70
65
 10
0.0
 20
0.0
  3
*D0
  1

  0
MTEXT
  5
21B
100
AcDbEntity
  8
0
100
AcDbMText
 62
7
  6
CONTINUOUS
  7
STANDARD
 71
2
 72
1
 10
-50.2692523642
 20
66.5873329372
 30
0.0
 11
1.0
 21
0.0
 31
0.0
 44
0.9
  1
31
 40
3.0
 41
5.7857142857
  0
LINE
  5
21C
100
AcDbEntity
  8
0
100
AcDbLine
 62
7
  6
CONTINUOUS
 10
-34.7692523257
 20
52.3414443329
 11
-34.7692523257
 21
64.3373329372
  0
LINE
  5
21D
100
AcDbEntity
  8
0
100
AcDbLine
 62
7
  6
CONTINUOUS
 10
-65.7692524028
 20
-7.5626670628
 11
-65.7692524028
 21
64.3373329372
  0
LINE
  5
21E
100
AcDbEntity
  8
0
100
AcDbLine
 62
7
  6
CONTINUOUS
 10
-34.7692523257
 20
62.8373329372
 11
-50.2692523642
 21
62.8373329372
  0
LINE
  5
21F
100
AcDbEntity
  8
0
100
AcDbLine
 62
7
  6
CONTINUOUS
 10
-65.7692524028
 20
62.8373329372
 11
-50.2692523642
 21
62.8373329372
  0
INSERT
  5
220
100
AcDbEntity
  8
0
100
AcDbBlockReference
 62
7
  6
CONTINUOUS
  2
_FILLED
 10
-34.7692523257
 20
62.8373329372
 41
3.0
 42
3.0
 43
3.0
  0
INSERT
  5
221
100
AcDbEntity
  8
0
100
AcDbBlockReference
 62
7
  6
CONTINUOUS
  2
_FILLED
 10
-65.7692524028
 20
62.8373329372
 41
3.0
 42
3.0
 43
3.0
 50
180.0
  0
ENDBLK
  5
222
100
AcDbEntity
  8
0
  6
BYBLOCK
 62
0
100
AcDbBlockEnd
  0
BLOCK
  5
223
100
AcDbEntity
  8
0
100
AcDbBlockBegin
 62
7
  6
CONTINUOUS
  2
*D1
 70
65
 10
0.0
 20
0.0
  3
*D1
  1

  0
MTEXT
  5
224
100
AcDbEntity
  8
0
100
AcDbMText
 62
7
  6
CONTINUOUS
  7
STANDARD
 71
2
 72
1
 10
-0.8759035029
 20
66.5873329372
 30
0.0
 11
1.0
 21
0.0
 31
0.0
 44
0.9
  1
26
 40
3.0
 41
7.0714285714
  0
LINE
  5
225
100
AcDbEntity
  8
0
100
AcDbLine
 62
7
  6
CONTINUOUS
 10
-13.8759035029
 20
52.3414443329
 11
-13.8759035029
 21
64.3373329372
  0
LINE
  5
226
100
AcDbEntity
  8
0
100
AcDbLine
 62
7
  6
CONTINUOUS
 10
12.1240964971
 20
52.3414443329
 11
12.1240964971
 21
64.3373329372
  0
LINE
  5
227
100
AcDbEntity
  8
0
100
AcDbLine
 62
7
  6
CONTINUOUS
 10
-13.8759035029
 20
62.8373329372
 11
-0.8759035029
 21
62.8373329372
  0
LINE
  5
228
100
AcDbEntity
  8
0
100
AcDbLine
 62
7
  6
CONTINUOUS
 10
12.1240964971
 20
62.8373329372
 11
-0.8759035029
 21
62.8373329372
  0
INSERT
  5
229
100
AcDbEntity
  8
0
100
AcDbBlockReference
 62
7
  6
CONTINUOUS
  2
_FILLED
 10
-13.8759035029
 20
62.8373329372
 41
3.0
 42
3.0
 43
3.0
 50
180.0
  0
INSERT
  5
22A
100
AcDbEntity
  8
0
100
AcDbBlockReference
 62
7
  6
CONTINUOUS
  2
_FILLED
 10
12.1240964971
 20
62.8373329372
 41
3.0
 42
3.0
 43
3.0
  0
ENDBLK
  5
22B
100
AcDbEntity
  8
0
  6
BYBLOCK
 62
0
100
AcDbBlockEnd
  0
BLOCK
  5
22C
100
AcDbEntity
  8
0
100
AcDbBlockBegin
 62
7
  6
CONTINUOUS
  2
*D2
 70
65
 10
0.0
 20
0.0
  3
*D2
  1

  0
MTEXT
  5
22D
100
AcDbEntity
  8
0
100
AcDbMText
 62
7
  6
CONTINUOUS
  7
STANDARD
 71
2
 72
1
 10
16.3740964971
 20
-0.1626670628
 30
0.0
 11
0.0
 21
1.0
 31
0.0
 44
0.9
  1
110
 40
3.0
 41
8.6785714286
  0
LINE
  5
22E
100
AcDbEntity
  8
0
100
AcDbLine
 62
7
  6
CONTINUOUS
 10
9.6282078928
 20
54.8373329372
 11
21.6240964971
 21
54.8373329372
  0
LINE
  5
22F
100
AcDbEntity
  8
0
100
AcDbLine
 62
7
  6
CONTINUOUS
 10
9.628378616
 20
-55.1626670628
 11
21.6240964971
 21
-55.1626670628
  0
LINE
  5
230
100
AcDbEntity
  8
0
100
AcDbLine
 62
7
  6
CONTINUOUS
 10
20.1240964971
 20
54.8373329372
 11
20.1240964971
 21
-0.1626670628
  0
LINE
  5
231
100
AcDbEntity
  8
0
100
AcDbLine
 62
7
  6
CONTINUOUS
 10
20.1240964971
 20
-55.1626670628
 11
20.1240964971
 21
-0.1626670628
  0
INSERT
  5
232
100
AcDbEntity
  8
0
100
AcDbBlockReference
 62
7
  6
CONTINUOUS
  2
_FILLED
 10
20.1240964971
 20
54.8373329372
 41
3.0
 42
3.0
 43
3.0
 50
90.0
  0
INSERT
  5
233
100
AcDbEntity
  8
0
100
AcDbBlockReference
 62
7
  6
CONTINUOUS
  2
_FILLED
 10
20.1240964971
 20
-55.1626670628
 41
3.0
 42
3.0
 43
3.0
 50
270.0
  0
ENDBLK
  5
234
100
AcDbEntity
  8
0
  6
BYBLOCK
 62
0
100
AcDbBlockEnd
  0
ENDSEC
  0
SECTION
  2
ENTITIES
  0
DIMENSION
  5
235
100
AcDbEntity
  8
0
100
AcDbDimension
 62
7
  6
CONTINUOUS
  2
*D0
 10
-65.7692524028
 20
62.8373329372
 11
-50.697822052
 21
62.8373329372
 70
160
 71
2
 42
31.000000077
  3
DIMSTYLE_1
100
AcDbAlignedDimension
 13
-34.7692523257
 23
51.8414443329
 14
-65.7692524028
 24
-8.0626670628
 50
180.0
100
AcDbRotatedDimension
  0
DIMENSION
  5
236
100
AcDbEntity
  8
0
100
AcDbDimension
 62
7
  6
CONTINUOUS
  2
*D1
 10
12.1240964971
 20
62.8373329372
 11
-1.3044749715
 21
62.8373329372
 70
160
 71
2
 42
26.0
  3
DIMSTYLE_1
100
AcDbAlignedDimension
 13
-13.8759035029
 23
51.8414443329
 14
12.1240964971
 24
51.8414443329
100
AcDbRotatedDimension
  0
DIMENSION
  5
237
100
AcDbEntity
  8
0
100
AcDbDimension
 62
7
  6
CONTINUOUS
  2
*D2
 10
20.1240964971
 20
-55.1626670628
 11
20.1240964971
 21
-0.5912382565
 70
160
 71
2
 42
110.0
  3
DIMSTYLE_1
100
AcDbAlignedDimension
 13
9.1282078928
 23
54.8373329372
 14
9.128378616
 24
-55.1626670628
 50
270.0
100
AcDbRotatedDimension
  0
LWPOLYLINE
  5
238
100
AcDbEntity
  8
0
100
AcDbPolyline
 62
7
  6
CONTINUOUS
 90
15
 70
0
 10
-4.0067313287
 20
-54.9777544495
 10
-3.8875629379
 20
-54.9639183216
 10
-3.7482526471
 20
-54.9507329684
 10
-3.5884228043
 20
-54.938205817
 10
-3.4084510614
 20
-54.9263294405
 10
-3.2119105305
 20
-54.9153351037
 10
-2.998499418
 20
-54.9052388628
 10
-2.7685195175
 20
-54.8960246617
 10
-2.5264493223
 20
-54.8878755975
 10
-2.2720256226
 20
-54.8808104884
 10
-2.0055116283
 20
-54.8748105162
 10
-1.7321754621
 20
-54.8700023235
 10
-1.453773165
 20
-54.8664281246
 10
-1.1685486962
 20
-54.8640457053
 10
-0.8765020555
 20
-54.8628550656
  0
LWPOLYLINE
  5
239
100
AcDbEntity
  8
0
100
AcDbPolyline
 62
7
  6
CONTINUOUS
 90
19
 70
0
 10
-0.8759007733
 20
-54.9256766448
 10
-1.0793209042
 20
-54.9262089869
 10
-1.278485263
 20
-54.9275949772
 10
-1.4733938498
 20
-54.9298346157
 10
-1.6653611566
 20
-54.9329553077
 10
-1.8530726913
 20
-54.9369296479
 10
-2.0325849781
 20
-54.9416754202
 10
-2.2037243317
 20
-54.9472090662
 10
-2.3666644374
 20
-54.9535141443
 10
-2.5179828757
 20
-54.9604591141
 10
-2.6574319195
 20
-54.9680572545
 10
-2.7852592958
 20
-54.9762952866
 10
-2.8987857667
 20
-54.985001833
 10
-2.9977145886
 20
-54.9941867148
 10
-3.082342505
 20
-55.0038401109
 10
-3.1508805089
 20
-55.0137611813
 10
-3.2027322645
 20
-55.0238829793
 10
-3.2384941076
 20
-55.0342724515
 10
-3.2581660382
 20
-55.0449295981
  0
LINE
  5
23A
100
AcDbEntity
  8
0
100
AcDbLine
 62
7
  6
CONTINUOUS
 10
9.128378616
 20
-55.1626670628
 11
1.6240964971
 21
-55.1626670628
  0
LINE
  5
23B
100
AcDbEntity
  8
0
100
AcDbLine
 62
7
  6
CONTINUOUS
 10
-3.3759035029
 20
-55.1626670628
 11
-10.8800148987
 21
-55.1626670628
  0
LINE
  5
23C
100
AcDbEntity
  8
0
100
AcDbLine
 62
7
  6
CONTINUOUS
 10
2.5767787456
 20
-55.1102592835
 11
2.3765042764
 21
-55.1102592835
  0
LINE
  5
23D
100
AcDbEntity
  8
0
100
AcDbLine
 62
7
  6
CONTINUOUS
 10
-4.1283112822
 20
-55.1102592835
 11
-4.3285857514
 21
-55.1102592835
  0
LINE
  5
23E
100
AcDbEntity
  8
0
100
AcDbLine
 62
253
  6
CONTINUOUS
 10
-10.1575715993
 20
-54.4402237635
 11
8.4057645935
 21
-54.4402237635
  0
LWPOLYLINE
  5
23F
100
AcDbEntity
  8
0
100
AcDbPolyline
 62
7
  6
CONTINUOUS
 90
19
 70
0
 10
-0.8759035029
 20
-54.8733478919
 10
-0.6022071136
 20
-54.8744713495
 10
-0.3346608931
 20
-54.8767164588
 10
-0.0732648414
 20
-54.8800832199
 10
0.1836713613
 20
-54.8846091259
 10
0.4344573952
 20
-54.8902566837
 10
0.674022301
 20
-54.8969134139
 10
0.9021373302
 20
-54.9046000129
 10
1.1190312314
 20
-54.9132957843
 10
1.3203192909
 20
-54.9228261597
 10
1.5056815628
 20
-54.9332078016
 10
1.6754379931
 20
-54.9444240475
 10
1.826163706
 20
-54.9562503415
 10
1.9574786174
 20
-54.968698996
 10
2.0697628114
 20
-54.9817576984
 10
2.1607316646
 20
-54.9951649557
 10
2.2296236358
 20
-55.0088336033
 10
2.2772002662
 20
-55.0228508057
 10
2.3034615557
 20
-55.0372165629
  0
LWPOLYLINE
  5
240
100
AcDbEntity
  8
0
100
AcDbPolyline
 62
7
  6
CONTINUOUS
 90
16
 70
0
 10
-0.8765020555
 20
-54.8628550656
 10
-0.5812603785
 20
-54.8641290673
 10
-0.2933202202
 20
-54.8665980953
 10
-0.0126815807
 20
-54.8702621497
 10
0.2621433475
 20
-54.8751603698
 10
0.5296667569
 20
-54.8812536163
 10
0.7854252249
 20
-54.8884244708
 10
1.0299685013
 20
-54.8966960358
 10
1.2627468363
 20
-54.9060452089
 10
1.4776475587
 20
-54.9162852649
 10
1.6735384604
 20
-54.9274564237
 10
1.8515517494
 20
-54.9395184654
 10
2.0089713779
 20
-54.9521640056
 10
2.1453513568
 20
-54.9654019881
 10
2.2611376753
 20
-54.9792234691
 10
2.3549522532
 20
-54.9932942325
  0
LWPOLYLINE
  5
241
100
AcDbEntity
  8
0
100
AcDbPolyline
 62
253
  6
CONTINUOUS
 90
19
 70
0
 10
-10.1373120329
 20
-53.9101533001
 10
-10.3460018738
 20
-53.8991032543
 10
-10.5560942421
 20
-53.8694963341
 10
-10.7657965322
 20
-53.8216030453
 10
-10.9738982722
 20
-53.7554748757
 10
-11.1777872077
 20
-53.6715147612
 10
-11.3736499232
 20
-53.5710189451
 10
-11.5587850805
 20
-53.4553506618
 10
-11.7324494716
 20
-53.3247787856
 10
-11.8938180894
 20
-53.179165304
 10
-12.041343239
 20
-53.0192405772
 10
-12.174212362
 20
-52.8466336612
 10
-12.2923097295
 20
-52.662182369
 10
-12.3952675994
 20
-52.4664353265
 10
-12.4814683652
 20
-52.2621220946
 10
-12.5492857421
 20
-52.0535105336
 10
-12.5982839805
 20
-51.8434228909
 10
-12.6285231591
 20
-51.6329788662
 10
-12.6397816824
 20
-51.4240371767
  0
LWPOLYLINE
  5
242
100
AcDbEntity
  8
0
100
AcDbPolyline
 62
7
  6
CONTINUOUS
 90
19
 70
0
 10
-10.8800148987
 20
-54.6626670628
 10
-11.1020525748
 20
-54.6508680702
 10
-11.3189212543
 20
-54.6210342656
 10
-11.5306209371
 20
-54.573165649
 10
-11.7385628336
 20
-54.5067194466
 10
-11.9413357334
 20
-54.4222384323
 10
-12.1347060056
 20
-54.3213509271
 10
-12.3188292515
 20
-54.203626059
 10
-12.4935498697
 20
-54.0694947
 10
-12.6541674248
 20
-53.9218777869
 10
-12.7999163962
 20
-53.7602026963
 10
-12.9315623045
 20
-53.5850420517
 10
-13.0467012762
 20
-53.4010346604
 10
-13.1449089901
 20
-53.2080122652
 10
-13.2266097675
 20
-53.0061431233
 10
-13.2906726984
 20
-52.8005708138
 10
-13.336720813
 20
-52.593009863
 10
-13.3651310811
 20
-52.3817457446
 10
-13.3759035029
 20
-52.1667784586
  0
LWPOLYLINE
  5
243
100
AcDbEntity
  8
0
100
AcDbPolyline
 62
7
  6
CONTINUOUS
 90
4
 70
0
 10
2.3549522532
 20
-54.9932942325
 10
2.4263357303
 20
-55.0075028728
 10
2.4757474668
 20
-55.0219607955
 10
2.5031874627
 20
-55.0366680006
  0
LWPOLYLINE
  5
244
100
AcDbEntity
  8
0
100
AcDbPolyline
 62
253
  6
CONTINUOUS
 90
43
 70
0
 10
-0.8759035028
 20
-51.1868506352
 10
-0.7019101776
 20
-51.1819562858
 10
-0.5254839734
 20
-51.1669839027
 10
-0.3472269912
 20
-51.141456304
 10
-0.1673654843
 20
-51.1048292216
 10
0.0129346322
 20
-51.0567320245
 10
0.1916337751
 20
-50.9972398103
 10
0.3672067356
 20
-50.9266139739
 10
0.5397031871
 20
-50.8445632848
 10
0.7093663754
 20
-50.7504390977
 10
0.8749892797
 20
-50.6443017079
 10
1.0358955097
 20
-50.5259294193
 10
1.192692782
 20
-50.3937981928
 10
1.3443782444
 20
-50.2472988512
 10
1.4890843909
 20
-50.0866441402
 10
1.6256196394
 20
-49.9112881655
 10
1.752230902
 20
-49.7213894312
 10
1.8671434979
 20
-49.5171930785
 10
1.9687423687
 20
-49.298394733
 10
2.0553182227
 20
-49.064488698
 10
2.1241746546
 20
-48.8175194466
 10
2.1726808917
 20
-48.561553627
 10
2.1995158375
 20
-48.2974820352
 10
2.2032756963
 20
-48.0279325167
 10
2.183425632
 20
-47.7601392713
 10
2.1406335704
 20
-47.4972604524
 10
2.0755071346
 20
-47.2401301587
 10
1.9894941418
 20
-46.9923308562
 10
1.8842765089
 20
-46.7560972239
 10
1.7611097969
 20
-46.5321206235
 10
1.6213341162
 20
-46.3213319785
 10
1.4665682621
 20
-46.1249218064
 10
1.29829654
 20
-45.9436585492
 10
1.117509196
 20
-45.7777509941
 10
0.9258339812
 20
-45.6280182433
 10
0.7246430186
 20
-45.4949071596
 10
0.51425828
 20
-45.3782379259
 10
0.2960001053
 20
-45.2785589281
 10
0.0713181884
 20
-45.1963624565
 10
-0.1594952651
 20
-45.1317188768
 10
-0.3954441899
 20
-45.0850554214
 10
-0.6347334748
 20
-45.0568726336
 10
-0.8759035028
 20
-45.0474383752
  0
LINE
  5
245
100
AcDbEntity
  8
0
100
AcDbLine
 62
7
  6
CONTINUOUS
 10
11.6246469685
 20
-52.1673289299
 11
12.1240944537
 21
-52.1667743605
  0
LINE
  5
246
100
AcDbEntity
  8
0
100
AcDbLine
 62
7
  6
CONTINUOUS
 10
-13.8759035029
 20
-52.1667784586
 11
-13.375903503
 21
-52.1667784586
  0
LINE
  5
247
100
AcDbEntity
  8
0
100
AcDbLine
 62
253
  6
CONTINUOUS
 10
11.5716887178
 20
-52.1143706793
 11
12.0716887178
 21
-52.1143706793
  0
LINE
  5
248
100
AcDbEntity
  8
0
100
AcDbLine
 62
253
  6
CONTINUOUS
 10
-13.3234957236
 20
-52.1143706793
 11
-13.8234957236
 21
-52.1143706793
  0
LINE
  5
249
100
AcDbEntity
  8
0
100
AcDbLine
 62
7
  6
CONTINUOUS
 10
1.7181232365
 20
-48.7626670628
 11
-0.3172871338
 21
-48.7626670628
  0
LINE
  5
24A
100
AcDbEntity
  8
0
100
AcDbLine
 62
7
  6
CONTINUOUS
 10
-1.4345163765
 20
-48.7626670628
 11
-3.4699271167
 21
-48.7626670628
  0
LWPOLYLINE
  5
24B
100
AcDbEntity
  8
0
100
AcDbPolyline
 62
253
  6
CONTINUOUS
 90
43
 70
0
 10
-0.8864942335
 20
-52.0783348026
 10
-1.0928374455
 20
-52.0723415355
 10
-1.3007362783
 20
-52.053005476
 10
-1.510190732
 20
-52.0201716817
 10
-1.722533814
 20
-51.9733857659
 10
-1.936432517
 20
-51.9124702291
 10
-2.1478878185
 20
-51.8375483192
 10
-2.356119968
 20
-51.7481138562
 10
-2.5619087161
 20
-51.6434937
 10
-2.7635942926
 20
-51.5234707049
 10
-2.9616038217
 20
-51.3874500523
 10
-3.1555101791
 20
-51.2344013995
 10
-3.3423722215
 20
-51.0633632136
 10
-3.5235773394
 20
-50.8720316494
 10
-3.6977381423
 20
-50.6605706469
 10
-3.8577513157
 20
-50.4319274871
 10
-4.0036092676
 20
-50.1846503266
 10
-4.1353195899
 20
-49.9184232464
 10
-4.2458017439
 20
-49.6386658036
 10
-4.3343602702
 20
-49.3436481449
 10
-4.4016906283
 20
-49.0342234638
 10
-4.4427986578
 20
-48.7210078968
 10
-4.4554924635
 20
-48.4049020159
 10
-4.4419639407
 20
-48.0858443702
 10
-4.403794615
 20
-47.7744728341
 10
-4.3397870685
 20
-47.4744301979
 10
-4.2511387191
 20
-47.1840727209
 10
-4.1430233467
 20
-46.9068009024
 10
-4.0157643282
 20
-46.6444561288
 10
-3.8690382867
 20
-46.3969668446
 10
-3.7070488709
 20
-46.1648698412
 10
-3.5300895385
 20
-45.9489453089
 10
-3.3378668319
 20
-45.7497177509
 10
-3.1337040264
 20
-45.5672143014
 10
-2.9177863726
 20
-45.4016857265
 10
-2.6899286199
 20
-45.2537797905
 10
-2.4528982919
 20
-45.1240231691
 10
-2.2064224811
 20
-45.0124202286
 10
-1.9507740949
 20
-44.9195543965
 10
-1.6895393794
 20
-44.8467606785
 10
-1.4239137499
 20
-44.7945925248
 10
-1.152701791
 20
-44.7628089638
 10
-0.8759035029
 20
-44.751488088
  0
LWPOLYLINE
  5
24C
100
AcDbEntity
  8
0
100
AcDbPolyline
 62
253
  6
CONTINUOUS
 90
43
 70
0
 10
-0.875903503
 20
-45.0474383752
 10
-1.1151339874
 20
-45.056722553
 10
-1.3525321624
 20
-45.0844563695
 10
-1.5866729159
 20
-45.1303812674
 10
-1.8158830859
 20
-45.1940389175
 10
-2.0391038557
 20
-45.2750026258
 10
-2.2558213583
 20
-45.3730917314
 10
-2.4642737275
 20
-45.4875548905
 10
-2.6636130065
 20
-45.6179824631
 10
-2.8543796557
 20
-45.7651833522
 10
-3.0355354748
 20
-45.9292764541
 10
-3.2048780641
 20
-46.1092640373
 10
-3.3608752278
 20
-46.3045117142
 10
-3.5020050433
 20
-46.514234728
 10
-3.6266615257
 20
-46.7372956725
 10
-3.7332776636
 20
-46.972262228
 10
-3.8205659323
 20
-47.2179280266
 10
-3.8871930769
 20
-47.4725137146
 10
-3.9319454071
 20
-47.7334115947
 10
-3.9541161512
 20
-48.0001724728
 10
-3.9528235245
 20
-48.2693539531
 10
-3.9284155866
 20
-48.5337050372
 10
-3.8821432703
 20
-48.7906412112
 10
-3.8152211179
 20
-49.0391558931
 10
-3.7302388037
 20
-49.2748961423
 10
-3.6298484411
 20
-49.4957556625
 10
-3.5157384288
 20
-49.7021902171
 10
-3.3896345944
 20
-49.8942686193
 10
-3.253371868
 20
-50.0716713335
 10
-3.1086994483
 20
-50.2342704243
 10
-2.9568725611
 20
-50.3825733567
 10
-2.7997969164
 20
-50.5163548438
 10
-2.6384935524
 20
-50.6362292632
 10
-2.4723889819
 20
-50.7437213423
 10
-2.3021932777
 20
-50.8390474731
 10
-2.1291227004
 20
-50.9221615081
 10
-1.952922668
 20
-50.9937387208
 10
-1.7734087694
 20
-51.0541221735
 10
-1.5922602437
 20
-51.1029840007
 10
-1.4119545267
 20
-51.1401721383
 10
-1.233824563
 20
-51.1661212673
 10
-1.05796902
 20
-51.1814922948
 10
-0.8849925874
 20
-51.1868414775
  0
LINE
  5
24D
100
AcDbEntity
  8
0
100
AcDbLine
 62
7
  6
CONTINUOUS
 10
0.4968225532
 20
-48.3907759593
 11
0.2691059843
 21
-48.390859809
  0
LINE
  5
24E
100
AcDbEntity
  8
0
100
AcDbLine
 62
7
  6
CONTINUOUS
 10
-2.0209098631
 20
-47.9344743236
 11
-2.2486264342
 21
-47.9345581711
  0
LINE
  5
24F
100
AcDbEntity
  8
0
100
AcDbLine
 62
7
  6
CONTINUOUS
 10
-3.4699271167
 20
-47.5626670628
 11
-1.4345167464
 21
-47.5626670628
  0
LINE
  5
250
100
AcDbEntity
  8
0
100
AcDbLine
 62
7
  6
CONTINUOUS
 10
-0.3172875037
 20
-47.5626670628
 11
1.7181232365
 21
-47.5626670628
  0
LINE
  5
251
100
AcDbEntity
  8
0
100
AcDbLine
 62
7
  6
CONTINUOUS
 10
-2.0209415232
 20
-48.3910203339
 11
-2.2486357224
 21
-48.3907200521
  0
LINE
  5
252
100
AcDbEntity
  8
0
100
AcDbLine
 62
7
  6
CONTINUOUS
 10
0.269137643
 20
-47.9343137917
 11
0.4968318423
 21
-47.9346140735
  0
LINE
  5
253
100
AcDbEntity
  8
0
100
AcDbLine
 62
7
  6
CONTINUOUS
 10
-2.2486357224
 20
-48.3907200521
 11
-2.0382975193
 21
-48.4321391054
  0
LINE
  5
254
100
AcDbEntity
  8
0
100
AcDbLine
 62
7
  6
CONTINUOUS
 10
0.4968318423
 20
-47.9346140735
 11
0.2864936391
 21
-47.8931950202
  0
LINE
  5
255
100
AcDbEntity
  8
0
100
AcDbLine
 62
7
  6
CONTINUOUS
 10
-0.6008352491
 20
-49.3276261591
 11
-0.647753712
 21
-49.3076643397
  0
LINE
  5
256
100
AcDbEntity
  8
0
100
AcDbLine
 62
7
  6
CONTINUOUS
 10
-0.5540282676
 20
-49.3477980276
 11
-0.6008352491
 21
-49.3276261591
  0
LINE
  5
257
100
AcDbEntity
  8
0
100
AcDbLine
 62
7
  6
CONTINUOUS
 10
-0.5073327677
 20
-49.3681799453
 11
-0.5540282676
 21
-49.3477980276
  0
LWPOLYLINE
  5
258
100
AcDbEntity
  8
0
100
AcDbPolyline
 62
7
  6
CONTINUOUS
 90
19
 70
0
 10
1.5063590324
 20
-55.0449295981
 10
1.4866856189
 20
-55.0342721751
 10
1.4509226735
 20
-55.0238825191
 10
1.3990701961
 20
-55.01376063
 10
1.3305316887
 20
-55.0038395838
 10
1.2459036494
 20
-54.9941863046
 10
1.1469755722
 20
-54.9850015645
 10
1.0334510426
 20
-54.9762951802
 10
0.9056264752
 20
-54.9680573351
 10
0.7661806074
 20
-54.9604593511
 10
0.6148659318
 20
-54.9535144942
 10
0.4519299557
 20
-54.9472094986
 10
0.280793939
 20
-54.9416758883
 10
0.1012842381
 20
-54.9369300868
 10
-0.0864255035
 20
-54.9329556707
 10
-0.2783930945
 20
-54.9298348931
 10
-0.4733044713
 20
-54.9275951718
 10
-0.6724736976
 20
-54.926209089
 10
-0.8759007733
 20
-54.9256766448
  0
LWPOLYLINE
  5
259
100
AcDbEntity
  8
0
100
AcDbPolyline
 62
253
  6
CONTINUOUS
 90
43
 70
0
 10
-0.8759035029
 20
-44.751488088
 10
-0.597413534
 20
-44.7629201903
 10
-0.3246100704
 20
-44.7950598928
 10
-0.0574931121
 20
-44.8478272774
 10
0.2051018047
 20
-44.9214312307
 10
0.4620102163
 20
-45.0153431905
 10
0.7097387316
 20
-45.1283090208
 10
0.9481880456
 20
-45.2598552014
 10
1.1774574633
 20
-45.4098478766
 10
1.3943515087
 20
-45.5774838264
 10
1.598870266
 20
-45.7620740399
 10
1.791013651
 20
-45.9633942233
 10
1.9675859347
 20
-46.1812510164
 10
2.1289165927
 20
-46.4149902024
 10
2.2746761494
 20
-46.6639569957
 10
2.4006804482
 20
-46.9278271968
 10
2.5072081846
 20
-47.2068300333
 10
2.5939806632
 20
-47.4989359179
 10
2.6559776415
 20
-47.8004450301
 10
2.6919868127
 20
-48.1130653278
 10
2.7032204837
 20
-48.4330918461
 10
2.688295333
 20
-48.7494517264
 10
2.6450381031
 20
-49.0619302085
 10
2.5756220516
 20
-49.3700068267
 10
2.4851836296
 20
-49.6636151051
 10
2.3731190052
 20
-49.9421143547
 10
2.2400320104
 20
-50.2070270498
 10
2.092870592
 20
-50.4528242953
 10
1.9315246017
 20
-50.6796862755
 10
1.7561041878
 20
-50.8892403626
 10
1.5738877428
 20
-51.0788771069
 10
1.3864191761
 20
-51.2486097581
 10
1.1921545781
 20
-51.4005286563
 10
0.9937406126
 20
-51.5353380526
 10
0.791424511
 20
-51.653945309
 10
0.5849590419
 20
-51.7570789129
 10
0.3762491736
 20
-51.8450903651
 10
0.1647136645
 20
-51.9186919848
 10
-0.0490662437
 20
-51.978332145
 10
-0.261441857
 20
-52.0238684766
 10
-0.4711969441
 20
-52.0554659211
 10
-0.6795477363
 20
-52.0735729304
 10
-0.8864942335
 20
-52.0783348026
  0
LINE
  5
25A
100
AcDbEntity
  8
0
100
AcDbLine
 62
7
  6
CONTINUOUS
 10
-1.1509686311
 20
-46.9977079666
 11
-1.1040501682
 21
-47.0176697859
  0
LINE
  5
25B
100
AcDbEntity
  8
0
100
AcDbLine
 62
7
  6
CONTINUOUS
 10
-1.1977756126
 20
-46.977536098
 11
-1.1509686311
 21
-46.9977079666
  0
LINE
  5
25C
100
AcDbEntity
  8
0
100
AcDbLine
 62
7
  6
CONTINUOUS
 10
-1.2444711125
 20
-46.9571541803
 11
-1.1977756126
 21
-46.977536098
  0
LINE
  5
25D
100
AcDbEntity
  8
0
100
AcDbLine
 62
7
  6
CONTINUOUS
 10
-0.4953228947
 20
-49.3508289597
 11
-0.6370795576
 21
-49.2847733565
  0
LINE
  5
25E
100
AcDbEntity
  8
0
100
AcDbLine
 62
7
  6
CONTINUOUS
 10
-1.2564809855
 20
-46.9745051659
 11
-1.1147243226
 21
-47.0405607691
  0
LINE
  5
25F
100
AcDbEntity
  8
TRASH
100
AcDbLine
 62
7
  6
CONTINUOUS
 10
-1.3956287223
 20
-48.6823844978
 11
-2.020899217
 21
-48.3908152909
  0
LINE
  5
260
100
AcDbEntity
  8
TRASH
100
AcDbLine
 62
7
  6
CONTINUOUS
 10
-0.3561751579
 20
-47.6429496279
 11
0.2690953368
 21
-47.9345188347
  0
LINE
  5
261
100
AcDbEntity
  8
0
100
AcDbLine
 62
7
  6
CONTINUOUS
 10
-1.5426729951
 20
-48.6882138861
 11
-1.4481554364
 21
-48.7349206435
  0
LINE
  5
262
100
AcDbEntity
  8
0
100
AcDbLine
 62
7
  6
CONTINUOUS
 10
-0.2091308851
 20
-47.6371202396
 11
-0.3036484438
 21
-47.5904134821
  0
LINE
  5
263
100
AcDbEntity
  8
0
100
AcDbLine
 62
7
  6
CONTINUOUS
 10
-1.6366835191
 20
-48.6411243846
 11
-1.5426729951
 21
-48.6882138861
  0
LINE
  5
264
100
AcDbEntity
  8
0
100
AcDbLine
 62
7
  6
CONTINUOUS
 10
-0.1151203611
 20
-47.6842097411
 11
-0.2091308851
 21
-47.6371202396
  0
LINE
  5
265
100
AcDbEntity
  8
0
100
AcDbLine
 62
7
  6
CONTINUOUS
 10
-1.5323978182
 20
-48.8191631032
 11
-1.5885660113
 21
-48.7910057611
  0
LINE
  5
266
100
AcDbEntity
  8
0
100
AcDbLine
 62
7
  6
CONTINUOUS
 10
-0.219406062
 20
-47.5061710224
 11
-0.1632378689
 21
-47.5343283645
  0
LINE
  5
267
100
AcDbEntity
  8
0
100
AcDbLine
 62
7
  6
CONTINUOUS
 10
-1.5885660113
 20
-48.7910057611
 11
-1.6445264396
 21
-48.7626670628
  0
LINE
  5
268
100
AcDbEntity
  8
0
100
AcDbLine
 62
7
  6
CONTINUOUS
 10
-0.1632378689
 20
-47.5343283645
 11
-0.1072774406
 21
-47.5626670628
  0
LINE
  5
269
100
AcDbEntity
  8
0
100
AcDbLine
 62
7
  6
CONTINUOUS
 10
-1.7548570544
 20
-48.5812129713
 11
-1.6366835191
 21
-48.6411243846
  0
LINE
  5
26A
100
AcDbEntity
  8
0
100
AcDbLine
 62
7
  6
CONTINUOUS
 10
0.0030531742
 20
-47.7441211543
 11
-0.1151203611
 21
-47.6842097411
  0
LINE
  5
26B
100
AcDbEntity
  8
0
100
AcDbLine
 62
7
  6
CONTINUOUS
 10
-1.9223559524
 20
-48.4952620406
 11
-1.7548570544
 21
-48.5812129713
  0
LINE
  5
26C
100
AcDbEntity
  8
0
100
AcDbLine
 62
7
  6
CONTINUOUS
 10
0.1705520722
 20
-47.830072085
 11
0.0030531742
 21
-47.7441211543
  0
LINE
  5
26D
100
AcDbEntity
  8
0
100
AcDbLine
 62
7
  6
CONTINUOUS
 10
-2.0184963973
 20
-48.4455264185
 11
-1.9223559524
 21
-48.4952620406
  0
LINE
  5
26E
100
AcDbEntity
  8
0
100
AcDbLine
 62
7
  6
CONTINUOUS
 10
0.2666925171
 20
-47.8798077071
 11
0.1705520722
 21
-47.830072085
  0
LINE
  5
26F
100
AcDbEntity
  8
0
100
AcDbLine
 62
7
  6
CONTINUOUS
 10
-2.0382975193
 20
-48.4321391054
 11
-2.0184963973
 21
-48.4455264185
  0
LINE
  5
270
100
AcDbEntity
  8
0
100
AcDbLine
 62
7
  6
CONTINUOUS
 10
0.2864936391
 20
-47.8931950202
 11
0.2666925171
 21
-47.8798077071
  0
LINE
  5
271
100
AcDbEntity
  8
0
100
AcDbLine
 62
7
  6
CONTINUOUS
 10
1.5063590324
 20
-55.0449295981
 11
1.6240964971
 21
-55.1626670628
  0
LINE
  5
272
100
AcDbEntity
  8
0
100
AcDbLine
 62
7
  6
CONTINUOUS
 10
2.3765042764
 20
-55.1102592835
 11
2.3034615557
 21
-55.0372165629
  0
LINE
  5
273
100
AcDbEntity
  8
0
100
AcDbLine
 62
7
  6
CONTINUOUS
 10
2.5031874627
 20
-55.0366680006
 11
2.5767787456
 21
-55.1102592835
  0
LINE
  5
274
100
AcDbEntity
  8
0
100
AcDbLine
 62
7
  6
CONTINUOUS
 10
-1.4481555419
 20
-47.5904134651
 11
-1.3956254243
 21
-47.6429435786
  0
LINE
  5
275
100
AcDbEntity
  8
0
100
AcDbLine
 62
7
  6
CONTINUOUS
 10
-0.3561784559
 20
-48.682390547
 11
-0.3036483383
 21
-48.7349206606
  0
LINE
  5
276
100
AcDbEntity
  8
0
100
AcDbLine
 62
7
  6
CONTINUOUS
 10
-1.5323981617
 20
-47.5061708466
 11
-1.4759019465
 21
-47.5626670628
  0
LINE
  5
277
100
AcDbEntity
  8
0
100
AcDbLine
 62
7
  6
CONTINUOUS
 10
-0.2759019337
 20
-48.7626670628
 11
-0.2194057185
 21
-48.819163279
  0
LINE
  5
278
100
AcDbEntity
  8
0
100
AcDbLine
 62
7
  6
CONTINUOUS
 10
8.4316797761
 20
53.64084932
 11
8.4248805184
 21
53.6339353952
  0
LINE
  5
279
100
AcDbEntity
  8
0
100
AcDbLine
 62
7
  6
CONTINUOUS
 10
8.4385830947
 20
53.6477811062
 11
8.4316797761
 21
53.64084932
  0
LINE
  5
27A
100
AcDbEntity
  8
0
100
AcDbLine
 62
7
  6
CONTINUOUS
 10
9.1282078928
 20
54.8373329372
 11
8.4057645935
 21
54.1148896379
  0
LWPOLYLINE
  5
27B
100
AcDbEntity
  8
0
100
AcDbPolyline
 62
7
  6
CONTINUOUS
 90
18
 70
0
 10
8.4248805184
 20
53.6339353952
 10
8.4203258273
 20
53.629367095
 10
8.4180442313
 20
53.6271276035
 10
8.4157553561
 20
53.624980344
 10
8.4134642877
 20
53.6228718467
 10
8.4111882049
 20
53.6206686721
 10
8.4089331094
 20
53.6183424197
 10
8.4066929995
 20
53.61592149
 10
8.4044670487
 20
53.613357645
 10
8.4022838257
 20
53.6106767746
 10
8.4001147618
 20
53.6078529889
 10
8.3978733238
 20
53.6047603806
 10
8.3955287284
 20
53.6013884481
 10
8.3931117591
 20
53.597747693
 10
8.3906282329
 20
53.5937437121
 10
8.388080089
 20
53.5893450378
 10
8.3854653883
 20
53.5845831378
 10
8.3827841308
 20
53.579458012
  0
LINE
  5
27C
100
AcDbEntity
  8
0
100
AcDbLine
 62
7
  6
CONTINUOUS
 10
9.1282078928
 20
54.3373329372
 11
8.4385830947
 21
53.6477811062
  0
LINE
  5
27D
100
AcDbEntity
  8
0
100
AcDbLine
 62
253
  6
CONTINUOUS
 10
10.8054457157
 20
-29.6728123268
 11
10.3067436643
 21
-29.6989448205
  0
LINE
  5
27E
100
AcDbEntity
  8
0
100
AcDbLine
 62
253
  6
CONTINUOUS
 10
-12.0587785357
 20
-29.6989497283
 11
-12.5574805871
 21
-29.6728175145
  0
LINE
  5
27F
100
AcDbEntity
  8
0
100
AcDbLine
 62
7
  6
CONTINUOUS
 10
8.4057645935
 20
-54.4402237635
 11
9.1282078928
 21
-55.1626670628
  0
LINE
  5
280
100
AcDbEntity
  8
0
100
AcDbLine
 62
7
  6
CONTINUOUS
 10
9.1285493391
 20
-54.6630085091
 11
8.419884128
 21
-53.954343298
  0
LINE
  5
281
100
AcDbEntity
  8
0
100
AcDbLine
 62
7
  6
CONTINUOUS
 10
11.4474261415
 20
51.1647739773
 11
12.1240964971
 21
51.8414443329
  0
LINE
  5
282
100
AcDbEntity
  8
0
100
AcDbLine
 62
253
  6
CONTINUOUS
 10
7.6607900729
 20
-29.6728175145
 11
-9.4125970787
 21
-29.6728175145
  0
LINE
  5
283
100
AcDbEntity
  8
0
100
AcDbLine
 62
7
  6
CONTINUOUS
 10
12.0716887178
 20
-52.1143706793
 11
12.1240964971
 21
-52.1652782038
  0
LINE
  5
284
100
AcDbEntity
  8
0
100
AcDbLine
 62
7
  6
CONTINUOUS
 10
11.6246469685
 20
-52.1673289299
 11
10.9157727496
 21
-51.4584547111
  0
LWPOLYLINE
  5
285
100
AcDbEntity
  8
0
100
AcDbPolyline
 62
7
  6
CONTINUOUS
 90
3
 70
0
 10
12.0716887178
 20
-52.1143706793
 10
11.5403379056
 20
-51.583019867
 10
11.4840843827
 20
-51.5277158888
  0
LWPOLYLINE
  5
286
100
AcDbEntity
  8
0
100
AcDbPolyline
 62
7
  6
CONTINUOUS
 90
35
 70
0
 10
11.4840843827
 20
-51.5277158888
 10
11.4571066202
 20
-51.4997885816
 10
11.431023452
 20
-51.479108023
 10
11.4057124838
 20
-51.4577753474
 10
11.3808251355
 20
-51.4106882442
 10
11.3564520641
 20
-51.333794259
 10
11.3325026126
 20
-51.2311458461
 10
11.3083562289
 20
-51.0897980578
 10
11.2837981695
 20
-50.9072581398
 10
11.259043178
 20
-50.6860188463
 10
11.234114933
 20
-50.4206134924
 10
11.2089012012
 20
-50.1097083229
 10
11.1835142158
 20
-49.7546370929
 10
11.1583143552
 20
-49.3539343828
 10
11.1333399063
 20
-48.9073116345
 10
11.108552582
 20
-48.4150574062
 10
11.0841978994
 20
-47.8765719523
 10
11.0602843906
 20
-47.2920180808
 10
11.0368035235
 20
-46.6612329839
 10
11.013975218
 20
-45.9831284921
 10
10.9917776213
 20
-45.2580303111
 10
10.9702325862
 20
-44.4856127354
 10
10.9496255914
 20
-43.6638104791
 10
10.9299682611
 20
-42.7926756862
 10
10.9112489711
 20
-41.8721562129
 10
10.8937183276
 20
-40.9000303419
 10
10.8773311635
 20
-39.8768626777
 10
10.8621326459
 20
-38.802088616
 10
10.848508882
 20
-37.671792626
 10
10.836400973
 20
-36.4862772207
 10
10.8258678178
 20
-35.2452398873
 10
10.8174722206
 20
-33.9438575568
 10
10.8114017828
 20
-32.5805225397
 10
10.807468903
 20
-31.1568425256
 10
10.8056735813
 20
-29.6728175144
  0
LINE
  5
287
100
AcDbEntity
  8
0
100
AcDbLine
 62
7
  6
CONTINUOUS
 10
-1.2564810347
 20
-49.3508288677
 11
-1.2443289109
 21
-49.3683853002
  0
LINE
  5
288
100
AcDbEntity
  8
0
100
AcDbLine
 62
7
  6
CONTINUOUS
 10
-0.5074749677
 20
-46.9569488276
 11
-0.4953228455
 21
-46.974505258
  0
LINE
  5
289
100
AcDbEntity
  8
0
100
AcDbLine
 62
7
  6
CONTINUOUS
 10
-1.2564810347
 20
-49.3508288677
 11
-1.2837179069
 21
-49.2998703898
  0
LINE
  5
28A
100
AcDbEntity
  8
0
100
AcDbLine
 62
7
  6
CONTINUOUS
 10
-1.2837179069
 20
-49.2998703898
 11
-1.3862527638
 21
-49.1052144601
  0
LINE
  5
28B
100
AcDbEntity
  8
0
100
AcDbLine
 62
7
  6
CONTINUOUS
 10
-1.3862527638
 20
-49.1052144601
 11
-1.4331145885
 21
-49.0148154864
  0
LINE
  5
28C
100
AcDbEntity
  8
0
100
AcDbLine
 62
7
  6
CONTINUOUS
 10
-1.4331145885
 20
-49.0148154864
 11
-1.4782818695
 21
-48.9266125542
  0
LINE
  5
28D
100
AcDbEntity
  8
0
100
AcDbLine
 62
7
  6
CONTINUOUS
 10
-1.4782818695
 20
-48.9266125542
 11
-1.5144301268
 21
-48.8550889243
  0
LINE
  5
28E
100
AcDbEntity
  8
0
100
AcDbLine
 62
7
  6
CONTINUOUS
 10
-1.5144301268
 20
-48.8550889243
 11
-1.5323978182
 21
-48.8191631032
  0
LWPOLYLINE
  5
28F
100
AcDbEntity
  8
0
100
AcDbPolyline
 62
7
  6
CONTINUOUS
 90
34
 70
0
 10
8.4057645935
 20
54.1148896379
 10
8.3756784748
 20
54.0674095324
 10
8.3455185339
 20
53.9816220505
 10
8.3152847708
 20
53.8575271922
 10
8.2849011874
 20
53.6959236868
 10
8.2544437817
 20
53.4960128051
 10
8.2241405481
 20
53.2553983587
 10
8.1940076881
 20
52.9735393242
 10
8.1640290002
 20
52.650976725
 10
8.1343838734
 20
52.2869374444
 10
8.1051030603
 20
51.8819445865
 10
8.0761558085
 20
51.435475047
 10
8.0476292491
 20
50.9451863965
 10
8.0194944104
 20
50.4110287974
 10
7.9917802642
 20
49.8330520873
 10
7.9646608574
 20
49.2090633484
 10
7.9381304473
 20
48.5391886603
 10
7.9121947766
 20
47.8233019435
 10
7.8870451202
 20
47.0588320419
 10
7.8626613886
 20
46.2455707941
 10
7.8390636714
 20
45.3837263616
 10
7.8165035122
 20
44.4713520731
 10
7.7949556725
 20
43.5087362497
 10
7.7744453909
 20
42.4955905704
 10
7.7552999265
 20
41.4291034008
 10
7.7374990562
 20
40.3089610485
 10
7.7210630032
 20
39.1354772059
 10
7.706379696
 20
37.9067813158
 10
7.6933959739
 20
36.6231360989
 10
7.6821649977
 20
35.2842788344
 10
7.6732341784
 20
33.887550803
 10
7.6667859863
 20
32.4320657651
 10
7.6626379512
 20
30.9187099604
 10
7.6607900729
 20
29.3474833889
  0
LWPOLYLINE
  5
290
100
AcDbEntity
  8
0
100
AcDbPolyline
 62
7
  6
CONTINUOUS
 90
4
 70
0
 10
10.8852538402
 20
51.093335025
 10
10.9073270828
 20
51.1249505771
 10
10.9299615856
 20
51.1473821607
 10
11.6240964971
 20
51.8414443329
  0
LINE
  5
291
100
AcDbEntity
  8
0
100
AcDbLine
 62
253
  6
CONTINUOUS
 10
10.8059013516
 20
-21.093404872
 11
10.3071993003
 21
-21.1195370858
  0
LINE
  5
292
100
AcDbEntity
  8
0
100
AcDbLine
 62
253
  6
CONTINUOUS
 10
8.112152476
 20
-20.999375127
 11
7.6870812532
 21
-21.0206518799
  0
LINE
  5
293
100
AcDbEntity
  8
0
100
AcDbLine
 62
253
  6
CONTINUOUS
 10
10.7701892076
 20
-18.3181505131
 11
10.272084143
 21
-18.3423161549
  0
LINE
  5
294
100
AcDbEntity
  8
0
100
AcDbLine
 62
253
  6
CONTINUOUS
 10
8.5398668882
 20
-20.979981112
 11
8.112152476
 21
-20.999375127
  0
LINE
  5
295
100
AcDbEntity
  8
0
100
AcDbLine
 62
253
  6
CONTINUOUS
 10
-9.4125970787
 20
-21.0933999662
 11
7.6607900729
 21
-21.0933999662
  0
LINE
  5
296
100
AcDbEntity
  8
0
100
AcDbLine
 62
7
  6
CONTINUOUS
 10
3.9502230881
 20
-20.1289523453
 11
-5.7020300939
 21
-20.1289523453
  0
LINE
  5
297
100
AcDbEntity
  8
0
100
AcDbLine
 62
253
  6
CONTINUOUS
 10
7.6449622201
 20
-19.7815812203
 11
3.9240964971
 21
-19.7815812284
  0
LINE
  5
298
100
AcDbEntity
  8
0
100
AcDbLine
 62
253
  6
CONTINUOUS
 10
-5.6759035029
 20
-19.7815812203
 11
-9.3967692259
 21
-19.7815812284
  0
LINE
  5
299
100
AcDbEntity
  8
0
100
AcDbLine
 62
7
  6
CONTINUOUS
 10
3.1240964971
 20
-19.0626670628
 11
-4.8759035029
 21
-19.0626670628
  0
LWPOLYLINE
  5
29A
100
AcDbEntity
  8
0
100
AcDbPolyline
 62
253
  6
CONTINUOUS
 90
12
 70
0
 10
-10.8841612068
 20
-20.9568133905
 10
-11.0640903409
 20
-20.9508656429
 10
-11.2323671102
 20
-20.9459385069
 10
-11.3874073813
 20
-20.9420956843
 10
-11.5283237166
 20
-20.9393398722
 10
-11.6549626093
 20
-20.9376565007
 10
-11.7669301253
 20
-20.9370514474
 10
-11.8624835711
 20
-20.9375427405
 10
-11.9398031952
 20
-20.939110956
 10
-11.9983250493
 20
-20.9417095298
 10
-12.0380573567
 20
-20.9453077069
 10
-12.0586934609
 20
-20.9498713691
  0
LINE
  5
29B
100
AcDbEntity
  8
0
100
AcDbLine
 62
253
  6
CONTINUOUS
 10
-10.492565376
 20
-20.9715971885
 11
-10.8841612068
 21
-20.9568133905
  0
LINE
  5
29C
100
AcDbEntity
  8
0
100
AcDbLine
 62
253
  6
CONTINUOUS
 10
-10.0728589401
 20
-20.9896487112
 11
-10.492565376
 21
-20.9715971885
  0
LINE
  5
29D
100
AcDbEntity
  8
0
100
AcDbLine
 62
253
  6
CONTINUOUS
 10
-12.0277287546
 20
-18.4938564561
 11
-12.5258248918
 21
-18.4697627181
  0
LWPOLYLINE
  5
29E
100
AcDbEntity
  8
0
100
AcDbPolyline
 62
253
  6
CONTINUOUS
 90
19
 70
0
 10
-9.4389228125
 20
-21.3876183124
 10
-9.6486286561
 20
-21.3771504212
 10
-9.860569998
 20
-21.3675979012
 10
-10.0729376567
 20
-21.3590413049
 10
-10.2845158307
 20
-21.3515420221
 10
-10.49266772
 20
-21.3452169708
 10
-10.6935124289
 20
-21.3401990691
 10
-10.8842809268
 20
-21.3365587402
 10
-11.0642161284
 20
-21.3343210224
 10
-11.2324971312
 20
-21.3335369884
 10
-11.3875397227
 20
-21.3342496894
 10
-11.5284564958
 20
-21.3364152964
 10
-11.6550939828
 20
-21.3399952587
 10
-11.7670589157
 20
-21.3449797967
 10
-11.8626077459
 20
-21.351309046
 10
-11.9399195196
 20
-21.3588415781
 10
-11.9984311545
 20
-21.3674499795
 10
-12.0381526203
 20
-21.3770713519
 10
-12.0587785357
 20
-21.3876183124
  0
LWPOLYLINE
  5
29F
100
AcDbEntity
  8
0
100
AcDbPolyline
 62
253
  6
CONTINUOUS
 90
3
 70
0
 10
-9.438888259
 20
-21.0206518799
 10
-9.6485783768
 20
-21.0099041565
 10
-10.0728589401
 20
-20.9896487112
  0
LWPOLYLINE
  5
2A0
100
AcDbEntity
  8
0
100
AcDbPolyline
 62
253
  6
CONTINUOUS
 90
19
 70
0
 10
-9.4168321404
 20
-19.4204761808
 10
-9.6262503009
 20
-19.406705951
 10
-9.8378286256
 20
-19.38567323
 10
-10.0497611015
 20
-19.3575644174
 10
-10.2608335456
 20
-19.3224544947
 10
-10.4684138096
 20
-19.2806184827
 10
-10.668630601
 20
-19.2327325268
 10
-10.8587234587
 20
-19.1794482239
 10
-11.0379372334
 20
-19.1209036521
 10
-11.2054514384
 20
-19.0570827636
 10
-11.3596865698
 20
-18.9883392192
 10
-11.4997626391
 20
-18.9153419028
 10
-11.6255296414
 20
-18.8384210859
 10
-11.7365969174
 20
-18.7578063737
 10
-11.8312336476
 20
-18.6746300896
 10
-11.9076377252
 20
-18.5906215599
 10
-11.9652577844
 20
-18.5068953483
 10
-12.0041081723
 20
-18.4238831661
 10
-12.0238911488
 20
-18.3423161548
  0
LWPOLYLINE
  5
2A1
100
AcDbEntity
  8
0
100
AcDbPolyline
 62
253
  6
CONTINUOUS
 90
19
 70
0
 10
10.30697153
 20
-29.6989497283
 10
10.2865693251
 20
-29.6884806606
 10
10.2473775403
 20
-29.6789267668
 10
10.1897327373
 20
-29.6703703497
 10
10.1137244895
 20
-29.6628742776
 10
10.0198849439
 20
-29.6565546824
 10
9.9097225865
 20
-29.6515420088
 10
9.7847626959
 20
-29.6479038735
 10
9.6453326577
 20
-29.6456624362
 10
9.4913531703
 20
-29.6448659958
 10
9.3235436318
 20
-29.6455673422
 10
9.1435150783
 20
-29.6477300029
 10
8.9521351683
 20
-29.6513126367
 10
8.7499985986
 20
-29.6563026843
 10
8.5399585052
 20
-29.6626372863
 10
8.3264101454
 20
-29.6701724729
 10
8.112217748
 20
-29.6787810687
 10
7.8984960223
 20
-29.6884019969
 10
7.6871157964
 20
-29.6989497289
  0
LINE
  5
2A2
100
AcDbEntity
  8
0
100
AcDbLine
 62
7
  6
CONTINUOUS
 10
-0.4953228455
 20
-46.974505258
 11
-0.4680859733
 21
-47.0254637358
  0
LINE
  5
2A3
100
AcDbEntity
  8
0
100
AcDbLine
 62
7
  6
CONTINUOUS
 10
-0.4680859733
 20
-47.0254637358
 11
-0.3655511164
 21
-47.2201196656
  0
LINE
  5
2A4
100
AcDbEntity
  8
0
100
AcDbLine
 62
7
  6
CONTINUOUS
 10
-0.3655511164
 20
-47.2201196656
 11
-0.3186892917
 21
-47.3105186392
  0
LINE
  5
2A5
100
AcDbEntity
  8
0
100
AcDbLine
 62
7
  6
CONTINUOUS
 10
-0.3186892917
 20
-47.3105186392
 11
-0.2735220107
 21
-47.3987215714
  0
LINE
  5
2A6
100
AcDbEntity
  8
0
100
AcDbLine
 62
7
  6
CONTINUOUS
 10
-0.2735220107
 20
-47.3987215714
 11
-0.2373737534
 21
-47.4702452013
  0
LINE
  5
2A7
100
AcDbEntity
  8
0
100
AcDbLine
 62
7
  6
CONTINUOUS
 10
-0.2373737534
 20
-47.4702452013
 11
-0.219406062
 21
-47.5061710224
  0
LINE
  5
2A8
100
AcDbEntity
  8
0
100
AcDbLine
 62
7
  6
CONTINUOUS
 10
-1.4481554364
 20
-48.7349206435
 11
-1.4345163765
 21
-48.7626670628
  0
LINE
  5
2A9
100
AcDbEntity
  8
0
100
AcDbLine
 62
7
  6
CONTINUOUS
 10
-0.3036484438
 20
-47.5904134821
 11
-0.3172875037
 21
-47.5626670628
  0
LINE
  5
2AA
100
AcDbEntity
  8
0
100
AcDbLine
 62
7
  6
CONTINUOUS
 10
-1.9980082271
 20
-47.9238446902
 11
-2.0184963047
 21
-47.8798076591
  0
LINE
  5
2AB
100
AcDbEntity
  8
0
100
AcDbLine
 62
7
  6
CONTINUOUS
 10
0.2462043469
 20
-48.4014894354
 11
0.2666924245
 21
-48.4455264665
  0
LINE
  5
2AC
100
AcDbEntity
  8
TRASH
100
AcDbLine
 62
7
  6
CONTINUOUS
 10
-1.1040501582
 20
-49.3076643329
 11
-1.3956193751
 21
-48.6823938451
  0
LINE
  5
2AD
100
AcDbEntity
  8
TRASH
100
AcDbLine
 62
7
  6
CONTINUOUS
 10
-0.647753722
 20
-47.0176697927
 11
-0.3561845051
 21
-47.6429402806
  0
LINE
  5
2AE
100
AcDbEntity
  8
0
100
AcDbLine
 62
7
  6
CONTINUOUS
 10
-2.0297020041
 20
-47.9139299071
 11
-2.0386050167
 21
-47.8934029304
  0
LINE
  5
2AF
100
AcDbEntity
  8
0
100
AcDbLine
 62
7
  6
CONTINUOUS
 10
-2.0208992102
 20
-47.9345188447
 11
-2.0297020041
 21
-47.9139299071
  0
LWPOLYLINE
  5
2B0
100
AcDbEntity
  8
0
100
AcDbPolyline
 62
7
  6
CONTINUOUS
 90
19
 70
0
 10
-13.3759035029
 20
51.8414443329
 10
-13.3657710308
 20
52.0625320643
 10
-13.3373847089
 20
52.2784875278
 10
-13.2907445374
 20
52.4893107236
 10
-13.2251904552
 20
52.6964724372
 10
-13.1413825232
 20
52.898501883
 10
-13.0413009248
 20
53.0909867045
 10
-12.9246205078
 20
53.2737132594
 10
-12.7916664244
 20
53.4468951899
 10
-12.6453943145
 20
53.6067610666
 10
-12.4855325615
 20
53.7530394913
 10
-12.3123527821
 20
53.8860018622
 10
-12.1296254658
 20
54.0026909445
 10
-11.9371366786
 20
54.1027816959
 10
-11.7351003546
 20
54.1865991588
 10
-11.5279287854
 20
54.2521612251
 10
-11.317092735
 20
54.2988071923
 10
-11.1011214394
 20
54.327197763
 10
-10.8800148986
 20
54.3373329372
  0
LWPOLYLINE
  5
2B1
100
AcDbEntity
  8
0
100
AcDbPolyline
 62
253
  6
CONTINUOUS
 90
14
 70
0
 10
10.3068845106
 20
-20.9498704785
 10
10.2864711868
 20
-20.9453390798
 10
10.2472696672
 20
-20.9417596309
 10
10.1896165971
 20
-20.939162996
 10
10.1136016175
 20
-20.9375772767
 10
10.0197569926
 20
-20.9370444767
 10
9.909591322
 20
-20.9375871702
 10
9.7846299279
 20
-20.9391969752
 10
9.6452002139
 20
-20.9418758052
 10
9.4912229332
 20
-20.9456492511
 10
9.3234175275
 20
-20.9505235055
 10
9.1433949606
 20
-20.9564373358
 10
8.9520228281
 20
-20.9633472295
 10
8.5398668882
 20
-20.979981112
  0
LWPOLYLINE
  5
2B2
100
AcDbEntity
  8
0
100
AcDbPolyline
 62
7
  6
CONTINUOUS
 90
31
 70
0
 10
10.9157725393
 20
-51.4584929271
 10
10.8757745
 20
-51.3965365513
 10
10.8376567087
 20
-51.2529639999
 10
10.8016068173
 20
-51.0352103653
 10
10.7679143043
 20
-50.757766487
 10
10.7364208156
 20
-50.4324587163
 10
10.7066342
 20
-50.0642887182
 10
10.6786350285
 20
-49.6618339282
 10
10.6523363091
 20
-49.2305579699
 10
10.6271396819
 20
-48.7656545682
 10
10.6030406735
 20
-48.2705436442
 10
10.5799972504
 20
-47.7474749042
 10
10.5575193852
 20
-47.1868385173
 10
10.5356105955
 20
-46.5889721515
 10
10.5143943814
 20
-45.956411367
 10
10.4936900551
 20
-45.2811565274
 10
10.4735567241
 20
-44.5612725254
 10
10.4541485438
 20
-43.7983065187
 10
10.4354846722
 20
-42.9891597371
 10
10.417683449
 20
-42.1347433945
 10
10.4008502436
 20
-41.2361520944
 10
10.3850183235
 20
-40.2910392361
 10
10.3702920811
 20
-39.3011862122
 10
10.3567976384
 20
-38.2693581072
 10
10.3446365642
 20
-37.1930770036
 10
10.333950087
 20
-36.0731568262
 10
10.3248369232
 20
-34.9073453782
 10
10.3173746305
 20
-33.6880451066
 10
10.3117556357
 20
-32.4125465454
 10
10.3082221046
 20
-31.0829555615
 10
10.30697153
 20
-29.6989497283
  0
LINE
  5
2B3
100
AcDbEntity
  8
0
100
AcDbLine
 62
7
  6
CONTINUOUS
 10
0.2778981112
 20
-48.4114042271
 11
0.2868011266
 21
-48.4319312019
  0
LINE
  5
2B4
100
AcDbEntity
  8
0
100
AcDbLine
 62
7
  6
CONTINUOUS
 10
0.26909533
 20
-48.3908152809
 11
0.2778981112
 21
-48.4114042271
  0
LWPOLYLINE
  5
2B5
100
AcDbEntity
  8
0
100
AcDbPolyline
 62
253
  6
CONTINUOUS
 90
25
 70
0
 10
-13.3234957236
 20
-52.1143706793
 10
-13.3178282995
 20
-52.2764937431
 10
-13.3010609094
 20
-52.4383714467
 10
-13.2735526199
 20
-52.5991931453
 10
-13.2356761635
 20
-52.7581005521
 10
-13.1877686071
 20
-52.9143843594
 10
-13.1300874746
 20
-53.0674720627
 10
-13.0629565033
 20
-53.216561494
 10
-12.9866577114
 20
-53.3609576415
 10
-12.901283639
 20
-53.5002263508
 10
-12.8069983084
 20
-53.6336969313
 10
-12.704093936
 20
-53.7605053671
 10
-12.5927919754
 20
-53.8798956671
 10
-12.4734028761
 20
-53.9911731029
 10
-12.3466093147
 20
-54.0940330744
 10
-12.2131576121
 20
-54.1882714071
 10
-12.0739098133
 20
-54.2736000619
 10
-11.9295409086
 20
-54.3498549869
 10
-11.7804797088
 20
-54.4169486338
 10
-11.6274168729
 20
-54.4746018452
 10
-11.4711588708
 20
-54.5224882173
 10
-11.3122843459
 20
-54.5603459065
 10
-11.1515051317
 20
-54.5878385924
 10
-10.9896760824
 20
-54.6045956243
 10
-10.8276071193
 20
-54.6102592835
  0
LWPOLYLINE
  5
2B6
100
AcDbEntity
  8
0
100
AcDbPolyline
 62
7
  6
CONTINUOUS
 90
19
 70
0
 10
-12.529544601
 20
2.4948468844
 10
-12.4965358667
 20
1.1055103545
 10
-12.4740337592
 20
0.0009459891
 10
-12.4544898491
 20
-1.1208786736
 10
-12.4378701847
 20
-2.262841898
 10
-12.4242087176
 20
-3.4220654196
 10
-12.4136073028
 20
-4.5899144454
 10
-12.4060889069
 20
-5.7664515994
 10
-12.4016305632
 20
-6.9516142576
 10
-12.4002652269
 20
-8.1365797543
 10
-12.4020160229
 20
-9.3213454894
 10
-12.4068598262
 20
-10.505914063
 10
-12.4147602165
 20
-11.6814706101
 10
-12.4257218215
 20
-12.8472303203
 10
-12.4397400135
 20
-14.003978004
 10
-12.4567644898
 20
-15.1452532275
 10
-12.4767784828
 20
-16.268902513
 10
-12.49979876
 20
-17.3770793384
 10
-12.5326233963
 20
-18.7626605254
  0
LINE
  5
2B7
100
AcDbEntity
  8
0
100
AcDbLine
 62
7
  6
CONTINUOUS
 10
-12.0351541754
 20
2.6864843116
 11
-12.0009926181
 21
1.2497371048
  0
LWPOLYLINE
  5
2B8
100
AcDbEntity
  8
0
100
AcDbPolyline
 62
7
  6
CONTINUOUS
 90
20
 70
0
 10
-12.0009926181
 20
1.2497371048
 10
-11.9813358341
 20
0.3127976814
 10
-11.9637742844
 20
-0.6393581358
 10
-11.9483413062
 20
-1.6050213436
 10
-11.9350672606
 20
-2.5824382579
 10
-11.9239809074
 20
-3.5698815714
 10
-11.9150993558
 20
-4.5656089965
 10
-11.9084351535
 20
-5.5677699337
 10
-11.9040004976
 20
-6.5744601771
 10
-11.901806854
 20
-7.5838947283
 10
-11.9018656188
 20
-8.5942509245
 10
-11.9041765805
 20
-9.603566624
 10
-11.908727943
 20
-10.6100138849
 10
-11.9155079152
 20
-11.6118145393
 10
-11.924504116
 20
-12.6070830935
 10
-11.9357036785
 20
-13.5939670168
 10
-11.9490892872
 20
-14.5707287552
 10
-11.9646323535
 20
-15.5356696423
 10
-11.9823025151
 20
-16.4870460548
 10
-12.0020672658
 20
-17.4231329899
  0
LINE
  5
2B9
100
AcDbEntity
  8
0
100
AcDbLine
 62
7
  6
CONTINUOUS
 10
-12.0433495627
 20
3.111721861
 11
-12.0351541754
 21
2.6864843116
  0
LINE
  5
2BA
100
AcDbEntity
  8
0
100
AcDbLine
 62
7
  6
CONTINUOUS
 10
-12.0497118145
 20
3.5375833499
 11
-12.0433495627
 21
3.111721861
  0
LINE
  5
2BB
100
AcDbEntity
  8
0
100
AcDbLine
 62
7
  6
CONTINUOUS
 10
-12.054283504
 20
3.9569420121
 11
-12.0497118145
 21
3.5375833499
  0
LINE
  5
2BC
100
AcDbEntity
  8
0
100
AcDbLine
 62
7
  6
CONTINUOUS
 10
-12.0571872455
 20
4.3647085288
 11
-12.054283504
 21
3.9569420121
  0
LWPOLYLINE
  5
2BD
100
AcDbEntity
  8
0
100
AcDbPolyline
 62
7
  6
CONTINUOUS
 90
8
 70
0
 10
-12.557032768
 20
4.6504550587
 10
-12.5557250783
 20
4.3355219319
 10
-12.5535575181
 20
4.0232661833
 10
-12.5505485577
 20
3.7141745612
 10
-12.5466797267
 20
3.4077603172
 10
-12.5418956138
 20
3.1025632059
 10
-12.5361777484
 20
2.7980964788
 10
-12.529544601
 20
2.4948468844
  0
LINE
  5
2BE
100
AcDbEntity
  8
0
100
AcDbLine
 62
7
  6
CONTINUOUS
 10
-12.0585824116
 20
4.7542883305
 11
-12.0571872455
 21
4.3647085288
  0
LINE
  5
2BF
100
AcDbEntity
  8
0
100
AcDbLine
 62
7
  6
CONTINUOUS
 10
-13.8759035029
 20
-52.1667784586
 11
-13.8759035029
 21
51.8414443329
  0
LINE
  5
2C0
100
AcDbEntity
  8
0
100
AcDbLine
 62
7
  6
CONTINUOUS
 10
-12.5593617621
 20
30.8632625487
 11
-12.557032768
 21
4.6504550587
  0
LINE
  5
2C1
100
AcDbEntity
  8
0
100
AcDbLine
 62
7
  6
CONTINUOUS
 10
-12.0587785314
 20
29.3213324474
 11
-12.0585824116
 21
4.7542883305
  0
LWPOLYLINE
  5
2C2
100
AcDbEntity
  8
0
100
AcDbPolyline
 62
7
  6
CONTINUOUS
 90
34
 70
0
 10
-12.0587785297
 20
-29.6989257145
 10
-12.0599911654
 20
-31.0496625578
 10
-12.0633243785
 20
-32.3494524792
 10
-12.0687115241
 20
-33.5982856225
 10
-12.0758699156
 20
-34.7944351609
 10
-12.0846320845
 20
-35.9396954664
 10
-12.0948821708
 20
-37.0397525836
 10
-12.1064797947
 20
-38.0933786019
 10
-12.1192904697
 20
-39.0993323622
 10
-12.1332667454
 20
-40.0627512781
 10
-12.1483092333
 20
-40.9838710229
 10
-12.1642846449
 20
-41.8612216907
 10
-12.1811607535
 20
-42.6974091811
 10
-12.1988525597
 20
-43.4919634312
 10
-12.2172823983
 20
-44.2450366591
 10
-12.236460759
 20
-44.9601797454
 10
-12.2563261062
 20
-45.6380563783
 10
-12.2767689556
 20
-46.2781088045
 10
-12.2977625799
 20
-46.880614511
 10
-12.3192167386
 20
-47.4436608146
 10
-12.3410696219
 20
-47.9668350208
 10
-12.363361372
 20
-48.4526708795
 10
-12.3860308459
 20
-48.9014567843
 10
-12.4089910006
 20
-49.3129039971
 10
-12.4322653148
 20
-49.6886116265
 10
-12.4557774225
 20
-50.0280212346
 10
-12.4793806492
 20
-50.3297631073
 10
-12.5029974136
 20
-50.5938764725
 10
-12.5264990013
 20
-50.8201082596
 10
-12.5498035766
 20
-51.0091731084
 10
-12.5728929046
 20
-51.1628581088
 10
-12.5956784821
 20
-51.2823330436
 10
-12.6180073533
 20
-51.3687249845
 10
-12.6397812768
 20
-51.4240866835
  0
LWPOLYLINE
  5
2C3
100
AcDbEntity
  8
0
100
AcDbPolyline
 62
7
  6
CONTINUOUS
 90
45
 70
0
 10
-12.5574805871
 20
-29.6728180841
 10
-12.5586978878
 20
-30.9051890853
 10
-12.5614127974
 20
-32.0919548799
 10
-12.5656253161
 20
-33.2331154678
 10
-12.5714678857
 20
-34.3274097715
 10
-12.5788080644
 20
-35.3760988686
 10
-12.5872485261
 20
-36.3829659918
 10
-12.5967467719
 20
-37.3481319918
 10
-12.6073453009
 20
-38.2714760179
 10
-12.618774284
 20
-39.1564187515
 10
-12.6310152187
 20
-40.0031050315
 10
-12.6440866076
 20
-40.811390019
 10
-12.657774129
 20
-41.5842598777
 10
-12.6720581376
 20
-42.3219162723
 10
-12.6869582788
 20
-43.0241575382
 10
-12.7023191676
 20
-43.6933648453
 10
-12.7181415489
 20
-44.3295075696
 10
-12.7344246777
 20
-44.9326163352
 10
-12.7510109346
 20
-45.5051641851
 10
-12.7678812467
 20
-46.0474587713
 10
-12.7850546869
 20
-46.5591924419
 10
-12.8024308543
 20
-47.0419152835
 10
-12.8200140128
 20
-47.4956239386
 10
-12.8377998985
 20
-47.9203217647
 10
-12.8556753179
 20
-48.317568921
 10
-12.8736466209
 20
-48.6872069051
 10
-12.8917074576
 20
-49.0293942195
 10
-12.9097255857
 20
-49.3461665304
 10
-12.9276898243
 20
-49.6376256113
 10
-12.9456113542
 20
-49.9036696889
 10
-12.9633914751
 20
-50.1460291092
 10
-12.9810322036
 20
-50.364499658
 10
-12.998531523
 20
-50.5592855495
 10
-13.0157846833
 20
-50.7327297727
 10
-13.0328260144
 20
-50.8847941657
 10
-13.0496211863
 20
-51.0155168903
 10
-13.065962459
 20
-51.1273554211
 10
-13.0817324794
 20
-51.2196657983
 10
-13.0970486006
 20
-51.2930919817
 10
-13.1120551415
 20
-51.3520233242
 10
-13.1266805447
 20
-51.3949603773
 10
-13.1409963676
 20
-51.4234025896
 10
-13.1553616014
 20
-51.4462376596
 10
-13.16989915
 20
-51.4645458352
 10
-13.19911276
 20
-51.4899877156
  0
LINE
  5
2C4
100
AcDbEntity
  8
0
100
AcDbLine
 62
7
  6
CONTINUOUS
 10
-12.5572288759
 20
-20.8533748046
 11
-12.5574805871
 21
-29.6728180841
  0
LINE
  5
2C5
100
AcDbEntity
  8
0
100
AcDbLine
 62
7
  6
CONTINUOUS
 10
-12.0581449695
 20
-20.7118411979
 11
-12.0587785297
 21
-29.6989257145
  0
LINE
  5
2C6
100
AcDbEntity
  8
0
100
AcDbLine
 62
7
  6
CONTINUOUS
 10
-12.0556730355
 20
-20.2519335056
 11
-12.0581449695
 21
-20.7118411979
  0
LINE
  5
2C7
100
AcDbEntity
  8
0
100
AcDbLine
 62
7
  6
CONTINUOUS
 10
-12.051563026
 20
-19.815325314
 11
-12.0556730355
 21
-20.2519335056
  0
LINE
  5
2C8
100
AcDbEntity
  8
0
100
AcDbLine
 62
7
  6
CONTINUOUS
 10
-12.0460575165
 20
-19.404047245
 11
-12.051563026
 21
-19.815325314
  0
LINE
  5
2C9
100
AcDbEntity
  8
0
100
AcDbLine
 62
7
  6
CONTINUOUS
 10
-12.0393932698
 20
-19.0193791317
 11
-12.0460575165
 21
-19.404047245
  0
LWPOLYLINE
  5
2CA
100
AcDbEntity
  8
0
100
AcDbPolyline
 62
7
  6
CONTINUOUS
 90
8
 70
0
 10
-12.5326233963
 20
-18.7626605254
 10
-12.5385404499
 20
-19.049051644
 10
-12.5435764822
 20
-19.3289570595
 10
-12.5476597283
 20
-19.6030736231
 10
-12.5508619531
 20
-19.8707044836
 10
-12.5533984508
 20
-20.1297590873
 10
-12.5552516222
 20
-20.3772057564
 10
-12.5572288759
 20
-20.8533748046
  0
LINE
  5
2CB
100
AcDbEntity
  8
0
100
AcDbLine
 62
7
  6
CONTINUOUS
 10
7.5552364153
 20
-14.1626668314
 11
8.6240944293
 21
-14.1626651061
  0
LINE
  5
2CC
100
AcDbEntity
  8
0
100
AcDbLine
 62
7
  6
CONTINUOUS
 10
7.540432909
 20
-14.1626670628
 11
5.6240964971
 21
-14.1626670628
  0
LINE
  5
2CD
100
AcDbEntity
  8
0
100
AcDbLine
 62
7
  6
CONTINUOUS
 10
-1.1040754683
 20
-50.0125019432
 11
-1.1605672598
 21
-49.7571303197
  0
LINE
  5
2CE
100
AcDbEntity
  8
0
100
AcDbLine
 62
7
  6
CONTINUOUS
 10
-1.1605672598
 20
-49.7571303197
 11
-1.1794699174
 21
-49.6704731699
  0
LINE
  5
2CF
100
AcDbEntity
  8
0
100
AcDbLine
 62
7
  6
CONTINUOUS
 10
-9.3927261654
 20
2.2797111178
 11
-9.4248488937
 21
3.6245006475
  0
LINE
  5
2D0
100
AcDbEntity
  8
0
100
AcDbLine
 62
7
  6
CONTINUOUS
 10
-9.3927261654
 20
2.2797111178
 11
-9.379048698
 21
1.6465247006
  0
LINE
  5
2D1
100
AcDbEntity
  8
0
100
AcDbLine
 62
7
  6
CONTINUOUS
 10
-9.3674023323
 20
2.424858032
 11
-9.4029648638
 21
3.9341930686
  0
LINE
  5
2D2
100
AcDbEntity
  8
0
100
AcDbLine
 62
7
  6
CONTINUOUS
 10
-9.379048698
 20
1.6465247006
 11
-9.3652792003
 21
0.95697872
  0
LINE
  5
2D3
100
AcDbEntity
  8
0
100
AcDbLine
 62
7
  6
CONTINUOUS
 10
-9.4248488937
 20
3.6245006475
 11
-9.4300691937
 21
3.8938742358
  0
LINE
  5
2D4
100
AcDbEntity
  8
0
100
AcDbLine
 62
7
  6
CONTINUOUS
 10
-9.3652792003
 20
0.95697872
 11
-9.3521550598
 21
0.2391741983
  0
LINE
  5
2D5
100
AcDbEntity
  8
0
100
AcDbLine
 62
7
  6
CONTINUOUS
 10
-9.3521550598
 20
0.2391741983
 11
-9.3403849842
 21
-0.4690120409
  0
LWPOLYLINE
  5
2D6
100
AcDbEntity
  8
0
100
AcDbPolyline
 62
7
  6
CONTINUOUS
 90
26
 70
0
 10
-9.5143441448
 20
40.1590624654
 10
-9.5242689438
 20
40.8003269047
 10
-9.5352123901
 20
41.4606617273
 10
-9.5472312231
 20
42.1396921286
 10
-9.5607840567
 20
42.8377883409
 10
-9.5757947424
 20
43.5555409191
 10
-9.5923394287
 20
44.2923593084
 10
-9.6111051752
 20
45.0468420761
 10
-9.6324129165
 20
45.8298152503
 10
-9.6559417179
 20
46.6304528029
 10
-9.6814158351
 20
47.4148752182
 10
-9.7091917157
 20
48.1859151881
 10
-9.7389129122
 20
48.9407400207
 10
-9.7692343374
 20
49.6369721238
 10
-9.7998769656
 20
50.259895614
 10
-9.8311198226
 20
50.8242263747
 10
-9.8624548985
 20
51.3317344649
 10
-9.8938380315
 20
51.7809867977
 10
-9.9253133834
 20
52.1734164599
 10
-9.9565054301
 20
52.5150927715
 10
-9.9872354931
 20
52.8052458279
 10
-10.0176822509
 20
53.0446455336
 10
-10.0480062143
 20
53.2416709222
 10
-10.0782608869
 20
53.3991150046
 10
-10.108392765
 20
53.5141847698
 10
-10.1384018488
 20
53.5868802179
  0
LINE
  5
2D7
100
AcDbEntity
  8
0
100
AcDbLine
 62
7
  6
CONTINUOUS
 10
-9.4029648638
 20
3.9341930686
 11
-9.407649993
 21
4.2215480234
  0
LINE
  5
2D8
100
AcDbEntity
  8
0
100
AcDbLine
 62
7
  6
CONTINUOUS
 10
-9.3403849842
 20
-0.4690120409
 11
-9.3305460657
 21
-1.1221857443
  0
LINE
  5
2D9
100
AcDbEntity
  8
0
100
AcDbLine
 62
7
  6
CONTINUOUS
 10
-9.3305460657
 20
-1.1221857443
 11
-9.3204965109
 21
-1.8660164058
  0
LINE
  5
2DA
100
AcDbEntity
  8
0
100
AcDbLine
 62
7
  6
CONTINUOUS
 10
-9.4300691937
 20
3.8938742358
 11
-9.4341204205
 21
4.1724112061
  0
LWPOLYLINE
  5
2DB
100
AcDbEntity
  8
0
100
AcDbPolyline
 62
7
  6
CONTINUOUS
 90
3
 70
0
 10
-9.4901203234
 20
38.3429269681
 10
-9.49743231
 20
38.9311256764
 10
-9.5143441448
 20
40.1590624654
  0
LINE
  5
2DC
100
AcDbEntity
  8
0
100
AcDbLine
 62
7
  6
CONTINUOUS
 10
-9.3204965109
 20
-1.8660164058
 11
-9.310479693
 21
-2.7157597221
  0
LINE
  5
2DD
100
AcDbEntity
  8
0
100
AcDbLine
 62
7
  6
CONTINUOUS
 10
-9.4776785861
 20
37.2167328383
 11
-9.4901203234
 21
38.3429269681
  0
LINE
  5
2DE
100
AcDbEntity
  8
0
100
AcDbLine
 62
7
  6
CONTINUOUS
 10
-9.310479693
 20
-2.7157597221
 11
-9.3032149325
 21
-3.4339982376
  0
LINE
  5
2DF
100
AcDbEntity
  8
0
100
AcDbLine
 62
7
  6
CONTINUOUS
 10
-9.407649993
 20
4.2215480234
 11
-9.4108110854
 21
4.5171907652
  0
LINE
  5
2E0
100
AcDbEntity
  8
0
100
AcDbLine
 62
7
  6
CONTINUOUS
 10
-9.4676441727
 20
36.1536524098
 11
-9.4776785861
 21
37.2167328383
  0
LINE
  5
2E1
100
AcDbEntity
  8
0
100
AcDbLine
 62
7
  6
CONTINUOUS
 10
-9.4341204205
 20
4.1724112061
 11
-9.4366953721
 21
4.4247044838
  0
LINE
  5
2E2
100
AcDbEntity
  8
0
100
AcDbLine
 62
7
  6
CONTINUOUS
 10
-9.3032149325
 20
-3.4339982376
 11
-9.2964063146
 21
-4.2317281363
  0
LINE
  5
2E3
100
AcDbEntity
  8
0
100
AcDbLine
 62
7
  6
CONTINUOUS
 10
-9.459611863
 20
35.1499419343
 11
-9.4676441727
 21
36.1536524098
  0
LINE
  5
2E4
100
AcDbEntity
  8
0
100
AcDbLine
 62
7
  6
CONTINUOUS
 10
-9.2964063146
 20
-4.2317281363
 11
-9.2903615571
 21
-5.1197945098
  0
LINE
  5
2E5
100
AcDbEntity
  8
0
100
AcDbLine
 62
7
  6
CONTINUOUS
 10
-9.4507228314
 20
33.7502200572
 11
-9.459611863
 21
35.1499419343
  0
LINE
  5
2E6
100
AcDbEntity
  8
0
100
AcDbLine
 62
7
  6
CONTINUOUS
 10
-9.2903615571
 20
-5.1197945098
 11
-9.2869718631
 21
-5.7685727443
  0
LINE
  5
2E7
100
AcDbEntity
  8
0
100
AcDbLine
 62
7
  6
CONTINUOUS
 10
-9.4366953721
 20
4.4247044838
 11
-9.4382825835
 21
4.6743203006
  0
LINE
  5
2E8
100
AcDbEntity
  8
0
100
AcDbLine
 62
7
  6
CONTINUOUS
 10
-9.4447847104
 20
32.466159315
 11
-9.4507228314
 21
33.7502200572
  0
LINE
  5
2E9
100
AcDbEntity
  8
0
100
AcDbLine
 62
7
  6
CONTINUOUS
 10
-9.4108110854
 20
4.5171907652
 11
-9.41239403
 21
4.8166365283
  0
LINE
  5
2EA
100
AcDbEntity
  8
0
100
AcDbLine
 62
7
  6
CONTINUOUS
 10
-9.2869718631
 20
-5.7685727443
 11
-9.2842490729
 21
-6.4668755633
  0
LINE
  5
2EB
100
AcDbEntity
  8
0
100
AcDbLine
 62
7
  6
CONTINUOUS
 10
-9.4403900242
 20
30.9169635772
 11
-9.4447847104
 21
32.466159315
  0
LINE
  5
2EC
100
AcDbEntity
  8
0
100
AcDbLine
 62
7
  6
CONTINUOUS
 10
-9.2842490729
 20
-6.4668755633
 11
-9.282394312
 21
-7.2198174528
  0
LWPOLYLINE
  5
2ED
100
AcDbEntity
  8
0
100
AcDbPolyline
 62
7
  6
CONTINUOUS
 90
34
 70
0
 10
-9.4125970787
 20
29.3474833889
 10
-9.4144389193
 20
30.9168691207
 10
-9.4185783255
 20
32.4286679492
 10
-9.4250152972
 20
33.8828798742
 10
-9.4339309896
 20
35.2786285056
 10
-9.4451442476
 20
36.6167902335
 10
-9.4581116056
 20
37.899994229
 10
-9.4727801725
 20
39.1285104645
 10
-9.4892028395
 20
40.3020689675
 10
-9.5069948149
 20
41.4224889921
 10
-9.5261360621
 20
42.4894596557
 10
-9.5466466178
 20
43.5032918408
 10
-9.5682018002
 20
44.466737449
 10
-9.5907765891
 20
45.3800907921
 10
-9.6143960048
 20
46.2430575584
 10
-9.6388104272
 20
47.0575067137
 10
-9.664000565
 20
47.8232432781
 10
-9.6899857095
 20
48.5404622315
 10
-9.7165741146
 20
49.2116174795
 10
-9.7437625178
 20
49.8368553652
 10
-9.7715541815
 20
50.4160295456
 10
-9.7997671471
 20
50.9511548971
 10
-9.8283739391
 20
51.442147939
 10
-9.857402033
 20
51.8890921522
 10
-9.886751897
 20
52.2942528556
 10
-9.9164561621
 20
52.6580979335
 10
-9.9464821975
 20
52.9801595018
 10
-9.9766325786
 20
53.2612992264
 10
-10.0069222262
 20
53.5009010909
 10
-10.0373362196
 20
53.6995811119
 10
-10.0676323723
 20
53.8600490054
 10
-10.0977299554
 20
53.9832080103
 10
-10.1277096977
 20
54.0681548878
 10
-10.1575715993
 20
54.1148896379
  0
LINE
  5
2EE
100
AcDbEntity
  8
0
100
AcDbLine
 62
7
  6
CONTINUOUS
 10
-9.282394312
 20
-7.2198174528
 11
-9.2817073966
 21
-8.0335917274
  0
LINE
  5
2EF
100
AcDbEntity
  8
0
100
AcDbLine
 62
7
  6
CONTINUOUS
 10
-9.4382825835
 20
4.6743203006
 11
-9.4389271188
 21
4.965619575
  0
LINE
  5
2F0
100
AcDbEntity
  8
0
100
AcDbLine
 62
7
  6
CONTINUOUS
 10
-10.8800148987
 20
-55.1626670628
 11
-10.8800148987
 21
-54.6626670628
  0
LINE
  5
2F1
100
AcDbEntity
  8
0
100
AcDbLine
 62
7
  6
CONTINUOUS
 10
-10.8800148986
 20
54.3373329372
 11
-10.8800148986
 21
54.8373329372
  0
LINE
  5
2F2
100
AcDbEntity
  8
0
100
AcDbLine
 62
7
  6
CONTINUOUS
 10
-9.4388661678
 20
28.8658888325
 11
-9.4403900242
 21
30.9169635772
  0
LINE
  5
2F3
100
AcDbEntity
  8
0
100
AcDbLine
 62
7
  6
CONTINUOUS
 10
-9.41239403
 20
4.8166365283
 11
-9.4125970787
 21
29.3474833889
  0
LINE
  5
2F4
100
AcDbEntity
  8
0
100
AcDbLine
 62
7
  6
CONTINUOUS
 10
-9.4389271188
 20
4.965619575
 11
-9.4388661678
 21
28.8658888325
  0
LINE
  5
2F5
100
AcDbEntity
  8
0
100
AcDbLine
 62
7
  6
CONTINUOUS
 10
-9.4125970787
 20
-29.6728175145
 11
-9.41239403
 21
-20.9419706539
  0
LINE
  5
2F6
100
AcDbEntity
  8
0
100
AcDbLine
 62
7
  6
CONTINUOUS
 10
-9.2817073966
 20
-8.0335917274
 11
-9.2824194934
 21
-8.9125821894
  0
LINE
  5
2F7
100
AcDbEntity
  8
0
100
AcDbLine
 62
7
  6
CONTINUOUS
 10
-9.2824194934
 20
-8.9125821894
 11
-9.2849084072
 21
-9.8636776148
  0
LINE
  5
2F8
100
AcDbEntity
  8
0
100
AcDbLine
 62
7
  6
CONTINUOUS
 10
-9.4381600681
 20
-20.7737484059
 11
-9.4387745588
 21
-29.8756831759
  0
LWPOLYLINE
  5
2F9
100
AcDbEntity
  8
0
100
AcDbPolyline
 62
7
  6
CONTINUOUS
 90
15
 70
0
 10
-9.2849084072
 20
-9.8636776148
 10
-9.2897466167
 20
-10.8962705519
 10
-9.2931140342
 20
-11.4442695768
 10
-9.2973431905
 20
-12.0131877368
 10
-9.3024860714
 20
-12.6073467566
 10
-9.3084906912
 20
-13.2224249115
 10
-9.3154260788
 20
-13.8455373559
 10
-9.3233511834
 20
-14.4766509679
 10
-9.3322070559
 20
-15.1157988693
 10
-9.3418858769
 20
-15.7501955803
 10
-9.352358853
 20
-16.3759775689
 10
-9.3636547776
 20
-16.997008367
 10
-9.3757522119
 20
-17.6120930902
 10
-9.3886440096
 20
-18.2208334436
 10
-9.4023373169
 20
-18.823627722
  0
LINE
  5
2FA
100
AcDbEntity
  8
0
100
AcDbLine
 62
7
  6
CONTINUOUS
 10
-9.41239403
 20
-20.9419706539
 11
-9.4108110854
 21
-20.6425248909
  0
LINE
  5
2FB
100
AcDbEntity
  8
0
100
AcDbLine
 62
7
  6
CONTINUOUS
 10
-9.4361368631
 20
-20.4847840841
 11
-9.4381600681
 21
-20.7737484059
  0
LINE
  5
2FC
100
AcDbEntity
  8
0
100
AcDbLine
 62
7
  6
CONTINUOUS
 10
-9.4108110854
 20
-20.6425248909
 11
-9.407649993
 21
-20.3468821492
  0
LINE
  5
2FD
100
AcDbEntity
  8
0
100
AcDbLine
 62
7
  6
CONTINUOUS
 10
-9.4325345997
 20
-20.1785391067
 11
-9.4361368631
 21
-20.4847840841
  0
LINE
  5
2FE
100
AcDbEntity
  8
0
100
AcDbLine
 62
7
  6
CONTINUOUS
 10
-9.407649993
 20
-20.3468821492
 11
-9.4029648638
 21
-20.0595271937
  0
LINE
  5
2FF
100
AcDbEntity
  8
0
100
AcDbLine
 62
7
  6
CONTINUOUS
 10
-9.4275225889
 20
-19.878777773
 11
-9.4325345997
 21
-20.1785391067
  0
LINE
  5
300
100
AcDbEntity
  8
0
100
AcDbLine
 62
7
  6
CONTINUOUS
 10
-12.0318040978
 20
-18.6621624292
 11
-12.0393932698
 21
-19.0193791317
  0
LINE
  5
301
100
AcDbEntity
  8
0
100
AcDbLine
 62
7
  6
CONTINUOUS
 10
-9.4222843118
 20
-19.6370388598
 11
-9.4275225889
 21
-19.878777773
  0
LWPOLYLINE
  5
302
100
AcDbEntity
  8
0
100
AcDbPolyline
 62
7
  6
CONTINUOUS
 90
18
 70
0
 10
-9.4029648638
 20
-20.0595271937
 10
-9.3674023323
 20
-18.5501921564
 10
-9.3414193886
 20
-17.2986329328
 10
-9.3188203948
 20
-16.0269035448
 10
-9.2995651607
 20
-14.7316812777
 10
-9.2836938765
 20
-13.4162888462
 10
-9.2713271129
 20
-12.0906943945
 10
-9.2624915598
 20
-10.7548199641
 10
-9.2571605273
 20
-9.4087435134
 10
-9.2553745162
 20
-8.0626670628
 10
-9.2571605273
 20
-6.7165906122
 10
-9.2624915598
 20
-5.3705141616
 10
-9.2713271129
 20
-4.0346397311
 10
-9.2836938765
 20
-2.7090452795
 10
-9.2995651607
 20
-1.3936528481
 10
-9.3188203948
 20
-0.0984305808
 10
-9.3414193886
 20
1.1732988077
 10
-9.3674023323
 20
2.424858032
  0
LINE
  5
303
100
AcDbEntity
  8
0
100
AcDbLine
 62
7
  6
CONTINUOUS
 10
-12.0020672658
 20
-17.4231329899
 11
-12.0318040978
 21
-18.6621624292
  0
LINE
  5
304
100
AcDbEntity
  8
0
100
AcDbLine
 62
7
  6
CONTINUOUS
 10
-9.4023373169
 20
-18.823627722
 11
-9.4222843118
 21
-19.6370388598
  0
LWPOLYLINE
  5
305
100
AcDbEntity
  8
0
100
AcDbPolyline
 62
7
  6
CONTINUOUS
 90
28
 70
0
 10
8.3827841308
 20
53.579458012
 10
8.3526584388
 20
53.5015508861
 10
8.3223990507
 20
53.3807131415
 10
8.2920059663
 20
53.2169447784
 10
8.2614897273
 20
53.0127252732
 10
8.2308397922
 20
52.7655751494
 10
8.2000245362
 20
52.4680559779
 10
8.1689750173
 20
52.1199413049
 10
8.1377601776
 20
51.7214575843
 10
8.106555219
 20
51.2658457477
 10
8.0752347998
 20
50.7523863041
 10
8.0439242618
 20
50.1817987446
 10
8.0131748329
 20
49.5494824745
 10
7.9826902744
 20
48.8394252657
 10
7.9527668251
 20
48.0676393463
 10
7.9248444284
 20
47.2775608068
 10
7.8993185961
 20
46.4705158452
 10
7.8757938164
 20
45.6451782635
 10
7.8545234976
 20
44.8410055586
 10
7.8358285925
 20
44.0712531727
 10
7.8193881483
 20
43.3226656637
 10
7.8044927142
 20
42.5949342014
 10
7.7910544994
 20
41.8882323034
 10
7.7791612949
 20
41.2023864522
 10
7.7683670228
 20
40.5365672659
 10
7.7586204632
 20
39.8910842609
 10
7.749972836
 20
39.2656279209
 10
7.7350688585
 20
38.0694983296
  0
LINE
  5
306
100
AcDbEntity
  8
0
100
AcDbLine
 62
7
  6
CONTINUOUS
 10
3.9502230881
 20
-20.1289523453
 11
3.7654060396
 21
-19.8972491243
  0
LINE
  5
307
100
AcDbEntity
  8
0
100
AcDbLine
 62
7
  6
CONTINUOUS
 10
3.7654060396
 20
-19.8972491243
 11
3.5812929542
 21
-19.6650616315
  0
LINE
  5
308
100
AcDbEntity
  8
0
100
AcDbLine
 62
7
  6
CONTINUOUS
 10
3.5812929542
 20
-19.6650616315
 11
3.397884384
 21
-19.4323905662
  0
LWPOLYLINE
  5
309
100
AcDbEntity
  8
0
100
AcDbPolyline
 62
7
  6
CONTINUOUS
 90
3
 70
0
 10
3.397884384
 20
-19.4323905662
 10
3.2151825372
 20
-19.1992387257
 10
3.1240964971
 20
-19.08248234
  0
LINE
  5
30A
100
AcDbEntity
  8
0
100
AcDbLine
 62
7
  6
CONTINUOUS
 10
-0.647728411
 20
-46.3128321826
 11
-0.5912366191
 21
-46.5682038076
  0
LINE
  5
30B
100
AcDbEntity
  8
0
100
AcDbLine
 62
7
  6
CONTINUOUS
 10
-0.5912366191
 20
-46.5682038076
 11
-0.534770354
 21
-46.828907769
  0
LWPOLYLINE
  5
30C
100
AcDbEntity
  8
0
100
AcDbPolyline
 62
7
  6
CONTINUOUS
 90
3
 70
0
 10
-1.1794699174
 20
-49.6704731699
 10
-1.235323162
 20
-49.4107842113
 10
-1.2443289109
 20
-49.3683853002
  0
LINE
  5
30D
100
AcDbEntity
  8
0
100
AcDbLine
 62
7
  6
CONTINUOUS
 10
-0.534770354
 20
-46.828907769
 11
-0.5074749677
 21
-46.9569488276
  0
LINE
  5
30E
100
AcDbEntity
  8
0
100
AcDbLine
 62
7
  6
CONTINUOUS
 10
-5.6759035029
 20
3.6562469299
 11
-5.6759035029
 21
-19.7815810555
  0
LINE
  5
30F
100
AcDbEntity
  8
0
100
AcDbLine
 62
7
  6
CONTINUOUS
 10
-4.8759035029
 20
2.9571482144
 11
-4.8759035029
 21
-19.08248234
  0
LWPOLYLINE
  5
310
100
AcDbEntity
  8
0
100
AcDbPolyline
 62
7
  6
CONTINUOUS
 90
10
 70
0
 10
-5.6759035029
 20
-19.7815812203
 10
-5.6762465913
 20
-19.8194036843
 10
-5.6772308432
 20
-19.8574447787
 10
-5.6788562588
 20
-19.8956965112
 10
-5.681124434
 20
-19.9341597234
 10
-5.6840337727
 20
-19.9728176586
 10
-5.6875794869
 20
-20.0116354555
 10
-5.6917599805
 20
-20.0505956649
 10
-5.6965768494
 20
-20.0896987589
 10
-5.7020300939
 20
-20.1289363429
  0
LWPOLYLINE
  5
311
100
AcDbEntity
  8
0
100
AcDbPolyline
 62
7
  6
CONTINUOUS
 90
10
 70
0
 10
-5.7020300939
 20
4.0036022173
 10
-5.6965768494
 20
3.9643646332
 10
-5.6917599805
 20
3.9252615393
 10
-5.6875794869
 20
3.8863013299
 10
-5.6840337727
 20
3.8474835327
 10
-5.681124434
 20
3.8088255972
 10
-5.6788562588
 20
3.7703623855
 10
-5.6772308432
 20
3.7321106549
 10
-5.6762465913
 20
3.6940695633
 10
-5.6759035029
 20
3.6562471028
  0
LWPOLYLINE
  5
312
100
AcDbEntity
  8
0
100
AcDbPolyline
 62
253
  6
CONTINUOUS
 90
3
 70
0
 10
-0.8845685515
 20
-51.2075074911
 10
-0.8847642544
 20
-51.1924431575
 10
-0.8849917303
 20
-51.1865284917
  0
LINE
  5
313
100
AcDbEntity
  8
0
100
AcDbLine
 62
253
  6
CONTINUOUS
 10
-0.8842860947
 20
-51.2637523126
 11
-0.8845685515
 21
-51.2075074911
  0
LINE
  5
314
100
AcDbEntity
  8
0
100
AcDbLine
 62
7
  6
CONTINUOUS
 10
-4.1283112822
 20
-54.9969550769
 11
-4.1283112822
 21
-55.1102592835
  0
LINE
  5
315
100
AcDbEntity
  8
0
100
AcDbLine
 62
253
  6
CONTINUOUS
 10
-0.8759020889
 20
-44.7517695521
 11
-0.8759022049
 21
-45.0477084754
  0
LINE
  5
316
100
AcDbEntity
  8
0
100
AcDbLine
 62
7
  6
CONTINUOUS
 10
-1.104094685
 20
-49.3076749869
 11
-1.1040194639
 21
-49.7675235793
  0
LINE
  5
317
100
AcDbEntity
  8
0
100
AcDbLine
 62
7
  6
CONTINUOUS
 10
-0.6477842704
 20
-46.5588748263
 11
-0.6477092001
 21
-47.0176591397
  0
LINE
  5
318
100
AcDbEntity
  8
0
100
AcDbLine
 62
7
  6
CONTINUOUS
 10
-1.1040194639
 20
-49.7675235793
 11
-1.1040754683
 21
-50.0125019432
  0
LINE
  5
319
100
AcDbEntity
  8
0
100
AcDbLine
 62
7
  6
CONTINUOUS
 10
-0.647728411
 20
-46.3128321826
 11
-0.6477842704
 21
-46.5588748263
  0
LINE
  5
31A
100
AcDbEntity
  8
0
100
AcDbLine
 62
253
  6
CONTINUOUS
 10
-4.0552446359
 20
-54.9849035687
 11
-4.0552685615
 21
-55.0372165629
  0
LINE
  5
31B
100
AcDbEntity
  8
0
100
AcDbLine
 62
7
  6
CONTINUOUS
 10
-1.1042552112
 20
-47.0176274797
 11
-1.1038864409
 21
-46.3128088761
  0
LINE
  5
31C
100
AcDbEntity
  8
0
100
AcDbLine
 62
7
  6
CONTINUOUS
 10
-0.647548669
 20
-49.3077066459
 11
-0.6479174393
 21
-50.0125252495
  0
LINE
  5
31D
100
AcDbEntity
  8
0
100
AcDbLine
 62
253
  6
CONTINUOUS
 10
-0.8844322265
 20
-51.5924427595
 11
-0.8842860947
 21
-51.2637523126
  0
LWPOLYLINE
  5
31E
100
AcDbEntity
  8
0
100
AcDbPolyline
 62
253
  6
CONTINUOUS
 90
3
 70
0
 10
-0.886494246
 20
-52.0784279217
 10
-0.886179061
 20
-52.0326080038
 10
-0.8844322265
 20
-51.5924427595
  0
LINE
  5
31F
100
AcDbEntity
  8
0
100
AcDbLine
 62
7
  6
CONTINUOUS
 10
5.6241023208
 20
-2.1626670628
 11
7.5380251569
 21
-2.1626670628
  0
LINE
  5
320
100
AcDbEntity
  8
0
100
AcDbLine
 62
7
  6
CONTINUOUS
 10
8.6240954878
 20
-2.1626703242
 11
7.5527836476
 21
-2.1626675035
  0
LINE
  5
321
100
AcDbEntity
  8
0
100
AcDbLine
 62
7
  6
CONTINUOUS
 10
-5.7020300939
 20
4.0036182197
 11
-5.5172130454
 21
3.7719149987
  0
LINE
  5
322
100
AcDbEntity
  8
0
100
AcDbLine
 62
7
  6
CONTINUOUS
 10
-5.5172130454
 20
3.7719149987
 11
-5.33309996
 21
3.5397275059
  0
LINE
  5
323
100
AcDbEntity
  8
0
100
AcDbLine
 62
7
  6
CONTINUOUS
 10
-5.33309996
 20
3.5397275059
 11
-5.1496913897
 21
3.3070564406
  0
LWPOLYLINE
  5
324
100
AcDbEntity
  8
0
100
AcDbPolyline
 62
7
  6
CONTINUOUS
 90
3
 70
0
 10
-5.1496913897
 20
3.3070564406
 10
-4.966989543
 20
3.0739046001
 10
-4.8759035029
 20
2.9571482144
  0
LINE
  5
325
100
AcDbEntity
  8
0
100
AcDbLine
 62
253
  6
CONTINUOUS
 10
2.3034615557
 20
-55.0372165629
 11
2.3034379339
 21
-54.9855678661
  0
LINE
  5
326
100
AcDbEntity
  8
0
100
AcDbLine
 62
7
  6
CONTINUOUS
 10
2.3765042764
 20
-55.1102592835
 11
2.3765042764
 21
-54.99758409
  0
LINE
  5
327
100
AcDbEntity
  8
0
100
AcDbLine
 62
7
  6
CONTINUOUS
 10
3.1240964971
 20
2.9571482144
 11
3.1240964971
 21
-19.08248234
  0
LINE
  5
328
100
AcDbEntity
  8
0
100
AcDbLine
 62
7
  6
CONTINUOUS
 10
3.1240964971
 20
2.9571482144
 11
3.3064451661
 21
3.1905406755
  0
LINE
  5
329
100
AcDbEntity
  8
0
100
AcDbLine
 62
7
  6
CONTINUOUS
 10
3.3064451661
 20
3.1905406755
 11
3.4895003747
 21
3.4234521284
  0
LINE
  5
32A
100
AcDbEntity
  8
0
100
AcDbLine
 62
7
  6
CONTINUOUS
 10
3.4895003747
 20
3.4234521284
 11
3.6732615705
 21
3.6558818737
  0
LWPOLYLINE
  5
32B
100
AcDbEntity
  8
0
100
AcDbPolyline
 62
7
  6
CONTINUOUS
 90
3
 70
0
 10
3.6732615705
 20
3.6558818737
 10
3.8577265454
 20
3.887827114
 10
3.9502230881
 20
4.0036182197
  0
LINE
  5
32C
100
AcDbEntity
  8
0
100
AcDbLine
 62
253
  6
CONTINUOUS
 10
10.7740193752
 20
2.3444135074
 11
10.2747243453
 21
2.3215317596
  0
LINE
  5
32D
100
AcDbEntity
  8
0
100
AcDbLine
 62
7
  6
CONTINUOUS
 10
-4.8759035029
 20
2.9373329372
 11
3.1240964971
 21
2.9373329372
  0
LINE
  5
32E
100
AcDbEntity
  8
0
100
AcDbLine
 62
253
  6
CONTINUOUS
 10
3.9240964971
 20
3.6562470946
 11
7.6449622201
 21
3.6562471028
  0
LINE
  5
32F
100
AcDbEntity
  8
0
100
AcDbLine
 62
253
  6
CONTINUOUS
 10
-9.3967692259
 20
3.6562470946
 11
-5.6759035029
 21
3.6562471028
  0
LINE
  5
330
100
AcDbEntity
  8
0
100
AcDbLine
 62
7
  6
CONTINUOUS
 10
-5.7020300939
 20
4.0036182197
 11
3.9502230881
 21
4.0036182197
  0
LWPOLYLINE
  5
331
100
AcDbEntity
  8
0
100
AcDbPolyline
 62
253
  6
CONTINUOUS
 90
19
 70
0
 10
-9.4221106074
 20
3.5048797526
 10
-9.631995587
 20
3.5102839301
 10
-9.8440091079
 20
3.5071267204
 10
-10.0563414774
 20
3.4954433824
 10
-10.2677757813
 20
3.4751967059
 10
-10.4756745255
 20
3.4464421392
 10
-10.6761599453
 20
3.4095899868
 10
-10.8664678318
 20
3.3651379058
 10
-11.0458418048
 20
3.3131734186
 10
-11.2134591906
 20
3.2535906402
 10
-11.3677382425
 20
3.1866511179
 10
-11.5078001374
 20
3.1130715972
 10
-11.6334961756
 20
3.033235963
 10
-11.7444358803
 20
2.947380906
 10
-11.838889773
 20
2.8566943687
 10
-11.9150599542
 20
2.7630792909
 10
-11.9723993576
 20
2.6678264187
 10
-12.0109246008
 20
2.5714597106
 10
-12.0303409381
 20
2.4748326124
  0
LINE
  5
332
100
AcDbEntity
  8
0
100
AcDbLine
 62
253
  6
CONTINUOUS
 10
-12.0227111803
 20
2.1698307142
 11
-12.5219976413
 21
2.1928014455
  0
LWPOLYLINE
  5
333
100
AcDbEntity
  8
0
100
AcDbPolyline
 62
7
  6
CONTINUOUS
 90
10
 70
0
 10
3.9502230881
 20
-20.1289363429
 10
3.9447698437
 20
-20.0896987589
 10
3.9399529747
 20
-20.0505956649
 10
3.9357724811
 20
-20.0116354555
 10
3.9322267669
 20
-19.9728176583
 10
3.9293174282
 20
-19.9341597228
 10
3.927049253
 20
-19.8956965112
 10
3.9254238375
 20
-19.8574447805
 10
3.9244395855
 20
-19.8194036889
 10
3.9240964971
 20
-19.7815812284
  0
LWPOLYLINE
  5
334
100
AcDbEntity
  8
0
100
AcDbPolyline
 62
7
  6
CONTINUOUS
 90
10
 70
0
 10
7.6449622201
 20
-19.7815812176
 10
7.6301231365
 20
-19.1803349643
 10
7.6160849109
 20
-18.5730307053
 10
7.6028475432
 20
-17.9596684405
 10
7.5904039388
 20
-17.3398633413
 10
7.5787611924
 20
-16.7140002364
 10
7.5679405879
 20
-16.0832336115
 10
7.5579492199
 20
-15.4479482953
 10
7.5487799938
 20
-14.8077594592
 10
7.5404329096
 20
-14.1626671032
  0
LWPOLYLINE
  5
335
100
AcDbEntity
  8
0
100
AcDbPolyline
 62
253
  6
CONTINUOUS
 90
3
 70
0
 10
5.6300842358
 20
-5.141906416
 10
5.6285976245
 20
-4.1420484289
 10
5.6241022642
 20
-2.1626670637
  0
LINE
  5
336
100
AcDbEntity
  8
0
100
AcDbLine
 62
253
  6
CONTINUOUS
 10
5.6313561941
 20
-7.1554623208
 11
5.6300842358
 21
-5.141906416
  0
LINE
  5
337
100
AcDbEntity
  8
0
100
AcDbLine
 62
7
  6
CONTINUOUS
 10
3.9240964971
 20
-19.7815811184
 11
3.9240964971
 21
3.6562469299
  0
LWPOLYLINE
  5
338
100
AcDbEntity
  8
0
100
AcDbPolyline
 62
253
  6
CONTINUOUS
 90
6
 70
0
 10
5.624108295
 20
-14.1626670583
 10
5.6269863837
 20
-13.1784116849
 10
5.6292060036
 20
-12.1861695246
 10
5.6307671547
 20
-11.1873272304
 10
5.6315299102
 20
-10.183027393
 10
5.6313561941
 20
-7.1554623208
  0
LWPOLYLINE
  5
339
100
AcDbEntity
  8
0
100
AcDbPolyline
 62
7
  6
CONTINUOUS
 90
10
 70
0
 10
3.9240964971
 20
3.6562470946
 10
3.9244395855
 20
3.6940695587
 10
3.9254238375
 20
3.7321106531
 10
3.927049253
 20
3.7703623855
 10
3.9293174282
 20
3.8088255978
 10
3.9322267669
 20
3.847483533
 10
3.9357724811
 20
3.8863013299
 10
3.9399529747
 20
3.9252615393
 10
3.9447698437
 20
3.9643646332
 10
3.9502230881
 20
4.0036022173
  0
LINE
  5
33A
100
AcDbEntity
  8
0
100
AcDbLine
 62
253
  6
CONTINUOUS
 10
7.6607900729
 20
4.9680658406
 11
-9.4125970787
 21
4.9680658406
  0
LWPOLYLINE
  5
33B
100
AcDbEntity
  8
0
100
AcDbPolyline
 62
253
  6
CONTINUOUS
 90
19
 70
0
 10
-9.4389228125
 20
5.132386989
 10
-9.6486286561
 20
5.1428548803
 10
-9.860569998
 20
5.1524074003
 10
-10.0729376567
 20
5.1609639966
 10
-10.2845158307
 20
5.1684632794
 10
-10.4926677199
 20
5.1747883307
 10
-10.6935124288
 20
5.1798062324
 10
-10.8842809268
 20
5.1834465613
 10
-11.0642161283
 20
5.1856842791
 10
-11.2324971312
 20
5.1864683131
 10
-11.3875397228
 20
5.1857556121
 10
-11.5284564959
 20
5.1835900051
 10
-11.655093983
 20
5.1800100428
 10
-11.7670589159
 20
5.1750255048
 10
-11.8626077459
 20
5.1686962555
 10
-11.9399195195
 20
5.1611637233
 10
-11.9984311543
 20
5.152555322
 10
-12.03815262
 20
5.1429339496
 10
-12.0587785358
 20
5.132386989
  0
LINE
  5
33C
100
AcDbEntity
  8
0
100
AcDbLine
 62
253
  6
CONTINUOUS
 10
-12.0587785357
 20
4.9419336268
 11
-12.5574805911
 21
4.9680655635
  0
LINE
  5
33D
100
AcDbEntity
  8
0
100
AcDbLine
 62
7
  6
CONTINUOUS
 10
10.2821757604
 20
-18.7581647146
 11
10.2497672004
 21
-17.4011228734
  0
LWPOLYLINE
  5
33E
100
AcDbEntity
  8
0
100
AcDbPolyline
 62
7
  6
CONTINUOUS
 90
19
 70
0
 10
10.7777376226
 20
-18.6201825671
 10
10.744692535
 20
-17.2291874282
 10
10.7221630932
 20
-16.1229119505
 10
10.7026008567
 20
-14.9993229127
 10
10.68597166
 20
-13.8555304391
 10
10.6723096686
 20
-12.6944244054
 10
10.6617173784
 20
-11.5246744382
 10
10.6542178265
 20
-10.346219947
 10
10.6497879759
 20
-9.1591215222
 10
10.6484612109
 20
-7.9722305619
 10
10.6502615271
 20
-6.785496297
 10
10.655164929
 20
-5.5989694966
 10
10.6631328135
 20
-4.4216538654
 10
10.6741967262
 20
-3.2533517965
 10
10.6883251215
 20
-2.0942608968
 10
10.7053847599
 20
-0.9539776919
 10
10.7253312282
 20
0.1642989761
 10
10.7482089396
 20
1.2637679493
 10
10.7740178941
 20
2.3444292275
  0
LWPOLYLINE
  5
33F
100
AcDbEntity
  8
0
100
AcDbPolyline
 62
7
  6
CONTINUOUS
 90
9
 70
0
 10
7.6513174724
 20
-18.8571064346
 10
7.6383222087
 20
-18.2882879399
 10
7.626039338
 20
-17.7140204814
 10
7.6144625773
 20
-17.1339826276
 10
7.6035982095
 20
-16.5484958099
 10
7.5934650837
 20
-15.9585243221
 10
7.5840694829
 20
-15.3643895952
 10
7.5754051241
 20
-14.7657701983
 10
7.5674720074
 20
-14.1626661311
  0
LINE
  5
340
100
AcDbEntity
  8
0
100
AcDbLine
 62
7
  6
CONTINUOUS
 10
7.6739464565
 20
-19.7917116861
 11
7.6513174724
 21
-18.8571064346
  0
LWPOLYLINE
  5
341
100
AcDbEntity
  8
0
100
AcDbPolyline
 62
7
  6
CONTINUOUS
 90
26
 70
0
 10
10.2497672004
 20
-17.4011228734
 10
10.2297045121
 20
-16.4470604426
 10
10.2119004813
 20
-15.4820898553
 10
10.1962895135
 20
-14.5037167913
 10
10.1829566253
 20
-13.5183380974
 10
10.1720356889
 20
-12.5416807095
 10
10.1634332186
 20
-11.5777793577
 10
10.1570163551
 20
-10.6268959539
 10
10.1527059505
 20
-9.6993885921
 10
10.1503462464
 20
-8.7994070699
 10
10.1497675334
 20
-7.9259496044
 10
10.1508109797
 20
-7.0814042933
 10
10.1533051403
 20
-6.2680246348
 10
10.1570905076
 20
-5.4853151209
 10
10.1620336382
 20
-4.7312606535
 10
10.1679982544
 20
-4.0065783526
 10
10.1748560706
 20
-3.3113313075
 10
10.1825229972
 20
-2.6423906679
 10
10.1908925872
 20
-1.999942157
 10
10.199861343
 20
-1.3839862321
 10
10.209386283
 20
-0.791107482
 10
10.219386236
 20
-0.2212383962
 10
10.2297820913
 20
0.325671946
 10
10.2405654561
 20
0.8529577939
 10
10.2516990896
 20
1.3617882214
 10
10.2631050432
 20
1.8512413615
  0
LINE
  5
342
100
AcDbEntity
  8
0
100
AcDbLine
 62
7
  6
CONTINUOUS
 10
7.6511589321
 20
-20.0595974149
 11
7.6449622201
 21
-19.7815812176
  0
LINE
  5
343
100
AcDbEntity
  8
0
100
AcDbLine
 62
7
  6
CONTINUOUS
 10
10.2906083288
 20
-19.1831156913
 11
10.2821757604
 21
-18.7581647146
  0
LINE
  5
344
100
AcDbEntity
  8
0
100
AcDbLine
 62
7
  6
CONTINUOUS
 10
7.6782699847
 20
-20.020285431
 11
7.6739464565
 21
-19.7917116861
  0
LINE
  5
345
100
AcDbEntity
  8
0
100
AcDbLine
 62
7
  6
CONTINUOUS
 10
7.6558442534
 20
-20.34697362
 11
7.6511589321
 21
-20.0595974149
  0
LINE
  5
346
100
AcDbEntity
  8
0
100
AcDbLine
 62
7
  6
CONTINUOUS
 10
10.297289034
 20
-19.6158809283
 11
10.2906083288
 21
-19.1831156913
  0
LINE
  5
347
100
AcDbEntity
  8
0
100
AcDbLine
 62
7
  6
CONTINUOUS
 10
7.6822732536
 20
-20.2944898411
 11
7.6782699847
 21
-20.020285431
  0
LINE
  5
348
100
AcDbEntity
  8
0
100
AcDbLine
 62
7
  6
CONTINUOUS
 10
10.3022319289
 20
-20.0554019849
 11
10.297289034
 21
-19.6158809283
  0
LINE
  5
349
100
AcDbEntity
  8
0
100
AcDbLine
 62
7
  6
CONTINUOUS
 10
7.6590048377
 20
-20.6425946328
 11
7.6558442534
 21
-20.34697362
  0
LINE
  5
34A
100
AcDbEntity
  8
0
100
AcDbLine
 62
7
  6
CONTINUOUS
 10
7.6854631015
 20
-20.6240453792
 11
7.6822732536
 21
-20.2944898411
  0
LINE
  5
34B
100
AcDbEntity
  8
0
100
AcDbLine
 62
7
  6
CONTINUOUS
 10
10.3054365188
 20
-20.5007360145
 11
10.3022319289
 21
-20.0554019849
  0
LINE
  5
34C
100
AcDbEntity
  8
0
100
AcDbLine
 62
7
  6
CONTINUOUS
 10
7.6605873005
 20
-20.9419996532
 11
7.6590048377
 21
-20.6425946328
  0
LINE
  5
34D
100
AcDbEntity
  8
0
100
AcDbLine
 62
7
  6
CONTINUOUS
 10
7.6869166106
 20
-20.9354614271
 11
7.6854631015
 21
-20.6240453792
  0
LWPOLYLINE
  5
34E
100
AcDbEntity
  8
0
100
AcDbPolyline
 62
7
  6
CONTINUOUS
 90
33
 70
0
 10
7.662629546
 20
-31.2412149845
 10
7.6667642428
 20
-32.7521846875
 10
7.6731941632
 20
-34.2057266236
 10
7.6820981342
 20
-35.6010612063
 10
7.6932973288
 20
-36.938968022
 10
7.7062552664
 20
-38.2217858305
 10
7.720929046
 20
-39.4496009127
 10
7.7373615686
 20
-40.6223269877
 10
7.7551450562
 20
-41.7420439728
 10
7.774245754
 20
-42.8087147378
 10
7.7946974167
 20
-43.8223764129
 10
7.8161935314
 20
-44.7852203053
 10
7.8387120386
 20
-45.6970038253
 10
7.8622749978
 20
-46.5579695627
 10
7.8866420734
 20
-47.3710365946
 10
7.911803475
 20
-48.1365019646
 10
7.937768993
 20
-48.8540686292
 10
7.964327664
 20
-49.5257645346
 10
7.9914714956
 20
-50.1518158524
 10
8.0192084801
 20
-50.731996411
 10
8.0473516309
 20
-51.2676556417
 10
8.0758628867
 20
-51.7582699761
 10
8.1047803087
 20
-52.2043629827
 10
8.1340310938
 20
-52.6088547978
 10
8.1636607758
 20
-52.9722271404
 10
8.1936238209
 20
-53.2939982916
 10
8.2237108252
 20
-53.5756432313
 10
8.2538761572
 20
-53.817119865
 10
8.2841654484
 20
-54.0184702872
 10
8.3145061886
 20
-54.1812957618
 10
8.3448742079
 20
-54.3061300434
 10
8.3752936762
 20
-54.3924393773
 10
8.4057645935
 20
-54.4402237635
  0
LINE
  5
34F
100
AcDbEntity
  8
0
100
AcDbLine
 62
7
  6
CONTINUOUS
 10
10.3068845831
 20
-20.9498705116
 11
10.3054365188
 21
-20.5007360145
  0
LWPOLYLINE
  5
350
100
AcDbEntity
  8
0
100
AcDbPolyline
 62
7
  6
CONTINUOUS
 90
63
 70
0
 10
7.6873345898
 20
-30.5242181439
 10
7.68868386
 20
-31.3814104343
 10
7.6911636173
 20
-32.2705268883
 10
7.694712965
 20
-33.199375138
 10
7.6993927997
 20
-34.1601475513
 10
7.705385812
 20
-35.1294212314
 10
7.7129101429
 20
-36.1152981063
 10
7.7217476513
 20
-37.1096762481
 10
7.7314266044
 20
-38.0648269762
 10
7.7418927324
 20
-38.9645987032
 10
7.7532003051
 20
-39.8251430166
 10
7.7650403994
 20
-40.6471859971
 10
7.7773491341
 20
-41.4290839971
 10
7.7901903903
 20
-42.1724806643
 10
7.8034468888
 20
-42.8830330224
 10
7.81711865
 20
-43.561347276
 10
7.8312056534
 20
-44.2068172205
 10
7.8455905581
 20
-44.8232812659
 10
7.8602783793
 20
-45.4110583503
 10
7.8752641017
 20
-45.9698295356
 10
7.8904153381
 20
-46.5024764176
 10
7.9057292968
 20
-47.0089829737
 10
7.9212087696
 20
-47.4893652265
 10
7.9367297438
 20
-47.9465528393
 10
7.952270877
 20
-48.3808567014
 10
7.9678535117
 20
-48.7919659236
 10
7.9834176625
 20
-49.1818775017
 10
7.9989609281
 20
-49.5507561916
 10
8.01448571
 20
-49.8984372375
 10
8.0299392273
 20
-50.2264233675
 10
8.045327187
 20
-50.5345120633
 10
8.0606438822
 20
-50.8229058432
 10
8.075819412
 20
-51.0937149904
 10
8.0908510269
 20
-51.3468277083
 10
8.1057414765
 20
-51.5823557934
 10
8.1204291083
 20
-51.8027449185
 10
8.1349057328
 20
-52.0081044997
 10
8.1491795396
 20
-52.1983251207
 10
8.1632134453
 20
-52.3755242055
 10
8.1770026794
 20
-52.5398234406
 10
8.1905520124
 20
-52.6911011395
 10
8.2038386727
 20
-52.8311096658
 10
8.2168601339
 20
-52.9598736415
 10
8.2296189223
 20
-53.0773684446
 10
8.2420998452
 20
-53.185272573
 10
8.2542998737
 20
-53.2836213094
 10
8.2662220367
 20
-53.372379371
 10
8.2778602279
 20
-53.4531194076
 10
8.2892118949
 20
-53.5258876251
 10
8.30027959
 20
-53.5906378176
 10
8.3110648641
 20
-53.6488040167
 10
8.3215654964
 20
-53.7003913378
 10
8.3317837076
 20
-53.7453946655
 10
8.3417277104
 20
-53.7852326864
 10
8.3513956922
 20
-53.820064105
 10
8.3607894656
 20
-53.8497302167
 10
8.3699226812
 20
-53.8751735945
 10
8.3787774238
 20
-53.8962157735
 10
8.3873716085
 20
-53.9130352187
 10
8.3957726317
 20
-53.927109897
 10
8.4040029587
 20
-53.9389324641
 10
8.4120401242
 20
-53.9480102645
 10
8.419884128
 20
-53.954343298
  0
LWPOLYLINE
  5
351
100
AcDbEntity
  8
0
100
AcDbPolyline
 62
7
  6
CONTINUOUS
 90
9
 70
0
 10
10.8056735813
 20
-21.0933996867
 10
10.8052257555
 20
-20.7757886013
 10
10.803918064
 20
-20.4608552511
 10
10.8017505067
 20
-20.1485996361
 10
10.7987415576
 20
-19.8395087578
 10
10.7948727428
 20
-19.5330956146
 10
10.7900886401
 20
-19.2278992023
 10
10.7843707753
 20
-18.9234325193
 10
10.7777376226
 20
-18.6201825671
  0
LINE
  5
352
100
AcDbEntity
  8
0
100
AcDbLine
 62
7
  6
CONTINUOUS
 10
7.662629546
 20
-31.2412149845
 11
7.6605873005
 21
-20.9419996532
  0
LINE
  5
353
100
AcDbEntity
  8
0
100
AcDbLine
 62
7
  6
CONTINUOUS
 10
8.6240964926
 20
-14.162665596
 11
8.6240964886
 21
-2.1626698623
  0
LINE
  5
354
100
AcDbEntity
  8
0
100
AcDbLine
 62
7
  6
CONTINUOUS
 10
9.1282078928
 20
54.8373329372
 11
9.1282078928
 21
54.3373329372
  0
LINE
  5
355
100
AcDbEntity
  8
0
100
AcDbLine
 62
7
  6
CONTINUOUS
 10
7.6869166106
 20
-20.9354614271
 11
7.6873345898
 21
-30.5242181439
  0
LINE
  5
356
100
AcDbEntity
  8
0
100
AcDbLine
 62
7
  6
CONTINUOUS
 10
10.3067436643
 20
-29.6989448205
 11
10.3068845106
 21
-20.9498704785
  0
LINE
  5
357
100
AcDbEntity
  8
0
100
AcDbLine
 62
7
  6
CONTINUOUS
 10
10.8059390974
 20
4.9712471404
 11
10.8056735813
 21
29.3474836569
  0
LINE
  5
358
100
AcDbEntity
  8
0
100
AcDbLine
 62
7
  6
CONTINUOUS
 10
10.8054457157
 20
-29.6728123268
 11
10.8059013516
 21
-21.093404872
  0
LINE
  5
359
100
AcDbEntity
  8
0
100
AcDbLine
 62
7
  6
CONTINUOUS
 10
9.1282078928
 20
-55.1626670628
 11
9.1285493391
 21
-54.6630085091
  0
LWPOLYLINE
  5
35A
100
AcDbEntity
  8
0
100
AcDbPolyline
 62
7
  6
CONTINUOUS
 90
37
 70
0
 10
10.3069715136
 20
29.3212909378
 10
10.3079352549
 20
30.5594394609
 10
10.3106274473
 20
31.7550160637
 10
10.3151158981
 20
32.9078621755
 10
10.3211290984
 20
34.0168813773
 10
10.3285318676
 20
35.0833552977
 10
10.3372316777
 20
36.1113834975
 10
10.3471141637
 20
37.1003340538
 10
10.358076039
 20
38.049298081
 10
10.3700757184
 20
38.9620673318
 10
10.3830327709
 20
39.8385279007
 10
10.3968390799
 20
40.6775487892
 10
10.4114455015
 20
41.4815620442
 10
10.4267850068
 20
42.2502415027
 10
10.4428017052
 20
42.9833591747
 10
10.4595017869
 20
43.6834371637
 10
10.4768330605
 20
44.3506666827
 10
10.4947147701
 20
44.9850434601
 10
10.5131252215
 20
45.5887487768
 10
10.5320069523
 20
46.1610554342
 10
10.5513054298
 20
46.700612421
 10
10.5710224758
 20
47.2082608351
 10
10.5910950217
 20
47.683247751
 10
10.611467534
 20
48.1254454896
 10
10.6321695448
 20
48.5368189453
 10
10.6531548994
 20
48.9178575958
 10
10.6743556978
 20
49.2684762518
 10
10.6957681986
 20
49.5889974711
 10
10.7173175832
 20
49.8782918663
 10
10.7388974973
 20
50.1357654539
 10
10.7604507796
 20
50.3618553183
 10
10.7818803733
 20
50.5566453457
 10
10.8031185858
 20
50.720738717
 10
10.8241540943
 20
50.855483138
 10
10.8449256463
 20
50.96177427
 10
10.8653168824
 20
51.0405440432
 10
10.8852538342
 20
51.0933372943
  0
LWPOLYLINE
  5
35B
100
AcDbEntity
  8
0
100
AcDbPolyline
 62
7
  6
CONTINUOUS
 90
45
 70
0
 10
10.8056735813
 20
29.3474836569
 10
10.8068916559
 20
30.5801950666
 10
10.8096080161
 20
31.7672729269
 10
10.8138226617
 20
32.9087172376
 10
10.8196681366
 20
34.0032655015
 10
10.827011897
 20
35.0521802159
 10
10.8354563114
 20
36.0592488727
 10
10.8449588473
 20
37.0245925252
 10
10.8555620371
 20
37.94809012
 10
10.8669958464
 20
38.8331659892
 10
10.8792417459
 20
39.6799652739
 10
10.8923182648
 20
40.4883428329
 10
10.9060109568
 20
41.2612875753
 10
10.9203001755
 20
41.9990011449
 10
10.9352055673
 20
42.701281898
 10
10.950571625
 20
43.3705138119
 10
10.9663990839
 20
44.0066663586
 10
10.9826872087
 20
44.6097700662
 10
10.9992782863
 20
45.1823004957
 10
11.0161532104
 20
45.7245657299
 10
11.0333310874
 20
46.2362576861
 10
11.0507115229
 20
46.7189276769
 10
11.0682988385
 20
47.1725716955
 10
11.0860887126
 20
47.5971937488
 10
11.1039677872
 20
47.9943571704
 10
11.1219423772
 20
48.3639040012
 10
11.1400061676
 20
48.7059922003
 10
11.1580268558
 20
49.0226589787
 10
11.1759932289
 20
49.3140054579
 10
11.1939164997
 20
49.5799305164
 10
11.2116980039
 20
49.8221680006
 10
11.2293398051
 20
50.0405138969
 10
11.2468398396
 20
50.2351722191
 10
11.2640932526
 20
50.4084888543
 10
11.2811344472
 20
50.5604255565
 10
11.2979290203
 20
50.6910205718
 10
11.3142689072
 20
50.8027345258
 10
11.3300359993
 20
50.8949220083
 10
11.3453484051
 20
50.9682284296
 10
11.3603523858
 20
51.0270506458
 10
11.374976907
 20
51.0698852156
 10
11.3892930031
 20
51.0982355803
 10
11.4036600382
 20
51.1210089208
 10
11.4182015208
 20
51.1393019912
 10
11.4474261415
 20
51.1647739773
  0
LINE
  5
35C
100
AcDbEntity
  8
0
100
AcDbLine
 62
7
  6
CONTINUOUS
 10
7.6882703117
 20
30.70818868
 11
7.6871114775
 21
4.9256681159
  0
LINE
  5
35D
100
AcDbEntity
  8
0
100
AcDbLine
 62
7
  6
CONTINUOUS
 10
7.6605873005
 20
4.8166655275
 11
7.6607900729
 21
29.3474833889
  0
LINE
  5
35E
100
AcDbEntity
  8
0
100
AcDbLine
 62
7
  6
CONTINUOUS
 10
10.3065912835
 20
4.6717095942
 11
10.3069715136
 21
29.3212909378
  0
LINE
  5
35F
100
AcDbEntity
  8
0
100
AcDbLine
 62
7
  6
CONTINUOUS
 10
7.6907904901
 20
31.8320797496
 11
7.6882703117
 21
30.70818868
  0
LINE
  5
360
100
AcDbEntity
  8
0
100
AcDbLine
 62
7
  6
CONTINUOUS
 10
7.6954969956
 20
33.0675021608
 11
7.6907904901
 21
31.8320797496
  0
LINE
  5
361
100
AcDbEntity
  8
0
100
AcDbLine
 62
7
  6
CONTINUOUS
 10
7.6871114775
 20
4.9256681159
 11
7.6862769617
 21
4.6318173726
  0
LINE
  5
362
100
AcDbEntity
  8
0
100
AcDbLine
 62
7
  6
CONTINUOUS
 10
10.3044932372
 20
4.2158653012
 11
10.3065912835
 21
4.6717095942
  0
LINE
  5
363
100
AcDbEntity
  8
0
100
AcDbLine
 62
7
  6
CONTINUOUS
 10
7.7028447373
 20
34.4133057491
 11
7.6954969956
 21
33.0675021608
  0
LINE
  5
364
100
AcDbEntity
  8
0
100
AcDbLine
 62
7
  6
CONTINUOUS
 10
7.6590048377
 20
4.5172605072
 11
7.6605873005
 21
4.8166655275
  0
LINE
  5
365
100
AcDbEntity
  8
0
100
AcDbLine
 62
7
  6
CONTINUOUS
 10
7.709568526
 20
35.3802448433
 11
7.7028447373
 21
34.4133057491
  0
LINE
  5
366
100
AcDbEntity
  8
0
100
AcDbLine
 62
7
  6
CONTINUOUS
 10
7.7180760655
 20
36.4071746039
 11
7.709568526
 21
35.3802448433
  0
LINE
  5
367
100
AcDbEntity
  8
0
100
AcDbLine
 62
7
  6
CONTINUOUS
 10
7.6862769617
 20
4.6318173726
 11
7.6841596771
 21
4.3427756225
  0
LINE
  5
368
100
AcDbEntity
  8
0
100
AcDbLine
 62
7
  6
CONTINUOUS
 10
10.3006080377
 20
3.7669420838
 11
10.3044932372
 21
4.2158653012
  0
LWPOLYLINE
  5
369
100
AcDbEntity
  8
0
100
AcDbPolyline
 62
7
  6
CONTINUOUS
 90
3
 70
0
 10
7.7350688585
 20
38.0694983296
 10
7.728812508
 20
37.4988250784
 10
7.7180760655
 20
36.4071746039
  0
LINE
  5
36A
100
AcDbEntity
  8
0
100
AcDbLine
 62
7
  6
CONTINUOUS
 10
7.6558442534
 20
4.2216394943
 11
7.6590048377
 21
4.5172605072
  0
LWPOLYLINE
  5
36B
100
AcDbEntity
  8
0
100
AcDbPolyline
 62
7
  6
CONTINUOUS
 90
10
 70
0
 10
7.5380251576
 20
-2.1626670163
 10
7.5464065633
 20
-1.494200558
 10
7.555668916
 20
-0.8308944043
 10
7.5658122155
 20
-0.1727485551
 10
7.5768442279
 20
0.4806633989
 10
7.5887571871
 20
1.1289150483
 10
7.6015277957
 20
1.7707271652
 10
7.6151482878
 20
2.40567334
 10
7.6296264293
 20
3.0341799823
 10
7.6449622201
 20
3.6562470919
  0
LINE
  5
36C
100
AcDbEntity
  8
0
100
AcDbLine
 62
7
  6
CONTINUOUS
 10
7.6841596771
 20
4.3427756225
 11
7.6811706433
 21
4.0841838472
  0
LINE
  5
36D
100
AcDbEntity
  8
0
100
AcDbLine
 62
7
  6
CONTINUOUS
 10
7.5650165459
 20
-2.162668837
 11
7.5754230211
 21
-1.3575759878
  0
LINE
  5
36E
100
AcDbEntity
  8
0
100
AcDbLine
 62
7
  6
CONTINUOUS
 10
10.2949688186
 20
3.3261623092
 11
10.3006080377
 21
3.7669420838
  0
LINE
  5
36F
100
AcDbEntity
  8
0
100
AcDbLine
 62
7
  6
CONTINUOUS
 10
7.5754230211
 20
-1.3575759878
 11
7.5856920965
 21
-0.6542919583
  0
LINE
  5
370
100
AcDbEntity
  8
0
100
AcDbLine
 62
7
  6
CONTINUOUS
 10
7.5856920965
 20
-0.6542919583
 11
7.5980271338
 21
0.1049720535
  0
LINE
  5
371
100
AcDbEntity
  8
0
100
AcDbLine
 62
7
  6
CONTINUOUS
 10
7.6811706433
 20
4.0841838472
 11
7.6773819635
 21
3.8433517803
  0
LINE
  5
372
100
AcDbEntity
  8
0
100
AcDbLine
 62
7
  6
CONTINUOUS
 10
7.6511589321
 20
3.9342632893
 11
7.6558442534
 21
4.2216394943
  0
LINE
  5
373
100
AcDbEntity
  8
0
100
AcDbLine
 62
7
  6
CONTINUOUS
 10
10.2876000007
 20
2.8947529831
 11
10.2949688186
 21
3.3261623092
  0
LINE
  5
374
100
AcDbEntity
  8
0
100
AcDbLine
 62
7
  6
CONTINUOUS
 10
7.5980271338
 20
0.1049720535
 11
7.6118200638
 21
0.8702457724
  0
LINE
  5
375
100
AcDbEntity
  8
0
100
AcDbLine
 62
7
  6
CONTINUOUS
 10
7.6118200638
 20
0.8702457724
 11
7.6263021299
 21
1.6012003442
  0
LINE
  5
376
100
AcDbEntity
  8
0
100
AcDbLine
 62
7
  6
CONTINUOUS
 10
7.6773819635
 20
3.8433517803
 11
7.6730420119
 21
3.6245037189
  0
LINE
  5
377
100
AcDbEntity
  8
0
100
AcDbLine
 62
7
  6
CONTINUOUS
 10
7.6263021299
 20
1.6012003442
 11
7.6406734288
 21
2.2687563199
  0
LWPOLYLINE
  5
378
100
AcDbEntity
  8
0
100
AcDbPolyline
 62
7
  6
CONTINUOUS
 90
8
 70
0
 10
10.7740178941
 20
2.3444292275
 10
10.7830799845
 20
2.7521742605
 10
10.7905924831
 20
3.1485813209
 10
10.79655539
 20
3.5336504086
 10
10.8007508467
 20
3.9051740647
 10
10.8033967116
 20
4.2653597482
 10
10.80514656
 20
4.6208298358
 10
10.8059390974
 20
4.9712471404
  0
LINE
  5
379
100
AcDbEntity
  8
0
100
AcDbLine
 62
7
  6
CONTINUOUS
 10
7.6449622201
 20
3.6562470919
 11
7.6511589321
 21
3.9342632893
  0
LINE
  5
37A
100
AcDbEntity
  8
0
100
AcDbLine
 62
7
  6
CONTINUOUS
 10
7.6406734288
 20
2.2687563199
 11
7.6556657968
 21
2.9142212445
  0
LINE
  5
37B
100
AcDbEntity
  8
0
100
AcDbLine
 62
7
  6
CONTINUOUS
 10
7.6556657968
 20
2.9142212445
 11
7.6730420119
 21
3.6245037189
  0
LINE
  5
37C
100
AcDbEntity
  8
0
100
AcDbLine
 62
7
  6
CONTINUOUS
 10
10.2631050432
 20
1.8512413615
 11
10.2876000007
 21
2.8947529831
  0
LINE
  5
37D
100
AcDbEntity
  8
0
100
AcDbLine
 62
7
  6
CONTINUOUS
 10
-0.5073327677
 20
-49.3681799453
 11
-0.5693486553
 21
-49.6561358072
  0
LINE
  5
37E
100
AcDbEntity
  8
0
100
AcDbLine
 62
7
  6
CONTINUOUS
 10
-1.1706658823
 20
-46.6151242403
 11
-1.2444711125
 21
-46.9571541803
  0
LINE
  5
37F
100
AcDbEntity
  8
0
100
AcDbLine
 62
7
  6
CONTINUOUS
 10
-0.5693486553
 20
-49.6561358072
 11
-0.6325578952
 21
-49.9435945011
  0
LINE
  5
380
100
AcDbEntity
  8
0
100
AcDbLine
 62
7
  6
CONTINUOUS
 10
-1.1038864409
 20
-46.3128088761
 11
-1.1706658823
 21
-46.6151242403
  0
LINE
  5
381
100
AcDbEntity
  8
0
100
AcDbLine
 62
7
  6
CONTINUOUS
 10
-0.6325578952
 20
-49.9435945011
 11
-0.6479174393
 21
-50.0125252495
  0
LWPOLYLINE
  5
382
100
AcDbEntity
  8
0
100
AcDbPolyline
 62
7
  6
CONTINUOUS
 90
32
 70
0
 10
-10.1373120147
 20
-53.9101532706
 10
-10.1070413383
 20
-53.8352534223
 10
-10.076642236
 20
-53.7171897805
 10
-10.0461147078
 20
-53.5559623452
 10
-10.0154676962
 20
-53.3539979099
 10
-9.9846922586
 20
-53.1088696811
 10
-9.9537615673
 20
-52.8132972779
 10
-9.9226125155
 20
-52.467143864
 10
-9.8913082099
 20
-52.0705462756
 10
-9.8600111437
 20
-51.6166346409
 10
-9.8286069031
 20
-51.1051558733
 10
-9.7972099018
 20
-50.5363630594
 10
-9.7663258735
 20
-49.9041455864
 10
-9.7359961547
 20
-49.20685951
 10
-9.706179409
 20
-48.4461487747
 10
-9.6772573601
 20
-47.6208346007
 10
-9.6492230315
 20
-46.7315270808
 10
-9.6220833998
 20
-45.7776161222
 10
-9.5962411191
 20
-44.7560926665
 10
-9.571546686
 20
-43.6561885147
 10
-9.5481496039
 20
-42.4886718657
 10
-9.5269010372
 20
-41.2828382577
 10
-9.5079394885
 20
-40.0237954602
 10
-9.4911264552
 20
-38.7264357037
 10
-9.4768975929
 20
-37.4647312178
 10
-9.4656523894
 20
-36.2611467037
 10
-9.4569913569
 20
-35.0932174602
 10
-9.450151688
 20
-33.9675216129
 10
-9.4451348678
 20
-32.8924036118
 10
-9.441939411
 20
-31.8595190069
 10
-9.4397980547
 20
-30.8504125736
 10
-9.4387745588
 20
-29.8756831759
  0
LINE
  5
383
100
AcDbEntity
  8
0
100
AcDbLine
 62
7
  6
CONTINUOUS
 10
-4.8759035029
 20
-19.08248234
 11
-5.0582521719
 21
-19.3158748011
  0
LINE
  5
384
100
AcDbEntity
  8
0
100
AcDbLine
 62
7
  6
CONTINUOUS
 10
-5.0582521719
 20
-19.3158748011
 11
-5.2413073804
 21
-19.548786254
  0
LINE
  5
385
100
AcDbEntity
  8
0
100
AcDbLine
 62
7
  6
CONTINUOUS
 10
-5.2413073804
 20
-19.548786254
 11
-5.4250685763
 21
-19.7812159993
  0
LWPOLYLINE
  5
386
100
AcDbEntity
  8
0
100
AcDbPolyline
 62
7
  6
CONTINUOUS
 90
3
 70
0
 10
-5.4250685763
 20
-19.7812159993
 10
-5.6095335512
 20
-20.0131612396
 10
-5.7020300939
 20
-20.1289523453
  0
LWPOLYLINE
  5
387
100
AcDbEntity
  8
0
100
AcDbPolyline
 62
253
  6
CONTINUOUS
 90
19
 70
0
 10
10.30697153
 20
5.1323876918
 10
10.2865693251
 20
5.1428567595
 10
10.2473775403
 20
5.1524106534
 10
10.1897327373
 20
5.1609670704
 10
10.1137244895
 20
5.1684631425
 10
10.0198849439
 20
5.1747827377
 10
9.9097225865
 20
5.1797954113
 10
9.7847626959
 20
5.1834335466
 10
9.6453326577
 20
5.1856749839
 10
9.4913531703
 20
5.1864714243
 10
9.3235436318
 20
5.1857700779
 10
9.1435150783
 20
5.1836074172
 10
8.9521351683
 20
5.1800247834
 10
8.7499986025
 20
5.175034736
 10
8.5399585133
 20
5.168700134
 10
8.3264101454
 20
5.1611649472
 10
8.1122177233
 20
5.1525563504
 10
7.8984959605
 20
5.1429354203
 10
7.6871156863
 20
5.1323876855
  0
LWPOLYLINE
  5
388
100
AcDbEntity
  8
0
100
AcDbPolyline
 62
7
  6
CONTINUOUS
 90
37
 70
0
 10
-12.6397795796
 20
51.0987364246
 10
-12.6199204559
 20
51.0493946138
 10
-12.5995978363
 20
50.9743642795
 10
-12.5788773562
 20
50.872000492
 10
-12.5578628924
 20
50.7412170514
 10
-12.5366026826
 20
50.580726175
 10
-12.5150919406
 20
50.3889183429
 10
-12.493404643
 20
50.1651473735
 10
-12.471665624
 20
49.9096838199
 10
-12.4499648144
 20
49.622721392
 10
-12.4284243514
 20
49.30489334
 10
-12.40709639
 20
48.9559676038
 10
-12.385978128
 20
48.5751428135
 10
-12.3651373199
 20
48.1629834061
 10
-12.3446136452
 20
47.7194037786
 10
-12.3243774124
 20
47.2427466031
 10
-12.3044800309
 20
46.7335729156
 10
-12.2849867416
 20
46.193601075
 10
-12.2659143518
 20
45.6218363169
 10
-12.2473319491
 20
45.0180978164
 10
-12.2293048551
 20
44.3822023388
 10
-12.2118567957
 20
43.7127056418
 10
-12.1950738588
 20
43.0108019657
 10
-12.1789885662
 20
42.2760275775
 10
-12.1635756548
 20
41.5045900227
 10
-12.1489183518
 20
40.6975575184
 10
-12.1350942048
 20
39.8562027657
 10
-12.1221081656
 20
38.9773544417
 10
-12.1100394166
 20
38.0611739706
 10
-12.0990058936
 20
37.1088336941
 10
-12.0890886762
 20
36.1188554894
 10
-12.0803863066
 20
35.0917527305
 10
-12.0729831005
 20
34.0258496802
 10
-12.066965054
 20
32.9164356258
 10
-12.0624696294
 20
31.7619804603
 10
-12.0596984449
 20
30.563683151
 10
-12.0587785314
 20
29.3213324474
  0
LWPOLYLINE
  5
389
100
AcDbEntity
  8
0
100
AcDbPolyline
 62
253
  6
CONTINUOUS
 90
19
 70
0
 10
10.2785339576
 20
2.474832363
 10
10.2593320966
 20
2.5707178831
 10
10.2213270166
 20
2.6663100914
 10
10.1648450607
 20
2.7607859163
 10
10.0899687404
 20
2.8535825058
 10
9.9972155304
 20
2.9435159719
 10
9.8880733948
 20
3.028898437
 10
9.7640536756
 20
3.1085627218
 10
9.625479957
 20
3.1821941253
 10
9.4722681687
 20
3.2494184691
 10
9.3051289208
 20
3.3095098568
 10
9.1256699668
 20
3.3621409805
 10
8.9347594975
 20
3.4073176691
 10
8.7329909043
 20
3.4449115137
 10
8.5232113243
 20
3.4743283075
 10
8.3098117668
 20
3.4950482711
 10
8.0956572304
 20
3.5070126238
 10
7.8818639544
 20
3.510295695
 10
7.6703035331
 20
3.5048797494
  0
LWPOLYLINE
  5
38A
100
AcDbEntity
  8
0
100
AcDbPolyline
 62
253
  6
CONTINUOUS
 90
19
 70
0
 10
10.8852538342
 20
51.0933372943
 10
10.8752368952
 20
51.3028179401
 10
10.8464443317
 20
51.5135093191
 10
10.7991231675
 20
51.723597416
 10
10.7333020875
 20
51.9318555354
 10
10.6493843333
 20
52.1356697188
 10
10.5486927908
 20
52.3312395865
 10
10.4326232255
 20
52.5158897946
 10
10.3014683066
 20
52.6889072401
 10
10.1551085908
 20
52.8494900653
 10
9.9941834849
 20
52.995996922
 10
9.8202648363
 20
53.1275613559
 10
9.6342188273
 20
53.2441107633
 10
9.4366248647
 20
53.345308889
 10
9.230265119
 20
53.4295897673
 10
9.0194681771
 20
53.4953970182
 10
8.8070849925
 20
53.5423221503
 10
8.5942355763
 20
53.5704165268
 10
8.3827843066
 20
53.5794580375
  0
LINE
  5
38B
100
AcDbEntity
  8
0
100
AcDbLine
 62
7
  6
CONTINUOUS
 10
12.1240964971
 20
51.8414443329
 11
12.1240964971
 21
-52.1663035669
  0
LWPOLYLINE
  5
38C
100
AcDbEntity
  8
0
100
AcDbPolyline
 62
7
  6
CONTINUOUS
 90
19
 70
0
 10
11.6246900236
 20
-52.1663035669
 10
11.6151691608
 20
-52.3836109661
 10
11.587232726
 20
-52.5971107701
 10
11.5408807191
 20
-52.8068029787
 10
11.4754952405
 20
-53.0146143301
 10
11.3916941898
 20
-53.2186180861
 10
11.2913312663
 20
-53.413034033
 10
11.1740108318
 20
-53.5972522013
 10
11.0401285245
 20
-53.7718825604
 10
10.8927249583
 20
-53.932974805
 10
10.7314261904
 20
-54.0802413548
 10
10.5566061637
 20
-54.2139697899
 10
10.3724273206
 20
-54.3310725456
 10
10.1784536376
 20
-54.4310892883
 10
9.9751211383
 20
-54.5144803516
 10
9.7679003352
 20
-54.5795391702
 10
9.5586147325
 20
-54.6256968891
 10
9.3454408261
 20
-54.6535223635
 10
9.128378616
 20
-54.6630155932
  0
LWPOLYLINE
  5
38D
100
AcDbEntity
  8
0
100
AcDbPolyline
 62
253
  6
CONTINUOUS
 90
19
 70
0
 10
10.9157727496
 20
-51.4584547111
 10
10.9058308922
 20
-51.6677260172
 10
10.8779218164
 20
-51.8779824909
 10
10.8316259436
 20
-52.087617659
 10
10.7662994826
 20
-52.2959460056
 10
10.682015945
 20
-52.5001271378
 10
10.5804545954
 20
-52.6955367172
 10
10.4634014426
 20
-52.8795804662
 10
10.3313157299
 20
-53.0522504765
 10
10.1846199233
 20
-53.2131117064
 10
10.0243422417
 20
-53.360925928
 10
9.8516789221
 20
-53.4944769507
 10
9.6671065797
 20
-53.6131454686
 10
9.4704730713
 20
-53.7164172637
 10
9.264459842
 20
-53.8022929794
 10
9.0542133102
 20
-53.8688146809
 10
8.8428098744
 20
-53.9158908685
 10
8.6308168104
 20
-53.944251559
 10
8.4198841453
 20
-53.9543433153
  0
LWPOLYLINE
  5
38E
100
AcDbEntity
  8
0
100
AcDbPolyline
 62
253
  6
CONTINUOUS
 90
19
 70
0
 10
10.272084143
 20
-18.3423161549
 10
10.2525183033
 20
-18.4232513907
 10
10.2141902606
 20
-18.5055780394
 10
10.157429141
 20
-18.5885873264
 10
10.0823196564
 20
-18.671806783
 10
9.9893831822
 20
-18.7542127463
 10
9.880111657
 20
-18.8342805855
 10
9.7560181506
 20
-18.910914089
 10
9.6174268904
 20
-18.9838249822
 10
9.4642555632
 20
-19.0527112444
 10
9.2972163384
 20
-19.116911043
 10
9.1179149496
 20
-19.1760140947
 10
8.9272177263
 20
-19.2299497775
 10
8.7257173445
 20
-19.2785603766
 10
8.5162574273
 20
-19.3211072728
 10
8.3032218939
 20
-19.3567792208
 10
8.0894699322
 20
-19.385278677
 10
7.8761151044
 20
-19.4065700943
 10
7.6650251197
 20
-19.4204761815
  0
LWPOLYLINE
  5
38F
100
AcDbEntity
  8
0
100
AcDbPolyline
 62
7
  6
CONTINUOUS
 90
7
 70
0
 10
-2.0382975193
 20
-48.4321391054
 10
-2.0352722887
 20
-48.4253347337
 10
-2.0322972635
 20
-48.4184971897
 10
-2.0293724437
 20
-48.4116264734
 10
-2.0264978294
 20
-48.4047225848
 10
-2.0236734205
 20
-48.397785524
 10
-2.020899217
 20
-48.3908152909
  0
LINE
  5
390
100
AcDbEntity
  8
0
100
AcDbLine
 62
7
  6
CONTINUOUS
 10
-2.0184963973
 20
-48.4455264185
 11
-1.9980082338
 21
-48.4014894453
  0
LWPOLYLINE
  5
391
100
AcDbEntity
  8
0
100
AcDbPolyline
 62
7
  6
CONTINUOUS
 90
31
 70
0
 10
-13.1716002481
 20
51.1501308556
 10
-13.1470487995
 20
51.1113776831
 10
-13.1227081421
 20
51.0515186532
 10
-13.0985794872
 20
50.9712423435
 10
-13.0741821427
 20
50.8516355385
 10
-13.0493417224
 20
50.6883868316
 10
-13.0242326125
 20
50.4858076294
 10
-12.9988972792
 20
50.2379189362
 10
-12.9732283799
 20
49.943440883
 10
-12.9473332571
 20
49.6036533389
 10
-12.9215764047
 20
49.2164169145
 10
-12.8959848371
 20
48.7812855178
 10
-12.8705315398
 20
48.2987052408
 10
-12.8454999636
 20
47.7678749709
 10
-12.82090861
 20
47.1888286871
 10
-12.7967389774
 20
46.5615324104
 10
-12.7732190114
 20
45.8850830899
 10
-12.7503244662
 20
45.1599786766
 10
-12.7280795874
 20
44.3857212197
 10
-12.7067850582
 20
43.5599138152
 10
-12.6864500916
 20
42.6824753623
 10
-12.6670654745
 20
41.7534869618
 10
-12.6489042501
 20
40.7707950129
 10
-12.631923983
 20
39.7350336468
 10
-12.6161671086
 20
38.6455687323
 10
-12.6020339761
 20
37.4983442745
 10
-12.5894600308
 20
36.2937286951
 10
-12.5785098274
 20
35.0313535724
 10
-12.56977738
 20
33.7060576471
 10
-12.5634606931
 20
32.3161204992
 10
-12.5593617621
 20
30.8632625487
  0
LWPOLYLINE
  5
392
100
AcDbEntity
  8
0
100
AcDbPolyline
 62
7
  6
CONTINUOUS
 90
11
 70
0
 10
-10.1384018488
 20
53.5868802179
 10
-10.1410594285
 20
53.5915322411
 10
-10.1436412788
 20
53.595837653
 10
-10.1461473998
 20
53.5997964535
 10
-10.1485662797
 20
53.6033637409
 10
-10.1509094303
 20
53.606584417
 10
-10.1532113866
 20
53.6095931863
 10
-10.1554603922
 20
53.6124037393
 10
-10.1576682035
 20
53.6150023856
 10
-10.1599046252
 20
53.6174827583
 10
-10.1622013582
 20
53.6198395061
  0
LWPOLYLINE
  5
393
100
AcDbEntity
  8
0
100
AcDbPolyline
 62
7
  6
CONTINUOUS
 90
7
 70
0
 10
0.2864936391
 20
-47.8931950202
 10
0.2834684085
 20
-47.899999392
 10
0.2804933833
 20
-47.9068369359
 10
0.2775685635
 20
-47.9137076522
 10
0.2746939492
 20
-47.9206115408
 10
0.2718695403
 20
-47.9275486016
 10
0.2690953368
 20
-47.9345188347
  0
LINE
  5
394
100
AcDbEntity
  8
0
100
AcDbLine
 62
7
  6
CONTINUOUS
 10
0.2666925171
 20
-47.8798077071
 11
0.2462043536
 21
-47.9238446803
  0
LINE
  5
395
100
AcDbEntity
  8
TRASH
100
AcDbLine
 62
7
  6
CONTINUOUS
 10
-1.395625424
 20
-47.642943579
 11
-1.1040501682
 21
-47.0176697859
  0
LINE
  5
396
100
AcDbEntity
  8
TRASH
100
AcDbLine
 62
7
  6
CONTINUOUS
 10
-0.3561784562
 20
-48.6823905467
 11
-0.647753712
 21
-49.3076643397
  0
LINE
  5
397
100
AcDbEntity
  8
0
100
AcDbLine
 62
7
  6
CONTINUOUS
 10
-1.4345167464
 20
-47.5626670628
 11
-1.4481555419
 21
-47.5904134651
  0
LINE
  5
398
100
AcDbEntity
  8
0
100
AcDbLine
 62
7
  6
CONTINUOUS
 10
-0.3172871338
 20
-48.7626670628
 11
-0.3036483383
 21
-48.7349206606
  0
LINE
  5
399
100
AcDbEntity
  8
0
100
AcDbLine
 62
7
  6
CONTINUOUS
 10
-1.5323981617
 20
-47.5061708466
 11
-1.5018276895
 21
-47.4452165156
  0
LINE
  5
39A
100
AcDbEntity
  8
0
100
AcDbLine
 62
7
  6
CONTINUOUS
 10
-0.2194057185
 20
-48.819163279
 11
-0.2499761907
 21
-48.88011761
  0
LINE
  5
39B
100
AcDbEntity
  8
0
100
AcDbLine
 62
7
  6
CONTINUOUS
 10
-1.5018276895
 20
-47.4452165156
 11
-1.4608149465
 21
-47.3644769035
  0
LINE
  5
39C
100
AcDbEntity
  8
0
100
AcDbLine
 62
7
  6
CONTINUOUS
 10
-0.2499761907
 20
-48.88011761
 11
-0.2909889337
 21
-48.9608572222
  0
LINE
  5
39D
100
AcDbEntity
  8
0
100
AcDbLine
 62
7
  6
CONTINUOUS
 10
-1.4608149465
 20
-47.3644769035
 11
-1.4091006425
 21
-47.2640508074
  0
LINE
  5
39E
100
AcDbEntity
  8
0
100
AcDbLine
 62
7
  6
CONTINUOUS
 10
-0.2909889337
 20
-48.9608572222
 11
-0.3427032377
 21
-49.0612833182
  0
LINE
  5
39F
100
AcDbEntity
  8
0
100
AcDbLine
 62
7
  6
CONTINUOUS
 10
-0.3427032377
 20
-49.0612833182
 11
-0.3754315548
 21
-49.124142452
  0
LINE
  5
3A0
100
AcDbEntity
  8
0
100
AcDbLine
 62
7
  6
CONTINUOUS
 10
-1.4091006425
 20
-47.2640508074
 11
-1.3281877538
 21
-47.1094575259
  0
LWPOLYLINE
  5
3A1
100
AcDbEntity
  8
0
100
AcDbPolyline
 62
7
  6
CONTINUOUS
 90
3
 70
0
 10
-1.3281877538
 20
-47.1094575259
 10
-1.2721566174
 20
-47.0036223387
 10
-1.2564809855
 20
-46.9745051659
  0
LWPOLYLINE
  5
3A2
100
AcDbEntity
  8
0
100
AcDbPolyline
 62
7
  6
CONTINUOUS
 90
34
 70
0
 10
-10.1575715993
 20
-54.4402237635
 10
-10.1271349033
 20
-54.3925370086
 10
-10.09674555
 20
-54.3063692586
 10
-10.0664035395
 20
-54.1817205135
 10
-10.0360846266
 20
-54.0191373912
 10
-10.0058130565
 20
-53.8180732737
 10
-9.9756615648
 20
-53.5768883073
 10
-9.9455841967
 20
-53.2955350187
 10
-9.915626907
 20
-52.9740608812
 10
-9.8860002958
 20
-52.6109684615
 10
-9.8567499487
 20
-52.2067361319
 10
-9.8278302802
 20
-51.7608855201
 10
-9.7993151336
 20
-51.2704840762
 10
-9.7711665649
 20
-50.7350064599
 10
-9.7434225182
 20
-50.1549780115
 10
-9.7162706686
 20
-49.5290422025
 10
-9.689703013
 20
-48.8574217082
 10
-9.6637275546
 20
-48.1398938534
 10
-9.6385559789
 20
-47.3744340833
 10
-9.614178576
 20
-46.561339937
 10
-9.5906050559
 20
-45.7003138755
 10
-9.568076233
 20
-44.788438727
 10
-9.5465701116
 20
-43.8254718358
 10
-9.5261086875
 20
-42.8116558576
 10
-9.5069987631
 20
-41.7448015879
 10
-9.4892065699
 20
-40.624870508
 10
-9.4727658763
 20
-39.4519011366
 10
-9.4580847903
 20
-38.2238198255
 10
-9.4451204284
 20
-36.9407137443
 10
-9.4339156741
 20
-35.6024957234
 10
-9.425007286
 20
-34.2068306057
 10
-9.4185741839
 20
-32.7529400055
 10
-9.4144374482
 20
-31.2416023084
 10
-9.4125970787
 20
-29.6728175145
  0
LWPOLYLINE
  5
3A3
100
AcDbEntity
  8
0
100
AcDbPolyline
 62
7
  6
CONTINUOUS
 90
3
 70
0
 10
-12.6397816824
 20
-51.4240371767
 10
-12.658789456
 20
-51.4497947456
 10
-12.6782653241
 20
-51.469050715
  0
LINE
  5
3A4
100
AcDbEntity
  8
0
100
AcDbLine
 62
7
  6
CONTINUOUS
 10
-12.6618616913
 20
51.1275615649
 11
-12.6397796753
 21
51.0986931379
  0
LINE
  5
3A5
100
AcDbEntity
  8
0
100
AcDbLine
 62
7
  6
CONTINUOUS
 10
-0.3754315548
 20
-49.124142452
 11
-0.4236161264
 21
-49.2158765997
  0
LWPOLYLINE
  5
3A6
100
AcDbEntity
  8
0
100
AcDbPolyline
 62
7
  6
CONTINUOUS
 90
3
 70
0
 10
-0.4236161264
 20
-49.2158765997
 10
-0.4796472628
 20
-49.321711787
 10
-0.4953228947
 20
-49.3508289597
  0
LINE
  5
3A7
100
AcDbEntity
  8
0
100
AcDbLine
 62
7
  6
CONTINUOUS
 10
-1.2444711125
 20
-46.9571541803
 11
-1.2564809855
 21
-46.9745051659
  0
LINE
  5
3A8
100
AcDbEntity
  8
0
100
AcDbLine
 62
7
  6
CONTINUOUS
 10
-0.4953228947
 20
-49.3508289597
 11
-0.5073327677
 21
-49.3681799453
  0
LINE
  5
3A9
100
AcDbEntity
  8
0
100
AcDbLine
 62
7
  6
CONTINUOUS
 10
-13.19911276
 20
-51.4899877156
 11
-13.8759035029
 21
-52.1667784585
  0
LINE
  5
3AA
100
AcDbEntity
  8
0
100
AcDbLine
 62
7
  6
CONTINUOUS
 10
-12.6782653241
 20
-51.469050715
 11
-13.375903503
 21
-52.1667784586
  0
LINE
  5
3AB
100
AcDbEntity
  8
0
100
AcDbLine
 62
253
  6
CONTINUOUS
 10
10.8056735813
 20
29.3474833889
 11
10.30697153
 21
29.321351175
  0
LINE
  5
3AC
100
AcDbEntity
  8
0
100
AcDbLine
 62
253
  6
CONTINUOUS
 10
-9.4125970787
 20
29.3474833889
 11
7.6607900729
 21
29.3474833889
  0
LINE
  5
3AD
100
AcDbEntity
  8
0
100
AcDbLine
 62
253
  6
CONTINUOUS
 10
-12.0587785357
 20
29.321351175
 11
-12.5574805871
 21
29.3474829721
  0
LINE
  5
3AE
100
AcDbEntity
  8
0
100
AcDbLine
 62
7
  6
CONTINUOUS
 10
-13.3759035029
 20
51.8414443329
 11
-12.6618616913
 21
51.1275615649
  0
LWPOLYLINE
  5
3AF
100
AcDbEntity
  8
0
100
AcDbPolyline
 62
7
  6
CONTINUOUS
 90
3
 70
0
 10
-13.8759035029
 20
51.8414443329
 10
-13.2218234794
 20
51.1873643094
 10
-13.1716002481
 20
51.1501308556
  0
LINE
  5
3B0
100
AcDbEntity
  8
0
100
AcDbLine
 62
7
  6
CONTINUOUS
 10
-10.1938955474
 20
-53.9765858384
 11
-10.1833393756
 21
-53.9659026515
  0
LINE
  5
3B1
100
AcDbEntity
  8
0
100
AcDbLine
 62
7
  6
CONTINUOUS
 10
-10.2956318423
 20
-54.078307209
 11
-10.2490108719
 21
-54.0316206941
  0
LWPOLYLINE
  5
3B2
100
AcDbEntity
  8
0
100
AcDbPolyline
 62
7
  6
CONTINUOUS
 90
14
 70
0
 10
-10.1833393756
 20
-53.9659026515
 10
-10.179791519
 20
-53.9623519566
 10
-10.1762275926
 20
-53.9589030605
 10
-10.1726576094
 20
-53.955499613
 10
-10.1691242262
 20
-53.9520426718
 10
-10.1656505188
 20
-53.9485587458
 10
-10.1622134114
 20
-53.9450213261
 10
-10.158786333
 20
-53.9412519431
 10
-10.1554000309
 20
-53.9373116331
 10
-10.1520237579
 20
-53.9331393596
 10
-10.148538701
 20
-53.9283735445
 10
-10.1449052561
 20
-53.9228936616
 10
-10.1411630273
 20
-53.9168202369
 10
-10.1373120147
 20
-53.9101532706
  0
LINE
  5
3B3
100
AcDbEntity
  8
0
100
AcDbLine
 62
7
  6
CONTINUOUS
 10
-10.3157853704
 20
-54.0984697936
 11
-10.2956318423
 21
-54.078307209
  0
LINE
  5
3B4
100
AcDbEntity
  8
0
100
AcDbLine
 62
7
  6
CONTINUOUS
 10
-10.1575715993
 20
-54.4402237635
 11
-10.8800148987
 21
-55.1626670628
  0
LINE
  5
3B5
100
AcDbEntity
  8
0
100
AcDbLine
 62
7
  6
CONTINUOUS
 10
-1.3956254243
 20
-48.682390547
 11
-1.4481554364
 21
-48.7349206435
  0
LINE
  5
3B6
100
AcDbEntity
  8
0
100
AcDbLine
 62
7
  6
CONTINUOUS
 10
-0.3561784559
 20
-47.6429435786
 11
-0.3036484438
 21
-47.5904134821
  0
LINE
  5
3B7
100
AcDbEntity
  8
0
100
AcDbLine
 62
7
  6
CONTINUOUS
 10
-0.2759020819
 20
-47.5626670628
 11
-0.219406062
 21
-47.5061710224
  0
LINE
  5
3B8
100
AcDbEntity
  8
0
100
AcDbLine
 62
7
  6
CONTINUOUS
 10
-1.4759017983
 20
-48.7626670628
 11
-1.5323978182
 21
-48.8191631032
  0
LWPOLYLINE
  5
3B9
100
AcDbEntity
  8
0
100
AcDbPolyline
 62
7
  6
CONTINUOUS
 90
3
 70
0
 10
-10.8800148987
 20
-54.6626670628
 10
-10.4228453355
 20
-54.2054837764
 10
-10.4126782576
 20
-54.1953202446
  0
LWPOLYLINE
  5
3BA
100
AcDbEntity
  8
0
100
AcDbPolyline
 62
7
  6
CONTINUOUS
 90
3
 70
0
 10
-10.3370073752
 20
-54.1196894921
 10
-10.3298223744
 20
-54.1125064416
 10
-10.3157853704
 20
-54.0984697936
  0
LINE
  5
3BB
100
AcDbEntity
  8
0
100
AcDbLine
 62
7
  6
CONTINUOUS
 10
-10.3519358518
 20
-54.1346115333
 11
-10.3370073752
 21
-54.1196894921
  0
LINE
  5
3BC
100
AcDbEntity
  8
0
100
AcDbLine
 62
7
  6
CONTINUOUS
 10
-10.4126782576
 20
-54.1953202446
 11
-10.3935817459
 21
-54.1762324435
  0
LINE
  5
3BD
100
AcDbEntity
  8
0
100
AcDbLine
 62
7
  6
CONTINUOUS
 10
-10.3935817459
 20
-54.1762324435
 11
-10.3519358518
 21
-54.1346115333
  0
LINE
  5
3BE
100
AcDbEntity
  8
0
100
AcDbLine
 62
7
  6
CONTINUOUS
 10
-10.204327284
 20
-53.9870411747
 11
-10.1938955474
 21
-53.9765858384
  0
LINE
  5
3BF
100
AcDbEntity
  8
0
100
AcDbLine
 62
7
  6
CONTINUOUS
 10
-10.2490108719
 20
-54.0316206941
 11
-10.204327284
 21
-53.9870411747
  0
LINE
  5
3C0
100
AcDbEntity
  8
0
100
AcDbLine
 62
7
  6
CONTINUOUS
 10
-10.1622013582
 20
53.6198395061
 11
-10.1715124783
 21
53.6287887991
  0
LWPOLYLINE
  5
3C1
100
AcDbEntity
  8
0
100
AcDbPolyline
 62
7
  6
CONTINUOUS
 90
4
 70
0
 10
-10.1715124783
 20
53.6287887991
 10
-10.1738358973
 20
53.631055704
 10
-10.1761454621
 20
53.6333768938
 10
-10.1807552592
 20
53.6380801337
  0
LINE
  5
3C2
100
AcDbEntity
  8
0
100
AcDbLine
 62
7
  6
CONTINUOUS
 10
-10.8800148986
 20
54.8373329372
 11
-10.1575715993
 21
54.1148896379
  0
LINE
  5
3C3
100
AcDbEntity
  8
0
100
AcDbLine
 62
7
  6
CONTINUOUS
 10
-10.1853738939
 20
53.6427468488
 11
-10.8800148986
 21
54.3373329372
  0
LINE
  5
3C4
100
AcDbEntity
  8
0
100
AcDbLine
 62
7
  6
CONTINUOUS
 10
-10.1807552592
 20
53.6380801337
 11
-10.1853738939
 21
53.6427468488
  0
LINE
  5
3C5
100
AcDbEntity
  8
0
100
AcDbLine
 62
7
  6
CONTINUOUS
 10
-4.3285857514
 20
-55.1102592835
 11
-4.2551441745
 21
-55.0368177067
  0
LINE
  5
3C6
100
AcDbEntity
  8
0
100
AcDbLine
 62
7
  6
CONTINUOUS
 10
-4.0552685615
 20
-55.0372165629
 11
-4.1283112822
 21
-55.1102592835
  0
LINE
  5
3C7
100
AcDbEntity
  8
0
100
AcDbLine
 62
7
  6
CONTINUOUS
 10
-3.2581660382
 20
-55.0449295981
 11
-3.3759035029
 21
-55.1626670628
  0
LINE
  5
3C8
100
AcDbEntity
  8
0
100
AcDbLine
 62
7
  6
CONTINUOUS
 10
-2.0184963047
 20
-47.8798076591
 11
-2.0386050167
 21
-47.8934029304
  0
LINE
  5
3C9
100
AcDbEntity
  8
0
100
AcDbLine
 62
7
  6
CONTINUOUS
 10
0.2666924245
 20
-48.4455264665
 11
0.2868011266
 21
-48.4319312019
  0
LWPOLYLINE
  5
3CA
100
AcDbEntity
  8
0
100
AcDbPolyline
 62
7
  6
CONTINUOUS
 90
3
 70
0
 10
-1.8038482804
 20
-47.7691520787
 10
-1.8276034087
 20
-47.781323317
 10
-2.0184963047
 20
-47.8798076591
  0
LINE
  5
3CB
100
AcDbEntity
  8
0
100
AcDbLine
 62
7
  6
CONTINUOUS
 10
-1.6445245873
 20
-47.5626670628
 11
-1.5892750265
 21
-47.5346855026
  0
LINE
  5
3CC
100
AcDbEntity
  8
0
100
AcDbLine
 62
7
  6
CONTINUOUS
 10
0.0757995285
 20
-48.5440108086
 11
0.2666924245
 21
-48.4455264665
  0
LINE
  5
3CD
100
AcDbEntity
  8
0
100
AcDbLine
 62
7
  6
CONTINUOUS
 10
-1.6853149275
 20
-47.7087772556
 11
-1.8038482804
 21
-47.7691520787
  0
LINE
  5
3CE
100
AcDbEntity
  8
0
100
AcDbLine
 62
7
  6
CONTINUOUS
 10
-0.0664889527
 20
-48.61655687
 11
0.0757995285
 21
-48.5440108086
  0
LWPOLYLINE
  5
3CF
100
AcDbEntity
  8
0
100
AcDbPolyline
 62
7
  6
CONTINUOUS
 90
3
 70
0
 10
-1.5892750265
 20
-47.5346855026
 10
-1.5515610337
 20
-47.5157111747
 10
-1.5323981617
 20
-47.5061708466
  0
LINE
  5
3D0
100
AcDbEntity
  8
0
100
AcDbLine
 62
7
  6
CONTINUOUS
 10
-1.5905932143
 20
-47.661052248
 11
-1.6853149275
 21
-47.7087772556
  0
LINE
  5
3D1
100
AcDbEntity
  8
0
100
AcDbLine
 62
7
  6
CONTINUOUS
 10
-0.1612106659
 20
-48.6642818776
 11
-0.0664889527
 21
-48.61655687
  0
LWPOLYLINE
  5
3D2
100
AcDbEntity
  8
0
100
AcDbPolyline
 62
7
  6
CONTINUOUS
 90
3
 70
0
 10
-0.1072792929
 20
-48.7626670628
 10
-0.2002428465
 20
-48.8096229509
 10
-0.2194057185
 20
-48.819163279
  0
LINE
  5
3D3
100
AcDbEntity
  8
0
100
AcDbLine
 62
7
  6
CONTINUOUS
 10
-1.4957511769
 20
-47.6138495177
 11
-1.5905932143
 21
-47.661052248
  0
LINE
  5
3D4
100
AcDbEntity
  8
0
100
AcDbLine
 62
7
  6
CONTINUOUS
 10
-0.2560527033
 20
-48.7114846079
 11
-0.1612106659
 21
-48.6642818776
  0
LINE
  5
3D5
100
AcDbEntity
  8
0
100
AcDbLine
 62
7
  6
CONTINUOUS
 10
-1.4481555419
 20
-47.5904134651
 11
-1.4957511769
 21
-47.6138495177
  0
LINE
  5
3D6
100
AcDbEntity
  8
0
100
AcDbLine
 62
7
  6
CONTINUOUS
 10
-0.3036483383
 20
-48.7349206606
 11
-0.2560527033
 21
-48.7114846079
  0
LINE
  5
3D7
100
AcDbEntity
  8
0
100
AcDbLine
 62
7
  6
CONTINUOUS
 10
-0.6370795675
 20
-47.0405607758
 11
-0.4953228455
 21
-46.974505258
  0
LINE
  5
3D8
100
AcDbEntity
  8
0
100
AcDbLine
 62
7
  6
CONTINUOUS
 10
-1.1147243127
 20
-49.2847733498
 11
-1.2564810347
 21
-49.3508288677
  0
LINE
  5
3D9
100
AcDbEntity
  8
TRASH
100
AcDbLine
 62
7
  6
CONTINUOUS
 10
-1.4955820195
 20
-47.689536299
 11
-1.395625424
 21
-47.642943579
  0
LINE
  5
3DA
100
AcDbEntity
  8
TRASH
100
AcDbLine
 62
7
  6
CONTINUOUS
 10
-0.2562218607
 20
-48.6357978267
 11
-0.3561784562
 21
-48.6823905467
  0
LINE
  5
3DB
100
AcDbEntity
  8
TRASH
100
AcDbLine
 62
7
  6
CONTINUOUS
 10
-2.0208992102
 20
-47.9345188447
 11
-1.4955820195
 21
-47.689536299
  0
LINE
  5
3DC
100
AcDbEntity
  8
TRASH
100
AcDbLine
 62
7
  6
CONTINUOUS
 10
0.26909533
 20
-48.3908152809
 11
-0.2562218607
 21
-48.6357978267
  0
LINE
  5
3DD
100
AcDbEntity
  8
0
100
AcDbLine
 62
7
  6
CONTINUOUS
 10
-0.647753722
 20
-47.0176697927
 11
-0.5074749677
 21
-46.9569488276
  0
LINE
  5
3DE
100
AcDbEntity
  8
0
100
AcDbLine
 62
7
  6
CONTINUOUS
 10
-1.1040501582
 20
-49.3076643329
 11
-1.2443289109
 21
-49.3683853002
  0
LWPOLYLINE
  5
3DF
100
AcDbEntity
  8
0
100
AcDbPolyline
 62
7
  6
CONTINUOUS
 90
5
 70
0
 10
-4.2551441745
 20
-55.0368177067
 10
-4.2271173936
 20
-55.0214771775
 10
-4.1765085565
 20
-55.0065338775
 10
-4.1033176633
 20
-54.9919878065
 10
-4.0067313287
 20
-54.9777544495
  0
LWPOLYLINE
  5
3E0
100
AcDbEntity
  8
0
100
AcDbPolyline
 62
7
  6
CONTINUOUS
 90
19
 70
0
 10
-4.0552685615
 20
-55.0372165629
 10
-4.0290053487
 20
-55.0228504307
 10
-3.9814272135
 20
-55.0088329731
 10
-3.9125341558
 20
-54.9951641901
 10
-3.8215644256
 20
-54.9817569455
 10
-3.709279773
 20
-54.9686983755
 10
-3.5779654483
 20
-54.9562498885
 10
-3.4272417767
 20
-54.9444237919
 10
-3.257488433
 20
-54.9332077785
 10
-3.0721296915
 20
-54.9228263345
 10
-2.8708458839
 20
-54.9132961067
 10
-2.6539566784
 20
-54.9046004485
 10
-2.4258453545
 20
-54.8969139061
 10
-2.1862832265
 20
-54.8902571538
 10
-1.9354989799
 20
-54.8846095174
 10
-1.6785619507
 20
-54.8800835207
 10
-1.4171619174
 20
-54.8767166715
 10
-1.1496091015
 20
-54.8744714619
 10
-0.8759035029
 20
-54.8733478919
  0
LWPOLYLINE
  5
3E1
100
AcDbEntity
  8
0
100
AcDbPolyline
 62
253
  6
CONTINUOUS
 90
19
 70
0
 10
-10.1384018469
 20
53.5868802106
 10
-10.348177673
 20
53.5778820404
 10
-10.5592524877
 20
53.550131368
 10
-10.7698254098
 20
53.5038830634
 10
-10.9786795927
 20
53.43917657
 10
-11.1831907753
 20
53.3563921379
 10
-11.3795322602
 20
53.2568009154
 10
-11.5649959693
 20
53.1417534023
 10
-11.7388362034
 20
53.0115137662
 10
-11.9002225725
 20
52.8659338244
 10
-12.0476032164
 20
52.7057360666
 10
-12.1801708595
 20
52.5325595301
 10
-12.297814158
 20
52.3472503136
 10
-12.4001671994
 20
52.1503582011
 10
-12.4856190288
 20
51.9446279465
 10
-12.5525589137
 20
51.7343627101
 10
-12.6005663997
 20
51.5224136651
 10
-12.6297101411
 20
51.3099125023
 10
-12.6397795796
 20
51.0987364246
  0
LWPOLYLINE
  5
3E2
100
AcDbEntity
  8
0
100
AcDbPolyline
 62
253
  6
CONTINUOUS
 90
25
 70
0
 10
-10.8276071193
 20
54.2849251579
 10
-10.9896764983
 20
54.2792614699
 10
-11.151506077
 20
54.262504337
 10
-11.3122859261
 20
54.2350114575
 10
-11.4711612228
 20
54.1971534513
 10
-11.6274200751
 20
54.1492666268
 10
-11.7804836974
 20
54.0916128612
 10
-11.9295456133
 20
54.0245185631
 10
-12.0739151468
 20
53.9482628987
 10
-12.2131633489
 20
53.862933506
 10
-12.3466152122
 20
53.7686944848
 10
-12.4734087292
 20
53.6658338893
 10
-12.5927975499
 20
53.5545559668
 10
-12.7040990149
 20
53.4351654003
 10
-12.8070027552
 20
53.3083569327
 10
-12.9012873918
 20
53.1748865248
 10
-12.9866607231
 20
53.0356182296
 10
-13.0629587747
 20
52.8912227202
 10
-13.1300890966
 20
52.7421340101
 10
-13.1877696793
 20
52.5890470928
 10
-13.2356767888
 20
52.4327641306
 10
-13.2735529337
 20
52.2738574866
 10
-13.3010610344
 20
52.1130364107
 10
-13.317828327
 20
51.9511592207
 10
-13.3234957236
 20
51.7890365536
  0
LINE
  5
3E3
100
AcDbEntity
  8
0
100
AcDbLine
 62
253
  6
CONTINUOUS
 10
11.5716887178
 20
51.7890365536
 11
12.0716887178
 21
51.7890365536
  0
LINE
  5
3E4
100
AcDbEntity
  8
0
100
AcDbLine
 62
253
  6
CONTINUOUS
 10
-13.3234957236
 20
51.7890365536
 11
-13.8234957236
 21
51.7890365536
  0
LINE
  5
3E5
100
AcDbEntity
  8
0
100
AcDbLine
 62
7
  6
CONTINUOUS
 10
12.1240964971
 20
51.8414443329
 11
11.6240964971
 21
51.8414443329
  0
LINE
  5
3E6
100
AcDbEntity
  8
0
100
AcDbLine
 62
7
  6
CONTINUOUS
 10
-13.3759035029
 20
51.8414443329
 11
-13.875903503
 21
51.8414443329
  0
LINE
  5
3E7
100
AcDbEntity
  8
0
100
AcDbLine
 62
253
  6
CONTINUOUS
 10
8.4057645935
 20
54.1148896379
 11
-10.1575715993
 21
54.1148896379
  0
LINE
  5
3E8
100
AcDbEntity
  8
0
100
AcDbLine
 62
7
  6
CONTINUOUS
 10
-10.8800148986
 20
54.8373329372
 11
9.1282078928
 21
54.8373329372
  0
LWPOLYLINE
  5
3E9
100
AcDbEntity
  8
0
100
AcDbPolyline
 62
253
  6
CONTINUOUS
 90
19
 70
0
 10
9.0757999202
 20
54.2849249646
 10
9.2882479705
 20
54.2759172037
 10
9.501566452
 20
54.2484687623
 10
9.7141000463
 20
54.2021504313
 10
9.9255738905
 20
54.136155467
 10
10.1325965084
 20
54.0506382632
 10
10.329203402
 20
53.9480100835
 10
10.5122520679
 20
53.8308991577
 10
10.6827274831
 20
53.6997055552
 10
10.8412292566
 20
53.5543208328
 10
10.9865728507
 20
53.395840643
 10
11.1177035236
 20
53.2254305621
 10
11.23477145
 20
53.042443624
 10
11.3373828721
 20
52.8458735389
 10
11.4228951549
 20
52.6388763866
 10
11.4888939065
 20
52.4274125616
 10
11.5352204806
 20
52.2148713277
 10
11.5626770715
 20
52.0015274766
 10
11.5716885245
 20
51.7890363603
  0
LINE
  5
3EA
100
AcDbEntity
  8
0
100
AcDbLine
 62
7
  6
CONTINUOUS
 10
-48.5542916694
 20
-54.4402237635
 11
-34.7692523257
 21
-55.1626670628
  0
LINE
  5
3EB
100
AcDbEntity
  8
0
100
AcDbLine
 62
7
  6
CONTINUOUS
 10
-34.7627371422
 20
-54.6630085091
 11
-48.2848749014
 21
-53.954343298
  0
LINE
  5
3EC
100
AcDbEntity
  8
0
100
AcDbLine
 62
7
  6
CONTINUOUS
 10
-48.8276927728
 20
-53.9205861037
 11
-48.2848745719
 21
-53.9543433153
  0
LINE
  5
3ED
100
AcDbEntity
  8
0
100
AcDbLine
 62
7
  6
CONTINUOUS
 10
-47.9938738347
 20
-51.479108023
 11
-48.4768358774
 21
-51.4577753474
  0
LINE
  5
3EE
100
AcDbEntity
  8
0
100
AcDbLine
 62
7
  6
CONTINUOUS
 10
-35.7692523258
 20
-52.1143706793
 11
-34.7692523257
 21
-52.1652782038
  0
LWPOLYLINE
  5
3EF
100
AcDbEntity
  8
0
100
AcDbPolyline
 62
7
  6
CONTINUOUS
 90
3
 70
0
 10
-35.7692523258
 20
-52.1143706793
 10
-45.3503809563
 20
-51.6122450047
 10
-46.9814109616
 20
-51.5277158888
  0
LWPOLYLINE
  5
3F0
100
AcDbEntity
  8
0
100
AcDbPolyline
 62
7
  6
CONTINUOUS
 90
3
 70
0
 10
-46.9814109616
 20
-51.5277158888
 10
-47.4961773367
 20
-51.4997885816
 10
-47.9938738347
 20
-51.479108023
  0
LWPOLYLINE
  5
3F1
100
AcDbEntity
  8
0
100
AcDbPolyline
 62
7
  6
CONTINUOUS
 90
32
 70
0
 10
-48.4768358774
 20
-51.4577753474
 10
-48.951714773
 20
-51.4106882442
 10
-49.4167806787
 20
-51.333794259
 10
-49.8737634373
 20
-51.2311458461
 10
-50.3345038851
 20
-51.0897980578
 10
-50.8030995727
 20
-50.9072581398
 10
-51.2754529496
 20
-50.6860188463
 10
-51.7511122008
 20
-50.4206134924
 10
-52.2322188635
 20
-50.1097083229
 10
-52.7166314005
 20
-49.7546370929
 10
-53.1974733863
 20
-49.3539343828
 10
-53.6740142597
 20
-48.9073116345
 10
-54.1469845818
 20
-48.4150574062
 10
-54.6116996103
 20
-47.8765719523
 10
-55.067996539
 20
-47.2920180808
 10
-55.5160381741
 20
-46.6612329839
 10
-55.9516281915
 20
-45.9831284921
 10
-56.3751835689
 20
-45.2580303111
 10
-56.7862873286
 20
-44.4856127354
 10
-57.1794922129
 20
-43.6638104791
 10
-57.5545764196
 20
-42.7926756862
 10
-57.911761751
 20
-41.8721562129
 10
-58.2462663564
 20
-40.9000303419
 10
-58.5589520743
 20
-39.8768626777
 10
-58.8489570663
 20
-38.802088616
 10
-59.1089139661
 20
-37.671792626
 10
-59.339946633
 20
-36.4862772207
 10
-59.5409312076
 20
-35.2452398873
 10
-59.7011287456
 20
-33.9438575568
 10
-59.8169595986
 20
-32.5805225397
 10
-59.8920034149
 20
-31.1568425256
 10
-59.9262601944
 20
-29.6728175144
  0
LWPOLYLINE
  5
3F2
100
AcDbEntity
  8
0
100
AcDbPolyline
 62
253
  6
CONTINUOUS
 90
19
 70
0
 10
-59.9320773933
 20
-29.6974157813
 10
-60.1102240708
 20
-29.6884806606
 10
-60.3192828901
 20
-29.6789267668
 10
-60.5268703162
 20
-29.6703703497
 10
-60.7317626425
 20
-29.6628742776
 10
-60.9313683235
 20
-29.6565546824
 10
-61.1219541096
 20
-29.6515420088
 10
-61.3009136976
 20
-29.6479038735
 10
-61.4675486649
 20
-29.6456624362
 10
-61.6210526269
 20
-29.6448659958
 10
-61.7598164202
 20
-29.6455673422
 10
-61.883048465
 20
-29.6477300029
 10
-61.9907168755
 20
-29.6513126367
 10
-62.0825130165
 20
-29.6563026843
 10
-62.1570034971
 20
-29.6626372863
 10
-62.2128370205
 20
-29.6701724729
 10
-62.2497393373
 20
-29.6787810687
 10
-62.267814259
 20
-29.6884019969
 10
-62.2697693411
 20
-29.6930625696
  0
LWPOLYLINE
  5
3F3
100
AcDbEntity
  8
0
100
AcDbPolyline
 62
253
  6
CONTINUOUS
 90
18
 70
0
 10
-60.1120966595
 20
-20.9453390798
 10
-60.3213412321
 20
-20.9417596309
 10
-60.5290864031
 20
-20.939162996
 10
-60.7341071791
 20
-20.9375772767
 10
-60.933809778
 20
-20.9370444767
 10
-61.124458786
 20
-20.9375871702
 10
-61.3034470619
 20
-20.9391969752
 10
-61.4700758429
 20
-20.9418758052
 10
-61.6235376992
 20
-20.9456492511
 10
-61.7622226331
 20
-20.9505235055
 10
-61.8853404468
 20
-20.9564373358
 10
-61.9928604547
 20
-20.9633472295
 10
-62.0844745128
 20
-20.971231022
 10
-62.1587516408
 20
-20.979981112
 10
-62.2143452462
 20
-20.9894088556
 10
-62.2509848464
 20
-20.999375127
 10
-62.2687759622
 20
-21.0098201577
 10
-62.2705968271
 20
-21.0146604749
  0
LINE
  5
3F4
100
AcDbEntity
  8
0
100
AcDbLine
 62
253
  6
CONTINUOUS
 10
-59.9301374556
 20
-20.949285286
 11
-60.1120966595
 21
-20.9453390798
  0
LINE
  5
3F5
100
AcDbEntity
  8
0
100
AcDbLine
 62
7
  6
CONTINUOUS
 10
-62.6938505052
 20
-19.4144487374
 11
-62.611911053
 21
-19.5841697629
  0
LINE
  5
3F6
100
AcDbEntity
  8
0
100
AcDbLine
 62
7
  6
CONTINUOUS
 10
-62.6938505052
 20
-19.4144487374
 11
-62.6937742217
 21
-19.4146111946
  0
LWPOLYLINE
  5
3F7
100
AcDbEntity
  8
0
100
AcDbPolyline
 62
7
  6
CONTINUOUS
 90
16
 70
0
 10
-62.611911053
 20
-19.5841697629
 10
-62.5786688318
 20
-19.6555657371
 10
-62.5486014049
 20
-19.7246895003
 10
-62.514839505
 20
-19.8064940122
 10
-62.48320187
 20
-19.8895405309
 10
-62.4529324078
 20
-19.9761232336
 10
-62.4234634953
 20
-20.0681050395
 10
-62.3954157107
 20
-20.1645422715
 10
-62.3692237111
 20
-20.265130086
 10
-62.3454076025
 20
-20.3693379706
 10
-62.3245776265
 20
-20.4757682678
 10
-62.3069111206
 20
-20.5841759798
 10
-62.2924666569
 20
-20.6949235549
 10
-62.281392903
 20
-20.8078085943
 10
-62.2738811517
 20
-20.9226071532
 10
-62.2705968271
 20
-21.0146604755
  0
LWPOLYLINE
  5
3F8
100
AcDbEntity
  8
0
100
AcDbPolyline
 62
7
  6
CONTINUOUS
 90
19
 70
0
 10
-60.6033428671
 20
-18.3181493458
 10
-61.0898478738
 20
-17.2291874282
 10
-61.5197352319
 20
-16.1229119505
 10
-61.8930049416
 20
-14.9993229127
 10
-62.210308916
 20
-13.8555304391
 10
-62.4709952418
 20
-12.6944244054
 10
-62.6731081795
 20
-11.5246744382
 10
-62.8162081531
 20
-10.346219947
 10
-62.9007347385
 20
-9.1591215222
 10
-62.9260509239
 20
-7.9722305619
 10
-62.8916988428
 20
-6.785496297
 10
-62.7981363617
 20
-5.5989694966
 10
-62.6461000684
 20
-4.4216538654
 10
-62.4349880382
 20
-3.2533517965
 10
-62.1654021959
 20
-2.0942608968
 10
-61.8398849036
 20
-0.9539776919
 10
-61.4592836153
 20
0.1642989761
 10
-61.0227508771
 20
1.2637679493
 10
-60.530286689
 20
2.3444292275
  0
LWPOLYLINE
  5
3F9
100
AcDbEntity
  8
0
100
AcDbPolyline
 62
7
  6
CONTINUOUS
 90
6
 70
0
 10
-64.552617138
 20
-14.1626660761
 10
-64.4412244506
 20
-14.6122908747
 10
-64.0794010578
 20
-15.8856443963
 10
-63.6538534917
 20
-17.1395236827
 10
-63.1657365525
 20
-18.3704012078
 10
-62.6937742203
 20
-19.4146111975
  0
LWPOLYLINE
  5
3FA
100
AcDbEntity
  8
0
100
AcDbPolyline
 62
7
  6
CONTINUOUS
 90
13
 70
0
 10
-64.3613959627
 20
-14.162665596
 10
-64.5737028722
 20
-13.1773907846
 10
-64.7485452924
 20
-12.1845247273
 10
-64.8857418784
 20
-11.185445895
 10
-64.9851134729
 20
-10.1812988445
 10
-65.0464202893
 20
-9.1736925598
 10
-65.0694518772
 20
-8.1647054232
 10
-65.0541146377
 20
-7.1559367366
 10
-65.0005363719
 20
-6.1485891829
 10
-64.9089134686
 20
-5.1441495439
 10
-64.779440757
 20
-4.1440688612
 10
-64.6123043452
 20
-3.1497625984
 10
-64.407674981
 20
-2.1626698623
  0
LINE
  5
3FB
100
AcDbEntity
  8
0
100
AcDbLine
 62
7
  6
CONTINUOUS
 10
-62.2705968271
 20
-21.0146604749
 11
-62.2705957413
 21
-21.0147018803
  0
LWPOLYLINE
  5
3FC
100
AcDbEntity
  8
0
100
AcDbPolyline
 62
7
  6
CONTINUOUS
 90
34
 70
0
 10
-62.7692523257
 20
-29.6728175145
 10
-62.7341530881
 20
-31.2412149845
 10
-62.6552583741
 20
-32.7521846875
 10
-62.5325681837
 20
-34.2057266236
 10
-62.3626702964
 20
-35.6010612063
 10
-62.1489769328
 20
-36.938968022
 10
-61.9017247544
 20
-38.2217858305
 10
-61.6217323596
 20
-39.4496009127
 10
-61.30818115
 20
-40.6223269877
 10
-60.9688519919
 20
-41.7420439728
 10
-60.6043889676
 20
-42.8087147378
 10
-60.2141479948
 20
-43.8223764129
 10
-59.803977693
 20
-44.7852203053
 10
-59.3742989781
 20
-45.6970038253
 10
-58.9246909342
 20
-46.5579695627
 10
-58.4597394332
 20
-47.3710365946
 10
-57.9796312908
 20
-48.1365019646
 10
-57.4841796913
 20
-48.8540686292
 10
-56.97741006
 20
-49.5257645346
 10
-56.4594748989
 20
-50.1518158524
 10
-55.9302217059
 20
-50.731996411
 10
-55.3932183997
 20
-51.2676556417
 10
-54.8491912312
 20
-51.7582699761
 10
-54.2974139494
 20
-52.2043629827
 10
-53.7392757196
 20
-52.6088547978
 10
-53.1739077077
 20
-52.9722271404
 10
-52.6021787478
 20
-53.2939982916
 10
-52.028084507
 20
-53.5756432313
 10
-51.452495683
 20
-53.817119865
 10
-50.874541578
 20
-54.0184702872
 10
-50.2956057668
 20
-54.1812957618
 10
-49.7161494406
 20
-54.3061300434
 10
-49.1357114082
 20
-54.3924393773
 10
-48.5542916694
 20
-54.4402237635
  0
LWPOLYLINE
  5
3FD
100
AcDbEntity
  8
0
100
AcDbPolyline
 62
7
  6
CONTINUOUS
 90
30
 70
0
 10
-62.2697693411
 20
-29.6930625696
 10
-62.2441714135
 20
-31.1754485712
 10
-62.1601031013
 20
-32.7607008183
 10
-62.0241040472
 20
-34.267233378
 10
-61.8441595378
 20
-35.6894439043
 10
-61.6260682417
 20
-37.0311229772
 10
-61.3722112371
 20
-38.308304353
 10
-61.0867135901
 20
-39.5232849895
 10
-60.7741603934
 20
-40.6769777524
 10
-60.4343423626
 20
-41.78047366
 10
-60.0691298861
 20
-42.830860724
 10
-59.6811733353
 20
-43.8253933451
 10
-59.2684725731
 20
-44.7735570997
 10
-58.8314857941
 20
-45.6769835114
 10
-58.3732329079
 20
-46.5325806708
 10
-57.8943224382
 20
-47.3431151911
 10
-57.3971115505
 20
-48.1086833302
 10
-56.8840895385
 20
-48.8297230039
 10
-56.3542780719
 20
-49.5075436532
 10
-55.8095572836
 20
-50.1371546747
 10
-55.249252798
 20
-50.7186878393
 10
-54.6659057924
 20
-51.2591135735
 10
-54.0633278784
 20
-51.7544252166
 10
-53.4394710889
 20
-52.20670589
 10
-52.7741907754
 20
-52.6266300081
 10
-52.0583493506
 20
-53.0097643757
 10
-51.3005901051
 20
-53.3408348848
 10
-50.5057478295
 20
-53.6087685903
 10
-49.6766905276
 20
-53.8043830255
 10
-48.8276927728
 20
-53.9205861037
  0
LINE
  5
3FE
100
AcDbEntity
  8
0
100
AcDbLine
 62
7
  6
CONTINUOUS
 10
-62.2705957413
 20
-21.0147018803
 11
-62.2697619336
 21
-21.6106190187
  0
LINE
  5
3FF
100
AcDbEntity
  8
0
100
AcDbLine
 62
7
  6
CONTINUOUS
 10
-62.7692523257
 20
-29.6728175145
 11
-62.7692523257
 21
-21.0933999662
  0
LINE
  5
400
100
AcDbEntity
  8
0
100
AcDbLine
 62
7
  6
CONTINUOUS
 10
-62.7692523257
 20
4.9680658406
 11
-62.7692523257
 21
29.3474833889
  0
LINE
  5
401
100
AcDbEntity
  8
0
100
AcDbLine
 62
7
  6
CONTINUOUS
 10
-62.2696921623
 20
22.7573556803
 11
-62.2696567353
 21
5.010834503
  0
LINE
  5
402
100
AcDbEntity
  8
0
100
AcDbLine
 62
7
  6
CONTINUOUS
 10
-62.2697619336
 20
-21.6106190187
 11
-62.2697693475
 21
-29.693065408
  0
LWPOLYLINE
  5
403
100
AcDbEntity
  8
0
100
AcDbPolyline
 62
7
  6
CONTINUOUS
 90
43
 70
0
 10
-62.2696567353
 20
5.010834503
 10
-62.269726206
 20
4.957906602
 10
-62.2698786275
 20
4.9312642937
 10
-62.2701795625
 20
4.9058116516
 10
-62.2707171738
 20
4.8802554403
 10
-62.2715553211
 20
4.8539126015
 10
-62.2726583731
 20
4.8259015767
 10
-62.2739716975
 20
4.7969302605
 10
-62.275527805
 20
4.7669779457
 10
-62.2773464342
 20
4.736636653
 10
-62.2794397747
 20
4.7063379033
 10
-62.2818120256
 20
4.6761142617
 10
-62.2844837859
 20
4.6457552298
 10
-62.2874670499
 20
4.6151772694
 10
-62.2907743285
 20
4.5842845101
 10
-62.2944342768
 20
4.552840564
 10
-62.298472083
 20
4.52068597
 10
-62.3028965022
 20
4.4878778806
 10
-62.307713622
 20
4.4544982917
 10
-62.3129347962
 20
4.4205822662
 10
-62.3185776579
 20
4.3861254634
 10
-62.3246557642
 20
4.3511534392
 10
-62.3311784927
 20
4.3157147271
 10
-62.3381658218
 20
4.2798011755
 10
-62.3456497073
 20
4.2433562121
 10
-62.3536519602
 20
4.2063876193
 10
-62.362187235
 20
4.1689404707
 10
-62.371280389
 20
4.1310153827
 10
-62.3809539046
 20
4.0926113901
 10
-62.3912238851
 20
4.0537473406
 10
-62.4021060998
 20
4.0144415764
 10
-62.4136200034
 20
3.9746983522
 10
-62.4257845234
 20
3.9345243286
 10
-62.4386138542
 20
3.8939410762
 10
-62.4521265791
 20
3.8529549003
 10
-62.466342157
 20
3.8115697565
 10
-62.4812752323
 20
3.7698033532
 10
-62.49694348
 20
3.7276687512
 10
-62.513366182
 20
3.6851831536
 10
-62.5305597796
 20
3.6423730101
 10
-62.5485425069
 20
3.5992611312
 10
-62.5673326854
 20
3.5558690692
 10
-62.5885764338
 20
3.5086574612
  0
LINE
  5
404
100
AcDbEntity
  8
0
100
AcDbLine
 62
7
  6
CONTINUOUS
 10
-64.4413897967
 20
-1.5134324822
 11
-64.599474908
 21
-2.1626689422
  0
LWPOLYLINE
  5
405
100
AcDbEntity
  8
0
100
AcDbPolyline
 62
7
  6
CONTINUOUS
 90
5
 70
0
 10
-62.5885700569
 20
3.5086712117
 10
-63.1072180807
 20
2.3814937147
 10
-63.6284286854
 20
1.0828863116
 10
-64.0735784342
 20
-0.220729074
 10
-64.4413897967
 20
-1.5134324822
  0
LINE
  5
406
100
AcDbEntity
  8
0
100
AcDbLine
 62
7
  6
CONTINUOUS
 10
-65.065803822
 20
-14.1626670628
 11
-64.361391685
 21
-14.1626651061
  0
LWPOLYLINE
  5
407
100
AcDbEntity
  8
0
100
AcDbPolyline
 62
7
  6
CONTINUOUS
 90
10
 70
0
 10
-59.9262601944
 20
-21.0933996867
 10
-59.9348052193
 20
-20.7757886013
 10
-59.9597574604
 20
-20.4608552511
 10
-60.0011169179
 20
-20.1485996361
 10
-60.0585310857
 20
-19.8395087578
 10
-60.1323524699
 20
-19.5330956146
 10
-60.2236385883
 20
-19.2278992023
 10
-60.332741947
 20
-18.9234325193
 10
-60.4593100399
 20
-18.6201825671
 10
-60.6033428671
 20
-18.3181493458
  0
LINE
  5
408
100
AcDbEntity
  8
0
100
AcDbLine
 62
7
  6
CONTINUOUS
 10
-59.9255152933
 20
6.020760204
 11
-59.9262601944
 21
7.0928150126
  0
LINE
  5
409
100
AcDbEntity
  8
0
100
AcDbLine
 62
7
  6
CONTINUOUS
 10
-59.9262601944
 20
7.0928150126
 11
-59.9262601944
 21
29.3474836569
  0
LINE
  5
40A
100
AcDbEntity
  8
0
100
AcDbLine
 62
7
  6
CONTINUOUS
 10
-59.930843383
 20
-29.6728123268
 11
-59.9216789217
 21
-21.093404872
  0
LWPOLYLINE
  5
40B
100
AcDbEntity
  8
0
100
AcDbPolyline
 62
7
  6
CONTINUOUS
 90
41
 70
0
 10
-59.9262601944
 20
29.3474836569
 10
-59.9030179458
 20
30.5801950666
 10
-59.8511867071
 20
31.7672729269
 10
-59.7707664782
 20
32.9087172376
 10
-59.6592281718
 20
34.0032655015
 10
-59.5191008753
 20
35.0521802159
 10
-59.3579718508
 20
36.0592488727
 10
-59.1766526642
 20
37.0245925252
 10
-58.9743317496
 20
37.94809012
 10
-58.7561616712
 20
38.8331659892
 10
-58.5224959905
 20
39.6799652739
 10
-58.272981146
 20
40.4883428329
 10
-58.0117090184
 20
41.2612875753
 10
-57.7390544828
 20
41.9990011449
 10
-57.454642664
 20
42.701281898
 10
-57.1614408164
 20
43.3705138119
 10
-56.8594349098
 20
44.0066663586
 10
-56.5486389744
 20
44.6097700662
 10
-56.2320623549
 20
45.1823004957
 10
-55.9100696211
 20
45.7245657299
 10
-55.5822962032
 20
46.2362576861
 10
-55.2506577364
 20
46.7189276769
 10
-54.9150717648
 20
47.1725716955
 10
-54.5756207443
 20
47.5971937488
 10
-54.2344676776
 20
47.9943571704
 10
-53.8914920699
 20
48.3639040012
 10
-53.5468144158
 20
48.7059922003
 10
-53.2029592019
 20
49.0226589787
 10
-52.860140381
 20
49.3140054579
 10
-52.5181440002
 20
49.5799305164
 10
-52.1788526875
 20
49.8221680006
 10
-51.8422270685
 20
50.0405138969
 10
-51.5083065177
 20
50.2351722191
 10
-51.1790917865
 20
50.4084888543
 10
-50.8539264219
 20
50.5604255565
 10
-50.533466877
 20
50.6910205718
 10
-50.2216832621
 20
50.8027345258
 10
-49.9208292235
 20
50.8949220083
 10
-49.6286511149
 20
50.9682284296
 10
-49.3423581083
 20
51.0270506458
 10
-49.0633056197
 20
51.0698852156
  0
LWPOLYLINE
  5
40C
100
AcDbEntity
  8
0
100
AcDbPolyline
 62
7
  6
CONTINUOUS
 90
11
 70
0
 10
-60.530286689
 20
2.3444292275
 10
-60.3573717034
 20
2.7521742605
 10
-60.2140246901
 20
3.1485813209
 10
-60.1002456491
 20
3.5336504086
 10
-60.0201915666
 20
3.9051740647
 10
-59.9697054563
 20
4.2653597482
 10
-59.9363163598
 20
4.6208298358
 10
-59.9211938449
 20
4.9712471404
 10
-59.9231683438
 20
5.316948849
 10
-59.9262601944
 20
5.6655688999
 10
-59.9255152933
 20
6.020760204
  0
LINE
  5
40D
100
AcDbEntity
  8
0
100
AcDbLine
 62
7
  6
CONTINUOUS
 10
-64.4076729456
 20
-2.1626703242
 11
-65.1117464684
 21
-2.1626670628
  0
LWPOLYLINE
  5
40E
100
AcDbEntity
  8
0
100
AcDbPolyline
 62
253
  6
CONTINUOUS
 90
15
 70
0
 10
-61.1850493377
 20
2.8535825058
 10
-61.3639265
 20
2.9435159719
 10
-61.5350452968
 20
3.028898437
 10
-61.6960653434
 20
3.1085627218
 10
-61.8463607619
 20
3.1821941253
 10
-61.9852161499
 20
3.2494184691
 10
-62.1111900374
 20
3.3095098568
 10
-62.2235534775
 20
3.3621409805
 10
-62.322264426
 20
3.4073176691
 10
-62.4070391956
 20
3.4449115137
 10
-62.4765588245
 20
3.4743283075
 10
-62.5295529497
 20
3.4950482711
 10
-62.5657325914
 20
3.5070126238
 10
-62.5851723982
 20
3.510295695
 10
-62.5885700569
 20
3.5086712117
  0
LINE
  5
40F
100
AcDbEntity
  8
0
100
AcDbLine
 62
253
  6
CONTINUOUS
 10
-60.8163564944
 20
2.6663100914
 11
-61.1850493377
 21
2.8535825058
  0
LINE
  5
410
100
AcDbEntity
  8
0
100
AcDbLine
 62
253
  6
CONTINUOUS
 10
-60.4694434274
 20
2.4879016837
 11
-60.8163564944
 21
2.6663100914
  0
LINE
  5
411
100
AcDbEntity
  8
0
100
AcDbLine
 62
253
  6
CONTINUOUS
 10
-48.8672101674
 20
51.0933372943
 11
-48.9927847076
 21
53.579466029
  0
LWPOLYLINE
  5
412
100
AcDbEntity
  8
0
100
AcDbPolyline
 62
253
  6
CONTINUOUS
 90
19
 70
0
 10
-48.2848745719
 20
-51.4584547111
 10
-48.3059599948
 20
-51.6677260172
 10
-48.3250690059
 20
-51.8779824909
 10
-48.3420954241
 20
-52.087617659
 10
-48.3570587641
 20
-52.2959460056
 10
-48.3697248393
 20
-52.5001271378
 10
-48.3796717628
 20
-52.6955367172
 10
-48.3868040313
 20
-52.8795804662
 10
-48.3911984421
 20
-53.0522504765
 10
-48.3927462266
 20
-53.2131117064
 10
-48.3913739936
 20
-53.360925928
 10
-48.3871430824
 20
-53.4944769507
 10
-48.3801250598
 20
-53.6131454686
 10
-48.3702186619
 20
-53.7164172637
 10
-48.3575259768
 20
-53.8022929794
 10
-48.342492175
 20
-53.8688146809
 10
-48.325366378
 20
-53.9158908685
 10
-48.3061238845
 20
-53.944251559
 10
-48.2855186097
 20
-53.9543027563
  0
LWPOLYLINE
  5
413
100
AcDbEntity
  8
0
100
AcDbPolyline
 62
253
  6
CONTINUOUS
 90
19
 70
0
 10
-59.922120119
 20
5.133422222
 10
-60.1102240708
 20
5.1428567595
 10
-60.3192828901
 20
5.1524106534
 10
-60.5268703162
 20
5.1609670704
 10
-60.7317626425
 20
5.1684631425
 10
-60.9313683235
 20
5.1747827377
 10
-61.1219541096
 20
5.1797954113
 10
-61.3009136976
 20
5.1834335466
 10
-61.4675486649
 20
5.1856749839
 10
-61.6210526269
 20
5.1864714243
 10
-61.7598164202
 20
5.1857700779
 10
-61.883048465
 20
5.1836074172
 10
-61.9907168755
 20
5.1800247834
 10
-62.0825130149
 20
5.175034736
 10
-62.1570034946
 20
5.168700134
 10
-62.2128370205
 20
5.1611649472
 10
-62.2497393405
 20
5.1525563504
 10
-62.2678142615
 20
5.1429354203
 10
-62.2697693592
 20
5.13826033
  0
LINE
  5
414
100
AcDbEntity
  8
0
100
AcDbLine
 62
253
  6
CONTINUOUS
 10
-35.7692560151
 20
54.2849249646
 11
-35.7692560151
 21
51.7890363603
  0
LINE
  5
415
100
AcDbEntity
  8
0
100
AcDbLine
 62
7
  6
CONTINUOUS
 10
-34.7692523257
 20
54.8373329372
 11
-34.7692523257
 21
-54.6630155932
  0
LWPOLYLINE
  5
416
100
AcDbEntity
  8
0
100
AcDbPolyline
 62
253
  6
CONTINUOUS
 90
18
 70
0
 10
-60.759956272
 20
-18.4232513907
 10
-60.9525339104
 20
-18.5055780394
 10
-61.1432596524
 20
-18.5885873264
 10
-61.3310025552
 20
-18.671806783
 10
-61.5133766062
 20
-18.7542127463
 10
-61.6869643035
 20
-18.8342805855
 10
-61.8493922944
 20
-18.910914089
 10
-62.0000224247
 20
-18.9838249822
 10
-62.1381057714
 20
-19.0527112444
 10
-62.2621711036
 20
-19.116911043
 10
-62.3715280205
 20
-19.1760140947
 10
-62.4661699931
 20
-19.2299497775
 10
-62.5458269489
 20
-19.2785603766
 10
-62.6092470115
 20
-19.3211072728
 10
-62.6552952164
 20
-19.3567792208
 10
-62.683793502
 20
-19.385278677
 10
-62.6948675624
 20
-19.4065700943
 10
-62.6938505052
 20
-19.4144487374
  0
LINE
  5
417
100
AcDbEntity
  8
0
100
AcDbLine
 62
253
  6
CONTINUOUS
 10
-60.5892983611
 20
-18.3516005275
 11
-60.759956272
 21
-18.4232513907
  0
LINE
  5
418
100
AcDbEntity
  8
0
100
AcDbLine
 62
7
  6
CONTINUOUS
 10
-34.7692523257
 20
-55.1626670628
 11
-34.7627371422
 21
-54.6630085091
  0
LWPOLYLINE
  5
419
100
AcDbEntity
  8
0
100
AcDbPolyline
 62
7
  6
CONTINUOUS
 90
39
 70
0
 10
-48.9927847076
 20
53.579466029
 10
-49.4986524762
 20
53.5107166586
 10
-50.1337515807
 20
53.3814327077
 10
-50.7662398
 20
53.2040537405
 10
-51.3899391478
 20
52.9804943316
 10
-52.0019598927
 20
52.7127098077
 10
-52.6025491147
 20
52.4010828541
 10
-53.1898338036
 20
52.0471904833
 10
-53.7622805963
 20
51.6532906512
 10
-54.3217325106
 20
51.2198292571
 10
-54.8672624113
 20
50.7494899711
 10
-55.3965131453
 20
50.2446239748
 10
-55.9088542488
 20
49.7048528708
 10
-56.403394082
 20
49.1305173877
 10
-56.8794821375
 20
48.5224046863
 10
-57.3371715965
 20
47.881201666
 10
-57.7764221999
 20
47.2086303043
 10
-58.1979090761
 20
46.5064605928
 10
-58.6027787149
 20
45.7755250427
 10
-58.9901833529
 20
45.0163122959
 10
-59.3593059861
 20
44.2286116303
 10
-59.7100972388
 20
43.4107871853
 10
-60.0418010343
 20
42.5630487618
 10
-60.3539681437
 20
41.6855167496
 10
-60.6468593515
 20
40.7764855634
 10
-60.9191593172
 20
39.8371258455
 10
-61.1698514771
 20
38.8671252425
 10
-61.3987189555
 20
37.8626177011
 10
-61.6042946846
 20
36.8245157441
 10
-61.7853222906
 20
35.7535746759
 10
-61.941012775
 20
34.6457757008
 10
-62.0689179131
 20
33.5069260929
 10
-62.1678270301
 20
32.3334174169
 10
-62.234921142
 20
31.099162511
 10
-62.2657791607
 20
29.8009040083
 10
-62.2710611611
 20
28.5055963833
 10
-62.2693558057
 20
27.1782095133
 10
-62.2699730631
 20
25.7682304165
 10
-62.2696921623
 20
22.7573556803
  0
LINE
  5
41A
100
AcDbEntity
  8
0
100
AcDbLine
 62
7
  6
CONTINUOUS
 10
-49.0633056197
 20
51.0698852156
 11
-48.7901382332
 21
51.0982355803
  0
LWPOLYLINE
  5
41B
100
AcDbEntity
  8
0
100
AcDbPolyline
 62
7
  6
CONTINUOUS
 90
5
 70
0
 10
-48.795722133
 20
53.597747693
 10
-48.8431106353
 20
53.5937437121
 10
-48.8917321173
 20
53.5893450378
 10
-48.9416235785
 20
53.5845831378
 10
-48.992785019
 20
53.579458012
  0
LWPOLYLINE
  5
41C
100
AcDbEntity
  8
0
100
AcDbPolyline
 62
7
  6
CONTINUOUS
 90
34
 70
0
 10
-48.5542916694
 20
54.1148896379
 10
-49.1283690121
 20
54.0674095324
 10
-49.7038549668
 20
53.9816220505
 10
-50.2807495335
 20
53.8575271922
 10
-50.860502842
 20
53.6959236868
 10
-51.4416647625
 20
53.4960128051
 10
-52.0198849059
 20
53.2553983587
 10
-52.5948541256
 20
52.9735393242
 10
-53.1668815682
 20
52.650976725
 10
-53.7325442846
 20
52.2869374444
 10
-54.2912554803
 20
51.8819445865
 10
-54.8436019499
 20
51.435475047
 10
-55.3879211283
 20
50.9451863965
 10
-55.9247658314
 20
50.4110287974
 10
-56.4535832434
 20
49.8330520873
 10
-56.9710523516
 20
49.2090633484
 10
-57.477282733
 20
48.5391886603
 10
-57.9721648107
 20
47.8233019435
 10
-58.4520488414
 20
47.0588320419
 10
-58.9173181572
 20
46.2455707941
 10
-59.3675894259
 20
45.3837263616
 10
-59.7980629076
 20
44.4713520731
 10
-60.2092201812
 20
43.5087362497
 10
-60.6005796679
 20
42.4955905704
 10
-60.9658968904
 20
41.4291034008
 10
-61.3055577297
 20
40.3089610485
 10
-61.6191763049
 20
39.1354772059
 10
-61.8993504964
 20
37.9067813158
 10
-62.1470946723
 20
36.6231360989
 10
-62.3613944645
 20
35.2842788344
 10
-62.5318046484
 20
33.887550803
 10
-62.6548434824
 20
32.4320657651
 10
-62.7339927082
 20
30.9187099604
 10
-62.7692523257
 20
29.3474833889
  0
LWPOLYLINE
  5
41D
100
AcDbEntity
  8
0
100
AcDbPolyline
 62
7
  6
CONTINUOUS
 90
4
 70
0
 10
-48.7901382332
 20
51.0982355803
 10
-48.5159988728
 20
51.1210089208
 10
-48.2385308562
 20
51.1393019912
 10
-47.6808918732
 20
51.1647739773
  0
LINE
  5
41E
100
AcDbEntity
  8
0
100
AcDbLine
 62
7
  6
CONTINUOUS
 10
-48.7048660653
 20
53.6047603806
 11
-48.795722133
 21
53.597747693
  0
LINE
  5
41F
100
AcDbEntity
  8
0
100
AcDbLine
 62
7
  6
CONTINUOUS
 10
-48.6207086757
 20
53.6106767746
 11
-48.7048660653
 21
53.6047603806
  0
LINE
  5
420
100
AcDbEntity
  8
0
100
AcDbLine
 62
7
  6
CONTINUOUS
 10
-48.5365766272
 20
53.61592149
 11
-48.6207086757
 21
53.6106767746
  0
LINE
  5
421
100
AcDbEntity
  8
0
100
AcDbLine
 62
7
  6
CONTINUOUS
 10
-48.4508029997
 20
53.6206686721
 11
-48.5365766272
 21
53.61592149
  0
LINE
  5
422
100
AcDbEntity
  8
0
100
AcDbLine
 62
7
  6
CONTINUOUS
 10
-34.7692523257
 20
51.8414443329
 11
-47.6808918732
 21
51.1647739773
  0
LINE
  5
423
100
AcDbEntity
  8
0
100
AcDbLine
 62
7
  6
CONTINUOUS
 10
-34.7692523257
 20
54.8373329372
 11
-48.5542916694
 21
54.1148896379
  0
LINE
  5
424
100
AcDbEntity
  8
0
100
AcDbLine
 62
7
  6
CONTINUOUS
 10
-34.7692523257
 20
54.3373329372
 11
-48.2764467774
 21
53.629367095
  0
LINE
  5
425
100
AcDbEntity
  8
0
100
AcDbLine
 62
7
  6
CONTINUOUS
 10
-48.2764467774
 20
53.629367095
 11
-48.4508029997
 21
53.6206686721
  0
CIRCLE
  5
426
100
AcDbEntity
  8
0
100
AcDbCircle
 62
7
  6
CONTINUOUS
 10
-0.8758998541
 20
-48.1626670628
 40
2.9999990691
  0
CIRCLE
  5
427
100
AcDbEntity
  8
0
100
AcDbCircle
 62
7
  6
CONTINUOUS
 10
-0.8759019401
 20
-48.1626670628
 40
2.75
  0
ARC
  5
428
100
AcDbEntity
  8
0
100
AcDbCircle
 62
7
  6
CONTINUOUS
 10
-0.8759019401
 20
-48.1626670628
 40
2.6625113365
100
AcDbArc
 50
166.9764719153
 51
193.0235280847
  0
ARC
  5
429
100
AcDbEntity
  8
0
100
AcDbCircle
 62
7
  6
CONTINUOUS
 10
-0.8759019401
 20
-48.1626670628
 40
2.6625113365
100
AcDbArc
 50
346.9764719153
 51
13.0235280847
  0
ARC
  5
42A
100
AcDbEntity
  8
0
100
AcDbCircle
 62
253
  6
CONTINUOUS
 10
-0.8759019401
 20
-48.1626670628
 40
2.6122131027
100
AcDbArc
 50
13.2788388525
 51
166.7211611475
  0
ARC
  5
42B
100
AcDbEntity
  8
0
100
AcDbCircle
 62
253
  6
CONTINUOUS
 10
-0.8759019401
 20
-48.1626670628
 40
2.6122131027
100
AcDbArc
 50
193.2788388525
 51
346.7211611475
  0
ARC
  5
42C
100
AcDbEntity
  8
0
100
AcDbCircle
 62
253
  6
CONTINUOUS
 10
-0.8759019401
 20
-48.1626670628
 40
2.4839439914
100
AcDbArc
 50
13.978119812
 51
166.021880188
  0
ARC
  5
42D
100
AcDbEntity
  8
0
100
AcDbCircle
 62
253
  6
CONTINUOUS
 10
-0.8759019401
 20
-48.1626670628
 40
2.4839439914
100
AcDbArc
 50
193.978119812
 51
346.021880188
  0
ARC
  5
42E
100
AcDbEntity
  8
0
100
AcDbCircle
 62
7
  6
CONTINUOUS
 10
-0.8759019401
 20
-48.1626670628
 40
1.8638541369
100
AcDbArc
 50
82.968196018
 51
97.0259491591
  0
ARC
  5
42F
100
AcDbEntity
  8
0
100
AcDbCircle
 62
7
  6
CONTINUOUS
 10
-0.8759019401
 20
-48.1626670628
 40
1.8638541369
100
AcDbArc
 50
262.9681960448
 51
277.0259491591
  0
ARC
  5
430
100
AcDbEntity
  8
0
100
AcDbCircle
 62
7
  6
CONTINUOUS
 10
-0.8759019401
 20
-48.1626670628
 40
1.3915481318
100
AcDbArc
 50
170.5652353034
 51
189.4324314084
  0
ARC
  5
431
100
AcDbEntity
  8
0
100
AcDbCircle
 62
7
  6
CONTINUOUS
 10
-0.8759019401
 20
-48.1626670628
 40
1.3915481318
100
AcDbArc
 50
350.5652351046
 51
9.4324314084
  0
ARC
  5
432
100
AcDbEntity
  8
TRASH
100
AcDbCircle
 62
7
  6
CONTINUOUS
 10
-0.8759019401
 20
-48.1626670628
 40
1.1472328625
100
AcDbArc
 50
257.9845776281
 51
282.0153200785
  0
ARC
  5
433
100
AcDbEntity
  8
TRASH
100
AcDbCircle
 62
7
  6
CONTINUOUS
 10
-0.8759019401
 20
-48.1626670628
 40
1.1472328625
100
AcDbArc
 50
77.9845776281
 51
102.0153200785
  0
ARC
  5
434
100
AcDbEntity
  8
TRASH
100
AcDbCircle
 62
7
  6
CONTINUOUS
 10
-0.8759019401
 20
-48.1626670628
 40
1.1472328182
100
AcDbArc
 50
347.9846799215
 51
12.0154223719
  0
ARC
  5
435
100
AcDbEntity
  8
TRASH
100
AcDbCircle
 62
7
  6
CONTINUOUS
 10
-0.8759019401
 20
-48.1626670628
 40
1.1472328182
100
AcDbArc
 50
167.9846799215
 51
192.0154223719
  0
ARC
  5
436
100
AcDbEntity
  8
0
100
AcDbCircle
 62
7
  6
CONTINUOUS
 10
-38.9692567728
 20
-8.0626670628
 40
26.7999956299
100
AcDbArc
 50
154.0699841999
 51
205.9300156505
  0
ARC
  5
437
100
AcDbEntity
  8
0
100
AcDbCircle
 62
7
  6
CONTINUOUS
 10
-65.7692524341
 20
4.9680658655
 40
3.0000000835
100
AcDbArc
 50
334.0699889832
 51
359.9999996963
  0
ARC
  5
438
100
AcDbEntity
  8
0
100
AcDbCircle
 62
7
  6
CONTINUOUS
 10
-65.7692524341
 20
-21.0933999912
 40
3.0000000835
100
AcDbArc
 50
0.0000004764
 51
25.9300111894
  0
ELLIPSE
  5
439
100
AcDbEntity
  8
0
100
AcDbEllipse
 62
7
  6
CONTINUOUS
 10
99.7762484941
 20
-573.1352334585
 30
0.0
 11
-0.0000119097
 21
535.1140690522
 31
0.0
 40
0.9951246675
 41
0.1923842608
 42
0.1927860921
  0
ELLIPSE
  5
43A
100
AcDbEntity
  8
0
100
AcDbEllipse
 62
7
  6
CONTINUOUS
 10
-101.5280524143
 20
476.8098990108
 30
0.0
 11
-0.0000279813
 21
-535.1140688131
 31
0.0
 40
0.9951246679
 41
0.1923843358
 42
0.1927861671
  0
ELLIPSE
  5
43B
100
AcDbEntity
  8
0
100
AcDbEllipse
 62
7
  6
CONTINUOUS
 10
9.1216369305
 20
51.8348733706
 30
0.0
 11
1.7719278683
 21
1.7719278683
 31
0.0
 40
0.9972646886
 41
-0.7841418867
 42
0.7841418867
  0
ENDSEC
  0
SECTION
  2
OBJECTS
  0
DICTIONARY
  5
C
100
AcDbDictionary
280
0
281
1
  3
ACAD_GROUP
350
D
  3
ACAD_MLINESTYLE
350
17
  3
ACAD_LAYOUT
350
1A
  3
ACAD_PLOTSETTINGS
350
19
  3
ACAD_PLOTSTYLENAME
350
E
  0
DICTIONARY
  5
D
102
{ACAD_REACTORS
330
C
102
}
100
AcDbDictionary
280
0
281
1
  0
ACDBDICTIONARYWDFLT
  5
E
102
{ACAD_REACTORS
330
C
102
}
100
AcDbDictionary
281
1
  3
Normal
350
F
100
AcDbDictionaryWithDefault
340
F
  0
DICTIONARY
  5
17
102
{ACAD_REACTORS
330
C
102
}
100
AcDbDictionary
280
0
281
1
  3
Standard
350
18
  0
DICTIONARY
  5
19
102
{ACAD_REACTORS
330
C
102
}
100
AcDbDictionary
281
1
  0
DICTIONARY
  5
1A
102
{ACAD_REACTORS
330
C
102
}
100
AcDbDictionary
281
1
  3
Model
350
43C
  3
Layout1
350
43D
  0
ACDBPLACEHOLDER
  5
F
102
{ACAD_REACTORS
330
E
102
}
  0
MLINESTYLE
  5
18
102
{ACAD_REACTORS
330
17
102
}
100
AcDbMlineStyle
  2
STANDARD
 70
0
  3

 62
256
 51
90.0
 52
90.0
 71
2
 49
0.5
 62
256
  6
BYLAYER
 49
-0.5
 62
256
  6
BYLAYER
  0
LAYOUT
  5
43C
102
{ACAD_REACTORS
330
1A
102
}
100
AcDbPlotSettings
  1

  2
none_device
  4
ISO_A4_(297.00_x_210.00_MM)
  6

 40
0.0
 41
0.0
 42
0.0
 43
0.0
 44
297.0
 45
210.0
 46
0.0
 47
0.0
 48
0.0
 49
0.0
140
0.0
141
0.0
142
1.0
143
1.0
 70
1024
 72
1
 73
0
 74
0
  7

 75
0
147
1.0
148
0.0
149
0.0
100
AcDbLayout
  1
Model
 70
0
 71
0
 10
0.0
 20
0.0
 11
297.0
 21
210.0
 12
0.0
 22
0.0
 32
0.0
 14
0.0
 24
0.0
 34
0.0
 15
0.0
 25
0.0
 35
0.0
146
0.0
 13
0.0
 23
0.0
 33
0.0
 16
1.0
 26
0.0
 36
0.0
 17
0.0
 27
1.0
 37
0.0
 76
0
330
20F
345
0
346
0
  0
LAYOUT
  5
43D
102
{ACAD_REACTORS
330
1A
102
}
100
AcDbPlotSettings
  1

  2
none_device
  4
ISO_A4_(297.00_x_210.00_MM)
  6

 40
0.0
 41
0.0
 42
0.0
 43
0.0
 44
297.0
 45
210.0
 46
0.0
 47
0.0
 48
0.0
 49
0.0
140
0.0
141
0.0
142
1.0
143
1.0
 70
0
 72
1
 73
0
 74
0
  7

 75
0
147
1.0
148
0.0
149
0.0
100
AcDbLayout
  1
Layout1
 70
0
 71
1
 10
0.0
 20
0.0
 11
297.0
 21
210.0
 12
0.0
 22
0.0
 32
0.0
 14
0.0
 24
0.0
 34
0.0
 15
0.0
 25
0.0
 35
0.0
146
0.0
 13
0.0
 23
0.0
 33
0.0
 16
1.0
 26
0.0
 36
0.0
 17
0.0
 27
1.0
 37
0.0
 76
0
330
210
345
0
346
0
  0
ENDSEC
  0
EOF
