  0
SECTION
  2
HEADER
  9
$ACADVER
  1
AC1021
  9
$DWGCODEPAGE
  3
ANSI_1252
  9
$EXTMAX
 10
297.0
 20
210.0
 30
0.0
  9
$EXTMIN
 10
0.0
 20
0.0
 30
0.0
  9
$LIMMIN
 10
0.0
 20
0.0
  9
$LIMMAX
 10
297.0
 20
210.0
  9
$VIEWCTR
 10
148.5
 20
105.0
  9
$VIEWSIZE
 40
210.0
  9
$CLAYER
  8
0
  9
$LTSCALE
 40
16.335
  9
$CELTYPE
  6
BYLAYER
  9
$DIMSCALE
 40
1.0
  9
$DIMASZ
 40
3.0
  9
$DIMEXO
 40
0.5
  9
$DIMDLI
 40
11.286
  9
$DIMEXE
 40
1.5
  9
$DIMCEN
 40
2.673
  9
$DIMLFAC
 40
1.0
  9
$DIMBLK
  1
_FILLED
  9
$DIMALT
 70
0
  9
$DIMALTF
 40
0.0393700787
  9
$DIMTXT
 40
3.0
  9
$DIMTOL
 70
1
  9
$DIMLIM
 70
0
  9
$DIMTFAC
 40
1.0
  9
$DIMTP
 40
0.01
  9
$DIMTM
 40
0.01
  9
$DIMGAP
 40
0.625
  9
$DIMDSEP
 70
44
  9
$AUNITS
 70
0
  9
$PDMODE
 70
3
  9
$PDSIZE
 40
3.0
  9
$HANDSEED
  5
38B
  9
$TILEMODE
 70
1
  9
$MEASUREMENT
 70
1
  9
$INSUNITS
 70
4
  0
ENDSEC
  0
SECTION
  2
CLASSES
  0
CLASS
  1
ACDBDICTIONARYWDFLT
  2
AcDbDictionaryWithDefault
  3
AutoCAD 2000
 90
0
 91
1
280
0
281
0
  0
CLASS
  1
ACDBPLACEHOLDER
  2
AcDbPlaceHolder
  3
AutoCAD 2000
 90
0
 91
1
280
0
281
0
  0
CLASS
  1
LAYOUT
  2
AcDbLayout
  3
AutoCAD 2000
 90
0
 91
0
280
0
281
0
  0
ENDSEC
  0
SECTION
  2
TABLES
  0
TABLE
  2
VPORT
  5
8
100
AcDbSymbolTable
 70
2
  0
VPORT
  5
1F4
100
AcDbSymbolTableRecord
100
AcDbViewportTableRecord
  2
*ACTIVE
 70
0
 10
0.0
 20
0.0
 11
1.0
 21
1.0
 12
148.5
 22
105.0
 13
0.0
 23
0.0
 14
1.0
 24
1.0
 15
0.0
 25
0.0
 16
0.0
 26
0.0
 36
1.0
 17
0.0
 27
0.0
 37
0.0
 40
210.0
 41
1.4142857143
 42
50.0
 43
0.0
 44
0.0
 50
0.0
 51
0.0
 71
0
 72
100
 73
1
 74
1
 75
0
 76
0
 77
0
 78
0
  0
ENDTAB
  0
TABLE
  2
LTYPE
  5
5
100
AcDbSymbolTable
 70
6
  0
LTYPE
  5
14
100
AcDbSymbolTableRecord
100
AcDbLinetypeTableRecord
  2
BYBLOCK
 70
0
  3

 72
65
 73
0
 40
0.0
  0
LTYPE
  5
15
100
AcDbSymbolTableRecord
100
AcDbLinetypeTableRecord
  2
BYLAYER
 70
0
  3

 72
65
 73
0
 40
0.0
  0
LTYPE
  5
16
100
AcDbSymbolTableRecord
100
AcDbLinetypeTableRecord
  2
CONTINUOUS
 70
64
  3
Solid line
 72
65
 73
0
 40
0.0
  0
LTYPE
  5
1F5
100
AcDbSymbolTableRecord
100
AcDbLinetypeTableRecord
  2
CENTER
 70
64
  3
____ _ ____ _ ____ _ ____ _ ____ _ ____ _ ____
 72
65
 73
4
 40
0.6
 49
0.375
 74
0
 49
-0.075
 74
0
 49
0.075
 74
0
 49
-0.075
 74
0
  0
LTYPE
  5
1F6
100
AcDbSymbolTableRecord
100
AcDbLinetypeTableRecord
  2
HIDDEN
 70
64
  3
- - - - - - - - - - - - - - - - - - - -
 72
65
 73
2
 40
0.2
 49
0.1
 74
0
 49
-0.1
 74
0
  0
LTYPE
  5
1F7
100
AcDbSymbolTableRecord
100
AcDbLinetypeTableRecord
  2
PHANTOM
 70
64
  3
_____ _ _ _____ _ _ _____ _ _ _____
 72
65
 73
6
 40
0.8
 49
0.45
 74
0
 49
-0.05
 74
0
 49
0.1
 74
0
 49
-0.05
 74
0
 49
0.1
 74
0
 49
-0.05
 74
0
  0
LTYPE
  5
1F8
100
AcDbSymbolTableRecord
100
AcDbLinetypeTableRecord
  2
DOT
 70
64
  3
. . . . . . . . . . . . . . . . . . . .
 72
65
 73
2
 40
0.2
 49
0.1
 74
0
 49
-0.1
 74
0
  0
LTYPE
  5
1F9
100
AcDbSymbolTableRecord
100
AcDbLinetypeTableRecord
  2
DASHED
 70
64
  3
- - - - - - - - - - - - - - - - - - - -
 72
65
 73
2
 40
0.2
 49
0.1
 74
0
 49
-0.1
 74
0
  0
ENDTAB
  0
TABLE
  2
LAYER
  5
2
100
AcDbSymbolTable
 70
36
  0
LAYER
  5
10
100
AcDbSymbolTableRecord
100
AcDbLayerTableRecord
  2
0
 70
0
 62
7
  6
CONTINUOUS
370
-3
390
F
  0
LAYER
  5
1FA
100
AcDbSymbolTableRecord
100
AcDbLayerTableRecord
  2
DEFAULT_1
 70
0
 62
7
  6
CENTER
370
-3
390
F
  0
LAYER
  5
1FB
100
AcDbSymbolTableRecord
100
AcDbLayerTableRecord
  2
DEFAULT_2
 70
0
 62
7
  6
HIDDEN
370
-3
390
F
  0
LAYER
  5
1FC
100
AcDbSymbolTableRecord
100
AcDbLayerTableRecord
  2
DEFAULT_3
 70
0
 62
7
  6
PHANTOM
370
-3
390
F
  0
LAYER
  5
1FD
100
AcDbSymbolTableRecord
100
AcDbLayerTableRecord
  2
ASSI
 70
0
 62
7
  6
CONTINUOUS
370
-3
390
F
  0
LAYER
  5
1FE
100
AcDbSymbolTableRecord
100
AcDbLayerTableRecord
  2
COORDINATE
 70
0
 62
7
  6
CONTINUOUS
370
-3
390
F
  0
LAYER
  5
1FF
100
AcDbSymbolTableRecord
100
AcDbLayerTableRecord
  2
COSMETICI
 70
0
 62
7
  6
CONTINUOUS
370
-3
390
F
  0
LAYER
  5
200
100
AcDbSymbolTableRecord
100
AcDbLayerTableRecord
  2
CURVE
 70
0
 62
7
  6
CONTINUOUS
370
-3
390
F
  0
LAYER
  5
201
100
AcDbSymbolTableRecord
100
AcDbLayerTableRecord
  2
INTFCLR_1091
 70
0
 62
7
  6
CONTINUOUS
370
-3
390
F
  0
LAYER
  5
202
100
AcDbSymbolTableRecord
100
AcDbLayerTableRecord
  2
INTFCLR_14682
 70
0
 62
7
  6
CONTINUOUS
370
-3
390
F
  0
LAYER
  5
203
100
AcDbSymbolTableRecord
100
AcDbLayerTableRecord
  2
INTFCLR_16367
 70
0
 62
7
  6
CONTINUOUS
370
-3
390
F
  0
LAYER
  5
204
100
AcDbSymbolTableRecord
100
AcDbLayerTableRecord
  2
INTFCLR_19717
 70
0
 62
7
  6
CONTINUOUS
370
-3
390
F
  0
LAYER
  5
205
100
AcDbSymbolTableRecord
100
AcDbLayerTableRecord
  2
INTFCLR_21422
 70
0
 62
7
  6
CONTINUOUS
370
-3
390
F
  0
LAYER
  5
206
100
AcDbSymbolTableRecord
100
AcDbLayerTableRecord
  2
INTFCLR_23160
 70
0
 62
7
  6
CONTINUOUS
370
-3
390
F
  0
LAYER
  5
207
100
AcDbSymbolTableRecord
100
AcDbLayerTableRecord
  2
INTFCLR_38495
 70
0
 62
7
  6
CONTINUOUS
370
-3
390
F
  0
LAYER
  5
208
100
AcDbSymbolTableRecord
100
AcDbLayerTableRecord
  2
INTFCLR_40183
 70
0
 62
7
  6
CONTINUOUS
370
-3
390
F
  0
LAYER
  5
209
100
AcDbSymbolTableRecord
100
AcDbLayerTableRecord
  2
INTFCLR_41847
 70
0
 62
7
  6
CONTINUOUS
370
-3
390
F
  0
LAYER
  5
20A
100
AcDbSymbolTableRecord
100
AcDbLayerTableRecord
  2
INTFCLR_43320
 70
0
 62
7
  6
CONTINUOUS
370
-3
390
F
  0
LAYER
  5
20B
100
AcDbSymbolTableRecord
100
AcDbLayerTableRecord
  2
INTFCLR_45217
 70
0
 62
7
  6
CONTINUOUS
370
-3
390
F
  0
LAYER
  5
20C
100
AcDbSymbolTableRecord
100
AcDbLayerTableRecord
  2
INTFCLR_46926
 70
0
 62
7
  6
CONTINUOUS
370
-3
390
F
  0
LAYER
  5
20D
100
AcDbSymbolTableRecord
100
AcDbLayerTableRecord
  2
INTFCLR_48550
 70
0
 62
7
  6
CONTINUOUS
370
-3
390
F
  0
LAYER
  5
20E
100
AcDbSymbolTableRecord
100
AcDbLayerTableRecord
  2
INTFCLR_51479
 70
0
 62
7
  6
CONTINUOUS
370
-3
390
F
  0
LAYER
  5
20F
100
AcDbSymbolTableRecord
100
AcDbLayerTableRecord
  2
INTFCLR_63744
 70
0
 62
7
  6
CONTINUOUS
370
-3
390
F
  0
LAYER
  5
210
100
AcDbSymbolTableRecord
100
AcDbLayerTableRecord
  2
INTFCLR_65423
 70
0
 62
7
  6
CONTINUOUS
370
-3
390
F
  0
LAYER
  5
211
100
AcDbSymbolTableRecord
100
AcDbLayerTableRecord
  2
INTFCLR_68828
 70
0
 62
7
  6
CONTINUOUS
370
-3
390
F
  0
LAYER
  5
212
100
AcDbSymbolTableRecord
100
AcDbLayerTableRecord
  2
INTFCLR_70481
 70
0
 62
7
  6
CONTINUOUS
370
-3
390
F
  0
LAYER
  5
213
100
AcDbSymbolTableRecord
100
AcDbLayerTableRecord
  2
INTFCLR_72157
 70
0
 62
7
  6
CONTINUOUS
370
-3
390
F
  0
LAYER
  5
214
100
AcDbSymbolTableRecord
100
AcDbLayerTableRecord
  2
INTFCLR_9102
 70
0
 62
7
  6
CONTINUOUS
370
-3
390
F
  0
LAYER
  5
215
100
AcDbSymbolTableRecord
100
AcDbLayerTableRecord
  2
NONE
 70
0
 62
7
  6
CONTINUOUS
370
-3
390
F
  0
LAYER
  5
216
100
AcDbSymbolTableRecord
100
AcDbLayerTableRecord
  2
NOTE
 70
0
 62
7
  6
CONTINUOUS
370
-3
390
F
  0
LAYER
  5
217
100
AcDbSymbolTableRecord
100
AcDbLayerTableRecord
  2
PIANI
 70
0
 62
7
  6
CONTINUOUS
370
-3
390
F
  0
LAYER
  5
218
100
AcDbSymbolTableRecord
100
AcDbLayerTableRecord
  2
PUNTI
 70
0
 62
7
  6
CONTINUOUS
370
-3
390
F
  0
LAYER
  5
219
100
AcDbSymbolTableRecord
100
AcDbLayerTableRecord
  2
SIMBOLI
 70
0
 62
7
  6
CONTINUOUS
370
-3
390
F
  0
LAYER
  5
21A
100
AcDbSymbolTableRecord
100
AcDbLayerTableRecord
  2
SNAPLINE
 70
0
 62
7
  6
CONTINUOUS
370
-3
390
F
  0
LAYER
  5
21B
100
AcDbSymbolTableRecord
100
AcDbLayerTableRecord
  2
SUPERFICI
 70
0
 62
7
  6
CONTINUOUS
370
-3
390
F
  0
LAYER
  5
21C
100
AcDbSymbolTableRecord
100
AcDbLayerTableRecord
  2
_12283
 70
0
 62
7
  6
CONTINUOUS
370
-3
390
F
  0
LAYER
  5
21D
100
AcDbSymbolTableRecord
100
AcDbLayerTableRecord
  2
_12880
 70
0
 62
7
  6
CONTINUOUS
370
-3
390
F
  0
LAYER
  5
21E
100
AcDbSymbolTableRecord
100
AcDbLayerTableRecord
  2
_14133
 70
0
 62
7
  6
CONTINUOUS
370
-3
390
F
  0
LAYER
  5
21F
100
AcDbSymbolTableRecord
100
AcDbLayerTableRecord
  2
_1568
 70
0
 62
7
  6
CONTINUOUS
370
-3
390
F
  0
LAYER
  5
220
100
AcDbSymbolTableRecord
100
AcDbLayerTableRecord
  2
_18940
 70
0
 62
7
  6
CONTINUOUS
370
-3
390
F
  0
LAYER
  5
221
100
AcDbSymbolTableRecord
100
AcDbLayerTableRecord
  2
_19205
 70
0
 62
7
  6
CONTINUOUS
370
-3
390
F
  0
LAYER
  5
222
100
AcDbSymbolTableRecord
100
AcDbLayerTableRecord
  2
_19569
 70
0
 62
7
  6
CONTINUOUS
370
-3
390
F
  0
LAYER
  5
223
100
AcDbSymbolTableRecord
100
AcDbLayerTableRecord
  2
_19718
 70
0
 62
7
  6
CONTINUOUS
370
-3
390
F
  0
LAYER
  5
224
100
AcDbSymbolTableRecord
100
AcDbLayerTableRecord
  2
_20634
 70
0
 62
7
  6
CONTINUOUS
370
-3
390
F
  0
LAYER
  5
225
100
AcDbSymbolTableRecord
100
AcDbLayerTableRecord
  2
_20814
 70
0
 62
7
  6
CONTINUOUS
370
-3
390
F
  0
LAYER
  5
226
100
AcDbSymbolTableRecord
100
AcDbLayerTableRecord
  2
_20968
 70
0
 62
7
  6
CONTINUOUS
370
-3
390
F
  0
LAYER
  5
227
100
AcDbSymbolTableRecord
100
AcDbLayerTableRecord
  2
_21039
 70
0
 62
7
  6
CONTINUOUS
370
-3
390
F
  0
LAYER
  5
228
100
AcDbSymbolTableRecord
100
AcDbLayerTableRecord
  2
_25508
 70
0
 62
7
  6
CONTINUOUS
370
-3
390
F
  0
LAYER
  5
229
100
AcDbSymbolTableRecord
100
AcDbLayerTableRecord
  2
_26495
 70
0
 62
7
  6
CONTINUOUS
370
-3
390
F
  0
LAYER
  5
22A
100
AcDbSymbolTableRecord
100
AcDbLayerTableRecord
  2
_2655
 70
0
 62
7
  6
CONTINUOUS
370
-3
390
F
  0
LAYER
  5
22B
100
AcDbSymbolTableRecord
100
AcDbLayerTableRecord
  2
_29304
 70
0
 62
7
  6
CONTINUOUS
370
-3
390
F
  0
LAYER
  5
22C
100
AcDbSymbolTableRecord
100
AcDbLayerTableRecord
  2
_33869
 70
0
 62
7
  6
CONTINUOUS
370
-3
390
F
  0
LAYER
  5
22D
100
AcDbSymbolTableRecord
100
AcDbLayerTableRecord
  2
_34640
 70
0
 62
7
  6
CONTINUOUS
370
-3
390
F
  0
LAYER
  5
22E
100
AcDbSymbolTableRecord
100
AcDbLayerTableRecord
  2
_4261
 70
0
 62
7
  6
CONTINUOUS
370
-3
390
F
  0
LAYER
  5
22F
100
AcDbSymbolTableRecord
100
AcDbLayerTableRecord
  2
_45763
 70
0
 62
7
  6
CONTINUOUS
370
-3
390
F
  0
LAYER
  5
230
100
AcDbSymbolTableRecord
100
AcDbLayerTableRecord
  2
_46698
 70
0
 62
7
  6
CONTINUOUS
370
-3
390
F
  0
LAYER
  5
231
100
AcDbSymbolTableRecord
100
AcDbLayerTableRecord
  2
_47310
 70
0
 62
7
  6
CONTINUOUS
370
-3
390
F
  0
LAYER
  5
232
100
AcDbSymbolTableRecord
100
AcDbLayerTableRecord
  2
_48104
 70
0
 62
7
  6
CONTINUOUS
370
-3
390
F
  0
LAYER
  5
233
100
AcDbSymbolTableRecord
100
AcDbLayerTableRecord
  2
_48796
 70
0
 62
7
  6
CONTINUOUS
370
-3
390
F
  0
LAYER
  5
234
100
AcDbSymbolTableRecord
100
AcDbLayerTableRecord
  2
_49094
 70
0
 62
7
  6
CONTINUOUS
370
-3
390
F
  0
LAYER
  5
235
100
AcDbSymbolTableRecord
100
AcDbLayerTableRecord
  2
_5212
 70
0
 62
7
  6
CONTINUOUS
370
-3
390
F
  0
LAYER
  5
236
100
AcDbSymbolTableRecord
100
AcDbLayerTableRecord
  2
_52428
 70
0
 62
7
  6
CONTINUOUS
370
-3
390
F
  0
LAYER
  5
237
100
AcDbSymbolTableRecord
100
AcDbLayerTableRecord
  2
_55702
 70
0
 62
7
  6
CONTINUOUS
370
-3
390
F
  0
LAYER
  5
238
100
AcDbSymbolTableRecord
100
AcDbLayerTableRecord
  2
_59266
 70
0
 62
7
  6
CONTINUOUS
370
-3
390
F
  0
LAYER
  5
239
100
AcDbSymbolTableRecord
100
AcDbLayerTableRecord
  2
_59927
 70
0
 62
7
  6
CONTINUOUS
370
-3
390
F
  0
LAYER
  5
23A
100
AcDbSymbolTableRecord
100
AcDbLayerTableRecord
  2
_62068
 70
0
 62
7
  6
CONTINUOUS
370
-3
390
F
  0
LAYER
  5
23B
100
AcDbSymbolTableRecord
100
AcDbLayerTableRecord
  2
_6518
 70
0
 62
7
  6
CONTINUOUS
370
-3
390
F
  0
LAYER
  5
23C
100
AcDbSymbolTableRecord
100
AcDbLayerTableRecord
  2
_72293
 70
0
 62
7
  6
CONTINUOUS
370
-3
390
F
  0
ENDTAB
  0
TABLE
  2
STYLE
  5
3
100
AcDbSymbolTable
 70
1
  0
STYLE
  5
11
100
AcDbSymbolTableRecord
100
AcDbTextStyleTableRecord
  2
STANDARD
 70
0
 40
0.0
 41
0.8
 50
0.0
 71
0
 42
0.2
  3
txt
  4

  0
STYLE
  5
23D
100
AcDbSymbolTableRecord
100
AcDbTextStyleTableRecord
  2
TEXTSTYLE_1
 70
0
 40
0.0
 41
0.8
 50
0.0
 71
0
 42
0.2
  3
gdt
  4

  0
ENDTAB
  0
TABLE
  2
VIEW
  5
6
100
AcDbSymbolTable
 70
0
  0
ENDTAB
  0
TABLE
  2
UCS
  5
7
100
AcDbSymbolTable
 70
0
  0
ENDTAB
  0
TABLE
  2
APPID
  5
9
100
AcDbSymbolTable
 70
1
  0
APPID
  5
23E
100
AcDbSymbolTableRecord
100
AcDbRegAppTableRecord
  2
ACAD
 70
0
  0
ENDTAB
  0
TABLE
  2
BLOCK_RECORD
  5
1
100
AcDbSymbolTable
 70
0
  0
BLOCK_RECORD
  5
23F
100
AcDbSymbolTableRecord
100
AcDbBlockTableRecord
  2
*Model_Space
  0
BLOCK_RECORD
  5
240
100
AcDbSymbolTableRecord
100
AcDbBlockTableRecord
  2
*Paper_Space
  0
BLOCK_RECORD
  5
241
100
AcDbSymbolTableRecord
100
AcDbBlockTableRecord
  2
_FILLED
  0
BLOCK_RECORD
  5
242
100
AcDbSymbolTableRecord
100
AcDbBlockTableRecord
  2
*D0
  0
BLOCK_RECORD
  5
243
100
AcDbSymbolTableRecord
100
AcDbBlockTableRecord
  2
*D1
  0
BLOCK_RECORD
  5
244
100
AcDbSymbolTableRecord
100
AcDbBlockTableRecord
  2
*D2
  0
ENDTAB
  0
TABLE
  2
DIMSTYLE
  5
A
100
AcDbSymbolTable
 70
1
100
AcDbDimStyleTable
 71
0
  0
DIMSTYLE
105
245
100
AcDbSymbolTableRecord
100
AcDbDimStyleTableRecord
  2
STANDARD
 70
0
  3

  4

 40
1.0
 41
3.0
 42
0.5
 43
0.38
 44
1.5
 45
0.0
 46
0.0
 47
0.01
 48
0.01
140
3.0
141
0.09
142
0.0
143
25.4
144
1.0
145
0.0
146
1.0
147
0.625
 71
1.0
 72
0.0
 73
0
 74
0
 75
0
 76
0
 77
1
 78
8
170
0
171
2
172
0
173
0
174
0
175
0
176
0
177
0
178
0
270
2
271
2
272
2
273
2
274
2
275
0
280
0
281
0
282
0
283
1
284
8
285
0
286
0
287
3
288
0
340
11
278
44
341
241
342
241
343
241
344
241
  0
DIMSTYLE
105
246
100
AcDbSymbolTableRecord
100
AcDbDimStyleTableRecord
  2
DIMSTYLE_1
 70
0
  3

  4

 40
1.0
 41
3.0
 42
0.5
 43
0.38
 44
1.5
 45
0.0
 46
0.0
 47
0.0
 48
0.0
140
3.0
141
0.09
142
0.0
143
25.4
144
1.0
145
0.0
146
1.0
147
0.75
 71
0.0
 72
0.0
 73
0
 74
0
 75
0
 76
0
 77
1
 78
8
170
0
171
2
172
0
173
0
174
0
175
0
176
0
177
0
178
0
270
2
271
2
272
2
273
2
274
2
275
0
280
0
281
0
282
0
283
1
284
8
285
0
286
0
287
3
288
0
340
11
278
44
341
241
342
241
343
241
344
241
  0
DIMSTYLE
105
247
100
AcDbSymbolTableRecord
100
AcDbDimStyleTableRecord
  2
DIMSTYLE_2
 70
0
  3

  4

 40
1.0
 41
3.0
 42
0.5
 43
0.38
 44
1.5
 45
0.0
 46
0.0
 47
0.0
 48
0.0
140
3.0
141
0.09
142
0.0
143
25.4
144
1.0
145
0.0
146
1.0
147
0.75
 71
0.0
 72
0.0
 73
0
 74
0
 75
0
 76
0
 77
1
 78
8
170
0
171
2
172
0
173
0
174
0
175
0
176
0
177
0
178
0
270
2
271
1
272
1
273
2
274
2
275
0
280
0
281
0
282
0
283
1
284
8
285
0
286
0
287
3
288
0
340
11
278
44
341
241
342
241
343
241
344
241
  0
ENDTAB
  0
ENDSEC
  0
SECTION
  2
BLOCKS
  0
BLOCK
  5
20
100
AcDbEntity
  8
0
100
AcDbBlockBegin
  2
*Model_Space
 70
0
 10
0.0
 20
0.0
 30
0.0
  3
*Model_Space
  1

  0
ENDBLK
  5
21
100
AcDbEntity
  8
0
100
AcDbBlockEnd
  0
BLOCK
  5
1C
100
AcDbEntity
  8
0
100
AcDbBlockBegin
  2
*Paper_Space
 70
0
 10
0.0
 20
0.0
 30
0.0
  3
*Paper_Space
  1

  0
ENDBLK
  5
1D
100
AcDbEntity
  8
0
100
AcDbBlockEnd
  0
BLOCK
  5
248
100
AcDbEntity
  8
0
100
AcDbBlockBegin
  2
_FILLED
 70
64
 10
0.0
 20
0.0
  3
_FILLED
  1

  0
SOLID
  5
249
100
AcDbEntity
  8
0
  6
BYBLOCK
 62
0
100
AcDbTrace
 10
0.0
 20
0.0
 11
-1.0
 21
0.3166666667
 12
-1.0
 22
-0.3166666667
 13
-1.0
 23
-0.3166666667
  0
ENDBLK
  5
24A
100
AcDbEntity
  8
0
  6
BYBLOCK
 62
0
100
AcDbBlockEnd
  0
BLOCK
  5
24B
100
AcDbEntity
  8
0
100
AcDbBlockBegin
 62
7
  6
CONTINUOUS
  2
*D0
 70
65
 10
0.0
 20
0.0
  3
*D0
  1

  0
MTEXT
  5
24C
100
AcDbEntity
  8
0
100
AcDbMText
 62
7
  6
CONTINUOUS
  7
STANDARD
 71
2
 72
1
 10
-119.881063104
 20
89.6902998094
 30
0.0
 11
1.0
 21
0.0
 31
0.0
 44
0.9
  1
103
 40
3.0
 41
9.3214285714
  0
LINE
  5
24D
100
AcDbEntity
  8
0
100
AcDbLine
 62
7
  6
CONTINUOUS
 10
-68.381063104
 20
52.0567722369
 11
-68.381063104
 21
87.4402998094
  0
LINE
  5
24E
100
AcDbEntity
  8
0
100
AcDbLine
 62
7
  6
CONTINUOUS
 10
-171.381063104
 20
78.4402998094
 11
-171.381063104
 21
87.4402998094
  0
LINE
  5
24F
100
AcDbEntity
  8
0
100
AcDbLine
 62
7
  6
CONTINUOUS
 10
-68.381063104
 20
85.9402998094
 11
-119.881063104
 21
85.9402998094
  0
LINE
  5
250
100
AcDbEntity
  8
0
100
AcDbLine
 62
7
  6
CONTINUOUS
 10
-171.381063104
 20
85.9402998094
 11
-119.881063104
 21
85.9402998094
  0
INSERT
  5
251
100
AcDbEntity
  8
0
100
AcDbBlockReference
 62
7
  6
CONTINUOUS
  2
_FILLED
 10
-68.381063104
 20
85.9402998094
 41
3.0
 42
3.0
 43
3.0
  0
INSERT
  5
252
100
AcDbEntity
  8
0
100
AcDbBlockReference
 62
7
  6
CONTINUOUS
  2
_FILLED
 10
-171.381063104
 20
85.9402998094
 41
3.0
 42
3.0
 43
3.0
 50
180.0
  0
ENDBLK
  5
253
100
AcDbEntity
  8
0
  6
BYBLOCK
 62
0
100
AcDbBlockEnd
  0
BLOCK
  5
254
100
AcDbEntity
  8
0
100
AcDbBlockBegin
 62
7
  6
CONTINUOUS
  2
*D1
 70
65
 10
0.0
 20
0.0
  3
*D1
  1

  0
MTEXT
  5
255
100
AcDbEntity
  8
0
100
AcDbMText
 62
7
  6
CONTINUOUS
  7
STANDARD
 71
2
 72
1
 10
-0.1670856453
 20
89.6902998094
 30
0.0
 11
1.0
 21
0.0
 31
0.0
 44
0.9
  1
71,5
 40
3.0
 41
11.8928571429
  0
LINE
  5
256
100
AcDbEntity
  8
0
100
AcDbLine
 62
7
  6
CONTINUOUS
 10
-35.8952400758
 20
56.667972034
 11
-35.8952400758
 21
87.4402998094
  0
LINE
  5
257
100
AcDbEntity
  8
0
100
AcDbLine
 62
7
  6
CONTINUOUS
 10
35.5610687853
 20
56.6679720341
 11
35.5610687853
 21
87.4402998094
  0
LINE
  5
258
100
AcDbEntity
  8
0
100
AcDbLine
 62
7
  6
CONTINUOUS
 10
-35.8952400758
 20
85.9402998094
 11
-0.1670856453
 21
85.9402998094
  0
LINE
  5
259
100
AcDbEntity
  8
0
100
AcDbLine
 62
7
  6
CONTINUOUS
 10
35.5610687853
 20
85.9402998094
 11
-0.1670856453
 21
85.9402998094
  0
INSERT
  5
25A
100
AcDbEntity
  8
0
100
AcDbBlockReference
 62
7
  6
CONTINUOUS
  2
_FILLED
 10
-35.8952400758
 20
85.9402998094
 41
3.0
 42
3.0
 43
3.0
 50
180.0
  0
INSERT
  5
25B
100
AcDbEntity
  8
0
100
AcDbBlockReference
 62
7
  6
CONTINUOUS
  2
_FILLED
 10
35.5610687853
 20
85.9402998094
 41
3.0
 42
3.0
 43
3.0
  0
ENDBLK
  5
25C
100
AcDbEntity
  8
0
  6
BYBLOCK
 62
0
100
AcDbBlockEnd
  0
BLOCK
  5
25D
100
AcDbEntity
  8
0
100
AcDbBlockBegin
 62
7
  6
CONTINUOUS
  2
*D2
 70
65
 10
0.0
 20
0.0
  3
*D2
  1

  0
MTEXT
  5
25E
100
AcDbEntity
  8
0
100
AcDbMText
 62
7
  6
CONTINUOUS
  7
STANDARD
 71
2
 72
1
 10
39.8110687853
 20
0.0762093984
 30
0.0
 11
0.0
 21
1.0
 31
0.0
 44
0.9
  1
155,7
 40
3.0
 41
15.1071428571
  0
LINE
  5
25F
100
AcDbEntity
  8
0
100
AcDbLine
 62
7
  6
CONTINUOUS
 10
14.2548410608
 20
77.9402998094
 11
45.0610687853
 21
77.9402998094
  0
LINE
  5
260
100
AcDbEntity
  8
0
100
AcDbLine
 62
7
  6
CONTINUOUS
 10
14.3329143547
 20
-77.7878810126
 11
45.0610687853
 21
-77.7878810126
  0
LINE
  5
261
100
AcDbEntity
  8
0
100
AcDbLine
 62
7
  6
CONTINUOUS
 10
43.5610687853
 20
77.9402998094
 11
43.5610687853
 21
0.0762093984
  0
LINE
  5
262
100
AcDbEntity
  8
0
100
AcDbLine
 62
7
  6
CONTINUOUS
 10
43.5610687853
 20
-77.7878810126
 11
43.5610687853
 21
0.0762093984
  0
INSERT
  5
263
100
AcDbEntity
  8
0
100
AcDbBlockReference
 62
7
  6
CONTINUOUS
  2
_FILLED
 10
43.5610687853
 20
77.9402998094
 41
3.0
 42
3.0
 43
3.0
 50
90.0
  0
INSERT
  5
264
100
AcDbEntity
  8
0
100
AcDbBlockReference
 62
7
  6
CONTINUOUS
  2
_FILLED
 10
43.5610687853
 20
-77.7878810126
 41
3.0
 42
3.0
 43
3.0
 50
270.0
  0
ENDBLK
  5
265
100
AcDbEntity
  8
0
  6
BYBLOCK
 62
0
100
AcDbBlockEnd
  0
ENDSEC
  0
SECTION
  2
ENTITIES
  0
DIMENSION
  5
266
100
AcDbEntity
  8
0
100
AcDbDimension
 62
7
  6
CONTINUOUS
  2
*D0
 10
-171.381063104
 20
85.9402998094
 11
-120.3096351929
 21
85.9402998094
 70
160
 71
2
 42
103.0
  3
DIMSTYLE_1
100
AcDbAlignedDimension
 13
-68.381063104
 23
51.5567722369
 14
-171.381063104
 24
77.9402998094
 50
180.0
100
AcDbRotatedDimension
  0
DIMENSION
  5
267
100
AcDbEntity
  8
0
100
AcDbDimension
 62
7
  6
CONTINUOUS
  2
*D1
 10
35.5610687853
 20
85.9402998094
 11
-0.5956571031
 21
85.9402998094
 70
160
 71
2
 42
71.4563088611
  3
DIMSTYLE_2
100
AcDbAlignedDimension
 13
-35.8952400758
 23
56.167972034
 14
35.5610687853
 24
56.1679720341
100
AcDbRotatedDimension
  0
DIMENSION
  5
268
100
AcDbEntity
  8
0
100
AcDbDimension
 62
7
  6
CONTINUOUS
  2
*D2
 10
43.5610687853
 20
-77.7878810126
 11
43.5610687853
 21
-0.352361522
 70
160
 71
2
 42
155.728180822
  3
DIMSTYLE_2
100
AcDbAlignedDimension
 13
13.7548410608
 23
77.9402998094
 14
13.8329143547
 24
-77.7878810126
 50
270.0
100
AcDbRotatedDimension
  0
LINE
  5
269
100
AcDbEntity
  8
_14133
100
AcDbLine
 62
7
  6
CONTINUOUS
 10
-14.1670856453
 20
-77.7878810126
 11
13.8329143547
 21
-77.7878810126
  0
LWPOLYLINE
  5
26A
100
AcDbEntity
  8
_14133
100
AcDbPolyline
 62
7
  6
CONTINUOUS
 90
25
 70
0
 10
-14.1670856453
 20
-77.7878810126
 10
-14.9593892902
 20
-77.7610030442
 10
-15.7412375513
 20
-77.6838466855
 10
-16.5126304284
 20
-77.5564119364
 10
-17.2767085589
 20
-77.3776716344
 10
-18.0303313054
 20
-77.148652942
 10
-18.7640767563
 20
-76.872437347
 10
-19.4776880068
 20
-76.5484628643
 10
-20.1714219616
 20
-76.177291479
 10
-20.8366274232
 20
-75.7636906338
 10
-21.4729563006
 20
-75.3071506372
 10
-22.0807566848
 20
-74.8081811807
 10
-22.6524216515
 20
-74.273078782
 10
-23.1875139192
 20
-73.7014063126
 10
-23.6864707693
 20
-73.0936009009
 10
-24.1429971227
 20
-72.4572704502
 10
-24.5565831892
 20
-71.7920670654
 10
-24.927738759
 20
-71.0983386416
 10
-25.2516981229
 20
-70.3847367663
 10
-25.5278992637
 20
-69.6510047539
 10
-25.7569041987
 20
-68.8973992901
 10
-25.9356332701
 20
-68.1333420196
 10
-26.0630599254
 20
-67.3619734906
 10
-26.1402107171
 20
-66.580153155
 10
-26.1670856453
 20
-65.7878810126
  0
LWPOLYLINE
  5
26B
100
AcDbEntity
  8
_14133
100
AcDbPolyline
 62
253
  6
CONTINUOUS
 90
16
 70
0
 10
13.8329143547
 20
-69.0711713604
 10
13.9454402441
 20
-69.0647456662
 10
14.0545379064
 20
-69.0469603992
 10
14.1602073415
 20
-69.0178152461
 10
14.2635181803
 20
-68.9768241022
 10
14.363400792
 20
-68.9244718193
 10
14.4566462843
 20
-68.8622143374
 10
14.5431170264
 20
-68.7897031634
 10
14.6229506491
 20
-68.7072847044
 10
14.693351152
 20
-68.6174574593
 10
14.7540589536
 20
-68.5200808909
 10
14.8053336354
 20
-68.415293395
 10
14.845157942
 20
-68.3060125327
 10
14.8728594547
 20
-68.1932105304
 10
14.8891105922
 20
-68.0759137589
 10
14.8939113544
 20
-67.9541214218
  0
LINE
  5
26C
100
AcDbEntity
  8
_62068
100
AcDbLine
 62
7
  6
CONTINUOUS
 10
0.0312853237
 20
-69.285261183
 11
0.0879143547
 21
-69.2835506465
  0
LINE
  5
26D
100
AcDbEntity
  8
_62068
100
AcDbLine
 62
7
  6
CONTINUOUS
 10
-0.0253698658
 20
-69.2865442369
 11
0.0312853237
 21
-69.285261183
  0
LINE
  5
26E
100
AcDbEntity
  8
_62068
100
AcDbLine
 62
7
  6
CONTINUOUS
 10
-0.0820480623
 20
-69.2873997545
 11
-0.0253698658
 21
-69.2865442369
  0
LINE
  5
26F
100
AcDbEntity
  8
_62068
100
AcDbLine
 62
7
  6
CONTINUOUS
 10
-0.138736659
 20
-69.2878275219
 11
-0.0820480623
 21
-69.2873997545
  0
LINE
  5
270
100
AcDbEntity
  8
_14133
100
AcDbLine
 62
253
  6
CONTINUOUS
 10
13.8329143547
 20
-69.0711713604
 11
3.2640057974
 21
-69.0711713604
  0
LINE
  5
271
100
AcDbEntity
  8
_14133
100
AcDbLine
 62
253
  6
CONTINUOUS
 10
-3.5981770879
 20
-69.0711713604
 11
-14.1670856453
 21
-69.0711713604
  0
LINE
  5
272
100
AcDbEntity
  8
_62068
100
AcDbLine
 62
7
  6
CONTINUOUS
 10
1.3285839887
 20
-68.0428810126
 11
-1.6627552792
 21
-68.0428810126
  0
LINE
  5
273
100
AcDbEntity
  8
_62068
100
AcDbLine
 62
7
  6
CONTINUOUS
 10
-0.1954346316
 20
-69.2878275219
 11
-0.138736659
 21
-69.2878275219
  0
LINE
  5
274
100
AcDbEntity
  8
_62068
100
AcDbLine
 62
7
  6
CONTINUOUS
 10
-0.2521232282
 20
-69.2873997545
 11
-0.1954346316
 21
-69.2878275219
  0
LINE
  5
275
100
AcDbEntity
  8
_62068
100
AcDbLine
 62
7
  6
CONTINUOUS
 10
-0.3088014247
 20
-69.2865442369
 11
-0.2521232282
 21
-69.2873997545
  0
LINE
  5
276
100
AcDbEntity
  8
_62068
100
AcDbLine
 62
7
  6
CONTINUOUS
 10
-0.3654566143
 20
-69.285261183
 11
-0.3088014247
 21
-69.2865442369
  0
LINE
  5
277
100
AcDbEntity
  8
_62068
100
AcDbLine
 62
7
  6
CONTINUOUS
 10
-0.4220856453
 20
-69.2835506465
 11
-0.3654566143
 21
-69.285261183
  0
LINE
  5
278
100
AcDbEntity
  8
_62068
100
AcDbLine
 62
7
  6
CONTINUOUS
 10
-0.3654566143
 20
-66.2905008422
 11
-0.4220856453
 21
-66.2922113787
  0
LINE
  5
279
100
AcDbEntity
  8
_62068
100
AcDbLine
 62
7
  6
CONTINUOUS
 10
-0.3088014247
 20
-66.2892177884
 11
-0.3654566143
 21
-66.2905008422
  0
LINE
  5
27A
100
AcDbEntity
  8
_62068
100
AcDbLine
 62
7
  6
CONTINUOUS
 10
-0.2521232282
 20
-66.2883622707
 11
-0.3088014247
 21
-66.2892177884
  0
LINE
  5
27B
100
AcDbEntity
  8
_62068
100
AcDbLine
 62
7
  6
CONTINUOUS
 10
-0.1954346316
 20
-66.2879345033
 11
-0.2521232282
 21
-66.2883622707
  0
LINE
  5
27C
100
AcDbEntity
  8
_62068
100
AcDbLine
 62
7
  6
CONTINUOUS
 10
1.3285839887
 20
-67.5328810126
 11
-1.6627552792
 21
-67.5328810126
  0
LINE
  5
27D
100
AcDbEntity
  8
_55702
100
AcDbLine
 62
7
  6
CONTINUOUS
 10
-31.1794203514
 20
-66.7157787414
 11
-28.0402174152
 21
-66.7157787414
  0
LINE
  5
27E
100
AcDbEntity
  8
_55702
100
AcDbLine
 62
7
  6
CONTINUOUS
 10
27.7060461247
 20
-66.7157787414
 11
30.8452490609
 21
-66.7157787414
  0
LINE
  5
27F
100
AcDbEntity
  8
_55702
100
AcDbLine
 62
253
  6
CONTINUOUS
 10
30.9128087611
 20
-65.399819028
 11
27.9035774732
 21
-65.399819028
  0
LINE
  5
280
100
AcDbEntity
  8
_55702
100
AcDbLine
 62
253
  6
CONTINUOUS
 10
-28.2377487638
 20
-65.399819028
 11
-31.2469800516
 21
-65.399819028
  0
LINE
  5
281
100
AcDbEntity
  8
_55702
100
AcDbLine
 62
7
  6
CONTINUOUS
 10
26.2465786414
 20
-65.2673278173
 11
25.8329143547
 21
-65.2673278173
  0
LINE
  5
282
100
AcDbEntity
  8
_55702
100
AcDbLine
 62
7
  6
CONTINUOUS
 10
-26.1670856453
 20
-65.2673278173
 11
-26.580749932
 21
-65.2673278173
  0
LINE
  5
283
100
AcDbEntity
  8
_62068
100
AcDbLine
 62
7
  6
CONTINUOUS
 10
-0.138736659
 20
-66.2879345033
 11
-0.1954346316
 21
-66.2879345033
  0
LWPOLYLINE
  5
284
100
AcDbEntity
  8
_14133
100
AcDbPolyline
 62
253
  6
CONTINUOUS
 90
25
 70
0
 10
-15.1687619384
 20
-62.8444585356
 10
-15.8765790122
 20
-62.8380218012
 10
-16.5820616
 20
-62.8231962775
 10
-17.2802568628
 20
-62.8001010734
 10
-17.9643614499
 20
-62.76908662
 10
-18.6317735149
 20
-62.730472076
 10
-19.2841438785
 20
-62.6842871578
 10
-19.9161829186
 20
-62.6310100247
 10
-20.5255022437
 20
-62.5710108018
 10
-21.1178571862
 20
-62.5037224769
 10
-21.6910038872
 20
-62.4292004762
 10
-22.2395157255
 20
-62.347998291
 10
-22.7634622606
 20
-62.2599428889
 10
-23.2588707922
 20
-62.1654874986
 10
-23.722439347
 20
-62.0651053376
 10
-24.15426288
 20
-61.9585267867
 10
-24.5510212807
 20
-61.8462024955
 10
-24.9089248151
 20
-61.7289071814
 10
-25.2264804319
 20
-61.6068287964
 10
-25.500924899
 20
-61.4806810143
 10
-25.7297387335
 20
-61.3514025588
 10
-25.9116848928
 20
-61.2195741692
 10
-26.045553035
 20
-61.0860362252
 10
-26.1306196061
 20
-60.9518692379
 10
-26.1670856453
 20
-60.8180347754
  0
LINE
  5
285
100
AcDbEntity
  8
_62068
100
AcDbLine
 62
7
  6
CONTINUOUS
 10
-0.0820480623
 20
-66.2883622707
 11
-0.138736659
 21
-66.2879345033
  0
LINE
  5
286
100
AcDbEntity
  8
_62068
100
AcDbLine
 62
7
  6
CONTINUOUS
 10
-0.0253698658
 20
-66.2892177884
 11
-0.0820480623
 21
-66.2883622707
  0
LINE
  5
287
100
AcDbEntity
  8
_62068
100
AcDbLine
 62
7
  6
CONTINUOUS
 10
0.0312853237
 20
-66.2905008422
 11
-0.0253698658
 21
-66.2892177884
  0
LINE
  5
288
100
AcDbEntity
  8
_62068
100
AcDbLine
 62
7
  6
CONTINUOUS
 10
0.0879143547
 20
-66.2922113787
 11
0.0312853237
 21
-66.2905008422
  0
LWPOLYLINE
  5
289
100
AcDbEntity
  8
_14133
100
AcDbPolyline
 62
253
  6
CONTINUOUS
 90
25
 70
0
 10
-26.1670856453
 20
-65.7878810126
 10
-26.0778550341
 20
-65.9203561118
 10
-25.9483419912
 20
-66.0524286452
 10
-25.7794194494
 20
-66.1832808906
 10
-25.5730553804
 20
-66.3117978423
 10
-25.3308088607
 20
-66.4375336283
 10
-25.0527716037
 20
-66.5607191626
 10
-24.7414865186
 20
-66.680437844
 10
-24.3987034456
 20
-66.7963049979
 10
-24.0214904405
 20
-66.9093122124
 10
-23.6102409647
 20
-67.0190849359
 10
-23.1677773829
 20
-67.1246961922
 10
-22.6933089967
 20
-67.2261695658
 10
-22.1890239942
 20
-67.3228409365
 10
-21.6572888779
 20
-67.4141282072
 10
-21.0970849912
 20
-67.5000343897
 10
-20.5107473237
 20
-67.5799840948
 10
-19.9017954293
 20
-67.653345598
 10
-19.2708748591
 20
-67.719899472
 10
-18.6210247293
 20
-67.7791737019
 10
-17.9567505921
 20
-67.8306711052
 10
-17.2811185134
 20
-67.8741219861
 10
-16.5980567375
 20
-67.9092762427
 10
-15.9122734786
 20
-67.9359555315
 10
-15.2280835425
 20
-67.9541214035
  0
LWPOLYLINE
  5
28A
100
AcDbEntity
  8
_14133
100
AcDbPolyline
 62
7
  6
CONTINUOUS
 90
5
 70
0
 10
10.8329143547
 20
-53.3878810126
 10
10.9249456712
 20
-53.3834822966
 10
11.0146905411
 20
-53.3711937215
 10
11.1021489643
 20
-53.3510151667
 10
11.1879653372
 20
-53.3226274518
  0
LINE
  5
28B
100
AcDbEntity
  8
_14133
100
AcDbLine
 62
253
  6
CONTINUOUS
 10
-13.7709118123
 20
-52.672234041
 11
-13.9670856453
 21
-52.6739379841
  0
LINE
  5
28C
100
AcDbEntity
  8
_14133
100
AcDbLine
 62
253
  6
CONTINUOUS
 10
-11.1670856453
 20
-55.483982725
 11
10.8329143547
 21
-55.483982725
  0
LINE
  5
28D
100
AcDbEntity
  8
_14133
100
AcDbLine
 62
7
  6
CONTINUOUS
 10
10.8329143547
 20
-53.3878810126
 11
-11.1670856453
 21
-53.3878810126
  0
LINE
  5
28E
100
AcDbEntity
  8
_48104
100
AcDbLine
 62
7
  6
CONTINUOUS
 10
-11.5736550489
 20
-53.2994753015
 11
11.2412727956
 21
-53.2994753015
  0
LWPOLYLINE
  5
28F
100
AcDbEntity
  8
_14133
100
AcDbPolyline
 62
253
  6
CONTINUOUS
 90
3
 70
0
 10
13.6329143547
 20
-52.6739379841
 10
13.443388014
 20
-52.6723478805
 10
13.257924218
 20
-52.6676616224
  0
LWPOLYLINE
  5
290
100
AcDbEntity
  8
_14133
100
AcDbPolyline
 62
253
  6
CONTINUOUS
 90
9
 70
0
 10
13.257924218
 20
-52.6676616224
 10
13.0784441051
 20
-52.6600280981
 10
12.9077465431
 20
-52.6496965919
 10
12.7462560642
 20
-52.6368257176
 10
12.5925311892
 20
-52.6213159128
 10
12.4475877883
 20
-52.6031582818
 10
12.3141332509
 20
-52.5825710887
 10
12.1937293566
 20
-52.559687754
 10
12.0879784478
 20
-52.5346717303
  0
LWPOLYLINE
  5
291
100
AcDbEntity
  8
_14133
100
AcDbPolyline
 62
253
  6
CONTINUOUS
 90
10
 70
0
 10
-11.1670856453
 20
-55.483982725
 10
-11.4239430929
 20
-55.4717016948
 10
-11.674649531
 20
-55.4373904772
 10
-11.9192049595
 20
-55.3810481107
 10
-12.1594716631
 20
-55.3019224244
 10
-12.3935873572
 20
-55.2007617582
 10
-12.6159651879
 20
-55.0798152855
 10
-12.8247428706
 20
-54.9398306972
 10
-13.0217826899
 20
-54.780053886
 10
-13.2070846458
 20
-54.6004808939
  0
LWPOLYLINE
  5
292
100
AcDbEntity
  8
_14133
100
AcDbPolyline
 62
7
  6
CONTINUOUS
 90
6
 70
0
 10
-11.6049811473
 20
-53.2859238632
 10
-11.5214555351
 20
-53.3220564246
 10
-11.4357101836
 20
-53.3504029546
 10
-11.3483884103
 20
-53.3706811557
 10
-11.2588468975
 20
-53.3831738014
 10
-11.1670856453
 20
-53.3878810126
  0
LWPOLYLINE
  5
293
100
AcDbEntity
  8
_14133
100
AcDbPolyline
 62
253
  6
CONTINUOUS
 90
10
 70
0
 10
-12.4006128316
 20
-52.5287892267
 10
-12.4982075466
 20
-52.5532192668
 10
-12.6124635833
 20
-52.5762537503
 10
-12.7420075252
 20
-52.5974624174
 10
-12.8859998294
 20
-52.6165970693
 10
-13.0434119781
 20
-52.6334030608
 10
-13.2126309016
 20
-52.6475981191
 10
-13.3916213899
 20
-52.6589251479
 10
-13.5783589906
 20
-52.6671877195
 10
-13.7709118123
 20
-52.672234041
  0
LWPOLYLINE
  5
294
100
AcDbEntity
  8
_14133
100
AcDbPolyline
 62
253
  6
CONTINUOUS
 90
6
 70
0
 10
12.0879784478
 20
-52.5346717303
 10
11.998656713
 20
-52.5077793677
 10
11.9273819186
 20
-52.4793341027
 10
11.8753900767
 20
-52.4496576624
 10
11.8436363363
 20
-52.419057064
 10
11.8329143547
 20
-52.3878810126
  0
LWPOLYLINE
  5
295
100
AcDbEntity
  8
_14133
100
AcDbPolyline
 62
7
  6
CONTINUOUS
 90
5
 70
0
 10
-11.8956567169
 20
-53.0728512263
 10
-11.8293731928
 20
-53.1364581095
 10
-11.7589399761
 20
-53.193125099
 10
-11.6843570668
 20
-53.2428526807
 10
-11.6049811473
 20
-53.2859238632
  0
LWPOLYLINE
  5
296
100
AcDbEntity
  8
_14133
100
AcDbPolyline
 62
253
  6
CONTINUOUS
 90
10
 70
0
 10
-13.2070846458
 20
-54.6004808939
 10
-13.362076854
 20
-54.419577626
 10
-13.4998408929
 20
-54.2293308626
 10
-13.6203767624
 20
-54.0297384293
 10
-13.7242294543
 20
-53.8193858876
 10
-13.8108539769
 20
-53.5996827884
 10
-13.8786153548
 20
-53.3748639497
 10
-13.9269685963
 20
-53.1463405918
 10
-13.9564586931
 20
-52.912699062
 10
-13.9670856453
 20
-52.6739379841
  0
LINE
  5
297
100
AcDbEntity
  8
_55702
100
AcDbLine
 62
7
  6
CONTINUOUS
 10
-31.2469800516
 20
-65.399819028
 11
-35.8233418845
 21
54.2285743233
  0
LINE
  5
298
100
AcDbEntity
  8
_55702
100
AcDbLine
 62
7
  6
CONTINUOUS
 10
-32.8141105967
 20
54.2285743233
 11
-28.2377487638
 21
-65.399819028
  0
LWPOLYLINE
  5
299
100
AcDbEntity
  8
_55702
100
AcDbPolyline
 62
7
  6
CONTINUOUS
 90
10
 70
0
 10
-32.8680657327
 20
56.1340456934
 10
-32.8708040264
 20
56.3570383817
 10
-32.870338521
 20
56.5808451155
 10
-32.8666692163
 20
56.805380269
 10
-32.8597982589
 20
57.0306029431
 10
-32.8497235024
 20
57.2563814564
 10
-32.8364385069
 20
57.4824925845
 10
-32.8199411259
 20
57.7088030019
 10
-32.800233506
 20
57.9352701094
 10
-32.7773156472
 20
58.1618059716
  0
LWPOLYLINE
  5
29A
100
AcDbEntity
  8
_14133
100
AcDbPolyline
 62
253
  6
CONTINUOUS
 90
13
 70
0
 10
2.9645652712
 20
58.354937193
 10
2.9693842572
 20
58.3625818419
 10
2.9823161054
 20
58.3705800212
 10
3.0032564059
 20
58.3787309111
 10
3.0313880222
 20
58.3867323113
 10
3.0659586614
 20
58.3944815451
 10
3.1076283021
 20
58.4021146331
 10
3.1560037321
 20
58.4094735651
 10
3.2097625079
 20
58.4163202826
 10
3.2689085871
 20
58.4226138926
 10
3.3323625409
 20
58.4281799813
 10
3.3980086439
 20
58.4328265611
 10
3.4639700588
 20
58.4364491603
  0
LWPOLYLINE
  5
29B
100
AcDbEntity
  8
_14133
100
AcDbPolyline
 62
253
  6
CONTINUOUS
 90
13
 70
0
 10
12.8729133553
 20
-54.6004808939
 10
12.7496703285
 20
-54.4864300032
 10
12.6275920967
 20
-54.3708866474
 10
12.5084510018
 20
-54.2555498447
 10
12.3953196631
 20
-54.1435300311
 10
12.2883007803
 20
-54.0350919968
 10
12.1847884242
 20
-53.927644396
 10
12.0854697644
 20
-53.8218004841
 10
11.9924159447
 20
-53.7196829527
 10
11.905508221
 20
-53.6211075836
 10
11.8260429748
 20
-53.5273858159
 10
11.7553453393
 20
-53.4400080652
 10
11.6939373434
 20
-53.3595114794
  0
LWPOLYLINE
  5
29C
100
AcDbEntity
  8
_14133
100
AcDbPolyline
 62
253
  6
CONTINUOUS
 90
7
 70
0
 10
-11.8956567169
 20
-53.0728512263
 10
-11.8875716998
 20
-53.0929432714
 10
-11.8910020471
 20
-53.1235998161
 10
-11.9058020924
 20
-53.1642856563
 10
-11.9309852041
 20
-53.2133827868
 10
-11.9658026099
 20
-53.2701641474
 10
-12.0108836213
 20
-53.3358069702
  0
LWPOLYLINE
  5
29D
100
AcDbEntity
  8
_14133
100
AcDbPolyline
 62
253
  6
CONTINUOUS
 90
31
 70
0
 10
-3.1255753483
 20
-68.8083090094
 10
-3.0273547069
 20
-69.0550394403
 10
-2.9095287222
 20
-69.2907130108
 10
-2.773399049
 20
-69.5138794764
 10
-2.6206400096
 20
-69.7228413886
 10
-2.4525034424
 20
-69.9168951053
 10
-2.2694882266
 20
-70.0960871281
 10
-2.0731352994
 20
-70.2591578717
 10
-1.8646575446
 20
-70.4053316643
 10
-1.6435598969
 20
-70.5348938663
 10
-1.4101864571
 20
-70.6470257318
 10
-1.1667784973
 20
-70.740044153
 10
-0.9155903418
 20
-70.8128072045
 10
-0.6580274315
 20
-70.8646381445
 10
-0.3960660403
 20
-70.8948385906
 10
-0.1330143748
 20
-70.9029912582
 10
0.1292608455
 20
-70.8891918648
 10
0.388996051
 20
-70.8536430984
 10
0.6430726313
 20
-70.7970365718
 10
0.8893197326
 20
-70.7204187676
 10
1.126795591
 20
-70.6246247203
 10
1.3543785237
 20
-70.5104734086
 10
1.5704214258
 20
-70.3792522186
 10
1.7740590405
 20
-70.2319580706
 10
1.9652403067
 20
-70.0687476195
 10
2.1428280738
 20
-69.8905611656
 10
2.3055561794
 20
-69.6986395313
 10
2.452882882
 20
-69.4933011073
 10
2.5837749695
 20
-69.2754271449
 10
2.6969455851
 20
-69.0466238115
 10
2.7914040577
 20
-68.8083090094
  0
LINE
  5
29E
100
AcDbEntity
  8
_55702
100
AcDbLine
 62
7
  6
CONTINUOUS
 10
-26.580749932
 20
-65.2673278173
 11
-26.580749932
 21
56.1340456934
  0
LINE
  5
29F
100
AcDbEntity
  8
_14133
100
AcDbLine
 62
7
  6
CONTINUOUS
 10
-26.1670856453
 20
-65.7878810126
 11
-26.1670856453
 21
56.2121189874
  0
LWPOLYLINE
  5
2A0
100
AcDbEntity
  8
_14133
100
AcDbPolyline
 62
253
  6
CONTINUOUS
 90
10
 70
0
 10
-26.0502767615
 20
11.2121189874
 10
-26.0508380252
 20
16.2244464678
 10
-26.0525193426
 20
21.2343120335
 10
-26.0553207136
 20
26.2417156843
 10
-26.0592429712
 20
31.2474840275
 10
-26.0642852824
 20
36.250790456
 10
-26.0704451481
 20
41.2491551483
 10
-26.0777217353
 20
46.2417514974
 10
-26.0861158768
 20
51.2294061105
 10
-26.0956275729
 20
56.2121189874
  0
LWPOLYLINE
  5
2A1
100
AcDbEntity
  8
_14133
100
AcDbPolyline
 62
253
  6
CONTINUOUS
 90
13
 70
0
 10
-26.1670856453
 20
-60.8180347754
 10
-26.1484675397
 20
-54.8736892685
 10
-26.131460422
 20
-48.9164196797
 10
-26.1160642923
 20
-42.946226009
 10
-26.1022762359
 20
-36.9616747973
 10
-26.0900991675
 20
-30.9641995037
 10
-26.0795418304
 20
-24.9581005056
 10
-26.0706053941
 20
-18.9433715757
 10
-26.0632886892
 20
-12.9200189414
 10
-26.05759695
 20
-6.8923616619
 10
-26.0535319214
 20
-0.8618394239
 10
-26.0510918586
 20
5.1729874592
 10
-26.0502767615
 20
11.2121189874
  0
LWPOLYLINE
  5
2A2
100
AcDbEntity
  8
_14133
100
AcDbPolyline
 62
253
  6
CONTINUOUS
 90
25
 70
0
 10
-26.0956275612
 20
56.2121189874
 10
-26.070206258
 20
56.9923817264
 10
-25.9938008567
 20
57.7693084973
 10
-25.8667395674
 20
58.5395714869
 10
-25.6895681932
 20
59.2998712147
 10
-25.4630459587
 20
60.046951826
 10
-25.1881420185
 20
60.777614624
 10
-24.8660344932
 20
61.4887301683
 10
-24.4981037669
 20
62.1772528377
 10
-24.0859244547
 20
62.8402343294
 10
-23.6312624041
 20
63.4748351467
 10
-23.1360656745
 20
64.0783372745
 10
-22.6024542297
 20
64.6481559274
 10
-22.0327140676
 20
65.1818505341
 10
-21.4292860651
 20
65.6771354152
 10
-20.7947539876
 20
66.1318891366
 10
-20.1318359605
 20
66.5441640794
 10
-19.4433720734
 20
66.9121946133
 10
-18.7323110027
 20
67.2344041936
 10
-18.0016987673
 20
67.5094130265
 10
-17.2546653266
 20
67.736043704
 10
-16.4944106424
 20
67.9133256426
 10
-15.724191442
 20
68.0404999929
 10
-14.9473071631
 20
68.1170229266
 10
-14.1670856453
 20
68.1425675149
  0
LWPOLYLINE
  5
2A3
100
AcDbEntity
  8
_14133
100
AcDbPolyline
 62
253
  6
CONTINUOUS
 90
16
 70
0
 10
-13.9670856453
 20
-27.3605946558
 10
-13.7775593046
 20
-27.3596345932
 10
-13.5920955085
 20
-27.3568051544
 10
-13.4126153956
 20
-27.352196234
 10
-13.2419178336
 20
-27.3459583435
 10
-13.0804273547
 20
-27.3381872496
 10
-12.9267024797
 20
-27.3288228392
 10
-12.7817590788
 20
-27.3178597412
 10
-12.6483045414
 20
-27.3054297378
 10
-12.5279006472
 20
-27.2916133847
 10
-12.4221497383
 20
-27.2765093705
 10
-12.3328280035
 20
-27.2602724723
 10
-12.2615532091
 20
-27.2430979726
 10
-12.2095613672
 20
-27.2251801219
 10
-12.1778076268
 20
-27.2067042889
 10
-12.1670856453
 20
-27.1878810126
  0
LINE
  5
2A4
100
AcDbEntity
  8
_14133
100
AcDbLine
 62
7
  6
CONTINUOUS
 10
-11.1670856453
 20
-26.1878810126
 11
10.8329143547
 21
-26.1878810126
  0
LINE
  5
2A5
100
AcDbEntity
  8
_14133
100
AcDbLine
 62
253
  6
CONTINUOUS
 10
10.8329143547
 20
-24.5480009526
 11
-11.1670856453
 21
-24.5480009526
  0
LWPOLYLINE
  5
2A6
100
AcDbEntity
  8
_14133
100
AcDbPolyline
 62
253
  6
CONTINUOUS
 90
19
 70
0
 10
10.8329143547
 20
-24.5480009526
 10
11.0786588914
 20
-24.5594206488
 10
11.3188856779
 20
-24.5910635642
 10
11.5535947143
 20
-24.6429292697
 10
11.7843767765
 20
-24.7156349405
 10
12.0096410886
 20
-24.8085616898
 10
12.2246153224
 20
-24.9198546949
 10
12.4291705056
 20
-25.0499923805
 10
12.6234356105
 20
-25.1984932731
 10
12.8030252266
 20
-25.3620627922
 10
12.9675781902
 20
-25.5408649313
 10
13.1174556649
 20
-25.7347320863
 10
13.249355731
 20
-25.939872859
 10
13.363055984
 20
-26.1564745236
 10
13.4587788285
 20
-26.3843463593
 10
13.5338895584
 20
-26.6191310144
 10
13.5875099384
 20
-26.8593755174
 10
13.6205182039
 20
-27.1065305042
 10
13.6329143547
 20
-27.3605946558
  0
LINE
  5
2A7
100
AcDbEntity
  8
_55702
100
AcDbLine
 62
7
  6
CONTINUOUS
 10
27.6840733563
 20
-66.7048225321
 11
26.2465786414
 21
-65.2673278173
  0
LWPOLYLINE
  5
2A8
100
AcDbEntity
  8
_14133
100
AcDbPolyline
 62
253
  6
CONTINUOUS
 90
36
 70
0
 10
-3.5981770879
 20
-69.0711713604
 10
-3.6937759328
 20
-68.7460805222
 10
-3.759080821
 20
-68.4195274098
 10
-3.7940917524
 20
-68.0915115388
 10
-3.7984731378
 20
-67.7592276071
 10
-3.7725605665
 20
-67.4254790106
 10
-3.7173608059
 20
-67.0986825707
 10
-3.6323275065
 20
-66.7793314976
 10
-3.5180070178
 20
-66.4669400181
 10
-3.3770451567
 20
-66.1684638276
 10
-3.2085990216
 20
-65.8839174468
 10
-3.0135115139
 20
-65.6132988233
 10
-2.7969571544
 20
-65.3635443059
 10
-2.5582365733
 20
-65.1352633942
 10
-2.2980491403
 20
-64.9278616481
 10
-2.023667485
 20
-64.7464727948
 10
-1.7349918874
 20
-64.5920483996
 10
-1.4321220676
 20
-64.4636499025
 10
-1.122629815
 20
-64.363576296
 10
-0.8067147728
 20
-64.2924903619
 10
-0.4841772979
 20
-64.2497364373
 10
-0.161990251
 20
-64.23563453
 10
0.1598292958
 20
-64.2505935102
 10
0.4812984146
 20
-64.2942044717
 10
0.7954954614
 20
-64.3655590435
 10
1.1023026419
 20
-64.4650538117
 10
1.4018377504
 20
-64.5922852517
 10
1.6875325258
 20
-64.7451435793
 10
1.9595316373
 20
-64.9244812228
 10
2.2176904158
 20
-65.1294330984
 10
2.4550065924
 20
-65.355313461
 10
2.6708377301
 20
-65.6024102975
 10
2.8658262659
 20
-65.8704207636
 10
3.0348972417
 20
-66.1537754337
 10
3.1776451348
 20
-66.4534704399
 10
3.2944754679
 20
-66.7684956633
  0
LWPOLYLINE
  5
2A9
100
AcDbEntity
  8
_14133
100
AcDbPolyline
 62
253
  6
CONTINUOUS
 90
16
 70
0
 10
-15.2280826449
 20
-67.9541214218
 10
-15.2232670076
 20
-68.0757758414
 10
-15.2070372773
 20
-68.192956159
 10
-15.179393454
 20
-68.3056631667
 10
-15.1396965493
 20
-68.4148650148
 10
-15.0885855516
 20
-68.519594948
 10
-15.0279774262
 20
-68.6169518221
 10
-14.9575634738
 20
-68.706807276
 10
-14.8776523937
 20
-68.7892918005
 10
-14.7910872492
 20
-68.8618931925
 10
-14.6977254137
 20
-68.9242864033
 10
-14.5977095139
 20
-68.9767985645
 10
-14.4943104928
 20
-69.0178959622
 10
-14.3886186648
 20
-69.0470678251
 10
-14.2795437157
 20
-69.0648261864
 10
-14.1670856453
 20
-69.0711713604
  0
LWPOLYLINE
  5
2AA
100
AcDbEntity
  8
_14133
100
AcDbPolyline
 62
253
  6
CONTINUOUS
 90
16
 70
0
 10
-15.0973029262
 20
57.4781036421
 10
-15.0917056735
 20
57.5813755841
 10
-15.0763258433
 20
57.681201253
 10
-15.0511634357
 20
57.7775809427
 10
-15.0157195038
 20
57.871490885
 10
-14.9704929943
 20
57.9619553572
 10
-14.9169807481
 20
58.0460469394
 10
-14.8547918145
 20
58.1235460135
 10
-14.7843171441
 20
58.1946731086
 10
-14.7082264295
 20
58.2571613478
 10
-14.6263724925
 20
58.3106152318
 10
-14.5389025114
 20
58.3554311574
 10
-14.4489277134
 20
58.3905301798
 10
-14.3574851742
 20
58.4155528412
 10
-14.2635378182
 20
58.430859124
 10
-14.1670856453
 20
58.4364491603
  0
LINE
  5
2AB
100
AcDbEntity
  8
_14133
100
AcDbLine
 62
253
  6
CONTINUOUS
 10
-11.1670856453
 20
-19.6259619721
 11
10.8329143547
 21
-19.6259619721
  0
LINE
  5
2AC
100
AcDbEntity
  8
_14133
100
AcDbLine
 62
7
  6
CONTINUOUS
 10
10.8329143547
 20
-17.6878810126
 11
-11.1670856453
 21
-17.6878810126
  0
LWPOLYLINE
  5
2AD
100
AcDbEntity
  8
_14133
100
AcDbPolyline
 62
253
  6
CONTINUOUS
 90
16
 70
0
 10
13.6329143547
 20
-16.813368269
 10
13.443388014
 20
-16.8126707235
 10
13.257924218
 20
-16.8106149594
 10
13.0784441051
 20
-16.8072662907
 10
12.9077465431
 20
-16.8027340734
 10
12.7462560642
 20
-16.7970878879
 10
12.5925311892
 20
-16.7902840585
 10
12.4475877883
 20
-16.7823186826
 10
12.3141332509
 20
-16.7732875082
 10
12.1937293566
 20
-16.7632490642
 10
12.0879784478
 20
-16.7522750539
 10
11.998656713
 20
-16.7404779325
 10
11.9273819186
 20
-16.7279995851
 10
11.8753900767
 20
-16.7149811467
 10
11.8436363363
 20
-16.7015572993
 10
11.8329143547
 20
-16.6878810126
  0
LWPOLYLINE
  5
2AE
100
AcDbEntity
  8
_14133
100
AcDbPolyline
 62
253
  6
CONTINUOUS
 90
19
 70
0
 10
-11.1670856453
 20
-19.6259619721
 10
-11.4128698283
 20
-19.6145383659
 10
-11.6531379656
 20
-19.5828845948
 10
-11.8878900571
 20
-19.5310002908
 10
-12.1187183184
 20
-19.458265613
 10
-12.3440305339
 20
-19.3652989444
 10
-12.5590500568
 20
-19.2539570038
 10
-12.7636528609
 20
-19.1237504101
 10
-12.9579629724
 20
-18.9751660214
 10
-13.1375758224
 20
-18.8115250182
 10
-13.3021192881
 20
-18.6326653443
 10
-13.4519654923
 20
-18.4387462205
 10
-13.5838262349
 20
-18.2335712634
 10
-13.6974807807
 20
-18.0169384455
 10
-13.793149865
 20
-17.7890472893
 10
-13.8682074931
 20
-17.5543046124
 10
-13.9217783334
 20
-17.3141790713
 10
-13.9547377174
 20
-17.0672005574
 10
-13.9670856453
 20
-16.813368269
  0
LINE
  5
2AF
100
AcDbEntity
  8
_14133
100
AcDbLine
 62
253
  6
CONTINUOUS
 10
11.6939373434
 20
-53.3595114794
 11
11.6430738523
 21
-53.2874411021
  0
LWPOLYLINE
  5
2B0
100
AcDbEntity
  8
_14133
100
AcDbPolyline
 62
253
  6
CONTINUOUS
 90
6
 70
0
 10
11.6430738523
 20
-53.2874411021
 10
11.6032320636
 20
-53.224493579
 10
11.5745250623
 20
-53.1706154382
 10
11.5576495273
 20
-53.1266692073
 10
11.5533179383
 20
-53.0939474004
 10
11.5614854264
 20
-53.0728512263
  0
LWPOLYLINE
  5
2B1
100
AcDbEntity
  8
_14133
100
AcDbPolyline
 62
253
  6
CONTINUOUS
 90
10
 70
0
 10
-15.0973029262
 20
57.4781036421
 10
-15.0877912211
 20
52.3565965807
 10
-15.0793970735
 20
47.2283315283
 10
-15.0721204834
 20
42.0941508066
 10
-15.0659606186
 20
36.9548974662
 10
-15.0609183113
 20
31.8114158763
 10
-15.0569960576
 20
26.6645515884
 10
-15.0541946897
 20
21.5151502238
 10
-15.0525133754
 20
16.3640573331
 10
-15.0519521147
 20
11.2121189874
  0
LINE
  5
2B2
100
AcDbEntity
  8
_14133
100
AcDbLine
 62
253
  6
CONTINUOUS
 10
-14.1670856453
 20
-77.7878810126
 11
-14.1670856453
 21
-69.0711713604
  0
LINE
  5
2B3
100
AcDbEntity
  8
_14133
100
AcDbLine
 62
253
  6
CONTINUOUS
 10
-14.1670856453
 20
58.4364491603
 11
-14.1670856453
 21
68.2121189874
  0
LINE
  5
2B4
100
AcDbEntity
  8
_55702
100
AcDbLine
 62
253
  6
CONTINUOUS
 10
-14.0890123513
 20
68.6257832741
 11
-14.0890123513
 21
74.93203739
  0
LINE
  5
2B5
100
AcDbEntity
  8
_14133
100
AcDbLine
 62
253
  6
CONTINUOUS
 10
-13.9670856453
 20
-10.585482212
 11
-13.9670856453
 21
-16.813368269
  0
LINE
  5
2B6
100
AcDbEntity
  8
_14133
100
AcDbLine
 62
253
  6
CONTINUOUS
 10
-13.9670856453
 20
-27.3605946558
 11
-13.9670856453
 21
-52.6739379841
  0
LINE
  5
2B7
100
AcDbEntity
  8
_14133
100
AcDbLine
 62
7
  6
CONTINUOUS
 10
-12.1670856453
 20
-10.4878810126
 11
-12.1670856453
 21
-16.6878810126
  0
LINE
  5
2B8
100
AcDbEntity
  8
_14133
100
AcDbLine
 62
7
  6
CONTINUOUS
 10
-12.1670856453
 20
-27.1878810126
 11
-12.1670856453
 21
-52.3878810126
  0
LINE
  5
2B9
100
AcDbEntity
  8
_48104
100
AcDbLine
 62
7
  6
CONTINUOUS
 10
-12.0670856453
 20
-52.8220353203
 11
-12.0670856453
 21
-26.7542826009
  0
LINE
  5
2BA
100
AcDbEntity
  8
_48104
100
AcDbLine
 62
7
  6
CONTINUOUS
 10
-12.0670856453
 20
-17.1214256234
 11
-12.0670856453
 21
-10.0545297768
  0
LINE
  5
2BB
100
AcDbEntity
  8
_14133
100
AcDbLine
 62
253
  6
CONTINUOUS
 10
-11.1670856453
 20
-55.483982725
 11
-11.1670856453
 21
-53.3878810126
  0
LINE
  5
2BC
100
AcDbEntity
  8
_14133
100
AcDbLine
 62
253
  6
CONTINUOUS
 10
-11.1670856453
 20
-26.1878810126
 11
-11.1670856453
 21
-24.5480009526
  0
LINE
  5
2BD
100
AcDbEntity
  8
_14133
100
AcDbLine
 62
253
  6
CONTINUOUS
 10
-11.1670856453
 20
-19.6259619721
 11
-11.1670856453
 21
-17.6878810126
  0
LINE
  5
2BE
100
AcDbEntity
  8
_14133
100
AcDbLine
 62
253
  6
CONTINUOUS
 10
-11.1670856453
 20
-9.4878810126
 11
-11.1670856453
 21
-7.7728885089
  0
LWPOLYLINE
  5
2BF
100
AcDbEntity
  8
_14133
100
AcDbPolyline
 62
253
  6
CONTINUOUS
 90
13
 70
0
 10
-15.0519521147
 20
11.2121189874
 10
-15.0527672011
 20
5.0055420549
 10
-15.0552072507
 20
-1.1995575675
 10
-15.0592722633
 20
-7.4017006766
 10
-15.0649639812
 20
-13.5994091967
 10
-15.0722806621
 20
-19.791205255
 10
-15.0812170801
 20
-25.9756115387
 10
-15.0917744048
 20
-32.1511537595
 10
-15.1039514665
 20
-38.3163597667
 10
-15.1177395302
 20
-44.4697586319
 10
-15.1331356843
 20
-50.6098830678
 10
-15.1501428404
 20
-56.7352697701
 10
-15.1687609985
 20
-62.8444585385
  0
LWPOLYLINE
  5
2C0
100
AcDbEntity
  8
_14133
100
AcDbPolyline
 62
253
  6
CONTINUOUS
 90
10
 70
0
 10
-15.1687609985
 20
-62.8444585385
 10
-15.1709498773
 20
-63.4128464119
 10
-15.1742393616
 20
-63.9810766831
 10
-15.1786294516
 20
-64.5491481788
 10
-15.1841201496
 20
-65.1170617938
 10
-15.1907114532
 20
-65.6848142858
 10
-15.1984033552
 20
-66.252398281
 10
-15.2071958533
 20
-66.8198105457
 10
-15.2170889499
 20
-67.3870519813
 10
-15.2280826449
 20
-67.9541214218
  0
LWPOLYLINE
  5
2C1
100
AcDbEntity
  8
_14133
100
AcDbPolyline
 62
253
  6
CONTINUOUS
 90
19
 70
0
 10
-13.9670856453
 20
-10.585482212
 10
-13.955477859
 20
-10.3369917531
 10
-13.9236112669
 20
-10.0943103813
 10
-13.8714858692
 20
-9.8574387485
 10
-13.7984584037
 20
-9.6248158311
 10
-13.7051721326
 20
-9.398003789
 10
-13.5935568417
 20
-9.1816884201
 10
-13.4630941167
 20
-8.9759404643
 10
-13.314302372
 20
-8.7806909857
 10
-13.150666637
 20
-8.6004169148
 10
-12.9720526584
 20
-8.4355589867
 10
-12.7785946895
 20
-8.2856784566
 10
-12.5741805195
 20
-8.1539333832
 10
-12.3585618268
 20
-8.0405539125
 10
-12.131986933
 20
-7.945311532
 10
-11.8990885926
 20
-7.8706763744
 10
-11.6614110568
 20
-7.8174721647
 10
-11.4174100744
 20
-7.7848761301
 10
-11.1670856453
 20
-7.7728885089
  0
LWPOLYLINE
  5
2C2
100
AcDbEntity
  8
_14133
100
AcDbPolyline
 62
253
  6
CONTINUOUS
 90
19
 70
0
 10
-13.9670856453
 20
-27.3605946558
 10
-13.9554259474
 20
-27.1117638055
 10
-13.923484063
 20
-26.8688006931
 10
-13.8712599921
 20
-26.631706431
 10
-13.7981056032
 20
-26.3989308909
 10
-13.7046690277
 20
-26.1720261504
 10
-13.5928946597
 20
-25.9556473152
 10
-13.4622548575
 20
-25.7498504908
 10
-13.3132772629
 20
-25.5545827916
 10
-13.1494891956
 20
-25.3743370362
 10
-12.9707665761
 20
-25.2095733372
 10
-12.7772334839
 20
-25.0598352356
 10
-12.5727894776
 20
-24.9282413544
 10
-12.357168103
 20
-24.8150181957
 10
-12.1306358142
 20
-24.7199422998
 10
-11.897891532
 20
-24.6454574693
 10
-11.6605015632
 20
-24.5923789585
 10
-11.416899601
 20
-24.5598933035
 10
-11.1670856453
 20
-24.5480009526
  0
LWPOLYLINE
  5
2C3
100
AcDbEntity
  8
_14133
100
AcDbPolyline
 62
253
  6
CONTINUOUS
 90
8
 70
0
 10
3.2944754679
 20
-66.7684956633
 10
3.3815298509
 20
-67.0902779344
 10
3.4377754359
 20
-67.4187162047
 10
3.4642450708
 20
-67.7539044246
 10
3.460178909
 20
-68.0875700096
 10
3.4253236684
 20
-68.416957638
 10
3.3599326312
 20
-68.7448245837
 10
3.2640057974
 20
-69.0711713604
  0
LWPOLYLINE
  5
2C4
100
AcDbEntity
  8
_14133
100
AcDbPolyline
 62
253
  6
CONTINUOUS
 90
10
 70
0
 10
-3.2987365617
 20
58.354937193
 10
-3.2994575526
 20
58.3390786207
 10
-3.300098221
 20
58.3232165752
 10
-3.3006585511
 20
58.3073514633
 10
-3.30113853
 20
58.2914836996
 10
-3.3015381451
 20
58.2756136835
 10
-3.3018573844
 20
58.2597417994
 10
-3.302096239
 20
58.2438684467
 10
-3.3022547037
 20
58.2279940403
 10
-3.3023327749
 20
58.2121189874
  0
LWPOLYLINE
  5
2C5
100
AcDbEntity
  8
_14133
100
AcDbPolyline
 62
253
  6
CONTINUOUS
 90
37
 70
0
 10
-3.7981413493
 20
58.4364491603
 10
-3.7724915554
 20
58.7538700405
 10
-3.7194752626
 20
59.0685367755
 10
-3.6390924708
 20
59.3802047575
 10
-3.5304492887
 20
59.6926364049
 10
-3.3944396077
 20
60.0015467446
 10
-3.2337451016
 20
60.2948939026
 10
-3.0465188186
 20
60.5720293791
 10
-2.8346077105
 20
60.8338312053
 10
-2.6062343074
 20
61.0711174504
 10
-2.361182551
 20
61.2824639315
 10
-2.0996684995
 20
61.470214113
 10
-1.8305628576
 20
61.6311797062
 10
-1.5548130866
 20
61.7645997306
 10
-1.2714717253
 20
61.8721751377
 10
-0.9865670945
 20
61.9544167773
 10
-0.7011156301
 20
62.0112275986
 10
-0.4141008962
 20
62.0432052472
 10
-0.1285019065
 20
62.0517722036
 10
0.1553716493
 20
62.037312171
 10
0.4378294611
 20
61.999420763
 10
0.7168215845
 20
61.9382113915
 10
0.9929977841
 20
61.8535655997
 10
1.2657082955
 20
61.7451159108
 10
1.5309538809
 20
61.6124980569
 10
1.7899614423
 20
61.4543124112
 10
2.0415040777
 20
61.2711015521
 10
2.2779018437
 20
61.0654172583
 10
2.4990337099
 20
60.8356041061
 10
2.7050207067
 20
60.5824756239
 10
2.8885459815
 20
60.3125360452
 10
3.0486297575
 20
60.0247333979
 10
3.1862518115
 20
59.719795282
 10
3.2970346209
 20
59.4073408078
 10
3.3795190115
 20
59.090779527
 10
3.4351641575
 20
58.7670797049
 10
3.4639700588
 20
58.4364491603
  0
LWPOLYLINE
  5
2C6
100
AcDbEntity
  8
_14133
100
AcDbPolyline
 62
253
  6
CONTINUOUS
 90
6
 70
0
 10
-12.4221497383
 20
-10.5379652669
 10
-12.3328280035
 20
-10.5287897281
 10
-12.2615532091
 20
-10.5190843468
 10
-12.2095613672
 20
-10.5089588947
 10
-12.1778076268
 20
-10.4985181245
 10
-12.1670856453
 20
-10.4878810126
  0
LWPOLYLINE
  5
2C7
100
AcDbEntity
  8
_14133
100
AcDbPolyline
 62
253
  6
CONTINUOUS
 90
3
 70
0
 10
-12.6483045414
 20
-10.554308287
 10
-12.5279006472
 20
-10.5465006083
 10
-12.4221497383
 20
-10.5379652669
  0
LWPOLYLINE
  5
2C8
100
AcDbEntity
  8
_14133
100
AcDbPolyline
 62
253
  6
CONTINUOUS
 90
9
 70
0
 10
-13.9670856453
 20
-10.585482212
 10
-13.7775593046
 20
-10.5849396767
 10
-13.5920955085
 20
-10.583340749
 10
-13.4126153956
 20
-10.5807362289
 10
-13.2419178336
 20
-10.577211171
 10
-13.0804273547
 20
-10.5728196934
 10
-12.9267024797
 20
-10.5675278261
 10
-12.7817590788
 20
-10.5613325337
 10
-12.6483045414
 20
-10.554308287
  0
LINE
  5
2C9
100
AcDbEntity
  8
_48104
100
AcDbLine
 62
7
  6
CONTINUOUS
 10
11.3674104418
 20
-9.644293262
 11
-11.7016086069
 21
-9.644293262
  0
LINE
  5
2CA
100
AcDbEntity
  8
_14133
100
AcDbLine
 62
7
  6
CONTINUOUS
 10
-11.1670856453
 20
-9.4878810126
 11
10.8329143547
 21
-9.4878810126
  0
LINE
  5
2CB
100
AcDbEntity
  8
_14133
100
AcDbLine
 62
253
  6
CONTINUOUS
 10
10.8329143547
 20
-7.7728885089
 11
-11.1670856453
 21
-7.7728885089
  0
LWPOLYLINE
  5
2CC
100
AcDbEntity
  8
_14133
100
AcDbPolyline
 62
253
  6
CONTINUOUS
 90
7
 70
0
 10
12.5518285389
 20
-10.5659177804
 10
12.7092406876
 20
-10.5716519001
 10
12.8784596111
 20
-10.5764951826
 10
13.0574500994
 20
-10.5803599078
 10
13.2441877001
 20
-10.5831790557
 10
13.4367405217
 20
-10.5849008352
 10
13.6329143547
 20
-10.585482212
  0
LWPOLYLINE
  5
2CD
100
AcDbEntity
  8
_14133
100
AcDbPolyline
 62
253
  6
CONTINUOUS
 90
19
 70
0
 10
10.8329143547
 20
-7.7728885089
 10
11.0789510824
 20
-7.7843517181
 10
11.3194228312
 20
-7.816060367
 10
11.5543296012
 20
-7.868014228
 10
11.7852546637
 20
-7.9408345476
 10
12.0106147474
 20
-8.0338991691
 10
12.2256600383
 20
-8.1453425994
 10
12.4302768919
 20
-8.2756558328
 10
12.6245789527
 20
-8.4243462362
 10
12.8041573396
 20
-8.5880729196
 10
12.9686308844
 20
-8.7669896346
 10
13.1183807553
 20
-8.9609406602
 10
13.2501415754
 20
-9.1661212015
 10
13.3636949347
 20
-9.382739746
 10
13.4592592431
 20
-9.6105858803
 10
13.534224354
 20
-9.8452270213
 10
13.5877202185
 20
-10.0851853389
 10
13.6206168854
 20
-10.3319373234
 10
13.6329143547
 20
-10.585482212
  0
LWPOLYLINE
  5
2CE
100
AcDbEntity
  8
_14133
100
AcDbPolyline
 62
253
  6
CONTINUOUS
 90
5
 70
0
 10
12.0664415411
 20
-10.5359581863
 10
12.1640362561
 20
-10.5442935931
 10
12.2782922927
 20
-10.5521528429
 10
12.4078362347
 20
-10.5593891334
 10
12.5518285389
 20
-10.5659177804
  0
LWPOLYLINE
  5
2CF
100
AcDbEntity
  8
_14133
100
AcDbPolyline
 62
253
  6
CONTINUOUS
 90
13
 70
0
 10
2.7914040163
 20
-68.8083091776
 10
2.7925496097
 20
-68.8217736135
 10
2.8019363027
 20
-68.8380583051
 10
2.819577592
 20
-68.8567944337
 10
2.8447387459
 20
-68.8772319933
 10
2.876632498
 20
-68.8989741069
 10
2.9159380342
 20
-68.9224348052
 10
2.9623294878
 20
-68.9472113916
 10
3.0143726398
 20
-68.9725250806
 10
3.0720440919
 20
-68.9983132052
 10
3.134330494
 20
-69.0239383706
 10
3.1990034464
 20
-69.0484574917
 10
3.2640057974
 20
-69.0711713604
  0
LWPOLYLINE
  5
2D0
100
AcDbEntity
  8
_14133
100
AcDbPolyline
 62
253
  6
CONTINUOUS
 90
37
 70
0
 10
-3.3023327749
 20
58.2121189874
 10
-3.2910321904
 20
57.9385135474
 10
-3.2558786152
 20
57.6668917473
 10
-3.1971332349
 20
57.3993308841
 10
-3.1152157192
 20
57.1378046901
 10
-3.0107549368
 20
56.8843910166
 10
-2.8846471368
 20
56.6412344493
 10
-2.7379251366
 20
56.4102014224
 10
-2.5717385078
 20
56.1929908227
 10
-2.3874697961
 20
55.9913113914
 10
-2.1866911973
 20
55.8067327278
 10
-1.9708914817
 20
55.6404817052
 10
-1.7414803401
 20
55.4935958645
 10
-1.5001673118
 20
55.3671695598
 10
-1.248805914
 20
55.2621713486
 10
-0.9890856728
 20
55.1793357463
 10
-0.7227329158
 20
55.1192983402
 10
-0.4519762353
 20
55.0826416352
 10
-0.1793371252
 20
55.0696959424
 10
0.0926833665
 20
55.0804511803
 10
0.3624599806
 20
55.1147121741
 10
0.6287596919
 20
55.172352225
 10
0.8899880518
 20
55.2532298784
 10
1.1436428512
 20
55.3567769516
 10
1.3871992138
 20
55.4820184642
 10
1.6183567252
 20
55.6276631538
 10
1.8358683411
 20
55.7928085029
 10
2.0388308892
 20
55.9768945081
 10
2.2259020882
 20
56.1791309918
 10
2.3950146743
 20
56.3977475342
 10
2.5443154602
 20
56.6305757753
 10
2.6725888286
 20
56.8758215315
 10
2.7787925623
 20
57.1316039896
 10
2.8618854477
 20
57.3952933404
 10
2.9213037753
 20
57.6645799788
 10
2.9567798092
 20
57.9375630549
 10
2.9681614844
 20
58.2121189874
  0
LWPOLYLINE
  5
2D1
100
AcDbEntity
  8
_14133
100
AcDbPolyline
 62
253
  6
CONTINUOUS
 90
37
 70
0
 10
2.9666184813
 20
-67.7878810126
 10
2.9554004319
 20
-67.5097929017
 10
2.9196290614
 20
-67.2343488634
 10
2.8597418317
 20
-66.9636987345
 10
2.7763769469
 20
-66.6999514688
 10
2.6703235833
 20
-66.4450946567
 10
2.5424951496
 20
-66.2009938382
 10
2.39391862
 20
-65.969356776
 10
2.2259241856
 20
-65.7520323183
 10
2.0401679056
 20
-65.5508813854
 10
1.8385418774
 20
-65.3675312461
 10
1.6224883208
 20
-65.2029022488
 10
1.3930947716
 20
-65.0576652062
 10
1.1518971148
 20
-64.9327858646
 10
0.9009223111
 20
-64.8293035635
 10
0.6419911377
 20
-64.7479467411
 10
0.3770085967
 20
-64.6893030274
 10
0.1080214664
 20
-64.6538094228
 10
-0.1628768674
 20
-64.6417137166
 10
-0.4334432062
 20
-64.6530504187
 10
-0.7018569811
 20
-64.6876737953
 10
-0.9666482841
 20
-64.7454206593
 10
-1.2260426953
 20
-64.8260390571
 10
-1.4778101717
 20
-64.9289693373
 10
-1.7198440153
 20
-65.0534184132
 10
-1.9499352791
 20
-65.198237805
 10
-2.1667181045
 20
-65.3625504465
 10
-2.3693226635
 20
-65.5459152255
 10
-2.556421391
 20
-65.7476953564
 10
-2.7258032561
 20
-65.9661185159
 10
-2.8754306707
 20
-66.1988680962
 10
-3.0039352935
 20
-66.4439010625
 10
-3.1104135941
 20
-66.6995835986
 10
-3.1939680626
 20
-66.9639052906
 10
-3.2538799354
 20
-67.2348047388
 10
-3.2896047434
 20
-67.5101829163
 10
-3.3007897718
 20
-67.7878810126
  0
LWPOLYLINE
  5
2D2
100
AcDbEntity
  8
_14133
100
AcDbPolyline
 62
253
  6
CONTINUOUS
 90
10
 70
0
 10
-3.3007897718
 20
-67.7878810126
 10
-3.298181938
 20
-67.9035664813
 10
-3.2913088569
 20
-68.0190322645
 10
-3.2801841862
 20
-68.1341213748
 10
-3.2648280632
 20
-68.2486686099
 10
-3.2452655829
 20
-68.3625277106
 10
-3.221523456
 20
-68.4755712324
 10
-3.1936335023
 20
-68.5876547635
 10
-3.1616359019
 20
-68.6986174696
 10
-3.1255753483
 20
-68.8083090094
  0
LINE
  5
2D3
100
AcDbEntity
  8
_62068
100
AcDbLine
 62
7
  6
CONTINUOUS
 10
-0.4220856453
 20
-66.2922113787
 11
-0.4220856453
 21
-69.2835506465
  0
LINE
  5
2D4
100
AcDbEntity
  8
_62068
100
AcDbLine
 62
7
  6
CONTINUOUS
 10
-0.4220856453
 20
56.7164493535
 11
-0.4220856453
 21
59.7077886213
  0
LINE
  5
2D5
100
AcDbEntity
  8
_62068
100
AcDbLine
 62
7
  6
CONTINUOUS
 10
0.0879143547
 20
-66.2922113787
 11
0.0879143547
 21
-69.2835506465
  0
LINE
  5
2D6
100
AcDbEntity
  8
_62068
100
AcDbLine
 62
7
  6
CONTINUOUS
 10
0.0879143547
 20
56.7164493535
 11
0.0879143547
 21
59.7077886213
  0
LWPOLYLINE
  5
2D7
100
AcDbEntity
  8
_62068
100
AcDbPolyline
 62
7
  6
CONTINUOUS
 90
10
 70
0
 10
-1.6627552792
 20
58.4671189874
 10
-1.6644659913
 20
58.4104775404
 10
-1.6657490253
 20
58.3538234836
 10
-1.6666043814
 20
58.297156817
 10
-1.6670320594
 20
58.2404691339
 10
-1.6670320594
 20
58.1837688409
 10
-1.6666043814
 20
58.1270811578
 10
-1.6657490253
 20
58.0704144912
 10
-1.6644659913
 20
58.0137604343
 10
-1.6627552792
 20
57.9571189874
  0
LWPOLYLINE
  5
2D8
100
AcDbEntity
  8
_62068
100
AcDbPolyline
 62
7
  6
CONTINUOUS
 90
10
 70
0
 10
1.3285839887
 20
57.9571189874
 10
1.3302947007
 20
58.0137604343
 10
1.3315777348
 20
58.0704144912
 10
1.3324330909
 20
58.1270811578
 10
1.3328607689
 20
58.1837688409
 10
1.3328607689
 20
58.2404691339
 10
1.3324330909
 20
58.297156817
 10
1.3315777348
 20
58.3538234836
 10
1.3302947007
 20
58.4104775404
 10
1.3285839887
 20
58.4671189874
  0
LWPOLYLINE
  5
2D9
100
AcDbEntity
  8
_62068
100
AcDbPolyline
 62
7
  6
CONTINUOUS
 90
10
 70
0
 10
-1.6627552792
 20
-67.5328810126
 10
-1.6644659913
 20
-67.5895224596
 10
-1.6657490253
 20
-67.6461765164
 10
-1.6666043814
 20
-67.702843183
 10
-1.6670320594
 20
-67.7595308661
 10
-1.6670320594
 20
-67.8162311591
 10
-1.6666043814
 20
-67.8729188422
 10
-1.6657490253
 20
-67.9295855088
 10
-1.6644659913
 20
-67.9862395657
 10
-1.6627552792
 20
-68.0428810126
  0
LWPOLYLINE
  5
2DA
100
AcDbEntity
  8
_14133
100
AcDbPolyline
 62
253
  6
CONTINUOUS
 90
16
 70
0
 10
-12.1670856453
 20
-16.6878810126
 10
-12.1770912972
 20
-16.7010938684
 10
-12.2065793552
 20
-16.7140235034
 10
-12.254612947
 20
-16.726535985
 10
-12.3196234621
 20
-16.7384361899
 10
-12.4006128316
 20
-16.7496945216
 10
-12.4982075466
 20
-16.7604114732
 10
-12.6124635833
 20
-16.770516223
 10
-12.7420075252
 20
-16.7798200251
 10
-12.8859998294
 20
-16.7882139997
 10
-13.0434119781
 20
-16.7955864394
 10
-13.2126309016
 20
-16.8018135169
 10
-13.3916213899
 20
-16.8067824493
 10
-13.5783589906
 20
-16.810407068
 10
-13.7709118123
 20
-16.8126207845
 10
-13.9670856453
 20
-16.813368269
  0
LWPOLYLINE
  5
2DB
100
AcDbEntity
  8
_14133
100
AcDbPolyline
 62
253
  6
CONTINUOUS
 90
16
 70
0
 10
11.8329143547
 20
-27.1878810126
 10
11.8429200067
 20
-27.2060664486
 10
11.8724080647
 20
-27.2238620752
 10
11.9204416565
 20
-27.2410835553
 10
11.9854521716
 20
-27.2574623319
 10
12.0664415411
 20
-27.2729576702
 10
12.1640362561
 20
-27.2877078831
 10
12.2782922927
 20
-27.3016154957
 10
12.4078362347
 20
-27.3144207287
 10
12.5518285389
 20
-27.3259737261
 10
12.7092406876
 20
-27.3361207398
 10
12.8784596111
 20
-27.3446913411
 10
13.0574500994
 20
-27.3515303018
 10
13.2441877001
 20
-27.3565190243
 10
13.4367405217
 20
-27.35956586
 10
13.6329143547
 20
-27.3605946558
  0
LWPOLYLINE
  5
2DC
100
AcDbEntity
  8
_14133
100
AcDbPolyline
 62
253
  6
CONTINUOUS
 90
10
 70
0
 10
2.9681614844
 20
58.2121189874
 10
2.9680834132
 20
58.2279940403
 10
2.9679249484
 20
58.2438684467
 10
2.9676860939
 20
58.2597417994
 10
2.9673668546
 20
58.2756136835
 10
2.9669672395
 20
58.2914836996
 10
2.9664872606
 20
58.3073514632
 10
2.9659269305
 20
58.3232165752
 10
2.965286262
 20
58.3390786207
 10
2.9645652712
 20
58.354937193
  0
LWPOLYLINE
  5
2DD
100
AcDbEntity
  8
_14133
100
AcDbPolyline
 62
253
  6
CONTINUOUS
 90
37
 70
0
 10
3.4639700588
 20
58.4364491603
 10
3.4634894452
 20
58.1008527125
 10
3.4342277323
 20
57.7723660841
 10
3.3761849203
 20
57.4509915604
 10
3.2883918638
 20
57.1343358431
 10
3.1718177082
 20
56.8247961599
 10
3.0293698889
 20
56.5295623861
 10
2.8602693332
 20
56.2488871622
 10
2.6652951138
 20
55.9825252243
 10
2.4496918838
 20
55.7369226124
 10
2.2133176973
 20
55.5128103062
 10
1.9563145002
 20
55.3094657561
 10
1.6843527829
 20
55.1311562623
 10
1.3966793276
 20
54.9782679988
 10
1.0940473522
 20
54.8504217332
 10
0.7843869997
 20
54.750736883
 10
0.4680402588
 20
54.6799955283
 10
0.1446651408
 20
54.637419562
 10
-0.1788341767
 20
54.6237874861
 10
-0.50289211
 20
54.6397496163
 10
-0.8270742429
 20
54.6846555816
 10
-1.1431731484
 20
54.7573318956
 10
-1.4506400971
 20
54.8583491924
 10
-1.7500238185
 20
54.987132854
 10
-2.0347630741
 20
55.140790902
 10
-2.3047694939
 20
55.3200097724
 10
-2.5601314478
 20
55.5240960682
 10
-2.7945528074
 20
55.748088398
 10
-3.0073348896
 20
55.9921069485
 10
-3.1991763774
 20
56.2560235493
 10
-3.3658771915
 20
56.5345057339
 10
-3.5072071731
 20
56.8281441204
 10
-3.6233964811
 20
57.1363405866
 10
-3.710935513
 20
57.4519822794
 10
-3.7686544013
 20
57.7726975763
 10
-3.7977230134
 20
58.1008539958
 10
-3.7981413493
 20
58.4364491603
  0
LWPOLYLINE
  5
2DE
100
AcDbEntity
  8
_62068
100
AcDbPolyline
 62
7
  6
CONTINUOUS
 90
10
 70
0
 10
1.3285839887
 20
-68.0428810126
 10
1.3302947007
 20
-67.9862395657
 10
1.3315777348
 20
-67.9295855088
 10
1.3324330909
 20
-67.8729188422
 10
1.3328607689
 20
-67.8162311591
 10
1.3328607689
 20
-67.7595308661
 10
1.3324330909
 20
-67.702843183
 10
1.3315777348
 20
-67.6461765164
 10
1.3302947007
 20
-67.5895224596
 10
1.3285839887
 20
-67.5328810126
  0
LWPOLYLINE
  5
2DF
100
AcDbEntity
  8
_14133
100
AcDbPolyline
 62
253
  6
CONTINUOUS
 90
6
 70
0
 10
-12.1670856453
 20
-52.3878810126
 10
-12.1770912972
 20
-52.418000641
 10
-12.2065793552
 20
-52.4474746475
 10
-12.254612947
 20
-52.4759977239
 10
-12.3196234621
 20
-52.5031250726
 10
-12.4006128316
 20
-52.5287892267
  0
LWPOLYLINE
  5
2E0
100
AcDbEntity
  8
_14133
100
AcDbPolyline
 62
253
  6
CONTINUOUS
 90
6
 70
0
 10
11.8329143547
 20
-10.4878810126
 10
11.8429200067
 20
-10.4981576783
 10
11.8724080647
 20
-10.508214061
 10
11.9204416565
 20
-10.5179459912
 10
11.9854521716
 20
-10.527201706
 10
12.0664415411
 20
-10.5359581863
  0
LWPOLYLINE
  5
2E1
100
AcDbEntity
  8
_14133
100
AcDbPolyline
 62
253
  6
CONTINUOUS
 90
37
 70
0
 10
2.9645652712
 20
58.354937193
 10
2.9426235113
 20
58.6034124943
 10
2.8996372458
 20
58.8551395438
 10
2.8344678541
 20
59.1081664422
 10
2.7456023254
 20
59.3616274152
 10
2.6325860431
 20
59.6117454508
 10
2.4971705851
 20
59.8523723861
 10
2.3401341552
 20
60.0812409087
 10
2.1622829123
 20
60.2964578099
 10
1.9674447175
 20
60.4936053099
 10
1.7580529407
 20
60.6710971589
 10
1.5355913773
 20
60.828465676
 10
1.303504351
 20
60.9642641374
 10
1.0646024254
 20
61.0780314778
 10
0.8203565386
 20
61.1701504068
 10
0.5722703765
 20
61.2409846022
 10
0.3228151406
 20
61.290696035
 10
0.0731576111
 20
61.3198652186
 10
-0.1774089552
 20
61.3290245292
 10
-0.42715608
 20
61.3182826807
 10
-0.6746819392
 20
61.2878559003
 10
-0.9212008168
 20
61.2373797935
 10
-1.1655574163
 20
61.1664808868
 10
-1.4054799857
 20
61.0751676134
 10
-1.6402244673
 20
60.9629148892
 10
-1.8683538715
 20
60.8293729621
 10
-2.0872294681
 20
60.6749583361
 10
-2.2941807425
 20
60.5004668605
 10
-2.4878359766
 20
60.3059502036
 10
-2.6654379259
 20
60.0929516218
 10
-2.8230589829
 20
59.8656018056
 10
-2.9596925493
 20
59.6256241465
 10
-3.0743277229
 20
59.3751593799
 10
-3.1649770385
 20
59.1201669071
 10
-3.2318257793
 20
58.8643477638
 10
-3.2761171125
 20
58.6086055525
 10
-3.2987365617
 20
58.354937193
  0
LINE
  5
2E2
100
AcDbEntity
  8
_14133
100
AcDbLine
 62
253
  6
CONTINUOUS
 10
10.8329143547
 20
-7.7728885089
 11
10.8329143547
 21
-9.4878810126
  0
LINE
  5
2E3
100
AcDbEntity
  8
_14133
100
AcDbLine
 62
253
  6
CONTINUOUS
 10
10.8329143547
 20
-17.6878810126
 11
10.8329143547
 21
-19.6259619721
  0
LINE
  5
2E4
100
AcDbEntity
  8
_14133
100
AcDbLine
 62
253
  6
CONTINUOUS
 10
10.8329143547
 20
-24.5480009526
 11
10.8329143547
 21
-26.1878810126
  0
LINE
  5
2E5
100
AcDbEntity
  8
_14133
100
AcDbLine
 62
253
  6
CONTINUOUS
 10
10.8329143547
 20
-53.3878810126
 11
10.8329143547
 21
-55.483982725
  0
LINE
  5
2E6
100
AcDbEntity
  8
_48104
100
AcDbLine
 62
7
  6
CONTINUOUS
 10
11.7329143547
 20
-10.0544448384
 11
11.7329143547
 21
-17.1213433272
  0
LINE
  5
2E7
100
AcDbEntity
  8
_48104
100
AcDbLine
 62
7
  6
CONTINUOUS
 10
11.7329143547
 20
-26.754229274
 11
11.7329143547
 21
-52.8220352828
  0
LINE
  5
2E8
100
AcDbEntity
  8
_14133
100
AcDbLine
 62
7
  6
CONTINUOUS
 10
11.8329143547
 20
-52.3878810126
 11
11.8329143547
 21
-27.1878810126
  0
LINE
  5
2E9
100
AcDbEntity
  8
_14133
100
AcDbLine
 62
7
  6
CONTINUOUS
 10
11.8329143547
 20
-16.6878810126
 11
11.8329143547
 21
-10.4878810126
  0
LINE
  5
2EA
100
AcDbEntity
  8
_14133
100
AcDbLine
 62
253
  6
CONTINUOUS
 10
-26.0502748422
 20
11.2121189874
 11
-15.0519501997
 21
11.2121189874
  0
LWPOLYLINE
  5
2EB
100
AcDbEntity
  8
_14133
100
AcDbPolyline
 62
253
  6
CONTINUOUS
 90
10
 70
0
 10
14.8939113544
 20
-67.9541214218
 10
14.8829176593
 20
-67.3870519813
 10
14.8730245628
 20
-66.8198105457
 10
14.8642320647
 20
-66.252398281
 10
14.8565401626
 20
-65.6848142858
 10
14.8499488591
 20
-65.1170617938
 10
14.8444581611
 20
-64.5491481787
 10
14.8400680711
 20
-63.9810766831
 10
14.8367785868
 20
-63.4128464119
 10
14.834589708
 20
-62.8444585385
  0
LWPOLYLINE
  5
2EC
100
AcDbEntity
  8
_14133
100
AcDbPolyline
 62
253
  6
CONTINUOUS
 90
13
 70
0
 10
14.834589708
 20
-62.8444585385
 10
14.8159715323
 20
-56.735269746
 10
14.798964362
 20
-50.6098830282
 10
14.7835681973
 20
-44.4697585857
 10
14.7697801264
 20
-38.3163597248
 10
14.7576030609
 20
-32.1511537308
 10
14.747045736
 20
-25.9756115255
 10
14.7381093214
 20
-19.7912052614
 10
14.7307926473
 20
-13.599409225
 10
14.7251009398
 20
-7.4017007165
 10
14.721035941
 20
-1.1995576044
 10
14.7185959089
 20
5.0055420313
 10
14.7177808434
 20
11.2121189874
  0
LINE
  5
2ED
100
AcDbEntity
  8
_14133
100
AcDbLine
 62
253
  6
CONTINUOUS
 10
13.6329143547
 20
-52.6739379841
 11
13.6329143547
 21
-27.3605946558
  0
LINE
  5
2EE
100
AcDbEntity
  8
_14133
100
AcDbLine
 62
253
  6
CONTINUOUS
 10
13.6329143547
 20
-16.813368269
 11
13.6329143547
 21
-10.585482212
  0
LINE
  5
2EF
100
AcDbEntity
  8
_55702
100
AcDbLine
 62
253
  6
CONTINUOUS
 10
13.7548410608
 20
74.93203739
 11
13.7548410608
 21
68.6257832741
  0
LINE
  5
2F0
100
AcDbEntity
  8
_14133
100
AcDbLine
 62
253
  6
CONTINUOUS
 10
13.8329143547
 20
68.2121189874
 11
13.8329143547
 21
58.4364491603
  0
LINE
  5
2F1
100
AcDbEntity
  8
_14133
100
AcDbLine
 62
253
  6
CONTINUOUS
 10
13.8329143547
 20
-69.0711713604
 11
13.8329143547
 21
-77.7878810126
  0
LWPOLYLINE
  5
2F2
100
AcDbEntity
  8
_14133
100
AcDbPolyline
 62
253
  6
CONTINUOUS
 90
10
 70
0
 10
14.7177808434
 20
11.2121189874
 10
14.7183421041
 20
16.3640573303
 10
14.7200234178
 20
21.5151502192
 10
14.7228247847
 20
26.6645515829
 10
14.7267470368
 20
31.8114158714
 10
14.731789342
 20
36.954897463
 10
14.7379492041
 20
42.0941508048
 10
14.745225791
 20
47.2283315273
 10
14.7536199349
 20
52.3565965803
 10
14.7631316356
 20
57.4781036421
  0
LWPOLYLINE
  5
2F3
100
AcDbEntity
  8
_14133
100
AcDbPolyline
 62
253
  6
CONTINUOUS
 90
10
 70
0
 10
13.6329143547
 20
-52.6739379841
 10
13.6222874516
 20
-52.9126988071
 10
13.5927974027
 20
-53.1463401502
 10
13.544444208
 20
-53.3748633897
 10
13.4766828905
 20
-53.5996821842
 10
13.3900584273
 20
-53.8193853075
 10
13.2862057491
 20
-54.0297379236
 10
13.1656698328
 20
-54.2293304753
 10
13.0279057015
 20
-54.4195774072
 10
12.8729133553
 20
-54.6004808939
  0
LWPOLYLINE
  5
2F4
100
AcDbEntity
  8
_14133
100
AcDbPolyline
 62
253
  6
CONTINUOUS
 90
19
 70
0
 10
13.6329143547
 20
-16.813368269
 10
13.6212864735
 20
-17.0620123763
 10
13.5893850326
 20
-17.3048239435
 10
13.5372100321
 20
-17.5418036304
 10
13.4641156496
 20
-17.7745140263
 10
13.3707477074
 20
-18.0013937163
 10
13.2590436726
 20
-18.21775792
 10
13.1284803582
 20
-18.4235435416
 10
12.9795809513
 20
-18.6188159999
 10
12.8158524794
 20
-18.7990842814
 10
12.6371639534
 20
-18.9639016589
 10
12.4436463625
 20
-19.1137177221
 10
12.2391997021
 20
-19.2453865193
 10
12.023564523
 20
-19.3586794041
 10
11.7970002745
 20
-19.4538275363
 10
11.5641852991
 20
-19.5283748064
 10
11.3266790445
 20
-19.5815030701
 10
11.082922063
 20
-19.614031997
 10
10.8329143547
 20
-19.6259619721
  0
LWPOLYLINE
  5
2F5
100
AcDbEntity
  8
_14133
100
AcDbPolyline
 62
253
  6
CONTINUOUS
 90
16
 70
0
 10
14.7631316356
 20
57.4781036421
 10
14.7572372459
 20
57.5822769587
 10
14.7416773786
 20
57.6826386137
 10
14.7164520337
 20
57.7791889346
 10
14.6810384003
 20
57.8727540848
 10
14.6359592892
 20
57.9625084786
 10
14.5827831338
 20
58.0459749968
 10
14.5212421854
 20
58.1230468138
 10
14.4516041926
 20
58.193831643
 10
14.3762408339
 20
58.2561744527
 10
14.2950410759
 20
58.3098095124
 10
14.2081159519
 20
58.3550034257
 10
14.11817024
 20
58.3903997575
 10
14.0261055328
 20
58.4155465611
 10
13.9310202377
 20
58.4308963175
 10
13.8329143547
 20
58.4364491603
  0
LWPOLYLINE
  5
2F6
100
AcDbEntity
  8
_14133
100
AcDbPolyline
 62
253
  6
CONTINUOUS
 90
13
 70
0
 10
-12.0108836213
 20
-53.3358069702
 10
-12.0663738984
 20
-53.4102937889
 10
-12.131492703
 20
-53.4924251694
 10
-12.2065629245
 20
-53.5825313899
 10
-12.2911721787
 20
-53.6799334375
 10
-12.3842322509
 20
-53.7833104207
 10
-12.4855365865
 20
-53.8923509248
 10
-12.5934597207
 20
-54.0052446829
 10
-12.7068980024
 20
-54.1208469542
 10
-12.8265623708
 20
-54.2398006658
 10
-12.9515293987
 20
-54.3610811186
 10
-13.0790278783
 20
-54.4819228713
 10
-13.2070846455
 20
-54.6004808935
  0
LINE
  5
2F7
100
AcDbEntity
  8
_14133
100
AcDbLine
 62
7
  6
CONTINUOUS
 10
25.8329143547
 20
-65.7878810126
 11
25.8329143547
 21
56.2121189874
  0
LINE
  5
2F8
100
AcDbEntity
  8
_55702
100
AcDbLine
 62
7
  6
CONTINUOUS
 10
26.2465786414
 20
56.1340456934
 11
26.2465786414
 21
-65.2673278173
  0
LWPOLYLINE
  5
2F9
100
AcDbEntity
  8
_14133
100
AcDbPolyline
 62
253
  6
CONTINUOUS
 90
19
 70
0
 10
25.7614562823
 20
56.2121189874
 10
25.7492800411
 20
49.71633204
 10
25.7390030403
 20
43.213424152
 10
25.73062528
 20
36.7033953236
 10
25.7241454759
 20
30.1844239026
 10
25.7195649122
 20
23.658331541
 10
25.7168874421
 20
17.1305831948
 10
25.7161146635
 20
10.6011774581
 10
25.7172449785
 20
4.0701157368
 10
25.7202774462
 20
-2.457132796
 10
25.7252136639
 20
-8.9805649384
 10
25.7320520344
 20
-15.5001838922
 10
25.7407868254
 20
-22.0105300896
 10
25.7514196293
 20
-28.5115957293
 10
25.7639488537
 20
-35.0033886125
 10
25.7783639894
 20
-41.4804725752
 10
25.7946615332
 20
-47.9410355625
 10
25.8128449883
 20
-54.3868896292
 10
25.8329143547
 20
-60.8180347754
  0
LWPOLYLINE
  5
2FA
100
AcDbEntity
  8
_14133
100
AcDbPolyline
 62
7
  6
CONTINUOUS
 90
25
 70
0
 10
25.8329143547
 20
-65.7878810126
 10
25.8060363863
 20
-66.5801846576
 10
25.7288800276
 20
-67.3620329186
 10
25.6014452785
 20
-68.1334257958
 10
25.4227049765
 20
-68.8975039262
 10
25.1936862841
 20
-69.6511266728
 10
24.9174706891
 20
-70.3848721237
 10
24.5934962065
 20
-71.0984833741
 10
24.2223248211
 20
-71.7922173289
 10
23.808723976
 20
-72.4574227906
 10
23.3521839793
 20
-73.0937516679
 10
22.8532145228
 20
-73.7015520521
 10
22.3181121241
 20
-74.2732170189
 10
21.7464396547
 20
-74.8083092865
 10
21.1386342431
 20
-75.3072661367
 10
20.5023037923
 20
-75.7637924901
 10
19.8371004076
 20
-76.1773785566
 10
19.1433719837
 20
-76.5485341264
 10
18.4297701084
 20
-76.8724934902
 10
17.696038096
 20
-77.1486946311
 10
16.9424326322
 20
-77.3776995661
 10
16.1783753617
 20
-77.5564286375
 10
15.4070068328
 20
-77.6838552928
 10
14.6251864971
 20
-77.7610060845
 10
13.8329143547
 20
-77.7878810126
  0
LWPOLYLINE
  5
2FB
100
AcDbEntity
  8
_14133
100
AcDbPolyline
 62
253
  6
CONTINUOUS
 90
10
 70
0
 10
2.7914040577
 20
-68.8083090094
 10
2.8274639054
 20
-68.6986200432
 10
2.8594613679
 20
-68.5876584349
 10
2.887351585
 20
-68.4755744758
 10
2.9110944195
 20
-68.3625277761
 10
2.9306575783
 20
-68.2486638948
 10
2.9460138011
 20
-68.134113868
 10
2.9571381352
 20
-68.0190251995
 10
2.9640108388
 20
-67.9035619175
 10
2.9666184813
 20
-67.7878810126
  0
LWPOLYLINE
  5
2FC
100
AcDbEntity
  8
_14133
100
AcDbPolyline
 62
253
  6
CONTINUOUS
 90
31
 70
0
 10
3.2640057974
 20
-69.0711713604
 10
3.1467025253
 20
-69.3755779587
 10
3.0100840923
 20
-69.6625196663
 10
2.8541504984
 20
-69.9320980992
 10
2.6775249479
 20
-70.1855088369
 10
2.4815842365
 20
-70.4218764661
 10
2.2704587509
 20
-70.6383232456
 10
2.0444479701
 20
-70.8351532356
 10
1.8032524151
 20
-71.0126833205
 10
1.5501040351
 20
-71.1682019428
 10
1.2844625634
 20
-71.3022742265
 10
1.0068682667
 20
-71.415024032
 10
0.7221738949
 20
-71.5031532374
 10
0.4296833401
 20
-71.5663658725
 10
0.1300927101
 20
-71.6054574736
 10
-0.1696569225
 20
-71.6187252408
 10
-0.4696611918
 20
-71.6050546429
 10
-0.7698244638
 20
-71.5655587002
 10
-1.0629187633
 20
-71.5017547781
 10
-1.348379577
 20
-71.4125936893
 10
-1.6267714183
 20
-71.2986144732
 10
-1.8925598528
 20
-71.1636816219
 10
-2.1447751624
 20
-71.0078519094
 10
-2.3843870651
 20
-70.8303941173
 10
-2.6087702803
 20
-70.6340785464
 10
-2.8182289544
 20
-70.4189299624
 10
-3.0124589409
 20
-70.1843285384
 10
-3.1879225196
 20
-69.9322045285
 10
-3.3434404503
 20
-69.6631004362
 10
-3.480191973
 20
-69.3761266443
 10
-3.5981770879
 20
-69.0711713604
  0
LINE
  5
2FD
100
AcDbEntity
  8
_55702
100
AcDbLine
 62
7
  6
CONTINUOUS
 10
-28.0182446468
 20
-66.7048225321
 11
-26.580749932
 21
-65.2673278173
  0
LINE
  5
2FE
100
AcDbEntity
  8
_55702
100
AcDbLine
 62
7
  6
CONTINUOUS
 10
27.9035774732
 20
-65.399819028
 11
32.4799393062
 21
54.2285743233
  0
LINE
  5
2FF
100
AcDbEntity
  8
_55702
100
AcDbLine
 62
7
  6
CONTINUOUS
 10
35.489170594
 20
54.2285743233
 11
30.9128087611
 21
-65.399819028
  0
LWPOLYLINE
  5
300
100
AcDbEntity
  8
_55702
100
AcDbPolyline
 62
7
  6
CONTINUOUS
 90
10
 70
0
 10
32.4431443567
 20
58.1618059716
 10
32.4660622155
 20
57.9352701094
 10
32.4857698354
 20
57.7088030019
 10
32.5022672164
 20
57.4824925845
 10
32.5155522119
 20
57.2563814563
 10
32.5256269684
 20
57.030602943
 10
32.5324979257
 20
56.8053802689
 10
32.5361672304
 20
56.5808451155
 10
32.5366327359
 20
56.3570383817
 10
32.5338944422
 20
56.1340456934
  0
LINE
  5
301
100
AcDbEntity
  8
_12880
100
AcDbLine
 62
7
  6
CONTINUOUS
 10
-7.1670856453
 20
35.2121189874
 11
6.8329143547
 21
35.2121189874
  0
LINE
  5
302
100
AcDbEntity
  8
_18940
100
AcDbLine
 62
7
  6
CONTINUOUS
 10
-7.1670856453
 20
35.2121189874
 11
6.8329143547
 21
35.2121189874
  0
LINE
  5
303
100
AcDbEntity
  8
_14133
100
AcDbLine
 62
7
  6
CONTINUOUS
 10
6.8329143547
 20
35.2121189874
 11
-7.1670856453
 21
35.2121189874
  0
LINE
  5
304
100
AcDbEntity
  8
_14133
100
AcDbLine
 62
7
  6
CONTINUOUS
 10
-7.1670856453
 20
39.2121189874
 11
6.8329143547
 21
39.2121189874
  0
LINE
  5
305
100
AcDbEntity
  8
_12880
100
AcDbLine
 62
7
  6
CONTINUOUS
 10
6.8329143547
 20
39.2121189874
 11
-7.1670856453
 21
39.2121189874
  0
LINE
  5
306
100
AcDbEntity
  8
_18940
100
AcDbLine
 62
7
  6
CONTINUOUS
 10
6.8329143547
 20
39.2121189874
 11
-7.1670856453
 21
39.2121189874
  0
LWPOLYLINE
  5
307
100
AcDbEntity
  8
_14133
100
AcDbPolyline
 62
253
  6
CONTINUOUS
 90
25
 70
0
 10
25.8329143547
 20
-60.8180347754
 10
25.7979792934
 20
-60.9484490163
 10
25.7175144126
 20
-61.0784331156
 10
25.59216619
 20
-61.2070745185
 10
25.4238366061
 20
-61.3331197104
 10
25.2142578977
 20
-61.4560893114
 10
24.9635913253
 20
-61.576287503
 10
24.6744320605
 20
-61.6927396874
 10
24.3487889524
 20
-61.8050058006
 10
23.9835845684
 20
-61.9141462534
 10
23.5791197315
 20
-62.0197476183
 10
23.1383984912
 20
-62.1208100491
 10
22.6604817213
 20
-62.217346362
 10
22.1478293007
 20
-62.3086245933
 10
21.6030095965
 20
-62.3940363597
 10
21.0245592618
 20
-62.4735991564
 10
20.4149241783
 20
-62.5467012585
 10
19.7783090898
 20
-62.6126444136
 10
19.1157340968
 20
-62.6711535291
 10
18.4310725957
 20
-62.7217194866
 10
17.7294195043
 20
-62.7638780719
 10
17.0139268695
 20
-62.7974013575
 10
16.2891558483
 20
-62.822066343
 10
15.5609708224
 20
-62.8377397208
 10
14.8345906478
 20
-62.8444585356
  0
LWPOLYLINE
  5
308
100
AcDbEntity
  8
_14133
100
AcDbPolyline
 62
253
  6
CONTINUOUS
 90
10
 70
0
 10
12.8729133553
 20
-54.6004808939
 10
12.6881539835
 20
-54.7795128832
 10
12.4915851117
 20
-54.9389377573
 10
12.28320674
 20
-55.0787594276
 10
12.0612419298
 20
-55.199803625
 10
11.8274676196
 20
-55.3012509632
 10
11.5872146255
 20
-55.3806372853
 10
11.3422598859
 20
-55.4371426076
 10
11.0908264623
 20
-55.4715907654
 10
10.8329143547
 20
-55.483982725
  0
LWPOLYLINE
  5
309
100
AcDbEntity
  8
_14133
100
AcDbPolyline
 62
7
  6
CONTINUOUS
 90
6
 70
0
 10
11.1879653372
 20
-53.3226274518
 10
11.2714952634
 20
-53.2863492748
 10
11.3508055543
 20
-53.2431372599
 10
11.4252518137
 20
-53.1933100355
 10
11.4954784377
 20
-53.1365481864
 10
11.5614854264
 20
-53.0728512263
  0
LINE
  5
30A
100
AcDbEntity
  8
_62068
100
AcDbLine
 62
7
  6
CONTINUOUS
 10
0.0312853237
 20
56.714738817
 11
0.0879143547
 21
56.7164493535
  0
LINE
  5
30B
100
AcDbEntity
  8
_62068
100
AcDbLine
 62
7
  6
CONTINUOUS
 10
-0.0253698658
 20
56.7134557631
 11
0.0312853237
 21
56.714738817
  0
LINE
  5
30C
100
AcDbEntity
  8
_62068
100
AcDbLine
 62
7
  6
CONTINUOUS
 10
-0.0820480623
 20
56.7126002455
 11
-0.0253698658
 21
56.7134557631
  0
LINE
  5
30D
100
AcDbEntity
  8
_62068
100
AcDbLine
 62
7
  6
CONTINUOUS
 10
-0.138736659
 20
56.7121724781
 11
-0.0820480623
 21
56.7126002455
  0
LWPOLYLINE
  5
30E
100
AcDbEntity
  8
_14133
100
AcDbPolyline
 62
253
  6
CONTINUOUS
 90
25
 70
0
 10
-15.097301011
 20
57.4781036459
 10
-15.8050395425
 20
57.4740682606
 10
-16.5104439654
 20
57.4647933294
 10
-17.2085632518
 20
57.4503533418
 10
-17.8925965601
 20
57.4309672696
 10
-18.5599429021
 20
57.4068344681
 10
-19.212252274
 20
57.3779734711
 10
-19.8442365716
 20
57.3446829961
 10
-20.4535083099
 20
57.3071942176
 10
-21.045821216
 20
57.2651529268
 10
-21.6189322124
 20
57.218593779
 10
-22.1674162972
 20
57.1678625259
 10
-22.6913431602
 20
57.1128511049
 10
-23.1867414677
 20
57.0538426006
 10
-23.6503099959
 20
56.991132606
 10
-24.0821435128
 20
56.9245528014
 10
-24.4789228109
 20
56.8543847087
 10
-24.8368594849
 20
56.7811121486
 10
-25.1544613592
 20
56.7048524376
 10
-25.4289675291
 20
56.6260507197
 10
-25.6578562435
 20
56.5452937977
 10
-25.8398873237
 20
56.4629459669
 10
-25.9738523444
 20
56.3795325414
 10
-26.0590310257
 20
56.2957276543
 10
-26.0956256662
 20
56.2121316432
  0
LINE
  5
30F
100
AcDbEntity
  8
_55702
100
AcDbLine
 62
253
  6
CONTINUOUS
 10
-35.8233418845
 20
54.2285743233
 11
-32.8141105967
 21
54.2285743233
  0
LINE
  5
310
100
AcDbEntity
  8
_55702
100
AcDbLine
 62
253
  6
CONTINUOUS
 10
32.4799393062
 20
54.2285743233
 11
35.489170594
 21
54.2285743233
  0
LINE
  5
311
100
AcDbEntity
  8
_55702
100
AcDbLine
 62
253
  6
CONTINUOUS
 10
-32.8680657327
 20
56.1340456934
 11
-26.580749932
 21
56.1340456934
  0
LINE
  5
312
100
AcDbEntity
  8
_55702
100
AcDbLine
 62
253
  6
CONTINUOUS
 10
26.2465786414
 20
56.1340456934
 11
32.5338944422
 21
56.1340456934
  0
LINE
  5
313
100
AcDbEntity
  8
_14133
100
AcDbLine
 62
253
  6
CONTINUOUS
 10
-26.1670856453
 20
56.2121189874
 11
-26.0956275729
 21
56.2121189874
  0
LINE
  5
314
100
AcDbEntity
  8
_14133
100
AcDbLine
 62
253
  6
CONTINUOUS
 10
25.7614562823
 20
56.2121189874
 11
25.8329143547
 21
56.2121189874
  0
LINE
  5
315
100
AcDbEntity
  8
_62068
100
AcDbLine
 62
7
  6
CONTINUOUS
 10
-0.1954346316
 20
56.7121724781
 11
-0.138736659
 21
56.7121724781
  0
LWPOLYLINE
  5
316
100
AcDbEntity
  8
_14133
100
AcDbPolyline
 62
253
  6
CONTINUOUS
 90
25
 70
0
 10
14.7631316356
 20
57.4781036421
 10
15.4709517706
 20
57.4740631386
 10
16.1763411685
 20
57.4647904154
 10
16.8743923194
 20
57.4503517494
 10
17.5584833494
 20
57.4309534804
 10
18.2258227022
 20
57.4068261584
 10
18.8780751416
 20
57.3779725247
 10
19.5100589159
 20
57.3446676825
 10
20.1193482515
 20
57.3071810262
 10
20.7116511213
 20
57.2651528898
 10
21.2846933209
 20
57.2185826659
 10
21.8331801545
 20
57.1678476376
 10
22.3571730658
 20
57.1128492116
 10
22.8524863368
 20
57.0538389268
 10
23.3160041932
 20
56.9911233245
 10
23.7479491899
 20
56.9245497391
 10
24.1446872131
 20
56.8543863259
 10
24.5025374848
 20
56.7811120642
 10
24.8202533261
 20
56.7048512143
 10
25.094748469
 20
56.6260553962
 10
25.3235592097
 20
56.5453014899
 10
25.5056918251
 20
56.4629463733
 10
25.6396607834
 20
56.3795386871
 10
25.7248163412
 20
56.2957347607
 10
25.7614550631
 20
56.2121270815
  0
LINE
  5
317
100
AcDbEntity
  8
_62068
100
AcDbLine
 62
7
  6
CONTINUOUS
 10
-0.2521232282
 20
56.7126002455
 11
-0.1954346316
 21
56.7121724781
  0
LINE
  5
318
100
AcDbEntity
  8
_62068
100
AcDbLine
 62
7
  6
CONTINUOUS
 10
-0.3088014247
 20
56.7134557631
 11
-0.2521232282
 21
56.7126002455
  0
LINE
  5
319
100
AcDbEntity
  8
_62068
100
AcDbLine
 62
7
  6
CONTINUOUS
 10
-0.3654566143
 20
56.714738817
 11
-0.3088014247
 21
56.7134557631
  0
LINE
  5
31A
100
AcDbEntity
  8
_62068
100
AcDbLine
 62
7
  6
CONTINUOUS
 10
-0.4220856453
 20
56.7164493535
 11
-0.3654566143
 21
56.714738817
  0
LWPOLYLINE
  5
31B
100
AcDbEntity
  8
_14133
100
AcDbPolyline
 62
253
  6
CONTINUOUS
 90
25
 70
0
 10
25.8329142178
 20
-65.7878812756
 10
25.743638744
 20
-65.9203688702
 10
25.6141409974
 20
-66.0524394884
 10
25.4452391856
 20
-66.1832808044
 10
25.2387863887
 20
-66.3118060601
 10
24.9965742199
 20
-66.4375412417
 10
24.7185955286
 20
-66.5607183713
 10
24.4072138646
 20
-66.6804367733
 10
24.0644424322
 20
-66.7963065229
 10
23.6873188762
 20
-66.9093123697
 10
23.2759976162
 20
-67.0190750137
 10
22.8335106389
 20
-67.1246869016
 10
22.359127116
 20
-67.2261698377
 10
21.8548275521
 20
-67.322827979
 10
21.3230584292
 20
-67.4141087352
 10
20.7628965919
 20
-67.5000317769
 10
20.1765859785
 20
-67.579973088
 10
19.5676223068
 20
-67.653322758
 10
18.9366959336
 20
-67.7198949665
 10
18.2868843452
 20
-67.7791647529
 10
17.6226249141
 20
-67.8306508242
 10
16.9469483948
 20
-67.8741188418
 10
16.2639360565
 20
-67.9092709805
 10
15.5781666275
 20
-67.9359465001
 10
14.8939113544
 20
-67.9541214218
  0
LINE
  5
31C
100
AcDbEntity
  8
_62068
100
AcDbLine
 62
7
  6
CONTINUOUS
 10
-0.3654566143
 20
59.7094991578
 11
-0.4220856453
 21
59.7077886213
  0
LINE
  5
31D
100
AcDbEntity
  8
_62068
100
AcDbLine
 62
7
  6
CONTINUOUS
 10
-0.3088014247
 20
59.7107822116
 11
-0.3654566143
 21
59.7094991578
  0
LINE
  5
31E
100
AcDbEntity
  8
_62068
100
AcDbLine
 62
7
  6
CONTINUOUS
 10
-0.2521232282
 20
59.7116377293
 11
-0.3088014247
 21
59.7107822116
  0
LINE
  5
31F
100
AcDbEntity
  8
_62068
100
AcDbLine
 62
7
  6
CONTINUOUS
 10
-0.1954346316
 20
59.7120654967
 11
-0.2521232282
 21
59.7116377293
  0
LINE
  5
320
100
AcDbEntity
  8
_62068
100
AcDbLine
 62
7
  6
CONTINUOUS
 10
1.3285839887
 20
57.9571189874
 11
-1.6627552792
 21
57.9571189874
  0
LINE
  5
321
100
AcDbEntity
  8
_55702
100
AcDbLine
 62
253
  6
CONTINUOUS
 10
35.466609916
 20
58.1618059716
 11
32.4431443567
 21
58.1618059716
  0
LINE
  5
322
100
AcDbEntity
  8
_55702
100
AcDbLine
 62
253
  6
CONTINUOUS
 10
-32.7773156472
 20
58.1618059716
 11
-35.8007812065
 21
58.1618059716
  0
LINE
  5
323
100
AcDbEntity
  8
_14133
100
AcDbLine
 62
253
  6
CONTINUOUS
 10
-14.1670856453
 20
58.4364491603
 11
-3.7981413493
 21
58.4364491603
  0
LINE
  5
324
100
AcDbEntity
  8
_14133
100
AcDbLine
 62
253
  6
CONTINUOUS
 10
3.4639700588
 20
58.4364491603
 11
13.8329143547
 21
58.4364491603
  0
LINE
  5
325
100
AcDbEntity
  8
_62068
100
AcDbLine
 62
7
  6
CONTINUOUS
 10
1.3285839887
 20
58.4671189874
 11
-1.6627552792
 21
58.4671189874
  0
LINE
  5
326
100
AcDbEntity
  8
_62068
100
AcDbLine
 62
7
  6
CONTINUOUS
 10
-0.138736659
 20
59.7120654967
 11
-0.1954346316
 21
59.7120654967
  0
LINE
  5
327
100
AcDbEntity
  8
_62068
100
AcDbLine
 62
7
  6
CONTINUOUS
 10
-0.0820480623
 20
59.7116377293
 11
-0.138736659
 21
59.7120654967
  0
LINE
  5
328
100
AcDbEntity
  8
_62068
100
AcDbLine
 62
7
  6
CONTINUOUS
 10
-0.0253698658
 20
59.7107822116
 11
-0.0820480623
 21
59.7116377293
  0
LINE
  5
329
100
AcDbEntity
  8
_62068
100
AcDbLine
 62
7
  6
CONTINUOUS
 10
0.0312853237
 20
59.7094991578
 11
-0.0253698658
 21
59.7107822116
  0
LINE
  5
32A
100
AcDbEntity
  8
_62068
100
AcDbLine
 62
7
  6
CONTINUOUS
 10
0.0879143547
 20
59.7077886213
 11
0.0312853237
 21
59.7094991578
  0
LWPOLYLINE
  5
32B
100
AcDbEntity
  8
_14133
100
AcDbPolyline
 62
253
  6
CONTINUOUS
 90
13
 70
0
 10
-3.7981413493
 20
58.4364491603
 10
-3.7350118436
 20
58.4330033763
 10
-3.6720222426
 20
58.4286097908
 10
-3.610839518
 20
58.4233567057
 10
-3.5537162602
 20
58.4174429559
 10
-3.5012337681
 20
58.4109835314
 10
-3.4524914439
 20
58.4038597382
 10
-3.4086802893
 20
58.3961721387
 10
-3.3713115996
 20
58.3881451923
 10
-3.3407346006
 20
58.3797943599
 10
-3.3180136819
 20
58.3712951382
 10
-3.3039608304
 20
58.3629333953
 10
-3.2987365617
 20
58.354937193
  0
LWPOLYLINE
  5
32C
100
AcDbEntity
  8
_14133
100
AcDbPolyline
 62
253
  6
CONTINUOUS
 90
13
 70
0
 10
-3.5981770879
 20
-69.0711713604
 10
-3.5363087999
 20
-69.0495962371
 10
-3.4745478365
 20
-69.0263158257
 10
-3.4146970202
 20
-69.0019314439
 10
-3.3591061905
 20
-68.977410779
 10
-3.3082883356
 20
-68.9531426819
 10
-3.2613438943
 20
-68.9286761697
 10
-3.219661834
 20
-68.9045181971
 10
-3.1847723112
 20
-68.8814878606
 10
-3.1570074536
 20
-68.8597122435
 10
-3.1374886213
 20
-68.8398120292
 10
-3.1269962086
 20
-68.8225301467
 10
-3.1255754729
 20
-68.8083085038
  0
LINE
  5
32D
100
AcDbEntity
  8
_14133
100
AcDbLine
 62
253
  6
CONTINUOUS
 10
13.8329143547
 20
68.1425657675
 11
-14.1670856453
 21
68.1425657675
  0
LINE
  5
32E
100
AcDbEntity
  8
_14133
100
AcDbLine
 62
7
  6
CONTINUOUS
 10
-14.1670856453
 20
68.2121189874
 11
13.8329143547
 21
68.2121189874
  0
LINE
  5
32F
100
AcDbEntity
  8
_55702
100
AcDbLine
 62
7
  6
CONTINUOUS
 10
-14.0890123513
 20
68.6257832741
 11
13.7548410608
 21
68.6257832741
  0
LWPOLYLINE
  5
330
100
AcDbEntity
  8
_14133
100
AcDbPolyline
 62
253
  6
CONTINUOUS
 90
25
 70
0
 10
13.8329143547
 20
68.1425657853
 10
14.61313609
 20
68.1170210551
 10
15.3900204879
 20
68.0404979645
 10
16.1602397097
 20
67.9133234596
 10
16.9204943114
 20
67.736041388
 10
17.6675275804
 20
67.5094106144
 10
18.3981395888
 20
67.2344017283
 10
19.1092003842
 20
66.9121921473
 10
19.7976639562
 20
66.5441616738
 10
20.4605816623
 20
66.1318868444
 10
21.0951134212
 20
65.6771332901
 10
21.6985411135
 20
65.1818486315
 10
22.2682809983
 20
64.648154286
 10
22.8018922055
 20
64.0783359261
 10
23.297088738
 20
63.4748341213
 10
23.7517506416
 20
62.8402336417
 10
24.163929855
 20
62.1772525014
 10
24.5318605339
 20
61.4887301859
 10
24.8539680738
 20
60.7776149635
 10
25.1288720731
 20
60.0469524782
 10
25.3553944178
 20
59.2998721335
 10
25.5325659689
 20
58.5395724938
 10
25.6596274727
 20
57.7693093618
 10
25.7360330803
 20
56.9923822551
 10
25.761454546
 20
56.2121189874
  0
LINE
  5
331
100
AcDbEntity
  8
_55702
100
AcDbLine
 62
7
  6
CONTINUOUS
 10
-14.0890123513
 20
74.93203739
 11
13.7548410608
 21
74.93203739
  0
LINE
  5
332
100
AcDbEntity
  8
_55702
100
AcDbLine
 62
7
  6
CONTINUOUS
 10
13.7548410608
 20
77.9402998094
 11
-14.0890123513
 21
77.9402998094
  0
LINE
  5
333
100
AcDbEntity
  8
_55702
100
AcDbLine
 62
7
  6
CONTINUOUS
 10
-71.9629492509
 20
-73.0667970065
 11
-111.381063104
 21
-77.2098077186
  0
LINE
  5
334
100
AcDbEntity
  8
_29304
100
AcDbLine
 62
7
  6
CONTINUOUS
 10
-111.881063104
 20
-77.2623598363
 11
-116.881063104
 21
-77.7878810126
  0
LINE
  5
335
100
AcDbEntity
  8
_14133
100
AcDbLine
 62
7
  6
CONTINUOUS
 10
-117.381063104
 20
-76.4878810126
 11
-116.881063104
 21
-76.435328895
  0
LINE
  5
336
100
AcDbEntity
  8
_29304
100
AcDbLine
 62
7
  6
CONTINUOUS
 10
-111.381063104
 20
-75.7098077186
 11
-111.881063104
 21
-75.7623598363
  0
LWPOLYLINE
  5
337
100
AcDbEntity
  8
_14133
100
AcDbPolyline
 62
253
  6
CONTINUOUS
 90
13
 70
0
 10
-124.1742026582
 20
-67.2261698377
 10
-124.6020833284
 20
-67.322827979
 10
-125.0002878431
 20
-67.4141087352
 10
-125.3688165053
 20
-67.5000317769
 10
-125.7047999622
 20
-67.579973088
 10
-126.0055714599
 20
-67.653322758
 10
-126.2702789008
 20
-67.7198949665
 10
-126.4966342256
 20
-67.7791647529
 10
-126.6827105814
 20
-67.8306508242
 10
-126.8276618238
 20
-67.8741188418
 10
-126.930436834
 20
-67.9092709805
 10
-126.9907195748
 20
-67.9359465001
 10
-127.0088423577
 20
-67.9541214218
  0
LWPOLYLINE
  5
338
100
AcDbEntity
  8
_14133
100
AcDbPolyline
 62
253
  6
CONTINUOUS
 90
10
 70
0
 10
-119.3085571516
 20
-66.1832808044
 10
-119.926585335
 20
-66.3118060601
 10
-120.5269415891
 20
-66.4375412417
 10
-121.1107802747
 20
-66.5607183713
 10
-121.6738673426
 20
-66.6804367733
 10
-122.2144744576
 20
-66.7963065229
 10
-122.7371909054
 20
-66.9093123697
 10
-123.2401446789
 20
-67.0190750137
 10
-123.7191381739
 20
-67.1246869016
 10
-124.1742026582
 20
-67.2261698377
  0
LINE
  5
339
100
AcDbEntity
  8
_14133
100
AcDbLine
 62
253
  6
CONTINUOUS
 10
-118.4902366398
 20
-66.0145320651
 11
-119.3085571516
 21
-66.1832808044
  0
LINE
  5
33A
100
AcDbEntity
  8
_55702
100
AcDbLine
 62
253
  6
CONTINUOUS
 10
-109.881063104
 20
-65.1178886213
 11
-71.9629492509
 21
-61.1325342621
  0
LINE
  5
33B
100
AcDbEntity
  8
_55702
100
AcDbLine
 62
7
  6
CONTINUOUS
 10
-125.074471316
 20
-66.7065630156
 11
-109.881063104
 21
-65.1096714644
  0
LINE
  5
33C
100
AcDbEntity
  8
_55702
100
AcDbLine
 62
253
  6
CONTINUOUS
 10
-68.381063104
 20
-61.1325342621
 11
-71.9629492509
 21
-61.1325342621
  0
LINE
  5
33D
100
AcDbEntity
  8
_55702
100
AcDbLine
 62
7
  6
CONTINUOUS
 10
-171.381063104
 20
58.1618059716
 11
-171.381063104
 21
77.9402998094
  0
LINE
  5
33E
100
AcDbEntity
  8
_55702
100
AcDbLine
 62
7
  6
CONTINUOUS
 10
-169.881063104
 20
77.9402998094
 11
-169.881063104
 21
58.1618059716
  0
LINE
  5
33F
100
AcDbEntity
  8
_55702
100
AcDbLine
 62
7
  6
CONTINUOUS
 10
-170.687528243
 20
54.2285743233
 11
-127.14635389
 21
-65.399819028
  0
LINE
  5
340
100
AcDbEntity
  8
_55702
100
AcDbLine
 62
7
  6
CONTINUOUS
 10
-169.2779893118
 20
54.7416045383
 11
-125.0744957993
 21
-66.7064957485
  0
LINE
  5
341
100
AcDbEntity
  8
_14133
100
AcDbLine
 62
7
  6
CONTINUOUS
 10
-117.381063104
 20
-65.8979532289
 11
-117.381063104
 21
-77.7878810126
  0
LINE
  5
342
100
AcDbEntity
  8
_29304
100
AcDbLine
 62
7
  6
CONTINUOUS
 10
-116.881063104
 20
-65.8536182682
 11
-116.881063104
 21
-77.7878810126
  0
LINE
  5
343
100
AcDbEntity
  8
_29304
100
AcDbLine
 62
7
  6
CONTINUOUS
 10
-111.881063104
 20
-65.3280970919
 11
-111.881063104
 21
-77.2623598363
  0
LINE
  5
344
100
AcDbEntity
  8
_55702
100
AcDbLine
 62
7
  6
CONTINUOUS
 10
-111.381063104
 20
-65.2673278173
 11
-111.381063104
 21
-77.2098077186
  0
LINE
  5
345
100
AcDbEntity
  8
_55702
100
AcDbLine
 62
7
  6
CONTINUOUS
 10
-109.881063104
 20
69.9763893405
 11
-109.881063104
 21
-65.1096714644
  0
LWPOLYLINE
  5
346
100
AcDbEntity
  8
_55702
100
AcDbPolyline
 62
253
  6
CONTINUOUS
 90
9
 70
0
 10
-71.8126558183
 20
61.8791702685
 10
-71.8236200265
 20
62.247702201
 10
-71.8370635152
 20
62.570797865
 10
-71.8527602523
 20
62.8470434985
 10
-71.8705759808
 20
63.0752443688
 10
-71.8907242124
 20
63.2544297738
 10
-71.9130985063
 20
63.3838182277
 10
-71.9372747701
 20
63.4628117991
 10
-71.9629492509
 20
63.4910349813
  0
LWPOLYLINE
  5
347
100
AcDbEntity
  8
_55702
100
AcDbPolyline
 62
253
  6
CONTINUOUS
 90
9
 70
0
 10
-71.8126558183
 20
-67.0963737752
 10
-71.8236200265
 20
-66.4089844908
 10
-71.8370635152
 20
-65.6988237086
 10
-71.8527602523
 20
-64.9688752113
 10
-71.8705759808
 20
-64.2221916329
 10
-71.8907242124
 20
-63.4619945722
 10
-71.9130985063
 20
-62.6915056735
 10
-71.9372747701
 20
-61.9139303959
 10
-71.9629492509
 20
-61.1325342621
  0
LWPOLYLINE
  5
348
100
AcDbEntity
  8
_55702
100
AcDbPolyline
 62
253
  6
CONTINUOUS
 90
5
 70
0
 10
-71.7929649329
 20
59.9855748814
 10
-71.7941034285
 20
60.5179808934
 10
-71.7978110076
 20
61.0124353989
 10
-71.8040475569
 20
61.4668160602
 10
-71.8126558183
 20
61.8791702685
  0
LWPOLYLINE
  5
349
100
AcDbEntity
  8
_55702
100
AcDbPolyline
 62
253
  6
CONTINUOUS
 90
5
 70
0
 10
-71.7929649329
 20
-69.5613369066
 10
-71.7941034285
 20
-68.9930447831
 10
-71.7978110076
 20
-68.3911012407
 10
-71.8040475569
 20
-67.7580102688
 10
-71.8126558183
 20
-67.0963737752
  0
LINE
  5
34A
100
AcDbEntity
  8
_55702
100
AcDbLine
 62
253
  6
CONTINUOUS
 10
-71.9629492509
 20
51.5567722369
 11
-71.9629492509
 21
-61.1325342621
  0
LWPOLYLINE
  5
34B
100
AcDbEntity
  8
_55702
100
AcDbPolyline
 62
253
  6
CONTINUOUS
 90
4
 70
0
 10
-71.8040475569
 20
58.1822482439
 10
-71.7978110076
 20
58.8153392156
 10
-71.7941034285
 20
59.4172827579
 10
-71.7929649329
 20
59.9855748814
  0
LINE
  5
34C
100
AcDbEntity
  8
_55702
100
AcDbLine
 62
253
  6
CONTINUOUS
 10
-71.8130938641
 20
57.4931489341
 11
-71.8040475569
 21
58.1822482439
  0
LWPOLYLINE
  5
34D
100
AcDbEntity
  8
_55702
100
AcDbPolyline
 62
253
  6
CONTINUOUS
 90
5
 70
0
 10
-71.8126558183
 20
-71.4549322936
 10
-71.8040475569
 20
-71.0425780853
 10
-71.7978110076
 20
-70.588197424
 10
-71.7941034285
 20
-70.0937429186
 10
-71.7929649329
 20
-69.5613369066
  0
LWPOLYLINE
  5
34E
100
AcDbEntity
  8
_55702
100
AcDbPolyline
 62
253
  6
CONTINUOUS
 90
9
 70
0
 10
-71.9629492509
 20
51.5567722369
 10
-71.9372747701
 20
52.3381683708
 10
-71.9130985063
 20
53.1157436486
 10
-71.8907242124
 20
53.8862325472
 10
-71.8705759808
 20
54.646429608
 10
-71.8527602523
 20
55.3931131865
 10
-71.8370635151
 20
56.1230616838
 10
-71.8236200265
 20
56.8332224659
 10
-71.8130938641
 20
57.4931489341
  0
LWPOLYLINE
  5
34F
100
AcDbEntity
  8
_55702
100
AcDbPolyline
 62
253
  6
CONTINUOUS
 90
19
 70
0
 10
-68.381063104
 20
57.1878847144
 10
-68.3938054253
 20
57.411531911
 10
-68.4314570264
 20
57.6335621208
 10
-68.4930574842
 20
57.8515084203
 10
-68.5767494911
 20
58.0615654862
 10
-68.6816716345
 20
58.2636784066
 10
-68.8092520069
 20
58.461104079
 10
-68.9593372143
 20
58.6527586716
 10
-69.1302367774
 20
58.8358789648
 10
-69.322587096
 20
59.0107543588
 10
-69.5355841336
 20
59.1757167161
 10
-69.7671975957
 20
59.3288551368
 10
-70.0170555065
 20
59.4694943068
 10
-70.2823992458
 20
59.5957609684
 10
-70.5610934802
 20
59.7065539706
 10
-70.8540065368
 20
59.8018522119
 10
-71.1597118829
 20
59.8809240567
 10
-71.4739088364
 20
59.9424507993
 10
-71.793002207
 20
59.9855787989
  0
LINE
  5
350
100
AcDbEntity
  8
_55702
100
AcDbLine
 62
7
  6
CONTINUOUS
 10
-68.381063104
 20
-69.088709425
 11
-68.381063104
 21
59.5129473998
  0
LWPOLYLINE
  5
351
100
AcDbEntity
  8
_55702
100
AcDbPolyline
 62
253
  6
CONTINUOUS
 90
19
 70
0
 10
-68.381063104
 20
-66.7636467396
 10
-68.3938054253
 20
-66.9872939362
 10
-68.4314570264
 20
-67.209324146
 10
-68.4930574842
 20
-67.4272704456
 10
-68.5767494911
 20
-67.6373275114
 10
-68.6816716345
 20
-67.8394404318
 10
-68.8092520069
 20
-68.0368661042
 10
-68.9593372143
 20
-68.2285206969
 10
-69.1302367774
 20
-68.4116409901
 10
-69.322587096
 20
-68.586516384
 10
-69.5355841336
 20
-68.7514787414
 10
-69.7671975957
 20
-68.904617162
 10
-70.0170555065
 20
-69.045256332
 10
-70.2823992458
 20
-69.1715229936
 10
-70.5610934802
 20
-69.2823159958
 10
-70.8540065368
 20
-69.3776142371
 10
-71.1597118829
 20
-69.4566860819
 10
-71.4739088364
 20
-69.5182128245
 10
-71.793002207
 20
-69.5613408242
  0
LINE
  5
352
100
AcDbEntity
  8
_55702
100
AcDbLine
 62
253
  6
CONTINUOUS
 10
-71.9629492509
 20
51.5567722369
 11
-68.381063104
 21
51.5567722369
  0
LINE
  5
353
100
AcDbEntity
  8
_55702
100
AcDbLine
 62
253
  6
CONTINUOUS
 10
-169.6733145435
 20
56.1340456934
 11
-109.881063104
 21
56.1340456934
  0
LINE
  5
354
100
AcDbEntity
  8
_55702
100
AcDbLine
 62
253
  6
CONTINUOUS
 10
-71.9629492509
 20
51.5567722369
 11
-109.881063104
 21
55.5421265961
  0
LINE
  5
355
100
AcDbEntity
  8
_55702
100
AcDbLine
 62
7
  6
CONTINUOUS
 10
-109.881063104
 20
67.4763893405
 11
-71.9629492509
 21
63.4910349813
  0
LINE
  5
356
100
AcDbEntity
  8
_55702
100
AcDbLine
 62
7
  6
CONTINUOUS
 10
-109.881063104
 20
69.9763893405
 11
-169.881063104
 21
76.2826434565
  0
LINE
  5
357
100
AcDbEntity
  8
_55702
100
AcDbLine
 62
7
  6
CONTINUOUS
 10
-169.881063104
 20
77.9402998094
 11
-171.381063104
 21
77.9402998094
  0
LWPOLYLINE
  5
358
100
AcDbEntity
  8
_55702
100
AcDbPolyline
 62
253
  6
CONTINUOUS
 90
9
 70
0
 10
-71.9629492509
 20
-73.0667970065
 10
-71.9372747701
 20
-73.0385738243
 10
-71.9130985063
 20
-72.9595802529
 10
-71.8907242124
 20
-72.8301917989
 10
-71.8705759808
 20
-72.6510063939
 10
-71.8527602523
 20
-72.4228055236
 10
-71.8370635151
 20
-72.1465598901
 10
-71.8236200265
 20
-71.8234642261
 10
-71.8126558183
 20
-71.4549322936
  0
ARC
  5
359
100
AcDbEntity
  8
_14133
100
AcDbCircle
 62
7
  6
CONTINUOUS
 10
-11.1670856453
 20
-52.3878810126
 40
1.0
100
AcDbArc
 50
180.0
 51
223.2332646661
  0
ARC
  5
35A
100
AcDbEntity
  8
_14133
100
AcDbCircle
 62
7
  6
CONTINUOUS
 10
-11.1670856453
 20
-27.1878810126
 40
1.0
100
AcDbArc
 50
90.0
 51
180.0
  0
ARC
  5
35B
100
AcDbEntity
  8
_14133
100
AcDbCircle
 62
7
  6
CONTINUOUS
 10
-11.1670856453
 20
-16.6878810126
 40
1.0
100
AcDbArc
 50
180.0
 51
270.0
  0
ARC
  5
35C
100
AcDbEntity
  8
_14133
100
AcDbCircle
 62
7
  6
CONTINUOUS
 10
-11.1670856453
 20
-10.4878810126
 40
1.0
100
AcDbArc
 50
90.0
 51
180.0
  0
ARC
  5
35D
100
AcDbEntity
  8
_55702
100
AcDbCircle
 62
7
  6
CONTINUOUS
 10
-14.0890123513
 20
56.1340456934
 40
21.8062541159
100
AcDbArc
 50
90.0
 51
179.9108587424
  0
ARC
  5
35E
100
AcDbEntity
  8
_55702
100
AcDbCircle
 62
7
  6
CONTINUOUS
 10
-14.0890123513
 20
56.1340456934
 40
18.7979916966
100
AcDbArc
 50
90.0
 51
173.8073909698
  0
ARC
  5
35F
100
AcDbEntity
  8
_55702
100
AcDbCircle
 62
7
  6
CONTINUOUS
 10
-14.0890123513
 20
56.1340456934
 40
12.4917375807
100
AcDbArc
 50
90.0
 51
180.0
  0
ARC
  5
360
100
AcDbEntity
  8
_14133
100
AcDbCircle
 62
7
  6
CONTINUOUS
 10
-14.1670856453
 20
56.2121189874
 40
12.0
100
AcDbArc
 50
90.0
 51
180.0
  0
ARC
  5
361
100
AcDbEntity
  8
_12880
100
AcDbCircle
 62
7
  6
CONTINUOUS
 10
-7.1670856453
 20
37.2121189874
 40
2.0
100
AcDbArc
 50
90.0
 51
270.0
  0
ARC
  5
362
100
AcDbEntity
  8
_18940
100
AcDbCircle
 62
7
  6
CONTINUOUS
 10
-7.1670856453
 20
37.2121189874
 40
2.0
100
AcDbArc
 50
90.0
 51
270.0
  0
ARC
  5
363
100
AcDbEntity
  8
_14133
100
AcDbCircle
 62
7
  6
CONTINUOUS
 10
-7.1670856453
 20
37.2121189874
 40
2.0
100
AcDbArc
 50
90.0
 51
270.0
  0
CIRCLE
  5
364
100
AcDbEntity
  8
_14133
100
AcDbCircle
 62
7
  6
CONTINUOUS
 10
-0.1670856453
 20
-67.7878810126
 40
3.0
  0
CIRCLE
  5
365
100
AcDbEntity
  8
_62068
100
AcDbCircle
 62
7
  6
CONTINUOUS
 10
-0.1670856453
 20
-67.7878810126
 40
2.7999999999
  0
CIRCLE
  5
366
100
AcDbEntity
  8
_62068
100
AcDbCircle
 62
7
  6
CONTINUOUS
 10
-0.1670856453
 20
-67.7878810126
 40
2.6568974641
  0
ARC
  5
367
100
AcDbEntity
  8
_14133
100
AcDbCircle
 62
7
  6
CONTINUOUS
 10
10.8329143547
 20
-27.1878810126
 40
1.0
100
AcDbArc
 50
0.0
 51
90.0
  0
ARC
  5
368
100
AcDbEntity
  8
_14133
100
AcDbCircle
 62
7
  6
CONTINUOUS
 10
10.8329143547
 20
-16.6878810126
 40
1.0
100
AcDbArc
 50
270.0
 51
360.0
  0
ARC
  5
369
100
AcDbEntity
  8
_14133
100
AcDbCircle
 62
7
  6
CONTINUOUS
 10
10.8329143547
 20
-10.4878810126
 40
1.0
100
AcDbArc
 50
0.0
 51
90.0
  0
ARC
  5
36A
100
AcDbEntity
  8
_14133
100
AcDbCircle
 62
7
  6
CONTINUOUS
 10
10.8329143547
 20
-52.3878810126
 40
1.0
100
AcDbArc
 50
316.7667353339
 51
360.0
  0
ARC
  5
36B
100
AcDbEntity
  8
_55702
100
AcDbCircle
 62
7
  6
CONTINUOUS
 10
13.7548410608
 20
56.1340456934
 40
21.8062541159
100
AcDbArc
 50
0.0891412576
 51
90.0
  0
ARC
  5
36C
100
AcDbEntity
  8
_55702
100
AcDbCircle
 62
7
  6
CONTINUOUS
 10
13.7548410608
 20
56.1340456934
 40
18.7979916966
100
AcDbArc
 50
6.1926090302
 51
90.0
  0
ARC
  5
36D
100
AcDbEntity
  8
_55702
100
AcDbCircle
 62
7
  6
CONTINUOUS
 10
13.7548410608
 20
56.1340456934
 40
12.4917375807
100
AcDbArc
 50
0.0
 51
90.0
  0
ARC
  5
36E
100
AcDbEntity
  8
_14133
100
AcDbCircle
 62
7
  6
CONTINUOUS
 10
13.8329143547
 20
56.2121189874
 40
12.0
100
AcDbArc
 50
0.0
 51
90.0
  0
CIRCLE
  5
36F
100
AcDbEntity
  8
_14133
100
AcDbCircle
 62
7
  6
CONTINUOUS
 10
-0.1670856453
 20
58.2121189874
 40
3.0
  0
CIRCLE
  5
370
100
AcDbEntity
  8
_62068
100
AcDbCircle
 62
7
  6
CONTINUOUS
 10
-0.1670856453
 20
58.2121189874
 40
2.7999999999
  0
CIRCLE
  5
371
100
AcDbEntity
  8
_62068
100
AcDbCircle
 62
7
  6
CONTINUOUS
 10
-0.1670856453
 20
58.2121189874
 40
2.6568974641
  0
ARC
  5
372
100
AcDbEntity
  8
_12880
100
AcDbCircle
 62
7
  6
CONTINUOUS
 10
6.8329143547
 20
37.2121189874
 40
2.0
100
AcDbArc
 50
270.0
 51
90.0
  0
ARC
  5
373
100
AcDbEntity
  8
_18940
100
AcDbCircle
 62
7
  6
CONTINUOUS
 10
6.8329143547
 20
37.2121189874
 40
2.0
100
AcDbArc
 50
270.0
 51
90.0
  0
ARC
  5
374
100
AcDbEntity
  8
_14133
100
AcDbCircle
 62
7
  6
CONTINUOUS
 10
6.8329143547
 20
37.2121189874
 40
2.0
100
AcDbArc
 50
270.0
 51
90.0
  0
ARC
  5
375
100
AcDbEntity
  8
_14133
100
AcDbCircle
 62
7
  6
CONTINUOUS
 10
267.118936896
 20
11.2121189874
 40
402.0
100
AcDbArc
 50
190.6780545146
 51
191.5199822806
  0
ARC
  5
376
100
AcDbEntity
  8
_55702
100
AcDbCircle
 62
7
  6
CONTINUOUS
 10
-159.881063104
 20
58.1618059716
 40
11.5
100
AcDbArc
 50
180.0
 51
200.0
  0
ARC
  5
377
100
AcDbEntity
  8
_14133
100
AcDbCircle
 62
7
  6
CONTINUOUS
 10
-116.0044127354
 20
-66.8743649081
 40
11.0
100
AcDbArc
 50
191.5199822806
 51
262.8105798936
  0
ARC
  5
378
100
AcDbEntity
  8
_55702
100
AcDbCircle
 62
7
  6
CONTINUOUS
 10
-159.881063104
 20
58.1618059716
 40
10.0
100
AcDbArc
 50
180.0
 51
200.0
  0
ARC
  5
379
100
AcDbEntity
  8
_55702
100
AcDbCircle
 62
7
  6
CONTINUOUS
 10
-72.381063104
 20
59.5129473998
 40
4.0
100
AcDbArc
 50
0.0
 51
84.0
  0
ARC
  5
37A
100
AcDbEntity
  8
_55702
100
AcDbCircle
 62
7
  6
CONTINUOUS
 10
-72.381063104
 20
-69.088709425
 40
4.0
100
AcDbArc
 50
276.0
 51
360.0
  0
ARC
  5
37B
100
AcDbEntity
  8
_55702
100
AcDbCircle
 62
7
  6
CONTINUOUS
 10
-125.2669686484
 20
-64.7157787414
 40
2.0
100
AcDbArc
 50
200.0
 51
275.5224878141
  0
ELLIPSE
  5
37C
100
AcDbEntity
  8
_29304
100
AcDbEllipse
 62
7
  6
CONTINUOUS
 10
13.766815
 20
-65.7217816578
 30
0.0
 11
8.5785053266
 21
-8.5785053266
 31
0.0
 40
0.9891328444
 41
-0.7799349549
 42
0.7799349549
  0
ELLIPSE
  5
37D
100
AcDbEntity
  8
_29304
100
AcDbEllipse
 62
7
  6
CONTINUOUS
 10
-14.1009862905
 20
-65.7217816578
 30
0.0
 11
8.5785053266
 21
8.5785053266
 31
0.0
 40
0.9891328444
 41
-3.9215276085
 42
-2.3616576987
  0
ELLIPSE
  5
37E
100
AcDbEntity
  8
_29304
100
AcDbEllipse
 62
7
  6
CONTINUOUS
 10
-14.1009862905
 20
56.1460196326
 30
0.0
 11
8.5785053266
 21
-8.5785053266
 31
0.0
 40
0.9891328444
 41
2.3616576987
 42
3.9215276085
  0
ELLIPSE
  5
37F
100
AcDbEntity
  8
_29304
100
AcDbEllipse
 62
7
  6
CONTINUOUS
 10
13.766815
 20
56.1460196326
 30
0.0
 11
8.5785053266
 21
8.5785053266
 31
0.0
 40
0.9891328444
 41
-0.7799349549
 42
0.7799349549
  0
ELLIPSE
  5
380
100
AcDbEntity
  8
_55702
100
AcDbEllipse
 62
7
  6
CONTINUOUS
 10
-35.8233418845
 20
58.1618059716
 30
0.0
 11
-0.3885269066
 21
11.4999990101
 31
0.0
 40
0.0122808444
 41
-4.5385464552
 42
-4.3637380377
  0
ELLIPSE
  5
381
100
AcDbEntity
  8
_55702
100
AcDbEllipse
 62
7
  6
CONTINUOUS
 10
-31.2469800516
 20
-64.7157787414
 30
0.0
 11
-0.0675698968
 21
1.9999998279
 31
0.0
 40
0.0122808444
 41
-4.3637380377
 42
-3.1420075613
  0
ELLIPSE
  5
382
100
AcDbEntity
  8
_55702
100
AcDbEllipse
 62
7
  6
CONTINUOUS
 10
30.9128087611
 20
-64.7157787414
 30
0.0
 11
0.0675698968
 21
1.9999998279
 31
0.0
 40
0.0122808444
 41
-3.1411777459
 42
-1.9194472695
  0
ELLIPSE
  5
383
100
AcDbEntity
  8
_55702
100
AcDbEllipse
 62
7
  6
CONTINUOUS
 10
35.489170594
 20
58.1618059716
 30
0.0
 11
0.3885269066
 21
11.4999990101
 31
0.0
 40
0.0122808444
 41
-1.9194472695
 42
-1.744638852
  0
ELLIPSE
  5
384
100
AcDbEntity
  8
_55702
100
AcDbEllipse
 62
7
  6
CONTINUOUS
 10
-31.6783053423
 20
58.1618059716
 30
0.0
 11
-0.0
 21
11.5
 31
0.0
 40
0.1051042353
 41
-4.5351352713
 42
-4.36332313
  0
ELLIPSE
  5
385
100
AcDbEntity
  8
_55702
100
AcDbEllipse
 62
7
  6
CONTINUOUS
 10
-28.0402174152
 20
-64.7157787414
 30
0.0
 11
-0.0
 21
2.0
 31
0.0
 40
0.1051042353
 41
-4.36332313
 42
-3.0368728985
  0
ELLIPSE
  5
386
100
AcDbEntity
  8
_55702
100
AcDbEllipse
 62
7
  6
CONTINUOUS
 10
27.7060461247
 20
-64.7157787414
 30
0.0
 11
-0.0
 21
2.0
 31
0.0
 40
0.1051042353
 41
3.0368728985
 42
4.36332313
  0
ELLIPSE
  5
387
100
AcDbEntity
  8
_55702
100
AcDbEllipse
 62
7
  6
CONTINUOUS
 10
31.3441340518
 20
58.1618059716
 30
0.0
 11
-0.0
 21
11.5
 31
0.0
 40
0.1051042353
 41
-1.9198621772
 42
-1.7480500359
  0
ELLIPSE
  5
388
100
AcDbEntity
  8
_55702
100
AcDbEllipse
 62
7
  6
CONTINUOUS
 10
1602.3051016907
 20
56.1340456934
 30
0.0
 11
1774.6189859531
 21
0.7363031368
 31
0.0
 40
0.0122808444
 41
3.087862976
 42
3.1062647393
  0
ENDSEC
  0
SECTION
  2
OBJECTS
  0
DICTIONARY
  5
C
100
AcDbDictionary
280
0
281
1
  3
ACAD_GROUP
350
D
  3
ACAD_MLINESTYLE
350
17
  3
ACAD_LAYOUT
350
1A
  3
ACAD_PLOTSETTINGS
350
19
  3
ACAD_PLOTSTYLENAME
350
E
  0
DICTIONARY
  5
D
102
{ACAD_REACTORS
330
C
102
}
100
AcDbDictionary
280
0
281
1
  0
ACDBDICTIONARYWDFLT
  5
E
102
{ACAD_REACTORS
330
C
102
}
100
AcDbDictionary
281
1
  3
Normal
350
F
100
AcDbDictionaryWithDefault
340
F
  0
DICTIONARY
  5
17
102
{ACAD_REACTORS
330
C
102
}
100
AcDbDictionary
280
0
281
1
  3
Standard
350
18
  0
DICTIONARY
  5
19
102
{ACAD_REACTORS
330
C
102
}
100
AcDbDictionary
281
1
  0
DICTIONARY
  5
1A
102
{ACAD_REACTORS
330
C
102
}
100
AcDbDictionary
281
1
  3
Model
350
389
  3
Layout1
350
38A
  0
ACDBPLACEHOLDER
  5
F
102
{ACAD_REACTORS
330
E
102
}
  0
MLINESTYLE
  5
18
102
{ACAD_REACTORS
330
17
102
}
100
AcDbMlineStyle
  2
STANDARD
 70
0
  3

 62
256
 51
90.0
 52
90.0
 71
2
 49
0.5
 62
256
  6
BYLAYER
 49
-0.5
 62
256
  6
BYLAYER
  0
LAYOUT
  5
389
102
{ACAD_REACTORS
330
1A
102
}
100
AcDbPlotSettings
  1

  2
none_device
  4
ISO_A4_(297.00_x_210.00_MM)
  6

 40
0.0
 41
0.0
 42
0.0
 43
0.0
 44
297.0
 45
210.0
 46
0.0
 47
0.0
 48
0.0
 49
0.0
140
0.0
141
0.0
142
1.0
143
1.0
 70
1024
 72
1
 73
0
 74
0
  7

 75
0
147
1.0
148
0.0
149
0.0
100
AcDbLayout
  1
Model
 70
0
 71
0
 10
0.0
 20
0.0
 11
297.0
 21
210.0
 12
0.0
 22
0.0
 32
0.0
 14
0.0
 24
0.0
 34
0.0
 15
0.0
 25
0.0
 35
0.0
146
0.0
 13
0.0
 23
0.0
 33
0.0
 16
1.0
 26
0.0
 36
0.0
 17
0.0
 27
1.0
 37
0.0
 76
0
330
23F
345
0
346
0
  0
LAYOUT
  5
38A
102
{ACAD_REACTORS
330
1A
102
}
100
AcDbPlotSettings
  1

  2
none_device
  4
ISO_A4_(297.00_x_210.00_MM)
  6

 40
0.0
 41
0.0
 42
0.0
 43
0.0
 44
297.0
 45
210.0
 46
0.0
 47
0.0
 48
0.0
 49
0.0
140
0.0
141
0.0
142
1.0
143
1.0
 70
0
 72
1
 73
0
 74
0
  7

 75
0
147
1.0
148
0.0
149
0.0
100
AcDbLayout
  1
Layout1
 70
0
 71
1
 10
0.0
 20
0.0
 11
297.0
 21
210.0
 12
0.0
 22
0.0
 32
0.0
 14
0.0
 24
0.0
 34
0.0
 15
0.0
 25
0.0
 35
0.0
146
0.0
 13
0.0
 23
0.0
 33
0.0
 16
1.0
 26
0.0
 36
0.0
 17
0.0
 27
1.0
 37
0.0
 76
0
330
240
345
0
346
0
  0
ENDSEC
  0
EOF
