  0
SECTION
  2
HEADER
  9
$ACADVER
  1
AC1021
  9
$DWGCODEPAGE
  3
ANSI_1252
  9
$EXTMAX
 10
297.0
 20
210.0
 30
0.0
  9
$EXTMIN
 10
0.0
 20
0.0
 30
0.0
  9
$LIMMIN
 10
0.0
 20
0.0
  9
$LIMMAX
 10
297.0
 20
210.0
  9
$VIEWCTR
 10
148.5
 20
105.0
  9
$VIEWSIZE
 40
210.0
  9
$CLAYER
  8
0
  9
$LTSCALE
 40
16.335
  9
$CELTYPE
  6
BYLAYER
  9
$DIMSCALE
 40
1.0
  9
$DIMASZ
 40
3.0
  9
$DIMEXO
 40
0.5
  9
$DIMDLI
 40
11.286
  9
$DIMEXE
 40
1.5
  9
$DIMCEN
 40
2.673
  9
$DIMLFAC
 40
1.0
  9
$DIMBLK
  1
_FILLED
  9
$DIMALT
 70
0
  9
$DIMALTF
 40
0.0393700787
  9
$DIMTXT
 40
3.0
  9
$DIMTOL
 70
1
  9
$DIMLIM
 70
0
  9
$DIMTFAC
 40
1.0
  9
$DIMTP
 40
0.01
  9
$DIMTM
 40
0.01
  9
$DIMGAP
 40
0.625
  9
$DIMDSEP
 70
44
  9
$AUNITS
 70
0
  9
$PDMODE
 70
3
  9
$PDSIZE
 40
3.0
  9
$HANDSEED
  5
2B1
  9
$TILEMODE
 70
1
  9
$MEASUREMENT
 70
1
  9
$INSUNITS
 70
4
  0
ENDSEC
  0
SECTION
  2
CLASSES
  0
CLASS
  1
ACDBDICTIONARYWDFLT
  2
AcDbDictionaryWithDefault
  3
AutoCAD 2000
 90
0
 91
1
280
0
281
0
  0
CLASS
  1
ACDBPLACEHOLDER
  2
AcDbPlaceHolder
  3
AutoCAD 2000
 90
0
 91
1
280
0
281
0
  0
CLASS
  1
LAYOUT
  2
AcDbLayout
  3
AutoCAD 2000
 90
0
 91
0
280
0
281
0
  0
ENDSEC
  0
SECTION
  2
TABLES
  0
TABLE
  2
VPORT
  5
8
100
AcDbSymbolTable
 70
2
  0
VPORT
  5
1F4
100
AcDbSymbolTableRecord
100
AcDbViewportTableRecord
  2
*ACTIVE
 70
0
 10
0.0
 20
0.0
 11
1.0
 21
1.0
 12
148.5
 22
105.0
 13
0.0
 23
0.0
 14
1.0
 24
1.0
 15
0.0
 25
0.0
 16
0.0
 26
0.0
 36
1.0
 17
0.0
 27
0.0
 37
0.0
 40
210.0
 41
1.4142857143
 42
50.0
 43
0.0
 44
0.0
 50
0.0
 51
0.0
 71
0
 72
100
 73
1
 74
1
 75
0
 76
0
 77
0
 78
0
  0
ENDTAB
  0
TABLE
  2
LTYPE
  5
5
100
AcDbSymbolTable
 70
6
  0
LTYPE
  5
14
100
AcDbSymbolTableRecord
100
AcDbLinetypeTableRecord
  2
BYBLOCK
 70
0
  3

 72
65
 73
0
 40
0.0
  0
LTYPE
  5
15
100
AcDbSymbolTableRecord
100
AcDbLinetypeTableRecord
  2
BYLAYER
 70
0
  3

 72
65
 73
0
 40
0.0
  0
LTYPE
  5
16
100
AcDbSymbolTableRecord
100
AcDbLinetypeTableRecord
  2
CONTINUOUS
 70
64
  3
Solid line
 72
65
 73
0
 40
0.0
  0
LTYPE
  5
1F5
100
AcDbSymbolTableRecord
100
AcDbLinetypeTableRecord
  2
CENTER
 70
64
  3
____ _ ____ _ ____ _ ____ _ ____ _ ____ _ ____
 72
65
 73
4
 40
0.6
 49
0.375
 74
0
 49
-0.075
 74
0
 49
0.075
 74
0
 49
-0.075
 74
0
  0
LTYPE
  5
1F6
100
AcDbSymbolTableRecord
100
AcDbLinetypeTableRecord
  2
HIDDEN
 70
64
  3
- - - - - - - - - - - - - - - - - - - -
 72
65
 73
2
 40
0.2
 49
0.1
 74
0
 49
-0.1
 74
0
  0
LTYPE
  5
1F7
100
AcDbSymbolTableRecord
100
AcDbLinetypeTableRecord
  2
PHANTOM
 70
64
  3
_____ _ _ _____ _ _ _____ _ _ _____
 72
65
 73
6
 40
0.8
 49
0.45
 74
0
 49
-0.05
 74
0
 49
0.1
 74
0
 49
-0.05
 74
0
 49
0.1
 74
0
 49
-0.05
 74
0
  0
LTYPE
  5
1F8
100
AcDbSymbolTableRecord
100
AcDbLinetypeTableRecord
  2
DOT
 70
64
  3
. . . . . . . . . . . . . . . . . . . .
 72
65
 73
2
 40
0.2
 49
0.1
 74
0
 49
-0.1
 74
0
  0
LTYPE
  5
1F9
100
AcDbSymbolTableRecord
100
AcDbLinetypeTableRecord
  2
DASHED
 70
64
  3
- - - - - - - - - - - - - - - - - - - -
 72
65
 73
2
 40
0.2
 49
0.1
 74
0
 49
-0.1
 74
0
  0
ENDTAB
  0
TABLE
  2
LAYER
  5
2
100
AcDbSymbolTable
 70
36
  0
LAYER
  5
10
100
AcDbSymbolTableRecord
100
AcDbLayerTableRecord
  2
0
 70
0
 62
7
  6
CONTINUOUS
370
-3
390
F
  0
LAYER
  5
1FA
100
AcDbSymbolTableRecord
100
AcDbLayerTableRecord
  2
DEFAULT_1
 70
0
 62
7
  6
CENTER
370
-3
390
F
  0
LAYER
  5
1FB
100
AcDbSymbolTableRecord
100
AcDbLayerTableRecord
  2
DEFAULT_2
 70
0
 62
7
  6
HIDDEN
370
-3
390
F
  0
LAYER
  5
1FC
100
AcDbSymbolTableRecord
100
AcDbLayerTableRecord
  2
DEFAULT_3
 70
0
 62
7
  6
PHANTOM
370
-3
390
F
  0
LAYER
  5
1FD
100
AcDbSymbolTableRecord
100
AcDbLayerTableRecord
  2
ASSI
 70
0
 62
7
  6
CONTINUOUS
370
-3
390
F
  0
LAYER
  5
1FE
100
AcDbSymbolTableRecord
100
AcDbLayerTableRecord
  2
COORDINATE
 70
0
 62
7
  6
CONTINUOUS
370
-3
390
F
  0
LAYER
  5
1FF
100
AcDbSymbolTableRecord
100
AcDbLayerTableRecord
  2
COPY_PUBLISH
 70
0
 62
7
  6
CONTINUOUS
370
-3
390
F
  0
LAYER
  5
200
100
AcDbSymbolTableRecord
100
AcDbLayerTableRecord
  2
COSMETICI
 70
0
 62
7
  6
CONTINUOUS
370
-3
390
F
  0
LAYER
  5
201
100
AcDbSymbolTableRecord
100
AcDbLayerTableRecord
  2
CURVE
 70
0
 62
7
  6
CONTINUOUS
370
-3
390
F
  0
LAYER
  5
202
100
AcDbSymbolTableRecord
100
AcDbLayerTableRecord
  2
DRAFT
 70
0
 62
7
  6
CONTINUOUS
370
-3
390
F
  0
LAYER
  5
203
100
AcDbSymbolTableRecord
100
AcDbLayerTableRecord
  2
IMPORT_IGES
 70
0
 62
7
  6
CONTINUOUS
370
-3
390
F
  0
LAYER
  5
204
100
AcDbSymbolTableRecord
100
AcDbLayerTableRecord
  2
NOTE
 70
0
 62
7
  6
CONTINUOUS
370
-3
390
F
  0
LAYER
  5
205
100
AcDbSymbolTableRecord
100
AcDbLayerTableRecord
  2
PIANI
 70
0
 62
7
  6
CONTINUOUS
370
-3
390
F
  0
LAYER
  5
206
100
AcDbSymbolTableRecord
100
AcDbLayerTableRecord
  2
PUNTI
 70
0
 62
7
  6
CONTINUOUS
370
-3
390
F
  0
LAYER
  5
207
100
AcDbSymbolTableRecord
100
AcDbLayerTableRecord
  2
RACCORDO
 70
0
 62
7
  6
CONTINUOUS
370
-3
390
F
  0
LAYER
  5
208
100
AcDbSymbolTableRecord
100
AcDbLayerTableRecord
  2
SIMBOLI
 70
0
 62
7
  6
CONTINUOUS
370
-3
390
F
  0
LAYER
  5
209
100
AcDbSymbolTableRecord
100
AcDbLayerTableRecord
  2
SMUSSO
 70
0
 62
7
  6
CONTINUOUS
370
-3
390
F
  0
LAYER
  5
20A
100
AcDbSymbolTableRecord
100
AcDbLayerTableRecord
  2
SUPERFICI
 70
0
 62
7
  6
CONTINUOUS
370
-3
390
F
  0
LAYER
  5
20B
100
AcDbSymbolTableRecord
100
AcDbLayerTableRecord
  2
TRASH
 70
0
 62
7
  6
CONTINUOUS
370
-3
390
F
  0
ENDTAB
  0
TABLE
  2
STYLE
  5
3
100
AcDbSymbolTable
 70
1
  0
STYLE
  5
11
100
AcDbSymbolTableRecord
100
AcDbTextStyleTableRecord
  2
STANDARD
 70
0
 40
0.0
 41
0.8
 50
0.0
 71
0
 42
0.2
  3
txt
  4

  0
STYLE
  5
20C
100
AcDbSymbolTableRecord
100
AcDbTextStyleTableRecord
  2
TEXTSTYLE_1
 70
0
 40
0.0
 41
0.8
 50
0.0
 71
0
 42
0.2
  3
gdt
  4

  0
ENDTAB
  0
TABLE
  2
VIEW
  5
6
100
AcDbSymbolTable
 70
0
  0
ENDTAB
  0
TABLE
  2
UCS
  5
7
100
AcDbSymbolTable
 70
0
  0
ENDTAB
  0
TABLE
  2
APPID
  5
9
100
AcDbSymbolTable
 70
1
  0
APPID
  5
20D
100
AcDbSymbolTableRecord
100
AcDbRegAppTableRecord
  2
ACAD
 70
0
  0
ENDTAB
  0
TABLE
  2
BLOCK_RECORD
  5
1
100
AcDbSymbolTable
 70
0
  0
BLOCK_RECORD
  5
20E
100
AcDbSymbolTableRecord
100
AcDbBlockTableRecord
  2
*Model_Space
  0
BLOCK_RECORD
  5
20F
100
AcDbSymbolTableRecord
100
AcDbBlockTableRecord
  2
*Paper_Space
  0
BLOCK_RECORD
  5
210
100
AcDbSymbolTableRecord
100
AcDbBlockTableRecord
  2
_FILLED
  0
BLOCK_RECORD
  5
211
100
AcDbSymbolTableRecord
100
AcDbBlockTableRecord
  2
*D0
  0
BLOCK_RECORD
  5
212
100
AcDbSymbolTableRecord
100
AcDbBlockTableRecord
  2
*D1
  0
BLOCK_RECORD
  5
213
100
AcDbSymbolTableRecord
100
AcDbBlockTableRecord
  2
*D2
  0
BLOCK_RECORD
  5
214
100
AcDbSymbolTableRecord
100
AcDbBlockTableRecord
  2
*D3
  0
ENDTAB
  0
TABLE
  2
DIMSTYLE
  5
A
100
AcDbSymbolTable
 70
1
100
AcDbDimStyleTable
 71
0
  0
DIMSTYLE
105
215
100
AcDbSymbolTableRecord
100
AcDbDimStyleTableRecord
  2
STANDARD
 70
0
  3

  4

 40
1.0
 41
3.0
 42
0.5
 43
0.38
 44
1.5
 45
0.0
 46
0.0
 47
0.01
 48
0.01
140
3.0
141
0.09
142
0.0
143
25.4
144
1.0
145
0.0
146
1.0
147
0.625
 71
1.0
 72
0.0
 73
0
 74
0
 75
0
 76
0
 77
1
 78
8
 79
2
170
0
171
1
172
0
173
0
174
0
175
0
176
0
177
0
178
0
270
2
179
2
271
2
272
2
273
2
274
2
275
0
280
0
281
0
282
0
283
1
284
8
285
0
286
0
287
3
288
0
340
11
278
44
341
210
342
210
343
210
344
210
  0
DIMSTYLE
105
216
100
AcDbSymbolTableRecord
100
AcDbDimStyleTableRecord
  2
DIMSTYLE_1
 70
0
  3

  4

 40
1.0
 41
3.0
 42
0.5
 43
0.38
 44
1.5
 45
0.0
 46
0.0
 47
0.0
 48
0.0
140
3.0
141
0.09
142
0.0
143
25.4
144
1.0
145
0.0
146
1.0
147
0.75
 71
0.0
 72
0.0
 73
0
 74
0
 75
0
 76
0
 77
1
 78
8
 79
2
170
0
171
1
172
0
173
0
174
0
175
0
176
0
177
0
178
0
270
2
179
2
271
2
272
2
273
2
274
2
275
0
280
0
281
0
282
0
283
1
284
8
285
0
286
0
287
3
288
0
340
11
278
44
341
210
342
210
343
210
344
210
  0
ENDTAB
  0
ENDSEC
  0
SECTION
  2
BLOCKS
  0
BLOCK
  5
20
100
AcDbEntity
  8
0
100
AcDbBlockBegin
  2
*Model_Space
 70
0
 10
0.0
 20
0.0
 30
0.0
  3
*Model_Space
  1

  0
ENDBLK
  5
21
100
AcDbEntity
  8
0
100
AcDbBlockEnd
  0
BLOCK
  5
1C
100
AcDbEntity
  8
0
100
AcDbBlockBegin
  2
*Paper_Space
 70
0
 10
0.0
 20
0.0
 30
0.0
  3
*Paper_Space
  1

  0
ENDBLK
  5
1D
100
AcDbEntity
  8
0
100
AcDbBlockEnd
  0
BLOCK
  5
217
100
AcDbEntity
  8
0
100
AcDbBlockBegin
  2
_FILLED
 70
64
 10
0.0
 20
0.0
  3
_FILLED
  1

  0
SOLID
  5
218
100
AcDbEntity
  8
0
  6
BYBLOCK
 62
0
100
AcDbTrace
 10
0.0
 20
0.0
 11
-1.0
 21
0.3166666667
 12
-1.0
 22
-0.3166666667
 13
-1.0
 23
-0.3166666667
  0
ENDBLK
  5
219
100
AcDbEntity
  8
0
  6
BYBLOCK
 62
0
100
AcDbBlockEnd
  0
BLOCK
  5
21A
100
AcDbEntity
  8
0
100
AcDbBlockBegin
 62
7
  6
CONTINUOUS
  2
*D0
 70
65
 10
0.0
 20
0.0
  3
*D0
  1

  0
LINE
  5
21B
100
AcDbEntity
  8
0
100
AcDbLine
 62
7
  6
CONTINUOUS
 10
9.0946508729
 20
4.5
 11
9.0946508729
 21
12.3711736327
  0
LINE
  5
21C
100
AcDbEntity
  8
0
100
AcDbLine
 62
7
  6
CONTINUOUS
 10
44.0946508729
 20
4.5
 11
44.0946508729
 21
12.3711736327
  0
LINE
  5
21D
100
AcDbEntity
  8
0
100
AcDbLine
 62
7
  6
CONTINUOUS
 10
9.0946508729
 20
10.8711736327
 11
26.5946508729
 21
10.8711736327
  0
LINE
  5
21E
100
AcDbEntity
  8
0
100
AcDbLine
 62
7
  6
CONTINUOUS
 10
44.0946508729
 20
10.8711736327
 11
26.5946508729
 21
10.8711736327
  0
INSERT
  5
21F
100
AcDbEntity
  8
0
100
AcDbBlockReference
 62
7
  6
CONTINUOUS
  2
_FILLED
 10
9.0946508729
 20
10.8711736327
 41
3.0
 42
3.0
 43
3.0
 50
180.0
  0
INSERT
  5
220
100
AcDbEntity
  8
0
100
AcDbBlockReference
 62
7
  6
CONTINUOUS
  2
_FILLED
 10
44.0946508729
 20
10.8711736327
 41
3.0
 42
3.0
 43
3.0
  0
ENDBLK
  5
221
100
AcDbEntity
  8
0
  6
BYBLOCK
 62
0
100
AcDbBlockEnd
  0
BLOCK
  5
222
100
AcDbEntity
  8
0
100
AcDbBlockBegin
 62
7
  6
CONTINUOUS
  2
*D1
 70
65
 10
0.0
 20
0.0
  3
*D1
  1

  0
LINE
  5
223
100
AcDbEntity
  8
0
100
AcDbLine
 62
7
  6
CONTINUOUS
 10
9.5946508729
 20
-5.0
 11
60.0524864602
 21
-5.0
  0
LINE
  5
224
100
AcDbEntity
  8
0
100
AcDbLine
 62
7
  6
CONTINUOUS
 10
9.5946508729
 20
5.0
 11
60.0524864602
 21
5.0
  0
LINE
  5
225
100
AcDbEntity
  8
0
100
AcDbLine
 62
7
  6
CONTINUOUS
 10
58.5524864602
 20
-5.0
 11
58.5524864602
 21
0.0
  0
LINE
  5
226
100
AcDbEntity
  8
0
100
AcDbLine
 62
7
  6
CONTINUOUS
 10
58.5524864602
 20
5.0
 11
58.5524864602
 21
0.0
  0
INSERT
  5
227
100
AcDbEntity
  8
0
100
AcDbBlockReference
 62
7
  6
CONTINUOUS
  2
_FILLED
 10
58.5524864602
 20
-5.0
 41
3.0
 42
3.0
 43
3.0
 50
270.0
  0
INSERT
  5
228
100
AcDbEntity
  8
0
100
AcDbBlockReference
 62
7
  6
CONTINUOUS
  2
_FILLED
 10
58.5524864602
 20
5.0
 41
3.0
 42
3.0
 43
3.0
 50
90.0
  0
ENDBLK
  5
229
100
AcDbEntity
  8
0
  6
BYBLOCK
 62
0
100
AcDbBlockEnd
  0
BLOCK
  5
22A
100
AcDbEntity
  8
0
100
AcDbBlockBegin
 62
7
  6
CONTINUOUS
  2
*D2
 70
65
 10
0.0
 20
0.0
  3
*D2
  1

  0
LINE
  5
22B
100
AcDbEntity
  8
0
100
AcDbLine
 62
7
  6
CONTINUOUS
 10
43.5571571361
 20
4.0
 11
52.0124624611
 21
4.0
  0
LINE
  5
22C
100
AcDbEntity
  8
0
100
AcDbLine
 62
7
  6
CONTINUOUS
 10
44.1865676395
 20
-4.0
 11
52.0124624611
 21
-4.0
  0
LINE
  5
22D
100
AcDbEntity
  8
0
100
AcDbLine
 62
7
  6
CONTINUOUS
 10
50.5124624611
 20
4.0
 11
50.5124624611
 21
8.0
  0
LINE
  5
22E
100
AcDbEntity
  8
0
100
AcDbLine
 62
7
  6
CONTINUOUS
 10
50.5124624611
 20
8.0
 11
50.5124624611
 21
-0.0
  0
LINE
  5
22F
100
AcDbEntity
  8
0
100
AcDbLine
 62
7
  6
CONTINUOUS
 10
50.5124624611
 20
-4.0
 11
50.5124624611
 21
-37.8996571429
  0
LINE
  5
230
100
AcDbEntity
  8
0
100
AcDbLine
 62
7
  6
CONTINUOUS
 10
50.5124624611
 20
-37.8996571429
 11
50.5124624611
 21
-0.0
  0
INSERT
  5
231
100
AcDbEntity
  8
0
100
AcDbBlockReference
 62
7
  6
CONTINUOUS
  2
_FILLED
 10
50.5124624611
 20
4.0
 41
3.0
 42
3.0
 43
3.0
 50
270.0
  0
INSERT
  5
232
100
AcDbEntity
  8
0
100
AcDbBlockReference
 62
7
  6
CONTINUOUS
  2
_FILLED
 10
50.5124624611
 20
-4.0
 41
3.0
 42
3.0
 43
3.0
 50
90.0
  0
ENDBLK
  5
233
100
AcDbEntity
  8
0
  6
BYBLOCK
 62
0
100
AcDbBlockEnd
  0
BLOCK
  5
234
100
AcDbEntity
  8
0
100
AcDbBlockBegin
 62
7
  6
CONTINUOUS
  2
*D3
 70
65
 10
0.0
 20
0.0
  3
*D3
  1

  0
LINE
  5
235
100
AcDbEntity
  8
0
100
AcDbLine
 62
7
  6
CONTINUOUS
 10
9.0946508729
 20
-5.5
 11
9.0946508729
 21
-14.4075448328
  0
LINE
  5
236
100
AcDbEntity
  8
0
100
AcDbLine
 62
7
  6
CONTINUOUS
 10
9.8946508729
 20
-5.5
 11
9.8946508729
 21
-14.4075448328
  0
LINE
  5
237
100
AcDbEntity
  8
0
100
AcDbLine
 62
7
  6
CONTINUOUS
 10
9.0946508729
 20
-12.9075448328
 11
5.0946508729
 21
-12.9075448328
  0
LINE
  5
238
100
AcDbEntity
  8
0
100
AcDbLine
 62
7
  6
CONTINUOUS
 10
5.0946508729
 20
-12.9075448328
 11
9.4946508729
 21
-12.9075448328
  0
LINE
  5
239
100
AcDbEntity
  8
0
100
AcDbLine
 62
7
  6
CONTINUOUS
 10
9.8946508729
 20
-12.9075448328
 11
19.7818544003
 21
-12.9075448328
  0
LINE
  5
23A
100
AcDbEntity
  8
0
100
AcDbLine
 62
7
  6
CONTINUOUS
 10
19.7818544003
 20
-12.9075448328
 11
9.4946508729
 21
-12.9075448328
  0
INSERT
  5
23B
100
AcDbEntity
  8
0
100
AcDbBlockReference
 62
7
  6
CONTINUOUS
  2
_FILLED
 10
9.0946508729
 20
-12.9075448328
 41
3.0
 42
3.0
 43
3.0
  0
INSERT
  5
23C
100
AcDbEntity
  8
0
100
AcDbBlockReference
 62
7
  6
CONTINUOUS
  2
_FILLED
 10
9.8946508729
 20
-12.9075448328
 41
3.0
 42
3.0
 43
3.0
 50
180.0
  0
ENDBLK
  5
23D
100
AcDbEntity
  8
0
  6
BYBLOCK
 62
0
100
AcDbBlockEnd
  0
ENDSEC
  0
SECTION
  2
ENTITIES
  0
DIMENSION
  5
23E
100
AcDbEntity
  8
0
100
AcDbDimension
 62
7
  6
CONTINUOUS
  2
*D0
 10
44.0946508729
 20
10.8711736327
 11
24.45179373
 21
10.8711736327
 70
160
 71
2
 72
2
 41
0.9
 42
35.0
  3
DIMSTYLE_1
100
AcDbAlignedDimension
 13
9.0946508729
 23
4.0
 14
44.0946508729
 24
4.0
100
AcDbRotatedDimension
  0
DIMENSION
  5
23F
100
AcDbEntity
  8
0
100
AcDbDimension
 62
7
  6
CONTINUOUS
  2
*D1
 10
58.5524864602
 20
5.0
 11
58.5524864602
 21
-4.0357142857
 70
160
 71
2
 72
2
 41
0.9
 42
10.0
  1
%%c<>
  3
DIMSTYLE_1
100
AcDbAlignedDimension
 13
9.0946508729
 23
-5.0
 14
9.0946508729
 24
5.0
 50
90.0
100
AcDbRotatedDimension
  0
DIMENSION
  5
240
100
AcDbEntity
  8
0
100
AcDbDimension
 62
7
  6
CONTINUOUS
  2
*D2
 10
50.5124624611
 20
-4.0
 11
50.5124624611
 21
-37.8996571429
 70
160
 71
3
 72
2
 41
0.9
 42
8.0
  1
%%c<> (foratura)
  3
DIMSTYLE_1
100
AcDbAlignedDimension
 13
43.0571571361
 23
4.0
 14
43.6865676395
 24
-4.0
 50
270.0
100
AcDbRotatedDimension
  0
DIMENSION
  5
241
100
AcDbEntity
  8
0
100
AcDbDimension
 62
7
  6
CONTINUOUS
  2
*D3
 10
9.8946508729
 20
-12.9075448328
 11
13.3532829718
 21
-12.9075448328
 70
160
 71
1
 72
2
 41
0.9
 42
0.8
  3
DIMSTYLE_1
100
AcDbAlignedDimension
 13
9.0946508729
 23
-5.0
 14
9.8946508729
 24
-5.0
100
AcDbRotatedDimension
  0
LINE
  5
242
100
AcDbEntity
  8
0
100
AcDbLine
 62
7
  6
CONTINUOUS
 10
-33.4392895018
 20
3.0000796558
 11
-38.1841330914
 21
15.5849057017
  0
LINE
  5
243
100
AcDbEntity
  8
0
100
AcDbLine
 62
7
  6
CONTINUOUS
 10
-38.1841330914
 20
15.5849057017
 11
-39.1841330914
 21
15.5849057017
  0
LINE
  5
244
100
AcDbEntity
  8
0
100
AcDbLine
 62
7
  6
CONTINUOUS
 10
-39.1841330914
 20
15.5849057017
 11
-83.9698473771
 21
15.5849057017
  0
SOLID
  5
245
100
AcDbEntity
  8
0
100
AcDbTrace
 62
7
  6
CONTINUOUS
 10
-35.3865697969
 20
5.4720423279
 11
-33.4392895018
 21
3.0000796558
 12
-33.6087330725
 22
6.1423382187
 13
-33.6087330725
 23
6.1423382187
  0
LWPOLYLINE
  5
246
100
AcDbEntity
  8
0
100
AcDbPolyline
 62
7
  6
CONTINUOUS
 90
16
 70
0
 10
-44.0946508729
 20
-2.5
 10
-44.0927444849
 20
-2.5531833178
 10
-44.0875352383
 20
-2.6046861502
 10
-44.0790231331
 20
-2.6545084972
 10
-44.0670437428
 20
-2.7031556881
 10
-44.051761494
 20
-2.7501223937
 10
-44.0336696658
 20
-2.7938926261
 10
-44.0126765845
 20
-2.8343620878
 10
-43.9888739238
 20
-2.8716350764
 10
-43.9630299843
 20
-2.9045084972
 10
-43.935078161
 20
-2.9328387967
 10
-43.9050850589
 20
-2.9567695285
 10
-43.8740187929
 20
-2.9755282581
 10
-43.8418443469
 20
-2.9889462285
 10
-43.808596737
 20
-2.9971921967
 10
-43.775368687
 20
-2.999999999
  0
LWPOLYLINE
  5
247
100
AcDbEntity
  8
0
100
AcDbPolyline
 62
7
  6
CONTINUOUS
 90
16
 70
0
 10
-44.0946508729
 20
1.0
 10
-44.0927444849
 20
0.9468166822
 10
-44.0875352383
 20
0.8953138498
 10
-44.0790231331
 20
0.8454915028
 10
-44.0670437428
 20
0.7968443119
 10
-44.051761494
 20
0.7498776063
 10
-44.0336696658
 20
0.7061073739
 10
-44.0126765845
 20
0.6656379122
 10
-43.9888739238
 20
0.6283649236
 10
-43.9630299843
 20
0.5954915028
 10
-43.935078161
 20
0.5671612033
 10
-43.9050850589
 20
0.5432304715
 10
-43.8740187929
 20
0.5244717419
 10
-43.8418443469
 20
0.5110537715
 10
-43.808596737
 20
0.5028078033
 10
-43.7753985013
 20
0.5000000064
  0
LWPOLYLINE
  5
248
100
AcDbEntity
  8
0
100
AcDbPolyline
 62
7
  6
CONTINUOUS
 90
3
 70
0
 43
0.3500000006
 10
-83.3984211731
 20
19.334905426
 10
-83.3984211731
 20
16.3349067764
 10
-82.3269896851
 20
16.3349067764
  0
LWPOLYLINE
  5
249
100
AcDbEntity
  8
0
100
AcDbPolyline
 62
7
  6
CONTINUOUS
 90
5
 70
0
 43
0.3500000006
 10
-81.4698517456
 20
18.4777629547
 10
-81.4698517456
 20
16.5491912613
 10
-81.255558197
 20
16.3349067764
 10
-80.1841357727
 20
16.3349067764
 10
-80.1841357727
 20
18.4777629547
  0
LWPOLYLINE
  5
24A
100
AcDbEntity
  8
0
100
AcDbPolyline
 62
7
  6
CONTINUOUS
 90
5
 70
0
 43
0.3500000006
 10
-79.3269887695
 20
16.3349067764
 10
-79.3269887695
 20
18.4777629547
 10
-78.2555572815
 20
18.4777629547
 10
-78.0412727966
 20
18.2634784698
 10
-78.0412727966
 20
16.3349067764
  0
LWPOLYLINE
  5
24B
100
AcDbEntity
  8
0
100
AcDbPolyline
 62
7
  6
CONTINUOUS
 90
2
 70
0
 43
0.3500000006
 10
-75.041276413
 20
16.3349067764
 10
-75.041276413
 20
19.334905426
  0
LWPOLYLINE
  5
24C
100
AcDbEntity
  8
0
100
AcDbPolyline
 62
7
  6
CONTINUOUS
 90
4
 70
0
 43
0.3500000006
 10
-65.1841311951
 20
16.3349067764
 10
-65.1841311951
 20
18.0491894531
 10
-65.3984202118
 20
18.4777629547
 10
-66.469847168
 20
18.4777629547
  0
LWPOLYLINE
  5
24D
100
AcDbEntity
  8
0
100
AcDbPolyline
 62
7
  6
CONTINUOUS
 90
4
 70
0
 43
0.3500000006
 10
-58.7555603943
 20
16.3349067764
 10
-58.7555603943
 20
18.0491894531
 10
-58.969849411
 20
18.4777629547
 10
-60.0412763672
 20
18.4777629547
  0
LWPOLYLINE
  5
24E
100
AcDbEntity
  8
0
100
AcDbPolyline
 62
7
  6
CONTINUOUS
 90
2
 70
0
 43
0.3500000006
 10
-55.326990509
 20
16.3349067764
 10
-55.326990509
 20
18.4777629547
  0
LWPOLYLINE
  5
24F
100
AcDbEntity
  8
0
100
AcDbPolyline
 62
7
  6
CONTINUOUS
 90
4
 70
0
 43
0.3500000006
 10
-55.326990509
 20
19.1206209412
 10
-55.326990509
 20
19.334905426
 10
-55.255563858
 20
19.334905426
 10
-55.326990509
 20
19.1206209412
  0
LWPOLYLINE
  5
250
100
AcDbEntity
  8
0
100
AcDbPolyline
 62
7
  6
CONTINUOUS
 90
4
 70
0
 43
0.3500000006
 10
-49.4698465118
 20
16.7634780121
 10
-49.4698465118
 20
17.6206204834
 10
-49.0412775421
 20
18.0491894531
 10
-48.3984195557
 20
18.0491894531
  0
LWPOLYLINE
  5
251
100
AcDbEntity
  8
0
100
AcDbPolyline
 62
7
  6
CONTINUOUS
 90
13
 70
0
 43
0.3500000006
 10
-47.1127035828
 20
17.1920492477
 10
-47.1127035828
 20
18.4777629547
 10
-46.8984190979
 20
18.9063364563
 10
-46.4698455963
 20
19.334905426
 10
-46.2555611115
 20
19.334905426
 10
-45.8269921417
 20
18.9063364563
 10
-45.612703125
 20
18.4777629547
 10
-45.612703125
 20
17.1920492477
 10
-45.8269921417
 20
16.7634780121
 10
-46.2555611115
 20
16.3349067764
 10
-46.4698455963
 20
16.3349067764
 10
-46.8984190979
 20
16.7634780121
 10
-47.1127035828
 20
17.1920492477
  0
LWPOLYLINE
  5
252
100
AcDbEntity
  8
0
100
AcDbPolyline
 62
7
  6
CONTINUOUS
 90
5
 70
0
 43
0.3500000006
 10
-44.7555606537
 20
16.3349067764
 10
-44.7555606537
 20
18.4777629547
 10
-43.0412757111
 20
18.4777629547
 10
-42.8269912262
 20
18.2634784698
 10
-42.8269912262
 20
16.3349067764
  0
LWPOLYLINE
  5
253
100
AcDbEntity
  8
0
100
AcDbPolyline
 62
7
  6
CONTINUOUS
 90
16
 70
0
 10
-44.0946508729
 20
2.5
 10
-44.0927444849
 20
2.5531833178
 10
-44.0875352383
 20
2.6046861502
 10
-44.0790231331
 20
2.6545084972
 10
-44.0670437428
 20
2.7031556881
 10
-44.051761494
 20
2.7501223937
 10
-44.0336696658
 20
2.7938926261
 10
-44.0126765845
 20
2.8343620878
 10
-43.9888739238
 20
2.8716350764
 10
-43.9630299843
 20
2.9045084972
 10
-43.935078161
 20
2.9328387967
 10
-43.9050850589
 20
2.9567695285
 10
-43.8740187929
 20
2.9755282581
 10
-43.8418443469
 20
2.9889462285
 10
-43.808596737
 20
2.9971921967
 10
-43.775368687
 20
2.999999999
  0
LWPOLYLINE
  5
254
100
AcDbEntity
  8
0
100
AcDbPolyline
 62
7
  6
CONTINUOUS
 90
16
 70
0
 10
-44.0946508729
 20
-1.0
 10
-44.0927444849
 20
-0.9468166822
 10
-44.0875352383
 20
-0.8953138498
 10
-44.0790231331
 20
-0.8454915028
 10
-44.0670437428
 20
-0.7968443119
 10
-44.051761494
 20
-0.7498776063
 10
-44.0336696658
 20
-0.7061073739
 10
-44.0126765845
 20
-0.6656379122
 10
-43.9888739238
 20
-0.6283649236
 10
-43.9630299843
 20
-0.5954915028
 10
-43.935078161
 20
-0.5671612033
 10
-43.9050850589
 20
-0.5432304715
 10
-43.8740187929
 20
-0.5244717419
 10
-43.8418443469
 20
-0.5110537715
 10
-43.808596737
 20
-0.5028078033
 10
-43.7753985013
 20
-0.5000000064
  0
LWPOLYLINE
  5
255
100
AcDbEntity
  8
0
100
AcDbPolyline
 62
7
  6
CONTINUOUS
 90
3
 70
0
 43
0.3500000006
 10
-57.898417923
 20
18.4777629547
 10
-57.2555599365
 20
16.3349067764
 10
-56.6127064819
 20
18.4777629547
  0
LWPOLYLINE
  5
256
100
AcDbEntity
  8
0
100
AcDbPolyline
 62
7
  6
CONTINUOUS
 90
16
 70
0
 10
-43.4560473814
 20
-2.5
 10
-43.4579537694
 20
-2.4468166822
 10
-43.463163016
 20
-2.3953138498
 10
-43.4716751212
 20
-2.3454915028
 10
-43.4836545114
 20
-2.2968443119
 10
-43.4989367603
 20
-2.2498776063
 10
-43.5170285885
 20
-2.2061073739
 10
-43.5380216698
 20
-2.1656379122
 10
-43.5618243304
 20
-2.1283649236
 10
-43.5876682699
 20
-2.0954915028
 10
-43.6156200932
 20
-2.0671612033
 10
-43.6456131954
 20
-2.0432304715
 10
-43.6766794614
 20
-2.0244717419
 10
-43.7088539074
 20
-2.0110537715
 10
-43.7421015173
 20
-2.0028078033
 10
-43.775368687
 20
-2.000000001
  0
LWPOLYLINE
  5
257
100
AcDbEntity
  8
0
100
AcDbPolyline
 62
7
  6
CONTINUOUS
 90
16
 70
0
 10
-43.4560473814
 20
1.0
 10
-43.4579537694
 20
1.0531833178
 10
-43.463163016
 20
1.1046861502
 10
-43.4716751212
 20
1.1545084972
 10
-43.4836545114
 20
1.2031556881
 10
-43.4989367603
 20
1.2501223937
 10
-43.5170285885
 20
1.2938926261
 10
-43.5380216698
 20
1.3343620878
 10
-43.5618243304
 20
1.3716350764
 10
-43.5876682699
 20
1.4045084972
 10
-43.6156200932
 20
1.4328387967
 10
-43.6456131954
 20
1.4567695285
 10
-43.6766794614
 20
1.4755282581
 10
-43.7088539074
 20
1.4889462285
 10
-43.7421015173
 20
1.4971921967
 10
-43.7753985013
 20
1.4999999936
  0
LWPOLYLINE
  5
258
100
AcDbEntity
  8
0
100
AcDbPolyline
 62
7
  6
CONTINUOUS
 90
2
 70
0
 43
0.3500000006
 10
-43.8269915314
 20
18.4777629547
 10
-43.8269915314
 20
16.3349067764
  0
LWPOLYLINE
  5
259
100
AcDbEntity
  8
0
100
AcDbPolyline
 62
7
  6
CONTINUOUS
 90
5
 70
0
 43
0.3500000006
 10
-41.9698487549
 20
16.3349067764
 10
-41.9698487549
 20
18.4777629547
 10
-40.2555638123
 20
18.4777629547
 10
-40.0412747955
 20
18.2634784698
 10
-40.0412747955
 20
16.3349067764
  0
LWPOLYLINE
  5
25A
100
AcDbEntity
  8
0
100
AcDbPolyline
 62
7
  6
CONTINUOUS
 90
2
 70
0
 43
0.3500000006
 10
-41.0412751007
 20
18.4777629547
 10
-41.0412751007
 20
16.3349067764
  0
LWPOLYLINE
  5
25B
100
AcDbEntity
  8
0
100
AcDbPolyline
 62
7
  6
CONTINUOUS
 90
16
 70
0
 10
-43.4560473814
 20
2.5
 10
-43.4579537694
 20
2.4468166822
 10
-43.463163016
 20
2.3953138498
 10
-43.4716751212
 20
2.3454915028
 10
-43.4836545114
 20
2.2968443119
 10
-43.4989367603
 20
2.2498776063
 10
-43.5170285885
 20
2.2061073739
 10
-43.5380216698
 20
2.1656379122
 10
-43.5618243304
 20
2.1283649236
 10
-43.5876682699
 20
2.0954915028
 10
-43.6156200932
 20
2.0671612033
 10
-43.6456131954
 20
2.0432304715
 10
-43.6766794614
 20
2.0244717419
 10
-43.7088539074
 20
2.0110537715
 10
-43.7421015173
 20
2.0028078033
 10
-43.775368687
 20
2.000000001
  0
LWPOLYLINE
  5
25C
100
AcDbEntity
  8
0
100
AcDbPolyline
 62
7
  6
CONTINUOUS
 90
16
 70
0
 10
-43.4560473814
 20
-1.0
 10
-43.4579537694
 20
-1.0531833178
 10
-43.463163016
 20
-1.1046861502
 10
-43.4716751212
 20
-1.1545084972
 10
-43.4836545114
 20
-1.2031556881
 10
-43.4989367603
 20
-1.2501223937
 10
-43.5170285885
 20
-1.2938926261
 10
-43.5380216698
 20
-1.3343620878
 10
-43.5618243304
 20
-1.3716350764
 10
-43.5876682699
 20
-1.4045084972
 10
-43.6156200932
 20
-1.4328387967
 10
-43.6456131954
 20
-1.4567695285
 10
-43.6766794614
 20
-1.4755282581
 10
-43.7088539074
 20
-1.4889462285
 10
-43.7421015173
 20
-1.4971921967
 10
-43.7753985013
 20
-1.4999999936
  0
LWPOLYLINE
  5
25D
100
AcDbEntity
  8
0
100
AcDbPolyline
 62
7
  6
CONTINUOUS
 90
4
 70
0
 43
0.3500000006
 10
49.3338907013
 20
-33.8996571808
 10
48.47674823
 20
-33.8996571808
 10
48.0481747284
 20
-33.4710859451
 10
48.0481747284
 20
-32.8282290916
  0
LINE
  5
25E
100
AcDbEntity
  8
0
100
AcDbLine
 62
7
  6
CONTINUOUS
 10
-29.9053491271
 20
4.0
 11
-29.9053491271
 21
-4.0
  0
LWPOLYLINE
  5
25F
100
AcDbEntity
  8
0
100
AcDbPolyline
 62
7
  6
CONTINUOUS
 90
4
 70
0
 43
0.3500000006
 10
49.7624642029
 20
-27.542514164
 10
46.9767477722
 20
-27.542514164
 10
46.7624632874
 20
-27.3282285461
 10
46.7624632874
 20
-26.8996573105
  0
LWPOLYLINE
  5
260
100
AcDbEntity
  8
0
100
AcDbPolyline
 62
7
  6
CONTINUOUS
 90
9
 70
0
 43
0.3500000006
 10
49.3338907013
 20
-26.1853715401
 10
48.0481747284
 20
-26.1853715401
 10
47.6196057587
 20
-25.7567997379
 10
47.6196057587
 20
-25.3282285023
 10
48.0481747284
 20
-24.8996572666
 10
49.3338907013
 20
-24.8996572666
 10
49.7624642029
 20
-25.3282285023
 10
49.7624642029
 20
-25.7567997379
 10
49.3338907013
 20
-26.1853715401
  0
LWPOLYLINE
  5
261
100
AcDbEntity
  8
0
100
AcDbPolyline
 62
7
  6
CONTINUOUS
 90
5
 70
0
 43
0.3500000006
 10
49.7624642029
 20
-24.0425142288
 10
47.6196057587
 20
-24.0425142288
 10
47.6196057587
 20
-23.1853714743
 10
47.8338902435
 20
-23.0425142069
 10
48.2624637451
 20
-23.0425142069
  0
LWPOLYLINE
  5
262
100
AcDbEntity
  8
0
100
AcDbPolyline
 62
7
  6
CONTINUOUS
 90
4
 70
0
 43
0.3500000006
 10
49.7624642029
 20
-20.8282285806
 10
48.0481747284
 20
-20.8282285806
 10
47.6196057587
 20
-21.0425143046
 10
47.6196057587
 20
-22.1139428186
  0
LWPOLYLINE
  5
263
100
AcDbEntity
  8
0
100
AcDbPolyline
 62
7
  6
CONTINUOUS
 90
13
 70
0
 43
0.3500000006
 10
48.2624637451
 20
-37.8996572685
 10
47.5124635162
 20
-37.6496571922
 10
47.0124633636
 20
-37.1496570396
 10
46.7624632874
 20
-36.3996568108
 10
47.0124633636
 20
-35.6496565819
 10
47.5124635162
 20
-35.1496575623
 10
48.2624637451
 20
-34.899657486
 10
49.012463974
 20
-35.1496575623
 10
49.5124641266
 20
-35.6496565819
 10
49.7624642029
 20
-36.3996568108
 10
49.5124641266
 20
-37.1496570396
 10
49.012463974
 20
-37.6496571922
 10
48.2624637451
 20
-37.8996572685
  0
LWPOLYLINE
  5
264
100
AcDbEntity
  8
0
100
AcDbPolyline
 62
7
  6
CONTINUOUS
 90
2
 70
0
 43
0.3500000006
 10
49.7624642029
 20
-19.6139428346
 10
46.7624632874
 20
-19.6139428346
  0
LWPOLYLINE
  5
265
100
AcDbEntity
  8
0
100
AcDbPolyline
 62
7
  6
CONTINUOUS
 90
5
 70
0
 43
0.3500000006
 10
47.6196057587
 20
-18.2567999983
 10
49.5481751862
 20
-18.2567999983
 10
49.7624642029
 20
-18.0425142388
 10
49.7624642029
 20
-16.9710857248
 10
47.6196057587
 20
-16.9710857248
  0
LWPOLYLINE
  5
266
100
AcDbEntity
  8
0
100
AcDbPolyline
 62
7
  6
CONTINUOUS
 90
5
 70
0
 43
0.3500000006
 10
49.7624642029
 20
-16.1139429703
 10
47.6196057587
 20
-16.1139429703
 10
47.6196057587
 20
-15.2567999325
 10
47.8338902435
 20
-15.1139426651
 10
48.2624637451
 20
-15.1139426651
  0
LWPOLYLINE
  5
267
100
AcDbEntity
  8
0
100
AcDbPolyline
 62
7
  6
CONTINUOUS
 90
13
 70
0
 43
0.3500000006
 10
-49.0412775421
 20
18.0491894531
 10
-49.326988678
 20
18.2634784698
 10
-49.326988678
 20
18.9063364563
 10
-49.0412775421
 20
19.334905426
 10
-48.3984195557
 20
19.334905426
 10
-48.1127038879
 20
18.9063364563
 10
-48.1127038879
 20
18.2634784698
 10
-48.3984195557
 20
18.0491894531
 10
-47.9698460541
 20
17.6206204834
 10
-47.9698460541
 20
16.7634780121
 10
-48.3984195557
 20
16.3349067764
 10
-49.0412775421
 20
16.3349067764
 10
-49.4698465118
 20
16.7634780121
  0
LWPOLYLINE
  5
268
100
AcDbEntity
  8
0
100
AcDbPolyline
 62
7
  6
CONTINUOUS
 90
4
 70
0
 43
0.3500000006
 10
49.7624642029
 20
-12.8996570034
 10
48.0481747284
 20
-12.8996570034
 10
47.6196057587
 20
-13.1139426212
 10
47.6196057587
 20
-14.1853712769
  0
LWPOLYLINE
  5
269
100
AcDbEntity
  8
0
100
AcDbPolyline
 62
7
  6
CONTINUOUS
 90
2
 70
0
 43
0.3500000006
 10
50.5124644318
 20
-37.6496571922
 10
46.0124630585
 20
-35.1496575623
  0
LINE
  5
26A
100
AcDbEntity
  8
0
100
AcDbLine
 62
7
  6
CONTINUOUS
 10
4.2946508729
 20
-5.0
 11
5.0946508729
 21
-5.0
  0
LINE
  5
26B
100
AcDbEntity
  8
0
100
AcDbLine
 62
7
  6
CONTINUOUS
 10
9.0946508729
 20
-5.0
 11
9.8946508729
 21
-5.0
  0
LINE
  5
26C
100
AcDbEntity
  8
0
100
AcDbLine
 62
7
  6
CONTINUOUS
 10
-29.9053491271
 20
-4.0
 11
3.7173006037
 21
-4.0
  0
LINE
  5
26D
100
AcDbEntity
  8
0
100
AcDbLine
 62
7
  6
CONTINUOUS
 10
44.0946508729
 20
-4.0
 11
10.4720011421
 21
-4.0
  0
LINE
  5
26E
100
AcDbEntity
  8
0
100
AcDbLine
 62
7
  6
CONTINUOUS
 10
-43.775368687
 20
-2.9999999991
 11
-29.9053491271
 21
-2.9999999919
  0
LWPOLYLINE
  5
26F
100
AcDbEntity
  8
0
100
AcDbPolyline
 62
7
  6
CONTINUOUS
 90
16
 70
0
 10
-43.7753985013
 20
-0.5000000064
 10
-43.7421015173
 20
-0.5028078033
 10
-43.7088539074
 20
-0.5110537715
 10
-43.6766794614
 20
-0.5244717419
 10
-43.6456131954
 20
-0.5432304715
 10
-43.6156200932
 20
-0.5671612033
 10
-43.5876682699
 20
-0.5954915028
 10
-43.5618243304
 20
-0.6283649236
 10
-43.5380216698
 20
-0.6656379122
 10
-43.5170285885
 20
-0.7061073739
 10
-43.4989367603
 20
-0.7498776063
 10
-43.4836545114
 20
-0.7968443119
 10
-43.4716751212
 20
-0.8454915028
 10
-43.463163016
 20
-0.8953138498
 10
-43.4579537694
 20
-0.9468166822
 10
-43.4560473814
 20
-1.0
  0
LWPOLYLINE
  5
270
100
AcDbEntity
  8
0
100
AcDbPolyline
 62
7
  6
CONTINUOUS
 90
16
 70
0
 10
-43.7753985013
 20
-1.4999999936
 10
-43.808596737
 20
-1.4971921967
 10
-43.8418443469
 20
-1.4889462285
 10
-43.8740187929
 20
-1.4755282581
 10
-43.9050850589
 20
-1.4567695285
 10
-43.935078161
 20
-1.4328387967
 10
-43.9630299843
 20
-1.4045084972
 10
-43.9888739238
 20
-1.3716350764
 10
-44.0126765845
 20
-1.3343620878
 10
-44.0336696658
 20
-1.2938926261
 10
-44.051761494
 20
-1.2501223937
 10
-44.0670437428
 20
-1.2031556881
 10
-44.0790231331
 20
-1.1545084972
 10
-44.0875352383
 20
-1.1046861502
 10
-44.0927444849
 20
-1.0531833178
 10
-44.0946508729
 20
-1.0
  0
LINE
  5
271
100
AcDbEntity
  8
0
100
AcDbLine
 62
7
  6
CONTINUOUS
 10
-29.9053491271
 20
-0.500000008
 11
-32.1973735728
 21
-0.5006016688
  0
LINE
  5
272
100
AcDbEntity
  8
0
100
AcDbLine
 62
7
  6
CONTINUOUS
 10
-29.9053491271
 20
-2.0000000081
 11
-43.775368687
 21
-2.0000000009
  0
LINE
  5
273
100
AcDbEntity
  8
0
100
AcDbLine
 62
7
  6
CONTINUOUS
 10
-43.7753985013
 20
-1.499999994
 11
-36.3697142327
 21
-1.5002316178
  0
LINE
  5
274
100
AcDbEntity
  8
0
100
AcDbLine
 62
7
  6
CONTINUOUS
 10
-36.3697142327
 20
-1.5002316178
 11
-33.4264670092
 21
-1.5000651356
  0
LINE
  5
275
100
AcDbEntity
  8
0
100
AcDbLine
 62
7
  6
CONTINUOUS
 10
-33.4264670092
 20
-1.5000651356
 11
-29.9053491271
 21
-1.499999992
  0
LINE
  5
276
100
AcDbEntity
  8
0
100
AcDbLine
 62
7
  6
CONTINUOUS
 10
-32.1973735728
 20
-0.5006016688
 11
-43.7753985013
 21
-0.500000006
  0
LWPOLYLINE
  5
277
100
AcDbEntity
  8
0
100
AcDbPolyline
 62
7
  6
CONTINUOUS
 90
16
 70
0
 10
-43.775368687
 20
2.000000001
 10
-43.808596737
 20
2.0028078033
 10
-43.8418443469
 20
2.0110537715
 10
-43.8740187929
 20
2.0244717419
 10
-43.9050850589
 20
2.0432304715
 10
-43.935078161
 20
2.0671612033
 10
-43.9630299843
 20
2.0954915028
 10
-43.9888739238
 20
2.1283649236
 10
-44.0126765845
 20
2.1656379122
 10
-44.0336696658
 20
2.2061073739
 10
-44.051761494
 20
2.2498776063
 10
-44.0670437428
 20
2.2968443119
 10
-44.0790231331
 20
2.3454915028
 10
-44.0875352383
 20
2.3953138498
 10
-44.0927444849
 20
2.4468166822
 10
-44.0946508729
 20
2.5
  0
LWPOLYLINE
  5
278
100
AcDbEntity
  8
0
100
AcDbPolyline
 62
7
  6
CONTINUOUS
 90
16
 70
0
 10
-43.775368687
 20
2.999999999
 10
-43.7421015173
 20
2.9971921967
 10
-43.7088539074
 20
2.9889462285
 10
-43.6766794614
 20
2.9755282581
 10
-43.6456131954
 20
2.9567695285
 10
-43.6156200932
 20
2.9328387967
 10
-43.5876682699
 20
2.9045084972
 10
-43.5618243304
 20
2.8716350764
 10
-43.5380216698
 20
2.8343620878
 10
-43.5170285885
 20
2.7938926261
 10
-43.4989367603
 20
2.7501223937
 10
-43.4836545114
 20
2.7031556881
 10
-43.4716751212
 20
2.6545084972
 10
-43.463163016
 20
2.6046861502
 10
-43.4579537694
 20
2.5531833178
 10
-43.4560473814
 20
2.5
  0
LINE
  5
279
100
AcDbEntity
  8
0
100
AcDbLine
 62
7
  6
CONTINUOUS
 10
3.7173006037
 20
4.0
 11
4.2946508729
 21
5.0
  0
LWPOLYLINE
  5
27A
100
AcDbEntity
  8
0
100
AcDbPolyline
 62
7
  6
CONTINUOUS
 90
5
 70
0
 43
0.3500000006
 10
25.3089354858
 20
13.3354587479
 10
25.6660800705
 20
13.5497454987
 10
25.6660800705
 20
14.1926012192
 10
25.3089354858
 20
14.6211747208
 10
24.4517930145
 20
14.6211747208
  0
LWPOLYLINE
  5
27B
100
AcDbEntity
  8
0
100
AcDbPolyline
 62
7
  6
CONTINUOUS
 90
16
 70
0
 10
-43.775368687
 20
-2.000000001
 10
-43.808596737
 20
-2.0028078033
 10
-43.8418443469
 20
-2.0110537715
 10
-43.8740187929
 20
-2.0244717419
 10
-43.9050850589
 20
-2.0432304715
 10
-43.935078161
 20
-2.0671612033
 10
-43.9630299843
 20
-2.0954915028
 10
-43.9888739238
 20
-2.1283649236
 10
-44.0126765845
 20
-2.1656379122
 10
-44.0336696658
 20
-2.2061073739
 10
-44.051761494
 20
-2.2498776063
 10
-44.0670437428
 20
-2.2968443119
 10
-44.0790231331
 20
-2.3454915028
 10
-44.0875352383
 20
-2.3953138498
 10
-44.0927444849
 20
-2.4468166822
 10
-44.0946508729
 20
-2.5
  0
LWPOLYLINE
  5
27C
100
AcDbEntity
  8
0
100
AcDbPolyline
 62
7
  6
CONTINUOUS
 90
16
 70
0
 10
-43.775368687
 20
-2.999999999
 10
-43.7421015173
 20
-2.9971921967
 10
-43.7088539074
 20
-2.9889462285
 10
-43.6766794614
 20
-2.9755282581
 10
-43.6456131954
 20
-2.9567695285
 10
-43.6156200932
 20
-2.9328387967
 10
-43.5876682699
 20
-2.9045084972
 10
-43.5618243304
 20
-2.8716350764
 10
-43.5380216698
 20
-2.8343620878
 10
-43.5170285885
 20
-2.7938926261
 10
-43.4989367603
 20
-2.7501223937
 10
-43.4836545114
 20
-2.7031556881
 10
-43.4716751212
 20
-2.6545084972
 10
-43.463163016
 20
-2.6046861502
 10
-43.4579537694
 20
-2.5531833178
 10
-43.4560473814
 20
-2.5
  0
LWPOLYLINE
  5
27D
100
AcDbEntity
  8
0
100
AcDbPolyline
 62
7
  6
CONTINUOUS
 90
13
 70
0
 43
0.3500000006
 10
56.9453450317
 20
1.6785712967
 10
55.6596290588
 20
1.6785712967
 10
55.2310600891
 20
1.8928580475
 10
54.8024865875
 20
2.3214292831
 10
54.8024865875
 20
2.535713768
 10
55.2310600891
 20
2.9642850037
 10
55.6596290588
 20
3.1785717545
 10
56.9453450317
 20
3.1785717545
 10
57.3739140015
 20
2.9642850037
 10
57.8024875031
 20
2.535713768
 10
57.8024875031
 20
2.3214292831
 10
57.3739140015
 20
1.8928580475
 10
56.9453450317
 20
1.6785712967
  0
LINE
  5
27E
100
AcDbEntity
  8
0
100
AcDbLine
 62
7
  6
CONTINUOUS
 10
-29.9053491271
 20
1.499999992
 11
-32.1973735728
 21
1.4993983312
  0
LINE
  5
27F
100
AcDbEntity
  8
0
100
AcDbLine
 62
7
  6
CONTINUOUS
 10
-43.7753985013
 20
0.500000006
 11
-36.3697142327
 21
0.4997683822
  0
LINE
  5
280
100
AcDbEntity
  8
0
100
AcDbLine
 62
7
  6
CONTINUOUS
 10
-36.3697142327
 20
0.4997683822
 11
-33.4264670092
 21
0.4999348644
  0
LINE
  5
281
100
AcDbEntity
  8
0
100
AcDbLine
 62
7
  6
CONTINUOUS
 10
-29.9053491271
 20
2.9999999919
 11
-43.775368687
 21
2.9999999991
  0
LINE
  5
282
100
AcDbEntity
  8
0
100
AcDbLine
 62
7
  6
CONTINUOUS
 10
-43.775368687
 20
2.0000000009
 11
-29.9053491271
 21
2.0000000081
  0
LINE
  5
283
100
AcDbEntity
  8
0
100
AcDbLine
 62
7
  6
CONTINUOUS
 10
-33.4264670092
 20
0.4999348644
 11
-29.9053491271
 21
0.500000008
  0
LINE
  5
284
100
AcDbEntity
  8
0
100
AcDbLine
 62
7
  6
CONTINUOUS
 10
-32.1973735728
 20
1.4993983312
 11
-43.7753985013
 21
1.499999994
  0
LWPOLYLINE
  5
285
100
AcDbEntity
  8
0
100
AcDbPolyline
 62
7
  6
CONTINUOUS
 90
13
 70
0
 43
0.3500000006
 10
17.8532831154
 20
-10.4432589684
 10
17.5675685806
 20
-10.2289733505
 10
17.5675685806
 20
-9.586116497
 10
17.8532831154
 20
-9.1575452614
 10
18.4961399689
 20
-9.1575452614
 10
18.7818545036
 20
-9.586116497
 10
18.7818545036
 20
-10.2289733505
 10
18.4961399689
 20
-10.4432589684
 10
18.9247112045
 20
-10.8718307705
 10
18.9247112045
 20
-11.7289732418
 10
18.4961399689
 20
-12.1575450439
 10
17.8532831154
 20
-12.1575450439
 10
17.4247118797
 20
-11.7289732418
  0
LINE
  5
286
100
AcDbEntity
  8
0
100
AcDbLine
 62
7
  6
CONTINUOUS
 10
3.7173006037
 20
-4.0
 11
4.2946508729
 21
-5.0
  0
LINE
  5
287
100
AcDbEntity
  8
0
100
AcDbLine
 62
7
  6
CONTINUOUS
 10
3.7173006037
 20
-4.0
 11
3.7173006037
 21
4.0
  0
LINE
  5
288
100
AcDbEntity
  8
0
100
AcDbLine
 62
7
  6
CONTINUOUS
 10
4.2946508729
 20
5.0
 11
4.2946508729
 21
-5.0
  0
LINE
  5
289
100
AcDbEntity
  8
0
100
AcDbLine
 62
7
  6
CONTINUOUS
 10
5.0946508729
 20
4.9997753388
 11
5.0946508729
 21
-4.9997753388
  0
LWPOLYLINE
  5
28A
100
AcDbEntity
  8
0
100
AcDbPolyline
 62
7
  6
CONTINUOUS
 90
16
 70
0
 10
-43.7753985013
 20
1.4999999936
 10
-43.808596737
 20
1.4971921967
 10
-43.8418443469
 20
1.4889462285
 10
-43.8740187929
 20
1.4755282581
 10
-43.9050850589
 20
1.4567695285
 10
-43.935078161
 20
1.4328387967
 10
-43.9630299843
 20
1.4045084972
 10
-43.9888739238
 20
1.3716350764
 10
-44.0126765845
 20
1.3343620878
 10
-44.0336696658
 20
1.2938926261
 10
-44.051761494
 20
1.2501223937
 10
-44.0670437428
 20
1.2031556881
 10
-44.0790231331
 20
1.1545084972
 10
-44.0875352383
 20
1.1046861502
 10
-44.0927444849
 20
1.0531833178
 10
-44.0946508729
 20
1.0
  0
LWPOLYLINE
  5
28B
100
AcDbEntity
  8
0
100
AcDbPolyline
 62
7
  6
CONTINUOUS
 90
16
 70
0
 10
-43.7753985013
 20
0.5000000064
 10
-43.7421015173
 20
0.5028078033
 10
-43.7088539074
 20
0.5110537715
 10
-43.6766794614
 20
0.5244717419
 10
-43.6456131954
 20
0.5432304715
 10
-43.6156200932
 20
0.5671612033
 10
-43.5876682699
 20
0.5954915028
 10
-43.5618243304
 20
0.6283649236
 10
-43.5380216698
 20
0.6656379122
 10
-43.5170285885
 20
0.7061073739
 10
-43.4989367603
 20
0.7498776063
 10
-43.4836545114
 20
0.7968443119
 10
-43.4716751212
 20
0.8454915028
 10
-43.463163016
 20
0.8953138498
 10
-43.4579537694
 20
0.9468166822
 10
-43.4560473814
 20
1.0
  0
LINE
  5
28C
100
AcDbEntity
  8
0
100
AcDbLine
 62
7
  6
CONTINUOUS
 10
-29.9053491271
 20
4.0
 11
3.7173006037
 21
4.0
  0
LINE
  5
28D
100
AcDbEntity
  8
0
100
AcDbLine
 62
7
  6
CONTINUOUS
 10
44.0946508729
 20
4.0
 11
10.4720011421
 21
4.0
  0
LINE
  5
28E
100
AcDbEntity
  8
0
100
AcDbLine
 62
7
  6
CONTINUOUS
 10
4.2946508729
 20
5.0
 11
5.0946508729
 21
5.0
  0
LINE
  5
28F
100
AcDbEntity
  8
0
100
AcDbLine
 62
7
  6
CONTINUOUS
 10
9.0946508729
 20
5.0
 11
9.8946508729
 21
5.0
  0
LINE
  5
290
100
AcDbEntity
  8
0
100
AcDbLine
 62
7
  6
CONTINUOUS
 10
9.0946508729
 20
5.0
 11
9.0946508729
 21
-5.0
  0
LINE
  5
291
100
AcDbEntity
  8
0
100
AcDbLine
 62
7
  6
CONTINUOUS
 10
9.8946508729
 20
5.0
 11
9.8946508729
 21
-5.0
  0
LINE
  5
292
100
AcDbEntity
  8
0
100
AcDbLine
 62
7
  6
CONTINUOUS
 10
10.4720011421
 20
-4.0
 11
10.4720011421
 21
4.0
  0
LINE
  5
293
100
AcDbEntity
  8
0
100
AcDbLine
 62
7
  6
CONTINUOUS
 10
10.4720011421
 20
-4.0
 11
9.8946508729
 21
-5.0
  0
LWPOLYLINE
  5
294
100
AcDbEntity
  8
0
100
AcDbPolyline
 62
7
  6
CONTINUOUS
 90
6
 70
0
 43
0.3500000006
 10
24.4517930145
 20
11.6211738052
 10
25.5232222366
 20
11.6211738052
 10
25.7375089874
 20
11.8354582901
 10
25.7375089874
 20
12.9068875122
 10
25.3089354858
 20
13.3354587479
 10
24.8803642502
 20
13.3354587479
  0
LWPOLYLINE
  5
295
100
AcDbEntity
  8
0
100
AcDbPolyline
 62
7
  6
CONTINUOUS
 90
8
 70
0
 43
0.3500000006
 10
26.5946514587
 20
11.6211738052
 10
27.4517939301
 20
11.6211738052
 10
27.8803651657
 20
12.0497450409
 10
27.8803651657
 20
12.9068875122
 10
27.4517939301
 20
13.3354587479
 10
26.5946514587
 20
13.3354587479
 10
26.5946514587
 20
14.6211747208
 10
27.8803651657
 20
14.6211747208
  0
LWPOLYLINE
  5
296
100
AcDbEntity
  8
0
100
AcDbPolyline
 62
7
  6
CONTINUOUS
 90
4
 70
0
 43
0.3500000006
 10
49.9767486877
 20
-12.0425145321
 10
49.1196062164
 20
-11.6139427299
 10
47.6196057587
 20
-11.6139427299
 10
46.7624632874
 20
-12.0425145321
  0
LINE
  5
297
100
AcDbEntity
  8
0
100
AcDbLine
 62
7
  6
CONTINUOUS
 10
9.8946508729
 20
5.0
 11
10.4720011421
 21
4.0
  0
LWPOLYLINE
  5
298
100
AcDbEntity
  8
0
100
AcDbPolyline
 62
7
  6
CONTINUOUS
 90
10
 70
0
 43
0.3500000006
 10
16.3532826576
 20
-11.6575448914
 10
16.4247115746
 20
-11.8004021587
 10
16.4247115746
 20
-11.8718305092
 10
16.2818548737
 20
-12.0146877766
 10
16.2104259567
 20
-12.0146877766
 10
16.1389970398
 20
-11.9432588596
 10
16.1389970398
 20
-11.8718305092
 10
16.2104259567
 20
-11.7289732418
 10
16.2818548737
 20
-11.6575448914
 10
16.3532826576
 20
-11.6575448914
  0
LWPOLYLINE
  5
299
100
AcDbEntity
  8
0
100
AcDbPolyline
 62
7
  6
CONTINUOUS
 90
13
 70
0
 43
0.3500000006
 10
13.3532828751
 20
-11.3004020061
 10
13.3532828751
 20
-10.0146877327
 10
13.5675684929
 20
-9.586116497
 10
13.9961397285
 20
-9.1575452614
 10
14.2104253464
 20
-9.1575452614
 10
14.638997715
 20
-9.586116497
 10
14.8532833328
 20
-10.0146877327
 10
14.8532833328
 20
-11.3004020061
 10
14.638997715
 20
-11.7289732418
 10
14.2104253464
 20
-12.1575450439
 10
13.9961397285
 20
-12.1575450439
 10
13.5675684929
 20
-11.7289732418
 10
13.3532828751
 20
-11.3004020061
  0
LWPOLYLINE
  5
29A
100
AcDbEntity
  8
0
100
AcDbPolyline
 62
7
  6
CONTINUOUS
 90
13
 70
0
 43
0.3500000006
 10
56.3024870453
 20
-4.0357137337
 10
55.5524868164
 20
-3.7857147903
 10
55.0524866638
 20
-3.2857146378
 10
54.8024865875
 20
-2.5357144089
 10
55.0524866638
 20
-1.78571418
 10
55.5524868164
 20
-1.2857140274
 10
56.3024870453
 20
-1.0357139511
 10
57.0524872742
 20
-1.2857140274
 10
57.5524874268
 20
-1.78571418
 10
57.8024875031
 20
-2.5357144089
 10
57.5524874268
 20
-3.2857146378
 10
57.0524872742
 20
-3.7857147903
 10
56.3024870453
 20
-4.0357137337
  0
LWPOLYLINE
  5
29B
100
AcDbEntity
  8
0
100
AcDbPolyline
 62
7
  6
CONTINUOUS
 90
4
 70
0
 43
0.3500000006
 10
17.4247118797
 20
-11.7289732418
 10
17.4247118797
 20
-10.8718307705
 10
17.8532831154
 20
-10.4432589684
 10
18.4961399689
 20
-10.4432589684
  0
LWPOLYLINE
  5
29C
100
AcDbEntity
  8
0
100
AcDbPolyline
 62
7
  6
CONTINUOUS
 90
9
 70
0
 43
0.3500000006
 10
-77.1841348572
 20
15.620619873
 10
-76.1127033691
 20
15.620619873
 10
-75.8984188843
 20
15.9063332748
 10
-75.8984188843
 20
18.4777629547
 10
-76.9698503723
 20
18.4777629547
 10
-77.1841348572
 20
18.2634784698
 10
-77.1841348572
 20
16.5491912613
 10
-76.9698503723
 20
16.3349067764
 10
-75.8984188843
 20
16.3349067764
  0
LWPOLYLINE
  5
29D
100
AcDbEntity
  8
0
100
AcDbPolyline
 62
7
  6
CONTINUOUS
 90
7
 70
0
 43
0.3500000006
 10
-50.3269889832
 20
16.3349067764
 10
-51.8269894409
 20
16.3349067764
 10
-50.3269889832
 20
18.4777629547
 10
-50.3269889832
 20
18.9063364563
 10
-50.7555624847
 20
19.334905426
 10
-51.3984204712
 20
19.334905426
 10
-51.8269894409
 20
18.6920474396
  0
LWPOLYLINE
  5
29E
100
AcDbEntity
  8
0
100
AcDbPolyline
 62
7
  6
CONTINUOUS
 90
6
 70
0
 43
0.3500000006
 10
-58.7555603943
 20
16.3349067764
 10
-59.6127028656
 20
16.3349067764
 10
-60.0412763672
 20
16.5491912613
 10
-60.0412763672
 20
17.1920492477
 10
-59.6127028656
 20
17.4063337326
 10
-58.7555603943
 20
17.4063337326
  0
LWPOLYLINE
  5
29F
100
AcDbEntity
  8
0
100
AcDbPolyline
 62
7
  6
CONTINUOUS
 90
6
 70
0
 43
0.3500000006
 10
-60.8984188385
 20
16.3349067764
 10
-61.7555613098
 20
16.3349067764
 10
-61.9698457947
 20
16.5491912613
 10
-61.9698457947
 20
18.2634784698
 10
-61.7555613098
 20
18.4777629547
 10
-60.8984188385
 20
18.4777629547
  0
LWPOLYLINE
  5
2A0
100
AcDbEntity
  8
0
100
AcDbPolyline
 62
7
  6
CONTINUOUS
 90
6
 70
0
 43
0.3500000006
 10
-65.1841311951
 20
16.3349067764
 10
-66.0412781982
 20
16.3349067764
 10
-66.469847168
 20
16.5491912613
 10
-66.469847168
 20
17.1920492477
 10
-66.0412781982
 20
17.4063337326
 10
-65.1841311951
 20
17.4063337326
  0
LWPOLYLINE
  5
2A1
100
AcDbEntity
  8
0
100
AcDbPolyline
 62
7
  6
CONTINUOUS
 90
9
 70
0
 43
0.3500000006
 10
-71.6127065277
 20
16.3349067764
 10
-72.469848999
 20
16.3349067764
 10
-72.8984179688
 20
16.7634780121
 10
-72.8984179688
 20
18.0491894531
 10
-72.469848999
 20
18.4777629547
 10
-72.0412754974
 20
18.4777629547
 10
-71.6127065277
 20
18.0491894531
 10
-71.6127065277
 20
17.4063337326
 10
-72.8984179688
 20
17.4063337326
  0
LWPOLYLINE
  5
2A2
100
AcDbEntity
  8
0
100
AcDbPolyline
 62
7
  6
CONTINUOUS
 90
3
 70
0
 43
0.3500000006
 10
16.4247115746
 20
-11.8718305092
 10
16.3532826576
 20
-12.086116127
 10
16.2104259567
 20
-12.3718306618
  0
LWPOLYLINE
  5
2A3
100
AcDbEntity
  8
0
100
AcDbPolyline
 62
7
  6
CONTINUOUS
 90
4
 70
0
 43
0.3500000006
 10
-75.041276413
 20
18.4777629547
 10
-73.9698494568
 20
18.4777629547
 10
-73.7555604401
 20
18.2634784698
 10
-73.7555604401
 20
16.3349067764
  0
LWPOLYLINE
  5
2A4
100
AcDbEntity
  8
0
100
AcDbPolyline
 62
7
  6
CONTINUOUS
 90
4
 70
0
 43
0.3500000006
 10
-70.7555595245
 20
18.4777629547
 10
-69.4698480835
 20
18.4777629547
 10
-70.7555595245
 20
16.3349067764
 10
-69.4698480835
 20
16.3349067764
  0
LWPOLYLINE
  5
2A5
100
AcDbEntity
  8
0
100
AcDbPolyline
 62
7
  6
CONTINUOUS
 90
4
 70
0
 43
0.3500000006
 10
-68.6127056122
 20
18.4777629547
 10
-67.3269896393
 20
18.4777629547
 10
-68.6127056122
 20
16.3349067764
 10
-67.3269896393
 20
16.3349067764
  0
LWPOLYLINE
  5
2A6
100
AcDbEntity
  8
0
100
AcDbPolyline
 62
7
  6
CONTINUOUS
 90
2
 70
0
 43
0.3500000006
 10
58.5524877319
 20
-3.7857147903
 10
54.0524863586
 20
-1.2857140274
  0
LINE
  5
2A7
100
AcDbEntity
  8
0
100
AcDbLine
 62
7
  6
CONTINUOUS
 10
44.0946508729
 20
4.0
 11
44.0946508729
 21
-4.0
  0
LWPOLYLINE
  5
2A8
100
AcDbEntity
  8
0
100
AcDbPolyline
 62
7
  6
CONTINUOUS
 90
2
 70
0
 43
0.3500000006
 10
47.6196057587
 20
-19.9710857198
 10
47.6196057587
 20
-19.1139428236
  0
LWPOLYLINE
  5
2A9
100
AcDbEntity
  8
0
100
AcDbPolyline
 62
7
  6
CONTINUOUS
 90
2
 70
0
 43
0.3500000006
 10
47.6196057587
 20
-26.8996573105
 10
47.6196057587
 20
-27.8996570492
  0
LWPOLYLINE
  5
2AA
100
AcDbEntity
  8
0
100
AcDbPolyline
 62
7
  6
CONTINUOUS
 90
6
 70
0
 43
0.3500000006
 10
49.7624642029
 20
-12.8996570034
 10
49.7624642029
 20
-13.7568000412
 10
49.5481751862
 20
-14.1853712769
 10
48.9053217316
 20
-14.1853712769
 10
48.6910327148
 20
-13.7568000412
 10
48.6910327148
 20
-12.8996570034
  0
LWPOLYLINE
  5
2AB
100
AcDbEntity
  8
0
100
AcDbPolyline
 62
7
  6
CONTINUOUS
 90
6
 70
0
 43
0.3500000006
 10
49.7624642029
 20
-20.8282285806
 10
49.7624642029
 20
-21.6853714414
 10
49.5481751862
 20
-22.1139428186
 10
48.9053217316
 20
-22.1139428186
 10
48.6910327148
 20
-21.6853714414
 10
48.6910327148
 20
-20.8282285806
  0
LWPOLYLINE
  5
2AC
100
AcDbEntity
  8
0
100
AcDbPolyline
 62
7
  6
CONTINUOUS
 90
13
 70
0
 43
0.3500000006
 10
48.0481747284
 20
-33.4710859451
 10
47.8338902435
 20
-33.7568004799
 10
47.1910322571
 20
-33.7568004799
 10
46.7624632874
 20
-33.4710859451
 10
46.7624632874
 20
-32.8282290916
 10
47.1910322571
 20
-32.5425145569
 10
47.8338902435
 20
-32.5425145569
 10
48.0481747284
 20
-32.8282290916
 10
48.47674823
 20
-32.399656723
 10
49.3338907013
 20
-32.399656723
 10
49.7624642029
 20
-32.8282290916
 10
49.7624642029
 20
-33.4710859451
 10
49.3338907013
 20
-33.8996571808
  0
LWPOLYLINE
  5
2AD
100
AcDbEntity
  8
0
100
AcDbPolyline
 62
7
  6
CONTINUOUS
 90
4
 70
0
 43
0.3500000006
 10
49.9767486877
 20
-28.756800087
 10
49.1196062164
 20
-29.1853713226
 10
47.6196057587
 20
-29.1853713226
 10
46.7624632874
 20
-28.756800087
  0
LWPOLYLINE
  5
2AE
100
AcDbEntity
  8
0
100
AcDbPolyline
 62
7
  6
CONTINUOUS
 90
3
 70
0
 43
0.3500000006
 10
55.6596290588
 20
-0.0357136459
 10
54.8024865875
 20
0.8214288254
 10
57.8024875031
 20
0.8214288254
  0
ENDSEC
  0
SECTION
  2
OBJECTS
  0
DICTIONARY
  5
C
100
AcDbDictionary
280
0
281
1
  3
ACAD_GROUP
350
D
  3
ACAD_MLINESTYLE
350
17
  3
ACAD_LAYOUT
350
1A
  3
ACAD_PLOTSETTINGS
350
19
  3
ACAD_PLOTSTYLENAME
350
E
  0
DICTIONARY
  5
D
102
{ACAD_REACTORS
330
C
102
}
100
AcDbDictionary
280
0
281
1
  0
ACDBDICTIONARYWDFLT
  5
E
102
{ACAD_REACTORS
330
C
102
}
100
AcDbDictionary
281
1
  3
Normal
350
F
100
AcDbDictionaryWithDefault
340
F
  0
DICTIONARY
  5
17
102
{ACAD_REACTORS
330
C
102
}
100
AcDbDictionary
280
0
281
1
  3
Standard
350
18
  0
DICTIONARY
  5
19
102
{ACAD_REACTORS
330
C
102
}
100
AcDbDictionary
281
1
  0
DICTIONARY
  5
1A
102
{ACAD_REACTORS
330
C
102
}
100
AcDbDictionary
281
1
  3
Model
350
2AF
  3
Layout1
350
2B0
  0
ACDBPLACEHOLDER
  5
F
102
{ACAD_REACTORS
330
E
102
}
  0
MLINESTYLE
  5
18
102
{ACAD_REACTORS
330
17
102
}
100
AcDbMlineStyle
  2
STANDARD
 70
0
  3

 62
256
 51
90.0
 52
90.0
 71
2
 49
0.5
 62
256
  6
BYLAYER
 49
-0.5
 62
256
  6
BYLAYER
  0
LAYOUT
  5
2AF
102
{ACAD_REACTORS
330
1A
102
}
100
AcDbPlotSettings
  1

  2
none_device
  4
ISO_A4_(297.00_x_210.00_MM)
  6

 40
0.0
 41
0.0
 42
0.0
 43
0.0
 44
297.0
 45
210.0
 46
0.0
 47
0.0
 48
0.0
 49
0.0
140
0.0
141
0.0
142
1.0
143
1.0
 70
1024
 72
1
 73
0
 74
0
  7

 75
0
147
1.0
148
0.0
149
0.0
100
AcDbLayout
  1
Model
 70
0
 71
0
 10
0.0
 20
0.0
 11
297.0
 21
210.0
 12
0.0
 22
0.0
 32
0.0
 14
0.0
 24
0.0
 34
0.0
 15
0.0
 25
0.0
 35
0.0
146
0.0
 13
0.0
 23
0.0
 33
0.0
 16
1.0
 26
0.0
 36
0.0
 17
0.0
 27
1.0
 37
0.0
 76
0
330
20E
345
0
346
0
  0
LAYOUT
  5
2B0
102
{ACAD_REACTORS
330
1A
102
}
100
AcDbPlotSettings
  1

  2
none_device
  4
ISO_A4_(297.00_x_210.00_MM)
  6

 40
0.0
 41
0.0
 42
0.0
 43
0.0
 44
297.0
 45
210.0
 46
0.0
 47
0.0
 48
0.0
 49
0.0
140
0.0
141
0.0
142
1.0
143
1.0
 70
0
 72
1
 73
0
 74
0
  7

 75
0
147
1.0
148
0.0
149
0.0
100
AcDbLayout
  1
Layout1
 70
0
 71
1
 10
0.0
 20
0.0
 11
297.0
 21
210.0
 12
0.0
 22
0.0
 32
0.0
 14
0.0
 24
0.0
 34
0.0
 15
0.0
 25
0.0
 35
0.0
146
0.0
 13
0.0
 23
0.0
 33
0.0
 16
1.0
 26
0.0
 36
0.0
 17
0.0
 27
1.0
 37
0.0
 76
0
330
20F
345
0
346
0
  0
ENDSEC
  0
EOF
