  0
SECTION
  2
HEADER
  9
$ACADVER
  1
AC1021
  9
$DWGCODEPAGE
  3
ANSI_1252
  9
$EXTMAX
 10
297.0
 20
210.0
 30
0.0
  9
$EXTMIN
 10
0.0
 20
0.0
 30
0.0
  9
$LIMMIN
 10
0.0
 20
0.0
  9
$LIMMAX
 10
297.0
 20
210.0
  9
$VIEWCTR
 10
148.5
 20
105.0
  9
$VIEWSIZE
 40
210.0
  9
$CLAYER
  8
0
  9
$LTSCALE
 40
16.335
  9
$CELTYPE
  6
BYLAYER
  9
$DIMSCALE
 40
1.0
  9
$DIMASZ
 40
3.0
  9
$DIMEXO
 40
0.5
  9
$DIMDLI
 40
11.286
  9
$DIMEXE
 40
1.5
  9
$DIMCEN
 40
2.673
  9
$DIMLFAC
 40
1.0
  9
$DIMBLK
  1
_FILLED
  9
$DIMALT
 70
0
  9
$DIMALTF
 40
0.0393700787
  9
$DIMTXT
 40
3.0
  9
$DIMTOL
 70
1
  9
$DIMLIM
 70
0
  9
$DIMTFAC
 40
1.0
  9
$DIMTP
 40
0.01
  9
$DIMTM
 40
0.01
  9
$DIMGAP
 40
0.625
  9
$DIMDSEP
 70
44
  9
$AUNITS
 70
0
  9
$PDMODE
 70
3
  9
$PDSIZE
 40
3.0
  9
$HANDSEED
  5
2D1
  9
$TILEMODE
 70
1
  9
$MEASUREMENT
 70
1
  9
$INSUNITS
 70
4
  0
ENDSEC
  0
SECTION
  2
CLASSES
  0
CLASS
  1
ACDBDICTIONARYWDFLT
  2
AcDbDictionaryWithDefault
  3
AutoCAD 2000
 90
0
 91
1
280
0
281
0
  0
CLASS
  1
ACDBPLACEHOLDER
  2
AcDbPlaceHolder
  3
AutoCAD 2000
 90
0
 91
1
280
0
281
0
  0
CLASS
  1
LAYOUT
  2
AcDbLayout
  3
AutoCAD 2000
 90
0
 91
0
280
0
281
0
  0
ENDSEC
  0
SECTION
  2
TABLES
  0
TABLE
  2
VPORT
  5
8
100
AcDbSymbolTable
 70
2
  0
VPORT
  5
1F4
100
AcDbSymbolTableRecord
100
AcDbViewportTableRecord
  2
*ACTIVE
 70
0
 10
0.0
 20
0.0
 11
1.0
 21
1.0
 12
148.5
 22
105.0
 13
0.0
 23
0.0
 14
1.0
 24
1.0
 15
0.0
 25
0.0
 16
0.0
 26
0.0
 36
1.0
 17
0.0
 27
0.0
 37
0.0
 40
210.0
 41
1.4142857143
 42
50.0
 43
0.0
 44
0.0
 50
0.0
 51
0.0
 71
0
 72
100
 73
1
 74
1
 75
0
 76
0
 77
0
 78
0
  0
ENDTAB
  0
TABLE
  2
LTYPE
  5
5
100
AcDbSymbolTable
 70
6
  0
LTYPE
  5
14
100
AcDbSymbolTableRecord
100
AcDbLinetypeTableRecord
  2
BYBLOCK
 70
0
  3

 72
65
 73
0
 40
0.0
  0
LTYPE
  5
15
100
AcDbSymbolTableRecord
100
AcDbLinetypeTableRecord
  2
BYLAYER
 70
0
  3

 72
65
 73
0
 40
0.0
  0
LTYPE
  5
16
100
AcDbSymbolTableRecord
100
AcDbLinetypeTableRecord
  2
CONTINUOUS
 70
64
  3
Solid line
 72
65
 73
0
 40
0.0
  0
LTYPE
  5
1F5
100
AcDbSymbolTableRecord
100
AcDbLinetypeTableRecord
  2
CENTER
 70
64
  3
____ _ ____ _ ____ _ ____ _ ____ _ ____ _ ____
 72
65
 73
4
 40
0.6
 49
0.375
 74
0
 49
-0.075
 74
0
 49
0.075
 74
0
 49
-0.075
 74
0
  0
LTYPE
  5
1F6
100
AcDbSymbolTableRecord
100
AcDbLinetypeTableRecord
  2
HIDDEN
 70
64
  3
- - - - - - - - - - - - - - - - - - - -
 72
65
 73
2
 40
0.2
 49
0.1
 74
0
 49
-0.1
 74
0
  0
LTYPE
  5
1F7
100
AcDbSymbolTableRecord
100
AcDbLinetypeTableRecord
  2
PHANTOM
 70
64
  3
_____ _ _ _____ _ _ _____ _ _ _____
 72
65
 73
6
 40
0.8
 49
0.45
 74
0
 49
-0.05
 74
0
 49
0.1
 74
0
 49
-0.05
 74
0
 49
0.1
 74
0
 49
-0.05
 74
0
  0
LTYPE
  5
1F8
100
AcDbSymbolTableRecord
100
AcDbLinetypeTableRecord
  2
DOT
 70
64
  3
. . . . . . . . . . . . . . . . . . . .
 72
65
 73
2
 40
0.2
 49
0.1
 74
0
 49
-0.1
 74
0
  0
LTYPE
  5
1F9
100
AcDbSymbolTableRecord
100
AcDbLinetypeTableRecord
  2
DASHED
 70
64
  3
- - - - - - - - - - - - - - - - - - - -
 72
65
 73
2
 40
0.2
 49
0.1
 74
0
 49
-0.1
 74
0
  0
ENDTAB
  0
TABLE
  2
LAYER
  5
2
100
AcDbSymbolTable
 70
36
  0
LAYER
  5
10
100
AcDbSymbolTableRecord
100
AcDbLayerTableRecord
  2
0
 70
0
 62
7
  6
CONTINUOUS
370
-3
390
F
  0
LAYER
  5
1FA
100
AcDbSymbolTableRecord
100
AcDbLayerTableRecord
  2
DEFAULT_1
 70
0
 62
7
  6
CENTER
370
-3
390
F
  0
LAYER
  5
1FB
100
AcDbSymbolTableRecord
100
AcDbLayerTableRecord
  2
DEFAULT_2
 70
0
 62
7
  6
HIDDEN
370
-3
390
F
  0
LAYER
  5
1FC
100
AcDbSymbolTableRecord
100
AcDbLayerTableRecord
  2
DEFAULT_3
 70
0
 62
7
  6
PHANTOM
370
-3
390
F
  0
LAYER
  5
1FD
100
AcDbSymbolTableRecord
100
AcDbLayerTableRecord
  2
ASSI
 70
0
 62
7
  6
CONTINUOUS
370
-3
390
F
  0
LAYER
  5
1FE
100
AcDbSymbolTableRecord
100
AcDbLayerTableRecord
  2
COORDINATE
 70
0
 62
7
  6
CONTINUOUS
370
-3
390
F
  0
LAYER
  5
1FF
100
AcDbSymbolTableRecord
100
AcDbLayerTableRecord
  2
COPY_PUBLISH
 70
0
 62
7
  6
CONTINUOUS
370
-3
390
F
  0
LAYER
  5
200
100
AcDbSymbolTableRecord
100
AcDbLayerTableRecord
  2
COSMETICI
 70
0
 62
7
  6
CONTINUOUS
370
-3
390
F
  0
LAYER
  5
201
100
AcDbSymbolTableRecord
100
AcDbLayerTableRecord
  2
CURVE
 70
0
 62
7
  6
CONTINUOUS
370
-3
390
F
  0
LAYER
  5
202
100
AcDbSymbolTableRecord
100
AcDbLayerTableRecord
  2
DRAFT
 70
0
 62
7
  6
CONTINUOUS
370
-3
390
F
  0
LAYER
  5
203
100
AcDbSymbolTableRecord
100
AcDbLayerTableRecord
  2
IMPORT_IGES
 70
0
 62
7
  6
CONTINUOUS
370
-3
390
F
  0
LAYER
  5
204
100
AcDbSymbolTableRecord
100
AcDbLayerTableRecord
  2
NOTE
 70
0
 62
7
  6
CONTINUOUS
370
-3
390
F
  0
LAYER
  5
205
100
AcDbSymbolTableRecord
100
AcDbLayerTableRecord
  2
PIANI
 70
0
 62
7
  6
CONTINUOUS
370
-3
390
F
  0
LAYER
  5
206
100
AcDbSymbolTableRecord
100
AcDbLayerTableRecord
  2
PUNTI
 70
0
 62
7
  6
CONTINUOUS
370
-3
390
F
  0
LAYER
  5
207
100
AcDbSymbolTableRecord
100
AcDbLayerTableRecord
  2
RACCORDO
 70
0
 62
7
  6
CONTINUOUS
370
-3
390
F
  0
LAYER
  5
208
100
AcDbSymbolTableRecord
100
AcDbLayerTableRecord
  2
SIMBOLI
 70
0
 62
7
  6
CONTINUOUS
370
-3
390
F
  0
LAYER
  5
209
100
AcDbSymbolTableRecord
100
AcDbLayerTableRecord
  2
SMUSSO
 70
0
 62
7
  6
CONTINUOUS
370
-3
390
F
  0
LAYER
  5
20A
100
AcDbSymbolTableRecord
100
AcDbLayerTableRecord
  2
SUPERFICI
 70
0
 62
7
  6
CONTINUOUS
370
-3
390
F
  0
LAYER
  5
20B
100
AcDbSymbolTableRecord
100
AcDbLayerTableRecord
  2
TRASH
 70
0
 62
7
  6
CONTINUOUS
370
-3
390
F
  0
ENDTAB
  0
TABLE
  2
STYLE
  5
3
100
AcDbSymbolTable
 70
1
  0
STYLE
  5
11
100
AcDbSymbolTableRecord
100
AcDbTextStyleTableRecord
  2
STANDARD
 70
0
 40
0.0
 41
0.8
 50
0.0
 71
0
 42
0.2
  3
txt
  4

  0
STYLE
  5
20C
100
AcDbSymbolTableRecord
100
AcDbTextStyleTableRecord
  2
TEXTSTYLE_1
 70
0
 40
0.0
 41
0.8
 50
0.0
 71
0
 42
0.2
  3
gdt
  4

  0
ENDTAB
  0
TABLE
  2
VIEW
  5
6
100
AcDbSymbolTable
 70
0
  0
ENDTAB
  0
TABLE
  2
UCS
  5
7
100
AcDbSymbolTable
 70
0
  0
ENDTAB
  0
TABLE
  2
APPID
  5
9
100
AcDbSymbolTable
 70
1
  0
APPID
  5
20D
100
AcDbSymbolTableRecord
100
AcDbRegAppTableRecord
  2
ACAD
 70
0
  0
ENDTAB
  0
TABLE
  2
BLOCK_RECORD
  5
1
100
AcDbSymbolTable
 70
0
  0
BLOCK_RECORD
  5
20E
100
AcDbSymbolTableRecord
100
AcDbBlockTableRecord
  2
*Model_Space
  0
BLOCK_RECORD
  5
20F
100
AcDbSymbolTableRecord
100
AcDbBlockTableRecord
  2
*Paper_Space
  0
BLOCK_RECORD
  5
210
100
AcDbSymbolTableRecord
100
AcDbBlockTableRecord
  2
_FILLED
  0
BLOCK_RECORD
  5
211
100
AcDbSymbolTableRecord
100
AcDbBlockTableRecord
  2
*D0
  0
BLOCK_RECORD
  5
212
100
AcDbSymbolTableRecord
100
AcDbBlockTableRecord
  2
*D1
  0
BLOCK_RECORD
  5
213
100
AcDbSymbolTableRecord
100
AcDbBlockTableRecord
  2
*D2
  0
BLOCK_RECORD
  5
214
100
AcDbSymbolTableRecord
100
AcDbBlockTableRecord
  2
*D3
  0
BLOCK_RECORD
  5
215
100
AcDbSymbolTableRecord
100
AcDbBlockTableRecord
  2
*D4
  0
BLOCK_RECORD
  5
216
100
AcDbSymbolTableRecord
100
AcDbBlockTableRecord
  2
*D5
  0
ENDTAB
  0
TABLE
  2
DIMSTYLE
  5
A
100
AcDbSymbolTable
 70
1
100
AcDbDimStyleTable
 71
0
  0
DIMSTYLE
105
217
100
AcDbSymbolTableRecord
100
AcDbDimStyleTableRecord
  2
STANDARD
 70
0
  3

  4

 40
1.0
 41
3.0
 42
0.5
 43
0.38
 44
1.5
 45
0.0
 46
0.0
 47
0.01
 48
0.01
140
3.0
141
0.09
142
0.0
143
25.4
144
1.0
145
0.0
146
1.0
147
0.625
 71
1.0
 72
0.0
 73
0
 74
0
 75
0
 76
0
 77
1
 78
8
 79
2
170
0
171
1
172
0
173
0
174
0
175
0
176
0
177
0
178
0
270
2
179
2
271
2
272
2
273
2
274
2
275
0
280
0
281
0
282
0
283
1
284
8
285
0
286
0
287
3
288
0
340
11
278
44
341
210
342
210
343
210
344
210
  0
DIMSTYLE
105
218
100
AcDbSymbolTableRecord
100
AcDbDimStyleTableRecord
  2
DIMSTYLE_1
 70
0
  3

  4

 40
1.0
 41
3.0
 42
0.5
 43
0.38
 44
1.5
 45
0.0
 46
0.0
 47
0.0
 48
0.0
140
3.0
141
0.09
142
0.0
143
25.4
144
1.0
145
0.0
146
1.0
147
0.75
 71
0.0
 72
0.0
 73
0
 74
0
 75
0
 76
0
 77
1
 78
8
 79
2
170
0
171
1
172
0
173
0
174
0
175
0
176
0
177
0
178
0
270
2
179
2
271
2
272
2
273
2
274
2
275
0
280
0
281
0
282
0
283
1
284
8
285
0
286
0
287
3
288
0
340
11
278
44
341
210
342
210
343
210
344
210
  0
ENDTAB
  0
ENDSEC
  0
SECTION
  2
BLOCKS
  0
BLOCK
  5
20
100
AcDbEntity
  8
0
100
AcDbBlockBegin
  2
*Model_Space
 70
0
 10
0.0
 20
0.0
 30
0.0
  3
*Model_Space
  1

  0
ENDBLK
  5
21
100
AcDbEntity
  8
0
100
AcDbBlockEnd
  0
BLOCK
  5
1C
100
AcDbEntity
  8
0
100
AcDbBlockBegin
  2
*Paper_Space
 70
0
 10
0.0
 20
0.0
 30
0.0
  3
*Paper_Space
  1

  0
ENDBLK
  5
1D
100
AcDbEntity
  8
0
100
AcDbBlockEnd
  0
BLOCK
  5
219
100
AcDbEntity
  8
0
100
AcDbBlockBegin
  2
_FILLED
 70
64
 10
0.0
 20
0.0
  3
_FILLED
  1

  0
SOLID
  5
21A
100
AcDbEntity
  8
0
  6
BYBLOCK
 62
0
100
AcDbTrace
 10
0.0
 20
0.0
 11
-1.0
 21
0.3166666667
 12
-1.0
 22
-0.3166666667
 13
-1.0
 23
-0.3166666667
  0
ENDBLK
  5
21B
100
AcDbEntity
  8
0
  6
BYBLOCK
 62
0
100
AcDbBlockEnd
  0
BLOCK
  5
21C
100
AcDbEntity
  8
0
100
AcDbBlockBegin
 62
7
  6
CONTINUOUS
  2
*D0
 70
65
 10
0.0
 20
0.0
  3
*D0
  1

  0
LINE
  5
21D
100
AcDbEntity
  8
0
100
AcDbLine
 62
7
  6
CONTINUOUS
 10
16.6903142929
 20
13.2126508521
 11
16.6903142929
 21
19.3671509434
  0
LINE
  5
21E
100
AcDbEntity
  8
0
100
AcDbLine
 62
7
  6
CONTINUOUS
 10
34.6903142929
 20
6.624841405
 11
34.6903142929
 21
19.3671509434
  0
LINE
  5
21F
100
AcDbEntity
  8
0
100
AcDbLine
 62
7
  6
CONTINUOUS
 10
16.6903142929
 20
17.8671509434
 11
25.6903142929
 21
17.8671509434
  0
LINE
  5
220
100
AcDbEntity
  8
0
100
AcDbLine
 62
7
  6
CONTINUOUS
 10
34.6903142929
 20
17.8671509434
 11
25.6903142929
 21
17.8671509434
  0
INSERT
  5
221
100
AcDbEntity
  8
0
100
AcDbBlockReference
 62
7
  6
CONTINUOUS
  2
_FILLED
 10
16.6903142929
 20
17.8671509434
 41
3.0
 42
3.0
 43
3.0
 50
180.0
  0
INSERT
  5
222
100
AcDbEntity
  8
0
100
AcDbBlockReference
 62
7
  6
CONTINUOUS
  2
_FILLED
 10
34.6903142929
 20
17.8671509434
 41
3.0
 42
3.0
 43
3.0
  0
ENDBLK
  5
223
100
AcDbEntity
  8
0
  6
BYBLOCK
 62
0
100
AcDbBlockEnd
  0
BLOCK
  5
224
100
AcDbEntity
  8
0
100
AcDbBlockBegin
 62
7
  6
CONTINUOUS
  2
*D1
 70
65
 10
0.0
 20
0.0
  3
*D1
  1

  0
LINE
  5
225
100
AcDbEntity
  8
0
100
AcDbLine
 62
7
  6
CONTINUOUS
 10
17.1903142929
 20
13.4121509434
 11
59.2717044403
 21
13.4121509434
  0
LINE
  5
226
100
AcDbEntity
  8
0
100
AcDbLine
 62
7
  6
CONTINUOUS
 10
17.1903142929
 20
-10.5878490566
 11
59.2717044403
 21
-10.5878490566
  0
LINE
  5
227
100
AcDbEntity
  8
0
100
AcDbLine
 62
7
  6
CONTINUOUS
 10
57.7717044403
 20
13.4121509434
 11
57.7717044403
 21
1.4121509434
  0
LINE
  5
228
100
AcDbEntity
  8
0
100
AcDbLine
 62
7
  6
CONTINUOUS
 10
57.7717044403
 20
-10.5878490566
 11
57.7717044403
 21
1.4121509434
  0
INSERT
  5
229
100
AcDbEntity
  8
0
100
AcDbBlockReference
 62
7
  6
CONTINUOUS
  2
_FILLED
 10
57.7717044403
 20
13.4121509434
 41
3.0
 42
3.0
 43
3.0
 50
90.0
  0
INSERT
  5
22A
100
AcDbEntity
  8
0
100
AcDbBlockReference
 62
7
  6
CONTINUOUS
  2
_FILLED
 10
57.7717044403
 20
-10.5878490566
 41
3.0
 42
3.0
 43
3.0
 50
270.0
  0
ENDBLK
  5
22B
100
AcDbEntity
  8
0
  6
BYBLOCK
 62
0
100
AcDbBlockEnd
  0
BLOCK
  5
22C
100
AcDbEntity
  8
0
100
AcDbBlockBegin
 62
7
  6
CONTINUOUS
  2
*D2
 70
65
 10
0.0
 20
0.0
  3
*D2
  1

  0
LINE
  5
22D
100
AcDbEntity
  8
0
100
AcDbLine
 62
7
  6
CONTINUOUS
 10
34.6903142929
 20
-4.0878490566
 11
34.6903142929
 21
-18.3512594983
  0
LINE
  5
22E
100
AcDbEntity
  8
0
100
AcDbLine
 62
7
  6
CONTINUOUS
 10
24.6903142929
 20
-4.0878490566
 11
24.6903142929
 21
-18.3512594983
  0
LINE
  5
22F
100
AcDbEntity
  8
0
100
AcDbLine
 62
7
  6
CONTINUOUS
 10
34.6903142929
 20
-16.8512594983
 11
29.6903142929
 21
-16.8512594983
  0
LINE
  5
230
100
AcDbEntity
  8
0
100
AcDbLine
 62
7
  6
CONTINUOUS
 10
24.6903142929
 20
-16.8512594983
 11
29.6903142929
 21
-16.8512594983
  0
INSERT
  5
231
100
AcDbEntity
  8
0
100
AcDbBlockReference
 62
7
  6
CONTINUOUS
  2
_FILLED
 10
34.6903142929
 20
-16.8512594983
 41
3.0
 42
3.0
 43
3.0
  0
INSERT
  5
232
100
AcDbEntity
  8
0
100
AcDbBlockReference
 62
7
  6
CONTINUOUS
  2
_FILLED
 10
24.6903142929
 20
-16.8512594983
 41
3.0
 42
3.0
 43
3.0
 50
180.0
  0
ENDBLK
  5
233
100
AcDbEntity
  8
0
  6
BYBLOCK
 62
0
100
AcDbBlockEnd
  0
BLOCK
  5
234
100
AcDbEntity
  8
0
100
AcDbBlockBegin
 62
7
  6
CONTINUOUS
  2
*D3
 70
65
 10
0.0
 20
0.0
  3
*D3
  1

  0
LINE
  5
235
100
AcDbEntity
  8
0
100
AcDbLine
 62
7
  6
CONTINUOUS
 10
24.6903142929
 20
-9.0878490566
 11
24.6903142929
 21
-18.4022606103
  0
LINE
  5
236
100
AcDbEntity
  8
0
100
AcDbLine
 62
7
  6
CONTINUOUS
 10
17.6903142929
 20
-9.0878490566
 11
17.6903142929
 21
-18.4022606103
  0
LINE
  5
237
100
AcDbEntity
  8
0
100
AcDbLine
 62
7
  6
CONTINUOUS
 10
24.6903142929
 20
-16.9022606103
 11
21.1903142929
 21
-16.9022606103
  0
LINE
  5
238
100
AcDbEntity
  8
0
100
AcDbLine
 62
7
  6
CONTINUOUS
 10
17.6903142929
 20
-16.9022606103
 11
21.1903142929
 21
-16.9022606103
  0
INSERT
  5
239
100
AcDbEntity
  8
0
100
AcDbBlockReference
 62
7
  6
CONTINUOUS
  2
_FILLED
 10
24.6903142929
 20
-16.9022606103
 41
3.0
 42
3.0
 43
3.0
 50
360.0
  0
INSERT
  5
23A
100
AcDbEntity
  8
0
100
AcDbBlockReference
 62
7
  6
CONTINUOUS
  2
_FILLED
 10
17.6903142929
 20
-16.9022606103
 41
3.0
 42
3.0
 43
3.0
 50
180.0
  0
ENDBLK
  5
23B
100
AcDbEntity
  8
0
  6
BYBLOCK
 62
0
100
AcDbBlockEnd
  0
BLOCK
  5
23C
100
AcDbEntity
  8
0
100
AcDbBlockBegin
 62
7
  6
CONTINUOUS
  2
*D4
 70
65
 10
0.0
 20
0.0
  3
*D4
  1

  0
LINE
  5
23D
100
AcDbEntity
  8
0
100
AcDbLine
 62
7
  6
CONTINUOUS
 10
35.1903142929
 20
6.4121509434
 11
37.5040830948
 21
6.4121509434
  0
LINE
  5
23E
100
AcDbEntity
  8
0
100
AcDbLine
 62
7
  6
CONTINUOUS
 10
43.5040830948
 20
6.4121509434
 11
44.2540830948
 21
6.4121509434
  0
LINE
  5
23F
100
AcDbEntity
  8
0
100
AcDbLine
 62
7
  6
CONTINUOUS
 10
35.1903142929
 20
-3.5878490566
 11
37.5040830948
 21
-3.5878490566
  0
LINE
  5
240
100
AcDbEntity
  8
0
100
AcDbLine
 62
7
  6
CONTINUOUS
 10
43.5040830948
 20
-3.5878490566
 11
44.2540830948
 21
-3.5878490566
  0
LINE
  5
241
100
AcDbEntity
  8
0
100
AcDbLine
 62
7
  6
CONTINUOUS
 10
42.7540830948
 20
6.4121509434
 11
42.7540830948
 21
1.4121509434
  0
LINE
  5
242
100
AcDbEntity
  8
0
100
AcDbLine
 62
7
  6
CONTINUOUS
 10
42.7540830948
 20
-3.5878490566
 11
42.7540830948
 21
1.4121509434
  0
INSERT
  5
243
100
AcDbEntity
  8
0
100
AcDbBlockReference
 62
7
  6
CONTINUOUS
  2
_FILLED
 10
42.7540830948
 20
6.4121509434
 41
3.0
 42
3.0
 43
3.0
 50
90.0
  0
INSERT
  5
244
100
AcDbEntity
  8
0
100
AcDbBlockReference
 62
7
  6
CONTINUOUS
  2
_FILLED
 10
42.7540830948
 20
-3.5878490566
 41
3.0
 42
3.0
 43
3.0
 50
270.0
  0
ENDBLK
  5
245
100
AcDbEntity
  8
0
  6
BYBLOCK
 62
0
100
AcDbBlockEnd
  0
BLOCK
  5
246
100
AcDbEntity
  8
0
100
AcDbBlockBegin
 62
7
  6
CONTINUOUS
  2
*D5
 70
65
 10
0.0
 20
0.0
  3
*D5
  1

  0
LINE
  5
247
100
AcDbEntity
  8
0
100
AcDbLine
 62
7
  6
CONTINUOUS
 10
25.1903142929
 20
11.4121509434
 11
51.0888269506
 21
11.4121509434
  0
LINE
  5
248
100
AcDbEntity
  8
0
100
AcDbLine
 62
7
  6
CONTINUOUS
 10
25.1903142929
 20
-8.5878490566
 11
51.0888269506
 21
-8.5878490566
  0
LINE
  5
249
100
AcDbEntity
  8
0
100
AcDbLine
 62
7
  6
CONTINUOUS
 10
49.5888269506
 20
11.4121509434
 11
49.5888269506
 21
1.4121509434
  0
LINE
  5
24A
100
AcDbEntity
  8
0
100
AcDbLine
 62
7
  6
CONTINUOUS
 10
49.5888269506
 20
-8.5878490566
 11
49.5888269506
 21
1.4121509434
  0
LINE
  5
24B
100
AcDbEntity
  8
0
100
AcDbLine
 62
7
  6
CONTINUOUS
 10
49.5888269506
 20
1.4121509434
 11
49.5888269506
 21
-42.2900528302
  0
INSERT
  5
24C
100
AcDbEntity
  8
0
100
AcDbBlockReference
 62
7
  6
CONTINUOUS
  2
_FILLED
 10
49.5888269506
 20
11.4121509434
 41
3.0
 42
3.0
 43
3.0
 50
90.0
  0
INSERT
  5
24D
100
AcDbEntity
  8
0
100
AcDbBlockReference
 62
7
  6
CONTINUOUS
  2
_FILLED
 10
49.5888269506
 20
-8.5878490566
 41
3.0
 42
3.0
 43
3.0
 50
270.0
  0
ENDBLK
  5
24E
100
AcDbEntity
  8
0
  6
BYBLOCK
 62
0
100
AcDbBlockEnd
  0
ENDSEC
  0
SECTION
  2
ENTITIES
  0
DIMENSION
  5
24F
100
AcDbEntity
  8
0
100
AcDbDimension
 62
7
  6
CONTINUOUS
  2
*D0
 10
34.6903142929
 20
17.8671509434
 11
23.6546000072
 21
17.8671509434
 70
160
 71
2
 72
2
 41
0.9
 42
18.0
  3
DIMSTYLE_1
100
AcDbAlignedDimension
 13
16.6903142929
 23
12.7126508521
 14
34.6903142929
 24
6.124841405
100
AcDbRotatedDimension
  0
DIMENSION
  5
250
100
AcDbEntity
  8
0
100
AcDbDimension
 62
7
  6
CONTINUOUS
  2
*D1
 10
57.7717044403
 20
-10.5878490566
 11
57.7717044403
 21
-2.9449919137
 70
160
 71
2
 72
2
 41
0.9
 42
24.0
  1
%%c<>
  3
DIMSTYLE_1
100
AcDbAlignedDimension
 13
16.6903142929
 23
13.4121509434
 14
16.6903142929
 24
-10.5878490566
 50
270.0
100
AcDbRotatedDimension
  0
DIMENSION
  5
251
100
AcDbEntity
  8
0
100
AcDbDimension
 62
7
  6
CONTINUOUS
  2
*D2
 10
24.6903142929
 20
-16.8512594983
 11
27.6546000072
 21
-16.8512594983
 70
160
 71
2
 72
2
 41
0.9
 42
10.0
  3
DIMSTYLE_1
100
AcDbAlignedDimension
 13
34.6903142929
 23
-3.5878490566
 14
24.6903142929
 24
-3.5878490566
 50
180.0
100
AcDbRotatedDimension
  0
DIMENSION
  5
252
100
AcDbEntity
  8
0
100
AcDbDimension
 62
7
  6
CONTINUOUS
  2
*D3
 10
17.6903142929
 20
-16.9022606103
 11
20.0117428644
 21
-16.9022606103
 70
160
 71
2
 72
2
 41
0.9
 42
7.0
  3
DIMSTYLE_1
100
AcDbAlignedDimension
 13
24.6903142929
 23
-8.5878490566
 14
17.6903142929
 24
-8.5878490566
 50
180.0
100
AcDbRotatedDimension
  0
DIMENSION
  5
253
100
AcDbEntity
  8
0
100
AcDbDimension
 62
7
  6
CONTINUOUS
  2
*D4
 10
42.7540830948
 20
-3.5878490566
 11
42.7540830948
 21
-3.8021347709
 70
160
 71
2
 72
2
 41
0.9
 42
10.0
  1
%%c<> 
  3
DIMSTYLE_1
100
AcDbAlignedDimension
 13
34.6903142929
 23
6.4121509434
 14
34.6903142929
 24
-3.5878490566
 50
270.0
100
AcDbRotatedDimension
  0
DIMENSION
  5
254
100
AcDbEntity
  8
0
100
AcDbDimension
 62
7
  6
CONTINUOUS
  2
*D5
 10
49.5888269506
 20
-8.5878490566
 11
49.5888269506
 21
-42.2900528302
 70
160
 71
3
 72
2
 41
0.9
 42
20.0
  1
%%c<> (foratura)
  3
DIMSTYLE_1
100
AcDbAlignedDimension
 13
24.6903142929
 23
11.4121509434
 14
24.6903142929
 24
-8.5878490566
 50
270.0
100
AcDbRotatedDimension
  0
LINE
  5
255
100
AcDbEntity
  8
0
100
AcDbLine
 62
7
  6
CONTINUOUS
 10
-18.2950893331
 20
4.9120973951
 11
-22.8922365509
 21
16.9700510999
  0
LINE
  5
256
100
AcDbEntity
  8
0
100
AcDbLine
 62
7
  6
CONTINUOUS
 10
-22.8922365509
 20
16.9700510999
 11
-23.8922365509
 21
16.9700510999
  0
LINE
  5
257
100
AcDbEntity
  8
0
100
AcDbLine
 62
7
  6
CONTINUOUS
 10
-23.8922365509
 20
16.9700510999
 11
-68.6779508366
 21
16.9700510999
  0
SOLID
  5
258
100
AcDbEntity
  8
0
100
AcDbTrace
 62
7
  6
CONTINUOUS
 10
-20.2514886061
 20
7.3768492862
 11
-18.2950893331
 21
4.9120973951
 12
-18.4761403135
 22
8.0537085331
 13
-18.4761403135
 23
8.0537085331
  0
LWPOLYLINE
  5
259
100
AcDbEntity
  8
0
100
AcDbPolyline
 62
7
  6
CONTINUOUS
 90
3
 70
0
 43
0.3500000006
 10
-68.1065240021
 20
20.720050415
 10
-68.1065240021
 20
17.7200494995
 10
-67.035092514
 20
17.7200494995
  0
LWPOLYLINE
  5
25A
100
AcDbEntity
  8
0
100
AcDbPolyline
 62
7
  6
CONTINUOUS
 90
5
 70
0
 43
0.3500000006
 10
-66.1779500427
 20
19.8629079437
 10
-66.1779500427
 20
17.9343385162
 10
-65.9636655579
 20
17.7200494995
 10
-64.8922386017
 20
17.7200494995
 10
-64.8922386017
 20
19.8629079437
  0
LWPOLYLINE
  5
25B
100
AcDbEntity
  8
0
100
AcDbPolyline
 62
7
  6
CONTINUOUS
 90
5
 70
0
 43
0.3500000006
 10
-64.0350915985
 20
17.7200494995
 10
-64.0350915985
 20
19.8629079437
 10
-62.9636646423
 20
19.8629079437
 10
-62.7493801575
 20
19.6486234589
 10
-62.7493801575
 20
17.7200494995
  0
LWPOLYLINE
  5
25C
100
AcDbEntity
  8
0
100
AcDbPolyline
 62
7
  6
CONTINUOUS
 90
2
 70
0
 43
0.3500000006
 10
-59.7493792419
 20
17.7200494995
 10
-59.7493792419
 20
20.720050415
  0
LWPOLYLINE
  5
25D
100
AcDbEntity
  8
0
100
AcDbPolyline
 62
7
  6
CONTINUOUS
 90
4
 70
0
 43
0.3500000006
 10
-49.8922385559
 20
17.7200494995
 10
-49.8922385559
 20
19.434338974
 10
-50.1065230408
 20
19.8629079437
 10
-51.1779499969
 20
19.8629079437
  0
LWPOLYLINE
  5
25E
100
AcDbEntity
  8
0
100
AcDbPolyline
 62
7
  6
CONTINUOUS
 90
4
 70
0
 43
0.3500000006
 10
-43.4636632233
 20
17.7200494995
 10
-43.4636632233
 20
19.434338974
 10
-43.67795224
 20
19.8629079437
 10
-44.7493791962
 20
19.8629079437
  0
LWPOLYLINE
  5
25F
100
AcDbEntity
  8
0
100
AcDbPolyline
 62
7
  6
CONTINUOUS
 90
2
 70
0
 43
0.3500000006
 10
-40.035093338
 20
17.7200494995
 10
-40.035093338
 20
19.8629079437
  0
LWPOLYLINE
  5
260
100
AcDbEntity
  8
0
100
AcDbPolyline
 62
7
  6
CONTINUOUS
 90
4
 70
0
 43
0.3500000006
 10
-40.035093338
 20
20.5057659302
 10
-40.035093338
 20
20.720050415
 10
-39.963666687
 20
20.720050415
 10
-40.035093338
 20
20.5057659302
  0
LWPOLYLINE
  5
261
100
AcDbEntity
  8
0
100
AcDbPolyline
 62
7
  6
CONTINUOUS
 90
4
 70
0
 43
0.3500000006
 10
-34.1779516068
 20
18.1486230011
 10
-34.1779516068
 20
19.0057654724
 10
-33.7493803711
 20
19.434338974
 10
-33.1065223846
 20
19.434338974
  0
LWPOLYLINE
  5
262
100
AcDbEntity
  8
0
100
AcDbPolyline
 62
7
  6
CONTINUOUS
 90
13
 70
0
 43
0.3500000006
 10
-31.8208086777
 20
18.5771919708
 10
-31.8208086777
 20
19.8629079437
 10
-31.6065219269
 20
20.2914814453
 10
-31.1779506912
 20
20.720050415
 10
-30.9636662064
 20
20.720050415
 10
-30.5350927048
 20
20.2914814453
 10
-30.3208082199
 20
19.8629079437
 10
-30.3208082199
 20
18.5771919708
 10
-30.5350927048
 20
18.1486230011
 10
-30.9636662064
 20
17.7200494995
 10
-31.1779506912
 20
17.7200494995
 10
-31.6065219269
 20
18.1486230011
 10
-31.8208086777
 20
18.5771919708
  0
LWPOLYLINE
  5
263
100
AcDbEntity
  8
0
100
AcDbPolyline
 62
7
  6
CONTINUOUS
 90
5
 70
0
 43
0.3500000006
 10
-29.4636657486
 20
17.7200494995
 10
-29.4636657486
 20
19.8629079437
 10
-27.74937854
 20
19.8629079437
 10
-27.5350940552
 20
19.6486234589
 10
-27.5350940552
 20
17.7200494995
  0
LWPOLYLINE
  5
264
100
AcDbEntity
  8
0
100
AcDbPolyline
 62
7
  6
CONTINUOUS
 90
2
 70
0
 43
0.3500000006
 10
-28.5350943604
 20
19.8629079437
 10
-28.5350943604
 20
17.7200494995
  0
LWPOLYLINE
  5
265
100
AcDbEntity
  8
0
100
AcDbPolyline
 62
7
  6
CONTINUOUS
 90
5
 70
0
 43
0.3500000006
 10
-26.6779515839
 20
17.7200494995
 10
-26.6779515839
 20
19.8629079437
 10
-24.9636643753
 20
19.8629079437
 10
-24.7493798904
 20
19.6486234589
 10
-24.7493798904
 20
17.7200494995
  0
LWPOLYLINE
  5
266
100
AcDbEntity
  8
0
100
AcDbPolyline
 62
7
  6
CONTINUOUS
 90
2
 70
0
 43
0.3500000006
 10
-25.7493801956
 20
19.8629079437
 10
-25.7493801956
 20
17.7200494995
  0
LWPOLYLINE
  5
267
100
AcDbEntity
  8
0
100
AcDbPolyline
 62
7
  6
CONTINUOUS
 90
13
 70
0
 43
0.3500000006
 10
47.9816832733
 20
-35.9329103165
 10
46.6959718323
 20
-35.9329103165
 10
46.2673983307
 20
-35.7186246986
 10
45.8388248291
 20
-35.29005233
 10
45.8388248291
 20
-35.0757667122
 10
46.2673983307
 20
-34.6471954765
 10
46.6959718323
 20
-34.4329098587
 10
47.9816832733
 20
-34.4329098587
 10
48.4102567749
 20
-34.6471954765
 10
48.8388257446
 20
-35.0757667122
 10
48.8388257446
 20
-35.29005233
 10
48.4102567749
 20
-35.7186246986
 10
47.9816832733
 20
-35.9329103165
  0
LWPOLYLINE
  5
268
100
AcDbEntity
  8
0
100
AcDbPolyline
 62
7
  6
CONTINUOUS
 90
4
 70
0
 43
0.3500000006
 10
48.8388257446
 20
-29.5757672997
 10
46.0531138458
 20
-29.5757672997
 10
45.8388248291
 20
-29.3614816818
 10
45.8388248291
 20
-28.9329098797
  0
LWPOLYLINE
  5
269
100
AcDbEntity
  8
0
100
AcDbPolyline
 62
7
  6
CONTINUOUS
 90
3
 70
0
 43
0.3500000006
 10
-42.606520752
 20
19.8629079437
 10
-41.9636672974
 20
17.7200494995
 10
-41.3208093109
 20
19.8629079437
  0
LWPOLYLINE
  5
26A
100
AcDbEntity
  8
0
100
AcDbPolyline
 62
7
  6
CONTINUOUS
 90
9
 70
0
 43
0.3500000006
 10
48.4102567749
 20
-28.2186241093
 10
47.124540802
 20
-28.2186241093
 10
46.6959718323
 20
-27.7900528736
 10
46.6959718323
 20
-27.361481638
 10
47.124540802
 20
-26.9329098358
 10
48.4102567749
 20
-26.9329098358
 10
48.8388257446
 20
-27.361481638
 10
48.8388257446
 20
-27.7900528736
 10
48.4102567749
 20
-28.2186241093
  0
LWPOLYLINE
  5
26B
100
AcDbEntity
  8
0
100
AcDbPolyline
 62
7
  6
CONTINUOUS
 90
16
 70
0
 10
-22.5861633495
 20
0.4121509434
 10
-22.5845126424
 20
0.3589676256
 10
-22.5800020494
 20
0.3074647932
 10
-22.5726315705
 20
0.2576424462
 10
-22.5622588318
 20
0.2089952553
 10
-22.5490262072
 20
0.1620285497
 10
-22.5333608184
 20
0.1182583173
 10
-22.5151832866
 20
0.0777888556
 10
-22.4945729906
 20
0.040515867
 10
-22.4721951879
 20
0.0076424462
 10
-22.4479922065
 20
-0.0206878533
 10
-22.4220217185
 20
-0.0446185851
 10
-22.3951219972
 20
-0.0633773148
 10
-22.3672627226
 20
-0.0767952851
 10
-22.3384742149
 20
-0.0850412533
 10
-22.3097311246
 20
-0.0878490494
  0
LWPOLYLINE
  5
26C
100
AcDbEntity
  8
0
100
AcDbPolyline
 62
7
  6
CONTINUOUS
 90
16
 70
0
 10
-22.5861633495
 20
4.4121509434
 10
-22.5845126424
 20
4.3589676256
 10
-22.5800020494
 20
4.3074647932
 10
-22.5726315705
 20
4.2576424462
 10
-22.5622588318
 20
4.2089952553
 10
-22.5490262072
 20
4.1620285497
 10
-22.5333608184
 20
4.1182583173
 10
-22.5151832866
 20
4.0777888556
 10
-22.4945729906
 20
4.040515867
 10
-22.4721951879
 20
4.0076424462
 10
-22.4479922065
 20
3.9793121467
 10
-22.4220217185
 20
3.9553814149
 10
-22.3951219972
 20
3.9366226852
 10
-22.3672627226
 20
3.9232047149
 10
-22.3384742149
 20
3.9149587467
 10
-22.3097269439
 20
3.9121509494
  0
LWPOLYLINE
  5
26D
100
AcDbEntity
  8
0
100
AcDbPolyline
 62
7
  6
CONTINUOUS
 90
16
 70
0
 10
-22.0332080646
 20
0.4121509434
 10
-22.0348587717
 20
0.4653342612
 10
-22.0393693647
 20
0.5168370935
 10
-22.0467398436
 20
0.5666594406
 10
-22.0571125823
 20
0.6153066315
 10
-22.0703452069
 20
0.6622733371
 10
-22.0860105958
 20
0.7060435695
 10
-22.1041881275
 20
0.7465130312
 10
-22.1247984235
 20
0.7837860198
 10
-22.1471762263
 20
0.8166594406
 10
-22.1713792076
 20
0.8449897401
 10
-22.1973496957
 20
0.8689204719
 10
-22.224249417
 20
0.8876792015
 10
-22.2521086915
 20
0.9010971719
 10
-22.2808971993
 20
0.9093431401
 10
-22.3097311246
 20
0.9121509361
  0
LWPOLYLINE
  5
26E
100
AcDbEntity
  8
0
100
AcDbPolyline
 62
7
  6
CONTINUOUS
 90
16
 70
0
 10
-22.0332080646
 20
4.4121509434
 10
-22.0348587717
 20
4.4653342612
 10
-22.0393693647
 20
4.5168370935
 10
-22.0467398436
 20
4.5666594406
 10
-22.0571125823
 20
4.6153066315
 10
-22.0703452069
 20
4.6622733371
 10
-22.0860105958
 20
4.7060435695
 10
-22.1041881275
 20
4.7465130312
 10
-22.1247984235
 20
4.7837860198
 10
-22.1471762263
 20
4.8166594406
 10
-22.1713792076
 20
4.8449897401
 10
-22.1973496957
 20
4.8689204719
 10
-22.224249417
 20
4.8876792015
 10
-22.2521086915
 20
4.9010971719
 10
-22.2808971993
 20
4.9093431401
 10
-22.3097269439
 20
4.9121509374
  0
LWPOLYLINE
  5
26F
100
AcDbEntity
  8
0
100
AcDbPolyline
 62
7
  6
CONTINUOUS
 90
16
 70
0
 10
-22.5861633495
 20
2.4121509434
 10
-22.5845126424
 20
2.4653342612
 10
-22.5800020494
 20
2.5168370935
 10
-22.5726315705
 20
2.5666594406
 10
-22.5622588318
 20
2.6153066315
 10
-22.5490262072
 20
2.6622733371
 10
-22.5333608184
 20
2.7060435695
 10
-22.5151832866
 20
2.7465130312
 10
-22.4945729906
 20
2.7837860198
 10
-22.4721951879
 20
2.8166594406
 10
-22.4479922065
 20
2.8449897401
 10
-22.4220217185
 20
2.8689204719
 10
-22.3951219972
 20
2.8876792015
 10
-22.3672627226
 20
2.9010971719
 10
-22.3384742149
 20
2.9093431401
 10
-22.3097311246
 20
2.9121509361
  0
LWPOLYLINE
  5
270
100
AcDbEntity
  8
0
100
AcDbPolyline
 62
7
  6
CONTINUOUS
 90
16
 70
0
 10
-22.5861633495
 20
-1.5878490566
 10
-22.5845126424
 20
-1.5346657388
 10
-22.5800020494
 20
-1.4831629065
 10
-22.5726315705
 20
-1.4333405594
 10
-22.5622588318
 20
-1.3846933685
 10
-22.5490262072
 20
-1.3377266629
 10
-22.5333608184
 20
-1.2939564305
 10
-22.5151832866
 20
-1.2534869688
 10
-22.4945729906
 20
-1.2162139802
 10
-22.4721951879
 20
-1.1833405594
 10
-22.4479922065
 20
-1.1550102599
 10
-22.4220217185
 20
-1.1310795281
 10
-22.3951219972
 20
-1.1123207985
 10
-22.3672627226
 20
-1.0989028281
 10
-22.3384742149
 20
-1.0906568599
 10
-22.3097269439
 20
-1.0878490626
  0
LWPOLYLINE
  5
271
100
AcDbEntity
  8
0
100
AcDbPolyline
 62
7
  6
CONTINUOUS
 90
16
 70
0
 10
-22.0332080646
 20
2.4121509434
 10
-22.0348587717
 20
2.3589676256
 10
-22.0393693647
 20
2.3074647932
 10
-22.0467398436
 20
2.2576424462
 10
-22.0571125823
 20
2.2089952553
 10
-22.0703452069
 20
2.1620285497
 10
-22.0860105958
 20
2.1182583173
 10
-22.1041881275
 20
2.0777888556
 10
-22.1247984235
 20
2.040515867
 10
-22.1471762263
 20
2.0076424462
 10
-22.1713792076
 20
1.9793121467
 10
-22.1973496957
 20
1.9553814149
 10
-22.224249417
 20
1.9366226852
 10
-22.2521086915
 20
1.9232047149
 10
-22.2808971993
 20
1.9149587467
 10
-22.3097311246
 20
1.9121509506
  0
LWPOLYLINE
  5
272
100
AcDbEntity
  8
0
100
AcDbPolyline
 62
7
  6
CONTINUOUS
 90
16
 70
0
 10
-22.0332080646
 20
-1.5878490566
 10
-22.0348587717
 20
-1.6410323744
 10
-22.0393693647
 20
-1.6925352068
 10
-22.0467398436
 20
-1.7423575538
 10
-22.0571125823
 20
-1.7910047447
 10
-22.0703452069
 20
-1.8379714503
 10
-22.0860105958
 20
-1.8817416827
 10
-22.1041881275
 20
-1.9222111444
 10
-22.1247984235
 20
-1.959484133
 10
-22.1471762263
 20
-1.9923575538
 10
-22.1713792076
 20
-2.0206878533
 10
-22.1973496957
 20
-2.0446185851
 10
-22.224249417
 20
-2.0633773148
 10
-22.2521086915
 20
-2.0767952851
 10
-22.2808971993
 20
-2.0850412533
 10
-22.3097269439
 20
-2.0878490506
  0
LWPOLYLINE
  5
273
100
AcDbEntity
  8
0
100
AcDbPolyline
 62
7
  6
CONTINUOUS
 90
5
 70
0
 43
0.3500000006
 10
48.8388257446
 20
-26.0757673645
 10
46.6959718323
 20
-26.0757673645
 10
46.6959718323
 20
-25.2186243267
 10
46.9102563171
 20
-25.0757670593
 10
47.3388252869
 20
-25.0757670593
  0
LWPOLYLINE
  5
274
100
AcDbEntity
  8
0
100
AcDbPolyline
 62
7
  6
CONTINUOUS
 90
13
 70
0
 43
0.3500000006
 10
47.3388252869
 20
-42.2900522003
 10
46.588825058
 20
-42.040052124
 10
46.0888249054
 20
-41.5400519714
 10
45.8388248291
 20
-40.7900517426
 10
46.0888249054
 20
-40.0400537796
 10
46.588825058
 20
-39.540053627
 10
47.3388252869
 20
-39.2900524178
 10
48.0888255157
 20
-39.540053627
 10
48.5888256683
 20
-40.0400537796
 10
48.8388257446
 20
-40.7900517426
 10
48.5888256683
 20
-41.5400519714
 10
48.0888255157
 20
-42.040052124
 10
47.3388252869
 20
-42.2900522003
  0
LWPOLYLINE
  5
275
100
AcDbEntity
  8
0
100
AcDbPolyline
 62
7
  6
CONTINUOUS
 90
4
 70
0
 43
0.3500000006
 10
48.8388257446
 20
-22.8614813976
 10
47.124540802
 20
-22.8614813976
 10
46.6959718323
 20
-23.0757670155
 10
46.6959718323
 20
-24.1471956711
  0
LWPOLYLINE
  5
276
100
AcDbEntity
  8
0
100
AcDbPolyline
 62
7
  6
CONTINUOUS
 90
2
 70
0
 43
0.3500000006
 10
48.8388257446
 20
-21.6471957579
 10
45.8388248291
 20
-21.6471957579
  0
LWPOLYLINE
  5
277
100
AcDbEntity
  8
0
100
AcDbPolyline
 62
7
  6
CONTINUOUS
 90
5
 70
0
 43
0.3500000006
 10
46.6959718323
 20
-20.2900528303
 10
48.6245412598
 20
-20.2900528303
 10
48.8388257446
 20
-20.075767109
 10
48.8388257446
 20
-19.0043385773
 10
46.6959718323
 20
-19.0043385773
  0
LWPOLYLINE
  5
278
100
AcDbEntity
  8
0
100
AcDbPolyline
 62
7
  6
CONTINUOUS
 90
5
 70
0
 43
0.3500000006
 10
48.8388257446
 20
-18.1471956811
 10
46.6959718323
 20
-18.1471956811
 10
46.6959718323
 20
-17.2900527849
 10
46.9102563171
 20
-17.1471958008
 10
47.3388252869
 20
-17.1471958008
  0
LWPOLYLINE
  5
279
100
AcDbEntity
  8
0
100
AcDbPolyline
 62
7
  6
CONTINUOUS
 90
4
 70
0
 43
0.3500000006
 10
48.8388257446
 20
-14.9329101391
 10
47.124540802
 20
-14.9329101391
 10
46.6959718323
 20
-15.1471957569
 10
46.6959718323
 20
-16.2186241293
  0
LWPOLYLINE
  5
27A
100
AcDbEntity
  8
0
100
AcDbPolyline
 62
7
  6
CONTINUOUS
 90
2
 70
0
 43
0.3500000006
 10
49.5888259735
 20
-42.040052124
 10
45.0888291321
 20
-39.540053627
  0
LINE
  5
27B
100
AcDbEntity
  8
0
100
AcDbLine
 62
7
  6
CONTINUOUS
 10
-7.3096857071
 20
6.4120146581
 11
-7.3096857071
 21
-3.5877127713
  0
LINE
  5
27C
100
AcDbEntity
  8
0
100
AcDbLine
 62
7
  6
CONTINUOUS
 10
9.6903142929
 20
-10.5878490566
 11
10.6903142929
 21
-10.5878490566
  0
LINE
  5
27D
100
AcDbEntity
  8
0
100
AcDbLine
 62
7
  6
CONTINUOUS
 10
16.6903142929
 20
-10.5878490566
 11
17.6903142929
 21
-10.5878490566
  0
LINE
  5
27E
100
AcDbEntity
  8
0
100
AcDbLine
 62
7
  6
CONTINUOUS
 10
2.6903142929
 20
-8.5878490566
 11
9.6903142929
 21
-8.5878490566
  0
LINE
  5
27F
100
AcDbEntity
  8
0
100
AcDbLine
 62
7
  6
CONTINUOUS
 10
17.6903142929
 20
-8.5878490566
 11
24.6903142929
 21
-8.5878490566
  0
LWPOLYLINE
  5
280
100
AcDbEntity
  8
0
100
AcDbPolyline
 62
7
  6
CONTINUOUS
 90
13
 70
0
 43
0.3500000006
 10
-33.7493803711
 20
19.434338974
 10
-34.0350937729
 20
19.6486234589
 10
-34.0350937729
 20
20.2914814453
 10
-33.7493803711
 20
20.720050415
 10
-33.1065223846
 20
20.720050415
 10
-32.8208089828
 20
20.2914814453
 10
-32.8208089828
 20
19.6486234589
 10
-33.1065223846
 20
19.434338974
 10
-32.677951149
 20
19.0057654724
 10
-32.677951149
 20
18.1486230011
 10
-33.1065223846
 20
17.7200494995
 10
-33.7493803711
 20
17.7200494995
 10
-34.1779516068
 20
18.1486230011
  0
LWPOLYLINE
  5
281
100
AcDbEntity
  8
0
100
AcDbPolyline
 62
7
  6
CONTINUOUS
 90
16
 70
0
 10
-22.3097269439
 20
-2.0878490506
 10
-22.3384742149
 20
-2.0850412533
 10
-22.3672627226
 20
-2.0767952851
 10
-22.3951219972
 20
-2.0633773148
 10
-22.4220217185
 20
-2.0446185851
 10
-22.4479922065
 20
-2.0206878533
 10
-22.4721951879
 20
-1.9923575538
 10
-22.4945729906
 20
-1.959484133
 10
-22.5151832866
 20
-1.9222111444
 10
-22.5333608184
 20
-1.8817416827
 10
-22.5490262072
 20
-1.8379714503
 10
-22.5622588318
 20
-1.7910047447
 10
-22.5726315705
 20
-1.7423575538
 10
-22.5800020494
 20
-1.6925352068
 10
-22.5845126424
 20
-1.6410323744
 10
-22.5861633495
 20
-1.5878490566
  0
LINE
  5
282
100
AcDbEntity
  8
0
100
AcDbLine
 62
7
  6
CONTINUOUS
 10
-7.3096857071
 20
-3.5878490566
 11
2.6903142929
 21
-3.5878490566
  0
LINE
  5
283
100
AcDbEntity
  8
0
100
AcDbLine
 62
7
  6
CONTINUOUS
 10
24.6903142929
 20
-3.5878490566
 11
34.6903142929
 21
-3.5878490566
  0
LWPOLYLINE
  5
284
100
AcDbEntity
  8
0
100
AcDbPolyline
 62
7
  6
CONTINUOUS
 90
16
 70
0
 10
-22.3097269439
 20
-1.0878490626
 10
-22.2808971993
 20
-1.0906568599
 10
-22.2521086915
 20
-1.0989028281
 10
-22.224249417
 20
-1.1123207985
 10
-22.1973496957
 20
-1.1310795281
 10
-22.1713792076
 20
-1.1550102599
 10
-22.1471762263
 20
-1.1833405594
 10
-22.1247984235
 20
-1.2162139802
 10
-22.1041881275
 20
-1.2534869688
 10
-22.0860105958
 20
-1.2939564305
 10
-22.0703452069
 20
-1.3377266629
 10
-22.0571125823
 20
-1.3846933685
 10
-22.0467398436
 20
-1.4333405594
 10
-22.0393693647
 20
-1.4831629065
 10
-22.0348587717
 20
-1.5346657388
 10
-22.0332080646
 20
-1.5878490566
  0
LINE
  5
285
100
AcDbEntity
  8
0
100
AcDbLine
 62
7
  6
CONTINUOUS
 10
2.6903142929
 20
-8.5878490566
 11
2.6903142929
 21
11.4121509434
  0
LINE
  5
286
100
AcDbEntity
  8
0
100
AcDbLine
 62
7
  6
CONTINUOUS
 10
-10.1679947982
 20
-2.0878547026
 11
-8.0806876288
 21
-2.0867726498
  0
LWPOLYLINE
  5
287
100
AcDbEntity
  8
0
100
AcDbPolyline
 62
7
  6
CONTINUOUS
 90
3
 70
0
 10
-7.3096857071
 20
-1.0881090605
 10
-8.396531214
 20
-1.0887783669
 10
-21.4146701008
 20
-1.0886858654
  0
LWPOLYLINE
  5
288
100
AcDbEntity
  8
0
100
AcDbPolyline
 62
7
  6
CONTINUOUS
 90
3
 70
0
 10
-22.3097269439
 20
-2.087849051
 10
-20.7034502543
 20
-2.0871475005
 10
-17.8606368104
 20
-2.0879735561
  0
LINE
  5
289
100
AcDbEntity
  8
0
100
AcDbLine
 62
7
  6
CONTINUOUS
 10
-14.1056770612
 20
-2.0881028263
 11
-10.1679947982
 21
-2.0878547026
  0
LINE
  5
28A
100
AcDbEntity
  8
0
100
AcDbLine
 62
7
  6
CONTINUOUS
 10
-17.8606368104
 20
-2.0879735561
 11
-14.1056770612
 21
-2.0881028263
  0
LINE
  5
28B
100
AcDbEntity
  8
0
100
AcDbLine
 62
7
  6
CONTINUOUS
 10
-21.4146701008
 20
-1.0886858654
 11
-22.3097269439
 21
-1.0878490622
  0
LINE
  5
28C
100
AcDbEntity
  8
0
100
AcDbLine
 62
7
  6
CONTINUOUS
 10
-8.0806876288
 20
-2.0867726498
 11
-7.3096857071
 21
-2.0875890527
  0
LWPOLYLINE
  5
28D
100
AcDbEntity
  8
0
100
AcDbPolyline
 62
7
  6
CONTINUOUS
 90
16
 70
0
 10
-22.3097311246
 20
1.9121509506
 10
-22.3384742149
 20
1.9149587467
 10
-22.3672627226
 20
1.9232047149
 10
-22.3951219972
 20
1.9366226852
 10
-22.4220217185
 20
1.9553814149
 10
-22.4479922065
 20
1.9793121467
 10
-22.4721951879
 20
2.0076424462
 10
-22.4945729906
 20
2.040515867
 10
-22.5151832866
 20
2.0777888556
 10
-22.5333608184
 20
2.1182583173
 10
-22.5490262072
 20
2.1620285497
 10
-22.5622588318
 20
2.2089952553
 10
-22.5726315705
 20
2.2576424462
 10
-22.5800020494
 20
2.3074647932
 10
-22.5845126424
 20
2.3589676256
 10
-22.5861633495
 20
2.4121509434
  0
LWPOLYLINE
  5
28E
100
AcDbEntity
  8
0
100
AcDbPolyline
 62
7
  6
CONTINUOUS
 90
3
 70
0
 43
0.3500000006
 10
23.6546002579
 20
20.7600078278
 10
24.5117427292
 20
21.6171502991
 10
24.5117427292
 20
18.6171493835
  0
LINE
  5
28F
100
AcDbEntity
  8
0
100
AcDbLine
 62
7
  6
CONTINUOUS
 10
-19.1387968823
 20
0.9122276054
 11
-21.4211683209
 21
0.911463555
  0
LWPOLYLINE
  5
290
100
AcDbEntity
  8
0
100
AcDbPolyline
 62
7
  6
CONTINUOUS
 90
3
 70
0
 10
-7.3096857071
 20
0.9121119554
 10
-15.073055457
 20
0.9122978368
 10
-19.1387968823
 20
0.9122276054
  0
LWPOLYLINE
  5
291
100
AcDbEntity
  8
0
100
AcDbPolyline
 62
7
  6
CONTINUOUS
 90
3
 70
0
 10
-22.3097311246
 20
-0.0878490499
 10
-20.7089943241
 20
-0.0874123407
 10
-17.859667541
 20
-0.088002405
  0
LINE
  5
292
100
AcDbEntity
  8
0
100
AcDbLine
 62
7
  6
CONTINUOUS
 10
-17.859667541
 20
-0.088002405
 11
-7.3096857071
 21
-0.0878100686
  0
LINE
  5
293
100
AcDbEntity
  8
0
100
AcDbLine
 62
7
  6
CONTINUOUS
 10
-21.4211683209
 20
0.911463555
 11
-22.3097311246
 21
0.9121509366
  0
LWPOLYLINE
  5
294
100
AcDbEntity
  8
0
100
AcDbPolyline
 62
7
  6
CONTINUOUS
 90
16
 70
0
 10
-22.3097311246
 20
2.9121509361
 10
-22.2808971993
 20
2.9093431401
 10
-22.2521086915
 20
2.9010971719
 10
-22.224249417
 20
2.8876792015
 10
-22.1973496957
 20
2.8689204719
 10
-22.1713792076
 20
2.8449897401
 10
-22.1471762263
 20
2.8166594406
 10
-22.1247984235
 20
2.7837860198
 10
-22.1041881275
 20
2.7465130312
 10
-22.0860105958
 20
2.7060435695
 10
-22.0703452069
 20
2.6622733371
 10
-22.0571125823
 20
2.6153066315
 10
-22.0467398436
 20
2.5666594406
 10
-22.0393693647
 20
2.5168370935
 10
-22.0348587717
 20
2.4653342612
 10
-22.0332080646
 20
2.4121509434
  0
LWPOLYLINE
  5
295
100
AcDbEntity
  8
0
100
AcDbPolyline
 62
7
  6
CONTINUOUS
 90
16
 70
0
 10
-22.3097311246
 20
0.9121509361
 10
-22.3384742149
 20
0.9093431401
 10
-22.3672627226
 20
0.9010971719
 10
-22.3951219972
 20
0.8876792015
 10
-22.4220217185
 20
0.8689204719
 10
-22.4479922065
 20
0.8449897401
 10
-22.4721951879
 20
0.8166594406
 10
-22.4945729906
 20
0.7837860198
 10
-22.5151832866
 20
0.7465130312
 10
-22.5333608184
 20
0.7060435695
 10
-22.5490262072
 20
0.6622733371
 10
-22.5622588318
 20
0.6153066315
 10
-22.5726315705
 20
0.5666594406
 10
-22.5800020494
 20
0.5168370935
 10
-22.5845126424
 20
0.4653342612
 10
-22.5861633495
 20
0.4121509434
  0
LWPOLYLINE
  5
296
100
AcDbEntity
  8
0
100
AcDbPolyline
 62
7
  6
CONTINUOUS
 90
16
 70
0
 10
-22.3097311246
 20
-0.0878490494
 10
-22.2808971993
 20
-0.0850412533
 10
-22.2521086915
 20
-0.0767952851
 10
-22.224249417
 20
-0.0633773148
 10
-22.1973496957
 20
-0.0446185851
 10
-22.1713792076
 20
-0.0206878533
 10
-22.1471762263
 20
0.0076424462
 10
-22.1247984235
 20
0.040515867
 10
-22.1041881275
 20
0.0777888556
 10
-22.0860105958
 20
0.1182583173
 10
-22.0703452069
 20
0.1620285497
 10
-22.0571125823
 20
0.2089952553
 10
-22.0467398436
 20
0.2576424462
 10
-22.0393693647
 20
0.3074647932
 10
-22.0348587717
 20
0.3589676256
 10
-22.0332080646
 20
0.4121509434
  0
LWPOLYLINE
  5
297
100
AcDbEntity
  8
0
100
AcDbPolyline
 62
7
  6
CONTINUOUS
 90
13
 70
0
 43
0.3500000006
 10
41.1469399567
 20
1.912150177
 10
39.8612239838
 20
1.912150177
 10
39.432655014
 20
2.1264369278
 10
39.0040815125
 20
2.5550081635
 10
39.0040815125
 20
2.7692949142
 10
39.432655014
 20
3.1978661499
 10
39.8612239838
 20
3.4121506348
 10
41.1469399567
 20
3.4121506348
 10
41.5755134583
 20
3.1978661499
 10
42.004082428
 20
2.7692949142
 10
42.004082428
 20
2.5550081635
 10
41.5755134583
 20
2.1264369278
 10
41.1469399567
 20
1.912150177
  0
LINE
  5
298
100
AcDbEntity
  8
0
100
AcDbLine
 62
7
  6
CONTINUOUS
 10
-19.1387968823
 20
2.9122276054
 11
-21.4211683209
 21
2.911463555
  0
LWPOLYLINE
  5
299
100
AcDbEntity
  8
0
100
AcDbPolyline
 62
7
  6
CONTINUOUS
 90
3
 70
0
 10
-7.3096857071
 20
2.9121119554
 10
-15.073055457
 20
2.9122978368
 10
-19.1387968823
 20
2.9122276054
  0
LWPOLYLINE
  5
29A
100
AcDbEntity
  8
0
100
AcDbPolyline
 62
7
  6
CONTINUOUS
 90
3
 70
0
 10
-22.3097311246
 20
1.9121509501
 10
-20.7089943241
 20
1.9125876593
 10
-17.859667541
 20
1.911997595
  0
LINE
  5
29B
100
AcDbEntity
  8
0
100
AcDbLine
 62
7
  6
CONTINUOUS
 10
-17.859667541
 20
1.911997595
 11
-7.3096857071
 21
1.9121899314
  0
LINE
  5
29C
100
AcDbEntity
  8
0
100
AcDbLine
 62
7
  6
CONTINUOUS
 10
-21.4211683209
 20
2.911463555
 11
-22.3097311246
 21
2.9121509366
  0
LINE
  5
29D
100
AcDbEntity
  8
0
100
AcDbLine
 62
7
  6
CONTINUOUS
 10
9.6903142929
 20
13.4121509434
 11
9.6903142929
 21
-10.5878490566
  0
LWPOLYLINE
  5
29E
100
AcDbEntity
  8
0
100
AcDbPolyline
 62
7
  6
CONTINUOUS
 90
2
 70
0
 43
0.3500000006
 10
57.0217023468
 20
4.4121509399
 10
55.5217064209
 20
4.4121509399
  0
LINE
  5
29F
100
AcDbEntity
  8
0
100
AcDbLine
 62
7
  6
CONTINUOUS
 10
-10.1679947982
 20
3.9121452974
 11
-8.0806876288
 21
3.9132273502
  0
LWPOLYLINE
  5
2A0
100
AcDbEntity
  8
0
100
AcDbPolyline
 62
7
  6
CONTINUOUS
 90
3
 70
0
 10
-7.3096857071
 20
4.9118909395
 10
-8.396531214
 20
4.9112216331
 10
-21.4146701008
 20
4.9113141346
  0
LWPOLYLINE
  5
2A1
100
AcDbEntity
  8
0
100
AcDbPolyline
 62
7
  6
CONTINUOUS
 90
3
 70
0
 10
-22.3097269439
 20
3.912150949
 10
-20.7034502543
 20
3.9128524995
 10
-17.8606368104
 20
3.9120264439
  0
LINE
  5
2A2
100
AcDbEntity
  8
0
100
AcDbLine
 62
7
  6
CONTINUOUS
 10
-14.1056770612
 20
3.9118971737
 11
-10.1679947982
 21
3.9121452974
  0
LINE
  5
2A3
100
AcDbEntity
  8
0
100
AcDbLine
 62
7
  6
CONTINUOUS
 10
-17.8606368104
 20
3.9120264439
 11
-14.1056770612
 21
3.9118971737
  0
LINE
  5
2A4
100
AcDbEntity
  8
0
100
AcDbLine
 62
7
  6
CONTINUOUS
 10
-21.4146701008
 20
4.9113141346
 11
-22.3097269439
 21
4.9121509378
  0
LINE
  5
2A5
100
AcDbEntity
  8
0
100
AcDbLine
 62
7
  6
CONTINUOUS
 10
-8.0806876288
 20
3.9132273502
 11
-7.3096857071
 21
3.9124109473
  0
LINE
  5
2A6
100
AcDbEntity
  8
0
100
AcDbLine
 62
7
  6
CONTINUOUS
 10
10.6903142929
 20
13.4119412001
 11
10.6903142929
 21
-10.5876393133
  0
LWPOLYLINE
  5
2A7
100
AcDbEntity
  8
0
100
AcDbPolyline
 62
7
  6
CONTINUOUS
 90
16
 70
0
 10
-22.3097269439
 20
4.9121509374
 10
-22.3384742149
 20
4.9093431401
 10
-22.3672627226
 20
4.9010971719
 10
-22.3951219972
 20
4.8876792015
 10
-22.4220217185
 20
4.8689204719
 10
-22.4479922065
 20
4.8449897401
 10
-22.4721951879
 20
4.8166594406
 10
-22.4945729906
 20
4.7837860198
 10
-22.5151832866
 20
4.7465130312
 10
-22.5333608184
 20
4.7060435695
 10
-22.5490262072
 20
4.6622733371
 10
-22.5622588318
 20
4.6153066315
 10
-22.5726315705
 20
4.5666594406
 10
-22.5800020494
 20
4.5168370935
 10
-22.5845126424
 20
4.4653342612
 10
-22.5861633495
 20
4.4121509434
  0
LWPOLYLINE
  5
2A8
100
AcDbEntity
  8
0
100
AcDbPolyline
 62
7
  6
CONTINUOUS
 90
16
 70
0
 10
-22.3097269439
 20
3.9121509494
 10
-22.2808971993
 20
3.9149587467
 10
-22.2521086915
 20
3.9232047149
 10
-22.224249417
 20
3.9366226852
 10
-22.1973496957
 20
3.9553814149
 10
-22.1713792076
 20
3.9793121467
 10
-22.1471762263
 20
4.0076424462
 10
-22.1247984235
 20
4.040515867
 10
-22.1041881275
 20
4.0777888556
 10
-22.0860105958
 20
4.1182583173
 10
-22.0703452069
 20
4.1620285497
 10
-22.0571125823
 20
4.2089952553
 10
-22.0467398436
 20
4.2576424462
 10
-22.0393693647
 20
4.3074647932
 10
-22.0348587717
 20
4.3589676256
 10
-22.0332080646
 20
4.4121509434
  0
LINE
  5
2A9
100
AcDbEntity
  8
0
100
AcDbLine
 62
7
  6
CONTINUOUS
 10
-7.3096857071
 20
6.4121509434
 11
2.6903142929
 21
6.4121509434
  0
LINE
  5
2AA
100
AcDbEntity
  8
0
100
AcDbLine
 62
7
  6
CONTINUOUS
 10
24.6903142929
 20
6.4121509434
 11
34.6903142929
 21
6.4121509434
  0
LWPOLYLINE
  5
2AB
100
AcDbEntity
  8
0
100
AcDbPolyline
 62
7
  6
CONTINUOUS
 90
13
 70
0
 43
0.3500000006
 10
40.5040819702
 20
-3.8021348534
 10
39.7540817413
 20
-3.5521347771
 10
39.2540815887
 20
-3.0521346245
 10
39.0040815125
 20
-2.3021343956
 10
39.2540815887
 20
-1.5521352997
 10
39.7540817413
 20
-1.0521351471
 10
40.5040819702
 20
-0.8021350708
 10
41.2540821991
 20
-1.0521351471
 10
41.7540823517
 20
-1.5521352997
 10
42.004082428
 20
-2.3021343956
 10
41.7540823517
 20
-3.0521346245
 10
41.2540821991
 20
-3.5521347771
 10
40.5040819702
 20
-3.8021348534
  0
LWPOLYLINE
  5
2AC
100
AcDbEntity
  8
0
100
AcDbPolyline
 62
7
  6
CONTINUOUS
 90
4
 70
0
 43
0.3500000006
 10
49.0531147614
 20
-14.0757671013
 10
48.1959677582
 20
-13.6471958656
 10
46.6959718323
 20
-13.6471958656
 10
45.8388248291
 20
-14.0757671013
  0
LINE
  5
2AD
100
AcDbEntity
  8
0
100
AcDbLine
 62
7
  6
CONTINUOUS
 10
2.6903142929
 20
11.4121509434
 11
9.6903142929
 21
11.4121509434
  0
LINE
  5
2AE
100
AcDbEntity
  8
0
100
AcDbLine
 62
7
  6
CONTINUOUS
 10
17.6903142929
 20
11.4121509434
 11
24.6903142929
 21
11.4121509434
  0
LINE
  5
2AF
100
AcDbEntity
  8
0
100
AcDbLine
 62
7
  6
CONTINUOUS
 10
16.6903142929
 20
13.4121509434
 11
16.6903142929
 21
-10.5878490566
  0
LINE
  5
2B0
100
AcDbEntity
  8
0
100
AcDbLine
 62
7
  6
CONTINUOUS
 10
17.6903142929
 20
13.4121509434
 11
17.6903142929
 21
-10.5878490566
  0
LINE
  5
2B1
100
AcDbEntity
  8
0
100
AcDbLine
 62
7
  6
CONTINUOUS
 10
9.6903142929
 20
13.4121509434
 11
10.6903142929
 21
13.4121509434
  0
LINE
  5
2B2
100
AcDbEntity
  8
0
100
AcDbLine
 62
7
  6
CONTINUOUS
 10
16.6903142929
 20
13.4121509434
 11
17.6903142929
 21
13.4121509434
  0
LWPOLYLINE
  5
2B3
100
AcDbEntity
  8
0
100
AcDbPolyline
 62
7
  6
CONTINUOUS
 90
13
 70
0
 43
0.3500000006
 10
55.5217064209
 20
-2.944992382
 10
54.771706192
 20
-2.6949923058
 10
54.2717060394
 20
-2.1949921532
 10
54.0217059631
 20
-1.4449919243
 10
54.2717060394
 20
-0.6949928284
 10
54.771706192
 20
-0.1949926758
 10
55.5217064209
 20
0.0550074005
 10
56.2717066498
 20
-0.1949926758
 10
56.7717022705
 20
-0.6949928284
 10
57.0217023468
 20
-1.4449919243
 10
56.7717022705
 20
-2.1949921532
 10
56.2717066498
 20
-2.6949923058
 10
55.5217064209
 20
-2.944992382
  0
LWPOLYLINE
  5
2B4
100
AcDbEntity
  8
0
100
AcDbPolyline
 62
7
  6
CONTINUOUS
 90
4
 70
0
 43
0.3500000006
 10
20.0117436218
 20
-13.795117487
 10
20.0117436218
 20
-13.1522606335
 10
21.5117418137
 20
-13.1522606335
 10
20.6545993423
 20
-16.1522606993
  0
LWPOLYLINE
  5
2B5
100
AcDbEntity
  8
0
100
AcDbPolyline
 62
7
  6
CONTINUOUS
 90
2
 70
0
 43
0.3500000006
 10
42.7540826569
 20
-3.5521347771
 10
38.2540812836
 20
-1.0521351471
  0
LWPOLYLINE
  5
2B6
100
AcDbEntity
  8
0
100
AcDbPolyline
 62
7
  6
CONTINUOUS
 90
9
 70
0
 43
0.3500000006
 10
-61.8922376862
 20
17.0057648621
 10
-60.8208061981
 20
17.0057648621
 10
-60.6065217133
 20
17.2914805298
 10
-60.6065217133
 20
19.8629079437
 10
-61.6779486694
 20
19.8629079437
 10
-61.8922376862
 20
19.6486234589
 10
-61.8922376862
 20
17.9343385162
 10
-61.6779486694
 20
17.7200494995
 10
-60.6065217133
 20
17.7200494995
  0
LWPOLYLINE
  5
2B7
100
AcDbEntity
  8
0
100
AcDbPolyline
 62
7
  6
CONTINUOUS
 90
7
 70
0
 43
0.3500000006
 10
-35.0350940781
 20
17.7200494995
 10
-36.5350945358
 20
17.7200494995
 10
-35.0350940781
 20
19.8629079437
 10
-35.0350940781
 20
20.2914814453
 10
-35.4636653137
 20
20.720050415
 10
-36.1065233002
 20
20.720050415
 10
-36.5350945358
 20
20.0771924286
  0
LWPOLYLINE
  5
2B8
100
AcDbEntity
  8
0
100
AcDbPolyline
 62
7
  6
CONTINUOUS
 90
6
 70
0
 43
0.3500000006
 10
-43.4636632233
 20
17.7200494995
 10
-44.3208102264
 20
17.7200494995
 10
-44.7493791962
 20
17.9343385162
 10
-44.7493791962
 20
18.5771919708
 10
-44.3208102264
 20
18.7914809875
 10
-43.4636632233
 20
18.7914809875
  0
LWPOLYLINE
  5
2B9
100
AcDbEntity
  8
0
100
AcDbPolyline
 62
7
  6
CONTINUOUS
 90
6
 70
0
 43
0.3500000006
 10
-45.6065216675
 20
17.7200494995
 10
-46.4636641388
 20
17.7200494995
 10
-46.6779486237
 20
17.9343385162
 10
-46.6779486237
 20
19.6486234589
 10
-46.4636641388
 20
19.8629079437
 10
-45.6065216675
 20
19.8629079437
  0
LWPOLYLINE
  5
2BA
100
AcDbEntity
  8
0
100
AcDbPolyline
 62
7
  6
CONTINUOUS
 90
6
 70
0
 43
0.3500000006
 10
-49.8922385559
 20
17.7200494995
 10
-50.7493810272
 20
17.7200494995
 10
-51.1779499969
 20
17.9343385162
 10
-51.1779499969
 20
18.5771919708
 10
-50.7493810272
 20
18.7914809875
 10
-49.8922385559
 20
18.7914809875
  0
LWPOLYLINE
  5
2BB
100
AcDbEntity
  8
0
100
AcDbPolyline
 62
7
  6
CONTINUOUS
 90
9
 70
0
 43
0.3500000006
 10
-56.3208093567
 20
17.7200494995
 10
-57.177951828
 20
17.7200494995
 10
-57.6065207977
 20
18.1486230011
 10
-57.6065207977
 20
19.434338974
 10
-57.177951828
 20
19.8629079437
 10
-56.7493783264
 20
19.8629079437
 10
-56.3208093567
 20
19.434338974
 10
-56.3208093567
 20
18.7914809875
 10
-57.6065207977
 20
18.7914809875
  0
LINE
  5
2BC
100
AcDbEntity
  8
0
100
AcDbLine
 62
7
  6
CONTINUOUS
 10
24.6903142929
 20
-8.5878490566
 11
24.6903142929
 21
11.4121509434
  0
LWPOLYLINE
  5
2BD
100
AcDbEntity
  8
0
100
AcDbPolyline
 62
7
  6
CONTINUOUS
 90
4
 70
0
 43
0.3500000006
 10
-59.7493792419
 20
19.8629079437
 10
-58.6779522858
 20
19.8629079437
 10
-58.463663269
 20
19.6486234589
 10
-58.463663269
 20
17.7200494995
  0
LWPOLYLINE
  5
2BE
100
AcDbEntity
  8
0
100
AcDbPolyline
 62
7
  6
CONTINUOUS
 90
4
 70
0
 43
0.3500000006
 10
-55.4636668854
 20
19.8629079437
 10
-54.1779509125
 20
19.8629079437
 10
-55.4636668854
 20
17.7200494995
 10
-54.1779509125
 20
17.7200494995
  0
LWPOLYLINE
  5
2BF
100
AcDbEntity
  8
0
100
AcDbPolyline
 62
7
  6
CONTINUOUS
 90
4
 70
0
 43
0.3500000006
 10
-53.3208084412
 20
19.8629079437
 10
-52.0350924683
 20
19.8629079437
 10
-53.3208084412
 20
17.7200494995
 10
-52.0350924683
 20
17.7200494995
  0
LWPOLYLINE
  5
2C0
100
AcDbEntity
  8
0
100
AcDbPolyline
 62
7
  6
CONTINUOUS
 90
4
 70
0
 43
0.3500000006
 10
25.3688852005
 20
19.0457228851
 10
25.3688852005
 20
19.9028653564
 10
25.7974564362
 20
20.331438858
 10
26.4403144226
 20
20.331438858
  0
LWPOLYLINE
  5
2C1
100
AcDbEntity
  8
0
100
AcDbPolyline
 62
7
  6
CONTINUOUS
 90
2
 70
0
 43
0.3500000006
 10
57.7717025757
 20
-2.6949923058
 10
53.2717057343
 20
-0.1949926758
  0
LWPOLYLINE
  5
2C2
100
AcDbEntity
  8
0
100
AcDbPolyline
 62
7
  6
CONTINUOUS
 90
3
 70
0
 43
0.3500000006
 10
39.8612239838
 20
0.1978652344
 10
39.0040815125
 20
1.0550077057
 10
42.004082428
 20
1.0550077057
  0
LWPOLYLINE
  5
2C3
100
AcDbEntity
  8
0
100
AcDbPolyline
 62
7
  6
CONTINUOUS
 90
13
 70
0
 43
0.3500000006
 10
29.3688864212
 20
-15.2441163883
 10
29.3688864212
 20
-13.9584021149
 10
29.5831709061
 20
-13.5298308792
 10
30.0117421417
 20
-13.1012596436
 10
30.2260288925
 20
-13.1012596436
 10
30.6546001282
 20
-13.5298308792
 10
30.868884613
 20
-13.9584021149
 10
30.868884613
 20
-15.2441163883
 10
30.6546001282
 20
-15.6726881905
 10
30.2260288925
 20
-16.1012594261
 10
30.0117421417
 20
-16.1012594261
 10
29.5831709061
 20
-15.6726881905
 10
29.3688864212
 20
-15.2441163883
  0
LWPOLYLINE
  5
2C4
100
AcDbEntity
  8
0
100
AcDbPolyline
 62
7
  6
CONTINUOUS
 90
3
 70
0
 43
0.3500000006
 10
27.6545992126
 20
-13.9584021149
 10
28.5117439499
 20
-13.1012596436
 10
28.5117439499
 20
-16.1012594261
  0
LWPOLYLINE
  5
2C5
100
AcDbEntity
  8
0
100
AcDbPolyline
 62
7
  6
CONTINUOUS
 90
13
 70
0
 43
0.3500000006
 10
25.7974564362
 20
20.331438858
 10
25.5117430344
 20
20.5457233429
 10
25.5117430344
 20
21.1885813293
 10
25.7974564362
 20
21.6171502991
 10
26.4403144226
 20
21.6171502991
 10
26.7260278244
 20
21.1885813293
 10
26.7260278244
 20
20.5457233429
 10
26.4403144226
 20
20.331438858
 10
26.8688856583
 20
19.9028653564
 10
26.8688856583
 20
19.0457228851
 10
26.4403144226
 20
18.6171493835
 10
25.7974564362
 20
18.6171493835
 10
25.3688852005
 20
19.0457228851
  0
LINE
  5
2C6
100
AcDbEntity
  8
0
100
AcDbLine
 62
7
  6
CONTINUOUS
 10
34.6903142929
 20
6.4120146581
 11
34.6903142929
 21
-3.5877127713
  0
LWPOLYLINE
  5
2C7
100
AcDbEntity
  8
0
100
AcDbPolyline
 62
7
  6
CONTINUOUS
 90
2
 70
0
 43
0.3500000006
 10
46.6959718323
 20
-22.0043385015
 10
46.6959718323
 20
-21.1471956761
  0
LWPOLYLINE
  5
2C8
100
AcDbEntity
  8
0
100
AcDbPolyline
 62
7
  6
CONTINUOUS
 90
2
 70
0
 43
0.3500000006
 10
46.6959718323
 20
-28.9329098797
 10
46.6959718323
 20
-29.9329096184
  0
LWPOLYLINE
  5
2C9
100
AcDbEntity
  8
0
100
AcDbPolyline
 62
7
  6
CONTINUOUS
 90
6
 70
0
 43
0.3500000006
 10
48.8388257446
 20
-14.9329101391
 10
48.8388257446
 20
-15.7900528936
 10
48.6245412598
 20
-16.2186241293
 10
47.9816832733
 20
-16.2186241293
 10
47.7673987885
 20
-15.7900528936
 10
47.7673987885
 20
-14.9329101391
  0
LWPOLYLINE
  5
2CA
100
AcDbEntity
  8
0
100
AcDbPolyline
 62
7
  6
CONTINUOUS
 90
6
 70
0
 43
0.3500000006
 10
48.8388257446
 20
-22.8614813976
 10
48.8388257446
 20
-23.7186241522
 10
48.6245412598
 20
-24.1471956711
 10
47.9816832733
 20
-24.1471956711
 10
47.7673987885
 20
-23.7186241522
 10
47.7673987885
 20
-22.8614813976
  0
LWPOLYLINE
  5
2CB
100
AcDbEntity
  8
0
100
AcDbPolyline
 62
7
  6
CONTINUOUS
 90
7
 70
0
 43
0.3500000006
 10
48.8388257446
 20
-36.7900527878
 10
48.8388257446
 20
-38.2900532455
 10
46.6959718323
 20
-36.7900527878
 10
46.2673983307
 20
-36.7900527878
 10
45.8388248291
 20
-37.2186240234
 10
45.8388248291
 20
-37.8614808769
 10
46.4816828156
 20
-38.2900532455
  0
LWPOLYLINE
  5
2CC
100
AcDbEntity
  8
0
100
AcDbPolyline
 62
7
  6
CONTINUOUS
 90
3
 70
0
 43
0.3500000006
 10
56.3788488922
 20
4.9121510925
 10
56.3788488922
 20
3.4121506348
 10
54.0217059631
 20
4.0550086212
  0
LWPOLYLINE
  5
2CD
100
AcDbEntity
  8
0
100
AcDbPolyline
 62
7
  6
CONTINUOUS
 90
7
 70
0
 43
0.3500000006
 10
57.0217023468
 20
2.5550081635
 10
57.0217023468
 20
1.0550077057
 10
54.8788484344
 20
2.5550081635
 10
54.4502749329
 20
2.5550081635
 10
54.0217059631
 20
2.1264369278
 10
54.0217059631
 20
1.4835789413
 10
54.6645594177
 20
1.0550077057
  0
LWPOLYLINE
  5
2CE
100
AcDbEntity
  8
0
100
AcDbPolyline
 62
7
  6
CONTINUOUS
 90
4
 70
0
 43
0.3500000006
 10
49.0531147614
 20
-30.7900532227
 10
48.1959677582
 20
-31.2186244583
 10
46.6959718323
 20
-31.2186244583
 10
45.8388248291
 20
-30.7900532227
  0
ENDSEC
  0
SECTION
  2
OBJECTS
  0
DICTIONARY
  5
C
100
AcDbDictionary
280
0
281
1
  3
ACAD_GROUP
350
D
  3
ACAD_MLINESTYLE
350
17
  3
ACAD_LAYOUT
350
1A
  3
ACAD_PLOTSETTINGS
350
19
  3
ACAD_PLOTSTYLENAME
350
E
  0
DICTIONARY
  5
D
102
{ACAD_REACTORS
330
C
102
}
100
AcDbDictionary
280
0
281
1
  0
ACDBDICTIONARYWDFLT
  5
E
102
{ACAD_REACTORS
330
C
102
}
100
AcDbDictionary
281
1
  3
Normal
350
F
100
AcDbDictionaryWithDefault
340
F
  0
DICTIONARY
  5
17
102
{ACAD_REACTORS
330
C
102
}
100
AcDbDictionary
280
0
281
1
  3
Standard
350
18
  0
DICTIONARY
  5
19
102
{ACAD_REACTORS
330
C
102
}
100
AcDbDictionary
281
1
  0
DICTIONARY
  5
1A
102
{ACAD_REACTORS
330
C
102
}
100
AcDbDictionary
281
1
  3
Model
350
2CF
  3
Layout1
350
2D0
  0
ACDBPLACEHOLDER
  5
F
102
{ACAD_REACTORS
330
E
102
}
  0
MLINESTYLE
  5
18
102
{ACAD_REACTORS
330
17
102
}
100
AcDbMlineStyle
  2
STANDARD
 70
0
  3

 62
256
 51
90.0
 52
90.0
 71
2
 49
0.5
 62
256
  6
BYLAYER
 49
-0.5
 62
256
  6
BYLAYER
  0
LAYOUT
  5
2CF
102
{ACAD_REACTORS
330
1A
102
}
100
AcDbPlotSettings
  1

  2
none_device
  4
ISO_A4_(297.00_x_210.00_MM)
  6

 40
0.0
 41
0.0
 42
0.0
 43
0.0
 44
297.0
 45
210.0
 46
0.0
 47
0.0
 48
0.0
 49
0.0
140
0.0
141
0.0
142
1.0
143
1.0
 70
1024
 72
1
 73
0
 74
0
  7

 75
0
147
1.0
148
0.0
149
0.0
100
AcDbLayout
  1
Model
 70
0
 71
0
 10
0.0
 20
0.0
 11
297.0
 21
210.0
 12
0.0
 22
0.0
 32
0.0
 14
0.0
 24
0.0
 34
0.0
 15
0.0
 25
0.0
 35
0.0
146
0.0
 13
0.0
 23
0.0
 33
0.0
 16
1.0
 26
0.0
 36
0.0
 17
0.0
 27
1.0
 37
0.0
 76
0
330
20E
345
0
346
0
  0
LAYOUT
  5
2D0
102
{ACAD_REACTORS
330
1A
102
}
100
AcDbPlotSettings
  1

  2
none_device
  4
ISO_A4_(297.00_x_210.00_MM)
  6

 40
0.0
 41
0.0
 42
0.0
 43
0.0
 44
297.0
 45
210.0
 46
0.0
 47
0.0
 48
0.0
 49
0.0
140
0.0
141
0.0
142
1.0
143
1.0
 70
0
 72
1
 73
0
 74
0
  7

 75
0
147
1.0
148
0.0
149
0.0
100
AcDbLayout
  1
Layout1
 70
0
 71
1
 10
0.0
 20
0.0
 11
297.0
 21
210.0
 12
0.0
 22
0.0
 32
0.0
 14
0.0
 24
0.0
 34
0.0
 15
0.0
 25
0.0
 35
0.0
146
0.0
 13
0.0
 23
0.0
 33
0.0
 16
1.0
 26
0.0
 36
0.0
 17
0.0
 27
1.0
 37
0.0
 76
0
330
20F
345
0
346
0
  0
ENDSEC
  0
EOF
