0
SECTION
2
HEADER
9
$ACADVER
1
AC1014
9
$HANDSEED
5
       2AD
9
$EXTMAX
10
297.0000000000
20
210.0000000000
9
$EXTMIN
10
0.0000000000
20
0.0000000000
9
$LIMMIN
10
0.0000000000
20
0.0000000000
9
$LIMMAX
10
297.0000000000
20
210.0000000000
9
$VIEWCTR
10
148.5000000000
20
105.0000000000
9
$VIEWSIZE
40
210.0000000000
9
$CLAYER
8
0
9
$LTSCALE
40
16.3350000000
9
$CELTYPE
6
BYLAYER
9
$DIMSCALE
40
1
9
$DIMASZ
40
3.0000000000
9
$DIMEXO
40
1.8562500000
9
$DIMDLI
40
11.2860000000
9
$DIMEXE
40
5.3460000000
9
$DIMCEN
40
2.6730000000
9
$DIMLFAC
40
1.0000000000
9
$DIMTXT
40
3.0000000000
9
$DIMTOL
70
1
9
$DIMLIM
70
0
9
$DIMTFAC
40
1.0000000000
9
$DIMTP
40
0.0100000000
9
$DIMTM
40
0.0100000000
9
$MEASUREMENT
70
1
0
ENDSEC
0
SECTION
2
CLASSES
0
ENDSEC
0
SECTION
2
TABLES
0
TABLE
2
VPORT
5
8
100
AcDbSymbolTable
70
2
0
VPORT
5
1F4
100
AcDbSymbolTableRecord
100
AcDbViewportTableRecord
2
*ACTIVE
70
0
10
0.0
20
0.0
11
1.0
21
1.0
12
148.5000000000
22
105.0000000000
13
0.0
23
0.0
14
1.0
24
1.0
15
0.0
25
0.0
16
0.0
26
0.0
36
1.0
17
0.0
27
0.0
37
0.0
40
210.0000000000
41
1.4142857143
42
50.0
43
0.0
44
0.0
50
0.0
51
0.0
71
0
72
100
73
1
74
1
75
0
76
0
77
0
78
0
0
ENDTAB
0
TABLE
2
LTYPE
5
5
100
AcDbSymbolTable
70
6
0
LTYPE
5
14
100
AcDbSymbolTableRecord
100
AcDbLinetypeTableRecord
2
BYBLOCK
70
0
3

72
65
73
0
40
0.0
0
LTYPE
5
15
100
AcDbSymbolTableRecord
100
AcDbLinetypeTableRecord
2
BYLAYER
70
0
3

72
65
73
0
40
0.0
0
LTYPE
5
16
100
AcDbSymbolTableRecord
100
AcDbLinetypeTableRecord
2
CONTINUOUS
70
64
3
Solid line
72
65
73
0
40
0
0
LTYPE
5
1F5
100
AcDbSymbolTableRecord
100
AcDbLinetypeTableRecord
2
CENTER
70
64
3
____ _ ____ _ ____ _ ____ _ ____ _ ____ _ ____
72
65
73
4
40
0.6
49
0.375
74
0
49
-0.075
74
0
49
0.075
74
0
49
-0.075
74
0
0
LTYPE
5
1F6
100
AcDbSymbolTableRecord
100
AcDbLinetypeTableRecord
2
HIDDEN
70
64
3
- - - - - - - - - - - - - - - - - - - -
72
65
73
2
40
0.2
49
0.1
74
0
49
-0.1
74
0
0
LTYPE
5
1F7
100
AcDbSymbolTableRecord
100
AcDbLinetypeTableRecord
2
PHANTOM
70
64
3
_____ _ _ _____ _ _ _____ _ _ _____
72
65
73
6
40
0.8
49
0.45
74
0
49
-0.05
74
0
49
0.1
74
0
49
-0.05
74
0
49
0.1
74
0
49
-0.05
74
0
0
LTYPE
5
1F8
100
AcDbSymbolTableRecord
100
AcDbLinetypeTableRecord
2
DOT
70
64
3
. . . . . . . . . . . . . . . . . . . .
72
65
73
2
40
0.2
49
0.1
74
0
49
-0.1
74
0
0
LTYPE
5
1F9
100
AcDbSymbolTableRecord
100
AcDbLinetypeTableRecord
2
DASHED
70
64
3
- - - - - - - - - - - - - - - - - - - -
72
65
73
2
40
0.2
49
0.1
74
0
49
-0.1
74
0
0
ENDTAB
0
TABLE
2
LAYER
5
2
100
AcDbSymbolTable
70
36
0
LAYER
5
10
100
AcDbSymbolTableRecord
100
AcDbLayerTableRecord
2
0
70
0
62
7
6
CONTINUOUS
0
LAYER
5
1FA
100
AcDbSymbolTableRecord
100
AcDbLayerTableRecord
2
DEFAULT_1
70
0
62
7
6
CENTER
0
LAYER
5
1FB
100
AcDbSymbolTableRecord
100
AcDbLayerTableRecord
2
DEFAULT_2
70
0
62
8
6
HIDDEN
0
LAYER
5
1FC
100
AcDbSymbolTableRecord
100
AcDbLayerTableRecord
2
DEFAULT_3
70
0
62
7
6
PHANTOM
0
LAYER
5
1FD
100
AcDbSymbolTableRecord
100
AcDbLayerTableRecord
2
ALTRI_PIANI
70
0
62
7
6
CONTINUOUS
0
LAYER
5
1FE
100
AcDbSymbolTableRecord
100
AcDbLayerTableRecord
2
ASSI
70
0
62
7
6
CONTINUOUS
0
LAYER
5
1FF
100
AcDbSymbolTableRecord
100
AcDbLayerTableRecord
2
COORDINATE
70
0
62
7
6
CONTINUOUS
0
LAYER
5
200
100
AcDbSymbolTableRecord
100
AcDbLayerTableRecord
2
COORD_ORIGINE
70
0
62
7
6
CONTINUOUS
0
LAYER
5
201
100
AcDbSymbolTableRecord
100
AcDbLayerTableRecord
2
INTF_YELLOW
70
0
62
7
6
CONTINUOUS
0
LAYER
5
202
100
AcDbSymbolTableRecord
100
AcDbLayerTableRecord
2
PIANI
70
0
62
7
6
CONTINUOUS
0
LAYER
5
203
100
AcDbSymbolTableRecord
100
AcDbLayerTableRecord
2
PIANI_ORIGINE
70
0
62
7
6
CONTINUOUS
0
LAYER
5
204
100
AcDbSymbolTableRecord
100
AcDbLayerTableRecord
2
RACCORDO
70
0
62
7
6
CONTINUOUS
0
LAYER
5
205
100
AcDbSymbolTableRecord
100
AcDbLayerTableRecord
2
SMUSSO
70
0
62
7
6
CONTINUOUS
0
LAYER
5
206
100
AcDbSymbolTableRecord
100
AcDbLayerTableRecord
2
SNAPLINE
70
0
62
7
6
CONTINUOUS
0
LAYER
5
207
100
AcDbSymbolTableRecord
100
AcDbLayerTableRecord
2
TRASH
70
0
62
7
6
CONTINUOUS
0
ENDTAB
0
TABLE
2
STYLE
5
3
100
AcDbSymbolTable
70
1
0
STYLE
5
11
100
AcDbSymbolTableRecord
100
AcDbTextStyleTableRecord
2
STANDARD
70
0
40
0.0
41
0.8000000000
50
0.0
71
0
42
0.2
3
txt
4

0
ENDTAB
0
TABLE
2
VIEW
5
6
100
AcDbSymbolTable
70
0
0
ENDTAB
0
TABLE
2
UCS
5
7
100
AcDbSymbolTable
70
0
0
ENDTAB
0
TABLE
2
APPID
5
9
100
AcDbSymbolTable
70
1
0
APPID
5
208
100
AcDbSymbolTableRecord
100
AcDbRegAppTableRecord
2
ACAD
70
0
0
ENDTAB
0
TABLE
2
DIMSTYLE
5
A
100
AcDbSymbolTable
70
1
0
DIMSTYLE
105
209
100
AcDbSymbolTableRecord
100
AcDbDimStyleTableRecord
2
STANDARD
70
0
3

4

5

6

7

40
1.0
41
3.0000000000
42
0.0625
43
0.38
44
0.18
45
0.0
46
0.0
47
0.0100000000
48
0.0100000000
140
3.0000000000
141
0.09
142
0.0
143
25.4
144
1.0000000000
145
0.0
146
1.0000000000
147
0.09
71
1
72
0
73
0
74
0
75
0
76
0
77
1
78
8
170
0
171
2
172
0
173
0
174
0
175
0
176
0
177
0
178
0
270
2
271
2
272
2
273
2
274
2
340
11
275
0
280
0
281
0
282
0
283
1
284
8
285
0
286
0
287
3
288
0
0
DIMSTYLE
105
20A
100
AcDbSymbolTableRecord
100
AcDbDimStyleTableRecord
2
DIMSTYLE_1
70
0
3

4

5

6

7

40
1.0
41
3.0000000000
42
0.0625
43
0.38
44
0.18
45
0.0
46
0.0
47
0.0000000000
48
0.0000000000
140
3.0000000000
141
0.09
142
0.0
143
25.4
144
1.0000000000
145
0.0
146
1.0000000000
147
0.09
71
0
72
0
73
0
74
0
75
0
76
0
77
1
78
8
170
0
171
2
172
0
173
0
174
0
175
0
176
0
177
0
178
0
270
2
271
2
272
2
273
2
274
2
340
11
275
0
280
0
281
0
282
0
283
1
284
8
285
0
286
0
287
3
288
0
0
ENDTAB
0
TABLE
2
BLOCK_RECORD
5
1
100
AcDbSymbolTable
70
0
0
BLOCK_RECORD
5
1B
100
AcDbSymbolTableRecord
100
AcDbBlockTableRecord
2
*MODEL_SPACE
0
BLOCK_RECORD
5
1C
100
AcDbSymbolTableRecord
100
AcDbBlockTableRecord
2
*PAPER_SPACE
0
BLOCK_RECORD
5
20B
100
AcDbSymbolTableRecord
100
AcDbBlockTableRecord
2
*D0
0
BLOCK_RECORD
5
20C
100
AcDbSymbolTableRecord
100
AcDbBlockTableRecord
2
*D1
0
BLOCK_RECORD
5
20D
100
AcDbSymbolTableRecord
100
AcDbBlockTableRecord
2
*D2
0
BLOCK_RECORD
5
20E
100
AcDbSymbolTableRecord
100
AcDbBlockTableRecord
2
*D3
0
ENDTAB
0
ENDSEC
0
SECTION
2
BLOCKS
0
BLOCK
5
1E
100
AcDbEntity
8
0
100
AcDbBlockBegin
2
*MODEL_SPACE
70
0
10
0.0
20
0.0
30
0.0
3
*MODEL_SPACE
1

0
ENDBLK
5
1F
100
AcDbEntity
8
0
100
AcDbBlockEnd
0
BLOCK
5
20
100
AcDbEntity
8
0
100
AcDbBlockBegin
2
*PAPER_SPACE
70
0
10
0.0
20
0.0
30
0.0
3
*PAPER_SPACE
1

0
ENDBLK
5
21
100
AcDbEntity
8
0
100
AcDbBlockEnd
0
BLOCK
5
20F
100
AcDbEntity
8
0
100
AcDbBlockBegin
62
7
6
CONTINUOUS
2
*D0
70
65
10
0.0000000000
20
0.0000000000
3
*D0
1

0
TEXT
5
210
100
AcDbEntity
8
0
100
AcDbText
62
7
6
CONTINUOUS
10
-36.1405414431
20
13.8439289095
7
STANDARD
40
3.0000000000
1
14
41
0.6785714286
72
0
100
AcDbText
0
LINE
5
211
100
AcDbEntity
8
0
100
AcDbLine
62
7
6
CONTINUOUS
10
-27.2338525930
20
4.8939289095
11
-27.2338525930
21
14.5939289095
0
LINE
5
212
100
AcDbEntity
8
0
100
AcDbLine
62
7
6
CONTINUOUS
10
-41.2338525930
20
-0.5060710905
11
-41.2338525930
21
14.5939289095
0
LINE
5
213
100
AcDbEntity
8
0
100
AcDbLine
62
7
6
CONTINUOUS
10
-27.2338525930
20
13.0939289095
11
-34.2338525930
21
13.0939289095
0
LINE
5
214
100
AcDbEntity
8
0
100
AcDbLine
62
7
6
CONTINUOUS
10
-41.2338525930
20
13.0939289095
11
-34.2338525930
21
13.0939289095
0
SOLID
5
215
100
AcDbEntity
8
0
100
AcDbTrace
62
7
6
CONTINUOUS
10
-30.2338525930
20
12.1439289095
11
-27.2338525930
21
13.0939289095
12
-30.2338525930
22
14.0439289095
13
-30.2338525930
23
14.0439289095
0
SOLID
5
216
100
AcDbEntity
8
0
100
AcDbTrace
62
7
6
CONTINUOUS
10
-38.2338525930
20
14.0439289095
11
-41.2338525930
21
13.0939289095
12
-38.2338525930
22
12.1439289095
13
-38.2338525930
23
12.1439289095
0
ENDBLK
5
217
100
AcDbEntity
8
0
100
AcDbBlockEnd
0
BLOCK
5
218
100
AcDbEntity
8
0
100
AcDbBlockBegin
62
7
6
CONTINUOUS
2
*D1
70
65
10
0.0000000000
20
0.0000000000
3
*D1
1

0
TEXT
5
219
100
AcDbEntity
8
0
100
AcDbText
62
7
6
CONTINUOUS
10
-4.3186448483
20
13.8439289095
7
STANDARD
40
3.0000000000
1
27,1
41
0.6785714286
72
0
100
AcDbText
0
LINE
5
21A
100
AcDbEntity
8
0
100
AcDbLine
62
7
6
CONTINUOUS
10
-14.8873566276
20
5.0939289095
11
-14.8873566276
21
14.5939289095
0
LINE
5
21B
100
AcDbEntity
8
0
100
AcDbLine
62
7
6
CONTINUOUS
10
12.2126433724
20
0.9939289095
11
12.2126433724
21
14.5939289095
0
LINE
5
21C
100
AcDbEntity
8
0
100
AcDbLine
62
7
6
CONTINUOUS
10
-14.8873566276
20
13.0939289095
11
-1.3373566276
21
13.0939289095
0
LINE
5
21D
100
AcDbEntity
8
0
100
AcDbLine
62
7
6
CONTINUOUS
10
12.2126433724
20
13.0939289095
11
-1.3373566276
21
13.0939289095
0
SOLID
5
21E
100
AcDbEntity
8
0
100
AcDbTrace
62
7
6
CONTINUOUS
10
-11.8873566276
20
14.0439289095
11
-14.8873566276
21
13.0939289095
12
-11.8873566276
22
12.1439289095
13
-11.8873566276
23
12.1439289095
0
SOLID
5
21F
100
AcDbEntity
8
0
100
AcDbTrace
62
7
6
CONTINUOUS
10
9.2126433724
20
12.1439289095
11
12.2126433724
21
13.0939289095
12
9.2126433724
22
14.0439289095
13
9.2126433724
23
14.0439289095
0
ENDBLK
5
220
100
AcDbEntity
8
0
100
AcDbBlockEnd
0
BLOCK
5
221
100
AcDbEntity
8
0
100
AcDbBlockBegin
62
7
6
CONTINUOUS
2
*D2
70
65
10
0.0000000000
20
0.0000000000
3
*D2
1

0
TEXT
5
222
100
AcDbEntity
8
0
100
AcDbText
62
7
6
CONTINUOUS
10
19.4626433724
20
-5.1173130369
7
STANDARD
40
3.0000000000
1
12,2
50
90.0000000000
41
0.6785714286
72
0
100
AcDbText
0
LINE
5
223
100
AcDbEntity
8
0
100
AcDbLine
62
7
6
CONTINUOUS
10
8.8126433724
20
5.0939289095
11
21.7126433724
21
5.0939289095
0
LINE
5
224
100
AcDbEntity
8
0
100
AcDbLine
62
7
6
CONTINUOUS
10
12.7126433724
20
-7.1060710905
11
21.7126433724
21
-7.1060710905
0
LINE
5
225
100
AcDbEntity
8
0
100
AcDbLine
62
7
6
CONTINUOUS
10
20.2126433724
20
5.0939289095
11
20.2126433724
21
-1.0060710905
0
LINE
5
226
100
AcDbEntity
8
0
100
AcDbLine
62
7
6
CONTINUOUS
10
20.2126433724
20
-7.1060710905
11
20.2126433724
21
-1.0060710905
0
SOLID
5
227
100
AcDbEntity
8
0
100
AcDbTrace
62
7
6
CONTINUOUS
10
21.1626433724
20
2.0939289095
11
20.2126433724
21
5.0939289095
12
19.2626433724
22
2.0939289095
13
19.2626433724
23
2.0939289095
0
SOLID
5
228
100
AcDbEntity
8
0
100
AcDbTrace
62
7
6
CONTINUOUS
10
19.2626433724
20
-4.1060710905
11
20.2126433724
21
-7.1060710905
12
21.1626433724
22
-4.1060710905
13
21.1626433724
23
-4.1060710905
0
ENDBLK
5
229
100
AcDbEntity
8
0
100
AcDbBlockEnd
0
BLOCK
5
22A
100
AcDbEntity
8
0
100
AcDbBlockBegin
62
7
6
CONTINUOUS
2
*D3
70
65
10
0.0000000000
20
0.0000000000
3
*D3
1

0
TEXT
5
22B
100
AcDbEntity
8
0
100
AcDbText
62
7
6
CONTINUOUS
10
29.4626433724
20
-8.0452522400
7
STANDARD
40
3.0000000000
1
19,4
50
90.0000000000
41
0.6785714286
72
0
100
AcDbText
0
LINE
5
22C
100
AcDbEntity
8
0
100
AcDbLine
62
7
6
CONTINUOUS
10
8.8126433724
20
5.0939289095
11
31.7126433724
21
5.0939289095
0
LINE
5
22D
100
AcDbEntity
8
0
100
AcDbLine
62
7
6
CONTINUOUS
10
1.2376433724
20
-14.3060710905
11
31.7126433724
21
-14.3060710905
0
LINE
5
22E
100
AcDbEntity
8
0
100
AcDbLine
62
7
6
CONTINUOUS
10
30.2126433724
20
5.0939289095
11
30.2126433724
21
-4.6060710905
0
LINE
5
22F
100
AcDbEntity
8
0
100
AcDbLine
62
7
6
CONTINUOUS
10
30.2126433724
20
-14.3060710905
11
30.2126433724
21
-4.6060710905
0
SOLID
5
230
100
AcDbEntity
8
0
100
AcDbTrace
62
7
6
CONTINUOUS
10
31.1626433724
20
2.0939289095
11
30.2126433724
21
5.0939289095
12
29.2626433724
22
2.0939289095
13
29.2626433724
23
2.0939289095
0
SOLID
5
231
100
AcDbEntity
8
0
100
AcDbTrace
62
7
6
CONTINUOUS
10
29.2626433724
20
-11.3060710905
11
30.2126433724
21
-14.3060710905
12
31.1626433724
22
-11.3060710905
13
31.1626433724
23
-11.3060710905
0
ENDBLK
5
232
100
AcDbEntity
8
0
100
AcDbBlockEnd
0
ENDSEC
0
SECTION
2
ENTITIES
0
DIMENSION
5
233
100
AcDbEntity
8
0
100
AcDbDimension
62
7
6
CONTINUOUS
2
*D0
10
-41.2338525930
20
13.0939289095
11
-34.1048271574
21
15.3439289095
70
160
3
DIMSTYLE_1
100
AcDbAlignedDimension
13
-27.2338525930
23
4.8939289095
14
-41.2338525930
24
-0.5060710905
50
180.000000
100
AcDbRotatedDimension
0
DIMENSION
5
234
100
AcDbEntity
8
0
100
AcDbDimension
62
7
6
CONTINUOUS
2
*D1
10
12.2126433724
20
13.0939289095
11
-0.2472162768
21
15.3439289095
70
160
3
DIMSTYLE_1
100
AcDbAlignedDimension
13
-14.8873566276
23
5.0939289095
14
12.2126433724
24
0.9939289095
100
AcDbRotatedDimension
0
DIMENSION
5
235
100
AcDbEntity
8
0
100
AcDbDimension
62
7
6
CONTINUOUS
2
*D2
10
20.2126433724
20
-7.1060710905
11
17.9626433724
21
-1.0458844655
70
160
3
DIMSTYLE_1
100
AcDbAlignedDimension
13
8.8126433724
23
5.0939289095
14
12.7126433724
24
-7.1060710905
50
270.000000
100
AcDbRotatedDimension
0
DIMENSION
5
236
100
AcDbEntity
8
0
100
AcDbDimension
62
7
6
CONTINUOUS
2
*D3
10
30.2126433724
20
-14.3060710905
11
27.9626433724
21
-3.9738236686
70
160
3
DIMSTYLE_1
100
AcDbAlignedDimension
13
8.8126433724
23
5.0939289095
14
1.2376433724
24
-14.3060710905
50
270.000000
100
AcDbRotatedDimension
0
LINE
5
237
100
AcDbEntity
8
0
100
AcDbLine
62
7
6
CONTINUOUS
10
-14.8873566276
20
4.5939289095
11
-14.8873566276
21
-7.1060710905
0
LINE
5
238
100
AcDbEntity
8
0
100
AcDbLine
62
7
6
CONTINUOUS
10
-9.7123566276
20
-13.9596609290
11
-9.5123566276
21
-14.3060710905
0
LINE
5
239
100
AcDbEntity
8
0
100
AcDbLine
62
7
6
CONTINUOUS
10
-10.8873566276
20
5.0939289095
11
-10.8873566276
21
4.5939289095
0
LINE
5
23A
100
AcDbEntity
8
0
100
AcDbLine
62
7
6
CONTINUOUS
10
-10.6873566276
20
-3.5060710905
11
-10.6873566276
21
-5.9060710905
0
LINE
5
23B
100
AcDbEntity
8
0
100
AcDbLine
62
7
6
CONTINUOUS
10
-10.1873566276
20
-5.9060710905
11
-10.1873566276
21
-3.5060710905
0
LINE
5
23C
100
AcDbEntity
8
0
100
AcDbLine
62
7
6
CONTINUOUS
10
0.7376433724
20
-14.3060710905
11
0.4876433724
21
-14.3060710905
0
LINE
5
23D
100
AcDbEntity
8
0
100
AcDbLine
62
7
6
CONTINUOUS
10
-4.2623566276
20
-14.3060710905
11
-4.5123566276
21
-14.3060710905
0
LINE
5
23E
100
AcDbEntity
8
0
100
AcDbLine
62
7
6
CONTINUOUS
10
-6.7623566276
20
-14.3060710905
11
-7.0123566276
21
-14.3060710905
0
LINE
5
23F
100
AcDbEntity
8
0
100
AcDbLine
62
7
6
CONTINUOUS
10
-9.2623566276
20
-14.3060710905
11
-9.5123566276
21
-14.3060710905
0
LINE
5
240
100
AcDbEntity
8
0
100
AcDbLine
62
7
6
CONTINUOUS
10
-7.2123566276
20
-13.9596609290
11
-7.0123566276
21
-14.3060710905
0
LINE
5
241
100
AcDbEntity
8
0
100
AcDbLine
62
7
6
CONTINUOUS
10
-9.7123566276
20
-13.9596609290
11
-9.7123566276
21
-4.8060710905
0
LINE
5
242
100
AcDbEntity
8
0
100
AcDbLine
62
7
6
CONTINUOUS
10
-9.0623566276
20
-13.9596609290
11
-9.0623566276
21
-4.8060710905
0
LINE
5
243
100
AcDbEntity
8
0
100
AcDbLine
62
7
6
CONTINUOUS
10
-8.5873566276
20
-5.9060710905
11
-8.5873566276
21
-3.5060710905
0
LINE
5
244
100
AcDbEntity
8
0
100
AcDbLine
62
7
6
CONTINUOUS
10
-8.1373566276
20
2.8939289095
11
-8.1373566276
21
0.3939289095
0
LINE
5
245
100
AcDbEntity
8
0
100
AcDbLine
62
7
6
CONTINUOUS
10
-8.0873566276
20
0.3939289095
11
-8.0873566276
21
-1.2060710905
0
LINE
5
246
100
AcDbEntity
8
0
100
AcDbLine
62
7
6
CONTINUOUS
10
-7.8873566276
20
-2.7060710905
11
-7.8873566276
21
-1.2060710905
0
LINE
5
247
100
AcDbEntity
8
0
100
AcDbLine
62
7
6
CONTINUOUS
10
-4.7123566276
20
-13.9596609290
11
-4.5123566276
21
-14.3060710905
0
LINE
5
248
100
AcDbEntity
8
0
100
AcDbLine
62
7
6
CONTINUOUS
10
-7.6873566276
20
-5.9060710905
11
-7.6873566276
21
-3.5060710905
0
LINE
5
249
100
AcDbEntity
8
0
100
AcDbLine
62
7
6
CONTINUOUS
10
-7.3078928553
20
-2.7060710905
11
-7.3078928553
21
-1.2060710905
0
LINE
5
24A
100
AcDbEntity
8
0
100
AcDbLine
62
7
6
CONTINUOUS
10
-7.2123566276
20
-13.9596609290
11
-7.2123566276
21
-4.8060710905
0
LINE
5
24B
100
AcDbEntity
8
0
100
AcDbLine
62
7
6
CONTINUOUS
10
-6.6473566276
20
-2.7060710905
11
-6.6473566276
21
-1.2060710905
0
LINE
5
24C
100
AcDbEntity
8
0
100
AcDbLine
62
7
6
CONTINUOUS
10
-6.5623566276
20
-13.9596609290
11
-6.5623566276
21
-4.8060710905
0
LINE
5
24D
100
AcDbEntity
8
0
100
AcDbLine
62
7
6
CONTINUOUS
10
-6.2373566276
20
-2.7060710905
11
-6.2373566276
21
-1.2060710905
0
LINE
5
24E
100
AcDbEntity
8
0
100
AcDbLine
62
7
6
CONTINUOUS
10
-6.0873566276
20
-5.9060710905
11
-6.0873566276
21
-3.5060710905
0
LINE
5
24F
100
AcDbEntity
8
0
100
AcDbLine
62
7
6
CONTINUOUS
10
-5.5373566276
20
-2.7060710905
11
-5.5373566276
21
-1.2060710905
0
LINE
5
250
100
AcDbEntity
8
0
100
AcDbLine
62
7
6
CONTINUOUS
10
-5.1873566276
20
-5.9060710905
11
-5.1873566276
21
-3.5060710905
0
LINE
5
251
100
AcDbEntity
8
0
100
AcDbLine
62
7
6
CONTINUOUS
10
-5.1273566276
20
-2.7060710905
11
-5.1273566276
21
-1.2060710905
0
LINE
5
252
100
AcDbEntity
8
0
100
AcDbLine
62
7
6
CONTINUOUS
10
-4.7123566276
20
-13.9596609290
11
-4.7123566276
21
-4.8060710905
0
LINE
5
253
100
AcDbEntity
8
0
100
AcDbLine
62
7
6
CONTINUOUS
10
0.2876433724
20
-13.9596609290
11
0.4876433724
21
-14.3060710905
0
LINE
5
254
100
AcDbEntity
8
0
100
AcDbLine
62
7
6
CONTINUOUS
10
-4.4668203998
20
-2.7060710905
11
-4.4668203998
21
-1.2060710905
0
LINE
5
255
100
AcDbEntity
8
0
100
AcDbLine
62
7
6
CONTINUOUS
10
-4.0623566276
20
-13.9596609290
11
-4.0623566276
21
-4.8060710905
0
LINE
5
256
100
AcDbEntity
8
0
100
AcDbLine
62
7
6
CONTINUOUS
10
-3.8873566276
20
-2.7060710905
11
-3.8873566276
21
-1.2060710905
0
LINE
5
257
100
AcDbEntity
8
0
100
AcDbLine
62
7
6
CONTINUOUS
10
-3.6873566276
20
0.3939289095
11
-3.6873566276
21
-1.2060710905
0
LINE
5
258
100
AcDbEntity
8
0
100
AcDbLine
62
7
6
CONTINUOUS
10
-3.6373566276
20
2.8939289095
11
-3.6373566276
21
0.3939289095
0
LINE
5
259
100
AcDbEntity
8
0
100
AcDbLine
62
7
6
CONTINUOUS
10
-3.5873566276
20
-5.9060710905
11
-3.5873566276
21
-3.5060710905
0
LINE
5
25A
100
AcDbEntity
8
0
100
AcDbLine
62
7
6
CONTINUOUS
10
-14.8873566276
20
-7.1060710905
11
-9.7123566276
21
-7.1060710905
0
LINE
5
25B
100
AcDbEntity
8
0
100
AcDbLine
62
7
6
CONTINUOUS
10
-9.0623566276
20
-7.1060710905
11
-7.2123566276
21
-7.1060710905
0
LINE
5
25C
100
AcDbEntity
8
0
100
AcDbLine
62
7
6
CONTINUOUS
10
-6.5623566276
20
-7.1060710905
11
-4.7123566276
21
-7.1060710905
0
LINE
5
25D
100
AcDbEntity
8
0
100
AcDbLine
62
7
6
CONTINUOUS
10
-4.0623566276
20
-7.1060710905
11
0.2876433724
21
-7.1060710905
0
LINE
5
25E
100
AcDbEntity
8
0
100
AcDbLine
62
7
6
CONTINUOUS
10
0.9376433724
20
-7.1060710905
11
12.2126433724
21
-7.1060710905
0
LINE
5
25F
100
AcDbEntity
8
0
100
AcDbLine
62
7
6
CONTINUOUS
10
-2.6873566276
20
-5.9060710905
11
-2.6873566276
21
-3.5060710905
0
LINE
5
260
100
AcDbEntity
8
0
100
AcDbLine
62
7
6
CONTINUOUS
10
-9.0623566276
20
-13.9596609290
11
-9.2623566276
21
-14.3060710905
0
LINE
5
261
100
AcDbEntity
8
0
100
AcDbLine
62
7
6
CONTINUOUS
10
-10.6873566276
20
-5.9060710905
11
-9.7123566276
21
-5.9060710905
0
LINE
5
262
100
AcDbEntity
8
0
100
AcDbLine
62
7
6
CONTINUOUS
10
-9.0623566276
20
-5.9060710905
11
-7.2123566276
21
-5.9060710905
0
LINE
5
263
100
AcDbEntity
8
0
100
AcDbLine
62
7
6
CONTINUOUS
10
-6.5623566276
20
-5.9060710905
11
-4.7123566276
21
-5.9060710905
0
LINE
5
264
100
AcDbEntity
8
0
100
AcDbLine
62
7
6
CONTINUOUS
10
0.9376433724
20
-5.9060710905
11
1.8126433724
21
-5.9060710905
0
LINE
5
265
100
AcDbEntity
8
0
100
AcDbLine
62
7
6
CONTINUOUS
10
0.2876433724
20
-5.9060710905
11
-4.0623566276
21
-5.9060710905
0
LINE
5
266
100
AcDbEntity
8
0
100
AcDbLine
62
9
6
CONTINUOUS
10
-9.7123566276
20
-5.6060710905
11
-9.0623566276
21
-5.6060710905
0
LINE
5
267
100
AcDbEntity
8
0
100
AcDbLine
62
9
6
CONTINUOUS
10
-7.2123566276
20
-5.6060710905
11
-6.5623566276
21
-5.6060710905
0
LINE
5
268
100
AcDbEntity
8
0
100
AcDbLine
62
9
6
CONTINUOUS
10
-4.7123566276
20
-5.6060710905
11
-4.0623566276
21
-5.6060710905
0
LINE
5
269
100
AcDbEntity
8
0
100
AcDbLine
62
9
6
CONTINUOUS
10
-2.2123566276
20
-5.6060710905
11
-1.5623566276
21
-5.6060710905
0
LINE
5
26A
100
AcDbEntity
8
0
100
AcDbLine
62
9
6
CONTINUOUS
10
0.2876433724
20
-5.6060710905
11
0.9376433724
21
-5.6060710905
0
LINE
5
26B
100
AcDbEntity
8
0
100
AcDbLine
62
7
6
CONTINUOUS
10
-2.2123566276
20
-5.9060710905
11
-2.2123566276
21
-4.8060710905
0
LINE
5
26C
100
AcDbEntity
8
0
100
AcDbLine
62
7
6
CONTINUOUS
10
-1.5623566276
20
-5.9060710905
11
-1.5623566276
21
-4.8060710905
0
LINE
5
26D
100
AcDbEntity
8
0
100
AcDbLine
62
7
6
CONTINUOUS
10
-9.7123566276
20
-4.8060710905
11
-9.0623566276
21
-4.8060710905
0
LINE
5
26E
100
AcDbEntity
8
0
100
AcDbLine
62
7
6
CONTINUOUS
10
-7.2123566276
20
-4.8060710905
11
-6.5623566276
21
-4.8060710905
0
LINE
5
26F
100
AcDbEntity
8
0
100
AcDbLine
62
7
6
CONTINUOUS
10
-4.7123566276
20
-4.8060710905
11
-4.0623566276
21
-4.8060710905
0
LINE
5
270
100
AcDbEntity
8
0
100
AcDbLine
62
7
6
CONTINUOUS
10
-2.2123566276
20
-4.8060710905
11
-1.5623566276
21
-4.8060710905
0
LINE
5
271
100
AcDbEntity
8
0
100
AcDbLine
62
7
6
CONTINUOUS
10
0.2876433724
20
-4.8060710905
11
0.9376433724
21
-4.8060710905
0
LINE
5
272
100
AcDbEntity
8
0
100
AcDbLine
62
7
6
CONTINUOUS
10
-1.0873566276
20
-5.9060710905
11
-1.0873566276
21
-3.5060710905
0
LINE
5
273
100
AcDbEntity
8
0
100
AcDbLine
62
7
6
CONTINUOUS
10
-0.1873566276
20
-5.9060710905
11
-0.1873566276
21
-3.5060710905
0
LINE
5
274
100
AcDbEntity
8
0
100
AcDbLine
62
7
6
CONTINUOUS
10
-6.5623566276
20
-13.9596609290
11
-6.7623566276
21
-14.3060710905
0
LINE
5
275
100
AcDbEntity
8
0
100
AcDbLine
62
7
6
CONTINUOUS
10
1.8126433724
20
-3.5060710905
11
-10.6873566276
21
-3.5060710905
0
LINE
5
276
100
AcDbEntity
8
0
100
AcDbLine
62
7
6
CONTINUOUS
10
0.2876433724
20
-13.9596609290
11
0.2876433724
21
-4.8060710905
0
LINE
5
277
100
AcDbEntity
8
0
100
AcDbLine
62
7
6
CONTINUOUS
10
0.9376433724
20
-13.9596609290
11
0.9376433724
21
-4.8060710905
0
LINE
5
278
100
AcDbEntity
8
0
100
AcDbLine
62
7
6
CONTINUOUS
10
-4.0623566276
20
-13.9596609290
11
-4.2623566276
21
-14.3060710905
0
LINE
5
279
100
AcDbEntity
8
0
100
AcDbLine
62
7
6
CONTINUOUS
10
-3.8873566276
20
-2.7060710905
11
-5.5373566276
21
-2.7060710905
0
LINE
5
27A
100
AcDbEntity
8
0
100
AcDbLine
62
7
6
CONTINUOUS
10
-6.2373566276
20
-2.7060710905
11
-7.8873566276
21
-2.7060710905
0
LINE
5
27B
100
AcDbEntity
8
0
100
AcDbLine
62
7
6
CONTINUOUS
10
1.4126433724
20
-5.9060710905
11
1.4126433724
21
-3.5060710905
0
LINE
5
27C
100
AcDbEntity
8
0
100
AcDbLine
62
7
6
CONTINUOUS
10
1.8126433724
20
-5.9060710905
11
1.8126433724
21
-3.5060710905
0
LINE
5
27D
100
AcDbEntity
8
0
100
AcDbLine
62
7
6
CONTINUOUS
10
-3.6873566276
20
-1.2060710905
11
-8.0873566276
21
-1.2060710905
0
LINE
5
27E
100
AcDbEntity
8
0
100
AcDbLine
62
7
6
CONTINUOUS
10
-3.6373566276
20
0.3939289095
11
-8.1373566276
21
0.3939289095
0
LINE
5
27F
100
AcDbEntity
8
0
100
AcDbLine
62
7
6
CONTINUOUS
10
0.9376433724
20
-13.9596609290
11
0.7376433724
21
-14.3060710905
0
LINE
5
280
100
AcDbEntity
8
0
100
AcDbLine
62
7
6
CONTINUOUS
10
-3.6373566276
20
2.8939289095
11
-8.1373566276
21
2.8939289095
0
LINE
5
281
100
AcDbEntity
8
0
100
AcDbLine
62
7
6
CONTINUOUS
10
8.3126433724
20
5.0939289095
11
8.3126433724
21
4.3939289095
0
LINE
5
282
100
AcDbEntity
8
0
100
AcDbLine
62
7
6
CONTINUOUS
10
-14.8873566276
20
4.5939289095
11
-10.8873566276
21
4.5939289095
0
LINE
5
283
100
AcDbEntity
8
0
100
AcDbLine
62
7
6
CONTINUOUS
10
8.3126433724
20
5.0939289095
11
-10.8873566276
21
5.0939289095
0
LINE
5
284
100
AcDbEntity
8
0
100
AcDbLine
62
7
6
CONTINUOUS
10
12.2126433724
20
-7.1060710905
11
12.2126433724
21
0.4939289095
0
LINE
5
285
100
AcDbEntity
8
0
100
AcDbLine
62
7
6
CONTINUOUS
10
-32.3838525930
20
-14.3060710905
11
-33.0338525930
21
-14.3060710905
0
LINE
5
286
100
AcDbEntity
8
0
100
AcDbLine
62
7
6
CONTINUOUS
10
-32.3838525930
20
-13.9596609290
11
-33.0338525930
21
-13.9596609290
0
LINE
5
287
100
AcDbEntity
8
0
100
AcDbLine
62
7
6
CONTINUOUS
10
-41.2338525930
20
2.5939289095
11
-41.2338525930
21
-4.6060710905
0
LINE
5
288
100
AcDbEntity
8
0
100
AcDbLine
62
9
6
CONTINUOUS
10
-40.7338525930
20
-5.1060710905
11
-40.7338525930
21
3.0939289095
0
LINE
5
289
100
AcDbEntity
8
0
100
AcDbLine
62
7
6
CONTINUOUS
10
-27.2338525930
20
-7.1060710905
11
-28.8338525930
21
-7.1060710905
0
LINE
5
28A
100
AcDbEntity
8
0
100
AcDbLine
62
7
6
CONTINUOUS
10
-28.8338525930
20
-5.9060710905
11
-32.1338525930
21
-5.9060710905
0
LINE
5
28B
100
AcDbEntity
8
0
100
AcDbLine
62
7
6
CONTINUOUS
10
-29.1338525930
20
-5.6560710905
11
-28.8338525930
21
-5.6560710905
0
LINE
5
28C
100
AcDbEntity
8
0
100
AcDbLine
62
7
6
CONTINUOUS
10
-40.7338525930
20
-5.1060710905
11
-29.6338525930
21
-5.1060710905
0
LINE
5
28D
100
AcDbEntity
8
0
100
AcDbLine
62
7
6
CONTINUOUS
10
-33.0338525930
20
-14.3060710905
11
-33.0338525930
21
-5.6060710905
0
LINE
5
28E
100
AcDbEntity
8
0
100
AcDbLine
62
7
6
CONTINUOUS
10
-32.3838525930
20
-5.7560710905
11
-32.3838525930
21
-14.3060710905
0
LINE
5
28F
100
AcDbEntity
8
0
100
AcDbLine
62
7
6
CONTINUOUS
10
-32.1338525930
20
-5.9060710905
11
-32.1338525930
21
-5.1060710905
0
LINE
5
290
100
AcDbEntity
8
0
100
AcDbLine
62
9
6
CONTINUOUS
10
-29.6338525930
20
3.0939289095
11
-29.6338525930
21
-5.1060710905
0
LINE
5
291
100
AcDbEntity
8
0
100
AcDbLine
62
7
6
CONTINUOUS
10
-29.4338525930
20
-5.3560707280
11
-29.4338525930
21
3.3439285469
0
LINE
5
292
100
AcDbEntity
8
0
100
AcDbLine
62
9
6
CONTINUOUS
10
-29.1338525930
20
-5.6560710905
11
-29.1338525930
21
3.6439289095
0
LINE
5
293
100
AcDbEntity
8
0
100
AcDbLine
62
7
6
CONTINUOUS
10
-28.8338525930
20
-7.1060710905
11
-28.8338525930
21
5.0939289095
0
LINE
5
294
100
AcDbEntity
8
0
100
AcDbLine
62
9
6
CONTINUOUS
10
-27.2338525930
20
0.4939289095
11
-28.8338525930
21
0.4939289095
0
LINE
5
295
100
AcDbEntity
8
0
100
AcDbLine
62
7
6
CONTINUOUS
10
-27.2338525930
20
-7.1060710905
11
-27.2338525930
21
5.0939289095
0
LINE
5
296
100
AcDbEntity
8
0
100
AcDbLine
62
7
6
CONTINUOUS
10
-40.7338525930
20
3.0939289095
11
-29.6338525930
21
3.0939289095
0
LINE
5
297
100
AcDbEntity
8
0
100
AcDbLine
62
7
6
CONTINUOUS
10
-29.1338525930
20
3.6439289095
11
-28.8338525930
21
3.6439289095
0
LINE
5
298
100
AcDbEntity
8
0
100
AcDbLine
62
7
6
CONTINUOUS
10
-28.8338525930
20
4.3939289095
11
-27.2338525930
21
4.3939289095
0
LINE
5
299
100
AcDbEntity
8
0
100
AcDbLine
62
7
6
CONTINUOUS
10
-27.2338525930
20
5.0939289095
11
-28.8338525930
21
5.0939289095
0
ARC
5
29A
100
AcDbEntity
8
0
100
AcDbCircle
62
7
6
CONTINUOUS
10
8.3126433724
20
0.4939289095
40
3.9000000000
100
AcDbArc
50
0.0000000000
51
90.0000000000
0
CIRCLE
5
29B
100
AcDbEntity
8
0
100
AcDbCircle
62
7
6
CONTINUOUS
10
6.6626433724
20
-1.0060710905
40
2.0000000000
0
CIRCLE
5
29C
100
AcDbEntity
8
0
100
AcDbCircle
62
7
6
CONTINUOUS
10
6.6626433724
20
-1.0060710905
40
4.6500000000
0
CIRCLE
5
29D
100
AcDbEntity
8
0
100
AcDbCircle
62
7
6
CONTINUOUS
10
6.6626433724
20
-1.0060710905
40
4.1000000000
0
CIRCLE
5
29E
100
AcDbEntity
8
0
100
AcDbCircle
62
9
6
CONTINUOUS
10
6.6626433724
20
-1.0060710905
40
4.3499995764
0
CIRCLE
5
29F
100
AcDbEntity
8
0
100
AcDbCircle
62
9
6
CONTINUOUS
10
6.6626433724
20
-1.0060710905
40
4.2999999590
0
CIRCLE
5
2A0
100
AcDbEntity
8
0
100
AcDbCircle
62
9
6
CONTINUOUS
10
6.6626433724
20
-1.0060710905
40
3.5999997046
0
ARC
5
2A1
100
AcDbEntity
8
0
100
AcDbCircle
62
7
6
CONTINUOUS
10
-29.6338525930
20
-5.3060710905
40
0.2000000000
100
AcDbArc
50
0.0000009455
51
90.0000000000
0
ARC
5
2A2
100
AcDbEntity
8
0
100
AcDbCircle
62
7
6
CONTINUOUS
10
-29.6338525930
20
3.2939289095
40
0.2000000000
100
AcDbArc
50
270.0000000000
51
359.9999990545
0
ARC
5
2A3
100
AcDbEntity
8
0
100
AcDbCircle
62
7
6
CONTINUOUS
10
-29.1338525930
20
-5.3560710905
40
0.3000000000
100
AcDbArc
50
180.0000000000
51
270.0000000000
0
ARC
5
2A4
100
AcDbEntity
8
0
100
AcDbCircle
62
7
6
CONTINUOUS
10
-29.1338525930
20
3.3439289095
40
0.3000000000
100
AcDbArc
50
90.0000000000
51
180.0000000000
0
ARC
5
2A5
100
AcDbEntity
8
0
100
AcDbCircle
62
7
6
CONTINUOUS
10
-40.7338525930
20
-4.6060710905
40
0.5000000000
100
AcDbArc
50
180.0000000000
51
270.0000000000
0
ARC
5
2A6
100
AcDbEntity
8
0
100
AcDbCircle
62
7
6
CONTINUOUS
10
-40.7338525930
20
2.5939289095
40
0.5000000000
100
AcDbArc
50
90.0000000000
51
180.0000000000
0
ARC
5
2A7
100
AcDbEntity
8
0
100
AcDbCircle
62
7
6
CONTINUOUS
10
-32.0838525930
20
-5.7560710905
40
0.3000000000
100
AcDbArc
50
99.6147922723
51
180.0000000000
0
ARC
5
2A8
100
AcDbEntity
8
0
100
AcDbCircle
62
7
6
CONTINUOUS
10
-32.2338525930
20
-5.6060710905
40
0.8000000000
100
AcDbArc
50
141.3175604904
51
180.0000000000
0
ENDSEC
0
SECTION
2
OBJECTS
0
DICTIONARY
5
2A9
100
AcDbDictionary
3
ACAD_GROUP
350
2AA
3
ACAD_MLINESTYLE
350
2AB
0
DICTIONARY
5
2AA
102
{ACAD_REACTORS
330
2A9
102
}
100
AcDbDictionary
0
DICTIONARY
5
2AB
102
{ACAD_REACTORS
330
2A9
102
}
100
AcDbDictionary
3
STANDARD
350
2AC
0
MLINESTYLE
5
2AC
102
{ACAD_REACTORS
330
2AB
102
}
100
AcDbMlineStyle
2
STANDARD
70
0
3

62
256
51
90.0
52
90.0
71
2
49
0.5
62
256
6
BYLAYER
49
-0.5
62
256
6
BYLAYER
0
ENDSEC
0
EOF
