  0
SECTION
  2
HEADER
  9
$ACADVER
  1
AC1015
  9
$DWGCODEPAGE
  3
ANSI_1252
  9
$EXTMAX
 10
297.0
 20
210.0
 30
0.0
  9
$EXTMIN
 10
0.0
 20
0.0
 30
0.0
  9
$LIMMIN
 10
0.0
 20
0.0
  9
$LIMMAX
 10
297.0
 20
210.0
  9
$VIEWCTR
 10
148.5
 20
105.0
  9
$VIEWSIZE
 40
210.0
  9
$CLAYER
  8
0
  9
$LTSCALE
 40
16.335
  9
$CELTYPE
  6
BYLAYER
  9
$DIMSCALE
 40
1.0
  9
$DIMASZ
 40
3.0
  9
$DIMEXO
 40
1.85625
  9
$DIMDLI
 40
11.286
  9
$DIMEXE
 40
5.346
  9
$DIMCEN
 40
2.673
  9
$DIMLFAC
 40
1.0
  9
$DIMBLK
  1
_FILLED
  9
$DIMTXT
 40
3.0
  9
$DIMTOL
 70
1
  9
$DIMLIM
 70
0
  9
$DIMTFAC
 40
1.0
  9
$DIMTP
 40
0.01
  9
$DIMTM
 40
0.01
  9
$PDMODE
 70
3
  9
$PDSIZE
 40
3.0
  9
$HANDSEED
  5
3F0
  9
$TILEMODE
 70
1
  9
$MEASUREMENT
 70
1
  9
$INSUNITS
 70
4
  0
ENDSEC
  0
SECTION
  2
CLASSES
  0
CLASS
  1
ACDBDICTIONARYWDFLT
  2
AcDbDictionaryWithDefault
  3
AutoCAD 2000
 90
0
280
0
281
0
  0
CLASS
  1
ACDBPLACEHOLDER
  2
AcDbPlaceHolder
  3
AutoCAD 2000
 90
0
280
0
281
0
  0
CLASS
  1
LAYOUT
  2
AcDbLayout
  3
AutoCAD 2000
 90
0
280
0
281
0
  0
ENDSEC
  0
SECTION
  2
TABLES
  0
TABLE
  2
VPORT
  5
8
100
AcDbSymbolTable
 70
2
  0
VPORT
  5
1F4
100
AcDbSymbolTableRecord
100
AcDbViewportTableRecord
  2
*ACTIVE
 70
0
 10
0.0
 20
0.0
 11
1.0
 21
1.0
 12
148.5
 22
105.0
 13
0.0
 23
0.0
 14
1.0
 24
1.0
 15
0.0
 25
0.0
 16
0.0
 26
0.0
 36
1.0
 17
0.0
 27
0.0
 37
0.0
 40
210.0
 41
1.4142857143
 42
50.0
 43
0.0
 44
0.0
 50
0.0
 51
0.0
 71
0
 72
100
 73
1
 74
1
 75
0
 76
0
 77
0
 78
0
  0
ENDTAB
  0
TABLE
  2
LTYPE
  5
5
100
AcDbSymbolTable
 70
6
  0
LTYPE
  5
14
100
AcDbSymbolTableRecord
100
AcDbLinetypeTableRecord
  2
BYBLOCK
 70
0
  3

 72
65
 73
0
 40
0.0
  0
LTYPE
  5
15
100
AcDbSymbolTableRecord
100
AcDbLinetypeTableRecord
  2
BYLAYER
 70
0
  3

 72
65
 73
0
 40
0.0
  0
LTYPE
  5
16
100
AcDbSymbolTableRecord
100
AcDbLinetypeTableRecord
  2
CONTINUOUS
 70
64
  3
Solid line
 72
65
 73
0
 40
0.0
  0
LTYPE
  5
1F5
100
AcDbSymbolTableRecord
100
AcDbLinetypeTableRecord
  2
CENTER
 70
64
  3
____ _ ____ _ ____ _ ____ _ ____ _ ____ _ ____
 72
65
 73
4
 40
0.6
 49
0.375
 74
0
 49
-0.075
 74
0
 49
0.075
 74
0
 49
-0.075
 74
0
  0
LTYPE
  5
1F6
100
AcDbSymbolTableRecord
100
AcDbLinetypeTableRecord
  2
HIDDEN
 70
64
  3
- - - - - - - - - - - - - - - - - - - -
 72
65
 73
2
 40
0.2
 49
0.1
 74
0
 49
-0.1
 74
0
  0
LTYPE
  5
1F7
100
AcDbSymbolTableRecord
100
AcDbLinetypeTableRecord
  2
PHANTOM
 70
64
  3
_____ _ _ _____ _ _ _____ _ _ _____
 72
65
 73
6
 40
0.8
 49
0.45
 74
0
 49
-0.05
 74
0
 49
0.1
 74
0
 49
-0.05
 74
0
 49
0.1
 74
0
 49
-0.05
 74
0
  0
LTYPE
  5
1F8
100
AcDbSymbolTableRecord
100
AcDbLinetypeTableRecord
  2
DOT
 70
64
  3
. . . . . . . . . . . . . . . . . . . .
 72
65
 73
2
 40
0.2
 49
0.1
 74
0
 49
-0.1
 74
0
  0
LTYPE
  5
1F9
100
AcDbSymbolTableRecord
100
AcDbLinetypeTableRecord
  2
DASHED
 70
64
  3
- - - - - - - - - - - - - - - - - - - -
 72
65
 73
2
 40
0.2
 49
0.1
 74
0
 49
-0.1
 74
0
  0
ENDTAB
  0
TABLE
  2
LAYER
  5
2
100
AcDbSymbolTable
 70
36
  0
LAYER
  5
10
100
AcDbSymbolTableRecord
100
AcDbLayerTableRecord
  2
0
 70
0
 62
7
  6
CONTINUOUS
370
-3
390
F
  0
LAYER
  5
1FA
100
AcDbSymbolTableRecord
100
AcDbLayerTableRecord
  2
DEFAULT_1
 70
0
 62
7
  6
CENTER
370
-3
390
F
  0
LAYER
  5
1FB
100
AcDbSymbolTableRecord
100
AcDbLayerTableRecord
  2
DEFAULT_2
 70
0
 62
7
  6
HIDDEN
370
-3
390
F
  0
LAYER
  5
1FC
100
AcDbSymbolTableRecord
100
AcDbLayerTableRecord
  2
DEFAULT_3
 70
0
 62
7
  6
PHANTOM
370
-3
390
F
  0
LAYER
  5
1FD
100
AcDbSymbolTableRecord
100
AcDbLayerTableRecord
  2
2125-R1-RF-VIMAR_60000
 70
0
 62
7
  6
CONTINUOUS
370
-3
390
F
  0
LAYER
  5
1FE
100
AcDbSymbolTableRecord
100
AcDbLayerTableRecord
  2
2125-R1-RF-VIMAR_60000_1
 70
0
 62
7
  6
CONTINUOUS
370
-3
390
F
  0
LAYER
  5
1FF
100
AcDbSymbolTableRecord
100
AcDbLayerTableRecord
  2
2125-R1-RF-VIMAR_60000_2
 70
0
 62
7
  6
CONTINUOUS
370
-3
390
F
  0
LAYER
  5
200
100
AcDbSymbolTableRecord
100
AcDbLayerTableRecord
  2
2125-R1-RF-VIMAR_60000_3
 70
0
 62
7
  6
CONTINUOUS
370
-3
390
F
  0
LAYER
  5
201
100
AcDbSymbolTableRecord
100
AcDbLayerTableRecord
  2
2125-R1-RF-VIMAR_60000_4
 70
0
 62
7
  6
CONTINUOUS
370
-3
390
F
  0
LAYER
  5
202
100
AcDbSymbolTableRecord
100
AcDbLayerTableRecord
  2
2125-R1-RF-VIMAR_60000_5
 70
0
 62
7
  6
CONTINUOUS
370
-3
390
F
  0
LAYER
  5
203
100
AcDbSymbolTableRecord
100
AcDbLayerTableRecord
  2
43000460A0
 70
0
 62
7
  6
CONTINUOUS
370
-3
390
F
  0
LAYER
  5
204
100
AcDbSymbolTableRecord
100
AcDbLayerTableRecord
  2
43000460A0_
 70
0
 62
7
  6
CONTINUOUS
370
-3
390
F
  0
LAYER
  5
205
100
AcDbSymbolTableRecord
100
AcDbLayerTableRecord
  2
ASM0001
 70
0
 62
7
  6
CONTINUOUS
370
-3
390
F
  0
LAYER
  5
206
100
AcDbSymbolTableRecord
100
AcDbLayerTableRecord
  2
ASSI
 70
0
 62
7
  6
CONTINUOUS
370
-3
390
F
  0
LAYER
  5
207
100
AcDbSymbolTableRecord
100
AcDbLayerTableRecord
  2
CN-MSB02001-VIMAR_1000000
 70
0
 62
7
  6
CONTINUOUS
370
-3
390
F
  0
LAYER
  5
208
100
AcDbSymbolTableRecord
100
AcDbLayerTableRecord
  2
CN-MSB02001-VIMAR_1000000_1
 70
0
 62
7
  6
CONTINUOUS
370
-3
390
F
  0
LAYER
  5
209
100
AcDbSymbolTableRecord
100
AcDbLayerTableRecord
  2
CN-MSB02001-VIMAR_1000000_2
 70
0
 62
7
  6
CONTINUOUS
370
-3
390
F
  0
LAYER
  5
20A
100
AcDbSymbolTableRecord
100
AcDbLayerTableRecord
  2
CN1-REF_SQUAREHOLE12_SPEA-VIMAR
 70
0
 62
7
  6
CONTINUOUS
370
-3
390
F
  0
LAYER
  5
20B
100
AcDbSymbolTableRecord
100
AcDbLayerTableRecord
  2
CN1-REF_SQUAREHOLE12_SPEA-VIM_1
 70
0
 62
7
  6
CONTINUOUS
370
-3
390
F
  0
LAYER
  5
20C
100
AcDbSymbolTableRecord
100
AcDbLayerTableRecord
  2
CN1-REF_SQUAREHOLE12_SPEA-VIM_2
 70
0
 62
7
  6
CONTINUOUS
370
-3
390
F
  0
LAYER
  5
20D
100
AcDbSymbolTableRecord
100
AcDbLayerTableRecord
  2
CN1-REF_SQUAREHOLE12_SPEA-VIM_3
 70
0
 62
7
  6
CONTINUOUS
370
-3
390
F
  0
LAYER
  5
20E
100
AcDbSymbolTableRecord
100
AcDbLayerTableRecord
  2
CN1-TP10_SMD-VIMAR_10000
 70
0
 62
7
  6
CONTINUOUS
370
-3
390
F
  0
LAYER
  5
20F
100
AcDbSymbolTableRecord
100
AcDbLayerTableRecord
  2
CN1-TP10_SMD-VIMAR_10000_1
 70
0
 62
7
  6
CONTINUOUS
370
-3
390
F
  0
LAYER
  5
210
100
AcDbSymbolTableRecord
100
AcDbLayerTableRecord
  2
CN1-TP10_SMD-VIMAR_10000_2
 70
0
 62
7
  6
CONTINUOUS
370
-3
390
F
  0
LAYER
  5
211
100
AcDbSymbolTableRecord
100
AcDbLayerTableRecord
  2
CN1-TP10_SMD-VIMAR_10000_3
 70
0
 62
7
  6
CONTINUOUS
370
-3
390
F
  0
LAYER
  5
212
100
AcDbSymbolTableRecord
100
AcDbLayerTableRecord
  2
COLOR5
 70
0
 62
7
  6
CONTINUOUS
370
-3
390
F
  0
LAYER
  5
213
100
AcDbSymbolTableRecord
100
AcDbLayerTableRecord
  2
COORDINATE
 70
0
 62
7
  6
CONTINUOUS
370
-3
390
F
  0
LAYER
  5
214
100
AcDbSymbolTableRecord
100
AcDbLayerTableRecord
  2
COPY_PUBLISH
 70
0
 62
7
  6
CONTINUOUS
370
-3
390
F
  0
LAYER
  5
215
100
AcDbSymbolTableRecord
100
AcDbLayerTableRecord
  2
COSMETIC
 70
0
 62
7
  6
CONTINUOUS
370
-3
390
F
  0
LAYER
  5
216
100
AcDbSymbolTableRecord
100
AcDbLayerTableRecord
  2
CURVE
 70
0
 62
7
  6
CONTINUOUS
370
-3
390
F
  0
LAYER
  5
217
100
AcDbSymbolTableRecord
100
AcDbLayerTableRecord
  2
DRAFT
 70
0
 62
7
  6
CONTINUOUS
370
-3
390
F
  0
LAYER
  5
218
100
AcDbSymbolTableRecord
100
AcDbLayerTableRecord
  2
E2_MARK_10000
 70
0
 62
7
  6
CONTINUOUS
370
-3
390
F
  0
LAYER
  5
219
100
AcDbSymbolTableRecord
100
AcDbLayerTableRecord
  2
IMPORT_IGES
 70
0
 62
7
  6
CONTINUOUS
370
-3
390
F
  0
LAYER
  5
21A
100
AcDbSymbolTableRecord
100
AcDbLayerTableRecord
  2
LOGO_RESIST-RESTYLING_10000
 70
0
 62
7
  6
CONTINUOUS
370
-3
390
F
  0
LAYER
  5
21B
100
AcDbSymbolTableRecord
100
AcDbLayerTableRecord
  2
L_SRR0604-RF-VIMAR_480000
 70
0
 62
7
  6
CONTINUOUS
370
-3
390
F
  0
LAYER
  5
21C
100
AcDbSymbolTableRecord
100
AcDbLayerTableRecord
  2
L_SRR0604-RF-VIMAR_480000_1
 70
0
 62
7
  6
CONTINUOUS
370
-3
390
F
  0
LAYER
  5
21D
100
AcDbSymbolTableRecord
100
AcDbLayerTableRecord
  2
L_SRR0604-RF-VIMAR_480000_10
 70
0
 62
7
  6
CONTINUOUS
370
-3
390
F
  0
LAYER
  5
21E
100
AcDbSymbolTableRecord
100
AcDbLayerTableRecord
  2
L_SRR0604-RF-VIMAR_480000_11
 70
0
 62
7
  6
CONTINUOUS
370
-3
390
F
  0
LAYER
  5
21F
100
AcDbSymbolTableRecord
100
AcDbLayerTableRecord
  2
L_SRR0604-RF-VIMAR_480000_2
 70
0
 62
7
  6
CONTINUOUS
370
-3
390
F
  0
LAYER
  5
220
100
AcDbSymbolTableRecord
100
AcDbLayerTableRecord
  2
L_SRR0604-RF-VIMAR_480000_3
 70
0
 62
7
  6
CONTINUOUS
370
-3
390
F
  0
LAYER
  5
221
100
AcDbSymbolTableRecord
100
AcDbLayerTableRecord
  2
L_SRR0604-RF-VIMAR_480000_4
 70
0
 62
7
  6
CONTINUOUS
370
-3
390
F
  0
LAYER
  5
222
100
AcDbSymbolTableRecord
100
AcDbLayerTableRecord
  2
L_SRR0604-RF-VIMAR_480000_5
 70
0
 62
7
  6
CONTINUOUS
370
-3
390
F
  0
LAYER
  5
223
100
AcDbSymbolTableRecord
100
AcDbLayerTableRecord
  2
L_SRR0604-RF-VIMAR_480000_6
 70
0
 62
7
  6
CONTINUOUS
370
-3
390
F
  0
LAYER
  5
224
100
AcDbSymbolTableRecord
100
AcDbLayerTableRecord
  2
L_SRR0604-RF-VIMAR_480000_7
 70
0
 62
7
  6
CONTINUOUS
370
-3
390
F
  0
LAYER
  5
225
100
AcDbSymbolTableRecord
100
AcDbLayerTableRecord
  2
L_SRR0604-RF-VIMAR_480000_8
 70
0
 62
7
  6
CONTINUOUS
370
-3
390
F
  0
LAYER
  5
226
100
AcDbSymbolTableRecord
100
AcDbLayerTableRecord
  2
L_SRR0604-RF-VIMAR_480000_9
 70
0
 62
7
  6
CONTINUOUS
370
-3
390
F
  0
LAYER
  5
227
100
AcDbSymbolTableRecord
100
AcDbLayerTableRecord
  2
NO-PB_MARK_10000
 70
0
 62
7
  6
CONTINUOUS
370
-3
390
F
  0
LAYER
  5
228
100
AcDbSymbolTableRecord
100
AcDbLayerTableRecord
  2
PIANI
 70
0
 62
7
  6
CONTINUOUS
370
-3
390
F
  0
LAYER
  5
229
100
AcDbSymbolTableRecord
100
AcDbLayerTableRecord
  2
PUNTI
 70
0
 62
7
  6
CONTINUOUS
370
-3
390
F
  0
LAYER
  5
22A
100
AcDbSymbolTableRecord
100
AcDbLayerTableRecord
  2
RACCORDO
 70
0
 62
7
  6
CONTINUOUS
370
-3
390
F
  0
LAYER
  5
22B
100
AcDbSymbolTableRecord
100
AcDbLayerTableRecord
  2
SMUSSO
 70
0
 62
7
  6
CONTINUOUS
370
-3
390
F
  0
LAYER
  5
22C
100
AcDbSymbolTableRecord
100
AcDbLayerTableRecord
  2
SNAPLINE
 70
0
 62
7
  6
CONTINUOUS
370
-3
390
F
  0
LAYER
  5
22D
100
AcDbSymbolTableRecord
100
AcDbLayerTableRecord
  2
TRASH
 70
0
 62
7
  6
CONTINUOUS
370
-3
390
F
  0
LAYER
  5
22E
100
AcDbSymbolTableRecord
100
AcDbLayerTableRecord
  2
___SHELL
 70
0
 62
7
  6
CONTINUOUS
370
-3
390
F
  0
ENDTAB
  0
TABLE
  2
STYLE
  5
3
100
AcDbSymbolTable
 70
1
  0
STYLE
  5
11
100
AcDbSymbolTableRecord
100
AcDbTextStyleTableRecord
  2
STANDARD
 70
0
 40
0.0
 41
0.8
 50
0.0
 71
0
 42
0.2
  3
txt
  4

  0
STYLE
  5
22F
100
AcDbSymbolTableRecord
100
AcDbTextStyleTableRecord
  2
TEXTSTYLE_1
 70
0
 40
0.0
 41
0.8
 50
0.0
 71
0
 42
0.2
  3
gdt
  4

  0
ENDTAB
  0
TABLE
  2
VIEW
  5
6
100
AcDbSymbolTable
 70
0
  0
ENDTAB
  0
TABLE
  2
UCS
  5
7
100
AcDbSymbolTable
 70
0
  0
ENDTAB
  0
TABLE
  2
APPID
  5
9
100
AcDbSymbolTable
 70
1
  0
APPID
  5
230
100
AcDbSymbolTableRecord
100
AcDbRegAppTableRecord
  2
ACAD
 70
0
  0
ENDTAB
  0
TABLE
  2
BLOCK_RECORD
  5
1
100
AcDbSymbolTable
 70
0
  0
BLOCK_RECORD
  5
231
100
AcDbSymbolTableRecord
100
AcDbBlockTableRecord
  2
*Model_Space
  0
BLOCK_RECORD
  5
232
100
AcDbSymbolTableRecord
100
AcDbBlockTableRecord
  2
*Paper_Space
  0
BLOCK_RECORD
  5
233
100
AcDbSymbolTableRecord
100
AcDbBlockTableRecord
  2
_FILLED
  0
BLOCK_RECORD
  5
234
100
AcDbSymbolTableRecord
100
AcDbBlockTableRecord
  2
*D0
  0
BLOCK_RECORD
  5
235
100
AcDbSymbolTableRecord
100
AcDbBlockTableRecord
  2
*D1
  0
BLOCK_RECORD
  5
236
100
AcDbSymbolTableRecord
100
AcDbBlockTableRecord
  2
*D2
  0
ENDTAB
  0
TABLE
  2
DIMSTYLE
  5
A
100
AcDbSymbolTable
 70
1
100
AcDbDimStyleTable
 71
0
  0
DIMSTYLE
105
237
100
AcDbSymbolTableRecord
100
AcDbDimStyleTableRecord
  2
STANDARD
 70
0
  3

  4

 40
1.0
 41
3.0
 42
0.0625
 43
0.38
 44
0.18
 45
0.0
 46
0.0
 47
0.01
 48
0.01
140
3.0
141
0.09
142
0.0
143
25.4
144
1.0
145
0.0
146
1.0
147
0.09
 71
1.0
 72
0.0
 73
0
 74
0
 75
0
 76
0
 77
1
 78
8
170
0
171
2
172
0
173
0
174
0
175
0
176
0
177
0
178
0
270
2
271
2
272
2
273
2
274
2
275
0
280
0
281
0
282
0
283
1
284
8
285
0
286
0
287
3
288
0
340
11
341
233
342
233
343
233
344
233
  0
DIMSTYLE
105
238
100
AcDbSymbolTableRecord
100
AcDbDimStyleTableRecord
  2
DIMSTYLE_1
 70
0
  3

  4

 40
1.0
 41
3.0
 42
0.0625
 43
0.38
 44
0.18
 45
0.0
 46
0.0
 47
0.0
 48
0.0
140
3.0
141
0.09
142
0.0
143
25.4
144
1.0
145
0.0
146
1.0
147
0.09
 71
0.0
 72
0.0
 73
0
 74
0
 75
0
 76
0
 77
1
 78
8
170
0
171
2
172
0
173
0
174
0
175
0
176
0
177
0
178
0
270
2
271
2
272
2
273
2
274
2
275
0
280
0
281
0
282
0
283
1
284
8
285
0
286
0
287
3
288
0
340
11
341
233
342
233
343
233
344
233
  0
DIMSTYLE
105
239
100
AcDbSymbolTableRecord
100
AcDbDimStyleTableRecord
  2
DIMSTYLE_2
 70
0
  3

  4

 40
1.0
 41
3.0
 42
0.0625
 43
0.38
 44
0.18
 45
0.0
 46
0.0
 47
0.0
 48
0.0
140
3.0
141
0.09
142
0.0
143
25.4
144
1.0
145
0.0
146
1.0
147
0.09
 71
0.0
 72
0.0
 73
0
 74
0
 75
0
 76
0
 77
1
 78
8
170
0
171
2
172
0
173
0
174
0
175
0
176
0
177
0
178
0
270
2
271
1
272
1
273
2
274
2
275
0
280
0
281
0
282
0
283
1
284
8
285
0
286
0
287
3
288
0
340
11
341
233
342
233
343
233
344
233
  0
ENDTAB
  0
ENDSEC
  0
SECTION
  2
BLOCKS
  0
BLOCK
  5
20
100
AcDbEntity
  8
0
100
AcDbBlockBegin
  2
*Model_Space
 70
0
 10
0.0
 20
0.0
 30
0.0
  3
*Model_Space
  1

  0
ENDBLK
  5
21
100
AcDbEntity
  8
0
100
AcDbBlockEnd
  0
BLOCK
  5
1C
100
AcDbEntity
  8
0
100
AcDbBlockBegin
  2
*Paper_Space
 70
0
 10
0.0
 20
0.0
 30
0.0
  3
*Paper_Space
  1

  0
ENDBLK
  5
1D
100
AcDbEntity
  8
0
100
AcDbBlockEnd
  0
BLOCK
  5
23A
100
AcDbEntity
  8
0
100
AcDbBlockBegin
  2
_FILLED
 70
64
 10
0.0
 20
0.0
  3
_FILLED
  1

  0
SOLID
  5
23B
100
AcDbEntity
  8
0
  6
BYBLOCK
 62
0
100
AcDbTrace
 10
0.0
 20
0.0
 11
-1.0
 21
0.1333333333
 12
-1.0
 22
-0.1333333333
 13
-1.0
 23
-0.1333333333
  0
ENDBLK
  5
23C
100
AcDbEntity
  8
0
  6
BYBLOCK
 62
0
100
AcDbBlockEnd
  0
BLOCK
  5
23D
100
AcDbEntity
  8
0
100
AcDbBlockBegin
 62
7
  6
CONTINUOUS
  2
*D0
 70
65
 10
0.0
 20
0.0
  3
*D0
  1

  0
MTEXT
  5
23E
100
AcDbEntity
  8
0
100
AcDbMText
 62
7
  6
CONTINUOUS
  7
STANDARD
 71
2
 72
1
 10
-1.3344932432
 20
34.1219297527
 30
0.0
 11
1.0
 21
0.0
 31
0.0
 44
0.9
  1
50,35
 40
3.0
 41
10.5
  0
LINE
  5
23F
100
AcDbEntity
  8
0
100
AcDbLine
 62
7
  6
CONTINUOUS
 10
23.8413227308
 20
9.4917804734
 11
23.8413227308
 21
31.8719297527
  0
LINE
  5
240
100
AcDbEntity
  8
0
100
AcDbLine
 62
7
  6
CONTINUOUS
 10
-26.5103092173
 20
16.5436865702
 11
-26.5103092173
 21
31.8719297527
  0
LINE
  5
241
100
AcDbEntity
  8
0
100
AcDbLine
 62
7
  6
CONTINUOUS
 10
23.8413227308
 20
30.3719297527
 11
-1.3344932432
 21
30.3719297527
  0
LINE
  5
242
100
AcDbEntity
  8
0
100
AcDbLine
 62
7
  6
CONTINUOUS
 10
-26.5103092173
 20
30.3719297527
 11
-1.3344932432
 21
30.3719297527
  0
INSERT
  5
243
100
AcDbEntity
  8
0
100
AcDbBlockReference
 62
7
  6
CONTINUOUS
  2
_FILLED
 10
23.8413227308
 20
30.3719297527
 41
3.0
 42
3.0
 43
3.0
  0
INSERT
  5
244
100
AcDbEntity
  8
0
100
AcDbBlockReference
 62
7
  6
CONTINUOUS
  2
_FILLED
 10
-26.5103092173
 20
30.3719297527
 41
3.0
 42
3.0
 43
3.0
 50
180.0
  0
ENDBLK
  5
245
100
AcDbEntity
  8
0
  6
BYBLOCK
 62
0
100
AcDbBlockEnd
  0
BLOCK
  5
246
100
AcDbEntity
  8
0
100
AcDbBlockBegin
 62
7
  6
CONTINUOUS
  2
*D1
 70
65
 10
0.0
 20
0.0
  3
*D1
  1

  0
MTEXT
  5
247
100
AcDbEntity
  8
0
100
AcDbMText
 62
7
  6
CONTINUOUS
  7
STANDARD
 71
2
 72
1
 10
28.0913227308
 20
-2.6439760915
 30
0.0
 11
0.0
 21
1.0
 31
0.0
 44
0.9
  1
50
 40
3.0
 41
4.5
  0
LINE
  5
248
100
AcDbEntity
  8
0
100
AcDbLine
 62
7
  6
CONTINUOUS
 10
4.6932592886
 20
-27.6598819357
 11
33.3413227308
 21
-27.6598819357
  0
LINE
  5
249
100
AcDbEntity
  8
0
100
AcDbLine
 62
7
  6
CONTINUOUS
 10
19.0432207686
 20
22.3719297527
 11
33.3413227308
 21
22.3719297527
  0
LINE
  5
24A
100
AcDbEntity
  8
0
100
AcDbLine
 62
7
  6
CONTINUOUS
 10
31.8413227308
 20
-27.6598819357
 11
31.8413227308
 21
-2.6439760915
  0
LINE
  5
24B
100
AcDbEntity
  8
0
100
AcDbLine
 62
7
  6
CONTINUOUS
 10
31.8413227308
 20
22.3719297527
 11
31.8413227308
 21
-2.6439760915
  0
INSERT
  5
24C
100
AcDbEntity
  8
0
100
AcDbBlockReference
 62
7
  6
CONTINUOUS
  2
_FILLED
 10
31.8413227308
 20
-27.6598819357
 41
3.0
 42
3.0
 43
3.0
 50
270.0
  0
INSERT
  5
24D
100
AcDbEntity
  8
0
100
AcDbBlockReference
 62
7
  6
CONTINUOUS
  2
_FILLED
 10
31.8413227308
 20
22.3719297527
 41
3.0
 42
3.0
 43
3.0
 50
90.0
  0
ENDBLK
  5
24E
100
AcDbEntity
  8
0
  6
BYBLOCK
 62
0
100
AcDbBlockEnd
  0
BLOCK
  5
24F
100
AcDbEntity
  8
0
100
AcDbBlockBegin
 62
7
  6
CONTINUOUS
  2
*D2
 70
65
 10
0.0
 20
0.0
  3
*D2
  1

  0
MTEXT
  5
250
100
AcDbEntity
  8
0
100
AcDbMText
 62
7
  6
CONTINUOUS
  7
STANDARD
 71
2
 72
1
 10
-60.9279386632
 20
34.1219297527
 30
0.0
 11
1.0
 21
0.0
 31
0.0
 44
0.9
  1
17,5
 40
3.0
 41
7.9285714286
  0
LINE
  5
251
100
AcDbEntity
  8
0
100
AcDbLine
 62
7
  6
CONTINUOUS
 10
-52.1779386632
 20
19.5432296209
 11
-52.1779386632
 21
31.8719297527
  0
LINE
  5
252
100
AcDbEntity
  8
0
100
AcDbLine
 62
7
  6
CONTINUOUS
 10
-69.6779386632
 20
19.5868672832
 11
-69.6779386632
 21
31.8719297527
  0
LINE
  5
253
100
AcDbEntity
  8
0
100
AcDbLine
 62
7
  6
CONTINUOUS
 10
-52.1779386632
 20
30.3719297527
 11
-60.9279386632
 21
30.3719297527
  0
LINE
  5
254
100
AcDbEntity
  8
0
100
AcDbLine
 62
7
  6
CONTINUOUS
 10
-69.6779386632
 20
30.3719297527
 11
-60.9279386632
 21
30.3719297527
  0
INSERT
  5
255
100
AcDbEntity
  8
0
100
AcDbBlockReference
 62
7
  6
CONTINUOUS
  2
_FILLED
 10
-52.1779386632
 20
30.3719297527
 41
3.0
 42
3.0
 43
3.0
  0
INSERT
  5
256
100
AcDbEntity
  8
0
100
AcDbBlockReference
 62
7
  6
CONTINUOUS
  2
_FILLED
 10
-69.6779386632
 20
30.3719297527
 41
3.0
 42
3.0
 43
3.0
 50
180.0
  0
ENDBLK
  5
257
100
AcDbEntity
  8
0
  6
BYBLOCK
 62
0
100
AcDbBlockEnd
  0
ENDSEC
  0
SECTION
  2
ENTITIES
  0
DIMENSION
  5
258
100
AcDbEntity
  8
0
100
AcDbDimension
 62
7
  6
CONTINUOUS
  2
*D0
 10
-26.5103092173
 20
30.3719297527
 11
-6.5844932432
 21
32.6219297527
 70
160
 71
2
 42
50.3516319481
  3
DIMSTYLE_1
100
AcDbAlignedDimension
 13
23.8413227308
 23
9.4917804734
 14
-26.5103092173
 24
16.5436865702
 50
180.0
100
AcDbRotatedDimension
  0
DIMENSION
  5
259
100
AcDbEntity
  8
0
100
AcDbDimension
 62
7
  6
CONTINUOUS
  2
*D1
 10
31.8413227308
 20
22.3719297527
 11
30.5994883671
 21
-4.6554685846
 70
160
 71
2
 42
50.0318116884
  3
DIMSTYLE_2
100
AcDbAlignedDimension
 13
4.6932592886
 23
-27.6598819357
 14
19.0432207686
 24
22.3719297527
 50
90.0
100
AcDbRotatedDimension
  0
DIMENSION
  5
25A
100
AcDbEntity
  8
0
100
AcDbDimension
 62
7
  6
CONTINUOUS
  2
*D2
 10
-69.6779386632
 20
30.3719297527
 11
-64.8922243775
 21
32.6219297527
 70
160
 71
2
 42
17.5
  3
DIMSTYLE_1
100
AcDbAlignedDimension
 13
-52.1779386632
 23
19.5432296209
 14
-69.6779386632
 24
19.5868672832
 50
180.0
100
AcDbRotatedDimension
  0
LINE
  5
25B
100
AcDbEntity
  8
RACCORDO
100
AcDbLine
 62
7
  6
CONTINUOUS
 10
-26.5103092173
 20
16.0436865702
 11
-26.5103092173
 21
12.3398134546
  0
LINE
  5
25C
100
AcDbEntity
  8
RACCORDO
100
AcDbLine
 62
7
  6
CONTINUOUS
 10
0.489386173
 20
-27.6598819357
 11
4.1932592886
 21
-27.6598819357
  0
LINE
  5
25D
100
AcDbEntity
  8
RACCORDO
100
AcDbLine
 62
7
  6
CONTINUOUS
 10
-19.1586772692
 20
6.1917500124
 11
-19.0620651463
 21
6.2883621353
  0
LINE
  5
25E
100
AcDbEntity
  8
RACCORDO
100
AcDbLine
 62
7
  6
CONTINUOUS
 10
-19.1586772692
 20
8.9917804734
 11
-19.1586772692
 21
6.1917500124
  0
LINE
  5
25F
100
AcDbEntity
  8
RACCORDO
100
AcDbLine
 62
7
  6
CONTINUOUS
 10
-19.1586772692
 20
-3.8082499876
 11
-19.1586772692
 21
-6.6082804485
  0
LINE
  5
260
100
AcDbEntity
  8
RACCORDO
100
AcDbLine
 62
7
  6
CONTINUOUS
 10
-19.0626744121
 20
-3.2208984989
 11
-19.0626744121
 21
5.6043985238
  0
LINE
  5
261
100
AcDbEntity
  8
RACCORDO
100
AcDbLine
 62
253
  6
CONTINUOUS
 10
-19.0620651463
 20
-3.9048621104
 11
-19.0620651463
 21
-6.5116683257
  0
LINE
  5
262
100
AcDbEntity
  8
RACCORDO
100
AcDbLine
 62
253
  6
CONTINUOUS
 10
-19.0620676269
 20
8.8951708311
 11
-19.0620651463
 21
6.2883621353
  0
LINE
  5
263
100
AcDbEntity
  8
DRAFT
100
AcDbLine
 62
7
  6
CONTINUOUS
 10
-18.7811051774
 20
5.8641779206
 11
-18.7811051774
 21
-3.4806778957
  0
LINE
  5
264
100
AcDbEntity
  8
RACCORDO
100
AcDbLine
 62
7
  6
CONTINUOUS
 10
-17.6586772692
 20
-16.8085545973
 11
-17.6586772692
 21
-7.0082195266
  0
LINE
  5
265
100
AcDbEntity
  8
RACCORDO
100
AcDbLine
 62
7
  6
CONTINUOUS
 10
-17.6586772692
 20
-3.9129803771
 11
-17.6586772692
 21
6.296480402
  0
LINE
  5
266
100
AcDbEntity
  8
DRAFT
100
AcDbLine
 62
7
  6
CONTINUOUS
 10
-17.6586772692
 20
9.3917195515
 11
-17.6586772692
 21
10.1917500124
  0
LINE
  5
267
100
AcDbEntity
  8
RACCORDO
100
AcDbLine
 62
7
  6
CONTINUOUS
 10
-17.6586772692
 20
9.3917195515
 11
-17.6586772692
 21
19.1920546221
  0
LINE
  5
268
100
AcDbEntity
  8
RACCORDO
100
AcDbLine
 62
7
  6
CONTINUOUS
 10
-17.7461049103
 20
6.1043223714
 11
-17.6586772692
 21
6.1917500124
  0
LINE
  5
269
100
AcDbEntity
  8
RACCORDO
100
AcDbLine
 62
7
  6
CONTINUOUS
 10
15.1394246931
 20
-19.9884297279
 11
18.5432207686
 21
-19.9884297279
  0
LINE
  5
26A
100
AcDbEntity
  8
RACCORDO
100
AcDbLine
 62
253
  6
CONTINUOUS
 10
-17.0773741362
 20
9.0654425939
 11
-17.0623697559
 21
8.8673255522
  0
LINE
  5
26B
100
AcDbEntity
  8
RACCORDO
100
AcDbLine
 62
253
  6
CONTINUOUS
 10
-17.5534927346
 20
9.2865350168
 11
-17.5534899303
 21
19.0867403316
  0
LINE
  5
26C
100
AcDbEntity
  8
RACCORDO
100
AcDbLine
 62
253
  6
CONTINUOUS
 10
-17.5534899303
 20
-16.7032429189
 11
-17.5534923664
 21
-6.9030346238
  0
LINE
  5
26D
100
AcDbEntity
  8
RACCORDO
100
AcDbLine
 62
253
  6
CONTINUOUS
 10
-17.062323821
 20
8.8673313147
 11
-17.062369756
 21
6.3226629994
  0
LINE
  5
26E
100
AcDbEntity
  8
RACCORDO
100
AcDbLine
 62
253
  6
CONTINUOUS
 10
-17.062369756
 20
-3.9391629745
 11
-17.0623221462
 21
-6.4838316881
  0
LINE
  5
26F
100
AcDbEntity
  8
RACCORDO
100
AcDbLine
 62
253
  6
CONTINUOUS
 10
-16.1586772692
 20
-3.9391629745
 11
-16.1586772692
 21
6.3226629994
  0
LINE
  5
270
100
AcDbEntity
  8
RACCORDO
100
AcDbLine
 62
253
  6
CONTINUOUS
 10
-16.0538139339
 20
9.2573238047
 11
-16.0537183876
 21
19.0868672832
  0
LINE
  5
271
100
AcDbEntity
  8
RACCORDO
100
AcDbLine
 62
253
  6
CONTINUOUS
 10
-16.0537183876
 20
-16.7033672584
 11
-16.0537829961
 21
-6.8738410619
  0
LINE
  5
272
100
AcDbEntity
  8
RACCORDO
100
AcDbLine
 62
253
  6
CONTINUOUS
 10
-15.55379454
 20
21.0865626735
 11
-15.55379454
 21
19.5867911308
  0
LINE
  5
273
100
AcDbEntity
  8
RACCORDO
100
AcDbLine
 62
253
  6
CONTINUOUS
 10
-15.55379454
 20
-18.7030626487
 11
-15.55379454
 21
-17.2032911059
  0
LINE
  5
274
100
AcDbEntity
  8
RACCORDO
100
AcDbLine
 62
253
  6
CONTINUOUS
 10
-17.0773730284
 20
-6.6819423694
 11
-17.062369756
 21
-6.4838257368
  0
LINE
  5
275
100
AcDbEntity
  8
RACCORDO
100
AcDbLine
 62
7
  6
CONTINUOUS
 10
-15.6589818789
 20
-18.8082499876
 11
-15.1586772692
 21
-18.8082499876
  0
LINE
  5
276
100
AcDbEntity
  8
RACCORDO
100
AcDbLine
 62
7
  6
CONTINUOUS
 10
15.0412922698
 20
-18.8082499876
 11
20.3416273405
 21
-18.8082499876
  0
LINE
  5
277
100
AcDbEntity
  8
RACCORDO
100
AcDbLine
 62
7
  6
CONTINUOUS
 10
-15.3413135964
 20
-18.7907949226
 11
14.9109431849
 21
-18.7907949226
  0
LINE
  5
278
100
AcDbEntity
  8
RACCORDO
100
AcDbLine
 62
253
  6
CONTINUOUS
 10
20.2363156621
 20
-18.7030626487
 11
-15.5536675884
 21
-18.7030626487
  0
LINE
  5
279
100
AcDbEntity
  8
RACCORDO
100
AcDbLine
 62
253
  6
CONTINUOUS
 10
20.2364400016
 20
-17.2032911059
 11
-15.55379454
 21
-17.2032911059
  0
LINE
  5
27A
100
AcDbEntity
  8
RACCORDO
100
AcDbLine
 62
253
  6
CONTINUOUS
 10
22.2361353919
 20
-16.7033672584
 11
20.7363638492
 21
-16.7033672584
  0
LINE
  5
27B
100
AcDbEntity
  8
RACCORDO
100
AcDbLine
 62
253
  6
CONTINUOUS
 10
-17.5534899303
 20
-16.7033672584
 11
-16.0537183876
 21
-16.7033672584
  0
LINE
  5
27C
100
AcDbEntity
  8
DRAFT
100
AcDbLine
 62
7
  6
CONTINUOUS
 10
-15.1586772692
 20
-18.8082499876
 11
-15.1586772692
 21
-18.7907949226
  0
LINE
  5
27D
100
AcDbEntity
  8
RACCORDO
100
AcDbLine
 62
7
  6
CONTINUOUS
 10
-19.0712496281
 20
-3.7208223465
 11
-19.1586772692
 21
-3.8082499876
  0
LINE
  5
27E
100
AcDbEntity
  8
RACCORDO
100
AcDbLine
 62
7
  6
CONTINUOUS
 10
-19.1586772692
 20
-3.8082499876
 11
-19.0620651463
 21
-3.9048621104
  0
LINE
  5
27F
100
AcDbEntity
  8
RACCORDO
100
AcDbLine
 62
7
  6
CONTINUOUS
 10
-17.7461049103
 20
-3.7208223465
 11
-17.6586772692
 21
-3.8082499876
  0
LINE
  5
280
100
AcDbEntity
  8
RACCORDO
100
AcDbLine
 62
253
  6
CONTINUOUS
 10
-19.0620651463
 20
-6.5116683257
 11
-19.1586772692
 21
-6.6082804485
  0
LINE
  5
281
100
AcDbEntity
  8
RACCORDO
100
AcDbLine
 62
253
  6
CONTINUOUS
 10
-18.8620956073
 20
-6.7116378647
 11
-18.9587077302
 21
-6.8082499876
  0
LINE
  5
282
100
AcDbEntity
  8
RACCORDO
100
AcDbLine
 62
253
  6
CONTINUOUS
 10
-17.8586468082
 20
-6.8082499876
 11
-17.7534594693
 21
-6.7030626487
  0
LINE
  5
283
100
AcDbEntity
  8
RACCORDO
100
AcDbLine
 62
253
  6
CONTINUOUS
 10
-17.6586772692
 20
-7.0082195266
 11
-17.5534923664
 21
-6.9030346238
  0
LINE
  5
284
100
AcDbEntity
  8
RACCORDO
100
AcDbLine
 62
7
  6
CONTINUOUS
 10
-19.0712496281
 20
6.1043223714
 11
-19.1586772692
 21
6.1917500124
  0
LINE
  5
285
100
AcDbEntity
  8
RACCORDO
100
AcDbLine
 62
7
  6
CONTINUOUS
 10
-18.9587077302
 20
-6.8082499876
 11
-17.8586468082
 21
-6.8082499876
  0
LINE
  5
286
100
AcDbEntity
  8
RACCORDO
100
AcDbLine
 62
7
  6
CONTINUOUS
 10
22.5412922698
 20
-6.8082499876
 11
23.6413531918
 21
-6.8082499876
  0
LINE
  5
287
100
AcDbEntity
  8
RACCORDO
100
AcDbLine
 62
253
  6
CONTINUOUS
 10
-19.0620676269
 20
8.8951708311
 11
-19.1586772692
 21
8.9917804734
  0
LINE
  5
288
100
AcDbEntity
  8
RACCORDO
100
AcDbLine
 62
253
  6
CONTINUOUS
 10
-18.8620956073
 20
9.0951378896
 11
-18.9587077302
 21
9.1917500124
  0
LINE
  5
289
100
AcDbEntity
  8
RACCORDO
100
AcDbLine
 62
253
  6
CONTINUOUS
 10
-17.7534594693
 20
9.0865626735
 11
-17.8586468082
 21
9.1917500124
  0
LINE
  5
28A
100
AcDbEntity
  8
RACCORDO
100
AcDbLine
 62
253
  6
CONTINUOUS
 10
-17.5534927346
 20
9.2865350168
 11
-17.6586772692
 21
9.3917195515
  0
LINE
  5
28B
100
AcDbEntity
  8
RACCORDO
100
AcDbLine
 62
7
  6
CONTINUOUS
 10
-1.5103092173
 20
-18.7907949226
 11
-1.5103092173
 21
-25.6601865454
  0
LINE
  5
28C
100
AcDbEntity
  8
RACCORDO
100
AcDbLine
 62
253
  6
CONTINUOUS
 10
-17.5534899303
 20
-16.7032429189
 11
-17.6586772692
 21
-16.8085545973
  0
LINE
  5
28D
100
AcDbEntity
  8
0
100
AcDbLine
 62
7
  6
CONTINUOUS
 10
-11.7068944741
 20
-10.8614924456
 11
-14.1054348077
 21
-13.2600327792
  0
LINE
  5
28E
100
AcDbEntity
  8
0
100
AcDbLine
 62
7
  6
CONTINUOUS
 10
-13.6104600643
 20
-13.7550075295
 11
-11.2119197307
 21
-11.3564671959
  0
LINE
  5
28F
100
AcDbEntity
  8
RACCORDO
100
AcDbLine
 62
253
  6
CONTINUOUS
 10
20.23631305
 20
21.0865626735
 11
20.3416273405
 21
21.1917500124
  0
LINE
  5
290
100
AcDbEntity
  8
0
100
AcDbLine
 62
7
  6
CONTINUOUS
 10
23.463750639
 20
-3.4806778957
 11
22.3400046356
 21
-3.5146521753
  0
LINE
  5
291
100
AcDbEntity
  8
RACCORDO
100
AcDbLine
 62
7
  6
CONTINUOUS
 10
21.7450152176
 20
-3.9391629745
 11
20.8413227308
 21
-3.9391629745
  0
LINE
  5
292
100
AcDbEntity
  8
RACCORDO
100
AcDbLine
 62
7
  6
CONTINUOUS
 10
-16.1586772692
 20
-3.9391629745
 11
-17.062369756
 21
-3.9391629745
  0
LINE
  5
293
100
AcDbEntity
  8
RACCORDO
100
AcDbLine
 62
253
  6
CONTINUOUS
 10
23.7538950897
 20
-3.7208223465
 11
22.4287503719
 21
-3.7208223465
  0
LINE
  5
294
100
AcDbEntity
  8
RACCORDO
100
AcDbLine
 62
253
  6
CONTINUOUS
 10
-17.7461049103
 20
-3.7208223465
 11
-19.0712496281
 21
-3.7208223465
  0
LINE
  5
295
100
AcDbEntity
  8
RACCORDO
100
AcDbLine
 62
253
  6
CONTINUOUS
 10
23.7453198737
 20
-3.2208984989
 11
23.463750639
 21
-3.2208984989
  0
LINE
  5
296
100
AcDbEntity
  8
RACCORDO
100
AcDbLine
 62
253
  6
CONTINUOUS
 10
-18.7811051774
 20
-3.2208984989
 11
-19.0626744121
 21
-3.2208984989
  0
LINE
  5
297
100
AcDbEntity
  8
0
100
AcDbLine
 62
7
  6
CONTINUOUS
 10
-17.6573591739
 20
-3.5146521753
 11
-18.7811051774
 21
-3.4806778957
  0
LINE
  5
298
100
AcDbEntity
  8
RACCORDO
100
AcDbLine
 62
253
  6
CONTINUOUS
 10
22.2361353919
 20
19.0867429437
 11
22.3413227308
 21
19.1920546221
  0
LINE
  5
299
100
AcDbEntity
  8
RACCORDO
100
AcDbLine
 62
253
  6
CONTINUOUS
 10
-15.3413135964
 20
-18.7907949226
 11
-15.3587686614
 21
-18.8082499876
  0
LINE
  5
29A
100
AcDbEntity
  8
RACCORDO
100
AcDbLine
 62
7
  6
CONTINUOUS
 10
-15.1412222043
 20
-18.7907949226
 11
-15.1586772692
 21
-18.8082499876
  0
LINE
  5
29B
100
AcDbEntity
  8
0
100
AcDbLine
 62
7
  6
CONTINUOUS
 10
-6.7068944741
 20
-10.8614924456
 11
-9.1054348077
 21
-13.2600327792
  0
LINE
  5
29C
100
AcDbEntity
  8
RACCORDO
100
AcDbLine
 62
253
  6
CONTINUOUS
 10
-15.5536675884
 20
-18.7030626487
 11
-15.6589818789
 21
-18.8082499876
  0
LINE
  5
29D
100
AcDbEntity
  8
0
100
AcDbLine
 62
7
  6
CONTINUOUS
 10
-8.6104600643
 20
-13.7550075295
 11
-6.2119197307
 21
-11.3564671959
  0
LINE
  5
29E
100
AcDbEntity
  8
RACCORDO
100
AcDbLine
 62
253
  6
CONTINUOUS
 10
20.2363156621
 20
-18.7030626487
 11
20.3416273405
 21
-18.8082499876
  0
LINE
  5
29F
100
AcDbEntity
  8
RACCORDO
100
AcDbLine
 62
253
  6
CONTINUOUS
 10
-17.5534899303
 20
19.0867403316
 11
-17.6586772692
 21
19.1920546221
  0
LINE
  5
2A0
100
AcDbEntity
  8
0
100
AcDbLine
 62
7
  6
CONTINUOUS
 10
-1.7068944741
 20
-10.8614924456
 11
-4.1054348077
 21
-13.2600327792
  0
LINE
  5
2A1
100
AcDbEntity
  8
0
100
AcDbLine
 62
7
  6
CONTINUOUS
 10
-3.6104600643
 20
-13.7550075295
 11
-1.2119197307
 21
-11.3564671959
  0
LINE
  5
2A2
100
AcDbEntity
  8
RACCORDO
100
AcDbLine
 62
253
  6
CONTINUOUS
 10
-15.5536702005
 20
21.0865626735
 11
-15.6589818789
 21
21.1917500124
  0
LINE
  5
2A3
100
AcDbEntity
  8
RACCORDO
100
AcDbLine
 62
253
  6
CONTINUOUS
 10
22.2361353919
 20
-16.7032403068
 11
22.3413227308
 21
-16.8085545973
  0
LINE
  5
2A4
100
AcDbEntity
  8
RACCORDO
100
AcDbLine
 62
7
  6
CONTINUOUS
 10
6.1929546789
 20
-25.6601865454
 11
6.1929546789
 21
-18.7907949226
  0
LINE
  5
2A5
100
AcDbEntity
  8
RACCORDO
100
AcDbLine
 62
253
  6
CONTINUOUS
 10
22.3413227308
 20
9.3917195515
 11
22.236137828
 21
9.2865346487
  0
LINE
  5
2A6
100
AcDbEntity
  8
RACCORDO
100
AcDbLine
 62
253
  6
CONTINUOUS
 10
22.5412922698
 20
9.1917500124
 11
22.4361049309
 21
9.0865626735
  0
LINE
  5
2A7
100
AcDbEntity
  8
0
100
AcDbLine
 62
7
  6
CONTINUOUS
 10
3.2931055259
 20
-10.8614924456
 11
0.8945651923
 21
-13.2600327792
  0
LINE
  5
2A8
100
AcDbEntity
  8
RACCORDO
100
AcDbLine
 62
253
  6
CONTINUOUS
 10
23.5447410689
 20
9.0951378896
 11
23.6413531918
 21
9.1917500124
  0
LINE
  5
2A9
100
AcDbEntity
  8
RACCORDO
100
AcDbLine
 62
253
  6
CONTINUOUS
 10
23.7447106079
 20
8.8951683505
 11
23.8413227308
 21
8.9917804734
  0
LINE
  5
2AA
100
AcDbEntity
  8
0
100
AcDbLine
 62
7
  6
CONTINUOUS
 10
-17.6573591739
 20
5.8981522002
 11
-18.7811051774
 21
5.8641779206
  0
LINE
  5
2AB
100
AcDbEntity
  8
RACCORDO
100
AcDbLine
 62
253
  6
CONTINUOUS
 10
-19.0626744121
 20
5.6043985238
 11
-18.7811051774
 21
5.6043985238
  0
LINE
  5
2AC
100
AcDbEntity
  8
RACCORDO
100
AcDbLine
 62
253
  6
CONTINUOUS
 10
23.463750639
 20
5.6043985238
 11
23.7453198737
 21
5.6043985238
  0
LINE
  5
2AD
100
AcDbEntity
  8
RACCORDO
100
AcDbLine
 62
253
  6
CONTINUOUS
 10
-19.0712496281
 20
6.1043223714
 11
-17.7461049103
 21
6.1043223714
  0
LINE
  5
2AE
100
AcDbEntity
  8
RACCORDO
100
AcDbLine
 62
253
  6
CONTINUOUS
 10
22.4287503719
 20
6.1043223714
 11
23.7538950897
 21
6.1043223714
  0
LINE
  5
2AF
100
AcDbEntity
  8
RACCORDO
100
AcDbLine
 62
7
  6
CONTINUOUS
 10
-17.062369756
 20
6.3226629994
 11
-16.1586772692
 21
6.3226629994
  0
LINE
  5
2B0
100
AcDbEntity
  8
RACCORDO
100
AcDbLine
 62
7
  6
CONTINUOUS
 10
20.8413227308
 20
6.3226629994
 11
21.7450152176
 21
6.3226629994
  0
LINE
  5
2B1
100
AcDbEntity
  8
0
100
AcDbLine
 62
7
  6
CONTINUOUS
 10
23.463750639
 20
5.8641779206
 11
22.3400046356
 21
5.8981522002
  0
LINE
  5
2B2
100
AcDbEntity
  8
0
100
AcDbLine
 62
7
  6
CONTINUOUS
 10
1.3895399357
 20
-13.7550075295
 11
3.7880802693
 21
-11.3564671959
  0
LINE
  5
2B3
100
AcDbEntity
  8
RACCORDO
100
AcDbLine
 62
7
  6
CONTINUOUS
 10
23.7538950897
 20
6.1043223714
 11
23.8413227308
 21
6.1917500124
  0
LINE
  5
2B4
100
AcDbEntity
  8
RACCORDO
100
AcDbLine
 62
7
  6
CONTINUOUS
 10
23.6413531918
 20
9.1917500124
 11
22.5412922698
 21
9.1917500124
  0
LINE
  5
2B5
100
AcDbEntity
  8
RACCORDO
100
AcDbLine
 62
7
  6
CONTINUOUS
 10
-17.8586468082
 20
9.1917500124
 11
-18.9587077302
 21
9.1917500124
  0
LINE
  5
2B6
100
AcDbEntity
  8
0
100
AcDbLine
 62
7
  6
CONTINUOUS
 10
8.2931055259
 20
-10.8614924456
 11
5.8945651923
 21
-13.2600327792
  0
LINE
  5
2B7
100
AcDbEntity
  8
0
100
AcDbLine
 62
7
  6
CONTINUOUS
 10
6.3895399357
 20
-13.7550075295
 11
8.7880802693
 21
-11.3564671959
  0
LINE
  5
2B8
100
AcDbEntity
  8
RACCORDO
100
AcDbLine
 62
7
  6
CONTINUOUS
 10
-24.510613827
 20
10.3401180643
 11
-17.6586772692
 21
10.3401180643
  0
LINE
  5
2B9
100
AcDbEntity
  8
RACCORDO
100
AcDbLine
 62
253
  6
CONTINUOUS
 10
22.2361381962
 20
-6.903034992
 11
22.3413227308
 21
-7.0082195266
  0
LINE
  5
2BA
100
AcDbEntity
  8
RACCORDO
100
AcDbLine
 62
253
  6
CONTINUOUS
 10
22.4361049309
 20
-6.7030626487
 11
22.5412922698
 21
-6.8082499876
  0
LINE
  5
2BB
100
AcDbEntity
  8
RACCORDO
100
AcDbLine
 62
7
  6
CONTINUOUS
 10
14.939455154
 20
22.1719602137
 11
14.939455154
 21
21.1917500124
  0
LINE
  5
2BC
100
AcDbEntity
  8
RACCORDO
100
AcDbLine
 62
7
  6
CONTINUOUS
 10
14.939455154
 20
-18.7973218634
 11
14.939455154
 21
-19.7884601888
  0
LINE
  5
2BD
100
AcDbEntity
  8
0
100
AcDbLine
 62
7
  6
CONTINUOUS
 10
13.2931055259
 20
-10.8614924456
 11
10.8945651923
 21
-13.2600327792
  0
LINE
  5
2BE
100
AcDbEntity
  8
0
100
AcDbLine
 62
7
  6
CONTINUOUS
 10
11.3895399357
 20
-13.7550075295
 11
13.7880802693
 21
-11.3564671959
  0
LINE
  5
2BF
100
AcDbEntity
  8
RACCORDO
100
AcDbLine
 62
253
  6
CONTINUOUS
 10
23.6413531918
 20
-6.8082499876
 11
23.5447410689
 21
-6.7116378647
  0
LINE
  5
2C0
100
AcDbEntity
  8
RACCORDO
100
AcDbLine
 62
253
  6
CONTINUOUS
 10
23.8413227308
 20
-6.6082804485
 11
23.7447106079
 21
-6.5116683257
  0
LINE
  5
2C1
100
AcDbEntity
  8
RACCORDO
100
AcDbLine
 62
7
  6
CONTINUOUS
 10
22.4287503719
 20
-3.7208223465
 11
22.3413227308
 21
-3.8082499876
  0
LINE
  5
2C2
100
AcDbEntity
  8
RACCORDO
100
AcDbLine
 62
7
  6
CONTINUOUS
 10
23.8413227308
 20
-3.8082499876
 11
23.7447106079
 21
-3.9048621104
  0
LINE
  5
2C3
100
AcDbEntity
  8
RACCORDO
100
AcDbLine
 62
7
  6
CONTINUOUS
 10
23.7538950897
 20
-3.7208223465
 11
23.8413227308
 21
-3.8082499876
  0
LINE
  5
2C4
100
AcDbEntity
  8
RACCORDO
100
AcDbLine
 62
7
  6
CONTINUOUS
 10
18.7431903076
 20
-19.7884601888
 11
18.7431903076
 21
-18.8082499876
  0
LINE
  5
2C5
100
AcDbEntity
  8
RACCORDO
100
AcDbLine
 62
7
  6
CONTINUOUS
 10
18.7431903076
 20
21.1917500124
 11
18.7431903076
 21
22.1719602137
  0
LINE
  5
2C6
100
AcDbEntity
  8
RACCORDO
100
AcDbLine
 62
253
  6
CONTINUOUS
 10
20.2364400016
 20
21.0865626735
 11
20.2364400016
 21
19.5867911308
  0
LINE
  5
2C7
100
AcDbEntity
  8
RACCORDO
100
AcDbLine
 62
253
  6
CONTINUOUS
 10
20.2364400016
 20
-18.7030626487
 11
20.2364400016
 21
-17.2032911059
  0
LINE
  5
2C8
100
AcDbEntity
  8
RACCORDO
100
AcDbLine
 62
7
  6
CONTINUOUS
 10
-17.6586772692
 20
18.0433819605
 11
-24.510613827
 21
18.0433819605
  0
LINE
  5
2C9
100
AcDbEntity
  8
RACCORDO
100
AcDbLine
 62
253
  6
CONTINUOUS
 10
21.7600196231
 20
-6.6819429027
 11
21.7450152176
 21
-6.4838255273
  0
LINE
  5
2CA
100
AcDbEntity
  8
RACCORDO
100
AcDbLine
 62
253
  6
CONTINUOUS
 10
20.7364593955
 20
-6.8738241097
 11
20.7363638492
 21
-16.7033672584
  0
LINE
  5
2CB
100
AcDbEntity
  8
RACCORDO
100
AcDbLine
 62
253
  6
CONTINUOUS
 10
20.7363638492
 20
19.0868672832
 11
20.7364284577
 21
9.2573408638
  0
LINE
  5
2CC
100
AcDbEntity
  8
RACCORDO
100
AcDbLine
 62
253
  6
CONTINUOUS
 10
20.8413227308
 20
6.3226629994
 11
20.8413227308
 21
-3.9391629745
  0
LINE
  5
2CD
100
AcDbEntity
  8
RACCORDO
100
AcDbLine
 62
253
  6
CONTINUOUS
 10
21.7450152176
 20
6.3226629994
 11
21.7450400594
 21
8.8673228827
  0
LINE
  5
2CE
100
AcDbEntity
  8
RACCORDO
100
AcDbLine
 62
253
  6
CONTINUOUS
 10
21.7450421023
 20
-6.4838224105
 11
21.7450152176
 21
-3.9391629745
  0
LINE
  5
2CF
100
AcDbEntity
  8
RACCORDO
100
AcDbLine
 62
253
  6
CONTINUOUS
 10
22.2361381962
 20
-6.903034992
 11
22.2361353919
 21
-16.7032403068
  0
LINE
  5
2D0
100
AcDbEntity
  8
RACCORDO
100
AcDbLine
 62
253
  6
CONTINUOUS
 10
22.2361353919
 20
19.0867429437
 11
22.236137828
 21
9.2865346487
  0
LINE
  5
2D1
100
AcDbEntity
  8
RACCORDO
100
AcDbLine
 62
7
  6
CONTINUOUS
 10
22.3413227308
 20
6.296480402
 11
22.3413227308
 21
-3.9129803771
  0
LINE
  5
2D2
100
AcDbEntity
  8
RACCORDO
100
AcDbLine
 62
7
  6
CONTINUOUS
 10
22.3413227308
 20
-16.8085545973
 11
22.3413227308
 21
-7.0082195266
  0
LINE
  5
2D3
100
AcDbEntity
  8
RACCORDO
100
AcDbLine
 62
7
  6
CONTINUOUS
 10
22.3413227308
 20
9.3917195515
 11
22.3413227308
 21
19.1920546221
  0
LINE
  5
2D4
100
AcDbEntity
  8
RACCORDO
100
AcDbLine
 62
253
  6
CONTINUOUS
 10
21.76001849
 20
9.0654423942
 11
21.7450152176
 21
8.8673257617
  0
LINE
  5
2D5
100
AcDbEntity
  8
RACCORDO
100
AcDbLine
 62
253
  6
CONTINUOUS
 10
22.2361353919
 20
19.0868672832
 11
20.7363638492
 21
19.0868672832
  0
LINE
  5
2D6
100
AcDbEntity
  8
RACCORDO
100
AcDbLine
 62
253
  6
CONTINUOUS
 10
-17.5534899303
 20
19.0868672832
 11
-16.0537183876
 21
19.0868672832
  0
LINE
  5
2D7
100
AcDbEntity
  8
RACCORDO
100
AcDbLine
 62
253
  6
CONTINUOUS
 10
-15.55379454
 20
19.5867911308
 11
20.2364400016
 21
19.5867911308
  0
LINE
  5
2D8
100
AcDbEntity
  8
RACCORDO
100
AcDbLine
 62
253
  6
CONTINUOUS
 10
-15.5536702005
 20
21.0865626735
 11
20.23631305
 21
21.0865626735
  0
LINE
  5
2D9
100
AcDbEntity
  8
RACCORDO
100
AcDbLine
 62
7
  6
CONTINUOUS
 10
20.3416273405
 20
21.1917500124
 11
-15.6589818789
 21
21.1917500124
  0
LINE
  5
2DA
100
AcDbEntity
  8
RACCORDO
100
AcDbLine
 62
7
  6
CONTINUOUS
 10
22.4287503719
 20
6.1043223714
 11
22.3413227308
 21
6.1917500124
  0
LINE
  5
2DB
100
AcDbEntity
  8
DRAFT
100
AcDbLine
 62
7
  6
CONTINUOUS
 10
23.463750639
 20
-3.4806778957
 11
23.463750639
 21
5.8641779206
  0
LINE
  5
2DC
100
AcDbEntity
  8
RACCORDO
100
AcDbLine
 62
253
  6
CONTINUOUS
 10
23.7447106079
 20
-6.5116683257
 11
23.7447106079
 21
-3.9048621104
  0
LINE
  5
2DD
100
AcDbEntity
  8
RACCORDO
100
AcDbLine
 62
253
  6
CONTINUOUS
 10
23.7447106079
 20
6.2883621353
 11
23.7447106079
 21
8.8951683505
  0
LINE
  5
2DE
100
AcDbEntity
  8
RACCORDO
100
AcDbLine
 62
7
  6
CONTINUOUS
 10
23.7453198737
 20
-3.2208984989
 11
23.7453198737
 21
5.6043985238
  0
LINE
  5
2DF
100
AcDbEntity
  8
RACCORDO
100
AcDbLine
 62
7
  6
CONTINUOUS
 10
23.8413227308
 20
-6.6082804485
 11
23.8413227308
 21
-3.8082499876
  0
LINE
  5
2E0
100
AcDbEntity
  8
RACCORDO
100
AcDbLine
 62
7
  6
CONTINUOUS
 10
23.8413227308
 20
6.1917500124
 11
23.8413227308
 21
8.9917804734
  0
LINE
  5
2E1
100
AcDbEntity
  8
RACCORDO
100
AcDbLine
 62
7
  6
CONTINUOUS
 10
18.5432207686
 20
22.3719297527
 11
15.1394246931
 21
22.3719297527
  0
LINE
  5
2E2
100
AcDbEntity
  8
RACCORDO
100
AcDbLine
 62
7
  6
CONTINUOUS
 10
23.8413227308
 20
6.1917500124
 11
23.7447106079
 21
6.2883621353
  0
LINE
  5
2E3
100
AcDbEntity
  8
RACCORDO
100
AcDbLine
 62
7
  6
CONTINUOUS
 10
-52.66921246
 20
-27.6422745543
 11
-53.6779386632
 21
-27.6598819357
  0
LINE
  5
2E4
100
AcDbEntity
  8
RACCORDO
100
AcDbLine
 62
253
  6
CONTINUOUS
 10
-52.66921246
 20
-25.6424377015
 11
-53.6779386632
 21
-25.6601865454
  0
LINE
  5
2E5
100
AcDbEntity
  8
RACCORDO
100
AcDbLine
 62
253
  6
CONTINUOUS
 10
-52.66921246
 20
-25.642579164
 11
-52.1779386632
 21
-25.642579164
  0
LINE
  5
2E6
100
AcDbEntity
  8
RACCORDO
100
AcDbLine
 62
7
  6
CONTINUOUS
 10
-52.374448182
 20
-19.8871294247
 11
-58.1779386632
 21
-19.9884297279
  0
LINE
  5
2E7
100
AcDbEntity
  8
RACCORDO
100
AcDbLine
 62
253
  6
CONTINUOUS
 10
-57.1779386632
 20
-19.7710051239
 11
-58.1779386632
 21
-19.7884601888
  0
LINE
  5
2E8
100
AcDbEntity
  8
RACCORDO
100
AcDbLine
 62
253
  6
CONTINUOUS
 10
-52.374448182
 20
-19.5871751161
 11
-57.1779386632
 21
-19.6710203544
  0
LINE
  5
2E9
100
AcDbEntity
  8
RACCORDO
100
AcDbLine
 62
253
  6
CONTINUOUS
 10
-53.6517600536
 20
-18.9593792949
 11
-57.1779386632
 21
-19.0209289715
  0
LINE
  5
2EA
100
AcDbEntity
  8
RACCORDO
100
AcDbLine
 62
7
  6
CONTINUOUS
 10
-62.1779386632
 20
-18.8082499876
 11
-53.6517600536
 21
-18.6594249863
  0
LINE
  5
2EB
100
AcDbEntity
  8
RACCORDO
100
AcDbLine
 62
7
  6
CONTINUOUS
 10
-68.2041172729
 20
-18.7030626487
 11
-62.1779386632
 21
-18.8082499876
  0
LINE
  5
2EC
100
AcDbEntity
  8
RACCORDO
100
AcDbLine
 62
253
  6
CONTINUOUS
 10
-62.1779386632
 20
-16.8085545973
 11
-53.6517600536
 21
-16.6596005974
  0
LINE
  5
2ED
100
AcDbEntity
  8
RACCORDO
100
AcDbLine
 62
253
  6
CONTINUOUS
 10
-68.2041172729
 20
-16.7033672584
 11
-69.6779386632
 21
-16.7033672584
  0
LINE
  5
2EE
100
AcDbEntity
  8
RACCORDO
100
AcDbLine
 62
253
  6
CONTINUOUS
 10
-52.1779386632
 20
-16.659729596
 11
-53.6517600536
 21
-16.6597295952
  0
LINE
  5
2EF
100
AcDbEntity
  8
RACCORDO
100
AcDbLine
 62
253
  6
CONTINUOUS
 10
-68.2041172729
 20
-16.7032403068
 11
-62.1779386632
 21
-16.8085545973
  0
LINE
  5
2F0
100
AcDbEntity
  8
RACCORDO
100
AcDbLine
 62
7
  6
CONTINUOUS
 10
-69.6779386632
 20
-17.2032911059
 11
-69.6779386632
 21
19.5867911308
  0
LINE
  5
2F1
100
AcDbEntity
  8
RACCORDO
100
AcDbLine
 62
253
  6
CONTINUOUS
 10
-68.203956616
 20
-6.903034992
 11
-68.2041172729
 21
-16.7032403068
  0
LINE
  5
2F2
100
AcDbEntity
  8
RACCORDO
100
AcDbLine
 62
253
  6
CONTINUOUS
 10
-68.2041172729
 20
19.0867429437
 11
-68.2039777074
 21
9.2865346487
  0
LINE
  5
2F3
100
AcDbEntity
  8
RACCORDO
100
AcDbLine
 62
253
  6
CONTINUOUS
 10
-68.1779386632
 20
6.296480402
 11
-68.1779386632
 21
-3.9129803771
  0
LINE
  5
2F4
100
AcDbEntity
  8
RACCORDO
100
AcDbLine
 62
253
  6
CONTINUOUS
 10
-67.7128434761
 20
-6.5116683257
 11
-67.7128434761
 21
-3.9048621104
  0
LINE
  5
2F5
100
AcDbEntity
  8
RACCORDO
100
AcDbLine
 62
253
  6
CONTINUOUS
 10
-67.7128434761
 20
6.2883621353
 11
-67.7128434761
 21
8.8951683505
  0
LINE
  5
2F6
100
AcDbEntity
  8
RACCORDO
100
AcDbLine
 62
7
  6
CONTINUOUS
 10
-62.1779386632
 20
-6.8082499876
 11
-56.6255814439
 21
-6.7113332318
  0
LINE
  5
2F7
100
AcDbEntity
  8
RACCORDO
100
AcDbLine
 62
253
  6
CONTINUOUS
 10
-62.1779386632
 20
-6.6082804485
 11
-56.6255814439
 21
-6.5113636928
  0
LINE
  5
2F8
100
AcDbEntity
  8
RACCORDO
100
AcDbLine
 62
253
  6
CONTINUOUS
 10
-68.203956616
 20
-6.903034992
 11
-62.1779386632
 21
-7.0082195266
  0
LINE
  5
2F9
100
AcDbEntity
  8
RACCORDO
100
AcDbLine
 62
7
  6
CONTINUOUS
 10
-62.1779386632
 20
-6.8082499876
 11
-69.4796221062
 21
-6.680798629
  0
LINE
  5
2FA
100
AcDbEntity
  8
RACCORDO
100
AcDbLine
 62
253
  6
CONTINUOUS
 10
-62.1779386632
 20
-6.6082804485
 11
-67.7128434761
 21
-6.5116683257
  0
LINE
  5
2FB
100
AcDbEntity
  8
DRAFT
100
AcDbLine
 62
7
  6
CONTINUOUS
 10
-62.1779386632
 20
6.1917500124
 11
-62.1779386632
 21
-3.8082499876
  0
LINE
  5
2FC
100
AcDbEntity
  8
RACCORDO
100
AcDbLine
 62
7
  6
CONTINUOUS
 10
-62.1779386632
 20
-18.8082499876
 11
-62.1779386632
 21
-6.8082499876
  0
LINE
  5
2FD
100
AcDbEntity
  8
RACCORDO
100
AcDbLine
 62
7
  6
CONTINUOUS
 10
-62.1779386632
 20
-6.6082804485
 11
-62.1779386632
 21
-3.5582499876
  0
LINE
  5
2FE
100
AcDbEntity
  8
RACCORDO
100
AcDbLine
 62
7
  6
CONTINUOUS
 10
-62.1779386632
 20
5.9417500124
 11
-62.1779386632
 21
8.9917804734
  0
LINE
  5
2FF
100
AcDbEntity
  8
RACCORDO
100
AcDbLine
 62
7
  6
CONTINUOUS
 10
-62.1779386632
 20
9.1917500124
 11
-62.1779386632
 21
21.1917500124
  0
LINE
  5
300
100
AcDbEntity
  8
RACCORDO
100
AcDbLine
 62
7
  6
CONTINUOUS
 10
-57.16921246
 20
-3.7208223465
 11
-69.6779386632
 21
-3.9391629745
  0
LINE
  5
301
100
AcDbEntity
  8
DRAFT
100
AcDbLine
 62
7
  6
CONTINUOUS
 10
-62.1779386632
 20
-3.5582499876
 11
-59.7513032749
 21
-3.5158929093
  0
LINE
  5
302
100
AcDbEntity
  8
RACCORDO
100
AcDbLine
 62
7
  6
CONTINUOUS
 10
-56.9727029413
 20
-3.4673922601
 11
-57.7338364985
 21
-3.4806778957
  0
LINE
  5
303
100
AcDbEntity
  8
0
100
AcDbLine
 62
7
  6
CONTINUOUS
 10
-57.7338364985
 20
-3.4806778957
 11
-59.7513032749
 21
-3.5158929093
  0
LINE
  5
304
100
AcDbEntity
  8
RACCORDO
100
AcDbLine
 62
253
  6
CONTINUOUS
 10
-53.874448182
 20
-3.7117901463
 11
-53.6779386632
 21
-3.7117901463
  0
LINE
  5
305
100
AcDbEntity
  8
0
100
AcDbLine
 62
7
  6
CONTINUOUS
 10
-59.7513032749
 20
5.8993929342
 11
-59.7513032749
 21
-3.5158929093
  0
LINE
  5
306
100
AcDbEntity
  8
RACCORDO
100
AcDbLine
 62
7
  6
CONTINUOUS
 10
-52.1779386632
 20
-1.4147258836
 11
-52.1896147582
 21
-1.4145220766
  0
LINE
  5
307
100
AcDbEntity
  8
RACCORDO
100
AcDbLine
 62
7
  6
CONTINUOUS
 10
-58.1779386632
 20
-19.9884297279
 11
-58.1779386632
 21
-18.7384297279
  0
LINE
  5
308
100
AcDbEntity
  8
RACCORDO
100
AcDbLine
 62
7
  6
CONTINUOUS
 10
-58.1779386632
 20
21.1219297527
 11
-58.1779386632
 21
22.3719297527
  0
LINE
  5
309
100
AcDbEntity
  8
DRAFT
100
AcDbLine
 62
7
  6
CONTINUOUS
 10
-57.7338364985
 20
-3.4806778957
 11
-57.7338364985
 21
5.8641779206
  0
LINE
  5
30A
100
AcDbEntity
  8
RACCORDO
100
AcDbLine
 62
7
  6
CONTINUOUS
 10
-57.1779386632
 20
-19.9709746629
 11
-57.1779386632
 21
-18.7209746629
  0
LINE
  5
30B
100
AcDbEntity
  8
RACCORDO
100
AcDbLine
 62
7
  6
CONTINUOUS
 10
-57.1779386632
 20
21.1044746878
 11
-57.1779386632
 21
22.3544746878
  0
LINE
  5
30C
100
AcDbEntity
  8
RACCORDO
100
AcDbLine
 62
253
  6
CONTINUOUS
 10
-56.9727029413
 20
5.8508922849
 11
-56.9727029413
 21
-3.4673922601
  0
LINE
  5
30D
100
AcDbEntity
  8
RACCORDO
100
AcDbLine
 62
7
  6
CONTINUOUS
 10
-56.6779386632
 20
-3.2208984989
 11
-56.6779386632
 21
5.6043985238
  0
LINE
  5
30E
100
AcDbEntity
  8
RACCORDO
100
AcDbLine
 62
253
  6
CONTINUOUS
 10
-53.874448182
 20
-3.7117901463
 11
-53.874448182
 21
6.0952901712
  0
LINE
  5
30F
100
AcDbEntity
  8
RACCORDO
100
AcDbLine
 62
7
  6
CONTINUOUS
 10
-53.6779386632
 20
-27.6598819357
 11
-53.6779386632
 21
-19.9098819357
  0
LINE
  5
310
100
AcDbEntity
  8
RACCORDO
100
AcDbLine
 62
7
  6
CONTINUOUS
 10
-53.6779386632
 20
-3.7117901463
 11
-53.6779386632
 21
6.0952901712
  0
LINE
  5
311
100
AcDbEntity
  8
RACCORDO
100
AcDbLine
 62
253
  6
CONTINUOUS
 10
-53.6517600536
 20
-16.6596005974
 11
-53.6517600536
 21
19.0432296209
  0
LINE
  5
312
100
AcDbEntity
  8
RACCORDO
100
AcDbLine
 62
7
  6
CONTINUOUS
 10
-52.1896147582
 20
3.7980221015
 11
-52.1779386632
 21
3.7982259085
  0
LINE
  5
313
100
AcDbEntity
  8
RACCORDO
100
AcDbLine
 62
253
  6
CONTINUOUS
 10
-52.66921246
 20
-25.6424377015
 11
-52.66921246
 21
-19.8922745543
  0
LINE
  5
314
100
AcDbEntity
  8
RACCORDO
100
AcDbLine
 62
253
  6
CONTINUOUS
 10
-52.374448182
 20
-19.5871751161
 11
-52.3744485294
 21
-18.3468191409
  0
LINE
  5
315
100
AcDbEntity
  8
RACCORDO
100
AcDbLine
 62
253
  6
CONTINUOUS
 10
-52.3744484043
 20
20.7303106386
 11
-52.374448182
 21
21.970675141
  0
LINE
  5
316
100
AcDbEntity
  8
RACCORDO
100
AcDbLine
 62
7
  6
CONTINUOUS
 10
-52.1896147582
 20
3.7980221015
 11
-52.1896147582
 21
-1.4145220766
  0
LINE
  5
317
100
AcDbEntity
  8
RACCORDO
100
AcDbLine
 62
7
  6
CONTINUOUS
 10
-52.1779386632
 20
-27.1423507067
 11
-52.1779386632
 21
-1.4147258836
  0
LINE
  5
318
100
AcDbEntity
  8
RACCORDO
100
AcDbLine
 62
7
  6
CONTINUOUS
 10
-52.1779386632
 20
3.7982259085
 11
-52.1779386632
 21
22.0706599105
  0
LINE
  5
319
100
AcDbEntity
  8
RACCORDO
100
AcDbLine
 62
253
  6
CONTINUOUS
 10
-53.874448182
 20
6.0952901712
 11
-53.6779386632
 21
6.0952901712
  0
LINE
  5
31A
100
AcDbEntity
  8
DRAFT
100
AcDbLine
 62
7
  6
CONTINUOUS
 10
-62.1779386632
 20
5.9417500124
 11
-59.7513032749
 21
5.8993929342
  0
LINE
  5
31B
100
AcDbEntity
  8
RACCORDO
100
AcDbLine
 62
7
  6
CONTINUOUS
 10
-56.9727029413
 20
5.8508922849
 11
-57.7338364985
 21
5.8641779206
  0
LINE
  5
31C
100
AcDbEntity
  8
0
100
AcDbLine
 62
7
  6
CONTINUOUS
 10
-57.7338364985
 20
5.8641779206
 11
-59.7513032749
 21
5.8993929342
  0
LINE
  5
31D
100
AcDbEntity
  8
RACCORDO
100
AcDbLine
 62
7
  6
CONTINUOUS
 10
-57.16921246
 20
6.1043223714
 11
-69.6779386632
 21
6.3226629994
  0
LINE
  5
31E
100
AcDbEntity
  8
RACCORDO
100
AcDbLine
 62
253
  6
CONTINUOUS
 10
-67.7128434761
 20
8.8951683505
 11
-62.1779386632
 21
8.9917804734
  0
LINE
  5
31F
100
AcDbEntity
  8
RACCORDO
100
AcDbLine
 62
7
  6
CONTINUOUS
 10
-69.4796213151
 20
9.0642986677
 11
-62.1779386632
 21
9.1917500124
  0
LINE
  5
320
100
AcDbEntity
  8
RACCORDO
100
AcDbLine
 62
253
  6
CONTINUOUS
 10
-62.1779386632
 20
9.3917195515
 11
-68.2039777074
 21
9.2865346487
  0
LINE
  5
321
100
AcDbEntity
  8
RACCORDO
100
AcDbLine
 62
253
  6
CONTINUOUS
 10
-56.6255814439
 20
8.8948637176
 11
-62.1779386632
 21
8.9917804734
  0
LINE
  5
322
100
AcDbEntity
  8
RACCORDO
100
AcDbLine
 62
7
  6
CONTINUOUS
 10
-56.6255814439
 20
9.0948332567
 11
-62.1779386632
 21
9.1917500124
  0
LINE
  5
323
100
AcDbEntity
  8
RACCORDO
100
AcDbLine
 62
253
  6
CONTINUOUS
 10
-68.2041172729
 20
19.0867429437
 11
-62.1779386632
 21
19.1920546221
  0
LINE
  5
324
100
AcDbEntity
  8
RACCORDO
100
AcDbLine
 62
253
  6
CONTINUOUS
 10
-52.1779386632
 20
19.0432296209
 11
-53.6517600536
 21
19.0432296209
  0
LINE
  5
325
100
AcDbEntity
  8
RACCORDO
100
AcDbLine
 62
253
  6
CONTINUOUS
 10
-68.2041172729
 20
19.0868672832
 11
-69.6779386632
 21
19.0868672832
  0
LINE
  5
326
100
AcDbEntity
  8
RACCORDO
100
AcDbLine
 62
253
  6
CONTINUOUS
 10
-62.1779386632
 20
19.1920546221
 11
-53.6517600536
 21
19.0432296209
  0
LINE
  5
327
100
AcDbEntity
  8
RACCORDO
100
AcDbLine
 62
7
  6
CONTINUOUS
 10
-68.2041172729
 20
21.0865626735
 11
-62.1779386632
 21
21.1917500124
  0
LINE
  5
328
100
AcDbEntity
  8
RACCORDO
100
AcDbLine
 62
7
  6
CONTINUOUS
 10
-62.1779386632
 20
21.1917500124
 11
-53.6517600536
 21
21.0429250112
  0
LINE
  5
329
100
AcDbEntity
  8
RACCORDO
100
AcDbLine
 62
253
  6
CONTINUOUS
 10
-57.1779386632
 20
21.4044289963
 11
-53.6517600536
 21
21.3428793198
  0
LINE
  5
32A
100
AcDbEntity
  8
RACCORDO
100
AcDbLine
 62
253
  6
CONTINUOUS
 10
-52.374448182
 20
21.970675141
 11
-57.1779386632
 21
22.0545203792
  0
LINE
  5
32B
100
AcDbEntity
  8
RACCORDO
100
AcDbLine
 62
253
  6
CONTINUOUS
 10
-58.1779386632
 20
22.1719602137
 11
-57.1779386632
 21
22.1545051488
  0
LINE
  5
32C
100
AcDbEntity
  8
RACCORDO
100
AcDbLine
 62
7
  6
CONTINUOUS
 10
-52.374448182
 20
22.2706294496
 11
-58.1779386632
 21
22.3719297527
  0
CIRCLE
  5
32D
100
AcDbEntity
  8
RACCORDO
100
AcDbCircle
 62
253
  6
CONTINUOUS
 10
-12.6586772692
 20
-12.3082499876
 40
2.2413486316
  0
CIRCLE
  5
32E
100
AcDbEntity
  8
RACCORDO
100
AcDbCircle
 62
253
  6
CONTINUOUS
 10
-7.6586772692
 20
-12.3082499876
 40
2.2413486316
  0
CIRCLE
  5
32F
100
AcDbEntity
  8
RACCORDO
100
AcDbCircle
 62
253
  6
CONTINUOUS
 10
-2.6586772692
 20
-12.3082499876
 40
2.2413486316
  0
ARC
  5
330
100
AcDbEntity
  8
RACCORDO
100
AcDbCircle
 62
253
  6
CONTINUOUS
 10
-15.5532771029
 20
-16.7028498212
 40
2.0002153719
100
AcDbArc
 50
180.0112610624
 51
269.9888137454
  0
CIRCLE
  5
331
100
AcDbEntity
  8
RACCORDO
100
AcDbCircle
 62
253
  6
CONTINUOUS
 10
-12.6586772692
 20
-12.3082499876
 40
1.741424784
  0
CIRCLE
  5
332
100
AcDbEntity
  8
RACCORDO
100
AcDbCircle
 62
253
  6
CONTINUOUS
 10
-7.6586772692
 20
-12.3082499876
 40
1.741424784
  0
CIRCLE
  5
333
100
AcDbEntity
  8
RACCORDO
100
AcDbCircle
 62
253
  6
CONTINUOUS
 10
-2.6586772692
 20
-12.3082499876
 40
1.741424784
  0
CIRCLE
  5
334
100
AcDbEntity
  8
DRAFT
100
AcDbCircle
 62
7
  6
CONTINUOUS
 10
-12.6586772692
 20
-12.3082499876
 40
1.7325449351
  0
CIRCLE
  5
335
100
AcDbEntity
  8
DRAFT
100
AcDbCircle
 62
7
  6
CONTINUOUS
 10
-7.6586772692
 20
-12.3082499876
 40
1.7325449351
  0
CIRCLE
  5
336
100
AcDbEntity
  8
DRAFT
100
AcDbCircle
 62
7
  6
CONTINUOUS
 10
-2.6586772692
 20
-12.3082499876
 40
1.7325449351
  0
ARC
  5
337
100
AcDbEntity
  8
RACCORDO
100
AcDbCircle
 62
253
  6
CONTINUOUS
 10
-17.1346478847
 20
-8.0857488558
 40
1.4049743985
100
AcDbArc
 50
87.6636462967
 51
90.340060121
  0
ARC
  5
338
100
AcDbEntity
  8
RACCORDO
100
AcDbCircle
 62
253
  6
CONTINUOUS
 10
-17.1507887991
 20
-7.7875438678
 40
1.3067138245
100
AcDbArc
 50
86.1180130843
 51
90.0506063193
  0
ARC
  5
339
100
AcDbEntity
  8
RACCORDO
100
AcDbCircle
 62
253
  6
CONTINUOUS
 10
-15.5538249637
 20
-16.7033976821
 40
0.4998923247
100
AcDbArc
 50
179.9965129554
 51
270.0034870447
  0
ARC
  5
33A
100
AcDbEntity
  8
RACCORDO
100
AcDbCircle
 62
253
  6
CONTINUOUS
 10
-17.7535325938
 20
-6.9031053122
 40
0.200043091
100
AcDbArc
 50
0.0209441592
 51
89.9790558408
  0
ARC
  5
33B
100
AcDbEntity
  8
RACCORDO
100
AcDbCircle
 62
253
  6
CONTINUOUS
 10
-18.8620224338
 20
-6.5115951522
 40
0.2000430908
100
AcDbArc
 50
180.0209581693
 51
269.9790418307
  0
ARC
  5
33C
100
AcDbEntity
  8
RACCORDO
100
AcDbCircle
 62
7
  6
CONTINUOUS
 10
-18.9587199277
 20
-6.6082926461
 40
0.1999569277
100
AcDbArc
 50
179.9965049109
 51
270.0034950891
  0
ARC
  5
33D
100
AcDbEntity
  8
RACCORDO
100
AcDbCircle
 62
253
  6
CONTINUOUS
 10
-15.5532771028
 20
19.0863498462
 40
2.0002153719
100
AcDbArc
 50
90.0112610624
 51
179.9888137454
  0
CIRCLE
  5
33E
100
AcDbEntity
  8
DRAFT
100
AcDbCircle
 62
7
  6
CONTINUOUS
 10
-22.1586772692
 20
14.1917500124
 40
1.5
  0
CIRCLE
  5
33F
100
AcDbEntity
  8
DRAFT
100
AcDbCircle
 62
7
  6
CONTINUOUS
 10
-22.1586772692
 20
14.1917500124
 40
1.4738174026
  0
ARC
  5
340
100
AcDbEntity
  8
RACCORDO
100
AcDbCircle
 62
253
  6
CONTINUOUS
 10
-17.1346475087
 20
10.4689517595
 40
1.4046778424
100
AcDbArc
 50
269.6596841408
 51
272.3367884371
  0
ARC
  5
341
100
AcDbEntity
  8
RACCORDO
100
AcDbCircle
 62
253
  6
CONTINUOUS
 10
-17.1507824001
 20
10.1708397756
 40
1.3065099228
100
AcDbArc
 50
269.9488976201
 51
273.8822388052
  0
ARC
  5
342
100
AcDbEntity
  8
RACCORDO
100
AcDbCircle
 62
253
  6
CONTINUOUS
 10
-15.5538249637
 20
19.0868977069
 40
0.4998923247
100
AcDbArc
 50
89.9965129553
 51
180.0034870447
  0
ARC
  5
343
100
AcDbEntity
  8
RACCORDO
100
AcDbCircle
 62
253
  6
CONTINUOUS
 10
-18.8620224829
 20
8.8950952262
 40
0.2000430908
100
AcDbArc
 50
90.0209441163
 51
179.9790558837
  0
ARC
  5
344
100
AcDbEntity
  8
RACCORDO
100
AcDbCircle
 62
253
  6
CONTINUOUS
 10
-17.7535325938
 20
9.2866053371
 40
0.200043091
100
AcDbArc
 50
270.020944239
 51
359.9790558351
  0
ARC
  5
345
100
AcDbEntity
  8
RACCORDO
100
AcDbCircle
 62
7
  6
CONTINUOUS
 10
-18.958719971
 20
8.9917927143
 40
0.1999569277
100
AcDbArc
 50
89.9964925066
 51
180.0035074934
  0
CIRCLE
  5
346
100
AcDbEntity
  8
RACCORDO
100
AcDbCircle
 62
253
  6
CONTINUOUS
 10
2.3413227308
 20
-12.3082499876
 40
2.2413486316
  0
CIRCLE
  5
347
100
AcDbEntity
  8
RACCORDO
100
AcDbCircle
 62
253
  6
CONTINUOUS
 10
7.3413227308
 20
-12.3082499876
 40
2.2413486316
  0
CIRCLE
  5
348
100
AcDbEntity
  8
RACCORDO
100
AcDbCircle
 62
253
  6
CONTINUOUS
 10
12.3413227308
 20
-12.3082499876
 40
2.2413486316
  0
ARC
  5
349
100
AcDbEntity
  8
RACCORDO
100
AcDbCircle
 62
253
  6
CONTINUOUS
 10
20.2359223993
 20
-16.7028496561
 40
2.0002153719
100
AcDbArc
 50
270.0112657923
 51
359.9888090155
  0
CIRCLE
  5
34A
100
AcDbEntity
  8
RACCORDO
100
AcDbCircle
 62
253
  6
CONTINUOUS
 10
2.3413227308
 20
-12.3082499876
 40
1.741424784
  0
CIRCLE
  5
34B
100
AcDbEntity
  8
RACCORDO
100
AcDbCircle
 62
253
  6
CONTINUOUS
 10
12.3413227308
 20
-12.3082499876
 40
1.741424784
  0
CIRCLE
  5
34C
100
AcDbEntity
  8
RACCORDO
100
AcDbCircle
 62
253
  6
CONTINUOUS
 10
7.3413227308
 20
-12.3082499876
 40
1.741424784
  0
CIRCLE
  5
34D
100
AcDbEntity
  8
DRAFT
100
AcDbCircle
 62
7
  6
CONTINUOUS
 10
2.3413227308
 20
-12.3082499876
 40
1.7325449351
  0
CIRCLE
  5
34E
100
AcDbEntity
  8
DRAFT
100
AcDbCircle
 62
7
  6
CONTINUOUS
 10
12.3413227308
 20
-12.3082499876
 40
1.7325449351
  0
CIRCLE
  5
34F
100
AcDbEntity
  8
DRAFT
100
AcDbCircle
 62
7
  6
CONTINUOUS
 10
7.3413227308
 20
-12.3082499876
 40
1.7325449351
  0
CIRCLE
  5
350
100
AcDbEntity
  8
DRAFT
100
AcDbCircle
 62
7
  6
CONTINUOUS
 10
2.3413227308
 20
-23.3082499876
 40
1.5
  0
CIRCLE
  5
351
100
AcDbEntity
  8
DRAFT
100
AcDbCircle
 62
7
  6
CONTINUOUS
 10
2.3413227308
 20
-23.3082499876
 40
1.4738174026
  0
ARC
  5
352
100
AcDbEntity
  8
RACCORDO
100
AcDbCircle
 62
253
  6
CONTINUOUS
 10
21.8172929703
 20
-8.0854517345
 40
1.4046778423
100
AcDbArc
 50
89.6596841407
 51
92.3367884367
  0
ARC
  5
353
100
AcDbEntity
  8
RACCORDO
100
AcDbCircle
 62
253
  6
CONTINUOUS
 10
21.8334076576
 20
-7.7862173889
 40
1.3053875224
100
AcDbArc
 50
89.9479668891
 51
93.8814895862
  0
ARC
  5
354
100
AcDbEntity
  8
RACCORDO
100
AcDbCircle
 62
253
  6
CONTINUOUS
 10
20.2364702221
 20
-16.7033974789
 40
0.4998925746
100
AcDbArc
 50
269.9965362484
 51
0.0034637516
  0
ARC
  5
355
100
AcDbEntity
  8
RACCORDO
100
AcDbCircle
 62
253
  6
CONTINUOUS
 10
22.4361781046
 20
-6.9031053614
 40
0.200043091
100
AcDbArc
 50
90.0209583078
 51
179.9790417663
  0
ARC
  5
356
100
AcDbEntity
  8
RACCORDO
100
AcDbCircle
 62
253
  6
CONTINUOUS
 10
23.5446679444
 20
-6.5115952012
 40
0.200043091
100
AcDbArc
 50
270.0209441447
 51
359.9790558369
  0
ARC
  5
357
100
AcDbEntity
  8
RACCORDO
100
AcDbCircle
 62
7
  6
CONTINUOUS
 10
23.6413653893
 20
-6.6082926461
 40
0.1999569277
100
AcDbArc
 50
269.9965049109
 51
0.0034950891
  0
ARC
  5
358
100
AcDbEntity
  8
RACCORDO
100
AcDbCircle
 62
253
  6
CONTINUOUS
 10
20.2359223994
 20
19.0863496809
 40
2.0002153719
100
AcDbArc
 50
0.0112657923
 51
89.9888090155
  0
ARC
  5
359
100
AcDbEntity
  8
RACCORDO
100
AcDbCircle
 62
253
  6
CONTINUOUS
 10
21.8172933463
 20
10.4692488806
 40
1.4049743985
100
AcDbArc
 50
267.6636462967
 51
270.340060121
  0
ARC
  5
35A
100
AcDbEntity
  8
RACCORDO
100
AcDbCircle
 62
253
  6
CONTINUOUS
 10
21.8334149809
 20
10.1699269478
 40
1.3055968973
100
AcDbArc
 50
266.1187218486
 51
270.0514957026
  0
ARC
  5
35B
100
AcDbEntity
  8
RACCORDO
100
AcDbCircle
 62
253
  6
CONTINUOUS
 10
20.2364702221
 20
19.0868975037
 40
0.4998925746
100
AcDbArc
 50
359.9965362486
 51
90.0034637515
  0
ARC
  5
35C
100
AcDbEntity
  8
RACCORDO
100
AcDbCircle
 62
253
  6
CONTINUOUS
 10
23.5446679446
 20
8.8950952262
 40
0.2000430908
100
AcDbArc
 50
0.0209441029
 51
89.9790558971
  0
ARC
  5
35D
100
AcDbEntity
  8
RACCORDO
100
AcDbCircle
 62
253
  6
CONTINUOUS
 10
22.4361781046
 20
9.2866053863
 40
0.200043091
100
AcDbArc
 50
180.0209582422
 51
269.9790417578
  0
ARC
  5
35E
100
AcDbEntity
  8
RACCORDO
100
AcDbCircle
 62
7
  6
CONTINUOUS
 10
23.6413654326
 20
8.9917927143
 40
0.1999569277
100
AcDbArc
 50
359.9964925066
 51
90.0035074934
  0
ARC
  5
35F
100
AcDbEntity
  8
RACCORDO
100
AcDbCircle
 62
7
  6
CONTINUOUS
 10
-68.1779386632
 20
-17.2032886652
 40
1.5
100
AcDbArc
 50
180.0000932299
 51
269.0000016271
  0
ARC
  5
360
100
AcDbEntity
  8
RACCORDO
100
AcDbCircle
 62
253
  6
CONTINUOUS
 10
-69.4760942795
 20
-6.4810628432
 40
0.1997669716
100
AcDbArc
 50
209.6281709308
 51
268.9882490395
  0
ARC
  5
361
100
AcDbEntity
  8
RACCORDO
100
AcDbCircle
 62
253
  6
CONTINUOUS
 10
-69.4779810975
 20
-6.4836479739
 40
0.1996076242
100
AcDbArc
 50
256.4604015948
 51
263.4253998581
  0
ARC
  5
362
100
AcDbEntity
  8
RACCORDO
100
AcDbCircle
 62
7
  6
CONTINUOUS
 10
-68.1779386632
 20
19.58678869
 40
1.5
100
AcDbArc
 50
90.9999983729
 51
179.9999067701
  0
ARC
  5
363
100
AcDbEntity
  8
RACCORDO
100
AcDbCircle
 62
253
  6
CONTINUOUS
 10
-69.4688531495
 20
9.2829972685
 40
0.2152335984
100
AcDbArc
 50
214.9568565467
 51
217.2495677146
  0
ARC
  5
364
100
AcDbEntity
  8
RACCORDO
100
AcDbCircle
 62
253
  6
CONTINUOUS
 10
-69.4760944863
 20
8.8645632795
 40
0.1997670901
100
AcDbArc
 50
91.0116986609
 51
150.3719182649
  0
ARC
  5
365
100
AcDbEntity
  8
RACCORDO
100
AcDbCircle
 62
253
  6
CONTINUOUS
 10
-69.4779786322
 20
8.8671437606
 40
0.1996115339
100
AcDbArc
 50
96.5750490358
 51
103.5399172382
  0
ARC
  5
366
100
AcDbEntity
  8
RACCORDO
100
AcDbCircle
 62
253
  6
CONTINUOUS
 10
-55.8687853861
 20
-17.1470089949
 40
3.6914968175
100
AcDbArc
 50
351.33269876
 51
352.5171831848
  0
ARC
  5
367
100
AcDbEntity
  8
RACCORDO
100
AcDbCircle
 62
253
  6
CONTINUOUS
 10
-55.7598042936
 20
-17.1591478749
 40
3.5818662059
100
AcDbArc
 50
352.4826891321
 51
359.9919128884
  0
ARC
  5
368
100
AcDbEntity
  8
RACCORDO
100
AcDbCircle
 62
7
  6
CONTINUOUS
 10
-56.6779386632
 20
-3.7117901463
 40
3.0
100
AcDbArc
 50
271.0
 51
360.0
  0
ARC
  5
369
100
AcDbEntity
  8
RACCORDO
100
AcDbCircle
 62
253
  6
CONTINUOUS
 10
-56.6744492413
 20
-3.7117891053
 40
2.8000010593
100
AcDbArc
 50
271.0000213019
 51
359.9999786981
  0
ARC
  5
36A
100
AcDbEntity
  8
RACCORDO
100
AcDbCircle
 62
253
  6
CONTINUOUS
 10
-53.6815543638
 20
-17.2592898847
 40
1.7003583765
100
AcDbArc
 50
271.0040139547
 51
320.239098102
  0
ARC
  5
36B
100
AcDbEntity
  8
RACCORDO
100
AcDbCircle
 62
7
  6
CONTINUOUS
 10
-53.6779386632
 20
-17.1596534436
 40
1.5
100
AcDbArc
 50
271.0
 51
359.9994538733
  0
ARC
  5
36C
100
AcDbEntity
  8
RACCORDO
100
AcDbCircle
 62
7
  6
CONTINUOUS
 10
-52.6779386632
 20
-27.1423433827
 40
0.5
100
AcDbArc
 50
270.9999853529
 51
359.9991607269
  0
ARC
  5
36D
100
AcDbEntity
  8
RACCORDO
100
AcDbCircle
 62
7
  6
CONTINUOUS
 10
-57.1779386632
 20
-3.2208984989
 40
0.5
100
AcDbArc
 50
271.0
 51
360.0
  0
ARC
  5
36E
100
AcDbEntity
  8
RACCORDO
100
AcDbCircle
 62
7
  6
CONTINUOUS
 10
-56.9779386632
 20
-3.1674379515
 40
0.3
100
AcDbArc
 50
271.0
 51
356.4767021265
  0
ARC
  5
36F
100
AcDbEntity
  8
RACCORDO
100
AcDbCircle
 62
7
  6
CONTINUOUS
 10
-52.3779386632
 20
-19.6871598857
 40
0.2
100
AcDbArc
 50
271.0
 51
360.0
  0
ARC
  5
370
100
AcDbEntity
  8
RACCORDO
100
AcDbCircle
 62
253
  6
CONTINUOUS
 10
-55.8688829157
 20
19.5304739727
 40
3.6915981617
100
AcDbArc
 50
7.4831891125
 51
8.673900991
  0
ARC
  5
371
100
AcDbEntity
  8
RACCORDO
100
AcDbCircle
 62
253
  6
CONTINUOUS
 10
-55.7807030252
 20
19.5412727058
 40
3.6027662824
100
AcDbArc
 50
0.0299102863
 51
7.4955403334
  0
ARC
  5
372
100
AcDbEntity
  8
RACCORDO
100
AcDbCircle
 62
7
  6
CONTINUOUS
 10
-56.6779386632
 20
6.0952901712
 40
3.0
100
AcDbArc
 50
0.0
 51
89.0
  0
ARC
  5
373
100
AcDbEntity
  8
RACCORDO
100
AcDbCircle
 62
253
  6
CONTINUOUS
 10
-56.6744492409
 20
6.0952891306
 40
2.800001059
100
AcDbArc
 50
0.0000212942
 51
88.9999787058
  0
ARC
  5
374
100
AcDbEntity
  8
RACCORDO
100
AcDbCircle
 62
253
  6
CONTINUOUS
 10
-53.6815585955
 20
19.6427922063
 40
1.7003559464
100
AcDbArc
 50
39.760527631
 51
88.9958421164
  0
ARC
  5
375
100
AcDbEntity
  8
RACCORDO
100
AcDbCircle
 62
7
  6
CONTINUOUS
 10
-53.6779386632
 20
19.5431534685
 40
1.5
100
AcDbArc
 50
0.0001315338
 51
89.0
  0
ARC
  5
376
100
AcDbEntity
  8
RACCORDO
100
AcDbCircle
 62
7
  6
CONTINUOUS
 10
-57.1779386632
 20
5.6043985238
 40
0.5
100
AcDbArc
 50
0.0
 51
89.0
  0
ARC
  5
377
100
AcDbEntity
  8
RACCORDO
100
AcDbCircle
 62
7
  6
CONTINUOUS
 10
-56.9779386632
 20
5.5509379764
 40
0.3
100
AcDbArc
 50
3.4974966883
 51
89.0
  0
ARC
  5
378
100
AcDbEntity
  8
RACCORDO
100
AcDbCircle
 62
7
  6
CONTINUOUS
 10
-52.3779386632
 20
22.0706599105
 40
0.2
100
AcDbArc
 50
0.0
 51
89.0
  0
SPLINE
  5
379
100
AcDbEntity
  8
RACCORDO
100
AcDbSpline
 62
7
  6
CONTINUOUS
 70
0
 71
3
 72
9
 73
5
 74
3
 42
0.0000001
 43
0.0000001
 44
0.0000000001
 12
-0.0729924221
 22
-0.0326838804
 32
0.0
 13
-0.0799758071
 23
0.0
 33
0.0
 40
0.0
 40
0.0
 40
0.0
 40
0.0
 40
0.2431273815
 40
1.0
 40
1.0
 40
1.0
 40
1.0
 10
-15.2774745177
 20
-18.7908072958
 30
0.0
 10
-15.2833900032
 20
-18.7934560779
 30
0.0
 10
-15.3082020467
 20
-18.803185001
 30
0.0
 10
-15.3350395556
 20
-18.8082499876
 30
0.0
 10
-15.3552167218
 20
-18.8082499876
 30
0.0
 11
-15.2774745177
 21
-18.7908072958
 31
0.0
 11
-15.2955747047
 21
-18.7979111235
 31
0.0
 11
-15.3552167218
 21
-18.8082499876
 31
0.0
  0
SPLINE
  5
37A
100
AcDbEntity
  8
RACCORDO
100
AcDbSpline
 62
253
  6
CONTINUOUS
 70
0
 71
3
 72
8
 73
4
 74
2
 42
0.0000001
 43
0.0000001
 44
0.0000000001
 12
0.3796558893
 22
0.1816865666
 32
0.0
 13
0.3681966166
 23
0.2039113881
 33
0.0
 40
0.0
 40
0.0
 40
0.0
 40
0.0
 40
1.0
 40
1.0
 40
1.0
 40
1.0
 10
-16.4260256321
 20
9.0608370255
 30
0.0
 10
-16.2994736691
 20
9.1213992143
 30
0.0
 10
-16.1765461395
 20
9.189353342
 30
0.0
 10
-16.0538139339
 20
9.2573238047
 30
0.0
 11
-16.4260256321
 21
9.0608370255
 31
0.0
 11
-16.0538139339
 21
9.2573238047
 31
0.0
  0
SPLINE
  5
37B
100
AcDbEntity
  8
RACCORDO
100
AcDbSpline
 62
253
  6
CONTINUOUS
 70
0
 71
3
 72
9
 73
5
 74
3
 42
0.0000001
 43
0.0000001
 44
0.0000000001
 12
-0.418920502
 22
-0.1005666973
 32
0.0
 13
-0.4208348889
 23
-0.0922282163
 33
0.0
 40
0.0
 40
0.0
 40
0.0
 40
0.0
 40
0.2508883164
 40
1.0
 40
1.0
 40
1.0
 40
1.0
 10
-16.0537183876
 20
9.2573764781
 30
0.0
 10
-16.088752474
 20
9.2489661416
 30
0.0
 10
-16.2284012279
 20
9.2154859109
 30
0.0
 10
-16.3682297032
 20
9.182706048
 30
0.0
 10
-16.473313814
 20
9.1596763032
 30
0.0
 11
-16.0537183876
 21
9.2573764781
 31
0.0
 11
-16.1588362681
 21
9.2322106288
 31
0.0
 11
-16.473313814
 21
9.1596763032
 31
0.0
  0
SPLINE
  5
37C
100
AcDbEntity
  8
RACCORDO
100
AcDbSpline
 62
253
  6
CONTINUOUS
 70
0
 71
3
 72
9
 73
5
 74
3
 42
0.0000001
 43
0.0000001
 44
0.0000000001
 12
-0.597694759
 22
-0.1309568487
 32
0.0
 13
-0.611364832
 23
-0.0249351831
 33
0.0
 40
0.0
 40
0.0
 40
0.0
 40
0.0
 40
0.5044414304
 40
1.0
 40
1.0
 40
1.0
 40
1.0
 10
-16.473314201
 20
9.1596771121
 30
0.0
 10
-16.5738148674
 20
9.137657092
 30
0.0
 10
-16.7735485601
 20
9.0966716039
 30
0.0
 10
-16.976385109
 20
9.0695615418
 30
0.0
 10
-17.0773741362
 20
9.0654425939
 30
0.0
 11
-16.473314201
 21
9.1596771121
 31
0.0
 11
-16.7761123231
 21
9.0998382925
 31
0.0
 11
-17.0773741362
 21
9.0654425939
 31
0.0
  0
SPLINE
  5
37D
100
AcDbEntity
  8
RACCORDO
100
AcDbSpline
 62
253
  6
CONTINUOUS
 70
0
 71
3
 72
9
 73
5
 74
3
 42
0.0000001
 43
0.0000001
 44
0.0000000001
 12
-0.4208241249
 22
0.0922290269
 32
0.0
 13
-0.4189142973
 23
0.1005482424
 33
0.0
 40
0.0
 40
0.0
 40
0.0
 40
0.0
 40
0.2487844333
 40
1.0
 40
1.0
 40
1.0
 40
1.0
 10
21.1559461974
 20
9.1596762489
 30
0.0
 10
21.1210480336
 20
9.1673246309
 30
0.0
 10
20.980926506
 20
9.1987688405
 30
0.0
 10
20.8412621629
 20
9.2321986765
 30
0.0
 10
20.7363638492
 20
9.2573764781
 30
0.0
 11
21.1559461974
 21
9.1596762489
 31
0.0
 11
21.0513562208
 21
9.1830931884
 31
0.0
 11
20.7363638492
 21
9.2573764781
 31
0.0
  0
SPLINE
  5
37E
100
AcDbEntity
  8
RACCORDO
100
AcDbSpline
 62
253
  6
CONTINUOUS
 70
0
 71
3
 72
8
 73
4
 74
2
 42
0.0000001
 43
0.0000001
 44
0.0000000001
 12
-0.3796882048
 22
-0.1816193808
 32
0.0
 13
-0.3680720311
 23
-0.2041365041
 33
0.0
 40
0.0
 40
0.0
 40
0.0
 40
0.0
 40
1.0
 40
1.0
 40
1.0
 40
1.0
 10
21.1086710938
 20
-6.6773370006
 30
0.0
 10
20.9821083588
 20
-6.7378767942
 30
0.0
 10
20.8591500725
 20
-6.8057786083
 30
0.0
 10
20.7364593955
 20
-6.8738241097
 30
0.0
 11
21.1086710938
 21
-6.6773370006
 31
0.0
 11
20.7364593955
 21
-6.8738241097
 31
0.0
  0
SPLINE
  5
37F
100
AcDbEntity
  8
RACCORDO
100
AcDbSpline
 62
253
  6
CONTINUOUS
 70
0
 71
3
 72
9
 73
5
 74
3
 42
0.0000001
 43
0.0000001
 44
0.0000000001
 12
0.4188924023
 22
0.1006843289
 32
0.0
 13
0.420840675
 23
0.0922025218
 33
0.0
 40
0.0
 40
0.0
 40
0.0
 40
0.0
 40
0.2508683074
 40
1.0
 40
1.0
 40
1.0
 40
1.0
 10
20.7363638492
 20
-6.8738764532
 30
0.0
 10
20.7713927918
 20
-6.8654569508
 30
0.0
 10
20.9110420842
 20
-6.831978708
 30
0.0
 10
21.0508710645
 20
-6.799200538
 30
0.0
 10
21.1559594269
 20
-6.7761765943
 30
0.0
 11
20.7363638492
 21
-6.8738764532
 31
0.0
 11
20.8414712637
 21
-6.8487037496
 31
0.0
 11
21.1559594269
 21
-6.7761765943
 31
0.0
  0
SPLINE
  5
380
100
AcDbEntity
  8
RACCORDO
100
AcDbSpline
 62
253
  6
CONTINUOUS
 70
0
 71
3
 72
17
 73
13
 74
11
 42
0.0000001
 43
0.0000001
 44
0.0000000001
 12
-0.1869510032
 22
-0.0727413117
 32
0.0
 13
-0.0001561775
 23
-0.2006039671
 33
0.0
 40
0.0
 40
0.0
 40
0.0
 40
0.0
 40
0.0077200609
 40
0.0240238114
 40
0.0492431879
 40
0.0832979777
 40
0.1768394513
 40
0.3010186626
 40
0.4513931753
 40
0.6224649668
 40
0.8080142776
 40
1.0
 40
1.0
 40
1.0
 40
1.0
 10
-17.1429907294
 20
9.064298695
 30
0.0
 10
-17.1434718205
 20
9.0641115059
 30
0.0
 10
-17.1441105959
 20
9.0623573855
 30
0.0
 10
-17.1448918634
 20
9.0593571963
 30
0.0
 10
-17.1456828323
 20
9.0542596758
 30
0.0
 10
-17.1468700955
 20
9.0441677644
 30
0.0
 10
-17.148134586
 20
9.0273327671
 30
0.0
 10
-17.1494243568
 20
9.0027715262
 30
0.0
 10
-17.150489105
 20
8.9729842403
 30
0.0
 10
-17.1513003411
 20
8.9390939
 30
0.0
 10
-17.1518078728
 20
8.9024119124
 30
0.0
 10
-17.1519377201
 20
8.8771670377
 30
0.0
 10
-17.1519477147
 20
8.8643293385
 30
0.0
 11
-17.1429907294
 21
9.064298695
 31
0.0
 11
-17.1438557579
 21
9.0630141246
 31
0.0
 11
-17.144715845
 21
9.0598586434
 31
0.0
 11
-17.1455614322
 21
9.0548707019
 31
0.0
 11
-17.1463829612
 21
9.0480887505
 31
0.0
 11
-17.1479196915
 21
9.0293869847
 31
0.0
 11
-17.1492699704
 21
9.0045127572
 31
0.0
 11
-17.1503841317
 21
8.9743676069
 31
0.0
 11
-17.1512217866
 21
8.940060141
 31
0.0
 11
-17.1517489175
 21
8.9028419347
 31
0.0
 11
-17.1519477147
 21
8.8643293385
 31
0.0
  0
SPLINE
  5
381
100
AcDbEntity
  8
RACCORDO
100
AcDbSpline
 62
253
  6
CONTINUOUS
 70
0
 71
3
 72
17
 73
13
 74
11
 42
0.0000001
 43
0.0000001
 44
0.0000000001
 12
0.0001560859
 22
-0.2006041296
 32
0.0
 13
0.1869509191
 23
-0.0727419757
 33
0.0
 40
0.0
 40
0.0
 40
0.0
 40
0.0
 40
0.1919858577
 40
0.37753531
 40
0.5486072266
 40
0.6989818266
 40
0.8231610649
 40
0.9167024905
 40
0.9507572218
 40
0.9759765128
 40
0.9922801399
 40
1.0
 40
1.0
 40
1.0
 40
1.0
 10
-17.1519429858
 20
-6.4808296134
 30
0.0
 10
-17.151932997
 20
-6.4936673321
 30
0.0
 10
-17.151803169
 20
-6.5189122458
 30
0.0
 10
-17.1512956842
 20
-6.5555942906
 30
0.0
 10
-17.1504845081
 20
-6.5894846832
 30
0.0
 10
-17.1494198317
 20
-6.6192720122
 30
0.0
 10
-17.1481301414
 20
-6.6438332801
 30
0.0
 10
-17.1468657319
 20
-6.6606682947
 30
0.0
 10
-17.1456785377
 20
-6.6707602049
 30
0.0
 10
-17.1448876245
 20
-6.6758577273
 30
0.0
 10
-17.1441063928
 20
-6.6788578871
 30
0.0
 10
-17.1434676742
 20
-6.6806120172
 30
0.0
 10
-17.1429865959
 20
-6.6807992032
 30
0.0
 11
-17.1519429858
 21
-6.4808296134
 31
0.0
 11
-17.1517442174
 21
-6.519342268
 31
0.0
 11
-17.1512171341
 21
-6.5565605336
 31
0.0
 11
-17.1503795411
 21
-6.5908680539
 31
0.0
 11
-17.149265454
 21
-6.6210132489
 31
0.0
 11
-17.1479152605
 21
-6.6458875067
 31
0.0
 11
-17.146378625
 21
-6.6645892858
 31
0.0
 11
-17.1455571464
 21
-6.6713712371
 31
0.0
 11
-17.1447116105
 21
-6.6763591741
 31
0.0
 11
-17.1438515745
 21
-6.6795146463
 31
0.0
 11
-17.1429865959
 21
-6.6807992032
 31
0.0
  0
SPLINE
  5
382
100
AcDbEntity
  8
RACCORDO
100
AcDbSpline
 62
253
  6
CONTINUOUS
 70
0
 71
3
 72
9
 73
5
 74
3
 42
0.0000001
 43
0.0000001
 44
0.0000000001
 12
0.611376619
 22
-0.0249316035
 32
0.0
 13
0.5977079864
 23
-0.1309508232
 33
0.0
 40
0.0
 40
0.0
 40
0.0
 40
0.0
 40
0.4955579969
 40
1.0
 40
1.0
 40
1.0
 40
1.0
 10
-17.077373073
 20
-6.6819429581
 30
0.0
 10
-16.9763822155
 20
-6.68606131
 30
0.0
 10
-16.7735419032
 20
-6.7131732666
 30
0.0
 10
-16.5738042722
 20
-6.7541583036
 30
0.0
 10
-16.4733012676
 20
-6.7761773354
 30
0.0
 11
-17.077373073
 21
-6.6819429581
 31
0.0
 11
-16.7761058872
 21
-6.7163393234
 31
0.0
 11
-16.4733012676
 21
-6.7761773354
 31
0.0
  0
SPLINE
  5
383
100
AcDbEntity
  8
RACCORDO
100
AcDbSpline
 62
253
  6
CONTINUOUS
 70
0
 71
3
 72
8
 73
4
 74
2
 42
0.0000001
 43
0.0000001
 44
0.0000000001
 12
-0.3681687412
 22
0.2040231451
 32
0.0
 13
-0.3797183649
 23
0.1816249684
 33
0.0
 40
0.0
 40
0.0
 40
0.0
 40
0.0
 40
1.0
 40
1.0
 40
1.0
 40
1.0
 10
-16.0537829961
 20
-6.8738410619
 30
0.0
 10
-16.1765059098
 20
-6.8058333469
 30
0.0
 10
-16.2994464495
 20
-6.7378786567
 30
0.0
 10
-16.4260192378
 20
-6.6773370006
 30
0.0
 11
-16.0537829961
 21
-6.8738410619
 31
0.0
 11
-16.4260192378
 21
-6.6773370006
 31
0.0
  0
SPLINE
  5
384
100
AcDbEntity
  8
RACCORDO
100
AcDbSpline
 62
253
  6
CONTINUOUS
 70
0
 71
3
 72
9
 73
5
 74
3
 42
0.0000001
 43
0.0000001
 44
0.0000000001
 12
0.4208300173
 22
-0.0922034388
 32
0.0
 13
0.4188980429
 23
-0.1006171318
 33
0.0
 40
0.0
 40
0.0
 40
0.0
 40
0.0
 40
0.2487674621
 40
1.0
 40
1.0
 40
1.0
 40
1.0
 10
-16.4733012033
 20
-6.7761772011
 30
0.0
 10
-16.4384049315
 20
-6.7838229396
 30
0.0
 10
-16.2982827217
 20
-6.8152644594
 30
0.0
 10
-16.1586150009
 20
-6.8486808321
 30
0.0
 10
-16.0537183876
 20
-6.8738764532
 30
0.0
 11
-16.4733012033
 21
-6.7761772011
 31
0.0
 11
-16.3687173647
 21
-6.799588408
 31
0.0
 11
-16.0537183876
 21
-6.8738764532
 31
0.0
  0
SPLINE
  5
385
100
AcDbEntity
  8
RACCORDO
100
AcDbSpline
 62
253
  6
CONTINUOUS
 70
0
 71
3
 72
17
 73
13
 74
11
 42
0.0000001
 43
0.0000001
 44
0.0000000001
 12
-0.0001560859
 22
0.2006041296
 32
0.0
 13
-0.1869509191
 23
0.0727419757
 33
0.0
 40
0.0
 40
0.0
 40
0.0
 40
0.0
 40
0.1919858577
 40
0.37753531
 40
0.5486072266
 40
0.6989818266
 40
0.8231610649
 40
0.9167024905
 40
0.9507572218
 40
0.9759765128
 40
0.9922801399
 40
1.0
 40
1.0
 40
1.0
 40
1.0
 10
21.8345884474
 20
8.8643296383
 30
0.0
 10
21.8345784586
 20
8.8771673569
 30
0.0
 10
21.8344486306
 20
8.9024122706
 30
0.0
 10
21.8339411459
 20
8.9390943155
 30
0.0
 10
21.8331299698
 20
8.972984708
 30
0.0
 10
21.8320652934
 20
9.0027720371
 30
0.0
 10
21.830775603
 20
9.027333305
 30
0.0
 10
21.8295111936
 20
9.0441683196
 30
0.0
 10
21.8283239993
 20
9.0542602298
 30
0.0
 10
21.8275330861
 20
9.0593577522
 30
0.0
 10
21.8267518544
 20
9.062357912
 30
0.0
 10
21.8261131358
 20
9.0641120421
 30
0.0
 10
21.8256320575
 20
9.0642992281
 30
0.0
 11
21.8345884474
 21
8.8643296383
 31
0.0
 11
21.834389679
 21
8.9028422929
 31
0.0
 11
21.8338625957
 21
8.9400605585
 31
0.0
 11
21.8330250027
 21
8.9743680787
 31
0.0
 11
21.8319109156
 21
9.0045132738
 31
0.0
 11
21.8305607221
 21
9.0293875315
 31
0.0
 11
21.8290240866
 21
9.0480893107
 31
0.0
 11
21.828202608
 21
9.0548712619
 31
0.0
 11
21.8273570721
 21
9.059859199
 31
0.0
 11
21.8264970362
 21
9.0630146712
 31
0.0
 11
21.8256320575
 21
9.0642992281
 31
0.0
  0
SPLINE
  5
386
100
AcDbEntity
  8
RACCORDO
100
AcDbSpline
 62
253
  6
CONTINUOUS
 70
0
 71
3
 72
9
 73
5
 74
3
 42
0.0000001
 43
0.0000001
 44
0.0000000001
 12
-0.6113769752
 22
0.0249223934
 32
0.0
 13
-0.5977019688
 23
0.1309781966
 33
0.0
 40
0.0
 40
0.0
 40
0.0
 40
0.0
 40
0.4955633204
 40
1.0
 40
1.0
 40
1.0
 40
1.0
 10
21.7600185557
 20
9.0654432609
 30
0.0
 10
21.6590265544
 20
9.0695601355
 30
0.0
 10
21.4561870383
 20
9.0966781103
 30
0.0
 10
21.2564475574
 20
9.1376537408
 30
0.0
 10
21.1559466252
 20
9.159677143
 30
0.0
 11
21.7600185557
 21
9.0654432609
 31
0.0
 11
21.4587482222
 21
9.0998406875
 31
0.0
 11
21.1559466252
 21
9.159677143
 31
0.0
  0
SPLINE
  5
387
100
AcDbEntity
  8
RACCORDO
100
AcDbSpline
 62
253
  6
CONTINUOUS
 70
0
 71
3
 72
23
 73
19
 74
17
 42
0.0000001
 43
0.0000001
 44
0.0000000001
 12
-1.9109873374
 22
-0.0013484499
 32
0.0
 13
-1.4228959987
 23
-1.2756337245
 33
0.0
 40
0.0
 40
0.0
 40
0.0
 40
0.0
 40
0.195167816
 40
0.3817539351
 40
0.5531442846
 40
0.631214408
 40
0.7032650651
 40
0.768650013
 40
0.8267995817
 40
0.8771867799
 40
0.9193781845
 40
0.9529899242
 40
0.9664891678
 40
0.9777420562
 40
0.986721823
 40
0.9934180203
 40
0.9978310344
 40
1.0
 40
1.0
 40
1.0
 40
1.0
 10
-17.1519429499
 20
-6.4808305529
 30
0.0
 10
-17.2762640249
 20
-6.4809182776
 30
0.0
 10
-17.5194396104
 20
-6.481440903
 30
0.0
 10
-17.8717859702
 20
-6.48328842
 30
0.0
 10
-18.1495361593
 20
-6.4857056611
 30
0.0
 10
-18.3543227716
 20
-6.4881723493
 30
0.0
 10
-18.4915846187
 20
-6.4901724299
 30
0.0
 10
-18.6161526639
 20
-6.4923615475
 30
0.0
 10
-18.7269150697
 20
-6.4947170046
 30
0.0
 10
-18.8228972019
 20
-6.4972128291
 30
0.0
 10
-18.9032357785
 20
-6.4998249923
 30
0.0
 10
-18.9600787051
 20
-6.5021919216
 30
0.0
 10
-18.9971935312
 20
-6.5042200217
 30
0.0
 10
-19.0186527641
 20
-6.505617678
 30
0.0
 10
-19.0357011279
 20
-6.5070683778
 30
0.0
 10
-19.0485402827
 20
-6.5083669403
 30
0.0
 10
-19.0566653034
 20
-6.5098842357
 30
0.0
 10
-19.0610364088
 20
-6.5107460571
 30
0.0
 10
-19.0620651463
 20
-6.5116683257
 30
0.0
 11
-17.1519429499
 21
-6.4808305529
 31
0.0
 11
-17.5249053691
 21
-6.4816493146
 31
0.0
 11
-17.8814640845
 21
-6.483553473
 31
0.0
 11
-18.2089759354
 21
-6.4864736376
 31
0.0
 11
-18.3581560073
 21
-6.4882838453
 31
0.0
 11
-18.4958290776
 21
-6.4903065066
 31
0.0
 11
-18.6207592398
 21
-6.4925238766
 31
0.0
 11
-18.731856605
 21
-6.4949160694
 31
0.0
 11
-18.8281122598
 21
-6.4974621214
 31
0.0
 11
-18.9086950738
 21
-6.5001389017
 31
0.0
 11
-18.9728663453
 21
-6.5029227063
 31
0.0
 11
-18.9986238699
 21
-6.5043472972
 31
0.0
 11
-19.0200795727
 21
-6.5057897029
 31
0.0
 11
-19.0371778244
 21
-6.5072467922
 31
0.0
 11
-19.0498896868
 21
-6.5087148406
 31
0.0
 11
-19.0581928855
 21
-6.5101899759
 31
0.0
 11
-19.0620651463
 21
-6.5116683257
 31
0.0
  0
SPLINE
  5
388
100
AcDbEntity
  8
RACCORDO
100
AcDbSpline
 62
253
  6
CONTINUOUS
 70
0
 71
3
 72
23
 73
19
 74
17
 42
0.0000001
 43
0.0000001
 44
0.0000000001
 12
-1.910985636
 22
0.001348177
 32
0.0
 13
-1.4217200313
 23
1.2769416866
 33
0.0
 40
0.0
 40
0.0
 40
0.0
 40
0.0
 40
0.1951766462
 40
0.3817704111
 40
0.5531663575
 40
0.6312382638
 40
0.7032899377
 40
0.7686750735
 40
0.8268238818
 40
0.8772093149
 40
0.9193981592
 40
0.9530065976
 40
0.9665036581
 40
0.977753819
 40
0.9867302987
 40
0.9934230762
 40
0.9978330683
 40
1.0
 40
1.0
 40
1.0
 40
1.0
 10
-17.1519476824
 20
8.8643303725
 30
0.0
 10
-17.2762742715
 20
8.8644180834
 30
0.0
 10
-17.5194601348
 20
8.8649410936
 30
0.0
 10
-17.8718202409
 20
8.8667886558
 30
0.0
 10
-18.1495797526
 20
8.8692061281
 30
0.0
 10
-18.3543715289
 20
8.8716730305
 30
0.0
 10
-18.4916351547
 20
8.8736732663
 30
0.0
 10
-18.6162033695
 20
8.8758625466
 30
0.0
 10
-18.726964183
 20
8.8782181703
 30
0.0
 10
-18.8229429873
 20
8.8807141604
 30
0.0
 10
-18.9032766194
 20
8.8833264947
 30
0.0
 10
-18.9601143778
 20
8.8856935439
 30
0.0
 10
-18.9972239009
 20
8.8877217986
 30
0.0
 10
-19.0186779266
 20
8.8891195057
 30
0.0
 10
-19.0357201187
 20
8.8905703024
 30
0.0
 10
-19.0485532923
 20
8.8918689174
 30
0.0
 10
-19.0566723493
 20
8.893386262
 30
0.0
 10
-19.0610406984
 20
8.8942482177
 30
0.0
 10
-19.0620676218
 20
8.8951705662
 30
0.0
 11
-17.1519476824
 21
8.8643303725
 31
0.0
 11
-17.5249266432
 21
8.8651494244
 31
0.0
 11
-17.8814996514
 21
8.8670537624
 31
0.0
 11
-18.2090219045
 21
8.8699741813
 31
0.0
 11
-18.358205249
 21
8.871784542
 31
0.0
 11
-18.4958801375
 21
8.8738073641
 31
0.0
 11
-18.6208105446
 21
8.8760249046
 31
0.0
 11
-18.7319063537
 21
8.8784172734
 31
0.0
 11
-18.8281585437
 21
8.8809635029
 31
0.0
 11
-18.9087363846
 21
8.8836404622
 31
0.0
 11
-18.9729012762
 21
8.8864244495
 31
0.0
 11
-18.9986545944
 21
8.8878491335
 31
0.0
 11
-19.0201050477
 21
8.8892916338
 31
0.0
 11
-19.0371969716
 21
8.8907488174
 31
0.0
 11
-19.0499022336
 21
8.8922169535
 31
0.0
 11
-19.0581995461
 21
8.8936921629
 31
0.0
 11
-19.0620676218
 21
8.8951705662
 31
0.0
  0
SPLINE
  5
389
100
AcDbEntity
  8
RACCORDO
100
AcDbSpline
 62
253
  6
CONTINUOUS
 70
0
 71
3
 72
23
 73
19
 74
17
 42
0.0000001
 43
0.0000001
 44
0.0000000001
 12
1.9109873374
 22
0.0013484499
 32
0.0
 13
1.4228959987
 23
1.2756337245
 33
0.0
 40
0.0
 40
0.0
 40
0.0
 40
0.0
 40
0.195167816
 40
0.3817539351
 40
0.5531442846
 40
0.631214408
 40
0.7032650651
 40
0.768650013
 40
0.8267995817
 40
0.8771867799
 40
0.9193781845
 40
0.9529899242
 40
0.9664891678
 40
0.9777420562
 40
0.986721823
 40
0.9934180203
 40
0.9978310344
 40
1.0
 40
1.0
 40
1.0
 40
1.0
 10
21.8345884115
 20
8.8643305778
 30
0.0
 10
21.9589094865
 20
8.8644183025
 30
0.0
 10
22.202085072
 20
8.8649409279
 30
0.0
 10
22.5544314319
 20
8.8667884449
 30
0.0
 10
22.8321816209
 20
8.869205686
 30
0.0
 10
23.0369682333
 20
8.8716723742
 30
0.0
 10
23.1742300803
 20
8.8736724548
 30
0.0
 10
23.2987981255
 20
8.8758615724
 30
0.0
 10
23.4095605314
 20
8.8782170295
 30
0.0
 10
23.5055426635
 20
8.880712854
 30
0.0
 10
23.5858812401
 20
8.8833250172
 30
0.0
 10
23.6427241667
 20
8.8856919465
 30
0.0
 10
23.6798389928
 20
8.8877200466
 30
0.0
 10
23.7012982258
 20
8.8891177029
 30
0.0
 10
23.7183465895
 20
8.8905684027
 30
0.0
 10
23.7311857443
 20
8.8918669652
 30
0.0
 10
23.739310765
 20
8.8933842606
 30
0.0
 10
23.7436818704
 20
8.894246082
 30
0.0
 10
23.7447106079
 20
8.8951683505
 30
0.0
 11
21.8345884115
 21
8.8643305778
 31
0.0
 11
22.2075508307
 21
8.8651493395
 31
0.0
 11
22.5641095461
 21
8.8670534978
 31
0.0
 11
22.891621397
 21
8.8699736625
 31
0.0
 11
23.040801469
 21
8.8717838702
 31
0.0
 11
23.1784745392
 21
8.8738065314
 31
0.0
 11
23.3034047014
 21
8.8760239015
 31
0.0
 11
23.4145020666
 21
8.8784160942
 31
0.0
 11
23.5107577215
 21
8.8809621463
 31
0.0
 11
23.5913405354
 21
8.8836389266
 31
0.0
 11
23.6555118069
 21
8.8864227312
 31
0.0
 11
23.6812693316
 21
8.887847322
 31
0.0
 11
23.7027250344
 21
8.8892897278
 31
0.0
 11
23.7198232861
 21
8.8907468171
 31
0.0
 11
23.7325351484
 21
8.8922148655
 31
0.0
 11
23.7408383471
 21
8.8936900008
 31
0.0
 11
23.7447106079
 21
8.8951683505
 31
0.0
  0
SPLINE
  5
38A
100
AcDbEntity
  8
RACCORDO
100
AcDbSpline
 62
253
  6
CONTINUOUS
 70
0
 71
3
 72
23
 73
19
 74
17
 42
0.0000001
 43
0.0000001
 44
0.0000000001
 12
-1.4228924948
 22
1.275630544
 32
0.0
 13
-1.9109826054
 23
0.0013485177
 33
0.0
 40
0.0
 40
0.0
 40
0.0
 40
0.0
 40
0.0021689659
 40
0.0065819786
 40
0.013278173
 40
0.0222579354
 40
0.033510818
 40
0.0470100546
 40
0.0806217769
 40
0.1228131604
 40
0.1732003353
 40
0.2313498801
 40
0.2967348054
 40
0.3687854431
 40
0.4468555526
 40
0.6182458998
 40
0.8048320669
 40
1.0
 40
1.0
 40
1.0
 40
1.0
 10
23.7447106079
 20
-6.5116683257
 30
0.0
 10
23.7436818728
 20
-6.5107460593
 30
0.0
 10
23.7393107798
 20
-6.5098842382
 30
0.0
 10
23.7311857815
 20
-6.5083669459
 30
0.0
 10
23.7183466645
 20
-6.5070683849
 30
0.0
 10
23.7012983513
 20
-6.5056176874
 30
0.0
 10
23.6798391826
 20
-6.5042200331
 30
0.0
 10
23.6427244678
 20
-6.502191936
 30
0.0
 10
23.5858817111
 20
-6.4998250099
 30
0.0
 10
23.5055433729
 20
-6.4972128501
 30
0.0
 10
23.409561522
 20
-6.4947170282
 30
0.0
 10
23.298799435
 20
-6.4923615725
 30
0.0
 10
23.1742317403
 20
-6.4901724564
 30
0.0
 10
23.0369702688
 20
-6.4881723785
 30
0.0
 10
22.8321841863
 20
-6.4857056878
 30
0.0
 10
22.5544346649
 20
-6.4832884269
 30
0.0
 10
22.2020890737
 20
-6.4814409856
 30
0.0
 10
21.9589139857
 20
-6.4809181339
 30
0.0
 10
21.8345931439
 20
-6.4808304047
 30
0.0
 11
23.7447106079
 21
-6.5116683257
 31
0.0
 11
23.7408383567
 21
-6.5101899782
 31
0.0
 11
23.7325351814
 21
-6.5087148453
 31
0.0
 11
23.7198233563
 21
-6.5072467991
 31
0.0
 11
23.7027251555
 21
-6.505789712
 31
0.0
 11
23.6812695169
 21
-6.5043473084
 31
0.0
 11
23.6555120696
 21
-6.5029227196
 31
0.0
 11
23.5913409906
 21
-6.5001389189
 31
0.0
 11
23.5107584166
 21
-6.497462142
 31
0.0
 11
23.4145030447
 21
-6.4949160927
 31
0.0
 11
23.3034060003
 21
-6.4925239016
 31
0.0
 11
23.1784761907
 21
-6.4903065332
 31
0.0
 11
23.0408034985
 21
-6.4882838738
 31
0.0
 11
22.8916238226
 21
-6.4864736643
 31
0.0
 11
22.5641127871
 21
-6.4835534958
 31
0.0
 11
22.2075548631
 21
-6.4816493297
 31
0.0
 11
21.8345931439
 21
-6.4808304047
 31
0.0
  0
SPLINE
  5
38B
100
AcDbEntity
  8
RACCORDO
100
AcDbSpline
 62
253
  6
CONTINUOUS
 70
0
 71
3
 72
9
 73
5
 74
3
 42
0.0000001
 43
0.0000001
 44
0.0000000001
 12
0.6659351876
 22
0.0504466079
 32
0.0
 13
0.6024251791
 23
0.2882679966
 33
0.0
 40
0.0
 40
0.0
 40
0.0
 40
0.0
 40
0.4996478224
 40
1.0
 40
1.0
 40
1.0
 40
1.0
 10
-17.062323821
 20
8.8673313147
 30
0.0
 10
-16.9514127989
 20
8.8757331607
 30
0.0
 10
-16.7318600294
 20
8.92572734
 30
0.0
 10
-16.5265005489
 20
9.0127585189
 30
0.0
 10
-16.4260256321
 20
9.0608370255
 30
0.0
 11
-17.062323821
 21
8.8673313147
 31
0.0
 11
-16.735557998
 21
8.9349383372
 31
0.0
 11
-16.4260256321
 21
9.0608370255
 31
0.0
  0
SPLINE
  5
38C
100
AcDbEntity
  8
RACCORDO
100
AcDbSpline
 62
253
  6
CONTINUOUS
 70
0
 71
3
 72
9
 73
5
 74
3
 42
0.0000001
 43
0.0000001
 44
0.0000000001
 12
0.6025187947
 22
-0.2882504231
 32
0.0
 13
0.6660143147
 23
-0.0504196099
 33
0.0
 40
0.0
 40
0.0
 40
0.0
 40
0.0
 40
0.5003583649
 40
1.0
 40
1.0
 40
1.0
 40
1.0
 10
21.1086646994
 20
9.0608370255
 30
0.0
 10
21.2091564724
 20
9.0127608554
 30
0.0
 10
21.4145362621
 20
8.9257137701
 30
0.0
 10
21.6341172323
 20
8.8757201282
 30
0.0
 10
21.7450400594
 20
8.8673228827
 30
0.0
 11
21.1086646994
 21
9.0608370255
 31
0.0
 11
21.4182388501
 21
8.9349280251
 31
0.0
 11
21.7450400594
 21
8.8673228827
 31
0.0
  0
SPLINE
  5
38D
100
AcDbEntity
  8
RACCORDO
100
AcDbSpline
 62
253
  6
CONTINUOUS
 70
0
 71
3
 72
23
 73
19
 74
17
 42
0.0000001
 43
0.0000001
 44
0.0000000001
 12
-1.5007000099
 22
-0.0000018884
 32
0.0
 13
-0.9945926574
 23
1.123781992
 33
0.0
 40
0.0
 40
0.0
 40
0.0
 40
0.0
 40
0.192882436
 40
0.3785047886
 40
0.5498976129
 40
0.6282179514
 40
0.7006256406
 40
0.766433521
 40
0.8250322668
 40
0.8758622056
 40
0.9184596737
 40
0.9524180434
 40
0.9660618156
 40
0.9774350549
 40
0.9865116992
 40
0.9932845783
 40
0.9977595709
 40
1.0
 40
1.0
 40
1.0
 40
1.0
 10
-16.0538139334
 20
9.2573766612
 30
0.0
 10
-16.1503001579
 20
9.2573765398
 30
0.0
 10
-16.3396410993
 20
9.2577349394
 30
0.0
 10
-16.6147142381
 20
9.2593350532
 30
0.0
 10
-16.8324732733
 20
9.261552549
 30
0.0
 10
-16.9935924919
 20
9.2638647653
 30
0.0
 10
-17.1018945874
 20
9.2657592292
 30
0.0
 10
-17.2003258814
 20
9.2678474727
 30
0.0
 10
-17.2879560373
 20
9.2701066535
 30
0.0
 10
-17.3639679758
 20
9.2725108021
 30
0.0
 10
-17.4276391581
 20
9.275034306
 30
0.0
 10
-17.47270856
 20
9.2773286655
 30
0.0
 10
-17.502137793
 20
9.2792937245
 30
0.0
 10
-17.5191546512
 20
9.2806567114
 30
0.0
 10
-17.5326600614
 20
9.2820522472
 30
0.0
 10
-17.54284643
 20
9.2833509316
 30
0.0
 10
-17.5492580685
 20
9.2847603094
 30
0.0
 10
-17.5527499545
 20
9.2856961116
 30
0.0
 10
-17.553492726
 20
9.2865353629
 30
0.0
 11
-16.0538139334
 21
9.2573766612
 31
0.0
 11
-16.343272069
 21
9.2579347549
 31
0.0
 11
-16.621830634
 21
9.25958723
 31
0.0
 11
-16.8790258365
 21
9.2622718335
 31
0.0
 11
-16.9965488845
 21
9.263971135
 31
0.0
 11
-17.1051942034
 21
9.2658875731
 31
0.0
 11
-17.2039294225
 21
9.2680033996
 31
0.0
 11
-17.2918386062
 21
9.270298497
 31
0.0
 11
-17.3680796443
 21
9.2727514948
 31
0.0
 11
-17.4319532848
 21
9.2753388074
 31
0.0
 11
-17.4828431644
 21
9.2780363769
 31
0.0
 11
-17.5032716436
 21
9.2794189191
 31
0.0
 11
-17.5202818676
 21
9.2808199097
 31
0.0
 11
-17.5338293767
 21
9.282236017
 31
0.0
 11
-17.5438927242
 21
9.2836633038
 31
0.0
 11
-17.550453358
 21
9.2850977568
 31
0.0
 11
-17.553492726
 21
9.2865353629
 31
0.0
  0
SPLINE
  5
38E
100
AcDbEntity
  8
RACCORDO
100
AcDbSpline
 62
253
  6
CONTINUOUS
 70
0
 71
3
 72
23
 73
19
 74
17
 42
0.0000001
 43
0.0000001
 44
0.0000000001
 12
-0.9943882306
 22
-1.1240037601
 32
0.0
 13
-1.500730624
 23
0.0000012766
 33
0.0
 40
0.0
 40
0.0
 40
0.0
 40
0.0
 40
0.0022398469
 40
0.0067138675
 40
0.0134857108
 40
0.0225615608
 40
0.0339332867
 40
0.047573755
 40
0.0815265294
 40
0.124121002
 40
0.1749486244
 40
0.2335466736
 40
0.2993530983
 40
0.3717598903
 40
0.4500798608
 40
0.6214745593
 40
0.8071092836
 40
1.0
 40
1.0
 40
1.0
 40
1.0
 10
22.2361378215
 20
9.2865349509
 30
0.0
 10
22.2353953957
 20
9.2856957522
 30
0.0
 10
22.2319042057
 20
9.2847598544
 30
0.0
 10
22.225493761
 20
9.2833506596
 30
0.0
 10
22.2153085433
 20
9.2820521256
 30
0.0
 10
22.2018045112
 20
9.2806569714
 30
0.0
 10
22.1847900904
 20
9.279294321
 30
0.0
 10
22.1553654726
 20
9.2773293256
 30
0.0
 10
22.1103010958
 20
9.2750351331
 30
0.0
 10
22.0466340781
 20
9.2725115489
 30
0.0
 10
21.9706235991
 20
9.2701072249
 30
0.0
 10
21.8829938913
 20
9.2678480189
 30
0.0
 10
21.7845621174
 20
9.2657596284
 30
0.0
 10
21.6762591744
 20
9.2638650886
 30
0.0
 10
21.5151363656
 20
9.2615527402
 30
0.0
 10
21.2973659468
 20
9.2593350446
 30
0.0
 10
21.0222759273
 20
9.2577349205
 30
0.0
 10
20.8329207925
 20
9.2573765224
 30
0.0
 10
20.7364284575
 20
9.2573766044
 30
0.0
 11
22.2361378215
 21
9.2865349509
 31
0.0
 11
22.2330993305
 21
9.2850973737
 31
0.0
 11
22.2265400257
 21
9.2836630306
 31
0.0
 11
22.2164780118
 21
9.2822359335
 31
0.0
 11
22.2029313937
 21
9.2808200945
 31
0.0
 11
22.1859230757
 21
9.2794193922
 31
0.0
 11
22.1654991331
 21
9.278037062
 31
0.0
 11
22.1146166112
 21
9.2753396828
 31
0.0
 11
22.0507461684
 21
9.2727522784
 31
0.0
 11
21.9745070561
 21
9.2702991343
 31
0.0
 11
21.8865971265
 21
9.2680039269
 31
0.0
 11
21.7878620796
 21
9.2658879968
 31
0.0
 11
21.6792158921
 21
9.263971467
 31
0.0
 11
21.5616909996
 21
9.2622720794
 31
0.0
 11
21.3044877386
 21
9.2595873085
 31
0.0
 11
21.0259049246
 21
9.2579347334
 31
0.0
 11
20.7364284575
 21
9.2573766044
 31
0.0
  0
SPLINE
  5
38F
100
AcDbEntity
  8
RACCORDO
100
AcDbSpline
 62
253
  6
CONTINUOUS
 70
0
 71
3
 72
23
 73
19
 74
17
 42
0.0000001
 43
0.0000001
 44
0.0000000001
 12
1.5007000099
 22
0.0000018884
 32
0.0
 13
0.9945926574
 23
-1.123781992
 33
0.0
 40
0.0
 40
0.0
 40
0.0
 40
0.0
 40
0.192882436
 40
0.3785047886
 40
0.5498976129
 40
0.6282179514
 40
0.7006256406
 40
0.766433521
 40
0.8250322668
 40
0.8758622056
 40
0.9184596737
 40
0.9524180434
 40
0.9660618156
 40
0.9774350549
 40
0.9865116992
 40
0.9932845783
 40
0.9977595709
 40
1.0
 40
1.0
 40
1.0
 40
1.0
 10
20.736459395
 20
-6.8738766364
 30
0.0
 10
20.8329456196
 20
-6.873876515
 30
0.0
 10
21.0222865609
 20
-6.8742349145
 30
0.0
 10
21.2973596997
 20
-6.8758350284
 30
0.0
 10
21.515118735
 20
-6.8780525241
 30
0.0
 10
21.6762379535
 20
-6.8803647404
 30
0.0
 10
21.784540049
 20
-6.8822592044
 30
0.0
 10
21.882971343
 20
-6.8843474478
 30
0.0
 10
21.9706014989
 20
-6.8866066286
 30
0.0
 10
22.0466134375
 20
-6.8890107772
 30
0.0
 10
22.1102846197
 20
-6.8915342811
 30
0.0
 10
22.1553540216
 20
-6.8938286407
 30
0.0
 10
22.1847832547
 20
-6.8957936996
 30
0.0
 10
22.2018001128
 20
-6.8971566865
 30
0.0
 10
22.215305523
 20
-6.8985522223
 30
0.0
 10
22.2254918917
 20
-6.8998509067
 30
0.0
 10
22.2319035302
 20
-6.9012602845
 30
0.0
 10
22.2353954161
 20
-6.9021960868
 30
0.0
 10
22.2361381876
 20
-6.903035338
 30
0.0
 11
20.736459395
 21
-6.8738766364
 31
0.0
 11
21.0259175307
 21
-6.8744347301
 31
0.0
 11
21.3044760957
 21
-6.8760872052
 31
0.0
 11
21.5616712981
 21
-6.8787718086
 31
0.0
 11
21.6791943461
 21
-6.8804711101
 31
0.0
 11
21.7878396651
 21
-6.8823875483
 31
0.0
 11
21.8865748841
 21
-6.8845033747
 31
0.0
 11
21.9744840678
 21
-6.8867984721
 31
0.0
 11
22.0507251059
 21
-6.8892514699
 31
0.0
 11
22.1145987464
 21
-6.8918387825
 31
0.0
 11
22.165488626
 21
-6.894536352
 31
0.0
 11
22.1859171052
 21
-6.8959188942
 31
0.0
 11
22.2029273292
 21
-6.8973198849
 31
0.0
 11
22.2164748383
 21
-6.8987359921
 31
0.0
 11
22.2265381858
 21
-6.9001632789
 31
0.0
 11
22.2330988196
 21
-6.9015977319
 31
0.0
 11
22.2361381876
 21
-6.903035338
 31
0.0
  0
SPLINE
  5
390
100
AcDbEntity
  8
RACCORDO
100
AcDbSpline
 62
253
  6
CONTINUOUS
 70
0
 71
3
 72
23
 73
19
 74
17
 42
0.0000001
 43
0.0000001
 44
0.0000000001
 12
0.9943882305
 22
1.1240037601
 32
0.0
 13
1.500730624
 23
-0.0000012766
 33
0.0
 40
0.0
 40
0.0
 40
0.0
 40
0.0
 40
0.0022398469
 40
0.0067138675
 40
0.0134857108
 40
0.0225615608
 40
0.0339332867
 40
0.047573755
 40
0.0815265294
 40
0.124121002
 40
0.1749486244
 40
0.2335466736
 40
0.2993530983
 40
0.3717598903
 40
0.4500798608
 40
0.6214745593
 40
0.8071092836
 40
1.0
 40
1.0
 40
1.0
 40
1.0
 10
-17.5534923599
 20
-6.9030349261
 30
0.0
 10
-17.5527499341
 20
-6.9021957273
 30
0.0
 10
-17.549258744
 20
-6.9012598295
 30
0.0
 10
-17.5428482994
 20
-6.8998506347
 30
0.0
 10
-17.5326630817
 20
-6.8985521007
 30
0.0
 10
-17.5191590496
 20
-6.8971569466
 30
0.0
 10
-17.5021446288
 20
-6.8957942962
 30
0.0
 10
-17.472720011
 20
-6.8938293007
 30
0.0
 10
-17.4276556342
 20
-6.8915351082
 30
0.0
 10
-17.3639886165
 20
-6.8890115241
 30
0.0
 10
-17.2879781375
 20
-6.8866072
 30
0.0
 10
-17.2003484296
 20
-6.8843479941
 30
0.0
 10
-17.1019166558
 20
-6.8822596035
 30
0.0
 10
-16.9936137128
 20
-6.8803650637
 30
0.0
 10
-16.832490904
 20
-6.8780527153
 30
0.0
 10
-16.6147204851
 20
-6.8758350197
 30
0.0
 10
-16.3396304657
 20
-6.8742348956
 30
0.0
 10
-16.1502753309
 20
-6.8738764975
 30
0.0
 10
-16.0537829958
 20
-6.8738765796
 30
0.0
 11
-17.5534923599
 21
-6.9030349261
 31
0.0
 11
-17.5504538689
 21
-6.9015973488
 31
0.0
 11
-17.5438945641
 21
-6.9001630057
 31
0.0
 11
-17.5338325502
 21
-6.8987359086
 31
0.0
 11
-17.5202859321
 21
-6.8973200696
 31
0.0
 11
-17.5032776141
 21
-6.8959193674
 31
0.0
 11
-17.4828536714
 21
-6.8945370371
 31
0.0
 11
-17.4319711496
 21
-6.8918396579
 31
0.0
 11
-17.3681007068
 21
-6.8892522535
 31
0.0
 11
-17.2918615945
 21
-6.8867991094
 31
0.0
 11
-17.2039516648
 21
-6.8845039021
 31
0.0
 11
-17.105216618
 21
-6.8823879719
 31
0.0
 11
-16.9965704305
 21
-6.8804714421
 31
0.0
 11
-16.8790455379
 21
-6.8787720545
 31
0.0
 11
-16.621842277
 21
-6.8760872837
 31
0.0
 11
-16.343259463
 21
-6.8744347085
 31
0.0
 11
-16.0537829958
 21
-6.8738765796
 31
0.0
  0
SPLINE
  5
391
100
AcDbEntity
  8
RACCORDO
100
AcDbSpline
 62
253
  6
CONTINUOUS
 70
0
 71
3
 72
9
 73
5
 74
3
 42
0.0000001
 43
0.0000001
 44
0.0000000001
 12
-0.6660101023
 22
-0.0504224488
 32
0.0
 13
-0.6024986269
 23
-0.2882833402
 33
0.0
 40
0.0
 40
0.0
 40
0.0
 40
0.0
 40
0.4996419314
 40
1.0
 40
1.0
 40
1.0
 40
1.0
 10
21.7450421023
 20
-6.4838224105
 30
0.0
 10
21.6341199111
 20
-6.4922201338
 30
0.0
 10
21.4145414987
 20
-6.5422157715
 30
0.0
 10
21.2091594435
 20
-6.6292553688
 30
0.0
 10
21.1086710938
 20
-6.6773370006
 30
0.0
 11
21.7450421023
 21
-6.4838224105
 31
0.0
 11
21.4182427548
 21
-6.5514276981
 31
0.0
 11
21.1086710938
 21
-6.6773370006
 31
0.0
  0
SPLINE
  5
392
100
AcDbEntity
  8
RACCORDO
100
AcDbSpline
 62
253
  6
CONTINUOUS
 70
0
 71
3
 72
9
 73
5
 74
3
 42
0.0000001
 43
0.0000001
 44
0.0000000001
 12
-0.6024396858
 22
0.2882477863
 32
0.0
 13
-0.6659398109
 23
0.05044333
 33
0.0
 40
0.0
 40
0.0
 40
0.0
 40
0.0
 40
0.5003536124
 40
1.0
 40
1.0
 40
1.0
 40
1.0
 10
-16.4260192378
 20
-6.6773370006
 30
0.0
 10
-16.5264968621
 20
-6.6292617269
 30
0.0
 10
-16.7318557039
 20
-6.5422261684
 30
0.0
 10
-16.9514106725
 20
-6.492232964
 30
0.0
 10
-17.0623221462
 20
-6.4838316881
 30
0.0
 11
-16.4260192378
 21
-6.6773370006
 31
0.0
 11
-16.7355549922
 21
-6.5514383065
 31
0.0
 11
-17.0623221462
 21
-6.4838316881
 31
0.0
  0
SPLINE
  5
393
100
AcDbEntity
  8
RACCORDO
100
AcDbSpline
 62
253
  6
CONTINUOUS
 70
0
 71
3
 72
18
 73
14
 74
12
 42
0.0000001
 43
0.0000001
 44
0.0000000001
 12
0.4347821072
 22
0.4297609238
 32
0.0
 13
0.6112698262
 23
0.008895611
 33
0.0
 40
0.0
 40
0.0
 40
0.0
 40
0.0
 40
0.007105868
 40
0.0219017422
 40
0.0445325469
 40
0.0749981281
 40
0.1132234094
 40
0.1590985735
 40
0.2732965073
 40
0.416255629
 40
0.586362674
 40
0.7817576239
 40
1.0
 40
1.0
 40
1.0
 40
1.0
 10
-17.7534594693
 20
-6.7030626487
 30
0.0
 10
-17.7524296346
 20
-6.7020447072
 30
0.0
 10
-17.7477106923
 20
-6.7011549309
 30
0.0
 10
-17.7390461832
 20
-6.6995023343
 30
0.0
 10
-17.7251361048
 20
-6.6981284157
 30
0.0
 10
-17.7066504191
 20
-6.6965725396
 30
0.0
 10
-17.6833283773
 20
-6.6950858678
 30
0.0
 10
-17.6429869288
 20
-6.6929311841
 30
0.0
 10
-17.5812770648
 20
-6.6904401192
 30
0.0
 10
-17.4942548712
 20
-6.687718751
 30
0.0
 10
-17.390671453
 20
-6.685163216
 30
0.0
 10
-17.2717406122
 20
-6.6827996035
 30
0.0
 10
-17.1874609295
 20
-6.6814457759
 30
0.0
 10
-17.1429926031
 20
-6.6807986428
 30
0.0
 11
-17.7534594693
 21
-6.7030626487
 31
0.0
 11
-17.7494157484
 21
-6.7014754496
 31
0.0
 11
-17.740510235
 21
-6.6998917825
 31
0.0
 11
-17.7267650653
 21
-6.6983178269
 31
0.0
 11
-17.7082057006
 21
-6.6967596131
 31
0.0
 11
-17.6848879195
 21
-6.6952218082
 31
0.0
 11
-17.6568837135
 21
-6.6937083501
 31
0.0
 11
-17.5871324161
 21
-6.6907704278
 31
0.0
 11
-17.499781145
 21
-6.6879793541
 31
0.0
 11
-17.3958216318
 21
-6.6853676587
 31
0.0
 11
-17.2763941393
 21
-6.6829637463
 31
0.0
 11
-17.1429926031
 21
-6.6807986428
 31
0.0
  0
SPLINE
  5
394
100
AcDbEntity
  8
RACCORDO
100
AcDbSpline
 62
253
  6
CONTINUOUS
 70
0
 71
3
 72
23
 73
19
 74
17
 42
0.0000001
 43
0.0000001
 44
0.0000000001
 12
-1.720061354
 22
-0.001348182
 32
0.0
 13
-1.2210584804
 23
-1.2114574142
 33
0.0
 40
0.0
 40
0.0
 40
0.0
 40
0.0
 40
0.1951484914
 40
0.3817167012
 40
0.5530935432
 40
0.6311572402
 40
0.7032021339
 40
0.7685825204
 40
0.826728376
 40
0.8771126044
 40
0.9193039739
 40
0.9529204424
 40
0.9664233636
 40
0.9776805382
 40
0.9866654625
 40
0.9933696445
 40
0.9977974653
 40
1.0
 40
1.0
 40
1.0
 40
1.0
 10
-17.1429926031
 20
-6.6807986428
 30
0.0
 10
-17.2548817292
 20
-6.6808863414
 30
0.0
 10
-17.4737403728
 20
-6.6814111228
 30
0.0
 10
-17.7908539673
 20
-6.6832578849
 30
0.0
 10
-18.0408305122
 20
-6.6856753391
 30
0.0
 10
-18.2251391542
 20
-6.6881420993
 30
0.0
 10
-18.3486745875
 20
-6.6901421828
 30
0.0
 10
-18.4607850418
 20
-6.6923313265
 30
0.0
 10
-18.5604695411
 20
-6.6946867358
 30
0.0
 10
-18.6468516009
 20
-6.6971827342
 30
0.0
 10
-18.7191556142
 20
-6.6997945979
 30
0.0
 10
-18.7703144171
 20
-6.7021624088
 30
0.0
 10
-18.803716495
 20
-6.7041889793
 30
0.0
 10
-18.8230305365
 20
-6.7055897794
 30
0.0
 10
-18.8383710708
 20
-6.7070323339
 30
0.0
 10
-18.8499340826
 20
-6.7083517005
 30
0.0
 10
-18.8572453177
 20
-6.7098321513
 30
0.0
 10
-18.8611991327
 20
-6.710748439
 30
0.0
 10
-18.8620956073
 20
-6.7116378647
 30
0.0
 11
-17.1429926031
 21
-6.6807986428
 31
0.0
 11
-17.4786590823
 21
-6.6816188799
 31
0.0
 11
-17.7995622988
 21
-6.683523082
 31
0.0
 11
-18.0943266072
 21
-6.6864433318
 31
0.0
 11
-18.2285887935
 21
-6.6882535857
 31
0.0
 11
-18.3524939607
 21
-6.6902762547
 31
0.0
 11
-18.4649304089
 21
-6.6924936353
 31
0.0
 11
-18.5649162657
 21
-6.6948858292
 31
0.0
 11
-18.6515428495
 21
-6.697431859
 31
0.0
 11
-18.7240652341
 21
-6.7001086131
 31
0.0
 11
-18.7818205902
 21
-6.7028924035
 31
0.0
 11
-18.8050027201
 21
-6.7043169847
 31
0.0
 11
-18.8243119592
 21
-6.7057593734
 31
0.0
 11
-18.8396977454
 21
-6.7072164382
 31
0.0
 11
-18.8511355294
 21
-6.7086844574
 31
0.0
 11
-18.8586074402
 21
-6.7101595574
 31
0.0
 11
-18.8620956073
 21
-6.7116378647
 31
0.0
  0
SPLINE
  5
395
100
AcDbEntity
  8
RACCORDO
100
AcDbSpline
 62
253
  6
CONTINUOUS
 70
0
 71
3
 72
9
 73
5
 74
3
 42
0.0000001
 43
0.0000001
 44
0.0000000001
 12
0.5976892036
 22
0.1309820036
 32
0.0
 13
0.6113651821
 23
0.0249255601
 33
0.0
 40
0.0
 40
0.0
 40
0.0
 40
0.0
 40
0.5044366091
 40
1.0
 40
1.0
 40
1.0
 40
1.0
 10
21.1559595293
 20
-6.7761768084
 30
0.0
 10
21.256458301
 20
-6.7541527691
 30
0.0
 10
21.4561938946
 20
-6.7131771569
 30
0.0
 10
21.6590295556
 20
-6.686060301
 30
0.0
 10
21.7600196231
 20
-6.6819429027
 30
0.0
 11
21.1559595293
 21
-6.7761768084
 31
0.0
 11
21.4587550238
 21
-6.7163400191
 31
0.0
 11
21.7600196231
 21
-6.6819429027
 31
0.0
  0
SPLINE
  5
396
100
AcDbEntity
  8
RACCORDO
100
AcDbSpline
 62
253
  6
CONTINUOUS
 70
0
 71
3
 72
18
 73
14
 74
12
 42
0.0000001
 43
0.0000001
 44
0.0000000001
 12
0.6112711343
 22
-0.0088968505
 32
0.0
 13
0.4351570092
 23
-0.4293831982
 33
0.0
 40
0.0
 40
0.0
 40
0.0
 40
0.0
 40
0.2181537946
 40
0.4136085297
 40
0.5837295897
 40
0.7266681498
 40
0.8408465746
 40
0.8867470936
 40
0.9249861106
 40
0.955444333
 40
0.9780800506
 40
0.9928874456
 40
1.0
 40
1.0
 40
1.0
 40
1.0
 10
21.8256359636
 20
-6.680798629
 30
0.0
 10
21.8700863361
 20
-6.6814455895
 30
0.0
 10
21.9543603302
 20
-6.6827994273
 30
0.0
 10
22.0732884442
 20
-6.6851618435
 30
0.0
 10
22.1768828986
 20
-6.6877188631
 30
0.0
 10
22.2639000235
 20
-6.690438628
 30
0.0
 10
22.3256069998
 20
-6.6929300322
 30
0.0
 10
22.3659525524
 20
-6.6950843638
 30
0.0
 10
22.3892810872
 20
-6.6965715954
 30
0.0
 10
22.4077689709
 20
-6.6981302484
 30
0.0
 10
22.4216807711
 20
-6.6995042414
 30
0.0
 10
22.4303501136
 20
-6.7011572805
 30
0.0
 10
22.4350732383
 20
-6.7020446449
 30
0.0
 10
22.4361049309
 20
-6.7030626487
 30
0.0
 11
21.8256359636
 21
-6.680798629
 31
0.0
 11
21.9589836446
 21
-6.6829627708
 31
0.0
 11
22.0784479479
 21
-6.6853669176
 31
0.0
 11
22.1824162426
 21
-6.6879791958
 31
0.0
 11
22.2697551611
 21
-6.6907692018
 31
0.0
 11
22.3394946993
 21
-6.693706496
 31
0.0
 11
22.3675144572
 21
-6.6952205461
 31
0.0
 11
22.3908406233
 21
-6.6967595817
 31
0.0
 11
22.4093954023
 21
-6.6983191249
 31
0.0
 11
22.4231435845
 21
-6.6998934365
 31
0.0
 11
22.432056363
 21
-6.7014765875
 31
0.0
 11
22.4361049309
 21
-6.7030626487
 31
0.0
  0
SPLINE
  5
397
100
AcDbEntity
  8
RACCORDO
100
AcDbSpline
 62
253
  6
CONTINUOUS
 70
0
 71
3
 72
23
 73
19
 74
17
 42
0.0000001
 43
0.0000001
 44
0.0000000001
 12
-1.2210600384
 22
1.211458827
 32
0.0
 13
-1.720063455
 23
0.0013482526
 33
0.0
 40
0.0
 40
0.0
 40
0.0
 40
0.0
 40
0.0022025347
 40
0.0066303564
 40
0.0133345401
 40
0.022319467
 40
0.033576645
 40
0.0470795704
 40
0.0806960494
 40
0.1228874316
 40
0.1732716742
 40
0.2314175446
 40
0.2967979458
 40
0.368842853
 40
0.4469065604
 40
0.6182834111
 40
0.8048516064
 40
1.0
 40
1.0
 40
1.0
 40
1.0
 10
23.5447410689
 20
-6.7116378647
 30
0.0
 10
23.5438445932
 20
-6.710748438
 30
0.0
 10
23.5398907725
 20
-6.70983215
 30
0.0
 10
23.532579527
 20
-6.7083516977
 30
0.0
 10
23.5210164979
 20
-6.7070323303
 30
0.0
 10
23.5056759403
 20
-6.7055897745
 30
0.0
 10
23.4863618694
 20
-6.7041889734
 30
0.0
 10
23.4529597402
 20
-6.7021624014
 30
0.0
 10
23.4018008591
 20
-6.6997945889
 30
0.0
 10
23.3294967359
 20
-6.6971827236
 30
0.0
 10
23.2431145466
 20
-6.6946867238
 30
0.0
 10
23.1434299005
 20
-6.6923313134
 30
0.0
 10
23.0313192845
 20
-6.6901421691
 30
0.0
 10
22.9077836782
 20
-6.6881420855
 30
0.0
 10
22.7234747922
 20
-6.6856753256
 30
0.0
 10
22.4734979394
 20
-6.6832578726
 30
0.0
 10
22.1563840168
 20
-6.6814111176
 30
0.0
 10
21.9375251703
 20
-6.6808863321
 30
0.0
 10
21.8256359636
 20
-6.680798629
 30
0.0
 11
23.5447410689
 21
-6.7116378647
 31
0.0
 11
23.5412528974
 21
-6.7101595562
 31
0.0
 11
23.5337809757
 21
-6.708684455
 31
0.0
 11
23.5223431747
 21
-6.7072164347
 31
0.0
 11
23.5069573651
 21
-6.7057593687
 31
0.0
 11
23.4876480964
 21
-6.704316979
 31
0.0
 11
23.464465931
 21
-6.7028923967
 31
0.0
 11
23.4067104862
 21
-6.7001086043
 31
0.0
 11
23.3341879911
 21
-6.6974318485
 31
0.0
 11
23.247561277
 21
-6.6948858173
 31
0.0
 11
23.1475752725
 21
-6.6924936223
 31
0.0
 11
23.0351386617
 21
-6.6902762411
 31
0.0
 11
22.9112333199
 21
-6.6882535718
 31
0.0
 11
22.7769709516
 21
-6.6864433181
 31
0.0
 11
22.4822062683
 21
-6.6835230703
 31
0.0
 11
22.1613026846
 21
-6.6816188722
 31
0.0
 11
21.8256359636
 21
-6.680798629
 31
0.0
  0
SPLINE
  5
398
100
AcDbEntity
  8
RACCORDO
100
AcDbSpline
 62
253
  6
CONTINUOUS
 70
0
 71
3
 72
17
 73
13
 74
11
 42
0.0000001
 43
0.0000001
 44
0.0000000001
 12
0.1869510042
 22
0.0727413091
 32
0.0
 13
0.0001561776
 23
0.2006039672
 33
0.0
 40
0.0
 40
0.0
 40
0.0
 40
0.0
 40
0.0077200609
 40
0.0240238112
 40
0.0492431874
 40
0.083297977
 40
0.17683945
 40
0.3010186598
 40
0.4513931706
 40
0.6224649624
 40
0.8080142761
 40
1.0
 40
1.0
 40
1.0
 40
1.0
 10
21.825636191
 20
-6.6807986701
 30
0.0
 10
21.8261172821
 20
-6.680611481
 30
0.0
 10
21.8267560575
 20
-6.6788573607
 30
0.0
 10
21.8275373251
 20
-6.6758571715
 30
0.0
 10
21.828328294
 20
-6.6707596511
 30
0.0
 10
21.8295155571
 20
-6.6606677397
 30
0.0
 10
21.8307800477
 20
-6.6438327425
 30
0.0
 10
21.8320698184
 20
-6.6192715019
 30
0.0
 10
21.8331345665
 20
-6.5894842162
 30
0.0
 10
21.8339458025
 20
-6.5555938759
 30
0.0
 10
21.8344533342
 20
-6.5189118879
 30
0.0
 10
21.8345831814
 20
-6.4936670129
 30
0.0
 10
21.8345931761
 20
-6.4808293136
 30
0.0
 11
21.825636191
 21
-6.6807986701
 31
0.0
 11
21.8265012196
 21
-6.6795140998
 31
0.0
 11
21.8273613066
 21
-6.6763586186
 31
0.0
 11
21.8282068939
 21
-6.6713706771
 31
0.0
 11
21.8290284229
 21
-6.6645887257
 31
0.0
 11
21.8305651532
 21
-6.6458869601
 31
0.0
 11
21.831915432
 21
-6.6210127329
 31
0.0
 11
21.8330295932
 21
-6.5908675829
 31
0.0
 11
21.833867248
 21
-6.556560117
 31
0.0
 11
21.8343943789
 21
-6.5193419101
 31
0.0
 11
21.8345931761
 21
-6.4808293136
 31
0.0
  0
SPLINE
  5
399
100
AcDbEntity
  8
RACCORDO
100
AcDbSpline
 62
253
  6
CONTINUOUS
 70
0
 71
3
 72
23
 73
19
 74
17
 42
0.0000001
 43
0.0000001
 44
0.0000000001
 12
1.720061354
 22
0.001348182
 32
0.0
 13
1.2210584804
 23
1.2114574142
 33
0.0
 40
0.0
 40
0.0
 40
0.0
 40
0.0
 40
0.1951484914
 40
0.3817167012
 40
0.5530935432
 40
0.6311572402
 40
0.7032021339
 40
0.7685825204
 40
0.826728376
 40
0.8771126044
 40
0.9193039739
 40
0.9529204424
 40
0.9664233636
 40
0.9776805382
 40
0.9866654625
 40
0.9933696445
 40
0.9977974653
 40
1.0
 40
1.0
 40
1.0
 40
1.0
 10
21.8256380647
 20
9.0642986677
 30
0.0
 10
21.9375271908
 20
9.0643863662
 30
0.0
 10
22.1563858344
 20
9.0649111477
 30
0.0
 10
22.4734994289
 20
9.0667579098
 30
0.0
 10
22.7234759738
 20
9.069175364
 30
0.0
 10
22.9077846159
 20
9.0716421242
 30
0.0
 10
23.0313200491
 20
9.0736422077
 30
0.0
 10
23.1434305035
 20
9.0758313513
 30
0.0
 10
23.2431150027
 20
9.0781867607
 30
0.0
 10
23.3294970625
 20
9.0806827591
 30
0.0
 10
23.4018010758
 20
9.0832946228
 30
0.0
 10
23.4529598787
 20
9.0856624336
 30
0.0
 10
23.4863619567
 20
9.0876890041
 30
0.0
 10
23.5056759981
 20
9.0890898042
 30
0.0
 10
23.5210165324
 20
9.0905323588
 30
0.0
 10
23.5325795442
 20
9.0918517254
 30
0.0
 10
23.5398907793
 20
9.0933321762
 30
0.0
 10
23.5438445943
 20
9.0942484639
 30
0.0
 10
23.5447410689
 20
9.0951378896
 30
0.0
 11
21.8256380647
 21
9.0642986677
 31
0.0
 11
22.1613045439
 21
9.0651189048
 31
0.0
 11
22.4822077604
 21
9.0670231069
 31
0.0
 11
22.7769720688
 21
9.0699433566
 31
0.0
 11
22.9112342551
 21
9.0717536105
 31
0.0
 11
23.0351394223
 21
9.0737762796
 31
0.0
 11
23.1475758705
 21
9.0759936602
 31
0.0
 11
23.2475617273
 21
9.078385854
 31
0.0
 11
23.3341883111
 21
9.0809318839
 31
0.0
 11
23.4067106957
 21
9.0836086379
 31
0.0
 11
23.4644660518
 21
9.0863924284
 31
0.0
 11
23.4876481817
 21
9.0878170096
 31
0.0
 11
23.5069574208
 21
9.0892593982
 31
0.0
 11
23.5223432071
 21
9.0907164631
 31
0.0
 11
23.533780991
 21
9.0921844822
 31
0.0
 11
23.5412529019
 21
9.0936595822
 31
0.0
 11
23.5447410689
 21
9.0951378896
 31
0.0
  0
SPLINE
  5
39A
100
AcDbEntity
  8
RACCORDO
100
AcDbSpline
 62
253
  6
CONTINUOUS
 70
0
 71
3
 72
18
 73
14
 74
12
 42
0.0000001
 43
0.0000001
 44
0.0000000001
 12
-0.4347821072
 22
-0.4297609238
 32
0.0
 13
-0.6112698262
 23
-0.008895611
 33
0.0
 40
0.0
 40
0.0
 40
0.0
 40
0.0
 40
0.007105868
 40
0.0219017422
 40
0.0445325469
 40
0.0749981281
 40
0.1132234094
 40
0.1590985735
 40
0.2732965073
 40
0.416255629
 40
0.586362674
 40
0.7817576239
 40
1.0
 40
1.0
 40
1.0
 40
1.0
 10
22.4361049309
 20
9.0865626735
 30
0.0
 10
22.4350750962
 20
9.0855447321
 30
0.0
 10
22.4303561539
 20
9.0846549558
 30
0.0
 10
22.4216916448
 20
9.0830023592
 30
0.0
 10
22.4077815665
 20
9.0816284405
 30
0.0
 10
22.3892958808
 20
9.0800725644
 30
0.0
 10
22.3659738389
 20
9.0785858926
 30
0.0
 10
22.3256323905
 20
9.0764312089
 30
0.0
 10
22.2639225264
 20
9.0739401441
 30
0.0
 10
22.1769003328
 20
9.0712187759
 30
0.0
 10
22.0733169146
 20
9.0686632409
 30
0.0
 10
21.9543860738
 20
9.0662996284
 30
0.0
 10
21.8701063911
 20
9.0649458008
 30
0.0
 10
21.8256380647
 20
9.0642986677
 30
0.0
 11
22.4361049309
 21
9.0865626735
 31
0.0
 11
22.43206121
 21
9.0849754745
 31
0.0
 11
22.4231556966
 21
9.0833918073
 31
0.0
 11
22.4094105269
 21
9.0818178518
 31
0.0
 11
22.3908511622
 21
9.080259638
 31
0.0
 11
22.3675333811
 21
9.078721833
 31
0.0
 11
22.3395291751
 21
9.077208375
 31
0.0
 11
22.2697778777
 21
9.0742704527
 31
0.0
 11
22.1824266067
 21
9.071479379
 31
0.0
 11
22.0784670934
 21
9.0688676836
 31
0.0
 11
21.9590396009
 21
9.0664637712
 31
0.0
 11
21.8256380647
 21
9.0642986677
 31
0.0
  0
SPLINE
  5
39B
100
AcDbEntity
  8
RACCORDO
100
AcDbSpline
 62
253
  6
CONTINUOUS
 70
0
 71
3
 72
23
 73
19
 74
17
 42
0.0000001
 43
0.0000001
 44
0.0000000001
 12
-1.7200634227
 22
0.0013479497
 32
0.0
 13
-1.2213043264
 23
1.2112125071
 33
0.0
 40
0.0
 40
0.0
 40
0.0
 40
0.0
 40
0.1951483
 40
0.3817163226
 40
0.5530930377
 40
0.6311567291
 40
0.7032015954
 40
0.7685819317
 40
0.8267280153
 40
0.877112937
 40
0.9193048135
 40
0.9529210054
 40
0.9664236259
 40
0.9776804959
 40
0.986665207
 40
0.9933693198
 40
0.9977972268
 40
1.0
 40
1.0
 40
1.0
 40
1.0
 10
-17.142990502
 20
9.0642986539
 30
0.0
 10
-17.2548796529
 20
9.0643863372
 30
0.0
 10
-17.4737383426
 20
9.064911155
 30
0.0
 10
-17.7908520287
 20
9.066757905
 30
0.0
 10
-18.0408286908
 20
9.069175361
 30
0.0
 10
-18.225137463
 20
9.071642117
 30
0.0
 10
-18.3486729971
 20
9.0736421979
 30
0.0
 10
-18.4607836725
 20
9.075831348
 30
0.0
 10
-18.5604687912
 20
9.0781867648
 30
0.0
 10
-18.6468517743
 20
9.0806827415
 30
0.0
 10
-18.7191564078
 20
9.0832945647
 30
0.0
 10
-18.7703152277
 20
9.0856623904
 30
0.0
 10
-18.8037168447
 20
9.0876889783
 30
0.0
 10
-18.8230304239
 20
9.0890897964
 30
0.0
 10
-18.8383706756
 20
9.0905323469
 30
0.0
 10
-18.8499334972
 20
9.0918517644
 30
0.0
 10
-18.8572450565
 20
9.0933321669
 30
0.0
 10
-18.8611988551
 20
9.0942485474
 30
0.0
 10
-18.8620956073
 20
9.0951378896
 30
0.0
 11
-17.142990502
 21
9.0642986539
 31
0.0
 11
-17.4786570557
 21
9.0651189012
 31
0.0
 11
-17.7995603361
 21
9.067023104
 31
0.0
 11
-18.0943247807
 21
9.0699433514
 31
0.0
 11
-18.2285871188
 21
9.0717536035
 31
0.0
 11
-18.352492388
 21
9.0737762712
 31
0.0
 11
-18.464928885
 21
9.075993652
 31
0.0
 11
-18.5649152547
 21
9.078385843
 31
0.0
 11
-18.651543136
 21
9.0809318639
 31
0.0
 11
-18.7240664809
 21
9.0836086104
 31
0.0
 11
-18.7818214301
 21
9.0863924039
 31
0.0
 11
-18.8050030695
 21
9.08781699
 31
0.0
 11
-18.824311806
 21
9.0892593847
 31
0.0
 11
-18.8396972421
 21
9.090716455
 31
0.0
 11
-18.8511349195
 21
9.0921844782
 31
0.0
 11
-18.8586069904
 21
9.0936595808
 31
0.0
 11
-18.8620956073
 21
9.0951378896
 31
0.0
  0
SPLINE
  5
39C
100
AcDbEntity
  8
RACCORDO
100
AcDbSpline
 62
253
  6
CONTINUOUS
 70
0
 71
3
 72
18
 73
14
 74
12
 42
0.0000001
 43
0.0000001
 44
0.0000000001
 12
-0.6112711343
 22
0.0088968505
 32
0.0
 13
-0.4351570092
 23
0.4293831982
 33
0.0
 40
0.0
 40
0.0
 40
0.0
 40
0.0
 40
0.2181537946
 40
0.4136085297
 40
0.5837295897
 40
0.7266681498
 40
0.8408465746
 40
0.8867470936
 40
0.9249861106
 40
0.955444333
 40
0.9780800506
 40
0.9928874456
 40
1.0
 40
1.0
 40
1.0
 40
1.0
 10
-17.142990502
 20
9.0642986539
 30
0.0
 10
-17.1874408744
 20
9.0649456144
 30
0.0
 10
-17.2717148686
 20
9.0662994521
 30
0.0
 10
-17.3906429825
 20
9.0686618684
 30
0.0
 10
-17.494237437
 20
9.071218888
 30
0.0
 10
-17.5812545618
 20
9.0739386529
 30
0.0
 10
-17.6429615382
 20
9.0764300571
 30
0.0
 10
-17.6833070908
 20
9.0785843887
 30
0.0
 10
-17.7066356256
 20
9.0800716203
 30
0.0
 10
-17.7251235092
 20
9.0816302732
 30
0.0
 10
-17.7390353095
 20
9.0830042663
 30
0.0
 10
-17.747704652
 20
9.0846573053
 30
0.0
 10
-17.7524277767
 20
9.0855446698
 30
0.0
 10
-17.7534594693
 20
9.0865626735
 30
0.0
 11
-17.142990502
 21
9.0642986539
 31
0.0
 11
-17.276338183
 21
9.0664627957
 31
0.0
 11
-17.3958024862
 21
9.0688669425
 31
0.0
 11
-17.499770781
 21
9.0714792207
 31
0.0
 11
-17.5871096995
 21
9.0742692267
 31
0.0
 11
-17.6568492377
 21
9.0772065209
 31
0.0
 11
-17.6848689956
 21
9.078720571
 31
0.0
 11
-17.7081951617
 21
9.0802596065
 31
0.0
 11
-17.7267499407
 21
9.0818191498
 31
0.0
 11
-17.7404981229
 21
9.0833934614
 31
0.0
 11
-17.7494109014
 21
9.0849766123
 31
0.0
 11
-17.7534594693
 21
9.0865626735
 31
0.0
  0
SPLINE
  5
39D
100
AcDbEntity
  8
RACCORDO
100
AcDbSpline
 62
253
  6
CONTINUOUS
 70
0
 71
3
 72
8
 73
4
 74
2
 42
0.0000001
 43
0.0000001
 44
0.0000000001
 12
0.3682416086
 22
-0.2038913823
 32
0.0
 13
0.37968858
 23
-0.1816869844
 33
0.0
 40
0.0
 40
0.0
 40
0.0
 40
0.0
 40
1.0
 40
1.0
 40
1.0
 40
1.0
 10
20.7364284577
 20
9.2573408638
 30
0.0
 10
20.8591756606
 20
9.1893770697
 30
0.0
 10
20.9821018394
 20
9.1213993536
 30
0.0
 10
21.1086646994
 20
9.0608370255
 30
0.0
 11
20.7364284577
 21
9.2573408638
 31
0.0
 11
21.1086646994
 21
9.0608370255
 31
0.0
  0
SPLINE
  5
39E
100
AcDbEntity
  8
RACCORDO
100
AcDbSpline
 62
253
  6
CONTINUOUS
 70
0
 71
3
 72
28
 73
24
 74
22
 42
0.0000001
 43
0.0000001
 44
0.0000000001
 12
1.9981547069
 22
0.0839609434
 32
0.0
 13
-0.0087278915
 23
1.9998988716
 33
0.0
 40
0.0
 40
0.0
 40
0.0
 40
0.0
 40
0.0003235171
 40
0.0012368887
 40
0.0027482586
 40
0.0048577806
 40
0.0075646671
 40
0.0108678713
 40
0.0192585842
 40
0.0300162241
 40
0.0431103873
 40
0.0585064626
 40
0.0761697912
 40
0.1181315182
 40
0.1685782972
 40
0.227038651
 40
0.2929364879
 40
0.3656483675
 40
0.4444661576
 40
0.528640702
 40
0.617343504
 40
0.8049242155
 40
1.0
 40
1.0
 40
1.0
 40
1.0
 10
-52.669212654
 20
-27.6422745424
 30
0.0
 10
-52.6689971749
 20
-27.6422654882
 30
0.0
 10
-52.669029996
 20
-27.6410377236
 30
0.0
 10
-52.668683616
 20
-27.6396009497
 30
0.0
 10
-52.6685934279
 20
-27.6363656639
 30
0.0
 10
-52.6683640223
 20
-27.6322473202
 30
0.0
 10
-52.6681960176
 20
-27.6268004767
 30
0.0
 10
-52.6679269709
 20
-27.617221473
 30
0.0
 10
-52.6676364132
 20
-27.602245618
 30
0.0
 10
-52.6673198348
 20
-27.5807587708
 30
0.0
 10
-52.6670293733
 20
-27.5545943646
 30
0.0
 10
-52.6667617583
 20
-27.5238283374
 30
0.0
 10
-52.6664200842
 20
-27.4738171882
 30
0.0
 10
-52.6660816303
 20
-27.4004398369
 30
0.0
 10
-52.6658007353
 20
-27.299865023
 30
0.0
 10
-52.6656331084
 20
-27.1833332715
 30
0.0
 10
-52.6655803373
 20
-27.0519586028
 30
0.0
 10
-52.6656447123
 20
-26.9070128826
 30
0.0
 10
-52.6658254293
 20
-26.7498832813
 30
0.0
 10
-52.6661215046
 20
-26.5820936622
 30
0.0
 10
-52.6666767716
 20
-26.3417987843
 30
0.0
 10
-52.6676410349
 20
-26.02757358
 30
0.0
 10
-52.6686457366
 20
-25.7724816629
 30
0.0
 10
-52.66921327
 20
-25.6424377158
 30
0.0
 11
-52.669212654
 21
-27.6422745424
 31
0.0
 11
-52.6690014338
 21
-27.6416629829
 31
0.0
 11
-52.6687955055
 21
-27.6398479596
 31
0.0
 11
-52.6685950025
 21
-27.6368320013
 31
0.0
 11
-52.6684000579
 21
-27.6326176368
 31
0.0
 11
-52.6682108048
 21
-27.627207395
 31
0.0
 11
-52.6680273765
 21
-27.6206038048
 31
0.0
 11
-52.6676785269
 21
-27.6038266943
 31
0.0
 11
-52.6673545081
 21
-27.5823147375
 31
0.0
 11
-52.667056052
 21
-27.5561291868
 31
0.0
 11
-52.6667838241
 21
-27.5253395033
 31
0.0
 11
-52.6665384899
 21
-27.490015148
 31
0.0
 11
-52.6661308334
 21
-27.4060961285
 31
0.0
 11
-52.6658367541
 21
-27.3052071399
 31
0.0
 11
-52.6656592349
 21
-27.1882913657
 31
0.0
 11
-52.665599827
 21
-27.0565011144
 31
0.0
 11
-52.6656593254
 21
-26.9110833359
 31
0.0
 11
-52.6658369341
 21
-26.7534543254
 31
0.0
 11
-52.6661311014
 21
-26.5851124029
 31
0.0
 11
-52.6665388444
 21
-26.4077145485
 31
0.0
 11
-52.6676790249
 21
-26.0325702555
 31
0.0
 11
-52.66921327
 21
-25.6424377158
 31
0.0
  0
SPLINE
  5
39F
100
AcDbEntity
  8
RACCORDO
100
AcDbSpline
 62
253
  6
CONTINUOUS
 70
0
 71
3
 72
19
 73
15
 74
13
 42
0.0000001
 43
0.0000001
 44
0.0000000001
 12
0.0104686283
 22
-0.3000563865
 32
0.0
 13
-0.3001932224
 23
-0.0052398922
 33
0.0
 40
0.0
 40
0.0
 40
0.0
 40
0.0
 40
0.1605926018
 40
0.3331054454
 40
0.5054115307
 40
0.6660425443
 40
0.7384660356
 40
0.8039767775
 40
0.8614385041
 40
0.9098497061
 40
0.9484529739
 40
0.9765437446
 40
0.9937139419
 40
1.0
 40
1.0
 40
1.0
 40
1.0
 10
-52.374448182
 20
-19.5871751161
 30
0.0
 10
-52.3738877872
 20
-19.6032373947
 30
0.0
 10
-52.3729065737
 20
-19.6365605496
 30
0.0
 10
-52.3718284666
 20
-19.687131156
 30
0.0
 10
-52.3711423067
 20
-19.7377114556
 30
0.0
 10
-52.3709203828
 20
-19.7782820877
 30
0.0
 10
-52.3709963889
 20
-19.8081583939
 30
0.0
 10
-52.3711630649
 20
-19.8277232633
 30
0.0
 10
-52.3714517045
 20
-19.8448415188
 30
0.0
 10
-52.3718107512
 20
-19.8593872938
 30
0.0
 10
-52.3723543211
 20
-19.8706552173
 30
0.0
 10
-52.3727437851
 20
-19.8795948763
 30
0.0
 10
-52.3736049058
 20
-19.8837065571
 30
0.0
 10
-52.3738191713
 20
-19.8871184453
 30
0.0
 10
-52.374448182
 20
-19.8871294247
 30
0.0
 11
-52.374448182
 21
-19.5871751161
 31
0.0
 11
-52.3730045948
 21
-19.635369655
 31
0.0
 11
-52.3718949665
 21
-19.6871528427
 31
0.0
 11
-52.3711986931
 21
-19.7388811551
 31
0.0
 11
-52.3709608889
 21
-19.7871082557
 31
0.0
 11
-52.3710209055
 21
-19.8088525259
 31
0.0
 11
-52.3711989376
 21
-19.8285205965
 31
0.0
 11
-52.3714919275
 21
-19.845770357
 31
0.0
 11
-52.3718953825
 21
-19.8602996849
 31
0.0
 11
-52.3724022134
 21
-19.8718788025
 31
0.0
 11
-52.3730047843
 21
-19.8802911929
 31
0.0
 11
-52.3736915751
 21
-19.8854004016
 31
0.0
 11
-52.374448182
 21
-19.8871294247
 31
0.0
  0
SPLINE
  5
3A0
100
AcDbEntity
  8
RACCORDO
100
AcDbSpline
 62
253
  6
CONTINUOUS
 70
0
 71
3
 72
19
 73
15
 74
13
 42
0.0000001
 43
0.0000001
 44
0.0000000001
 12
-0.3001921697
 22
-0.0052398738
 32
0.0
 13
0.0104685855
 23
-0.3000553344
 33
0.0
 40
0.0
 40
0.0
 40
0.0
 40
0.0
 40
0.006304874
 40
0.0235001428
 40
0.0515611168
 40
0.0901701004
 40
0.1386244732
 40
0.1960533705
 40
0.2615659529
 40
0.3340333223
 40
0.4945779663
 40
0.6668942949
 40
0.8395362667
 40
1.0
 40
1.0
 40
1.0
 40
1.0
 10
-53.6517600536
 20
-18.6594249863
 30
0.0
 10
-53.6523909449
 20
-18.6594359986
 30
0.0
 10
-53.6525975285
 20
-18.6628580932
 30
0.0
 10
-53.6534639609
 20
-18.6669679039
 30
0.0
 10
-53.6538538216
 20
-18.675908244
 30
0.0
 10
-53.654398662
 20
-18.6871775392
 30
0.0
 10
-53.6547563137
 20
-18.7017251341
 30
0.0
 10
-53.6550461473
 20
-18.7188444772
 30
0.0
 10
-53.6552117049
 20
-18.7384106031
 30
0.0
 10
-53.6552861346
 20
-18.7682827257
 30
0.0
 10
-53.6550667738
 20
-18.8088499991
 30
0.0
 10
-53.6543799175
 20
-18.8594354293
 30
0.0
 10
-53.6533000574
 20
-18.910006865
 30
0.0
 10
-53.6523199968
 20
-18.9433299615
 30
0.0
 10
-53.651760054
 20
-18.9593792945
 30
0.0
 11
-53.6517600536
 21
-18.6594249863
 31
0.0
 11
-53.6525153486
 21
-18.6611607383
 31
0.0
 11
-53.653201958
 21
-18.6662775482
 31
0.0
 11
-53.6538057792
 21
-18.6746808501
 31
0.0
 11
-53.6543134175
 21
-18.6862616094
 31
0.0
 11
-53.6547167108
 21
-18.7008038573
 31
0.0
 11
-53.655009842
 21
-18.7180436968
 31
0.0
 11
-53.6551872144
 21
-18.737712257
 31
0.0
 11
-53.6552463584
 21
-18.7594696272
 31
0.0
 11
-53.6550098376
 21
-18.8076706333
 31
0.0
 11
-53.65431341
 21
-18.8594018379
 31
0.0
 11
-53.6532019519
 21
-18.9112235828
 31
0.0
 11
-53.651760054
 21
-18.9593792945
 31
0.0
  0
SPLINE
  5
3A1
100
AcDbEntity
  8
RACCORDO
100
AcDbSpline
 62
253
  6
CONTINUOUS
 70
0
 71
3
 72
13
 73
9
 74
7
 42
0.0000001
 43
0.0000001
 44
0.0000000001
 12
0.0
 22
-0.2381035667
 32
0.0
 13
-0.2380945022
 23
-0.0020776155
 33
0.0
 40
0.0
 40
0.0
 40
0.0
 40
0.0
 40
0.0824970497
 40
0.1734984148
 40
0.2781680677
 40
0.3985299645
 40
0.6812265516
 40
1.0
 40
1.0
 40
1.0
 40
1.0
 10
-52.1779386632
 20
20.8302232715
 30
0.0
 10
-52.1779386632
 20
20.8236756576
 30
0.0
 10
-52.1808100331
 20
20.809805333
 30
0.0
 10
-52.1927331769
 20
20.7908220455
 30
0.0
 10
-52.2113964892
 20
20.7737301534
 30
0.0
 10
-52.246092411
 20
20.7528587605
 30
0.0
 10
-52.3013599931
 20
20.7353092388
 30
0.0
 10
-52.3491490025
 20
20.730459552
 30
0.0
 10
-52.3744484043
 20
20.7302387891
 30
0.0
 11
-52.1779386632
 21
20.8302232715
 31
0.0
 11
-52.1817014694
 21
20.8109442019
 31
0.0
 11
-52.1928325891
 21
20.792354163
 31
0.0
 11
-52.2109216166
 21
20.7752105339
 31
0.0
 11
-52.235294979
 21
20.7601355751
 31
0.0
 11
-52.2989814659
 21
20.738345418
 31
0.0
 11
-52.3744484043
 21
20.7302387891
 31
0.0
  0
SPLINE
  5
3A2
100
AcDbEntity
  8
RACCORDO
100
AcDbSpline
 62
253
  6
CONTINUOUS
 70
0
 71
3
 72
19
 73
15
 74
13
 42
0.0000001
 43
0.0000001
 44
0.0000000001
 12
-0.3001921495
 22
0.0052398735
 32
0.0
 13
0.0104681033
 23
0.3000553311
 33
0.0
 40
0.0
 40
0.0
 40
0.0
 40
0.0
 40
0.0063048267
 40
0.0235000615
 40
0.051561007
 40
0.0901699572
 40
0.1386242753
 40
0.1960531277
 40
0.2615656905
 40
0.3340330261
 40
0.4945776366
 40
0.6668940326
 40
0.8395361711
 40
1.0
 40
1.0
 40
1.0
 40
1.0
 10
-53.6517600536
 20
21.0429250112
 30
0.0
 10
-53.6523909401
 20
21.0429360234
 30
0.0
 10
-53.6525974751
 20
21.0463581268
 30
0.0
 10
-53.6534639132
 20
21.0504679126
 30
0.0
 10
-53.6538537376
 20
21.0594082532
 30
0.0
 10
-53.6543985656
 20
21.0706775326
 30
0.0
 10
-53.6547561991
 20
21.0852251151
 30
0.0
 10
-53.6550460211
 20
21.1023444448
 30
0.0
 10
-53.6552115696
 20
21.1219105598
 30
0.0
 10
-53.6552859946
 20
21.1517826716
 30
0.0
 10
-53.655066639
 20
21.1923499423
 30
0.0
 10
-53.6543798081
 20
21.2429353895
 30
0.0
 10
-53.6532999895
 20
21.2935068557
 30
0.0
 10
-53.6523199709
 20
21.3268299773
 30
0.0
 10
-53.6517600536
 20
21.3428793198
 30
0.0
 11
-53.6517600536
 21
21.0429250112
 31
0.0
 11
-53.6525153208
 21
21.0446607597
 31
0.0
 11
-53.6532019051
 21
21.0497775622
 31
0.0
 11
-53.6538057036
 21
21.0581808566
 31
0.0
 11
-53.6543133219
 21
21.069761606
 31
0.0
 11
-53.6547165986
 21
21.084303837
 31
0.0
 11
-53.6550097169
 21
21.101543662
 31
0.0
 11
-53.6551870804
 21
21.1212122151
 31
0.0
 11
-53.6552462205
 21
21.1429695738
 31
0.0
 11
-53.6550097057
 21
21.1911705666
 31
0.0
 11
-53.6543133035
 21
21.2429017883
 31
0.0
 11
-53.6532018887
 21
21.2947235806
 31
0.0
 11
-53.6517600536
 21
21.3428793198
 31
0.0
  0
SPLINE
  5
3A3
100
AcDbEntity
  8
RACCORDO
100
AcDbSpline
 62
253
  6
CONTINUOUS
 70
0
 71
3
 72
9
 73
5
 74
3
 42
0.0000001
 43
0.0000001
 44
0.0000000001
 12
0.2072377231
 22
-0.628569165
 32
0.0
 13
0.0997950874
 23
-0.6542840435
 33
0.0
 40
0.0
 40
0.0
 40
0.0
 40
0.0
 40
0.2426620343
 40
1.0
 40
1.0
 40
1.0
 40
1.0
 10
-52.3744486698
 20
20.7302423007
 30
0.0
 10
-52.3576857607
 20
20.67939901
 30
0.0
 10
-52.2927990428
 20
20.4685316484
 30
0.0
 10
-52.2446995922
 20
20.252377238
 30
0.0
 10
-52.2195067227
 20
20.0872058558
 30
0.0
 11
-52.3744486698
 21
20.7302423007
 31
0.0
 11
-52.3271831907
 21
20.576748677
 31
0.0
 11
-52.2195067227
 21
20.0872058558
 31
0.0
  0
SPLINE
  5
3A4
100
AcDbEntity
  8
RACCORDO
100
AcDbSpline
 62
253
  6
CONTINUOUS
 70
0
 71
3
 72
25
 73
21
 74
19
 42
0.0000001
 43
0.0000001
 44
0.0000000001
 12
1.9914981801
 22
-0.0396740064
 32
0.0
 13
-0.0259434313
 23
-1.9917243701
 33
0.0
 40
0.0
 40
0.0
 40
0.0
 40
0.0
 40
0.0004417835
 40
0.001401321
 40
0.0050641693
 40
0.0110930376
 40
0.0194904144
 40
0.0302464454
 40
0.0433327385
 40
0.0587157787
 40
0.0763616202
 40
0.1182779334
 40
0.1686689117
 40
0.2270672329
 40
0.2929012952
 40
0.3655522734
 40
0.4443170499
 40
0.6171336592
 40
0.8047464273
 40
1.0
 40
1.0
 40
1.0
 40
1.0
 10
-53.6517618001
 20
21.0429250375
 30
0.0
 10
-53.6514685298
 20
21.0429191951
 30
0.0
 10
-53.6508715293
 20
21.0419348801
 30
0.0
 10
-53.6500777682
 20
21.0388990807
 30
0.0
 10
-53.6490407602
 20
21.0316620367
 30
0.0
 10
-53.6480476179
 20
21.0198242965
 30
0.0
 10
-53.6470335792
 20
21.0030755436
 30
0.0
 10
-53.6461002441
 20
20.9817118593
 30
0.0
 10
-53.6452243883
 20
20.9556739617
 30
0.0
 10
-53.6444238968
 20
20.9250681183
 30
0.0
 10
-53.6433982889
 20
20.8753163967
 30
0.0
 10
-53.6423825865
 20
20.8023184857
 30
0.0
 10
-53.6415369513
 20
20.7022583361
 30
0.0
 10
-53.6410291061
 20
20.5863155713
 30
0.0
 10
-53.6408637162
 20
20.4555919364
 30
0.0
 10
-53.6410476799
 20
20.311345776
 30
0.0
 10
-53.6417801219
 20
20.0960681309
 30
0.0
 10
-53.6435921589
 20
19.8044638568
 30
0.0
 10
-53.6469674556
 20
19.4355251684
 30
0.0
 10
-53.6499609403
 20
19.1813328206
 30
0.0
 10
-53.6516494562
 20
19.0517023876
 30
0.0
 11
-53.6517618001
 21
21.0429250375
 31
0.0
 11
-53.651129612
 21
21.0423128996
 31
0.0
 11
-53.6505133146
 21
21.0405036922
 31
0.0
 11
-53.649329891
 21
21.0333043056
 31
0.0
 11
-53.6482145286
 21
21.0213473516
 31
0.0
 11
-53.6471702264
 21
21.0046533043
 31
0.0
 11
-53.6461998328
 21
20.983250425
 31
0.0
 11
-53.6453055696
 21
20.9571992695
 31
0.0
 11
-53.6444894966
 21
20.9265687634
 31
0.0
 11
-53.6437536735
 21
20.8914278325
 31
0.0
 11
-53.6425298973
 21
20.8079439771
 31
0.0
 11
-53.6416449712
 21
20.7075744246
 31
0.0
 11
-53.6411075059
 21
20.5912524398
 31
0.0
 11
-53.6409222347
 21
20.4601181413
 31
0.0
 11
-53.641091731
 21
20.3154052419
 31
0.0
 11
-53.6416136934
 21
20.1585150775
 31
0.0
 11
-53.6436925525
 21
19.8142891037
 31
0.0
 11
-53.6470814213
 21
19.4405998488
 31
0.0
 11
-53.6516494562
 21
19.0517023876
 31
0.0
  0
LINE
  5
3A5
100
AcDbEntity
  8
RACCORDO
100
AcDbLine
 62
253
  6
CONTINUOUS
 10
-53.6516494562
 20
19.0517023876
 11
-53.6517600536
 21
19.0432296209
  0
LINE
  5
3A6
100
AcDbEntity
  8
RACCORDO
100
AcDbLine
 62
253
  6
CONTINUOUS
 10
-53.6517618001
 20
-16.6596006279
 11
-53.6516493851
 21
-16.6682023935
  0
SPLINE
  5
3A7
100
AcDbEntity
  8
RACCORDO
100
AcDbSpline
 62
253
  6
CONTINUOUS
 70
0
 71
3
 72
25
 73
21
 74
19
 42
0.0000001
 43
0.0000001
 44
0.0000000001
 12
0.0259722827
 22
-1.9917225675
 32
0.0
 13
-1.9913924451
 23
-0.0446035306
 33
0.0
 40
0.0
 40
0.0
 40
0.0
 40
0.0
 40
0.1952460647
 40
0.3828519348
 40
0.5556634101
 40
0.634426526
 40
0.7070765355
 40
0.7729103888
 40
0.8313093709
 40
0.8817019284
 40
0.9236205636
 40
0.9412677971
 40
0.9566524692
 40
0.9697407571
 40
0.9804992705
 40
0.9888996323
 40
0.9949316195
 40
0.998597239
 40
0.9995578148
 40
1.0
 40
1.0
 40
1.0
 40
1.0
 10
-53.6516493851
 20
-16.6682023935
 30
0.0
 10
-53.6499590564
 20
-16.7978277246
 30
0.0
 10
-53.6469691376
 20
-17.0520103699
 30
0.0
 10
-53.6435923496
 20
-17.4209358013
 30
0.0
 10
-53.6417806585
 20
-17.7125307789
 30
0.0
 10
-53.6410479992
 20
-17.927803114
 30
0.0
 10
-53.6408637298
 20
-18.0720472862
 30
0.0
 10
-53.6410287859
 20
-18.2027704848
 30
0.0
 10
-53.6415363751
 20
-18.3187145161
 30
0.0
 10
-53.642381947
 20
-18.4187776249
 30
0.0
 10
-53.6433974948
 20
-18.4917789977
 30
0.0
 10
-53.6444226648
 20
-18.5415342452
 30
0.0
 10
-53.6452228754
 20
-18.572143401
 30
0.0
 10
-53.646098531
 20
-18.5981853643
 30
0.0
 10
-53.6470321019
 20
-18.6195539295
 30
0.0
 10
-53.6480463196
 20
-18.6363085167
 30
0.0
 10
-53.6490407392
 20
-18.6481517123
 30
0.0
 10
-53.6500766227
 20
-18.6553941157
 30
0.0
 10
-53.6508712508
 20
-18.6584320224
 30
0.0
 10
-53.6514665322
 20
-18.659418412
 30
0.0
 10
-53.6517600536
 20
-18.6594249863
 30
0.0
 11
-53.6516493851
 21
-16.6682023935
 31
0.0
 11
-53.6470819835
 21
-17.0570846275
 31
0.0
 11
-53.6436930506
 21
-17.4307598736
 31
0.0
 11
-53.6416141349
 21
-17.7749753738
 31
0.0
 11
-53.6410920176
 21
-17.9318621176
 31
0.0
 11
-53.6409222276
 21
-18.0765729837
 31
0.0
 11
-53.6411071784
 21
-18.2077067723
 31
0.0
 11
-53.641644409
 21
-18.3240299914
 31
0.0
 11
-53.642529216
 21
-18.4244026187
 31
0.0
 11
-53.6437527028
 21
-18.5078910443
 31
0.0
 11
-53.6444882372
 21
-18.5430347294
 31
0.0
 11
-53.6453040306
 21
-18.5736684727
 31
0.0
 11
-53.6461981604
 21
-18.5997235899
 31
0.0
 11
-53.6471687044
 21
-18.6211313967
 31
0.0
 11
-53.6482134756
 21
-18.6378313601
 31
0.0
 11
-53.6493292633
 21
-18.6497945051
 31
0.0
 11
-53.6505126088
 21
-18.6569994934
 31
0.0
 11
-53.6511285349
 21
-18.6588110104
 31
0.0
 11
-53.6517600536
 21
-18.6594249863
 31
0.0
  0
SPLINE
  5
3A8
100
AcDbEntity
  8
RACCORDO
100
AcDbSpline
 62
253
  6
CONTINUOUS
 70
0
 71
3
 72
19
 73
15
 74
13
 42
0.0000001
 43
0.0000001
 44
0.0000000001
 12
0.3001930898
 22
-0.0052398899
 32
0.0
 13
-0.0104686236
 23
-0.300056254
 33
0.0
 40
0.0
 40
0.0
 40
0.0
 40
0.0
 40
0.0062913166
 40
0.023471748
 40
0.0515692993
 40
0.0901871485
 40
0.1386110048
 40
0.1960750445
 40
0.2615917835
 40
0.3340188659
 40
0.4946637523
 40
0.6669713357
 40
0.8394413334
 40
1.0
 40
1.0
 40
1.0
 40
1.0
 10
-52.374448182
 20
22.2706294496
 30
0.0
 10
-52.3738186454
 20
22.270618461
 30
0.0
 10
-52.3736055577
 20
22.2672036937
 30
0.0
 10
-52.3727433209
 20
22.2630907088
 30
0.0
 10
-52.3723539252
 20
22.2541475478
 30
0.0
 10
-52.3718103308
 20
22.2428763701
 30
0.0
 10
-52.3714514505
 20
22.2283275952
 30
0.0
 10
-52.3711627802
 20
22.211207258
 30
0.0
 10
-52.370996346
 20
22.1916412012
 30
0.0
 10
-52.370920385
 20
22.1617625615
 30
0.0
 10
-52.3711425666
 20
22.1211900497
 30
0.0
 10
-52.371828848
 20
22.0706125252
 30
0.0
 10
-52.3729067492
 20
22.0200494724
 30
0.0
 10
-52.3738879059
 20
21.9867340184
 30
0.0
 10
-52.374448182
 20
21.970675141
 30
0.0
 11
-52.374448182
 21
22.2706294496
 31
0.0
 11
-52.3736915283
 21
22.2688987246
 31
0.0
 11
-52.3730045948
 21
22.2637864371
 31
0.0
 11
-52.3724018103
 21
22.2553720247
 31
0.0
 11
-52.3718949665
 21
22.2437885307
 31
0.0
 11
-52.3714916035
 21
22.2292554059
 31
0.0
 11
-52.3711986931
 21
22.2120049571
 31
0.0
 11
-52.371020819
 21
22.1923350931
 31
0.0
 11
-52.3709608889
 21
22.1705897541
 31
0.0
 11
-52.3711989376
 21
22.1223585108
 31
0.0
 11
-52.3718953825
 21
22.0706297737
 31
0.0
 11
-52.3730047843
 21
22.018859471
 31
0.0
 11
-52.374448182
 21
21.970675141
 31
0.0
  0
SPLINE
  5
3A9
100
AcDbEntity
  8
RACCORDO
100
AcDbSpline
 62
253
  6
CONTINUOUS
 70
0
 71
3
 72
13
 73
9
 74
7
 42
0.0000001
 43
0.0000001
 44
0.0000000001
 12
0.2380944171
 22
0.0020779768
 32
0.0
 13
0.0
 23
0.2381034847
 33
0.0
 40
0.0
 40
0.0
 40
0.0
 40
0.0
 40
0.318773271
 40
0.601469734
 40
0.72183162
 40
0.8265013363
 40
0.9175028244
 40
1.0
 40
1.0
 40
1.0
 40
1.0
 10
-52.374448182
 20
21.970675141
 30
0.0
 10
-52.3491488032
 20
21.9708959422
 30
0.0
 10
-52.301359842
 20
21.9757456934
 30
0.0
 10
-52.2460923258
 20
21.9932952767
 30
0.0
 10
-52.2113964528
 20
22.0141667116
 30
0.0
 10
-52.1927331585
 20
22.0312586323
 30
0.0
 10
-52.1808100349
 20
22.050241951
 30
0.0
 10
-52.1779386632
 20
22.0641122889
 30
0.0
 10
-52.1779386632
 20
22.0706599105
 30
0.0
 11
-52.374448182
 21
21.970675141
 31
0.0
 11
-52.2989813233
 21
21.9787818719
 31
0.0
 11
-52.2352949166
 21
22.0005721008
 31
0.0
 11
-52.2109215866
 21
22.0156470883
 31
0.0
 11
-52.1928325774
 21
22.0327907462
 31
0.0
 11
-52.1817014688
 21
22.0513808172
 31
0.0
 11
-52.1779386632
 21
22.0706599105
 31
0.0
  0
SPLINE
  5
3AA
100
AcDbEntity
  8
RACCORDO
100
AcDbSpline
 62
253
  6
CONTINUOUS
 70
0
 71
3
 72
13
 73
9
 74
7
 42
0.0000001
 43
0.0000001
 44
0.0000000001
 12
0.0
 22
0.2381054765
 32
0.0
 13
-0.2380964088
 23
0.0020779941
 33
0.0
 40
0.0
 40
0.0
 40
0.0
 40
0.0
 40
0.0823964066
 40
0.1732135832
 40
0.2777504534
 40
0.3980121542
 40
0.6807843176
 40
1.0
 40
1.0
 40
1.0
 40
1.0
 10
-52.1779386632
 20
-19.6871598857
 30
0.0
 10
-52.1779386632
 20
-19.6806202071
 30
0.0
 10
-52.1807881117
 20
-19.6667692041
 30
0.0
 10
-52.1926957978
 20
-19.6478138515
 30
0.0
 10
-52.2113187256
 20
-19.6307305899
 30
0.0
 10
-52.2459843276
 20
-19.6098298995
 30
0.0
 10
-52.3012840467
 20
-19.5922590026
 30
0.0
 10
-52.3491134794
 20
-19.5873962256
 30
0.0
 10
-52.374448182
 20
-19.5871751161
 30
0.0
 11
-52.1779386632
 21
-19.6871598857
 31
0.0
 11
-52.1816851819
 21
-19.6679018962
 31
0.0
 11
-52.1927887441
 21
-19.6493462721
 31
0.0
 11
-52.2108425867
 21
-19.6322111982
 31
0.0
 11
-52.2351820648
 21
-19.617126395
 31
0.0
 11
-52.2988771245
 21
-19.5953040556
 31
0.0
 11
-52.374448182
 21
-19.5871751161
 31
0.0
  0
SPLINE
  5
3AB
100
AcDbEntity
  8
RACCORDO
100
AcDbSpline
 62
253
  6
CONTINUOUS
 70
0
 71
3
 72
9
 73
5
 74
3
 42
0.0000001
 43
0.0000001
 44
0.0000000001
 12
-0.0997863724
 22
-0.6547296706
 32
0.0
 13
-0.2073737839
 23
-0.6289867848
 33
0.0
 40
0.0
 40
0.0
 40
0.0
 40
0.0
 40
0.2552708766
 40
1.0
 40
1.0
 40
1.0
 40
1.0
 10
-52.2194452757
 20
-17.70330524
 30
0.0
 10
-52.2279361273
 20
-17.759016379
 30
0.0
 10
-52.2661773673
 20
-17.9764824075
 30
0.0
 10
-52.3229697629
 20
-18.1906014641
 30
0.0
 10
-52.3744488616
 20
-18.3467430564
 30
0.0
 11
-52.2194452757
 21
-17.70330524
 31
0.0
 11
-52.24866873
 21
-17.869823767
 31
0.0
 11
-52.3744488616
 21
-18.3467430564
 31
0.0
  0
SPLINE
  5
3AC
100
AcDbEntity
  8
RACCORDO
100
AcDbSpline
 62
253
  6
CONTINUOUS
 70
0
 71
3
 72
13
 73
9
 74
7
 42
0.0000001
 43
0.0000001
 44
0.0000000001
 12
0.2380945586
 22
-0.0020774323
 32
0.0
 13
0.0
 23
-0.2381036215
 33
0.0
 40
0.0
 40
0.0
 40
0.0
 40
0.0
 40
0.3187735184
 40
0.6014701579
 40
0.7218320586
 40
0.8265016904
 40
0.9175030097
 40
1.0
 40
1.0
 40
1.0
 40
1.0
 10
-52.3744485294
 20
-18.346739671
 30
0.0
 10
-52.349149116
 20
-18.3469604145
 30
0.0
 10
-52.3013600821
 20
-18.3518100683
 30
0.0
 10
-52.2460924648
 20
-18.3693595556
 30
0.0
 10
-52.211396516
 20
-18.3902309274
 30
0.0
 10
-52.1927331902
 20
-18.4073228059
 30
0.0
 10
-52.1808100357
 20
-18.4263060813
 30
0.0
 10
-52.1779386632
 20
-18.4401764009
 30
0.0
 10
-52.1779386632
 20
-18.4467240116
 30
0.0
 11
-52.3744485294
 21
-18.346739671
 31
0.0
 11
-52.2989815509
 21
-18.3548462471
 31
0.0
 11
-52.2352950211
 21
-18.3766363652
 31
0.0
 11
-52.2109216407
 21
-18.3917113092
 31
0.0
 11
-52.1928325999
 21
-18.4088549253
 31
0.0
 11
-52.1817014719
 21
-18.4274449524
 31
0.0
 11
-52.1779386632
 21
-18.4467240116
 31
0.0
  0
SPLINE
  5
3AD
100
AcDbEntity
  8
RACCORDO
100
AcDbSpline
 62
253
  6
CONTINUOUS
 70
0
 71
3
 72
18
 73
14
 74
12
 42
0.0000001
 43
0.0000001
 44
0.0000000001
 12
0.0034904189
 22
-0.2000268907
 32
0.0
 13
-0.2000268721
 23
-0.003491482
 33
0.0
 40
0.0
 40
0.0
 40
0.0
 40
0.0
 40
0.1945885292
 40
0.3824831262
 40
0.5553439059
 40
0.7067332122
 40
0.8309633413
 40
0.8814416754
 40
0.9234433328
 40
0.9564910501
 40
0.9803510933
 40
0.9948644164
 40
1.0
 40
1.0
 40
1.0
 40
1.0
 10
-56.6255814439
 20
-6.5113636928
 30
0.0
 10
-56.6253550454
 20
-6.5243380056
 30
0.0
 10
-56.6249537656
 20
-6.5498412624
 30
0.0
 10
-56.6244986379
 20
-6.5868713646
 30
0.0
 10
-56.6242130185
 20
-6.6210253666
 30
0.0
 10
-56.6241098172
 20
-6.6509255428
 30
0.0
 10
-56.624163499
 20
-6.6726889624
 30
0.0
 10
-56.6243355531
 20
-6.6871123884
 30
0.0
 10
-56.6244644975
 20
-6.6955411263
 30
0.0
 10
-56.624727034
 20
-6.7019789986
 30
0.0
 10
-56.6247989141
 20
-6.7070933913
 30
0.0
 10
-56.6253153106
 20
-6.7093476659
 30
0.0
 10
-56.6252390257
 20
-6.7113272549
 30
0.0
 10
-56.6255814439
 20
-6.7113332318
 30
0.0
 11
-56.6255814439
 21
-6.5113636928
 31
0.0
 11
-56.6249694726
 21
-6.5502877462
 31
0.0
 11
-56.6245119422
 21
-6.5878746553
 31
0.0
 11
-56.6242312317
 21
-6.622455584
 31
0.0
 11
-56.6241363909
 21
-6.6527419777
 31
0.0
 11
-56.6242312316
 21
-6.6775949462
 31
0.0
 11
-56.6243487106
 21
-6.6876928242
 31
0.0
 11
-56.6245119422
 21
-6.6960939785
 31
0.0
 11
-56.6247197954
 21
-6.7027021488
 31
0.0
 11
-56.6249694726
 21
-6.7074689914
 31
0.0
 11
-56.6252577601
 21
-6.7103581407
 31
0.0
 11
-56.6255814439
 21
-6.7113332318
 31
0.0
  0
LINE
  5
3AE
100
AcDbEntity
  8
RACCORDO
100
AcDbLine
 62
7
  6
CONTINUOUS
 10
-62.1779386632
 20
-6.6082804485
 11
-62.1779386632
 21
-6.8082499876
  0
SPLINE
  5
3AF
100
AcDbEntity
  8
RACCORDO
100
AcDbSpline
 62
253
  6
CONTINUOUS
 70
0
 71
3
 72
18
 73
14
 74
12
 42
0.0000001
 43
0.0000001
 44
0.0000000001
 12
-0.200026872
 22
-0.003491482
 32
0.0
 13
0.0034904087
 23
-0.2000268908
 33
0.0
 40
0.0
 40
0.0
 40
0.0
 40
0.0
 40
0.005135583
 40
0.0196489047
 40
0.0435089463
 40
0.0765566625
 40
0.1185583182
 40
0.1690366494
 40
0.2932667736
 40
0.4446560776
 40
0.6175168612
 40
0.805411467
 40
1.0
 40
1.0
 40
1.0
 40
1.0
 10
-67.7128434761
 20
9.0951378896
 30
0.0
 10
-67.7131858943
 20
9.0951319126
 30
0.0
 10
-67.7131096095
 20
9.0931523238
 30
0.0
 10
-67.7136260058
 20
9.0908980495
 30
0.0
 10
-67.7136978859
 20
9.085783657
 30
0.0
 10
-67.7139604222
 20
9.079345785
 30
0.0
 10
-67.7140893664
 20
9.0709170475
 30
0.0
 10
-67.7142614202
 20
9.0564936222
 30
0.0
 10
-67.7143151015
 20
9.0347302032
 30
0.0
 10
-67.7142118994
 20
9.0048300272
 30
0.0
 10
-67.7139262797
 20
8.9706760245
 30
0.0
 10
-67.7134711527
 20
8.9336459213
 30
0.0
 10
-67.713069874
 20
8.9081426636
 30
0.0
 10
-67.7128434761
 20
8.8951683505
 30
0.0
 11
-67.7128434761
 21
9.0951378896
 31
0.0
 11
-67.7131671599
 21
9.0941627986
 31
0.0
 11
-67.7134554473
 21
9.0912736495
 31
0.0
 11
-67.7137051245
 21
9.0865068073
 31
0.0
 11
-67.7139129775
 21
9.0798986372
 31
0.0
 11
-67.7140762089
 21
9.0714974832
 31
0.0
 11
-67.7141936876
 21
9.0613996058
 31
0.0
 11
-67.7142885279
 21
9.0365466383
 31
0.0
 11
-67.7141936864
 21
9.0062602451
 31
0.0
 11
-67.7139129755
 21
8.9716793155
 31
0.0
 11
-67.7134554458
 21
8.9340924047
 31
0.0
 11
-67.7128434761
 21
8.8951683505
 31
0.0
  0
SPLINE
  5
3B0
100
AcDbEntity
  8
RACCORDO
100
AcDbSpline
 62
253
  6
CONTINUOUS
 70
0
 71
3
 72
18
 73
14
 74
12
 42
0.0000001
 43
0.0000001
 44
0.0000000001
 12
0.0034904338
 22
-0.2000268904
 32
0.0
 13
-0.2000268721
 23
-0.003491482
 33
0.0
 40
0.0
 40
0.0
 40
0.0
 40
0.0
 40
0.1945885023
 40
0.382483028
 40
0.5553437616
 40
0.706733068
 40
0.8309632376
 40
0.8814415997
 40
0.923443272
 40
0.9564910012
 40
0.9803510651
 40
0.9948644078
 40
1.0
 40
1.0
 40
1.0
 40
1.0
 10
-68.2041172729
 20
9.2865322126
 30
0.0
 10
-68.2038908735
 20
9.2735579016
 30
0.0
 10
-68.2034895921
 20
9.2480546513
 30
0.0
 10
-68.2030344634
 20
9.2110245588
 30
0.0
 10
-68.2027488445
 20
9.1768705646
 30
0.0
 10
-68.2026456442
 20
9.1469703887
 30
0.0
 10
-68.2026993265
 20
9.1252069645
 30
0.0
 10
-68.2028713808
 20
9.110783533
 30
0.0
 10
-68.2030003254
 20
9.1023547914
 30
0.0
 10
-68.2032628624
 20
9.095916916
 30
0.0
 10
-68.2033347424
 20
9.0908025195
 30
0.0
 10
-68.20385114
 20
9.0885482427
 30
0.0
 10
-68.2037748541
 20
9.0865686505
 30
0.0
 10
-68.2041172729
 20
9.0865626735
 30
0.0
 11
-68.2041172729
 21
9.2865322126
 31
0.0
 11
-68.2035052992
 21
9.2476081645
 31
0.0
 11
-68.203047768
 21
9.2100212698
 31
0.0
 11
-68.2027670578
 21
9.1754403502
 31
0.0
 11
-68.2026722179
 21
9.1451539565
 31
0.0
 11
-68.2027670592
 21
9.1203009799
 31
0.0
 11
-68.2028845383
 21
9.1102030964
 31
0.0
 11
-68.2030477702
 21
9.1018019391
 31
0.0
 11
-68.2032556237
 21
9.0951937663
 31
0.0
 11
-68.2035053012
 21
9.0904269197
 31
0.0
 11
-68.2037935889
 21
9.0875377663
 31
0.0
 11
-68.2041172729
 21
9.0865626735
 31
0.0
  0
SPLINE
  5
3B1
100
AcDbEntity
  8
RACCORDO
100
AcDbSpline
 62
253
  6
CONTINUOUS
 70
0
 71
3
 72
9
 73
5
 74
3
 42
0.0000001
 43
0.0000001
 44
0.0000000001
 12
0.0000006422
 22
-0.0039934512
 32
0.0
 13
0.0039930619
 23
0.0000557628
 33
0.0
 40
0.0
 40
0.0
 40
0.0
 40
0.0
 40
0.5813827692
 40
1.0
 40
1.0
 40
1.0
 40
1.0
 10
-69.6779386631
 20
8.8673245021
 30
0.0
 10
-69.6779385386
 20
8.8665505942
 30
0.0
 10
-69.6779151151
 20
8.8650303131
 30
0.0
 10
-69.6764890053
 20
8.8643227967
 30
0.0
 10
-69.6759318171
 20
8.8643305778
 30
0.0
 11
-69.6779386631
 21
8.8673245021
 31
0.0
 11
-69.6774371863
 21
8.865057583
 31
0.0
 11
-69.6759318171
 21
8.8643305778
 31
0.0
  0
LINE
  5
3B2
100
AcDbEntity
  8
RACCORDO
100
AcDbLine
 62
253
  6
CONTINUOUS
 10
-69.6759318171
 20
8.8643305778
 11
-67.7128434761
 21
8.8951683505
  0
SPLINE
  5
3B3
100
AcDbEntity
  8
RACCORDO
100
AcDbSpline
 62
253
  6
CONTINUOUS
 70
0
 71
3
 72
9
 73
5
 74
3
 42
0.0000001
 43
0.0000001
 44
0.0000000001
 12
-0.0039932921
 22
0.0000563813
 32
0.0
 13
-0.0000006365
 23
-0.00399369
 33
0.0
 40
0.0
 40
0.0
 40
0.0
 40
0.0
 40
0.4185705895
 40
1.0
 40
1.0
 40
1.0
 40
1.0
 10
-69.675931605
 20
-6.4808304047
 30
0.0
 10
-69.6764887632
 20
-6.4808225382
 30
0.0
 10
-69.6779152883
 20
-6.4815295097
 30
0.0
 10
-69.6779385397
 20
-6.4830501477
 30
0.0
 10
-69.6779386631
 20
-6.4838241639
 30
0.0
 11
-69.675931605
 21
-6.4808304047
 31
0.0
 11
-69.6774371106
 21
-6.4815569286
 31
0.0
 11
-69.6779386631
 21
-6.4838241639
 31
0.0
  0
LINE
  5
3B4
100
AcDbEntity
  8
RACCORDO
100
AcDbLine
 62
253
  6
CONTINUOUS
 10
-67.7128434761
 20
-6.5116683257
 11
-69.675931605
 21
-6.4808304047
  0
LINE
  5
3B5
100
AcDbEntity
  8
RACCORDO
100
AcDbLine
 62
253
  6
CONTINUOUS
 10
-68.2039777072
 20
9.2865349509
 11
-69.6779386619
 21
9.2573766044
  0
LINE
  5
3B6
100
AcDbEntity
  8
RACCORDO
100
AcDbLine
 62
253
  6
CONTINUOUS
 10
-69.6779386602
 20
-6.8738766364
 11
-68.2039566159
 21
-6.903035338
  0
SPLINE
  5
3B7
100
AcDbEntity
  8
RACCORDO
100
AcDbSpline
 62
253
  6
CONTINUOUS
 70
0
 71
3
 72
9
 73
5
 74
3
 42
0.0000001
 43
0.0000001
 44
0.0000000001
 12
-0.0212519527
 22
-0.0003683005
 32
0.0
 13
-0.0210646027
 23
0.0028396576
 33
0.0
 40
0.0
 40
0.0
 40
0.0
 40
0.0
 40
0.2605638444
 40
1.0
 40
1.0
 40
1.0
 40
1.0
 10
-69.4796216849
 20
9.0642992281
 30
0.0
 10
-69.4814675151
 20
9.0642672395
 30
0.0
 10
-69.4885523171
 20
9.064261605
 30
0.0
 10
-69.4956430846
 20
9.0647424791
 30
0.0
 10
-69.5008350609
 20
9.0654423942
 30
0.0
 11
-69.4796216849
 21
9.0642992281
 31
0.0
 11
-69.4851600066
 21
9.0642973339
 31
0.0
 11
-69.5008350609
 21
9.0654423942
 31
0.0
  0
SPLINE
  5
3B8
100
AcDbEntity
  8
RACCORDO
100
AcDbSpline
 62
253
  6
CONTINUOUS
 70
0
 71
3
 72
11
 73
7
 74
5
 42
0.0000001
 43
0.0000001
 44
0.0000000001
 12
-0.2578994005
 22
-0.0620448399
 32
0.0
 13
-0.0000031497
 23
-0.2652577292
 33
0.0
 40
0.0
 40
0.0
 40
0.0
 40
0.0
 40
0.2505449913
 40
0.5004988523
 40
0.7503693861
 40
1.0
 40
1.0
 40
1.0
 40
1.0
 10
-69.5247122324
 20
9.0612075003
 30
0.0
 10
-69.5462507001
 20
9.0560258256
 30
0.0
 10
-69.5878965947
 20
9.0384001735
 30
0.0
 10
-69.6379605996
 20
8.9930455056
 30
0.0
 10
-69.6704440181
 20
8.9339142871
 30
0.0
 10
-69.6779393079
 20
8.8893979116
 30
0.0
 10
-69.67793957
 20
8.8673257617
 30
0.0
 11
-69.5247122324
 21
9.0612075003
 31
0.0
 11
-69.5858776457
 21
9.0352153804
 31
0.0
 11
-69.6350441581
 21
8.9907335309
 31
0.0
 11
-69.6669124046
 21
8.9326175671
 31
0.0
 11
-69.67793957
 21
8.8673257617
 31
0.0
  0
SPLINE
  5
3B9
100
AcDbEntity
  8
RACCORDO
100
AcDbSpline
 62
253
  6
CONTINUOUS
 70
0
 71
3
 72
25
 73
21
 74
19
 42
0.0000001
 43
0.0000001
 44
0.0000000001
 12
-1.9914996676
 22
-0.039594539
 32
0.0
 13
0.0259741168
 23
-1.9917238761
 33
0.0
 40
0.0
 40
0.0
 40
0.0
 40
0.0
 40
0.0004417441
 40
0.0014012808
 40
0.0050641729
 40
0.0110931092
 40
0.0194905519
 40
0.0302466286
 40
0.0433329491
 40
0.0587160055
 40
0.0763618579
 40
0.1182781914
 40
0.1686691809
 40
0.2270674945
 40
0.2929015309
 40
0.3655524688
 40
0.4443171973
 40
0.6171336795
 40
0.8047462908
 40
1.0
 40
1.0
 40
1.0
 40
1.0
 10
-68.2041155541
 20
21.0865626995
 30
0.0
 10
-68.2044087985
 20
21.0865568693
 30
0.0
 10
-68.2050057032
 20
21.0855724794
 30
0.0
 10
-68.2057994321
 20
21.0825367699
 30
0.0
 10
-68.2068364819
 20
21.0752995608
 30
0.0
 10
-68.2078297475
 20
21.0634617699
 30
0.0
 10
-68.2088438958
 20
21.0467128796
 30
0.0
 10
-68.2097772668
 20
21.0253491146
 30
0.0
 10
-68.2106531104
 20
20.9993111552
 30
0.0
 10
-68.2114535662
 20
20.9687052773
 30
0.0
 10
-68.2124791295
 20
20.9189535252
 30
0.0
 10
-68.2134948593
 20
20.8459555903
 30
0.0
 10
-68.2143405304
 20
20.7458954295
 30
0.0
 10
-68.2148483242
 20
20.6299526848
 30
0.0
 10
-68.215013604
 20
20.4992291049
 30
0.0
 10
-68.2148294952
 20
20.3549830272
 30
0.0
 10
-68.2140969614
 20
20.139705536
 30
0.0
 10
-68.2122852361
 20
19.8481014921
 30
0.0
 10
-68.2089083274
 20
19.4791629388
 30
0.0
 10
-68.2059184658
 20
19.2249705703
 30
0.0
 10
-68.2042279516
 20
19.0953400788
 30
0.0
 11
-68.2041155541
 21
21.0865626995
 31
0.0
 11
-68.2047476457
 21
21.0859505747
 31
0.0
 11
-68.2053638982
 21
21.084141354
 31
0.0
 11
-68.2065473458
 21
21.0769418831
 31
0.0
 11
-68.207662816
 21
21.0649848037
 31
0.0
 11
-68.208707228
 21
21.0482906325
 31
0.0
 11
-68.2096776696
 21
21.0268876654
 31
0.0
 11
-68.2105719275
 21
21.0008364561
 31
0.0
 11
-68.2113879696
 21
20.9702059187
 31
0.0
 11
-68.2121237638
 21
20.935064967
 31
0.0
 11
-68.2133475462
 21
20.8515810751
 31
0.0
 11
-68.2142324962
 21
20.7512115053
 31
0.0
 11
-68.2147699194
 21
20.6348895411
 31
0.0
 11
-68.2149550859
 21
20.5037553002
 31
0.0
 11
-68.2147854615
 21
20.3590424878
 31
0.0
 11
-68.2142634409
 21
20.2021524265
 31
0.0
 11
-68.212184533
 21
19.8579267227
 31
0.0
 11
-68.2087955227
 21
19.4842377989
 31
0.0
 11
-68.2042279516
 21
19.0953400788
 31
0.0
  0
LINE
  5
3BA
100
AcDbEntity
  8
RACCORDO
100
AcDbLine
 62
253
  6
CONTINUOUS
 10
-68.2042279516
 20
19.0953400788
 11
-68.2041155895
 21
19.0867429732
  0
SPLINE
  5
3BB
100
AcDbEntity
  8
RACCORDO
100
AcDbSpline
 62
253
  6
CONTINUOUS
 70
0
 71
3
 72
8
 73
4
 74
2
 42
0.0000001
 43
0.0000001
 44
0.0000000001
 12
-0.0000033122
 22
0.1023980187
 32
0.0
 13
0.050672121
 23
0.0889814048
 33
0.0
 40
0.0
 40
0.0
 40
0.0
 40
0.0
 40
1.0
 40
1.0
 40
1.0
 40
1.0
 10
-69.6759326549
 20
8.8643296383
 30
0.0
 10
-69.6759337589
 20
8.8984623112
 30
0.0
 10
-69.6666332827
 20
8.9336612606
 30
0.0
 10
-69.6497425757
 20
8.9633217289
 30
0.0
 11
-69.6759326549
 21
8.8643296383
 31
0.0
 11
-69.6497425757
 21
8.9633217289
 31
0.0
  0
LINE
  5
3BC
100
AcDbEntity
  8
RACCORDO
100
AcDbLine
 62
253
  6
CONTINUOUS
 10
-68.2041155541
 20
-16.7032403368
 11
-68.2042279212
 21
-16.7118400458
  0
SPLINE
  5
3BD
100
AcDbEntity
  8
RACCORDO
100
AcDbSpline
 62
253
  6
CONTINUOUS
 70
0
 71
3
 72
25
 73
21
 74
19
 42
0.0000001
 43
0.0000001
 44
0.0000000001
 12
-0.0259676668
 22
-1.9917240586
 32
0.0
 13
1.9915016962
 23
-0.0394973346
 33
0.0
 40
0.0
 40
0.0
 40
0.0
 40
0.0
 40
0.1952535452
 40
0.3828660058
 40
0.5556823737
 40
0.6344470643
 40
0.7070979785
 40
0.7729320065
 40
0.831330331
 40
0.8817213522
 40
0.9236377277
 40
0.9412836024
 40
0.9566666869
 40
0.9697530477
 40
0.9805091824
 40
0.9889067003
 40
0.99493571
 40
0.9985986547
 40
0.9995582116
 40
1.0
 40
1.0
 40
1.0
 40
1.0
 10
-68.2042279212
 20
-16.7118400458
 30
0.0
 10
-68.2059180142
 20
-16.8414704403
 30
0.0
 10
-68.2089086836
 20
-17.0956626021
 30
0.0
 10
-68.212285224
 20
-17.4646008932
 30
0.0
 10
-68.2140970279
 20
-17.7562047495
 30
0.0
 10
-68.2148295375
 20
-17.9714821347
 30
0.0
 10
-68.215013605
 20
-18.1157281731
 30
0.0
 10
-68.2148482845
 20
-18.2464517452
 30
0.0
 10
-68.2143404714
 20
-18.3623945184
 30
0.0
 10
-68.2134948275
 20
-18.4624547403
 30
0.0
 10
-68.2124791006
 20
-18.5354527431
 30
0.0
 10
-68.2114534741
 20
-18.5852045573
 30
0.0
 10
-68.210652975
 20
-18.6158104969
 30
0.0
 10
-68.2097771189
 20
-18.6418485377
 30
0.0
 10
-68.2088438018
 20
-18.6632124301
 30
0.0
 10
-68.2078297856
 20
-18.6799614425
 30
0.0
 10
-68.2068367026
 20
-18.6917994352
 30
0.0
 10
-68.205799661
 20
-18.6990366591
 30
0.0
 10
-68.2050059304
 20
-18.7020725336
 30
0.0
 10
-68.2044088636
 20
-18.7030568577
 30
0.0
 10
-68.2041155895
 20
-18.7030626742
 30
0.0
 11
-68.2042279212
 21
-16.7118400458
 31
0.0
 11
-68.2087956188
 21
-17.100737457
 31
0.0
 11
-68.2121845931
 21
-17.4744260992
 31
0.0
 11
-68.214263494
 21
-17.8186515926
 31
0.0
 11
-68.2147854986
 21
-17.9755415861
 31
0.0
 11
-68.214955085
 21
-18.1202543584
 31
0.0
 11
-68.2147698815
 21
-18.2513885888
 31
0.0
 11
-68.2142324457
 21
-18.3677105806
 31
0.0
 11
-68.2133475119
 21
-18.4680802187
 31
0.0
 11
-68.2121237101
 21
-18.5515641981
 31
0.0
 11
-68.2113878749
 21
-18.5867051951
 31
0.0
 11
-68.2105717956
 21
-18.6173357892
 31
0.0
 11
-68.2096775363
 21
-18.6433870798
 31
0.0
 11
-68.2087071612
 21
-18.6647901666
 31
0.0
 11
-68.2076628918
 21
-18.6814844977
 31
0.0
 11
-68.2065475566
 21
-18.693441737
 31
0.0
 11
-68.2053641309
 21
-18.700641318
 31
0.0
 11
-68.2047478137
 21
-18.7024505596
 31
0.0
 11
-68.2041155895
 21
-18.7030626742
 31
0.0
  0
SPLINE
  5
3BE
100
AcDbEntity
  8
RACCORDO
100
AcDbSpline
 62
253
  6
CONTINUOUS
 70
0
 71
3
 72
8
 73
4
 74
2
 42
0.0000001
 43
0.0000001
 44
0.0000000001
 12
-0.0231455442
 22
0.0031192222
 32
0.0
 13
-0.0224196434
 23
0.0065425799
 33
0.0
 40
0.0
 40
0.0
 40
0.0
 40
0.0
 40
1.0
 40
1.0
 40
1.0
 40
1.0
 10
-69.500835161
 20
9.0654432609
 30
0.0
 10
-69.5085503424
 20
9.0664830016
 30
0.0
 10
-69.5161961037
 20
9.0681661781
 30
0.0
 10
-69.5236693181
 20
9.0703470381
 30
0.0
 11
-69.500835161
 21
9.0654432609
 31
0.0
 11
-69.5236693181
 21
9.0703470381
 31
0.0
  0
SPLINE
  5
3BF
100
AcDbEntity
  8
RACCORDO
100
AcDbSpline
 62
253
  6
CONTINUOUS
 70
0
 71
3
 72
9
 73
5
 74
3
 42
0.0000001
 43
0.0000001
 44
0.0000000001
 12
-0.1385786456
 22
0.040440512
 32
0.0
 13
-0.0873637074
 23
0.1149219677
 33
0.0
 40
0.0
 40
0.0
 40
0.0
 40
0.0
 40
0.5131295662
 40
1.0
 40
1.0
 40
1.0
 40
1.0
 10
-69.5236693181
 20
9.0703470381
 30
0.0
 10
-69.5473722516
 20
9.0772641122
 30
0.0
 10
-69.5908686865
 20
9.1002447496
 30
0.0
 10
-69.6260022391
 20
9.1340682552
 30
0.0
 10
-69.6401805078
 20
9.152718958
 30
0.0
 11
-69.5236693181
 21
9.0703470381
 31
0.0
 11
-69.5898089019
 21
9.1037031496
 31
0.0
 11
-69.6401805078
 21
9.152718958
 31
0.0
  0
SPLINE
  5
3C0
100
AcDbEntity
  8
RACCORDO
100
AcDbSpline
 62
253
  6
CONTINUOUS
 70
0
 71
3
 72
9
 73
5
 74
3
 42
0.0000001
 43
0.0000001
 44
0.0000000001
 12
-0.0597192914
 22
0.085456989
 32
0.0
 13
0.0000099806
 23
0.1042558902
 33
0.0
 40
0.0
 40
0.0
 40
0.0
 40
0.0
 40
0.5137288935
 40
1.0
 40
1.0
 40
1.0
 40
1.0
 10
-69.6452535875
 20
9.1596762489
 30
0.0
 10
-69.655480096
 20
9.174310157
 30
0.0
 10
-69.6719453141
 20
9.2055171974
 30
0.0
 10
-69.677940281
 20
9.2404776024
 30
0.0
 10
-69.6779386632
 20
9.2573764781
 30
0.0
 11
-69.6452535875
 21
9.1596762489
 31
0.0
 11
-69.6696341313
 21
9.2073646518
 31
0.0
 11
-69.6779386632
 21
9.2573764781
 31
0.0
  0
SPLINE
  5
3C1
100
AcDbEntity
  8
RACCORDO
100
AcDbSpline
 62
253
  6
CONTINUOUS
 70
0
 71
3
 72
9
 73
5
 74
3
 42
0.0000001
 43
0.0000001
 44
0.0000000001
 12
-0.0000147331
 22
0.1042561277
 32
0.0
 13
0.0597403268
 23
0.0854425757
 33
0.0
 40
0.0
 40
0.0
 40
0.0
 40
0.0
 40
0.4863185319
 40
1.0
 40
1.0
 40
1.0
 40
1.0
 10
-69.6779386632
 20
-6.8738764532
 30
0.0
 10
-69.6779410516
 20
-6.8569758909
 30
0.0
 10
-69.6719439599
 20
-6.8220160895
 30
0.0
 10
-69.6554818381
 20
-6.7908066835
 30
0.0
 10
-69.6452526718
 20
-6.7761765943
 30
0.0
 11
-69.6779386632
 21
-6.8738764532
 31
0.0
 11
-69.6696330185
 21
-6.8238596822
 31
0.0
 11
-69.6452526718
 21
-6.7761765943
 31
0.0
  0
SPLINE
  5
3C2
100
AcDbEntity
  8
RACCORDO
100
AcDbSpline
 62
253
  6
CONTINUOUS
 70
0
 71
3
 72
8
 73
4
 74
2
 42
0.0000001
 43
0.0000001
 44
0.0000000001
 12
0.0191892876
 22
0.0274518641
 32
0.0
 13
0.02302314
 23
0.0243262949
 33
0.0
 40
0.0
 40
0.0
 40
0.0
 40
0.0
 40
1.0
 40
1.0
 40
1.0
 40
1.0
 10
-69.6452530342
 20
-6.7761768084
 30
0.0
 10
-69.638856605
 20
-6.767026187
 30
0.0
 10
-69.6317216365
 20
-6.7583597447
 30
0.0
 10
-69.6240472565
 20
-6.7502509797
 30
0.0
 11
-69.6452530342
 21
-6.7761768084
 31
0.0
 11
-69.6240472565
 21
-6.7502509797
 31
0.0
  0
SPLINE
  5
3C3
100
AcDbEntity
  8
RACCORDO
100
AcDbSpline
 62
253
  6
CONTINUOUS
 70
0
 71
3
 72
9
 73
5
 74
3
 42
0.0000001
 43
0.0000001
 44
0.0000000001
 12
0.0981130393
 22
0.1036664302
 32
0.0
 13
0.1414544391
 23
0.0190666957
 33
0.0
 40
0.0
 40
0.0
 40
0.0
 40
0.0
 40
0.4919557678
 40
1.0
 40
1.0
 40
1.0
 40
1.0
 10
-69.6240472565
 20
-6.7502509797
 30
0.0
 10
-69.6079581647
 20
-6.7332512136
 30
0.0
 10
-69.570322616
 20
-6.7032839959
 30
0.0
 10
-69.5247905623
 20
-6.6851718109
 30
0.0
 10
-69.500835525
 20
-6.6819429027
 30
0.0
 11
-69.6240472565
 21
-6.7502509797
 31
0.0
 11
-69.5690169982
 21
-6.7066352831
 31
0.0
 11
-69.500835525
 21
-6.6819429027
 31
0.0
  0
SPLINE
  5
3C4
100
AcDbEntity
  8
RACCORDO
100
AcDbSpline
 62
253
  6
CONTINUOUS
 70
0
 71
3
 72
11
 73
7
 74
5
 42
0.0000001
 43
0.0000001
 44
0.0000000001
 12
-0.2579004567
 22
0.0620435691
 32
0.0
 13
-0.000000842
 23
0.2652584589
 33
0.0
 40
0.0
 40
0.0
 40
0.0
 40
0.0
 40
0.2505450611
 40
0.5004989456
 40
0.7503694571
 40
1.0
 40
1.0
 40
1.0
 40
1.0
 10
-69.5247127025
 20
-6.6777081726
 30
0.0
 10
-69.5462512644
 20
-6.6725266027
 30
0.0
 10
-69.5878973541
 20
-6.6549009657
 30
0.0
 10
-69.6379613348
 20
-6.6095459315
 30
0.0
 10
-69.6704443878
 20
-6.5504142886
 30
0.0
 10
-69.6779393024
 20
-6.5058977316
 30
0.0
 10
-69.6779393724
 20
-6.4838255273
 30
0.0
 11
-69.5247127025
 21
-6.6777081726
 31
0.0
 11
-69.5858783566
 21
-6.6517161046
 31
0.0
 11
-69.6350448401
 21
-6.6072339421
 31
0.0
 11
-69.6669127432
 21
-6.5491175888
 31
0.0
 11
-69.6779393724
 21
-6.4838255273
 31
0.0
  0
SPLINE
  5
3C5
100
AcDbEntity
  8
RACCORDO
100
AcDbSpline
 62
253
  6
CONTINUOUS
 70
0
 71
3
 72
9
 73
5
 74
3
 42
0.0000001
 43
0.0000001
 44
0.0000000001
 12
0.0210656411
 22
0.0028404064
 32
0.0
 13
0.0212530761
 23
-0.0003686454
 33
0.0
 40
0.0
 40
0.0
 40
0.0
 40
0.0
 40
0.2399296279
 40
1.0
 40
1.0
 40
1.0
 40
1.0
 10
-69.5008354197
 20
-6.6819419923
 30
0.0
 10
-69.4991506626
 20
-6.6817148264
 30
0.0
 10
-69.4921083976
 20
-6.6809206638
 30
0.0
 10
-69.4850062695
 20
-6.6807052713
 30
0.0
 10
-69.4796216583
 20
-6.6807986701
 30
0.0
 11
-69.5008354197
 21
-6.6819419923
 31
0.0
 11
-69.4957679205
 21
-6.6813670578
 31
0.0
 11
-69.4796216583
 21
-6.6807986701
 31
0.0
  0
SPLINE
  5
3C6
100
AcDbEntity
  8
RACCORDO
100
AcDbSpline
 62
253
  6
CONTINUOUS
 70
0
 71
3
 72
8
 73
4
 74
2
 42
0.0000001
 43
0.0000001
 44
0.0000000001
 12
-0.050672334
 22
0.0889814426
 32
0.0
 13
0.0000032133
 23
0.102398157
 33
0.0
 40
0.0
 40
0.0
 40
0.0
 40
0.0
 40
1.0
 40
1.0
 40
1.0
 40
1.0
 10
-69.6497421122
 20
-6.5798215044
 30
0.0
 10
-69.6666328902
 20
-6.5501610235
 30
0.0
 10
-69.6759334246
 20
-6.5149620326
 30
0.0
 10
-69.6759323535
 20
-6.4808293136
 30
0.0
 11
-69.6497421122
 21
-6.5798215044
 31
0.0
 11
-69.6759323535
 21
-6.4808293136
 31
0.0
  0
SPLINE
  5
3C7
100
AcDbEntity
  8
RACCORDO
100
AcDbSpline
 62
253
  6
CONTINUOUS
 70
0
 71
3
 72
18
 73
14
 74
12
 42
0.0000001
 43
0.0000001
 44
0.0000000001
 12
0.0034904415
 22
0.2000268903
 32
0.0
 13
-0.2000268719
 23
0.0034914972
 33
0.0
 40
0.0
 40
0.0
 40
0.0
 40
0.0
 40
0.1945885327
 40
0.3824831382
 40
0.5553439217
 40
0.7067332258
 40
0.83096335
 40
0.8814416814
 40
0.9234433372
 40
0.9564910535
 40
0.9803510953
 40
0.9948644171
 40
1.0
 40
1.0
 40
1.0
 40
1.0
 10
-68.2041172729
 20
-6.9030321877
 30
0.0
 10
-68.2038908729
 20
-6.8900578747
 30
0.0
 10
-68.2034895907
 20
-6.864554617
 30
0.0
 10
-68.2030344614
 20
-6.8275245139
 30
0.0
 10
-68.202748843
 20
-6.7933705112
 30
0.0
 10
-68.2026456438
 20
-6.7634703352
 30
0.0
 10
-68.2026993268
 20
-6.7417069162
 30
0.0
 10
-68.2028713815
 20
-6.7272834908
 30
0.0
 10
-68.2030003261
 20
-6.7188547533
 30
0.0
 10
-68.2032628629
 20
-6.7124168812
 30
0.0
 10
-68.203334743
 20
-6.7073024888
 30
0.0
 10
-68.2038511396
 20
-6.7050482144
 30
0.0
 10
-68.2037748546
 20
-6.7030686256
 30
0.0
 10
-68.2041172728
 20
-6.7030626487
 30
0.0
 11
-68.2041172729
 21
-6.9030321877
 31
0.0
 11
-68.203505298
 21
-6.8641081336
 31
0.0
 11
-68.2030477662
 21
-6.8265212229
 31
0.0
 11
-68.2027670565
 21
-6.7919402933
 31
0.0
 11
-68.2026722175
 21
-6.7616539001
 31
0.0
 11
-68.2027670596
 21
-6.7368009326
 31
0.0
 11
-68.202884539
 21
-6.7267030552
 31
0.0
 11
-68.2030477709
 21
-6.7183019012
 31
0.0
 11
-68.2032556242
 21
-6.711693731
 31
0.0
 11
-68.2035053016
 21
-6.7069268888
 31
0.0
 11
-68.2037935891
 21
-6.7040377396
 31
0.0
 11
-68.2041172728
 21
-6.7030626487
 31
0.0
  0
SPLINE
  5
3C8
100
AcDbEntity
  8
RACCORDO
100
AcDbSpline
 62
253
  6
CONTINUOUS
 70
0
 71
3
 72
18
 73
14
 74
12
 42
0.0000001
 43
0.0000001
 44
0.0000000001
 12
-0.2000268723
 22
0.003491482
 32
0.0
 13
0.0034904225
 23
0.2000268908
 33
0.0
 40
0.0
 40
0.0
 40
0.0
 40
0.0
 40
0.0051355753
 40
0.0196488777
 40
0.0435088988
 40
0.0765566031
 40
0.1185582434
 40
0.1690365462
 40
0.2932666281
 40
0.4446559298
 40
0.6175167594
 40
0.805411439
 40
1.0
 40
1.0
 40
1.0
 40
1.0
 10
-67.7128434761
 20
-6.7116378647
 30
0.0
 10
-67.7131858938
 20
-6.7116318878
 30
0.0
 10
-67.7131096109
 20
-6.7096523023
 30
0.0
 10
-67.713626006
 20
-6.7073980299
 30
0.0
 10
-67.713697887
 20
-6.7022836414
 30
0.0
 10
-67.713960423
 20
-6.6958457725
 30
0.0
 10
-67.7140893675
 20
-6.6874170387
 30
0.0
 10
-67.7142614218
 20
-6.6729936191
 30
0.0
 10
-67.7143151037
 20
-6.6512302049
 30
0.0
 10
-67.714211902
 20
-6.6213300288
 30
0.0
 10
-67.7139262819
 20
-6.5871760183
 30
0.0
 10
-67.7134711533
 20
-6.5501459051
 30
0.0
 10
-67.7130698731
 20
-6.5246426406
 30
0.0
 10
-67.7128434743
 20
-6.5116683257
 30
0.0
 11
-67.7128434761
 21
-6.7116378647
 31
0.0
 11
-67.7131671602
 21
-6.7106627755
 31
0.0
 11
-67.7134554479
 21
-6.7077736303
 31
0.0
 11
-67.7137051253
 21
-6.7030067922
 31
0.0
 11
-67.7139129784
 21
-6.6963986244
 31
0.0
 11
-67.7140762101
 21
-6.6879974735
 31
0.0
 11
-67.7141936891
 21
-6.6778996018
 31
0.0
 11
-67.7142885299
 21
-6.6530466427
 31
0.0
 11
-67.7141936888
 21
-6.6227602499
 31
0.0
 11
-67.7139129776
 21
-6.5881793111
 31
0.0
 11
-67.7134554463
 21
-6.5505923855
 31
0.0
 11
-67.7128434743
 21
-6.5116683257
 31
0.0
  0
LINE
  5
3C9
100
AcDbEntity
  8
RACCORDO
100
AcDbLine
 62
7
  6
CONTINUOUS
 10
-62.1779386632
 20
9.1917500124
 11
-62.1779386632
 21
8.9917804734
  0
SPLINE
  5
3CA
100
AcDbEntity
  8
RACCORDO
100
AcDbSpline
 62
253
  6
CONTINUOUS
 70
0
 71
3
 72
18
 73
14
 74
12
 42
0.0000001
 43
0.0000001
 44
0.0000000001
 12
0.0034904189
 22
0.2000268907
 32
0.0
 13
-0.2000268721
 23
0.003491482
 33
0.0
 40
0.0
 40
0.0
 40
0.0
 40
0.0
 40
0.1945885329
 40
0.3824831386
 40
0.5553439222
 40
0.7067332262
 40
0.8309633503
 40
0.8814416816
 40
0.9234433374
 40
0.9564910536
 40
0.9803510952
 40
0.9948644169
 40
1.0
 40
1.0
 40
1.0
 40
1.0
 10
-56.6255814439
 20
8.8948637176
 30
0.0
 10
-56.6253550454
 20
8.9078380307
 30
0.0
 10
-56.6249537656
 20
8.9333412884
 30
0.0
 10
-56.6244986379
 20
8.9703713916
 30
0.0
 10
-56.6242130185
 20
9.0045253943
 30
0.0
 10
-56.6241098172
 20
9.0344255703
 30
0.0
 10
-56.624163499
 20
9.0561889892
 30
0.0
 10
-56.6243355531
 20
9.0706124146
 30
0.0
 10
-56.6244644975
 20
9.0790411521
 30
0.0
 10
-56.6247270339
 20
9.0854790241
 30
0.0
 10
-56.6247989142
 20
9.0905934166
 30
0.0
 10
-56.6253153105
 20
9.0928476909
 30
0.0
 10
-56.6252390257
 20
9.0948272797
 30
0.0
 10
-56.6255814439
 20
9.0948332567
 30
0.0
 11
-56.6255814439
 21
8.8948637176
 31
0.0
 11
-56.6249694726
 21
8.9337877718
 31
0.0
 11
-56.6245119422
 21
8.9713746826
 31
0.0
 11
-56.6242312316
 21
9.0059556121
 31
0.0
 11
-56.6241363908
 21
9.0362420054
 31
0.0
 11
-56.6242312316
 21
9.0610949728
 31
0.0
 11
-56.6243487106
 21
9.0711928503
 31
0.0
 11
-56.6245119422
 21
9.0795940043
 31
0.0
 11
-56.6247197954
 21
9.0862021744
 31
0.0
 11
-56.6249694726
 21
9.0909690166
 31
0.0
 11
-56.6252577601
 21
9.0938581657
 31
0.0
 11
-56.6255814439
 21
9.0948332567
 31
0.0
  0
ELLIPSE
  5
3CB
100
AcDbEntity
  8
RACCORDO
100
AcDbEllipse
 62
7
  6
CONTINUOUS
 10
-17.8587077348
 20
-7.0082804532
 30
0.0
 11
0.1414644378
 21
0.1414644378
 31
0.0
 40
0.9996954599
 41
-0.7852458701
 42
0.78524587
  0
ELLIPSE
  5
3CC
100
AcDbEntity
  8
RACCORDO
100
AcDbEllipse
 62
7
  6
CONTINUOUS
 10
20.3410180747
 20
-16.8079453315
 30
0.0
 11
1.4146443783
 21
-1.4146443783
 31
0.0
 40
0.9996954599
 41
-0.7852458701
 42
0.7852458701
  0
ELLIPSE
  5
3CD
100
AcDbEntity
  8
RACCORDO
100
AcDbEllipse
 62
7
  6
CONTINUOUS
 10
22.5413531964
 20
9.391780478
 30
0.0
 11
-0.1414644378
 21
-0.1414644378
 31
0.0
 40
0.9996954599
 41
-0.7852458701
 42
0.78524587
  0
ELLIPSE
  5
3CE
100
AcDbEntity
  8
RACCORDO
100
AcDbEllipse
 62
7
  6
CONTINUOUS
 10
20.3410180747
 20
19.1914453563
 30
0.0
 11
1.4146443783
 21
1.4146443783
 31
0.0
 40
0.9996954599
 41
-0.7852458701
 42
0.7852458702
  0
ELLIPSE
  5
3CF
100
AcDbEntity
  8
RACCORDO
100
AcDbEllipse
 62
7
  6
CONTINUOUS
 10
22.5413531964
 20
-7.0082804532
 30
0.0
 11
0.1414644378
 21
-0.1414644378
 31
0.0
 40
0.9996954599
 41
2.3563467836
 42
3.9268385237
  0
ELLIPSE
  5
3D0
100
AcDbEntity
  8
RACCORDO
100
AcDbEllipse
 62
7
  6
CONTINUOUS
 10
-17.8587077348
 20
9.391780478
 30
0.0
 11
-0.1414644378
 21
0.1414644378
 31
0.0
 40
0.9996954599
 41
2.3563467836
 42
3.9268385237
  0
ELLIPSE
  5
3D1
100
AcDbEntity
  8
RACCORDO
100
AcDbEllipse
 62
7
  6
CONTINUOUS
 10
-19.0714019445
 20
-3.2208984989
 30
0.0
 11
-0.0
 21
0.5
 31
0.0
 40
0.0174550649
 41
-3.1241393611
 42
-1.5707963268
  0
ELLIPSE
  5
3D2
100
AcDbEntity
  8
RACCORDO
100
AcDbEllipse
 62
7
  6
CONTINUOUS
 10
-17.7459525938
 20
-3.2208984989
 30
0.0
 11
0.0
 21
0.5
 31
0.0
 40
0.0174550649
 41
-4.0915292175
 42
-3.1590459461
  0
ELLIPSE
  5
3D3
100
AcDbEntity
  8
RACCORDO
100
AcDbEllipse
 62
7
  6
CONTINUOUS
 10
-17.7459525938
 20
5.6043985238
 30
0.0
 11
-0.0
 21
0.5
 31
0.0
 40
0.0174550649
 41
0.0174532925
 42
0.9499365639
  0
ELLIPSE
  5
3D4
100
AcDbEntity
  8
RACCORDO
100
AcDbEllipse
 62
7
  6
CONTINUOUS
 10
-19.0714019445
 20
5.6043985238
 30
0.0
 11
-0.0
 21
0.5
 31
0.0
 40
0.0174550649
 41
-1.5707963268
 42
-0.0174532925
  0
ELLIPSE
  5
3D5
100
AcDbEntity
  8
RACCORDO
100
AcDbEllipse
 62
7
  6
CONTINUOUS
 10
23.7540474062
 20
5.6043985238
 30
0.0
 11
0.0
 21
0.5
 31
0.0
 40
0.0174550649
 41
0.0174532925
 42
1.5707963268
  0
ELLIPSE
  5
3D6
100
AcDbEntity
  8
RACCORDO
100
AcDbEllipse
 62
7
  6
CONTINUOUS
 10
22.4285980555
 20
5.6043985238
 30
0.0
 11
0.0
 21
0.5
 31
0.0
 40
0.0174550649
 41
-0.9499365639
 42
-0.0174532925
  0
ELLIPSE
  5
3D7
100
AcDbEntity
  8
RACCORDO
100
AcDbEllipse
 62
7
  6
CONTINUOUS
 10
22.4285980555
 20
-3.2208984989
 30
0.0
 11
-0.0
 21
0.5
 31
0.0
 40
0.0174550649
 41
-3.1241393611
 42
-2.1916560897
  0
ELLIPSE
  5
3D8
100
AcDbEntity
  8
RACCORDO
100
AcDbEllipse
 62
7
  6
CONTINUOUS
 10
23.7540474062
 20
-3.2208984989
 30
0.0
 11
0.0
 21
0.5
 31
0.0
 40
0.0174550649
 41
-4.7123889804
 42
-3.1590459461
  0
ELLIPSE
  5
3D9
100
AcDbEntity
  8
RACCORDO
100
AcDbEllipse
 62
7
  6
CONTINUOUS
 10
14.9413379636
 20
-18.7082347548
 30
0.0
 11
0.2227100583
 21
-0.0525603851
 31
0.0
 40
0.3820700798
 41
-1.6172171036
 42
-1.0174656612
  0
ELLIPSE
  5
3DA
100
AcDbEntity
  8
RACCORDO
100
AcDbEllipse
 62
7
  6
CONTINUOUS
 10
-16.1586772692
 20
6.296480402
 30
0.0
 11
1.5
 21
0.0
 31
0.0
 40
0.0174550649
 41
1.5707963268
 42
3.1415926536
  0
ELLIPSE
  5
3DB
100
AcDbEntity
  8
RACCORDO
100
AcDbEllipse
 62
7
  6
CONTINUOUS
 10
20.8413227308
 20
-3.9129803771
 30
0.0
 11
1.5
 21
0.0
 31
0.0
 40
0.0174550649
 41
-1.5707963268
 42
-0.0
  0
ELLIPSE
  5
3DC
100
AcDbEntity
  8
RACCORDO
100
AcDbEllipse
 62
7
  6
CONTINUOUS
 10
-16.1586772692
 20
-3.9129803771
 30
0.0
 11
1.5
 21
0.0
 31
0.0
 40
0.0174550649
 41
3.1415926536
 42
4.7123889804
  0
ELLIPSE
  5
3DD
100
AcDbEntity
  8
RACCORDO
100
AcDbEllipse
 62
7
  6
CONTINUOUS
 10
20.8413227308
 20
6.296480402
 30
0.0
 11
1.5
 21
0.0
 31
0.0
 40
0.0174550649
 41
-0.0
 42
1.5707963268
  0
ELLIPSE
  5
3DE
100
AcDbEntity
  8
RACCORDO
100
AcDbEllipse
 62
7
  6
CONTINUOUS
 10
-17.062369756
 20
-3.9042528447
 30
0.0
 11
2.0
 21
0.0
 31
0.0
 40
0.0174550649
 41
3.1590459461
 42
4.7123889804
  0
ELLIPSE
  5
3DF
100
AcDbEntity
  8
RACCORDO
100
AcDbEllipse
 62
7
  6
CONTINUOUS
 10
-17.062369756
 20
6.2877528695
 30
0.0
 11
2.0
 21
-0.0
 31
0.0
 40
0.0174550649
 41
7.853981634
 42
9.4073246682
  0
ELLIPSE
  5
3E0
100
AcDbEntity
  8
RACCORDO
100
AcDbEllipse
 62
7
  6
CONTINUOUS
 10
21.7450152176
 20
6.2877528695
 30
0.0
 11
2.0
 21
-0.0
 31
0.0
 40
0.0174550649
 41
6.3006385997
 42
7.853981634
  0
ELLIPSE
  5
3E1
100
AcDbEntity
  8
RACCORDO
100
AcDbEllipse
 62
7
  6
CONTINUOUS
 10
21.7450152176
 20
-3.9042528447
 30
0.0
 11
2.0
 21
0.0
 31
0.0
 40
0.0174550649
 41
4.7123889804
 42
6.2657320147
  0
ELLIPSE
  5
3E2
100
AcDbEntity
  8
RACCORDO
100
AcDbEllipse
 62
7
  6
CONTINUOUS
 10
-15.6583726131
 20
19.1914453563
 30
0.0
 11
1.4146443783
 21
-1.4146443783
 31
0.0
 40
0.9996954599
 41
8.6395320906
 42
10.2100238309
  0
ELLIPSE
  5
3E3
100
AcDbEntity
  8
RACCORDO
100
AcDbEllipse
 62
7
  6
CONTINUOUS
 10
-15.6583726131
 20
-16.8079453315
 30
0.0
 11
1.4146443783
 21
1.4146443783
 31
0.0
 40
0.9996954599
 41
8.6395320906
 42
10.2100238309
  0
ELLIPSE
  5
3E4
100
AcDbEntity
  8
RACCORDO
100
AcDbEllipse
 62
7
  6
CONTINUOUS
 10
20.3410180747
 20
-16.8079453315
 30
0.0
 11
-1.4146443783
 21
1.4146443783
 31
0.0
 40
0.9996954599
 41
8.6395320906
 42
10.2100238309
  0
ELLIPSE
  5
3E5
100
AcDbEntity
  8
RACCORDO
100
AcDbEllipse
 62
7
  6
CONTINUOUS
 10
20.3410180747
 20
19.1914453563
 30
0.0
 11
-1.4146443783
 21
-1.4146443783
 31
0.0
 40
0.9996954599
 41
8.6395320906
 42
10.2100238309
  0
ELLIPSE
  5
3E6
100
AcDbEntity
  8
RACCORDO
100
AcDbEllipse
 62
7
  6
CONTINUOUS
 10
18.543159842
 20
22.1718992871
 30
0.0
 11
0.1414644378
 21
0.1414644378
 31
0.0
 40
0.9996954599
 41
-0.7852458701
 42
0.7852458701
  0
ELLIPSE
  5
3E7
100
AcDbEntity
  8
RACCORDO
100
AcDbEllipse
 62
7
  6
CONTINUOUS
 10
15.1394856196
 20
22.1718992871
 30
0.0
 11
0.1414644378
 21
-0.1414644378
 31
0.0
 40
0.9996954599
 41
2.3563467834
 42
3.9268385237
  0
ELLIPSE
  5
3E8
100
AcDbEntity
  8
RACCORDO
100
AcDbEllipse
 62
7
  6
CONTINUOUS
 10
15.1394856196
 20
-19.7883992622
 30
0.0
 11
-0.1414644378
 21
-0.1414644378
 31
0.0
 40
0.9996954599
 41
-0.7852458701
 42
0.7852458701
  0
ELLIPSE
  5
3E9
100
AcDbEntity
  8
RACCORDO
100
AcDbEllipse
 62
7
  6
CONTINUOUS
 10
18.543159842
 20
-19.7883992622
 30
0.0
 11
-0.1414644378
 21
0.1414644378
 31
0.0
 40
0.9996954599
 41
2.3563467834
 42
3.9268385237
  0
ELLIPSE
  5
3EA
100
AcDbEntity
  8
RACCORDO
100
AcDbEllipse
 62
7
  6
CONTINUOUS
 10
-24.5100045612
 20
16.0430773045
 30
0.0
 11
1.4146443783
 21
-1.4146443783
 31
0.0
 40
0.9996954599
 41
2.3563467834
 42
3.9268385237
  0
ELLIPSE
  5
3EB
100
AcDbEntity
  8
RACCORDO
100
AcDbEllipse
 62
7
  6
CONTINUOUS
 10
-24.5100045612
 20
12.3404227204
 30
0.0
 11
1.4146443783
 21
1.4146443783
 31
0.0
 40
0.9996954599
 41
2.3563467834
 42
3.9268385237
  0
ELLIPSE
  5
3EC
100
AcDbEntity
  8
RACCORDO
100
AcDbEllipse
 62
7
  6
CONTINUOUS
 10
4.1926500228
 20
-25.6595772796
 30
0.0
 11
-1.4146443783
 21
1.4146443783
 31
0.0
 40
0.9996954599
 41
2.3563467834
 42
3.9268385237
  0
ELLIPSE
  5
3ED
100
AcDbEntity
  8
RACCORDO
100
AcDbEllipse
 62
7
  6
CONTINUOUS
 10
0.4899954388
 20
-25.6595772796
 30
0.0
 11
1.4146443783
 21
1.4146443783
 31
0.0
 40
0.9996954599
 41
2.3563467834
 42
3.9268385237
  0
ENDSEC
  0
SECTION
  2
OBJECTS
  0
DICTIONARY
  5
C
100
AcDbDictionary
280
0
281
1
  3
ACAD_GROUP
350
D
  3
ACAD_MLINESTYLE
350
17
  3
ACAD_LAYOUT
350
1A
  3
ACAD_PLOTSETTINGS
350
19
  3
ACAD_PLOTSTYLENAME
350
E
  0
DICTIONARY
  5
D
102
{ACAD_REACTORS
330
C
102
}
100
AcDbDictionary
280
0
281
1
  0
ACDBDICTIONARYWDFLT
  5
E
102
{ACAD_REACTORS
330
C
102
}
100
AcDbDictionary
281
1
  3
Normal
350
F
100
AcDbDictionaryWithDefault
340
F
  0
DICTIONARY
  5
17
102
{ACAD_REACTORS
330
C
102
}
100
AcDbDictionary
280
0
281
1
  3
Standard
350
18
  0
DICTIONARY
  5
19
102
{ACAD_REACTORS
330
C
102
}
100
AcDbDictionary
281
1
  0
DICTIONARY
  5
1A
102
{ACAD_REACTORS
330
C
102
}
100
AcDbDictionary
281
1
  3
Model
350
3EE
  3
Layout1
350
3EF
  0
ACDBPLACEHOLDER
  5
F
102
{ACAD_REACTORS
330
E
102
}
  0
MLINESTYLE
  5
18
102
{ACAD_REACTORS
330
17
102
}
100
AcDbMlineStyle
  2
STANDARD
 70
0
  3

 62
256
 51
90.0
 52
90.0
 71
2
 49
0.5
 62
256
  6
BYLAYER
 49
-0.5
 62
256
  6
BYLAYER
  0
LAYOUT
  5
3EE
102
{ACAD_REACTORS
330
1A
102
}
100
AcDbPlotSettings
  1

  2
none_device
  4
ISO_A4_(297.00_x_210.00_MM)
  6

 40
0.0
 41
0.0
 42
0.0
 43
0.0
 44
297.0
 45
210.0
 46
0.0
 47
0.0
 48
0.0
 49
0.0
140
0.0
141
0.0
142
1.0
143
1.0
 70
1024
 72
1
 73
0
 74
0
  7

 75
0
147
1.0
148
0.0
149
0.0
100
AcDbLayout
  1
Model
 70
0
 71
0
 10
0.0
 20
0.0
 11
297.0
 21
210.0
 12
0.0
 22
0.0
 32
0.0
 14
0.0
 24
0.0
 34
0.0
 15
0.0
 25
0.0
 35
0.0
146
0.0
 13
0.0
 23
0.0
 33
0.0
 16
1.0
 26
0.0
 36
0.0
 17
0.0
 27
1.0
 37
0.0
 76
0
330
231
345
0
346
0
  0
LAYOUT
  5
3EF
102
{ACAD_REACTORS
330
1A
102
}
100
AcDbPlotSettings
  1

  2
none_device
  4
ISO_A4_(297.00_x_210.00_MM)
  6

 40
0.0
 41
0.0
 42
0.0
 43
0.0
 44
297.0
 45
210.0
 46
0.0
 47
0.0
 48
0.0
 49
0.0
140
0.0
141
0.0
142
1.0
143
1.0
 70
0
 72
1
 73
0
 74
0
  7

 75
0
147
1.0
148
0.0
149
0.0
100
AcDbLayout
  1
Layout1
 70
0
 71
1
 10
0.0
 20
0.0
 11
297.0
 21
210.0
 12
0.0
 22
0.0
 32
0.0
 14
0.0
 24
0.0
 34
0.0
 15
0.0
 25
0.0
 35
0.0
146
0.0
 13
0.0
 23
0.0
 33
0.0
 16
1.0
 26
0.0
 36
0.0
 17
0.0
 27
1.0
 37
0.0
 76
0
330
232
345
0
346
0
  0
ENDSEC
  0
EOF
