  0
SECTION
  2
HEADER
  9
$ACADVER
  1
AC1021
  9
$DWGCODEPAGE
  3
ANSI_1252
  9
$EXTMAX
 10
558.8
 20
431.8
 30
0.0
  9
$EXTMIN
 10
0.0
 20
0.0
 30
0.0
  9
$LIMMIN
 10
0.0
 20
0.0
  9
$LIMMAX
 10
558.8
 20
431.8
  9
$VIEWCTR
 10
279.4
 20
215.9
  9
$VIEWSIZE
 40
431.8
  9
$CLAYER
  8
0
  9
$LTSCALE
 40
30.734
  9
$CELTYPE
  6
BYLAYER
  9
$DIMSCALE
 40
1.0
  9
$DIMASZ
 40
3.0
  9
$DIMEXO
 40
0.5
  9
$DIMDLI
 40
21.2344
  9
$DIMEXE
 40
1.5
  9
$DIMCEN
 40
5.0292
  9
$DIMLFAC
 40
1.0
  9
$DIMBLK
  1
_FILLED
  9
$DIMALT
 70
0
  9
$DIMALTF
 40
25.4
  9
$DIMTXT
 40
3.0
  9
$DIMTOL
 70
1
  9
$DIMLIM
 70
0
  9
$DIMTFAC
 40
1.0
  9
$DIMTP
 40
0.01
  9
$DIMTM
 40
0.01
  9
$DIMGAP
 40
0.625
  9
$DIMDSEP
 70
44
  9
$AUNITS
 70
0
  9
$PDMODE
 70
3
  9
$PDSIZE
 40
3.0
  9
$HANDSEED
  5
546
  9
$TILEMODE
 70
1
  9
$MEASUREMENT
 70
1
  9
$INSUNITS
 70
4
  0
ENDSEC
  0
SECTION
  2
CLASSES
  0
CLASS
  1
ACDBDICTIONARYWDFLT
  2
AcDbDictionaryWithDefault
  3
AutoCAD 2000
 90
0
 91
1
280
0
281
0
  0
CLASS
  1
ACDBPLACEHOLDER
  2
AcDbPlaceHolder
  3
AutoCAD 2000
 90
0
 91
1
280
0
281
0
  0
CLASS
  1
LAYOUT
  2
AcDbLayout
  3
AutoCAD 2000
 90
0
 91
0
280
0
281
0
  0
ENDSEC
  0
SECTION
  2
TABLES
  0
TABLE
  2
VPORT
  5
8
100
AcDbSymbolTable
 70
2
  0
VPORT
  5
1F4
100
AcDbSymbolTableRecord
100
AcDbViewportTableRecord
  2
*ACTIVE
 70
0
 10
0.0
 20
0.0
 11
1.0
 21
1.0
 12
279.4
 22
215.9
 13
0.0
 23
0.0
 14
1.0
 24
1.0
 15
0.0
 25
0.0
 16
0.0
 26
0.0
 36
1.0
 17
0.0
 27
0.0
 37
0.0
 40
431.8
 41
1.2941176471
 42
50.0
 43
0.0
 44
0.0
 50
0.0
 51
0.0
 71
0
 72
100
 73
1
 74
1
 75
0
 76
0
 77
0
 78
0
  0
ENDTAB
  0
TABLE
  2
LTYPE
  5
5
100
AcDbSymbolTable
 70
6
  0
LTYPE
  5
14
100
AcDbSymbolTableRecord
100
AcDbLinetypeTableRecord
  2
BYBLOCK
 70
0
  3

 72
65
 73
0
 40
0.0
  0
LTYPE
  5
15
100
AcDbSymbolTableRecord
100
AcDbLinetypeTableRecord
  2
BYLAYER
 70
0
  3

 72
65
 73
0
 40
0.0
  0
LTYPE
  5
16
100
AcDbSymbolTableRecord
100
AcDbLinetypeTableRecord
  2
CONTINUOUS
 70
64
  3
Solid line
 72
65
 73
0
 40
0.0
  0
LTYPE
  5
1F5
100
AcDbSymbolTableRecord
100
AcDbLinetypeTableRecord
  2
CENTER
 70
64
  3
____ _ ____ _ ____ _ ____ _ ____ _ ____ _ ____
 72
65
 73
4
 40
0.6
 49
0.375
 74
0
 49
-0.075
 74
0
 49
0.075
 74
0
 49
-0.075
 74
0
  0
LTYPE
  5
1F6
100
AcDbSymbolTableRecord
100
AcDbLinetypeTableRecord
  2
HIDDEN
 70
64
  3
- - - - - - - - - - - - - - - - - - - -
 72
65
 73
2
 40
0.2
 49
0.1
 74
0
 49
-0.1
 74
0
  0
LTYPE
  5
1F7
100
AcDbSymbolTableRecord
100
AcDbLinetypeTableRecord
  2
PHANTOM
 70
64
  3
_____ _ _ _____ _ _ _____ _ _ _____
 72
65
 73
6
 40
0.8
 49
0.45
 74
0
 49
-0.05
 74
0
 49
0.1
 74
0
 49
-0.05
 74
0
 49
0.1
 74
0
 49
-0.05
 74
0
  0
LTYPE
  5
1F8
100
AcDbSymbolTableRecord
100
AcDbLinetypeTableRecord
  2
DOT
 70
64
  3
. . . . . . . . . . . . . . . . . . . .
 72
65
 73
2
 40
0.2
 49
0.1
 74
0
 49
-0.1
 74
0
  0
LTYPE
  5
1F9
100
AcDbSymbolTableRecord
100
AcDbLinetypeTableRecord
  2
DASHED
 70
64
  3
- - - - - - - - - - - - - - - - - - - -
 72
65
 73
2
 40
0.2
 49
0.1
 74
0
 49
-0.1
 74
0
  0
ENDTAB
  0
TABLE
  2
LAYER
  5
2
100
AcDbSymbolTable
 70
36
  0
LAYER
  5
10
100
AcDbSymbolTableRecord
100
AcDbLayerTableRecord
  2
0
 70
0
 62
7
  6
CONTINUOUS
370
-3
390
F
  0
LAYER
  5
1FA
100
AcDbSymbolTableRecord
100
AcDbLayerTableRecord
  2
DEFAULT_1
 70
0
 62
7
  6
CENTER
370
-3
390
F
  0
LAYER
  5
1FB
100
AcDbSymbolTableRecord
100
AcDbLayerTableRecord
  2
DEFAULT_2
 70
0
 62
7
  6
HIDDEN
370
-3
390
F
  0
LAYER
  5
1FC
100
AcDbSymbolTableRecord
100
AcDbLayerTableRecord
  2
DEFAULT_3
 70
0
 62
7
  6
PHANTOM
370
-3
390
F
  0
LAYER
  5
1FD
100
AcDbSymbolTableRecord
100
AcDbLayerTableRecord
  2
ASSI
 70
0
 62
7
  6
CONTINUOUS
370
-3
390
F
  0
LAYER
  5
1FE
100
AcDbSymbolTableRecord
100
AcDbLayerTableRecord
  2
COORDINATE
 70
0
 62
7
  6
CONTINUOUS
370
-3
390
F
  0
LAYER
  5
1FF
100
AcDbSymbolTableRecord
100
AcDbLayerTableRecord
  2
COORD_ORIGINE
 70
0
 62
7
  6
CONTINUOUS
370
-3
390
F
  0
LAYER
  5
200
100
AcDbSymbolTableRecord
100
AcDbLayerTableRecord
  2
COPY_PUBLISH
 70
0
 62
7
  6
CONTINUOUS
370
-3
390
F
  0
LAYER
  5
201
100
AcDbSymbolTableRecord
100
AcDbLayerTableRecord
  2
COSMETIC
 70
0
 62
7
  6
CONTINUOUS
370
-3
390
F
  0
LAYER
  5
202
100
AcDbSymbolTableRecord
100
AcDbLayerTableRecord
  2
COSMETICHE
 70
0
 62
7
  6
CONTINUOUS
370
-3
390
F
  0
LAYER
  5
203
100
AcDbSymbolTableRecord
100
AcDbLayerTableRecord
  2
COSMETICI
 70
0
 62
7
  6
CONTINUOUS
370
-3
390
F
  0
LAYER
  5
204
100
AcDbSymbolTableRecord
100
AcDbLayerTableRecord
  2
CURVE
 70
0
 62
7
  6
CONTINUOUS
370
-3
390
F
  0
LAYER
  5
205
100
AcDbSymbolTableRecord
100
AcDbLayerTableRecord
  2
DRAFT
 70
0
 62
7
  6
CONTINUOUS
370
-3
390
F
  0
LAYER
  5
206
100
AcDbSymbolTableRecord
100
AcDbLayerTableRecord
  2
IMPORT_IGES
 70
0
 62
7
  6
CONTINUOUS
370
-3
390
F
  0
LAYER
  5
207
100
AcDbSymbolTableRecord
100
AcDbLayerTableRecord
  2
NOTE
 70
0
 62
7
  6
CONTINUOUS
370
-3
390
F
  0
LAYER
  5
208
100
AcDbSymbolTableRecord
100
AcDbLayerTableRecord
  2
PIANI
 70
0
 62
7
  6
CONTINUOUS
370
-3
390
F
  0
LAYER
  5
209
100
AcDbSymbolTableRecord
100
AcDbLayerTableRecord
  2
PIANI_ORIGINE
 70
0
 62
7
  6
CONTINUOUS
370
-3
390
F
  0
LAYER
  5
20A
100
AcDbSymbolTableRecord
100
AcDbLayerTableRecord
  2
PUNTI
 70
0
 62
7
  6
CONTINUOUS
370
-3
390
F
  0
LAYER
  5
20B
100
AcDbSymbolTableRecord
100
AcDbLayerTableRecord
  2
RACCORDO
 70
0
 62
7
  6
CONTINUOUS
370
-3
390
F
  0
LAYER
  5
20C
100
AcDbSymbolTableRecord
100
AcDbLayerTableRecord
  2
SIMBOLI
 70
0
 62
7
  6
CONTINUOUS
370
-3
390
F
  0
LAYER
  5
20D
100
AcDbSymbolTableRecord
100
AcDbLayerTableRecord
  2
SMUSSO
 70
0
 62
7
  6
CONTINUOUS
370
-3
390
F
  0
LAYER
  5
20E
100
AcDbSymbolTableRecord
100
AcDbLayerTableRecord
  2
SNAPLINE
 70
0
 62
7
  6
CONTINUOUS
370
-3
390
F
  0
LAYER
  5
20F
100
AcDbSymbolTableRecord
100
AcDbLayerTableRecord
  2
SUPERFICI
 70
0
 62
7
  6
CONTINUOUS
370
-3
390
F
  0
LAYER
  5
210
100
AcDbSymbolTableRecord
100
AcDbLayerTableRecord
  2
TRASH
 70
0
 62
7
  6
CONTINUOUS
370
-3
390
F
  0
LAYER
  5
211
100
AcDbSymbolTableRecord
100
AcDbLayerTableRecord
  2
XSEC_DATUMS
 70
0
 62
7
  6
CONTINUOUS
370
-3
390
F
  0
ENDTAB
  0
TABLE
  2
STYLE
  5
3
100
AcDbSymbolTable
 70
1
  0
STYLE
  5
11
100
AcDbSymbolTableRecord
100
AcDbTextStyleTableRecord
  2
STANDARD
 70
0
 40
0.0
 41
0.8
 50
0.0
 71
0
 42
0.2
  3
txt
  4

  0
STYLE
  5
212
100
AcDbSymbolTableRecord
100
AcDbTextStyleTableRecord
  2
TEXTSTYLE_1
 70
0
 40
0.0
 41
0.8
 50
0.0
 71
0
 42
0.2
  3
gdt
  4

  0
ENDTAB
  0
TABLE
  2
VIEW
  5
6
100
AcDbSymbolTable
 70
0
  0
ENDTAB
  0
TABLE
  2
UCS
  5
7
100
AcDbSymbolTable
 70
0
  0
ENDTAB
  0
TABLE
  2
APPID
  5
9
100
AcDbSymbolTable
 70
1
  0
APPID
  5
213
100
AcDbSymbolTableRecord
100
AcDbRegAppTableRecord
  2
ACAD
 70
0
  0
ENDTAB
  0
TABLE
  2
BLOCK_RECORD
  5
1
100
AcDbSymbolTable
 70
0
  0
BLOCK_RECORD
  5
214
100
AcDbSymbolTableRecord
100
AcDbBlockTableRecord
  2
*Model_Space
  0
BLOCK_RECORD
  5
215
100
AcDbSymbolTableRecord
100
AcDbBlockTableRecord
  2
*Paper_Space
  0
BLOCK_RECORD
  5
216
100
AcDbSymbolTableRecord
100
AcDbBlockTableRecord
  2
_FILLED
  0
BLOCK_RECORD
  5
217
100
AcDbSymbolTableRecord
100
AcDbBlockTableRecord
  2
*D0
  0
BLOCK_RECORD
  5
218
100
AcDbSymbolTableRecord
100
AcDbBlockTableRecord
  2
*D1
  0
BLOCK_RECORD
  5
219
100
AcDbSymbolTableRecord
100
AcDbBlockTableRecord
  2
*D2
  0
BLOCK_RECORD
  5
21A
100
AcDbSymbolTableRecord
100
AcDbBlockTableRecord
  2
*D3
  0
BLOCK_RECORD
  5
21B
100
AcDbSymbolTableRecord
100
AcDbBlockTableRecord
  2
*D4
  0
BLOCK_RECORD
  5
21C
100
AcDbSymbolTableRecord
100
AcDbBlockTableRecord
  2
*D5
  0
BLOCK_RECORD
  5
21D
100
AcDbSymbolTableRecord
100
AcDbBlockTableRecord
  2
*D6
  0
BLOCK_RECORD
  5
21E
100
AcDbSymbolTableRecord
100
AcDbBlockTableRecord
  2
*D7
  0
BLOCK_RECORD
  5
21F
100
AcDbSymbolTableRecord
100
AcDbBlockTableRecord
  2
*D8
  0
BLOCK_RECORD
  5
220
100
AcDbSymbolTableRecord
100
AcDbBlockTableRecord
  2
*D9
  0
BLOCK_RECORD
  5
221
100
AcDbSymbolTableRecord
100
AcDbBlockTableRecord
  2
*D10
  0
BLOCK_RECORD
  5
222
100
AcDbSymbolTableRecord
100
AcDbBlockTableRecord
  2
*D11
  0
ENDTAB
  0
TABLE
  2
DIMSTYLE
  5
A
100
AcDbSymbolTable
 70
1
100
AcDbDimStyleTable
 71
0
  0
DIMSTYLE
105
223
100
AcDbSymbolTableRecord
100
AcDbDimStyleTableRecord
  2
STANDARD
 70
0
  3

  4

 40
1.0
 41
3.0
 42
0.5
 43
0.38
 44
1.5
 45
0.0
 46
0.0
 47
0.01
 48
0.01
140
3.0
141
0.09
142
0.0
143
25.4
144
1.0
145
0.0
146
1.0
147
0.625
 71
1.0
 72
0.0
 73
0
 74
0
 75
0
 76
0
 77
1
 78
8
 79
2
170
0
171
1
172
0
173
0
174
0
175
0
176
0
177
0
178
0
270
2
179
2
271
2
272
2
273
2
274
2
275
0
280
0
281
0
282
0
283
1
284
8
285
0
286
0
287
3
288
0
340
11
278
44
341
216
342
216
343
216
344
216
  0
DIMSTYLE
105
224
100
AcDbSymbolTableRecord
100
AcDbDimStyleTableRecord
  2
DIMSTYLE_1
 70
0
  3

  4

 40
1.0
 41
3.0
 42
0.5
 43
0.38
 44
1.5
 45
0.0
 46
0.0
 47
0.0
 48
0.0
140
3.0
141
0.09
142
0.0
143
25.4
144
1.0
145
0.0
146
1.0
147
0.75
 71
0.0
 72
0.0
 73
0
 74
0
 75
0
 76
0
 77
1
 78
8
 79
2
170
0
171
1
172
0
173
0
174
0
175
0
176
0
177
0
178
0
270
2
179
2
271
2
272
2
273
2
274
2
275
0
280
0
281
0
282
0
283
1
284
8
285
0
286
0
287
3
288
0
340
11
278
44
341
216
342
216
343
216
344
216
  0
ENDTAB
  0
ENDSEC
  0
SECTION
  2
BLOCKS
  0
BLOCK
  5
20
100
AcDbEntity
  8
0
100
AcDbBlockBegin
  2
*Model_Space
 70
0
 10
0.0
 20
0.0
 30
0.0
  3
*Model_Space
  1

  0
ENDBLK
  5
21
100
AcDbEntity
  8
0
100
AcDbBlockEnd
  0
BLOCK
  5
1C
100
AcDbEntity
  8
0
100
AcDbBlockBegin
  2
*Paper_Space
 70
0
 10
0.0
 20
0.0
 30
0.0
  3
*Paper_Space
  1

  0
ENDBLK
  5
1D
100
AcDbEntity
  8
0
100
AcDbBlockEnd
  0
BLOCK
  5
225
100
AcDbEntity
  8
0
100
AcDbBlockBegin
  2
_FILLED
 70
64
 10
0.0
 20
0.0
  3
_FILLED
  1

  0
SOLID
  5
226
100
AcDbEntity
  8
0
  6
BYBLOCK
 62
0
100
AcDbTrace
 10
0.0
 20
0.0
 11
-1.0
 21
0.3166666667
 12
-1.0
 22
-0.3166666667
 13
-1.0
 23
-0.3166666667
  0
ENDBLK
  5
227
100
AcDbEntity
  8
0
  6
BYBLOCK
 62
0
100
AcDbBlockEnd
  0
BLOCK
  5
228
100
AcDbEntity
  8
0
100
AcDbBlockBegin
 62
7
  6
CONTINUOUS
  2
*D0
 70
65
 10
0.0
 20
0.0
  3
*D0
  1

  0
MTEXT
  5
229
100
AcDbEntity
  8
0
100
AcDbMText
 62
7
  6
CONTINUOUS
  7
STANDARD
 71
2
 72
1
 10
0.0
 20
-52.2418905195
 30
0.0
 11
1.0
 21
0.0
 31
0.0
 73
2
 44
0.9
  1
34
 40
3.0
 41
6.75
  0
LINE
  5
22A
100
AcDbEntity
  8
0
100
AcDbLine
 62
7
  6
CONTINUOUS
 10
-17.0
 20
-13.7418905195
 11
-17.0
 21
-57.4918905195
  0
LINE
  5
22B
100
AcDbEntity
  8
0
100
AcDbLine
 62
7
  6
CONTINUOUS
 10
17.0
 20
-13.7418905199
 11
17.0
 21
-57.4918905195
  0
LINE
  5
22C
100
AcDbEntity
  8
0
100
AcDbLine
 62
7
  6
CONTINUOUS
 10
-17.0
 20
-55.9918905195
 11
0.0
 21
-55.9918905195
  0
LINE
  5
22D
100
AcDbEntity
  8
0
100
AcDbLine
 62
7
  6
CONTINUOUS
 10
17.0
 20
-55.9918905195
 11
0.0
 21
-55.9918905195
  0
INSERT
  5
22E
100
AcDbEntity
  8
0
100
AcDbBlockReference
 62
7
  6
CONTINUOUS
  2
_FILLED
 10
-17.0
 20
-55.9918905195
 41
3.0
 42
3.0
 43
3.0
 50
180.0
  0
INSERT
  5
22F
100
AcDbEntity
  8
0
100
AcDbBlockReference
 62
7
  6
CONTINUOUS
  2
_FILLED
 10
17.0
 20
-55.9918905195
 41
3.0
 42
3.0
 43
3.0
  0
ENDBLK
  5
230
100
AcDbEntity
  8
0
  6
BYBLOCK
 62
0
100
AcDbBlockEnd
  0
BLOCK
  5
231
100
AcDbEntity
  8
0
100
AcDbBlockBegin
 62
7
  6
CONTINUOUS
  2
*D1
 70
65
 10
0.0
 20
0.0
  3
*D1
  1

  0
MTEXT
  5
232
100
AcDbEntity
  8
0
100
AcDbMText
 62
7
  6
CONTINUOUS
  7
STANDARD
 71
2
 72
1
 10
41.25
 20
9.2581094805
 30
0.0
 11
0.0
 21
1.0
 31
0.0
 73
2
 44
0.9
  1
57,5
 40
3.0
 41
12.5357142857
  0
LINE
  5
233
100
AcDbEntity
  8
0
100
AcDbLine
 62
7
  6
CONTINUOUS
 10
0.5
 20
38.0081094805
 11
46.5
 21
38.0081094805
  0
LINE
  5
234
100
AcDbEntity
  8
0
100
AcDbLine
 62
7
  6
CONTINUOUS
 10
0.5
 20
-19.4918905195
 11
46.5
 21
-19.4918905195
  0
LINE
  5
235
100
AcDbEntity
  8
0
100
AcDbLine
 62
7
  6
CONTINUOUS
 10
45.0
 20
38.0081094805
 11
45.0
 21
9.2581094805
  0
LINE
  5
236
100
AcDbEntity
  8
0
100
AcDbLine
 62
7
  6
CONTINUOUS
 10
45.0
 20
-19.4918905195
 11
45.0
 21
9.2581094805
  0
INSERT
  5
237
100
AcDbEntity
  8
0
100
AcDbBlockReference
 62
7
  6
CONTINUOUS
  2
_FILLED
 10
45.0
 20
38.0081094805
 41
3.0
 42
3.0
 43
3.0
 50
90.0
  0
INSERT
  5
238
100
AcDbEntity
  8
0
100
AcDbBlockReference
 62
7
  6
CONTINUOUS
  2
_FILLED
 10
45.0
 20
-19.4918905195
 41
3.0
 42
3.0
 43
3.0
 50
270.0
  0
ENDBLK
  5
239
100
AcDbEntity
  8
0
  6
BYBLOCK
 62
0
100
AcDbBlockEnd
  0
BLOCK
  5
23A
100
AcDbEntity
  8
0
100
AcDbBlockBegin
 62
7
  6
CONTINUOUS
  2
*D2
 70
65
 10
0.0
 20
0.0
  3
*D2
  1

  0
MTEXT
  5
23B
100
AcDbEntity
  8
0
100
AcDbMText
 62
7
  6
CONTINUOUS
  7
STANDARD
 71
2
 72
1
 10
21.25
 20
17.0081094805
 30
0.0
 11
0.0
 21
1.0
 31
0.0
 73
2
 44
0.9
  1
17
 40
3.0
 41
6.1071428571
  0
LINE
  5
23C
100
AcDbEntity
  8
0
100
AcDbLine
 62
7
  6
CONTINUOUS
 10
0.5
 20
8.5081094805
 11
26.5
 21
8.5081094805
  0
LINE
  5
23D
100
AcDbEntity
  8
0
100
AcDbLine
 62
7
  6
CONTINUOUS
 10
0.5
 20
25.5081094805
 11
26.5
 21
25.5081094805
  0
LINE
  5
23E
100
AcDbEntity
  8
0
100
AcDbLine
 62
7
  6
CONTINUOUS
 10
25.0
 20
8.5081094805
 11
25.0
 21
17.0081094805
  0
LINE
  5
23F
100
AcDbEntity
  8
0
100
AcDbLine
 62
7
  6
CONTINUOUS
 10
25.0
 20
25.5081094805
 11
25.0
 21
17.0081094805
  0
INSERT
  5
240
100
AcDbEntity
  8
0
100
AcDbBlockReference
 62
7
  6
CONTINUOUS
  2
_FILLED
 10
25.0
 20
8.5081094805
 41
3.0
 42
3.0
 43
3.0
 50
270.0
  0
INSERT
  5
241
100
AcDbEntity
  8
0
100
AcDbBlockReference
 62
7
  6
CONTINUOUS
  2
_FILLED
 10
25.0
 20
25.5081094805
 41
3.0
 42
3.0
 43
3.0
 50
90.0
  0
ENDBLK
  5
242
100
AcDbEntity
  8
0
  6
BYBLOCK
 62
0
100
AcDbBlockEnd
  0
BLOCK
  5
243
100
AcDbEntity
  8
0
100
AcDbBlockBegin
 62
7
  6
CONTINUOUS
  2
*D3
 70
65
 10
0.0
 20
0.0
  3
*D3
  1

  0
MTEXT
  5
244
100
AcDbEntity
  8
0
100
AcDbMText
 62
7
  6
CONTINUOUS
  7
STANDARD
 71
2
 72
1
 10
0.0
 20
-42.2418905195
 30
0.0
 11
1.0
 21
0.0
 31
0.0
 73
2
 44
0.9
  1
18,5
 40
3.0
 41
11.8928571429
  0
LINE
  5
245
100
AcDbEntity
  8
0
100
AcDbLine
 62
7
  6
CONTINUOUS
 10
-9.25
 20
-10.2918905195
 11
-9.25
 21
-47.4918905195
  0
LINE
  5
246
100
AcDbEntity
  8
0
100
AcDbLine
 62
7
  6
CONTINUOUS
 10
9.25
 20
-10.2918905195
 11
9.25
 21
-47.4918905195
  0
LINE
  5
247
100
AcDbEntity
  8
0
100
AcDbLine
 62
7
  6
CONTINUOUS
 10
-9.25
 20
-45.9918905195
 11
-0.0
 21
-45.9918905195
  0
LINE
  5
248
100
AcDbEntity
  8
0
100
AcDbLine
 62
7
  6
CONTINUOUS
 10
9.25
 20
-45.9918905195
 11
-0.0
 21
-45.9918905195
  0
INSERT
  5
249
100
AcDbEntity
  8
0
100
AcDbBlockReference
 62
7
  6
CONTINUOUS
  2
_FILLED
 10
-9.25
 20
-45.9918905195
 41
3.0
 42
3.0
 43
3.0
 50
180.0
  0
INSERT
  5
24A
100
AcDbEntity
  8
0
100
AcDbBlockReference
 62
7
  6
CONTINUOUS
  2
_FILLED
 10
9.25
 20
-45.9918905195
 41
3.0
 42
3.0
 43
3.0
  0
ENDBLK
  5
24B
100
AcDbEntity
  8
0
  6
BYBLOCK
 62
0
100
AcDbBlockEnd
  0
BLOCK
  5
24C
100
AcDbEntity
  8
0
100
AcDbBlockBegin
 62
7
  6
CONTINUOUS
  2
*D4
 70
65
 10
0.0
 20
0.0
  3
*D4
  1

  0
MTEXT
  5
24D
100
AcDbEntity
  8
0
100
AcDbMText
 62
7
  6
CONTINUOUS
  7
STANDARD
 71
2
 72
1
 10
-41.6396322728
 20
59.7418905195
 30
0.0
 11
1.0
 21
0.0
 31
0.0
 73
2
 44
0.9
  1
20,5
 40
3.0
 41
12.8571428571
  0
LINE
  5
24E
100
AcDbEntity
  8
0
100
AcDbLine
 62
7
  6
CONTINUOUS
 10
-51.8896322728
 20
-6.4918905195
 11
-51.8896322728
 21
57.4918905195
  0
LINE
  5
24F
100
AcDbEntity
  8
0
100
AcDbLine
 62
7
  6
CONTINUOUS
 10
-31.3896322728
 20
38.5081094805
 11
-31.3896322728
 21
57.4918905195
  0
LINE
  5
250
100
AcDbEntity
  8
0
100
AcDbLine
 62
7
  6
CONTINUOUS
 10
-51.8896322728
 20
55.9918905195
 11
-41.6396322728
 21
55.9918905195
  0
LINE
  5
251
100
AcDbEntity
  8
0
100
AcDbLine
 62
7
  6
CONTINUOUS
 10
-31.3896322728
 20
55.9918905195
 11
-41.6396322728
 21
55.9918905195
  0
INSERT
  5
252
100
AcDbEntity
  8
0
100
AcDbBlockReference
 62
7
  6
CONTINUOUS
  2
_FILLED
 10
-51.8896322728
 20
55.9918905195
 41
3.0
 42
3.0
 43
3.0
 50
180.0
  0
INSERT
  5
253
100
AcDbEntity
  8
0
100
AcDbBlockReference
 62
7
  6
CONTINUOUS
  2
_FILLED
 10
-31.3896322728
 20
55.9918905195
 41
3.0
 42
3.0
 43
3.0
  0
ENDBLK
  5
254
100
AcDbEntity
  8
0
  6
BYBLOCK
 62
0
100
AcDbBlockEnd
  0
BLOCK
  5
255
100
AcDbEntity
  8
0
100
AcDbBlockBegin
 62
7
  6
CONTINUOUS
  2
*D5
 70
65
 10
0.0
 20
0.0
  3
*D5
  1

  0
MTEXT
  5
256
100
AcDbEntity
  8
0
100
AcDbMText
 62
7
  6
CONTINUOUS
  7
STANDARD
 71
2
 72
1
 10
-36.6396322728
 20
49.7418905195
 30
0.0
 11
1.0
 21
0.0
 31
0.0
 73
2
 44
0.9
  1
10,5
 40
3.0
 41
11.8928571429
  0
LINE
  5
257
100
AcDbEntity
  8
0
100
AcDbLine
 62
7
  6
CONTINUOUS
 10
-41.8896322728
 20
37.3500669832
 11
-41.8896322728
 21
47.4918905195
  0
LINE
  5
258
100
AcDbEntity
  8
0
100
AcDbLine
 62
7
  6
CONTINUOUS
 10
-31.3896322728
 20
38.5081094805
 11
-31.3896322728
 21
47.4918905195
  0
LINE
  5
259
100
AcDbEntity
  8
0
100
AcDbLine
 62
7
  6
CONTINUOUS
 10
-41.8896322728
 20
45.9918905195
 11
-45.8896322728
 21
45.9918905195
  0
LINE
  5
25A
100
AcDbEntity
  8
0
100
AcDbLine
 62
7
  6
CONTINUOUS
 10
-45.8896322728
 20
45.9918905195
 11
-36.6396322728
 21
45.9918905195
  0
LINE
  5
25B
100
AcDbEntity
  8
0
100
AcDbLine
 62
7
  6
CONTINUOUS
 10
-31.3896322728
 20
45.9918905195
 11
-27.3896322728
 21
45.9918905195
  0
LINE
  5
25C
100
AcDbEntity
  8
0
100
AcDbLine
 62
7
  6
CONTINUOUS
 10
-27.3896322728
 20
45.9918905195
 11
-36.6396322728
 21
45.9918905195
  0
INSERT
  5
25D
100
AcDbEntity
  8
0
100
AcDbBlockReference
 62
7
  6
CONTINUOUS
  2
_FILLED
 10
-41.8896322728
 20
45.9918905195
 41
3.0
 42
3.0
 43
3.0
  0
INSERT
  5
25E
100
AcDbEntity
  8
0
100
AcDbBlockReference
 62
7
  6
CONTINUOUS
  2
_FILLED
 10
-31.3896322728
 20
45.9918905195
 41
3.0
 42
3.0
 43
3.0
 50
180.0
  0
ENDBLK
  5
25F
100
AcDbEntity
  8
0
  6
BYBLOCK
 62
0
100
AcDbBlockEnd
  0
BLOCK
  5
260
100
AcDbEntity
  8
0
100
AcDbBlockBegin
 62
7
  6
CONTINUOUS
  2
*D6
 70
65
 10
0.0
 20
0.0
  3
*D6
  1

  0
MTEXT
  5
261
100
AcDbEntity
  8
0
100
AcDbMText
 62
7
  6
CONTINUOUS
  7
STANDARD
 71
2
 72
1
 10
31.25
 20
7.8581094805
 30
0.0
 11
0.0
 21
1.0
 31
0.0
 73
2
 44
0.9
  1
35,3
 40
3.0
 41
12.2142857143
  0
LINE
  5
262
100
AcDbEntity
  8
0
100
AcDbLine
 62
7
  6
CONTINUOUS
 10
0.5
 20
25.5081094805
 11
36.5
 21
25.5081094805
  0
LINE
  5
263
100
AcDbEntity
  8
0
100
AcDbLine
 62
7
  6
CONTINUOUS
 10
9.75
 20
-9.7918905195
 11
36.5
 21
-9.7918905195
  0
LINE
  5
264
100
AcDbEntity
  8
0
100
AcDbLine
 62
7
  6
CONTINUOUS
 10
35.0
 20
25.5081094805
 11
35.0
 21
7.8581094805
  0
LINE
  5
265
100
AcDbEntity
  8
0
100
AcDbLine
 62
7
  6
CONTINUOUS
 10
35.0
 20
-9.7918905195
 11
35.0
 21
7.8581094805
  0
INSERT
  5
266
100
AcDbEntity
  8
0
100
AcDbBlockReference
 62
7
  6
CONTINUOUS
  2
_FILLED
 10
35.0
 20
25.5081094805
 41
3.0
 42
3.0
 43
3.0
 50
90.0
  0
INSERT
  5
267
100
AcDbEntity
  8
0
100
AcDbBlockReference
 62
7
  6
CONTINUOUS
  2
_FILLED
 10
35.0
 20
-9.7918905195
 41
3.0
 42
3.0
 43
3.0
 50
270.0
  0
ENDBLK
  5
268
100
AcDbEntity
  8
0
  6
BYBLOCK
 62
0
100
AcDbBlockEnd
  0
BLOCK
  5
269
100
AcDbEntity
  8
0
100
AcDbBlockBegin
 62
7
  6
CONTINUOUS
  2
*D7
 70
65
 10
0.0
 20
0.0
  3
*D7
  1

  0
MTEXT
  5
26A
100
AcDbEntity
  8
0
100
AcDbMText
 62
7
  6
CONTINUOUS
  7
STANDARD
 71
2
 72
1
 10
51.6183842104
 20
1.5896621474
 30
0.0
 11
0.0
 21
1.0
 31
0.0
 73
2
 44
0.9
  1
45
 40
3.0
 41
6.75
  0
LINE
  5
26B
100
AcDbEntity
  8
0
100
AcDbLine
 62
7
  6
CONTINUOUS
 10
3.25
 20
-19.4918905195
 11
56.8683842104
 21
-19.4918905195
  0
LINE
  5
26C
100
AcDbEntity
  8
0
100
AcDbLine
 62
7
  6
CONTINUOUS
 10
0.5
 20
25.5081094805
 11
56.8683842104
 21
25.5081094805
  0
LINE
  5
26D
100
AcDbEntity
  8
0
100
AcDbLine
 62
7
  6
CONTINUOUS
 10
55.3683842104
 20
-19.4918905195
 11
55.3683842104
 21
3.0081094805
  0
LINE
  5
26E
100
AcDbEntity
  8
0
100
AcDbLine
 62
7
  6
CONTINUOUS
 10
55.3683842104
 20
25.5081094805
 11
55.3683842104
 21
3.0081094805
  0
INSERT
  5
26F
100
AcDbEntity
  8
0
100
AcDbBlockReference
 62
7
  6
CONTINUOUS
  2
_FILLED
 10
55.3683842104
 20
-19.4918905195
 41
3.0
 42
3.0
 43
3.0
 50
270.0
  0
INSERT
  5
270
100
AcDbEntity
  8
0
100
AcDbBlockReference
 62
7
  6
CONTINUOUS
  2
_FILLED
 10
55.3683842104
 20
25.5081094805
 41
3.0
 42
3.0
 43
3.0
 50
90.0
  0
ENDBLK
  5
271
100
AcDbEntity
  8
0
  6
BYBLOCK
 62
0
100
AcDbBlockEnd
  0
BLOCK
  5
272
100
AcDbEntity
  8
0
100
AcDbBlockBegin
 62
7
  6
CONTINUOUS
  2
*D8
 70
65
 10
0.0
 20
0.0
  3
*D8
  1

  0
MTEXT
  5
273
100
AcDbEntity
  8
0
100
AcDbMText
 62
7
  6
CONTINUOUS
  7
STANDARD
 71
2
 72
1
 10
-39.3896322728
 20
127.7615357342
 30
0.0
 11
1.0
 21
0.0
 31
0.0
 73
2
 44
0.9
  1
16
 40
3.0
 41
6.1071428571
  0
LINE
  5
274
100
AcDbEntity
  8
0
100
AcDbLine
 62
7
  6
CONTINUOUS
 10
-47.3896322728
 20
91.5115357342
 11
-47.3896322728
 21
125.5115357342
  0
LINE
  5
275
100
AcDbEntity
  8
0
100
AcDbLine
 62
7
  6
CONTINUOUS
 10
-31.3896322728
 20
89.5115357342
 11
-31.3896322728
 21
125.5115357342
  0
LINE
  5
276
100
AcDbEntity
  8
0
100
AcDbLine
 62
7
  6
CONTINUOUS
 10
-47.3896322728
 20
124.0115357342
 11
-39.3896322728
 21
124.0115357342
  0
LINE
  5
277
100
AcDbEntity
  8
0
100
AcDbLine
 62
7
  6
CONTINUOUS
 10
-31.3896322728
 20
124.0115357342
 11
-39.3896322728
 21
124.0115357342
  0
INSERT
  5
278
100
AcDbEntity
  8
0
100
AcDbBlockReference
 62
7
  6
CONTINUOUS
  2
_FILLED
 10
-47.3896322728
 20
124.0115357342
 41
3.0
 42
3.0
 43
3.0
 50
180.0
  0
INSERT
  5
279
100
AcDbEntity
  8
0
100
AcDbBlockReference
 62
7
  6
CONTINUOUS
  2
_FILLED
 10
-31.3896322728
 20
124.0115357342
 41
3.0
 42
3.0
 43
3.0
  0
ENDBLK
  5
27A
100
AcDbEntity
  8
0
  6
BYBLOCK
 62
0
100
AcDbBlockEnd
  0
BLOCK
  5
27B
100
AcDbEntity
  8
0
100
AcDbBlockBegin
 62
7
  6
CONTINUOUS
  2
*D9
 70
65
 10
0.0
 20
0.0
  3
*D9
  1

  0
MTEXT
  5
27C
100
AcDbEntity
  8
0
100
AcDbMText
 62
7
  6
CONTINUOUS
  7
STANDARD
 71
3
 72
1
 10
-54.1096322728
 20
117.7615357342
 30
0.0
 11
1.0
 21
0.0
 31
0.0
 73
2
 44
0.9
  1
5,75
 40
3.0
 41
12.5357142857
  0
LINE
  5
27D
100
AcDbEntity
  8
0
100
AcDbLine
 62
7
  6
CONTINUOUS
 10
-31.3896322728
 20
106.2047275171
 11
-31.3896322728
 21
115.5115357342
  0
LINE
  5
27E
100
AcDbEntity
  8
0
100
AcDbLine
 62
7
  6
CONTINUOUS
 10
-37.1396322728
 20
93.2115357342
 11
-37.1396322728
 21
115.5115357342
  0
LINE
  5
27F
100
AcDbEntity
  8
0
100
AcDbLine
 62
7
  6
CONTINUOUS
 10
-31.3896322728
 20
114.0115357342
 11
-27.3896322728
 21
114.0115357342
  0
LINE
  5
280
100
AcDbEntity
  8
0
100
AcDbLine
 62
7
  6
CONTINUOUS
 10
-27.3896322728
 20
114.0115357342
 11
-34.2646322728
 21
114.0115357342
  0
LINE
  5
281
100
AcDbEntity
  8
0
100
AcDbLine
 62
7
  6
CONTINUOUS
 10
-37.1396322728
 20
114.0115357342
 11
-62.46677513
 21
114.0115357342
  0
LINE
  5
282
100
AcDbEntity
  8
0
100
AcDbLine
 62
7
  6
CONTINUOUS
 10
-62.46677513
 20
114.0115357342
 11
-34.2646322728
 21
114.0115357342
  0
INSERT
  5
283
100
AcDbEntity
  8
0
100
AcDbBlockReference
 62
7
  6
CONTINUOUS
  2
_FILLED
 10
-31.3896322728
 20
114.0115357342
 41
3.0
 42
3.0
 43
3.0
 50
180.0
  0
INSERT
  5
284
100
AcDbEntity
  8
0
100
AcDbBlockReference
 62
7
  6
CONTINUOUS
  2
_FILLED
 10
-37.1396322728
 20
114.0115357342
 41
3.0
 42
3.0
 43
3.0
  0
ENDBLK
  5
285
100
AcDbEntity
  8
0
  6
BYBLOCK
 62
0
100
AcDbBlockEnd
  0
BLOCK
  5
286
100
AcDbEntity
  8
0
100
AcDbBlockBegin
 62
7
  6
CONTINUOUS
  2
*D10
 70
65
 10
0.0
 20
0.0
  3
*D10
  1

  0
MTEXT
  5
287
100
AcDbEntity
  8
0
100
AcDbMText
 62
7
  6
CONTINUOUS
  7
STANDARD
 71
2
 72
1
 10
-26.9896322728
 20
99.3615357342
 30
0.0
 11
0.0
 21
1.0
 31
0.0
 73
2
 44
0.9
  1
13,3
 40
3.0
 41
11.5714285714
  0
LINE
  5
288
100
AcDbEntity
  8
0
100
AcDbLine
 62
7
  6
CONTINUOUS
 10
-32.3896322728
 20
106.0115357342
 11
-21.7396322728
 21
106.0115357342
  0
LINE
  5
289
100
AcDbEntity
  8
0
100
AcDbLine
 62
7
  6
CONTINUOUS
 10
-36.6396322728
 20
92.7115357342
 11
-21.7396322728
 21
92.7115357342
  0
LINE
  5
28A
100
AcDbEntity
  8
0
100
AcDbLine
 62
7
  6
CONTINUOUS
 10
-23.2396322728
 20
106.0115357342
 11
-23.2396322728
 21
110.0115357342
  0
LINE
  5
28B
100
AcDbEntity
  8
0
100
AcDbLine
 62
7
  6
CONTINUOUS
 10
-23.2396322728
 20
110.0115357342
 11
-23.2396322728
 21
99.3615357342
  0
LINE
  5
28C
100
AcDbEntity
  8
0
100
AcDbLine
 62
7
  6
CONTINUOUS
 10
-23.2396322728
 20
92.7115357342
 11
-23.2396322728
 21
88.7115357342
  0
LINE
  5
28D
100
AcDbEntity
  8
0
100
AcDbLine
 62
7
  6
CONTINUOUS
 10
-23.2396322728
 20
88.7115357342
 11
-23.2396322728
 21
99.3615357342
  0
INSERT
  5
28E
100
AcDbEntity
  8
0
100
AcDbBlockReference
 62
7
  6
CONTINUOUS
  2
_FILLED
 10
-23.2396322728
 20
106.0115357342
 41
3.0
 42
3.0
 43
3.0
 50
270.0
  0
INSERT
  5
28F
100
AcDbEntity
  8
0
100
AcDbBlockReference
 62
7
  6
CONTINUOUS
  2
_FILLED
 10
-23.2396322728
 20
92.7115357342
 41
3.0
 42
3.0
 43
3.0
 50
90.0
  0
ENDBLK
  5
290
100
AcDbEntity
  8
0
  6
BYBLOCK
 62
0
100
AcDbBlockEnd
  0
BLOCK
  5
291
100
AcDbEntity
  8
0
100
AcDbBlockBegin
 62
7
  6
CONTINUOUS
  2
*D11
 70
65
 10
0.0
 20
0.0
  3
*D11
  1

  0
MTEXT
  5
292
100
AcDbEntity
  8
0
100
AcDbMText
 62
7
  6
CONTINUOUS
  7
STANDARD
 71
2
 72
1
 10
-16.9896322728
 20
82.3615357342
 30
0.0
 11
0.0
 21
1.0
 31
0.0
 73
2
 44
0.9
  1
20,7
 40
3.0
 41
13.1785714286
  0
LINE
  5
293
100
AcDbEntity
  8
0
100
AcDbLine
 62
7
  6
CONTINUOUS
 10
-32.3896322728
 20
72.0115357342
 11
-11.7396322728
 21
72.0115357342
  0
LINE
  5
294
100
AcDbEntity
  8
0
100
AcDbLine
 62
7
  6
CONTINUOUS
 10
-36.6396322728
 20
92.7115357342
 11
-11.7396322728
 21
92.7115357342
  0
LINE
  5
295
100
AcDbEntity
  8
0
100
AcDbLine
 62
7
  6
CONTINUOUS
 10
-13.2396322728
 20
72.0115357342
 11
-13.2396322728
 21
82.3615357342
  0
LINE
  5
296
100
AcDbEntity
  8
0
100
AcDbLine
 62
7
  6
CONTINUOUS
 10
-13.2396322728
 20
92.7115357342
 11
-13.2396322728
 21
82.3615357342
  0
INSERT
  5
297
100
AcDbEntity
  8
0
100
AcDbBlockReference
 62
7
  6
CONTINUOUS
  2
_FILLED
 10
-13.2396322728
 20
72.0115357342
 41
3.0
 42
3.0
 43
3.0
 50
270.0
  0
INSERT
  5
298
100
AcDbEntity
  8
0
100
AcDbBlockReference
 62
7
  6
CONTINUOUS
  2
_FILLED
 10
-13.2396322728
 20
92.7115357342
 41
3.0
 42
3.0
 43
3.0
 50
90.0
  0
ENDBLK
  5
299
100
AcDbEntity
  8
0
  6
BYBLOCK
 62
0
100
AcDbBlockEnd
  0
ENDSEC
  0
SECTION
  2
ENTITIES
  0
DIMENSION
  5
29A
100
AcDbEntity
  8
0
100
AcDbDimension
 62
7
  6
CONTINUOUS
  2
*D0
 10
17.0
 20
-55.9918905195
 11
-0.4285714664
 21
-55.9918905195
 70
160
 71
2
 72
2
 41
0.9
 42
34.0
  3
DIMSTYLE_1
100
AcDbAlignedDimension
 13
-17.0
 23
-13.2418905195
 14
17.0
 24
-13.2418905199
100
AcDbRotatedDimension
  0
DIMENSION
  5
29B
100
AcDbEntity
  8
0
100
AcDbDimension
 62
7
  6
CONTINUOUS
  2
*D1
 10
45.0
 20
-19.4918905195
 11
45.0
 21
8.8295380306
 70
160
 71
2
 72
2
 41
0.9
 42
57.5
  3
DIMSTYLE_1
100
AcDbAlignedDimension
 13
0.0
 23
38.0081094805
 14
0.0
 24
-19.4918905195
 50
270.0
100
AcDbRotatedDimension
  0
DIMENSION
  5
29C
100
AcDbEntity
  8
0
100
AcDbDimension
 62
7
  6
CONTINUOUS
  2
*D2
 10
25.0
 20
25.5081094805
 11
25.0
 21
16.5795380278
 70
160
 71
2
 72
2
 41
0.9
 42
17.0
  3
DIMSTYLE_1
100
AcDbAlignedDimension
 13
0.0
 23
8.5081094805
 14
0.0
 24
25.5081094805
 50
90.0
100
AcDbRotatedDimension
  0
DIMENSION
  5
29D
100
AcDbEntity
  8
0
100
AcDbDimension
 62
7
  6
CONTINUOUS
  2
*D3
 10
9.25
 20
-45.9918905195
 11
-0.4285714664
 21
-45.9918905195
 70
160
 71
2
 72
2
 41
0.9
 42
18.5
  3
DIMSTYLE_1
100
AcDbAlignedDimension
 13
-9.25
 23
-9.7918905195
 14
9.25
 24
-9.7918905195
100
AcDbRotatedDimension
  0
DIMENSION
  5
29E
100
AcDbEntity
  8
0
100
AcDbDimension
 62
7
  6
CONTINUOUS
  2
*D4
 10
-31.3896322728
 20
55.9918905195
 11
-42.0682048782
 21
55.9918905195
 70
160
 71
2
 72
2
 41
0.9
 42
20.5
  3
DIMSTYLE_1
100
AcDbAlignedDimension
 13
-51.8896322728
 23
-6.9918905195
 14
-31.3896322728
 24
38.0081094805
100
AcDbRotatedDimension
  0
DIMENSION
  5
29F
100
AcDbEntity
  8
0
100
AcDbDimension
 62
7
  6
CONTINUOUS
  2
*D5
 10
-31.3896322728
 20
45.9918905195
 11
-37.0682042587
 21
45.9918905195
 70
160
 71
2
 72
2
 41
0.9
 42
10.5
  3
DIMSTYLE_1
100
AcDbAlignedDimension
 13
-41.8896322728
 23
36.8500669832
 14
-31.3896322728
 24
38.0081094805
100
AcDbRotatedDimension
  0
DIMENSION
  5
2A0
100
AcDbEntity
  8
0
100
AcDbDimension
 62
7
  6
CONTINUOUS
  2
*D6
 10
35.0
 20
-9.7918905195
 11
35.0
 21
7.4295385141
 70
160
 71
2
 72
2
 41
0.9
 42
35.3
  3
DIMSTYLE_1
100
AcDbAlignedDimension
 13
0.0
 23
25.5081094805
 14
9.25
 24
-9.7918905195
 50
270.0
100
AcDbRotatedDimension
  0
DIMENSION
  5
2A1
100
AcDbEntity
  8
0
100
AcDbDimension
 62
7
  6
CONTINUOUS
  2
*D7
 10
55.3683842104
 20
25.5081094805
 11
55.3683842104
 21
1.1610904722
 70
160
 71
2
 72
2
 41
0.9
 42
45.0
  3
DIMSTYLE_1
100
AcDbAlignedDimension
 13
2.75
 23
-19.4918905195
 14
0.0
 24
25.5081094805
 50
90.0
100
AcDbRotatedDimension
  0
DIMENSION
  5
2A2
100
AcDbEntity
  8
0
100
AcDbDimension
 62
7
  6
CONTINUOUS
  2
*D8
 10
-31.3896322728
 20
124.0115357342
 11
-39.8182048126
 21
124.0115357342
 70
160
 71
2
 72
2
 41
0.9
 42
16.0
  3
DIMSTYLE_1
100
AcDbAlignedDimension
 13
-47.3896322728
 23
91.0115357342
 14
-31.3896322728
 24
89.0115357342
100
AcDbRotatedDimension
  0
DIMENSION
  5
2A3
100
AcDbEntity
  8
0
100
AcDbDimension
 62
7
  6
CONTINUOUS
  2
*D9
 10
-37.1396322728
 20
114.0115357342
 11
-58.7167737457
 21
114.0115357342
 70
160
 71
3
 72
2
 41
0.9
 42
5.75
  3
DIMSTYLE_1
100
AcDbAlignedDimension
 13
-31.3896322728
 23
105.7047275171
 14
-37.1396322728
 24
92.7115357342
 50
180.0
100
AcDbRotatedDimension
  0
DIMENSION
  5
2A4
100
AcDbEntity
  8
0
100
AcDbDimension
 62
7
  6
CONTINUOUS
  2
*D10
 10
-23.2396322728
 20
92.7115357342
 11
-23.2396322728
 21
98.9329647186
 70
160
 71
2
 72
2
 41
0.9
 42
13.3
  3
DIMSTYLE_1
100
AcDbAlignedDimension
 13
-32.8896322728
 23
106.0115357342
 14
-37.1396322728
 24
92.7115357342
 50
270.0
100
AcDbRotatedDimension
  0
DIMENSION
  5
2A5
100
AcDbEntity
  8
0
100
AcDbDimension
 62
7
  6
CONTINUOUS
  2
*D11
 10
-13.2396322728
 20
92.7115357342
 11
-13.2396322728
 21
81.9329642729
 70
160
 71
2
 72
2
 41
0.9
 42
20.7
  3
DIMSTYLE_1
100
AcDbAlignedDimension
 13
-32.8896322728
 23
72.0115357342
 14
-37.1396322728
 24
92.7115357342
 50
90.0
100
AcDbRotatedDimension
  0
LINE
  5
2A6
100
AcDbEntity
  8
0
100
AcDbLine
 62
7
  6
CONTINUOUS
 10
13.4999237221
 20
-37.9918905195
 11
-13.4999211708
 21
-37.9918905195
  0
LINE
  5
2A7
100
AcDbEntity
  8
SMUSSO
100
AcDbLine
 62
7
  6
CONTINUOUS
 10
13.4999999999
 20
-31.4918487614
 11
-13.4999999999
 21
-31.4918055316
  0
LINE
  5
2A8
100
AcDbEntity
  8
SMUSSO
100
AcDbLine
 62
7
  6
CONTINUOUS
 10
-11.9999999999
 20
-29.991805531
 11
11.9999999999
 21
-29.991848761
  0
LINE
  5
2A9
100
AcDbEntity
  8
0
100
AcDbLine
 62
7
  6
CONTINUOUS
 10
-11.9998555045
 20
-27.4918905195
 11
11.9998573241
 21
-27.4918905195
  0
LINE
  5
2AA
100
AcDbEntity
  8
0
100
AcDbLine
 62
253
  6
CONTINUOUS
 10
1.4973297586
 20
29.4601702499
 11
1.75
 21
29.7218179442
  0
LINE
  5
2AB
100
AcDbEntity
  8
0
100
AcDbLine
 62
7
  6
CONTINUOUS
 10
-9.0
 20
-19.4918905195
 11
-5.0
 21
-19.4918905195
  0
LINE
  5
2AC
100
AcDbEntity
  8
RACCORDO
100
AcDbLine
 62
7
  6
CONTINUOUS
 10
17.0
 20
-19.4918905195
 11
9.0
 21
-19.4918905195
  0
LINE
  5
2AD
100
AcDbEntity
  8
0
100
AcDbLine
 62
7
  6
CONTINUOUS
 10
-2.75
 20
-19.4918905195
 11
2.75
 21
-19.4918905195
  0
LINE
  5
2AE
100
AcDbEntity
  8
ASSI
100
AcDbLine
 62
7
  6
CONTINUOUS
 10
5.0
 20
-19.4918905195
 11
2.75
 21
-19.4918905195
  0
LINE
  5
2AF
100
AcDbEntity
  8
0
100
AcDbLine
 62
7
  6
CONTINUOUS
 10
5.0
 20
-19.4918905195
 11
9.0
 21
-19.4918905195
  0
LINE
  5
2B0
100
AcDbEntity
  8
ASSI
100
AcDbLine
 62
7
  6
CONTINUOUS
 10
-2.75
 20
-19.4918905195
 11
-5.0
 21
-19.4918905195
  0
LINE
  5
2B1
100
AcDbEntity
  8
RACCORDO
100
AcDbLine
 62
7
  6
CONTINUOUS
 10
-9.0
 20
-19.4918905195
 11
-17.0
 21
-19.4918905195
  0
LINE
  5
2B2
100
AcDbEntity
  8
DRAFT
100
AcDbLine
 62
7
  6
CONTINUOUS
 10
-7.0
 20
-19.2866544839
 11
-5.0
 21
-19.2866544839
  0
LINE
  5
2B3
100
AcDbEntity
  8
DRAFT
100
AcDbLine
 62
7
  6
CONTINUOUS
 10
5.0
 20
-19.2866544839
 11
7.0
 21
-19.2866544839
  0
LINE
  5
2B4
100
AcDbEntity
  8
RACCORDO
100
AcDbLine
 62
7
  6
CONTINUOUS
 10
-17.0
 20
-6.9918905195
 11
-17.0
 21
-19.4918905195
  0
LINE
  5
2B5
100
AcDbEntity
  8
0
100
AcDbLine
 62
253
  6
CONTINUOUS
 10
1.5478869674
 20
18.4900754918
 11
1.7368398437
 21
18.551470003
  0
LINE
  5
2B6
100
AcDbEntity
  8
RACCORDO
100
AcDbLine
 62
253
  6
CONTINUOUS
 10
-16.0
 20
-6.9918905195
 11
-16.0
 21
-19.4918905195
  0
LINE
  5
2B7
100
AcDbEntity
  8
RACCORDO
100
AcDbLine
 62
253
  6
CONTINUOUS
 10
-14.5
 20
-5.4918905195
 11
-14.4999999991
 21
-4.4918905195
  0
LINE
  5
2B8
100
AcDbEntity
  8
0
100
AcDbLine
 62
7
  6
CONTINUOUS
 10
-8.0512404581
 20
-15.2918905195
 11
-7.0
 21
-15.2918905195
  0
LINE
  5
2B9
100
AcDbEntity
  8
0
100
AcDbLine
 62
7
  6
CONTINUOUS
 10
7.0
 20
-15.2918905195
 11
8.0512404581
 21
-15.2918905195
  0
LWPOLYLINE
  5
2BA
100
AcDbEntity
  8
RACCORDO
100
AcDbPolyline
 62
7
  6
CONTINUOUS
 90
10
 70
0
 10
-11.4259747976
 20
-9.9803671287
 10
-11.404352497
 20
-10.03815712
 10
-11.3759473877
 20
-10.0918772684
 10
-11.3407594698
 20
-10.139973308
 10
-11.2974653529
 20
-10.1808252337
 10
-11.2473884273
 20
-10.2145651661
 10
-11.194498864
 20
-10.2421207767
 10
-11.1401200534
 20
-10.2629205054
 10
-11.0829286051
 20
-10.2758213063
 10
-11.0229245191
 20
-10.2803630164
  0
LINE
  5
2BB
100
AcDbEntity
  8
0
100
AcDbLine
 62
7
  6
CONTINUOUS
 10
-13.5
 20
-37.9918905195
 11
-13.5
 21
-31.4918055299
  0
LINE
  5
2BC
100
AcDbEntity
  8
RACCORDO
100
AcDbLine
 62
7
  6
CONTINUOUS
 10
-12.5
 20
25.5081094805
 11
-12.5
 21
-4.4918905195
  0
LINE
  5
2BD
100
AcDbEntity
  8
0
100
AcDbLine
 62
7
  6
CONTINUOUS
 10
-12.0
 20
-29.9918055299
 11
-12.0
 21
-27.4918905195
  0
LINE
  5
2BE
100
AcDbEntity
  8
RACCORDO
100
AcDbLine
 62
253
  6
CONTINUOUS
 10
-11.5
 20
25.5081094805
 11
-11.5
 21
-4.4918905195
  0
LINE
  5
2BF
100
AcDbEntity
  8
RACCORDO
100
AcDbLine
 62
7
  6
CONTINUOUS
 10
-11.3039421053
 20
-10.931527396
 11
-11.3039421053
 21
-10.2879484141
  0
LINE
  5
2C0
100
AcDbEntity
  8
0
100
AcDbLine
 62
7
  6
CONTINUOUS
 10
-4.25
 20
-13.4918905195
 11
-2.75
 21
-13.4918905195
  0
LINE
  5
2C1
100
AcDbEntity
  8
0
100
AcDbLine
 62
7
  6
CONTINUOUS
 10
2.75
 20
-13.4918905195
 11
4.25
 21
-13.4918905195
  0
LINE
  5
2C2
100
AcDbEntity
  8
SMUSSO
100
AcDbLine
 62
7
  6
CONTINUOUS
 10
11.9999999999
 20
-29.9918487598
 11
13.4999999999
 21
-31.4918487598
  0
LWPOLYLINE
  5
2C3
100
AcDbEntity
  8
RACCORDO
100
AcDbPolyline
 62
7
  6
CONTINUOUS
 90
16
 70
0
 10
-8.011527503
 20
-8.5056021144
 10
-8.0129566556
 20
-8.4582468975
 10
-8.0169552458
 20
-8.4104708232
 10
-8.0235087594
 20
-8.3622738914
 10
-8.0325262578
 20
-8.3133741797
 10
-8.0439769373
 20
-8.2640536105
 10
-8.0580147009
 20
-8.2151579514
 10
-8.0745880468
 20
-8.1666930468
 10
-8.0937021405
 20
-8.1186530524
 10
-8.1158108618
 20
-8.0718662024
 10
-8.1410292783
 20
-8.0258519182
 10
-8.1692286558
 20
-7.9810907785
 10
-8.2006024485
 20
-7.9398527535
 10
-8.2350730383
 20
-7.9028945
 10
-8.272206391
 20
-7.8694593614
 10
-8.3115233907
 20
-7.8395473375
  0
LINE
  5
2C4
100
AcDbEntity
  8
0
100
AcDbLine
 62
7
  6
CONTINUOUS
 10
-10.0
 20
-19.4918905195
 11
-10.0
 21
-27.4918905195
  0
LINE
  5
2C5
100
AcDbEntity
  8
ASSI
100
AcDbLine
 62
7
  6
CONTINUOUS
 10
-9.0
 20
-19.4918905195
 11
-9.0
 21
-16.9918905195
  0
LINE
  5
2C6
100
AcDbEntity
  8
RACCORDO
100
AcDbLine
 62
253
  6
CONTINUOUS
 10
-8.3115233907
 20
-7.8395473375
 11
-8.3115233907
 21
-7.6380561439
  0
LINE
  5
2C7
100
AcDbEntity
  8
RACCORDO
100
AcDbLine
 62
7
  6
CONTINUOUS
 10
-8.011527503
 20
-8.5078593813
 11
-8.011527503
 21
-7.7951367389
  0
LINE
  5
2C8
100
AcDbEntity
  8
RACCORDO
100
AcDbLine
 62
253
  6
CONTINUOUS
 10
-2.7499999998
 20
18.6919522057
 11
-2.9370748298
 21
18.2282680374
  0
LINE
  5
2C9
100
AcDbEntity
  8
RACCORDO
100
AcDbLine
 62
253
  6
CONTINUOUS
 10
2.7499999998
 20
32.3242667553
 11
2.9370748298
 21
32.7879509237
  0
LINE
  5
2CA
100
AcDbEntity
  8
RACCORDO
100
AcDbLine
 62
7
  6
CONTINUOUS
 10
-11.5471140583
 20
-10.2803630164
 11
-11.0214144334
 21
-10.2803630164
  0
LINE
  5
2CB
100
AcDbEntity
  8
RACCORDO
100
AcDbLine
 62
253
  6
CONTINUOUS
 10
-11.5910978735
 20
-9.9803671287
 11
-11.4259747976
 21
-9.9803671287
  0
LINE
  5
2CC
100
AcDbEntity
  8
0
100
AcDbLine
 62
7
  6
CONTINUOUS
 10
4.25
 20
-8.4918905195
 11
2.75
 21
-8.4918905195
  0
LINE
  5
2CD
100
AcDbEntity
  8
0
100
AcDbLine
 62
7
  6
CONTINUOUS
 10
-2.75
 20
-8.4918905195
 11
-4.25
 21
-8.4918905195
  0
LINE
  5
2CE
100
AcDbEntity
  8
0
100
AcDbLine
 62
7
  6
CONTINUOUS
 10
-7.0
 20
-15.2918905195
 11
-7.0
 21
-19.4918905195
  0
LINE
  5
2CF
100
AcDbEntity
  8
RACCORDO
100
AcDbLine
 62
253
  6
CONTINUOUS
 10
16.0
 20
-6.9918905195
 11
17.0
 21
-6.9918905203
  0
LINE
  5
2D0
100
AcDbEntity
  8
RACCORDO
100
AcDbLine
 62
253
  6
CONTINUOUS
 10
-16.0
 20
-6.9918905195
 11
-17.0
 21
-6.9918905195
  0
LINE
  5
2D1
100
AcDbEntity
  8
RACCORDO
100
AcDbLine
 62
253
  6
CONTINUOUS
 10
14.5
 20
-5.4918905195
 11
2.75
 21
-5.4918905195
  0
LINE
  5
2D2
100
AcDbEntity
  8
RACCORDO
100
AcDbLine
 62
253
  6
CONTINUOUS
 10
-2.75
 20
-5.4918905195
 11
-14.5
 21
-5.4918905195
  0
LINE
  5
2D3
100
AcDbEntity
  8
ASSI
100
AcDbLine
 62
7
  6
CONTINUOUS
 10
-5.0
 20
-19.4918905195
 11
-5.0
 21
-16.9918905195
  0
LINE
  5
2D4
100
AcDbEntity
  8
0
100
AcDbLine
 62
7
  6
CONTINUOUS
 10
-4.25
 20
-8.4918905195
 11
-4.25
 21
-13.4918905195
  0
LINE
  5
2D5
100
AcDbEntity
  8
0
100
AcDbLine
 62
7
  6
CONTINUOUS
 10
-2.75
 20
-19.4918905195
 11
-2.75
 21
-13.4918905195
  0
LINE
  5
2D6
100
AcDbEntity
  8
RACCORDO
100
AcDbLine
 62
7
  6
CONTINUOUS
 10
-2.75
 20
-8.4918905195
 11
-2.75
 21
-4.4918905195
  0
LINE
  5
2D7
100
AcDbEntity
  8
RACCORDO
100
AcDbLine
 62
253
  6
CONTINUOUS
 10
-2.75
 20
18.6919522058
 11
-2.75
 21
32.3242667552
  0
LINE
  5
2D8
100
AcDbEntity
  8
RACCORDO
100
AcDbLine
 62
7
  6
CONTINUOUS
 10
14.5
 20
-4.4918905195
 11
2.75
 21
-4.4918905195
  0
LINE
  5
2D9
100
AcDbEntity
  8
RACCORDO
100
AcDbLine
 62
7
  6
CONTINUOUS
 10
-2.75
 20
-4.4918905195
 11
-14.5
 21
-4.4918905195
  0
LINE
  5
2DA
100
AcDbEntity
  8
RACCORDO
100
AcDbLine
 62
7
  6
CONTINUOUS
 10
-1.9
 20
37.8628656497
 11
-1.9
 21
34.0280860063
  0
LINE
  5
2DB
100
AcDbEntity
  8
RACCORDO
100
AcDbLine
 62
7
  6
CONTINUOUS
 10
-1.75
 20
18.5109672067
 11
-1.75
 21
32.5052517544
  0
LINE
  5
2DC
100
AcDbEntity
  8
0
100
AcDbLine
 62
7
  6
CONTINUOUS
 10
-1.0
 20
-27.4918905195
 11
-1.0
 21
-26.5587650772
  0
LINE
  5
2DD
100
AcDbEntity
  8
0
100
AcDbLine
 62
7
  6
CONTINUOUS
 10
0.7383158449
 20
31.1112717839
 11
0.65
 21
32.6081094805
  0
LINE
  5
2DE
100
AcDbEntity
  8
0
100
AcDbLine
 62
7
  6
CONTINUOUS
 10
1.0
 20
-27.4918905195
 11
1.0
 21
-26.5587650772
  0
LINE
  5
2DF
100
AcDbEntity
  8
RACCORDO
100
AcDbLine
 62
7
  6
CONTINUOUS
 10
1.75
 20
32.5052517544
 11
1.75
 21
18.5109672067
  0
LINE
  5
2E0
100
AcDbEntity
  8
RACCORDO
100
AcDbLine
 62
7
  6
CONTINUOUS
 10
1.9
 20
34.0280860063
 11
1.9
 21
37.8628656496
  0
LINE
  5
2E1
100
AcDbEntity
  8
RACCORDO
100
AcDbLine
 62
253
  6
CONTINUOUS
 10
2.75
 20
32.3242667553
 11
2.75
 21
18.6919522058
  0
LINE
  5
2E2
100
AcDbEntity
  8
0
100
AcDbLine
 62
7
  6
CONTINUOUS
 10
2.75
 20
-19.4918905195
 11
2.75
 21
-13.4918905195
  0
LINE
  5
2E3
100
AcDbEntity
  8
RACCORDO
100
AcDbLine
 62
7
  6
CONTINUOUS
 10
2.75
 20
-8.4918905195
 11
2.75
 21
-4.4918905195
  0
LINE
  5
2E4
100
AcDbEntity
  8
0
100
AcDbLine
 62
7
  6
CONTINUOUS
 10
1.5369269937
 20
31.1583911333
 11
1.4486111488
 21
32.6552288299
  0
LINE
  5
2E5
100
AcDbEntity
  8
0
100
AcDbLine
 62
7
  6
CONTINUOUS
 10
4.25
 20
-13.4918905195
 11
4.25
 21
-8.4918905195
  0
LINE
  5
2E6
100
AcDbEntity
  8
ASSI
100
AcDbLine
 62
7
  6
CONTINUOUS
 10
5.0
 20
-19.4918905195
 11
5.0
 21
-16.9918905195
  0
LINE
  5
2E7
100
AcDbEntity
  8
0
100
AcDbLine
 62
7
  6
CONTINUOUS
 10
7.0
 20
-19.4918905195
 11
7.0
 21
-15.2918905195
  0
LINE
  5
2E8
100
AcDbEntity
  8
0
100
AcDbLine
 62
7
  6
CONTINUOUS
 10
8.5
 20
-19.4918905195
 11
8.5
 21
-15.670794881
  0
LINE
  5
2E9
100
AcDbEntity
  8
0
100
AcDbLine
 62
7
  6
CONTINUOUS
 10
1.8002041981
 20
17.7135229046
 11
1.5478869674
 21
18.4900754918
  0
LINE
  5
2EA
100
AcDbEntity
  8
0
100
AcDbLine
 62
7
  6
CONTINUOUS
 10
8.75
 20
-12.0876876876
 11
8.75
 21
-7.4960933513
  0
LINE
  5
2EB
100
AcDbEntity
  8
ASSI
100
AcDbLine
 62
7
  6
CONTINUOUS
 10
9.0
 20
-19.4918905195
 11
9.0
 21
-16.9918905195
  0
LINE
  5
2EC
100
AcDbEntity
  8
0
100
AcDbLine
 62
7
  6
CONTINUOUS
 10
9.75
 20
-12.0876876876
 11
9.75
 21
-7.4960933513
  0
LINE
  5
2ED
100
AcDbEntity
  8
0
100
AcDbLine
 62
7
  6
CONTINUOUS
 10
10.0
 20
-19.4918905195
 11
10.0
 21
-27.4918905195
  0
LINE
  5
2EE
100
AcDbEntity
  8
RACCORDO
100
AcDbLine
 62
253
  6
CONTINUOUS
 10
-2.7499999995
 20
32.3242667555
 11
-2.8988299328
 21
32.6919657204
  0
LINE
  5
2EF
100
AcDbEntity
  8
RACCORDO
100
AcDbLine
 62
253
  6
CONTINUOUS
 10
2.7499999995
 20
18.6919522056
 11
2.8988299328
 21
18.3242532407
  0
LWPOLYLINE
  5
2F0
100
AcDbEntity
  8
RACCORDO
100
AcDbPolyline
 62
253
  6
CONTINUOUS
 90
4
 70
0
 10
-2.8988299328
 20
32.6919657204
 10
-2.9309350746
 20
32.7720567131
 10
-2.9356032586
 20
32.7839320788
 10
-2.9370748298
 20
32.7879509237
  0
LWPOLYLINE
  5
2F1
100
AcDbEntity
  8
RACCORDO
100
AcDbPolyline
 62
253
  6
CONTINUOUS
 90
4
 70
0
 10
2.8988299328
 20
18.3242532407
 10
2.9309350746
 20
18.2441622479
 10
2.9356032586
 20
18.2322868822
 10
2.9370748298
 20
18.2282680374
  0
LINE
  5
2F2
100
AcDbEntity
  8
RACCORDO
100
AcDbLine
 62
253
  6
CONTINUOUS
 10
11.5
 20
-4.4918905195
 11
11.5
 21
25.5081094805
  0
LINE
  5
2F3
100
AcDbEntity
  8
0
100
AcDbLine
 62
7
  6
CONTINUOUS
 10
12.0
 20
-29.99184876
 11
12.0
 21
-27.4918905195
  0
LINE
  5
2F4
100
AcDbEntity
  8
RACCORDO
100
AcDbLine
 62
7
  6
CONTINUOUS
 10
12.5
 20
-4.4918905195
 11
12.5
 21
25.5081094805
  0
LINE
  5
2F5
100
AcDbEntity
  8
0
100
AcDbLine
 62
7
  6
CONTINUOUS
 10
13.5
 20
-37.9918905195
 11
13.5
 21
-31.49184876
  0
LINE
  5
2F6
100
AcDbEntity
  8
SMUSSO
100
AcDbLine
 62
7
  6
CONTINUOUS
 10
-11.9999999999
 20
-29.9918055298
 11
-13.4999999999
 21
-31.4918055298
  0
LINE
  5
2F7
100
AcDbEntity
  8
RACCORDO
100
AcDbLine
 62
253
  6
CONTINUOUS
 10
14.5
 20
-5.4918905195
 11
14.5
 21
-4.4918905195
  0
LINE
  5
2F8
100
AcDbEntity
  8
RACCORDO
100
AcDbLine
 62
253
  6
CONTINUOUS
 10
16.0
 20
-19.4918905195
 11
16.0
 21
-6.9918905195
  0
LINE
  5
2F9
100
AcDbEntity
  8
RACCORDO
100
AcDbLine
 62
7
  6
CONTINUOUS
 10
17.0
 20
-19.4918905195
 11
17.0
 21
-6.9918905195
  0
LINE
  5
2FA
100
AcDbEntity
  8
RACCORDO
100
AcDbLine
 62
253
  6
CONTINUOUS
 10
2.75
 20
18.6919522054
 11
2.6440528334
 21
18.6707599592
  0
LINE
  5
2FB
100
AcDbEntity
  8
RACCORDO
100
AcDbLine
 62
253
  6
CONTINUOUS
 10
2.6440528334
 20
18.6707599592
 11
2.4741636585
 21
18.6378865882
  0
LINE
  5
2FC
100
AcDbEntity
  8
RACCORDO
100
AcDbLine
 62
253
  6
CONTINUOUS
 10
2.4741636585
 20
18.6378865882
 11
2.2949808181
 21
18.6044654275
  0
LINE
  5
2FD
100
AcDbEntity
  8
RACCORDO
100
AcDbLine
 62
253
  6
CONTINUOUS
 10
2.2949808181
 20
18.6044654275
 11
2.1132177474
 21
18.5719389501
  0
LINE
  5
2FE
100
AcDbEntity
  8
RACCORDO
100
AcDbLine
 62
253
  6
CONTINUOUS
 10
1.7541770163
 20
18.5116710503
 11
1.75
 21
18.5109672067
  0
LINE
  5
2FF
100
AcDbEntity
  8
RACCORDO
100
AcDbLine
 62
253
  6
CONTINUOUS
 10
2.1132177474
 20
18.5719389501
 11
1.8960995295
 21
18.5348999067
  0
LINE
  5
300
100
AcDbEntity
  8
RACCORDO
100
AcDbLine
 62
253
  6
CONTINUOUS
 10
1.8960995295
 20
18.5348999067
 11
1.7541770163
 21
18.5116710503
  0
LINE
  5
301
100
AcDbEntity
  8
RACCORDO
100
AcDbLine
 62
253
  6
CONTINUOUS
 10
-1.7537492463
 20
18.5115914917
 11
-1.8823844477
 21
18.5326114719
  0
LINE
  5
302
100
AcDbEntity
  8
RACCORDO
100
AcDbLine
 62
253
  6
CONTINUOUS
 10
-1.75
 20
18.5109672067
 11
-1.7537492463
 21
18.5115914917
  0
LINE
  5
303
100
AcDbEntity
  8
RACCORDO
100
AcDbLine
 62
253
  6
CONTINUOUS
 10
-1.8823844477
 20
18.5326114719
 11
-2.0401372845
 21
18.5593008827
  0
LINE
  5
304
100
AcDbEntity
  8
RACCORDO
100
AcDbLine
 62
253
  6
CONTINUOUS
 10
-2.0401372845
 20
18.5593008827
 11
-2.1732447756
 21
18.5826158895
  0
LINE
  5
305
100
AcDbEntity
  8
RACCORDO
100
AcDbLine
 62
253
  6
CONTINUOUS
 10
-2.1732447756
 20
18.5826158895
 11
-2.3242924692
 21
18.6098729414
  0
LWPOLYLINE
  5
306
100
AcDbEntity
  8
RACCORDO
100
AcDbPolyline
 62
253
  6
CONTINUOUS
 90
5
 70
0
 10
-2.3242924692
 20
18.6098729414
 10
-2.4888147882
 20
18.6406900768
 10
-2.5746127272
 20
18.657074142
 10
-2.6618985243
 20
18.6741615182
 10
-2.75
 20
18.6919522054
  0
LINE
  5
307
100
AcDbEntity
  8
0
100
AcDbLine
 62
7
  6
CONTINUOUS
 10
-5.6566796699
 20
31.1647891505
 11
-5.5507882323
 21
31.0588977129
  0
LINE
  5
308
100
AcDbEntity
  8
0
100
AcDbLine
 62
7
  6
CONTINUOUS
 10
1.75
 20
29.216169434
 11
1.4973297586
 21
29.4601702499
  0
LINE
  5
309
100
AcDbEntity
  8
0
100
AcDbLine
 62
7
  6
CONTINUOUS
 10
-7.3765870732
 20
28.1929676056
 11
-7.515267207
 21
28.2434430464
  0
LINE
  5
30A
100
AcDbEntity
  8
RACCORDO
100
AcDbLine
 62
253
  6
CONTINUOUS
 10
11.5
 20
25.5081094805
 11
12.5
 21
25.5081094805
  0
LINE
  5
30B
100
AcDbEntity
  8
RACCORDO
100
AcDbLine
 62
253
  6
CONTINUOUS
 10
-11.5
 20
25.5081094805
 11
-12.5
 21
25.5081094805
  0
LINE
  5
30C
100
AcDbEntity
  8
RACCORDO
100
AcDbLine
 62
253
  6
CONTINUOUS
 10
-2.75
 20
32.3242667557
 11
-2.6440528334
 21
32.3454590019
  0
LINE
  5
30D
100
AcDbEntity
  8
RACCORDO
100
AcDbLine
 62
253
  6
CONTINUOUS
 10
-2.6440528334
 20
32.3454590019
 11
-2.4741636585
 21
32.3783323729
  0
LINE
  5
30E
100
AcDbEntity
  8
RACCORDO
100
AcDbLine
 62
253
  6
CONTINUOUS
 10
-2.4741636585
 20
32.3783323729
 11
-2.2949808181
 21
32.4117535336
  0
LINE
  5
30F
100
AcDbEntity
  8
RACCORDO
100
AcDbLine
 62
253
  6
CONTINUOUS
 10
-2.2949808181
 20
32.4117535336
 11
-2.1132177474
 21
32.444280011
  0
LINE
  5
310
100
AcDbEntity
  8
RACCORDO
100
AcDbLine
 62
253
  6
CONTINUOUS
 10
-1.7541770163
 20
32.5045479108
 11
-1.75
 21
32.5052517544
  0
LINE
  5
311
100
AcDbEntity
  8
RACCORDO
100
AcDbLine
 62
253
  6
CONTINUOUS
 10
-2.1132177474
 20
32.444280011
 11
-1.8960995295
 21
32.4813190544
  0
LINE
  5
312
100
AcDbEntity
  8
RACCORDO
100
AcDbLine
 62
253
  6
CONTINUOUS
 10
-1.8960995295
 20
32.4813190544
 11
-1.7541770163
 21
32.5045479108
  0
LINE
  5
313
100
AcDbEntity
  8
0
100
AcDbLine
 62
253
  6
CONTINUOUS
 10
0.7383158449
 20
31.1112717839
 11
1.5369269937
 21
31.1583911333
  0
LINE
  5
314
100
AcDbEntity
  8
0
100
AcDbLine
 62
7
  6
CONTINUOUS
 10
0.65
 20
32.6081094805
 11
1.4486111488
 21
32.6552288299
  0
LINE
  5
315
100
AcDbEntity
  8
RACCORDO
100
AcDbLine
 62
253
  6
CONTINUOUS
 10
1.7537492463
 20
32.5046274694
 11
1.8823844477
 21
32.4836074892
  0
LINE
  5
316
100
AcDbEntity
  8
RACCORDO
100
AcDbLine
 62
253
  6
CONTINUOUS
 10
1.75
 20
32.5052517544
 11
1.7537492463
 21
32.5046274694
  0
LINE
  5
317
100
AcDbEntity
  8
RACCORDO
100
AcDbLine
 62
253
  6
CONTINUOUS
 10
1.8823844477
 20
32.4836074892
 11
2.0401372845
 21
32.4569180784
  0
LINE
  5
318
100
AcDbEntity
  8
RACCORDO
100
AcDbLine
 62
253
  6
CONTINUOUS
 10
2.0401372845
 20
32.4569180784
 11
2.1732447756
 21
32.4336030716
  0
LINE
  5
319
100
AcDbEntity
  8
RACCORDO
100
AcDbLine
 62
253
  6
CONTINUOUS
 10
2.1732447756
 20
32.4336030716
 11
2.3242924692
 21
32.4063460197
  0
LWPOLYLINE
  5
31A
100
AcDbEntity
  8
RACCORDO
100
AcDbPolyline
 62
253
  6
CONTINUOUS
 90
5
 70
0
 10
2.3242924692
 20
32.4063460197
 10
2.4888147882
 20
32.3755288843
 10
2.5746127272
 20
32.3591448191
 10
2.6618985243
 20
32.3420574429
 10
2.75
 20
32.3242667557
  0
LINE
  5
31B
100
AcDbEntity
  8
DRAFT
100
AcDbLine
 62
7
  6
CONTINUOUS
 10
1.9
 20
34.0039206521
 11
-1.9
 21
34.0039206521
  0
LINE
  5
31C
100
AcDbEntity
  8
0
100
AcDbLine
 62
7
  6
CONTINUOUS
 10
-1.9
 20
34.5081094805
 11
1.9
 21
34.5081094805
  0
LINE
  5
31D
100
AcDbEntity
  8
0
100
AcDbLine
 62
7
  6
CONTINUOUS
 10
-31.3896322728
 20
-37.9918905195
 11
-81.3896322725
 21
-37.9918905195
  0
LINE
  5
31E
100
AcDbEntity
  8
SMUSSO
100
AcDbLine
 62
7
  6
CONTINUOUS
 10
-58.8204536992
 20
-31.4918905195
 11
-81.3896322728
 21
-31.4917869398
  0
LINE
  5
31F
100
AcDbEntity
  8
SMUSSO
100
AcDbLine
 62
7
  6
CONTINUOUS
 10
-79.8896322728
 20
-29.9917869394
 11
-61.2563826921
 21
-29.9918905195
  0
LINE
  5
320
100
AcDbEntity
  8
0
100
AcDbLine
 62
7
  6
CONTINUOUS
 10
-79.8894495124
 20
-27.4918905195
 11
-57.3896322728
 21
-27.4918905195
  0
LWPOLYLINE
  5
321
100
AcDbEntity
  8
SMUSSO
100
AcDbPolyline
 62
7
  6
CONTINUOUS
 90
7
 70
0
 10
-61.2563826921
 20
-29.9918905195
 10
-60.8567154685
 20
-30.2178844069
 10
-60.4545198681
 20
-30.4534807394
 10
-60.049795891
 20
-30.6986795169
 10
-59.6425435371
 20
-30.9534807394
 10
-59.2327628065
 20
-31.2178844069
 10
-58.8204536992
 20
-31.4918905195
  0
LINE
  5
322
100
AcDbEntity
  8
0
100
AcDbLine
 62
7
  6
CONTINUOUS
 10
-81.3896322728
 20
-37.9918905195
 11
-81.3896322728
 21
-31.4917869394
  0
LINE
  5
323
100
AcDbEntity
  8
0
100
AcDbLine
 62
7
  6
CONTINUOUS
 10
-79.8896322728
 20
-29.9917869394
 11
-79.8896322728
 21
-27.4918905195
  0
LINE
  5
324
100
AcDbEntity
  8
RACCORDO
100
AcDbLine
 62
7
  6
CONTINUOUS
 10
-32.8896322728
 20
-19.2918905195
 11
-31.58858508
 21
-19.28507819
  0
LINE
  5
325
100
AcDbEntity
  8
RACCORDO
100
AcDbLine
 62
253
  6
CONTINUOUS
 10
-32.8896322728
 20
-18.9918946318
 11
-31.58858508
 21
-18.9850823024
  0
LINE
  5
326
100
AcDbEntity
  8
0
100
AcDbLine
 62
7
  6
CONTINUOUS
 10
-31.3896322728
 20
-19.4918905195
 11
-32.8896322728
 21
-19.4918905195
  0
LINE
  5
327
100
AcDbEntity
  8
RACCORDO
100
AcDbLine
 62
7
  6
CONTINUOUS
 10
-32.8896322728
 20
-19.4918905195
 11
-51.8896322728
 21
-19.4918905195
  0
LINE
  5
328
100
AcDbEntity
  8
RACCORDO
100
AcDbLine
 62
253
  6
CONTINUOUS
 10
-31.58858508
 20
-18.9850823024
 11
-31.3896322728
 21
-18.9850823024
  0
LINE
  5
329
100
AcDbEntity
  8
0
100
AcDbLine
 62
7
  6
CONTINUOUS
 10
-31.3896322728
 20
-10.1496978248
 11
-31.2996322728
 21
-10.1496978248
  0
LINE
  5
32A
100
AcDbEntity
  8
0
100
AcDbLine
 62
7
  6
CONTINUOUS
 10
-31.3896322728
 20
-10.1110435195
 11
-31.2996322728
 21
-10.1110435195
  0
LINE
  5
32B
100
AcDbEntity
  8
0
100
AcDbLine
 62
7
  6
CONTINUOUS
 10
-31.3896322728
 20
-8.5948815195
 11
-31.2996322728
 21
-8.5948815195
  0
LINE
  5
32C
100
AcDbEntity
  8
0
100
AcDbLine
 62
7
  6
CONTINUOUS
 10
-31.2996322728
 20
-8.5553783023
 11
-31.3896322728
 21
-8.5553783023
  0
LINE
  5
32D
100
AcDbEntity
  8
0
100
AcDbLine
 62
7
  6
CONTINUOUS
 10
-31.3896322728
 20
-8.501872877
 11
-31.2996322728
 21
-8.501872877
  0
LINE
  5
32E
100
AcDbEntity
  8
0
100
AcDbLine
 62
7
  6
CONTINUOUS
 10
-31.3896322728
 20
-8.4115945195
 11
-31.2996322728
 21
-8.4115945195
  0
LINE
  5
32F
100
AcDbEntity
  8
RACCORDO
100
AcDbLine
 62
253
  6
CONTINUOUS
 10
-31.58858508
 20
-6.9986685795
 11
-31.3896322728
 21
-6.9986685795
  0
LINE
  5
330
100
AcDbEntity
  8
RACCORDO
100
AcDbLine
 62
253
  6
CONTINUOUS
 10
-32.8896322728
 20
-6.9918905195
 11
-51.8896322728
 21
-6.9918905195
  0
LINE
  5
331
100
AcDbEntity
  8
0
100
AcDbLine
 62
7
  6
CONTINUOUS
 10
-31.3896322728
 20
-6.8956145195
 11
-31.2996322728
 21
-6.8956145195
  0
LINE
  5
332
100
AcDbEntity
  8
RACCORDO
100
AcDbLine
 62
253
  6
CONTINUOUS
 10
-32.8896322728
 20
-6.9918562501
 11
-31.58858508
 21
-6.9991469104
  0
LINE
  5
333
100
AcDbEntity
  8
SMUSSO
100
AcDbLine
 62
7
  6
CONTINUOUS
 10
-61.2563826921
 20
-29.9918905195
 11
-61.2563826921
 21
-27.4918905195
  0
LINE
  5
334
100
AcDbEntity
  8
RACCORDO
100
AcDbLine
 62
7
  6
CONTINUOUS
 10
-32.8896322728
 20
-4.4918905195
 11
-50.8896322728
 21
-4.4918905195
  0
LINE
  5
335
100
AcDbEntity
  8
RACCORDO
100
AcDbLine
 62
7
  6
CONTINUOUS
 10
-31.9896322728
 20
-3.2918905195
 11
-31.5896322728
 21
-3.2918905195
  0
LINE
  5
336
100
AcDbEntity
  8
RACCORDO
100
AcDbLine
 62
253
  6
CONTINUOUS
 10
-32.18858508
 20
-3.0918905195
 11
-31.3896322728
 21
-3.0918905195
  0
LINE
  5
337
100
AcDbEntity
  8
RACCORDO
100
AcDbLine
 62
7
  6
CONTINUOUS
 10
-32.8896322728
 20
-4.4918905195
 11
-31.58858508
 21
-4.4987028489
  0
LINE
  5
338
100
AcDbEntity
  8
SMUSSO
100
AcDbLine
 62
7
  6
CONTINUOUS
 10
-58.8204536992
 20
-37.9918905195
 11
-58.8204536992
 21
-31.4918905195
  0
LINE
  5
339
100
AcDbEntity
  8
0
100
AcDbLine
 62
7
  6
CONTINUOUS
 10
-31.3896322728
 20
3.0081094805
 11
-31.2996322728
 21
3.0081094805
  0
LINE
  5
33A
100
AcDbEntity
  8
0
100
AcDbLine
 62
7
  6
CONTINUOUS
 10
-31.3896322728
 20
3.167683952
 11
-31.2996322728
 21
3.167683952
  0
LINE
  5
33B
100
AcDbEntity
  8
RACCORDO
100
AcDbLine
 62
7
  6
CONTINUOUS
 10
-51.8896322728
 20
-19.4918905195
 11
-51.8896322728
 21
-5.4918905195
  0
LINE
  5
33C
100
AcDbEntity
  8
RACCORDO
100
AcDbLine
 62
253
  6
CONTINUOUS
 10
-50.8896322728
 20
-19.4918905195
 11
-50.8896322728
 21
-4.4918905195
  0
LINE
  5
33D
100
AcDbEntity
  8
SMUSSO
100
AcDbLine
 62
7
  6
CONTINUOUS
 10
-79.8896322728
 20
-29.9917869394
 11
-81.3896322728
 21
-31.4917869394
  0
LINE
  5
33E
100
AcDbEntity
  8
0
100
AcDbLine
 62
7
  6
CONTINUOUS
 10
-31.3896322728
 20
3.9655562643
 11
-31.2996322728
 21
3.9655562643
  0
LINE
  5
33F
100
AcDbEntity
  8
0
100
AcDbLine
 62
7
  6
CONTINUOUS
 10
-31.3896322728
 20
4.0932158236
 11
-31.2996322728
 21
4.0932158236
  0
LINE
  5
340
100
AcDbEntity
  8
0
100
AcDbLine
 62
7
  6
CONTINUOUS
 10
-31.3896322728
 20
4.1570456926
 11
-31.2996322728
 21
4.1570456926
  0
LINE
  5
341
100
AcDbEntity
  8
0
100
AcDbLine
 62
7
  6
CONTINUOUS
 10
-31.3896322728
 20
4.2847052519
 11
-31.2996322728
 21
4.2847052519
  0
LINE
  5
342
100
AcDbEntity
  8
0
100
AcDbLine
 62
7
  6
CONTINUOUS
 10
-31.3896322728
 20
4.4123648111
 11
-31.2996322728
 21
4.4123648111
  0
LINE
  5
343
100
AcDbEntity
  8
0
100
AcDbLine
 62
7
  6
CONTINUOUS
 10
-31.3896322728
 20
4.4761945907
 11
-31.2996322728
 21
4.4761945907
  0
LINE
  5
344
100
AcDbEntity
  8
0
100
AcDbLine
 62
7
  6
CONTINUOUS
 10
-31.3896322728
 20
4.5081094805
 11
-31.2996322728
 21
4.5081094805
  0
LINE
  5
345
100
AcDbEntity
  8
RACCORDO
100
AcDbLine
 62
7
  6
CONTINUOUS
 10
-41.8896322728
 20
-4.4918905195
 11
-41.8896322728
 21
36.8500669835
  0
LINE
  5
346
100
AcDbEntity
  8
RACCORDO
100
AcDbLine
 62
253
  6
CONTINUOUS
 10
-40.8896322728
 20
-4.4918905195
 11
-40.8896322728
 21
37.8628656497
  0
LWPOLYLINE
  5
347
100
AcDbEntity
  8
RACCORDO
100
AcDbPolyline
 62
7
  6
CONTINUOUS
 90
22
 70
0
 10
-41.8896322728
 20
36.8500669835
 10
-41.8869868005
 20
36.9255017767
 10
-41.8787397921
 20
37.000197296
 10
-41.8648912476
 20
37.0741535415
 10
-41.8452586337
 20
37.1480217243
 10
-41.8200244836
 20
37.2211506333
 10
-41.7897363975
 20
37.2915866345
 10
-41.7542176241
 20
37.3590968339
 10
-41.7136449147
 20
37.4239141255
 10
-41.6690961224
 20
37.484783557
 10
-41.6208824199
 20
37.5413264739
 10
-41.5686926345
 20
37.5939215308
 10
-41.5126711019
 20
37.6424497389
 10
-41.4524263033
 20
37.6872263336
 10
-41.3883497575
 20
37.7279360796
 10
-41.3217603567
 20
37.7635142828
 10
-41.2524480841
 20
37.7937625659
 10
-41.1806229565
 20
37.8188793062
 10
-41.1082339173
 20
37.838394941
 10
-41.0359306144
 20
37.8521529494
 10
-40.9630633998
 20
37.8603098523
 10
-40.8896322736
 20
37.8628656496
  0
LINE
  5
348
100
AcDbEntity
  8
0
100
AcDbLine
 62
7
  6
CONTINUOUS
 10
-51.7879719671
 20
-19.4918905195
 11
-57.3896322728
 21
-27.4918905195
  0
LINE
  5
349
100
AcDbEntity
  8
0
100
AcDbLine
 62
7
  6
CONTINUOUS
 10
-31.3896322728
 20
14.6581094805
 11
-31.2396322728
 21
14.6581094805
  0
LINE
  5
34A
100
AcDbEntity
  8
0
100
AcDbLine
 62
7
  6
CONTINUOUS
 10
-31.3896322728
 20
14.8017265048
 11
-31.2396322728
 21
14.8017265048
  0
LINE
  5
34B
100
AcDbEntity
  8
0
100
AcDbLine
 62
7
  6
CONTINUOUS
 10
-31.3896322728
 20
15.5198115859
 11
-31.2396322728
 21
15.5198115859
  0
LWPOLYLINE
  5
34C
100
AcDbEntity
  8
RACCORDO
100
AcDbPolyline
 62
7
  6
CONTINUOUS
 90
10
 70
0
 10
-32.18858508
 20
-3.0918905195
 10
-32.158486338
 20
-3.1204894047
 10
-32.1295777907
 20
-3.1496904726
 10
-32.1018615042
 20
-3.178719121
 10
-32.0742645572
 20
-3.2063215312
 10
-32.0478611321
 20
-3.2318887036
 10
-32.0258750744
 20
-3.2550442809
 10
-32.0093813183
 20
-3.2742153327
 10
-31.9973024332
 20
-3.2871569778
 10
-31.9896322728
 20
-3.2918905195
  0
LINE
  5
34D
100
AcDbEntity
  8
0
100
AcDbLine
 62
7
  6
CONTINUOUS
 10
-31.3896322728
 20
15.6347051893
 11
-31.2396322728
 21
15.6347051893
  0
LINE
  5
34E
100
AcDbEntity
  8
0
100
AcDbLine
 62
7
  6
CONTINUOUS
 10
-31.3896322728
 20
15.6921520714
 11
-31.2396322728
 21
15.6921520714
  0
LINE
  5
34F
100
AcDbEntity
  8
0
100
AcDbLine
 62
7
  6
CONTINUOUS
 10
-31.3896322728
 20
15.8070456747
 11
-31.2396322728
 21
15.8070456747
  0
LINE
  5
350
100
AcDbEntity
  8
0
100
AcDbLine
 62
7
  6
CONTINUOUS
 10
-31.3896322728
 20
15.921939278
 11
-31.2396322728
 21
15.921939278
  0
LINE
  5
351
100
AcDbEntity
  8
0
100
AcDbLine
 62
7
  6
CONTINUOUS
 10
-31.3896322728
 20
15.9793860797
 11
-31.2396322728
 21
15.9793860797
  0
LINE
  5
352
100
AcDbEntity
  8
0
100
AcDbLine
 62
7
  6
CONTINUOUS
 10
-31.3896322728
 20
16.0081094805
 11
-31.2396322728
 21
16.0081094805
  0
LINE
  5
353
100
AcDbEntity
  8
0
100
AcDbLine
 62
7
  6
CONTINUOUS
 10
-31.3896322728
 20
16.4081094805
 11
-31.2396322728
 21
16.4081094805
  0
LINE
  5
354
100
AcDbEntity
  8
0
100
AcDbLine
 62
7
  6
CONTINUOUS
 10
-31.3896322728
 20
16.6081094805
 11
-31.2396322728
 21
16.6081094805
  0
LINE
  5
355
100
AcDbEntity
  8
0
100
AcDbLine
 62
7
  6
CONTINUOUS
 10
-31.3896322728
 20
17.0081094805
 11
-31.2396322728
 21
17.0081094805
  0
LINE
  5
356
100
AcDbEntity
  8
0
100
AcDbLine
 62
7
  6
CONTINUOUS
 10
-31.3896322728
 20
17.1517265048
 11
-31.2396322728
 21
17.1517265048
  0
LINE
  5
357
100
AcDbEntity
  8
0
100
AcDbLine
 62
7
  6
CONTINUOUS
 10
-31.3896322728
 20
17.8698115859
 11
-31.2396322728
 21
17.8698115859
  0
LINE
  5
358
100
AcDbEntity
  8
0
100
AcDbLine
 62
7
  6
CONTINUOUS
 10
-31.3896322728
 20
17.9847051893
 11
-31.2396322728
 21
17.9847051893
  0
LINE
  5
359
100
AcDbEntity
  8
0
100
AcDbLine
 62
7
  6
CONTINUOUS
 10
-31.3896322728
 20
18.0421520714
 11
-31.2396322728
 21
18.0421520714
  0
LINE
  5
35A
100
AcDbEntity
  8
0
100
AcDbLine
 62
7
  6
CONTINUOUS
 10
-31.3896322728
 20
18.1570456747
 11
-31.2396322728
 21
18.1570456747
  0
LINE
  5
35B
100
AcDbEntity
  8
0
100
AcDbLine
 62
7
  6
CONTINUOUS
 10
-31.3896322728
 20
18.271939278
 11
-31.2396322728
 21
18.271939278
  0
LINE
  5
35C
100
AcDbEntity
  8
0
100
AcDbLine
 62
7
  6
CONTINUOUS
 10
-31.3896322728
 20
18.3293860797
 11
-31.2396322728
 21
18.3293860797
  0
LINE
  5
35D
100
AcDbEntity
  8
0
100
AcDbLine
 62
7
  6
CONTINUOUS
 10
-31.3896322728
 20
18.3581094805
 11
-31.2396322728
 21
18.3581094805
  0
LINE
  5
35E
100
AcDbEntity
  8
ASSI
100
AcDbLine
 62
7
  6
CONTINUOUS
 10
-31.3896322728
 20
20.8881080204
 11
-31.2896322728
 21
20.8881080204
  0
LINE
  5
35F
100
AcDbEntity
  8
RACCORDO
100
AcDbLine
 62
253
  6
CONTINUOUS
 10
-31.5882757129
 20
-19.0941015371
 11
-31.58858508
 21
-18.9850823024
  0
LINE
  5
360
100
AcDbEntity
  8
0
100
AcDbLine
 62
7
  6
CONTINUOUS
 10
-34.0896322728
 20
38.0080186282
 11
-34.0896322728
 21
37.8628656497
  0
LINE
  5
361
100
AcDbEntity
  8
0
100
AcDbLine
 62
7
  6
CONTINUOUS
 10
-32.8896322728
 20
34.5081094805
 11
-32.8896322728
 21
-4.4918905195
  0
LINE
  5
362
100
AcDbEntity
  8
RACCORDO
100
AcDbLine
 62
7
  6
CONTINUOUS
 10
-32.8896322728
 20
-4.4918905195
 11
-32.8896322728
 21
-19.4918905195
  0
LINE
  5
363
100
AcDbEntity
  8
DRAFT
100
AcDbLine
 62
7
  6
CONTINUOUS
 10
-32.8896322728
 20
-4.4918905195
 11
-32.8896322728
 21
34.0081094805
  0
LINE
  5
364
100
AcDbEntity
  8
RACCORDO
100
AcDbLine
 62
253
  6
CONTINUOUS
 10
-32.18858508
 20
-4.4955612275
 11
-32.18858508
 21
-3.0918905195
  0
LINE
  5
365
100
AcDbEntity
  8
RACCORDO
100
AcDbLine
 62
7
  6
CONTINUOUS
 10
-31.9896322728
 20
-4.4966029515
 11
-31.9896322728
 21
-3.2918905195
  0
LINE
  5
366
100
AcDbEntity
  8
RACCORDO
100
AcDbLine
 62
253
  6
CONTINUOUS
 10
-31.5883996898
 20
-4.5560242608
 11
-31.58858508
 21
-4.4987028489
  0
LINE
  5
367
100
AcDbEntity
  8
0
100
AcDbLine
 62
7
  6
CONTINUOUS
 10
-31.3896322728
 20
38.0079988603
 11
-31.3896322728
 21
34.5081094805
  0
LINE
  5
368
100
AcDbEntity
  8
RACCORDO
100
AcDbLine
 62
7
  6
CONTINUOUS
 10
-31.3896322728
 20
33.8012998927
 11
-31.3896322728
 21
-3.0918905195
  0
LINE
  5
369
100
AcDbEntity
  8
0
100
AcDbLine
 62
7
  6
CONTINUOUS
 10
-31.3896322728
 20
-19.4918905195
 11
-31.3896322728
 21
-37.9918905195
  0
LINE
  5
36A
100
AcDbEntity
  8
RACCORDO
100
AcDbLine
 62
7
  6
CONTINUOUS
 10
-31.3896322728
 20
-19.0850809316
 11
-31.3896322728
 21
-4.6987001073
  0
LINE
  5
36B
100
AcDbEntity
  8
0
100
AcDbLine
 62
7
  6
CONTINUOUS
 10
-31.2996322728
 20
26.1939305886
 11
-31.2996322728
 21
24.9939305886
  0
LINE
  5
36C
100
AcDbEntity
  8
0
100
AcDbLine
 62
7
  6
CONTINUOUS
 10
-31.2996322728
 20
4.5081094805
 11
-31.2996322728
 21
3.0081094805
  0
LINE
  5
36D
100
AcDbEntity
  8
0
100
AcDbLine
 62
7
  6
CONTINUOUS
 10
-31.2996322728
 20
-6.8956145195
 11
-31.2996322728
 21
-8.4115945195
  0
LINE
  5
36E
100
AcDbEntity
  8
0
100
AcDbLine
 62
7
  6
CONTINUOUS
 10
-31.2996322728
 20
-8.4238211035
 11
-31.2996322728
 21
-10.1110435195
  0
LINE
  5
36F
100
AcDbEntity
  8
0
100
AcDbLine
 62
7
  6
CONTINUOUS
 10
-31.2996322728
 20
-10.1486199234
 11
-31.2996322728
 21
-10.1513691317
  0
LINE
  5
370
100
AcDbEntity
  8
ASSI
100
AcDbLine
 62
7
  6
CONTINUOUS
 10
-31.2896322728
 20
20.8852414436
 11
-31.2896322728
 21
18.3381095394
  0
LINE
  5
371
100
AcDbEntity
  8
ASSI
100
AcDbLine
 62
7
  6
CONTINUOUS
 10
-31.2896322728
 20
17.0081094805
 11
-31.2896322728
 21
16.6081094805
  0
LINE
  5
372
100
AcDbEntity
  8
ASSI
100
AcDbLine
 62
7
  6
CONTINUOUS
 10
-31.2896322728
 20
16.4081094805
 11
-31.2896322728
 21
16.0081094805
  0
LINE
  5
373
100
AcDbEntity
  8
0
100
AcDbLine
 62
7
  6
CONTINUOUS
 10
-31.2396322728
 20
18.3581094805
 11
-31.2396322728
 21
17.0081094805
  0
LINE
  5
374
100
AcDbEntity
  8
0
100
AcDbLine
 62
7
  6
CONTINUOUS
 10
-31.2396322728
 20
16.6081094805
 11
-31.2396322728
 21
16.4081094805
  0
LINE
  5
375
100
AcDbEntity
  8
0
100
AcDbLine
 62
7
  6
CONTINUOUS
 10
-31.2396322728
 20
16.0081094805
 11
-31.2396322728
 21
14.6581094805
  0
LWPOLYLINE
  5
376
100
AcDbEntity
  8
RACCORDO
100
AcDbPolyline
 62
253
  6
CONTINUOUS
 90
3
 70
0
 10
-31.58858508
 20
-18.9850823024
 10
-31.5883288449
 20
-6.2833393332
 10
-31.5883996898
 20
-4.5560242608
  0
LINE
  5
377
100
AcDbEntity
  8
RACCORDO
100
AcDbLine
 62
253
  6
CONTINUOUS
 10
-31.5881940172
 20
-19.2416555756
 11
-31.5882757129
 21
-19.0941015371
  0
LINE
  5
378
100
AcDbEntity
  8
RACCORDO
100
AcDbLine
 62
253
  6
CONTINUOUS
 10
-31.5888300766
 20
-3.2204480414
 11
-31.58858508
 21
34.0012971511
  0
LWPOLYLINE
  5
379
100
AcDbEntity
  8
RACCORDO
100
AcDbPolyline
 62
253
  6
CONTINUOUS
 90
5
 70
0
 10
-31.5896322728
 20
-3.2918905195
 10
-31.5894504297
 20
-3.2888520701
 10
-31.5892741118
 20
-3.2798290436
 10
-31.5891086764
 20
-3.2650956002
 10
-31.5888300766
 20
-3.2204480414
  0
LWPOLYLINE
  5
37A
100
AcDbEntity
  8
RACCORDO
100
AcDbPolyline
 62
253
  6
CONTINUOUS
 90
6
 70
0
 10
-31.58858508
 20
-19.28507819
 10
-31.588502078
 20
-19.2840197854
 10
-31.5884232965
 20
-19.2807157521
 10
-31.5883508586
 20
-19.2749815606
 10
-31.5882878673
 20
-19.2666637705
 10
-31.5881940172
 20
-19.2416555756
  0
LINE
  5
37B
100
AcDbEntity
  8
0
100
AcDbLine
 62
7
  6
CONTINUOUS
 10
-31.3896322728
 20
24.9939305886
 11
-31.2996322728
 21
24.9939305886
  0
LINE
  5
37C
100
AcDbEntity
  8
RACCORDO
100
AcDbLine
 62
253
  6
CONTINUOUS
 10
-31.3896322728
 20
25.5081094805
 11
-41.8896322728
 21
25.5081094805
  0
LINE
  5
37D
100
AcDbEntity
  8
0
100
AcDbLine
 62
7
  6
CONTINUOUS
 10
-31.3896322728
 20
26.1939305886
 11
-31.2996322728
 21
26.1939305886
  0
LINE
  5
37E
100
AcDbEntity
  8
0
100
AcDbLine
 62
7
  6
CONTINUOUS
 10
-32.8896322728
 20
34.5081094805
 11
-31.3896322728
 21
34.5081094805
  0
LINE
  5
37F
100
AcDbEntity
  8
RACCORDO
100
AcDbLine
 62
7
  6
CONTINUOUS
 10
-31.58858508
 20
34.0012971511
 11
-32.8896322728
 21
34.0081094805
  0
LINE
  5
380
100
AcDbEntity
  8
RACCORDO
100
AcDbLine
 62
7
  6
CONTINUOUS
 10
-40.8896322736
 20
37.8628656496
 11
-34.0896322728
 21
37.8628656497
  0
LINE
  5
381
100
AcDbEntity
  8
ASSI
100
AcDbLine
 62
7
  6
CONTINUOUS
 10
-34.0896322728
 20
38.0081094805
 11
-31.3896322728
 21
38.0081094805
  0
LINE
  5
382
100
AcDbEntity
  8
RACCORDO
100
AcDbLine
 62
7
  6
CONTINUOUS
 10
-32.8896322728
 20
72.0115357342
 11
-31.58858508
 21
72.0183480636
  0
LINE
  5
383
100
AcDbEntity
  8
RACCORDO
100
AcDbLine
 62
253
  6
CONTINUOUS
 10
-32.8896322728
 20
72.3115316219
 11
-31.58858508
 21
72.3183439513
  0
LINE
  5
384
100
AcDbEntity
  8
RACCORDO
100
AcDbLine
 62
7
  6
CONTINUOUS
 10
-50.8896322728
 20
72.0115357342
 11
-32.8896322728
 21
72.0115357342
  0
LINE
  5
385
100
AcDbEntity
  8
RACCORDO
100
AcDbLine
 62
253
  6
CONTINUOUS
 10
-31.58858508
 20
72.3183439513
 11
-31.3896322728
 21
72.3183439513
  0
LINE
  5
386
100
AcDbEntity
  8
0
100
AcDbLine
 62
7
  6
CONTINUOUS
 10
-32.8896322728
 20
78.7615357342
 11
-34.3896322728
 21
78.7615357342
  0
LINE
  5
387
100
AcDbEntity
  8
0
100
AcDbLine
 62
7
  6
CONTINUOUS
 10
-31.3896322728
 20
78.8748689785
 11
-31.2996322728
 21
78.8748689785
  0
LINE
  5
388
100
AcDbEntity
  8
0
100
AcDbLine
 62
7
  6
CONTINUOUS
 10
-31.3896322728
 20
78.9915357342
 11
-31.2996322728
 21
78.9915357342
  0
LINE
  5
389
100
AcDbEntity
  8
0
100
AcDbLine
 62
7
  6
CONTINUOUS
 10
-41.3896322728
 20
79.0115357342
 11
-58.8204536992
 21
79.0115357342
  0
LINE
  5
38A
100
AcDbEntity
  8
0
100
AcDbLine
 62
7
  6
CONTINUOUS
 10
-31.3896322728
 20
79.1782024899
 11
-31.2996322728
 21
79.1782024899
  0
LINE
  5
38B
100
AcDbEntity
  8
RACCORDO
100
AcDbLine
 62
7
  6
CONTINUOUS
 10
-33.8896322728
 20
81.0062996986
 11
-35.091203062
 21
81.0000082311
  0
LINE
  5
38C
100
AcDbEntity
  8
0
100
AcDbLine
 62
7
  6
CONTINUOUS
 10
-31.3896322728
 20
79.5515357342
 11
-31.2996322728
 21
79.5515357342
  0
LINE
  5
38D
100
AcDbEntity
  8
0
100
AcDbLine
 62
7
  6
CONTINUOUS
 10
-31.3896322728
 20
79.7382024899
 11
-31.2996322728
 21
79.7382024899
  0
LINE
  5
38E
100
AcDbEntity
  8
ASSI
100
AcDbLine
 62
7
  6
CONTINUOUS
 10
-41.3896322728
 20
80.0115357342
 11
-34.3896322728
 21
80.0115357342
  0
LINE
  5
38F
100
AcDbEntity
  8
0
100
AcDbLine
 62
7
  6
CONTINUOUS
 10
-31.3896322728
 20
80.1115357342
 11
-31.2996322728
 21
80.1115357342
  0
LINE
  5
390
100
AcDbEntity
  8
0
100
AcDbLine
 62
7
  6
CONTINUOUS
 10
-31.3896322728
 20
80.2982024899
 11
-31.2996322728
 21
80.2982024899
  0
LINE
  5
391
100
AcDbEntity
  8
RACCORDO
100
AcDbLine
 62
7
  6
CONTINUOUS
 10
-39.8896322728
 20
80.5115357342
 11
-35.3896322728
 21
80.5115357342
  0
LINE
  5
392
100
AcDbEntity
  8
ASSI
100
AcDbLine
 62
7
  6
CONTINUOUS
 10
-58.9453603628
 20
81.0115357342
 11
-41.3896322728
 21
81.0115357342
  0
LINE
  5
393
100
AcDbEntity
  8
0
100
AcDbLine
 62
7
  6
CONTINUOUS
 10
-41.6396322728
 20
81.0115357342
 11
-59.2836750338
 21
81.0115357342
  0
LINE
  5
394
100
AcDbEntity
  8
0
100
AcDbLine
 62
7
  6
CONTINUOUS
 10
-31.3896322728
 20
81.1382023563
 11
-31.2996322728
 21
81.1382023563
  0
LINE
  5
395
100
AcDbEntity
  8
RACCORDO
100
AcDbLine
 62
253
  6
CONTINUOUS
 10
-34.8896322728
 20
81.5068205605
 11
-34.4896322728
 21
81.5089149748
  0
LINE
  5
396
100
AcDbEntity
  8
RACCORDO
100
AcDbLine
 62
7
  6
CONTINUOUS
 10
-34.8896322728
 20
81.7062996986
 11
-34.4896322728
 21
81.7083941128
  0
LINE
  5
397
100
AcDbEntity
  8
0
100
AcDbLine
 62
7
  6
CONTINUOUS
 10
-31.3896322728
 20
81.324869112
 11
-31.2996322728
 21
81.324869112
  0
LINE
  5
398
100
AcDbEntity
  8
0
100
AcDbLine
 62
7
  6
CONTINUOUS
 10
-31.3896322728
 20
81.4882023563
 11
-31.2996322728
 21
81.4882023563
  0
LINE
  5
399
100
AcDbEntity
  8
0
100
AcDbLine
 62
7
  6
CONTINUOUS
 10
-31.3896322728
 20
81.674869112
 11
-31.2996322728
 21
81.674869112
  0
LINE
  5
39A
100
AcDbEntity
  8
ASSI
100
AcDbLine
 62
7
  6
CONTINUOUS
 10
-34.8896322728
 20
81.7615357342
 11
-34.7396322728
 21
81.7615357342
  0
LINE
  5
39B
100
AcDbEntity
  8
0
100
AcDbLine
 62
7
  6
CONTINUOUS
 10
-31.3896322728
 20
82.0715357342
 11
-31.2996322728
 21
82.0715357342
  0
LINE
  5
39C
100
AcDbEntity
  8
ASSI
100
AcDbLine
 62
253
  6
CONTINUOUS
 10
-34.8896322728
 20
82.1695357342
 11
-34.7396322728
 21
82.1695357342
  0
LINE
  5
39D
100
AcDbEntity
  8
ASSI
100
AcDbLine
 62
7
  6
CONTINUOUS
 10
-33.8896322728
 20
82.2015357342
 11
-33.9474092431
 21
82.2015357342
  0
LINE
  5
39E
100
AcDbEntity
  8
0
100
AcDbLine
 62
7
  6
CONTINUOUS
 10
-31.3896322728
 20
82.2115357342
 11
-31.2996322728
 21
82.2115357342
  0
LINE
  5
39F
100
AcDbEntity
  8
ASSI
100
AcDbLine
 62
253
  6
CONTINUOUS
 10
-39.8896322728
 20
82.3115357342
 11
-34.8896322728
 21
82.3115357342
  0
LINE
  5
3A0
100
AcDbEntity
  8
0
100
AcDbLine
 62
7
  6
CONTINUOUS
 10
-31.3896322728
 20
82.3982024231
 11
-31.2996322728
 21
82.3982024231
  0
LINE
  5
3A1
100
AcDbEntity
  8
0
100
AcDbLine
 62
7
  6
CONTINUOUS
 10
-31.3896322728
 20
82.4215357342
 11
-31.2996322728
 21
82.4215357342
  0
LINE
  5
3A2
100
AcDbEntity
  8
0
100
AcDbLine
 62
7
  6
CONTINUOUS
 10
-31.3896322728
 20
82.4915357342
 11
-31.2996322728
 21
82.4915357342
  0
LINE
  5
3A3
100
AcDbEntity
  8
0
100
AcDbLine
 62
7
  6
CONTINUOUS
 10
-31.3896322728
 20
82.5848690453
 11
-31.2996322728
 21
82.5848690453
  0
LINE
  5
3A4
100
AcDbEntity
  8
0
100
AcDbLine
 62
7
  6
CONTINUOUS
 10
-31.3896322728
 20
82.7015357342
 11
-31.2996322728
 21
82.7015357342
  0
LINE
  5
3A5
100
AcDbEntity
  8
0
100
AcDbLine
 62
7
  6
CONTINUOUS
 10
-31.3896322728
 20
83.2615357342
 11
-31.2996322728
 21
83.2615357342
  0
LINE
  5
3A6
100
AcDbEntity
  8
ASSI
100
AcDbLine
 62
7
  6
CONTINUOUS
 10
-39.8896322728
 20
83.3115357342
 11
-34.8896322728
 21
83.3115357342
  0
LINE
  5
3A7
100
AcDbEntity
  8
ASSI
100
AcDbLine
 62
7
  6
CONTINUOUS
 10
-33.8896322728
 20
83.7015357342
 11
-33.9474092431
 21
83.7015357342
  0
LINE
  5
3A8
100
AcDbEntity
  8
ASSI
100
AcDbLine
 62
7
  6
CONTINUOUS
 10
-41.3896322728
 20
84.0115357342
 11
-34.3896322728
 21
84.0115357342
  0
LINE
  5
3A9
100
AcDbEntity
  8
0
100
AcDbLine
 62
7
  6
CONTINUOUS
 10
-41.3896322728
 20
84.5115357342
 11
-36.3896322728
 21
84.5115357342
  0
LINE
  5
3AA
100
AcDbEntity
  8
ASSI
100
AcDbLine
 62
7
  6
CONTINUOUS
 10
-31.3896322728
 20
84.5115357342
 11
-36.3896322728
 21
84.5115357342
  0
LINE
  5
3AB
100
AcDbEntity
  8
0
100
AcDbLine
 62
7
  6
CONTINUOUS
 10
-36.6396322728
 20
84.5615357342
 11
-41.6396322728
 21
84.5615357342
  0
LINE
  5
3AC
100
AcDbEntity
  8
ASSI
100
AcDbLine
 62
7
  6
CONTINUOUS
 10
-46.1396322728
 20
85.5115357342
 11
-48.6396322728
 21
85.5115357342
  0
LINE
  5
3AD
100
AcDbEntity
  8
ASSI
100
AcDbLine
 62
7
  6
CONTINUOUS
 10
-31.3896322728
 20
85.5139797342
 11
-31.2896322728
 21
85.5139797342
  0
LINE
  5
3AE
100
AcDbEntity
  8
0
100
AcDbLine
 62
7
  6
CONTINUOUS
 10
-48.6396322728
 20
85.8115357342
 11
-46.1396322728
 21
85.8115357342
  0
LINE
  5
3AF
100
AcDbEntity
  8
0
100
AcDbLine
 62
7
  6
CONTINUOUS
 10
-46.1396322728
 20
87.0115357342
 11
-48.6396322728
 21
87.0115357342
  0
LWPOLYLINE
  5
3B0
100
AcDbEntity
  8
ASSI
100
AcDbPolyline
 62
7
  6
CONTINUOUS
 90
16
 70
0
 10
-33.9474092431
 20
82.2015357342
 10
-34.0400691227
 20
82.2184459833
 10
-34.1184190428
 20
82.2680820769
 10
-34.1824590035
 20
82.3477504362
 10
-34.2313552957
 20
82.4533884784
 10
-34.2659416285
 20
82.5800766449
 10
-34.2887191285
 20
82.7224708926
 10
-34.3005199932
 20
82.8742652983
 10
-34.3005120252
 20
83.0290016198
 10
-34.2886997592
 20
83.1807735962
 10
-34.2659193637
 20
83.3231199789
 10
-34.2313346703
 20
83.4497515003
 10
-34.1824417086
 20
83.555349869
 10
-34.1184058217
 20
83.6349988718
 10
-34.0400616666
 20
83.6846269246
 10
-33.9474092431
 20
83.7015357342
  0
LINE
  5
3B1
100
AcDbEntity
  8
ASSI
100
AcDbLine
 62
7
  6
CONTINUOUS
 10
-31.3896322728
 20
88.1639783917
 11
-31.2896322728
 21
88.1639783917
  0
LINE
  5
3B2
100
AcDbEntity
  8
0
100
AcDbLine
 62
7
  6
CONTINUOUS
 10
-31.3896322728
 20
88.4415356531
 11
-31.2996322728
 21
88.4415356531
  0
LINE
  5
3B3
100
AcDbEntity
  8
0
100
AcDbLine
 62
7
  6
CONTINUOUS
 10
-36.3896322728
 20
88.5115357342
 11
-35.3896322728
 21
88.5115357342
  0
LINE
  5
3B4
100
AcDbEntity
  8
0
100
AcDbLine
 62
7
  6
CONTINUOUS
 10
-31.3896322728
 20
88.5265358152
 11
-31.2996322728
 21
88.5265358152
  0
LINE
  5
3B5
100
AcDbEntity
  8
0
100
AcDbLine
 62
7
  6
CONTINUOUS
 10
-31.3896322728
 20
88.6540358152
 11
-31.2996322728
 21
88.6540358152
  0
LINE
  5
3B6
100
AcDbEntity
  8
0
100
AcDbLine
 62
7
  6
CONTINUOUS
 10
-33.1396322728
 20
88.7615357342
 11
-36.6396322728
 21
88.7615357342
  0
LINE
  5
3B7
100
AcDbEntity
  8
0
100
AcDbLine
 62
7
  6
CONTINUOUS
 10
-31.3896322728
 20
88.8240356531
 11
-31.2996322728
 21
88.8240356531
  0
LINE
  5
3B8
100
AcDbEntity
  8
0
100
AcDbLine
 62
7
  6
CONTINUOUS
 10
-31.3896322728
 20
88.9515356531
 11
-31.2996322728
 21
88.9515356531
  0
LINE
  5
3B9
100
AcDbEntity
  8
0
100
AcDbLine
 62
7
  6
CONTINUOUS
 10
-31.3896322728
 20
89.2490357342
 11
-31.2996322728
 21
89.2490357342
  0
LINE
  5
3BA
100
AcDbEntity
  8
0
100
AcDbLine
 62
7
  6
CONTINUOUS
 10
-31.3896322728
 20
89.4190356936
 11
-31.2996322728
 21
89.4190356936
  0
LINE
  5
3BB
100
AcDbEntity
  8
0
100
AcDbLine
 62
7
  6
CONTINUOUS
 10
-31.3896322728
 20
89.7165357747
 11
-31.2996322728
 21
89.7165357747
  0
LINE
  5
3BC
100
AcDbEntity
  8
0
100
AcDbLine
 62
7
  6
CONTINUOUS
 10
-31.3896322728
 20
89.8440357747
 11
-31.2996322728
 21
89.8440357747
  0
LINE
  5
3BD
100
AcDbEntity
  8
ASSI
100
AcDbLine
 62
7
  6
CONTINUOUS
 10
-31.3896322728
 20
89.8990897342
 11
-31.2896322728
 21
89.8990897342
  0
LINE
  5
3BE
100
AcDbEntity
  8
0
100
AcDbLine
 62
7
  6
CONTINUOUS
 10
-48.6396322728
 20
91.0115357342
 11
-46.1396322728
 21
91.0115357342
  0
LINE
  5
3BF
100
AcDbEntity
  8
0
100
AcDbLine
 62
7
  6
CONTINUOUS
 10
-39.5884865645
 20
92.2115357342
 11
-34.6907779811
 21
92.2115357342
  0
LINE
  5
3C0
100
AcDbEntity
  8
0
100
AcDbLine
 62
7
  6
CONTINUOUS
 10
-46.1396322728
 20
92.2115357342
 11
-48.6396322728
 21
92.2115357342
  0
LINE
  5
3C1
100
AcDbEntity
  8
ASSI
100
AcDbLine
 62
7
  6
CONTINUOUS
 10
-48.6396322728
 20
92.5115357342
 11
-46.1396322728
 21
92.5115357342
  0
LINE
  5
3C2
100
AcDbEntity
  8
ASSI
100
AcDbLine
 62
7
  6
CONTINUOUS
 10
-31.3896322728
 20
92.5490882741
 11
-31.2896322728
 21
92.5490882741
  0
LINE
  5
3C3
100
AcDbEntity
  8
0
100
AcDbLine
 62
7
  6
CONTINUOUS
 10
-31.3896322728
 20
92.6461159158
 11
-31.2996322728
 21
92.6461159158
  0
LINE
  5
3C4
100
AcDbEntity
  8
0
100
AcDbLine
 62
7
  6
CONTINUOUS
 10
-39.5884865645
 20
93.2115357342
 11
-34.6907779811
 21
93.2115357342
  0
LINE
  5
3C5
100
AcDbEntity
  8
RACCORDO
100
AcDbLine
 62
7
  6
CONTINUOUS
 10
-51.8896322728
 20
105.0115357342
 11
-51.8896322728
 21
99.0115357342
  0
LINE
  5
3C6
100
AcDbEntity
  8
RACCORDO
100
AcDbLine
 62
7
  6
CONTINUOUS
 10
-51.8896322728
 20
79.0115357342
 11
-51.8896322728
 21
73.0115357342
  0
LINE
  5
3C7
100
AcDbEntity
  8
0
100
AcDbLine
 62
7
  6
CONTINUOUS
 10
-31.3896322728
 20
93.3912264536
 11
-31.2996322728
 21
93.3912262745
  0
LINE
  5
3C8
100
AcDbEntity
  8
0
100
AcDbLine
 62
7
  6
CONTINUOUS
 10
-31.3896322728
 20
93.4689458053
 11
-31.2996322728
 21
93.4689458053
  0
LINE
  5
3C9
100
AcDbEntity
  8
0
100
AcDbLine
 62
7
  6
CONTINUOUS
 10
-31.3896322728
 20
93.850989544
 11
-31.2996322728
 21
93.850989544
  0
LINE
  5
3CA
100
AcDbEntity
  8
0
100
AcDbLine
 62
7
  6
CONTINUOUS
 10
-31.3896322728
 20
93.8775625579
 11
-31.2996322728
 21
93.8775625579
  0
LINE
  5
3CB
100
AcDbEntity
  8
0
100
AcDbLine
 62
7
  6
CONTINUOUS
 10
-31.3896322728
 20
94.9934802745
 11
-31.2996322728
 21
94.9934802745
  0
LINE
  5
3CC
100
AcDbEntity
  8
0
100
AcDbLine
 62
7
  6
CONTINUOUS
 10
-31.2996322728
 20
95.1240358415
 11
-31.2396322728
 21
95.1240358415
  0
LINE
  5
3CD
100
AcDbEntity
  8
0
100
AcDbLine
 62
7
  6
CONTINUOUS
 10
-31.2996322728
 20
95.1521607342
 11
-31.2396322728
 21
95.1521607342
  0
LINE
  5
3CE
100
AcDbEntity
  8
0
100
AcDbLine
 62
7
  6
CONTINUOUS
 10
-31.2996322728
 20
95.1802856269
 11
-31.2396322728
 21
95.1802856269
  0
LINE
  5
3CF
100
AcDbEntity
  8
0
100
AcDbLine
 62
7
  6
CONTINUOUS
 10
-31.2996322728
 20
95.2365357342
 11
-31.2396322728
 21
95.2365357342
  0
LINE
  5
3D0
100
AcDbEntity
  8
0
100
AcDbLine
 62
7
  6
CONTINUOUS
 10
-31.2996322728
 20
95.3209107342
 11
-31.2396322728
 21
95.3209107342
  0
LINE
  5
3D1
100
AcDbEntity
  8
0
100
AcDbLine
 62
7
  6
CONTINUOUS
 10
-31.2996322728
 20
95.4615358415
 11
-31.2396322728
 21
95.4615358415
  0
LINE
  5
3D2
100
AcDbEntity
  8
0
100
AcDbLine
 62
7
  6
CONTINUOUS
 10
-31.2996322728
 20
95.6302858415
 11
-31.2396322728
 21
95.6302858415
  0
LINE
  5
3D3
100
AcDbEntity
  8
0
100
AcDbLine
 62
7
  6
CONTINUOUS
 10
-31.2996322728
 20
95.7990358415
 11
-31.2396322728
 21
95.7990358415
  0
LINE
  5
3D4
100
AcDbEntity
  8
0
100
AcDbLine
 62
7
  6
CONTINUOUS
 10
-31.2996322728
 20
95.9396607878
 11
-31.2396322728
 21
95.9396607878
  0
LINE
  5
3D5
100
AcDbEntity
  8
0
100
AcDbLine
 62
7
  6
CONTINUOUS
 10
-31.2996322728
 20
96.0240357878
 11
-31.2396322728
 21
96.0240357878
  0
LINE
  5
3D6
100
AcDbEntity
  8
0
100
AcDbLine
 62
7
  6
CONTINUOUS
 10
-31.3896322728
 20
96.0360462745
 11
-31.2996322728
 21
96.0360462745
  0
LINE
  5
3D7
100
AcDbEntity
  8
0
100
AcDbLine
 62
7
  6
CONTINUOUS
 10
-31.2996322728
 20
96.0802857342
 11
-31.2396322728
 21
96.0802857342
  0
LINE
  5
3D8
100
AcDbEntity
  8
0
100
AcDbLine
 62
7
  6
CONTINUOUS
 10
-31.2996322728
 20
96.1084107878
 11
-31.2396322728
 21
96.1084107878
  0
LINE
  5
3D9
100
AcDbEntity
  8
0
100
AcDbLine
 62
7
  6
CONTINUOUS
 10
-31.2996322728
 20
96.1365356805
 11
-31.2396322728
 21
96.1365356805
  0
LINE
  5
3DA
100
AcDbEntity
  8
0
100
AcDbLine
 62
7
  6
CONTINUOUS
 10
-31.2996322728
 20
96.3615357878
 11
-31.2396322728
 21
96.3615357878
  0
LINE
  5
3DB
100
AcDbEntity
  8
0
100
AcDbLine
 62
7
  6
CONTINUOUS
 10
-31.2996322728
 20
96.4177857342
 11
-31.2396322728
 21
96.4177857342
  0
LINE
  5
3DC
100
AcDbEntity
  8
0
100
AcDbLine
 62
7
  6
CONTINUOUS
 10
-31.2996322728
 20
96.5021607342
 11
-31.2396322728
 21
96.5021607342
  0
LINE
  5
3DD
100
AcDbEntity
  8
0
100
AcDbLine
 62
7
  6
CONTINUOUS
 10
-33.1396322728
 20
96.5115357342
 11
-44.1396322728
 21
96.5115357342
  0
LINE
  5
3DE
100
AcDbEntity
  8
0
100
AcDbLine
 62
7
  6
CONTINUOUS
 10
-41.3896322728
 20
96.5615357342
 11
-41.2396322728
 21
96.5615357342
  0
LINE
  5
3DF
100
AcDbEntity
  8
RACCORDO
100
AcDbLine
 62
7
  6
CONTINUOUS
 10
-41.2396322728
 20
96.5615357342
 11
-34.1396322728
 21
96.5615357342
  0
LINE
  5
3E0
100
AcDbEntity
  8
0
100
AcDbLine
 62
7
  6
CONTINUOUS
 10
-31.2996322728
 20
96.6427856805
 11
-31.2396322728
 21
96.6427856805
  0
LINE
  5
3E1
100
AcDbEntity
  8
0
100
AcDbLine
 62
7
  6
CONTINUOUS
 10
-31.2996322728
 20
96.7834107878
 11
-31.2396322728
 21
96.7834107878
  0
LINE
  5
3E2
100
AcDbEntity
  8
0
100
AcDbLine
 62
7
  6
CONTINUOUS
 10
-31.2996322728
 20
96.9521607878
 11
-31.2396322728
 21
96.9521607878
  0
LINE
  5
3E3
100
AcDbEntity
  8
0
100
AcDbLine
 62
7
  6
CONTINUOUS
 10
-59.2836750338
 20
97.0115357342
 11
-44.1396322728
 21
97.0115357342
  0
LINE
  5
3E4
100
AcDbEntity
  8
0
100
AcDbLine
 62
7
  6
CONTINUOUS
 10
-31.2996322728
 20
97.0927857342
 11
-31.2396322728
 21
97.0927857342
  0
LINE
  5
3E5
100
AcDbEntity
  8
0
100
AcDbLine
 62
7
  6
CONTINUOUS
 10
-31.2996322728
 20
97.2334106805
 11
-31.2396322728
 21
97.2334106805
  0
LINE
  5
3E6
100
AcDbEntity
  8
0
100
AcDbLine
 62
7
  6
CONTINUOUS
 10
-31.3896322728
 20
97.2582592745
 11
-31.2996322728
 21
97.2582592745
  0
LINE
  5
3E7
100
AcDbEntity
  8
0
100
AcDbLine
 62
7
  6
CONTINUOUS
 10
-31.2996322728
 20
97.317785761
 11
-31.2396322728
 21
97.317785761
  0
LINE
  5
3E8
100
AcDbEntity
  8
0
100
AcDbLine
 62
7
  6
CONTINUOUS
 10
-31.2996322728
 20
97.3740357074
 11
-31.2396322728
 21
97.3740357074
  0
LINE
  5
3E9
100
AcDbEntity
  8
0
100
AcDbLine
 62
7
  6
CONTINUOUS
 10
-31.3896322728
 20
97.4052857848
 11
-31.2996322728
 21
97.4052857848
  0
LINE
  5
3EA
100
AcDbEntity
  8
ASSI
100
AcDbLine
 62
7
  6
CONTINUOUS
 10
-32.8896322728
 20
97.5115357342
 11
-59.4190950998
 21
97.5115357342
  0
LINE
  5
3EB
100
AcDbEntity
  8
0
100
AcDbLine
 62
7
  6
CONTINUOUS
 10
-31.2996322728
 20
97.5990357342
 11
-31.2396322728
 21
97.5990357342
  0
LINE
  5
3EC
100
AcDbEntity
  8
0
100
AcDbLine
 62
7
  6
CONTINUOUS
 10
-31.3896322728
 20
98.0427857088
 11
-31.2996322728
 21
98.0427857088
  0
LINE
  5
3ED
100
AcDbEntity
  8
0
100
AcDbLine
 62
7
  6
CONTINUOUS
 10
-31.3896322728
 20
98.2552857342
 11
-31.2996322728
 21
98.2552857342
  0
LINE
  5
3EE
100
AcDbEntity
  8
0
100
AcDbLine
 62
7
  6
CONTINUOUS
 10
-31.2996322728
 20
98.6115357342
 11
-31.2396322728
 21
98.6115357342
  0
LINE
  5
3EF
100
AcDbEntity
  8
0
100
AcDbLine
 62
7
  6
CONTINUOUS
 10
-31.2996322728
 20
98.7115357342
 11
-31.2396322728
 21
98.7115357342
  0
LINE
  5
3F0
100
AcDbEntity
  8
0
100
AcDbLine
 62
7
  6
CONTINUOUS
 10
-58.8204536992
 20
99.0115357342
 11
-31.3896322728
 21
99.0115357342
  0
LINE
  5
3F1
100
AcDbEntity
  8
0
100
AcDbLine
 62
7
  6
CONTINUOUS
 10
-31.3896322728
 20
99.2115357342
 11
-31.2996322728
 21
99.2115357342
  0
LINE
  5
3F2
100
AcDbEntity
  8
0
100
AcDbLine
 62
7
  6
CONTINUOUS
 10
-32.8896322728
 20
99.2615357342
 11
-34.3896322728
 21
99.2615357342
  0
LINE
  5
3F3
100
AcDbEntity
  8
0
100
AcDbLine
 62
7
  6
CONTINUOUS
 10
-44.1396322728
 20
96.5115357342
 11
-44.1396322728
 21
97.0115357342
  0
LINE
  5
3F4
100
AcDbEntity
  8
0
100
AcDbLine
 62
7
  6
CONTINUOUS
 10
-41.6396322728
 20
81.0115357342
 11
-41.6396322728
 21
84.5615357342
  0
LINE
  5
3F5
100
AcDbEntity
  8
ASSI
100
AcDbLine
 62
7
  6
CONTINUOUS
 10
-41.3896322728
 20
79.0115357342
 11
-41.3896322728
 21
81.0115357342
  0
LINE
  5
3F6
100
AcDbEntity
  8
0
100
AcDbLine
 62
7
  6
CONTINUOUS
 10
-41.3896322728
 20
81.0115357342
 11
-41.3896322728
 21
84.5615357342
  0
LINE
  5
3F7
100
AcDbEntity
  8
0
100
AcDbLine
 62
7
  6
CONTINUOUS
 10
-41.3896322728
 20
96.5115357342
 11
-41.3896322728
 21
97.5115357342
  0
LINE
  5
3F8
100
AcDbEntity
  8
0
100
AcDbLine
 62
253
  6
CONTINUOUS
 10
-41.2396322728
 20
96.5115357342
 11
-41.2396322728
 21
96.5615357342
  0
LINE
  5
3F9
100
AcDbEntity
  8
ASSI
100
AcDbLine
 62
7
  6
CONTINUOUS
 10
-39.8896322728
 20
80.0115357342
 11
-39.8896322728
 21
84.0115357342
  0
LINE
  5
3FA
100
AcDbEntity
  8
RACCORDO
100
AcDbLine
 62
7
  6
CONTINUOUS
 10
-39.7896322728
 20
84.0115357342
 11
-39.7896322728
 21
83.3115357342
  0
LINE
  5
3FB
100
AcDbEntity
  8
RACCORDO
100
AcDbLine
 62
253
  6
CONTINUOUS
 10
-31.58858508
 20
105.7047275171
 11
-31.3896322728
 21
105.7047275171
  0
LINE
  5
3FC
100
AcDbEntity
  8
RACCORDO
100
AcDbLine
 62
7
  6
CONTINUOUS
 10
-50.8896322728
 20
106.0115357342
 11
-32.8896322728
 21
106.0115357342
  0
LINE
  5
3FD
100
AcDbEntity
  8
RACCORDO
100
AcDbLine
 62
253
  6
CONTINUOUS
 10
-32.8896322728
 20
105.7115398465
 11
-31.58858508
 21
105.7047275171
  0
LINE
  5
3FE
100
AcDbEntity
  8
RACCORDO
100
AcDbLine
 62
7
  6
CONTINUOUS
 10
-32.8896322728
 20
106.0115357342
 11
-31.58858508
 21
106.0047234048
  0
LINE
  5
3FF
100
AcDbEntity
  8
0
100
AcDbLine
 62
7
  6
CONTINUOUS
 10
-36.6396322728
 20
84.5615357342
 11
-36.6396322728
 21
88.7615357342
  0
LINE
  5
400
100
AcDbEntity
  8
0
100
AcDbLine
 62
7
  6
CONTINUOUS
 10
-36.3896322728
 20
84.5115357342
 11
-36.3896322728
 21
88.7615357342
  0
LINE
  5
401
100
AcDbEntity
  8
RACCORDO
100
AcDbLine
 62
7
  6
CONTINUOUS
 10
-35.3896322728
 20
80.7000123435
 11
-35.3896322728
 21
80.0115357342
  0
LINE
  5
402
100
AcDbEntity
  8
RACCORDO
100
AcDbLine
 62
7
  6
CONTINUOUS
 10
-35.0898128697
 20
81.0000155066
 11
-35.0898128697
 21
80.0115357342
  0
LINE
  5
403
100
AcDbEntity
  8
ASSI
100
AcDbLine
 62
7
  6
CONTINUOUS
 10
-34.8896322728
 20
83.3115357342
 11
-34.8896322728
 21
82.3115357342
  0
LINE
  5
404
100
AcDbEntity
  8
RACCORDO
100
AcDbLine
 62
7
  6
CONTINUOUS
 10
-34.8896322728
 20
82.3115357342
 11
-34.8896322728
 21
81.001063663
  0
LINE
  5
405
100
AcDbEntity
  8
ASSI
100
AcDbLine
 62
7
  6
CONTINUOUS
 10
-34.7396322728
 20
81.7070851039
 11
-34.7396322728
 21
84.0115357342
  0
LINE
  5
406
100
AcDbEntity
  8
ASSI
100
AcDbLine
 62
7
  6
CONTINUOUS
 10
-34.4896322728
 20
81.0031580772
 11
-34.4896322728
 21
84.0115357342
  0
LINE
  5
407
100
AcDbEntity
  8
ASSI
100
AcDbLine
 62
7
  6
CONTINUOUS
 10
-34.3896322728
 20
99.2615357342
 11
-34.3896322728
 21
99.0115357342
  0
LINE
  5
408
100
AcDbEntity
  8
ASSI
100
AcDbLine
 62
7
  6
CONTINUOUS
 10
-34.3896322728
 20
84.5115357342
 11
-34.3896322728
 21
84.0115357342
  0
LINE
  5
409
100
AcDbEntity
  8
ASSI
100
AcDbLine
 62
7
  6
CONTINUOUS
 10
-34.3896322728
 20
80.0115357342
 11
-34.3896322728
 21
78.7615357342
  0
LINE
  5
40A
100
AcDbEntity
  8
ASSI
100
AcDbLine
 62
7
  6
CONTINUOUS
 10
-33.9474092431
 20
84.5115357342
 11
-33.9474092431
 21
83.7015357342
  0
LINE
  5
40B
100
AcDbEntity
  8
ASSI
100
AcDbLine
 62
7
  6
CONTINUOUS
 10
-33.9474092431
 20
82.2015357342
 11
-33.9474092431
 21
81.0059971763
  0
LINE
  5
40C
100
AcDbEntity
  8
DRAFT
100
AcDbLine
 62
7
  6
CONTINUOUS
 10
-33.8896322728
 20
78.7615357342
 11
-33.8896322728
 21
84.5115357342
  0
LINE
  5
40D
100
AcDbEntity
  8
DRAFT
100
AcDbLine
 62
7
  6
CONTINUOUS
 10
-33.8896322728
 20
99.0115357342
 11
-33.8896322728
 21
99.2615357342
  0
LINE
  5
40E
100
AcDbEntity
  8
0
100
AcDbLine
 62
7
  6
CONTINUOUS
 10
-33.1396322728
 20
96.5115357342
 11
-33.1396322728
 21
88.7615357342
  0
LINE
  5
40F
100
AcDbEntity
  8
0
100
AcDbLine
 62
7
  6
CONTINUOUS
 10
-32.8896322728
 20
72.0115357342
 11
-32.8896322728
 21
78.7615357342
  0
LINE
  5
410
100
AcDbEntity
  8
DRAFT
100
AcDbLine
 62
7
  6
CONTINUOUS
 10
-32.8896322728
 20
78.7615357342
 11
-32.8896322728
 21
84.5115357342
  0
LINE
  5
411
100
AcDbEntity
  8
ASSI
100
AcDbLine
 62
7
  6
CONTINUOUS
 10
-32.8896322728
 20
89.0115357342
 11
-32.8896322728
 21
97.5115357342
  0
LINE
  5
412
100
AcDbEntity
  8
DRAFT
100
AcDbLine
 62
7
  6
CONTINUOUS
 10
-32.8896322728
 20
99.0115357342
 11
-32.8896322728
 21
99.2615357342
  0
LINE
  5
413
100
AcDbEntity
  8
0
100
AcDbLine
 62
7
  6
CONTINUOUS
 10
-32.8896322728
 20
99.2615357342
 11
-32.8896322728
 21
106.0115357342
  0
LWPOLYLINE
  5
414
100
AcDbEntity
  8
RACCORDO
100
AcDbPolyline
 62
253
  6
CONTINUOUS
 90
3
 70
0
 10
-31.5883568792
 20
105.9952988029
 10
-31.5884600315
 20
106.0022939804
 10
-31.58858508
 20
106.0047234048
  0
LINE
  5
415
100
AcDbEntity
  8
RACCORDO
100
AcDbLine
 62
253
  6
CONTINUOUS
 10
-31.5882154682
 20
105.9695440517
 11
-31.5883568792
 21
105.9952988029
  0
LINE
  5
416
100
AcDbEntity
  8
RACCORDO
100
AcDbLine
 62
253
  6
CONTINUOUS
 10
-31.58858508
 20
72.3183439513
 11
-31.58858508
 21
84.5115357342
  0
LINE
  5
417
100
AcDbEntity
  8
0
100
AcDbLine
 62
7
  6
CONTINUOUS
 10
-31.3896322728
 20
99.0115357342
 11
-31.3896322728
 21
84.5115357342
  0
LINE
  5
418
100
AcDbEntity
  8
RACCORDO
100
AcDbLine
 62
7
  6
CONTINUOUS
 10
-31.3896322728
 20
72.2183453221
 11
-31.3896322728
 21
84.5115357342
  0
LINE
  5
419
100
AcDbEntity
  8
RACCORDO
100
AcDbLine
 62
7
  6
CONTINUOUS
 10
-31.3896322728
 20
99.0115357342
 11
-31.3896322728
 21
105.8047261463
  0
LINE
  5
41A
100
AcDbEntity
  8
0
100
AcDbLine
 62
7
  6
CONTINUOUS
 10
-31.2996322728
 20
99.2115357342
 11
-31.2996322728
 21
98.2552857342
  0
LINE
  5
41B
100
AcDbEntity
  8
0
100
AcDbLine
 62
7
  6
CONTINUOUS
 10
-31.2996322728
 20
98.0427857088
 11
-31.2996322728
 21
93.4689458053
  0
LINE
  5
41C
100
AcDbEntity
  8
0
100
AcDbLine
 62
7
  6
CONTINUOUS
 10
-31.2996322728
 20
93.3912266253
 11
-31.2996322728
 21
92.6455462292
  0
LINE
  5
41D
100
AcDbEntity
  8
0
100
AcDbLine
 62
7
  6
CONTINUOUS
 10
-31.2996322728
 20
89.8440357747
 11
-31.2996322728
 21
88.8240356531
  0
LINE
  5
41E
100
AcDbEntity
  8
0
100
AcDbLine
 62
7
  6
CONTINUOUS
 10
-31.2996322728
 20
88.6540358152
 11
-31.2996322728
 21
88.1639783917
  0
LINE
  5
41F
100
AcDbEntity
  8
0
100
AcDbLine
 62
7
  6
CONTINUOUS
 10
-31.2996322728
 20
83.2615357342
 11
-31.2996322728
 21
82.3982024231
  0
LINE
  5
420
100
AcDbEntity
  8
0
100
AcDbLine
 62
7
  6
CONTINUOUS
 10
-31.2996322728
 20
82.2115357342
 11
-31.2996322728
 21
81.324869112
  0
LINE
  5
421
100
AcDbEntity
  8
0
100
AcDbLine
 62
7
  6
CONTINUOUS
 10
-31.2996322728
 20
81.1382023563
 11
-31.2996322728
 21
80.2982024899
  0
LINE
  5
422
100
AcDbEntity
  8
0
100
AcDbLine
 62
7
  6
CONTINUOUS
 10
-31.2996322728
 20
80.1115357342
 11
-31.2996322728
 21
79.1782024899
  0
LINE
  5
423
100
AcDbEntity
  8
0
100
AcDbLine
 62
7
  6
CONTINUOUS
 10
-31.2996322728
 20
78.9915357342
 11
-31.2996322728
 21
78.8748689785
  0
LINE
  5
424
100
AcDbEntity
  8
ASSI
100
AcDbLine
 62
7
  6
CONTINUOUS
 10
-31.2896322728
 20
92.5490882741
 11
-31.2896322728
 21
89.8990897342
  0
LINE
  5
425
100
AcDbEntity
  8
ASSI
100
AcDbLine
 62
7
  6
CONTINUOUS
 10
-31.2896322728
 20
88.1639783917
 11
-31.2896322728
 21
85.5139797342
  0
LINE
  5
426
100
AcDbEntity
  8
0
100
AcDbLine
 62
7
  6
CONTINUOUS
 10
-31.2396322728
 20
98.7115357342
 11
-31.2396322728
 21
95.1240358415
  0
LINE
  5
427
100
AcDbEntity
  8
RACCORDO
100
AcDbLine
 62
253
  6
CONTINUOUS
 10
-31.5881654555
 20
72.0787537885
 11
-31.58858508
 21
72.3183439513
  0
LINE
  5
428
100
AcDbEntity
  8
RACCORDO
100
AcDbLine
 62
253
  6
CONTINUOUS
 10
-31.5882878673
 20
105.8082089615
 11
-31.5882154682
 21
105.9695440517
  0
LINE
  5
429
100
AcDbEntity
  8
RACCORDO
100
AcDbLine
 62
253
  6
CONTINUOUS
 10
-31.58858508
 20
99.0115357342
 11
-31.5882878673
 21
105.8082089615
  0
LWPOLYLINE
  5
42A
100
AcDbEntity
  8
RACCORDO
100
AcDbPolyline
 62
253
  6
CONTINUOUS
 90
6
 70
0
 10
-31.58858508
 20
72.0183480636
 10
-31.588502078
 20
72.0194064683
 10
-31.5884232965
 20
72.0227105016
 10
-31.5883508586
 20
72.0284446931
 10
-31.5882878673
 20
72.0367624832
 10
-31.5881654555
 20
72.0787537885
  0
LINE
  5
42B
100
AcDbEntity
  8
RACCORDO
100
AcDbLine
 62
7
  6
CONTINUOUS
 10
-32.8896322728
 20
-93.8604990917
 11
-31.58858508
 21
-93.8536867623
  0
LINE
  5
42C
100
AcDbEntity
  8
RACCORDO
100
AcDbLine
 62
7
  6
CONTINUOUS
 10
-32.8896322728
 20
-93.8604990917
 11
-50.8896322728
 21
-93.8604990917
  0
LINE
  5
42D
100
AcDbEntity
  8
RACCORDO
100
AcDbLine
 62
253
  6
CONTINUOUS
 10
-32.8896322728
 20
-91.3605333611
 11
-31.58858508
 21
-91.3537210316
  0
LINE
  5
42E
100
AcDbEntity
  8
RACCORDO
100
AcDbLine
 62
253
  6
CONTINUOUS
 10
-32.8896322728
 20
-91.3604990917
 11
-51.8896322728
 21
-91.3604990917
  0
LINE
  5
42F
100
AcDbEntity
  8
RACCORDO
100
AcDbLine
 62
253
  6
CONTINUOUS
 10
-31.58858508
 20
-91.3537210316
 11
-31.3896322728
 21
-91.3537210316
  0
LINE
  5
430
100
AcDbEntity
  8
RACCORDO
100
AcDbLine
 62
7
  6
CONTINUOUS
 10
-31.58858508
 20
-89.3536867623
 11
-32.8896322728
 21
-89.3604990917
  0
LINE
  5
431
100
AcDbEntity
  8
RACCORDO
100
AcDbLine
 62
7
  6
CONTINUOUS
 10
-40.8896322728
 20
-89.3604990917
 11
-32.8896322728
 21
-89.3604990917
  0
LWPOLYLINE
  5
432
100
AcDbEntity
  8
RACCORDO
100
AcDbPolyline
 62
7
  6
CONTINUOUS
 90
10
 70
0
 10
-31.58858508
 20
-86.0226768549
 10
-31.5520260526
 20
-86.0205938561
 10
-31.5172171654
 20
-86.0163104274
 10
-31.4852235333
 20
-86.0098265687
 10
-31.4569618499
 20
-86.0007634609
 10
-31.4331225364
 20
-85.9894999231
 10
-31.4141928825
 20
-85.9771724131
 10
-31.4005312043
 20
-85.96415975
 10
-31.3923393663
 20
-85.9500831146
 10
-31.3896322728
 20
-85.934942507
  0
LINE
  5
433
100
AcDbEntity
  8
0
100
AcDbLine
 62
7
  6
CONTINUOUS
 10
-31.3896322728
 20
-87.0604990917
 11
-31.2996322728
 21
-87.0604990917
  0
LINE
  5
434
100
AcDbEntity
  8
0
100
AcDbLine
 62
7
  6
CONTINUOUS
 10
-31.3896322728
 20
-87.0339365909
 11
-31.2996322728
 21
-87.0339365909
  0
LINE
  5
435
100
AcDbEntity
  8
0
100
AcDbLine
 62
7
  6
CONTINUOUS
 10
-31.3896322728
 20
-87.0073740901
 11
-31.2996322728
 21
-87.0073740901
  0
LINE
  5
436
100
AcDbEntity
  8
0
100
AcDbLine
 62
7
  6
CONTINUOUS
 10
-31.3896322728
 20
-86.9011240917
 11
-31.2996322728
 21
-86.9011240917
  0
LINE
  5
437
100
AcDbEntity
  8
0
100
AcDbLine
 62
7
  6
CONTINUOUS
 10
-51.8896322728
 20
-86.8604990917
 11
-61.2563826921
 21
-86.8604990917
  0
LINE
  5
438
100
AcDbEntity
  8
0
100
AcDbLine
 62
7
  6
CONTINUOUS
 10
-31.3896322728
 20
-86.794874098
 11
-31.2996322728
 21
-86.794874098
  0
LINE
  5
439
100
AcDbEntity
  8
RACCORDO
100
AcDbLine
 62
7
  6
CONTINUOUS
 10
-31.58858508
 20
-86.0226768549
 11
-32.8896322728
 21
-86.0256504816
  0
LINE
  5
43A
100
AcDbEntity
  8
0
100
AcDbLine
 62
7
  6
CONTINUOUS
 10
-31.3896322728
 20
-86.6089366043
 11
-31.2996322728
 21
-86.6089366043
  0
LINE
  5
43B
100
AcDbEntity
  8
0
100
AcDbLine
 62
7
  6
CONTINUOUS
 10
-31.3896322728
 20
-86.5604990917
 11
-31.2396322728
 21
-86.5604990917
  0
LINE
  5
43C
100
AcDbEntity
  8
0
100
AcDbLine
 62
7
  6
CONTINUOUS
 10
-32.8896322728
 20
-85.5351748781
 11
-31.3896322728
 21
-85.5351748781
  0
LINE
  5
43D
100
AcDbEntity
  8
0
100
AcDbLine
 62
7
  6
CONTINUOUS
 10
-31.3896322728
 20
-85.2404990917
 11
-31.2396322728
 21
-85.2404990917
  0
LINE
  5
43E
100
AcDbEntity
  8
0
100
AcDbLine
 62
7
  6
CONTINUOUS
 10
-31.3896322728
 20
-85.2151865909
 11
-31.2396322728
 21
-85.2151865909
  0
LINE
  5
43F
100
AcDbEntity
  8
0
100
AcDbLine
 62
7
  6
CONTINUOUS
 10
-31.3896322728
 20
-85.1898740902
 11
-31.2396322728
 21
-85.1898740902
  0
LINE
  5
440
100
AcDbEntity
  8
0
100
AcDbLine
 62
7
  6
CONTINUOUS
 10
-31.3896322728
 20
-85.0886240917
 11
-31.2396322728
 21
-85.0886240917
  0
LINE
  5
441
100
AcDbEntity
  8
0
100
AcDbLine
 62
7
  6
CONTINUOUS
 10
-31.3896322728
 20
-84.9873740977
 11
-31.2396322728
 21
-84.9873740977
  0
LINE
  5
442
100
AcDbEntity
  8
0
100
AcDbLine
 62
7
  6
CONTINUOUS
 10
-31.3896322728
 20
-84.8101866038
 11
-31.2396322728
 21
-84.8101866038
  0
LINE
  5
443
100
AcDbEntity
  8
0
100
AcDbLine
 62
7
  6
CONTINUOUS
 10
-31.3896322728
 20
-84.7089365917
 11
-31.2396322728
 21
-84.7089365917
  0
LINE
  5
444
100
AcDbEntity
  8
0
100
AcDbLine
 62
7
  6
CONTINUOUS
 10
-31.3896322728
 20
-84.5570615917
 11
-31.2396322728
 21
-84.5570615917
  0
LINE
  5
445
100
AcDbEntity
  8
0
100
AcDbLine
 62
7
  6
CONTINUOUS
 10
-31.3896322728
 20
-84.4558116158
 11
-31.2396322728
 21
-84.4558116158
  0
LINE
  5
446
100
AcDbEntity
  8
0
100
AcDbLine
 62
7
  6
CONTINUOUS
 10
-31.3896322728
 20
-84.3545615675
 11
-31.2396322728
 21
-84.3545615675
  0
LINE
  5
447
100
AcDbEntity
  8
0
100
AcDbLine
 62
7
  6
CONTINUOUS
 10
-31.3896322728
 20
-84.3292490917
 11
-31.2396322728
 21
-84.3292490917
  0
LINE
  5
448
100
AcDbEntity
  8
0
100
AcDbLine
 62
7
  6
CONTINUOUS
 10
-31.3896322728
 20
-83.0604990917
 11
-31.2396322728
 21
-83.0604990917
  0
LINE
  5
449
100
AcDbEntity
  8
0
100
AcDbLine
 62
7
  6
CONTINUOUS
 10
-31.3896322728
 20
-83.0292489844
 11
-31.2396322728
 21
-83.0292489844
  0
LINE
  5
44A
100
AcDbEntity
  8
0
100
AcDbLine
 62
7
  6
CONTINUOUS
 10
-31.3896322728
 20
-83.0011240917
 11
-31.2396322728
 21
-83.0011240917
  0
LINE
  5
44B
100
AcDbEntity
  8
0
100
AcDbLine
 62
7
  6
CONTINUOUS
 10
-31.3896322728
 20
-82.972999199
 11
-31.2396322728
 21
-82.972999199
  0
LINE
  5
44C
100
AcDbEntity
  8
0
100
AcDbLine
 62
7
  6
CONTINUOUS
 10
-31.3896322728
 20
-82.9433114904
 11
-31.2996322728
 21
-82.9433114904
  0
LINE
  5
44D
100
AcDbEntity
  8
0
100
AcDbLine
 62
7
  6
CONTINUOUS
 10
-31.3896322728
 20
-82.7573740917
 11
-31.2996322728
 21
-82.7573740917
  0
LINE
  5
44E
100
AcDbEntity
  8
0
100
AcDbLine
 62
7
  6
CONTINUOUS
 10
-31.3896322728
 20
-82.651124193
 11
-31.2996322728
 21
-82.651124193
  0
LINE
  5
44F
100
AcDbEntity
  8
0
100
AcDbLine
 62
7
  6
CONTINUOUS
 10
-31.3896322728
 20
-82.5448739904
 11
-31.2996322728
 21
-82.5448739904
  0
LINE
  5
450
100
AcDbEntity
  8
0
100
AcDbLine
 62
7
  6
CONTINUOUS
 10
-31.3896322728
 20
-82.5183115917
 11
-31.2996322728
 21
-82.5183115917
  0
LINE
  5
451
100
AcDbEntity
  8
0
100
AcDbLine
 62
7
  6
CONTINUOUS
 10
-31.3896322728
 20
-82.491749193
 11
-31.2996322728
 21
-82.491749193
  0
LINE
  5
452
100
AcDbEntity
  8
0
100
AcDbLine
 62
7
  6
CONTINUOUS
 10
-31.3896322728
 20
-82.289308632
 11
-31.2996322728
 21
-82.289308632
  0
LINE
  5
453
100
AcDbEntity
  8
0
100
AcDbLine
 62
7
  6
CONTINUOUS
 10
-31.3896322728
 20
-81.729074632
 11
-31.2996322728
 21
-81.729074632
  0
LINE
  5
454
100
AcDbEntity
  8
0
100
AcDbLine
 62
7
  6
CONTINUOUS
 10
-31.3896322728
 20
-81.455874632
 11
-31.2996322728
 21
-81.455874632
  0
LINE
  5
455
100
AcDbEntity
  8
0
100
AcDbLine
 62
7
  6
CONTINUOUS
 10
-31.3896322728
 20
-81.3179091628
 11
-31.2996322728
 21
-81.3179091628
  0
LINE
  5
456
100
AcDbEntity
  8
0
100
AcDbLine
 62
7
  6
CONTINUOUS
 10
-31.3896322728
 20
-81.2401898111
 11
-31.2996322728
 21
-81.240189632
  0
LINE
  5
457
100
AcDbEntity
  8
0
100
AcDbLine
 62
7
  6
CONTINUOUS
 10
-31.3896322728
 20
-81.2128878756
 11
-31.2996322728
 21
-81.212887632
  0
LINE
  5
458
100
AcDbEntity
  8
0
100
AcDbLine
 62
7
  6
CONTINUOUS
 10
-31.2996322728
 20
-80.5190148867
 11
-31.3896322728
 21
-80.5190148867
  0
LINE
  5
459
100
AcDbEntity
  8
0
100
AcDbLine
 62
7
  6
CONTINUOUS
 10
-31.2996322728
 20
-80.4950792733
 11
-31.3896322728
 21
-80.4950792733
  0
LINE
  5
45A
100
AcDbEntity
  8
ASSI
100
AcDbLine
 62
7
  6
CONTINUOUS
 10
-31.3896322728
 20
-80.3980516316
 11
-31.2896322728
 21
-80.3980516316
  0
LINE
  5
45B
100
AcDbEntity
  8
RACCORDO
100
AcDbLine
 62
7
  6
CONTINUOUS
 10
-51.8896322728
 20
-79.6104990917
 11
-41.8896322728
 21
-79.6104990917
  0
LINE
  5
45C
100
AcDbEntity
  8
0
100
AcDbLine
 62
7
  6
CONTINUOUS
 10
-31.3896322728
 20
-79.0104990917
 11
-31.2996322728
 21
-79.0104990917
  0
LINE
  5
45D
100
AcDbEntity
  8
0
100
AcDbLine
 62
7
  6
CONTINUOUS
 10
-31.3896322728
 20
-78.8829990917
 11
-31.2996322728
 21
-78.8829990917
  0
LINE
  5
45E
100
AcDbEntity
  8
ASSI
100
AcDbLine
 62
7
  6
CONTINUOUS
 10
-48.6396322728
 20
-78.8604990917
 11
-46.1396322728
 21
-78.8604990917
  0
LINE
  5
45F
100
AcDbEntity
  8
RACCORDO
100
AcDbLine
 62
7
  6
CONTINUOUS
 10
-41.8896322728
 20
-78.7604990917
 11
-34.0896322728
 21
-78.7604990917
  0
LINE
  5
460
100
AcDbEntity
  8
ASSI
100
AcDbLine
 62
7
  6
CONTINUOUS
 10
-39.7896322728
 20
-78.6104990917
 11
-39.6896322728
 21
-78.6104990917
  0
LINE
  5
461
100
AcDbEntity
  8
RACCORDO
100
AcDbLine
 62
7
  6
CONTINUOUS
 10
-39.7896322728
 20
-78.6104990917
 11
-40.7896322728
 21
-78.6104990917
  0
LINE
  5
462
100
AcDbEntity
  8
0
100
AcDbLine
 62
7
  6
CONTINUOUS
 10
-57.3896322728
 20
-66.8604990917
 11
-57.3896322728
 21
-73.5817798295
  0
LINE
  5
463
100
AcDbEntity
  8
0
100
AcDbLine
 62
7
  6
CONTINUOUS
 10
-57.3896322728
 20
-80.1392183538
 11
-57.3896322728
 21
-86.8604990917
  0
LINE
  5
464
100
AcDbEntity
  8
0
100
AcDbLine
 62
7
  6
CONTINUOUS
 10
-31.3896322728
 20
-78.5854991018
 11
-31.2996322728
 21
-78.5854991018
  0
LINE
  5
465
100
AcDbEntity
  8
0
100
AcDbLine
 62
253
  6
CONTINUOUS
 10
-34.7896322728
 20
-78.3974260854
 11
-39.6896322728
 21
-78.3974260854
  0
LINE
  5
466
100
AcDbEntity
  8
0
100
AcDbLine
 62
7
  6
CONTINUOUS
 10
-34.7896322728
 20
-78.3091102404
 11
-39.6896322728
 21
-78.3091102404
  0
LINE
  5
467
100
AcDbEntity
  8
0
100
AcDbLine
 62
7
  6
CONTINUOUS
 10
-31.3896322728
 20
-78.2879991119
 11
-31.2996322728
 21
-78.2879991119
  0
LINE
  5
468
100
AcDbEntity
  8
0
100
AcDbLine
 62
7
  6
CONTINUOUS
 10
-31.3896322728
 20
-78.1604991119
 11
-31.2996322728
 21
-78.1604991119
  0
LINE
  5
469
100
AcDbEntity
  8
0
100
AcDbLine
 62
7
  6
CONTINUOUS
 10
-31.3896322728
 20
-77.9904990917
 11
-31.2996322728
 21
-77.9904990917
  0
LINE
  5
46A
100
AcDbEntity
  8
0
100
AcDbLine
 62
7
  6
CONTINUOUS
 10
-31.3896322728
 20
-77.8629990917
 11
-31.2996322728
 21
-77.8629990917
  0
LINE
  5
46B
100
AcDbEntity
  8
0
100
AcDbLine
 62
7
  6
CONTINUOUS
 10
-56.9351811227
 20
-77.8604990917
 11
-56.7362508041
 21
-77.8604990917
  0
LINE
  5
46C
100
AcDbEntity
  8
ASSI
100
AcDbLine
 62
7
  6
CONTINUOUS
 10
-31.3896322728
 20
-77.7480530917
 11
-31.2896322728
 21
-77.7480530917
  0
LINE
  5
46D
100
AcDbEntity
  8
0
100
AcDbLine
 62
7
  6
CONTINUOUS
 10
-31.3896322728
 20
-77.6929991322
 11
-31.2996322728
 21
-77.6929991322
  0
LINE
  5
46E
100
AcDbEntity
  8
0
100
AcDbLine
 62
7
  6
CONTINUOUS
 10
-34.7896322728
 20
-77.5104990917
 11
-39.6896322728
 21
-77.5104990917
  0
LINE
  5
46F
100
AcDbEntity
  8
0
100
AcDbLine
 62
7
  6
CONTINUOUS
 10
-31.3896322728
 20
-77.5017491322
 11
-31.2996322728
 21
-77.5017491322
  0
LINE
  5
470
100
AcDbEntity
  8
0
100
AcDbLine
 62
7
  6
CONTINUOUS
 10
-31.3896322728
 20
-77.1829991322
 11
-31.2996322728
 21
-77.1829991322
  0
LINE
  5
471
100
AcDbEntity
  8
0
100
AcDbLine
 62
7
  6
CONTINUOUS
 10
-31.3896322728
 20
-76.8642490106
 11
-31.2996322728
 21
-76.8642490106
  0
LINE
  5
472
100
AcDbEntity
  8
0
100
AcDbLine
 62
7
  6
CONTINUOUS
 10
-31.3896322728
 20
-76.6729990106
 11
-31.2996322728
 21
-76.6729990106
  0
LINE
  5
473
100
AcDbEntity
  8
0
100
AcDbLine
 62
7
  6
CONTINUOUS
 10
-31.3896322728
 20
-76.5029991727
 11
-31.2996322728
 21
-76.5029991727
  0
LINE
  5
474
100
AcDbEntity
  8
0
100
AcDbLine
 62
7
  6
CONTINUOUS
 10
-31.3896322728
 20
-76.1629990106
 11
-31.2996322728
 21
-76.1629990106
  0
LINE
  5
475
100
AcDbEntity
  8
0
100
AcDbLine
 62
7
  6
CONTINUOUS
 10
-31.3896322728
 20
-75.9929991727
 11
-31.2996322728
 21
-75.9929991727
  0
LINE
  5
476
100
AcDbEntity
  8
0
100
AcDbLine
 62
7
  6
CONTINUOUS
 10
-56.9351811227
 20
-75.8604990917
 11
-56.7362508041
 21
-75.8604990917
  0
LINE
  5
477
100
AcDbEntity
  8
0
100
AcDbLine
 62
7
  6
CONTINUOUS
 10
-31.3896322728
 20
-75.6529990106
 11
-31.2996322728
 21
-75.6529990106
  0
LINE
  5
478
100
AcDbEntity
  8
0
100
AcDbLine
 62
7
  6
CONTINUOUS
 10
-31.3896322728
 20
-75.4829991727
 11
-31.2996322728
 21
-75.4829991727
  0
LINE
  5
479
100
AcDbEntity
  8
RACCORDO
100
AcDbLine
 62
7
  6
CONTINUOUS
 10
-40.7896322728
 20
-75.1104990917
 11
-39.7896322728
 21
-75.1104990917
  0
LINE
  5
47A
100
AcDbEntity
  8
ASSI
100
AcDbLine
 62
7
  6
CONTINUOUS
 10
-39.7896322728
 20
-75.1104990917
 11
-36.1396322728
 21
-75.1104990917
  0
LINE
  5
47B
100
AcDbEntity
  8
0
100
AcDbLine
 62
7
  6
CONTINUOUS
 10
-31.3896322728
 20
-74.9729991727
 11
-31.2996322728
 21
-74.9729991727
  0
LINE
  5
47C
100
AcDbEntity
  8
RACCORDO
100
AcDbLine
 62
7
  6
CONTINUOUS
 10
-34.0896322728
 20
-74.9604990917
 11
-41.8896322728
 21
-74.9604990917
  0
LINE
  5
47D
100
AcDbEntity
  8
0
100
AcDbLine
 62
7
  6
CONTINUOUS
 10
-31.3896322728
 20
-74.8667490917
 11
-31.2996322728
 21
-74.8667490917
  0
LINE
  5
47E
100
AcDbEntity
  8
ASSI
100
AcDbLine
 62
7
  6
CONTINUOUS
 10
-46.1396322728
 20
-74.8604990917
 11
-48.6396322728
 21
-74.8604990917
  0
LINE
  5
47F
100
AcDbEntity
  8
0
100
AcDbLine
 62
7
  6
CONTINUOUS
 10
-31.3896322728
 20
-74.7817489296
 11
-31.2996322728
 21
-74.7817489296
  0
LINE
  5
480
100
AcDbEntity
  8
0
100
AcDbLine
 62
7
  6
CONTINUOUS
 10
-31.3896322728
 20
-74.7179989296
 11
-31.2996322728
 21
-74.7179989296
  0
LINE
  5
481
100
AcDbEntity
  8
0
100
AcDbLine
 62
7
  6
CONTINUOUS
 10
-31.3896322728
 20
-74.6967492538
 11
-31.2996322728
 21
-74.6967492538
  0
LINE
  5
482
100
AcDbEntity
  8
0
100
AcDbLine
 62
7
  6
CONTINUOUS
 10
-31.3896322728
 20
-74.6754990917
 11
-31.2996322728
 21
-74.6754990917
  0
LINE
  5
483
100
AcDbEntity
  8
RACCORDO
100
AcDbLine
 62
7
  6
CONTINUOUS
 10
-41.8896322728
 20
-74.1104990917
 11
-51.8896322728
 21
-74.1104990917
  0
LINE
  5
484
100
AcDbEntity
  8
ASSI
100
AcDbLine
 62
7
  6
CONTINUOUS
 10
-31.3896322728
 20
-73.3629430917
 11
-31.2896322728
 21
-73.3629430917
  0
LINE
  5
485
100
AcDbEntity
  8
RACCORDO
100
AcDbLine
 62
7
  6
CONTINUOUS
 10
-51.8896322728
 20
-92.8604990917
 11
-51.8896322728
 21
-79.6104990917
  0
LINE
  5
486
100
AcDbEntity
  8
RACCORDO
100
AcDbLine
 62
7
  6
CONTINUOUS
 10
-51.8896322728
 20
-74.1104990917
 11
-51.8896322728
 21
-60.8604990917
  0
LINE
  5
487
100
AcDbEntity
  8
0
100
AcDbLine
 62
7
  6
CONTINUOUS
 10
-51.7879719671
 20
-74.1104990917
 11
-51.7879719671
 21
-79.6104990917
  0
LINE
  5
488
100
AcDbEntity
  8
RACCORDO
100
AcDbLine
 62
253
  6
CONTINUOUS
 10
-50.8896322728
 20
-93.8604990917
 11
-50.8896322728
 21
-79.6104990917
  0
LINE
  5
489
100
AcDbEntity
  8
RACCORDO
100
AcDbLine
 62
253
  6
CONTINUOUS
 10
-50.8896322728
 20
-74.1104990917
 11
-50.8896322728
 21
-59.8604990917
  0
LINE
  5
48A
100
AcDbEntity
  8
0
100
AcDbLine
 62
7
  6
CONTINUOUS
 10
-31.3896322728
 20
-71.1104990917
 11
-31.2996322728
 21
-71.1104990917
  0
LINE
  5
48B
100
AcDbEntity
  8
0
100
AcDbLine
 62
7
  6
CONTINUOUS
 10
-31.3896322728
 20
-70.5504990917
 11
-31.2996322728
 21
-70.5504990917
  0
LINE
  5
48C
100
AcDbEntity
  8
0
100
AcDbLine
 62
7
  6
CONTINUOUS
 10
-31.3896322728
 20
-70.4338324028
 11
-31.2996322728
 21
-70.4338324028
  0
LINE
  5
48D
100
AcDbEntity
  8
0
100
AcDbLine
 62
7
  6
CONTINUOUS
 10
-31.3896322728
 20
-70.3404990917
 11
-31.2996322728
 21
-70.3404990917
  0
LINE
  5
48E
100
AcDbEntity
  8
0
100
AcDbLine
 62
7
  6
CONTINUOUS
 10
-31.3896322728
 20
-70.2704990917
 11
-31.2996322728
 21
-70.2704990917
  0
LINE
  5
48F
100
AcDbEntity
  8
0
100
AcDbLine
 62
7
  6
CONTINUOUS
 10
-31.3896322728
 20
-70.2471657806
 11
-31.2996322728
 21
-70.2471657806
  0
LINE
  5
490
100
AcDbEntity
  8
0
100
AcDbLine
 62
7
  6
CONTINUOUS
 10
-31.3896322728
 20
-70.0604990917
 11
-31.2996322728
 21
-70.0604990917
  0
LINE
  5
491
100
AcDbEntity
  8
0
100
AcDbLine
 62
7
  6
CONTINUOUS
 10
-31.3896322728
 20
-69.5004990917
 11
-31.2996322728
 21
-69.5004990917
  0
LINE
  5
492
100
AcDbEntity
  8
0
100
AcDbLine
 62
7
  6
CONTINUOUS
 10
-31.3896322728
 20
-69.3838324695
 11
-31.2996322728
 21
-69.3838324695
  0
LINE
  5
493
100
AcDbEntity
  8
0
100
AcDbLine
 62
7
  6
CONTINUOUS
 10
-31.3896322728
 20
-69.2904990917
 11
-31.2996322728
 21
-69.2904990917
  0
LINE
  5
494
100
AcDbEntity
  8
0
100
AcDbLine
 62
7
  6
CONTINUOUS
 10
-31.3896322728
 20
-69.2204990917
 11
-31.2996322728
 21
-69.2204990917
  0
LINE
  5
495
100
AcDbEntity
  8
0
100
AcDbLine
 62
7
  6
CONTINUOUS
 10
-31.3896322728
 20
-69.1971657138
 11
-31.2996322728
 21
-69.1971657138
  0
LINE
  5
496
100
AcDbEntity
  8
0
100
AcDbLine
 62
7
  6
CONTINUOUS
 10
-31.3896322728
 20
-69.1738324695
 11
-31.2996322728
 21
-69.1738324695
  0
LINE
  5
497
100
AcDbEntity
  8
0
100
AcDbLine
 62
7
  6
CONTINUOUS
 10
-31.3896322728
 20
-68.9871657138
 11
-31.2996322728
 21
-68.9871657138
  0
LINE
  5
498
100
AcDbEntity
  8
0
100
AcDbLine
 62
7
  6
CONTINUOUS
 10
-32.8896322728
 20
-68.1858233052
 11
-31.3896322728
 21
-68.1858233052
  0
LINE
  5
499
100
AcDbEntity
  8
0
100
AcDbLine
 62
7
  6
CONTINUOUS
 10
-31.3896322728
 20
-68.1471658474
 11
-31.2996322728
 21
-68.1471658474
  0
LINE
  5
49A
100
AcDbEntity
  8
0
100
AcDbLine
 62
7
  6
CONTINUOUS
 10
-31.3896322728
 20
-67.9604990917
 11
-31.2996322728
 21
-67.9604990917
  0
LINE
  5
49B
100
AcDbEntity
  8
0
100
AcDbLine
 62
7
  6
CONTINUOUS
 10
-31.3896322728
 20
-67.8204990917
 11
-31.2996322728
 21
-67.8204990917
  0
LINE
  5
49C
100
AcDbEntity
  8
0
100
AcDbLine
 62
7
  6
CONTINUOUS
 10
-31.3896322728
 20
-67.493832336
 11
-31.2996322728
 21
-67.493832336
  0
LINE
  5
49D
100
AcDbEntity
  8
0
100
AcDbLine
 62
7
  6
CONTINUOUS
 10
-31.3896322728
 20
-67.1671658474
 11
-31.2996322728
 21
-67.1671658474
  0
LINE
  5
49E
100
AcDbEntity
  8
0
100
AcDbLine
 62
7
  6
CONTINUOUS
 10
-31.3896322728
 20
-67.0271658474
 11
-31.2996322728
 21
-67.0271658474
  0
LINE
  5
49F
100
AcDbEntity
  8
0
100
AcDbLine
 62
7
  6
CONTINUOUS
 10
-51.8896322728
 20
-66.8604990917
 11
-61.2563826921
 21
-66.8604990917
  0
LINE
  5
4A0
100
AcDbEntity
  8
0
100
AcDbLine
 62
7
  6
CONTINUOUS
 10
-31.3896322728
 20
-66.8404990917
 11
-31.2996322728
 21
-66.8404990917
  0
LINE
  5
4A1
100
AcDbEntity
  8
0
100
AcDbLine
 62
7
  6
CONTINUOUS
 10
-31.3896322728
 20
-66.723832336
 11
-31.2996322728
 21
-66.723832336
  0
LINE
  5
4A2
100
AcDbEntity
  8
RACCORDO
100
AcDbLine
 62
7
  6
CONTINUOUS
 10
-31.58858508
 20
-67.6983213285
 11
-32.8896322728
 21
-67.6953477018
  0
LWPOLYLINE
  5
4A3
100
AcDbEntity
  8
RACCORDO
100
AcDbPolyline
 62
7
  6
CONTINUOUS
 90
10
 70
0
 10
-31.58858508
 20
-67.6983213285
 10
-31.5520260526
 20
-67.7004043273
 10
-31.5172171654
 20
-67.704687756
 10
-31.4852235333
 20
-67.7111716147
 10
-31.4569618499
 20
-67.7202347225
 10
-31.4331225364
 20
-67.7314982602
 10
-31.4141928825
 20
-67.7438257703
 10
-31.4005312043
 20
-67.7568384334
 10
-31.3923393663
 20
-67.7709150687
 10
-31.3896322728
 20
-67.7860556764
  0
LINE
  5
4A4
100
AcDbEntity
  8
RACCORDO
100
AcDbLine
 62
7
  6
CONTINUOUS
 10
-40.8896322728
 20
-64.3604990917
 11
-32.8896322728
 21
-64.3604990917
  0
LINE
  5
4A5
100
AcDbEntity
  8
RACCORDO
100
AcDbLine
 62
7
  6
CONTINUOUS
 10
-31.58858508
 20
-64.3673114211
 11
-32.8896322728
 21
-64.3604990917
  0
LINE
  5
4A6
100
AcDbEntity
  8
RACCORDO
100
AcDbLine
 62
7
  6
CONTINUOUS
 10
-41.8896322728
 20
-88.3604990917
 11
-41.8896322728
 21
-65.3604990917
  0
LINE
  5
4A7
100
AcDbEntity
  8
RACCORDO
100
AcDbLine
 62
253
  6
CONTINUOUS
 10
-40.8896322728
 20
-89.3604990917
 11
-40.8896322728
 21
-78.7604990917
  0
LINE
  5
4A8
100
AcDbEntity
  8
RACCORDO
100
AcDbLine
 62
253
  6
CONTINUOUS
 10
-40.8896322728
 20
-74.9604990917
 11
-40.8896322728
 21
-64.3604990917
  0
LINE
  5
4A9
100
AcDbEntity
  8
RACCORDO
100
AcDbLine
 62
253
  6
CONTINUOUS
 10
-40.7896322728
 20
-75.1104990917
 11
-40.7896322728
 21
-74.9604990917
  0
LINE
  5
4AA
100
AcDbEntity
  8
RACCORDO
100
AcDbLine
 62
253
  6
CONTINUOUS
 10
-40.7896322728
 20
-78.6104990917
 11
-40.7896322728
 21
-78.7604990917
  0
LINE
  5
4AB
100
AcDbEntity
  8
RACCORDO
100
AcDbLine
 62
7
  6
CONTINUOUS
 10
-40.5896322728
 20
-74.9604990917
 11
-40.5896322728
 21
-78.7604990917
  0
LINE
  5
4AC
100
AcDbEntity
  8
0
100
AcDbLine
 62
7
  6
CONTINUOUS
 10
-39.8896322728
 20
-75.1104990917
 11
-39.8896322728
 21
-78.6104990917
  0
LINE
  5
4AD
100
AcDbEntity
  8
RACCORDO
100
AcDbLine
 62
253
  6
CONTINUOUS
 10
-31.58858508
 20
-62.3672771517
 11
-31.3896322728
 21
-62.3672771517
  0
LINE
  5
4AE
100
AcDbEntity
  8
RACCORDO
100
AcDbLine
 62
253
  6
CONTINUOUS
 10
-32.8896322728
 20
-62.3604990917
 11
-51.8896322728
 21
-62.3604990917
  0
LINE
  5
4AF
100
AcDbEntity
  8
RACCORDO
100
AcDbLine
 62
253
  6
CONTINUOUS
 10
-32.8896322728
 20
-62.3604648223
 11
-31.58858508
 21
-62.3677554827
  0
LINE
  5
4B0
100
AcDbEntity
  8
RACCORDO
100
AcDbLine
 62
7
  6
CONTINUOUS
 10
-39.7896322728
 20
-74.9604990917
 11
-39.7896322728
 21
-75.1104990917
  0
LINE
  5
4B1
100
AcDbEntity
  8
RACCORDO
100
AcDbLine
 62
7
  6
CONTINUOUS
 10
-39.7896322728
 20
-78.6104990917
 11
-39.7896322728
 21
-78.7604990917
  0
LINE
  5
4B2
100
AcDbEntity
  8
0
100
AcDbLine
 62
7
  6
CONTINUOUS
 10
-39.6896322728
 20
-77.5104990917
 11
-39.6896322728
 21
-78.7604990917
  0
LINE
  5
4B3
100
AcDbEntity
  8
RACCORDO
100
AcDbLine
 62
7
  6
CONTINUOUS
 10
-32.8896322728
 20
-59.8604990917
 11
-50.8896322728
 21
-59.8604990917
  0
LINE
  5
4B4
100
AcDbEntity
  8
RACCORDO
100
AcDbLine
 62
7
  6
CONTINUOUS
 10
-32.8896322728
 20
-59.8604990917
 11
-31.58858508
 21
-59.8673114211
  0
LINE
  5
4B5
100
AcDbEntity
  8
0
100
AcDbLine
 62
7
  6
CONTINUOUS
 10
-35.3896322728
 20
-75.279949787
 11
-35.3896322728
 21
-77.5104990917
  0
LINE
  5
4B6
100
AcDbEntity
  8
RACCORDO
100
AcDbLine
 62
7
  6
CONTINUOUS
 10
-35.1896322728
 20
-77.5104990917
 11
-35.1896322728
 21
-75.3911041116
  0
LINE
  5
4B7
100
AcDbEntity
  8
RACCORDO
100
AcDbLine
 62
253
  6
CONTINUOUS
 10
-34.9896322728
 20
-77.5104990917
 11
-34.9896322728
 21
-75.5420614598
  0
LINE
  5
4B8
100
AcDbEntity
  8
0
100
AcDbLine
 62
7
  6
CONTINUOUS
 10
-34.7896322728
 20
-78.7604990917
 11
-34.7896322728
 21
-77.5104990917
  0
LINE
  5
4B9
100
AcDbEntity
  8
ASSI
100
AcDbLine
 62
7
  6
CONTINUOUS
 10
-34.7396322728
 20
-75.8104821917
 11
-34.7396322728
 21
-77.9100487774
  0
LINE
  5
4BA
100
AcDbEntity
  8
0
100
AcDbLine
 62
7
  6
CONTINUOUS
 10
-34.0896322728
 20
-74.9604990917
 11
-34.0896322728
 21
-78.7604990917
  0
LINE
  5
4BB
100
AcDbEntity
  8
RACCORDO
100
AcDbLine
 62
7
  6
CONTINUOUS
 10
-32.8896322728
 20
-93.8604990917
 11
-32.8896322728
 21
-89.3604990917
  0
LINE
  5
4BC
100
AcDbEntity
  8
DRAFT
100
AcDbLine
 62
7
  6
CONTINUOUS
 10
-32.8896322728
 20
-89.3604990917
 11
-32.8896322728
 21
-86.0256504816
  0
LINE
  5
4BD
100
AcDbEntity
  8
DRAFT
100
AcDbLine
 62
7
  6
CONTINUOUS
 10
-32.8896322728
 20
-67.6953477018
 11
-32.8896322728
 21
-64.3604990917
  0
LINE
  5
4BE
100
AcDbEntity
  8
RACCORDO
100
AcDbLine
 62
7
  6
CONTINUOUS
 10
-32.8896322728
 20
-64.3604990917
 11
-32.8896322728
 21
-59.8604990917
  0
LINE
  5
4BF
100
AcDbEntity
  8
0
100
AcDbLine
 62
7
  6
CONTINUOUS
 10
-32.8896322728
 20
-64.3604990917
 11
-32.8896322728
 21
-68.1858233052
  0
LINE
  5
4C0
100
AcDbEntity
  8
0
100
AcDbLine
 62
7
  6
CONTINUOUS
 10
-32.8896322728
 20
-85.5351748781
 11
-32.8896322728
 21
-89.3604990917
  0
LINE
  5
4C1
100
AcDbEntity
  8
RACCORDO
100
AcDbLine
 62
253
  6
CONTINUOUS
 10
-31.5883996898
 20
-59.924632833
 11
-31.58858508
 21
-59.8673114211
  0
LINE
  5
4C2
100
AcDbEntity
  8
RACCORDO
100
AcDbLine
 62
253
  6
CONTINUOUS
 10
-31.58858508
 20
-85.5351748781
 11
-31.58858508
 21
-91.3537210316
  0
LINE
  5
4C3
100
AcDbEntity
  8
RACCORDO
100
AcDbLine
 62
7
  6
CONTINUOUS
 10
-31.3896322728
 20
-60.0673086796
 11
-31.3896322728
 21
-68.1858233052
  0
LINE
  5
4C4
100
AcDbEntity
  8
0
100
AcDbLine
 62
7
  6
CONTINUOUS
 10
-31.3896322728
 20
-68.1858233052
 11
-31.3896322728
 21
-85.5351748781
  0
LINE
  5
4C5
100
AcDbEntity
  8
RACCORDO
100
AcDbLine
 62
7
  6
CONTINUOUS
 10
-31.3896322728
 20
-85.5351748781
 11
-31.3896322728
 21
-93.6536895038
  0
LINE
  5
4C6
100
AcDbEntity
  8
0
100
AcDbLine
 62
7
  6
CONTINUOUS
 10
-31.2996322728
 20
-66.723832336
 11
-31.2996322728
 21
-66.8404990917
  0
LINE
  5
4C7
100
AcDbEntity
  8
0
100
AcDbLine
 62
7
  6
CONTINUOUS
 10
-31.2996322728
 20
-67.0271658474
 11
-31.2996322728
 21
-67.9604990917
  0
LINE
  5
4C8
100
AcDbEntity
  8
0
100
AcDbLine
 62
7
  6
CONTINUOUS
 10
-31.2996322728
 20
-68.1471658474
 11
-31.2996322728
 21
-68.9871657138
  0
LINE
  5
4C9
100
AcDbEntity
  8
0
100
AcDbLine
 62
7
  6
CONTINUOUS
 10
-31.2996322728
 20
-69.1738324695
 11
-31.2996322728
 21
-70.0604990917
  0
LINE
  5
4CA
100
AcDbEntity
  8
0
100
AcDbLine
 62
7
  6
CONTINUOUS
 10
-31.2996322728
 20
-70.2471657806
 11
-31.2996322728
 21
-71.1104990917
  0
LINE
  5
4CB
100
AcDbEntity
  8
0
100
AcDbLine
 62
7
  6
CONTINUOUS
 10
-31.2996322728
 20
-74.6754990917
 11
-31.2996322728
 21
-75.4829991727
  0
LINE
  5
4CC
100
AcDbEntity
  8
0
100
AcDbLine
 62
7
  6
CONTINUOUS
 10
-31.2996322728
 20
-75.6529990106
 11
-31.2996322728
 21
-76.5029991727
  0
LINE
  5
4CD
100
AcDbEntity
  8
0
100
AcDbLine
 62
7
  6
CONTINUOUS
 10
-31.2996322728
 20
-76.6729990106
 11
-31.2996322728
 21
-77.6929991322
  0
LINE
  5
4CE
100
AcDbEntity
  8
0
100
AcDbLine
 62
7
  6
CONTINUOUS
 10
-31.2996322728
 20
-77.8629990917
 11
-31.2996322728
 21
-77.9904990917
  0
LINE
  5
4CF
100
AcDbEntity
  8
0
100
AcDbLine
 62
7
  6
CONTINUOUS
 10
-31.2996322728
 20
-78.1604991119
 11
-31.2996322728
 21
-79.0104990917
  0
LINE
  5
4D0
100
AcDbEntity
  8
0
100
AcDbLine
 62
7
  6
CONTINUOUS
 10
-31.2996322728
 20
-80.4945095867
 11
-31.2996322728
 21
-81.2401899828
  0
LINE
  5
4D1
100
AcDbEntity
  8
0
100
AcDbLine
 62
7
  6
CONTINUOUS
 10
-31.2996322728
 20
-81.3179091628
 11
-31.2996322728
 21
-82.9964365917
  0
LINE
  5
4D2
100
AcDbEntity
  8
0
100
AcDbLine
 62
7
  6
CONTINUOUS
 10
-31.2996322728
 20
-86.5604990917
 11
-31.2996322728
 21
-87.0604990917
  0
LINE
  5
4D3
100
AcDbEntity
  8
ASSI
100
AcDbLine
 62
7
  6
CONTINUOUS
 10
-31.2896322728
 20
-73.3629430917
 11
-31.2896322728
 21
-74.6797610229
  0
LINE
  5
4D4
100
AcDbEntity
  8
ASSI
100
AcDbLine
 62
7
  6
CONTINUOUS
 10
-31.2896322728
 20
-75.3878665786
 11
-31.2896322728
 21
-75.6544464289
  0
LINE
  5
4D5
100
AcDbEntity
  8
ASSI
100
AcDbLine
 62
7
  6
CONTINUOUS
 10
-31.2896322728
 20
-77.7480530917
 11
-31.2896322728
 21
-78.2250082132
  0
LINE
  5
4D6
100
AcDbEntity
  8
ASSI
100
AcDbLine
 62
7
  6
CONTINUOUS
 10
-31.2896322728
 20
-79.064873162
 11
-31.2896322728
 21
-80.3980516316
  0
LINE
  5
4D7
100
AcDbEntity
  8
0
100
AcDbLine
 62
7
  6
CONTINUOUS
 10
-31.2396322728
 20
-82.972999199
 11
-31.2396322728
 21
-83.0292489844
  0
LINE
  5
4D8
100
AcDbEntity
  8
0
100
AcDbLine
 62
7
  6
CONTINUOUS
 10
-31.2396322728
 20
-83.0604990917
 11
-31.2396322728
 21
-86.5604990917
  0
LINE
  5
4D9
100
AcDbEntity
  8
RACCORDO
100
AcDbLine
 62
253
  6
CONTINUOUS
 10
-31.5882094817
 20
-93.5505656668
 11
-31.58858508
 21
-91.3537210316
  0
LWPOLYLINE
  5
4DA
100
AcDbEntity
  8
RACCORDO
100
AcDbPolyline
 62
253
  6
CONTINUOUS
 90
3
 70
0
 10
-31.58858508
 20
-68.1858233052
 10
-31.5883288449
 20
-61.6519479055
 10
-31.5883996898
 20
-59.924632833
  0
LWPOLYLINE
  5
4DB
100
AcDbEntity
  8
RACCORDO
100
AcDbPolyline
 62
253
  6
CONTINUOUS
 90
3
 70
0
 10
-31.5885856451
 20
-93.8536867195
 10
-31.5885240217
 20
-93.8426392172
 10
-31.5882094817
 20
-93.5505656668
  0
CIRCLE
  5
4DC
100
AcDbEntity
  8
ASSI
100
AcDbCircle
 62
7
  6
CONTINUOUS
 10
-9.25
 20
-9.7918905195
 40
3.4305041359
  0
ARC
  5
4DD
100
AcDbEntity
  8
RACCORDO
100
AcDbCircle
 62
7
  6
CONTINUOUS
 10
-14.5
 20
-6.9918905195
 40
2.5
100
AcDbArc
 50
90.0
 51
180.0
  0
CIRCLE
  5
4DE
100
AcDbEntity
  8
ASSI
100
AcDbCircle
 62
7
  6
CONTINUOUS
 10
-9.25
 20
-9.7918905195
 40
2.35
  0
ARC
  5
4DF
100
AcDbEntity
  8
RACCORDO
100
AcDbCircle
 62
7
  6
CONTINUOUS
 10
-9.4
 20
-9.5918905195
 40
2.0628834084
100
AcDbArc
 50
58.1533130645
 51
190.8545993234
  0
ARC
  5
4E0
100
AcDbEntity
  8
ASSI
100
AcDbCircle
 62
7
  6
CONTINUOUS
 10
-7.0
 20
-16.9918905195
 40
2.0
100
AcDbArc
 50
0.0
 51
180.0
  0
ARC
  5
4E1
100
AcDbEntity
  8
RACCORDO
100
AcDbCircle
 62
7
  6
CONTINUOUS
 10
-9.4
 20
-9.5918905195
 40
1.7615202239
100
AcDbArc
 50
37.9797665984
 51
203.0070347203
  0
ARC
  5
4E2
100
AcDbEntity
  8
RACCORDO
100
AcDbCircle
 62
253
  6
CONTINUOUS
 10
-14.5
 20
-6.9918905195
 40
1.5
100
AcDbArc
 50
90.0
 51
180.0
  0
ARC
  5
4E3
100
AcDbEntity
  8
RACCORDO
100
AcDbCircle
 62
7
  6
CONTINUOUS
 10
-3.0
 20
32.381973023
 40
1.25
100
AcDbArc
 50
15.2041749121
 51
49.3218607528
  0
ARC
  5
4E4
100
AcDbEntity
  8
RACCORDO
100
AcDbCircle
 62
7
  6
CONTINUOUS
 10
-3.0
 20
18.6342459381
 40
1.25
100
AcDbArc
 50
317.2538631105
 51
344.7958250879
  0
ARC
  5
4E5
100
AcDbEntity
  8
RACCORDO
100
AcDbCircle
 62
7
  6
CONTINUOUS
 10
-2.9
 20
34.0280860063
 40
1.0
100
AcDbArc
 50
288.7973688244
 51
360.0
  0
ARC
  5
4E6
100
AcDbEntity
  8
RACCORDO
100
AcDbCircle
 62
7
  6
CONTINUOUS
 10
-2.25
 20
18.5109672067
 40
0.5
100
AcDbArc
 50
252.1742897585
 51
360.0
  0
ARC
  5
4E7
100
AcDbEntity
  8
RACCORDO
100
AcDbCircle
 62
7
  6
CONTINUOUS
 10
-2.25
 20
32.5052517544
 40
0.5
100
AcDbArc
 50
0.0
 51
107.8257107401
  0
CIRCLE
  5
4E8
100
AcDbEntity
  8
ASSI
100
AcDbCircle
 62
7
  6
CONTINUOUS
 10
9.25
 20
-9.7918905195
 40
3.4305041359
  0
CIRCLE
  5
4E9
100
AcDbEntity
  8
0
100
AcDbCircle
 62
7
  6
CONTINUOUS
 10
0.0
 20
8.5081094805
 40
2.75
  0
CIRCLE
  5
4EA
100
AcDbEntity
  8
0
100
AcDbCircle
 62
7
  6
CONTINUOUS
 10
0.0
 20
8.5081094805
 40
2.5
  0
ARC
  5
4EB
100
AcDbEntity
  8
RACCORDO
100
AcDbCircle
 62
7
  6
CONTINUOUS
 10
14.5
 20
-6.9918905195
 40
2.5
100
AcDbArc
 50
0.0
 51
90.0
  0
CIRCLE
  5
4EC
100
AcDbEntity
  8
ASSI
100
AcDbCircle
 62
7
  6
CONTINUOUS
 10
9.25
 20
-9.7918905195
 40
2.35
  0
ARC
  5
4ED
100
AcDbEntity
  8
ASSI
100
AcDbCircle
 62
7
  6
CONTINUOUS
 10
7.0
 20
-16.9918905195
 40
2.0
100
AcDbArc
 50
0.0
 51
180.0
  0
CIRCLE
  5
4EE
100
AcDbEntity
  8
RACCORDO
100
AcDbCircle
 62
253
  6
CONTINUOUS
 10
0.0
 20
8.5081094805
 40
1.7931604194
  0
ARC
  5
4EF
100
AcDbEntity
  8
RACCORDO
100
AcDbCircle
 62
253
  6
CONTINUOUS
 10
14.5
 20
-6.9918905195
 40
1.5
100
AcDbArc
 50
0.0
 51
90.0
  0
CIRCLE
  5
4F0
100
AcDbEntity
  8
RACCORDO
100
AcDbCircle
 62
7
  6
CONTINUOUS
 10
0.0
 20
8.5081094805
 40
1.2349351573
  0
CIRCLE
  5
4F1
100
AcDbEntity
  8
0
100
AcDbCircle
 62
7
  6
CONTINUOUS
 10
0.0
 20
8.5081094805
 40
1.0
  0
ARC
  5
4F2
100
AcDbEntity
  8
DRAFT
100
AcDbCircle
 62
7
  6
CONTINUOUS
 10
0.0
 20
25.5081094805
 40
12.5
100
AcDbArc
 50
137.1563569564
 51
180.0
  0
ARC
  5
4F3
100
AcDbEntity
  8
RACCORDO
100
AcDbCircle
 62
7
  6
CONTINUOUS
 10
0.0
 20
25.5081094805
 40
12.5
100
AcDbArc
 50
0.0
 51
81.2571526864
  0
ARC
  5
4F4
100
AcDbEntity
  8
0
100
AcDbCircle
 62
7
  6
CONTINUOUS
 10
0.0
 20
25.5081094805
 40
12.5
100
AcDbArc
 50
81.2571526865
 51
98.7428473135
  0
ARC
  5
4F5
100
AcDbEntity
  8
RACCORDO
100
AcDbCircle
 62
7
  6
CONTINUOUS
 10
0.0
 20
25.5081094805
 40
12.5
100
AcDbArc
 50
98.7428473136
 51
180.0
  0
ARC
  5
4F6
100
AcDbEntity
  8
RACCORDO
100
AcDbCircle
 62
253
  6
CONTINUOUS
 10
0.0
 20
25.5081094805
 40
11.4999999997
100
AcDbArc
 50
0.0
 51
80.4901365999
  0
ARC
  5
4F7
100
AcDbEntity
  8
RACCORDO
100
AcDbCircle
 62
253
  6
CONTINUOUS
 10
0.0
 20
25.5081094805
 40
11.4999999997
100
AcDbArc
 50
99.5098634001
 51
180.0
  0
ARC
  5
4F8
100
AcDbEntity
  8
RACCORDO
100
AcDbCircle
 62
7
  6
CONTINUOUS
 10
0.0
 20
25.5081094805
 40
8.0
100
AcDbArc
 50
108.7973688244
 51
71.2026311756
  0
ARC
  5
4F9
100
AcDbEntity
  8
RACCORDO
100
AcDbCircle
 62
7
  6
CONTINUOUS
 10
0.0
 20
25.5081094805
 40
7.85
100
AcDbArc
 50
107.8257061788
 51
252.1742938529
  0
ARC
  5
4FA
100
AcDbEntity
  8
RACCORDO
100
AcDbCircle
 62
7
  6
CONTINUOUS
 10
0.0
 20
25.5081094805
 40
7.85
100
AcDbArc
 50
287.8257061599
 51
72.1742938694
  0
ARC
  5
4FB
100
AcDbEntity
  8
RACCORDO
100
AcDbCircle
 62
253
  6
CONTINUOUS
 10
0.0
 20
25.5081094805
 40
7.3499999996
100
AcDbArc
 50
111.9717663786
 51
248.0282336215
  0
ARC
  5
4FC
100
AcDbEntity
  8
RACCORDO
100
AcDbCircle
 62
253
  6
CONTINUOUS
 10
0.0
 20
25.5081094805
 40
7.3499999996
100
AcDbArc
 50
291.9717663786
 51
68.0282336215
  0
ARC
  5
4FD
100
AcDbEntity
  8
0
100
AcDbCircle
 62
7
  6
CONTINUOUS
 10
0.0
 20
25.5081094805
 40
4.9
100
AcDbArc
 50
249.0418066793
 51
290.9581933207
  0
ARC
  5
4FE
100
AcDbEntity
  8
0
100
AcDbCircle
 62
7
  6
CONTINUOUS
 10
0.0
 20
25.5081094805
 40
4.9
100
AcDbArc
 50
79.0996086964
 51
110.9581933207
  0
ARC
  5
4FF
100
AcDbEntity
  8
ASSI
100
AcDbCircle
 62
7
  6
CONTINUOUS
 10
0.0
 20
25.5081094805
 40
4.7
100
AcDbArc
 50
77.4343559614
 51
111.8600299846
  0
ARC
  5
500
100
AcDbEntity
  8
ASSI
100
AcDbCircle
 62
7
  6
CONTINUOUS
 10
0.0
 20
25.5081094805
 40
4.7
100
AcDbArc
 50
248.1399700154
 51
291.8600299846
  0
ARC
  5
501
100
AcDbEntity
  8
0
100
AcDbCircle
 62
7
  6
CONTINUOUS
 10
3.2339756848
 20
31.2585197507
 40
2.5
100
AcDbArc
 50
183.3766290565
 51
226.0
  0
ARC
  5
502
100
AcDbEntity
  8
0
100
AcDbCircle
 62
7
  6
CONTINUOUS
 10
3.45
 20
19.1081094805
 40
2.0
100
AcDbArc
 50
148.3114590358
 51
198.0
  0
ARC
  5
503
100
AcDbEntity
  8
0
100
AcDbCircle
 62
7
  6
CONTINUOUS
 10
3.2339756848
 20
31.2585197507
 40
1.7
100
AcDbArc
 50
183.3766290565
 51
209.1175011997
  0
ARC
  5
504
100
AcDbEntity
  8
RACCORDO
100
AcDbCircle
 62
7
  6
CONTINUOUS
 10
3.0
 20
32.381973023
 40
1.25
100
AcDbArc
 50
130.6781392472
 51
164.7958250879
  0
ARC
  5
505
100
AcDbEntity
  8
RACCORDO
100
AcDbCircle
 62
7
  6
CONTINUOUS
 10
3.0
 20
18.6342459381
 40
1.25
100
AcDbArc
 50
195.2041749121
 51
222.7461368895
  0
ARC
  5
506
100
AcDbEntity
  8
RACCORDO
100
AcDbCircle
 62
7
  6
CONTINUOUS
 10
2.9
 20
34.0280860063
 40
1.0
100
AcDbArc
 50
180.0
 51
251.2026311756
  0
ARC
  5
507
100
AcDbEntity
  8
RACCORDO
100
AcDbCircle
 62
7
  6
CONTINUOUS
 10
2.25
 20
32.5052517544
 40
0.5
100
AcDbArc
 50
72.1742900163
 51
180.0
  0
ARC
  5
508
100
AcDbEntity
  8
RACCORDO
100
AcDbCircle
 62
7
  6
CONTINUOUS
 10
2.25
 20
18.5109672067
 40
0.5
100
AcDbArc
 50
180.0
 51
287.8257104428
  0
ARC
  5
509
100
AcDbEntity
  8
RACCORDO
100
AcDbCircle
 62
7
  6
CONTINUOUS
 10
-50.8896322728
 20
-5.4918905195
 40
1.0
100
AcDbArc
 50
90.0
 51
180.0
  0
ARC
  5
50A
100
AcDbEntity
  8
RACCORDO
100
AcDbCircle
 62
7
  6
CONTINUOUS
 10
-31.5896322728
 20
-19.0850809316
 40
0.2
100
AcDbArc
 50
270.299998645
 51
360.0
  0
ARC
  5
50B
100
AcDbEntity
  8
RACCORDO
100
AcDbCircle
 62
7
  6
CONTINUOUS
 10
-31.5896322728
 20
-4.6988655035
 40
0.2
100
AcDbArc
 50
0.0473824703
 51
89.7
  0
ARC
  5
50C
100
AcDbEntity
  8
RACCORDO
100
AcDbCircle
 62
7
  6
CONTINUOUS
 10
-31.5896322728
 20
-3.0918905195
 40
0.2
100
AcDbArc
 50
270.0
 51
360.0
  0
ARC
  5
50D
100
AcDbEntity
  8
RACCORDO
100
AcDbCircle
 62
7
  6
CONTINUOUS
 10
-31.5896322728
 20
33.8012998927
 40
0.2
100
AcDbArc
 50
0.0
 51
89.7
  0
ARC
  5
50E
100
AcDbEntity
  8
0
100
AcDbCircle
 62
7
  6
CONTINUOUS
 10
-67.8896322728
 20
89.0115357342
 40
13.5
100
AcDbArc
 50
47.7945535963
 51
312.2054464037
  0
ARC
  5
50F
100
AcDbEntity
  8
ASSI
100
AcDbCircle
 62
7
  6
CONTINUOUS
 10
-67.8896322728
 20
89.0115357342
 40
12.0
100
AcDbArc
 50
41.8169053284
 51
318.1896851042
  0
ARC
  5
510
100
AcDbEntity
  8
0
100
AcDbCircle
 62
7
  6
CONTINUOUS
 10
-67.8896322728
 20
89.0115357342
 40
11.75
100
AcDbArc
 50
42.9101840217
 51
317.0898159783
  0
ARC
  5
511
100
AcDbEntity
  8
ASSI
100
AcDbCircle
 62
7
  6
CONTINUOUS
 10
-46.1396322728
 20
89.0115357342
 40
3.5
100
AcDbArc
 50
270.0
 51
90.0
  0
ARC
  5
512
100
AcDbEntity
  8
ASSI
100
AcDbCircle
 62
7
  6
CONTINUOUS
 10
-48.6396322728
 20
89.0115357342
 40
3.5
100
AcDbArc
 50
90.0
 51
270.0
  0
ARC
  5
513
100
AcDbEntity
  8
0
100
AcDbCircle
 62
7
  6
CONTINUOUS
 10
-46.1396322728
 20
89.0115357342
 40
3.2
100
AcDbArc
 50
270.0
 51
90.0
  0
ARC
  5
514
100
AcDbEntity
  8
0
100
AcDbCircle
 62
7
  6
CONTINUOUS
 10
-48.6396322728
 20
89.0115357342
 40
3.2
100
AcDbArc
 50
90.0
 51
270.0
  0
CIRCLE
  5
515
100
AcDbEntity
  8
ASSI
100
AcDbCircle
 62
7
  6
CONTINUOUS
 10
-37.1396322728
 20
92.7115357342
 40
2.5
  0
CIRCLE
  5
516
100
AcDbEntity
  8
ASSI
100
AcDbCircle
 62
7
  6
CONTINUOUS
 10
-54.8896322728
 20
89.0115357342
 40
2.1
  0
ARC
  5
517
100
AcDbEntity
  8
0
100
AcDbCircle
 62
7
  6
CONTINUOUS
 10
-46.1396322728
 20
89.0115357342
 40
2.0
100
AcDbArc
 50
270.0
 51
90.0
  0
ARC
  5
518
100
AcDbEntity
  8
0
100
AcDbCircle
 62
7
  6
CONTINUOUS
 10
-48.6396322728
 20
89.0115357342
 40
2.0
100
AcDbArc
 50
90.0
 51
270.0
  0
ARC
  5
519
100
AcDbEntity
  8
ASSI
100
AcDbCircle
 62
7
  6
CONTINUOUS
 10
-45.1896322728
 20
95.5115357342
 40
1.5
100
AcDbArc
 50
41.8547286674
 51
45.5356095884
  0
ARC
  5
51A
100
AcDbEntity
  8
0
100
AcDbCircle
 62
7
  6
CONTINUOUS
 10
-34.1896322728
 20
89.0115357342
 40
1.3
100
AcDbArc
 50
191.0888648906
 51
360.0
  0
CIRCLE
  5
51B
100
AcDbEntity
  8
ASSI
100
AcDbCircle
 62
7
  6
CONTINUOUS
 10
-54.8896322728
 20
89.0115357342
 40
1.25
  0
ARC
  5
51C
100
AcDbEntity
  8
RACCORDO
100
AcDbCircle
 62
7
  6
CONTINUOUS
 10
-50.8896322728
 20
105.0115357342
 40
1.0
100
AcDbArc
 50
90.0
 51
180.0
  0
ARC
  5
51D
100
AcDbEntity
  8
RACCORDO
100
AcDbCircle
 62
7
  6
CONTINUOUS
 10
-50.8896322728
 20
73.0115357342
 40
1.0
100
AcDbArc
 50
180.0
 51
270.0
  0
ARC
  5
51E
100
AcDbEntity
  8
RACCORDO
100
AcDbCircle
 62
7
  6
CONTINUOUS
 10
-34.1396322728
 20
95.5615357342
 40
1.0
100
AcDbArc
 50
72.5605570198
 51
90.0
  0
ARC
  5
51F
100
AcDbEntity
  8
RACCORDO
100
AcDbCircle
 62
7
  6
CONTINUOUS
 10
-35.0896322728
 20
80.7000123435
 40
0.3
100
AcDbArc
 50
90.3
 51
180.0
  0
ARC
  5
520
100
AcDbEntity
  8
RACCORDO
100
AcDbCircle
 62
7
  6
CONTINUOUS
 10
-31.5896322728
 20
72.2183462254
 40
0.2
100
AcDbArc
 50
270.299998645
 51
359.9997412035
  0
ARC
  5
521
100
AcDbEntity
  8
RACCORDO
100
AcDbCircle
 62
7
  6
CONTINUOUS
 10
-31.5896322728
 20
105.8047261463
 40
0.2
100
AcDbArc
 50
0.0
 51
89.7
  0
ARC
  5
522
100
AcDbEntity
  8
0
100
AcDbCircle
 62
7
  6
CONTINUOUS
 10
-63.3896322728
 20
-79.3604990917
 40
2.1
100
AcDbArc
 50
268.5609345799
 51
194.3149367142
  0
ARC
  5
523
100
AcDbEntity
  8
0
100
AcDbCircle
 62
7
  6
CONTINUOUS
 10
-70.3896322728
 20
-81.3604990917
 40
1.25
100
AcDbArc
 50
60.9453959009
 51
240.9453959009
  0
ARC
  5
524
100
AcDbEntity
  8
SMUSSO
100
AcDbCircle
 62
7
  6
CONTINUOUS
 10
-67.8896724783
 20
-76.8604774767
 40
13.4999858676
100
AcDbArc
 50
47.7943655702
 51
312.2055111735
  0
ARC
  5
525
100
AcDbEntity
  8
0
100
AcDbCircle
 62
7
  6
CONTINUOUS
 10
-67.8896322728
 20
-76.8604990917
 40
12.0
100
AcDbArc
 50
56.4426902381
 51
303.5573097619
  0
ARC
  5
526
100
AcDbEntity
  8
0
100
AcDbCircle
 62
7
  6
CONTINUOUS
 10
-67.8896322728
 20
-76.8604990917
 40
11.0
100
AcDbArc
 50
342.6585571972
 51
354.7840914295
  0
ARC
  5
527
100
AcDbEntity
  8
0
100
AcDbCircle
 62
7
  6
CONTINUOUS
 10
-67.8896322728
 20
-76.8604990917
 40
11.0
100
AcDbArc
 50
5.2159085705
 51
17.3414428028
  0
ARC
  5
528
100
AcDbEntity
  8
ASSI
100
AcDbCircle
 62
7
  6
CONTINUOUS
 10
-67.8896322728
 20
-76.8604990917
 40
11.0
100
AcDbArc
 50
17.3414428028
 51
342.6585571972
  0
ARC
  5
529
100
AcDbEntity
  8
0
100
AcDbCircle
 62
7
  6
CONTINUOUS
 10
-67.8896322728
 20
-76.8604990917
 40
6.3978150705
100
AcDbArc
 50
240.9453959009
 51
314.0369278142
  0
ARC
  5
52A
100
AcDbEntity
  8
0
100
AcDbCircle
 62
7
  6
CONTINUOUS
 10
-67.8896322728
 20
-76.8604990917
 40
6.3978150705
100
AcDbArc
 50
60.9453959009
 51
134.0369278142
  0
ARC
  5
52B
100
AcDbEntity
  8
0
100
AcDbCircle
 62
7
  6
CONTINUOUS
 10
-67.8896322728
 20
-76.8604990917
 40
3.8978150705
100
AcDbArc
 50
240.9453959009
 51
309.2316637764
  0
ARC
  5
52C
100
AcDbEntity
  8
0
100
AcDbCircle
 62
7
  6
CONTINUOUS
 10
-67.8896322728
 20
-76.8604990917
 40
3.8978150705
100
AcDbArc
 50
60.9453959009
 51
129.2316637764
  0
ARC
  5
52D
100
AcDbEntity
  8
ASSI
100
AcDbCircle
 62
7
  6
CONTINUOUS
 10
-54.8896322728
 20
-76.8604990917
 40
2.1
100
AcDbArc
 50
270.0
 51
90.0
  0
ARC
  5
52E
100
AcDbEntity
  8
0
100
AcDbCircle
 62
7
  6
CONTINUOUS
 10
-54.8896322728
 20
-76.8604990917
 40
2.1
100
AcDbArc
 50
90.0
 51
270.0
  0
ARC
  5
52F
100
AcDbEntity
  8
0
100
AcDbCircle
 62
7
  6
CONTINUOUS
 10
-72.3896322728
 20
-74.3604990917
 40
2.1
100
AcDbArc
 50
88.5609345799
 51
14.3149367142
  0
ARC
  5
530
100
AcDbEntity
  8
0
100
AcDbCircle
 62
7
  6
CONTINUOUS
 10
-65.3896322728
 20
-72.3604990917
 40
1.25
100
AcDbArc
 50
240.9453959009
 51
60.9453959009
  0
CIRCLE
  5
531
100
AcDbEntity
  8
ASSI
100
AcDbCircle
 62
7
  6
CONTINUOUS
 10
-54.8896322728
 20
-76.8604990917
 40
1.25
  0
ARC
  5
532
100
AcDbEntity
  8
RACCORDO
100
AcDbCircle
 62
7
  6
CONTINUOUS
 10
-40.7896322728
 20
-79.6104990917
 40
1.0
100
AcDbArc
 50
90.0
 51
121.705868376
  0
ARC
  5
533
100
AcDbEntity
  8
RACCORDO
100
AcDbCircle
 62
7
  6
CONTINUOUS
 10
-50.8896322728
 20
-92.8604990917
 40
1.0
100
AcDbArc
 50
180.0
 51
270.0
  0
ARC
  5
534
100
AcDbEntity
  8
RACCORDO
100
AcDbCircle
 62
7
  6
CONTINUOUS
 10
-40.8896322728
 20
-88.3604990913
 40
1.0
100
AcDbArc
 50
180.0000000193
 51
270.0
  0
ARC
  5
535
100
AcDbEntity
  8
RACCORDO
100
AcDbCircle
 62
7
  6
CONTINUOUS
 10
-31.5896322728
 20
-93.6536895038
 40
0.2
100
AcDbArc
 50
270.299752112
 51
360.0
  0
ARC
  5
536
100
AcDbEntity
  8
RACCORDO
100
AcDbCircle
 62
7
  6
CONTINUOUS
 10
-31.5896322728
 20
-89.1536895038
 40
0.2
100
AcDbArc
 50
270.3
 51
360.0
  0
ARC
  5
537
100
AcDbEntity
  8
ASSI
100
AcDbCircle
 62
7
  6
CONTINUOUS
 10
-48.6396322728
 20
-76.8604990917
 40
2.0
100
AcDbArc
 50
90.0
 51
270.0
  0
ARC
  5
538
100
AcDbEntity
  8
ASSI
100
AcDbCircle
 62
7
  6
CONTINUOUS
 10
-46.1396322728
 20
-76.8604990917
 40
2.0
100
AcDbArc
 50
270.0
 51
90.0
  0
ARC
  5
539
100
AcDbEntity
  8
ASSI
100
AcDbCircle
 62
7
  6
CONTINUOUS
 10
-36.1396322728
 20
-76.8604990917
 40
1.75
100
AcDbArc
 50
320.5014997469
 51
90.0
  0
ARC
  5
53A
100
AcDbEntity
  8
RACCORDO
100
AcDbCircle
 62
7
  6
CONTINUOUS
 10
-40.7896322728
 20
-74.1104990917
 40
1.0
100
AcDbArc
 50
238.2340948057
 51
270.0
  0
ARC
  5
53B
100
AcDbEntity
  8
RACCORDO
100
AcDbCircle
 62
7
  6
CONTINUOUS
 10
-50.8896322728
 20
-60.8604990917
 40
1.0
100
AcDbArc
 50
90.0
 51
180.0
  0
ARC
  5
53C
100
AcDbEntity
  8
RACCORDO
100
AcDbCircle
 62
7
  6
CONTINUOUS
 10
-40.8896322728
 20
-65.3604990917
 40
1.0
100
AcDbArc
 50
90.0
 51
180.0
  0
ARC
  5
53D
100
AcDbEntity
  8
RACCORDO
100
AcDbCircle
 62
7
  6
CONTINUOUS
 10
-31.5896322728
 20
-60.0673086796
 40
0.2
100
AcDbArc
 50
0.0
 51
89.7
  0
ARC
  5
53E
100
AcDbEntity
  8
RACCORDO
100
AcDbCircle
 62
7
  6
CONTINUOUS
 10
-31.5896322728
 20
-64.5673086796
 40
0.2
100
AcDbArc
 50
0.0
 51
89.6999998142
  0
ELLIPSE
  5
53F
100
AcDbEntity
  8
0
100
AcDbEllipse
 62
7
  6
CONTINUOUS
 10
-0.0
 20
-23.9215205026
 30
0.0
 11
0.0
 21
2.9991108142
 31
0.0
 40
0.7002075382
 41
-2.6452752915
 42
-1.5707963268
  0
ELLIPSE
  5
540
100
AcDbEntity
  8
0
100
AcDbEllipse
 62
7
  6
CONTINUOUS
 10
-0.0
 20
-23.9215205026
 30
0.0
 11
0.0
 21
2.9991108142
 31
0.0
 40
0.7002075382
 41
-4.7123889804
 42
-3.6379100157
  0
ELLIPSE
  5
541
100
AcDbEntity
  8
ASSI
100
AcDbEllipse
 62
7
  6
CONTINUOUS
 10
-0.0
 20
-23.9215205026
 30
0.0
 11
0.0
 21
2.9991108142
 31
0.0
 40
0.7002075382
 41
-1.5707963268
 42
1.5707963268
  0
ELLIPSE
  5
542
100
AcDbEntity
  8
0
100
AcDbEllipse
 62
7
  6
CONTINUOUS
 10
-0.0
 20
-42.4874445903
 30
0.0
 11
0.0
 21
15.7096280742
 31
0.0
 40
0.7002075382
 41
0.091034778
 42
0.302665274
  0
ELLIPSE
  5
543
100
AcDbEntity
  8
0
100
AcDbEllipse
 62
7
  6
CONTINUOUS
 10
-0.0
 20
-42.4874445903
 30
0.0
 11
0.0
 21
15.7096280742
 31
0.0
 40
0.7002075382
 41
-0.302665274
 42
-0.091034778
  0
ENDSEC
  0
SECTION
  2
OBJECTS
  0
DICTIONARY
  5
C
100
AcDbDictionary
280
0
281
1
  3
ACAD_GROUP
350
D
  3
ACAD_MLINESTYLE
350
17
  3
ACAD_LAYOUT
350
1A
  3
ACAD_PLOTSETTINGS
350
19
  3
ACAD_PLOTSTYLENAME
350
E
  0
DICTIONARY
  5
D
102
{ACAD_REACTORS
330
C
102
}
100
AcDbDictionary
280
0
281
1
  0
ACDBDICTIONARYWDFLT
  5
E
102
{ACAD_REACTORS
330
C
102
}
100
AcDbDictionary
281
1
  3
Normal
350
F
100
AcDbDictionaryWithDefault
340
F
  0
DICTIONARY
  5
17
102
{ACAD_REACTORS
330
C
102
}
100
AcDbDictionary
280
0
281
1
  3
Standard
350
18
  0
DICTIONARY
  5
19
102
{ACAD_REACTORS
330
C
102
}
100
AcDbDictionary
281
1
  0
DICTIONARY
  5
1A
102
{ACAD_REACTORS
330
C
102
}
100
AcDbDictionary
281
1
  3
Model
350
544
  3
Layout1
350
545
  0
ACDBPLACEHOLDER
  5
F
102
{ACAD_REACTORS
330
E
102
}
  0
MLINESTYLE
  5
18
102
{ACAD_REACTORS
330
17
102
}
100
AcDbMlineStyle
  2
STANDARD
 70
0
  3

 62
256
 51
90.0
 52
90.0
 71
2
 49
0.5
 62
256
  6
BYLAYER
 49
-0.5
 62
256
  6
BYLAYER
  0
LAYOUT
  5
544
102
{ACAD_REACTORS
330
1A
102
}
100
AcDbPlotSettings
  1

  2
none_device
  4
ANSI_C_(22.00_x_17.00_Inches)
  6

 40
0.0
 41
0.0
 42
0.0
 43
0.0
 44
558.8
 45
431.8
 46
0.0
 47
0.0
 48
0.0
 49
0.0
140
0.0
141
0.0
142
1.0
143
1.0
 70
1024
 72
1
 73
0
 74
0
  7

 75
0
147
1.0
148
0.0
149
0.0
100
AcDbLayout
  1
Model
 70
0
 71
0
 10
0.0
 20
0.0
 11
558.8
 21
431.8
 12
0.0
 22
0.0
 32
0.0
 14
0.0
 24
0.0
 34
0.0
 15
0.0
 25
0.0
 35
0.0
146
0.0
 13
0.0
 23
0.0
 33
0.0
 16
1.0
 26
0.0
 36
0.0
 17
0.0
 27
1.0
 37
0.0
 76
0
330
214
345
0
346
0
  0
LAYOUT
  5
545
102
{ACAD_REACTORS
330
1A
102
}
100
AcDbPlotSettings
  1

  2
none_device
  4
ANSI_C_(22.00_x_17.00_Inches)
  6

 40
0.0
 41
0.0
 42
0.0
 43
0.0
 44
558.8
 45
431.8
 46
0.0
 47
0.0
 48
0.0
 49
0.0
140
0.0
141
0.0
142
1.0
143
1.0
 70
0
 72
1
 73
0
 74
0
  7

 75
0
147
1.0
148
0.0
149
0.0
100
AcDbLayout
  1
Layout1
 70
0
 71
1
 10
0.0
 20
0.0
 11
558.8
 21
431.8
 12
0.0
 22
0.0
 32
0.0
 14
0.0
 24
0.0
 34
0.0
 15
0.0
 25
0.0
 35
0.0
146
0.0
 13
0.0
 23
0.0
 33
0.0
 16
1.0
 26
0.0
 36
0.0
 17
0.0
 27
1.0
 37
0.0
 76
0
330
215
345
0
346
0
  0
ENDSEC
  0
EOF
