0
SECTION
2
HEADER
9
$ACADVER
1
AC1015
9
$DWGCODEPAGE
3
ANSI_1252
9
$EXTMAX
10
297.0000000000
20
210.0000000000
30
0.0000000000
9
$EXTMIN
10
0.0000000000
20
0.0000000000
30
0.0000000000
9
$LIMMIN
10
0.0000000000
20
0.0000000000
9
$LIMMAX
10
297.0000000000
20
210.0000000000
9
$VIEWCTR
10
148.5000000000
20
105.0000000000
9
$VIEWSIZE
40
210.0000000000
9
$CLAYER
8
0
9
$LTSCALE
40
16.3350000000
9
$CELTYPE
6
BYLAYER
9
$DIMSCALE
40
1
9
$DIMASZ
40
3.0000000000
9
$DIMEXO
40
1.8562500000
9
$DIMDLI
40
11.2860000000
9
$DIMEXE
40
5.3460000000
9
$DIMCEN
40
2.6730000000
9
$DIMLFAC
40
1.0000000000
9
$DIMBLK
1
_FILLED
9
$DIMTXT
40
3.0000000000
9
$DIMTOL
70
1
9
$DIMLIM
70
0
9
$DIMTFAC
40
1.0000000000
9
$DIMTP
40
0.0100000000
9
$DIMTM
40
0.0100000000
9
$PDMODE
70
3
9
$PDSIZE
40
3.0000000000
9
$HANDSEED
5
394
9
$MEASUREMENT
70
1
9
$INSUNITS
70
4
0
ENDSEC
0
SECTION
2
CLASSES
0
CLASS
1
ACDBDICTIONARYWDFLT
2
AcDbDictionaryWithDefault
3
AutoCAD 2000
90
0
280
0
281
0
0
CLASS
1
ACDBPLACEHOLDER
2
AcDbPlaceHolder
3
AutoCAD 2000
90
0
280
0
281
0
0
CLASS
1
LAYOUT
2
AcDbLayout
3
AutoCAD 2000
90
0
280
0
281
0
0
ENDSEC
0
SECTION
2
TABLES
0
TABLE
2
VPORT
5
8
100
AcDbSymbolTable
70
2
0
VPORT
5
1F4
100
AcDbSymbolTableRecord
100
AcDbViewportTableRecord
2
*ACTIVE
70
0
10
0.0
20
0.0
11
1.0
21
1.0
12
148.5000000000
22
105.0000000000
13
0.0
23
0.0
14
1.0
24
1.0
15
0.0
25
0.0
16
0.0
26
0.0
36
1.0
17
0.0
27
0.0
37
0.0
40
210.0000000000
41
1.4142857143
42
50.0
43
0.0
44
0.0
50
0.0
51
0.0
71
0
72
100
73
1
74
1
75
0
76
0
77
0
78
0
0
ENDTAB
0
TABLE
2
LTYPE
5
5
100
AcDbSymbolTable
70
6
0
LTYPE
5
14
100
AcDbSymbolTableRecord
100
AcDbLinetypeTableRecord
2
BYBLOCK
70
0
3

72
65
73
0
40
0.0
0
LTYPE
5
15
100
AcDbSymbolTableRecord
100
AcDbLinetypeTableRecord
2
BYLAYER
70
0
3

72
65
73
0
40
0.0
0
LTYPE
5
16
100
AcDbSymbolTableRecord
100
AcDbLinetypeTableRecord
2
CONTINUOUS
70
64
3
Solid line
72
65
73
0
40
0
0
LTYPE
5
1F5
100
AcDbSymbolTableRecord
100
AcDbLinetypeTableRecord
2
CENTER
70
64
3
____ _ ____ _ ____ _ ____ _ ____ _ ____ _ ____
72
65
73
4
40
0.6
49
0.375
74
0
49
-0.075
74
0
49
0.075
74
0
49
-0.075
74
0
0
LTYPE
5
1F6
100
AcDbSymbolTableRecord
100
AcDbLinetypeTableRecord
2
HIDDEN
70
64
3
- - - - - - - - - - - - - - - - - - - -
72
65
73
2
40
0.2
49
0.1
74
0
49
-0.1
74
0
0
LTYPE
5
1F7
100
AcDbSymbolTableRecord
100
AcDbLinetypeTableRecord
2
PHANTOM
70
64
3
_____ _ _ _____ _ _ _____ _ _ _____
72
65
73
6
40
0.8
49
0.45
74
0
49
-0.05
74
0
49
0.1
74
0
49
-0.05
74
0
49
0.1
74
0
49
-0.05
74
0
0
LTYPE
5
1F8
100
AcDbSymbolTableRecord
100
AcDbLinetypeTableRecord
2
DOT
70
64
3
. . . . . . . . . . . . . . . . . . . .
72
65
73
2
40
0.2
49
0.1
74
0
49
-0.1
74
0
0
LTYPE
5
1F9
100
AcDbSymbolTableRecord
100
AcDbLinetypeTableRecord
2
DASHED
70
64
3
- - - - - - - - - - - - - - - - - - - -
72
65
73
2
40
0.2
49
0.1
74
0
49
-0.1
74
0
0
ENDTAB
0
TABLE
2
LAYER
5
2
100
AcDbSymbolTable
70
36
0
LAYER
5
10
100
AcDbSymbolTableRecord
100
AcDbLayerTableRecord
2
0
70
0
62
7
6
CONTINUOUS
370
-3
390
F
0
LAYER
5
1FA
100
AcDbSymbolTableRecord
100
AcDbLayerTableRecord
2
DEFAULT_1
70
0
62
7
6
CENTER
370
-3
390
F
0
LAYER
5
1FB
100
AcDbSymbolTableRecord
100
AcDbLayerTableRecord
2
DEFAULT_2
70
0
62
9
6
HIDDEN
370
-3
390
F
0
LAYER
5
1FC
100
AcDbSymbolTableRecord
100
AcDbLayerTableRecord
2
DEFAULT_3
70
0
62
7
6
PHANTOM
370
-3
390
F
0
LAYER
5
1FD
100
AcDbSymbolTableRecord
100
AcDbLayerTableRecord
2
_BLACK_HOLE
70
0
62
7
6
CONTINUOUS
370
-3
390
F
0
LAYER
5
1FE
100
AcDbSymbolTableRecord
100
AcDbLayerTableRecord
2
ASSI
70
0
62
7
6
CONTINUOUS
370
-3
390
F
0
LAYER
5
1FF
100
AcDbSymbolTableRecord
100
AcDbLayerTableRecord
2
COORDINATE
70
0
62
7
6
CONTINUOUS
370
-3
390
F
0
LAYER
5
200
100
AcDbSymbolTableRecord
100
AcDbLayerTableRecord
2
COPY_PUBLISH
70
0
62
7
6
CONTINUOUS
370
-3
390
F
0
LAYER
5
201
100
AcDbSymbolTableRecord
100
AcDbLayerTableRecord
2
COSMETIC
70
0
62
7
6
CONTINUOUS
370
-3
390
F
0
LAYER
5
202
100
AcDbSymbolTableRecord
100
AcDbLayerTableRecord
2
CURVE
70
0
62
7
6
CONTINUOUS
370
-3
390
F
0
LAYER
5
203
100
AcDbSymbolTableRecord
100
AcDbLayerTableRecord
2
IMPORT_IGES
70
0
62
7
6
CONTINUOUS
370
-3
390
F
0
LAYER
5
204
100
AcDbSymbolTableRecord
100
AcDbLayerTableRecord
2
PIANI
70
0
62
7
6
CONTINUOUS
370
-3
390
F
0
LAYER
5
205
100
AcDbSymbolTableRecord
100
AcDbLayerTableRecord
2
RACCORDO
70
0
62
7
6
CONTINUOUS
370
-3
390
F
0
LAYER
5
206
100
AcDbSymbolTableRecord
100
AcDbLayerTableRecord
2
SNAPLINE
70
0
62
7
6
CONTINUOUS
370
-3
390
F
0
LAYER
5
207
100
AcDbSymbolTableRecord
100
AcDbLayerTableRecord
2
TRASH
70
0
62
7
6
CONTINUOUS
370
-3
390
F
0
ENDTAB
0
TABLE
2
STYLE
5
3
100
AcDbSymbolTable
70
1
0
STYLE
5
11
100
AcDbSymbolTableRecord
100
AcDbTextStyleTableRecord
2
STANDARD
70
0
40
0.0
41
0.8000000000
50
0.0
71
0
42
0.2
3
txt
4

0
ENDTAB
0
TABLE
2
VIEW
5
6
100
AcDbSymbolTable
70
0
0
ENDTAB
0
TABLE
2
UCS
5
7
100
AcDbSymbolTable
70
0
0
ENDTAB
0
TABLE
2
APPID
5
9
100
AcDbSymbolTable
70
1
0
APPID
5
208
100
AcDbSymbolTableRecord
100
AcDbRegAppTableRecord
2
ACAD
70
0
0
ENDTAB
0
TABLE
2
BLOCK_RECORD
5
1
100
AcDbSymbolTable
70
0
0
BLOCK_RECORD
5
1F
100
AcDbSymbolTableRecord
100
AcDbBlockTableRecord
2
*MODEL_SPACE
0
BLOCK_RECORD
5
1B
100
AcDbSymbolTableRecord
100
AcDbBlockTableRecord
2
*PAPER_SPACE
0
BLOCK_RECORD
5
209
100
AcDbSymbolTableRecord
100
AcDbBlockTableRecord
2
_FILLED
0
BLOCK_RECORD
5
20A
100
AcDbSymbolTableRecord
100
AcDbBlockTableRecord
2
*D0
0
BLOCK_RECORD
5
20B
100
AcDbSymbolTableRecord
100
AcDbBlockTableRecord
2
*D1
0
BLOCK_RECORD
5
20C
100
AcDbSymbolTableRecord
100
AcDbBlockTableRecord
2
*D2
0
ENDTAB
0
TABLE
2
DIMSTYLE
5
A
100
AcDbSymbolTable
70
1
100
AcDbDimStyleTable
71
0
0
DIMSTYLE
105
20D
100
AcDbSymbolTableRecord
100
AcDbDimStyleTableRecord
2
STANDARD
70
0
3

4

40
1.0
41
3.0000000000
42
0.0625
43
0.38
44
0.18
45
0.0
46
0.0
47
0.0100000000
48
0.0100000000
140
3.0000000000
141
0.09
142
0.0
143
25.4
144
1.0000000000
145
0.0
146
1.0000000000
147
0.09
71
1
72
0
73
0
74
0
75
0
76
0
77
1
78
8
170
0
171
2
172
0
173
0
174
0
175
0
176
0
177
0
178
0
270
2
271
2
272
2
273
2
274
2
275
0
280
0
281
0
282
0
283
1
284
8
285
0
286
0
287
3
288
0
340
11
341
209
342
209
343
209
344
209
0
DIMSTYLE
105
20E
100
AcDbSymbolTableRecord
100
AcDbDimStyleTableRecord
2
DIMSTYLE_1
70
0
3

4

40
1.0
41
3.0000000000
42
0.0625
43
0.38
44
0.18
45
0.0
46
0.0
47
0.0000000000
48
0.0000000000
140
3.0000000000
141
0.09
142
0.0
143
25.4
144
1.0000000000
145
0.0
146
1.0000000000
147
0.09
71
0
72
0
73
0
74
0
75
0
76
0
77
1
78
8
170
0
171
2
172
0
173
0
174
0
175
0
176
0
177
0
178
0
270
2
271
2
272
2
273
2
274
2
275
0
280
0
281
0
282
0
283
1
284
8
285
0
286
0
287
3
288
0
340
11
341
209
342
209
343
209
344
209
0
ENDTAB
0
ENDSEC
0
SECTION
2
BLOCKS
0
BLOCK
5
20
100
AcDbEntity
8
0
100
AcDbBlockBegin
2
*MODEL_SPACE
70
0
10
0.0
20
0.0
30
0.0
3
*MODEL_SPACE
1

0
ENDBLK
5
21
100
AcDbEntity
8
0
100
AcDbBlockEnd
0
BLOCK
5
1C
100
AcDbEntity
8
0
100
AcDbBlockBegin
2
*PAPER_SPACE
70
0
10
0.0
20
0.0
30
0.0
3
*PAPER_SPACE
1

0
ENDBLK
5
1D
100
AcDbEntity
8
0
100
AcDbBlockEnd
0
BLOCK
5
20F
100
AcDbEntity
8
0
100
AcDbBlockBegin
62
0
6
CONTINUOUS
2
*D0
70
65
10
0.0000000000
20
0.0000000000
3
*D0
1

0
TEXT
5
210
100
AcDbEntity
8
0
100
AcDbText
62
0
6
CONTINUOUS
10
71.4771707575
20
-3.8696634368
7
STANDARD
40
3.0000000000
1
37,7
50
90.0000000000
41
0.7142857143
72
0
100
AcDbText
0
LINE
5
211
100
AcDbEntity
8
0
100
AcDbLine
62
0
6
CONTINUOUS
10
52.9974649034
20
-18.5431811362
11
73.7271707575
21
-18.5431811362
0
LINE
5
212
100
AcDbEntity
8
0
100
AcDbLine
62
0
6
CONTINUOUS
10
50.2271707575
20
19.1568188638
11
73.7271707575
21
19.1568188638
0
LINE
5
213
100
AcDbEntity
8
0
100
AcDbLine
62
0
6
CONTINUOUS
10
72.2271707575
20
-18.5431811362
11
72.2271707575
21
0.3068188638
0
LINE
5
214
100
AcDbEntity
8
0
100
AcDbLine
62
0
6
CONTINUOUS
10
72.2271707575
20
19.1568188638
11
72.2271707575
21
0.3068188638
0
INSERT
5
215
100
AcDbEntity
8
0
100
AcDbBlockReference
62
0
6
CONTINUOUS
2
_FILLED
10
72.2271707575
20
-18.5431811362
41
  3.000000
42
  3.000000
43
  3.000000
50
270.000000
0
INSERT
5
216
100
AcDbEntity
8
0
100
AcDbBlockReference
62
0
6
CONTINUOUS
2
_FILLED
10
72.2271707575
20
19.1568188638
41
  3.000000
42
  3.000000
43
  3.000000
50
 90.000000
0
ENDBLK
5
217
100
AcDbEntity
8
0
6
BYBLOCK
62
0
100
AcDbBlockEnd
0
BLOCK
5
218
100
AcDbEntity
8
0
100
AcDbBlockBegin
62
0
6
CONTINUOUS
2
*D1
70
65
10
0.0000000000
20
0.0000000000
3
*D1
1

0
TEXT
5
219
100
AcDbEntity
8
0
100
AcDbText
62
0
6
CONTINUOUS
10
47.7684033145
20
-25.7931811362
7
STANDARD
40
3.0000000000
1
29
41
0.7857142857
72
0
100
AcDbText
0
LINE
5
21A
100
AcDbEntity
8
0
100
AcDbLine
62
0
6
CONTINUOUS
10
35.2271707575
20
-18.5431811362
11
35.2271707575
21
-28.0431811362
0
LINE
5
21B
100
AcDbEntity
8
0
100
AcDbLine
62
0
6
CONTINUOUS
10
64.2271707575
20
-18.5431811362
11
64.2271707575
21
-28.0431811362
0
LINE
5
21C
100
AcDbEntity
8
0
100
AcDbLine
62
0
6
CONTINUOUS
10
35.2271707575
20
-26.5431811362
11
49.7271707575
21
-26.5431811362
0
LINE
5
21D
100
AcDbEntity
8
0
100
AcDbLine
62
0
6
CONTINUOUS
10
64.2271707575
20
-26.5431811362
11
49.7271707575
21
-26.5431811362
0
INSERT
5
21E
100
AcDbEntity
8
0
100
AcDbBlockReference
62
0
6
CONTINUOUS
2
_FILLED
10
35.2271707575
20
-26.5431811362
41
  3.000000
42
  3.000000
43
  3.000000
50
180.000000
0
INSERT
5
21F
100
AcDbEntity
8
0
100
AcDbBlockReference
62
0
6
CONTINUOUS
2
_FILLED
10
64.2271707575
20
-26.5431811362
41
  3.000000
42
  3.000000
43
  3.000000
0
ENDBLK
5
220
100
AcDbEntity
8
0
6
BYBLOCK
62
0
100
AcDbBlockEnd
0
BLOCK
5
221
100
AcDbEntity
8
0
100
AcDbBlockBegin
62
0
6
CONTINUOUS
2
*D2
70
65
10
0.0000000000
20
0.0000000000
3
*D2
1

0
TEXT
5
222
100
AcDbEntity
8
0
100
AcDbText
62
0
6
CONTINUOUS
10
-3.7961318688
20
-25.7931811362
7
STANDARD
40
3.0000000000
1
23,8
41
0.7142857143
72
0
100
AcDbText
0
LINE
5
223
100
AcDbEntity
8
0
100
AcDbLine
62
0
6
CONTINUOUS
10
11.9573370282
20
-18.5431811362
11
11.9573370282
21
-28.0431811362
0
LINE
5
224
100
AcDbEntity
8
0
100
AcDbLine
62
0
6
CONTINUOUS
10
-11.8426629718
20
-19.0431811362
11
-11.8426629718
21
-28.0431811362
0
LINE
5
225
100
AcDbEntity
8
0
100
AcDbLine
62
0
6
CONTINUOUS
10
11.9573370282
20
-26.5431811362
11
0.0573370282
21
-26.5431811362
0
LINE
5
226
100
AcDbEntity
8
0
100
AcDbLine
62
0
6
CONTINUOUS
10
-11.8426629718
20
-26.5431811362
11
0.0573370282
21
-26.5431811362
0
INSERT
5
227
100
AcDbEntity
8
0
100
AcDbBlockReference
62
0
6
CONTINUOUS
2
_FILLED
10
11.9573370282
20
-26.5431811362
41
  3.000000
42
  3.000000
43
  3.000000
0
INSERT
5
228
100
AcDbEntity
8
0
100
AcDbBlockReference
62
0
6
CONTINUOUS
2
_FILLED
10
-11.8426629718
20
-26.5431811362
41
  3.000000
42
  3.000000
43
  3.000000
50
180.000000
0
ENDBLK
5
229
100
AcDbEntity
8
0
6
BYBLOCK
62
0
100
AcDbBlockEnd
0
BLOCK
5
22A
100
AcDbEntity
8
0
100
AcDbBlockBegin
2
_FILLED
70
64
10
0.0000000000
20
0.0000000000
3
_FILLED
1

0
SOLID
5
22B
100
AcDbEntity
8
0
6
BYBLOCK
62
0
100
AcDbTrace
10
0.0000000000
20
0.0000000000
11
-1.0000000000
21
0.3166666667
12
-1.0000000000
22
-0.3166666667
13
-1.0000000000
23
-0.3166666667
0
ENDBLK
5
22C
100
AcDbEntity
8
0
6
BYBLOCK
62
0
100
AcDbBlockEnd
0
ENDSEC
0
SECTION
2
ENTITIES
0
DIMENSION
5
22D
100
AcDbEntity
8
0
100
AcDbDimension
62
0
6
CONTINUOUS
2
*D0
10
72.2271707575
20
19.1568188638
11
69.9771707575
21
0.4160508489
70
160
42
37.700000
3
DIMSTYLE_1
100
AcDbAlignedDimension
13
52.9974649034
23
-18.5431811362
14
50.2271707575
24
19.1568188638
50
90.000000
100
AcDbRotatedDimension
0
DIMENSION
5
22E
100
AcDbEntity
8
0
100
AcDbDimension
62
0
6
CONTINUOUS
2
*D1
10
64.2271707575
20
-26.5431811362
11
50.1255461717
21
-24.2931811362
70
160
42
29.000000
3
DIMSTYLE_1
100
AcDbAlignedDimension
13
35.2271707575
23
-18.5431811362
14
64.2271707575
24
-18.5431811362
100
AcDbRotatedDimension
0
DIMENSION
5
22F
100
AcDbEntity
8
0
100
AcDbDimension
62
0
6
CONTINUOUS
2
*D2
10
-11.8426629718
20
-26.5431811362
11
0.4895824169
21
-24.2931811362
70
160
42
23.800000
3
DIMSTYLE_1
100
AcDbAlignedDimension
13
11.9573370282
23
-18.5431811362
14
-11.8426629718
24
-19.0431811362
50
180.000000
100
AcDbRotatedDimension
0
LINE
5
230
100
AcDbEntity
8
0
100
AcDbLine
62
0
6
CONTINUOUS
10
63.7271707575
20
-18.5431811362
11
35.7271707575
21
-18.5431811362
0
LINE
5
231
100
AcDbEntity
8
0
100
AcDbLine
62
0
6
CONTINUOUS
10
35.4171642827
20
-13.7806730427
11
36.8709969956
21
-15.5979639338
0
LINE
5
232
100
AcDbEntity
8
0
100
AcDbLine
62
0
6
CONTINUOUS
10
36.6731767329
20
-13.5431811362
11
37.2271707575
21
-14.2356736668
0
LINE
5
233
100
AcDbEntity
8
0
100
AcDbLine
62
0
6
CONTINUOUS
10
36.1253990850
20
-17.2785747877
11
35.7764800590
21
-16.3713853203
0
LINE
5
234
100
AcDbEntity
8
0
100
AcDbLine
62
0
6
CONTINUOUS
10
61.8771707575
20
-17.5431811362
11
59.4771707575
21
-17.5431811362
0
LINE
5
235
100
AcDbEntity
8
0
100
AcDbLine
62
0
6
CONTINUOUS
10
58.4771707575
20
-17.5431811362
11
57.3667785629
21
-17.5431811362
0
LINE
5
236
100
AcDbEntity
8
0
100
AcDbLine
62
0
6
CONTINUOUS
10
39.9771707575
20
-17.5431811362
11
37.5771707575
21
-17.5431811362
0
LINE
5
237
100
AcDbEntity
8
0
100
AcDbLine
62
0
6
CONTINUOUS
10
40.9771707575
20
-17.5431811362
11
42.0875629520
21
-17.5431811362
0
LINE
5
238
100
AcDbEntity
8
0
100
AcDbLine
62
0
6
CONTINUOUS
10
42.1771707575
20
-17.5431811362
11
45.4271707575
21
-17.5431811362
0
LINE
5
239
100
AcDbEntity
8
0
100
AcDbLine
62
0
6
CONTINUOUS
10
54.0271707575
20
-17.5431811362
11
57.2771707575
21
-17.5431811362
0
LINE
5
23A
100
AcDbEntity
8
0
100
AcDbLine
62
0
6
CONTINUOUS
10
58.2771707575
20
-16.6771557324
11
57.2771707575
21
-16.6771557324
0
LINE
5
23B
100
AcDbEntity
8
0
100
AcDbLine
62
0
6
CONTINUOUS
10
41.1771707575
20
-16.6771557324
11
42.1771707575
21
-16.6771557324
0
LINE
5
23C
100
AcDbEntity
8
0
100
AcDbLine
62
0
6
CONTINUOUS
10
64.2271707575
20
-16.2431811362
11
63.8645305771
21
-16.2431811362
0
LINE
5
23D
100
AcDbEntity
8
0
100
AcDbLine
62
0
6
CONTINUOUS
10
35.5898109378
20
-16.2431811362
11
35.2271707575
21
-16.2431811362
0
LINE
5
23E
100
AcDbEntity
8
0
100
AcDbLine
62
0
6
CONTINUOUS
10
45.4271707575
20
-16.2431811362
11
47.0771707575
21
-16.2431811362
0
LINE
5
23F
100
AcDbEntity
8
0
100
AcDbLine
62
0
6
CONTINUOUS
10
52.3771707575
20
-16.2431811362
11
54.0271707575
21
-16.2431811362
0
LINE
5
240
100
AcDbEntity
8
0
100
AcDbLine
62
0
6
CONTINUOUS
10
47.0771707575
20
-15.6431811362
11
48.8786426200
21
-15.6431811362
0
LINE
5
241
100
AcDbEntity
8
0
100
AcDbLine
62
0
6
CONTINUOUS
10
50.5756988949
20
-15.6431811362
11
52.3771707575
21
-15.6431811362
0
LINE
5
242
100
AcDbEntity
8
0
100
AcDbLine
62
0
6
CONTINUOUS
10
45.2271707575
20
-15.5431811362
11
45.4271707575
21
-15.5431811362
0
LINE
5
243
100
AcDbEntity
8
0
100
AcDbLine
62
0
6
CONTINUOUS
10
35.2271707575
20
-16.2431811362
11
35.2271707575
21
-18.0431811362
0
LINE
5
244
100
AcDbEntity
8
0
100
AcDbLine
62
0
6
CONTINUOUS
10
54.2271707575
20
-14.7431811362
11
52.3771707575
21
-14.7431811362
0
LINE
5
245
100
AcDbEntity
8
0
100
AcDbLine
62
0
6
CONTINUOUS
10
47.0771707575
20
-14.7431811362
11
45.2271707575
21
-14.7431811362
0
LINE
5
246
100
AcDbEntity
8
0
100
AcDbLine
62
9
6
CONTINUOUS
10
47.8271707575
20
-14.6431811362
11
51.6271707575
21
-14.6431811362
0
LINE
5
247
100
AcDbEntity
8
0
100
AcDbLine
62
0
6
CONTINUOUS
10
48.1271707575
20
-14.3431811362
11
51.3271707575
21
-14.3431811362
0
LINE
5
248
100
AcDbEntity
8
0
100
AcDbLine
62
0
6
CONTINUOUS
10
63.6731767329
20
-14.2356736668
11
62.2271707575
21
-14.2356736668
0
LINE
5
249
100
AcDbEntity
8
0
100
AcDbLine
62
0
6
CONTINUOUS
10
35.7811647820
20
-14.2356736668
11
37.2271707575
21
-14.2356736668
0
LINE
5
24A
100
AcDbEntity
8
0
100
AcDbLine
62
0
6
CONTINUOUS
10
37.2271707575
20
6.6568188638
11
37.2271707575
21
-11.3431811362
0
LINE
5
24B
100
AcDbEntity
8
0
100
AcDbLine
62
0
6
CONTINUOUS
10
37.2271707575
20
-15.4730249243
11
37.2271707575
21
-12.1431811362
0
LINE
5
24C
100
AcDbEntity
8
0
100
AcDbLine
62
9
6
CONTINUOUS
10
47.5807241480
20
16.5961586921
11
47.9335925977
21
16.9490271417
0
LINE
5
24D
100
AcDbEntity
8
0
100
AcDbLine
62
0
6
CONTINUOUS
10
48.2271707575
20
14.6675928589
11
44.8720560841
21
13.1851464925
0
LINE
5
24E
100
AcDbEntity
8
0
100
AcDbLine
62
0
6
CONTINUOUS
10
51.2771707575
20
-13.6431811362
11
48.1771707575
21
-13.6431811362
0
LINE
5
24F
100
AcDbEntity
8
0
100
AcDbLine
62
0
6
CONTINUOUS
10
64.1411077095
20
-13.5431811362
11
62.7811647820
21
-13.5431811362
0
LINE
5
250
100
AcDbEntity
8
0
100
AcDbLine
62
0
6
CONTINUOUS
10
35.3132338054
20
-13.5431811362
11
36.6731767329
21
-13.5431811362
0
LINE
5
251
100
AcDbEntity
8
0
100
AcDbLine
62
0
6
CONTINUOUS
10
59.4771707575
20
-12.5431811362
11
58.4771707575
21
-12.5431811362
0
LINE
5
252
100
AcDbEntity
8
0
100
AcDbLine
62
0
6
CONTINUOUS
10
39.9771707575
20
-12.5431811362
11
40.9771707575
21
-12.5431811362
0
LINE
5
253
100
AcDbEntity
8
0
100
AcDbLine
62
9
6
CONTINUOUS
10
37.7271707575
20
6.6568188638
11
37.7271707575
21
-11.3431811362
0
LINE
5
254
100
AcDbEntity
8
0
100
AcDbLine
62
9
6
CONTINUOUS
10
38.0271707575
20
-11.6431811362
11
38.0271707575
21
-12.1431811362
0
LINE
5
255
100
AcDbEntity
8
0
100
AcDbLine
62
0
6
CONTINUOUS
10
38.3271707575
20
-17.5431811362
11
38.3271707575
21
-12.1431811362
0
LINE
5
256
100
AcDbEntity
8
0
100
AcDbLine
62
0
6
CONTINUOUS
10
44.7745614698
20
13.1116981623
11
42.4747971035
21
10.3413383759
0
LINE
5
257
100
AcDbEntity
8
0
100
AcDbLine
62
0
6
CONTINUOUS
10
37.2271707575
20
-12.1431811362
11
39.9771707575
21
-12.1431811362
0
LINE
5
258
100
AcDbEntity
8
0
100
AcDbLine
62
0
6
CONTINUOUS
10
59.4771707575
20
-12.1431811362
11
62.2271707575
21
-12.1431811362
0
LINE
5
259
100
AcDbEntity
8
0
100
AcDbLine
62
9
6
CONTINUOUS
10
38.0271707575
20
-11.6431811362
11
39.9771707575
21
-11.6431811362
0
LINE
5
25A
100
AcDbEntity
8
0
100
AcDbLine
62
9
6
CONTINUOUS
10
59.4771707575
20
-11.6431811362
11
61.2271707575
21
-11.6431811362
0
LINE
5
25B
100
AcDbEntity
8
0
100
AcDbLine
62
9
6
CONTINUOUS
10
37.7271707575
20
-11.3431811362
11
37.2271707575
21
-11.3431811362
0
LINE
5
25C
100
AcDbEntity
8
0
100
AcDbLine
62
9
6
CONTINUOUS
10
61.7271707575
20
-11.1431811362
11
62.2271707575
21
-11.1431811362
0
LINE
5
25D
100
AcDbEntity
8
0
100
AcDbLine
62
0
6
CONTINUOUS
10
40.9771707575
20
-10.7431811362
11
39.9771707575
21
-10.7431811362
0
LINE
5
25E
100
AcDbEntity
8
0
100
AcDbLine
62
0
6
CONTINUOUS
10
58.4771707575
20
-10.7431811362
11
59.4771707575
21
-10.7431811362
0
LINE
5
25F
100
AcDbEntity
8
0
100
AcDbLine
62
0
6
CONTINUOUS
10
39.9771707575
20
-10.7431811362
11
39.9771707575
21
-17.5431811362
0
LINE
5
260
100
AcDbEntity
8
0
100
AcDbLine
62
0
6
CONTINUOUS
10
42.4170467978
20
10.2285668578
11
41.5906668892
21
6.7142139781
0
LINE
5
261
100
AcDbEntity
8
0
100
AcDbLine
62
0
6
CONTINUOUS
10
51.5200639763
20
16.9497120827
11
52.7965223435
21
18.2261704499
0
LINE
5
262
100
AcDbEntity
8
0
100
AcDbLine
62
9
6
CONTINUOUS
10
51.8736173669
20
16.7174265046
11
53.1500757341
21
17.9938848718
0
LINE
5
263
100
AcDbEntity
8
0
100
AcDbLine
62
9
6
CONTINUOUS
10
51.9342775386
20
16.6568188638
11
51.8736173669
21
16.5961586921
0
LINE
5
264
100
AcDbEntity
8
0
100
AcDbLine
62
0
6
CONTINUOUS
10
40.9771707575
20
-10.7431811362
11
40.9771707575
21
-17.5431811362
0
LINE
5
265
100
AcDbEntity
8
0
100
AcDbLine
62
0
6
CONTINUOUS
10
41.1771707575
20
-17.5431811362
11
41.1771707575
21
-16.6771557324
0
LINE
5
266
100
AcDbEntity
8
0
100
AcDbLine
62
9
6
CONTINUOUS
10
44.5615969870
20
7.8302103678
11
44.7484822329
21
8.0648886686
0
LINE
5
267
100
AcDbEntity
8
0
100
AcDbLine
62
0
6
CONTINUOUS
10
52.3771707575
20
-14.7431811362
11
51.2771707575
21
-13.6431811362
0
LINE
5
268
100
AcDbEntity
8
0
100
AcDbLine
62
9
6
CONTINUOUS
10
42.0875629520
20
-17.5431811362
11
42.0875629520
21
-18.5431811362
0
LINE
5
269
100
AcDbEntity
8
0
100
AcDbLine
62
0
6
CONTINUOUS
10
42.1771707575
20
-17.5431811362
11
42.1771707575
21
-16.6771557324
0
LINE
5
26A
100
AcDbEntity
8
0
100
AcDbLine
62
0
6
CONTINUOUS
10
44.2549757939
20
12.4857908810
11
43.3282129917
21
7.2298578501
0
LINE
5
26B
100
AcDbEntity
8
0
100
AcDbLine
62
0
6
CONTINUOUS
10
43.6129387170
20
7.1169865347
11
44.6417599698
21
12.9517218011
0
LINE
5
26C
100
AcDbEntity
8
0
100
AcDbLine
62
0
6
CONTINUOUS
10
37.2271707575
20
-12.2356736668
11
36.6731767329
21
-13.5431811362
0
LINE
5
26D
100
AcDbEntity
8
0
100
AcDbLine
62
0
6
CONTINUOUS
10
36.9427488679
20
-9.6831303877
11
35.3506929131
21
-13.2652562859
0
LINE
5
26E
100
AcDbEntity
8
0
100
AcDbLine
62
0
6
CONTINUOUS
10
41.5884774649
20
6.6087347327
11
42.4182158401
21
3.0800992738
0
LINE
5
26F
100
AcDbEntity
8
0
100
AcDbLine
62
9
6
CONTINUOUS
10
44.0487243034
20
-17.5431811362
11
44.0487243034
21
-18.5431811362
0
LINE
5
270
100
AcDbEntity
8
0
100
AcDbLine
62
9
6
CONTINUOUS
10
55.0571611143
20
8.3747253795
11
54.7716259166
21
8.2826946733
0
LINE
5
271
100
AcDbEntity
8
0
100
AcDbLine
62
9
6
CONTINUOUS
10
44.3971804007
20
4.9389123482
11
44.6827155983
21
5.0309430544
0
LINE
5
272
100
AcDbEntity
8
0
100
AcDbLine
62
0
6
CONTINUOUS
10
43.3282129917
20
6.0837798775
11
44.2549757939
21
0.8278468466
0
LINE
5
273
100
AcDbEntity
8
0
100
AcDbLine
62
0
6
CONTINUOUS
10
44.6417599698
20
0.3619159266
11
43.6129387170
21
6.1966511930
0
LINE
5
274
100
AcDbEntity
8
0
100
AcDbLine
62
0
6
CONTINUOUS
10
45.2271707575
20
-17.5431811362
11
45.2271707575
21
-14.7431811362
0
LINE
5
275
100
AcDbEntity
8
0
100
AcDbLine
62
0
6
CONTINUOUS
10
45.4271707575
20
-17.5431811362
11
45.4271707575
21
-14.7431811362
0
LINE
5
276
100
AcDbEntity
8
0
100
AcDbLine
62
9
6
CONTINUOUS
10
45.4860055980
20
-16.2431811362
11
45.4860055980
21
-18.5431811362
0
LINE
5
277
100
AcDbEntity
8
0
100
AcDbLine
62
9
6
CONTINUOUS
10
46.3823987174
20
11.0068188638
11
46.3823987174
21
10.7068188638
0
LINE
5
278
100
AcDbEntity
8
0
100
AcDbLine
62
9
6
CONTINUOUS
10
46.3823987174
20
2.3068188638
11
46.3823987174
21
2.6068188638
0
LINE
5
279
100
AcDbEntity
8
0
100
AcDbLine
62
9
6
CONTINUOUS
10
46.0544798965
20
2.4293678777
11
46.2512311864
21
2.6558384717
0
LINE
5
27A
100
AcDbEntity
8
0
100
AcDbLine
62
9
6
CONTINUOUS
10
53.3998616184
20
10.8842698499
11
53.2031103285
21
10.6577992560
0
LINE
5
27B
100
AcDbEntity
8
0
100
AcDbLine
62
0
6
CONTINUOUS
10
42.4607139329
20
2.9892643288
11
44.7792244563
21
0.1963224027
0
LINE
5
27C
100
AcDbEntity
8
0
100
AcDbLine
62
9
6
CONTINUOUS
10
46.9568766115
20
-16.2431811362
11
46.9568766115
21
-18.5431811362
0
LINE
5
27D
100
AcDbEntity
8
0
100
AcDbLine
62
0
6
CONTINUOUS
10
47.0771707575
20
-16.2431811362
11
47.0771707575
21
-15.6431811362
0
LINE
5
27E
100
AcDbEntity
8
0
100
AcDbLine
62
9
6
CONTINUOUS
10
47.2271707575
20
11.0068188638
11
47.2271707575
21
10.7068188638
0
LINE
5
27F
100
AcDbEntity
8
0
100
AcDbLine
62
9
6
CONTINUOUS
10
47.2271707575
20
2.3068188638
11
47.2271707575
21
2.6068188638
0
LINE
5
280
100
AcDbEntity
8
0
100
AcDbLine
62
9
6
CONTINUOUS
10
47.4271707575
20
10.5068188638
11
47.4271707575
21
7.6366147610
0
LINE
5
281
100
AcDbEntity
8
0
100
AcDbLine
62
9
6
CONTINUOUS
10
47.4271707575
20
5.6770229667
11
47.4271707575
21
2.8068188638
0
LINE
5
282
100
AcDbEntity
8
0
100
AcDbLine
62
0
6
CONTINUOUS
10
47.7271707575
20
10.5068188638
11
47.7271707575
21
8.1568188638
0
LINE
5
283
100
AcDbEntity
8
0
100
AcDbLine
62
0
6
CONTINUOUS
10
47.7271707575
20
5.1568188638
11
47.7271707575
21
2.8068188638
0
LINE
5
284
100
AcDbEntity
8
0
100
AcDbLine
62
9
6
CONTINUOUS
10
47.7271707575
20
14.5576099635
11
47.7271707575
21
16.2426053015
0
LINE
5
285
100
AcDbEntity
8
0
100
AcDbLine
62
0
6
CONTINUOUS
10
47.8271707575
20
-15.6431811362
11
47.8271707575
21
-14.6431811362
0
LINE
5
286
100
AcDbEntity
8
0
100
AcDbLine
62
0
6
CONTINUOUS
10
48.2271707575
20
2.8068188638
11
48.2271707575
21
4.2073291211
0
LINE
5
287
100
AcDbEntity
8
0
100
AcDbLine
62
0
6
CONTINUOUS
10
48.2271707575
20
9.1063086066
11
48.2271707575
21
10.5068188638
0
LINE
5
288
100
AcDbEntity
8
0
100
AcDbLine
62
0
6
CONTINUOUS
10
48.2271707575
20
14.6675928589
11
48.2271707575
21
16.2426053015
0
LINE
5
289
100
AcDbEntity
8
0
100
AcDbLine
62
0
6
CONTINUOUS
10
48.2562258568
20
-1.3539551312
11
51.2271707575
21
-1.3539551312
0
LINE
5
28A
100
AcDbEntity
8
0
100
AcDbLine
62
0
6
CONTINUOUS
10
44.8521215025
20
0.1372992643
11
48.1950379621
21
-1.3397573614
0
LINE
5
28B
100
AcDbEntity
8
0
100
AcDbLine
62
0
6
CONTINUOUS
10
48.8786426200
20
-15.6431811362
11
48.8786426200
21
-14.6431811362
0
LINE
5
28C
100
AcDbEntity
8
0
100
AcDbLine
62
9
6
CONTINUOUS
10
44.5615969870
20
5.4834273599
11
44.7484822329
21
5.2487490591
0
LINE
5
28D
100
AcDbEntity
8
0
100
AcDbLine
62
0
6
CONTINUOUS
10
50.5756988949
20
-15.6431811362
11
50.5756988949
21
-14.6431811362
0
LINE
5
28E
100
AcDbEntity
8
0
100
AcDbLine
62
0
6
CONTINUOUS
10
51.2271707575
20
16.2426053015
11
51.2271707575
21
14.6675928589
0
LINE
5
28F
100
AcDbEntity
8
0
100
AcDbLine
62
0
6
CONTINUOUS
10
51.2271707575
20
2.8068188638
11
51.2271707575
21
4.2073291211
0
LINE
5
290
100
AcDbEntity
8
0
100
AcDbLine
62
0
6
CONTINUOUS
10
51.2271707575
20
9.1063086066
11
51.2271707575
21
10.5068188638
0
LINE
5
291
100
AcDbEntity
8
0
100
AcDbLine
62
9
6
CONTINUOUS
10
54.8927445280
20
5.4834273599
11
54.7058592820
21
5.2487490591
0
LINE
5
292
100
AcDbEntity
8
0
100
AcDbLine
62
0
6
CONTINUOUS
10
53.0719427975
20
1.8068188638
11
52.2271707575
21
1.8068188638
0
LINE
5
293
100
AcDbEntity
8
0
100
AcDbLine
62
0
6
CONTINUOUS
10
47.2271707575
20
1.8068188638
11
46.3823987174
21
1.8068188638
0
LINE
5
294
100
AcDbEntity
8
0
100
AcDbLine
62
0
6
CONTINUOUS
10
51.6271707575
20
-15.6431811362
11
51.6271707575
21
-14.6431811362
0
LINE
5
295
100
AcDbEntity
8
0
100
AcDbLine
62
9
6
CONTINUOUS
10
51.7271707575
20
16.2426053015
11
51.7271707575
21
14.5576099635
0
LINE
5
296
100
AcDbEntity
8
0
100
AcDbLine
62
0
6
CONTINUOUS
10
51.7271707575
20
2.8068188638
11
51.7271707575
21
5.1568188638
0
LINE
5
297
100
AcDbEntity
8
0
100
AcDbLine
62
0
6
CONTINUOUS
10
51.7271707575
20
8.1568188638
11
51.7271707575
21
10.5068188638
0
LINE
5
298
100
AcDbEntity
8
0
100
AcDbLine
62
9
6
CONTINUOUS
10
52.0271707575
20
2.8068188638
11
52.0271707575
21
5.6770229667
0
LINE
5
299
100
AcDbEntity
8
0
100
AcDbLine
62
9
6
CONTINUOUS
10
52.0271707575
20
7.6366147610
11
52.0271707575
21
10.5068188638
0
LINE
5
29A
100
AcDbEntity
8
0
100
AcDbLine
62
9
6
CONTINUOUS
10
52.2271707575
20
11.0068188638
11
52.2271707575
21
10.7068188638
0
LINE
5
29B
100
AcDbEntity
8
0
100
AcDbLine
62
9
6
CONTINUOUS
10
52.2271707575
20
2.3068188638
11
52.2271707575
21
2.6068188638
0
LINE
5
29C
100
AcDbEntity
8
0
100
AcDbLine
62
0
6
CONTINUOUS
10
52.3771707575
20
-16.2431811362
11
52.3771707575
21
-15.6431811362
0
LINE
5
29D
100
AcDbEntity
8
0
100
AcDbLine
62
9
6
CONTINUOUS
10
52.4974649034
20
-16.2431811362
11
52.4974649034
21
-18.5431811362
0
LINE
5
29E
100
AcDbEntity
8
0
100
AcDbLine
62
9
6
CONTINUOUS
10
53.0719427975
20
11.0068188638
11
53.0719427975
21
10.7068188638
0
LINE
5
29F
100
AcDbEntity
8
0
100
AcDbLine
62
9
6
CONTINUOUS
10
53.0719427975
20
2.3068188638
11
53.0719427975
21
2.6068188638
0
LINE
5
2A0
100
AcDbEntity
8
0
100
AcDbLine
62
0
6
CONTINUOUS
10
51.2553706280
20
-1.3414951113
11
54.6049595245
21
0.1385097088
0
LINE
5
2A1
100
AcDbEntity
8
0
100
AcDbLine
62
0
6
CONTINUOUS
10
53.0719427975
20
2.3068188638
11
52.2271707575
21
2.3068188638
0
LINE
5
2A2
100
AcDbEntity
8
0
100
AcDbLine
62
0
6
CONTINUOUS
10
47.2271707575
20
2.3068188638
11
46.3823987174
21
2.3068188638
0
LINE
5
2A3
100
AcDbEntity
8
0
100
AcDbLine
62
9
6
CONTINUOUS
10
53.0719427975
20
2.6068188638
11
52.2271707575
21
2.6068188638
0
LINE
5
2A4
100
AcDbEntity
8
0
100
AcDbLine
62
9
6
CONTINUOUS
10
47.2271707575
20
2.6068188638
11
46.3823987174
21
2.6068188638
0
LINE
5
2A5
100
AcDbEntity
8
0
100
AcDbLine
62
9
6
CONTINUOUS
10
47.7271707575
20
2.8068188638
11
47.4271707575
21
2.8068188638
0
LINE
5
2A6
100
AcDbEntity
8
0
100
AcDbLine
62
9
6
CONTINUOUS
10
51.7271707575
20
2.8068188638
11
52.0271707575
21
2.8068188638
0
LINE
5
2A7
100
AcDbEntity
8
0
100
AcDbLine
62
9
6
CONTINUOUS
10
53.9683359169
20
-16.2431811362
11
53.9683359169
21
-18.5431811362
0
LINE
5
2A8
100
AcDbEntity
8
0
100
AcDbLine
62
0
6
CONTINUOUS
10
54.0271707575
20
-17.5431811362
11
54.0271707575
21
-14.7431811362
0
LINE
5
2A9
100
AcDbEntity
8
0
100
AcDbLine
62
0
6
CONTINUOUS
10
54.2271707575
20
-17.5431811362
11
54.2271707575
21
-14.7431811362
0
LINE
5
2AA
100
AcDbEntity
8
0
100
AcDbLine
62
0
6
CONTINUOUS
10
54.6732660818
20
0.1940926649
11
56.9951849675
21
2.9911403985
0
LINE
5
2AB
100
AcDbEntity
8
0
100
AcDbLine
62
9
6
CONTINUOUS
10
53.3998616250
20
2.4293678835
11
53.2031103285
21
2.6558384717
0
LINE
5
2AC
100
AcDbEntity
8
0
100
AcDbLine
62
9
6
CONTINUOUS
10
46.0544798899
20
10.8842698442
11
46.2512311864
21
10.6577992560
0
LINE
5
2AD
100
AcDbEntity
8
0
100
AcDbLine
62
9
6
CONTINUOUS
10
55.4056172115
20
-18.5431811362
11
55.4056172115
21
-17.5431811362
0
LINE
5
2AE
100
AcDbEntity
8
0
100
AcDbLine
62
0
6
CONTINUOUS
10
55.8306861973
20
6.1358743308
11
54.8125815451
21
0.3619159266
0
LINE
5
2AF
100
AcDbEntity
8
0
100
AcDbLine
62
0
6
CONTINUOUS
10
55.1993657210
20
0.8278468466
11
56.1261285232
21
6.0837798775
0
LINE
5
2B0
100
AcDbEntity
8
0
100
AcDbLine
62
0
6
CONTINUOUS
10
57.0357013334
20
3.0782946735
11
57.8664465443
21
6.6112119111
0
LINE
5
2B1
100
AcDbEntity
8
0
100
AcDbLine
62
9
6
CONTINUOUS
10
37.7271707575
20
6.6568188638
11
37.2271707575
21
6.6568188638
0
LINE
5
2B2
100
AcDbEntity
8
0
100
AcDbLine
62
9
6
CONTINUOUS
10
61.7271707575
20
6.6568188638
11
62.2271707575
21
6.6568188400
0
LINE
5
2B3
100
AcDbEntity
8
0
100
AcDbLine
62
9
6
CONTINUOUS
10
55.0571611169
20
4.9389123565
11
54.7716259166
21
5.0309430544
0
LINE
5
2B4
100
AcDbEntity
8
0
100
AcDbLine
62
9
6
CONTINUOUS
10
44.3971803980
20
8.3747253712
11
44.6827155983
21
8.2826946733
0
LINE
5
2B5
100
AcDbEntity
8
0
100
AcDbLine
62
0
6
CONTINUOUS
10
57.2771707575
20
-17.5431811362
11
57.2771707575
21
-16.6771557324
0
LINE
5
2B6
100
AcDbEntity
8
0
100
AcDbLine
62
9
6
CONTINUOUS
10
57.3667785629
20
-18.5431811362
11
57.3667785629
21
-17.5431811362
0
LINE
5
2B7
100
AcDbEntity
8
0
100
AcDbLine
62
0
6
CONTINUOUS
10
47.9345124333
20
16.9493929404
11
47.9343300470
21
16.9496595743
0
LINE
5
2B8
100
AcDbEntity
8
0
100
AcDbLine
62
0
6
CONTINUOUS
10
64.1036486018
20
-13.2652562859
11
62.5115926470
21
-9.6831303877
0
LINE
5
2B9
100
AcDbEntity
8
0
100
AcDbLine
62
0
6
CONTINUOUS
10
62.7811647820
20
-13.5431811362
11
62.2271707575
21
-12.2356736668
0
LINE
5
2BA
100
AcDbEntity
8
0
100
AcDbLine
62
0
6
CONTINUOUS
10
54.8125815451
20
12.9517218011
11
55.8306861973
21
7.1777633968
0
LINE
5
2BB
100
AcDbEntity
8
0
100
AcDbLine
62
0
6
CONTINUOUS
10
56.1261285232
20
7.2298578501
11
55.1993657210
21
12.4857908810
0
LINE
5
2BC
100
AcDbEntity
8
0
100
AcDbLine
62
0
6
CONTINUOUS
10
58.2771707575
20
-17.5431811362
11
58.2771707575
21
-16.6771557324
0
LINE
5
2BD
100
AcDbEntity
8
0
100
AcDbLine
62
0
6
CONTINUOUS
10
58.4771707575
20
-10.7431811362
11
58.4771707575
21
-17.5431811362
0
LINE
5
2BE
100
AcDbEntity
8
0
100
AcDbLine
62
0
6
CONTINUOUS
10
48.1771707575
20
-13.6431811362
11
47.0771707575
21
-14.7431811362
0
LINE
5
2BF
100
AcDbEntity
8
0
100
AcDbLine
62
9
6
CONTINUOUS
10
54.8927445279
20
7.8302103678
11
54.7058592820
21
8.0648886686
0
LINE
5
2C0
100
AcDbEntity
8
0
100
AcDbLine
62
0
6
CONTINUOUS
10
57.8641328443
20
6.7122653082
11
57.0370344964
21
10.2296735006
0
LINE
5
2C1
100
AcDbEntity
8
0
100
AcDbLine
62
0
6
CONTINUOUS
10
59.4771707575
20
-10.7431811362
11
59.4771707575
21
-17.5431811362
0
LINE
5
2C2
100
AcDbEntity
8
0
100
AcDbLine
62
9
6
CONTINUOUS
10
47.7271707575
20
10.5068188638
11
47.4271707575
21
10.5068188638
0
LINE
5
2C3
100
AcDbEntity
8
0
100
AcDbLine
62
9
6
CONTINUOUS
10
51.7271707575
20
10.5068188638
11
52.0271707575
21
10.5068188638
0
LINE
5
2C4
100
AcDbEntity
8
0
100
AcDbLine
62
9
6
CONTINUOUS
10
46.3823987174
20
10.7068188638
11
47.2271707575
21
10.7068188638
0
LINE
5
2C5
100
AcDbEntity
8
0
100
AcDbLine
62
9
6
CONTINUOUS
10
52.2271707575
20
10.7068188638
11
53.0719427975
21
10.7068188638
0
LINE
5
2C6
100
AcDbEntity
8
0
100
AcDbLine
62
0
6
CONTINUOUS
10
46.3823987174
20
11.0068188638
11
47.2271707575
21
11.0068188638
0
LINE
5
2C7
100
AcDbEntity
8
0
100
AcDbLine
62
0
6
CONTINUOUS
10
52.2271707575
20
11.0068188638
11
53.0719427975
21
11.0068188638
0
LINE
5
2C8
100
AcDbEntity
8
0
100
AcDbLine
62
0
6
CONTINUOUS
10
46.3823987174
20
11.5068188638
11
47.2271707575
21
11.5068188638
0
LINE
5
2C9
100
AcDbEntity
8
0
100
AcDbLine
62
0
6
CONTINUOUS
10
52.2271707575
20
11.5068188638
11
53.0719427975
21
11.5068188638
0
LINE
5
2CA
100
AcDbEntity
8
0
100
AcDbLine
62
9
6
CONTINUOUS
10
47.5807241480
20
16.5961586921
11
47.5200639763
21
16.6568188638
0
LINE
5
2CB
100
AcDbEntity
8
0
100
AcDbLine
62
9
6
CONTINUOUS
10
47.5807241480
20
16.7174265046
11
46.3042657808
21
17.9938848718
0
LINE
5
2CC
100
AcDbEntity
8
0
100
AcDbLine
62
0
6
CONTINUOUS
10
47.9342775386
20
16.9497120827
11
46.6570737794
21
18.2269158419
0
LINE
5
2CD
100
AcDbEntity
8
0
100
AcDbLine
62
0
6
CONTINUOUS
10
61.1271707575
20
-17.5431811362
11
61.1271707575
21
-12.1431811362
0
LINE
5
2CE
100
AcDbEntity
8
0
100
AcDbLine
62
9
6
CONTINUOUS
10
61.2271707575
20
-11.6431811362
11
61.2271707573
21
-12.1431811362
0
LINE
5
2CF
100
AcDbEntity
8
0
100
AcDbLine
62
9
6
CONTINUOUS
10
61.7271707575
20
-11.1431811362
11
61.7271707575
21
6.6568188638
0
LINE
5
2D0
100
AcDbEntity
8
0
100
AcDbLine
62
0
6
CONTINUOUS
10
62.2271707575
20
-12.1431811362
11
62.2271707575
21
-15.4730249243
0
LINE
5
2D1
100
AcDbEntity
8
0
100
AcDbLine
62
0
6
CONTINUOUS
10
62.2271707575
20
-11.1431811362
11
62.2271707575
21
6.6568188638
0
LWPOLYLINE
5
2D2
100
AcDbEntity
8
0
100
AcDbPolyline
62
0
6
CONTINUOUS
90
6
70
0
10
47.9311552564
20
16.9514868046
10
47.9324071816
20
16.9506465430
10
47.9333700987
20
16.9500205012
10
47.9340439227
20
16.9496087282
10
47.9344285727
20
16.9494112774
10
47.9345124333
20
16.9493929404
0
LINE
5
2D3
100
AcDbEntity
8
0
100
AcDbLine
62
0
6
CONTINUOUS
10
56.9798028368
20
10.3410270695
11
54.6795498796
21
13.1119754261
0
LINE
5
2D4
100
AcDbEntity
8
0
100
AcDbLine
62
0
6
CONTINUOUS
10
54.5822601791
20
13.1851576499
11
51.2271707575
21
14.6675928589
0
LINE
5
2D5
100
AcDbEntity
8
0
100
AcDbLine
62
9
6
CONTINUOUS
10
51.8736173669
20
16.5961586921
11
51.5232168461
21
16.9465594124
0
LINE
5
2D6
100
AcDbEntity
8
0
100
AcDbLine
62
0
6
CONTINUOUS
10
64.2271707575
20
-18.0431811362
11
64.2271707575
21
-16.2431811362
0
LINE
5
2D7
100
AcDbEntity
8
0
100
AcDbLine
62
9
6
CONTINUOUS
10
51.7271707575
20
16.2426053015
11
51.2271707575
21
16.2426053015
0
LINE
5
2D8
100
AcDbEntity
8
0
100
AcDbLine
62
9
6
CONTINUOUS
10
47.7271707575
20
16.2426053015
11
48.2271707575
21
16.2426053016
0
LINE
5
2D9
100
AcDbEntity
8
0
100
AcDbLine
62
0
6
CONTINUOUS
10
43.0939211767
20
16.6568188638
11
47.5200639763
21
16.6568188638
0
LINE
5
2DA
100
AcDbEntity
8
0
100
AcDbLine
62
0
6
CONTINUOUS
10
51.9342775386
20
16.6568188638
11
56.3604203382
21
16.6568188638
0
LINE
5
2DB
100
AcDbEntity
8
0
100
AcDbLine
62
0
6
CONTINUOUS
10
63.6778614559
20
-16.3713853203
11
63.3289424300
21
-17.2785747877
0
LINE
5
2DC
100
AcDbEntity
8
0
100
AcDbLine
62
0
6
CONTINUOUS
10
62.7811647820
20
-13.5431811362
11
62.2271707575
21
-14.2356736668
0
LINE
5
2DD
100
AcDbEntity
8
0
100
AcDbLine
62
0
6
CONTINUOUS
10
53.8320168088
20
18.4636066952
11
53.8319419494
21
18.4636327212
0
LINE
5
2DE
100
AcDbEntity
8
0
100
AcDbLine
62
0
6
CONTINUOUS
10
62.5833445193
20
-15.5979639338
11
64.0371772322
21
-13.7806730427
0
LINE
5
2DF
100
AcDbEntity
8
0
100
AcDbLine
62
0
6
CONTINUOUS
10
11.9573370282
20
-18.5431811362
11
-11.8426629718
21
-18.5431811362
0
LINE
5
2E0
100
AcDbEntity
8
0
100
AcDbLine
62
9
6
CONTINUOUS
10
11.9573370282
20
-18.0431811362
11
-1.8426629718
21
-18.0431811362
0
LINE
5
2E1
100
AcDbEntity
8
0
100
AcDbLine
62
0
6
CONTINUOUS
10
-1.8446713699
20
-17.5431811362
11
-10.3426629718
21
-17.5431811362
0
LINE
5
2E2
100
AcDbEntity
8
0
100
AcDbLine
62
0
6
CONTINUOUS
10
-9.1426629718
20
-15.6431811362
11
-9.6426629718
21
-15.1431811362
0
LINE
5
2E3
100
AcDbEntity
8
0
100
AcDbLine
62
0
6
CONTINUOUS
10
-11.8426629718
20
-16.2431811362
11
11.9573370282
21
-16.2431811362
0
LINE
5
2E4
100
AcDbEntity
8
0
100
AcDbLine
62
0
6
CONTINUOUS
10
-0.0426629718
20
-15.6730249243
11
7.1573370282
21
-15.6730249243
0
LINE
5
2E5
100
AcDbEntity
8
0
100
AcDbLine
62
0
6
CONTINUOUS
10
-11.8426629718
20
-15.6431811362
11
-10.1426629718
21
-15.6431811362
0
LINE
5
2E6
100
AcDbEntity
8
0
100
AcDbLine
62
0
6
CONTINUOUS
10
-9.1426629718
20
-15.6431811362
11
-8.2459363803
21
-15.6431811362
0
LINE
5
2E7
100
AcDbEntity
8
0
100
AcDbLine
62
9
6
CONTINUOUS
10
-0.0426629718
20
-15.5979639338
11
7.1573370282
21
-15.5979639338
0
LINE
5
2E8
100
AcDbEntity
8
0
100
AcDbLine
62
0
6
CONTINUOUS
10
-10.1426629718
20
-15.1431811362
11
-9.6426629718
21
-15.1431811362
0
LINE
5
2E9
100
AcDbEntity
8
0
100
AcDbLine
62
9
6
CONTINUOUS
10
-11.8426629718
20
-14.6431811362
11
-10.1426629718
21
-14.6431811362
0
LINE
5
2EA
100
AcDbEntity
8
0
100
AcDbLine
62
0
6
CONTINUOUS
10
-11.5426629718
20
-14.3431811362
11
-8.2459363803
21
-14.3431811362
0
LINE
5
2EB
100
AcDbEntity
8
0
100
AcDbLine
62
9
6
CONTINUOUS
10
0.6143847276
20
-13.7806730427
11
7.1573370282
21
-13.7806730427
0
LINE
5
2EC
100
AcDbEntity
8
0
100
AcDbLine
62
9
6
CONTINUOUS
10
0.9573370282
20
-13.2652562859
11
7.1573370282
21
-13.2652562859
0
LINE
5
2ED
100
AcDbEntity
8
0
100
AcDbLine
62
0
6
CONTINUOUS
10
-11.8426629718
20
-18.5431811362
11
-11.8426629718
21
-14.6431811362
0
LINE
5
2EE
100
AcDbEntity
8
0
100
AcDbLine
62
0
6
CONTINUOUS
10
7.6573370282
20
-12.1431811362
11
7.1573370282
21
-12.1431811362
0
LINE
5
2EF
100
AcDbEntity
8
0
100
AcDbLine
62
0
6
CONTINUOUS
10
0.4573370282
20
-12.1431811362
11
0.9573370282
21
-12.1431811362
0
LINE
5
2F0
100
AcDbEntity
8
0
100
AcDbLine
62
9
6
CONTINUOUS
10
-10.6368371745
20
-16.2431811362
11
-10.6368371745
21
-18.5431811362
0
LINE
5
2F1
100
AcDbEntity
8
0
100
AcDbLine
62
0
6
CONTINUOUS
10
-10.3426629718
20
-17.5431811362
11
-10.3426629718
21
-16.2431811362
0
LINE
5
2F2
100
AcDbEntity
8
0
100
AcDbLine
62
0
6
CONTINUOUS
10
-10.1426629718
20
-16.2431811362
11
-10.1426629718
21
-14.3431811362
0
LINE
5
2F3
100
AcDbEntity
8
0
100
AcDbLine
62
9
6
CONTINUOUS
10
-0.0426629718
20
-11.1431811362
11
0.9573370282
21
-11.1431811362
0
LINE
5
2F4
100
AcDbEntity
8
0
100
AcDbLine
62
0
6
CONTINUOUS
10
-8.8143772861
20
-15.6431811362
11
-8.8143772861
21
-14.3431811362
0
LINE
5
2F5
100
AcDbEntity
8
0
100
AcDbLine
62
9
6
CONTINUOUS
10
7.1573370282
20
-9.6831303877
11
0.9573370282
21
-9.6831303877
0
LINE
5
2F6
100
AcDbEntity
8
0
100
AcDbLine
62
0
6
CONTINUOUS
10
8.7573370282
20
-8.5431811362
11
7.1573370282
21
-8.5431811362
0
LINE
5
2F7
100
AcDbEntity
8
0
100
AcDbLine
62
0
6
CONTINUOUS
10
-8.2426629718
20
-15.6431811362
11
-8.2426629718
21
-14.3431811362
0
LINE
5
2F8
100
AcDbEntity
8
0
100
AcDbLine
62
9
6
CONTINUOUS
10
7.1573370282
20
-8.3428734497
11
0.9573370282
21
-8.3428734497
0
LINE
5
2F9
100
AcDbEntity
8
0
100
AcDbLine
62
9
6
CONTINUOUS
10
-3.4504307015
20
-18.5431811362
11
-3.4504307015
21
-17.5431811362
0
LINE
5
2FA
100
AcDbEntity
8
0
100
AcDbLine
62
0
6
CONTINUOUS
10
-0.0426629718
20
16.6568188638
11
0.3282148093
21
18.1403299880
0
LINE
5
2FB
100
AcDbEntity
8
0
100
AcDbLine
62
0
6
CONTINUOUS
10
-1.8426629718
20
-18.5431811362
11
-1.8426629718
21
-12.5431811362
0
LINE
5
2FC
100
AcDbEntity
8
0
100
AcDbLine
62
0
6
CONTINUOUS
10
-0.0426629718
20
-15.6728132433
11
-0.0426629718
21
-14.2356736668
0
LINE
5
2FD
100
AcDbEntity
8
0
100
AcDbLine
62
0
6
CONTINUOUS
10
-0.0426629718
20
-11.6431811362
11
-0.0426629718
21
16.6568188638
0
LINE
5
2FE
100
AcDbEntity
8
0
100
AcDbLine
62
9
6
CONTINUOUS
10
0.4573370282
20
-12.1431811362
11
0.4573370282
21
17.0093680253
0
LINE
5
2FF
100
AcDbEntity
8
0
100
AcDbLine
62
0
6
CONTINUOUS
10
0.9573370282
20
-13.5431811362
11
0.9573370282
21
-8.3428734497
0
LINE
5
300
100
AcDbEntity
8
0
100
AcDbLine
62
0
6
CONTINUOUS
10
8.7573370282
20
-9.5431811362
11
11.5190746471
21
-12.9953531598
0
LINE
5
301
100
AcDbEntity
8
0
100
AcDbLine
62
0
6
CONTINUOUS
10
7.1573370282
20
-15.6728132433
11
7.1573370282
21
-8.5431811362
0
LINE
5
302
100
AcDbEntity
8
0
100
AcDbLine
62
0
6
CONTINUOUS
10
7.6573370282
20
19.1560814961
11
7.6573370282
21
18.4636066952
0
LINE
5
303
100
AcDbEntity
8
0
100
AcDbLine
62
0
6
CONTINUOUS
10
7.6573370282
20
-16.2431811362
11
7.6573370282
21
-12.1431811362
0
LINE
5
304
100
AcDbEntity
8
0
100
AcDbLine
62
9
6
CONTINUOUS
10
-0.0426629718
20
6.6568188638
11
8.7573370282
21
6.6568188638
0
LINE
5
305
100
AcDbEntity
8
0
100
AcDbLine
62
9
6
CONTINUOUS
10
8.2573370282
20
19.1568188638
11
8.2573370282
21
-8.5431811362
0
LINE
5
306
100
AcDbEntity
8
0
100
AcDbLine
62
0
6
CONTINUOUS
10
8.7573370282
20
-9.5431811362
11
8.7573370282
21
18.6568188638
0
LINE
5
307
100
AcDbEntity
8
0
100
AcDbLine
62
0
6
CONTINUOUS
10
-0.0426629718
20
-10.7431811362
11
-1.8426629718
21
-12.5431811362
0
LINE
5
308
100
AcDbEntity
8
0
100
AcDbLine
62
0
6
CONTINUOUS
10
11.9573370282
20
-18.5431811362
11
11.9573370282
21
-14.2447432549
0
LINE
5
309
100
AcDbEntity
8
0
100
AcDbLine
62
0
6
CONTINUOUS
10
-0.0426629718
20
-14.2356736668
11
0.9573370282
21
-13.5431811362
0
LINE
5
30A
100
AcDbEntity
8
0
100
AcDbLine
62
9
6
CONTINUOUS
10
7.6573370282
20
18.4636066952
11
0.8063617054
21
18.4636327212
0
LINE
5
30B
100
AcDbEntity
8
0
100
AcDbLine
62
0
6
CONTINUOUS
10
7.6573370282
20
18.5190636687
11
0.8130479489
21
18.5190636687
0
LINE
5
30C
100
AcDbEntity
8
0
100
AcDbLine
62
0
6
CONTINUOUS
10
8.2573370282
20
19.1568188638
11
7.6573370282
21
19.1568188638
0
ARC
5
30D
100
AcDbEntity
8
0
100
AcDbCircle
62
0
6
CONTINUOUS
10
51.3271707575
20
-14.6431811362
40
0.3000000000
100
AcDbArc
50
0.0000000000
51
90.0000000000
0
ARC
5
30E
100
AcDbEntity
8
0
100
AcDbCircle
62
0
6
CONTINUOUS
10
33.9271707575
20
-8.3428734497
40
3.3000000000
100
AcDbArc
50
336.0375110254
51
360.0000000000
0
ARC
5
30F
100
AcDbEntity
8
0
100
AcDbCircle
62
0
6
CONTINUOUS
10
65.5271707575
20
-8.3428734497
40
3.3000000000
100
AcDbArc
50
180.0000000000
51
203.9624889746
0
ARC
5
310
100
AcDbEntity
8
0
100
AcDbCircle
62
0
6
CONTINUOUS
10
52.8762629382
20
6.6568188638
40
3.0000000000
100
AcDbArc
50
350.0000000000
51
10.0000000000
0
ARC
5
311
100
AcDbEntity
8
0
100
AcDbCircle
62
0
6
CONTINUOUS
10
46.2226792625
20
6.6568188638
40
2.6500000000
100
AcDbArc
50
170.0000000000
51
190.0000000000
0
ARC
5
312
100
AcDbEntity
8
0
100
AcDbCircle
62
0
6
CONTINUOUS
10
35.5898109378
20
-16.4431811362
40
0.2000000000
100
AcDbArc
50
21.0375110254
51
90.0000000000
0
ARC
5
313
100
AcDbEntity
8
0
100
AcDbCircle
62
0
6
CONTINUOUS
10
36.8271707575
20
-17.5431811362
40
0.7500000000
100
AcDbArc
50
0.0000000000
51
159.3408101122
0
ARC
5
314
100
AcDbEntity
8
0
100
AcDbCircle
62
0
6
CONTINUOUS
10
35.7271707575
20
-18.0431811362
40
0.5000000000
100
AcDbArc
50
180.0000000000
51
270.0000000000
0
ARC
5
315
100
AcDbEntity
8
0
100
AcDbCircle
62
0
6
CONTINUOUS
10
63.8645305771
20
-16.4431811362
40
0.2000000000
100
AcDbArc
50
90.0000000000
51
158.9624889746
0
ARC
5
316
100
AcDbEntity
8
0
100
AcDbCircle
62
0
6
CONTINUOUS
10
63.7271707575
20
-18.0431811362
40
0.5000000000
100
AcDbArc
50
270.0000000000
51
360.0000000000
0
ARC
5
317
100
AcDbEntity
8
0
100
AcDbCircle
62
0
6
CONTINUOUS
10
62.6271707575
20
-17.5431811362
40
0.7500000000
100
AcDbArc
50
20.6591898878
51
180.0000000000
0
ARC
5
318
100
AcDbEntity
8
0
100
AcDbCircle
62
0
6
CONTINUOUS
10
61.2271707575
20
-11.1431811362
40
1.0000000000
100
AcDbArc
50
270.0000000000
51
360.0000000000
0
ARC
5
319
100
AcDbEntity
8
0
100
AcDbCircle
62
0
6
CONTINUOUS
10
38.0271707575
20
-11.3431811362
40
0.8000000000
100
AcDbArc
50
180.0000000000
51
270.0000000000
0
ARC
5
31A
100
AcDbEntity
8
0
100
AcDbCircle
62
0
6
CONTINUOUS
10
53.5036291247
20
17.5190636687
40
1.0000000000
100
AcDbArc
50
70.8335972875
51
135.0000000000
0
ARC
5
31B
100
AcDbEntity
8
0
100
AcDbCircle
62
0
6
CONTINUOUS
10
49.7271707575
20
6.6568188638
40
6.1000000000
100
AcDbArc
50
130.9831959417
51
162.1353758726
0
ARC
5
31C
100
AcDbEntity
8
0
100
AcDbCircle
62
0
6
CONTINUOUS
10
52.2271707575
20
16.2426053015
40
1.0000000000
100
AcDbArc
50
135.0000000000
51
180.0000000000
0
ARC
5
31D
100
AcDbEntity
8
0
100
AcDbCircle
62
0
6
CONTINUOUS
10
45.9507123902
20
17.5190636687
40
1.0000000000
100
AcDbArc
50
45.0603989085
51
109.1669754282
0
ARC
5
31E
100
AcDbEntity
8
0
100
AcDbCircle
62
0
6
CONTINUOUS
10
49.7271707575
20
6.6568188638
40
6.1000000000
100
AcDbArc
50
197.8646241274
51
229.0168040583
0
ARC
5
31F
100
AcDbEntity
8
0
100
AcDbCircle
62
0
6
CONTINUOUS
10
47.2271707575
20
16.2426053015
40
1.0000000000
100
AcDbArc
50
0.0000000000
51
45.0000000000
0
ARC
5
320
100
AcDbEntity
8
0
100
AcDbCircle
62
0
6
CONTINUOUS
10
49.7271707575
20
6.6568188638
40
6.1000000000
100
AcDbArc
50
17.8646241274
51
49.0168040583
0
ARC
5
321
100
AcDbEntity
8
0
100
AcDbCircle
62
0
6
CONTINUOUS
10
49.7271707575
20
6.6568188638
40
6.1000000000
100
AcDbArc
50
310.9831959417
51
342.1353758726
0
ARC
5
322
100
AcDbEntity
8
0
100
AcDbCircle
62
0
6
CONTINUOUS
10
46.5780785767
20
6.6568188638
40
3.3000000000
100
AcDbArc
50
170.0000000000
51
190.0000000000
0
ARC
5
323
100
AcDbEntity
8
0
100
AcDbCircle
62
0
6
CONTINUOUS
10
52.8762629382
20
6.6568188638
40
3.3000000000
100
AcDbArc
50
350.0000000000
51
10.0000000000
0
ARC
5
324
100
AcDbEntity
8
0
100
AcDbCircle
62
0
6
CONTINUOUS
10
49.7271707575
20
6.6568188638
40
12.5000000000
100
AcDbArc
50
359.9999998210
51
180.0000003069
0
ARC
5
325
100
AcDbEntity
8
0
100
AcDbCircle
62
0
6
CONTINUOUS
10
62.4271707575
20
-15.4730249243
40
0.2000000000
100
AcDbArc
50
180.0000000000
51
321.3401917459
0
ARC
5
326
100
AcDbEntity
8
0
100
AcDbCircle
62
0
6
CONTINUOUS
10
37.0271707575
20
-15.4730249243
40
0.2000000000
100
AcDbArc
50
218.6598082541
51
360.0000000000
0
ARC
5
327
100
AcDbEntity
8
0
100
AcDbCircle
62
0
6
CONTINUOUS
10
63.6467428275
20
-13.4683255189
40
0.5000000000
100
AcDbArc
50
321.3401917459
51
23.9624889746
0
ARC
5
328
100
AcDbEntity
8
0
100
AcDbCircle
62
0
6
CONTINUOUS
10
35.8075986874
20
-13.4683255189
40
0.5000000000
100
AcDbArc
50
156.0375110254
51
218.6598082541
0
ARC
5
329
100
AcDbEntity
8
0
100
AcDbCircle
62
0
6
CONTINUOUS
10
43.6271707575
20
6.6568188638
40
1.0000000000
100
AcDbArc
50
308.5319406209
51
51.4680593791
0
ARC
5
32A
100
AcDbEntity
8
0
100
AcDbCircle
62
0
6
CONTINUOUS
10
55.8271707575
20
6.6568188638
40
1.0000000000
100
AcDbArc
50
128.5319406209
51
231.4680593791
0
ARC
5
32B
100
AcDbEntity
8
0
100
AcDbCircle
62
0
6
CONTINUOUS
10
48.1271707575
20
-14.6431811362
40
0.3000000000
100
AcDbArc
50
90.0000000000
51
180.0000000000
0
ARC
5
32C
100
AcDbEntity
8
0
100
AcDbCircle
62
0
6
CONTINUOUS
10
49.7271707575
20
6.6568188638
40
2.5000000000
100
AcDbArc
50
135.5846914028
51
224.4153085972
0
ARC
5
32D
100
AcDbEntity
8
0
100
AcDbCircle
62
0
6
CONTINUOUS
10
49.7271707575
20
6.6568188638
40
2.5000000000
100
AcDbArc
50
315.5846914028
51
44.4153085972
0
ARC
5
32E
100
AcDbEntity
8
0
100
AcDbCircle
62
0
6
CONTINUOUS
10
52.2271707575
20
2.8068188638
40
0.5000000000
100
AcDbArc
50
180.0000000000
51
270.0000000000
0
ARC
5
32F
100
AcDbEntity
8
0
100
AcDbCircle
62
0
6
CONTINUOUS
10
53.0719427975
20
2.8068188638
40
0.5000000000
100
AcDbArc
50
270.0000000000
51
310.9831959417
0
ARC
5
330
100
AcDbEntity
8
0
100
AcDbCircle
62
0
6
CONTINUOUS
10
49.7271707575
20
6.6568188638
40
5.6000000000
100
AcDbArc
50
310.9831959417
51
342.1353758726
0
ARC
5
331
100
AcDbEntity
8
0
100
AcDbCircle
62
0
6
CONTINUOUS
10
54.5812691181
20
5.0922968585
40
0.5000000000
100
AcDbArc
50
342.1353758726
51
51.4680593791
0
ARC
5
332
100
AcDbEntity
8
0
100
AcDbCircle
62
0
6
CONTINUOUS
10
47.2271707575
20
9.1063086066
40
1.0000000000
100
AcDbArc
50
315.5846914028
51
360.0000000000
0
ARC
5
333
100
AcDbEntity
8
0
100
AcDbCircle
62
0
6
CONTINUOUS
10
55.8271707575
20
6.6568188638
40
1.5000000000
100
AcDbArc
50
128.5319406209
51
231.4680593791
0
ARC
5
334
100
AcDbEntity
8
0
100
AcDbCircle
62
0
6
CONTINUOUS
10
54.5812691181
20
8.2213408691
40
0.5000000000
100
AcDbArc
50
308.5319406209
51
17.8646241274
0
ARC
5
335
100
AcDbEntity
8
0
100
AcDbCircle
62
0
6
CONTINUOUS
10
47.2271707575
20
10.5068188638
40
1.0000000000
100
AcDbArc
50
0.0000000000
51
90.0000000000
0
ARC
5
336
100
AcDbEntity
8
0
100
AcDbCircle
62
0
6
CONTINUOUS
10
46.3823987174
20
10.5068188638
40
1.0000000000
100
AcDbArc
50
90.0000000000
51
130.9831959417
0
ARC
5
337
100
AcDbEntity
8
0
100
AcDbCircle
62
0
6
CONTINUOUS
10
49.7271707575
20
6.6568188638
40
5.6000000000
100
AcDbArc
50
17.8646241274
51
49.0168040583
0
ARC
5
338
100
AcDbEntity
8
0
100
AcDbCircle
62
0
6
CONTINUOUS
10
53.0719427975
20
10.5068188638
40
0.5000000000
100
AcDbArc
50
49.0168040583
51
90.0000000000
0
ARC
5
339
100
AcDbEntity
8
0
100
AcDbCircle
62
0
6
CONTINUOUS
10
44.8730723968
20
8.2213408691
40
1.0000000000
100
AcDbArc
50
162.1353758726
51
231.4680593791
0
ARC
5
33A
100
AcDbEntity
8
0
100
AcDbCircle
62
0
6
CONTINUOUS
10
44.8730723968
20
5.0922968585
40
1.0000000000
100
AcDbArc
50
128.5319406209
51
197.8646241274
0
ARC
5
33B
100
AcDbEntity
8
0
100
AcDbCircle
62
0
6
CONTINUOUS
10
52.2271707575
20
10.5068188638
40
0.5000000000
100
AcDbArc
50
90.0000000000
51
180.0000000000
0
ARC
5
33C
100
AcDbEntity
8
0
100
AcDbCircle
62
0
6
CONTINUOUS
10
46.3823987174
20
2.8068188638
40
1.0000000000
100
AcDbArc
50
229.0168040583
51
270.0000000000
0
ARC
5
33D
100
AcDbEntity
8
0
100
AcDbCircle
62
0
6
CONTINUOUS
10
47.2271707575
20
2.8068188638
40
1.0000000000
100
AcDbArc
50
270.0000000000
51
360.0000000000
0
ARC
5
33E
100
AcDbEntity
8
0
100
AcDbCircle
62
0
6
CONTINUOUS
10
47.2271707575
20
4.2073291211
40
1.0000000000
100
AcDbArc
50
0.0000000000
51
44.4153085972
0
ARC
5
33F
100
AcDbEntity
8
0
100
AcDbCircle
62
0
6
CONTINUOUS
10
52.2271707575
20
4.2073291211
40
1.0000000000
100
AcDbArc
50
135.5846914028
51
180.0000000000
0
ARC
5
340
100
AcDbEntity
8
0
100
AcDbCircle
62
0
6
CONTINUOUS
10
47.2271707575
20
10.5068188638
40
0.5000000000
100
AcDbArc
50
0.0000000000
51
90.0000000000
0
ARC
5
341
100
AcDbEntity
8
0
100
AcDbCircle
62
0
6
CONTINUOUS
10
52.2271707575
20
9.1063086066
40
1.0000000000
100
AcDbArc
50
180.0000000000
51
224.4153085972
0
ARC
5
342
100
AcDbEntity
8
0
100
AcDbCircle
62
0
6
CONTINUOUS
10
52.2271707575
20
10.5068188638
40
1.0000000000
100
AcDbArc
50
90.0000000000
51
180.0000000000
0
ARC
5
343
100
AcDbEntity
8
0
100
AcDbCircle
62
0
6
CONTINUOUS
10
46.3823987174
20
10.5068188638
40
0.5000000000
100
AcDbArc
50
90.0000000000
51
130.9831959417
0
ARC
5
344
100
AcDbEntity
8
0
100
AcDbCircle
62
0
6
CONTINUOUS
10
53.0719427975
20
10.5068188638
40
1.0000000000
100
AcDbArc
50
49.0168040583
51
90.0000000000
0
ARC
5
345
100
AcDbEntity
8
0
100
AcDbCircle
62
0
6
CONTINUOUS
10
54.5812691181
20
8.2213408691
40
1.0000000000
100
AcDbArc
50
308.5319406210
51
17.8646241274
0
ARC
5
346
100
AcDbEntity
8
0
100
AcDbCircle
62
0
6
CONTINUOUS
10
49.7271707575
20
6.6568188638
40
5.6000000000
100
AcDbArc
50
130.9831959417
51
162.1353758726
0
ARC
5
347
100
AcDbEntity
8
0
100
AcDbCircle
62
0
6
CONTINUOUS
10
44.8730723968
20
8.2213408691
40
0.5000000000
100
AcDbArc
50
162.1353758726
51
231.4680593791
0
ARC
5
348
100
AcDbEntity
8
0
100
AcDbCircle
62
0
6
CONTINUOUS
10
54.5812691181
20
5.0922968585
40
1.0000000000
100
AcDbArc
50
342.1353758726
51
51.4680593791
0
ARC
5
349
100
AcDbEntity
8
0
100
AcDbCircle
62
0
6
CONTINUOUS
10
53.0719427975
20
2.8068188638
40
1.0000000000
100
AcDbArc
50
270.0000000000
51
310.9831959417
0
ARC
5
34A
100
AcDbEntity
8
0
100
AcDbCircle
62
0
6
CONTINUOUS
10
43.6271707575
20
6.6568188638
40
1.5000000000
100
AcDbArc
50
308.5319406209
51
51.4680593791
0
ARC
5
34B
100
AcDbEntity
8
0
100
AcDbCircle
62
0
6
CONTINUOUS
10
44.8730723968
20
5.0922968585
40
0.5000000000
100
AcDbArc
50
128.5319406209
51
197.8646241274
0
ARC
5
34C
100
AcDbEntity
8
0
100
AcDbCircle
62
0
6
CONTINUOUS
10
52.2271707575
20
2.8068188638
40
1.0000000000
100
AcDbArc
50
180.0000000000
51
270.0000000000
0
ARC
5
34D
100
AcDbEntity
8
0
100
AcDbCircle
62
0
6
CONTINUOUS
10
49.7271707575
20
6.6568188638
40
5.6000000000
100
AcDbArc
50
197.8646241274
51
229.0168040583
0
ARC
5
34E
100
AcDbEntity
8
0
100
AcDbCircle
62
0
6
CONTINUOUS
10
46.3823987174
20
2.8068188638
40
0.5000000000
100
AcDbArc
50
229.0168040583
51
270.0000000000
0
ARC
5
34F
100
AcDbEntity
8
0
100
AcDbCircle
62
0
6
CONTINUOUS
10
47.2271707575
20
2.8068188638
40
0.5000000000
100
AcDbArc
50
270.0000000000
51
360.0000000000
0
ARC
5
350
100
AcDbEntity
8
0
100
AcDbCircle
62
0
6
CONTINUOUS
10
49.7271707575
20
6.6568188638
40
8.1500000000
100
AcDbArc
50
100.6056967322
51
79.3943032678
0
ARC
5
351
100
AcDbEntity
8
0
100
AcDbCircle
62
9
6
CONTINUOUS
10
49.7271707575
20
6.6568188638
40
12.0000000000
100
AcDbArc
50
0.0000000000
51
56.4426902381
0
ARC
5
352
100
AcDbEntity
8
0
100
AcDbCircle
62
9
6
CONTINUOUS
10
61.2271707575
20
-11.1431811362
40
0.4999997815
100
AcDbArc
50
270.0000000000
51
360.0000000000
0
ARC
5
353
100
AcDbEntity
8
0
100
AcDbCircle
62
9
6
CONTINUOUS
10
38.0271707575
20
-11.3431811362
40
0.2999987632
100
AcDbArc
50
180.0000000000
51
270.0000000000
0
ARC
5
354
100
AcDbEntity
8
0
100
AcDbCircle
62
9
6
CONTINUOUS
10
49.7271707575
20
6.6568188638
40
12.0000000000
100
AcDbArc
50
123.5573097619
51
180.0000000000
0
ARC
5
355
100
AcDbEntity
8
0
100
AcDbCircle
62
9
6
CONTINUOUS
10
47.2271707575
20
16.2426053015
40
0.4999986502
100
AcDbArc
50
0.0000000000
51
45.0000000000
0
ARC
5
356
100
AcDbEntity
8
0
100
AcDbCircle
62
9
6
CONTINUOUS
10
47.2271707575
20
2.8068188638
40
0.1999981412
100
AcDbArc
50
270.0000000000
51
360.0000000000
0
ARC
5
357
100
AcDbEntity
8
0
100
AcDbCircle
62
9
6
CONTINUOUS
10
46.3823987174
20
2.8068188638
40
0.1999995677
100
AcDbArc
50
229.0168040583
51
270.0000000000
0
ARC
5
358
100
AcDbEntity
8
0
100
AcDbCircle
62
9
6
CONTINUOUS
10
49.7271707575
20
6.6568188638
40
5.3000113610
100
AcDbArc
50
197.8646241274
51
229.0168040583
0
ARC
5
359
100
AcDbEntity
8
0
100
AcDbCircle
62
9
6
CONTINUOUS
10
44.8730723968
20
5.0922968585
40
0.1999986930
100
AcDbArc
50
128.5319406209
51
197.8646241274
0
ARC
5
35A
100
AcDbEntity
8
0
100
AcDbCircle
62
9
6
CONTINUOUS
10
43.6271707575
20
6.6568188638
40
1.7999954306
100
AcDbArc
50
308.5319406209
51
51.4680593791
0
ARC
5
35B
100
AcDbEntity
8
0
100
AcDbCircle
62
9
6
CONTINUOUS
10
44.8730723968
20
8.2213408691
40
0.1999986930
100
AcDbArc
50
162.1353758726
51
231.4680593791
0
ARC
5
35C
100
AcDbEntity
8
0
100
AcDbCircle
62
9
6
CONTINUOUS
10
49.7271707575
20
6.6568188638
40
5.3000113610
100
AcDbArc
50
130.9831959417
51
162.1353758726
0
ARC
5
35D
100
AcDbEntity
8
0
100
AcDbCircle
62
9
6
CONTINUOUS
10
46.3823987174
20
10.5068188638
40
0.1999995677
100
AcDbArc
50
90.0000000000
51
130.9831959417
0
ARC
5
35E
100
AcDbEntity
8
0
100
AcDbCircle
62
9
6
CONTINUOUS
10
47.2271707575
20
10.5068188638
40
0.1999981412
100
AcDbArc
50
0.0000000000
51
90.0000000000
0
ARC
5
35F
100
AcDbEntity
8
0
100
AcDbCircle
62
9
6
CONTINUOUS
10
52.2271707575
20
10.5068188638
40
0.1999981412
100
AcDbArc
50
90.0000000000
51
180.0000000000
0
ARC
5
360
100
AcDbEntity
8
0
100
AcDbCircle
62
9
6
CONTINUOUS
10
53.0719427975
20
10.5068188638
40
0.1999995677
100
AcDbArc
50
49.0168040583
51
90.0000000000
0
ARC
5
361
100
AcDbEntity
8
0
100
AcDbCircle
62
9
6
CONTINUOUS
10
49.7271707575
20
6.6568188638
40
5.3000113610
100
AcDbArc
50
17.8646241274
51
49.0168040583
0
ARC
5
362
100
AcDbEntity
8
0
100
AcDbCircle
62
9
6
CONTINUOUS
10
54.5812691181
20
8.2213408691
40
0.1999986930
100
AcDbArc
50
308.5319406209
51
17.8646241274
0
ARC
5
363
100
AcDbEntity
8
0
100
AcDbCircle
62
9
6
CONTINUOUS
10
55.8271707575
20
6.6568188638
40
1.7999954306
100
AcDbArc
50
128.5319406209
51
231.4680593791
0
ARC
5
364
100
AcDbEntity
8
0
100
AcDbCircle
62
9
6
CONTINUOUS
10
54.5812691181
20
5.0922968585
40
0.1999986930
100
AcDbArc
50
342.1353758726
51
51.4680593791
0
ARC
5
365
100
AcDbEntity
8
0
100
AcDbCircle
62
9
6
CONTINUOUS
10
49.7271707575
20
6.6568188638
40
5.3000113610
100
AcDbArc
50
310.9831959417
51
342.1353758726
0
ARC
5
366
100
AcDbEntity
8
0
100
AcDbCircle
62
9
6
CONTINUOUS
10
53.0719427975
20
2.8068188638
40
0.1999995677
100
AcDbArc
50
270.0000000000
51
310.9831959417
0
ARC
5
367
100
AcDbEntity
8
0
100
AcDbCircle
62
9
6
CONTINUOUS
10
52.2271707575
20
2.8068188638
40
0.1999981412
100
AcDbArc
50
180.0000000000
51
270.0000000000
0
ARC
5
368
100
AcDbEntity
8
0
100
AcDbCircle
62
9
6
CONTINUOUS
10
52.2271707575
20
16.2426053015
40
0.4999986501
100
AcDbArc
50
135.0000000000
51
180.0000000000
0
ARC
5
369
100
AcDbEntity
8
0
100
AcDbCircle
62
0
6
CONTINUOUS
10
0.8132864245
20
18.0190636362
40
0.5000000000
100
AcDbArc
50
90.0000264122
51
165.9637565320
0
ARC
5
36A
100
AcDbEntity
8
0
100
AcDbCircle
62
0
6
CONTINUOUS
10
8.2573370282
20
18.6568188638
40
0.5000000000
100
AcDbArc
50
0.0000000000
51
90.0000000000
0
ARC
5
36B
100
AcDbEntity
8
0
100
AcDbCircle
62
0
6
CONTINUOUS
10
0.4573370282
20
-11.6431811362
40
0.5000000000
100
AcDbArc
50
180.0000000000
51
270.0000000000
0
ARC
5
36C
100
AcDbEntity
8
0
100
AcDbCircle
62
0
6
CONTINUOUS
10
-11.5426629718
20
-14.6431811362
40
0.3000000000
100
AcDbArc
50
90.0000000000
51
180.0000000000
0
ARC
5
36D
100
AcDbEntity
8
0
100
AcDbCircle
62
0
6
CONTINUOUS
10
9.9573370282
20
-14.2447432549
40
2.0000000000
100
AcDbArc
50
0.0000000000
51
38.6598082541
0
SPLINE
5
36E
100
AcDbEntity
8
0
100
AcDbSpline
62
0
6
CONTINUOUS
70
0
71
3
72
8
73
4
74
2
42
0.0000001000
43
0.0000001000
44
0.0000000001
12
-0.0023341069
22
-0.0001086713
32
0.0000000000
13
-0.0035192332
23
-0.0014879071
33
0.0000000000
40
0.0000000000
40
0.0000000000
40
0.0000000000
40
0.0000000000
40
1.0000000000
40
1.0000000000
40
1.0000000000
40
1.0000000000
10
51.5232168477
20
16.9465594107
30
0.0000000000
10
51.5224388121
20
16.9465231869
30
0.0000000000
10
51.5212634432
20
16.9460998424
30
0.0000000000
10
51.5200903655
20
16.9456038733
30
0.0000000000
11
51.5232168477
21
16.9465594107
31
0.0000000000
11
51.5200903655
21
16.9456038733
31
0.0000000000
0
SPLINE
5
36F
100
AcDbEntity
8
0
100
AcDbSpline
62
0
6
CONTINUOUS
70
0
71
3
72
10
73
6
74
4
42
0.0000001000
43
0.0000001000
44
0.0000000001
12
0.2305317138
22
0.3298040327
32
0.0000000000
13
0.3332068462
23
-0.2255853911
33
0.0000000000
40
0.0000000000
40
0.0000000000
40
0.0000000000
40
0.0000000000
40
0.5114954032
40
0.8680005531
40
1.0000000000
40
1.0000000000
40
1.0000000000
40
1.0000000000
10
56.4801831122
20
16.6975400217
30
0.0000000000
10
56.5194884161
20
16.7537711039
30
0.0000000000
10
56.5889639053
20
16.8615456365
30
0.0000000000
10
56.6682188540
20
16.9302439865
30
0.0000000000
10
56.7178452577
20
17.0192937328
30
0.0000000000
10
56.7325062975
20
17.0093680172
30
0.0000000000
11
56.4801831122
21
16.6975400217
31
0.0000000000
11
56.6011325774
21
16.8640717022
31
0.0000000000
11
56.6918226146
21
16.9752208179
31
0.0000000000
11
56.7325062975
21
17.0093680172
31
0.0000000000
0
SPLINE
5
370
100
AcDbEntity
8
0
100
AcDbSpline
62
9
6
CONTINUOUS
70
0
71
3
72
10
73
6
74
4
42
0.0000001000
43
0.0000001000
44
0.0000000001
12
-0.3673513882
22
0.1284252517
32
0.0000000000
13
-0.1348634484
23
-0.3650368995
33
0.0000000000
40
0.0000000000
40
0.0000000000
40
0.0000000000
40
0.0000000000
40
0.1337165889
40
0.4885345110
40
1.0000000000
40
1.0000000000
40
1.0000000000
40
1.0000000000
10
53.8319235172
20
18.4633381892
30
0.0000000000
10
53.8155498590
20
18.4690623847
30
0.0000000000
10
53.7850594049
20
18.3781185940
30
0.0000000000
10
53.7311279707
20
18.2910351167
30
0.0000000000
10
53.6908156332
20
18.1748375680
30
0.0000000000
10
53.6678229667
20
18.1126029759
30
0.0000000000
11
53.8319235172
21
18.4633381892
31
0.0000000000
11
53.7991691860
21
18.4229040246
31
0.0000000000
11
53.7406511391
21
18.2978388304
31
0.0000000000
11
53.6678229667
21
18.1126029759
31
0.0000000000
0
SPLINE
5
371
100
AcDbEntity
8
0
100
AcDbSpline
62
0
6
CONTINUOUS
70
0
71
3
72
10
73
6
74
4
42
0.0000001000
43
0.0000001000
44
0.0000000001
12
-0.3042438546
22
0.2820884880
32
0.0000000000
13
-0.4144467886
23
-0.0192898307
33
0.0000000000
40
0.0000000000
40
0.0000000000
40
0.0000000000
40
0.0000000000
40
0.4774487094
40
0.8288112850
40
1.0000000000
40
1.0000000000
40
1.0000000000
40
1.0000000000
10
51.8440238439
20
16.6851387617
30
0.0000000000
10
51.7956035653
20
16.7300330233
30
0.0000000000
10
51.7108025608
20
16.8112596376
30
0.0000000000
10
51.6045557233
20
16.8877376202
30
0.0000000000
10
51.5468663838
20
16.9476601461
30
0.0000000000
10
51.5232168461
20
16.9465594124
30
0.0000000000
11
51.8440238439
21
16.6851387617
31
0.0000000000
11
51.6968208523
21
16.8176960781
31
0.0000000000
11
51.5844317586
21
16.9105407404
31
0.0000000000
11
51.5232168461
21
16.9465594124
31
0.0000000000
0
SPLINE
5
372
100
AcDbEntity
8
0
100
AcDbSpline
62
0
6
CONTINUOUS
70
0
71
3
72
10
73
6
74
4
42
0.0000001000
43
0.0000001000
44
0.0000000001
12
0.1305600688
22
-0.0000000000
32
0.0000000000
13
0.0747991635
23
0.1070094235
33
0.0000000000
40
0.0000000000
40
0.0000000000
40
0.0000000000
40
0.0000000000
40
0.3545899908
40
0.6889188912
40
1.0000000000
40
1.0000000000
40
1.0000000000
40
1.0000000000
10
56.3604203382
20
16.6568188638
30
0.0000000000
10
56.3758521027
20
16.6568188638
30
0.0000000000
10
56.4058957678
20
16.6585190792
30
0.0000000000
10
56.4485519921
20
16.6688992283
30
0.0000000000
10
56.4724269099
20
16.6864438183
30
0.0000000000
10
56.4801831122
20
16.6975400217
30
0.0000000000
11
56.3604203382
21
16.6568188638
31
0.0000000000
11
56.4066053017
21
16.6600131324
31
0.0000000000
11
56.4485626683
21
16.6720506681
31
0.0000000000
11
56.4801831122
21
16.6975400217
31
0.0000000000
0
SPLINE
5
373
100
AcDbEntity
8
0
100
AcDbSpline
62
9
6
CONTINUOUS
70
0
71
3
72
9
73
5
74
3
42
0.0000001000
43
0.0000001000
44
0.0000000001
12
2.9803673777
22
-1.0354821071
32
0.0000000000
13
2.6082350312
23
-1.7753655741
33
0.0000000000
40
0.0000000000
40
0.0000000000
40
0.0000000000
40
0.0000000000
40
0.5021240598
40
1.0000000000
40
1.0000000000
40
1.0000000000
40
1.0000000000
10
53.6678229667
20
18.1126029945
30
0.0000000000
10
54.1666610226
20
17.9392895013
30
0.0000000000
10
55.1382705446
20
17.5277191365
30
0.0000000000
10
56.0473239561
20
16.9921772898
30
0.0000000000
10
56.4801831122
20
16.6975400217
30
0.0000000000
11
53.6678229667
21
18.1126029945
31
0.0000000000
11
55.1266258753
21
17.4947139837
31
0.0000000000
11
56.4801831122
21
16.6975400217
31
0.0000000000
0
SPLINE
5
374
100
AcDbEntity
8
0
100
AcDbSpline
62
9
6
CONTINUOUS
70
0
71
3
72
14
73
10
74
8
42
0.0000001000
43
0.0000001000
44
0.0000000001
12
0.3955575260
22
0.3955366554
32
0.0000000000
13
0.5283752925
23
-0.1836696830
33
0.0000000000
40
0.0000000000
40
0.0000000000
40
0.0000000000
40
0.0000000000
40
0.1662204722
40
0.3182942632
40
0.4589854450
40
0.5947995867
40
0.7298096310
40
0.8646922858
40
1.0000000000
40
1.0000000000
40
1.0000000000
40
1.0000000000
10
53.1500757341
20
17.9938848718
30
0.0000000000
10
53.1719923203
20
18.0158003017
30
0.0000000000
10
53.2179964097
20
18.0539472352
30
0.0000000000
10
53.2928633778
20
18.0962125533
30
0.0000000000
10
53.3682466919
20
18.1237328297
30
0.0000000000
10
53.4438093488
20
18.1386739870
30
0.0000000000
10
53.5196791220
20
18.1419804969
30
0.0000000000
10
53.5950701348
20
18.1338447582
30
0.0000000000
10
53.6439918824
20
18.1208869695
30
0.0000000000
10
53.6678229667
20
18.1126029945
30
0.0000000000
11
53.1500757341
21
17.9938848718
31
0.0000000000
11
53.2216539672
21
18.0532326765
31
0.0000000000
11
53.2957293536
21
18.0950590616
31
0.0000000000
11
53.3696578296
21
18.1220483685
31
0.0000000000
11
53.4441876065
21
18.1367854008
31
0.0000000000
11
53.5196389322
21
18.1400750833
31
0.0000000000
11
53.5946547375
21
18.1319760075
31
0.0000000000
11
53.6678229667
21
18.1126029945
31
0.0000000000
0
SPLINE
5
375
100
AcDbEntity
8
0
100
AcDbSpline
62
9
6
CONTINUOUS
70
0
71
3
72
10
73
6
74
4
42
0.0000001000
43
0.0000001000
44
0.0000000001
12
-0.1348274465
22
0.3649150083
32
0.0000000000
13
-0.3671320819
23
-0.1286679372
33
0.0000000000
40
0.0000000000
40
0.0000000000
40
0.0000000000
40
0.0000000000
40
0.5115428964
40
0.8663311076
40
1.0000000000
40
1.0000000000
40
1.0000000000
40
1.0000000000
10
45.7865185482
20
18.1126029552
30
0.0000000000
10
45.7635285407
20
18.1748261820
30
0.0000000000
10
45.7232181687
20
18.2909991582
30
0.0000000000
10
45.6693190969
20
18.3780355093
30
0.0000000000
10
45.6388181647
20
18.4689500055
30
0.0000000000
10
45.6224601184
20
18.4632170386
30
0.0000000000
11
45.7865185482
21
18.1126029552
31
0.0000000000
11
45.7136985356
21
18.2978046813
31
0.0000000000
11
45.6551991049
21
18.4228161470
31
0.0000000000
11
45.6224601184
21
18.4632170386
31
0.0000000000
0
SPLINE
5
376
100
AcDbEntity
8
0
100
AcDbSpline
62
9
6
CONTINUOUS
70
0
71
3
72
10
73
6
74
4
42
0.0000001000
43
0.0000001000
44
0.0000000001
12
0.3137082213
22
0.2952554300
32
0.0000000000
13
0.3046215826
23
-0.3046215825
33
0.0000000000
40
0.0000000000
40
0.0000000000
40
0.0000000000
40
0.0000000000
40
0.4940512419
40
0.8464402234
40
1.0000000000
40
1.0000000000
40
1.0000000000
40
1.0000000000
10
46.3042657808
20
17.9938848718
30
0.0000000000
10
46.3559284263
20
18.0425086424
30
0.0000000000
10
46.4530922296
20
18.1266180669
30
0.0000000000
10
46.5547245059
20
18.1984431186
30
0.0000000000
10
46.6422266307
20
18.2417629906
30
0.0000000000
10
46.6578191714
20
18.2261704499
30
0.0000000000
11
46.3042657808
21
17.9938848718
31
0.0000000000
11
46.4655592072
21
18.1327521849
31
0.0000000000
11
46.5924350701
21
18.2161100738
31
0.0000000000
11
46.6578191714
21
18.2261704499
31
0.0000000000
0
SPLINE
5
377
100
AcDbEntity
8
0
100
AcDbSpline
62
9
6
CONTINUOUS
70
0
71
3
72
9
73
5
74
3
42
0.0000001000
43
0.0000001000
44
0.0000000001
12
0.0279146359
22
0.0332620057
32
0.0000000000
13
0.0307443368
23
0.0306655128
33
0.0000000000
40
0.0000000000
40
0.0000000000
40
0.0000000000
40
0.0000000000
40
0.4925019651
40
1.0000000000
40
1.0000000000
40
1.0000000000
40
1.0000000000
10
51.8442769085
20
16.6854287887
30
0.0000000000
10
51.8488595795
20
16.6908893231
30
0.0000000000
10
51.8584212530
20
16.7017621964
30
0.0000000000
10
51.8684164700
20
16.7122389421
30
0.0000000000
10
51.8736173669
20
16.7174265046
30
0.0000000000
11
51.8442769085
21
16.6854287887
31
0.0000000000
11
51.8583830250
21
16.7015030620
31
0.0000000000
11
51.8736173669
21
16.7174265046
31
0.0000000000
0
SPLINE
5
378
100
AcDbEntity
8
0
100
AcDbSpline
62
9
6
CONTINUOUS
70
0
71
3
72
10
73
6
74
4
42
0.0000001000
43
0.0000001000
44
0.0000000001
12
0.3114835979
22
0.2931610333
32
0.0000000000
13
0.3821325217
23
-0.1921982284
33
0.0000000000
40
0.0000000000
40
0.0000000000
40
0.0000000000
40
0.0000000000
40
0.4779877641
40
0.8289404560
40
1.0000000000
40
1.0000000000
40
1.0000000000
40
1.0000000000
10
47.5807241480
20
16.7174265046
30
0.0000000000
10
47.6303525975
20
16.7641356335
30
0.0000000000
10
47.7220597904
20
16.8448376862
30
0.0000000000
10
47.8300509161
20
16.9202270034
30
0.0000000000
10
47.9093661181
20
16.9624459183
30
0.0000000000
10
47.9311552564
20
16.9514868046
30
0.0000000000
11
47.5807241480
21
16.7174265046
31
0.0000000000
11
47.7353860840
21
16.8511509118
31
0.0000000000
11
47.8598477324
21
16.9350838926
31
0.0000000000
11
47.9311552564
21
16.9514868046
31
0.0000000000
0
SPLINE
5
379
100
AcDbEntity
8
0
100
AcDbSpline
62
0
6
CONTINUOUS
70
0
71
3
72
9
73
5
74
3
42
0.0000001000
43
0.0000001000
44
0.0000000001
12
0.0705409658
22
-0.0654040963
32
0.0000000000
13
0.0961962768
23
0.0000000000
33
0.0000000000
40
0.0000000000
40
0.0000000000
40
0.0000000000
40
0.0000000000
40
0.4550497043
40
1.0000000000
40
1.0000000000
40
1.0000000000
40
1.0000000000
10
51.8442769085
20
16.6854287887
30
0.0000000000
10
51.8549767903
20
16.6755080838
30
0.0000000000
10
51.8842923239
20
16.6596482905
30
0.0000000000
10
51.9168034755
20
16.6568188638
30
0.0000000000
10
51.9342775386
20
16.6568188638
30
0.0000000000
11
51.8442769085
21
16.6854287887
31
0.0000000000
11
51.8823185575
21
16.6637722964
31
0.0000000000
11
51.9342775386
21
16.6568188638
31
0.0000000000
0
SPLINE
5
37A
100
AcDbEntity
8
0
100
AcDbSpline
62
9
6
CONTINUOUS
70
0
71
3
72
9
73
5
74
3
42
0.0000001000
43
0.0000001000
44
0.0000000001
12
-0.0281466614
22
0.0335703637
32
0.0000000000
13
-0.0309792249
23
0.0309756596
33
0.0000000000
40
0.0000000000
40
0.0000000000
40
0.0000000000
40
0.0000000000
40
0.5037974552
40
1.0000000000
40
1.0000000000
40
1.0000000000
40
1.0000000000
10
47.6103075946
20
16.6851294206
30
0.0000000000
10
47.6055808558
20
16.6907669752
30
0.0000000000
10
47.5959503497
20
16.7017512700
30
0.0000000000
10
47.5858481381
20
16.7123031042
30
0.0000000000
10
47.5807241480
20
16.7174265046
30
0.0000000000
11
47.6103075946
21
16.6851294206
31
0.0000000000
11
47.5957574824
21
16.7017249311
31
0.0000000000
11
47.5807241480
21
16.7174265046
31
0.0000000000
0
SPLINE
5
37B
100
AcDbEntity
8
0
100
AcDbSpline
62
9
6
CONTINUOUS
70
0
71
3
72
14
73
10
74
8
42
0.0000001000
43
0.0000001000
44
0.0000000001
12
-0.3955589979
22
0.3955511019
32
0.0000000000
13
-0.5283795618
23
-0.1836916809
33
0.0000000000
40
0.0000000000
40
0.0000000000
40
0.0000000000
40
0.0000000000
40
0.1456625196
40
0.2886868473
40
0.4311855655
40
0.5733039451
40
0.7152578816
40
0.8573264667
40
1.0000000000
40
1.0000000000
40
1.0000000000
40
1.0000000000
10
46.3042657808
20
17.9938848718
30
0.0000000000
10
46.2850597407
20
18.0130905285
30
0.0000000000
10
46.2438062423
20
18.0481119791
30
0.0000000000
10
46.1746521277
20
18.0897624910
30
0.0000000000
10
46.1003485682
20
18.1196378985
30
0.0000000000
10
46.0224486881
20
18.1372935279
30
0.0000000000
10
45.9428102684
20
18.1423805557
30
0.0000000000
10
45.8632873089
20
18.1347873370
30
0.0000000000
10
45.8116471412
20
18.1213389749
30
0.0000000000
10
45.7865185482
20
18.1126029945
30
0.0000000000
11
46.3042657808
21
17.9938848718
31
0.0000000000
11
46.2421444585
21
18.0466153597
31
0.0000000000
11
46.1736099030
21
18.0878979048
31
0.0000000000
11
46.0996498884
21
18.1176332020
31
0.0000000000
11
46.0221154817
21
18.1352062712
31
0.0000000000
11
45.9428681429
21
18.1402696941
31
0.0000000000
11
45.8637552795
21
18.1327116791
31
0.0000000000
11
45.7865185482
21
18.1126029945
31
0.0000000000
0
SPLINE
5
37C
100
AcDbEntity
8
0
100
AcDbSpline
62
0
6
CONTINUOUS
70
0
71
3
72
10
73
6
74
4
42
0.0000001000
43
0.0000001000
44
0.0000000001
12
0.3068410105
22
0.2844041483
32
0.0000000000
13
0.3977865066
23
-0.1296264650
33
0.0000000000
40
0.0000000000
40
0.0000000000
40
0.0000000000
40
0.0000000000
40
0.4899091525
40
0.8455682788
40
1.0000000000
40
1.0000000000
40
1.0000000000
40
1.0000000000
10
47.6103075946
20
16.6851294206
30
0.0000000000
10
47.6604156678
20
16.7315734857
30
0.0000000000
10
47.7483589284
20
16.8184042175
30
0.0000000000
10
47.8537546782
20
16.8858209417
30
0.0000000000
10
47.9131156461
20
16.9556999544
30
0.0000000000
10
47.9335925977
20
16.9490271417
30
0.0000000000
11
47.6103075946
21
16.6851294206
31
0.0000000000
11
47.7627163729
21
16.8221783020
31
0.0000000000
11
47.8776854339
21
16.9166407739
31
0.0000000000
11
47.9335925977
21
16.9490271417
31
0.0000000000
0
SPLINE
5
37D
100
AcDbEntity
8
0
100
AcDbSpline
62
9
6
CONTINUOUS
70
0
71
3
72
9
73
5
74
3
42
0.0000001000
43
0.0000001000
44
0.0000000001
12
-2.9803076859
22
-1.0356508279
32
0.0000000000
13
-2.6081053637
23
-1.7755542660
33
0.0000000000
40
0.0000000000
40
0.0000000000
40
0.0000000000
40
0.0000000000
40
0.5026891226
40
1.0000000000
40
1.0000000000
40
1.0000000000
40
1.0000000000
10
45.7865185482
20
18.1126029945
30
0.0000000000
10
45.2871291296
20
17.9390661925
30
0.0000000000
10
44.3155209650
20
17.5274774069
30
0.0000000000
10
43.4065216949
20
16.9918500012
30
0.0000000000
10
42.9741753059
20
16.6975158512
30
0.0000000000
11
45.7865185482
21
18.1126029945
31
0.0000000000
11
44.3261164575
21
17.4939196745
31
0.0000000000
11
42.9741753059
21
16.6975158512
31
0.0000000000
0
SPLINE
5
37E
100
AcDbEntity
8
0
100
AcDbSpline
62
0
6
CONTINUOUS
70
0
71
3
72
10
73
6
74
4
42
0.0000001000
43
0.0000001000
44
0.0000000001
12
0.0748308032
22
-0.1069522784
32
0.0000000000
13
0.1305313716
23
0.0000000000
33
0.0000000000
40
0.0000000000
40
0.0000000000
40
0.0000000000
40
0.0000000000
40
0.3110878776
40
0.6454161641
40
1.0000000000
40
1.0000000000
40
1.0000000000
40
1.0000000000
10
42.9741753059
20
16.6975158512
30
0.0000000000
10
42.9819349578
20
16.6864253321
30
0.0000000000
10
43.0058092692
20
16.6688929663
30
0.0000000000
10
43.0484562565
20
16.6585182384
30
0.0000000000
10
43.0784930719
20
16.6568188638
30
0.0000000000
10
43.0939211767
20
16.6568188638
30
0.0000000000
11
42.9741753059
21
16.6975158512
31
0.0000000000
11
43.0057977338
21
16.6720417789
31
0.0000000000
11
43.0477471020
21
16.6600114467
31
0.0000000000
11
43.0939211767
21
16.6568188638
31
0.0000000000
0
SPLINE
5
37F
100
AcDbEntity
8
0
100
AcDbSpline
62
0
6
CONTINUOUS
70
0
71
3
72
10
73
6
74
4
42
0.0000001000
43
0.0000001000
44
0.0000000001
12
0.0965643645
22
0.0000000000
32
0.0000000000
13
0.0708215137
23
0.0656428952
33
0.0000000000
40
0.0000000000
40
0.0000000000
40
0.0000000000
40
0.0000000000
40
0.3482318384
40
0.6822405359
40
1.0000000000
40
1.0000000000
40
1.0000000000
40
1.0000000000
10
47.5200639763
20
16.6568188638
30
0.0000000000
10
47.5312729050
20
16.6568188638
30
0.0000000000
10
47.5532943789
20
16.6582742126
30
0.0000000000
10
47.5846473658
20
16.6667537786
30
0.0000000000
10
47.6028061925
20
16.6781765369
30
0.0000000000
10
47.6103075946
20
16.6851294206
30
0.0000000000
11
47.5200639763
21
16.6568188638
31
0.0000000000
11
47.5535890289
21
16.6594325952
31
0.0000000000
11
47.5845590890
21
16.6684399902
31
0.0000000000
11
47.6103075946
21
16.6851294206
31
0.0000000000
0
SPLINE
5
380
100
AcDbEntity
8
0
100
AcDbSpline
62
9
6
CONTINUOUS
70
0
71
3
72
10
73
6
74
4
42
0.0000001000
43
0.0000001000
44
0.0000000001
12
0.3046216632
22
0.3046216632
32
0.0000000000
13
0.3137079190
23
-0.2952559177
33
0.0000000000
40
0.0000000000
40
0.0000000000
40
0.0000000000
40
0.0000000000
40
0.1535593989
40
0.5059477731
40
1.0000000000
40
1.0000000000
40
1.0000000000
40
1.0000000000
10
52.7965223435
20
18.2261704499
30
0.0000000000
10
52.8121148500
20
18.2417629564
30
0.0000000000
10
52.8996168934
20
18.1984436492
30
0.0000000000
10
53.0012492256
20
18.1266182976
30
0.0000000000
10
53.0984130354
20
18.0425088197
30
0.0000000000
10
53.1500757341
20
17.9938848718
30
0.0000000000
11
52.7965223435
21
18.2261704499
31
0.0000000000
11
52.8619063382
21
18.2161103358
31
0.0000000000
11
52.9887820561
21
18.1327526294
31
0.0000000000
11
53.1500757341
21
17.9938848718
31
0.0000000000
0
SPLINE
5
381
100
AcDbEntity
8
0
100
AcDbSpline
62
9
6
CONTINUOUS
70
0
71
3
72
9
73
5
74
3
42
0.0000001000
43
0.0000001000
44
0.0000000001
12
0.1093395427
22
0.1093395427
32
0.0000000000
13
0.1207508737
23
-0.0833364970
33
0.0000000000
40
0.0000000000
40
0.0000000000
40
0.0000000000
40
0.0000000000
40
0.4278173681
40
1.0000000000
40
1.0000000000
40
1.0000000000
40
1.0000000000
10
51.5200639763
20
16.9497120827
30
0.0000000000
10
51.5356564281
20
16.9653045344
30
0.0000000000
10
51.5977331002
20
16.9345719796
30
0.0000000000
10
51.6416502770
20
16.9073525765
30
0.0000000000
10
51.6646807946
20
16.8914580111
30
0.0000000000
11
51.5200639763
21
16.9497120827
31
0.0000000000
11
51.5854476944
21
16.9396516971
31
0.0000000000
11
51.6646807946
21
16.8914580111
31
0.0000000000
0
SPLINE
5
382
100
AcDbEntity
8
0
100
AcDbSpline
62
9
6
CONTINUOUS
70
0
71
3
72
8
73
4
74
2
42
0.0000001000
43
0.0000001000
44
0.0000000001
12
0.0494567683
22
-0.0341327040
32
0.0000000000
13
0.0472395499
23
-0.0367345811
33
0.0000000000
40
0.0000000000
40
0.0000000000
40
0.0000000000
40
0.0000000000
40
1.0000000000
40
1.0000000000
40
1.0000000000
40
1.0000000000
10
51.6646807946
20
16.8914580111
30
0.0000000000
10
51.6811663840
20
16.8800804431
30
0.0000000000
10
51.6965769112
20
16.8685388610
30
0.0000000000
10
51.7123234279
20
16.8562940006
30
0.0000000000
11
51.6646807946
21
16.8914580111
31
0.0000000000
11
51.7123234279
21
16.8562940006
31
0.0000000000
0
SPLINE
5
383
100
AcDbEntity
8
0
100
AcDbSpline
62
9
6
CONTINUOUS
70
0
71
3
72
8
73
4
74
2
42
0.0000001000
43
0.0000001000
44
0.0000000001
12
0.1587547567
22
-0.1234514195
32
0.0000000000
13
0.1549884622
23
-0.1458714941
33
0.0000000000
40
0.0000000000
40
0.0000000000
40
0.0000000000
40
0.0000000000
40
1.0000000000
40
1.0000000000
40
1.0000000000
40
1.0000000000
10
51.7123234279
20
16.8562940006
30
0.0000000000
10
51.7652416801
20
16.8151435274
30
0.0000000000
10
51.8219545461
20
16.7660503359
30
0.0000000000
10
51.8736173669
20
16.7174265046
30
0.0000000000
11
51.7123234279
21
16.8562940006
31
0.0000000000
11
51.8736173669
21
16.7174265046
31
0.0000000000
0
SPLINE
5
384
100
AcDbEntity
8
0
100
AcDbSpline
62
0
6
CONTINUOUS
70
0
71
3
72
10
73
6
74
4
42
0.0000001000
43
0.0000001000
44
0.0000000001
12
0.0000000000
22
0.3185325770
32
0.0000000000
13
0.3185325770
23
0.0000000000
33
0.0000000000
40
0.0000000000
40
0.0000000000
40
0.0000000000
40
0.0000000000
40
0.4782976533
40
0.8306559835
40
1.0000000000
40
1.0000000000
40
1.0000000000
40
1.0000000000
10
48.8786426200
20
-14.6431811362
30
0.0000000000
10
48.8786426200
20
-14.5923966748
30
0.0000000000
10
48.8855409651
20
-14.5011742841
30
0.0000000000
10
48.9006198546
20
-14.4051532056
30
0.0000000000
10
48.9345935596
20
-14.3431811362
30
0.0000000000
10
48.9525740882
20
-14.3431811362
30
0.0000000000
11
48.8786426200
21
-14.6431811362
31
0.0000000000
11
48.8884525147
21
-14.4911439052
31
0.0000000000
11
48.9152886552
21
-14.3821617875
31
0.0000000000
11
48.9525740882
21
-14.3431811362
31
0.0000000000
0
SPLINE
5
385
100
AcDbEntity
8
0
100
AcDbSpline
62
0
6
CONTINUOUS
70
0
71
3
72
10
73
6
74
4
42
0.0000001000
43
0.0000001000
44
0.0000000001
12
0.3331567812
22
0.2255731624
32
0.0000000000
13
0.2306522346
23
-0.3296607940
33
0.0000000000
40
0.0000000000
40
0.0000000000
40
0.0000000000
40
0.0000000000
40
0.1317936869
40
0.4884081221
40
1.0000000000
40
1.0000000000
40
1.0000000000
40
1.0000000000
10
42.7218352175
20
17.0093680172
30
0.0000000000
10
42.7364712043
20
17.0192777234
30
0.0000000000
10
42.7854922698
20
16.9295785718
30
0.0000000000
10
42.8655733578
20
16.8617764035
30
0.0000000000
10
42.9348420360
20
16.7537331128
30
0.0000000000
10
42.9741753059
20
16.6975158512
30
0.0000000000
11
42.7218352175
21
17.0093680172
31
0.0000000000
11
42.7622057075
21
16.9749884734
31
0.0000000000
11
42.8531190288
21
16.8639873424
31
0.0000000000
11
42.9741753059
21
16.6975158512
31
0.0000000000
0
SPLINE
5
386
100
AcDbEntity
8
0
100
AcDbSpline
62
0
6
CONTINUOUS
70
0
71
3
72
10
73
6
74
4
42
0.0000001000
43
0.0000001000
44
0.0000000001
12
0.3185325770
22
0.0000000000
32
0.0000000000
13
0.0000000000
23
-0.3185325770
33
0.0000000000
40
0.0000000000
40
0.0000000000
40
0.0000000000
40
0.0000000000
40
0.1693440165
40
0.5217023467
40
1.0000000000
40
1.0000000000
40
1.0000000000
40
1.0000000000
10
50.5017674267
20
-14.3431811362
30
0.0000000000
10
50.5197479554
20
-14.3431811362
30
0.0000000000
10
50.5537216603
20
-14.4051532056
30
0.0000000000
10
50.5688005498
20
-14.5011742841
30
0.0000000000
10
50.5756988949
20
-14.5923966748
30
0.0000000000
10
50.5756988949
20
-14.6431811362
30
0.0000000000
11
50.5017674267
21
-14.3431811362
31
0.0000000000
11
50.5390528598
21
-14.3821617875
31
0.0000000000
11
50.5658890002
21
-14.4911439052
31
0.0000000000
11
50.5756988949
21
-14.6431811362
31
0.0000000000
0
SPLINE
5
387
100
AcDbEntity
8
0
100
AcDbSpline
62
0
6
CONTINUOUS
70
0
71
3
72
9
73
5
74
3
42
0.0000001000
43
0.0000001000
44
0.0000000001
12
0.0896171841
22
0.0000000000
32
0.0000000000
13
0.0895871561
23
-0.0023197293
33
0.0000000000
40
0.0000000000
40
0.0000000000
40
0.0000000000
40
0.0000000000
40
0.5017749323
40
1.0000000000
40
1.0000000000
40
1.0000000000
40
1.0000000000
10
42.0875629520
20
-17.5431811362
30
0.0000000000
10
42.1025521708
20
-17.5431811362
30
0.0000000000
10
42.1324248823
20
-17.5433750113
30
0.0000000000
10
42.1622925685
20
-17.5439554363
30
0.0000000000
10
42.1771707575
20
-17.5443406854
30
0.0000000000
11
42.0875629520
21
-17.5431811362
31
0.0000000000
11
42.1325296611
21
-17.5434730243
31
0.0000000000
11
42.1771707575
21
-17.5443406854
31
0.0000000000
0
SPLINE
5
388
100
AcDbEntity
8
0
100
AcDbSpline
62
0
6
CONTINUOUS
70
0
71
3
72
9
73
5
74
3
42
0.0000001000
43
0.0000001000
44
0.0000000001
12
0.0895871561
22
0.0023197293
32
0.0000000000
13
0.0896171841
23
0.0000000000
33
0.0000000000
40
0.0000000000
40
0.0000000000
40
0.0000000000
40
0.0000000000
40
0.4982250677
40
1.0000000000
40
1.0000000000
40
1.0000000000
40
1.0000000000
10
57.2771707575
20
-17.5443406854
30
0.0000000000
10
57.2920489464
20
-17.5439554363
30
0.0000000000
10
57.3219166326
20
-17.5433750113
30
0.0000000000
10
57.3517893441
20
-17.5431811362
30
0.0000000000
10
57.3667785629
20
-17.5431811362
30
0.0000000000
11
57.2771707575
21
-17.5443406854
31
0.0000000000
11
57.3218118538
21
-17.5434730243
31
0.0000000000
11
57.3667785629
21
-17.5431811362
31
0.0000000000
0
SPLINE
5
389
100
AcDbEntity
8
0
100
AcDbSpline
62
0
6
CONTINUOUS
70
0
71
3
72
8
73
4
74
2
42
0.0000001000
43
0.0000001000
44
0.0000000001
12
0.0464331757
22
0.1857327026
32
0.0000000000
13
0.1344367875
23
0.1394667526
33
0.0000000000
40
0.0000000000
40
0.0000000000
40
0.0000000000
40
0.0000000000
40
1.0000000000
40
1.0000000000
40
1.0000000000
40
1.0000000000
10
-0.0324826823
20
16.6975400217
30
0.0000000000
10
-0.0170049571
20
16.7594509226
30
0.0000000000
10
0.0171501505
20
16.8175827846
30
0.0000000000
10
0.0619624130
20
16.8640717022
30
0.0000000000
11
-0.0324826823
21
16.6975400217
31
0.0000000000
11
0.0619624130
21
16.8640717022
31
0.0000000000
0
SPLINE
5
38A
100
AcDbEntity
8
0
100
AcDbSpline
62
0
6
CONTINUOUS
70
0
71
3
72
9
73
5
74
3
42
0.0000001000
43
0.0000001000
44
0.0000000001
12
0.3021496682
22
0.3134546266
32
0.0000000000
13
0.4299569457
23
-0.0168151390
33
0.0000000000
40
0.0000000000
40
0.0000000000
40
0.0000000000
40
0.0000000000
40
0.4822547685
40
1.0000000000
40
1.0000000000
40
1.0000000000
40
1.0000000000
10
0.0619624130
20
16.8640717022
30
0.0000000000
10
0.1105334524
20
16.9144600317
30
0.0000000000
10
0.2372112706
20
16.9905822217
30
0.0000000000
10
0.3831343088
20
17.0122700032
30
0.0000000000
10
0.4573370282
20
17.0093680172
30
0.0000000000
11
0.0619624130
21
16.8640717022
31
0.0000000000
11
0.2371912705
21
16.9752208179
31
0.0000000000
11
0.4573370282
21
17.0093680172
31
0.0000000000
0
SPLINE
5
38B
100
AcDbEntity
8
0
100
AcDbSpline
62
9
6
CONTINUOUS
70
0
71
3
72
8
73
4
74
2
42
0.0000001000
43
0.0000001000
44
0.0000000001
12
-0.0958058310
22
-0.3993247685
32
0.0000000000
13
-0.0958442408
23
-0.3993155518
33
0.0000000000
40
0.0000000000
40
0.0000000000
40
0.0000000000
40
0.0000000000
40
1.0000000000
40
1.0000000000
40
1.0000000000
40
1.0000000000
10
0.8063617054
20
18.4636327212
30
0.0000000000
10
0.7744264284
20
18.3305244650
30
0.0000000000
10
0.7424809899
20
18.1974186472
30
0.0000000000
10
0.7105329096
20
18.0643134632
30
0.0000000000
11
0.8063617054
21
18.4636327212
31
0.0000000000
11
0.7105329096
21
18.0643134632
31
0.0000000000
0
SPLINE
5
38C
100
AcDbEntity
8
0
100
AcDbSpline
62
9
6
CONTINUOUS
70
0
71
3
72
8
73
4
74
2
42
0.0000001000
43
0.0000001000
44
0.0000000001
12
-0.0035261524
22
-0.0146909976
32
0.0000000000
13
-0.0035261728
23
-0.0146909927
33
0.0000000000
40
0.0000000000
40
0.0000000000
40
0.0000000000
40
0.0000000000
40
1.0000000000
40
1.0000000000
40
1.0000000000
40
1.0000000000
10
0.7105329096
20
18.0643134632
30
0.0000000000
10
0.7093575255
20
18.0594164640
30
0.0000000000
10
0.7081821378
20
18.0545194657
30
0.0000000000
10
0.7070067468
20
18.0496224681
30
0.0000000000
11
0.7105329096
21
18.0643134632
31
0.0000000000
11
0.7070067468
21
18.0496224681
31
0.0000000000
0
SPLINE
5
38D
100
AcDbEntity
8
0
100
AcDbSpline
62
9
6
CONTINUOUS
70
0
71
3
72
9
73
5
74
3
42
0.0000001000
43
0.0000001000
44
0.0000000001
12
-0.2496839352
22
-1.0402510316
32
0.0000000000
13
-0.2496491211
23
-1.0402593859
33
0.0000000000
40
0.0000000000
40
0.0000000000
40
0.0000000000
40
0.0000000000
40
0.2091347436
40
1.0000000000
40
1.0000000000
40
1.0000000000
40
1.0000000000
10
0.7070067468
20
18.0496224681
30
0.0000000000
10
0.6896008849
20
17.9771049239
30
0.0000000000
10
0.6063695497
20
17.6303553855
30
0.0000000000
10
0.5231499670
20
17.2836030273
30
0.0000000000
10
0.4573370282
20
17.0093680253
30
0.0000000000
11
0.7070067468
21
18.0496224681
31
0.0000000000
11
0.6547882710
21
17.8320700489
31
0.0000000000
11
0.4573370282
21
17.0093680253
31
0.0000000000
0
SPLINE
5
38E
100
AcDbEntity
8
0
100
AcDbSpline
62
9
6
CONTINUOUS
70
0
71
3
72
8
73
4
74
2
42
0.0000001000
43
0.0000001000
44
0.0000000001
12
-0.1465313525
22
0.0039700120
32
0.0000000000
13
-0.1431907531
23
-0.0376178016
33
0.0000000000
40
0.0000000000
40
0.0000000000
40
0.0000000000
40
0.0000000000
40
1.0000000000
40
1.0000000000
40
1.0000000000
40
1.0000000000
10
0.8063542662
20
18.4633381892
30
0.0000000000
10
0.7575104820
20
18.4646615265
30
0.0000000000
10
0.7080094752
20
18.4590073571
30
0.0000000000
10
0.6602792242
20
18.4464680899
30
0.0000000000
11
0.8063542662
21
18.4633381892
31
0.0000000000
11
0.6602792242
21
18.4464680899
31
0.0000000000
0
SPLINE
5
38F
100
AcDbEntity
8
0
100
AcDbSpline
62
9
6
CONTINUOUS
70
0
71
3
72
10
73
6
74
4
42
0.0000001000
43
0.0000001000
44
0.0000000001
12
-0.4152337646
22
-0.1090865230
32
0.0000000000
13
-0.1691530839
23
-0.3939404300
33
0.0000000000
40
0.0000000000
40
0.0000000000
40
0.0000000000
40
0.0000000000
40
0.1700634008
40
0.6722628007
40
1.0000000000
40
1.0000000000
40
1.0000000000
40
1.0000000000
10
0.6602792242
20
18.4464680899
30
0.0000000000
10
0.6367405354
20
18.4402842149
30
0.0000000000
10
0.5453942069
20
18.4092199265
30
0.0000000000
10
0.4262948002
20
18.3243461636
30
0.0000000000
10
0.3622117947
20
18.2219522720
30
0.0000000000
10
0.3437325420
20
18.1789159609
30
0.0000000000
11
0.6602792242
21
18.4464680899
31
0.0000000000
11
0.5912463545
21
18.4229040246
31
0.0000000000
11
0.4182446468
21
18.2978388304
31
0.0000000000
11
0.3437325420
21
18.1789159609
31
0.0000000000
0
SPLINE
5
390
100
AcDbEntity
8
0
100
AcDbSpline
62
9
6
CONTINUOUS
70
0
71
3
72
8
73
4
74
2
42
0.0000001000
43
0.0000001000
44
0.0000000001
12
-0.0164395674
22
-0.0382860903
32
0.0000000000
13
-0.0127276514
23
-0.0394724203
33
0.0000000000
40
0.0000000000
40
0.0000000000
40
0.0000000000
40
0.0000000000
40
1.0000000000
40
1.0000000000
40
1.0000000000
40
1.0000000000
10
0.3437325420
20
18.1789159609
30
0.0000000000
10
0.3382526862
20
18.1661539308
30
0.0000000000
10
0.3333731520
20
18.1531631293
30
0.0000000000
10
0.3291306016
20
18.1400056558
30
0.0000000000
11
0.3437325420
21
18.1789159609
31
0.0000000000
11
0.3291306016
21
18.1400056558
31
0.0000000000
0
SPLINE
5
391
100
AcDbEntity
8
0
100
AcDbSpline
62
9
6
CONTINUOUS
70
0
71
3
72
8
73
4
74
2
42
0.0000001000
43
0.0000001000
44
0.0000000001
12
-0.0087658981
22
-0.0271857867
32
0.0000000000
13
-0.0069170575
23
-0.0275992855
33
0.0000000000
40
0.0000000000
40
0.0000000000
40
0.0000000000
40
0.0000000000
40
1.0000000000
40
1.0000000000
40
1.0000000000
40
1.0000000000
10
0.3291306016
20
18.1400056558
30
0.0000000000
10
0.3262086356
20
18.1309437269
30
0.0000000000
10
0.3235888209
20
18.1218027377
30
0.0000000000
10
0.3212831351
20
18.1126029759
30
0.0000000000
11
0.3291306016
21
18.1400056558
31
0.0000000000
11
0.3212831351
21
18.1126029759
31
0.0000000000
0
SPLINE
5
392
100
AcDbEntity
8
0
100
AcDbSpline
62
9
6
CONTINUOUS
70
0
71
3
72
9
73
5
74
3
42
0.0000001000
43
0.0000001000
44
0.0000000001
12
0.0000023401
22
-0.0000002868
32
0.0000000000
13
-0.0066742968
23
-0.0534197958
33
0.0000000000
40
0.0000000000
40
0.0000000000
40
0.0000000000
40
0.0000000000
40
0.2750834724
40
1.0000000000
40
1.0000000000
40
1.0000000000
40
1.0000000000
10
0.8132594909
20
18.5188473923
30
0.0000000000
10
0.8132597055
20
18.5188473660
30
0.0000000000
10
0.8090939363
20
18.4855276272
30
0.0000000000
10
0.8079696134
20
18.4765410161
30
0.0000000000
10
0.8063568440
20
18.4636327185
30
0.0000000000
11
0.8132594909
21
18.5188473923
31
0.0000000000
11
0.8111979860
21
18.5023572572
31
0.0000000000
11
0.8063568440
21
18.4636327185
31
0.0000000000
0
SPLINE
5
393
100
AcDbEntity
8
0
100
AcDbSpline
62
0
6
CONTINUOUS
70
0
71
3
72
9
73
5
74
3
42
0.0000001000
43
0.0000001000
44
0.0000000001
12
0.0000000000
22
-0.2003076865
32
0.0000000000
13
0.0000000000
23
-0.2003076865
33
0.0000000000
40
0.0000000000
40
0.0000000000
40
0.0000000000
40
0.0000000000
40
0.5001280390
40
1.0000000000
40
1.0000000000
40
1.0000000000
40
1.0000000000
10
7.1573370282
20
-8.3428734497
30
0.0000000000
10
7.1573370282
20
-8.3762666132
30
0.0000000000
10
7.1573370282
20
-8.4430358420
30
0.0000000000
10
7.1573370282
20
-8.5098050708
30
0.0000000000
10
7.1573370282
20
-8.5431811362
30
0.0000000000
11
7.1573370282
21
-8.3428734497
31
0.0000000000
11
7.1573370282
21
-8.4430529401
31
0.0000000000
11
7.1573370282
21
-8.5431811362
31
0.0000000000
0
ENDSEC
0
SECTION
2
OBJECTS
0
DICTIONARY
5
C
100
AcDbDictionary
280
0
281
1
3
ACAD_GROUP
350
D
3
ACAD_MLINESTYLE
350
17
3
ACAD_LAYOUT
350
1A
3
ACAD_PLOTSETTINGS
350
19
3
ACAD_PLOTSTYLENAME
350
E
0
DICTIONARY
5
D
102
{ACAD_REACTORS
330
C
102
}
100
AcDbDictionary
280
0
281
1
0
ACDBDICTIONARYWDFLT
5
E
102
{ACAD_REACTORS
330
C
102
}
100
AcDbDictionary
281
1
3
Normal
350
F
100
AcDbDictionaryWithDefault
340
F
0
DICTIONARY
5
17
102
{ACAD_REACTORS
330
C
102
}
100
AcDbDictionary
280
0
281
1
3
Standard
350
18
0
DICTIONARY
5
19
102
{ACAD_REACTORS
330
C
102
}
100
AcDbDictionary
281
1
0
DICTIONARY
5
1A
102
{ACAD_REACTORS
330
C
102
}
100
AcDbDictionary
281
1
3
Layout1
350
1E
3
Model
350
22
0
ACDBPLACEHOLDER
5
F
102
{ACAD_REACTORS
330
E
102
}
0
MLINESTYLE
5
18
102
{ACAD_REACTORS
330
17
102
}
100
AcDbMlineStyle
2
STANDARD
70
0
3

62
256
51
90.0
52
90.0
71
2
49
0.5
62
256
6
BYLAYER
49
-0.5
62
256
6
BYLAYER
0
LAYOUT
5
1E
102
{ACAD_REACTORS
330
1A
102
}
100
AcDbPlotSettings
1

2

4

6

40
0.0
41
0.0
42
0.0
43
0.0
44
0.0
45
0.0
46
0.0
47
0.0
48
0.0
49
0.0
140
0.0
141
0.0
142
1.0
143
1.0
70
0
72
0
73
0
74
0
7

75
0
147
1.0
148
0.0
149
0.0
100
AcDbLayout
1
Layout1
70
0
71
0
10
0.0
20
0.0
11
0.0
21
0.0
12
0.0
22
0.0
32
0.0
14
0.0
24
0.0
34
0.0
15
0.0
25
0.0
35
0.0
146
0.0
13
0.0
23
0.0
33
0.0
16
0.0
26
0.0
36
0.0
17
0.0
27
0.0
37
0.0
76
0
330
1B
331
0
345
0
346
0
0
LAYOUT
5
22
102
{ACAD_REACTORS
330
1A
102
}
100
AcDbPlotSettings
1

2

4

6

40
0.0
41
0.0
42
0.0
43
0.0
44
0.0
45
0.0
46
0.0
47
0.0
48
0.0
49
0.0
140
0.0
141
0.0
142
1.0
143
1.0
70
0
72
0
73
0
74
0
7

75
0
147
1.0
148
0.0
149
0.0
100
AcDbLayout
1
Model
70
0
71
0
10
0.0
20
0.0
11
0.0
21
0.0
12
0.0
22
0.0
32
0.0
14
0.0
24
0.0
34
0.0
15
0.0
25
0.0
35
0.0
146
0.0
13
0.0
23
0.0
33
0.0
16
0.0
26
0.0
36
0.0
17
0.0
27
0.0
37
0.0
76
0
330
1F
331
0
345
0
346
0
0
ENDSEC
0
EOF
