0
SECTION
2
HEADER
9
$ACADVER
1
AC1015
9
$DWGCODEPAGE
3
ANSI_1252
9
$EXTMAX
10
297.0000000000
20
210.0000000000
30
0.0000000000
9
$EXTMIN
10
0.0000000000
20
0.0000000000
30
0.0000000000
9
$LIMMIN
10
0.0000000000
20
0.0000000000
9
$LIMMAX
10
297.0000000000
20
210.0000000000
9
$VIEWCTR
10
148.5000000000
20
105.0000000000
9
$VIEWSIZE
40
210.0000000000
9
$CLAYER
8
0
9
$LTSCALE
40
16.3350000000
9
$CELTYPE
6
BYLAYER
9
$DIMSCALE
40
1
9
$DIMASZ
40
3.0000000000
9
$DIMEXO
40
1.8562500000
9
$DIMDLI
40
11.2860000000
9
$DIMEXE
40
5.3460000000
9
$DIMCEN
40
2.6730000000
9
$DIMLFAC
40
1.0000000000
9
$DIMBLK
1
_FILLED
9
$DIMTXT
40
3.0000000000
9
$DIMTOL
70
1
9
$DIMLIM
70
0
9
$DIMTFAC
40
1.0000000000
9
$DIMTP
40
0.0100000000
9
$DIMTM
40
0.0100000000
9
$PDMODE
70
3
9
$PDSIZE
40
3.0000000000
9
$HANDSEED
5
453
9
$MEASUREMENT
70
1
9
$INSUNITS
70
4
0
ENDSEC
0
SECTION
2
CLASSES
0
CLASS
1
ACDBDICTIONARYWDFLT
2
AcDbDictionaryWithDefault
3
AutoCAD 2000
90
0
280
0
281
0
0
CLASS
1
ACDBPLACEHOLDER
2
AcDbPlaceHolder
3
AutoCAD 2000
90
0
280
0
281
0
0
CLASS
1
LAYOUT
2
AcDbLayout
3
AutoCAD 2000
90
0
280
0
281
0
0
ENDSEC
0
SECTION
2
TABLES
0
TABLE
2
VPORT
5
8
100
AcDbSymbolTable
70
2
0
VPORT
5
1F4
100
AcDbSymbolTableRecord
100
AcDbViewportTableRecord
2
*ACTIVE
70
0
10
0.0
20
0.0
11
1.0
21
1.0
12
148.5000000000
22
105.0000000000
13
0.0
23
0.0
14
1.0
24
1.0
15
0.0
25
0.0
16
0.0
26
0.0
36
1.0
17
0.0
27
0.0
37
0.0
40
210.0000000000
41
1.4142857143
42
50.0
43
0.0
44
0.0
50
0.0
51
0.0
71
0
72
100
73
1
74
1
75
0
76
0
77
0
78
0
0
ENDTAB
0
TABLE
2
LTYPE
5
5
100
AcDbSymbolTable
70
6
0
LTYPE
5
14
100
AcDbSymbolTableRecord
100
AcDbLinetypeTableRecord
2
BYBLOCK
70
0
3

72
65
73
0
40
0.0
0
LTYPE
5
15
100
AcDbSymbolTableRecord
100
AcDbLinetypeTableRecord
2
BYLAYER
70
0
3

72
65
73
0
40
0.0
0
LTYPE
5
16
100
AcDbSymbolTableRecord
100
AcDbLinetypeTableRecord
2
CONTINUOUS
70
64
3
Solid line
72
65
73
0
40
0
0
LTYPE
5
1F5
100
AcDbSymbolTableRecord
100
AcDbLinetypeTableRecord
2
CENTER
70
64
3
____ _ ____ _ ____ _ ____ _ ____ _ ____ _ ____
72
65
73
4
40
0.6
49
0.375
74
0
49
-0.075
74
0
49
0.075
74
0
49
-0.075
74
0
0
LTYPE
5
1F6
100
AcDbSymbolTableRecord
100
AcDbLinetypeTableRecord
2
HIDDEN
70
64
3
- - - - - - - - - - - - - - - - - - - -
72
65
73
2
40
0.2
49
0.1
74
0
49
-0.1
74
0
0
LTYPE
5
1F7
100
AcDbSymbolTableRecord
100
AcDbLinetypeTableRecord
2
PHANTOM
70
64
3
_____ _ _ _____ _ _ _____ _ _ _____
72
65
73
6
40
0.8
49
0.45
74
0
49
-0.05
74
0
49
0.1
74
0
49
-0.05
74
0
49
0.1
74
0
49
-0.05
74
0
0
LTYPE
5
1F8
100
AcDbSymbolTableRecord
100
AcDbLinetypeTableRecord
2
DOT
70
64
3
. . . . . . . . . . . . . . . . . . . .
72
65
73
2
40
0.2
49
0.1
74
0
49
-0.1
74
0
0
LTYPE
5
1F9
100
AcDbSymbolTableRecord
100
AcDbLinetypeTableRecord
2
DASHED
70
64
3
- - - - - - - - - - - - - - - - - - - -
72
65
73
2
40
0.2
49
0.1
74
0
49
-0.1
74
0
0
ENDTAB
0
TABLE
2
LAYER
5
2
100
AcDbSymbolTable
70
36
0
LAYER
5
10
100
AcDbSymbolTableRecord
100
AcDbLayerTableRecord
2
0
70
0
62
7
6
CONTINUOUS
370
-3
390
F
0
LAYER
5
1FA
100
AcDbSymbolTableRecord
100
AcDbLayerTableRecord
2
DEFAULT_1
70
0
62
7
6
CENTER
370
-3
390
F
0
LAYER
5
1FB
100
AcDbSymbolTableRecord
100
AcDbLayerTableRecord
2
DEFAULT_2
70
0
62
9
6
HIDDEN
370
-3
390
F
0
LAYER
5
1FC
100
AcDbSymbolTableRecord
100
AcDbLayerTableRecord
2
DEFAULT_3
70
0
62
7
6
PHANTOM
370
-3
390
F
0
LAYER
5
1FD
100
AcDbSymbolTableRecord
100
AcDbLayerTableRecord
2
_BLACK_HOLE
70
0
62
7
6
CONTINUOUS
370
-3
390
F
0
LAYER
5
1FE
100
AcDbSymbolTableRecord
100
AcDbLayerTableRecord
2
ASSI
70
0
62
7
6
CONTINUOUS
370
-3
390
F
0
LAYER
5
1FF
100
AcDbSymbolTableRecord
100
AcDbLayerTableRecord
2
COORDINATE
70
0
62
7
6
CONTINUOUS
370
-3
390
F
0
LAYER
5
200
100
AcDbSymbolTableRecord
100
AcDbLayerTableRecord
2
COPY_PUBLISH
70
0
62
7
6
CONTINUOUS
370
-3
390
F
0
LAYER
5
201
100
AcDbSymbolTableRecord
100
AcDbLayerTableRecord
2
COSMETIC
70
0
62
7
6
CONTINUOUS
370
-3
390
F
0
LAYER
5
202
100
AcDbSymbolTableRecord
100
AcDbLayerTableRecord
2
CURVE
70
0
62
7
6
CONTINUOUS
370
-3
390
F
0
LAYER
5
203
100
AcDbSymbolTableRecord
100
AcDbLayerTableRecord
2
DRAFT
70
0
62
7
6
CONTINUOUS
370
-3
390
F
0
LAYER
5
204
100
AcDbSymbolTableRecord
100
AcDbLayerTableRecord
2
IMPORT_IGES
70
0
62
7
6
CONTINUOUS
370
-3
390
F
0
LAYER
5
205
100
AcDbSymbolTableRecord
100
AcDbLayerTableRecord
2
PIANI
70
0
62
7
6
CONTINUOUS
370
-3
390
F
0
LAYER
5
206
100
AcDbSymbolTableRecord
100
AcDbLayerTableRecord
2
RACCORDO
70
0
62
7
6
CONTINUOUS
370
-3
390
F
0
LAYER
5
207
100
AcDbSymbolTableRecord
100
AcDbLayerTableRecord
2
SMUSSO
70
0
62
7
6
CONTINUOUS
370
-3
390
F
0
LAYER
5
208
100
AcDbSymbolTableRecord
100
AcDbLayerTableRecord
2
SNAPLINE
70
0
62
7
6
CONTINUOUS
370
-3
390
F
0
LAYER
5
209
100
AcDbSymbolTableRecord
100
AcDbLayerTableRecord
2
TRASH
70
0
62
7
6
CONTINUOUS
370
-3
390
F
0
ENDTAB
0
TABLE
2
STYLE
5
3
100
AcDbSymbolTable
70
1
0
STYLE
5
11
100
AcDbSymbolTableRecord
100
AcDbTextStyleTableRecord
2
STANDARD
70
0
40
0.0
41
0.8000000000
50
0.0
71
0
42
0.2
3
txt
4

0
ENDTAB
0
TABLE
2
VIEW
5
6
100
AcDbSymbolTable
70
0
0
ENDTAB
0
TABLE
2
UCS
5
7
100
AcDbSymbolTable
70
0
0
ENDTAB
0
TABLE
2
APPID
5
9
100
AcDbSymbolTable
70
1
0
APPID
5
20A
100
AcDbSymbolTableRecord
100
AcDbRegAppTableRecord
2
ACAD
70
0
0
ENDTAB
0
TABLE
2
BLOCK_RECORD
5
1
100
AcDbSymbolTable
70
0
0
BLOCK_RECORD
5
1F
100
AcDbSymbolTableRecord
100
AcDbBlockTableRecord
2
*MODEL_SPACE
0
BLOCK_RECORD
5
1B
100
AcDbSymbolTableRecord
100
AcDbBlockTableRecord
2
*PAPER_SPACE
0
BLOCK_RECORD
5
20B
100
AcDbSymbolTableRecord
100
AcDbBlockTableRecord
2
_FILLED
0
BLOCK_RECORD
5
20C
100
AcDbSymbolTableRecord
100
AcDbBlockTableRecord
2
*D0
0
BLOCK_RECORD
5
20D
100
AcDbSymbolTableRecord
100
AcDbBlockTableRecord
2
*D1
0
BLOCK_RECORD
5
20E
100
AcDbSymbolTableRecord
100
AcDbBlockTableRecord
2
*D2
0
ENDTAB
0
TABLE
2
DIMSTYLE
5
A
100
AcDbSymbolTable
70
1
100
AcDbDimStyleTable
71
0
0
DIMSTYLE
105
20F
100
AcDbSymbolTableRecord
100
AcDbDimStyleTableRecord
2
STANDARD
70
0
3

4

40
1.0
41
3.0000000000
42
0.0625
43
0.38
44
0.18
45
0.0
46
0.0
47
0.0100000000
48
0.0100000000
140
3.0000000000
141
0.09
142
0.0
143
25.4
144
1.0000000000
145
0.0
146
1.0000000000
147
0.09
71
1
72
0
73
0
74
0
75
0
76
0
77
1
78
8
170
0
171
2
172
0
173
0
174
0
175
0
176
0
177
0
178
0
270
2
271
2
272
2
273
2
274
2
275
0
280
0
281
0
282
0
283
1
284
8
285
0
286
0
287
3
288
0
340
11
341
20B
342
20B
343
20B
344
20B
0
DIMSTYLE
105
210
100
AcDbSymbolTableRecord
100
AcDbDimStyleTableRecord
2
DIMSTYLE_1
70
0
3

4

40
1.0
41
3.0000000000
42
0.0625
43
0.38
44
0.18
45
0.0
46
0.0
47
0.0000000000
48
0.0000000000
140
3.0000000000
141
0.09
142
0.0
143
25.4
144
1.0000000000
145
0.0
146
1.0000000000
147
0.09
71
0
72
0
73
0
74
0
75
0
76
0
77
1
78
8
170
0
171
2
172
0
173
0
174
0
175
0
176
0
177
0
178
0
270
2
271
2
272
2
273
2
274
2
275
0
280
0
281
0
282
0
283
1
284
8
285
0
286
0
287
3
288
0
340
11
341
20B
342
20B
343
20B
344
20B
0
ENDTAB
0
ENDSEC
0
SECTION
2
BLOCKS
0
BLOCK
5
20
100
AcDbEntity
8
0
100
AcDbBlockBegin
2
*MODEL_SPACE
70
0
10
0.0
20
0.0
30
0.0
3
*MODEL_SPACE
1

0
ENDBLK
5
21
100
AcDbEntity
8
0
100
AcDbBlockEnd
0
BLOCK
5
1C
100
AcDbEntity
8
0
100
AcDbBlockBegin
2
*PAPER_SPACE
70
0
10
0.0
20
0.0
30
0.0
3
*PAPER_SPACE
1

0
ENDBLK
5
1D
100
AcDbEntity
8
0
100
AcDbBlockEnd
0
BLOCK
5
211
100
AcDbEntity
8
0
100
AcDbBlockBegin
62
0
6
CONTINUOUS
2
*D0
70
65
10
0.0000000000
20
0.0000000000
3
*D0
1

0
TEXT
5
212
100
AcDbEntity
8
0
100
AcDbText
62
0
6
CONTINUOUS
10
84.8628266033
20
-4.9503261320
7
STANDARD
40
3.0000000000
1
67,9
50
90.0000000000
41
0.7321428571
72
0
100
AcDbText
0
LINE
5
213
100
AcDbEntity
8
0
100
AcDbLine
62
0
6
CONTINUOUS
10
63.6128266033
20
33.7641330629
11
87.1128266033
21
33.7641330629
0
LINE
5
214
100
AcDbEntity
8
0
100
AcDbLine
62
0
6
CONTINUOUS
10
71.6586599630
20
-34.1358669371
11
87.1128266033
21
-34.1358669371
0
LINE
5
215
100
AcDbEntity
8
0
100
AcDbLine
62
0
6
CONTINUOUS
10
85.6128266033
20
33.7641330629
11
85.6128266033
21
-0.1858669371
0
LINE
5
216
100
AcDbEntity
8
0
100
AcDbLine
62
0
6
CONTINUOUS
10
85.6128266033
20
-34.1358669371
11
85.6128266033
21
-0.1858669371
0
INSERT
5
217
100
AcDbEntity
8
0
100
AcDbBlockReference
62
0
6
CONTINUOUS
2
_FILLED
10
85.6128266033
20
33.7641330629
41
  3.000000
42
  3.000000
43
  3.000000
50
 90.000000
0
INSERT
5
218
100
AcDbEntity
8
0
100
AcDbBlockReference
62
0
6
CONTINUOUS
2
_FILLED
10
85.6128266033
20
-34.1358669371
41
  3.000000
42
  3.000000
43
  3.000000
50
270.000000
0
ENDBLK
5
219
100
AcDbEntity
8
0
6
BYBLOCK
62
0
100
AcDbBlockEnd
0
BLOCK
5
21A
100
AcDbEntity
8
0
100
AcDbBlockBegin
62
0
6
CONTINUOUS
2
*D1
70
65
10
0.0000000000
20
0.0000000000
3
*D1
1

0
TEXT
5
21B
100
AcDbEntity
8
0
100
AcDbText
62
0
6
CONTINUOUS
10
61.6121102439
20
-41.3858669371
7
STANDARD
40
3.0000000000
1
29
41
0.7857142857
72
0
100
AcDbText
0
LINE
5
21C
100
AcDbEntity
8
0
100
AcDbLine
62
0
6
CONTINUOUS
10
48.6128266033
20
-2.1358669371
11
48.6128266033
21
-43.6358669371
0
LINE
5
21D
100
AcDbEntity
8
0
100
AcDbLine
62
0
6
CONTINUOUS
10
77.6128266033
20
-3.9358669371
11
77.6128266033
21
-43.6358669371
0
LINE
5
21E
100
AcDbEntity
8
0
100
AcDbLine
62
0
6
CONTINUOUS
10
48.6128266033
20
-42.1358669371
11
63.1128266033
21
-42.1358669371
0
LINE
5
21F
100
AcDbEntity
8
0
100
AcDbLine
62
0
6
CONTINUOUS
10
77.6128266033
20
-42.1358669371
11
63.1128266033
21
-42.1358669371
0
INSERT
5
220
100
AcDbEntity
8
0
100
AcDbBlockReference
62
0
6
CONTINUOUS
2
_FILLED
10
48.6128266033
20
-42.1358669371
41
  3.000000
42
  3.000000
43
  3.000000
50
180.000000
0
INSERT
5
221
100
AcDbEntity
8
0
100
AcDbBlockReference
62
0
6
CONTINUOUS
2
_FILLED
10
77.6128266033
20
-42.1358669371
41
  3.000000
42
  3.000000
43
  3.000000
0
ENDBLK
5
222
100
AcDbEntity
8
0
6
BYBLOCK
62
0
100
AcDbBlockEnd
0
BLOCK
5
223
100
AcDbEntity
8
0
100
AcDbBlockBegin
62
0
6
CONTINUOUS
2
*D2
70
65
10
0.0000000000
20
0.0000000000
3
*D2
1

0
TEXT
5
224
100
AcDbEntity
8
0
100
AcDbText
62
0
6
CONTINUOUS
10
-3.5800539760
20
-41.3858669371
7
STANDARD
40
3.0000000000
1
59,7
41
0.7142857143
72
0
100
AcDbText
0
LINE
5
225
100
AcDbEntity
8
0
100
AcDbLine
62
0
6
CONTINUOUS
10
29.6279097387
20
-3.9358669371
11
29.6279097387
21
-43.6358669371
0
LINE
5
226
100
AcDbEntity
8
0
100
AcDbLine
62
0
6
CONTINUOUS
10
-30.0720902613
20
-31.3358669371
11
-30.0720902613
21
-43.6358669371
0
LINE
5
227
100
AcDbEntity
8
0
100
AcDbLine
62
0
6
CONTINUOUS
10
29.6279097387
20
-42.1358669371
11
-0.2220902613
21
-42.1358669371
0
LINE
5
228
100
AcDbEntity
8
0
100
AcDbLine
62
0
6
CONTINUOUS
10
-30.0720902613
20
-42.1358669371
11
-0.2220902613
21
-42.1358669371
0
INSERT
5
229
100
AcDbEntity
8
0
100
AcDbBlockReference
62
0
6
CONTINUOUS
2
_FILLED
10
29.6279097387
20
-42.1358669371
41
  3.000000
42
  3.000000
43
  3.000000
0
INSERT
5
22A
100
AcDbEntity
8
0
100
AcDbBlockReference
62
0
6
CONTINUOUS
2
_FILLED
10
-30.0720902613
20
-42.1358669371
41
  3.000000
42
  3.000000
43
  3.000000
50
180.000000
0
ENDBLK
5
22B
100
AcDbEntity
8
0
6
BYBLOCK
62
0
100
AcDbBlockEnd
0
BLOCK
5
22C
100
AcDbEntity
8
0
100
AcDbBlockBegin
2
_FILLED
70
64
10
0.0000000000
20
0.0000000000
3
_FILLED
1

0
SOLID
5
22D
100
AcDbEntity
8
0
6
BYBLOCK
62
0
100
AcDbTrace
10
0.0000000000
20
0.0000000000
11
-1.0000000000
21
0.3166666667
12
-1.0000000000
22
-0.3166666667
13
-1.0000000000
23
-0.3166666667
0
ENDBLK
5
22E
100
AcDbEntity
8
0
6
BYBLOCK
62
0
100
AcDbBlockEnd
0
ENDSEC
0
SECTION
2
ENTITIES
0
DIMENSION
5
22F
100
AcDbEntity
8
0
100
AcDbDimension
62
0
6
CONTINUOUS
2
*D0
10
85.6128266033
20
-34.1358669371
11
83.3628266033
21
-0.5574689892
70
160
42
67.900000
3
DIMSTYLE_1
100
AcDbAlignedDimension
13
63.6128266033
23
33.7641330629
14
71.6586599630
24
-34.1358669371
50
270.000000
100
AcDbRotatedDimension
0
DIMENSION
5
230
100
AcDbEntity
8
0
100
AcDbDimension
62
0
6
CONTINUOUS
2
*D1
10
77.6128266033
20
-42.1358669371
11
63.9692531011
21
-39.8858669371
70
160
42
29.000000
3
DIMSTYLE_1
100
AcDbAlignedDimension
13
48.6128266033
23
-2.1358669371
14
77.6128266033
24
-3.9358669371
100
AcDbRotatedDimension
0
DIMENSION
5
231
100
AcDbEntity
8
0
100
AcDbDimension
62
0
6
CONTINUOUS
2
*D2
10
-30.0720902613
20
-42.1358669371
11
0.7056603097
21
-39.8858669371
70
160
42
59.700000
3
DIMSTYLE_1
100
AcDbAlignedDimension
13
29.6279097387
23
-3.9358669371
14
-30.0720902613
24
-31.3358669371
50
180.000000
100
AcDbRotatedDimension
0
LINE
5
232
100
AcDbEntity
8
0
100
AcDbLine
62
0
6
CONTINUOUS
10
59.0078268379
20
33.0708674516
11
59.0079805520
21
33.0709208942
0
LINE
5
233
100
AcDbEntity
8
0
100
AcDbLine
62
0
6
CONTINUOUS
10
72.2628266033
20
-34.1358669371
11
67.8461600420
21
-34.1358669371
0
LINE
5
234
100
AcDbEntity
8
0
100
AcDbLine
62
0
6
CONTINUOUS
10
52.2628266033
20
-33.9358669371
11
58.5628266033
21
-33.9358669371
0
LINE
5
235
100
AcDbEntity
8
0
100
AcDbLine
62
0
6
CONTINUOUS
10
63.5128266033
20
-33.9358669371
11
73.9628266033
21
-33.9358669371
0
LINE
5
236
100
AcDbEntity
8
0
100
AcDbLine
62
0
6
CONTINUOUS
10
64.0628266033
20
-32.8358669371
11
58.5628266033
21
-32.8358669371
0
LINE
5
237
100
AcDbEntity
8
0
100
AcDbLine
62
0
6
CONTINUOUS
10
64.0628266033
20
-31.2358669371
11
62.8639892368
21
-31.2358669371
0
LINE
5
238
100
AcDbEntity
8
0
100
AcDbLine
62
0
6
CONTINUOUS
10
61.6128266033
20
29.2749070579
11
58.2577119300
21
27.7924606916
0
LINE
5
239
100
AcDbEntity
8
0
100
AcDbLine
62
0
6
CONTINUOUS
10
57.3628266033
20
-28.7358669371
11
64.0628266033
21
-28.7358669371
0
LINE
5
23A
100
AcDbEntity
8
0
100
AcDbLine
62
0
6
CONTINUOUS
10
52.2628266033
20
-27.7358669371
11
73.9628266033
21
-27.7358669371
0
LINE
5
23B
100
AcDbEntity
8
0
100
AcDbLine
62
9
6
CONTINUOUS
10
57.2436492693
20
-26.0253970881
11
57.3841698046
21
-26.0253970881
0
LINE
5
23C
100
AcDbEntity
8
0
100
AcDbLine
62
9
6
CONTINUOUS
10
68.8414834020
20
-26.0253970881
11
68.9820039373
21
-26.0253970881
0
LINE
5
23D
100
AcDbEntity
8
0
100
AcDbLine
62
9
6
CONTINUOUS
10
69.3995103893
20
-26.0253970881
11
73.2640645869
21
-26.0253970881
0
LINE
5
23E
100
AcDbEntity
8
0
100
AcDbLine
62
9
6
CONTINUOUS
10
52.9615886197
20
-26.0253970881
11
56.8261428174
21
-26.0253970881
0
LINE
5
23F
100
AcDbEntity
8
0
100
AcDbLine
62
0
6
CONTINUOUS
10
53.2164837329
20
-25.7358669371
11
57.1245204513
21
-25.7358669371
0
LINE
5
240
100
AcDbEntity
8
0
100
AcDbLine
62
0
6
CONTINUOUS
10
69.1011327554
20
-25.7358669371
11
73.0091694738
21
-25.7358669371
0
LINE
5
241
100
AcDbEntity
8
0
100
AcDbLine
62
9
6
CONTINUOUS
10
60.9663799939
20
31.2034728911
11
61.3199333845
21
31.5570262817
0
LINE
5
242
100
AcDbEntity
8
0
100
AcDbLine
62
0
6
CONTINUOUS
10
58.1602173156
20
27.7190123613
11
55.8604529494
21
24.9486525749
0
LINE
5
243
100
AcDbEntity
8
0
100
AcDbLine
62
0
6
CONTINUOUS
10
64.9057198221
20
31.5570262817
11
66.1821781894
21
32.8334846489
0
LINE
5
244
100
AcDbEntity
8
0
100
AcDbLine
62
9
6
CONTINUOUS
10
65.2592732127
20
31.3247407036
11
66.5357315800
21
32.6011990708
0
LINE
5
245
100
AcDbEntity
8
0
100
AcDbLine
62
9
6
CONTINUOUS
10
65.3199333845
20
31.2641330629
11
65.2592732127
21
31.2034728911
0
LINE
5
246
100
AcDbEntity
8
0
100
AcDbLine
62
9
6
CONTINUOUS
10
68.4428169601
20
22.9820395784
11
68.1572817624
21
22.8900088723
0
LINE
5
247
100
AcDbEntity
8
0
100
AcDbLine
62
9
6
CONTINUOUS
10
57.7828362465
20
19.5462265473
11
58.0683714442
21
19.6382572534
0
LINE
5
248
100
AcDbEntity
8
0
100
AcDbLine
62
9
6
CONTINUOUS
10
57.9472528328
20
22.4375245669
11
58.1341380787
21
22.6722028676
0
LINE
5
249
100
AcDbEntity
8
0
100
AcDbLine
62
0
6
CONTINUOUS
10
48.6128266033
20
-1.6358669371
11
48.6128266033
21
-3.4358669371
0
LINE
5
24A
100
AcDbEntity
8
0
100
AcDbLine
62
0
6
CONTINUOUS
10
50.6128266033
20
21.2641330629
11
50.6128266033
21
3.2641330629
0
LINE
5
24B
100
AcDbEntity
8
0
100
AcDbLine
62
0
6
CONTINUOUS
10
50.6128266033
20
-0.8657107253
11
50.6128266033
21
2.4641330629
0
LINE
5
24C
100
AcDbEntity
8
0
100
AcDbLine
62
9
6
CONTINUOUS
10
51.1128266033
20
21.2641330629
11
51.1128266033
21
3.2641330629
0
LINE
5
24D
100
AcDbEntity
8
0
100
AcDbLine
62
0
6
CONTINUOUS
10
55.8027026437
20
24.8358810568
11
54.9763227350
21
21.3215281771
0
LINE
5
24E
100
AcDbEntity
8
0
100
AcDbLine
62
0
6
CONTINUOUS
10
50.6128266033
20
2.3716405322
11
50.0588325788
21
1.0641330629
0
LINE
5
24F
100
AcDbEntity
8
0
100
AcDbLine
62
0
6
CONTINUOUS
10
50.3284047138
20
4.9241838114
11
48.7363487590
21
1.3420579131
0
LINE
5
250
100
AcDbEntity
8
0
100
AcDbLine
62
9
6
CONTINUOUS
10
59.4401357510
20
17.0366820692
11
59.6368870323
21
17.2631526707
0
LINE
5
251
100
AcDbEntity
8
0
100
AcDbLine
62
9
6
CONTINUOUS
10
66.7855174556
20
25.4915840565
11
66.5887661744
21
25.2651134550
0
LINE
5
252
100
AcDbEntity
8
0
100
AcDbLine
62
0
6
CONTINUOUS
10
49.5110549308
20
-2.6712605886
11
49.1621359049
21
-1.7640711213
0
LINE
5
253
100
AcDbEntity
8
0
100
AcDbLine
62
9
6
CONTINUOUS
10
51.4128266033
20
2.9641330629
11
51.4128266033
21
2.4641330629
0
LINE
5
254
100
AcDbEntity
8
0
100
AcDbLine
62
0
6
CONTINUOUS
10
51.7128266033
20
-2.9358669371
11
51.7128266033
21
2.4641330629
0
LINE
5
255
100
AcDbEntity
8
0
100
AcDbLine
62
0
6
CONTINUOUS
10
52.2628266033
20
-33.9358669371
11
52.2628266033
21
-27.7358669371
0
LINE
5
256
100
AcDbEntity
8
0
100
AcDbLine
62
0
6
CONTINUOUS
10
53.3628266033
20
3.8641330629
11
53.3628266033
21
-2.9358669371
0
LINE
5
257
100
AcDbEntity
8
0
100
AcDbLine
62
0
6
CONTINUOUS
10
57.6406316398
20
27.0931050801
11
56.7138688376
21
21.8371720492
0
LINE
5
258
100
AcDbEntity
8
0
100
AcDbLine
62
0
6
CONTINUOUS
10
56.9985945629
20
21.7243007337
11
58.0274158157
21
27.5590360001
0
LINE
5
259
100
AcDbEntity
8
0
100
AcDbLine
62
0
6
CONTINUOUS
10
64.6128266033
20
13.2533590678
11
68.0256201936
21
14.7612906736
0
LINE
5
25A
100
AcDbEntity
8
0
100
AcDbLine
62
0
6
CONTINUOUS
10
48.8028201286
20
0.8266411563
11
50.2566528414
21
-0.9906497348
0
LINE
5
25B
100
AcDbEntity
8
0
100
AcDbLine
62
0
6
CONTINUOUS
10
54.3628266033
20
3.8641330629
11
54.3628266033
21
-2.9358669371
0
LINE
5
25C
100
AcDbEntity
8
0
100
AcDbLine
62
0
6
CONTINUOUS
10
54.4128266033
20
-3.9358669371
11
54.4128266033
21
-25.7358669371
0
LINE
5
25D
100
AcDbEntity
8
0
100
AcDbLine
62
0
6
CONTINUOUS
10
54.5628266033
20
-2.9358669371
11
54.5628266033
21
-2.0698415334
0
LINE
5
25E
100
AcDbEntity
8
0
100
AcDbLine
62
9
6
CONTINUOUS
10
55.2628266033
20
-33.9358669371
11
55.2628266033
21
-27.7358669371
0
LINE
5
25F
100
AcDbEntity
8
0
100
AcDbLine
62
9
6
CONTINUOUS
10
55.4732187979
20
-2.9358669371
11
55.4732187979
21
-3.9358669371
0
LINE
5
260
100
AcDbEntity
8
0
100
AcDbLine
62
0
6
CONTINUOUS
10
55.5628266033
20
-2.9358669371
11
55.5628266033
21
-2.0698415334
0
LINE
5
261
100
AcDbEntity
8
0
100
AcDbLine
62
0
6
CONTINUOUS
10
52.9168381514
20
-26.0212886826
11
52.8335622474
21
-27.7358669371
0
LINE
5
262
100
AcDbEntity
8
0
100
AcDbLine
62
9
6
CONTINUOUS
10
52.9615886197
20
-26.0253970881
11
52.8776843578
21
-27.7358669371
0
LINE
5
263
100
AcDbEntity
8
0
100
AcDbLine
62
9
6
CONTINUOUS
10
68.2784003739
20
20.0907415589
11
68.0915151279
21
19.8560632581
0
LINE
5
264
100
AcDbEntity
8
0
100
AcDbLine
62
0
6
CONTINUOUS
10
50.0588325788
20
1.0641330629
11
50.6128266033
21
0.3716405322
0
LINE
5
265
100
AcDbEntity
8
0
100
AcDbLine
62
0
6
CONTINUOUS
10
57.5050977141
20
-27.7358669371
11
57.4241874411
21
-26.0217355810
0
LINE
5
266
100
AcDbEntity
8
0
100
AcDbLine
62
9
6
CONTINUOUS
10
56.8261428174
20
-26.0253970881
11
56.8484939801
21
-27.7358669371
0
LINE
5
267
100
AcDbEntity
8
0
100
AcDbLine
62
0
6
CONTINUOUS
10
57.3628266033
20
-33.9358669371
11
57.3628266033
21
-28.7358669371
0
LINE
5
268
100
AcDbEntity
8
0
100
AcDbLine
62
9
6
CONTINUOUS
10
57.4343801493
20
-2.9358669371
11
57.4343801493
21
-3.9358669371
0
LINE
5
269
100
AcDbEntity
8
0
100
AcDbLine
62
0
6
CONTINUOUS
10
68.0589219277
20
14.8014068639
11
70.4087764305
21
17.6321066148
0
LINE
5
26A
100
AcDbEntity
8
0
100
AcDbLine
62
0
6
CONTINUOUS
10
59.8653298427
20
-6.3647991253
11
63.7603233640
21
-6.3647991253
0
LINE
5
26B
100
AcDbEntity
8
0
100
AcDbLine
62
0
6
CONTINUOUS
10
58.5628266033
20
-33.9358669371
11
58.5628266033
21
-32.8358669371
0
LINE
5
26C
100
AcDbEntity
8
0
100
AcDbLine
62
9
6
CONTINUOUS
10
58.5628266033
20
-32.8358669371
11
58.5628266033
21
-28.7358669371
0
LINE
5
26D
100
AcDbEntity
8
0
100
AcDbLine
62
0
6
CONTINUOUS
10
58.6128266033
20
-2.9358669371
11
58.6128266033
21
-0.1358669371
0
LINE
5
26E
100
AcDbEntity
8
0
100
AcDbLine
62
0
6
CONTINUOUS
10
58.8128266033
20
-2.9358669371
11
58.8128266033
21
-0.1358669371
0
LINE
5
26F
100
AcDbEntity
8
0
100
AcDbLine
62
9
6
CONTINUOUS
10
58.8716614439
20
-1.6358669371
11
58.8716614439
21
-3.9358669371
0
LINE
5
270
100
AcDbEntity
8
0
100
AcDbLine
62
9
6
CONTINUOUS
10
59.7680545633
20
25.6141330629
11
59.7680545633
21
25.3141330629
0
LINE
5
271
100
AcDbEntity
8
0
100
AcDbLine
62
9
6
CONTINUOUS
10
59.7680545633
20
16.9141330629
11
59.7680545633
21
17.2141330629
0
LINE
5
272
100
AcDbEntity
8
0
100
AcDbLine
62
9
6
CONTINUOUS
10
60.3425324574
20
-1.6358669371
11
60.3425324574
21
-3.9358669371
0
LINE
5
273
100
AcDbEntity
8
0
100
AcDbLine
62
0
6
CONTINUOUS
10
60.4628266033
20
-1.6358669371
11
60.4628266033
21
-1.0358669371
0
LINE
5
274
100
AcDbEntity
8
0
100
AcDbLine
62
9
6
CONTINUOUS
10
60.6128266033
20
25.6141330629
11
60.6128266033
21
25.3141330629
0
LINE
5
275
100
AcDbEntity
8
0
100
AcDbLine
62
9
6
CONTINUOUS
10
60.6128266033
20
16.9141330629
11
60.6128266033
21
17.2141330629
0
LINE
5
276
100
AcDbEntity
8
0
100
AcDbLine
62
9
6
CONTINUOUS
10
60.8128266033
20
25.1141330629
11
60.8128266033
21
22.2439289600
0
LINE
5
277
100
AcDbEntity
8
0
100
AcDbLine
62
9
6
CONTINUOUS
10
60.8128266033
20
20.2843371657
11
60.8128266033
21
17.4141330629
0
LINE
5
278
100
AcDbEntity
8
0
100
AcDbLine
62
0
6
CONTINUOUS
10
54.4128266033
20
-4.7505855629
11
66.9128266033
21
-4.7505855629
0
LINE
5
279
100
AcDbEntity
8
0
100
AcDbLine
62
0
6
CONTINUOUS
10
77.1128266033
20
-3.9358669371
11
49.1128266033
21
-3.9358669371
0
LINE
5
27A
100
AcDbEntity
8
0
100
AcDbLine
62
0
6
CONTINUOUS
10
75.2628266033
20
-2.9358669371
11
72.8628266033
21
-2.9358669371
0
LINE
5
27B
100
AcDbEntity
8
0
100
AcDbLine
62
0
6
CONTINUOUS
10
71.8628266033
20
-2.9358669371
11
70.7524344088
21
-2.9358669371
0
LINE
5
27C
100
AcDbEntity
8
0
100
AcDbLine
62
0
6
CONTINUOUS
10
53.3628266033
20
-2.9358669371
11
50.9628266033
21
-2.9358669371
0
LINE
5
27D
100
AcDbEntity
8
0
100
AcDbLine
62
0
6
CONTINUOUS
10
54.3628266033
20
-2.9358669371
11
55.4732187979
21
-2.9358669371
0
LINE
5
27E
100
AcDbEntity
8
0
100
AcDbLine
62
0
6
CONTINUOUS
10
55.5628266033
20
-2.9358669371
11
58.8128266033
21
-2.9358669371
0
LINE
5
27F
100
AcDbEntity
8
0
100
AcDbLine
62
0
6
CONTINUOUS
10
67.4128266033
20
-2.9358669371
11
70.6628266033
21
-2.9358669371
0
LINE
5
280
100
AcDbEntity
8
0
100
AcDbLine
62
0
6
CONTINUOUS
10
54.9741333108
20
21.2160489317
11
55.8038716859
21
17.6874134728
0
LINE
5
281
100
AcDbEntity
8
0
100
AcDbLine
62
0
6
CONTINUOUS
10
56.7138688376
20
20.6910940766
11
57.6406316398
21
15.4351610457
0
LINE
5
282
100
AcDbEntity
8
0
100
AcDbLine
62
0
6
CONTINUOUS
10
58.0274158157
20
14.9692301256
11
56.9985945629
21
20.8039653920
0
LINE
5
283
100
AcDbEntity
8
0
100
AcDbLine
62
0
6
CONTINUOUS
10
61.1128266033
20
25.1141330629
11
61.1128266033
21
22.7641330629
0
LINE
5
284
100
AcDbEntity
8
0
100
AcDbLine
62
0
6
CONTINUOUS
10
61.1128266033
20
19.7641330629
11
61.1128266033
21
17.4141330629
0
LINE
5
285
100
AcDbEntity
8
0
100
AcDbLine
62
9
6
CONTINUOUS
10
61.1128266033
20
29.1649241625
11
61.1128266033
21
30.8499195005
0
LINE
5
286
100
AcDbEntity
8
0
100
AcDbLine
62
0
6
CONTINUOUS
10
61.2128266033
20
-1.0358669371
11
61.2128266033
21
-0.0358669371
0
LINE
5
287
100
AcDbEntity
8
0
100
AcDbLine
62
0
6
CONTINUOUS
10
61.6128266033
20
17.4141330629
11
61.6128266033
21
18.8146433201
0
LINE
5
288
100
AcDbEntity
8
0
100
AcDbLine
62
0
6
CONTINUOUS
10
61.6128266033
20
23.7136228056
11
61.6128266033
21
25.1141330629
0
LINE
5
289
100
AcDbEntity
8
0
100
AcDbLine
62
0
6
CONTINUOUS
10
61.6128266033
20
29.2749070579
11
61.6128266033
21
30.8499195005
0
LINE
5
28A
100
AcDbEntity
8
0
100
AcDbLine
62
0
6
CONTINUOUS
10
62.2642984659
20
-1.0358669371
11
62.2642984659
21
-0.0358669371
0
LINE
5
28B
100
AcDbEntity
8
0
100
AcDbLine
62
0
6
CONTINUOUS
10
62.8639892368
20
-28.7358669371
11
62.8639892368
21
-31.2358669371
0
LINE
5
28C
100
AcDbEntity
8
0
100
AcDbLine
62
0
6
CONTINUOUS
10
61.5628266033
20
0.9641330629
11
60.4628266033
21
-0.1358669371
0
LINE
5
28D
100
AcDbEntity
8
0
100
AcDbLine
62
0
6
CONTINUOUS
10
71.6628266033
20
-2.0698415334
11
70.6628266033
21
-2.0698415334
0
LINE
5
28E
100
AcDbEntity
8
0
100
AcDbLine
62
0
6
CONTINUOUS
10
54.5628266033
20
-2.0698415334
11
55.5628266033
21
-2.0698415334
0
LINE
5
28F
100
AcDbEntity
8
0
100
AcDbLine
62
0
6
CONTINUOUS
10
77.6128266033
20
-1.6358669371
11
77.2501864230
21
-1.6358669371
0
LINE
5
290
100
AcDbEntity
8
0
100
AcDbLine
62
0
6
CONTINUOUS
10
48.9754667837
20
-1.6358669371
11
48.6128266033
21
-1.6358669371
0
LINE
5
291
100
AcDbEntity
8
0
100
AcDbLine
62
0
6
CONTINUOUS
10
58.8128266033
20
-1.6358669371
11
60.4628266033
21
-1.6358669371
0
LINE
5
292
100
AcDbEntity
8
0
100
AcDbLine
62
0
6
CONTINUOUS
10
65.7628266033
20
-1.6358669371
11
67.4128266033
21
-1.6358669371
0
LINE
5
293
100
AcDbEntity
8
0
100
AcDbLine
62
0
6
CONTINUOUS
10
60.4628266033
20
-1.0358669371
11
62.2642984659
21
-1.0358669371
0
LINE
5
294
100
AcDbEntity
8
0
100
AcDbLine
62
0
6
CONTINUOUS
10
63.9613547407
20
-1.0358669371
11
65.7628266033
21
-1.0358669371
0
LINE
5
295
100
AcDbEntity
8
0
100
AcDbLine
62
0
6
CONTINUOUS
10
67.6128266033
20
-0.1358669371
11
65.7628266033
21
-0.1358669371
0
LINE
5
296
100
AcDbEntity
8
0
100
AcDbLine
62
0
6
CONTINUOUS
10
60.4628266033
20
-0.1358669371
11
58.6128266033
21
-0.1358669371
0
LINE
5
297
100
AcDbEntity
8
0
100
AcDbLine
62
9
6
CONTINUOUS
10
61.2128266033
20
-0.0358669371
11
65.0128266033
21
-0.0358669371
0
LINE
5
298
100
AcDbEntity
8
0
100
AcDbLine
62
0
6
CONTINUOUS
10
63.5128266033
20
-33.9358669371
11
63.5128266033
21
-31.2358669371
0
LINE
5
299
100
AcDbEntity
8
0
100
AcDbLine
62
0
6
CONTINUOUS
10
63.9613547407
20
-1.0358669371
11
63.9613547407
21
-0.0358669371
0
LINE
5
29A
100
AcDbEntity
8
0
100
AcDbLine
62
0
6
CONTINUOUS
10
64.0628266033
20
-28.7358669371
11
64.0628266033
21
-33.9358669371
0
LINE
5
29B
100
AcDbEntity
8
0
100
AcDbLine
62
0
6
CONTINUOUS
10
64.6128266033
20
30.8499195005
11
64.6128266033
21
29.2749070579
0
LINE
5
29C
100
AcDbEntity
8
0
100
AcDbLine
62
0
6
CONTINUOUS
10
64.6128266033
20
17.4141330629
11
64.6128266033
21
18.8146433201
0
LINE
5
29D
100
AcDbEntity
8
0
100
AcDbLine
62
0
6
CONTINUOUS
10
64.6128266033
20
23.7136228056
11
64.6128266033
21
25.1141330629
0
LINE
5
29E
100
AcDbEntity
8
0
100
AcDbLine
62
0
6
CONTINUOUS
10
65.0128266033
20
-1.0358669371
11
65.0128266033
21
-0.0358669371
0
LINE
5
29F
100
AcDbEntity
8
0
100
AcDbLine
62
9
6
CONTINUOUS
10
65.1128266033
20
30.8499195005
11
65.1128266033
21
29.1649241625
0
LINE
5
2A0
100
AcDbEntity
8
0
100
AcDbLine
62
0
6
CONTINUOUS
10
65.1128266033
20
17.4141330629
11
65.1128266033
21
19.7641330629
0
LINE
5
2A1
100
AcDbEntity
8
0
100
AcDbLine
62
0
6
CONTINUOUS
10
65.1128266033
20
22.7641330629
11
65.1128266033
21
25.1141330629
0
LINE
5
2A2
100
AcDbEntity
8
0
100
AcDbLine
62
9
6
CONTINUOUS
10
65.4128266033
20
17.4141330629
11
65.4128266033
21
20.2843371657
0
LINE
5
2A3
100
AcDbEntity
8
0
100
AcDbLine
62
9
6
CONTINUOUS
10
65.4128266033
20
22.2439289600
11
65.4128266033
21
25.1141330629
0
LINE
5
2A4
100
AcDbEntity
8
0
100
AcDbLine
62
9
6
CONTINUOUS
10
65.6128266033
20
25.6141330629
11
65.6128266033
21
25.3141330629
0
LINE
5
2A5
100
AcDbEntity
8
0
100
AcDbLine
62
9
6
CONTINUOUS
10
65.6128266033
20
16.9141330629
11
65.6128266033
21
17.2141330629
0
LINE
5
2A6
100
AcDbEntity
8
0
100
AcDbLine
62
0
6
CONTINUOUS
10
65.7628266033
20
-1.6358669371
11
65.7628266033
21
-1.0358669371
0
LINE
5
2A7
100
AcDbEntity
8
0
100
AcDbLine
62
9
6
CONTINUOUS
10
65.8831207492
20
-1.6358669371
11
65.8831207492
21
-3.9358669371
0
LINE
5
2A8
100
AcDbEntity
8
0
100
AcDbLine
62
0
6
CONTINUOUS
10
69.2163420431
20
20.7431885299
11
68.1982373910
21
14.9692301256
0
LINE
5
2A9
100
AcDbEntity
8
0
100
AcDbLine
62
0
6
CONTINUOUS
10
68.5850215669
20
15.4351610457
11
69.5117843690
21
20.6910940766
0
LINE
5
2AA
100
AcDbEntity
8
0
100
AcDbLine
62
0
6
CONTINUOUS
10
61.5128266033
20
0.2641330629
11
64.7128266033
21
0.2641330629
0
LINE
5
2AB
100
AcDbEntity
8
0
100
AcDbLine
62
0
6
CONTINUOUS
10
77.0588325788
20
0.3716405322
11
75.6128266033
21
0.3716405322
0
LINE
5
2AC
100
AcDbEntity
8
0
100
AcDbLine
62
0
6
CONTINUOUS
10
49.1668206279
20
0.3716405322
11
50.6128266033
21
0.3716405322
0
LINE
5
2AD
100
AcDbEntity
8
0
100
AcDbLine
62
0
6
CONTINUOUS
10
64.6628266033
20
0.9641330629
11
61.5628266033
21
0.9641330629
0
LINE
5
2AE
100
AcDbEntity
8
0
100
AcDbLine
62
0
6
CONTINUOUS
10
77.5267635554
20
1.0641330629
11
76.1668206279
21
1.0641330629
0
LINE
5
2AF
100
AcDbEntity
8
0
100
AcDbLine
62
0
6
CONTINUOUS
10
48.6988896513
20
1.0641330629
11
50.0588325788
21
1.0641330629
0
LINE
5
2B0
100
AcDbEntity
8
0
100
AcDbLine
62
0
6
CONTINUOUS
10
72.8628266033
20
2.0641330629
11
71.8628266033
21
2.0641330629
0
LINE
5
2B1
100
AcDbEntity
8
0
100
AcDbLine
62
0
6
CONTINUOUS
10
53.3628266033
20
2.0641330629
11
54.3628266033
21
2.0641330629
0
LINE
5
2B2
100
AcDbEntity
8
0
100
AcDbLine
62
0
6
CONTINUOUS
10
50.6128266033
20
2.4641330629
11
53.3628266033
21
2.4641330629
0
LINE
5
2B3
100
AcDbEntity
8
0
100
AcDbLine
62
0
6
CONTINUOUS
10
72.8628266033
20
2.4641330629
11
75.6128266033
21
2.4641330629
0
LINE
5
2B4
100
AcDbEntity
8
0
100
AcDbLine
62
0
6
CONTINUOUS
10
65.7628266033
20
-0.1358669371
11
64.6628266033
21
0.9641330629
0
LINE
5
2B5
100
AcDbEntity
8
0
100
AcDbLine
62
9
6
CONTINUOUS
10
66.4575986434
20
25.6141330629
11
66.4575986434
21
25.3141330629
0
LINE
5
2B6
100
AcDbEntity
8
0
100
AcDbLine
62
9
6
CONTINUOUS
10
66.4575986434
20
16.9141330629
11
66.4575986434
21
17.2141330629
0
LINE
5
2B7
100
AcDbEntity
8
0
100
AcDbLine
62
0
6
CONTINUOUS
10
66.9128266033
20
-27.7358669371
11
66.9128266033
21
-3.9358669371
0
LINE
5
2B8
100
AcDbEntity
8
0
100
AcDbLine
62
9
6
CONTINUOUS
10
67.3539917628
20
-1.6358669371
11
67.3539917628
21
-3.9358669371
0
LINE
5
2B9
100
AcDbEntity
8
0
100
AcDbLine
62
0
6
CONTINUOUS
10
67.4128266033
20
-2.9358669371
11
67.4128266033
21
-0.1358669371
0
LINE
5
2BA
100
AcDbEntity
8
0
100
AcDbLine
62
0
6
CONTINUOUS
10
67.6128266033
20
-2.9358669371
11
67.6128266033
21
-0.1358669371
0
LINE
5
2BB
100
AcDbEntity
8
0
100
AcDbLine
62
0
6
CONTINUOUS
10
67.8461600420
20
-33.9358669371
11
67.8461600420
21
-34.1358669371
0
LINE
5
2BC
100
AcDbEntity
8
0
100
AcDbLine
62
0
6
CONTINUOUS
10
70.4213571793
20
17.6856088725
11
71.2628266033
21
21.2641330629
0
LINE
5
2BD
100
AcDbEntity
8
0
100
AcDbLine
62
9
6
CONTINUOUS
10
51.4128266033
20
2.9641330629
11
53.3628266033
21
2.9641330629
0
LINE
5
2BE
100
AcDbEntity
8
0
100
AcDbLine
62
9
6
CONTINUOUS
10
72.8628266033
20
2.9641330629
11
74.6128266033
21
2.9641330629
0
LINE
5
2BF
100
AcDbEntity
8
0
100
AcDbLine
62
9
6
CONTINUOUS
10
51.1128266033
20
3.2641330629
11
50.6128266033
21
3.2641330628
0
LINE
5
2C0
100
AcDbEntity
8
0
100
AcDbLine
62
9
6
CONTINUOUS
10
75.1128266033
20
3.4641330629
11
75.6128266033
21
3.4641330629
0
LINE
5
2C1
100
AcDbEntity
8
0
100
AcDbLine
62
0
6
CONTINUOUS
10
54.3628266033
20
3.8641330629
11
53.3628266033
21
3.8641330629
0
LINE
5
2C2
100
AcDbEntity
8
0
100
AcDbLine
62
0
6
CONTINUOUS
10
71.8628266033
20
3.8641330629
11
72.8628266033
21
3.8641330629
0
LINE
5
2C3
100
AcDbEntity
8
0
100
AcDbLine
62
0
6
CONTINUOUS
10
68.5086600420
20
-33.9358669371
11
68.5086600420
21
-34.1358669371
0
LINE
5
2C4
100
AcDbEntity
8
0
100
AcDbLine
62
9
6
CONTINUOUS
10
68.7912730574
20
-3.9358669371
11
68.7912730574
21
-2.9358669371
0
LINE
5
2C5
100
AcDbEntity
8
0
100
AcDbLine
62
0
6
CONTINUOUS
10
68.9503266033
20
-33.9358669371
11
68.9503266033
21
-34.1358669371
0
LINE
5
2C6
100
AcDbEntity
8
0
100
AcDbLine
62
0
6
CONTINUOUS
10
70.6628266033
20
-2.9358669371
11
70.6628266033
21
-2.0698415334
0
LINE
5
2C7
100
AcDbEntity
8
0
100
AcDbLine
62
9
6
CONTINUOUS
10
70.7524344088
20
-3.9358669371
11
70.7524344088
21
-2.9358669371
0
LINE
5
2C8
100
AcDbEntity
8
0
100
AcDbLine
62
9
6
CONTINUOUS
10
69.3995103893
20
-26.0253970881
11
69.3771592266
21
-27.7358669371
0
LINE
5
2C9
100
AcDbEntity
8
0
100
AcDbLine
62
0
6
CONTINUOUS
10
68.8014657656
20
-26.0217355810
11
68.7205554926
21
-27.7358669371
0
LINE
5
2CA
100
AcDbEntity
8
0
100
AcDbLine
62
0
6
CONTINUOUS
10
55.8168767762
20
17.6321066148
11
58.1648803022
21
14.8036366017
0
LINE
5
2CB
100
AcDbEntity
8
0
100
AcDbLine
62
9
6
CONTINUOUS
10
73.2640645869
20
-26.0253970881
11
73.3479688488
21
-27.7358669371
0
LINE
5
2CC
100
AcDbEntity
8
0
100
AcDbLine
62
0
6
CONTINUOUS
10
73.3920909593
20
-27.7358669371
11
73.3088150553
21
-26.0212886826
0
LINE
5
2CD
100
AcDbEntity
8
0
100
AcDbLine
62
9
6
CONTINUOUS
10
70.9628266033
20
-33.9358669371
11
70.9628266033
21
-27.7358669371
0
LINE
5
2CE
100
AcDbEntity
8
0
100
AcDbLine
62
0
6
CONTINUOUS
10
71.1586599630
20
-33.9358669371
11
71.1586599630
21
-34.1358669371
0
LINE
5
2CF
100
AcDbEntity
8
0
100
AcDbLine
62
0
6
CONTINUOUS
10
71.6003266033
20
-33.9358669371
11
71.6003266033
21
-34.1358669371
0
LINE
5
2D0
100
AcDbEntity
8
0
100
AcDbLine
62
0
6
CONTINUOUS
10
71.6628266033
20
-2.9358669371
11
71.6628266033
21
-2.0698415334
0
LINE
5
2D1
100
AcDbEntity
8
0
100
AcDbLine
62
0
6
CONTINUOUS
10
71.8628266033
20
3.8641330629
11
71.8628266033
21
-2.9358669371
0
LINE
5
2D2
100
AcDbEntity
8
0
100
AcDbLine
62
0
6
CONTINUOUS
10
72.2628266033
20
-33.9358669371
11
72.2628266033
21
-34.1358669371
0
LINE
5
2D3
100
AcDbEntity
8
0
100
AcDbLine
62
0
6
CONTINUOUS
10
72.8628266033
20
3.8641330629
11
72.8628266033
21
-2.9358669371
0
LINE
5
2D4
100
AcDbEntity
8
0
100
AcDbLine
62
0
6
CONTINUOUS
10
76.1668206279
20
1.0641330629
11
75.6128266033
21
0.3716405322
0
LINE
5
2D5
100
AcDbEntity
8
0
100
AcDbLine
62
9
6
CONTINUOUS
10
57.9472528328
20
20.0907415589
11
58.1341380787
21
19.8560632581
0
LINE
5
2D6
100
AcDbEntity
8
0
100
AcDbLine
62
0
6
CONTINUOUS
10
68.1982373910
20
27.5590360001
11
69.2163420431
21
21.7850775959
0
LINE
5
2D7
100
AcDbEntity
8
0
100
AcDbLine
62
0
6
CONTINUOUS
10
69.5117843690
20
21.8371720492
11
68.5850215669
21
27.0931050801
0
LINE
5
2D8
100
AcDbEntity
8
0
100
AcDbLine
62
0
6
CONTINUOUS
10
73.9628266033
20
-33.9358669371
11
73.9628266033
21
-27.7358669371
0
LINE
5
2D9
100
AcDbEntity
8
0
100
AcDbLine
62
0
6
CONTINUOUS
10
74.5128266033
20
-2.9358669371
11
74.5128266033
21
2.4641330629
0
LINE
5
2DA
100
AcDbEntity
8
0
100
AcDbLine
62
9
6
CONTINUOUS
10
74.6128266033
20
2.9641330629
11
74.6128266034
21
2.4641330629
0
LINE
5
2DB
100
AcDbEntity
8
0
100
AcDbLine
62
9
6
CONTINUOUS
10
75.1128266033
20
3.4641330629
11
75.1128266033
21
21.2641330629
0
LINE
5
2DC
100
AcDbEntity
8
0
100
AcDbLine
62
0
6
CONTINUOUS
10
75.6128266033
20
2.4641330629
11
75.6128266033
21
-0.8657107253
0
LINE
5
2DD
100
AcDbEntity
8
0
100
AcDbLine
62
0
6
CONTINUOUS
10
75.6128266033
20
3.4641330629
11
75.6128266033
21
21.2641330629
0
LINE
5
2DE
100
AcDbEntity
8
0
100
AcDbLine
62
0
6
CONTINUOUS
10
75.9690003652
20
-0.9906497348
11
77.4228330781
21
0.8266411563
0
LINE
5
2DF
100
AcDbEntity
8
0
100
AcDbLine
62
0
6
CONTINUOUS
10
58.2000330131
20
14.7612906736
11
61.6128266033
21
13.2533590678
0
LINE
5
2E0
100
AcDbEntity
8
0
100
AcDbLine
62
0
6
CONTINUOUS
10
76.1668206279
20
1.0641330629
11
75.6128266033
21
2.3716405322
0
LINE
5
2E1
100
AcDbEntity
8
0
100
AcDbLine
62
0
6
CONTINUOUS
10
77.6128266033
20
-3.4358669371
11
77.6128266033
21
-1.6358669371
0
LINE
5
2E2
100
AcDbEntity
8
0
100
AcDbLine
62
0
6
CONTINUOUS
10
77.0635173017
20
-1.7640711213
11
76.7145982758
21
-2.6712605886
0
LINE
5
2E3
100
AcDbEntity
8
0
100
AcDbLine
62
0
6
CONTINUOUS
10
61.6128266033
20
13.2533590678
11
64.6128266033
21
13.2533590678
0
LINE
5
2E4
100
AcDbEntity
8
0
100
AcDbLine
62
9
6
CONTINUOUS
10
66.7855174706
20
17.0366820823
11
66.5887661744
21
17.2631526707
0
LINE
5
2E5
100
AcDbEntity
8
0
100
AcDbLine
62
9
6
CONTINUOUS
10
59.4401357360
20
25.4915840434
11
59.6368870323
21
25.2651134550
0
LINE
5
2E6
100
AcDbEntity
8
0
100
AcDbLine
62
0
6
CONTINUOUS
10
77.4893044477
20
1.3420579131
11
75.8972484929
21
4.9241838114
0
LINE
5
2E7
100
AcDbEntity
8
0
100
AcDbLine
62
0
6
CONTINUOUS
10
71.2497886902
20
21.3195795072
11
70.4226903423
21
24.8369876996
0
LINE
5
2E8
100
AcDbEntity
8
0
100
AcDbLine
62
0
6
CONTINUOUS
10
66.4575986434
20
16.4141330629
11
65.6128266033
21
16.4141330629
0
LINE
5
2E9
100
AcDbEntity
8
0
100
AcDbLine
62
0
6
CONTINUOUS
10
60.6128266033
20
16.4141330629
11
59.7680545633
21
16.4141330629
0
LINE
5
2EA
100
AcDbEntity
8
0
100
AcDbLine
62
0
6
CONTINUOUS
10
66.4575986434
20
16.9141330629
11
65.6128266033
21
16.9141330629
0
LINE
5
2EB
100
AcDbEntity
8
0
100
AcDbLine
62
0
6
CONTINUOUS
10
60.6128266033
20
16.9141330629
11
59.7680545633
21
16.9141330629
0
LINE
5
2EC
100
AcDbEntity
8
0
100
AcDbLine
62
9
6
CONTINUOUS
10
66.4575986434
20
17.2141330629
11
65.6128266033
21
17.2141330629
0
LINE
5
2ED
100
AcDbEntity
8
0
100
AcDbLine
62
9
6
CONTINUOUS
10
60.6128266033
20
17.2141330629
11
59.7680545633
21
17.2141330629
0
LINE
5
2EE
100
AcDbEntity
8
0
100
AcDbLine
62
9
6
CONTINUOUS
10
61.1128266033
20
17.4141330629
11
60.8128266033
21
17.4141330629
0
LINE
5
2EF
100
AcDbEntity
8
0
100
AcDbLine
62
9
6
CONTINUOUS
10
65.1128266033
20
17.4141330629
11
65.4128266033
21
17.4141330629
0
LINE
5
2F0
100
AcDbEntity
8
0
100
AcDbLine
62
9
6
CONTINUOUS
10
68.2784003738
20
22.4375245668
11
68.0915151279
21
22.6722028676
0
LINE
5
2F1
100
AcDbEntity
8
0
100
AcDbLine
62
9
6
CONTINUOUS
10
51.1128266033
20
21.2641330629
11
50.6128266033
21
21.2641330629
0
LINE
5
2F2
100
AcDbEntity
8
0
100
AcDbLine
62
9
6
CONTINUOUS
10
75.1128266033
20
21.2641330629
11
75.6128266033
21
21.2641329853
0
LINE
5
2F3
100
AcDbEntity
8
0
100
AcDbLine
62
9
6
CONTINUOUS
10
68.4428169663
20
19.5462265664
11
68.1572817624
21
19.6382572534
0
LINE
5
2F4
100
AcDbEntity
8
0
100
AcDbLine
62
9
6
CONTINUOUS
10
57.7828362403
20
22.9820395593
11
58.0683714442
21
22.8900088723
0
LINE
5
2F5
100
AcDbEntity
8
0
100
AcDbLine
62
9
6
CONTINUOUS
10
60.9663799939
20
31.2034728911
11
60.9057198221
21
31.2641330629
0
LINE
5
2F6
100
AcDbEntity
8
0
100
AcDbLine
62
9
6
CONTINUOUS
10
60.9663799939
20
31.3247407036
11
59.6899216267
21
32.6011990708
0
LINE
5
2F7
100
AcDbEntity
8
0
100
AcDbLine
62
0
6
CONTINUOUS
10
61.3199333845
20
31.5570262817
11
60.0434456382
21
32.8335140280
0
LINE
5
2F8
100
AcDbEntity
8
0
100
AcDbLine
62
0
6
CONTINUOUS
10
70.3654586827
20
24.9483412685
11
68.0652057255
21
27.7192896251
0
LINE
5
2F9
100
AcDbEntity
8
0
100
AcDbLine
62
9
6
CONTINUOUS
10
65.2592732127
20
31.2034728911
11
64.9061506385
21
31.5565954653
0
LINE
5
2FA
100
AcDbEntity
8
0
100
AcDbLine
62
9
6
CONTINUOUS
10
61.1128266033
20
25.1141330629
11
60.8128266033
21
25.1141330629
0
LINE
5
2FB
100
AcDbEntity
8
0
100
AcDbLine
62
9
6
CONTINUOUS
10
65.1128266033
20
25.1141330629
11
65.4128266033
21
25.1141330629
0
LINE
5
2FC
100
AcDbEntity
8
0
100
AcDbLine
62
9
6
CONTINUOUS
10
59.7680545633
20
25.3141330629
11
60.6128266033
21
25.3141330629
0
LINE
5
2FD
100
AcDbEntity
8
0
100
AcDbLine
62
9
6
CONTINUOUS
10
65.6128266033
20
25.3141330629
11
66.4575986434
21
25.3141330629
0
LINE
5
2FE
100
AcDbEntity
8
0
100
AcDbLine
62
0
6
CONTINUOUS
10
59.7680545633
20
25.6141330629
11
60.6128266033
21
25.6141330629
0
LINE
5
2FF
100
AcDbEntity
8
0
100
AcDbLine
62
0
6
CONTINUOUS
10
65.6128266033
20
25.6141330629
11
66.4575986434
21
25.6141330629
0
LINE
5
300
100
AcDbEntity
8
0
100
AcDbLine
62
0
6
CONTINUOUS
10
59.7680545633
20
26.1141330629
11
60.6128266033
21
26.1141330629
0
LINE
5
301
100
AcDbEntity
8
0
100
AcDbLine
62
0
6
CONTINUOUS
10
65.6128266033
20
26.1141330629
11
66.4575986434
21
26.1141330629
0
LINE
5
302
100
AcDbEntity
8
0
100
AcDbLine
62
0
6
CONTINUOUS
10
67.9679160250
20
27.7924718489
11
64.6128266033
21
29.2749070579
0
LINE
5
303
100
AcDbEntity
8
0
100
AcDbLine
62
9
6
CONTINUOUS
10
65.1128266033
20
30.8499195005
11
64.6128266033
21
30.8499195005
0
LINE
5
304
100
AcDbEntity
8
0
100
AcDbLine
62
9
6
CONTINUOUS
10
61.1128266033
20
30.8499195005
11
61.6128266033
21
30.8499195005
0
LINE
5
305
100
AcDbEntity
8
0
100
AcDbLine
62
0
6
CONTINUOUS
10
56.4795770226
20
31.2641330629
11
60.9057198221
21
31.2641330629
0
LINE
5
306
100
AcDbEntity
8
0
100
AcDbLine
62
0
6
CONTINUOUS
10
65.3199333845
20
31.2641330629
11
69.7460761840
21
31.2641330629
0
LINE
5
307
100
AcDbEntity
8
0
100
AcDbLine
62
0
6
CONTINUOUS
10
67.2176726547
20
33.0709208942
11
67.2176319102
21
33.0709350597
0
LINE
5
308
100
AcDbEntity
8
0
100
AcDbLine
62
0
6
CONTINUOUS
10
-10.0720902613
20
-34.1358669371
11
-15.3720902613
21
-34.1358669371
0
LINE
5
309
100
AcDbEntity
8
0
100
AcDbLine
62
0
6
CONTINUOUS
10
-3.7005173860
20
-33.9358669371
11
-26.8720902613
21
-33.9358669371
0
LINE
5
30A
100
AcDbEntity
8
0
100
AcDbLine
62
0
6
CONTINUOUS
10
-26.8720902613
20
-33.1358669371
11
-29.7720902613
21
-33.1358669371
0
LINE
5
30B
100
AcDbEntity
8
0
100
AcDbLine
62
0
6
CONTINUOUS
10
-30.0720902613
20
-32.8358247970
11
-30.0720902613
21
-28.8359090773
0
LINE
5
30C
100
AcDbEntity
8
0
100
AcDbLine
62
0
6
CONTINUOUS
10
-5.3720902613
20
-31.7358669371
11
-0.6720902613
21
-31.7358669371
0
LINE
5
30D
100
AcDbEntity
8
0
100
AcDbLine
62
9
6
CONTINUOUS
10
-29.7720902613
20
-33.1358669343
11
-29.7720902613
21
-28.5358669400
0
LINE
5
30E
100
AcDbEntity
8
0
100
AcDbLine
62
0
6
CONTINUOUS
10
2.2279097387
20
-28.8358669371
11
-5.3431580731
21
-28.8358669371
0
LINE
5
30F
100
AcDbEntity
8
0
100
AcDbLine
62
0
6
CONTINUOUS
10
-26.8720902613
20
-28.5358669371
11
-29.7720902613
21
-28.5358669371
0
LINE
5
310
100
AcDbEntity
8
0
100
AcDbLine
62
0
6
CONTINUOUS
10
-5.1573716355
20
-27.7358669371
11
-26.8720902613
21
-27.7358669371
0
LINE
5
311
100
AcDbEntity
8
0
100
AcDbLine
62
0
6
CONTINUOUS
10
-1.6502648543
20
-26.9358669371
11
-2.9431580731
21
-26.9358669371
0
LINE
5
312
100
AcDbEntity
8
0
100
AcDbLine
62
0
6
CONTINUOUS
10
-26.8720902613
20
-33.9358669371
11
-26.8720902613
21
-27.7358669371
0
LINE
5
313
100
AcDbEntity
8
0
100
AcDbLine
62
0
6
CONTINUOUS
10
-26.3180786360
20
-26.0212870964
11
-26.4013546172
21
-27.7358669371
0
LINE
5
314
100
AcDbEntity
8
0
100
AcDbLine
62
9
6
CONTINUOUS
10
-26.2733282449
20
-26.0253970881
11
-26.3572325068
21
-27.7358669371
0
LINE
5
315
100
AcDbEntity
8
0
100
AcDbLine
62
9
6
CONTINUOUS
10
-21.9912675953
20
-26.0253970881
11
-21.8507470600
21
-26.0253970881
0
LINE
5
316
100
AcDbEntity
8
0
100
AcDbLine
62
9
6
CONTINUOUS
10
-10.3934334626
20
-26.0253970881
11
-10.2529129273
21
-26.0253970881
0
LINE
5
317
100
AcDbEntity
8
0
100
AcDbLine
62
9
6
CONTINUOUS
10
-9.8354064754
20
-26.0253970881
11
-5.9708522777
21
-26.0253970881
0
LINE
5
318
100
AcDbEntity
8
0
100
AcDbLine
62
9
6
CONTINUOUS
10
-26.2733282449
20
-26.0253970881
11
-22.4087740472
21
-26.0253970881
0
LINE
5
319
100
AcDbEntity
8
0
100
AcDbLine
62
0
6
CONTINUOUS
10
-26.0184331317
20
-25.7358669371
11
-22.1103964133
21
-25.7358669371
0
LINE
5
31A
100
AcDbEntity
8
0
100
AcDbLine
62
0
6
CONTINUOUS
10
-10.1337841092
20
-25.7358669371
11
-6.2257473908
21
-25.7358669371
0
LINE
5
31B
100
AcDbEntity
8
0
100
AcDbLine
62
0
6
CONTINUOUS
10
-21.7298191506
20
-27.7358669371
11
-21.8107297067
21
-26.0217295765
0
LINE
5
31C
100
AcDbEntity
8
0
100
AcDbLine
62
9
6
CONTINUOUS
10
-22.4087740472
20
-26.0253970881
11
-22.3864228845
21
-27.7358669371
0
LINE
5
31D
100
AcDbEntity
8
0
100
AcDbLine
62
9
6
CONTINUOUS
10
-23.8720902613
20
-33.9358669371
11
-23.8720902613
21
-27.7358669371
0
LINE
5
31E
100
AcDbEntity
8
0
100
AcDbLine
62
0
6
CONTINUOUS
10
-15.3720902613
20
-33.9358669371
11
-15.3720902613
21
-34.1358669371
0
LINE
5
31F
100
AcDbEntity
8
0
100
AcDbLine
62
0
6
CONTINUOUS
10
-10.0720902613
20
-33.9358669371
11
-10.0720902613
21
-34.1358669371
0
LINE
5
320
100
AcDbEntity
8
0
100
AcDbLine
62
9
6
CONTINUOUS
10
-9.8354064754
20
-26.0253970881
11
-9.8577576380
21
-27.7358669371
0
LINE
5
321
100
AcDbEntity
8
0
100
AcDbLine
62
0
6
CONTINUOUS
10
-10.4334510990
20
-26.0217355810
11
-10.5143613720
21
-27.7358669371
0
LINE
5
322
100
AcDbEntity
8
0
100
AcDbLine
62
9
6
CONTINUOUS
10
-5.9708522777
20
-26.0253970881
11
-5.8869480158
21
-27.7358669371
0
LINE
5
323
100
AcDbEntity
8
0
100
AcDbLine
62
0
6
CONTINUOUS
10
-5.8428259053
20
-27.7358669371
11
-5.9261018094
21
-26.0212886826
0
LINE
5
324
100
AcDbEntity
8
0
100
AcDbLine
62
0
6
CONTINUOUS
10
-5.3720902613
20
-33.9358669371
11
-5.3720902613
21
-27.7358669371
0
LINE
5
325
100
AcDbEntity
8
0
100
AcDbLine
62
0
6
CONTINUOUS
10
29.6279097387
20
-3.9358669371
11
5.8279097387
21
-3.9358669371
0
LINE
5
326
100
AcDbEntity
8
0
100
AcDbLine
62
9
6
CONTINUOUS
10
29.6279097387
20
-3.4358669371
11
15.8279097387
21
-3.4358669371
0
LINE
5
327
100
AcDbEntity
8
0
100
AcDbLine
62
0
6
CONTINUOUS
10
7.3279097387
20
-2.9358669371
11
15.8259013406
21
-2.9358669371
0
LINE
5
328
100
AcDbEntity
8
0
100
AcDbLine
62
0
6
CONTINUOUS
10
5.8279097387
20
-1.6358669371
11
29.6279097387
21
-1.6358669371
0
LINE
5
329
100
AcDbEntity
8
0
100
AcDbLine
62
0
6
CONTINUOUS
10
17.6279097387
20
-1.0657107253
11
24.8279097387
21
-1.0657107253
0
LINE
5
32A
100
AcDbEntity
8
0
100
AcDbLine
62
0
6
CONTINUOUS
10
5.8279097387
20
-1.0358669371
11
7.5279097387
21
-1.0358669371
0
LINE
5
32B
100
AcDbEntity
8
0
100
AcDbLine
62
0
6
CONTINUOUS
10
8.5279097387
20
-1.0358669371
11
9.4246363302
21
-1.0358669371
0
LINE
5
32C
100
AcDbEntity
8
0
100
AcDbLine
62
9
6
CONTINUOUS
10
17.6279097387
20
-0.9906497348
11
24.8279097387
21
-0.9906497348
0
LINE
5
32D
100
AcDbEntity
8
0
100
AcDbLine
62
0
6
CONTINUOUS
10
7.5279097387
20
-0.5358669371
11
8.0279097387
21
-0.5358669371
0
LINE
5
32E
100
AcDbEntity
8
0
100
AcDbLine
62
9
6
CONTINUOUS
10
5.8279097387
20
-0.0358669371
11
7.5279097387
21
-0.0358669371
0
LINE
5
32F
100
AcDbEntity
8
0
100
AcDbLine
62
0
6
CONTINUOUS
10
6.1279097387
20
0.2641330629
11
9.4246363302
21
0.2641330629
0
LINE
5
330
100
AcDbEntity
8
0
100
AcDbLine
62
9
6
CONTINUOUS
10
18.2849574381
20
0.8266411563
11
24.8279097387
21
0.8266411563
0
LINE
5
331
100
AcDbEntity
8
0
100
AcDbLine
62
9
6
CONTINUOUS
10
18.6279097387
20
1.3420579131
11
24.8279097387
21
1.3420579131
0
LINE
5
332
100
AcDbEntity
8
0
100
AcDbLine
62
0
6
CONTINUOUS
10
25.3279097387
20
2.4641330629
11
24.8279097387
21
2.4641330629
0
LINE
5
333
100
AcDbEntity
8
0
100
AcDbLine
62
0
6
CONTINUOUS
10
18.1279097387
20
2.4641330629
11
18.6279097387
21
2.4641330629
0
LINE
5
334
100
AcDbEntity
8
0
100
AcDbLine
62
0
6
CONTINUOUS
10
5.8279097387
20
-3.9358669371
11
5.8279097387
21
-0.0358669371
0
LINE
5
335
100
AcDbEntity
8
0
100
AcDbLine
62
9
6
CONTINUOUS
10
17.6279097387
20
3.4641330629
11
18.6279097387
21
3.4641330629
0
LINE
5
336
100
AcDbEntity
8
0
100
AcDbLine
62
9
6
CONTINUOUS
10
24.8279097387
20
4.9241838114
11
18.6279097387
21
4.9241838114
0
LINE
5
337
100
AcDbEntity
8
0
100
AcDbLine
62
0
6
CONTINUOUS
10
26.4279097387
20
6.0641330629
11
24.8279097387
21
6.0641330629
0
LINE
5
338
100
AcDbEntity
8
0
100
AcDbLine
62
0
6
CONTINUOUS
10
8.5279097387
20
-1.0358669371
11
8.0279097387
21
-0.5358669371
0
LINE
5
339
100
AcDbEntity
8
0
100
AcDbLine
62
9
6
CONTINUOUS
10
7.0337355360
20
-1.6358669371
11
7.0337355360
21
-3.9358669371
0
LINE
5
33A
100
AcDbEntity
8
0
100
AcDbLine
62
0
6
CONTINUOUS
10
7.3279097387
20
-2.9358669371
11
7.3279097387
21
-1.6358669371
0
LINE
5
33B
100
AcDbEntity
8
0
100
AcDbLine
62
0
6
CONTINUOUS
10
7.5279097387
20
-1.6358669371
11
7.5279097387
21
0.2641330629
0
LINE
5
33C
100
AcDbEntity
8
0
100
AcDbLine
62
0
6
CONTINUOUS
10
8.8561954244
20
-1.0358669371
11
8.8561954244
21
0.2641330629
0
LINE
5
33D
100
AcDbEntity
8
0
100
AcDbLine
62
9
6
CONTINUOUS
10
24.8279097387
20
6.2644407493
11
18.6279097387
21
6.2644407493
0
LINE
5
33E
100
AcDbEntity
8
0
100
AcDbLine
62
0
6
CONTINUOUS
10
9.4279097387
20
-1.0358669371
11
9.4279097387
21
0.2641330629
0
LINE
5
33F
100
AcDbEntity
8
0
100
AcDbLine
62
0
6
CONTINUOUS
10
17.6280313399
20
31.2646194677
11
17.9987990252
21
32.7476902089
0
LINE
5
340
100
AcDbEntity
8
0
100
AcDbLine
62
0
6
CONTINUOUS
10
17.6279097387
20
3.8641330629
11
15.8279097387
21
2.0641330629
0
LINE
5
341
100
AcDbEntity
8
0
100
AcDbLine
62
0
6
CONTINUOUS
10
17.6279097387
20
0.3716405322
11
18.6279097387
21
1.0641330629
0
LINE
5
342
100
AcDbEntity
8
0
100
AcDbLine
62
9
6
CONTINUOUS
10
14.2201420090
20
-3.9358669371
11
14.2201420090
21
-2.9358669371
0
LINE
5
343
100
AcDbEntity
8
0
100
AcDbLine
62
0
6
CONTINUOUS
10
15.8279097387
20
-3.9358669371
11
15.8279097387
21
2.0641330629
0
LINE
5
344
100
AcDbEntity
8
0
100
AcDbLine
62
0
6
CONTINUOUS
10
17.6279097387
20
-1.0654990443
11
17.6279097387
21
0.3716405322
0
LINE
5
345
100
AcDbEntity
8
0
100
AcDbLine
62
0
6
CONTINUOUS
10
17.6279097387
20
2.9641330629
11
17.6279097387
21
31.2641330629
0
LINE
5
346
100
AcDbEntity
8
0
100
AcDbLine
62
0
6
CONTINUOUS
10
17.8279097387
20
-4.7505855629
11
17.8279097387
21
-3.9358669371
0
LINE
5
347
100
AcDbEntity
8
0
100
AcDbLine
62
9
6
CONTINUOUS
10
18.1279097387
20
2.4641330629
11
18.1279097387
21
31.6166822336
0
LINE
5
348
100
AcDbEntity
8
0
100
AcDbLine
62
0
6
CONTINUOUS
10
-5.1573716355
20
-27.7358669371
11
17.8279097387
21
-4.7505855629
0
LINE
5
349
100
AcDbEntity
8
0
100
AcDbLine
62
0
6
CONTINUOUS
10
-2.9431580731
20
-26.9358669371
11
-4.4896046826
21
-28.4823135465
0
LINE
5
34A
100
AcDbEntity
8
0
100
AcDbLine
62
0
6
CONTINUOUS
10
18.6279097387
20
1.0641330629
11
18.6279097387
21
6.2644407493
0
LINE
5
34B
100
AcDbEntity
8
0
100
AcDbLine
62
0
6
CONTINUOUS
10
7.5977865123
20
-18.5162426953
11
-0.2360512920
21
-26.3500804995
0
LINE
5
34C
100
AcDbEntity
8
0
100
AcDbLine
62
0
6
CONTINUOUS
10
24.7925996462
20
-6.0342352617
11
8.8454047868
21
-17.4578926014
0
LINE
5
34D
100
AcDbEntity
8
0
100
AcDbLine
62
9
6
CONTINUOUS
10
17.6279097387
20
21.2641330629
11
26.4279097387
21
21.2641330629
0
LINE
5
34E
100
AcDbEntity
8
0
100
AcDbLine
62
0
6
CONTINUOUS
10
25.0421233011
20
-6.0216533748
11
-2.2863038237
21
-33.3500804995
0
LINE
5
34F
100
AcDbEntity
8
0
100
AcDbLine
62
0
6
CONTINUOUS
10
-5.3720902613
20
-28.8478510419
11
-4.4896046826
21
-28.4823135465
0
LINE
5
350
100
AcDbEntity
8
0
100
AcDbLine
62
0
6
CONTINUOUS
10
26.4279097387
20
5.0641330629
11
29.1896473576
21
1.6119610393
0
LINE
5
351
100
AcDbEntity
8
0
100
AcDbLine
62
0
6
CONTINUOUS
10
24.8279097387
20
-1.0654990443
11
24.8279097387
21
6.0641330629
0
LINE
5
352
100
AcDbEntity
8
0
100
AcDbLine
62
0
6
CONTINUOUS
10
25.3279097387
20
33.7633956951
11
25.3279097387
21
33.0709208942
0
LINE
5
353
100
AcDbEntity
8
0
100
AcDbLine
62
0
6
CONTINUOUS
10
25.3279097387
20
-1.6358669371
11
25.3279097387
21
2.4641330629
0
LINE
5
354
100
AcDbEntity
8
0
100
AcDbLine
62
0
6
CONTINUOUS
10
25.6279097387
20
-3.9358669371
11
25.6279097387
21
-4.4083516806
0
LINE
5
355
100
AcDbEntity
8
0
100
AcDbLine
62
9
6
CONTINUOUS
10
25.9279097387
20
33.7641330629
11
25.9279097387
21
6.0641330629
0
LINE
5
356
100
AcDbEntity
8
0
100
AcDbLine
62
0
6
CONTINUOUS
10
26.4279097387
20
5.0641330629
11
26.4279097387
21
33.2641278532
0
LINE
5
357
100
AcDbEntity
8
0
100
AcDbLine
62
0
6
CONTINUOUS
10
29.6279097387
20
-3.9358669371
11
29.6279097387
21
0.3625709441
0
LINE
5
358
100
AcDbEntity
8
0
100
AcDbLine
62
9
6
CONTINUOUS
10
25.3279097387
20
33.0709208942
11
18.4769310459
21
33.0709350597
0
LINE
5
359
100
AcDbEntity
8
0
100
AcDbLine
62
0
6
CONTINUOUS
10
25.3279097387
20
33.1263778677
11
18.4831335200
21
33.1263778677
0
LINE
5
35A
100
AcDbEntity
8
0
100
AcDbLine
62
0
6
CONTINUOUS
10
25.9279097387
20
33.7641330629
11
25.3279097387
21
33.7641330629
0
CIRCLE
5
35B
100
AcDbEntity
8
0
100
AcDbCircle
62
0
6
CONTINUOUS
10
66.3628266033
20
-30.8358669371
40
2.3000000000
0
ARC
5
35C
100
AcDbEntity
8
0
100
AcDbCircle
62
0
6
CONTINUOUS
10
48.9754667837
20
-1.8358669371
40
0.2000000000
100
AcDbArc
50
21.0375110254
51
90.0000000000
0
ARC
5
35D
100
AcDbEntity
8
0
100
AcDbCircle
62
0
6
CONTINUOUS
10
50.2128266033
20
-2.9358669371
40
0.7500000000
100
AcDbArc
50
0.0000000000
51
159.3408101122
0
ARC
5
35E
100
AcDbEntity
8
0
100
AcDbCircle
62
0
6
CONTINUOUS
10
49.1128266033
20
-3.4358669371
40
0.5000000000
100
AcDbArc
50
180.0000000000
51
270.0000000000
0
ARC
5
35F
100
AcDbEntity
8
0
100
AcDbCircle
62
0
6
CONTINUOUS
10
77.2501864230
20
-1.8358669371
40
0.2000000000
100
AcDbArc
50
90.0000000000
51
158.9624889746
0
ARC
5
360
100
AcDbEntity
8
0
100
AcDbCircle
62
0
6
CONTINUOUS
10
77.1128266033
20
-3.4358669371
40
0.5000000000
100
AcDbArc
50
270.0000000000
51
360.0000000000
0
ARC
5
361
100
AcDbEntity
8
0
100
AcDbCircle
62
0
6
CONTINUOUS
10
76.0128266033
20
-2.9358669371
40
0.7500000000
100
AcDbArc
50
20.6591898878
51
180.0000000000
0
ARC
5
362
100
AcDbEntity
8
0
100
AcDbCircle
62
0
6
CONTINUOUS
10
63.1128266033
20
21.2641330629
40
6.1000000000
100
AcDbArc
50
130.9831959417
51
162.1353758726
0
ARC
5
363
100
AcDbEntity
8
0
100
AcDbCircle
62
0
6
CONTINUOUS
10
63.1128266033
20
21.2641330629
40
6.1000000000
100
AcDbArc
50
197.8646241274
51
229.0168040583
0
ARC
5
364
100
AcDbEntity
8
0
100
AcDbCircle
62
0
6
CONTINUOUS
10
63.1128266033
20
21.2641330629
40
6.1000000000
100
AcDbArc
50
17.8646241274
51
49.0168040583
0
ARC
5
365
100
AcDbEntity
8
0
100
AcDbCircle
62
0
6
CONTINUOUS
10
63.1128266033
20
21.2641330629
40
6.1000000000
100
AcDbArc
50
310.9831959417
51
342.1353758726
0
ARC
5
366
100
AcDbEntity
8
0
100
AcDbCircle
62
0
6
CONTINUOUS
10
63.1128266033
20
21.2641330629
40
12.5000000000
100
AcDbArc
50
359.9999992258
51
180.0000012010
0
ARC
5
367
100
AcDbEntity
8
0
100
AcDbCircle
62
0
6
CONTINUOUS
10
57.0128266033
20
21.2641330629
40
1.0000000000
100
AcDbArc
50
308.5319406209
51
51.4680593791
0
ARC
5
368
100
AcDbEntity
8
0
100
AcDbCircle
62
0
6
CONTINUOUS
10
69.2128266033
20
21.2641330629
40
1.0000000000
100
AcDbArc
50
128.5319406209
51
231.4680593791
0
ARC
5
369
100
AcDbEntity
8
0
100
AcDbCircle
62
0
6
CONTINUOUS
10
63.1128266033
20
21.2641330629
40
2.5000000000
100
AcDbArc
50
135.5846914028
51
224.4153085972
0
ARC
5
36A
100
AcDbEntity
8
0
100
AcDbCircle
62
0
6
CONTINUOUS
10
63.1128266033
20
21.2641330629
40
2.5000000000
100
AcDbArc
50
315.5846914028
51
44.4153085972
0
ARC
5
36B
100
AcDbEntity
8
0
100
AcDbCircle
62
0
6
CONTINUOUS
10
66.2619187841
20
21.2641330629
40
3.0000000000
100
AcDbArc
50
350.0000000000
51
10.0000000000
0
ARC
5
36C
100
AcDbEntity
8
0
100
AcDbCircle
62
0
6
CONTINUOUS
10
59.6083351084
20
21.2641330629
40
2.6500000000
100
AcDbArc
50
170.0000000000
51
190.0000000000
0
ARC
5
36D
100
AcDbEntity
8
0
100
AcDbCircle
62
0
6
CONTINUOUS
10
60.6128266033
20
23.7136228056
40
1.0000000000
100
AcDbArc
50
315.5846914028
51
360.0000000000
0
ARC
5
36E
100
AcDbEntity
8
0
100
AcDbCircle
62
0
6
CONTINUOUS
10
60.6128266033
20
25.1141330629
40
1.0000000000
100
AcDbArc
50
0.0000000000
51
90.0000000000
0
ARC
5
36F
100
AcDbEntity
8
0
100
AcDbCircle
62
0
6
CONTINUOUS
10
59.7680545633
20
25.1141330629
40
1.0000000000
100
AcDbArc
50
90.0000000000
51
130.9831959417
0
ARC
5
370
100
AcDbEntity
8
0
100
AcDbCircle
62
0
6
CONTINUOUS
10
58.2587282427
20
22.8286550682
40
1.0000000000
100
AcDbArc
50
162.1353758726
51
231.4680593791
0
ARC
5
371
100
AcDbEntity
8
0
100
AcDbCircle
62
0
6
CONTINUOUS
10
58.2587282427
20
19.6996110576
40
1.0000000000
100
AcDbArc
50
128.5319406209
51
197.8646241274
0
ARC
5
372
100
AcDbEntity
8
0
100
AcDbCircle
62
0
6
CONTINUOUS
10
59.7680545633
20
17.4141330629
40
1.0000000000
100
AcDbArc
50
229.0168040583
51
270.0000000000
0
ARC
5
373
100
AcDbEntity
8
0
100
AcDbCircle
62
0
6
CONTINUOUS
10
60.6128266033
20
17.4141330629
40
1.0000000000
100
AcDbArc
50
270.0000000000
51
360.0000000000
0
ARC
5
374
100
AcDbEntity
8
0
100
AcDbCircle
62
0
6
CONTINUOUS
10
60.6128266033
20
18.8146433201
40
1.0000000000
100
AcDbArc
50
0.0000000000
51
44.4153085972
0
ARC
5
375
100
AcDbEntity
8
0
100
AcDbCircle
62
0
6
CONTINUOUS
10
65.6128266033
20
18.8146433201
40
1.0000000000
100
AcDbArc
50
135.5846914028
51
180.0000000000
0
ARC
5
376
100
AcDbEntity
8
0
100
AcDbCircle
62
0
6
CONTINUOUS
10
65.6128266033
20
23.7136228056
40
1.0000000000
100
AcDbArc
50
180.0000000000
51
224.4153085972
0
ARC
5
377
100
AcDbEntity
8
0
100
AcDbCircle
62
0
6
CONTINUOUS
10
65.6128266033
20
25.1141330629
40
1.0000000000
100
AcDbArc
50
90.0000000000
51
180.0000000000
0
ARC
5
378
100
AcDbEntity
8
0
100
AcDbCircle
62
0
6
CONTINUOUS
10
66.4575986434
20
25.1141330629
40
1.0000000000
100
AcDbArc
50
49.0168040583
51
90.0000000000
0
ARC
5
379
100
AcDbEntity
8
0
100
AcDbCircle
62
0
6
CONTINUOUS
10
67.9669249640
20
22.8286550682
40
1.0000000000
100
AcDbArc
50
308.5319406210
51
17.8646241274
0
ARC
5
37A
100
AcDbEntity
8
0
100
AcDbCircle
62
0
6
CONTINUOUS
10
74.6128266033
20
3.4641330629
40
1.0000000000
100
AcDbArc
50
270.0000000000
51
360.0000000000
0
ARC
5
37B
100
AcDbEntity
8
0
100
AcDbCircle
62
0
6
CONTINUOUS
10
51.4128266033
20
3.2641330629
40
0.8000000000
100
AcDbArc
50
180.0000000000
51
270.0000000000
0
ARC
5
37C
100
AcDbEntity
8
0
100
AcDbCircle
62
0
6
CONTINUOUS
10
67.9669249640
20
19.6996110576
40
1.0000000000
100
AcDbArc
50
342.1353758726
51
51.4680593791
0
ARC
5
37D
100
AcDbEntity
8
0
100
AcDbCircle
62
0
6
CONTINUOUS
10
66.4575986434
20
17.4141330629
40
1.0000000000
100
AcDbArc
50
270.0000000000
51
310.9831959417
0
ARC
5
37E
100
AcDbEntity
8
0
100
AcDbCircle
62
0
6
CONTINUOUS
10
66.8892849706
20
32.1263778677
40
1.0000000000
100
AcDbArc
50
70.8315278865
51
135.0000000000
0
ARC
5
37F
100
AcDbEntity
8
0
100
AcDbCircle
62
0
6
CONTINUOUS
10
65.6128266033
20
30.8499195005
40
1.0000000000
100
AcDbArc
50
135.0000000000
51
180.0000000000
0
ARC
5
380
100
AcDbEntity
8
0
100
AcDbCircle
62
0
6
CONTINUOUS
10
65.6128266033
20
17.4141330629
40
1.0000000000
100
AcDbArc
50
180.0000000000
51
270.0000000000
0
ARC
5
381
100
AcDbEntity
8
0
100
AcDbCircle
62
0
6
CONTINUOUS
10
59.3363682361
20
32.1263778677
40
1.0000000000
100
AcDbArc
50
45.0023805460
51
109.1802679362
0
ARC
5
382
100
AcDbEntity
8
0
100
AcDbCircle
62
0
6
CONTINUOUS
10
60.6128266033
20
30.8499195005
40
1.0000000000
100
AcDbArc
50
0.0000000000
51
45.0000000000
0
ARC
5
383
100
AcDbEntity
8
0
100
AcDbCircle
62
0
6
CONTINUOUS
10
60.6128266033
20
17.4141330629
40
0.5000000000
100
AcDbArc
50
270.0000000000
51
360.0000000000
0
ARC
5
384
100
AcDbEntity
8
0
100
AcDbCircle
62
0
6
CONTINUOUS
10
59.7680545633
20
17.4141330629
40
0.5000000000
100
AcDbArc
50
229.0168040583
51
270.0000000000
0
ARC
5
385
100
AcDbEntity
8
0
100
AcDbCircle
62
0
6
CONTINUOUS
10
63.1128266033
20
21.2641330629
40
5.6000000000
100
AcDbArc
50
197.8646241274
51
229.0168040583
0
ARC
5
386
100
AcDbEntity
8
0
100
AcDbCircle
62
0
6
CONTINUOUS
10
58.2587282427
20
19.6996110576
40
0.5000000000
100
AcDbArc
50
128.5319406209
51
197.8646241274
0
ARC
5
387
100
AcDbEntity
8
0
100
AcDbCircle
62
0
6
CONTINUOUS
10
57.0128266033
20
21.2641330629
40
1.5000000000
100
AcDbArc
50
308.5319406209
51
51.4680593791
0
ARC
5
388
100
AcDbEntity
8
0
100
AcDbCircle
62
0
6
CONTINUOUS
10
58.2587282427
20
22.8286550682
40
0.5000000000
100
AcDbArc
50
162.1353758726
51
231.4680593791
0
ARC
5
389
100
AcDbEntity
8
0
100
AcDbCircle
62
0
6
CONTINUOUS
10
63.1128266033
20
21.2641330629
40
5.6000000000
100
AcDbArc
50
130.9831959417
51
162.1353758726
0
ARC
5
38A
100
AcDbEntity
8
0
100
AcDbCircle
62
0
6
CONTINUOUS
10
59.7680545633
20
25.1141330629
40
0.5000000000
100
AcDbArc
50
90.0000000000
51
130.9831959417
0
ARC
5
38B
100
AcDbEntity
8
0
100
AcDbCircle
62
0
6
CONTINUOUS
10
60.6128266033
20
25.1141330629
40
0.5000000000
100
AcDbArc
50
0.0000000000
51
90.0000000000
0
ARC
5
38C
100
AcDbEntity
8
0
100
AcDbCircle
62
0
6
CONTINUOUS
10
65.6128266033
20
25.1141330629
40
0.5000000000
100
AcDbArc
50
90.0000000000
51
180.0000000000
0
ARC
5
38D
100
AcDbEntity
8
0
100
AcDbCircle
62
0
6
CONTINUOUS
10
66.4575986434
20
25.1141330629
40
0.5000000000
100
AcDbArc
50
49.0168040583
51
90.0000000000
0
ARC
5
38E
100
AcDbEntity
8
0
100
AcDbCircle
62
0
6
CONTINUOUS
10
63.1128266033
20
21.2641330629
40
5.6000000000
100
AcDbArc
50
17.8646241274
51
49.0168040583
0
ARC
5
38F
100
AcDbEntity
8
0
100
AcDbCircle
62
0
6
CONTINUOUS
10
67.9669249640
20
22.8286550682
40
0.5000000000
100
AcDbArc
50
308.5319406209
51
17.8646241274
0
ARC
5
390
100
AcDbEntity
8
0
100
AcDbCircle
62
0
6
CONTINUOUS
10
69.2128266033
20
21.2641330629
40
1.5000000000
100
AcDbArc
50
128.5319406209
51
231.4680593791
0
ARC
5
391
100
AcDbEntity
8
0
100
AcDbCircle
62
0
6
CONTINUOUS
10
67.9669249640
20
19.6996110576
40
0.5000000000
100
AcDbArc
50
342.1353758726
51
51.4680593791
0
ARC
5
392
100
AcDbEntity
8
0
100
AcDbCircle
62
0
6
CONTINUOUS
10
63.1128266033
20
21.2641330629
40
5.6000000000
100
AcDbArc
50
310.9831959417
51
342.1353758726
0
ARC
5
393
100
AcDbEntity
8
0
100
AcDbCircle
62
0
6
CONTINUOUS
10
66.4575986434
20
17.4141330629
40
0.5000000000
100
AcDbArc
50
270.0000000000
51
310.9831959417
0
ARC
5
394
100
AcDbEntity
8
0
100
AcDbCircle
62
0
6
CONTINUOUS
10
65.6128266033
20
17.4141330629
40
0.5000000000
100
AcDbArc
50
180.0000000000
51
270.0000000000
0
ARC
5
395
100
AcDbEntity
8
0
100
AcDbCircle
62
0
6
CONTINUOUS
10
64.7128266033
20
-0.0358669371
40
0.3000000000
100
AcDbArc
50
0.0000000000
51
90.0000000000
0
ARC
5
396
100
AcDbEntity
8
0
100
AcDbCircle
62
0
6
CONTINUOUS
10
61.5128266033
20
-0.0358669371
40
0.3000000000
100
AcDbArc
50
90.0000000000
51
180.0000000000
0
CIRCLE
5
397
100
AcDbEntity
8
0
100
AcDbCircle
62
0
6
CONTINUOUS
10
66.3628266033
20
-30.8358669371
40
1.4000000000
0
ARC
5
398
100
AcDbEntity
8
0
100
AcDbCircle
62
0
6
CONTINUOUS
10
47.3128266033
20
6.2644407493
40
3.3000000000
100
AcDbArc
50
336.0375110254
51
360.0000000000
0
ARC
5
399
100
AcDbEntity
8
0
100
AcDbCircle
62
0
6
CONTINUOUS
10
78.9128266033
20
6.2644407493
40
3.3000000000
100
AcDbArc
50
180.0000000000
51
203.9624889746
0
ARC
5
39A
100
AcDbEntity
8
0
100
AcDbCircle
62
0
6
CONTINUOUS
10
59.9637344225
20
21.2641330629
40
3.3000000000
100
AcDbArc
50
170.0000000000
51
190.0000000000
0
ARC
5
39B
100
AcDbEntity
8
0
100
AcDbCircle
62
0
6
CONTINUOUS
10
66.2619187841
20
21.2641330629
40
3.3000000000
100
AcDbArc
50
350.0000000000
51
10.0000000000
0
ARC
5
39C
100
AcDbEntity
8
0
100
AcDbCircle
62
0
6
CONTINUOUS
10
50.4128266033
20
-0.8657107253
40
0.2000000000
100
AcDbArc
50
218.6598082541
51
360.0000000000
0
ARC
5
39D
100
AcDbEntity
8
0
100
AcDbCircle
62
0
6
CONTINUOUS
10
75.8128266033
20
-0.8657107253
40
0.2000000000
100
AcDbArc
50
180.0000000000
51
321.3401917459
0
ARC
5
39E
100
AcDbEntity
8
0
100
AcDbCircle
62
0
6
CONTINUOUS
10
77.0323986734
20
1.1389886801
40
0.5000000000
100
AcDbArc
50
321.3401917459
51
23.9624889746
0
ARC
5
39F
100
AcDbEntity
8
0
100
AcDbCircle
62
0
6
CONTINUOUS
10
49.1932545333
20
1.1389886801
40
0.5000000000
100
AcDbArc
50
156.0375110254
51
218.6598082541
0
ARC
5
3A0
100
AcDbEntity
8
0
100
AcDbCircle
62
0
6
CONTINUOUS
10
63.1128266033
20
21.2641330629
40
8.1500000000
100
AcDbArc
50
100.6056967322
51
79.3943032678
0
ARC
5
3A1
100
AcDbEntity
8
0
100
AcDbCircle
62
9
6
CONTINUOUS
10
51.4128266033
20
3.2641330629
40
0.2999981737
100
AcDbArc
50
180.0000000000
51
270.0000000000
0
ARC
5
3A2
100
AcDbEntity
8
0
100
AcDbCircle
62
9
6
CONTINUOUS
10
63.1128266033
20
21.2641330629
40
12.0000000000
100
AcDbArc
50
123.5573097619
51
180.0000000000
0
ARC
5
3A3
100
AcDbEntity
8
0
100
AcDbCircle
62
9
6
CONTINUOUS
10
60.6128266033
20
30.8499195005
40
0.4999991932
100
AcDbArc
50
0.0000000000
51
45.0000000000
0
CIRCLE
5
3A4
100
AcDbEntity
8
0
100
AcDbCircle
62
9
6
CONTINUOUS
10
66.3628266033
20
-30.8358669371
40
1.6999983073
0
CIRCLE
5
3A5
100
AcDbEntity
8
0
100
AcDbCircle
62
9
6
CONTINUOUS
10
66.3628266033
20
-30.8358669371
40
1.9999974582
0
ARC
5
3A6
100
AcDbEntity
8
0
100
AcDbCircle
62
9
6
CONTINUOUS
10
60.6128266033
20
17.4141330629
40
0.1999976595
100
AcDbArc
50
270.0000000000
51
360.0000000000
0
ARC
5
3A7
100
AcDbEntity
8
0
100
AcDbCircle
62
9
6
CONTINUOUS
10
59.7680545633
20
17.4141330629
40
0.1999969579
100
AcDbArc
50
229.0168040583
51
270.0000000000
0
ARC
5
3A8
100
AcDbEntity
8
0
100
AcDbCircle
62
9
6
CONTINUOUS
10
63.1128266033
20
21.2641330629
40
5.3000250720
100
AcDbArc
50
197.8646241274
51
229.0168040583
0
ARC
5
3A9
100
AcDbEntity
8
0
100
AcDbCircle
62
9
6
CONTINUOUS
10
58.2587282427
20
19.6996110576
40
0.1999975799
100
AcDbArc
50
128.5319406210
51
197.8646241274
0
ARC
5
3AA
100
AcDbEntity
8
0
100
AcDbCircle
62
9
6
CONTINUOUS
10
57.0128266033
20
21.2641330629
40
1.7999965979
100
AcDbArc
50
308.5319406209
51
51.4680593791
0
ARC
5
3AB
100
AcDbEntity
8
0
100
AcDbCircle
62
9
6
CONTINUOUS
10
58.2587282427
20
22.8286550682
40
0.1999975799
100
AcDbArc
50
162.1353758726
51
231.4680593791
0
ARC
5
3AC
100
AcDbEntity
8
0
100
AcDbCircle
62
9
6
CONTINUOUS
10
63.1128266033
20
21.2641330629
40
5.3000250720
100
AcDbArc
50
130.9831959417
51
162.1353758726
0
ARC
5
3AD
100
AcDbEntity
8
0
100
AcDbCircle
62
9
6
CONTINUOUS
10
59.7680545633
20
25.1141330629
40
0.1999969579
100
AcDbArc
50
90.0000000000
51
130.9831959417
0
ARC
5
3AE
100
AcDbEntity
8
0
100
AcDbCircle
62
9
6
CONTINUOUS
10
60.6128266033
20
25.1141330629
40
0.1999976595
100
AcDbArc
50
0.0000000000
51
90.0000000000
0
ARC
5
3AF
100
AcDbEntity
8
0
100
AcDbCircle
62
9
6
CONTINUOUS
10
65.6128266033
20
25.1141330629
40
0.1999976595
100
AcDbArc
50
90.0000000000
51
180.0000000000
0
ARC
5
3B0
100
AcDbEntity
8
0
100
AcDbCircle
62
9
6
CONTINUOUS
10
66.4575986434
20
25.1141330629
40
0.1999969579
100
AcDbArc
50
49.0168040583
51
90.0000000000
0
ARC
5
3B1
100
AcDbEntity
8
0
100
AcDbCircle
62
9
6
CONTINUOUS
10
63.1128266033
20
21.2641330629
40
5.3000250720
100
AcDbArc
50
17.8646241274
51
49.0168040583
0
ARC
5
3B2
100
AcDbEntity
8
0
100
AcDbCircle
62
9
6
CONTINUOUS
10
67.9669249640
20
22.8286550682
40
0.1999975799
100
AcDbArc
50
308.5319406209
51
17.8646241274
0
ARC
5
3B3
100
AcDbEntity
8
0
100
AcDbCircle
62
9
6
CONTINUOUS
10
69.2128266033
20
21.2641330629
40
1.7999965979
100
AcDbArc
50
128.5319406209
51
231.4680593791
0
ARC
5
3B4
100
AcDbEntity
8
0
100
AcDbCircle
62
9
6
CONTINUOUS
10
67.9669249640
20
19.6996110576
40
0.1999975799
100
AcDbArc
50
342.1353758726
51
51.4680593791
0
ARC
5
3B5
100
AcDbEntity
8
0
100
AcDbCircle
62
9
6
CONTINUOUS
10
63.1128266033
20
21.2641330629
40
5.3000250720
100
AcDbArc
50
310.9831959417
51
342.1353758726
0
ARC
5
3B6
100
AcDbEntity
8
0
100
AcDbCircle
62
9
6
CONTINUOUS
10
66.4575986434
20
17.4141330629
40
0.1999969579
100
AcDbArc
50
270.0000000000
51
310.9831959417
0
ARC
5
3B7
100
AcDbEntity
8
0
100
AcDbCircle
62
9
6
CONTINUOUS
10
65.6128266033
20
17.4141330629
40
0.1999976595
100
AcDbArc
50
180.0000000000
51
270.0000000000
0
ARC
5
3B8
100
AcDbEntity
8
0
100
AcDbCircle
62
9
6
CONTINUOUS
10
65.6128266033
20
30.8499195005
40
0.4999991933
100
AcDbArc
50
135.0000000000
51
180.0000000000
0
ARC
5
3B9
100
AcDbEntity
8
0
100
AcDbCircle
62
9
6
CONTINUOUS
10
63.1128266033
20
21.2641330629
40
12.0000000000
100
AcDbArc
50
0.0000000000
51
56.4426902381
0
ARC
5
3BA
100
AcDbEntity
8
0
100
AcDbCircle
62
9
6
CONTINUOUS
10
74.6128266033
20
3.4641330629
40
0.4999954605
100
AcDbArc
50
270.0000000000
51
360.0000000000
0
ARC
5
3BB
100
AcDbEntity
8
0
100
AcDbCircle
62
0
6
CONTINUOUS
10
-29.7720902613
20
-32.8358669371
40
0.3000000000
100
AcDbArc
50
180.0000000000
51
270.0000000000
0
ARC
5
3BC
100
AcDbEntity
8
0
100
AcDbCircle
62
0
6
CONTINUOUS
10
-29.7720902613
20
-28.8358669371
40
0.3000000000
100
AcDbArc
50
90.0000000000
51
180.0000000000
0
ARC
5
3BD
100
AcDbEntity
8
0
100
AcDbCircle
62
0
6
CONTINUOUS
10
18.4838572499
20
32.6263702948
40
0.5000000000
100
AcDbArc
50
90.0000109185
51
165.9637565506
0
ARC
5
3BE
100
AcDbEntity
8
0
100
AcDbCircle
62
0
6
CONTINUOUS
10
25.9279097387
20
33.2641330629
40
0.5000000000
100
AcDbArc
50
0.0000000000
51
90.0000000000
0
ARC
5
3BF
100
AcDbEntity
8
0
100
AcDbCircle
62
0
6
CONTINUOUS
10
18.1279097387
20
2.9641330629
40
0.5000000000
100
AcDbArc
50
180.0000000000
51
270.0000000000
0
ARC
5
3C0
100
AcDbEntity
8
0
100
AcDbCircle
62
0
6
CONTINUOUS
10
6.1279097387
20
-0.0358669371
40
0.3000000000
100
AcDbArc
50
90.0000000000
51
180.0000000000
0
ARC
5
3C1
100
AcDbEntity
8
0
100
AcDbCircle
62
0
6
CONTINUOUS
10
14.6688543241
20
-25.5873105071
40
10.0000000000
100
AcDbArc
50
125.6156437753
51
135.0000000000
0
ARC
5
3C2
100
AcDbEntity
8
0
100
AcDbCircle
62
0
6
CONTINUOUS
10
23.6279097387
20
-4.4083516806
40
2.0000000000
100
AcDbArc
50
305.6156437753
51
360.0000000000
0
ARC
5
3C3
100
AcDbEntity
8
0
100
AcDbCircle
62
0
6
CONTINUOUS
10
-1.6502648543
20
-24.9358669371
40
2.0000000000
100
AcDbArc
50
270.0000000000
51
315.0000000000
0
ARC
5
3C4
100
AcDbEntity
8
0
100
AcDbCircle
62
0
6
CONTINUOUS
10
-3.7005173860
20
-31.9358669371
40
2.0000000000
100
AcDbArc
50
270.0000000000
51
315.0000000000
0
ARC
5
3C5
100
AcDbEntity
8
0
100
AcDbCircle
62
0
6
CONTINUOUS
10
23.6279097387
20
-4.6074398124
40
2.0000000000
100
AcDbArc
50
315.0000000000
51
345.0000000000
0
ARC
5
3C6
100
AcDbEntity
8
0
100
AcDbCircle
62
0
6
CONTINUOUS
10
27.6279097387
20
0.3625709441
40
2.0000000000
100
AcDbArc
50
0.0000000000
51
38.6598082541
0
SPLINE
5
3C7
100
AcDbEntity
8
0
100
AcDbSpline
62
0
6
CONTINUOUS
70
0
71
3
72
10
73
6
74
4
42
0.0000001000
43
0.0000001000
44
0.0000000001
12
-0.0195001289
22
0.4008039539
32
0.0000000000
13
-0.3993729006
23
0.0691141828
33
0.0000000000
40
0.0000000000
40
0.0000000000
40
0.0000000000
40
0.0000000000
40
0.3756296564
40
0.7502320582
40
1.0000000000
40
1.0000000000
40
1.0000000000
40
1.0000000000
10
73.3088150552
20
-26.0212886819
30
0.0000000000
10
73.3063734463
20
-25.9711040647
30
0.0000000000
10
73.2750489409
20
-25.8703347799
30
0.0000000000
10
73.1742604952
20
-25.7743345769
30
0.0000000000
10
73.0929365049
20
-25.7460028974
30
0.0000000000
10
73.0596863224
20
-25.7402487284
30
0.0000000000
11
73.3088150552
21
-26.0212886819
31
0.0000000000
11
73.2639031525
21
-25.8774032097
31
0.0000000000
11
73.1550572415
21
-25.7737281204
31
0.0000000000
11
73.0596863224
21
-25.7402487284
31
0.0000000000
0
SPLINE
5
3C8
100
AcDbEntity
8
0
100
AcDbSpline
62
0
6
CONTINUOUS
70
0
71
3
72
8
73
4
74
2
42
0.0000001000
43
0.0000001000
44
0.0000000001
12
-0.0502547173
22
0.0086969189
32
0.0000000000
13
-0.0504943806
23
0.0000000000
33
0.0000000000
40
0.0000000000
40
0.0000000000
40
0.0000000000
40
0.0000000000
40
1.0000000000
40
1.0000000000
40
1.0000000000
40
1.0000000000
10
73.0596863224
20
-25.7402487284
30
0.0000000000
10
73.0429347499
20
-25.7373497554
30
0.0000000000
10
73.0260009342
20
-25.7358669371
30
0.0000000000
10
73.0091694740
20
-25.7358669371
30
0.0000000000
11
73.0596863224
21
-25.7402487284
31
0.0000000000
11
73.0091694740
21
-25.7358669371
31
0.0000000000
0
SPLINE
5
3C9
100
AcDbEntity
8
0
100
AcDbSpline
62
0
6
CONTINUOUS
70
0
71
3
72
10
73
6
74
4
42
0.0000001000
43
0.0000001000
44
0.0000000001
12
0.0189208226
22
0.4012163243
32
0.0000000000
13
0.3997516688
23
0.0692493614
33
0.0000000000
40
0.0000000000
40
0.0000000000
40
0.0000000000
40
0.0000000000
40
0.3756380093
40
0.7502375408
40
1.0000000000
40
1.0000000000
40
1.0000000000
40
1.0000000000
10
68.8014657884
20
-26.0217350970
30
0.0000000000
10
68.8038349151
20
-25.9714977299
30
0.0000000000
10
68.8350677438
20
-25.8705825266
30
0.0000000000
10
68.9358901949
20
-25.7744084979
30
0.0000000000
10
69.0172867426
20
-25.7460226355
30
0.0000000000
10
69.0505677293
20
-25.7402573386
30
0.0000000000
11
68.8014657884
21
-26.0217350970
31
0.0000000000
11
68.8462437220
21
-25.8776532189
31
0.0000000000
11
68.9551168112
21
-25.7737994953
31
0.0000000000
11
69.0505677293
21
-25.7402573386
31
0.0000000000
0
SPLINE
5
3CA
100
AcDbEntity
8
0
100
AcDbSpline
62
0
6
CONTINUOUS
70
0
71
3
72
8
73
4
74
2
42
0.0000001000
43
0.0000001000
44
0.0000000001
12
0.0503021217
22
0.0087138843
32
0.0000000000
13
0.0505425192
23
0.0000000000
33
0.0000000000
40
0.0000000000
40
0.0000000000
40
0.0000000000
40
0.0000000000
40
1.0000000000
40
1.0000000000
40
1.0000000000
40
1.0000000000
10
69.0505677293
20
-25.7402573386
30
0.0000000000
10
69.0673351032
20
-25.7373527105
30
0.0000000000
10
69.0842852489
20
-25.7358669371
30
0.0000000000
10
69.1011327554
20
-25.7358669371
30
0.0000000000
11
69.0505677293
21
-25.7402573386
31
0.0000000000
11
69.1011327554
21
-25.7358669371
31
0.0000000000
0
SPLINE
5
3CB
100
AcDbEntity
8
0
100
AcDbSpline
62
0
6
CONTINUOUS
70
0
71
3
72
10
73
6
74
4
42
0.0000001000
43
0.0000001000
44
0.0000000001
12
-0.0189208367
22
0.4012163134
32
0.0000000000
13
-0.3997516341
23
0.0692493920
33
0.0000000000
40
0.0000000000
40
0.0000000000
40
0.0000000000
40
0.0000000000
40
0.3756376483
40
0.7502373978
40
1.0000000000
40
1.0000000000
40
1.0000000000
40
1.0000000000
10
57.4241874182
20
-26.0217350970
30
0.0000000000
10
57.4218182920
20
-25.9714977795
30
0.0000000000
10
57.3905855014
20
-25.8705826006
30
0.0000000000
10
57.2897630914
20
-25.7744085367
30
0.0000000000
10
57.2083665055
20
-25.7460226459
30
0.0000000000
10
57.1750855027
20
-25.7402573431
30
0.0000000000
11
57.4241874182
21
-26.0217350970
31
0.0000000000
11
57.3794095663
21
-25.8776533504
31
0.0000000000
11
57.2705364627
21
-25.7737995328
31
0.0000000000
11
57.1750855027
21
-25.7402573431
31
0.0000000000
0
SPLINE
5
3CC
100
AcDbEntity
8
0
100
AcDbSpline
62
0
6
CONTINUOUS
70
0
71
3
72
8
73
4
74
2
42
0.0000001000
43
0.0000001000
44
0.0000000001
12
-0.0503021466
22
0.0087138933
32
0.0000000000
13
-0.0505425445
23
0.0000000000
33
0.0000000000
40
0.0000000000
40
0.0000000000
40
0.0000000000
40
0.0000000000
40
1.0000000000
40
1.0000000000
40
1.0000000000
40
1.0000000000
10
57.1750855027
20
-25.7402573431
30
0.0000000000
10
57.1583181205
20
-25.7373527120
30
0.0000000000
10
57.1413679662
20
-25.7358669371
30
0.0000000000
10
57.1245204513
20
-25.7358669371
30
0.0000000000
11
57.1750855027
21
-25.7402573431
31
0.0000000000
11
57.1245204513
21
-25.7358669371
31
0.0000000000
0
SPLINE
5
3CD
100
AcDbEntity
8
0
100
AcDbSpline
62
0
6
CONTINUOUS
70
0
71
3
72
10
73
6
74
4
42
0.0000001000
43
0.0000001000
44
0.0000000001
12
0.0195001296
22
0.4008039531
32
0.0000000000
13
0.3993728987
23
0.0691141846
33
0.0000000000
40
0.0000000000
40
0.0000000000
40
0.0000000000
40
0.0000000000
40
0.3756296397
40
0.7502320496
40
1.0000000000
40
1.0000000000
40
1.0000000000
40
1.0000000000
10
52.9168381514
20
-26.0212886819
30
0.0000000000
10
52.9192797603
20
-25.9711040671
30
0.0000000000
10
52.9506042639
20
-25.8703347837
30
0.0000000000
10
53.0513927074
20
-25.7743345790
30
0.0000000000
10
53.1327166993
20
-25.7460028980
30
0.0000000000
10
53.1659668828
20
-25.7402487286
30
0.0000000000
11
52.9168381514
21
-26.0212886819
31
0.0000000000
11
52.9617500503
21
-25.8774032158
31
0.0000000000
11
53.0705959611
21
-25.7737281227
31
0.0000000000
11
53.1659668828
21
-25.7402487286
31
0.0000000000
0
SPLINE
5
3CE
100
AcDbEntity
8
0
100
AcDbSpline
62
0
6
CONTINUOUS
70
0
71
3
72
8
73
4
74
2
42
0.0000001000
43
0.0000001000
44
0.0000000001
12
0.0502547188
22
0.0086969194
32
0.0000000000
13
0.0504943821
23
0.0000000000
33
0.0000000000
40
0.0000000000
40
0.0000000000
40
0.0000000000
40
0.0000000000
40
1.0000000000
40
1.0000000000
40
1.0000000000
40
1.0000000000
10
53.1659668828
20
-25.7402487286
30
0.0000000000
10
53.1827184557
20
-25.7373497555
30
0.0000000000
10
53.1996522720
20
-25.7358669371
30
0.0000000000
10
53.2164837327
20
-25.7358669371
30
0.0000000000
11
53.1659668828
21
-25.7402487286
31
0.0000000000
11
53.2164837327
21
-25.7358669371
31
0.0000000000
0
SPLINE
5
3CF
100
AcDbEntity
8
0
100
AcDbSpline
62
0
6
CONTINUOUS
70
0
71
3
72
11
73
7
74
5
42
0.0000001000
43
0.0000001000
44
0.0000000001
12
0.0000000000
22
-10.0302287986
32
0.0000000000
13
0.0000000000
23
10.0302287986
33
0.0000000000
40
0.0000000000
40
0.0000000000
40
0.0000000000
40
0.0000000000
40
0.2500000000
40
0.5000000000
40
0.7500000000
40
1.0000000000
40
1.0000000000
40
1.0000000000
40
1.0000000000
10
64.7128266033
20
-8.7358669371
30
0.0000000000
10
64.7128266033
20
-9.5717193370
30
0.0000000000
10
64.0853003155
20
-11.2434241368
30
0.0000000000
10
61.8128266033
20
-12.2820883373
30
0.0000000000
10
59.5403528911
20
-11.2434241368
30
0.0000000000
10
58.9128266033
20
-9.5717193370
30
0.0000000000
10
58.9128266033
20
-8.7358669371
30
0.0000000000
11
64.7128266033
21
-8.7358669371
31
0.0000000000
11
63.8634362688
21
-10.9986086369
31
0.0000000000
11
61.8128266033
21
-11.9358669371
31
0.0000000000
11
59.7622169379
21
-10.9986086369
31
0.0000000000
11
58.9128266033
21
-8.7358669371
31
0.0000000000
0
SPLINE
5
3D0
100
AcDbEntity
8
0
100
AcDbSpline
62
0
6
CONTINUOUS
70
0
71
3
72
9
73
5
74
3
42
0.0000001000
43
0.0000001000
44
0.0000000001
12
0.0000000000
22
3.8859776798
32
0.0000000000
13
3.3125215420
23
1.3540142314
33
0.0000000000
40
0.0000000000
40
0.0000000000
40
0.0000000000
40
0.0000000000
40
0.6452834798
40
1.0000000000
40
1.0000000000
40
1.0000000000
40
1.0000000000
10
58.9128266033
20
-8.7358669371
30
0.0000000000
10
58.9128266033
20
-7.9000145373
30
0.0000000000
10
59.3990673854
20
-6.6046886440
30
0.0000000000
10
60.4181346928
20
-5.8973092613
30
0.0000000000
10
60.8098033976
20
-5.7372121892
30
0.0000000000
11
58.9128266033
21
-8.7358669371
31
0.0000000000
11
59.7622169379
21
-6.4731252373
31
0.0000000000
11
60.8098033976
21
-5.7372121892
31
0.0000000000
0
SPLINE
5
3D1
100
AcDbEntity
8
0
100
AcDbSpline
62
0
6
CONTINUOUS
70
0
71
3
72
9
73
5
74
3
42
0.0000001000
43
0.0000001000
44
0.0000000001
12
1.9845488419
22
0.8111969510
32
0.0000000000
13
1.9685701416
23
-0.8576074761
33
0.0000000000
40
0.0000000000
40
0.0000000000
40
0.0000000000
40
0.0000000000
40
0.4850015745
40
1.0000000000
40
1.0000000000
40
1.0000000000
40
1.0000000000
10
60.8098033976
20
-5.7372121892
30
0.0000000000
10
61.1306398353
20
-5.6060682563
30
0.0000000000
10
61.8339228800
20
-5.4613237382
30
0.0000000000
10
62.5372059246
20
-5.6150205566
30
0.0000000000
10
62.8751427657
20
-5.7622427232
30
0.0000000000
11
60.8098033976
21
-5.7372121892
31
0.0000000000
11
61.8128266033
21
-5.5358669371
31
0.0000000000
11
62.8751427657
21
-5.7622427232
31
0.0000000000
0
SPLINE
5
3D2
100
AcDbEntity
8
0
100
AcDbSpline
62
0
6
CONTINUOUS
70
0
71
3
72
9
73
5
74
3
42
0.0000001000
43
0.0000001000
44
0.0000000001
12
3.2267996940
22
-1.4057551128
32
0.0000000000
13
0.0000000000
23
-3.8161417296
33
0.0000000000
40
0.0000000000
40
0.0000000000
40
0.0000000000
40
0.0000000000
40
0.3429077384
40
1.0000000000
40
1.0000000000
40
1.0000000000
40
1.0000000000
10
62.8751427657
20
-5.7622427232
30
0.0000000000
10
63.2439742942
20
-5.9229241587
30
0.0000000000
10
64.2353241851
20
-6.6279672941
30
0.0000000000
10
64.7128266033
20
-7.9000145373
30
0.0000000000
10
64.7128266033
20
-8.7358669371
30
0.0000000000
11
62.8751427657
21
-5.7622427232
31
0.0000000000
11
63.8634362688
21
-6.4731252373
31
0.0000000000
11
64.7128266033
21
-8.7358669371
31
0.0000000000
0
SPLINE
5
3D3
100
AcDbEntity
8
0
100
AcDbSpline
62
0
6
CONTINUOUS
70
0
71
3
72
11
73
7
74
5
42
0.0000001000
43
0.0000001000
44
0.0000000001
12
0.0000000000
22
-10.0302287986
32
0.0000000000
13
0.0000000000
23
10.0302287986
33
0.0000000000
40
0.0000000000
40
0.0000000000
40
0.0000000000
40
0.0000000000
40
0.2500000000
40
0.5000000000
40
0.7500000000
40
1.0000000000
40
1.0000000000
40
1.0000000000
40
1.0000000000
10
64.7128266033
20
-16.2358669371
30
0.0000000000
10
64.7128266033
20
-17.0717193370
30
0.0000000000
10
64.0853003155
20
-18.7434241368
30
0.0000000000
10
61.8128266033
20
-19.7820883373
30
0.0000000000
10
59.5403528911
20
-18.7434241368
30
0.0000000000
10
58.9128266033
20
-17.0717193370
30
0.0000000000
10
58.9128266033
20
-16.2358669371
30
0.0000000000
11
64.7128266033
21
-16.2358669371
31
0.0000000000
11
63.8634362688
21
-18.4986086369
31
0.0000000000
11
61.8128266033
21
-19.4358669371
31
0.0000000000
11
59.7622169379
21
-18.4986086369
31
0.0000000000
11
58.9128266033
21
-16.2358669371
31
0.0000000000
0
SPLINE
5
3D4
100
AcDbEntity
8
0
100
AcDbSpline
62
0
6
CONTINUOUS
70
0
71
3
72
11
73
7
74
5
42
0.0000001000
43
0.0000001000
44
0.0000000001
12
0.0000000000
22
10.0302287986
32
0.0000000000
13
0.0000000000
23
-10.0302287986
33
0.0000000000
40
0.0000000000
40
0.0000000000
40
0.0000000000
40
0.0000000000
40
0.2500000000
40
0.5000000000
40
0.7500000000
40
1.0000000000
40
1.0000000000
40
1.0000000000
40
1.0000000000
10
58.9128266033
20
-16.2358669371
30
0.0000000000
10
58.9128266033
20
-15.4000145373
30
0.0000000000
10
59.5403528911
20
-13.7283097375
30
0.0000000000
10
61.8128266033
20
-12.6896455370
30
0.0000000000
10
64.0853003155
20
-13.7283097375
30
0.0000000000
10
64.7128266033
20
-15.4000145373
30
0.0000000000
10
64.7128266033
20
-16.2358669371
30
0.0000000000
11
58.9128266033
21
-16.2358669371
31
0.0000000000
11
59.7622169379
21
-13.9731252373
31
0.0000000000
11
61.8128266033
21
-13.0358669371
31
0.0000000000
11
63.8634362688
21
-13.9731252373
31
0.0000000000
11
64.7128266033
21
-16.2358669371
31
0.0000000000
0
SPLINE
5
3D5
100
AcDbEntity
8
0
100
AcDbSpline
62
0
6
CONTINUOUS
70
0
71
3
72
11
73
7
74
5
42
0.0000001000
43
0.0000001000
44
0.0000000001
12
0.0000000000
22
-10.0302287986
32
0.0000000000
13
0.0000000000
23
10.0302287986
33
0.0000000000
40
0.0000000000
40
0.0000000000
40
0.0000000000
40
0.0000000000
40
0.2500000000
40
0.5000000000
40
0.7500000000
40
1.0000000000
40
1.0000000000
40
1.0000000000
40
1.0000000000
10
64.7128266033
20
-23.7358669371
30
0.0000000000
10
64.7128266033
20
-24.5717193370
30
0.0000000000
10
64.0853003155
20
-26.2434241368
30
0.0000000000
10
61.8128266033
20
-27.2820883373
30
0.0000000000
10
59.5403528911
20
-26.2434241368
30
0.0000000000
10
58.9128266033
20
-24.5717193370
30
0.0000000000
10
58.9128266033
20
-23.7358669371
30
0.0000000000
11
64.7128266033
21
-23.7358669371
31
0.0000000000
11
63.8634362688
21
-25.9986086369
31
0.0000000000
11
61.8128266033
21
-26.9358669371
31
0.0000000000
11
59.7622169379
21
-25.9986086369
31
0.0000000000
11
58.9128266033
21
-23.7358669371
31
0.0000000000
0
SPLINE
5
3D6
100
AcDbEntity
8
0
100
AcDbSpline
62
0
6
CONTINUOUS
70
0
71
3
72
11
73
7
74
5
42
0.0000001000
43
0.0000001000
44
0.0000000001
12
0.0000000000
22
10.0302287986
32
0.0000000000
13
0.0000000000
23
-10.0302287986
33
0.0000000000
40
0.0000000000
40
0.0000000000
40
0.0000000000
40
0.0000000000
40
0.2500000000
40
0.5000000000
40
0.7500000000
40
1.0000000000
40
1.0000000000
40
1.0000000000
40
1.0000000000
10
58.9128266033
20
-23.7358669371
30
0.0000000000
10
58.9128266033
20
-22.9000145373
30
0.0000000000
10
59.5403528911
20
-21.2283097375
30
0.0000000000
10
61.8128266033
20
-20.1896455370
30
0.0000000000
10
64.0853003155
20
-21.2283097375
30
0.0000000000
10
64.7128266033
20
-22.9000145373
30
0.0000000000
10
64.7128266033
20
-23.7358669371
30
0.0000000000
11
58.9128266033
21
-23.7358669371
31
0.0000000000
11
59.7622169379
21
-21.4731252373
31
0.0000000000
11
61.8128266033
21
-20.5358669371
31
0.0000000000
11
63.8634362688
21
-21.4731252373
31
0.0000000000
11
64.7128266033
21
-23.7358669371
31
0.0000000000
0
SPLINE
5
3D7
100
AcDbEntity
8
0
100
AcDbSpline
62
0
6
CONTINUOUS
70
0
71
3
72
10
73
6
74
4
42
0.0000001000
43
0.0000001000
44
0.0000000001
12
0.0965646113
22
0.0000000000
32
0.0000000000
13
0.0708212793
23
0.0656435111
33
0.0000000000
40
0.0000000000
40
0.0000000000
40
0.0000000000
40
0.0000000000
40
0.3477311749
40
0.6818289837
40
1.0000000000
40
1.0000000000
40
1.0000000000
40
1.0000000000
10
60.9057198221
20
31.2641330629
30
0.0000000000
10
60.9169126640
20
31.2641330629
30
0.0000000000
10
60.9389205807
20
31.2655856181
30
0.0000000000
10
60.9702761868
20
31.2740543324
30
0.0000000000
10
60.9884527416
20
31.2854820305
30
0.0000000000
10
60.9959638344
20
31.2924439847
30
0.0000000000
11
60.9057198221
21
31.2641330629
31
0.0000000000
11
60.9391970975
21
31.2667387156
31
0.0000000000
11
60.9701785256
21
31.2757381251
31
0.0000000000
11
60.9959638344
21
31.2924439847
31
0.0000000000
0
SPLINE
5
3D8
100
AcDbEntity
8
0
100
AcDbSpline
62
0
6
CONTINUOUS
70
0
71
3
72
10
73
6
74
4
42
0.0000001000
43
0.0000001000
44
0.0000000001
12
0.0747743991
22
-0.1070516299
32
0.0000000000
13
0.1305804818
23
0.0000000000
33
0.0000000000
40
0.0000000000
40
0.0000000000
40
0.0000000000
40
0.0000000000
40
0.3115634143
40
0.6459737260
40
1.0000000000
40
1.0000000000
40
1.0000000000
40
1.0000000000
10
56.3598014473
20
31.3048725412
30
0.0000000000
10
56.3675671030
20
31.2937547507
30
0.0000000000
10
56.3914751918
20
31.2761956916
30
0.0000000000
10
56.4341402735
20
31.2658306989
30
0.0000000000
10
56.4641673821
20
31.2641330629
30
0.0000000000
10
56.4795770226
20
31.2641330629
30
0.0000000000
11
56.3598014473
21
31.3048725412
31
0.0000000000
11
56.3914792674
21
31.2793438952
31
0.0000000000
11
56.4334578859
21
31.2673171491
31
0.0000000000
11
56.4795770226
21
31.2641330629
31
0.0000000000
0
SPLINE
5
3D9
100
AcDbEntity
8
0
100
AcDbSpline
62
9
6
CONTINUOUS
70
0
71
3
72
8
73
4
74
2
42
0.0000001000
43
0.0000001000
44
0.0000000001
12
-0.5070993600
22
-0.1764612056
32
0.0000000000
13
-0.4989911440
23
-0.1991236744
33
0.0000000000
40
0.0000000000
40
0.0000000000
40
0.0000000000
40
0.0000000000
40
1.0000000000
40
1.0000000000
40
1.0000000000
40
1.0000000000
10
59.1721743940
20
32.7199171935
30
0.0000000000
10
59.0031412740
20
32.6610967916
30
0.0000000000
10
58.8353690407
20
32.5984552238
30
0.0000000000
10
58.6690386594
20
32.5320806657
30
0.0000000000
11
59.1721743940
21
32.7199171935
31
0.0000000000
11
58.6690386594
21
32.5320806657
31
0.0000000000
0
SPLINE
5
3DA
100
AcDbEntity
8
0
100
AcDbSpline
62
9
6
CONTINUOUS
70
0
71
3
72
8
73
4
74
2
42
0.0000001000
43
0.0000001000
44
0.0000000001
12
-0.4935053137
22
-0.1969345400
32
0.0000000000
13
-0.4845181873
23
-0.2185868127
33
0.0000000000
40
0.0000000000
40
0.0000000000
40
0.0000000000
40
0.0000000000
40
1.0000000000
40
1.0000000000
40
1.0000000000
40
1.0000000000
10
58.6690386594
20
32.5320806657
30
0.0000000000
10
58.5045368882
20
32.4664358190
30
0.0000000000
10
58.3414454402
20
32.3971396106
30
0.0000000000
10
58.1799393778
20
32.3242773397
30
0.0000000000
11
58.6690386594
21
32.5320806657
31
0.0000000000
11
58.1799393778
21
32.3242773397
31
0.0000000000
0
SPLINE
5
3DB
100
AcDbEntity
8
0
100
AcDbSpline
62
9
6
CONTINUOUS
70
0
71
3
72
9
73
5
74
3
42
0.0000001000
43
0.0000001000
44
0.0000000001
12
-1.4312271096
22
-0.6456875722
32
0.0000000000
13
-1.3345358693
23
-0.8260323082
33
0.0000000000
40
0.0000000000
40
0.0000000000
40
0.0000000000
40
0.0000000000
40
0.3354521062
40
1.0000000000
40
1.0000000000
40
1.0000000000
40
1.0000000000
10
58.1799393778
20
32.3242773397
30
0.0000000000
10
58.0199033284
20
32.2520782544
30
0.0000000000
10
57.5474680992
20
32.0264110848
30
0.0000000000
10
57.0903799871
20
31.7703652784
30
0.0000000000
10
56.7947589867
20
31.5873859349
30
0.0000000000
11
58.1799393778
21
32.3242773397
31
0.0000000000
11
57.7046715252
21
32.0972587490
31
0.0000000000
11
56.7947589867
21
31.5873859349
31
0.0000000000
0
SPLINE
5
3DC
100
AcDbEntity
8
0
100
AcDbSpline
62
9
6
CONTINUOUS
70
0
71
3
72
8
73
4
74
2
42
0.0000001000
43
0.0000001000
44
0.0000000001
12
-0.4411644579
22
-0.2730657930
32
0.0000000000
13
-0.4285834257
23
-0.2918882110
33
0.0000000000
40
0.0000000000
40
0.0000000000
40
0.0000000000
40
0.0000000000
40
1.0000000000
40
1.0000000000
40
1.0000000000
40
1.0000000000
10
56.7947589867
20
31.5873859349
30
0.0000000000
10
56.6477041674
20
31.4963640039
30
0.0000000000
10
56.5026625892
20
31.4021686115
30
0.0000000000
10
56.3598014473
20
31.3048725412
30
0.0000000000
11
56.7947589867
21
31.5873859349
31
0.0000000000
11
56.3598014473
21
31.3048725412
31
0.0000000000
0
SPLINE
5
3DD
100
AcDbEntity
8
0
100
AcDbSpline
62
9
6
CONTINUOUS
70
0
71
3
72
12
73
8
74
6
42
0.0000001000
43
0.0000001000
44
0.0000000001
12
-0.3950848684
22
0.3951585810
32
0.0000000000
13
-0.5278082329
23
-0.1834688711
33
0.0000000000
40
0.0000000000
40
0.0000000000
40
0.0000000000
40
0.0000000000
40
0.1742622043
40
0.3583038247
40
0.5559596976
40
0.7693579623
40
1.0000000000
40
1.0000000000
40
1.0000000000
40
1.0000000000
10
59.6899216267
20
32.6011990708
30
0.0000000000
10
59.6669721733
20
32.6241528059
30
0.0000000000
10
59.6150274142
20
32.6668430812
30
0.0000000000
10
59.5229069803
20
32.7156570881
30
0.0000000000
10
59.4152919017
20
32.7458659834
30
0.0000000000
10
59.2948055281
20
32.7511139103
30
0.0000000000
10
59.2127526495
20
32.7340224049
30
0.0000000000
10
59.1721743940
20
32.7199171935
30
0.0000000000
11
59.6899216267
21
32.6011990708
31
0.0000000000
11
59.6146889088
21
32.6630214004
31
0.0000000000
11
59.5238192784
21
32.7111750137
31
0.0000000000
11
59.4174804562
21
32.7410194544
31
0.0000000000
11
59.2983483960
21
32.7461867097
31
0.0000000000
11
59.1721743940
21
32.7199171935
31
0.0000000000
0
SPLINE
5
3DE
100
AcDbEntity
8
0
100
AcDbSpline
62
9
6
CONTINUOUS
70
0
71
3
72
9
73
5
74
3
42
0.0000001000
43
0.0000001000
44
0.0000000001
12
-0.0281464978
22
0.0335704634
32
0.0000000000
13
-0.0309810697
23
0.0309737740
33
0.0000000000
40
0.0000000000
40
0.0000000000
40
0.0000000000
40
0.0000000000
40
0.4937402085
40
1.0000000000
40
1.0000000000
40
1.0000000000
40
1.0000000000
10
60.9959638344
20
31.2924439847
30
0.0000000000
10
60.9913314818
20
31.2979690139
30
0.0000000000
10
60.9817047891
20
31.3089562388
30
0.0000000000
10
60.9716081505
20
31.3195137781
30
0.0000000000
10
60.9663799939
20
31.3247407036
30
0.0000000000
11
60.9959638344
21
31.2924439847
31
0.0000000000
11
60.9817107482
21
31.3087139348
31
0.0000000000
11
60.9663799939
21
31.3247407036
31
0.0000000000
0
SPLINE
5
3DF
100
AcDbEntity
8
0
100
AcDbSpline
62
0
6
CONTINUOUS
70
0
71
3
72
9
73
5
74
3
42
0.0000001000
43
0.0000001000
44
0.0000000001
12
0.0705718523
22
-0.0654067238
32
0.0000000000
13
0.0962207143
23
0.0000000000
33
0.0000000000
40
0.0000000000
40
0.0000000000
40
0.0000000000
40
0.0000000000
40
0.4533295873
40
1.0000000000
40
1.0000000000
40
1.0000000000
40
1.0000000000
10
65.2298299344
20
31.2926079726
30
0.0000000000
10
65.2404940373
20
31.2827243715
30
0.0000000000
10
65.2699205285
20
31.2670610330
30
0.0000000000
10
65.3023997120
20
31.2641330629
30
0.0000000000
10
65.3199333845
20
31.2641330629
30
0.0000000000
11
65.2298299344
21
31.2926079726
31
0.0000000000
11
65.2678011873
21
31.2711402784
31
0.0000000000
11
65.3199333845
21
31.2641330629
31
0.0000000000
0
SPLINE
5
3E0
100
AcDbEntity
8
0
100
AcDbSpline
62
9
6
CONTINUOUS
70
0
71
3
72
9
73
5
74
3
42
0.0000001000
43
0.0000001000
44
0.0000000001
12
0.0280055778
22
0.0334067311
32
0.0000000000
13
0.0308236606
23
0.0308257039
33
0.0000000000
40
0.0000000000
40
0.0000000000
40
0.0000000000
40
0.0000000000
40
0.4909953060
40
1.0000000000
40
1.0000000000
40
1.0000000000
40
1.0000000000
10
65.2298299344
20
31.2926079726
30
0.0000000000
10
65.2344134701
20
31.2980754886
30
0.0000000000
10
65.2439971296
20
31.3090046696
30
0.0000000000
10
65.2540434168
20
31.3195105609
30
0.0000000000
10
65.2592732127
20
31.3247407036
30
0.0000000000
11
65.2298299344
21
31.2926079726
31
0.0000000000
11
65.2439360624
21
31.3087057966
31
0.0000000000
11
65.2592732127
21
31.3247407036
31
0.0000000000
0
SPLINE
5
3E1
100
AcDbEntity
8
0
100
AcDbSpline
62
9
6
CONTINUOUS
70
0
71
3
72
8
73
4
74
2
42
0.0000001000
43
0.0000001000
44
0.0000000001
12
0.0323246554
22
0.0323258989
32
0.0000000000
13
0.0351808903
23
0.0292686237
33
0.0000000000
40
0.0000000000
40
0.0000000000
40
0.0000000000
40
0.0000000000
40
1.0000000000
40
1.0000000000
40
1.0000000000
40
1.0000000000
10
66.5357315800
20
32.6011990708
30
0.0000000000
10
66.5465064651
20
32.6119743705
30
0.0000000000
10
66.5577850925
20
32.6222646748
30
0.0000000000
10
66.5695120559
20
32.6320208827
30
0.0000000000
11
66.5357315800
21
32.6011990708
31
0.0000000000
11
66.5695120559
21
32.6320208827
31
0.0000000000
0
SPLINE
5
3E2
100
AcDbEntity
8
0
100
AcDbSpline
62
9
6
CONTINUOUS
70
0
71
3
72
13
73
9
74
7
42
0.0000001000
43
0.0000001000
44
0.0000000001
12
0.3950845851
22
0.3286892954
32
0.0000000000
13
0.4849074194
23
-0.1685992988
33
0.0000000000
40
0.0000000000
40
0.0000000000
40
0.0000000000
40
0.0000000000
40
0.0468315520
40
0.1981304319
40
0.3670637793
40
0.5558814954
40
0.7664858478
40
1.0000000000
40
1.0000000000
40
1.0000000000
40
1.0000000000
10
66.5695120559
20
32.6320208827
30
0.0000000000
10
66.5756795307
20
32.6371518927
30
0.0000000000
10
66.6022969287
20
32.6582346825
30
0.0000000000
10
66.6554541355
20
32.6921579123
30
0.0000000000
10
66.7359757388
20
32.7265324091
30
0.0000000000
10
66.8315107079
20
32.7478470832
30
0.0000000000
10
66.9406112407
20
32.7493973788
30
0.0000000000
10
67.0157345643
20
32.7330406343
30
0.0000000000
10
67.0534788126
20
32.7199171935
30
0.0000000000
11
66.5695120559
21
32.6320208827
31
0.0000000000
11
66.5883784423
21
32.6469635854
31
0.0000000000
11
66.6538555799
21
32.6887488724
31
0.0000000000
11
66.7336209675
21
32.7227945792
31
0.0000000000
11
66.8282307867
21
32.7439012271
31
0.0000000000
11
66.9363405938
21
32.7454184580
31
0.0000000000
11
67.0534788126
21
32.7199171935
31
0.0000000000
0
SPLINE
5
3E3
100
AcDbEntity
8
0
100
AcDbSpline
62
9
6
CONTINUOUS
70
0
71
3
72
8
73
4
74
2
42
0.0000001000
43
0.0000001000
44
0.0000000001
12
0.5036045310
22
-0.1750344431
32
0.0000000000
13
0.4956170771
23
-0.1974096841
33
0.0000000000
40
0.0000000000
40
0.0000000000
40
0.0000000000
40
0.0000000000
40
1.0000000000
40
1.0000000000
40
1.0000000000
40
1.0000000000
10
67.0534788126
20
32.7199171935
30
0.0000000000
10
67.2213469896
20
32.6615723791
30
0.0000000000
10
67.3879758963
20
32.5994601165
30
0.0000000000
10
67.5531815886
20
32.5336568885
30
0.0000000000
11
67.0534788126
21
32.7199171935
31
0.0000000000
11
67.5531815886
21
32.5336568885
31
0.0000000000
0
SPLINE
5
3E4
100
AcDbEntity
8
0
100
AcDbSpline
62
9
6
CONTINUOUS
70
0
71
3
72
8
73
4
74
2
42
0.0000001000
43
0.0000001000
44
0.0000000001
12
0.4915127061
22
-0.1957748684
32
0.0000000000
13
0.4825760325
23
-0.2173315911
33
0.0000000000
40
0.0000000000
40
0.0000000000
40
0.0000000000
40
0.0000000000
40
1.0000000000
40
1.0000000000
40
1.0000000000
40
1.0000000000
10
67.5531815886
20
32.5336568885
30
0.0000000000
10
67.7170191574
20
32.4683985990
30
0.0000000000
10
67.8794569864
20
32.3995102233
30
0.0000000000
10
68.0403156639
20
32.3270663596
30
0.0000000000
11
67.5531815886
21
32.5336568885
31
0.0000000000
11
68.0403156639
21
32.3270663596
31
0.0000000000
0
SPLINE
5
3E5
100
AcDbEntity
8
0
100
AcDbSpline
62
9
6
CONTINUOUS
70
0
71
3
72
9
73
5
74
3
42
0.0000001000
43
0.0000001000
44
0.0000000001
12
1.4337356207
22
-0.6456931605
32
0.0000000000
13
1.3365434737
23
-0.8271997093
33
0.0000000000
40
0.0000000000
40
0.0000000000
40
0.0000000000
40
0.0000000000
40
0.3344788024
40
1.0000000000
40
1.0000000000
40
1.0000000000
40
1.0000000000
10
68.0403156639
20
32.3270663596
30
0.0000000000
10
68.2001670550
20
32.2550761346
30
0.0000000000
10
68.6734166410
20
32.0293478571
30
0.0000000000
10
69.1311535365
20
31.7728901023
30
0.0000000000
10
69.4276528742
20
31.5893837885
30
0.0000000000
11
68.0403156639
21
32.3270663596
31
0.0000000000
11
68.5150154657
21
32.1006355936
31
0.0000000000
11
69.4276528742
21
31.5893837885
31
0.0000000000
0
SPLINE
5
3E6
100
AcDbEntity
8
0
100
AcDbSpline
62
9
6
CONTINUOUS
70
0
71
3
72
8
73
4
74
2
42
0.0000001000
43
0.0000001000
44
0.0000000001
12
0.4444133121
22
-0.2750517060
32
0.0000000000
13
0.4317576131
23
-0.2939722908
33
0.0000000000
40
0.0000000000
40
0.0000000000
40
0.0000000000
40
0.0000000000
40
1.0000000000
40
1.0000000000
40
1.0000000000
40
1.0000000000
10
69.4276528742
20
31.5893837885
30
0.0000000000
10
69.5757906449
20
31.4976998865
30
0.0000000000
10
69.7218979170
20
31.4028137637
30
0.0000000000
10
69.8658171214
20
31.3048230001
30
0.0000000000
11
69.4276528742
21
31.5893837885
31
0.0000000000
11
69.8658171214
21
31.3048230001
31
0.0000000000
0
SPLINE
5
3E7
100
AcDbEntity
8
0
100
AcDbSpline
62
0
6
CONTINUOUS
70
0
71
3
72
10
73
6
74
4
42
0.0000001000
43
0.0000001000
44
0.0000000001
12
0.1305216704
22
-0.0000000000
32
0.0000000000
13
0.0748392646
23
0.1069345170
33
0.0000000000
40
0.0000000000
40
0.0000000000
40
0.0000000000
40
0.0000000000
40
0.3540137764
40
0.6884225380
40
1.0000000000
40
1.0000000000
40
1.0000000000
40
1.0000000000
10
69.7460761840
20
31.2641330629
30
0.0000000000
10
69.7614783405
20
31.2641330629
30
0.0000000000
10
69.7914914141
20
31.2658289771
30
0.0000000000
10
69.8341375595
20
31.2761828899
30
0.0000000000
10
69.8580443787
20
31.2937168716
30
0.0000000000
10
69.8658171214
20
31.3048230001
30
0.0000000000
11
69.7460761840
21
31.2641330629
31
0.0000000000
11
69.7921730528
21
31.2673137092
31
0.0000000000
11
69.8341352280
21
31.2793257022
31
0.0000000000
11
69.8658171214
21
31.3048230001
31
0.0000000000
0
SPLINE
5
3E8
100
AcDbEntity
8
0
100
AcDbSpline
62
9
6
CONTINUOUS
70
0
71
3
72
9
73
5
74
3
42
0.0000001000
43
0.0000001000
44
0.0000000001
12
0.0026517788
22
-0.0023025960
32
0.0000000000
13
0.0407462411
23
-0.0027593702
33
0.0000000000
40
0.0000000000
40
0.0000000000
40
0.0000000000
40
0.0000000000
40
0.0218591455
40
1.0000000000
40
1.0000000000
40
1.0000000000
40
1.0000000000
10
68.8016255327
20
-26.0215515860
30
0.0000000000
10
68.8016448546
20
-26.0215683636
30
0.0000000000
10
68.8030359158
20
-26.0223644928
30
0.0000000000
10
68.8281981804
20
-26.0244974038
30
0.0000000000
10
68.8414833680
20
-26.0253970880
30
0.0000000000
11
68.8016255327
21
-26.0215515860
31
0.0000000000
11
68.8017170278
21
-26.0216038078
31
0.0000000000
11
68.8414833680
21
-26.0253970880
31
0.0000000000
0
SPLINE
5
3E9
100
AcDbEntity
8
0
100
AcDbSpline
62
9
6
CONTINUOUS
70
0
71
3
72
8
73
4
74
2
42
0.0000001000
43
0.0000001000
44
0.0000000001
12
-0.0029591423
22
-0.0034903398
32
0.0000000000
13
0.0400697612
23
-0.0027432421
33
0.0000000000
40
0.0000000000
40
0.0000000000
40
0.0000000000
40
0.0000000000
40
1.0000000000
40
1.0000000000
40
1.0000000000
40
1.0000000000
10
52.9177081580
20
-26.0220246869
30
0.0000000000
10
52.9167217772
20
-26.0231881335
30
0.0000000000
10
52.9482320862
20
-26.0244826738
30
0.0000000000
10
52.9615886732
20
-26.0253970878
30
0.0000000000
11
52.9177081580
21
-26.0220246869
31
0.0000000000
11
52.9615886732
21
-26.0253970878
31
0.0000000000
0
SPLINE
5
3EA
100
AcDbEntity
8
0
100
AcDbSpline
62
9
6
CONTINUOUS
70
0
71
3
72
8
73
4
74
2
42
0.0000001000
43
0.0000001000
44
0.0000000001
12
0.1322835786
22
-0.0000000001
32
0.0000000000
13
0.1119455262
23
-0.0740833527
33
0.0000000000
40
0.0000000000
40
0.0000000000
40
0.0000000000
40
0.0000000000
40
1.0000000000
40
1.0000000000
40
1.0000000000
40
1.0000000000
10
73.0091694740
20
-25.7358669371
30
0.0000000000
10
73.0532640002
20
-25.7358669372
30
0.0000000000
10
73.0981464473
20
-25.7505328513
30
0.0000000000
10
73.1354616227
20
-25.7752273022
30
0.0000000000
11
73.0091694740
21
-25.7358669371
31
0.0000000000
11
73.1354616227
21
-25.7752273022
31
0.0000000000
0
SPLINE
5
3EB
100
AcDbEntity
8
0
100
AcDbSpline
62
9
6
CONTINUOUS
70
0
71
3
72
9
73
5
74
3
42
0.0000001000
43
0.0000001000
44
0.0000000001
12
0.2022112965
22
-0.1338194682
32
0.0000000000
13
0.0416959582
23
-0.2369954816
33
0.0000000000
40
0.0000000000
40
0.0000000000
40
0.0000000000
40
0.0000000000
40
0.5956274002
40
1.0000000000
40
1.0000000000
40
1.0000000000
40
1.0000000000
10
73.1354616227
20
-25.7752273022
30
0.0000000000
10
73.1756091523
20
-25.8017961495
30
0.0000000000
10
73.2283063497
20
-25.8658925376
30
0.0000000000
10
73.2533167835
20
-25.9433094302
30
0.0000000000
10
73.2589370178
20
-25.9752542566
30
0.0000000000
11
73.1354616227
21
-25.7752273022
31
0.0000000000
11
73.2285624532
21
-25.8828770215
31
0.0000000000
11
73.2589370178
21
-25.9752542566
31
0.0000000000
0
SPLINE
5
3EC
100
AcDbEntity
8
0
100
AcDbSpline
62
9
6
CONTINUOUS
70
0
71
3
72
8
73
4
74
2
42
0.0000001000
43
0.0000001000
44
0.0000000001
12
0.0087686882
22
-0.0498403098
32
0.0000000000
13
0.0014912233
23
-0.0502289342
33
0.0000000000
40
0.0000000000
40
0.0000000000
40
0.0000000000
40
0.0000000000
40
1.0000000000
40
1.0000000000
40
1.0000000000
40
1.0000000000
10
73.2589370178
20
-25.9752542566
30
0.0000000000
10
73.2618599139
20
-25.9918676932
30
0.0000000000
10
73.2635675105
20
-26.0086541101
30
0.0000000000
10
73.2640645850
20
-26.0253970881
30
0.0000000000
11
73.2589370178
21
-25.9752542566
31
0.0000000000
11
73.2640645850
21
-26.0253970881
31
0.0000000000
0
SPLINE
5
3ED
100
AcDbEntity
8
0
100
AcDbSpline
62
9
6
CONTINUOUS
70
0
71
3
72
10
73
6
74
4
42
0.0000001000
43
0.0000001000
44
0.0000000001
12
-0.3758904326
22
-0.0000000001
32
0.0000000000
13
-0.0656062511
23
-0.3728909557
33
0.0000000000
40
0.0000000000
40
0.0000000000
40
0.0000000000
40
0.0000000000
40
0.3579082589
40
0.7395787979
40
1.0000000000
40
1.0000000000
40
1.0000000000
40
1.0000000000
10
69.2416532907
20
-25.7358669371
30
0.0000000000
10
69.1968085273
20
-25.7358669372
30
0.0000000000
10
69.1024430145
20
-25.7659405824
30
0.0000000000
10
69.0183277514
20
-25.8657995811
30
0.0000000000
10
68.9927315686
20
-25.9439831987
30
0.0000000000
10
68.9870364823
20
-25.9763527690
30
0.0000000000
11
69.2416532907
21
-25.7358669371
31
0.0000000000
11
69.1130055675
21
-25.7752273052
31
0.0000000000
11
69.0181682451
21
-25.8828770273
31
0.0000000000
11
68.9870364823
21
-25.9763527690
31
0.0000000000
0
SPLINE
5
3EE
100
AcDbEntity
8
0
100
AcDbSpline
62
9
6
CONTINUOUS
70
0
71
3
72
8
73
4
74
2
42
0.0000001000
43
0.0000001000
44
0.0000000001
12
-0.0085778957
22
-0.0487548009
32
0.0000000000
13
-0.0014856371
23
-0.0491245175
33
0.0000000000
40
0.0000000000
40
0.0000000000
40
0.0000000000
40
0.0000000000
40
1.0000000000
40
1.0000000000
40
1.0000000000
40
1.0000000000
10
68.9870364823
20
-25.9763527690
30
0.0000000000
10
68.9841771837
20
-25.9926043693
30
0.0000000000
10
68.9824991479
20
-26.0090222489
30
0.0000000000
10
68.9820039356
20
-26.0253970881
30
0.0000000000
11
68.9870364823
21
-25.9763527690
31
0.0000000000
11
68.9820039356
21
-26.0253970881
31
0.0000000000
0
SPLINE
5
3EF
100
AcDbEntity
8
0
100
AcDbSpline
62
9
6
CONTINUOUS
70
0
71
3
72
10
73
6
74
4
42
0.0000001000
43
0.0000001000
44
0.0000000001
12
0.3047695895
22
-0.0000000000
32
0.0000000000
13
0.0333002746
23
-0.3034972949
33
0.0000000000
40
0.0000000000
40
0.0000000000
40
0.0000000000
40
0.0000000000
40
0.2872958907
40
0.6879848882
40
1.0000000000
40
1.0000000000
40
1.0000000000
40
1.0000000000
10
69.2416532907
20
-25.7358669371
30
0.0000000000
10
69.2708396409
20
-25.7358669371
30
0.0000000000
10
69.3375864708
20
-25.7781691663
30
0.0000000000
10
69.3786020452
20
-25.8732532488
30
0.0000000000
10
69.3929162619
20
-25.9447924104
30
0.0000000000
10
69.3963796582
20
-25.9763576579
30
0.0000000000
11
69.2416532907
21
-25.7358669371
31
0.0000000000
11
69.3198666048
21
-25.7752276391
31
0.0000000000
11
69.3775238603
21
-25.8828770848
31
0.0000000000
11
69.3963796582
21
-25.9763576579
31
0.0000000000
0
SPLINE
5
3F0
100
AcDbEntity
8
0
100
AcDbSpline
62
9
6
CONTINUOUS
70
0
71
3
72
8
73
4
74
2
42
0.0000001000
43
0.0000001000
44
0.0000000001
12
0.0053662978
22
-0.0489082117
32
0.0000000000
13
0.0009028519
23
-0.0491049411
33
0.0000000000
40
0.0000000000
40
0.0000000000
40
0.0000000000
40
0.0000000000
40
1.0000000000
40
1.0000000000
40
1.0000000000
40
1.0000000000
10
69.3963796582
20
-25.9763576579
30
0.0000000000
10
69.3981684241
20
-25.9926603951
30
0.0000000000
10
69.3992094309
20
-26.0090287738
30
0.0000000000
10
69.3995103816
20
-26.0253970876
30
0.0000000000
11
69.3963796582
21
-25.9763576579
31
0.0000000000
11
69.3995103816
21
-26.0253970876
31
0.0000000000
0
SPLINE
5
3F1
100
AcDbEntity
8
0
100
AcDbSpline
62
9
6
CONTINUOUS
70
0
71
3
72
10
73
6
74
4
42
0.0000001000
43
0.0000001000
44
0.0000000001
12
-0.3033449778
22
-0.0000000002
32
0.0000000000
13
-0.0339485643
23
-0.3020070186
33
0.0000000000
40
0.0000000000
40
0.0000000000
40
0.0000000000
40
0.0000000000
40
0.2886437142
40
0.6912157332
40
1.0000000000
40
1.0000000000
40
1.0000000000
40
1.0000000000
10
56.9839999158
20
-25.7358669371
30
0.0000000000
10
56.9548137088
20
-25.7358669372
30
0.0000000000
10
56.8880668460
20
-25.7781689586
30
0.0000000000
10
56.8472429229
20
-25.8728086263
30
0.0000000000
10
56.8329253479
20
-25.9438541418
30
0.0000000000
10
56.8294310870
20
-25.9749391471
30
0.0000000000
11
56.9839999158
21
-25.7358669371
31
0.0000000000
11
56.9057869132
21
-25.7752273022
31
0.0000000000
11
56.8481293661
21
-25.8828770215
31
0.0000000000
11
56.8294310870
21
-25.9749391471
31
0.0000000000
0
SPLINE
5
3F2
100
AcDbEntity
8
0
100
AcDbSpline
62
9
6
CONTINUOUS
70
0
71
3
72
8
73
4
74
2
42
0.0000001000
43
0.0000001000
44
0.0000000001
12
-0.0056558975
22
-0.0503149625
32
0.0000000000
13
-0.0009290410
23
-0.0505293291
33
0.0000000000
40
0.0000000000
40
0.0000000000
40
0.0000000000
40
0.0000000000
40
1.0000000000
40
1.0000000000
40
1.0000000000
40
1.0000000000
10
56.8294310870
20
-25.9749391471
30
0.0000000000
10
56.8275457878
20
-25.9917108013
30
0.0000000000
10
56.8264524946
20
-26.0085539784
30
0.0000000000
10
56.8261428142
20
-26.0253970881
30
0.0000000000
11
56.8294310870
21
-25.9749391471
31
0.0000000000
11
56.8261428142
21
-26.0253970881
31
0.0000000000
0
SPLINE
5
3F3
100
AcDbEntity
8
0
100
AcDbSpline
62
9
6
CONTINUOUS
70
0
71
3
72
10
73
6
74
4
42
0.0000001000
43
0.0000001000
44
0.0000000001
12
0.3758902541
22
-0.0000000000
32
0.0000000000
13
0.0656064247
23
-0.3728907670
33
0.0000000000
40
0.0000000000
40
0.0000000000
40
0.0000000000
40
0.0000000000
40
0.3579086576
40
0.7395783769
40
1.0000000000
40
1.0000000000
40
1.0000000000
40
1.0000000000
10
56.9839999160
20
-25.7358669371
30
0.0000000000
10
57.0288447080
20
-25.7358669371
30
0.0000000000
10
57.1232101248
20
-25.7659405756
30
0.0000000000
10
57.2073253682
20
-25.8657994623
30
0.0000000000
10
57.2329215802
20
-25.9439829838
30
0.0000000000
10
57.2386166907
20
-25.9763525901
30
0.0000000000
11
56.9839999160
21
-25.7358669371
31
0.0000000000
11
57.1126477140
21
-25.7752273544
31
0.0000000000
11
57.2074848250
21
-25.8828767614
31
0.0000000000
11
57.2386166907
21
-25.9763525901
31
0.0000000000
0
SPLINE
5
3F4
100
AcDbEntity
8
0
100
AcDbSpline
62
9
6
CONTINUOUS
70
0
71
3
72
8
73
4
74
2
42
0.0000001000
43
0.0000001000
44
0.0000000001
12
0.0085779537
22
-0.0487549770
32
0.0000000000
13
0.0014856425
23
-0.0491246965
33
0.0000000000
40
0.0000000000
40
0.0000000000
40
0.0000000000
40
0.0000000000
40
1.0000000000
40
1.0000000000
40
1.0000000000
40
1.0000000000
10
57.2386166907
20
-25.9763525901
30
0.0000000000
10
57.2414760086
20
-25.9926042491
30
0.0000000000
10
57.2431540551
20
-26.0090221893
30
0.0000000000
10
57.2436492693
20
-26.0253970881
30
0.0000000000
11
57.2386166907
21
-25.9763525901
31
0.0000000000
11
57.2436492693
21
-26.0253970881
31
0.0000000000
0
SPLINE
5
3F5
100
AcDbEntity
8
0
100
AcDbSpline
62
9
6
CONTINUOUS
70
0
71
3
72
10
73
6
74
4
42
0.0000001000
43
0.0000001000
44
0.0000000001
12
0.3757098510
22
-0.0000000001
32
0.0000000000
13
0.0657846581
23
-0.3726985671
33
0.0000000000
40
0.0000000000
40
0.0000000000
40
0.0000000000
40
0.0000000000
40
0.3576237944
40
0.7389984892
40
1.0000000000
40
1.0000000000
40
1.0000000000
40
1.0000000000
10
57.1245204513
20
-25.7358669371
30
0.0000000000
10
57.1693080454
20
-25.7358669371
30
0.0000000000
10
57.2635521681
20
-25.7658595848
30
0.0000000000
10
57.3477200933
20
-25.8655758940
30
0.0000000000
10
57.3733813205
20
-25.9437447647
30
0.0000000000
10
57.3791046189
20
-25.9761697277
30
0.0000000000
11
57.1245204513
21
-25.7358669371
31
0.0000000000
11
57.2530188525
21
-25.7751291100
31
0.0000000000
11
57.3478392430
21
-25.8825536750
31
0.0000000000
11
57.3791046189
21
-25.9761697277
31
0.0000000000
0
SPLINE
5
3F6
100
AcDbEntity
8
0
100
AcDbSpline
62
9
6
CONTINUOUS
70
0
71
3
72
8
73
4
74
2
42
0.0000001000
43
0.0000001000
44
0.0000000001
12
0.0086374563
22
-0.0489349295
32
0.0000000000
13
0.0014911789
23
-0.0493077647
33
0.0000000000
40
0.0000000000
40
0.0000000000
40
0.0000000000
40
0.0000000000
40
1.0000000000
40
1.0000000000
40
1.0000000000
40
1.0000000000
10
57.3791046189
20
-25.9761697277
30
0.0000000000
10
57.3819837710
20
-25.9924813709
30
0.0000000000
10
57.3836727413
20
-26.0089611665
30
0.0000000000
10
57.3841698009
20
-26.0253970881
30
0.0000000000
11
57.3791046189
21
-25.9761697277
31
0.0000000000
11
57.3841698009
21
-26.0253970881
31
0.0000000000
0
SPLINE
5
3F7
100
AcDbEntity
8
0
100
AcDbSpline
62
9
6
CONTINUOUS
70
0
71
3
72
9
73
5
74
3
42
0.0000001000
43
0.0000001000
44
0.0000000001
12
0.0411636208
22
0.0028181304
32
0.0000000000
13
-0.0003405359
23
0.0021665705
33
0.0000000000
40
0.0000000000
40
0.0000000000
40
0.0000000000
40
0.0000000000
40
0.9456266549
40
1.0000000000
40
1.0000000000
40
1.0000000000
40
1.0000000000
10
73.2640645850
20
-26.0253970881
30
0.0000000000
10
73.2770397240
20
-26.0245087884
30
0.0000000000
10
73.3020392023
20
-26.0229797128
30
0.0000000000
10
73.3031495800
20
-26.0222173648
30
0.0000000000
10
73.3031434080
20
-26.0221780969
30
0.0000000000
11
73.2640645850
21
-26.0253970881
31
0.0000000000
11
73.3029582029
21
-26.0223025345
31
0.0000000000
11
73.3031434080
21
-26.0221780969
31
0.0000000000
0
SPLINE
5
3F8
100
AcDbEntity
8
0
100
AcDbSpline
62
9
6
CONTINUOUS
70
0
71
3
72
10
73
6
74
4
42
0.0000001000
43
0.0000001000
44
0.0000000001
12
0.2076152617
22
0.0149045398
32
0.0000000000
13
0.2081491085
23
-0.0007775585
33
0.0000000000
40
0.0000000000
40
0.0000000000
40
0.0000000000
40
0.0000000000
40
0.3295590963
40
0.8119088747
40
1.0000000000
40
1.0000000000
40
1.0000000000
40
1.0000000000
10
68.9820039356
20
-26.0253970881
30
0.0000000000
10
69.0048111016
20
-26.0237597792
30
0.0000000000
10
69.0611279086
20
-26.0216915518
30
0.0000000000
10
69.1305053145
20
-26.0208022699
30
0.0000000000
10
69.1770225240
20
-26.0208156583
30
0.0000000000
10
69.1900728574
20
-26.0208644089
30
0.0000000000
11
68.9820039356
21
-26.0253970881
31
0.0000000000
11
69.0505316844
21
-26.0223025672
31
0.0000000000
11
69.1509221621
21
-26.0208561261
31
0.0000000000
11
69.1900728574
21
-26.0208644089
31
0.0000000000
0
SPLINE
5
3F9
100
AcDbEntity
8
0
100
AcDbSpline
62
9
6
CONTINUOUS
70
0
71
3
72
9
73
5
74
3
42
0.0000001000
43
0.0000001000
44
0.0000000001
12
0.2094925748
22
-0.0007825772
32
0.0000000000
13
0.2093060458
23
-0.0088493705
33
0.0000000000
40
0.0000000000
40
0.0000000000
40
0.0000000000
40
0.0000000000
40
0.3986137185
40
1.0000000000
40
1.0000000000
40
1.0000000000
40
1.0000000000
10
69.1900728574
20
-26.0208644089
30
0.0000000000
10
69.2179083955
20
-26.0209683909
30
0.0000000000
10
69.2877393047
20
-26.0217427772
30
0.0000000000
10
69.3575525474
20
-26.0236231245
30
0.0000000000
10
69.3995104756
20
-26.0253970878
30
0.0000000000
11
69.1900728574
21
-26.0208644089
31
0.0000000000
11
69.2735767052
21
-26.0217614823
31
0.0000000000
11
69.3995104756
21
-26.0253970878
31
0.0000000000
0
SPLINE
5
3FA
100
AcDbEntity
8
0
100
AcDbSpline
62
9
6
CONTINUOUS
70
0
71
3
72
8
73
4
74
2
42
0.0000001000
43
0.0000001000
44
0.0000000001
12
0.0394296678
22
0.0026702102
32
0.0000000000
13
-0.0010407579
23
0.0022141196
33
0.0000000000
40
0.0000000000
40
0.0000000000
40
0.0000000000
40
0.0000000000
40
1.0000000000
40
1.0000000000
40
1.0000000000
40
1.0000000000
10
57.3841698009
20
-26.0253970881
30
0.0000000000
10
57.3973130235
20
-26.0245070180
30
0.0000000000
10
57.4240180242
20
-26.0227100925
30
0.0000000000
10
57.4236711049
20
-26.0219720526
30
0.0000000000
11
57.3841698009
21
-26.0253970881
31
0.0000000000
11
57.4236711049
21
-26.0219720526
31
0.0000000000
0
SPLINE
5
3FB
100
AcDbEntity
8
0
100
AcDbSpline
62
9
6
CONTINUOUS
70
0
71
3
72
11
73
7
74
5
42
0.0000001000
43
0.0000001000
44
0.0000000001
12
0.4172677873
22
0.0176419032
32
0.0000000000
13
0.4165685142
23
-0.0299051177
33
0.0000000000
40
0.0000000000
40
0.0000000000
40
0.0000000000
40
0.0000000000
40
0.2363501848
40
0.5101247714
40
0.7829349507
40
1.0000000000
40
1.0000000000
40
1.0000000000
40
1.0000000000
10
56.8261428142
20
-26.0253970881
30
0.0000000000
10
56.8590165871
20
-26.0240071991
30
0.0000000000
10
56.9300058887
20
-26.0218921410
30
0.0000000000
10
57.0390013618
20
-26.0204707675
30
0.0000000000
10
57.1453027422
20
-26.0212402640
30
0.0000000000
10
57.2135083637
20
-26.0232333024
30
0.0000000000
10
57.2436491853
20
-26.0253970877
30
0.0000000000
11
56.8261428142
21
-26.0253970881
31
0.0000000000
11
56.9248037201
21
-26.0223025345
31
0.0000000000
11
57.0391339449
21
-26.0208561449
31
0.0000000000
11
57.1530669461
21
-26.0217614556
31
0.0000000000
11
57.2436491853
21
-26.0253970877
31
0.0000000000
0
SPLINE
5
3FC
100
AcDbEntity
8
0
100
AcDbSpline
62
0
6
CONTINUOUS
70
0
71
3
72
10
73
6
74
4
42
0.0000001000
43
0.0000001000
44
0.0000000001
12
-0.3071526386
22
0.2846722475
32
0.0000000000
13
-0.3900795760
23
-0.1523776765
33
0.0000000000
40
0.0000000000
40
0.0000000000
40
0.0000000000
40
0.0000000000
40
0.5134513766
40
0.8685240022
40
1.0000000000
40
1.0000000000
40
1.0000000000
40
1.0000000000
10
65.2296920273
20
31.2924415239
30
0.0000000000
10
65.1771227122
20
31.3411633097
30
0.0000000000
10
65.0861626680
20
31.4311956788
30
0.0000000000
10
64.9817315841
20
31.4968132889
30
0.0000000000
10
64.9232460057
20
31.5632734677
30
0.0000000000
10
64.9061506385
20
31.5565954653
30
0.0000000000
11
65.2296920273
21
31.2924415239
31
0.0000000000
11
65.0696663153
21
31.4360656137
31
0.0000000000
11
64.9542937404
21
31.5298771685
31
0.0000000000
11
64.9061506385
21
31.5565954653
31
0.0000000000
0
SPLINE
5
3FD
100
AcDbEntity
8
0
100
AcDbSpline
62
9
6
CONTINUOUS
70
0
71
3
72
10
73
6
74
4
42
0.0000001000
43
0.0000001000
44
0.0000000001
12
-0.3669876393
22
0.1288274490
32
0.0000000000
13
-0.1348040802
23
-0.3648346186
33
0.0000000000
40
0.0000000000
40
0.0000000000
40
0.0000000000
40
0.0000000000
40
0.1336347416
40
0.4884008684
40
1.0000000000
40
1.0000000000
40
1.0000000000
40
1.0000000000
10
67.2175094980
20
33.0704514917
30
0.0000000000
10
67.2011620653
20
33.0761900993
30
0.0000000000
10
67.1706545021
20
32.9852960345
30
0.0000000000
10
67.1167766510
20
32.8982907284
30
0.0000000000
10
67.0764673627
20
32.7821334945
30
0.0000000000
10
67.0534788125
20
32.7199171365
30
0.0000000000
11
67.2175094980
21
33.0704514917
31
0.0000000000
11
67.1847812513
21
33.0300733609
31
0.0000000000
11
67.1262943672
21
32.9050982176
31
0.0000000000
11
67.0534788125
21
32.7199171365
31
0.0000000000
0
SPLINE
5
3FE
100
AcDbEntity
8
0
100
AcDbSpline
62
0
6
CONTINUOUS
70
0
71
3
72
10
73
6
74
4
42
0.0000001000
43
0.0000001000
44
0.0000000001
12
0.2306897801
22
0.3296224294
32
0.0000000000
13
0.3331521773
23
-0.2255622915
33
0.0000000000
40
0.0000000000
40
0.0000000000
40
0.0000000000
40
0.0000000000
40
0.5116068934
40
0.8682599463
40
1.0000000000
40
1.0000000000
40
1.0000000000
40
1.0000000000
10
69.8658171214
20
31.3048230001
30
0.0000000000
10
69.9051579487
20
31.3610353691
30
0.0000000000
10
69.9743803551
20
31.4691413064
30
0.0000000000
10
70.0546574571
20
31.5367315860
30
0.0000000000
10
70.1035323147
20
31.6265874123
30
0.0000000000
10
70.1181621433
20
31.6166822162
30
0.0000000000
11
69.8658171214
21
31.3048230001
31
0.0000000000
11
69.9869004197
21
31.4712760414
31
0.0000000000
11
70.0778685824
21
31.5822477552
31
0.0000000000
11
70.1181621433
21
31.6166822162
31
0.0000000000
0
SPLINE
5
3FF
100
AcDbEntity
8
0
100
AcDbSpline
62
0
6
CONTINUOUS
70
0
71
3
72
10
73
6
74
4
42
0.0000001000
43
0.0000001000
44
0.0000000001
12
0.3075438845
22
0.2850592448
32
0.0000000000
13
0.2953686923
23
-0.2970085708
33
0.0000000000
40
0.0000000000
40
0.0000000000
40
0.0000000000
40
0.0000000000
40
0.5088306459
40
0.8670245008
40
1.0000000000
40
1.0000000000
40
1.0000000000
40
1.0000000000
10
60.9959638344
20
31.2924439847
30
0.0000000000
10
61.0481264188
20
31.3407929446
30
0.0000000000
10
61.1420151468
20
31.4355466338
30
0.0000000000
10
61.2382574482
20
31.4878500881
30
0.0000000000
10
61.3068222293
20
31.5702100132
30
0.0000000000
10
61.3199144958
20
31.5570450589
30
0.0000000000
11
60.9959638344
21
31.2924439847
31
0.0000000000
11
61.1547301834
21
31.4349931364
31
0.0000000000
11
61.2712575333
21
31.5297686930
31
0.0000000000
11
61.3199144958
21
31.5570450589
31
0.0000000000
0
SPLINE
5
400
100
AcDbEntity
8
0
100
AcDbSpline
62
9
6
CONTINUOUS
70
0
71
3
72
10
73
6
74
4
42
0.0000001000
43
0.0000001000
44
0.0000000001
12
-0.1348002497
22
0.3648207229
32
0.0000000000
13
-0.3669635335
23
-0.1288527539
33
0.0000000000
40
0.0000000000
40
0.0000000000
40
0.0000000000
40
0.0000000000
40
0.5116088855
40
0.8663709711
40
1.0000000000
40
1.0000000000
40
1.0000000000
40
1.0000000000
10
59.1721743941
20
32.7199171329
30
0.0000000000
10
59.1491860590
20
32.7821323074
30
0.0000000000
10
59.1088770215
20
32.8982867520
30
0.0000000000
10
59.0550029198
20
32.9852869978
30
0.0000000000
10
59.0244943080
20
33.0761773421
30
0.0000000000
10
59.0081486478
20
33.0704378526
30
0.0000000000
11
59.1721743941
21
32.7199171329
31
0.0000000000
11
59.0993596395
21
32.9050947096
31
0.0000000000
11
59.0408750749
21
33.0300635775
31
0.0000000000
11
59.0081486478
21
33.0704378526
31
0.0000000000
0
SPLINE
5
401
100
AcDbEntity
8
0
100
AcDbSpline
62
9
6
CONTINUOUS
70
0
71
3
72
10
73
6
74
4
42
0.0000001000
43
0.0000001000
44
0.0000000001
12
0.3137084044
22
0.2952551587
32
0.0000000000
13
0.3046215453
23
-0.3046215453
33
0.0000000000
40
0.0000000000
40
0.0000000000
40
0.0000000000
40
0.0000000000
40
0.4940520331
40
0.8464407507
40
1.0000000000
40
1.0000000000
40
1.0000000000
40
1.0000000000
10
59.6899216267
20
32.6011990708
30
0.0000000000
10
59.7415843850
20
32.6498228746
30
0.0000000000
10
59.8387482921
20
32.7339323155
30
0.0000000000
10
59.9403805811
20
32.8057572490
30
0.0000000000
10
60.0278825319
20
32.8490771343
30
0.0000000000
10
60.0434750172
20
32.8334846490
30
0.0000000000
11
59.6899216267
21
32.6011990708
31
0.0000000000
11
59.8512153772
21
32.7400664899
31
0.0000000000
11
59.9780911546
21
32.8234242682
31
0.0000000000
11
60.0434750172
21
32.8334846490
31
0.0000000000
0
SPLINE
5
402
100
AcDbEntity
8
0
100
AcDbSpline
62
9
6
CONTINUOUS
70
0
71
3
72
10
73
6
74
4
42
0.0000001000
43
0.0000001000
44
0.0000000001
12
0.3137075114
22
0.2952541284
32
0.0000000000
13
0.3046205862
23
-0.3046205862
33
0.0000000000
40
0.0000000000
40
0.0000000000
40
0.0000000000
40
0.0000000000
40
0.4939836969
40
0.8463614925
40
1.0000000000
40
1.0000000000
40
1.0000000000
40
1.0000000000
10
60.9663799939
20
31.3247407036
30
0.0000000000
10
61.0180354593
20
31.3733576122
30
0.0000000000
10
61.1151887467
20
31.4574625484
30
0.0000000000
10
61.2168199933
20
31.5292797992
30
0.0000000000
10
61.3043329004
20
31.5726267657
30
0.0000000000
10
61.3199333845
20
31.5570262817
30
0.0000000000
11
60.9663799939
21
31.3247407036
31
0.0000000000
11
61.1276498988
21
31.4635896718
31
0.0000000000
11
61.2545175836
21
31.5469503279
31
0.0000000000
11
61.3199333845
21
31.5570262817
31
0.0000000000
0
SPLINE
5
403
100
AcDbEntity
8
0
100
AcDbSpline
62
9
6
CONTINUOUS
70
0
71
3
72
10
73
6
74
4
42
0.0000001000
43
0.0000001000
44
0.0000000001
12
0.3046215376
22
0.3046215376
32
0.0000000000
13
0.3137084500
23
-0.2952550944
33
0.0000000000
40
0.0000000000
40
0.0000000000
40
0.0000000000
40
0.0000000000
40
0.1535590192
40
0.5059475812
40
1.0000000000
40
1.0000000000
40
1.0000000000
40
1.0000000000
10
66.1821781894
20
32.8334846489
30
0.0000000000
10
66.1977706509
20
32.8490771104
30
0.0000000000
10
66.2852725281
20
32.8057572656
30
0.0000000000
10
66.3869048268
20
32.7339323534
30
0.0000000000
10
66.4840687738
20
32.6498229020
30
0.0000000000
10
66.5357315800
20
32.6011990708
30
0.0000000000
11
66.1821781894
21
32.8334846489
31
0.0000000000
11
66.2475619529
21
32.8234242871
31
0.0000000000
11
66.3744376839
21
32.7400665674
31
0.0000000000
11
66.5357315800
21
32.6011990708
31
0.0000000000
0
SPLINE
5
404
100
AcDbEntity
8
0
100
AcDbSpline
62
9
6
CONTINUOUS
70
0
71
3
72
10
73
6
74
4
42
0.0000001000
43
0.0000001000
44
0.0000000001
12
0.3045611395
22
0.3045611395
32
0.0000000000
13
0.3136462915
23
-0.2951965096
33
0.0000000000
40
0.0000000000
40
0.0000000000
40
0.0000000000
40
0.0000000000
40
0.1586743473
40
0.5103420669
40
1.0000000000
40
1.0000000000
40
1.0000000000
40
1.0000000000
10
64.9057198221
20
31.5570262817
30
0.0000000000
10
64.9218285021
20
31.5731349617
30
0.0000000000
10
65.0100317466
20
31.5280869644
30
0.0000000000
10
65.1116030415
20
31.4567316712
30
0.0000000000
10
65.2080800811
20
31.3729224745
30
0.0000000000
10
65.2592732127
20
31.3247407036
30
0.0000000000
11
64.9057198221
21
31.5570262817
31
0.0000000000
11
64.9731607869
21
31.5459570195
31
0.0000000000
11
65.0995130226
21
31.4624238892
31
0.0000000000
11
65.2592732127
21
31.3247407036
31
0.0000000000
0
SPLINE
5
405
100
AcDbEntity
8
0
100
AcDbSpline
62
0
6
CONTINUOUS
70
0
71
3
72
10
73
6
74
4
42
0.0000001000
43
0.0000001000
44
0.0000000001
12
0.0000000000
22
0.3185325770
32
0.0000000000
13
0.3185325770
23
0.0000000000
33
0.0000000000
40
0.0000000000
40
0.0000000000
40
0.0000000000
40
0.0000000000
40
0.4782976533
40
0.8306559835
40
1.0000000000
40
1.0000000000
40
1.0000000000
40
1.0000000000
10
62.2642984659
20
-0.0358669371
30
0.0000000000
10
62.2642984659
20
0.0149175242
30
0.0000000000
10
62.2711968110
20
0.1061399150
30
0.0000000000
10
62.2862757005
20
0.2021609934
30
0.0000000000
10
62.3202494054
20
0.2641330629
30
0.0000000000
10
62.3382299341
20
0.2641330629
30
0.0000000000
11
62.2642984659
21
-0.0358669371
31
0.0000000000
11
62.2741083605
21
0.1161702938
31
0.0000000000
11
62.3009445010
21
0.2251524115
31
0.0000000000
11
62.3382299341
21
0.2641330629
31
0.0000000000
0
SPLINE
5
406
100
AcDbEntity
8
0
100
AcDbSpline
62
0
6
CONTINUOUS
70
0
71
3
72
10
73
6
74
4
42
0.0000001000
43
0.0000001000
44
0.0000000001
12
0.3333206327
22
0.2255402984
32
0.0000000000
13
0.2304588503
23
-0.3299390682
33
0.0000000000
40
0.0000000000
40
0.0000000000
40
0.0000000000
40
0.0000000000
40
0.1322452167
40
0.4886066598
40
1.0000000000
40
1.0000000000
40
1.0000000000
40
1.0000000000
10
56.1074910633
20
31.6166822162
30
0.0000000000
10
56.1221844164
20
31.6266244247
30
0.0000000000
10
56.1724931836
20
31.5383247427
30
0.0000000000
10
56.2507796522
20
31.4685616378
30
0.0000000000
10
56.3205164069
20
31.3611154219
30
0.0000000000
10
56.3598014473
20
31.3048725412
30
0.0000000000
11
56.1074910633
21
31.6166822162
31
0.0000000000
11
56.1485340612
21
31.5827978311
31
0.0000000000
11
56.2389468792
21
31.4714659313
31
0.0000000000
11
56.3598014473
21
31.3048725412
31
0.0000000000
0
SPLINE
5
407
100
AcDbEntity
8
0
100
AcDbSpline
62
0
6
CONTINUOUS
70
0
71
3
72
10
73
6
74
4
42
0.0000001000
43
0.0000001000
44
0.0000000001
12
0.3185325770
22
0.0000000000
32
0.0000000000
13
0.0000000000
23
-0.3185325770
33
0.0000000000
40
0.0000000000
40
0.0000000000
40
0.0000000000
40
0.0000000000
40
0.1693440165
40
0.5217023467
40
1.0000000000
40
1.0000000000
40
1.0000000000
40
1.0000000000
10
63.8874232726
20
0.2641330629
30
0.0000000000
10
63.9054038012
20
0.2641330629
30
0.0000000000
10
63.9393775062
20
0.2021609934
30
0.0000000000
10
63.9544563957
20
0.1061399150
30
0.0000000000
10
63.9613547407
20
0.0149175242
30
0.0000000000
10
63.9613547407
20
-0.0358669371
30
0.0000000000
11
63.8874232726
21
0.2641330629
31
0.0000000000
11
63.9247087056
21
0.2251524115
31
0.0000000000
11
63.9515448461
21
0.1161702938
31
0.0000000000
11
63.9613547407
21
-0.0358669371
31
0.0000000000
0
SPLINE
5
408
100
AcDbEntity
8
0
100
AcDbSpline
62
9
6
CONTINUOUS
70
0
71
3
72
8
73
4
74
2
42
0.0000001000
43
0.0000001000
44
0.0000000001
12
0.0046540794
22
-0.3804222492
32
0.0000000000
13
0.0046621315
23
-0.3804221507
33
0.0000000000
40
0.0000000000
40
0.0000000000
40
0.0000000000
40
0.0000000000
40
1.0000000000
40
1.0000000000
40
1.0000000000
40
1.0000000000
10
57.2436492693
20
-26.0253970881
30
0.0000000000
10
57.2452006291
20
-26.1522045045
30
0.0000000000
10
57.2467533333
20
-26.2790119045
30
0.0000000000
10
57.2483073771
20
-26.4058192881
30
0.0000000000
11
57.2436492693
21
-26.0253970881
31
0.0000000000
11
57.2483073771
21
-26.4058192881
31
0.0000000000
0
SPLINE
5
409
100
AcDbEntity
8
0
100
AcDbSpline
62
9
6
CONTINUOUS
70
0
71
3
72
9
73
5
74
3
42
0.0000001000
43
0.0000001000
44
0.0000000001
12
0.0046599073
22
-0.3802406573
32
0.0000000000
13
0.0046679235
23
-0.3802405590
33
0.0000000000
40
0.0000000000
40
0.0000000000
40
0.0000000000
40
0.0000000000
40
0.5000596634
40
1.0000000000
40
1.0000000000
40
1.0000000000
40
1.0000000000
10
57.2483073771
20
-26.4058192881
30
0.0000000000
10
57.2490841210
20
-26.4692002931
30
0.0000000000
10
57.2506380927
20
-26.5959471707
30
0.0000000000
10
57.2521934004
20
-26.7226940319
30
0.0000000000
10
57.2529712948
20
-26.7860598962
30
0.0000000000
11
57.2483073771
21
-26.4058192881
31
0.0000000000
11
57.2506386122
21
-26.5959622909
31
0.0000000000
11
57.2529712948
21
-26.7860598962
31
0.0000000000
0
SPLINE
5
40A
100
AcDbEntity
8
0
100
AcDbSpline
62
9
6
CONTINUOUS
70
0
71
3
72
8
73
4
74
2
42
0.0000001000
43
0.0000001000
44
0.0000000001
12
0.0023331262
22
-0.1900522196
32
0.0000000000
13
0.0023351236
23
-0.1900521951
33
0.0000000000
40
0.0000000000
40
0.0000000000
40
0.0000000000
40
0.0000000000
40
1.0000000000
40
1.0000000000
40
1.0000000000
40
1.0000000000
10
57.2529712948
20
-26.7860598962
30
0.0000000000
10
57.2537490035
20
-26.8494106361
30
0.0000000000
10
57.2545270455
20
-26.9127613719
30
0.0000000000
10
57.2553054200
20
-26.9761121036
30
0.0000000000
11
57.2529712948
21
-26.7860598962
31
0.0000000000
11
57.2553054200
21
-26.9761121036
31
0.0000000000
0
SPLINE
5
40B
100
AcDbEntity
8
0
100
AcDbSpline
62
9
6
CONTINUOUS
70
0
71
3
72
9
73
5
74
3
42
0.0000001000
43
0.0000001000
44
0.0000000001
12
0.0093349191
22
-0.7597550292
32
0.0000000000
13
0.0093666988
23
-0.7597546381
33
0.0000000000
40
0.0000000000
40
0.0000000000
40
0.0000000000
40
0.0000000000
40
0.2500895852
40
1.0000000000
40
1.0000000000
40
1.0000000000
40
1.0000000000
10
57.2553054200
20
-26.9761121036
30
0.0000000000
10
57.2560836087
20
-27.0394477103
30
0.0000000000
10
57.2591965776
20
-27.2926993704
30
0.0000000000
10
57.2623148525
20
-27.5459509652
30
0.0000000000
10
57.2646562474
20
-27.7358669371
30
0.0000000000
11
57.2553054200
21
-26.9761121036
31
0.0000000000
11
57.2576409827
21
-27.1661189115
31
0.0000000000
11
57.2646562474
21
-27.7358669371
31
0.0000000000
0
SPLINE
5
40C
100
AcDbEntity
8
0
100
AcDbSpline
62
9
6
CONTINUOUS
70
0
71
3
72
8
73
4
74
2
42
0.0000001000
43
0.0000001000
44
0.0000000001
12
0.0179109863
22
-0.3798041132
32
0.0000000000
13
0.0179182538
23
-0.3798037704
33
0.0000000000
40
0.0000000000
40
0.0000000000
40
0.0000000000
40
0.0000000000
40
1.0000000000
40
1.0000000000
40
1.0000000000
40
1.0000000000
10
57.3841698046
20
-26.0253970881
30
0.0000000000
10
57.3901401334
20
-26.1519984592
30
0.0000000000
10
57.3961116714
20
-26.2785997732
30
0.0000000000
10
57.4020844226
20
-26.4052010300
30
0.0000000000
11
57.3841698046
21
-26.0253970881
31
0.0000000000
11
57.4020844226
21
-26.4052010300
31
0.0000000000
0
SPLINE
5
40D
100
AcDbEntity
8
0
100
AcDbSpline
62
9
6
CONTINUOUS
70
0
71
3
72
10
73
6
74
4
42
0.0000001000
43
0.0000001000
44
0.0000000001
12
0.0627778059
22
-1.3306680244
32
0.0000000000
13
0.0628677016
23
-1.3306637803
33
0.0000000000
40
0.0000000000
40
0.0000000000
40
0.0000000000
40
0.0000000000
40
0.1427601757
40
0.5712346381
40
1.0000000000
40
1.0000000000
40
1.0000000000
40
1.0000000000
10
57.4020844226
20
-26.4052010300
30
0.0000000000
10
57.4050718128
20
-26.4685231637
30
0.0000000000
10
57.4170266465
20
-26.7218976622
30
0.0000000000
10
57.4379632300
20
-27.1654531679
30
0.0000000000
10
57.4559219226
20
-27.5456860914
30
0.0000000000
10
57.4649070869
20
-27.7358669371
30
0.0000000000
11
57.4020844226
21
-26.4052010300
31
0.0000000000
11
57.4110475043
21
-26.5951673881
31
0.0000000000
11
57.4379598926
21
-27.1653240078
31
0.0000000000
11
57.4649070869
21
-27.7358669371
31
0.0000000000
0
SPLINE
5
40E
100
AcDbEntity
8
0
100
AcDbSpline
62
9
6
CONTINUOUS
70
0
71
3
72
8
73
4
74
2
42
0.0000001000
43
0.0000001000
44
0.0000000001
12
-0.0179109863
22
-0.3798041132
32
0.0000000000
13
-0.0179182538
23
-0.3798037704
33
0.0000000000
40
0.0000000000
40
0.0000000000
40
0.0000000000
40
0.0000000000
40
1.0000000000
40
1.0000000000
40
1.0000000000
40
1.0000000000
10
68.8414834020
20
-26.0253970881
30
0.0000000000
10
68.8355130733
20
-26.1519984592
30
0.0000000000
10
68.8295415353
20
-26.2785997732
30
0.0000000000
10
68.8235687840
20
-26.4052010300
30
0.0000000000
11
68.8414834020
21
-26.0253970881
31
0.0000000000
11
68.8235687840
21
-26.4052010300
31
0.0000000000
0
SPLINE
5
40F
100
AcDbEntity
8
0
100
AcDbSpline
62
9
6
CONTINUOUS
70
0
71
3
72
10
73
6
74
4
42
0.0000001000
43
0.0000001000
44
0.0000000001
12
-0.0627778059
22
-1.3306680244
32
0.0000000000
13
-0.0628677016
23
-1.3306637803
33
0.0000000000
40
0.0000000000
40
0.0000000000
40
0.0000000000
40
0.0000000000
40
0.1427601757
40
0.5712346381
40
1.0000000000
40
1.0000000000
40
1.0000000000
40
1.0000000000
10
68.8235687840
20
-26.4052010300
30
0.0000000000
10
68.8205813938
20
-26.4685231637
30
0.0000000000
10
68.8086265602
20
-26.7218976622
30
0.0000000000
10
68.7876899766
20
-27.1654531679
30
0.0000000000
10
68.7697312841
20
-27.5456860914
30
0.0000000000
10
68.7607461198
20
-27.7358669371
30
0.0000000000
11
68.8235687840
21
-26.4052010300
31
0.0000000000
11
68.8146057023
21
-26.5951673881
31
0.0000000000
11
68.7876933141
21
-27.1653240078
31
0.0000000000
11
68.7607461198
21
-27.7358669371
31
0.0000000000
0
SPLINE
5
410
100
AcDbEntity
8
0
100
AcDbSpline
62
9
6
CONTINUOUS
70
0
71
3
72
8
73
4
74
2
42
0.0000001000
43
0.0000001000
44
0.0000000001
12
-0.0046540794
22
-0.3804222492
32
0.0000000000
13
-0.0046621315
23
-0.3804221507
33
0.0000000000
40
0.0000000000
40
0.0000000000
40
0.0000000000
40
0.0000000000
40
1.0000000000
40
1.0000000000
40
1.0000000000
40
1.0000000000
10
68.9820039373
20
-26.0253970881
30
0.0000000000
10
68.9804525776
20
-26.1522045045
30
0.0000000000
10
68.9788998734
20
-26.2790119045
30
0.0000000000
10
68.9773458296
20
-26.4058192881
30
0.0000000000
11
68.9820039373
21
-26.0253970881
31
0.0000000000
11
68.9773458296
21
-26.4058192881
31
0.0000000000
0
SPLINE
5
411
100
AcDbEntity
8
0
100
AcDbSpline
62
9
6
CONTINUOUS
70
0
71
3
72
9
73
5
74
3
42
0.0000001000
43
0.0000001000
44
0.0000000001
12
-0.0046599073
22
-0.3802406573
32
0.0000000000
13
-0.0046679235
23
-0.3802405590
33
0.0000000000
40
0.0000000000
40
0.0000000000
40
0.0000000000
40
0.0000000000
40
0.5000596634
40
1.0000000000
40
1.0000000000
40
1.0000000000
40
1.0000000000
10
68.9773458296
20
-26.4058192881
30
0.0000000000
10
68.9765690857
20
-26.4692002931
30
0.0000000000
10
68.9750151140
20
-26.5959471707
30
0.0000000000
10
68.9734598063
20
-26.7226940319
30
0.0000000000
10
68.9726819119
20
-26.7860598962
30
0.0000000000
11
68.9773458296
21
-26.4058192881
31
0.0000000000
11
68.9750145945
21
-26.5959622909
31
0.0000000000
11
68.9726819119
21
-26.7860598962
31
0.0000000000
0
SPLINE
5
412
100
AcDbEntity
8
0
100
AcDbSpline
62
9
6
CONTINUOUS
70
0
71
3
72
8
73
4
74
2
42
0.0000001000
43
0.0000001000
44
0.0000000001
12
-0.0023331262
22
-0.1900522196
32
0.0000000000
13
-0.0023351236
23
-0.1900521951
33
0.0000000000
40
0.0000000000
40
0.0000000000
40
0.0000000000
40
0.0000000000
40
1.0000000000
40
1.0000000000
40
1.0000000000
40
1.0000000000
10
68.9726819119
20
-26.7860598962
30
0.0000000000
10
68.9719042031
20
-26.8494106361
30
0.0000000000
10
68.9711261612
20
-26.9127613719
30
0.0000000000
10
68.9703477867
20
-26.9761121036
30
0.0000000000
11
68.9726819119
21
-26.7860598962
31
0.0000000000
11
68.9703477867
21
-26.9761121036
31
0.0000000000
0
SPLINE
5
413
100
AcDbEntity
8
0
100
AcDbSpline
62
9
6
CONTINUOUS
70
0
71
3
72
9
73
5
74
3
42
0.0000001000
43
0.0000001000
44
0.0000000001
12
-0.0093349191
22
-0.7597550292
32
0.0000000000
13
-0.0093666988
23
-0.7597546381
33
0.0000000000
40
0.0000000000
40
0.0000000000
40
0.0000000000
40
0.0000000000
40
0.2500895852
40
1.0000000000
40
1.0000000000
40
1.0000000000
40
1.0000000000
10
68.9703477867
20
-26.9761121036
30
0.0000000000
10
68.9695695980
20
-27.0394477103
30
0.0000000000
10
68.9664566290
20
-27.2926993704
30
0.0000000000
10
68.9633383542
20
-27.5459509652
30
0.0000000000
10
68.9609969592
20
-27.7358669371
30
0.0000000000
11
68.9703477867
21
-26.9761121036
31
0.0000000000
11
68.9680122239
21
-27.1661189115
31
0.0000000000
11
68.9609969592
21
-27.7358669371
31
0.0000000000
0
SPLINE
5
414
100
AcDbEntity
8
0
100
AcDbSpline
62
0
6
CONTINUOUS
70
0
71
3
72
9
73
5
74
3
42
0.0000001000
43
0.0000001000
44
0.0000000001
12
0.0896171841
22
0.0000000000
32
0.0000000000
13
0.0895871561
23
-0.0023197293
33
0.0000000000
40
0.0000000000
40
0.0000000000
40
0.0000000000
40
0.0000000000
40
0.5018059522
40
1.0000000000
40
1.0000000000
40
1.0000000000
40
1.0000000000
10
55.4732187979
20
-2.9358669371
30
0.0000000000
10
55.4882089434
20
-2.9358669371
30
0.0000000000
10
55.5180816549
20
-2.9360608243
30
0.0000000000
10
55.5479493407
20
-2.9366412612
30
0.0000000000
10
55.5628266033
20
-2.9370264863
30
0.0000000000
11
55.4732187979
21
-2.9358669371
31
0.0000000000
11
55.5181882868
21
-2.9361588614
31
0.0000000000
11
55.5628266033
21
-2.9370264863
31
0.0000000000
0
SPLINE
5
415
100
AcDbEntity
8
0
100
AcDbSpline
62
0
6
CONTINUOUS
70
0
71
3
72
9
73
5
74
3
42
0.0000001000
43
0.0000001000
44
0.0000000001
12
0.0895871561
22
0.0023197293
32
0.0000000000
13
0.0896171841
23
0.0000000000
33
0.0000000000
40
0.0000000000
40
0.0000000000
40
0.0000000000
40
0.0000000000
40
0.4981940478
40
1.0000000000
40
1.0000000000
40
1.0000000000
40
1.0000000000
10
70.6628266033
20
-2.9370264863
30
0.0000000000
10
70.6777038660
20
-2.9366412612
30
0.0000000000
10
70.7075715517
20
-2.9360608243
30
0.0000000000
10
70.7374442633
20
-2.9358669371
30
0.0000000000
10
70.7524344088
20
-2.9358669371
30
0.0000000000
11
70.6628266033
21
-2.9370264863
31
0.0000000000
11
70.7074649199
21
-2.9361588614
31
0.0000000000
11
70.7524344088
21
-2.9358669371
31
0.0000000000
0
SPLINE
5
416
100
AcDbEntity
8
0
100
AcDbSpline
62
9
6
CONTINUOUS
70
0
71
3
72
10
73
6
74
4
42
0.0000001000
43
0.0000001000
44
0.0000000001
12
-0.3757095409
22
-0.0000000000
32
0.0000000000
13
-0.0657849783
23
-0.3726982346
33
0.0000000000
40
0.0000000000
40
0.0000000000
40
0.0000000000
40
0.0000000000
40
0.3576245487
40
0.7389977657
40
1.0000000000
40
1.0000000000
40
1.0000000000
40
1.0000000000
10
69.1011327554
20
-25.7358669371
30
0.0000000000
10
69.0563451037
20
-25.7358669371
30
0.0000000000
10
68.9621011457
20
-25.7658595791
30
0.0000000000
10
68.8779332643
20
-25.8655756969
30
0.0000000000
10
68.8522719833
20
-25.9437443917
30
0.0000000000
10
68.8465486412
20
-25.9761694156
30
0.0000000000
11
69.1011327554
21
-25.7358669371
31
0.0000000000
11
68.9726342040
21
-25.7751292087
31
0.0000000000
11
68.8778141998
21
-25.8825532164
31
0.0000000000
11
68.8465486412
21
-25.9761694156
31
0.0000000000
0
SPLINE
5
417
100
AcDbEntity
8
0
100
AcDbSpline
62
9
6
CONTINUOUS
70
0
71
3
72
8
73
4
74
2
42
0.0000001000
43
0.0000001000
44
0.0000000001
12
-0.0086375603
22
-0.0489352364
32
0.0000000000
13
-0.0014911884
23
-0.0493080773
33
0.0000000000
40
0.0000000000
40
0.0000000000
40
0.0000000000
40
0.0000000000
40
1.0000000000
40
1.0000000000
40
1.0000000000
40
1.0000000000
10
68.8465486412
20
-25.9761694156
30
0.0000000000
10
68.8436694544
20
-25.9924811611
30
0.0000000000
10
68.8419804648
20
-26.0089610624
30
0.0000000000
10
68.8414834020
20
-26.0253970881
30
0.0000000000
11
68.8465486412
21
-25.9761694156
31
0.0000000000
11
68.8414834020
21
-26.0253970881
31
0.0000000000
0
SPLINE
5
418
100
AcDbEntity
8
0
100
AcDbSpline
62
9
6
CONTINUOUS
70
0
71
3
72
8
73
4
74
2
42
0.0000001000
43
0.0000001000
44
0.0000000001
12
-0.1322841588
22
-0.0000000000
32
0.0000000000
13
-0.1119458492
23
-0.0740839443
33
0.0000000000
40
0.0000000000
40
0.0000000000
40
0.0000000000
40
0.0000000000
40
1.0000000000
40
1.0000000000
40
1.0000000000
40
1.0000000000
10
53.2164837329
20
-25.7358669371
30
0.0000000000
10
53.1723890133
20
-25.7358669371
30
0.0000000000
10
53.1275063644
20
-25.7505329910
30
0.0000000000
10
53.0901910814
20
-25.7752276391
30
0.0000000000
11
53.2164837329
21
-25.7358669371
31
0.0000000000
11
53.0901910814
21
-25.7752276391
31
0.0000000000
0
SPLINE
5
419
100
AcDbEntity
8
0
100
AcDbSpline
62
9
6
CONTINUOUS
70
0
71
3
72
9
73
5
74
3
42
0.0000001000
43
0.0000001000
44
0.0000000001
12
-0.2031467821
22
-0.1344392401
32
0.0000000000
13
-0.0411220312
23
-0.2381999047
33
0.0000000000
40
0.0000000000
40
0.0000000000
40
0.0000000000
40
0.0000000000
40
0.5928815161
40
1.0000000000
40
1.0000000000
40
1.0000000000
40
1.0000000000
10
53.0901910814
20
-25.7752276391
30
0.0000000000
10
53.0500437573
20
-25.8017964859
30
0.0000000000
10
52.9971027908
20
-25.8661895293
30
0.0000000000
10
52.9721054030
20
-25.9440266533
30
0.0000000000
10
52.9665248900
20
-25.9763518480
30
0.0000000000
11
53.0901910814
21
-25.7752276391
31
0.0000000000
11
52.9970907216
21
-25.8828770848
31
0.0000000000
11
52.9665248900
21
-25.9763518480
31
0.0000000000
0
SPLINE
5
41A
100
AcDbEntity
8
0
100
AcDbSpline
62
9
6
CONTINUOUS
70
0
71
3
72
8
73
4
74
2
42
0.0000001000
43
0.0000001000
44
0.0000000001
12
-0.0084186270
22
-0.0487650073
32
0.0000000000
13
-0.0014583908
23
-0.0491230350
33
0.0000000000
40
0.0000000000
40
0.0000000000
40
0.0000000000
40
0.0000000000
40
1.0000000000
40
1.0000000000
40
1.0000000000
40
1.0000000000
10
52.9665248900
20
-25.9763518480
30
0.0000000000
10
52.9637186810
20
-25.9926068504
30
0.0000000000
10
52.9620747453
20
-26.0090227425
30
0.0000000000
10
52.9615886150
20
-26.0253970876
30
0.0000000000
11
52.9665248900
21
-25.9763518480
31
0.0000000000
11
52.9615886150
21
-26.0253970876
31
0.0000000000
0
SPLINE
5
41B
100
AcDbEntity
8
0
100
AcDbSpline
62
0
6
CONTINUOUS
70
0
71
3
72
10
73
6
74
4
42
0.0000001000
43
0.0000001000
44
0.0000000001
12
0.0189208226
22
0.4012163243
32
0.0000000000
13
0.3997516688
23
0.0692493614
33
0.0000000000
40
0.0000000000
40
0.0000000000
40
0.0000000000
40
0.0000000000
40
0.3756380093
40
0.7502375408
40
1.0000000000
40
1.0000000000
40
1.0000000000
40
1.0000000000
10
-10.4334510762
20
-26.0217350970
30
0.0000000000
10
-10.4310819495
20
-25.9714977299
30
0.0000000000
10
-10.3998491208
20
-25.8705825266
30
0.0000000000
10
-10.2990266697
20
-25.7744084979
30
0.0000000000
10
-10.2176301220
20
-25.7460226355
30
0.0000000000
10
-10.1843491353
20
-25.7402573386
30
0.0000000000
11
-10.4334510762
21
-26.0217350970
31
0.0000000000
11
-10.3886731426
21
-25.8776532189
31
0.0000000000
11
-10.2798000534
21
-25.7737994953
31
0.0000000000
11
-10.1843491353
21
-25.7402573386
31
0.0000000000
0
SPLINE
5
41C
100
AcDbEntity
8
0
100
AcDbSpline
62
0
6
CONTINUOUS
70
0
71
3
72
8
73
4
74
2
42
0.0000001000
43
0.0000001000
44
0.0000000001
12
0.0503021217
22
0.0087138843
32
0.0000000000
13
0.0505425192
23
0.0000000000
33
0.0000000000
40
0.0000000000
40
0.0000000000
40
0.0000000000
40
0.0000000000
40
1.0000000000
40
1.0000000000
40
1.0000000000
40
1.0000000000
10
-10.1843491353
20
-25.7402573386
30
0.0000000000
10
-10.1675817614
20
-25.7373527105
30
0.0000000000
10
-10.1506316157
20
-25.7358669371
30
0.0000000000
10
-10.1337841093
20
-25.7358669371
30
0.0000000000
11
-10.1843491353
21
-25.7402573386
31
0.0000000000
11
-10.1337841093
21
-25.7358669371
31
0.0000000000
0
SPLINE
5
41D
100
AcDbEntity
8
0
100
AcDbSpline
62
0
6
CONTINUOUS
70
0
71
3
72
10
73
6
74
4
42
0.0000001000
43
0.0000001000
44
0.0000000001
12
-0.0195001289
22
0.4008039539
32
0.0000000000
13
-0.3993729006
23
0.0691141828
33
0.0000000000
40
0.0000000000
40
0.0000000000
40
0.0000000000
40
0.0000000000
40
0.3756296564
40
0.7502320582
40
1.0000000000
40
1.0000000000
40
1.0000000000
40
1.0000000000
10
-5.9261018094
20
-26.0212886819
30
0.0000000000
10
-5.9285434183
20
-25.9711040647
30
0.0000000000
10
-5.9598679237
20
-25.8703347799
30
0.0000000000
10
-6.0606563694
20
-25.7743345769
30
0.0000000000
10
-6.1419803598
20
-25.7460028974
30
0.0000000000
10
-6.1752305422
20
-25.7402487284
30
0.0000000000
11
-5.9261018094
21
-26.0212886819
31
0.0000000000
11
-5.9710137121
21
-25.8774032097
31
0.0000000000
11
-6.0798596231
21
-25.7737281204
31
0.0000000000
11
-6.1752305422
21
-25.7402487284
31
0.0000000000
0
SPLINE
5
41E
100
AcDbEntity
8
0
100
AcDbSpline
62
0
6
CONTINUOUS
70
0
71
3
72
8
73
4
74
2
42
0.0000001000
43
0.0000001000
44
0.0000000001
12
-0.0502547173
22
0.0086969189
32
0.0000000000
13
-0.0504943806
23
0.0000000000
33
0.0000000000
40
0.0000000000
40
0.0000000000
40
0.0000000000
40
0.0000000000
40
1.0000000000
40
1.0000000000
40
1.0000000000
40
1.0000000000
10
-6.1752305422
20
-25.7402487284
30
0.0000000000
10
-6.1919821147
20
-25.7373497554
30
0.0000000000
10
-6.2089159305
20
-25.7358669371
30
0.0000000000
10
-6.2257473906
20
-25.7358669371
30
0.0000000000
11
-6.1752305422
21
-25.7402487284
31
0.0000000000
11
-6.2257473906
21
-25.7358669371
31
0.0000000000
0
SPLINE
5
41F
100
AcDbEntity
8
0
100
AcDbSpline
62
0
6
CONTINUOUS
70
0
71
3
72
10
73
6
74
4
42
0.0000001000
43
0.0000001000
44
0.0000000001
12
-0.0189208367
22
0.4012163134
32
0.0000000000
13
-0.3997516341
23
0.0692493920
33
0.0000000000
40
0.0000000000
40
0.0000000000
40
0.0000000000
40
0.0000000000
40
0.3756376483
40
0.7502373978
40
1.0000000000
40
1.0000000000
40
1.0000000000
40
1.0000000000
10
-21.8107294464
20
-26.0217350970
30
0.0000000000
10
-21.8130985726
20
-25.9714977795
30
0.0000000000
10
-21.8443313632
20
-25.8705826006
30
0.0000000000
10
-21.9451537732
20
-25.7744085367
30
0.0000000000
10
-22.0265503591
20
-25.7460226459
30
0.0000000000
10
-22.0598313619
20
-25.7402573431
30
0.0000000000
11
-21.8107294464
21
-26.0217350970
31
0.0000000000
11
-21.8555072983
21
-25.8776533504
31
0.0000000000
11
-21.9643804019
21
-25.7737995328
31
0.0000000000
11
-22.0598313619
21
-25.7402573431
31
0.0000000000
0
SPLINE
5
420
100
AcDbEntity
8
0
100
AcDbSpline
62
0
6
CONTINUOUS
70
0
71
3
72
8
73
4
74
2
42
0.0000001000
43
0.0000001000
44
0.0000000001
12
-0.0503021466
22
0.0087138933
32
0.0000000000
13
-0.0505425445
23
0.0000000000
33
0.0000000000
40
0.0000000000
40
0.0000000000
40
0.0000000000
40
0.0000000000
40
1.0000000000
40
1.0000000000
40
1.0000000000
40
1.0000000000
10
-22.0598313619
20
-25.7402573431
30
0.0000000000
10
-22.0765987441
20
-25.7373527120
30
0.0000000000
10
-22.0935488984
20
-25.7358669371
30
0.0000000000
10
-22.1103964133
20
-25.7358669371
30
0.0000000000
11
-22.0598313619
21
-25.7402573431
31
0.0000000000
11
-22.1103964133
21
-25.7358669371
31
0.0000000000
0
SPLINE
5
421
100
AcDbEntity
8
0
100
AcDbSpline
62
0
6
CONTINUOUS
70
0
71
3
72
10
73
6
74
4
42
0.0000001000
43
0.0000001000
44
0.0000000001
12
0.0195001296
22
0.4008039531
32
0.0000000000
13
0.3993728987
23
0.0691141846
33
0.0000000000
40
0.0000000000
40
0.0000000000
40
0.0000000000
40
0.0000000000
40
0.3756296397
40
0.7502320496
40
1.0000000000
40
1.0000000000
40
1.0000000000
40
1.0000000000
10
-26.3180787132
20
-26.0212886819
30
0.0000000000
10
-26.3156371043
20
-25.9711040671
30
0.0000000000
10
-26.2843126008
20
-25.8703347837
30
0.0000000000
10
-26.1835241573
20
-25.7743345790
30
0.0000000000
10
-26.1022001653
20
-25.7460028980
30
0.0000000000
10
-26.0689499818
20
-25.7402487286
30
0.0000000000
11
-26.3180787132
21
-26.0212886819
31
0.0000000000
11
-26.2731668143
21
-25.8774032158
31
0.0000000000
11
-26.1643209035
21
-25.7737281227
31
0.0000000000
11
-26.0689499818
21
-25.7402487286
31
0.0000000000
0
SPLINE
5
422
100
AcDbEntity
8
0
100
AcDbSpline
62
0
6
CONTINUOUS
70
0
71
3
72
8
73
4
74
2
42
0.0000001000
43
0.0000001000
44
0.0000000001
12
0.0502547188
22
0.0086969194
32
0.0000000000
13
0.0504943821
23
0.0000000000
33
0.0000000000
40
0.0000000000
40
0.0000000000
40
0.0000000000
40
0.0000000000
40
1.0000000000
40
1.0000000000
40
1.0000000000
40
1.0000000000
10
-26.0689499818
20
-25.7402487286
30
0.0000000000
10
-26.0521984089
20
-25.7373497555
30
0.0000000000
10
-26.0352645926
20
-25.7358669371
30
0.0000000000
10
-26.0184331319
20
-25.7358669371
30
0.0000000000
11
-26.0689499818
21
-25.7402487286
31
0.0000000000
11
-26.0184331319
21
-25.7358669371
31
0.0000000000
0
SPLINE
5
423
100
AcDbEntity
8
0
100
AcDbSpline
62
9
6
CONTINUOUS
70
0
71
3
72
11
73
7
74
5
42
0.0000001000
43
0.0000001000
44
0.0000000001
12
0.4172677873
22
0.0176419032
32
0.0000000000
13
0.4165685142
23
-0.0299051177
33
0.0000000000
40
0.0000000000
40
0.0000000000
40
0.0000000000
40
0.0000000000
40
0.2363501848
40
0.5101247714
40
0.7829349507
40
1.0000000000
40
1.0000000000
40
1.0000000000
40
1.0000000000
10
-22.4087740504
20
-26.0253970881
30
0.0000000000
10
-22.3759002775
20
-26.0240071991
30
0.0000000000
10
-22.3049109759
20
-26.0218921410
30
0.0000000000
10
-22.1959155028
20
-26.0204707675
30
0.0000000000
10
-22.0896141224
20
-26.0212402640
30
0.0000000000
10
-22.0214085010
20
-26.0232333024
30
0.0000000000
10
-21.9912676793
20
-26.0253970877
30
0.0000000000
11
-22.4087740504
21
-26.0253970881
31
0.0000000000
11
-22.3101131445
21
-26.0223025345
31
0.0000000000
11
-22.1957829197
21
-26.0208561449
31
0.0000000000
11
-22.0818499185
21
-26.0217614556
31
0.0000000000
11
-21.9912676793
21
-26.0253970877
31
0.0000000000
0
SPLINE
5
424
100
AcDbEntity
8
0
100
AcDbSpline
62
9
6
CONTINUOUS
70
0
71
3
72
8
73
4
74
2
42
0.0000001000
43
0.0000001000
44
0.0000000001
12
0.0394296678
22
0.0026702102
32
0.0000000000
13
-0.0010407579
23
0.0022141196
33
0.0000000000
40
0.0000000000
40
0.0000000000
40
0.0000000000
40
0.0000000000
40
1.0000000000
40
1.0000000000
40
1.0000000000
40
1.0000000000
10
-21.8507470637
20
-26.0253970881
30
0.0000000000
10
-21.8376038411
20
-26.0245070180
30
0.0000000000
10
-21.8108988404
20
-26.0227100925
30
0.0000000000
10
-21.8112457597
20
-26.0219720526
30
0.0000000000
11
-21.8507470637
21
-26.0253970881
31
0.0000000000
11
-21.8112457597
21
-26.0219720526
31
0.0000000000
0
SPLINE
5
425
100
AcDbEntity
8
0
100
AcDbSpline
62
9
6
CONTINUOUS
70
0
71
3
72
9
73
5
74
3
42
0.0000001000
43
0.0000001000
44
0.0000000001
12
0.0411636208
22
0.0028181304
32
0.0000000000
13
-0.0003405359
23
0.0021665705
33
0.0000000000
40
0.0000000000
40
0.0000000000
40
0.0000000000
40
0.0000000000
40
0.9456266549
40
1.0000000000
40
1.0000000000
40
1.0000000000
40
1.0000000000
10
-5.9708522796
20
-26.0253970881
30
0.0000000000
10
-5.9578771406
20
-26.0245087884
30
0.0000000000
10
-5.9328776623
20
-26.0229797128
30
0.0000000000
10
-5.9317672846
20
-26.0222173648
30
0.0000000000
10
-5.9317734566
20
-26.0221780969
30
0.0000000000
11
-5.9708522796
21
-26.0253970881
31
0.0000000000
11
-5.9319586617
21
-26.0223025345
31
0.0000000000
11
-5.9317734566
21
-26.0221780969
31
0.0000000000
0
SPLINE
5
426
100
AcDbEntity
8
0
100
AcDbSpline
62
9
6
CONTINUOUS
70
0
71
3
72
10
73
6
74
4
42
0.0000001000
43
0.0000001000
44
0.0000000001
12
0.2076152617
22
0.0149045398
32
0.0000000000
13
0.2081491085
23
-0.0007775585
33
0.0000000000
40
0.0000000000
40
0.0000000000
40
0.0000000000
40
0.0000000000
40
0.3295590963
40
0.8119088747
40
1.0000000000
40
1.0000000000
40
1.0000000000
40
1.0000000000
10
-10.2529129290
20
-26.0253970881
30
0.0000000000
10
-10.2301057630
20
-26.0237597792
30
0.0000000000
10
-10.1737889560
20
-26.0216915518
30
0.0000000000
10
-10.1044115501
20
-26.0208022699
30
0.0000000000
10
-10.0578943406
20
-26.0208156583
30
0.0000000000
10
-10.0448440072
20
-26.0208644089
30
0.0000000000
11
-10.2529129290
21
-26.0253970881
31
0.0000000000
11
-10.1843851802
21
-26.0223025672
31
0.0000000000
11
-10.0839947025
21
-26.0208561261
31
0.0000000000
11
-10.0448440072
21
-26.0208644089
31
0.0000000000
0
SPLINE
5
427
100
AcDbEntity
8
0
100
AcDbSpline
62
9
6
CONTINUOUS
70
0
71
3
72
9
73
5
74
3
42
0.0000001000
43
0.0000001000
44
0.0000000001
12
0.2094925748
22
-0.0007825772
32
0.0000000000
13
0.2093060458
23
-0.0088493705
33
0.0000000000
40
0.0000000000
40
0.0000000000
40
0.0000000000
40
0.0000000000
40
0.3986137185
40
1.0000000000
40
1.0000000000
40
1.0000000000
40
1.0000000000
10
-10.0448440072
20
-26.0208644089
30
0.0000000000
10
-10.0170084692
20
-26.0209683909
30
0.0000000000
10
-9.9471775599
20
-26.0217427772
30
0.0000000000
10
-9.8773643172
20
-26.0236231245
30
0.0000000000
10
-9.8354063890
20
-26.0253970878
30
0.0000000000
11
-10.0448440072
21
-26.0208644089
31
0.0000000000
11
-9.9613401594
21
-26.0217614823
31
0.0000000000
11
-9.8354063890
21
-26.0253970878
31
0.0000000000
0
SPLINE
5
428
100
AcDbEntity
8
0
100
AcDbSpline
62
9
6
CONTINUOUS
70
0
71
3
72
8
73
4
74
2
42
0.0000001000
43
0.0000001000
44
0.0000000001
12
-0.0452371129
22
-0.1885145498
32
0.0000000000
13
-0.0452434960
23
-0.1885130179
33
0.0000000000
40
0.0000000000
40
0.0000000000
40
0.0000000000
40
0.0000000000
40
1.0000000000
40
1.0000000000
40
1.0000000000
40
1.0000000000
10
18.4769310459
20
33.0709350597
30
0.0000000000
10
18.4618520083
20
33.0080968765
30
0.0000000000
10
18.4467716142
20
32.9452590187
30
0.0000000000
10
18.4316904488
20
32.8824213461
30
0.0000000000
11
18.4769310459
21
33.0709350597
31
0.0000000000
11
18.4316904488
21
32.8824213461
31
0.0000000000
0
SPLINE
5
429
100
AcDbEntity
8
0
100
AcDbSpline
62
9
6
CONTINUOUS
70
0
71
3
72
8
73
4
74
2
42
0.0000001000
43
0.0000001000
44
0.0000000001
12
-0.1062393642
22
-0.4426603810
32
0.0000000000
13
-0.1062421450
23
-0.4426597137
33
0.0000000000
40
0.0000000000
40
0.0000000000
40
0.0000000000
40
0.0000000000
40
1.0000000000
40
1.0000000000
40
1.0000000000
40
1.0000000000
10
18.4316904488
20
32.8824213461
30
0.0000000000
10
18.3962773274
20
32.7348678858
30
0.0000000000
10
18.3608599537
20
32.5873154460
30
0.0000000000
10
18.3254459054
20
32.4397622081
30
0.0000000000
11
18.4316904488
21
32.8824213461
31
0.0000000000
11
18.3254459054
21
32.4397622081
31
0.0000000000
0
SPLINE
5
42A
100
AcDbEntity
8
0
100
AcDbSpline
62
9
6
CONTINUOUS
70
0
71
3
72
8
73
4
74
2
42
0.0000001000
43
0.0000001000
44
0.0000000001
12
-0.1267290583
22
-0.5280187881
32
0.0000000000
13
-0.1267204096
23
-0.5280208637
33
0.0000000000
40
0.0000000000
40
0.0000000000
40
0.0000000000
40
0.0000000000
40
1.0000000000
40
1.0000000000
40
1.0000000000
40
1.0000000000
10
18.3254459054
20
32.4397622081
30
0.0000000000
10
18.2832028860
20
32.2637559453
30
0.0000000000
10
18.2409645981
20
32.0877485471
30
0.0000000000
10
18.1987244616
20
31.9117415925
30
0.0000000000
11
18.3254459054
21
32.4397622081
31
0.0000000000
11
18.1987244616
21
31.9117415925
31
0.0000000000
0
SPLINE
5
42B
100
AcDbEntity
8
0
100
AcDbSpline
62
9
6
CONTINUOUS
70
0
71
3
72
8
73
4
74
2
42
0.0000001000
43
0.0000001000
44
0.0000000001
12
-0.0708118428
22
-0.2950600501
32
0.0000000000
13
-0.0708187511
23
-0.2950583921
33
0.0000000000
40
0.0000000000
40
0.0000000000
40
0.0000000000
40
0.0000000000
40
1.0000000000
40
1.0000000000
40
1.0000000000
40
1.0000000000
10
18.1987244616
20
31.9117415925
30
0.0000000000
10
18.1751205140
20
31.8133882425
30
0.0000000000
10
18.1515159891
20
31.7150350310
30
0.0000000000
10
18.1279097387
20
31.6166822336
30
0.0000000000
11
18.1987244616
21
31.9117415925
31
0.0000000000
11
18.1279097387
21
31.6166822336
31
0.0000000000
0
SPLINE
5
42C
100
AcDbEntity
8
0
100
AcDbSpline
62
9
6
CONTINUOUS
70
0
71
3
72
8
73
4
74
2
42
0.0000001000
43
0.0000001000
44
0.0000000001
12
-0.1322841588
22
-0.0000000000
32
0.0000000000
13
-0.1119458492
23
-0.0740839443
33
0.0000000000
40
0.0000000000
40
0.0000000000
40
0.0000000000
40
0.0000000000
40
1.0000000000
40
1.0000000000
40
1.0000000000
40
1.0000000000
10
-26.0184331317
20
-25.7358669371
30
0.0000000000
10
-26.0625278514
20
-25.7358669371
30
0.0000000000
10
-26.1074105002
20
-25.7505329910
30
0.0000000000
10
-26.1447257832
20
-25.7752276391
30
0.0000000000
11
-26.0184331317
21
-25.7358669371
31
0.0000000000
11
-26.1447257832
21
-25.7752276391
31
0.0000000000
0
SPLINE
5
42D
100
AcDbEntity
8
0
100
AcDbSpline
62
9
6
CONTINUOUS
70
0
71
3
72
9
73
5
74
3
42
0.0000001000
43
0.0000001000
44
0.0000000001
12
-0.2031467821
22
-0.1344392401
32
0.0000000000
13
-0.0411220312
23
-0.2381999047
33
0.0000000000
40
0.0000000000
40
0.0000000000
40
0.0000000000
40
0.0000000000
40
0.5928815161
40
1.0000000000
40
1.0000000000
40
1.0000000000
40
1.0000000000
10
-26.1447257832
20
-25.7752276391
30
0.0000000000
10
-26.1848731073
20
-25.8017964859
30
0.0000000000
10
-26.2378140738
20
-25.8661895293
30
0.0000000000
10
-26.2628114616
20
-25.9440266533
30
0.0000000000
10
-26.2683919746
20
-25.9763518480
30
0.0000000000
11
-26.1447257832
21
-25.7752276391
31
0.0000000000
11
-26.2378261430
21
-25.8828770848
31
0.0000000000
11
-26.2683919746
21
-25.9763518480
31
0.0000000000
0
SPLINE
5
42E
100
AcDbEntity
8
0
100
AcDbSpline
62
9
6
CONTINUOUS
70
0
71
3
72
8
73
4
74
2
42
0.0000001000
43
0.0000001000
44
0.0000000001
12
-0.0084186270
22
-0.0487650073
32
0.0000000000
13
-0.0014583908
23
-0.0491230350
33
0.0000000000
40
0.0000000000
40
0.0000000000
40
0.0000000000
40
0.0000000000
40
1.0000000000
40
1.0000000000
40
1.0000000000
40
1.0000000000
10
-26.2683919746
20
-25.9763518480
30
0.0000000000
10
-26.2711981836
20
-25.9926068504
30
0.0000000000
10
-26.2728421193
20
-26.0090227425
30
0.0000000000
10
-26.2733282496
20
-26.0253970876
30
0.0000000000
11
-26.2683919746
21
-25.9763518480
31
0.0000000000
11
-26.2733282496
21
-26.0253970876
31
0.0000000000
0
SPLINE
5
42F
100
AcDbEntity
8
0
100
AcDbSpline
62
9
6
CONTINUOUS
70
0
71
3
72
9
73
5
74
3
42
0.0000001000
43
0.0000001000
44
0.0000000001
12
0.0026517788
22
-0.0023025960
32
0.0000000000
13
0.0407462411
23
-0.0027593702
33
0.0000000000
40
0.0000000000
40
0.0000000000
40
0.0000000000
40
0.0000000000
40
0.0218591455
40
1.0000000000
40
1.0000000000
40
1.0000000000
40
1.0000000000
10
-10.4332913319
20
-26.0215515860
30
0.0000000000
10
-10.4332720100
20
-26.0215683636
30
0.0000000000
10
-10.4318809488
20
-26.0223644928
30
0.0000000000
10
-10.4067186842
20
-26.0244974038
30
0.0000000000
10
-10.3934334966
20
-26.0253970880
30
0.0000000000
11
-10.4332913319
21
-26.0215515860
31
0.0000000000
11
-10.4331998368
21
-26.0216038078
31
0.0000000000
11
-10.3934334966
21
-26.0253970880
31
0.0000000000
0
SPLINE
5
430
100
AcDbEntity
8
0
100
AcDbSpline
62
9
6
CONTINUOUS
70
0
71
3
72
9
73
5
74
3
42
0.0000001000
43
0.0000001000
44
0.0000000001
12
-0.4320540869
22
0.0117486923
32
0.0000000000
13
-0.2861205931
23
-0.3298444979
33
0.0000000000
40
0.0000000000
40
0.0000000000
40
0.0000000000
40
0.0000000000
40
0.5062120259
40
1.0000000000
40
1.0000000000
40
1.0000000000
40
1.0000000000
10
18.4769268958
20
33.0704514917
30
0.0000000000
10
18.4040232376
20
33.0724339348
30
0.0000000000
10
18.2571109153
20
33.0456441663
30
0.0000000000
10
18.1359842231
20
32.9593892997
30
0.0000000000
10
18.0888899204
20
32.9050982176
30
0.0000000000
11
18.4769268958
21
33.0704514917
31
0.0000000000
11
18.2618932526
21
33.0300733609
31
0.0000000000
11
18.0888899204
21
32.9050982176
31
0.0000000000
0
SPLINE
5
431
100
AcDbEntity
8
0
100
AcDbSpline
62
9
6
CONTINUOUS
70
0
71
3
72
8
73
4
74
2
42
0.0000001000
43
0.0000001000
44
0.0000000001
12
-0.0922148741
22
-0.1063068146
32
0.0000000000
13
-0.0554893999
23
-0.1290715506
33
0.0000000000
40
0.0000000000
40
0.0000000000
40
0.0000000000
40
0.0000000000
40
1.0000000000
40
1.0000000000
40
1.0000000000
40
1.0000000000
10
18.0888899204
20
32.9050982176
30
0.0000000000
10
18.0581516291
20
32.8696626127
30
0.0000000000
10
18.0328307733
20
32.8292428848
30
0.0000000000
10
18.0143343067
20
32.7862190346
30
0.0000000000
11
18.0888899204
21
32.9050982176
31
0.0000000000
11
18.0143343067
21
32.7862190346
31
0.0000000000
0
SPLINE
5
432
100
AcDbEntity
8
0
100
AcDbSpline
62
9
6
CONTINUOUS
70
0
71
3
72
8
73
4
74
2
42
0.0000001000
43
0.0000001000
44
0.0000000001
12
-0.0277900974
22
-0.0646413725
32
0.0000000000
13
-0.0169897852
23
-0.0676634609
33
0.0000000000
40
0.0000000000
40
0.0000000000
40
0.0000000000
40
0.0000000000
40
1.0000000000
40
1.0000000000
40
1.0000000000
40
1.0000000000
10
18.0143343067
20
32.7862190346
30
0.0000000000
10
18.0050709409
20
32.7646719105
30
0.0000000000
10
17.9975192602
20
32.7424716235
30
0.0000000000
10
17.9918559984
20
32.7199171365
30
0.0000000000
11
18.0143343067
21
32.7862190346
31
0.0000000000
11
17.9918559984
21
32.7199171365
31
0.0000000000
0
SPLINE
5
433
100
AcDbEntity
8
0
100
AcDbSpline
62
0
6
CONTINUOUS
70
0
71
3
72
10
73
6
74
4
42
0.0000001000
43
0.0000001000
44
0.0000000001
12
0.1143944603
22
0.4575778412
32
0.0000000000
13
0.4639901368
23
0.1044603161
33
0.0000000000
40
0.0000000000
40
0.0000000000
40
0.0000000000
40
0.0000000000
40
0.4057440723
40
0.8454604941
40
1.0000000000
40
1.0000000000
40
1.0000000000
40
1.0000000000
10
17.6380822230
20
31.3048230001
30
0.0000000000
10
17.6535538477
20
31.3667094989
30
0.0000000000
10
17.7246968852
20
31.4878490424
30
0.0000000000
10
17.8636652073
20
31.5710176087
30
0.0000000000
10
17.9543349549
20
31.5976333503
30
0.0000000000
10
17.9782365571
20
31.6030144322
30
0.0000000000
11
17.6380822230
21
31.3048230001
31
0.0000000000
11
17.7325130139
21
31.4712760414
31
0.0000000000
11
17.9077235412
21
31.5822477552
31
0.0000000000
11
17.9782365571
21
31.6030144322
31
0.0000000000
0
SPLINE
5
434
100
AcDbEntity
8
0
100
AcDbSpline
62
0
6
CONTINUOUS
70
0
71
3
72
8
73
4
74
2
42
0.0000001000
43
0.0000001000
44
0.0000000001
12
0.1475334256
22
0.0332149049
32
0.0000000000
13
0.1498577120
23
-0.0058621847
33
0.0000000000
40
0.0000000000
40
0.0000000000
40
0.0000000000
40
0.0000000000
40
1.0000000000
40
1.0000000000
40
1.0000000000
40
1.0000000000
10
17.9782365571
20
31.6030144322
30
0.0000000000
10
18.0274143656
20
31.6140860671
30
0.0000000000
10
18.0779571680
20
31.6186362778
30
0.0000000000
10
18.1279097387
20
31.6166822162
30
0.0000000000
11
17.9782365571
21
31.6030144322
31
0.0000000000
11
18.1279097387
21
31.6166822162
31
0.0000000000
0
SPLINE
5
435
100
AcDbEntity
8
0
100
AcDbSpline
62
9
6
CONTINUOUS
70
0
71
3
72
8
73
4
74
2
42
0.0000001000
43
0.0000001000
44
0.0000000001
12
0.0000029164
22
-0.0000003685
32
0.0000000000
13
-0.0060411922
23
-0.0482593419
33
0.0000000000
40
0.0000000000
40
0.0000000000
40
0.0000000000
40
0.0000000000
40
1.0000000000
40
1.0000000000
40
1.0000000000
40
1.0000000000
10
18.4829186135
20
33.1188780728
30
0.0000000000
10
18.4829195856
20
33.1188779499
30
0.0000000000
10
18.4789418953
20
33.0870215062
30
0.0000000000
10
18.4769281646
20
33.0709350589
30
0.0000000000
11
18.4829186135
21
33.1188780728
31
0.0000000000
11
18.4769281646
21
33.0709350589
31
0.0000000000
0
SPLINE
5
436
100
AcDbEntity
8
0
100
AcDbSpline
62
9
6
CONTINUOUS
70
0
71
3
72
8
73
4
74
2
42
0.0000001000
43
0.0000001000
44
0.0000000001
12
-0.0029591423
22
-0.0034903398
32
0.0000000000
13
0.0400697612
23
-0.0027432421
33
0.0000000000
40
0.0000000000
40
0.0000000000
40
0.0000000000
40
0.0000000000
40
1.0000000000
40
1.0000000000
40
1.0000000000
40
1.0000000000
10
-26.3172087066
20
-26.0220246869
30
0.0000000000
10
-26.3181950874
20
-26.0231881335
30
0.0000000000
10
-26.2866847784
20
-26.0244826738
30
0.0000000000
10
-26.2733281914
20
-26.0253970878
30
0.0000000000
11
-26.3172087066
21
-26.0220246869
31
0.0000000000
11
-26.2733281914
21
-26.0253970878
31
0.0000000000
0
SPLINE
5
437
100
AcDbEntity
8
0
100
AcDbSpline
62
9
6
CONTINUOUS
70
0
71
3
72
8
73
4
74
2
42
0.0000001000
43
0.0000001000
44
0.0000000001
12
0.0046540794
22
-0.3804222492
32
0.0000000000
13
0.0046621315
23
-0.3804221507
33
0.0000000000
40
0.0000000000
40
0.0000000000
40
0.0000000000
40
0.0000000000
40
1.0000000000
40
1.0000000000
40
1.0000000000
40
1.0000000000
10
-21.9912675953
20
-26.0253970881
30
0.0000000000
10
-21.9897162355
20
-26.1522045045
30
0.0000000000
10
-21.9881635314
20
-26.2790119045
30
0.0000000000
10
-21.9866094875
20
-26.4058192881
30
0.0000000000
11
-21.9912675953
21
-26.0253970881
31
0.0000000000
11
-21.9866094875
21
-26.4058192881
31
0.0000000000
0
SPLINE
5
438
100
AcDbEntity
8
0
100
AcDbSpline
62
9
6
CONTINUOUS
70
0
71
3
72
9
73
5
74
3
42
0.0000001000
43
0.0000001000
44
0.0000000001
12
0.0046599073
22
-0.3802406573
32
0.0000000000
13
0.0046679235
23
-0.3802405590
33
0.0000000000
40
0.0000000000
40
0.0000000000
40
0.0000000000
40
0.0000000000
40
0.5000596634
40
1.0000000000
40
1.0000000000
40
1.0000000000
40
1.0000000000
10
-21.9866094875
20
-26.4058192881
30
0.0000000000
10
-21.9858327436
20
-26.4692002931
30
0.0000000000
10
-21.9842787719
20
-26.5959471707
30
0.0000000000
10
-21.9827234642
20
-26.7226940319
30
0.0000000000
10
-21.9819455698
20
-26.7860598962
30
0.0000000000
11
-21.9866094875
21
-26.4058192881
31
0.0000000000
11
-21.9842782524
21
-26.5959622909
31
0.0000000000
11
-21.9819455698
21
-26.7860598962
31
0.0000000000
0
SPLINE
5
439
100
AcDbEntity
8
0
100
AcDbSpline
62
9
6
CONTINUOUS
70
0
71
3
72
8
73
4
74
2
42
0.0000001000
43
0.0000001000
44
0.0000000001
12
0.0023331262
22
-0.1900522196
32
0.0000000000
13
0.0023351236
23
-0.1900521951
33
0.0000000000
40
0.0000000000
40
0.0000000000
40
0.0000000000
40
0.0000000000
40
1.0000000000
40
1.0000000000
40
1.0000000000
40
1.0000000000
10
-21.9819455698
20
-26.7860598962
30
0.0000000000
10
-21.9811678611
20
-26.8494106361
30
0.0000000000
10
-21.9803898192
20
-26.9127613719
30
0.0000000000
10
-21.9796114446
20
-26.9761121036
30
0.0000000000
11
-21.9819455698
21
-26.7860598962
31
0.0000000000
11
-21.9796114446
21
-26.9761121036
31
0.0000000000
0
SPLINE
5
43A
100
AcDbEntity
8
0
100
AcDbSpline
62
9
6
CONTINUOUS
70
0
71
3
72
9
73
5
74
3
42
0.0000001000
43
0.0000001000
44
0.0000000001
12
0.0093349191
22
-0.7597550292
32
0.0000000000
13
0.0093666988
23
-0.7597546381
33
0.0000000000
40
0.0000000000
40
0.0000000000
40
0.0000000000
40
0.0000000000
40
0.2500895852
40
1.0000000000
40
1.0000000000
40
1.0000000000
40
1.0000000000
10
-21.9796114446
20
-26.9761121036
30
0.0000000000
10
-21.9788332560
20
-27.0394477103
30
0.0000000000
10
-21.9757202870
20
-27.2926993704
30
0.0000000000
10
-21.9726020122
20
-27.5459509652
30
0.0000000000
10
-21.9702606172
20
-27.7358669371
30
0.0000000000
11
-21.9796114446
21
-26.9761121036
31
0.0000000000
11
-21.9772758819
21
-27.1661189115
31
0.0000000000
11
-21.9702606172
21
-27.7358669371
31
0.0000000000
0
SPLINE
5
43B
100
AcDbEntity
8
0
100
AcDbSpline
62
9
6
CONTINUOUS
70
0
71
3
72
8
73
4
74
2
42
0.0000001000
43
0.0000001000
44
0.0000000001
12
0.0179109863
22
-0.3798041132
32
0.0000000000
13
0.0179182538
23
-0.3798037704
33
0.0000000000
40
0.0000000000
40
0.0000000000
40
0.0000000000
40
0.0000000000
40
1.0000000000
40
1.0000000000
40
1.0000000000
40
1.0000000000
10
-21.8507470600
20
-26.0253970881
30
0.0000000000
10
-21.8447767312
20
-26.1519984592
30
0.0000000000
10
-21.8388051933
20
-26.2785997732
30
0.0000000000
10
-21.8328324420
20
-26.4052010300
30
0.0000000000
11
-21.8507470600
21
-26.0253970881
31
0.0000000000
11
-21.8328324420
21
-26.4052010300
31
0.0000000000
0
SPLINE
5
43C
100
AcDbEntity
8
0
100
AcDbSpline
62
9
6
CONTINUOUS
70
0
71
3
72
10
73
6
74
4
42
0.0000001000
43
0.0000001000
44
0.0000000001
12
0.0627778059
22
-1.3306680244
32
0.0000000000
13
0.0628677016
23
-1.3306637803
33
0.0000000000
40
0.0000000000
40
0.0000000000
40
0.0000000000
40
0.0000000000
40
0.1427601757
40
0.5712346381
40
1.0000000000
40
1.0000000000
40
1.0000000000
40
1.0000000000
10
-21.8328324420
20
-26.4052010300
30
0.0000000000
10
-21.8298450518
20
-26.4685231637
30
0.0000000000
10
-21.8178902182
20
-26.7218976622
30
0.0000000000
10
-21.7969536346
20
-27.1654531679
30
0.0000000000
10
-21.7789949420
20
-27.5456860914
30
0.0000000000
10
-21.7700097778
20
-27.7358669371
30
0.0000000000
11
-21.8328324420
21
-26.4052010300
31
0.0000000000
11
-21.8238693603
21
-26.5951673881
31
0.0000000000
11
-21.7969569721
21
-27.1653240078
31
0.0000000000
11
-21.7700097778
21
-27.7358669371
31
0.0000000000
0
SPLINE
5
43D
100
AcDbEntity
8
0
100
AcDbSpline
62
0
6
CONTINUOUS
70
0
71
3
72
9
73
5
74
3
42
0.0000001000
43
0.0000001000
44
0.0000000001
12
0.0000000000
22
-0.2003076865
32
0.0000000000
13
-0.0000000000
23
-0.2003076865
33
0.0000000000
40
0.0000000000
40
0.0000000000
40
0.0000000000
40
0.0000000000
40
0.5001280390
40
1.0000000000
40
1.0000000000
40
1.0000000000
40
1.0000000000
10
24.8279097387
20
6.2644407493
30
0.0000000000
10
24.8279097387
20
6.2310475859
30
0.0000000000
10
24.8279097387
20
6.1642783570
30
0.0000000000
10
24.8279097387
20
6.0975091282
30
0.0000000000
10
24.8279097387
20
6.0641330629
30
0.0000000000
11
24.8279097387
21
6.2644407493
31
0.0000000000
11
24.8279097387
21
6.1642612589
31
0.0000000000
11
24.8279097387
21
6.0641330629
31
0.0000000000
0
SPLINE
5
43E
100
AcDbEntity
8
0
100
AcDbSpline
62
9
6
CONTINUOUS
70
0
71
3
72
8
73
4
74
2
42
0.0000001000
43
0.0000001000
44
0.0000000001
12
-0.0179109863
22
-0.3798041132
32
0.0000000000
13
-0.0179182538
23
-0.3798037704
33
0.0000000000
40
0.0000000000
40
0.0000000000
40
0.0000000000
40
0.0000000000
40
1.0000000000
40
1.0000000000
40
1.0000000000
40
1.0000000000
10
-10.3934334626
20
-26.0253970881
30
0.0000000000
10
-10.3994037914
20
-26.1519984592
30
0.0000000000
10
-10.4053753293
20
-26.2785997732
30
0.0000000000
10
-10.4113480806
20
-26.4052010300
30
0.0000000000
11
-10.3934334626
21
-26.0253970881
31
0.0000000000
11
-10.4113480806
21
-26.4052010300
31
0.0000000000
0
SPLINE
5
43F
100
AcDbEntity
8
0
100
AcDbSpline
62
9
6
CONTINUOUS
70
0
71
3
72
10
73
6
74
4
42
0.0000001000
43
0.0000001000
44
0.0000000001
12
-0.0627778059
22
-1.3306680244
32
0.0000000000
13
-0.0628677016
23
-1.3306637803
33
0.0000000000
40
0.0000000000
40
0.0000000000
40
0.0000000000
40
0.0000000000
40
0.1427601757
40
0.5712346381
40
1.0000000000
40
1.0000000000
40
1.0000000000
40
1.0000000000
10
-10.4113480806
20
-26.4052010300
30
0.0000000000
10
-10.4143354708
20
-26.4685231637
30
0.0000000000
10
-10.4262903044
20
-26.7218976622
30
0.0000000000
10
-10.4472268880
20
-27.1654531679
30
0.0000000000
10
-10.4651855805
20
-27.5456860914
30
0.0000000000
10
-10.4741707448
20
-27.7358669371
30
0.0000000000
11
-10.4113480806
21
-26.4052010300
31
0.0000000000
11
-10.4203111623
21
-26.5951673881
31
0.0000000000
11
-10.4472235505
21
-27.1653240078
31
0.0000000000
11
-10.4741707448
21
-27.7358669371
31
0.0000000000
0
SPLINE
5
440
100
AcDbEntity
8
0
100
AcDbSpline
62
9
6
CONTINUOUS
70
0
71
3
72
8
73
4
74
2
42
0.0000001000
43
0.0000001000
44
0.0000000001
12
-0.0046540794
22
-0.3804222492
32
0.0000000000
13
-0.0046621315
23
-0.3804221507
33
0.0000000000
40
0.0000000000
40
0.0000000000
40
0.0000000000
40
0.0000000000
40
1.0000000000
40
1.0000000000
40
1.0000000000
40
1.0000000000
10
-10.2529129273
20
-26.0253970881
30
0.0000000000
10
-10.2544642871
20
-26.1522045045
30
0.0000000000
10
-10.2560169912
20
-26.2790119045
30
0.0000000000
10
-10.2575710350
20
-26.4058192881
30
0.0000000000
11
-10.2529129273
21
-26.0253970881
31
0.0000000000
11
-10.2575710350
21
-26.4058192881
31
0.0000000000
0
SPLINE
5
441
100
AcDbEntity
8
0
100
AcDbSpline
62
9
6
CONTINUOUS
70
0
71
3
72
9
73
5
74
3
42
0.0000001000
43
0.0000001000
44
0.0000000001
12
-0.0046599073
22
-0.3802406573
32
0.0000000000
13
-0.0046679235
23
-0.3802405590
33
0.0000000000
40
0.0000000000
40
0.0000000000
40
0.0000000000
40
0.0000000000
40
0.5000596634
40
1.0000000000
40
1.0000000000
40
1.0000000000
40
1.0000000000
10
-10.2575710350
20
-26.4058192881
30
0.0000000000
10
-10.2583477789
20
-26.4692002931
30
0.0000000000
10
-10.2599017506
20
-26.5959471707
30
0.0000000000
10
-10.2614570583
20
-26.7226940319
30
0.0000000000
10
-10.2622349528
20
-26.7860598962
30
0.0000000000
11
-10.2575710350
21
-26.4058192881
31
0.0000000000
11
-10.2599022701
21
-26.5959622909
31
0.0000000000
11
-10.2622349528
21
-26.7860598962
31
0.0000000000
0
SPLINE
5
442
100
AcDbEntity
8
0
100
AcDbSpline
62
9
6
CONTINUOUS
70
0
71
3
72
8
73
4
74
2
42
0.0000001000
43
0.0000001000
44
0.0000000001
12
-0.0023331262
22
-0.1900522196
32
0.0000000000
13
-0.0023351236
23
-0.1900521951
33
0.0000000000
40
0.0000000000
40
0.0000000000
40
0.0000000000
40
0.0000000000
40
1.0000000000
40
1.0000000000
40
1.0000000000
40
1.0000000000
10
-10.2622349528
20
-26.7860598962
30
0.0000000000
10
-10.2630126615
20
-26.8494106361
30
0.0000000000
10
-10.2637907034
20
-26.9127613719
30
0.0000000000
10
-10.2645690779
20
-26.9761121036
30
0.0000000000
11
-10.2622349528
21
-26.7860598962
31
0.0000000000
11
-10.2645690779
21
-26.9761121036
31
0.0000000000
0
SPLINE
5
443
100
AcDbEntity
8
0
100
AcDbSpline
62
9
6
CONTINUOUS
70
0
71
3
72
9
73
5
74
3
42
0.0000001000
43
0.0000001000
44
0.0000000001
12
-0.0093349191
22
-0.7597550292
32
0.0000000000
13
-0.0093666988
23
-0.7597546381
33
0.0000000000
40
0.0000000000
40
0.0000000000
40
0.0000000000
40
0.0000000000
40
0.2500895852
40
1.0000000000
40
1.0000000000
40
1.0000000000
40
1.0000000000
10
-10.2645690779
20
-26.9761121036
30
0.0000000000
10
-10.2653472666
20
-27.0394477103
30
0.0000000000
10
-10.2684602356
20
-27.2926993704
30
0.0000000000
10
-10.2715785104
20
-27.5459509652
30
0.0000000000
10
-10.2739199054
20
-27.7358669371
30
0.0000000000
11
-10.2645690779
21
-26.9761121036
31
0.0000000000
11
-10.2669046407
21
-27.1661189115
31
0.0000000000
11
-10.2739199054
21
-27.7358669371
31
0.0000000000
0
SPLINE
5
444
100
AcDbEntity
8
0
100
AcDbSpline
62
9
6
CONTINUOUS
70
0
71
3
72
10
73
6
74
4
42
0.0000001000
43
0.0000001000
44
0.0000000001
12
-0.3757095409
22
-0.0000000000
32
0.0000000000
13
-0.0657849783
23
-0.3726982346
33
0.0000000000
40
0.0000000000
40
0.0000000000
40
0.0000000000
40
0.0000000000
40
0.3576245487
40
0.7389977657
40
1.0000000000
40
1.0000000000
40
1.0000000000
40
1.0000000000
10
-10.1337841092
20
-25.7358669371
30
0.0000000000
10
-10.1785717609
20
-25.7358669371
30
0.0000000000
10
-10.2728157189
20
-25.7658595791
30
0.0000000000
10
-10.3569836003
20
-25.8655756969
30
0.0000000000
10
-10.3826448813
20
-25.9437443917
30
0.0000000000
10
-10.3883682234
20
-25.9761694156
30
0.0000000000
11
-10.1337841092
21
-25.7358669371
31
0.0000000000
11
-10.2622826606
21
-25.7751292087
31
0.0000000000
11
-10.3571026648
21
-25.8825532164
31
0.0000000000
11
-10.3883682234
21
-25.9761694156
31
0.0000000000
0
SPLINE
5
445
100
AcDbEntity
8
0
100
AcDbSpline
62
9
6
CONTINUOUS
70
0
71
3
72
8
73
4
74
2
42
0.0000001000
43
0.0000001000
44
0.0000000001
12
-0.0086375603
22
-0.0489352364
32
0.0000000000
13
-0.0014911884
23
-0.0493080773
33
0.0000000000
40
0.0000000000
40
0.0000000000
40
0.0000000000
40
0.0000000000
40
1.0000000000
40
1.0000000000
40
1.0000000000
40
1.0000000000
10
-10.3883682234
20
-25.9761694156
30
0.0000000000
10
-10.3912474102
20
-25.9924811611
30
0.0000000000
10
-10.3929363998
20
-26.0089610624
30
0.0000000000
10
-10.3934334626
20
-26.0253970881
30
0.0000000000
11
-10.3883682234
21
-25.9761694156
31
0.0000000000
11
-10.3934334626
21
-26.0253970881
31
0.0000000000
0
SPLINE
5
446
100
AcDbEntity
8
0
100
AcDbSpline
62
9
6
CONTINUOUS
70
0
71
3
72
10
73
6
74
4
42
0.0000001000
43
0.0000001000
44
0.0000000001
12
-0.3758904326
22
-0.0000000001
32
0.0000000000
13
-0.0656062511
23
-0.3728909557
33
0.0000000000
40
0.0000000000
40
0.0000000000
40
0.0000000000
40
0.0000000000
40
0.3579082589
40
0.7395787979
40
1.0000000000
40
1.0000000000
40
1.0000000000
40
1.0000000000
10
-9.9932635739
20
-25.7358669371
30
0.0000000000
10
-10.0381083373
20
-25.7358669372
30
0.0000000000
10
-10.1324738501
20
-25.7659405824
30
0.0000000000
10
-10.2165891132
20
-25.8657995811
30
0.0000000000
10
-10.2421852961
20
-25.9439831987
30
0.0000000000
10
-10.2478803823
20
-25.9763527690
30
0.0000000000
11
-9.9932635739
21
-25.7358669371
31
0.0000000000
11
-10.1219112971
21
-25.7752273052
31
0.0000000000
11
-10.2167486195
21
-25.8828770273
31
0.0000000000
11
-10.2478803823
21
-25.9763527690
31
0.0000000000
0
SPLINE
5
447
100
AcDbEntity
8
0
100
AcDbSpline
62
9
6
CONTINUOUS
70
0
71
3
72
8
73
4
74
2
42
0.0000001000
43
0.0000001000
44
0.0000000001
12
-0.0085778957
22
-0.0487548009
32
0.0000000000
13
-0.0014856371
23
-0.0491245175
33
0.0000000000
40
0.0000000000
40
0.0000000000
40
0.0000000000
40
0.0000000000
40
1.0000000000
40
1.0000000000
40
1.0000000000
40
1.0000000000
10
-10.2478803823
20
-25.9763527690
30
0.0000000000
10
-10.2507396809
20
-25.9926043693
30
0.0000000000
10
-10.2524177167
20
-26.0090222489
30
0.0000000000
10
-10.2529129290
20
-26.0253970881
30
0.0000000000
11
-10.2478803823
21
-25.9763527690
31
0.0000000000
11
-10.2529129290
21
-26.0253970881
31
0.0000000000
0
SPLINE
5
448
100
AcDbEntity
8
0
100
AcDbSpline
62
9
6
CONTINUOUS
70
0
71
3
72
10
73
6
74
4
42
0.0000001000
43
0.0000001000
44
0.0000000001
12
0.3047695895
22
-0.0000000000
32
0.0000000000
13
0.0333002746
23
-0.3034972949
33
0.0000000000
40
0.0000000000
40
0.0000000000
40
0.0000000000
40
0.0000000000
40
0.2872958907
40
0.6879848882
40
1.0000000000
40
1.0000000000
40
1.0000000000
40
1.0000000000
10
-9.9932635739
20
-25.7358669371
30
0.0000000000
10
-9.9640772237
20
-25.7358669371
30
0.0000000000
10
-9.8973303938
20
-25.7781691663
30
0.0000000000
10
-9.8563148194
20
-25.8732532488
30
0.0000000000
10
-9.8420006027
20
-25.9447924104
30
0.0000000000
10
-9.8385372064
20
-25.9763576579
30
0.0000000000
11
-9.9932635739
21
-25.7358669371
31
0.0000000000
11
-9.9150502599
21
-25.7752276391
31
0.0000000000
11
-9.8573930043
21
-25.8828770848
31
0.0000000000
11
-9.8385372064
21
-25.9763576579
31
0.0000000000
0
SPLINE
5
449
100
AcDbEntity
8
0
100
AcDbSpline
62
9
6
CONTINUOUS
70
0
71
3
72
8
73
4
74
2
42
0.0000001000
43
0.0000001000
44
0.0000000001
12
0.0053662978
22
-0.0489082117
32
0.0000000000
13
0.0009028519
23
-0.0491049411
33
0.0000000000
40
0.0000000000
40
0.0000000000
40
0.0000000000
40
0.0000000000
40
1.0000000000
40
1.0000000000
40
1.0000000000
40
1.0000000000
10
-9.8385372064
20
-25.9763576579
30
0.0000000000
10
-9.8367484405
20
-25.9926603951
30
0.0000000000
10
-9.8357074337
20
-26.0090287738
30
0.0000000000
10
-9.8354064830
20
-26.0253970876
30
0.0000000000
11
-9.8385372064
21
-25.9763576579
31
0.0000000000
11
-9.8354064830
21
-26.0253970876
31
0.0000000000
0
SPLINE
5
44A
100
AcDbEntity
8
0
100
AcDbSpline
62
9
6
CONTINUOUS
70
0
71
3
72
8
73
4
74
2
42
0.0000001000
43
0.0000001000
44
0.0000000001
12
0.1322835786
22
-0.0000000001
32
0.0000000000
13
0.1119455262
23
-0.0740833527
33
0.0000000000
40
0.0000000000
40
0.0000000000
40
0.0000000000
40
0.0000000000
40
1.0000000000
40
1.0000000000
40
1.0000000000
40
1.0000000000
10
-6.2257473906
20
-25.7358669371
30
0.0000000000
10
-6.1816528644
20
-25.7358669372
30
0.0000000000
10
-6.1367704173
20
-25.7505328513
30
0.0000000000
10
-6.0994552419
20
-25.7752273022
30
0.0000000000
11
-6.2257473906
21
-25.7358669371
31
0.0000000000
11
-6.0994552419
21
-25.7752273022
31
0.0000000000
0
SPLINE
5
44B
100
AcDbEntity
8
0
100
AcDbSpline
62
9
6
CONTINUOUS
70
0
71
3
72
9
73
5
74
3
42
0.0000001000
43
0.0000001000
44
0.0000000001
12
0.2022112965
22
-0.1338194682
32
0.0000000000
13
0.0416959582
23
-0.2369954816
33
0.0000000000
40
0.0000000000
40
0.0000000000
40
0.0000000000
40
0.0000000000
40
0.5956274002
40
1.0000000000
40
1.0000000000
40
1.0000000000
40
1.0000000000
10
-6.0994552419
20
-25.7752273022
30
0.0000000000
10
-6.0593077123
20
-25.8017961495
30
0.0000000000
10
-6.0066105149
20
-25.8658925376
30
0.0000000000
10
-5.9816000811
20
-25.9433094302
30
0.0000000000
10
-5.9759798468
20
-25.9752542566
30
0.0000000000
11
-6.0994552419
21
-25.7752273022
31
0.0000000000
11
-6.0063544114
21
-25.8828770215
31
0.0000000000
11
-5.9759798468
21
-25.9752542566
31
0.0000000000
0
SPLINE
5
44C
100
AcDbEntity
8
0
100
AcDbSpline
62
9
6
CONTINUOUS
70
0
71
3
72
8
73
4
74
2
42
0.0000001000
43
0.0000001000
44
0.0000000001
12
0.0087686882
22
-0.0498403098
32
0.0000000000
13
0.0014912233
23
-0.0502289342
33
0.0000000000
40
0.0000000000
40
0.0000000000
40
0.0000000000
40
0.0000000000
40
1.0000000000
40
1.0000000000
40
1.0000000000
40
1.0000000000
10
-5.9759798468
20
-25.9752542566
30
0.0000000000
10
-5.9730569507
20
-25.9918676932
30
0.0000000000
10
-5.9713493541
20
-26.0086541101
30
0.0000000000
10
-5.9708522796
20
-26.0253970881
30
0.0000000000
11
-5.9759798468
21
-25.9752542566
31
0.0000000000
11
-5.9708522796
21
-26.0253970881
31
0.0000000000
0
SPLINE
5
44D
100
AcDbEntity
8
0
100
AcDbSpline
62
9
6
CONTINUOUS
70
0
71
3
72
10
73
6
74
4
42
0.0000001000
43
0.0000001000
44
0.0000000001
12
-0.3033449778
22
-0.0000000002
32
0.0000000000
13
-0.0339485643
23
-0.3020070186
33
0.0000000000
40
0.0000000000
40
0.0000000000
40
0.0000000000
40
0.0000000000
40
0.2886437142
40
0.6912157332
40
1.0000000000
40
1.0000000000
40
1.0000000000
40
1.0000000000
10
-22.2509169488
20
-25.7358669371
30
0.0000000000
10
-22.2801031558
20
-25.7358669372
30
0.0000000000
10
-22.3468500186
20
-25.7781689586
30
0.0000000000
10
-22.3876739417
20
-25.8728086263
30
0.0000000000
10
-22.4019915167
20
-25.9438541418
30
0.0000000000
10
-22.4054857776
20
-25.9749391471
30
0.0000000000
11
-22.2509169488
21
-25.7358669371
31
0.0000000000
11
-22.3291299515
21
-25.7752273022
31
0.0000000000
11
-22.3867874985
21
-25.8828770215
31
0.0000000000
11
-22.4054857776
21
-25.9749391471
31
0.0000000000
0
SPLINE
5
44E
100
AcDbEntity
8
0
100
AcDbSpline
62
9
6
CONTINUOUS
70
0
71
3
72
8
73
4
74
2
42
0.0000001000
43
0.0000001000
44
0.0000000001
12
-0.0056558975
22
-0.0503149625
32
0.0000000000
13
-0.0009290410
23
-0.0505293291
33
0.0000000000
40
0.0000000000
40
0.0000000000
40
0.0000000000
40
0.0000000000
40
1.0000000000
40
1.0000000000
40
1.0000000000
40
1.0000000000
10
-22.4054857776
20
-25.9749391471
30
0.0000000000
10
-22.4073710768
20
-25.9917108013
30
0.0000000000
10
-22.4084643700
20
-26.0085539784
30
0.0000000000
10
-22.4087740504
20
-26.0253970881
30
0.0000000000
11
-22.4054857776
21
-25.9749391471
31
0.0000000000
11
-22.4087740504
21
-26.0253970881
31
0.0000000000
0
SPLINE
5
44F
100
AcDbEntity
8
0
100
AcDbSpline
62
9
6
CONTINUOUS
70
0
71
3
72
10
73
6
74
4
42
0.0000001000
43
0.0000001000
44
0.0000000001
12
0.3758902541
22
-0.0000000000
32
0.0000000000
13
0.0656064247
23
-0.3728907670
33
0.0000000000
40
0.0000000000
40
0.0000000000
40
0.0000000000
40
0.0000000000
40
0.3579086576
40
0.7395783769
40
1.0000000000
40
1.0000000000
40
1.0000000000
40
1.0000000000
10
-22.2509169487
20
-25.7358669371
30
0.0000000000
10
-22.2060721566
20
-25.7358669371
30
0.0000000000
10
-22.1117067399
20
-25.7659405756
30
0.0000000000
10
-22.0275914964
20
-25.8657994623
30
0.0000000000
10
-22.0019952844
20
-25.9439829838
30
0.0000000000
10
-21.9963001739
20
-25.9763525901
30
0.0000000000
11
-22.2509169487
21
-25.7358669371
31
0.0000000000
11
-22.1222691506
21
-25.7752273544
31
0.0000000000
11
-22.0274320396
21
-25.8828767614
31
0.0000000000
11
-21.9963001739
21
-25.9763525901
31
0.0000000000
0
SPLINE
5
450
100
AcDbEntity
8
0
100
AcDbSpline
62
9
6
CONTINUOUS
70
0
71
3
72
8
73
4
74
2
42
0.0000001000
43
0.0000001000
44
0.0000000001
12
0.0085779537
22
-0.0487549770
32
0.0000000000
13
0.0014856425
23
-0.0491246965
33
0.0000000000
40
0.0000000000
40
0.0000000000
40
0.0000000000
40
0.0000000000
40
1.0000000000
40
1.0000000000
40
1.0000000000
40
1.0000000000
10
-21.9963001739
20
-25.9763525901
30
0.0000000000
10
-21.9934408560
20
-25.9926042491
30
0.0000000000
10
-21.9917628095
20
-26.0090221893
30
0.0000000000
10
-21.9912675953
20
-26.0253970881
30
0.0000000000
11
-21.9963001739
21
-25.9763525901
31
0.0000000000
11
-21.9912675953
21
-26.0253970881
31
0.0000000000
0
SPLINE
5
451
100
AcDbEntity
8
0
100
AcDbSpline
62
9
6
CONTINUOUS
70
0
71
3
72
10
73
6
74
4
42
0.0000001000
43
0.0000001000
44
0.0000000001
12
0.3757098510
22
-0.0000000001
32
0.0000000000
13
0.0657846581
23
-0.3726985671
33
0.0000000000
40
0.0000000000
40
0.0000000000
40
0.0000000000
40
0.0000000000
40
0.3576237944
40
0.7389984892
40
1.0000000000
40
1.0000000000
40
1.0000000000
40
1.0000000000
10
-22.1103964133
20
-25.7358669371
30
0.0000000000
10
-22.0656088192
20
-25.7358669371
30
0.0000000000
10
-21.9713646965
20
-25.7658595848
30
0.0000000000
10
-21.8871967713
20
-25.8655758940
30
0.0000000000
10
-21.8615355441
20
-25.9437447647
30
0.0000000000
10
-21.8558122457
20
-25.9761697277
30
0.0000000000
11
-22.1103964133
21
-25.7358669371
31
0.0000000000
11
-21.9818980121
21
-25.7751291100
31
0.0000000000
11
-21.8870776216
21
-25.8825536750
31
0.0000000000
11
-21.8558122457
21
-25.9761697277
31
0.0000000000
0
SPLINE
5
452
100
AcDbEntity
8
0
100
AcDbSpline
62
9
6
CONTINUOUS
70
0
71
3
72
8
73
4
74
2
42
0.0000001000
43
0.0000001000
44
0.0000000001
12
0.0086374563
22
-0.0489349295
32
0.0000000000
13
0.0014911789
23
-0.0493077647
33
0.0000000000
40
0.0000000000
40
0.0000000000
40
0.0000000000
40
0.0000000000
40
1.0000000000
40
1.0000000000
40
1.0000000000
40
1.0000000000
10
-21.8558122457
20
-25.9761697277
30
0.0000000000
10
-21.8529330936
20
-25.9924813709
30
0.0000000000
10
-21.8512441233
20
-26.0089611665
30
0.0000000000
10
-21.8507470637
20
-26.0253970881
30
0.0000000000
11
-21.8558122457
21
-25.9761697277
31
0.0000000000
11
-21.8507470637
21
-26.0253970881
31
0.0000000000
0
ENDSEC
0
SECTION
2
OBJECTS
0
DICTIONARY
5
C
100
AcDbDictionary
280
0
281
1
3
ACAD_GROUP
350
D
3
ACAD_MLINESTYLE
350
17
3
ACAD_LAYOUT
350
1A
3
ACAD_PLOTSETTINGS
350
19
3
ACAD_PLOTSTYLENAME
350
E
0
DICTIONARY
5
D
102
{ACAD_REACTORS
330
C
102
}
100
AcDbDictionary
280
0
281
1
0
ACDBDICTIONARYWDFLT
5
E
102
{ACAD_REACTORS
330
C
102
}
100
AcDbDictionary
281
1
3
Normal
350
F
100
AcDbDictionaryWithDefault
340
F
0
DICTIONARY
5
17
102
{ACAD_REACTORS
330
C
102
}
100
AcDbDictionary
280
0
281
1
3
Standard
350
18
0
DICTIONARY
5
19
102
{ACAD_REACTORS
330
C
102
}
100
AcDbDictionary
281
1
0
DICTIONARY
5
1A
102
{ACAD_REACTORS
330
C
102
}
100
AcDbDictionary
281
1
3
Layout1
350
1E
3
Model
350
22
0
ACDBPLACEHOLDER
5
F
102
{ACAD_REACTORS
330
E
102
}
0
MLINESTYLE
5
18
102
{ACAD_REACTORS
330
17
102
}
100
AcDbMlineStyle
2
STANDARD
70
0
3

62
256
51
90.0
52
90.0
71
2
49
0.5
62
256
6
BYLAYER
49
-0.5
62
256
6
BYLAYER
0
LAYOUT
5
1E
102
{ACAD_REACTORS
330
1A
102
}
100
AcDbPlotSettings
1

2

4

6

40
0.0
41
0.0
42
0.0
43
0.0
44
0.0
45
0.0
46
0.0
47
0.0
48
0.0
49
0.0
140
0.0
141
0.0
142
1.0
143
1.0
70
0
72
0
73
0
74
0
7

75
0
147
1.0
148
0.0
149
0.0
100
AcDbLayout
1
Layout1
70
0
71
0
10
0.0
20
0.0
11
0.0
21
0.0
12
0.0
22
0.0
32
0.0
14
0.0
24
0.0
34
0.0
15
0.0
25
0.0
35
0.0
146
0.0
13
0.0
23
0.0
33
0.0
16
0.0
26
0.0
36
0.0
17
0.0
27
0.0
37
0.0
76
0
330
1B
331
0
345
0
346
0
0
LAYOUT
5
22
102
{ACAD_REACTORS
330
1A
102
}
100
AcDbPlotSettings
1

2

4

6

40
0.0
41
0.0
42
0.0
43
0.0
44
0.0
45
0.0
46
0.0
47
0.0
48
0.0
49
0.0
140
0.0
141
0.0
142
1.0
143
1.0
70
0
72
0
73
0
74
0
7

75
0
147
1.0
148
0.0
149
0.0
100
AcDbLayout
1
Model
70
0
71
0
10
0.0
20
0.0
11
0.0
21
0.0
12
0.0
22
0.0
32
0.0
14
0.0
24
0.0
34
0.0
15
0.0
25
0.0
35
0.0
146
0.0
13
0.0
23
0.0
33
0.0
16
0.0
26
0.0
36
0.0
17
0.0
27
0.0
37
0.0
76
0
330
1F
331
0
345
0
346
0
0
ENDSEC
0
EOF
