  0
SECTION
  2
HEADER
  9
$ACADVER
  1
AC1024
  9
$DWGCODEPAGE
  3
ANSI_1252
  9
$EXTMAX
 10
297.0
 20
210.0
 30
0.0
  9
$EXTMIN
 10
0.0
 20
0.0
 30
0.0
  9
$LIMMIN
 10
0.0
 20
0.0
  9
$LIMMAX
 10
297.0
 20
210.0
  9
$VIEWCTR
 10
148.5
 20
105.0
  9
$VIEWSIZE
 40
210.0
  9
$CLAYER
  8
0
  9
$LTSCALE
 40
16.335
  9
$CELTYPE
  6
BYLAYER
  9
$DIMSCALE
 40
1.0
  9
$DIMASZ
 40
3.0
  9
$DIMEXO
 40
0.5
  9
$DIMDLI
 40
11.286
  9
$DIMEXE
 40
1.5
  9
$DIMCEN
 40
2.673
  9
$DIMLFAC
 40
1.0
  9
$DIMBLK
  1
_FILLED
  9
$DIMALT
 70
0
  9
$DIMALTF
 40
0.0393700787
  9
$DIMTXT
 40
3.0
  9
$DIMTOL
 70
1
  9
$DIMLIM
 70
0
  9
$DIMTFAC
 40
1.0
  9
$DIMTP
 40
0.01
  9
$DIMTM
 40
0.01
  9
$DIMGAP
 40
0.625
  9
$DIMDSEP
 70
44
  9
$AUNITS
 70
0
  9
$PDMODE
 70
3
  9
$PDSIZE
 40
3.0
  9
$HANDSEED
  5
30B
  9
$TILEMODE
 70
1
  9
$MEASUREMENT
 70
1
  9
$INSUNITS
 70
4
  0
ENDSEC
  0
SECTION
  2
CLASSES
  0
CLASS
  1
ACDBDICTIONARYWDFLT
  2
AcDbDictionaryWithDefault
  3
AutoCAD 2000
 90
0
 91
1
280
0
281
0
  0
CLASS
  1
ACDBPLACEHOLDER
  2
AcDbPlaceHolder
  3
AutoCAD 2000
 90
0
 91
1
280
0
281
0
  0
CLASS
  1
LAYOUT
  2
AcDbLayout
  3
AutoCAD 2000
 90
0
 91
0
280
0
281
0
  0
ENDSEC
  0
SECTION
  2
TABLES
  0
TABLE
  2
VPORT
  5
8
100
AcDbSymbolTable
 70
2
  0
VPORT
  5
1F4
100
AcDbSymbolTableRecord
100
AcDbViewportTableRecord
  2
*ACTIVE
 70
0
 10
0.0
 20
0.0
 11
1.0
 21
1.0
 12
148.5
 22
105.0
 13
0.0
 23
0.0
 14
1.0
 24
1.0
 15
0.0
 25
0.0
 16
0.0
 26
0.0
 36
1.0
 17
0.0
 27
0.0
 37
0.0
 40
210.0
 41
1.4142857143
 42
50.0
 43
0.0
 44
0.0
 50
0.0
 51
0.0
 71
0
 72
100
 73
1
 74
1
 75
0
 76
0
 77
0
 78
0
  0
ENDTAB
  0
TABLE
  2
LTYPE
  5
5
100
AcDbSymbolTable
 70
6
  0
LTYPE
  5
14
100
AcDbSymbolTableRecord
100
AcDbLinetypeTableRecord
  2
BYBLOCK
 70
0
  3

 72
65
 73
0
 40
0.0
  0
LTYPE
  5
15
100
AcDbSymbolTableRecord
100
AcDbLinetypeTableRecord
  2
BYLAYER
 70
0
  3

 72
65
 73
0
 40
0.0
  0
LTYPE
  5
16
100
AcDbSymbolTableRecord
100
AcDbLinetypeTableRecord
  2
CONTINUOUS
 70
64
  3
Solid line
 72
65
 73
0
 40
0.0
  0
LTYPE
  5
1F5
100
AcDbSymbolTableRecord
100
AcDbLinetypeTableRecord
  2
CENTER
 70
64
  3
____ _ ____ _ ____ _ ____ _ ____ _ ____ _ ____
 72
65
 73
4
 40
0.6
 49
0.375
 74
0
 49
-0.075
 74
0
 49
0.075
 74
0
 49
-0.075
 74
0
  0
LTYPE
  5
1F6
100
AcDbSymbolTableRecord
100
AcDbLinetypeTableRecord
  2
HIDDEN
 70
64
  3
- - - - - - - - - - - - - - - - - - - -
 72
65
 73
2
 40
0.2
 49
0.1
 74
0
 49
-0.1
 74
0
  0
LTYPE
  5
1F7
100
AcDbSymbolTableRecord
100
AcDbLinetypeTableRecord
  2
PHANTOM
 70
64
  3
_____ _ _ _____ _ _ _____ _ _ _____
 72
65
 73
6
 40
0.8
 49
0.45
 74
0
 49
-0.05
 74
0
 49
0.1
 74
0
 49
-0.05
 74
0
 49
0.1
 74
0
 49
-0.05
 74
0
  0
LTYPE
  5
1F8
100
AcDbSymbolTableRecord
100
AcDbLinetypeTableRecord
  2
DOT
 70
64
  3
. . . . . . . . . . . . . . . . . . . .
 72
65
 73
2
 40
0.2
 49
0.1
 74
0
 49
-0.1
 74
0
  0
LTYPE
  5
1F9
100
AcDbSymbolTableRecord
100
AcDbLinetypeTableRecord
  2
DASHED
 70
64
  3
- - - - - - - - - - - - - - - - - - - -
 72
65
 73
2
 40
0.2
 49
0.1
 74
0
 49
-0.1
 74
0
  0
ENDTAB
  0
TABLE
  2
LAYER
  5
2
100
AcDbSymbolTable
 70
36
  0
LAYER
  5
10
100
AcDbSymbolTableRecord
100
AcDbLayerTableRecord
  2
0
 70
0
 62
7
  6
CONTINUOUS
370
-3
390
F
  0
LAYER
  5
1FA
100
AcDbSymbolTableRecord
100
AcDbLayerTableRecord
  2
DEFAULT_1
 70
0
 62
7
  6
CENTER
370
-3
390
F
  0
LAYER
  5
1FB
100
AcDbSymbolTableRecord
100
AcDbLayerTableRecord
  2
DEFAULT_2
 70
0
 62
7
  6
HIDDEN
370
-3
390
F
  0
LAYER
  5
1FC
100
AcDbSymbolTableRecord
100
AcDbLayerTableRecord
  2
DEFAULT_3
 70
0
 62
7
  6
PHANTOM
370
-3
390
F
  0
LAYER
  5
1FD
100
AcDbSymbolTableRecord
100
AcDbLayerTableRecord
  2
ASSI
 70
0
 62
7
  6
CONTINUOUS
370
-3
390
F
  0
LAYER
  5
1FE
100
AcDbSymbolTableRecord
100
AcDbLayerTableRecord
  2
CESTINO
 70
0
 62
7
  6
CONTINUOUS
370
-3
390
F
  0
LAYER
  5
1FF
100
AcDbSymbolTableRecord
100
AcDbLayerTableRecord
  2
COLOR5
 70
0
 62
7
  6
CONTINUOUS
370
-3
390
F
  0
LAYER
  5
200
100
AcDbSymbolTableRecord
100
AcDbLayerTableRecord
  2
COORDINATE
 70
0
 62
7
  6
CONTINUOUS
370
-3
390
F
  0
LAYER
  5
201
100
AcDbSymbolTableRecord
100
AcDbLayerTableRecord
  2
COORD_ORIGINE
 70
0
 62
7
  6
CONTINUOUS
370
-3
390
F
  0
LAYER
  5
202
100
AcDbSymbolTableRecord
100
AcDbLayerTableRecord
  2
COPY-PUBBLISH
 70
0
 62
7
  6
CONTINUOUS
370
-3
390
F
  0
LAYER
  5
203
100
AcDbSymbolTableRecord
100
AcDbLayerTableRecord
  2
COSMETICI
 70
0
 62
7
  6
CONTINUOUS
370
-3
390
F
  0
LAYER
  5
204
100
AcDbSymbolTableRecord
100
AcDbLayerTableRecord
  2
CURVE
 70
0
 62
7
  6
CONTINUOUS
370
-3
390
F
  0
LAYER
  5
205
100
AcDbSymbolTableRecord
100
AcDbLayerTableRecord
  2
DRAFT
 70
0
 62
7
  6
CONTINUOUS
370
-3
390
F
  0
LAYER
  5
206
100
AcDbSymbolTableRecord
100
AcDbLayerTableRecord
  2
NOTE
 70
0
 62
7
  6
CONTINUOUS
370
-3
390
F
  0
LAYER
  5
207
100
AcDbSymbolTableRecord
100
AcDbLayerTableRecord
  2
PIANI
 70
0
 62
7
  6
CONTINUOUS
370
-3
390
F
  0
LAYER
  5
208
100
AcDbSymbolTableRecord
100
AcDbLayerTableRecord
  2
PIANI_ORIGINE
 70
0
 62
7
  6
CONTINUOUS
370
-3
390
F
  0
LAYER
  5
209
100
AcDbSymbolTableRecord
100
AcDbLayerTableRecord
  2
PUNTI
 70
0
 62
7
  6
CONTINUOUS
370
-3
390
F
  0
LAYER
  5
20A
100
AcDbSymbolTableRecord
100
AcDbLayerTableRecord
  2
RACCORDO
 70
0
 62
7
  6
CONTINUOUS
370
-3
390
F
  0
LAYER
  5
20B
100
AcDbSymbolTableRecord
100
AcDbLayerTableRecord
  2
SIMBOLI
 70
0
 62
7
  6
CONTINUOUS
370
-3
390
F
  0
LAYER
  5
20C
100
AcDbSymbolTableRecord
100
AcDbLayerTableRecord
  2
SMUSSO
 70
0
 62
7
  6
CONTINUOUS
370
-3
390
F
  0
LAYER
  5
20D
100
AcDbSymbolTableRecord
100
AcDbLayerTableRecord
  2
SNAPLINE
 70
0
 62
7
  6
CONTINUOUS
370
-3
390
F
  0
LAYER
  5
20E
100
AcDbSymbolTableRecord
100
AcDbLayerTableRecord
  2
SUPERFICI
 70
0
 62
7
  6
CONTINUOUS
370
-3
390
F
  0
LAYER
  5
20F
100
AcDbSymbolTableRecord
100
AcDbLayerTableRecord
  2
TRASH
 70
0
 62
7
  6
CONTINUOUS
370
-3
390
F
  0
LAYER
  5
210
100
AcDbSymbolTableRecord
100
AcDbLayerTableRecord
  2
XSEC_DATUMS
 70
0
 62
7
  6
CONTINUOUS
370
-3
390
F
  0
ENDTAB
  0
TABLE
  2
STYLE
  5
3
100
AcDbSymbolTable
 70
1
  0
STYLE
  5
11
100
AcDbSymbolTableRecord
100
AcDbTextStyleTableRecord
  2
STANDARD
 70
0
 40
0.0
 41
0.8
 50
0.0
 71
0
 42
0.2
  3
txt
  4

  0
STYLE
  5
211
100
AcDbSymbolTableRecord
100
AcDbTextStyleTableRecord
  2
TEXTSTYLE_1
 70
0
 40
0.0
 41
0.8
 50
0.0
 71
0
 42
0.2
  3
gdt
  4

  0
ENDTAB
  0
TABLE
  2
VIEW
  5
6
100
AcDbSymbolTable
 70
0
  0
ENDTAB
  0
TABLE
  2
UCS
  5
7
100
AcDbSymbolTable
 70
0
  0
ENDTAB
  0
TABLE
  2
APPID
  5
9
100
AcDbSymbolTable
 70
1
  0
APPID
  5
212
100
AcDbSymbolTableRecord
100
AcDbRegAppTableRecord
  2
ACAD
 70
0
  0
ENDTAB
  0
TABLE
  2
BLOCK_RECORD
  5
1
100
AcDbSymbolTable
 70
0
  0
BLOCK_RECORD
  5
213
100
AcDbSymbolTableRecord
100
AcDbBlockTableRecord
  2
*Model_Space
  0
BLOCK_RECORD
  5
214
100
AcDbSymbolTableRecord
100
AcDbBlockTableRecord
  2
*Paper_Space
  0
BLOCK_RECORD
  5
215
100
AcDbSymbolTableRecord
100
AcDbBlockTableRecord
  2
_FILLED
  0
BLOCK_RECORD
  5
216
100
AcDbSymbolTableRecord
100
AcDbBlockTableRecord
  2
*D0
  0
BLOCK_RECORD
  5
217
100
AcDbSymbolTableRecord
100
AcDbBlockTableRecord
  2
*D1
  0
BLOCK_RECORD
  5
218
100
AcDbSymbolTableRecord
100
AcDbBlockTableRecord
  2
*D2
  0
BLOCK_RECORD
  5
219
100
AcDbSymbolTableRecord
100
AcDbBlockTableRecord
  2
*D3
  0
ENDTAB
  0
TABLE
  2
DIMSTYLE
  5
A
100
AcDbSymbolTable
 70
1
100
AcDbDimStyleTable
 71
0
  0
DIMSTYLE
105
21A
100
AcDbSymbolTableRecord
100
AcDbDimStyleTableRecord
  2
STANDARD
 70
0
  3

  4

 40
1.0
 41
3.0
 42
0.5
 43
0.38
 44
1.5
 45
0.0
 46
0.0
 47
0.01
 48
0.01
140
3.0
141
0.09
142
0.0
143
25.4
144
1.0
145
0.0
146
1.0
147
0.625
 71
1.0
 72
0.0
 73
0
 74
0
 75
0
 76
0
 77
1
 78
8
 79
2
170
0
171
1
172
0
173
0
174
0
175
0
176
0
177
0
178
0
270
2
179
2
271
2
272
2
273
2
274
2
275
0
280
0
281
0
282
0
283
1
284
8
285
0
286
0
287
3
288
0
340
11
278
44
341
215
342
215
343
215
344
215
  0
DIMSTYLE
105
21B
100
AcDbSymbolTableRecord
100
AcDbDimStyleTableRecord
  2
DIMSTYLE_1
 70
0
  3

  4

 40
1.0
 41
3.0
 42
0.5
 43
0.38
 44
1.5
 45
0.0
 46
0.0
 47
0.0
 48
0.0
140
3.0
141
0.09
142
0.0
143
25.4
144
1.0
145
0.0
146
1.0
147
0.75
 71
0.0
 72
0.0
 73
0
 74
0
 75
0
 76
0
 77
1
 78
8
 79
2
170
0
171
1
172
0
173
0
174
0
175
0
176
0
177
0
178
0
270
2
179
2
271
2
272
2
273
2
274
2
275
0
280
0
281
0
282
0
283
1
284
8
285
0
286
0
287
3
288
0
340
11
278
44
341
215
342
215
343
215
344
215
  0
ENDTAB
  0
ENDSEC
  0
SECTION
  2
BLOCKS
  0
BLOCK
  5
20
100
AcDbEntity
  8
0
100
AcDbBlockBegin
  2
*Model_Space
 70
0
 10
0.0
 20
0.0
 30
0.0
  3
*Model_Space
  1

  0
ENDBLK
  5
21
100
AcDbEntity
  8
0
100
AcDbBlockEnd
  0
BLOCK
  5
1C
100
AcDbEntity
  8
0
100
AcDbBlockBegin
  2
*Paper_Space
 70
0
 10
0.0
 20
0.0
 30
0.0
  3
*Paper_Space
  1

  0
ENDBLK
  5
1D
100
AcDbEntity
  8
0
100
AcDbBlockEnd
  0
BLOCK
  5
21C
100
AcDbEntity
  8
0
100
AcDbBlockBegin
  2
_FILLED
 70
64
 10
0.0
 20
0.0
  3
_FILLED
  1

  0
SOLID
  5
21D
100
AcDbEntity
  8
0
  6
BYBLOCK
 62
0
100
AcDbTrace
 10
0.0
 20
0.0
 11
-1.0
 21
0.3166666667
 12
-1.0
 22
-0.3166666667
 13
-1.0
 23
-0.3166666667
  0
ENDBLK
  5
21E
100
AcDbEntity
  8
0
  6
BYBLOCK
 62
0
100
AcDbBlockEnd
  0
BLOCK
  5
21F
100
AcDbEntity
  8
0
100
AcDbBlockBegin
 62
7
  6
CONTINUOUS
  2
*D0
 70
65
 10
0.0
 20
0.0
  3
*D0
  1

  0
LINE
  5
220
100
AcDbEntity
  8
0
100
AcDbLine
 62
7
  6
CONTINUOUS
 10
41.2679737527
 20
29.4550960036
 11
41.2679737527
 21
55.9550960036
  0
LINE
  5
221
100
AcDbEntity
  8
0
100
AcDbLine
 62
7
  6
CONTINUOUS
 10
157.2679737527
 20
29.4550960005
 11
157.2679737527
 21
55.9550960036
  0
LINE
  5
222
100
AcDbEntity
  8
0
100
AcDbLine
 62
7
  6
CONTINUOUS
 10
41.2679737527
 20
54.4550960036
 11
99.2679737527
 21
54.4550960036
  0
LINE
  5
223
100
AcDbEntity
  8
0
100
AcDbLine
 62
7
  6
CONTINUOUS
 10
157.2679737527
 20
54.4550960036
 11
99.2679737527
 21
54.4550960036
  0
INSERT
  5
224
100
AcDbEntity
  8
0
100
AcDbBlockReference
 62
7
  6
CONTINUOUS
  2
_FILLED
 10
41.2679737527
 20
54.4550960036
 41
3.0
 42
3.0
 43
3.0
 50
180.0
  0
INSERT
  5
225
100
AcDbEntity
  8
0
100
AcDbBlockReference
 62
7
  6
CONTINUOUS
  2
_FILLED
 10
157.2679737527
 20
54.4550960036
 41
3.0
 42
3.0
 43
3.0
  0
ENDBLK
  5
226
100
AcDbEntity
  8
0
  6
BYBLOCK
 62
0
100
AcDbBlockEnd
  0
BLOCK
  5
227
100
AcDbEntity
  8
0
100
AcDbBlockBegin
 62
7
  6
CONTINUOUS
  2
*D1
 70
65
 10
0.0
 20
0.0
  3
*D1
  1

  0
LINE
  5
228
100
AcDbEntity
  8
0
100
AcDbLine
 62
7
  6
CONTINUOUS
 10
150.2679737527
 20
36.4550960036
 11
166.7679737527
 21
36.4550960036
  0
LINE
  5
229
100
AcDbEntity
  8
0
100
AcDbLine
 62
7
  6
CONTINUOUS
 10
150.2679737496
 20
-37.5449039964
 11
166.7679737527
 21
-37.5449039964
  0
LINE
  5
22A
100
AcDbEntity
  8
0
100
AcDbLine
 62
7
  6
CONTINUOUS
 10
165.2679737527
 20
36.4550960036
 11
165.2679737527
 21
-0.5449039964
  0
LINE
  5
22B
100
AcDbEntity
  8
0
100
AcDbLine
 62
7
  6
CONTINUOUS
 10
165.2679737527
 20
-37.5449039964
 11
165.2679737527
 21
-0.5449039964
  0
INSERT
  5
22C
100
AcDbEntity
  8
0
100
AcDbBlockReference
 62
7
  6
CONTINUOUS
  2
_FILLED
 10
165.2679737527
 20
36.4550960036
 41
3.0
 42
3.0
 43
3.0
 50
90.0
  0
INSERT
  5
22D
100
AcDbEntity
  8
0
100
AcDbBlockReference
 62
7
  6
CONTINUOUS
  2
_FILLED
 10
165.2679737527
 20
-37.5449039964
 41
3.0
 42
3.0
 43
3.0
 50
270.0
  0
ENDBLK
  5
22E
100
AcDbEntity
  8
0
  6
BYBLOCK
 62
0
100
AcDbBlockEnd
  0
BLOCK
  5
22F
100
AcDbEntity
  8
0
100
AcDbBlockBegin
 62
7
  6
CONTINUOUS
  2
*D2
 70
65
 10
0.0
 20
0.0
  3
*D2
  1

  0
LINE
  5
230
100
AcDbEntity
  8
0
100
AcDbLine
 62
7
  6
CONTINUOUS
 10
57.5179737527
 20
-0.0449039964
 11
57.5179737527
 21
45.9550960036
  0
LINE
  5
231
100
AcDbEntity
  8
0
100
AcDbLine
 62
7
  6
CONTINUOUS
 10
141.0179737527
 20
-0.0449039964
 11
141.0179737527
 21
45.9550960036
  0
LINE
  5
232
100
AcDbEntity
  8
0
100
AcDbLine
 62
7
  6
CONTINUOUS
 10
57.5179737527
 20
44.4550960036
 11
99.2679737527
 21
44.4550960036
  0
LINE
  5
233
100
AcDbEntity
  8
0
100
AcDbLine
 62
7
  6
CONTINUOUS
 10
141.0179737527
 20
44.4550960036
 11
99.2679737527
 21
44.4550960036
  0
INSERT
  5
234
100
AcDbEntity
  8
0
100
AcDbBlockReference
 62
7
  6
CONTINUOUS
  2
_FILLED
 10
57.5179737527
 20
44.4550960036
 41
3.0
 42
3.0
 43
3.0
 50
180.0
  0
INSERT
  5
235
100
AcDbEntity
  8
0
100
AcDbBlockReference
 62
7
  6
CONTINUOUS
  2
_FILLED
 10
141.0179737527
 20
44.4550960036
 41
3.0
 42
3.0
 43
3.0
  0
ENDBLK
  5
236
100
AcDbEntity
  8
0
  6
BYBLOCK
 62
0
100
AcDbBlockEnd
  0
BLOCK
  5
237
100
AcDbEntity
  8
0
100
AcDbBlockBegin
 62
7
  6
CONTINUOUS
  2
*D3
 70
65
 10
0.0
 20
0.0
  3
*D3
  1

  0
LINE
  5
238
100
AcDbEntity
  8
0
100
AcDbLine
 62
7
  6
CONTINUOUS
 10
-2.4639356028
 20
29.4550960036
 11
-2.4639356028
 21
45.9550960036
  0
LINE
  5
239
100
AcDbEntity
  8
0
100
AcDbLine
 62
7
  6
CONTINUOUS
 10
1.5360643972
 20
29.4550960036
 11
1.5360643972
 21
45.9550960036
  0
LINE
  5
23A
100
AcDbEntity
  8
0
100
AcDbLine
 62
7
  6
CONTINUOUS
 10
-2.4639356028
 20
44.4550960036
 11
-6.4639356028
 21
44.4550960036
  0
LINE
  5
23B
100
AcDbEntity
  8
0
100
AcDbLine
 62
7
  6
CONTINUOUS
 10
-6.4639356028
 20
44.4550960036
 11
-0.4639356028
 21
44.4550960036
  0
LINE
  5
23C
100
AcDbEntity
  8
0
100
AcDbLine
 62
7
  6
CONTINUOUS
 10
1.5360643972
 20
44.4550960036
 11
5.5360643972
 21
44.4550960036
  0
LINE
  5
23D
100
AcDbEntity
  8
0
100
AcDbLine
 62
7
  6
CONTINUOUS
 10
5.5360643972
 20
44.4550960036
 11
-0.4639356028
 21
44.4550960036
  0
INSERT
  5
23E
100
AcDbEntity
  8
0
100
AcDbBlockReference
 62
7
  6
CONTINUOUS
  2
_FILLED
 10
-2.4639356028
 20
44.4550960036
 41
3.0
 42
3.0
 43
3.0
  0
INSERT
  5
23F
100
AcDbEntity
  8
0
100
AcDbBlockReference
 62
7
  6
CONTINUOUS
  2
_FILLED
 10
1.5360643972
 20
44.4550960036
 41
3.0
 42
3.0
 43
3.0
 50
180.0
  0
ENDBLK
  5
240
100
AcDbEntity
  8
0
  6
BYBLOCK
 62
0
100
AcDbBlockEnd
  0
ENDSEC
  0
SECTION
  2
ENTITIES
  0
DIMENSION
  5
241
100
AcDbEntity
  8
0
100
AcDbDimension
 62
7
  6
CONTINUOUS
  2
*D0
 10
157.2679737527
 20
54.4550960036
 11
96.3751166098
 21
54.4550960036
 70
160
 71
2
 72
2
 41
0.9
 42
116.0
  3
DIMSTYLE_1
100
AcDbAlignedDimension
 13
41.2679737527
 23
28.9550960036
 14
157.2679737527
 24
28.9550960005
100
AcDbRotatedDimension
  0
DIMENSION
  5
242
100
AcDbEntity
  8
0
100
AcDbDimension
 62
7
  6
CONTINUOUS
  2
*D1
 10
165.2679737527
 20
-37.5449039964
 11
165.2679737527
 21
-2.9020468535
 70
160
 71
2
 72
2
 41
0.9
 42
74.0
  3
DIMSTYLE_1
100
AcDbAlignedDimension
 13
149.7679737527
 23
36.4550960036
 14
149.7679737496
 24
-37.5449039964
 50
270.0
100
AcDbRotatedDimension
  0
DIMENSION
  5
243
100
AcDbEntity
  8
0
100
AcDbDimension
 62
7
  6
CONTINUOUS
  2
*D2
 10
141.0179737527
 20
44.4550960036
 11
95.0894023241
 21
44.4550960036
 70
160
 71
2
 72
2
 41
0.9
 42
83.5
  3
DIMSTYLE_1
100
AcDbAlignedDimension
 13
57.5179737527
 23
-0.5449039964
 14
141.0179737527
 24
-0.5449039964
100
AcDbRotatedDimension
  0
DIMENSION
  5
244
100
AcDbEntity
  8
0
100
AcDbDimension
 62
7
  6
CONTINUOUS
  2
*D3
 10
1.5360643972
 20
44.4550960036
 11
-1.6425070313
 21
44.4550960036
 70
160
 71
2
 72
2
 41
0.9
 42
4.0
  3
DIMSTYLE_1
100
AcDbAlignedDimension
 13
-2.4639356028
 23
28.9550960036
 14
1.5360643972
 24
28.9550960036
100
AcDbRotatedDimension
  0
LINE
  5
245
100
AcDbEntity
  8
RACCORDO
100
AcDbLine
 62
7
  6
CONTINUOUS
 10
41.2679737527
 20
28.9550960036
 11
41.2679737527
 21
-30.0449039964
  0
LINE
  5
246
100
AcDbEntity
  8
RACCORDO
100
AcDbLine
 62
250
  6
CONTINUOUS
 10
43.2679737527
 20
28.9550960036
 11
43.2679737527
 21
-30.0449039964
  0
LINE
  5
247
100
AcDbEntity
  8
RACCORDO
100
AcDbLine
 62
250
  6
CONTINUOUS
 10
48.7679737527
 20
-35.5449039964
 11
48.7679737527
 21
-37.5449039964
  0
LINE
  5
248
100
AcDbEntity
  8
RACCORDO
100
AcDbLine
 62
250
  6
CONTINUOUS
 10
48.7679737527
 20
34.4550960036
 11
48.7679737557
 21
36.4550960036
  0
LWPOLYLINE
  5
249
100
AcDbEntity
  8
0
100
AcDbPolyline
 62
7
  6
CONTINUOUS
 90
3
 70
0
 43
0.3500000006
 10
96.3751132507
 20
57.3479506531
 10
97.2322602539
 20
58.2050976563
 10
97.2322602539
 20
55.2050967407
  0
LWPOLYLINE
  5
24A
100
AcDbEntity
  8
0
100
AcDbPolyline
 62
7
  6
CONTINUOUS
 90
3
 70
0
 43
0.3500000006
 10
98.0893981934
 20
57.3479506531
 10
98.9465451965
 20
58.2050976563
 10
98.9465451965
 20
55.2050967407
  0
LWPOLYLINE
  5
24B
100
AcDbEntity
  8
0
100
AcDbPolyline
 62
7
  6
CONTINUOUS
 90
5
 70
0
 43
0.3500000006
 10
98.3036917419
 20
46.9193831635
 10
98.6608295288
 20
47.1336676483
 10
98.6608295288
 20
47.7765256348
 10
98.3036917419
 20
48.2050946045
 10
97.4465447388
 20
48.2050946045
  0
LWPOLYLINE
  5
24C
100
AcDbEntity
  8
0
100
AcDbPolyline
 62
7
  6
CONTINUOUS
 90
10
 70
0
 43
0.3500000006
 10
100.875114624
 20
58.2050976563
 10
100.2322611694
 20
57.5622351379
 10
99.8036921997
 20
56.7050971985
 10
99.8036921997
 20
55.6336657104
 10
100.2322611694
 20
55.2050967407
 10
100.875114624
 20
55.2050967407
 10
101.3036835938
 20
55.6336657104
 10
101.3036835938
 20
56.4908127136
 10
100.875114624
 20
56.9193816833
 10
99.9465455017
 20
56.9193816833
  0
LINE
  5
24D
100
AcDbEntity
  8
RACCORDO
100
AcDbLine
 62
7
  6
CONTINUOUS
 10
48.7679737527
 20
-37.5449039964
 11
149.7679737527
 21
-37.5449039964
  0
LINE
  5
24E
100
AcDbEntity
  8
RACCORDO
100
AcDbLine
 62
250
  6
CONTINUOUS
 10
48.7679737527
 20
-35.5449039964
 11
149.7679737527
 21
-35.5449039964
  0
LINE
  5
24F
100
AcDbEntity
  8
ASSI
100
AcDbLine
 62
7
  6
CONTINUOUS
 10
146.9856487527
 20
-31.0448979964
 11
147.4856677527
 21
-31.0448909964
  0
LINE
  5
250
100
AcDbEntity
  8
ASSI
100
AcDbLine
 62
7
  6
CONTINUOUS
 10
145.1795367527
 20
-31.0448979964
 11
145.6795427527
 21
-31.0448909964
  0
LINE
  5
251
100
AcDbEntity
  8
ASSI
100
AcDbLine
 62
7
  6
CONTINUOUS
 10
150.8620047527
 20
-31.0448909964
 11
151.4251987527
 21
-31.0448849964
  0
LINE
  5
252
100
AcDbEntity
  8
ASSI
100
AcDbLine
 62
7
  6
CONTINUOUS
 10
143.2067547527
 20
-31.0449039964
 11
143.7067737527
 21
-31.0448979964
  0
LINE
  5
253
100
AcDbEntity
  8
ASSI
100
AcDbLine
 62
7
  6
CONTINUOUS
 10
141.5706737527
 20
-31.0449039964
 11
142.0707117527
 21
-31.0448979964
  0
LINE
  5
254
100
AcDbEntity
  8
ASSI
100
AcDbLine
 62
7
  6
CONTINUOUS
 10
144.2067797527
 20
-31.0448979964
 11
144.7067987527
 21
-31.0448979964
  0
LINE
  5
255
100
AcDbEntity
  8
ASSI
100
AcDbLine
 62
7
  6
CONTINUOUS
 10
146.1522867527
 20
-31.0448979964
 11
146.6523047527
 21
-31.0448979964
  0
LINE
  5
256
100
AcDbEntity
  8
ASSI
100
AcDbLine
 62
7
  6
CONTINUOUS
 10
149.4244367527
 20
-31.0448909964
 11
149.9244617527
 21
-31.0448909964
  0
LINE
  5
257
100
AcDbEntity
  8
ASSI
100
AcDbLine
 62
7
  6
CONTINUOUS
 10
148.5910677527
 20
-31.0448909964
 11
149.0910927527
 21
-31.0448979964
  0
LINE
  5
258
100
AcDbEntity
  8
ASSI
100
AcDbLine
 62
7
  6
CONTINUOUS
 10
147.6435237527
 20
-30.5532289964
 11
148.4332177527
 21
-30.5532289964
  0
LINE
  5
259
100
AcDbEntity
  8
ASSI
100
AcDbLine
 62
7
  6
CONTINUOUS
 10
148.2806927527
 20
-30.0782099964
 11
147.7960427527
 21
-30.0782099964
  0
LINE
  5
25A
100
AcDbEntity
  8
ASSI
100
AcDbLine
 62
7
  6
CONTINUOUS
 10
149.9245177527
 20
-30.0782039964
 11
150.3609237527
 21
-30.0782099964
  0
LINE
  5
25B
100
AcDbEntity
  8
RACCORDO
100
AcDbLine
 62
250
  6
CONTINUOUS
 10
43.2679737527
 20
-30.0449039964
 11
41.2679737527
 21
-30.0449039933
  0
LINE
  5
25C
100
AcDbEntity
  8
RACCORDO
100
AcDbLine
 62
250
  6
CONTINUOUS
 10
155.2679737527
 20
-30.0449039964
 11
157.2679737527
 21
-30.0449039964
  0
LINE
  5
25D
100
AcDbEntity
  8
ASSI
100
AcDbLine
 62
7
  6
CONTINUOUS
 10
150.5259172168
 20
-29.6156849964
 11
149.9175677527
 21
-29.6156849964
  0
LINE
  5
25E
100
AcDbEntity
  8
ASSI
100
AcDbLine
 62
7
  6
CONTINUOUS
 10
149.9175617527
 20
-29.0072979964
 11
150.5259060206
 21
-29.0072979964
  0
LINE
  5
25F
100
AcDbEntity
  8
ASSI
100
AcDbLine
 62
7
  6
CONTINUOUS
 10
146.6523047527
 20
-28.5447849964
 11
145.8964117527
 21
-28.5447849964
  0
LINE
  5
260
100
AcDbEntity
  8
ASSI
100
AcDbLine
 62
7
  6
CONTINUOUS
 10
144.9626737527
 20
-28.5447849964
 11
144.2067797527
 21
-28.5447849964
  0
LINE
  5
261
100
AcDbEntity
  8
ASSI
100
AcDbLine
 62
7
  6
CONTINUOUS
 10
143.7067797527
 20
-28.5447849964
 11
143.2067617527
 21
-28.5447849964
  0
LINE
  5
262
100
AcDbEntity
  8
ASSI
100
AcDbLine
 62
7
  6
CONTINUOUS
 10
142.8734177527
 20
-28.5447849964
 11
142.3733927527
 21
-28.5447849964
  0
LINE
  5
263
100
AcDbEntity
  8
ASSI
100
AcDbLine
 62
7
  6
CONTINUOUS
 10
141.2679987527
 20
-28.5447849964
 11
140.7679737527
 21
-28.5447849964
  0
LINE
  5
264
100
AcDbEntity
  8
ASSI
100
AcDbLine
 62
7
  6
CONTINUOUS
 10
150.5953198367
 20
-28.5447789964
 11
149.4244367527
 21
-28.5447789964
  0
LINE
  5
265
100
AcDbEntity
  8
ASSI
100
AcDbLine
 62
7
  6
CONTINUOUS
 10
148.2883867527
 20
-28.5447789964
 11
147.7883427527
 21
-28.5447789964
  0
LWPOLYLINE
  5
266
100
AcDbEntity
  8
0
100
AcDbPolyline
 62
7
  6
CONTINUOUS
 90
3
 70
0
 43
0.3500000006
 10
100.3036923523
 20
45.4908093567
 10
100.2322611694
 20
45.2765248718
 10
100.0893988037
 20
44.9908092041
  0
LWPOLYLINE
  5
267
100
AcDbEntity
  8
0
100
AcDbPolyline
 62
7
  6
CONTINUOUS
 90
4
 70
0
 43
0.3500000006
 10
95.0894063416
 20
45.6336671906
 10
95.0894063416
 20
46.4908096619
 10
95.5179753113
 20
46.9193831635
 10
96.1608287659
 20
46.9193831635
  0
LWPOLYLINE
  5
268
100
AcDbEntity
  8
0
100
AcDbPolyline
 62
7
  6
CONTINUOUS
 90
4
 70
0
 43
0.3500000006
 10
162.1608398438
 20
-2.9020473404
 10
161.5179682617
 20
-2.9020473404
 10
161.5179682617
 20
-1.4020468826
 10
164.5179691772
 20
-2.2591893539
  0
LINE
  5
269
100
AcDbEntity
  8
ASSI
100
AcDbLine
 62
7
  6
CONTINUOUS
 10
56.4225286377
 20
-2.3949039964
 11
58.6134188677
 21
-2.3949039964
  0
LINE
  5
26A
100
AcDbEntity
  8
ASSI
100
AcDbLine
 62
7
  6
CONTINUOUS
 10
139.9225286377
 20
-2.3949039964
 11
142.1134188677
 21
-2.3949039964
  0
LWPOLYLINE
  5
26B
100
AcDbEntity
  8
0
100
AcDbPolyline
 62
7
  6
CONTINUOUS
 90
2
 70
0
 43
0.3500000006
 10
164.5179691772
 20
0.4550958939
 10
163.0179777832
 20
0.4550958939
  0
LINE
  5
26C
100
AcDbEntity
  8
ASSI
100
AcDbLine
 62
7
  6
CONTINUOUS
 10
142.1134188677
 20
1.3050960036
 11
139.9225286377
 21
1.3050960036
  0
LINE
  5
26D
100
AcDbEntity
  8
ASSI
100
AcDbLine
 62
7
  6
CONTINUOUS
 10
58.6134188677
 20
1.3050960036
 11
56.4225286377
 21
1.3050960036
  0
LWPOLYLINE
  5
26E
100
AcDbEntity
  8
0
100
AcDbPolyline
 62
7
  6
CONTINUOUS
 90
10
 70
0
 43
0.3500000006
 10
100.2322611694
 20
45.7050938416
 10
100.3036923523
 20
45.5622405396
 10
100.3036923523
 20
45.4908093567
 10
100.1608299866
 20
45.3479515228
 10
100.0893988037
 20
45.3479515228
 10
100.0179766846
 20
45.4193827057
 10
100.0179766846
 20
45.4908093567
 10
100.0893988037
 20
45.6336671906
 10
100.1608299866
 20
45.7050938416
 10
100.2322611694
 20
45.7050938416
  0
LINE
  5
26F
100
AcDbEntity
  8
RACCORDO
100
AcDbLine
 62
250
  6
CONTINUOUS
 10
43.2679737527
 20
28.9550960036
 11
41.2679737527
 21
28.9550960036
  0
LINE
  5
270
100
AcDbEntity
  8
RACCORDO
100
AcDbLine
 62
250
  6
CONTINUOUS
 10
155.2679737527
 20
28.9550960036
 11
157.2679737527
 21
28.9550960005
  0
LINE
  5
271
100
AcDbEntity
  8
ASSI
100
AcDbLine
 62
7
  6
CONTINUOUS
 10
150.3609237527
 20
-30.0782099964
 11
150.8620047527
 21
-31.0448909964
  0
LINE
  5
272
100
AcDbEntity
  8
ASSI
100
AcDbLine
 62
7
  6
CONTINUOUS
 10
151.4251987527
 20
-31.0448849964
 11
150.8929538498
 21
-30.0180772545
  0
LINE
  5
273
100
AcDbEntity
  8
ASSI
100
AcDbLine
 62
7
  6
CONTINUOUS
 10
140.7679737527
 20
-28.5447849964
 11
141.5706737527
 21
-31.0449039964
  0
LINE
  5
274
100
AcDbEntity
  8
ASSI
100
AcDbLine
 62
7
  6
CONTINUOUS
 10
141.8206987527
 20
-30.2662479964
 11
141.2679987527
 21
-28.5447849964
  0
LINE
  5
275
100
AcDbEntity
  8
RACCORDO
100
AcDbLine
 62
250
  6
CONTINUOUS
 10
149.7679737527
 20
34.4550960036
 11
48.7679737527
 21
34.4550960036
  0
LINE
  5
276
100
AcDbEntity
  8
RACCORDO
100
AcDbLine
 62
7
  6
CONTINUOUS
 10
149.7679737527
 20
36.4550960036
 11
48.7679737527
 21
36.4550960036
  0
LWPOLYLINE
  5
277
100
AcDbEntity
  8
0
100
AcDbPolyline
 62
7
  6
CONTINUOUS
 90
13
 70
0
 43
0.3500000006
 10
95.5179753113
 20
46.9193831635
 10
95.2322596436
 20
47.1336676483
 10
95.2322596436
 20
47.7765256348
 10
95.5179753113
 20
48.2050946045
 10
96.1608287659
 20
48.2050946045
 10
96.4465444336
 20
47.7765256348
 10
96.4465444336
 20
47.1336676483
 10
96.1608287659
 20
46.9193831635
 10
96.5894067993
 20
46.4908096619
 10
96.5894067993
 20
45.6336671906
 10
96.1608287659
 20
45.2050982208
 10
95.5179753113
 20
45.2050982208
 10
95.0894063416
 20
45.6336671906
  0
LINE
  5
278
100
AcDbEntity
  8
ASSI
100
AcDbLine
 62
7
  6
CONTINUOUS
 10
144.7067987527
 20
-29.3962409964
 11
145.1795367527
 21
-31.0448979964
  0
LINE
  5
279
100
AcDbEntity
  8
ASSI
100
AcDbLine
 62
7
  6
CONTINUOUS
 10
145.4295427527
 20
-30.1729479964
 11
144.9626737527
 21
-28.5447849964
  0
LINE
  5
27A
100
AcDbEntity
  8
ASSI
100
AcDbLine
 62
7
  6
CONTINUOUS
 10
148.0383617527
 20
-29.3234349964
 11
148.2806927527
 21
-30.0782099964
  0
LINE
  5
27B
100
AcDbEntity
  8
ASSI
100
AcDbLine
 62
7
  6
CONTINUOUS
 10
148.4332177527
 20
-30.5532289964
 11
148.5910677527
 21
-31.0448909964
  0
LINE
  5
27C
100
AcDbEntity
  8
ASSI
100
AcDbLine
 62
7
  6
CONTINUOUS
 10
149.0910927527
 20
-31.0448979964
 11
148.2883867527
 21
-28.5447789964
  0
LINE
  5
27D
100
AcDbEntity
  8
ASSI
100
AcDbLine
 62
7
  6
CONTINUOUS
 10
143.2067617527
 20
-28.5447849964
 11
143.2067547527
 21
-31.0449039964
  0
LINE
  5
27E
100
AcDbEntity
  8
ASSI
100
AcDbLine
 62
7
  6
CONTINUOUS
 10
143.7067737527
 20
-31.0448979964
 11
143.7067797527
 21
-28.5447849964
  0
LINE
  5
27F
100
AcDbEntity
  8
ASSI
100
AcDbLine
 62
7
  6
CONTINUOUS
 10
144.2067797527
 20
-28.5447849964
 11
144.2067797527
 21
-31.0448979964
  0
LINE
  5
280
100
AcDbEntity
  8
ASSI
100
AcDbLine
 62
7
  6
CONTINUOUS
 10
144.7067987527
 20
-31.0448979964
 11
144.7067987527
 21
-29.3962409964
  0
LWPOLYLINE
  5
281
100
AcDbEntity
  8
0
100
AcDbPolyline
 62
7
  6
CONTINUOUS
 90
6
 70
0
 43
0.3500000006
 10
97.4465447388
 20
45.2050982208
 10
98.5179762268
 20
45.2050982208
 10
98.7322607117
 20
45.4193827057
 10
98.7322607117
 20
46.4908096619
 10
98.3036917419
 20
46.9193831635
 10
97.8751137085
 20
46.9193831635
  0
LWPOLYLINE
  5
282
100
AcDbEntity
  8
0
100
AcDbPolyline
 62
7
  6
CONTINUOUS
 90
8
 70
0
 43
0.3500000006
 10
101.3036835938
 20
45.2050982208
 10
102.1608305969
 20
45.2050982208
 10
102.5893995667
 20
45.6336671906
 10
102.5893995667
 20
46.4908096619
 10
102.1608305969
 20
46.9193831635
 10
101.3036835938
 20
46.9193831635
 10
101.3036835938
 20
48.2050946045
 10
102.5893995667
 20
48.2050946045
  0
LINE
  5
283
100
AcDbEntity
  8
ASSI
100
AcDbLine
 62
7
  6
CONTINUOUS
 10
146.1522797527
 20
-29.3962409964
 11
146.1522867527
 21
-31.0448979964
  0
LINE
  5
284
100
AcDbEntity
  8
ASSI
100
AcDbLine
 62
7
  6
CONTINUOUS
 10
146.6523047527
 20
-31.0448979964
 11
146.6523047527
 21
-28.5447849964
  0
LINE
  5
285
100
AcDbEntity
  8
ASSI
100
AcDbLine
 62
7
  6
CONTINUOUS
 10
149.4244367527
 20
-28.5447789964
 11
149.4244367527
 21
-31.0448909964
  0
LINE
  5
286
100
AcDbEntity
  8
RACCORDO
100
AcDbLine
 62
250
  6
CONTINUOUS
 10
149.7679737527
 20
-35.5449039964
 11
149.7679737496
 21
-37.5449039964
  0
LINE
  5
287
100
AcDbEntity
  8
RACCORDO
100
AcDbLine
 62
250
  6
CONTINUOUS
 10
149.7679737527
 20
34.4550960036
 11
149.7679737527
 21
36.4550960036
  0
LINE
  5
288
100
AcDbEntity
  8
ASSI
100
AcDbLine
 62
7
  6
CONTINUOUS
 10
149.9175677527
 20
-29.6156849964
 11
149.9175617527
 21
-29.0072979964
  0
LINE
  5
289
100
AcDbEntity
  8
ASSI
100
AcDbLine
 62
7
  6
CONTINUOUS
 10
149.9244617527
 20
-31.0448909964
 11
149.9245177527
 21
-30.0782039964
  0
LINE
  5
28A
100
AcDbEntity
  8
ASSI
100
AcDbLine
 62
7
  6
CONTINUOUS
 10
142.3733927527
 20
-28.5447849964
 11
141.8206987527
 21
-30.2662479964
  0
LINE
  5
28B
100
AcDbEntity
  8
ASSI
100
AcDbLine
 62
7
  6
CONTINUOUS
 10
142.0707117527
 20
-31.0448979964
 11
142.8734177527
 21
-28.5447849964
  0
LINE
  5
28C
100
AcDbEntity
  8
ASSI
100
AcDbLine
 62
7
  6
CONTINUOUS
 10
145.8964117527
 20
-28.5447849964
 11
145.4295427527
 21
-30.1729479964
  0
LINE
  5
28D
100
AcDbEntity
  8
ASSI
100
AcDbLine
 62
7
  6
CONTINUOUS
 10
145.6795427527
 20
-31.0448909964
 11
146.1522797527
 21
-29.3962409964
  0
LINE
  5
28E
100
AcDbEntity
  8
ASSI
100
AcDbLine
 62
7
  6
CONTINUOUS
 10
147.7883427527
 20
-28.5447789964
 11
146.9856487527
 21
-31.0448979964
  0
LINE
  5
28F
100
AcDbEntity
  8
ASSI
100
AcDbLine
 62
7
  6
CONTINUOUS
 10
147.7960427527
 20
-30.0782099964
 11
148.0383617527
 21
-29.3234349964
  0
LINE
  5
290
100
AcDbEntity
  8
ASSI
100
AcDbLine
 62
7
  6
CONTINUOUS
 10
147.4856677527
 20
-31.0448909964
 11
147.6435237527
 21
-30.5532289964
  0
LINE
  5
291
100
AcDbEntity
  8
RACCORDO
100
AcDbLine
 62
250
  6
CONTINUOUS
 10
155.2679737527
 20
-30.0449039964
 11
155.2679737527
 21
28.9550960036
  0
LINE
  5
292
100
AcDbEntity
  8
RACCORDO
100
AcDbLine
 62
7
  6
CONTINUOUS
 10
157.2679737527
 20
-30.0449039964
 11
157.2679737527
 21
28.9550960036
  0
LWPOLYLINE
  5
293
100
AcDbEntity
  8
0
100
AcDbPolyline
 62
7
  6
CONTINUOUS
 90
3
 70
0
 43
0.3500000006
 10
163.8751157227
 20
0.9550960464
 10
163.8751157227
 20
-0.5449044113
 10
161.5179682617
 20
0.0979535751
  0
LINE
  5
294
100
AcDbEntity
  8
RACCORDO
100
AcDbLine
 62
7
  6
CONTINUOUS
 10
1.5360643972
 20
-37.5449039964
 11
-0.4639356028
 21
-37.5449039964
  0
LINE
  5
295
100
AcDbEntity
  8
ASSI
100
AcDbLine
 62
7
  6
CONTINUOUS
 10
-2.4639356028
 20
-31.0448849964
 11
-2.6639356028
 21
-31.0448849964
  0
LINE
  5
296
100
AcDbEntity
  8
RACCORDO
100
AcDbLine
 62
250
  6
CONTINUOUS
 10
1.5360643972
 20
-30.0449039964
 11
-2.4639356028
 21
-30.0449039964
  0
LINE
  5
297
100
AcDbEntity
  8
ASSI
100
AcDbLine
 62
7
  6
CONTINUOUS
 10
-2.4639356028
 20
-30.0180774841
 11
-2.6639356028
 21
-30.0180789964
  0
LINE
  5
298
100
AcDbEntity
  8
ASSI
100
AcDbLine
 62
7
  6
CONTINUOUS
 10
-2.4639356028
 20
-28.5447789964
 11
-2.6639356028
 21
-28.5447789964
  0
LINE
  5
299
100
AcDbEntity
  8
SMUSSO
100
AcDbLine
 62
7
  6
CONTINUOUS
 10
5.5360643972
 20
-25.5449039964
 11
1.5360643972
 21
-25.5449039964
  0
LINE
  5
29A
100
AcDbEntity
  8
RACCORDO
100
AcDbLine
 62
7
  6
CONTINUOUS
 10
5.302021844
 20
-23.8449039964
 11
1.5360643972
 21
-23.8449039964
  0
LINE
  5
29B
100
AcDbEntity
  8
RACCORDO
100
AcDbLine
 62
250
  6
CONTINUOUS
 10
1.5360643972
 20
-23.0630858146
 11
5.5360643972
 21
-23.6449039964
  0
LINE
  5
29C
100
AcDbEntity
  8
ASSI
100
AcDbLine
 62
250
  6
CONTINUOUS
 10
1.5360643972
 20
-21.7949039964
 11
2.3950129198
 21
-21.7949039964
  0
LINE
  5
29D
100
AcDbEntity
  8
ASSI
100
AcDbLine
 62
250
  6
CONTINUOUS
 10
2.6771158701
 20
-21.7949039964
 11
5.5247503939
 21
-21.7949039964
  0
LINE
  5
29E
100
AcDbEntity
  8
ASSI
100
AcDbLine
 62
7
  6
CONTINUOUS
 10
4.5360643972
 20
-20.9449039964
 11
4.3970279658
 21
-20.9449039964
  0
LWPOLYLINE
  5
29F
100
AcDbEntity
  8
0
100
AcDbPolyline
 62
7
  6
CONTINUOUS
 90
4
 70
0
 10
1.7486774286
 20
19.8179529108
 10
1.6462600579
 20
19.7619961957
 10
1.5478000909
 20
19.699337539
 10
1.5360643972
 20
19.6907187412
  0
LWPOLYLINE
  5
2A0
100
AcDbEntity
  8
0
100
AcDbPolyline
 62
7
  6
CONTINUOUS
 90
3
 70
0
 10
1.9635468003
 20
19.9087959615
 10
1.8545967015
 20
19.8669588172
 10
1.7486774286
 20
19.8179529108
  0
LINE
  5
2A1
100
AcDbEntity
  8
0
100
AcDbLine
 62
7
  6
CONTINUOUS
 10
1.5360643972
 20
-19.8949039964
 11
4.9030126595
 21
-19.8949039964
  0
LINE
  5
2A2
100
AcDbEntity
  8
0
100
AcDbLine
 62
7
  6
CONTINUOUS
 10
1.5360643972
 20
-18.7949039964
 11
4.9030126595
 21
-18.7949039964
  0
LINE
  5
2A3
100
AcDbEntity
  8
ASSI
100
AcDbLine
 62
7
  6
CONTINUOUS
 10
4.5360643972
 20
-17.7449039964
 11
4.397027966
 21
-17.7449039964
  0
LWPOLYLINE
  5
2A4
100
AcDbEntity
  8
0
100
AcDbPolyline
 62
7
  6
CONTINUOUS
 90
3
 70
0
 10
3.2068801677
 20
16.6387711015
 10
3.3131206584
 20
16.6870770129
 10
3.4159051856
 20
16.742356708
  0
LINE
  5
2A5
100
AcDbEntity
  8
RACCORDO
100
AcDbLine
 62
250
  6
CONTINUOUS
 10
5.5360643972
 20
-16.5949039964
 11
3.4735643972
 21
-16.8949039964
  0
LINE
  5
2A6
100
AcDbEntity
  8
RACCORDO
100
AcDbLine
 62
250
  6
CONTINUOUS
 10
3.4735643972
 20
-16.8949039964
 11
3.149117905
 21
-16.9236140042
  0
LINE
  5
2A7
100
AcDbEntity
  8
RACCORDO
100
AcDbLine
 62
250
  6
CONTINUOUS
 10
3.149117905
 20
-16.9236140042
 11
3.0031851199
 21
-16.9358819585
  0
LINE
  5
2A8
100
AcDbEntity
  8
RACCORDO
100
AcDbLine
 62
250
  6
CONTINUOUS
 10
1.7250902505
 20
-17.0296410109
 11
1.5360643972
 21
-17.041669407
  0
LINE
  5
2A9
100
AcDbEntity
  8
RACCORDO
100
AcDbLine
 62
250
  6
CONTINUOUS
 10
5.5247503939
 20
-16.8949039964
 11
3.4735643972
 21
-16.8949039964
  0
LINE
  5
2AA
100
AcDbEntity
  8
RACCORDO
100
AcDbLine
 62
7
  6
CONTINUOUS
 10
5.302021844
 20
-16.3949039964
 11
1.5360643972
 21
-16.3949039964
  0
LWPOLYLINE
  5
2AB
100
AcDbEntity
  8
RACCORDO
100
AcDbPolyline
 62
7
  6
CONTINUOUS
 90
13
 70
0
 10
5.302021844
 20
-16.3949039964
 10
5.3324299775
 20
-16.3962874336
 10
5.3614267585
 20
-16.40050896
 10
5.3890121869
 20
-16.4075685754
 10
5.4154863115
 20
-16.4174169099
 10
5.4405490836
 20
-16.4301033335
 10
5.4633003573
 20
-16.4457759564
 10
5.4839364485
 20
-16.4647772767
 10
5.5022610413
 20
-16.4867647963
 10
5.5167850419
 20
-16.5108591305
 10
5.5270120858
 20
-16.5367671511
 10
5.5334385376
 20
-16.5647819863
 10
5.5360643972
 20
-16.5949036362
  0
LWPOLYLINE
  5
2AC
100
AcDbEntity
  8
0
100
AcDbPolyline
 62
7
  6
CONTINUOUS
 90
13
 70
0
 10
3.1846673796
 20
17.4886013295
 10
3.1401261173
 20
17.4509023207
 10
3.0933143466
 20
17.4157390944
 10
3.0443732998
 20
17.3832528646
 10
2.9934836389
 20
17.35359376
 10
2.9407757187
 20
17.3268669914
 10
2.8863194646
 20
17.3031500977
 10
2.8301305891
 20
17.2825164594
 10
2.7725316493
 20
17.2651499788
 10
2.7140789357
 20
17.2512332578
 10
2.6551058669
 20
17.2408146414
 10
2.5956987861
 20
17.2338786786
 10
2.5360643972
 20
17.2304301396
  0
LWPOLYLINE
  5
2AD
100
AcDbEntity
  8
0
100
AcDbPolyline
 62
7
  6
CONTINUOUS
 90
10
 70
0
 10
3.4159051856
 20
16.742356708
 10
3.5147766138
 20
16.8043643304
 10
3.6092952106
 20
16.8728241009
 10
3.6990406031
 20
16.9474315446
 10
3.7836136473
 20
17.0278548445
 10
3.8626382028
 20
17.1137363173
 10
3.9357628066
 20
17.2046940048
 10
4.0026622355
 20
17.3003233718
 10
4.0630389527
 20
17.4001991059
 10
4.1166244315
 20
17.5038770088
  0
LINE
  5
2AE
100
AcDbEntity
  8
RACCORDO
100
AcDbLine
 62
7
  6
CONTINUOUS
 10
5.302021844
 20
-14.6949039964
 11
1.5360643972
 21
-14.6949039964
  0
LINE
  5
2AF
100
AcDbEntity
  8
RACCORDO
100
AcDbLine
 62
250
  6
CONTINUOUS
 10
5.5360643972
 20
-14.4949039964
 11
1.5360643972
 21
-13.9130858146
  0
LWPOLYLINE
  5
2B0
100
AcDbEntity
  8
RACCORDO
100
AcDbPolyline
 62
7
  6
CONTINUOUS
 90
7
 70
0
 10
5.4633111388
 20
15.3559764054
 10
5.4405571904
 20
15.3402996949
 10
5.4154915342
 20
15.3276111731
 10
5.3890150804
 20
15.3177614792
 10
5.3614281325
 20
15.3107008261
 10
5.332430387
 20
15.306479001
 10
5.302021844
 20
15.3050960036
  0
LWPOLYLINE
  5
2B1
100
AcDbEntity
  8
0
100
AcDbPolyline
 62
7
  6
CONTINUOUS
 90
18
 70
0
 10
1.5360643972
 20
18.6678618667
 10
1.5614758271
 20
18.7295879326
 10
1.5955962364
 20
18.7982118907
 10
1.63418341
 20
18.8638029062
 10
1.6770869361
 20
18.926297928
 10
1.7241352722
 20
18.9855462871
 10
1.7749104255
 20
19.0411248257
 10
1.8292746092
 20
19.0929779268
 10
1.8876016079
 20
19.141400124
 10
1.9500382295
 20
19.1862873147
 10
2.0160557348
 20
19.2270425666
 10
2.0850481855
 20
19.2631814707
 10
2.1567676462
 20
19.2945048756
 10
2.2308109677
 20
19.3207693992
 10
2.3062204829
 20
19.341648003
 10
2.3823932546
 20
19.3570768596
 10
2.4591357241
 20
19.3671179592
 10
2.5360643972
 20
19.371799184
  0
LINE
  5
2B2
100
AcDbEntity
  8
SMUSSO
100
AcDbLine
 62
7
  6
CONTINUOUS
 10
5.5360643972
 20
12.4305224842
 11
1.5360643972
 21
10.1211214074
  0
LINE
  5
2B3
100
AcDbEntity
  8
SMUSSO
100
AcDbLine
 62
7
  6
CONTINUOUS
 10
5.5360643972
 20
-13.5203304769
 11
1.5360643972
 21
-11.2109294002
  0
LWPOLYLINE
  5
2B4
100
AcDbEntity
  8
0
100
AcDbPolyline
 62
7
  6
CONTINUOUS
 90
36
 70
0
 10
4.1264026174
 20
17.5248054562
 10
4.1715417673
 20
17.6324293912
 10
4.2094071398
 20
17.7428226347
 10
4.2398303283
 20
17.8554942133
 10
4.2626760256
 20
17.9699430208
 10
4.2778426252
 20
18.0856600467
 10
4.2852626734
 20
18.20213064
 10
4.2849031693
 20
18.3188367984
 10
4.2767657112
 20
18.4352594716
 10
4.2608864903
 20
18.5508808702
 10
4.2373361289
 20
18.6651867684
 10
4.2062193667
 20
18.7776687912
 10
4.1676745952
 20
18.887826675
 10
4.1218732418
 20
18.9951704928
 10
4.0690190074
 20
19.0992228332
 10
4.0093469607
 20
19.1995209237
 10
3.9431224928
 20
19.2956186885
 10
3.8706401363
 20
19.3870887328
 10
3.7922222561
 20
19.4735242437
 10
3.7082176152
 20
19.5545407991
 10
3.6189998238
 20
19.6297780778
 10
3.5249656775
 20
19.6989014619
 10
3.4265333928
 20
19.761603525
 10
3.3241407468
 20
19.8176053993
 10
3.2182431305
 20
19.8666580162
 10
3.1093115232
 20
19.908543214
 10
2.9978303979
 20
19.9430747079
 10
2.8842955667
 20
19.9700989186
 10
2.7692119754
 20
19.9894956557
 10
2.6530914582
 20
20.0011786516
 10
2.536450461
 20
20.0050959459
 10
2.4198077445
 20
20.001230116
 10
2.3036820771
 20
19.9895983545
 10
2.1885899279
 20
19.9702523935
 10
2.0750431692
 20
19.9432782735
 10
1.9635468003
 20
19.9087959615
  0
LWPOLYLINE
  5
2B5
100
AcDbEntity
  8
0
100
AcDbPolyline
 62
7
  6
CONTINUOUS
 90
19
 70
0
 10
3.5979479086
 20
17.7503970066
 10
3.5698338319
 20
17.6865006085
 10
3.5378884913
 20
17.6242091979
 10
3.5022062289
 20
17.5637518819
 10
3.462914583
 20
17.505379279
 10
3.4201186453
 20
17.4492787747
 10
3.3738841595
 20
17.395584874
 10
3.3244017394
 20
17.3445666842
 10
3.2717665585
 20
17.296367148
 10
3.2158623785
 20
17.2509735963
 10
3.1566298904
 20
17.2084940793
 10
3.0943934913
 20
17.1693123026
 10
3.0296311041
 20
17.1338141152
 10
2.9625372209
 20
17.1021553644
 10
2.8933604391
 20
17.0745012483
 10
2.8227448434
 20
17.0511123261
 10
2.7510998092
 20
17.0320732528
 10
2.6785628805
 20
17.0173702251
 10
2.6054024308
 20
17.0070205904
  0
LINE
  5
2B6
100
AcDbEntity
  8
ASSI
100
AcDbLine
 62
7
  6
CONTINUOUS
 10
-2.6639356028
 20
-31.0448849964
 11
-2.6639356028
 21
-28.5447789964
  0
LINE
  5
2B7
100
AcDbEntity
  8
RACCORDO
100
AcDbLine
 62
7
  6
CONTINUOUS
 10
-2.4639356028
 20
-35.5449039964
 11
-2.4639356028
 21
34.4550960036
  0
LWPOLYLINE
  5
2B8
100
AcDbEntity
  8
0
100
AcDbPolyline
 62
7
  6
CONTINUOUS
 90
2
 70
0
 43
0.3500000006
 10
-0.6425070505
 20
45.2050982208
 10
-0.6425070505
 20
46.7050941467
  0
LWPOLYLINE
  5
2B9
100
AcDbEntity
  8
0
100
AcDbPolyline
 62
7
  6
CONTINUOUS
 90
45
 70
0
 10
4.1166244315
 20
17.5038770088
 10
4.1544405826
 20
17.6113416758
 10
4.1850034604
 20
17.7205311631
 10
4.2082496248
 20
17.8309591896
 10
4.2241480348
 20
17.9421385728
 10
4.2326998939
 20
18.0535833742
 10
4.233938355
 20
18.1648110215
 10
4.2279280862
 20
18.2753443971
 10
4.2147647005
 20
18.3847138843
 10
4.1945740539
 20
18.492459363
 10
4.1675114153
 20
18.5981321446
 10
4.1337605134
 20
18.7012968406
 10
4.093532466
 20
18.8015331546
 10
4.0470645966
 20
18.8984375922
 10
3.9946191464
 20
18.9916250808
 10
3.9364818859
 20
19.0807304927
 10
3.8729606351
 20
19.1654100671
 10
3.804383699
 20
19.2453427229
 10
3.731098226
 20
19.3202312598
 10
3.6534684975
 20
19.3898034421
 10
3.5718741566
 20
19.4538129608
 10
3.4867083848
 20
19.5120402725
 10
3.3983760354
 20
19.5642933105
 10
3.3072917314
 20
19.6104080675
 10
3.2138779381
 20
19.6502490473
 10
3.1185630185
 20
19.6837095855
 10
3.0217792799
 20
19.7107120381
 10
2.9239610224
 20
19.7312078389
 10
2.8255425959
 20
19.7451774269
 10
2.7269564752
 20
19.7526300438
 10
2.6286313627
 20
19.7536034055
 10
2.5309903249
 20
19.7481632487
 10
2.4344489729
 20
19.7364027566
 10
2.339413693
 20
19.7184418669
 10
2.2462799367
 20
19.6944264674
 10
2.1554305748
 20
19.6645274816
 10
2.0672343259
 20
19.6289398523
 10
1.9820442619
 20
19.5878814262
 10
1.9001964
 20
19.541591747
 10
1.8220083841
 20
19.4903307629
 10
1.7477782626
 20
19.4343774547
 10
1.6777833661
 20
19.3740283927
 10
1.61227929
 20
19.3095962275
 10
1.551498985
 20
19.2414081246
 10
1.5360643972
 20
19.2216187478
  0
LINE
  5
2BA
100
AcDbEntity
  8
RACCORDO
100
AcDbLine
 62
250
  6
CONTINUOUS
 10
-0.4639356028
 20
-37.5449039964
 11
-0.4639356028
 21
36.4550960036
  0
LINE
  5
2BB
100
AcDbEntity
  8
ASSI
100
AcDbLine
 62
7
  6
CONTINUOUS
 10
1.5360643972
 20
-37.5449039964
 11
1.5360643972
 21
36.4550960036
  0
LWPOLYLINE
  5
2BC
100
AcDbEntity
  8
RACCORDO
100
AcDbPolyline
 62
250
  6
CONTINUOUS
 90
13
 70
0
 10
3.4735643972
 20
15.8050960036
 10
3.4647571013
 20
15.7402439162
 10
3.457330019
 20
15.6763526325
 10
3.4514135996
 20
15.6145443381
 10
3.447111759
 20
15.5559046331
 10
3.4445000548
 20
15.5014634642
 10
3.4436243594
 20
15.4521770354
 10
3.4445000533
 20
15.4089110128
 10
3.447111756
 20
15.3724253202
 10
3.4514135959
 20
15.3433607916
 10
3.4573300158
 20
15.3222279162
 10
3.4647570993
 20
15.3093978712
 10
3.4735643972
 20
15.3050960036
  0
LWPOLYLINE
  5
2BD
100
AcDbEntity
  8
RACCORDO
100
AcDbPolyline
 62
7
  6
CONTINUOUS
 90
7
 70
0
 10
5.5360643972
 20
15.505096073
 10
5.5334466641
 20
15.4749921229
 10
5.527025807
 20
15.4469884416
 10
5.5168018259
 20
15.4210850293
 10
5.5022775822
 20
15.3969859125
 10
5.4839502144
 20
15.3749870646
 10
5.4633111388
 20
15.3559764054
  0
LINE
  5
2BE
100
AcDbEntity
  8
RACCORDO
100
AcDbLine
 62
7
  6
CONTINUOUS
 10
5.5360643972
 20
-21.9449039964
 11
5.5360643972
 21
-25.5449039964
  0
LINE
  5
2BF
100
AcDbEntity
  8
RACCORDO
100
AcDbLine
 62
7
  6
CONTINUOUS
 10
5.5360643972
 20
-16.7449039964
 11
5.5360643972
 21
-13.5203304769
  0
LINE
  5
2C0
100
AcDbEntity
  8
RACCORDO
100
AcDbLine
 62
7
  6
CONTINUOUS
 10
5.5360643972
 20
12.4305224842
 11
5.5360643972
 21
15.6550960036
  0
LINE
  5
2C1
100
AcDbEntity
  8
RACCORDO
100
AcDbLine
 62
7
  6
CONTINUOUS
 10
5.5360643972
 20
20.8550960036
 11
5.5360643972
 21
24.4550960036
  0
LWPOLYLINE
  5
2C2
100
AcDbEntity
  8
RACCORDO
100
AcDbPolyline
 62
7
  6
CONTINUOUS
 90
13
 70
0
 10
5.5360643972
 20
-14.4949039487
 10
5.5334440769
 20
-14.5250127884
 10
5.5270218257
 20
-14.553019278
 10
5.5167976436
 20
-14.5789234177
 10
5.5022748931
 20
-14.6030201067
 10
5.4839502117
 20
-14.6250144458
 10
5.4633135116
 20
-14.6440217365
 10
5.4405613897
 20
-14.6596976009
 10
5.415497249
 20
-14.6723864169
 10
5.3890212119
 20
-14.6822366209
 10
5.3614333191
 20
-14.6892976915
 10
5.3324335298
 20
-14.69352015
 10
5.302021844
 20
-14.6949039964
  0
LWPOLYLINE
  5
2C3
100
AcDbEntity
  8
RACCORDO
100
AcDbPolyline
 62
7
  6
CONTINUOUS
 90
13
 70
0
 10
5.5360643972
 20
-23.6449039508
 10
5.5334426761
 20
-23.6750154422
 10
5.52701967
 20
-23.7030234557
 10
5.5167953788
 20
-23.7289279914
 10
5.5022734361
 20
-23.7530233672
 10
5.4839502083
 20
-23.7750152651
 10
5.4633147949
 20
-23.7940207317
 10
5.4405636647
 20
-23.8096961368
 10
5.4155003489
 20
-23.8223851105
 10
5.3890245396
 20
-23.8322355897
 10
5.3614361345
 20
-23.8392968865
 10
5.332435236
 20
-23.8435196887
 10
5.302021844
 20
-23.8449039964
  0
LWPOLYLINE
  5
2C4
100
AcDbEntity
  8
0
100
AcDbPolyline
 62
7
  6
CONTINUOUS
 90
18
 70
0
 10
1.5360643972
 20
17.5635054347
 10
1.5686756561
 20
17.5261389669
 10
1.6244213331
 20
17.4701648254
 10
1.6833248414
 20
17.4183323864
 10
1.7450850328
 20
17.3708136989
 10
1.8093918583
 20
17.3277592815
 10
1.8759278861
 20
17.2892976992
 10
1.9443698368
 20
17.255535247
 10
2.0143901291
 20
17.2265557394
 10
2.0856584259
 20
17.202420406
 10
2.1578431771
 20
17.1831678928
 10
2.2306131497
 20
17.1688143678
 10
2.3036389382
 20
17.1593537295
 10
2.3765944502
 20
17.154757916
 10
2.449158358
 20
17.1549773124
 10
2.5210155124
 20
17.1599412538
 10
2.5918583103
 20
17.1695586194
 10
2.6613880113
 20
17.1837185161
  0
LWPOLYLINE
  5
2C5
100
AcDbEntity
  8
RACCORDO
100
AcDbPolyline
 62
250
  6
CONTINUOUS
 90
13
 70
0
 10
3.4735643972
 20
-16.3949039964
 10
3.4647570933
 20
-16.3992058641
 10
3.4573300046
 20
-16.4120359092
 10
3.4514135806
 20
-16.4331687851
 10
3.4471117372
 20
-16.4622333141
 10
3.4445000319
 20
-16.4987190073
 10
3.4436243366
 20
-16.5419850304
 10
3.4445000321
 20
-16.5912714596
 10
3.4471117376
 20
-16.6457126287
 10
3.4514135811
 20
-16.7043523337
 10
3.4573300051
 20
-16.7661606277
 10
3.4647570936
 20
-16.8300519104
 10
3.4735643972
 20
-16.8949039964
  0
LINE
  5
2C6
100
AcDbEntity
  8
RACCORDO
100
AcDbLine
 62
250
  6
CONTINUOUS
 10
5.5360643972
 20
13.4050960036
 11
1.5360643972
 21
12.8232778218
  0
LINE
  5
2C7
100
AcDbEntity
  8
RACCORDO
100
AcDbLine
 62
7
  6
CONTINUOUS
 10
5.302021844
 20
13.6050960036
 11
1.5360643972
 21
13.6050960036
  0
LWPOLYLINE
  5
2C8
100
AcDbEntity
  8
RACCORDO
100
AcDbPolyline
 62
7
  6
CONTINUOUS
 90
13
 70
0
 10
5.302021844
 20
13.6050960036
 10
5.3324304285
 20
13.6037124486
 10
5.3614275079
 20
13.5994908298
 10
5.3890130823
 20
13.5924311472
 10
5.4154871651
 20
13.5825827292
 10
5.4405497429
 20
13.5698962474
 10
5.4633007754
 20
13.5542237163
 10
5.4839365468
 20
13.5352228133
 10
5.5022607729
 20
13.5132358609
 10
5.5167845604
 20
13.4891418416
 10
5.5270116114
 20
13.4632337495
 10
5.5334382236
 20
13.4352185904
 10
5.5360643972
 20
13.4050963644
  0
LWPOLYLINE
  5
2C9
100
AcDbEntity
  8
0
100
AcDbPolyline
 62
7
  6
CONTINUOUS
 90
17
 70
0
 10
1.5360643972
 20
16.8190345908
 10
1.5376550391
 20
16.8178490778
 10
1.6356714282
 20
16.754498631
 10
1.7376923246
 20
16.697822101
 10
1.8432639899
 20
16.6480715574
 10
1.9519168934
 20
16.6054682669
 10
2.0631678008
 20
16.5702017084
 10
2.1765219229
 20
16.5424287309
 10
2.2914751165
 20
16.5222728555
 10
2.4075161263
 20
16.5098237263
 10
2.524128859
 20
16.5051367116
 10
2.6407946784
 20
16.5082326575
 10
2.756994712
 20
16.5190977954
 10
2.8722121592
 20
16.5376838032
 10
2.985934589
 20
16.5639080201
 10
3.0976562196
 20
16.5976538142
 10
3.2068801677
 20
16.6387711015
  0
LWPOLYLINE
  5
2CA
100
AcDbEntity
  8
0
100
AcDbPolyline
 62
7
  6
CONTINUOUS
 90
10
 70
0
 10
2.6613880113
 20
17.1837185161
 10
2.7293159973
 20
17.2022910449
 10
2.7953649706
 20
17.2251281472
 10
2.8592700837
 20
17.2520645262
 10
2.9207799982
 20
17.2829186369
 10
2.9796578675
 20
17.3174937415
 10
3.0356822397
 20
17.3555790219
 10
3.0886478769
 20
17.3969507452
 10
3.1383664893
 20
17.4413734762
 10
3.1846673796
 20
17.4886013295
  0
LINE
  5
2CB
100
AcDbEntity
  8
RACCORDO
100
AcDbLine
 62
7
  6
CONTINUOUS
 10
5.302021844
 20
15.3050960036
 11
1.5360643972
 21
15.3050960036
  0
LINE
  5
2CC
100
AcDbEntity
  8
RACCORDO
100
AcDbLine
 62
250
  6
CONTINUOUS
 10
5.5247503939
 20
15.8050960036
 11
3.4735643972
 21
15.8050960036
  0
LINE
  5
2CD
100
AcDbEntity
  8
ASSI
100
AcDbLine
 62
7
  6
CONTINUOUS
 10
4.5360643972
 20
16.6550960036
 11
3.2446265139
 21
16.6550960036
  0
LINE
  5
2CE
100
AcDbEntity
  8
ASSI
100
AcDbLine
 62
7
  6
CONTINUOUS
 10
1.829091482
 20
16.6550960036
 11
1.5360643972
 21
16.6550960036
  0
LINE
  5
2CF
100
AcDbEntity
  8
RACCORDO
100
AcDbLine
 62
250
  6
CONTINUOUS
 10
1.9679635653
 20
15.9237327202
 11
1.5360643972
 21
15.9518763911
  0
LINE
  5
2D0
100
AcDbEntity
  8
RACCORDO
100
AcDbLine
 62
250
  6
CONTINUOUS
 10
2.4060843139
 20
15.8927706354
 11
1.9679635653
 21
15.9237327202
  0
LINE
  5
2D1
100
AcDbEntity
  8
RACCORDO
100
AcDbLine
 62
250
  6
CONTINUOUS
 10
2.8272498528
 20
15.8604309906
 11
2.4060843139
 21
15.8927706354
  0
LINE
  5
2D2
100
AcDbEntity
  8
RACCORDO
100
AcDbLine
 62
250
  6
CONTINUOUS
 10
3.0954029031
 20
15.8383731044
 11
2.8272498528
 21
15.8604309906
  0
LWPOLYLINE
  5
2D3
100
AcDbEntity
  8
RACCORDO
100
AcDbPolyline
 62
250
  6
CONTINUOUS
 90
3
 70
0
 10
3.4735643972
 20
15.8050960036
 10
3.3506218063
 20
15.8162209771
 10
3.0954029031
 20
15.8383731044
  0
LINE
  5
2D4
100
AcDbEntity
  8
RACCORDO
100
AcDbLine
 62
250
  6
CONTINUOUS
 10
5.5360643972
 20
15.5050960036
 11
3.4735643972
 21
15.8050960036
  0
LINE
  5
2D5
100
AcDbEntity
  8
0
100
AcDbLine
 62
7
  6
CONTINUOUS
 10
3.5979479086
 20
17.7503970066
 11
4.1166244315
 21
17.5038770088
  0
LWPOLYLINE
  5
2D6
100
AcDbEntity
  8
0
100
AcDbPolyline
 62
7
  6
CONTINUOUS
 90
19
 70
0
 10
2.5360643972
 20
17.2304301396
 10
2.4642825573
 20
17.2308925909
 10
2.3925823078
 20
17.2363856761
 10
2.3213163224
 20
17.2468990357
 10
2.2507737985
 20
17.2624135959
 10
2.1813680458
 20
17.2828623593
 10
2.1136232471
 20
17.3080870313
 10
2.0479874232
 20
17.3378795755
 10
1.9846364521
 20
17.3721176189
 10
1.9236774238
 20
17.4107421941
 10
1.8654256674
 20
17.4535782797
 10
1.810162112
 20
17.5004452834
 10
1.7579808458
 20
17.5513293567
 10
1.709080158
 20
17.6061714872
 10
1.6638822118
 20
17.6646439052
 10
1.6227974682
 20
17.7263052904
 10
1.5860174402
 20
17.7909372758
 10
1.5537962556
 20
17.8581709382
 10
1.5360643972
 20
17.9030047186
  0
LWPOLYLINE
  5
2D7
100
AcDbEntity
  8
0
100
AcDbPolyline
 62
7
  6
CONTINUOUS
 90
31
 70
0
 10
2.5360643972
 20
19.371799184
 10
2.6109270166
 20
19.3712534382
 10
2.6859369163
 20
19.3656619001
 10
2.7607518501
 20
19.3549874824
 10
2.835054169
 20
19.3392089248
 10
2.9084615112
 20
19.3183396345
 10
2.9805336362
 20
19.2924484991
 10
3.0510435646
 20
19.2615548668
 10
3.119519544
 20
19.2258012234
 10
3.1852088706
 20
19.1855863327
 10
3.2476272498
 20
19.1413028961
 10
3.3067484302
 20
19.093070028
 10
3.3625453263
 20
19.0409439248
 10
3.4148318674
 20
18.9850809384
 10
3.4632947487
 20
18.9257971702
 10
3.5077070586
 20
18.8633682738
 10
3.5478251037
 20
18.7981526667
 10
3.5835246692
 20
18.7303699807
 10
3.614744173
 20
18.6600824287
 10
3.6413634745
 20
18.5873815805
 10
3.6631222037
 20
18.5127660857
 10
3.6798036223
 20
18.436928148
 10
3.6913270931
 20
18.3604575229
 10
3.697724581
 20
18.2834641801
 10
3.6989853116
 20
18.2059369026
 10
3.6950399187
 20
18.1280214259
 10
3.6858487543
 20
18.0502664435
 10
3.6714576173
 20
17.9732610519
 10
3.6519541445
 20
17.8974285188
 10
3.6274141677
 20
17.8230296894
 10
3.5979479086
 20
17.7503970066
  0
LINE
  5
2D8
100
AcDbEntity
  8
RACCORDO
100
AcDbLine
 62
250
  6
CONTINUOUS
 10
5.5360643972
 20
22.5550960036
 11
1.5360643972
 21
21.9732778218
  0
LINE
  5
2D9
100
AcDbEntity
  8
ASSI
100
AcDbLine
 62
7
  6
CONTINUOUS
 10
4.5360643972
 20
19.8550960036
 11
3.2426877118
 21
19.8550960036
  0
LINE
  5
2DA
100
AcDbEntity
  8
ASSI
100
AcDbLine
 62
7
  6
CONTINUOUS
 10
1.8293964417
 20
19.8550960036
 11
1.5360643972
 21
19.8550960036
  0
LINE
  5
2DB
100
AcDbEntity
  8
ASSI
100
AcDbLine
 62
250
  6
CONTINUOUS
 10
5.5247503939
 20
20.7050960036
 11
1.5360643972
 21
20.7050960036
  0
LINE
  5
2DC
100
AcDbEntity
  8
RACCORDO
100
AcDbLine
 62
7
  6
CONTINUOUS
 10
5.302021844
 20
22.7550960036
 11
1.5360643972
 21
22.7550960036
  0
LINE
  5
2DD
100
AcDbEntity
  8
SMUSSO
100
AcDbLine
 62
7
  6
CONTINUOUS
 10
5.5360643972
 20
24.4550960036
 11
1.5360643972
 21
24.4550960036
  0
LWPOLYLINE
  5
2DE
100
AcDbEntity
  8
RACCORDO
100
AcDbPolyline
 62
7
  6
CONTINUOUS
 90
13
 70
0
 10
5.302021844
 20
22.7550960036
 10
5.3324254781
 20
22.75371374
 10
5.3614192799
 20
22.7494931366
 10
5.3890032495
 20
22.7424341936
 10
5.4154777842
 20
22.7325866981
 10
5.4405424868
 20
22.7199008628
 10
5.4632961647
 20
22.7042273261
 10
5.4839354553
 20
22.6852218295
 10
5.5022637213
 20
22.6632286314
 10
5.5167898589
 20
22.6391311445
 10
5.5270168334
 20
22.6132238399
 10
5.5334416795
 20
22.5852122465
 10
5.5360643972
 20
22.5550963644
  0
LINE
  5
2DF
100
AcDbEntity
  8
RACCORDO
100
AcDbLine
 62
250
  6
CONTINUOUS
 10
1.5360643972
 20
28.9550960036
 11
-2.4639356028
 21
28.9550960036
  0
LINE
  5
2E0
100
AcDbEntity
  8
RACCORDO
100
AcDbLine
 62
7
  6
CONTINUOUS
 10
1.5360643972
 20
36.4550960036
 11
-0.4639356028
 21
36.4550960036
  0
LWPOLYLINE
  5
2E1
100
AcDbEntity
  8
0
100
AcDbPolyline
 62
7
  6
CONTINUOUS
 90
3
 70
0
 43
0.3500000006
 10
-0.1425070307
 20
45.8479516754
 10
-1.6425070724
 20
45.8479516754
 10
-0.9996498649
 20
48.2050946045
  0
ARC
  5
2E2
100
AcDbEntity
  8
RACCORDO
100
AcDbCircle
 62
7
  6
CONTINUOUS
 10
149.7679737527
 20
-30.0449039964
 40
7.5
100
AcDbArc
 50
270.0
 51
360.0
  0
ARC
  5
2E3
100
AcDbEntity
  8
RACCORDO
100
AcDbCircle
 62
7
  6
CONTINUOUS
 10
149.7679737527
 20
28.9550960036
 40
7.5
100
AcDbArc
 50
0.0
 51
90.0
  0
ARC
  5
2E4
100
AcDbEntity
  8
RACCORDO
100
AcDbCircle
 62
7
  6
CONTINUOUS
 10
48.7679737527
 20
28.9550960036
 40
7.5
100
AcDbArc
 50
90.0
 51
180.0
  0
ARC
  5
2E5
100
AcDbEntity
  8
RACCORDO
100
AcDbCircle
 62
7
  6
CONTINUOUS
 10
48.7679737527
 20
-30.0449039964
 40
7.5
100
AcDbArc
 50
180.0
 51
270.0
  0
ARC
  5
2E6
100
AcDbEntity
  8
RACCORDO
100
AcDbCircle
 62
250
  6
CONTINUOUS
 10
48.7679737527
 20
-30.0449039964
 40
5.4999994953
100
AcDbArc
 50
180.0
 51
270.0
  0
ARC
  5
2E7
100
AcDbEntity
  8
RACCORDO
100
AcDbCircle
 62
250
  6
CONTINUOUS
 10
149.7679737527
 20
-30.0449039964
 40
5.4999994953
100
AcDbArc
 50
270.0
 51
360.0
  0
ARC
  5
2E8
100
AcDbEntity
  8
RACCORDO
100
AcDbCircle
 62
250
  6
CONTINUOUS
 10
149.7679737527
 20
28.9550960036
 40
5.4999994953
100
AcDbArc
 50
0.0
 51
90.0
  0
ARC
  5
2E9
100
AcDbEntity
  8
RACCORDO
100
AcDbCircle
 62
250
  6
CONTINUOUS
 10
48.7679737527
 20
28.9550960036
 40
5.4999994953
100
AcDbArc
 50
90.0
 51
180.0
  0
CIRCLE
  5
2EA
100
AcDbEntity
  8
DRAFT
100
AcDbCircle
 62
7
  6
CONTINUOUS
 10
141.0179737527
 20
-0.5449039964
 40
3.5
  0
CIRCLE
  5
2EB
100
AcDbEntity
  8
DRAFT
100
AcDbCircle
 62
7
  6
CONTINUOUS
 10
57.5179737527
 20
-0.5449039964
 40
3.5
  0
CIRCLE
  5
2EC
100
AcDbEntity
  8
RACCORDO
100
AcDbCircle
 62
250
  6
CONTINUOUS
 10
57.5179737527
 20
-0.5449039964
 40
3.1040654166
  0
CIRCLE
  5
2ED
100
AcDbEntity
  8
RACCORDO
100
AcDbCircle
 62
250
  6
CONTINUOUS
 10
141.0179737527
 20
-0.5449039964
 40
3.1040654166
  0
CIRCLE
  5
2EE
100
AcDbEntity
  8
RACCORDO
100
AcDbCircle
 62
250
  6
CONTINUOUS
 10
57.5179737527
 20
-0.5449039964
 40
2.8142810451
  0
CIRCLE
  5
2EF
100
AcDbEntity
  8
RACCORDO
100
AcDbCircle
 62
250
  6
CONTINUOUS
 10
141.0179737527
 20
-0.5449039964
 40
2.8142810451
  0
ARC
  5
2F0
100
AcDbEntity
  8
ASSI
100
AcDbCircle
 62
7
  6
CONTINUOUS
 10
141.0179737527
 20
-0.5449039964
 40
2.15
100
AcDbArc
 50
300.6311537056
 51
59.3688462944
  0
ARC
  5
2F1
100
AcDbEntity
  8
ASSI
100
AcDbCircle
 62
7
  6
CONTINUOUS
 10
141.0179737527
 20
-0.5449039964
 40
2.15
100
AcDbArc
 50
120.6311537056
 51
239.3688462944
  0
ARC
  5
2F2
100
AcDbEntity
  8
ASSI
100
AcDbCircle
 62
7
  6
CONTINUOUS
 10
57.5179737527
 20
-0.5449039964
 40
2.15
100
AcDbArc
 50
300.6311537056
 51
59.3688462944
  0
ARC
  5
2F3
100
AcDbEntity
  8
ASSI
100
AcDbCircle
 62
7
  6
CONTINUOUS
 10
57.5179737527
 20
-0.5449039964
 40
2.15
100
AcDbArc
 50
120.6311537056
 51
239.3688462944
  0
ARC
  5
2F4
100
AcDbEntity
  8
ASSI
100
AcDbCircle
 62
7
  6
CONTINUOUS
 10
150.5953107527
 20
-29.3114929964
 40
0.7667158029
100
AcDbArc
 50
292.8428787052
 51
89.9993211627
  0
ARC
  5
2F5
100
AcDbEntity
  8
ASSI
100
AcDbCircle
 62
7
  6
CONTINUOUS
 10
150.5259097527
 20
-29.3114929964
 40
0.304194
100
AcDbArc
 50
270.0014058934
 51
90.0007029398
  0
ARC
  5
2F6
100
AcDbEntity
  8
RACCORDO
100
AcDbCircle
 62
7
  6
CONTINUOUS
 10
-0.4639356028
 20
-35.5449039964
 40
2.0
100
AcDbArc
 50
180.0
 51
270.0
  0
ARC
  5
2F7
100
AcDbEntity
  8
RACCORDO
100
AcDbCircle
 62
7
  6
CONTINUOUS
 10
-0.4639356028
 20
34.4550960036
 40
2.0
100
AcDbArc
 50
90.0
 51
180.0
  0
ARC
  5
2F8
100
AcDbEntity
  8
RACCORDO
100
AcDbCircle
 62
7
  6
CONTINUOUS
 10
2.5360643972
 20
-19.3449039964
 40
2.4543457495
100
AcDbArc
 50
245.9487284901
 51
114.051271511
  0
ARC
  5
2F9
100
AcDbEntity
  8
RACCORDO
100
AcDbCircle
 62
250
  6
CONTINUOUS
 10
2.5360643972
 20
-19.3449039964
 40
2.4524430979
100
AcDbArc
 50
245.9292347621
 51
114.0707644243
  0
ARC
  5
2FA
100
AcDbEntity
  8
0
100
AcDbCircle
 62
7
  6
CONTINUOUS
 10
2.5360643972
 20
-19.3449039964
 40
2.4300090692
100
AcDbArc
 50
346.9185122749
 51
13.0814877251
  0
ARC
  5
2FB
100
AcDbEntity
  8
0
100
AcDbCircle
 62
250
  6
CONTINUOUS
 10
2.5360643972
 20
-19.3449039964
 40
2.3779174523
100
AcDbArc
 50
13.3733154669
 51
114.8746672608
  0
ARC
  5
2FC
100
AcDbEntity
  8
0
100
AcDbCircle
 62
250
  6
CONTINUOUS
 10
2.5360643972
 20
-19.3449039964
 40
2.3779174523
100
AcDbArc
 50
245.1254974902
 51
346.6266845331
  0
ARC
  5
2FD
100
AcDbEntity
  8
0
100
AcDbCircle
 62
250
  6
CONTINUOUS
 10
2.5360643972
 20
-19.3449039964
 40
2.1721512388
100
AcDbArc
 50
14.667261117
 51
117.4243721358
  0
ARC
  5
2FE
100
AcDbEntity
  8
0
100
AcDbCircle
 62
250
  6
CONTINUOUS
 10
2.5360643972
 20
-19.3449039964
 40
2.1721512388
100
AcDbArc
 50
242.5756279129
 51
345.332738883
  0
ARC
  5
2FF
100
AcDbEntity
  8
ASSI
100
AcDbCircle
 62
7
  6
CONTINUOUS
 10
4.5360643972
 20
-21.9449039964
 40
1.0
100
AcDbArc
 50
0.0
 51
90.0
  0
ARC
  5
300
100
AcDbEntity
  8
ASSI
100
AcDbCircle
 62
7
  6
CONTINUOUS
 10
4.5360643972
 20
-16.7449039964
 40
1.0
100
AcDbArc
 50
270.0
 51
360.0
  0
ARC
  5
301
100
AcDbEntity
  8
RACCORDO
100
AcDbCircle
 62
7
  6
CONTINUOUS
 10
2.5360643972
 20
18.2550960036
 40
2.4543457495
100
AcDbArc
 50
319.4117646176
 51
40.5882352632
  0
ARC
  5
302
100
AcDbEntity
  8
RACCORDO
100
AcDbCircle
 62
250
  6
CONTINUOUS
 10
2.5360643972
 20
18.2550960036
 40
1.9543457079
100
AcDbArc
 50
305.0341307913
 51
54.9659067421
  0
ARC
  5
303
100
AcDbEntity
  8
0
100
AcDbCircle
 62
7
  6
CONTINUOUS
 10
2.5360643972
 20
18.2550960036
 40
1.8
100
AcDbArc
 50
297.2170241772
 51
62.7829758228
  0
ARC
  5
304
100
AcDbEntity
  8
0
100
AcDbCircle
 62
7
  6
CONTINUOUS
 10
2.5360643972
 20
18.2550960036
 40
1.8
100
AcDbArc
 50
117.2170241772
 51
123.7490146868
  0
ARC
  5
305
100
AcDbEntity
  8
0
100
AcDbCircle
 62
7
  6
CONTINUOUS
 10
2.5360643972
 20
18.2550960036
 40
1.8
100
AcDbArc
 50
236.2509853132
 51
242.7829758228
  0
ARC
  5
306
100
AcDbEntity
  8
0
100
AcDbCircle
 62
7
  6
CONTINUOUS
 10
2.5360643972
 20
18.2550960036
 40
1.25
100
AcDbArc
 50
216.860491196
 51
273.1798534867
  0
ARC
  5
307
100
AcDbEntity
  8
ASSI
100
AcDbCircle
 62
7
  6
CONTINUOUS
 10
4.5360643972
 20
15.6550960036
 40
1.0
100
AcDbArc
 50
0.0
 51
90.0
  0
ARC
  5
308
100
AcDbEntity
  8
ASSI
100
AcDbCircle
 62
7
  6
CONTINUOUS
 10
4.5360643972
 20
20.8550960036
 40
1.0
100
AcDbArc
 50
270.0
 51
360.0
  0
ENDSEC
  0
SECTION
  2
OBJECTS
  0
DICTIONARY
  5
C
100
AcDbDictionary
280
0
281
1
  3
ACAD_GROUP
350
D
  3
ACAD_MLINESTYLE
350
17
  3
ACAD_LAYOUT
350
1A
  3
ACAD_PLOTSETTINGS
350
19
  3
ACAD_PLOTSTYLENAME
350
E
  0
DICTIONARY
  5
D
102
{ACAD_REACTORS
330
C
102
}
100
AcDbDictionary
280
0
281
1
  0
ACDBDICTIONARYWDFLT
  5
E
102
{ACAD_REACTORS
330
C
102
}
100
AcDbDictionary
281
1
  3
Normal
350
F
100
AcDbDictionaryWithDefault
340
F
  0
DICTIONARY
  5
17
102
{ACAD_REACTORS
330
C
102
}
100
AcDbDictionary
280
0
281
1
  3
Standard
350
18
  0
DICTIONARY
  5
19
102
{ACAD_REACTORS
330
C
102
}
100
AcDbDictionary
281
1
  0
DICTIONARY
  5
1A
102
{ACAD_REACTORS
330
C
102
}
100
AcDbDictionary
281
1
  3
Model
350
309
  3
Layout1
350
30A
  0
ACDBPLACEHOLDER
  5
F
102
{ACAD_REACTORS
330
E
102
}
  0
MLINESTYLE
  5
18
102
{ACAD_REACTORS
330
17
102
}
100
AcDbMlineStyle
  2
STANDARD
 70
0
  3

 62
256
 51
90.0
 52
90.0
 71
2
 49
0.5
 62
256
  6
BYLAYER
 49
-0.5
 62
256
  6
BYLAYER
  0
LAYOUT
  5
309
102
{ACAD_REACTORS
330
1A
102
}
100
AcDbPlotSettings
  1

  2
none_device
  4
ISO_A4_(297.00_x_210.00_MM)
  6

 40
0.0
 41
0.0
 42
0.0
 43
0.0
 44
297.0
 45
210.0
 46
0.0
 47
0.0
 48
0.0
 49
0.0
140
0.0
141
0.0
142
1.0
143
1.0
 70
1024
 72
1
 73
0
 74
0
  7

 75
0
147
1.0
148
0.0
149
0.0
100
AcDbLayout
  1
Model
 70
0
 71
0
 10
0.0
 20
0.0
 11
297.0
 21
210.0
 12
0.0
 22
0.0
 32
0.0
 14
0.0
 24
0.0
 34
0.0
 15
0.0
 25
0.0
 35
0.0
146
0.0
 13
0.0
 23
0.0
 33
0.0
 16
1.0
 26
0.0
 36
0.0
 17
0.0
 27
1.0
 37
0.0
 76
0
330
213
345
0
346
0
  0
LAYOUT
  5
30A
102
{ACAD_REACTORS
330
1A
102
}
100
AcDbPlotSettings
  1

  2
none_device
  4
ISO_A4_(297.00_x_210.00_MM)
  6

 40
0.0
 41
0.0
 42
0.0
 43
0.0
 44
297.0
 45
210.0
 46
0.0
 47
0.0
 48
0.0
 49
0.0
140
0.0
141
0.0
142
1.0
143
1.0
 70
0
 72
1
 73
0
 74
0
  7

 75
0
147
1.0
148
0.0
149
0.0
100
AcDbLayout
  1
Layout1
 70
0
 71
1
 10
0.0
 20
0.0
 11
297.0
 21
210.0
 12
0.0
 22
0.0
 32
0.0
 14
0.0
 24
0.0
 34
0.0
 15
0.0
 25
0.0
 35
0.0
146
0.0
 13
0.0
 23
0.0
 33
0.0
 16
1.0
 26
0.0
 36
0.0
 17
0.0
 27
1.0
 37
0.0
 76
0
330
214
345
0
346
0
  0
ENDSEC
  0
EOF
