  0
SECTION
  2
HEADER
  9
$ACADVER
  1
AC1027
  9
$DWGCODEPAGE
  3
ANSI_1252
  9
$EXTMAX
 10
297.0
 20
210.0
 30
0.0
  9
$EXTMIN
 10
0.0
 20
0.0
 30
0.0
  9
$LIMMIN
 10
0.0
 20
0.0
  9
$LIMMAX
 10
297.0
 20
210.0
  9
$VIEWCTR
 10
148.5
 20
105.0
  9
$VIEWSIZE
 40
210.0
  9
$CLAYER
  8
0
  9
$LTSCALE
 40
16.335
  9
$CELTYPE
  6
BYLAYER
  9
$DIMSCALE
 40
1.0
  9
$DIMASZ
 40
3.0
  9
$DIMEXO
 40
0.5
  9
$DIMDLI
 40
11.286
  9
$DIMEXE
 40
1.5
  9
$DIMCEN
 40
2.673
  9
$DIMLFAC
 40
1.0
  9
$DIMBLK
  1
_FILLED
  9
$DIMALT
 70
0
  9
$DIMALTF
 40
0.0393700787
  9
$DIMTXT
 40
3.0
  9
$DIMTOL
 70
1
  9
$DIMLIM
 70
0
  9
$DIMTFAC
 40
1.0
  9
$DIMTP
 40
0.01
  9
$DIMTM
 40
0.01
  9
$DIMGAP
 40
0.625
  9
$DIMDSEP
 70
44
  9
$AUNITS
 70
0
  9
$PDMODE
 70
3
  9
$PDSIZE
 40
3.0
  9
$HANDSEED
  5
39D
  9
$TILEMODE
 70
1
  9
$MEASUREMENT
 70
1
  9
$INSUNITS
 70
4
  0
ENDSEC
  0
SECTION
  2
CLASSES
  0
CLASS
  1
ACDBDICTIONARYWDFLT
  2
AcDbDictionaryWithDefault
  3
AutoCAD 2000
 90
0
 91
1
280
0
281
0
  0
CLASS
  1
ACDBPLACEHOLDER
  2
AcDbPlaceHolder
  3
AutoCAD 2000
 90
0
 91
1
280
0
281
0
  0
CLASS
  1
LAYOUT
  2
AcDbLayout
  3
AutoCAD 2000
 90
0
 91
0
280
0
281
0
  0
ENDSEC
  0
SECTION
  2
TABLES
  0
TABLE
  2
VPORT
  5
8
100
AcDbSymbolTable
 70
2
  0
VPORT
  5
1F4
100
AcDbSymbolTableRecord
100
AcDbViewportTableRecord
  2
*ACTIVE
 70
0
 10
0.0
 20
0.0
 11
1.0
 21
1.0
 12
148.5
 22
105.0
 13
0.0
 23
0.0
 14
1.0
 24
1.0
 15
0.0
 25
0.0
 16
0.0
 26
0.0
 36
1.0
 17
0.0
 27
0.0
 37
0.0
 40
210.0
 41
1.4142857143
 42
50.0
 43
0.0
 44
0.0
 50
0.0
 51
0.0
 71
0
 72
100
 73
1
 74
1
 75
0
 76
0
 77
0
 78
0
  0
ENDTAB
  0
TABLE
  2
LTYPE
  5
5
100
AcDbSymbolTable
 70
6
  0
LTYPE
  5
14
100
AcDbSymbolTableRecord
100
AcDbLinetypeTableRecord
  2
BYBLOCK
 70
0
  3

 72
65
 73
0
 40
0.0
  0
LTYPE
  5
15
100
AcDbSymbolTableRecord
100
AcDbLinetypeTableRecord
  2
BYLAYER
 70
0
  3

 72
65
 73
0
 40
0.0
  0
LTYPE
  5
16
100
AcDbSymbolTableRecord
100
AcDbLinetypeTableRecord
  2
CONTINUOUS
 70
64
  3
Solid line
 72
65
 73
0
 40
0.0
  0
LTYPE
  5
1F5
100
AcDbSymbolTableRecord
100
AcDbLinetypeTableRecord
  2
CENTER
 70
64
  3
____ _ ____ _ ____ _ ____ _ ____ _ ____ _ ____
 72
65
 73
4
 40
0.6
 49
0.375
 74
0
 49
-0.075
 74
0
 49
0.075
 74
0
 49
-0.075
 74
0
  0
LTYPE
  5
1F6
100
AcDbSymbolTableRecord
100
AcDbLinetypeTableRecord
  2
HIDDEN
 70
64
  3
- - - - - - - - - - - - - - - - - - - -
 72
65
 73
2
 40
0.2
 49
0.1
 74
0
 49
-0.1
 74
0
  0
LTYPE
  5
1F7
100
AcDbSymbolTableRecord
100
AcDbLinetypeTableRecord
  2
PHANTOM
 70
64
  3
_____ _ _ _____ _ _ _____ _ _ _____
 72
65
 73
6
 40
0.8
 49
0.45
 74
0
 49
-0.05
 74
0
 49
0.1
 74
0
 49
-0.05
 74
0
 49
0.1
 74
0
 49
-0.05
 74
0
  0
LTYPE
  5
1F8
100
AcDbSymbolTableRecord
100
AcDbLinetypeTableRecord
  2
DOT
 70
64
  3
. . . . . . . . . . . . . . . . . . . .
 72
65
 73
2
 40
0.2
 49
0.1
 74
0
 49
-0.1
 74
0
  0
LTYPE
  5
1F9
100
AcDbSymbolTableRecord
100
AcDbLinetypeTableRecord
  2
DASHED
 70
64
  3
- - - - - - - - - - - - - - - - - - - -
 72
65
 73
2
 40
0.2
 49
0.1
 74
0
 49
-0.1
 74
0
  0
ENDTAB
  0
TABLE
  2
LAYER
  5
2
100
AcDbSymbolTable
 70
36
  0
LAYER
  5
10
100
AcDbSymbolTableRecord
100
AcDbLayerTableRecord
  2
0
 70
0
 62
7
  6
CONTINUOUS
370
-3
390
F
  0
LAYER
  5
1FA
100
AcDbSymbolTableRecord
100
AcDbLayerTableRecord
  2
DEFAULT_1
 70
0
 62
7
  6
CENTER
370
-3
390
F
  0
LAYER
  5
1FB
100
AcDbSymbolTableRecord
100
AcDbLayerTableRecord
  2
DEFAULT_2
 70
0
 62
7
  6
HIDDEN
370
-3
390
F
  0
LAYER
  5
1FC
100
AcDbSymbolTableRecord
100
AcDbLayerTableRecord
  2
DEFAULT_3
 70
0
 62
7
  6
PHANTOM
370
-3
390
F
  0
LAYER
  5
1FD
100
AcDbSymbolTableRecord
100
AcDbLayerTableRecord
  2
ASM0001_ASM_20
 70
0
 62
7
  6
CONTINUOUS
370
-3
390
F
  0
LAYER
  5
1FE
100
AcDbSymbolTableRecord
100
AcDbLayerTableRecord
  2
ASSI
 70
0
 62
7
  6
CONTINUOUS
370
-3
390
F
  0
LAYER
  5
1FF
100
AcDbSymbolTableRecord
100
AcDbLayerTableRecord
  2
COORDINATE
 70
0
 62
7
  6
CONTINUOUS
370
-3
390
F
  0
LAYER
  5
200
100
AcDbSymbolTableRecord
100
AcDbLayerTableRecord
  2
COPY_PUBLISH
 70
0
 62
7
  6
CONTINUOUS
370
-3
390
F
  0
LAYER
  5
201
100
AcDbSymbolTableRecord
100
AcDbLayerTableRecord
  2
COSMETICI
 70
0
 62
7
  6
CONTINUOUS
370
-3
390
F
  0
LAYER
  5
202
100
AcDbSymbolTableRecord
100
AcDbLayerTableRecord
  2
CURVE
 70
0
 62
7
  6
CONTINUOUS
370
-3
390
F
  0
LAYER
  5
203
100
AcDbSymbolTableRecord
100
AcDbLayerTableRecord
  2
DRAFT
 70
0
 62
7
  6
CONTINUOUS
370
-3
390
F
  0
LAYER
  5
204
100
AcDbSymbolTableRecord
100
AcDbLayerTableRecord
  2
IMPORT_IGES
 70
0
 62
7
  6
CONTINUOUS
370
-3
390
F
  0
LAYER
  5
205
100
AcDbSymbolTableRecord
100
AcDbLayerTableRecord
  2
INTFCLR_14
 70
0
 62
7
  6
CONTINUOUS
370
-3
390
F
  0
LAYER
  5
206
100
AcDbSymbolTableRecord
100
AcDbLayerTableRecord
  2
INTFCLR_14_1
 70
0
 62
7
  6
CONTINUOUS
370
-3
390
F
  0
LAYER
  5
207
100
AcDbSymbolTableRecord
100
AcDbLayerTableRecord
  2
INTFCLR_15
 70
0
 62
7
  6
CONTINUOUS
370
-3
390
F
  0
LAYER
  5
208
100
AcDbSymbolTableRecord
100
AcDbLayerTableRecord
  2
INTFCLR_7
 70
0
 62
7
  6
CONTINUOUS
370
-3
390
F
  0
LAYER
  5
209
100
AcDbSymbolTableRecord
100
AcDbLayerTableRecord
  2
INTFCLR_8
 70
0
 62
7
  6
CONTINUOUS
370
-3
390
F
  0
LAYER
  5
20A
100
AcDbSymbolTableRecord
100
AcDbLayerTableRecord
  2
INTF_CYAN
 70
0
 62
7
  6
CONTINUOUS
370
-3
390
F
  0
LAYER
  5
20B
100
AcDbSymbolTableRecord
100
AcDbLayerTableRecord
  2
INTF_GREEN
 70
0
 62
7
  6
CONTINUOUS
370
-3
390
F
  0
LAYER
  5
20C
100
AcDbSymbolTableRecord
100
AcDbLayerTableRecord
  2
NOTE
 70
0
 62
7
  6
CONTINUOUS
370
-3
390
F
  0
LAYER
  5
20D
100
AcDbSymbolTableRecord
100
AcDbLayerTableRecord
  2
P2LJ-3X6_5
 70
0
 62
7
  6
CONTINUOUS
370
-3
390
F
  0
LAYER
  5
20E
100
AcDbSymbolTableRecord
100
AcDbLayerTableRecord
  2
P2LJ-3X6_5_1
 70
0
 62
7
  6
CONTINUOUS
370
-3
390
F
  0
LAYER
  5
20F
100
AcDbSymbolTableRecord
100
AcDbLayerTableRecord
  2
P2LJ-3X6_5_2
 70
0
 62
7
  6
CONTINUOUS
370
-3
390
F
  0
LAYER
  5
210
100
AcDbSymbolTableRecord
100
AcDbLayerTableRecord
  2
PIANI
 70
0
 62
7
  6
CONTINUOUS
370
-3
390
F
  0
LAYER
  5
211
100
AcDbSymbolTableRecord
100
AcDbLayerTableRecord
  2
PRT0001_35
 70
0
 62
7
  6
CONTINUOUS
370
-3
390
F
  0
LAYER
  5
212
100
AcDbSymbolTableRecord
100
AcDbLayerTableRecord
  2
PRT0002_12
 70
0
 62
7
  6
CONTINUOUS
370
-3
390
F
  0
LAYER
  5
213
100
AcDbSymbolTableRecord
100
AcDbLayerTableRecord
  2
PRT0003_14
 70
0
 62
7
  6
CONTINUOUS
370
-3
390
F
  0
LAYER
  5
214
100
AcDbSymbolTableRecord
100
AcDbLayerTableRecord
  2
PRT0004_18
 70
0
 62
7
  6
CONTINUOUS
370
-3
390
F
  0
LAYER
  5
215
100
AcDbSymbolTableRecord
100
AcDbLayerTableRecord
  2
PRT0004_18_1
 70
0
 62
7
  6
CONTINUOUS
370
-3
390
F
  0
LAYER
  5
216
100
AcDbSymbolTableRecord
100
AcDbLayerTableRecord
  2
PRT0004_18_2
 70
0
 62
7
  6
CONTINUOUS
370
-3
390
F
  0
LAYER
  5
217
100
AcDbSymbolTableRecord
100
AcDbLayerTableRecord
  2
PRT0004_18_3
 70
0
 62
7
  6
CONTINUOUS
370
-3
390
F
  0
LAYER
  5
218
100
AcDbSymbolTableRecord
100
AcDbLayerTableRecord
  2
PRT0005_28
 70
0
 62
7
  6
CONTINUOUS
370
-3
390
F
  0
LAYER
  5
219
100
AcDbSymbolTableRecord
100
AcDbLayerTableRecord
  2
PRT0020_2
 70
0
 62
7
  6
CONTINUOUS
370
-3
390
F
  0
LAYER
  5
21A
100
AcDbSymbolTableRecord
100
AcDbLayerTableRecord
  2
PRT0022_1
 70
0
 62
7
  6
CONTINUOUS
370
-3
390
F
  0
LAYER
  5
21B
100
AcDbSymbolTableRecord
100
AcDbLayerTableRecord
  2
PUNTI
 70
0
 62
7
  6
CONTINUOUS
370
-3
390
F
  0
LAYER
  5
21C
100
AcDbSymbolTableRecord
100
AcDbLayerTableRecord
  2
RACCORDO
 70
0
 62
7
  6
CONTINUOUS
370
-3
390
F
  0
LAYER
  5
21D
100
AcDbSymbolTableRecord
100
AcDbLayerTableRecord
  2
SIMBOLI
 70
0
 62
7
  6
CONTINUOUS
370
-3
390
F
  0
LAYER
  5
21E
100
AcDbSymbolTableRecord
100
AcDbLayerTableRecord
  2
SMUSSO
 70
0
 62
7
  6
CONTINUOUS
370
-3
390
F
  0
LAYER
  5
21F
100
AcDbSymbolTableRecord
100
AcDbLayerTableRecord
  2
SNAPLINE
 70
0
 62
7
  6
CONTINUOUS
370
-3
390
F
  0
LAYER
  5
220
100
AcDbSymbolTableRecord
100
AcDbLayerTableRecord
  2
ST701XUANNIU-20140315_1
 70
0
 62
7
  6
CONTINUOUS
370
-3
390
F
  0
LAYER
  5
221
100
AcDbSymbolTableRecord
100
AcDbLayerTableRecord
  2
ST701XUANNIU-20140315_1_1
 70
0
 62
7
  6
CONTINUOUS
370
-3
390
F
  0
LAYER
  5
222
100
AcDbSymbolTableRecord
100
AcDbLayerTableRecord
  2
SUPERFICI
 70
0
 62
7
  6
CONTINUOUS
370
-3
390
F
  0
LAYER
  5
223
100
AcDbSymbolTableRecord
100
AcDbLayerTableRecord
  2
TRASH
 70
0
 62
7
  6
CONTINUOUS
370
-3
390
F
  0
LAYER
  5
224
100
AcDbSymbolTableRecord
100
AcDbLayerTableRecord
  2
WHITE
 70
0
 62
7
  6
CONTINUOUS
370
-3
390
F
  0
LAYER
  5
225
100
AcDbSymbolTableRecord
100
AcDbLayerTableRecord
  2
___SHELL
 70
0
 62
7
  6
CONTINUOUS
370
-3
390
F
  0
ENDTAB
  0
TABLE
  2
STYLE
  5
3
100
AcDbSymbolTable
 70
1
  0
STYLE
  5
11
100
AcDbSymbolTableRecord
100
AcDbTextStyleTableRecord
  2
STANDARD
 70
0
 40
0.0
 41
0.8
 50
0.0
 71
0
 42
0.2
  3
txt
  4

  0
STYLE
  5
226
100
AcDbSymbolTableRecord
100
AcDbTextStyleTableRecord
  2
TEXTSTYLE_1
 70
0
 40
0.0
 41
0.8
 50
0.0
 71
0
 42
0.2
  3
gdt
  4

  0
ENDTAB
  0
TABLE
  2
VIEW
  5
6
100
AcDbSymbolTable
 70
0
  0
ENDTAB
  0
TABLE
  2
UCS
  5
7
100
AcDbSymbolTable
 70
0
  0
ENDTAB
  0
TABLE
  2
APPID
  5
9
100
AcDbSymbolTable
 70
1
  0
APPID
  5
227
100
AcDbSymbolTableRecord
100
AcDbRegAppTableRecord
  2
ACAD
 70
0
  0
ENDTAB
  0
TABLE
  2
BLOCK_RECORD
  5
1
100
AcDbSymbolTable
 70
0
  0
BLOCK_RECORD
  5
228
100
AcDbSymbolTableRecord
100
AcDbBlockTableRecord
  2
*Model_Space
  0
BLOCK_RECORD
  5
229
100
AcDbSymbolTableRecord
100
AcDbBlockTableRecord
  2
*Paper_Space
  0
BLOCK_RECORD
  5
22A
100
AcDbSymbolTableRecord
100
AcDbBlockTableRecord
  2
_FILLED
  0
BLOCK_RECORD
  5
22B
100
AcDbSymbolTableRecord
100
AcDbBlockTableRecord
  2
*D0
  0
BLOCK_RECORD
  5
22C
100
AcDbSymbolTableRecord
100
AcDbBlockTableRecord
  2
*D1
  0
BLOCK_RECORD
  5
22D
100
AcDbSymbolTableRecord
100
AcDbBlockTableRecord
  2
*D2
  0
ENDTAB
  0
TABLE
  2
DIMSTYLE
  5
A
100
AcDbSymbolTable
 70
1
100
AcDbDimStyleTable
 71
0
  0
DIMSTYLE
105
22E
100
AcDbSymbolTableRecord
100
AcDbDimStyleTableRecord
  2
STANDARD
 70
0
  3

  4

 40
1.0
 41
3.0
 42
0.5
 43
0.38
 44
1.5
 45
0.0
 46
0.0
 47
0.01
 48
0.01
140
3.0
141
0.09
142
0.0
143
25.4
144
1.0
145
0.0
146
1.0
147
0.625
 71
1.0
 72
0.0
 73
0
 74
0
 75
0
 76
0
 77
1
 78
8
 79
2
170
0
171
1
172
0
173
0
174
0
175
0
176
0
177
0
178
0
270
2
179
2
271
2
272
2
273
2
274
2
275
0
280
0
281
0
282
0
283
1
284
8
285
0
286
0
287
3
288
0
340
11
278
44
341
22A
342
22A
343
22A
344
22A
  0
DIMSTYLE
105
22F
100
AcDbSymbolTableRecord
100
AcDbDimStyleTableRecord
  2
DIMSTYLE_1
 70
0
  3

  4

 40
1.0
 41
3.0
 42
0.5
 43
0.38
 44
1.5
 45
0.0
 46
0.0
 47
0.0
 48
0.0
140
3.0
141
0.09
142
0.0
143
25.4
144
1.0
145
0.0
146
1.0
147
0.75
 71
0.0
 72
0.0
 73
0
 74
0
 75
0
 76
0
 77
1
 78
8
 79
2
170
0
171
1
172
0
173
0
174
0
175
0
176
0
177
0
178
0
270
2
179
2
271
2
272
2
273
2
274
2
275
0
280
0
281
0
282
0
283
1
284
8
285
0
286
0
287
3
288
0
340
11
278
44
341
22A
342
22A
343
22A
344
22A
  0
ENDTAB
  0
ENDSEC
  0
SECTION
  2
BLOCKS
  0
BLOCK
  5
20
100
AcDbEntity
  8
0
100
AcDbBlockBegin
  2
*Model_Space
 70
0
 10
0.0
 20
0.0
 30
0.0
  3
*Model_Space
  1

  0
ENDBLK
  5
21
100
AcDbEntity
  8
0
100
AcDbBlockEnd
  0
BLOCK
  5
1C
100
AcDbEntity
  8
0
100
AcDbBlockBegin
  2
*Paper_Space
 70
0
 10
0.0
 20
0.0
 30
0.0
  3
*Paper_Space
  1

  0
ENDBLK
  5
1D
100
AcDbEntity
  8
0
100
AcDbBlockEnd
  0
BLOCK
  5
230
100
AcDbEntity
  8
0
100
AcDbBlockBegin
  2
_FILLED
 70
64
 10
0.0
 20
0.0
  3
_FILLED
  1

  0
SOLID
  5
231
100
AcDbEntity
  8
0
  6
BYBLOCK
 62
0
100
AcDbTrace
 10
0.0
 20
0.0
 11
-1.0
 21
0.3166666667
 12
-1.0
 22
-0.3166666667
 13
-1.0
 23
-0.3166666667
  0
ENDBLK
  5
232
100
AcDbEntity
  8
0
  6
BYBLOCK
 62
0
100
AcDbBlockEnd
  0
BLOCK
  5
233
100
AcDbEntity
  8
0
100
AcDbBlockBegin
 62
7
  6
CONTINUOUS
  2
*D0
 70
65
 10
0.0
 20
0.0
  3
*D0
  1

  0
LINE
  5
234
100
AcDbEntity
  8
0
100
AcDbLine
 62
7
  6
CONTINUOUS
 10
-17.810739303
 20
0.5
 11
-17.810739303
 21
60.75
  0
LINE
  5
235
100
AcDbEntity
  8
0
100
AcDbLine
 62
7
  6
CONTINUOUS
 10
84.689260697
 20
0.5
 11
84.689260697
 21
60.75
  0
LINE
  5
236
100
AcDbEntity
  8
0
100
AcDbLine
 62
7
  6
CONTINUOUS
 10
-17.810739303
 20
59.25
 11
33.439260697
 21
59.25
  0
LINE
  5
237
100
AcDbEntity
  8
0
100
AcDbLine
 62
7
  6
CONTINUOUS
 10
84.689260697
 20
59.25
 11
33.439260697
 21
59.25
  0
INSERT
  5
238
100
AcDbEntity
  8
0
100
AcDbBlockReference
 62
7
  6
CONTINUOUS
  2
_FILLED
 10
-17.810739303
 20
59.25
 41
3.0
 42
3.0
 43
3.0
 50
180.0
  0
INSERT
  5
239
100
AcDbEntity
  8
0
100
AcDbBlockReference
 62
7
  6
CONTINUOUS
  2
_FILLED
 10
84.689260697
 20
59.25
 41
3.0
 42
3.0
 43
3.0
  0
ENDBLK
  5
23A
100
AcDbEntity
  8
0
  6
BYBLOCK
 62
0
100
AcDbBlockEnd
  0
BLOCK
  5
23B
100
AcDbEntity
  8
0
100
AcDbBlockBegin
 62
7
  6
CONTINUOUS
  2
*D1
 70
65
 10
0.0
 20
0.0
  3
*D1
  1

  0
LINE
  5
23C
100
AcDbEntity
  8
0
100
AcDbLine
 62
7
  6
CONTINUOUS
 10
33.9392609061
 20
51.249999539
 11
94.189260697
 21
51.249999539
  0
LINE
  5
23D
100
AcDbEntity
  8
0
100
AcDbLine
 62
7
  6
CONTINUOUS
 10
33.9392604174
 20
-51.2499990067
 11
94.189260697
 21
-51.2499990067
  0
LINE
  5
23E
100
AcDbEntity
  8
0
100
AcDbLine
 62
7
  6
CONTINUOUS
 10
92.689260697
 20
51.249999539
 11
92.689260697
 21
0.0000002661
  0
LINE
  5
23F
100
AcDbEntity
  8
0
100
AcDbLine
 62
7
  6
CONTINUOUS
 10
92.689260697
 20
-51.2499990067
 11
92.689260697
 21
0.0000002661
  0
INSERT
  5
240
100
AcDbEntity
  8
0
100
AcDbBlockReference
 62
7
  6
CONTINUOUS
  2
_FILLED
 10
92.689260697
 20
51.249999539
 41
3.0
 42
3.0
 43
3.0
 50
90.0
  0
INSERT
  5
241
100
AcDbEntity
  8
0
100
AcDbBlockReference
 62
7
  6
CONTINUOUS
  2
_FILLED
 10
92.689260697
 20
-51.2499990067
 41
3.0
 42
3.0
 43
3.0
 50
270.0
  0
ENDBLK
  5
242
100
AcDbEntity
  8
0
  6
BYBLOCK
 62
0
100
AcDbBlockEnd
  0
BLOCK
  5
243
100
AcDbEntity
  8
0
100
AcDbBlockBegin
 62
7
  6
CONTINUOUS
  2
*D2
 70
65
 10
0.0
 20
0.0
  3
*D2
  1

  0
LINE
  5
244
100
AcDbEntity
  8
0
100
AcDbLine
 62
7
  6
CONTINUOUS
 10
-46.0568991114
 20
34.6889678304
 11
-46.0568991114
 21
60.75
  0
LINE
  5
245
100
AcDbEntity
  8
0
100
AcDbLine
 62
7
  6
CONTINUOUS
 10
-104.3568991114
 20
0.5
 11
-104.3568991114
 21
60.75
  0
LINE
  5
246
100
AcDbEntity
  8
0
100
AcDbLine
 62
7
  6
CONTINUOUS
 10
-46.0568991114
 20
59.25
 11
-75.2068991114
 21
59.25
  0
LINE
  5
247
100
AcDbEntity
  8
0
100
AcDbLine
 62
7
  6
CONTINUOUS
 10
-104.3568991114
 20
59.25
 11
-75.2068991114
 21
59.25
  0
INSERT
  5
248
100
AcDbEntity
  8
0
100
AcDbBlockReference
 62
7
  6
CONTINUOUS
  2
_FILLED
 10
-46.0568991114
 20
59.25
 41
3.0
 42
3.0
 43
3.0
  0
INSERT
  5
249
100
AcDbEntity
  8
0
100
AcDbBlockReference
 62
7
  6
CONTINUOUS
  2
_FILLED
 10
-104.3568991114
 20
59.25
 41
3.0
 42
3.0
 43
3.0
 50
180.0
  0
ENDBLK
  5
24A
100
AcDbEntity
  8
0
  6
BYBLOCK
 62
0
100
AcDbBlockEnd
  0
ENDSEC
  0
SECTION
  2
ENTITIES
  0
DIMENSION
  5
24B
100
AcDbEntity
  8
0
100
AcDbDimension
 62
7
  6
CONTINUOUS
  2
*D0
 10
84.689260697
 20
59.25
 11
28.2964035542
 21
59.25
 70
160
 71
2
 72
2
 41
0.9
 42
102.5
  3
DIMSTYLE_1
100
AcDbAlignedDimension
 13
-17.810739303
 23
-0.0
 14
84.689260697
 24
-0.0
100
AcDbRotatedDimension
  0
DIMENSION
  5
24C
100
AcDbEntity
  8
0
100
AcDbDimension
 62
7
  6
CONTINUOUS
  2
*D1
 10
92.689260697
 20
-51.2499990067
 11
92.689260697
 21
-5.1428568767
 70
160
 71
2
 72
2
 41
0.9
 42
102.4999985457
  3
DIMSTYLE_1
100
AcDbAlignedDimension
 13
33.4392609061
 23
51.249999539
 14
33.4392604174
 24
-51.2499990067
 50
270.0
100
AcDbRotatedDimension
  0
DIMENSION
  5
24D
100
AcDbEntity
  8
0
100
AcDbDimension
 62
7
  6
CONTINUOUS
  2
*D2
 10
-104.3568991114
 20
59.25
 11
-79.38547054
 21
59.25
 70
160
 71
2
 72
2
 41
0.9
 42
58.3
  3
DIMSTYLE_1
100
AcDbAlignedDimension
 13
-46.0568991114
 23
34.1889678304
 14
-104.3568991114
 24
-0.0
 50
180.0
100
AcDbRotatedDimension
  0
LWPOLYLINE
  5
24E
100
AcDbEntity
  8
IMPORT_IGES
100
AcDbPolyline
 62
250
  6
CONTINUOUS
 90
7
 70
0
 10
-13.0127434746
 20
35.4359618999
 10
-12.9780652747
 20
35.5809842288
 10
-12.9693408717
 20
35.6170603228
 10
-12.9602914248
 20
35.6535853339
 10
-12.9508199813
 20
35.6907153071
 10
-12.9410141859
 20
35.7282907657
 10
-12.7971769758
 20
36.2691965152
  0
LWPOLYLINE
  5
24F
100
AcDbEntity
  8
IMPORT_IGES
100
AcDbPolyline
 62
250
  6
CONTINUOUS
 90
29
 70
0
 10
-12.7971769758
 20
36.2691965152
 10
-12.645165987
 20
36.7677562758
 10
-12.4750055284
 20
37.2613744874
 10
-12.2868128514
 20
37.7496469555
 10
-12.0808151072
 20
38.2317182029
 10
-11.8574178339
 20
38.7063082226
 10
-11.6169101895
 20
39.1726007754
 10
-11.3595314997
 20
39.630174635
 10
-11.085692021
 20
40.0783702496
 10
-10.7956246733
 20
40.5165412646
 10
-10.489661402
 20
40.9440931034
 10
-10.1683878733
 20
41.3604653765
 10
-9.8321005749
 20
41.7650648995
 10
-9.4811083549
 20
42.1572663697
 10
-9.1160420951
 20
42.5364947388
 10
-8.7373795327
 20
42.9023182886
 10
-8.3455298975
 20
43.2542346657
 10
-7.9410550893
 20
43.5915948437
 10
-7.5245671363
 20
43.9140708925
 10
-7.0966443111
 20
44.2213423057
 10
-6.6578338192
 20
44.5127964187
 10
-6.2087201901
 20
44.7880770915
 10
-5.7499416718
 20
45.0469270565
 10
-5.2821502274
 20
45.2889075241
 10
-4.8057621344
 20
45.5137540329
 10
-4.321590409
 20
45.7211490645
 10
-3.8309131409
 20
45.9106532474
 10
-3.3345862219
 20
46.0820096832
 10
-2.8330159988
 20
46.2350747229
  0
LWPOLYLINE
  5
250
100
AcDbEntity
  8
IMPORT_IGES
100
AcDbPolyline
 62
250
  6
CONTINUOUS
 90
5
 70
0
 10
69.7115290644
 20
-46.2350077717
 10
69.1681014208
 20
-46.3794422809
 10
69.131301047
 20
-46.3889963128
 10
69.09492487
 20
-46.3982419961
 10
69.0591267844
 20
-46.4070954173
  0
LINE
  5
251
100
AcDbEntity
  8
IMPORT_IGES
100
AcDbLine
 62
250
  6
CONTINUOUS
 10
69.0591267844
 20
-46.4070954173
 11
68.8815173406
 21
-46.4497604211
  0
LWPOLYLINE
  5
252
100
AcDbEntity
  8
IMPORT_IGES
100
AcDbPolyline
 62
250
  6
CONTINUOUS
 90
16
 70
0
 10
68.8811184109
 20
-46.4492470835
 10
66.5543872533
 20
-46.9836401893
 10
64.2200683122
 20
-47.481692916
 10
61.8786959375
 20
-47.9432940416
 10
59.5307616713
 20
-48.3683005674
 10
57.1768573333
 20
-48.7566307536
 10
54.8176559828
 20
-49.108265984
 10
52.453682773
 20
-49.4230811097
 10
50.0854799917
 20
-49.7009792095
 10
47.7137139986
 20
-49.94199616
 10
45.3388844568
 20
-50.1460353516
 10
42.9615426702
 20
-50.313015769
 10
40.5823896656
 20
-50.4430143218
 10
38.2019842611
 20
-50.5360076955
 10
35.8207722241
 20
-50.5918668565
 10
33.4392607359
 20
-50.6105190778
  0
LWPOLYLINE
  5
253
100
AcDbEntity
  8
IMPORT_IGES
100
AcDbPolyline
 62
250
  6
CONTINUOUS
 90
6
 70
0
 10
-2.0030989174
 20
-46.4498080054
 10
-2.1803706752
 20
-46.4071569693
 10
-2.2161933167
 20
-46.3982933732
 10
-2.2526111011
 20
-46.3890176955
 10
-2.2894742775
 20
-46.3794183175
 10
-2.8296114643
 20
-46.2358755409
  0
LWPOLYLINE
  5
254
100
AcDbEntity
  8
IMPORT_IGES
100
AcDbPolyline
 62
250
  6
CONTINUOUS
 90
29
 70
0
 10
-2.8296114643
 20
-46.2358755409
 10
-3.3281236898
 20
-46.083939259
 10
-3.8217034399
 20
-45.913851396
 10
-4.3099476142
 20
-45.7257301237
 10
-4.7920003723
 20
-45.519802393
 10
-5.2665798943
 20
-45.2964726018
 10
-5.7328704691
 20
-45.0560307531
 10
-6.1904511919
 20
-44.7987162854
 10
-6.6386602953
 20
-44.524937328
 10
-7.0768516354
 20
-44.2349269724
 10
-7.5044310988
 20
-43.9290177847
 10
-7.920836181
 20
-43.6077938574
 10
-8.3254732945
 20
-43.2715512349
 10
-8.7177179114
 20
-42.9205997539
 10
-9.0969943728
 20
-42.5555706906
 10
-9.4628697106
 20
-42.1769404148
 10
-9.8148400254
 20
-41.7851168464
 10
-10.1522555857
 20
-41.3806627197
 10
-10.4747895597
 20
-40.9641910382
 10
-10.7821210959
 20
-40.536279832
 10
-11.0736351399
 20
-40.0974757957
 10
-11.3489764442
 20
-39.6483641831
 10
-11.6078882176
 20
-39.1895836766
 10
-11.8499291027
 20
-38.7217857377
 10
-12.0748353001
 20
-38.2453872431
 10
-12.2822905774
 20
-37.7612019512
 10
-12.471854179
 20
-37.2705078781
 10
-12.6432694937
 20
-36.7741613046
 10
-12.7963948187
 20
-36.2725693468
  0
LWPOLYLINE
  5
255
100
AcDbEntity
  8
IMPORT_IGES
100
AcDbPolyline
 62
250
  6
CONTINUOUS
 90
5
 70
0
 10
-12.7963948187
 20
-36.2725693468
 10
-12.9409627229
 20
-35.7288715733
 10
-12.9506100243
 20
-35.691701514
 10
-12.9599784981
 20
-35.6548419594
 10
-12.9689857204
 20
-35.6184530583
  0
LWPOLYLINE
  5
256
100
AcDbEntity
  8
IMPORT_IGES
100
AcDbPolyline
 62
250
  6
CONTINUOUS
 90
3
 70
0
 10
-12.9689857204
 20
-35.6184530583
 10
-13.0039952078
 20
-35.472850844
 10
-13.0127419639
 20
-35.4359608773
  0
LWPOLYLINE
  5
257
100
AcDbEntity
  8
IMPORT_IGES
100
AcDbPolyline
 62
250
  6
CONTINUOUS
 90
31
 70
0
 10
-13.0119239531
 20
-35.4353153732
 10
-13.545405308
 20
-33.1127720509
 10
-14.0427295034
 20
-30.7822962926
 10
-14.5037661321
 20
-28.4444172883
 10
-14.9283479333
 20
-26.099631625
 10
-15.3163794634
 20
-23.7485177691
 10
-15.66783702
 20
-21.3917148298
 10
-15.9825741551
 20
-19.0297472745
 10
-16.2604736664
 20
-16.6631486787
 10
-16.5015638977
 20
-14.2925363556
 10
-16.7057265319
 20
-11.9184028766
 10
-16.8728566239
 20
-9.5412970588
 10
-17.0030165385
 20
-7.1618753041
 10
-17.0961210309
 20
-4.7806074776
 10
-17.1520526264
 20
-2.3980234855
 10
-17.1708418999
 20
-0.0148245624
 10
-17.1525139728
 20
2.368509877
 10
-17.0970300721
 20
4.7514999054
 10
-17.0043484609
 20
7.1334434619
 10
-16.8745744597
 20
9.5138100809
 10
-16.7077804201
 20
11.8921286248
 10
-16.5038918889
 20
14.2677404826
 10
-16.2630015741
 20
16.640094961
 10
-15.9852154643
 20
19.0086972336
 10
-15.6704931112
 20
21.3729266374
 10
-15.318939781
 20
23.7322465027
 10
-14.9306899159
 20
26.0861290908
 10
-14.5057552999
 20
28.4339311163
 10
-14.0442195954
 20
30.7750698195
 10
-13.546238399
 20
33.1090442533
 10
-13.0119304971
 20
35.4353203673
  0
LWPOLYLINE
  5
258
100
AcDbEntity
  8
IMPORT_IGES
100
AcDbPolyline
 62
250
  6
CONTINUOUS
 90
16
 70
0
 10
33.4392607423
 20
-50.6112681329
 10
31.0579521378
 20
-50.5920789466
 10
28.6769391801
 20
-50.5357674196
 10
26.2967164046
 20
-50.4424033061
 10
23.9177067517
 20
-50.3121130589
 10
21.5404667686
 20
-50.1449173308
 10
19.1657159648
 20
-49.9407380398
 10
16.7939936187
 20
-49.6996581659
 10
14.4257862317
 20
-49.4217722023
 10
12.0617781227
 20
-49.107039991
 10
9.702513462
 20
-48.7555639476
 10
7.3484911857
 20
-48.3674678418
 10
5.0003631302
 20
-47.9427560903
 10
2.6587078277
 20
-47.4815060116
 10
0.3240089199
 20
-46.9838671107
 10
-2.0032106778
 20
-46.4499518636
  0
LWPOLYLINE
  5
259
100
AcDbEntity
  8
0
100
AcDbPolyline
 62
7
  6
CONTINUOUS
 90
3
 70
0
 43
0.3500000006
 10
28.2964035416
 20
62.1428583069
 10
29.1535460129
 20
62.9999962463
 10
29.1535460129
 20
60.0000043945
  0
LWPOLYLINE
  5
25A
100
AcDbEntity
  8
IMPORT_IGES
100
AcDbPolyline
 62
250
  6
CONTINUOUS
 90
13
 70
0
 10
5.9405838376
 20
7.0
 10
6.1250165847
 20
7.7120586876
 10
6.3677556416
 20
8.5451272728
 10
6.635569471
 20
9.3713031898
 10
6.9275214335
 20
10.1875222942
 10
7.2437234441
 20
10.9935031368
 10
7.5840635878
 20
11.7895271667
 10
7.947269481
 20
12.5733745875
 10
8.3334210193
 20
13.3450670995
 10
8.742438307
 20
14.1045830024
 10
9.1728092736
 20
14.8496373986
 10
9.6240298955
 20
15.5794686556
 10
10.0966041964
 20
16.2948384058
  0
LINE
  5
25B
100
AcDbEntity
  8
IMPORT_IGES
100
AcDbLine
 62
250
  6
CONTINUOUS
 10
10.0966041964
 20
16.2948384058
 11
10.5905321761
 21
16.9957466493
  0
LWPOLYLINE
  5
25C
100
AcDbEntity
  8
IMPORT_IGES
100
AcDbPolyline
 62
250
  6
CONTINUOUS
 90
13
 70
0
 10
10.5905321761
 20
16.9957466493
 10
11.0063013962
 20
17.55026977
 10
11.4356488384
 20
18.0931764598
 10
11.8785745028
 20
18.6244667186
 10
12.3353907728
 20
19.1444816267
 10
12.805785265
 20
19.6528801038
 10
13.2888208288
 20
20.1486389096
 10
13.7845249263
 20
20.6317313105
 10
14.2928700954
 20
21.1021840401
 10
14.8128367987
 20
21.5590540584
 10
15.3440851903
 20
22.0020270185
 10
15.8869551161
 20
22.4314172672
 10
16.441446576
 20
22.8472248045
  0
LWPOLYLINE
  5
25D
100
AcDbEntity
  8
IMPORT_IGES
100
AcDbPolyline
 62
250
  6
CONTINUOUS
 90
14
 70
0
 10
16.441446576
 20
22.8472248045
 10
17.1451413825
 20
23.3430639834
 10
17.8625412159
 20
23.8169902563
 10
18.5936460761
 20
24.2690036233
 10
19.3391355188
 20
24.6994719221
 10
20.0983299884
 20
25.1080273149
 10
20.8691908177
 20
25.4935662888
 10
21.6517134533
 20
25.8560774318
 10
22.4459024485
 20
26.1955721558
 10
23.2497327966
 20
26.5109811835
 10
24.063253766
 20
26.8022050674
 10
24.8864160884
 20
27.0693432551
 10
25.7170469519
 20
27.3116248122
 10
26.439260697
 20
27.498883198
  0
LWPOLYLINE
  5
25E
100
AcDbEntity
  8
IMPORT_IGES
100
AcDbPolyline
 62
250
  6
CONTINUOUS
 90
13
 70
0
 10
26.439260697
 20
-27.4988827672
 10
25.7170623404
 20
-27.3116287291
 10
24.8864315998
 20
-27.0693478508
 10
24.063268863
 20
-26.8022103227
 10
23.2497470653
 20
-26.5109867928
 10
22.4459154732
 20
-26.1955776963
 10
21.6517248202
 20
-25.8560825979
 10
20.8692002411
 20
-25.4935708402
 10
20.0983372345
 20
-25.1080287256
 10
19.3391403019
 20
-24.6994699517
 10
18.5936480825
 20
-24.269004954
 10
17.8625401226
 20
-23.8170038778
 10
17.145136876
 20
-23.3430965777
  0
LINE
  5
25F
100
AcDbEntity
  8
IMPORT_IGES
100
AcDbLine
 62
250
  6
CONTINUOUS
 10
17.145136876
 20
-23.3430965777
 11
16.4414383425
 21
-22.8472830539
  0
LWPOLYLINE
  5
260
100
AcDbEntity
  8
IMPORT_IGES
100
AcDbPolyline
 62
250
  6
CONTINUOUS
 90
13
 70
0
 10
16.4414383425
 20
-22.8472830539
 10
15.8869567987
 20
-22.4314568699
 10
15.3440936982
 20
-22.0020521875
 10
14.812849041
 20
-21.5590690067
 10
14.2928820081
 20
-21.1021943379
 10
13.7845334185
 20
-20.6317411707
 10
13.2888257294
 20
-20.1486484741
 10
12.8057854595
 20
-19.6528893677
 10
12.33538609
 20
-19.1444907318
 10
11.8785705225
 20
-18.6244721769
 10
11.4356530575
 20
-18.0931735733
 10
11.0063193944
 20
-17.5502550507
 10
10.5905695334
 20
-16.9957166091
  0
LWPOLYLINE
  5
261
100
AcDbEntity
  8
IMPORT_IGES
100
AcDbPolyline
 62
250
  6
CONTINUOUS
 90
14
 70
0
 10
10.5905695334
 20
-16.9957166091
 10
10.0965241035
 20
-16.294601957
 10
9.6239520297
 20
-15.5792669743
 10
9.1728533121
 20
-14.8497116609
 10
8.7427593334
 20
-14.1051962349
 10
8.3341387108
 20
-13.3464604782
 10
7.9483972963
 20
-12.5757237373
 10
7.5856041387
 20
-11.7930144452
 10
7.2456901892
 20
-10.9983041688
 10
6.9298541531
 20
-10.1937269551
 10
6.6381958759
 20
-9.37900794
 10
6.3706155121
 20
-8.5544219876
 10
6.128012231
 20
-7.7229277372
 10
5.9404377398
 20
-7.0
  0
LWPOLYLINE
  5
262
100
AcDbEntity
  8
IMPORT_IGES
100
AcDbPolyline
 62
250
  6
CONTINUOUS
 90
6
 70
0
 10
-2.464598888
 20
-46.9961929638
 10
-2.4692683287
 20
-47.0184489788
 10
-2.4728227872
 20
-47.0360633488
 10
-2.4752208894
 20
-47.0488485396
 10
-2.4764234685
 20
-47.0566094697
 10
-2.4764248096
 20
-47.0592997365
  0
LWPOLYLINE
  5
263
100
AcDbEntity
  8
IMPORT_IGES
100
AcDbPolyline
 62
250
  6
CONTINUOUS
 90
3
 70
0
 10
-2.1590861156
 20
-47.1239094018
 10
-2.1606214067
 20
-47.1311588956
 10
-2.1610243368
 20
-47.1335728186
  0
LINE
  5
264
100
AcDbEntity
  8
IMPORT_IGES
100
AcDbLine
 62
250
  6
CONTINUOUS
 10
-2.4519721059
 20
-46.9380011886
 11
-2.464598888
 21
-46.9961929638
  0
LINE
  5
265
100
AcDbEntity
  8
IMPORT_IGES
100
AcDbLine
 62
250
  6
CONTINUOUS
 10
-2.1526428312
 20
-47.0950320445
 11
-2.1590861156
 21
-47.1239094018
  0
LINE
  5
266
100
AcDbEntity
  8
IMPORT_IGES
100
AcDbLine
 62
250
  6
CONTINUOUS
 10
-2.4256390297
 20
-46.8202397593
 11
-2.4519721059
 21
-46.9380011886
  0
LINE
  5
267
100
AcDbEntity
  8
IMPORT_IGES
100
AcDbLine
 62
250
  6
CONTINUOUS
 10
-2.3660246919
 20
-46.5601580926
 11
-2.4256390297
 21
-46.8202397593
  0
LINE
  5
268
100
AcDbEntity
  8
IMPORT_IGES
100
AcDbLine
 62
250
  6
CONTINUOUS
 10
-2.1081914413
 20
-46.9015765314
 11
-2.1526428312
 21
-47.0950320445
  0
LINE
  5
269
100
AcDbEntity
  8
IMPORT_IGES
100
AcDbLine
 62
250
  6
CONTINUOUS
 10
-2.3219015105
 20
-46.3705497315
 11
-2.3660246919
 21
-46.5601580926
  0
LINE
  5
26A
100
AcDbEntity
  8
IMPORT_IGES
100
AcDbLine
 62
250
  6
CONTINUOUS
 10
-2.0030989177
 20
-46.4498080068
 11
-2.1081914413
 21
-46.9015765314
  0
LINE
  5
26B
100
AcDbEntity
  8
IMPORT_IGES
100
AcDbLine
 62
250
  6
CONTINUOUS
 10
-13.0118208227
 20
-35.4357452123
 11
-13.6099690408
 21
-35.5748827005
  0
LINE
  5
26C
100
AcDbEntity
  8
IMPORT_IGES
100
AcDbLine
 62
250
  6
CONTINUOUS
 10
-12.9324253275
 20
-35.7615469574
 11
-13.2896780105
 21
-35.8442268041
  0
LINE
  5
26D
100
AcDbEntity
  8
IMPORT_IGES
100
AcDbLine
 62
250
  6
CONTINUOUS
 10
-13.2896780105
 20
-35.8442268041
 11
-13.4288402435
 21
-35.8757569632
  0
LWPOLYLINE
  5
26E
100
AcDbEntity
  8
IMPORT_IGES
100
AcDbPolyline
 62
250
  6
CONTINUOUS
 90
5
 70
0
 10
-13.6099690408
 20
-35.5748827005
 10
-13.6740242844
 20
-35.589409055
 10
-13.6861077678
 20
-35.5920656821
 10
-13.6933626598
 20
-35.5935861185
 10
-13.6957898268
 20
-35.5939718731
  0
LINE
  5
26F
100
AcDbEntity
  8
IMPORT_IGES
100
AcDbLine
 62
250
  6
CONTINUOUS
 10
-13.4288402435
 20
-35.8757569632
 11
-13.5025114844
 21
-35.8921218874
  0
LWPOLYLINE
  5
270
100
AcDbEntity
  8
IMPORT_IGES
100
AcDbPolyline
 62
250
  6
CONTINUOUS
 90
7
 70
0
 10
-13.5025114844
 20
-35.8921218874
 10
-13.5592589226
 20
-35.9043967456
 10
-13.5808270591
 20
-35.9089009172
 10
-13.5978086164
 20
-35.9123055649
 10
-13.6100713821
 20
-35.9145824763
 10
-13.6174818112
 20
-35.9157066705
 10
-13.6200397602
 20
-35.9156830742
  0
LWPOLYLINE
  5
271
100
AcDbEntity
  8
IMPORT_IGES
100
AcDbPolyline
 62
250
  6
CONTINUOUS
 90
6
 70
0
 10
80.4355207411
 20
-35.9039171271
 10
80.4577485341
 20
-35.9085717702
 10
80.4753397836
 20
-35.9121124683
 10
80.4881081406
 20
-35.9144981753
 10
80.4958602373
 20
-35.9156901997
 10
80.4985504833
 20
-35.9156830779
  0
LWPOLYLINE
  5
272
100
AcDbEntity
  8
IMPORT_IGES
100
AcDbPolyline
 62
250
  6
CONTINUOUS
 90
3
 70
0
 10
80.5646348728
 20
-35.5920668481
 10
80.5718880447
 20
-35.5935869195
 10
80.5743130747
 20
-35.5939722525
  0
LINE
  5
273
100
AcDbEntity
  8
IMPORT_IGES
100
AcDbLine
 62
250
  6
CONTINUOUS
 10
80.377403334
 20
-35.8913235418
 11
80.4355207411
 21
-35.9039171271
  0
LINE
  5
274
100
AcDbEntity
  8
IMPORT_IGES
100
AcDbLine
 62
250
  6
CONTINUOUS
 10
80.5357724654
 20
-35.5856468543
 11
80.5646348728
 21
-35.5920668481
  0
LINE
  5
275
100
AcDbEntity
  8
IMPORT_IGES
100
AcDbLine
 62
250
  6
CONTINUOUS
 10
80.2597891133
 20
-35.8650464374
 11
80.377403334
 21
-35.8913235418
  0
LINE
  5
276
100
AcDbEntity
  8
IMPORT_IGES
100
AcDbLine
 62
250
  6
CONTINUOUS
 10
80.0000022531
 20
-35.8055293215
 11
80.2597891133
 21
-35.8650464374
  0
LINE
  5
277
100
AcDbEntity
  8
IMPORT_IGES
100
AcDbLine
 62
250
  6
CONTINUOUS
 10
80.3850500885
 20
-35.5510521571
 11
80.5357724654
 21
-35.5856468543
  0
LINE
  5
278
100
AcDbEntity
  8
IMPORT_IGES
100
AcDbLine
 62
250
  6
CONTINUOUS
 10
79.8106199155
 20
-35.7614708726
 11
80.0000022531
 21
-35.8055293215
  0
LINE
  5
279
100
AcDbEntity
  8
IMPORT_IGES
100
AcDbLine
 62
250
  6
CONTINUOUS
 10
79.8912648513
 20
-35.4359619464
 11
80.3850500885
 21
-35.5510521571
  0
LINE
  5
27A
100
AcDbEntity
  8
IMPORT_IGES
100
AcDbLine
 62
250
  6
CONTINUOUS
 10
-2.002860926
 20
46.4491820744
 11
-2.1418610931
 21
47.0476574652
  0
LINE
  5
27B
100
AcDbEntity
  8
IMPORT_IGES
100
AcDbLine
 62
250
  6
CONTINUOUS
 10
-2.3220132441
 20
46.3710289959
 11
-2.4047940473
 21
46.7285954137
  0
LINE
  5
27C
100
AcDbEntity
  8
IMPORT_IGES
100
AcDbLine
 62
250
  6
CONTINUOUS
 10
-2.4047940473
 20
46.7285954137
 11
-2.4363764568
 21
46.8678970377
  0
LWPOLYLINE
  5
27D
100
AcDbEntity
  8
IMPORT_IGES
100
AcDbPolyline
 62
250
  6
CONTINUOUS
 90
5
 70
0
 10
-2.1418610931
 20
47.0476574652
 10
-2.1564126609
 20
47.111788959
 10
-2.1590805433
 20
47.123885981
 10
-2.1606134675
 20
47.1311475922
 10
-2.1610129089
 20
47.1335744608
  0
LINE
  5
27E
100
AcDbEntity
  8
IMPORT_IGES
100
AcDbLine
 62
250
  6
CONTINUOUS
 10
-2.4363764568
 20
46.8678970377
 11
-2.4527741452
 21
46.9416453627
  0
LWPOLYLINE
  5
27F
100
AcDbEntity
  8
IMPORT_IGES
100
AcDbPolyline
 62
250
  6
CONTINUOUS
 90
7
 70
0
 10
-2.4527741452
 20
46.9416453627
 10
-2.4650789975
 20
46.9984536853
 10
-2.469596775
 20
47.0200451817
 10
-2.4730140653
 20
47.0370452798
 10
-2.4753025461
 20
47.0493214646
 10
-2.4764370836
 20
47.0567398877
 10
-2.4764225451
 20
47.0593004128
  0
LWPOLYLINE
  5
280
100
AcDbEntity
  8
0
100
AcDbPolyline
 62
7
  6
CONTINUOUS
 90
3
 70
0
 43
0.3500000006
 10
35.4392612457
 20
60.2857109985
 10
35.3678323288
 20
60.0714265137
 10
35.2249744949
 20
59.7857108459
  0
LINE
  5
281
100
AcDbEntity
  8
IMPORT_IGES
100
AcDbLine
 62
7
  6
CONTINUOUS
 10
26.439260697
 20
-27.1108834235
 11
26.439260697
 21
-27.6269795682
  0
LINE
  5
282
100
AcDbEntity
  8
IMPORT_IGES
100
AcDbLine
 62
7
  6
CONTINUOUS
 10
26.439260697
 20
27.1108834234
 11
26.439260697
 21
27.6269795671
  0
LINE
  5
283
100
AcDbEntity
  8
IMPORT_IGES
100
AcDbLine
 62
7
  6
CONTINUOUS
 10
5.8122811299
 20
-7.0
 11
6.3283772736
 21
-7.0
  0
LINE
  5
284
100
AcDbEntity
  8
IMPORT_IGES
100
AcDbLine
 62
7
  6
CONTINUOUS
 10
60.5501441205
 20
-7.0
 11
61.0662402641
 21
-7.0
  0
LWPOLYLINE
  5
285
100
AcDbEntity
  8
0
100
AcDbPolyline
 62
7
  6
CONTINUOUS
 90
13
 70
0
 43
0.3500000006
 10
30.0106884842
 20
60.857142334
 10
30.0106884842
 20
62.1428583069
 10
30.224975235
 20
62.5714272766
 10
30.6535464706
 20
62.9999962463
 10
30.8678332214
 20
62.9999962463
 10
31.2964044571
 20
62.5714272766
 10
31.510688942
 20
62.1428583069
 10
31.510688942
 20
60.857142334
 10
31.2964044571
 20
60.4285733643
 10
30.8678332214
 20
60.0000043945
 10
30.6535464706
 20
60.0000043945
 10
30.224975235
 20
60.4285733643
 10
30.0106884842
 20
60.857142334
  0
LINE
  5
286
100
AcDbEntity
  8
IMPORT_IGES
100
AcDbLine
 62
250
  6
CONTINUOUS
 10
33.4392606678
 20
28.5000092369
 11
33.4392609061
 21
51.249999539
  0
LINE
  5
287
100
AcDbEntity
  8
IMPORT_IGES
100
AcDbLine
 62
250
  6
CONTINUOUS
 10
33.4392607201
 20
-28.5000092369
 11
33.4392604174
 21
-51.2499990067
  0
LINE
  5
288
100
AcDbEntity
  8
IMPORT_IGES
100
AcDbLine
 62
250
  6
CONTINUOUS
 10
16.4276599735
 20
-22.8662351024
 11
16.4414648828
 21
-22.8472466654
  0
LINE
  5
289
100
AcDbEntity
  8
IMPORT_IGES
100
AcDbLine
 62
250
  6
CONTINUOUS
 10
50.450857209
 20
22.8662356973
 11
50.4370481333
 21
22.8472467894
  0
LINE
  5
28A
100
AcDbEntity
  8
IMPORT_IGES
100
AcDbLine
 62
250
  6
CONTINUOUS
 10
65.88112775
 20
42.5943293846
 11
68.881620266
 21
46.4498079517
  0
LINE
  5
28B
100
AcDbEntity
  8
IMPORT_IGES
100
AcDbLine
 62
250
  6
CONTINUOUS
 10
0.9973936061
 20
-42.59432943
 11
-2.0030989174
 21
-46.4498080054
  0
LINE
  5
28C
100
AcDbEntity
  8
IMPORT_IGES
100
AcDbLine
 62
250
  6
CONTINUOUS
 10
62.8478654281
 20
38.7049432119
 11
65.88112775
 21
42.5943293846
  0
LWPOLYLINE
  5
28D
100
AcDbEntity
  8
IMPORT_IGES
100
AcDbPolyline
 62
250
  6
CONTINUOUS
 90
3
 70
0
 10
5.5585975497
 20
-36.7486484031
 10
4.0306559357
 20
-38.7049432485
 10
0.9973936061
 20
-42.59432943
  0
LINE
  5
28E
100
AcDbEntity
  8
IMPORT_IGES
100
AcDbLine
 62
250
  6
CONTINUOUS
 10
59.7846354242
 20
34.7851026488
 11
62.8478654281
 21
38.7049432119
  0
LINE
  5
28F
100
AcDbEntity
  8
IMPORT_IGES
100
AcDbLine
 62
250
  6
CONTINUOUS
 10
56.6938212429
 20
30.8381233028
 11
59.7846354242
 21
34.7851026488
  0
LINE
  5
290
100
AcDbEntity
  8
IMPORT_IGES
100
AcDbLine
 62
250
  6
CONTINUOUS
 10
53.5773755932
 20
26.8669555276
 11
56.6938212429
 21
30.8381233028
  0
LINE
  5
291
100
AcDbEntity
  8
IMPORT_IGES
100
AcDbLine
 62
250
  6
CONTINUOUS
 10
50.4386798756
 20
22.8750970916
 11
53.5773755932
 21
26.8669555276
  0
LWPOLYLINE
  5
292
100
AcDbEntity
  8
IMPORT_IGES
100
AcDbPolyline
 62
250
  6
CONTINUOUS
 90
3
 70
0
 10
-9.175265846
 20
-32.4136223373
 10
-11.0991326517
 20
-33.9276552586
 10
-13.0119239531
 20
-35.4353153732
  0
LWPOLYLINE
  5
293
100
AcDbEntity
  8
IMPORT_IGES
100
AcDbPolyline
 62
250
  6
CONTINUOUS
 90
3
 70
0
 10
-3.3430232237
 20
-27.8369647879
 10
-5.2966517147
 20
-29.3679071915
 10
-9.175265846
 20
-32.4136223373
  0
LWPOLYLINE
  5
294
100
AcDbEntity
  8
IMPORT_IGES
100
AcDbPolyline
 62
250
  6
CONTINUOUS
 90
4
 70
0
 10
4.5582614604
 20
-21.6668570403
 10
2.5707243904
 20
-23.2156523858
 10
0.5912197595
 20
-24.7605007515
 10
-3.3430232237
 20
-27.8369647879
  0
LWPOLYLINE
  5
295
100
AcDbEntity
  8
IMPORT_IGES
100
AcDbPolyline
 62
250
  6
CONTINUOUS
 90
3
 70
0
 10
10.564098698
 20
-16.9993341668
 10
8.5555828807
 20
-18.5584398607
 10
4.5582614604
 20
-21.6668570403
  0
LWPOLYLINE
  5
296
100
AcDbEntity
  8
IMPORT_IGES
100
AcDbPolyline
 62
250
  6
CONTINUOUS
 90
3
 70
0
 10
56.3144226966
 20
16.9993341661
 10
58.3229385512
 20
18.5584398717
 10
62.3202600444
 20
21.6668570726
  0
LINE
  5
297
100
AcDbEntity
  8
IMPORT_IGES
100
AcDbLine
 62
250
  6
CONTINUOUS
 10
56.2879621898
 20
16.9956905767
 11
56.3067643943
 21
17.0093722898
  0
LINE
  5
298
100
AcDbEntity
  8
IMPORT_IGES
100
AcDbLine
 62
250
  6
CONTINUOUS
 10
10.5715362181
 20
-17.0095516868
 11
10.5905695334
 21
-16.9957166091
  0
LWPOLYLINE
  5
299
100
AcDbEntity
  8
0
100
AcDbPolyline
 62
7
  6
CONTINUOUS
 90
13
 70
0
 43
0.3500000006
 10
91.0821178894
 20
-3.4285713387
 10
89.7964019165
 20
-3.4285713387
 10
89.3678329468
 20
-3.2142857208
 10
88.9392639771
 20
-2.7857144852
 10
88.9392639771
 20
-2.5714288673
 10
89.3678329468
 20
-2.1428564987
 10
89.7964019165
 20
-1.9285708809
 10
91.0821178894
 20
-1.9285708809
 10
91.5106868591
 20
-2.1428564987
 10
91.9392648926
 20
-2.5714288673
 10
91.9392648926
 20
-2.7857144852
 10
91.5106868591
 20
-3.2142857208
 10
91.0821178894
 20
-3.4285713387
  0
LINE
  5
29A
100
AcDbEntity
  8
IMPORT_IGES
100
AcDbLine
 62
250
  6
CONTINUOUS
 10
10.5715371614
 20
17.0095556456
 11
10.5905841651
 21
16.9957142626
  0
LINE
  5
29B
100
AcDbEntity
  8
IMPORT_IGES
100
AcDbLine
 62
250
  6
CONTINUOUS
 10
56.3069852557
 20
-17.0095516461
 11
56.287948793
 21
-16.9957143752
  0
LWPOLYLINE
  5
29C
100
AcDbEntity
  8
IMPORT_IGES
100
AcDbPolyline
 62
250
  6
CONTINUOUS
 90
4
 70
0
 10
56.3144216358
 20
-16.999333344
 10
60.3250664407
 20
-20.1143682619
 10
62.3202580388
 20
-21.6668569058
 10
64.3077953951
 20
-23.2156521411
  0
LWPOLYLINE
  5
29D
100
AcDbEntity
  8
IMPORT_IGES
100
AcDbPolyline
 62
250
  6
CONTINUOUS
 90
4
 70
0
 10
2.5707267473
 20
23.2156515268
 10
4.5582639249
 20
21.6668564361
 10
6.5534551532
 20
20.1143680929
 10
10.5640986958
 20
16.9993341673
  0
LWPOLYLINE
  5
29E
100
AcDbEntity
  8
IMPORT_IGES
100
AcDbPolyline
 62
250
  6
CONTINUOUS
 90
3
 70
0
 10
-3.3430225625
 20
27.8369629711
 10
-1.3801983255
 20
26.301063793
 10
2.5707267473
 20
23.2156515268
  0
LWPOLYLINE
  5
29F
100
AcDbEntity
  8
IMPORT_IGES
100
AcDbPolyline
 62
250
  6
CONTINUOUS
 90
5
 70
0
 10
-13.0119304971
 20
35.4353203673
 10
-11.0991370122
 20
33.9276572581
 10
-9.1752683772
 20
32.4136221775
 10
-7.2408816632
 20
30.8935794754
 10
-3.3430225625
 20
27.8369629711
  0
LINE
  5
2A0
100
AcDbEntity
  8
IMPORT_IGES
100
AcDbLine
 62
250
  6
CONTINUOUS
 10
50.4386807013
 20
-22.8750981414
 11
53.5773593664
 21
-26.8669485749
  0
LINE
  5
2A1
100
AcDbEntity
  8
IMPORT_IGES
100
AcDbLine
 62
250
  6
CONTINUOUS
 10
53.5773593664
 20
-26.8669485749
 11
56.6937878113
 21
-30.8381084661
  0
LINE
  5
2A2
100
AcDbEntity
  8
IMPORT_IGES
100
AcDbLine
 62
250
  6
CONTINUOUS
 10
56.6937878113
 20
-30.8381084661
 11
59.7845850942
 21
-34.7850799921
  0
LINE
  5
2A3
100
AcDbEntity
  8
IMPORT_IGES
100
AcDbLine
 62
250
  6
CONTINUOUS
 10
59.7845850942
 20
-34.7850799921
 11
62.8478280059
 21
-38.7049510053
  0
LINE
  5
2A4
100
AcDbEntity
  8
IMPORT_IGES
100
AcDbLine
 62
250
  6
CONTINUOUS
 10
5.5586412802
 20
36.7486410404
 11
2.5102378505
 21
40.6536054399
  0
LINE
  5
2A5
100
AcDbEntity
  8
IMPORT_IGES
100
AcDbLine
 62
250
  6
CONTINUOUS
 10
62.8478280059
 20
-38.7049510053
 11
65.8809529875
 21
-42.5941752487
  0
LWPOLYLINE
  5
2A6
100
AcDbEntity
  8
IMPORT_IGES
100
AcDbPolyline
 62
250
  6
CONTINUOUS
 90
3
 70
0
 10
2.5102378505
 20
40.6536054399
 10
-0.5068382599
 20
44.5262019157
 10
-2.0025959484
 20
46.4492454982
  0
LINE
  5
2A7
100
AcDbEntity
  8
IMPORT_IGES
100
AcDbLine
 62
250
  6
CONTINUOUS
 10
65.8809529875
 20
-42.5941752487
 11
68.8811184109
 21
-46.4492470835
  0
LINE
  5
2A8
100
AcDbEntity
  8
IMPORT_IGES
100
AcDbLine
 62
250
  6
CONTINUOUS
 10
50.4508614548
 20
-22.8662350088
 11
50.4370542764
 21
-22.8472435972
  0
LINE
  5
2A9
100
AcDbEntity
  8
IMPORT_IGES
100
AcDbLine
 62
250
  6
CONTINUOUS
 10
16.4276427335
 20
22.8662321176
 11
16.441446576
 21
22.8472248045
  0
LINE
  5
2AA
100
AcDbEntity
  8
IMPORT_IGES
100
AcDbLine
 62
250
  6
CONTINUOUS
 10
8.6360421463
 20
-32.8147868083
 11
5.5585975497
 21
-36.7486484031
  0
LINE
  5
2AB
100
AcDbEntity
  8
IMPORT_IGES
100
AcDbLine
 62
250
  6
CONTINUOUS
 10
11.7398487435
 20
-28.8553802249
 11
8.6360421463
 21
-32.8147868083
  0
LWPOLYLINE
  5
2AC
100
AcDbEntity
  8
IMPORT_IGES
100
AcDbPolyline
 62
250
  6
CONTINUOUS
 90
3
 70
0
 10
16.4398415189
 20
-22.8750970919
 10
14.8679699932
 20
-24.8733733201
 10
11.7398487435
 20
-28.8553802249
  0
LWPOLYLINE
  5
2AD
100
AcDbEntity
  8
IMPORT_IGES
100
AcDbPolyline
 62
250
  6
CONTINUOUS
 90
3
 70
0
 10
76.0537876786
 20
32.4136225083
 10
77.9776546491
 20
33.9276555442
 10
79.8904461575
 20
35.4353158078
  0
LWPOLYLINE
  5
2AE
100
AcDbEntity
  8
IMPORT_IGES
100
AcDbPolyline
 62
250
  6
CONTINUOUS
 90
3
 70
0
 10
70.221544853
 20
27.8369648482
 10
72.1751733624
 20
29.3679072496
 10
76.0537876786
 20
32.4136225083
  0
LWPOLYLINE
  5
2AF
100
AcDbEntity
  8
IMPORT_IGES
100
AcDbPolyline
 62
250
  6
CONTINUOUS
 90
4
 70
0
 10
62.3202600444
 20
21.6668570726
 10
64.3077971502
 20
23.2156524282
 10
66.2873018163
 20
24.7605008041
 10
70.221544853
 20
27.8369648482
  0
LWPOLYLINE
  5
2B0
100
AcDbEntity
  8
IMPORT_IGES
100
AcDbPolyline
 62
250
  6
CONTINUOUS
 90
3
 70
0
 10
64.3077953951
 20
-23.2156521411
 10
68.2587204774
 20
-26.301064419
 10
70.2215138188
 20
-27.8369394319
  0
LWPOLYLINE
  5
2B1
100
AcDbEntity
  8
IMPORT_IGES
100
AcDbPolyline
 62
250
  6
CONTINUOUS
 90
5
 70
0
 10
70.2215138188
 20
-27.8369394319
 10
74.1194035962
 20
-30.8935799773
 10
76.0539728099
 20
-32.4137661787
 10
77.9781128227
 20
-33.9280152566
 10
79.8912648534
 20
-35.4359619469
  0
LINE
  5
2B2
100
AcDbEntity
  8
IMPORT_IGES
100
AcDbLine
 62
250
  6
CONTINUOUS
 10
16.4398406923
 20
22.875098141
 11
13.3011620096
 21
26.8669485612
  0
LINE
  5
2B3
100
AcDbEntity
  8
IMPORT_IGES
100
AcDbLine
 62
250
  6
CONTINUOUS
 10
13.3011620096
 20
26.8669485612
 11
10.184733546
 21
30.8381084401
  0
LWPOLYLINE
  5
2B4
100
AcDbEntity
  8
IMPORT_IGES
100
AcDbPolyline
 62
250
  6
CONTINUOUS
 90
3
 70
0
 10
10.184733546
 20
30.8381084401
 10
7.0939362446
 20
34.7850799545
 10
5.5586412802
 20
36.7486410404
  0
LINE
  5
2B5
100
AcDbEntity
  8
IMPORT_IGES
100
AcDbLine
 62
7
  6
CONTINUOUS
 10
40.439260697
 20
-27.1108834235
 11
40.439260697
 21
-27.6269795671
  0
LINE
  5
2B6
100
AcDbEntity
  8
IMPORT_IGES
100
AcDbLine
 62
7
  6
CONTINUOUS
 10
40.439260697
 20
27.1108834234
 11
40.439260697
 21
27.6269795682
  0
LINE
  5
2B7
100
AcDbEntity
  8
IMPORT_IGES
100
AcDbLine
 62
7
  6
CONTINUOUS
 10
5.8122811299
 20
7.0
 11
6.3283772736
 21
7.0
  0
LINE
  5
2B8
100
AcDbEntity
  8
IMPORT_IGES
100
AcDbLine
 62
7
  6
CONTINUOUS
 10
60.5501441205
 20
7.0
 11
61.0662402641
 21
7.0
  0
LINE
  5
2B9
100
AcDbEntity
  8
IMPORT_IGES
100
AcDbLine
 62
250
  6
CONTINUOUS
 10
69.0376071526
 20
47.1239078317
 11
69.031163596
 21
47.0950292657
  0
LINE
  5
2BA
100
AcDbEntity
  8
IMPORT_IGES
100
AcDbLine
 62
250
  6
CONTINUOUS
 10
69.2824207174
 20
46.7246856237
 11
69.3226542845
 21
46.9026035878
  0
LINE
  5
2BB
100
AcDbEntity
  8
IMPORT_IGES
100
AcDbLine
 62
250
  6
CONTINUOUS
 10
69.031163596
 20
47.0950292657
 11
68.9867112512
 21
46.9015697153
  0
LINE
  5
2BC
100
AcDbEntity
  8
IMPORT_IGES
100
AcDbLine
 62
250
  6
CONTINUOUS
 10
68.9867112512
 20
46.9015697153
 11
68.8816603028
 21
46.4499794444
  0
LINE
  5
2BD
100
AcDbEntity
  8
IMPORT_IGES
100
AcDbLine
 62
250
  6
CONTINUOUS
 10
69.2004678424
 20
46.3707421835
 11
69.2824207174
 21
46.7246856237
  0
LWPOLYLINE
  5
2BE
100
AcDbEntity
  8
0
100
AcDbPolyline
 62
7
  6
CONTINUOUS
 90
10
 70
0
 43
0.3500000006
 10
91.43926474
 20
1.928571373
 10
91.582118042
 20
2.0000002899
 10
91.6535492249
 20
2.0000002899
 10
91.7964025269
 20
1.8571424561
 10
91.7964025269
 20
1.7857135391
 10
91.724971344
 20
1.7142868881
 10
91.6535492249
 20
1.7142868881
 10
91.5106868591
 20
1.7857135391
 10
91.43926474
 20
1.8571424561
 10
91.43926474
 20
1.928571373
  0
LINE
  5
2BF
100
AcDbEntity
  8
IMPORT_IGES
100
AcDbLine
 62
250
  6
CONTINUOUS
 10
79.8903431668
 20
35.4357454576
 11
80.4884913075
 21
35.5748828412
  0
LINE
  5
2C0
100
AcDbEntity
  8
IMPORT_IGES
100
AcDbLine
 62
250
  6
CONTINUOUS
 10
79.8108780238
 20
35.7615306532
 11
80.1682084919
 21
35.8442286079
  0
LWPOLYLINE
  5
2C1
100
AcDbEntity
  8
IMPORT_IGES
100
AcDbPolyline
 62
250
  6
CONTINUOUS
 90
3
 70
0
 10
80.1682084919
 20
35.8442286079
 10
80.3073937462
 20
35.875764012
 10
80.3463200032
 20
35.8844522745
  0
LWPOLYLINE
  5
2C2
100
AcDbEntity
  8
IMPORT_IGES
100
AcDbPolyline
 62
250
  6
CONTINUOUS
 90
5
 70
0
 10
80.4884913075
 20
35.5748828412
 10
80.5525465717
 20
35.589409208
 10
80.5646297912
 20
35.5920657834
 10
80.5718846227
 20
35.5935862193
 10
80.5743121133
 20
35.593972067
  0
LINE
  5
2C3
100
AcDbEntity
  8
IMPORT_IGES
100
AcDbLine
 62
250
  6
CONTINUOUS
 10
-13.6572499875
 20
35.585646612
 11
-13.6861128529
 21
35.5920667106
  0
LINE
  5
2C4
100
AcDbEntity
  8
IMPORT_IGES
100
AcDbLine
 62
250
  6
CONTINUOUS
 10
-13.467691613
 20
35.8844286532
 11
-13.339544323
 21
35.8555908234
  0
LINE
  5
2C5
100
AcDbEntity
  8
IMPORT_IGES
100
AcDbLine
 62
250
  6
CONTINUOUS
 10
-13.5065272075
 20
35.5510518135
 11
-13.6572499875
 21
35.585646612
  0
LINE
  5
2C6
100
AcDbEntity
  8
IMPORT_IGES
100
AcDbLine
 62
250
  6
CONTINUOUS
 10
-13.339544323
 20
35.8555908234
 11
-13.060260919
 21
35.791335363
  0
LINE
  5
2C7
100
AcDbEntity
  8
IMPORT_IGES
100
AcDbLine
 62
250
  6
CONTINUOUS
 10
-13.060260919
 20
35.791335363
 11
-12.9323004521
 21
35.7615172672
  0
LINE
  5
2C8
100
AcDbEntity
  8
IMPORT_IGES
100
AcDbLine
 62
250
  6
CONTINUOUS
 10
-13.0127434716
 20
35.4359618991
 11
-13.5065272075
 21
35.5510518135
  0
LWPOLYLINE
  5
2C9
100
AcDbEntity
  8
0
100
AcDbPolyline
 62
7
  6
CONTINUOUS
 90
3
 70
0
 43
0.3500000006
 10
91.6535492249
 20
2.0000002899
 10
91.8678337097
 20
1.928571373
 10
92.1535493774
 20
1.7857135391
  0
LINE
  5
2CA
100
AcDbEntity
  8
IMPORT_IGES
100
AcDbLine
 62
250
  6
CONTINUOUS
 10
68.8813826196
 20
-46.4491838996
 11
69.0203825539
 21
-47.0476579912
  0
LINE
  5
2CB
100
AcDbEntity
  8
IMPORT_IGES
100
AcDbLine
 62
250
  6
CONTINUOUS
 10
69.2005178589
 20
-46.3709582987
 11
69.2833171165
 21
-46.728603933
  0
LWPOLYLINE
  5
2CC
100
AcDbEntity
  8
IMPORT_IGES
100
AcDbPolyline
 62
250
  6
CONTINUOUS
 90
3
 70
0
 10
69.2833171165
 20
-46.728603933
 10
69.3149048954
 20
-46.8679290984
 10
69.3236098954
 20
-46.9068959859
  0
LWPOLYLINE
  5
2CD
100
AcDbEntity
  8
IMPORT_IGES
100
AcDbPolyline
 62
250
  6
CONTINUOUS
 90
5
 70
0
 10
69.0203825539
 20
-47.0476579912
 10
69.0349341285
 20
-47.1117895275
 10
69.0376020101
 20
-47.1238865592
 10
69.0391349318
 20
-47.1311481773
 10
69.0395343693
 20
-47.1335750497
  0
LWPOLYLINE
  5
2CE
100
AcDbEntity
  8
IMPORT_IGES
100
AcDbPolyline
 62
250
  6
CONTINUOUS
 90
3
 70
0
 10
69.0395454994
 20
47.1335718013
 10
69.0391425311
 20
47.1311577206
 10
69.0376071526
 20
47.1239078317
  0
LWPOLYLINE
  5
2CF
100
AcDbEntity
  8
IMPORT_IGES
100
AcDbPolyline
 62
250
  6
CONTINUOUS
 90
6
 70
0
 10
69.3431208343
 20
46.996198011
 10
69.3477892169
 20
47.0184494862
 10
69.3513425759
 20
47.0360589343
 10
69.3537397744
 20
47.0488397642
 10
69.3549420133
 20
47.0565985303
 10
69.3549438055
 20
47.0592898182
  0
LWPOLYLINE
  5
2D0
100
AcDbEntity
  8
IMPORT_IGES
100
AcDbPolyline
 62
250
  6
CONTINUOUS
 90
3
 70
0
 10
69.3226542845
 20
46.9026035878
 10
69.3304968468
 20
46.9380181835
 10
69.3431208343
 20
46.996198011
  0
LWPOLYLINE
  5
2D1
100
AcDbEntity
  8
IMPORT_IGES
100
AcDbPolyline
 62
250
  6
CONTINUOUS
 90
13
 70
0
 10
60.9379314934
 20
-7.0
 10
60.7536134989
 20
-7.7116483183
 10
60.5108766157
 20
-8.5447479441
 10
60.2430636297
 20
-9.3709572831
 10
59.9511115989
 20
-10.1872100335
 10
59.6349094765
 20
-10.9932244671
 10
59.2945683094
 20
-11.7892823121
 10
58.9313582961
 20
-12.5731624515
 10
58.5451992334
 20
-13.344884686
 10
58.1361713246
 20
-14.1044292149
 10
57.7057853779
 20
-14.8495155182
 10
57.254544996
 20
-15.5793834225
 10
56.7819465762
 20
-16.2947931012
  0
LINE
  5
2D2
100
AcDbEntity
  8
IMPORT_IGES
100
AcDbLine
 62
250
  6
CONTINUOUS
 10
56.7819465762
 20
-16.2947931012
 11
56.2879901185
 21
-16.9957445542
  0
LWPOLYLINE
  5
2D3
100
AcDbEntity
  8
IMPORT_IGES
100
AcDbPolyline
 62
250
  6
CONTINUOUS
 90
13
 70
0
 10
56.2879901185
 20
-16.9957445542
 10
55.8722219489
 20
-17.5502695032
 10
55.4428745712
 20
-18.0931778881
 10
54.9999479853
 20
-18.6244697091
 10
54.5431294213
 20
-19.144485954
 10
54.0727316492
 20
-19.6528856349
 10
53.5896929785
 20
-20.1486457883
 10
53.0939863431
 20
-20.6317397638
 10
52.5856388091
 20
-21.1021942118
 10
52.0656698846
 20
-21.5590661203
 10
51.5344194057
 20
-22.0020411521
 10
50.9915475363
 20
-22.4314336444
 10
50.4370542764
 20
-22.8472435972
  0
LWPOLYLINE
  5
2D4
100
AcDbEntity
  8
IMPORT_IGES
100
AcDbPolyline
 62
250
  6
CONTINUOUS
 90
14
 70
0
 10
50.4370542764
 20
-22.8472435972
 10
49.733370464
 20
-23.3430733834
 10
49.0159786081
 20
-23.8169927631
 10
48.2848787088
 20
-24.2690017363
 10
47.5393901787
 20
-24.6994689967
 10
46.7801936051
 20
-25.1080258506
 10
46.0093307503
 20
-25.4935662174
 10
45.2268071638
 20
-25.8560778727
 10
44.4326172962
 20
-26.1955730409
 10
43.6287862609
 20
-26.5109823152
 10
42.8152647914
 20
-26.8022061306
 10
41.9921021542
 20
-27.069344052
 10
41.1614712629
 20
-27.3116253673
 10
40.439260697
 20
-27.4988828956
  0
LWPOLYLINE
  5
2D5
100
AcDbEntity
  8
IMPORT_IGES
100
AcDbPolyline
 62
250
  6
CONTINUOUS
 90
8
 70
0
 10
80.3463200032
 20
35.8844522745
 10
80.4116566561
 20
35.8988000652
 10
80.4378184574
 20
35.9044049699
 10
80.459383149
 20
35.9089082767
 10
80.4763592053
 20
35.9123115793
 10
80.4886143633
 20
35.914586655
 10
80.4960151015
 20
35.9157085332
 10
80.4985613813
 20
35.9156821686
  0
LWPOLYLINE
  5
2D6
100
AcDbEntity
  8
IMPORT_IGES
100
AcDbPolyline
 62
250
  6
CONTINUOUS
 90
3
 70
0
 10
-13.6861128529
 20
35.5920667106
 10
-13.6933663174
 20
35.593586848
 10
-13.6957916808
 20
35.5939722559
  0
LWPOLYLINE
  5
2D7
100
AcDbEntity
  8
IMPORT_IGES
100
AcDbPolyline
 62
250
  6
CONTINUOUS
 90
3
 70
0
 10
-13.5592149099
 20
35.9043873794
 10
-13.5024495461
 20
35.892108323
 10
-13.467691613
 20
35.8844286532
  0
LWPOLYLINE
  5
2D8
100
AcDbEntity
  8
IMPORT_IGES
100
AcDbPolyline
 62
250
  6
CONTINUOUS
 90
13
 70
0
 10
40.439260697
 20
27.4988827155
 10
41.1614272331
 20
27.3116378113
 10
41.9920575348
 20
27.0693579347
 10
42.8152203347
 20
26.80222124
 10
43.6287427265
 20
26.5109983963
 10
44.4325754506
 20
26.1955899429
 10
45.2267677664
 20
25.8560953405
 10
46.0092945467
 20
25.4935836408
 10
46.7801615115
 20
25.108042517
 10
47.5393629406
 20
24.6994842959
 10
48.2848565462
 20
24.2690150094
 10
49.0159615655
 20
23.8170033348
 10
49.7333587612
 20
23.3430805948
  0
LINE
  5
2D9
100
AcDbEntity
  8
IMPORT_IGES
100
AcDbLine
 62
250
  6
CONTINUOUS
 10
49.7333587612
 20
23.3430805948
 11
50.4370481333
 21
22.8472467894
  0
LWPOLYLINE
  5
2DA
100
AcDbEntity
  8
IMPORT_IGES
100
AcDbPolyline
 62
250
  6
CONTINUOUS
 90
13
 70
0
 10
50.4370481333
 20
22.8472467894
 10
50.9915449399
 20
22.4314366802
 10
51.5344200365
 20
22.0020436226
 10
52.065673423
 20
21.5590676168
 10
52.5856449539
 20
21.1021943086
 10
53.0939947748
 20
20.6317380521
 10
53.5897033224
 20
20.1486419097
 10
54.0727450593
 20
19.6528803466
 10
54.543145523
 20
19.1444788976
 10
54.9999617629
 20
18.6244572294
 10
55.4428794623
 20
18.093155231
 10
55.8722129379
 20
17.5502330134
 10
56.2879621898
 20
16.9956905767
  0
LWPOLYLINE
  5
2DB
100
AcDbEntity
  8
IMPORT_IGES
100
AcDbPolyline
 62
250
  6
CONTINUOUS
 90
14
 70
0
 10
56.2879621898
 20
16.9956905767
 10
56.7819772378
 20
16.2946262065
 10
57.2545236839
 20
15.5793364764
 10
57.7056015283
 20
14.8498213864
 10
58.1356799
 20
14.1053392744
 10
58.54428967
 20
13.3466318026
 10
58.9300234505
 20
12.5759239575
 10
59.2928124978
 20
11.7932462193
 10
59.6327255557
 20
10.9985681079
 10
59.9485614682
 20
10.1940231697
 10
60.240219444
 20
9.379336999
 10
60.5078002743
 20
8.5547840015
 10
60.7504051775
 20
7.7233209399
 10
60.9380898295
 20
7.0
  0
LWPOLYLINE
  5
2DC
100
AcDbEntity
  8
0
100
AcDbPolyline
 62
7
  6
CONTINUOUS
 90
10
 70
0
 43
0.3500000006
 10
35.3678323288
 20
60.4999954834
 10
35.4392612457
 20
60.3571421814
 10
35.4392612457
 20
60.2857109985
 10
35.2964034119
 20
60.1428576965
 10
35.2249744949
 20
60.1428576965
 10
35.153545578
 20
60.2142888794
 10
35.153545578
 20
60.2857109985
 10
35.2249744949
 20
60.4285733643
 10
35.2964034119
 20
60.4999954834
 10
35.3678323288
 20
60.4999954834
  0
LWPOLYLINE
  5
2DD
100
AcDbEntity
  8
IMPORT_IGES
100
AcDbPolyline
 62
250
  6
CONTINUOUS
 90
8
 70
0
 10
69.3236098954
 20
-46.9068959859
 10
69.3379891957
 20
-46.9723020656
 10
69.3436086903
 20
-46.9984921136
 10
69.3481256045
 20
-47.0200801732
 10
69.3515415433
 20
-47.0370747468
 10
69.3538281742
 20
-47.0493432674
 10
69.3549603734
 20
-47.05675191
 10
69.3549430366
 20
-47.0593006442
  0
LWPOLYLINE
  5
2DE
100
AcDbEntity
  8
IMPORT_IGES
100
AcDbPolyline
 62
250
  6
CONTINUOUS
 90
6
 70
0
 10
-13.6200396101
 20
35.9156835978
 10
-13.6174734412
 20
35.9157053885
 10
-13.6100543906
 20
35.9145792733
 10
-13.5977827173
 20
35.9123003523
 10
-13.5807921171
 20
35.9088936418
 10
-13.5592149099
 20
35.9043873794
  0
LWPOLYLINE
  5
2DF
100
AcDbEntity
  8
0
100
AcDbPolyline
 62
7
  6
CONTINUOUS
 90
3
 70
0
 43
0.3500000006
 10
89.7964019165
 20
-5.1428574142
 10
88.9392639771
 20
-4.28571381
 10
91.9392648926
 20
-4.28571381
  0
LWPOLYLINE
  5
2E0
100
AcDbEntity
  8
IMPORT_IGES
100
AcDbPolyline
 62
250
  6
CONTINUOUS
 90
6
 70
0
 10
79.8912648534
 20
-35.4359619469
 10
79.8562001144
 20
-35.5825531571
 10
79.8474644195
 20
-35.618629058
 10
79.8384601031
 20
-35.6550002137
 10
79.8290975497
 20
-35.6918238727
 10
79.8194596963
 20
-35.7289401204
  0
LINE
  5
2E1
100
AcDbEntity
  8
IMPORT_IGES
100
AcDbLine
 62
250
  6
CONTINUOUS
 10
-2.18188012
 20
46.406776102
 11
-2.0029960582
 21
46.4497603544
  0
LWPOLYLINE
  5
2E2
100
AcDbEntity
  8
IMPORT_IGES
100
AcDbPolyline
 62
250
  6
CONTINUOUS
 90
16
 70
0
 10
-2.0025959484
 20
46.4492454982
 10
0.324138372
 20
46.9836336458
 10
2.6584597642
 20
47.4816822815
 10
4.9998340139
 20
47.9432801477
 10
7.3477698448
 20
48.3682841862
 10
9.7016754228
 20
48.7566126446
 10
12.060877415
 20
49.1082469562
 10
14.424850788
 20
49.4230619704
 10
16.7930534049
 20
49.7009607347
 10
19.1648187035
 20
49.9419791615
 10
21.5396471638
 20
50.1460206689
 10
23.9169876165
 20
50.3130042253
 10
26.2961388274
 20
50.4430067458
 10
28.6765420007
 20
50.5360049464
 10
31.057751621
 20
50.5918698317
 10
33.4392606462
 20
50.6105287129
  0
LWPOLYLINE
  5
2E3
100
AcDbEntity
  8
IMPORT_IGES
100
AcDbPolyline
 62
250
  6
CONTINUOUS
 90
16
 70
0
 10
33.4392606397
 20
50.6112703216
 10
35.8205658469
 20
50.5920746843
 10
38.2015755572
 20
50.5357578079
 10
40.5817953987
 20
50.442389407
 10
42.9608027267
 20
50.3120959009
 10
45.3380410229
 20
50.1448979055
 10
47.7127905376
 20
49.940717318
 10
50.0845121472
 20
49.6996371408
 10
52.4527195199
 20
49.4217518398
 10
54.8167281028
 20
49.1070212013
 10
57.1759936919
 20
48.755547711
 10
59.5300176991
 20
48.367455119
 10
61.8781485889
 20
47.9427476553
 10
64.2198080099
 20
47.4815025777
 10
66.5545124143
 20
46.9838694729
 10
68.8817390344
 20
46.4499608306
  0
LWPOLYLINE
  5
2E4
100
AcDbEntity
  8
IMPORT_IGES
100
AcDbPolyline
 62
250
  6
CONTINUOUS
 90
5
 70
0
 10
68.881620266
 20
46.4498079517
 10
69.0603884702
 20
46.4067767692
 10
69.0960648863
 20
46.3979578702
 10
69.1321911956
 20
46.3887889867
 10
69.1686172204
 20
46.3793537605
  0
LWPOLYLINE
  5
2E5
100
AcDbEntity
  8
IMPORT_IGES
100
AcDbPolyline
 62
250
  6
CONTINUOUS
 90
3
 70
0
 10
79.8478611494
 20
35.6170364928
 10
79.8826490238
 20
35.4722842261
 10
79.8912637667
 20
35.4359609949
  0
LWPOLYLINE
  5
2E6
100
AcDbEntity
  8
IMPORT_IGES
100
AcDbPolyline
 62
250
  6
CONTINUOUS
 90
31
 70
0
 10
79.8904461575
 20
35.4353158078
 10
80.4239276358
 20
33.1127722662
 10
80.9212519411
 20
30.7822963153
 10
81.3822886678
 20
28.4444171455
 10
81.8068705563
 20
26.0996313518
 10
82.1949021655
 20
23.7485173929
 10
82.5463597963
 20
21.3917143553
 10
82.8610970024
 20
19.0297466981
 10
83.1389965812
 20
16.6631480053
 10
83.3800868744
 20
14.2925355928
 10
83.5842495658
 20
11.918402034
 10
83.7513797113
 20
9.5412961449
 10
83.8815396744
 20
7.1618743259
 10
83.9746442107
 20
4.7806064432
 10
84.030575847
 20
2.3980224035
 10
84.0493651563
 20
0.0148234394
 10
84.0310372607
 20
-2.368511034
 10
83.975553388
 20
-4.7515010876
 10
83.8828718007
 20
-7.1334446608
 10
83.7530978191
 20
-9.5138112866
 10
83.5863037958
 20
-11.8921298266
 10
83.3824152778
 20
-14.2677416698
 10
83.1415249729
 20
-16.640096121
 10
82.8637388704
 20
-19.0086983534
 10
82.5490165226
 20
-21.3729277071
 10
82.1974631997
 20
-23.7322474847
 10
81.8092133406
 20
-26.0861299731
 10
81.3842787159
 20
-28.4339319694
 10
80.9227429789
 20
-30.7750707407
 10
80.4247617263
 20
-33.1090453096
 10
79.8904537409
 20
-35.435321624
  0
LWPOLYLINE
  5
2E7
100
AcDbEntity
  8
0
100
AcDbPolyline
 62
7
  6
CONTINUOUS
 90
7
 70
0
 43
0.3500000006
 10
91.9392648926
 20
0.4285709152
 10
91.9392648926
 20
-1.0714272766
 10
89.7964019165
 20
0.4285709152
 10
89.3678329468
 20
0.4285709152
 10
88.9392639771
 20
-0.0000003204
 10
88.9392639771
 20
-0.642856041
 10
89.5821174316
 20
-1.0714272766
  0
LWPOLYLINE
  5
2E8
100
AcDbEntity
  8
0
100
AcDbPolyline
 62
7
  6
CONTINUOUS
 90
8
 70
0
 43
0.3500000006
 10
91.9392648926
 20
3.0000005951
 10
91.9392648926
 20
3.8571430664
 10
91.5106868591
 20
4.2857143021
 10
90.6535489197
 20
4.2857143021
 10
90.2249708862
 20
3.8571430664
 10
90.2249708862
 20
3.0000005951
 10
88.9392639771
 20
3.0000005951
 10
88.9392639771
 20
4.2857143021
  0
LWPOLYLINE
  5
2E9
100
AcDbEntity
  8
IMPORT_IGES
100
AcDbPolyline
 62
250
  6
CONTINUOUS
 90
30
 70
0
 10
79.8194596963
 20
-35.7289401204
 10
79.675860452
 20
-36.269234319
 10
79.523855869
 20
-36.7677939581
 10
79.3536983971
 20
-37.2614116191
 10
79.1655039214
 20
-37.7496826624
 10
78.9595005729
 20
-38.2317516812
 10
78.7360973822
 20
-38.7063394446
 10
78.4955847125
 20
-39.1726301067
 10
78.2382007115
 20
-39.6302020616
 10
77.9643557226
 20
-40.078395556
 10
77.6742827396
 20
-40.5165641548
 10
77.3683136757
 20
-40.9441133636
 10
77.0470341359
 20
-41.3604828399
 10
76.7107406154
 20
-41.7650793915
 10
76.3597419768
 20
-42.1572777138
 10
75.9946690395
 20
-42.5365028025
 10
75.6159994871
 20
-42.9023229619
 10
75.2241425811
 20
-43.2542357618
 10
74.8196602918
 20
-43.5915920751
 10
74.4031646742
 20
-43.9140639796
 10
73.9752340107
 20
-44.2213309648
 10
73.5364155679
 20
-44.512780265
 10
73.0872939766
 20
-44.7880557095
 10
72.6285074359
 20
-45.0469000919
 10
72.1607077444
 20
-45.2888746534
 10
71.6843111404
 20
-45.5137149182
 10
71.2001307134
 20
-45.7211033826
 10
70.709444548
 20
-45.9106007322
 10
70.2131085423
 20
-46.0819500848
 10
69.7115290644
 20
-46.2350077717
  0
LWPOLYLINE
  5
2EA
100
AcDbEntity
  8
IMPORT_IGES
100
AcDbPolyline
 62
250
  6
CONTINUOUS
 90
5
 70
0
 10
-2.8330159988
 20
46.2350747229
 10
-2.2901003334
 20
46.3793536767
 10
-2.2536771551
 20
46.3887878664
 10
-2.2175524989
 20
46.3979559917
 10
-2.18188012
 20
46.406776102
  0
LWPOLYLINE
  5
2EB
100
AcDbEntity
  8
IMPORT_IGES
100
AcDbPolyline
 62
250
  6
CONTINUOUS
 90
30
 70
0
 10
69.1686172204
 20
46.3793537605
 10
69.7081702303
 20
46.236041956
 10
70.2066805358
 20
46.0841104461
 10
70.7002580105
 20
45.9140237093
 10
71.1884990594
 20
45.7258983679
 10
71.6705479333
 20
45.5199624961
 10
72.1451237052
 20
45.2966244731
 10
72.6114111237
 20
45.0561756829
 10
73.0689888587
 20
44.7988542151
 10
73.5171949111
 20
44.5250682734
 10
73.9553830558
 20
44.2350510242
 10
74.3829592772
 20
43.9291350012
 10
74.7993611123
 20
43.6079042231
 10
75.2039949699
 20
43.2716547368
 10
75.596236328
 20
42.9206963948
 10
75.9755095712
 20
42.5556604059
 10
76.3413817566
 20
42.1770230814
 10
76.6933489154
 20
41.7851923717
 10
77.0307612228
 20
41.3807310823
 10
77.3532918544
 20
40.9642522364
 10
77.6606199615
 20
40.5363338709
 10
77.9521304052
 20
40.0975227458
 10
78.22746791
 20
39.6484041993
 10
78.4863757449
 20
39.1896168674
 10
78.7284125971
 20
38.7218120817
 10
78.9533148336
 20
38.2454067259
 10
79.1607660532
 20
37.7612145641
 10
79.3503250473
 20
37.2705134952
 10
79.5217350771
 20
36.7741597903
 10
79.6748546178
 20
36.2725606381
  0
LWPOLYLINE
  5
2EC
100
AcDbEntity
  8
IMPORT_IGES
100
AcDbPolyline
 62
250
  6
CONTINUOUS
 90
5
 70
0
 10
79.6748546178
 20
36.2725606381
 10
79.8195914825
 20
35.7282957534
 10
79.8293672066
 20
35.6907054254
 10
79.838818497
 20
35.6535655503
 10
79.8478611494
 20
35.6170364928
  0
LWPOLYLINE
  5
2ED
100
AcDbEntity
  8
0
100
AcDbPolyline
 62
7
  6
CONTINUOUS
 90
7
 70
0
 43
0.3500000006
 10
33.867831871
 20
60.0000043945
 10
32.3678314133
 20
60.0000043945
 10
33.867831871
 20
62.1428583069
 10
33.867831871
 20
62.5714272766
 10
33.4392606354
 20
62.9999962463
 10
32.7964026489
 20
62.9999962463
 10
32.3678314133
 20
62.3571427917
  0
LWPOLYLINE
  5
2EE
100
AcDbEntity
  8
0
100
AcDbPolyline
 62
7
  6
CONTINUOUS
 90
8
 70
0
 43
0.3500000006
 10
36.4392615509
 20
60.0000043945
 10
37.2964040222
 20
60.0000043945
 10
37.7249752579
 20
60.4285733643
 10
37.7249752579
 20
61.2857113037
 10
37.2964040222
 20
61.7142893372
 10
36.4392615509
 20
61.7142893372
 10
36.4392615509
 20
62.9999962463
 10
37.7249752579
 20
62.9999962463
  0
LWPOLYLINE
  5
2EF
100
AcDbEntity
  8
0
100
AcDbPolyline
 62
7
  6
CONTINUOUS
 90
5
 70
0
 43
0.3500000006
 10
-72.3140436401
 20
61.7142893372
 10
-71.9569013214
 20
61.928573822
 10
-71.9569013214
 20
62.5714272766
 10
-72.3140436401
 20
62.9999962463
 10
-73.1711861115
 20
62.9999962463
  0
LINE
  5
2F0
100
AcDbEntity
  8
IMPORT_IGES
100
AcDbLine
 62
7
  6
CONTINUOUS
 10
-50.0568991114
 20
-51.25
 11
-73.1740598214
 21
-51.25
  0
LINE
  5
2F1
100
AcDbEntity
  8
IMPORT_IGES
100
AcDbLine
 62
250
  6
CONTINUOUS
 10
-73.1224941498
 20
-47.0593006644
 11
-50.0568991114
 21
-47.0593005315
  0
LINE
  5
2F2
100
AcDbEntity
  8
IMPORT_IGES
100
AcDbLine
 62
7
  6
CONTINUOUS
 10
-50.0568991114
 20
-45.25
 11
-47.5568991114
 21
-45.25
  0
LWPOLYLINE
  5
2F3
100
AcDbEntity
  8
IMPORT_IGES
100
AcDbPolyline
 62
250
  6
CONTINUOUS
 90
22
 70
0
 10
-47.5568991119
 20
-41.2204811526
 10
-47.5193742493
 20
-41.2191089291
 10
-47.482374644
 20
-41.2150460978
 10
-47.4460975734
 20
-41.2083835826
 10
-47.4108456624
 20
-41.1992598059
 10
-47.3766669074
 20
-41.1877706118
 10
-47.3433833531
 20
-41.173885789
 10
-47.3111022368
 20
-41.1576285297
 10
-47.2800763535
 20
-41.139103801
 10
-47.2503795834
 20
-41.1183274104
 10
-47.2222006914
 20
-41.0953868929
 10
-47.1957080566
 20
-41.0703719688
 10
-47.1709759646
 20
-41.043277449
 10
-47.1481270032
 20
-41.0141109222
 10
-47.1274328207
 20
-40.9830789866
 10
-47.1091680286
 20
-40.9505027277
 10
-47.0934848159
 20
-40.9166118235
 10
-47.0804695711
 20
-40.8815441182
 10
-47.0702318046
 20
-40.8455267302
 10
-47.0628529211
 20
-40.8087771387
 10
-47.0583931613
 20
-40.7714993549
 10
-47.056899112
 20
-40.7339128821
  0
LINE
  5
2F4
100
AcDbEntity
  8
IMPORT_IGES
100
AcDbLine
 62
7
  6
CONTINUOUS
 10
-47.0568991114
 20
-41.9580434059
 11
-46.0568991114
 21
-41.9580434059
  0
LINE
  5
2F5
100
AcDbEntity
  8
IMPORT_IGES
100
AcDbLine
 62
250
  6
CONTINUOUS
 10
-50.0568991114
 20
-41.2204811526
 11
-47.5568991114
 21
-41.2204811526
  0
LINE
  5
2F6
100
AcDbEntity
  8
IMPORT_IGES
100
AcDbLine
 62
250
  6
CONTINUOUS
 10
-46.0568991114
 20
-39.760776341
 11
-47.0568991114
 21
-39.760776341
  0
LINE
  5
2F7
100
AcDbEntity
  8
IMPORT_IGES
100
AcDbLine
 62
250
  6
CONTINUOUS
 10
-73.1954424435
 20
-35.9156901997
 11
-50.0568991114
 21
-35.9156832802
  0
LWPOLYLINE
  5
2F8
100
AcDbEntity
  8
IMPORT_IGES
100
AcDbPolyline
 62
250
  6
CONTINUOUS
 90
22
 70
0
 10
-47.5568991114
 20
-34.5343109395
 10
-47.519374249
 20
-34.5339862933
 10
-47.4823746439
 20
-34.5330250916
 10
-47.4460975734
 20
-34.5314488458
 10
-47.4108456623
 20
-34.5292903043
 10
-47.3766669073
 20
-34.5265721424
 10
-47.343383353
 20
-34.5232872126
 10
-47.3111022367
 20
-34.5194410017
 10
-47.2800763534
 20
-34.5150583435
 10
-47.2503795832
 20
-34.5101429775
 10
-47.2222006912
 20
-34.5047156133
 10
-47.1957080563
 20
-34.4987974772
 10
-47.1709759643
 20
-34.4923873417
 10
-47.1481270028
 20
-34.485487002
 10
-47.1274328203
 20
-34.478145336
 10
-47.1091680281
 20
-34.4704383075
 10
-47.0934848154
 20
-34.4624202547
 10
-47.0804695706
 20
-34.4541237894
 10
-47.070231804
 20
-34.4456026441
 10
-47.0628529206
 20
-34.436908271
 10
-47.0583931608
 20
-34.428088936
 10
-47.0568991115
 20
-34.41919657
  0
LINE
  5
2F9
100
AcDbEntity
  8
IMPORT_IGES
100
AcDbLine
 62
250
  6
CONTINUOUS
 10
-50.0568991114
 20
-34.5343109396
 11
-47.5568991114
 21
-34.5343109395
  0
LINE
  5
2FA
100
AcDbEntity
  8
IMPORT_IGES
100
AcDbLine
 62
250
  6
CONTINUOUS
 10
-46.0568991114
 20
-34.1889678304
 11
-47.0568991114
 21
-34.1889678304
  0
LWPOLYLINE
  5
2FB
100
AcDbEntity
  8
IMPORT_IGES
100
AcDbPolyline
 62
250
  6
CONTINUOUS
 90
19
 70
0
 10
-74.078521644
 20
35.7615306532
 10
-74.0554013486
 20
35.7766288577
 10
-74.0275061806
 20
35.7913540225
 10
-73.994999088
 20
35.805585334
 10
-73.9582284022
 20
35.8191721292
 10
-73.9174246976
 20
35.8320500847
 10
-73.872566117
 20
35.8442286079
 10
-73.8239654729
 20
35.8556160637
 10
-73.7720166624
 20
35.8661268296
 10
-73.716707403
 20
35.875764012
 10
-73.65843879
 20
35.8844522745
 10
-73.5976560409
 20
35.8921304189
 10
-73.5343422524
 20
35.8988000652
 10
-73.4689828645
 20
35.9044049699
 10
-73.4020615119
 20
35.9089082767
 10
-73.3335320054
 20
35.9123115793
 10
-73.2637374344
 20
35.914586655
 10
-73.1934179985
 20
35.9157085332
 10
-50.0568991114
 20
35.915682738
  0
LWPOLYLINE
  5
2FC
100
AcDbEntity
  8
IMPORT_IGES
100
AcDbPolyline
 62
250
  6
CONTINUOUS
 90
19
 70
0
 10
-74.0795421241
 20
35.4357454576
 10
-74.0561531148
 20
35.4509180265
 10
-74.0280062127
 20
35.4657214285
 10
-73.9952892315
 20
35.4800352274
 10
-73.9583963728
 20
35.4937025351
 10
-73.9175646823
 20
35.5066683322
 10
-73.8727147406
 20
35.5189648349
 10
-73.8241284984
 20
35.530506836
 10
-73.7722215282
 20
35.5412009247
 10
-73.7169816654
 20
35.5510499809
 10
-73.6588072722
 20
35.5599776962
 10
-73.5981401959
 20
35.5679214531
 10
-73.5349637173
 20
35.5748828412
 10
-73.4697589111
 20
35.5808038193
 10
-73.4030059247
 20
35.5856453393
 10
-73.334660534
 20
35.589409208
 10
-73.2650633536
 20
35.5920657834
 10
-73.1949474794
 20
35.5935862193
 10
-73.1248629198
 20
35.593972067
  0
LWPOLYLINE
  5
2FD
100
AcDbEntity
  8
IMPORT_IGES
100
AcDbPolyline
 62
250
  6
CONTINUOUS
 90
19
 70
0
 10
-74.0792464512
 20
-35.4359619464
 10
-74.055947176
 20
-35.4510385606
 10
-74.0279061169
 20
-35.4657700061
 10
-73.9952867743
 20
-35.4800368161
 10
-73.9584363392
 20
-35.4936893513
 10
-73.9175839826
 20
-35.5066630661
 10
-73.8727081983
 20
-35.5189668576
 10
-73.8241203409
 20
-35.5305089324
 10
-73.772211542
 20
-35.5412030825
 10
-73.7169697021
 20
-35.5510521571
 10
-73.6587933312
 20
-35.5599798376
 10
-73.5981241999
 20
-35.5679235271
 10
-73.5349454959
 20
-35.5748848019
 10
-73.469739023
 20
-35.5808055702
 10
-73.402984486
 20
-35.5856468543
 10
-73.3346359489
 20
-35.589410518
 10
-73.2650336958
 20
-35.5920668481
 10
-73.1949117991
 20
-35.5935869195
 10
-73.1248206595
 20
-35.5939722525
  0
LWPOLYLINE
  5
2FE
100
AcDbEntity
  8
IMPORT_IGES
100
AcDbPolyline
 62
250
  6
CONTINUOUS
 90
18
 70
0
 10
-74.0786015076
 20
-35.7614708726
 10
-74.0553119791
 20
-35.7766797919
 10
-74.0273966669
 20
-35.7914048867
 10
-73.9951338729
 20
-35.8055293215
 10
-73.9591339612
 20
-35.818860606
 10
-73.9196147565
 20
-35.83140462
 10
-73.8760908281
 20
-35.843332458
 10
-73.8286292272
 20
-35.8545910889
 10
-73.7777077701
 20
-35.8650464374
 10
-73.7231794744
 20
-35.8747077709
 10
-73.6653016465
 20
-35.8834972477
 10
-73.6045401423
 20
-35.8913235418
 10
-73.5410097961
 20
-35.8981545573
 10
-73.4752621396
 20
-35.9039171271
 10
-73.4077084865
 20
-35.9085717702
 10
-73.3382524405
 20
-35.9121124683
 10
-73.2672340728
 20
-35.9144981753
 10
-73.1954424435
 20
-35.9156901997
  0
LINE
  5
2FF
100
AcDbEntity
  8
IMPORT_IGES
100
AcDbLine
 62
7
  6
CONTINUOUS
 10
-46.0568991114
 20
-23.0
 11
-47.0568991114
 21
-23.0
  0
LWPOLYLINE
  5
300
100
AcDbEntity
  8
0
100
AcDbPolyline
 62
7
  6
CONTINUOUS
 90
3
 70
0
 43
0.3500000006
 10
-74.1711864166
 20
60.2857109985
 10
-74.2426130676
 20
60.0714265137
 10
-74.3854709015
 20
59.7857108459
  0
LINE
  5
301
100
AcDbEntity
  8
IMPORT_IGES
100
AcDbLine
 62
7
  6
CONTINUOUS
 10
-74.7331791506
 20
48.9457913995
 11
-75.412918624
 21
47.0294528161
  0
LINE
  5
302
100
AcDbEntity
  8
IMPORT_IGES
100
AcDbLine
 62
7
  6
CONTINUOUS
 10
-74.776587227
 20
48.8270257237
 11
-74.1063551918
 21
50.6112703216
  0
LWPOLYLINE
  5
303
100
AcDbEntity
  8
IMPORT_IGES
100
AcDbPolyline
 62
7
  6
CONTINUOUS
 90
19
 70
0
 10
-74.106354778
 20
50.6112699696
 10
-74.0802157107
 20
50.6725872819
 10
-74.0500703585
 20
50.7319896347
 10
-74.0161615143
 20
50.7890588307
 10
-73.9790066345
 20
50.8431210743
 10
-73.9387781505
 20
50.8941670424
 10
-73.8950790681
 20
50.9427416714
 10
-73.8480057583
 20
50.9886286289
 10
-73.7979678936
 20
51.0313646283
 10
-73.7448365528
 20
51.0709893461
 10
-73.688838911
 20
51.1072226353
 10
-73.6303854259
 20
51.1397272019
 10
-73.5695820945
 20
51.1683843751
 10
-73.5068972465
 20
51.1929251211
 10
-73.4426836817
 20
51.2131983574
 10
-73.3768735113
 20
51.2291824723
 10
-73.3097557418
 20
51.2407273163
 10
-73.2419860949
 20
51.2476785712
 10
-73.174059874
 20
51.249999539
  0
LWPOLYLINE
  5
304
100
AcDbEntity
  8
IMPORT_IGES
100
AcDbPolyline
 62
7
  6
CONTINUOUS
 90
19
 70
0
 10
-74.1063554072
 20
-50.611267698
 10
-74.0802160704
 20
-50.6725858801
 10
-74.0500704368
 20
-50.7319888752
 10
-74.0161613495
 20
-50.7890584817
 10
-73.9790063652
 20
-50.8431208418
 10
-73.9387779235
 20
-50.8941667212
 10
-73.8950788952
 20
-50.942741267
 10
-73.8480055866
 20
-50.9886282069
 10
-73.7979677251
 20
-51.0313641895
 10
-73.7448363893
 20
-51.0709888912
 10
-73.6888387546
 20
-51.1072221652
 10
-73.6303852783
 20
-51.1397267178
 10
-73.5695819574
 20
-51.1683838785
 10
-73.5068971212
 20
-51.1929246137
 10
-73.4426835694
 20
-51.2131978411
 10
-73.3768734129
 20
-51.2291819489
 10
-73.3097556582
 20
-51.2407267878
 10
-73.2419860266
 20
-51.2476780397
 10
-73.1740598211
 20
-51.2499990067
  0
LINE
  5
305
100
AcDbEntity
  8
IMPORT_IGES
100
AcDbLine
 62
7
  6
CONTINUOUS
 10
-74.7765877003
 20
-48.8270244262
 11
-74.1063560379
 21
-50.6112681329
  0
LINE
  5
306
100
AcDbEntity
  8
IMPORT_IGES
100
AcDbLine
 62
7
  6
CONTINUOUS
 10
-75.4129188359
 20
-47.0294521989
 11
-74.7331819637
 21
-48.9457837178
  0
LINE
  5
307
100
AcDbEntity
  8
IMPORT_IGES
100
AcDbLine
 62
7
  6
CONTINUOUS
 10
-78.0731153563
 20
37.8855538554
 11
-78.5054262597
 21
36.0048664096
  0
LINE
  5
308
100
AcDbEntity
  8
IMPORT_IGES
100
AcDbLine
 62
7
  6
CONTINUOUS
 10
-77.6054943787
 20
39.7543931132
 11
-78.0777776445
 21
37.8661209457
  0
LINE
  5
309
100
AcDbEntity
  8
IMPORT_IGES
100
AcDbLine
 62
7
  6
CONTINUOUS
 10
-77.1020219864
 20
41.6139672613
 11
-77.6147184051
 21
39.718951141
  0
LINE
  5
30A
100
AcDbEntity
  8
IMPORT_IGES
100
AcDbLine
 62
7
  6
CONTINUOUS
 10
-76.5628760825
 20
43.4635858138
 11
-77.1164254189
 21
41.5626727758
  0
LINE
  5
30B
100
AcDbEntity
  8
IMPORT_IGES
100
AcDbLine
 62
7
  6
CONTINUOUS
 10
-75.9884023032
 20
45.3020388418
 11
-76.5830700102
 21
43.3966229838
  0
LINE
  5
30C
100
AcDbEntity
  8
IMPORT_IGES
100
AcDbLine
 62
7
  6
CONTINUOUS
 10
-75.3782761363
 20
47.1301906032
 11
-76.0151238076
 21
45.2192038225
  0
LWPOLYLINE
  5
30D
100
AcDbEntity
  8
IMPORT_IGES
100
AcDbPolyline
 62
250
  6
CONTINUOUS
 90
19
 70
0
 10
-74.0781473605
 20
46.3707421835
 10
-74.0548959398
 20
46.4359434122
 10
-74.0270127181
 20
46.4992797999
 10
-73.9947750366
 20
46.5602461442
 10
-73.9587916994
 20
46.6180054336
 10
-73.9192806522
 20
46.6725724218
 10
-73.8757586926
 20
46.7246856237
 10
-73.8282941151
 20
46.7741166319
 10
-73.7773641514
 20
46.8202808391
 10
-73.7228216672
 20
46.8632229999
 10
-73.6649243667
 20
46.9026035878
 10
-73.6041386886
 20
46.9380181835
 10
-73.5405794782
 20
46.9693265673
 10
-73.4747988052
 20
46.996198011
 10
-73.4072090636
 20
47.0184494862
 10
-73.3377147399
 20
47.0360589343
 10
-73.2666569168
 20
47.0488397642
 10
-73.1948257523
 20
47.0565985303
 10
-73.1228174742
 20
47.0592898182
  0
LWPOLYLINE
  5
30E
100
AcDbEntity
  8
IMPORT_IGES
100
AcDbPolyline
 62
250
  6
CONTINUOUS
 90
19
 70
0
 10
-74.0789530759
 20
-46.4491838996
 10
-74.0556343126
 20
-46.5139154879
 10
-74.0275566805
 20
-46.5771713646
 10
-73.9948987802
 20
-46.6384362057
 10
-73.9580374877
 20
-46.697046288
 10
-73.9172072361
 20
-46.7527490662
 10
-73.8723502069
 20
-46.805647005
 10
-73.8237596603
 20
-46.8553623146
 10
-73.7718426297
 20
-46.9015027113
 10
-73.7165869277
 20
-46.9440816236
 10
-73.6583915055
 20
-46.9827688262
 10
-73.5976989249
 20
-47.0172918219
 10
-73.5344924265
 20
-47.0476579912
 10
-73.469254606
 20
-47.0736141276
 10
-73.4024657805
 20
-47.0949884908
 10
-73.3340795062
 20
-47.1117895275
 10
-73.2644363433
 20
-47.1238865592
 10
-73.1942715993
 20
-47.1311481773
 10
-73.1241365432
 20
-47.1335750497
  0
LWPOLYLINE
  5
30F
100
AcDbEntity
  8
IMPORT_IGES
100
AcDbPolyline
 62
250
  6
CONTINUOUS
 90
19
 70
0
 10
-74.0780809766
 20
-46.3709582987
 10
-74.054995501
 20
-46.435700087
 10
-74.0271287006
 20
-46.4990474823
 10
-73.9946434095
 20
-46.5604826565
 10
-73.9578881453
 20
-46.6193542687
 10
-73.9170937379
 20
-46.6753811225
 10
-73.8722382975
 20
-46.728603933
 10
-73.8236349312
 20
-46.7786227363
 10
-73.7716780401
 20
-46.8250599135
 10
-73.7163553196
 20
-46.8679290984
 10
-73.658068395
 20
-46.9068959859
 10
-73.5972631361
 20
-46.9416844729
 10
-73.5339226016
 20
-46.9723020656
 10
-73.4685329932
 20
-46.9984921136
 10
-73.4015787072
 20
-47.0200801732
 10
-73.3330134351
 20
-47.0370747468
 10
-73.263180834
 20
-47.0493432674
 10
-73.1928223847
 20
-47.05675191
 10
-73.122494149
 20
-47.0593006442
  0
LINE
  5
310
100
AcDbEntity
  8
IMPORT_IGES
100
AcDbLine
 62
7
  6
CONTINUOUS
 10
-76.0151238569
 20
-45.2192036694
 11
-75.3782785607
 21
-47.1301835655
  0
LINE
  5
311
100
AcDbEntity
  8
IMPORT_IGES
100
AcDbLine
 62
7
  6
CONTINUOUS
 10
-76.5830700059
 20
-43.3966229981
 11
-75.9882367627
 21
-45.3025512383
  0
LINE
  5
312
100
AcDbEntity
  8
IMPORT_IGES
100
AcDbLine
 62
7
  6
CONTINUOUS
 10
-77.1164254314
 20
-41.5626727313
 11
-76.5628778068
 21
-43.4635801032
  0
LINE
  5
313
100
AcDbEntity
  8
IMPORT_IGES
100
AcDbLine
 62
7
  6
CONTINUOUS
 10
-77.6147184321
 20
-39.7189510372
 11
-77.1020234001
 21
-41.613962232
  0
LINE
  5
314
100
AcDbEntity
  8
IMPORT_IGES
100
AcDbLine
 62
7
  6
CONTINUOUS
 10
-78.0777776653
 20
-37.8661208587
 11
-77.6054955083
 21
-39.7543887761
  0
LINE
  5
315
100
AcDbEntity
  8
IMPORT_IGES
100
AcDbLine
 62
7
  6
CONTINUOUS
 10
-78.505426275
 20
-36.0048663398
 11
-78.0731162288
 21
-37.8855502206
  0
LWPOLYLINE
  5
316
100
AcDbEntity
  8
IMPORT_IGES
100
AcDbPolyline
 62
250
  6
CONTINUOUS
 90
13
 70
0
 10
-79.8568985231
 20
22.8750970916
 10
-79.5715511562
 20
24.8733733149
 10
-79.2500211152
 20
26.8669555276
 10
-78.8924789711
 20
28.8553802104
 10
-78.4991145946
 20
30.8381233028
 10
-78.0700813384
 20
32.8147867849
 10
-77.605478774
 20
34.7851026488
 10
-77.1054496307
 20
36.7486483709
 10
-76.5701559412
 20
38.7049432119
 10
-75.9997012938
 20
40.6536404498
 10
-75.3942117963
 20
42.5943293846
 10
-74.75384593
 20
44.5265325402
 10
-74.0787465394
 20
46.4498079517
  0
LINE
  5
317
100
AcDbEntity
  8
IMPORT_IGES
100
AcDbLine
 62
7
  6
CONTINUOUS
 10
-79.8568991114
 20
28.4999999999
 11
-79.5731098619
 21
30.3839002944
  0
LINE
  5
318
100
AcDbEntity
  8
IMPORT_IGES
100
AcDbLine
 62
7
  6
CONTINUOUS
 10
-79.5815201479
 20
30.3313864161
 11
-79.2532030965
 21
32.263072146
  0
LWPOLYLINE
  5
319
100
AcDbEntity
  8
IMPORT_IGES
100
AcDbPolyline
 62
250
  6
CONTINUOUS
 90
13
 70
0
 10
-79.856898377
 20
16.9993341661
 10
-79.5714037941
 20
18.5584398717
 10
-79.2497114255
 20
20.1143685682
 10
-78.8920130013
 20
21.6668570726
 10
-78.4985243645
 20
23.2156524282
 10
-78.0694158565
 20
24.7605008041
 10
-77.6047908249
 20
26.3010653812
 10
-77.1048139845
 20
27.8369648482
 10
-76.5696602631
 20
29.3679072496
 10
-75.9994128354
 20
30.8935811037
 10
-75.3941949801
 20
32.4136225083
 10
-74.7541874113
 20
33.9276555442
 10
-74.0795435202
 20
35.4353158078
  0
LINE
  5
31A
100
AcDbEntity
  8
IMPORT_IGES
100
AcDbLine
 62
7
  6
CONTINUOUS
 10
-79.2590867802
 20
32.2303676673
 11
-78.8972936212
 21
34.1368456665
  0
LINE
  5
31B
100
AcDbEntity
  8
IMPORT_IGES
100
AcDbLine
 62
7
  6
CONTINUOUS
 10
-78.5047066196
 20
36.008141494
 11
-78.9000897472
 21
34.122849012
  0
LINE
  5
31C
100
AcDbEntity
  8
IMPORT_IGES
100
AcDbLine
 62
7
  6
CONTINUOUS
 10
-78.9000901871
 20
-34.1228468087
 11
-78.504707262
 21
-36.0081385707
  0
LINE
  5
31D
100
AcDbEntity
  8
IMPORT_IGES
100
AcDbLine
 62
7
  6
CONTINUOUS
 10
-79.2590870454
 20
-32.2303661918
 11
-78.8972936317
 21
-34.136845614
  0
LWPOLYLINE
  5
31E
100
AcDbEntity
  8
IMPORT_IGES
100
AcDbPolyline
 62
250
  6
CONTINUOUS
 90
13
 70
0
 10
-79.8568985179
 20
-16.999333344
 10
-79.5714039927
 20
-18.5584393264
 10
-79.2497116711
 20
-20.1143682619
 10
-78.8920132768
 20
-21.6668569058
 10
-78.4985246461
 20
-23.2156521411
 10
-78.0694161142
 20
-24.7605001575
 10
-77.6047910242
 20
-26.301064419
 10
-77.1048222685
 20
-27.8369394319
 10
-76.5696777039
 20
-29.3678575843
 10
-75.9994125967
 20
-30.8935799773
 10
-75.394135364
 20
-32.4137661787
 10
-74.7540304969
 20
-33.9280152566
 10
-74.079246458
 20
-35.4359619469
  0
LINE
  5
31F
100
AcDbEntity
  8
IMPORT_IGES
100
AcDbLine
 62
7
  6
CONTINUOUS
 10
-79.5815202663
 20
-30.3313856753
 11
-79.2532031028
 21
-32.2630721109
  0
LINE
  5
320
100
AcDbEntity
  8
IMPORT_IGES
100
AcDbLine
 62
7
  6
CONTINUOUS
 10
-79.8568978102
 20
-28.5000092369
 11
-79.5731098647
 21
-30.3839002768
  0
LWPOLYLINE
  5
321
100
AcDbEntity
  8
IMPORT_IGES
100
AcDbPolyline
 62
250
  6
CONTINUOUS
 90
13
 70
0
 10
-79.8568983829
 20
-22.8750981414
 10
-79.5715519538
 20
-24.8733703568
 10
-79.2500230356
 20
-26.8669485749
 10
-78.892482184
 20
-28.8553692837
 10
-78.4991192399
 20
-30.8381084661
 10
-78.0700875528
 20
-32.8147680735
 10
-77.6054867292
 20
-34.7850799921
 10
-77.1054543942
 20
-36.7486410263
 10
-76.5701569772
 20
-38.7049510053
 10
-75.9997155247
 20
-40.6536054935
 10
-75.3942654541
 20
-42.5941752487
 10
-74.7539628953
 20
-44.5262028256
 10
-74.0789537923
 20
-46.4492470835
  0
LINE
  5
322
100
AcDbEntity
  8
IMPORT_IGES
100
AcDbLine
 62
250
  6
CONTINUOUS
 10
-80.8149117726
 20
-27.5288540887
 11
-80.8149117726
 21
27.5288540887
  0
LINE
  5
323
100
AcDbEntity
  8
IMPORT_IGES
100
AcDbLine
 62
7
  6
CONTINUOUS
 10
-79.856832241
 20
28.4999999999
 11
-79.856832241
 21
-28.4999999999
  0
LINE
  5
324
100
AcDbEntity
  8
IMPORT_IGES
100
AcDbLine
 62
250
  6
CONTINUOUS
 10
-49.7568991114
 20
-5.5369127517
 11
-50.0568991114
 21
-5.5369127517
  0
LINE
  5
325
100
AcDbEntity
  8
IMPORT_IGES
100
AcDbLine
 62
7
  6
CONTINUOUS
 10
-49.7568991114
 20
-4.5
 11
-50.0568991114
 21
-4.5
  0
LINE
  5
326
100
AcDbEntity
  8
IMPORT_IGES
100
AcDbLine
 62
7
  6
CONTINUOUS
 10
-47.0568991114
 20
-3.55
 11
-46.0568991114
 21
-3.55
  0
LWPOLYLINE
  5
327
100
AcDbEntity
  8
0
100
AcDbPolyline
 62
7
  6
CONTINUOUS
 90
4
 70
0
 43
0.3500000006
 10
-77.2426139832
 20
60.4285733643
 10
-77.2426139832
 20
61.2857113037
 10
-76.8140450134
 20
61.7142893372
 10
-76.1711824951
 20
61.7142893372
  0
LWPOLYLINE
  5
328
100
AcDbEntity
  8
IMPORT_IGES
100
AcDbPolyline
 62
250
  6
CONTINUOUS
 90
3
 70
0
 10
-73.1740598742
 20
51.25
 10
-73.1732498413
 20
51.2316232395
 10
-73.1720767992
 20
51.1764975442
  0
LINE
  5
329
100
AcDbEntity
  8
IMPORT_IGES
100
AcDbLine
 62
250
  6
CONTINUOUS
 10
-73.1192699795
 20
46.9353234198
 11
-73.1228174891
 21
47.0593003518
  0
LINE
  5
32A
100
AcDbEntity
  8
IMPORT_IGES
100
AcDbLine
 62
250
  6
CONTINUOUS
 10
-73.1128037157
 20
46.6387408207
 11
-73.1192699795
 21
46.9353234198
  0
LINE
  5
32B
100
AcDbEntity
  8
IMPORT_IGES
100
AcDbLine
 62
250
  6
CONTINUOUS
 10
-74.0780882128
 20
46.3696493458
 11
-74.07248899
 21
46.0841104461
  0
LINE
  5
32C
100
AcDbEntity
  8
IMPORT_IGES
100
AcDbLine
 62
250
  6
CONTINUOUS
 10
-73.1239653402
 20
47.1335748968
 11
-73.1227625483
 21
47.0593004435
  0
LINE
  5
32D
100
AcDbEntity
  8
IMPORT_IGES
100
AcDbLine
 62
250
  6
CONTINUOUS
 10
-73.1071697791
 20
46.2784780239
 11
-73.1128037157
 21
46.6387408207
  0
LINE
  5
32E
100
AcDbEntity
  8
IMPORT_IGES
100
AcDbLine
 62
250
  6
CONTINUOUS
 10
-73.1720767992
 20
51.1764975442
 11
-73.1607683966
 21
50.3504057264
  0
LINE
  5
32F
100
AcDbEntity
  8
IMPORT_IGES
100
AcDbLine
 62
250
  6
CONTINUOUS
 10
-74.0785478704
 20
46.4238945839
 11
-74.0781975412
 21
46.3979578702
  0
LINE
  5
330
100
AcDbEntity
  8
IMPORT_IGES
100
AcDbLine
 62
250
  6
CONTINUOUS
 10
-74.07248899
 20
46.0841104461
 11
-74.0677828227
 21
45.7258983679
  0
LINE
  5
331
100
AcDbEntity
  8
IMPORT_IGES
100
AcDbLine
 62
250
  6
CONTINUOUS
 10
-73.1607683966
 20
50.3504057264
 11
-73.1239653402
 21
47.1335748968
  0
LINE
  5
332
100
AcDbEntity
  8
IMPORT_IGES
100
AcDbLine
 62
250
  6
CONTINUOUS
 10
-73.1003463416
 20
45.6223229955
 11
-73.1071697791
 21
46.2784780239
  0
LINE
  5
333
100
AcDbEntity
  8
IMPORT_IGES
100
AcDbLine
 62
250
  6
CONTINUOUS
 10
-74.0677828227
 20
45.7258983679
 11
-74.0625018915
 21
45.0561756829
  0
LINE
  5
334
100
AcDbEntity
  8
IMPORT_IGES
100
AcDbLine
 62
250
  6
CONTINUOUS
 10
-74.084989584
 20
47.4815025777
 11
-74.0785478704
 21
46.4238945839
  0
LINE
  5
335
100
AcDbEntity
  8
IMPORT_IGES
100
AcDbLine
 62
250
  6
CONTINUOUS
 10
-74.0785365544
 20
-35.766347738
 11
-74.0680804535
 21
-37.7496826624
  0
LWPOLYLINE
  5
336
100
AcDbEntity
  8
IMPORT_IGES
100
AcDbPolyline
 62
250
  6
CONTINUOUS
 90
3
 70
0
 10
-74.0781975412
 20
46.3979578702
 10
-74.0780978774
 20
46.3793537605
 10
-74.0780882128
 20
46.3696493458
  0
LINE
  5
337
100
AcDbEntity
  8
IMPORT_IGES
100
AcDbLine
 62
250
  6
CONTINUOUS
 10
-73.0957959032
 20
-40.945053657
 11
-73.1234727479
 21
-35.9156834857
  0
LINE
  5
338
100
AcDbEntity
  8
IMPORT_IGES
100
AcDbLine
 62
250
  6
CONTINUOUS
 10
-73.0934672897
 20
44.2372918398
 11
-73.1003463416
 21
45.6223229955
  0
LINE
  5
339
100
AcDbEntity
  8
IMPORT_IGES
100
AcDbLine
 62
250
  6
CONTINUOUS
 10
-74.0680804535
 20
-37.7496826624
 11
-74.0614367907
 21
-39.6302020616
  0
LINE
  5
33A
100
AcDbEntity
  8
IMPORT_IGES
100
AcDbLine
 62
250
  6
CONTINUOUS
 10
-73.1367991295
 20
-30.9165651523
 11
-73.123430207
 21
-35.9156832802
  0
LINE
  5
33B
100
AcDbEntity
  8
IMPORT_IGES
100
AcDbLine
 62
250
  6
CONTINUOUS
 10
-74.0625018915
 20
45.0561756829
 11
-74.0589146747
 21
43.9291350012
  0
LINE
  5
33C
100
AcDbEntity
  8
IMPORT_IGES
100
AcDbLine
 62
250
  6
CONTINUOUS
 10
-73.1556753354
 20
-21.4782955271
 11
-73.1367991295
 21
-30.9165651523
  0
LINE
  5
33D
100
AcDbEntity
  8
IMPORT_IGES
100
AcDbLine
 62
250
  6
CONTINUOUS
 10
-74.09062058
 20
-26.0861299731
 11
-74.0785736759
 21
-35.6918238727
  0
LINE
  5
33E
100
AcDbEntity
  8
IMPORT_IGES
100
AcDbLine
 62
250
  6
CONTINUOUS
 10
-74.0614367907
 20
-39.6302020616
 11
-74.0585923932
 21
-41.3604828399
  0
LINE
  5
33F
100
AcDbEntity
  8
IMPORT_IGES
100
AcDbLine
 62
250
  6
CONTINUOUS
 10
-73.1677249373
 20
-11.9586417782
 11
-73.1556753354
 21
-21.4782955271
  0
LINE
  5
340
100
AcDbEntity
  8
IMPORT_IGES
100
AcDbLine
 62
250
  6
CONTINUOUS
 10
-74.1053402924
 20
-7.1334446608
 11
-74.09062058
 21
-26.0861299731
  0
LINE
  5
341
100
AcDbEntity
  8
IMPORT_IGES
100
AcDbLine
 62
250
  6
CONTINUOUS
 10
-73.1729029032
 20
-2.3936931597
 11
-73.1677249373
 21
-11.9586417782
  0
LINE
  5
342
100
AcDbEntity
  8
IMPORT_IGES
100
AcDbLine
 62
250
  6
CONTINUOUS
 10
-74.0785736759
 20
-35.6918238727
 11
-74.0785365544
 21
-35.766347738
  0
LINE
  5
343
100
AcDbEntity
  8
IMPORT_IGES
100
AcDbLine
 62
250
  6
CONTINUOUS
 10
-74.0589146747
 20
43.9291350012
 11
-74.0583141029
 21
41.7851923717
  0
LINE
  5
344
100
AcDbEntity
  8
IMPORT_IGES
100
AcDbLine
 62
250
  6
CONTINUOUS
 10
-73.171183539
 20
7.1802747105
 11
-73.1729029032
 21
-2.3936931597
  0
LINE
  5
345
100
AcDbEntity
  8
IMPORT_IGES
100
AcDbLine
 62
250
  6
CONTINUOUS
 10
-74.0585923932
 20
-41.3604828399
 11
-74.058507091
 21
-43.5915920751
  0
LINE
  5
346
100
AcDbEntity
  8
IMPORT_IGES
100
AcDbLine
 62
250
  6
CONTINUOUS
 10
-73.1625762096
 20
16.7269660168
 11
-73.171183539
 21
7.1802747105
  0
LINE
  5
347
100
AcDbEntity
  8
IMPORT_IGES
100
AcDbLine
 62
250
  6
CONTINUOUS
 10
-73.0927664729
 20
-43.9193124516
 11
-73.0957959032
 21
-40.945053657
  0
LINE
  5
348
100
AcDbEntity
  8
IMPORT_IGES
100
AcDbLine
 62
250
  6
CONTINUOUS
 10
-74.0583141029
 20
41.7851923717
 11
-74.0603617962
 21
40.0975227458
  0
LINE
  5
349
100
AcDbEntity
  8
IMPORT_IGES
100
AcDbLine
 62
250
  6
CONTINUOUS
 10
-73.1471164611
 20
26.2101871202
 11
-73.1625762096
 21
16.7269660168
  0
LINE
  5
34A
100
AcDbEntity
  8
IMPORT_IGES
100
AcDbLine
 62
250
  6
CONTINUOUS
 10
-73.0935366743
 20
41.7546258232
 11
-73.0934672897
 21
44.2372918398
  0
LINE
  5
34B
100
AcDbEntity
  8
IMPORT_IGES
100
AcDbLine
 62
250
  6
CONTINUOUS
 10
-73.1244283527
 20
35.8085593357
 11
-73.1244283527
 21
35.7013309372
  0
LWPOLYLINE
  5
34C
100
AcDbEntity
  8
IMPORT_IGES
100
AcDbPolyline
 62
250
  6
CONTINUOUS
 90
3
 70
0
 10
-74.0781114532
 20
-46.3695760122
 10
-74.0781417974
 20
-46.3889963128
 10
-74.0782006232
 20
-46.3982419961
  0
LINE
  5
34D
100
AcDbEntity
  8
IMPORT_IGES
100
AcDbLine
 62
250
  6
CONTINUOUS
 10
-74.058507091
 20
-43.5915920751
 11
-74.0612250735
 21
-44.7880557095
  0
LWPOLYLINE
  5
34E
100
AcDbEntity
  8
IMPORT_IGES
100
AcDbPolyline
 62
250
  6
CONTINUOUS
 90
3
 70
0
 10
-74.1063552219
 20
50.6112702438
 10
-74.1064279474
 20
50.5920746843
 10
-74.084989584
 20
47.4815025777
  0
LINE
  5
34F
100
AcDbEntity
  8
IMPORT_IGES
100
AcDbLine
 62
250
  6
CONTINUOUS
 10
-74.0785544804
 20
35.7663349453
 11
-74.1053402924
 21
-7.1334446608
  0
LINE
  5
350
100
AcDbEntity
  8
IMPORT_IGES
100
AcDbLine
 62
250
  6
CONTINUOUS
 10
-74.0603617962
 20
40.0975227458
 11
-74.0659865036
 21
38.2454067259
  0
LINE
  5
351
100
AcDbEntity
  8
IMPORT_IGES
100
AcDbLine
 62
250
  6
CONTINUOUS
 10
-73.1244283527
 20
35.7013309372
 11
-73.1471164611
 21
26.2101871202
  0
LWPOLYLINE
  5
352
100
AcDbEntity
  8
IMPORT_IGES
100
AcDbPolyline
 62
250
  6
CONTINUOUS
 90
3
 70
0
 10
-74.0659865036
 20
38.2454067259
 10
-74.0755812075
 20
36.2725606381
 10
-74.0785544804
 20
35.7663349453
  0
LINE
  5
353
100
AcDbEntity
  8
IMPORT_IGES
100
AcDbLine
 62
250
  6
CONTINUOUS
 10
-73.1101230831
 20
37.8364217072
 11
-73.0935366743
 21
41.7546258232
  0
LINE
  5
354
100
AcDbEntity
  8
IMPORT_IGES
100
AcDbLine
 62
250
  6
CONTINUOUS
 10
-73.0983925647
 20
-45.3737123069
 11
-73.0927664729
 21
-43.9193124516
  0
LINE
  5
355
100
AcDbEntity
  8
IMPORT_IGES
100
AcDbLine
 62
250
  6
CONTINUOUS
 10
-73.123128795
 20
35.9156820986
 11
-73.1101230831
 21
37.8364217072
  0
LINE
  5
356
100
AcDbEntity
  8
IMPORT_IGES
100
AcDbLine
 62
250
  6
CONTINUOUS
 10
-74.0612250735
 20
-44.7880557095
 11
-74.0657257994
 21
-45.5137149182
  0
LINE
  5
357
100
AcDbEntity
  8
IMPORT_IGES
100
AcDbLine
 62
250
  6
CONTINUOUS
 10
-74.0952938096
 20
-49.108265984
 11
-74.1066456115
 21
-50.6105190743
  0
LINE
  5
358
100
AcDbEntity
  8
IMPORT_IGES
100
AcDbLine
 62
250
  6
CONTINUOUS
 10
-74.0786389077
 20
-46.4327356968
 11
-74.0952938096
 21
-49.108265984
  0
LINE
  5
359
100
AcDbEntity
  8
IMPORT_IGES
100
AcDbLine
 62
250
  6
CONTINUOUS
 10
-73.1044855657
 20
-46.0749696066
 11
-73.0983925647
 21
-45.3737123069
  0
LINE
  5
35A
100
AcDbEntity
  8
IMPORT_IGES
100
AcDbLine
 62
250
  6
CONTINUOUS
 10
-73.1241427646
 20
-47.1335747976
 11
-73.1500328956
 21
-49.4158998004
  0
LINE
  5
35B
100
AcDbEntity
  8
IMPORT_IGES
100
AcDbLine
 62
250
  6
CONTINUOUS
 10
-74.0657257994
 20
-45.5137149182
 11
-74.0700022382
 21
-45.9106007322
  0
LINE
  5
35C
100
AcDbEntity
  8
IMPORT_IGES
100
AcDbLine
 62
250
  6
CONTINUOUS
 10
-73.1096466961
 20
-46.4664771182
 11
-73.1044855657
 21
-46.0749696066
  0
LINE
  5
35D
100
AcDbEntity
  8
IMPORT_IGES
100
AcDbLine
 62
250
  6
CONTINUOUS
 10
-74.0782006232
 20
-46.3982419961
 11
-74.0786389077
 21
-46.4327356968
  0
LWPOLYLINE
  5
35E
100
AcDbEntity
  8
IMPORT_IGES
100
AcDbPolyline
 62
250
  6
CONTINUOUS
 90
4
 70
0
 10
-73.1500328956
 20
-49.4158998004
 10
-73.172246242
 20
-51.1764923756
 10
-73.1733405205
 20
-51.2316218469
 10
-73.1740598214
 20
-51.25
  0
LWPOLYLINE
  5
35F
100
AcDbEntity
  8
IMPORT_IGES
100
AcDbPolyline
 62
250
  6
CONTINUOUS
 90
3
 70
0
 10
-73.123128795
 20
35.9156820986
 10
-73.1237063762
 20
35.8799862488
 10
-73.1244283527
 20
35.8085593357
  0
LWPOLYLINE
  5
360
100
AcDbEntity
  8
IMPORT_IGES
100
AcDbPolyline
 62
250
  6
CONTINUOUS
 90
3
 70
0
 10
-74.0700022382
 20
-45.9106007322
 10
-74.0751791678
 20
-46.2350077717
 10
-74.0781114532
 20
-46.3695760122
  0
LWPOLYLINE
  5
361
100
AcDbEntity
  8
IMPORT_IGES
100
AcDbPolyline
 62
250
  6
CONTINUOUS
 90
4
 70
0
 10
-73.1224941498
 20
-47.0593006644
 10
-73.118968501
 20
-46.9353243421
 10
-73.1156525394
 20
-46.795085209
 10
-73.1096466961
 20
-46.4664771182
  0
LINE
  5
362
100
AcDbEntity
  8
IMPORT_IGES
100
AcDbLine
 62
7
  6
CONTINUOUS
 10
-47.0568991114
 20
3.55
 11
-46.0568991114
 21
3.55
  0
LWPOLYLINE
  5
363
100
AcDbEntity
  8
IMPORT_IGES
100
AcDbPolyline
 62
250
  6
CONTINUOUS
 90
10
 70
0
 10
-73.1224941498
 20
-47.0593006644
 10
-73.1230367632
 20
-47.0676513509
 10
-73.1234437233
 20
-47.0759774582
 10
-73.12371503
 20
-47.0842790341
 10
-73.1237896236
 20
-47.092556171
 10
-73.1237285638
 20
-47.1008088719
 10
-73.12371503
 20
-47.1090370505
 10
-73.1238100821
 20
-47.1172407102
 10
-73.1239526603
 20
-47.1254199433
 10
-73.1241427646
 20
-47.1335747976
  0
LINE
  5
364
100
AcDbEntity
  8
IMPORT_IGES
100
AcDbLine
 62
7
  6
CONTINUOUS
 10
-50.0568991114
 20
4.5
 11
-49.7568991114
 21
4.5
  0
LINE
  5
365
100
AcDbEntity
  8
IMPORT_IGES
100
AcDbLine
 62
250
  6
CONTINUOUS
 10
-50.0568991114
 20
5.5369127517
 11
-49.7568991114
 21
5.5369127517
  0
LINE
  5
366
100
AcDbEntity
  8
IMPORT_IGES
100
AcDbLine
 62
7
  6
CONTINUOUS
 10
-46.0568991114
 20
23.0
 11
-47.0568991114
 21
23.0
  0
LINE
  5
367
100
AcDbEntity
  8
IMPORT_IGES
100
AcDbLine
 62
7
  6
CONTINUOUS
 10
-50.0568991114
 20
-51.2499991239
 11
-50.0568991114
 21
51.2499991239
  0
LINE
  5
368
100
AcDbEntity
  8
IMPORT_IGES
100
AcDbLine
 62
7
  6
CONTINUOUS
 10
-49.7568991114
 20
5.5369127517
 11
-49.7568991114
 21
-5.5369127517
  0
LINE
  5
369
100
AcDbEntity
  8
IMPORT_IGES
100
AcDbLine
 62
250
  6
CONTINUOUS
 10
-47.5568991114
 20
-45.25
 11
-47.5568991114
 21
45.25
  0
LINE
  5
36A
100
AcDbEntity
  8
IMPORT_IGES
100
AcDbLine
 62
7
  6
CONTINUOUS
 10
-47.4003894576
 20
0.4266137169
 11
-47.4930128831
 21
0.1722181917
  0
LINE
  5
36B
100
AcDbEntity
  8
IMPORT_IGES
100
AcDbLine
 62
7
  6
CONTINUOUS
 10
-47.4930128831
 20
0.1722181917
 11
-47.5568991114
 21
-0.0000699824
  0
LWPOLYLINE
  5
36C
100
AcDbEntity
  8
0
100
AcDbPolyline
 62
7
  6
CONTINUOUS
 90
10
 70
0
 43
0.3500000006
 10
-74.2426130676
 20
60.4999954834
 10
-74.1711864166
 20
60.3571421814
 10
-74.1711864166
 20
60.2857109985
 10
-74.3140397186
 20
60.1428576965
 10
-74.3854709015
 20
60.1428576965
 10
-74.4568975525
 20
60.2142888794
 10
-74.4568975525
 20
60.2857109985
 10
-74.3854709015
 20
60.4285733643
 10
-74.3140397186
 20
60.4999954834
 10
-74.2426130676
 20
60.4999954834
  0
LINE
  5
36D
100
AcDbEntity
  8
IMPORT_IGES
100
AcDbLine
 62
7
  6
CONTINUOUS
 10
-47.5568991114
 20
-0.0000699824
 11
-47.4929636992
 21
-0.172382889
  0
LWPOLYLINE
  5
36E
100
AcDbEntity
  8
IMPORT_IGES
100
AcDbPolyline
 62
7
  6
CONTINUOUS
 90
24
 70
0
 10
-47.4929636992
 20
-0.172382889
 10
-47.4003268734
 20
-0.4267831777
 10
-47.3707438032
 20
-0.5099175999
 10
-47.3420454374
 20
-0.5919608404
 10
-47.3142162889
 20
-0.6728612493
 10
-47.2876082035
 20
-0.7521738968
 10
-47.2622628321
 20
-0.8298380515
 10
-47.2381385238
 20
-0.9058704814
 10
-47.2154621714
 20
-0.9799582126
 10
-47.1942716609
 20
-1.0520712501
 10
-47.1745291064
 20
-1.1222281187
 10
-47.1563477431
 20
-1.190203809
 10
-47.1397673592
 20
-1.2559571613
 10
-47.1247481665
 20
-1.3195489058
 10
-47.111284036
 20
-1.3809181287
 10
-47.0993977397
 20
-1.4400722732
 10
-47.0890665055
 20
-1.497044007
 10
-47.0802158876
 20
-1.551816732
 10
-47.0728639267
 20
-1.6044188895
 10
-47.066992582
 20
-1.6548765392
 10
-47.062473285
 20
-1.7031741665
 10
-47.0592631795
 20
-1.7493287036
 10
-47.0574051216
 20
-1.7933880161
 10
-47.0568991114
 20
-1.8353854789
  0
LWPOLYLINE
  5
36F
100
AcDbEntity
  8
IMPORT_IGES
100
AcDbPolyline
 62
250
  6
CONTINUOUS
 90
22
 70
0
 10
-47.056899112
 20
40.7339128821
 10
-47.0583092157
 20
40.7704296968
 10
-47.0624842015
 20
40.8064353646
 10
-47.0693306356
 20
40.8417379074
 10
-47.0787062743
 20
40.8760428302
 10
-47.0905126278
 20
40.9093034256
 10
-47.1047807415
 20
40.9416928685
 10
-47.1214867828
 20
40.9731068023
 10
-47.140522887
 20
41.0032992231
 10
-47.1618728104
 20
41.0321982352
 10
-47.1854466014
 20
41.0596201448
 10
-47.2111520631
 20
41.0854010959
 10
-47.2389945277
 20
41.1094687983
 10
-47.2689661972
 20
41.1317039576
 10
-47.3008547702
 20
41.1518422229
 10
-47.3343302975
 20
41.1696163596
 10
-47.369156761
 20
41.184878267
 10
-47.4051925111
 20
41.1975438773
 10
-47.4422041601
 20
41.2075066221
 10
-47.4799682252
 20
41.2146872833
 10
-47.5182750632
 20
41.2190272386
 10
-47.5568991119
 20
41.2204811526
  0
LINE
  5
370
100
AcDbEntity
  8
IMPORT_IGES
100
AcDbLine
 62
7
  6
CONTINUOUS
 10
-47.0568991114
 20
-44.7499743856
 11
-47.0568991114
 21
-1.8353745096
  0
LINE
  5
371
100
AcDbEntity
  8
IMPORT_IGES
100
AcDbLine
 62
7
  6
CONTINUOUS
 10
-47.0568991114
 20
1.8353745096
 11
-47.0568991114
 21
44.7499743856
  0
LINE
  5
372
100
AcDbEntity
  8
IMPORT_IGES
100
AcDbLine
 62
7
  6
CONTINUOUS
 10
-46.0568991114
 20
-41.9580434059
 11
-46.0568991114
 21
-23.0
  0
LINE
  5
373
100
AcDbEntity
  8
IMPORT_IGES
100
AcDbLine
 62
7
  6
CONTINUOUS
 10
-46.0568991114
 20
-3.5499532575
 11
-46.0568991114
 21
3.5499532575
  0
LINE
  5
374
100
AcDbEntity
  8
IMPORT_IGES
100
AcDbLine
 62
7
  6
CONTINUOUS
 10
-46.0568991114
 20
23.0
 11
-46.0568991114
 21
41.9580434059
  0
LWPOLYLINE
  5
375
100
AcDbEntity
  8
IMPORT_IGES
100
AcDbPolyline
 62
7
  6
CONTINUOUS
 90
23
 70
0
 10
-47.0568991114
 20
1.8353206831
 10
-47.0574056167
 20
1.7933405608
 10
-47.059264499
 20
1.7492926704
 10
-47.0624757584
 20
1.7031434894
 10
-47.066996685
 20
1.6548423069
 10
-47.0728699887
 20
1.6043746837
 10
-47.0802237993
 20
1.5517641921
 10
-47.0890759211
 20
1.4969883614
 10
-47.0994085498
 20
1.4400153102
 10
-47.1112964021
 20
1.3808592952
 10
-47.1247625498
 20
1.3194861
 10
-47.1397839212
 20
1.2558897868
 10
-47.1563660182
 20
1.190133504
 10
-47.1745479368
 20
1.1221589499
 10
-47.1942905809
 20
1.0520049663
 10
-47.2154821646
 20
0.9798916248
 10
-47.2381608111
 20
0.9057991025
 10
-47.2622883972
 20
0.8297585665
 10
-47.2876387679
 20
0.7520816476
 10
-47.314255145
 20
0.6727474094
 10
-47.3420943067
 20
0.5918206253
 10
-47.3708004321
 20
0.5097573354
 10
-47.4003894576
 20
0.4266137169
  0
LINE
  5
376
100
AcDbEntity
  8
IMPORT_IGES
100
AcDbLine
 62
250
  6
CONTINUOUS
 10
-46.0568991114
 20
34.1889678304
 11
-47.0568991114
 21
34.1889678304
  0
LINE
  5
377
100
AcDbEntity
  8
IMPORT_IGES
100
AcDbLine
 62
250
  6
CONTINUOUS
 10
-47.5568991114
 20
34.5343109396
 11
-50.0568991114
 21
34.5343109396
  0
LWPOLYLINE
  5
378
100
AcDbEntity
  8
IMPORT_IGES
100
AcDbPolyline
 62
250
  6
CONTINUOUS
 90
22
 70
0
 10
-47.0568991114
 20
34.41919657
 10
-47.0583092151
 20
34.4278358718
 10
-47.0624842009
 20
34.4363542443
 10
-47.0693306351
 20
34.4447062685
 10
-47.0787062738
 20
34.4528222715
 10
-47.0905126273
 20
34.4606912032
 10
-47.104780741
 20
34.468354034
 10
-47.1214867823
 20
34.4757860747
 10
-47.1405228866
 20
34.4829291247
 10
-47.16187281
 20
34.4897661747
 10
-47.1854466011
 20
34.4962537655
 10
-47.2111520628
 20
34.5023531314
 10
-47.2389945275
 20
34.5080471698
 10
-47.268966197
 20
34.5133076574
 10
-47.30085477
 20
34.5180720529
 10
-47.3343302974
 20
34.522277133
 10
-47.3691567609
 20
34.5258878593
 10
-47.4051925111
 20
34.5288843427
 10
-47.4422041601
 20
34.5312413708
 10
-47.4799682251
 20
34.5329402018
 10
-47.518275063
 20
34.5339669667
 10
-47.5568991114
 20
34.5343109398
  0
LINE
  5
379
100
AcDbEntity
  8
IMPORT_IGES
100
AcDbLine
 62
250
  6
CONTINUOUS
 10
-47.0568991114
 20
39.760776341
 11
-46.0568991114
 21
39.760776341
  0
LINE
  5
37A
100
AcDbEntity
  8
IMPORT_IGES
100
AcDbLine
 62
250
  6
CONTINUOUS
 10
-50.0568991114
 20
41.2204811526
 11
-47.5568991114
 21
41.2204811526
  0
LINE
  5
37B
100
AcDbEntity
  8
IMPORT_IGES
100
AcDbLine
 62
7
  6
CONTINUOUS
 10
-46.0568991114
 20
41.9580434059
 11
-47.0568991114
 21
41.9580434059
  0
LWPOLYLINE
  5
37C
100
AcDbEntity
  8
IMPORT_IGES
100
AcDbPolyline
 62
250
  6
CONTINUOUS
 90
19
 70
0
 10
-73.1239653199
 20
47.1335718013
 10
-73.1941059383
 20
47.1311577206
 10
-73.2642775313
 20
47.1239078317
 10
-73.3339286933
 20
47.1118212852
 10
-73.4023240993
 20
47.0950292657
 10
-73.4691228333
 20
47.0736623844
 10
-73.5343706997
 20
47.0477123836
 10
-73.5975870228
 20
47.0173511411
 10
-73.658289264
 20
46.9828318571
 10
-73.7164942274
 20
46.9441472017
 10
-73.7717592536
 20
46.9015697153
 10
-73.8236852746
 20
46.8554297175
 10
-73.8722845071
 20
46.8057138521
 10
-73.9171695708
 20
46.7527894629
 10
-73.9580233211
 20
46.6970574446
 10
-73.9948567617
 20
46.6384963587
 10
-74.0274418023
 20
46.5773917371
 10
-74.0554395487
 20
46.5143821142
 10
-74.0786910939
 20
46.4499794444
  0
LINE
  5
37D
100
AcDbEntity
  8
IMPORT_IGES
100
AcDbLine
 62
7
  6
CONTINUOUS
 10
-50.0568991114
 20
45.25
 11
-47.5568991114
 21
45.25
  0
LINE
  5
37E
100
AcDbEntity
  8
IMPORT_IGES
100
AcDbLine
 62
250
  6
CONTINUOUS
 10
-73.1228174891
 20
47.0593003518
 11
-50.0568991114
 21
47.0593004211
  0
LINE
  5
37F
100
AcDbEntity
  8
IMPORT_IGES
100
AcDbLine
 62
7
  6
CONTINUOUS
 10
-50.0568991114
 20
51.25
 11
-73.1740598742
 21
51.25
  0
LWPOLYLINE
  5
380
100
AcDbEntity
  8
0
100
AcDbPolyline
 62
7
  6
CONTINUOUS
 90
13
 70
0
 43
0.3500000006
 10
-76.8140450134
 20
61.7142893372
 10
-77.0997606812
 20
61.928573822
 10
-77.0997606812
 20
62.5714272766
 10
-76.8140450134
 20
62.9999962463
 10
-76.1711824951
 20
62.9999962463
 10
-75.8854713593
 20
62.5714272766
 10
-75.8854713593
 20
61.928573822
 10
-76.1711824951
 20
61.7142893372
 10
-75.7426135254
 20
61.2857113037
 10
-75.7426135254
 20
60.4285733643
 10
-76.1711824951
 20
60.0000043945
 10
-76.8140450134
 20
60.0000043945
 10
-77.2426139832
 20
60.4285733643
  0
LWPOLYLINE
  5
381
100
AcDbEntity
  8
0
100
AcDbPolyline
 62
7
  6
CONTINUOUS
 90
8
 70
0
 43
0.3500000006
 10
-79.3854678955
 20
60.0000043945
 10
-78.5283299561
 20
60.0000043945
 10
-78.0997519226
 20
60.4285733643
 10
-78.0997519226
 20
61.2857113037
 10
-78.5283299561
 20
61.7142893372
 10
-79.3854678955
 20
61.7142893372
 10
-79.3854678955
 20
62.9999962463
 10
-78.0997519226
 20
62.9999962463
  0
LWPOLYLINE
  5
382
100
AcDbEntity
  8
0
100
AcDbPolyline
 62
7
  6
CONTINUOUS
 90
6
 70
0
 43
0.3500000006
 10
-73.1711861115
 20
60.0000043945
 10
-72.0997546234
 20
60.0000043945
 10
-71.8854701385
 20
60.2142888794
 10
-71.8854701385
 20
61.2857113037
 10
-72.3140436401
 20
61.7142893372
 10
-72.7426126099
 20
61.7142893372
  0
ARC
  5
383
100
AcDbEntity
  8
IMPORT_IGES
100
AcDbCircle
 62
7
  6
CONTINUOUS
 10
0.9770084136
 20
-32.4622522834
 40
15.0
100
AcDbArc
 50
193.3105368881
 51
256.6894607353
  0
ARC
  5
384
100
AcDbEntity
  8
IMPORT_IGES
100
AcDbCircle
 62
7
  6
CONTINUOUS
 10
-71.3107393029
 20
-0.0
 40
155.9999999999
100
AcDbArc
 50
346.6894610639
 51
13.3105384902
  0
ARC
  5
385
100
AcDbEntity
  8
IMPORT_IGES
100
AcDbCircle
 62
7
  6
CONTINUOUS
 10
0.9770084136
 20
32.4622522834
 40
15.0
100
AcDbArc
 50
103.3105374927
 51
166.6894610896
  0
ARC
  5
386
100
AcDbEntity
  8
IMPORT_IGES
100
AcDbCircle
 62
7
  6
CONTINUOUS
 10
33.439260697
 20
-104.7499999999
 40
155.9999999999
100
AcDbArc
 50
76.6894610987
 51
103.3105388305
  0
ARC
  5
387
100
AcDbEntity
  8
IMPORT_IGES
100
AcDbCircle
 62
7
  6
CONTINUOUS
 10
65.9015129804
 20
-32.4622522834
 40
15.0
100
AcDbArc
 50
283.3105345648
 51
346.6894606021
  0
ARC
  5
388
100
AcDbEntity
  8
IMPORT_IGES
100
AcDbCircle
 62
7
  6
CONTINUOUS
 10
33.439260697
 20
104.7499999999
 40
155.9999999999
100
AcDbArc
 50
256.6894610282
 51
283.310538549
  0
ARC
  5
389
100
AcDbEntity
  8
IMPORT_IGES
100
AcDbCircle
 62
7
  6
CONTINUOUS
 10
138.1892606969
 20
-0.0
 40
155.9999999999
100
AcDbArc
 50
166.6894610282
 51
193.3105387724
  0
CIRCLE
  5
38A
100
AcDbEntity
  8
IMPORT_IGES
100
AcDbCircle
 62
7
  6
CONTINUOUS
 10
33.439260697
 20
0.0
 40
28.5
  0
ARC
  5
38B
100
AcDbEntity
  8
IMPORT_IGES
100
AcDbCircle
 62
7
  6
CONTINUOUS
 10
33.439260697
 20
-0.0
 40
28.2
100
AcDbArc
 50
14.3746781783
 51
75.6268608304
  0
ARC
  5
38C
100
AcDbEntity
  8
IMPORT_IGES
100
AcDbCircle
 62
7
  6
CONTINUOUS
 10
33.439260697
 20
-0.0
 40
28.2
100
AcDbArc
 50
104.3731461689
 51
165.6253234965
  0
ARC
  5
38D
100
AcDbEntity
  8
IMPORT_IGES
100
AcDbCircle
 62
7
  6
CONTINUOUS
 10
33.439260697
 20
0.0
 40
28.2
100
AcDbArc
 50
194.3746781783
 51
255.6268608304
  0
ARC
  5
38E
100
AcDbEntity
  8
IMPORT_IGES
100
AcDbCircle
 62
7
  6
CONTINUOUS
 10
33.439260697
 20
0.0
 40
28.2
100
AcDbArc
 50
284.3731461689
 51
345.6253234965
  0
ARC
  5
38F
100
AcDbEntity
  8
IMPORT_IGES
100
AcDbCircle
 62
7
  6
CONTINUOUS
 10
33.4392606969
 20
-0.0
 40
28.0000000001
100
AcDbArc
 50
345.5224878141
 51
14.4775121859
  0
ARC
  5
390
100
AcDbEntity
  8
IMPORT_IGES
100
AcDbCircle
 62
7
  6
CONTINUOUS
 10
33.439260697
 20
0.0000000001
 40
28.0000000001
100
AcDbArc
 50
255.5224878186
 51
284.4775121859
  0
ARC
  5
391
100
AcDbEntity
  8
IMPORT_IGES
100
AcDbCircle
 62
7
  6
CONTINUOUS
 10
33.4392606972
 20
-0.0
 40
28.0000000001
100
AcDbArc
 50
165.5224878141
 51
194.4775121859
  0
ARC
  5
392
100
AcDbEntity
  8
IMPORT_IGES
100
AcDbCircle
 62
7
  6
CONTINUOUS
 10
33.439260697
 20
-0.0000000001
 40
28.0000000001
100
AcDbArc
 50
75.5224878186
 51
104.4775121859
  0
CIRCLE
  5
393
100
AcDbEntity
  8
IMPORT_IGES
100
AcDbCircle
 62
7
  6
CONTINUOUS
 10
33.439260697
 20
0.0
 40
27.65
  0
CIRCLE
  5
394
100
AcDbEntity
  8
IMPORT_IGES
100
AcDbCircle
 62
250
  6
CONTINUOUS
 10
33.439260697
 20
-0.0
 40
27.5288540887
  0
ARC
  5
395
100
AcDbEntity
  8
IMPORT_IGES
100
AcDbCircle
 62
7
  6
CONTINUOUS
 10
65.9015129804
 20
32.4622522834
 40
15.0
100
AcDbArc
 50
13.3105339533
 51
76.68946025
  0
ARC
  5
396
100
AcDbEntity
  8
IMPORT_IGES
100
AcDbCircle
 62
7
  6
CONTINUOUS
 10
-76.4904544393
 20
0.0
 40
27.8664446721
100
AcDbArc
 50
98.9275322873
 51
261.0724677127
  0
ARC
  5
397
100
AcDbEntity
  8
IMPORT_IGES
100
AcDbCircle
 62
7
  6
CONTINUOUS
 10
-79.2630606541
 20
-17.6499999999
 40
10.0000000001
100
AcDbArc
 50
261.0724677127
 51
266.5956869704
  0
ARC
  5
398
100
AcDbEntity
  8
IMPORT_IGES
100
AcDbCircle
 62
7
  6
CONTINUOUS
 10
-79.2630606541
 20
17.6499999999
 40
10.0000000001
100
AcDbArc
 50
93.4043130296
 51
98.9275322873
  0
ARC
  5
399
100
AcDbEntity
  8
IMPORT_IGES
100
AcDbCircle
 62
7
  6
CONTINUOUS
 10
-47.5568991108
 20
-44.75
 40
0.5
100
AcDbArc
 50
270.0000000182
 51
360.0
  0
ARC
  5
39A
100
AcDbEntity
  8
IMPORT_IGES
100
AcDbCircle
 62
7
  6
CONTINUOUS
 10
-47.5568991108
 20
44.75
 40
0.5
100
AcDbArc
 50
0.0
 51
89.9999999818
  0
ENDSEC
  0
SECTION
  2
OBJECTS
  0
DICTIONARY
  5
C
100
AcDbDictionary
280
0
281
1
  3
ACAD_GROUP
350
D
  3
ACAD_MLINESTYLE
350
17
  3
ACAD_LAYOUT
350
1A
  3
ACAD_PLOTSETTINGS
350
19
  3
ACAD_PLOTSTYLENAME
350
E
  0
DICTIONARY
  5
D
102
{ACAD_REACTORS
330
C
102
}
100
AcDbDictionary
280
0
281
1
  0
ACDBDICTIONARYWDFLT
  5
E
102
{ACAD_REACTORS
330
C
102
}
100
AcDbDictionary
281
1
  3
Normal
350
F
100
AcDbDictionaryWithDefault
340
F
  0
DICTIONARY
  5
17
102
{ACAD_REACTORS
330
C
102
}
100
AcDbDictionary
280
0
281
1
  3
Standard
350
18
  0
DICTIONARY
  5
19
102
{ACAD_REACTORS
330
C
102
}
100
AcDbDictionary
281
1
  0
DICTIONARY
  5
1A
102
{ACAD_REACTORS
330
C
102
}
100
AcDbDictionary
281
1
  3
Model
350
39B
  3
Layout1
350
39C
  0
ACDBPLACEHOLDER
  5
F
102
{ACAD_REACTORS
330
E
102
}
  0
MLINESTYLE
  5
18
102
{ACAD_REACTORS
330
17
102
}
100
AcDbMlineStyle
  2
STANDARD
 70
0
  3

 62
256
 51
90.0
 52
90.0
 71
2
 49
0.5
 62
256
  6
BYLAYER
 49
-0.5
 62
256
  6
BYLAYER
  0
LAYOUT
  5
39B
102
{ACAD_REACTORS
330
1A
102
}
100
AcDbPlotSettings
  1

  2
none_device
  4
ISO_A4_(297.00_x_210.00_MM)
  6

 40
0.0
 41
0.0
 42
0.0
 43
0.0
 44
297.0
 45
210.0
 46
0.0
 47
0.0
 48
0.0
 49
0.0
140
0.0
141
0.0
142
1.0
143
1.0
 70
1024
 72
1
 73
0
 74
0
  7

 75
0
147
1.0
148
0.0
149
0.0
100
AcDbLayout
  1
Model
 70
0
 71
0
 10
0.0
 20
0.0
 11
297.0
 21
210.0
 12
0.0
 22
0.0
 32
0.0
 14
0.0
 24
0.0
 34
0.0
 15
0.0
 25
0.0
 35
0.0
146
0.0
 13
0.0
 23
0.0
 33
0.0
 16
1.0
 26
0.0
 36
0.0
 17
0.0
 27
1.0
 37
0.0
 76
0
330
228
345
0
346
0
  0
LAYOUT
  5
39C
102
{ACAD_REACTORS
330
1A
102
}
100
AcDbPlotSettings
  1

  2
none_device
  4
ISO_A4_(297.00_x_210.00_MM)
  6

 40
0.0
 41
0.0
 42
0.0
 43
0.0
 44
297.0
 45
210.0
 46
0.0
 47
0.0
 48
0.0
 49
0.0
140
0.0
141
0.0
142
1.0
143
1.0
 70
0
 72
1
 73
0
 74
0
  7

 75
0
147
1.0
148
0.0
149
0.0
100
AcDbLayout
  1
Layout1
 70
0
 71
1
 10
0.0
 20
0.0
 11
297.0
 21
210.0
 12
0.0
 22
0.0
 32
0.0
 14
0.0
 24
0.0
 34
0.0
 15
0.0
 25
0.0
 35
0.0
146
0.0
 13
0.0
 23
0.0
 33
0.0
 16
1.0
 26
0.0
 36
0.0
 17
0.0
 27
1.0
 37
0.0
 76
0
330
229
345
0
346
0
  0
ENDSEC
  0
EOF
