  0
SECTION
  2
HEADER
  9
$ACADVER
  1
AC1024
  9
$DWGCODEPAGE
  3
ANSI_1252
  9
$EXTMAX
 10
297.0
 20
210.0
 30
0.0
  9
$EXTMIN
 10
0.0
 20
0.0
 30
0.0
  9
$LIMMIN
 10
0.0
 20
0.0
  9
$LIMMAX
 10
297.0
 20
210.0
  9
$VIEWCTR
 10
148.5
 20
105.0
  9
$VIEWSIZE
 40
210.0
  9
$CLAYER
  8
0
  9
$LTSCALE
 40
16.335
  9
$CELTYPE
  6
BYLAYER
  9
$DIMSCALE
 40
1.0
  9
$DIMASZ
 40
3.0
  9
$DIMEXO
 40
0.5
  9
$DIMDLI
 40
11.286
  9
$DIMEXE
 40
1.5
  9
$DIMCEN
 40
2.673
  9
$DIMLFAC
 40
1.0
  9
$DIMBLK
  1
_FILLED
  9
$DIMALT
 70
0
  9
$DIMALTF
 40
0.0393700787
  9
$DIMTXT
 40
3.0
  9
$DIMTOL
 70
1
  9
$DIMLIM
 70
0
  9
$DIMTFAC
 40
1.0
  9
$DIMTP
 40
0.01
  9
$DIMTM
 40
0.01
  9
$DIMGAP
 40
0.625
  9
$DIMDSEP
 70
44
  9
$AUNITS
 70
0
  9
$PDMODE
 70
3
  9
$PDSIZE
 40
3.0
  9
$HANDSEED
  5
392
  9
$TILEMODE
 70
1
  9
$MEASUREMENT
 70
1
  9
$INSUNITS
 70
4
  0
ENDSEC
  0
SECTION
  2
CLASSES
  0
CLASS
  1
ACDBDICTIONARYWDFLT
  2
AcDbDictionaryWithDefault
  3
AutoCAD 2000
 90
0
 91
1
280
0
281
0
  0
CLASS
  1
ACDBPLACEHOLDER
  2
AcDbPlaceHolder
  3
AutoCAD 2000
 90
0
 91
1
280
0
281
0
  0
CLASS
  1
LAYOUT
  2
AcDbLayout
  3
AutoCAD 2000
 90
0
 91
0
280
0
281
0
  0
ENDSEC
  0
SECTION
  2
TABLES
  0
TABLE
  2
VPORT
  5
8
100
AcDbSymbolTable
 70
2
  0
VPORT
  5
1F4
100
AcDbSymbolTableRecord
100
AcDbViewportTableRecord
  2
*ACTIVE
 70
0
 10
0.0
 20
0.0
 11
1.0
 21
1.0
 12
148.5
 22
105.0
 13
0.0
 23
0.0
 14
1.0
 24
1.0
 15
0.0
 25
0.0
 16
0.0
 26
0.0
 36
1.0
 17
0.0
 27
0.0
 37
0.0
 40
210.0
 41
1.4142857143
 42
50.0
 43
0.0
 44
0.0
 50
0.0
 51
0.0
 71
0
 72
100
 73
1
 74
1
 75
0
 76
0
 77
0
 78
0
  0
ENDTAB
  0
TABLE
  2
LTYPE
  5
5
100
AcDbSymbolTable
 70
6
  0
LTYPE
  5
14
100
AcDbSymbolTableRecord
100
AcDbLinetypeTableRecord
  2
BYBLOCK
 70
0
  3

 72
65
 73
0
 40
0.0
  0
LTYPE
  5
15
100
AcDbSymbolTableRecord
100
AcDbLinetypeTableRecord
  2
BYLAYER
 70
0
  3

 72
65
 73
0
 40
0.0
  0
LTYPE
  5
16
100
AcDbSymbolTableRecord
100
AcDbLinetypeTableRecord
  2
CONTINUOUS
 70
64
  3
Solid line
 72
65
 73
0
 40
0.0
  0
LTYPE
  5
1F5
100
AcDbSymbolTableRecord
100
AcDbLinetypeTableRecord
  2
CENTER
 70
64
  3
____ _ ____ _ ____ _ ____ _ ____ _ ____ _ ____
 72
65
 73
4
 40
0.6
 49
0.375
 74
0
 49
-0.075
 74
0
 49
0.075
 74
0
 49
-0.075
 74
0
  0
LTYPE
  5
1F6
100
AcDbSymbolTableRecord
100
AcDbLinetypeTableRecord
  2
HIDDEN
 70
64
  3
- - - - - - - - - - - - - - - - - - - -
 72
65
 73
2
 40
0.2
 49
0.1
 74
0
 49
-0.1
 74
0
  0
LTYPE
  5
1F7
100
AcDbSymbolTableRecord
100
AcDbLinetypeTableRecord
  2
PHANTOM
 70
64
  3
_____ _ _ _____ _ _ _____ _ _ _____
 72
65
 73
6
 40
0.8
 49
0.45
 74
0
 49
-0.05
 74
0
 49
0.1
 74
0
 49
-0.05
 74
0
 49
0.1
 74
0
 49
-0.05
 74
0
  0
LTYPE
  5
1F8
100
AcDbSymbolTableRecord
100
AcDbLinetypeTableRecord
  2
DOT
 70
64
  3
. . . . . . . . . . . . . . . . . . . .
 72
65
 73
2
 40
0.2
 49
0.1
 74
0
 49
-0.1
 74
0
  0
LTYPE
  5
1F9
100
AcDbSymbolTableRecord
100
AcDbLinetypeTableRecord
  2
DASHED
 70
64
  3
- - - - - - - - - - - - - - - - - - - -
 72
65
 73
2
 40
0.2
 49
0.1
 74
0
 49
-0.1
 74
0
  0
ENDTAB
  0
TABLE
  2
LAYER
  5
2
100
AcDbSymbolTable
 70
36
  0
LAYER
  5
10
100
AcDbSymbolTableRecord
100
AcDbLayerTableRecord
  2
0
 70
0
 62
7
  6
CONTINUOUS
370
-3
390
F
  0
LAYER
  5
1FA
100
AcDbSymbolTableRecord
100
AcDbLayerTableRecord
  2
DEFAULT_1
 70
0
 62
7
  6
CENTER
370
-3
390
F
  0
LAYER
  5
1FB
100
AcDbSymbolTableRecord
100
AcDbLayerTableRecord
  2
DEFAULT_2
 70
0
 62
7
  6
HIDDEN
370
-3
390
F
  0
LAYER
  5
1FC
100
AcDbSymbolTableRecord
100
AcDbLayerTableRecord
  2
DEFAULT_3
 70
0
 62
7
  6
PHANTOM
370
-3
390
F
  0
LAYER
  5
1FD
100
AcDbSymbolTableRecord
100
AcDbLayerTableRecord
  2
1
 70
0
 62
7
  6
CONTINUOUS
370
-3
390
F
  0
LAYER
  5
1FE
100
AcDbSymbolTableRecord
100
AcDbLayerTableRecord
  2
1_1
 70
0
 62
7
  6
CONTINUOUS
370
-3
390
F
  0
LAYER
  5
1FF
100
AcDbSymbolTableRecord
100
AcDbLayerTableRecord
  2
20
 70
0
 62
7
  6
CONTINUOUS
370
-3
390
F
  0
LAYER
  5
200
100
AcDbSymbolTableRecord
100
AcDbLayerTableRecord
  2
ASSI
 70
0
 62
7
  6
CONTINUOUS
370
-3
390
F
  0
LAYER
  5
201
100
AcDbSymbolTableRecord
100
AcDbLayerTableRecord
  2
COORDINATE
 70
0
 62
7
  6
CONTINUOUS
370
-3
390
F
  0
LAYER
  5
202
100
AcDbSymbolTableRecord
100
AcDbLayerTableRecord
  2
COPY_PUBLISH
 70
0
 62
7
  6
CONTINUOUS
370
-3
390
F
  0
LAYER
  5
203
100
AcDbSymbolTableRecord
100
AcDbLayerTableRecord
  2
COSMETICI
 70
0
 62
7
  6
CONTINUOUS
370
-3
390
F
  0
LAYER
  5
204
100
AcDbSymbolTableRecord
100
AcDbLayerTableRecord
  2
CURVE
 70
0
 62
7
  6
CONTINUOUS
370
-3
390
F
  0
LAYER
  5
205
100
AcDbSymbolTableRecord
100
AcDbLayerTableRecord
  2
DRAFT
 70
0
 62
7
  6
CONTINUOUS
370
-3
390
F
  0
LAYER
  5
206
100
AcDbSymbolTableRecord
100
AcDbLayerTableRecord
  2
IMPORT_IGES
 70
0
 62
7
  6
CONTINUOUS
370
-3
390
F
  0
LAYER
  5
207
100
AcDbSymbolTableRecord
100
AcDbLayerTableRecord
  2
INTFCLR_20
 70
0
 62
7
  6
CONTINUOUS
370
-3
390
F
  0
LAYER
  5
208
100
AcDbSymbolTableRecord
100
AcDbLayerTableRecord
  2
NOTE
 70
0
 62
7
  6
CONTINUOUS
370
-3
390
F
  0
LAYER
  5
209
100
AcDbSymbolTableRecord
100
AcDbLayerTableRecord
  2
PIANI
 70
0
 62
7
  6
CONTINUOUS
370
-3
390
F
  0
LAYER
  5
20A
100
AcDbSymbolTableRecord
100
AcDbLayerTableRecord
  2
PUNTI
 70
0
 62
7
  6
CONTINUOUS
370
-3
390
F
  0
LAYER
  5
20B
100
AcDbSymbolTableRecord
100
AcDbLayerTableRecord
  2
RACCORDO
 70
0
 62
7
  6
CONTINUOUS
370
-3
390
F
  0
LAYER
  5
20C
100
AcDbSymbolTableRecord
100
AcDbLayerTableRecord
  2
SIMBOLI
 70
0
 62
7
  6
CONTINUOUS
370
-3
390
F
  0
LAYER
  5
20D
100
AcDbSymbolTableRecord
100
AcDbLayerTableRecord
  2
SMUSSO
 70
0
 62
7
  6
CONTINUOUS
370
-3
390
F
  0
LAYER
  5
20E
100
AcDbSymbolTableRecord
100
AcDbLayerTableRecord
  2
SUPERFICI
 70
0
 62
7
  6
CONTINUOUS
370
-3
390
F
  0
LAYER
  5
20F
100
AcDbSymbolTableRecord
100
AcDbLayerTableRecord
  2
TRASH
 70
0
 62
7
  6
CONTINUOUS
370
-3
390
F
  0
LAYER
  5
210
100
AcDbSymbolTableRecord
100
AcDbLayerTableRecord
  2
WHITE
 70
0
 62
7
  6
CONTINUOUS
370
-3
390
F
  0
ENDTAB
  0
TABLE
  2
STYLE
  5
3
100
AcDbSymbolTable
 70
1
  0
STYLE
  5
11
100
AcDbSymbolTableRecord
100
AcDbTextStyleTableRecord
  2
STANDARD
 70
0
 40
0.0
 41
0.8
 50
0.0
 71
0
 42
0.2
  3
txt
  4

  0
STYLE
  5
211
100
AcDbSymbolTableRecord
100
AcDbTextStyleTableRecord
  2
TEXTSTYLE_1
 70
0
 40
0.0
 41
0.8
 50
0.0
 71
0
 42
0.2
  3
gdt
  4

  0
STYLE
  5
212
100
AcDbSymbolTableRecord
100
AcDbTextStyleTableRecord
  2
TEXTSTYLE_2
 70
0
 40
0.0
 41
1.0
 50
0.0
 71
0
 42
0.2
  3
symbol_asme.ttf
  4

  0
ENDTAB
  0
TABLE
  2
VIEW
  5
6
100
AcDbSymbolTable
 70
0
  0
ENDTAB
  0
TABLE
  2
UCS
  5
7
100
AcDbSymbolTable
 70
0
  0
ENDTAB
  0
TABLE
  2
APPID
  5
9
100
AcDbSymbolTable
 70
1
  0
APPID
  5
213
100
AcDbSymbolTableRecord
100
AcDbRegAppTableRecord
  2
ACAD
 70
0
  0
ENDTAB
  0
TABLE
  2
BLOCK_RECORD
  5
1
100
AcDbSymbolTable
 70
0
  0
BLOCK_RECORD
  5
214
100
AcDbSymbolTableRecord
100
AcDbBlockTableRecord
  2
*Model_Space
  0
BLOCK_RECORD
  5
215
100
AcDbSymbolTableRecord
100
AcDbBlockTableRecord
  2
*Paper_Space
  0
BLOCK_RECORD
  5
216
100
AcDbSymbolTableRecord
100
AcDbBlockTableRecord
  2
_FILLED
  0
BLOCK_RECORD
  5
217
100
AcDbSymbolTableRecord
100
AcDbBlockTableRecord
  2
*D0
  0
BLOCK_RECORD
  5
218
100
AcDbSymbolTableRecord
100
AcDbBlockTableRecord
  2
*D1
  0
BLOCK_RECORD
  5
219
100
AcDbSymbolTableRecord
100
AcDbBlockTableRecord
  2
*D2
  0
ENDTAB
  0
TABLE
  2
DIMSTYLE
  5
A
100
AcDbSymbolTable
 70
1
100
AcDbDimStyleTable
 71
0
  0
DIMSTYLE
105
21A
100
AcDbSymbolTableRecord
100
AcDbDimStyleTableRecord
  2
STANDARD
 70
0
  3

  4

 40
1.0
 41
3.0
 42
0.5
 43
0.38
 44
1.5
 45
0.0
 46
0.0
 47
0.01
 48
0.01
140
3.0
141
0.09
142
0.0
143
25.4
144
1.0
145
0.0
146
1.0
147
0.625
 71
1
 72
0
 73
0
 74
0
 75
0
 76
0
 77
1
 78
8
 79
2
170
0
171
1
172
0
173
0
174
0
175
0
176
0
177
0
178
0
270
2
179
2
271
2
272
2
273
2
274
2
275
0
280
0
281
0
282
0
283
1
284
8
285
0
286
0
287
3
288
0
340
11
278
44
341
216
342
216
343
216
344
216
  0
DIMSTYLE
105
21B
100
AcDbSymbolTableRecord
100
AcDbDimStyleTableRecord
  2
DIMSTYLE_1
 70
0
  3
<>
  4

 40
1.0
 41
3.0
 42
0.5
 43
0.38
 44
1.5
 45
0.0
 46
0.0
 47
0.0
 48
0.0
140
3.0
141
0.09
142
0.0
143
25.4
144
1.0
145
0.0
146
1.0
147
0.625
 71
0
 72
0
 73
0
 74
0
 75
0
 76
0
 77
1
 78
8
 79
2
170
0
171
1
172
1
173
0
174
0
175
0
176
0
177
0
178
0
270
2
179
2
271
0
272
0
273
2
274
2
275
0
280
0
281
0
282
0
283
1
284
8
285
0
286
0
287
3
288
1
340
11
278
44
289
2
341
216
342
216
343
216
344
216
  0
DIMSTYLE
105
21C
100
AcDbSymbolTableRecord
100
AcDbDimStyleTableRecord
  2
DIMSTYLE_2
 70
0
  3
<>
  4

 40
1.0
 41
3.0
 42
0.5
 43
0.38
 44
1.5
 45
0.0
 46
0.0
 47
0.0
 48
0.0
140
3.0
141
0.09
142
0.0
143
25.4
144
1.0
145
0.0
146
1.0
147
0.625
 71
0
 72
0
 73
0
 74
0
 75
0
 76
0
 77
1
 78
8
 79
2
170
0
171
1
172
1
173
0
174
0
175
0
176
0
177
0
178
0
270
2
179
2
271
2
272
2
273
2
274
2
275
0
280
0
281
0
282
0
283
1
284
8
285
0
286
0
287
3
288
1
340
11
278
44
289
2
341
216
342
216
343
216
344
216
  0
DIMSTYLE
105
21D
100
AcDbSymbolTableRecord
100
AcDbDimStyleTableRecord
  2
DIMSTYLE_3
 70
0
  3

  4

 40
1.0
 41
3.0
 42
0.5
 43
0.38
 44
1.5
 45
0.0
 46
0.0
 47
0.0
 48
0.0
140
3.0
141
0.09
142
0.0
143
25.4
144
1.0
145
0.0
146
1.0
147
0.75
 71
0
 72
0
 73
0
 74
0
 75
0
 76
0
 77
1
 78
8
 79
2
170
0
171
1
172
0
173
0
174
0
175
0
176
0
177
0
178
0
270
2
179
2
271
0
272
0
273
2
274
2
275
0
280
0
281
0
282
0
283
1
284
8
285
0
286
0
287
3
288
0
340
11
278
44
341
216
342
216
343
216
344
216
  0
ENDTAB
  0
ENDSEC
  0
SECTION
  2
BLOCKS
  0
BLOCK
  5
20
100
AcDbEntity
  8
0
100
AcDbBlockBegin
  2
*Model_Space
 70
0
 10
0.0
 20
0.0
 30
0.0
  3
*Model_Space
  1

  0
ENDBLK
  5
21
100
AcDbEntity
  8
0
100
AcDbBlockEnd
  0
BLOCK
  5
1C
100
AcDbEntity
  8
0
100
AcDbBlockBegin
  2
*Paper_Space
 70
0
 10
0.0
 20
0.0
 30
0.0
  3
*Paper_Space
  1

  0
ENDBLK
  5
1D
100
AcDbEntity
  8
0
100
AcDbBlockEnd
  0
BLOCK
  5
21E
100
AcDbEntity
  8
0
100
AcDbBlockBegin
  2
_FILLED
 70
64
 10
0.0
 20
0.0
  3
_FILLED
  1

  0
SOLID
  5
21F
100
AcDbEntity
  8
0
  6
BYBLOCK
 62
0
100
AcDbTrace
 10
0.0
 20
0.0
 11
-1.0
 21
0.3166666667
 12
-1.0
 22
-0.3166666667
 13
-1.0
 23
-0.3166666667
  0
ENDBLK
  5
220
100
AcDbEntity
  8
0
  6
BYBLOCK
 62
0
100
AcDbBlockEnd
  0
BLOCK
  5
221
100
AcDbEntity
  8
0
100
AcDbBlockBegin
 62
7
  6
CONTINUOUS
  2
*D0
 70
65
 10
0.0
 20
0.0
  3
*D0
  1

  0
LINE
  5
222
100
AcDbEntity
  8
0
100
AcDbLine
 62
7
  6
CONTINUOUS
 10
258.8421017549
 20
134.1370037812
 11
219.8903674959
 21
105.3297286184
  0
LINE
  5
223
100
AcDbEntity
  8
0
100
AcDbLine
 62
7
  6
CONTINUOUS
 10
219.8903674959
 20
105.3297286184
 11
265.5707766211
 21
139.1132851211
  0
LINE
  5
224
100
AcDbEntity
  8
0
100
AcDbLine
 62
7
  6
CONTINUOUS
 10
265.5707766211
 20
139.1132851211
 11
276.3235238739
 21
139.1132851211
  0
LINE
  5
225
100
AcDbEntity
  8
0
100
AcDbLine
 62
7
  6
CONTINUOUS
 10
276.3235238739
 20
139.1132851211
 11
265.5707766211
 21
139.1132851211
  0
LINE
  5
226
100
AcDbEntity
  8
0
100
AcDbLine
 62
7
  6
CONTINUOUS
 10
180.9386332368
 20
76.5224534556
 11
219.8903674959
 21
105.3297286184
  0
INSERT
  5
227
100
AcDbEntity
  8
0
100
AcDbBlockReference
 62
7
  6
CONTINUOUS
  2
_FILLED
 10
258.8421017549
 20
134.1370037812
 41
3.0
 42
3.0
 43
3.0
 50
36.4852720201
  0
INSERT
  5
228
100
AcDbEntity
  8
0
100
AcDbBlockReference
 62
7
  6
CONTINUOUS
  2
_FILLED
 10
180.9386332368
 20
76.5224534556
 41
3.0
 42
3.0
 43
3.0
 50
216.4852720201
  0
ENDBLK
  5
229
100
AcDbEntity
  8
0
  6
BYBLOCK
 62
0
100
AcDbBlockEnd
  0
BLOCK
  5
22A
100
AcDbEntity
  8
0
100
AcDbBlockBegin
 62
7
  6
CONTINUOUS
  2
*D1
 70
65
 10
0.0
 20
0.0
  3
*D1
  1

  0
LINE
  5
22B
100
AcDbEntity
  8
0
100
AcDbLine
 62
7
  6
CONTINUOUS
 10
204.1833164202
 20
120.7334665325
 11
219.8903674962
 21
105.3297286186
  0
LINE
  5
22C
100
AcDbEntity
  8
0
100
AcDbLine
 62
7
  6
CONTINUOUS
 10
219.8903674962
 20
105.3297286186
 11
181.1062200572
 21
143.364929464
  0
LINE
  5
22D
100
AcDbEntity
  8
0
100
AcDbLine
 62
7
  6
CONTINUOUS
 10
181.1062200572
 20
143.364929464
 11
170.3534728045
 21
143.364929464
  0
LINE
  5
22E
100
AcDbEntity
  8
0
100
AcDbLine
 62
7
  6
CONTINUOUS
 10
170.3534728045
 20
143.364929464
 11
181.1062200572
 21
143.364929464
  0
LINE
  5
22F
100
AcDbEntity
  8
0
100
AcDbLine
 62
7
  6
CONTINUOUS
 10
235.5974185722
 20
89.9259907046
 11
219.8903674962
 21
105.3297286186
  0
INSERT
  5
230
100
AcDbEntity
  8
0
100
AcDbBlockReference
 62
7
  6
CONTINUOUS
  2
_FILLED
 10
204.1833164202
 20
120.7334665325
 41
3.0
 42
3.0
 43
3.0
 50
135.5585847879
  0
INSERT
  5
231
100
AcDbEntity
  8
0
100
AcDbBlockReference
 62
7
  6
CONTINUOUS
  2
_FILLED
 10
235.5974185722
 20
89.9259907046
 41
3.0
 42
3.0
 43
3.0
 50
315.5585847879
  0
ENDBLK
  5
232
100
AcDbEntity
  8
0
  6
BYBLOCK
 62
0
100
AcDbBlockEnd
  0
BLOCK
  5
233
100
AcDbEntity
  8
0
100
AcDbBlockBegin
 62
7
  6
CONTINUOUS
  2
*D2
 70
65
 10
0.0
 20
0.0
  3
*D2
  1

  0
LINE
  5
234
100
AcDbEntity
  8
0
100
AcDbLine
 62
7
  6
CONTINUOUS
 10
141.2463739078
 20
148.4415973208
 11
141.2463739078
 21
165.8043546072
  0
LINE
  5
235
100
AcDbEntity
  8
0
100
AcDbLine
 62
7
  6
CONTINUOUS
 10
41.0463739078
 20
152.0233402094
 11
41.0463739078
 21
165.8043546072
  0
LINE
  5
236
100
AcDbEntity
  8
0
100
AcDbLine
 62
7
  6
CONTINUOUS
 10
141.2463739078
 20
164.3043546072
 11
91.1463739078
 21
164.3043546072
  0
LINE
  5
237
100
AcDbEntity
  8
0
100
AcDbLine
 62
7
  6
CONTINUOUS
 10
41.0463739078
 20
164.3043546072
 11
91.1463739078
 21
164.3043546072
  0
INSERT
  5
238
100
AcDbEntity
  8
0
100
AcDbBlockReference
 62
7
  6
CONTINUOUS
  2
_FILLED
 10
141.2463739078
 20
164.3043546072
 41
3.0
 42
3.0
 43
3.0
  0
INSERT
  5
239
100
AcDbEntity
  8
0
100
AcDbBlockReference
 62
7
  6
CONTINUOUS
  2
_FILLED
 10
41.0463739078
 20
164.3043546072
 41
3.0
 42
3.0
 43
3.0
 50
180.0
  0
ENDBLK
  5
23A
100
AcDbEntity
  8
0
  6
BYBLOCK
 62
0
100
AcDbBlockEnd
  0
ENDSEC
  0
SECTION
  2
ENTITIES
  0
SOLID
  5
23B
100
AcDbEntity
  8
0
100
AcDbTrace
 62
7
  6
CONTINUOUS
 10
268.1255211467
 20
142.7975936953
 11
268.3226014386
 21
142.8194895007
 12
268.4758861102
 22
142.7975936953
 13
268.4758861102
 23
142.7975936953
  0
SOLID
  5
23C
100
AcDbEntity
  8
0
100
AcDbTrace
 62
7
  6
CONTINUOUS
 10
268.4758861102
 20
142.7975936953
 11
268.6291707817
 21
142.7756938803
 12
267.9503386649
 22
142.75379607
 13
267.9503386649
 23
142.75379607
  0
SOLID
  5
23D
100
AcDbEntity
  8
0
100
AcDbTrace
 62
7
  6
CONTINUOUS
 10
268.4758861102
 20
142.7975936953
 11
267.9503386649
 21
142.75379607
 12
268.1255211467
 22
142.7975936953
 13
268.1255211467
 23
142.7975936953
  0
SOLID
  5
23E
100
AcDbEntity
  8
0
100
AcDbTrace
 62
7
  6
CONTINUOUS
 10
267.9503386649
 20
142.75379607
 11
268.6291707817
 21
142.7756938803
 12
268.7824554532
 22
142.7318982598
 13
268.7824554532
 23
142.7318982598
  0
SOLID
  5
23F
100
AcDbEntity
  8
0
100
AcDbTrace
 62
7
  6
CONTINUOUS
 10
268.7824554532
 20
142.7318982598
 11
267.7532583729
 21
142.6881026394
 12
267.9503386649
 22
142.75379607
 13
267.9503386649
 23
142.75379607
  0
SOLID
  5
240
100
AcDbEntity
  8
0
100
AcDbTrace
 62
7
  6
CONTINUOUS
 10
267.7532583729
 20
142.6881026394
 11
268.7824554532
 21
142.7318982598
 12
268.9357401248
 22
142.6881026394
 13
268.9357401248
 23
142.6881026394
  0
SOLID
  5
241
100
AcDbEntity
  8
0
100
AcDbTrace
 62
7
  6
CONTINUOUS
 10
269.6802656722
 20
143.4107303766
 11
268.9357401248
 21
142.6881026394
 12
269.4393897598
 22
143.5640150481
 13
269.4393897598
 23
143.5640150481
  0
SOLID
  5
242
100
AcDbEntity
  8
0
100
AcDbTrace
 62
7
  6
CONTINUOUS
 10
268.9357401248
 20
142.6881026394
 11
267.5780758912
 21
142.6005113985
 12
267.7532583729
 22
142.6881026394
 13
267.7532583729
 23
142.6881026394
  0
SOLID
  5
243
100
AcDbEntity
  8
0
100
AcDbTrace
 62
7
  6
CONTINUOUS
 10
269.1766160372
 20
142.5348179678
 11
267.5780758912
 21
142.6005113985
 12
268.9357401248
 22
142.6881026394
 13
268.9357401248
 23
142.6881026394
  0
SOLID
  5
244
100
AcDbEntity
  8
0
100
AcDbTrace
 62
7
  6
CONTINUOUS
 10
268.9357401248
 20
142.6881026394
 11
269.6802656722
 21
143.4107303766
 12
269.1766160372
 22
142.5348179678
 13
269.1766160372
 23
142.5348179678
  0
SOLID
  5
245
100
AcDbEntity
  8
0
100
AcDbTrace
 62
7
  6
CONTINUOUS
 10
269.1766160372
 20
142.5348179678
 11
267.4247912196
 21
142.5129194894
 12
267.5780758912
 22
142.6005113985
 13
267.5780758912
 23
142.6005113985
  0
SOLID
  5
246
100
AcDbEntity
  8
0
100
AcDbTrace
 62
7
  6
CONTINUOUS
 10
268.1693167671
 20
142.5129194894
 11
267.4247912196
 21
142.5129194894
 12
269.1766160372
 22
142.5348179678
 13
269.1766160372
 23
142.5348179678
  0
SOLID
  5
247
100
AcDbEntity
  8
0
100
AcDbTrace
 62
7
  6
CONTINUOUS
 10
268.3226014386
 20
142.5129194894
 11
268.1693167671
 21
142.5129194894
 12
269.1766160372
 22
142.5348179678
 13
269.1766160372
 23
142.5348179678
  0
SOLID
  5
248
100
AcDbEntity
  8
0
100
AcDbTrace
 62
7
  6
CONTINUOUS
 10
268.4539882999
 20
142.5129194894
 11
268.3226014386
 21
142.5129194894
 12
269.1766160372
 22
142.5348179678
 13
269.1766160372
 23
142.5348179678
  0
SOLID
  5
249
100
AcDbEntity
  8
0
100
AcDbTrace
 62
7
  6
CONTINUOUS
 10
268.563477351
 20
142.4910223474
 11
268.4539882999
 21
142.5129194894
 12
269.1766160372
 22
142.5348179678
 13
269.1766160372
 23
142.5348179678
  0
SOLID
  5
24A
100
AcDbEntity
  8
0
100
AcDbTrace
 62
7
  6
CONTINUOUS
 10
268.6729664021
 20
142.4691252055
 11
268.563477351
 21
142.4910223474
 12
269.1766160372
 22
142.5348179678
 13
269.1766160372
 23
142.5348179678
  0
SOLID
  5
24B
100
AcDbEntity
  8
0
100
AcDbTrace
 62
7
  6
CONTINUOUS
 10
268.7824554532
 20
142.4253302533
 11
268.6729664021
 21
142.4691252055
 12
269.1766160372
 22
142.5348179678
 13
269.1766160372
 23
142.5348179678
  0
SOLID
  5
24C
100
AcDbEntity
  8
0
100
AcDbTrace
 62
7
  6
CONTINUOUS
 10
268.7824554532
 20
142.4253302533
 11
269.1766160372
 21
142.5348179678
 12
269.3299007087
 22
142.4253302533
 13
269.3299007087
 23
142.4253302533
  0
SOLID
  5
24D
100
AcDbEntity
  8
0
100
AcDbTrace
 62
7
  6
CONTINUOUS
 10
268.0160320956
 20
142.4691252055
 11
267.8846452342
 21
142.4253302533
 12
267.2934043583
 22
142.3815332963
 13
267.2934043583
 23
142.3815332963
  0
SOLID
  5
24E
100
AcDbEntity
  8
0
100
AcDbTrace
 62
7
  6
CONTINUOUS
 10
268.1693167671
 20
142.5129194894
 11
268.0160320956
 21
142.4691252055
 12
267.2934043583
 22
142.3815332963
 13
267.2934043583
 23
142.3815332963
  0
SOLID
  5
24F
100
AcDbEntity
  8
0
100
AcDbTrace
 62
7
  6
CONTINUOUS
 10
268.1693167671
 20
142.5129194894
 11
267.2934043583
 21
142.3815332963
 12
267.4247912196
 22
142.5129194894
 13
267.4247912196
 23
142.5129194894
  0
SOLID
  5
250
100
AcDbEntity
  8
0
100
AcDbTrace
 62
7
  6
CONTINUOUS
 10
267.2934043583
 20
142.3815332963
 11
267.8846452342
 21
142.4253302533
 12
267.7313605627
 22
142.3596354861
 13
267.7313605627
 23
142.3596354861
  0
SOLID
  5
251
100
AcDbEntity
  8
0
100
AcDbTrace
 62
7
  6
CONTINUOUS
 10
267.7313605627
 20
142.3596354861
 11
267.5999737014
 21
142.2720445794
 12
267.162017497
 22
142.2282486248
 13
267.162017497
 23
142.2282486248
  0
SOLID
  5
252
100
AcDbEntity
  8
0
100
AcDbTrace
 62
7
  6
CONTINUOUS
 10
267.7313605627
 20
142.3596354861
 11
267.162017497
 21
142.2282486248
 12
267.2934043583
 22
142.3815332963
 13
267.2934043583
 23
142.3815332963
  0
SOLID
  5
253
100
AcDbEntity
  8
0
100
AcDbTrace
 62
7
  6
CONTINUOUS
 10
267.162017497
 20
142.2282486248
 11
267.5999737014
 21
142.2720445794
 12
267.4904846503
 22
142.1625535235
 13
267.4904846503
 23
142.1625535235
  0
SOLID
  5
254
100
AcDbEntity
  8
0
100
AcDbTrace
 62
7
  6
CONTINUOUS
 10
269.1328204167
 20
142.1844530043
 11
269.0452291759
 21
142.2720445794
 12
269.4393897598
 22
142.2939420554
 13
269.4393897598
 23
142.2939420554
  0
SOLID
  5
255
100
AcDbEntity
  8
0
100
AcDbTrace
 62
7
  6
CONTINUOUS
 10
269.1328204167
 20
142.1844530043
 11
269.4393897598
 21
142.2939420554
 12
269.5488788109
 22
142.1625535235
 13
269.5488788109
 23
142.1625535235
  0
SOLID
  5
256
100
AcDbEntity
  8
0
100
AcDbTrace
 62
7
  6
CONTINUOUS
 10
269.5488788109
 20
142.1625535235
 11
269.2423094678
 21
142.0968617635
 12
269.1328204167
 22
142.1844530043
 13
269.1328204167
 23
142.1844530043
  0
SOLID
  5
257
100
AcDbEntity
  8
0
100
AcDbTrace
 62
7
  6
CONTINUOUS
 10
267.4904846503
 20
142.1625535235
 11
267.0525284459
 21
142.0749639532
 12
267.162017497
 22
142.2282486248
 13
267.162017497
 23
142.2282486248
  0
SOLID
  5
258
100
AcDbEntity
  8
0
100
AcDbTrace
 62
7
  6
CONTINUOUS
 10
267.0525284459
 20
142.0749639532
 11
267.4904846503
 21
142.1625535235
 12
267.4028934094
 22
142.053066143
 13
267.4028934094
 23
142.053066143
  0
SOLID
  5
259
100
AcDbEntity
  8
0
100
AcDbTrace
 62
7
  6
CONTINUOUS
 10
269.2423094678
 20
142.0968617635
 11
269.5488788109
 21
142.1625535235
 12
269.6364700518
 22
142.0092705226
 13
269.6364700518
 23
142.0092705226
  0
SOLID
  5
25A
100
AcDbEntity
  8
0
100
AcDbTrace
 62
7
  6
CONTINUOUS
 10
269.6364700518
 20
142.0092705226
 11
269.3080028985
 21
141.9873727124
 12
269.2423094678
 22
142.0968617635
 13
269.2423094678
 23
142.0968617635
  0
SOLID
  5
25B
100
AcDbEntity
  8
0
100
AcDbTrace
 62
7
  6
CONTINUOUS
 10
267.4028934094
 20
142.053066143
 11
267.3153021686
 21
141.9216792817
 12
266.964937205
 22
141.8997814715
 13
266.964937205
 23
141.8997814715
  0
SOLID
  5
25C
100
AcDbEntity
  8
0
100
AcDbTrace
 62
7
  6
CONTINUOUS
 10
267.4028934094
 20
142.053066143
 11
266.964937205
 21
141.8997814715
 12
267.0525284459
 22
142.0749639532
 13
267.0525284459
 23
142.0749639532
  0
SOLID
  5
25D
100
AcDbEntity
  8
0
100
AcDbTrace
 62
7
  6
CONTINUOUS
 10
269.3736963291
 20
141.8559865193
 11
269.3080028985
 21
141.9873727124
 12
269.6364700518
 22
142.0092705226
 13
269.6364700518
 23
142.0092705226
  0
SOLID
  5
25E
100
AcDbEntity
  8
0
100
AcDbTrace
 62
7
  6
CONTINUOUS
 10
269.3736963291
 20
141.8559865193
 11
269.6364700518
 21
142.0092705226
 12
269.7021634824
 22
141.8559865193
 13
269.7021634824
 23
141.8559865193
  0
SOLID
  5
25F
100
AcDbEntity
  8
0
100
AcDbTrace
 62
7
  6
CONTINUOUS
 10
266.964937205
 20
141.8997814715
 11
267.3153021686
 21
141.9216792817
 12
267.2277109277
 22
141.7902924204
 13
267.2277109277
 23
141.7902924204
  0
SOLID
  5
260
100
AcDbEntity
  8
0
100
AcDbTrace
 62
7
  6
CONTINUOUS
 10
269.7021634824
 20
141.8559865193
 11
269.4393897598
 21
141.7464968
 12
269.3736963291
 22
141.8559865193
 13
269.3736963291
 23
141.8559865193
  0
SOLID
  5
261
100
AcDbEntity
  8
0
100
AcDbTrace
 62
7
  6
CONTINUOUS
 10
267.2277109277
 20
141.7902924204
 11
266.8992437744
 21
141.7245989897
 12
266.964937205
 22
141.8997814715
 13
266.964937205
 23
141.8997814715
  0
SOLID
  5
262
100
AcDbEntity
  8
0
100
AcDbTrace
 62
7
  6
CONTINUOUS
 10
269.4393897598
 20
141.7464968
 11
269.7021634824
 21
141.8559865193
 12
269.7678569131
 22
141.6808033693
 13
269.7678569131
 23
141.6808033693
  0
SOLID
  5
263
100
AcDbEntity
  8
0
100
AcDbTrace
 62
7
  6
CONTINUOUS
 10
266.8992437744
 20
141.7245989897
 11
267.2277109277
 21
141.7902924204
 12
267.1839153072
 22
141.6370077489
 13
267.1839153072
 23
141.6370077489
  0
SOLID
  5
264
100
AcDbEntity
  8
0
100
AcDbTrace
 62
7
  6
CONTINUOUS
 10
269.7678569131
 20
141.6808033693
 11
269.4831853802
 21
141.6151099387
 12
269.4393897598
 22
141.7464968
 13
269.4393897598
 23
141.7464968
  0
SOLID
  5
265
100
AcDbEntity
  8
0
100
AcDbTrace
 62
7
  6
CONTINUOUS
 10
267.1839153072
 20
141.6370077489
 11
266.855448154
 21
141.5275186978
 12
266.8992437744
 22
141.7245989897
 13
266.8992437744
 23
141.7245989897
  0
SOLID
  5
266
100
AcDbEntity
  8
0
100
AcDbTrace
 62
7
  6
CONTINUOUS
 10
269.4831853802
 20
141.6151099387
 11
269.7678569131
 21
141.6808033693
 12
269.7897547233
 22
141.5056208876
 13
269.7897547233
 23
141.5056208876
  0
SOLID
  5
267
100
AcDbEntity
  8
0
100
AcDbTrace
 62
7
  6
CONTINUOUS
 10
266.855448154
 20
141.5275186978
 11
267.1839153072
 21
141.6370077489
 12
267.162017497
 22
141.4837230773
 13
267.162017497
 23
141.4837230773
  0
SOLID
  5
268
100
AcDbEntity
  8
0
100
AcDbTrace
 62
7
  6
CONTINUOUS
 10
269.7897547233
 20
141.5056208876
 11
269.5050831905
 21
141.4618252671
 12
269.4831853802
 22
141.6151099387
 13
269.4831853802
 23
141.6151099387
  0
SOLID
  5
269
100
AcDbEntity
  8
0
100
AcDbTrace
 62
7
  6
CONTINUOUS
 10
267.162017497
 20
141.4837230773
 11
266.855448154
 21
141.3304372363
 12
266.855448154
 22
141.5275186978
 13
266.855448154
 23
141.5275186978
  0
SOLID
  5
26A
100
AcDbEntity
  8
0
100
AcDbTrace
 62
7
  6
CONTINUOUS
 10
266.855448154
 20
141.3304372363
 11
267.162017497
 21
141.4837230773
 12
267.1401196868
 22
141.3304372363
 13
267.1401196868
 23
141.3304372363
  0
SOLID
  5
26B
100
AcDbEntity
  8
0
100
AcDbTrace
 62
7
  6
CONTINUOUS
 10
269.5050831905
 20
141.3304372363
 11
269.5050831905
 21
141.4618252671
 12
269.7897547233
 22
141.5056208876
 13
269.7897547233
 23
141.5056208876
  0
SOLID
  5
26C
100
AcDbEntity
  8
0
100
AcDbTrace
 62
7
  6
CONTINUOUS
 10
269.5050831905
 20
141.3304372363
 11
269.7897547233
 21
141.5056208876
 12
269.7897547233
 22
141.3304372363
 13
269.7897547233
 23
141.3304372363
  0
SOLID
  5
26D
100
AcDbEntity
  8
0
100
AcDbTrace
 62
7
  6
CONTINUOUS
 10
269.7897547233
 20
141.3304372363
 11
269.5050831905
 21
141.1771537343
 12
269.5050831905
 22
141.3304372363
 13
269.5050831905
 23
141.3304372363
  0
SOLID
  5
26E
100
AcDbEntity
  8
0
100
AcDbTrace
 62
7
  6
CONTINUOUS
 10
267.1401196868
 20
141.3304372363
 11
267.162017497
 21
141.1990515445
 12
266.855448154
 22
141.1552559241
 13
266.855448154
 23
141.1552559241
  0
SOLID
  5
26F
100
AcDbEntity
  8
0
100
AcDbTrace
 62
7
  6
CONTINUOUS
 10
267.1401196868
 20
141.3304372363
 11
266.855448154
 21
141.1552559241
 12
266.855448154
 22
141.3304372363
 13
266.855448154
 23
141.3304372363
  0
SOLID
  5
270
100
AcDbEntity
  8
0
100
AcDbTrace
 62
7
  6
CONTINUOUS
 10
269.5050831905
 20
141.1771537343
 11
269.7897547233
 21
141.3304372363
 12
269.7897547233
 22
141.1333581138
 13
269.7897547233
 23
141.1333581138
  0
SOLID
  5
271
100
AcDbEntity
  8
0
100
AcDbTrace
 62
7
  6
CONTINUOUS
 10
266.855448154
 20
141.1552559241
 11
267.162017497
 21
141.1990515445
 12
267.1839153072
 22
141.045766873
 13
267.1839153072
 23
141.045766873
  0
SOLID
  5
272
100
AcDbEntity
  8
0
100
AcDbTrace
 62
7
  6
CONTINUOUS
 10
269.7897547233
 20
141.1333581138
 11
269.46128757
 21
141.0238690627
 12
269.5050831905
 22
141.1771537343
 13
269.5050831905
 23
141.1771537343
  0
SOLID
  5
273
100
AcDbEntity
  8
0
100
AcDbTrace
 62
7
  6
CONTINUOUS
 10
267.1839153072
 20
141.045766873
 11
266.8992437744
 21
140.9800734423
 12
266.855448154
 22
141.1552559241
 13
266.855448154
 23
141.1552559241
  0
SOLID
  5
274
100
AcDbEntity
  8
0
100
AcDbTrace
 62
7
  6
CONTINUOUS
 10
269.46128757
 20
141.0238690627
 11
269.7897547233
 21
141.1333581138
 12
269.7459591029
 22
140.9362778219
 13
269.7459591029
 23
140.9362778219
  0
SOLID
  5
275
100
AcDbEntity
  8
0
100
AcDbTrace
 62
7
  6
CONTINUOUS
 10
266.8992437744
 20
140.9800734423
 11
267.1839153072
 21
141.045766873
 12
267.2277109277
 22
140.9143800116
 13
267.2277109277
 23
140.9143800116
  0
SOLID
  5
276
100
AcDbEntity
  8
0
100
AcDbTrace
 62
7
  6
CONTINUOUS
 10
269.7459591029
 20
140.9362778219
 11
269.4174919496
 21
140.8705843912
 12
269.46128757
 22
141.0238690627
 13
269.46128757
 23
141.0238690627
  0
SOLID
  5
277
100
AcDbEntity
  8
0
100
AcDbTrace
 62
7
  6
CONTINUOUS
 10
267.2277109277
 20
140.9143800116
 11
266.9430393948
 21
140.8048924642
 12
266.8992437744
 22
140.9800734423
 13
266.8992437744
 23
140.9800734423
  0
SOLID
  5
278
100
AcDbEntity
  8
0
100
AcDbTrace
 62
7
  6
CONTINUOUS
 10
266.9430393948
 20
140.8048924642
 11
267.2277109277
 21
140.9143800116
 12
267.2715065481
 22
140.8048924642
 13
267.2715065481
 23
140.8048924642
  0
SOLID
  5
279
100
AcDbEntity
  8
0
100
AcDbTrace
 62
7
  6
CONTINUOUS
 10
269.4174919496
 20
140.8705843912
 11
269.7459591029
 21
140.9362778219
 12
269.6802656722
 22
140.7610953401
 13
269.6802656722
 23
140.7610953401
  0
SOLID
  5
27A
100
AcDbEntity
  8
0
100
AcDbTrace
 62
7
  6
CONTINUOUS
 10
269.6802656722
 20
140.7610953401
 11
269.3517985189
 21
140.7391975299
 12
269.4174919496
 22
140.8705843912
 13
269.4174919496
 23
140.8705843912
  0
SOLID
  5
27B
100
AcDbEntity
  8
0
100
AcDbTrace
 62
7
  6
CONTINUOUS
 10
267.2715065481
 20
140.8048924642
 11
267.3371999788
 21
140.6735040992
 12
267.0087328255
 22
140.651606289
 13
267.0087328255
 23
140.651606289
  0
SOLID
  5
27C
100
AcDbEntity
  8
0
100
AcDbTrace
 62
7
  6
CONTINUOUS
 10
267.2715065481
 20
140.8048924642
 11
267.0087328255
 21
140.651606289
 12
266.9430393948
 22
140.8048924642
 13
266.9430393948
 23
140.8048924642
  0
SOLID
  5
27D
100
AcDbEntity
  8
0
100
AcDbTrace
 62
7
  6
CONTINUOUS
 10
269.264207278
 20
140.6078106686
 11
269.3517985189
 21
140.7391975299
 12
269.6802656722
 22
140.7610953401
 13
269.6802656722
 23
140.7610953401
  0
SOLID
  5
27E
100
AcDbEntity
  8
0
100
AcDbTrace
 62
7
  6
CONTINUOUS
 10
269.264207278
 20
140.6078106686
 11
269.6802656722
 21
140.7610953401
 12
269.5926744313
 22
140.5859128584
 13
269.5926744313
 23
140.5859128584
  0
SOLID
  5
27F
100
AcDbEntity
  8
0
100
AcDbTrace
 62
7
  6
CONTINUOUS
 10
267.0087328255
 20
140.651606289
 11
267.3371999788
 21
140.6735040992
 12
267.4247912196
 22
140.5640150481
 13
267.4247912196
 23
140.5640150481
  0
SOLID
  5
280
100
AcDbEntity
  8
0
100
AcDbTrace
 62
7
  6
CONTINUOUS
 10
267.4247912196
 20
140.5640150481
 11
267.1182218766
 21
140.4983209492
 12
267.0087328255
 22
140.651606289
 13
267.0087328255
 23
140.651606289
  0
SOLID
  5
281
100
AcDbEntity
  8
0
100
AcDbTrace
 62
7
  6
CONTINUOUS
 10
269.5926744313
 20
140.5859128584
 11
269.1547182269
 21
140.4983209492
 12
269.264207278
 22
140.6078106686
 13
269.264207278
 23
140.6078106686
  0
SOLID
  5
282
100
AcDbEntity
  8
0
100
AcDbTrace
 62
7
  6
CONTINUOUS
 10
267.1182218766
 20
140.4983209492
 11
267.4247912196
 21
140.5640150481
 12
267.5123824605
 22
140.4764238073
 13
267.5123824605
 23
140.4764238073
  0
SOLID
  5
283
100
AcDbEntity
  8
0
100
AcDbTrace
 62
7
  6
CONTINUOUS
 10
269.1547182269
 20
140.4983209492
 11
269.5926744313
 21
140.5859128584
 12
269.4831853802
 22
140.4326281868
 13
269.4831853802
 23
140.4326281868
  0
SOLID
  5
284
100
AcDbEntity
  8
0
100
AcDbTrace
 62
7
  6
CONTINUOUS
 10
269.3299007087
 20
142.4253302533
 11
269.4393897598
 21
142.2939420554
 12
269.0452291759
 22
142.2720445794
 13
269.0452291759
 23
142.2720445794
  0
SOLID
  5
285
100
AcDbEntity
  8
0
100
AcDbTrace
 62
7
  6
CONTINUOUS
 10
268.7824554532
 20
142.4253302533
 11
269.3299007087
 21
142.4253302533
 12
269.0452291759
 22
142.2720445794
 13
269.0452291759
 23
142.2720445794
  0
SOLID
  5
286
100
AcDbEntity
  8
0
100
AcDbTrace
 62
7
  6
CONTINUOUS
 10
269.0452291759
 20
142.2720445794
 11
267.6218715116
 21
140.3888342371
 12
268.7824554532
 22
142.4253302533
 13
268.7824554532
 23
142.4253302533
  0
SOLID
  5
287
100
AcDbEntity
  8
0
100
AcDbTrace
 62
7
  6
CONTINUOUS
 10
269.4831853802
 20
140.4326281868
 11
269.0452291759
 21
140.3888342371
 12
269.1547182269
 22
140.4983209492
 13
269.1547182269
 23
140.4983209492
  0
SOLID
  5
288
100
AcDbEntity
  8
0
100
AcDbTrace
 62
7
  6
CONTINUOUS
 10
267.5123824605
 20
140.4764238073
 11
267.6218715116
 21
140.3888342371
 12
267.2058131175
 22
140.3669347562
 13
267.2058131175
 23
140.3669347562
  0
SOLID
  5
289
100
AcDbEntity
  8
0
100
AcDbTrace
 62
7
  6
CONTINUOUS
 10
267.5123824605
 20
140.4764238073
 11
267.2058131175
 21
140.3669347562
 12
267.1182218766
 22
140.4983209492
 13
267.1182218766
 23
140.4983209492
  0
SOLID
  5
28A
100
AcDbEntity
  8
0
100
AcDbTrace
 62
7
  6
CONTINUOUS
 10
268.9138423145
 20
140.3012413255
 11
269.0452291759
 21
140.3888342371
 12
269.4831853802
 22
140.4326281868
 13
269.4831853802
 23
140.4326281868
  0
SOLID
  5
28B
100
AcDbEntity
  8
0
100
AcDbTrace
 62
7
  6
CONTINUOUS
 10
268.9138423145
 20
140.3012413255
 11
269.4831853802
 21
140.4326281868
 12
269.3736963291
 22
140.2793435153
 13
269.3736963291
 23
140.2793435153
  0
SOLID
  5
28C
100
AcDbEntity
  8
0
100
AcDbTrace
 62
7
  6
CONTINUOUS
 10
267.3371999788
 20
140.2355485631
 11
267.2058131175
 21
140.3669347562
 12
267.6218715116
 22
140.3888342371
 13
267.6218715116
 23
140.3888342371
  0
SOLID
  5
28D
100
AcDbEntity
  8
0
100
AcDbTrace
 62
7
  6
CONTINUOUS
 10
267.862747424
 20
140.2355485631
 11
267.3371999788
 21
140.2355485631
 12
267.6218715116
 22
140.3888342371
 13
267.6218715116
 23
140.3888342371
  0
SOLID
  5
28E
100
AcDbEntity
  8
0
100
AcDbTrace
 62
7
  6
CONTINUOUS
 10
267.6218715116
 20
140.3888342371
 11
269.0452291759
 21
142.2720445794
 12
267.862747424
 22
140.2355485631
 13
267.862747424
 23
140.2355485631
  0
SOLID
  5
28F
100
AcDbEntity
  8
0
100
AcDbTrace
 62
7
  6
CONTINUOUS
 10
269.3736963291
 20
140.2793435153
 11
268.7824554532
 21
140.2355485631
 12
268.9138423145
 22
140.3012413255
 13
268.9138423145
 23
140.3012413255
  0
SOLID
  5
290
100
AcDbEntity
  8
0
100
AcDbTrace
 62
7
  6
CONTINUOUS
 10
268.6291707817
 20
140.1917539451
 11
268.7824554532
 21
140.2355485631
 12
269.3736963291
 22
140.2793435153
 13
269.3736963291
 23
140.2793435153
  0
SOLID
  5
291
100
AcDbEntity
  8
0
100
AcDbTrace
 62
7
  6
CONTINUOUS
 10
268.6291707817
 20
140.1917539451
 11
269.3736963291
 21
140.2793435153
 12
269.2204116576
 22
140.1698566361
 13
269.2204116576
 23
140.1698566361
  0
SOLID
  5
292
100
AcDbEntity
  8
0
100
AcDbTrace
 62
7
  6
CONTINUOUS
 10
269.2204116576
 20
140.1698566361
 11
268.4758861102
 21
140.1479548162
 12
268.6291707817
 22
140.1917539451
 13
268.6291707817
 23
140.1917539451
  0
SOLID
  5
293
100
AcDbEntity
  8
0
100
AcDbTrace
 62
7
  6
CONTINUOUS
 10
268.3226014386
 20
140.1479548162
 11
268.4758861102
 21
140.1479548162
 12
267.4685868401
 22
140.1260588438
 13
267.4685868401
 23
140.1260588438
  0
SOLID
  5
294
100
AcDbEntity
  8
0
100
AcDbTrace
 62
7
  6
CONTINUOUS
 10
268.2131123875
 20
140.1479548162
 11
268.3226014386
 21
140.1479548162
 12
267.4685868401
 22
140.1260588438
 13
267.4685868401
 23
140.1260588438
  0
SOLID
  5
295
100
AcDbEntity
  8
0
100
AcDbTrace
 62
7
  6
CONTINUOUS
 10
268.0817255262
 20
140.1698566361
 11
268.2131123875
 21
140.1479548162
 12
267.4685868401
 22
140.1260588438
 13
267.4685868401
 23
140.1260588438
  0
SOLID
  5
296
100
AcDbEntity
  8
0
100
AcDbTrace
 62
7
  6
CONTINUOUS
 10
267.9722364751
 20
140.1917539451
 11
268.0817255262
 21
140.1698566361
 12
267.4685868401
 22
140.1260588438
 13
267.4685868401
 23
140.1260588438
  0
SOLID
  5
297
100
AcDbEntity
  8
0
100
AcDbTrace
 62
7
  6
CONTINUOUS
 10
267.862747424
 20
140.2355485631
 11
267.9722364751
 21
140.1917539451
 12
267.4685868401
 22
140.1260588438
 13
267.4685868401
 23
140.1260588438
  0
SOLID
  5
298
100
AcDbEntity
  8
0
100
AcDbTrace
 62
7
  6
CONTINUOUS
 10
267.862747424
 20
140.2355485631
 11
267.4685868401
 21
140.1260588438
 12
267.3371999788
 22
140.2355485631
 13
267.3371999788
 23
140.2355485631
  0
SOLID
  5
299
100
AcDbEntity
  8
0
100
AcDbTrace
 62
7
  6
CONTINUOUS
 10
269.0671269861
 20
140.0603654131
 11
267.4685868401
 21
140.1260588438
 12
268.4758861102
 22
140.1479548162
 13
268.4758861102
 23
140.1479548162
  0
SOLID
  5
29A
100
AcDbEntity
  8
0
100
AcDbTrace
 62
7
  6
CONTINUOUS
 10
268.4758861102
 20
140.1479548162
 11
269.2204116576
 21
140.1698566361
 12
269.0671269861
 22
140.0603654131
 13
269.0671269861
 23
140.0603654131
  0
SOLID
  5
29B
100
AcDbEntity
  8
0
100
AcDbTrace
 62
7
  6
CONTINUOUS
 10
267.7094627525
 20
139.972776177
 11
269.0671269861
 21
140.0603654131
 12
268.8919445043
 22
139.972776177
 13
268.8919445043
 23
139.972776177
  0
SOLID
  5
29C
100
AcDbEntity
  8
0
100
AcDbTrace
 62
7
  6
CONTINUOUS
 10
268.8919445043
 20
139.972776177
 11
267.862747424
 21
139.9289785518
 12
267.7094627525
 22
139.972776177
 13
267.7094627525
 23
139.972776177
  0
SOLID
  5
29D
100
AcDbEntity
  8
0
100
AcDbTrace
 62
7
  6
CONTINUOUS
 10
267.862747424
 20
139.9289785518
 11
268.8919445043
 21
139.972776177
 12
268.7167620226
 22
139.9070807416
 13
268.7167620226
 23
139.9070807416
  0
SOLID
  5
29E
100
AcDbEntity
  8
0
100
AcDbTrace
 62
7
  6
CONTINUOUS
 10
268.7167620226
 20
139.9070807416
 11
268.0160320956
 21
139.8851829314
 12
267.862747424
 22
139.9289785518
 13
267.862747424
 23
139.9289785518
  0
SOLID
  5
29F
100
AcDbEntity
  8
0
100
AcDbTrace
 62
7
  6
CONTINUOUS
 10
268.1693167671
 20
139.8632851211
 11
268.0160320956
 21
139.8851829314
 12
268.7167620226
 22
139.9070807416
 13
268.7167620226
 23
139.9070807416
  0
SOLID
  5
2A0
100
AcDbEntity
  8
0
100
AcDbTrace
 62
7
  6
CONTINUOUS
 10
268.3226014386
 20
139.8632851211
 11
268.1693167671
 21
139.8632851211
 12
268.7167620226
 22
139.9070807416
 13
268.7167620226
 23
139.9070807416
  0
SOLID
  5
2A1
100
AcDbEntity
  8
0
100
AcDbTrace
 62
7
  6
CONTINUOUS
 10
268.3226014386
 20
139.8632851211
 11
268.7167620226
 21
139.9070807416
 12
268.5196817306
 22
139.8632851211
 13
268.5196817306
 23
139.8632851211
  0
SOLID
  5
2A2
100
AcDbEntity
  8
0
100
AcDbTrace
 62
7
  6
CONTINUOUS
 10
267.4685868401
 20
140.1260588438
 11
269.0671269861
 21
140.0603654131
 12
267.7094627525
 22
139.972776177
 13
267.7094627525
 23
139.972776177
  0
SOLID
  5
2A3
100
AcDbEntity
  8
0
100
AcDbTrace
 62
7
  6
CONTINUOUS
 10
267.7094627525
 20
139.972776177
 11
266.964937205
 21
139.2720442452
 12
267.4685868401
 22
140.1260588438
 13
267.4685868401
 23
140.1260588438
  0
SOLID
  5
2A4
100
AcDbEntity
  8
0
100
AcDbTrace
 62
7
  6
CONTINUOUS
 10
266.964937205
 20
139.2720442452
 11
267.7094627525
 21
139.972776177
 12
267.2277109277
 22
139.1187595737
 13
267.2277109277
 23
139.1187595737
  0
DIMENSION
  5
2A5
100
AcDbEntity
  8
0
100
AcDbDimension
 62
7
  6
CONTINUOUS
  2
*D0
 10
258.8421017549
 20
134.1370037812
 11
266.5707766211
 21
139.8632851211
 70
163
 71
1
 72
2
 41
0.9
 42
96.8936882174
  1
{\fSymbol_ASME;\W1.0;⌀}<>
  3
DIMSTYLE_1
100
AcDbDiametricDimension
 15
180.9386332368
 25
76.5224534556
1001
ACAD
1000
DSTYLE
1002
{
1070
73
1070
1
1070
74
1070
1
1002
}
  0
SOLID
  5
2A6
100
AcDbEntity
  8
0
100
AcDbTrace
 62
7
  6
CONTINUOUS
 10
173.40821733
 20
147.0492380381
 11
173.605297622
 21
147.0711338435
 12
173.7585822935
 22
147.0492380381
 13
173.7585822935
 23
147.0492380381
  0
SOLID
  5
2A7
100
AcDbEntity
  8
0
100
AcDbTrace
 62
7
  6
CONTINUOUS
 10
173.7585822935
 20
147.0492380381
 11
173.911866965
 21
147.0273382231
 12
173.2330348482
 22
147.0054404129
 13
173.2330348482
 23
147.0054404129
  0
SOLID
  5
2A8
100
AcDbEntity
  8
0
100
AcDbTrace
 62
7
  6
CONTINUOUS
 10
173.7585822935
 20
147.0492380381
 11
173.2330348482
 21
147.0054404129
 12
173.40821733
 22
147.0492380381
 13
173.40821733
 23
147.0492380381
  0
SOLID
  5
2A9
100
AcDbEntity
  8
0
100
AcDbTrace
 62
7
  6
CONTINUOUS
 10
173.2330348482
 20
147.0054404129
 11
173.911866965
 21
147.0273382231
 12
174.0651516366
 22
146.9835426026
 13
174.0651516366
 23
146.9835426026
  0
SOLID
  5
2AA
100
AcDbEntity
  8
0
100
AcDbTrace
 62
7
  6
CONTINUOUS
 10
174.0651516366
 20
146.9835426026
 11
173.0359545563
 21
146.9397469822
 12
173.2330348482
 22
147.0054404129
 13
173.2330348482
 23
147.0054404129
  0
SOLID
  5
2AB
100
AcDbEntity
  8
0
100
AcDbTrace
 62
7
  6
CONTINUOUS
 10
173.0359545563
 20
146.9397469822
 11
174.0651516366
 21
146.9835426026
 12
174.2184363081
 22
146.9397469822
 13
174.2184363081
 23
146.9397469822
  0
SOLID
  5
2AC
100
AcDbEntity
  8
0
100
AcDbTrace
 62
7
  6
CONTINUOUS
 10
174.9629618555
 20
147.6623747194
 11
174.2184363081
 21
146.9397469822
 12
174.7220859431
 22
147.815659391
 13
174.7220859431
 23
147.815659391
  0
SOLID
  5
2AD
100
AcDbEntity
  8
0
100
AcDbTrace
 62
7
  6
CONTINUOUS
 10
174.2184363081
 20
146.9397469822
 11
172.8607720745
 21
146.8521557413
 12
173.0359545563
 22
146.9397469822
 13
173.0359545563
 23
146.9397469822
  0
SOLID
  5
2AE
100
AcDbEntity
  8
0
100
AcDbTrace
 62
7
  6
CONTINUOUS
 10
174.4593122205
 20
146.7864623107
 11
172.8607720745
 21
146.8521557413
 12
174.2184363081
 22
146.9397469822
 13
174.2184363081
 23
146.9397469822
  0
SOLID
  5
2AF
100
AcDbEntity
  8
0
100
AcDbTrace
 62
7
  6
CONTINUOUS
 10
174.2184363081
 20
146.9397469822
 11
174.9629618555
 21
147.6623747194
 12
174.4593122205
 22
146.7864623107
 13
174.4593122205
 23
146.7864623107
  0
SOLID
  5
2B0
100
AcDbEntity
  8
0
100
AcDbTrace
 62
7
  6
CONTINUOUS
 10
174.4593122205
 20
146.7864623107
 11
172.707487403
 21
146.7645638322
 12
172.8607720745
 22
146.8521557413
 13
172.8607720745
 23
146.8521557413
  0
SOLID
  5
2B1
100
AcDbEntity
  8
0
100
AcDbTrace
 62
7
  6
CONTINUOUS
 10
173.4520129504
 20
146.7645638322
 11
172.707487403
 21
146.7645638322
 12
174.4593122205
 22
146.7864623107
 13
174.4593122205
 23
146.7864623107
  0
SOLID
  5
2B2
100
AcDbEntity
  8
0
100
AcDbTrace
 62
7
  6
CONTINUOUS
 10
173.605297622
 20
146.7645638322
 11
173.4520129504
 21
146.7645638322
 12
174.4593122205
 22
146.7864623107
 13
174.4593122205
 23
146.7864623107
  0
SOLID
  5
2B3
100
AcDbEntity
  8
0
100
AcDbTrace
 62
7
  6
CONTINUOUS
 10
173.7366844833
 20
146.7645638322
 11
173.605297622
 21
146.7645638322
 12
174.4593122205
 22
146.7864623107
 13
174.4593122205
 23
146.7864623107
  0
SOLID
  5
2B4
100
AcDbEntity
  8
0
100
AcDbTrace
 62
7
  6
CONTINUOUS
 10
173.8461735344
 20
146.7426666902
 11
173.7366844833
 21
146.7645638322
 12
174.4593122205
 22
146.7864623107
 13
174.4593122205
 23
146.7864623107
  0
SOLID
  5
2B5
100
AcDbEntity
  8
0
100
AcDbTrace
 62
7
  6
CONTINUOUS
 10
173.9556625855
 20
146.7207695483
 11
173.8461735344
 21
146.7426666902
 12
174.4593122205
 22
146.7864623107
 13
174.4593122205
 23
146.7864623107
  0
SOLID
  5
2B6
100
AcDbEntity
  8
0
100
AcDbTrace
 62
7
  6
CONTINUOUS
 10
174.0651516366
 20
146.6769745961
 11
173.9556625855
 21
146.7207695483
 12
174.4593122205
 22
146.7864623107
 13
174.4593122205
 23
146.7864623107
  0
SOLID
  5
2B7
100
AcDbEntity
  8
0
100
AcDbTrace
 62
7
  6
CONTINUOUS
 10
174.0651516366
 20
146.6769745961
 11
174.4593122205
 21
146.7864623107
 12
174.612596892
 22
146.6769745961
 13
174.612596892
 23
146.6769745961
  0
SOLID
  5
2B8
100
AcDbEntity
  8
0
100
AcDbTrace
 62
7
  6
CONTINUOUS
 10
173.2987282789
 20
146.7207695483
 11
173.1673414176
 21
146.6769745961
 12
172.5761005417
 22
146.6331776391
 13
172.5761005417
 23
146.6331776391
  0
SOLID
  5
2B9
100
AcDbEntity
  8
0
100
AcDbTrace
 62
7
  6
CONTINUOUS
 10
173.4520129504
 20
146.7645638322
 11
173.2987282789
 21
146.7207695483
 12
172.5761005417
 22
146.6331776391
 13
172.5761005417
 23
146.6331776391
  0
SOLID
  5
2BA
100
AcDbEntity
  8
0
100
AcDbTrace
 62
7
  6
CONTINUOUS
 10
173.4520129504
 20
146.7645638322
 11
172.5761005417
 21
146.6331776391
 12
172.707487403
 22
146.7645638322
 13
172.707487403
 23
146.7645638322
  0
SOLID
  5
2BB
100
AcDbEntity
  8
0
100
AcDbTrace
 62
7
  6
CONTINUOUS
 10
172.5761005417
 20
146.6331776391
 11
173.1673414176
 21
146.6769745961
 12
173.0140567461
 22
146.6112798289
 13
173.0140567461
 23
146.6112798289
  0
SOLID
  5
2BC
100
AcDbEntity
  8
0
100
AcDbTrace
 62
7
  6
CONTINUOUS
 10
173.0140567461
 20
146.6112798289
 11
172.8826698847
 21
146.5236889222
 12
172.4447136804
 22
146.4798929676
 13
172.4447136804
 23
146.4798929676
  0
SOLID
  5
2BD
100
AcDbEntity
  8
0
100
AcDbTrace
 62
7
  6
CONTINUOUS
 10
173.0140567461
 20
146.6112798289
 11
172.4447136804
 21
146.4798929676
 12
172.5761005417
 22
146.6331776391
 13
172.5761005417
 23
146.6331776391
  0
SOLID
  5
2BE
100
AcDbEntity
  8
0
100
AcDbTrace
 62
7
  6
CONTINUOUS
 10
172.4447136804
 20
146.4798929676
 11
172.8826698847
 21
146.5236889222
 12
172.7731808336
 22
146.4141978663
 13
172.7731808336
 23
146.4141978663
  0
SOLID
  5
2BF
100
AcDbEntity
  8
0
100
AcDbTrace
 62
7
  6
CONTINUOUS
 10
174.4155166001
 20
146.4360973472
 11
174.3279253592
 21
146.5236889222
 12
174.7220859431
 22
146.5455863983
 13
174.7220859431
 23
146.5455863983
  0
SOLID
  5
2C0
100
AcDbEntity
  8
0
100
AcDbTrace
 62
7
  6
CONTINUOUS
 10
174.4155166001
 20
146.4360973472
 11
174.7220859431
 21
146.5455863983
 12
174.8315749942
 22
146.4141978663
 13
174.8315749942
 23
146.4141978663
  0
SOLID
  5
2C1
100
AcDbEntity
  8
0
100
AcDbTrace
 62
7
  6
CONTINUOUS
 10
174.8315749942
 20
146.4141978663
 11
174.5250056512
 21
146.3485061063
 12
174.4155166001
 22
146.4360973472
 13
174.4155166001
 23
146.4360973472
  0
SOLID
  5
2C2
100
AcDbEntity
  8
0
100
AcDbTrace
 62
7
  6
CONTINUOUS
 10
172.7731808336
 20
146.4141978663
 11
172.3352246293
 21
146.3266082961
 12
172.4447136804
 22
146.4798929676
 13
172.4447136804
 23
146.4798929676
  0
SOLID
  5
2C3
100
AcDbEntity
  8
0
100
AcDbTrace
 62
7
  6
CONTINUOUS
 10
172.3352246293
 20
146.3266082961
 11
172.7731808336
 21
146.4141978663
 12
172.6855895928
 22
146.3047104859
 13
172.6855895928
 23
146.3047104859
  0
SOLID
  5
2C4
100
AcDbEntity
  8
0
100
AcDbTrace
 62
7
  6
CONTINUOUS
 10
174.5250056512
 20
146.3485061063
 11
174.8315749942
 21
146.4141978663
 12
174.9191662351
 22
146.2609148654
 13
174.9191662351
 23
146.2609148654
  0
SOLID
  5
2C5
100
AcDbEntity
  8
0
100
AcDbTrace
 62
7
  6
CONTINUOUS
 10
174.9191662351
 20
146.2609148654
 11
174.5906990818
 21
146.2390170552
 12
174.5250056512
 22
146.3485061063
 13
174.5250056512
 23
146.3485061063
  0
SOLID
  5
2C6
100
AcDbEntity
  8
0
100
AcDbTrace
 62
7
  6
CONTINUOUS
 10
172.6855895928
 20
146.3047104859
 11
172.5979983519
 21
146.1733236245
 12
172.2476333884
 22
146.1514258143
 13
172.2476333884
 23
146.1514258143
  0
SOLID
  5
2C7
100
AcDbEntity
  8
0
100
AcDbTrace
 62
7
  6
CONTINUOUS
 10
172.6855895928
 20
146.3047104859
 11
172.2476333884
 21
146.1514258143
 12
172.3352246293
 22
146.3266082961
 13
172.3352246293
 23
146.3266082961
  0
SOLID
  5
2C8
100
AcDbEntity
  8
0
100
AcDbTrace
 62
7
  6
CONTINUOUS
 10
174.6563925125
 20
146.1076308622
 11
174.5906990818
 21
146.2390170552
 12
174.9191662351
 22
146.2609148654
 13
174.9191662351
 23
146.2609148654
  0
SOLID
  5
2C9
100
AcDbEntity
  8
0
100
AcDbTrace
 62
7
  6
CONTINUOUS
 10
174.6563925125
 20
146.1076308622
 11
174.9191662351
 21
146.2609148654
 12
174.9848596658
 22
146.1076308622
 13
174.9848596658
 23
146.1076308622
  0
SOLID
  5
2CA
100
AcDbEntity
  8
0
100
AcDbTrace
 62
7
  6
CONTINUOUS
 10
172.2476333884
 20
146.1514258143
 11
172.5979983519
 21
146.1733236245
 12
172.510407111
 22
146.0419367632
 13
172.510407111
 23
146.0419367632
  0
SOLID
  5
2CB
100
AcDbEntity
  8
0
100
AcDbTrace
 62
7
  6
CONTINUOUS
 10
174.9848596658
 20
146.1076308622
 11
174.7220859431
 21
145.9981411428
 12
174.6563925125
 22
146.1076308622
 13
174.6563925125
 23
146.1076308622
  0
SOLID
  5
2CC
100
AcDbEntity
  8
0
100
AcDbTrace
 62
7
  6
CONTINUOUS
 10
172.510407111
 20
146.0419367632
 11
172.1819399577
 21
145.9762433326
 12
172.2476333884
 22
146.1514258143
 13
172.2476333884
 23
146.1514258143
  0
SOLID
  5
2CD
100
AcDbEntity
  8
0
100
AcDbTrace
 62
7
  6
CONTINUOUS
 10
174.7220859431
 20
145.9981411428
 11
174.9848596658
 21
146.1076308622
 12
175.0505530964
 22
145.9324477121
 13
175.0505530964
 23
145.9324477121
  0
SOLID
  5
2CE
100
AcDbEntity
  8
0
100
AcDbTrace
 62
7
  6
CONTINUOUS
 10
172.1819399577
 20
145.9762433326
 11
172.510407111
 21
146.0419367632
 12
172.4666114906
 22
145.8886520917
 13
172.4666114906
 23
145.8886520917
  0
SOLID
  5
2CF
100
AcDbEntity
  8
0
100
AcDbTrace
 62
7
  6
CONTINUOUS
 10
175.0505530964
 20
145.9324477121
 11
174.7658815636
 21
145.8667542815
 12
174.7220859431
 22
145.9981411428
 13
174.7220859431
 23
145.9981411428
  0
SOLID
  5
2D0
100
AcDbEntity
  8
0
100
AcDbTrace
 62
7
  6
CONTINUOUS
 10
172.4666114906
 20
145.8886520917
 11
172.1381443373
 21
145.7791630406
 12
172.1819399577
 22
145.9762433326
 13
172.1819399577
 23
145.9762433326
  0
SOLID
  5
2D1
100
AcDbEntity
  8
0
100
AcDbTrace
 62
7
  6
CONTINUOUS
 10
174.7658815636
 20
145.8667542815
 11
175.0505530964
 21
145.9324477121
 12
175.0724509066
 22
145.7572652304
 13
175.0724509066
 23
145.7572652304
  0
SOLID
  5
2D2
100
AcDbEntity
  8
0
100
AcDbTrace
 62
7
  6
CONTINUOUS
 10
172.1381443373
 20
145.7791630406
 11
172.4666114906
 21
145.8886520917
 12
172.4447136804
 22
145.7353674202
 13
172.4447136804
 23
145.7353674202
  0
SOLID
  5
2D3
100
AcDbEntity
  8
0
100
AcDbTrace
 62
7
  6
CONTINUOUS
 10
175.0724509066
 20
145.7572652304
 11
174.7877793738
 21
145.7134696099
 12
174.7658815636
 22
145.8667542815
 13
174.7658815636
 23
145.8667542815
  0
SOLID
  5
2D4
100
AcDbEntity
  8
0
100
AcDbTrace
 62
7
  6
CONTINUOUS
 10
172.4447136804
 20
145.7353674202
 11
172.1381443373
 21
145.5820815792
 12
172.1381443373
 22
145.7791630406
 13
172.1381443373
 23
145.7791630406
  0
SOLID
  5
2D5
100
AcDbEntity
  8
0
100
AcDbTrace
 62
7
  6
CONTINUOUS
 10
172.1381443373
 20
145.5820815792
 11
172.4447136804
 21
145.7353674202
 12
172.4228158701
 22
145.5820815792
 13
172.4228158701
 23
145.5820815792
  0
SOLID
  5
2D6
100
AcDbEntity
  8
0
100
AcDbTrace
 62
7
  6
CONTINUOUS
 10
174.7877793738
 20
145.5820815792
 11
174.7877793738
 21
145.7134696099
 12
175.0724509066
 22
145.7572652304
 13
175.0724509066
 23
145.7572652304
  0
SOLID
  5
2D7
100
AcDbEntity
  8
0
100
AcDbTrace
 62
7
  6
CONTINUOUS
 10
174.7877793738
 20
145.5820815792
 11
175.0724509066
 21
145.7572652304
 12
175.0724509066
 22
145.5820815792
 13
175.0724509066
 23
145.5820815792
  0
SOLID
  5
2D8
100
AcDbEntity
  8
0
100
AcDbTrace
 62
7
  6
CONTINUOUS
 10
175.0724509066
 20
145.5820815792
 11
174.7877793738
 21
145.4287980771
 12
174.7877793738
 22
145.5820815792
 13
174.7877793738
 23
145.5820815792
  0
SOLID
  5
2D9
100
AcDbEntity
  8
0
100
AcDbTrace
 62
7
  6
CONTINUOUS
 10
172.4228158701
 20
145.5820815792
 11
172.4447136804
 21
145.4506958873
 12
172.1381443373
 22
145.4069002669
 13
172.1381443373
 23
145.4069002669
  0
SOLID
  5
2DA
100
AcDbEntity
  8
0
100
AcDbTrace
 62
7
  6
CONTINUOUS
 10
172.4228158701
 20
145.5820815792
 11
172.1381443373
 21
145.4069002669
 12
172.1381443373
 22
145.5820815792
 13
172.1381443373
 23
145.5820815792
  0
SOLID
  5
2DB
100
AcDbEntity
  8
0
100
AcDbTrace
 62
7
  6
CONTINUOUS
 10
174.7877793738
 20
145.4287980771
 11
175.0724509066
 21
145.5820815792
 12
175.0724509066
 22
145.3850024567
 13
175.0724509066
 23
145.3850024567
  0
SOLID
  5
2DC
100
AcDbEntity
  8
0
100
AcDbTrace
 62
7
  6
CONTINUOUS
 10
172.1381443373
 20
145.4069002669
 11
172.4447136804
 21
145.4506958873
 12
172.4666114906
 22
145.2974112158
 13
172.4666114906
 23
145.2974112158
  0
SOLID
  5
2DD
100
AcDbEntity
  8
0
100
AcDbTrace
 62
7
  6
CONTINUOUS
 10
175.0724509066
 20
145.3850024567
 11
174.7439837534
 21
145.2755134056
 12
174.7877793738
 22
145.4287980771
 13
174.7877793738
 23
145.4287980771
  0
SOLID
  5
2DE
100
AcDbEntity
  8
0
100
AcDbTrace
 62
7
  6
CONTINUOUS
 10
172.4666114906
 20
145.2974112158
 11
172.1819399577
 21
145.2317177851
 12
172.1381443373
 22
145.4069002669
 13
172.1381443373
 23
145.4069002669
  0
SOLID
  5
2DF
100
AcDbEntity
  8
0
100
AcDbTrace
 62
7
  6
CONTINUOUS
 10
174.7439837534
 20
145.2755134056
 11
175.0724509066
 21
145.3850024567
 12
175.0286552862
 22
145.1879221647
 13
175.0286552862
 23
145.1879221647
  0
SOLID
  5
2E0
100
AcDbEntity
  8
0
100
AcDbTrace
 62
7
  6
CONTINUOUS
 10
172.1819399577
 20
145.2317177851
 11
172.4666114906
 21
145.2974112158
 12
172.510407111
 22
145.1660243545
 13
172.510407111
 23
145.1660243545
  0
SOLID
  5
2E1
100
AcDbEntity
  8
0
100
AcDbTrace
 62
7
  6
CONTINUOUS
 10
175.0286552862
 20
145.1879221647
 11
174.7001881329
 21
145.122228734
 12
174.7439837534
 22
145.2755134056
 13
174.7439837534
 23
145.2755134056
  0
SOLID
  5
2E2
100
AcDbEntity
  8
0
100
AcDbTrace
 62
7
  6
CONTINUOUS
 10
172.510407111
 20
145.1660243545
 11
172.2257355782
 21
145.056536807
 12
172.1819399577
 22
145.2317177851
 13
172.1819399577
 23
145.2317177851
  0
SOLID
  5
2E3
100
AcDbEntity
  8
0
100
AcDbTrace
 62
7
  6
CONTINUOUS
 10
172.2257355782
 20
145.056536807
 11
172.510407111
 21
145.1660243545
 12
172.5542027315
 22
145.056536807
 13
172.5542027315
 23
145.056536807
  0
SOLID
  5
2E4
100
AcDbEntity
  8
0
100
AcDbTrace
 62
7
  6
CONTINUOUS
 10
174.7001881329
 20
145.122228734
 11
175.0286552862
 21
145.1879221647
 12
174.9629618555
 22
145.0127396829
 13
174.9629618555
 23
145.0127396829
  0
SOLID
  5
2E5
100
AcDbEntity
  8
0
100
AcDbTrace
 62
7
  6
CONTINUOUS
 10
174.9629618555
 20
145.0127396829
 11
174.6344947023
 21
144.9908418727
 12
174.7001881329
 22
145.122228734
 13
174.7001881329
 23
145.122228734
  0
SOLID
  5
2E6
100
AcDbEntity
  8
0
100
AcDbTrace
 62
7
  6
CONTINUOUS
 10
172.5542027315
 20
145.056536807
 11
172.6198961621
 21
144.9251484421
 12
172.2914290088
 22
144.9032506318
 13
172.2914290088
 23
144.9032506318
  0
SOLID
  5
2E7
100
AcDbEntity
  8
0
100
AcDbTrace
 62
7
  6
CONTINUOUS
 10
172.5542027315
 20
145.056536807
 11
172.2914290088
 21
144.9032506318
 12
172.2257355782
 22
145.056536807
 13
172.2257355782
 23
145.056536807
  0
SOLID
  5
2E8
100
AcDbEntity
  8
0
100
AcDbTrace
 62
7
  6
CONTINUOUS
 10
174.5469034614
 20
144.8594550114
 11
174.6344947023
 21
144.9908418727
 12
174.9629618555
 22
145.0127396829
 13
174.9629618555
 23
145.0127396829
  0
SOLID
  5
2E9
100
AcDbEntity
  8
0
100
AcDbTrace
 62
7
  6
CONTINUOUS
 10
174.5469034614
 20
144.8594550114
 11
174.9629618555
 21
145.0127396829
 12
174.8753706147
 22
144.8375572012
 13
174.8753706147
 23
144.8375572012
  0
SOLID
  5
2EA
100
AcDbEntity
  8
0
100
AcDbTrace
 62
7
  6
CONTINUOUS
 10
172.2914290088
 20
144.9032506318
 11
172.6198961621
 21
144.9251484421
 12
172.707487403
 22
144.815659391
 13
172.707487403
 23
144.815659391
  0
SOLID
  5
2EB
100
AcDbEntity
  8
0
100
AcDbTrace
 62
7
  6
CONTINUOUS
 10
172.707487403
 20
144.815659391
 11
172.4009180599
 21
144.749965292
 12
172.2914290088
 22
144.9032506318
 13
172.2914290088
 23
144.9032506318
  0
SOLID
  5
2EC
100
AcDbEntity
  8
0
100
AcDbTrace
 62
7
  6
CONTINUOUS
 10
174.8753706147
 20
144.8375572012
 11
174.4374144103
 21
144.749965292
 12
174.5469034614
 22
144.8594550114
 13
174.5469034614
 23
144.8594550114
  0
SOLID
  5
2ED
100
AcDbEntity
  8
0
100
AcDbTrace
 62
7
  6
CONTINUOUS
 10
172.4009180599
 20
144.749965292
 11
172.707487403
 21
144.815659391
 12
172.7950786439
 22
144.7280681501
 13
172.7950786439
 23
144.7280681501
  0
SOLID
  5
2EE
100
AcDbEntity
  8
0
100
AcDbTrace
 62
7
  6
CONTINUOUS
 10
174.4374144103
 20
144.749965292
 11
174.8753706147
 21
144.8375572012
 12
174.7658815636
 22
144.6842725297
 13
174.7658815636
 23
144.6842725297
  0
SOLID
  5
2EF
100
AcDbEntity
  8
0
100
AcDbTrace
 62
7
  6
CONTINUOUS
 10
174.612596892
 20
146.6769745961
 11
174.7220859431
 21
146.5455863983
 12
174.3279253592
 22
146.5236889222
 13
174.3279253592
 23
146.5236889222
  0
SOLID
  5
2F0
100
AcDbEntity
  8
0
100
AcDbTrace
 62
7
  6
CONTINUOUS
 10
174.0651516366
 20
146.6769745961
 11
174.612596892
 21
146.6769745961
 12
174.3279253592
 22
146.5236889222
 13
174.3279253592
 23
146.5236889222
  0
SOLID
  5
2F1
100
AcDbEntity
  8
0
100
AcDbTrace
 62
7
  6
CONTINUOUS
 10
174.3279253592
 20
146.5236889222
 11
172.904567695
 21
144.6404785799
 12
174.0651516366
 22
146.6769745961
 13
174.0651516366
 23
146.6769745961
  0
SOLID
  5
2F2
100
AcDbEntity
  8
0
100
AcDbTrace
 62
7
  6
CONTINUOUS
 10
174.7658815636
 20
144.6842725297
 11
174.3279253592
 21
144.6404785799
 12
174.4374144103
 22
144.749965292
 13
174.4374144103
 23
144.749965292
  0
SOLID
  5
2F3
100
AcDbEntity
  8
0
100
AcDbTrace
 62
7
  6
CONTINUOUS
 10
172.7950786439
 20
144.7280681501
 11
172.904567695
 21
144.6404785799
 12
172.4885093008
 22
144.618579099
 13
172.4885093008
 23
144.618579099
  0
SOLID
  5
2F4
100
AcDbEntity
  8
0
100
AcDbTrace
 62
7
  6
CONTINUOUS
 10
172.7950786439
 20
144.7280681501
 11
172.4885093008
 21
144.618579099
 12
172.4009180599
 22
144.749965292
 13
172.4009180599
 23
144.749965292
  0
SOLID
  5
2F5
100
AcDbEntity
  8
0
100
AcDbTrace
 62
7
  6
CONTINUOUS
 10
174.1965384979
 20
144.5528856683
 11
174.3279253592
 21
144.6404785799
 12
174.7658815636
 22
144.6842725297
 13
174.7658815636
 23
144.6842725297
  0
SOLID
  5
2F6
100
AcDbEntity
  8
0
100
AcDbTrace
 62
7
  6
CONTINUOUS
 10
174.1965384979
 20
144.5528856683
 11
174.7658815636
 21
144.6842725297
 12
174.6563925125
 22
144.5309878581
 13
174.6563925125
 23
144.5309878581
  0
SOLID
  5
2F7
100
AcDbEntity
  8
0
100
AcDbTrace
 62
7
  6
CONTINUOUS
 10
172.6198961621
 20
144.487192906
 11
172.4885093008
 21
144.618579099
 12
172.904567695
 22
144.6404785799
 13
172.904567695
 23
144.6404785799
  0
SOLID
  5
2F8
100
AcDbEntity
  8
0
100
AcDbTrace
 62
7
  6
CONTINUOUS
 10
173.1454436074
 20
144.487192906
 11
172.6198961621
 21
144.487192906
 12
172.904567695
 22
144.6404785799
 13
172.904567695
 23
144.6404785799
  0
SOLID
  5
2F9
100
AcDbEntity
  8
0
100
AcDbTrace
 62
7
  6
CONTINUOUS
 10
172.904567695
 20
144.6404785799
 11
174.3279253592
 21
146.5236889222
 12
173.1454436074
 22
144.487192906
 13
173.1454436074
 23
144.487192906
  0
SOLID
  5
2FA
100
AcDbEntity
  8
0
100
AcDbTrace
 62
7
  6
CONTINUOUS
 10
174.6563925125
 20
144.5309878581
 11
174.0651516366
 21
144.487192906
 12
174.1965384979
 22
144.5528856683
 13
174.1965384979
 23
144.5528856683
  0
SOLID
  5
2FB
100
AcDbEntity
  8
0
100
AcDbTrace
 62
7
  6
CONTINUOUS
 10
173.911866965
 20
144.4433982879
 11
174.0651516366
 21
144.487192906
 12
174.6563925125
 22
144.5309878581
 13
174.6563925125
 23
144.5309878581
  0
SOLID
  5
2FC
100
AcDbEntity
  8
0
100
AcDbTrace
 62
7
  6
CONTINUOUS
 10
173.911866965
 20
144.4433982879
 11
174.6563925125
 21
144.5309878581
 12
174.5031078409
 22
144.4215009789
 13
174.5031078409
 23
144.4215009789
  0
SOLID
  5
2FD
100
AcDbEntity
  8
0
100
AcDbTrace
 62
7
  6
CONTINUOUS
 10
174.5031078409
 20
144.4215009789
 11
173.7585822935
 21
144.3995991591
 12
173.911866965
 22
144.4433982879
 13
173.911866965
 23
144.4433982879
  0
SOLID
  5
2FE
100
AcDbEntity
  8
0
100
AcDbTrace
 62
7
  6
CONTINUOUS
 10
173.605297622
 20
144.3995991591
 11
173.7585822935
 21
144.3995991591
 12
172.7512830234
 22
144.3777031866
 13
172.7512830234
 23
144.3777031866
  0
SOLID
  5
2FF
100
AcDbEntity
  8
0
100
AcDbTrace
 62
7
  6
CONTINUOUS
 10
173.4958085709
 20
144.3995991591
 11
173.605297622
 21
144.3995991591
 12
172.7512830234
 22
144.3777031866
 13
172.7512830234
 23
144.3777031866
  0
SOLID
  5
300
100
AcDbEntity
  8
0
100
AcDbTrace
 62
7
  6
CONTINUOUS
 10
173.3644217096
 20
144.4215009789
 11
173.4958085709
 21
144.3995991591
 12
172.7512830234
 22
144.3777031866
 13
172.7512830234
 23
144.3777031866
  0
SOLID
  5
301
100
AcDbEntity
  8
0
100
AcDbTrace
 62
7
  6
CONTINUOUS
 10
173.2549326585
 20
144.4433982879
 11
173.3644217096
 21
144.4215009789
 12
172.7512830234
 22
144.3777031866
 13
172.7512830234
 23
144.3777031866
  0
SOLID
  5
302
100
AcDbEntity
  8
0
100
AcDbTrace
 62
7
  6
CONTINUOUS
 10
173.1454436074
 20
144.487192906
 11
173.2549326585
 21
144.4433982879
 12
172.7512830234
 22
144.3777031866
 13
172.7512830234
 23
144.3777031866
  0
SOLID
  5
303
100
AcDbEntity
  8
0
100
AcDbTrace
 62
7
  6
CONTINUOUS
 10
173.1454436074
 20
144.487192906
 11
172.7512830234
 21
144.3777031866
 12
172.6198961621
 22
144.487192906
 13
172.6198961621
 23
144.487192906
  0
SOLID
  5
304
100
AcDbEntity
  8
0
100
AcDbTrace
 62
7
  6
CONTINUOUS
 10
174.3498231694
 20
144.3120097559
 11
172.7512830234
 21
144.3777031866
 12
173.7585822935
 22
144.3995991591
 13
173.7585822935
 23
144.3995991591
  0
SOLID
  5
305
100
AcDbEntity
  8
0
100
AcDbTrace
 62
7
  6
CONTINUOUS
 10
173.7585822935
 20
144.3995991591
 11
174.5031078409
 21
144.4215009789
 12
174.3498231694
 22
144.3120097559
 13
174.3498231694
 23
144.3120097559
  0
SOLID
  5
306
100
AcDbEntity
  8
0
100
AcDbTrace
 62
7
  6
CONTINUOUS
 10
172.9921589358
 20
144.2244205199
 11
174.3498231694
 21
144.3120097559
 12
174.1746406877
 22
144.2244205199
 13
174.1746406877
 23
144.2244205199
  0
SOLID
  5
307
100
AcDbEntity
  8
0
100
AcDbTrace
 62
7
  6
CONTINUOUS
 10
174.1746406877
 20
144.2244205199
 11
173.1454436074
 21
144.1806228946
 12
172.9921589358
 22
144.2244205199
 13
172.9921589358
 23
144.2244205199
  0
SOLID
  5
308
100
AcDbEntity
  8
0
100
AcDbTrace
 62
7
  6
CONTINUOUS
 10
173.1454436074
 20
144.1806228946
 11
174.1746406877
 21
144.2244205199
 12
173.9994582059
 22
144.1587250844
 13
173.9994582059
 23
144.1587250844
  0
SOLID
  5
309
100
AcDbEntity
  8
0
100
AcDbTrace
 62
7
  6
CONTINUOUS
 10
173.9994582059
 20
144.1587250844
 11
173.2987282789
 21
144.1368272742
 12
173.1454436074
 22
144.1806228946
 13
173.1454436074
 23
144.1806228946
  0
SOLID
  5
30A
100
AcDbEntity
  8
0
100
AcDbTrace
 62
7
  6
CONTINUOUS
 10
173.4520129504
 20
144.114929464
 11
173.2987282789
 21
144.1368272742
 12
173.9994582059
 22
144.1587250844
 13
173.9994582059
 23
144.1587250844
  0
SOLID
  5
30B
100
AcDbEntity
  8
0
100
AcDbTrace
 62
7
  6
CONTINUOUS
 10
173.605297622
 20
144.114929464
 11
173.4520129504
 21
144.114929464
 12
173.9994582059
 22
144.1587250844
 13
173.9994582059
 23
144.1587250844
  0
SOLID
  5
30C
100
AcDbEntity
  8
0
100
AcDbTrace
 62
7
  6
CONTINUOUS
 10
173.605297622
 20
144.114929464
 11
173.9994582059
 21
144.1587250844
 12
173.8023779139
 22
144.114929464
 13
173.8023779139
 23
144.114929464
  0
SOLID
  5
30D
100
AcDbEntity
  8
0
100
AcDbTrace
 62
7
  6
CONTINUOUS
 10
172.7512830234
 20
144.3777031866
 11
174.3498231694
 21
144.3120097559
 12
172.9921589358
 22
144.2244205199
 13
172.9921589358
 23
144.2244205199
  0
SOLID
  5
30E
100
AcDbEntity
  8
0
100
AcDbTrace
 62
7
  6
CONTINUOUS
 10
172.9921589358
 20
144.2244205199
 11
172.2476333884
 21
143.523688588
 12
172.7512830234
 22
144.3777031866
 13
172.7512830234
 23
144.3777031866
  0
SOLID
  5
30F
100
AcDbEntity
  8
0
100
AcDbTrace
 62
7
  6
CONTINUOUS
 10
172.2476333884
 20
143.523688588
 11
172.9921589358
 21
144.2244205199
 12
172.510407111
 22
143.3704039165
 13
172.510407111
 23
143.3704039165
  0
DIMENSION
  5
310
100
AcDbEntity
  8
0
100
AcDbDimension
 62
7
  6
CONTINUOUS
  2
*D1
 10
204.1833164202
 20
120.7334665325
 11
171.8534728045
 21
144.114929464
 70
163
 71
3
 72
2
 41
0.9
 42
43.9993906878
  1
{\fSymbol_ASME;\W1.0;⌀}<>
  3
DIMSTYLE_2
100
AcDbDiametricDimension
 15
235.5974185722
 25
89.9259907046
1001
ACAD
1000
DSTYLE
1002
{
1070
73
1070
1
1070
74
1070
1
1002
}
  0
DIMENSION
  5
311
100
AcDbEntity
  8
0
100
AcDbDimension
 62
7
  6
CONTINUOUS
  2
*D2
 10
41.0463739078
 20
164.3043546072
 11
87.9320881935
 21
164.3043546072
 70
160
 71
2
 72
2
 41
0.9
 42
100.2
  3
DIMSTYLE_3
100
AcDbAlignedDimension
 13
141.2463739078
 23
147.9415973208
 14
41.0463739078
 24
151.5233402094
 50
180.0
100
AcDbRotatedDimension
  0
LWPOLYLINE
  5
312
100
AcDbEntity
  8
IMPORT_IGES
100
AcDbPolyline
 62
250
  6
CONTINUOUS
 90
121
 70
0
 10
224.74597288
 20
59.3755538539
 10
225.9483636668
 20
59.5185871958
 10
227.1451235982
 20
59.6927794267
 10
228.3362526741
 20
59.8981305466
 10
229.5226387545
 20
60.1348389275
 10
230.7033939794
 20
60.4027061974
 10
231.8758547689
 20
60.7011372399
 10
233.040022009
 20
61.0302304413
 10
234.1958948137
 20
61.3898874153
 10
235.3408069445
 20
61.7792178863
 10
236.4743065252
 20
62.1980883487
 10
237.5968454321
 20
62.6466323081
 10
238.7071130546
 20
63.1243600057
 10
239.8056293849
 20
63.6315509627
 10
240.8918744309
 20
64.1679256579
 10
241.9629776058
 20
64.7321557693
 10
243.0187025496
 20
65.3242287256
 10
244.0592856222
 20
65.9441570982
 10
245.0825653174
 20
66.5906502786
 10
246.0886422092
 20
67.2638894314
 10
247.0774157234
 20
67.963693392
 10
248.0464226309
 20
68.6882280592
 10
248.9952932952
 20
69.4372858196
 10
249.9243973527
 20
70.2110742865
 10
250.8323804836
 20
71.0083821984
 10
251.7192954563
 20
71.8292670256
 10
252.5850895024
 20
72.6736712978
 10
253.4282499963
 20
73.5402113419
 10
254.2489394681
 20
74.4291566092
 10
255.0469953878
 20
75.3402376485
 10
255.8204175398
 20
76.2712624322
 10
256.5690808241
 20
77.2222419139
 10
257.2931103406
 20
78.1931651402
 10
257.9908811737
 20
79.1818072228
 10
258.6622927618
 20
80.1881715703
 10
259.3074456665
 20
81.2122547742
 10
259.9250166563
 20
82.2518217209
 10
260.5148360206
 20
83.3066427747
 10
261.0770734699
 20
84.3769475713
 10
261.6109149044
 20
85.4611899036
 10
262.1164738965
 20
86.5597101178
 10
262.5936368738
 20
87.6721678677
 10
263.0412490196
 20
88.7959959083
 10
263.4592086682
 20
89.9311885417
 10
263.8476174853
 20
91.0777514657
 10
264.2056256504
 20
92.2331345281
 10
264.5331403421
 20
93.3972867571
 10
264.8302543819
 20
94.5702591243
 10
265.0963964138
 20
95.7496543928
 10
265.3314988361
 20
96.9353732195
 10
265.5356292504
 20
98.1275149474
 10
265.7084191065
 20
99.3239803678
 10
265.849836118
 20
100.5249496385
 10
265.9599125713
 20
101.7302426017
 10
266.0383767747
 20
102.9372195751
 10
266.0851479014
 20
104.1458688526
 10
266.1003067783
 20
105.3562021402
 10
266.0838241939
 20
106.5656148736
 10
266.035628789
 20
107.7740713116
 10
265.9557919227
 20
108.9816071954
 10
265.8444984616
 20
110.1857251839
 10
265.7016881476
 20
111.3863937275
 10
265.5274212389
 20
112.5836443758
 10
265.322063376
 20
113.7750744373
 10
265.0855491368
 20
114.960692582
 10
264.8179439435
 20
116.1404901398
 10
264.519809704
 20
117.312038409
 10
264.1910684788
 20
118.4753518209
 10
263.8317982073
 20
119.6304159442
 10
263.442794616
 20
120.7747587843
 10
263.0240517059
 20
121.9082314897
 10
262.575575476
 20
123.0309829119
 10
262.0981796497
 20
124.1409876108
 10
261.5917822562
 20
125.2383108675
 10
261.0564652665
 20
126.3228874009
 10
260.4932883164
 20
127.392495927
 10
259.9021848974
 20
128.4471216149
 10
259.2832215181
 20
129.4867792954
 10
258.6376573402
 20
130.5092921771
 10
257.9653835796
 20
131.5146805943
 10
257.2665090204
 20
132.5029242125
 10
256.5426191775
 20
133.471785237
 10
255.793810415
 20
134.4210466832
 10
255.0199863686
 20
135.3509255355
 10
254.2224434608
 20
136.2598349525
 10
253.4010000663
 20
137.1478979161
 10
252.5558378103
 20
138.0149914442
 10
251.6887979906
 20
138.8591597491
 10
250.7998339902
 20
139.6803321486
 10
249.8889924262
 20
140.4785793248
 10
248.9582544482
 20
141.2521575361
 10
248.0075053589
 20
142.0010406518
 10
247.0368598557
 20
142.7252548028
 10
246.0486431799
 20
143.4231346399
 10
245.0430317185
 20
144.0944815208
 10
244.0198490846
 20
144.7394940879
 10
242.9808913592
 20
145.3571029198
 10
241.9262071566
 20
145.9472641838
 10
240.8557478625
 20
146.5100217124
 10
239.7711637148
 20
147.044437582
 10
238.6720686093
 20
147.5506232875
 10
237.5588486503
 20
148.0284673339
 10
236.4343123877
 20
148.4766973125
 10
235.298600483
 20
148.8951547184
 10
234.1515722747
 20
149.2839980566
 10
232.9956143288
 20
149.6424304336
 10
231.8305022332
 20
149.970413562
 10
230.6564604001
 20
150.2679857292
 10
229.4765486314
 20
150.5344649052
 10
228.2913670226
 20
150.7696873956
 10
227.1003154782
 20
150.9738168947
 10
225.9046535133
 20
151.1466624556
 10
224.7039190471
 20
151.2882734295
 10
223.4985741605
 20
151.3986004651
 10
222.2912646108
 20
151.477304561
 10
221.0820085683
 20
151.5243047916
 10
219.8707878628
 20
151.5396820824
 10
218.6601937398
 20
151.5233402094
 10
217.4510899479
 20
151.4752470978
 10
216.2426127386
 20
151.3954348223
 10
215.0347621118
 20
151.2839033829
  0
LWPOLYLINE
  5
313
100
AcDbEntity
  8
0
100
AcDbPolyline
 62
7
  6
CONTINUOUS
 90
2
 70
0
 43
0.3500000006
 10
176.3919327393
 20
144.1149217529
 10
176.3919327393
 20
145.6149312744
  0
LWPOLYLINE
  5
314
100
AcDbEntity
  8
0
100
AcDbPolyline
 62
7
  6
CONTINUOUS
 90
2
 70
0
 43
0.3500000006
 10
178.7490802002
 20
144.1149217529
 10
178.7490802002
 20
145.6149312744
  0
LWPOLYLINE
  5
315
100
AcDbEntity
  8
IMPORT_IGES
100
AcDbPolyline
 62
7
  6
CONTINUOUS
 90
118
 70
0
 10
177.5071106359
 20
105.329713083
 10
177.5224580768
 20
106.4688757564
 10
177.5682734166
 20
107.6057251335
 10
177.6445566553
 20
108.7402612141
 10
177.7514142794
 20
109.8733782892
 10
177.8887398025
 20
111.0041820679
 10
178.0562137647
 20
112.1299896777
 10
178.2539336155
 20
113.2508059948
 10
178.4818019056
 20
114.3666261429
 10
178.7392068267
 20
115.4747526209
 10
179.0260623879
 20
116.574732862
 10
179.3424545802
 20
117.667019433
 10
179.6880295688
 20
118.7502725327
 10
180.063015772
 20
119.8250344378
 10
180.4671847715
 20
120.8907628715
 10
180.8994974775
 20
121.9444912029
 10
181.3599623805
 20
122.9859759342
 10
181.8485709899
 20
124.0154605631
 10
182.3642587443
 20
125.0307089524
 10
182.9072010921
 20
126.0318437279
 10
183.4772225849
 20
127.0187422638
 10
184.0727323154
 20
127.9888005453
 10
184.6935635769
 20
128.9416365323
 10
185.3398830762
 20
129.8776322648
 10
186.0106000263
 20
130.7953298489
 10
186.7058202122
 20
131.6948343669
 10
187.425437849
 20
132.5760407365
 10
188.1680447947
 20
133.4371758155
 10
188.9337980219
 20
134.2783104954
 10
189.722540558
 20
135.0993738848
 10
190.5323933443
 20
135.8983801683
 10
191.3633605113
 20
136.6752174105
 10
192.2154379285
 20
137.4299975467
 10
193.0867341447
 20
138.1610705672
 10
193.9772409824
 20
138.8683499635
 10
194.8869666192
 20
139.5519222441
 10
195.8140441369
 20
140.2103969253
 10
196.7585199224
 20
140.843739132
 10
197.7203475887
 20
141.4519837393
 10
198.6975210562
 20
142.0338448887
 10
199.6901007979
 20
142.589284478
 10
200.6980263407
 20
143.1183406093
 10
201.7191101862
 20
143.6198417302
 10
202.753405208
 20
144.0937329225
 10
203.8008585325
 20
144.5400691043
 10
204.8591240403
 20
144.9578434776
 10
205.9282024195
 20
145.3469794921
 10
207.008092982
 20
145.7075536982
 10
208.0964475446
 20
146.0387889483
 10
209.1932400371
 20
146.3406148533
 10
210.2984965298
 20
146.6131018024
 10
211.4099470501
 20
146.8556838153
 10
212.5276749277
 20
147.0683118868
 10
213.6515968329
 20
147.2510350221
 10
214.7791928049
 20
147.4034342565
 10
215.9104499186
 20
147.5254348079
 10
217.0453810992
 20
147.6171114584
 10
218.1815051606
 20
147.6782695895
 10
219.3188110442
 20
147.7088417274
 10
220.4573098086
 20
147.7088953459
 10
221.5945534447
 20
147.6784382481
 10
222.7305386445
 20
147.6174057785
 10
223.8652687158
 20
147.5258625927
 10
224.9963055728
 20
147.4040104604
 10
226.1236640294
 20
147.251778611
 10
227.2473292715
 20
147.0692378151
 10
228.3648187715
 20
146.8568021545
 10
229.4760550209
 20
146.6144245874
 10
230.5811155282
 20
146.3421521556
 10
231.6777502898
 20
146.0405400669
 10
232.7659885591
 20
145.709518958
 10
233.8458010828
 20
145.3491581921
 10
234.914850098
 20
144.9602210667
 10
235.973140144
 20
144.5426297926
 10
237.0206666816
 20
144.0964621589
 10
238.0550783301
 20
143.6227148298
 10
239.0763288029
 20
143.1213283216
 10
240.0844643868
 20
142.592362118
 10
241.0772725606
 20
142.036991334
 10
242.0547112805
 20
141.4551596845
 10
243.0168225904
 20
140.8469234545
 10
243.9615201014
 20
140.2136266143
 10
244.8887449034
 20
139.5552316806
 10
245.7985559065
 20
138.8717761366
 10
246.6890434525
 20
138.1647164019
 10
247.5601514742
 20
137.4340262264
 10
248.4119360387
 20
136.6797318602
 10
249.2426556888
 20
135.9033684731
 10
250.052308201
 20
135.1048546833
 10
250.8408957989
 20
134.2842718727
 10
251.6066836961
 20
133.4433993573
 10
252.3496123979
 20
132.5822040108
 10
253.0697413991
 20
131.7007189596
 10
253.7655143974
 20
130.8008228987
 10
254.4368301451
 20
129.8825730357
 10
255.08378989
 20
128.945912163
 10
255.7051410735
 20
127.9925473528
 10
256.3009804171
 20
127.0221804241
 10
256.8712111992
 20
126.0351095579
 10
257.4142906967
 20
125.0339363693
 10
257.9300392886
 20
124.0188042217
 10
258.4186365958
 20
122.9895697517
 10
258.879078758
 20
121.948404484
 10
259.3113651834
 20
120.8950696438
 10
259.7154964638
 20
119.829804006
 10
260.0904705136
 20
118.7554954204
 10
260.4360666604
 20
117.6726944583
 10
260.7525055767
 20
116.5808505483
 10
261.0394471944
 20
115.4811998256
 10
261.2969883772
 20
114.3732928028
 10
261.5250322615
 20
113.2575789673
 10
261.7229481884
 20
112.1366429163
 10
261.8906504709
 20
111.0104869475
 10
262.028224796
 20
109.8791087631
 10
262.1352975665
 20
108.7450860676
 10
262.21174425
 20
107.6092780957
 10
262.257689379
 20
106.4708256126
 10
262.2731329533
 20
105.3297286184
  0
LINE
  5
316
100
AcDbEntity
  8
IMPORT_IGES
100
AcDbLine
 62
7
  6
CONTINUOUS
 10
176.4260982225
 20
96.1109882914
 11
176.4849785432
 21
96.236176382
  0
LINE
  5
317
100
AcDbEntity
  8
IMPORT_IGES
100
AcDbLine
 62
7
  6
CONTINUOUS
 10
176.4837318981
 20
114.4263364664
 11
176.4263348499
 21
114.5484689454
  0
LINE
  5
318
100
AcDbEntity
  8
IMPORT_IGES
100
AcDbLine
 62
7
  6
CONTINUOUS
 10
200.5802573761
 20
115.8658372467
 11
200.5802573761
 21
94.7935679038
  0
LINE
  5
319
100
AcDbEntity
  8
IMPORT_IGES
100
AcDbLine
 62
250
  6
CONTINUOUS
 10
200.6157875042
 20
115.932106394
 11
200.6157875042
 21
94.7272721744
  0
LINE
  5
31A
100
AcDbEntity
  8
IMPORT_IGES
100
AcDbLine
 62
250
  6
CONTINUOUS
 10
201.1154829177
 20
93.8670376902
 11
201.1154829177
 21
116.7924786446
  0
LINE
  5
31B
100
AcDbEntity
  8
IMPORT_IGES
100
AcDbLine
 62
250
  6
CONTINUOUS
 10
201.370427987
 20
117.2031304167
 11
201.370427987
 21
93.4562331893
  0
LINE
  5
31C
100
AcDbEntity
  8
IMPORT_IGES
100
AcDbLine
 62
250
  6
CONTINUOUS
 10
201.8701234005
 20
92.7136713093
 11
201.8701234005
 21
117.945832783
  0
LINE
  5
31D
100
AcDbEntity
  8
IMPORT_IGES
100
AcDbLine
 62
7
  6
CONTINUOUS
 10
201.9231139133
 20
106.3074992707
 11
201.9231139133
 21
104.3519579661
  0
LINE
  5
31E
100
AcDbEntity
  8
IMPORT_IGES
100
AcDbLine
 62
7
  6
CONTINUOUS
 10
201.9929554523
 20
92.5412665558
 11
201.9929554523
 21
104.2131020726
  0
LINE
  5
31F
100
AcDbEntity
  8
IMPORT_IGES
100
AcDbLine
 62
7
  6
CONTINUOUS
 10
201.9929554523
 20
106.4463551643
 11
201.9929554523
 21
118.118181962
  0
LWPOLYLINE
  5
320
100
AcDbEntity
  8
IMPORT_IGES
100
AcDbPolyline
 62
7
  6
CONTINUOUS
 90
100
 70
0
 10
197.8688716221
 20
105.3297286186
 10
197.8802674803
 20
106.0380630204
 10
197.9143364568
 20
106.7440083294
 10
197.9708839225
 20
107.4468449195
 10
198.0496575806
 20
108.145581363
 10
198.1504364798
 20
108.8398080533
 10
198.2731217578
 20
109.52968507
 10
198.4175554782
 20
110.2147139144
 10
198.5834871423
 20
110.8940294745
 10
198.7707548091
 20
111.5672376875
 10
198.9790140361
 20
112.2333477539
 10
199.2080962476
 20
112.8920381755
 10
199.4582170292
 20
113.5438852736
 10
199.7294748388
 20
114.1888430189
 10
200.0214278891
 20
114.8255783078
 10
200.3334990869
 20
115.4527317629
 10
200.6653039839
 20
116.0695388106
 10
201.0165721877
 20
116.6755069754
 10
201.3867737825
 20
117.2697462517
 10
201.7755819637
 20
117.8517731359
 10
202.1825152569
 20
118.4209086611
 10
202.6067035272
 20
118.9760447882
 10
203.0472295771
 20
119.5161877111
 10
203.5039610868
 20
120.0413743523
 10
203.9772187191
 20
120.552033003
 10
204.4667614953
 20
121.0478524673
 10
204.971913053
 20
121.5280940281
 10
205.4924245676
 20
121.9924676461
 10
206.0280861957
 20
122.4406939846
 10
206.5781297595
 20
122.872039562
 10
207.1414195947
 20
123.2855893885
 10
207.7172438449
 20
123.6808536237
 10
208.3051389365
 20
124.0575480594
 10
208.9042650971
 20
124.4151728429
 10
209.5137386451
 20
124.7532689625
 10
210.1331758853
 20
125.071692763
 10
210.7624865487
 20
125.3704192968
 10
211.4009579679
 20
125.6491019733
 10
212.0480412751
 20
125.907493506
 10
212.7039352782
 20
126.1456179733
 10
213.368531959
 20
126.3633067842
 10
214.0406852631
 20
126.5600547406
 10
214.719029459
 20
126.7353980287
 10
215.402692696
 20
126.889093774
 10
216.09117819
 20
127.0210114973
 10
216.7836500047
 20
127.1309689762
 10
217.4794078015
 20
127.2188422114
 10
218.1777482602
 20
127.2845286134
 10
218.8778206064
 20
127.3279387302
 10
219.5789041795
 20
127.349027951
 10
220.2802976205
 20
127.3477772398
 10
220.9811760251
 20
127.3241939462
 10
221.6808171782
 20
127.2783133371
 10
222.3785239545
 20
127.210194134
 10
223.0735128663
 20
127.1199309876
 10
223.7650831482
 20
127.0076343333
 10
224.452537244
 20
126.8734361932
 10
225.1351057928
 20
126.7175117353
 10
225.8123055412
 20
126.5399889853
 10
226.4832553131
 20
126.3411155344
 10
227.1466200649
 20
126.1213498701
 10
227.8012559567
 20
125.8811974835
 10
228.4470558224
 20
125.620823651
 10
229.0842451208
 20
125.3401883005
 10
229.7123093502
 20
125.0395173894
 10
230.3304994469
 20
124.7191690048
 10
230.9386476115
 20
124.3792064997
 10
231.5363176796
 20
124.0198106677
 10
232.1226864733
 20
123.6414141142
 10
232.6970046053
 20
123.2444584825
 10
233.2587823465
 20
122.8292404926
 10
233.8073298188
 20
122.3962291024
 10
234.3416565749
 20
121.9462080917
 10
234.8610964238
 20
121.4797850717
 10
235.3652980005
 20
120.9973224142
 10
235.8537978172
 20
120.4992988021
 10
236.3259777887
 20
119.9863928715
 10
236.7815353539
 20
119.4589799422
 10
237.2204540612
 20
118.9170600213
 10
237.6424842389
 20
118.36084401
 10
238.0469246455
 20
117.7911559224
 10
238.4330902957
 20
117.2089214046
 10
238.8005085462
 20
116.6148652806
 10
239.1489016745
 20
116.0094519572
 10
239.4779368919
 20
115.3932574368
 10
239.7873655942
 20
114.7667180546
 10
240.0767754392
 20
114.1306391199
 10
240.3456636416
 20
113.4861859765
 10
240.5936645266
 20
112.8344187164
 10
240.8207421058
 20
112.1756253333
 10
241.0269081404
 20
111.509821891
 10
241.2120426208
 20
110.8372791661
 10
241.3758191887
 20
110.1590522781
 10
241.5179584196
 20
109.4763351688
 10
241.6383473368
 20
108.7898428044
 10
241.7369051769
 20
108.1002459524
 10
241.8135253691
 20
107.40869314
 10
241.8681993667
 20
106.7160348158
 10
241.9009689107
 20
106.0228159398
 10
241.9118788613
 20
105.3297286186
  0
LINE
  5
321
100
AcDbEntity
  8
IMPORT_IGES
100
AcDbLine
 62
7
  6
CONTINUOUS
 10
230.3370941508
 20
85.9697744184
 11
220.3754009028
 21
85.9697744184
  0
LINE
  5
322
100
AcDbEntity
  8
IMPORT_IGES
100
AcDbLine
 62
7
  6
CONTINUOUS
 10
219.3754009028
 20
85.9697744184
 11
209.4435611855
 21
85.9697744184
  0
LINE
  5
323
100
AcDbEntity
  8
IMPORT_IGES
100
AcDbLine
 62
7
  6
CONTINUOUS
 10
220.3754009028
 20
85.9872001161
 11
219.3752885333
 21
85.987200113
  0
LINE
  5
324
100
AcDbEntity
  8
IMPORT_IGES
100
AcDbLine
 62
250
  6
CONTINUOUS
 10
209.3796856743
 20
86.0053045466
 11
230.4009960478
 21
86.0053045466
  0
LINE
  5
325
100
AcDbEntity
  8
IMPORT_IGES
100
AcDbLine
 62
250
  6
CONTINUOUS
 10
231.2703339101
 20
86.5049999601
 11
208.510455505
 21
86.5049999601
  0
LINE
  5
326
100
AcDbEntity
  8
IMPORT_IGES
100
AcDbLine
 62
250
  6
CONTINUOUS
 10
208.0988583737
 20
86.7599450293
 11
231.6818355532
 21
86.7599450293
  0
LINE
  5
327
100
AcDbEntity
  8
IMPORT_IGES
100
AcDbLine
 62
250
  6
CONTINUOUS
 10
232.4340949088
 20
87.2596404428
 11
207.3467004465
 21
87.2596404428
  0
LINE
  5
328
100
AcDbEntity
  8
IMPORT_IGES
100
AcDbLine
 62
7
  6
CONTINUOUS
 10
207.1682291834
 20
87.3824724947
 11
232.6126734383
 21
87.3824724947
  0
LINE
  5
329
100
AcDbEntity
  8
IMPORT_IGES
100
AcDbLine
 62
7
  6
CONTINUOUS
 10
201.9771432157
 20
106.4150877838
 11
201.9231139133
 21
106.3074992707
  0
LINE
  5
32A
100
AcDbEntity
  8
IMPORT_IGES
100
AcDbLine
 62
7
  6
CONTINUOUS
 10
201.9929554523
 20
106.4463551643
 11
201.9771432157
 21
106.4150877838
  0
LINE
  5
32B
100
AcDbEntity
  8
IMPORT_IGES
100
AcDbLine
 62
7
  6
CONTINUOUS
 10
201.9383422549
 20
104.3215115515
 11
201.9929554523
 21
104.2131020726
  0
LINE
  5
32C
100
AcDbEntity
  8
IMPORT_IGES
100
AcDbLine
 62
7
  6
CONTINUOUS
 10
201.9231139133
 20
104.3519579661
 11
201.9383422549
 21
104.3215115515
  0
LINE
  5
32D
100
AcDbEntity
  8
IMPORT_IGES
100
AcDbLine
 62
7
  6
CONTINUOUS
 10
176.4260982225
 20
96.1109882914
 11
176.5104410389
 21
96.1109882914
  0
LINE
  5
32E
100
AcDbEntity
  8
IMPORT_IGES
100
AcDbLine
 62
7
  6
CONTINUOUS
 10
263.2709548246
 20
96.1109882914
 11
263.3547614608
 21
96.1109882914
  0
LWPOLYLINE
  5
32F
100
AcDbEntity
  8
IMPORT_IGES
100
AcDbPolyline
 62
7
  6
CONTINUOUS
 90
28
 70
0
 10
204.4898922231
 20
105.0453956913
 10
204.5164803937
 20
105.0557427295
 10
204.5415698851
 20
105.0681809992
 10
204.5651606975
 20
105.0827105003
 10
204.5874224988
 20
105.0995005227
 10
204.6081856211
 20
105.1183817765
 10
204.62694106
 20
105.1388463925
 10
204.643630151
 20
105.1609199202
 10
204.6583115587
 20
105.18457681
 10
204.6706522727
 20
105.2092325448
 10
204.6806007192
 20
105.2349122796
 10
204.6882084719
 20
105.2615908593
 10
204.6932972414
 20
105.2886083013
 10
204.6958073742
 20
105.315971397
 10
204.6957985237
 20
105.3436733549
 10
204.6932713604
 20
105.3710338184
 10
204.6881644413
 20
105.3980479481
 10
204.6805392094
 20
105.4247205833
 10
204.670580664
 20
105.4503858854
 10
204.6582395922
 20
105.4750133027
 10
204.6435652069
 20
105.4986333868
 10
204.6268901466
 20
105.5206719534
 10
204.608162278
 20
105.5411035919
 10
204.5874337342
 20
105.559953713
 10
204.5651935531
 20
105.5767243641
 10
204.5416047472
 20
105.5912495612
 10
204.5165043039
 20
105.6036952883
 10
204.4898922231
 20
105.6140615456
  0
LINE
  5
330
100
AcDbEntity
  8
IMPORT_IGES
100
AcDbLine
 62
7
  6
CONTINUOUS
 10
204.4898922231
 20
105.0453956913
 11
201.9929554523
 21
104.2131020726
  0
LINE
  5
331
100
AcDbEntity
  8
IMPORT_IGES
100
AcDbLine
 62
7
  6
CONTINUOUS
 10
202.968184503
 20
104.6750838432
 11
201.9231139133
 21
104.3519579661
  0
LINE
  5
332
100
AcDbEntity
  8
IMPORT_IGES
100
AcDbLine
 62
7
  6
CONTINUOUS
 10
203.7096604063
 20
104.900464962
 11
202.968184503
 21
104.6750838432
  0
LINE
  5
333
100
AcDbEntity
  8
IMPORT_IGES
100
AcDbLine
 62
7
  6
CONTINUOUS
 10
204.1838708304
 20
105.0424693376
 11
203.7096604063
 21
104.900464962
  0
LINE
  5
334
100
AcDbEntity
  8
IMPORT_IGES
100
AcDbLine
 62
7
  6
CONTINUOUS
 10
204.1838708304
 20
105.6169878992
 11
203.429331244
 21
105.8440272985
  0
LINE
  5
335
100
AcDbEntity
  8
IMPORT_IGES
100
AcDbLine
 62
7
  6
CONTINUOUS
 10
203.429331244
 20
105.8440272985
 11
202.6757412452
 21
106.0741990873
  0
LINE
  5
336
100
AcDbEntity
  8
IMPORT_IGES
100
AcDbLine
 62
7
  6
CONTINUOUS
 10
202.6757412452
 20
106.0741990873
 11
201.9231139133
 21
106.3074992707
  0
LINE
  5
337
100
AcDbEntity
  8
IMPORT_IGES
100
AcDbLine
 62
7
  6
CONTINUOUS
 10
201.9929554523
 20
106.4463551643
 11
204.4898922231
 21
105.6140615456
  0
LWPOLYLINE
  5
338
100
AcDbEntity
  8
IMPORT_IGES
100
AcDbPolyline
 62
7
  6
CONTINUOUS
 90
31
 70
0
 10
204.1838708304
 20
105.6169878992
 10
204.2088642395
 20
105.6083014434
 10
204.2326527475
 20
105.597767284
 10
204.2552363544
 20
105.5853854209
 10
204.2767538414
 20
105.5710299617
 10
204.2970664274
 20
105.5548267988
 10
204.3157577685
 20
105.5371536098
 10
204.3327880732
 20
105.5179888463
 10
204.348197133
 20
105.4973540568
 10
204.3616879794
 20
105.4756915642
 10
204.373224252
 20
105.4529824017
 10
204.3828423111
 20
105.4292455362
 10
204.3903542699
 20
105.4049801911
 10
204.395718776
 20
105.380175638
 10
204.3989771817
 20
105.3548426053
 10
204.4000656567
 20
105.3295125019
 10
204.3989404237
 20
105.3041850324
 10
204.39564526
 20
105.2788604922
 10
204.3902476677
 20
105.2540711761
 10
204.3827044659
 20
105.2298270554
 10
204.3730588354
 20
105.2061181588
 10
204.361507821
 20
105.1834468666
 10
204.3480207862
 20
105.1618389286
 10
204.3326283673
 20
105.141268595
 10
204.3156195185
 20
105.1221609971
 10
204.2969545753
 20
105.1045324299
 10
204.2766732021
 20
105.0883665984
 10
204.2551833463
 20
105.0740397488
 10
204.2326209903
 20
105.0616772965
 10
204.2088501517
 20
105.0511538261
 10
204.1838708304
 20
105.0424693376
  0
LINE
  5
339
100
AcDbEntity
  8
IMPORT_IGES
100
AcDbLine
 62
7
  6
CONTINUOUS
 10
219.3752885333
 20
85.987200113
 11
219.3754317351
 21
83.3381502738
  0
LINE
  5
33A
100
AcDbEntity
  8
IMPORT_IGES
100
AcDbLine
 62
7
  6
CONTINUOUS
 10
219.405334089
 20
127.3223846835
 11
219.405334089
 21
124.6722571208
  0
LINE
  5
33B
100
AcDbEntity
  8
IMPORT_IGES
100
AcDbLine
 62
7
  6
CONTINUOUS
 10
220.3754009028
 20
83.3370725536
 11
220.3754009028
 21
85.9872001161
  0
LINE
  5
33C
100
AcDbEntity
  8
IMPORT_IGES
100
AcDbLine
 62
7
  6
CONTINUOUS
 10
220.4054464585
 20
124.6722571238
 11
220.4053032567
 21
127.3213069633
  0
LINE
  5
33D
100
AcDbEntity
  8
IMPORT_IGES
100
AcDbLine
 62
250
  6
CONTINUOUS
 10
204.4898922231
 20
105.0453956913
 11
204.1838708304
 21
105.0424693376
  0
LINE
  5
33E
100
AcDbEntity
  8
IMPORT_IGES
100
AcDbLine
 62
250
  6
CONTINUOUS
 10
235.2908427686
 20
105.6140615456
 11
235.5968641614
 21
105.6169878992
  0
LINE
  5
33F
100
AcDbEntity
  8
IMPORT_IGES
100
AcDbLine
 62
250
  6
CONTINUOUS
 10
235.5968641614
 20
105.0424693376
 11
235.2908427686
 21
105.0453956913
  0
LINE
  5
340
100
AcDbEntity
  8
IMPORT_IGES
100
AcDbLine
 62
250
  6
CONTINUOUS
 10
204.1838708304
 20
105.6169878992
 11
204.4898922231
 21
105.6140615456
  0
LINE
  5
341
100
AcDbEntity
  8
IMPORT_IGES
100
AcDbLine
 62
7
  6
CONTINUOUS
 10
235.2908427686
 20
105.6140615456
 11
237.7877795394
 21
106.4463551643
  0
LINE
  5
342
100
AcDbEntity
  8
IMPORT_IGES
100
AcDbLine
 62
7
  6
CONTINUOUS
 10
236.8125504888
 20
105.9843733936
 11
237.8576210784
 21
106.3074992707
  0
LINE
  5
343
100
AcDbEntity
  8
IMPORT_IGES
100
AcDbLine
 62
7
  6
CONTINUOUS
 10
236.0710745855
 20
105.7589922749
 11
236.8125504888
 21
105.9843733936
  0
LINE
  5
344
100
AcDbEntity
  8
IMPORT_IGES
100
AcDbLine
 62
7
  6
CONTINUOUS
 10
235.5968641614
 20
105.6169878992
 11
236.0710745855
 21
105.7589922749
  0
LINE
  5
345
100
AcDbEntity
  8
IMPORT_IGES
100
AcDbLine
 62
7
  6
CONTINUOUS
 10
235.5968641614
 20
105.0424693376
 11
236.3514037477
 21
104.8154299384
  0
LINE
  5
346
100
AcDbEntity
  8
IMPORT_IGES
100
AcDbLine
 62
7
  6
CONTINUOUS
 10
236.3514037477
 20
104.8154299384
 11
237.1049937466
 21
104.5852581496
  0
LINE
  5
347
100
AcDbEntity
  8
IMPORT_IGES
100
AcDbLine
 62
7
  6
CONTINUOUS
 10
237.1049937466
 20
104.5852581496
 11
237.8576210784
 21
104.3519579661
  0
LINE
  5
348
100
AcDbEntity
  8
IMPORT_IGES
100
AcDbLine
 62
7
  6
CONTINUOUS
 10
237.7877795394
 20
104.2131020726
 11
235.2908427686
 21
105.0453956913
  0
LWPOLYLINE
  5
349
100
AcDbEntity
  8
IMPORT_IGES
100
AcDbPolyline
 62
7
  6
CONTINUOUS
 90
31
 70
0
 10
235.5968641614
 20
105.0424693376
 10
235.5718707523
 20
105.0511557934
 10
235.5480822443
 20
105.0616899528
 10
235.5254986374
 20
105.0740718159
 10
235.5039811503
 20
105.0884272752
 10
235.4836685644
 20
105.1046304381
 10
235.4649772232
 20
105.122303627
 10
235.4479469186
 20
105.1414683905
 10
235.4325378588
 20
105.1621031801
 10
235.4190470123
 20
105.1837656727
 10
235.4075107398
 20
105.2064748351
 10
235.3978926806
 20
105.2302117007
 10
235.3903807219
 20
105.2544770457
 10
235.3850162158
 20
105.2792815988
 10
235.3817578101
 20
105.3046146315
 10
235.3806693351
 20
105.3299447349
 10
235.3817945681
 20
105.3552722044
 10
235.3850897318
 20
105.3805967446
 10
235.3904873241
 20
105.4053860608
 10
235.3980305259
 20
105.4296301814
 10
235.4076761563
 20
105.453339078
 10
235.4192271707
 20
105.4760103702
 10
235.4327142056
 20
105.4976183083
 10
235.4481066244
 20
105.5181886419
 10
235.4651154732
 20
105.5372962398
 10
235.4837804165
 20
105.5549248069
 10
235.5040617896
 20
105.5710906384
 10
235.5255516455
 20
105.585417488
 10
235.5481140015
 20
105.5977799403
 10
235.5718848401
 20
105.6083034107
 10
235.5968641614
 20
105.6169878992
  0
LWPOLYLINE
  5
34A
100
AcDbEntity
  8
IMPORT_IGES
100
AcDbPolyline
 62
7
  6
CONTINUOUS
 90
28
 70
0
 10
235.2908427686
 20
105.6140615456
 10
235.2642545981
 20
105.6037145073
 10
235.2391651067
 20
105.5912762376
 10
235.2155742943
 20
105.5767467365
 10
235.193312493
 20
105.5599567142
 10
235.1725493707
 20
105.5410754604
 10
235.1537939318
 20
105.5206108443
 10
235.1371048408
 20
105.4985373167
 10
235.122423433
 20
105.4748804268
 10
235.1100827191
 20
105.450224692
 10
235.1001342726
 20
105.4245449573
 10
235.0925265198
 20
105.3978663776
 10
235.0874377504
 20
105.3708489356
 10
235.0849276176
 20
105.3434858399
 10
235.0849364681
 20
105.3157838819
 10
235.0874636314
 20
105.2884234184
 10
235.0925705505
 20
105.2614092887
 10
235.1001957824
 20
105.2347366535
 10
235.1101543277
 20
105.2090713515
 10
235.1224953996
 20
105.1844439342
 10
235.1371697848
 20
105.1608238501
 10
235.1538448452
 20
105.1387852835
 10
235.1725727138
 20
105.1183536449
 10
235.1933012575
 20
105.0995035239
 10
235.2155414386
 20
105.0827328727
 10
235.2391302446
 20
105.0682076757
 10
235.2642306879
 20
105.0557619485
 10
235.2908427686
 20
105.0453956913
  0
LINE
  5
34B
100
AcDbEntity
  8
IMPORT_IGES
100
AcDbLine
 62
7
  6
CONTINUOUS
 10
263.3546392718
 20
114.5484689454
 11
263.2696078615
 21
114.5484689454
  0
LINE
  5
34C
100
AcDbEntity
  8
IMPORT_IGES
100
AcDbLine
 62
7
  6
CONTINUOUS
 10
176.5099448991
 20
114.5484689454
 11
176.4263348499
 21
114.5484689454
  0
LWPOLYLINE
  5
34D
100
AcDbEntity
  8
0
100
AcDbPolyline
 62
7
  6
CONTINUOUS
 90
10
 70
0
 43
0.3500000006
 10
270.5378148193
 20
139.8632935181
 10
271.3949527588
 20
140.7204314575
 10
271.6092372437
 20
141.577569397
 10
271.6092372437
 20
142.4347073364
 10
271.1806682739
 20
142.8632763062
 10
270.5378148193
 20
142.8632763062
 10
270.1092458496
 20
142.4347073364
 10
270.1092458496
 20
141.577569397
 10
270.5378148193
 20
141.1490004272
 10
271.4663748779
 20
141.1490004272
  0
LINE
  5
34E
100
AcDbEntity
  8
IMPORT_IGES
100
AcDbLine
 62
7
  6
CONTINUOUS
 10
237.7877795394
 20
118.1181906822
 11
237.7877795394
 21
106.4463551643
  0
LINE
  5
34F
100
AcDbEntity
  8
IMPORT_IGES
100
AcDbLine
 62
7
  6
CONTINUOUS
 10
237.7877795394
 20
104.2131020726
 11
237.7877795394
 21
92.5412752741
  0
LINE
  5
350
100
AcDbEntity
  8
IMPORT_IGES
100
AcDbLine
 62
7
  6
CONTINUOUS
 10
237.8576210784
 20
104.3519579661
 11
237.8576210784
 21
106.3074992707
  0
LINE
  5
351
100
AcDbEntity
  8
IMPORT_IGES
100
AcDbLine
 62
250
  6
CONTINUOUS
 10
237.9106115913
 20
117.9457859288
 11
237.9106115913
 21
92.7136244531
  0
LINE
  5
352
100
AcDbEntity
  8
IMPORT_IGES
100
AcDbLine
 62
250
  6
CONTINUOUS
 10
238.4103070048
 20
93.4563268193
 11
238.4103070048
 21
117.203224049
  0
LINE
  5
353
100
AcDbEntity
  8
IMPORT_IGES
100
AcDbLine
 62
250
  6
CONTINUOUS
 10
238.6652520741
 20
116.792419548
 11
238.6652520741
 21
93.8669785914
  0
LINE
  5
354
100
AcDbEntity
  8
IMPORT_IGES
100
AcDbLine
 62
7
  6
CONTINUOUS
 10
237.8035917761
 20
104.244369453
 11
237.8576210784
 21
104.3519579661
  0
LINE
  5
355
100
AcDbEntity
  8
IMPORT_IGES
100
AcDbLine
 62
7
  6
CONTINUOUS
 10
237.7877795394
 20
104.2131020726
 11
237.8035917761
 21
104.244369453
  0
LINE
  5
356
100
AcDbEntity
  8
IMPORT_IGES
100
AcDbLine
 62
7
  6
CONTINUOUS
 10
232.6125058095
 20
123.2769847422
 11
207.1680615538
 21
123.2769847422
  0
LINE
  5
357
100
AcDbEntity
  8
IMPORT_IGES
100
AcDbLine
 62
250
  6
CONTINUOUS
 10
207.3466400833
 20
123.399816794
 11
232.4340345463
 21
123.399816794
  0
LINE
  5
358
100
AcDbEntity
  8
IMPORT_IGES
100
AcDbLine
 62
250
  6
CONTINUOUS
 10
231.6818766192
 20
123.8995122075
 11
208.0988994388
 21
123.8995122075
  0
LINE
  5
359
100
AcDbEntity
  8
IMPORT_IGES
100
AcDbLine
 62
250
  6
CONTINUOUS
 10
208.5104010819
 20
124.1544572768
 11
231.2702794879
 21
124.1544572768
  0
LINE
  5
35A
100
AcDbEntity
  8
IMPORT_IGES
100
AcDbLine
 62
7
  6
CONTINUOUS
 10
237.8423927369
 20
106.3379456853
 11
237.7877795394
 21
106.4463551643
  0
LINE
  5
35B
100
AcDbEntity
  8
IMPORT_IGES
100
AcDbLine
 62
7
  6
CONTINUOUS
 10
237.8576210784
 20
106.3074992707
 11
237.8423927369
 21
106.3379456853
  0
LINE
  5
35C
100
AcDbEntity
  8
IMPORT_IGES
100
AcDbLine
 62
250
  6
CONTINUOUS
 10
239.1649474876
 20
94.7273508418
 11
239.1649474876
 21
115.932185064
  0
LINE
  5
35D
100
AcDbEntity
  8
IMPORT_IGES
100
AcDbLine
 62
7
  6
CONTINUOUS
 10
239.2004776157
 20
94.7936199891
 11
239.2004776157
 21
115.8658893346
  0
LWPOLYLINE
  5
35E
100
AcDbEntity
  8
IMPORT_IGES
100
AcDbPolyline
 62
7
  6
CONTINUOUS
 90
97
 70
0
 10
241.7899237529
 20
103.0153389231
 10
241.7064743488
 20
102.3289773133
 10
241.6013640489
 20
101.6446657936
 10
241.4746109206
 20
100.9630939994
 10
241.3262119869
 20
100.2847716766
 10
241.1562613126
 20
99.6105759477
 10
240.9650072786
 20
98.9417360826
 10
240.7525954157
 20
98.2788916508
 10
240.5192154225
 20
97.6227532026
 10
240.2653262889
 20
96.9746153728
 10
239.9913765997
 20
96.3354858966
 10
239.6975238883
 20
95.705609129
 10
239.3838339163
 20
95.0851198165
 10
239.0504189593
 20
94.4743269599
 10
238.6977540085
 20
93.8741808103
 10
238.3264780464
 20
93.2857595978
 10
237.9370961914
 20
92.7097892118
 10
237.5299248895
 20
92.1466644587
 10
237.1053908791
 20
91.5969200849
 10
236.6638746671
 20
91.0610069388
 10
236.2058998842
 20
90.5395196564
 10
235.7321518339
 20
90.0331677906
 10
235.2435919135
 20
89.5428479484
 10
234.7403232057
 20
89.0685410015
 10
234.2216819624
 20
88.6096462817
 10
233.6878486255
 20
88.1664659149
 10
233.1395534165
 20
87.7397455752
 10
232.576852302
 20
87.3296790598
 10
231.9997528905
 20
86.9364806111
 10
231.4092075079
 20
86.561001739
 10
230.8067480542
 20
86.2043191291
 10
230.1930853766
 20
85.8668830489
 10
229.5687124406
 20
85.5489913971
 10
228.9349460983
 20
85.251305676
 10
228.2927122917
 20
84.9741991337
 10
227.6424160616
 20
84.7177854303
 10
226.9846321727
 20
84.4822481931
 10
226.3201270868
 20
84.2678217236
 10
225.6494869704
 20
84.0746571173
 10
224.9730097353
 20
83.9028256692
 10
224.2911156223
 20
83.7524517501
 10
223.6047427858
 20
83.6237611068
 10
222.9149708108
 20
83.5169440352
 10
222.2226316495
 20
83.4320897728
 10
221.5282907627
 20
83.3692291735
 10
220.8326367971
 20
83.328395737
 10
220.1363753525
 20
83.3096002375
 10
219.4401971136
 20
83.3128287394
 10
218.7447670258
 20
83.3380484202
 10
218.0508138178
 20
83.3852037919
 10
217.3589929191
 20
83.4542193807
 10
216.6698559853
 20
83.5450154931
 10
215.9840952581
 20
83.6574846868
 10
215.3023832879
 20
83.7915010951
 10
214.6252397663
 20
83.9469529822
 10
213.9532066494
 20
84.1237218267
 10
213.2870866789
 20
84.3216035156
 10
212.6277789195
 20
84.5403183936
 10
211.9761299793
 20
84.7795491319
 10
211.3325762182
 20
85.0391002289
 10
210.6973956256
 20
85.3188560082
 10
210.071144262
 20
85.6185903996
 10
209.4545326258
 20
85.9379822151
 10
208.8480771383
 20
86.2767869095
 10
208.2523205703
 20
86.6347345354
 10
207.6679444219
 20
87.0114477766
 10
207.0956569972
 20
87.4064905437
 10
206.5359875396
 20
87.8195153266
 10
205.9895512223
 20
88.2500846989
 10
205.4571408927
 20
88.6975656355
 10
204.93941792
 20
89.1613644021
 10
204.4367343072
 20
89.6411281348
 10
203.9493942187
 20
90.1365559879
 10
203.4780230513
 20
90.6470046011
 10
203.022948643
 20
91.1721152024
 10
202.5840859606
 20
91.7120634106
 10
202.1616184807
 20
92.266806975
 10
201.7563922849
 20
92.8354246363
 10
201.3693001751
 20
93.4167588637
 10
201.0008161209
 20
94.0101192203
 10
200.6512486056
 20
94.6150281526
 10
200.3211269709
 20
95.2305690859
 10
200.0107236029
 20
95.8562117157
 10
199.7203874867
 20
96.4912254277
 10
199.4506445417
 20
97.1343359129
 10
199.2019361059
 20
97.7841934384
 10
198.9741480026
 20
98.4407772796
 10
198.7670127245
 20
99.104820904
 10
198.5807090246
 20
99.7760005184
 10
198.4155848911
 20
100.4533457713
 10
198.2717727539
 20
101.1366622513
 10
198.149522138
 20
101.8252671734
 10
198.0490565665
 20
102.5185019361
 10
197.970533203
 20
103.2162100501
 10
197.9141767545
 20
103.9178767062
 10
197.8802230172
 20
104.6226215361
 10
197.8688638826
 20
105.3297286186
  0
LINE
  5
35F
100
AcDbEntity
  8
IMPORT_IGES
100
AcDbLine
 62
250
  6
CONTINUOUS
 10
230.4010493187
 20
124.6541526903
 11
209.3797389442
 21
124.6541526903
  0
LINE
  5
360
100
AcDbEntity
  8
IMPORT_IGES
100
AcDbLine
 62
7
  6
CONTINUOUS
 10
219.405334089
 20
124.6722571208
 11
220.4054464585
 21
124.6722571238
  0
LINE
  5
361
100
AcDbEntity
  8
IMPORT_IGES
100
AcDbLine
 62
7
  6
CONTINUOUS
 10
209.4436408412
 20
124.6896828184
 11
219.405334089
 21
124.6896828184
  0
LINE
  5
362
100
AcDbEntity
  8
IMPORT_IGES
100
AcDbLine
 62
7
  6
CONTINUOUS
 10
220.405334089
 20
124.6896828184
 11
230.3371738075
 21
124.6896828184
  0
LINE
  5
363
100
AcDbEntity
  8
IMPORT_IGES
100
AcDbLine
 62
7
  6
CONTINUOUS
 10
263.3546392718
 20
114.5484689454
 11
263.295593787
 21
114.4229109291
  0
LINE
  5
364
100
AcDbEntity
  8
IMPORT_IGES
100
AcDbLine
 62
7
  6
CONTINUOUS
 10
263.297649537
 20
96.2324042272
 11
263.3547614608
 21
96.1109882914
  0
LWPOLYLINE
  5
365
100
AcDbEntity
  8
0
100
AcDbPolyline
 62
7
  6
CONTINUOUS
 90
3
 70
0
 43
0.3500000006
 10
179.2490712891
 20
144.757793335
 10
177.749079895
 20
144.757793335
 10
178.3919333496
 20
147.1149226685
  0
LWPOLYLINE
  5
366
100
AcDbEntity
  8
0
100
AcDbPolyline
 62
7
  6
CONTINUOUS
 90
3
 70
0
 43
0.3500000006
 10
176.8919419556
 20
144.757793335
 10
175.3919324341
 20
144.757793335
 10
176.0347858887
 20
147.1149226685
  0
LWPOLYLINE
  5
367
100
AcDbEntity
  8
IMPORT_IGES
100
AcDbPolyline
 62
7
  6
CONTINUOUS
 90
118
 70
0
 10
262.2731329533
 20
105.3297286184
 10
262.2577862772
 20
104.19057053
 10
262.2119716431
 20
103.05372453
 10
262.1356890513
 20
101.9191906184
 10
262.0288319993
 20
100.7860741057
 10
261.8915069894
 20
99.6552696814
 10
261.7240335284
 20
98.5294614136
 10
261.526314183
 20
97.4086448244
 10
261.2984463865
 20
96.2928243918
 10
261.041041946
 20
95.1846976179
 10
260.7541868523
 20
94.0847170695
 10
260.4377951146
 20
92.9924301798
 10
260.0922205671
 20
91.9091767506
 10
259.7172347915
 20
90.8344145046
 10
259.3130662061
 20
89.7686857192
 10
258.8807539002
 20
88.7149570278
 10
258.4202893832
 20
87.6734719289
 10
257.9316811458
 20
86.6439869242
 10
257.4159937486
 20
85.6287381517
 10
256.873051743
 20
84.6276029854
 10
256.3030305777
 20
83.6407040513
 10
255.7075211598
 20
82.6706453666
 10
255.0866901963
 20
81.7178089722
 10
254.4403709802
 20
80.7818128272
 10
253.7696542967
 20
79.8641148249
 10
253.0744343603
 20
78.9646098819
 10
252.3548169566
 20
78.0834030817
 10
251.6122102278
 20
77.2222675689
 10
250.8464572016
 20
76.3811324523
 10
250.0577148503
 20
75.5600686231
 10
249.2478622336
 20
74.7610618991
 10
248.4168952206
 20
73.9842242158
 10
247.5648179421
 20
73.2294436378
 10
246.69352185
 20
72.4983701766
 10
245.8030151219
 20
71.791090341
 10
244.8932895801
 20
71.1075176223
 10
243.9662121439
 20
70.4490425055
 10
243.021736426
 20
69.815699866
 10
242.0599088136
 20
69.2074548285
 10
241.0827353874
 20
68.6255932529
 10
240.0901556749
 20
68.0701532414
 10
239.0822301485
 20
67.5410966919
 10
238.0611463061
 20
67.0395951571
 10
237.026851274
 20
66.5657035552
 10
235.979397926
 20
66.1193669682
 10
234.9211323807
 20
65.7015921949
 10
233.8520539496
 20
65.3124557853
 10
232.7721633212
 20
64.9518811895
 10
231.6838086802
 20
64.6206455565
 10
230.5870160972
 20
64.3188192755
 10
229.4817595016
 20
64.0463319573
 10
228.3703088669
 20
63.8037495833
 10
227.252580863
 20
63.5911211588
 10
226.1286588201
 20
63.4083976784
 10
225.0010627018
 20
63.2559981082
 10
223.8698054338
 20
63.1339972303
 10
222.7348740904
 20
63.0423202624
 10
221.5987498583
 20
62.9811618237
 10
220.4614437964
 20
62.950589388
 10
219.3229448457
 20
62.9505354814
 10
218.1857010165
 20
62.9809923013
 10
217.0497156165
 20
63.0420245033
 10
215.9149853379
 20
63.1335674318
 10
214.7839482672
 20
63.2554193176
 10
213.6565895897
 20
63.4076509317
 10
212.5329241201
 20
63.5901915031
 10
211.4154343889
 20
63.8026269502
 10
210.3041979048
 20
64.0450043149
 10
209.199137159
 20
64.3172765552
 10
208.1025021561
 20
64.6188884636
 10
207.0142636425
 20
64.9499094034
 10
205.9344508717
 20
65.3102700113
 10
204.8654016084
 20
65.6992069897
 10
203.8071113138
 20
66.1167981273
 10
202.7595845266
 20
66.5629656353
 10
201.7251726277
 20
67.0367128498
 10
200.7039219037
 20
67.5380992544
 10
199.6957860679
 20
68.0670653655
 10
198.7029776414
 20
68.6224360687
 10
197.7255386678
 20
69.2042676493
 10
196.7634271035
 20
69.812503822
 10
195.8187293389
 20
70.4458006165
 10
194.8915042844
 20
71.1041955161
 10
193.9816930296
 20
71.7876510374
 10
193.0912052346
 20
72.4947107603
 10
192.2200969665
 20
73.2254009351
 10
191.3683121581
 20
73.9796953115
 10
190.5375922685
 20
74.7560587185
 10
189.7279395214
 20
75.554572538
 10
188.9393516931
 20
76.375155388
 10
188.1735635711
 20
77.2160279513
 10
187.4306346504
 20
78.0772233545
 10
186.7105054361
 20
78.9587084709
 10
186.0147322315
 20
79.8586046041
 10
185.3434162851
 20
80.7768545455
 10
184.6964563484
 20
81.7135155038
 10
184.0751049796
 20
82.6668804073
 10
183.4792654566
 20
83.637247438
 10
182.9090345014
 20
84.6243184141
 10
182.3659548385
 20
85.6254917189
 10
181.8502060893
 20
86.6406239885
 10
181.3616086323
 20
87.6698585869
 10
180.9011663285
 20
88.7110239888
 10
180.4688797692
 20
89.7643589697
 10
180.0647483629
 20
90.8296247543
 10
179.6897741962
 20
91.9039334906
 10
179.3441779416
 20
92.9867346067
 10
179.0277389264
 20
94.0785786747
 10
178.7407972188
 20
95.178229559
 10
178.4832559551
 20
96.2861367469
 10
178.255211999
 20
97.401850751
 10
178.0572960095
 20
98.5227869736
 10
177.8895936898
 20
99.6489427199
 10
177.7520193368
 20
100.7803206846
 10
177.6449465
 20
101.9143443546
 10
177.5684996958
 20
103.0501548922
 10
177.5225544077
 20
104.1886111349
 10
177.5071106359
 20
105.329713083
  0
LWPOLYLINE
  5
368
100
AcDbEntity
  8
IMPORT_IGES
100
AcDbPolyline
 62
250
  6
CONTINUOUS
 90
121
 70
0
 10
215.0347621118
 20
151.2839033829
 10
213.8323713249
 20
151.140870041
 10
212.6356113935
 20
150.9666778101
 10
211.4444823176
 20
150.7613266903
 10
210.2580962373
 20
150.5246183093
 10
209.0773410124
 20
150.2567510394
 10
207.9048802229
 20
149.9583199969
 10
206.7407129828
 20
149.6292267955
 10
205.5848401781
 20
149.2695698215
 10
204.4399280473
 20
148.8802393505
 10
203.3064284665
 20
148.4613688881
 10
202.1838895597
 20
148.0128249288
 10
201.0736219372
 20
147.5350972311
 10
199.9751056069
 20
147.0279062742
 10
198.8888605609
 20
146.4915315789
 10
197.817757386
 20
145.9273014675
 10
196.7620324422
 20
145.3352285112
 10
195.7214493695
 20
144.7153001387
 10
194.6981696744
 20
144.0688069582
 10
193.6920927826
 20
143.3955678055
 10
192.7033192684
 20
142.6957638448
 10
191.7343123609
 20
141.9712291777
 10
190.7854416966
 20
141.2221714173
 10
189.8563376391
 20
140.4483829503
 10
188.9483545082
 20
139.6510750385
 10
188.0614395355
 20
138.8301902112
 10
187.1956454894
 20
137.985785939
 10
186.3524849955
 20
137.119245895
 10
185.5317955237
 20
136.2303006276
 10
184.7337396039
 20
135.3192195884
 10
183.9603174519
 20
134.3881948047
 10
183.2116541677
 20
133.4372153229
 10
182.4876246512
 20
132.4662920967
 10
181.7898538181
 20
131.4776500141
 10
181.1184422299
 20
130.4712856665
 10
180.4732893252
 20
129.4472024626
 10
179.8557183355
 20
128.4076355159
 10
179.2658989712
 20
127.3528144621
 10
178.7036615219
 20
126.2825096655
 10
178.1698200874
 20
125.1982673332
 10
177.6642610953
 20
124.099747119
 10
177.1870981179
 20
122.9872893691
 10
176.7394859722
 20
121.8634613286
 10
176.3215263236
 20
120.7282686951
 10
175.9331175065
 20
119.5817057711
 10
175.5751093414
 20
118.4263227088
 10
175.2475946497
 20
117.2621704798
 10
174.9504806099
 20
116.0891981125
 10
174.6843385779
 20
114.9098028441
 10
174.4492361557
 20
113.7240840173
 10
174.2451057413
 20
112.5319422894
 10
174.0723158853
 20
111.3354768691
 10
173.9308988737
 20
110.1345075983
 10
173.8208224205
 20
108.9292146351
 10
173.7423582171
 20
107.7222376617
 10
173.6955870903
 20
106.5135883842
 10
173.6804282134
 20
105.3032550966
 10
173.6969107978
 20
104.0938423632
 10
173.7451062028
 20
102.8853859252
 10
173.8249430691
 20
101.6778500415
 10
173.9362365302
 20
100.4737320529
 10
174.0790468441
 20
99.2730635094
 10
174.2533137529
 20
98.075812861
 10
174.4586716157
 20
96.8843827995
 10
174.695185855
 20
95.6987646549
 10
174.9627910483
 20
94.5189670971
 10
175.2609252878
 20
93.3474188278
 10
175.589666513
 20
92.184105416
 10
175.9489367845
 20
91.0290412926
 10
176.3379403757
 20
89.8846984525
 10
176.7566832859
 20
88.7512257471
 10
177.2051595158
 20
87.6284743249
 10
177.6825553421
 20
86.5184696261
 10
178.1889527355
 20
85.4211463693
 10
178.7242697253
 20
84.3365698359
 10
179.2874466754
 20
83.2669613099
 10
179.8785500944
 20
82.212335622
 10
180.4975134737
 20
81.1726779414
 10
181.1430776515
 20
80.1501650598
 10
181.8153514122
 20
79.1447766426
 10
182.5142259713
 20
78.1565330243
 10
183.2381158143
 20
77.1876719999
 10
183.9869245768
 20
76.2384105537
 10
184.7607486231
 20
75.3085317013
 10
185.558291531
 20
74.3996222844
 10
186.3797349255
 20
73.5115593208
 10
187.2248971815
 20
72.6444657926
 10
188.0919370011
 20
71.8002974877
 10
188.9809010016
 20
70.9791250883
 10
189.8917425656
 20
70.1808779121
 10
190.8224805436
 20
69.4072997007
 10
191.7732296329
 20
68.658416585
 10
192.7438751361
 20
67.9342024341
 10
193.7320918119
 20
67.2363225969
 10
194.7377032733
 20
66.564975716
 10
195.7608859072
 20
65.9199631489
 10
196.7998436326
 20
65.302354317
 10
197.8545278352
 20
64.7121930531
 10
198.9249871293
 20
64.1494355244
 10
200.009571277
 20
63.6150196548
 10
201.1086663824
 20
63.1088339493
 10
202.2218863415
 20
62.630989903
 10
203.3464226041
 20
62.1827599243
 10
204.4821345088
 20
61.7643025184
 10
205.6291627171
 20
61.3754591803
 10
206.785120663
 20
61.0170268032
 10
207.9502327585
 20
60.6890436749
 10
209.1242745916
 20
60.3914715076
 10
210.3041863604
 20
60.1249923316
 10
211.4893679692
 20
59.8897698412
 10
212.6804195136
 20
59.6856403421
 10
213.8760814785
 20
59.5127947813
 10
215.0768159446
 20
59.3711838074
 10
216.2821608312
 20
59.2608567717
 10
217.489470381
 20
59.1821526758
 10
218.6987264234
 20
59.1351524453
 10
219.909947129
 20
59.1197751544
 10
221.120541252
 20
59.1361170274
 10
222.3296450439
 20
59.184210139
 10
223.5381222532
 20
59.2640224145
 10
224.74597288
 20
59.3755538539
  0
LWPOLYLINE
  5
369
100
AcDbEntity
  8
0
100
AcDbPolyline
 62
7
  6
CONTINUOUS
 90
4
 70
0
 43
0.3500000006
 10
272.4663751831
 20
142.2204228516
 10
272.4663751831
 20
142.8632763062
 10
273.9663847046
 20
142.8632763062
 10
273.1092467651
 20
139.8632935181
  0
LINE
  5
36A
100
AcDbEntity
  8
IMPORT_IGES
100
AcDbLine
 62
7
  6
CONTINUOUS
 10
41.0411395348
 20
60.9789430728
 11
41.0411385251
 21
149.6808676715
  0
LINE
  5
36B
100
AcDbEntity
  8
IMPORT_IGES
100
AcDbLine
 62
7
  6
CONTINUOUS
 10
41.0463739078
 20
59.119952299
 11
41.0463739078
 21
151.5396854754
  0
LINE
  5
36C
100
AcDbEntity
  8
IMPORT_IGES
100
AcDbLine
 62
250
  6
CONTINUOUS
 10
41.5376449899
 20
58.6198158339
 11
41.5376466018
 21
152.0396414311
  0
LWPOLYLINE
  5
36D
100
AcDbEntity
  8
0
100
AcDbPolyline
 62
7
  6
CONTINUOUS
 90
3
 70
0
 43
0.3500000006
 10
87.9320852051
 20
167.1972092285
 10
88.7892322083
 20
168.054347168
 10
88.7892322083
 20
165.0543462524
  0
LINE
  5
36E
100
AcDbEntity
  8
IMPORT_IGES
100
AcDbLine
 62
7
  6
CONTINUOUS
 10
41.5376449295
 20
58.619815835
 11
141.0463739078
 21
56.8828845097
  0
LINE
  5
36F
100
AcDbEntity
  8
IMPORT_IGES
100
AcDbLine
 62
7
  6
CONTINUOUS
 10
141.0463739078
 20
66.0853695415
 11
141.2463739078
 21
66.0754463635
  0
LINE
  5
370
100
AcDbEntity
  8
IMPORT_IGES
100
AcDbLine
 62
250
  6
CONTINUOUS
 10
141.0463739078
 20
66.2240647807
 11
141.2463782059
 21
66.2141211967
  0
LINE
  5
371
100
AcDbEntity
  8
IMPORT_IGES
100
AcDbLine
 62
250
  6
CONTINUOUS
 10
141.0463739078
 20
72.5092219559
 11
141.2463739078
 21
72.4956689519
  0
LINE
  5
372
100
AcDbEntity
  8
IMPORT_IGES
100
AcDbLine
 62
250
  6
CONTINUOUS
 10
141.2463739078
 20
70.1653946102
 11
141.0463739078
 21
70.1793222415
  0
LINE
  5
373
100
AcDbEntity
  8
IMPORT_IGES
100
AcDbLine
 62
250
  6
CONTINUOUS
 10
141.0463739078
 20
85.3297286184
 11
141.2463739078
 21
85.3297286184
  0
LINE
  5
374
100
AcDbEntity
  8
IMPORT_IGES
100
AcDbLine
 62
7
  6
CONTINUOUS
 10
141.2463739078
 20
95.3297286184
 11
141.0463739078
 21
95.3297286184
  0
LINE
  5
375
100
AcDbEntity
  8
IMPORT_IGES
100
AcDbLine
 62
250
  6
CONTINUOUS
 10
141.0463739078
 20
96.9596451268
 11
141.2463739551
 21
96.9597341725
  0
LWPOLYLINE
  5
376
100
AcDbEntity
  8
0
100
AcDbPolyline
 62
7
  6
CONTINUOUS
 90
13
 70
0
 43
0.3500000006
 10
89.6463701477
 20
165.9115023193
 10
89.6463701477
 20
167.1972092285
 10
89.8606636963
 20
167.6257781982
 10
90.289232666
 20
168.054347168
 10
90.5035171509
 20
168.054347168
 10
90.9320861206
 20
167.6257781982
 10
91.1463706055
 20
167.1972092285
 10
91.1463706055
 20
165.9115023193
 10
90.9320861206
 20
165.4829333496
 10
90.5035171509
 20
165.0543462524
 10
90.289232666
 20
165.0543462524
 10
89.8606636963
 20
165.4829333496
 10
89.6463701477
 20
165.9115023193
  0
LWPOLYLINE
  5
377
100
AcDbEntity
  8
0
100
AcDbPolyline
 62
7
  6
CONTINUOUS
 90
13
 70
0
 43
0.3500000006
 10
92.0035176086
 20
165.9115023193
 10
92.0035176086
 20
167.1972092285
 10
92.2178020935
 20
167.6257781982
 10
92.6463710632
 20
168.054347168
 10
92.8606555481
 20
168.054347168
 10
93.2892335815
 20
167.6257781982
 10
93.5035180664
 20
167.1972092285
 10
93.5035180664
 20
165.9115023193
 10
93.2892335815
 20
165.4829333496
 10
92.8606555481
 20
165.0543462524
 10
92.6463710632
 20
165.0543462524
 10
92.2178020935
 20
165.4829333496
 10
92.0035176086
 20
165.9115023193
  0
LINE
  5
378
100
AcDbEntity
  8
IMPORT_IGES
100
AcDbLine
 62
250
  6
CONTINUOUS
 10
141.2463775869
 20
113.6944994704
 11
141.0463739078
 21
113.6945878881
  0
LINE
  5
379
100
AcDbEntity
  8
IMPORT_IGES
100
AcDbLine
 62
7
  6
CONTINUOUS
 10
141.0463739078
 20
115.3297286184
 11
141.2463739078
 21
115.3297286184
  0
LINE
  5
37A
100
AcDbEntity
  8
IMPORT_IGES
100
AcDbLine
 62
250
  6
CONTINUOUS
 10
141.2463739078
 20
125.3297286184
 11
141.0463739078
 21
125.3297286184
  0
LINE
  5
37B
100
AcDbEntity
  8
IMPORT_IGES
100
AcDbLine
 62
250
  6
CONTINUOUS
 10
141.0463739078
 20
140.2893149248
 11
141.2463739078
 21
140.3033249051
  0
LINE
  5
37C
100
AcDbEntity
  8
IMPORT_IGES
100
AcDbLine
 62
250
  6
CONTINUOUS
 10
141.2463739078
 20
137.9855545564
 11
141.0463739078
 21
137.9719273239
  0
LINE
  5
37D
100
AcDbEntity
  8
IMPORT_IGES
100
AcDbLine
 62
7
  6
CONTINUOUS
 10
141.2463739078
 20
147.9415973208
 11
141.0463739078
 21
147.9325210597
  0
LINE
  5
37E
100
AcDbEntity
  8
IMPORT_IGES
100
AcDbLine
 62
7
  6
CONTINUOUS
 10
141.0463739078
 20
148.1105978422
 11
141.2463739078
 21
148.1196831511
  0
LINE
  5
37F
100
AcDbEntity
  8
IMPORT_IGES
100
AcDbLine
 62
7
  6
CONTINUOUS
 10
141.0463739078
 20
153.7765727271
 11
141.0463739078
 21
56.8828845097
  0
LINE
  5
380
100
AcDbEntity
  8
IMPORT_IGES
100
AcDbLine
 62
7
  6
CONTINUOUS
 10
141.2463739078
 20
62.1996124559
 11
141.2463739078
 21
148.459844781
  0
LINE
  5
381
100
AcDbEntity
  8
IMPORT_IGES
100
AcDbLine
 62
7
  6
CONTINUOUS
 10
41.5376459207
 20
152.0396414192
 11
141.0463739078
 21
153.7765727271
  0
LWPOLYLINE
  5
382
100
AcDbEntity
  8
IMPORT_IGES
100
AcDbPolyline
 62
7
  6
CONTINUOUS
 90
11
 70
0
 10
141.0463739078
 20
62.0199467175
 10
141.0808260407
 20
62.0332992693
 10
141.1146548533
 20
62.0487184465
 10
141.144878681
 20
62.0650495567
 10
141.171383972
 20
62.0822355788
 10
141.1940549921
 20
62.1002408635
 10
141.212766545
 20
62.118991326
 10
141.2274144629
 20
62.1383697809
 10
141.2379277412
 20
62.1582967563
 10
141.2442589074
 20
62.1787314182
 10
141.2463739078
 20
62.1996124559
  0
LWPOLYLINE
  5
383
100
AcDbEntity
  8
IMPORT_IGES
100
AcDbPolyline
 62
7
  6
CONTINUOUS
 90
11
 70
0
 10
141.0463739078
 20
148.6395105194
 10
141.0808260407
 20
148.6261579675
 10
141.1146548533
 20
148.6107387903
 10
141.144878681
 20
148.5944076801
 10
141.171383972
 20
148.577221658
 10
141.1940549921
 20
148.5592163734
 10
141.212766545
 20
148.5404659108
 10
141.2274144629
 20
148.5210874559
 10
141.2379277412
 20
148.5011604805
 10
141.2442589074
 20
148.4807258187
 10
141.2463739078
 20
148.459844781
  0
CIRCLE
  5
384
100
AcDbEntity
  8
IMPORT_IGES
100
AcDbCircle
 62
7
  6
CONTINUOUS
 10
219.8903674959
 20
105.3297286184
 40
48.4468441087
  0
ARC
  5
385
100
AcDbEntity
  8
0
100
AcDbCircle
 62
7
  6
CONTINUOUS
 10
219.8903674959
 20
105.3297286184
 40
48.4468441087
100
AcDbArc
 50
180.0
 51
217.0765772581
  0
CIRCLE
  5
386
100
AcDbEntity
  8
IMPORT_IGES
100
AcDbCircle
 62
250
  6
CONTINUOUS
 10
219.8903674959
 20
105.3297286184
 40
46.7097060889
  0
CIRCLE
  5
387
100
AcDbEntity
  8
IMPORT_IGES
100
AcDbCircle
 62
7
  6
CONTINUOUS
 10
219.8903674959
 20
105.3297286184
 40
44.4999449282
  0
ARC
  5
388
100
AcDbEntity
  8
IMPORT_IGES
100
AcDbCircle
 62
7
  6
CONTINUOUS
 10
219.8903674959
 20
105.3297286184
 40
44.430105049
100
AcDbArc
 50
191.9749300651
 51
348.0251032971
  0
ARC
  5
389
100
AcDbEntity
  8
IMPORT_IGES
100
AcDbCircle
 62
7
  6
CONTINUOUS
 10
219.8903674959
 20
105.3297286184
 40
44.430105049
100
AcDbArc
 50
11.9749293955
 51
168.0250066229
  0
CIRCLE
  5
38A
100
AcDbEntity
  8
IMPORT_IGES
100
AcDbCircle
 62
7
  6
CONTINUOUS
 10
219.8903674959
 20
105.3297286184
 40
44.3500336419
  0
ARC
  5
38B
100
AcDbEntity
  8
IMPORT_IGES
100
AcDbCircle
 62
7
  6
CONTINUOUS
 10
219.8903674962
 20
105.3297286186
 40
22.0215087106
100
AcDbArc
 50
353.9672581374
 51
360.0
  0
CIRCLE
  5
38C
100
AcDbEntity
  8
IMPORT_IGES
100
AcDbCircle
 62
7
  6
CONTINUOUS
 10
219.8903674962
 20
105.3297286186
 40
21.9996953439
  0
ARC
  5
38D
100
AcDbEntity
  8
0
100
AcDbCircle
 62
7
  6
CONTINUOUS
 10
219.8903674962
 20
105.3297286186
 40
21.9996953439
100
AcDbArc
 50
314.2566140918
 51
360.0
  0
ARC
  5
38E
100
AcDbEntity
  8
IMPORT_IGES
100
AcDbCircle
 62
7
  6
CONTINUOUS
 10
41.5463727542
 20
59.1199452707
 40
0.4999988465
100
AcDbArc
 50
180.0
 51
269.0
  0
ARC
  5
38F
100
AcDbEntity
  8
IMPORT_IGES
100
AcDbCircle
 62
7
  6
CONTINUOUS
 10
41.5463727542
 20
151.5395119662
 40
0.4999988465
100
AcDbArc
 50
91.0
 51
180.0
  0
ENDSEC
  0
SECTION
  2
OBJECTS
  0
DICTIONARY
  5
C
100
AcDbDictionary
280
0
281
1
  3
ACAD_GROUP
350
D
  3
ACAD_MLINESTYLE
350
17
  3
ACAD_LAYOUT
350
1A
  3
ACAD_PLOTSETTINGS
350
19
  3
ACAD_PLOTSTYLENAME
350
E
  0
DICTIONARY
  5
D
102
{ACAD_REACTORS
330
C
102
}
100
AcDbDictionary
280
0
281
1
  0
ACDBDICTIONARYWDFLT
  5
E
102
{ACAD_REACTORS
330
C
102
}
100
AcDbDictionary
281
1
  3
Normal
350
F
100
AcDbDictionaryWithDefault
340
F
  0
DICTIONARY
  5
17
102
{ACAD_REACTORS
330
C
102
}
100
AcDbDictionary
280
0
281
1
  3
Standard
350
18
  0
DICTIONARY
  5
19
102
{ACAD_REACTORS
330
C
102
}
100
AcDbDictionary
281
1
  0
DICTIONARY
  5
1A
102
{ACAD_REACTORS
330
C
102
}
100
AcDbDictionary
281
1
  3
Model
350
390
  3
Layout1
350
391
  0
ACDBPLACEHOLDER
  5
F
102
{ACAD_REACTORS
330
E
102
}
  0
MLINESTYLE
  5
18
102
{ACAD_REACTORS
330
17
102
}
100
AcDbMlineStyle
  2
STANDARD
 70
0
  3

 62
256
 51
90.0
 52
90.0
 71
2
 49
0.5
 62
256
  6
BYLAYER
 49
-0.5
 62
256
  6
BYLAYER
  0
LAYOUT
  5
390
102
{ACAD_REACTORS
330
1A
102
}
100
AcDbPlotSettings
  1

  2
none_device
  4
ISO_A4_(297.00_x_210.00_MM)
  6

 40
0.0
 41
0.0
 42
0.0
 43
0.0
 44
297.0
 45
210.0
 46
0.0
 47
0.0
 48
0.0
 49
0.0
140
0.0
141
0.0
142
1.0
143
1.0
 70
1024
 72
1
 73
0
 74
0
  7

 75
0
147
1.0
148
0.0
149
0.0
100
AcDbLayout
  1
Model
 70
0
 71
0
 10
0.0
 20
0.0
 11
297.0
 21
210.0
 12
0.0
 22
0.0
 32
0.0
 14
0.0
 24
0.0
 34
0.0
 15
0.0
 25
0.0
 35
0.0
146
0.0
 13
0.0
 23
0.0
 33
0.0
 16
1.0
 26
0.0
 36
0.0
 17
0.0
 27
1.0
 37
0.0
 76
0
330
214
345
0
346
0
  0
LAYOUT
  5
391
102
{ACAD_REACTORS
330
1A
102
}
100
AcDbPlotSettings
  1

  2
none_device
  4
ISO_A4_(297.00_x_210.00_MM)
  6

 40
0.0
 41
0.0
 42
0.0
 43
0.0
 44
297.0
 45
210.0
 46
0.0
 47
0.0
 48
0.0
 49
0.0
140
0.0
141
0.0
142
1.0
143
1.0
 70
0
 72
1
 73
0
 74
0
  7

 75
0
147
1.0
148
0.0
149
0.0
100
AcDbLayout
  1
Layout1
 70
0
 71
1
 10
0.0
 20
0.0
 11
297.0
 21
210.0
 12
0.0
 22
0.0
 32
0.0
 14
0.0
 24
0.0
 34
0.0
 15
0.0
 25
0.0
 35
0.0
146
0.0
 13
0.0
 23
0.0
 33
0.0
 16
1.0
 26
0.0
 36
0.0
 17
0.0
 27
1.0
 37
0.0
 76
0
330
215
345
0
346
0
  0
ENDSEC
  0
EOF
