  0
SECTION
  2
HEADER
  9
$ACADVER
  1
AC1015
  9
$DWGCODEPAGE
  3
ANSI_1252
  9
$EXTMAX
 10
297.0
 20
210.0
 30
0.0
  9
$EXTMIN
 10
0.0
 20
0.0
 30
0.0
  9
$LIMMIN
 10
0.0
 20
0.0
  9
$LIMMAX
 10
297.0
 20
210.0
  9
$VIEWCTR
 10
148.5
 20
105.0
  9
$VIEWSIZE
 40
210.0
  9
$CLAYER
  8
0
  9
$LTSCALE
 40
16.335
  9
$CELTYPE
  6
BYLAYER
  9
$DIMSCALE
 40
1.0
  9
$DIMASZ
 40
3.0
  9
$DIMEXO
 40
0.5
  9
$DIMDLI
 40
11.286
  9
$DIMEXE
 40
1.5
  9
$DIMCEN
 40
2.673
  9
$DIMLFAC
 40
1.0
  9
$DIMBLK
  1
_FILLED
  9
$DIMTXT
 40
3.0
  9
$DIMTOL
 70
1
  9
$DIMLIM
 70
0
  9
$DIMTFAC
 40
1.0
  9
$DIMTP
 40
0.01
  9
$DIMTM
 40
0.01
  9
$DIMGAP
 40
0.625
  9
$DIMDSEP
 70
44
  9
$PDMODE
 70
3
  9
$PDSIZE
 40
3.0
  9
$HANDSEED
  5
420
  9
$TILEMODE
 70
1
  9
$MEASUREMENT
 70
1
  9
$INSUNITS
 70
4
  0
ENDSEC
  0
SECTION
  2
CLASSES
  0
CLASS
  1
ACDBDICTIONARYWDFLT
  2
AcDbDictionaryWithDefault
  3
AutoCAD 2000
 90
0
280
0
281
0
  0
CLASS
  1
ACDBPLACEHOLDER
  2
AcDbPlaceHolder
  3
AutoCAD 2000
 90
0
280
0
281
0
  0
CLASS
  1
LAYOUT
  2
AcDbLayout
  3
AutoCAD 2000
 90
0
280
0
281
0
  0
ENDSEC
  0
SECTION
  2
TABLES
  0
TABLE
  2
VPORT
  5
8
100
AcDbSymbolTable
 70
2
  0
VPORT
  5
1F4
100
AcDbSymbolTableRecord
100
AcDbViewportTableRecord
  2
*ACTIVE
 70
0
 10
0.0
 20
0.0
 11
1.0
 21
1.0
 12
148.5
 22
105.0
 13
0.0
 23
0.0
 14
1.0
 24
1.0
 15
0.0
 25
0.0
 16
0.0
 26
0.0
 36
1.0
 17
0.0
 27
0.0
 37
0.0
 40
210.0
 41
1.4142857143
 42
50.0
 43
0.0
 44
0.0
 50
0.0
 51
0.0
 71
0
 72
100
 73
1
 74
1
 75
0
 76
0
 77
0
 78
0
  0
ENDTAB
  0
TABLE
  2
LTYPE
  5
5
100
AcDbSymbolTable
 70
6
  0
LTYPE
  5
14
100
AcDbSymbolTableRecord
100
AcDbLinetypeTableRecord
  2
BYBLOCK
 70
0
  3

 72
65
 73
0
 40
0.0
  0
LTYPE
  5
15
100
AcDbSymbolTableRecord
100
AcDbLinetypeTableRecord
  2
BYLAYER
 70
0
  3

 72
65
 73
0
 40
0.0
  0
LTYPE
  5
16
100
AcDbSymbolTableRecord
100
AcDbLinetypeTableRecord
  2
CONTINUOUS
 70
64
  3
Solid line
 72
65
 73
0
 40
0.0
  0
LTYPE
  5
1F5
100
AcDbSymbolTableRecord
100
AcDbLinetypeTableRecord
  2
CENTER
 70
64
  3
____ _ ____ _ ____ _ ____ _ ____ _ ____ _ ____
 72
65
 73
4
 40
0.6
 49
0.375
 74
0
 49
-0.075
 74
0
 49
0.075
 74
0
 49
-0.075
 74
0
  0
LTYPE
  5
1F6
100
AcDbSymbolTableRecord
100
AcDbLinetypeTableRecord
  2
HIDDEN
 70
64
  3
- - - - - - - - - - - - - - - - - - - -
 72
65
 73
2
 40
0.2
 49
0.1
 74
0
 49
-0.1
 74
0
  0
LTYPE
  5
1F7
100
AcDbSymbolTableRecord
100
AcDbLinetypeTableRecord
  2
PHANTOM
 70
64
  3
_____ _ _ _____ _ _ _____ _ _ _____
 72
65
 73
6
 40
0.8
 49
0.45
 74
0
 49
-0.05
 74
0
 49
0.1
 74
0
 49
-0.05
 74
0
 49
0.1
 74
0
 49
-0.05
 74
0
  0
LTYPE
  5
1F8
100
AcDbSymbolTableRecord
100
AcDbLinetypeTableRecord
  2
DOT
 70
64
  3
. . . . . . . . . . . . . . . . . . . .
 72
65
 73
2
 40
0.2
 49
0.1
 74
0
 49
-0.1
 74
0
  0
LTYPE
  5
1F9
100
AcDbSymbolTableRecord
100
AcDbLinetypeTableRecord
  2
DASHED
 70
64
  3
- - - - - - - - - - - - - - - - - - - -
 72
65
 73
2
 40
0.2
 49
0.1
 74
0
 49
-0.1
 74
0
  0
ENDTAB
  0
TABLE
  2
LAYER
  5
2
100
AcDbSymbolTable
 70
36
  0
LAYER
  5
10
100
AcDbSymbolTableRecord
100
AcDbLayerTableRecord
  2
0
 70
0
 62
7
  6
CONTINUOUS
370
-3
390
F
  0
LAYER
  5
1FA
100
AcDbSymbolTableRecord
100
AcDbLayerTableRecord
  2
DEFAULT_1
 70
0
 62
7
  6
CENTER
370
-3
390
F
  0
LAYER
  5
1FB
100
AcDbSymbolTableRecord
100
AcDbLayerTableRecord
  2
DEFAULT_2
 70
0
 62
7
  6
HIDDEN
370
-3
390
F
  0
LAYER
  5
1FC
100
AcDbSymbolTableRecord
100
AcDbLayerTableRecord
  2
DEFAULT_3
 70
0
 62
7
  6
PHANTOM
370
-3
390
F
  0
LAYER
  5
1FD
100
AcDbSymbolTableRecord
100
AcDbLayerTableRecord
  2
102A_65000
 70
0
 62
7
  6
CONTINUOUS
370
-3
390
F
  0
LAYER
  5
1FE
100
AcDbSymbolTableRecord
100
AcDbLayerTableRecord
  2
102A_65000_1
 70
0
 62
7
  6
CONTINUOUS
370
-3
390
F
  0
LAYER
  5
1FF
100
AcDbSymbolTableRecord
100
AcDbLayerTableRecord
  2
133A_110000
 70
0
 62
7
  6
CONTINUOUS
370
-3
390
F
  0
LAYER
  5
200
100
AcDbSymbolTableRecord
100
AcDbLayerTableRecord
  2
133A_110000_1
 70
0
 62
7
  6
CONTINUOUS
370
-3
390
F
  0
LAYER
  5
201
100
AcDbSymbolTableRecord
100
AcDbLayerTableRecord
  2
1608-CC-RF-VIMAR_80000
 70
0
 62
7
  6
CONTINUOUS
370
-3
390
F
  0
LAYER
  5
202
100
AcDbSymbolTableRecord
100
AcDbLayerTableRecord
  2
1608-CC-RF-VIMAR_80000_1
 70
0
 62
7
  6
CONTINUOUS
370
-3
390
F
  0
LAYER
  5
203
100
AcDbSymbolTableRecord
100
AcDbLayerTableRecord
  2
1608-CC-RF-VIMAR_80000_10
 70
0
 62
7
  6
CONTINUOUS
370
-3
390
F
  0
LAYER
  5
204
100
AcDbSymbolTableRecord
100
AcDbLayerTableRecord
  2
1608-CC-RF-VIMAR_80000_11
 70
0
 62
7
  6
CONTINUOUS
370
-3
390
F
  0
LAYER
  5
205
100
AcDbSymbolTableRecord
100
AcDbLayerTableRecord
  2
1608-CC-RF-VIMAR_80000_12
 70
0
 62
7
  6
CONTINUOUS
370
-3
390
F
  0
LAYER
  5
206
100
AcDbSymbolTableRecord
100
AcDbLayerTableRecord
  2
1608-CC-RF-VIMAR_80000_13
 70
0
 62
7
  6
CONTINUOUS
370
-3
390
F
  0
LAYER
  5
207
100
AcDbSymbolTableRecord
100
AcDbLayerTableRecord
  2
1608-CC-RF-VIMAR_80000_14
 70
0
 62
7
  6
CONTINUOUS
370
-3
390
F
  0
LAYER
  5
208
100
AcDbSymbolTableRecord
100
AcDbLayerTableRecord
  2
1608-CC-RF-VIMAR_80000_15
 70
0
 62
7
  6
CONTINUOUS
370
-3
390
F
  0
LAYER
  5
209
100
AcDbSymbolTableRecord
100
AcDbLayerTableRecord
  2
1608-CC-RF-VIMAR_80000_16
 70
0
 62
7
  6
CONTINUOUS
370
-3
390
F
  0
LAYER
  5
20A
100
AcDbSymbolTableRecord
100
AcDbLayerTableRecord
  2
1608-CC-RF-VIMAR_80000_17
 70
0
 62
7
  6
CONTINUOUS
370
-3
390
F
  0
LAYER
  5
20B
100
AcDbSymbolTableRecord
100
AcDbLayerTableRecord
  2
1608-CC-RF-VIMAR_80000_18
 70
0
 62
7
  6
CONTINUOUS
370
-3
390
F
  0
LAYER
  5
20C
100
AcDbSymbolTableRecord
100
AcDbLayerTableRecord
  2
1608-CC-RF-VIMAR_80000_19
 70
0
 62
7
  6
CONTINUOUS
370
-3
390
F
  0
LAYER
  5
20D
100
AcDbSymbolTableRecord
100
AcDbLayerTableRecord
  2
1608-CC-RF-VIMAR_80000_2
 70
0
 62
7
  6
CONTINUOUS
370
-3
390
F
  0
LAYER
  5
20E
100
AcDbSymbolTableRecord
100
AcDbLayerTableRecord
  2
1608-CC-RF-VIMAR_80000_20
 70
0
 62
7
  6
CONTINUOUS
370
-3
390
F
  0
LAYER
  5
20F
100
AcDbSymbolTableRecord
100
AcDbLayerTableRecord
  2
1608-CC-RF-VIMAR_80000_21
 70
0
 62
7
  6
CONTINUOUS
370
-3
390
F
  0
LAYER
  5
210
100
AcDbSymbolTableRecord
100
AcDbLayerTableRecord
  2
1608-CC-RF-VIMAR_80000_22
 70
0
 62
7
  6
CONTINUOUS
370
-3
390
F
  0
LAYER
  5
211
100
AcDbSymbolTableRecord
100
AcDbLayerTableRecord
  2
1608-CC-RF-VIMAR_80000_23
 70
0
 62
7
  6
CONTINUOUS
370
-3
390
F
  0
LAYER
  5
212
100
AcDbSymbolTableRecord
100
AcDbLayerTableRecord
  2
1608-CC-RF-VIMAR_80000_24
 70
0
 62
7
  6
CONTINUOUS
370
-3
390
F
  0
LAYER
  5
213
100
AcDbSymbolTableRecord
100
AcDbLayerTableRecord
  2
1608-CC-RF-VIMAR_80000_25
 70
0
 62
7
  6
CONTINUOUS
370
-3
390
F
  0
LAYER
  5
214
100
AcDbSymbolTableRecord
100
AcDbLayerTableRecord
  2
1608-CC-RF-VIMAR_80000_26
 70
0
 62
7
  6
CONTINUOUS
370
-3
390
F
  0
LAYER
  5
215
100
AcDbSymbolTableRecord
100
AcDbLayerTableRecord
  2
1608-CC-RF-VIMAR_80000_27
 70
0
 62
7
  6
CONTINUOUS
370
-3
390
F
  0
LAYER
  5
216
100
AcDbSymbolTableRecord
100
AcDbLayerTableRecord
  2
1608-CC-RF-VIMAR_80000_28
 70
0
 62
7
  6
CONTINUOUS
370
-3
390
F
  0
LAYER
  5
217
100
AcDbSymbolTableRecord
100
AcDbLayerTableRecord
  2
1608-CC-RF-VIMAR_80000_29
 70
0
 62
7
  6
CONTINUOUS
370
-3
390
F
  0
LAYER
  5
218
100
AcDbSymbolTableRecord
100
AcDbLayerTableRecord
  2
1608-CC-RF-VIMAR_80000_3
 70
0
 62
7
  6
CONTINUOUS
370
-3
390
F
  0
LAYER
  5
219
100
AcDbSymbolTableRecord
100
AcDbLayerTableRecord
  2
1608-CC-RF-VIMAR_80000_30
 70
0
 62
7
  6
CONTINUOUS
370
-3
390
F
  0
LAYER
  5
21A
100
AcDbSymbolTableRecord
100
AcDbLayerTableRecord
  2
1608-CC-RF-VIMAR_80000_31
 70
0
 62
7
  6
CONTINUOUS
370
-3
390
F
  0
LAYER
  5
21B
100
AcDbSymbolTableRecord
100
AcDbLayerTableRecord
  2
1608-CC-RF-VIMAR_80000_32
 70
0
 62
7
  6
CONTINUOUS
370
-3
390
F
  0
LAYER
  5
21C
100
AcDbSymbolTableRecord
100
AcDbLayerTableRecord
  2
1608-CC-RF-VIMAR_80000_33
 70
0
 62
7
  6
CONTINUOUS
370
-3
390
F
  0
LAYER
  5
21D
100
AcDbSymbolTableRecord
100
AcDbLayerTableRecord
  2
1608-CC-RF-VIMAR_80000_34
 70
0
 62
7
  6
CONTINUOUS
370
-3
390
F
  0
LAYER
  5
21E
100
AcDbSymbolTableRecord
100
AcDbLayerTableRecord
  2
1608-CC-RF-VIMAR_80000_35
 70
0
 62
7
  6
CONTINUOUS
370
-3
390
F
  0
LAYER
  5
21F
100
AcDbSymbolTableRecord
100
AcDbLayerTableRecord
  2
1608-CC-RF-VIMAR_80000_36
 70
0
 62
7
  6
CONTINUOUS
370
-3
390
F
  0
LAYER
  5
220
100
AcDbSymbolTableRecord
100
AcDbLayerTableRecord
  2
1608-CC-RF-VIMAR_80000_37
 70
0
 62
7
  6
CONTINUOUS
370
-3
390
F
  0
LAYER
  5
221
100
AcDbSymbolTableRecord
100
AcDbLayerTableRecord
  2
1608-CC-RF-VIMAR_80000_38
 70
0
 62
7
  6
CONTINUOUS
370
-3
390
F
  0
LAYER
  5
222
100
AcDbSymbolTableRecord
100
AcDbLayerTableRecord
  2
1608-CC-RF-VIMAR_80000_4
 70
0
 62
7
  6
CONTINUOUS
370
-3
390
F
  0
LAYER
  5
223
100
AcDbSymbolTableRecord
100
AcDbLayerTableRecord
  2
1608-CC-RF-VIMAR_80000_5
 70
0
 62
7
  6
CONTINUOUS
370
-3
390
F
  0
LAYER
  5
224
100
AcDbSymbolTableRecord
100
AcDbLayerTableRecord
  2
1608-CC-RF-VIMAR_80000_6
 70
0
 62
7
  6
CONTINUOUS
370
-3
390
F
  0
LAYER
  5
225
100
AcDbSymbolTableRecord
100
AcDbLayerTableRecord
  2
1608-CC-RF-VIMAR_80000_7
 70
0
 62
7
  6
CONTINUOUS
370
-3
390
F
  0
LAYER
  5
226
100
AcDbSymbolTableRecord
100
AcDbLayerTableRecord
  2
1608-CC-RF-VIMAR_80000_8
 70
0
 62
7
  6
CONTINUOUS
370
-3
390
F
  0
LAYER
  5
227
100
AcDbSymbolTableRecord
100
AcDbLayerTableRecord
  2
1608-CC-RF-VIMAR_80000_9
 70
0
 62
7
  6
CONTINUOUS
370
-3
390
F
  0
LAYER
  5
228
100
AcDbSymbolTableRecord
100
AcDbLayerTableRecord
  2
1608-R-RF-VIMAR_45000
 70
0
 62
7
  6
CONTINUOUS
370
-3
390
F
  0
LAYER
  5
229
100
AcDbSymbolTableRecord
100
AcDbLayerTableRecord
  2
1608-R-RF-VIMAR_45000_1
 70
0
 62
7
  6
CONTINUOUS
370
-3
390
F
  0
LAYER
  5
22A
100
AcDbSymbolTableRecord
100
AcDbLayerTableRecord
  2
1608-R-RF-VIMAR_45000_10
 70
0
 62
7
  6
CONTINUOUS
370
-3
390
F
  0
LAYER
  5
22B
100
AcDbSymbolTableRecord
100
AcDbLayerTableRecord
  2
1608-R-RF-VIMAR_45000_11
 70
0
 62
7
  6
CONTINUOUS
370
-3
390
F
  0
LAYER
  5
22C
100
AcDbSymbolTableRecord
100
AcDbLayerTableRecord
  2
1608-R-RF-VIMAR_45000_12
 70
0
 62
7
  6
CONTINUOUS
370
-3
390
F
  0
LAYER
  5
22D
100
AcDbSymbolTableRecord
100
AcDbLayerTableRecord
  2
1608-R-RF-VIMAR_45000_13
 70
0
 62
7
  6
CONTINUOUS
370
-3
390
F
  0
LAYER
  5
22E
100
AcDbSymbolTableRecord
100
AcDbLayerTableRecord
  2
1608-R-RF-VIMAR_45000_14
 70
0
 62
7
  6
CONTINUOUS
370
-3
390
F
  0
LAYER
  5
22F
100
AcDbSymbolTableRecord
100
AcDbLayerTableRecord
  2
1608-R-RF-VIMAR_45000_15
 70
0
 62
7
  6
CONTINUOUS
370
-3
390
F
  0
LAYER
  5
230
100
AcDbSymbolTableRecord
100
AcDbLayerTableRecord
  2
1608-R-RF-VIMAR_45000_16
 70
0
 62
7
  6
CONTINUOUS
370
-3
390
F
  0
LAYER
  5
231
100
AcDbSymbolTableRecord
100
AcDbLayerTableRecord
  2
1608-R-RF-VIMAR_45000_17
 70
0
 62
7
  6
CONTINUOUS
370
-3
390
F
  0
LAYER
  5
232
100
AcDbSymbolTableRecord
100
AcDbLayerTableRecord
  2
1608-R-RF-VIMAR_45000_18
 70
0
 62
7
  6
CONTINUOUS
370
-3
390
F
  0
LAYER
  5
233
100
AcDbSymbolTableRecord
100
AcDbLayerTableRecord
  2
1608-R-RF-VIMAR_45000_19
 70
0
 62
7
  6
CONTINUOUS
370
-3
390
F
  0
LAYER
  5
234
100
AcDbSymbolTableRecord
100
AcDbLayerTableRecord
  2
1608-R-RF-VIMAR_45000_2
 70
0
 62
7
  6
CONTINUOUS
370
-3
390
F
  0
LAYER
  5
235
100
AcDbSymbolTableRecord
100
AcDbLayerTableRecord
  2
1608-R-RF-VIMAR_45000_20
 70
0
 62
7
  6
CONTINUOUS
370
-3
390
F
  0
LAYER
  5
236
100
AcDbSymbolTableRecord
100
AcDbLayerTableRecord
  2
1608-R-RF-VIMAR_45000_21
 70
0
 62
7
  6
CONTINUOUS
370
-3
390
F
  0
LAYER
  5
237
100
AcDbSymbolTableRecord
100
AcDbLayerTableRecord
  2
1608-R-RF-VIMAR_45000_22
 70
0
 62
7
  6
CONTINUOUS
370
-3
390
F
  0
LAYER
  5
238
100
AcDbSymbolTableRecord
100
AcDbLayerTableRecord
  2
1608-R-RF-VIMAR_45000_23
 70
0
 62
7
  6
CONTINUOUS
370
-3
390
F
  0
LAYER
  5
239
100
AcDbSymbolTableRecord
100
AcDbLayerTableRecord
  2
1608-R-RF-VIMAR_45000_24
 70
0
 62
7
  6
CONTINUOUS
370
-3
390
F
  0
LAYER
  5
23A
100
AcDbSymbolTableRecord
100
AcDbLayerTableRecord
  2
1608-R-RF-VIMAR_45000_25
 70
0
 62
7
  6
CONTINUOUS
370
-3
390
F
  0
LAYER
  5
23B
100
AcDbSymbolTableRecord
100
AcDbLayerTableRecord
  2
1608-R-RF-VIMAR_45000_26
 70
0
 62
7
  6
CONTINUOUS
370
-3
390
F
  0
LAYER
  5
23C
100
AcDbSymbolTableRecord
100
AcDbLayerTableRecord
  2
1608-R-RF-VIMAR_45000_27
 70
0
 62
7
  6
CONTINUOUS
370
-3
390
F
  0
LAYER
  5
23D
100
AcDbSymbolTableRecord
100
AcDbLayerTableRecord
  2
1608-R-RF-VIMAR_45000_28
 70
0
 62
7
  6
CONTINUOUS
370
-3
390
F
  0
LAYER
  5
23E
100
AcDbSymbolTableRecord
100
AcDbLayerTableRecord
  2
1608-R-RF-VIMAR_45000_29
 70
0
 62
7
  6
CONTINUOUS
370
-3
390
F
  0
LAYER
  5
23F
100
AcDbSymbolTableRecord
100
AcDbLayerTableRecord
  2
1608-R-RF-VIMAR_45000_3
 70
0
 62
7
  6
CONTINUOUS
370
-3
390
F
  0
LAYER
  5
240
100
AcDbSymbolTableRecord
100
AcDbLayerTableRecord
  2
1608-R-RF-VIMAR_45000_30
 70
0
 62
7
  6
CONTINUOUS
370
-3
390
F
  0
LAYER
  5
241
100
AcDbSymbolTableRecord
100
AcDbLayerTableRecord
  2
1608-R-RF-VIMAR_45000_31
 70
0
 62
7
  6
CONTINUOUS
370
-3
390
F
  0
LAYER
  5
242
100
AcDbSymbolTableRecord
100
AcDbLayerTableRecord
  2
1608-R-RF-VIMAR_45000_32
 70
0
 62
7
  6
CONTINUOUS
370
-3
390
F
  0
LAYER
  5
243
100
AcDbSymbolTableRecord
100
AcDbLayerTableRecord
  2
1608-R-RF-VIMAR_45000_33
 70
0
 62
7
  6
CONTINUOUS
370
-3
390
F
  0
LAYER
  5
244
100
AcDbSymbolTableRecord
100
AcDbLayerTableRecord
  2
1608-R-RF-VIMAR_45000_34
 70
0
 62
7
  6
CONTINUOUS
370
-3
390
F
  0
LAYER
  5
245
100
AcDbSymbolTableRecord
100
AcDbLayerTableRecord
  2
1608-R-RF-VIMAR_45000_35
 70
0
 62
7
  6
CONTINUOUS
370
-3
390
F
  0
LAYER
  5
246
100
AcDbSymbolTableRecord
100
AcDbLayerTableRecord
  2
1608-R-RF-VIMAR_45000_36
 70
0
 62
7
  6
CONTINUOUS
370
-3
390
F
  0
LAYER
  5
247
100
AcDbSymbolTableRecord
100
AcDbLayerTableRecord
  2
1608-R-RF-VIMAR_45000_37
 70
0
 62
7
  6
CONTINUOUS
370
-3
390
F
  0
LAYER
  5
248
100
AcDbSymbolTableRecord
100
AcDbLayerTableRecord
  2
1608-R-RF-VIMAR_45000_38
 70
0
 62
7
  6
CONTINUOUS
370
-3
390
F
  0
LAYER
  5
249
100
AcDbSymbolTableRecord
100
AcDbLayerTableRecord
  2
1608-R-RF-VIMAR_45000_39
 70
0
 62
7
  6
CONTINUOUS
370
-3
390
F
  0
LAYER
  5
24A
100
AcDbSymbolTableRecord
100
AcDbLayerTableRecord
  2
1608-R-RF-VIMAR_45000_4
 70
0
 62
7
  6
CONTINUOUS
370
-3
390
F
  0
LAYER
  5
24B
100
AcDbSymbolTableRecord
100
AcDbLayerTableRecord
  2
1608-R-RF-VIMAR_45000_40
 70
0
 62
7
  6
CONTINUOUS
370
-3
390
F
  0
LAYER
  5
24C
100
AcDbSymbolTableRecord
100
AcDbLayerTableRecord
  2
1608-R-RF-VIMAR_45000_41
 70
0
 62
7
  6
CONTINUOUS
370
-3
390
F
  0
LAYER
  5
24D
100
AcDbSymbolTableRecord
100
AcDbLayerTableRecord
  2
1608-R-RF-VIMAR_45000_42
 70
0
 62
7
  6
CONTINUOUS
370
-3
390
F
  0
LAYER
  5
24E
100
AcDbSymbolTableRecord
100
AcDbLayerTableRecord
  2
1608-R-RF-VIMAR_45000_43
 70
0
 62
7
  6
CONTINUOUS
370
-3
390
F
  0
LAYER
  5
24F
100
AcDbSymbolTableRecord
100
AcDbLayerTableRecord
  2
1608-R-RF-VIMAR_45000_44
 70
0
 62
7
  6
CONTINUOUS
370
-3
390
F
  0
LAYER
  5
250
100
AcDbSymbolTableRecord
100
AcDbLayerTableRecord
  2
1608-R-RF-VIMAR_45000_45
 70
0
 62
7
  6
CONTINUOUS
370
-3
390
F
  0
LAYER
  5
251
100
AcDbSymbolTableRecord
100
AcDbLayerTableRecord
  2
1608-R-RF-VIMAR_45000_46
 70
0
 62
7
  6
CONTINUOUS
370
-3
390
F
  0
LAYER
  5
252
100
AcDbSymbolTableRecord
100
AcDbLayerTableRecord
  2
1608-R-RF-VIMAR_45000_47
 70
0
 62
7
  6
CONTINUOUS
370
-3
390
F
  0
LAYER
  5
253
100
AcDbSymbolTableRecord
100
AcDbLayerTableRecord
  2
1608-R-RF-VIMAR_45000_48
 70
0
 62
7
  6
CONTINUOUS
370
-3
390
F
  0
LAYER
  5
254
100
AcDbSymbolTableRecord
100
AcDbLayerTableRecord
  2
1608-R-RF-VIMAR_45000_49
 70
0
 62
7
  6
CONTINUOUS
370
-3
390
F
  0
LAYER
  5
255
100
AcDbSymbolTableRecord
100
AcDbLayerTableRecord
  2
1608-R-RF-VIMAR_45000_5
 70
0
 62
7
  6
CONTINUOUS
370
-3
390
F
  0
LAYER
  5
256
100
AcDbSymbolTableRecord
100
AcDbLayerTableRecord
  2
1608-R-RF-VIMAR_45000_50
 70
0
 62
7
  6
CONTINUOUS
370
-3
390
F
  0
LAYER
  5
257
100
AcDbSymbolTableRecord
100
AcDbLayerTableRecord
  2
1608-R-RF-VIMAR_45000_51
 70
0
 62
7
  6
CONTINUOUS
370
-3
390
F
  0
LAYER
  5
258
100
AcDbSymbolTableRecord
100
AcDbLayerTableRecord
  2
1608-R-RF-VIMAR_45000_52
 70
0
 62
7
  6
CONTINUOUS
370
-3
390
F
  0
LAYER
  5
259
100
AcDbSymbolTableRecord
100
AcDbLayerTableRecord
  2
1608-R-RF-VIMAR_45000_53
 70
0
 62
7
  6
CONTINUOUS
370
-3
390
F
  0
LAYER
  5
25A
100
AcDbSymbolTableRecord
100
AcDbLayerTableRecord
  2
1608-R-RF-VIMAR_45000_54
 70
0
 62
7
  6
CONTINUOUS
370
-3
390
F
  0
LAYER
  5
25B
100
AcDbSymbolTableRecord
100
AcDbLayerTableRecord
  2
1608-R-RF-VIMAR_45000_55
 70
0
 62
7
  6
CONTINUOUS
370
-3
390
F
  0
LAYER
  5
25C
100
AcDbSymbolTableRecord
100
AcDbLayerTableRecord
  2
1608-R-RF-VIMAR_45000_56
 70
0
 62
7
  6
CONTINUOUS
370
-3
390
F
  0
LAYER
  5
25D
100
AcDbSymbolTableRecord
100
AcDbLayerTableRecord
  2
1608-R-RF-VIMAR_45000_57
 70
0
 62
7
  6
CONTINUOUS
370
-3
390
F
  0
LAYER
  5
25E
100
AcDbSymbolTableRecord
100
AcDbLayerTableRecord
  2
1608-R-RF-VIMAR_45000_58
 70
0
 62
7
  6
CONTINUOUS
370
-3
390
F
  0
LAYER
  5
25F
100
AcDbSymbolTableRecord
100
AcDbLayerTableRecord
  2
1608-R-RF-VIMAR_45000_59
 70
0
 62
7
  6
CONTINUOUS
370
-3
390
F
  0
LAYER
  5
260
100
AcDbSymbolTableRecord
100
AcDbLayerTableRecord
  2
1608-R-RF-VIMAR_45000_6
 70
0
 62
7
  6
CONTINUOUS
370
-3
390
F
  0
LAYER
  5
261
100
AcDbSymbolTableRecord
100
AcDbLayerTableRecord
  2
1608-R-RF-VIMAR_45000_60
 70
0
 62
7
  6
CONTINUOUS
370
-3
390
F
  0
LAYER
  5
262
100
AcDbSymbolTableRecord
100
AcDbLayerTableRecord
  2
1608-R-RF-VIMAR_45000_61
 70
0
 62
7
  6
CONTINUOUS
370
-3
390
F
  0
LAYER
  5
263
100
AcDbSymbolTableRecord
100
AcDbLayerTableRecord
  2
1608-R-RF-VIMAR_45000_62
 70
0
 62
7
  6
CONTINUOUS
370
-3
390
F
  0
LAYER
  5
264
100
AcDbSymbolTableRecord
100
AcDbLayerTableRecord
  2
1608-R-RF-VIMAR_45000_63
 70
0
 62
7
  6
CONTINUOUS
370
-3
390
F
  0
LAYER
  5
265
100
AcDbSymbolTableRecord
100
AcDbLayerTableRecord
  2
1608-R-RF-VIMAR_45000_64
 70
0
 62
7
  6
CONTINUOUS
370
-3
390
F
  0
LAYER
  5
266
100
AcDbSymbolTableRecord
100
AcDbLayerTableRecord
  2
1608-R-RF-VIMAR_45000_65
 70
0
 62
7
  6
CONTINUOUS
370
-3
390
F
  0
LAYER
  5
267
100
AcDbSymbolTableRecord
100
AcDbLayerTableRecord
  2
1608-R-RF-VIMAR_45000_7
 70
0
 62
7
  6
CONTINUOUS
370
-3
390
F
  0
LAYER
  5
268
100
AcDbSymbolTableRecord
100
AcDbLayerTableRecord
  2
1608-R-RF-VIMAR_45000_8
 70
0
 62
7
  6
CONTINUOUS
370
-3
390
F
  0
LAYER
  5
269
100
AcDbSymbolTableRecord
100
AcDbLayerTableRecord
  2
1608-R-RF-VIMAR_45000_9
 70
0
 62
7
  6
CONTINUOUS
370
-3
390
F
  0
LAYER
  5
26A
100
AcDbSymbolTableRecord
100
AcDbLayerTableRecord
  2
200A_170000
 70
0
 62
7
  6
CONTINUOUS
370
-3
390
F
  0
LAYER
  5
26B
100
AcDbSymbolTableRecord
100
AcDbLayerTableRecord
  2
200A_170000_1
 70
0
 62
7
  6
CONTINUOUS
370
-3
390
F
  0
LAYER
  5
26C
100
AcDbSymbolTableRecord
100
AcDbLayerTableRecord
  2
210_120000
 70
0
 62
7
  6
CONTINUOUS
370
-3
390
F
  0
LAYER
  5
26D
100
AcDbSymbolTableRecord
100
AcDbLayerTableRecord
  2
210_120000_1
 70
0
 62
7
  6
CONTINUOUS
370
-3
390
F
  0
LAYER
  5
26E
100
AcDbSymbolTableRecord
100
AcDbLayerTableRecord
  2
210_120000_10
 70
0
 62
7
  6
CONTINUOUS
370
-3
390
F
  0
LAYER
  5
26F
100
AcDbSymbolTableRecord
100
AcDbLayerTableRecord
  2
210_120000_11
 70
0
 62
7
  6
CONTINUOUS
370
-3
390
F
  0
LAYER
  5
270
100
AcDbSymbolTableRecord
100
AcDbLayerTableRecord
  2
210_120000_12
 70
0
 62
7
  6
CONTINUOUS
370
-3
390
F
  0
LAYER
  5
271
100
AcDbSymbolTableRecord
100
AcDbLayerTableRecord
  2
210_120000_2
 70
0
 62
7
  6
CONTINUOUS
370
-3
390
F
  0
LAYER
  5
272
100
AcDbSymbolTableRecord
100
AcDbLayerTableRecord
  2
210_120000_3
 70
0
 62
7
  6
CONTINUOUS
370
-3
390
F
  0
LAYER
  5
273
100
AcDbSymbolTableRecord
100
AcDbLayerTableRecord
  2
210_120000_4
 70
0
 62
7
  6
CONTINUOUS
370
-3
390
F
  0
LAYER
  5
274
100
AcDbSymbolTableRecord
100
AcDbLayerTableRecord
  2
210_120000_5
 70
0
 62
7
  6
CONTINUOUS
370
-3
390
F
  0
LAYER
  5
275
100
AcDbSymbolTableRecord
100
AcDbLayerTableRecord
  2
210_120000_6
 70
0
 62
7
  6
CONTINUOUS
370
-3
390
F
  0
LAYER
  5
276
100
AcDbSymbolTableRecord
100
AcDbLayerTableRecord
  2
210_120000_7
 70
0
 62
7
  6
CONTINUOUS
370
-3
390
F
  0
LAYER
  5
277
100
AcDbSymbolTableRecord
100
AcDbLayerTableRecord
  2
210_120000_8
 70
0
 62
7
  6
CONTINUOUS
370
-3
390
F
  0
LAYER
  5
278
100
AcDbSymbolTableRecord
100
AcDbLayerTableRecord
  2
210_120000_9
 70
0
 62
7
  6
CONTINUOUS
370
-3
390
F
  0
LAYER
  5
279
100
AcDbSymbolTableRecord
100
AcDbLayerTableRecord
  2
3216-CF-RF-VIMAR_100000
 70
0
 62
7
  6
CONTINUOUS
370
-3
390
F
  0
LAYER
  5
27A
100
AcDbSymbolTableRecord
100
AcDbLayerTableRecord
  2
3216-CF-RF-VIMAR_100000_1
 70
0
 62
7
  6
CONTINUOUS
370
-3
390
F
  0
LAYER
  5
27B
100
AcDbSymbolTableRecord
100
AcDbLayerTableRecord
  2
3216-CS2-RF_1_180000
 70
0
 62
7
  6
CONTINUOUS
370
-3
390
F
  0
LAYER
  5
27C
100
AcDbSymbolTableRecord
100
AcDbLayerTableRecord
  2
3528-CS-RF_190000
 70
0
 62
7
  6
CONTINUOUS
370
-3
390
F
  0
LAYER
  5
27D
100
AcDbSymbolTableRecord
100
AcDbLayerTableRecord
  2
43000610A0
 70
0
 62
7
  6
CONTINUOUS
370
-3
390
F
  0
LAYER
  5
27E
100
AcDbSymbolTableRecord
100
AcDbLayerTableRecord
  2
43000611A0
 70
0
 62
7
  6
CONTINUOUS
370
-3
390
F
  0
LAYER
  5
27F
100
AcDbSymbolTableRecord
100
AcDbLayerTableRecord
  2
43900610A0
 70
0
 62
7
  6
CONTINUOUS
370
-3
390
F
  0
LAYER
  5
280
100
AcDbSymbolTableRecord
100
AcDbLayerTableRecord
  2
43900611A0
 70
0
 62
7
  6
CONTINUOUS
370
-3
390
F
  0
LAYER
  5
281
100
AcDbSymbolTableRecord
100
AcDbLayerTableRecord
  2
7343-CS1-RF_280000
 70
0
 62
7
  6
CONTINUOUS
370
-3
390
F
  0
LAYER
  5
282
100
AcDbSymbolTableRecord
100
AcDbLayerTableRecord
  2
7343-CS1-RF_280000_1
 70
0
 62
7
  6
CONTINUOUS
370
-3
390
F
  0
LAYER
  5
283
100
AcDbSymbolTableRecord
100
AcDbLayerTableRecord
  2
ASSI
 70
0
 62
7
  6
CONTINUOUS
370
-3
390
F
  0
LAYER
  5
284
100
AcDbSymbolTableRecord
100
AcDbLayerTableRecord
  2
BZ-8_5X8-5XH3_0_320000
 70
0
 62
7
  6
CONTINUOUS
370
-3
390
F
  0
LAYER
  5
285
100
AcDbSymbolTableRecord
100
AcDbLayerTableRecord
  2
CAPMP7343X430N_430000
 70
0
 62
7
  6
CONTINUOUS
370
-3
390
F
  0
LAYER
  5
286
100
AcDbSymbolTableRecord
100
AcDbLayerTableRecord
  2
CAPMP7343X430N_430000_1
 70
0
 62
7
  6
CONTINUOUS
370
-3
390
F
  0
LAYER
  5
287
100
AcDbSymbolTableRecord
100
AcDbLayerTableRecord
  2
CAPMP7343X430N_430000_2
 70
0
 62
7
  6
CONTINUOUS
370
-3
390
F
  0
LAYER
  5
288
100
AcDbSymbolTableRecord
100
AcDbLayerTableRecord
  2
CN-PTSM_0_5_4-2_5H_SMD_R24-VIMA
 70
0
 62
7
  6
CONTINUOUS
370
-3
390
F
  0
LAYER
  5
289
100
AcDbSymbolTableRecord
100
AcDbLayerTableRecord
  2
CN-SMD-03S-SPRING-P2_5-H7_2-VIM
 70
0
 62
7
  6
CONTINUOUS
370
-3
390
F
  0
LAYER
  5
28A
100
AcDbSymbolTableRecord
100
AcDbLayerTableRecord
  2
CN-SMD-03S-SPRING-P2_5-H7_2-V_1
 70
0
 62
7
  6
CONTINUOUS
370
-3
390
F
  0
LAYER
  5
28B
100
AcDbSymbolTableRecord
100
AcDbLayerTableRecord
  2
CN-SMD-04S-SPRING-P2_5-H7_2-VIM
 70
0
 62
7
  6
CONTINUOUS
370
-3
390
F
  0
LAYER
  5
28C
100
AcDbSymbolTableRecord
100
AcDbLayerTableRecord
  2
CN-SMD-04S-SPRING-P2_5-H7_2-V_1
 70
0
 62
7
  6
CONTINUOUS
370
-3
390
F
  0
LAYER
  5
28D
100
AcDbSymbolTableRecord
100
AcDbLayerTableRecord
  2
CN08-HEADER-SMD2_54-1-VIMAR_918
 70
0
 62
7
  6
CONTINUOUS
370
-3
390
F
  0
LAYER
  5
28E
100
AcDbSymbolTableRecord
100
AcDbLayerTableRecord
  2
CN1-300165750_1800000
 70
0
 62
7
  6
CONTINUOUS
370
-3
390
F
  0
LAYER
  5
28F
100
AcDbSymbolTableRecord
100
AcDbLayerTableRecord
  2
CN1-300165750_1800000_1
 70
0
 62
7
  6
CONTINUOUS
370
-3
390
F
  0
LAYER
  5
290
100
AcDbSymbolTableRecord
100
AcDbLayerTableRecord
  2
CN1-300165750_1800000_2
 70
0
 62
7
  6
CONTINUOUS
370
-3
390
F
  0
LAYER
  5
291
100
AcDbSymbolTableRecord
100
AcDbLayerTableRecord
  2
CN1-300165750_1800000_3
 70
0
 62
7
  6
CONTINUOUS
370
-3
390
F
  0
LAYER
  5
292
100
AcDbSymbolTableRecord
100
AcDbLayerTableRecord
  2
CN1-REF_SQUAREHOLE12_SPEA-VIMAR
 70
0
 62
7
  6
CONTINUOUS
370
-3
390
F
  0
LAYER
  5
293
100
AcDbSymbolTableRecord
100
AcDbLayerTableRecord
  2
CN1-REF_SQUAREHOLE12_SPEA-VIM_1
 70
0
 62
7
  6
CONTINUOUS
370
-3
390
F
  0
LAYER
  5
294
100
AcDbSymbolTableRecord
100
AcDbLayerTableRecord
  2
CN1-REF_SQUAREHOLE12_SPEA-VIM_2
 70
0
 62
7
  6
CONTINUOUS
370
-3
390
F
  0
LAYER
  5
295
100
AcDbSymbolTableRecord
100
AcDbLayerTableRecord
  2
CN1-REF_SQUAREHOLE12_SPEA-VIM_3
 70
0
 62
7
  6
CONTINUOUS
370
-3
390
F
  0
LAYER
  5
296
100
AcDbSymbolTableRecord
100
AcDbLayerTableRecord
  2
CN1-TP15_SMD-VIMAR_5000
 70
0
 62
7
  6
CONTINUOUS
370
-3
390
F
  0
LAYER
  5
297
100
AcDbSymbolTableRecord
100
AcDbLayerTableRecord
  2
CN1-TP15_SMD-VIMAR_5000_1
 70
0
 62
7
  6
CONTINUOUS
370
-3
390
F
  0
LAYER
  5
298
100
AcDbSymbolTableRecord
100
AcDbLayerTableRecord
  2
CN1-TP15_SMD-VIMAR_5000_2
 70
0
 62
7
  6
CONTINUOUS
370
-3
390
F
  0
LAYER
  5
299
100
AcDbSymbolTableRecord
100
AcDbLayerTableRecord
  2
CN1-TP15_SMD-VIMAR_5000_3
 70
0
 62
7
  6
CONTINUOUS
370
-3
390
F
  0
LAYER
  5
29A
100
AcDbSymbolTableRecord
100
AcDbLayerTableRecord
  2
CN1-TP15_SMD-VIMAR_5000_4
 70
0
 62
7
  6
CONTINUOUS
370
-3
390
F
  0
LAYER
  5
29B
100
AcDbSymbolTableRecord
100
AcDbLayerTableRecord
  2
CN1-TP15_SMD-VIMAR_5000_5
 70
0
 62
7
  6
CONTINUOUS
370
-3
390
F
  0
LAYER
  5
29C
100
AcDbSymbolTableRecord
100
AcDbLayerTableRecord
  2
CN1-TP15_SMD-VIMAR_5000_6
 70
0
 62
7
  6
CONTINUOUS
370
-3
390
F
  0
LAYER
  5
29D
100
AcDbSymbolTableRecord
100
AcDbLayerTableRecord
  2
CN1-TP15_SMD-VIMAR_5000_7
 70
0
 62
7
  6
CONTINUOUS
370
-3
390
F
  0
LAYER
  5
29E
100
AcDbSymbolTableRecord
100
AcDbLayerTableRecord
  2
CN20-VASCHETTA_2500000
 70
0
 62
7
  6
CONTINUOUS
370
-3
390
F
  0
LAYER
  5
29F
100
AcDbSymbolTableRecord
100
AcDbLayerTableRecord
  2
COLOR1
 70
0
 62
7
  6
CONTINUOUS
370
-3
390
F
  0
LAYER
  5
2A0
100
AcDbSymbolTableRecord
100
AcDbLayerTableRecord
  2
COLOR5
 70
0
 62
7
  6
CONTINUOUS
370
-3
390
F
  0
LAYER
  5
2A1
100
AcDbSymbolTableRecord
100
AcDbLayerTableRecord
  2
COLOR6
 70
0
 62
7
  6
CONTINUOUS
370
-3
390
F
  0
LAYER
  5
2A2
100
AcDbSymbolTableRecord
100
AcDbLayerTableRecord
  2
COLOR8
 70
0
 62
7
  6
CONTINUOUS
370
-3
390
F
  0
LAYER
  5
2A3
100
AcDbSymbolTableRecord
100
AcDbLayerTableRecord
  2
COORDINATE
 70
0
 62
7
  6
CONTINUOUS
370
-3
390
F
  0
LAYER
  5
2A4
100
AcDbSymbolTableRecord
100
AcDbLayerTableRecord
  2
COORD_ORIGINE
 70
0
 62
7
  6
CONTINUOUS
370
-3
390
F
  0
LAYER
  5
2A5
100
AcDbSymbolTableRecord
100
AcDbLayerTableRecord
  2
COPY_PUBLISH
 70
0
 62
7
  6
CONTINUOUS
370
-3
390
F
  0
LAYER
  5
2A6
100
AcDbSymbolTableRecord
100
AcDbLayerTableRecord
  2
COSMETICI
 70
0
 62
7
  6
CONTINUOUS
370
-3
390
F
  0
LAYER
  5
2A7
100
AcDbSymbolTableRecord
100
AcDbLayerTableRecord
  2
CP-DO-214AC-D-VIMAR_240000
 70
0
 62
7
  6
CONTINUOUS
370
-3
390
F
  0
LAYER
  5
2A8
100
AcDbSymbolTableRecord
100
AcDbLayerTableRecord
  2
CP-SUPERCAP-SMD_190000
 70
0
 62
7
  6
CONTINUOUS
370
-3
390
F
  0
LAYER
  5
2A9
100
AcDbSymbolTableRecord
100
AcDbLayerTableRecord
  2
CURVE
 70
0
 62
7
  6
CONTINUOUS
370
-3
390
F
  0
LAYER
  5
2AA
100
AcDbSymbolTableRecord
100
AcDbLayerTableRecord
  2
DRAFT
 70
0
 62
7
  6
CONTINUOUS
370
-3
390
F
  0
LAYER
  5
2AB
100
AcDbSymbolTableRecord
100
AcDbLayerTableRecord
  2
E2_MARK_10000
 70
0
 62
7
  6
CONTINUOUS
370
-3
390
F
  0
LAYER
  5
2AC
100
AcDbSymbolTableRecord
100
AcDbLayerTableRecord
  2
E4_MARK_10000
 70
0
 62
7
  6
CONTINUOUS
370
-3
390
F
  0
LAYER
  5
2AD
100
AcDbSymbolTableRecord
100
AcDbLayerTableRecord
  2
E4_MARK_10000_1
 70
0
 62
7
  6
CONTINUOUS
370
-3
390
F
  0
LAYER
  5
2AE
100
AcDbSymbolTableRecord
100
AcDbLayerTableRecord
  2
IGES
 70
0
 62
7
  6
CONTINUOUS
370
-3
390
F
  0
LAYER
  5
2AF
100
AcDbSymbolTableRecord
100
AcDbLayerTableRecord
  2
IMPORT_IGES
 70
0
 62
7
  6
CONTINUOUS
370
-3
390
F
  0
LAYER
  5
2B0
100
AcDbSymbolTableRecord
100
AcDbLayerTableRecord
  2
INTFCLR_7575
 70
0
 62
7
  6
CONTINUOUS
370
-3
390
F
  0
LAYER
  5
2B1
100
AcDbSymbolTableRecord
100
AcDbLayerTableRecord
  2
INTFCLR_9235
 70
0
 62
7
  6
CONTINUOUS
370
-3
390
F
  0
LAYER
  5
2B2
100
AcDbSymbolTableRecord
100
AcDbLayerTableRecord
  2
INTF_12
 70
0
 62
7
  6
CONTINUOUS
370
-3
390
F
  0
LAYER
  5
2B3
100
AcDbSymbolTableRecord
100
AcDbLayerTableRecord
  2
INTF_5
 70
0
 62
7
  6
CONTINUOUS
370
-3
390
F
  0
LAYER
  5
2B4
100
AcDbSymbolTableRecord
100
AcDbLayerTableRecord
  2
INTF_BLANK
 70
0
 62
7
  6
CONTINUOUS
370
-3
390
F
  0
LAYER
  5
2B5
100
AcDbSymbolTableRecord
100
AcDbLayerTableRecord
  2
LCD_SN278A00RBS-VIMAR_285000
 70
0
 62
7
  6
CONTINUOUS
370
-3
390
F
  0
LAYER
  5
2B6
100
AcDbSymbolTableRecord
100
AcDbLayerTableRecord
  2
LOGO_RESIST-RESTYLING_10000
 70
0
 62
7
  6
CONTINUOUS
370
-3
390
F
  0
LAYER
  5
2B7
100
AcDbSymbolTableRecord
100
AcDbLayerTableRecord
  2
LOGO_RESIST-RESTYLING_10000_1
 70
0
 62
7
  6
CONTINUOUS
370
-3
390
F
  0
LAYER
  5
2B8
100
AcDbSymbolTableRecord
100
AcDbLayerTableRecord
  2
L_SDR0603-RF-VIMAR_390000
 70
0
 62
7
  6
CONTINUOUS
370
-3
390
F
  0
LAYER
  5
2B9
100
AcDbSymbolTableRecord
100
AcDbLayerTableRecord
  2
MM2-X-7-VIMAR_90000
 70
0
 62
7
  6
CONTINUOUS
370
-3
390
F
  0
LAYER
  5
2BA
100
AcDbSymbolTableRecord
100
AcDbLayerTableRecord
  2
MM5-FMT-RF_120000
 70
0
 62
7
  6
CONTINUOUS
370
-3
390
F
  0
LAYER
  5
2BB
100
AcDbSymbolTableRecord
100
AcDbLayerTableRecord
  2
NO-PB_MARK_10000
 70
0
 62
7
  6
CONTINUOUS
370
-3
390
F
  0
LAYER
  5
2BC
100
AcDbSymbolTableRecord
100
AcDbLayerTableRecord
  2
NO-PB_MARK_10000_1
 70
0
 62
7
  6
CONTINUOUS
370
-3
390
F
  0
LAYER
  5
2BD
100
AcDbSymbolTableRecord
100
AcDbLayerTableRecord
  2
NONE
 70
0
 62
7
  6
CONTINUOUS
370
-3
390
F
  0
LAYER
  5
2BE
100
AcDbSymbolTableRecord
100
AcDbLayerTableRecord
  2
NOTE
 70
0
 62
7
  6
CONTINUOUS
370
-3
390
F
  0
LAYER
  5
2BF
100
AcDbSymbolTableRecord
100
AcDbLayerTableRecord
  2
PIANI
 70
0
 62
7
  6
CONTINUOUS
370
-3
390
F
  0
LAYER
  5
2C0
100
AcDbSymbolTableRecord
100
AcDbLayerTableRecord
  2
PIANI_DI_RIFERIMENTO
 70
0
 62
7
  6
CONTINUOUS
370
-3
390
F
  0
LAYER
  5
2C1
100
AcDbSymbolTableRecord
100
AcDbLayerTableRecord
  2
PIANI_ORIGINE
 70
0
 62
7
  6
CONTINUOUS
370
-3
390
F
  0
LAYER
  5
2C2
100
AcDbSymbolTableRecord
100
AcDbLayerTableRecord
  2
PIANI_RIFERIMENTO
 70
0
 62
7
  6
CONTINUOUS
370
-3
390
F
  0
LAYER
  5
2C3
100
AcDbSymbolTableRecord
100
AcDbLayerTableRecord
  2
PUNTI
 70
0
 62
7
  6
CONTINUOUS
370
-3
390
F
  0
LAYER
  5
2C4
100
AcDbSymbolTableRecord
100
AcDbLayerTableRecord
  2
QFN40P300X300X60-20N_60000
 70
0
 62
7
  6
CONTINUOUS
370
-3
390
F
  0
LAYER
  5
2C5
100
AcDbSymbolTableRecord
100
AcDbLayerTableRecord
  2
QFP100-F4-RF-VIMAR_160000
 70
0
 62
7
  6
CONTINUOUS
370
-3
390
F
  0
LAYER
  5
2C6
100
AcDbSymbolTableRecord
100
AcDbLayerTableRecord
  2
RACCORDO
 70
0
 62
7
  6
CONTINUOUS
370
-3
390
F
  0
LAYER
  5
2C7
100
AcDbSymbolTableRecord
100
AcDbLayerTableRecord
  2
RD-C25-NTC-1-VIMAR_1800000
 70
0
 62
7
  6
CONTINUOUS
370
-3
390
F
  0
LAYER
  5
2C8
100
AcDbSymbolTableRecord
100
AcDbLayerTableRecord
  2
SIMBOLI
 70
0
 62
7
  6
CONTINUOUS
370
-3
390
F
  0
LAYER
  5
2C9
100
AcDbSymbolTableRecord
100
AcDbLayerTableRecord
  2
SMUSSO
 70
0
 62
7
  6
CONTINUOUS
370
-3
390
F
  0
LAYER
  5
2CA
100
AcDbSymbolTableRecord
100
AcDbLayerTableRecord
  2
SNAPLINE
 70
0
 62
7
  6
CONTINUOUS
370
-3
390
F
  0
LAYER
  5
2CB
100
AcDbSymbolTableRecord
100
AcDbLayerTableRecord
  2
SOD882_50000
 70
0
 62
7
  6
CONTINUOUS
370
-3
390
F
  0
LAYER
  5
2CC
100
AcDbSymbolTableRecord
100
AcDbLayerTableRecord
  2
SOD882_50000_1
 70
0
 62
7
  6
CONTINUOUS
370
-3
390
F
  0
LAYER
  5
2CD
100
AcDbSymbolTableRecord
100
AcDbLayerTableRecord
  2
SOD882_50000_2
 70
0
 62
7
  6
CONTINUOUS
370
-3
390
F
  0
LAYER
  5
2CE
100
AcDbSymbolTableRecord
100
AcDbLayerTableRecord
  2
SOD882_50000_3
 70
0
 62
7
  6
CONTINUOUS
370
-3
390
F
  0
LAYER
  5
2CF
100
AcDbSymbolTableRecord
100
AcDbLayerTableRecord
  2
SOD882_50000_4
 70
0
 62
7
  6
CONTINUOUS
370
-3
390
F
  0
LAYER
  5
2D0
100
AcDbSymbolTableRecord
100
AcDbLayerTableRecord
  2
SOD882_50000_5
 70
0
 62
7
  6
CONTINUOUS
370
-3
390
F
  0
LAYER
  5
2D1
100
AcDbSymbolTableRecord
100
AcDbLayerTableRecord
  2
SOD882_50000_6
 70
0
 62
7
  6
CONTINUOUS
370
-3
390
F
  0
LAYER
  5
2D2
100
AcDbSymbolTableRecord
100
AcDbLayerTableRecord
  2
SOD882_50000_7
 70
0
 62
7
  6
CONTINUOUS
370
-3
390
F
  0
LAYER
  5
2D3
100
AcDbSymbolTableRecord
100
AcDbLayerTableRecord
  2
SODFL1608X70N_70000
 70
0
 62
7
  6
CONTINUOUS
370
-3
390
F
  0
LAYER
  5
2D4
100
AcDbSymbolTableRecord
100
AcDbLayerTableRecord
  2
SODFL1608X70N_70000_1
 70
0
 62
7
  6
CONTINUOUS
370
-3
390
F
  0
LAYER
  5
2D5
100
AcDbSymbolTableRecord
100
AcDbLayerTableRecord
  2
SODFL1608X70N_70000_2
 70
0
 62
7
  6
CONTINUOUS
370
-3
390
F
  0
LAYER
  5
2D6
100
AcDbSymbolTableRecord
100
AcDbLayerTableRecord
  2
SODFL1608X70N_70000_3
 70
0
 62
7
  6
CONTINUOUS
370
-3
390
F
  0
LAYER
  5
2D7
100
AcDbSymbolTableRecord
100
AcDbLayerTableRecord
  2
SODFL1608X70N_70000_4
 70
0
 62
7
  6
CONTINUOUS
370
-3
390
F
  0
LAYER
  5
2D8
100
AcDbSymbolTableRecord
100
AcDbLayerTableRecord
  2
SOP8-T1-RF-VIMAR_150000
 70
0
 62
7
  6
CONTINUOUS
370
-3
390
F
  0
LAYER
  5
2D9
100
AcDbSymbolTableRecord
100
AcDbLayerTableRecord
  2
SUPERFICI
 70
0
 62
7
  6
CONTINUOUS
370
-3
390
F
  0
LAYER
  5
2DA
100
AcDbSymbolTableRecord
100
AcDbLayerTableRecord
  2
TP15_SMD_0
 70
0
 62
7
  6
CONTINUOUS
370
-3
390
F
  0
LAYER
  5
2DB
100
AcDbSymbolTableRecord
100
AcDbLayerTableRecord
  2
TP15_SMD_0_1
 70
0
 62
7
  6
CONTINUOUS
370
-3
390
F
  0
LAYER
  5
2DC
100
AcDbSymbolTableRecord
100
AcDbLayerTableRecord
  2
TP15_SMD_0_2
 70
0
 62
7
  6
CONTINUOUS
370
-3
390
F
  0
LAYER
  5
2DD
100
AcDbSymbolTableRecord
100
AcDbLayerTableRecord
  2
TP15_SMD_0_3
 70
0
 62
7
  6
CONTINUOUS
370
-3
390
F
  0
LAYER
  5
2DE
100
AcDbSymbolTableRecord
100
AcDbLayerTableRecord
  2
TP15_SMD_0_4
 70
0
 62
7
  6
CONTINUOUS
370
-3
390
F
  0
LAYER
  5
2DF
100
AcDbSymbolTableRecord
100
AcDbLayerTableRecord
  2
TP15_SMD_0_5
 70
0
 62
7
  6
CONTINUOUS
370
-3
390
F
  0
LAYER
  5
2E0
100
AcDbSymbolTableRecord
100
AcDbLayerTableRecord
  2
TP15_SMD_0_6
 70
0
 62
7
  6
CONTINUOUS
370
-3
390
F
  0
LAYER
  5
2E1
100
AcDbSymbolTableRecord
100
AcDbLayerTableRecord
  2
TP15_SMD_0_7
 70
0
 62
7
  6
CONTINUOUS
370
-3
390
F
  0
LAYER
  5
2E2
100
AcDbSymbolTableRecord
100
AcDbLayerTableRecord
  2
TP15_SMD_0_8
 70
0
 62
7
  6
CONTINUOUS
370
-3
390
F
  0
LAYER
  5
2E3
100
AcDbSymbolTableRecord
100
AcDbLayerTableRecord
  2
TP15_SMD_0_9
 70
0
 62
7
  6
CONTINUOUS
370
-3
390
F
  0
LAYER
  5
2E4
100
AcDbSymbolTableRecord
100
AcDbLayerTableRecord
  2
TRASH
 70
0
 62
7
  6
CONTINUOUS
370
-3
390
F
  0
LAYER
  5
2E5
100
AcDbSymbolTableRecord
100
AcDbLayerTableRecord
  2
XSEC_DATUMS
 70
0
 62
7
  6
CONTINUOUS
370
-3
390
F
  0
LAYER
  5
2E6
100
AcDbSymbolTableRecord
100
AcDbLayerTableRecord
  2
___SHELL
 70
0
 62
7
  6
CONTINUOUS
370
-3
390
F
  0
ENDTAB
  0
TABLE
  2
STYLE
  5
3
100
AcDbSymbolTable
 70
1
  0
STYLE
  5
11
100
AcDbSymbolTableRecord
100
AcDbTextStyleTableRecord
  2
STANDARD
 70
0
 40
0.0
 41
0.8
 50
0.0
 71
0
 42
0.2
  3
txt
  4

  0
STYLE
  5
2E7
100
AcDbSymbolTableRecord
100
AcDbTextStyleTableRecord
  2
TEXTSTYLE_1
 70
0
 40
0.0
 41
0.8
 50
0.0
 71
0
 42
0.2
  3
gdt
  4

  0
ENDTAB
  0
TABLE
  2
VIEW
  5
6
100
AcDbSymbolTable
 70
0
  0
ENDTAB
  0
TABLE
  2
UCS
  5
7
100
AcDbSymbolTable
 70
0
  0
ENDTAB
  0
TABLE
  2
APPID
  5
9
100
AcDbSymbolTable
 70
1
  0
APPID
  5
2E8
100
AcDbSymbolTableRecord
100
AcDbRegAppTableRecord
  2
ACAD
 70
0
  0
ENDTAB
  0
TABLE
  2
BLOCK_RECORD
  5
1
100
AcDbSymbolTable
 70
0
  0
BLOCK_RECORD
  5
2E9
100
AcDbSymbolTableRecord
100
AcDbBlockTableRecord
  2
*Model_Space
  0
BLOCK_RECORD
  5
2EA
100
AcDbSymbolTableRecord
100
AcDbBlockTableRecord
  2
*Paper_Space
  0
BLOCK_RECORD
  5
2EB
100
AcDbSymbolTableRecord
100
AcDbBlockTableRecord
  2
_FILLED
  0
BLOCK_RECORD
  5
2EC
100
AcDbSymbolTableRecord
100
AcDbBlockTableRecord
  2
*D0
  0
BLOCK_RECORD
  5
2ED
100
AcDbSymbolTableRecord
100
AcDbBlockTableRecord
  2
*D1
  0
BLOCK_RECORD
  5
2EE
100
AcDbSymbolTableRecord
100
AcDbBlockTableRecord
  2
*D2
  0
ENDTAB
  0
TABLE
  2
DIMSTYLE
  5
A
100
AcDbSymbolTable
 70
1
100
AcDbDimStyleTable
 71
0
  0
DIMSTYLE
105
2EF
100
AcDbSymbolTableRecord
100
AcDbDimStyleTableRecord
  2
STANDARD
 70
0
  3

  4

 40
1.0
 41
3.0
 42
0.5
 43
0.38
 44
1.5
 45
0.0
 46
0.0
 47
0.01
 48
0.01
140
3.0
141
0.09
142
0.0
143
25.4
144
1.0
145
0.0
146
1.0
147
0.625
 71
1.0
 72
0.0
 73
0
 74
0
 75
0
 76
0
 77
1
 78
8
170
0
171
2
172
0
173
0
174
0
175
0
176
0
177
0
178
0
270
2
271
2
272
2
273
2
274
2
275
0
280
0
281
0
282
0
283
1
284
8
285
0
286
0
287
3
288
0
340
11
278
44
341
2EB
342
2EB
343
2EB
344
2EB
  0
DIMSTYLE
105
2F0
100
AcDbSymbolTableRecord
100
AcDbDimStyleTableRecord
  2
DIMSTYLE_1
 70
0
  3

  4

 40
1.0
 41
3.0
 42
0.5
 43
0.38
 44
1.5
 45
0.0
 46
0.0
 47
0.0
 48
0.0
140
3.0
141
0.09
142
0.0
143
25.4
144
1.0
145
0.0
146
1.0
147
0.75
 71
0.0
 72
0.0
 73
0
 74
0
 75
0
 76
0
 77
1
 78
8
170
0
171
2
172
0
173
0
174
0
175
0
176
0
177
0
178
0
270
2
271
2
272
2
273
2
274
2
275
0
280
0
281
0
282
0
283
1
284
8
285
0
286
0
287
3
288
0
340
11
278
44
341
2EB
342
2EB
343
2EB
344
2EB
  0
DIMSTYLE
105
2F1
100
AcDbSymbolTableRecord
100
AcDbDimStyleTableRecord
  2
DIMSTYLE_2
 70
0
  3

  4

 40
1.0
 41
3.0
 42
0.5
 43
0.38
 44
1.5
 45
0.0
 46
0.0
 47
0.0
 48
0.0
140
3.0
141
0.09
142
0.0
143
25.4
144
1.0
145
0.0
146
1.0
147
0.75
 71
0.0
 72
0.0
 73
0
 74
0
 75
0
 76
0
 77
1
 78
8
170
0
171
2
172
0
173
0
174
0
175
0
176
0
177
0
178
0
270
2
271
1
272
1
273
2
274
2
275
0
280
0
281
0
282
0
283
1
284
8
285
0
286
0
287
3
288
0
340
11
278
44
341
2EB
342
2EB
343
2EB
344
2EB
  0
ENDTAB
  0
ENDSEC
  0
SECTION
  2
BLOCKS
  0
BLOCK
  5
20
100
AcDbEntity
  8
0
100
AcDbBlockBegin
  2
*Model_Space
 70
0
 10
0.0
 20
0.0
 30
0.0
  3
*Model_Space
  1

  0
ENDBLK
  5
21
100
AcDbEntity
  8
0
100
AcDbBlockEnd
  0
BLOCK
  5
1C
100
AcDbEntity
  8
0
100
AcDbBlockBegin
  2
*Paper_Space
 70
0
 10
0.0
 20
0.0
 30
0.0
  3
*Paper_Space
  1

  0
ENDBLK
  5
1D
100
AcDbEntity
  8
0
100
AcDbBlockEnd
  0
BLOCK
  5
2F2
100
AcDbEntity
  8
0
100
AcDbBlockBegin
  2
_FILLED
 70
64
 10
0.0
 20
0.0
  3
_FILLED
  1

  0
SOLID
  5
2F3
100
AcDbEntity
  8
0
  6
BYBLOCK
 62
0
100
AcDbTrace
 10
0.0
 20
0.0
 11
-1.0
 21
0.3166666667
 12
-1.0
 22
-0.3166666667
 13
-1.0
 23
-0.3166666667
  0
ENDBLK
  5
2F4
100
AcDbEntity
  8
0
  6
BYBLOCK
 62
0
100
AcDbBlockEnd
  0
BLOCK
  5
2F5
100
AcDbEntity
  8
0
100
AcDbBlockBegin
 62
7
  6
CONTINUOUS
  2
*D0
 70
65
 10
0.0
 20
0.0
  3
*D0
  1

  0
MTEXT
  5
2F6
100
AcDbEntity
  8
0
100
AcDbMText
 62
7
  6
CONTINUOUS
  7
STANDARD
 71
2
 72
1
 10
115.0022640312
 20
167.4318877551
 30
0.0
 11
1.0
 21
0.0
 31
0.0
 44
0.9
  1
135
 40
3.0
 41
9.0
  0
LINE
  5
2F7
100
AcDbEntity
  8
0
100
AcDbLine
 62
7
  6
CONTINUOUS
 10
47.5022640279
 20
151.6823066984
 11
47.5022640283
 21
165.1818877573
  0
LINE
  5
2F8
100
AcDbEntity
  8
0
100
AcDbLine
 62
7
  6
CONTINUOUS
 10
182.5022640334
 20
151.6823066984
 11
182.5022640338
 21
165.1818877529
  0
LINE
  5
2F9
100
AcDbEntity
  8
0
100
AcDbLine
 62
7
  6
CONTINUOUS
 10
47.5022640283
 20
163.6818877573
 11
115.002264031
 21
163.6818877551
  0
LINE
  5
2FA
100
AcDbEntity
  8
0
100
AcDbLine
 62
7
  6
CONTINUOUS
 10
182.5022640338
 20
163.6818877529
 11
115.002264031
 21
163.6818877551
  0
INSERT
  5
2FB
100
AcDbEntity
  8
0
100
AcDbBlockReference
 62
7
  6
CONTINUOUS
  2
_FILLED
 10
47.5022640283
 20
163.6818877573
 41
3.0
 42
3.0
 43
3.0
 50
179.9999999981
  0
INSERT
  5
2FC
100
AcDbEntity
  8
0
100
AcDbBlockReference
 62
7
  6
CONTINUOUS
  2
_FILLED
 10
182.5022640338
 20
163.6818877529
 41
3.0
 42
3.0
 43
3.0
 50
359.9999999981
  0
ENDBLK
  5
2FD
100
AcDbEntity
  8
0
  6
BYBLOCK
 62
0
100
AcDbBlockEnd
  0
BLOCK
  5
2FE
100
AcDbEntity
  8
0
100
AcDbBlockBegin
 62
7
  6
CONTINUOUS
  2
*D1
 70
65
 10
0.0
 20
0.0
  3
*D1
  1

  0
MTEXT
  5
2FF
100
AcDbEntity
  8
0
100
AcDbMText
 62
7
  6
CONTINUOUS
  7
STANDARD
 71
2
 72
1
 10
29.9824389006
 20
105.6818877508
 30
0.0
 11
0.0
 21
1.0
 31
0.0
 44
0.9
  1
95
 40
3.0
 41
6.75
  0
LINE
  5
300
100
AcDbEntity
  8
0
100
AcDbLine
 62
7
  6
CONTINUOUS
 10
49.0018799992
 20
58.1818877473
 11
32.2324389084
 21
58.1818877446
  0
LINE
  5
301
100
AcDbEntity
  8
0
100
AcDbLine
 62
7
  6
CONTINUOUS
 10
49.0018799992
 20
153.1818877627
 11
32.2324388927
 21
153.1818877599
  0
LINE
  5
302
100
AcDbEntity
  8
0
100
AcDbLine
 62
7
  6
CONTINUOUS
 10
33.7324389084
 20
58.1818877448
 11
33.7324389006
 21
105.6818877525
  0
LINE
  5
303
100
AcDbEntity
  8
0
100
AcDbLine
 62
7
  6
CONTINUOUS
 10
33.7324388927
 20
153.1818877602
 11
33.7324389006
 21
105.6818877525
  0
INSERT
  5
304
100
AcDbEntity
  8
0
100
AcDbBlockReference
 62
7
  6
CONTINUOUS
  2
_FILLED
 10
33.7324389084
 20
58.1818877448
 41
3.0
 42
3.0
 43
3.0
 50
270.0000000095
  0
INSERT
  5
305
100
AcDbEntity
  8
0
100
AcDbBlockReference
 62
7
  6
CONTINUOUS
  2
_FILLED
 10
33.7324388927
 20
153.1818877602
 41
3.0
 42
3.0
 43
3.0
 50
90.0000000095
  0
ENDBLK
  5
306
100
AcDbEntity
  8
0
  6
BYBLOCK
 62
0
100
AcDbBlockEnd
  0
BLOCK
  5
307
100
AcDbEntity
  8
0
100
AcDbBlockBegin
 62
7
  6
CONTINUOUS
  2
*D2
 70
65
 10
0.0
 20
0.0
  3
*D2
  1

  0
MTEXT
  5
308
100
AcDbEntity
  8
0
100
AcDbMText
 62
7
  6
CONTINUOUS
  7
STANDARD
 71
2
 72
1
 10
248.269715896
 20
167.4318877551
 30
0.0
 11
1.0
 21
0.0
 31
0.0
 44
0.9
  1
21
 40
3.0
 41
6.1071428571
  0
LINE
  5
309
100
AcDbEntity
  8
0
100
AcDbLine
 62
7
  6
CONTINUOUS
 10
237.794715896
 20
144.1818877551
 11
237.794715896
 21
165.1818877551
  0
LINE
  5
30A
100
AcDbEntity
  8
0
100
AcDbLine
 62
7
  6
CONTINUOUS
 10
258.744715896
 20
105.7663361813
 11
258.744715896
 21
165.1818877551
  0
LINE
  5
30B
100
AcDbEntity
  8
0
100
AcDbLine
 62
7
  6
CONTINUOUS
 10
237.794715896
 20
163.6818877551
 11
248.269715896
 21
163.6818877551
  0
LINE
  5
30C
100
AcDbEntity
  8
0
100
AcDbLine
 62
7
  6
CONTINUOUS
 10
258.744715896
 20
163.6818877551
 11
248.269715896
 21
163.6818877551
  0
INSERT
  5
30D
100
AcDbEntity
  8
0
100
AcDbBlockReference
 62
7
  6
CONTINUOUS
  2
_FILLED
 10
237.794715896
 20
163.6818877551
 41
3.0
 42
3.0
 43
3.0
 50
180.0
  0
INSERT
  5
30E
100
AcDbEntity
  8
0
100
AcDbBlockReference
 62
7
  6
CONTINUOUS
  2
_FILLED
 10
258.744715896
 20
163.6818877551
 41
3.0
 42
3.0
 43
3.0
  0
ENDBLK
  5
30F
100
AcDbEntity
  8
0
  6
BYBLOCK
 62
0
100
AcDbBlockEnd
  0
ENDSEC
  0
SECTION
  2
ENTITIES
  0
DIMENSION
  5
310
100
AcDbEntity
  8
0
100
AcDbDimension
 62
7
  6
CONTINUOUS
  2
*D0
 10
182.5022640338
 20
163.6818877529
 11
115.0022640311
 21
163.6818877551
 70
160
 71
2
 42
135.0000000055
  3
DIMSTYLE_1
100
AcDbAlignedDimension
 13
47.5022640279
 23
151.1823066984
 14
182.5022640333
 24
151.1823066984
 50
359.9999999981
100
AcDbRotatedDimension
  0
DIMENSION
  5
311
100
AcDbEntity
  8
0
100
AcDbDimension
 62
7
  6
CONTINUOUS
  2
*D1
 10
33.7324388927
 20
153.1818877602
 11
33.7324389006
 21
105.6818877512
 70
160
 71
2
 42
95.0000000153
  3
DIMSTYLE_1
100
AcDbAlignedDimension
 13
49.5018799992
 23
58.1818877474
 14
49.5018799992
 24
153.1818877628
 50
90.0000000095
100
AcDbRotatedDimension
  0
DIMENSION
  5
312
100
AcDbEntity
  8
0
100
AcDbDimension
 62
7
  6
CONTINUOUS
  2
*D2
 10
258.744715896
 20
163.6818877551
 11
248.269715896
 21
163.6818877551
 70
160
 71
2
 42
20.95
  3
DIMSTYLE_2
100
AcDbAlignedDimension
 13
237.794715896
 23
143.6818877551
 14
258.744715896
 24
105.2663361813
100
AcDbRotatedDimension
  0
LWPOLYLINE
  5
313
100
AcDbEntity
  8
RACCORDO
100
AcDbPolyline
 62
253
  6
CONTINUOUS
 90
31
 70
0
 10
48.0233881726
 20
60.2032261027
 10
48.0254951937
 20
60.1243338993
 10
48.0316529065
 20
60.0460987644
 10
48.0418613109
 20
59.9685206979
 10
48.0561696769
 20
59.8913979326
 10
48.0745287345
 20
59.8149322356
 10
48.0967906747
 20
59.7397289089
 10
48.1229890072
 20
59.6657885004
 10
48.1530902223
 20
59.5931104621
 10
48.1868459808
 20
59.5222984514
 10
48.2242851948
 20
59.4533718557
 10
48.2653789525
 20
59.3863112877
 10
48.3097921783
 20
59.3216622428
 10
48.3575525344
 20
59.2594432909
 10
48.4086323589
 20
59.199635862
 10
48.4626135904
 20
59.1427297422
 10
48.5195200849
 20
59.0887488485
 10
48.5793279867
 20
59.0376692638
 10
48.6415476671
 20
58.9899090217
 10
48.7061978188
 20
58.945495757
 10
48.7732597492
 20
58.9044018349
 10
48.8421877528
 20
58.8669623851
 10
48.9130011438
 20
58.8332062711
 10
48.985680608
 20
58.8031046294
 10
49.0596224969
 20
58.7769059986
 10
49.1348270679
 20
58.7546440301
 10
49.2112940637
 20
58.7362850726
 10
49.2884190642
 20
58.7219767103
 10
49.3660005958
 20
58.7117681382
 10
49.4442401321
 20
58.7056101613
 10
49.5231376732
 20
58.7035027797
  0
LWPOLYLINE
  5
314
100
AcDbEntity
  8
RACCORDO
100
AcDbPolyline
 62
253
  6
CONTINUOUS
 90
31
 70
0
 10
47.5251387977
 20
60.2043432223
 10
47.5278901637
 20
60.0996380026
 10
47.5361171048
 20
59.9952400561
 10
47.5497941197
 20
59.8914352604
 10
47.5688788466
 20
59.7885165141
 10
47.5933171278
 20
59.6867560599
 10
47.6230478316
 20
59.5864058346
 10
47.6579956565
 20
59.4877285153
 10
47.6980626794
 20
59.391007744
 10
47.7431347596
 20
59.2965204197
 10
47.7930850372
 20
59.2045300724
 10
47.847778453
 20
59.1152831746
 10
47.9070673448
 20
59.0290203606
 10
47.9707904947
 20
58.9459766434
 10
48.0387724825
 20
58.8663809832
 10
48.1108266595
 20
58.7904520332
 10
48.186755618
 20
58.7183978458
 10
48.2663514051
 20
58.6504157342
 10
48.3493955256
 20
58.5866922183
 10
48.4356591755
 20
58.5274026678
 10
48.5249072406
 20
58.4727084375
 10
48.6168988516
 20
58.4227573345
 10
48.7113874597
 20
58.3776844534
 10
48.8081095982
 20
58.3376166185
 10
48.90678832
 20
58.3026679684
 10
49.007139549
 20
58.2729365381
 10
49.1089010208
 20
58.248497467
 10
49.2118220676
 20
58.2294116658
 10
49.3156308997
 20
58.2157334401
 10
49.4200342025
 20
58.2075054474
 10
49.5247460805
 20
58.2047533896
  0
LINE
  5
315
100
AcDbEntity
  8
RACCORDO
100
AcDbLine
 62
7
  6
CONTINUOUS
 10
47.5022640279
 20
151.1823066984
 11
47.5022640279
 21
60.1814688118
  0
LINE
  5
316
100
AcDbEntity
  8
RACCORDO
100
AcDbLine
 62
253
  6
CONTINUOUS
 10
47.5251387977
 20
151.1594322879
 11
47.5251387977
 21
60.2043432223
  0
LWPOLYLINE
  5
317
100
AcDbEntity
  8
RACCORDO
100
AcDbPolyline
 62
7
  6
CONTINUOUS
 90
31
 70
0
 10
47.5022640279
 20
151.1823066984
 10
47.5049577518
 20
151.2867659782
 10
47.5130995804
 20
151.3906442674
 10
47.5266895136
 20
151.4939415659
 10
47.5458167877
 20
151.5970756884
 10
47.5703921666
 20
151.6996288203
 10
47.6001479414
 20
151.8003475173
 10
47.6351379732
 20
151.899087512
 10
47.675308401
 20
151.9959930719
 10
47.7202299331
 20
152.0902435557
 10
47.7697900997
 20
152.1816438751
 10
47.8241013706
 20
152.2703891184
 10
47.883071863
 20
152.35624391
 10
47.9469210743
 20
152.439470664
 10
48.0154295073
 20
152.5198069664
 10
48.0878467871
 20
152.5962301985
 10
48.1642623909
 20
152.6686478687
 10
48.2445868417
 20
152.7371524688
 10
48.3278013331
 20
152.8009988558
 10
48.4136406201
 20
152.859967892
 10
48.5023699479
 20
152.9142787152
 10
48.5937662442
 20
152.9638435951
 10
48.6880322389
 20
153.0087789386
 10
48.7849652024
 20
153.048968339
 10
48.8837338737
 20
153.0839748454
 10
48.9844816565
 20
153.1137421207
 10
49.0870651472
 20
153.1383265021
 10
49.1902228741
 20
153.1574600509
 10
49.2935343463
 20
153.1710534541
 10
49.3974200547
 20
153.1791960247
 10
49.5018799992
 20
153.1818877628
  0
LWPOLYLINE
  5
318
100
AcDbEntity
  8
RACCORDO
100
AcDbPolyline
 62
253
  6
CONTINUOUS
 90
3
 70
0
 10
49.5244658351
 20
58.2136549274
 10
49.5246053296
 20
58.2073590971
 10
49.5247460805
 20
58.2047533896
  0
LINE
  5
319
100
AcDbEntity
  8
RACCORDO
100
AcDbLine
 62
253
  6
CONTINUOUS
 10
49.5241947384
 20
58.2371030607
 11
49.5244658351
 21
58.2136549274
  0
LINE
  5
31A
100
AcDbEntity
  8
RACCORDO
100
AcDbLine
 62
253
  6
CONTINUOUS
 10
49.5236084199
 20
58.3538040214
 11
49.5241947384
 21
58.2371030607
  0
LINE
  5
31B
100
AcDbEntity
  8
RACCORDO
100
AcDbLine
 62
253
  6
CONTINUOUS
 10
49.5231376732
 20
58.7035027797
 11
49.5236084199
 21
58.3538040214
  0
LINE
  5
31C
100
AcDbEntity
  8
RACCORDO
100
AcDbLine
 62
253
  6
CONTINUOUS
 10
48.0233881726
 20
151.1605494076
 11
48.0233881726
 21
60.2032261027
  0
LINE
  5
31D
100
AcDbEntity
  8
RACCORDO
100
AcDbLine
 62
253
  6
CONTINUOUS
 10
49.5231376732
 20
152.6602727305
 11
49.5237116115
 21
153.0393205403
  0
LINE
  5
31E
100
AcDbEntity
  8
RACCORDO
100
AcDbLine
 62
253
  6
CONTINUOUS
 10
49.5237116115
 20
153.0393205403
 11
49.5241947413
 21
153.1266662218
  0
LWPOLYLINE
  5
31F
100
AcDbEntity
  8
RACCORDO
100
AcDbPolyline
 62
253
  6
CONTINUOUS
 90
4
 70
0
 10
49.5241947413
 20
153.1266662218
 10
49.524465837
 20
153.1501139623
 10
49.5246053309
 20
153.1564096831
 10
49.5247460812
 20
153.1590153414
  0
LWPOLYLINE
  5
320
100
AcDbEntity
  8
RACCORDO
100
AcDbPolyline
 62
253
  6
CONTINUOUS
 90
31
 70
0
 10
180.4797819808
 20
58.2047533896
 10
180.5844900334
 20
58.2075052466
 10
180.6888907094
 20
58.2157327616
 10
180.7926981206
 20
58.2294104186
 10
180.8956193771
 20
58.2484958383
 10
180.9973822103
 20
58.2729348501
 10
181.0977346245
 20
58.3026663067
 10
181.1964139334
 20
58.3376148808
 10
181.2931365
 20
58.3776826283
 10
181.3876253938
 20
58.4227553913
 10
181.479617088
 20
58.4727062836
 10
181.568865118
 20
58.5274002221
 10
181.6551288297
 20
58.5866895268
 10
181.7381732212
 20
58.6504129535
 10
181.8177693482
 20
58.7183950595
 10
181.8936985522
 20
58.7904491838
 10
181.9657527964
 20
58.8663778928
 10
182.0337347934
 20
58.945973218
 10
182.0974580353
 20
59.0290166692
 10
182.1567471749
 20
59.1152794261
 10
182.2114408838
 20
59.2045263637
 10
182.2613913725
 20
59.2965166316
 10
182.3064635703
 20
59.3910036729
 10
182.3465306794
 20
59.4877240178
 10
182.3814785786
 20
59.5864007504
 10
182.4112092539
 20
59.6867497893
 10
182.4356475921
 20
59.7885088795
 10
182.4547326982
 20
59.8914274116
 10
182.4684102799
 20
59.9952336218
 10
182.4766376972
 20
60.099634187
 10
182.4793892635
 20
60.2043432223
  0
LWPOLYLINE
  5
321
100
AcDbEntity
  8
RACCORDO
100
AcDbPolyline
 62
7
  6
CONTINUOUS
 90
31
 70
0
 10
49.5018799992
 20
58.1818877474
 10
49.3974163812
 20
58.1845815992
 10
49.293533974
 20
58.1927236491
 10
49.1902327777
 20
58.2063138972
 10
49.0870949556
 20
58.225441611
 10
48.9845383443
 20
58.2500175231
 10
48.8838164537
 20
58.2797738308
 10
48.7850735825
 20
58.3147643852
 10
48.6881654317
 20
58.3549353355
 10
48.5939126148
 20
58.3998573261
 10
48.5025102028
 20
58.4494178998
 10
48.4137631244
 20
58.5037295141
 10
48.3279067791
 20
58.5627001854
 10
48.2446787651
 20
58.626549412
 10
48.1643414839
 20
58.6950576958
 10
48.0879175405
 20
58.7674745588
 10
48.0154994563
 20
58.8438894481
 10
47.9469947095
 20
58.9242129167
 10
47.8831483394
 20
59.0074261457
 10
47.8241794822
 20
59.093263878
 10
47.7698690013
 20
59.1819913708
 10
47.720304527
 20
59.2733855764
 10
47.6753696396
 20
59.367649243
 10
47.6351807585
 20
59.4645796225
 10
47.6001747725
 20
59.5633454227
 10
47.5704080297
 20
59.6640900151
 10
47.5458241819
 20
59.7666700284
 10
47.5266910734
 20
59.8698240554
 10
47.5130979857
 20
59.9731316271
 10
47.5049556372
 20
60.0770132126
 10
47.5022640279
 20
60.1814688118
  0
LWPOLYLINE
  5
322
100
AcDbEntity
  8
RACCORDO
100
AcDbPolyline
 62
253
  6
CONTINUOUS
 90
31
 70
0
 10
180.4813903881
 20
58.7035027797
 10
180.5602850819
 20
58.7056098349
 10
180.6385226303
 20
58.7117676061
 10
180.7161030332
 20
58.7219760934
 10
180.7932280763
 20
58.7362845789
 10
180.8696959739
 20
58.7546437805
 10
180.9449013692
 20
58.7769058515
 10
181.0188437041
 20
58.8031043043
 10
181.0915235367
 20
58.8332056265
 10
181.1623371846
 20
58.8669614338
 10
181.2312652536
 20
58.9044006387
 10
181.298327138
 20
58.9454943287
 10
181.362977338
 20
58.9899073824
 10
181.4251972766
 20
59.0376674592
 10
181.485005531
 20
59.0887468998
 10
181.5419123324
 20
59.1427276038
 10
181.5958937566
 20
59.1996334202
 10
181.646973728
 20
59.2594405002
 10
181.6947342514
 20
59.3216591976
 10
181.7391476898
 20
59.3863081977
 10
181.7802416804
 20
59.4533688153
 10
181.8176811398
 20
59.5222953484
 10
181.8514372046
 20
59.5931071042
 10
181.8815387382
 20
59.6657847754
 10
181.9077372475
 20
59.7397247382
 10
181.9299990836
 20
59.8149272397
 10
181.9483578954
 20
59.8913920328
 10
181.9626661364
 20
59.9685147521
 10
181.9728746245
 20
60.0460939426
 10
181.9790325419
 20
60.1243310595
 10
181.9811398887
 20
60.2032261027
  0
LWPOLYLINE
  5
323
100
AcDbEntity
  8
RACCORDO
100
AcDbPolyline
 62
253
  6
CONTINUOUS
 90
3
 70
0
 10
182.4704982072
 20
60.2041487013
 10
182.4767864305
 20
60.2042455263
 10
182.4793892635
 20
60.2043432223
  0
LINE
  5
324
100
AcDbEntity
  8
RACCORDO
100
AcDbLine
 62
253
  6
CONTINUOUS
 10
182.4301214649
 20
60.2038705636
 11
182.4704982072
 21
60.2041487013
  0
LINE
  5
325
100
AcDbEntity
  8
RACCORDO
100
AcDbLine
 62
7
  6
CONTINUOUS
 10
49.5018799992
 20
58.1818877474
 11
180.502648062
 21
58.1818877474
  0
LINE
  5
326
100
AcDbEntity
  8
RACCORDO
100
AcDbLine
 62
253
  6
CONTINUOUS
 10
49.5247460805
 20
58.2047533896
 11
180.4797819808
 21
58.2047533896
  0
LINE
  5
327
100
AcDbEntity
  8
RACCORDO
100
AcDbLine
 62
253
  6
CONTINUOUS
 10
49.5231376732
 20
58.7035027797
 11
180.4813903881
 21
58.7035027797
  0
LINE
  5
328
100
AcDbEntity
  8
RACCORDO
100
AcDbLine
 62
253
  6
CONTINUOUS
 10
181.9811398887
 20
60.2032261027
 11
182.4301214649
 21
60.2038705636
  0
LINE
  5
329
100
AcDbEntity
  8
RACCORDO
100
AcDbLine
 62
253
  6
CONTINUOUS
 10
48.0233881726
 20
60.2032261027
 11
47.5947092832
 21
60.2037842562
  0
LWPOLYLINE
  5
32A
100
AcDbEntity
  8
RACCORDO
100
AcDbPolyline
 62
253
  6
CONTINUOUS
 90
5
 70
0
 10
47.5947092832
 20
60.2037842562
 10
47.5439633209
 20
60.2040534663
 10
47.5340364748
 20
60.2041487025
 10
47.5277483615
 20
60.2042455272
 10
47.5251455784
 20
60.2043432229
  0
LINE
  5
32B
100
AcDbEntity
  8
0
100
AcDbLine
 62
7
  6
CONTINUOUS
 10
109.9063810306
 20
143.6277077551
 11
110.5545590306
 21
145.8989267551
  0
LINE
  5
32C
100
AcDbEntity
  8
0
100
AcDbLine
 62
7
  6
CONTINUOUS
 10
111.2428450306
 20
145.8989267551
 11
110.1822200306
 21
142.5993237551
  0
LINE
  5
32D
100
AcDbEntity
  8
0
100
AcDbLine
 62
7
  6
CONTINUOUS
 10
114.2255840306
 20
144.0669767551
 11
114.9143410306
 21
145.8989267551
  0
LINE
  5
32E
100
AcDbEntity
  8
0
100
AcDbLine
 62
7
  6
CONTINUOUS
 10
115.0890540306
 20
144.7449207551
 11
114.2701220306
 21
142.5993237551
  0
LINE
  5
32F
100
AcDbEntity
  8
RACCORDO
100
AcDbLine
 62
253
  6
CONTINUOUS
 10
47.5251387977
 20
60.2043432223
 11
47.5022640279
 21
60.1814688118
  0
LINE
  5
330
100
AcDbEntity
  8
RACCORDO
100
AcDbLine
 62
253
  6
CONTINUOUS
 10
49.5247460805
 20
58.2047533896
 11
49.5018799992
 21
58.1818877474
  0
LINE
  5
331
100
AcDbEntity
  8
RACCORDO
100
AcDbLine
 62
253
  6
CONTINUOUS
 10
47.5251387977
 20
151.1594322879
 11
47.5022640279
 21
151.1823066984
  0
LINE
  5
332
100
AcDbEntity
  8
RACCORDO
100
AcDbLine
 62
253
  6
CONTINUOUS
 10
49.5247460805
 20
153.1590221206
 11
49.5018799992
 21
153.1818877628
  0
LINE
  5
333
100
AcDbEntity
  8
0
100
AcDbLine
 62
7
  6
CONTINUOUS
 10
112.5579800306
 20
142.5993237551
 11
112.8559150306
 21
145.8989267551
  0
LINE
  5
334
100
AcDbEntity
  8
0
100
AcDbLine
 62
7
  6
CONTINUOUS
 10
117.3676710306
 20
144.9922797551
 11
117.0247280306
 21
143.7677557551
  0
LINE
  5
335
100
AcDbEntity
  8
0
100
AcDbLine
 62
7
  6
CONTINUOUS
 10
116.8838390306
 20
143.2580417551
 11
116.6937850306
 21
142.5993237551
  0
LINE
  5
336
100
AcDbEntity
  8
0
100
AcDbLine
 62
7
  6
CONTINUOUS
 10
116.0125010306
 20
142.5993237551
 11
117.0474670306
 21
145.8989267551
  0
LINE
  5
337
100
AcDbEntity
  8
0
100
AcDbLine
 62
7
  6
CONTINUOUS
 10
111.4984440306
 20
142.5993237551
 11
111.4984440306
 21
145.8991247551
  0
LINE
  5
338
100
AcDbEntity
  8
0
100
AcDbLine
 62
7
  6
CONTINUOUS
 10
112.1872000306
 20
145.8991247551
 11
112.1872000306
 21
142.5993237551
  0
LINE
  5
339
100
AcDbEntity
  8
0
100
AcDbLine
 62
253
  6
CONTINUOUS
 10
115.0022640306
 20
152.6602728451
 11
115.0022640306
 21
105.6818877551
  0
LINE
  5
33A
100
AcDbEntity
  8
RACCORDO
100
AcDbLine
 62
253
  6
CONTINUOUS
 10
115.0022640306
 20
58.1818877583
 11
115.0022640306
 21
105.6818877551
  0
LINE
  5
33B
100
AcDbEntity
  8
RACCORDO
100
AcDbLine
 62
253
  6
CONTINUOUS
 10
115.0022640306
 20
152.6602728451
 11
115.0022640306
 21
153.1818877519
  0
LINE
  5
33C
100
AcDbEntity
  8
0
100
AcDbLine
 62
7
  6
CONTINUOUS
 10
113.3655290306
 20
144.7539027551
 11
113.2168960306
 21
142.5993237551
  0
LINE
  5
33D
100
AcDbEntity
  8
RACCORDO
100
AcDbLine
 62
253
  6
CONTINUOUS
 10
47.5022640264
 20
105.681887767
 11
182.5022640348
 21
105.6818877432
  0
LINE
  5
33E
100
AcDbEntity
  8
0
100
AcDbLine
 62
7
  6
CONTINUOUS
 10
115.5957980306
 20
145.8989267551
 11
115.9043480306
 21
142.5993237551
  0
LINE
  5
33F
100
AcDbEntity
  8
0
100
AcDbLine
 62
7
  6
CONTINUOUS
 10
115.2305610306
 20
142.5993237551
 11
115.0890540306
 21
144.7449207551
  0
LINE
  5
340
100
AcDbEntity
  8
0
100
AcDbLine
 62
7
  6
CONTINUOUS
 10
118.9284084218
 20
142.5993239684
 11
118.9284084218
 21
145.8603766835
  0
LINE
  5
341
100
AcDbEntity
  8
0
100
AcDbLine
 62
7
  6
CONTINUOUS
 10
119.5915555353
 20
145.3368069316
 11
119.5915555353
 21
144.4310015688
  0
LINE
  5
342
100
AcDbEntity
  8
0
100
AcDbLine
 62
7
  6
CONTINUOUS
 10
119.6143936677
 20
143.8906063239
 11
119.6143936677
 21
142.5993239684
  0
LINE
  5
343
100
AcDbEntity
  8
0
100
AcDbLine
 62
7
  6
CONTINUOUS
 10
120.6991678403
 20
144.1590471669
 11
120.6991678403
 21
144.1395493898
  0
LINE
  5
344
100
AcDbEntity
  8
0
100
AcDbLine
 62
7
  6
CONTINUOUS
 10
109.5752530306
 20
142.5993237551
 11
108.5292150306
 21
145.8989267551
  0
LINE
  5
345
100
AcDbEntity
  8
0
100
AcDbLine
 62
7
  6
CONTINUOUS
 10
109.2774170306
 20
145.8989267551
 11
109.9063810306
 21
143.6277077551
  0
LWPOLYLINE
  5
346
100
AcDbEntity
  8
0
100
AcDbPolyline
 62
7
  6
CONTINUOUS
 90
22
 70
0
 10
120.5202012511
 20
144.9436147902
 10
120.518911083
 20
144.9700198549
 10
120.5158201523
 20
144.9968037016
 10
120.5109003171
 20
145.0238253199
 10
120.5041301075
 20
145.0509167765
 10
120.4954829779
 20
145.077932614
 10
120.4849166559
 20
145.1047466264
 10
120.4723888048
 20
145.1311953048
 10
120.4578827503
 20
145.1570478535
 10
120.4413954437
 20
145.1820575979
 10
120.4228601856
 20
145.2060596698
 10
120.4023081125
 20
145.2287416986
 10
120.3799773941
 20
145.2497161619
 10
120.3560615006
 20
145.2689155234
 10
120.3307036096
 20
145.2863445846
 10
120.3042128692
 20
145.3019052816
 10
120.2768688302
 20
145.3155588474
 10
120.2487773491
 20
145.3273586798
 10
120.2199920631
 20
145.3373474763
 10
120.1906454558
 20
145.3455130748
 10
120.1609598214
 20
145.3518158796
 10
120.1311167603
 20
145.3562325087
  0
LINE
  5
347
100
AcDbEntity
  8
RACCORDO
100
AcDbLine
 62
253
  6
CONTINUOUS
 10
180.4797819808
 20
153.1590221206
 11
180.502648062
 21
153.1818877628
  0
LINE
  5
348
100
AcDbEntity
  8
RACCORDO
100
AcDbLine
 62
253
  6
CONTINUOUS
 10
180.4797819808
 20
58.2047533896
 11
180.502648062
 21
58.1818877474
  0
LINE
  5
349
100
AcDbEntity
  8
0
100
AcDbLine
 62
7
  6
CONTINUOUS
 10
114.1735240306
 20
142.5993237551
 11
113.3655290306
 21
144.7539027551
  0
LINE
  5
34A
100
AcDbEntity
  8
0
100
AcDbLine
 62
7
  6
CONTINUOUS
 10
113.5441020306
 20
145.8989267551
 11
114.2255840306
 21
144.0669767551
  0
LINE
  5
34B
100
AcDbEntity
  8
0
100
AcDbLine
 62
7
  6
CONTINUOUS
 10
118.0002350306
 20
142.5993237551
 11
117.8218110306
 21
143.2580417551
  0
LINE
  5
34C
100
AcDbEntity
  8
0
100
AcDbLine
 62
7
  6
CONTINUOUS
 10
117.6841630306
 20
143.7677557551
 11
117.3676710306
 21
144.9922797551
  0
LINE
  5
34D
100
AcDbEntity
  8
RACCORDO
100
AcDbLine
 62
253
  6
CONTINUOUS
 10
182.4793892635
 20
151.1594322879
 11
182.5022640333
 21
151.1823066984
  0
LINE
  5
34E
100
AcDbEntity
  8
RACCORDO
100
AcDbLine
 62
253
  6
CONTINUOUS
 10
182.4793892635
 20
60.2043432223
 11
182.5022640333
 21
60.1814688118
  0
LWPOLYLINE
  5
34F
100
AcDbEntity
  8
0
100
AcDbPolyline
 62
7
  6
CONTINUOUS
 90
22
 70
0
 10
120.3678750807
 20
143.6000793607
 10
120.3589399253
 20
143.6223084657
 10
120.3489582413
 20
143.6442253774
 10
120.3379684733
 20
143.665729785
 10
120.326024815
 20
143.6866967559
 10
120.3131504181
 20
143.7070604367
 10
120.2993244779
 20
143.7268066299
 10
120.2845601561
 20
143.74585134
 10
120.2688918882
 20
143.7640818418
 10
120.2523142801
 20
143.7814302668
 10
120.2348672266
 20
143.7977762962
 10
120.2165524761
 20
143.8130370665
 10
120.1972900412
 20
143.8271776601
 10
120.1770930261
 20
143.8400698428
 10
120.155965462
 20
143.8515883362
 10
120.1338139281
 20
143.861686263
 10
120.1107451786
 20
143.8703160509
 10
120.0868577596
 20
143.8774561433
 10
120.0620926514
 20
143.8831147047
 10
120.036515045
 20
143.8872391708
 10
120.0103270071
 20
143.8897553139
 10
119.983688495
 20
143.8906063239
  0
LINE
  5
350
100
AcDbEntity
  8
0
100
AcDbLine
 62
7
  6
CONTINUOUS
 10
117.7137560306
 20
145.8989267551
 11
118.7261560306
 21
142.5993237551
  0
LWPOLYLINE
  5
351
100
AcDbEntity
  8
0
100
AcDbPolyline
 62
7
  6
CONTINUOUS
 90
8
 70
0
 10
120.4731552178
 20
143.2770760236
 10
120.459432881
 20
143.3236147117
 10
120.4454105338
 20
143.370013727
 10
120.4310170627
 20
143.4162430206
 10
120.4161464538
 20
143.4623806027
 10
120.400711435
 20
143.5084343083
 10
120.3846466149
 20
143.5543428684
 10
120.3678750444
 20
143.6000793471
  0
LINE
  5
352
100
AcDbEntity
  8
0
100
AcDbLine
 62
7
  6
CONTINUOUS
 10
120.6691293866
 20
142.5993239684
 11
120.553921471
 21
142.9941176041
  0
LINE
  5
353
100
AcDbEntity
  8
0
100
AcDbLine
 62
7
  6
CONTINUOUS
 10
120.5000295028
 20
143.1835492426
 11
120.4731552178
 21
143.2770760236
  0
LINE
  5
354
100
AcDbEntity
  8
0
100
AcDbLine
 62
7
  6
CONTINUOUS
 10
120.553921471
 20
142.9941176041
 11
120.5000295028
 21
143.1835492426
  0
LWPOLYLINE
  5
355
100
AcDbEntity
  8
0
100
AcDbPolyline
 62
7
  6
CONTINUOUS
 90
3
 70
0
 10
121.0719579569
 20
143.5814564153
 10
121.0840989608
 20
143.5370323671
 10
121.1241346018
 20
143.388917268
  0
LINE
  5
356
100
AcDbEntity
  8
0
100
AcDbLine
 62
7
  6
CONTINUOUS
 10
121.3062771075
 20
142.6941057415
 11
121.3316331724
 21
142.5993239684
  0
LINE
  5
357
100
AcDbEntity
  8
0
100
AcDbLine
 62
7
  6
CONTINUOUS
 10
121.1241346018
 20
143.388917268
 11
121.1781360582
 21
143.1851074435
  0
LINE
  5
358
100
AcDbEntity
  8
0
100
AcDbLine
 62
7
  6
CONTINUOUS
 10
121.1781360582
 20
143.1851074435
 11
121.3062771075
 21
142.6941057415
  0
LINE
  5
359
100
AcDbEntity
  8
0
100
AcDbLine
 62
7
  6
CONTINUOUS
 10
121.3316331724
 20
142.5993239684
 11
120.6691293866
 21
142.5993239684
  0
LINE
  5
35A
100
AcDbEntity
  8
0
100
AcDbLine
 62
7
  6
CONTINUOUS
 10
119.6143936677
 20
142.5993239684
 11
118.9284084218
 21
142.5993239684
  0
LINE
  5
35B
100
AcDbEntity
  8
0
100
AcDbLine
 62
7
  6
CONTINUOUS
 10
118.7261560306
 20
142.5993237551
 11
118.0002350306
 21
142.5993237551
  0
LINE
  5
35C
100
AcDbEntity
  8
0
100
AcDbLine
 62
7
  6
CONTINUOUS
 10
116.6937850306
 20
142.5993237551
 11
116.0125010306
 21
142.5993237551
  0
LINE
  5
35D
100
AcDbEntity
  8
0
100
AcDbLine
 62
7
  6
CONTINUOUS
 10
115.9043480306
 20
142.5993237551
 11
115.2305610306
 21
142.5993237551
  0
LINE
  5
35E
100
AcDbEntity
  8
0
100
AcDbLine
 62
7
  6
CONTINUOUS
 10
114.2701220306
 20
142.5993237551
 11
114.1735240306
 21
142.5993237551
  0
LINE
  5
35F
100
AcDbEntity
  8
0
100
AcDbLine
 62
7
  6
CONTINUOUS
 10
113.2168960306
 20
142.5993237551
 11
112.5579800306
 21
142.5993237551
  0
LINE
  5
360
100
AcDbEntity
  8
0
100
AcDbLine
 62
7
  6
CONTINUOUS
 10
112.1872000306
 20
142.5993237551
 11
111.4984440306
 21
142.5993237551
  0
LINE
  5
361
100
AcDbEntity
  8
0
100
AcDbLine
 62
7
  6
CONTINUOUS
 10
110.1822200306
 20
142.5993237551
 11
109.5752530306
 21
142.5993237551
  0
LINE
  5
362
100
AcDbEntity
  8
0
100
AcDbLine
 62
7
  6
CONTINUOUS
 10
117.8218110306
 20
143.2580417551
 11
116.8838390306
 21
143.2580417551
  0
LWPOLYLINE
  5
363
100
AcDbEntity
  8
0
100
AcDbPolyline
 62
7
  6
CONTINUOUS
 90
3
 70
0
 10
120.6991678403
 20
144.1395493898
 10
120.7280917265
 20
144.1265566974
 10
120.7553238675
 20
144.1115045017
  0
LWPOLYLINE
  5
364
100
AcDbEntity
  8
0
100
AcDbPolyline
 62
7
  6
CONTINUOUS
 90
25
 70
0
 10
120.7553238675
 20
144.1115045017
 10
120.7809470918
 20
144.0946256488
 10
120.8051327097
 20
144.0760646627
 10
120.82785699
 20
144.0560919278
 10
120.8489445
 20
144.0351667681
 10
120.8683923295
 20
144.013647925
 10
120.8864210703
 20
143.9916294301
 10
120.9032076743
 20
143.969182677
 10
120.9188053449
 20
143.9465003424
 10
120.9333131582
 20
143.9236903707
 10
120.9469369962
 20
143.900640579
 10
120.9597521554
 20
143.8773968829
 10
120.9717705994
 20
143.854106206
 10
120.9830732979
 20
143.8307736398
 10
120.9936929575
 20
143.8074824516
 10
121.0036657662
 20
143.784300579
 10
121.0130634656
 20
143.7611966536
 10
121.0219045266
 20
143.7382514991
 10
121.0302208214
 20
143.7155068639
 10
121.0380877284
 20
143.6928666847
 10
121.0455258455
 20
143.6703688353
 10
121.0525531803
 20
143.648070012
 10
121.0592562692
 20
143.6258530014
 10
121.0657073799
 20
143.6036474507
 10
121.0719579569
 20
143.5814564153
  0
LWPOLYLINE
  5
365
100
AcDbEntity
  8
0
100
AcDbPolyline
 62
7
  6
CONTINUOUS
 90
19
 70
0
 10
118.9284084218
 20
145.8603766835
 10
119.0453071628
 20
145.8769796621
 10
119.1598704739
 20
145.8919028721
 10
119.2720377966
 20
145.9049468489
 10
119.3817616466
 20
145.9159508143
 10
119.4889859832
 20
145.9247881107
 10
119.5936458017
 20
145.9313652367
 10
119.6957043251
 20
145.9356224382
 10
119.7951258095
 20
145.9375289233
 10
119.8918538368
 20
145.9370815015
 10
119.9858373673
 20
145.9343045872
 10
120.0770809627
 20
145.9292447748
 10
120.1656147438
 20
145.9219609836
 10
120.251409572
 20
145.9123725551
 10
120.334121635
 20
145.9002709442
 10
120.4133052909
 20
145.8855533609
 10
120.4887294479
 20
145.8681907617
 10
120.5603676814
 20
145.8481910072
 10
120.6281543626
 20
145.8256369892
  0
LWPOLYLINE
  5
366
100
AcDbEntity
  8
0
100
AcDbPolyline
 62
7
  6
CONTINUOUS
 90
31
 70
0
 10
119.9851730973
 20
144.4310015688
 10
120.0173467843
 20
144.4322399568
 10
120.0486256715
 20
144.4344814705
 10
120.0788321841
 20
144.4376857441
 10
120.1075052717
 20
144.4417480548
 10
120.1348550784
 20
144.4466306182
 10
120.1617399674
 20
144.4524807244
 10
120.1881943855
 20
144.4593597892
 10
120.213999863
 20
144.4672656604
 10
120.2395973371
 20
144.4764209625
 10
120.2650558887
 20
144.4870045291
 10
120.2900499062
 20
144.4990518149
 10
120.314393926
 20
144.5126381963
 10
120.3380246435
 20
144.5279149954
 10
120.3607172749
 20
144.5449450667
 10
120.3820870903
 20
144.5635822378
 10
120.4019868909
 20
144.5836339275
 10
120.4204330188
 20
144.6050135712
 10
120.437354353
 20
144.6275608153
 10
120.4526880498
 20
144.6511230649
 10
120.4663769141
 20
144.6755564974
 10
120.4783623826
 20
144.7007161002
 10
120.4886025579
 20
144.7264448267
 10
120.497186617
 20
144.7526524913
 10
120.5042431665
 20
144.779301594
 10
120.509876346
 20
144.8063054186
 10
120.5141857204
 20
144.8335604053
 10
120.5172761971
 20
144.8610090789
 10
120.5192450576
 20
144.888569992
 10
120.520187655
 20
144.9161366947
 10
120.520201236
 20
144.9436147899
  0
LINE
  5
367
100
AcDbEntity
  8
0
100
AcDbLine
 62
7
  6
CONTINUOUS
 10
117.0247280306
 20
143.7677557551
 11
117.6841630306
 21
143.7677557551
  0
LINE
  5
368
100
AcDbEntity
  8
0
100
AcDbLine
 62
7
  6
CONTINUOUS
 10
119.983688495
 20
143.8906063239
 11
119.6143936677
 21
143.8906063239
  0
LINE
  5
369
100
AcDbEntity
  8
0
100
AcDbLine
 62
7
  6
CONTINUOUS
 10
119.5915555353
 20
144.4310015688
 11
119.9851730973
 21
144.4310015688
  0
LINE
  5
36A
100
AcDbEntity
  8
0
100
AcDbLine
 62
7
  6
CONTINUOUS
 10
108.5292150306
 20
145.8989267551
 11
109.2774170306
 21
145.8989267551
  0
LINE
  5
36B
100
AcDbEntity
  8
0
100
AcDbLine
 62
7
  6
CONTINUOUS
 10
110.5545590306
 20
145.8989267551
 11
111.2428450306
 21
145.8989267551
  0
LINE
  5
36C
100
AcDbEntity
  8
0
100
AcDbLine
 62
7
  6
CONTINUOUS
 10
112.8559150306
 20
145.8989267551
 11
113.5441020306
 21
145.8989267551
  0
LINE
  5
36D
100
AcDbEntity
  8
0
100
AcDbLine
 62
7
  6
CONTINUOUS
 10
114.9143410306
 20
145.8989267551
 11
115.5957980306
 21
145.8989267551
  0
LINE
  5
36E
100
AcDbEntity
  8
0
100
AcDbLine
 62
7
  6
CONTINUOUS
 10
117.0474670306
 20
145.8989267551
 11
117.7137560306
 21
145.8989267551
  0
LINE
  5
36F
100
AcDbEntity
  8
0
100
AcDbLine
 62
7
  6
CONTINUOUS
 10
111.4984440306
 20
145.8991247551
 11
112.1872000306
 21
145.8991247551
  0
LWPOLYLINE
  5
370
100
AcDbEntity
  8
0
100
AcDbPolyline
 62
7
  6
CONTINUOUS
 90
10
 70
0
 10
120.1311167603
 20
145.3562325085
 10
120.0745896314
 20
145.3618628519
 10
120.0170115588
 20
145.3657071133
 10
119.9584604908
 20
145.3676849793
 10
119.8990264527
 20
145.3677151489
 10
119.8387979684
 20
145.3657154251
 10
119.7778624061
 20
145.3616011556
 10
119.7163238282
 20
145.3552887033
 10
119.6542385162
 20
145.3468827119
 10
119.5915555353
 20
145.3368069316
  0
LWPOLYLINE
  5
371
100
AcDbEntity
  8
0
100
AcDbPolyline
 62
7
  6
CONTINUOUS
 90
61
 70
0
 10
120.6281543626
 20
145.8256369892
 10
120.6643091239
 20
145.8110870282
 10
120.7009950778
 20
145.793297371
 10
120.7380767747
 20
145.7723233551
 10
120.7753224617
 20
145.7483693747
 10
120.8126683482
 20
145.7215309302
 10
120.8501305866
 20
145.6914944525
 10
120.8875500034
 20
145.6579143822
 10
120.9244008493
 20
145.6207287326
 10
120.9600907381
 20
145.579997258
 10
120.9944364598
 20
145.5353787894
 10
121.0268119148
 20
145.4871309018
 10
121.0561670708
 20
145.4364607205
 10
121.0823373114
 20
145.383438315
 10
121.105014797
 20
145.3284232543
 10
121.1235871652
 20
145.2733350065
 10
121.1382676547
 20
145.2187967954
 10
121.1494624491
 20
145.1647797835
 10
121.1574233236
 20
145.1123103132
 10
121.1625791628
 20
145.0619684134
 10
121.1653963934
 20
145.0135447025
 10
121.1661487158
 20
144.966847361
 10
121.1650150295
 20
144.9219845466
 10
121.1621753424
 20
144.8790312511
 10
121.1577676461
 20
144.8377127506
 10
121.1519199224
 20
144.7979956258
 10
121.1447825328
 20
144.7599759583
 10
121.1364755526
 20
144.7235620608
 10
121.1271360051
 20
144.6887710799
 10
121.1168909903
 20
144.655579077
 10
121.1058201239
 20
144.6238372931
 10
121.0940695072
 20
144.5936036704
 10
121.0817663927
 20
144.5648835955
 10
121.0689338131
 20
144.5374799188
 10
121.055659645
 20
144.5113856163
 10
121.0420500294
 20
144.4866320629
 10
121.0281122742
 20
144.4630824131
 10
121.0139120013
 20
144.4407240123
 10
120.9995263926
 20
144.4195625593
 10
120.9849535959
 20
144.399494252
 10
120.9702250008
 20
144.3804783291
 10
120.9554169985
 20
144.3625266938
 10
120.9405884826
 20
144.3455720441
 10
120.9257912437
 20
144.3295225925
 10
120.9110819276
 20
144.3143056797
 10
120.8965255739
 20
144.2998685896
 10
120.8821805929
 20
144.2861618918
 10
120.8680782415
 20
144.2731212335
 10
120.8542377196
 20
144.2606832908
 10
120.8407150427
 20
144.2488277321
 10
120.8275231769
 20
144.2375045597
 10
120.8146078127
 20
144.2266165774
 10
120.8020497812
 20
144.2161888421
 10
120.7898103671
 20
144.2061858795
 10
120.7776022366
 20
144.1965930732
 10
120.7653804897
 20
144.1876598436
 10
120.7530998939
 20
144.1796021104
 10
120.7404304702
 20
144.1724602289
 10
120.7272121481
 20
144.166447301
 10
120.7134788086
 20
144.1618862277
 10
120.6991678403
 20
144.1590471669
  0
LWPOLYLINE
  5
372
100
AcDbEntity
  8
RACCORDO
100
AcDbPolyline
 62
253
  6
CONTINUOUS
 90
31
 70
0
 10
49.5231376732
 20
152.6602727305
 10
49.4442429793
 20
152.6581656753
 10
49.3660054309
 20
152.6520079041
 10
49.2884250281
 20
152.6417994168
 10
49.211299985
 20
152.6274909313
 10
49.1348320873
 20
152.6091317297
 10
49.059626692
 20
152.5868696587
 10
48.9856843571
 20
152.5606712059
 10
48.9130045245
 20
152.5305698837
 10
48.8421908766
 20
152.4968140764
 10
48.7732628076
 20
152.4593748715
 10
48.7062009232
 20
152.4182811815
 10
48.6415507232
 20
152.3738681278
 10
48.5793307846
 20
152.326108051
 10
48.5195225303
 20
152.2750286104
 10
48.4626157288
 20
152.2210479064
 10
48.4086343047
 20
152.16414209
 10
48.3575543333
 20
152.10433501
 10
48.3097938098
 20
152.0421163126
 10
48.2653803714
 20
151.9774673125
 10
48.2242863808
 20
151.9104066949
 10
48.1868469214
 20
151.8414801618
 10
48.1530908566
 20
151.770668406
 10
48.122989323
 20
151.6979907348
 10
48.0967908137
 20
151.624050772
 10
48.0745289776
 20
151.5488482705
 10
48.0561701659
 20
151.4723834774
 10
48.0418619248
 20
151.3952607581
 10
48.0316534367
 20
151.3176815676
 10
48.0254955193
 20
151.2394444507
 10
48.0233881726
 20
151.1605494076
  0
LWPOLYLINE
  5
373
100
AcDbEntity
  8
RACCORDO
100
AcDbPolyline
 62
253
  6
CONTINUOUS
 90
31
 70
0
 10
49.5247460805
 20
153.1590221206
 10
49.4200380278
 20
153.1562702636
 10
49.3156373518
 20
153.1480427486
 10
49.2118299406
 20
153.1343650916
 10
49.1089086841
 20
153.1152796719
 10
49.007145851
 20
153.0908406601
 10
48.9067934367
 20
153.0611092035
 10
48.8081141279
 20
153.0261606294
 10
48.7113915612
 20
152.9860928819
 10
48.6169026674
 20
152.9410201189
 10
48.5249109732
 20
152.8910692266
 10
48.4356629433
 20
152.8363752881
 10
48.3493992315
 20
152.7770859834
 10
48.26635484
 20
152.7133625567
 10
48.186758713
 20
152.6453804507
 10
48.1108295091
 20
152.5733263264
 10
48.0387752648
 20
152.4973976174
 10
47.9707932679
 20
152.4178022922
 10
47.9070700259
 20
152.334758841
 10
47.8477808863
 20
152.2484960841
 10
47.7930871774
 20
152.1592491465
 10
47.7431366888
 20
152.0672588786
 10
47.698064491
 20
151.9727718373
 10
47.6579973819
 20
151.8760514924
 10
47.6230494826
 20
151.7773747598
 10
47.5933188073
 20
151.6770257209
 10
47.5688804691
 20
151.5752666307
 10
47.549795363
 20
151.4723480986
 10
47.5361177814
 20
151.3685418884
 10
47.527890364
 20
151.2641413232
 10
47.5251387977
 20
151.1594322879
  0
LWPOLYLINE
  5
374
100
AcDbEntity
  8
RACCORDO
100
AcDbPolyline
 62
253
  6
CONTINUOUS
 90
3
 70
0
 10
47.534029854
 20
151.1596268089
 10
47.5277416308
 20
151.1595299839
 10
47.5251387977
 20
151.1594322879
  0
LINE
  5
375
100
AcDbEntity
  8
RACCORDO
100
AcDbLine
 62
253
  6
CONTINUOUS
 10
47.5744065964
 20
151.1599049466
 11
47.534029854
 21
151.1596268089
  0
LINE
  5
376
100
AcDbEntity
  8
RACCORDO
100
AcDbLine
 62
253
  6
CONTINUOUS
 10
48.0233881726
 20
151.1605494076
 11
47.5744065964
 21
151.1599049466
  0
LINE
  5
377
100
AcDbEntity
  8
RACCORDO
100
AcDbLine
 62
253
  6
CONTINUOUS
 10
180.4813903881
 20
152.6602727305
 11
49.5231376732
 21
152.6602727305
  0
LINE
  5
378
100
AcDbEntity
  8
RACCORDO
100
AcDbLine
 62
253
  6
CONTINUOUS
 10
180.4797819808
 20
153.1590221206
 11
49.5247460805
 21
153.1590221206
  0
LINE
  5
379
100
AcDbEntity
  8
RACCORDO
100
AcDbLine
 62
7
  6
CONTINUOUS
 10
180.502648062
 20
153.1818877628
 11
49.5018799992
 21
153.1818877628
  0
LINE
  5
37A
100
AcDbEntity
  8
RACCORDO
100
AcDbLine
 62
253
  6
CONTINUOUS
 10
181.9811398887
 20
151.1605494075
 11
182.409818778
 21
151.159991254
  0
LWPOLYLINE
  5
37B
100
AcDbEntity
  8
RACCORDO
100
AcDbPolyline
 62
253
  6
CONTINUOUS
 90
5
 70
0
 10
182.409818778
 20
151.159991254
 10
182.4605647404
 20
151.1597220439
 10
182.4704915865
 20
151.1596268077
 10
182.4767796997
 20
151.159529983
 10
182.4793824829
 20
151.1594322873
  0
LWPOLYLINE
  5
37C
100
AcDbEntity
  8
RACCORDO
100
AcDbPolyline
 62
7
  6
CONTINUOUS
 90
31
 70
0
 10
180.502648062
 20
153.1818877628
 10
180.6071116801
 20
153.179193911
 10
180.7109940872
 20
153.1710518611
 10
180.8142952835
 20
153.157461613
 10
180.9174331056
 20
153.1383338992
 10
181.0199897169
 20
153.1137579871
 10
181.1207116075
 20
153.0840016794
 10
181.2194544788
 20
153.049011125
 10
181.3163626295
 20
153.0088401747
 10
181.4106154464
 20
152.9639181841
 10
181.5020178584
 20
152.9143576104
 10
181.5907649368
 20
152.8600459961
 10
181.6766212821
 20
152.8010753249
 10
181.7598492962
 20
152.7372260982
 10
181.8401865773
 20
152.6687178144
 10
181.9166105208
 20
152.5963009514
 10
181.9890286049
 20
152.5198860621
 10
182.0575333517
 20
152.4395625935
 10
182.1213797218
 20
152.3563493645
 10
182.1803485791
 20
152.2705116322
 10
182.2346590599
 20
152.1817841394
 10
182.2842235342
 20
152.0903899338
 10
182.3291584216
 20
151.9961262672
 10
182.3693473027
 20
151.8991958877
 10
182.4043532887
 20
151.8004300875
 10
182.4341200315
 20
151.6996854951
 10
182.4587038793
 20
151.5971054818
 10
182.4778369878
 20
151.4939514548
 10
182.4914300756
 20
151.3906438831
 10
182.4995724241
 20
151.2867622976
 10
182.5022640333
 20
151.1823066984
  0
LWPOLYLINE
  5
37D
100
AcDbEntity
  8
RACCORDO
100
AcDbPolyline
 62
253
  6
CONTINUOUS
 90
31
 70
0
 10
181.9811398887
 20
151.1605494076
 10
181.9790328675
 20
151.2394416109
 10
181.9728751548
 20
151.3176767458
 10
181.9626667503
 20
151.3952548123
 10
181.9483583844
 20
151.4723775776
 10
181.9299993267
 20
151.5488432746
 10
181.9077373866
 20
151.6240466013
 10
181.881539054
 20
151.6979870098
 10
181.8514378389
 20
151.7706650482
 10
181.8176820804
 20
151.8414770588
 10
181.7802428664
 20
151.9104036545
 10
181.7391491088
 20
151.9774642225
 10
181.6947358829
 20
152.0421132674
 10
181.6469755268
 20
152.1043322193
 10
181.5958957024
 20
152.1641396482
 10
181.5419144708
 20
152.221045768
 10
181.4850079763
 20
152.2750266617
 10
181.4252000745
 20
152.3261062464
 10
181.3629803941
 20
152.3738664885
 10
181.2983302425
 20
152.4182797532
 10
181.231268312
 20
152.4593736753
 10
181.1623403084
 20
152.4968131251
 10
181.0915269174
 20
152.5305692391
 10
181.0188474533
 20
152.5606708808
 10
180.9449055643
 20
152.5868695116
 10
180.8697009933
 20
152.6091314801
 10
180.7932339975
 20
152.6274904376
 10
180.7161089971
 20
152.6417987999
 10
180.6385274654
 20
152.652007372
 10
180.5602879291
 20
152.6581653489
 10
180.4813903881
 20
152.6602727305
  0
LWPOLYLINE
  5
37E
100
AcDbEntity
  8
RACCORDO
100
AcDbPolyline
 62
253
  6
CONTINUOUS
 90
31
 70
0
 10
182.4793892635
 20
151.1594322879
 10
182.4766378975
 20
151.2641375076
 10
182.4684109565
 20
151.3685354541
 10
182.4547339415
 20
151.4723402498
 10
182.4356492146
 20
151.5752589961
 10
182.4112109334
 20
151.6770194503
 10
182.3814802296
 20
151.7773696756
 10
182.3465324047
 20
151.8760469949
 10
182.3064653818
 20
151.9727677662
 10
182.2613933016
 20
152.0672550905
 10
182.211443024
 20
152.1592454378
 10
182.1567496082
 20
152.2484923356
 10
182.0974607164
 20
152.3347551496
 10
182.0337375665
 20
152.4177988668
 10
181.9657555787
 20
152.497394527
 10
181.8937014017
 20
152.573323477
 10
181.8177724433
 20
152.6453776644
 10
181.7381766561
 20
152.713359776
 10
181.6551325357
 20
152.7770832919
 10
181.5688688857
 20
152.8363728425
 10
181.4796208206
 20
152.8910670727
 10
181.3876292096
 20
152.9410181757
 10
181.2931406015
 20
152.9860910568
 10
181.196418463
 20
153.0261588917
 10
181.0977397412
 20
153.0611075418
 10
180.9973885122
 20
153.0908389721
 10
180.8956270404
 20
153.1152780432
 10
180.7927059936
 20
153.1343638444
 10
180.6888971615
 20
153.1480420701
 10
180.5844938588
 20
153.1562700628
 10
180.4797819808
 20
153.1590221206
  0
LWPOLYLINE
  5
37F
100
AcDbEntity
  8
RACCORDO
100
AcDbPolyline
 62
253
  6
CONTINUOUS
 90
3
 70
0
 10
180.4800622262
 20
153.1501205828
 10
180.4799227317
 20
153.1564164131
 10
180.4797819808
 20
153.1590221206
  0
LINE
  5
380
100
AcDbEntity
  8
RACCORDO
100
AcDbLine
 62
253
  6
CONTINUOUS
 10
180.4803333228
 20
153.1266724495
 11
180.4800622262
 21
153.1501205828
  0
LINE
  5
381
100
AcDbEntity
  8
RACCORDO
100
AcDbLine
 62
253
  6
CONTINUOUS
 10
180.4809196414
 20
153.0099714888
 11
180.4803333228
 21
153.1266724495
  0
LINE
  5
382
100
AcDbEntity
  8
RACCORDO
100
AcDbLine
 62
253
  6
CONTINUOUS
 10
180.4813903881
 20
152.6602727305
 11
180.4809196414
 21
153.0099714888
  0
LINE
  5
383
100
AcDbEntity
  8
RACCORDO
100
AcDbLine
 62
253
  6
CONTINUOUS
 10
181.9811398887
 20
60.2032261027
 11
181.9811398887
 21
151.1605494076
  0
LINE
  5
384
100
AcDbEntity
  8
RACCORDO
100
AcDbLine
 62
253
  6
CONTINUOUS
 10
182.4793892635
 20
60.2043432223
 11
182.4793892635
 21
151.1594322879
  0
LINE
  5
385
100
AcDbEntity
  8
RACCORDO
100
AcDbLine
 62
7
  6
CONTINUOUS
 10
182.5022640333
 20
60.1814688118
 11
182.5022640333
 21
151.1823066984
  0
LINE
  5
386
100
AcDbEntity
  8
RACCORDO
100
AcDbLine
 62
253
  6
CONTINUOUS
 10
180.4813903881
 20
58.7035027797
 11
180.4808164497
 21
58.3244549699
  0
LINE
  5
387
100
AcDbEntity
  8
RACCORDO
100
AcDbLine
 62
253
  6
CONTINUOUS
 10
180.4808164497
 20
58.3244549699
 11
180.4803333199
 21
58.2371092884
  0
LWPOLYLINE
  5
388
100
AcDbEntity
  8
RACCORDO
100
AcDbPolyline
 62
253
  6
CONTINUOUS
 90
4
 70
0
 10
180.4803333199
 20
58.2371092884
 10
180.4800622243
 20
58.2136615479
 10
180.4799227303
 20
58.2073658271
 10
180.47978198
 20
58.2047601688
  0
LWPOLYLINE
  5
389
100
AcDbEntity
  8
RACCORDO
100
AcDbPolyline
 62
7
  6
CONTINUOUS
 90
31
 70
0
 10
182.5022640333
 20
60.1814688118
 10
182.4995703094
 20
60.077009532
 10
182.4914284808
 20
59.9731312428
 10
182.4778385476
 20
59.8698339444
 10
182.4587112735
 20
59.7666998218
 10
182.4341358946
 20
59.6641466899
 10
182.4043801199
 20
59.5634279929
 10
182.3693900881
 20
59.4646879982
 10
182.3292196602
 20
59.3677824383
 10
182.2842981282
 20
59.2735319545
 10
182.2347379616
 20
59.1821316351
 10
182.1804266906
 20
59.0933863918
 10
182.1214561982
 20
59.0075316002
 10
182.0576069869
 20
58.9243048462
 10
181.9890985539
 20
58.8439685438
 10
181.9166812742
 20
58.7675453117
 10
181.8402656703
 20
58.6951276415
 10
181.7599412195
 20
58.6266230414
 10
181.6767267282
 20
58.5627766544
 10
181.5908874411
 20
58.5038076182
 10
181.5021581134
 20
58.449496795
 10
181.410761817
 20
58.3999319151
 10
181.3164958224
 20
58.3549965716
 10
181.2195628588
 20
58.3148071712
 10
181.1207941875
 20
58.2798006648
 10
181.0200464047
 20
58.2500333895
 10
180.917462914
 20
58.2254490081
 10
180.8143051871
 20
58.2063154593
 10
180.7109937149
 20
58.1927220561
 10
180.6071080065
 20
58.1845794855
 10
180.502648062
 20
58.1818877474
  0
LINE
  5
38A
100
AcDbEntity
  8
RACCORDO
100
AcDbLine
 62
7
  6
CONTINUOUS
 10
258.1982691859
 20
58.2047532771
 11
256.8883044895
 21
58.1818877583
  0
LINE
  5
38B
100
AcDbEntity
  8
RACCORDO
100
AcDbLine
 62
7
  6
CONTINUOUS
 10
258.0910833642
 20
58.2047533896
 11
256.7810367215
 21
58.1818877474
  0
LINE
  5
38C
100
AcDbEntity
  8
RACCORDO
100
AcDbLine
 62
7
  6
CONTINUOUS
 10
256.7810367215
 20
58.1818877474
 11
256.8883044895
 21
58.1818877583
  0
LINE
  5
38D
100
AcDbEntity
  8
RACCORDO
100
AcDbLine
 62
7
  6
CONTINUOUS
 10
258.0910833642
 20
58.2047533896
 11
258.1982691859
 21
58.2047532771
  0
LINE
  5
38E
100
AcDbEntity
  8
RACCORDO
100
AcDbLine
 62
7
  6
CONTINUOUS
 10
246.844715896
 20
59.7318877551
 11
247.344715896
 21
59.7406152876
  0
LINE
  5
38F
100
AcDbEntity
  8
RACCORDO
100
AcDbLine
 62
253
  6
CONTINUOUS
 10
258.0895835338
 20
60.2043432223
 11
256.7790368165
 21
60.1814688118
  0
LINE
  5
390
100
AcDbEntity
  8
RACCORDO
100
AcDbLine
 62
253
  6
CONTINUOUS
 10
246.844715896
 20
60.5317659112
 11
247.344715896
 21
60.5404934437
  0
LINE
  5
391
100
AcDbEntity
  8
RACCORDO
100
AcDbLine
 62
253
  6
CONTINUOUS
 10
258.5823531019
 20
58.7035027797
 11
258.6895416033
 21
58.7035026651
  0
LINE
  5
392
100
AcDbEntity
  8
RACCORDO
100
AcDbLine
 62
253
  6
CONTINUOUS
 10
243.294715896
 20
60.8789440299
 11
243.4997411492
 21
60.8789440299
  0
LINE
  5
393
100
AcDbEntity
  8
RACCORDO
100
AcDbLine
 62
253
  6
CONTINUOUS
 10
258.5808532336
 20
60.2032261027
 11
258.0895834154
 21
60.2043432229
  0
LINE
  5
394
100
AcDbEntity
  8
RACCORDO
100
AcDbLine
 62
7
  6
CONTINUOUS
 10
244.7551559523
 20
58.8183611596
 11
246.844715896
 21
58.7818877551
  0
LINE
  5
395
100
AcDbEntity
  8
RACCORDO
100
AcDbLine
 62
253
  6
CONTINUOUS
 10
244.7551559523
 20
60.5181022414
 11
246.844715896
 21
60.4816288369
  0
LINE
  5
396
100
AcDbEntity
  8
RACCORDO
100
AcDbLine
 62
7
  6
CONTINUOUS
 10
256.7817626319
 20
58.4847699894
 11
247.344715896
 21
58.7318877551
  0
LINE
  5
397
100
AcDbEntity
  8
RACCORDO
100
AcDbLine
 62
253
  6
CONTINUOUS
 10
256.7800632872
 20
60.1842319408
 11
247.344715896
 21
60.4313052076
  0
LINE
  5
398
100
AcDbEntity
  8
RACCORDO
100
AcDbLine
 62
7
  6
CONTINUOUS
 10
243.294715896
 20
60.0658623513
 11
243.3032860667
 21
60.0641321183
  0
LWPOLYLINE
  5
399
100
AcDbEntity
  8
RACCORDO
100
AcDbPolyline
 62
7
  6
CONTINUOUS
 90
22
 70
0
 10
243.2909168299
 20
150.1806166053
 10
243.2807992185
 20
150.1746228831
 10
243.2714892319
 20
150.1637020035
 10
243.2630711043
 20
150.1479304916
 10
243.255636654
 20
150.1273948308
 10
243.2492386863
 20
150.1022203329
 10
243.2438739893
 20
150.0726077348
 10
243.2395735373
 20
150.0388480518
 10
243.236346302
 20
150.0010740764
 10
243.2341608484
 20
149.9592417439
 10
243.2330415826
 20
149.9133512367
 10
243.2330415826
 20
149.8637551919
 10
243.2341608484
 20
149.8109511669
 10
243.236346302
 20
149.7554223683
 10
243.2395735373
 20
149.6972699846
 10
243.2438739893
 20
149.6364401918
 10
243.2492386863
 20
149.5730183628
 10
243.255636654
 20
149.5074623187
 10
243.2630711043
 20
149.4402700907
 10
243.2714892319
 20
149.3718271067
 10
243.2807992185
 20
149.3023919682
 10
243.2909168299
 20
149.2322929501
  0
LWPOLYLINE
  5
39A
100
AcDbEntity
  8
RACCORDO
100
AcDbPolyline
 62
253
  6
CONTINUOUS
 90
22
 70
0
 10
238.9774112396
 20
148.7373378242
 10
238.9581283661
 20
148.728303613
 10
238.9404939707
 20
148.714669118
 10
238.9245944201
 20
148.6965011158
 10
238.9105075843
 20
148.6738885863
 10
238.8983024552
 20
148.6469422771
 10
238.888038809
 20
148.6157941611
 10
238.879766913
 20
148.5805967899
 10
238.87352728
 20
148.541522547
 10
238.8693504693
 20
148.4987628031
 10
238.8672569372
 20
148.4525269793
 10
238.8672569372
 20
148.4030415211
 10
238.8693504693
 20
148.3505487896
 10
238.87352728
 20
148.2953058742
 10
238.879766913
 20
148.2375833339
 10
238.888038809
 20
148.1776638718
 10
238.8983024552
 20
148.1158409506
 10
238.9105075843
 20
148.0524173557
 10
238.9245944201
 20
147.9877037118
 10
238.9404939707
 20
147.9220169618
 10
238.9581283661
 20
147.8556788145
 10
238.9774112396
 20
147.789014169
  0
LINE
  5
39B
100
AcDbEntity
  8
RACCORDO
100
AcDbLine
 62
7
  6
CONTINUOUS
 10
238.9774112396
 20
148.7373378242
 11
243.2909168299
 21
150.1806166053
  0
LINE
  5
39C
100
AcDbEntity
  8
RACCORDO
100
AcDbLine
 62
253
  6
CONTINUOUS
 10
238.9774112396
 20
147.789014169
 11
243.2909168299
 21
149.2322929501
  0
LINE
  5
39D
100
AcDbEntity
  8
DRAFT
100
AcDbLine
 62
7
  6
CONTINUOUS
 10
246.844715896
 20
64.1687974534
 11
247.344715896
 21
64.1731608873
  0
LINE
  5
39E
100
AcDbEntity
  8
0
100
AcDbLine
 62
7
  6
CONTINUOUS
 10
247.344715896
 20
63.2818877551
 11
246.844715896
 21
63.2818877551
  0
LINE
  5
39F
100
AcDbEntity
  8
RACCORDO
100
AcDbLine
 62
253
  6
CONTINUOUS
 10
238.9774112396
 20
63.5747613412
 11
238.294715896
 21
63.5747613412
  0
LINE
  5
3A0
100
AcDbEntity
  8
DRAFT
100
AcDbLine
 62
7
  6
CONTINUOUS
 10
246.844715896
 20
62.1818877551
 11
247.344715896
 21
62.1731602226
  0
LINE
  5
3A1
100
AcDbEntity
  8
RACCORDO
100
AcDbLine
 62
7
  6
CONTINUOUS
 10
238.9774112396
 20
62.626437686
 11
243.2909168299
 21
61.1831589049
  0
LINE
  5
3A2
100
AcDbEntity
  8
RACCORDO
100
AcDbLine
 62
253
  6
CONTINUOUS
 10
238.9774112396
 20
63.5747613412
 11
243.2909168299
 21
62.1314825601
  0
LINE
  5
3A3
100
AcDbEntity
  8
ASSI
100
AcDbLine
 62
7
  6
CONTINUOUS
 10
238.294715896
 20
67.6818877551
 11
237.794715896
 21
67.6818877551
  0
LWPOLYLINE
  5
3A4
100
AcDbEntity
  8
RACCORDO
100
AcDbPolyline
 62
253
  6
CONTINUOUS
 90
19
 70
0
 10
244.0655015776
 20
152.2526734366
 10
244.0271809376
 20
152.2102852134
 10
243.9930575692
 20
152.1639728751
 10
243.9632469254
 20
152.1138931434
 10
243.9378498544
 20
152.0602154676
 10
243.9169522938
 20
152.0031215083
 10
243.9006249679
 20
151.9428045318
 10
243.8889230996
 20
151.8794686568
 10
243.8818862583
 20
151.8133282062
 10
243.8795382434
 20
151.7446070516
 10
243.8818869657
 20
151.6735377499
 10
243.8889244431
 20
151.6003607865
 10
243.9006268389
 20
151.5253238201
 10
243.9169545166
 20
151.4486807725
 10
243.9378521928
 20
151.3706909795
 10
243.9632491348
 20
151.2916183504
 10
243.9930593785
 20
151.2117304471
 10
244.0271820192
 20
151.1312975788
 10
244.0655015672
 20
151.0505918989
  0
LINE
  5
3A5
100
AcDbEntity
  8
RACCORDO
100
AcDbLine
 62
7
  6
CONTINUOUS
 10
243.4997411492
 20
151.6869130083
 11
244.065494566
 21
152.252666425
  0
LINE
  5
3A6
100
AcDbEntity
  8
RACCORDO
100
AcDbLine
 62
253
  6
CONTINUOUS
 10
243.4997411492
 20
150.4848314803
 11
244.0655015776
 21
151.0505919086
  0
LINE
  5
3A7
100
AcDbEntity
  8
RACCORDO
100
AcDbLine
 62
253
  6
CONTINUOUS
 10
243.4997411492
 20
60.8787957647
 11
244.065494566
 21
60.3131906132
  0
LINE
  5
3A8
100
AcDbEntity
  8
RACCORDO
100
AcDbLine
 62
7
  6
CONTINUOUS
 10
243.490132697
 20
59.6864709541
 11
244.0655015776
 21
59.1111020736
  0
LINE
  5
3A9
100
AcDbEntity
  8
ASSI
100
AcDbLine
 62
7
  6
CONTINUOUS
 10
238.294715896
 20
73.6818877551
 11
237.794715896
 21
73.6818877551
  0
LWPOLYLINE
  5
3AA
100
AcDbEntity
  8
RACCORDO
100
AcDbPolyline
 62
253
  6
CONTINUOUS
 90
25
 70
0
 10
243.4997259281
 20
59.6768777255
 10
243.4864723674
 20
59.6929181565
 10
243.4747061218
 20
59.7128300025
 10
243.4643388139
 20
59.7363909706
 10
243.4552032645
 20
59.7634529965
 10
243.4472615253
 20
59.7937386271
 10
243.4406073597
 20
59.8268426137
 10
243.4351485197
 20
59.8624626152
 10
243.430721419
 20
59.9005150855
 10
243.4273639584
 20
59.9409743641
 10
243.4250527145
 20
59.9835931043
 10
243.4236511687
 20
60.028352607
 10
243.4231667723
 20
60.0756626752
 10
243.42366073
 20
60.1253915688
 10
243.4250720627
 20
60.1775130269
 10
243.4273913465
 20
60.2326783937
 10
243.4307496957
 20
60.2908540722
 10
243.4351690594
 20
60.3519651606
 10
243.440617308
 20
60.4166483928
 10
243.4472631228
 20
60.485011207
 10
243.4551980027
 20
60.5568178376
 10
243.4643285607
 20
60.6321910359
 10
243.474692954
 20
60.7110986158
 10
243.4864594369
 20
60.7933527871
 10
243.4997171422
 20
60.8788197685
  0
LWPOLYLINE
  5
3AB
100
AcDbEntity
  8
RACCORDO
100
AcDbPolyline
 62
253
  6
CONTINUOUS
 90
11
 70
0
 10
244.7551559523
 20
152.5454143506
 10
244.7534818839
 20
152.5425096757
 10
244.7519138298
 20
152.5338656694
 10
244.7504570937
 20
152.5195115688
 10
244.7491166027
 20
152.499495925
 10
244.7478968911
 20
152.4738864382
 10
244.7468020845
 20
152.4427697293
 10
244.7458358862
 20
152.4062510466
 10
244.745001564
 20
152.3644539098
 10
244.7443019403
 20
152.3175196925
 10
244.74331579
 20
152.2088918505
  0
LINE
  5
3AC
100
AcDbEntity
  8
ASSI
100
AcDbLine
 62
7
  6
CONTINUOUS
 10
237.794715896
 20
67.6819401909
 11
237.794715896
 21
73.6818353193
  0
LINE
  5
3AD
100
AcDbEntity
  8
ASSI
100
AcDbLine
 62
7
  6
CONTINUOUS
 10
237.794715896
 20
100.1819401909
 11
237.794715896
 21
111.1818353193
  0
LINE
  5
3AE
100
AcDbEntity
  8
ASSI
100
AcDbLine
 62
7
  6
CONTINUOUS
 10
237.794715896
 20
137.6819401909
 11
237.794715896
 21
143.6818353193
  0
LINE
  5
3AF
100
AcDbEntity
  8
RACCORDO
100
AcDbLine
 62
7
  6
CONTINUOUS
 10
238.294715896
 20
147.789014169
 11
238.294715896
 21
63.5747613412
  0
LWPOLYLINE
  5
3B0
100
AcDbEntity
  8
RACCORDO
100
AcDbPolyline
 62
7
  6
CONTINUOUS
 90
10
 70
0
 10
243.3081371868
 20
151.2746668014
 10
243.3049659568
 20
151.2511675422
 10
243.3022944429
 20
151.2276488264
 10
243.3000875785
 20
151.2041106539
 10
243.2983100149
 20
151.1805496343
 10
243.2969288916
 20
151.156969158
 10
243.2959122796
 20
151.133379396
 10
243.2952266087
 20
151.1097837385
 10
243.2948384134
 20
151.0861787953
 10
243.294715896
 20
151.0625645663
  0
LINE
  5
3B1
100
AcDbEntity
  8
RACCORDO
100
AcDbLine
 62
253
  6
CONTINUOUS
 10
238.9774112396
 20
147.789014169
 11
238.9774112396
 21
63.5747613412
  0
LWPOLYLINE
  5
3B2
100
AcDbEntity
  8
RACCORDO
100
AcDbPolyline
 62
253
  6
CONTINUOUS
 90
9
 70
0
 10
244.7450016261
 20
58.9993216043
 10
244.7458359599
 20
58.9575244664
 10
244.7468021703
 20
58.9210057826
 10
244.7478969956
 20
58.8898890725
 10
244.7491167264
 20
58.8642795846
 10
244.7504572183
 20
58.8442639401
 10
244.751913931
 20
58.8299098395
 10
244.7534819436
 20
58.8212658335
 10
244.7551559523
 20
58.8183611596
  0
LINE
  5
3B3
100
AcDbEntity
  8
RACCORDO
100
AcDbLine
 62
253
  6
CONTINUOUS
 10
244.7437394204
 20
59.0981683729
 11
244.7450016261
 21
58.9993216043
  0
LINE
  5
3B4
100
AcDbEntity
  8
RACCORDO
100
AcDbLine
 62
253
  6
CONTINUOUS
 10
244.7450016261
 20
151.6083786326
 11
244.7491167264
 21
151.2375859329
  0
LINE
  5
3B5
100
AcDbEntity
  8
RACCORDO
100
AcDbLine
 62
253
  6
CONTINUOUS
 10
244.7433158178
 20
151.8605191205
 11
244.7450016261
 21
151.6083786326
  0
LWPOLYLINE
  5
3B6
100
AcDbEntity
  8
RACCORDO
100
AcDbPolyline
 62
7
  6
CONTINUOUS
 90
10
 70
0
 10
243.294715896
 20
60.3012140855
 10
243.2948383926
 20
60.2775982427
 10
243.2952265419
 20
60.2539920749
 10
243.2959121678
 20
60.2303955819
 10
243.2969287768
 20
60.2068054355
 10
243.2983099641
 20
60.1832249639
 10
243.3000876335
 20
60.1596641526
 10
243.3022946246
 20
60.1361263301
 10
243.3049663038
 20
60.1126081679
 10
243.3081377394
 20
60.0891096659
  0
LINE
  5
3B7
100
AcDbEntity
  8
RACCORDO
100
AcDbLine
 62
253
  6
CONTINUOUS
 10
244.7430326158
 20
59.2162098729
 11
244.7437394204
 21
59.0981683729
  0
LINE
  5
3B8
100
AcDbEntity
  8
RACCORDO
100
AcDbLine
 62
7
  6
CONTINUOUS
 10
243.294715896
 20
60.3012140855
 11
243.294715896
 21
151.0625645663
  0
LINE
  5
3B9
100
AcDbEntity
  8
RACCORDO
100
AcDbLine
 62
253
  6
CONTINUOUS
 10
243.4997411492
 20
60.8787957647
 11
243.4997411492
 21
150.4848314803
  0
LINE
  5
3BA
100
AcDbEntity
  8
RACCORDO
100
AcDbLine
 62
253
  6
CONTINUOUS
 10
244.0655015776
 20
151.0505919086
 11
244.065494566
 21
60.3131906132
  0
LINE
  5
3BB
100
AcDbEntity
  8
RACCORDO
100
AcDbLine
 62
253
  6
CONTINUOUS
 10
244.7428907665
 20
152.0818359568
 11
244.7433158178
 21
151.8605191205
  0
LINE
  5
3BC
100
AcDbEntity
  8
RACCORDO
100
AcDbLine
 62
253
  6
CONTINUOUS
 10
244.7551559523
 20
150.8456732688
 11
244.7551559523
 21
60.5181022414
  0
LINE
  5
3BD
100
AcDbEntity
  8
RACCORDO
100
AcDbLine
 62
253
  6
CONTINUOUS
 10
244.7430325991
 20
59.4257059621
 11
244.7430326158
 21
59.2162098729
  0
LINE
  5
3BE
100
AcDbEntity
  8
RACCORDO
100
AcDbLine
 62
253
  6
CONTINUOUS
 10
244.74331579
 20
152.2088918505
 11
244.7428907665
 21
152.0818359568
  0
LINE
  5
3BF
100
AcDbEntity
  8
RACCORDO
100
AcDbLine
 62
253
  6
CONTINUOUS
 10
244.7443019403
 20
59.6683811205
 11
244.7430325991
 21
59.4257059621
  0
LWPOLYLINE
  5
3C0
100
AcDbEntity
  8
RACCORDO
100
AcDbPolyline
 62
253
  6
CONTINUOUS
 90
3
 70
0
 10
244.7491166027
 20
60.1261895862
 10
244.7478968911
 20
60.0307028295
 10
244.7443019403
 20
59.6683811205
  0
LINE
  5
3C1
100
AcDbEntity
  8
ASSI
100
AcDbLine
 62
7
  6
CONTINUOUS
 10
238.294715896
 20
100.1818877551
 11
237.794715896
 21
100.1818877551
  0
LINE
  5
3C2
100
AcDbEntity
  8
RACCORDO
100
AcDbLine
 62
253
  6
CONTINUOUS
 10
244.7491167264
 20
151.2375859329
 11
244.7551559523
 21
150.8456732688
  0
LINE
  5
3C3
100
AcDbEntity
  8
RACCORDO
100
AcDbLine
 62
7
  6
CONTINUOUS
 10
246.844715896
 20
152.5818877551
 11
246.844715896
 21
58.7818877551
  0
LINE
  5
3C4
100
AcDbEntity
  8
RACCORDO
100
AcDbLine
 62
7
  6
CONTINUOUS
 10
247.344715896
 20
58.7318877551
 11
247.344715896
 21
152.6318877551
  0
LINE
  5
3C5
100
AcDbEntity
  8
RACCORDO
100
AcDbLine
 62
253
  6
CONTINUOUS
 10
244.7551559523
 20
60.5181022414
 11
244.7491166027
 21
60.1261895862
  0
LINE
  5
3C6
100
AcDbEntity
  8
ASSI
100
AcDbLine
 62
253
  6
CONTINUOUS
 10
238.294715896
 20
103.1818877551
 11
237.794715896
 21
103.1818877551
  0
LINE
  5
3C7
100
AcDbEntity
  8
RACCORDO
100
AcDbLine
 62
253
  6
CONTINUOUS
 10
258.744715896
 20
105.6818877551
 11
256.8307990691
 21
105.681887767
  0
LWPOLYLINE
  5
3C8
100
AcDbEntity
  8
RACCORDO
100
AcDbPolyline
 62
7
  6
CONTINUOUS
 90
22
 70
0
 10
243.2909168299
 20
62.1314825601
 10
243.2807992185
 20
62.061383542
 10
243.2714892319
 20
61.9919484035
 10
243.2630711043
 20
61.9235054195
 10
243.255636654
 20
61.8563131915
 10
243.2492386863
 20
61.7907571474
 10
243.2438739893
 20
61.7273353184
 10
243.2395735373
 20
61.6665055256
 10
243.236346302
 20
61.6083531419
 10
243.2341608484
 20
61.5528243433
 10
243.2330415826
 20
61.5000203183
 10
243.2330415826
 20
61.4504242735
 10
243.2341608484
 20
61.4045337663
 10
243.236346302
 20
61.3627014338
 10
243.2395735373
 20
61.3249274585
 10
243.2438739893
 20
61.2911677754
 10
243.2492386863
 20
61.2615551773
 10
243.255636654
 20
61.2363806794
 10
243.2630711043
 20
61.2158450186
 10
243.2714892319
 20
61.2000735067
 10
243.2807992185
 20
61.1891526271
 10
243.2909168299
 20
61.1831589049
  0
LWPOLYLINE
  5
3C9
100
AcDbEntity
  8
RACCORDO
100
AcDbPolyline
 62
253
  6
CONTINUOUS
 90
22
 70
0
 10
238.9774112396
 20
63.5747613412
 10
238.9581283661
 20
63.5080966957
 10
238.9404939707
 20
63.4417585484
 10
238.9245944201
 20
63.3760717984
 10
238.9105075843
 20
63.3113581545
 10
238.8983024552
 20
63.2479345596
 10
238.888038809
 20
63.1861116384
 10
238.879766913
 20
63.1261921763
 10
238.87352728
 20
63.068469636
 10
238.8693504693
 20
63.0132267206
 10
238.8672569372
 20
62.9607339891
 10
238.8672569372
 20
62.9112485309
 10
238.8693504693
 20
62.8650127071
 10
238.87352728
 20
62.8222529632
 10
238.879766913
 20
62.7831787203
 10
238.888038809
 20
62.7479813491
 10
238.8983024552
 20
62.7168332331
 10
238.9105075843
 20
62.6898869239
 10
238.9245944201
 20
62.6672743944
 10
238.9404939707
 20
62.6491063922
 10
238.9581283661
 20
62.6354718972
 10
238.9774112396
 20
62.626437686
  0
LINE
  5
3CA
100
AcDbEntity
  8
ASSI
100
AcDbLine
 62
253
  6
CONTINUOUS
 10
238.294715896
 20
108.1818877551
 11
237.794715896
 21
108.1818877551
  0
LWPOLYLINE
  5
3CB
100
AcDbEntity
  8
RACCORDO
100
AcDbPolyline
 62
253
  6
CONTINUOUS
 90
25
 70
0
 10
243.4997411492
 20
150.4848314803
 10
243.4864793528
 20
150.5703468767
 10
243.4747083238
 20
150.6526446435
 10
243.4643388139
 20
150.7315907966
 10
243.4552029263
 20
150.8069916045
 10
243.4472614549
 20
150.878820595
 10
243.4406073597
 20
150.9472174429
 10
243.4351485197
 20
151.0119624269
 10
243.430721419
 20
151.073145172
 10
243.4273639584
 20
151.1313694291
 10
243.4250527145
 20
151.1865445828
 10
243.4236511687
 20
151.2386551447
 10
243.4231667723
 20
151.2883708543
 10
243.42366073
 20
151.3356765125
 10
243.4250720627
 20
151.3804290919
 10
243.4273913465
 20
151.4230235113
 10
243.4307496957
 20
151.4634289328
 10
243.4351690594
 20
151.5014146323
 10
243.440617308
 20
151.5369820051
 10
243.4472631228
 20
151.5700558611
 10
243.4551980027
 20
151.6003228827
 10
243.4643285607
 20
151.6273735803
 10
243.474692954
 20
151.6509290683
 10
243.4864594369
 20
151.6708418447
 10
243.4997171422
 20
151.6868889952
  0
LWPOLYLINE
  5
3CC
100
AcDbEntity
  8
RACCORDO
100
AcDbPolyline
 62
7
  6
CONTINUOUS
 90
4
 70
0
 10
256.7810367215
 20
58.1818877474
 10
256.780700693
 20
58.1845815992
 10
256.7803789667
 20
58.1927236491
 10
256.7800715449
 20
58.2063138972
  0
LWPOLYLINE
  5
3CD
100
AcDbEntity
  8
RACCORDO
100
AcDbPolyline
 62
253
  6
CONTINUOUS
 90
5
 70
0
 10
258.5823531019
 20
152.6602727305
 10
258.5820995956
 20
152.6581656753
 10
258.5818574481
 20
152.6520079041
 10
258.5816266633
 20
152.6417994168
 10
258.5811980876
 20
152.6091317297
  0
LINE
  5
3CE
100
AcDbEntity
  8
ASSI
100
AcDbLine
 62
7
  6
CONTINUOUS
 10
238.294715896
 20
111.1818877551
 11
237.794715896
 21
111.1818877551
  0
LWPOLYLINE
  5
3CF
100
AcDbEntity
  8
RACCORDO
100
AcDbPolyline
 62
253
  6
CONTINUOUS
 90
4
 70
0
 10
258.5816266452
 20
58.7219767103
 10
258.5818574335
 20
58.7117681382
 10
258.582099587
 20
58.7056101613
 10
258.5823531019
 20
58.7035027797
  0
LINE
  5
3D0
100
AcDbEntity
  8
RACCORDO
100
AcDbLine
 62
7
  6
CONTINUOUS
 10
256.7800715449
 20
58.2063138972
 11
256.7794972669
 21
58.2500175231
  0
LINE
  5
3D1
100
AcDbEntity
  8
RACCORDO
100
AcDbLine
 62
253
  6
CONTINUOUS
 10
258.5811980717
 20
58.7546440301
 11
258.5816266452
 21
58.7219767103
  0
LINE
  5
3D2
100
AcDbEntity
  8
RACCORDO
100
AcDbLine
 62
7
  6
CONTINUOUS
 10
256.7794972669
 20
58.2500175231
 11
256.7785587455
 21
58.3998573261
  0
LINE
  5
3D3
100
AcDbEntity
  8
RACCORDO
100
AcDbLine
 62
253
  6
CONTINUOUS
 10
258.5804953782
 20
58.8669623851
 11
258.5811980717
 21
58.7546440301
  0
LINE
  5
3D4
100
AcDbEntity
  8
RACCORDO
100
AcDbLine
 62
253
  6
CONTINUOUS
 10
258.0916141401
 20
153.1343650916
 11
258.0920009555
 21
153.0611092035
  0
LINE
  5
3D5
100
AcDbEntity
  8
RACCORDO
100
AcDbLine
 62
253
  6
CONTINUOUS
 10
258.0895835338
 20
60.2043432223
 11
258.0901132135
 21
59.9952400561
  0
LWPOLYLINE
  5
3D6
100
AcDbEntity
  8
RACCORDO
100
AcDbPolyline
 62
7
  6
CONTINUOUS
 90
10
 70
0
 10
256.7790368165
 20
151.1823066984
 10
256.7899004644
 20
146.1267118603
 10
256.7994860409
 20
141.0711144679
 10
256.8077935461
 20
136.0155148442
 10
256.8148229802
 20
130.9599133337
 10
256.820574343
 20
125.9043102382
 10
256.8250476334
 20
120.848705817
 10
256.828242851
 20
115.7931003721
 10
256.8301599963
 20
110.7374942477
 10
256.8307990691
 20
105.681887767
  0
LINE
  5
3D7
100
AcDbEntity
  8
RACCORDO
100
AcDbLine
 62
253
  6
CONTINUOUS
 10
258.0901132135
 20
59.9952400561
 11
258.0908275768
 21
59.6867560599
  0
LWPOLYLINE
  5
3D8
100
AcDbEntity
  8
RACCORDO
100
AcDbPolyline
 62
253
  6
CONTINUOUS
 90
10
 70
0
 10
258.0895835338
 20
151.1594322879
 10
258.1004355464
 20
146.1063787784
 10
258.1100108562
 20
141.053322849
 10
258.1183094634
 20
136.0002648224
 10
258.1253313681
 20
130.9472051294
 10
258.1310765701
 20
125.8941439843
 10
258.1355450687
 20
120.8410813854
 10
258.1387368636
 20
115.788017547
 10
258.1406519551
 20
110.7349529
 10
258.1412903432
 20
105.681887767
  0
LWPOLYLINE
  5
3D9
100
AcDbEntity
  8
RACCORDO
100
AcDbPolyline
 62
253
  6
CONTINUOUS
 90
10
 70
0
 10
258.580853234
 20
151.1605494076
 10
258.5917055172
 20
146.1073717739
 10
258.6012810666
 20
141.0541917204
 10
258.6095798818
 20
136.0010095697
 10
258.6166019621
 20
130.9478257525
 10
258.6223473075
 20
125.8946404833
 10
258.626815918
 20
120.8414537599
 10
258.6300077932
 20
115.788265797
 10
258.6319229326
 20
110.7350770251
 10
258.6325613361
 20
105.6818877669
  0
LINE
  5
3DA
100
AcDbEntity
  8
0
100
AcDbLine
 62
7
  6
CONTINUOUS
 10
258.7032330878
 20
145.8989267551
 11
258.7099071271
 21
142.5993237551
  0
LINE
  5
3DB
100
AcDbEntity
  8
0
100
AcDbLine
 62
7
  6
CONTINUOUS
 10
258.6895416033
 20
152.6602728451
 11
258.7042805995
 21
145.8989267551
  0
LINE
  5
3DC
100
AcDbEntity
  8
0
100
AcDbLine
 62
7
  6
CONTINUOUS
 10
258.8099073011
 20
142.5993237551
 11
258.8032332952
 21
145.8989267551
  0
LINE
  5
3DD
100
AcDbEntity
  8
RACCORDO
100
AcDbLine
 62
253
  6
CONTINUOUS
 10
258.0908275768
 20
59.6867560599
 11
258.0914137082
 21
59.391007744
  0
LWPOLYLINE
  5
3DE
100
AcDbEntity
  8
0
100
AcDbPolyline
 62
7
  6
CONTINUOUS
 90
7
 70
0
 10
258.7104250328
 20
142.5993233687
 10
258.7185317157
 20
138.0449304045
 10
258.7279580192
 20
131.5723259483
 10
258.7352895898
 20
125.0997187773
 10
258.7405264264
 20
118.6271095695
 10
258.7436685286
 20
112.1544990028
 10
258.744715896
 20
105.6818877551
  0
LINE
  5
3DF
100
AcDbEntity
  8
RACCORDO
100
AcDbLine
 62
253
  6
CONTINUOUS
 10
258.0914137082
 20
59.391007744
 11
258.0919768628
 21
59.0290203606
  0
LINE
  5
3E0
100
AcDbEntity
  8
RACCORDO
100
AcDbLine
 62
7
  6
CONTINUOUS
 10
256.7785587455
 20
58.3998573261
 11
256.7776745262
 21
58.8438894481
  0
LINE
  5
3E1
100
AcDbEntity
  8
RACCORDO
100
AcDbLine
 62
7
  6
CONTINUOUS
 10
256.7790368165
 20
151.1823066984
 11
256.7777522656
 21
151.9959930719
  0
LWPOLYLINE
  5
3E2
100
AcDbEntity
  8
RACCORDO
100
AcDbPolyline
 62
7
  6
CONTINUOUS
 90
10
 70
0
 10
256.8307990691
 20
105.681887767
 10
256.8301599963
 20
100.6262812836
 10
256.8282428511
 20
95.5706751566
 10
256.8250476334
 20
90.515069709
 10
256.820574343
 20
85.4594652852
 10
256.8148229802
 20
80.403862187
 10
256.8077935461
 20
75.3482606739
 10
256.7994860409
 20
70.2926610476
 10
256.7899004644
 20
65.2370636526
 10
256.7790368165
 20
60.1814688118
  0
LWPOLYLINE
  5
3E3
100
AcDbEntity
  8
RACCORDO
100
AcDbPolyline
 62
253
  6
CONTINUOUS
 90
10
 70
0
 10
258.1412903432
 20
105.681887767
 10
258.1406519551
 20
100.628822631
 10
258.1387368637
 20
95.5757579811
 10
258.1355450687
 20
90.52269414
 10
258.1310765701
 20
85.4696315386
 10
258.1253313681
 20
80.4165703911
 10
258.1183094634
 20
75.3635106956
 10
258.1100108562
 20
70.3104526665
 10
258.1004355464
 20
65.2573967345
 10
258.0895835338
 20
60.2043432223
  0
LWPOLYLINE
  5
3E4
100
AcDbEntity
  8
RACCORDO
100
AcDbPolyline
 62
253
  6
CONTINUOUS
 90
10
 70
0
 10
258.6325613361
 20
105.6818877669
 10
258.6319229326
 20
100.6286985057
 10
258.6300077932
 20
95.575509731
 10
258.626815918
 20
90.5223217653
 10
258.6223473075
 20
85.4691350395
 10
258.6166019621
 20
80.4159497679
 10
258.6095798818
 20
75.3627659483
 10
258.6012810666
 20
70.309583795
 10
258.5917055172
 20
65.256403739
 10
258.580853234
 20
60.2032261027
  0
LINE
  5
3E5
100
AcDbEntity
  8
RACCORDO
100
AcDbLine
 62
253
  6
CONTINUOUS
 10
258.5798399974
 20
59.5222984514
 11
258.5804953782
 21
58.8669623851
  0
LINE
  5
3E6
100
AcDbEntity
  8
RACCORDO
100
AcDbLine
 62
253
  6
CONTINUOUS
 10
258.0920009555
 20
153.0611092035
 11
258.0922221047
 21
152.5733263264
  0
LINE
  5
3E7
100
AcDbEntity
  8
RACCORDO
100
AcDbLine
 62
7
  6
CONTINUOUS
 10
256.7777522656
 20
151.9959930719
 11
256.7777377817
 21
152.5962301985
  0
LINE
  5
3E8
100
AcDbEntity
  8
RACCORDO
100
AcDbLine
 62
253
  6
CONTINUOUS
 10
258.0919768628
 20
59.0290203606
 11
258.0922342595
 21
58.4227573345
  0
LINE
  5
3E9
100
AcDbEntity
  8
RACCORDO
100
AcDbLine
 62
7
  6
CONTINUOUS
 10
256.7776745262
 20
58.8438894481
 11
256.777951127
 21
59.5633454227
  0
LINE
  5
3EA
100
AcDbEntity
  8
RACCORDO
100
AcDbLine
 62
253
  6
CONTINUOUS
 10
258.5801180649
 20
152.3738681278
 11
258.580853234
 21
151.1605494076
  0
LINE
  5
3EB
100
AcDbEntity
  8
RACCORDO
100
AcDbLine
 62
7
  6
CONTINUOUS
 10
256.777951127
 20
59.5633454227
 11
256.7790368165
 21
60.1814688118
  0
LINE
  5
3EC
100
AcDbEntity
  8
RACCORDO
100
AcDbLine
 62
253
  6
CONTINUOUS
 10
258.0922221047
 20
152.5733263264
 11
258.0906058772
 21
151.5752666307
  0
LINE
  5
3ED
100
AcDbEntity
  8
RACCORDO
100
AcDbLine
 62
253
  6
CONTINUOUS
 10
258.580853234
 20
60.2032261027
 11
258.5798399974
 21
59.5222984514
  0
LWPOLYLINE
  5
3EE
100
AcDbEntity
  8
RACCORDO
100
AcDbPolyline
 62
7
  6
CONTINUOUS
 90
7
 70
0
 10
258.6895416033
 20
58.7035026651
 10
258.7064004096
 20
66.5332225022
 10
258.7201939819
 20
74.3629483438
 10
258.730922318
 20
82.1926789899
 10
258.7385854166
 20
90.0224132404
 10
258.7431832761
 20
97.8521498955
 10
258.744715896
 20
105.6818877551
  0
LINE
  5
3EF
100
AcDbEntity
  8
RACCORDO
100
AcDbLine
 62
253
  6
CONTINUOUS
 10
258.0906058772
 20
151.5752666307
 11
258.0895835338
 21
151.1594322879
  0
LINE
  5
3F0
100
AcDbEntity
  8
RACCORDO
100
AcDbLine
 62
7
  6
CONTINUOUS
 10
256.7777377817
 20
152.5962301985
 11
256.7787649554
 21
153.0087789386
  0
LWPOLYLINE
  5
3F1
100
AcDbEntity
  8
RACCORDO
100
AcDbPolyline
 62
253
  6
CONTINUOUS
 90
6
 70
0
 10
258.0922342595
 20
58.4227573345
 10
258.0917610786
 20
58.248497467
 10
258.0916141199
 20
58.2294116658
 10
258.091447638
 20
58.2157334401
 10
258.0912692056
 20
58.2075054474
 10
258.0910833642
 20
58.2047533896
  0
LINE
  5
3F2
100
AcDbEntity
  8
RACCORDO
100
AcDbLine
 62
253
  6
CONTINUOUS
 10
258.5808199763
 20
152.5606712059
 11
258.5801180649
 21
152.3738681278
  0
LINE
  5
3F3
100
AcDbEntity
  8
RACCORDO
100
AcDbLine
 62
7
  6
CONTINUOUS
 10
256.7787649554
 20
153.0087789386
 11
256.7794971174
 21
153.1137421207
  0
LINE
  5
3F4
100
AcDbEntity
  8
RACCORDO
100
AcDbLine
 62
253
  6
CONTINUOUS
 10
258.5811980876
 20
152.6091317297
 11
258.5808199763
 21
152.5606712059
  0
LWPOLYLINE
  5
3F5
100
AcDbEntity
  8
RACCORDO
100
AcDbPolyline
 62
7
  6
CONTINUOUS
 90
5
 70
0
 10
256.7794971174
 20
153.1137421207
 10
256.780071516
 20
153.1574600509
 10
256.7803789641
 20
153.1710534541
 10
256.7807007
 20
153.1791960247
 10
256.7810367215
 20
153.1818877628
  0
LWPOLYLINE
  5
3F6
100
AcDbEntity
  8
RACCORDO
100
AcDbPolyline
 62
253
  6
CONTINUOUS
 90
4
 70
0
 10
258.0910833642
 20
153.1590221206
 10
258.0912692062
 20
153.1562702636
 10
258.0914476464
 20
153.1480427486
 10
258.0916141401
 20
153.1343650916
  0
LINE
  5
3F7
100
AcDbEntity
  8
0
100
AcDbLine
 62
7
  6
CONTINUOUS
 10
258.8036289283
 20
145.9375289233
 11
258.8036214179
 21
145.9376413606
  0
LWPOLYLINE
  5
3F8
100
AcDbEntity
  8
RACCORDO
100
AcDbPolyline
 62
7
  6
CONTINUOUS
 90
19
 70
0
 10
258.5823531015
 20
152.6602727305
 10
258.5803965853
 20
152.7032977003
 10
258.5747446456
 20
152.745994672
 10
258.5654392195
 20
152.7880468366
 10
258.5525493528
 20
152.8291421696
 10
258.5361706874
 20
152.8689757459
 10
258.5164247521
 20
152.9072520026
 10
258.4934580606
 20
152.9436869323
 10
258.4674410244
 20
152.9780101898
 10
258.4385666885
 20
153.0099670986
 10
258.4070492986
 20
153.0393205403
 10
258.3731227121
 20
153.0658527139
 10
258.3370386621
 20
153.0893667525
 10
258.2990648904
 20
153.1096881831
 10
258.2594831599
 20
153.1266662218
 10
258.2185871649
 20
153.1401748928
 10
258.1766803514
 20
153.1501139623
 10
258.1340736653
 20
153.1564096831
 10
258.0910832458
 20
153.1590153414
  0
LINE
  5
3F9
100
AcDbEntity
  8
0
100
AcDbLine
 62
7
  6
CONTINUOUS
 10
258.8038357105
 20
145.8989267551
 11
258.8036289283
 21
145.9375289233
  0
LWPOLYLINE
  5
3FA
100
AcDbEntity
  8
RACCORDO
100
AcDbPolyline
 62
7
  6
CONTINUOUS
 90
19
 70
0
 10
258.5823531019
 20
58.7035027797
 10
258.5803970329
 20
58.6604773813
 10
258.5747454858
 20
58.6177799478
 10
258.5654403954
 20
58.5757272961
 10
258.5525508059
 20
58.5346314587
 10
258.5361723585
 20
58.4947973685
 10
258.5164265821
 20
58.4565205964
 10
258.4934599913
 20
58.4200851575
 10
258.4674429991
 20
58.3857614046
 10
258.4385686528
 20
58.3538040214
 10
258.4070512014
 20
58.3244501331
 10
258.3731245057
 20
58.2979175468
 10
258.3370403033
 20
58.2744031356
 10
258.2990663406
 20
58.2540813775
 10
258.2594843862
 20
58.2371030607
 10
258.2185881399
 20
58.2235941651
 10
258.1766810536
 20
58.2136549274
 10
258.1340740798
 20
58.2073590971
 10
258.0910833642
 20
58.2047533896
  0
LWPOLYLINE
  5
3FB
100
AcDbEntity
  8
RACCORDO
100
AcDbPolyline
 62
253
  6
CONTINUOUS
 90
19
 70
0
 10
244.0655015776
 20
60.3131836016
 10
244.0271809376
 20
60.2324748629
 10
243.9930575692
 20
60.1520393163
 10
243.9632469254
 20
60.0721491369
 10
243.9378498544
 20
59.9930746361
 10
243.9169522938
 20
59.9150833981
 10
243.9006249679
 20
59.8384393706
 10
243.8889230996
 20
59.7634018955
 10
243.8818862583
 20
59.6902248648
 10
243.8795382434
 20
59.6191559063
 10
243.8818869657
 20
59.5504354867
 10
243.8889244431
 20
59.4842961103
 10
243.9006268389
 20
59.4209615568
 10
243.9169545166
 20
59.3606461109
 10
243.9378521928
 20
59.3035538257
 10
243.9632491348
 20
59.2498778379
 10
243.9930593785
 20
59.1997997323
 10
244.0271820192
 20
59.1534889264
 10
244.0655015672
 20
59.111102084
  0
LINE
  5
3FC
100
AcDbEntity
  8
RACCORDO
100
AcDbLine
 62
253
  6
CONTINUOUS
 10
243.4903201414
 20
59.6868077649
 11
243.490132697
 21
59.6864709541
  0
LINE
  5
3FD
100
AcDbEntity
  8
RACCORDO
100
AcDbLine
 62
7
  6
CONTINUOUS
 10
243.2947163886
 20
60.0658632044
 11
243.3081377394
 21
60.0891096659
  0
LINE
  5
3FE
100
AcDbEntity
  8
RACCORDO
100
AcDbLine
 62
7
  6
CONTINUOUS
 10
243.3011654551
 20
151.286742195
 11
243.3081371868
 21
151.2746668014
  0
LINE
  5
3FF
100
AcDbEntity
  8
ASSI
100
AcDbLine
 62
7
  6
CONTINUOUS
 10
238.294715896
 20
137.6818877551
 11
237.794715896
 21
137.6818877551
  0
LWPOLYLINE
  5
400
100
AcDbEntity
  8
RACCORDO
100
AcDbPolyline
 62
253
  6
CONTINUOUS
 90
16
 70
0
 10
244.065494566
 20
60.3131791154
 10
244.1056277159
 20
60.3397471351
 10
244.1472172291
 20
60.3644115996
 10
244.1900610532
 20
60.387172509
 10
244.2338822921
 20
60.4080107526
 10
244.2785667896
 20
60.4269454411
 10
244.3241895721
 20
60.444033906
 10
244.3706876933
 20
60.4592621452
 10
244.4178207894
 20
60.4726441608
 10
244.4654254674
 20
60.4842792915
 10
244.5132814748
 20
60.4941822032
 10
244.5613227369
 20
60.50233823
 10
244.6096313641
 20
60.5088027131
 10
244.6581560349
 20
60.5135940996
 10
244.7067037942
 20
60.5166939423
 10
244.7551559523
 20
60.5181022414
  0
LINE
  5
401
100
AcDbEntity
  8
0
100
AcDbLine
 62
7
  6
CONTINUOUS
 10
258.8099073011
 20
142.5993237551
 11
258.7099071271
 21
142.5993237551
  0
LWPOLYLINE
  5
402
100
AcDbEntity
  8
RACCORDO
100
AcDbPolyline
 62
253
  6
CONTINUOUS
 90
16
 70
0
 10
244.0655015776
 20
151.0505919086
 10
244.1057911465
 20
151.0245683717
 10
244.1474752344
 20
151.0001863487
 10
244.1903404764
 20
150.9774458396
 10
244.2340511797
 20
150.9562090457
 10
244.2785311686
 20
150.9366137658
 10
244.3240057493
 20
150.919073396
 10
244.3704957239
 20
150.9038073611
 10
244.4176927775
 20
150.8905962364
 10
244.4653640244
 20
150.8791951434
 10
244.5132712336
 20
150.8696200937
 10
244.5613647459
 20
150.8618550758
 10
244.6097035226
 20
150.8556071757
 10
244.6582277445
 20
150.8507787556
 10
244.7067514953
 20
150.8474674533
 10
244.7551559523
 20
150.8456732688
  0
LINE
  5
403
100
AcDbEntity
  8
ASSI
100
AcDbLine
 62
7
  6
CONTINUOUS
 10
238.294715896
 20
143.6818877551
 11
237.794715896
 21
143.6818877551
  0
LINE
  5
404
100
AcDbEntity
  8
0
100
AcDbLine
 62
7
  6
CONTINUOUS
 10
258.8032332952
 20
145.8989267551
 11
258.7032330878
 21
145.8989267551
  0
LINE
  5
405
100
AcDbEntity
  8
0
100
AcDbLine
 62
7
  6
CONTINUOUS
 10
258.8036213706
 20
145.9376413606
 11
258.7036211651
 21
145.9376413606
  0
LINE
  5
406
100
AcDbEntity
  8
RACCORDO
100
AcDbLine
 62
253
  6
CONTINUOUS
 10
238.9774112396
 20
147.789014169
 11
238.294715896
 21
147.789014169
  0
LINE
  5
407
100
AcDbEntity
  8
RACCORDO
100
AcDbLine
 62
253
  6
CONTINUOUS
 10
247.344715896
 20
150.9324703026
 11
256.7800632872
 21
151.1795435694
  0
LINE
  5
408
100
AcDbEntity
  8
RACCORDO
100
AcDbLine
 62
7
  6
CONTINUOUS
 10
247.344715896
 20
152.6318877551
 11
256.7817626319
 21
152.8790055208
  0
LINE
  5
409
100
AcDbEntity
  8
RACCORDO
100
AcDbLine
 62
253
  6
CONTINUOUS
 10
244.7551559523
 20
150.8456732688
 11
246.844715896
 21
150.8821466733
  0
LINE
  5
40A
100
AcDbEntity
  8
RACCORDO
100
AcDbLine
 62
7
  6
CONTINUOUS
 10
244.7551559523
 20
152.5454143506
 11
246.844715896
 21
152.5818877551
  0
LINE
  5
40B
100
AcDbEntity
  8
RACCORDO
100
AcDbLine
 62
253
  6
CONTINUOUS
 10
258.580853234
 20
151.1605494076
 11
258.0895835338
 21
151.1594322879
  0
LINE
  5
40C
100
AcDbEntity
  8
RACCORDO
100
AcDbLine
 62
253
  6
CONTINUOUS
 10
243.294715896
 20
150.4848314803
 11
243.4997411489
 21
150.4848314791
  0
LINE
  5
40D
100
AcDbEntity
  8
RACCORDO
100
AcDbLine
 62
253
  6
CONTINUOUS
 10
258.6895416033
 20
152.6602728451
 11
258.5823531019
 21
152.6602727305
  0
LINE
  5
40E
100
AcDbEntity
  8
RACCORDO
100
AcDbLine
 62
7
  6
CONTINUOUS
 10
258.1982691859
 20
153.1590222331
 11
258.0910833642
 21
153.1590221206
  0
LINE
  5
40F
100
AcDbEntity
  8
RACCORDO
100
AcDbLine
 62
7
  6
CONTINUOUS
 10
256.8883044895
 20
153.1818877519
 11
256.7810367215
 21
153.1818877628
  0
LINE
  5
410
100
AcDbEntity
  8
RACCORDO
100
AcDbLine
 62
253
  6
CONTINUOUS
 10
246.844715896
 20
150.832009599
 11
247.344715896
 21
150.8232820665
  0
LINE
  5
411
100
AcDbEntity
  8
RACCORDO
100
AcDbLine
 62
253
  6
CONTINUOUS
 10
258.0895835338
 20
151.1594322879
 11
256.7790368165
 21
151.1823066984
  0
LINE
  5
412
100
AcDbEntity
  8
RACCORDO
100
AcDbLine
 62
7
  6
CONTINUOUS
 10
246.844715896
 20
151.6318877551
 11
247.344715896
 21
151.6231602226
  0
LINE
  5
413
100
AcDbEntity
  8
RACCORDO
100
AcDbLine
 62
7
  6
CONTINUOUS
 10
258.0910833642
 20
153.1590221206
 11
256.7810367215
 21
153.1818877628
  0
LINE
  5
414
100
AcDbEntity
  8
RACCORDO
100
AcDbLine
 62
7
  6
CONTINUOUS
 10
258.1982691859
 20
153.1590222331
 11
256.8883044895
 21
153.1818877519
  0
ARC
  5
415
100
AcDbEntity
  8
RACCORDO
100
AcDbCircle
 62
7
  6
CONTINUOUS
 10
239.294715896
 20
63.5747613412
 40
1.0
100
AcDbArc
 50
180.0
 51
251.5
  0
ARC
  5
416
100
AcDbEntity
  8
RACCORDO
100
AcDbCircle
 62
7
  6
CONTINUOUS
 10
244.7726083588
 20
59.8182088547
 40
1.0
100
AcDbArc
 50
225.0
 51
269.0
  0
ARC
  5
417
100
AcDbEntity
  8
RACCORDO
100
AcDbCircle
 62
7
  6
CONTINUOUS
 10
243.9851074439
 20
60.181445701
 40
0.7
100
AcDbArc
 50
189.5040471099
 51
225.0
  0
ARC
  5
418
100
AcDbEntity
  8
RACCORDO
100
AcDbCircle
 62
7
  6
CONTINUOUS
 10
243.994715896
 20
60.1718372488
 40
0.7
100
AcDbArc
 50
187.7836281075
 51
225.0001280743
  0
ARC
  5
419
100
AcDbEntity
  8
RACCORDO
100
AcDbCircle
 62
7
  6
CONTINUOUS
 10
239.294715896
 20
147.789014169
 40
1.0
100
AcDbArc
 50
108.5
 51
180.0
  0
ARC
  5
41A
100
AcDbEntity
  8
RACCORDO
100
AcDbCircle
 62
7
  6
CONTINUOUS
 10
244.7726083588
 20
151.5455666555
 40
1.0
100
AcDbArc
 50
91.0
 51
135.0005681396
  0
ARC
  5
41B
100
AcDbEntity
  8
RACCORDO
100
AcDbCircle
 62
7
  6
CONTINUOUS
 10
243.994715896
 20
151.1919360479
 40
0.7
100
AcDbArc
 50
135.0
 51
172.2160820241
  0
ARC
  5
41C
100
AcDbEntity
  8
RACCORDO
100
AcDbCircle
 62
7
  6
CONTINUOUS
 10
258.1895429827
 20
58.7046771247
 40
0.5
100
AcDbArc
 50
271.0
 51
359.8654167165
  0
ARC
  5
41D
100
AcDbEntity
  8
RACCORDO
100
AcDbCircle
 62
7
  6
CONTINUOUS
 10
258.1895429827
 20
152.6590983855
 40
0.5
100
AcDbArc
 50
0.1345832835
 51
89.0
  0
ENDSEC
  0
SECTION
  2
OBJECTS
  0
DICTIONARY
  5
C
100
AcDbDictionary
280
0
281
1
  3
ACAD_GROUP
350
D
  3
ACAD_MLINESTYLE
350
17
  3
ACAD_LAYOUT
350
1A
  3
ACAD_PLOTSETTINGS
350
19
  3
ACAD_PLOTSTYLENAME
350
E
  0
DICTIONARY
  5
D
102
{ACAD_REACTORS
330
C
102
}
100
AcDbDictionary
280
0
281
1
  0
ACDBDICTIONARYWDFLT
  5
E
102
{ACAD_REACTORS
330
C
102
}
100
AcDbDictionary
281
1
  3
Normal
350
F
100
AcDbDictionaryWithDefault
340
F
  0
DICTIONARY
  5
17
102
{ACAD_REACTORS
330
C
102
}
100
AcDbDictionary
280
0
281
1
  3
Standard
350
18
  0
DICTIONARY
  5
19
102
{ACAD_REACTORS
330
C
102
}
100
AcDbDictionary
281
1
  0
DICTIONARY
  5
1A
102
{ACAD_REACTORS
330
C
102
}
100
AcDbDictionary
281
1
  3
Model
350
41E
  3
Layout1
350
41F
  0
ACDBPLACEHOLDER
  5
F
102
{ACAD_REACTORS
330
E
102
}
  0
MLINESTYLE
  5
18
102
{ACAD_REACTORS
330
17
102
}
100
AcDbMlineStyle
  2
STANDARD
 70
0
  3

 62
256
 51
90.0
 52
90.0
 71
2
 49
0.5
 62
256
  6
BYLAYER
 49
-0.5
 62
256
  6
BYLAYER
  0
LAYOUT
  5
41E
102
{ACAD_REACTORS
330
1A
102
}
100
AcDbPlotSettings
  1

  2
none_device
  4
ISO_A4_(297.00_x_210.00_MM)
  6

 40
0.0
 41
0.0
 42
0.0
 43
0.0
 44
297.0
 45
210.0
 46
0.0
 47
0.0
 48
0.0
 49
0.0
140
0.0
141
0.0
142
1.0
143
1.0
 70
1024
 72
1
 73
0
 74
0
  7

 75
0
147
1.0
148
0.0
149
0.0
100
AcDbLayout
  1
Model
 70
0
 71
0
 10
0.0
 20
0.0
 11
297.0
 21
210.0
 12
0.0
 22
0.0
 32
0.0
 14
0.0
 24
0.0
 34
0.0
 15
0.0
 25
0.0
 35
0.0
146
0.0
 13
0.0
 23
0.0
 33
0.0
 16
1.0
 26
0.0
 36
0.0
 17
0.0
 27
1.0
 37
0.0
 76
0
330
2E9
345
0
346
0
  0
LAYOUT
  5
41F
102
{ACAD_REACTORS
330
1A
102
}
100
AcDbPlotSettings
  1

  2
none_device
  4
ISO_A4_(297.00_x_210.00_MM)
  6

 40
0.0
 41
0.0
 42
0.0
 43
0.0
 44
297.0
 45
210.0
 46
0.0
 47
0.0
 48
0.0
 49
0.0
140
0.0
141
0.0
142
1.0
143
1.0
 70
0
 72
1
 73
0
 74
0
  7

 75
0
147
1.0
148
0.0
149
0.0
100
AcDbLayout
  1
Layout1
 70
0
 71
1
 10
0.0
 20
0.0
 11
297.0
 21
210.0
 12
0.0
 22
0.0
 32
0.0
 14
0.0
 24
0.0
 34
0.0
 15
0.0
 25
0.0
 35
0.0
146
0.0
 13
0.0
 23
0.0
 33
0.0
 16
1.0
 26
0.0
 36
0.0
 17
0.0
 27
1.0
 37
0.0
 76
0
330
2EA
345
0
346
0
  0
ENDSEC
  0
EOF
