  0
SECTION
  2
HEADER
  9
$ACADVER
  1
AC1015
  9
$DWGCODEPAGE
  3
ANSI_1252
  9
$EXTMAX
 10
297.0
 20
210.0
 30
0.0
  9
$EXTMIN
 10
0.0
 20
0.0
 30
0.0
  9
$LIMMIN
 10
0.0
 20
0.0
  9
$LIMMAX
 10
297.0
 20
210.0
  9
$VIEWCTR
 10
148.5
 20
105.0
  9
$VIEWSIZE
 40
210.0
  9
$CLAYER
  8
0
  9
$LTSCALE
 40
16.335
  9
$CELTYPE
  6
BYLAYER
  9
$DIMSCALE
 40
1.0
  9
$DIMASZ
 40
3.0
  9
$DIMEXO
 40
0.5
  9
$DIMDLI
 40
11.286
  9
$DIMEXE
 40
1.5
  9
$DIMCEN
 40
2.673
  9
$DIMLFAC
 40
1.0
  9
$DIMBLK
  1
_FILLED
  9
$DIMTXT
 40
3.0
  9
$DIMTOL
 70
1
  9
$DIMLIM
 70
0
  9
$DIMTFAC
 40
1.0
  9
$DIMTP
 40
0.01
  9
$DIMTM
 40
0.01
  9
$DIMGAP
 40
0.625
  9
$DIMDSEP
 70
44
  9
$PDMODE
 70
3
  9
$PDSIZE
 40
3.0
  9
$HANDSEED
  5
4F7
  9
$TILEMODE
 70
1
  9
$MEASUREMENT
 70
1
  9
$INSUNITS
 70
4
  0
ENDSEC
  0
SECTION
  2
CLASSES
  0
CLASS
  1
ACDBDICTIONARYWDFLT
  2
AcDbDictionaryWithDefault
  3
AutoCAD 2000
 90
0
280
0
281
0
  0
CLASS
  1
ACDBPLACEHOLDER
  2
AcDbPlaceHolder
  3
AutoCAD 2000
 90
0
280
0
281
0
  0
CLASS
  1
LAYOUT
  2
AcDbLayout
  3
AutoCAD 2000
 90
0
280
0
281
0
  0
ENDSEC
  0
SECTION
  2
TABLES
  0
TABLE
  2
VPORT
  5
8
100
AcDbSymbolTable
 70
2
  0
VPORT
  5
1F4
100
AcDbSymbolTableRecord
100
AcDbViewportTableRecord
  2
*ACTIVE
 70
0
 10
0.0
 20
0.0
 11
1.0
 21
1.0
 12
148.5
 22
105.0
 13
0.0
 23
0.0
 14
1.0
 24
1.0
 15
0.0
 25
0.0
 16
0.0
 26
0.0
 36
1.0
 17
0.0
 27
0.0
 37
0.0
 40
210.0
 41
1.4142857143
 42
50.0
 43
0.0
 44
0.0
 50
0.0
 51
0.0
 71
0
 72
100
 73
1
 74
1
 75
0
 76
0
 77
0
 78
0
  0
ENDTAB
  0
TABLE
  2
LTYPE
  5
5
100
AcDbSymbolTable
 70
6
  0
LTYPE
  5
14
100
AcDbSymbolTableRecord
100
AcDbLinetypeTableRecord
  2
BYBLOCK
 70
0
  3

 72
65
 73
0
 40
0.0
  0
LTYPE
  5
15
100
AcDbSymbolTableRecord
100
AcDbLinetypeTableRecord
  2
BYLAYER
 70
0
  3

 72
65
 73
0
 40
0.0
  0
LTYPE
  5
16
100
AcDbSymbolTableRecord
100
AcDbLinetypeTableRecord
  2
CONTINUOUS
 70
64
  3
Solid line
 72
65
 73
0
 40
0.0
  0
LTYPE
  5
1F5
100
AcDbSymbolTableRecord
100
AcDbLinetypeTableRecord
  2
CENTER
 70
64
  3
____ _ ____ _ ____ _ ____ _ ____ _ ____ _ ____
 72
65
 73
4
 40
0.6
 49
0.375
 74
0
 49
-0.075
 74
0
 49
0.075
 74
0
 49
-0.075
 74
0
  0
LTYPE
  5
1F6
100
AcDbSymbolTableRecord
100
AcDbLinetypeTableRecord
  2
HIDDEN
 70
64
  3
- - - - - - - - - - - - - - - - - - - -
 72
65
 73
2
 40
0.2
 49
0.1
 74
0
 49
-0.1
 74
0
  0
LTYPE
  5
1F7
100
AcDbSymbolTableRecord
100
AcDbLinetypeTableRecord
  2
PHANTOM
 70
64
  3
_____ _ _ _____ _ _ _____ _ _ _____
 72
65
 73
6
 40
0.8
 49
0.45
 74
0
 49
-0.05
 74
0
 49
0.1
 74
0
 49
-0.05
 74
0
 49
0.1
 74
0
 49
-0.05
 74
0
  0
LTYPE
  5
1F8
100
AcDbSymbolTableRecord
100
AcDbLinetypeTableRecord
  2
DOT
 70
64
  3
. . . . . . . . . . . . . . . . . . . .
 72
65
 73
2
 40
0.2
 49
0.1
 74
0
 49
-0.1
 74
0
  0
LTYPE
  5
1F9
100
AcDbSymbolTableRecord
100
AcDbLinetypeTableRecord
  2
DASHED
 70
64
  3
- - - - - - - - - - - - - - - - - - - -
 72
65
 73
2
 40
0.2
 49
0.1
 74
0
 49
-0.1
 74
0
  0
ENDTAB
  0
TABLE
  2
LAYER
  5
2
100
AcDbSymbolTable
 70
36
  0
LAYER
  5
10
100
AcDbSymbolTableRecord
100
AcDbLayerTableRecord
  2
0
 70
0
 62
7
  6
CONTINUOUS
370
-3
390
F
  0
LAYER
  5
1FA
100
AcDbSymbolTableRecord
100
AcDbLayerTableRecord
  2
DEFAULT_1
 70
0
 62
7
  6
CENTER
370
-3
390
F
  0
LAYER
  5
1FB
100
AcDbSymbolTableRecord
100
AcDbLayerTableRecord
  2
DEFAULT_2
 70
0
 62
7
  6
HIDDEN
370
-3
390
F
  0
LAYER
  5
1FC
100
AcDbSymbolTableRecord
100
AcDbLayerTableRecord
  2
DEFAULT_3
 70
0
 62
7
  6
PHANTOM
370
-3
390
F
  0
LAYER
  5
1FD
100
AcDbSymbolTableRecord
100
AcDbLayerTableRecord
  2
1
 70
0
 62
7
  6
CONTINUOUS
370
-3
390
F
  0
LAYER
  5
1FE
100
AcDbSymbolTableRecord
100
AcDbLayerTableRecord
  2
133A_110000
 70
0
 62
7
  6
CONTINUOUS
370
-3
390
F
  0
LAYER
  5
1FF
100
AcDbSymbolTableRecord
100
AcDbLayerTableRecord
  2
133A_110000_1
 70
0
 62
7
  6
CONTINUOUS
370
-3
390
F
  0
LAYER
  5
200
100
AcDbSymbolTableRecord
100
AcDbLayerTableRecord
  2
1608-CC-RF-VIMAR_80000
 70
0
 62
7
  6
CONTINUOUS
370
-3
390
F
  0
LAYER
  5
201
100
AcDbSymbolTableRecord
100
AcDbLayerTableRecord
  2
1608-CC-RF-VIMAR_80000_1
 70
0
 62
7
  6
CONTINUOUS
370
-3
390
F
  0
LAYER
  5
202
100
AcDbSymbolTableRecord
100
AcDbLayerTableRecord
  2
1608-CC-RF-VIMAR_80000_10
 70
0
 62
7
  6
CONTINUOUS
370
-3
390
F
  0
LAYER
  5
203
100
AcDbSymbolTableRecord
100
AcDbLayerTableRecord
  2
1608-CC-RF-VIMAR_80000_11
 70
0
 62
7
  6
CONTINUOUS
370
-3
390
F
  0
LAYER
  5
204
100
AcDbSymbolTableRecord
100
AcDbLayerTableRecord
  2
1608-CC-RF-VIMAR_80000_12
 70
0
 62
7
  6
CONTINUOUS
370
-3
390
F
  0
LAYER
  5
205
100
AcDbSymbolTableRecord
100
AcDbLayerTableRecord
  2
1608-CC-RF-VIMAR_80000_13
 70
0
 62
7
  6
CONTINUOUS
370
-3
390
F
  0
LAYER
  5
206
100
AcDbSymbolTableRecord
100
AcDbLayerTableRecord
  2
1608-CC-RF-VIMAR_80000_14
 70
0
 62
7
  6
CONTINUOUS
370
-3
390
F
  0
LAYER
  5
207
100
AcDbSymbolTableRecord
100
AcDbLayerTableRecord
  2
1608-CC-RF-VIMAR_80000_15
 70
0
 62
7
  6
CONTINUOUS
370
-3
390
F
  0
LAYER
  5
208
100
AcDbSymbolTableRecord
100
AcDbLayerTableRecord
  2
1608-CC-RF-VIMAR_80000_16
 70
0
 62
7
  6
CONTINUOUS
370
-3
390
F
  0
LAYER
  5
209
100
AcDbSymbolTableRecord
100
AcDbLayerTableRecord
  2
1608-CC-RF-VIMAR_80000_17
 70
0
 62
7
  6
CONTINUOUS
370
-3
390
F
  0
LAYER
  5
20A
100
AcDbSymbolTableRecord
100
AcDbLayerTableRecord
  2
1608-CC-RF-VIMAR_80000_18
 70
0
 62
7
  6
CONTINUOUS
370
-3
390
F
  0
LAYER
  5
20B
100
AcDbSymbolTableRecord
100
AcDbLayerTableRecord
  2
1608-CC-RF-VIMAR_80000_19
 70
0
 62
7
  6
CONTINUOUS
370
-3
390
F
  0
LAYER
  5
20C
100
AcDbSymbolTableRecord
100
AcDbLayerTableRecord
  2
1608-CC-RF-VIMAR_80000_2
 70
0
 62
7
  6
CONTINUOUS
370
-3
390
F
  0
LAYER
  5
20D
100
AcDbSymbolTableRecord
100
AcDbLayerTableRecord
  2
1608-CC-RF-VIMAR_80000_20
 70
0
 62
7
  6
CONTINUOUS
370
-3
390
F
  0
LAYER
  5
20E
100
AcDbSymbolTableRecord
100
AcDbLayerTableRecord
  2
1608-CC-RF-VIMAR_80000_21
 70
0
 62
7
  6
CONTINUOUS
370
-3
390
F
  0
LAYER
  5
20F
100
AcDbSymbolTableRecord
100
AcDbLayerTableRecord
  2
1608-CC-RF-VIMAR_80000_22
 70
0
 62
7
  6
CONTINUOUS
370
-3
390
F
  0
LAYER
  5
210
100
AcDbSymbolTableRecord
100
AcDbLayerTableRecord
  2
1608-CC-RF-VIMAR_80000_3
 70
0
 62
7
  6
CONTINUOUS
370
-3
390
F
  0
LAYER
  5
211
100
AcDbSymbolTableRecord
100
AcDbLayerTableRecord
  2
1608-CC-RF-VIMAR_80000_4
 70
0
 62
7
  6
CONTINUOUS
370
-3
390
F
  0
LAYER
  5
212
100
AcDbSymbolTableRecord
100
AcDbLayerTableRecord
  2
1608-CC-RF-VIMAR_80000_5
 70
0
 62
7
  6
CONTINUOUS
370
-3
390
F
  0
LAYER
  5
213
100
AcDbSymbolTableRecord
100
AcDbLayerTableRecord
  2
1608-CC-RF-VIMAR_80000_6
 70
0
 62
7
  6
CONTINUOUS
370
-3
390
F
  0
LAYER
  5
214
100
AcDbSymbolTableRecord
100
AcDbLayerTableRecord
  2
1608-CC-RF-VIMAR_80000_7
 70
0
 62
7
  6
CONTINUOUS
370
-3
390
F
  0
LAYER
  5
215
100
AcDbSymbolTableRecord
100
AcDbLayerTableRecord
  2
1608-CC-RF-VIMAR_80000_8
 70
0
 62
7
  6
CONTINUOUS
370
-3
390
F
  0
LAYER
  5
216
100
AcDbSymbolTableRecord
100
AcDbLayerTableRecord
  2
1608-CC-RF-VIMAR_80000_9
 70
0
 62
7
  6
CONTINUOUS
370
-3
390
F
  0
LAYER
  5
217
100
AcDbSymbolTableRecord
100
AcDbLayerTableRecord
  2
1608-FL-RF-VIMAR_80000
 70
0
 62
7
  6
CONTINUOUS
370
-3
390
F
  0
LAYER
  5
218
100
AcDbSymbolTableRecord
100
AcDbLayerTableRecord
  2
1608-FL-RF-VIMAR_80000_1
 70
0
 62
7
  6
CONTINUOUS
370
-3
390
F
  0
LAYER
  5
219
100
AcDbSymbolTableRecord
100
AcDbLayerTableRecord
  2
1608-R-RF-VIMAR_45000
 70
0
 62
7
  6
CONTINUOUS
370
-3
390
F
  0
LAYER
  5
21A
100
AcDbSymbolTableRecord
100
AcDbLayerTableRecord
  2
1608-R-RF-VIMAR_45000_1
 70
0
 62
7
  6
CONTINUOUS
370
-3
390
F
  0
LAYER
  5
21B
100
AcDbSymbolTableRecord
100
AcDbLayerTableRecord
  2
1608-R-RF-VIMAR_45000_10
 70
0
 62
7
  6
CONTINUOUS
370
-3
390
F
  0
LAYER
  5
21C
100
AcDbSymbolTableRecord
100
AcDbLayerTableRecord
  2
1608-R-RF-VIMAR_45000_11
 70
0
 62
7
  6
CONTINUOUS
370
-3
390
F
  0
LAYER
  5
21D
100
AcDbSymbolTableRecord
100
AcDbLayerTableRecord
  2
1608-R-RF-VIMAR_45000_12
 70
0
 62
7
  6
CONTINUOUS
370
-3
390
F
  0
LAYER
  5
21E
100
AcDbSymbolTableRecord
100
AcDbLayerTableRecord
  2
1608-R-RF-VIMAR_45000_13
 70
0
 62
7
  6
CONTINUOUS
370
-3
390
F
  0
LAYER
  5
21F
100
AcDbSymbolTableRecord
100
AcDbLayerTableRecord
  2
1608-R-RF-VIMAR_45000_14
 70
0
 62
7
  6
CONTINUOUS
370
-3
390
F
  0
LAYER
  5
220
100
AcDbSymbolTableRecord
100
AcDbLayerTableRecord
  2
1608-R-RF-VIMAR_45000_15
 70
0
 62
7
  6
CONTINUOUS
370
-3
390
F
  0
LAYER
  5
221
100
AcDbSymbolTableRecord
100
AcDbLayerTableRecord
  2
1608-R-RF-VIMAR_45000_16
 70
0
 62
7
  6
CONTINUOUS
370
-3
390
F
  0
LAYER
  5
222
100
AcDbSymbolTableRecord
100
AcDbLayerTableRecord
  2
1608-R-RF-VIMAR_45000_17
 70
0
 62
7
  6
CONTINUOUS
370
-3
390
F
  0
LAYER
  5
223
100
AcDbSymbolTableRecord
100
AcDbLayerTableRecord
  2
1608-R-RF-VIMAR_45000_18
 70
0
 62
7
  6
CONTINUOUS
370
-3
390
F
  0
LAYER
  5
224
100
AcDbSymbolTableRecord
100
AcDbLayerTableRecord
  2
1608-R-RF-VIMAR_45000_19
 70
0
 62
7
  6
CONTINUOUS
370
-3
390
F
  0
LAYER
  5
225
100
AcDbSymbolTableRecord
100
AcDbLayerTableRecord
  2
1608-R-RF-VIMAR_45000_2
 70
0
 62
7
  6
CONTINUOUS
370
-3
390
F
  0
LAYER
  5
226
100
AcDbSymbolTableRecord
100
AcDbLayerTableRecord
  2
1608-R-RF-VIMAR_45000_20
 70
0
 62
7
  6
CONTINUOUS
370
-3
390
F
  0
LAYER
  5
227
100
AcDbSymbolTableRecord
100
AcDbLayerTableRecord
  2
1608-R-RF-VIMAR_45000_3
 70
0
 62
7
  6
CONTINUOUS
370
-3
390
F
  0
LAYER
  5
228
100
AcDbSymbolTableRecord
100
AcDbLayerTableRecord
  2
1608-R-RF-VIMAR_45000_4
 70
0
 62
7
  6
CONTINUOUS
370
-3
390
F
  0
LAYER
  5
229
100
AcDbSymbolTableRecord
100
AcDbLayerTableRecord
  2
1608-R-RF-VIMAR_45000_5
 70
0
 62
7
  6
CONTINUOUS
370
-3
390
F
  0
LAYER
  5
22A
100
AcDbSymbolTableRecord
100
AcDbLayerTableRecord
  2
1608-R-RF-VIMAR_45000_6
 70
0
 62
7
  6
CONTINUOUS
370
-3
390
F
  0
LAYER
  5
22B
100
AcDbSymbolTableRecord
100
AcDbLayerTableRecord
  2
1608-R-RF-VIMAR_45000_7
 70
0
 62
7
  6
CONTINUOUS
370
-3
390
F
  0
LAYER
  5
22C
100
AcDbSymbolTableRecord
100
AcDbLayerTableRecord
  2
1608-R-RF-VIMAR_45000_8
 70
0
 62
7
  6
CONTINUOUS
370
-3
390
F
  0
LAYER
  5
22D
100
AcDbSymbolTableRecord
100
AcDbLayerTableRecord
  2
1608-R-RF-VIMAR_45000_9
 70
0
 62
7
  6
CONTINUOUS
370
-3
390
F
  0
LAYER
  5
22E
100
AcDbSymbolTableRecord
100
AcDbLayerTableRecord
  2
200A_170000
 70
0
 62
7
  6
CONTINUOUS
370
-3
390
F
  0
LAYER
  5
22F
100
AcDbSymbolTableRecord
100
AcDbLayerTableRecord
  2
210_120000
 70
0
 62
7
  6
CONTINUOUS
370
-3
390
F
  0
LAYER
  5
230
100
AcDbSymbolTableRecord
100
AcDbLayerTableRecord
  2
210_120000_1
 70
0
 62
7
  6
CONTINUOUS
370
-3
390
F
  0
LAYER
  5
231
100
AcDbSymbolTableRecord
100
AcDbLayerTableRecord
  2
210_120000_2
 70
0
 62
7
  6
CONTINUOUS
370
-3
390
F
  0
LAYER
  5
232
100
AcDbSymbolTableRecord
100
AcDbLayerTableRecord
  2
210_120000_3
 70
0
 62
7
  6
CONTINUOUS
370
-3
390
F
  0
LAYER
  5
233
100
AcDbSymbolTableRecord
100
AcDbLayerTableRecord
  2
210_120000_4
 70
0
 62
7
  6
CONTINUOUS
370
-3
390
F
  0
LAYER
  5
234
100
AcDbSymbolTableRecord
100
AcDbLayerTableRecord
  2
210_120000_5
 70
0
 62
7
  6
CONTINUOUS
370
-3
390
F
  0
LAYER
  5
235
100
AcDbSymbolTableRecord
100
AcDbLayerTableRecord
  2
210_120000_6
 70
0
 62
7
  6
CONTINUOUS
370
-3
390
F
  0
LAYER
  5
236
100
AcDbSymbolTableRecord
100
AcDbLayerTableRecord
  2
2125-CC-RF-VIMAR_65000
 70
0
 62
7
  6
CONTINUOUS
370
-3
390
F
  0
LAYER
  5
237
100
AcDbSymbolTableRecord
100
AcDbLayerTableRecord
  2
2125-CC-RF-VIMAR_65000_1
 70
0
 62
7
  6
CONTINUOUS
370
-3
390
F
  0
LAYER
  5
238
100
AcDbSymbolTableRecord
100
AcDbLayerTableRecord
  2
2125-CC-RF-VIMAR_65000_2
 70
0
 62
7
  6
CONTINUOUS
370
-3
390
F
  0
LAYER
  5
239
100
AcDbSymbolTableRecord
100
AcDbLayerTableRecord
  2
2125-CC-RF-VIMAR_65000_3
 70
0
 62
7
  6
CONTINUOUS
370
-3
390
F
  0
LAYER
  5
23A
100
AcDbSymbolTableRecord
100
AcDbLayerTableRecord
  2
2125-DL-RF-FINE_VIMAR_110000
 70
0
 62
7
  6
CONTINUOUS
370
-3
390
F
  0
LAYER
  5
23B
100
AcDbSymbolTableRecord
100
AcDbLayerTableRecord
  2
3216-CF-RF-VIMAR_100000
 70
0
 62
7
  6
CONTINUOUS
370
-3
390
F
  0
LAYER
  5
23C
100
AcDbSymbolTableRecord
100
AcDbLayerTableRecord
  2
3216-CF-RF-VIMAR_100000_1
 70
0
 62
7
  6
CONTINUOUS
370
-3
390
F
  0
LAYER
  5
23D
100
AcDbSymbolTableRecord
100
AcDbLayerTableRecord
  2
3216-CF-RF-VIMAR_100000_2
 70
0
 62
7
  6
CONTINUOUS
370
-3
390
F
  0
LAYER
  5
23E
100
AcDbSymbolTableRecord
100
AcDbLayerTableRecord
  2
3216-CF-RF-VIMAR_100000_3
 70
0
 62
7
  6
CONTINUOUS
370
-3
390
F
  0
LAYER
  5
23F
100
AcDbSymbolTableRecord
100
AcDbLayerTableRecord
  2
3216-CS2-RF_1_180000
 70
0
 62
7
  6
CONTINUOUS
370
-3
390
F
  0
LAYER
  5
240
100
AcDbSymbolTableRecord
100
AcDbLayerTableRecord
  2
3216-CS2-RF_1_180000_1
 70
0
 62
7
  6
CONTINUOUS
370
-3
390
F
  0
LAYER
  5
241
100
AcDbSymbolTableRecord
100
AcDbLayerTableRecord
  2
3216-R1-RF-VIMAR_60000
 70
0
 62
7
  6
CONTINUOUS
370
-3
390
F
  0
LAYER
  5
242
100
AcDbSymbolTableRecord
100
AcDbLayerTableRecord
  2
3216-R1-RF-VIMAR_60000_1
 70
0
 62
7
  6
CONTINUOUS
370
-3
390
F
  0
LAYER
  5
243
100
AcDbSymbolTableRecord
100
AcDbLayerTableRecord
  2
43000607A0
 70
0
 62
7
  6
CONTINUOUS
370
-3
390
F
  0
LAYER
  5
244
100
AcDbSymbolTableRecord
100
AcDbLayerTableRecord
  2
43000608A0
 70
0
 62
7
  6
CONTINUOUS
370
-3
390
F
  0
LAYER
  5
245
100
AcDbSymbolTableRecord
100
AcDbLayerTableRecord
  2
43900608A0
 70
0
 62
7
  6
CONTINUOUS
370
-3
390
F
  0
LAYER
  5
246
100
AcDbSymbolTableRecord
100
AcDbLayerTableRecord
  2
6032-CS-RF_280000
 70
0
 62
7
  6
CONTINUOUS
370
-3
390
F
  0
LAYER
  5
247
100
AcDbSymbolTableRecord
100
AcDbLayerTableRecord
  2
7343-CS3-RF_430000
 70
0
 62
7
  6
CONTINUOUS
370
-3
390
F
  0
LAYER
  5
248
100
AcDbSymbolTableRecord
100
AcDbLayerTableRecord
  2
AN_DUAL_BAND_GSM_1_0
 70
0
 62
7
  6
CONTINUOUS
370
-3
390
F
  0
LAYER
  5
249
100
AcDbSymbolTableRecord
100
AcDbLayerTableRecord
  2
ASSI
 70
0
 62
7
  6
CONTINUOUS
370
-3
390
F
  0
LAYER
  5
24A
100
AcDbSymbolTableRecord
100
AcDbLayerTableRecord
  2
BGA112C80P11X11_1000X1000X65_65
 70
0
 62
7
  6
CONTINUOUS
370
-3
390
F
  0
LAYER
  5
24B
100
AcDbSymbolTableRecord
100
AcDbLayerTableRecord
  2
CAPC1005X60N_60000
 70
0
 62
7
  6
CONTINUOUS
370
-3
390
F
  0
LAYER
  5
24C
100
AcDbSymbolTableRecord
100
AcDbLayerTableRecord
  2
CAPC1005X60N_60000_1
 70
0
 62
7
  6
CONTINUOUS
370
-3
390
F
  0
LAYER
  5
24D
100
AcDbSymbolTableRecord
100
AcDbLayerTableRecord
  2
CAPC1005X60N_60000_10
 70
0
 62
7
  6
CONTINUOUS
370
-3
390
F
  0
LAYER
  5
24E
100
AcDbSymbolTableRecord
100
AcDbLayerTableRecord
  2
CAPC1005X60N_60000_11
 70
0
 62
7
  6
CONTINUOUS
370
-3
390
F
  0
LAYER
  5
24F
100
AcDbSymbolTableRecord
100
AcDbLayerTableRecord
  2
CAPC1005X60N_60000_12
 70
0
 62
7
  6
CONTINUOUS
370
-3
390
F
  0
LAYER
  5
250
100
AcDbSymbolTableRecord
100
AcDbLayerTableRecord
  2
CAPC1005X60N_60000_13
 70
0
 62
7
  6
CONTINUOUS
370
-3
390
F
  0
LAYER
  5
251
100
AcDbSymbolTableRecord
100
AcDbLayerTableRecord
  2
CAPC1005X60N_60000_14
 70
0
 62
7
  6
CONTINUOUS
370
-3
390
F
  0
LAYER
  5
252
100
AcDbSymbolTableRecord
100
AcDbLayerTableRecord
  2
CAPC1005X60N_60000_15
 70
0
 62
7
  6
CONTINUOUS
370
-3
390
F
  0
LAYER
  5
253
100
AcDbSymbolTableRecord
100
AcDbLayerTableRecord
  2
CAPC1005X60N_60000_16
 70
0
 62
7
  6
CONTINUOUS
370
-3
390
F
  0
LAYER
  5
254
100
AcDbSymbolTableRecord
100
AcDbLayerTableRecord
  2
CAPC1005X60N_60000_17
 70
0
 62
7
  6
CONTINUOUS
370
-3
390
F
  0
LAYER
  5
255
100
AcDbSymbolTableRecord
100
AcDbLayerTableRecord
  2
CAPC1005X60N_60000_18
 70
0
 62
7
  6
CONTINUOUS
370
-3
390
F
  0
LAYER
  5
256
100
AcDbSymbolTableRecord
100
AcDbLayerTableRecord
  2
CAPC1005X60N_60000_19
 70
0
 62
7
  6
CONTINUOUS
370
-3
390
F
  0
LAYER
  5
257
100
AcDbSymbolTableRecord
100
AcDbLayerTableRecord
  2
CAPC1005X60N_60000_2
 70
0
 62
7
  6
CONTINUOUS
370
-3
390
F
  0
LAYER
  5
258
100
AcDbSymbolTableRecord
100
AcDbLayerTableRecord
  2
CAPC1005X60N_60000_20
 70
0
 62
7
  6
CONTINUOUS
370
-3
390
F
  0
LAYER
  5
259
100
AcDbSymbolTableRecord
100
AcDbLayerTableRecord
  2
CAPC1005X60N_60000_21
 70
0
 62
7
  6
CONTINUOUS
370
-3
390
F
  0
LAYER
  5
25A
100
AcDbSymbolTableRecord
100
AcDbLayerTableRecord
  2
CAPC1005X60N_60000_22
 70
0
 62
7
  6
CONTINUOUS
370
-3
390
F
  0
LAYER
  5
25B
100
AcDbSymbolTableRecord
100
AcDbLayerTableRecord
  2
CAPC1005X60N_60000_23
 70
0
 62
7
  6
CONTINUOUS
370
-3
390
F
  0
LAYER
  5
25C
100
AcDbSymbolTableRecord
100
AcDbLayerTableRecord
  2
CAPC1005X60N_60000_24
 70
0
 62
7
  6
CONTINUOUS
370
-3
390
F
  0
LAYER
  5
25D
100
AcDbSymbolTableRecord
100
AcDbLayerTableRecord
  2
CAPC1005X60N_60000_25
 70
0
 62
7
  6
CONTINUOUS
370
-3
390
F
  0
LAYER
  5
25E
100
AcDbSymbolTableRecord
100
AcDbLayerTableRecord
  2
CAPC1005X60N_60000_26
 70
0
 62
7
  6
CONTINUOUS
370
-3
390
F
  0
LAYER
  5
25F
100
AcDbSymbolTableRecord
100
AcDbLayerTableRecord
  2
CAPC1005X60N_60000_27
 70
0
 62
7
  6
CONTINUOUS
370
-3
390
F
  0
LAYER
  5
260
100
AcDbSymbolTableRecord
100
AcDbLayerTableRecord
  2
CAPC1005X60N_60000_28
 70
0
 62
7
  6
CONTINUOUS
370
-3
390
F
  0
LAYER
  5
261
100
AcDbSymbolTableRecord
100
AcDbLayerTableRecord
  2
CAPC1005X60N_60000_29
 70
0
 62
7
  6
CONTINUOUS
370
-3
390
F
  0
LAYER
  5
262
100
AcDbSymbolTableRecord
100
AcDbLayerTableRecord
  2
CAPC1005X60N_60000_3
 70
0
 62
7
  6
CONTINUOUS
370
-3
390
F
  0
LAYER
  5
263
100
AcDbSymbolTableRecord
100
AcDbLayerTableRecord
  2
CAPC1005X60N_60000_30
 70
0
 62
7
  6
CONTINUOUS
370
-3
390
F
  0
LAYER
  5
264
100
AcDbSymbolTableRecord
100
AcDbLayerTableRecord
  2
CAPC1005X60N_60000_31
 70
0
 62
7
  6
CONTINUOUS
370
-3
390
F
  0
LAYER
  5
265
100
AcDbSymbolTableRecord
100
AcDbLayerTableRecord
  2
CAPC1005X60N_60000_32
 70
0
 62
7
  6
CONTINUOUS
370
-3
390
F
  0
LAYER
  5
266
100
AcDbSymbolTableRecord
100
AcDbLayerTableRecord
  2
CAPC1005X60N_60000_33
 70
0
 62
7
  6
CONTINUOUS
370
-3
390
F
  0
LAYER
  5
267
100
AcDbSymbolTableRecord
100
AcDbLayerTableRecord
  2
CAPC1005X60N_60000_34
 70
0
 62
7
  6
CONTINUOUS
370
-3
390
F
  0
LAYER
  5
268
100
AcDbSymbolTableRecord
100
AcDbLayerTableRecord
  2
CAPC1005X60N_60000_35
 70
0
 62
7
  6
CONTINUOUS
370
-3
390
F
  0
LAYER
  5
269
100
AcDbSymbolTableRecord
100
AcDbLayerTableRecord
  2
CAPC1005X60N_60000_36
 70
0
 62
7
  6
CONTINUOUS
370
-3
390
F
  0
LAYER
  5
26A
100
AcDbSymbolTableRecord
100
AcDbLayerTableRecord
  2
CAPC1005X60N_60000_37
 70
0
 62
7
  6
CONTINUOUS
370
-3
390
F
  0
LAYER
  5
26B
100
AcDbSymbolTableRecord
100
AcDbLayerTableRecord
  2
CAPC1005X60N_60000_38
 70
0
 62
7
  6
CONTINUOUS
370
-3
390
F
  0
LAYER
  5
26C
100
AcDbSymbolTableRecord
100
AcDbLayerTableRecord
  2
CAPC1005X60N_60000_39
 70
0
 62
7
  6
CONTINUOUS
370
-3
390
F
  0
LAYER
  5
26D
100
AcDbSymbolTableRecord
100
AcDbLayerTableRecord
  2
CAPC1005X60N_60000_4
 70
0
 62
7
  6
CONTINUOUS
370
-3
390
F
  0
LAYER
  5
26E
100
AcDbSymbolTableRecord
100
AcDbLayerTableRecord
  2
CAPC1005X60N_60000_40
 70
0
 62
7
  6
CONTINUOUS
370
-3
390
F
  0
LAYER
  5
26F
100
AcDbSymbolTableRecord
100
AcDbLayerTableRecord
  2
CAPC1005X60N_60000_41
 70
0
 62
7
  6
CONTINUOUS
370
-3
390
F
  0
LAYER
  5
270
100
AcDbSymbolTableRecord
100
AcDbLayerTableRecord
  2
CAPC1005X60N_60000_42
 70
0
 62
7
  6
CONTINUOUS
370
-3
390
F
  0
LAYER
  5
271
100
AcDbSymbolTableRecord
100
AcDbLayerTableRecord
  2
CAPC1005X60N_60000_43
 70
0
 62
7
  6
CONTINUOUS
370
-3
390
F
  0
LAYER
  5
272
100
AcDbSymbolTableRecord
100
AcDbLayerTableRecord
  2
CAPC1005X60N_60000_44
 70
0
 62
7
  6
CONTINUOUS
370
-3
390
F
  0
LAYER
  5
273
100
AcDbSymbolTableRecord
100
AcDbLayerTableRecord
  2
CAPC1005X60N_60000_45
 70
0
 62
7
  6
CONTINUOUS
370
-3
390
F
  0
LAYER
  5
274
100
AcDbSymbolTableRecord
100
AcDbLayerTableRecord
  2
CAPC1005X60N_60000_46
 70
0
 62
7
  6
CONTINUOUS
370
-3
390
F
  0
LAYER
  5
275
100
AcDbSymbolTableRecord
100
AcDbLayerTableRecord
  2
CAPC1005X60N_60000_47
 70
0
 62
7
  6
CONTINUOUS
370
-3
390
F
  0
LAYER
  5
276
100
AcDbSymbolTableRecord
100
AcDbLayerTableRecord
  2
CAPC1005X60N_60000_48
 70
0
 62
7
  6
CONTINUOUS
370
-3
390
F
  0
LAYER
  5
277
100
AcDbSymbolTableRecord
100
AcDbLayerTableRecord
  2
CAPC1005X60N_60000_49
 70
0
 62
7
  6
CONTINUOUS
370
-3
390
F
  0
LAYER
  5
278
100
AcDbSymbolTableRecord
100
AcDbLayerTableRecord
  2
CAPC1005X60N_60000_5
 70
0
 62
7
  6
CONTINUOUS
370
-3
390
F
  0
LAYER
  5
279
100
AcDbSymbolTableRecord
100
AcDbLayerTableRecord
  2
CAPC1005X60N_60000_50
 70
0
 62
7
  6
CONTINUOUS
370
-3
390
F
  0
LAYER
  5
27A
100
AcDbSymbolTableRecord
100
AcDbLayerTableRecord
  2
CAPC1005X60N_60000_51
 70
0
 62
7
  6
CONTINUOUS
370
-3
390
F
  0
LAYER
  5
27B
100
AcDbSymbolTableRecord
100
AcDbLayerTableRecord
  2
CAPC1005X60N_60000_52
 70
0
 62
7
  6
CONTINUOUS
370
-3
390
F
  0
LAYER
  5
27C
100
AcDbSymbolTableRecord
100
AcDbLayerTableRecord
  2
CAPC1005X60N_60000_53
 70
0
 62
7
  6
CONTINUOUS
370
-3
390
F
  0
LAYER
  5
27D
100
AcDbSymbolTableRecord
100
AcDbLayerTableRecord
  2
CAPC1005X60N_60000_54
 70
0
 62
7
  6
CONTINUOUS
370
-3
390
F
  0
LAYER
  5
27E
100
AcDbSymbolTableRecord
100
AcDbLayerTableRecord
  2
CAPC1005X60N_60000_55
 70
0
 62
7
  6
CONTINUOUS
370
-3
390
F
  0
LAYER
  5
27F
100
AcDbSymbolTableRecord
100
AcDbLayerTableRecord
  2
CAPC1005X60N_60000_6
 70
0
 62
7
  6
CONTINUOUS
370
-3
390
F
  0
LAYER
  5
280
100
AcDbSymbolTableRecord
100
AcDbLayerTableRecord
  2
CAPC1005X60N_60000_7
 70
0
 62
7
  6
CONTINUOUS
370
-3
390
F
  0
LAYER
  5
281
100
AcDbSymbolTableRecord
100
AcDbLayerTableRecord
  2
CAPC1005X60N_60000_8
 70
0
 62
7
  6
CONTINUOUS
370
-3
390
F
  0
LAYER
  5
282
100
AcDbSymbolTableRecord
100
AcDbLayerTableRecord
  2
CAPC1005X60N_60000_9
 70
0
 62
7
  6
CONTINUOUS
370
-3
390
F
  0
LAYER
  5
283
100
AcDbSymbolTableRecord
100
AcDbLayerTableRecord
  2
CAPC1608N_80000
 70
0
 62
7
  6
CONTINUOUS
370
-3
390
F
  0
LAYER
  5
284
100
AcDbSymbolTableRecord
100
AcDbLayerTableRecord
  2
CAPC1608N_80000_1
 70
0
 62
7
  6
CONTINUOUS
370
-3
390
F
  0
LAYER
  5
285
100
AcDbSymbolTableRecord
100
AcDbLayerTableRecord
  2
CAPC1608N_80000_2
 70
0
 62
7
  6
CONTINUOUS
370
-3
390
F
  0
LAYER
  5
286
100
AcDbSymbolTableRecord
100
AcDbLayerTableRecord
  2
CAPC1608N_80000_3
 70
0
 62
7
  6
CONTINUOUS
370
-3
390
F
  0
LAYER
  5
287
100
AcDbSymbolTableRecord
100
AcDbLayerTableRecord
  2
CAPMP7343X430N_430000
 70
0
 62
7
  6
CONTINUOUS
370
-3
390
F
  0
LAYER
  5
288
100
AcDbSymbolTableRecord
100
AcDbLayerTableRecord
  2
CN-12D-F-SMD-2_54-1-VIMAR_75000
 70
0
 62
7
  6
CONTINUOUS
370
-3
390
F
  0
LAYER
  5
289
100
AcDbSymbolTableRecord
100
AcDbLayerTableRecord
  2
CN-SIMCARD-LIBRO_250000
 70
0
 62
7
  6
CONTINUOUS
370
-3
390
F
  0
LAYER
  5
28A
100
AcDbSymbolTableRecord
100
AcDbLayerTableRecord
  2
CN08-HEADER-SMD2_54-1-VIMAR_918
 70
0
 62
7
  6
CONTINUOUS
370
-3
390
F
  0
LAYER
  5
28B
100
AcDbSymbolTableRecord
100
AcDbLayerTableRecord
  2
CN1-TP15_SMD-VIMAR_5000
 70
0
 62
7
  6
CONTINUOUS
370
-3
390
F
  0
LAYER
  5
28C
100
AcDbSymbolTableRecord
100
AcDbLayerTableRecord
  2
CN1-TP15_SMD-VIMAR_5000_1
 70
0
 62
7
  6
CONTINUOUS
370
-3
390
F
  0
LAYER
  5
28D
100
AcDbSymbolTableRecord
100
AcDbLayerTableRecord
  2
CN1-TP15_SMD-VIMAR_5000_2
 70
0
 62
7
  6
CONTINUOUS
370
-3
390
F
  0
LAYER
  5
28E
100
AcDbSymbolTableRecord
100
AcDbLayerTableRecord
  2
CN1-TP15_SMD-VIMAR_5000_3
 70
0
 62
7
  6
CONTINUOUS
370
-3
390
F
  0
LAYER
  5
28F
100
AcDbSymbolTableRecord
100
AcDbLayerTableRecord
  2
CN1-TP15_SMD-VIMAR_5000_4
 70
0
 62
7
  6
CONTINUOUS
370
-3
390
F
  0
LAYER
  5
290
100
AcDbSymbolTableRecord
100
AcDbLayerTableRecord
  2
CN1-TP15_SMD-VIMAR_5000_5
 70
0
 62
7
  6
CONTINUOUS
370
-3
390
F
  0
LAYER
  5
291
100
AcDbSymbolTableRecord
100
AcDbLayerTableRecord
  2
CN1-TP15_SMD-VIMAR_5000_6
 70
0
 62
7
  6
CONTINUOUS
370
-3
390
F
  0
LAYER
  5
292
100
AcDbSymbolTableRecord
100
AcDbLayerTableRecord
  2
CN1-TP15_SMD-VIMAR_5000_7
 70
0
 62
7
  6
CONTINUOUS
370
-3
390
F
  0
LAYER
  5
293
100
AcDbSymbolTableRecord
100
AcDbLayerTableRecord
  2
CN1-TP15_SMD-VIMAR_5000_8
 70
0
 62
7
  6
CONTINUOUS
370
-3
390
F
  0
LAYER
  5
294
100
AcDbSymbolTableRecord
100
AcDbLayerTableRecord
  2
CN20-VASCHETTA_2500000
 70
0
 62
7
  6
CONTINUOUS
370
-3
390
F
  0
LAYER
  5
295
100
AcDbSymbolTableRecord
100
AcDbLayerTableRecord
  2
COLOR1
 70
0
 62
7
  6
CONTINUOUS
370
-3
390
F
  0
LAYER
  5
296
100
AcDbSymbolTableRecord
100
AcDbLayerTableRecord
  2
COLOR10
 70
0
 62
7
  6
CONTINUOUS
370
-3
390
F
  0
LAYER
  5
297
100
AcDbSymbolTableRecord
100
AcDbLayerTableRecord
  2
COLOR5
 70
0
 62
7
  6
CONTINUOUS
370
-3
390
F
  0
LAYER
  5
298
100
AcDbSymbolTableRecord
100
AcDbLayerTableRecord
  2
COLOR6
 70
0
 62
7
  6
CONTINUOUS
370
-3
390
F
  0
LAYER
  5
299
100
AcDbSymbolTableRecord
100
AcDbLayerTableRecord
  2
COLOR9
 70
0
 62
7
  6
CONTINUOUS
370
-3
390
F
  0
LAYER
  5
29A
100
AcDbSymbolTableRecord
100
AcDbLayerTableRecord
  2
COORDINATE
 70
0
 62
7
  6
CONTINUOUS
370
-3
390
F
  0
LAYER
  5
29B
100
AcDbSymbolTableRecord
100
AcDbLayerTableRecord
  2
COORD_ORIGINE
 70
0
 62
7
  6
CONTINUOUS
370
-3
390
F
  0
LAYER
  5
29C
100
AcDbSymbolTableRecord
100
AcDbLayerTableRecord
  2
COPY_PUBLISH
 70
0
 62
7
  6
CONTINUOUS
370
-3
390
F
  0
LAYER
  5
29D
100
AcDbSymbolTableRecord
100
AcDbLayerTableRecord
  2
COSMETICI
 70
0
 62
7
  6
CONTINUOUS
370
-3
390
F
  0
LAYER
  5
29E
100
AcDbSymbolTableRecord
100
AcDbLayerTableRecord
  2
CP-DO-214AA-D-VIMAR_240000
 70
0
 62
7
  6
CONTINUOUS
370
-3
390
F
  0
LAYER
  5
29F
100
AcDbSymbolTableRecord
100
AcDbLayerTableRecord
  2
CP-DO-214AC-D-VIMAR_240000
 70
0
 62
7
  6
CONTINUOUS
370
-3
390
F
  0
LAYER
  5
2A0
100
AcDbSymbolTableRecord
100
AcDbLayerTableRecord
  2
CURVE
 70
0
 62
7
  6
CONTINUOUS
370
-3
390
F
  0
LAYER
  5
2A1
100
AcDbSymbolTableRecord
100
AcDbLayerTableRecord
  2
DRAFT
 70
0
 62
7
  6
CONTINUOUS
370
-3
390
F
  0
LAYER
  5
2A2
100
AcDbSymbolTableRecord
100
AcDbLayerTableRecord
  2
E2_MARK_10000
 70
0
 62
7
  6
CONTINUOUS
370
-3
390
F
  0
LAYER
  5
2A3
100
AcDbSymbolTableRecord
100
AcDbLayerTableRecord
  2
IGES
 70
0
 62
7
  6
CONTINUOUS
370
-3
390
F
  0
LAYER
  5
2A4
100
AcDbSymbolTableRecord
100
AcDbLayerTableRecord
  2
IMPORT_IGES
 70
0
 62
7
  6
CONTINUOUS
370
-3
390
F
  0
LAYER
  5
2A5
100
AcDbSymbolTableRecord
100
AcDbLayerTableRecord
  2
INTFCLR_7583
 70
0
 62
7
  6
CONTINUOUS
370
-3
390
F
  0
LAYER
  5
2A6
100
AcDbSymbolTableRecord
100
AcDbLayerTableRecord
  2
INTFCLR_9235
 70
0
 62
7
  6
CONTINUOUS
370
-3
390
F
  0
LAYER
  5
2A7
100
AcDbSymbolTableRecord
100
AcDbLayerTableRecord
  2
INTF_1
 70
0
 62
7
  6
CONTINUOUS
370
-3
390
F
  0
LAYER
  5
2A8
100
AcDbSymbolTableRecord
100
AcDbLayerTableRecord
  2
INTF_12
 70
0
 62
7
  6
CONTINUOUS
370
-3
390
F
  0
LAYER
  5
2A9
100
AcDbSymbolTableRecord
100
AcDbLayerTableRecord
  2
INTF_6
 70
0
 62
7
  6
CONTINUOUS
370
-3
390
F
  0
LAYER
  5
2AA
100
AcDbSymbolTableRecord
100
AcDbLayerTableRecord
  2
INTF_GREEN
 70
0
 62
7
  6
CONTINUOUS
370
-3
390
F
  0
LAYER
  5
2AB
100
AcDbSymbolTableRecord
100
AcDbLayerTableRecord
  2
LAYER_13218
 70
0
 62
7
  6
CONTINUOUS
370
-3
390
F
  0
LAYER
  5
2AC
100
AcDbSymbolTableRecord
100
AcDbLayerTableRecord
  2
LCD_YA3LCDSN278A00RBS-VIMAR_285
 70
0
 62
7
  6
CONTINUOUS
370
-3
390
F
  0
LAYER
  5
2AD
100
AcDbSymbolTableRecord
100
AcDbLayerTableRecord
  2
LOGO_RESIST-RESTYLING_10000
 70
0
 62
7
  6
CONTINUOUS
370
-3
390
F
  0
LAYER
  5
2AE
100
AcDbSymbolTableRecord
100
AcDbLayerTableRecord
  2
L_SRR0604-RF-VIMAR_480000
 70
0
 62
7
  6
CONTINUOUS
370
-3
390
F
  0
LAYER
  5
2AF
100
AcDbSymbolTableRecord
100
AcDbLayerTableRecord
  2
MLF48-F1-RF-VIMAR_100000
 70
0
 62
7
  6
CONTINUOUS
370
-3
390
F
  0
LAYER
  5
2B0
100
AcDbSymbolTableRecord
100
AcDbLayerTableRecord
  2
MM2-X-7-VIMAR_90000
 70
0
 62
7
  6
CONTINUOUS
370
-3
390
F
  0
LAYER
  5
2B1
100
AcDbSymbolTableRecord
100
AcDbLayerTableRecord
  2
MM3-MPAK-RF-VIMAR_120000
 70
0
 62
7
  6
CONTINUOUS
370
-3
390
F
  0
LAYER
  5
2B2
100
AcDbSymbolTableRecord
100
AcDbLayerTableRecord
  2
MM3-MPAK-RF-VIMAR_120000_1
 70
0
 62
7
  6
CONTINUOUS
370
-3
390
F
  0
LAYER
  5
2B3
100
AcDbSymbolTableRecord
100
AcDbLayerTableRecord
  2
MM3-MPAK-RF-VIMAR_120000_10
 70
0
 62
7
  6
CONTINUOUS
370
-3
390
F
  0
LAYER
  5
2B4
100
AcDbSymbolTableRecord
100
AcDbLayerTableRecord
  2
MM3-MPAK-RF-VIMAR_120000_11
 70
0
 62
7
  6
CONTINUOUS
370
-3
390
F
  0
LAYER
  5
2B5
100
AcDbSymbolTableRecord
100
AcDbLayerTableRecord
  2
MM3-MPAK-RF-VIMAR_120000_2
 70
0
 62
7
  6
CONTINUOUS
370
-3
390
F
  0
LAYER
  5
2B6
100
AcDbSymbolTableRecord
100
AcDbLayerTableRecord
  2
MM3-MPAK-RF-VIMAR_120000_3
 70
0
 62
7
  6
CONTINUOUS
370
-3
390
F
  0
LAYER
  5
2B7
100
AcDbSymbolTableRecord
100
AcDbLayerTableRecord
  2
MM3-MPAK-RF-VIMAR_120000_4
 70
0
 62
7
  6
CONTINUOUS
370
-3
390
F
  0
LAYER
  5
2B8
100
AcDbSymbolTableRecord
100
AcDbLayerTableRecord
  2
MM3-MPAK-RF-VIMAR_120000_5
 70
0
 62
7
  6
CONTINUOUS
370
-3
390
F
  0
LAYER
  5
2B9
100
AcDbSymbolTableRecord
100
AcDbLayerTableRecord
  2
MM3-MPAK-RF-VIMAR_120000_6
 70
0
 62
7
  6
CONTINUOUS
370
-3
390
F
  0
LAYER
  5
2BA
100
AcDbSymbolTableRecord
100
AcDbLayerTableRecord
  2
MM3-MPAK-RF-VIMAR_120000_7
 70
0
 62
7
  6
CONTINUOUS
370
-3
390
F
  0
LAYER
  5
2BB
100
AcDbSymbolTableRecord
100
AcDbLayerTableRecord
  2
MM3-MPAK-RF-VIMAR_120000_8
 70
0
 62
7
  6
CONTINUOUS
370
-3
390
F
  0
LAYER
  5
2BC
100
AcDbSymbolTableRecord
100
AcDbLayerTableRecord
  2
MM3-MPAK-RF-VIMAR_120000_9
 70
0
 62
7
  6
CONTINUOUS
370
-3
390
F
  0
LAYER
  5
2BD
100
AcDbSymbolTableRecord
100
AcDbLayerTableRecord
  2
MM3-SOT-89-RF-VIMAR_150000
 70
0
 62
7
  6
CONTINUOUS
370
-3
390
F
  0
LAYER
  5
2BE
100
AcDbSymbolTableRecord
100
AcDbLayerTableRecord
  2
MM4-MB-1-VIMAR_290000
 70
0
 62
7
  6
CONTINUOUS
370
-3
390
F
  0
LAYER
  5
2BF
100
AcDbSymbolTableRecord
100
AcDbLayerTableRecord
  2
MSD1006B-VIMAR_70000
 70
0
 62
7
  6
CONTINUOUS
370
-3
390
F
  0
LAYER
  5
2C0
100
AcDbSymbolTableRecord
100
AcDbLayerTableRecord
  2
MSOP8-T1-RF-VIMAR_86000
 70
0
 62
7
  6
CONTINUOUS
370
-3
390
F
  0
LAYER
  5
2C1
100
AcDbSymbolTableRecord
100
AcDbLayerTableRecord
  2
NO-PB_MARK_10000
 70
0
 62
7
  6
CONTINUOUS
370
-3
390
F
  0
LAYER
  5
2C2
100
AcDbSymbolTableRecord
100
AcDbLayerTableRecord
  2
NONE
 70
0
 62
7
  6
CONTINUOUS
370
-3
390
F
  0
LAYER
  5
2C3
100
AcDbSymbolTableRecord
100
AcDbLayerTableRecord
  2
NOTE
 70
0
 62
7
  6
CONTINUOUS
370
-3
390
F
  0
LAYER
  5
2C4
100
AcDbSymbolTableRecord
100
AcDbLayerTableRecord
  2
PIANI
 70
0
 62
7
  6
CONTINUOUS
370
-3
390
F
  0
LAYER
  5
2C5
100
AcDbSymbolTableRecord
100
AcDbLayerTableRecord
  2
PIANI_ORIGINE
 70
0
 62
7
  6
CONTINUOUS
370
-3
390
F
  0
LAYER
  5
2C6
100
AcDbSymbolTableRecord
100
AcDbLayerTableRecord
  2
PIANI_RIFERIMENTO
 70
0
 62
7
  6
CONTINUOUS
370
-3
390
F
  0
LAYER
  5
2C7
100
AcDbSymbolTableRecord
100
AcDbLayerTableRecord
  2
POWERDI-123_100000
 70
0
 62
7
  6
CONTINUOUS
370
-3
390
F
  0
LAYER
  5
2C8
100
AcDbSymbolTableRecord
100
AcDbLayerTableRecord
  2
PUNTI
 70
0
 62
7
  6
CONTINUOUS
370
-3
390
F
  0
LAYER
  5
2C9
100
AcDbSymbolTableRecord
100
AcDbLayerTableRecord
  2
QFN40P300X300X60-20N_60000
 70
0
 62
7
  6
CONTINUOUS
370
-3
390
F
  0
LAYER
  5
2CA
100
AcDbSymbolTableRecord
100
AcDbLayerTableRecord
  2
RACCORDO
 70
0
 62
7
  6
CONTINUOUS
370
-3
390
F
  0
LAYER
  5
2CB
100
AcDbSymbolTableRecord
100
AcDbLayerTableRecord
  2
RD-C100-5-VIMAR_1250000
 70
0
 62
7
  6
CONTINUOUS
370
-3
390
F
  0
LAYER
  5
2CC
100
AcDbSymbolTableRecord
100
AcDbLayerTableRecord
  2
RD-C25-NTC-1-VIMAR_1800000
 70
0
 62
7
  6
CONTINUOUS
370
-3
390
F
  0
LAYER
  5
2CD
100
AcDbSymbolTableRecord
100
AcDbLayerTableRecord
  2
RD-CE35-3-MIRROR-VIMAR_800000
 70
0
 62
7
  6
CONTINUOUS
370
-3
390
F
  0
LAYER
  5
2CE
100
AcDbSymbolTableRecord
100
AcDbLayerTableRecord
  2
RD-CE35-3-VIMAR_800000
 70
0
 62
7
  6
CONTINUOUS
370
-3
390
F
  0
LAYER
  5
2CF
100
AcDbSymbolTableRecord
100
AcDbLayerTableRecord
  2
RD_D6H8_5_VIMAR_850000
 70
0
 62
7
  6
CONTINUOUS
370
-3
390
F
  0
LAYER
  5
2D0
100
AcDbSymbolTableRecord
100
AcDbLayerTableRecord
  2
RESC1005X40N_50000
 70
0
 62
7
  6
CONTINUOUS
370
-3
390
F
  0
LAYER
  5
2D1
100
AcDbSymbolTableRecord
100
AcDbLayerTableRecord
  2
RESC1005X40N_50000_1
 70
0
 62
7
  6
CONTINUOUS
370
-3
390
F
  0
LAYER
  5
2D2
100
AcDbSymbolTableRecord
100
AcDbLayerTableRecord
  2
RESC1005X40N_50000_10
 70
0
 62
7
  6
CONTINUOUS
370
-3
390
F
  0
LAYER
  5
2D3
100
AcDbSymbolTableRecord
100
AcDbLayerTableRecord
  2
RESC1005X40N_50000_100
 70
0
 62
7
  6
CONTINUOUS
370
-3
390
F
  0
LAYER
  5
2D4
100
AcDbSymbolTableRecord
100
AcDbLayerTableRecord
  2
RESC1005X40N_50000_101
 70
0
 62
7
  6
CONTINUOUS
370
-3
390
F
  0
LAYER
  5
2D5
100
AcDbSymbolTableRecord
100
AcDbLayerTableRecord
  2
RESC1005X40N_50000_102
 70
0
 62
7
  6
CONTINUOUS
370
-3
390
F
  0
LAYER
  5
2D6
100
AcDbSymbolTableRecord
100
AcDbLayerTableRecord
  2
RESC1005X40N_50000_103
 70
0
 62
7
  6
CONTINUOUS
370
-3
390
F
  0
LAYER
  5
2D7
100
AcDbSymbolTableRecord
100
AcDbLayerTableRecord
  2
RESC1005X40N_50000_104
 70
0
 62
7
  6
CONTINUOUS
370
-3
390
F
  0
LAYER
  5
2D8
100
AcDbSymbolTableRecord
100
AcDbLayerTableRecord
  2
RESC1005X40N_50000_11
 70
0
 62
7
  6
CONTINUOUS
370
-3
390
F
  0
LAYER
  5
2D9
100
AcDbSymbolTableRecord
100
AcDbLayerTableRecord
  2
RESC1005X40N_50000_12
 70
0
 62
7
  6
CONTINUOUS
370
-3
390
F
  0
LAYER
  5
2DA
100
AcDbSymbolTableRecord
100
AcDbLayerTableRecord
  2
RESC1005X40N_50000_13
 70
0
 62
7
  6
CONTINUOUS
370
-3
390
F
  0
LAYER
  5
2DB
100
AcDbSymbolTableRecord
100
AcDbLayerTableRecord
  2
RESC1005X40N_50000_14
 70
0
 62
7
  6
CONTINUOUS
370
-3
390
F
  0
LAYER
  5
2DC
100
AcDbSymbolTableRecord
100
AcDbLayerTableRecord
  2
RESC1005X40N_50000_15
 70
0
 62
7
  6
CONTINUOUS
370
-3
390
F
  0
LAYER
  5
2DD
100
AcDbSymbolTableRecord
100
AcDbLayerTableRecord
  2
RESC1005X40N_50000_16
 70
0
 62
7
  6
CONTINUOUS
370
-3
390
F
  0
LAYER
  5
2DE
100
AcDbSymbolTableRecord
100
AcDbLayerTableRecord
  2
RESC1005X40N_50000_17
 70
0
 62
7
  6
CONTINUOUS
370
-3
390
F
  0
LAYER
  5
2DF
100
AcDbSymbolTableRecord
100
AcDbLayerTableRecord
  2
RESC1005X40N_50000_18
 70
0
 62
7
  6
CONTINUOUS
370
-3
390
F
  0
LAYER
  5
2E0
100
AcDbSymbolTableRecord
100
AcDbLayerTableRecord
  2
RESC1005X40N_50000_19
 70
0
 62
7
  6
CONTINUOUS
370
-3
390
F
  0
LAYER
  5
2E1
100
AcDbSymbolTableRecord
100
AcDbLayerTableRecord
  2
RESC1005X40N_50000_2
 70
0
 62
7
  6
CONTINUOUS
370
-3
390
F
  0
LAYER
  5
2E2
100
AcDbSymbolTableRecord
100
AcDbLayerTableRecord
  2
RESC1005X40N_50000_20
 70
0
 62
7
  6
CONTINUOUS
370
-3
390
F
  0
LAYER
  5
2E3
100
AcDbSymbolTableRecord
100
AcDbLayerTableRecord
  2
RESC1005X40N_50000_21
 70
0
 62
7
  6
CONTINUOUS
370
-3
390
F
  0
LAYER
  5
2E4
100
AcDbSymbolTableRecord
100
AcDbLayerTableRecord
  2
RESC1005X40N_50000_22
 70
0
 62
7
  6
CONTINUOUS
370
-3
390
F
  0
LAYER
  5
2E5
100
AcDbSymbolTableRecord
100
AcDbLayerTableRecord
  2
RESC1005X40N_50000_23
 70
0
 62
7
  6
CONTINUOUS
370
-3
390
F
  0
LAYER
  5
2E6
100
AcDbSymbolTableRecord
100
AcDbLayerTableRecord
  2
RESC1005X40N_50000_24
 70
0
 62
7
  6
CONTINUOUS
370
-3
390
F
  0
LAYER
  5
2E7
100
AcDbSymbolTableRecord
100
AcDbLayerTableRecord
  2
RESC1005X40N_50000_25
 70
0
 62
7
  6
CONTINUOUS
370
-3
390
F
  0
LAYER
  5
2E8
100
AcDbSymbolTableRecord
100
AcDbLayerTableRecord
  2
RESC1005X40N_50000_26
 70
0
 62
7
  6
CONTINUOUS
370
-3
390
F
  0
LAYER
  5
2E9
100
AcDbSymbolTableRecord
100
AcDbLayerTableRecord
  2
RESC1005X40N_50000_27
 70
0
 62
7
  6
CONTINUOUS
370
-3
390
F
  0
LAYER
  5
2EA
100
AcDbSymbolTableRecord
100
AcDbLayerTableRecord
  2
RESC1005X40N_50000_28
 70
0
 62
7
  6
CONTINUOUS
370
-3
390
F
  0
LAYER
  5
2EB
100
AcDbSymbolTableRecord
100
AcDbLayerTableRecord
  2
RESC1005X40N_50000_29
 70
0
 62
7
  6
CONTINUOUS
370
-3
390
F
  0
LAYER
  5
2EC
100
AcDbSymbolTableRecord
100
AcDbLayerTableRecord
  2
RESC1005X40N_50000_3
 70
0
 62
7
  6
CONTINUOUS
370
-3
390
F
  0
LAYER
  5
2ED
100
AcDbSymbolTableRecord
100
AcDbLayerTableRecord
  2
RESC1005X40N_50000_30
 70
0
 62
7
  6
CONTINUOUS
370
-3
390
F
  0
LAYER
  5
2EE
100
AcDbSymbolTableRecord
100
AcDbLayerTableRecord
  2
RESC1005X40N_50000_31
 70
0
 62
7
  6
CONTINUOUS
370
-3
390
F
  0
LAYER
  5
2EF
100
AcDbSymbolTableRecord
100
AcDbLayerTableRecord
  2
RESC1005X40N_50000_32
 70
0
 62
7
  6
CONTINUOUS
370
-3
390
F
  0
LAYER
  5
2F0
100
AcDbSymbolTableRecord
100
AcDbLayerTableRecord
  2
RESC1005X40N_50000_33
 70
0
 62
7
  6
CONTINUOUS
370
-3
390
F
  0
LAYER
  5
2F1
100
AcDbSymbolTableRecord
100
AcDbLayerTableRecord
  2
RESC1005X40N_50000_34
 70
0
 62
7
  6
CONTINUOUS
370
-3
390
F
  0
LAYER
  5
2F2
100
AcDbSymbolTableRecord
100
AcDbLayerTableRecord
  2
RESC1005X40N_50000_35
 70
0
 62
7
  6
CONTINUOUS
370
-3
390
F
  0
LAYER
  5
2F3
100
AcDbSymbolTableRecord
100
AcDbLayerTableRecord
  2
RESC1005X40N_50000_36
 70
0
 62
7
  6
CONTINUOUS
370
-3
390
F
  0
LAYER
  5
2F4
100
AcDbSymbolTableRecord
100
AcDbLayerTableRecord
  2
RESC1005X40N_50000_37
 70
0
 62
7
  6
CONTINUOUS
370
-3
390
F
  0
LAYER
  5
2F5
100
AcDbSymbolTableRecord
100
AcDbLayerTableRecord
  2
RESC1005X40N_50000_38
 70
0
 62
7
  6
CONTINUOUS
370
-3
390
F
  0
LAYER
  5
2F6
100
AcDbSymbolTableRecord
100
AcDbLayerTableRecord
  2
RESC1005X40N_50000_39
 70
0
 62
7
  6
CONTINUOUS
370
-3
390
F
  0
LAYER
  5
2F7
100
AcDbSymbolTableRecord
100
AcDbLayerTableRecord
  2
RESC1005X40N_50000_4
 70
0
 62
7
  6
CONTINUOUS
370
-3
390
F
  0
LAYER
  5
2F8
100
AcDbSymbolTableRecord
100
AcDbLayerTableRecord
  2
RESC1005X40N_50000_40
 70
0
 62
7
  6
CONTINUOUS
370
-3
390
F
  0
LAYER
  5
2F9
100
AcDbSymbolTableRecord
100
AcDbLayerTableRecord
  2
RESC1005X40N_50000_41
 70
0
 62
7
  6
CONTINUOUS
370
-3
390
F
  0
LAYER
  5
2FA
100
AcDbSymbolTableRecord
100
AcDbLayerTableRecord
  2
RESC1005X40N_50000_42
 70
0
 62
7
  6
CONTINUOUS
370
-3
390
F
  0
LAYER
  5
2FB
100
AcDbSymbolTableRecord
100
AcDbLayerTableRecord
  2
RESC1005X40N_50000_43
 70
0
 62
7
  6
CONTINUOUS
370
-3
390
F
  0
LAYER
  5
2FC
100
AcDbSymbolTableRecord
100
AcDbLayerTableRecord
  2
RESC1005X40N_50000_44
 70
0
 62
7
  6
CONTINUOUS
370
-3
390
F
  0
LAYER
  5
2FD
100
AcDbSymbolTableRecord
100
AcDbLayerTableRecord
  2
RESC1005X40N_50000_45
 70
0
 62
7
  6
CONTINUOUS
370
-3
390
F
  0
LAYER
  5
2FE
100
AcDbSymbolTableRecord
100
AcDbLayerTableRecord
  2
RESC1005X40N_50000_46
 70
0
 62
7
  6
CONTINUOUS
370
-3
390
F
  0
LAYER
  5
2FF
100
AcDbSymbolTableRecord
100
AcDbLayerTableRecord
  2
RESC1005X40N_50000_47
 70
0
 62
7
  6
CONTINUOUS
370
-3
390
F
  0
LAYER
  5
300
100
AcDbSymbolTableRecord
100
AcDbLayerTableRecord
  2
RESC1005X40N_50000_48
 70
0
 62
7
  6
CONTINUOUS
370
-3
390
F
  0
LAYER
  5
301
100
AcDbSymbolTableRecord
100
AcDbLayerTableRecord
  2
RESC1005X40N_50000_49
 70
0
 62
7
  6
CONTINUOUS
370
-3
390
F
  0
LAYER
  5
302
100
AcDbSymbolTableRecord
100
AcDbLayerTableRecord
  2
RESC1005X40N_50000_5
 70
0
 62
7
  6
CONTINUOUS
370
-3
390
F
  0
LAYER
  5
303
100
AcDbSymbolTableRecord
100
AcDbLayerTableRecord
  2
RESC1005X40N_50000_50
 70
0
 62
7
  6
CONTINUOUS
370
-3
390
F
  0
LAYER
  5
304
100
AcDbSymbolTableRecord
100
AcDbLayerTableRecord
  2
RESC1005X40N_50000_51
 70
0
 62
7
  6
CONTINUOUS
370
-3
390
F
  0
LAYER
  5
305
100
AcDbSymbolTableRecord
100
AcDbLayerTableRecord
  2
RESC1005X40N_50000_52
 70
0
 62
7
  6
CONTINUOUS
370
-3
390
F
  0
LAYER
  5
306
100
AcDbSymbolTableRecord
100
AcDbLayerTableRecord
  2
RESC1005X40N_50000_53
 70
0
 62
7
  6
CONTINUOUS
370
-3
390
F
  0
LAYER
  5
307
100
AcDbSymbolTableRecord
100
AcDbLayerTableRecord
  2
RESC1005X40N_50000_54
 70
0
 62
7
  6
CONTINUOUS
370
-3
390
F
  0
LAYER
  5
308
100
AcDbSymbolTableRecord
100
AcDbLayerTableRecord
  2
RESC1005X40N_50000_55
 70
0
 62
7
  6
CONTINUOUS
370
-3
390
F
  0
LAYER
  5
309
100
AcDbSymbolTableRecord
100
AcDbLayerTableRecord
  2
RESC1005X40N_50000_56
 70
0
 62
7
  6
CONTINUOUS
370
-3
390
F
  0
LAYER
  5
30A
100
AcDbSymbolTableRecord
100
AcDbLayerTableRecord
  2
RESC1005X40N_50000_57
 70
0
 62
7
  6
CONTINUOUS
370
-3
390
F
  0
LAYER
  5
30B
100
AcDbSymbolTableRecord
100
AcDbLayerTableRecord
  2
RESC1005X40N_50000_58
 70
0
 62
7
  6
CONTINUOUS
370
-3
390
F
  0
LAYER
  5
30C
100
AcDbSymbolTableRecord
100
AcDbLayerTableRecord
  2
RESC1005X40N_50000_59
 70
0
 62
7
  6
CONTINUOUS
370
-3
390
F
  0
LAYER
  5
30D
100
AcDbSymbolTableRecord
100
AcDbLayerTableRecord
  2
RESC1005X40N_50000_6
 70
0
 62
7
  6
CONTINUOUS
370
-3
390
F
  0
LAYER
  5
30E
100
AcDbSymbolTableRecord
100
AcDbLayerTableRecord
  2
RESC1005X40N_50000_60
 70
0
 62
7
  6
CONTINUOUS
370
-3
390
F
  0
LAYER
  5
30F
100
AcDbSymbolTableRecord
100
AcDbLayerTableRecord
  2
RESC1005X40N_50000_61
 70
0
 62
7
  6
CONTINUOUS
370
-3
390
F
  0
LAYER
  5
310
100
AcDbSymbolTableRecord
100
AcDbLayerTableRecord
  2
RESC1005X40N_50000_62
 70
0
 62
7
  6
CONTINUOUS
370
-3
390
F
  0
LAYER
  5
311
100
AcDbSymbolTableRecord
100
AcDbLayerTableRecord
  2
RESC1005X40N_50000_63
 70
0
 62
7
  6
CONTINUOUS
370
-3
390
F
  0
LAYER
  5
312
100
AcDbSymbolTableRecord
100
AcDbLayerTableRecord
  2
RESC1005X40N_50000_64
 70
0
 62
7
  6
CONTINUOUS
370
-3
390
F
  0
LAYER
  5
313
100
AcDbSymbolTableRecord
100
AcDbLayerTableRecord
  2
RESC1005X40N_50000_65
 70
0
 62
7
  6
CONTINUOUS
370
-3
390
F
  0
LAYER
  5
314
100
AcDbSymbolTableRecord
100
AcDbLayerTableRecord
  2
RESC1005X40N_50000_66
 70
0
 62
7
  6
CONTINUOUS
370
-3
390
F
  0
LAYER
  5
315
100
AcDbSymbolTableRecord
100
AcDbLayerTableRecord
  2
RESC1005X40N_50000_67
 70
0
 62
7
  6
CONTINUOUS
370
-3
390
F
  0
LAYER
  5
316
100
AcDbSymbolTableRecord
100
AcDbLayerTableRecord
  2
RESC1005X40N_50000_68
 70
0
 62
7
  6
CONTINUOUS
370
-3
390
F
  0
LAYER
  5
317
100
AcDbSymbolTableRecord
100
AcDbLayerTableRecord
  2
RESC1005X40N_50000_69
 70
0
 62
7
  6
CONTINUOUS
370
-3
390
F
  0
LAYER
  5
318
100
AcDbSymbolTableRecord
100
AcDbLayerTableRecord
  2
RESC1005X40N_50000_7
 70
0
 62
7
  6
CONTINUOUS
370
-3
390
F
  0
LAYER
  5
319
100
AcDbSymbolTableRecord
100
AcDbLayerTableRecord
  2
RESC1005X40N_50000_70
 70
0
 62
7
  6
CONTINUOUS
370
-3
390
F
  0
LAYER
  5
31A
100
AcDbSymbolTableRecord
100
AcDbLayerTableRecord
  2
RESC1005X40N_50000_71
 70
0
 62
7
  6
CONTINUOUS
370
-3
390
F
  0
LAYER
  5
31B
100
AcDbSymbolTableRecord
100
AcDbLayerTableRecord
  2
RESC1005X40N_50000_72
 70
0
 62
7
  6
CONTINUOUS
370
-3
390
F
  0
LAYER
  5
31C
100
AcDbSymbolTableRecord
100
AcDbLayerTableRecord
  2
RESC1005X40N_50000_73
 70
0
 62
7
  6
CONTINUOUS
370
-3
390
F
  0
LAYER
  5
31D
100
AcDbSymbolTableRecord
100
AcDbLayerTableRecord
  2
RESC1005X40N_50000_74
 70
0
 62
7
  6
CONTINUOUS
370
-3
390
F
  0
LAYER
  5
31E
100
AcDbSymbolTableRecord
100
AcDbLayerTableRecord
  2
RESC1005X40N_50000_75
 70
0
 62
7
  6
CONTINUOUS
370
-3
390
F
  0
LAYER
  5
31F
100
AcDbSymbolTableRecord
100
AcDbLayerTableRecord
  2
RESC1005X40N_50000_76
 70
0
 62
7
  6
CONTINUOUS
370
-3
390
F
  0
LAYER
  5
320
100
AcDbSymbolTableRecord
100
AcDbLayerTableRecord
  2
RESC1005X40N_50000_77
 70
0
 62
7
  6
CONTINUOUS
370
-3
390
F
  0
LAYER
  5
321
100
AcDbSymbolTableRecord
100
AcDbLayerTableRecord
  2
RESC1005X40N_50000_78
 70
0
 62
7
  6
CONTINUOUS
370
-3
390
F
  0
LAYER
  5
322
100
AcDbSymbolTableRecord
100
AcDbLayerTableRecord
  2
RESC1005X40N_50000_79
 70
0
 62
7
  6
CONTINUOUS
370
-3
390
F
  0
LAYER
  5
323
100
AcDbSymbolTableRecord
100
AcDbLayerTableRecord
  2
RESC1005X40N_50000_8
 70
0
 62
7
  6
CONTINUOUS
370
-3
390
F
  0
LAYER
  5
324
100
AcDbSymbolTableRecord
100
AcDbLayerTableRecord
  2
RESC1005X40N_50000_80
 70
0
 62
7
  6
CONTINUOUS
370
-3
390
F
  0
LAYER
  5
325
100
AcDbSymbolTableRecord
100
AcDbLayerTableRecord
  2
RESC1005X40N_50000_81
 70
0
 62
7
  6
CONTINUOUS
370
-3
390
F
  0
LAYER
  5
326
100
AcDbSymbolTableRecord
100
AcDbLayerTableRecord
  2
RESC1005X40N_50000_82
 70
0
 62
7
  6
CONTINUOUS
370
-3
390
F
  0
LAYER
  5
327
100
AcDbSymbolTableRecord
100
AcDbLayerTableRecord
  2
RESC1005X40N_50000_83
 70
0
 62
7
  6
CONTINUOUS
370
-3
390
F
  0
LAYER
  5
328
100
AcDbSymbolTableRecord
100
AcDbLayerTableRecord
  2
RESC1005X40N_50000_84
 70
0
 62
7
  6
CONTINUOUS
370
-3
390
F
  0
LAYER
  5
329
100
AcDbSymbolTableRecord
100
AcDbLayerTableRecord
  2
RESC1005X40N_50000_85
 70
0
 62
7
  6
CONTINUOUS
370
-3
390
F
  0
LAYER
  5
32A
100
AcDbSymbolTableRecord
100
AcDbLayerTableRecord
  2
RESC1005X40N_50000_86
 70
0
 62
7
  6
CONTINUOUS
370
-3
390
F
  0
LAYER
  5
32B
100
AcDbSymbolTableRecord
100
AcDbLayerTableRecord
  2
RESC1005X40N_50000_87
 70
0
 62
7
  6
CONTINUOUS
370
-3
390
F
  0
LAYER
  5
32C
100
AcDbSymbolTableRecord
100
AcDbLayerTableRecord
  2
RESC1005X40N_50000_88
 70
0
 62
7
  6
CONTINUOUS
370
-3
390
F
  0
LAYER
  5
32D
100
AcDbSymbolTableRecord
100
AcDbLayerTableRecord
  2
RESC1005X40N_50000_89
 70
0
 62
7
  6
CONTINUOUS
370
-3
390
F
  0
LAYER
  5
32E
100
AcDbSymbolTableRecord
100
AcDbLayerTableRecord
  2
RESC1005X40N_50000_9
 70
0
 62
7
  6
CONTINUOUS
370
-3
390
F
  0
LAYER
  5
32F
100
AcDbSymbolTableRecord
100
AcDbLayerTableRecord
  2
RESC1005X40N_50000_90
 70
0
 62
7
  6
CONTINUOUS
370
-3
390
F
  0
LAYER
  5
330
100
AcDbSymbolTableRecord
100
AcDbLayerTableRecord
  2
RESC1005X40N_50000_91
 70
0
 62
7
  6
CONTINUOUS
370
-3
390
F
  0
LAYER
  5
331
100
AcDbSymbolTableRecord
100
AcDbLayerTableRecord
  2
RESC1005X40N_50000_92
 70
0
 62
7
  6
CONTINUOUS
370
-3
390
F
  0
LAYER
  5
332
100
AcDbSymbolTableRecord
100
AcDbLayerTableRecord
  2
RESC1005X40N_50000_93
 70
0
 62
7
  6
CONTINUOUS
370
-3
390
F
  0
LAYER
  5
333
100
AcDbSymbolTableRecord
100
AcDbLayerTableRecord
  2
RESC1005X40N_50000_94
 70
0
 62
7
  6
CONTINUOUS
370
-3
390
F
  0
LAYER
  5
334
100
AcDbSymbolTableRecord
100
AcDbLayerTableRecord
  2
RESC1005X40N_50000_95
 70
0
 62
7
  6
CONTINUOUS
370
-3
390
F
  0
LAYER
  5
335
100
AcDbSymbolTableRecord
100
AcDbLayerTableRecord
  2
RESC1005X40N_50000_96
 70
0
 62
7
  6
CONTINUOUS
370
-3
390
F
  0
LAYER
  5
336
100
AcDbSymbolTableRecord
100
AcDbLayerTableRecord
  2
RESC1005X40N_50000_97
 70
0
 62
7
  6
CONTINUOUS
370
-3
390
F
  0
LAYER
  5
337
100
AcDbSymbolTableRecord
100
AcDbLayerTableRecord
  2
RESC1005X40N_50000_98
 70
0
 62
7
  6
CONTINUOUS
370
-3
390
F
  0
LAYER
  5
338
100
AcDbSymbolTableRecord
100
AcDbLayerTableRecord
  2
RESC1005X40N_50000_99
 70
0
 62
7
  6
CONTINUOUS
370
-3
390
F
  0
LAYER
  5
339
100
AcDbSymbolTableRecord
100
AcDbLayerTableRecord
  2
RESC1608N_45000
 70
0
 62
7
  6
CONTINUOUS
370
-3
390
F
  0
LAYER
  5
33A
100
AcDbSymbolTableRecord
100
AcDbLayerTableRecord
  2
RESC1608N_45000_1
 70
0
 62
7
  6
CONTINUOUS
370
-3
390
F
  0
LAYER
  5
33B
100
AcDbSymbolTableRecord
100
AcDbLayerTableRecord
  2
RESC1608N_45000_10
 70
0
 62
7
  6
CONTINUOUS
370
-3
390
F
  0
LAYER
  5
33C
100
AcDbSymbolTableRecord
100
AcDbLayerTableRecord
  2
RESC1608N_45000_11
 70
0
 62
7
  6
CONTINUOUS
370
-3
390
F
  0
LAYER
  5
33D
100
AcDbSymbolTableRecord
100
AcDbLayerTableRecord
  2
RESC1608N_45000_12
 70
0
 62
7
  6
CONTINUOUS
370
-3
390
F
  0
LAYER
  5
33E
100
AcDbSymbolTableRecord
100
AcDbLayerTableRecord
  2
RESC1608N_45000_13
 70
0
 62
7
  6
CONTINUOUS
370
-3
390
F
  0
LAYER
  5
33F
100
AcDbSymbolTableRecord
100
AcDbLayerTableRecord
  2
RESC1608N_45000_14
 70
0
 62
7
  6
CONTINUOUS
370
-3
390
F
  0
LAYER
  5
340
100
AcDbSymbolTableRecord
100
AcDbLayerTableRecord
  2
RESC1608N_45000_15
 70
0
 62
7
  6
CONTINUOUS
370
-3
390
F
  0
LAYER
  5
341
100
AcDbSymbolTableRecord
100
AcDbLayerTableRecord
  2
RESC1608N_45000_16
 70
0
 62
7
  6
CONTINUOUS
370
-3
390
F
  0
LAYER
  5
342
100
AcDbSymbolTableRecord
100
AcDbLayerTableRecord
  2
RESC1608N_45000_17
 70
0
 62
7
  6
CONTINUOUS
370
-3
390
F
  0
LAYER
  5
343
100
AcDbSymbolTableRecord
100
AcDbLayerTableRecord
  2
RESC1608N_45000_18
 70
0
 62
7
  6
CONTINUOUS
370
-3
390
F
  0
LAYER
  5
344
100
AcDbSymbolTableRecord
100
AcDbLayerTableRecord
  2
RESC1608N_45000_19
 70
0
 62
7
  6
CONTINUOUS
370
-3
390
F
  0
LAYER
  5
345
100
AcDbSymbolTableRecord
100
AcDbLayerTableRecord
  2
RESC1608N_45000_2
 70
0
 62
7
  6
CONTINUOUS
370
-3
390
F
  0
LAYER
  5
346
100
AcDbSymbolTableRecord
100
AcDbLayerTableRecord
  2
RESC1608N_45000_3
 70
0
 62
7
  6
CONTINUOUS
370
-3
390
F
  0
LAYER
  5
347
100
AcDbSymbolTableRecord
100
AcDbLayerTableRecord
  2
RESC1608N_45000_4
 70
0
 62
7
  6
CONTINUOUS
370
-3
390
F
  0
LAYER
  5
348
100
AcDbSymbolTableRecord
100
AcDbLayerTableRecord
  2
RESC1608N_45000_5
 70
0
 62
7
  6
CONTINUOUS
370
-3
390
F
  0
LAYER
  5
349
100
AcDbSymbolTableRecord
100
AcDbLayerTableRecord
  2
RESC1608N_45000_6
 70
0
 62
7
  6
CONTINUOUS
370
-3
390
F
  0
LAYER
  5
34A
100
AcDbSymbolTableRecord
100
AcDbLayerTableRecord
  2
RESC1608N_45000_7
 70
0
 62
7
  6
CONTINUOUS
370
-3
390
F
  0
LAYER
  5
34B
100
AcDbSymbolTableRecord
100
AcDbLayerTableRecord
  2
RESC1608N_45000_8
 70
0
 62
7
  6
CONTINUOUS
370
-3
390
F
  0
LAYER
  5
34C
100
AcDbSymbolTableRecord
100
AcDbLayerTableRecord
  2
RESC1608N_45000_9
 70
0
 62
7
  6
CONTINUOUS
370
-3
390
F
  0
LAYER
  5
34D
100
AcDbSymbolTableRecord
100
AcDbLayerTableRecord
  2
SIMBOLI
 70
0
 62
7
  6
CONTINUOUS
370
-3
390
F
  0
LAYER
  5
34E
100
AcDbSymbolTableRecord
100
AcDbLayerTableRecord
  2
SMUSSO
 70
0
 62
7
  6
CONTINUOUS
370
-3
390
F
  0
LAYER
  5
34F
100
AcDbSymbolTableRecord
100
AcDbLayerTableRecord
  2
SNAPLINE
 70
0
 62
7
  6
CONTINUOUS
370
-3
390
F
  0
LAYER
  5
350
100
AcDbSymbolTableRecord
100
AcDbLayerTableRecord
  2
SO8C-VIMAR_343000
 70
0
 62
7
  6
CONTINUOUS
370
-3
390
F
  0
LAYER
  5
351
100
AcDbSymbolTableRecord
100
AcDbLayerTableRecord
  2
SODFL1608X70N_70000
 70
0
 62
7
  6
CONTINUOUS
370
-3
390
F
  0
LAYER
  5
352
100
AcDbSymbolTableRecord
100
AcDbLayerTableRecord
  2
SODFL1608X70N_70000_1
 70
0
 62
7
  6
CONTINUOUS
370
-3
390
F
  0
LAYER
  5
353
100
AcDbSymbolTableRecord
100
AcDbLayerTableRecord
  2
SODFL1608X70N_70000_2
 70
0
 62
7
  6
CONTINUOUS
370
-3
390
F
  0
LAYER
  5
354
100
AcDbSymbolTableRecord
100
AcDbLayerTableRecord
  2
SODFL1608X70N_70000_3
 70
0
 62
7
  6
CONTINUOUS
370
-3
390
F
  0
LAYER
  5
355
100
AcDbSymbolTableRecord
100
AcDbLayerTableRecord
  2
SODFL1608X70N_70000_4
 70
0
 62
7
  6
CONTINUOUS
370
-3
390
F
  0
LAYER
  5
356
100
AcDbSymbolTableRecord
100
AcDbLayerTableRecord
  2
SODFL1608X70N_70000_5
 70
0
 62
7
  6
CONTINUOUS
370
-3
390
F
  0
LAYER
  5
357
100
AcDbSymbolTableRecord
100
AcDbLayerTableRecord
  2
SOP4-T1-RF-VIMAR_350000
 70
0
 62
7
  6
CONTINUOUS
370
-3
390
F
  0
LAYER
  5
358
100
AcDbSymbolTableRecord
100
AcDbLayerTableRecord
  2
SOP8-T1-RF-FINE-VIMAR_150000
 70
0
 62
7
  6
CONTINUOUS
370
-3
390
F
  0
LAYER
  5
359
100
AcDbSymbolTableRecord
100
AcDbLayerTableRecord
  2
SOT95P280X110-6N_110000
 70
0
 62
7
  6
CONTINUOUS
370
-3
390
F
  0
LAYER
  5
35A
100
AcDbSymbolTableRecord
100
AcDbLayerTableRecord
  2
SUPERFICI
 70
0
 62
7
  6
CONTINUOUS
370
-3
390
F
  0
LAYER
  5
35B
100
AcDbSymbolTableRecord
100
AcDbLayerTableRecord
  2
TP10_SMD_0
 70
0
 62
7
  6
CONTINUOUS
370
-3
390
F
  0
LAYER
  5
35C
100
AcDbSymbolTableRecord
100
AcDbLayerTableRecord
  2
TP10_SMD_0_1
 70
0
 62
7
  6
CONTINUOUS
370
-3
390
F
  0
LAYER
  5
35D
100
AcDbSymbolTableRecord
100
AcDbLayerTableRecord
  2
TP10_SMD_0_10
 70
0
 62
7
  6
CONTINUOUS
370
-3
390
F
  0
LAYER
  5
35E
100
AcDbSymbolTableRecord
100
AcDbLayerTableRecord
  2
TP10_SMD_0_11
 70
0
 62
7
  6
CONTINUOUS
370
-3
390
F
  0
LAYER
  5
35F
100
AcDbSymbolTableRecord
100
AcDbLayerTableRecord
  2
TP10_SMD_0_12
 70
0
 62
7
  6
CONTINUOUS
370
-3
390
F
  0
LAYER
  5
360
100
AcDbSymbolTableRecord
100
AcDbLayerTableRecord
  2
TP10_SMD_0_13
 70
0
 62
7
  6
CONTINUOUS
370
-3
390
F
  0
LAYER
  5
361
100
AcDbSymbolTableRecord
100
AcDbLayerTableRecord
  2
TP10_SMD_0_14
 70
0
 62
7
  6
CONTINUOUS
370
-3
390
F
  0
LAYER
  5
362
100
AcDbSymbolTableRecord
100
AcDbLayerTableRecord
  2
TP10_SMD_0_2
 70
0
 62
7
  6
CONTINUOUS
370
-3
390
F
  0
LAYER
  5
363
100
AcDbSymbolTableRecord
100
AcDbLayerTableRecord
  2
TP10_SMD_0_3
 70
0
 62
7
  6
CONTINUOUS
370
-3
390
F
  0
LAYER
  5
364
100
AcDbSymbolTableRecord
100
AcDbLayerTableRecord
  2
TP10_SMD_0_4
 70
0
 62
7
  6
CONTINUOUS
370
-3
390
F
  0
LAYER
  5
365
100
AcDbSymbolTableRecord
100
AcDbLayerTableRecord
  2
TP10_SMD_0_5
 70
0
 62
7
  6
CONTINUOUS
370
-3
390
F
  0
LAYER
  5
366
100
AcDbSymbolTableRecord
100
AcDbLayerTableRecord
  2
TP10_SMD_0_6
 70
0
 62
7
  6
CONTINUOUS
370
-3
390
F
  0
LAYER
  5
367
100
AcDbSymbolTableRecord
100
AcDbLayerTableRecord
  2
TP10_SMD_0_7
 70
0
 62
7
  6
CONTINUOUS
370
-3
390
F
  0
LAYER
  5
368
100
AcDbSymbolTableRecord
100
AcDbLayerTableRecord
  2
TP10_SMD_0_8
 70
0
 62
7
  6
CONTINUOUS
370
-3
390
F
  0
LAYER
  5
369
100
AcDbSymbolTableRecord
100
AcDbLayerTableRecord
  2
TP10_SMD_0_9
 70
0
 62
7
  6
CONTINUOUS
370
-3
390
F
  0
LAYER
  5
36A
100
AcDbSymbolTableRecord
100
AcDbLayerTableRecord
  2
TRASH
 70
0
 62
7
  6
CONTINUOUS
370
-3
390
F
  0
LAYER
  5
36B
100
AcDbSymbolTableRecord
100
AcDbLayerTableRecord
  2
TRA_EFD12_SMD_800000
 70
0
 62
7
  6
CONTINUOUS
370
-3
390
F
  0
LAYER
  5
36C
100
AcDbSymbolTableRecord
100
AcDbLayerTableRecord
  2
TSSOP16-RF-VIMAR_150000
 70
0
 62
7
  6
CONTINUOUS
370
-3
390
F
  0
LAYER
  5
36D
100
AcDbSymbolTableRecord
100
AcDbLayerTableRecord
  2
TSSOP16-RF-VIMAR_150000_1
 70
0
 62
7
  6
CONTINUOUS
370
-3
390
F
  0
LAYER
  5
36E
100
AcDbSymbolTableRecord
100
AcDbLayerTableRecord
  2
XSEC_DATUMS
 70
0
 62
7
  6
CONTINUOUS
370
-3
390
F
  0
LAYER
  5
36F
100
AcDbSymbolTableRecord
100
AcDbLayerTableRecord
  2
___SHELL
 70
0
 62
7
  6
CONTINUOUS
370
-3
390
F
  0
ENDTAB
  0
TABLE
  2
STYLE
  5
3
100
AcDbSymbolTable
 70
1
  0
STYLE
  5
11
100
AcDbSymbolTableRecord
100
AcDbTextStyleTableRecord
  2
STANDARD
 70
0
 40
0.0
 41
0.8
 50
0.0
 71
0
 42
0.2
  3
txt
  4

  0
STYLE
  5
370
100
AcDbSymbolTableRecord
100
AcDbTextStyleTableRecord
  2
TEXTSTYLE_1
 70
0
 40
0.0
 41
0.8
 50
0.0
 71
0
 42
0.2
  3
gdt
  4

  0
ENDTAB
  0
TABLE
  2
VIEW
  5
6
100
AcDbSymbolTable
 70
0
  0
ENDTAB
  0
TABLE
  2
UCS
  5
7
100
AcDbSymbolTable
 70
0
  0
ENDTAB
  0
TABLE
  2
APPID
  5
9
100
AcDbSymbolTable
 70
1
  0
APPID
  5
371
100
AcDbSymbolTableRecord
100
AcDbRegAppTableRecord
  2
ACAD
 70
0
  0
ENDTAB
  0
TABLE
  2
BLOCK_RECORD
  5
1
100
AcDbSymbolTable
 70
0
  0
BLOCK_RECORD
  5
372
100
AcDbSymbolTableRecord
100
AcDbBlockTableRecord
  2
*Model_Space
  0
BLOCK_RECORD
  5
373
100
AcDbSymbolTableRecord
100
AcDbBlockTableRecord
  2
*Paper_Space
  0
BLOCK_RECORD
  5
374
100
AcDbSymbolTableRecord
100
AcDbBlockTableRecord
  2
_FILLED
  0
BLOCK_RECORD
  5
375
100
AcDbSymbolTableRecord
100
AcDbBlockTableRecord
  2
*D0
  0
BLOCK_RECORD
  5
376
100
AcDbSymbolTableRecord
100
AcDbBlockTableRecord
  2
*D1
  0
BLOCK_RECORD
  5
377
100
AcDbSymbolTableRecord
100
AcDbBlockTableRecord
  2
*D2
  0
ENDTAB
  0
TABLE
  2
DIMSTYLE
  5
A
100
AcDbSymbolTable
 70
1
100
AcDbDimStyleTable
 71
0
  0
DIMSTYLE
105
378
100
AcDbSymbolTableRecord
100
AcDbDimStyleTableRecord
  2
STANDARD
 70
0
  3

  4

 40
1.0
 41
3.0
 42
0.5
 43
0.38
 44
1.5
 45
0.0
 46
0.0
 47
0.01
 48
0.01
140
3.0
141
0.09
142
0.0
143
25.4
144
1.0
145
0.0
146
1.0
147
0.625
 71
1.0
 72
0.0
 73
0
 74
0
 75
0
 76
0
 77
1
 78
8
170
0
171
2
172
0
173
0
174
0
175
0
176
0
177
0
178
0
270
2
271
2
272
2
273
2
274
2
275
0
280
0
281
0
282
0
283
1
284
8
285
0
286
0
287
3
288
0
340
11
278
44
341
374
342
374
343
374
344
374
  0
DIMSTYLE
105
379
100
AcDbSymbolTableRecord
100
AcDbDimStyleTableRecord
  2
DIMSTYLE_1
 70
0
  3

  4

 40
1.0
 41
3.0
 42
0.5
 43
0.38
 44
1.5
 45
0.0
 46
0.0
 47
0.0
 48
0.0
140
3.0
141
0.09
142
0.0
143
25.4
144
1.0
145
0.0
146
1.0
147
0.75
 71
0.0
 72
0.0
 73
0
 74
0
 75
0
 76
0
 77
1
 78
8
170
0
171
2
172
0
173
0
174
0
175
0
176
0
177
0
178
0
270
2
271
2
272
2
273
2
274
2
275
0
280
0
281
0
282
0
283
1
284
8
285
0
286
0
287
3
288
0
340
11
278
44
341
374
342
374
343
374
344
374
  0
ENDTAB
  0
ENDSEC
  0
SECTION
  2
BLOCKS
  0
BLOCK
  5
20
100
AcDbEntity
  8
0
100
AcDbBlockBegin
  2
*Model_Space
 70
0
 10
0.0
 20
0.0
 30
0.0
  3
*Model_Space
  1

  0
ENDBLK
  5
21
100
AcDbEntity
  8
0
100
AcDbBlockEnd
  0
BLOCK
  5
1C
100
AcDbEntity
  8
0
100
AcDbBlockBegin
  2
*Paper_Space
 70
0
 10
0.0
 20
0.0
 30
0.0
  3
*Paper_Space
  1

  0
ENDBLK
  5
1D
100
AcDbEntity
  8
0
100
AcDbBlockEnd
  0
BLOCK
  5
37A
100
AcDbEntity
  8
0
100
AcDbBlockBegin
  2
_FILLED
 70
64
 10
0.0
 20
0.0
  3
_FILLED
  1

  0
SOLID
  5
37B
100
AcDbEntity
  8
0
  6
BYBLOCK
 62
0
100
AcDbTrace
 10
0.0
 20
0.0
 11
-1.0
 21
0.3166666667
 12
-1.0
 22
-0.3166666667
 13
-1.0
 23
-0.3166666667
  0
ENDBLK
  5
37C
100
AcDbEntity
  8
0
  6
BYBLOCK
 62
0
100
AcDbBlockEnd
  0
BLOCK
  5
37D
100
AcDbEntity
  8
0
100
AcDbBlockBegin
 62
7
  6
CONTINUOUS
  2
*D0
 70
65
 10
0.0
 20
0.0
  3
*D0
  1

  0
MTEXT
  5
37E
100
AcDbEntity
  8
0
100
AcDbMText
 62
7
  6
CONTINUOUS
  7
STANDARD
 71
2
 72
1
 10
111.0530170971
 20
171.9159792004
 30
0.0
 11
1.0
 21
0.0
 31
0.0
 44
0.9
  1
135
 40
3.0
 41
9.0
  0
LINE
  5
37F
100
AcDbEntity
  8
0
100
AcDbLine
 62
7
  6
CONTINUOUS
 10
43.5530170922
 20
151.4663981437
 11
43.5530170928
 21
169.6659792026
  0
LINE
  5
380
100
AcDbEntity
  8
0
100
AcDbLine
 62
7
  6
CONTINUOUS
 10
178.5530171007
 20
151.4663981437
 11
178.5530171013
 21
169.6659791982
  0
LINE
  5
381
100
AcDbEntity
  8
0
100
AcDbLine
 62
7
  6
CONTINUOUS
 10
43.5530170927
 20
168.1659792026
 11
111.053017097
 21
168.1659792004
  0
LINE
  5
382
100
AcDbEntity
  8
0
100
AcDbLine
 62
7
  6
CONTINUOUS
 10
178.5530171012
 20
168.1659791982
 11
111.053017097
 21
168.1659792004
  0
INSERT
  5
383
100
AcDbEntity
  8
0
100
AcDbBlockReference
 62
7
  6
CONTINUOUS
  2
_FILLED
 10
43.5530170927
 20
168.1659792026
 41
3.0
 42
3.0
 43
3.0
 50
179.9999999981
  0
INSERT
  5
384
100
AcDbEntity
  8
0
100
AcDbBlockReference
 62
7
  6
CONTINUOUS
  2
_FILLED
 10
178.5530171012
 20
168.1659791982
 41
3.0
 42
3.0
 43
3.0
 50
359.9999999981
  0
ENDBLK
  5
385
100
AcDbEntity
  8
0
  6
BYBLOCK
 62
0
100
AcDbBlockEnd
  0
BLOCK
  5
386
100
AcDbEntity
  8
0
100
AcDbBlockBegin
 62
7
  6
CONTINUOUS
  2
*D1
 70
65
 10
0.0
 20
0.0
  3
*D1
  1

  0
MTEXT
  5
387
100
AcDbEntity
  8
0
100
AcDbMText
 62
7
  6
CONTINUOUS
  7
STANDARD
 71
2
 72
1
 10
244.558662824
 20
171.9159792004
 30
0.0
 11
1.0
 21
0.0
 31
0.0
 44
0.9
  1
25,1
 40
3.0
 41
11.8928571429
  0
LINE
  5
388
100
AcDbEntity
  8
0
100
AcDbLine
 62
7
  6
CONTINUOUS
 10
232.008662824
 20
135.9659792004
 11
232.008662824
 21
169.6659792004
  0
LINE
  5
389
100
AcDbEntity
  8
0
100
AcDbLine
 62
7
  6
CONTINUOUS
 10
257.108662824
 20
107.8317204086
 11
257.108662824
 21
169.6659792004
  0
LINE
  5
38A
100
AcDbEntity
  8
0
100
AcDbLine
 62
7
  6
CONTINUOUS
 10
232.008662824
 20
168.1659792004
 11
244.558662824
 21
168.1659792004
  0
LINE
  5
38B
100
AcDbEntity
  8
0
100
AcDbLine
 62
7
  6
CONTINUOUS
 10
257.108662824
 20
168.1659792004
 11
244.558662824
 21
168.1659792004
  0
INSERT
  5
38C
100
AcDbEntity
  8
0
100
AcDbBlockReference
 62
7
  6
CONTINUOUS
  2
_FILLED
 10
232.008662824
 20
168.1659792004
 41
3.0
 42
3.0
 43
3.0
 50
180.0
  0
INSERT
  5
38D
100
AcDbEntity
  8
0
100
AcDbBlockReference
 62
7
  6
CONTINUOUS
  2
_FILLED
 10
257.108662824
 20
168.1659792004
 41
3.0
 42
3.0
 43
3.0
  0
ENDBLK
  5
38E
100
AcDbEntity
  8
0
  6
BYBLOCK
 62
0
100
AcDbBlockEnd
  0
BLOCK
  5
38F
100
AcDbEntity
  8
0
100
AcDbBlockBegin
 62
7
  6
CONTINUOUS
  2
*D2
 70
65
 10
0.0
 20
0.0
  3
*D2
  1

  0
MTEXT
  5
390
100
AcDbEntity
  8
0
100
AcDbMText
 62
7
  6
CONTINUOUS
  7
STANDARD
 71
2
 72
1
 10
25.1030288235
 20
105.4659792032
 30
0.0
 11
0.0
 21
1.0
 31
0.0
 44
0.9
  1
95
 40
3.0
 41
6.75
  0
LINE
  5
391
100
AcDbEntity
  8
0
100
AcDbLine
 62
7
  6
CONTINUOUS
 10
45.0526330635
 20
152.9659792082
 11
27.3530288313
 21
152.9659792111
  0
LINE
  5
392
100
AcDbEntity
  8
0
100
AcDbLine
 62
7
  6
CONTINUOUS
 10
45.0526330635
 20
57.9659791928
 11
27.3530288156
 21
57.9659791958
  0
LINE
  5
393
100
AcDbEntity
  8
0
100
AcDbLine
 62
7
  6
CONTINUOUS
 10
28.8530288313
 20
152.9659792108
 11
28.8530288235
 21
105.4659792032
  0
LINE
  5
394
100
AcDbEntity
  8
0
100
AcDbLine
 62
7
  6
CONTINUOUS
 10
28.8530288156
 20
57.9659791955
 11
28.8530288235
 21
105.4659792032
  0
INSERT
  5
395
100
AcDbEntity
  8
0
100
AcDbBlockReference
 62
7
  6
CONTINUOUS
  2
_FILLED
 10
28.8530288313
 20
152.9659792108
 41
3.0
 42
3.0
 43
3.0
 50
89.9999999905
  0
INSERT
  5
396
100
AcDbEntity
  8
0
100
AcDbBlockReference
 62
7
  6
CONTINUOUS
  2
_FILLED
 10
28.8530288156
 20
57.9659791955
 41
3.0
 42
3.0
 43
3.0
 50
269.9999999905
  0
ENDBLK
  5
397
100
AcDbEntity
  8
0
  6
BYBLOCK
 62
0
100
AcDbBlockEnd
  0
ENDSEC
  0
SECTION
  2
ENTITIES
  0
DIMENSION
  5
398
100
AcDbEntity
  8
0
100
AcDbDimension
 62
7
  6
CONTINUOUS
  2
*D0
 10
178.5530171012
 20
168.1659791982
 11
111.053017097
 21
168.1659792004
 70
160
 71
2
 42
135.0000000085
  3
DIMSTYLE_1
100
AcDbAlignedDimension
 13
43.5530170922
 23
150.9663981437
 14
178.5530171006
 24
150.9663981437
 50
359.9999999981
100
AcDbRotatedDimension
  0
DIMENSION
  5
399
100
AcDbEntity
  8
0
100
AcDbDimension
 62
7
  6
CONTINUOUS
  2
*D1
 10
257.108662824
 20
168.1659792004
 11
244.558662824
 21
168.1659792004
 70
160
 71
2
 42
25.1
  3
DIMSTYLE_1
100
AcDbAlignedDimension
 13
232.008662824
 23
135.4659792004
 14
257.108662824
 24
107.3317204086
100
AcDbRotatedDimension
  0
DIMENSION
  5
39A
100
AcDbEntity
  8
0
100
AcDbDimension
 62
7
  6
CONTINUOUS
  2
*D2
 10
28.8530288156
 20
57.9659791955
 11
28.8530288235
 21
105.4659792028
 70
160
 71
2
 42
95.0000000153
  3
DIMSTYLE_1
100
AcDbAlignedDimension
 13
45.5526330635
 23
152.9659792081
 14
45.5526330635
 24
57.9659791927
 50
269.9999999905
100
AcDbRotatedDimension
  0
LWPOLYLINE
  5
39B
100
AcDbEntity
  8
RACCORDO
100
AcDbPolyline
 62
253
  6
CONTINUOUS
 90
31
 70
0
 10
44.0741412369
 20
59.987317548
 10
44.076248258
 20
59.9084253446
 10
44.0824059708
 20
59.8301902097
 10
44.0926143752
 20
59.7526121432
 10
44.1069227412
 20
59.6754893779
 10
44.1252817988
 20
59.5990236809
 10
44.147543739
 20
59.5238203542
 10
44.1737420715
 20
59.4498799457
 10
44.2038432866
 20
59.3772019074
 10
44.2375990451
 20
59.3063898967
 10
44.2750382591
 20
59.237463301
 10
44.3161320168
 20
59.170402733
 10
44.3605452426
 20
59.1057536881
 10
44.4083055987
 20
59.0435347362
 10
44.4593854232
 20
58.9837273073
 10
44.5133666547
 20
58.9268211875
 10
44.5702731492
 20
58.8728402938
 10
44.630081051
 20
58.8217607091
 10
44.6923007314
 20
58.774000467
 10
44.7569508831
 20
58.7295872023
 10
44.8240128135
 20
58.6884932802
 10
44.8929408171
 20
58.6510538304
 10
44.9637542081
 20
58.6172977164
 10
45.0364336723
 20
58.5871960747
 10
45.1103755612
 20
58.5609974439
 10
45.1855801322
 20
58.5387354754
 10
45.262047128
 20
58.5203765179
 10
45.3391721285
 20
58.5060681556
 10
45.4167536601
 20
58.4958595835
 10
45.4949931965
 20
58.4897016066
 10
45.5738907375
 20
58.487594225
  0
LWPOLYLINE
  5
39C
100
AcDbEntity
  8
RACCORDO
100
AcDbPolyline
 62
253
  6
CONTINUOUS
 90
31
 70
0
 10
43.575891862
 20
59.9884346676
 10
43.5786432281
 20
59.8837294479
 10
43.5868701691
 20
59.7793315014
 10
43.600547184
 20
59.6755267057
 10
43.6196319109
 20
59.5726079594
 10
43.6440701921
 20
59.4708475052
 10
43.6738008959
 20
59.3704972799
 10
43.7087487208
 20
59.2718199606
 10
43.7488157437
 20
59.1750991893
 10
43.7938878239
 20
59.080611865
 10
43.8438381015
 20
58.9886215177
 10
43.8985315173
 20
58.8993746199
 10
43.9578204091
 20
58.8131118059
 10
44.021543559
 20
58.7300680887
 10
44.0895255468
 20
58.6504724285
 10
44.1615797238
 20
58.5745434785
 10
44.2375086823
 20
58.5024892911
 10
44.3171044694
 20
58.4345071795
 10
44.4001485899
 20
58.3707836636
 10
44.4864122398
 20
58.3114941131
 10
44.5756603049
 20
58.2567998828
 10
44.6676519159
 20
58.2068487798
 10
44.762140524
 20
58.1617758987
 10
44.8588626625
 20
58.1217080638
 10
44.9575413843
 20
58.0867594137
 10
45.0578926133
 20
58.0570279834
 10
45.1596540851
 20
58.0325889123
 10
45.2625751319
 20
58.0135031111
 10
45.366383964
 20
57.9998248854
 10
45.4707872668
 20
57.9915968927
 10
45.5754991448
 20
57.9888448349
  0
LWPOLYLINE
  5
39D
100
AcDbEntity
  8
RACCORDO
100
AcDbPolyline
 62
7
  6
CONTINUOUS
 90
31
 70
0
 10
43.5530170922
 20
150.9663981437
 10
43.5557108161
 20
151.0708574235
 10
43.5638526447
 20
151.1747357127
 10
43.5774425779
 20
151.2780330112
 10
43.596569852
 20
151.3811671337
 10
43.6211452309
 20
151.4837202656
 10
43.6509010057
 20
151.5844389626
 10
43.6858910375
 20
151.6831789573
 10
43.7260614653
 20
151.7800845172
 10
43.7709829974
 20
151.8743350011
 10
43.820543164
 20
151.9657353204
 10
43.8748544349
 20
152.0544805637
 10
43.9338249273
 20
152.1403353553
 10
43.9976741386
 20
152.2235621093
 10
44.0661825716
 20
152.3038984117
 10
44.1385998514
 20
152.3803216438
 10
44.2150154552
 20
152.452739314
 10
44.295339906
 20
152.5212439141
 10
44.3785543974
 20
152.5850903011
 10
44.4643936844
 20
152.6440593373
 10
44.5531230122
 20
152.6983701605
 10
44.6445193085
 20
152.7479350404
 10
44.7387853032
 20
152.7928703839
 10
44.8357182667
 20
152.8330597843
 10
44.934486938
 20
152.8680662907
 10
45.0352347208
 20
152.897833566
 10
45.1378182115
 20
152.9224179474
 10
45.2409759384
 20
152.9415514962
 10
45.3442874106
 20
152.9551448994
 10
45.448173119
 20
152.96328747
 10
45.5526330635
 20
152.9659792081
  0
LWPOLYLINE
  5
39E
100
AcDbEntity
  8
RACCORDO
100
AcDbPolyline
 62
253
  6
CONTINUOUS
 90
3
 70
0
 10
45.5752188994
 20
57.9977463727
 10
45.5753583939
 20
57.9914505424
 10
45.5754991448
 20
57.9888448349
  0
LINE
  5
39F
100
AcDbEntity
  8
RACCORDO
100
AcDbLine
 62
253
  6
CONTINUOUS
 10
45.5749478027
 20
58.021194506
 11
45.5752188994
 21
57.9977463727
  0
LINE
  5
3A0
100
AcDbEntity
  8
RACCORDO
100
AcDbLine
 62
253
  6
CONTINUOUS
 10
45.5743614842
 20
58.1378954667
 11
45.5749478027
 21
58.021194506
  0
LINE
  5
3A1
100
AcDbEntity
  8
RACCORDO
100
AcDbLine
 62
253
  6
CONTINUOUS
 10
45.5738907375
 20
58.487594225
 11
45.5743614842
 21
58.1378954667
  0
LINE
  5
3A2
100
AcDbEntity
  8
RACCORDO
100
AcDbLine
 62
7
  6
CONTINUOUS
 10
43.5530170922
 20
150.9663981437
 11
43.5530170922
 21
59.9655602571
  0
LINE
  5
3A3
100
AcDbEntity
  8
RACCORDO
100
AcDbLine
 62
253
  6
CONTINUOUS
 10
43.575891862
 20
150.9435237332
 11
43.575891862
 21
59.9884346676
  0
LINE
  5
3A4
100
AcDbEntity
  8
RACCORDO
100
AcDbLine
 62
253
  6
CONTINUOUS
 10
44.0741412369
 20
150.9446408529
 11
44.0741412369
 21
59.987317548
  0
LINE
  5
3A5
100
AcDbEntity
  8
RACCORDO
100
AcDbLine
 62
253
  6
CONTINUOUS
 10
45.5738907375
 20
152.4443641758
 11
45.5742669544
 21
152.7621016351
  0
LINE
  5
3A6
100
AcDbEntity
  8
RACCORDO
100
AcDbLine
 62
253
  6
CONTINUOUS
 10
45.5742669544
 20
152.7621016351
 11
45.5748182154
 21
152.8937796284
  0
LWPOLYLINE
  5
3A7
100
AcDbEntity
  8
RACCORDO
100
AcDbPolyline
 62
253
  6
CONTINUOUS
 90
5
 70
0
 10
45.5748182154
 20
152.8937796284
 10
45.5750816987
 20
152.9242663381
 10
45.5752189013
 20
152.9342054076
 10
45.5753583952
 20
152.9405011284
 10
45.5754991455
 20
152.9431067867
  0
LINE
  5
3A8
100
AcDbEntity
  8
SMUSSO
100
AcDbLine
 62
7
  6
HIDDEN
 10
65.751884557
 20
75.1652217049
 11
65.7518845567
 21
135.7667367051
  0
LINE
  5
3A9
100
AcDbEntity
  8
SMUSSO
100
AcDbLine
 62
7
  6
HIDDEN
 10
66.0530170949
 20
75.4659792004
 11
66.0530170949
 21
135.4659792004
  0
LWPOLYLINE
  5
3AA
100
AcDbEntity
  8
RACCORDO
100
AcDbPolyline
 62
253
  6
CONTINUOUS
 90
31
 70
0
 10
176.5321434524
 20
58.487594225
 10
176.6110381462
 20
58.4897012802
 10
176.6892756946
 20
58.4958590514
 10
176.7668560975
 20
58.5060675387
 10
176.8439811406
 20
58.5203760242
 10
176.9204490382
 20
58.5387352258
 10
176.9956544335
 20
58.5609972968
 10
177.0695967684
 20
58.5871957496
 10
177.142276601
 20
58.6172970718
 10
177.2130902489
 20
58.6510528791
 10
177.2820183179
 20
58.688492084
 10
177.3490802023
 20
58.729585774
 10
177.4137304023
 20
58.7739988277
 10
177.4759503409
 20
58.8217589045
 10
177.5357585953
 20
58.8728383451
 10
177.5926653967
 20
58.9268190491
 10
177.6466468209
 20
58.9837248655
 10
177.6977267923
 20
59.0435319455
 10
177.7454873157
 20
59.1057506429
 10
177.7899007541
 20
59.170399643
 10
177.8309947447
 20
59.2374602606
 10
177.8684342041
 20
59.3063867937
 10
177.9021902689
 20
59.3771985495
 10
177.9322918025
 20
59.4498762207
 10
177.9584903118
 20
59.5238161835
 10
177.9807521479
 20
59.599018685
 10
177.9991109597
 20
59.6754834781
 10
178.0134192007
 20
59.7526061974
 10
178.0236276888
 20
59.8301853879
 10
178.0297856062
 20
59.9084225048
 10
178.031892953
 20
59.987317548
  0
LWPOLYLINE
  5
3AB
100
AcDbEntity
  8
RACCORDO
100
AcDbPolyline
 62
253
  6
CONTINUOUS
 90
31
 70
0
 10
176.5305350451
 20
57.9888448349
 10
176.6352430977
 20
57.9915966919
 10
176.7396437737
 20
57.9998242069
 10
176.8434511849
 20
58.0135018639
 10
176.9463724414
 20
58.0325872836
 10
177.0481352746
 20
58.0570262954
 10
177.1484876888
 20
58.086757752
 10
177.2471669977
 20
58.1217063261
 10
177.3438895643
 20
58.1617740736
 10
177.4383784581
 20
58.2068468366
 10
177.5303701523
 20
58.2567977289
 10
177.6196181823
 20
58.3114916674
 10
177.7058818941
 20
58.3707809721
 10
177.7889262855
 20
58.4345043988
 10
177.8685224125
 20
58.5024865048
 10
177.9444516165
 20
58.5745406291
 10
178.0165058607
 20
58.6504693381
 10
178.0844878577
 20
58.7300646633
 10
178.1482110996
 20
58.8131081145
 10
178.2075002392
 20
58.8993708714
 10
178.2621939481
 20
58.988617809
 10
178.3121444368
 20
59.0806080769
 10
178.3572166346
 20
59.1750951182
 10
178.3972837437
 20
59.2718154631
 10
178.4322316429
 20
59.3704921957
 10
178.4619623182
 20
59.4708412346
 10
178.4864006564
 20
59.5726003248
 10
178.5054857625
 20
59.6755188569
 10
178.5191633442
 20
59.7793250671
 10
178.5273907615
 20
59.8837256324
 10
178.5301423278
 20
59.9884346676
  0
LWPOLYLINE
  5
3AC
100
AcDbEntity
  8
RACCORDO
100
AcDbPolyline
 62
253
  6
CONTINUOUS
 90
3
 70
0
 10
178.5212512715
 20
59.9882401466
 10
178.5275394948
 20
59.9883369716
 10
178.5301423278
 20
59.9884346676
  0
LINE
  5
3AD
100
AcDbEntity
  8
RACCORDO
100
AcDbLine
 62
253
  6
CONTINUOUS
 10
178.4808745292
 20
59.9879620089
 11
178.5212512715
 21
59.9882401466
  0
LINE
  5
3AE
100
AcDbEntity
  8
RACCORDO
100
AcDbLine
 62
7
  6
CONTINUOUS
 10
45.5526330635
 20
57.9659791927
 11
176.5534011263
 21
57.9659791927
  0
LINE
  5
3AF
100
AcDbEntity
  8
RACCORDO
100
AcDbLine
 62
253
  6
CONTINUOUS
 10
45.5754991448
 20
57.9888448349
 11
176.5305350451
 21
57.9888448349
  0
LINE
  5
3B0
100
AcDbEntity
  8
RACCORDO
100
AcDbLine
 62
253
  6
CONTINUOUS
 10
45.5738907375
 20
58.487594225
 11
176.5321434524
 21
58.487594225
  0
LINE
  5
3B1
100
AcDbEntity
  8
RACCORDO
100
AcDbLine
 62
253
  6
CONTINUOUS
 10
178.031892953
 20
59.987317548
 11
178.4808745292
 21
59.9879620089
  0
LINE
  5
3B2
100
AcDbEntity
  8
RACCORDO
100
AcDbLine
 62
253
  6
CONTINUOUS
 10
44.0741412369
 20
59.987317548
 11
43.7247688058
 21
59.9876449042
  0
LINE
  5
3B3
100
AcDbEntity
  8
RACCORDO
100
AcDbLine
 62
253
  6
CONTINUOUS
 10
43.7247688058
 20
59.9876449042
 11
43.6082084023
 21
59.9880519697
  0
LWPOLYLINE
  5
3B4
100
AcDbEntity
  8
RACCORDO
100
AcDbPolyline
 62
253
  6
CONTINUOUS
 90
4
 70
0
 10
43.6082084023
 20
59.9880519697
 10
43.5847895391
 20
59.9882401478
 10
43.5785014258
 20
59.9883369725
 10
43.5758986427
 20
59.9884346682
  0
LWPOLYLINE
  5
3B5
100
AcDbEntity
  8
RACCORDO
100
AcDbPolyline
 62
7
  6
CONTINUOUS
 90
31
 70
0
 10
45.5526330635
 20
57.9659791927
 10
45.4481694455
 20
57.9686730445
 10
45.3442870383
 20
57.9768150944
 10
45.240985842
 20
57.9904053425
 10
45.1378480199
 20
58.0095330564
 10
45.0352914086
 20
58.0341089684
 10
44.934569518
 20
58.0638652761
 10
44.8358266468
 20
58.0988558305
 10
44.738918496
 20
58.1390267808
 10
44.6446656791
 20
58.1839487714
 10
44.5532632671
 20
58.2335093451
 10
44.4645161887
 20
58.2878209594
 10
44.3786598434
 20
58.3467916307
 10
44.2954318294
 20
58.4106408573
 10
44.2150945482
 20
58.4791491411
 10
44.1386706048
 20
58.5515660041
 10
44.0662525206
 20
58.6279808934
 10
43.9977477738
 20
58.708304362
 10
43.9339014037
 20
58.791517591
 10
43.8749325465
 20
58.8773553233
 10
43.8206220656
 20
58.9660828161
 10
43.7710575913
 20
59.0574770217
 10
43.7261227039
 20
59.1517406883
 10
43.6859338228
 20
59.2486710678
 10
43.6509278368
 20
59.347436868
 10
43.621161094
 20
59.4481814604
 10
43.5965772462
 20
59.5507614737
 10
43.5774441377
 20
59.6539155007
 10
43.56385105
 20
59.7572230724
 10
43.5557087015
 20
59.8611046579
 10
43.5530170922
 20
59.9655602571
  0
LINE
  5
3B6
100
AcDbEntity
  8
SMUSSO
100
AcDbLine
 62
7
  6
HIDDEN
 10
156.3541496414
 20
75.1652217053
 11
65.751884557
 21
75.1652217049
  0
LINE
  5
3B7
100
AcDbEntity
  8
SMUSSO
100
AcDbLine
 62
7
  6
HIDDEN
 10
156.0530170949
 20
75.4659792004
 11
66.0530170949
 21
75.4659792004
  0
LINE
  5
3B8
100
AcDbEntity
  8
0
100
AcDbLine
 62
7
  6
CONTINUOUS
 10
105.9571340949
 20
143.4117992004
 11
106.6053120949
 21
145.6830182004
  0
LINE
  5
3B9
100
AcDbEntity
  8
0
100
AcDbLine
 62
7
  6
CONTINUOUS
 10
107.2935980949
 20
145.6830182004
 11
106.2329730949
 21
142.3834152004
  0
LINE
  5
3BA
100
AcDbEntity
  8
0
100
AcDbLine
 62
7
  6
CONTINUOUS
 10
110.2763370949
 20
143.8510682004
 11
110.9650940949
 21
145.6830182004
  0
LINE
  5
3BB
100
AcDbEntity
  8
0
100
AcDbLine
 62
7
  6
CONTINUOUS
 10
111.1398070949
 20
144.5290122004
 11
110.3208750949
 21
142.3834152004
  0
LINE
  5
3BC
100
AcDbEntity
  8
RACCORDO
100
AcDbLine
 62
253
  6
CONTINUOUS
 10
43.575891862
 20
59.9884346676
 11
43.5530170922
 21
59.9655602571
  0
LINE
  5
3BD
100
AcDbEntity
  8
RACCORDO
100
AcDbLine
 62
253
  6
CONTINUOUS
 10
45.5754991448
 20
57.9888448349
 11
45.5526330635
 21
57.9659791927
  0
LINE
  5
3BE
100
AcDbEntity
  8
SMUSSO
100
AcDbLine
 62
7
  6
HIDDEN
 10
66.0530170948
 20
135.4659791177
 11
65.7518844637
 21
135.7667367051
  0
LINE
  5
3BF
100
AcDbEntity
  8
RACCORDO
100
AcDbLine
 62
253
  6
CONTINUOUS
 10
43.575891862
 20
150.9435237332
 11
43.5530170922
 21
150.9663981437
  0
LINE
  5
3C0
100
AcDbEntity
  8
RACCORDO
100
AcDbLine
 62
253
  6
CONTINUOUS
 10
45.5754991448
 20
152.9431135659
 11
45.5526330635
 21
152.9659792081
  0
LINE
  5
3C1
100
AcDbEntity
  8
0
100
AcDbLine
 62
7
  6
CONTINUOUS
 10
108.6087330949
 20
142.3834152004
 11
108.9066680949
 21
145.6830182004
  0
LINE
  5
3C2
100
AcDbEntity
  8
0
100
AcDbLine
 62
7
  6
CONTINUOUS
 10
113.4184240949
 20
144.7763712004
 11
113.0754810949
 21
143.5518472004
  0
LINE
  5
3C3
100
AcDbEntity
  8
0
100
AcDbLine
 62
7
  6
CONTINUOUS
 10
112.9345920949
 20
143.0421332004
 11
112.7445380949
 21
142.3834152004
  0
LINE
  5
3C4
100
AcDbEntity
  8
0
100
AcDbLine
 62
7
  6
CONTINUOUS
 10
112.0632540949
 20
142.3834152004
 11
113.0982200949
 21
145.6830182004
  0
LINE
  5
3C5
100
AcDbEntity
  8
SMUSSO
100
AcDbLine
 62
7
  6
HIDDEN
 10
66.0530171881
 20
75.4659792003
 11
65.7518845568
 21
75.1652216135
  0
LINE
  5
3C6
100
AcDbEntity
  8
0
100
AcDbLine
 62
7
  6
CONTINUOUS
 10
107.5491970949
 20
142.3834152004
 11
107.5491970949
 21
145.6832162004
  0
LINE
  5
3C7
100
AcDbEntity
  8
0
100
AcDbLine
 62
7
  6
CONTINUOUS
 10
108.2379530949
 20
145.6832162004
 11
108.2379530949
 21
142.3834152004
  0
LINE
  5
3C8
100
AcDbEntity
  8
0
100
AcDbLine
 62
253
  6
CONTINUOUS
 10
111.0530170949
 20
152.4443642904
 11
111.0530170949
 21
105.4659792004
  0
LINE
  5
3C9
100
AcDbEntity
  8
RACCORDO
100
AcDbLine
 62
253
  6
CONTINUOUS
 10
111.0530170949
 20
57.9659792036
 11
111.0530170949
 21
105.4659792004
  0
LINE
  5
3CA
100
AcDbEntity
  8
RACCORDO
100
AcDbLine
 62
253
  6
CONTINUOUS
 10
111.0530170949
 20
152.4443642904
 11
111.0530170949
 21
152.9659791972
  0
LINE
  5
3CB
100
AcDbEntity
  8
0
100
AcDbLine
 62
7
  6
CONTINUOUS
 10
109.4162820949
 20
144.5379942004
 11
109.2676490949
 21
142.3834152004
  0
LINE
  5
3CC
100
AcDbEntity
  8
RACCORDO
100
AcDbLine
 62
253
  6
CONTINUOUS
 10
43.5530170907
 20
105.4659792123
 11
178.5530170991
 21
105.4659791885
  0
LINE
  5
3CD
100
AcDbEntity
  8
0
100
AcDbLine
 62
7
  6
CONTINUOUS
 10
111.6465510949
 20
145.6830182004
 11
111.9551010949
 21
142.3834152004
  0
LINE
  5
3CE
100
AcDbEntity
  8
0
100
AcDbLine
 62
7
  6
CONTINUOUS
 10
111.2813140949
 20
142.3834152004
 11
111.1398070949
 21
144.5290122004
  0
LINE
  5
3CF
100
AcDbEntity
  8
0
100
AcDbLine
 62
7
  6
CONTINUOUS
 10
114.9791614861
 20
142.3834154137
 11
114.9791614861
 21
145.6444681288
  0
LINE
  5
3D0
100
AcDbEntity
  8
0
100
AcDbLine
 62
7
  6
CONTINUOUS
 10
115.6423085996
 20
145.1208983769
 11
115.6423085996
 21
144.2150930141
  0
LINE
  5
3D1
100
AcDbEntity
  8
0
100
AcDbLine
 62
7
  6
CONTINUOUS
 10
115.665146732
 20
143.6746977692
 11
115.665146732
 21
142.3834154137
  0
LINE
  5
3D2
100
AcDbEntity
  8
0
100
AcDbLine
 62
7
  6
CONTINUOUS
 10
116.7499209046
 20
143.9431386122
 11
116.7499209046
 21
143.9236408351
  0
LINE
  5
3D3
100
AcDbEntity
  8
0
100
AcDbLine
 62
7
  6
CONTINUOUS
 10
105.6260060949
 20
142.3834152004
 11
104.5799680949
 21
145.6830182004
  0
LINE
  5
3D4
100
AcDbEntity
  8
0
100
AcDbLine
 62
7
  6
CONTINUOUS
 10
105.3281700949
 20
145.6830182004
 11
105.9571340949
 21
143.4117992004
  0
LWPOLYLINE
  5
3D5
100
AcDbEntity
  8
0
100
AcDbPolyline
 62
7
  6
CONTINUOUS
 90
22
 70
0
 10
116.5709543154
 20
144.7277062355
 10
116.5696641473
 20
144.7541113002
 10
116.5665732166
 20
144.7808951469
 10
116.5616533814
 20
144.8079167652
 10
116.5548831718
 20
144.8350082218
 10
116.5462360423
 20
144.8620240593
 10
116.5356697202
 20
144.8888380717
 10
116.5231418691
 20
144.9152867501
 10
116.5086358146
 20
144.9411392988
 10
116.492148508
 20
144.9661490432
 10
116.4736132499
 20
144.9901511151
 10
116.4530611768
 20
145.0128331439
 10
116.4307304584
 20
145.0338076072
 10
116.4068145649
 20
145.0530069687
 10
116.3814566739
 20
145.0704360299
 10
116.3549659335
 20
145.0859967269
 10
116.3276218945
 20
145.0996502927
 10
116.2995304134
 20
145.1114501251
 10
116.2707451274
 20
145.1214389216
 10
116.2413985201
 20
145.1296045201
 10
116.2117128857
 20
145.1359073249
 10
116.1818698246
 20
145.140323954
  0
LINE
  5
3D6
100
AcDbEntity
  8
SMUSSO
100
AcDbLine
 62
7
  6
HIDDEN
 10
156.05301701
 20
135.4659792005
 11
156.3541496412
 21
135.7667367873
  0
LINE
  5
3D7
100
AcDbEntity
  8
SMUSSO
100
AcDbLine
 62
7
  6
HIDDEN
 10
156.053017095
 20
75.4659792927
 11
156.3541497261
 21
75.1652217052
  0
LINE
  5
3D8
100
AcDbEntity
  8
0
100
AcDbLine
 62
7
  6
CONTINUOUS
 10
110.2242770949
 20
142.3834152004
 11
109.4162820949
 21
144.5379942004
  0
LINE
  5
3D9
100
AcDbEntity
  8
0
100
AcDbLine
 62
7
  6
CONTINUOUS
 10
113.7349160949
 20
143.5518472004
 11
113.4184240949
 21
144.7763712004
  0
LINE
  5
3DA
100
AcDbEntity
  8
RACCORDO
100
AcDbLine
 62
253
  6
CONTINUOUS
 10
176.5305350451
 20
152.9431135659
 11
176.5534011263
 21
152.9659792081
  0
LINE
  5
3DB
100
AcDbEntity
  8
RACCORDO
100
AcDbLine
 62
253
  6
CONTINUOUS
 10
178.5301423278
 20
150.9435237332
 11
178.5530170976
 21
150.9663981437
  0
LINE
  5
3DC
100
AcDbEntity
  8
RACCORDO
100
AcDbLine
 62
253
  6
CONTINUOUS
 10
176.5305350451
 20
57.9888448349
 11
176.5534011263
 21
57.9659791927
  0
LINE
  5
3DD
100
AcDbEntity
  8
RACCORDO
100
AcDbLine
 62
253
  6
CONTINUOUS
 10
178.5301423278
 20
59.9884346676
 11
178.5530170976
 21
59.9655602571
  0
LINE
  5
3DE
100
AcDbEntity
  8
0
100
AcDbLine
 62
7
  6
CONTINUOUS
 10
109.5948550949
 20
145.6830182004
 11
110.2763370949
 21
143.8510682004
  0
LINE
  5
3DF
100
AcDbEntity
  8
0
100
AcDbLine
 62
7
  6
CONTINUOUS
 10
113.7645090949
 20
145.6830182004
 11
114.7769090949
 21
142.3834152004
  0
LWPOLYLINE
  5
3E0
100
AcDbEntity
  8
0
100
AcDbPolyline
 62
7
  6
CONTINUOUS
 90
8
 70
0
 10
116.5239082821
 20
143.0611674689
 10
116.5101859453
 20
143.107706157
 10
116.4961635981
 20
143.1541051723
 10
116.481770127
 20
143.2003344659
 10
116.4668995181
 20
143.246472048
 10
116.4514644993
 20
143.2925257536
 10
116.4353996792
 20
143.3384343137
 10
116.4186281087
 20
143.3841707924
  0
LINE
  5
3E1
100
AcDbEntity
  8
0
100
AcDbLine
 62
7
  6
CONTINUOUS
 10
116.7198824509
 20
142.3834154137
 11
116.6185631378
 21
142.7302860381
  0
LINE
  5
3E2
100
AcDbEntity
  8
0
100
AcDbLine
 62
7
  6
CONTINUOUS
 10
116.6185631378
 20
142.7302860381
 11
116.590975703
 21
142.8259025573
  0
LINE
  5
3E3
100
AcDbEntity
  8
0
100
AcDbLine
 62
7
  6
CONTINUOUS
 10
116.5507825671
 20
142.9676406879
 11
116.5239082821
 21
143.0611674689
  0
LINE
  5
3E4
100
AcDbEntity
  8
0
100
AcDbLine
 62
7
  6
CONTINUOUS
 10
116.590975703
 20
142.8259025573
 11
116.5507825671
 21
142.9676406879
  0
LWPOLYLINE
  5
3E5
100
AcDbEntity
  8
0
100
AcDbPolyline
 62
7
  6
CONTINUOUS
 90
3
 70
0
 10
117.1227110212
 20
143.3655478606
 10
117.1348520251
 20
143.3211238124
 10
117.1748876661
 20
143.1730087133
  0
LINE
  5
3E6
100
AcDbEntity
  8
0
100
AcDbLine
 62
7
  6
CONTINUOUS
 10
114.0509880949
 20
142.3834152004
 11
113.8725640949
 21
143.0421332004
  0
LINE
  5
3E7
100
AcDbEntity
  8
0
100
AcDbLine
 62
7
  6
CONTINUOUS
 10
117.3570301718
 20
142.4781971868
 11
117.3823862367
 21
142.3834154137
  0
LINE
  5
3E8
100
AcDbEntity
  8
0
100
AcDbLine
 62
7
  6
CONTINUOUS
 10
117.1748876661
 20
143.1730087133
 11
117.2288891225
 21
142.9691988888
  0
LINE
  5
3E9
100
AcDbEntity
  8
0
100
AcDbLine
 62
7
  6
CONTINUOUS
 10
117.2288891225
 20
142.9691988888
 11
117.3570301718
 21
142.4781971868
  0
LWPOLYLINE
  5
3EA
100
AcDbEntity
  8
0
100
AcDbPolyline
 62
7
  6
CONTINUOUS
 90
22
 70
0
 10
116.418628145
 20
143.384170806
 10
116.4096929896
 20
143.406399911
 10
116.3997113056
 20
143.4283168227
 10
116.3887215376
 20
143.4498212303
 10
116.3767778793
 20
143.4707882012
 10
116.3639034824
 20
143.491151882
 10
116.3500775422
 20
143.5108980752
 10
116.3353132204
 20
143.5299427853
 10
116.3196449525
 20
143.5481732871
 10
116.3030673444
 20
143.5655217121
 10
116.2856202909
 20
143.5818677415
 10
116.2673055404
 20
143.5971285118
 10
116.2480431055
 20
143.6112691054
 10
116.2278460904
 20
143.6241612881
 10
116.2067185263
 20
143.6356797815
 10
116.1845669924
 20
143.6457777083
 10
116.1614982429
 20
143.6544074962
 10
116.1376108239
 20
143.6615475886
 10
116.1128457157
 20
143.66720615
 10
116.0872681093
 20
143.6713306161
 10
116.0610800714
 20
143.6738467592
 10
116.0344415593
 20
143.6746977692
  0
LINE
  5
3EB
100
AcDbEntity
  8
SMUSSO
100
AcDbLine
 62
7
  6
HIDDEN
 10
66.0530170949
 20
135.4659792004
 11
156.0530170949
 21
135.4659792004
  0
LINE
  5
3EC
100
AcDbEntity
  8
SMUSSO
100
AcDbLine
 62
7
  6
HIDDEN
 10
65.7518845567
 20
135.7667367051
 11
156.3541496411
 21
135.7667367054
  0
LWPOLYLINE
  5
3ED
100
AcDbEntity
  8
0
100
AcDbPolyline
 62
7
  6
CONTINUOUS
 90
25
 70
0
 10
116.8060769318
 20
143.895595947
 10
116.8317001561
 20
143.8787170941
 10
116.855885774
 20
143.860156108
 10
116.8786100543
 20
143.8401833731
 10
116.8996975643
 20
143.8192582134
 10
116.9191453938
 20
143.7977393703
 10
116.9371741346
 20
143.7757208754
 10
116.9539607386
 20
143.7532741223
 10
116.9695584092
 20
143.7305917877
 10
116.9840662225
 20
143.707781816
 10
116.9976900605
 20
143.6847320243
 10
117.0105052197
 20
143.6614883282
 10
117.0225236637
 20
143.6381976513
 10
117.0338263622
 20
143.6148650851
 10
117.0444460218
 20
143.5915738969
 10
117.0544188305
 20
143.5683920243
 10
117.0638165299
 20
143.5452880989
 10
117.0726575909
 20
143.5223429444
 10
117.0809738857
 20
143.4995983092
 10
117.0888407927
 20
143.47695813
 10
117.0962789098
 20
143.4544602806
 10
117.1033062446
 20
143.4321614573
 10
117.1100093335
 20
143.4099444467
 10
117.1164604442
 20
143.387738896
 10
117.1227110212
 20
143.3655478606
  0
LWPOLYLINE
  5
3EE
100
AcDbEntity
  8
0
100
AcDbPolyline
 62
7
  6
CONTINUOUS
 90
19
 70
0
 10
114.9791614861
 20
145.6444681288
 10
115.0960602271
 20
145.6610711074
 10
115.2106235382
 20
145.6759943174
 10
115.3227908609
 20
145.6890382942
 10
115.4325147109
 20
145.7000422596
 10
115.5397390475
 20
145.708879556
 10
115.644398866
 20
145.715456682
 10
115.7464573894
 20
145.7197138835
 10
115.8458788738
 20
145.7216203686
 10
115.9426069011
 20
145.7211729468
 10
116.0365904316
 20
145.7183960325
 10
116.127834027
 20
145.7133362201
 10
116.2163678081
 20
145.7060524289
 10
116.3021626363
 20
145.6964640004
 10
116.3848746993
 20
145.6843623895
 10
116.4640583552
 20
145.6696448062
 10
116.5394825122
 20
145.652282207
 10
116.6111207457
 20
145.6322824525
 10
116.6789074269
 20
145.6097284345
  0
LWPOLYLINE
  5
3EF
100
AcDbEntity
  8
0
100
AcDbPolyline
 62
7
  6
CONTINUOUS
 90
31
 70
0
 10
116.0359261616
 20
144.2150930141
 10
116.0680998486
 20
144.2163314021
 10
116.0993787358
 20
144.2185729158
 10
116.1295852484
 20
144.2217771894
 10
116.158258336
 20
144.2258395001
 10
116.1856081427
 20
144.2307220635
 10
116.2124930317
 20
144.2365721697
 10
116.2389474498
 20
144.2434512345
 10
116.2647529273
 20
144.2513571057
 10
116.2903504014
 20
144.2605124078
 10
116.315808953
 20
144.2710959744
 10
116.3408029705
 20
144.2831432602
 10
116.3651469903
 20
144.2967296416
 10
116.3887777078
 20
144.3120064407
 10
116.4114703392
 20
144.329036512
 10
116.4328401546
 20
144.3476736831
 10
116.4527399552
 20
144.3677253728
 10
116.4711860831
 20
144.3891050166
 10
116.4881074173
 20
144.4116522606
 10
116.5034411141
 20
144.4352145102
 10
116.5171299784
 20
144.4596479427
 10
116.5291154469
 20
144.4848075455
 10
116.5393556222
 20
144.510536272
 10
116.5479396813
 20
144.5367439366
 10
116.5549962308
 20
144.5633930393
 10
116.5606294103
 20
144.590396864
 10
116.5649387847
 20
144.6176518506
 10
116.5680292615
 20
144.6451005242
 10
116.5699981219
 20
144.6726614373
 10
116.5709407193
 20
144.70022814
 10
116.5709543003
 20
144.7277062352
  0
LINE
  5
3F0
100
AcDbEntity
  8
0
100
AcDbLine
 62
7
  6
CONTINUOUS
 10
117.3823862367
 20
142.3834154137
 11
116.7198824509
 21
142.3834154137
  0
LINE
  5
3F1
100
AcDbEntity
  8
0
100
AcDbLine
 62
7
  6
CONTINUOUS
 10
115.665146732
 20
142.3834154137
 11
114.9791614861
 21
142.3834154137
  0
LINE
  5
3F2
100
AcDbEntity
  8
0
100
AcDbLine
 62
7
  6
CONTINUOUS
 10
114.7769090949
 20
142.3834152004
 11
114.0509880949
 21
142.3834152004
  0
LINE
  5
3F3
100
AcDbEntity
  8
0
100
AcDbLine
 62
7
  6
CONTINUOUS
 10
112.7445380949
 20
142.3834152004
 11
112.0632540949
 21
142.3834152004
  0
LINE
  5
3F4
100
AcDbEntity
  8
0
100
AcDbLine
 62
7
  6
CONTINUOUS
 10
111.9551010949
 20
142.3834152004
 11
111.2813140949
 21
142.3834152004
  0
LINE
  5
3F5
100
AcDbEntity
  8
0
100
AcDbLine
 62
7
  6
CONTINUOUS
 10
110.3208750949
 20
142.3834152004
 11
110.2242770949
 21
142.3834152004
  0
LINE
  5
3F6
100
AcDbEntity
  8
0
100
AcDbLine
 62
7
  6
CONTINUOUS
 10
109.2676490949
 20
142.3834152004
 11
108.6087330949
 21
142.3834152004
  0
LINE
  5
3F7
100
AcDbEntity
  8
0
100
AcDbLine
 62
7
  6
CONTINUOUS
 10
108.2379530949
 20
142.3834152004
 11
107.5491970949
 21
142.3834152004
  0
LINE
  5
3F8
100
AcDbEntity
  8
0
100
AcDbLine
 62
7
  6
CONTINUOUS
 10
106.2329730949
 20
142.3834152004
 11
105.6260060949
 21
142.3834152004
  0
LINE
  5
3F9
100
AcDbEntity
  8
0
100
AcDbLine
 62
7
  6
CONTINUOUS
 10
113.8725640949
 20
143.0421332004
 11
112.9345920949
 21
143.0421332004
  0
LINE
  5
3FA
100
AcDbEntity
  8
0
100
AcDbLine
 62
7
  6
CONTINUOUS
 10
113.0754810949
 20
143.5518472004
 11
113.7349160949
 21
143.5518472004
  0
LINE
  5
3FB
100
AcDbEntity
  8
0
100
AcDbLine
 62
7
  6
CONTINUOUS
 10
116.0344415593
 20
143.6746977692
 11
115.665146732
 21
143.6746977692
  0
LINE
  5
3FC
100
AcDbEntity
  8
0
100
AcDbLine
 62
7
  6
CONTINUOUS
 10
115.6423085996
 20
144.2150930141
 11
116.0359261616
 21
144.2150930141
  0
LINE
  5
3FD
100
AcDbEntity
  8
0
100
AcDbLine
 62
7
  6
CONTINUOUS
 10
104.5799680949
 20
145.6830182004
 11
105.3281700949
 21
145.6830182004
  0
LINE
  5
3FE
100
AcDbEntity
  8
0
100
AcDbLine
 62
7
  6
CONTINUOUS
 10
106.6053120949
 20
145.6830182004
 11
107.2935980949
 21
145.6830182004
  0
LINE
  5
3FF
100
AcDbEntity
  8
0
100
AcDbLine
 62
7
  6
CONTINUOUS
 10
108.9066680949
 20
145.6830182004
 11
109.5948550949
 21
145.6830182004
  0
LINE
  5
400
100
AcDbEntity
  8
0
100
AcDbLine
 62
7
  6
CONTINUOUS
 10
110.9650940949
 20
145.6830182004
 11
111.6465510949
 21
145.6830182004
  0
LINE
  5
401
100
AcDbEntity
  8
0
100
AcDbLine
 62
7
  6
CONTINUOUS
 10
113.0982200949
 20
145.6830182004
 11
113.7645090949
 21
145.6830182004
  0
LINE
  5
402
100
AcDbEntity
  8
0
100
AcDbLine
 62
7
  6
CONTINUOUS
 10
107.5491970949
 20
145.6832162004
 11
108.2379530949
 21
145.6832162004
  0
LWPOLYLINE
  5
403
100
AcDbEntity
  8
0
100
AcDbPolyline
 62
7
  6
CONTINUOUS
 90
10
 70
0
 10
116.1818698246
 20
145.1403239538
 10
116.1253426957
 20
145.1459542972
 10
116.0677646231
 20
145.1497985586
 10
116.0092135551
 20
145.1517764246
 10
115.949779517
 20
145.1518065942
 10
115.8895510327
 20
145.1498068704
 10
115.8286154704
 20
145.1456926009
 10
115.7670768925
 20
145.1393801486
 10
115.7049915805
 20
145.1309741572
 10
115.6423085996
 20
145.1208983769
  0
LWPOLYLINE
  5
404
100
AcDbEntity
  8
0
100
AcDbPolyline
 62
7
  6
CONTINUOUS
 90
61
 70
0
 10
116.6789074269
 20
145.6097284345
 10
116.7150621882
 20
145.5951784735
 10
116.7517481421
 20
145.5773888163
 10
116.788829839
 20
145.5564148004
 10
116.826075526
 20
145.53246082
 10
116.8634214125
 20
145.5056223755
 10
116.9008836509
 20
145.4755858978
 10
116.9383030677
 20
145.4420058275
 10
116.9751539136
 20
145.4048201779
 10
117.0108438024
 20
145.3640887033
 10
117.0451895241
 20
145.3194702347
 10
117.0775649791
 20
145.2712223471
 10
117.1069201351
 20
145.2205521658
 10
117.1330903757
 20
145.1675297603
 10
117.1557678613
 20
145.1125146996
 10
117.1743402295
 20
145.0574264518
 10
117.189020719
 20
145.0028882407
 10
117.2002155134
 20
144.9488712288
 10
117.2081763879
 20
144.8964017585
 10
117.2133322271
 20
144.8460598587
 10
117.2161494577
 20
144.7976361478
 10
117.2169017801
 20
144.7509388063
 10
117.2157680938
 20
144.7060759919
 10
117.2129284067
 20
144.6631226964
 10
117.2085207104
 20
144.6218041959
 10
117.2026729867
 20
144.5820870711
 10
117.1955355971
 20
144.5440674036
 10
117.1872286169
 20
144.5076535061
 10
117.1778890694
 20
144.4728625252
 10
117.1676440546
 20
144.4396705223
 10
117.1565731882
 20
144.4079287384
 10
117.1448225715
 20
144.3776951157
 10
117.132519457
 20
144.3489750408
 10
117.1196868774
 20
144.3215713641
 10
117.1064127093
 20
144.2954770616
 10
117.0928030937
 20
144.2707235082
 10
117.0788653385
 20
144.2471738584
 10
117.0646650656
 20
144.2248154576
 10
117.0502794569
 20
144.2036540046
 10
117.0357066602
 20
144.1835856973
 10
117.0209780651
 20
144.1645697744
 10
117.0061700628
 20
144.1466181391
 10
116.9913415469
 20
144.1296634894
 10
116.976544308
 20
144.1136140378
 10
116.9618349919
 20
144.098397125
 10
116.9472786382
 20
144.0839600349
 10
116.9329336572
 20
144.0702533371
 10
116.9188313058
 20
144.0572126788
 10
116.9049907839
 20
144.0447747361
 10
116.891468107
 20
144.0329191774
 10
116.8782762412
 20
144.021596005
 10
116.865360877
 20
144.0107080228
 10
116.8528028455
 20
144.0002802874
 10
116.8405634314
 20
143.9902773248
 10
116.8283553009
 20
143.9806845185
 10
116.816133554
 20
143.9717512889
 10
116.8038529582
 20
143.9636935557
 10
116.7911835345
 20
143.9565516742
 10
116.7779652124
 20
143.9505387463
 10
116.7642318729
 20
143.945977673
 10
116.7499209046
 20
143.9431386122
  0
LWPOLYLINE
  5
405
100
AcDbEntity
  8
0
100
AcDbPolyline
 62
7
  6
CONTINUOUS
 90
3
 70
0
 10
116.7499209046
 20
143.9236408351
 10
116.7788447908
 20
143.9106481427
 10
116.8060769318
 20
143.895595947
  0
LINE
  5
406
100
AcDbEntity
  8
SMUSSO
100
AcDbLine
 62
7
  6
HIDDEN
 10
156.0530170949
 20
135.4659792004
 11
156.0530170949
 21
75.4659792004
  0
LINE
  5
407
100
AcDbEntity
  8
SMUSSO
100
AcDbLine
 62
7
  6
HIDDEN
 10
156.3541496411
 20
135.7667367054
 11
156.3541496414
 21
75.1652217053
  0
LWPOLYLINE
  5
408
100
AcDbEntity
  8
RACCORDO
100
AcDbPolyline
 62
253
  6
CONTINUOUS
 90
3
 70
0
 10
43.5847829183
 20
150.9437182542
 10
43.5784946951
 20
150.9436214292
 10
43.575891862
 20
150.9435237332
  0
LINE
  5
409
100
AcDbEntity
  8
RACCORDO
100
AcDbLine
 62
253
  6
CONTINUOUS
 10
43.6251596607
 20
150.9439963919
 11
43.5847829183
 21
150.9437182542
  0
LINE
  5
40A
100
AcDbEntity
  8
RACCORDO
100
AcDbLine
 62
253
  6
CONTINUOUS
 10
44.0741412369
 20
150.9446408529
 11
43.6251596607
 21
150.9439963919
  0
LINE
  5
40B
100
AcDbEntity
  8
RACCORDO
100
AcDbLine
 62
253
  6
CONTINUOUS
 10
178.031892953
 20
150.9446408529
 11
178.381265384
 21
150.9443134966
  0
LINE
  5
40C
100
AcDbEntity
  8
RACCORDO
100
AcDbLine
 62
253
  6
CONTINUOUS
 10
178.381265384
 20
150.9443134966
 11
178.4978257875
 21
150.9439064311
  0
LWPOLYLINE
  5
40D
100
AcDbEntity
  8
RACCORDO
100
AcDbPolyline
 62
253
  6
CONTINUOUS
 90
4
 70
0
 10
178.4978257875
 20
150.9439064311
 10
178.5212446508
 20
150.943718253
 10
178.527532764
 20
150.9436214283
 10
178.5301355472
 20
150.9435237326
  0
LWPOLYLINE
  5
40E
100
AcDbEntity
  8
RACCORDO
100
AcDbPolyline
 62
253
  6
CONTINUOUS
 90
31
 70
0
 10
45.5738907375
 20
152.4443641758
 10
45.4949960436
 20
152.4422571206
 10
45.4167584952
 20
152.4360993494
 10
45.3391780924
 20
152.4258908621
 10
45.2620530493
 20
152.4115823766
 10
45.1855851516
 20
152.393223175
 10
45.1103797563
 20
152.370961104
 10
45.0364374214
 20
152.3447626512
 10
44.9637575888
 20
152.314661329
 10
44.8929439409
 20
152.2809055217
 10
44.8240158719
 20
152.2434663168
 10
44.7569539875
 20
152.2023726268
 10
44.6923037875
 20
152.1579595731
 10
44.6300838489
 20
152.1101994963
 10
44.5702755946
 20
152.0591200557
 10
44.5133687931
 20
152.0051393517
 10
44.459387369
 20
151.9482335353
 10
44.4083073976
 20
151.8884264553
 10
44.3605468741
 20
151.8262077579
 10
44.3161334357
 20
151.7615587578
 10
44.2750394451
 20
151.6944981402
 10
44.2375999857
 20
151.6255716071
 10
44.2038439209
 20
151.5547598513
 10
44.1737423873
 20
151.4820821801
 10
44.147543878
 20
151.4081422173
 10
44.1252820419
 20
151.3329397158
 10
44.1069232302
 20
151.2564749227
 10
44.0926149891
 20
151.1793522034
 10
44.082406501
 20
151.1017730129
 10
44.0762485836
 20
151.023535896
 10
44.0741412369
 20
150.9446408529
  0
LWPOLYLINE
  5
40F
100
AcDbEntity
  8
RACCORDO
100
AcDbPolyline
 62
253
  6
CONTINUOUS
 90
31
 70
0
 10
45.5754991448
 20
152.9431135659
 10
45.4707910921
 20
152.9403617089
 10
45.3663904161
 20
152.9321341939
 10
45.2625830049
 20
152.9184565369
 10
45.1596617484
 20
152.8993711172
 10
45.0578989153
 20
152.8749321054
 10
44.957546501
 20
152.8452006488
 10
44.8588671922
 20
152.8102520747
 10
44.7621446255
 20
152.7701843272
 10
44.6676557317
 20
152.7251115642
 10
44.5756640375
 20
152.6751606719
 10
44.4864160076
 20
152.6204667334
 10
44.4001522958
 20
152.5611774287
 10
44.3171079043
 20
152.497454002
 10
44.2375117773
 20
152.429471896
 10
44.1615825734
 20
152.3574177717
 10
44.0895283291
 20
152.2814890627
 10
44.0215463322
 20
152.2018937375
 10
43.9578230902
 20
152.1188502863
 10
43.8985339506
 20
152.0325875294
 10
43.8438402417
 20
151.9433405918
 10
43.7938897531
 20
151.8513503239
 10
43.7488175553
 20
151.7568632826
 10
43.7087504462
 20
151.6601429377
 10
43.6738025469
 20
151.5614662051
 10
43.6440718716
 20
151.4611171662
 10
43.6196335335
 20
151.359358076
 10
43.6005484273
 20
151.2564395439
 10
43.5868708457
 20
151.1526333337
 10
43.5786434283
 20
151.0482327685
 10
43.575891862
 20
150.9435237332
  0
LINE
  5
410
100
AcDbEntity
  8
RACCORDO
100
AcDbLine
 62
253
  6
CONTINUOUS
 10
176.5321434524
 20
152.4443641758
 11
45.5738907375
 21
152.4443641758
  0
LINE
  5
411
100
AcDbEntity
  8
RACCORDO
100
AcDbLine
 62
253
  6
CONTINUOUS
 10
176.5305350451
 20
152.9431135659
 11
45.5754991448
 21
152.9431135659
  0
LINE
  5
412
100
AcDbEntity
  8
RACCORDO
100
AcDbLine
 62
7
  6
CONTINUOUS
 10
176.5534011263
 20
152.9659792081
 11
45.5526330635
 21
152.9659792081
  0
LWPOLYLINE
  5
413
100
AcDbEntity
  8
RACCORDO
100
AcDbPolyline
 62
7
  6
CONTINUOUS
 90
31
 70
0
 10
176.5534011263
 20
152.9659792081
 10
176.6578647444
 20
152.9632853563
 10
176.7617471515
 20
152.9551433064
 10
176.8650483478
 20
152.9415530583
 10
176.9681861699
 20
152.9224253445
 10
177.0707427812
 20
152.8978494324
 10
177.1714646718
 20
152.8680931247
 10
177.2702075431
 20
152.8331025703
 10
177.3671156938
 20
152.79293162
 10
177.4613685107
 20
152.7480096294
 10
177.5527709227
 20
152.6984490557
 10
177.6415180011
 20
152.6441374414
 10
177.7273743464
 20
152.5851667702
 10
177.8106023605
 20
152.5213175435
 10
177.8909396416
 20
152.4528092597
 10
177.9673635851
 20
152.3803923967
 10
178.0397816692
 20
152.3039775074
 10
178.108286416
 20
152.2236540388
 10
178.1721327861
 20
152.1404408098
 10
178.2311016434
 20
152.0546030775
 10
178.2854121242
 20
151.9658755847
 10
178.3349765985
 20
151.8744813791
 10
178.3799114859
 20
151.7802177125
 10
178.420100367
 20
151.683287333
 10
178.455106353
 20
151.5845215328
 10
178.4848730958
 20
151.4837769404
 10
178.5094569436
 20
151.3811969271
 10
178.5285900521
 20
151.2780429001
 10
178.5421831399
 20
151.1747353284
 10
178.5503254884
 20
151.0708537429
 10
178.5530170976
 20
150.9663981437
  0
LWPOLYLINE
  5
414
100
AcDbEntity
  8
RACCORDO
100
AcDbPolyline
 62
253
  6
CONTINUOUS
 90
31
 70
0
 10
178.031892953
 20
150.9446408529
 10
178.0297859318
 20
151.0235330562
 10
178.0236282191
 20
151.1017681911
 10
178.0134198146
 20
151.1793462576
 10
177.9991114487
 20
151.2564690229
 10
177.980752391
 20
151.3329347199
 10
177.9584904509
 20
151.4081380466
 10
177.9322921183
 20
151.4820784551
 10
177.9021909032
 20
151.5547564935
 10
177.8684351447
 20
151.6255685041
 10
177.8309959307
 20
151.6944950998
 10
177.7899021731
 20
151.7615556678
 10
177.7454889472
 20
151.8262047127
 10
177.6977285911
 20
151.8884236646
 10
177.6466487667
 20
151.9482310935
 10
177.5926675351
 20
152.0051372133
 10
177.5357610406
 20
152.059118107
 10
177.4759531388
 20
152.1101976917
 10
177.4137334584
 20
152.1579579338
 10
177.3490833068
 20
152.2023711985
 10
177.2820213763
 20
152.2434651206
 10
177.2130933727
 20
152.2809045704
 10
177.1422799817
 20
152.3146606844
 10
177.0696005176
 20
152.3447623261
 10
176.9956586286
 20
152.3709609569
 10
176.9204540576
 20
152.3932229254
 10
176.8439870618
 20
152.4115818829
 10
176.7668620614
 20
152.4258902452
 10
176.6892805297
 20
152.4360988173
 10
176.6110409934
 20
152.4422567942
 10
176.5321434524
 20
152.4443641758
  0
LWPOLYLINE
  5
415
100
AcDbEntity
  8
RACCORDO
100
AcDbPolyline
 62
253
  6
CONTINUOUS
 90
31
 70
0
 10
178.5301423278
 20
150.9435237332
 10
178.5273909618
 20
151.0482289529
 10
178.5191640208
 20
151.1526268994
 10
178.5054870058
 20
151.2564316951
 10
178.4864022789
 20
151.3593504414
 10
178.4619639977
 20
151.4611108956
 10
178.4322332939
 20
151.5614611209
 10
178.397285469
 20
151.6601384402
 10
178.3572184461
 20
151.7568592115
 10
178.3121463659
 20
151.8513465358
 10
178.2621960883
 20
151.9433368831
 10
178.2075026725
 20
152.0325837809
 10
178.1482137807
 20
152.1188465949
 10
178.0844906308
 20
152.2018903121
 10
178.016508643
 20
152.2814859723
 10
177.944454466
 20
152.3574149223
 10
177.8685255076
 20
152.4294691097
 10
177.7889297204
 20
152.4974512213
 10
177.7058856
 20
152.5611747372
 10
177.61962195
 20
152.6204642878
 10
177.5303738849
 20
152.675158518
 10
177.4383822739
 20
152.725109621
 10
177.3438936658
 20
152.7701825021
 10
177.2471715273
 20
152.810250337
 10
177.1484928055
 20
152.8451989871
 10
177.0481415765
 20
152.8749304174
 10
176.9463801047
 20
152.8993694885
 10
176.8434590579
 20
152.9184552897
 10
176.7396502258
 20
152.9321335154
 10
176.6352469231
 20
152.9403615081
 10
176.5305350451
 20
152.9431135659
  0
LWPOLYLINE
  5
416
100
AcDbEntity
  8
RACCORDO
100
AcDbPolyline
 62
253
  6
CONTINUOUS
 90
3
 70
0
 10
176.5308152905
 20
152.9342120281
 10
176.530675796
 20
152.9405078584
 10
176.5305350451
 20
152.9431135659
  0
LINE
  5
417
100
AcDbEntity
  8
RACCORDO
100
AcDbLine
 62
253
  6
CONTINUOUS
 10
176.5310863871
 20
152.9107638949
 11
176.5308152905
 21
152.9342120281
  0
LINE
  5
418
100
AcDbEntity
  8
RACCORDO
100
AcDbLine
 62
253
  6
CONTINUOUS
 10
176.5316727057
 20
152.7940629341
 11
176.5310863871
 21
152.9107638949
  0
LINE
  5
419
100
AcDbEntity
  8
RACCORDO
100
AcDbLine
 62
253
  6
CONTINUOUS
 10
176.5321434524
 20
152.4443641758
 11
176.5316727057
 21
152.7940629341
  0
LINE
  5
41A
100
AcDbEntity
  8
RACCORDO
100
AcDbLine
 62
253
  6
CONTINUOUS
 10
178.031892953
 20
59.987317548
 11
178.031892953
 21
150.9446408529
  0
LINE
  5
41B
100
AcDbEntity
  8
RACCORDO
100
AcDbLine
 62
253
  6
CONTINUOUS
 10
178.5301423278
 20
59.9884346676
 11
178.5301423278
 21
150.9435237332
  0
LINE
  5
41C
100
AcDbEntity
  8
RACCORDO
100
AcDbLine
 62
7
  6
CONTINUOUS
 10
178.5530170976
 20
59.9655602571
 11
178.5530170976
 21
150.9663981437
  0
LINE
  5
41D
100
AcDbEntity
  8
RACCORDO
100
AcDbLine
 62
253
  6
CONTINUOUS
 10
176.5321434524
 20
58.487594225
 11
176.5317672354
 21
58.1698567657
  0
LINE
  5
41E
100
AcDbEntity
  8
RACCORDO
100
AcDbLine
 62
253
  6
CONTINUOUS
 10
176.5317672354
 20
58.1698567657
 11
176.5312159745
 21
58.0381787725
  0
LWPOLYLINE
  5
41F
100
AcDbEntity
  8
RACCORDO
100
AcDbPolyline
 62
253
  6
CONTINUOUS
 90
5
 70
0
 10
176.5312159745
 20
58.0381787725
 10
176.5309524911
 20
58.0076920627
 10
176.5308152886
 20
57.9977529932
 10
176.5306757946
 20
57.9914572724
 10
176.5305350443
 20
57.9888516142
  0
LWPOLYLINE
  5
420
100
AcDbEntity
  8
RACCORDO
100
AcDbPolyline
 62
7
  6
CONTINUOUS
 90
31
 70
0
 10
178.5530170976
 20
59.9655602571
 10
178.5503233737
 20
59.8611009773
 10
178.5421815451
 20
59.7572226881
 10
178.5285916119
 20
59.6539253897
 10
178.5094643378
 20
59.5507912671
 10
178.4848889589
 20
59.4482381352
 10
178.4551331842
 20
59.3475194382
 10
178.4201431524
 20
59.2487794435
 10
178.3799727245
 20
59.1518738836
 10
178.3350511925
 20
59.0576233998
 10
178.2854910259
 20
58.9662230804
 10
178.2311797549
 20
58.8774778371
 10
178.1722092625
 20
58.7916230455
 10
178.1083600512
 20
58.7083962915
 10
178.0398516182
 20
58.6280599891
 10
177.9674343385
 20
58.551636757
 10
177.8910187347
 20
58.4792190868
 10
177.8106942838
 20
58.4107144867
 10
177.7274797925
 20
58.3468680998
 10
177.6416405054
 20
58.2878990635
 10
177.5529111777
 20
58.2335882403
 10
177.4615148813
 20
58.1840233604
 10
177.3672488867
 20
58.1390880169
 10
177.2703159231
 20
58.0988986165
 10
177.1715472518
 20
58.0638921101
 10
177.070799469
 20
58.0341248349
 10
176.9682159783
 20
58.0095404534
 10
176.8650582514
 20
57.9904069047
 10
176.7617467792
 20
57.9768135014
 10
176.6578610708
 20
57.9686709308
 10
176.5534011263
 20
57.9659791927
  0
LINE
  5
421
100
AcDbEntity
  8
RACCORDO
100
AcDbLine
 62
7
  6
CONTINUOUS
 10
256.5622161138
 20
57.9888447224
 11
255.2522514174
 21
57.9659792036
  0
LINE
  5
422
100
AcDbEntity
  8
RACCORDO
100
AcDbLine
 62
7
  6
CONTINUOUS
 10
256.4550302921
 20
57.9888448349
 11
255.1449836495
 21
57.9659791927
  0
LINE
  5
423
100
AcDbEntity
  8
RACCORDO
100
AcDbLine
 62
7
  6
CONTINUOUS
 10
255.1449836495
 20
57.9659791927
 11
255.2522514174
 21
57.9659792036
  0
LINE
  5
424
100
AcDbEntity
  8
RACCORDO
100
AcDbLine
 62
7
  6
CONTINUOUS
 10
256.4550302921
 20
57.9888448349
 11
256.5622161138
 21
57.9888447224
  0
LINE
  5
425
100
AcDbEntity
  8
RACCORDO
100
AcDbLine
 62
253
  6
CONTINUOUS
 10
241.848619881
 20
60.1502912314
 11
242.0514974541
 21
60.1803324003
  0
LINE
  5
426
100
AcDbEntity
  8
RACCORDO
100
AcDbLine
 62
253
  6
CONTINUOUS
 10
242.0514974541
 20
60.1803324003
 11
242.4392619411
 21
60.2367323073
  0
LINE
  5
427
100
AcDbEntity
  8
RACCORDO
100
AcDbLine
 62
253
  6
CONTINUOUS
 10
242.4392619411
 20
60.2367323073
 11
242.7702757159
 21
60.2844650849
  0
LINE
  5
428
100
AcDbEntity
  8
RACCORDO
100
AcDbLine
 62
253
  6
CONTINUOUS
 10
240.8831281234
 20
60.5600046234
 11
240.8385686267
 21
60.5589154112
  0
LINE
  5
429
100
AcDbEntity
  8
RACCORDO
100
AcDbLine
 62
7
  6
CONTINUOUS
 10
245.208662824
 20
59.5159792004
 11
245.708662824
 21
59.5247067329
  0
LINE
  5
42A
100
AcDbEntity
  8
RACCORDO
100
AcDbLine
 62
253
  6
CONTINUOUS
 10
256.4535304617
 20
59.9884346676
 11
255.1429837444
 21
59.9655602571
  0
LINE
  5
42B
100
AcDbEntity
  8
RACCORDO
100
AcDbLine
 62
253
  6
CONTINUOUS
 10
245.208662824
 20
60.3158573565
 11
245.708662824
 21
60.324584889
  0
LINE
  5
42C
100
AcDbEntity
  8
RACCORDO
100
AcDbLine
 62
253
  6
CONTINUOUS
 10
240.4050212101
 20
61.6047772929
 11
240.2253896266
 21
61.604158942
  0
LINE
  5
42D
100
AcDbEntity
  8
RACCORDO
100
AcDbLine
 62
253
  6
CONTINUOUS
 10
256.9463000298
 20
58.487594225
 11
257.0534885312
 21
58.4875941104
  0
LINE
  5
42E
100
AcDbEntity
  8
RACCORDO
100
AcDbLine
 62
253
  6
CONTINUOUS
 10
241.8041379947
 20
61.1907246855
 11
242.7037456627
 21
61.1907246855
  0
LINE
  5
42F
100
AcDbEntity
  8
RACCORDO
100
AcDbLine
 62
253
  6
CONTINUOUS
 10
256.9448001615
 20
59.987317548
 11
256.4535303434
 21
59.9884346682
  0
LINE
  5
430
100
AcDbEntity
  8
RACCORDO
100
AcDbLine
 62
7
  6
CONTINUOUS
 10
245.208662824
 20
58.5421617978
 11
242.5100532062
 21
58.5892662039
  0
LINE
  5
431
100
AcDbEntity
  8
RACCORDO
100
AcDbLine
 62
253
  6
CONTINUOUS
 10
245.208662824
 20
60.2419028796
 11
242.7702757159
 21
60.2844650849
  0
LINE
  5
432
100
AcDbEntity
  8
RACCORDO
100
AcDbLine
 62
7
  6
CONTINUOUS
 10
255.1457095598
 20
58.2688614347
 11
245.708662824
 21
58.5159792004
  0
LINE
  5
433
100
AcDbEntity
  8
RACCORDO
100
AcDbLine
 62
253
  6
CONTINUOUS
 10
255.1440102151
 20
59.9683233861
 11
245.708662824
 21
60.2153966529
  0
LWPOLYLINE
  5
434
100
AcDbEntity
  8
RACCORDO
100
AcDbPolyline
 62
7
  6
CONTINUOUS
 90
10
 70
0
 10
240.8955732869
 20
60.47983262
 10
240.8936697685
 20
60.4802893022
 10
240.890036283
 20
60.482799362
 10
240.8854682602
 20
60.4874706893
 10
240.8799730648
 20
60.4942422535
 10
240.8735470133
 20
60.5030681044
 10
240.8661921604
 20
60.5139729623
 10
240.8579097081
 20
60.5269602171
 10
240.8487012072
 20
60.5419603141
 10
240.8385686267
 20
60.5589154112
  0
LINE
  5
435
100
AcDbEntity
  8
RACCORDO
100
AcDbLine
 62
253
  6
CONTINUOUS
 10
240.7219062938
 20
61.9939095268
 11
240.5671678928
 21
61.9901271019
  0
LINE
  5
436
100
AcDbEntity
  8
DRAFT
100
AcDbLine
 62
7
  6
CONTINUOUS
 10
245.208662824
 20
63.9528888987
 11
245.708662824
 21
63.9572523326
  0
LINE
  5
437
100
AcDbEntity
  8
RACCORDO
100
AcDbLine
 62
253
  6
CONTINUOUS
 10
240.0747194801
 20
62.1637132182
 11
239.9549946312
 21
62.163301086
  0
LINE
  5
438
100
AcDbEntity
  8
RACCORDO
100
AcDbLine
 62
253
  6
CONTINUOUS
 10
240.457260055
 20
63.0428029254
 11
239.9390897518
 21
63.0410192132
  0
LINE
  5
439
100
AcDbEntity
  8
RACCORDO
100
AcDbLine
 62
253
  6
CONTINUOUS
 10
240.1366530157
 20
63.601772223
 11
239.8312256458
 21
63.6007208418
  0
LINE
  5
43A
100
AcDbEntity
  8
0
100
AcDbLine
 62
7
  6
CONTINUOUS
 10
245.708662824
 20
63.0659792004
 11
245.208662824
 21
63.0659792004
  0
LINE
  5
43B
100
AcDbEntity
  8
DRAFT
100
AcDbLine
 62
7
  6
CONTINUOUS
 10
245.208662824
 20
61.9659792004
 11
245.708662824
 21
61.9572516679
  0
LINE
  5
43C
100
AcDbEntity
  8
RACCORDO
100
AcDbLine
 62
253
  6
CONTINUOUS
 10
240.042324115
 20
62.2185329911
 11
239.9356606073
 21
62.2211402735
  0
LINE
  5
43D
100
AcDbEntity
  8
RACCORDO
100
AcDbLine
 62
253
  6
CONTINUOUS
 10
240.1062651289
 20
63.6548158265
 11
239.8420691064
 21
63.6612738331
  0
LWPOLYLINE
  5
43E
100
AcDbEntity
  8
RACCORDO
100
AcDbPolyline
 62
7
  6
CONTINUOUS
 90
10
 70
0
 10
240.6559494695
 20
61.9118210635
 10
240.6505826605
 20
61.9120481334
 10
240.6407112103
 20
61.9142363937
 10
240.6306320947
 20
61.9186882795
 10
240.6203536381
 20
61.9253506794
 10
240.6098711441
 20
61.9341747909
 10
240.5992980338
 20
61.9451275961
 10
240.5886734212
 20
61.9581596414
 10
240.5779625097
 20
61.9731879071
 10
240.5671678928
 20
61.9901271019
  0
LWPOLYLINE
  5
43F
100
AcDbEntity
  8
RACCORDO
100
AcDbPolyline
 62
7
  6
CONTINUOUS
 90
10
 70
0
 10
239.9577164382
 20
63.8177954825
 10
239.9629846223
 20
63.8174668636
 10
239.9758330918
 20
63.8150047741
 10
239.9885946427
 20
63.8102017828
 10
240.0012497403
 20
63.8030944088
 10
240.0138209197
 20
63.7937191193
 10
240.0260497564
 20
63.7821318456
 10
240.0378516266
 20
63.7683976826
 10
240.0493157577
 20
63.7525931924
 10
240.0604448839
 20
63.7348081768
  0
LWPOLYLINE
  5
440
100
AcDbEntity
  8
RACCORDO
100
AcDbPolyline
 62
7
  6
CONTINUOUS
 90
10
 70
0
 10
239.9222187524
 20
62.3808173731
 10
239.9243660645
 20
62.3805969005
 10
239.9305464195
 20
62.3784295514
 10
239.9375302203
 20
62.3739510095
 10
239.9453091634
 20
62.3671740777
 10
239.9538932308
 20
62.3581050629
 10
239.9631681703
 20
62.3467057278
 10
239.9730961812
 20
62.3329556758
 10
239.9837168936
 20
62.3168943518
 10
239.9950319671
 20
62.2985613206
  0
LWPOLYLINE
  5
441
100
AcDbEntity
  8
0
100
AcDbPolyline
 62
253
  6
CONTINUOUS
 90
46
 70
0
 10
237.9009202709
 20
143.3031350741
 10
237.8929785552
 20
143.3004291121
 10
237.8853346999
 20
143.2966476356
 10
237.8779972398
 20
143.2917948669
 10
237.870974368
 20
143.2858762245
 10
237.8642739261
 20
143.278898317
 10
237.8579033956
 20
143.2708689359
 10
237.8518698897
 20
143.2617970466
 10
237.8461801454
 20
143.2516927786
 10
237.8408405158
 20
143.2405674141
 10
237.835856963
 20
143.2284333754
 10
237.8312350515
 20
143.2153042114
 10
237.8269799421
 20
143.2011945816
 10
237.8230963859
 20
143.1861202407
 10
237.8195887194
 20
143.1700980204
 10
237.8164608591
 20
143.1531458108
 10
237.8137162975
 20
143.1352825405
 10
237.8113580992
 20
143.1165281551
 10
237.8093888973
 20
143.0969035956
 10
237.8078108906
 20
143.0764307743
 10
237.806625841
 20
143.0551325509
 10
237.8058350719
 20
143.0330327065
 10
237.8054394661
 20
143.0101559174
 10
237.8054394654
 20
142.9865277275
 10
237.8058350698
 20
142.9621745196
 10
237.8066258375
 20
142.9371234859
 10
237.8078108858
 20
142.9114025982
 10
237.8093888912
 20
142.8850405758
 10
237.811358092
 20
142.8580668541
 10
237.8137162892
 20
142.8305115515
 10
237.8164608499
 20
142.8024054359
 10
237.8195887094
 20
142.7737798899
 10
237.8230963753
 20
142.7446668765
 10
237.826979931
 20
142.7150989026
 10
237.8312350402
 20
142.6851089835
 10
237.8358569516
 20
142.6547306052
 10
237.8408405046
 20
142.6239976879
 10
237.8461801346
 20
142.5929445474
 10
237.8518698795
 20
142.5616058571
 10
237.8579033861
 20
142.5300166092
 10
237.8642739177
 20
142.4982120758
 10
237.8709743609
 20
142.4662277693
 10
237.8779972342
 20
142.4340994029
 10
237.8853346959
 20
142.4018628506
 10
237.8929785531
 20
142.3695541071
 10
237.9009202709
 20
142.3372092478
  0
LWPOLYLINE
  5
442
100
AcDbEntity
  8
0
100
AcDbPolyline
 62
253
  6
CONTINUOUS
 90
49
 70
0
 10
233.2498437789
 20
142.0568828841
 10
233.2423897832
 20
142.054377591
 10
233.2351971031
 20
142.0509268138
 10
233.2282727974
 20
142.0465339389
 10
233.2216236615
 20
142.0412032774
 10
233.2152562208
 20
142.0349400607
 10
233.2091767243
 20
142.0277504355
 10
233.2033911383
 20
142.0196414577
 10
233.1979051406
 20
142.0106210852
 10
233.1927241151
 20
142.0006981703
 10
233.1878531462
 20
141.989882451
 10
233.1832970143
 20
141.9781845418
 10
233.1790601908
 20
141.9656159228
 10
233.1751468335
 20
141.9521889286
 10
233.1715607831
 20
141.9379167363
 10
233.1683055588
 20
141.9228133524
 10
233.1653843552
 20
141.9068935991
 10
233.1628000392
 20
141.8901730998
 10
233.160555147
 20
141.8726682636
 10
233.1586518816
 20
141.8543962696
 10
233.1570921109
 20
141.8353750495
 10
233.1558773656
 20
141.8156232704
 10
233.1550088379
 20
141.7951603164
 10
233.1544873801
 20
141.7740062696
 10
233.154313504
 20
141.75218189
 10
233.1544873801
 20
141.7297085958
 10
233.155008838
 20
141.7066084418
 10
233.1558773657
 20
141.6829040983
 10
233.157092111
 20
141.6586188281
 10
233.1586518817
 20
141.6337764645
 10
233.1605551471
 20
141.6084013873
 10
233.1628000394
 20
141.5825184991
 10
233.1653843554
 20
141.5561532011
 10
233.168305559
 20
141.5293313676
 10
233.1715607834
 20
141.5020793212
 10
233.1751468338
 20
141.4744238065
 10
233.1790601911
 20
141.4463919644
 10
233.1832970146
 20
141.4180113047
 10
233.1878531465
 20
141.3893096797
 10
233.1927241154
 20
141.3603152572
 10
233.1979051409
 20
141.3310564918
 10
233.2033911386
 20
141.3015620976
 10
233.2091767246
 20
141.271861019
 10
233.2152562211
 20
141.241982404
 10
233.2216236618
 20
141.2119555751
 10
233.2282727977
 20
141.1818100008
 10
233.2351971033
 20
141.1515752656
 10
233.2423897833
 20
141.1212810412
 10
233.2498437789
 20
141.0909570578
  0
LINE
  5
443
100
AcDbEntity
  8
RACCORDO
100
AcDbLine
 62
253
  6
CONTINUOUS
 10
238.008662824
 20
66.8736407873
 11
238.0916027496
 21
66.8736407873
  0
LWPOLYLINE
  5
444
100
AcDbEntity
  8
0
100
AcDbPolyline
 62
253
  6
CONTINUOUS
 90
4
 70
0
 10
238.008662824
 20
68.5819337509
 10
237.9775295774
 20
68.5852918235
 10
237.9391454025
 20
68.589829546
 10
237.9009030015
 20
68.5947512098
  0
LINE
  5
445
100
AcDbEntity
  8
0
100
AcDbLine
 62
7
  6
CONTINUOUS
 10
237.9009202709
 20
67.6288233267
 11
233.2498437789
 21
68.8750755167
  0
LINE
  5
446
100
AcDbEntity
  8
0
100
AcDbLine
 62
253
  6
CONTINUOUS
 10
237.9009030015
 20
68.5947537803
 11
233.2498437789
 21
69.841001343
  0
LWPOLYLINE
  5
447
100
AcDbEntity
  8
0
100
AcDbPolyline
 62
253
  6
CONTINUOUS
 90
46
 70
0
 10
237.9009202709
 20
67.6288233267
 10
237.8929785534
 20
67.6315292893
 10
237.8853346964
 20
67.6353107666
 10
237.8779972348
 20
67.6401635364
 10
237.8709743616
 20
67.64608218
 10
237.8642739184
 20
67.6530600889
 10
237.8579033868
 20
67.6610894716
 10
237.85186988
 20
67.6701613626
 10
237.8461801349
 20
67.6802656325
 10
237.8408405046
 20
67.6913909989
 10
237.8358569513
 20
67.7035250396
 10
237.8312350394
 20
67.7166542058
 10
237.8269799297
 20
67.7307638377
 10
237.8230963735
 20
67.7458381807
 10
237.819588707
 20
67.7618604032
 10
237.8164608468
 20
67.7788126149
 10
237.8137162854
 20
67.7966758873
 10
237.8113580874
 20
67.8154302746
 10
237.8093888859
 20
67.835054836
 10
237.8078108797
 20
67.855527659
 10
237.8066258307
 20
67.876825884
 10
237.8058350622
 20
67.8989257298
 10
237.805439457
 20
67.9218025201
 10
237.805439457
 20
67.945430711
 10
237.8058350622
 20
67.9697839197
 10
237.8066258307
 20
67.9948349539
 10
237.8078108797
 20
68.0205558419
 10
237.8093888859
 20
68.0469178643
 10
237.8113580874
 20
68.0738915857
 10
237.8137162854
 20
68.1014468878
 10
237.8164608468
 20
68.1295530026
 10
237.819588707
 20
68.1581785475
 10
237.8230963735
 20
68.1872915596
 10
237.8269799297
 20
68.2168595319
 10
237.8312350394
 20
68.2468494492
 10
237.8358569513
 20
68.2772278254
 10
237.8408405046
 20
68.3079607404
 10
237.8461801349
 20
68.3390138784
 10
237.85186988
 20
68.370352566
 10
237.8579033868
 20
68.401941811
 10
237.8642739184
 20
68.4337463414
 10
237.8709743616
 20
68.4657306447
 10
237.8779972348
 20
68.4978590079
 10
237.8853346964
 20
68.530095557
 10
237.8929785534
 20
68.5624042971
 10
237.9009202709
 20
68.594749153
  0
LINE
  5
448
100
AcDbEntity
  8
0
100
AcDbLine
 62
253
  6
CONTINUOUS
 10
233.2498437789
 20
69.841001343
 11
232.508662824
 21
69.841001343
  0
LINE
  5
449
100
AcDbEntity
  8
ASSI
100
AcDbLine
 62
7
  6
CONTINUOUS
 10
232.508662824
 20
75.4659792004
 11
232.008662824
 21
75.4659792004
  0
LINE
  5
44A
100
AcDbEntity
  8
RACCORDO
100
AcDbLine
 62
7
  6
CONTINUOUS
 10
238.1426374202
 20
145.748030008
 11
241.6614802088
 21
151.8428445018
  0
LINE
  5
44B
100
AcDbEntity
  8
RACCORDO
100
AcDbLine
 62
253
  6
CONTINUOUS
 10
238.0916027496
 20
144.0583176135
 11
241.8041379947
 21
149.7412337153
  0
LINE
  5
44C
100
AcDbEntity
  8
ASSI
100
AcDbLine
 62
7
  6
CONTINUOUS
 10
232.508662824
 20
81.4659792004
 11
232.008662824
 21
81.4659792004
  0
LINE
  5
44D
100
AcDbEntity
  8
RACCORDO
100
AcDbLine
 62
253
  6
CONTINUOUS
 10
241.8041379947
 20
61.1907246855
 11
238.0916027496
 21
66.8736407873
  0
LINE
  5
44E
100
AcDbEntity
  8
RACCORDO
100
AcDbLine
 62
7
  6
CONTINUOUS
 10
239.9390897518
 20
63.0410192132
 11
240.5671678928
 21
61.9901271019
  0
LINE
  5
44F
100
AcDbEntity
  8
RACCORDO
100
AcDbLine
 62
7
  6
CONTINUOUS
 10
240.6257168684
 20
61.231320325
 11
239.9950319671
 21
62.2985613206
  0
LINE
  5
450
100
AcDbEntity
  8
RACCORDO
100
AcDbLine
 62
7
  6
CONTINUOUS
 10
240.8385686267
 20
60.5589154112
 11
240.5639468883
 21
61.026689341
  0
LINE
  5
451
100
AcDbEntity
  8
RACCORDO
100
AcDbLine
 62
7
  6
CONTINUOUS
 10
240.5639468883
 20
61.026689341
 11
240.2143721964
 21
61.6229448245
  0
LINE
  5
452
100
AcDbEntity
  8
RACCORDO
100
AcDbLine
 62
7
  6
CONTINUOUS
 10
241.6614802088
 20
59.089113899
 11
238.1426374202
 21
65.1839283928
  0
LWPOLYLINE
  5
453
100
AcDbEntity
  8
RACCORDO
100
AcDbPolyline
 62
7
  6
CONTINUOUS
 90
20
 70
0
 10
240.6257168684
 20
61.231320325
 10
240.6365478967
 20
61.2125560502
 10
240.6475975389
 20
61.1920863313
 10
240.6588629688
 20
61.1700132052
 10
240.6703878138
 20
61.1464557278
 10
240.6821234722
 20
61.1215297607
 10
240.6939289876
 20
61.0953438347
 10
240.7058080838
 20
61.0680160705
 10
240.7177532023
 20
61.039710068
 10
240.7296069351
 20
61.0106151968
 10
240.7413816123
 20
60.9808513055
 10
240.7530631467
 20
60.9506289239
 10
240.7644561182
 20
60.9202892827
 10
240.7755415039
 20
60.8900459347
 10
240.7863406816
 20
60.8600333486
 10
240.7967205305
 20
60.8304730617
 10
240.8066657982
 20
60.8015669435
 10
240.8161963428
 20
60.7734218453
 10
240.8252319776
 20
60.7461093678
 10
240.8337474799
 20
60.7197477358
  0
LINE
  5
454
100
AcDbEntity
  8
RACCORDO
100
AcDbLine
 62
7
  6
CONTINUOUS
 10
240.0604448839
 20
63.7348081768
 11
240.6720101915
 21
62.6690067775
  0
LWPOLYLINE
  5
455
100
AcDbEntity
  8
RACCORDO
100
AcDbPolyline
 62
7
  6
CONTINUOUS
 90
22
 70
0
 10
239.9390897518
 20
63.0410192132
 10
239.9275934996
 20
63.0611587626
 10
239.9164997103
 20
63.0830514496
 10
239.905806309
 20
63.106524385
 10
239.895442647
 20
63.1314030068
 10
239.8854764488
 20
63.1575030047
 10
239.8761138788
 20
63.1846299333
 10
239.8673672487
 20
63.2126083004
 10
239.8592238072
 20
63.2412442987
 10
239.851853004
 20
63.2703124266
 10
239.8452813822
 20
63.2996166527
 10
239.8394846513
 20
63.3289970769
 10
239.8345567246
 20
63.3582878537
 10
239.8305184699
 20
63.3872428009
 10
239.827353161
 20
63.4157977344
 10
239.8250973211
 20
63.444066428
 10
239.8237476378
 20
63.4719605323
 10
239.8233097706
 20
63.4992767066
 10
239.8238323336
 20
63.5259483575
 10
239.8253324568
 20
63.5518541763
 10
239.8277962171
 20
63.5768251213
 10
239.8312256458
 20
63.6007208418
  0
LINE
  5
456
100
AcDbEntity
  8
RACCORDO
100
AcDbLine
 62
7
  6
CONTINUOUS
 10
240.2143721964
 20
61.6229448245
 11
240.2026903733
 21
61.6434808389
  0
LWPOLYLINE
  5
457
100
AcDbEntity
  8
RACCORDO
100
AcDbPolyline
 62
7
  6
CONTINUOUS
 90
4
 70
0
 10
240.2026903733
 20
61.6434808389
 10
240.1772290639
 20
61.6894088418
 10
240.1634440234
 20
61.7145732746
 10
240.149260834
 20
61.7410162647
  0
LWPOLYLINE
  5
458
100
AcDbEntity
  8
RACCORDO
100
AcDbPolyline
 62
7
  6
CONTINUOUS
 90
22
 70
0
 10
240.6720101915
 20
62.6690067775
 10
240.682369636
 20
62.6497289261
 10
240.6920773773
 20
62.6287995705
 10
240.7011312743
 20
62.6063591153
 10
240.7095420774
 20
62.5825894586
 10
240.7172958628
 20
62.5576103227
 10
240.7243533052
 20
62.5314601683
 10
240.7307111623
 20
62.5042543244
 10
240.7363697678
 20
62.4761725778
 10
240.7412947637
 20
62.4473401968
 10
240.7454769328
 20
62.4178558433
 10
240.7489239073
 20
62.3879436453
 10
240.7516277429
 20
62.3579257952
 10
240.7535708614
 20
62.3280268746
 10
240.7547732451
 20
62.2983600426
 10
240.7552845471
 20
62.2690799718
 10
240.7551096472
 20
62.2403948208
 10
240.7542475992
 20
62.2124030437
 10
240.7527388367
 20
62.1850975842
 10
240.7505977062
 20
62.1585832218
 10
240.7478133653
 20
62.133063171
 10
240.7443880616
 20
62.1086846969
  0
LWPOLYLINE
  5
459
100
AcDbEntity
  8
RACCORDO
100
AcDbPolyline
 62
7
  6
CONTINUOUS
 90
3
 70
0
 10
240.149260834
 20
61.7410162647
 10
240.1196351846
 20
61.7971947465
 10
240.1045806632
 20
61.8265295761
  0
LWPOLYLINE
  5
45A
100
AcDbEntity
  8
RACCORDO
100
AcDbPolyline
 62
253
  6
CONTINUOUS
 90
19
 70
0
 10
241.6614802088
 20
59.089113899
 10
241.6572275656
 20
59.097436555
 10
241.6540292433
 20
59.1059664482
 10
241.6519536035
 20
59.1147698107
 10
241.6510370065
 20
59.123983601
 10
241.6513917555
 20
59.1336080728
 10
241.6531971775
 20
59.1434998182
 10
241.6565292976
 20
59.1537171709
 10
241.6614626868
 20
59.1643299592
 10
241.6681632424
 20
59.1752010631
 10
241.6767082852
 20
59.1863839219
 10
241.6871737926
 20
59.197943919
 10
241.6997125995
 20
59.2097514615
 10
241.7144023814
 20
59.221854567
 10
241.7313207714
 20
59.234313501
 10
241.7506103481
 20
59.2470077614
 10
241.7723683038
 20
59.2599281252
 10
241.7966539803
 20
59.2731808789
 10
241.8235502868
 20
59.2868139293
  0
LWPOLYLINE
  5
45B
100
AcDbEntity
  8
RACCORDO
100
AcDbPolyline
 62
7
  6
CONTINUOUS
 90
12
 70
0
 10
240.1045806632
 20
61.8265295761
 10
240.0743048238
 20
61.8868512602
 10
240.0595308104
 20
61.9172477254
 10
240.0451855474
 20
61.9474575394
 10
240.0312284154
 20
61.9773475722
 10
240.0179614861
 20
62.0066745235
 10
240.0054362796
 20
62.035241864
 10
239.9936069069
 20
62.0629529926
 10
239.9826297866
 20
62.0897287163
 10
239.9725589184
 20
62.1154614858
 10
239.9633461556
 20
62.1400199991
 10
239.9549946312
 20
62.163301086
  0
LWPOLYLINE
  5
45C
100
AcDbEntity
  8
RACCORDO
100
AcDbPolyline
 62
253
  6
CONTINUOUS
 90
20
 70
0
 10
238.1426374202
 20
65.1839283928
 10
238.1326852838
 20
65.2043064445
 10
238.1235945475
 20
65.2293023088
 10
238.1153230526
 20
65.2587229576
 10
238.1077753524
 20
65.292464659
 10
238.1009398047
 20
65.3302562092
 10
238.0948796973
 20
65.3716565716
 10
238.0894871241
 20
65.4165447148
 10
238.0847049236
 20
65.4646895544
 10
238.0806415028
 20
65.5154875692
 10
238.0771889683
 20
65.5686560955
 10
238.0742256245
 20
65.6241518946
 10
238.0718481394
 20
65.6817592166
 10
238.0700060529
 20
65.7411602358
 10
238.0685624904
 20
65.8024290478
 10
238.067571171
 20
65.8659972939
 10
238.0670530808
 20
65.9317073574
 10
238.0669203448
 20
65.9995579759
 10
238.0671807099
 20
66.0702681565
 10
238.0679123284
 20
66.1435863283
  0
LWPOLYLINE
  5
45D
100
AcDbEntity
  8
RACCORDO
100
AcDbPolyline
 62
253
  6
CONTINUOUS
 90
19
 70
0
 10
241.8235496601
 20
151.6451446715
 10
241.8460311614
 20
151.7106980448
 10
241.8729153247
 20
151.7744952368
 10
241.9040723816
 20
151.8362283013
 10
241.9393519381
 20
151.8955992556
 10
241.9785837016
 20
151.9523215187
 10
242.0215783021
 20
152.0061212948
 10
242.0681282065
 20
152.0567388949
 10
242.1180087205
 20
152.1039299899
 10
242.1709790733
 20
152.1474667907
 10
242.2267835792
 20
152.1871391471
 10
242.2851528725
 20
152.2227555623
 10
242.3458052072
 20
152.2541441175
 10
242.4084478172
 20
152.2811533016
 10
242.4727783294
 20
152.3036527424
 10
242.5384862233
 20
152.3215338363
 10
242.60525433
 20
152.3347102718
 10
242.6727603628
 20
152.343118447
 10
242.7406784731
 20
152.3467177759
  0
LWPOLYLINE
  5
45E
100
AcDbEntity
  8
RACCORDO
100
AcDbPolyline
 62
253
  6
CONTINUOUS
 90
19
 70
0
 10
241.82355036
 20
59.2868139527
 10
241.8460319156
 20
59.2212609017
 10
241.8729161213
 20
59.1574640381
 10
241.9040732085
 20
59.0957313058
 10
241.9393527835
 20
59.0363606857
 10
241.9785845536
 20
58.9796387565
 10
242.0215791493
 20
58.9258393119
 10
242.0681290377
 20
58.8752220392
 10
242.1180095251
 20
58.8280312652
 10
242.170979841
 20
58.7844947772
 10
242.2267843005
 20
58.7448227236
 10
242.2851535383
 20
58.7092065994
 10
242.3458058092
 20
58.6778183217
 10
242.408448348
 20
58.6508094
 10
242.4727787824
 20
58.628310205
 10
242.5384865927
 20
58.6104293392
 10
242.6052546109
 20
58.5972531124
 10
242.6727605513
 20
58.5888451257
 10
242.7406785662
 20
58.585245964
  0
LWPOLYLINE
  5
45F
100
AcDbEntity
  8
RACCORDO
100
AcDbPolyline
 62
7
  6
CONTINUOUS
 90
14
 70
0
 10
240.8593915628
 20
60.6382967274
 10
240.8668137115
 20
60.6148832458
 10
240.87349073
 20
60.5930846349
 10
240.879420603
 20
60.5730035933
 10
240.8846234846
 20
60.5547617245
 10
240.8890763544
 20
60.5383979169
 10
240.892712131
 20
60.5239013546
 10
240.8955372552
 20
60.5113414667
 10
240.8975423586
 20
60.500809411
 10
240.898635997
 20
60.4923514278
 10
240.8988013811
 20
60.4860160455
 10
240.898053425
 20
60.4818760379
 10
240.8963492982
 20
60.479971912
 10
240.8955732869
 20
60.47983262
  0
LINE
  5
460
100
AcDbEntity
  8
RACCORDO
100
AcDbLine
 62
7
  6
CONTINUOUS
 10
240.8337474799
 20
60.7197477358
 11
240.8493113322
 21
60.6704777073
  0
LWPOLYLINE
  5
461
100
AcDbEntity
  8
RACCORDO
100
AcDbPolyline
 62
7
  6
CONTINUOUS
 90
14
 70
0
 10
239.9356606073
 20
62.2211402735
 10
239.9284990755
 20
62.2441192948
 10
239.9224020037
 20
62.265557863
 10
239.9173675386
 20
62.2853620901
 10
239.9133997876
 20
62.3034012921
 10
239.9104920444
 20
62.3196608686
 10
239.9086255065
 20
62.3341945336
 10
239.907792834
 20
62.3469218669
 10
239.9079975885
 20
62.3577345223
 10
239.9092358327
 20
62.366587391
 10
239.9115326315
 20
62.373398805
 10
239.9148590269
 20
62.3780519054
 10
239.9191304545
 20
62.3804640613
 10
239.9222187524
 20
62.3808173731
  0
LINE
  5
462
100
AcDbEntity
  8
ASSI
100
AcDbLine
 62
7
  6
CONTINUOUS
 10
232.008662824
 20
75.465981623
 11
232.008662824
 21
81.4659767778
  0
LINE
  5
463
100
AcDbEntity
  8
ASSI
100
AcDbLine
 62
7
  6
CONTINUOUS
 10
232.008662824
 20
99.965981623
 11
232.008662824
 21
110.9659767778
  0
LINE
  5
464
100
AcDbEntity
  8
ASSI
100
AcDbLine
 62
7
  6
CONTINUOUS
 10
232.008662824
 20
129.465981623
 11
232.008662824
 21
135.4659767778
  0
LINE
  5
465
100
AcDbEntity
  8
0
100
AcDbLine
 62
7
  6
CONTINUOUS
 10
232.508662824
 20
69.841001343
 11
232.508662824
 21
141.0909570578
  0
LINE
  5
466
100
AcDbEntity
  8
0
100
AcDbLine
 62
253
  6
CONTINUOUS
 10
232.5543507654
 20
105.9501253214
 11
232.5543507654
 21
99.4814675757
  0
LINE
  5
467
100
AcDbEntity
  8
0
100
AcDbLine
 62
253
  6
CONTINUOUS
 10
233.2498437789
 20
141.0909570578
 11
233.2498437789
 21
69.841001343
  0
LWPOLYLINE
  5
468
100
AcDbEntity
  8
0
100
AcDbPolyline
 62
7
  6
CONTINUOUS
 90
12
 70
0
 10
232.540644383
 20
105.8753364796
 10
232.5405879155
 20
99.4678572671
 10
232.540356871
 20
99.4507268043
 10
232.5399447514
 20
99.4334279914
 10
232.539350012
 20
99.4159549229
 10
232.5385708868
 20
99.3982721677
 10
232.5376094287
 20
99.3803918075
 10
232.5364699186
 20
99.3623242715
 10
232.5351549592
 20
99.3440239902
 10
232.5336736121
 20
99.3255049897
 10
232.5320379968
 20
99.3067833338
 10
232.5302569331
 20
99.2878028532
  0
LWPOLYLINE
  5
469
100
AcDbEntity
  8
0
100
AcDbPolyline
 62
253
  6
CONTINUOUS
 90
16
 70
0
 10
232.5543507654
 20
99.4814675757
 10
232.5542739988
 20
99.4663235143
 10
232.5540169109
 20
99.4510597978
 10
232.5535809966
 20
99.4356764262
 10
232.552973306
 20
99.4201656653
 10
232.5521928549
 20
99.4045352492
 10
232.5512310194
 20
99.3888083806
 10
232.5500937684
 20
99.372981444
 10
232.5487887851
 20
99.3570580548
 10
232.5473127956
 20
99.3410722616
 10
232.5456759568
 20
99.3250202656
 10
232.543890913
 20
99.3089058655
 10
232.5419615715
 20
99.2927745061
 10
232.5399034717
 20
99.2766243806
 10
232.5377344784
 20
99.2604572956
 10
232.5354660168
 20
99.2443241165
  0
LWPOLYLINE
  5
46A
100
AcDbEntity
  8
0
100
AcDbPolyline
 62
7
  6
CONTINUOUS
 90
8
 70
0
 10
232.540644384
 20
105.8752713754
 10
232.5409204834
 20
105.8856845989
 10
232.5417634506
 20
105.8963314141
 10
232.5431692513
 20
105.9070348481
 10
232.545135264
 20
105.9177685871
 10
232.547658237
 20
105.9285238601
 10
232.5507321951
 20
105.9393094382
 10
232.5543507654
 20
105.9501253214
  0
LWPOLYLINE
  5
46B
100
AcDbEntity
  8
0
100
AcDbPolyline
 62
7
  6
CONTINUOUS
 90
9
 70
0
 10
232.517914737
 20
99.1698875229
 10
232.5159502923
 20
99.1502210202
 10
232.514130584
 20
99.1306834801
 10
232.5125135994
 20
99.1114667533
 10
232.5111330294
 20
99.0925289065
 10
232.5100256253
 20
99.07386873
 10
232.5092338271
 20
99.0556955076
 10
232.5087778807
 20
99.0380486721
 10
232.5086631761
 20
99.0242507778
  0
LINE
  5
46C
100
AcDbEntity
  8
0
100
AcDbLine
 62
7
  6
CONTINUOUS
 10
232.5302569331
 20
99.2878028532
 11
232.52632651
 21
99.2490319763
  0
LINE
  5
46D
100
AcDbEntity
  8
0
100
AcDbLine
 62
7
  6
CONTINUOUS
 10
232.52632651
 20
99.2490319763
 11
232.517914737
 21
99.1698875229
  0
LWPOLYLINE
  5
46E
100
AcDbEntity
  8
0
100
AcDbPolyline
 62
253
  6
CONTINUOUS
 90
9
 70
0
 10
232.5187746451
 20
99.1333234682
 10
232.5166349357
 20
99.1180961567
 10
232.5146816071
 20
99.103260722
 10
232.5129425945
 20
99.0888251521
 10
232.5114532619
 20
99.0747814591
 10
232.5102601736
 20
99.0612850064
 10
232.5093866913
 20
99.0483875817
 10
232.5088472984
 20
99.0360373974
 10
232.508662824
 20
99.0242344533
  0
LINE
  5
46F
100
AcDbEntity
  8
0
100
AcDbLine
 62
253
  6
CONTINUOUS
 10
232.5354660168
 20
99.2443241165
 11
232.530720659
 21
99.212161939
  0
LINE
  5
470
100
AcDbEntity
  8
0
100
AcDbLine
 62
253
  6
CONTINUOUS
 10
232.5234092991
 20
99.1643997875
 11
232.5187746451
 21
99.1333234682
  0
LINE
  5
471
100
AcDbEntity
  8
0
100
AcDbLine
 62
253
  6
CONTINUOUS
 10
232.530720659
 20
99.212161939
 11
232.5234092991
 21
99.1643997875
  0
LWPOLYLINE
  5
472
100
AcDbEntity
  8
RACCORDO
100
AcDbPolyline
 62
253
  6
CONTINUOUS
 90
10
 70
0
 10
241.8486200802
 20
60.1502912599
 10
241.8357438638
 20
60.2701525829
 10
241.8249214232
 20
60.3889861496
 10
241.8161232064
 20
60.5067696665
 10
241.8093233202
 20
60.6234646772
 10
241.8044887638
 20
60.7390674749
 10
241.801581044
 20
60.8536088788
 10
241.8005697749
 20
60.9670863746
 10
241.8014310903
 20
61.079464315
 10
241.8041379947
 20
61.1907246855
  0
LINE
  5
473
100
AcDbEntity
  8
0
100
AcDbLine
 62
253
  6
CONTINUOUS
 10
237.9009030015
 20
68.5947537803
 11
237.9009029944
 21
142.3372046186
  0
LINE
  5
474
100
AcDbEntity
  8
RACCORDO
100
AcDbLine
 62
7
  6
CONTINUOUS
 10
238.008662824
 20
65.6839283928
 11
238.008662824
 21
145.248030008
  0
LINE
  5
475
100
AcDbEntity
  8
RACCORDO
100
AcDbLine
 62
253
  6
CONTINUOUS
 10
238.0916027496
 20
66.8736407873
 11
238.0916027496
 21
144.0583176135
  0
LWPOLYLINE
  5
476
100
AcDbEntity
  8
RACCORDO
100
AcDbPolyline
 62
253
  6
CONTINUOUS
 90
31
 70
0
 10
241.8357436928
 20
150.6618038163
 10
241.8532539825
 20
150.8236780071
 10
241.8574604304
 20
150.8655732288
 10
241.8612576486
 20
150.9073434695
 10
241.8646719375
 20
150.9490950398
 10
241.8677162607
 20
150.9907009184
 10
241.870383006
 20
151.0318020378
 10
241.8726792895
 20
151.0723724846
 10
241.8746245551
 20
151.1124169919
 10
241.876216892
 20
151.151624646
 10
241.8774589567
 20
151.1899780751
 10
241.8783619731
 20
151.2274749927
 10
241.8789237157
 20
151.2638304678
 10
241.8791401909
 20
151.2990315223
 10
241.8790155688
 20
151.3330750986
 10
241.8785463387
 20
151.3656956619
 10
241.8777212835
 20
151.3968787346
 10
241.8765376958
 20
151.426628395
 10
241.8749915839
 20
151.4547123964
 10
241.8730654689
 20
151.4811190816
 10
241.8707502692
 20
151.5058566285
 10
241.8680425077
 20
151.5287285198
 10
241.8649192891
 20
151.5497262165
 10
241.8613668378
 20
151.5688622488
 10
241.8573849557
 20
151.5859778208
 10
241.8529457229
 20
151.6010675558
 10
241.8480336478
 20
151.6141480482
 10
241.8426586613
 20
151.6250994533
 10
241.8368066126
 20
151.633888978
 10
241.8304442837
 20
151.6405676995
 10
241.8235502868
 20
151.6451444715
  0
LWPOLYLINE
  5
477
100
AcDbEntity
  8
RACCORDO
100
AcDbPolyline
 62
253
  6
CONTINUOUS
 90
10
 70
0
 10
242.7702757159
 20
60.2844650849
 10
242.7560670033
 20
60.3894169848
 10
242.7435831545
 20
60.4933076726
 10
242.7328241694
 20
60.5961371481
 10
242.7238177049
 20
60.6979092581
 10
242.7165361042
 20
60.7986201558
 10
242.7108963966
 20
60.8982583014
 10
242.7068709254
 20
60.9968198482
 10
242.7044873474
 20
61.0943086429
 10
242.7037456627
 20
61.1907246855
  0
LWPOLYLINE
  5
478
100
AcDbEntity
  8
RACCORDO
100
AcDbPolyline
 62
253
  6
CONTINUOUS
 90
4
 70
0
 10
238.0916027496
 20
144.0583176135
 10
238.0864255817
 20
144.1654987444
 10
238.0820783102
 20
144.2681167082
 10
238.078444986
 20
144.3660751335
  0
LWPOLYLINE
  5
479
100
AcDbEntity
  8
RACCORDO
100
AcDbPolyline
 62
253
  6
CONTINUOUS
 90
5
 70
0
 10
242.7846264192
 20
59.9310147677
 10
242.7816038315
 20
60.0185596832
 10
242.7782046244
 20
60.1068075828
 10
242.7744299104
 20
60.1955236313
 10
242.7702757159
 20
60.2844650849
  0
LWPOLYLINE
  5
47A
100
AcDbEntity
  8
RACCORDO
100
AcDbPolyline
 62
253
  6
CONTINUOUS
 90
3
 70
0
 10
238.078444986
 20
144.3660751335
 10
238.0727024125
 20
144.5469947582
 10
238.0706260997
 20
144.6311735251
  0
LINE
  5
47B
100
AcDbEntity
  8
RACCORDO
100
AcDbLine
 62
253
  6
CONTINUOUS
 10
242.7895845173
 20
59.7590346963
 11
242.7846264192
 21
59.9310147677
  0
LWPOLYLINE
  5
47C
100
AcDbEntity
  8
RACCORDO
100
AcDbPolyline
 62
253
  6
CONTINUOUS
 90
21
 70
0
 10
238.0706260997
 20
144.6311735251
 10
238.0679167542
 20
144.7875068505
 10
238.0671826299
 20
144.8609346651
 10
238.0669187386
 20
144.9317175695
 10
238.0670485988
 20
144.9996318427
 10
238.0675648572
 20
145.0653911992
 10
238.0685543229
 20
145.1289888548
 10
238.0699947312
 20
145.1902735687
 10
238.0718327689
 20
145.249689511
 10
238.074206042
 20
145.3073091097
 10
238.077163715
 20
145.3628166376
 10
238.0806093418
 20
145.4160130797
 10
238.0846678667
 20
145.4668636211
 10
238.0894484268
 20
145.5150743861
 10
238.0948408052
 20
145.560028417
 10
238.1009020527
 20
145.6014920396
 10
238.1077419362
 20
145.6393449429
 10
238.1152961414
 20
145.6731389943
 10
238.1235753108
 20
145.7026009123
 10
238.132675118
 20
145.7276289608
 10
238.1426374202
 20
145.748030008
  0
LWPOLYLINE
  5
47D
100
AcDbEntity
  8
RACCORDO
100
AcDbPolyline
 62
253
  6
CONTINUOUS
 90
3
 70
0
 10
238.0679123284
 20
66.1435863283
 10
238.0706069505
 20
66.2997624465
 10
238.0726764985
 20
66.3840387192
  0
LWPOLYLINE
  5
47E
100
AcDbEntity
  8
RACCORDO
100
AcDbPolyline
 62
253
  6
CONTINUOUS
 90
5
 70
0
 10
238.0726764985
 20
66.3840387192
 10
238.0784246103
 20
66.5653289631
 10
238.0820620519
 20
66.6634632162
 10
238.0864160609
 20
66.7662661236
 10
238.0916027496
 20
66.8736407873
  0
LWPOLYLINE
  5
47F
100
AcDbEntity
  8
RACCORDO
100
AcDbPolyline
 62
253
  6
CONTINUOUS
 90
6
 70
0
 10
242.7702757159
 20
150.647493316
 10
242.7744286336
 20
150.7363940507
 10
242.7782024005
 20
150.8250781639
 10
242.7816010107
 20
150.9133030705
 10
242.7846234767
 20
151.0008353236
 10
242.7895822522
 20
151.1728122224
  0
LINE
  5
480
100
AcDbEntity
  8
0
100
AcDbLine
 62
253
  6
CONTINUOUS
 10
232.5543507654
 20
99.4814675757
 11
232.540644383
 21
99.4814675794
  0
LINE
  5
481
100
AcDbEntity
  8
ASSI
100
AcDbLine
 62
7
  6
CONTINUOUS
 10
232.508662824
 20
99.9659792004
 11
232.008662824
 21
99.9659792004
  0
LWPOLYLINE
  5
482
100
AcDbEntity
  8
RACCORDO
100
AcDbPolyline
 62
253
  6
CONTINUOUS
 90
9
 70
0
 10
241.8041379947
 20
149.7412337153
 10
241.8014311272
 20
149.8524892404
 10
241.8005697325
 20
149.9648638971
 10
241.8015808648
 20
150.0783396758
 10
241.8044884657
 20
150.192881407
 10
241.8093229804
 20
150.3084861027
 10
241.8161228828
 20
150.425183158
 10
241.8249211466
 20
150.5429683904
 10
241.8357436928
 20
150.6618038163
  0
LINE
  5
483
100
AcDbEntity
  8
RACCORDO
100
AcDbLine
 62
253
  6
CONTINUOUS
 10
242.7931554391
 20
59.5928315097
 11
242.7895845173
 21
59.7590346963
  0
LINE
  5
484
100
AcDbEntity
  8
RACCORDO
100
AcDbLine
 62
253
  6
CONTINUOUS
 10
242.7953841188
 20
59.4342396681
 11
242.7931554391
 21
59.5928315097
  0
LWPOLYLINE
  5
485
100
AcDbEntity
  8
RACCORDO
100
AcDbPolyline
 62
253
  6
CONTINUOUS
 90
19
 70
0
 10
242.7962957959
 20
151.6469013617
 10
242.7962647314
 20
151.7175224814
 10
242.7959080289
 20
151.7852069515
 10
242.7952178286
 20
151.8497645336
 10
242.7941969736
 20
151.9110178365
 10
242.7928425989
 20
151.9687999505
 10
242.7911377778
 20
152.0229508518
 10
242.7890837285
 20
152.0733216476
 10
242.7866773056
 20
152.1197761055
 10
242.7838945737
 20
152.162188614
 10
242.7807338355
 20
152.200443325
 10
242.777193059
 20
152.234435254
 10
242.7732473764
 20
152.2640714595
 10
242.7688934626
 20
152.289269337
 10
242.7641291708
 20
152.3099614078
 10
242.7589310393
 20
152.3260929236
 10
242.7532889429
 20
152.337617426
 10
242.7472060429
 20
152.3444995945
 10
242.7406784731
 20
152.3467177759
  0
LINE
  5
486
100
AcDbEntity
  8
RACCORDO
100
AcDbLine
 62
253
  6
CONTINUOUS
 10
241.8041379947
 20
61.1907246855
 11
241.8041379947
 21
149.7412337153
  0
LINE
  5
487
100
AcDbEntity
  8
RACCORDO
100
AcDbLine
 62
253
  6
CONTINUOUS
 10
242.7037456627
 20
61.1907246855
 11
242.7037456627
 21
149.7412337153
  0
LWPOLYLINE
  5
488
100
AcDbEntity
  8
RACCORDO
100
AcDbPolyline
 62
253
  6
CONTINUOUS
 90
10
 70
0
 10
242.7037456627
 20
149.7412337153
 10
242.7044872229
 20
149.8376464429
 10
242.7068706697
 20
149.9351326109
 10
242.710896003
 20
150.0336922192
 10
242.7165355158
 20
150.1333289273
 10
242.7238169151
 20
150.2340390757
 10
242.7328233226
 20
150.3358116866
 10
242.7435824455
 20
150.4386431006
 10
242.7560665766
 20
150.5425369771
 10
242.7702757159
 20
150.647493316
  0
LINE
  5
489
100
AcDbEntity
  8
RACCORDO
100
AcDbLine
 62
253
  6
CONTINUOUS
 10
242.7953839317
 20
151.4976393388
 11
242.7962957959
 21
151.6469013617
  0
LINE
  5
48A
100
AcDbEntity
  8
RACCORDO
100
AcDbLine
 62
253
  6
CONTINUOUS
 10
242.7931543263
 20
151.339029577
 11
242.7953839317
 21
151.4976393388
  0
LINE
  5
48B
100
AcDbEntity
  8
RACCORDO
100
AcDbLine
 62
253
  6
CONTINUOUS
 10
242.7895822522
 20
151.1728122224
 11
242.7931543263
 21
151.339029577
  0
LWPOLYLINE
  5
48C
100
AcDbEntity
  8
0
100
AcDbPolyline
 62
253
  6
CONTINUOUS
 90
49
 70
0
 10
233.2498437789
 20
69.841001343
 10
233.2423897833
 20
69.8106773596
 10
233.2351971033
 20
69.7803831352
 10
233.2282727977
 20
69.7501484
 10
233.2216236618
 20
69.7200028257
 10
233.2152562211
 20
69.6899759968
 10
233.2091767246
 20
69.6600973818
 10
233.2033911386
 20
69.6303963032
 10
233.1979051409
 20
69.600901909
 10
233.1927241154
 20
69.5716431437
 10
233.1878531465
 20
69.5426487211
 10
233.1832970146
 20
69.5139470961
 10
233.1790601911
 20
69.4855664364
 10
233.1751468338
 20
69.4575345943
 10
233.1715607834
 20
69.4298790796
 10
233.168305559
 20
69.4026270332
 10
233.1653843554
 20
69.3758051997
 10
233.1628000394
 20
69.3494399017
 10
233.1605551471
 20
69.3235570135
 10
233.1586518817
 20
69.2981819363
 10
233.157092111
 20
69.2733395727
 10
233.1558773657
 20
69.2490543025
 10
233.155008838
 20
69.225349959
 10
233.1544873801
 20
69.202249805
 10
233.154313504
 20
69.1797765108
 10
233.1544873801
 20
69.1579521313
 10
233.1550088379
 20
69.1367980844
 10
233.1558773656
 20
69.1163351304
 10
233.1570921109
 20
69.0965833513
 10
233.1586518816
 20
69.0775621312
 10
233.160555147
 20
69.0592901372
 10
233.1628000392
 20
69.041785301
 10
233.1653843552
 20
69.0250648017
 10
233.1683055588
 20
69.0091450484
 10
233.1715607831
 20
68.9940416645
 10
233.1751468335
 20
68.9797694722
 10
233.1790601908
 20
68.9663424781
 10
233.1832970143
 20
68.953773859
 10
233.1878531462
 20
68.9420759498
 10
233.1927241151
 20
68.9312602305
 10
233.1979051406
 20
68.9213373156
 10
233.2033911383
 20
68.9123169432
 10
233.2091767243
 20
68.9042079653
 10
233.2152562208
 20
68.8970183401
 10
233.2216236615
 20
68.8907551234
 10
233.2282727974
 20
68.8854244619
 10
233.2351971031
 20
68.881031587
 10
233.2423897832
 20
68.8775808098
 10
233.2498437789
 20
68.8750755167
  0
LINE
  5
48D
100
AcDbEntity
  8
ASSI
100
AcDbLine
 62
253
  6
CONTINUOUS
 10
232.508662824
 20
102.9659792004
 11
232.008662824
 21
102.9659792004
  0
LINE
  5
48E
100
AcDbEntity
  8
RACCORDO
100
AcDbLine
 62
253
  6
CONTINUOUS
 10
257.108662824
 20
105.4659792004
 11
255.194745997
 21
105.4659792123
  0
LINE
  5
48F
100
AcDbEntity
  8
0
100
AcDbLine
 62
253
  6
CONTINUOUS
 10
232.508662824
 20
105.951242142
 11
232.5543507654
 21
105.9501253214
  0
LINE
  5
490
100
AcDbEntity
  8
RACCORDO
100
AcDbLine
 62
7
  6
CONTINUOUS
 10
245.208662824
 20
152.389796603
 11
245.208662824
 21
58.5421617978
  0
LINE
  5
491
100
AcDbEntity
  8
RACCORDO
100
AcDbLine
 62
7
  6
CONTINUOUS
 10
245.708662824
 20
58.5159792004
 11
245.708662824
 21
152.4159792004
  0
LWPOLYLINE
  5
492
100
AcDbEntity
  8
RACCORDO
100
AcDbPolyline
 62
7
  6
CONTINUOUS
 90
14
 70
0
 10
240.7390458548
 20
62.0732008066
 10
240.7353422615
 20
62.0504552989
 10
240.7311035519
 20
62.0290546193
 10
240.7263270519
 20
62.009121857
 10
240.7209997246
 20
61.9907899194
 10
240.7151299592
 20
61.9741476667
 10
240.7087471226
 20
61.9592565003
 10
240.7018414422
 20
61.9462137831
 10
240.6944183643
 20
61.9351350845
 10
240.6865300107
 20
61.9261126907
 10
240.6781505131
 20
61.9192179688
 10
240.6693028797
 20
61.9145402676
 10
240.660113866
 20
61.9121473008
 10
240.6559494695
 20
61.9118210635
  0
LINE
  5
493
100
AcDbEntity
  8
ASSI
100
AcDbLine
 62
253
  6
CONTINUOUS
 10
232.508662824
 20
107.9659792004
 11
232.008662824
 21
107.9659792004
  0
LWPOLYLINE
  5
494
100
AcDbEntity
  8
RACCORDO
100
AcDbPolyline
 62
253
  6
CONTINUOUS
 90
5
 70
0
 10
256.9463000298
 20
152.4443641758
 10
256.9460465235
 20
152.4422571206
 10
256.945804376
 20
152.4360993494
 10
256.9455735913
 20
152.4258908621
 10
256.9451450155
 20
152.393223175
  0
LWPOLYLINE
  5
495
100
AcDbEntity
  8
RACCORDO
100
AcDbPolyline
 62
7
  6
CONTINUOUS
 90
14
 70
0
 10
239.8420691064
 20
63.6612738331
 10
239.8468047171
 20
63.6830659726
 10
239.8523911211
 20
63.703658055
 10
239.8588253844
 20
63.722920206
 10
239.8661347888
 20
63.7407097903
 10
239.8742866424
 20
63.7569235432
 10
239.8831878938
 20
63.7714832846
 10
239.892866366
 20
63.7842731631
 10
239.9032888856
 20
63.7951590421
 10
239.9142708337
 20
63.8040310062
 10
239.9258556754
 20
63.810793839
 10
239.9379958838
 20
63.8153351356
 10
239.9503716951
 20
63.8175708497
 10
239.9577164382
 20
63.8177954825
  0
LINE
  5
496
100
AcDbEntity
  8
ASSI
100
AcDbLine
 62
7
  6
CONTINUOUS
 10
232.508662824
 20
110.9659792004
 11
232.008662824
 21
110.9659792004
  0
LWPOLYLINE
  5
497
100
AcDbEntity
  8
RACCORDO
100
AcDbPolyline
 62
7
  6
CONTINUOUS
 90
4
 70
0
 10
255.1449836495
 20
57.9659791927
 10
255.144647621
 20
57.9686730445
 10
255.1443258946
 20
57.9768150944
 10
255.1440184728
 20
57.9904053425
  0
LINE
  5
498
100
AcDbEntity
  8
RACCORDO
100
AcDbLine
 62
7
  6
CONTINUOUS
 10
255.1440184728
 20
57.9904053425
 11
255.1434441949
 21
58.0341089684
  0
LINE
  5
499
100
AcDbEntity
  8
RACCORDO
100
AcDbLine
 62
7
  6
CONTINUOUS
 10
255.1434441949
 20
58.0341089684
 11
255.1425056735
 21
58.1839487714
  0
LWPOLYLINE
  5
49A
100
AcDbEntity
  8
RACCORDO
100
AcDbPolyline
 62
7
  6
CONTINUOUS
 90
10
 70
0
 10
255.1429837444
 20
150.9663981437
 10
255.1538473923
 20
145.9108033056
 10
255.1634329688
 20
140.8552059132
 10
255.171740474
 20
135.7996062896
 10
255.1787699082
 20
130.744004779
 10
255.184521271
 20
125.6884016835
 10
255.1889945613
 20
120.6327972623
 10
255.192189779
 20
115.5771918174
 10
255.1941069242
 20
110.521585693
 10
255.194745997
 20
105.4659792123
  0
LINE
  5
49B
100
AcDbEntity
  8
RACCORDO
100
AcDbLine
 62
7
  6
CONTINUOUS
 10
255.1425056735
 20
58.1839487714
 11
255.1417703354
 21
58.4791491411
  0
LINE
  5
49C
100
AcDbEntity
  8
RACCORDO
100
AcDbLine
 62
7
  6
CONTINUOUS
 10
255.1429837444
 20
150.9663981437
 11
255.1418981549
 21
151.5844389626
  0
LINE
  5
49D
100
AcDbEntity
  8
RACCORDO
100
AcDbLine
 62
7
  6
CONTINUOUS
 10
255.1418981549
 20
151.5844389626
 11
255.1415600278
 21
152.1403353553
  0
LWPOLYLINE
  5
49E
100
AcDbEntity
  8
RACCORDO
100
AcDbPolyline
 62
7
  6
CONTINUOUS
 90
10
 70
0
 10
255.194745997
 20
105.4659792123
 10
255.1941069242
 20
100.4103727289
 10
255.192189779
 20
95.3547666019
 10
255.1889945614
 20
90.2991611543
 10
255.184521271
 20
85.2435567305
 10
255.1787699082
 20
80.1879536323
 10
255.171740474
 20
75.1323521192
 10
255.1634329688
 20
70.0767524929
 10
255.1538473923
 20
65.0211550979
 10
255.1429837444
 20
59.9655602571
  0
LINE
  5
49F
100
AcDbEntity
  8
RACCORDO
100
AcDbLine
 62
7
  6
CONTINUOUS
 10
255.1417703354
 20
58.4791491411
 11
255.1415861836
 21
58.9660828161
  0
LINE
  5
4A0
100
AcDbEntity
  8
RACCORDO
100
AcDbLine
 62
7
  6
CONTINUOUS
 10
255.1415600278
 20
152.1403353553
 11
255.1418774636
 21
152.5212439141
  0
LINE
  5
4A1
100
AcDbEntity
  8
RACCORDO
100
AcDbLine
 62
7
  6
CONTINUOUS
 10
255.1415861836
 20
58.9660828161
 11
255.1421826588
 21
59.5507614737
  0
LINE
  5
4A2
100
AcDbEntity
  8
RACCORDO
100
AcDbLine
 62
7
  6
CONTINUOUS
 10
255.1421826588
 20
59.5507614737
 11
255.1429837444
 21
59.9655602571
  0
LINE
  5
4A3
100
AcDbEntity
  8
RACCORDO
100
AcDbLine
 62
7
  6
CONTINUOUS
 10
255.1418774636
 20
152.5212439141
 11
255.1427118834
 21
152.7928703839
  0
LINE
  5
4A4
100
AcDbEntity
  8
RACCORDO
100
AcDbLine
 62
7
  6
CONTINUOUS
 10
255.1427118834
 20
152.7928703839
 11
255.1434440453
 21
152.897833566
  0
LWPOLYLINE
  5
4A5
100
AcDbEntity
  8
RACCORDO
100
AcDbPolyline
 62
7
  6
CONTINUOUS
 90
5
 70
0
 10
255.1434440453
 20
152.897833566
 10
255.144018444
 20
152.9415514962
 10
255.144325892
 20
152.9551448994
 10
255.144647628
 20
152.96328747
 10
255.1449836495
 20
152.9659792081
  0
LWPOLYLINE
  5
4A6
100
AcDbEntity
  8
RACCORDO
100
AcDbPolyline
 62
253
  6
CONTINUOUS
 90
4
 70
0
 10
256.9455735731
 20
58.5060681556
 10
256.9458043614
 20
58.4958595835
 10
256.946046515
 20
58.4897016066
 10
256.9463000298
 20
58.487594225
  0
LINE
  5
4A7
100
AcDbEntity
  8
RACCORDO
100
AcDbLine
 62
253
  6
CONTINUOUS
 10
256.9451449996
 20
58.5387354754
 11
256.9455735731
 21
58.5060681556
  0
LINE
  5
4A8
100
AcDbEntity
  8
0
100
AcDbLine
 62
7
  6
CONTINUOUS
 10
257.1677826385
 20
145.6830182004
 11
257.1675758562
 21
145.7216203686
  0
LINE
  5
4A9
100
AcDbEntity
  8
RACCORDO
100
AcDbLine
 62
253
  6
CONTINUOUS
 10
256.9444423061
 20
58.6510538304
 11
256.9451449996
 21
58.5387354754
  0
LINE
  5
4AA
100
AcDbEntity
  8
RACCORDO
100
AcDbLine
 62
253
  6
CONTINUOUS
 10
256.4555610681
 20
152.9184565369
 11
256.4559478835
 21
152.8452006488
  0
LWPOLYLINE
  5
4AB
100
AcDbEntity
  8
RACCORDO
100
AcDbPolyline
 62
253
  6
CONTINUOUS
 90
3
 70
0
 10
256.4535304617
 20
59.9884346676
 10
256.4537973054
 20
59.8837294479
 10
256.4540601414
 20
59.7793315014
  0
LINE
  5
4AC
100
AcDbEntity
  8
RACCORDO
100
AcDbLine
 62
253
  6
CONTINUOUS
 10
256.4540601414
 20
59.7793315014
 11
256.4547745048
 21
59.4708475052
  0
LWPOLYLINE
  5
4AD
100
AcDbEntity
  8
RACCORDO
100
AcDbPolyline
 62
253
  6
CONTINUOUS
 90
10
 70
0
 10
256.4535304617
 20
150.9435237332
 10
256.4643824743
 20
145.8904702237
 10
256.4739577841
 20
140.8374142943
 10
256.4822563913
 20
135.7843562677
 10
256.489278296
 20
130.7312965747
 10
256.4950234981
 20
125.6782354296
 10
256.4994919967
 20
120.6251728307
 10
256.5026837916
 20
115.5721089923
 10
256.5045988831
 20
110.5190443453
 10
256.5052372711
 20
105.4659792123
  0
LWPOLYLINE
  5
4AE
100
AcDbEntity
  8
RACCORDO
100
AcDbPolyline
 62
253
  6
CONTINUOUS
 90
10
 70
0
 10
256.944800162
 20
150.9446408529
 10
256.9556524451
 20
145.8914632192
 10
256.9652279946
 20
140.8382831657
 10
256.9735268097
 20
135.785101015
 10
256.98054889
 20
130.7319171978
 10
256.9862942354
 20
125.6787319286
 10
256.9907628459
 20
120.6255452052
 10
256.9939547211
 20
115.5723572423
 10
256.9958698606
 20
110.5191684704
 10
256.996508264
 20
105.4659792122
  0
LINE
  5
4AF
100
AcDbEntity
  8
0
100
AcDbLine
 62
7
  6
CONTINUOUS
 10
257.0534885312
 20
152.4443642904
 11
257.0611437538
 21
149.0636918687
  0
LINE
  5
4B0
100
AcDbEntity
  8
0
100
AcDbLine
 62
7
  6
CONTINUOUS
 10
257.0671800157
 20
145.6830182004
 11
257.073854055
 21
142.3834152004
  0
LINE
  5
4B1
100
AcDbEntity
  8
0
100
AcDbLine
 62
7
  6
CONTINUOUS
 10
257.0611437538
 20
149.0636918687
 11
257.0682275275
 21
145.6830182004
  0
LINE
  5
4B2
100
AcDbEntity
  8
0
100
AcDbLine
 62
7
  6
CONTINUOUS
 10
257.1738542291
 20
142.3834152004
 11
257.1671802231
 21
145.6830182004
  0
LINE
  5
4B3
100
AcDbEntity
  8
RACCORDO
100
AcDbLine
 62
253
  6
CONTINUOUS
 10
256.4547745048
 20
59.4708475052
 11
256.4553606361
 21
59.1750991893
  0
LWPOLYLINE
  5
4B4
100
AcDbEntity
  8
0
100
AcDbPolyline
 62
7
  6
CONTINUOUS
 90
7
 70
0
 10
257.0743719608
 20
142.383414814
 10
257.0824786436
 20
137.8290218498
 10
257.0919049472
 20
131.3564173936
 10
257.0992365177
 20
124.8838102226
 10
257.1044733543
 20
118.4112010148
 10
257.1076154565
 20
111.9385904481
 10
257.108662824
 20
105.4659792004
  0
LINE
  5
4B5
100
AcDbEntity
  8
RACCORDO
100
AcDbLine
 62
253
  6
CONTINUOUS
 10
256.4553606361
 20
59.1750991893
 11
256.4559237908
 21
58.8131118059
  0
LINE
  5
4B6
100
AcDbEntity
  8
RACCORDO
100
AcDbLine
 62
253
  6
CONTINUOUS
 10
256.4559478835
 20
152.8452006488
 11
256.4562555801
 21
152.5611774287
  0
LINE
  5
4B7
100
AcDbEntity
  8
RACCORDO
100
AcDbLine
 62
253
  6
CONTINUOUS
 10
256.4559237908
 20
58.8131118059
 11
256.4562486037
 21
58.3114941131
  0
LWPOLYLINE
  5
4B8
100
AcDbEntity
  8
RACCORDO
100
AcDbPolyline
 62
253
  6
CONTINUOUS
 90
10
 70
0
 10
256.5052372711
 20
105.4659792123
 10
256.5045988831
 20
100.4129140763
 10
256.5026837916
 20
95.3598494264
 10
256.4994919967
 20
90.3067855853
 10
256.4950234981
 20
85.2537229839
 10
256.489278296
 20
80.2006618364
 10
256.4822563913
 20
75.1476021409
 10
256.4739577842
 20
70.0945441118
 10
256.4643824743
 20
65.0414881798
 10
256.4535304617
 20
59.9884346676
  0
LWPOLYLINE
  5
4B9
100
AcDbEntity
  8
RACCORDO
100
AcDbPolyline
 62
253
  6
CONTINUOUS
 90
10
 70
0
 10
256.996508264
 20
105.4659792122
 10
256.9958698606
 20
100.412789951
 10
256.9939547211
 20
95.3596011763
 10
256.990762846
 20
90.3064132106
 10
256.9862942355
 20
85.2532264848
 10
256.98054889
 20
80.2000412132
 10
256.9735268097
 20
75.1468573936
 10
256.9652279946
 20
70.0936752403
 10
256.9556524452
 20
65.0404951843
 10
256.944800162
 20
59.987317548
  0
LINE
  5
4BA
100
AcDbEntity
  8
RACCORDO
100
AcDbLine
 62
253
  6
CONTINUOUS
 10
256.9437869253
 20
59.3063898967
 11
256.9444423061
 21
58.6510538304
  0
LINE
  5
4BB
100
AcDbEntity
  8
RACCORDO
100
AcDbLine
 62
253
  6
CONTINUOUS
 10
256.4562555801
 20
152.5611774287
 11
256.455807751
 21
152.0325875294
  0
LINE
  5
4BC
100
AcDbEntity
  8
RACCORDO
100
AcDbLine
 62
253
  6
CONTINUOUS
 10
256.9440649929
 20
152.1579595731
 11
256.944800162
 21
150.9446408529
  0
LINE
  5
4BD
100
AcDbEntity
  8
RACCORDO
100
AcDbLine
 62
253
  6
CONTINUOUS
 10
256.944800162
 20
59.987317548
 11
256.9437869253
 21
59.3063898967
  0
LWPOLYLINE
  5
4BE
100
AcDbEntity
  8
RACCORDO
100
AcDbPolyline
 62
7
  6
CONTINUOUS
 90
7
 70
0
 10
257.0534885312
 20
58.4875941104
 10
257.0703473375
 20
66.3173139475
 10
257.0841409098
 20
74.1470397891
 10
257.094869246
 20
81.9767704352
 10
257.1025323445
 20
89.8065046857
 10
257.107130204
 20
97.6362413408
 10
257.108662824
 20
105.4659792004
  0
LINE
  5
4BF
100
AcDbEntity
  8
RACCORDO
100
AcDbLine
 62
253
  6
CONTINUOUS
 10
256.455807751
 20
152.0325875294
 11
256.4543144123
 21
151.2564395439
  0
LWPOLYLINE
  5
4C0
100
AcDbEntity
  8
RACCORDO
100
AcDbPolyline
 62
253
  6
CONTINUOUS
 90
3
 70
0
 10
256.4543144123
 20
151.2564395439
 10
256.4537973086
 20
151.0482327685
 10
256.4535304617
 20
150.9435237332
  0
LINE
  5
4C1
100
AcDbEntity
  8
RACCORDO
100
AcDbLine
 62
253
  6
CONTINUOUS
 10
256.4562486037
 20
58.3114941131
 11
256.4558348435
 21
58.0570279834
  0
LINE
  5
4C2
100
AcDbEntity
  8
RACCORDO
100
AcDbLine
 62
253
  6
CONTINUOUS
 10
256.9447669043
 20
152.3447626512
 11
256.9440649929
 21
152.1579595731
  0
LWPOLYLINE
  5
4C3
100
AcDbEntity
  8
RACCORDO
100
AcDbPolyline
 62
253
  6
CONTINUOUS
 90
5
 70
0
 10
256.4558348435
 20
58.0570279834
 10
256.4555610478
 20
58.0135031111
 10
256.455394566
 20
57.9998248854
 10
256.4552161336
 20
57.9915968927
 10
256.4550302921
 20
57.9888448349
  0
LINE
  5
4C4
100
AcDbEntity
  8
RACCORDO
100
AcDbLine
 62
253
  6
CONTINUOUS
 10
256.9451450155
 20
152.393223175
 11
256.9447669043
 21
152.3447626512
  0
LWPOLYLINE
  5
4C5
100
AcDbEntity
  8
RACCORDO
100
AcDbPolyline
 62
253
  6
CONTINUOUS
 90
4
 70
0
 10
256.4550302921
 20
152.9431135659
 10
256.4552161342
 20
152.9403617089
 10
256.4553945744
 20
152.9321341939
 10
256.4555610681
 20
152.9184565369
  0
LINE
  5
4C6
100
AcDbEntity
  8
0
100
AcDbLine
 62
7
  6
CONTINUOUS
 10
257.1675758562
 20
145.7216203686
 11
257.1675683459
 21
145.7217328059
  0
LWPOLYLINE
  5
4C7
100
AcDbEntity
  8
RACCORDO
100
AcDbPolyline
 62
7
  6
CONTINUOUS
 90
19
 70
0
 10
256.9463000294
 20
152.4443641758
 10
256.9443435132
 20
152.4873891456
 10
256.9386915736
 20
152.5300861173
 10
256.9293861475
 20
152.5721382819
 10
256.9164962807
 20
152.6132336149
 10
256.9001176153
 20
152.6530671912
 10
256.88037168
 20
152.6913434479
 10
256.8574049885
 20
152.7277783776
 10
256.8313879524
 20
152.7621016351
 10
256.8025136164
 20
152.7940585439
 10
256.7709962265
 20
152.8234119856
 10
256.73706964
 20
152.8499441592
 10
256.7009855901
 20
152.8734581978
 10
256.6630118183
 20
152.8937796284
 10
256.6234300878
 20
152.9107576671
 10
256.5825340929
 20
152.9242663381
 10
256.5406272793
 20
152.9342054076
 10
256.4980205932
 20
152.9405011284
 10
256.4550301738
 20
152.9431067867
  0
LWPOLYLINE
  5
4C8
100
AcDbEntity
  8
RACCORDO
100
AcDbPolyline
 62
7
  6
CONTINUOUS
 90
19
 70
0
 10
256.9463000298
 20
58.487594225
 10
256.9443439608
 20
58.4445688266
 10
256.9386924138
 20
58.4018713931
 10
256.9293873234
 20
58.3598187414
 10
256.9164977338
 20
58.318722904
 10
256.9001192865
 20
58.2788888138
 10
256.8803735101
 20
58.2406120417
 10
256.8574069192
 20
58.2041766028
 10
256.831389927
 20
58.1698528499
 10
256.8025155808
 20
58.1378954667
 10
256.7709981293
 20
58.1085415784
 10
256.7370714336
 20
58.0820089921
 10
256.7009872312
 20
58.0584945809
 10
256.6630132686
 20
58.0381728228
 10
256.6234313141
 20
58.021194506
 10
256.5825350678
 20
58.0076856104
 10
256.5406279815
 20
57.9977463727
 10
256.4980210077
 20
57.9914505424
 10
256.4550302921
 20
57.9888448349
  0
LINE
  5
4C9
100
AcDbEntity
  8
ASSI
100
AcDbLine
 62
7
  6
CONTINUOUS
 10
232.508662824
 20
129.4659792004
 11
232.008662824
 21
129.4659792004
  0
LINE
  5
4CA
100
AcDbEntity
  8
ASSI
100
AcDbLine
 62
7
  6
CONTINUOUS
 10
232.508662824
 20
135.4659792004
 11
232.008662824
 21
135.4659792004
  0
LWPOLYLINE
  5
4CB
100
AcDbEntity
  8
RACCORDO
100
AcDbPolyline
 62
253
  6
CONTINUOUS
 90
31
 70
0
 10
241.8235502868
 20
59.2868139293
 10
241.8304450215
 20
59.2913918544
 10
241.8368078958
 20
59.2980715317
 10
241.8426602865
 20
59.3068618057
 10
241.8480353172
 20
59.3178135975
 10
241.8529472018
 20
59.3308942468
 10
241.8573862542
 20
59.3459843462
 10
241.8613680701
 20
59.3631004867
 10
241.8649204801
 20
59.3822373037
 10
241.8680436704
 20
59.4032364813
 10
241.8707514843
 20
59.4261107731
 10
241.8730667942
 20
59.4508514373
 10
241.8749929291
 20
59.4772617976
 10
241.876538886
 20
59.5053508608
 10
241.8777222596
 20
59.5351061478
 10
241.8785471139
 20
59.5662927409
 10
241.8790159888
 20
59.5989138124
 10
241.8791401311
 20
59.6329557344
 10
241.8789233666
 20
59.6681529178
 10
241.8783615958
 20
59.7045015433
 10
241.877458641
 20
59.74198937
 10
241.8762167544
 20
59.7803336919
 10
241.8746248455
 20
59.8195322551
 10
241.8726801541
 20
59.8595676751
 10
241.8703843613
 20
59.9001312213
 10
241.8677181951
 20
59.9412277903
 10
241.8646744765
 20
59.982831335
 10
241.8612602922
 20
60.0245845288
 10
241.8574625507
 20
60.066360934
 10
241.8532552034
 20
60.1082662891
 10
241.8486200802
 20
60.1502912599
  0
LINE
  5
4CC
100
AcDbEntity
  8
0
100
AcDbLine
 62
253
  6
CONTINUOUS
 10
233.2498437789
 20
141.0909570578
 11
237.9009029944
 21
142.3372046186
  0
LINE
  5
4CD
100
AcDbEntity
  8
0
100
AcDbLine
 62
7
  6
CONTINUOUS
 10
233.2498437789
 20
142.0568828841
 11
237.9009202709
 21
143.3031350741
  0
LWPOLYLINE
  5
4CE
100
AcDbEntity
  8
0
100
AcDbPolyline
 62
253
  6
CONTINUOUS
 90
4
 70
0
 10
237.9009029944
 20
142.3372071901
 10
237.9391453986
 20
142.3421288541
 10
237.977529576
 20
142.3466665766
 10
238.008662824
 20
142.3500246494
  0
LINE
  5
4CF
100
AcDbEntity
  8
0
100
AcDbLine
 62
253
  6
CONTINUOUS
 10
233.2498437789
 20
141.0909570578
 11
232.508662824
 21
141.0909570578
  0
LINE
  5
4D0
100
AcDbEntity
  8
0
100
AcDbLine
 62
7
  6
CONTINUOUS
 10
257.1738542291
 20
142.3834152004
 11
257.073854055
 21
142.3834152004
  0
LINE
  5
4D1
100
AcDbEntity
  8
RACCORDO
100
AcDbLine
 62
253
  6
CONTINUOUS
 10
238.008662824
 20
144.0583176135
 11
238.0916027496
 21
144.0583176134
  0
LINE
  5
4D2
100
AcDbEntity
  8
0
100
AcDbLine
 62
7
  6
CONTINUOUS
 10
257.1671802231
 20
145.6830182004
 11
257.0671800157
 21
145.6830182004
  0
LINE
  5
4D3
100
AcDbEntity
  8
0
100
AcDbLine
 62
7
  6
CONTINUOUS
 10
257.1675682985
 20
145.7217328059
 11
257.067568093
 21
145.7217328059
  0
LWPOLYLINE
  5
4D4
100
AcDbEntity
  8
RACCORDO
100
AcDbPolyline
 62
253
  6
CONTINUOUS
 90
19
 70
0
 10
241.8235502868
 20
151.6451444715
 10
241.7966873258
 20
151.6587588167
 10
241.7724264538
 20
151.6719959827
 10
241.7506855355
 20
151.6849033131
 10
241.7314057775
 20
151.6975858758
 10
241.7144908519
 20
151.710034554
 10
241.6997994812
 20
151.7221301971
 10
241.687254722
 20
151.7339324223
 10
241.6767796397
 20
151.7454886404
 10
241.6682229058
 20
151.756670558
 10
241.6615092193
 20
151.7675429091
 10
241.6565619222
 20
151.7781584896
 10
241.6532166779
 20
151.7883814195
 10
241.6513995457
 20
151.7982809091
 10
241.6510350626
 20
151.8079146573
 10
241.6519454015
 20
151.817140433
 10
241.6540191202
 20
151.8259584808
 10
241.6572200285
 20
151.8345046031
 10
241.6614802088
 20
151.8428445018
  0
LWPOLYLINE
  5
4D5
100
AcDbEntity
  8
RACCORDO
100
AcDbPolyline
 62
253
  6
CONTINUOUS
 90
20
 70
0
 10
242.7406784731
 20
58.5852406249
 10
242.7472063932
 20
58.5874587958
 10
242.7532894572
 20
58.5943406695
 10
242.7589315231
 20
58.6058641783
 10
242.7641292954
 20
58.6219934034
 10
242.7688930133
 20
58.6426815861
 10
242.7732465107
 20
58.6678744487
 10
242.7771921167
 20
58.6975047279
 10
242.7807329743
 20
58.7314897526
 10
242.7838937915
 20
58.7697372571
 10
242.7866765561
 20
58.8121425489
 10
242.7890830199
 20
58.8585899879
 10
242.7911371166
 20
58.9089548463
 10
242.7928420169
 20
58.9631020309
 10
242.7941965005
 20
59.0208823057
 10
242.7952174454
 20
59.0821341072
 10
242.795907655
 20
59.146690527
 10
242.7962643482
 20
59.2143741539
 10
242.7962955004
 20
59.2849925961
 10
242.7953841188
 20
59.4342396681
  0
LINE
  5
4D6
100
AcDbEntity
  8
RACCORDO
100
AcDbLine
 62
253
  6
CONTINUOUS
 10
241.8041379947
 20
149.7412337153
 11
242.7037456627
 21
149.7412337153
  0
LINE
  5
4D7
100
AcDbEntity
  8
RACCORDO
100
AcDbLine
 62
253
  6
CONTINUOUS
 10
245.208662824
 20
150.6161010443
 11
245.708662824
 21
150.6073735118
  0
LINE
  5
4D8
100
AcDbEntity
  8
RACCORDO
100
AcDbLine
 62
253
  6
CONTINUOUS
 10
241.9320954571
 20
150.7692017018
 11
242.7702757968
 21
150.6474933156
  0
LINE
  5
4D9
100
AcDbEntity
  8
RACCORDO
100
AcDbLine
 62
253
  6
CONTINUOUS
 10
241.8486205072
 20
150.7816670799
 11
241.9320954571
 21
150.7692017018
  0
LINE
  5
4DA
100
AcDbEntity
  8
RACCORDO
100
AcDbLine
 62
253
  6
CONTINUOUS
 10
245.708662824
 20
150.7165617479
 11
255.1440102151
 21
150.9636350147
  0
LINE
  5
4DB
100
AcDbEntity
  8
RACCORDO
100
AcDbLine
 62
7
  6
CONTINUOUS
 10
245.708662824
 20
152.4159792004
 11
255.1457095598
 21
152.6630969661
  0
LINE
  5
4DC
100
AcDbEntity
  8
RACCORDO
100
AcDbLine
 62
253
  6
CONTINUOUS
 10
245.208662824
 20
150.6900555212
 11
242.7702757159
 21
150.647493316
  0
LINE
  5
4DD
100
AcDbEntity
  8
RACCORDO
100
AcDbLine
 62
7
  6
CONTINUOUS
 10
245.208662824
 20
152.389796603
 11
242.5100532062
 21
152.3426921969
  0
LINE
  5
4DE
100
AcDbEntity
  8
RACCORDO
100
AcDbLine
 62
253
  6
CONTINUOUS
 10
256.944800162
 20
150.9446408529
 11
256.4535304617
 21
150.9435237332
  0
LINE
  5
4DF
100
AcDbEntity
  8
RACCORDO
100
AcDbLine
 62
253
  6
CONTINUOUS
 10
257.0534885312
 20
152.4443642904
 11
256.9463000298
 21
152.4443641758
  0
LINE
  5
4E0
100
AcDbEntity
  8
RACCORDO
100
AcDbLine
 62
7
  6
CONTINUOUS
 10
256.5622161138
 20
152.9431136784
 11
256.4550302921
 21
152.9431135659
  0
LINE
  5
4E1
100
AcDbEntity
  8
RACCORDO
100
AcDbLine
 62
7
  6
CONTINUOUS
 10
255.2522514174
 20
152.9659791972
 11
255.1449836495
 21
152.9659792081
  0
LINE
  5
4E2
100
AcDbEntity
  8
RACCORDO
100
AcDbLine
 62
253
  6
CONTINUOUS
 10
256.4535304617
 20
150.9435237332
 11
255.1429837444
 21
150.9663981437
  0
LINE
  5
4E3
100
AcDbEntity
  8
RACCORDO
100
AcDbLine
 62
7
  6
CONTINUOUS
 10
245.208662824
 20
151.4159792004
 11
245.708662824
 21
151.4072516679
  0
LINE
  5
4E4
100
AcDbEntity
  8
RACCORDO
100
AcDbLine
 62
7
  6
CONTINUOUS
 10
256.4550302921
 20
152.9431135659
 11
255.1449836495
 21
152.9659792081
  0
LINE
  5
4E5
100
AcDbEntity
  8
RACCORDO
100
AcDbLine
 62
7
  6
CONTINUOUS
 10
256.5622161138
 20
152.9431136784
 11
255.2522514174
 21
152.9659791972
  0
ARC
  5
4E6
100
AcDbEntity
  8
0
100
AcDbCircle
 62
7
  6
CONTINUOUS
 10
238.4185583611
 20
141.3712834215
 40
2.0
100
AcDbArc
 50
101.8267107211
 51
105.0
  0
ARC
  5
4E7
100
AcDbEntity
  8
0
100
AcDbCircle
 62
7
  6
CONTINUOUS
 10
238.4185583611
 20
69.5606749793
 40
2.0
100
AcDbArc
 50
255.0
 51
258.1732892788
  0
ARC
  5
4E8
100
AcDbEntity
  8
0
100
AcDbCircle
 62
7
  6
CONTINUOUS
 10
233.508662824
 20
69.841001343
 40
1.0
100
AcDbArc
 50
180.0
 51
255.0
  0
ARC
  5
4E9
100
AcDbEntity
  8
0
100
AcDbCircle
 62
7
  6
CONTINUOUS
 10
233.508662824
 20
141.0909570578
 40
1.0
100
AcDbArc
 50
105.0
 51
180.0
  0
ARC
  5
4EA
100
AcDbEntity
  8
RACCORDO
100
AcDbCircle
 62
7
  6
CONTINUOUS
 10
239.008662824
 20
145.248030008
 40
1.0
100
AcDbArc
 50
150.0
 51
180.0
  0
ARC
  5
4EB
100
AcDbEntity
  8
RACCORDO
100
AcDbCircle
 62
7
  6
CONTINUOUS
 10
239.008662824
 20
65.6839283928
 40
1.0
100
AcDbArc
 50
180.0
 51
209.9997741896
  0
ARC
  5
4EC
100
AcDbEntity
  8
RACCORDO
100
AcDbCircle
 62
7
  6
CONTINUOUS
 10
242.5275055002
 20
59.589113901
 40
1.0
100
AcDbArc
 50
210.0000033174
 51
269.0000064411
  0
ARC
  5
4ED
100
AcDbEntity
  8
RACCORDO
100
AcDbCircle
 62
7
  6
CONTINUOUS
 10
242.5275056126
 20
151.3428445018
 40
1.0
100
AcDbArc
 50
91.0
 51
150.0
  0
ARC
  5
4EE
100
AcDbEntity
  8
RACCORDO
100
AcDbCircle
 62
7
  6
CONTINUOUS
 10
256.5534899106
 20
152.4431898308
 40
0.5
100
AcDbArc
 50
0.1345832835
 51
89.0
  0
ARC
  5
4EF
100
AcDbEntity
  8
RACCORDO
100
AcDbCircle
 62
7
  6
CONTINUOUS
 10
256.5534899106
 20
58.48876857
 40
0.5
100
AcDbArc
 50
271.0
 51
359.8654167165
  0
ARC
  5
4F0
100
AcDbEntity
  8
0
100
AcDbCircle
 62
7
  6
CONTINUOUS
 10
232.808662824
 20
105.951242142
 40
0.3
100
AcDbArc
 50
180.0
 51
206.6827408356
  0
ELLIPSE
  5
4F1
100
AcDbEntity
  8
RACCORDO
100
AcDbEllipse
 62
7
  6
CONTINUOUS
 10
247.1269435294
 20
61.7191259011
 30
0.0
 11
6.4194142398
 21
0.2042892013
 31
0.0
 40
0.7016618084
 41
-2.9521933055
 42
-2.9448483279
  0
ELLIPSE
  5
4F2
100
AcDbEntity
  8
RACCORDO
100
AcDbEllipse
 62
7
  6
CONTINUOUS
 10
247.1269435294
 20
61.7191259011
 30
0.0
 11
6.4194142398
 21
0.2042892013
 31
0.0
 40
0.7016618084
 41
3.0097632044
 42
3.0176598854
  0
ELLIPSE
  5
4F3
100
AcDbEntity
  8
RACCORDO
100
AcDbEllipse
 62
7
  6
CONTINUOUS
 10
245.8221221225
 20
63.0971593443
 30
0.0
 11
6.0307202398
 21
-0.0513949618
 31
0.0
 40
0.6879950443
 41
-2.9164874471
 42
-2.9022044178
  0
ELLIPSE
  5
4F4
100
AcDbEntity
  8
RACCORDO
100
AcDbEllipse
 62
7
  6
CONTINUOUS
 10
245.8221221225
 20
63.0971593443
 30
0.0
 11
6.0307202398
 21
-0.0513949618
 31
0.0
 40
0.6879950443
 41
3.0176066415
 42
3.0323221797
  0
ENDSEC
  0
SECTION
  2
OBJECTS
  0
DICTIONARY
  5
C
100
AcDbDictionary
280
0
281
1
  3
ACAD_GROUP
350
D
  3
ACAD_MLINESTYLE
350
17
  3
ACAD_LAYOUT
350
1A
  3
ACAD_PLOTSETTINGS
350
19
  3
ACAD_PLOTSTYLENAME
350
E
  0
DICTIONARY
  5
D
102
{ACAD_REACTORS
330
C
102
}
100
AcDbDictionary
280
0
281
1
  0
ACDBDICTIONARYWDFLT
  5
E
102
{ACAD_REACTORS
330
C
102
}
100
AcDbDictionary
281
1
  3
Normal
350
F
100
AcDbDictionaryWithDefault
340
F
  0
DICTIONARY
  5
17
102
{ACAD_REACTORS
330
C
102
}
100
AcDbDictionary
280
0
281
1
  3
Standard
350
18
  0
DICTIONARY
  5
19
102
{ACAD_REACTORS
330
C
102
}
100
AcDbDictionary
281
1
  0
DICTIONARY
  5
1A
102
{ACAD_REACTORS
330
C
102
}
100
AcDbDictionary
281
1
  3
Model
350
4F5
  3
Layout1
350
4F6
  0
ACDBPLACEHOLDER
  5
F
102
{ACAD_REACTORS
330
E
102
}
  0
MLINESTYLE
  5
18
102
{ACAD_REACTORS
330
17
102
}
100
AcDbMlineStyle
  2
STANDARD
 70
0
  3

 62
256
 51
90.0
 52
90.0
 71
2
 49
0.5
 62
256
  6
BYLAYER
 49
-0.5
 62
256
  6
BYLAYER
  0
LAYOUT
  5
4F5
102
{ACAD_REACTORS
330
1A
102
}
100
AcDbPlotSettings
  1

  2
none_device
  4
ISO_A4_(297.00_x_210.00_MM)
  6

 40
0.0
 41
0.0
 42
0.0
 43
0.0
 44
297.0
 45
210.0
 46
0.0
 47
0.0
 48
0.0
 49
0.0
140
0.0
141
0.0
142
1.0
143
1.0
 70
1024
 72
1
 73
0
 74
0
  7

 75
0
147
1.0
148
0.0
149
0.0
100
AcDbLayout
  1
Model
 70
0
 71
0
 10
0.0
 20
0.0
 11
297.0
 21
210.0
 12
0.0
 22
0.0
 32
0.0
 14
0.0
 24
0.0
 34
0.0
 15
0.0
 25
0.0
 35
0.0
146
0.0
 13
0.0
 23
0.0
 33
0.0
 16
1.0
 26
0.0
 36
0.0
 17
0.0
 27
1.0
 37
0.0
 76
0
330
372
345
0
346
0
  0
LAYOUT
  5
4F6
102
{ACAD_REACTORS
330
1A
102
}
100
AcDbPlotSettings
  1

  2
none_device
  4
ISO_A4_(297.00_x_210.00_MM)
  6

 40
0.0
 41
0.0
 42
0.0
 43
0.0
 44
297.0
 45
210.0
 46
0.0
 47
0.0
 48
0.0
 49
0.0
140
0.0
141
0.0
142
1.0
143
1.0
 70
0
 72
1
 73
0
 74
0
  7

 75
0
147
1.0
148
0.0
149
0.0
100
AcDbLayout
  1
Layout1
 70
0
 71
1
 10
0.0
 20
0.0
 11
297.0
 21
210.0
 12
0.0
 22
0.0
 32
0.0
 14
0.0
 24
0.0
 34
0.0
 15
0.0
 25
0.0
 35
0.0
146
0.0
 13
0.0
 23
0.0
 33
0.0
 16
1.0
 26
0.0
 36
0.0
 17
0.0
 27
1.0
 37
0.0
 76
0
330
373
345
0
346
0
  0
ENDSEC
  0
EOF
