  0
SECTION
  2
HEADER
  9
$ACADVER
  1
AC1015
  9
$DWGCODEPAGE
  3
ANSI_1252
  9
$EXTMAX
 10
297.0
 20
210.0
 30
0.0
  9
$EXTMIN
 10
0.0
 20
0.0
 30
0.0
  9
$LIMMIN
 10
0.0
 20
0.0
  9
$LIMMAX
 10
297.0
 20
210.0
  9
$VIEWCTR
 10
148.5
 20
105.0
  9
$VIEWSIZE
 40
210.0
  9
$CLAYER
  8
0
  9
$LTSCALE
 40
16.335
  9
$CELTYPE
  6
BYLAYER
  9
$DIMSCALE
 40
1.0
  9
$DIMASZ
 40
3.0
  9
$DIMEXO
 40
0.5
  9
$DIMDLI
 40
11.286
  9
$DIMEXE
 40
1.5
  9
$DIMCEN
 40
2.673
  9
$DIMLFAC
 40
1.0
  9
$DIMBLK
  1
_FILLED
  9
$DIMTXT
 40
3.0
  9
$DIMTOL
 70
1
  9
$DIMLIM
 70
0
  9
$DIMTFAC
 40
1.0
  9
$DIMTP
 40
0.01
  9
$DIMTM
 40
0.01
  9
$DIMGAP
 40
0.625
  9
$DIMDSEP
 70
44
  9
$PDMODE
 70
3
  9
$PDSIZE
 40
3.0
  9
$HANDSEED
  5
412
  9
$TILEMODE
 70
1
  9
$MEASUREMENT
 70
1
  9
$INSUNITS
 70
4
  0
ENDSEC
  0
SECTION
  2
CLASSES
  0
CLASS
  1
ACDBDICTIONARYWDFLT
  2
AcDbDictionaryWithDefault
  3
AutoCAD 2000
 90
0
280
0
281
0
  0
CLASS
  1
ACDBPLACEHOLDER
  2
AcDbPlaceHolder
  3
AutoCAD 2000
 90
0
280
0
281
0
  0
CLASS
  1
LAYOUT
  2
AcDbLayout
  3
AutoCAD 2000
 90
0
280
0
281
0
  0
ENDSEC
  0
SECTION
  2
TABLES
  0
TABLE
  2
VPORT
  5
8
100
AcDbSymbolTable
 70
2
  0
VPORT
  5
1F4
100
AcDbSymbolTableRecord
100
AcDbViewportTableRecord
  2
*ACTIVE
 70
0
 10
0.0
 20
0.0
 11
1.0
 21
1.0
 12
148.5
 22
105.0
 13
0.0
 23
0.0
 14
1.0
 24
1.0
 15
0.0
 25
0.0
 16
0.0
 26
0.0
 36
1.0
 17
0.0
 27
0.0
 37
0.0
 40
210.0
 41
1.4142857143
 42
50.0
 43
0.0
 44
0.0
 50
0.0
 51
0.0
 71
0
 72
100
 73
1
 74
1
 75
0
 76
0
 77
0
 78
0
  0
ENDTAB
  0
TABLE
  2
LTYPE
  5
5
100
AcDbSymbolTable
 70
6
  0
LTYPE
  5
14
100
AcDbSymbolTableRecord
100
AcDbLinetypeTableRecord
  2
BYBLOCK
 70
0
  3

 72
65
 73
0
 40
0.0
  0
LTYPE
  5
15
100
AcDbSymbolTableRecord
100
AcDbLinetypeTableRecord
  2
BYLAYER
 70
0
  3

 72
65
 73
0
 40
0.0
  0
LTYPE
  5
16
100
AcDbSymbolTableRecord
100
AcDbLinetypeTableRecord
  2
CONTINUOUS
 70
64
  3
Solid line
 72
65
 73
0
 40
0.0
  0
LTYPE
  5
1F5
100
AcDbSymbolTableRecord
100
AcDbLinetypeTableRecord
  2
CENTER
 70
64
  3
____ _ ____ _ ____ _ ____ _ ____ _ ____ _ ____
 72
65
 73
4
 40
0.6
 49
0.375
 74
0
 49
-0.075
 74
0
 49
0.075
 74
0
 49
-0.075
 74
0
  0
LTYPE
  5
1F6
100
AcDbSymbolTableRecord
100
AcDbLinetypeTableRecord
  2
HIDDEN
 70
64
  3
- - - - - - - - - - - - - - - - - - - -
 72
65
 73
2
 40
0.2
 49
0.1
 74
0
 49
-0.1
 74
0
  0
LTYPE
  5
1F7
100
AcDbSymbolTableRecord
100
AcDbLinetypeTableRecord
  2
PHANTOM
 70
64
  3
_____ _ _ _____ _ _ _____ _ _ _____
 72
65
 73
6
 40
0.8
 49
0.45
 74
0
 49
-0.05
 74
0
 49
0.1
 74
0
 49
-0.05
 74
0
 49
0.1
 74
0
 49
-0.05
 74
0
  0
LTYPE
  5
1F8
100
AcDbSymbolTableRecord
100
AcDbLinetypeTableRecord
  2
DOT
 70
64
  3
. . . . . . . . . . . . . . . . . . . .
 72
65
 73
2
 40
0.2
 49
0.1
 74
0
 49
-0.1
 74
0
  0
LTYPE
  5
1F9
100
AcDbSymbolTableRecord
100
AcDbLinetypeTableRecord
  2
DASHED
 70
64
  3
- - - - - - - - - - - - - - - - - - - -
 72
65
 73
2
 40
0.2
 49
0.1
 74
0
 49
-0.1
 74
0
  0
ENDTAB
  0
TABLE
  2
LAYER
  5
2
100
AcDbSymbolTable
 70
36
  0
LAYER
  5
10
100
AcDbSymbolTableRecord
100
AcDbLayerTableRecord
  2
0
 70
0
 62
7
  6
CONTINUOUS
370
-3
390
F
  0
LAYER
  5
1FA
100
AcDbSymbolTableRecord
100
AcDbLayerTableRecord
  2
DEFAULT_1
 70
0
 62
7
  6
CENTER
370
-3
390
F
  0
LAYER
  5
1FB
100
AcDbSymbolTableRecord
100
AcDbLayerTableRecord
  2
DEFAULT_2
 70
0
 62
7
  6
HIDDEN
370
-3
390
F
  0
LAYER
  5
1FC
100
AcDbSymbolTableRecord
100
AcDbLayerTableRecord
  2
DEFAULT_3
 70
0
 62
7
  6
PHANTOM
370
-3
390
F
  0
LAYER
  5
1FD
100
AcDbSymbolTableRecord
100
AcDbLayerTableRecord
  2
1608-CC-RF-VIMAR_80000
 70
0
 62
7
  6
CONTINUOUS
370
-3
390
F
  0
LAYER
  5
1FE
100
AcDbSymbolTableRecord
100
AcDbLayerTableRecord
  2
1608-CC-RF-VIMAR_80000_1
 70
0
 62
7
  6
CONTINUOUS
370
-3
390
F
  0
LAYER
  5
1FF
100
AcDbSymbolTableRecord
100
AcDbLayerTableRecord
  2
1608-CC-RF-VIMAR_80000_2
 70
0
 62
7
  6
CONTINUOUS
370
-3
390
F
  0
LAYER
  5
200
100
AcDbSymbolTableRecord
100
AcDbLayerTableRecord
  2
1608-CC-RF-VIMAR_80000_3
 70
0
 62
7
  6
CONTINUOUS
370
-3
390
F
  0
LAYER
  5
201
100
AcDbSymbolTableRecord
100
AcDbLayerTableRecord
  2
1608-R-RF-VIMAR_45000
 70
0
 62
7
  6
CONTINUOUS
370
-3
390
F
  0
LAYER
  5
202
100
AcDbSymbolTableRecord
100
AcDbLayerTableRecord
  2
1608-R-RF-VIMAR_45000_1
 70
0
 62
7
  6
CONTINUOUS
370
-3
390
F
  0
LAYER
  5
203
100
AcDbSymbolTableRecord
100
AcDbLayerTableRecord
  2
1608-R-RF-VIMAR_45000_2
 70
0
 62
7
  6
CONTINUOUS
370
-3
390
F
  0
LAYER
  5
204
100
AcDbSymbolTableRecord
100
AcDbLayerTableRecord
  2
1608-R-RF-VIMAR_45000_3
 70
0
 62
7
  6
CONTINUOUS
370
-3
390
F
  0
LAYER
  5
205
100
AcDbSymbolTableRecord
100
AcDbLayerTableRecord
  2
1608-R-RF-VIMAR_45000_4
 70
0
 62
7
  6
CONTINUOUS
370
-3
390
F
  0
LAYER
  5
206
100
AcDbSymbolTableRecord
100
AcDbLayerTableRecord
  2
1608-R-RF-VIMAR_45000_5
 70
0
 62
7
  6
CONTINUOUS
370
-3
390
F
  0
LAYER
  5
207
100
AcDbSymbolTableRecord
100
AcDbLayerTableRecord
  2
1608-R-RF-VIMAR_45000_6
 70
0
 62
7
  6
CONTINUOUS
370
-3
390
F
  0
LAYER
  5
208
100
AcDbSymbolTableRecord
100
AcDbLayerTableRecord
  2
1608-R-RF-VIMAR_45000_7
 70
0
 62
7
  6
CONTINUOUS
370
-3
390
F
  0
LAYER
  5
209
100
AcDbSymbolTableRecord
100
AcDbLayerTableRecord
  2
200A_170000
 70
0
 62
7
  6
CONTINUOUS
370
-3
390
F
  0
LAYER
  5
20A
100
AcDbSymbolTableRecord
100
AcDbLayerTableRecord
  2
200A_170000_1
 70
0
 62
7
  6
CONTINUOUS
370
-3
390
F
  0
LAYER
  5
20B
100
AcDbSymbolTableRecord
100
AcDbLayerTableRecord
  2
210_120000
 70
0
 62
7
  6
CONTINUOUS
370
-3
390
F
  0
LAYER
  5
20C
100
AcDbSymbolTableRecord
100
AcDbLayerTableRecord
  2
210_120000_1
 70
0
 62
7
  6
CONTINUOUS
370
-3
390
F
  0
LAYER
  5
20D
100
AcDbSymbolTableRecord
100
AcDbLayerTableRecord
  2
210_120000_2
 70
0
 62
7
  6
CONTINUOUS
370
-3
390
F
  0
LAYER
  5
20E
100
AcDbSymbolTableRecord
100
AcDbLayerTableRecord
  2
3216-CS2-RF_1_180000
 70
0
 62
7
  6
CONTINUOUS
370
-3
390
F
  0
LAYER
  5
20F
100
AcDbSymbolTableRecord
100
AcDbLayerTableRecord
  2
3528-CS-RF_190000
 70
0
 62
7
  6
CONTINUOUS
370
-3
390
F
  0
LAYER
  5
210
100
AcDbSymbolTableRecord
100
AcDbLayerTableRecord
  2
43000611A0
 70
0
 62
7
  6
CONTINUOUS
370
-3
390
F
  0
LAYER
  5
211
100
AcDbSymbolTableRecord
100
AcDbLayerTableRecord
  2
43900611A0
 70
0
 62
7
  6
CONTINUOUS
370
-3
390
F
  0
LAYER
  5
212
100
AcDbSymbolTableRecord
100
AcDbLayerTableRecord
  2
ASSI
 70
0
 62
7
  6
CONTINUOUS
370
-3
390
F
  0
LAYER
  5
213
100
AcDbSymbolTableRecord
100
AcDbLayerTableRecord
  2
BZ-8_5X8-5XH3_0_320000
 70
0
 62
7
  6
CONTINUOUS
370
-3
390
F
  0
LAYER
  5
214
100
AcDbSymbolTableRecord
100
AcDbLayerTableRecord
  2
CN-PTSM_0_5_4-2_5H_SMD_R24-VIMA
 70
0
 62
7
  6
CONTINUOUS
370
-3
390
F
  0
LAYER
  5
215
100
AcDbSymbolTableRecord
100
AcDbLayerTableRecord
  2
CN-SMD-03S-SPRING-P2_5-H7_2-VIM
 70
0
 62
7
  6
CONTINUOUS
370
-3
390
F
  0
LAYER
  5
216
100
AcDbSymbolTableRecord
100
AcDbLayerTableRecord
  2
CN-SMD-03S-SPRING-P2_5-H7_2-V_1
 70
0
 62
7
  6
CONTINUOUS
370
-3
390
F
  0
LAYER
  5
217
100
AcDbSymbolTableRecord
100
AcDbLayerTableRecord
  2
CN-SMD-04S-SPRING-P2_5-H7_2-VIM
 70
0
 62
7
  6
CONTINUOUS
370
-3
390
F
  0
LAYER
  5
218
100
AcDbSymbolTableRecord
100
AcDbLayerTableRecord
  2
CN-SMD-04S-SPRING-P2_5-H7_2-V_1
 70
0
 62
7
  6
CONTINUOUS
370
-3
390
F
  0
LAYER
  5
219
100
AcDbSymbolTableRecord
100
AcDbLayerTableRecord
  2
CN1-REF_SQUAREHOLE12_SPEA-VIMAR
 70
0
 62
7
  6
CONTINUOUS
370
-3
390
F
  0
LAYER
  5
21A
100
AcDbSymbolTableRecord
100
AcDbLayerTableRecord
  2
CN1-REF_SQUAREHOLE12_SPEA-VIM_1
 70
0
 62
7
  6
CONTINUOUS
370
-3
390
F
  0
LAYER
  5
21B
100
AcDbSymbolTableRecord
100
AcDbLayerTableRecord
  2
CN1-REF_SQUAREHOLE12_SPEA-VIM_2
 70
0
 62
7
  6
CONTINUOUS
370
-3
390
F
  0
LAYER
  5
21C
100
AcDbSymbolTableRecord
100
AcDbLayerTableRecord
  2
CN1-REF_SQUAREHOLE12_SPEA-VIM_3
 70
0
 62
7
  6
CONTINUOUS
370
-3
390
F
  0
LAYER
  5
21D
100
AcDbSymbolTableRecord
100
AcDbLayerTableRecord
  2
COLOR6
 70
0
 62
7
  6
CONTINUOUS
370
-3
390
F
  0
LAYER
  5
21E
100
AcDbSymbolTableRecord
100
AcDbLayerTableRecord
  2
COORDINATE
 70
0
 62
7
  6
CONTINUOUS
370
-3
390
F
  0
LAYER
  5
21F
100
AcDbSymbolTableRecord
100
AcDbLayerTableRecord
  2
COPY_PUBLISH
 70
0
 62
7
  6
CONTINUOUS
370
-3
390
F
  0
LAYER
  5
220
100
AcDbSymbolTableRecord
100
AcDbLayerTableRecord
  2
COSMETICI
 70
0
 62
7
  6
CONTINUOUS
370
-3
390
F
  0
LAYER
  5
221
100
AcDbSymbolTableRecord
100
AcDbLayerTableRecord
  2
CURVE
 70
0
 62
7
  6
CONTINUOUS
370
-3
390
F
  0
LAYER
  5
222
100
AcDbSymbolTableRecord
100
AcDbLayerTableRecord
  2
DRAFT
 70
0
 62
7
  6
CONTINUOUS
370
-3
390
F
  0
LAYER
  5
223
100
AcDbSymbolTableRecord
100
AcDbLayerTableRecord
  2
E2_MARK_10000
 70
0
 62
7
  6
CONTINUOUS
370
-3
390
F
  0
LAYER
  5
224
100
AcDbSymbolTableRecord
100
AcDbLayerTableRecord
  2
IMPORT_IGES
 70
0
 62
7
  6
CONTINUOUS
370
-3
390
F
  0
LAYER
  5
225
100
AcDbSymbolTableRecord
100
AcDbLayerTableRecord
  2
INTF_BLANK
 70
0
 62
7
  6
CONTINUOUS
370
-3
390
F
  0
LAYER
  5
226
100
AcDbSymbolTableRecord
100
AcDbLayerTableRecord
  2
MM5-FMT-RF_120000
 70
0
 62
7
  6
CONTINUOUS
370
-3
390
F
  0
LAYER
  5
227
100
AcDbSymbolTableRecord
100
AcDbLayerTableRecord
  2
NOTE
 70
0
 62
7
  6
CONTINUOUS
370
-3
390
F
  0
LAYER
  5
228
100
AcDbSymbolTableRecord
100
AcDbLayerTableRecord
  2
PIANI
 70
0
 62
7
  6
CONTINUOUS
370
-3
390
F
  0
LAYER
  5
229
100
AcDbSymbolTableRecord
100
AcDbLayerTableRecord
  2
PUNTI
 70
0
 62
7
  6
CONTINUOUS
370
-3
390
F
  0
LAYER
  5
22A
100
AcDbSymbolTableRecord
100
AcDbLayerTableRecord
  2
RACCORDO
 70
0
 62
7
  6
CONTINUOUS
370
-3
390
F
  0
LAYER
  5
22B
100
AcDbSymbolTableRecord
100
AcDbLayerTableRecord
  2
SIMBOLI
 70
0
 62
7
  6
CONTINUOUS
370
-3
390
F
  0
LAYER
  5
22C
100
AcDbSymbolTableRecord
100
AcDbLayerTableRecord
  2
SMUSSO
 70
0
 62
7
  6
CONTINUOUS
370
-3
390
F
  0
LAYER
  5
22D
100
AcDbSymbolTableRecord
100
AcDbLayerTableRecord
  2
SNAPLINE
 70
0
 62
7
  6
CONTINUOUS
370
-3
390
F
  0
LAYER
  5
22E
100
AcDbSymbolTableRecord
100
AcDbLayerTableRecord
  2
SODFL1608X70N_70000
 70
0
 62
7
  6
CONTINUOUS
370
-3
390
F
  0
LAYER
  5
22F
100
AcDbSymbolTableRecord
100
AcDbLayerTableRecord
  2
SODFL1608X70N_70000_1
 70
0
 62
7
  6
CONTINUOUS
370
-3
390
F
  0
LAYER
  5
230
100
AcDbSymbolTableRecord
100
AcDbLayerTableRecord
  2
SODFL1608X70N_70000_2
 70
0
 62
7
  6
CONTINUOUS
370
-3
390
F
  0
LAYER
  5
231
100
AcDbSymbolTableRecord
100
AcDbLayerTableRecord
  2
SODFL1608X70N_70000_3
 70
0
 62
7
  6
CONTINUOUS
370
-3
390
F
  0
LAYER
  5
232
100
AcDbSymbolTableRecord
100
AcDbLayerTableRecord
  2
SODFL1608X70N_70000_4
 70
0
 62
7
  6
CONTINUOUS
370
-3
390
F
  0
LAYER
  5
233
100
AcDbSymbolTableRecord
100
AcDbLayerTableRecord
  2
SOP8-T1-RF-VIMAR_150000
 70
0
 62
7
  6
CONTINUOUS
370
-3
390
F
  0
LAYER
  5
234
100
AcDbSymbolTableRecord
100
AcDbLayerTableRecord
  2
SUPERFICI
 70
0
 62
7
  6
CONTINUOUS
370
-3
390
F
  0
LAYER
  5
235
100
AcDbSymbolTableRecord
100
AcDbLayerTableRecord
  2
TRASH
 70
0
 62
7
  6
CONTINUOUS
370
-3
390
F
  0
LAYER
  5
236
100
AcDbSymbolTableRecord
100
AcDbLayerTableRecord
  2
___SHELL
 70
0
 62
7
  6
CONTINUOUS
370
-3
390
F
  0
ENDTAB
  0
TABLE
  2
STYLE
  5
3
100
AcDbSymbolTable
 70
1
  0
STYLE
  5
11
100
AcDbSymbolTableRecord
100
AcDbTextStyleTableRecord
  2
STANDARD
 70
0
 40
0.0
 41
0.8
 50
0.0
 71
0
 42
0.2
  3
txt
  4

  0
STYLE
  5
237
100
AcDbSymbolTableRecord
100
AcDbTextStyleTableRecord
  2
TEXTSTYLE_1
 70
0
 40
0.0
 41
0.8
 50
0.0
 71
0
 42
0.2
  3
gdt
  4

  0
ENDTAB
  0
TABLE
  2
VIEW
  5
6
100
AcDbSymbolTable
 70
0
  0
ENDTAB
  0
TABLE
  2
UCS
  5
7
100
AcDbSymbolTable
 70
0
  0
ENDTAB
  0
TABLE
  2
APPID
  5
9
100
AcDbSymbolTable
 70
1
  0
APPID
  5
238
100
AcDbSymbolTableRecord
100
AcDbRegAppTableRecord
  2
ACAD
 70
0
  0
ENDTAB
  0
TABLE
  2
BLOCK_RECORD
  5
1
100
AcDbSymbolTable
 70
0
  0
BLOCK_RECORD
  5
239
100
AcDbSymbolTableRecord
100
AcDbBlockTableRecord
  2
*Model_Space
  0
BLOCK_RECORD
  5
23A
100
AcDbSymbolTableRecord
100
AcDbBlockTableRecord
  2
*Paper_Space
  0
BLOCK_RECORD
  5
23B
100
AcDbSymbolTableRecord
100
AcDbBlockTableRecord
  2
_FILLED
  0
BLOCK_RECORD
  5
23C
100
AcDbSymbolTableRecord
100
AcDbBlockTableRecord
  2
*D0
  0
BLOCK_RECORD
  5
23D
100
AcDbSymbolTableRecord
100
AcDbBlockTableRecord
  2
*D1
  0
BLOCK_RECORD
  5
23E
100
AcDbSymbolTableRecord
100
AcDbBlockTableRecord
  2
*D2
  0
ENDTAB
  0
TABLE
  2
DIMSTYLE
  5
A
100
AcDbSymbolTable
 70
1
100
AcDbDimStyleTable
 71
0
  0
DIMSTYLE
105
23F
100
AcDbSymbolTableRecord
100
AcDbDimStyleTableRecord
  2
STANDARD
 70
0
  3

  4

 40
1.0
 41
3.0
 42
0.5
 43
0.38
 44
1.5
 45
0.0
 46
0.0
 47
0.01
 48
0.01
140
3.0
141
0.09
142
0.0
143
25.4
144
1.0
145
0.0
146
1.0
147
0.625
 71
1.0
 72
0.0
 73
0
 74
0
 75
0
 76
0
 77
1
 78
8
170
0
171
2
172
0
173
0
174
0
175
0
176
0
177
0
178
0
270
2
271
2
272
2
273
2
274
2
275
0
280
0
281
0
282
0
283
1
284
8
285
0
286
0
287
3
288
0
340
11
278
44
341
23B
342
23B
343
23B
344
23B
  0
DIMSTYLE
105
240
100
AcDbSymbolTableRecord
100
AcDbDimStyleTableRecord
  2
DIMSTYLE_1
 70
0
  3

  4

 40
1.0
 41
3.0
 42
0.5
 43
0.38
 44
1.5
 45
0.0
 46
0.0
 47
0.0
 48
0.0
140
3.0
141
0.09
142
0.0
143
25.4
144
1.0
145
0.0
146
1.0
147
0.75
 71
0.0
 72
0.0
 73
0
 74
0
 75
0
 76
0
 77
1
 78
8
170
0
171
2
172
0
173
0
174
0
175
0
176
0
177
0
178
0
270
2
271
2
272
2
273
2
274
2
275
0
280
0
281
0
282
0
283
1
284
8
285
0
286
0
287
3
288
0
340
11
278
44
341
23B
342
23B
343
23B
344
23B
  0
DIMSTYLE
105
241
100
AcDbSymbolTableRecord
100
AcDbDimStyleTableRecord
  2
DIMSTYLE_2
 70
0
  3

  4

 40
1.0
 41
3.0
 42
0.5
 43
0.38
 44
1.5
 45
0.0
 46
0.0
 47
0.0
 48
0.0
140
3.0
141
0.09
142
0.0
143
25.4
144
1.0
145
0.0
146
1.0
147
0.75
 71
0.0
 72
0.0
 73
0
 74
0
 75
0
 76
0
 77
1
 78
8
170
0
171
2
172
0
173
0
174
0
175
0
176
0
177
0
178
0
270
2
271
1
272
1
273
2
274
2
275
0
280
0
281
0
282
0
283
1
284
8
285
0
286
0
287
3
288
0
340
11
278
44
341
23B
342
23B
343
23B
344
23B
  0
ENDTAB
  0
ENDSEC
  0
SECTION
  2
BLOCKS
  0
BLOCK
  5
20
100
AcDbEntity
  8
0
100
AcDbBlockBegin
  2
*Model_Space
 70
0
 10
0.0
 20
0.0
 30
0.0
  3
*Model_Space
  1

  0
ENDBLK
  5
21
100
AcDbEntity
  8
0
100
AcDbBlockEnd
  0
BLOCK
  5
1C
100
AcDbEntity
  8
0
100
AcDbBlockBegin
  2
*Paper_Space
 70
0
 10
0.0
 20
0.0
 30
0.0
  3
*Paper_Space
  1

  0
ENDBLK
  5
1D
100
AcDbEntity
  8
0
100
AcDbBlockEnd
  0
BLOCK
  5
242
100
AcDbEntity
  8
0
100
AcDbBlockBegin
  2
_FILLED
 70
64
 10
0.0
 20
0.0
  3
_FILLED
  1

  0
SOLID
  5
243
100
AcDbEntity
  8
0
  6
BYBLOCK
 62
0
100
AcDbTrace
 10
0.0
 20
0.0
 11
-1.0
 21
0.3166666667
 12
-1.0
 22
-0.3166666667
 13
-1.0
 23
-0.3166666667
  0
ENDBLK
  5
244
100
AcDbEntity
  8
0
  6
BYBLOCK
 62
0
100
AcDbBlockEnd
  0
BLOCK
  5
245
100
AcDbEntity
  8
0
100
AcDbBlockBegin
 62
7
  6
CONTINUOUS
  2
*D0
 70
65
 10
0.0
 20
0.0
  3
*D0
  1

  0
MTEXT
  5
246
100
AcDbEntity
  8
0
100
AcDbMText
 62
7
  6
CONTINUOUS
  7
STANDARD
 71
2
 72
1
 10
157.0999683673
 20
126.5314127551
 30
0.0
 11
1.0
 21
0.0
 31
0.0
 44
0.9
  1
36
 40
3.0
 41
6.75
  0
LINE
  5
247
100
AcDbEntity
  8
0
100
AcDbLine
 62
7
  6
CONTINUOUS
 10
175.0999683673
 20
115.2814127551
 11
175.0999683673
 21
124.2814127551
  0
LINE
  5
248
100
AcDbEntity
  8
0
100
AcDbLine
 62
7
  6
CONTINUOUS
 10
139.0999683673
 20
115.2814127551
 11
139.0999683673
 21
124.2814127551
  0
LINE
  5
249
100
AcDbEntity
  8
0
100
AcDbLine
 62
7
  6
CONTINUOUS
 10
175.0999683673
 20
122.7814127551
 11
157.0999683673
 21
122.7814127551
  0
LINE
  5
24A
100
AcDbEntity
  8
0
100
AcDbLine
 62
7
  6
CONTINUOUS
 10
139.0999683673
 20
122.7814127551
 11
157.0999683673
 21
122.7814127551
  0
INSERT
  5
24B
100
AcDbEntity
  8
0
100
AcDbBlockReference
 62
7
  6
CONTINUOUS
  2
_FILLED
 10
175.0999683673
 20
122.7814127551
 41
3.0
 42
3.0
 43
3.0
  0
INSERT
  5
24C
100
AcDbEntity
  8
0
100
AcDbBlockReference
 62
7
  6
CONTINUOUS
  2
_FILLED
 10
139.0999683673
 20
122.7814127551
 41
3.0
 42
3.0
 43
3.0
 50
180.0
  0
ENDBLK
  5
24D
100
AcDbEntity
  8
0
  6
BYBLOCK
 62
0
100
AcDbBlockEnd
  0
BLOCK
  5
24E
100
AcDbEntity
  8
0
100
AcDbBlockBegin
 62
7
  6
CONTINUOUS
  2
*D1
 70
65
 10
0.0
 20
0.0
  3
*D1
  1

  0
MTEXT
  5
24F
100
AcDbEntity
  8
0
100
AcDbMText
 62
7
  6
CONTINUOUS
  7
STANDARD
 71
2
 72
1
 10
179.3499683674
 20
105.4814127551
 30
0.0
 11
0.0
 21
1.0
 31
0.0
 44
0.9
  1
18,6
 40
3.0
 41
12.2142857143
  0
LINE
  5
250
100
AcDbEntity
  8
0
100
AcDbLine
 62
7
  6
CONTINUOUS
 10
175.5999683673
 20
114.7814127551
 11
184.5999683674
 21
114.7814127551
  0
LINE
  5
251
100
AcDbEntity
  8
0
100
AcDbLine
 62
7
  6
CONTINUOUS
 10
175.5999683674
 20
96.1814127551
 11
184.5999683674
 21
96.1814127551
  0
LINE
  5
252
100
AcDbEntity
  8
0
100
AcDbLine
 62
7
  6
CONTINUOUS
 10
183.0999683674
 20
114.7814127551
 11
183.0999683674
 21
105.4814127551
  0
LINE
  5
253
100
AcDbEntity
  8
0
100
AcDbLine
 62
7
  6
CONTINUOUS
 10
183.0999683674
 20
96.1814127551
 11
183.0999683674
 21
105.4814127551
  0
INSERT
  5
254
100
AcDbEntity
  8
0
100
AcDbBlockReference
 62
7
  6
CONTINUOUS
  2
_FILLED
 10
183.0999683674
 20
114.7814127551
 41
3.0
 42
3.0
 43
3.0
 50
90.0
  0
INSERT
  5
255
100
AcDbEntity
  8
0
100
AcDbBlockReference
 62
7
  6
CONTINUOUS
  2
_FILLED
 10
183.0999683674
 20
96.1814127551
 41
3.0
 42
3.0
 43
3.0
 50
270.0
  0
ENDBLK
  5
256
100
AcDbEntity
  8
0
  6
BYBLOCK
 62
0
100
AcDbBlockEnd
  0
BLOCK
  5
257
100
AcDbEntity
  8
0
100
AcDbBlockBegin
 62
7
  6
CONTINUOUS
  2
*D2
 70
65
 10
0.0
 20
0.0
  3
*D2
  1

  0
MTEXT
  5
258
100
AcDbEntity
  8
0
100
AcDbMText
 62
7
  6
CONTINUOUS
  7
STANDARD
 71
3
 72
1
 10
106.6621421829
 20
126.5314127551
 30
0.0
 11
1.0
 21
0.0
 31
0.0
 44
0.9
  1
10,1
 40
3.0
 41
11.25
  0
LINE
  5
259
100
AcDbEntity
  8
0
100
AcDbLine
 62
7
  6
CONTINUOUS
 10
108.6366910978
 20
111.2314127551
 11
108.6366910978
 21
124.2814127551
  0
LINE
  5
25A
100
AcDbEntity
  8
0
100
AcDbLine
 62
7
  6
CONTINUOUS
 10
118.6866910978
 20
108.5314127551
 11
118.6866910978
 21
124.2814127551
  0
LINE
  5
25B
100
AcDbEntity
  8
0
100
AcDbLine
 62
7
  6
CONTINUOUS
 10
108.6366910978
 20
122.7814127551
 11
113.6616910978
 21
122.7814127551
  0
LINE
  5
25C
100
AcDbEntity
  8
0
100
AcDbLine
 62
7
  6
CONTINUOUS
 10
113.6616910978
 20
122.7814127551
 11
99.1621421829
 21
122.7814127551
  0
LINE
  5
25D
100
AcDbEntity
  8
0
100
AcDbLine
 62
7
  6
CONTINUOUS
 10
118.6866910978
 20
122.7814127551
 11
113.6616910978
 21
122.7814127551
  0
INSERT
  5
25E
100
AcDbEntity
  8
0
100
AcDbBlockReference
 62
7
  6
CONTINUOUS
  2
_FILLED
 10
108.6366910978
 20
122.7814127551
 41
3.0
 42
3.0
 43
3.0
 50
180.0
  0
INSERT
  5
25F
100
AcDbEntity
  8
0
100
AcDbBlockReference
 62
7
  6
CONTINUOUS
  2
_FILLED
 10
118.6866910978
 20
122.7814127551
 41
3.0
 42
3.0
 43
3.0
  0
ENDBLK
  5
260
100
AcDbEntity
  8
0
  6
BYBLOCK
 62
0
100
AcDbBlockEnd
  0
ENDSEC
  0
SECTION
  2
ENTITIES
  0
DIMENSION
  5
261
100
AcDbEntity
  8
0
100
AcDbDimension
 62
7
  6
CONTINUOUS
  2
*D0
 10
139.0999683673
 20
122.7814127551
 11
157.0999683673
 21
122.7814127551
 70
160
 71
2
 42
36.0
  3
DIMSTYLE_1
100
AcDbAlignedDimension
 13
175.0999683673
 23
114.7814127551
 14
139.0999683673
 24
114.7814127551
 50
180.0
100
AcDbRotatedDimension
  0
DIMENSION
  5
262
100
AcDbEntity
  8
0
100
AcDbDimension
 62
7
  6
CONTINUOUS
  2
*D1
 10
183.0999683674
 20
96.1814127551
 11
183.0999683674
 21
105.4814127551
 70
160
 71
2
 42
18.6
  3
DIMSTYLE_1
100
AcDbAlignedDimension
 13
175.0999683673
 23
114.7814127551
 14
175.0999683674
 24
96.1814127551
 50
270.0
100
AcDbRotatedDimension
  0
DIMENSION
  5
263
100
AcDbEntity
  8
0
100
AcDbDimension
 62
7
  6
CONTINUOUS
  2
*D2
 10
118.6866910978
 20
122.7814127551
 11
102.9121421829
 21
122.7814127551
 70
160
 71
3
 42
10.05
  3
DIMSTYLE_2
100
AcDbAlignedDimension
 13
108.6366910978
 23
110.7314127551
 14
118.6866910978
 24
108.0314127551
100
AcDbRotatedDimension
  0
LINE
  5
264
100
AcDbEntity
  8
0
100
AcDbLine
 62
7
  6
CONTINUOUS
 10
139.0999683673
 20
114.7814127551
 11
139.0999683673
 21
96.1814127551
  0
LINE
  5
265
100
AcDbEntity
  8
IMPORT_IGES
100
AcDbLine
 62
7
  6
CONTINUOUS
 10
139.7514383673
 20
112.5828827551
 11
139.7514383673
 21
114.2799427551
  0
LINE
  5
266
100
AcDbEntity
  8
IMPORT_IGES
100
AcDbLine
 62
7
  6
CONTINUOUS
 10
141.0999683673
 20
97.9314127551
 11
141.0999683673
 21
105.4314127551
  0
LINE
  5
267
100
AcDbEntity
  8
IMPORT_IGES
100
AcDbLine
 62
7
  6
CONTINUOUS
 10
141.4484983673
 20
114.2799427551
 11
141.4484983673
 21
112.5828827551
  0
LINE
  5
268
100
AcDbEntity
  8
IMPORT_IGES
100
AcDbLine
 62
7
  6
CONTINUOUS
 10
141.8999683673
 20
110.0314127551
 11
141.8999683673
 21
112.8314127551
  0
LINE
  5
269
100
AcDbEntity
  8
IMPORT_IGES
100
AcDbLine
 62
7
  6
CONTINUOUS
 10
142.9999683673
 20
107.6314127551
 11
142.9999683673
 21
109.2314127551
  0
LINE
  5
26A
100
AcDbEntity
  8
IMPORT_IGES
100
AcDbLine
 62
7
  6
CONTINUOUS
 10
146.1999683673
 20
109.2314127551
 11
146.1999683673
 21
107.6314127551
  0
LINE
  5
26B
100
AcDbEntity
  8
IMPORT_IGES
100
AcDbLine
 62
7
  6
CONTINUOUS
 10
141.0999683673
 20
105.4314127551
 11
142.0999683673
 21
106.4314127551
  0
LINE
  5
26C
100
AcDbEntity
  8
IMPORT_IGES
100
AcDbLine
 62
7
  6
CONTINUOUS
 10
147.2999683673
 20
112.8314127551
 11
147.2999683673
 21
110.0314127551
  0
LINE
  5
26D
100
AcDbEntity
  8
0
100
AcDbLine
 62
7
  6
CONTINUOUS
 10
175.0999683674
 20
96.1814127551
 11
159.3999683673
 21
96.1814127551
  0
LINE
  5
26E
100
AcDbEntity
  8
0
100
AcDbLine
 62
7
  6
CONTINUOUS
 10
154.7999683673
 20
96.1814127551
 11
139.0999683673
 21
96.1814127551
  0
LINE
  5
26F
100
AcDbEntity
  8
IMPORT_IGES
100
AcDbLine
 62
7
  6
CONTINUOUS
 10
165.6984983673
 20
96.5828827551
 11
164.0014383673
 21
96.5828827551
  0
LINE
  5
270
100
AcDbEntity
  8
0
100
AcDbLine
 62
7
  6
CONTINUOUS
 10
164.0014383673
 20
96.9114127551
 11
165.6984983673
 21
96.9114127551
  0
LINE
  5
271
100
AcDbEntity
  8
IMPORT_IGES
100
AcDbLine
 62
7
  6
CONTINUOUS
 10
149.5999683673
 20
106.4314127551
 11
149.5999683673
 21
97.9314127551
  0
LINE
  5
272
100
AcDbEntity
  8
IMPORT_IGES
100
AcDbLine
 62
7
  6
CONTINUOUS
 10
149.5999683673
 20
97.9314127551
 11
141.0999683673
 21
97.9314127551
  0
LINE
  5
273
100
AcDbEntity
  8
IMPORT_IGES
100
AcDbLine
 62
7
  6
CONTINUOUS
 10
173.4387633673
 20
98.2314127551
 11
171.8387633673
 21
98.2314127551
  0
LINE
  5
274
100
AcDbEntity
  8
IMPORT_IGES
100
AcDbLine
 62
7
  6
CONTINUOUS
 10
170.0387633673
 20
98.2314127551
 11
168.4387633673
 21
98.2314127551
  0
LINE
  5
275
100
AcDbEntity
  8
IMPORT_IGES
100
AcDbLine
 62
7
  6
CONTINUOUS
 10
170.0387633673
 20
98.8314127551
 11
171.8387633673
 21
98.8314127551
  0
LINE
  5
276
100
AcDbEntity
  8
IMPORT_IGES
100
AcDbLine
 62
7
  6
CONTINUOUS
 10
150.7499683673
 20
100.1314127551
 11
150.7499683673
 21
102.7314127551
  0
LINE
  5
277
100
AcDbEntity
  8
IMPORT_IGES
100
AcDbLine
 62
7
  6
CONTINUOUS
 10
150.7499683673
 20
108.1314127551
 11
150.7499683673
 21
110.7314127551
  0
LINE
  5
278
100
AcDbEntity
  8
RACCORDO
100
AcDbLine
 62
7
  6
CONTINUOUS
 10
158.7999683673
 20
99.0314127551
 11
155.3999683673
 21
99.0314127551
  0
LINE
  5
279
100
AcDbEntity
  8
IMPORT_IGES
100
AcDbLine
 62
7
  6
CONTINUOUS
 10
173.1387633673
 20
99.1314127551
 11
171.5387633673
 21
99.1314127551
  0
LINE
  5
27A
100
AcDbEntity
  8
IMPORT_IGES
100
AcDbLine
 62
7
  6
CONTINUOUS
 10
168.7387633673
 20
99.1314127551
 11
170.3387633673
 21
99.1314127551
  0
LINE
  5
27B
100
AcDbEntity
  8
IMPORT_IGES
100
AcDbLine
 62
253
  6
CONTINUOUS
 10
171.5387633673
 20
99.4314127551
 11
170.3387633673
 21
99.4314127551
  0
LINE
  5
27C
100
AcDbEntity
  8
IMPORT_IGES
100
AcDbLine
 62
7
  6
CONTINUOUS
 10
168.4387633673
 20
99.4314127551
 11
168.7387633673
 21
99.4314127551
  0
LINE
  5
27D
100
AcDbEntity
  8
IMPORT_IGES
100
AcDbLine
 62
7
  6
CONTINUOUS
 10
173.1387633673
 20
99.4314127551
 11
173.4387633673
 21
99.4314127551
  0
LINE
  5
27E
100
AcDbEntity
  8
IMPORT_IGES
100
AcDbLine
 62
7
  6
CONTINUOUS
 10
170.3387633673
 20
99.6314127551
 11
171.5387633673
 21
99.6314127551
  0
LINE
  5
27F
100
AcDbEntity
  8
IMPORT_IGES
100
AcDbLine
 62
7
  6
CONTINUOUS
 10
160.9499683673
 20
100.1314127551
 11
150.7499683673
 21
100.1314127551
  0
LINE
  5
280
100
AcDbEntity
  8
IMPORT_IGES
100
AcDbLine
 62
7
  6
CONTINUOUS
 10
174.6387633673
 20
100.1814127551
 11
165.6387633673
 21
100.1814127551
  0
LINE
  5
281
100
AcDbEntity
  8
IMPORT_IGES
100
AcDbLine
 62
253
  6
CONTINUOUS
 10
174.6387633673
 20
100.4814127551
 11
165.6387633673
 21
100.4814127551
  0
LINE
  5
282
100
AcDbEntity
  8
IMPORT_IGES
100
AcDbLine
 62
7
  6
CONTINUOUS
 10
167.7387633673
 20
101.1814127551
 11
168.5387633673
 21
101.1814127551
  0
LINE
  5
283
100
AcDbEntity
  8
IMPORT_IGES
100
AcDbLine
 62
7
  6
CONTINUOUS
 10
165.6387633673
 20
101.2814127551
 11
163.8387633673
 21
101.2814127551
  0
LINE
  5
284
100
AcDbEntity
  8
IMPORT_IGES
100
AcDbLine
 62
7
  6
CONTINUOUS
 10
163.8387633673
 20
102.0814127551
 11
165.6387633673
 21
102.0814127551
  0
LINE
  5
285
100
AcDbEntity
  8
IMPORT_IGES
100
AcDbLine
 62
7
  6
CONTINUOUS
 10
168.5387633673
 20
102.1814127551
 11
167.7387633673
 21
102.1814127551
  0
LINE
  5
286
100
AcDbEntity
  8
IMPORT_IGES
100
AcDbLine
 62
7
  6
CONTINUOUS
 10
150.7499683673
 20
102.7314127551
 11
160.9499683673
 21
102.7314127551
  0
LINE
  5
287
100
AcDbEntity
  8
RACCORDO
100
AcDbLine
 62
7
  6
CONTINUOUS
 10
154.7999683673
 20
96.1814127551
 11
154.7999683673
 21
98.4314127551
  0
LINE
  5
288
100
AcDbEntity
  8
IMPORT_IGES
100
AcDbLine
 62
7
  6
CONTINUOUS
 10
167.7387633673
 20
103.6814127551
 11
168.5387633673
 21
103.6814127551
  0
LINE
  5
289
100
AcDbEntity
  8
IMPORT_IGES
100
AcDbLine
 62
7
  6
CONTINUOUS
 10
165.6387633673
 20
103.7814127551
 11
163.8387633673
 21
103.7814127551
  0
LINE
  5
28A
100
AcDbEntity
  8
IMPORT_IGES
100
AcDbLine
 62
7
  6
CONTINUOUS
 10
165.6387633673
 20
104.5814127551
 11
163.8387633673
 21
104.5814127551
  0
LINE
  5
28B
100
AcDbEntity
  8
IMPORT_IGES
100
AcDbLine
 62
7
  6
CONTINUOUS
 10
167.7387633673
 20
104.6814127551
 11
168.5387633673
 21
104.6814127551
  0
LINE
  5
28C
100
AcDbEntity
  8
IMPORT_IGES
100
AcDbLine
 62
7
  6
CONTINUOUS
 10
168.5387633673
 20
106.1814127551
 11
167.7387633673
 21
106.1814127551
  0
LINE
  5
28D
100
AcDbEntity
  8
IMPORT_IGES
100
AcDbLine
 62
7
  6
CONTINUOUS
 10
165.6387633673
 20
106.2814127551
 11
163.8387633673
 21
106.2814127551
  0
LINE
  5
28E
100
AcDbEntity
  8
IMPORT_IGES
100
AcDbLine
 62
7
  6
CONTINUOUS
 10
142.0999683673
 20
106.4314127551
 11
149.5999683673
 21
106.4314127551
  0
LINE
  5
28F
100
AcDbEntity
  8
RACCORDO
100
AcDbLine
 62
7
  6
CONTINUOUS
 10
159.3999683673
 20
96.1814127551
 11
159.3999683673
 21
98.4314127551
  0
LINE
  5
290
100
AcDbEntity
  8
IMPORT_IGES
100
AcDbLine
 62
7
  6
CONTINUOUS
 10
165.6387633673
 20
107.0814127551
 11
163.8387633673
 21
107.0814127551
  0
LINE
  5
291
100
AcDbEntity
  8
IMPORT_IGES
100
AcDbLine
 62
7
  6
CONTINUOUS
 10
167.7387633673
 20
107.1814127551
 11
168.5387633673
 21
107.1814127551
  0
LINE
  5
292
100
AcDbEntity
  8
IMPORT_IGES
100
AcDbLine
 62
7
  6
CONTINUOUS
 10
146.1999683673
 20
107.6314127551
 11
142.9999683673
 21
107.6314127551
  0
LINE
  5
293
100
AcDbEntity
  8
IMPORT_IGES
100
AcDbLine
 62
7
  6
CONTINUOUS
 10
160.9499683673
 20
108.1314127551
 11
150.7499683673
 21
108.1314127551
  0
LINE
  5
294
100
AcDbEntity
  8
IMPORT_IGES
100
AcDbLine
 62
7
  6
CONTINUOUS
 10
160.9499683673
 20
110.7314127551
 11
160.9499683673
 21
108.1314127551
  0
LINE
  5
295
100
AcDbEntity
  8
IMPORT_IGES
100
AcDbLine
 62
7
  6
CONTINUOUS
 10
160.9499683673
 20
102.7314127551
 11
160.9499683673
 21
100.1314127551
  0
LINE
  5
296
100
AcDbEntity
  8
IMPORT_IGES
100
AcDbLine
 62
7
  6
CONTINUOUS
 10
168.5387633673
 20
108.6814127551
 11
167.7387633673
 21
108.6814127551
  0
LINE
  5
297
100
AcDbEntity
  8
IMPORT_IGES
100
AcDbLine
 62
7
  6
CONTINUOUS
 10
165.6387633673
 20
108.7814127551
 11
163.8387633673
 21
108.7814127551
  0
LINE
  5
298
100
AcDbEntity
  8
IMPORT_IGES
100
AcDbLine
 62
7
  6
CONTINUOUS
 10
142.9999683673
 20
109.2314127551
 11
146.1999683673
 21
109.2314127551
  0
LINE
  5
299
100
AcDbEntity
  8
IMPORT_IGES
100
AcDbLine
 62
7
  6
CONTINUOUS
 10
165.6387633673
 20
109.5814127551
 11
163.8387633673
 21
109.5814127551
  0
LINE
  5
29A
100
AcDbEntity
  8
IMPORT_IGES
100
AcDbLine
 62
7
  6
CONTINUOUS
 10
167.7387633673
 20
109.6814127551
 11
168.5387633673
 21
109.6814127551
  0
LINE
  5
29B
100
AcDbEntity
  8
IMPORT_IGES
100
AcDbLine
 62
7
  6
CONTINUOUS
 10
147.2999683673
 20
110.0314127551
 11
141.8999683673
 21
110.0314127551
  0
LINE
  5
29C
100
AcDbEntity
  8
IMPORT_IGES
100
AcDbLine
 62
253
  6
CONTINUOUS
 10
174.6387633673
 20
110.3814127551
 11
165.6387633673
 21
110.3814127551
  0
LINE
  5
29D
100
AcDbEntity
  8
IMPORT_IGES
100
AcDbLine
 62
7
  6
CONTINUOUS
 10
174.6387633673
 20
110.6814127551
 11
165.6387633673
 21
110.6814127551
  0
LINE
  5
29E
100
AcDbEntity
  8
IMPORT_IGES
100
AcDbLine
 62
7
  6
CONTINUOUS
 10
150.7499683673
 20
110.7314127551
 11
160.9499683673
 21
110.7314127551
  0
LINE
  5
29F
100
AcDbEntity
  8
IMPORT_IGES
100
AcDbLine
 62
7
  6
CONTINUOUS
 10
163.6387633673
 20
104.3814127551
 11
163.6387633673
 21
103.9814127551
  0
LINE
  5
2A0
100
AcDbEntity
  8
IMPORT_IGES
100
AcDbLine
 62
7
  6
CONTINUOUS
 10
163.6387633673
 20
101.4814127551
 11
163.6387633673
 21
101.8814127551
  0
LINE
  5
2A1
100
AcDbEntity
  8
IMPORT_IGES
100
AcDbLine
 62
7
  6
CONTINUOUS
 10
163.6387633673
 20
106.4814127551
 11
163.6387633673
 21
106.8814127551
  0
LINE
  5
2A2
100
AcDbEntity
  8
IMPORT_IGES
100
AcDbLine
 62
7
  6
CONTINUOUS
 10
163.6387633673
 20
108.9814127551
 11
163.6387633673
 21
109.3814127551
  0
LINE
  5
2A3
100
AcDbEntity
  8
0
100
AcDbLine
 62
7
  6
CONTINUOUS
 10
164.0014383673
 20
96.5828827551
 11
164.0014383673
 21
96.9114127551
  0
LINE
  5
2A4
100
AcDbEntity
  8
IMPORT_IGES
100
AcDbLine
 62
7
  6
CONTINUOUS
 10
171.5387633673
 20
111.2314127551
 11
170.3387633673
 21
111.2314127551
  0
LINE
  5
2A5
100
AcDbEntity
  8
IMPORT_IGES
100
AcDbLine
 62
7
  6
CONTINUOUS
 10
173.4387633673
 20
111.4314127551
 11
173.1387633673
 21
111.4314127551
  0
LINE
  5
2A6
100
AcDbEntity
  8
IMPORT_IGES
100
AcDbLine
 62
253
  6
CONTINUOUS
 10
171.5387633673
 20
111.4314127551
 11
170.3387633673
 21
111.4314127551
  0
LINE
  5
2A7
100
AcDbEntity
  8
IMPORT_IGES
100
AcDbLine
 62
7
  6
CONTINUOUS
 10
168.7387633673
 20
111.4314127551
 11
168.4387633673
 21
111.4314127551
  0
LINE
  5
2A8
100
AcDbEntity
  8
IMPORT_IGES
100
AcDbLine
 62
7
  6
CONTINUOUS
 10
168.7387633673
 20
111.7314127551
 11
170.3387633673
 21
111.7314127551
  0
LINE
  5
2A9
100
AcDbEntity
  8
IMPORT_IGES
100
AcDbLine
 62
7
  6
CONTINUOUS
 10
171.5387633673
 20
111.7314127551
 11
173.1387633673
 21
111.7314127551
  0
LINE
  5
2AA
100
AcDbEntity
  8
IMPORT_IGES
100
AcDbLine
 62
7
  6
CONTINUOUS
 10
170.0387633673
 20
112.0314127551
 11
171.8387633673
 21
112.0314127551
  0
LINE
  5
2AB
100
AcDbEntity
  8
IMPORT_IGES
100
AcDbLine
 62
7
  6
CONTINUOUS
 10
141.4484983673
 20
112.5828827551
 11
139.7514383673
 21
112.5828827551
  0
LINE
  5
2AC
100
AcDbEntity
  8
IMPORT_IGES
100
AcDbLine
 62
7
  6
CONTINUOUS
 10
168.4387633673
 20
112.6314127551
 11
170.0387633673
 21
112.6314127551
  0
LINE
  5
2AD
100
AcDbEntity
  8
IMPORT_IGES
100
AcDbLine
 62
7
  6
CONTINUOUS
 10
171.8387633673
 20
112.6314127551
 11
173.4387633673
 21
112.6314127551
  0
LINE
  5
2AE
100
AcDbEntity
  8
IMPORT_IGES
100
AcDbLine
 62
7
  6
CONTINUOUS
 10
141.8999683673
 20
112.8314127551
 11
147.2999683673
 21
112.8314127551
  0
LINE
  5
2AF
100
AcDbEntity
  8
IMPORT_IGES
100
AcDbLine
 62
7
  6
CONTINUOUS
 10
165.6387633673
 20
100.1814127551
 11
165.6387633673
 21
110.6814127551
  0
LINE
  5
2B0
100
AcDbEntity
  8
0
100
AcDbLine
 62
7
  6
CONTINUOUS
 10
165.6984983673
 20
96.9114127551
 11
165.6984983673
 21
96.5828827551
  0
LINE
  5
2B1
100
AcDbEntity
  8
IMPORT_IGES
100
AcDbLine
 62
7
  6
CONTINUOUS
 10
139.7514383673
 20
114.2799427551
 11
141.4484983673
 21
114.2799427551
  0
LINE
  5
2B2
100
AcDbEntity
  8
0
100
AcDbLine
 62
7
  6
CONTINUOUS
 10
175.0999683673
 20
114.7814127551
 11
139.0999683673
 21
114.7814127551
  0
LINE
  5
2B3
100
AcDbEntity
  8
IMPORT_IGES
100
AcDbLine
 62
7
  6
CONTINUOUS
 10
167.6387633673
 20
102.0814127551
 11
167.6387633673
 21
101.2814127551
  0
LINE
  5
2B4
100
AcDbEntity
  8
IMPORT_IGES
100
AcDbLine
 62
7
  6
CONTINUOUS
 10
167.6387633673
 20
103.7814127551
 11
167.6387633673
 21
104.5814127551
  0
LINE
  5
2B5
100
AcDbEntity
  8
IMPORT_IGES
100
AcDbLine
 62
7
  6
CONTINUOUS
 10
167.6387633673
 20
106.2814127551
 11
167.6387633673
 21
107.0814127551
  0
LINE
  5
2B6
100
AcDbEntity
  8
IMPORT_IGES
100
AcDbLine
 62
7
  6
CONTINUOUS
 10
167.6387633673
 20
108.7814127551
 11
167.6387633673
 21
109.5814127551
  0
LINE
  5
2B7
100
AcDbEntity
  8
IMPORT_IGES
100
AcDbLine
 62
7
  6
CONTINUOUS
 10
168.4387633673
 20
98.2314127551
 11
168.4387633673
 21
99.4314127551
  0
LINE
  5
2B8
100
AcDbEntity
  8
IMPORT_IGES
100
AcDbLine
 62
7
  6
CONTINUOUS
 10
168.4387633673
 20
111.4314127551
 11
168.4387633673
 21
112.6314127551
  0
LINE
  5
2B9
100
AcDbEntity
  8
IMPORT_IGES
100
AcDbLine
 62
7
  6
CONTINUOUS
 10
168.6387633673
 20
109.5814127551
 11
168.6387633673
 21
108.7814127551
  0
LINE
  5
2BA
100
AcDbEntity
  8
IMPORT_IGES
100
AcDbLine
 62
7
  6
CONTINUOUS
 10
168.6387633673
 20
107.0814127551
 11
168.6387633673
 21
106.2814127551
  0
LINE
  5
2BB
100
AcDbEntity
  8
IMPORT_IGES
100
AcDbLine
 62
7
  6
CONTINUOUS
 10
168.6387633673
 20
104.5814127551
 11
168.6387633673
 21
103.7814127551
  0
LINE
  5
2BC
100
AcDbEntity
  8
IMPORT_IGES
100
AcDbLine
 62
7
  6
CONTINUOUS
 10
168.6387633673
 20
101.2814127551
 11
168.6387633673
 21
102.0814127551
  0
LINE
  5
2BD
100
AcDbEntity
  8
IMPORT_IGES
100
AcDbLine
 62
7
  6
CONTINUOUS
 10
168.7387633673
 20
111.7314127551
 11
168.7387633673
 21
110.6814127551
  0
LINE
  5
2BE
100
AcDbEntity
  8
IMPORT_IGES
100
AcDbLine
 62
7
  6
CONTINUOUS
 10
168.7387633673
 20
99.1314127551
 11
168.7387633673
 21
100.1814127551
  0
LINE
  5
2BF
100
AcDbEntity
  8
IMPORT_IGES
100
AcDbLine
 62
253
  6
CONTINUOUS
 10
168.7973420111
 20
100.1814127551
 11
168.7973420111
 21
99.1314127551
  0
LINE
  5
2C0
100
AcDbEntity
  8
IMPORT_IGES
100
AcDbLine
 62
253
  6
CONTINUOUS
 10
168.7973420111
 20
110.6814127551
 11
168.7973420111
 21
111.7314127551
  0
LINE
  5
2C1
100
AcDbEntity
  8
IMPORT_IGES
100
AcDbLine
 62
253
  6
CONTINUOUS
 10
168.9801847236
 20
99.1314127551
 11
168.9801847236
 21
100.1814127551
  0
LINE
  5
2C2
100
AcDbEntity
  8
IMPORT_IGES
100
AcDbLine
 62
253
  6
CONTINUOUS
 10
168.9801847236
 20
110.6814127551
 11
168.9801847236
 21
111.7314127551
  0
LINE
  5
2C3
100
AcDbEntity
  8
IMPORT_IGES
100
AcDbLine
 62
7
  6
CONTINUOUS
 10
169.0387633673
 20
111.7314127551
 11
169.0387633673
 21
110.6814127551
  0
LINE
  5
2C4
100
AcDbEntity
  8
IMPORT_IGES
100
AcDbLine
 62
7
  6
CONTINUOUS
 10
169.0387633673
 20
100.1814127551
 11
169.0387633673
 21
99.1314127551
  0
LINE
  5
2C5
100
AcDbEntity
  8
IMPORT_IGES
100
AcDbLine
 62
253
  6
CONTINUOUS
 10
169.2387633673
 20
100.1814127551
 11
169.2387633673
 21
99.1314127551
  0
LINE
  5
2C6
100
AcDbEntity
  8
IMPORT_IGES
100
AcDbLine
 62
253
  6
CONTINUOUS
 10
169.2387633673
 20
110.6814127551
 11
169.2387633673
 21
111.7314127551
  0
LINE
  5
2C7
100
AcDbEntity
  8
IMPORT_IGES
100
AcDbLine
 62
7
  6
CONTINUOUS
 10
170.0387633673
 20
98.8314127551
 11
170.0387633673
 21
98.2314127551
  0
LINE
  5
2C8
100
AcDbEntity
  8
IMPORT_IGES
100
AcDbLine
 62
7
  6
CONTINUOUS
 10
170.0387633673
 20
112.0314127551
 11
170.0387633673
 21
112.6314127551
  0
LINE
  5
2C9
100
AcDbEntity
  8
IMPORT_IGES
100
AcDbLine
 62
7
  6
CONTINUOUS
 10
170.3387633673
 20
99.6314127551
 11
170.3387633673
 21
99.1314127551
  0
LINE
  5
2CA
100
AcDbEntity
  8
IMPORT_IGES
100
AcDbLine
 62
7
  6
CONTINUOUS
 10
170.3387633673
 20
111.2314127551
 11
170.3387633673
 21
111.7314127551
  0
LINE
  5
2CB
100
AcDbEntity
  8
IMPORT_IGES
100
AcDbLine
 62
7
  6
CONTINUOUS
 10
171.5387633673
 20
111.7314127551
 11
171.5387633673
 21
111.2314127551
  0
LINE
  5
2CC
100
AcDbEntity
  8
IMPORT_IGES
100
AcDbLine
 62
7
  6
CONTINUOUS
 10
171.5387633673
 20
99.6314127551
 11
171.5387633673
 21
99.1314127551
  0
LINE
  5
2CD
100
AcDbEntity
  8
IMPORT_IGES
100
AcDbLine
 62
7
  6
CONTINUOUS
 10
171.8387633673
 20
98.2314127551
 11
171.8387633673
 21
98.8314127551
  0
LINE
  5
2CE
100
AcDbEntity
  8
IMPORT_IGES
100
AcDbLine
 62
7
  6
CONTINUOUS
 10
171.8387633673
 20
112.0314127551
 11
171.8387633673
 21
112.6314127551
  0
LINE
  5
2CF
100
AcDbEntity
  8
IMPORT_IGES
100
AcDbLine
 62
253
  6
CONTINUOUS
 10
172.6387633673
 20
111.7314127551
 11
172.6387633673
 21
110.6814127551
  0
LINE
  5
2D0
100
AcDbEntity
  8
IMPORT_IGES
100
AcDbLine
 62
253
  6
CONTINUOUS
 10
172.6387633673
 20
100.1814127551
 11
172.6387633673
 21
99.1314127551
  0
LINE
  5
2D1
100
AcDbEntity
  8
IMPORT_IGES
100
AcDbLine
 62
7
  6
CONTINUOUS
 10
172.8387633673
 20
100.1814127551
 11
172.8387633673
 21
99.1314127551
  0
LINE
  5
2D2
100
AcDbEntity
  8
IMPORT_IGES
100
AcDbLine
 62
7
  6
CONTINUOUS
 10
172.8387633673
 20
110.6814127551
 11
172.8387633673
 21
111.7314127551
  0
LINE
  5
2D3
100
AcDbEntity
  8
IMPORT_IGES
100
AcDbLine
 62
253
  6
CONTINUOUS
 10
172.8973420111
 20
111.7314127551
 11
172.8973420111
 21
110.6814127551
  0
LINE
  5
2D4
100
AcDbEntity
  8
IMPORT_IGES
100
AcDbLine
 62
253
  6
CONTINUOUS
 10
172.8973420111
 20
99.1314127551
 11
172.8973420111
 21
100.1814127551
  0
LINE
  5
2D5
100
AcDbEntity
  8
IMPORT_IGES
100
AcDbLine
 62
253
  6
CONTINUOUS
 10
173.0801847236
 20
99.1314127551
 11
173.0801847236
 21
100.1814127551
  0
LINE
  5
2D6
100
AcDbEntity
  8
IMPORT_IGES
100
AcDbLine
 62
253
  6
CONTINUOUS
 10
173.0801847236
 20
110.6814127551
 11
173.0801847236
 21
111.7314127551
  0
LINE
  5
2D7
100
AcDbEntity
  8
IMPORT_IGES
100
AcDbLine
 62
7
  6
CONTINUOUS
 10
173.1387633673
 20
111.7314127551
 11
173.1387633673
 21
110.6814127551
  0
LINE
  5
2D8
100
AcDbEntity
  8
IMPORT_IGES
100
AcDbLine
 62
7
  6
CONTINUOUS
 10
173.1387633673
 20
99.1314127551
 11
173.1387633673
 21
100.1814127551
  0
LINE
  5
2D9
100
AcDbEntity
  8
IMPORT_IGES
100
AcDbLine
 62
7
  6
CONTINUOUS
 10
173.4387633673
 20
112.6314127551
 11
173.4387633673
 21
111.4314127551
  0
LINE
  5
2DA
100
AcDbEntity
  8
IMPORT_IGES
100
AcDbLine
 62
7
  6
CONTINUOUS
 10
173.4387633673
 20
99.4314127551
 11
173.4387633673
 21
98.2314127551
  0
LINE
  5
2DB
100
AcDbEntity
  8
IMPORT_IGES
100
AcDbLine
 62
7
  6
CONTINUOUS
 10
174.6387633673
 20
100.1814127551
 11
174.6387633673
 21
110.6814127551
  0
LINE
  5
2DC
100
AcDbEntity
  8
0
100
AcDbLine
 62
7
  6
CONTINUOUS
 10
175.0999683673
 20
96.1814127551
 11
175.0999683673
 21
114.7814127551
  0
LINE
  5
2DD
100
AcDbEntity
  8
IMPORT_IGES
100
AcDbLine
 62
7
  6
CONTINUOUS
 10
115.9866910978
 20
96.1814127551
 11
117.1866910978
 21
96.1814127551
  0
LINE
  5
2DE
100
AcDbEntity
  8
0
100
AcDbLine
 62
7
  6
CONTINUOUS
 10
117.5866910978
 20
96.2314127551
 11
117.1866910978
 21
96.2314127551
  0
LINE
  5
2DF
100
AcDbEntity
  8
IMPORT_IGES
100
AcDbLine
 62
7
  6
CONTINUOUS
 10
114.7866884637
 20
96.5828827551
 11
115.9866910978
 21
96.5828827551
  0
LINE
  5
2E0
100
AcDbEntity
  8
0
100
AcDbLine
 62
7
  6
CONTINUOUS
 10
115.9866910978
 20
96.9114127551
 11
114.7866884637
 21
96.9114127551
  0
LINE
  5
2E1
100
AcDbEntity
  8
0
100
AcDbLine
 62
7
  6
CONTINUOUS
 10
118.3866937319
 20
97.0828827551
 11
117.5866910978
 21
97.0828827551
  0
LINE
  5
2E2
100
AcDbEntity
  8
IMPORT_IGES
100
AcDbLine
 62
7
  6
CONTINUOUS
 10
118.5866910978
 20
98.4601525523
 11
118.3866937319
 21
98.44265505
  0
LINE
  5
2E3
100
AcDbEntity
  8
IMPORT_IGES
100
AcDbLine
 62
7
  6
CONTINUOUS
 10
112.7866910978
 20
97.9314127551
 11
115.9866910978
 21
97.9314127551
  0
LINE
  5
2E4
100
AcDbEntity
  8
IMPORT_IGES
100
AcDbLine
 62
7
  6
CONTINUOUS
 10
115.9866910978
 20
98.2314127551
 11
115.6883890978
 21
98.2314127551
  0
LINE
  5
2E5
100
AcDbEntity
  8
0
100
AcDbLine
 62
7
  6
CONTINUOUS
 10
118.3866937319
 20
98.7799427551
 11
117.5866910978
 21
98.7799427551
  0
LINE
  5
2E6
100
AcDbEntity
  8
IMPORT_IGES
100
AcDbLine
 62
7
  6
CONTINUOUS
 10
114.9883890978
 20
99.1314127551
 11
111.9883892222
 21
99.1314127551
  0
LINE
  5
2E7
100
AcDbEntity
  8
0
100
AcDbLine
 62
7
  6
CONTINUOUS
 10
117.8366910978
 20
99.1814127551
 11
117.5866910978
 21
99.1814127551
  0
LINE
  5
2E8
100
AcDbEntity
  8
0
100
AcDbLine
 62
7
  6
CONTINUOUS
 10
117.9866910978
 20
99.3314127551
 11
117.5866910978
 21
99.3314127551
  0
LINE
  5
2E9
100
AcDbEntity
  8
IMPORT_IGES
100
AcDbLine
 62
7
  6
CONTINUOUS
 10
115.9866910978
 20
99.4314127551
 11
115.6883890978
 21
99.4314127551
  0
LINE
  5
2EA
100
AcDbEntity
  8
IMPORT_IGES
100
AcDbLine
 62
7
  6
CONTINUOUS
 10
114.9883890978
 20
99.6314127551
 11
115.4883890978
 21
99.6314127551
  0
LINE
  5
2EB
100
AcDbEntity
  8
IMPORT_IGES
100
AcDbLine
 62
7
  6
CONTINUOUS
 10
108.6366910978
 20
110.7314127551
 11
108.6366910978
 21
108.1314127551
  0
LINE
  5
2EC
100
AcDbEntity
  8
IMPORT_IGES
100
AcDbLine
 62
7
  6
CONTINUOUS
 10
108.6366910978
 20
102.7314127551
 11
108.6366910978
 21
100.1314127551
  0
LINE
  5
2ED
100
AcDbEntity
  8
IMPORT_IGES
100
AcDbLine
 62
7
  6
CONTINUOUS
 10
114.9883890978
 20
99.9314127551
 11
115.4883890978
 21
99.9314127551
  0
LINE
  5
2EE
100
AcDbEntity
  8
IMPORT_IGES
100
AcDbLine
 62
7
  6
CONTINUOUS
 10
108.6366910978
 20
100.1314127551
 11
111.9883890978
 21
100.1314127551
  0
LINE
  5
2EF
100
AcDbEntity
  8
IMPORT_IGES
100
AcDbLine
 62
7
  6
CONTINUOUS
 10
114.9883890978
 20
100.1314127551
 11
115.9866910978
 21
100.1314127551
  0
LINE
  5
2F0
100
AcDbEntity
  8
IMPORT_IGES
100
AcDbLine
 62
7
  6
CONTINUOUS
 10
115.9866910978
 20
100.1814127551
 11
111.2883890978
 21
100.1814127551
  0
LINE
  5
2F1
100
AcDbEntity
  8
0
100
AcDbLine
 62
7
  6
CONTINUOUS
 10
117.9866910978
 20
100.5314127551
 11
117.5866910978
 21
100.5314127551
  0
LINE
  5
2F2
100
AcDbEntity
  8
IMPORT_IGES
100
AcDbLine
 62
7
  6
CONTINUOUS
 10
114.4175687046
 20
100.5814127551
 11
115.0592094911
 21
100.5814127551
  0
LINE
  5
2F3
100
AcDbEntity
  8
IMPORT_IGES
100
AcDbLine
 62
7
  6
CONTINUOUS
 10
112.3507624427
 20
100.6814127551
 11
113.3883890978
 21
100.6814127551
  0
LINE
  5
2F4
100
AcDbEntity
  8
0
100
AcDbLine
 62
7
  6
CONTINUOUS
 10
117.5866910978
 20
100.6814127551
 11
117.8366910978
 21
100.6814127551
  0
LINE
  5
2F5
100
AcDbEntity
  8
IMPORT_IGES
100
AcDbLine
 62
253
  6
CONTINUOUS
 10
112.2472348246
 20
100.7814127551
 11
112.4883890978
 21
100.7814127551
  0
LINE
  5
2F6
100
AcDbEntity
  8
0
100
AcDbLine
 62
7
  6
CONTINUOUS
 10
117.9866910978
 20
100.8314127551
 11
117.5866910978
 21
100.8314127551
  0
LINE
  5
2F7
100
AcDbEntity
  8
IMPORT_IGES
100
AcDbLine
 62
7
  6
CONTINUOUS
 10
114.4175687046
 20
100.8814127551
 11
115.0592094911
 21
100.8814127551
  0
LINE
  5
2F8
100
AcDbEntity
  8
0
100
AcDbLine
 62
7
  6
CONTINUOUS
 10
117.7866910978
 20
101.9564127551
 11
117.5866910978
 21
101.9564127551
  0
LINE
  5
2F9
100
AcDbEntity
  8
0
100
AcDbLine
 62
7
  6
CONTINUOUS
 10
117.9866910978
 20
102.0314127551
 11
117.7866910978
 21
102.0314127551
  0
LINE
  5
2FA
100
AcDbEntity
  8
IMPORT_IGES
100
AcDbLine
 62
7
  6
CONTINUOUS
 10
118.5866910978
 20
101.4026729579
 11
117.9866910978
 21
101.455166156
  0
LINE
  5
2FB
100
AcDbEntity
  8
IMPORT_IGES
100
AcDbLine
 62
7
  6
CONTINUOUS
 10
110.9883890978
 20
100.4814127551
 11
110.9883890978
 21
110.3814127551
  0
LINE
  5
2FC
100
AcDbEntity
  8
0
100
AcDbLine
 62
7
  6
CONTINUOUS
 10
117.8866910978
 20
102.2314127551
 11
117.7866910978
 21
102.2314127551
  0
LINE
  5
2FD
100
AcDbEntity
  8
IMPORT_IGES
100
AcDbLine
 62
7
  6
CONTINUOUS
 10
115.0592094911
 20
102.4814127551
 11
114.4175687046
 21
102.4814127551
  0
LINE
  5
2FE
100
AcDbEntity
  8
IMPORT_IGES
100
AcDbLine
 62
253
  6
CONTINUOUS
 10
112.4883890978
 20
102.5814127551
 11
112.2472348246
 21
102.5814127551
  0
LINE
  5
2FF
100
AcDbEntity
  8
0
100
AcDbLine
 62
7
  6
CONTINUOUS
 10
117.8866910978
 20
102.5814127551
 11
117.9866910978
 21
102.5814127551
  0
LINE
  5
300
100
AcDbEntity
  8
IMPORT_IGES
100
AcDbLine
 62
7
  6
CONTINUOUS
 10
113.3883890978
 20
102.6814127551
 11
112.3507624427
 21
102.6814127551
  0
LINE
  5
301
100
AcDbEntity
  8
IMPORT_IGES
100
AcDbLine
 62
7
  6
CONTINUOUS
 10
108.6366910978
 20
102.7314127551
 11
110.9883890978
 21
102.7314127551
  0
LINE
  5
302
100
AcDbEntity
  8
IMPORT_IGES
100
AcDbLine
 62
253
  6
CONTINUOUS
 10
115.208280914
 20
109.9147457458
 11
115.4318880485
 21
110.114745232
  0
LINE
  5
303
100
AcDbEntity
  8
IMPORT_IGES
100
AcDbLine
 62
7
  6
CONTINUOUS
 10
115.0592094911
 20
102.7814127551
 11
114.4175687046
 21
102.7814127551
  0
LINE
  5
304
100
AcDbEntity
  8
0
100
AcDbLine
 62
7
  6
CONTINUOUS
 10
118.6866910978
 20
102.8314127551
 11
117.7866910978
 21
102.8314127551
  0
LINE
  5
305
100
AcDbEntity
  8
0
100
AcDbLine
 62
7
  6
CONTINUOUS
 10
117.7866910978
 20
102.9064127551
 11
117.5866910978
 21
102.9064127551
  0
LINE
  5
306
100
AcDbEntity
  8
IMPORT_IGES
100
AcDbLine
 62
7
  6
CONTINUOUS
 10
115.0592094911
 20
103.0814127551
 11
114.4175687046
 21
103.0814127551
  0
LINE
  5
307
100
AcDbEntity
  8
IMPORT_IGES
100
AcDbLine
 62
7
  6
CONTINUOUS
 10
112.3507624427
 20
103.1814127551
 11
113.3883890978
 21
103.1814127551
  0
LINE
  5
308
100
AcDbEntity
  8
IMPORT_IGES
100
AcDbLine
 62
253
  6
CONTINUOUS
 10
112.2472348246
 20
103.2814127551
 11
112.4883890978
 21
103.2814127551
  0
LINE
  5
309
100
AcDbEntity
  8
IMPORT_IGES
100
AcDbLine
 62
7
  6
CONTINUOUS
 10
115.0592094911
 20
103.3814127551
 11
114.4175687046
 21
103.3814127551
  0
LINE
  5
30A
100
AcDbEntity
  8
IMPORT_IGES
100
AcDbLine
 62
253
  6
CONTINUOUS
 10
115.4318880485
 20
100.7480802782
 11
115.208280914
 21
100.9480797644
  0
LINE
  5
30B
100
AcDbEntity
  8
IMPORT_IGES
100
AcDbLine
 62
7
  6
CONTINUOUS
 10
111.9883890978
 20
111.7314127551
 11
111.9883890978
 21
110.6814127551
  0
LINE
  5
30C
100
AcDbEntity
  8
IMPORT_IGES
100
AcDbLine
 62
7
  6
CONTINUOUS
 10
111.9883890978
 20
100.1814127551
 11
111.9883890978
 21
99.1314127551
  0
LINE
  5
30D
100
AcDbEntity
  8
IMPORT_IGES
100
AcDbLine
 62
253
  6
CONTINUOUS
 10
112.1883890978
 20
100.1814127551
 11
112.1883890978
 21
99.1314127551
  0
LINE
  5
30E
100
AcDbEntity
  8
IMPORT_IGES
100
AcDbLine
 62
253
  6
CONTINUOUS
 10
112.1883890978
 20
110.6814127551
 11
112.1883890978
 21
111.7314127551
  0
LINE
  5
30F
100
AcDbEntity
  8
IMPORT_IGES
100
AcDbLine
 62
7
  6
CONTINUOUS
 10
112.2472348246
 20
105.0814127551
 11
112.2472348246
 21
103.2814127551
  0
LINE
  5
310
100
AcDbEntity
  8
IMPORT_IGES
100
AcDbLine
 62
7
  6
CONTINUOUS
 10
112.2472348246
 20
102.5814127551
 11
112.2472348246
 21
100.7814127551
  0
LINE
  5
311
100
AcDbEntity
  8
IMPORT_IGES
100
AcDbLine
 62
7
  6
CONTINUOUS
 10
112.2472348246
 20
105.7814127551
 11
112.2472348246
 21
107.5814127551
  0
LINE
  5
312
100
AcDbEntity
  8
IMPORT_IGES
100
AcDbLine
 62
7
  6
CONTINUOUS
 10
112.2472348246
 20
108.2814127551
 11
112.2472348246
 21
110.0814127551
  0
LINE
  5
313
100
AcDbEntity
  8
IMPORT_IGES
100
AcDbLine
 62
253
  6
CONTINUOUS
 10
114.2684975061
 20
108.4480794218
 11
114.0448907083
 21
108.2480794218
  0
LINE
  5
314
100
AcDbEntity
  8
IMPORT_IGES
100
AcDbLine
 62
7
  6
CONTINUOUS
 10
118.5866910978
 20
103.9601525523
 11
117.6866910978
 21
103.8814127551
  0
LINE
  5
315
100
AcDbEntity
  8
IMPORT_IGES
100
AcDbLine
 62
253
  6
CONTINUOUS
 10
114.2684972826
 20
102.4147439765
 11
114.0448904239
 21
102.6147434005
  0
LINE
  5
316
100
AcDbEntity
  8
IMPORT_IGES
100
AcDbLine
 62
7
  6
CONTINUOUS
 10
112.4883890978
 20
107.5814127551
 11
112.4883890978
 21
105.7814127551
  0
LINE
  5
317
100
AcDbEntity
  8
IMPORT_IGES
100
AcDbLine
 62
7
  6
CONTINUOUS
 10
112.4883890978
 20
105.0814127551
 11
112.4883890978
 21
103.2814127551
  0
LINE
  5
318
100
AcDbEntity
  8
IMPORT_IGES
100
AcDbLine
 62
7
  6
CONTINUOUS
 10
112.4883890978
 20
100.7814127551
 11
112.4883890978
 21
102.5814127551
  0
LINE
  5
319
100
AcDbEntity
  8
IMPORT_IGES
100
AcDbLine
 62
7
  6
CONTINUOUS
 10
112.4883890978
 20
108.2814127551
 11
112.4883890978
 21
110.0814127551
  0
LINE
  5
31A
100
AcDbEntity
  8
IMPORT_IGES
100
AcDbLine
 62
7
  6
CONTINUOUS
 10
112.7866910978
 20
99.1314127551
 11
112.7866910978
 21
97.9314127551
  0
LINE
  5
31B
100
AcDbEntity
  8
0
100
AcDbLine
 62
7
  6
CONTINUOUS
 10
117.5866910978
 20
104.5814127551
 11
117.7866910978
 21
104.5814127551
  0
LINE
  5
31C
100
AcDbEntity
  8
0
100
AcDbLine
 62
7
  6
CONTINUOUS
 10
117.6866910978
 20
103.8814127551
 11
117.5866910978
 21
103.8901616215
  0
LINE
  5
31D
100
AcDbEntity
  8
IMPORT_IGES
100
AcDbLine
 62
7
  6
CONTINUOUS
 10
113.4883890978
 20
110.0814127551
 11
113.4883890978
 21
108.2814127551
  0
LINE
  5
31E
100
AcDbEntity
  8
IMPORT_IGES
100
AcDbLine
 62
7
  6
CONTINUOUS
 10
113.4883890978
 20
100.7814127551
 11
113.4883890978
 21
102.5814127551
  0
LINE
  5
31F
100
AcDbEntity
  8
IMPORT_IGES
100
AcDbLine
 62
7
  6
CONTINUOUS
 10
113.4883890978
 20
103.2814127551
 11
113.4883890978
 21
105.0814127551
  0
LINE
  5
320
100
AcDbEntity
  8
IMPORT_IGES
100
AcDbLine
 62
7
  6
CONTINUOUS
 10
113.4883890978
 20
105.7814127551
 11
113.4883890978
 21
107.5814127551
  0
LINE
  5
321
100
AcDbEntity
  8
IMPORT_IGES
100
AcDbLine
 62
253
  6
CONTINUOUS
 10
113.6055463853
 20
99.1314127551
 11
113.6055463853
 21
100.1814127551
  0
LINE
  5
322
100
AcDbEntity
  8
IMPORT_IGES
100
AcDbLine
 62
253
  6
CONTINUOUS
 10
113.6055463853
 20
110.6814127551
 11
113.6055463853
 21
111.7314127551
  0
LINE
  5
323
100
AcDbEntity
  8
IMPORT_IGES
100
AcDbLine
 62
253
  6
CONTINUOUS
 10
113.7469677416
 20
111.7314127551
 11
113.7469677416
 21
110.6814127551
  0
LINE
  5
324
100
AcDbEntity
  8
IMPORT_IGES
100
AcDbLine
 62
253
  6
CONTINUOUS
 10
113.7469677416
 20
99.1314127551
 11
113.7469677416
 21
100.1814127551
  0
LINE
  5
325
100
AcDbEntity
  8
IMPORT_IGES
100
AcDbLine
 62
253
  6
CONTINUOUS
 10
115.4318787222
 20
107.6147563468
 11
115.2082738027
 21
107.4147541486
  0
LINE
  5
326
100
AcDbEntity
  8
IMPORT_IGES
100
AcDbLine
 62
253
  6
CONTINUOUS
 10
114.2684975061
 20
105.9480794218
 11
114.0448907083
 21
105.7480794218
  0
LINE
  5
327
100
AcDbEntity
  8
0
100
AcDbLine
 62
7
  6
CONTINUOUS
 10
117.7866910978
 20
104.9814127551
 11
117.5866910978
 21
104.9814127551
  0
LINE
  5
328
100
AcDbEntity
  8
IMPORT_IGES
100
AcDbLine
 62
7
  6
CONTINUOUS
 10
115.0592094911
 20
104.9814127551
 11
114.4175687046
 21
104.9814127551
  0
LINE
  5
329
100
AcDbEntity
  8
IMPORT_IGES
100
AcDbLine
 62
253
  6
CONTINUOUS
 10
112.4883890978
 20
105.0814127551
 11
112.2472348246
 21
105.0814127551
  0
LINE
  5
32A
100
AcDbEntity
  8
IMPORT_IGES
100
AcDbLine
 62
7
  6
CONTINUOUS
 10
113.3883890978
 20
105.1814127551
 11
112.3507624427
 21
105.1814127551
  0
LINE
  5
32B
100
AcDbEntity
  8
0
100
AcDbLine
 62
7
  6
CONTINUOUS
 10
117.7766910978
 20
105.2314127551
 11
117.8366910978
 21
105.2314127551
  0
LINE
  5
32C
100
AcDbEntity
  8
IMPORT_IGES
100
AcDbLine
 62
7
  6
CONTINUOUS
 10
115.0592094911
 20
105.2814127551
 11
114.4175687046
 21
105.2814127551
  0
LINE
  5
32D
100
AcDbEntity
  8
IMPORT_IGES
100
AcDbLine
 62
253
  6
CONTINUOUS
 10
115.4318880485
 20
103.2480802782
 11
115.208280914
 21
103.4480797644
  0
LINE
  5
32E
100
AcDbEntity
  8
IMPORT_IGES
100
AcDbLine
 62
253
  6
CONTINUOUS
 10
114.2684972826
 20
104.9147439765
 11
114.0448904239
 21
105.1147434005
  0
LINE
  5
32F
100
AcDbEntity
  8
IMPORT_IGES
100
AcDbLine
 62
253
  6
CONTINUOUS
 10
113.9298104541
 20
99.1314127551
 11
113.9298104541
 21
100.1814127551
  0
LINE
  5
330
100
AcDbEntity
  8
IMPORT_IGES
100
AcDbLine
 62
253
  6
CONTINUOUS
 10
113.9298104541
 20
110.6814127551
 11
113.9298104541
 21
111.7314127551
  0
LINE
  5
331
100
AcDbEntity
  8
IMPORT_IGES
100
AcDbLine
 62
253
  6
CONTINUOUS
 10
114.0712318103
 20
111.7314127551
 11
114.0712318103
 21
110.6814127551
  0
LINE
  5
332
100
AcDbEntity
  8
IMPORT_IGES
100
AcDbLine
 62
253
  6
CONTINUOUS
 10
114.0712318103
 20
99.1314127551
 11
114.0712318103
 21
100.1814127551
  0
LINE
  5
333
100
AcDbEntity
  8
IMPORT_IGES
100
AcDbLine
 62
7
  6
CONTINUOUS
 10
114.0866910978
 20
112.8314127551
 11
114.0866910978
 21
111.7314127551
  0
LINE
  5
334
100
AcDbEntity
  8
IMPORT_IGES
100
AcDbLine
 62
253
  6
CONTINUOUS
 10
114.4175687046
 20
108.3814127551
 11
114.4175687046
 21
108.0814127551
  0
LINE
  5
335
100
AcDbEntity
  8
IMPORT_IGES
100
AcDbLine
 62
253
  6
CONTINUOUS
 10
114.4175687046
 20
105.2814127551
 11
114.4175687046
 21
104.9814127551
  0
LINE
  5
336
100
AcDbEntity
  8
IMPORT_IGES
100
AcDbLine
 62
253
  6
CONTINUOUS
 10
114.4175687046
 20
103.3814127551
 11
114.4175687046
 21
103.0814127551
  0
LINE
  5
337
100
AcDbEntity
  8
IMPORT_IGES
100
AcDbLine
 62
253
  6
CONTINUOUS
 10
114.4175687046
 20
100.8814127551
 11
114.4175687046
 21
100.5814127551
  0
LINE
  5
338
100
AcDbEntity
  8
IMPORT_IGES
100
AcDbLine
 62
253
  6
CONTINUOUS
 10
114.4175687046
 20
102.4814127551
 11
114.4175687046
 21
102.7814127551
  0
LINE
  5
339
100
AcDbEntity
  8
IMPORT_IGES
100
AcDbLine
 62
253
  6
CONTINUOUS
 10
114.4175687046
 20
105.5814127551
 11
114.4175687046
 21
105.8814127551
  0
LINE
  5
33A
100
AcDbEntity
  8
IMPORT_IGES
100
AcDbLine
 62
253
  6
CONTINUOUS
 10
114.4175687046
 20
107.4814127551
 11
114.4175687046
 21
107.7814127551
  0
LINE
  5
33B
100
AcDbEntity
  8
IMPORT_IGES
100
AcDbLine
 62
253
  6
CONTINUOUS
 10
114.4175687046
 20
109.9814127551
 11
114.4175687046
 21
110.2814127551
  0
LINE
  5
33C
100
AcDbEntity
  8
IMPORT_IGES
100
AcDbLine
 62
7
  6
CONTINUOUS
 10
114.4175687046
 20
105.5814127551
 11
115.0592094911
 21
105.5814127551
  0
LINE
  5
33D
100
AcDbEntity
  8
0
100
AcDbLine
 62
7
  6
CONTINUOUS
 10
117.8366910978
 20
105.6314127551
 11
117.7766910978
 21
105.6314127551
  0
LINE
  5
33E
100
AcDbEntity
  8
IMPORT_IGES
100
AcDbLine
 62
7
  6
CONTINUOUS
 10
112.3507624427
 20
105.6814127551
 11
113.3883890978
 21
105.6814127551
  0
LINE
  5
33F
100
AcDbEntity
  8
IMPORT_IGES
100
AcDbLine
 62
253
  6
CONTINUOUS
 10
112.4883890978
 20
105.7814127551
 11
112.2472348246
 21
105.7814127551
  0
LINE
  5
340
100
AcDbEntity
  8
0
100
AcDbLine
 62
7
  6
CONTINUOUS
 10
117.7866910978
 20
105.8814127551
 11
117.5866910978
 21
105.8814127551
  0
LINE
  5
341
100
AcDbEntity
  8
IMPORT_IGES
100
AcDbLine
 62
7
  6
CONTINUOUS
 10
114.4175687046
 20
105.8814127551
 11
115.0592094911
 21
105.8814127551
  0
LINE
  5
342
100
AcDbEntity
  8
0
100
AcDbLine
 62
7
  6
CONTINUOUS
 10
117.7866910978
 20
106.2814127551
 11
117.5866910978
 21
106.2814127551
  0
LINE
  5
343
100
AcDbEntity
  8
IMPORT_IGES
100
AcDbLine
 62
7
  6
CONTINUOUS
 10
114.7866884637
 20
114.2799427551
 11
114.7866884637
 21
112.8314127551
  0
LINE
  5
344
100
AcDbEntity
  8
0
100
AcDbLine
 62
7
  6
CONTINUOUS
 10
114.7866884637
 20
96.9114127551
 11
114.7866884637
 21
96.5828827551
  0
LINE
  5
345
100
AcDbEntity
  8
IMPORT_IGES
100
AcDbLine
 62
7
  6
CONTINUOUS
 10
114.9883890978
 20
100.1814127551
 11
114.9883890978
 21
99.1314127551
  0
LINE
  5
346
100
AcDbEntity
  8
IMPORT_IGES
100
AcDbLine
 62
7
  6
CONTINUOUS
 10
114.9883890978
 20
110.6814127551
 11
114.9883890978
 21
111.7314127551
  0
LINE
  5
347
100
AcDbEntity
  8
IMPORT_IGES
100
AcDbLine
 62
253
  6
CONTINUOUS
 10
115.0592094911
 20
110.2814127551
 11
115.0592094911
 21
109.9814127551
  0
LINE
  5
348
100
AcDbEntity
  8
IMPORT_IGES
100
AcDbLine
 62
253
  6
CONTINUOUS
 10
115.0592094911
 20
105.8814127551
 11
115.0592094911
 21
105.5814127551
  0
LINE
  5
349
100
AcDbEntity
  8
IMPORT_IGES
100
AcDbLine
 62
253
  6
CONTINUOUS
 10
115.0592094911
 20
100.8814127551
 11
115.0592094911
 21
100.5814127551
  0
LINE
  5
34A
100
AcDbEntity
  8
IMPORT_IGES
100
AcDbLine
 62
253
  6
CONTINUOUS
 10
115.0592094911
 20
102.4814127551
 11
115.0592094911
 21
102.7814127551
  0
LINE
  5
34B
100
AcDbEntity
  8
IMPORT_IGES
100
AcDbLine
 62
253
  6
CONTINUOUS
 10
115.0592094911
 20
103.0814127551
 11
115.0592094911
 21
103.3814127551
  0
LINE
  5
34C
100
AcDbEntity
  8
IMPORT_IGES
100
AcDbLine
 62
253
  6
CONTINUOUS
 10
115.0592094911
 20
104.9814127551
 11
115.0592094911
 21
105.2814127551
  0
LINE
  5
34D
100
AcDbEntity
  8
IMPORT_IGES
100
AcDbLine
 62
253
  6
CONTINUOUS
 10
115.0592094911
 20
107.4814127551
 11
115.0592094911
 21
107.7814127551
  0
LINE
  5
34E
100
AcDbEntity
  8
IMPORT_IGES
100
AcDbLine
 62
253
  6
CONTINUOUS
 10
115.0592094911
 20
108.0814127551
 11
115.0592094911
 21
108.3814127551
  0
LINE
  5
34F
100
AcDbEntity
  8
IMPORT_IGES
100
AcDbLine
 62
7
  6
CONTINUOUS
 10
115.0883890978
 20
111.2314127551
 11
115.0883890978
 21
110.9314127551
  0
LINE
  5
350
100
AcDbEntity
  8
IMPORT_IGES
100
AcDbLine
 62
7
  6
CONTINUOUS
 10
115.0883890978
 20
99.9314127551
 11
115.0883890978
 21
99.6314127551
  0
LINE
  5
351
100
AcDbEntity
  8
IMPORT_IGES
100
AcDbLine
 62
253
  6
CONTINUOUS
 10
115.1883890978
 20
99.6314127551
 11
115.1883890978
 21
99.9314127551
  0
LINE
  5
352
100
AcDbEntity
  8
IMPORT_IGES
100
AcDbLine
 62
253
  6
CONTINUOUS
 10
115.1883890978
 20
110.9314127551
 11
115.1883890978
 21
111.2314127551
  0
LINE
  5
353
100
AcDbEntity
  8
IMPORT_IGES
100
AcDbLine
 62
253
  6
CONTINUOUS
 10
115.208280914
 20
104.9147457458
 11
115.4318880485
 21
105.114745232
  0
LINE
  5
354
100
AcDbEntity
  8
0
100
AcDbLine
 62
7
  6
CONTINUOUS
 10
117.5866910978
 20
106.9726638887
 11
117.6866910978
 21
106.9814127551
  0
LINE
  5
355
100
AcDbEntity
  8
IMPORT_IGES
100
AcDbLine
 62
253
  6
CONTINUOUS
 10
115.4318880485
 20
105.7480802782
 11
115.208280914
 21
105.9480797644
  0
LINE
  5
356
100
AcDbEntity
  8
IMPORT_IGES
100
AcDbLine
 62
7
  6
CONTINUOUS
 10
115.2883890978
 20
109.8138682871
 11
115.2883890978
 21
108.5489572211
  0
LINE
  5
357
100
AcDbEntity
  8
IMPORT_IGES
100
AcDbLine
 62
7
  6
CONTINUOUS
 10
115.2883890978
 20
107.3138682874
 11
115.2883890978
 21
106.0489572211
  0
LINE
  5
358
100
AcDbEntity
  8
IMPORT_IGES
100
AcDbLine
 62
7
  6
CONTINUOUS
 10
115.2883890978
 20
104.8138682874
 11
115.2883890978
 21
103.5489572211
  0
LINE
  5
359
100
AcDbEntity
  8
IMPORT_IGES
100
AcDbLine
 62
7
  6
CONTINUOUS
 10
115.2883890978
 20
102.3138682876
 11
115.2883890978
 21
101.0489572231
  0
LINE
  5
35A
100
AcDbEntity
  8
IMPORT_IGES
100
AcDbLine
 62
7
  6
CONTINUOUS
 10
115.6883890978
 20
112.6314127551
 11
115.6883890978
 21
111.4314127551
  0
LINE
  5
35B
100
AcDbEntity
  8
IMPORT_IGES
100
AcDbLine
 62
7
  6
CONTINUOUS
 10
115.6883890978
 20
99.4314127551
 11
115.6883890978
 21
98.2314127551
  0
LINE
  5
35C
100
AcDbEntity
  8
IMPORT_IGES
100
AcDbLine
 62
253
  6
CONTINUOUS
 10
114.044891599
 20
103.2480789489
 11
114.2684982059
 21
103.4480790503
  0
LINE
  5
35D
100
AcDbEntity
  8
IMPORT_IGES
100
AcDbLine
 62
7
  6
CONTINUOUS
 10
115.0592094911
 20
107.4814127551
 11
114.4175687046
 21
107.4814127551
  0
LINE
  5
35E
100
AcDbEntity
  8
IMPORT_IGES
100
AcDbLine
 62
253
  6
CONTINUOUS
 10
112.2472348246
 20
107.5814127551
 11
112.4883890978
 21
107.5814127551
  0
LINE
  5
35F
100
AcDbEntity
  8
IMPORT_IGES
100
AcDbLine
 62
7
  6
CONTINUOUS
 10
113.3883890978
 20
107.6814127551
 11
112.3507624427
 21
107.6814127551
  0
LINE
  5
360
100
AcDbEntity
  8
IMPORT_IGES
100
AcDbLine
 62
7
  6
CONTINUOUS
 10
117.6866910978
 20
106.9814127551
 11
118.5866910978
 21
106.9026729579
  0
LINE
  5
361
100
AcDbEntity
  8
IMPORT_IGES
100
AcDbLine
 62
253
  6
CONTINUOUS
 10
114.2684972826
 20
107.4147439765
 11
114.0448904239
 21
107.6147434005
  0
LINE
  5
362
100
AcDbEntity
  8
0
100
AcDbLine
 62
7
  6
CONTINUOUS
 10
115.9866910978
 20
96.1814127551
 11
115.9866910978
 21
114.7814127551
  0
LINE
  5
363
100
AcDbEntity
  8
IMPORT_IGES
100
AcDbLine
 62
7
  6
CONTINUOUS
 10
115.0592094911
 20
107.7814127551
 11
114.4175687046
 21
107.7814127551
  0
LINE
  5
364
100
AcDbEntity
  8
0
100
AcDbLine
 62
7
  6
CONTINUOUS
 10
117.7866910978
 20
107.9564127551
 11
117.5866910978
 21
107.9564127551
  0
LINE
  5
365
100
AcDbEntity
  8
0
100
AcDbLine
 62
7
  6
CONTINUOUS
 10
117.7866910978
 20
108.0314127551
 11
118.6866910978
 21
108.0314127551
  0
LINE
  5
366
100
AcDbEntity
  8
IMPORT_IGES
100
AcDbLine
 62
7
  6
CONTINUOUS
 10
115.0592094911
 20
108.0814127551
 11
114.4175687046
 21
108.0814127551
  0
LINE
  5
367
100
AcDbEntity
  8
IMPORT_IGES
100
AcDbLine
 62
7
  6
CONTINUOUS
 10
108.6366910978
 20
108.1314127551
 11
110.9883890978
 21
108.1314127551
  0
LINE
  5
368
100
AcDbEntity
  8
IMPORT_IGES
100
AcDbLine
 62
7
  6
CONTINUOUS
 10
113.3883890978
 20
108.1814127551
 11
112.3507624427
 21
108.1814127551
  0
LINE
  5
369
100
AcDbEntity
  8
0
100
AcDbLine
 62
7
  6
CONTINUOUS
 10
117.8866910978
 20
108.2314127551
 11
117.7866910978
 21
108.2314127551
  0
LINE
  5
36A
100
AcDbEntity
  8
IMPORT_IGES
100
AcDbLine
 62
253
  6
CONTINUOUS
 10
112.4883890978
 20
108.2814127551
 11
112.2472348246
 21
108.2814127551
  0
LINE
  5
36B
100
AcDbEntity
  8
IMPORT_IGES
100
AcDbLine
 62
7
  6
CONTINUOUS
 10
115.0592094911
 20
108.3814127551
 11
114.4175687046
 21
108.3814127551
  0
LINE
  5
36C
100
AcDbEntity
  8
0
100
AcDbLine
 62
7
  6
CONTINUOUS
 10
117.1866910978
 20
96.2314127551
 11
117.1866910978
 21
96.1814127551
  0
LINE
  5
36D
100
AcDbEntity
  8
IMPORT_IGES
100
AcDbLine
 62
253
  6
CONTINUOUS
 10
115.4318787222
 20
102.6147563468
 11
115.2082738027
 21
102.4147541486
  0
LINE
  5
36E
100
AcDbEntity
  8
0
100
AcDbLine
 62
7
  6
CONTINUOUS
 10
117.7866910978
 20
108.9064127551
 11
117.5866910978
 21
108.9064127551
  0
LINE
  5
36F
100
AcDbEntity
  8
0
100
AcDbLine
 62
7
  6
CONTINUOUS
 10
117.5866910978
 20
108.9814127551
 11
117.8866910978
 21
108.9814127551
  0
LINE
  5
370
100
AcDbEntity
  8
IMPORT_IGES
100
AcDbLine
 62
253
  6
CONTINUOUS
 10
115.208280913
 20
108.4480815333
 11
115.4318877717
 21
108.2480821092
  0
LINE
  5
371
100
AcDbEntity
  8
0
100
AcDbLine
 62
7
  6
CONTINUOUS
 10
117.5866910978
 20
96.2314127551
 11
117.5866910978
 21
114.7814127551
  0
LINE
  5
372
100
AcDbEntity
  8
IMPORT_IGES
100
AcDbLine
 62
7
  6
CONTINUOUS
 10
117.6866910978
 20
112.7314127551
 11
117.6866910978
 21
111.3814127551
  0
LINE
  5
373
100
AcDbEntity
  8
IMPORT_IGES
100
AcDbLine
 62
7
  6
CONTINUOUS
 10
117.6866910978
 20
110.9814127551
 11
117.6866910978
 21
109.6314127551
  0
LINE
  5
374
100
AcDbEntity
  8
IMPORT_IGES
100
AcDbLine
 62
7
  6
CONTINUOUS
 10
117.6866910978
 20
106.9814127551
 11
117.6866910978
 21
106.2814127551
  0
LINE
  5
375
100
AcDbEntity
  8
IMPORT_IGES
100
AcDbLine
 62
7
  6
CONTINUOUS
 10
117.6866910978
 20
104.5814127551
 11
117.6866910978
 21
103.8814127551
  0
LINE
  5
376
100
AcDbEntity
  8
IMPORT_IGES
100
AcDbLine
 62
7
  6
CONTINUOUS
 10
117.6866910978
 20
100.6814127551
 11
117.6866910978
 21
100.5314127551
  0
LINE
  5
377
100
AcDbEntity
  8
IMPORT_IGES
100
AcDbLine
 62
7
  6
CONTINUOUS
 10
117.6866910978
 20
99.3314127551
 11
117.6866910978
 21
99.1814127551
  0
LINE
  5
378
100
AcDbEntity
  8
IMPORT_IGES
100
AcDbLine
 62
7
  6
CONTINUOUS
 10
117.7766910978
 20
104.9814127551
 11
117.7766910978
 21
105.8814127551
  0
LINE
  5
379
100
AcDbEntity
  8
IMPORT_IGES
100
AcDbLine
 62
7
  6
CONTINUOUS
 10
117.7866910978
 20
104.9814127551
 11
117.7866910978
 21
104.5814127551
  0
LINE
  5
37A
100
AcDbEntity
  8
IMPORT_IGES
100
AcDbLine
 62
7
  6
CONTINUOUS
 10
117.7866910978
 20
101.9564127551
 11
117.7866910978
 21
102.9064127551
  0
LINE
  5
37B
100
AcDbEntity
  8
IMPORT_IGES
100
AcDbLine
 62
7
  6
CONTINUOUS
 10
117.7866910978
 20
105.8814127551
 11
117.7866910978
 21
106.2814127551
  0
LINE
  5
37C
100
AcDbEntity
  8
IMPORT_IGES
100
AcDbLine
 62
7
  6
CONTINUOUS
 10
117.7866910978
 20
107.9564127551
 11
117.7866910978
 21
108.9064127551
  0
LINE
  5
37D
100
AcDbEntity
  8
IMPORT_IGES
100
AcDbLine
 62
7
  6
CONTINUOUS
 10
117.8366910978
 20
111.3814127551
 11
117.8366910978
 21
110.9814127551
  0
LINE
  5
37E
100
AcDbEntity
  8
IMPORT_IGES
100
AcDbLine
 62
7
  6
CONTINUOUS
 10
117.8366910978
 20
105.6314127551
 11
117.8366910978
 21
105.2314127551
  0
LINE
  5
37F
100
AcDbEntity
  8
IMPORT_IGES
100
AcDbLine
 62
7
  6
CONTINUOUS
 10
117.8366910978
 20
100.8314127551
 11
117.8366910978
 21
100.6814127551
  0
LINE
  5
380
100
AcDbEntity
  8
IMPORT_IGES
100
AcDbLine
 62
7
  6
CONTINUOUS
 10
117.8366910978
 20
99.1814127551
 11
117.8366910978
 21
98.7814127551
  0
LINE
  5
381
100
AcDbEntity
  8
IMPORT_IGES
100
AcDbLine
 62
7
  6
CONTINUOUS
 10
117.8866910978
 20
102.2314127551
 11
117.8866910978
 21
102.8314127551
  0
LINE
  5
382
100
AcDbEntity
  8
IMPORT_IGES
100
AcDbLine
 62
7
  6
CONTINUOUS
 10
117.8866910978
 20
108.2314127551
 11
117.8866910978
 21
109.6489104878
  0
LINE
  5
383
100
AcDbEntity
  8
IMPORT_IGES
100
AcDbLine
 62
7
  6
CONTINUOUS
 10
117.9866910978
 20
99.3314127551
 11
117.9866910978
 21
100.5314127551
  0
LINE
  5
384
100
AcDbEntity
  8
IMPORT_IGES
100
AcDbLine
 62
7
  6
CONTINUOUS
 10
117.9866910978
 20
100.8314127551
 11
117.9866910978
 21
102.0314127551
  0
LINE
  5
385
100
AcDbEntity
  8
IMPORT_IGES
100
AcDbLine
 62
7
  6
CONTINUOUS
 10
117.9866910978
 20
102.5814127551
 11
117.9866910978
 21
102.8314127551
  0
LINE
  5
386
100
AcDbEntity
  8
IMPORT_IGES
100
AcDbLine
 62
253
  6
CONTINUOUS
 10
114.2684975061
 20
100.9480794218
 11
114.0448907083
 21
100.7480794218
  0
LINE
  5
387
100
AcDbEntity
  8
IMPORT_IGES
100
AcDbLine
 62
7
  6
CONTINUOUS
 10
118.5866910978
 20
109.7101525523
 11
117.6866910978
 21
109.6314127551
  0
LINE
  5
388
100
AcDbEntity
  8
IMPORT_IGES
100
AcDbLine
 62
253
  6
CONTINUOUS
 10
114.0448907083
 20
110.1147460884
 11
114.2684975061
 21
109.9147460884
  0
LINE
  5
389
100
AcDbEntity
  8
IMPORT_IGES
100
AcDbLine
 62
7
  6
CONTINUOUS
 10
118.3866937319
 20
97.0828827551
 11
118.3866937319
 21
98.7799427551
  0
LINE
  5
38A
100
AcDbEntity
  8
IMPORT_IGES
100
AcDbLine
 62
7
  6
CONTINUOUS
 10
118.3866937319
 20
112.6701704602
 11
118.3866937319
 21
114.2799427551
  0
LINE
  5
38B
100
AcDbEntity
  8
IMPORT_IGES
100
AcDbLine
 62
7
  6
CONTINUOUS
 10
118.5866910978
 20
98.4601525523
 11
118.5866910978
 21
101.4026729579
  0
LINE
  5
38C
100
AcDbEntity
  8
IMPORT_IGES
100
AcDbLine
 62
7
  6
CONTINUOUS
 10
118.5866910978
 20
103.9601525523
 11
118.5866910978
 21
106.9026729579
  0
LINE
  5
38D
100
AcDbEntity
  8
IMPORT_IGES
100
AcDbLine
 62
7
  6
CONTINUOUS
 10
118.5866910978
 20
109.7101525523
 11
118.5866910978
 21
112.6526729579
  0
LINE
  5
38E
100
AcDbEntity
  8
IMPORT_IGES
100
AcDbLine
 62
7
  6
CONTINUOUS
 10
118.6866910978
 20
102.8314127551
 11
118.6866910978
 21
108.0314127551
  0
LINE
  5
38F
100
AcDbEntity
  8
IMPORT_IGES
100
AcDbLine
 62
7
  6
CONTINUOUS
 10
114.4175687046
 20
109.9814127551
 11
115.0592094911
 21
109.9814127551
  0
LINE
  5
390
100
AcDbEntity
  8
IMPORT_IGES
100
AcDbLine
 62
253
  6
CONTINUOUS
 10
112.4883890978
 20
110.0814127551
 11
112.2472348246
 21
110.0814127551
  0
LINE
  5
391
100
AcDbEntity
  8
IMPORT_IGES
100
AcDbLine
 62
7
  6
CONTINUOUS
 10
112.3507624427
 20
110.1814127551
 11
113.3883890978
 21
110.1814127551
  0
LINE
  5
392
100
AcDbEntity
  8
IMPORT_IGES
100
AcDbLine
 62
7
  6
CONTINUOUS
 10
114.4175687046
 20
110.2814127551
 11
115.0592094911
 21
110.2814127551
  0
LINE
  5
393
100
AcDbEntity
  8
0
100
AcDbLine
 62
7
  6
CONTINUOUS
 10
117.6866910978
 20
109.6314127551
 11
117.5866910978
 21
109.6401616215
  0
LINE
  5
394
100
AcDbEntity
  8
IMPORT_IGES
100
AcDbLine
 62
7
  6
CONTINUOUS
 10
115.9866910978
 20
110.6814127551
 11
111.2883890978
 21
110.6814127551
  0
LINE
  5
395
100
AcDbEntity
  8
IMPORT_IGES
100
AcDbLine
 62
7
  6
CONTINUOUS
 10
108.6366910978
 20
110.7314127551
 11
111.9883890978
 21
110.7314127551
  0
LINE
  5
396
100
AcDbEntity
  8
IMPORT_IGES
100
AcDbLine
 62
7
  6
CONTINUOUS
 10
114.9883890978
 20
110.7314127551
 11
115.9866910978
 21
110.7314127551
  0
LINE
  5
397
100
AcDbEntity
  8
IMPORT_IGES
100
AcDbLine
 62
7
  6
CONTINUOUS
 10
115.4883890978
 20
110.9314127551
 11
114.9883890978
 21
110.9314127551
  0
LINE
  5
398
100
AcDbEntity
  8
0
100
AcDbLine
 62
7
  6
CONTINUOUS
 10
117.5866910978
 20
110.9814127551
 11
117.8366910978
 21
110.9814127551
  0
LINE
  5
399
100
AcDbEntity
  8
IMPORT_IGES
100
AcDbLine
 62
7
  6
CONTINUOUS
 10
114.9883890978
 20
111.2314127551
 11
115.4883890978
 21
111.2314127551
  0
LINE
  5
39A
100
AcDbEntity
  8
0
100
AcDbLine
 62
7
  6
CONTINUOUS
 10
117.8366910978
 20
111.3814127551
 11
117.5866910978
 21
111.3814127551
  0
LINE
  5
39B
100
AcDbEntity
  8
IMPORT_IGES
100
AcDbLine
 62
7
  6
CONTINUOUS
 10
115.9866910978
 20
111.4314127551
 11
115.6883890978
 21
111.4314127551
  0
LINE
  5
39C
100
AcDbEntity
  8
IMPORT_IGES
100
AcDbLine
 62
7
  6
CONTINUOUS
 10
111.9883890978
 20
111.7314127551
 11
114.9883890978
 21
111.7314127551
  0
LINE
  5
39D
100
AcDbEntity
  8
0
100
AcDbLine
 62
7
  6
CONTINUOUS
 10
117.5866910978
 20
112.7226638887
 11
117.6866910978
 21
112.7314127551
  0
LINE
  5
39E
100
AcDbEntity
  8
IMPORT_IGES
100
AcDbLine
 62
7
  6
CONTINUOUS
 10
115.6883890978
 20
112.6314127551
 11
115.9866910978
 21
112.6314127551
  0
LINE
  5
39F
100
AcDbEntity
  8
IMPORT_IGES
100
AcDbLine
 62
7
  6
CONTINUOUS
 10
115.9866910978
 20
112.8314127551
 11
114.0866910978
 21
112.8314127551
  0
LINE
  5
3A0
100
AcDbEntity
  8
IMPORT_IGES
100
AcDbLine
 62
7
  6
CONTINUOUS
 10
117.6866910978
 20
112.7314127551
 11
118.5866910978
 21
112.6526729579
  0
LINE
  5
3A1
100
AcDbEntity
  8
0
100
AcDbLine
 62
7
  6
CONTINUOUS
 10
118.3866937319
 20
114.2799427551
 11
117.5866910978
 21
114.2799427551
  0
LINE
  5
3A2
100
AcDbEntity
  8
IMPORT_IGES
100
AcDbLine
 62
7
  6
CONTINUOUS
 10
115.9866910978
 20
114.2799427551
 11
114.7866884637
 21
114.2799427551
  0
LINE
  5
3A3
100
AcDbEntity
  8
0
100
AcDbLine
 62
7
  6
CONTINUOUS
 10
117.5866910978
 20
114.7814127551
 11
115.9866910978
 21
114.7814127551
  0
ARC
  5
3A4
100
AcDbEntity
  8
RACCORDO
100
AcDbCircle
 62
7
  6
CONTINUOUS
 10
158.7999683673
 20
98.4314127551
 40
0.6
100
AcDbArc
 50
0.0
 51
90.0
  0
ARC
  5
3A5
100
AcDbEntity
  8
RACCORDO
100
AcDbCircle
 62
7
  6
CONTINUOUS
 10
155.3999683673
 20
98.4314127551
 40
0.6
100
AcDbArc
 50
90.0
 51
180.0
  0
ARC
  5
3A6
100
AcDbEntity
  8
IMPORT_IGES
100
AcDbCircle
 62
7
  6
CONTINUOUS
 10
163.8387633673
 20
108.9814127551
 40
0.2
100
AcDbArc
 50
180.0
 51
270.0
  0
ARC
  5
3A7
100
AcDbEntity
  8
IMPORT_IGES
100
AcDbCircle
 62
7
  6
CONTINUOUS
 10
163.8387633673
 20
109.3814127551
 40
0.2
100
AcDbArc
 50
90.0
 51
180.0
  0
ARC
  5
3A8
100
AcDbEntity
  8
IMPORT_IGES
100
AcDbCircle
 62
7
  6
CONTINUOUS
 10
163.8387633673
 20
106.8814127551
 40
0.2
100
AcDbArc
 50
90.0
 51
180.0
  0
ARC
  5
3A9
100
AcDbEntity
  8
IMPORT_IGES
100
AcDbCircle
 62
7
  6
CONTINUOUS
 10
163.8387633673
 20
106.4814127551
 40
0.2
100
AcDbArc
 50
180.0
 51
270.0
  0
ARC
  5
3AA
100
AcDbEntity
  8
IMPORT_IGES
100
AcDbCircle
 62
7
  6
CONTINUOUS
 10
163.8387633673
 20
103.9814127551
 40
0.2
100
AcDbArc
 50
180.0
 51
270.0
  0
ARC
  5
3AB
100
AcDbEntity
  8
IMPORT_IGES
100
AcDbCircle
 62
7
  6
CONTINUOUS
 10
163.8387633673
 20
104.3814127551
 40
0.2
100
AcDbArc
 50
90.0
 51
180.0
  0
ARC
  5
3AC
100
AcDbEntity
  8
IMPORT_IGES
100
AcDbCircle
 62
7
  6
CONTINUOUS
 10
163.8387633673
 20
101.8814127551
 40
0.2
100
AcDbArc
 50
90.0
 51
180.0
  0
ARC
  5
3AD
100
AcDbEntity
  8
IMPORT_IGES
100
AcDbCircle
 62
7
  6
CONTINUOUS
 10
163.8387633673
 20
101.4814127551
 40
0.2
100
AcDbArc
 50
180.0
 51
270.0
  0
ARC
  5
3AE
100
AcDbEntity
  8
IMPORT_IGES
100
AcDbCircle
 62
7
  6
CONTINUOUS
 10
167.7387633673
 20
104.5814127551
 40
0.1
100
AcDbArc
 50
90.0
 51
180.0
  0
ARC
  5
3AF
100
AcDbEntity
  8
IMPORT_IGES
100
AcDbCircle
 62
7
  6
CONTINUOUS
 10
168.5387633673
 20
104.5814127551
 40
0.1
100
AcDbArc
 50
0.0
 51
90.0
  0
ARC
  5
3B0
100
AcDbEntity
  8
IMPORT_IGES
100
AcDbCircle
 62
7
  6
CONTINUOUS
 10
168.5387633673
 20
103.7814127551
 40
0.1
100
AcDbArc
 50
270.0
 51
360.0
  0
ARC
  5
3B1
100
AcDbEntity
  8
IMPORT_IGES
100
AcDbCircle
 62
7
  6
CONTINUOUS
 10
167.7387633673
 20
103.7814127551
 40
0.1
100
AcDbArc
 50
180.0
 51
270.0
  0
ARC
  5
3B2
100
AcDbEntity
  8
IMPORT_IGES
100
AcDbCircle
 62
7
  6
CONTINUOUS
 10
168.5387633673
 20
106.2814127551
 40
0.1
100
AcDbArc
 50
270.0
 51
360.0
  0
ARC
  5
3B3
100
AcDbEntity
  8
IMPORT_IGES
100
AcDbCircle
 62
7
  6
CONTINUOUS
 10
167.7387633673
 20
106.2814127551
 40
0.1
100
AcDbArc
 50
180.0
 51
270.0
  0
ARC
  5
3B4
100
AcDbEntity
  8
IMPORT_IGES
100
AcDbCircle
 62
7
  6
CONTINUOUS
 10
167.7387633673
 20
107.0814127551
 40
0.1
100
AcDbArc
 50
90.0
 51
180.0
  0
ARC
  5
3B5
100
AcDbEntity
  8
IMPORT_IGES
100
AcDbCircle
 62
7
  6
CONTINUOUS
 10
168.5387633673
 20
107.0814127551
 40
0.1
100
AcDbArc
 50
0.0
 51
90.0
  0
ARC
  5
3B6
100
AcDbEntity
  8
IMPORT_IGES
100
AcDbCircle
 62
7
  6
CONTINUOUS
 10
168.5387633673
 20
108.7814127551
 40
0.1
100
AcDbArc
 50
270.0
 51
360.0
  0
ARC
  5
3B7
100
AcDbEntity
  8
IMPORT_IGES
100
AcDbCircle
 62
7
  6
CONTINUOUS
 10
167.7387633673
 20
108.7814127551
 40
0.1
100
AcDbArc
 50
180.0
 51
270.0
  0
ARC
  5
3B8
100
AcDbEntity
  8
IMPORT_IGES
100
AcDbCircle
 62
7
  6
CONTINUOUS
 10
167.7387633673
 20
109.5814127551
 40
0.1
100
AcDbArc
 50
90.0
 51
180.0
  0
ARC
  5
3B9
100
AcDbEntity
  8
IMPORT_IGES
100
AcDbCircle
 62
7
  6
CONTINUOUS
 10
168.5387633673
 20
109.5814127551
 40
0.1
100
AcDbArc
 50
0.0
 51
90.0
  0
ARC
  5
3BA
100
AcDbEntity
  8
IMPORT_IGES
100
AcDbCircle
 62
7
  6
CONTINUOUS
 10
168.5387633673
 20
101.2814127551
 40
0.1
100
AcDbArc
 50
270.0
 51
360.0
  0
ARC
  5
3BB
100
AcDbEntity
  8
IMPORT_IGES
100
AcDbCircle
 62
7
  6
CONTINUOUS
 10
167.7387633673
 20
101.2814127551
 40
0.1
100
AcDbArc
 50
180.0
 51
270.0
  0
ARC
  5
3BC
100
AcDbEntity
  8
IMPORT_IGES
100
AcDbCircle
 62
7
  6
CONTINUOUS
 10
167.7387633673
 20
102.0814127551
 40
0.1
100
AcDbArc
 50
90.0
 51
180.0
  0
ARC
  5
3BD
100
AcDbEntity
  8
IMPORT_IGES
100
AcDbCircle
 62
7
  6
CONTINUOUS
 10
168.5387633673
 20
102.0814127551
 40
0.1
100
AcDbArc
 50
0.0
 51
90.0
  0
ARC
  5
3BE
100
AcDbEntity
  8
IMPORT_IGES
100
AcDbCircle
 62
7
  6
CONTINUOUS
 10
111.2883890978
 20
100.4814127551
 40
0.3
100
AcDbArc
 50
180.0
 51
270.0
  0
ARC
  5
3BF
100
AcDbEntity
  8
IMPORT_IGES
100
AcDbCircle
 62
7
  6
CONTINUOUS
 10
112.5883890978
 20
100.7814127551
 40
0.1
100
AcDbArc
 50
180.0005926294
 51
269.9999657533
  0
ARC
  5
3C0
100
AcDbEntity
  8
IMPORT_IGES
100
AcDbCircle
 62
7
  6
CONTINUOUS
 10
112.5883890978
 20
102.5814127551
 40
0.1
100
AcDbArc
 50
90.0006023013
 51
180.0007340274
  0
ARC
  5
3C1
100
AcDbEntity
  8
IMPORT_IGES
100
AcDbCircle
 62
7
  6
CONTINUOUS
 10
112.5883890978
 20
105.0814127551
 40
0.1
100
AcDbArc
 50
90.0006023013
 51
180.0007340274
  0
ARC
  5
3C2
100
AcDbEntity
  8
IMPORT_IGES
100
AcDbCircle
 62
7
  6
CONTINUOUS
 10
112.5883890978
 20
103.2814127551
 40
0.1
100
AcDbArc
 50
179.9992659726
 51
269.9993976987
  0
ARC
  5
3C3
100
AcDbEntity
  8
IMPORT_IGES
100
AcDbCircle
 62
7
  6
CONTINUOUS
 10
111.2883890978
 20
110.3814127551
 40
0.3
100
AcDbArc
 50
90.0
 51
180.0
  0
ARC
  5
3C4
100
AcDbEntity
  8
IMPORT_IGES
100
AcDbCircle
 62
7
  6
CONTINUOUS
 10
112.5883890978
 20
110.0814127551
 40
0.1
100
AcDbArc
 50
90.000162637
 51
179.9993976986
  0
ARC
  5
3C5
100
AcDbEntity
  8
IMPORT_IGES
100
AcDbCircle
 62
7
  6
CONTINUOUS
 10
112.5883890978
 20
107.5814127551
 40
0.1
100
AcDbArc
 50
90.0006023013
 51
180.0007340274
  0
ARC
  5
3C6
100
AcDbEntity
  8
IMPORT_IGES
100
AcDbCircle
 62
7
  6
CONTINUOUS
 10
112.5883890978
 20
105.7814127551
 40
0.1
100
AcDbArc
 50
179.9992659726
 51
269.9993976987
  0
ARC
  5
3C7
100
AcDbEntity
  8
IMPORT_IGES
100
AcDbCircle
 62
7
  6
CONTINUOUS
 10
112.5883890978
 20
108.2814127551
 40
0.1
100
AcDbArc
 50
179.9992659726
 51
269.9993976987
  0
ARC
  5
3C8
100
AcDbEntity
  8
IMPORT_IGES
100
AcDbCircle
 62
7
  6
CONTINUOUS
 10
115.0883890978
 20
104.1814127551
 40
1.4
100
AcDbArc
 50
138.1896851042
 51
221.8103148958
  0
ARC
  5
3C9
100
AcDbEntity
  8
IMPORT_IGES
100
AcDbCircle
 62
7
  6
CONTINUOUS
 10
114.3883890978
 20
104.1814127551
 40
1.4
100
AcDbArc
 50
318.1896851042
 51
41.8103148958
  0
ARC
  5
3CA
100
AcDbEntity
  8
IMPORT_IGES
100
AcDbCircle
 62
7
  6
CONTINUOUS
 10
115.0883890978
 20
101.6814127551
 40
1.4
100
AcDbArc
 50
138.1896851042
 51
221.8103148958
  0
ARC
  5
3CB
100
AcDbEntity
  8
IMPORT_IGES
100
AcDbCircle
 62
7
  6
CONTINUOUS
 10
114.3883890978
 20
101.6814127551
 40
1.4
100
AcDbArc
 50
318.1896851042
 51
41.8103148958
  0
ARC
  5
3CC
100
AcDbEntity
  8
IMPORT_IGES
100
AcDbCircle
 62
7
  6
CONTINUOUS
 10
114.3883890978
 20
104.1814127551
 40
1.1
100
AcDbArc
 50
318.1896851042
 51
324.9031987311
  0
ARC
  5
3CD
100
AcDbEntity
  8
IMPORT_IGES
100
AcDbCircle
 62
7
  6
CONTINUOUS
 10
114.3883890978
 20
104.1814127551
 40
1.1
100
AcDbArc
 50
35.0968012276
 51
41.8103148958
  0
ARC
  5
3CE
100
AcDbEntity
  8
IMPORT_IGES
100
AcDbCircle
 62
7
  6
CONTINUOUS
 10
114.3883890978
 20
101.6814127551
 40
1.1
100
AcDbArc
 50
35.0968012276
 51
41.8103148958
  0
ARC
  5
3CF
100
AcDbEntity
  8
IMPORT_IGES
100
AcDbCircle
 62
7
  6
CONTINUOUS
 10
114.3883890978
 20
101.6814127551
 40
1.1
100
AcDbArc
 50
318.1896851042
 51
324.9031987724
  0
ARC
  5
3D0
100
AcDbEntity
  8
IMPORT_IGES
100
AcDbCircle
 62
7
  6
CONTINUOUS
 10
115.0883890978
 20
104.1814127551
 40
1.0999994484
100
AcDbArc
 50
138.1897748578
 51
221.8103440617
  0
ARC
  5
3D1
100
AcDbEntity
  8
IMPORT_IGES
100
AcDbCircle
 62
7
  6
CONTINUOUS
 10
115.0883890978
 20
101.6814127551
 40
1.0999994484
100
AcDbArc
 50
138.1897748578
 51
221.8103440617
  0
ARC
  5
3D2
100
AcDbEntity
  8
IMPORT_IGES
100
AcDbCircle
 62
7
  6
CONTINUOUS
 10
115.4883890978
 20
99.4314127551
 40
0.5
100
AcDbArc
 50
4.7232882795
 51
90.0
  0
ARC
  5
3D3
100
AcDbEntity
  8
IMPORT_IGES
100
AcDbCircle
 62
7
  6
CONTINUOUS
 10
115.0592094911
 20
103.5814127551
 40
0.5
100
AcDbArc
 50
270.0
 51
318.1896851042
  0
ARC
  5
3D4
100
AcDbEntity
  8
IMPORT_IGES
100
AcDbCircle
 62
7
  6
CONTINUOUS
 10
114.4175687046
 20
103.5814127551
 40
0.5
100
AcDbArc
 50
221.8103148958
 51
270.0
  0
ARC
  5
3D5
100
AcDbEntity
  8
IMPORT_IGES
100
AcDbCircle
 62
7
  6
CONTINUOUS
 10
114.4175687046
 20
104.7814127551
 40
0.5
100
AcDbArc
 50
90.0
 51
138.1896851042
  0
ARC
  5
3D6
100
AcDbEntity
  8
IMPORT_IGES
100
AcDbCircle
 62
7
  6
CONTINUOUS
 10
115.0592094911
 20
104.7814127551
 40
0.5
100
AcDbArc
 50
41.8103148958
 51
90.0
  0
ARC
  5
3D7
100
AcDbEntity
  8
IMPORT_IGES
100
AcDbCircle
 62
7
  6
CONTINUOUS
 10
115.0592094911
 20
101.0814127551
 40
0.5
100
AcDbArc
 50
270.0
 51
318.1896851042
  0
ARC
  5
3D8
100
AcDbEntity
  8
IMPORT_IGES
100
AcDbCircle
 62
7
  6
CONTINUOUS
 10
114.4175687046
 20
101.0814127551
 40
0.5
100
AcDbArc
 50
221.8103148958
 51
270.0
  0
ARC
  5
3D9
100
AcDbEntity
  8
IMPORT_IGES
100
AcDbCircle
 62
7
  6
CONTINUOUS
 10
114.4175687046
 20
102.2814127551
 40
0.5
100
AcDbArc
 50
90.0
 51
138.1896851042
  0
ARC
  5
3DA
100
AcDbEntity
  8
IMPORT_IGES
100
AcDbCircle
 62
7
  6
CONTINUOUS
 10
115.0592094911
 20
102.2814127551
 40
0.5
100
AcDbArc
 50
41.8103148958
 51
90.0
  0
ARC
  5
3DB
100
AcDbEntity
  8
IMPORT_IGES
100
AcDbCircle
 62
7
  6
CONTINUOUS
 10
115.0592094911
 20
104.7814127551
 40
0.200000168
100
AcDbArc
 50
41.8103148958
 51
90.0
  0
ARC
  5
3DC
100
AcDbEntity
  8
IMPORT_IGES
100
AcDbCircle
 62
7
  6
CONTINUOUS
 10
115.0592094911
 20
101.0814127551
 40
0.2000001495
100
AcDbArc
 50
270.0
 51
318.1896851042
  0
ARC
  5
3DD
100
AcDbEntity
  8
IMPORT_IGES
100
AcDbCircle
 62
7
  6
CONTINUOUS
 10
115.0592094911
 20
103.5814127551
 40
0.2
100
AcDbArc
 50
270.0
 51
318.1896851042
  0
ARC
  5
3DE
100
AcDbEntity
  8
IMPORT_IGES
100
AcDbCircle
 62
7
  6
CONTINUOUS
 10
114.4175687046
 20
103.5814127551
 40
0.2
100
AcDbArc
 50
221.8099984165
 51
270.0003953203
  0
ARC
  5
3DF
100
AcDbEntity
  8
IMPORT_IGES
100
AcDbCircle
 62
7
  6
CONTINUOUS
 10
114.4175687046
 20
104.7814127551
 40
0.2
100
AcDbArc
 50
89.9996046797
 51
138.1900015835
  0
ARC
  5
3E0
100
AcDbEntity
  8
IMPORT_IGES
100
AcDbCircle
 62
7
  6
CONTINUOUS
 10
115.0592094911
 20
102.2814127551
 40
0.2
100
AcDbArc
 50
41.8103148958
 51
90.0
  0
ARC
  5
3E1
100
AcDbEntity
  8
IMPORT_IGES
100
AcDbCircle
 62
7
  6
CONTINUOUS
 10
114.4175687046
 20
101.0814127551
 40
0.2
100
AcDbArc
 50
221.8099984165
 51
270.0003953203
  0
ARC
  5
3E2
100
AcDbEntity
  8
IMPORT_IGES
100
AcDbCircle
 62
7
  6
CONTINUOUS
 10
114.4175687046
 20
102.2814127551
 40
0.2
100
AcDbArc
 50
89.9996046797
 51
138.1900015835
  0
ARC
  5
3E3
100
AcDbEntity
  8
IMPORT_IGES
100
AcDbCircle
 62
7
  6
CONTINUOUS
 10
115.4883890978
 20
99.4314127551
 40
0.2
100
AcDbArc
 50
0.0
 51
90.0
  0
ARC
  5
3E4
100
AcDbEntity
  8
IMPORT_IGES
100
AcDbCircle
 62
7
  6
CONTINUOUS
 10
113.3883890978
 20
102.5814127551
 40
0.1
100
AcDbArc
 50
0.0
 51
90.0
  0
ARC
  5
3E5
100
AcDbEntity
  8
IMPORT_IGES
100
AcDbCircle
 62
7
  6
CONTINUOUS
 10
113.3883890978
 20
100.7814127551
 40
0.1
100
AcDbArc
 50
270.0
 51
360.0
  0
ARC
  5
3E6
100
AcDbEntity
  8
IMPORT_IGES
100
AcDbCircle
 62
7
  6
CONTINUOUS
 10
113.3883890978
 20
103.2814127551
 40
0.1
100
AcDbArc
 50
270.0
 51
360.0
  0
ARC
  5
3E7
100
AcDbEntity
  8
IMPORT_IGES
100
AcDbCircle
 62
7
  6
CONTINUOUS
 10
113.3883890978
 20
105.0814127551
 40
0.1
100
AcDbArc
 50
0.0
 51
90.0
  0
ARC
  5
3E8
100
AcDbEntity
  8
IMPORT_IGES
100
AcDbCircle
 62
7
  6
CONTINUOUS
 10
114.3883890978
 20
106.6814127551
 40
1.4
100
AcDbArc
 50
318.1896851042
 51
41.8103148958
  0
ARC
  5
3E9
100
AcDbEntity
  8
IMPORT_IGES
100
AcDbCircle
 62
7
  6
CONTINUOUS
 10
115.0883890978
 20
106.6814127551
 40
1.4
100
AcDbArc
 50
138.1896851042
 51
221.8103148958
  0
ARC
  5
3EA
100
AcDbEntity
  8
IMPORT_IGES
100
AcDbCircle
 62
7
  6
CONTINUOUS
 10
114.3883890978
 20
109.1814127551
 40
1.4
100
AcDbArc
 50
318.1896851042
 51
41.8103148958
  0
ARC
  5
3EB
100
AcDbEntity
  8
IMPORT_IGES
100
AcDbCircle
 62
7
  6
CONTINUOUS
 10
115.0883890978
 20
109.1814127551
 40
1.4
100
AcDbArc
 50
138.1896851042
 51
221.8103148958
  0
ARC
  5
3EC
100
AcDbEntity
  8
IMPORT_IGES
100
AcDbCircle
 62
7
  6
CONTINUOUS
 10
114.3883890978
 20
106.6814127551
 40
1.1000003235
100
AcDbArc
 50
35.0968012276
 51
41.8103148958
  0
ARC
  5
3ED
100
AcDbEntity
  8
IMPORT_IGES
100
AcDbCircle
 62
7
  6
CONTINUOUS
 10
114.3883890978
 20
109.1814127551
 40
1.1000003235
100
AcDbArc
 50
35.0968012276
 51
41.8103148958
  0
ARC
  5
3EE
100
AcDbEntity
  8
IMPORT_IGES
100
AcDbCircle
 62
7
  6
CONTINUOUS
 10
114.3883890978
 20
106.6814127551
 40
1.1
100
AcDbArc
 50
318.1896851042
 51
324.9031987311
  0
ARC
  5
3EF
100
AcDbEntity
  8
IMPORT_IGES
100
AcDbCircle
 62
7
  6
CONTINUOUS
 10
115.0883890978
 20
106.6814127551
 40
1.0999994484
100
AcDbArc
 50
138.1897748578
 51
221.8103440617
  0
ARC
  5
3F0
100
AcDbEntity
  8
IMPORT_IGES
100
AcDbCircle
 62
7
  6
CONTINUOUS
 10
115.0883890978
 20
109.1814127551
 40
1.0999994484
100
AcDbArc
 50
138.1897748578
 51
221.8103440617
  0
ARC
  5
3F1
100
AcDbEntity
  8
IMPORT_IGES
100
AcDbCircle
 62
7
  6
CONTINUOUS
 10
114.3883890978
 20
109.1814127551
 40
1.0999984536
100
AcDbArc
 50
318.1896851042
 51
324.9031987311
  0
ARC
  5
3F2
100
AcDbEntity
  8
IMPORT_IGES
100
AcDbCircle
 62
7
  6
CONTINUOUS
 10
115.4883890978
 20
111.4314127551
 40
0.5
100
AcDbArc
 50
270.0
 51
355.2767117205
  0
ARC
  5
3F3
100
AcDbEntity
  8
IMPORT_IGES
100
AcDbCircle
 62
7
  6
CONTINUOUS
 10
114.4175687046
 20
107.2814127551
 40
0.5
100
AcDbArc
 50
90.0
 51
138.1896851042
  0
ARC
  5
3F4
100
AcDbEntity
  8
IMPORT_IGES
100
AcDbCircle
 62
7
  6
CONTINUOUS
 10
115.0592094911
 20
107.2814127551
 40
0.5
100
AcDbArc
 50
41.8103148958
 51
90.0
  0
ARC
  5
3F5
100
AcDbEntity
  8
IMPORT_IGES
100
AcDbCircle
 62
7
  6
CONTINUOUS
 10
115.0592094911
 20
106.0814127551
 40
0.5
100
AcDbArc
 50
270.0
 51
318.1896851042
  0
ARC
  5
3F6
100
AcDbEntity
  8
IMPORT_IGES
100
AcDbCircle
 62
7
  6
CONTINUOUS
 10
114.4175687046
 20
106.0814127551
 40
0.5
100
AcDbArc
 50
221.8103148958
 51
270.0
  0
ARC
  5
3F7
100
AcDbEntity
  8
IMPORT_IGES
100
AcDbCircle
 62
7
  6
CONTINUOUS
 10
114.4175687046
 20
109.7814127551
 40
0.5
100
AcDbArc
 50
90.0
 51
138.1896851042
  0
ARC
  5
3F8
100
AcDbEntity
  8
IMPORT_IGES
100
AcDbCircle
 62
7
  6
CONTINUOUS
 10
115.0592094911
 20
109.7814127551
 40
0.5
100
AcDbArc
 50
41.8103148958
 51
90.0
  0
ARC
  5
3F9
100
AcDbEntity
  8
IMPORT_IGES
100
AcDbCircle
 62
7
  6
CONTINUOUS
 10
115.0592094911
 20
108.5814127551
 40
0.5
100
AcDbArc
 50
270.0
 51
318.1896851042
  0
ARC
  5
3FA
100
AcDbEntity
  8
IMPORT_IGES
100
AcDbCircle
 62
7
  6
CONTINUOUS
 10
114.4175687046
 20
108.5814127551
 40
0.5
100
AcDbArc
 50
221.8103148958
 51
270.0
  0
ARC
  5
3FB
100
AcDbEntity
  8
IMPORT_IGES
100
AcDbCircle
 62
7
  6
CONTINUOUS
 10
115.0592094911
 20
108.5814127551
 40
0.2000001495
100
AcDbArc
 50
270.0
 51
318.1896851042
  0
ARC
  5
3FC
100
AcDbEntity
  8
IMPORT_IGES
100
AcDbCircle
 62
7
  6
CONTINUOUS
 10
115.4883890978
 20
111.4314127551
 40
0.2
100
AcDbArc
 50
270.0
 51
360.0
  0
ARC
  5
3FD
100
AcDbEntity
  8
IMPORT_IGES
100
AcDbCircle
 62
7
  6
CONTINUOUS
 10
114.4175687046
 20
107.2814127551
 40
0.2
100
AcDbArc
 50
89.9996046797
 51
138.1900015835
  0
ARC
  5
3FE
100
AcDbEntity
  8
IMPORT_IGES
100
AcDbCircle
 62
7
  6
CONTINUOUS
 10
114.4175687046
 20
106.0814127551
 40
0.2
100
AcDbArc
 50
221.8099984165
 51
270.0003953203
  0
ARC
  5
3FF
100
AcDbEntity
  8
IMPORT_IGES
100
AcDbCircle
 62
7
  6
CONTINUOUS
 10
115.0592094911
 20
107.2814127551
 40
0.2
100
AcDbArc
 50
41.8103148958
 51
90.0
  0
ARC
  5
400
100
AcDbEntity
  8
IMPORT_IGES
100
AcDbCircle
 62
7
  6
CONTINUOUS
 10
115.0592094911
 20
106.0814127551
 40
0.2
100
AcDbArc
 50
270.0
 51
318.1896851042
  0
ARC
  5
401
100
AcDbEntity
  8
IMPORT_IGES
100
AcDbCircle
 62
7
  6
CONTINUOUS
 10
114.4175687046
 20
108.5814127551
 40
0.2
100
AcDbArc
 50
221.8099984165
 51
270.0003953203
  0
ARC
  5
402
100
AcDbEntity
  8
IMPORT_IGES
100
AcDbCircle
 62
7
  6
CONTINUOUS
 10
115.0592094911
 20
109.7814127551
 40
0.2
100
AcDbArc
 50
41.8103148958
 51
90.0
  0
ARC
  5
403
100
AcDbEntity
  8
IMPORT_IGES
100
AcDbCircle
 62
7
  6
CONTINUOUS
 10
114.4175687046
 20
109.7814127551
 40
0.2
100
AcDbArc
 50
89.9996046797
 51
138.1900015835
  0
ARC
  5
404
100
AcDbEntity
  8
IMPORT_IGES
100
AcDbCircle
 62
7
  6
CONTINUOUS
 10
113.3883890978
 20
105.7814127551
 40
0.1
100
AcDbArc
 50
270.0
 51
360.0
  0
ARC
  5
405
100
AcDbEntity
  8
IMPORT_IGES
100
AcDbCircle
 62
7
  6
CONTINUOUS
 10
113.3883890978
 20
107.5814127551
 40
0.1
100
AcDbArc
 50
0.0
 51
90.0
  0
ARC
  5
406
100
AcDbEntity
  8
IMPORT_IGES
100
AcDbCircle
 62
7
  6
CONTINUOUS
 10
113.3883890978
 20
108.2814127551
 40
0.1
100
AcDbArc
 50
270.0
 51
360.0
  0
ARC
  5
407
100
AcDbEntity
  8
IMPORT_IGES
100
AcDbCircle
 62
7
  6
CONTINUOUS
 10
113.3883890978
 20
110.0814127551
 40
0.1
100
AcDbArc
 50
0.0
 51
90.0
  0
ELLIPSE
  5
408
100
AcDbEntity
  8
IMPORT_IGES
100
AcDbEllipse
 62
7
  6
CONTINUOUS
 10
112.3507624427
 20
105.0814127551
 30
0.0
 11
0.103527618
 21
-0.0
 31
0.0
 40
0.9659258263
 41
1.5707963268
 42
3.1415926536
  0
ELLIPSE
  5
409
100
AcDbEntity
  8
IMPORT_IGES
100
AcDbEllipse
 62
7
  6
CONTINUOUS
 10
112.3507624427
 20
100.7814127551
 30
0.0
 11
0.103527618
 21
-0.0
 31
0.0
 40
0.9659258263
 41
-3.1415926536
 42
-1.5708133438
  0
ELLIPSE
  5
40A
100
AcDbEntity
  8
IMPORT_IGES
100
AcDbEllipse
 62
7
  6
CONTINUOUS
 10
112.3507624427
 20
103.2814127551
 30
0.0
 11
-0.103527618
 21
-0.0
 31
0.0
 40
0.9659258263
 41
-0.0
 42
1.5707963268
  0
ELLIPSE
  5
40B
100
AcDbEntity
  8
IMPORT_IGES
100
AcDbEllipse
 62
7
  6
CONTINUOUS
 10
112.3507624427
 20
107.5814127551
 30
0.0
 11
0.103527618
 21
-0.0
 31
0.0
 40
0.9659258263
 41
1.5707963268
 42
3.1415926536
  0
ELLIPSE
  5
40C
100
AcDbEntity
  8
IMPORT_IGES
100
AcDbEllipse
 62
7
  6
CONTINUOUS
 10
112.3507624427
 20
108.2814127551
 30
0.0
 11
0.103527618
 21
-0.0
 31
0.0
 40
0.9659258263
 41
-3.1415926536
 42
-1.5707963268
  0
ELLIPSE
  5
40D
100
AcDbEntity
  8
IMPORT_IGES
100
AcDbEllipse
 62
7
  6
CONTINUOUS
 10
112.3507624427
 20
110.0814127551
 30
0.0
 11
0.103527618
 21
0.0
 31
0.0
 40
0.9659258263
 41
1.5708133547
 42
3.1415926536
  0
ELLIPSE
  5
40E
100
AcDbEntity
  8
IMPORT_IGES
100
AcDbEllipse
 62
7
  6
CONTINUOUS
 10
112.3507624427
 20
105.7814127551
 30
0.0
 11
-0.103527618
 21
-0.0
 31
0.0
 40
0.9659258263
 41
-0.0
 42
1.5707963268
  0
ELLIPSE
  5
40F
100
AcDbEntity
  8
IMPORT_IGES
100
AcDbEllipse
 62
7
  6
CONTINUOUS
 10
112.3507624427
 20
102.5814127551
 30
0.0
 11
0.103527618
 21
-0.0
 31
0.0
 40
0.9659258263
 41
1.5707963268
 42
3.1415926536
  0
ENDSEC
  0
SECTION
  2
OBJECTS
  0
DICTIONARY
  5
C
100
AcDbDictionary
280
0
281
1
  3
ACAD_GROUP
350
D
  3
ACAD_MLINESTYLE
350
17
  3
ACAD_LAYOUT
350
1A
  3
ACAD_PLOTSETTINGS
350
19
  3
ACAD_PLOTSTYLENAME
350
E
  0
DICTIONARY
  5
D
102
{ACAD_REACTORS
330
C
102
}
100
AcDbDictionary
280
0
281
1
  0
ACDBDICTIONARYWDFLT
  5
E
102
{ACAD_REACTORS
330
C
102
}
100
AcDbDictionary
281
1
  3
Normal
350
F
100
AcDbDictionaryWithDefault
340
F
  0
DICTIONARY
  5
17
102
{ACAD_REACTORS
330
C
102
}
100
AcDbDictionary
280
0
281
1
  3
Standard
350
18
  0
DICTIONARY
  5
19
102
{ACAD_REACTORS
330
C
102
}
100
AcDbDictionary
281
1
  0
DICTIONARY
  5
1A
102
{ACAD_REACTORS
330
C
102
}
100
AcDbDictionary
281
1
  3
Model
350
410
  3
Layout1
350
411
  0
ACDBPLACEHOLDER
  5
F
102
{ACAD_REACTORS
330
E
102
}
  0
MLINESTYLE
  5
18
102
{ACAD_REACTORS
330
17
102
}
100
AcDbMlineStyle
  2
STANDARD
 70
0
  3

 62
256
 51
90.0
 52
90.0
 71
2
 49
0.5
 62
256
  6
BYLAYER
 49
-0.5
 62
256
  6
BYLAYER
  0
LAYOUT
  5
410
102
{ACAD_REACTORS
330
1A
102
}
100
AcDbPlotSettings
  1

  2
none_device
  4
ISO_A4_(297.00_x_210.00_MM)
  6

 40
0.0
 41
0.0
 42
0.0
 43
0.0
 44
297.0
 45
210.0
 46
0.0
 47
0.0
 48
0.0
 49
0.0
140
0.0
141
0.0
142
1.0
143
1.0
 70
1024
 72
1
 73
0
 74
0
  7

 75
0
147
1.0
148
0.0
149
0.0
100
AcDbLayout
  1
Model
 70
0
 71
0
 10
0.0
 20
0.0
 11
297.0
 21
210.0
 12
0.0
 22
0.0
 32
0.0
 14
0.0
 24
0.0
 34
0.0
 15
0.0
 25
0.0
 35
0.0
146
0.0
 13
0.0
 23
0.0
 33
0.0
 16
1.0
 26
0.0
 36
0.0
 17
0.0
 27
1.0
 37
0.0
 76
0
330
239
345
0
346
0
  0
LAYOUT
  5
411
102
{ACAD_REACTORS
330
1A
102
}
100
AcDbPlotSettings
  1

  2
none_device
  4
ISO_A4_(297.00_x_210.00_MM)
  6

 40
0.0
 41
0.0
 42
0.0
 43
0.0
 44
297.0
 45
210.0
 46
0.0
 47
0.0
 48
0.0
 49
0.0
140
0.0
141
0.0
142
1.0
143
1.0
 70
0
 72
1
 73
0
 74
0
  7

 75
0
147
1.0
148
0.0
149
0.0
100
AcDbLayout
  1
Layout1
 70
0
 71
1
 10
0.0
 20
0.0
 11
297.0
 21
210.0
 12
0.0
 22
0.0
 32
0.0
 14
0.0
 24
0.0
 34
0.0
 15
0.0
 25
0.0
 35
0.0
146
0.0
 13
0.0
 23
0.0
 33
0.0
 16
1.0
 26
0.0
 36
0.0
 17
0.0
 27
1.0
 37
0.0
 76
0
330
23A
345
0
346
0
  0
ENDSEC
  0
EOF
