0
SECTION
2
HEADER
9
$ACADVER
1
AC1014
9
$HANDSEED
5
       2E0
9
$EXTMAX
10
297.0000000000
20
210.0000000000
9
$EXTMIN
10
0.0000000000
20
0.0000000000
9
$LIMMIN
10
0.0000000000
20
0.0000000000
9
$LIMMAX
10
297.0000000000
20
210.0000000000
9
$VIEWCTR
10
148.5000000000
20
105.0000000000
9
$VIEWSIZE
40
210.0000000000
9
$CLAYER
8
0
9
$LTSCALE
40
16.3350000000
9
$CELTYPE
6
BYLAYER
9
$DIMSCALE
40
1
9
$DIMASZ
40
3.0000000000
9
$DIMEXO
40
1.8562500000
9
$DIMDLI
40
11.2860000000
9
$DIMEXE
40
5.3460000000
9
$DIMCEN
40
2.6730000000
9
$DIMLFAC
40
1.0000000000
9
$DIMTXT
40
3.0000000000
9
$DIMTOL
70
1
9
$DIMLIM
70
0
9
$DIMTFAC
40
1.0000000000
9
$DIMTP
40
0.0100000000
9
$DIMTM
40
0.0100000000
9
$MEASUREMENT
70
1
0
ENDSEC
0
SECTION
2
CLASSES
0
ENDSEC
0
SECTION
2
TABLES
0
TABLE
2
VPORT
5
8
100
AcDbSymbolTable
70
2
0
VPORT
5
1F4
100
AcDbSymbolTableRecord
100
AcDbViewportTableRecord
2
*ACTIVE
70
0
10
0.0
20
0.0
11
1.0
21
1.0
12
148.5000000000
22
105.0000000000
13
0.0
23
0.0
14
1.0
24
1.0
15
0.0
25
0.0
16
0.0
26
0.0
36
1.0
17
0.0
27
0.0
37
0.0
40
210.0000000000
41
1.4142857143
42
50.0
43
0.0
44
0.0
50
0.0
51
0.0
71
0
72
100
73
1
74
1
75
0
76
0
77
0
78
0
0
ENDTAB
0
TABLE
2
LTYPE
5
5
100
AcDbSymbolTable
70
6
0
LTYPE
5
14
100
AcDbSymbolTableRecord
100
AcDbLinetypeTableRecord
2
BYBLOCK
70
0
3

72
65
73
0
40
0.0
0
LTYPE
5
15
100
AcDbSymbolTableRecord
100
AcDbLinetypeTableRecord
2
BYLAYER
70
0
3

72
65
73
0
40
0.0
0
LTYPE
5
16
100
AcDbSymbolTableRecord
100
AcDbLinetypeTableRecord
2
CONTINUOUS
70
64
3
Solid line
72
65
73
0
40
0
0
LTYPE
5
1F5
100
AcDbSymbolTableRecord
100
AcDbLinetypeTableRecord
2
CENTER
70
64
3
____ _ ____ _ ____ _ ____ _ ____ _ ____ _ ____
72
65
73
4
40
0.6
49
0.375
74
0
49
-0.075
74
0
49
0.075
74
0
49
-0.075
74
0
0
LTYPE
5
1F6
100
AcDbSymbolTableRecord
100
AcDbLinetypeTableRecord
2
HIDDEN
70
64
3
- - - - - - - - - - - - - - - - - - - -
72
65
73
2
40
0.2
49
0.1
74
0
49
-0.1
74
0
0
LTYPE
5
1F7
100
AcDbSymbolTableRecord
100
AcDbLinetypeTableRecord
2
PHANTOM
70
64
3
_____ _ _ _____ _ _ _____ _ _ _____
72
65
73
6
40
0.8
49
0.45
74
0
49
-0.05
74
0
49
0.1
74
0
49
-0.05
74
0
49
0.1
74
0
49
-0.05
74
0
0
LTYPE
5
1F8
100
AcDbSymbolTableRecord
100
AcDbLinetypeTableRecord
2
DOT
70
64
3
. . . . . . . . . . . . . . . . . . . .
72
65
73
2
40
0.2
49
0.1
74
0
49
-0.1
74
0
0
LTYPE
5
1F9
100
AcDbSymbolTableRecord
100
AcDbLinetypeTableRecord
2
DASHED
70
64
3
- - - - - - - - - - - - - - - - - - - -
72
65
73
2
40
0.2
49
0.1
74
0
49
-0.1
74
0
0
ENDTAB
0
TABLE
2
LAYER
5
2
100
AcDbSymbolTable
70
36
0
LAYER
5
10
100
AcDbSymbolTableRecord
100
AcDbLayerTableRecord
2
0
70
0
62
7
6
CONTINUOUS
0
LAYER
5
1FA
100
AcDbSymbolTableRecord
100
AcDbLayerTableRecord
2
DEFAULT_1
70
0
62
7
6
CENTER
0
LAYER
5
1FB
100
AcDbSymbolTableRecord
100
AcDbLayerTableRecord
2
DEFAULT_2
70
0
62
8
6
HIDDEN
0
LAYER
5
1FC
100
AcDbSymbolTableRecord
100
AcDbLayerTableRecord
2
DEFAULT_3
70
0
62
7
6
PHANTOM
0
LAYER
5
1FD
100
AcDbSymbolTableRecord
100
AcDbLayerTableRecord
2
ASSI
70
0
62
7
6
CONTINUOUS
0
LAYER
5
1FE
100
AcDbSymbolTableRecord
100
AcDbLayerTableRecord
2
COORDINATE
70
0
62
7
6
CONTINUOUS
0
LAYER
5
1FF
100
AcDbSymbolTableRecord
100
AcDbLayerTableRecord
2
COORD_ORIGINE
70
0
62
7
6
CONTINUOUS
0
LAYER
5
200
100
AcDbSymbolTableRecord
100
AcDbLayerTableRecord
2
CURVE
70
0
62
7
6
CONTINUOUS
0
LAYER
5
201
100
AcDbSymbolTableRecord
100
AcDbLayerTableRecord
2
PIANI
70
0
62
7
6
CONTINUOUS
0
LAYER
5
202
100
AcDbSymbolTableRecord
100
AcDbLayerTableRecord
2
PIANI_ORIGINE
70
0
62
7
6
CONTINUOUS
0
LAYER
5
203
100
AcDbSymbolTableRecord
100
AcDbLayerTableRecord
2
RACCORDO
70
0
62
7
6
CONTINUOUS
0
LAYER
5
204
100
AcDbSymbolTableRecord
100
AcDbLayerTableRecord
2
SNAPLINE
70
0
62
7
6
CONTINUOUS
0
LAYER
5
205
100
AcDbSymbolTableRecord
100
AcDbLayerTableRecord
2
SUPERFICI
70
0
62
7
6
CONTINUOUS
0
LAYER
5
206
100
AcDbSymbolTableRecord
100
AcDbLayerTableRecord
2
TRASH
70
0
62
7
6
CONTINUOUS
0
ENDTAB
0
TABLE
2
STYLE
5
3
100
AcDbSymbolTable
70
1
0
STYLE
5
11
100
AcDbSymbolTableRecord
100
AcDbTextStyleTableRecord
2
STANDARD
70
0
40
0.0
41
0.8000000000
50
0.0
71
0
42
0.2
3
txt
4

0
ENDTAB
0
TABLE
2
VIEW
5
6
100
AcDbSymbolTable
70
0
0
ENDTAB
0
TABLE
2
UCS
5
7
100
AcDbSymbolTable
70
0
0
ENDTAB
0
TABLE
2
APPID
5
9
100
AcDbSymbolTable
70
1
0
APPID
5
207
100
AcDbSymbolTableRecord
100
AcDbRegAppTableRecord
2
ACAD
70
0
0
ENDTAB
0
TABLE
2
DIMSTYLE
5
A
100
AcDbSymbolTable
70
1
0
DIMSTYLE
105
208
100
AcDbSymbolTableRecord
100
AcDbDimStyleTableRecord
2
STANDARD
70
0
3

4

5

6

7

40
1.0
41
3.0000000000
42
0.0625
43
0.38
44
0.18
45
0.0
46
0.0
47
0.0100000000
48
0.0100000000
140
3.0000000000
141
0.09
142
0.0
143
25.4
144
1.0000000000
145
0.0
146
1.0000000000
147
0.09
71
1
72
0
73
0
74
0
75
0
76
0
77
1
78
8
170
0
171
2
172
0
173
0
174
0
175
0
176
0
177
0
178
0
270
2
271
2
272
2
273
2
274
2
340
11
275
0
280
0
281
0
282
0
283
1
284
8
285
0
286
0
287
3
288
0
0
DIMSTYLE
105
209
100
AcDbSymbolTableRecord
100
AcDbDimStyleTableRecord
2
DIMSTYLE_1
70
0
3

4

5

6

7

40
1.0
41
3.0000000000
42
0.0625
43
0.38
44
0.18
45
0.0
46
0.0
47
0.0000000000
48
0.0000000000
140
3.0000000000
141
0.09
142
0.0
143
25.4
144
1.0000000000
145
0.0
146
1.0000000000
147
0.09
71
0
72
0
73
0
74
0
75
0
76
0
77
1
78
8
170
0
171
2
172
0
173
0
174
0
175
0
176
0
177
0
178
0
270
2
271
2
272
2
273
2
274
2
340
11
275
0
280
0
281
0
282
0
283
1
284
8
285
0
286
0
287
3
288
0
0
ENDTAB
0
TABLE
2
BLOCK_RECORD
5
1
100
AcDbSymbolTable
70
0
0
BLOCK_RECORD
5
1B
100
AcDbSymbolTableRecord
100
AcDbBlockTableRecord
2
*MODEL_SPACE
0
BLOCK_RECORD
5
1C
100
AcDbSymbolTableRecord
100
AcDbBlockTableRecord
2
*PAPER_SPACE
0
BLOCK_RECORD
5
20A
100
AcDbSymbolTableRecord
100
AcDbBlockTableRecord
2
*D0
0
BLOCK_RECORD
5
20B
100
AcDbSymbolTableRecord
100
AcDbBlockTableRecord
2
*D1
0
BLOCK_RECORD
5
20C
100
AcDbSymbolTableRecord
100
AcDbBlockTableRecord
2
*D2
0
BLOCK_RECORD
5
20D
100
AcDbSymbolTableRecord
100
AcDbBlockTableRecord
2
*D3
0
BLOCK_RECORD
5
20E
100
AcDbSymbolTableRecord
100
AcDbBlockTableRecord
2
*D4
0
ENDTAB
0
ENDSEC
0
SECTION
2
BLOCKS
0
BLOCK
5
1E
100
AcDbEntity
8
0
100
AcDbBlockBegin
2
*MODEL_SPACE
70
0
10
0.0
20
0.0
30
0.0
3
*MODEL_SPACE
1

0
ENDBLK
5
1F
100
AcDbEntity
8
0
100
AcDbBlockEnd
0
BLOCK
5
20
100
AcDbEntity
8
0
100
AcDbBlockBegin
2
*PAPER_SPACE
70
0
10
0.0
20
0.0
30
0.0
3
*PAPER_SPACE
1

0
ENDBLK
5
21
100
AcDbEntity
8
0
100
AcDbBlockEnd
0
BLOCK
5
20F
100
AcDbEntity
8
0
100
AcDbBlockBegin
62
7
6
CONTINUOUS
2
*D0
70
65
10
0.0000000000
20
0.0000000000
3
*D0
1

0
TEXT
5
210
100
AcDbEntity
8
0
100
AcDbText
62
7
6
CONTINUOUS
10
-73.5912142526
20
-3.1667866938
7
STANDARD
40
3.0000000000
1
25,2
50
90.0000000000
41
0.7142857143
72
0
100
AcDbText
0
LINE
5
211
100
AcDbEntity
8
0
100
AcDbLine
62
7
6
CONTINUOUS
10
-53.3412142526
20
-12.5668117843
11
-74.3412142526
21
-12.5668117843
0
LINE
5
212
100
AcDbEntity
8
0
100
AcDbLine
62
7
6
CONTINUOUS
10
-57.2412142526
20
12.6331882157
11
-74.3412142526
21
12.6331882157
0
LINE
5
213
100
AcDbEntity
8
0
100
AcDbLine
62
7
6
CONTINUOUS
10
-72.8412142526
20
-12.5668117843
11
-72.8412142526
21
0.0331882157
0
LINE
5
214
100
AcDbEntity
8
0
100
AcDbLine
62
7
6
CONTINUOUS
10
-72.8412142526
20
12.6331882157
11
-72.8412142526
21
0.0331882157
0
SOLID
5
215
100
AcDbEntity
8
0
100
AcDbTrace
62
7
6
CONTINUOUS
10
-73.7912142526
20
-9.5668117843
11
-72.8412142526
21
-12.5668117843
12
-71.8912142526
22
-9.5668117843
13
-71.8912142526
23
-9.5668117843
0
SOLID
5
216
100
AcDbEntity
8
0
100
AcDbTrace
62
7
6
CONTINUOUS
10
-71.8912142526
20
9.6331882157
11
-72.8412142526
21
12.6331882157
12
-73.7912142526
22
9.6331882157
13
-73.7912142526
23
9.6331882157
0
ENDBLK
5
217
100
AcDbEntity
8
0
100
AcDbBlockEnd
0
BLOCK
5
218
100
AcDbEntity
8
0
100
AcDbBlockBegin
62
7
6
CONTINUOUS
2
*D1
70
65
10
0.0000000000
20
0.0000000000
3
*D1
1

0
TEXT
5
219
100
AcDbEntity
8
0
100
AcDbText
62
7
6
CONTINUOUS
10
-44.6706029557
20
21.3831882157
7
STANDARD
40
3.0000000000
1
44
41
0.7857142857
72
0
100
AcDbText
0
LINE
5
21A
100
AcDbEntity
8
0
100
AcDbLine
62
7
6
CONTINUOUS
10
-64.8412142526
20
8.2831882157
11
-64.8412142526
21
22.1331882157
0
LINE
5
21B
100
AcDbEntity
8
0
100
AcDbLine
62
7
6
CONTINUOUS
10
-20.8412142526
20
0.3831882157
11
-20.8412142526
21
22.1331882157
0
LINE
5
21C
100
AcDbEntity
8
0
100
AcDbLine
62
7
6
CONTINUOUS
10
-64.8412142526
20
20.6331882157
11
-42.8412142526
21
20.6331882157
0
LINE
5
21D
100
AcDbEntity
8
0
100
AcDbLine
62
7
6
CONTINUOUS
10
-20.8412142526
20
20.6331882157
11
-42.8412142526
21
20.6331882157
0
SOLID
5
21E
100
AcDbEntity
8
0
100
AcDbTrace
62
7
6
CONTINUOUS
10
-61.8412142526
20
21.5831882157
11
-64.8412142526
21
20.6331882157
12
-61.8412142526
22
19.6831882157
13
-61.8412142526
23
19.6831882157
0
SOLID
5
21F
100
AcDbEntity
8
0
100
AcDbTrace
62
7
6
CONTINUOUS
10
-23.8412142526
20
19.6831882157
11
-20.8412142526
21
20.6331882157
12
-23.8412142526
22
21.5831882157
13
-23.8412142526
23
21.5831882157
0
ENDBLK
5
220
100
AcDbEntity
8
0
100
AcDbBlockEnd
0
BLOCK
5
221
100
AcDbEntity
8
0
100
AcDbBlockBegin
62
7
6
CONTINUOUS
2
*D2
70
65
10
0.0000000000
20
0.0000000000
3
*D2
1

0
TEXT
5
222
100
AcDbEntity
8
0
100
AcDbText
62
7
6
CONTINUOUS
10
-3.6653461706
20
31.3831882157
7
STANDARD
40
3.0000000000
1
18,7
41
0.6785714286
72
0
100
AcDbText
0
LINE
5
223
100
AcDbEntity
8
0
100
AcDbLine
62
7
6
CONTINUOUS
10
9.2259967663
20
11.9331882157
11
9.2259967663
21
32.1331882157
0
LINE
5
224
100
AcDbEntity
8
0
100
AcDbLine
62
7
6
CONTINUOUS
10
-9.4740032337
20
11.9331882157
11
-9.4740032337
21
32.1331882157
0
LINE
5
225
100
AcDbEntity
8
0
100
AcDbLine
62
7
6
CONTINUOUS
10
9.2259967663
20
30.6331882157
11
-0.1240032337
21
30.6331882157
0
LINE
5
226
100
AcDbEntity
8
0
100
AcDbLine
62
7
6
CONTINUOUS
10
-9.4740032337
20
30.6331882157
11
-0.1240032337
21
30.6331882157
0
SOLID
5
227
100
AcDbEntity
8
0
100
AcDbTrace
62
7
6
CONTINUOUS
10
6.2259967663
20
29.6831882157
11
9.2259967663
21
30.6331882157
12
6.2259967663
22
31.5831882157
13
6.2259967663
23
31.5831882157
0
SOLID
5
228
100
AcDbEntity
8
0
100
AcDbTrace
62
7
6
CONTINUOUS
10
-6.4740032337
20
31.5831882157
11
-9.4740032337
21
30.6331882157
12
-6.4740032337
22
29.6831882157
13
-6.4740032337
23
29.6831882157
0
ENDBLK
5
229
100
AcDbEntity
8
0
100
AcDbBlockEnd
0
BLOCK
5
22A
100
AcDbEntity
8
0
100
AcDbBlockBegin
62
7
6
CONTINUOUS
2
*D3
70
65
10
0.0000000000
20
0.0000000000
3
*D3
1

0
TEXT
5
22B
100
AcDbEntity
8
0
100
AcDbText
62
7
6
CONTINUOUS
10
16.4759967663
20
-1.3795006912
7
STANDARD
40
3.0000000000
1
16
50
90.0000000000
41
0.6785714286
72
0
100
AcDbText
0
LINE
5
22C
100
AcDbEntity
8
0
100
AcDbLine
62
7
6
CONTINUOUS
10
7.6259967663
20
7.7831882157
11
18.7259967663
21
7.7831882157
0
LINE
5
22D
100
AcDbEntity
8
0
100
AcDbLine
62
7
6
CONTINUOUS
10
7.6259967663
20
-8.2168117843
11
18.7259967663
21
-8.2168117843
0
LINE
5
22E
100
AcDbEntity
8
0
100
AcDbLine
62
7
6
CONTINUOUS
10
17.2259967663
20
7.7831882157
11
17.2259967663
21
-0.2168117843
0
LINE
5
22F
100
AcDbEntity
8
0
100
AcDbLine
62
7
6
CONTINUOUS
10
17.2259967663
20
-8.2168117843
11
17.2259967663
21
-0.2168117843
0
SOLID
5
230
100
AcDbEntity
8
0
100
AcDbTrace
62
7
6
CONTINUOUS
10
18.1759967663
20
4.7831882157
11
17.2259967663
21
7.7831882157
12
16.2759967663
22
4.7831882157
13
16.2759967663
23
4.7831882157
0
SOLID
5
231
100
AcDbEntity
8
0
100
AcDbTrace
62
7
6
CONTINUOUS
10
16.2759967663
20
-5.2168117843
11
17.2259967663
21
-8.2168117843
12
18.1759967663
22
-5.2168117843
13
18.1759967663
23
-5.2168117843
0
ENDBLK
5
232
100
AcDbEntity
8
0
100
AcDbBlockEnd
0
BLOCK
5
233
100
AcDbEntity
8
0
100
AcDbBlockBegin
62
7
6
CONTINUOUS
2
*D4
70
65
10
0.0000000000
20
0.0000000000
3
*D4
1

0
TEXT
5
234
100
AcDbEntity
8
0
100
AcDbText
62
7
6
CONTINUOUS
10
-3.3612013638
20
21.3831882157
7
STANDARD
40
3.0000000000
1
14,5
41
0.6607142857
72
0
100
AcDbText
0
LINE
5
235
100
AcDbEntity
8
0
100
AcDbLine
62
7
6
CONTINUOUS
10
7.1259967663
20
8.2831882157
11
7.1259967663
21
22.1331882157
0
LINE
5
236
100
AcDbEntity
8
0
100
AcDbLine
62
7
6
CONTINUOUS
10
-7.3740032337
20
8.2831882157
11
-7.3740032337
21
22.1331882157
0
LINE
5
237
100
AcDbEntity
8
0
100
AcDbLine
62
7
6
CONTINUOUS
10
7.1259967663
20
20.6331882157
11
-0.1240032337
21
20.6331882157
0
LINE
5
238
100
AcDbEntity
8
0
100
AcDbLine
62
7
6
CONTINUOUS
10
-7.3740032337
20
20.6331882157
11
-0.1240032337
21
20.6331882157
0
SOLID
5
239
100
AcDbEntity
8
0
100
AcDbTrace
62
7
6
CONTINUOUS
10
4.1259967663
20
19.6831882157
11
7.1259967663
21
20.6331882157
12
4.1259967663
22
21.5831882157
13
4.1259967663
23
21.5831882157
0
SOLID
5
23A
100
AcDbEntity
8
0
100
AcDbTrace
62
7
6
CONTINUOUS
10
-4.3740032337
20
21.5831882157
11
-7.3740032337
21
20.6331882157
12
-4.3740032337
22
19.6831882157
13
-4.3740032337
23
19.6831882157
0
ENDBLK
5
23B
100
AcDbEntity
8
0
100
AcDbBlockEnd
0
ENDSEC
0
SECTION
2
ENTITIES
0
DIMENSION
5
23C
100
AcDbEntity
8
0
100
AcDbDimension
62
7
6
CONTINUOUS
2
*D0
10
-72.8412142526
20
12.6331882157
11
-75.0912142526
21
1.1189275919
70
160
3
DIMSTYLE_1
100
AcDbAlignedDimension
13
-53.3412142526
23
-12.5668117843
14
-57.2412142526
24
12.6331882157
50
90.000000
100
AcDbRotatedDimension
0
DIMENSION
5
23D
100
AcDbEntity
8
0
100
AcDbDimension
62
7
6
CONTINUOUS
2
*D1
10
-20.8412142526
20
20.6331882157
11
-42.3134600986
21
22.8831882157
70
160
3
DIMSTYLE_1
100
AcDbAlignedDimension
13
-64.8412142526
23
8.2831882157
14
-20.8412142526
24
0.3831882157
100
AcDbRotatedDimension
0
DIMENSION
5
23E
100
AcDbEntity
8
0
100
AcDbDimension
62
7
6
CONTINUOUS
2
*D2
10
-9.4740032337
20
30.6331882157
11
0.4060824009
21
32.8831882157
70
160
3
DIMSTYLE_1
100
AcDbAlignedDimension
13
9.2259967663
23
11.9331882157
14
-9.4740032337
24
11.9331882157
50
180.000000
100
AcDbRotatedDimension
0
DIMENSION
5
23F
100
AcDbEntity
8
0
100
AcDbDimension
62
7
6
CONTINUOUS
2
*D3
10
17.2259967663
20
-8.2168117843
11
14.9759967663
21
0.6562135946
70
160
3
DIMSTYLE_1
100
AcDbAlignedDimension
13
7.6259967663
23
7.7831882157
14
7.6259967663
24
-8.2168117843
50
270.000000
100
AcDbRotatedDimension
0
DIMENSION
5
240
100
AcDbEntity
8
0
100
AcDbDimension
62
7
6
CONTINUOUS
2
*D4
10
-7.3740032337
20
20.6331882157
11
0.6030843505
21
22.8831882157
70
160
3
DIMSTYLE_1
100
AcDbAlignedDimension
13
7.1259967663
23
8.2831882157
14
-7.3740032337
24
8.2831882157
50
180.000000
100
AcDbRotatedDimension
0
LINE
5
241
100
AcDbEntity
8
0
100
AcDbLine
62
7
6
CONTINUOUS
10
8.9259967663
20
-12.5668117843
11
-9.1740032337
21
-12.5668117843
0
LINE
5
242
100
AcDbEntity
8
0
100
AcDbLine
62
9
6
CONTINUOUS
10
9.2259967663
20
-12.2668117843
11
-9.4740032337
21
-12.2668117843
0
LINE
5
243
100
AcDbEntity
8
0
100
AcDbLine
62
7
6
CONTINUOUS
10
-9.4740032337
20
-12.2668117843
11
-9.4740032337
21
11.4331882157
0
LINE
5
244
100
AcDbEntity
8
0
100
AcDbLine
62
7
6
CONTINUOUS
10
3.9759967663
20
-9.3668117843
11
-4.2240032337
21
-9.3668117843
0
LINE
5
245
100
AcDbEntity
8
0
100
AcDbLine
62
7
6
CONTINUOUS
10
-9.1740032337
20
-7.7668117843
11
-9.1740032337
21
11.4331882157
0
LINE
5
246
100
AcDbEntity
8
0
100
AcDbLine
62
7
6
CONTINUOUS
10
-9.1240032337
20
-7.8668117843
11
-9.1240032337
21
9.1331882157
0
LINE
5
247
100
AcDbEntity
8
0
100
AcDbLine
62
7
6
CONTINUOUS
10
-9.0240032337
20
-8.2168117843
11
-9.0240032337
21
11.8831882157
0
LINE
5
248
100
AcDbEntity
8
0
100
AcDbLine
62
9
6
CONTINUOUS
10
-9.4740032337
20
-8.3668117843
11
-4.2240032337
21
-8.3668117843
0
LINE
5
249
100
AcDbEntity
8
0
100
AcDbLine
62
9
6
CONTINUOUS
10
3.9759967663
20
-8.3668117843
11
9.2259967663
21
-8.3668117843
0
LINE
5
24A
100
AcDbEntity
8
0
100
AcDbLine
62
7
6
CONTINUOUS
10
8.7759967663
20
-8.2168117843
11
-9.0240032337
21
-8.2168117843
0
LINE
5
24B
100
AcDbEntity
8
0
100
AcDbLine
62
7
6
CONTINUOUS
10
-7.3740032337
20
-8.2168117843
11
-7.3740032337
21
7.7831882157
0
LINE
5
24C
100
AcDbEntity
8
0
100
AcDbLine
62
7
6
CONTINUOUS
10
9.2259967663
20
-8.0668117843
11
8.7759967663
21
-8.0668117843
0
LINE
5
24D
100
AcDbEntity
8
0
100
AcDbLine
62
7
6
CONTINUOUS
10
-9.0240032337
20
-8.0668117843
11
-9.4740032337
21
-8.0668117843
0
LINE
5
24E
100
AcDbEntity
8
0
100
AcDbLine
62
7
6
CONTINUOUS
10
-9.1240032337
20
-7.8668117843
11
-9.0240032337
21
-7.8668117843
0
LINE
5
24F
100
AcDbEntity
8
0
100
AcDbLine
62
7
6
CONTINUOUS
10
8.8759967663
20
-7.8668117843
11
8.7759967663
21
-7.8668117843
0
LINE
5
250
100
AcDbEntity
8
0
100
AcDbLine
62
7
6
CONTINUOUS
10
8.9259967663
20
-7.7668117843
11
8.8759967663
21
-7.7668117843
0
LINE
5
251
100
AcDbEntity
8
0
100
AcDbLine
62
7
6
CONTINUOUS
10
-9.1240032337
20
-7.7668117843
11
-9.1740032337
21
-7.7668117843
0
LINE
5
252
100
AcDbEntity
8
0
100
AcDbLine
62
7
6
CONTINUOUS
10
-2.1740032337
20
-7.2168117843
11
1.9259967663
21
-7.2168117843
0
LINE
5
253
100
AcDbEntity
8
0
100
AcDbLine
62
7
6
CONTINUOUS
10
-6.1240032337
20
2.5831882157
11
-6.1240032337
21
-4.4168117843
0
LINE
5
254
100
AcDbEntity
8
0
100
AcDbLine
62
7
6
CONTINUOUS
10
-5.9240032337
20
8.0831882157
11
-5.9240032337
21
12.6331882157
0
LINE
5
255
100
AcDbEntity
8
0
100
AcDbLine
62
7
6
CONTINUOUS
10
-5.4240032337
20
7.7831882157
11
-5.4240032337
21
8.9039656750
0
LINE
5
256
100
AcDbEntity
8
0
100
AcDbLine
62
7
6
CONTINUOUS
10
-3.4240032337
20
-6.0168117843
11
-2.1740032337
21
-6.0168117843
0
LINE
5
257
100
AcDbEntity
8
0
100
AcDbLine
62
7
6
CONTINUOUS
10
1.9259967663
20
-6.0168117843
11
3.1759967663
21
-6.0168117843
0
LINE
5
258
100
AcDbEntity
8
0
100
AcDbLine
62
7
6
CONTINUOUS
10
-4.2240032337
20
-9.3668117843
11
-4.2240032337
21
-8.2168117843
0
LINE
5
259
100
AcDbEntity
8
0
100
AcDbLine
62
7
6
CONTINUOUS
10
-4.1740032337
20
8.9039656750
11
-4.1740032337
21
8.9331882157
0
LINE
5
25A
100
AcDbEntity
8
0
100
AcDbLine
62
7
6
CONTINUOUS
10
-6.1240032337
20
-4.4168117843
11
-3.4240032337
21
-4.4168117843
0
LINE
5
25B
100
AcDbEntity
8
0
100
AcDbLine
62
7
6
CONTINUOUS
10
3.1759967663
20
-4.4168117843
11
5.8759967663
21
-4.4168117843
0
LINE
5
25C
100
AcDbEntity
8
0
100
AcDbLine
62
7
6
CONTINUOUS
10
-3.4240032337
20
-4.2668117843
11
-3.1740032337
21
-4.2668117843
0
LINE
5
25D
100
AcDbEntity
8
0
100
AcDbLine
62
7
6
CONTINUOUS
10
2.9259967663
20
-4.2668117843
11
3.1759967663
21
-4.2668117843
0
LINE
5
25E
100
AcDbEntity
8
0
100
AcDbLine
62
7
6
CONTINUOUS
10
-3.8240032337
20
2.5831882157
11
-3.8240032337
21
-0.4168117843
0
LINE
5
25F
100
AcDbEntity
8
0
100
AcDbLine
62
7
6
CONTINUOUS
10
-3.4240032337
20
2.5831882157
11
-3.4240032337
21
-0.4168117843
0
LINE
5
260
100
AcDbEntity
8
0
100
AcDbLine
62
7
6
CONTINUOUS
10
-3.4240032337
20
-6.0168117843
11
-3.4240032337
21
-3.5168117843
0
LINE
5
261
100
AcDbEntity
8
0
100
AcDbLine
62
7
6
CONTINUOUS
10
-3.1740032337
20
-4.2668117843
11
-3.1740032337
21
-3.5168117843
0
LINE
5
262
100
AcDbEntity
8
0
100
AcDbLine
62
7
6
CONTINUOUS
10
-3.4240032337
20
-3.5168117843
11
3.1759967663
21
-3.5168117843
0
LINE
5
263
100
AcDbEntity
8
0
100
AcDbLine
62
7
6
CONTINUOUS
10
-2.8240032337
20
2.5831882157
11
-2.8240032337
21
-0.4168117843
0
LINE
5
264
100
AcDbEntity
8
0
100
AcDbLine
62
7
6
CONTINUOUS
10
-2.4240032337
20
2.5831882157
11
-2.4240032337
21
-0.4168117843
0
LINE
5
265
100
AcDbEntity
8
0
100
AcDbLine
62
7
6
CONTINUOUS
10
-2.1740032337
20
-6.0168117843
11
-2.1740032337
21
-7.2168117843
0
LINE
5
266
100
AcDbEntity
8
0
100
AcDbLine
62
7
6
CONTINUOUS
10
-1.8240032337
20
2.5831882157
11
-1.8240032337
21
-0.4168117843
0
LINE
5
267
100
AcDbEntity
8
0
100
AcDbLine
62
7
6
CONTINUOUS
10
-1.4240032337
20
2.5831882157
11
-1.4240032337
21
-0.4168117843
0
LINE
5
268
100
AcDbEntity
8
0
100
AcDbLine
62
7
6
CONTINUOUS
10
-0.8240032337
20
2.5831882157
11
-0.8240032337
21
-0.4168117843
0
LINE
5
269
100
AcDbEntity
8
0
100
AcDbLine
62
7
6
CONTINUOUS
10
-0.4240032337
20
2.5831882157
11
-0.4240032337
21
-0.4168117843
0
LINE
5
26A
100
AcDbEntity
8
0
100
AcDbLine
62
7
6
CONTINUOUS
10
-9.1740032337
20
-0.5668117843
11
-9.1240032337
21
-0.5668117843
0
LINE
5
26B
100
AcDbEntity
8
0
100
AcDbLine
62
7
6
CONTINUOUS
10
8.8759967663
20
-0.5668117843
11
8.9259967663
21
-0.5668117843
0
LINE
5
26C
100
AcDbEntity
8
0
100
AcDbLine
62
7
6
CONTINUOUS
10
3.5759967663
20
-0.4168117843
11
3.1759967663
21
-0.4168117843
0
LINE
5
26D
100
AcDbEntity
8
0
100
AcDbLine
62
7
6
CONTINUOUS
10
2.5759967663
20
-0.4168117843
11
2.1759967663
21
-0.4168117843
0
LINE
5
26E
100
AcDbEntity
8
0
100
AcDbLine
62
7
6
CONTINUOUS
10
1.5759967663
20
-0.4168117843
11
1.1759967663
21
-0.4168117843
0
LINE
5
26F
100
AcDbEntity
8
0
100
AcDbLine
62
7
6
CONTINUOUS
10
0.5759967663
20
-0.4168117843
11
0.1759967663
21
-0.4168117843
0
LINE
5
270
100
AcDbEntity
8
0
100
AcDbLine
62
7
6
CONTINUOUS
10
-0.4240032337
20
-0.4168117843
11
-0.8240032337
21
-0.4168117843
0
LINE
5
271
100
AcDbEntity
8
0
100
AcDbLine
62
7
6
CONTINUOUS
10
-1.4240032337
20
-0.4168117843
11
-1.8240032337
21
-0.4168117843
0
LINE
5
272
100
AcDbEntity
8
0
100
AcDbLine
62
7
6
CONTINUOUS
10
-2.4240032337
20
-0.4168117843
11
-2.8240032337
21
-0.4168117843
0
LINE
5
273
100
AcDbEntity
8
0
100
AcDbLine
62
7
6
CONTINUOUS
10
-3.4240032337
20
-0.4168117843
11
-3.8240032337
21
-0.4168117843
0
LINE
5
274
100
AcDbEntity
8
0
100
AcDbLine
62
7
6
CONTINUOUS
10
0.1759967663
20
2.5831882157
11
0.1759967663
21
-0.4168117843
0
LINE
5
275
100
AcDbEntity
8
0
100
AcDbLine
62
7
6
CONTINUOUS
10
0.5759967663
20
2.5831882157
11
0.5759967663
21
-0.4168117843
0
LINE
5
276
100
AcDbEntity
8
0
100
AcDbLine
62
7
6
CONTINUOUS
10
1.1759967663
20
2.5831882157
11
1.1759967663
21
-0.4168117843
0
LINE
5
277
100
AcDbEntity
8
0
100
AcDbLine
62
7
6
CONTINUOUS
10
1.5759967663
20
2.5831882157
11
1.5759967663
21
-0.4168117843
0
LINE
5
278
100
AcDbEntity
8
0
100
AcDbLine
62
7
6
CONTINUOUS
10
1.9259967663
20
-7.2168117843
11
1.9259967663
21
-6.0168117843
0
LINE
5
279
100
AcDbEntity
8
0
100
AcDbLine
62
7
6
CONTINUOUS
10
2.1759967663
20
2.5831882157
11
2.1759967663
21
-0.4168117843
0
LINE
5
27A
100
AcDbEntity
8
0
100
AcDbLine
62
7
6
CONTINUOUS
10
2.5759967663
20
2.5831882157
11
2.5759967663
21
-0.4168117843
0
LINE
5
27B
100
AcDbEntity
8
0
100
AcDbLine
62
7
6
CONTINUOUS
10
2.9259967663
20
-3.5168117843
11
2.9259967663
21
-4.2668117843
0
LINE
5
27C
100
AcDbEntity
8
0
100
AcDbLine
62
7
6
CONTINUOUS
10
5.8759967663
20
2.5831882157
11
-6.1240032337
21
2.5831882157
0
LINE
5
27D
100
AcDbEntity
8
0
100
AcDbLine
62
7
6
CONTINUOUS
10
3.1759967663
20
2.5831882157
11
3.1759967663
21
-0.4168117843
0
LINE
5
27E
100
AcDbEntity
8
0
100
AcDbLine
62
7
6
CONTINUOUS
10
3.1759967663
20
-6.0168117843
11
3.1759967663
21
-3.5168117843
0
LINE
5
27F
100
AcDbEntity
8
0
100
AcDbLine
62
7
6
CONTINUOUS
10
3.5759967663
20
2.5831882157
11
3.5759967663
21
-0.4168117843
0
LINE
5
280
100
AcDbEntity
8
0
100
AcDbLine
62
7
6
CONTINUOUS
10
3.9259967663
20
8.9039656750
11
3.9259967663
21
8.9331882157
0
LINE
5
281
100
AcDbEntity
8
0
100
AcDbLine
62
7
6
CONTINUOUS
10
3.9759967663
20
-9.3668117843
11
3.9759967663
21
-8.2168117843
0
LINE
5
282
100
AcDbEntity
8
0
100
AcDbLine
62
7
6
CONTINUOUS
10
5.1759967663
20
7.7831882157
11
5.1759967663
21
8.9039656750
0
LINE
5
283
100
AcDbEntity
8
0
100
AcDbLine
62
7
6
CONTINUOUS
10
5.6759967663
20
8.0831882157
11
5.6759967663
21
12.6331882157
0
LINE
5
284
100
AcDbEntity
8
0
100
AcDbLine
62
7
6
CONTINUOUS
10
5.8759967663
20
-4.4168117843
11
5.8759967663
21
2.5831882157
0
LINE
5
285
100
AcDbEntity
8
0
100
AcDbLine
62
7
6
CONTINUOUS
10
7.1259967663
20
7.7831882157
11
7.1259967663
21
-8.2168117843
0
LINE
5
286
100
AcDbEntity
8
0
100
AcDbLine
62
7
6
CONTINUOUS
10
-9.1240032337
20
7.4331882157
11
-9.0240032337
21
7.4331882157
0
LINE
5
287
100
AcDbEntity
8
0
100
AcDbLine
62
7
6
CONTINUOUS
10
8.8759967663
20
7.4331882157
11
8.7759967663
21
7.4331882157
0
LINE
5
288
100
AcDbEntity
8
0
100
AcDbLine
62
7
6
CONTINUOUS
10
-9.0240032337
20
7.7831882157
11
8.7759967663
21
7.7831882157
0
LINE
5
289
100
AcDbEntity
8
0
100
AcDbLine
62
7
6
CONTINUOUS
10
-9.0240032337
20
8.0831882157
11
-5.4240032337
21
8.0831882157
0
LINE
5
28A
100
AcDbEntity
8
0
100
AcDbLine
62
7
6
CONTINUOUS
10
5.1759967663
20
8.0831882157
11
8.7759967663
21
8.0831882157
0
LINE
5
28B
100
AcDbEntity
8
0
100
AcDbLine
62
7
6
CONTINUOUS
10
9.2259967663
20
8.2331882157
11
8.9259967663
21
8.2331882157
0
LINE
5
28C
100
AcDbEntity
8
0
100
AcDbLine
62
7
6
CONTINUOUS
10
-9.1740032337
20
8.2331882157
11
-9.4740032337
21
8.2331882157
0
LINE
5
28D
100
AcDbEntity
8
0
100
AcDbLine
62
7
6
CONTINUOUS
10
8.7759967663
20
-8.2168117843
11
8.7759967663
21
11.8831882157
0
LINE
5
28E
100
AcDbEntity
8
0
100
AcDbLine
62
7
6
CONTINUOUS
10
8.8759967663
20
-7.8668117843
11
8.8759967663
21
9.1331882157
0
LINE
5
28F
100
AcDbEntity
8
0
100
AcDbLine
62
7
6
CONTINUOUS
10
8.9259967663
20
11.4331882157
11
8.9259967663
21
-7.7668117843
0
LINE
5
290
100
AcDbEntity
8
0
100
AcDbLine
62
7
6
CONTINUOUS
10
9.2259967663
20
-12.2668117843
11
9.2259967663
21
11.4331882157
0
LINE
5
291
100
AcDbEntity
8
0
100
AcDbLine
62
7
6
CONTINUOUS
10
5.1759967663
20
8.9039656750
11
-5.4240032337
21
8.9039656750
0
LINE
5
292
100
AcDbEntity
8
0
100
AcDbLine
62
7
6
CONTINUOUS
10
3.9259967663
20
8.9331882157
11
-4.1740032337
21
8.9331882157
0
LINE
5
293
100
AcDbEntity
8
0
100
AcDbLine
62
7
6
CONTINUOUS
10
-9.1240032337
20
9.1331882157
11
-9.0240032337
21
9.1331882157
0
LINE
5
294
100
AcDbEntity
8
0
100
AcDbLine
62
7
6
CONTINUOUS
10
8.7759967663
20
9.1331882157
11
8.8759967663
21
9.1331882157
0
LINE
5
295
100
AcDbEntity
8
0
100
AcDbLine
62
9
6
CONTINUOUS
10
5.6759967663
20
9.7331882157
11
-5.9240032337
21
9.7331882157
0
LINE
5
296
100
AcDbEntity
8
0
100
AcDbLine
62
7
6
CONTINUOUS
10
5.6759967663
20
10.2331882157
11
-5.9240032337
21
10.2331882157
0
LINE
5
297
100
AcDbEntity
8
0
100
AcDbLine
62
7
6
CONTINUOUS
10
5.6759967663
20
10.7331882157
11
-5.9240032337
21
10.7331882157
0
LINE
5
298
100
AcDbEntity
8
0
100
AcDbLine
62
7
6
CONTINUOUS
10
-9.4740032337
20
11.4331882157
11
-9.0240032337
21
11.4331882157
0
LINE
5
299
100
AcDbEntity
8
0
100
AcDbLine
62
7
6
CONTINUOUS
10
8.7759967663
20
11.4331882157
11
9.2259967663
21
11.4331882157
0
LINE
5
29A
100
AcDbEntity
8
0
100
AcDbLine
62
7
6
CONTINUOUS
10
-9.0240032337
20
11.8831882157
11
-5.9240032337
21
11.8831882157
0
LINE
5
29B
100
AcDbEntity
8
0
100
AcDbLine
62
7
6
CONTINUOUS
10
5.6759967663
20
11.8831882157
11
8.7759967663
21
11.8831882157
0
LINE
5
29C
100
AcDbEntity
8
0
100
AcDbLine
62
7
6
CONTINUOUS
10
5.6759967663
20
12.6331882157
11
-5.9240032337
21
12.6331882157
0
LINE
5
29D
100
AcDbEntity
8
0
100
AcDbLine
62
7
6
CONTINUOUS
10
-64.8412142526
20
7.7831882157
11
-64.8412142526
21
-8.2168117843
0
LINE
5
29E
100
AcDbEntity
8
0
100
AcDbLine
62
7
6
CONTINUOUS
10
-59.6912142526
20
10.7331882157
11
-57.3412142526
21
12.6331882157
0
LINE
5
29F
100
AcDbEntity
8
0
100
AcDbLine
62
7
6
CONTINUOUS
10
-59.6912142526
20
10.2331882157
11
-59.6912142526
21
10.7331882157
0
LINE
5
2A0
100
AcDbEntity
8
0
100
AcDbLine
62
7
6
CONTINUOUS
10
-56.8412142526
20
-9.3668117843
11
-58.2412142526
21
-8.2168117843
0
LINE
5
2A1
100
AcDbEntity
8
0
100
AcDbLine
62
7
6
CONTINUOUS
10
-56.8412142526
20
-8.2168117843
11
-56.8412142526
21
-9.3668117843
0
LINE
5
2A2
100
AcDbEntity
8
0
100
AcDbLine
62
7
6
CONTINUOUS
10
-56.7412142526
20
12.6331882157
11
-56.7412142526
21
11.5331882157
0
LINE
5
2A3
100
AcDbEntity
8
0
100
AcDbLine
62
7
6
CONTINUOUS
10
-54.9412142526
20
-8.2168117843
11
-54.9412142526
21
7.7831882157
0
LINE
5
2A4
100
AcDbEntity
8
0
100
AcDbLine
62
7
6
CONTINUOUS
10
-54.6412142526
20
8.0831882157
11
-54.6412142526
21
-8.2168117843
0
LINE
5
2A5
100
AcDbEntity
8
0
100
AcDbLine
62
7
6
CONTINUOUS
10
-54.4912142526
20
-7.8668117843
11
-54.4912142526
21
7.4331882157
0
LINE
5
2A6
100
AcDbEntity
8
0
100
AcDbLine
62
7
6
CONTINUOUS
10
-37.3412142526
20
-12.5668117843
11
-52.8412142526
21
-12.5668117843
0
LINE
5
2A7
100
AcDbEntity
8
0
100
AcDbLine
62
9
6
CONTINUOUS
10
-37.0412142526
20
-12.2668117843
11
-53.1412142526
21
-12.2668117843
0
LINE
5
2A8
100
AcDbEntity
8
0
100
AcDbLine
62
7
6
CONTINUOUS
10
-54.4412142526
20
8.2331882157
11
-54.4412142526
21
-8.0668117843
0
LINE
5
2A9
100
AcDbEntity
8
0
100
AcDbLine
62
7
6
CONTINUOUS
10
-53.1412142526
20
-12.2668117843
11
-53.1412142526
21
-8.3668117843
0
LINE
5
2AA
100
AcDbEntity
8
0
100
AcDbLine
62
7
6
CONTINUOUS
10
-52.2412142526
20
8.6102715491
11
-52.2412142526
21
8.2331882157
0
LINE
5
2AB
100
AcDbEntity
8
0
100
AcDbLine
62
7
6
CONTINUOUS
10
-54.6412142526
20
-8.2168117843
11
-64.8412142526
21
-8.2168117843
0
LINE
5
2AC
100
AcDbEntity
8
0
100
AcDbLine
62
7
6
CONTINUOUS
10
-53.4412142526
20
-8.0668117843
11
-54.4412142526
21
-8.0668117843
0
LINE
5
2AD
100
AcDbEntity
8
0
100
AcDbLine
62
7
6
CONTINUOUS
10
-54.6412142526
20
-7.8668117843
11
-54.4412142526
21
-7.8668117843
0
LINE
5
2AE
100
AcDbEntity
8
0
100
AcDbLine
62
7
6
CONTINUOUS
10
-52.3024005288
20
8.9039656750
11
-52.2412142526
21
8.6102715491
0
LINE
5
2AF
100
AcDbEntity
8
0
100
AcDbLine
62
7
6
CONTINUOUS
10
-48.6912142526
20
8.2331882157
11
-48.6912142526
21
9.7331882157
0
LINE
5
2B0
100
AcDbEntity
8
0
100
AcDbLine
62
7
6
CONTINUOUS
10
-48.3412142526
20
11.5831882157
11
-48.3412142526
21
11.8831882157
0
LINE
5
2B1
100
AcDbEntity
8
0
100
AcDbLine
62
7
6
CONTINUOUS
10
-46.8412142526
20
8.2331882157
11
-46.8412142526
21
11.8831882157
0
LINE
5
2B2
100
AcDbEntity
8
0
100
AcDbLine
62
7
6
CONTINUOUS
10
-46.5412142526
20
11.5831882157
11
-46.5412142526
21
8.2331882157
0
LINE
5
2B3
100
AcDbEntity
8
0
100
AcDbLine
62
7
6
CONTINUOUS
10
-35.8412142526
20
-0.8668117843
11
-36.7412142526
21
-0.8668117843
0
LINE
5
2B4
100
AcDbEntity
8
0
100
AcDbLine
62
7
6
CONTINUOUS
10
-34.8912142526
20
-0.7668117843
11
-35.6176923131
21
-0.7668117843
0
LINE
5
2B5
100
AcDbEntity
8
0
100
AcDbLine
62
7
6
CONTINUOUS
10
-20.8412142526
20
-0.1168117843
11
-34.8912142526
21
-0.1168117843
0
LINE
5
2B6
100
AcDbEntity
8
0
100
AcDbLine
62
7
6
CONTINUOUS
10
-20.8412142526
20
0.1831882157
11
-34.8912142526
21
0.1831882157
0
LINE
5
2B7
100
AcDbEntity
8
0
100
AcDbLine
62
7
6
CONTINUOUS
10
-34.8912142526
20
1.5331882157
11
-35.5412142526
21
1.5331882157
0
LINE
5
2B8
100
AcDbEntity
8
0
100
AcDbLine
62
7
6
CONTINUOUS
10
-35.3912142526
20
3.8831882157
11
-35.5412142526
21
3.8831882157
0
LINE
5
2B9
100
AcDbEntity
8
0
100
AcDbLine
62
7
6
CONTINUOUS
10
-37.0412142526
20
-12.2668117843
11
-37.0412142526
21
-1.1668117843
0
LINE
5
2BA
100
AcDbEntity
8
0
100
AcDbLine
62
7
6
CONTINUOUS
10
-35.8412142526
20
11.4331882157
11
-35.8412142526
21
11.8831882157
0
LINE
5
2BB
100
AcDbEntity
8
0
100
AcDbLine
62
7
6
CONTINUOUS
10
-35.5412142526
20
-0.5668117843
11
-35.5412142526
21
11.8831882157
0
LINE
5
2BC
100
AcDbEntity
8
0
100
AcDbLine
62
7
6
CONTINUOUS
10
-35.4912142526
20
-0.7668117843
11
-35.4912142526
21
1.5331882157
0
LINE
5
2BD
100
AcDbEntity
8
0
100
AcDbLine
62
7
6
CONTINUOUS
10
-35.3912142526
20
4.2831882157
11
-35.3912142526
21
3.8831882157
0
LINE
5
2BE
100
AcDbEntity
8
0
100
AcDbLine
62
7
6
CONTINUOUS
10
-34.8912142526
20
-0.7668117843
11
-34.8912142526
21
1.5331882157
0
LINE
5
2BF
100
AcDbEntity
8
0
100
AcDbLine
62
7
6
CONTINUOUS
10
-54.6412142526
20
7.4331882157
11
-54.4412142526
21
7.4331882157
0
LINE
5
2C0
100
AcDbEntity
8
0
100
AcDbLine
62
7
6
CONTINUOUS
10
-64.8412142526
20
7.7831882157
11
-54.4412142526
21
7.7831882157
0
LINE
5
2C1
100
AcDbEntity
8
0
100
AcDbLine
62
7
6
CONTINUOUS
10
-54.6412142526
20
8.0831882157
11
-54.4412142526
21
8.0831882157
0
LINE
5
2C2
100
AcDbEntity
8
0
100
AcDbLine
62
7
6
CONTINUOUS
10
-54.4412142526
20
8.2331882157
11
-46.5412142526
21
8.2331882157
0
LINE
5
2C3
100
AcDbEntity
8
0
100
AcDbLine
62
7
6
CONTINUOUS
10
-35.5412142526
20
4.6131882157
11
-35.3912142526
21
4.2831882157
0
LINE
5
2C4
100
AcDbEntity
8
0
100
AcDbLine
62
7
6
CONTINUOUS
10
-32.5412142526
20
-0.1168117843
11
-32.5412142526
21
0.1831882157
0
LINE
5
2C5
100
AcDbEntity
8
0
100
AcDbLine
62
7
6
CONTINUOUS
10
-52.2412142526
20
8.6102715491
11
-50.6912142526
21
8.9331882157
0
LINE
5
2C6
100
AcDbEntity
8
0
100
AcDbLine
62
7
6
CONTINUOUS
10
-50.6912142526
20
8.9331882157
11
-48.6912142526
21
8.9331882157
0
LINE
5
2C7
100
AcDbEntity
8
0
100
AcDbLine
62
7
6
CONTINUOUS
10
-49.1912142526
20
10.2331882157
11
-59.6912142526
21
10.2331882157
0
LINE
5
2C8
100
AcDbEntity
8
0
100
AcDbLine
62
7
6
CONTINUOUS
10
-57.6821323332
20
7.7831882157
11
-52.3024005288
21
8.9039656750
0
LINE
5
2C9
100
AcDbEntity
8
0
100
AcDbLine
62
7
6
CONTINUOUS
10
-46.5412142526
20
11.4331882157
11
-35.5412142526
21
11.4331882157
0
LINE
5
2CA
100
AcDbEntity
8
0
100
AcDbLine
62
7
6
CONTINUOUS
10
-56.7412142526
20
11.5331882157
11
-47.1912142526
21
11.5331882157
0
LINE
5
2CB
100
AcDbEntity
8
0
100
AcDbLine
62
7
6
CONTINUOUS
10
-48.3412142526
20
11.5831882157
11
-46.8412142526
21
11.5831882157
0
LINE
5
2CC
100
AcDbEntity
8
0
100
AcDbLine
62
7
6
CONTINUOUS
10
-46.5412142526
20
11.5831882157
11
-35.8412142526
21
11.5831882157
0
LINE
5
2CD
100
AcDbEntity
8
0
100
AcDbLine
62
7
6
CONTINUOUS
10
-48.3412142526
20
11.8831882157
11
-35.5412142526
21
11.8831882157
0
LINE
5
2CE
100
AcDbEntity
8
0
100
AcDbLine
62
7
6
CONTINUOUS
10
-57.3412142526
20
12.6331882157
11
-56.7412142526
21
12.6331882157
0
LINE
5
2CF
100
AcDbEntity
8
0
100
AcDbLine
62
7
6
CONTINUOUS
10
-26.8412142526
20
-0.1168117843
11
-26.8412142526
21
0.1831882157
0
LINE
5
2D0
100
AcDbEntity
8
0
100
AcDbLine
62
7
6
CONTINUOUS
10
-25.8412142526
20
-0.1168117843
11
-25.8412142526
21
0.1831882157
0
LINE
5
2D1
100
AcDbEntity
8
0
100
AcDbLine
62
7
6
CONTINUOUS
10
-21.8412142526
20
-0.1168117843
11
-21.8412142526
21
0.1831882157
0
LINE
5
2D2
100
AcDbEntity
8
0
100
AcDbLine
62
7
6
CONTINUOUS
10
-20.8412142526
20
-0.1168117843
11
-20.8412142526
21
0.1831882157
0
ARC
5
2D3
100
AcDbEntity
8
0
100
AcDbCircle
62
7
6
CONTINUOUS
10
-9.1740032337
20
-12.2668117843
40
0.3000000000
100
AcDbArc
50
180.0000000000
51
270.0000000000
0
ARC
5
2D4
100
AcDbEntity
8
0
100
AcDbCircle
62
7
6
CONTINUOUS
10
8.9259967663
20
-12.2668117843
40
0.3000000000
100
AcDbArc
50
270.0000000000
51
360.0000000000
0
ARC
5
2D5
100
AcDbEntity
8
0
100
AcDbCircle
62
7
6
CONTINUOUS
10
-52.8412142526
20
-12.2668117843
40
0.3000000000
100
AcDbArc
50
180.0000000000
51
270.0000000000
0
ARC
5
2D6
100
AcDbEntity
8
0
100
AcDbCircle
62
7
6
CONTINUOUS
10
-37.3412142526
20
-12.2668117843
40
0.3000000000
100
AcDbArc
50
270.0000000000
51
360.0000000000
0
ARC
5
2D7
100
AcDbEntity
8
0
100
AcDbCircle
62
7
6
CONTINUOUS
10
-53.4412142526
20
-8.3668117843
40
0.3000000000
100
AcDbArc
50
0.0000000000
51
90.0000000000
0
ARC
5
2D8
100
AcDbEntity
8
0
100
AcDbCircle
62
7
6
CONTINUOUS
10
-36.7412142526
20
-1.1668117843
40
0.3000000000
100
AcDbArc
50
90.0000000000
51
180.0000000000
0
ARC
5
2D9
100
AcDbEntity
8
0
100
AcDbCircle
62
7
6
CONTINUOUS
10
-35.8412142526
20
-0.5668117843
40
0.3000000000
100
AcDbArc
50
270.0000000000
51
360.0000000000
0
ARC
5
2DA
100
AcDbEntity
8
0
100
AcDbCircle
62
7
6
CONTINUOUS
10
-49.1912142526
20
9.7331882157
40
0.5000000000
100
AcDbArc
50
0.0000000000
51
90.0000000000
0
ARC
5
2DB
100
AcDbEntity
8
0
100
AcDbCircle
62
7
6
CONTINUOUS
10
-47.1912142526
20
11.0331882157
40
0.5000000000
100
AcDbArc
50
45.5479700582
51
90.0000000000
0
ENDSEC
0
SECTION
2
OBJECTS
0
DICTIONARY
5
2DC
100
AcDbDictionary
3
ACAD_GROUP
350
2DD
3
ACAD_MLINESTYLE
350
2DE
0
DICTIONARY
5
2DD
102
{ACAD_REACTORS
330
2DC
102
}
100
AcDbDictionary
0
DICTIONARY
5
2DE
102
{ACAD_REACTORS
330
2DC
102
}
100
AcDbDictionary
3
STANDARD
350
2DF
0
MLINESTYLE
5
2DF
102
{ACAD_REACTORS
330
2DE
102
}
100
AcDbMlineStyle
2
STANDARD
70
0
3

62
256
51
90.0
52
90.0
71
2
49
0.5
62
256
6
BYLAYER
49
-0.5
62
256
6
BYLAYER
0
ENDSEC
0
EOF
