  0
SECTION
  2
HEADER
  9
$ACADVER
  1
AC1015
  9
$DWGCODEPAGE
  3
ANSI_1252
  9
$EXTMAX
 10
297.0
 20
210.0
 30
0.0
  9
$EXTMIN
 10
0.0
 20
0.0
 30
0.0
  9
$LIMMIN
 10
0.0
 20
0.0
  9
$LIMMAX
 10
297.0
 20
210.0
  9
$VIEWCTR
 10
148.5
 20
105.0
  9
$VIEWSIZE
 40
210.0
  9
$CLAYER
  8
0
  9
$LTSCALE
 40
16.335
  9
$CELTYPE
  6
BYLAYER
  9
$DIMSCALE
 40
1.0
  9
$DIMASZ
 40
3.0
  9
$DIMEXO
 40
1.85625
  9
$DIMDLI
 40
11.286
  9
$DIMEXE
 40
5.346
  9
$DIMCEN
 40
2.673
  9
$DIMLFAC
 40
1.0
  9
$DIMBLK
  1
_FILLED
  9
$DIMTXT
 40
3.0
  9
$DIMTOL
 70
1
  9
$DIMLIM
 70
0
  9
$DIMTFAC
 40
1.0
  9
$DIMTP
 40
0.01
  9
$DIMTM
 40
0.01
  9
$PDMODE
 70
3
  9
$PDSIZE
 40
3.0
  9
$HANDSEED
  5
724
  9
$TILEMODE
 70
1
  9
$MEASUREMENT
 70
1
  9
$INSUNITS
 70
4
  0
ENDSEC
  0
SECTION
  2
CLASSES
  0
CLASS
  1
ACDBDICTIONARYWDFLT
  2
AcDbDictionaryWithDefault
  3
AutoCAD 2000
 90
0
280
0
281
0
  0
CLASS
  1
ACDBPLACEHOLDER
  2
AcDbPlaceHolder
  3
AutoCAD 2000
 90
0
280
0
281
0
  0
CLASS
  1
LAYOUT
  2
AcDbLayout
  3
AutoCAD 2000
 90
0
280
0
281
0
  0
ENDSEC
  0
SECTION
  2
TABLES
  0
TABLE
  2
VPORT
  5
8
100
AcDbSymbolTable
 70
2
  0
VPORT
  5
1F4
100
AcDbSymbolTableRecord
100
AcDbViewportTableRecord
  2
*ACTIVE
 70
0
 10
0.0
 20
0.0
 11
1.0
 21
1.0
 12
148.5
 22
105.0
 13
0.0
 23
0.0
 14
1.0
 24
1.0
 15
0.0
 25
0.0
 16
0.0
 26
0.0
 36
1.0
 17
0.0
 27
0.0
 37
0.0
 40
210.0
 41
1.4142857143
 42
50.0
 43
0.0
 44
0.0
 50
0.0
 51
0.0
 71
0
 72
100
 73
1
 74
1
 75
0
 76
0
 77
0
 78
0
  0
ENDTAB
  0
TABLE
  2
LTYPE
  5
5
100
AcDbSymbolTable
 70
6
  0
LTYPE
  5
14
100
AcDbSymbolTableRecord
100
AcDbLinetypeTableRecord
  2
BYBLOCK
 70
0
  3

 72
65
 73
0
 40
0.0
  0
LTYPE
  5
15
100
AcDbSymbolTableRecord
100
AcDbLinetypeTableRecord
  2
BYLAYER
 70
0
  3

 72
65
 73
0
 40
0.0
  0
LTYPE
  5
16
100
AcDbSymbolTableRecord
100
AcDbLinetypeTableRecord
  2
CONTINUOUS
 70
64
  3
Solid line
 72
65
 73
0
 40
0.0
  0
LTYPE
  5
1F5
100
AcDbSymbolTableRecord
100
AcDbLinetypeTableRecord
  2
CENTER
 70
64
  3
____ _ ____ _ ____ _ ____ _ ____ _ ____ _ ____
 72
65
 73
4
 40
0.6
 49
0.375
 74
0
 49
-0.075
 74
0
 49
0.075
 74
0
 49
-0.075
 74
0
  0
LTYPE
  5
1F6
100
AcDbSymbolTableRecord
100
AcDbLinetypeTableRecord
  2
HIDDEN
 70
64
  3
- - - - - - - - - - - - - - - - - - - -
 72
65
 73
2
 40
0.2
 49
0.1
 74
0
 49
-0.1
 74
0
  0
LTYPE
  5
1F7
100
AcDbSymbolTableRecord
100
AcDbLinetypeTableRecord
  2
PHANTOM
 70
64
  3
_____ _ _ _____ _ _ _____ _ _ _____
 72
65
 73
6
 40
0.8
 49
0.45
 74
0
 49
-0.05
 74
0
 49
0.1
 74
0
 49
-0.05
 74
0
 49
0.1
 74
0
 49
-0.05
 74
0
  0
LTYPE
  5
1F8
100
AcDbSymbolTableRecord
100
AcDbLinetypeTableRecord
  2
DOT
 70
64
  3
. . . . . . . . . . . . . . . . . . . .
 72
65
 73
2
 40
0.2
 49
0.1
 74
0
 49
-0.1
 74
0
  0
LTYPE
  5
1F9
100
AcDbSymbolTableRecord
100
AcDbLinetypeTableRecord
  2
DASHED
 70
64
  3
- - - - - - - - - - - - - - - - - - - -
 72
65
 73
2
 40
0.2
 49
0.1
 74
0
 49
-0.1
 74
0
  0
ENDTAB
  0
TABLE
  2
LAYER
  5
2
100
AcDbSymbolTable
 70
36
  0
LAYER
  5
10
100
AcDbSymbolTableRecord
100
AcDbLayerTableRecord
  2
0
 70
0
 62
7
  6
CONTINUOUS
370
-3
390
F
  0
LAYER
  5
1FA
100
AcDbSymbolTableRecord
100
AcDbLayerTableRecord
  2
DEFAULT_1
 70
0
 62
7
  6
CENTER
370
-3
390
F
  0
LAYER
  5
1FB
100
AcDbSymbolTableRecord
100
AcDbLayerTableRecord
  2
DEFAULT_2
 70
0
 62
7
  6
HIDDEN
370
-3
390
F
  0
LAYER
  5
1FC
100
AcDbSymbolTableRecord
100
AcDbLayerTableRecord
  2
DEFAULT_3
 70
0
 62
7
  6
PHANTOM
370
-3
390
F
  0
LAYER
  5
1FD
100
AcDbSymbolTableRecord
100
AcDbLayerTableRecord
  2
ASSI
 70
0
 62
7
  6
CONTINUOUS
370
-3
390
F
  0
LAYER
  5
1FE
100
AcDbSymbolTableRecord
100
AcDbLayerTableRecord
  2
COLOR17
 70
0
 62
7
  6
CONTINUOUS
370
-3
390
F
  0
LAYER
  5
1FF
100
AcDbSymbolTableRecord
100
AcDbLayerTableRecord
  2
COLOR3
 70
0
 62
7
  6
CONTINUOUS
370
-3
390
F
  0
LAYER
  5
200
100
AcDbSymbolTableRecord
100
AcDbLayerTableRecord
  2
COLOR5
 70
0
 62
7
  6
CONTINUOUS
370
-3
390
F
  0
LAYER
  5
201
100
AcDbSymbolTableRecord
100
AcDbLayerTableRecord
  2
COORDINATE
 70
0
 62
7
  6
CONTINUOUS
370
-3
390
F
  0
LAYER
  5
202
100
AcDbSymbolTableRecord
100
AcDbLayerTableRecord
  2
COPY_PUBLISH
 70
0
 62
7
  6
CONTINUOUS
370
-3
390
F
  0
LAYER
  5
203
100
AcDbSymbolTableRecord
100
AcDbLayerTableRecord
  2
COSMETICI
 70
0
 62
7
  6
CONTINUOUS
370
-3
390
F
  0
LAYER
  5
204
100
AcDbSymbolTableRecord
100
AcDbLayerTableRecord
  2
CURVE
 70
0
 62
7
  6
CONTINUOUS
370
-3
390
F
  0
LAYER
  5
205
100
AcDbSymbolTableRecord
100
AcDbLayerTableRecord
  2
DRAFT
 70
0
 62
7
  6
CONTINUOUS
370
-3
390
F
  0
LAYER
  5
206
100
AcDbSymbolTableRecord
100
AcDbLayerTableRecord
  2
IMPORT_IGES
 70
0
 62
7
  6
CONTINUOUS
370
-3
390
F
  0
LAYER
  5
207
100
AcDbSymbolTableRecord
100
AcDbLayerTableRecord
  2
NOTE
 70
0
 62
7
  6
CONTINUOUS
370
-3
390
F
  0
LAYER
  5
208
100
AcDbSymbolTableRecord
100
AcDbLayerTableRecord
  2
PIANI
 70
0
 62
7
  6
CONTINUOUS
370
-3
390
F
  0
LAYER
  5
209
100
AcDbSymbolTableRecord
100
AcDbLayerTableRecord
  2
PUNTI
 70
0
 62
7
  6
CONTINUOUS
370
-3
390
F
  0
LAYER
  5
20A
100
AcDbSymbolTableRecord
100
AcDbLayerTableRecord
  2
RACCORDO
 70
0
 62
7
  6
CONTINUOUS
370
-3
390
F
  0
LAYER
  5
20B
100
AcDbSymbolTableRecord
100
AcDbLayerTableRecord
  2
SIMBOLI
 70
0
 62
7
  6
CONTINUOUS
370
-3
390
F
  0
LAYER
  5
20C
100
AcDbSymbolTableRecord
100
AcDbLayerTableRecord
  2
SMUSSO
 70
0
 62
7
  6
CONTINUOUS
370
-3
390
F
  0
LAYER
  5
20D
100
AcDbSymbolTableRecord
100
AcDbLayerTableRecord
  2
SNAPLINE
 70
0
 62
7
  6
CONTINUOUS
370
-3
390
F
  0
LAYER
  5
20E
100
AcDbSymbolTableRecord
100
AcDbLayerTableRecord
  2
SUPERFICI
 70
0
 62
7
  6
CONTINUOUS
370
-3
390
F
  0
LAYER
  5
20F
100
AcDbSymbolTableRecord
100
AcDbLayerTableRecord
  2
TRASH
 70
0
 62
7
  6
CONTINUOUS
370
-3
390
F
  0
LAYER
  5
210
100
AcDbSymbolTableRecord
100
AcDbLayerTableRecord
  2
___SHELL
 70
0
 62
7
  6
CONTINUOUS
370
-3
390
F
  0
ENDTAB
  0
TABLE
  2
STYLE
  5
3
100
AcDbSymbolTable
 70
1
  0
STYLE
  5
11
100
AcDbSymbolTableRecord
100
AcDbTextStyleTableRecord
  2
STANDARD
 70
0
 40
0.0
 41
0.8
 50
0.0
 71
0
 42
0.2
  3
txt
  4

  0
STYLE
  5
211
100
AcDbSymbolTableRecord
100
AcDbTextStyleTableRecord
  2
TEXTSTYLE_1
 70
0
 40
0.0
 41
0.8
 50
0.0
 71
0
 42
0.2
  3
gdt
  4

  0
ENDTAB
  0
TABLE
  2
VIEW
  5
6
100
AcDbSymbolTable
 70
0
  0
ENDTAB
  0
TABLE
  2
UCS
  5
7
100
AcDbSymbolTable
 70
0
  0
ENDTAB
  0
TABLE
  2
APPID
  5
9
100
AcDbSymbolTable
 70
1
  0
APPID
  5
212
100
AcDbSymbolTableRecord
100
AcDbRegAppTableRecord
  2
ACAD
 70
0
  0
ENDTAB
  0
TABLE
  2
BLOCK_RECORD
  5
1
100
AcDbSymbolTable
 70
0
  0
BLOCK_RECORD
  5
213
100
AcDbSymbolTableRecord
100
AcDbBlockTableRecord
  2
*Model_Space
  0
BLOCK_RECORD
  5
214
100
AcDbSymbolTableRecord
100
AcDbBlockTableRecord
  2
*Paper_Space
  0
BLOCK_RECORD
  5
215
100
AcDbSymbolTableRecord
100
AcDbBlockTableRecord
  2
_FILLED
  0
BLOCK_RECORD
  5
216
100
AcDbSymbolTableRecord
100
AcDbBlockTableRecord
  2
*D0
  0
BLOCK_RECORD
  5
217
100
AcDbSymbolTableRecord
100
AcDbBlockTableRecord
  2
*D1
  0
BLOCK_RECORD
  5
218
100
AcDbSymbolTableRecord
100
AcDbBlockTableRecord
  2
*D2
  0
BLOCK_RECORD
  5
219
100
AcDbSymbolTableRecord
100
AcDbBlockTableRecord
  2
*D3
  0
ENDTAB
  0
TABLE
  2
DIMSTYLE
  5
A
100
AcDbSymbolTable
 70
1
100
AcDbDimStyleTable
 71
0
  0
DIMSTYLE
105
21A
100
AcDbSymbolTableRecord
100
AcDbDimStyleTableRecord
  2
STANDARD
 70
0
  3

  4

 40
1.0
 41
3.0
 42
0.0625
 43
0.38
 44
0.18
 45
0.0
 46
0.0
 47
0.01
 48
0.01
140
3.0
141
0.09
142
0.0
143
25.4
144
1.0
145
0.0
146
1.0
147
0.09
 71
1.0
 72
0.0
 73
0
 74
0
 75
0
 76
0
 77
1
 78
8
170
0
171
2
172
0
173
0
174
0
175
0
176
0
177
0
178
0
270
2
271
2
272
2
273
2
274
2
275
0
280
0
281
0
282
0
283
1
284
8
285
0
286
0
287
3
288
0
340
11
341
215
342
215
343
215
344
215
  0
DIMSTYLE
105
21B
100
AcDbSymbolTableRecord
100
AcDbDimStyleTableRecord
  2
DIMSTYLE_1
 70
0
  3

  4

 40
1.0
 41
3.0
 42
0.0625
 43
0.38
 44
0.18
 45
0.0
 46
0.0
 47
0.0
 48
0.0
140
3.0
141
0.09
142
0.0
143
25.4
144
1.0
145
0.0
146
1.0
147
0.09
 71
0.0
 72
0.0
 73
0
 74
0
 75
0
 76
0
 77
1
 78
8
170
0
171
2
172
0
173
0
174
0
175
0
176
0
177
0
178
0
270
2
271
1
272
1
273
2
274
2
275
0
280
0
281
0
282
0
283
1
284
8
285
0
286
0
287
3
288
0
340
11
341
215
342
215
343
215
344
215
  0
ENDTAB
  0
ENDSEC
  0
SECTION
  2
BLOCKS
  0
BLOCK
  5
20
100
AcDbEntity
  8
0
100
AcDbBlockBegin
  2
*Model_Space
 70
0
 10
0.0
 20
0.0
 30
0.0
  3
*Model_Space
  1

  0
ENDBLK
  5
21
100
AcDbEntity
  8
0
100
AcDbBlockEnd
  0
BLOCK
  5
1C
100
AcDbEntity
  8
0
100
AcDbBlockBegin
  2
*Paper_Space
 70
0
 10
0.0
 20
0.0
 30
0.0
  3
*Paper_Space
  1

  0
ENDBLK
  5
1D
100
AcDbEntity
  8
0
100
AcDbBlockEnd
  0
BLOCK
  5
21C
100
AcDbEntity
  8
0
100
AcDbBlockBegin
  2
_FILLED
 70
64
 10
0.0
 20
0.0
  3
_FILLED
  1

  0
SOLID
  5
21D
100
AcDbEntity
  8
0
  6
BYBLOCK
 62
0
100
AcDbTrace
 10
0.0
 20
0.0
 11
-1.0
 21
0.3166666667
 12
-1.0
 22
-0.3166666667
 13
-1.0
 23
-0.3166666667
  0
ENDBLK
  5
21E
100
AcDbEntity
  8
0
  6
BYBLOCK
 62
0
100
AcDbBlockEnd
  0
BLOCK
  5
21F
100
AcDbEntity
  8
0
100
AcDbBlockBegin
 62
7
  6
CONTINUOUS
  2
*D0
 70
65
 10
0.0
 20
0.0
  3
*D0
  1

  0
LINE
  5
220
100
AcDbEntity
  8
0
100
AcDbLine
 62
7
  6
CONTINUOUS
 10
-8.4227212944
 20
-0.0700144999
 11
-8.4227212944
 21
21.2750144999
  0
LINE
  5
221
100
AcDbEntity
  8
0
100
AcDbLine
 62
7
  6
CONTINUOUS
 10
8.4227212945
 20
-0.0700144999
 11
8.4227212945
 21
21.2750144999
  0
LINE
  5
222
100
AcDbEntity
  8
0
100
AcDbLine
 62
7
  6
CONTINUOUS
 10
-8.4227212944
 20
19.7750144999
 11
-12.4227212944
 21
19.7750144999
  0
LINE
  5
223
100
AcDbEntity
  8
0
100
AcDbLine
 62
7
  6
CONTINUOUS
 10
-12.4227212944
 20
19.7750144999
 11
0.0
 21
19.7750144999
  0
LINE
  5
224
100
AcDbEntity
  8
0
100
AcDbLine
 62
7
  6
CONTINUOUS
 10
8.4227212945
 20
19.7750144999
 11
12.4227212945
 21
19.7750144999
  0
LINE
  5
225
100
AcDbEntity
  8
0
100
AcDbLine
 62
7
  6
CONTINUOUS
 10
12.4227212945
 20
19.7750144999
 11
0.0
 21
19.7750144999
  0
INSERT
  5
226
100
AcDbEntity
  8
0
100
AcDbBlockReference
 62
7
  6
CONTINUOUS
  2
_FILLED
 10
-8.4227212944
 20
19.7750144999
 41
3.0
 42
3.0
 43
3.0
  0
INSERT
  5
227
100
AcDbEntity
  8
0
100
AcDbBlockReference
 62
7
  6
CONTINUOUS
  2
_FILLED
 10
8.4227212945
 20
19.7750144999
 41
3.0
 42
3.0
 43
3.0
 50
180.0
  0
ENDBLK
  5
228
100
AcDbEntity
  8
0
  6
BYBLOCK
 62
0
100
AcDbBlockEnd
  0
BLOCK
  5
229
100
AcDbEntity
  8
0
100
AcDbBlockBegin
 62
7
  6
CONTINUOUS
  2
*D1
 70
65
 10
0.0
 20
0.0
  3
*D1
  1

  0
LINE
  5
22A
100
AcDbEntity
  8
0
100
AcDbLine
 62
7
  6
CONTINUOUS
 10
5.1075061083
 20
11.7750144998
 11
17.9228958451
 21
11.7750144998
  0
LINE
  5
22B
100
AcDbEntity
  8
0
100
AcDbLine
 62
7
  6
CONTINUOUS
 10
0.5
 20
-11.7750144999
 11
17.9228958451
 21
-11.7750144999
  0
LINE
  5
22C
100
AcDbEntity
  8
0
100
AcDbLine
 62
7
  6
CONTINUOUS
 10
16.4228958451
 20
11.7750144998
 11
16.4228958451
 21
-0.0
  0
LINE
  5
22D
100
AcDbEntity
  8
0
100
AcDbLine
 62
7
  6
CONTINUOUS
 10
16.4228958451
 20
-11.7750144999
 11
16.4228958451
 21
-0.0
  0
INSERT
  5
22E
100
AcDbEntity
  8
0
100
AcDbBlockReference
 62
7
  6
CONTINUOUS
  2
_FILLED
 10
16.4228958451
 20
11.7750144998
 41
3.0
 42
3.0
 43
3.0
 50
90.0
  0
INSERT
  5
22F
100
AcDbEntity
  8
0
100
AcDbBlockReference
 62
7
  6
CONTINUOUS
  2
_FILLED
 10
16.4228958451
 20
-11.7750144999
 41
3.0
 42
3.0
 43
3.0
 50
270.0
  0
ENDBLK
  5
230
100
AcDbEntity
  8
0
  6
BYBLOCK
 62
0
100
AcDbBlockEnd
  0
BLOCK
  5
231
100
AcDbEntity
  8
0
100
AcDbBlockBegin
 62
7
  6
CONTINUOUS
  2
*D2
 70
65
 10
0.0
 20
0.0
  3
*D2
  1

  0
LINE
  5
232
100
AcDbEntity
  8
0
100
AcDbLine
 62
7
  6
CONTINUOUS
 10
-58.0371273237
 20
7.7194819768
 11
-58.0371273237
 21
31.2750144999
  0
LINE
  5
233
100
AcDbEntity
  8
0
100
AcDbLine
 62
7
  6
CONTINUOUS
 10
-20.2371273237
 20
-2.0700144999
 11
-20.2371273237
 21
31.2750144999
  0
LINE
  5
234
100
AcDbEntity
  8
0
100
AcDbLine
 62
7
  6
CONTINUOUS
 10
-58.0371273237
 20
29.7750144999
 11
-39.1371273237
 21
29.7750144999
  0
LINE
  5
235
100
AcDbEntity
  8
0
100
AcDbLine
 62
7
  6
CONTINUOUS
 10
-20.2371273237
 20
29.7750144999
 11
-39.1371273237
 21
29.7750144999
  0
INSERT
  5
236
100
AcDbEntity
  8
0
100
AcDbBlockReference
 62
7
  6
CONTINUOUS
  2
_FILLED
 10
-58.0371273237
 20
29.7750144999
 41
3.0
 42
3.0
 43
3.0
 50
180.0
  0
INSERT
  5
237
100
AcDbEntity
  8
0
100
AcDbBlockReference
 62
7
  6
CONTINUOUS
  2
_FILLED
 10
-20.2371273237
 20
29.7750144999
 41
3.0
 42
3.0
 43
3.0
  0
ENDBLK
  5
238
100
AcDbEntity
  8
0
  6
BYBLOCK
 62
0
100
AcDbBlockEnd
  0
BLOCK
  5
239
100
AcDbEntity
  8
0
100
AcDbBlockBegin
 62
7
  6
CONTINUOUS
  2
*D3
 70
65
 10
0.0
 20
0.0
  3
*D3
  1

  0
LINE
  5
23A
100
AcDbEntity
  8
0
100
AcDbLine
 62
7
  6
CONTINUOUS
 10
-49.7871273251
 20
12.2750144998
 11
-49.7871273251
 21
21.2750144999
  0
LINE
  5
23B
100
AcDbEntity
  8
0
100
AcDbLine
 62
7
  6
CONTINUOUS
 10
-20.2371273237
 20
0.3299855001
 11
-20.2371273237
 21
21.2750144999
  0
LINE
  5
23C
100
AcDbEntity
  8
0
100
AcDbLine
 62
7
  6
CONTINUOUS
 10
-49.7871273251
 20
19.7750144999
 11
-35.0121273244
 21
19.7750144999
  0
LINE
  5
23D
100
AcDbEntity
  8
0
100
AcDbLine
 62
7
  6
CONTINUOUS
 10
-20.2371273237
 20
19.7750144999
 11
-35.0121273244
 21
19.7750144999
  0
INSERT
  5
23E
100
AcDbEntity
  8
0
100
AcDbBlockReference
 62
7
  6
CONTINUOUS
  2
_FILLED
 10
-49.7871273251
 20
19.7750144999
 41
3.0
 42
3.0
 43
3.0
 50
180.0
  0
INSERT
  5
23F
100
AcDbEntity
  8
0
100
AcDbBlockReference
 62
7
  6
CONTINUOUS
  2
_FILLED
 10
-20.2371273237
 20
19.7750144999
 41
3.0
 42
3.0
 43
3.0
  0
ENDBLK
  5
240
100
AcDbEntity
  8
0
  6
BYBLOCK
 62
0
100
AcDbBlockEnd
  0
ENDSEC
  0
SECTION
  2
ENTITIES
  0
DIMENSION
  5
241
100
AcDbEntity
  8
0
100
AcDbDimension
 62
7
  6
CONTINUOUS
  2
*D0
 10
8.4227212945
 20
19.7750144999
 11
-4.0714285714
 21
20.5250144999
 70
160
 71
2
 42
16.8454425889
  3
DIMSTYLE_1
100
AcDbAlignedDimension
 13
-8.4227212944
 23
-0.0700144999
 14
8.4227212945
 24
-0.0700144999
100
AcDbRotatedDimension
  0
DIMENSION
  5
242
100
AcDbEntity
  8
0
100
AcDbDimension
 62
7
  6
CONTINUOUS
  2
*D1
 10
16.4228958451
 20
-11.7750144999
 11
15.6728958451
 21
-4.2857142857
 70
160
 71
2
 42
23.5500289997
  3
DIMSTYLE_1
100
AcDbAlignedDimension
 13
5.1075061083
 23
11.7750144998
 14
0.5
 24
-11.7750144999
 50
270.0
100
AcDbRotatedDimension
  0
DIMENSION
  5
243
100
AcDbEntity
  8
0
100
AcDbDimension
 62
7
  6
CONTINUOUS
  2
*D2
 10
-20.2371273237
 20
29.7750144999
 11
-43.4228416094
 21
30.5250144999
 70
160
 71
2
 42
37.8
  3
DIMSTYLE_1
100
AcDbAlignedDimension
 13
-58.0371273237
 23
7.7194819768
 14
-20.2371273237
 24
-2.0700144999
100
AcDbRotatedDimension
  0
DIMENSION
  5
244
100
AcDbEntity
  8
0
100
AcDbDimension
 62
7
  6
CONTINUOUS
  2
*D3
 10
-20.2371273237
 20
19.7750144999
 11
-39.4049844672
 21
20.5250144999
 70
160
 71
2
 42
29.5500000014
  3
DIMSTYLE_1
100
AcDbAlignedDimension
 13
-49.7871273251
 23
12.2750144998
 14
-20.2371273237
 24
0.3299855001
100
AcDbRotatedDimension
  0
LWPOLYLINE
  5
245
100
AcDbEntity
  8
0
100
AcDbPolyline
 62
7
  6
CONTINUOUS
 90
3
 70
0
 43
0.3500000006
 10
-4.0714284382
 20
22.6678711853
 10
-3.2142856836
 20
23.5250136566
 10
-3.2142856836
 20
20.5250127411
  0
LWPOLYLINE
  5
246
100
AcDbEntity
  8
0
100
AcDbPolyline
 62
7
  6
CONTINUOUS
 90
10
 70
0
 43
0.3500000006
 10
-1.2857142735
 20
23.5250136566
 10
-1.9285714102
 20
22.8821556702
 10
-2.3571427875
 20
22.0250131989
 10
-2.3571427875
 20
20.9535862427
 10
-1.9285714102
 20
20.5250127411
 10
-1.2857142735
 20
20.5250127411
 10
-0.8571428254
 20
20.9535862427
 10
-0.8571428254
 20
21.810728714
 10
-1.2857142735
 20
22.2393022156
 10
-2.2142856617
 20
22.2393022156
  0
LWPOLYLINE
  5
247
100
AcDbEntity
  8
IMPORT_IGES
100
AcDbPolyline
 62
253
  6
CONTINUOUS
 90
7
 70
0
 10
-7.060878417
 20
-10.5527644588
 10
-7.0952479538
 20
-10.5361085366
 10
-7.1270902607
 20
-10.5153199852
 10
-7.1563728266
 20
-10.4903545937
 10
-7.1826665454
 20
-10.4612824126
 10
-7.205177909
 20
-10.4286405784
 10
-7.213378807
 20
-10.4154361293
  0
LWPOLYLINE
  5
248
100
AcDbEntity
  8
IMPORT_IGES
100
AcDbPolyline
 62
253
  6
CONTINUOUS
 90
3
 70
0
 10
-7.1216475466
 20
-10.5198424645
 10
-7.1308955097
 20
-10.513020502
 10
-7.1414572018
 20
-10.5045340338
  0
LWPOLYLINE
  5
249
100
AcDbEntity
  8
IMPORT_IGES
100
AcDbPolyline
 62
253
  6
CONTINUOUS
 90
3
 70
0
 10
-7.1496694951
 20
-10.4973627917
 10
-7.1603989357
 20
-10.4871465342
 10
-7.1690017804
 20
-10.4781844777
  0
LINE
  5
24A
100
AcDbEntity
  8
IMPORT_IGES
100
AcDbLine
 62
7
  6
CONTINUOUS
 10
-8.168683516
 20
-10.4093910605
 11
-7.0909283053
 21
-11.4871462712
  0
LINE
  5
24B
100
AcDbEntity
  8
IMPORT_IGES
100
AcDbLine
 62
253
  6
CONTINUOUS
 10
-7.3
 20
-10.99221829
 11
-7.9585740552
 21
-10.3336046435
  0
LWPOLYLINE
  5
24C
100
AcDbEntity
  8
IMPORT_IGES
100
AcDbPolyline
 62
253
  6
CONTINUOUS
 90
9
 70
0
 10
-8.2160353204
 20
9.0747028346
 10
-8.1951502252
 20
9.0967538408
 10
-8.1701720043
 20
9.116962088
 10
-8.1411734814
 20
9.1350327872
 10
-8.1086851483
 20
9.1504256235
 10
-8.0733292884
 20
9.162726938
 10
-8.035730858
 20
9.1716449242
 10
-7.9964668666
 20
9.1769719866
 10
-7.9562167414
 20
9.1785389401
  0
LINE
  5
24D
100
AcDbEntity
  8
IMPORT_IGES
100
AcDbLine
 62
7
  6
CONTINUOUS
 10
-6.3731381409
 20
10.284796181
 11
-8.1051420258
 21
9.2848232718
  0
LINE
  5
24E
100
AcDbEntity
  8
IMPORT_IGES
100
AcDbLine
 62
7
  6
CONTINUOUS
 10
-6.6849077501
 20
10.0391437199
 11
-7.416229265
 21
9.6303695387
  0
LINE
  5
24F
100
AcDbEntity
  8
IMPORT_IGES
100
AcDbLine
 62
7
  6
CONTINUOUS
 10
-6.3163345658
 20
10.2431874944
 11
-6.6849077501
 21
10.0391437199
  0
LINE
  5
250
100
AcDbEntity
  8
IMPORT_IGES
100
AcDbLine
 62
7
  6
CONTINUOUS
 10
-7.416229265
 20
9.6303695387
 11
-7.9661739989
 21
9.3254695076
  0
LWPOLYLINE
  5
251
100
AcDbEntity
  8
IMPORT_IGES
100
AcDbPolyline
 62
253
  6
CONTINUOUS
 90
10
 70
0
 10
-6.3730983374
 20
10.2848190076
 10
-6.3690922274
 20
10.2861198525
 10
-6.3642567601
 20
10.2858747842
 10
-6.3586774789
 20
10.2840312116
 10
-6.3525310257
 20
10.2806460194
 10
-6.3459262298
 20
10.2758076108
 10
-6.3388544053
 20
10.2695078064
 10
-6.3314169501
 20
10.2618087531
 10
-6.3238500698
 20
10.2529532722
 10
-6.3163345601
 20
10.2431874909
  0
LWPOLYLINE
  5
252
100
AcDbEntity
  8
IMPORT_IGES
100
AcDbPolyline
 62
253
  6
CONTINUOUS
 90
9
 70
0
 10
7.0189761402
 20
-10.5665642631
 10
7.0251446293
 20
-10.5647922477
 10
7.0623037207
 20
-10.5521783596
 10
7.0974984771
 20
-10.534822121
 10
7.1301267067
 20
-10.513020502
 10
7.1596301324
 20
-10.4871465342
 10
7.1855039425
 20
-10.4576429286
 10
7.2073054287
 20
-10.4250144999
 10
7.2151025005
 20
-10.4121326483
  0
LINE
  5
253
100
AcDbEntity
  8
IMPORT_IGES
100
AcDbLine
 62
253
  6
CONTINUOUS
 10
6.9866570056
 20
-10.5724479582
 11
7.0250817278
 21
-10.5650138259
  0
LINE
  5
254
100
AcDbEntity
  8
IMPORT_IGES
100
AcDbLine
 62
7
  6
CONTINUOUS
 10
6.3999974456
 20
-11.7750144999
 11
-6.3997278077
 21
-11.7750144999
  0
LINE
  5
255
100
AcDbEntity
  8
IMPORT_IGES
100
AcDbLine
 62
253
  6
CONTINUOUS
 10
6.5
 20
-11.6750144999
 11
-6.5
 21
-11.6750144999
  0
LINE
  5
256
100
AcDbEntity
  8
IMPORT_IGES
100
AcDbLine
 62
7
  6
CONTINUOUS
 10
6.8787960079
 20
-11.5750144999
 11
-6.8787960079
 21
-11.5750144999
  0
LWPOLYLINE
  5
257
100
AcDbEntity
  8
IMPORT_IGES
100
AcDbPolyline
 62
253
  6
CONTINUOUS
 90
4
 70
0
 10
-7.024311794
 20
-10.5650141253
 10
-7.063072524
 20
-10.5521783596
 10
-7.0982672798
 20
-10.534822121
 10
-7.1096253628
 20
-10.5279274431
  0
LWPOLYLINE
  5
258
100
AcDbEntity
  8
IMPORT_IGES
100
AcDbPolyline
 62
253
  6
CONTINUOUS
 90
10
 70
0
 10
-7.2560659368
 20
-9.9077950773
 10
-7.2595785889
 20
-9.9046484221
 10
-7.2634511422
 20
-9.9018732149
 10
-7.2676769064
 20
-9.8994742344
 10
-7.2722485592
 20
-9.8974556169
 10
-7.2771582237
 20
-9.8958208238
 10
-7.2823974984
 20
-9.8945726547
 10
-7.2879573781
 20
-9.8937132688
 10
-7.2938282529
 20
-9.8932441623
 10
-7.3
 20
-9.8931661524
  0
LINE
  5
259
100
AcDbEntity
  8
IMPORT_IGES
100
AcDbLine
 62
253
  6
CONTINUOUS
 10
-7.3
 20
-10.1381250829
 11
-7.2489468456
 21
-10.1891782373
  0
LINE
  5
25A
100
AcDbEntity
  8
IMPORT_IGES
100
AcDbLine
 62
253
  6
CONTINUOUS
 10
-6.863110583
 20
-10.5750144999
 11
-6.7363156638
 21
-10.7018094191
  0
LINE
  5
25B
100
AcDbEntity
  8
IMPORT_IGES
100
AcDbLine
 62
7
  6
CONTINUOUS
 10
-7.2560659368
 20
-9.9077950773
 11
-7.25
 21
-9.9138610141
  0
LINE
  5
25C
100
AcDbEntity
  8
IMPORT_IGES
100
AcDbLine
 62
7
  6
CONTINUOUS
 10
-6.5888465143
 20
-10.5750144999
 11
-6.4888465143
 21
-10.6750144998
  0
LINE
  5
25D
100
AcDbEntity
  8
IMPORT_IGES
100
AcDbLine
 62
253
  6
CONTINUOUS
 10
-6.2767144841
 20
-10.6750144999
 11
-6.3767146104
 21
-10.5750144999
  0
LWPOLYLINE
  5
25E
100
AcDbEntity
  8
IMPORT_IGES
100
AcDbPolyline
 62
253
  6
CONTINUOUS
 90
5
 70
0
 10
-7.1785755195
 20
-10.4672642353
 10
-7.1862727458
 20
-10.4576429286
 10
-7.208074232
 20
-10.4250144999
 10
-7.2254303649
 20
-10.3898195296
 10
-7.2306582481
 20
-10.3762979719
  0
LINE
  5
25F
100
AcDbEntity
  8
IMPORT_IGES
100
AcDbLine
 62
7
  6
CONTINUOUS
 10
-7.25
 20
8.6238392122
 11
-7.3
 21
8.5949716988
  0
LWPOLYLINE
  5
260
100
AcDbEntity
  8
IMPORT_IGES
100
AcDbPolyline
 62
253
  6
CONTINUOUS
 90
10
 70
0
 10
-4.5100516122
 20
9.8934522446
 10
-4.5685679971
 20
9.8759564095
 10
-4.6216072795
 20
9.8576642238
 10
-4.6688963772
 20
9.8385756873
 10
-4.7101751428
 20
9.8185846723
 10
-4.7452707845
 20
9.7977973066
 10
-4.7740626321
 20
9.7765319739
 10
-4.7963997488
 20
9.7548948022
 10
-4.8121377985
 20
9.7327796636
 10
-4.8211880766
 20
9.710186558
  0
LWPOLYLINE
  5
261
100
AcDbEntity
  8
IMPORT_IGES
100
AcDbPolyline
 62
253
  6
CONTINUOUS
 90
7
 70
0
 10
7.25
 20
-9.8144188796
 10
7.2583923022
 20
-9.8123818249
 10
7.2719548611
 20
-9.809222987
 10
7.2833194554
 20
-9.8060410148
 10
7.292223851
 20
-9.8030925597
 10
7.2979478485
 20
-9.8014417785
 10
7.2999688848
 20
-9.8017319881
  0
LWPOLYLINE
  5
262
100
AcDbEntity
  8
IMPORT_IGES
100
AcDbPolyline
 62
7
  6
CONTINUOUS
 90
7
 70
0
 10
7.2997823219
 20
-9.6843210422
 10
7.2984948521
 20
-9.6844957786
 10
7.2945436007
 20
-9.6844643573
 10
7.2880035806
 20
-9.6843414454
 10
7.2790019517
 20
-9.6842954655
 10
7.2676732193
 20
-9.6843442124
 10
7.2541131222
 20
-9.6843267776
  0
LINE
  5
263
100
AcDbEntity
  8
IMPORT_IGES
100
AcDbLine
 62
253
  6
CONTINUOUS
 10
6.9474993833
 20
-10.5750144999
 11
6.9866570056
 21
-10.5724479582
  0
LWPOLYLINE
  5
264
100
AcDbEntity
  8
IMPORT_IGES
100
AcDbPolyline
 62
253
  6
CONTINUOUS
 90
13
 70
0
 10
6.9471539112
 20
-10.5095007
 10
6.9859239466
 20
-10.5072563742
 10
7.0238845433
 20
-10.5007143101
 10
7.0604166151
 20
-10.4900373119
 10
7.0947588068
 20
-10.4755416383
 10
7.1265816303
 20
-10.4574645364
 10
7.1558523429
 20
-10.4357679606
 10
7.1821432551
 20
-10.4105131932
 10
7.2046631967
 20
-10.3821661819
 10
7.2228024111
 20
-10.3512765761
 10
7.2361279129
 20
-10.3183976644
 10
7.2443297154
 20
-10.284040847
 10
7.2471520835
 20
-10.2488089798
  0
LWPOLYLINE
  5
265
100
AcDbEntity
  8
IMPORT_IGES
100
AcDbPolyline
 62
7
  6
CONTINUOUS
 90
5
 70
0
 10
-6.7363156638
 20
-10.7018094191
 10
-6.7122967086
 20
-10.7013370055
 10
-6.6886945452
 20
-10.6994601606
 10
-6.6655091736
 20
-10.6963264327
 10
-6.6425635295
 20
-10.6920765884
  0
LINE
  5
266
100
AcDbEntity
  8
IMPORT_IGES
100
AcDbLine
 62
7
  6
CONTINUOUS
 10
-7.3009676109
 20
-11.2754979234
 11
7.3009676109
 21
-11.2754979234
  0
LINE
  5
267
100
AcDbEntity
  8
IMPORT_IGES
100
AcDbLine
 62
253
  6
CONTINUOUS
 10
-7.3
 20
-10.8750144999
 11
7.3
 21
-10.8750144999
  0
LINE
  5
268
100
AcDbEntity
  8
IMPORT_IGES
100
AcDbLine
 62
7
  6
CONTINUOUS
 10
-7.3
 20
-10.7018094191
 11
-6.7363156638
 21
-10.7018094191
  0
LINE
  5
269
100
AcDbEntity
  8
IMPORT_IGES
100
AcDbLine
 62
7
  6
CONTINUOUS
 10
6.7363156638
 20
-10.7018094191
 11
7.3
 21
-10.7018094191
  0
LINE
  5
26A
100
AcDbEntity
  8
IMPORT_IGES
100
AcDbLine
 62
7
  6
CONTINUOUS
 10
-6.5399303044
 20
-10.6750144999
 11
6.5399303044
 21
-10.6750144999
  0
LINE
  5
26B
100
AcDbEntity
  8
IMPORT_IGES
100
AcDbLine
 62
7
  6
CONTINUOUS
 10
-6.9478837891
 20
-10.5750144999
 11
6.9478837891
 21
-10.5750144999
  0
LINE
  5
26C
100
AcDbEntity
  8
IMPORT_IGES
100
AcDbLine
 62
253
  6
CONTINUOUS
 10
-6.9471539099
 20
-10.5095004059
 11
6.9471539099
 21
-10.5095004057
  0
LWPOLYLINE
  5
26D
100
AcDbEntity
  8
IMPORT_IGES
100
AcDbPolyline
 62
7
  6
CONTINUOUS
 90
10
 70
0
 10
6.7363156638
 20
-10.7018094191
 10
6.7122178485
 20
-10.7012411255
 10
6.688374377
 20
-10.6993065476
 10
6.664877397
 20
-10.6962162077
 10
6.6418466224
 20
-10.6918847034
 10
6.6194625976
 20
-10.686936554
 10
6.5979129269
 20
-10.6825472954
 10
6.5773526803
 20
-10.6791495345
 10
6.5579615169
 20
-10.6765886123
 10
6.5399303044
 20
-10.6750144999
  0
LWPOLYLINE
  5
26E
100
AcDbEntity
  8
IMPORT_IGES
100
AcDbPolyline
 62
7
  6
CONTINUOUS
 90
28
 70
0
 10
-6.948277289
 20
-10.5750158315
 10
-6.9746013641
 20
-10.5738579258
 10
-6.9995717476
 20
-10.5705966505
 10
-7.0227169367
 20
-10.5656315723
 10
-7.0439912263
 20
-10.5593348063
 10
-7.063347153
 20
-10.5520664942
 10
-7.0807325713
 20
-10.5441876832
 10
-7.0960956593
 20
-10.5360663988
 10
-7.1096253628
 20
-10.5279274431
 10
-7.1216475466
 20
-10.5198424645
 10
-7.132226649
 20
-10.511996478
 10
-7.1414572018
 20
-10.5045340338
 10
-7.1496694951
 20
-10.4973627917
 10
-7.1562679463
 20
-10.4912028059
 10
-7.162000435
 20
-10.485537282
 10
-7.1690017804
 20
-10.4781844777
 10
-7.1785755195
 20
-10.4672642353
 10
-7.1888659515
 20
-10.45421895
 10
-7.197488483
 20
-10.4420200662
 10
-7.2038222902
 20
-10.4321571182
 10
-7.2089397357
 20
-10.4235140979
 10
-7.213378807
 20
-10.4154361293
 10
-7.2171203068
 20
-10.4081328703
 10
-7.220312998
 20
-10.4014805914
 10
-7.2235705869
 20
-10.3942233402
 10
-7.2271523364
 20
-10.385585454
 10
-7.2306582481
 20
-10.3762979719
 10
-7.2337073311
 20
-10.3673573089
  0
LWPOLYLINE
  5
26F
100
AcDbEntity
  8
IMPORT_IGES
100
AcDbPolyline
 62
253
  6
CONTINUOUS
 90
12
 70
0
 10
-7.9585786903
 20
-10.3336046669
 10
-7.9973721863
 20
-10.3316930675
 10
-8.0355138333
 20
-10.3255658834
 10
-8.0723631457
 20
-10.3153263472
 10
-8.1073012538
 20
-10.301145613
 10
-8.1397417029
 20
-10.2832631008
 10
-8.1691401787
 20
-10.2619823313
 10
-8.1950031159
 20
-10.2376616542
 10
-8.21689611
 20
-10.2107084048
 10
-8.2344515364
 20
-10.1815751792
 10
-8.2473746064
 20
-10.1507511791
 10
-8.2554483172
 20
-10.1187539976
  0
LWPOLYLINE
  5
270
100
AcDbEntity
  8
IMPORT_IGES
100
AcDbPolyline
 62
253
  6
CONTINUOUS
 90
13
 70
0
 10
-6.94702527
 20
-10.5095005753
 10
-6.9861979149
 20
-10.5072246608
 10
-7.0246882229
 20
-10.5005272319
 10
-7.0618387103
 20
-10.4895276351
 10
-7.0970118559
 20
-10.4744205869
 10
-7.1296139317
 20
-10.4554674053
 10
-7.1591016744
 20
-10.4329868584
 10
-7.1849746743
 20
-10.4073593813
 10
-7.206787427
 20
-10.3790250177
 10
-7.2241675295
 20
-10.3484675121
 10
-7.2368182561
 20
-10.3162085644
 10
-7.2445236247
 20
-10.2827989225
 10
-7.2471520835
 20
-10.2488089798
  0
LWPOLYLINE
  5
271
100
AcDbEntity
  8
IMPORT_IGES
100
AcDbPolyline
 62
253
  6
CONTINUOUS
 90
3
 70
0
 10
-6.9474993904
 20
-10.5750144999
 10
-6.9863117779
 20
-10.5724932053
 10
-7.024311794
 20
-10.5650141253
  0
LWPOLYLINE
  5
272
100
AcDbEntity
  8
IMPORT_IGES
100
AcDbPolyline
 62
253
  6
CONTINUOUS
 90
6
 70
0
 10
-7.25
 20
-9.8143542538
 10
-7.2720223088
 20
-9.8087985892
 10
-7.2833779997
 20
-9.8060470069
 10
-7.292287305
 20
-9.8039593246
 10
-7.2979889742
 20
-9.8025199794
 10
-7.3000000187
 20
-9.8017289714
  0
LWPOLYLINE
  5
273
100
AcDbEntity
  8
IMPORT_IGES
100
AcDbPolyline
 62
253
  6
CONTINUOUS
 90
5
 70
0
 10
-7.2171203068
 20
-10.4081328703
 10
-7.2232957216
 20
-10.393063036
 10
-7.2365861362
 20
-10.3551882804
 10
-7.2447386775
 20
-10.3156067365
 10
-7.2474975627
 20
-10.2750144999
  0
LWPOLYLINE
  5
274
100
AcDbEntity
  8
IMPORT_IGES
100
AcDbPolyline
 62
7
  6
CONTINUOUS
 90
11
 70
0
 10
6.9730605039
 20
-8.5068554179
 10
7.0108856131
 20
-8.4994493513
 10
7.0476044629
 20
-8.4872265887
 10
7.0825936953
 20
-8.4702684375
 10
7.1152294249
 20
-8.4488153323
 10
7.1449050299
 20
-8.4232741874
 10
7.1710741906
 20
-8.3939666606
 10
7.1932547876
 20
-8.3613237844
 10
7.2110195329
 20
-8.3260174742
 10
7.2240120053
 20
-8.2886313369
 10
7.2319540256
 20
-8.2496522427
  0
LWPOLYLINE
  5
275
100
AcDbEntity
  8
IMPORT_IGES
100
AcDbPolyline
 62
253
  6
CONTINUOUS
 90
5
 70
0
 10
7.2679285475
 20
-9.679950972
 10
7.2793199554
 20
-9.6790912414
 10
7.2883073212
 20
-9.6781637953
 10
7.2947871387
 20
-9.6771439463
 10
7.2986956308
 20
-9.6760887366
  0
LINE
  5
276
100
AcDbEntity
  8
IMPORT_IGES
100
AcDbLine
 62
253
  6
CONTINUOUS
 10
7.25
 20
-9.6811365105
 11
7.2679285475
 21
-9.679950972
  0
LWPOLYLINE
  5
277
100
AcDbEntity
  8
IMPORT_IGES
100
AcDbPolyline
 62
253
  6
CONTINUOUS
 90
10
 70
0
 10
7.3
 20
-9.8931660341
 10
7.2938282296
 20
-9.8932440728
 10
7.2879573425
 20
-9.8937132031
 10
7.2823974607
 20
-9.8945726069
 10
7.2771581056
 20
-9.895820875
 10
7.2722483691
 20
-9.8974557593
 10
7.2676769153
 20
-9.8994741958
 10
7.2634517082
 20
-9.9018726346
 10
7.259579981
 20
-9.9046470261
 10
7.2560684232
 20
-9.9077925909
  0
LWPOLYLINE
  5
278
100
AcDbEntity
  8
IMPORT_IGES
100
AcDbPolyline
 62
7
  6
CONTINUOUS
 90
8
 70
0
 10
-7.25
 20
-9.6842923003
 10
-7.2541959522
 20
-9.6843265634
 10
-7.2677321103
 20
-9.6843444896
 10
-7.2790403687
 20
-9.684296207
 10
-7.2880255041
 20
-9.6843419398
 10
-7.2945534499
 20
-9.6844638726
 10
-7.2984973709
 20
-9.6844941543
 10
-7.2997824395
 20
-9.6843185135
  0
LINE
  5
279
100
AcDbEntity
  8
IMPORT_IGES
100
AcDbLine
 62
253
  6
CONTINUOUS
 10
7.2474975627
 20
-10.2750144999
 11
7.248266366
 21
-10.275014235
  0
LINE
  5
27A
100
AcDbEntity
  8
IMPORT_IGES
100
AcDbLine
 62
253
  6
CONTINUOUS
 10
-7.248266366
 20
-10.2750144999
 11
-7.2474975627
 21
-10.2750144999
  0
LINE
  5
27B
100
AcDbEntity
  8
IMPORT_IGES
100
AcDbLine
 62
7
  6
CONTINUOUS
 10
-4.0082575695
 20
-9.8250144999
 11
4.0082575695
 21
-9.8250144999
  0
LINE
  5
27C
100
AcDbEntity
  8
IMPORT_IGES
100
AcDbLine
 62
253
  6
CONTINUOUS
 10
-7.9711527644
 20
-9.6135020086
 11
-7.3
 21
-9.6135020087
  0
LINE
  5
27D
100
AcDbEntity
  8
IMPORT_IGES
100
AcDbLine
 62
253
  6
CONTINUOUS
 10
7.3
 20
-9.6135020088
 11
7.9711527644
 21
-9.6135020087
  0
LINE
  5
27E
100
AcDbEntity
  8
IMPORT_IGES
100
AcDbLine
 62
7
  6
CONTINUOUS
 10
3.25
 20
-9.5424058042
 11
-3.25
 21
-9.5424058042
  0
LINE
  5
27F
100
AcDbEntity
  8
IMPORT_IGES
100
AcDbLine
 62
7
  6
CONTINUOUS
 10
7.2541131222
 20
-9.6843267776
 11
7.25
 21
-9.6842933235
  0
LWPOLYLINE
  5
280
100
AcDbEntity
  8
IMPORT_IGES
100
AcDbPolyline
 62
253
  6
CONTINUOUS
 90
13
 70
0
 10
-7.9711527644
 20
-9.6135020088
 10
-8.0098856414
 20
-9.6115825792
 10
-8.0479887989
 20
-9.6054599546
 10
-8.0848222814
 20
-9.5952305512
 10
-8.1197707203
 20
-9.5810576656
 10
-8.1522384488
 20
-9.563174839
 10
-8.1816635302
 20
-9.5418873033
 10
-8.207549665
 20
-9.5175533108
 10
-8.2294619675
 20
-9.4905807678
 10
-8.2470262
 20
-9.4614324653
 10
-8.259949421
 20
-9.4306032094
 10
-8.2680202937
 20
-9.3986089241
 10
-8.2711070729
 20
-9.3659874339
  0
LWPOLYLINE
  5
281
100
AcDbEntity
  8
IMPORT_IGES
100
AcDbPolyline
 62
253
  6
CONTINUOUS
 90
6
 70
0
 10
-7.25
 20
-9.6811358143
 10
-7.267990545
 20
-9.6799451544
 10
-7.2793608723
 20
-9.679084702
 10
-7.2883309462
 20
-9.678160802
 10
-7.2947978687
 20
-9.6771438289
 10
-7.2986983595
 20
-9.6760904424
  0
LWPOLYLINE
  5
282
100
AcDbEntity
  8
IMPORT_IGES
100
AcDbPolyline
 62
7
  6
CONTINUOUS
 90
11
 70
0
 10
-6.9729105784
 20
-8.5069098015
 10
-7.010812737
 20
-8.4995027967
 10
-7.0475769107
 20
-8.4872435362
 10
-7.0825732349
 20
-8.4702885358
 10
-7.1151920966
 20
-8.4488758179
 10
-7.1448545743
 20
-8.4233218795
 10
-7.1710189965
 20
-8.3940254823
 10
-7.1932005176
 20
-8.3614513878
 10
-7.2109767514
 20
-8.3261177356
 10
-7.2239868413
 20
-8.2886080464
 10
-7.2319450768
 20
-8.2495657441
  0
LINE
  5
283
100
AcDbEntity
  8
IMPORT_IGES
100
AcDbLine
 62
253
  6
CONTINUOUS
 10
-7.2337073311
 20
-10.3673573089
 11
-7.2380441762
 21
-10.3526602134
  0
LWPOLYLINE
  5
284
100
AcDbEntity
  8
IMPORT_IGES
100
AcDbPolyline
 62
7
  6
CONTINUOUS
 90
15
 70
0
 10
-7.2337073311
 20
-10.3673573089
 10
-7.2362068278
 20
-10.3592419789
 10
-7.2383534491
 20
-10.3515241917
 10
-7.2402667821
 20
-10.3438645696
 10
-7.2419885432
 20
-10.3361067937
 10
-7.2434839261
 20
-10.3284195413
 10
-7.2447402514
 20
-10.3209428649
 10
-7.2457898591
 20
-10.313574367
 10
-7.2466313481
 20
-10.3064264875
 10
-7.2472449952
 20
-10.2999535479
 10
-7.2476734117
 20
-10.2942018326
 10
-7.2479643886
 20
-10.2890779984
 10
-7.2481446808
 20
-10.2847973814
 10
-7.2482461208
 20
-10.2815654992
 10
-7.2483081295
 20
-10.2790242285
  0
LINE
  5
285
100
AcDbEntity
  8
IMPORT_IGES
100
AcDbLine
 62
253
  6
CONTINUOUS
 10
-8.2554483172
 20
-10.1187539976
 11
-8.258537096
 21
-10.0861209276
  0
LWPOLYLINE
  5
286
100
AcDbEntity
  8
IMPORT_IGES
100
AcDbPolyline
 62
253
  6
CONTINUOUS
 90
9
 70
0
 10
-8.25
 20
-6.1250144999
 10
-8.2482900139
 20
-6.1454913681
 10
-8.2431882534
 20
-6.1656211389
 10
-8.2347804429
 20
-6.1850592494
 10
-8.2232082187
 20
-6.2034737097
 10
-8.2086686393
 20
-6.2205476482
 10
-8.1914124773
 20
-6.235985576
 10
-8.1717349807
 20
-6.2495234369
 10
-8.1499734274
 20
-6.2609292599
  0
LWPOLYLINE
  5
287
100
AcDbEntity
  8
IMPORT_IGES
100
AcDbPolyline
 62
253
  6
CONTINUOUS
 90
13
 70
0
 10
-8.25
 20
4.2781145205
 10
-8.2482909779
 20
4.2985856406
 10
-8.2431911697
 20
4.3187126167
 10
-8.2347848991
 20
4.3381508268
 10
-8.2232118605
 20
4.3565687805
 10
-8.208668283
 20
4.3736480332
 10
-8.1914066312
 20
4.389090183
 10
-8.1717221883
 20
4.4026311571
 10
-8.1499528217
 20
4.4140386105
 10
-8.1264812571
 20
4.4231141242
 10
-8.1017145325
 20
4.4297046683
 10
-8.0760744879
 20
4.4337021125
 10
-8.05
 20
4.4350414697
  0
LWPOLYLINE
  5
288
100
AcDbEntity
  8
IMPORT_IGES
100
AcDbPolyline
 62
253
  6
CONTINUOUS
 90
5
 70
0
 10
-8.2561710505
 20
8.9716425879
 10
-8.2532136181
 20
8.998826918
 10
-8.2453834116
 20
9.0253659614
 10
-8.2328696759
 20
9.0508320554
 10
-8.2160353204
 20
9.0747028346
  0
LWPOLYLINE
  5
289
100
AcDbEntity
  8
IMPORT_IGES
100
AcDbPolyline
 62
7
  6
CONTINUOUS
 90
5
 70
0
 10
-6.6425635295
 20
-10.6920765884
 10
-6.5984538093
 20
-10.6826682932
 10
-6.57799799
 20
-10.6788028539
 10
-6.558490155
 20
-10.6760627844
 10
-6.5399303044
 20
-10.6750144999
  0
LINE
  5
28A
100
AcDbEntity
  8
IMPORT_IGES
100
AcDbLine
 62
7
  6
CONTINUOUS
 10
6.9347654001
 20
-8.5093919335
 11
6.9730605039
 21
-8.5068554179
  0
LINE
  5
28B
100
AcDbEntity
  8
IMPORT_IGES
100
AcDbLine
 62
253
  6
CONTINUOUS
 10
-8.2711070729
 20
-9.3659874339
 11
-7.9711527644
 21
-9.3607517123
  0
LINE
  5
28C
100
AcDbEntity
  8
IMPORT_IGES
100
AcDbLine
 62
253
  6
CONTINUOUS
 10
-7.9711527644
 20
-9.3607517123
 11
-7.3
 21
-9.360751712
  0
LINE
  5
28D
100
AcDbEntity
  8
IMPORT_IGES
100
AcDbLine
 62
253
  6
CONTINUOUS
 10
7.3
 20
-9.3607517123
 11
7.9711527644
 21
-9.3607517126
  0
LINE
  5
28E
100
AcDbEntity
  8
IMPORT_IGES
100
AcDbLine
 62
253
  6
CONTINUOUS
 10
7.9711527644
 20
-9.360751712
 11
8.2711070729
 21
-9.3659874339
  0
LINE
  5
28F
100
AcDbEntity
  8
IMPORT_IGES
100
AcDbLine
 62
7
  6
CONTINUOUS
 10
-6.9345081209
 20
-8.5093921246
 11
-6.9729105784
 21
-8.5069098015
  0
LWPOLYLINE
  5
290
100
AcDbEntity
  8
IMPORT_IGES
100
AcDbPolyline
 62
7
  6
CONTINUOUS
 90
13
 70
0
 10
-6.8944964766
 20
-8.4695091488
 10
-6.9333739892
 20
-8.4669788917
 10
-6.9716593807
 20
-8.4594148303
 10
-7.0086998288
 20
-8.4469199268
 10
-7.0438668609
 20
-8.4296771631
 10
-7.0765401792
 20
-8.4079599981
 10
-7.1061256716
 20
-8.3821395038
 10
-7.132104525
 20
-8.3526509729
 10
-7.1540238684
 20
-8.3199884984
 10
-7.1714887954
 20
-8.2847211368
 10
-7.1841905318
 20
-8.2474578016
 10
-7.1919059572
 20
-8.2088329712
 10
-7.1944946489
 20
-8.1695109765
  0
LWPOLYLINE
  5
291
100
AcDbEntity
  8
IMPORT_IGES
100
AcDbPolyline
 62
253
  6
CONTINUOUS
 90
5
 70
0
 10
-8.1499734274
 20
-6.2609292599
 10
-8.1265057331
 20
-6.2700061539
 10
-8.1017363908
 20
-6.2766000557
 10
-8.0760881683
 20
-6.28060068
 10
-8.05
 20
-6.281941449
  0
LINE
  5
292
100
AcDbEntity
  8
IMPORT_IGES
100
AcDbLine
 62
253
  6
CONTINUOUS
 10
-7.2380441762
 20
-10.3526602134
 11
-7.2419885432
 21
-10.3361067937
  0
LINE
  5
293
100
AcDbEntity
  8
IMPORT_IGES
100
AcDbLine
 62
253
  6
CONTINUOUS
 10
-7.2434839261
 20
-10.3284195413
 11
-7.2456998401
 21
-10.3141723575
  0
LWPOLYLINE
  5
294
100
AcDbEntity
  8
IMPORT_IGES
100
AcDbPolyline
 62
253
  6
CONTINUOUS
 90
4
 70
0
 10
-7.248266366
 20
-10.2750144999
 10
-7.248310582
 20
-10.2746055829
 10
-7.2483542811
 20
-10.2734198653
 10
-7.2483974634
 20
-10.2714573471
  0
LINE
  5
295
100
AcDbEntity
  8
IMPORT_IGES
100
AcDbLine
 62
7
  6
CONTINUOUS
 10
-7.2319450768
 20
-8.2495657441
 11
-7.2346529689
 21
-8.2096692964
  0
LINE
  5
296
100
AcDbEntity
  8
IMPORT_IGES
100
AcDbLine
 62
7
  6
CONTINUOUS
 10
-8.2565057833
 20
-10.202494755
 11
-8.4228958451
 21
-0.6700144999
  0
LINE
  5
297
100
AcDbEntity
  8
IMPORT_IGES
100
AcDbLine
 62
7
  6
CONTINUOUS
 10
-8.4227212944
 20
-0.5700144999
 11
-8.4209763728
 21
-0.6699809953
  0
LINE
  5
298
100
AcDbEntity
  8
IMPORT_IGES
100
AcDbLine
 62
253
  6
CONTINUOUS
 10
-7.9585740552
 20
-10.3336046435
 11
-7.9711527644
 21
-9.6135020086
  0
LINE
  5
299
100
AcDbEntity
  8
IMPORT_IGES
100
AcDbLine
 62
253
  6
CONTINUOUS
 10
-7.9711527644
 20
-9.3607517123
 11
-8.0241496306
 21
-6.32456328
  0
LINE
  5
29A
100
AcDbEntity
  8
IMPORT_IGES
100
AcDbLine
 62
7
  6
CONTINUOUS
 10
-8.25
 20
-6.1250144999
 11
-8.25
 21
5.1749855001
  0
LINE
  5
29B
100
AcDbEntity
  8
ASSI
100
AcDbLine
 62
7
  6
CONTINUOUS
 10
-8.25
 20
-5.2281435202
 11
-8.25
 21
4.2781145205
  0
LINE
  5
29C
100
AcDbEntity
  8
IMPORT_IGES
100
AcDbLine
 62
253
  6
CONTINUOUS
 10
-8.05
 20
-6.3250144999
 11
-8.05
 21
-5.2281435202
  0
LINE
  5
29D
100
AcDbEntity
  8
ASSI
100
AcDbLine
 62
253
  6
CONTINUOUS
 10
-8.05
 20
-5.2281435202
 11
-8.05
 21
4.2781145205
  0
LINE
  5
29E
100
AcDbEntity
  8
IMPORT_IGES
100
AcDbLine
 62
253
  6
CONTINUOUS
 10
-8.05
 20
4.2781145205
 11
-8.05
 21
5.3749855001
  0
LINE
  5
29F
100
AcDbEntity
  8
IMPORT_IGES
100
AcDbLine
 62
253
  6
CONTINUOUS
 10
-7.9711527644
 20
-9.6135020088
 11
-7.9711527644
 21
-9.360751712
  0
LINE
  5
2A0
100
AcDbEntity
  8
IMPORT_IGES
100
AcDbLine
 62
7
  6
CONTINUOUS
 10
-7.97889188
 20
7.6678788327
 11
-7.9764144147
 21
8.0214151131
  0
LINE
  5
2A1
100
AcDbEntity
  8
IMPORT_IGES
100
AcDbLine
 62
7
  6
CONTINUOUS
 10
-7.9562165252
 20
9.178554871
 11
-7.9551942659
 21
9.3249855001
  0
LINE
  5
2A2
100
AcDbEntity
  8
IMPORT_IGES
100
AcDbLine
 62
7
  6
CONTINUOUS
 10
-8.4227212945
 20
-0.5700144999
 11
-8.2551485623
 21
9.0302208947
  0
LINE
  5
2A3
100
AcDbEntity
  8
IMPORT_IGES
100
AcDbLine
 62
253
  6
CONTINUOUS
 10
-7.9764144147
 20
8.0214151136
 11
-7.9562165431
 21
9.1785548714
  0
LINE
  5
2A4
100
AcDbEntity
  8
IMPORT_IGES
100
AcDbLine
 62
253
  6
CONTINUOUS
 10
-8.0189199782
 20
5.3744430528
 11
-7.9788920754
 21
7.667878834
  0
LWPOLYLINE
  5
2A5
100
AcDbEntity
  8
IMPORT_IGES
100
AcDbPolyline
 62
253
  6
CONTINUOUS
 90
6
 70
0
 10
-8.3630498837
 20
-4.0985873301
 10
-8.361034877
 20
-4.0643210637
 10
-8.3538269496
 20
-4.0305490069
 10
-8.3415464638
 20
-3.9978606344
 10
-8.324400037
 20
-3.9668236985
 10
-8.302683426
 20
-3.9379862928
  0
LWPOLYLINE
  5
2A6
100
AcDbEntity
  8
IMPORT_IGES
100
AcDbPolyline
 62
7
  6
CONTINUOUS
 90
5
 70
0
 10
-7.247553483
 20
6.0749755583
 10
-7.2471779888
 20
6.0812288587
 10
-7.2468152977
 20
6.0978418808
 10
-7.2464654097
 20
6.1248146245
 10
-7.2457969801
 20
6.2111216116
  0
LWPOLYLINE
  5
2A7
100
AcDbEntity
  8
IMPORT_IGES
100
AcDbPolyline
 62
253
  6
CONTINUOUS
 90
13
 70
0
 10
-7.2467897109
 20
9.0249855001
 10
-7.2442685481
 20
9.0637972323
 10
-7.2367898153
 20
9.1017967936
 10
-7.2245406367
 20
9.138363181
 10
-7.2078852669
 20
9.1727326978
 10
-7.1870972608
 20
9.2045751887
 10
-7.162132343
 20
9.2338581239
 10
-7.1330604756
 20
9.2601523778
 10
-7.1004187681
 20
9.2826643444
 10
-7.0648412324
 20
9.3007827082
 10
-7.0269663989
 20
9.3140735723
 10
-6.9873846674
 20
9.3222264425
 10
-6.9467921478
 20
9.3249855001
  0
LWPOLYLINE
  5
2A8
100
AcDbEntity
  8
IMPORT_IGES
100
AcDbPolyline
 62
7
  6
CONTINUOUS
 90
13
 70
0
 10
-7.1944946489
 20
7.2194819768
 10
-7.1919643918
 20
7.2583594894
 10
-7.1844003305
 20
7.2966448809
 10
-7.1719054269
 20
7.3336853289
 10
-7.1546626633
 20
7.3688523611
 10
-7.1329454983
 20
7.4015256794
 10
-7.107125004
 20
7.4311111718
 10
-7.0776310694
 20
7.45709419
 10
-7.0449621943
 20
7.4790162126
 10
-7.009706637
 20
7.4964742956
 10
-6.9724828295
 20
7.509165393
 10
-6.9339199221
 20
7.5168780252
 10
-6.8946806814
 20
7.5194800903
  0
LINE
  5
2A9
100
AcDbEntity
  8
IMPORT_IGES
100
AcDbLine
 62
7
  6
CONTINUOUS
 10
-7.237063008
 20
7.306065722
 11
-7.2399229223
 21
7.2649102502
  0
LWPOLYLINE
  5
2AA
100
AcDbEntity
  8
IMPORT_IGES
100
AcDbPolyline
 62
253
  6
CONTINUOUS
 90
13
 70
0
 10
-7.2455555717
 20
8.8785388907
 10
-7.2429005931
 20
8.9061844965
 10
-7.2351739436
 20
8.9333585627
 10
-7.2225074136
 20
8.9595975914
 10
-7.2051170515
 20
8.9844540337
 10
-7.1832994782
 20
9.0075039222
 10
-7.1574268276
 20
9.0283541025
 10
-7.1279404
 20
9.0466489406
 10
-7.0953431342
 20
9.0620763886
 10
-7.0601910295
 20
9.0743733064
 10
-7.0230836621
 20
9.0833299502
 10
-6.9846539584
 20
9.0887935497
 10
-6.9455573994
 20
9.0906709145
  0
LWPOLYLINE
  5
2AB
100
AcDbEntity
  8
IMPORT_IGES
100
AcDbPolyline
 62
253
  6
CONTINUOUS
 90
13
 70
0
 10
-4.5100407764
 20
9.8934396222
 10
-4.4979845487
 20
9.9195620943
 10
-4.4838266591
 20
9.9443336693
 10
-4.4680146564
 20
9.9678305525
 10
-4.4505717512
 20
9.9906154182
 10
-4.4320565004
 20
10.0124602699
 10
-4.4132779375
 20
10.0323629035
 10
-4.3934656859
 20
10.050665286
 10
-4.372563421
 20
10.0679668796
 10
-4.3519187276
 20
10.0835091375
 10
-4.331576059
 20
10.0970726044
 10
-4.3105099746
 20
10.1091749121
 10
-4.2884248568
 20
10.1198213412
  0
LWPOLYLINE
  5
2AC
100
AcDbEntity
  8
IMPORT_IGES
100
AcDbPolyline
 62
7
  6
CONTINUOUS
 90
10
 70
0
 10
-4.8483630124
 20
6.0789418378
 10
-4.7945180871
 20
6.1065873803
 10
-4.7393174619
 20
6.1310641509
 10
-4.6827611368
 20
6.1523721496
 10
-4.6248799775
 20
6.1705548314
 10
-4.5656431184
 20
6.1855687412
 10
-4.5049579627
 20
6.1972835138
 10
-4.442793645
 20
6.205655694
 10
-4.3791810309
 20
6.2107287368
 10
-4.3141201202
 20
6.2125026424
  0
LINE
  5
2AD
100
AcDbEntity
  8
IMPORT_IGES
100
AcDbLine
 62
7
  6
CONTINUOUS
 10
-6.9346367602
 20
-8.5093921506
 11
-4.05
 21
-8.5093921506
  0
LINE
  5
2AE
100
AcDbEntity
  8
IMPORT_IGES
100
AcDbLine
 62
7
  6
CONTINUOUS
 10
4.05
 20
-8.5093921506
 11
6.9346367602
 21
-8.5093921506
  0
LINE
  5
2AF
100
AcDbEntity
  8
IMPORT_IGES
100
AcDbLine
 62
7
  6
CONTINUOUS
 10
-3.25
 20
-8.4942965803
 11
3.25
 21
-8.4942965803
  0
LINE
  5
2B0
100
AcDbEntity
  8
IMPORT_IGES
100
AcDbLine
 62
7
  6
CONTINUOUS
 10
-4.05
 20
-8.4877834376
 11
-3.25
 21
-8.4877834376
  0
LINE
  5
2B1
100
AcDbEntity
  8
IMPORT_IGES
100
AcDbLine
 62
7
  6
CONTINUOUS
 10
3.25
 20
-8.4877834376
 11
4.05
 21
-8.4877834376
  0
LINE
  5
2B2
100
AcDbEntity
  8
IMPORT_IGES
100
AcDbLine
 62
7
  6
CONTINUOUS
 10
-6.8944964766
 20
-8.4695091488
 11
6.8944964766
 21
-8.4695091488
  0
LINE
  5
2B3
100
AcDbEntity
  8
IMPORT_IGES
100
AcDbLine
 62
253
  6
CONTINUOUS
 10
-7.1944946489
 20
-8.1695109765
 11
7.1944946489
 21
-8.1695109765
  0
LINE
  5
2B4
100
AcDbEntity
  8
IMPORT_IGES
100
AcDbLine
 62
7
  6
CONTINUOUS
 10
2.325
 20
-8.1341179655
 11
-2.325
 21
-8.1341179655
  0
LINE
  5
2B5
100
AcDbEntity
  8
IMPORT_IGES
100
AcDbLine
 62
7
  6
CONTINUOUS
 10
-2.025
 20
-7.6250144999
 11
2.025
 21
-7.6250144999
  0
LWPOLYLINE
  5
2B6
100
AcDbEntity
  8
IMPORT_IGES
100
AcDbPolyline
 62
7
  6
CONTINUOUS
 90
3
 70
0
 10
-7.2468125069
 20
-7.0979691963
 10
-7.2471767837
 20
-7.0812122008
 10
-7.247553483
 20
-7.0750200166
  0
LWPOLYLINE
  5
2B7
100
AcDbEntity
  8
IMPORT_IGES
100
AcDbPolyline
 62
7
  6
CONTINUOUS
 90
3
 70
0
 10
-7.2468125069
 20
8.0520308037
 10
-7.2471767837
 20
8.0687877991
 10
-7.247553483
 20
8.0749799833
  0
LINE
  5
2B8
100
AcDbEntity
  8
IMPORT_IGES
100
AcDbLine
 62
7
  6
CONTINUOUS
 10
-7.2483081295
 20
-10.2790242285
 11
-7.2483961126
 21
-10.2741092304
  0
LINE
  5
2B9
100
AcDbEntity
  8
IMPORT_IGES
100
AcDbLine
 62
253
  6
CONTINUOUS
 10
-7.2484610134
 20
-10.2689974851
 11
-7.2484826127
 21
-10.2651739388
  0
LINE
  5
2BA
100
AcDbEntity
  8
IMPORT_IGES
100
AcDbLine
 62
7
  6
CONTINUOUS
 10
-7.2483961126
 20
-10.2741092304
 11
-7.2484917985
 21
-10.2660047104
  0
LINE
  5
2BB
100
AcDbEntity
  8
IMPORT_IGES
100
AcDbLine
 62
7
  6
CONTINUOUS
 10
-7.2461173352
 20
-7.1638520404
 11
-7.2468125069
 21
-7.0979691963
  0
LINE
  5
2BC
100
AcDbEntity
  8
IMPORT_IGES
100
AcDbLine
 62
7
  6
CONTINUOUS
 10
-7.2461173352
 20
7.9861479596
 11
-7.2468125069
 21
8.0520308037
  0
LINE
  5
2BD
100
AcDbEntity
  8
IMPORT_IGES
100
AcDbLine
 62
7
  6
CONTINUOUS
 10
-6.9464870988
 20
9.3128438697
 11
-6.9461952054
 21
9.2767737769
  0
LINE
  5
2BE
100
AcDbEntity
  8
IMPORT_IGES
100
AcDbLine
 62
253
  6
CONTINUOUS
 10
-7.2463380159
 20
9.0079492114
 11
-7.2459170196
 21
8.9579925401
  0
LINE
  5
2BF
100
AcDbEntity
  8
IMPORT_IGES
100
AcDbLine
 62
7
  6
CONTINUOUS
 10
-7.249996796
 20
-9.9977680663
 11
-7.2484917985
 21
-10.2660047104
  0
LINE
  5
2C0
100
AcDbEntity
  8
IMPORT_IGES
100
AcDbLine
 62
7
  6
CONTINUOUS
 10
-7.228448616
 20
4.4350414697
 11
-7.2324108867
 21
5.3319124493
  0
LINE
  5
2C1
100
AcDbEntity
  8
IMPORT_IGES
100
AcDbLine
 62
253
  6
CONTINUOUS
 10
-7.2459170196
 20
8.9579925401
 11
-7.2455555717
 21
8.8785388907
  0
LINE
  5
2C2
100
AcDbEntity
  8
IMPORT_IGES
100
AcDbLine
 62
253
  6
CONTINUOUS
 10
-6.9455573994
 20
9.0906709246
 11
-6.9398615413
 21
7.5644767997
  0
LINE
  5
2C3
100
AcDbEntity
  8
IMPORT_IGES
100
AcDbLine
 62
7
  6
CONTINUOUS
 10
-7.2455555717
 20
8.8785388907
 11
-7.2399229223
 21
7.2649102502
  0
LINE
  5
2C4
100
AcDbEntity
  8
IMPORT_IGES
100
AcDbLine
 62
7
  6
CONTINUOUS
 10
-7.2447153117
 20
-7.4928735537
 11
-7.2461173352
 21
-7.1638520404
  0
LINE
  5
2C5
100
AcDbEntity
  8
IMPORT_IGES
100
AcDbLine
 62
7
  6
CONTINUOUS
 10
-7.2447153117
 20
7.6571264463
 11
-7.2461173352
 21
7.9861479596
  0
LINE
  5
2C6
100
AcDbEntity
  8
IMPORT_IGES
100
AcDbLine
 62
7
  6
CONTINUOUS
 10
-6.9461952054
 20
9.2767737769
 11
-6.9455573994
 21
9.0906709246
  0
LINE
  5
2C7
100
AcDbEntity
  8
IMPORT_IGES
100
AcDbLine
 62
253
  6
CONTINUOUS
 10
-7.2486385267
 20
-10.2453859977
 11
-7.2486411773
 21
-10.2437467974
  0
LINE
  5
2C8
100
AcDbEntity
  8
IMPORT_IGES
100
AcDbLine
 62
7
  6
CONTINUOUS
 10
-7.3
 20
-11.2772082615
 11
-7.3
 21
-6.3250144999
  0
LINE
  5
2C9
100
AcDbEntity
  8
IMPORT_IGES
100
AcDbLine
 62
7
  6
CONTINUOUS
 10
-7.3
 20
5.3749855001
 11
-7.3
 21
9.3946005923
  0
LINE
  5
2CA
100
AcDbEntity
  8
IMPORT_IGES
100
AcDbLine
 62
7
  6
CONTINUOUS
 10
-7.2499968072
 20
-9.9977660153
 11
-7.25
 21
-9.0750244417
  0
LINE
  5
2CB
100
AcDbEntity
  8
IMPORT_IGES
100
AcDbLine
 62
7
  6
CONTINUOUS
 10
-7.25
 20
-7.1677345686
 11
-7.25
 21
-6.3250144999
  0
LINE
  5
2CC
100
AcDbEntity
  8
IMPORT_IGES
100
AcDbLine
 62
7
  6
CONTINUOUS
 10
-7.25
 20
5.3749855001
 11
-7.25
 21
6.1679384578
  0
LINE
  5
2CD
100
AcDbEntity
  8
IMPORT_IGES
100
AcDbLine
 62
7
  6
CONTINUOUS
 10
-7.25
 20
8.074995273
 11
-7.25
 21
9.0249855001
  0
LINE
  5
2CE
100
AcDbEntity
  8
ASSI
100
AcDbLine
 62
7
  6
CONTINUOUS
 10
-7.2351646411
 20
-4.0250144999
 11
-7.2351646411
 21
3.0749855001
  0
LINE
  5
2CF
100
AcDbEntity
  8
IMPORT_IGES
100
AcDbLine
 62
7
  6
CONTINUOUS
 10
-7.2281832957
 20
4.2781145205
 11
-7.2281832957
 21
3.0749855001
  0
LINE
  5
2D0
100
AcDbEntity
  8
IMPORT_IGES
100
AcDbLine
 62
7
  6
CONTINUOUS
 10
-7.2281832957
 20
-4.0250144997
 11
-7.2281832957
 21
-5.2281435202
  0
LINE
  5
2D1
100
AcDbEntity
  8
IMPORT_IGES
100
AcDbLine
 62
7
  6
CONTINUOUS
 10
-7.1944946489
 20
-8.1695109765
 11
-7.1944946489
 21
7.2194819768
  0
LINE
  5
2D2
100
AcDbEntity
  8
IMPORT_IGES
100
AcDbLine
 62
253
  6
CONTINUOUS
 10
-6.8944964766
 20
-8.4695091488
 11
-6.8944964766
 21
7.5194801491
  0
LINE
  5
2D3
100
AcDbEntity
  8
IMPORT_IGES
100
AcDbLine
 62
7
  6
CONTINUOUS
 10
-7.2445342398
 20
6.5734376011
 11
-7.2447153117
 21
7.6571264463
  0
LINE
  5
2D4
100
AcDbEntity
  8
IMPORT_IGES
100
AcDbLine
 62
7
  6
CONTINUOUS
 10
-7.2445342398
 20
-8.5765623989
 11
-7.2447153117
 21
-7.4928735537
  0
LINE
  5
2D5
100
AcDbEntity
  8
IMPORT_IGES
100
AcDbLine
 62
7
  6
CONTINUOUS
 10
-7.2324108867
 20
-6.281941449
 11
-7.228448616
 21
-5.3850704694
  0
LINE
  5
2D6
100
AcDbEntity
  8
IMPORT_IGES
100
AcDbLine
 62
7
  6
CONTINUOUS
 10
-7.2457969801
 20
6.2111216116
 11
-7.2445342398
 21
6.5734376011
  0
LINE
  5
2D7
100
AcDbEntity
  8
IMPORT_IGES
100
AcDbLine
 62
7
  6
CONTINUOUS
 10
-7.2457969801
 20
-8.9388783885
 11
-7.2445342398
 21
-8.5765623989
  0
LINE
  5
2D8
100
AcDbEntity
  8
IMPORT_IGES
100
AcDbLine
 62
7
  6
CONTINUOUS
 10
-7.2346529689
 20
-8.2096692964
 11
-7.2471520835
 21
-10.2488089799
  0
LINE
  5
2D9
100
AcDbEntity
  8
IMPORT_IGES
100
AcDbLine
 62
253
  6
CONTINUOUS
 10
-6.9471539099
 20
-10.5095004059
 11
-6.9346367602
 21
-8.5093921506
  0
LINE
  5
2DA
100
AcDbEntity
  8
IMPORT_IGES
100
AcDbLine
 62
253
  6
CONTINUOUS
 10
-7.2471520835
 20
-10.2488089799
 11
-7.2472994973
 21
-10.2667930752
  0
LWPOLYLINE
  5
2DB
100
AcDbEntity
  8
IMPORT_IGES
100
AcDbPolyline
 62
253
  6
CONTINUOUS
 90
5
 70
0
 10
-7.2472994973
 20
-10.2667930752
 10
-7.2473776945
 20
-10.2720443019
 10
-7.2474172561
 20
-10.2736846822
 10
-7.2474572121
 20
-10.2746747482
 10
-7.2474975627
 20
-10.2750144999
  0
LWPOLYLINE
  5
2DC
100
AcDbEntity
  8
IMPORT_IGES
100
AcDbPolyline
 62
7
  6
CONTINUOUS
 90
5
 70
0
 10
-7.247553483
 20
-9.0750244417
 10
-7.2471779888
 20
-9.0687711413
 10
-7.2468152977
 20
-9.0521581192
 10
-7.2464654097
 20
-9.0251853755
 10
-7.2457969801
 20
-8.9388783885
  0
LWPOLYLINE
  5
2DD
100
AcDbEntity
  8
IMPORT_IGES
100
AcDbPolyline
 62
253
  6
CONTINUOUS
 90
10
 70
0
 10
-4.5217845696
 20
9.4255960494
 10
-4.5144413533
 20
9.4487579002
 10
-4.5022814868
 20
9.4712952345
 10
-4.4853049702
 20
9.4932080523
 10
-4.463284866
 20
9.5145974309
 10
-4.4364481116
 20
9.535362293
 10
-4.4054755191
 20
9.5551994064
 10
-4.3705940258
 20
9.5740076937
 10
-4.3315766945
 20
9.5918882324
 10
-4.288423525
 20
9.6088410223
  0
LWPOLYLINE
  5
2DE
100
AcDbEntity
  8
IMPORT_IGES
100
AcDbPolyline
 62
7
  6
CONTINUOUS
 90
10
 70
0
 10
-5.2220328397
 20
5.6902651557
 10
-5.1912207517
 20
5.7462978508
 10
-5.1577116576
 20
5.7990912898
 10
-5.1215055574
 20
5.8486454729
 10
-5.0825753703
 20
5.8949235242
 10
-5.040948177
 20
5.9379623195
 10
-4.9967052203
 20
5.9778724858
 10
-4.9498735811
 20
6.0146908988
 10
-4.9004261784
 20
6.0483806828
 10
-4.8483630124
 20
6.0789418378
  0
LWPOLYLINE
  5
2DF
100
AcDbEntity
  8
IMPORT_IGES
100
AcDbPolyline
 62
7
  6
CONTINUOUS
 90
10
 70
0
 10
-4.7448158605
 20
5.841834072
 10
-4.7811952263
 20
5.8139974098
 10
-4.8150458045
 20
5.7842134157
 10
-4.8463675948
 20
5.7524820897
 10
-4.8750529791
 20
5.7190364103
 10
-4.9012095756
 20
5.6836433991
 10
-4.9251602394
 20
5.64560412
 10
-4.947012589
 20
5.6046855946
 10
-4.9666590059
 20
5.5611208014
 10
-4.9840994901
 20
5.5149097404
  0
LWPOLYLINE
  5
2E0
100
AcDbEntity
  8
IMPORT_IGES
100
AcDbPolyline
 62
253
  6
CONTINUOUS
 90
12
 70
0
 10
8.0760894615
 20
-6.2806005465
 10
8.1017382078
 20
-6.2765996739
 10
8.1265073313
 20
-6.2700056348
 10
8.1499739045
 20
-6.2609290438
 10
8.1717339049
 20
-6.2495240844
 10
8.1914102916
 20
-6.2359872908
 10
8.2086658059
 20
-6.2205505452
 10
8.223205196
 20
-6.2034778178
 10
8.2347780071
 20
-6.1850638641
 10
8.243186878
 20
-6.1656251672
 10
8.2482895972
 20
-6.1454938521
 10
8.25
 20
-6.1250144999
  0
LINE
  5
2E1
100
AcDbEntity
  8
IMPORT_IGES
100
AcDbLine
 62
253
  6
CONTINUOUS
 10
8.05
 20
-6.281941449
 11
8.0760894615
 21
-6.2806005465
  0
LINE
  5
2E2
100
AcDbEntity
  8
0
100
AcDbLine
 62
7
  6
CONTINUOUS
 10
-2.025
 20
-7.4250144999
 11
2.025
 21
-7.4250144999
  0
LINE
  5
2E3
100
AcDbEntity
  8
IMPORT_IGES
100
AcDbLine
 62
253
  6
CONTINUOUS
 10
2.325
 20
-6.6750144999
 11
3.45
 21
-6.6750144999
  0
LINE
  5
2E4
100
AcDbEntity
  8
IMPORT_IGES
100
AcDbLine
 62
253
  6
CONTINUOUS
 10
-2.325
 20
-6.6750144999
 11
-3.45
 21
-6.6750144999
  0
LWPOLYLINE
  5
2E5
100
AcDbEntity
  8
IMPORT_IGES
100
AcDbPolyline
 62
253
  6
CONTINUOUS
 90
4
 70
0
 10
-7.2467897109
 20
9.0249855001
 10
-7.2466357349
 20
9.0229645575
 10
-7.2464851699
 20
9.0172857946
 10
-7.2463380159
 20
9.0079492114
  0
LWPOLYLINE
  5
2E6
100
AcDbEntity
  8
IMPORT_IGES
100
AcDbPolyline
 62
7
  6
CONTINUOUS
 90
3
 70
0
 10
-6.9467915462
 20
9.3249855001
 10
-6.9466376206
 20
9.3219447495
 10
-6.9464870988
 20
9.3128438697
  0
LINE
  5
2E7
100
AcDbEntity
  8
IMPORT_IGES
100
AcDbLine
 62
253
  6
CONTINUOUS
 10
-6.25
 20
-5.1250144999
 11
-6.25
 21
2.6315415387
  0
LINE
  5
2E8
100
AcDbEntity
  8
IMPORT_IGES
100
AcDbLine
 62
7
  6
CONTINUOUS
 10
-6.25
 20
3.7749855001
 11
-6.25
 21
6.3749855001
  0
LINE
  5
2E9
100
AcDbEntity
  8
IMPORT_IGES
100
AcDbLine
 62
253
  6
CONTINUOUS
 10
-6.1500005304
 20
-11.5750144999
 11
-6.1500004231
 21
-11.7750144998
  0
LINE
  5
2EA
100
AcDbEntity
  8
IMPORT_IGES
100
AcDbLine
 62
7
  6
CONTINUOUS
 10
-5.95
 20
2.1732839692
 11
-5.95
 21
-4.8250144999
  0
LINE
  5
2EB
100
AcDbEntity
  8
IMPORT_IGES
100
AcDbLine
 62
7
  6
CONTINUOUS
 10
-5.9467065296
 20
10.5249855001
 11
-5.9467065296
 21
10.5131242633
  0
LWPOLYLINE
  5
2EC
100
AcDbEntity
  8
IMPORT_IGES
100
AcDbPolyline
 62
253
  6
CONTINUOUS
 90
8
 70
0
 10
-6.2227092937
 20
10.2881863331
 10
-6.2225786345
 20
10.2975767099
 10
-6.2225129808
 20
10.3056097988
 10
-6.2225100494
 20
10.3122796597
 10
-6.2225711327
 20
10.3176955296
 10
-6.2227001521
 20
10.3217240821
 10
-6.2228949957
 20
10.3241706735
 10
-6.223151122
 20
10.3249855001
  0
LINE
  5
2ED
100
AcDbEntity
  8
IMPORT_IGES
100
AcDbLine
 62
253
  6
CONTINUOUS
 10
-6.2231524842
 20
10.2664055235
 11
-6.2227092937
 21
10.2881863331
  0
LINE
  5
2EE
100
AcDbEntity
  8
IMPORT_IGES
100
AcDbLine
 62
7
  6
CONTINUOUS
 10
-5.5333944935
 20
9.5962940739
 11
-5.5518360362
 21
9.0720717566
  0
LWPOLYLINE
  5
2EF
100
AcDbEntity
  8
IMPORT_IGES
100
AcDbPolyline
 62
7
  6
CONTINUOUS
 90
5
 70
0
 10
-6.9474993846
 20
-10.5750144999
 10
-6.9474590324
 20
-10.5741875587
 10
-6.9474190751
 20
-10.5717095009
 10
-6.9473795128
 20
-10.567588569
 10
-6.9471539077
 20
-10.5095004062
  0
LINE
  5
2F0
100
AcDbEntity
  8
IMPORT_IGES
100
AcDbLine
 62
253
  6
CONTINUOUS
 10
-4.8211880776
 20
9.710186558
 11
-4.9038561866
 21
9.2750144999
  0
LINE
  5
2F1
100
AcDbEntity
  8
IMPORT_IGES
100
AcDbLine
 62
253
  6
CONTINUOUS
 10
-4.5503901618
 20
9.2750144998
 11
-4.5217845696
 21
9.4255960494
  0
LWPOLYLINE
  5
2F2
100
AcDbEntity
  8
IMPORT_IGES
100
AcDbPolyline
 62
7
  6
CONTINUOUS
 90
10
 70
0
 10
-4.9840994901
 20
5.5149097404
 10
-4.9983705631
 20
5.469660878
 10
-5.0109748086
 20
5.4240424961
 10
-5.0219122268
 20
5.3780545947
 10
-5.0311856928
 20
5.3317480453
 10
-5.0387923314
 20
5.2850719764
 10
-5.0447235172
 20
5.2378737732
 10
-5.0489763751
 20
5.1901025644
 10
-5.0515537802
 20
5.1418092214
 10
-5.0524557326
 20
5.0929937442
  0
LWPOLYLINE
  5
2F3
100
AcDbEntity
  8
0
100
AcDbPolyline
 62
7
  6
CONTINUOUS
 90
3
 70
0
 43
0.3500000006
 10
0.7142856996
 20
20.8107284088
 10
0.6428571367
 20
20.596443924
 10
0.500000011
 20
20.3107282562
  0
LWPOLYLINE
  5
2F4
100
AcDbEntity
  8
IMPORT_IGES
100
AcDbPolyline
 62
7
  6
CONTINUOUS
 90
13
 70
0
 10
-3.9283812823
 20
4.3275691538
 10
-3.9030253095
 20
4.3496935317
 10
-3.8787039645
 20
4.3739885634
 10
-3.8554172474
 20
4.4004542488
 10
-3.8331089496
 20
4.4289962198
 10
-3.8118352797
 20
4.4597088446
 10
-3.791764863
 20
4.4928752272
 10
-3.7728838134
 20
4.5285020514
 10
-3.7552060171
 20
4.5665826333
 10
-3.7389417573
 20
4.6073800267
 10
-3.7241611287
 20
4.6509819159
 10
-3.7107940367
 20
4.6973006164
 10
-3.6988404814
 20
4.7463361283
  0
LINE
  5
2F5
100
AcDbEntity
  8
IMPORT_IGES
100
AcDbLine
 62
7
  6
CONTINUOUS
 10
-3.15
 20
-6.3750144999
 11
-2.025
 21
-6.3750144999
  0
LINE
  5
2F6
100
AcDbEntity
  8
IMPORT_IGES
100
AcDbLine
 62
7
  6
CONTINUOUS
 10
-1.425
 20
-6.3750144999
 11
1.425
 21
-6.3750144999
  0
LINE
  5
2F7
100
AcDbEntity
  8
IMPORT_IGES
100
AcDbLine
 62
7
  6
CONTINUOUS
 10
2.025
 20
-6.3750144999
 11
3.15
 21
-6.3750144999
  0
LINE
  5
2F8
100
AcDbEntity
  8
IMPORT_IGES
100
AcDbLine
 62
7
  6
CONTINUOUS
 10
-8.05
 20
-6.3250144999
 11
-7.232843701
 21
-6.3250144999
  0
LINE
  5
2F9
100
AcDbEntity
  8
IMPORT_IGES
100
AcDbLine
 62
7
  6
CONTINUOUS
 10
8.05
 20
-6.3250144999
 11
7.232843701
 21
-6.3250144999
  0
LINE
  5
2FA
100
AcDbEntity
  8
IMPORT_IGES
100
AcDbLine
 62
253
  6
CONTINUOUS
 10
-8.05
 20
-6.281941449
 11
-7.2324108867
 21
-6.281941449
  0
LINE
  5
2FB
100
AcDbEntity
  8
IMPORT_IGES
100
AcDbLine
 62
253
  6
CONTINUOUS
 10
8.05
 20
-6.281941449
 11
7.2324108867
 21
-6.281941449
  0
LWPOLYLINE
  5
2FC
100
AcDbEntity
  8
IMPORT_IGES
100
AcDbPolyline
 62
253
  6
CONTINUOUS
 90
13
 70
0
 10
-8.05
 20
-5.3850704694
 10
-8.0760750603
 20
-5.3837310531
 10
-8.101714615
 20
-5.3797336507
 10
-8.1264798936
 20
-5.3731435667
 10
-8.149948755
 20
-5.3640694513
 10
-8.1717150599
 20
-5.3526644467
 10
-8.1913977391
 20
-5.3391261578
 10
-8.2086588681
 20
-5.323686659
 10
-8.2232030326
 20
-5.3066097783
 10
-8.2347782482
 20
-5.2881924279
 10
-8.2431875333
 20
-5.2687522685
 10
-8.2482899002
 20
-5.2486210661
 10
-8.25
 20
-5.2281435202
  0
LINE
  5
2FD
100
AcDbEntity
  8
IMPORT_IGES
100
AcDbLine
 62
7
  6
CONTINUOUS
 10
-1.5438509601
 20
-7.4250144999
 11
-1.342079372
 21
-7.6250144999
  0
LINE
  5
2FE
100
AcDbEntity
  8
IMPORT_IGES
100
AcDbLine
 62
7
  6
CONTINUOUS
 10
-1.2831643884
 20
-7.6250144999
 11
-1.4855123953
 21
-7.424443142
  0
LWPOLYLINE
  5
2FF
100
AcDbEntity
  8
IMPORT_IGES
100
AcDbPolyline
 62
7
  6
CONTINUOUS
 90
10
 70
0
 10
-5.0524557326
 20
5.0929937442
 10
-5.0512498219
 20
5.0290612633
 10
-5.0480836883
 20
4.9676452354
 10
-5.0429573317
 20
4.9087456607
 10
-5.0358565159
 20
4.8525819126
 10
-5.0267954772
 20
4.7989346175
 10
-5.0158169245
 20
4.7471456546
 10
-5.0029350941
 20
4.69699565
 10
-4.9881357497
 20
4.6487039775
 10
-4.9714188912
 20
4.6022706371
  0
LINE
  5
300
100
AcDbEntity
  8
IMPORT_IGES
100
AcDbLine
 62
7
  6
CONTINUOUS
 10
-5.6161486974
 20
8.6356456719
 11
-5.6240911927
 21
9.0906709251
  0
LINE
  5
301
100
AcDbEntity
  8
IMPORT_IGES
100
AcDbLine
 62
253
  6
CONTINUOUS
 10
-5.6500001769
 20
10.3249855002
 11
-5.650000141
 21
10.5249854995
  0
LINE
  5
302
100
AcDbEntity
  8
IMPORT_IGES
100
AcDbLine
 62
7
  6
CONTINUOUS
 10
-5.1
 20
2.0749855001
 11
-5.1
 21
2.1278694598
  0
LINE
  5
303
100
AcDbEntity
  8
IMPORT_IGES
100
AcDbLine
 62
7
  6
CONTINUOUS
 10
-4.9273029486
 20
11.7750144998
 11
-4.9273029486
 21
10.6250145005
  0
LINE
  5
304
100
AcDbEntity
  8
IMPORT_IGES
100
AcDbLine
 62
253
  6
CONTINUOUS
 10
-4.8211880776
 20
9.710186558
 11
-4.8211849118
 21
10.3714763809
  0
LWPOLYLINE
  5
305
100
AcDbEntity
  8
IMPORT_IGES
100
AcDbPolyline
 62
7
  6
CONTINUOUS
 90
10
 70
0
 10
-5.3525921497
 20
5.0914929588
 10
-5.3507195643
 20
5.1690947623
 10
-5.3456072314
 20
5.2439258368
 10
-5.3372551513
 20
5.3159861825
 10
-5.3255549955
 20
5.385272014
 10
-5.3106150924
 20
5.4517871165
 10
-5.2927604268
 20
5.5155428463
 10
-5.272099327
 20
5.5765429888
 10
-5.2485234646
 20
5.6347837586
 10
-5.2220328397
 20
5.6902651557
  0
LWPOLYLINE
  5
306
100
AcDbEntity
  8
IMPORT_IGES
100
AcDbPolyline
 62
7
  6
CONTINUOUS
 90
10
 70
0
 10
-3.7378581771
 20
4.1250537469
 10
-3.7906836231
 20
4.0862431398
 10
-3.8464191904
 20
4.0518741555
 10
-3.9050648792
 20
4.0219467939
 10
-3.9665995541
 20
3.9963939532
 10
-4.0310443504
 20
3.9752827353
 10
-4.0984626739
 20
3.9588144453
 10
-4.16887566
 20
3.947056185
 10
-4.2422621734
 20
3.9399408525
 10
-4.318622214
 20
3.937468448
  0
LINE
  5
307
100
AcDbEntity
  8
IMPORT_IGES
100
AcDbLine
 62
7
  6
CONTINUOUS
 10
-3.15
 20
-5.5750144999
 11
-1.425
 21
-5.5750144999
  0
LINE
  5
308
100
AcDbEntity
  8
IMPORT_IGES
100
AcDbLine
 62
7
  6
CONTINUOUS
 10
1.425
 20
-5.5750144999
 11
3.15
 21
-5.5750144999
  0
LINE
  5
309
100
AcDbEntity
  8
IMPORT_IGES
100
AcDbLine
 62
253
  6
CONTINUOUS
 10
-8.05
 20
-5.3850704694
 11
-7.228448616
 21
-5.3850704694
  0
LINE
  5
30A
100
AcDbEntity
  8
IMPORT_IGES
100
AcDbLine
 62
253
  6
CONTINUOUS
 10
7.228448616
 20
-5.3850704694
 11
8.05
 21
-5.3850704694
  0
LINE
  5
30B
100
AcDbEntity
  8
IMPORT_IGES
100
AcDbLine
 62
253
  6
CONTINUOUS
 10
-8.25
 20
-5.2281435202
 11
-7.2281832957
 21
-5.2281435202
  0
LINE
  5
30C
100
AcDbEntity
  8
IMPORT_IGES
100
AcDbLine
 62
253
  6
CONTINUOUS
 10
7.2281832957
 20
-5.2281435202
 11
8.25
 21
-5.2281435202
  0
LINE
  5
30D
100
AcDbEntity
  8
IMPORT_IGES
100
AcDbLine
 62
253
  6
CONTINUOUS
 10
6.25
 20
-5.1250144999
 11
3.45
 21
-5.1250144999
  0
LINE
  5
30E
100
AcDbEntity
  8
IMPORT_IGES
100
AcDbLine
 62
253
  6
CONTINUOUS
 10
-3.45
 20
-5.1250144999
 11
-6.25
 21
-5.1250144999
  0
LINE
  5
30F
100
AcDbEntity
  8
IMPORT_IGES
100
AcDbLine
 62
7
  6
CONTINUOUS
 10
3.15
 20
-4.8250144999
 11
5.95
 21
-4.8250144999
  0
LINE
  5
310
100
AcDbEntity
  8
IMPORT_IGES
100
AcDbLine
 62
7
  6
CONTINUOUS
 10
-3.15
 20
-4.8250144999
 11
-5.95
 21
-4.8250144999
  0
LINE
  5
311
100
AcDbEntity
  8
IMPORT_IGES
100
AcDbLine
 62
7
  6
CONTINUOUS
 10
-4.4536037012
 20
2.0749855001
 11
-4.4
 21
1.5389484886
  0
LINE
  5
312
100
AcDbEntity
  8
IMPORT_IGES
100
AcDbLine
 62
253
  6
CONTINUOUS
 10
-4.9233917561
 20
11.7750144998
 11
-4.8211849118
 21
10.3714763809
  0
LINE
  5
313
100
AcDbEntity
  8
IMPORT_IGES
100
AcDbLine
 62
253
  6
CONTINUOUS
 10
-4.5217845696
 20
10.5978580375
 11
-4.6075061083
 21
11.7750144998
  0
LINE
  5
314
100
AcDbEntity
  8
IMPORT_IGES
100
AcDbLine
 62
7
  6
CONTINUOUS
 10
-4.4
 20
0.2289484886
 11
-4.4
 21
1.5389484886
  0
LINE
  5
315
100
AcDbEntity
  8
IMPORT_IGES
100
AcDbLine
 62
253
  6
CONTINUOUS
 10
-4.2884314973
 20
10.1198276699
 11
-4.288423525
 21
9.6088409764
  0
LINE
  5
316
100
AcDbEntity
  8
IMPORT_IGES
100
AcDbLine
 62
7
  6
CONTINUOUS
 10
-4.05
 20
-8.4877834376
 11
-4.05
 21
-9.7119710216
  0
LINE
  5
317
100
AcDbEntity
  8
IMPORT_IGES
100
AcDbLine
 62
7
  6
CONTINUOUS
 10
-3.8243282526
 20
-0.7010515114
 11
-3.8243282526
 21
0.0289484886
  0
LWPOLYLINE
  5
318
100
AcDbEntity
  8
IMPORT_IGES
100
AcDbPolyline
 62
7
  6
CONTINUOUS
 90
10
 70
0
 10
-3.4077080552
 20
4.6728026946
 10
-3.4313317576
 20
4.5915975912
 10
-3.4583558687
 20
4.5155571925
 10
-3.4887803886
 20
4.4446814984
 10
-3.5227859808
 20
4.3790754121
 10
-3.5601919816
 20
4.3186340305
 10
-3.6004564007
 20
4.2630426442
 10
-3.6433985746
 20
4.2121963499
 10
-3.6891991667
 20
4.1662000508
 10
-3.7378581771
 20
4.1250537469
  0
LINE
  5
319
100
AcDbEntity
  8
IMPORT_IGES
100
AcDbLine
 62
7
  6
CONTINUOUS
 10
-2.7399046008
 20
4.6412883659
 11
-2.9815143887
 21
3.9749855001
  0
LINE
  5
31A
100
AcDbEntity
  8
IMPORT_IGES
100
AcDbLine
 62
7
  6
CONTINUOUS
 10
-2.4142566029
 20
5.5236895044
 11
-2.6558663908
 21
4.8783961256
  0
LINE
  5
31B
100
AcDbEntity
  8
IMPORT_IGES
100
AcDbLine
 62
7
  6
CONTINUOUS
 10
-3.2906549279
 20
3.9749855001
 11
-2.4457708661
 21
6.1749855001
  0
LINE
  5
31C
100
AcDbEntity
  8
IMPORT_IGES
100
AcDbLine
 62
253
  6
CONTINUOUS
 10
-8.25
 20
-4.096614037
 11
-8.3630498837
 21
-4.0985873301
  0
LINE
  5
31D
100
AcDbEntity
  8
ASSI
100
AcDbLine
 62
253
  6
CONTINUOUS
 10
7.2351646411
 20
-4.0250144999
 11
7.2281832957
 21
-4.0250144999
  0
LINE
  5
31E
100
AcDbEntity
  8
ASSI
100
AcDbLine
 62
253
  6
CONTINUOUS
 10
-7.2351646411
 20
-4.0250144999
 11
-7.2281832957
 21
-4.0250144997
  0
LINE
  5
31F
100
AcDbEntity
  8
IMPORT_IGES
100
AcDbLine
 62
253
  6
CONTINUOUS
 10
8.3630498837
 20
-4.0985873301
 11
8.25
 21
-4.0966140371
  0
LWPOLYLINE
  5
320
100
AcDbEntity
  8
IMPORT_IGES
100
AcDbPolyline
 62
253
  6
CONTINUOUS
 90
7
 70
0
 10
-8.27122683
 20
2.9904047419
 10
-8.2970121577
 20
3.0161739756
 10
-8.3186398881
 20
3.0445986894
 10
-8.335762702
 20
3.0752358868
 10
-8.3480693385
 20
3.1075790583
 10
-8.3553144653
 20
3.141053845
 10
-8.3573504582
 20
3.1750781987
  0
LINE
  5
321
100
AcDbEntity
  8
IMPORT_IGES
100
AcDbLine
 62
7
  6
CONTINUOUS
 10
1.063673116
 20
-7.4250144999
 11
1.2619170827
 21
-7.6250144999
  0
LINE
  5
322
100
AcDbEntity
  8
0
100
AcDbLine
 62
7
  6
CONTINUOUS
 10
-3.7
 20
2.1278694598
 11
-3.7
 21
-0.9250144999
  0
LINE
  5
323
100
AcDbEntity
  8
IMPORT_IGES
100
AcDbLine
 62
253
  6
CONTINUOUS
 10
-3.45
 20
-6.6750144999
 11
-3.45
 21
-5.1250144999
  0
LINE
  5
324
100
AcDbEntity
  8
IMPORT_IGES
100
AcDbLine
 62
7
  6
CONTINUOUS
 10
-3.3
 20
-10.5750144999
 11
-3.3
 21
-10.6750144999
  0
LINE
  5
325
100
AcDbEntity
  8
IMPORT_IGES
100
AcDbLine
 62
7
  6
CONTINUOUS
 10
-3.25
 20
-9.5424058042
 11
-3.25
 21
-8.4877834376
  0
LINE
  5
326
100
AcDbEntity
  8
0
100
AcDbLine
 62
7
  6
CONTINUOUS
 10
-3.2
 20
2.1278694598
 11
-3.2
 21
-0.9250144999
  0
LINE
  5
327
100
AcDbEntity
  8
IMPORT_IGES
100
AcDbLine
 62
7
  6
CONTINUOUS
 10
-3.15
 20
-6.3750144999
 11
-3.15
 21
-2.8041432846
  0
LINE
  5
328
100
AcDbEntity
  8
IMPORT_IGES
100
AcDbLine
 62
253
  6
CONTINUOUS
 10
-3.0998682891
 20
-10.5750144999
 11
-3.0998613775
 21
-10.6750144999
  0
LINE
  5
329
100
AcDbEntity
  8
IMPORT_IGES
100
AcDbLine
 62
7
  6
CONTINUOUS
 10
-2.9548535023
 20
-1.3250144999
 11
-2.9548535023
 21
-0.7010515114
  0
LINE
  5
32A
100
AcDbEntity
  8
IMPORT_IGES
100
AcDbLine
 62
253
  6
CONTINUOUS
 10
-3.4999663986
 20
-10.5750144999
 11
-3.5000063193
 21
-10.6750144999
  0
LWPOLYLINE
  5
32B
100
AcDbEntity
  8
IMPORT_IGES
100
AcDbPolyline
 62
7
  6
CONTINUOUS
 90
10
 70
0
 10
-2.2957025591
 20
5.9438804229
 10
-2.3060074177
 20
5.8950367853
 10
-2.317036567
 20
5.846719489
 10
-2.3287900071
 20
5.7989285341
 10
-2.3412775212
 20
5.751647123
 10
-2.354489326
 20
5.7048920533
 10
-2.3683960715
 20
5.6587137173
 10
-2.3829879745
 20
5.6131289125
 10
-2.3982748183
 20
5.5681208416
 10
-2.4142566029
 20
5.5236895044
  0
LWPOLYLINE
  5
32C
100
AcDbEntity
  8
IMPORT_IGES
100
AcDbPolyline
 62
253
  6
CONTINUOUS
 90
3
 70
0
 10
-8.302683426
 20
-3.9379862928
 10
-8.2767821683
 20
-3.9118641416
 10
-8.25
 20
-3.8911213197
  0
LWPOLYLINE
  5
32D
100
AcDbEntity
  8
0
100
AcDbPolyline
 62
7
  6
CONTINUOUS
 90
10
 70
0
 10
2.4665327431
 20
5.1353320219
 10
2.4899070828
 20
5.1475644173
 10
2.5139783622
 20
5.1584184223
 10
2.5387465813
 20
5.167894037
 10
2.5641996073
 20
5.1760194638
 10
2.590349573
 20
5.1827665002
 10
2.6172328767
 20
5.1880505394
 10
2.6448616511
 20
5.1918433792
 10
2.6732237634
 20
5.1941732217
 10
2.7023192137
 20
5.195040067
  0
LINE
  5
32E
100
AcDbEntity
  8
IMPORT_IGES
100
AcDbLine
 62
7
  6
CONTINUOUS
 10
5.95
 20
-3.5750144999
 11
3.15
 21
-3.5750144999
  0
LINE
  5
32F
100
AcDbEntity
  8
IMPORT_IGES
100
AcDbLine
 62
7
  6
CONTINUOUS
 10
-3.15
 20
-3.5750144999
 11
-5.95
 21
-3.5750144999
  0
LINE
  5
330
100
AcDbEntity
  8
IMPORT_IGES
100
AcDbLine
 62
7
  6
CONTINUOUS
 10
5.95
 20
-2.8041432846
 11
-5.95
 21
-2.8041432846
  0
LWPOLYLINE
  5
331
100
AcDbEntity
  8
IMPORT_IGES
100
AcDbPolyline
 62
7
  6
CONTINUOUS
 90
5
 70
0
 10
2.325
 20
-6.6750144999
 10
2.2909631916
 20
-6.6415312583
 10
2.2584612345
 20
-6.6089062788
 10
2.2274941289
 20
-6.5775117728
 10
2.1978432121
 20
-6.5477209381
  0
LWPOLYLINE
  5
332
100
AcDbEntity
  8
IMPORT_IGES
100
AcDbPolyline
 62
7
  6
CONTINUOUS
 90
3
 70
0
 10
2.1978432121
 20
-6.5477209381
 10
2.1438019202
 20
-6.4938141088
 10
2.1201526458
 20
-6.4700827163
  0
LWPOLYLINE
  5
333
100
AcDbEntity
  8
IMPORT_IGES
100
AcDbPolyline
 62
7
  6
CONTINUOUS
 90
8
 70
0
 10
2.1201526458
 20
-6.4700827163
 10
2.0798272608
 20
-6.4298419638
 10
2.0635686086
 20
-6.4135311596
 10
2.0499014428
 20
-6.3999676102
 10
2.0391759775
 20
-6.389204606
 10
2.031508951
 20
-6.3813723893
 10
2.0267836252
 20
-6.3766140571
 10
2.025
 20
-6.3750144999
  0
LINE
  5
334
100
AcDbEntity
  8
IMPORT_IGES
100
AcDbLine
 62
7
  6
CONTINUOUS
 10
-6.25
 20
2.6315415387
 11
-6.1729870086
 21
2.5317799092
  0
LWPOLYLINE
  5
335
100
AcDbEntity
  8
IMPORT_IGES
100
AcDbPolyline
 62
7
  6
CONTINUOUS
 90
19
 70
0
 10
-6.1729870086
 20
2.5317799092
 10
-6.1489727567
 20
2.5003973972
 10
-6.1260293442
 20
2.4699970865
 10
-6.104243596
 20
2.4408580921
 10
-6.0836820551
 20
2.4129843205
 10
-6.0644741798
 20
2.3863718652
 10
-6.0467640915
 20
2.3612881203
 10
-6.030618043
 20
2.3378309848
 10
-6.0160222186
 20
2.3159025598
 10
-6.0029649525
 20
2.2954765431
 10
-5.9914538002
 20
2.2765998514
 10
-5.9814522102
 20
2.259225568
 10
-5.9728876534
 20
2.2431866407
 10
-5.9657352128
 20
2.2284784033
 10
-5.9599728063
 20
2.2151055219
 10
-5.9555517382
 20
2.2029149431
 10
-5.95243856
 20
2.1918556491
 10
-5.9506020182
 20
2.1819786578
 10
-5.95
 20
2.1732839692
  0
LINE
  5
336
100
AcDbEntity
  8
IMPORT_IGES
100
AcDbLine
 62
7
  6
CONTINUOUS
 10
-3.9243282526
 20
0.2289484886
 11
-3.8243282526
 21
0.0289484886
  0
LWPOLYLINE
  5
337
100
AcDbEntity
  8
IMPORT_IGES
100
AcDbPolyline
 62
7
  6
CONTINUOUS
 90
10
 70
0
 10
-5.2370396334
 20
4.501724931
 10
-5.2608051229
 20
4.5609324947
 10
-5.2818812983
 20
4.621712927
 10
-5.3002681597
 20
4.6840662279
 10
-5.316022062
 20
4.7479821497
 10
-5.3290866503
 20
4.8134709401
 10
-5.3392928597
 20
4.880563342
 10
-5.3465843353
 20
4.9492696028
 10
-5.351017432
 20
5.0195794751
 10
-5.3525921497
 20
5.0914929588
  0
LINE
  5
338
100
AcDbEntity
  8
0
100
AcDbLine
 62
7
  6
CONTINUOUS
 10
-2.7
 20
2.1278694598
 11
-2.7
 21
-0.9250144999
  0
LINE
  5
339
100
AcDbEntity
  8
IMPORT_IGES
100
AcDbLine
 62
253
  6
CONTINUOUS
 10
-2.325
 20
-8.1341179655
 11
-2.325
 21
-6.6750144999
  0
LINE
  5
33A
100
AcDbEntity
  8
0
100
AcDbLine
 62
7
  6
CONTINUOUS
 10
-2.2
 20
2.1278694598
 11
-2.2
 21
-0.9250144999
  0
LINE
  5
33B
100
AcDbEntity
  8
IMPORT_IGES
100
AcDbLine
 62
7
  6
CONTINUOUS
 10
-2.1548535023
 20
-0.7010515114
 11
-2.1548535023
 21
-1.3250144999
  0
LINE
  5
33C
100
AcDbEntity
  8
IMPORT_IGES
100
AcDbLine
 62
7
  6
CONTINUOUS
 10
-2.025
 20
-6.3750144999
 11
-2.025
 21
-8.0537332077
  0
LINE
  5
33D
100
AcDbEntity
  8
IMPORT_IGES
100
AcDbLine
 62
253
  6
CONTINUOUS
 10
-8.25
 20
2.9740956172
 11
-8.27122683
 21
2.9904047419
  0
LINE
  5
33E
100
AcDbEntity
  8
IMPORT_IGES
100
AcDbLine
 62
7
  6
CONTINUOUS
 10
3.1504290236
 20
-6.3754096189
 11
3.15
 21
-6.3750144999
  0
LINE
  5
33F
100
AcDbEntity
  8
IMPORT_IGES
100
AcDbLine
 62
7
  6
CONTINUOUS
 10
3.3567297839
 20
-6.581802335
 11
3.1539341129
 21
-6.3789486127
  0
LWPOLYLINE
  5
340
100
AcDbEntity
  8
IMPORT_IGES
100
AcDbPolyline
 62
7
  6
CONTINUOUS
 90
3
 70
0
 10
3.45
 20
-6.6750144999
 10
3.4257153065
 20
-6.6505252141
 10
3.3567297839
 20
-6.581802335
  0
LINE
  5
341
100
AcDbEntity
  8
IMPORT_IGES
100
AcDbLine
 62
7
  6
CONTINUOUS
 10
3.1539341129
 20
-6.3789486127
 11
3.1504290236
 21
-6.3754096189
  0
LWPOLYLINE
  5
342
100
AcDbEntity
  8
IMPORT_IGES
100
AcDbPolyline
 62
7
  6
CONTINUOUS
 90
10
 70
0
 10
-4.9714188912
 20
4.6022706371
 10
-4.9506496038
 20
4.554541894
 10
-4.9280633171
 20
4.5103127022
 10
-4.9036600313
 20
4.4695830617
 10
-4.8775353616
 20
4.4326825545
 10
-4.8495936927
 20
4.3992815986
 10
-4.8195481782
 20
4.3683914481
 10
-4.7873032026
 20
4.3396825209
 10
-4.7529543813
 20
4.3134843991
 10
-4.7165017144
 20
4.2897970826
  0
LINE
  5
343
100
AcDbEntity
  8
0
100
AcDbLine
 62
7
  6
CONTINUOUS
 10
-1.7
 20
2.1278694598
 11
-1.7
 21
-0.9250144999
  0
LINE
  5
344
100
AcDbEntity
  8
IMPORT_IGES
100
AcDbLine
 62
7
  6
CONTINUOUS
 10
-1.425
 20
-5.5750144999
 11
-1.425
 21
-6.3750144999
  0
LINE
  5
345
100
AcDbEntity
  8
0
100
AcDbLine
 62
7
  6
CONTINUOUS
 10
-1.2
 20
2.1278694598
 11
-1.2
 21
-0.9250144999
  0
LINE
  5
346
100
AcDbEntity
  8
IMPORT_IGES
100
AcDbLine
 62
7
  6
CONTINUOUS
 10
-1.164188296
 20
6.1749855001
 11
-1.164188296
 21
5.9153674682
  0
LINE
  5
347
100
AcDbEntity
  8
IMPORT_IGES
100
AcDbLine
 62
7
  6
CONTINUOUS
 10
-1.2
 20
0.4459905599
 11
-1.1843282526
 21
0.4773340548
  0
LWPOLYLINE
  5
348
100
AcDbEntity
  8
0
100
AcDbPolyline
 62
7
  6
CONTINUOUS
 90
10
 70
0
 10
3.0373457331
 20
4.3062945861
 10
3.0064741629
 20
4.275388908
 10
2.9741915826
 20
4.2481592688
 10
2.940497992
 20
4.2246056685
 10
2.9054631662
 20
4.2047618658
 10
2.8690173301
 20
4.188594102
 10
2.8309511587
 20
4.1760011007
 10
2.791194877
 20
4.166949103
 10
2.7498182599
 20
4.1614718678
 10
2.7068213075
 20
4.1595693951
  0
LINE
  5
349
100
AcDbEntity
  8
IMPORT_IGES
100
AcDbLine
 62
7
  6
CONTINUOUS
 10
-2.9548535023
 20
-1.3250144999
 11
-2.1548535023
 21
-1.3250144999
  0
LINE
  5
34A
100
AcDbEntity
  8
IMPORT_IGES
100
AcDbLine
 62
7
  6
CONTINUOUS
 10
-0.7643282525
 20
-1.3250144999
 11
1.7751464977
 21
-1.3250144999
  0
LINE
  5
34B
100
AcDbEntity
  8
0
100
AcDbLine
 62
7
  6
CONTINUOUS
 10
-3.7
 20
-0.9250144999
 11
-3.2
 21
-0.9250144999
  0
LINE
  5
34C
100
AcDbEntity
  8
0
100
AcDbLine
 62
7
  6
CONTINUOUS
 10
-2.7
 20
-0.9250144999
 11
-2.2
 21
-0.9250144999
  0
LINE
  5
34D
100
AcDbEntity
  8
0
100
AcDbLine
 62
7
  6
CONTINUOUS
 10
-1.7
 20
-0.9250144999
 11
-1.2
 21
-0.9250144999
  0
LINE
  5
34E
100
AcDbEntity
  8
0
100
AcDbLine
 62
7
  6
CONTINUOUS
 10
-0.7
 20
-0.9250144999
 11
-0.2
 21
-0.9250144999
  0
LINE
  5
34F
100
AcDbEntity
  8
0
100
AcDbLine
 62
7
  6
CONTINUOUS
 10
0.3
 20
-0.9250144999
 11
0.8
 21
-0.9250144999
  0
LINE
  5
350
100
AcDbEntity
  8
0
100
AcDbLine
 62
7
  6
CONTINUOUS
 10
1.3
 20
-0.9250144999
 11
1.8
 21
-0.9250144999
  0
LINE
  5
351
100
AcDbEntity
  8
0
100
AcDbLine
 62
7
  6
CONTINUOUS
 10
2.3
 20
-0.9250144999
 11
2.8
 21
-0.9250144999
  0
LINE
  5
352
100
AcDbEntity
  8
0
100
AcDbLine
 62
7
  6
CONTINUOUS
 10
3.3
 20
-0.9250144999
 11
3.8
 21
-0.9250144999
  0
LWPOLYLINE
  5
353
100
AcDbEntity
  8
IMPORT_IGES
100
AcDbPolyline
 62
7
  6
CONTINUOUS
 90
9
 70
0
 10
-8.25
 20
2.013933901
 10
-8.2524776926
 20
2.0148570834
 10
-8.2821042363
 20
2.0292980254
 10
-8.3085928805
 20
2.0459066564
 10
-8.3313735736
 20
2.0644289214
 10
-8.3500252592
 20
2.0850327535
 10
-8.3639440754
 20
2.1074778992
 10
-8.3724893943
 20
2.1310414662
 10
-8.3751546217
 20
2.1550783588
  0
LINE
  5
354
100
AcDbEntity
  8
IMPORT_IGES
100
AcDbLine
 62
253
  6
CONTINUOUS
 10
6.8944964766
 20
-8.4695091488
 11
6.9346367602
 21
-8.5093921506
  0
LWPOLYLINE
  5
355
100
AcDbEntity
  8
IMPORT_IGES
100
AcDbPolyline
 62
7
  6
CONTINUOUS
 90
3
 70
0
 10
3.188258607
 20
-4.8633285781
 10
3.2234137483
 20
-4.8983925036
 10
3.2447455267
 20
-4.9198475913
  0
LWPOLYLINE
  5
356
100
AcDbEntity
  8
IMPORT_IGES
100
AcDbPolyline
 62
7
  6
CONTINUOUS
 90
7
 70
0
 10
3.2447455267
 20
-4.9198475913
 10
3.2944845019
 20
-4.9694654947
 10
3.3224751403
 20
-4.9976283103
 10
3.3523199554
 20
-5.0273312519
 10
3.3837710804
 20
-5.0583522086
 10
3.4164559013
 20
-5.0909132913
 10
3.45
 20
-5.1250144999
  0
LWPOLYLINE
  5
357
100
AcDbEntity
  8
IMPORT_IGES
100
AcDbPolyline
 62
7
  6
CONTINUOUS
 90
6
 70
0
 10
3.15
 20
-4.8250144999
 10
3.1515792026
 20
-4.8267534317
 10
3.1562861475
 20
-4.8314321672
 10
3.164050665
 20
-4.8390507061
 10
3.1747475075
 20
-4.8497197404
 10
3.188258607
 20
-4.8633285781
  0
LWPOLYLINE
  5
358
100
AcDbEntity
  8
IMPORT_IGES
100
AcDbPolyline
 62
7
  6
CONTINUOUS
 90
13
 70
0
 10
-3.7318553988
 20
5.5041806062
 10
-3.7459438863
 20
5.5451735693
 10
-3.7609697477
 20
5.5840033627
 10
-3.776932983
 20
5.6206699862
 10
-3.7939012336
 20
5.6551825936
 10
-3.8118068581
 20
5.6875320311
 10
-3.8304469321
 20
5.7176908378
 10
-3.849854314
 20
5.7456344154
 10
-3.8699961454
 20
5.7713873622
 10
-3.8905709258
 20
5.7949960123
 10
-3.9114781553
 20
5.8164758103
 10
-3.9328183339
 20
5.8358113116
 10
-3.9545914616
 20
5.8530025161
  0
LINE
  5
359
100
AcDbEntity
  8
IMPORT_IGES
100
AcDbLine
 62
7
  6
CONTINUOUS
 10
-0.7643282525
 20
-1.3250144999
 11
-0.7643282525
 21
0.2773340548
  0
LINE
  5
35A
100
AcDbEntity
  8
0
100
AcDbLine
 62
7
  6
CONTINUOUS
 10
-0.7
 20
2.1278694598
 11
-0.7
 21
-0.9250144999
  0
LINE
  5
35B
100
AcDbEntity
  8
IMPORT_IGES
100
AcDbLine
 62
7
  6
CONTINUOUS
 10
-0.4393586699
 20
5.9153674682
 11
-0.4393586699
 21
3.9749855001
  0
LINE
  5
35C
100
AcDbEntity
  8
0
100
AcDbLine
 62
7
  6
CONTINUOUS
 10
-0.2
 20
2.1278694598
 11
-0.2
 21
-0.9250144999
  0
LINE
  5
35D
100
AcDbEntity
  8
IMPORT_IGES
100
AcDbLine
 62
7
  6
CONTINUOUS
 10
-0.1482265059
 20
3.9749855001
 11
-0.1482265059
 21
5.9153674682
  0
LWPOLYLINE
  5
35E
100
AcDbEntity
  8
0
100
AcDbPolyline
 62
7
  6
CONTINUOUS
 90
10
 70
0
 10
2.3016370952
 20
4.9819432338
 10
2.3147459659
 20
5.0018667878
 10
2.3291550219
 20
5.0210910195
 10
2.3448642632
 20
5.0396159289
 10
2.3618696478
 20
5.0574692047
 10
2.3801752177
 20
5.0746231583
 10
2.3997930995
 20
5.0909947234
 10
2.4207273355
 20
5.1065562113
 10
2.4429738833
 20
5.1213353108
 10
2.4665327431
 20
5.1353320219
  0
LINE
  5
35F
100
AcDbEntity
  8
IMPORT_IGES
100
AcDbLine
 62
253
  6
CONTINUOUS
 10
7.1944946489
 20
7.2194819768
 11
7.2399229223
 21
7.2649102502
  0
LWPOLYLINE
  5
360
100
AcDbEntity
  8
IMPORT_IGES
100
AcDbPolyline
 62
7
  6
CONTINUOUS
 90
3
 70
0
 10
-6.0451526458
 20
-4.9200827163
 10
-6.0236942102
 20
-4.8987499285
 10
-5.9885686086
 20
-4.8635311596
  0
LWPOLYLINE
  5
361
100
AcDbEntity
  8
IMPORT_IGES
100
AcDbPolyline
 62
7
  6
CONTINUOUS
 90
6
 70
0
 10
-5.9885686086
 20
-4.8635311596
 10
-5.9749014428
 20
-4.8499676102
 10
-5.9641759775
 20
-4.839204606
 10
-5.956508951
 20
-4.8313723893
 10
-5.9517836252
 20
-4.8266140571
 10
-5.95
 20
-4.8250144999
  0
LINE
  5
362
100
AcDbEntity
  8
IMPORT_IGES
100
AcDbLine
 62
253
  6
CONTINUOUS
 10
6.9398615413
 20
7.5644767997
 11
6.8944964766
 21
7.5194801491
  0
LWPOLYLINE
  5
363
100
AcDbEntity
  8
IMPORT_IGES
100
AcDbPolyline
 62
7
  6
CONTINUOUS
 90
7
 70
0
 10
-6.25
 20
-5.1250144999
 10
-6.2159631916
 20
-5.0915312583
 10
-6.1834612345
 20
-5.0589062788
 10
-6.1524941289
 20
-5.0275117728
 10
-6.1228432121
 20
-4.9977209381
 10
-6.0947271468
 20
-4.9697767717
 10
-6.0451526458
 20
-4.9200827163
  0
LWPOLYLINE
  5
364
100
AcDbEntity
  8
IMPORT_IGES
100
AcDbPolyline
 62
7
  6
CONTINUOUS
 90
9
 70
0
 10
-8.25
 20
-2.9728240552
 10
-8.2570705505
 20
-2.9755202123
 10
-8.2869103405
 20
-2.9901423425
 10
-8.3136356234
 20
-3.0072180174
 10
-8.336625857
 20
-3.026577671
 10
-8.3553190564
 20
-3.0474773727
 10
-8.3691451612
 20
-3.069662465
 10
-8.3775694814
 20
-3.0933683219
 10
-8.3801558474
 20
-3.1185873301
  0
LINE
  5
365
100
AcDbEntity
  8
IMPORT_IGES
100
AcDbLine
 62
7
  6
CONTINUOUS
 10
3.8156717474
 20
-0.7010515114
 11
3.8
 21
-0.7010515114
  0
LINE
  5
366
100
AcDbEntity
  8
IMPORT_IGES
100
AcDbLine
 62
7
  6
CONTINUOUS
 10
-1.7
 20
-0.7010515114
 11
-2.1548535023
 21
-0.7010515114
  0
LINE
  5
367
100
AcDbEntity
  8
IMPORT_IGES
100
AcDbLine
 62
7
  6
CONTINUOUS
 10
-2.9548535023
 20
-0.7010515114
 11
-3.2
 21
-0.7010515114
  0
LINE
  5
368
100
AcDbEntity
  8
IMPORT_IGES
100
AcDbLine
 62
7
  6
CONTINUOUS
 10
-3.7
 20
-0.7010515114
 11
-3.8243282526
 21
-0.7010515114
  0
LINE
  5
369
100
AcDbEntity
  8
IMPORT_IGES
100
AcDbLine
 62
7
  6
CONTINUOUS
 10
8.25
 20
-0.6700144999
 11
8.4228958451
 21
-0.6700144999
  0
LINE
  5
36A
100
AcDbEntity
  8
IMPORT_IGES
100
AcDbLine
 62
7
  6
CONTINUOUS
 10
-8.25
 20
-0.6700144999
 11
-8.4228958451
 21
-0.6700144999
  0
LINE
  5
36B
100
AcDbEntity
  8
IMPORT_IGES
100
AcDbLine
 62
7
  6
CONTINUOUS
 10
8.25
 20
-0.5700144999
 11
8.4227212944
 21
-0.5700144999
  0
LINE
  5
36C
100
AcDbEntity
  8
IMPORT_IGES
100
AcDbLine
 62
7
  6
CONTINUOUS
 10
-8.25
 20
-0.5700144999
 11
-8.4227212945
 21
-0.5700144999
  0
LINE
  5
36D
100
AcDbEntity
  8
IMPORT_IGES
100
AcDbLine
 62
253
  6
CONTINUOUS
 10
7.2346529689
 20
-8.2096692964
 11
7.1944946489
 21
-8.1695109765
  0
LINE
  5
36E
100
AcDbEntity
  8
IMPORT_IGES
100
AcDbLine
 62
253
  6
CONTINUOUS
 10
-7.2399229223
 20
7.2649102502
 11
-7.1944946489
 21
7.2194819768
  0
LINE
  5
36F
100
AcDbEntity
  8
IMPORT_IGES
100
AcDbLine
 62
7
  6
CONTINUOUS
 10
-0.8643282525
 20
0.4773340548
 11
-0.7643282525
 21
0.2773340548
  0
LINE
  5
370
100
AcDbEntity
  8
IMPORT_IGES
100
AcDbLine
 62
7
  6
CONTINUOUS
 10
-1.5633696619
 20
3.9749855001
 11
-1.8199865166
 21
4.6412883659
  0
LWPOLYLINE
  5
371
100
AcDbEntity
  8
IMPORT_IGES
100
AcDbPolyline
 62
7
  6
CONTINUOUS
 90
10
 70
0
 10
-1.9100273434
 20
4.8783961256
 10
-2.1607954235
 20
5.5439310764
 10
-2.1810292952
 20
5.5987094506
 10
-2.2003332507
 20
5.6520082703
 10
-2.2187415927
 20
5.703710873
 10
-2.2362200184
 20
5.7539339212
 10
-2.2526656188
 20
5.8030274016
 10
-2.2680440909
 20
5.8511079764
 10
-2.2823897377
 20
5.8980589836
 10
-2.2957025591
 20
5.9438804229
  0
LINE
  5
372
100
AcDbEntity
  8
0
100
AcDbLine
 62
7
  6
CONTINUOUS
 10
0.3
 20
2.1278694598
 11
0.3
 21
-0.9250144999
  0
LINE
  5
373
100
AcDbEntity
  8
IMPORT_IGES
100
AcDbLine
 62
7
  6
CONTINUOUS
 10
0.5796044286
 20
5.9153674682
 11
0.5796044286
 21
6.1749855001
  0
LINE
  5
374
100
AcDbEntity
  8
0
100
AcDbLine
 62
7
  6
CONTINUOUS
 10
0.8
 20
2.1278694598
 11
0.8
 21
-0.9250144999
  0
LINE
  5
375
100
AcDbEntity
  8
IMPORT_IGES
100
AcDbLine
 62
7
  6
CONTINUOUS
 10
0.920259231
 20
4.2826253523
 11
0.920259231
 21
3.9749855001
  0
LINE
  5
376
100
AcDbEntity
  8
0
100
AcDbLine
 62
7
  6
CONTINUOUS
 10
2.2611186773
 20
6.1449718912
 11
2.0480218276
 21
5.0149582167
  0
LWPOLYLINE
  5
377
100
AcDbEntity
  8
0
100
AcDbPolyline
 62
7
  6
CONTINUOUS
 90
10
 70
0
 10
3.2851771998
 20
4.2041159583
 10
3.3212711837
 20
4.2531560632
 10
3.3531622515
 20
4.3041586823
 10
3.3808504034
 20
4.3571238155
 10
3.4043376777
 20
4.4118774948
 10
3.4236220361
 20
4.4685936882
 10
3.4386973628
 20
4.5277942997
 10
3.4495616193
 20
4.5896532975
 10
3.4562168442
 20
4.6539967134
 10
3.4586630374
 20
4.7208245476
  0
LWPOLYLINE
  5
378
100
AcDbEntity
  8
IMPORT_IGES
100
AcDbPolyline
 62
253
  6
CONTINUOUS
 90
13
 70
0
 10
-7.9586047416
 20
-10.3336135484
 10
-7.9795227941
 20
-10.3572953238
 10
-8.0003629046
 20
-10.3777424457
 10
-8.0209035854
 20
-10.3949691702
 10
-8.0410196582
 20
-10.4091544512
 10
-8.0604149083
 20
-10.4201640163
 10
-8.0786930091
 20
-10.427747051
 10
-8.0953074864
 20
-10.4320780093
 10
-8.1107348399
 20
-10.4336153091
 10
-8.1259933158
 20
-10.4323132414
 10
-8.1411263992
 20
-10.4278903954
 10
-8.1554622495
 20
-10.4202809007
 10
-8.1686835217
 20
-10.4093910551
  0
LINE
  5
379
100
AcDbEntity
  8
IMPORT_IGES
100
AcDbLine
 62
253
  6
CONTINUOUS
 10
-7.1944946489
 20
-8.1695109765
 11
-7.2346529689
 21
-8.2096692964
  0
LINE
  5
37A
100
AcDbEntity
  8
IMPORT_IGES
100
AcDbLine
 62
7
  6
CONTINUOUS
 10
4.4
 20
0.2289484886
 11
3.9156717474
 21
0.2289484886
  0
LINE
  5
37B
100
AcDbEntity
  8
IMPORT_IGES
100
AcDbLine
 62
7
  6
CONTINUOUS
 10
-3.9243282526
 20
0.2289484886
 11
-4.4
 21
0.2289484886
  0
LINE
  5
37C
100
AcDbEntity
  8
IMPORT_IGES
100
AcDbLine
 62
7
  6
CONTINUOUS
 10
3.2151464977
 20
0.4773340548
 11
2.8956717474
 21
0.4773340548
  0
LINE
  5
37D
100
AcDbEntity
  8
IMPORT_IGES
100
AcDbLine
 62
7
  6
CONTINUOUS
 10
2.1956717474
 20
0.4773340548
 11
1.8751464977
 21
0.4773340548
  0
LINE
  5
37E
100
AcDbEntity
  8
IMPORT_IGES
100
AcDbLine
 62
7
  6
CONTINUOUS
 10
-0.8643282525
 20
0.4773340548
 11
-1.1843282526
 21
0.4773340548
  0
LWPOLYLINE
  5
37F
100
AcDbEntity
  8
IMPORT_IGES
100
AcDbPolyline
 62
7
  6
CONTINUOUS
 90
9
 70
0
 10
8.25
 20
-2.9727051467
 10
8.2572087374
 20
-2.9754338669
 10
8.2869103947
 20
-2.9901392452
 10
8.3136360131
 20
-3.0071956983
 10
8.3366307872
 20
-3.0262952293
 10
8.3553193161
 20
-3.0474624994
 10
8.3691329395
 20
-3.0703626533
 10
8.3775534115
 20
-3.0942889725
 10
8.3801558474
 20
-3.1185873299
  0
LWPOLYLINE
  5
380
100
AcDbEntity
  8
IMPORT_IGES
100
AcDbPolyline
 62
7
  6
CONTINUOUS
 90
10
 70
0
 10
-4.8978854864
 20
4.0815339477
 10
-4.9447275929
 20
4.1140438976
 10
-4.9893268137
 20
4.1500802589
 10
-5.0316831488
 20
4.1896430315
 10
-5.0718588549
 20
4.2327081185
 10
-5.1097916753
 20
4.2792996168
 10
-5.1452948403
 20
4.3294898181
 10
-5.1783060934
 20
4.3833028194
 10
-5.2088876911
 20
4.4407145238
 10
-5.2370396334
 20
4.501724931
  0
LWPOLYLINE
  5
381
100
AcDbEntity
  8
IMPORT_IGES
100
AcDbPolyline
 62
7
  6
CONTINUOUS
 90
8
 70
0
 10
5.95
 20
-4.8250144999
 10
5.9517389319
 20
-4.8265937024
 10
5.9564176673
 20
-4.8313006474
 10
5.9640362063
 20
-4.8390651648
 10
5.9747052405
 20
-4.8497620074
 10
5.9883140783
 20
-4.8632731069
 10
6.0045306444
 20
-4.8795440478
 10
6.0448330915
 20
-4.9197600265
  0
LINE
  5
382
100
AcDbEntity
  8
IMPORT_IGES
100
AcDbLine
 62
253
  6
CONTINUOUS
 10
-6.8944964766
 20
7.5194801491
 11
-6.9398615413
 21
7.5644767997
  0
LWPOLYLINE
  5
383
100
AcDbEntity
  8
IMPORT_IGES
100
AcDbPolyline
 62
7
  6
CONTINUOUS
 90
3
 70
0
 10
6.0448330915
 20
-4.9197600265
 10
6.0684946372
 20
-4.9435062891
 10
6.1226138105
 20
-4.9974896401
  0
LWPOLYLINE
  5
384
100
AcDbEntity
  8
IMPORT_IGES
100
AcDbPolyline
 62
7
  6
CONTINUOUS
 90
5
 70
0
 10
6.1226138105
 20
-4.9974896401
 10
6.152316752
 20
-5.0273344552
 10
6.1833377088
 20
-5.0587855803
 10
6.2158987914
 20
-5.0914704011
 10
6.25
 20
-5.1250144999
  0
LINE
  5
385
100
AcDbEntity
  8
IMPORT_IGES
100
AcDbLine
 62
7
  6
CONTINUOUS
 10
-2.1321283642
 20
6.1749855001
 11
-1.2317190472
 21
3.9749855001
  0
LINE
  5
386
100
AcDbEntity
  8
IMPORT_IGES
100
AcDbLine
 62
7
  6
CONTINUOUS
 10
1.2278991159
 20
3.9749855001
 11
1.2278991159
 21
4.2826253523
  0
LINE
  5
387
100
AcDbEntity
  8
0
100
AcDbLine
 62
7
  6
CONTINUOUS
 10
1.3
 20
2.1278694598
 11
1.3
 21
-0.9250144999
  0
LINE
  5
388
100
AcDbEntity
  8
IMPORT_IGES
100
AcDbLine
 62
7
  6
CONTINUOUS
 10
1.425
 20
-6.3750144999
 11
1.425
 21
-5.5750144999
  0
LWPOLYLINE
  5
389
100
AcDbEntity
  8
0
100
AcDbPolyline
 62
7
  6
CONTINUOUS
 90
4
 70
0
 43
0.3500000006
 10
1.7142856507
 20
20.9535862427
 10
1.7142856507
 20
21.810728714
 10
2.1428571696
 20
22.2393022156
 10
2.7857141647
 20
22.2393022156
  0
LINE
  5
38A
100
AcDbEntity
  8
IMPORT_IGES
100
AcDbLine
 62
7
  6
CONTINUOUS
 10
1.7751464977
 20
-0.9250144999
 11
1.7751464977
 21
-1.3250144999
  0
LINE
  5
38B
100
AcDbEntity
  8
0
100
AcDbLine
 62
7
  6
CONTINUOUS
 10
1.8
 20
2.1278694598
 11
1.8
 21
-0.9250144999
  0
LINE
  5
38C
100
AcDbEntity
  8
IMPORT_IGES
100
AcDbLine
 62
7
  6
CONTINUOUS
 10
2.025
 20
-8.0537332077
 11
2.025
 21
-6.3750144999
  0
LINE
  5
38D
100
AcDbEntity
  8
0
100
AcDbLine
 62
7
  6
CONTINUOUS
 10
2.3586630374
 20
5.2955857356
 11
2.4772169501
 21
5.8868545135
  0
LINE
  5
38E
100
AcDbEntity
  8
IMPORT_IGES
100
AcDbLine
 62
7
  6
CONTINUOUS
 10
1.8
 20
0.3270410594
 11
1.8751464977
 21
0.4773340548
  0
LWPOLYLINE
  5
38F
100
AcDbEntity
  8
IMPORT_IGES
100
AcDbPolyline
 62
7
  6
CONTINUOUS
 90
5
 70
0
 10
-3.45
 20
-5.1250144999
 10
-3.4165167584
 20
-5.0909776914
 10
-3.383891779
 20
-5.0584757344
 10
-3.3524972729
 20
-5.0275086287
 10
-3.3227064382
 20
-4.997857712
  0
LWPOLYLINE
  5
390
100
AcDbEntity
  8
IMPORT_IGES
100
AcDbPolyline
 62
7
  6
CONTINUOUS
 90
3
 70
0
 10
-3.3227064382
 20
-4.997857712
 10
-3.268799609
 20
-4.9438164201
 10
-3.2450682164
 20
-4.9201671456
  0
LWPOLYLINE
  5
391
100
AcDbEntity
  8
IMPORT_IGES
100
AcDbPolyline
 62
7
  6
CONTINUOUS
 90
8
 70
0
 10
-3.2450682164
 20
-4.9201671456
 10
-3.204827464
 20
-4.8798417606
 10
-3.1885166598
 20
-4.8635831085
 10
-3.1749531103
 20
-4.8499159426
 10
-3.1641901061
 20
-4.8391904774
 10
-3.1563578895
 20
-4.8315234509
 10
-3.1515995572
 20
-4.8267981251
 10
-3.15
 20
-4.8250144999
  0
LINE
  5
392
100
AcDbEntity
  8
IMPORT_IGES
100
AcDbLine
 62
253
  6
CONTINUOUS
 10
-6.9346367602
 20
-8.5093921506
 11
-6.8944964766
 21
-8.4695091488
  0
LWPOLYLINE
  5
393
100
AcDbEntity
  8
IMPORT_IGES
100
AcDbPolyline
 62
7
  6
CONTINUOUS
 90
10
 70
0
 10
-4.7165017144
 20
4.2897970826
 10
-4.6776668908
 20
4.2680439774
 10
-4.6382967031
 20
4.2488920996
 10
-4.5983911514
 20
4.2323414491
 10
-4.5581384622
 20
4.2184320869
 10
-4.5173504088
 20
4.207123952
 10
-4.4754623115
 20
4.1982968621
 10
-4.4322859433
 20
4.1919107562
 10
-4.3880095312
 20
4.1880056952
 10
-4.3426330749
 20
4.1865816792
  0
LWPOLYLINE
  5
394
100
AcDbEntity
  8
IMPORT_IGES
100
AcDbPolyline
 62
253
  6
CONTINUOUS
 90
3
 70
0
 10
8.25
 20
-3.8911233338
 10
8.2767530745
 20
-3.9118384361
 10
8.3026551126
 20
-3.9379536193
  0
LINE
  5
395
100
AcDbEntity
  8
0
100
AcDbLine
 62
7
  6
CONTINUOUS
 10
2.3
 20
2.1278694598
 11
2.3
 21
-0.9250144999
  0
LINE
  5
396
100
AcDbEntity
  8
IMPORT_IGES
100
AcDbLine
 62
253
  6
CONTINUOUS
 10
2.325
 20
-8.1341179655
 11
2.325
 21
-6.6750144999
  0
LINE
  5
397
100
AcDbEntity
  8
0
100
AcDbLine
 62
7
  6
CONTINUOUS
 10
2.8
 20
2.1278694598
 11
2.8
 21
-0.9250144999
  0
LWPOLYLINE
  5
398
100
AcDbEntity
  8
0
100
AcDbPolyline
 62
7
  6
CONTINUOUS
 90
10
 70
0
 10
3.1720327049
 20
4.6968136211
 10
3.1703736215
 20
4.6438487535
 10
3.1653495675
 20
4.5932161134
 10
3.1569605429
 20
4.5449157007
 10
3.1451552988
 20
4.498865864
 10
3.1299850842
 20
4.4551482547
 10
3.1116036456
 20
4.4140078269
 10
3.090062232
 20
4.3755262318
 10
3.0653095945
 20
4.3396218182
 10
3.0373457331
 20
4.3062945861
  0
LWPOLYLINE
  5
399
100
AcDbEntity
  8
IMPORT_IGES
100
AcDbPolyline
 62
253
  6
CONTINUOUS
 90
13
 70
0
 10
4.5100474822
 20
9.8934460132
 10
4.5021700714
 20
9.8553850751
 10
4.4908655161
 20
9.819755849
 10
4.4769404278
 20
9.7867521653
 10
4.4606950066
 20
9.7558872957
 10
4.4428152133
 20
9.727507446
 10
4.4241311196
 20
9.7025307107
 10
4.4038642648
 20
9.6802044363
 10
4.3819734063
 20
9.6600031776
 10
4.3597998704
 20
9.6428340315
 10
4.3373593752
 20
9.6287789443
 10
4.3136472617
 20
9.6173658184
 10
4.2884314973
 20
9.6088410239
  0
LINE
  5
39A
100
AcDbEntity
  8
IMPORT_IGES
100
AcDbLine
 62
7
  6
CONTINUOUS
 10
2.8
 20
0.2859905599
 11
2.8956717474
 21
0.4773340548
  0
LWPOLYLINE
  5
39B
100
AcDbEntity
  8
IMPORT_IGES
100
AcDbPolyline
 62
7
  6
CONTINUOUS
 90
5
 70
0
 10
-2.325
 20
-6.6750144999
 10
-2.2915167584
 20
-6.6409776914
 10
-2.258891779
 20
-6.6084757344
 10
-2.2274972729
 20
-6.5775086287
 10
-2.1977064382
 20
-6.547857712
  0
LINE
  5
39C
100
AcDbEntity
  8
IMPORT_IGES
100
AcDbLine
 62
7
  6
CONTINUOUS
 10
-3.4257239457
 20
-6.6505339163
 11
-3.45
 21
-6.6750144999
  0
LINE
  5
39D
100
AcDbEntity
  8
IMPORT_IGES
100
AcDbLine
 62
7
  6
CONTINUOUS
 10
-3.1539525633
 20
-6.3789670631
 11
-3.4257239457
 21
-6.6505339163
  0
LWPOLYLINE
  5
39E
100
AcDbEntity
  8
IMPORT_IGES
100
AcDbPolyline
 62
7
  6
CONTINUOUS
 90
3
 70
0
 10
-3.15
 20
-6.3750144999
 10
-3.1504311943
 20
-6.3754124651
 10
-3.1539525633
 20
-6.3789670631
  0
LINE
  5
39F
100
AcDbEntity
  8
IMPORT_IGES
100
AcDbLine
 62
253
  6
CONTINUOUS
 10
8.2712481809
 20
2.9904234497
 11
8.25
 21
2.9740945529
  0
LINE
  5
3A0
100
AcDbEntity
  8
IMPORT_IGES
100
AcDbLine
 62
7
  6
CONTINUOUS
 10
5.95
 20
2.0749855001
 11
4.4536037012
 21
2.0749855001
  0
LINE
  5
3A1
100
AcDbEntity
  8
IMPORT_IGES
100
AcDbLine
 62
7
  6
CONTINUOUS
 10
-4.4536037012
 20
2.0749855001
 11
-5.95
 21
2.0749855001
  0
LINE
  5
3A2
100
AcDbEntity
  8
IMPORT_IGES
100
AcDbLine
 62
7
  6
CONTINUOUS
 10
5.95
 20
2.1315483925
 11
-5.95
 21
2.1315483925
  0
LINE
  5
3A3
100
AcDbEntity
  8
IMPORT_IGES
100
AcDbLine
 62
253
  6
CONTINUOUS
 10
-6.25
 20
2.6315415387
 11
6.25
 21
2.6315415387
  0
LWPOLYLINE
  5
3A4
100
AcDbEntity
  8
IMPORT_IGES
100
AcDbPolyline
 62
7
  6
CONTINUOUS
 90
10
 70
0
 10
-3.9545914616
 20
5.8530025161
 10
-3.9885202044
 20
5.8762809475
 10
-4.0238645695
 20
5.896751365
 10
-4.0606245569
 20
5.9144137685
 10
-4.0984590436
 20
5.9291952166
 10
-4.1377091527
 20
5.9411686508
 10
-4.1793982528
 20
5.9505528959
 10
-4.2238674669
 20
5.9574208935
 10
-4.270775672
 20
5.9616997019
 10
-4.3201228682
 20
5.9633893211
  0
LWPOLYLINE
  5
3A5
100
AcDbEntity
  8
IMPORT_IGES
100
AcDbPolyline
 62
7
  6
CONTINUOUS
 90
10
 70
0
 10
-3.7592263894
 20
6.043943005
 10
-3.7119397161
 20
6.0060449162
 10
-3.6677170779
 20
5.9645311277
 10
-3.6265584747
 20
5.9194016398
 10
-3.588416736
 20
5.8706928891
 10
-3.5533390324
 20
5.818368439
 10
-3.5214668755
 20
5.7623189786
 10
-3.492847436
 20
5.7025080713
 10
-3.4674335433
 20
5.6389721539
 10
-3.4452251974
 20
5.5717112263
  0
LINE
  5
3A6
100
AcDbEntity
  8
IMPORT_IGES
100
AcDbLine
 62
7
  6
CONTINUOUS
 10
2.1956717474
 20
0.4773340548
 11
2.2956717474
 21
0.2773340548
  0
LWPOLYLINE
  5
3A7
100
AcDbEntity
  8
0
100
AcDbPolyline
 62
7
  6
CONTINUOUS
 90
10
 70
0
 10
1.9999999993
 20
4.551247408
 10
2.0083664549
 20
4.4894218449
 10
2.0206356192
 20
4.4307610702
 10
2.0368074922
 20
4.3752650838
 10
2.0568846875
 20
4.3230681171
 10
2.0808645916
 20
4.2740359388
 10
2.1087393635
 20
4.2277658548
 10
2.1405063897
 20
4.184123634
 10
2.1761682837
 20
4.1432435076
 10
2.2157250456
 20
4.1051254756
  0
LWPOLYLINE
  5
3A8
100
AcDbEntity
  8
0
100
AcDbPolyline
 62
7
  6
CONTINUOUS
 90
10
 70
0
 10
3.4586630374
 20
4.7208245476
 10
3.4559224106
 20
4.7904198985
 10
3.4483470557
 20
4.8567446446
 10
3.4359369726
 20
4.9197987859
 10
3.4186828589
 20
4.9794251621
 10
3.3965940171
 20
5.0357809335
 10
3.3696983543
 20
5.089337581
 10
3.3380051728
 20
5.140252265
 10
3.3015051703
 20
5.188367825
 10
3.2601983468
 20
5.2336842612
  0
LINE
  5
3A9
100
AcDbEntity
  8
IMPORT_IGES
100
AcDbLine
 62
253
  6
CONTINUOUS
 10
3.4999863589
 20
-10.5750144999
 11
3.5000063193
 21
-10.6750144999
  0
LINE
  5
3AA
100
AcDbEntity
  8
IMPORT_IGES
100
AcDbLine
 62
7
  6
CONTINUOUS
 10
3.15
 20
-6.3750144999
 11
3.15
 21
-2.8041432846
  0
LINE
  5
3AB
100
AcDbEntity
  8
IMPORT_IGES
100
AcDbLine
 62
7
  6
CONTINUOUS
 10
3.25
 20
-8.4877834376
 11
3.25
 21
-9.5424058042
  0
LINE
  5
3AC
100
AcDbEntity
  8
0
100
AcDbLine
 62
7
  6
CONTINUOUS
 10
3.3
 20
2.1278694598
 11
3.3
 21
-0.9250144999
  0
LINE
  5
3AD
100
AcDbEntity
  8
IMPORT_IGES
100
AcDbLine
 62
7
  6
CONTINUOUS
 10
3.3
 20
-10.5750144999
 11
3.3
 21
-10.6750144999
  0
LINE
  5
3AE
100
AcDbEntity
  8
0
100
AcDbLine
 62
7
  6
CONTINUOUS
 10
3.3551159292
 20
5.8868545135
 11
3.3551159292
 21
6.1449718912
  0
LINE
  5
3AF
100
AcDbEntity
  8
IMPORT_IGES
100
AcDbLine
 62
253
  6
CONTINUOUS
 10
3.45
 20
-5.1250144999
 11
3.45
 21
-6.6750144999
  0
LINE
  5
3B0
100
AcDbEntity
  8
0
100
AcDbLine
 62
7
  6
CONTINUOUS
 10
3.8
 20
2.1278694598
 11
3.8
 21
-0.9250144999
  0
LINE
  5
3B1
100
AcDbEntity
  8
IMPORT_IGES
100
AcDbLine
 62
7
  6
CONTINUOUS
 10
3.8156717474
 20
0.0289484886
 11
3.8156717474
 21
-0.7010515114
  0
LINE
  5
3B2
100
AcDbEntity
  8
0
100
AcDbLine
 62
7
  6
CONTINUOUS
 10
3.824829486
 20
6.1749855001
 11
3.824829486
 21
3.9749855001
  0
LINE
  5
3B3
100
AcDbEntity
  8
IMPORT_IGES
100
AcDbLine
 62
253
  6
CONTINUOUS
 10
3.0995189114
 20
-10.5750144999
 11
3.0994742725
 21
-10.6750144999
  0
LINE
  5
3B4
100
AcDbEntity
  8
IMPORT_IGES
100
AcDbLine
 62
253
  6
CONTINUOUS
 10
4.6075061083
 20
11.7750144998
 11
4.5217845696
 21
10.5978580375
  0
LWPOLYLINE
  5
3B5
100
AcDbEntity
  8
IMPORT_IGES
100
AcDbPolyline
 62
253
  6
CONTINUOUS
 90
13
 70
0
 10
4.8211849092
 20
9.7102010526
 10
4.8179659704
 20
9.6738275007
 10
4.8099348844
 20
9.6381973538
 10
4.7972817135
 20
9.6038788769
 10
4.780367791
 20
9.5715721003
 10
4.7594602464
 20
9.5415809903
 10
4.7345179478
 20
9.5139348479
 10
4.7056152744
 20
9.4890248478
 10
4.6732776885
 20
9.4675788054
 10
4.6381192916
 20
9.4501599088
 10
4.6007557137
 20
9.4371708325
 10
4.5617547784
 20
9.4289019237
 10
4.5217845696
 20
9.4255960494
  0
LWPOLYLINE
  5
3B6
100
AcDbEntity
  8
IMPORT_IGES
100
AcDbPolyline
 62
253
  6
CONTINUOUS
 90
10
 70
0
 10
4.5217845696
 20
10.5978580375
 10
4.5139350344
 20
10.5355025953
 10
4.5012434684
 20
10.4752043913
 10
4.4837098715
 20
10.4169634255
 10
4.4609064378
 20
10.3604423632
 10
4.4332609733
 20
10.305978539
 10
4.4020568957
 20
10.2545839572
 10
4.3677220107
 20
10.2065959524
 10
4.3298285125
 20
10.16167719
 10
4.2883764011
 20
10.11982767
  0
LWPOLYLINE
  5
3B7
100
AcDbEntity
  8
IMPORT_IGES
100
AcDbPolyline
 62
253
  6
CONTINUOUS
 90
10
 70
0
 10
4.8211837083
 20
10.3714620216
 10
4.8118856836
 20
10.3113845833
 10
4.7957048942
 20
10.2527879273
 10
4.7728046249
 20
10.1956720535
 10
4.7433406482
 20
10.1396898578
 10
4.7075749061
 20
10.0851884443
 10
4.6659587424
 20
10.033209126
 10
4.6189299063
 20
9.9840990072
 10
4.5668234948
 20
9.9375109836
 10
4.5100439642
 20
9.8934450552
  0
LINE
  5
3B8
100
AcDbEntity
  8
IMPORT_IGES
100
AcDbLine
 62
7
  6
CONTINUOUS
 10
3.8156717474
 20
0.0289484886
 11
3.9156717474
 21
0.2289484886
  0
LINE
  5
3B9
100
AcDbEntity
  8
IMPORT_IGES
100
AcDbLine
 62
7
  6
CONTINUOUS
 10
6.1729681924
 20
2.5317553641
 11
6.25
 21
2.6315415387
  0
LWPOLYLINE
  5
3BA
100
AcDbEntity
  8
IMPORT_IGES
100
AcDbPolyline
 62
7
  6
CONTINUOUS
 90
3
 70
0
 10
-2.1977064382
 20
-6.547857712
 10
-2.143799609
 20
-6.4938164201
 10
-2.1200682164
 20
-6.4701671456
  0
LWPOLYLINE
  5
3BB
100
AcDbEntity
  8
IMPORT_IGES
100
AcDbPolyline
 62
7
  6
CONTINUOUS
 90
8
 70
0
 10
-2.1200682164
 20
-6.4701671456
 10
-2.079827464
 20
-6.4298417606
 10
-2.0635166598
 20
-6.4135831085
 10
-2.0499531103
 20
-6.3999159426
 10
-2.0391901061
 20
-6.3891904774
 10
-2.0313578895
 20
-6.3815234509
 10
-2.0265995572
 20
-6.3767981251
 10
-2.025
 20
-6.3750144999
  0
LWPOLYLINE
  5
3BC
100
AcDbEntity
  8
0
100
AcDbPolyline
 62
7
  6
CONTINUOUS
 90
10
 70
0
 10
2.7068213075
 20
3.937468448
 10
2.7871459793
 20
3.9410326735
 10
2.8633243279
 20
3.951074118
 10
2.9353563534
 20
3.9675927815
 10
3.0030679271
 20
3.9905371975
 10
3.0666331776
 20
4.0199588325
 10
3.1265744915
 20
4.0560120861
 10
3.1830659976
 20
4.0987484249
 10
3.2359335671
 20
4.1481163823
 10
3.2851771998
 20
4.2041159583
  0
LINE
  5
3BD
100
AcDbEntity
  8
IMPORT_IGES
100
AcDbLine
 62
253
  6
CONTINUOUS
 10
8.25
 20
3.1732045266
 11
8.3573504558
 21
3.1750783358
  0
LINE
  5
3BE
100
AcDbEntity
  8
ASSI
100
AcDbLine
 62
253
  6
CONTINUOUS
 10
-7.2351646411
 20
3.0749855001
 11
-7.2281832957
 21
3.0749855001
  0
LINE
  5
3BF
100
AcDbEntity
  8
ASSI
100
AcDbLine
 62
253
  6
CONTINUOUS
 10
7.2351646411
 20
3.0749855001
 11
7.2281832957
 21
3.0749855
  0
LINE
  5
3C0
100
AcDbEntity
  8
IMPORT_IGES
100
AcDbLine
 62
7
  6
CONTINUOUS
 10
6.05
 20
3.5749855001
 11
-6.05
 21
3.5749855001
  0
LINE
  5
3C1
100
AcDbEntity
  8
IMPORT_IGES
100
AcDbLine
 62
7
  6
CONTINUOUS
 10
-3.2906549279
 20
3.9749855001
 11
-2.9815143887
 21
3.9749855001
  0
LINE
  5
3C2
100
AcDbEntity
  8
IMPORT_IGES
100
AcDbLine
 62
7
  6
CONTINUOUS
 10
-1.5633696619
 20
3.9749855001
 11
-1.2317190472
 21
3.9749855001
  0
LINE
  5
3C3
100
AcDbEntity
  8
IMPORT_IGES
100
AcDbLine
 62
7
  6
CONTINUOUS
 10
-0.4393586699
 20
3.9749855001
 11
-0.1482265059
 21
3.9749855001
  0
LINE
  5
3C4
100
AcDbEntity
  8
IMPORT_IGES
100
AcDbLine
 62
7
  6
CONTINUOUS
 10
0.920259231
 20
3.9749855001
 11
1.2278991159
 21
3.9749855001
  0
LINE
  5
3C5
100
AcDbEntity
  8
0
100
AcDbLine
 62
7
  6
CONTINUOUS
 10
3.824829486
 20
3.9749855001
 11
5.4665757567
 21
3.9749855001
  0
LINE
  5
3C6
100
AcDbEntity
  8
IMPORT_IGES
100
AcDbLine
 62
253
  6
CONTINUOUS
 10
-8.3573504558
 20
3.1750783358
 11
-8.25
 21
3.1732045266
  0
LWPOLYLINE
  5
3C7
100
AcDbEntity
  8
IMPORT_IGES
100
AcDbPolyline
 62
7
  6
CONTINUOUS
 90
10
 70
0
 10
-4.318622214
 20
3.937468448
 10
-4.3968290629
 20
3.9393259786
 10
-4.4715843713
 20
3.9447504638
 10
-4.5428881392
 20
3.9537419035
 10
-4.6107530669
 20
3.9663396548
 10
-4.6751664541
 20
3.9825043607
 10
-4.7360901998
 20
4.00211795
 10
-4.7935116035
 20
4.0251410658
 10
-4.8474433657
 20
4.051613065
 10
-4.8978854864
 20
4.0815339477
  0
LINE
  5
3C8
100
AcDbEntity
  8
IMPORT_IGES
100
AcDbLine
 62
7
  6
CONTINUOUS
 10
-3.6988404814
 20
4.7463361283
 11
-3.4077080552
 21
4.6728026946
  0
LINE
  5
3C9
100
AcDbEntity
  8
IMPORT_IGES
100
AcDbLine
 62
7
  6
CONTINUOUS
 10
3.2151464977
 20
0.4773340548
 11
3.3
 21
0.3076270502
  0
LINE
  5
3CA
100
AcDbEntity
  8
IMPORT_IGES
100
AcDbLine
 62
7
  6
CONTINUOUS
 10
4.05
 20
-9.7119710216
 11
4.05
 21
-8.4877834376
  0
LINE
  5
3CB
100
AcDbEntity
  8
0
100
AcDbLine
 62
7
  6
CONTINUOUS
 10
4.1159617811
 20
4.2346035157
 11
4.1159617811
 21
4.983443888
  0
LINE
  5
3CC
100
AcDbEntity
  8
0
100
AcDbLine
 62
7
  6
CONTINUOUS
 10
4.1159617811
 20
5.2415612658
 11
4.1159617811
 21
5.9153674682
  0
LINE
  5
3CD
100
AcDbEntity
  8
IMPORT_IGES
100
AcDbLine
 62
7
  6
CONTINUOUS
 10
4.4
 20
1.5389484886
 11
4.4
 21
0.2289484886
  0
LINE
  5
3CE
100
AcDbEntity
  8
IMPORT_IGES
100
AcDbLine
 62
253
  6
CONTINUOUS
 10
4.8211837085
 20
10.3714620216
 11
4.8211849119
 21
9.7102010385
  0
LINE
  5
3CF
100
AcDbEntity
  8
IMPORT_IGES
100
AcDbLine
 62
7
  6
CONTINUOUS
 10
4.9273029486
 20
10.6250145005
 11
4.9273029486
 21
11.7750144998
  0
LINE
  5
3D0
100
AcDbEntity
  8
IMPORT_IGES
100
AcDbLine
 62
253
  6
CONTINUOUS
 10
4.2884265578
 20
9.6088409764
 11
4.2883764011
 21
10.1198276699
  0
LINE
  5
3D1
100
AcDbEntity
  8
IMPORT_IGES
100
AcDbLine
 62
253
  6
CONTINUOUS
 10
4.8211837085
 20
10.3714620216
 11
4.9233917561
 21
11.7750144998
  0
LINE
  5
3D2
100
AcDbEntity
  8
IMPORT_IGES
100
AcDbLine
 62
7
  6
CONTINUOUS
 10
4.4
 20
1.5389484886
 11
4.4536037012
 21
2.0749855001
  0
LINE
  5
3D3
100
AcDbEntity
  8
IMPORT_IGES
100
AcDbLine
 62
7
  6
CONTINUOUS
 10
-1.2619170827
 20
-7.6250144999
 11
-1.063673116
 21
-7.4250144999
  0
LINE
  5
3D4
100
AcDbEntity
  8
0
100
AcDbLine
 62
7
  6
CONTINUOUS
 10
2.2836289167
 20
4.5752583344
 11
1.9999999993
 21
4.551247408
  0
LWPOLYLINE
  5
3D5
100
AcDbEntity
  8
IMPORT_IGES
100
AcDbPolyline
 62
7
  6
CONTINUOUS
 90
10
 70
0
 10
-4.3426330749
 20
4.1865816792
 10
-4.2852952811
 20
4.1890683048
 10
-4.2311076019
 20
4.1948731548
 10
-4.1800700373
 20
4.203996229
 10
-4.1326128013
 20
4.2164689435
 10
-4.08830568
 20
4.2322598824
 10
-4.0458580316
 20
4.2512747976
 10
-4.0048396422
 20
4.2734822732
 10
-3.9656807258
 20
4.2989137253
 10
-3.9283812823
 20
4.3275691538
  0
LINE
  5
3D6
100
AcDbEntity
  8
0
100
AcDbLine
 62
7
  6
CONTINUOUS
 10
5.4665757567
 20
4.2346035157
 11
4.1159617811
 21
4.2346035157
  0
LINE
  5
3D7
100
AcDbEntity
  8
IMPORT_IGES
100
AcDbLine
 62
253
  6
CONTINUOUS
 10
8.25
 20
4.2781145205
 11
7.2281832957
 21
4.2781145205
  0
LINE
  5
3D8
100
AcDbEntity
  8
IMPORT_IGES
100
AcDbLine
 62
253
  6
CONTINUOUS
 10
-7.2281832957
 20
4.2781145205
 11
-8.25
 21
4.2781145205
  0
LINE
  5
3D9
100
AcDbEntity
  8
IMPORT_IGES
100
AcDbLine
 62
7
  6
CONTINUOUS
 10
1.2278991159
 20
4.2826253523
 11
0.920259231
 21
4.2826253523
  0
LINE
  5
3DA
100
AcDbEntity
  8
IMPORT_IGES
100
AcDbLine
 62
253
  6
CONTINUOUS
 10
8.05
 20
4.4350414697
 11
7.228448616
 21
4.4350414697
  0
LINE
  5
3DB
100
AcDbEntity
  8
IMPORT_IGES
100
AcDbLine
 62
253
  6
CONTINUOUS
 10
-7.228448616
 20
4.4350414697
 11
-8.05
 21
4.4350414697
  0
LINE
  5
3DC
100
AcDbEntity
  8
IMPORT_IGES
100
AcDbLine
 62
7
  6
CONTINUOUS
 10
-2.7399046008
 20
4.6412883659
 11
-1.8199865166
 21
4.6412883659
  0
LINE
  5
3DD
100
AcDbEntity
  8
IMPORT_IGES
100
AcDbLine
 62
7
  6
CONTINUOUS
 10
-1.9100273434
 20
4.8783961256
 11
-2.6558663908
 21
4.8783961256
  0
LWPOLYLINE
  5
3DE
100
AcDbEntity
  8
0
100
AcDbPolyline
 62
7
  6
CONTINUOUS
 90
10
 70
0
 10
2.7068213075
 20
4.1595693951
 10
2.6708765619
 20
4.1609591561
 10
2.6362696746
 20
4.1648595336
 10
2.6030006454
 20
4.1712705274
 10
2.5711541554
 20
4.1801678031
 10
2.5406455236
 20
4.1915756953
 10
2.5112207073
 20
4.2055672074
 10
2.4827950258
 20
4.2221666741
 10
2.4554531598
 20
4.2413497609
 10
2.4291951093
 20
4.2631164676
  0
LWPOLYLINE
  5
3DF
100
AcDbEntity
  8
IMPORT_IGES
100
AcDbPolyline
 62
253
  6
CONTINUOUS
 90
13
 70
0
 10
8.05
 20
4.4350414697
 10
8.0760750603
 20
4.4337020534
 10
8.101714615
 20
4.429704651
 10
8.1264798936
 20
4.423114567
 10
8.149948755
 20
4.4140404516
 10
8.1717150599
 20
4.402635447
 10
8.1913977391
 20
4.3890971581
 10
8.2086588681
 20
4.3736576593
 10
8.2232030326
 20
4.3565807786
 10
8.2347782482
 20
4.3381634281
 10
8.2431875333
 20
4.3187232688
 10
8.2482899002
 20
4.2985920664
 10
8.25
 20
4.2781145205
  0
LWPOLYLINE
  5
3E0
100
AcDbEntity
  8
0
100
AcDbPolyline
 62
7
  6
CONTINUOUS
 90
10
 70
0
 10
2.2157250456
 20
4.1051254756
 10
2.2582873911
 20
4.0703928145
 10
2.3038568417
 20
4.0396411731
 10
2.3524333974
 20
4.0128705516
 10
2.4040252296
 20
3.9900209421
 10
2.4586241668
 20
3.9711523524
 10
2.5162056947
 20
3.9564448058
 10
2.5767616417
 20
3.9459583101
 10
2.6403001793
 20
3.9396328575
 10
2.7068213075
 20
3.937468448
  0
LWPOLYLINE
  5
3E1
100
AcDbEntity
  8
0
100
AcDbPolyline
 62
7
  6
CONTINUOUS
 90
10
 70
0
 10
2.4291951093
 20
4.2631164676
 10
2.4045520581
 20
4.287687186
 10
2.382003727
 20
4.3149626341
 10
2.3615501162
 20
4.3449428116
 10
2.3431611759
 20
4.3778634545
 10
2.3268669558
 20
4.4134888269
 10
2.312757605
 20
4.4511117218
 10
2.300863173
 20
4.4904964035
 10
2.2911536103
 20
4.5318786077
 10
2.2836289167
 20
4.5752583344
  0
LWPOLYLINE
  5
3E2
100
AcDbEntity
  8
IMPORT_IGES
100
AcDbPolyline
 62
253
  6
CONTINUOUS
 90
10
 70
0
 10
-4.2883789626
 20
10.11982767
 10
-4.3299272032
 20
10.1618190486
 10
-4.3678799697
 20
10.2068277213
 10
-4.4022372623
 20
10.254853688
 10
-4.4334098768
 20
10.3062123053
 10
-4.4609870173
 20
10.3605882166
 10
-4.4837362957
 20
10.4170353525
 10
-4.5012469158
 20
10.4752383563
 10
-4.5139296738
 20
10.5355125847
 10
-4.5217845696
 20
10.5978580375
  0
LWPOLYLINE
  5
3E3
100
AcDbEntity
  8
IMPORT_IGES
100
AcDbPolyline
 62
253
  6
CONTINUOUS
 90
6
 70
0
 10
8.3026551126
 20
-3.9379536193
 10
8.324375309
 20
-3.9667856064
 10
8.3415287336
 20
-3.9978222439
 10
8.3538176432
 20
-4.0305172746
 10
8.3610323251
 20
-4.06430224
 10
8.3630498837
 20
-4.0985873298
  0
LINE
  5
3E4
100
AcDbEntity
  8
IMPORT_IGES
100
AcDbLine
 62
7
  6
CONTINUOUS
 10
5.5518360362
 20
9.0720717566
 11
5.5333944935
 21
9.5962940739
  0
LINE
  5
3E5
100
AcDbEntity
  8
IMPORT_IGES
100
AcDbLine
 62
7
  6
CONTINUOUS
 10
5.1
 20
2.1278694598
 11
5.1
 21
2.0749855001
  0
LINE
  5
3E6
100
AcDbEntity
  8
0
100
AcDbLine
 62
7
  6
CONTINUOUS
 10
5.3330149084
 20
4.983443888
 11
5.3330149084
 21
5.2415612658
  0
LINE
  5
3E7
100
AcDbEntity
  8
0
100
AcDbLine
 62
7
  6
CONTINUOUS
 10
5.4155524641
 20
5.9153674682
 11
5.4155524641
 21
6.1749855001
  0
LINE
  5
3E8
100
AcDbEntity
  8
0
100
AcDbLine
 62
7
  6
CONTINUOUS
 10
5.4665757567
 20
3.9749855001
 11
5.4665757567
 21
4.2346035157
  0
LINE
  5
3E9
100
AcDbEntity
  8
IMPORT_IGES
100
AcDbLine
 62
253
  6
CONTINUOUS
 10
5.6500001413
 20
10.5249854995
 11
5.6500013476
 21
10.3249855001
  0
LINE
  5
3EA
100
AcDbEntity
  8
IMPORT_IGES
100
AcDbLine
 62
7
  6
CONTINUOUS
 10
5.6240911927
 20
9.0906709251
 11
5.6161486974
 21
8.6356456719
  0
LWPOLYLINE
  5
3EB
100
AcDbEntity
  8
IMPORT_IGES
100
AcDbPolyline
 62
7
  6
CONTINUOUS
 90
19
 70
0
 10
5.95
 20
2.1732839692
 10
5.9506016577
 20
2.1819754969
 10
5.9524373066
 20
2.1918500382
 10
5.9555493509
 20
2.2029075929
 10
5.9599695974
 20
2.2150978011
 10
5.9657316673
 20
2.2284710227
 10
5.9728834074
 20
2.2431783383
 10
5.9814459081
 20
2.2592139788
 10
5.9914443456
 20
2.2765837132
 10
6.0029520592
 20
2.295455929
 10
6.0160059853
 20
2.3158776997
 10
6.0305984453
 20
2.3378019518
 10
6.0467415833
 20
2.361255852
 10
6.0644494737
 20
2.3863373757
 10
6.0836559636
 20
2.4129485474
 10
6.1042172615
 20
2.4408226081
 10
6.126004159
 20
2.4699636965
 10
6.1489501095
 20
2.5003676737
 10
6.1729681924
 20
2.5317553641
  0
LINE
  5
3EC
100
AcDbEntity
  8
IMPORT_IGES
100
AcDbLine
 62
253
  6
CONTINUOUS
 10
-8.05
 20
5.3319124493
 11
-8.0760894615
 21
5.3305715467
  0
LWPOLYLINE
  5
3ED
100
AcDbEntity
  8
0
100
AcDbPolyline
 62
7
  6
CONTINUOUS
 90
10
 70
0
 10
2.7743519932
 20
5.4336485465
 10
2.7276066276
 20
5.4321356358
 10
2.6810266305
 20
5.4272290992
 10
2.6346120019
 20
5.4189289368
 10
2.5883973321
 20
5.4073194478
 10
2.5423480308
 20
5.3923163329
 10
2.4963603277
 20
5.373666694
 10
2.4503996327
 20
5.3512862319
 10
2.4045005359
 20
5.3252592457
 10
2.3586630374
 20
5.2955857356
  0
LINE
  5
3EE
100
AcDbEntity
  8
0
100
AcDbLine
 62
7
  6
CONTINUOUS
 10
4.1159617811
 20
4.983443888
 11
5.3330149084
 21
4.983443888
  0
LINE
  5
3EF
100
AcDbEntity
  8
0
100
AcDbLine
 62
7
  6
CONTINUOUS
 10
5.3330149084
 20
5.2415612658
 11
4.1159617811
 21
5.2415612658
  0
LINE
  5
3F0
100
AcDbEntity
  8
IMPORT_IGES
100
AcDbLine
 62
253
  6
CONTINUOUS
 10
-8.05
 20
5.3319124493
 11
-7.2324108867
 21
5.3319124493
  0
LINE
  5
3F1
100
AcDbEntity
  8
IMPORT_IGES
100
AcDbLine
 62
253
  6
CONTINUOUS
 10
8.05
 20
5.3319124493
 11
7.2324108867
 21
5.3319124493
  0
LINE
  5
3F2
100
AcDbEntity
  8
IMPORT_IGES
100
AcDbLine
 62
7
  6
CONTINUOUS
 10
-8.05
 20
5.3749855001
 11
-7.232843701
 21
5.3749855001
  0
LINE
  5
3F3
100
AcDbEntity
  8
IMPORT_IGES
100
AcDbLine
 62
7
  6
CONTINUOUS
 10
8.05
 20
5.3749855001
 11
7.232843701
 21
5.3749855001
  0
LINE
  5
3F4
100
AcDbEntity
  8
0
100
AcDbLine
 62
7
  6
CONTINUOUS
 10
2.4772169501
 20
5.8868545135
 11
3.3551159292
 21
5.8868545135
  0
LINE
  5
3F5
100
AcDbEntity
  8
IMPORT_IGES
100
AcDbLine
 62
7
  6
CONTINUOUS
 10
-1.164188296
 20
5.9153674682
 11
-0.4393586699
 21
5.9153674682
  0
LINE
  5
3F6
100
AcDbEntity
  8
IMPORT_IGES
100
AcDbLine
 62
7
  6
CONTINUOUS
 10
-0.1482265059
 20
5.9153674682
 11
0.5796044286
 21
5.9153674682
  0
LINE
  5
3F7
100
AcDbEntity
  8
0
100
AcDbLine
 62
7
  6
CONTINUOUS
 10
4.1159617811
 20
5.9153674682
 11
5.4155524641
 21
5.9153674682
  0
LWPOLYLINE
  5
3F8
100
AcDbEntity
  8
0
100
AcDbPolyline
 62
7
  6
CONTINUOUS
 90
10
 70
0
 10
2.7023192137
 20
5.195040067
 10
2.7482851696
 20
5.1932520122
 10
2.7921065286
 20
5.1881928174
 10
2.8337832908
 20
5.1798624828
 10
2.8732306306
 20
5.1682636747
 10
2.9105333735
 20
5.1533937267
 10
2.9459459964
 20
5.1352446398
 10
2.9795533247
 20
5.1138137478
 10
3.011270533
 20
5.089103717
 10
3.0410976212
 20
5.0611145474
  0
LINE
  5
3F9
100
AcDbEntity
  8
0
100
AcDbLine
 62
7
  6
CONTINUOUS
 10
2.0480218276
 20
5.0149582167
 11
2.3016370952
 21
4.9819432338
  0
LWPOLYLINE
  5
3FA
100
AcDbEntity
  8
0
100
AcDbPolyline
 62
7
  6
CONTINUOUS
 90
3
 70
0
 43
0.3500000006
 10
15.3871818008
 20
0.9285710678
 10
15.6014674187
 20
0.8571421509
 10
15.8871819534
 20
0.7142865829
  0
LWPOLYLINE
  5
3FB
100
AcDbEntity
  8
IMPORT_IGES
100
AcDbPolyline
 62
253
  6
CONTINUOUS
 90
10
 70
0
 10
-4.5100516122
 20
9.8934522446
 10
-4.5669543235
 20
9.9376315378
 10
-4.6191176702
 20
9.9842905242
 10
-4.6661494463
 20
10.0334292038
 10
-4.7077132706
 20
10.0853756674
 10
-4.743406979
 20
10.1398018242
 10
-4.7728267773
 20
10.1957234013
 10
-4.795712488
 20
10.2528123076
 10
-4.8118890926
 20
10.3113966341
 10
-4.8211864945
 20
10.3714763809
  0
LWPOLYLINE
  5
3FC
100
AcDbEntity
  8
0
100
AcDbPolyline
 62
7
  6
CONTINUOUS
 90
10
 70
0
 10
3.0410976212
 20
5.0611145474
 10
3.0684437535
 20
5.0303509754
 10
3.0926136947
 20
4.9971036591
 10
3.1136074448
 20
4.9613725983
 10
3.1314560123
 20
4.9230842367
 10
3.1461283887
 20
4.8823121306
 10
3.1575315487
 20
4.8392769491
 10
3.1656344839
 20
4.7940522486
 10
3.1704682026
 20
4.7465644725
 10
3.1720327049
 20
4.6968136211
  0
LWPOLYLINE
  5
3FD
100
AcDbEntity
  8
IMPORT_IGES
100
AcDbPolyline
 62
253
  6
CONTINUOUS
 90
9
 70
0
 10
6.2231530897
 20
10.2663800145
 10
6.2227002301
 20
10.2881656535
 10
6.2225680082
 20
10.2975947514
 10
6.2225032215
 20
10.3056989579
 10
6.2225039205
 20
10.31242847
 10
6.2225697641
 20
10.3178355804
 10
6.2227021563
 20
10.3218058605
 10
6.222897821
 20
10.3241956665
 10
6.2231511338
 20
10.3249855
  0
LWPOLYLINE
  5
3FE
100
AcDbEntity
  8
IMPORT_IGES
100
AcDbPolyline
 62
7
  6
CONTINUOUS
 90
3
 70
0
 10
6.9474190774
 20
-10.5717094399
 10
6.9474590347
 20
-10.5741874824
 10
6.9474993869
 20
-10.5750144998
  0
LINE
  5
3FF
100
AcDbEntity
  8
IMPORT_IGES
100
AcDbLine
 62
7
  6
CONTINUOUS
 10
6.9473402191
 20
-10.5618384986
 11
6.9474190774
 21
-10.5717094399
  0
LINE
  5
400
100
AcDbEntity
  8
IMPORT_IGES
100
AcDbLine
 62
253
  6
CONTINUOUS
 10
6.9346367602
 20
-8.5093921506
 11
6.9471539099
 21
-10.5095004057
  0
LINE
  5
401
100
AcDbEntity
  8
IMPORT_IGES
100
AcDbLine
 62
7
  6
CONTINUOUS
 10
5.95
 20
-4.8250144999
 11
5.95
 21
2.1732839692
  0
LINE
  5
402
100
AcDbEntity
  8
IMPORT_IGES
100
AcDbLine
 62
253
  6
CONTINUOUS
 10
6.15
 20
-11.7750144998
 11
6.1500005304
 21
-11.5750144999
  0
LINE
  5
403
100
AcDbEntity
  8
IMPORT_IGES
100
AcDbLine
 62
7
  6
CONTINUOUS
 10
6.25
 20
6.3749855001
 11
6.25
 21
3.7749855001
  0
LINE
  5
404
100
AcDbEntity
  8
IMPORT_IGES
100
AcDbLine
 62
253
  6
CONTINUOUS
 10
6.25
 20
2.6315415387
 11
6.25
 21
-5.1250144999
  0
LWPOLYLINE
  5
405
100
AcDbEntity
  8
IMPORT_IGES
100
AcDbPolyline
 62
7
  6
CONTINUOUS
 90
4
 70
0
 10
6.9467915386
 20
9.3249855001
 10
6.946637557
 20
9.3219412486
 10
6.9464869875
 20
9.3128316708
 10
6.9461950162
 20
9.2767395423
  0
LWPOLYLINE
  5
406
100
AcDbEntity
  8
IMPORT_IGES
100
AcDbPolyline
 62
7
  6
CONTINUOUS
 90
5
 70
0
 10
7.247553483
 20
8.074995273
 10
7.2471779888
 20
8.0687425255
 10
7.2468152977
 20
8.0521299181
 10
7.2464654097
 20
8.0251574508
 10
7.2457969801
 20
7.9388505097
  0
LINE
  5
407
100
AcDbEntity
  8
IMPORT_IGES
100
AcDbLine
 62
7
  6
CONTINUOUS
 10
1.4855123953
 20
-7.424443142
 11
1.2831643884
 21
-7.6250144999
  0
LINE
  5
408
100
AcDbEntity
  8
IMPORT_IGES
100
AcDbLine
 62
7
  6
CONTINUOUS
 10
1.342079372
 20
-7.6250144999
 11
1.5438509601
 21
-7.4250144999
  0
LWPOLYLINE
  5
409
100
AcDbEntity
  8
0
100
AcDbPolyline
 62
7
  6
CONTINUOUS
 90
10
 70
0
 43
0.3500000006
 10
15.172896183
 20
0.8571421509
 10
15.3157528839
 20
0.9285710678
 10
15.3871818008
 20
0.9285710678
 10
15.5300385017
 20
0.7857132339
 10
15.5300385017
 20
0.7142865829
 10
15.4586095848
 20
0.642857666
 10
15.3871818008
 20
0.642857666
 10
15.244323967
 20
0.7142865829
 10
15.172896183
 20
0.7857132339
 10
15.172896183
 20
0.8571421509
  0
LINE
  5
40A
100
AcDbEntity
  8
IMPORT_IGES
100
AcDbLine
 62
7
  6
CONTINUOUS
 10
-3.4452251974
 20
5.5717112263
 11
-3.7318553988
 21
5.5041806062
  0
LWPOLYLINE
  5
40B
100
AcDbEntity
  8
IMPORT_IGES
100
AcDbPolyline
 62
253
  6
CONTINUOUS
 90
12
 70
0
 10
-8.0760894615
 20
5.3305715467
 10
-8.1017382078
 20
5.3265706742
 10
-8.1265073313
 20
5.3199766351
 10
-8.1499739045
 20
5.3109000441
 10
-8.171733905
 20
5.2994950847
 10
-8.1914102916
 20
5.2859582911
 10
-8.208665806
 20
5.2705215455
 10
-8.223205196
 20
5.2534488181
 10
-8.2347780071
 20
5.2350348644
 10
-8.243186878
 20
5.2155961675
 10
-8.2482895972
 20
5.1954648524
 10
-8.25
 20
5.1749855001
  0
LWPOLYLINE
  5
40C
100
AcDbEntity
  8
IMPORT_IGES
100
AcDbPolyline
 62
7
  6
CONTINUOUS
 90
13
 70
0
 10
-4.3201228682
 20
5.9633893211
 10
-4.3653775495
 20
5.9622341118
 10
-4.4086704399
 20
5.9593401335
 10
-4.4500015394
 20
5.9547073863
 10
-4.4892683959
 20
5.9482606791
 10
-4.5265734615
 20
5.940075203
 10
-4.5622240925
 20
5.9303765312
 10
-4.5962184298
 20
5.9192037237
 10
-4.6285583325
 20
5.9065177206
 10
-4.6595567336
 20
5.8924269145
 10
-4.6893179441
 20
5.8769674365
 10
-4.7177376531
 20
5.8601031557
 10
-4.7448158605
 20
5.841834072
  0
LINE
  5
40D
100
AcDbEntity
  8
0
100
AcDbLine
 62
7
  6
CONTINUOUS
 10
3.3551159292
 20
6.1449718912
 11
2.2611186773
 21
6.1449718912
  0
LINE
  5
40E
100
AcDbEntity
  8
0
100
AcDbLine
 62
7
  6
CONTINUOUS
 10
5.4155524641
 20
6.1749855001
 11
3.824829486
 21
6.1749855001
  0
LINE
  5
40F
100
AcDbEntity
  8
IMPORT_IGES
100
AcDbLine
 62
7
  6
CONTINUOUS
 10
0.5796044286
 20
6.1749855001
 11
-1.164188296
 21
6.1749855001
  0
LINE
  5
410
100
AcDbEntity
  8
IMPORT_IGES
100
AcDbLine
 62
7
  6
CONTINUOUS
 10
-2.1321283642
 20
6.1749855001
 11
-2.4457708661
 21
6.1749855001
  0
LINE
  5
411
100
AcDbEntity
  8
IMPORT_IGES
100
AcDbLine
 62
7
  6
CONTINUOUS
 10
-6.05
 20
6.5749855001
 11
6.05
 21
6.5749855001
  0
LWPOLYLINE
  5
412
100
AcDbEntity
  8
IMPORT_IGES
100
AcDbPolyline
 62
7
  6
CONTINUOUS
 90
10
 70
0
 10
-4.3141201202
 20
6.2125026424
 10
-4.2386131958
 20
6.2098522127
 10
-4.1665751359
 20
6.2030143585
 10
-4.0980059405
 20
6.1919890799
 10
-4.0329134072
 20
6.1765526171
 10
-3.9712897384
 20
6.1569287299
 10
-3.9131115415
 20
6.1337886972
 10
-3.8583710189
 20
6.1073562787
 10
-3.8070759682
 20
6.0774077146
 10
-3.7592263894
 20
6.043943005
  0
LWPOLYLINE
  5
413
100
AcDbEntity
  8
0
100
AcDbPolyline
 62
7
  6
CONTINUOUS
 90
10
 70
0
 10
3.2601983468
 20
5.2336842612
 10
3.2144392349
 20
5.2758687411
 10
3.1667633861
 20
5.3130079974
 10
3.1171708004
 20
5.3451020301
 10
3.0658471006
 20
5.372079283
 10
3.0126066638
 20
5.3940113124
 10
2.9568926215
 20
5.4111127866
 10
2.8985193509
 20
5.4234552617
 10
2.8376724748
 20
5.4309671817
 10
2.7743519932
 20
5.4336485465
  0
LINE
  5
414
100
AcDbEntity
  8
IMPORT_IGES
100
AcDbLine
 62
253
  6
CONTINUOUS
 10
4.5217845696
 20
9.4255960494
 11
4.5503901618
 21
9.2750144998
  0
LINE
  5
415
100
AcDbEntity
  8
IMPORT_IGES
100
AcDbLine
 62
253
  6
CONTINUOUS
 10
4.9038561866
 20
9.2750144999
 11
4.8211849119
 21
9.7102010385
  0
LWPOLYLINE
  5
416
100
AcDbEntity
  8
IMPORT_IGES
100
AcDbPolyline
 62
253
  6
CONTINUOUS
 90
4
 70
0
 10
7.2474975627
 20
-10.2750144999
 10
7.2474572121
 20
-10.2746747405
 10
7.2474172561
 20
-10.2736846688
 10
7.2473776945
 20
-10.2720442848
  0
LINE
  5
417
100
AcDbEntity
  8
IMPORT_IGES
100
AcDbLine
 62
7
  6
CONTINUOUS
 10
7.237049713
 20
7.3058303944
 11
7.2399229223
 21
7.2649102502
  0
LWPOLYLINE
  5
418
100
AcDbEntity
  8
IMPORT_IGES
100
AcDbPolyline
 62
7
  6
CONTINUOUS
 90
13
 70
0
 10
7.1944946489
 20
7.2194819768
 10
7.1919276856
 20
7.2586392939
 10
7.1842716707
 20
7.2971266288
 10
7.1716575987
 20
7.3342854628
 10
7.1543012965
 20
7.3694800077
 10
7.1324997307
 20
7.4021080845
 10
7.1066259263
 20
7.4316114264
 10
7.0771171718
 20
7.457489384
 10
7.0444826907
 20
7.4792936189
 10
7.0092999627
 20
7.4966430988
 10
6.9721806676
 20
7.5092465732
 10
6.933755252
 20
7.5168998098
 10
6.8946806814
 20
7.5194800903
  0
LWPOLYLINE
  5
419
100
AcDbEntity
  8
IMPORT_IGES
100
AcDbPolyline
 62
253
  6
CONTINUOUS
 90
13
 70
0
 10
7.2467897109
 20
9.0249855001
 10
7.244223185
 20
9.0641433578
 10
7.2365675211
 20
9.1026312137
 10
7.2239537098
 20
9.1397905299
 10
7.2065975769
 20
9.1749855001
 10
7.1847960907
 20
9.2076139288
 10
7.1589222806
 20
9.2371175345
 10
7.1294188547
 20
9.2629915022
 10
7.0967906248
 20
9.2847931213
 10
7.0615958689
 20
9.3021493599
 10
7.0244367791
 20
9.314763248
 10
6.9859491577
 20
9.3224189586
 10
6.9467915386
 20
9.3249855001
  0
LWPOLYLINE
  5
41A
100
AcDbEntity
  8
IMPORT_IGES
100
AcDbPolyline
 62
7
  6
CONTINUOUS
 90
3
 70
0
 10
7.2468125069
 20
-9.0520587275
 10
7.2471767837
 20
-9.0688157234
 10
7.247553483
 20
-9.075007908
  0
LWPOLYLINE
  5
41B
100
AcDbEntity
  8
IMPORT_IGES
100
AcDbPolyline
 62
7
  6
CONTINUOUS
 90
3
 70
0
 10
7.2468125069
 20
6.0979412722
 10
7.2471767837
 20
6.0811842764
 10
7.247553483
 20
6.0749920918
  0
LINE
  5
41C
100
AcDbEntity
  8
IMPORT_IGES
100
AcDbLine
 62
253
  6
CONTINUOUS
 10
7.2473776945
 20
-10.2720442848
 11
7.2472994973
 21
-10.2667930566
  0
LINE
  5
41D
100
AcDbEntity
  8
IMPORT_IGES
100
AcDbLine
 62
7
  6
CONTINUOUS
 10
7.2461173351
 20
-8.9861758826
 11
7.2468125069
 21
-9.0520587275
  0
LINE
  5
41E
100
AcDbEntity
  8
IMPORT_IGES
100
AcDbLine
 62
7
  6
CONTINUOUS
 10
7.2461173351
 20
6.1638241169
 11
7.2468125069
 21
6.0979412722
  0
LINE
  5
41F
100
AcDbEntity
  8
IMPORT_IGES
100
AcDbLine
 62
253
  6
CONTINUOUS
 10
7.2472994973
 20
-10.2667930566
 11
7.2471520835
 21
-10.2488089799
  0
LINE
  5
420
100
AcDbEntity
  8
IMPORT_IGES
100
AcDbLine
 62
7
  6
CONTINUOUS
 10
7.2471520835
 20
-10.2488089799
 11
7.2346529689
 21
-8.2096692964
  0
LINE
  5
421
100
AcDbEntity
  8
IMPORT_IGES
100
AcDbLine
 62
7
  6
CONTINUOUS
 10
7.228448616
 20
-5.3850704694
 11
7.2324108867
 21
-6.281941449
  0
LINE
  5
422
100
AcDbEntity
  8
IMPORT_IGES
100
AcDbLine
 62
7
  6
CONTINUOUS
 10
7.2447153117
 20
-8.6571543672
 11
7.2461173351
 21
-8.9861758826
  0
LINE
  5
423
100
AcDbEntity
  8
IMPORT_IGES
100
AcDbLine
 62
7
  6
CONTINUOUS
 10
7.2447153117
 20
6.4928456307
 11
7.2461173351
 21
6.1638241169
  0
LINE
  5
424
100
AcDbEntity
  8
IMPORT_IGES
100
AcDbLine
 62
7
  6
CONTINUOUS
 10
6.9471539099
 20
-10.5095004057
 11
6.9473402191
 21
-10.5618384986
  0
LINE
  5
425
100
AcDbEntity
  8
IMPORT_IGES
100
AcDbLine
 62
253
  6
CONTINUOUS
 10
6.8944964766
 20
-8.4695091488
 11
6.8944964766
 21
7.5194801491
  0
LINE
  5
426
100
AcDbEntity
  8
IMPORT_IGES
100
AcDbLine
 62
7
  6
CONTINUOUS
 10
7.1944946489
 20
7.2194819768
 11
7.1944946489
 21
-8.1695109765
  0
LINE
  5
427
100
AcDbEntity
  8
IMPORT_IGES
100
AcDbLine
 62
7
  6
CONTINUOUS
 10
7.2281832957
 20
-5.2281435202
 11
7.2281832957
 21
-4.0250144999
  0
LINE
  5
428
100
AcDbEntity
  8
IMPORT_IGES
100
AcDbLine
 62
7
  6
CONTINUOUS
 10
7.2281832957
 20
3.0749855
 11
7.2281832957
 21
4.2781145205
  0
LINE
  5
429
100
AcDbEntity
  8
ASSI
100
AcDbLine
 62
7
  6
CONTINUOUS
 10
7.2351646411
 20
3.0749855001
 11
7.2351646411
 21
-4.0250144999
  0
LINE
  5
42A
100
AcDbEntity
  8
IMPORT_IGES
100
AcDbLine
 62
7
  6
CONTINUOUS
 10
7.25
 20
-9.9963611701
 11
7.25
 21
-9.0750144999
  0
LINE
  5
42B
100
AcDbEntity
  8
IMPORT_IGES
100
AcDbLine
 62
7
  6
CONTINUOUS
 10
7.25
 20
-7.1677345686
 11
7.25
 21
-6.3250144999
  0
LINE
  5
42C
100
AcDbEntity
  8
IMPORT_IGES
100
AcDbLine
 62
7
  6
CONTINUOUS
 10
7.25
 20
5.3749855001
 11
7.25
 21
6.1679385366
  0
LINE
  5
42D
100
AcDbEntity
  8
IMPORT_IGES
100
AcDbLine
 62
7
  6
CONTINUOUS
 10
7.25
 20
8.0749855001
 11
7.25
 21
9.0249855001
  0
LINE
  5
42E
100
AcDbEntity
  8
IMPORT_IGES
100
AcDbLine
 62
7
  6
CONTINUOUS
 10
7.3
 20
-11.2780745765
 11
7.3
 21
-6.3250144999
  0
LINE
  5
42F
100
AcDbEntity
  8
IMPORT_IGES
100
AcDbLine
 62
7
  6
CONTINUOUS
 10
7.3
 20
5.3749855001
 11
7.3
 21
9.3946007424
  0
LINE
  5
430
100
AcDbEntity
  8
IMPORT_IGES
100
AcDbLine
 62
7
  6
CONTINUOUS
 10
7.2445342398
 20
7.5765344744
 11
7.2447153117
 21
6.4928456307
  0
LINE
  5
431
100
AcDbEntity
  8
IMPORT_IGES
100
AcDbLine
 62
7
  6
CONTINUOUS
 10
7.2445342398
 20
-7.5734655206
 11
7.2447153117
 21
-8.6571543672
  0
LINE
  5
432
100
AcDbEntity
  8
IMPORT_IGES
100
AcDbLine
 62
7
  6
CONTINUOUS
 10
7.2399229223
 20
7.2649102502
 11
7.2455555717
 21
8.8785388907
  0
LINE
  5
433
100
AcDbEntity
  8
IMPORT_IGES
100
AcDbLine
 62
253
  6
CONTINUOUS
 10
6.9398615413
 20
7.5644767997
 11
6.9455573994
 21
9.0906709248
  0
LINE
  5
434
100
AcDbEntity
  8
IMPORT_IGES
100
AcDbLine
 62
7
  6
CONTINUOUS
 10
7.2324108867
 20
5.3319124493
 11
7.228448616
 21
4.4350414697
  0
LINE
  5
435
100
AcDbEntity
  8
IMPORT_IGES
100
AcDbLine
 62
7
  6
CONTINUOUS
 10
6.9461950162
 20
9.2767395423
 11
6.945557392
 21
9.0906709249
  0
LINE
  5
436
100
AcDbEntity
  8
IMPORT_IGES
100
AcDbLine
 62
7
  6
CONTINUOUS
 10
7.2457969801
 20
7.9388505097
 11
7.2445342398
 21
7.5765344744
  0
LINE
  5
437
100
AcDbEntity
  8
IMPORT_IGES
100
AcDbLine
 62
7
  6
CONTINUOUS
 10
7.2457969801
 20
-7.2111494869
 11
7.2445342398
 21
-7.5734655206
  0
LINE
  5
438
100
AcDbEntity
  8
IMPORT_IGES
100
AcDbLine
 62
253
  6
CONTINUOUS
 10
7.2455555717
 20
8.8785388907
 11
7.2460518037
 21
8.9780489986
  0
LINE
  5
439
100
AcDbEntity
  8
IMPORT_IGES
100
AcDbLine
 62
7
  6
CONTINUOUS
 10
7.2499967765
 20
-9.9977716162
 11
7.2484853609
 21
-10.266692561
  0
LWPOLYLINE
  5
43A
100
AcDbEntity
  8
IMPORT_IGES
100
AcDbPolyline
 62
253
  6
CONTINUOUS
 90
5
 70
0
 10
7.2460518037
 20
8.9780489986
 10
7.2463380159
 20
9.0079492114
 10
7.2464851699
 20
9.0172857946
 10
7.2466357349
 20
9.0229645575
 10
7.2467897109
 20
9.0249855001
  0
LINE
  5
43B
100
AcDbEntity
  8
IMPORT_IGES
100
AcDbLine
 62
7
  6
CONTINUOUS
 10
7.2484853609
 20
-10.266692561
 11
7.2484026413
 21
-10.2736821784
  0
LWPOLYLINE
  5
43C
100
AcDbEntity
  8
IMPORT_IGES
100
AcDbPolyline
 62
253
  6
CONTINUOUS
 90
4
 70
0
 10
7.2484402968
 20
-10.2687044127
 10
7.2483974637
 20
-10.2714576562
 10
7.2483542813
 20
-10.2734200474
 10
7.2483105821
 20
-10.2746055737
  0
LWPOLYLINE
  5
43D
100
AcDbEntity
  8
IMPORT_IGES
100
AcDbPolyline
 62
7
  6
CONTINUOUS
 90
12
 70
0
 10
7.2484026413
 20
-10.2736821784
 10
7.2483363788
 20
-10.2776609707
 10
7.2482902874
 20
-10.2798262259
 10
7.2482270397
 20
-10.2822526038
 10
7.2481391854
 20
-10.2849551062
 10
7.2480049582
 20
-10.2882246725
 10
7.2477932592
 20
-10.2922687344
 10
7.2474809308
 20
-10.2969703907
 10
7.2470536123
 20
-10.3021386346
 10
7.2464808874
 20
-10.3078205714
 10
7.24573646
 20
-10.3139840324
 10
7.244839345
 20
-10.3202998166
  0
LWPOLYLINE
  5
43E
100
AcDbEntity
  8
IMPORT_IGES
100
AcDbPolyline
 62
7
  6
CONTINUOUS
 90
5
 70
0
 10
7.247553483
 20
-7.0750047275
 10
7.2471779888
 20
-7.0812574741
 10
7.2468152977
 20
-7.0978700806
 10
7.2464654097
 20
-7.1248425471
 10
7.2457969801
 20
-7.2111494869
  0
LWPOLYLINE
  5
43F
100
AcDbEntity
  8
IMPORT_IGES
100
AcDbPolyline
 62
7
  6
CONTINUOUS
 90
13
 70
0
 10
7.194494649
 20
-8.1695109765
 10
7.1919643919
 20
-8.2083884891
 10
7.1844003305
 20
-8.2466738806
 10
7.171905427
 20
-8.2837143286
 10
7.1546626633
 20
-8.3188813608
 10
7.1329454983
 20
-8.3515546791
 10
7.107125004
 20
-8.3811401715
 10
7.0776326995
 20
-8.4071219334
 10
7.0449657551
 20
-8.4290431479
 10
7.009706637
 20
-8.4465032953
 10
6.9724709061
 20
-8.4591976025
 10
6.9338893199
 20
-8.4669110804
 10
6.8946251159
 20
-8.4695091196
  0
LINE
  5
440
100
AcDbEntity
  8
IMPORT_IGES
100
AcDbLine
 62
7
  6
CONTINUOUS
 10
7.2319540256
 20
-8.2496522427
 11
7.2346529689
 21
-8.2096692964
  0
LINE
  5
441
100
AcDbEntity
  8
IMPORT_IGES
100
AcDbLine
 62
253
  6
CONTINUOUS
 10
8.2788369436
 20
7.6731144409
 11
7.9788879309
 21
7.6678791081
  0
LINE
  5
442
100
AcDbEntity
  8
IMPORT_IGES
100
AcDbLine
 62
253
  6
CONTINUOUS
 10
7.2440635838
 20
7.0749663397
 11
7.2999999971
 21
7.0749754959
  0
LINE
  5
443
100
AcDbEntity
  8
IMPORT_IGES
100
AcDbLine
 62
253
  6
CONTINUOUS
 10
-7.2999999971
 20
7.0749755151
 11
-7.2440635789
 21
7.0749773611
  0
LINE
  5
444
100
AcDbEntity
  8
IMPORT_IGES
100
AcDbLine
 62
253
  6
CONTINUOUS
 10
7.1944946489
 20
7.2194819768
 11
-7.1944946489
 21
7.2194819768
  0
LINE
  5
445
100
AcDbEntity
  8
IMPORT_IGES
100
AcDbLine
 62
7
  6
CONTINUOUS
 10
6.8944964766
 20
7.5194801491
 11
-6.8944964766
 21
7.5194801491
  0
LINE
  5
446
100
AcDbEntity
  8
IMPORT_IGES
100
AcDbLine
 62
7
  6
CONTINUOUS
 10
6.9398615413
 20
7.5644767997
 11
-6.9398615413
 21
7.5644767997
  0
LINE
  5
447
100
AcDbEntity
  8
IMPORT_IGES
100
AcDbLine
 62
253
  6
CONTINUOUS
 10
7.9788932318
 20
7.6678792007
 11
7.3
 21
7.6678787768
  0
LINE
  5
448
100
AcDbEntity
  8
IMPORT_IGES
100
AcDbLine
 62
253
  6
CONTINUOUS
 10
-7.3
 20
7.6678787882
 11
-7.9788920754
 21
7.667878834
  0
LINE
  5
449
100
AcDbEntity
  8
IMPORT_IGES
100
AcDbLine
 62
253
  6
CONTINUOUS
 10
-7.9788826367
 20
7.667878626
 11
-8.2788369435
 21
7.6731144443
  0
LWPOLYLINE
  5
44A
100
AcDbEntity
  8
IMPORT_IGES
100
AcDbPolyline
 62
253
  6
CONTINUOUS
 90
13
 70
0
 10
-4.2884314973
 20
9.6088410239
 10
-4.3140087035
 20
9.6176572095
 10
-4.3392596582
 20
9.6299912337
 10
-4.3638622717
 20
9.6456857693
 10
-4.387502724
 20
9.6645406237
 10
-4.409879468
 20
9.6863152929
 10
-4.4307070761
 20
9.7107320289
 10
-4.4497203009
 20
9.7374795516
 10
-4.466676153
 20
9.7662165522
 10
-4.4813572452
 20
9.7965758582
 10
-4.4935762722
 20
9.8281698657
 10
-4.5031781344
 20
9.8605956724
 10
-4.5100407764
 20
9.8934396222
  0
LWPOLYLINE
  5
44B
100
AcDbEntity
  8
IMPORT_IGES
100
AcDbPolyline
 62
253
  6
CONTINUOUS
 90
13
 70
0
 10
7.2455555717
 20
8.87853889
 10
7.2429463474
 20
8.905941834
 10
7.2353963608
 20
8.9327727016
 10
7.2230933421
 20
8.9585943352
 10
7.2064015485
 20
8.9828689225
 10
7.185593887
 20
9.0053640685
 10
7.1606261737
 20
9.0260573031
 10
7.1315741778
 20
9.0446437138
 10
7.0989693557
 20
9.060568458
 10
7.0634239085
 20
9.073406751
 10
7.0255638315
 20
9.0828484288
 10
6.9859821203
 20
9.0886656619
 10
6.9453731928
 20
9.0906712064
  0
LWPOLYLINE
  5
44C
100
AcDbEntity
  8
IMPORT_IGES
100
AcDbPolyline
 62
253
  6
CONTINUOUS
 90
13
 70
0
 10
8.25
 20
5.1749855001
 10
8.2482900139
 20
5.1954623684
 10
8.2431882534
 20
5.2155921392
 10
8.2347804429
 20
5.2350302497
 10
8.2232082187
 20
5.25344471
 10
8.2086686393
 20
5.2705186485
 10
8.1914124773
 20
5.2859565763
 10
8.1717349807
 20
5.2994944372
 10
8.1499734274
 20
5.3109002602
 10
8.1265057331
 20
5.3199771542
 10
8.1017363908
 20
5.326571056
 10
8.0760881683
 20
5.3305716803
 10
8.05
 20
5.3319124493
  0
LINE
  5
44D
100
AcDbEntity
  8
IMPORT_IGES
100
AcDbLine
 62
253
  6
CONTINUOUS
 10
7.9788932318
 20
7.6678792007
 11
8.0189199011
 21
5.3744430683
  0
LINE
  5
44E
100
AcDbEntity
  8
IMPORT_IGES
100
AcDbLine
 62
253
  6
CONTINUOUS
 10
7.9562164915
 20
9.1785544057
 11
7.9764143235
 21
8.0214159379
  0
LINE
  5
44F
100
AcDbEntity
  8
IMPORT_IGES
100
AcDbLine
 62
7
  6
CONTINUOUS
 10
8.4227212945
 20
-0.5700144999
 11
8.2551485793
 21
9.0302199202
  0
LINE
  5
450
100
AcDbEntity
  8
IMPORT_IGES
100
AcDbLine
 62
7
  6
CONTINUOUS
 10
7.9562164915
 20
9.1785544054
 11
7.9551942918
 21
9.3249855001
  0
LINE
  5
451
100
AcDbEntity
  8
IMPORT_IGES
100
AcDbLine
 62
7
  6
CONTINUOUS
 10
7.9764143235
 20
8.0214159375
 11
7.9788930493
 21
7.6678791994
  0
LINE
  5
452
100
AcDbEntity
  8
IMPORT_IGES
100
AcDbLine
 62
253
  6
CONTINUOUS
 10
7.9711527644
 20
-9.360751712
 11
7.9711527644
 21
-9.6135020088
  0
LINE
  5
453
100
AcDbEntity
  8
ASSI
100
AcDbLine
 62
253
  6
CONTINUOUS
 10
8.05
 20
4.2781145205
 11
8.05
 21
-5.2281435202
  0
LINE
  5
454
100
AcDbEntity
  8
IMPORT_IGES
100
AcDbLine
 62
253
  6
CONTINUOUS
 10
8.05
 20
-6.3250144999
 11
8.05
 21
-5.2281435202
  0
LINE
  5
455
100
AcDbEntity
  8
IMPORT_IGES
100
AcDbLine
 62
253
  6
CONTINUOUS
 10
8.05
 20
4.2781145205
 11
8.05
 21
5.3749855001
  0
LINE
  5
456
100
AcDbEntity
  8
ASSI
100
AcDbLine
 62
7
  6
CONTINUOUS
 10
8.25
 20
-5.2281435202
 11
8.25
 21
4.2781145205
  0
LINE
  5
457
100
AcDbEntity
  8
IMPORT_IGES
100
AcDbLine
 62
7
  6
CONTINUOUS
 10
8.25
 20
-6.1250144999
 11
8.25
 21
5.1749855001
  0
LINE
  5
458
100
AcDbEntity
  8
IMPORT_IGES
100
AcDbLine
 62
253
  6
CONTINUOUS
 10
8.0241496306
 20
-6.32456328
 11
7.9711527644
 21
-9.3607517126
  0
LINE
  5
459
100
AcDbEntity
  8
IMPORT_IGES
100
AcDbLine
 62
253
  6
CONTINUOUS
 10
7.9711527644
 20
-9.6135020087
 11
7.9585965776
 21
-10.3336842299
  0
LINE
  5
45A
100
AcDbEntity
  8
IMPORT_IGES
100
AcDbLine
 62
7
  6
CONTINUOUS
 10
8.4227212944
 20
-0.5700144999
 11
8.4209763728
 21
-0.6699809953
  0
LINE
  5
45B
100
AcDbEntity
  8
IMPORT_IGES
100
AcDbLine
 62
7
  6
CONTINUOUS
 10
8.2565057833
 20
-10.202494755
 11
8.4228958451
 21
-0.6700144999
  0
LWPOLYLINE
  5
45C
100
AcDbEntity
  8
IMPORT_IGES
100
AcDbPolyline
 62
253
  6
CONTINUOUS
 90
7
 70
0
 10
8.3573504558
 20
3.1750783358
 10
8.3553152643
 20
3.1410597374
 10
8.348072553
 20
3.1075899082
 10
8.3357695806
 20
3.0752506032
 10
8.3186514381
 20
3.0446162807
 10
8.2970288917
 20
3.0161931
 10
8.2712481809
 20
2.9904234497
  0
LINE
  5
45D
100
AcDbEntity
  8
IMPORT_IGES
100
AcDbLine
 62
253
  6
CONTINUOUS
 10
7.2477932592
 20
-10.2922687344
 11
7.2474975627
 21
-10.2750144999
  0
LINE
  5
45E
100
AcDbEntity
  8
IMPORT_IGES
100
AcDbLine
 62
253
  6
CONTINUOUS
 10
7.2449310368
 20
-10.3141723575
 11
7.2474809308
 21
-10.2969703907
  0
LINE
  5
45F
100
AcDbEntity
  8
IMPORT_IGES
100
AcDbLine
 62
253
  6
CONTINUOUS
 10
7.2477932592
 20
-10.2922687344
 11
7.248266366
 21
-10.2750144999
  0
LWPOLYLINE
  5
460
100
AcDbEntity
  8
IMPORT_IGES
100
AcDbPolyline
 62
253
  6
CONTINUOUS
 90
13
 70
0
 10
8.25
 20
-5.2281435202
 10
8.2482909779
 20
-5.2486146403
 10
8.2431911697
 20
-5.2687416164
 10
8.2347848991
 20
-5.2881798265
 10
8.2232118605
 20
-5.3065977802
 10
8.208668283
 20
-5.3236770329
 10
8.1914066312
 20
-5.3391191827
 10
8.1717221883
 20
-5.3526601568
 10
8.1499528217
 20
-5.3640676102
 10
8.1264812571
 20
-5.3731431239
 10
8.1017145325
 20
-5.379733668
 10
8.0760744879
 20
-5.3837311122
 10
8.05
 20
-5.3850704694
  0
LWPOLYLINE
  5
461
100
AcDbEntity
  8
IMPORT_IGES
100
AcDbPolyline
 62
7
  6
CONTINUOUS
 90
9
 70
0
 10
8.3751546217
 20
2.1550783555
 10
8.3727148378
 20
2.1320574241
 10
8.3647027102
 20
2.1090866701
 10
8.3513500982
 20
2.0868012432
 10
8.332949558
 20
2.0659080376
 10
8.3099321655
 20
2.0468422784
 10
8.2829245681
 20
2.029719834
 10
8.2524660315
 20
2.0147795534
 10
8.25
 20
2.0138647201
  0
LINE
  5
462
100
AcDbEntity
  8
IMPORT_IGES
100
AcDbLine
 62
253
  6
CONTINUOUS
 10
7.2483105821
 20
-10.2746055737
 11
7.248266366
 21
-10.275014235
  0
LWPOLYLINE
  5
463
100
AcDbEntity
  8
IMPORT_IGES
100
AcDbPolyline
 62
7
  6
CONTINUOUS
 90
11
 70
0
 10
-6.9773133371
 20
7.5620512354
 10
-7.0143398094
 20
7.5549672849
 10
-7.0505162851
 20
7.5432128926
 10
-7.0852289216
 20
7.526759344
 10
-7.1178423363
 20
7.5057846996
 10
-7.1477184051
 20
7.4806833658
 10
-7.1742617467
 20
7.4516254297
 10
-7.1969341368
 20
7.4189731864
 10
-7.2152409602
 20
7.3835033928
 10
-7.228741069
 20
7.3457629404
 10
-7.237063008
 20
7.306065722
  0
LINE
  5
464
100
AcDbEntity
  8
IMPORT_IGES
100
AcDbLine
 62
7
  6
CONTINUOUS
 10
-6.9400457464
 20
7.5644764379
 11
-6.9773133371
 21
7.5620512354
  0
LWPOLYLINE
  5
465
100
AcDbEntity
  8
IMPORT_IGES
100
AcDbPolyline
 62
253
  6
CONTINUOUS
 90
13
 70
0
 10
-7.9764144537
 20
8.0214151139
 10
-8.0149280008
 20
8.0200030236
 10
-8.0526472467
 20
8.0151291434
 10
-8.0889649456
 20
8.0069166953
 10
-8.1231335326
 20
7.9956086721
 10
-8.1548289523
 20
7.9813908993
 10
-8.1840197089
 20
7.9642347032
 10
-8.2102871621
 20
7.944184885
 10
-8.2328542305
 20
7.9216024512
 10
-8.2511206458
 20
7.8969170531
 10
-8.2646583742
 20
7.8705632125
 10
-8.2731596396
 20
7.8429436152
 10
-8.2763684244
 20
7.8145358119
  0
LINE
  5
466
100
AcDbEntity
  8
IMPORT_IGES
100
AcDbLine
 62
253
  6
CONTINUOUS
 10
7.9764143235
 20
8.0214159379
 11
7.3
 21
8.0214192917
  0
LINE
  5
467
100
AcDbEntity
  8
IMPORT_IGES
100
AcDbLine
 62
253
  6
CONTINUOUS
 10
-7.9764144147
 20
8.0214151136
 11
-7.3
 21
8.0214246835
  0
LINE
  5
468
100
AcDbEntity
  8
IMPORT_IGES
100
AcDbLine
 62
253
  6
CONTINUOUS
 10
5.6161486974
 20
8.6356456719
 11
-5.6161486974
 21
8.6356456719
  0
LWPOLYLINE
  5
469
100
AcDbEntity
  8
IMPORT_IGES
100
AcDbPolyline
 62
7
  6
CONTINUOUS
 90
10
 70
0
 10
7.2838926844
 20
8.5266272424
 10
7.2874450472
 20
8.5266197407
 10
7.2905222583
 20
8.5266783343
 10
7.2931374832
 20
8.526803023
 10
7.2953050245
 20
8.527103494
 10
7.2970403436
 20
8.5274700602
 10
7.2983598088
 20
8.5275736605
 10
7.2992803731
 20
8.5273046081
 10
7.2998195456
 20
8.5267725898
 10
7.2999953682
 20
8.5259776057
  0
LWPOLYLINE
  5
46A
100
AcDbEntity
  8
IMPORT_IGES
100
AcDbPolyline
 62
7
  6
CONTINUOUS
 90
4
 70
0
 10
7.25
 20
8.527907063
 10
7.257590601
 20
8.5277206263
 10
7.2721852481
 20
8.5272150538
 10
7.2838926844
 20
8.5266272424
  0
LWPOLYLINE
  5
46B
100
AcDbEntity
  8
IMPORT_IGES
100
AcDbPolyline
 62
7
  6
CONTINUOUS
 90
7
 70
0
 10
-7.25
 20
8.5270779006
 10
-7.2630092928
 20
8.5274938448
 10
-7.2768021868
 20
8.5284759121
 10
-7.2872745459
 20
8.5288273817
 10
-7.2944852658
 20
8.5281901412
 10
-7.2986568612
 20
8.5269223029
 10
-7.2999953377
 20
8.5250238668
  0
LWPOLYLINE
  5
46C
100
AcDbEntity
  8
IMPORT_IGES
100
AcDbPolyline
 62
253
  6
CONTINUOUS
 90
13
 70
0
 10
7.9764141209
 20
8.0214318529
 10
8.0147305529
 20
8.0200286505
 10
8.0523337403
 20
8.0151883013
 10
8.088616905
 20
8.0070131785
 10
8.1228486463
 20
7.9957178629
 10
8.1546649717
 20
7.981474666
 10
8.1839570662
 20
7.964276694
 10
8.2102942342
 20
7.9441788004
 10
8.2329081378
 20
7.9215401708
 10
8.2511820585
 20
7.8968185996
 10
8.2646986809
 20
7.8704646355
 10
8.2731734982
 20
7.8428774705
 10
8.2763684244
 20
7.8145358113
  0
LINE
  5
46D
100
AcDbEntity
  8
IMPORT_IGES
100
AcDbLine
 62
7
  6
CONTINUOUS
 10
6.9396773364
 20
7.5644767454
 11
6.9771036926
 21
7.5621134577
  0
LWPOLYLINE
  5
46E
100
AcDbEntity
  8
IMPORT_IGES
100
AcDbPolyline
 62
7
  6
CONTINUOUS
 90
11
 70
0
 10
6.9771036926
 20
7.5621134577
 10
7.0142441396
 20
7.5550311126
 10
7.0504875992
 20
7.5432298356
 10
7.0852102306
 20
7.5267930655
 10
7.1177973805
 20
7.505884024
 10
7.1476520259
 20
7.480742494
 10
7.1741855376
 20
7.4517066118
 10
7.196856278
 20
7.4191877844
 10
7.2151782422
 20
7.383648424
 10
7.2287038294
 20
7.3456450077
 10
7.237049713
 20
7.3058303944
  0
LWPOLYLINE
  5
46F
100
AcDbEntity
  8
IMPORT_IGES
100
AcDbPolyline
 62
253
  6
CONTINUOUS
 90
13
 70
0
 10
8.2711070729
 20
-9.3659874339
 10
8.2680228104
 20
-9.3985943452
 10
8.2599575308
 20
-9.4305789351
 10
8.2470409012
 20
-9.4614035369
 10
8.229481662
 20
-9.4905527644
 10
8.2075712212
 20
-9.5175301699
 10
8.1816846529
 20
-9.5418698793
 10
8.1522562773
 20
-9.563163555
 10
8.1197823848
 20
-9.5810521193
 10
8.0848287942
 20
-9.5952283374
 10
8.0479932336
 20
-9.6054589869
 10
8.0098902841
 20
-9.6115820933
 10
7.9711600841
 20
-9.6135020457
  0
LWPOLYLINE
  5
470
100
AcDbEntity
  8
IMPORT_IGES
100
AcDbPolyline
 62
253
  6
CONTINUOUS
 90
13
 70
0
 10
8.258537096
 20
-10.0861209276
 10
8.2554483172
 20
-10.1187539981
 10
8.2473746063
 20
-10.1507511801
 10
8.2344515364
 20
-10.1815751805
 10
8.21689611
 20
-10.2107084062
 10
8.1950031159
 20
-10.2376616555
 10
8.1691401787
 20
-10.2619823326
 10
8.139741586
 20
-10.2832620475
 10
8.1073009954
 20
-10.3011434738
 10
8.0723631457
 20
-10.3153263484
 10
8.0355147093
 20
-10.3255725143
 10
7.9973744409
 20
-10.331709919
 10
7.9585827875
 20
-10.3336355038
  0
LWPOLYLINE
  5
471
100
AcDbEntity
  8
IMPORT_IGES
100
AcDbPolyline
 62
7
  6
CONTINUOUS
 90
9
 70
0
 10
7.244839345
 20
-10.3202998166
 10
7.2438058414
 20
-10.3266101558
 10
7.2426046755
 20
-10.3330677013
 10
7.2411951518
 20
-10.3398029349
 10
7.2395056411
 20
-10.3470155565
 10
7.2375558032
 20
-10.3544864662
 10
7.2354693214
 20
-10.3617231749
 10
7.233392767
 20
-10.3683240857
 10
7.2312275857
 20
-10.3746966515
  0
LINE
  5
472
100
AcDbEntity
  8
IMPORT_IGES
100
AcDbLine
 62
253
  6
CONTINUOUS
 10
7.2426046755
 20
-10.3330677013
 11
7.245507812
 21
-10.3156043117
  0
LINE
  5
473
100
AcDbEntity
  8
IMPORT_IGES
100
AcDbLine
 62
7
  6
CONTINUOUS
 10
7.3
 20
8.8249855001
 11
7.2453686344
 21
8.8249855001
  0
LINE
  5
474
100
AcDbEntity
  8
IMPORT_IGES
100
AcDbLine
 62
7
  6
CONTINUOUS
 10
-7.25
 20
8.8249855001
 11
-7.3
 21
8.8249855001
  0
LINE
  5
475
100
AcDbEntity
  8
IMPORT_IGES
100
AcDbLine
 62
253
  6
CONTINUOUS
 10
7.25
 20
9.0249855001
 11
7.2467897109
 21
9.0249855001
  0
LINE
  5
476
100
AcDbEntity
  8
IMPORT_IGES
100
AcDbLine
 62
253
  6
CONTINUOUS
 10
-7.2467897109
 20
9.0249855001
 11
-7.25
 21
9.0249855001
  0
LINE
  5
477
100
AcDbEntity
  8
IMPORT_IGES
100
AcDbLine
 62
7
  6
CONTINUOUS
 10
-5.6240911927
 20
9.0749855001
 11
5.6240911927
 21
9.0749855001
  0
LINE
  5
478
100
AcDbEntity
  8
IMPORT_IGES
100
AcDbLine
 62
253
  6
CONTINUOUS
 10
6.9455573994
 20
9.0906709248
 11
5.6240911927
 21
9.0906709251
  0
LINE
  5
479
100
AcDbEntity
  8
IMPORT_IGES
100
AcDbLine
 62
253
  6
CONTINUOUS
 10
-5.6240911927
 20
9.0906709248
 11
-6.9455573994
 21
9.0906709246
  0
LINE
  5
47A
100
AcDbEntity
  8
IMPORT_IGES
100
AcDbLine
 62
253
  6
CONTINUOUS
 10
-7.3
 20
9.1249855001
 11
-7.2321894903
 21
9.1249855001
  0
LINE
  5
47B
100
AcDbEntity
  8
IMPORT_IGES
100
AcDbLine
 62
253
  6
CONTINUOUS
 10
-5.6240911927
 20
9.1249855001
 11
-5.5499745911
 21
9.1249855001
  0
LINE
  5
47C
100
AcDbEntity
  8
IMPORT_IGES
100
AcDbLine
 62
253
  6
CONTINUOUS
 10
5.5499745911
 20
9.1249855001
 11
5.6240911927
 21
9.1249855001
  0
LINE
  5
47D
100
AcDbEntity
  8
IMPORT_IGES
100
AcDbLine
 62
253
  6
CONTINUOUS
 10
7.2321897377
 20
9.1249855001
 11
7.3
 21
9.1249855001
  0
LINE
  5
47E
100
AcDbEntity
  8
IMPORT_IGES
100
AcDbLine
 62
253
  6
CONTINUOUS
 10
7.3
 20
9.1785461701
 11
7.9562164915
 21
9.1785544057
  0
LINE
  5
47F
100
AcDbEntity
  8
IMPORT_IGES
100
AcDbLine
 62
253
  6
CONTINUOUS
 10
-7.9562165431
 20
9.1785548714
 11
-7.3
 21
9.1785515931
  0
LINE
  5
480
100
AcDbEntity
  8
IMPORT_IGES
100
AcDbLine
 62
253
  6
CONTINUOUS
 10
-7.3
 20
9.2446007424
 11
-7.1535990706
 21
9.2446007424
  0
LINE
  5
481
100
AcDbEntity
  8
IMPORT_IGES
100
AcDbLine
 62
253
  6
CONTINUOUS
 10
-5.6278836289
 20
9.2446007424
 11
-5.5457666634
 21
9.2446007424
  0
LINE
  5
482
100
AcDbEntity
  8
IMPORT_IGES
100
AcDbLine
 62
253
  6
CONTINUOUS
 10
5.5457666634
 20
9.2446007424
 11
5.6278836289
 21
9.2446007424
  0
LINE
  5
483
100
AcDbEntity
  8
IMPORT_IGES
100
AcDbLine
 62
253
  6
CONTINUOUS
 10
7.1535997532
 20
9.2446007424
 11
7.3
 21
9.2446007424
  0
LINE
  5
484
100
AcDbEntity
  8
IMPORT_IGES
100
AcDbLine
 62
7
  6
CONTINUOUS
 10
-5.3705603202
 20
9.2750144999
 11
5.3705603201
 21
9.2750144999
  0
LINE
  5
485
100
AcDbEntity
  8
IMPORT_IGES
100
AcDbLine
 62
7
  6
CONTINUOUS
 10
-6.9467915462
 20
9.3249855001
 11
-5.6339652685
 21
9.3249855001
  0
LINE
  5
486
100
AcDbEntity
  8
IMPORT_IGES
100
AcDbLine
 62
7
  6
CONTINUOUS
 10
5.6339652685
 20
9.3249855001
 11
6.9467915386
 21
9.3249855001
  0
LINE
  5
487
100
AcDbEntity
  8
IMPORT_IGES
100
AcDbLine
 62
7
  6
CONTINUOUS
 10
7.3
 20
9.3249855001
 11
7.955194272
 21
9.3249855001
  0
LINE
  5
488
100
AcDbEntity
  8
IMPORT_IGES
100
AcDbLine
 62
7
  6
CONTINUOUS
 10
-7.3
 20
9.3249855001
 11
-7.9551942658
 21
9.3249855001
  0
LINE
  5
489
100
AcDbEntity
  8
IMPORT_IGES
100
AcDbLine
 62
253
  6
CONTINUOUS
 10
5.5404898347
 20
9.3946007424
 11
7.3
 21
9.3946007424
  0
LINE
  5
48A
100
AcDbEntity
  8
IMPORT_IGES
100
AcDbLine
 62
253
  6
CONTINUOUS
 10
-7.3
 20
9.3946005923
 11
-5.5404898347
 21
9.3946007424
  0
LINE
  5
48B
100
AcDbEntity
  8
IMPORT_IGES
100
AcDbLine
 62
253
  6
CONTINUOUS
 10
4.2884265578
 20
9.6088409764
 11
-4.288423525
 21
9.6088410223
  0
LWPOLYLINE
  5
48C
100
AcDbEntity
  8
IMPORT_IGES
100
AcDbPolyline
 62
253
  6
CONTINUOUS
 90
12
 70
0
 10
7.956216444
 20
9.1785544053
 10
7.9947302727
 20
9.1771280183
 10
8.032449736
 20
9.1722434109
 10
8.0687675866
 20
9.1640238057
 10
8.102936237
 20
9.1527133884
 10
8.1346316525
 20
9.1384967934
 10
8.1638224009
 20
9.1213417714
 10
8.1900898617
 20
9.1012919442
 10
8.2126569311
 20
9.0787094988
 10
8.2309233404
 20
9.0540240501
 10
8.2444610553
 20
9.0276701085
 10
8.2529622991
 20
9.0000503736
  0
LWPOLYLINE
  5
48D
100
AcDbEntity
  8
IMPORT_IGES
100
AcDbPolyline
 62
253
  6
CONTINUOUS
 90
13
 70
0
 10
-4.5217845696
 20
9.4255960492
 10
-4.5600479338
 20
9.4286557651
 10
-4.5975294801
 20
9.4362896165
 10
-4.6336314309
 20
9.4483170121
 10
-4.6676173623
 20
9.4643945508
 10
-4.6991675072
 20
9.4842683813
 10
-4.7282510423
 20
9.5079776889
 10
-4.754456277
 20
9.5354524268
 10
-4.7770176268
 20
9.5661925664
 10
-4.7953429322
 20
9.5996126668
 10
-4.8090085744
 20
9.63512698
 10
-4.8177088301
 20
9.6721963185
 10
-4.8211880569
 20
9.7101855747
  0
LINE
  5
48E
100
AcDbEntity
  8
IMPORT_IGES
100
AcDbLine
 62
253
  6
CONTINUOUS
 10
8.2529622991
 20
9.0000503736
 11
8.2561710503
 21
8.9716425956
  0
LWPOLYLINE
  5
48F
100
AcDbEntity
  8
IMPORT_IGES
100
AcDbPolyline
 62
253
  6
CONTINUOUS
 90
3
 70
0
 10
7.233392767
 20
-10.3683240857
 10
7.2372753729
 20
-10.3526602134
 10
7.2449310368
 20
-10.3141723575
  0
LWPOLYLINE
  5
490
100
AcDbEntity
  8
IMPORT_IGES
100
AcDbPolyline
 62
7
  6
CONTINUOUS
 90
29
 70
0
 10
7.2312275857
 20
-10.3746966515
 10
7.228716808
 20
-10.3815554769
 10
7.2256033261
 20
-10.3894150469
 10
7.2220355376
 20
-10.3977074887
 10
7.2183907727
 20
-10.405535801
 10
7.2151025005
 20
-10.4121326483
 10
7.2118407127
 20
-10.418302285
 10
7.2078074295
 20
-10.4254843325
 10
7.2024972817
 20
-10.4342918391
 10
7.1961819344
 20
-10.4439535199
 10
7.1891775259
 20
-10.4537999323
 10
7.1812124075
 20
-10.4640606745
 10
7.1724513792
 20
-10.4743717009
 10
7.1641189433
 20
-10.4833646674
 10
7.1573050906
 20
-10.4902001728
 10
7.1512126998
 20
-10.4959551995
 10
7.1442585477
 20
-10.5021466468
 10
7.135895504
 20
-10.5091024876
 10
7.1265384181
 20
-10.5163045386
 10
7.1158934754
 20
-10.5238173973
 10
7.1038717708
 20
-10.5315073929
 10
7.0904234319
 20
-10.5391980079
 10
7.0752826912
 20
-10.5468017603
 10
7.0582860688
 20
-10.5541148838
 10
7.0394894236
 20
-10.5608109386
 10
7.0189761402
 20
-10.5665642631
 10
6.9968053459
 20
-10.5710634575
 10
6.973011512
 20
-10.5739937179
 10
6.9482875883
 20
-10.5750157859
  0
LWPOLYLINE
  5
491
100
AcDbEntity
  8
IMPORT_IGES
100
AcDbPolyline
 62
253
  6
CONTINUOUS
 90
10
 70
0
 10
-6.2231530928
 20
10.2663803983
 10
-6.2351774468
 20
10.266079153
 10
-6.2468007195
 20
10.2651652386
 10
-6.2580229109
 20
10.2636386549
 10
-6.2688661981
 20
10.2614410912
 10
-6.2793084039
 20
10.2586308584
 10
-6.2892829967
 20
10.255382889
 10
-6.2987677994
 20
10.251755494
 10
-6.3077849891
 20
10.2476903625
 10
-6.3163345658
 20
10.2431874944
  0
LINE
  5
492
100
AcDbEntity
  8
IMPORT_IGES
100
AcDbLine
 62
253
  6
CONTINUOUS
 10
5.4957561954
 20
10.2571761137
 11
6.2231530897
 21
10.2663800179
  0
LINE
  5
493
100
AcDbEntity
  8
IMPORT_IGES
100
AcDbLine
 62
253
  6
CONTINUOUS
 10
-4.2883789626
 20
10.11982767
 11
4.2883764011
 21
10.11982767
  0
LINE
  5
494
100
AcDbEntity
  8
IMPORT_IGES
100
AcDbLine
 62
7
  6
CONTINUOUS
 10
6.2231472838
 20
10.3249855001
 11
5.4893011036
 21
10.3249855001
  0
LINE
  5
495
100
AcDbEntity
  8
IMPORT_IGES
100
AcDbLine
 62
7
  6
CONTINUOUS
 10
-5.4893011133
 20
10.3249855001
 11
-6.2231511741
 21
10.3249855001
  0
LINE
  5
496
100
AcDbEntity
  8
IMPORT_IGES
100
AcDbLine
 62
253
  6
CONTINUOUS
 10
5.4777260347
 20
10.4249854999
 11
5.999999714
 21
10.4249855001
  0
LINE
  5
497
100
AcDbEntity
  8
IMPORT_IGES
100
AcDbLine
 62
253
  6
CONTINUOUS
 10
-5.4777260405
 20
10.4249854999
 11
-5.9999997174
 21
10.4249855001
  0
LINE
  5
498
100
AcDbEntity
  8
IMPORT_IGES
100
AcDbLine
 62
7
  6
CONTINUOUS
 10
-5.8999977844
 20
10.5249855001
 11
-5.4619670385
 21
10.5249855001
  0
LINE
  5
499
100
AcDbEntity
  8
IMPORT_IGES
100
AcDbLine
 62
7
  6
CONTINUOUS
 10
5.4619670242
 20
10.5249855001
 11
5.8999901585
 21
10.5249855001
  0
LINE
  5
49A
100
AcDbEntity
  8
IMPORT_IGES
100
AcDbLine
 62
7
  6
CONTINUOUS
 10
-5.9228408224
 20
10.5249855001
 11
-5.9467065296
 21
10.5249855001
  0
LINE
  5
49B
100
AcDbEntity
  8
IMPORT_IGES
100
AcDbLine
 62
7
  6
CONTINUOUS
 10
5.4226866561
 20
10.6250145005
 11
4.9273029486
 21
10.6250145005
  0
LINE
  5
49C
100
AcDbEntity
  8
IMPORT_IGES
100
AcDbLine
 62
7
  6
CONTINUOUS
 10
-4.9273029486
 20
10.6250145005
 11
-5.4226866561
 21
10.6250145005
  0
LINE
  5
49D
100
AcDbEntity
  8
IMPORT_IGES
100
AcDbLine
 62
253
  6
CONTINUOUS
 10
-6.2231530928
 20
10.2663803983
 11
-5.4957602585
 21
10.2571320397
  0
LWPOLYLINE
  5
49E
100
AcDbEntity
  8
IMPORT_IGES
100
AcDbPolyline
 62
253
  6
CONTINUOUS
 90
10
 70
0
 10
4.2884265578
 20
9.6088409764
 10
4.3319532801
 20
9.5916735579
 10
4.3711987633
 20
9.5736596913
 10
4.4061630076
 20
9.5547993766
 10
4.4370037124
 20
9.5350283928
 10
4.4635631783
 20
9.5144109609
 10
4.4853683067
 20
9.4931397443
 10
4.5022613984
 20
9.471278964
 10
4.5144001527
 20
9.4487643991
 10
4.5217845696
 20
9.4255960494
  0
LWPOLYLINE
  5
49F
100
AcDbEntity
  8
0
100
AcDbPolyline
 62
7
  6
CONTINUOUS
 90
10
 70
0
 43
0.3500000006
 10
0.6428571367
 20
21.0250128937
 10
0.7142856996
 20
20.8821595917
 10
0.7142856996
 20
20.8107284088
 10
0.5714285738
 20
20.667870575
 10
0.500000011
 20
20.667870575
 10
0.4285714127
 20
20.7393017578
 10
0.4285714127
 20
20.8107284088
 10
0.500000011
 20
20.9535862427
 10
0.5714285738
 20
21.0250128937
 10
0.6428571367
 20
21.0250128937
  0
LWPOLYLINE
  5
4A0
100
AcDbEntity
  8
IMPORT_IGES
100
AcDbPolyline
 62
253
  6
CONTINUOUS
 90
3
 70
0
 10
7.2183907727
 20
-10.405535801
 10
7.2246615616
 20
-10.3898195296
 10
7.2312275857
 20
-10.3746966515
  0
LWPOLYLINE
  5
4A1
100
AcDbEntity
  8
IMPORT_IGES
100
AcDbPolyline
 62
253
  6
CONTINUOUS
 90
13
 70
0
 10
-4.5217845696
 20
10.5978580375
 10
-4.559870619
 20
10.5948279399
 10
-4.5973389217
 20
10.5881751335
 10
-4.633581751
 20
10.5780075252
 10
-4.6680112567
 20
10.5644900311
 10
-4.7000690006
 20
10.5478419019
 10
-4.7292350137
 20
10.5283331662
 10
-4.7550362303
 20
10.506280251
 10
-4.7770541608
 20
10.4820408493
 10
-4.7949316797
 20
10.4560081183
 10
-4.8083788178
 20
10.4286043029
 10
-4.8171774658
 20
10.4002738862
 10
-4.8211849118
 20
10.3714763809
  0
LWPOLYLINE
  5
4A2
100
AcDbEntity
  8
IMPORT_IGES
100
AcDbPolyline
 62
253
  6
CONTINUOUS
 90
13
 70
0
 10
4.5217845696
 20
10.5978580375
 10
4.5595583142
 20
10.5948678383
 10
4.5965799342
 20
10.5883475288
 10
4.6322744863
 20
10.5784429492
 10
4.6659323864
 20
10.5654250699
 10
4.697244079
 20
10.5494910062
 10
4.7261804059
 20
10.5306119223
 10
4.7523472058
 20
10.5088478302
 10
4.7750061652
 20
10.484586741
 10
4.7935831005
 20
10.4582764627
 10
4.8076644302
 20
10.4303648788
 10
4.8169497113
 20
10.4012650859
 10
4.8211837424
 20
10.371461404
  0
LWPOLYLINE
  5
4A3
100
AcDbEntity
  8
IMPORT_IGES
100
AcDbPolyline
 62
253
  6
CONTINUOUS
 90
10
 70
0
 10
4.5100439642
 20
9.8934450552
 10
4.5686035832
 20
9.8759324586
 10
4.6215959763
 20
9.8576598279
 10
4.668775718
 20
9.8386271631
 10
4.7098398595
 20
9.8187703686
 10
4.7447438174
 20
9.7981535401
 10
4.7735482684
 20
9.7769689641
 10
4.7960621974
 20
9.7552807363
 10
4.8119984374
 20
9.7330247611
 10
4.8211843102
 20
9.7102010385
  0
LWPOLYLINE
  5
4A4
100
AcDbEntity
  8
IMPORT_IGES
100
AcDbPolyline
 62
253
  6
CONTINUOUS
 90
10
 70
0
 10
4.2884314973
 20
10.1198276699
 10
4.3189021375
 20
10.1043337074
 10
4.3489076499
 20
10.0856205885
 10
4.3779900065
 20
10.0639739651
 10
4.4057052713
 20
10.0397242683
 10
4.4316303766
 20
10.0132416647
 10
4.4553695811
 20
9.9849304056
 10
4.4765605108
 20
9.9552226565
 10
4.4948796906
 20
9.9245718999
 10
4.5100474822
 20
9.8934460132
  0
LINE
  5
4A5
100
AcDbEntity
  8
IMPORT_IGES
100
AcDbLine
 62
7
  6
CONTINUOUS
 10
7.3
 20
8.5949716988
 11
7.25
 21
8.6238392122
  0
LWPOLYLINE
  5
4A6
100
AcDbEntity
  8
0
100
AcDbPolyline
 62
7
  6
CONTINUOUS
 90
10
 70
0
 43
0.3500000006
 10
12.6728954201
 20
3.0000005951
 10
13.3157534065
 20
2.3571426086
 10
14.1728958778
 20
1.928571373
 10
15.244323967
 20
1.928571373
 10
15.6728963356
 20
2.3571426086
 10
15.6728963356
 20
3.0000005951
 10
15.244323967
 20
3.4285718307
 10
14.3871814957
 20
3.4285718307
 10
13.95861026
 20
3.0000005951
 10
13.95861026
 20
2.0714292068
  0
LWPOLYLINE
  5
4A7
100
AcDbEntity
  8
0
100
AcDbPolyline
 62
7
  6
CONTINUOUS
 90
5
 70
0
 43
0.3500000006
 10
13.95861026
 20
-1.0714295425
 10
13.7443246422
 20
-0.7142849579
 10
13.1014677887
 20
-0.7142849579
 10
12.6728954201
 20
-1.0714295425
 10
12.6728954201
 20
-1.9285708809
  0
LINE
  5
4A8
100
AcDbEntity
  8
IMPORT_IGES
100
AcDbLine
 62
253
  6
CONTINUOUS
 10
6.3767145042
 20
-10.5750144999
 11
6.2767144839
 21
-10.6750144999
  0
LINE
  5
4A9
100
AcDbEntity
  8
IMPORT_IGES
100
AcDbLine
 62
7
  6
CONTINUOUS
 10
7.2560670522
 20
-9.907793962
 11
7.25
 21
-9.9138610141
  0
LINE
  5
4AA
100
AcDbEntity
  8
IMPORT_IGES
100
AcDbLine
 62
7
  6
CONTINUOUS
 10
6.5888465143
 20
-10.5750144999
 11
6.4888465143
 21
-10.6750144999
  0
LINE
  5
4AB
100
AcDbEntity
  8
IMPORT_IGES
100
AcDbLine
 62
253
  6
CONTINUOUS
 10
6.7363156638
 20
-10.7018094191
 11
6.863110583
 21
-10.5750144999
  0
LINE
  5
4AC
100
AcDbEntity
  8
IMPORT_IGES
100
AcDbLine
 62
253
  6
CONTINUOUS
 10
7.2467997317
 20
-10.1913253512
 11
7.3
 21
-10.1381250829
  0
LWPOLYLINE
  5
4AD
100
AcDbEntity
  8
IMPORT_IGES
100
AcDbPolyline
 62
253
  6
CONTINUOUS
 90
9
 70
0
 10
7.061649089
 20
-10.5527636961
 10
7.0960195758
 20
-10.5361069416
 10
7.127862777
 20
-10.5153172104
 10
7.1571456649
 20
-10.4903506799
 10
7.183439115
 20
-10.4612776577
 10
7.2059498359
 20
-10.4286353392
 10
7.2240667008
 20
-10.3930579526
 10
7.2373560862
 20
-10.355184146
 10
7.2411951518
 20
-10.3398029349
  0
LINE
  5
4AE
100
AcDbEntity
  8
IMPORT_IGES
100
AcDbLine
 62
7
  6
CONTINUOUS
 10
4.9273029486
 20
11.7750144998
 11
-4.9273029486
 21
11.7750144998
  0
LWPOLYLINE
  5
4AF
100
AcDbEntity
  8
IMPORT_IGES
100
AcDbPolyline
 62
253
  6
CONTINUOUS
 90
10
 70
0
 10
6.3731322798
 20
10.2847995557
 10
6.3691152376
 20
10.2861172531
 10
6.3642665701
 20
10.2858776783
 10
6.3586751381
 20
10.2840321858
 10
6.352523888
 20
10.2806438965
 10
6.3459218276
 20
10.2758063249
 10
6.3388524799
 20
10.2695088849
 10
6.3314146111
 20
10.2618103886
 10
6.3238483558
 20
10.2529550092
 10
6.3163353159
 20
10.2431884351
  0
LWPOLYLINE
  5
4B0
100
AcDbEntity
  8
IMPORT_IGES
100
AcDbPolyline
 62
253
  6
CONTINUOUS
 90
10
 70
0
 10
6.3163353137
 20
10.2431884427
 10
6.3077839835
 20
10.2476912447
 10
6.2987650887
 20
10.2517562974
 10
6.2892786292
 20
10.2553836008
 10
6.2793019356
 20
10.258631476
 10
6.2688576773
 20
10.2614416019
 10
6.2580138627
 20
10.2636390154
 10
6.2467931613
 20
10.2651653953
 10
6.2351729036
 20
10.2660790628
 10
6.2231530897
 20
10.2663800179
  0
LINE
  5
4B1
100
AcDbEntity
  8
IMPORT_IGES
100
AcDbLine
 62
7
  6
CONTINUOUS
 10
6.3163353137
 20
10.2431884427
 11
6.8669558385
 21
9.9379004216
  0
LINE
  5
4B2
100
AcDbEntity
  8
IMPORT_IGES
100
AcDbLine
 62
7
  6
CONTINUOUS
 10
6.8669558385
 20
9.9379004216
 11
7.9661768769
 21
9.3247953248
  0
LINE
  5
4B3
100
AcDbEntity
  8
IMPORT_IGES
100
AcDbLine
 62
7
  6
CONTINUOUS
 10
8.1051667377
 20
9.2848090044
 11
6.3731322838
 21
10.2847995626
  0
LWPOLYLINE
  5
4B4
100
AcDbEntity
  8
0
100
AcDbPolyline
 62
7
  6
CONTINUOUS
 90
7
 70
0
 43
0.3500000006
 10
15.6728963356
 20
-2.7857144852
 10
15.6728963356
 20
-4.28571381
 10
13.5300390244
 20
-2.7857144852
 10
13.1014677887
 20
-2.7857144852
 10
12.6728954201
 20
-3.2142857208
 10
12.6728954201
 20
-3.8571425743
 10
13.3157534065
 20
-4.28571381
  0
LWPOLYLINE
  5
4B5
100
AcDbEntity
  8
0
100
AcDbPolyline
 62
7
  6
CONTINUOUS
 90
6
 70
0
 43
0.3500000006
 10
15.6728963356
 20
-1.9285708809
 10
15.6728963356
 20
-0.8571427917
 10
15.4586095848
 20
-0.642856041
 10
14.3871814957
 20
-0.642856041
 10
13.95861026
 20
-1.0714295425
 10
13.95861026
 20
-1.4999996452
  0
LINE
  5
4B6
100
AcDbEntity
  8
IMPORT_IGES
100
AcDbLine
 62
7
  6
CONTINUOUS
 10
7.0909282199
 20
-11.4871463566
 11
8.1686835139
 21
-10.4093910626
  0
LINE
  5
4B7
100
AcDbEntity
  8
IMPORT_IGES
100
AcDbLine
 62
253
  6
CONTINUOUS
 10
7.9585965776
 20
-10.3336842299
 11
7.3
 21
-10.99221829
  0
LWPOLYLINE
  5
4B8
100
AcDbEntity
  8
IMPORT_IGES
100
AcDbPolyline
 62
253
  6
CONTINUOUS
 90
13
 70
0
 10
8.1686835137
 20
-10.4093910628
 10
8.1552713651
 20
-10.4204023835
 10
8.1407426579
 20
-10.4280345636
 10
8.1254441785
 20
-10.432407061
 10
8.1100922343
 20
-10.4336106968
 10
8.094645513
 20
-10.4319608945
 10
8.0780354132
 20
-10.4275250666
 10
8.0597639779
 20
-10.4198439552
 10
8.0404052867
 20
-10.4087577929
 10
8.0203699613
 20
-10.3945523283
 10
7.9999602535
 20
-10.3773887494
 10
7.979296622
 20
-10.3570985088
 10
7.9585965776
 20
-10.3336842273
  0
LWPOLYLINE
  5
4B9
100
AcDbEntity
  8
0
100
AcDbPolyline
 62
7
  6
CONTINUOUS
 90
13
 70
0
 43
0.3500000006
 10
2.1428571696
 20
22.2393022156
 10
1.8571429181
 20
22.4535867004
 10
1.8571429181
 20
23.0964446869
 10
2.1428571696
 20
23.5250136566
 10
2.7857141647
 20
23.5250136566
 10
3.0714286995
 20
23.0964446869
 10
3.0714286995
 20
22.4535867004
 10
2.7857141647
 20
22.2393022156
 10
3.2142856836
 20
21.810728714
 10
3.2142856836
 20
20.9535862427
 10
2.7857141647
 20
20.5250127411
 10
2.1428571696
 20
20.5250127411
 10
1.7142856507
 20
20.9535862427
  0
LWPOLYLINE
  5
4BA
100
AcDbEntity
  8
0
100
AcDbPolyline
 62
7
  6
CONTINUOUS
 90
5
 70
0
 43
0.3500000006
 10
-42.5656977539
 20
32.2393007355
 10
-42.2085554352
 20
32.4535852203
 10
-42.2085554352
 20
33.0964432068
 10
-42.5656977539
 20
33.5250167084
 10
-43.4228402252
 20
33.5250167084
  0
LWPOLYLINE
  5
4BB
100
AcDbEntity
  8
IMPORT_IGES
100
AcDbPolyline
 62
253
  6
CONTINUOUS
 90
3
 70
0
 10
-57.7384107081
 20
-8.4591976025
 10
-57.7383029576
 20
-8.4669110804
 10
-57.738174968
 20
-8.4695091196
  0
LINE
  5
4BC
100
AcDbEntity
  8
IMPORT_IGES
100
AcDbLine
 62
253
  6
CONTINUOUS
 10
-57.7385585045
 20
-8.4290431479
 11
-57.7384107081
 21
-8.4591976025
  0
LINE
  5
4BD
100
AcDbEntity
  8
IMPORT_IGES
100
AcDbLine
 62
7
  6
CONTINUOUS
 10
-58.0371273237
 20
-8.1695109765
 11
-58.0371273237
 21
7.2194819768
  0
LINE
  5
4BE
100
AcDbEntity
  8
IMPORT_IGES
100
AcDbLine
 62
253
  6
CONTINUOUS
 10
-57.7381745191
 20
-8.1695109765
 11
-57.7385955987
 21
7.457489384
  0
LINE
  5
4BF
100
AcDbEntity
  8
IMPORT_IGES
100
AcDbLine
 62
253
  6
CONTINUOUS
 10
-57.7384086336
 20
-8.2466738806
 11
-57.7385585045
 21
-8.4290431479
  0
LINE
  5
4C0
100
AcDbEntity
  8
IMPORT_IGES
100
AcDbLine
 62
253
  6
CONTINUOUS
 10
-57.7381745191
 20
-8.1695109765
 11
-57.7384086336
 21
-8.2466738806
  0
LWPOLYLINE
  5
4C1
100
AcDbEntity
  8
IMPORT_IGES
100
AcDbPolyline
 62
253
  6
CONTINUOUS
 90
5
 70
0
 10
-57.7385955987
 20
7.457489384
 10
-57.7384955438
 20
7.4966430988
 10
-57.7384099671
 20
7.5092465732
 10
-57.7383025515
 20
7.5168998098
 10
-57.7381751619
 20
7.5194800903
  0
LWPOLYLINE
  5
4C2
100
AcDbEntity
  8
IMPORT_IGES
100
AcDbPolyline
 62
253
  6
CONTINUOUS
 90
10
 70
0
 10
-52.1905921799
 20
10.1198276699
 10
-52.204920763
 20
10.1043337074
 10
-52.2160256942
 20
10.0856205885
 10
-52.2237374591
 20
10.0639739651
 10
-52.2279383392
 20
10.0397242683
 10
-52.228564209
 20
10.0132416647
 10
-52.2256055147
 20
9.9849304056
 10
-52.2191074201
 20
9.9552226565
 10
-52.2091691173
 20
9.9245718999
 10
-52.1959423123
 20
9.8934460132
  0
LINE
  5
4C3
100
AcDbEntity
  8
IMPORT_IGES
100
AcDbLine
 62
7
  6
CONTINUOUS
 10
-50.2871273255
 20
11.7750144998
 11
-52.1905921798
 21
10.11982767
  0
LWPOLYLINE
  5
4C4
100
AcDbEntity
  8
IMPORT_IGES
100
AcDbPolyline
 62
253
  6
CONTINUOUS
 90
13
 70
0
 10
-51.4629624571
 20
9.7102010526
 10
-51.4748831432
 20
9.6738275007
 10
-51.4862513105
 20
9.6381973538
 10
-51.4968895727
 20
9.6038788769
 10
-51.5065874667
 20
9.5715721003
 10
-51.5152605857
 20
9.5415809903
 10
-51.5228965583
 20
9.5139348479
 10
-51.5293697044
 20
9.4890248478
 10
-51.5344706908
 20
9.4675788054
 10
-51.5380506692
 20
9.4501599088
 10
-51.5400143966
 20
9.4371708325
 10
-51.540301048
 20
9.4289019237
 10
-51.5388719726
 20
9.4255960494
  0
LINE
  5
4C5
100
AcDbEntity
  8
IMPORT_IGES
100
AcDbLine
 62
253
  6
CONTINUOUS
 10
-51.462981419
 20
10.3714620216
 11
-49.8488935786
 21
11.7750144998
  0
LINE
  5
4C6
100
AcDbEntity
  8
IMPORT_IGES
100
AcDbLine
 62
253
  6
CONTINUOUS
 10
-51.4629814189
 20
10.3714620216
 11
-51.5542740333
 21
10.3113845833
  0
LINE
  5
4C7
100
AcDbEntity
  8
IMPORT_IGES
100
AcDbLine
 62
253
  6
CONTINUOUS
 10
-52.1289483226
 20
9.9375109836
 11
-52.1959461681
 21
9.8934450552
  0
LINE
  5
4C8
100
AcDbEntity
  8
IMPORT_IGES
100
AcDbLine
 62
253
  6
CONTINUOUS
 10
-51.5542740333
 20
10.3113845833
 11
-52.1289483226
 21
9.9375109836
  0
LWPOLYLINE
  5
4C9
100
AcDbEntity
  8
IMPORT_IGES
100
AcDbPolyline
 62
253
  6
CONTINUOUS
 90
13
 70
0
 10
-52.1959423123
 20
9.8934460132
 10
-52.2007824906
 20
9.8553850751
 10
-52.202521294
 20
9.819755849
 10
-52.201297728
 20
9.7867521653
 10
-52.1972155484
 20
9.7558872957
 10
-52.1902838787
 20
9.727507446
 10
-52.1811871178
 20
9.7025307107
 10
-52.1703831409
 20
9.6802044363
 10
-52.157306147
 20
9.6600031776
 10
-52.1423998917
 20
9.6428340315
 10
-52.1262429252
 20
9.6287789443
 10
-52.1083853762
 20
9.6173658184
 10
-52.0886068954
 20
9.6088410239
  0
LINE
  5
4CA
100
AcDbEntity
  8
IMPORT_IGES
100
AcDbLine
 62
7
  6
CONTINUOUS
 10
-30.1485302579
 20
-11.5712229975
 11
-30.1205041464
 21
-11.5636521132
  0
LINE
  5
4CB
100
AcDbEntity
  8
IMPORT_IGES
100
AcDbLine
 62
7
  6
CONTINUOUS
 10
-50.1371273237
 20
-9.8250144998
 11
-52.5029976645
 21
-8.4877834376
  0
LWPOLYLINE
  5
4CC
100
AcDbEntity
  8
IMPORT_IGES
100
AcDbPolyline
 62
253
  6
CONTINUOUS
 90
13
 70
0
 10
-51.6408572572
 20
10.5978580375
 10
-51.6406490112
 20
10.5948678383
 10
-51.6373234777
 20
10.5883475288
 10
-51.6309710674
 20
10.5784429492
 10
-51.6217824742
 20
10.5654250699
 10
-51.6099095007
 20
10.5494910062
 10
-51.5953252259
 20
10.5306119223
 10
-51.578055706
 20
10.5088478302
 10
-51.5583927592
 20
10.484586741
 10
-51.5366929322
 20
10.4582764627
 10
-51.5133206691
 20
10.4303648788
 10
-51.4886149905
 20
10.4012650859
 10
-51.462980884
 20
10.371461404
  0
LINE
  5
4CD
100
AcDbEntity
  8
IMPORT_IGES
100
AcDbLine
 62
253
  6
CONTINUOUS
 10
-51.462981419
 20
10.3714620216
 11
-51.4629624145
 21
9.7102010385
  0
LWPOLYLINE
  5
4CE
100
AcDbEntity
  8
0
100
AcDbPolyline
 62
7
  6
CONTINUOUS
 90
10
 70
0
 43
0.3500000006
 10
-36.61926931
 20
20.5250127411
 10
-35.7621268387
 20
21.3821552124
 10
-35.5478423538
 20
22.2393022156
 10
-35.5478423538
 20
23.0964446869
 10
-35.9764135895
 20
23.5250136566
 10
-36.61926931
 20
23.5250136566
 10
-37.0478405457
 20
23.0964446869
 10
-37.0478405457
 20
22.2393022156
 10
-36.61926931
 20
21.810728714
 10
-35.6906979218
 20
21.810728714
  0
LWPOLYLINE
  5
4CF
100
AcDbEntity
  8
IMPORT_IGES
100
AcDbPolyline
 62
253
  6
CONTINUOUS
 90
6
 70
0
 10
-29.8700378543
 20
-11.2413373703
 10
-29.9074517985
 20
-11.2505896447
 10
-29.9441547491
 20
-11.263551166
 10
-29.9798416506
 20
-11.2801194868
 10
-30.0135973364
 20
-11.2999872647
 10
-30.0453692663
 20
-11.3230787742
  0
LWPOLYLINE
  5
4D0
100
AcDbEntity
  8
IMPORT_IGES
100
AcDbPolyline
 62
7
  6
CONTINUOUS
 90
10
 70
0
 10
-29.2223814023
 20
-11.291551042
 10
-29.1604449056
 20
-11.2849887714
 10
-29.0980352775
 20
-11.2717565873
 10
-29.0355860558
 20
-11.2521435728
 10
-28.9737833141
 20
-11.226776087
 10
-28.9126584025
 20
-11.1957554961
 10
-28.8523594775
 20
-11.1592721341
 10
-28.7937125225
 20
-11.1177647001
 10
-28.7369863897
 20
-11.0714433764
 10
-28.6836268341
 20
-11.0215283661
  0
LWPOLYLINE
  5
4D1
100
AcDbEntity
  8
IMPORT_IGES
100
AcDbPolyline
 62
253
  6
CONTINUOUS
 90
3
 70
0
 10
-29.7921618186
 20
-11.2336532198
 10
-29.831607861
 20
-11.2356918953
 10
-29.8700378543
 20
-11.2413373703
  0
LWPOLYLINE
  5
4D2
100
AcDbEntity
  8
IMPORT_IGES
100
AcDbPolyline
 62
7
  6
CONTINUOUS
 90
3
 70
0
 10
-30.1855150778
 20
-11.5750023619
 10
-30.177863911
 20
-11.5747776815
 10
-30.1485302579
 20
-11.5712229975
  0
LINE
  5
4D3
100
AcDbEntity
  8
IMPORT_IGES
100
AcDbLine
 62
7
  6
CONTINUOUS
 10
-38.987127032
 20
-11.7750144999
 11
-38.4871298777
 21
-11.7750144999
  0
LINE
  5
4D4
100
AcDbEntity
  8
IMPORT_IGES
100
AcDbLine
 62
7
  6
CONTINUOUS
 10
-32.287127032
 20
-11.7750144999
 11
-31.7871298777
 21
-11.7750144999
  0
LINE
  5
4D5
100
AcDbEntity
  8
IMPORT_IGES
100
AcDbLine
 62
7
  6
CONTINUOUS
 10
-33.9002659916
 20
-11.7750144999
 11
-36.9362875872
 21
-11.7750144999
  0
LINE
  5
4D6
100
AcDbEntity
  8
IMPORT_IGES
100
AcDbLine
 62
253
  6
CONTINUOUS
 10
-50.3371273237
 20
-9.7119710216
 11
-50.3371273237
 21
-8.4953437821
  0
LINE
  5
4D7
100
AcDbEntity
  8
IMPORT_IGES
100
AcDbLine
 62
7
  6
CONTINUOUS
 10
-49.8371273237
 20
-8.4970891184
 11
-49.8371273237
 21
-9.8250144999
  0
LINE
  5
4D8
100
AcDbEntity
  8
IMPORT_IGES
100
AcDbLine
 62
7
  6
CONTINUOUS
 10
-49.7871273251
 20
10.6250145005
 11
-49.7871273251
 21
11.7750144998
  0
LWPOLYLINE
  5
4D9
100
AcDbEntity
  8
0
100
AcDbPolyline
 62
7
  6
CONTINUOUS
 90
10
 70
0
 43
0.3500000006
 10
-31.9049834518
 20
23.5250136566
 10
-32.5478414383
 20
22.8821556702
 10
-32.976412674
 20
22.0250131989
 10
-32.976412674
 20
20.9535862427
 10
-32.5478414383
 20
20.5250127411
 10
-31.9049834518
 20
20.5250127411
 10
-31.4764122162
 20
20.9535862427
 10
-31.4764122162
 20
21.810728714
 10
-31.9049834518
 20
22.2393022156
 10
-32.8335548401
 20
22.2393022156
  0
LINE
  5
4DA
100
AcDbEntity
  8
IMPORT_IGES
100
AcDbLine
 62
7
  6
CONTINUOUS
 10
-29.2493258074
 20
-11.2922567845
 11
-29.2223814023
 21
-11.291551042
  0
LINE
  5
4DB
100
AcDbEntity
  8
IMPORT_IGES
100
AcDbLine
 62
253
  6
CONTINUOUS
 10
-29.7949356009
 20
-11.3750152648
 11
-29.9567552071
 21
-11.3760232832
  0
LINE
  5
4DC
100
AcDbEntity
  8
IMPORT_IGES
100
AcDbLine
 62
7
  6
CONTINUOUS
 10
-30.1876744045
 20
-11.575011909
 11
-30.1855192528
 21
-11.5749998877
  0
LINE
  5
4DD
100
AcDbEntity
  8
IMPORT_IGES
100
AcDbLine
 62
7
  6
CONTINUOUS
 10
-41.1302283068
 20
-11.276724456
 11
-41.4201754225
 21
-11.2773995163
  0
LINE
  5
4DE
100
AcDbEntity
  8
IMPORT_IGES
100
AcDbLine
 62
253
  6
CONTINUOUS
 10
-39.0871273237
 20
-11.6750144999
 11
-38.3871273237
 21
-11.6750144999
  0
LINE
  5
4DF
100
AcDbEntity
  8
IMPORT_IGES
100
AcDbLine
 62
253
  6
CONTINUOUS
 10
-32.3871273237
 20
-11.6750144999
 11
-31.6871273237
 21
-11.6750144999
  0
LINE
  5
4E0
100
AcDbEntity
  8
IMPORT_IGES
100
AcDbLine
 62
7
  6
CONTINUOUS
 10
-29.4442341057
 20
-11.5750144999
 11
-40.430994571
 21
-11.5750144999
  0
LINE
  5
4E1
100
AcDbEntity
  8
IMPORT_IGES
100
AcDbLine
 62
253
  6
CONTINUOUS
 10
-30.1669276687
 20
-11.4871463566
 11
-40.6360198242
 21
-11.4871463566
  0
LINE
  5
4E2
100
AcDbEntity
  8
IMPORT_IGES
100
AcDbLine
 62
253
  6
CONTINUOUS
 10
-29.4442341049
 20
-11.3750144999
 11
-29.7949356051
 21
-11.3750145334
  0
LINE
  5
4E3
100
AcDbEntity
  8
IMPORT_IGES
100
AcDbLine
 62
7
  6
CONTINUOUS
 10
-29.2493194347
 20
-11.292231864
 11
-29.792169708
 21
-11.292231864
  0
LINE
  5
4E4
100
AcDbEntity
  8
IMPORT_IGES
100
AcDbLine
 62
253
  6
CONTINUOUS
 10
-29.2493194343
 20
-11.23365322
 11
-29.7921618186
 21
-11.2336532198
  0
LINE
  5
4E5
100
AcDbEntity
  8
IMPORT_IGES
100
AcDbLine
 62
253
  6
CONTINUOUS
 10
-28.4250725848
 20
-10.4093903576
 11
-42.7787679366
 21
-10.4093910611
  0
LINE
  5
4E6
100
AcDbEntity
  8
IMPORT_IGES
100
AcDbLine
 62
253
  6
CONTINUOUS
 10
-42.7787679349
 20
-10.202494755
 11
-28.4250572818
 21
-10.202494755
  0
LWPOLYLINE
  5
4E7
100
AcDbEntity
  8
IMPORT_IGES
100
AcDbPolyline
 62
7
  6
CONTINUOUS
 90
16
 70
0
 10
-41.4201754225
 20
-11.2780745765
 10
-41.4641050074
 20
-11.2769179593
 10
-41.5095967437
 20
-11.2734047361
 10
-41.5566506316
 20
-11.2675349068
 10
-41.6052615832
 20
-11.2593596046
 10
-41.6554346863
 20
-11.2488276963
 10
-41.7071852043
 20
-11.2357857828
 10
-41.7605251693
 20
-11.2202861095
 10
-41.8154425492
 20
-11.2022764309
 10
-41.8719165119
 20
-11.1814466116
 10
-41.9299748588
 20
-11.1578564646
 10
-41.9895897885
 20
-11.1314461768
 10
-42.0506570637
 20
-11.1017261729
 10
-42.1131419388
 20
-11.0685332613
 10
-42.1770791593
 20
-11.0320306337
 10
-42.2424687254
 20
-10.99221829
  0
LWPOLYLINE
  5
4E8
100
AcDbEntity
  8
IMPORT_IGES
100
AcDbPolyline
 62
253
  6
CONTINUOUS
 90
10
 70
0
 10
-42.7787679349
 20
-10.202494755
 10
-42.8161453798
 20
-10.1997421977
 10
-42.8534197623
 20
-10.1943135536
 10
-42.8905910823
 20
-10.1862088226
 10
-42.9276812853
 20
-10.1752525115
 10
-42.9646684259
 20
-10.1616201135
 10
-43.0014866675
 20
-10.1458381082
 10
-43.0381140647
 20
-10.1280819887
 10
-43.0745725631
 20
-10.1081762618
 10
-43.1108621625
 20
-10.0861209276
  0
LWPOLYLINE
  5
4E9
100
AcDbEntity
  8
IMPORT_IGES
100
AcDbPolyline
 62
253
  6
CONTINUOUS
 90
8
 70
0
 10
-44.5371273237
 20
-9.360751712
 10
-44.5345680369
 20
-9.3614341484
 10
-44.5269293999
 20
-9.362105231
 10
-44.5143352854
 20
-9.3627534768
 10
-44.4969922607
 20
-9.3633678396
 10
-44.4751922747
 20
-9.3639376764
 10
-44.4493130253
 20
-9.3644529896
 10
-44.3871511419
 20
-9.3652857402
  0
LINE
  5
4EA
100
AcDbEntity
  8
IMPORT_IGES
100
AcDbLine
 62
7
  6
CONTINUOUS
 10
-41.1302283068
 20
-11.276724456
 11
-40.430994571
 21
-11.5750144999
  0
LINE
  5
4EB
100
AcDbEntity
  8
IMPORT_IGES
100
AcDbLine
 62
7
  6
CONTINUOUS
 10
-46.3125825378
 20
-8.5093921506
 11
-44.453763782
 21
-9.5679483022
  0
LINE
  5
4EC
100
AcDbEntity
  8
IMPORT_IGES
100
AcDbLine
 62
253
  6
CONTINUOUS
 10
-44.5371273237
 20
-9.1758356037
 11
-46.233710023
 21
-8.2096692964
  0
LINE
  5
4ED
100
AcDbEntity
  8
IMPORT_IGES
100
AcDbLine
 62
253
  6
CONTINUOUS
 10
-41.4201754225
 20
-11.2773995163
 11
-42.7787679366
 21
-10.4093910611
  0
LINE
  5
4EE
100
AcDbEntity
  8
IMPORT_IGES
100
AcDbLine
 62
7
  6
CONTINUOUS
 10
-44.3987357626
 20
-9.6135020087
 11
-42.2424687254
 21
-10.99221829
  0
LINE
  5
4EF
100
AcDbEntity
  8
IMPORT_IGES
100
AcDbLine
 62
253
  6
CONTINUOUS
 10
-43.1108621625
 20
-10.0861209276
 11
-44.2371273237
 21
-9.3659874339
  0
LINE
  5
4F0
100
AcDbEntity
  8
0
100
AcDbLine
 62
7
  6
CONTINUOUS
 10
-49.057839318
 20
10.6250145005
 11
-49.057839318
 21
10.7250145005
  0
LINE
  5
4F1
100
AcDbEntity
  8
0
100
AcDbLine
 62
7
  6
CONTINUOUS
 10
-49.0341568762
 20
10.6250145005
 11
-49.0341568762
 21
10.7250145005
  0
LINE
  5
4F2
100
AcDbEntity
  8
0
100
AcDbLine
 62
7
  6
CONTINUOUS
 10
-49.0253562096
 20
10.6250145005
 11
-49.0253562096
 21
10.7250145005
  0
LINE
  5
4F3
100
AcDbEntity
  8
0
100
AcDbLine
 62
7
  6
CONTINUOUS
 10
-48.97238933
 20
10.6250145005
 11
-48.97238933
 21
10.7250145005
  0
LINE
  5
4F4
100
AcDbEntity
  8
0
100
AcDbLine
 62
7
  6
CONTINUOUS
 10
-48.9486670395
 20
10.6250145005
 11
-48.9486670395
 21
10.7250145005
  0
LINE
  5
4F5
100
AcDbEntity
  8
0
100
AcDbLine
 62
253
  6
CONTINUOUS
 10
-48.9390415775
 20
10.6250145005
 11
-48.9390415775
 21
10.7250145005
  0
LINE
  5
4F6
100
AcDbEntity
  8
0
100
AcDbLine
 62
253
  6
CONTINUOUS
 10
-48.8634524882
 20
10.6250145005
 11
-48.8634524882
 21
10.7250145005
  0
LINE
  5
4F7
100
AcDbEntity
  8
0
100
AcDbLine
 62
7
  6
CONTINUOUS
 10
-48.7351226525
 20
10.6250145005
 11
-48.7351226525
 21
10.7250145005
  0
LINE
  5
4F8
100
AcDbEntity
  8
0
100
AcDbLine
 62
7
  6
CONTINUOUS
 10
-48.5728778049
 20
10.6250145005
 11
-48.5728778049
 21
10.7250145005
  0
LINE
  5
4F9
100
AcDbEntity
  8
0
100
AcDbLine
 62
7
  6
CONTINUOUS
 10
-48.5521724505
 20
10.6250145005
 11
-48.5521724505
 21
10.7250145005
  0
LINE
  5
4FA
100
AcDbEntity
  8
0
100
AcDbLine
 62
253
  6
CONTINUOUS
 10
-48.5139739481
 20
10.6250145005
 11
-48.5139739481
 21
10.7250145005
  0
LINE
  5
4FB
100
AcDbEntity
  8
0
100
AcDbLine
 62
7
  6
CONTINUOUS
 10
-48.3762037125
 20
10.6250145005
 11
-48.3762037125
 21
10.7250145005
  0
LINE
  5
4FC
100
AcDbEntity
  8
IMPORT_IGES
100
AcDbLine
 62
7
  6
CONTINUOUS
 10
-48.0871273237
 20
4.2781145205
 11
-48.0871273237
 21
-5.2281435202
  0
LINE
  5
4FD
100
AcDbEntity
  8
ASSI
100
AcDbLine
 62
7
  6
CONTINUOUS
 10
-48.0871273237
 20
4.2781145205
 11
-48.0871273237
 21
-5.2281435202
  0
LINE
  5
4FE
100
AcDbEntity
  8
0
100
AcDbLine
 62
253
  6
CONTINUOUS
 10
-48.0797915284
 20
10.6250145005
 11
-48.0797915284
 21
10.7250145005
  0
LINE
  5
4FF
100
AcDbEntity
  8
0
100
AcDbLine
 62
253
  6
CONTINUOUS
 10
-47.9972184288
 20
10.6250145005
 11
-47.9972184288
 21
10.7250145005
  0
LINE
  5
500
100
AcDbEntity
  8
0
100
AcDbLine
 62
7
  6
CONTINUOUS
 10
-47.929555177
 20
10.6250145005
 11
-47.929555177
 21
10.7250145005
  0
LINE
  5
501
100
AcDbEntity
  8
0
100
AcDbLine
 62
7
  6
CONTINUOUS
 10
-47.9088498269
 20
10.6250145005
 11
-47.9088498269
 21
10.7250145005
  0
LINE
  5
502
100
AcDbEntity
  8
ASSI
100
AcDbLine
 62
253
  6
CONTINUOUS
 10
-47.8871273237
 20
-5.2281435202
 11
-47.8871273237
 21
4.2781145205
  0
LWPOLYLINE
  5
503
100
AcDbEntity
  8
0
100
AcDbPolyline
 62
7
  6
CONTINUOUS
 90
3
 70
0
 43
0.3500000006
 10
-38.2085542145
 20
30.8107269287
 10
-38.2799853973
 20
30.5964424438
 10
-38.4228432312
 20
30.3107267761
  0
LWPOLYLINE
  5
504
100
AcDbEntity
  8
IMPORT_IGES
100
AcDbPolyline
 62
7
  6
CONTINUOUS
 90
10
 70
0
 10
-44.1785464781
 20
7.8145335958
 10
-44.1902872354
 20
7.8013662175
 10
-44.2007545453
 20
7.7874767163
 10
-44.2099484081
 20
7.7728650922
 10
-44.2179148293
 20
7.7574171351
 10
-44.2246078032
 20
7.7412470551
 10
-44.2298893131
 20
7.7246974826
 10
-44.2337133531
 20
7.7078826278
 10
-44.2361259291
 20
7.6906882806
 10
-44.2371270409
 20
7.6731144409
  0
LINE
  5
505
100
AcDbEntity
  8
IMPORT_IGES
100
AcDbLine
 62
7
  6
CONTINUOUS
 10
-43.2335584181
 20
9.1785544057
 11
-44.8476360242
 21
7.5644767997
  0
LINE
  5
506
100
AcDbEntity
  8
IMPORT_IGES
100
AcDbLine
 62
253
  6
CONTINUOUS
 10
-44.1785464781
 20
7.8145335958
 11
-43.0214407016
 21
8.971641382
  0
LINE
  5
507
100
AcDbEntity
  8
IMPORT_IGES
100
AcDbLine
 62
253
  6
CONTINUOUS
 10
-44.7239857004
 20
7.2649102502
 11
-44.5371273237
 21
7.4517686269
  0
LINE
  5
508
100
AcDbEntity
  8
IMPORT_IGES
100
AcDbLine
 62
7
  6
CONTINUOUS
 10
-46.8760166537
 20
5.3319124493
 11
-48.0111189872
 21
4.4350414697
  0
LINE
  5
509
100
AcDbEntity
  8
IMPORT_IGES
100
AcDbLine
 62
253
  6
CONTINUOUS
 10
-47.8871273237
 20
4.2781145205
 11
-46.7520249901
 21
5.1749855001
  0
LWPOLYLINE
  5
50A
100
AcDbEntity
  8
IMPORT_IGES
100
AcDbPolyline
 62
7
  6
CONTINUOUS
 90
3
 70
0
 10
-38.2534387505
 20
10.31242847
 10
-38.2409631126
 20
10.3178355804
 10
-38.2277642489
 20
10.3218058605
  0
LWPOLYLINE
  5
50B
100
AcDbEntity
  8
IMPORT_IGES
100
AcDbPolyline
 62
253
  6
CONTINUOUS
 90
13
 70
0
 10
-42.7787679366
 20
-10.4093910611
 10
-42.8210487078
 20
-10.4204023835
 10
-42.8628320491
 20
-10.4280345636
 10
-42.9039726091
 20
-10.432407061
 10
-42.9436097678
 20
-10.4336106968
 10
-42.9824323063
 20
-10.4319608945
 10
-43.0225486443
 20
-10.4275250666
 10
-43.0648973989
 20
-10.4198439552
 10
-43.1080954759
 20
-10.4087577929
 10
-43.1507034651
 20
-10.3945523283
 10
-43.1921779816
 20
-10.3773887494
 10
-43.2327874241
 20
-10.3570985088
 10
-43.2723943916
 20
-10.3336842273
  0
LINE
  5
50C
100
AcDbEntity
  8
IMPORT_IGES
100
AcDbLine
 62
7
  6
CONTINUOUS
 10
-50.1371273237
 20
-9.8250144999
 11
-49.8371273237
 21
-9.8250144999
  0
LINE
  5
50D
100
AcDbEntity
  8
IMPORT_IGES
100
AcDbLine
 62
7
  6
CONTINUOUS
 10
-24.3871273237
 20
-8.8705166715
 11
-25.1670787593
 21
-8.8705166715
  0
LINE
  5
50E
100
AcDbEntity
  8
IMPORT_IGES
100
AcDbLine
 62
253
  6
CONTINUOUS
 10
-44.3147720347
 20
-9.3658090357
 11
-44.2371273237
 21
-9.3659874339
  0
LINE
  5
50F
100
AcDbEntity
  8
IMPORT_IGES
100
AcDbLine
 62
253
  6
CONTINUOUS
 10
-44.3871511419
 20
-9.3652857402
 11
-44.3147720347
 21
-9.3658090357
  0
LWPOLYLINE
  5
510
100
AcDbEntity
  8
IMPORT_IGES
100
AcDbPolyline
 62
253
  6
CONTINUOUS
 90
10
 70
0
 10
-30.1669279434
 20
-11.4871481305
 10
-30.1382096581
 20
-11.491315609
 10
-30.109434138
 20
-11.492202338
 10
-30.0817042865
 20
-11.4895895656
 10
-30.0564162118
 20
-11.4836324838
 10
-30.03407707
 20
-11.4746418746
 10
-30.0145283795
 20
-11.4625918489
 10
-29.9984943522
 20
-11.4478459656
 10
-29.9864611612
 20
-11.4309518547
 10
-29.9812372283
 20
-11.4200094609
  0
LINE
  5
511
100
AcDbEntity
  8
IMPORT_IGES
100
AcDbLine
 62
7
  6
CONTINUOUS
 10
-48.0111189872
 20
-5.3850704694
 11
-46.8760166536
 21
-6.281941449
  0
LINE
  5
512
100
AcDbEntity
  8
IMPORT_IGES
100
AcDbLine
 62
253
  6
CONTINUOUS
 10
-46.7520249901
 20
-6.1250144999
 11
-47.8871273237
 21
-5.2281435202
  0
LINE
  5
513
100
AcDbEntity
  8
0
100
AcDbLine
 62
253
  6
CONTINUOUS
 10
-47.8039435716
 20
10.6250145005
 11
-47.8039435716
 21
10.7250145005
  0
LINE
  5
514
100
AcDbEntity
  8
0
100
AcDbLine
 62
7
  6
CONTINUOUS
 10
-47.7809200024
 20
10.6250145005
 11
-47.7809200024
 21
10.7250145005
  0
LINE
  5
515
100
AcDbEntity
  8
0
100
AcDbLine
 62
7
  6
CONTINUOUS
 10
-47.503635593
 20
10.6250145005
 11
-47.503635593
 21
10.7250145005
  0
LINE
  5
516
100
AcDbEntity
  8
0
100
AcDbLine
 62
7
  6
CONTINUOUS
 10
-47.4917807633
 20
10.6250145005
 11
-47.4917807633
 21
10.7250145005
  0
LINE
  5
517
100
AcDbEntity
  8
0
100
AcDbLine
 62
7
  6
CONTINUOUS
 10
-47.2953310873
 20
10.6250145005
 11
-47.2953310873
 21
10.7250145005
  0
LINE
  5
518
100
AcDbEntity
  8
0
100
AcDbLine
 62
253
  6
CONTINUOUS
 10
-47.2450913876
 20
10.6250145005
 11
-47.2450913876
 21
10.7250145005
  0
LINE
  5
519
100
AcDbEntity
  8
0
100
AcDbLine
 62
7
  6
CONTINUOUS
 10
-47.1508945162
 20
10.6250145005
 11
-47.1508945162
 21
10.7250145005
  0
LINE
  5
51A
100
AcDbEntity
  8
0
100
AcDbLine
 62
7
  6
CONTINUOUS
 10
-47.1262578586
 20
10.6250145005
 11
-47.1262578586
 21
10.7250145005
  0
LINE
  5
51B
100
AcDbEntity
  8
0
100
AcDbLine
 62
7
  6
CONTINUOUS
 10
-47.083236119
 20
10.6250145005
 11
-47.083236119
 21
10.7250145005
  0
LINE
  5
51C
100
AcDbEntity
  8
IMPORT_IGES
100
AcDbLine
 62
253
  6
CONTINUOUS
 10
-46.7520249901
 20
5.3749855001
 11
-46.7520249901
 21
5.1749855001
  0
LINE
  5
51D
100
AcDbEntity
  8
IMPORT_IGES
100
AcDbLine
 62
253
  6
CONTINUOUS
 10
-46.7520249901
 20
-6.1250144999
 11
-46.7520249901
 21
-6.3250144999
  0
LINE
  5
51E
100
AcDbEntity
  8
0
100
AcDbLine
 62
7
  6
CONTINUOUS
 10
-46.4847990149
 20
10.6250145005
 11
-46.4847990149
 21
10.7250145005
  0
LINE
  5
51F
100
AcDbEntity
  8
0
100
AcDbLine
 62
7
  6
CONTINUOUS
 10
-46.4013669992
 20
10.6250145005
 11
-46.4013669992
 21
10.7250145005
  0
LINE
  5
520
100
AcDbEntity
  8
0
100
AcDbLine
 62
7
  6
CONTINUOUS
 10
-46.3832763344
 20
10.6250145005
 11
-46.3832763344
 21
10.7250145005
  0
LWPOLYLINE
  5
521
100
AcDbEntity
  8
IMPORT_IGES
100
AcDbPolyline
 62
253
  6
CONTINUOUS
 90
3
 70
0
 10
-38.291313811
 20
10.2695088849
 10
-38.3008178463
 20
10.2618103886
 10
-38.3089549658
 20
10.2529550092
  0
LWPOLYLINE
  5
522
100
AcDbEntity
  8
IMPORT_IGES
100
AcDbPolyline
 62
7
  6
CONTINUOUS
 90
3
 70
0
 10
-38.2759928325
 20
10.2975767099
 10
-38.2652113964
 20
10.3056097988
 10
-38.253732985
 20
10.3122796597
  0
LWPOLYLINE
  5
523
100
AcDbEntity
  8
IMPORT_IGES
100
AcDbPolyline
 62
253
  6
CONTINUOUS
 90
7
 70
0
 10
-26.3282563287
 20
-8.3716659834
 10
-26.3019618433
 20
-8.3711586094
 10
-26.2794495461
 20
-8.37058893
 10
-26.2613307918
 20
-8.369968009
 10
-26.2480395562
 20
-8.3693069897
 10
-26.2398864306
 20
-8.3686161764
 10
-26.2371273237
 20
-8.3679077183
  0
LINE
  5
524
100
AcDbEntity
  8
IMPORT_IGES
100
AcDbLine
 62
253
  6
CONTINUOUS
 10
-26.3893817325
 20
-8.3724644751
 11
-26.3282563287
 21
-8.3716659834
  0
LINE
  5
525
100
AcDbEntity
  8
IMPORT_IGES
100
AcDbLine
 62
253
  6
CONTINUOUS
 10
-26.4603170604
 20
-8.372968921
 11
-26.3893817325
 21
-8.3724644751
  0
LINE
  5
526
100
AcDbEntity
  8
IMPORT_IGES
100
AcDbLine
 62
253
  6
CONTINUOUS
 10
-26.5371273237
 20
-8.3731434396
 11
-26.4603170604
 21
-8.372968921
  0
LINE
  5
527
100
AcDbEntity
  8
IMPORT_IGES
100
AcDbLine
 62
7
  6
CONTINUOUS
 10
-21.0371273237
 20
-8.1061140738
 11
-20.4371273237
 21
-8.1061140738
  0
LINE
  5
528
100
AcDbEntity
  8
IMPORT_IGES
100
AcDbLine
 62
253
  6
CONTINUOUS
 10
-20.4371273237
 20
-7.2260491969
 11
-21.0371273237
 21
-7.2260491969
  0
LINE
  5
529
100
AcDbEntity
  8
IMPORT_IGES
100
AcDbLine
 62
7
  6
CONTINUOUS
 10
-57.7381745191
 20
-8.4695091488
 11
-46.3125825378
 21
-8.5093921506
  0
LINE
  5
52A
100
AcDbEntity
  8
IMPORT_IGES
100
AcDbLine
 62
253
  6
CONTINUOUS
 10
-46.233710023
 20
-8.2096692964
 11
-58.0371273237
 21
-8.1695109765
  0
LWPOLYLINE
  5
52B
100
AcDbEntity
  8
IMPORT_IGES
100
AcDbPolyline
 62
253
  6
CONTINUOUS
 90
10
 70
0
 10
-28.4250670126
 20
-10.4093924401
 10
-28.3728811455
 20
-10.4194734805
 10
-28.3177061462
 20
-10.4239938194
 10
-28.2601437125
 20
-10.4222891142
 10
-28.2000342725
 20
-10.4133807673
 10
-28.1391111387
 20
-10.396826322
 10
-28.0806692591
 20
-10.3734127235
 10
-28.0260287097
 20
-10.3437688027
 10
-27.9748519716
 20
-10.3076936739
 10
-27.9275668066
 20
-10.2654539827
  0
LINE
  5
52C
100
AcDbEntity
  8
0
100
AcDbLine
 62
7
  6
CONTINUOUS
 10
-46.3120383697
 20
10.6250145005
 11
-46.3120383697
 21
10.7250145005
  0
LINE
  5
52D
100
AcDbEntity
  8
0
100
AcDbLine
 62
7
  6
CONTINUOUS
 10
-46.250828393
 20
10.6250145005
 11
-46.250828393
 21
10.7250145005
  0
LINE
  5
52E
100
AcDbEntity
  8
0
100
AcDbLine
 62
7
  6
CONTINUOUS
 10
-46.1961782252
 20
10.7250145005
 11
-46.1961782252
 21
10.6250145005
  0
LINE
  5
52F
100
AcDbEntity
  8
0
100
AcDbLine
 62
7
  6
CONTINUOUS
 10
-46.1874557998
 20
10.6250145005
 11
-46.1874557998
 21
10.7250145005
  0
LINE
  5
530
100
AcDbEntity
  8
0
100
AcDbLine
 62
7
  6
CONTINUOUS
 10
-46.1254059899
 20
10.6250145005
 11
-46.1254059899
 21
10.7250145005
  0
LINE
  5
531
100
AcDbEntity
  8
0
100
AcDbLine
 62
7
  6
CONTINUOUS
 10
-46.0973645444
 20
10.6250145005
 11
-46.0973645444
 21
10.7250145005
  0
LINE
  5
532
100
AcDbEntity
  8
0
100
AcDbLine
 62
253
  6
CONTINUOUS
 10
-46.0887091285
 20
10.6250145005
 11
-46.0887091285
 21
10.7250145005
  0
LINE
  5
533
100
AcDbEntity
  8
0
100
AcDbLine
 62
253
  6
CONTINUOUS
 10
-46.0690409367
 20
10.6250145005
 11
-46.0690409367
 21
10.7250145005
  0
LINE
  5
534
100
AcDbEntity
  8
0
100
AcDbLine
 62
253
  6
CONTINUOUS
 10
-46.0072930763
 20
10.6250145005
 11
-46.0072930763
 21
10.7250145005
  0
LINE
  5
535
100
AcDbEntity
  8
0
100
AcDbLine
 62
253
  6
CONTINUOUS
 10
-45.8977746086
 20
10.6250145005
 11
-45.8977746086
 21
10.7250145005
  0
LINE
  5
536
100
AcDbEntity
  8
0
100
AcDbLine
 62
253
  6
CONTINUOUS
 10
-45.7299968971
 20
10.6250145005
 11
-45.7299968971
 21
10.7250145005
  0
LINE
  5
537
100
AcDbEntity
  8
0
100
AcDbLine
 62
7
  6
CONTINUOUS
 10
-45.6751334206
 20
10.6250145005
 11
-45.6751334206
 21
10.7250145005
  0
LINE
  5
538
100
AcDbEntity
  8
0
100
AcDbLine
 62
7
  6
CONTINUOUS
 10
-45.6449559799
 20
10.6250145005
 11
-45.6449559799
 21
10.7250145005
  0
LINE
  5
539
100
AcDbEntity
  8
0
100
AcDbLine
 62
7
  6
CONTINUOUS
 10
-45.582642938
 20
10.6250145005
 11
-45.582642938
 21
10.7250145005
  0
LINE
  5
53A
100
AcDbEntity
  8
0
100
AcDbLine
 62
7
  6
CONTINUOUS
 10
-45.5571865309
 20
10.6250145005
 11
-45.5571865309
 21
10.7250145005
  0
LINE
  5
53B
100
AcDbEntity
  8
0
100
AcDbLine
 62
253
  6
CONTINUOUS
 10
-45.4650061962
 20
10.6250145005
 11
-45.4650061962
 21
10.7250145005
  0
LINE
  5
53C
100
AcDbEntity
  8
0
100
AcDbLine
 62
7
  6
CONTINUOUS
 10
-45.3991186314
 20
10.6250145005
 11
-45.3991186314
 21
10.7250145005
  0
LINE
  5
53D
100
AcDbEntity
  8
IMPORT_IGES
100
AcDbLine
 62
7
  6
CONTINUOUS
 10
-45.3371273237
 20
-2.8250144999
 11
-45.3371273237
 21
1.8749855001
  0
LINE
  5
53E
100
AcDbEntity
  8
0
100
AcDbLine
 62
7
  6
CONTINUOUS
 10
-45.2371523409
 20
10.6250145005
 11
-45.2371523409
 21
10.7250145005
  0
LINE
  5
53F
100
AcDbEntity
  8
0
100
AcDbLine
 62
7
  6
CONTINUOUS
 10
-45.2266218648
 20
10.6250145005
 11
-45.2266218648
 21
10.7250145005
  0
LINE
  5
540
100
AcDbEntity
  8
IMPORT_IGES
100
AcDbLine
 62
7
  6
CONTINUOUS
 10
-45.1871273237
 20
1.8156672794
 11
-45.1871273237
 21
-2.7656382791
  0
LINE
  5
541
100
AcDbEntity
  8
IMPORT_IGES
100
AcDbLine
 62
253
  6
CONTINUOUS
 10
-45.0271273237
 20
-2.7684310895
 11
-45.0271273237
 21
1.8184600898
  0
LINE
  5
542
100
AcDbEntity
  8
0
100
AcDbLine
 62
7
  6
CONTINUOUS
 10
-44.9401105441
 20
10.6250145005
 11
-44.9401105441
 21
10.7250145005
  0
LWPOLYLINE
  5
543
100
AcDbEntity
  8
IMPORT_IGES
100
AcDbPolyline
 62
253
  6
CONTINUOUS
 90
5
 70
0
 10
-44.3714684561
 20
2.9485878485
 10
-44.3803110199
 20
2.9332322647
 10
-44.3866723971
 20
2.9219750076
 10
-44.3904211085
 20
2.9150468241
 10
-44.3914760503
 20
2.9125947361
  0
LINE
  5
544
100
AcDbEntity
  8
IMPORT_IGES
100
AcDbLine
 62
253
  6
CONTINUOUS
 10
-44.3470185029
 20
2.9904234497
 11
-44.3714684561
 21
2.9485878485
  0
LINE
  5
545
100
AcDbEntity
  8
IMPORT_IGES
100
AcDbLine
 62
253
  6
CONTINUOUS
 10
-44.2967979459
 20
3.0752506032
 11
-44.3470185029
 21
2.9904234497
  0
LINE
  5
546
100
AcDbEntity
  8
IMPORT_IGES
100
AcDbLine
 62
253
  6
CONTINUOUS
 10
-44.2371273237
 20
3.1750783358
 11
-44.2967979459
 21
3.0752506032
  0
LWPOLYLINE
  5
547
100
AcDbEntity
  8
IMPORT_IGES
100
AcDbPolyline
 62
253
  6
CONTINUOUS
 90
8
 70
0
 10
-38.2006449955
 20
10.3249855
 10
-38.2010549809
 20
10.324478976
 10
-38.2018260294
 20
10.3229604383
 10
-38.202958141
 20
10.3204326726
 10
-38.2044542275
 20
10.3168995759
 10
-38.206311377
 20
10.3123719965
 10
-38.2085208542
 20
10.306873398
 10
-38.2172545162
 20
10.2847963668
  0
LINE
  5
548
100
AcDbEntity
  8
IMPORT_IGES
100
AcDbLine
 62
7
  6
CONTINUOUS
 10
-38.2859702506
 20
10.2881656535
 11
-38.2759712198
 21
10.2975947514
  0
LWPOLYLINE
  5
549
100
AcDbEntity
  8
IMPORT_IGES
100
AcDbPolyline
 62
253
  6
CONTINUOUS
 90
10
 70
0
 10
-28.8529148839
 20
9.2847931213
 10
-28.830892991
 20
9.2910890057
 10
-28.8088780887
 20
9.2953396832
 10
-28.7870498438
 20
9.2974639546
 10
-28.7654993447
 20
9.2973922339
 10
-28.7445158524
 20
9.2950598006
 10
-28.7245488045
 20
9.2905088872
 10
-28.7058251698
 20
9.2838509441
 10
-28.6883850986
 20
9.2751645124
 10
-28.6723440847
 20
9.2645563376
  0
LINE
  5
54A
100
AcDbEntity
  8
IMPORT_IGES
100
AcDbLine
 62
7
  6
CONTINUOUS
 10
-24.2720342783
 20
-7.0261152716
 11
-24.3477963686
 21
-7.0268089728
  0
LINE
  5
54B
100
AcDbEntity
  8
IMPORT_IGES
100
AcDbLine
 62
7
  6
CONTINUOUS
 10
-26.1673854701
 20
-7.0269134273
 11
-24.3477963686
 21
-7.0268089728
  0
LINE
  5
54C
100
AcDbEntity
  8
IMPORT_IGES
100
AcDbLine
 62
7
  6
CONTINUOUS
 10
-24.0871273237
 20
-6.7753122475
 11
-21.4371273237
 21
-6.7753122475
  0
LINE
  5
54D
100
AcDbEntity
  8
IMPORT_IGES
100
AcDbLine
 62
7
  6
CONTINUOUS
 10
-46.7520249901
 20
-6.3250144999
 11
-44.5871273237
 21
-6.3250144999
  0
LINE
  5
54E
100
AcDbEntity
  8
IMPORT_IGES
100
AcDbLine
 62
253
  6
CONTINUOUS
 10
-44.5871273237
 20
-6.1250144999
 11
-46.7520249901
 21
-6.1250144999
  0
LINE
  5
54F
100
AcDbEntity
  8
IMPORT_IGES
100
AcDbLine
 62
253
  6
CONTINUOUS
 10
-21.4371273237
 20
-5.7641887632
 11
-24.0871273237
 21
-5.7641887736
  0
LWPOLYLINE
  5
550
100
AcDbEntity
  8
IMPORT_IGES
100
AcDbPolyline
 62
253
  6
CONTINUOUS
 90
13
 70
0
 10
-21.0371273237
 20
-7.2260491969
 10
-21.0632325621
 20
-7.2246222853
 10
-21.0888911327
 20
-7.2203659653
 10
-21.1136640101
 20
-7.2133530638
 10
-21.1371273237
 20
-7.2037035734
 10
-21.1588796095
 20
-7.1915825996
 10
-21.1785486799
 20
-7.1771975356
 10
-21.1957979917
 20
-7.1607945138
 10
-21.2103324044
 20
-7.1426541946
 10
-21.2219032302
 20
-7.1230869637
 10
-21.2303124889
 20
-7.102427622
 10
-21.235416296
 20
-7.0810296565
 10
-21.2371273159
 20
-7.059305865
  0
LINE
  5
551
100
AcDbEntity
  8
IMPORT_IGES
100
AcDbLine
 62
253
  6
CONTINUOUS
 10
-44.3127179845
 20
-3.9667856064
 11
-44.2371273237
 21
-4.0985873301
  0
LWPOLYLINE
  5
552
100
AcDbEntity
  8
IMPORT_IGES
100
AcDbPolyline
 62
253
  6
CONTINUOUS
 90
7
 70
0
 10
-44.386955815
 20
-3.8334450415
 10
-44.3859516516
 20
-3.8358758351
 10
-44.3823579922
 20
-3.8427869783
 10
-44.3762334503
 20
-3.8540649831
 10
-44.3676795706
 20
-3.8695223497
 10
-44.3568426191
 20
-3.8888944006
 10
-44.3127179845
 20
-3.9667856064
  0
LINE
  5
553
100
AcDbEntity
  8
0
100
AcDbLine
 62
253
  6
CONTINUOUS
 10
-44.8672521541
 20
10.6250145005
 11
-44.8672521541
 21
10.7250145005
  0
LINE
  5
554
100
AcDbEntity
  8
0
100
AcDbLine
 62
7
  6
CONTINUOUS
 10
-44.6224266459
 20
10.6250145005
 11
-44.6224266459
 21
10.7250145005
  0
LINE
  5
555
100
AcDbEntity
  8
0
100
AcDbLine
 62
7
  6
CONTINUOUS
 10
-44.6066726849
 20
10.6250145005
 11
-44.6066726849
 21
10.7250145005
  0
LINE
  5
556
100
AcDbEntity
  8
IMPORT_IGES
100
AcDbLine
 62
7
  6
CONTINUOUS
 10
-44.5871273237
 20
-6.3250144999
 11
-44.5871273237
 21
-3.9009939686
  0
LINE
  5
557
100
AcDbEntity
  8
IMPORT_IGES
100
AcDbLine
 62
7
  6
CONTINUOUS
 10
-44.5871273237
 20
2.9509649689
 11
-44.5871273237
 21
5.3749855001
  0
LINE
  5
558
100
AcDbEntity
  8
IMPORT_IGES
100
AcDbLine
 62
7
  6
CONTINUOUS
 10
-44.5371273237
 20
7.6678792007
 11
-44.5371273237
 21
3.1698426138
  0
LINE
  5
559
100
AcDbEntity
  8
IMPORT_IGES
100
AcDbLine
 62
7
  6
CONTINUOUS
 10
-44.5371273237
 20
-4.0933516077
 11
-44.5371273237
 21
-9.360751712
  0
LINE
  5
55A
100
AcDbEntity
  8
IMPORT_IGES
100
AcDbLine
 62
7
  6
CONTINUOUS
 10
-44.4371273237
 20
-2.7787295778
 11
-44.4371273237
 21
1.8287585781
  0
LINE
  5
55B
100
AcDbEntity
  8
0
100
AcDbLine
 62
7
  6
CONTINUOUS
 10
-44.3658443694
 20
10.6250145005
 11
-44.3658443694
 21
10.7250145005
  0
LINE
  5
55C
100
AcDbEntity
  8
IMPORT_IGES
100
AcDbLine
 62
253
  6
CONTINUOUS
 10
-44.2371273237
 20
-4.0985873301
 11
-44.2371273237
 21
-9.3659874339
  0
LINE
  5
55D
100
AcDbEntity
  8
IMPORT_IGES
100
AcDbLine
 62
253
  6
CONTINUOUS
 10
-44.2371272344
 20
3.1750783358
 11
-44.2371270409
 21
7.6731144409
  0
LINE
  5
55E
100
AcDbEntity
  8
0
100
AcDbLine
 62
253
  6
CONTINUOUS
 10
-44.2254246267
 20
10.6250145005
 11
-44.2254246267
 21
10.7250145005
  0
LINE
  5
55F
100
AcDbEntity
  8
0
100
AcDbLine
 62
7
  6
CONTINUOUS
 10
-44.1916173979
 20
10.6250145005
 11
-44.1916173979
 21
10.7250145005
  0
LINE
  5
560
100
AcDbEntity
  8
0
100
AcDbLine
 62
7
  6
CONTINUOUS
 10
-44.1713103267
 20
10.6250145005
 11
-44.1713103267
 21
10.7250145005
  0
LINE
  5
561
100
AcDbEntity
  8
IMPORT_IGES
100
AcDbLine
 62
7
  6
CONTINUOUS
 10
-44.0371273237
 20
1.9406019978
 11
-44.0371273237
 21
-2.8906309975
  0
LINE
  5
562
100
AcDbEntity
  8
0
100
AcDbLine
 62
7
  6
CONTINUOUS
 10
-44.0346902898
 20
10.6250145005
 11
-44.0346902898
 21
10.7250145005
  0
LINE
  5
563
100
AcDbEntity
  8
0
100
AcDbLine
 62
7
  6
CONTINUOUS
 10
-43.8180440204
 20
10.6250145005
 11
-43.8180440204
 21
10.7250145005
  0
LINE
  5
564
100
AcDbEntity
  8
0
100
AcDbLine
 62
7
  6
CONTINUOUS
 10
-43.8049475446
 20
10.6250145005
 11
-43.8049475446
 21
10.7250145005
  0
LINE
  5
565
100
AcDbEntity
  8
0
100
AcDbLine
 62
253
  6
CONTINUOUS
 10
-43.6934347004
 20
10.6250145005
 11
-43.6934347004
 21
10.7250145005
  0
LINE
  5
566
100
AcDbEntity
  8
0
100
AcDbLine
 62
253
  6
CONTINUOUS
 10
-43.5618995944
 20
10.6250145005
 11
-43.5618995944
 21
10.7250145005
  0
LINE
  5
567
100
AcDbEntity
  8
0
100
AcDbLine
 62
7
  6
CONTINUOUS
 10
-43.5519693672
 20
10.6250145005
 11
-43.5519693672
 21
10.7250145005
  0
LWPOLYLINE
  5
568
100
AcDbEntity
  8
IMPORT_IGES
100
AcDbPolyline
 62
7
  6
CONTINUOUS
 90
4
 70
0
 10
-46.3125828632
 20
-8.5093919335
 10
-46.3121103691
 20
-8.5068554179
 10
-46.3102661718
 20
-8.4994493513
 10
-46.2971247431
 20
-8.4488153323
  0
LINE
  5
569
100
AcDbEntity
  8
IMPORT_IGES
100
AcDbLine
 62
7
  6
CONTINUOUS
 10
-46.2440823741
 20
-8.2496522427
 11
-46.233710023
 21
-8.2096692964
  0
LINE
  5
56A
100
AcDbEntity
  8
IMPORT_IGES
100
AcDbLine
 62
7
  6
CONTINUOUS
 10
-46.2971247431
 20
-8.4488153323
 11
-46.2740730137
 21
-8.3613237844
  0
LINE
  5
56B
100
AcDbEntity
  8
IMPORT_IGES
100
AcDbLine
 62
7
  6
CONTINUOUS
 10
-46.2740730137
 20
-8.3613237844
 11
-46.2440823741
 21
-8.2496522427
  0
LINE
  5
56C
100
AcDbEntity
  8
IMPORT_IGES
100
AcDbLine
 62
7
  6
CONTINUOUS
 10
-38.8458157653
 20
9.3247953248
 11
-38.3021915892
 21
10.2663800179
  0
LINE
  5
56D
100
AcDbEntity
  8
IMPORT_IGES
100
AcDbLine
 62
253
  6
CONTINUOUS
 10
-38.7717690351
 20
9.3909748235
 11
-38.3610810296
 21
10.0540326692
  0
LINE
  5
56E
100
AcDbEntity
  8
IMPORT_IGES
100
AcDbLine
 62
253
  6
CONTINUOUS
 10
-38.8379534668
 20
9.2848090044
 11
-38.7717690351
 21
9.3909748235
  0
LINE
  5
56F
100
AcDbEntity
  8
IMPORT_IGES
100
AcDbLine
 62
253
  6
CONTINUOUS
 10
-38.3610810296
 20
10.0540326692
 11
-38.2172545162
 21
10.2847995626
  0
LWPOLYLINE
  5
570
100
AcDbEntity
  8
IMPORT_IGES
100
AcDbPolyline
 62
7
  6
CONTINUOUS
 90
3
 70
0
 10
-38.3021915833
 20
10.2663800145
 10
-38.2947609685
 20
10.27768079
 10
-38.2859702506
 20
10.2881656535
  0
LINE
  5
571
100
AcDbEntity
  8
IMPORT_IGES
100
AcDbLine
 62
253
  6
CONTINUOUS
 10
-38.3089549658
 20
10.2529550092
 11
-38.3155812411
 21
10.2431884351
  0
LWPOLYLINE
  5
572
100
AcDbEntity
  8
IMPORT_IGES
100
AcDbPolyline
 62
253
  6
CONTINUOUS
 90
13
 70
0
 10
-21.0531999378
 20
-3.7382197803
 10
-21.0782562274
 20
-3.739930808
 10
-21.1028837971
 20
-3.7450346151
 10
-21.1266612622
 20
-3.7534438738
 10
-21.1491817838
 20
-3.7650146996
 10
-21.1700600294
 20
-3.7795491123
 10
-21.1889387664
 20
-3.7967984241
 10
-21.2054949744
 20
-3.8164674945
 10
-21.2194453721
 20
-3.8382197803
 10
-21.2305512643
 20
-3.8616830938
 10
-21.2386226262
 20
-3.8864559713
 10
-21.2435213544
 20
-3.9121145419
 10
-21.2451636304
 20
-3.9382197803
  0
LWPOLYLINE
  5
573
100
AcDbEntity
  8
IMPORT_IGES
100
AcDbPolyline
 62
253
  6
CONTINUOUS
 90
13
 70
0
 10
-20.4371273237
 20
-4.4172734291
 10
-20.4110220852
 20
-4.4170479908
 10
-20.3853635147
 20
-4.4163755332
 10
-20.3605906372
 20
-4.4152675622
 10
-20.3371273237
 20
-4.4137430355
 10
-20.3153750379
 20
-4.4118280383
 10
-20.2957059675
 20
-4.4095553365
 10
-20.2784566556
 20
-4.4069638169
 10
-20.2639222429
 20
-4.404097821
 10
-20.2523514172
 20
-4.4010063867
 10
-20.2439421584
 20
-4.3977424095
 10
-20.2388383514
 20
-4.3943617367
 10
-20.2371273237
 20
-4.3909222128
  0
LINE
  5
574
100
AcDbEntity
  8
IMPORT_IGES
100
AcDbLine
 62
253
  6
CONTINUOUS
 10
-48.0871273237
 20
-5.2281435202
 11
-47.8871273237
 21
-5.2281435202
  0
LINE
  5
575
100
AcDbEntity
  8
IMPORT_IGES
100
AcDbLine
 62
253
  6
CONTINUOUS
 10
-24.0871273237
 20
-4.5169696341
 11
-21.2371273237
 21
-4.5169696343
  0
LINE
  5
576
100
AcDbEntity
  8
IMPORT_IGES
100
AcDbLine
 62
253
  6
CONTINUOUS
 10
-21.0371273237
 20
-4.4172734291
 11
-20.4371273237
 21
-4.4172734292
  0
LINE
  5
577
100
AcDbEntity
  8
IMPORT_IGES
100
AcDbLine
 62
7
  6
CONTINUOUS
 10
-45.3371273237
 20
-2.0106078528
 11
-45.1871273237
 21
-2.0840642834
  0
LWPOLYLINE
  5
578
100
AcDbEntity
  8
IMPORT_IGES
100
AcDbPolyline
 62
7
  6
CONTINUOUS
 90
4
 70
0
 10
-42.6952071288
 20
-3.0262952293
 10
-42.6210603064
 20
-3.0703626533
 10
-42.580162311
 20
-3.0942889725
 10
-42.5371273237
 20
-3.1185873301
  0
LWPOLYLINE
  5
579
100
AcDbEntity
  8
IMPORT_IGES
100
AcDbPolyline
 62
7
  6
CONTINUOUS
 90
4
 70
0
 10
-42.8013041381
 20
-2.9632675134
 10
-42.7565992177
 20
-2.9901392452
 10
-42.7278664559
 20
-3.0071956983
 10
-42.6952071288
 20
-3.0262952293
  0
LWPOLYLINE
  5
57A
100
AcDbEntity
  8
IMPORT_IGES
100
AcDbPolyline
 62
7
  6
CONTINUOUS
 90
5
 70
0
 10
-42.8371273238
 20
-2.9400144996
 10
-42.8351244481
 20
-2.9416576846
 10
-42.8284541844
 20
-2.9461725591
 10
-42.817162851
 20
-2.9534681282
 10
-42.8013041381
 20
-2.9632675134
  0
LINE
  5
57B
100
AcDbEntity
  8
IMPORT_IGES
100
AcDbLine
 62
253
  6
CONTINUOUS
 10
-42.880020629
 20
9.3249855001
 11
-42.8800205447
 21
9.0302203777
  0
LINE
  5
57C
100
AcDbEntity
  8
IMPORT_IGES
100
AcDbLine
 62
7
  6
CONTINUOUS
 10
-42.8371273237
 20
1.9802220605
 11
-42.8371273237
 21
-2.9400149112
  0
LINE
  5
57D
100
AcDbEntity
  8
IMPORT_IGES
100
AcDbLine
 62
253
  6
CONTINUOUS
 10
-42.7787679366
 20
-10.4093903576
 11
-42.7787679349
 21
-10.202494755
  0
LINE
  5
57E
100
AcDbEntity
  8
IMPORT_IGES
100
AcDbLine
 62
253
  6
CONTINUOUS
 10
-42.5371273237
 20
2.1550783358
 11
-42.5371273237
 21
-0.5700144999
  0
LINE
  5
57F
100
AcDbEntity
  8
IMPORT_IGES
100
AcDbLine
 62
253
  6
CONTINUOUS
 10
-42.5371273237
 20
-0.6700144999
 11
-42.5371273237
 21
-3.1185873301
  0
LINE
  5
580
100
AcDbEntity
  8
0
100
AcDbLine
 62
7
  6
CONTINUOUS
 10
-42.4871273237
 20
10.6250145005
 11
-42.4871273237
 21
10.7250145005
  0
LINE
  5
581
100
AcDbEntity
  8
0
100
AcDbLine
 62
253
  6
CONTINUOUS
 10
-42.3649921036
 20
10.6250145005
 11
-42.3649921036
 21
10.7250145005
  0
LINE
  5
582
100
AcDbEntity
  8
0
100
AcDbLine
 62
253
  6
CONTINUOUS
 10
-42.0694760519
 20
10.6250145005
 11
-42.0694760519
 21
10.7250145005
  0
LINE
  5
583
100
AcDbEntity
  8
IMPORT_IGES
100
AcDbLine
 62
253
  6
CONTINUOUS
 10
-47.8871273237
 20
-5.2281435202
 11
-48.0111189872
 21
-5.3850704694
  0
LWPOLYLINE
  5
584
100
AcDbEntity
  8
IMPORT_IGES
100
AcDbPolyline
 62
7
  6
CONTINUOUS
 90
4
 70
0
 10
-42.8176086791
 20
1.9928702909
 10
-42.8287849598
 20
1.9859960068
 10
-42.8352568499
 20
1.9817557702
 10
-42.8371378267
 20
1.9800298873
  0
LINE
  5
585
100
AcDbEntity
  8
IMPORT_IGES
100
AcDbLine
 62
7
  6
CONTINUOUS
 10
-42.7555289925
 20
2.029719834
 11
-42.8176086791
 21
1.9928702909
  0
LWPOLYLINE
  5
586
100
AcDbEntity
  8
IMPORT_IGES
100
AcDbPolyline
 62
7
  6
CONTINUOUS
 90
4
 70
0
 10
-42.6189877777
 20
2.1090866701
 10
-42.6929735805
 20
2.0659080376
 10
-42.7261862009
 20
2.0468422784
 10
-42.7555289925
 20
2.029719834
  0
LWPOLYLINE
  5
587
100
AcDbEntity
  8
IMPORT_IGES
100
AcDbPolyline
 62
7
  6
CONTINUOUS
 90
3
 70
0
 10
-42.5371273119
 20
2.1550783555
 10
-42.5788922884
 20
2.1320574241
 10
-42.6189877777
 20
2.1090866701
  0
LINE
  5
588
100
AcDbEntity
  8
IMPORT_IGES
100
AcDbLine
 62
253
  6
CONTINUOUS
 10
-21.2451636307
 20
-3.9382197803
 11
-24.0871273237
 21
-3.9382197803
  0
LINE
  5
589
100
AcDbEntity
  8
IMPORT_IGES
100
AcDbLine
 62
7
  6
CONTINUOUS
 10
-20.4371273237
 20
-3.7382197803
 11
-24.0559127956
 21
-3.7382197803
  0
LINE
  5
58A
100
AcDbEntity
  8
IMPORT_IGES
100
AcDbLine
 62
7
  6
CONTINUOUS
 10
-23.7871273237
 20
-3.5700144999
 11
-20.5371273237
 21
-3.5700144999
  0
LINE
  5
58B
100
AcDbEntity
  8
IMPORT_IGES
100
AcDbLine
 62
7
  6
CONTINUOUS
 10
-44.0371273237
 20
-2.8906309975
 11
-44.5871273237
 21
-2.8906309975
  0
LINE
  5
58C
100
AcDbEntity
  8
IMPORT_IGES
100
AcDbLine
 62
253
  6
CONTINUOUS
 10
-44.2371273237
 20
-4.0985873301
 11
-44.3147190325
 21
-4.0984091797
  0
LINE
  5
58D
100
AcDbEntity
  8
IMPORT_IGES
100
AcDbLine
 62
253
  6
CONTINUOUS
 10
-44.3147190325
 20
-4.0984091797
 11
-44.3870955946
 21
-4.097886196
  0
LWPOLYLINE
  5
58E
100
AcDbEntity
  8
IMPORT_IGES
100
AcDbPolyline
 62
253
  6
CONTINUOUS
 90
8
 70
0
 10
-44.3870955946
 20
-4.097886196
 10
-44.4492873415
 20
-4.0970533342
 10
-44.4751807305
 20
-4.0965378353
 10
-44.496992539
 20
-4.0959677274
 10
-44.5143403051
 20
-4.0953531613
 10
-44.5269334602
 20
-4.0947048622
 10
-44.5345695136
 20
-4.0940338483
 10
-44.5371273237
 20
-4.0933516077
  0
LINE
  5
58F
100
AcDbEntity
  8
IMPORT_IGES
100
AcDbLine
 62
7
  6
CONTINUOUS
 10
-44.0371273237
 20
-2.7857116038
 11
-45.1871273237
 21
-2.7656382791
  0
LINE
  5
590
100
AcDbEntity
  8
IMPORT_IGES
100
AcDbLine
 62
7
  6
CONTINUOUS
 10
-45.3371273237
 20
-2.8250144999
 11
-44.5871273237
 21
-2.8906309975
  0
LINE
  5
591
100
AcDbEntity
  8
IMPORT_IGES
100
AcDbLine
 62
253
  6
CONTINUOUS
 10
-48.0111189872
 20
4.4350414697
 11
-47.8871273237
 21
4.2781145205
  0
LINE
  5
592
100
AcDbEntity
  8
0
100
AcDbLine
 62
253
  6
CONTINUOUS
 10
-41.809637694
 20
10.6250145005
 11
-41.809637694
 21
10.7250145005
  0
LINE
  5
593
100
AcDbEntity
  8
0
100
AcDbLine
 62
7
  6
CONTINUOUS
 10
-41.7116113263
 20
10.6250145005
 11
-41.7116113263
 21
10.7250145005
  0
LINE
  5
594
100
AcDbEntity
  8
0
100
AcDbLine
 62
253
  6
CONTINUOUS
 10
-41.475881775
 20
10.6250145005
 11
-41.475881775
 21
10.7250145005
  0
LINE
  5
595
100
AcDbEntity
  8
0
100
AcDbLine
 62
7
  6
CONTINUOUS
 10
-41.3067714515
 20
10.6250145005
 11
-41.3067714515
 21
10.7250145005
  0
LWPOLYLINE
  5
596
100
AcDbEntity
  8
0
100
AcDbPolyline
 62
7
  6
CONTINUOUS
 90
4
 70
0
 43
0.3500000006
 10
-41.2799863129
 20
32.8821587219
 10
-41.2799863129
 20
33.5250167084
 10
-39.7799858551
 20
33.5250167084
 10
-40.6371283264
 20
30.5250157928
  0
LINE
  5
597
100
AcDbEntity
  8
0
100
AcDbLine
 62
7
  6
CONTINUOUS
 10
-41.2683372872
 20
10.6250145005
 11
-41.2683372872
 21
10.7250145005
  0
LWPOLYLINE
  5
598
100
AcDbEntity
  8
0
100
AcDbPolyline
 62
7
  6
CONTINUOUS
 90
3
 70
0
 43
0.3500000006
 10
-33.9764129791
 20
20.8107284088
 10
-34.0478418961
 20
20.596443924
 10
-34.1906997299
 20
20.3107282562
  0
LINE
  5
599
100
AcDbEntity
  8
IMPORT_IGES
100
AcDbLine
 62
253
  6
CONTINUOUS
 10
-46.8760166536
 20
-6.281941449
 11
-46.7520249901
 21
-6.1250144999
  0
LWPOLYLINE
  5
59A
100
AcDbEntity
  8
IMPORT_IGES
100
AcDbPolyline
 62
253
  6
CONTINUOUS
 90
8
 70
0
 10
-24.2640716011
 20
0.466972787
 10
-24.2666017749
 20
0.4665034983
 10
-24.2736045974
 20
0.4639980709
 10
-24.2849083799
 20
0.4595234269
 10
-24.3001818429
 20
0.4532161545
 10
-24.3191776327
 20
0.4451824011
 10
-24.3419350834
 20
0.4354038832
 10
-24.3980530356
 20
0.4108850635
  0
LINE
  5
59B
100
AcDbEntity
  8
IMPORT_IGES
100
AcDbLine
 62
253
  6
CONTINUOUS
 10
-24.0871273237
 20
-2.5700144999
 11
-20.2371273237
 21
-2.5700144999
  0
LINE
  5
59C
100
AcDbEntity
  8
IMPORT_IGES
100
AcDbLine
 62
7
  6
CONTINUOUS
 10
-45.1871273237
 20
-2.5126659452
 11
-45.3371273237
 21
-2.5126659452
  0
LWPOLYLINE
  5
59D
100
AcDbEntity
  8
IMPORT_IGES
100
AcDbPolyline
 62
253
  6
CONTINUOUS
 90
10
 70
0
 10
-21.053199939
 20
-3.7382197803
 10
-21.0497576804
 20
-3.7385158946
 10
-21.0467357051
 20
-3.7394056735
 10
-21.0441340131
 20
-3.7408908291
 10
-21.0419608443
 20
-3.7429724105
 10
-21.0402079588
 20
-3.7456509668
 10
-21.0388506374
 20
-3.7489267111
 10
-21.0378806404
 20
-3.7527992056
 10
-21.0373062074
 20
-3.7572671865
 10
-21.0371273385
 20
-3.7623288477
  0
LWPOLYLINE
  5
59E
100
AcDbEntity
  8
IMPORT_IGES
100
AcDbPolyline
 62
253
  6
CONTINUOUS
 90
10
 70
0
 10
-21.2451636307
 20
-3.9382197803
 10
-21.243490945
 20
-3.9383981838
 10
-21.242008013
 20
-3.93897364
 10
-21.2407173329
 20
-3.9399461489
 10
-21.2396199736
 20
-3.9413092136
 10
-21.2387198236
 20
-3.9430693311
 10
-21.2380210886
 20
-3.9452459922
 10
-21.2375237662
 20
-3.9478456939
 10
-21.2372261474
 20
-3.9508619393
 10
-21.2371273237
 20
-3.9542906566
  0
LINE
  5
59F
100
AcDbEntity
  8
IMPORT_IGES
100
AcDbLine
 62
253
  6
CONTINUOUS
 10
-46.7520249901
 20
5.1749855001
 11
-46.8760166537
 21
5.3319124493
  0
LINE
  5
5A0
100
AcDbEntity
  8
IMPORT_IGES
100
AcDbLine
 62
7
  6
CONTINUOUS
 10
-44.8015282073
 20
7.4517066118
 11
-44.7879359783
 21
7.4191877844
  0
LINE
  5
5A1
100
AcDbEntity
  8
IMPORT_IGES
100
AcDbLine
 62
7
  6
CONTINUOUS
 10
-44.8391796949
 20
7.5432298356
 11
-44.8015282073
 21
7.4517066118
  0
LWPOLYLINE
  5
5A2
100
AcDbEntity
  8
IMPORT_IGES
100
AcDbPolyline
 62
7
  6
CONTINUOUS
 90
4
 70
0
 10
-44.7879359783
 20
7.4191877844
 10
-44.7578953536
 20
7.3456450077
 10
-44.7414482788
 20
7.3058303944
 10
-44.7239857004
 20
7.2649102502
  0
LWPOLYLINE
  5
5A3
100
AcDbEntity
  8
IMPORT_IGES
100
AcDbPolyline
 62
7
  6
CONTINUOUS
 90
3
 70
0
 10
-44.8476355784
 20
7.564476577
 10
-44.8467266573
 20
7.5621134577
 10
-44.8391796949
 20
7.5432298356
  0
LWPOLYLINE
  5
5A4
100
AcDbEntity
  8
IMPORT_IGES
100
AcDbPolyline
 62
253
  6
CONTINUOUS
 90
12
 70
0
 10
-23.8051011644
 20
-0.671068224
 10
-23.8377066625
 20
-0.6723036014
 10
-23.8702673159
 20
-0.6704622284
 10
-23.9021527167
 20
-0.6655085776
 10
-23.9324475396
 20
-0.6576247056
 10
-23.9609239315
 20
-0.6469790951
 10
-23.9879218727
 20
-0.6334162822
 10
-24.0129706231
 20
-0.6170165277
 10
-24.035436766
 20
-0.5981001206
 10
-24.0552070076
 20
-0.5766553462
 10
-24.0718753621
 20
-0.5529273424
 10
-24.0849601994
 20
-0.5275208756
  0
LINE
  5
5A5
100
AcDbEntity
  8
IMPORT_IGES
100
AcDbLine
 62
253
  6
CONTINUOUS
 10
-24.0871273237
 20
-1.1700144998
 11
-21.7871273237
 21
-1.1700144998
  0
LINE
  5
5A6
100
AcDbEntity
  8
IMPORT_IGES
100
AcDbLine
 62
7
  6
CONTINUOUS
 10
-27.8371273237
 20
-0.9700144999
 11
-27.9771273237
 21
-0.9700144999
  0
LINE
  5
5A7
100
AcDbEntity
  8
0
100
AcDbLine
 62
7
  6
CONTINUOUS
 10
-45.3371273237
 20
-0.9250144999
 11
-45.1871273237
 21
-0.9250144999
  0
LINE
  5
5A8
100
AcDbEntity
  8
IMPORT_IGES
100
AcDbLine
 62
7
  6
CONTINUOUS
 10
-28.2771273237
 20
-0.6700144999
 11
-42.8371273237
 21
-0.6700144999
  0
LINE
  5
5A9
100
AcDbEntity
  8
IMPORT_IGES
100
AcDbLine
 62
7
  6
CONTINUOUS
 10
-21.7871273237
 20
-0.5700144999
 11
-23.7886637051
 21
-0.5700144999
  0
LINE
  5
5AA
100
AcDbEntity
  8
IMPORT_IGES
100
AcDbLine
 62
7
  6
CONTINUOUS
 10
-42.8371273237
 20
-0.5700144999
 11
-24.0871273237
 21
-0.5700198368
  0
LINE
  5
5AB
100
AcDbEntity
  8
0
100
AcDbLine
 62
7
  6
CONTINUOUS
 10
-45.1871273237
 20
-0.4250144999
 11
-45.3371273237
 21
-0.4250144999
  0
LINE
  5
5AC
100
AcDbEntity
  8
IMPORT_IGES
100
AcDbLine
 62
253
  6
CONTINUOUS
 10
-20.2371273237
 20
-0.1700144999
 11
-21.2871273237
 21
-0.1700144997
  0
LINE
  5
5AD
100
AcDbEntity
  8
IMPORT_IGES
100
AcDbLine
 62
253
  6
CONTINUOUS
 10
-24.3069526605
 20
-0.3488872263
 11
-24.3871264866
 21
-0.3486967948
  0
LINE
  5
5AE
100
AcDbEntity
  8
IMPORT_IGES
100
AcDbLine
 62
253
  6
CONTINUOUS
 10
-24.2335009155
 20
-0.3494353762
 11
-24.3069526605
 21
-0.3488872263
  0
LWPOLYLINE
  5
5AF
100
AcDbEntity
  8
IMPORT_IGES
100
AcDbPolyline
 62
253
  6
CONTINUOUS
 90
9
 70
0
 10
-23.7871273237
 20
-0.7592931778
 10
-23.8264563026
 20
-0.757517393
 10
-23.8650386885
 20
-0.7522407708
 10
-23.9022162525
 20
-0.7435724123
 10
-23.9373401658
 20
-0.7316870341
 10
-23.9698462973
 20
-0.7167996858
 10
-23.9992475756
 20
-0.6991436627
 10
-24.0250441296
 20
-0.6790182899
 10
-24.0467971287
 20
-0.6567660366
  0
LINE
  5
5B0
100
AcDbEntity
  8
IMPORT_IGES
100
AcDbLine
 62
7
  6
CONTINUOUS
 10
-44.5871273237
 20
2.9509649689
 11
-42.8371273237
 21
1.9406019978
  0
LINE
  5
5B1
100
AcDbEntity
  8
IMPORT_IGES
100
AcDbLine
 62
7
  6
CONTINUOUS
 10
-44.3914760503
 20
2.9125947361
 11
-42.8371286327
 21
1.9799862855
  0
LINE
  5
5B2
100
AcDbEntity
  8
IMPORT_IGES
100
AcDbLine
 62
253
  6
CONTINUOUS
 10
-42.5371273237
 20
2.1550783358
 11
-44.2371272344
 21
3.1750783358
  0
LINE
  5
5B3
100
AcDbEntity
  8
IMPORT_IGES
100
AcDbLine
 62
253
  6
CONTINUOUS
 10
-29.227561873
 20
-11.2916867317
 11
-29.0906807144
 21
-11.4285678906
  0
LINE
  5
5B4
100
AcDbEntity
  8
IMPORT_IGES
100
AcDbLine
 62
253
  6
CONTINUOUS
 10
-44.2371273237
 20
-9.3659874339
 11
-44.3172389175
 21
-9.4905527644
  0
LINE
  5
5B5
100
AcDbEntity
  8
IMPORT_IGES
100
AcDbLine
 62
253
  6
CONTINUOUS
 10
-44.3172389175
 20
-9.4905527644
 11
-44.3505845112
 21
-9.5418698793
  0
LWPOLYLINE
  5
5B6
100
AcDbEntity
  8
IMPORT_IGES
100
AcDbPolyline
 62
253
  6
CONTINUOUS
 90
6
 70
0
 10
-44.3505845112
 20
-9.5418698793
 10
-44.3763284963
 20
-9.5810521193
 10
-44.3857828731
 20
-9.5952283374
 10
-44.3927354593
 20
-9.6054589869
 10
-44.3970758291
 20
-9.6115820933
 10
-44.3987357046
 20
-9.6135020457
  0
LWPOLYLINE
  5
5B7
100
AcDbEntity
  8
IMPORT_IGES
100
AcDbPolyline
 62
253
  6
CONTINUOUS
 90
6
 70
0
 10
-28.6723703769
 20
9.2645761532
 10
-28.6741516598
 20
9.2628772597
 10
-28.6788576222
 20
9.2572896026
 10
-28.6864536909
 20
9.2478480735
 10
-28.6968661496
 20
9.234640086
 10
-28.72548987
 20
9.1977421964
  0
LWPOLYLINE
  5
5B8
100
AcDbEntity
  8
IMPORT_IGES
100
AcDbPolyline
 62
7
  6
CONTINUOUS
 90
5
 70
0
 10
-26.307252794
 20
7.458079424
 10
-26.3061498754
 20
7.4587820115
 10
-26.3031465364
 20
7.4611675366
 10
-26.2983011032
 20
7.4651822521
 10
-26.2834424963
 20
7.4777046583
  0
LINE
  5
5B9
100
AcDbEntity
  8
IMPORT_IGES
100
AcDbLine
 62
7
  6
CONTINUOUS
 10
-42.8371273237
 20
-2.8906309975
 11
-44.5871273237
 21
-3.9009939686
  0
LINE
  5
5BA
100
AcDbEntity
  8
IMPORT_IGES
100
AcDbLine
 62
7
  6
CONTINUOUS
 10
-42.8371273238
 20
-2.9400144996
 11
-44.386955815
 21
-3.8334450415
  0
LINE
  5
5BB
100
AcDbEntity
  8
IMPORT_IGES
100
AcDbLine
 62
253
  6
CONTINUOUS
 10
-44.2371273237
 20
-4.0985873301
 11
-42.5371273237
 21
-3.1185873301
  0
LWPOLYLINE
  5
5BC
100
AcDbEntity
  8
IMPORT_IGES
100
AcDbPolyline
 62
253
  6
CONTINUOUS
 90
8
 70
0
 10
-25.6551372859
 20
3.5438662125
 10
-25.657667686
 20
3.5433966396
 10
-25.6646710869
 20
3.540890806
 10
-25.675975433
 20
3.5364157996
 10
-25.691248927
 20
3.5301084574
 10
-25.7102440036
 20
3.5220750138
 10
-25.7330004698
 20
3.512296935
 10
-25.7891162641
 20
3.487779067
  0
LINE
  5
5BD
100
AcDbEntity
  8
IMPORT_IGES
100
AcDbLine
 62
7
  6
CONTINUOUS
 10
-21.2871273237
 20
0.4299855001
 11
-20.5371273237
 21
0.4299855001
  0
LINE
  5
5BE
100
AcDbEntity
  8
IMPORT_IGES
100
AcDbLine
 62
253
  6
CONTINUOUS
 10
-23.78839535
 20
-0.5757298135
 11
-23.8256223662
 21
-0.5734527043
  0
LWPOLYLINE
  5
5BF
100
AcDbEntity
  8
IMPORT_IGES
100
AcDbPolyline
 62
253
  6
CONTINUOUS
 90
5
 70
0
 10
-27.9583441821
 20
-10.2373454635
 10
-27.9454256846
 20
-10.2496459846
 10
-27.9358504648
 20
-10.2585624014
 10
-27.9298363871
 20
-10.2638873425
 10
-27.9275644711
 20
-10.2654516473
  0
LINE
  5
5C0
100
AcDbEntity
  8
IMPORT_IGES
100
AcDbLine
 62
253
  6
CONTINUOUS
 10
-27.9928797908
 20
-10.2038822694
 11
-27.9583441821
 21
-10.2373454635
  0
LINE
  5
5C1
100
AcDbEntity
  8
IMPORT_IGES
100
AcDbLine
 62
253
  6
CONTINUOUS
 10
-28.0359392707
 20
-10.1616233501
 11
-27.9928797908
 21
-10.2038822694
  0
LWPOLYLINE
  5
5C2
100
AcDbEntity
  8
IMPORT_IGES
100
AcDbPolyline
 62
253
  6
CONTINUOUS
 90
3
 70
0
 10
-28.1397021968
 20
-10.0585610261
 10
-28.1124644347
 20
-10.0857471596
 10
-28.0359392707
 20
-10.1616233501
  0
LWPOLYLINE
  5
5C3
100
AcDbEntity
  8
0
100
AcDbPolyline
 62
7
  6
CONTINUOUS
 90
4
 70
0
 43
0.3500000006
 10
-37.2085561752
 20
30.9535847626
 10
-37.2085561752
 20
31.8107272339
 10
-36.7799849396
 20
32.2393007355
 10
-36.1371269531
 20
32.2393007355
  0
LINE
  5
5C4
100
AcDbEntity
  8
IMPORT_IGES
100
AcDbLine
 62
7
  6
CONTINUOUS
 10
-36.9356229844
 20
-11.5750144999
 11
-36.9356229844
 21
-11.7750144999
  0
LINE
  5
5C5
100
AcDbEntity
  8
IMPORT_IGES
100
AcDbLine
 62
253
  6
CONTINUOUS
 10
-36.8332970567
 20
-11.7750144999
 11
-36.8332971387
 21
-11.5750144999
  0
LINE
  5
5C6
100
AcDbEntity
  8
IMPORT_IGES
100
AcDbLine
 62
253
  6
CONTINUOUS
 10
-43.1108621625
 20
-10.0861209276
 11
-43.1909880886
 21
-10.2107084062
  0
LINE
  5
5C7
100
AcDbEntity
  8
IMPORT_IGES
100
AcDbLine
 62
253
  6
CONTINUOUS
 10
-43.1909880886
 20
-10.2107084062
 11
-43.2243056094
 21
-10.2619823326
  0
LWPOLYLINE
  5
5C8
100
AcDbEntity
  8
IMPORT_IGES
100
AcDbPolyline
 62
253
  6
CONTINUOUS
 90
6
 70
0
 10
-43.2243056094
 20
-10.2619823326
 10
-43.2500353998
 20
-10.3011434738
 10
-43.2594938572
 20
-10.3153263484
 10
-43.2664565081
 20
-10.3255725143
 10
-43.2708064367
 20
-10.331709919
 10
-43.2724705992
 20
-10.3336355038
  0
LINE
  5
5C9
100
AcDbEntity
  8
IMPORT_IGES
100
AcDbLine
 62
253
  6
CONTINUOUS
 10
-28.6311832555
 20
9.7649046864
 11
-28.5701844218
 21
9.8455102574
  0
LINE
  5
5CA
100
AcDbEntity
  8
IMPORT_IGES
100
AcDbLine
 62
253
  6
CONTINUOUS
 10
-28.7840355831
 20
9.121203378
 11
-28.8529149618
 21
9.0302211186
  0
LINE
  5
5CB
100
AcDbEntity
  8
IMPORT_IGES
100
AcDbLine
 62
253
  6
CONTINUOUS
 10
-28.5701844218
 20
9.8455102574
 11
-28.5349572201
 21
9.8916242809
  0
LINE
  5
5CC
100
AcDbEntity
  8
IMPORT_IGES
100
AcDbLine
 62
253
  6
CONTINUOUS
 10
-28.72548987
 20
9.1977421964
 11
-28.7840355831
 21
9.121203378
  0
LWPOLYLINE
  5
5CD
100
AcDbEntity
  8
IMPORT_IGES
100
AcDbPolyline
 62
253
  6
CONTINUOUS
 90
5
 70
0
 10
-28.5349572201
 20
9.8916242809
 10
-28.5199230158
 20
9.9110465377
 10
-28.5149836916
 20
9.9173109454
 10
-28.5119240131
 20
9.921070817
 10
-28.5108003951
 20
9.9222565381
  0
LINE
  5
5CE
100
AcDbEntity
  8
IMPORT_IGES
100
AcDbLine
 62
7
  6
CONTINUOUS
 10
-26.250455088
 20
7.5061326278
 11
-26.1942532536
 21
7.5554196591
  0
LWPOLYLINE
  5
5CF
100
AcDbEntity
  8
IMPORT_IGES
100
AcDbPolyline
 62
7
  6
CONTINUOUS
 90
3
 70
0
 10
-26.2834424963
 20
7.4777046583
 10
-26.2737129657
 20
7.4860367252
 10
-26.250455088
 20
7.5061326278
  0
LINE
  5
5D0
100
AcDbEntity
  8
IMPORT_IGES
100
AcDbLine
 62
253
  6
CONTINUOUS
 10
-25.8557862111
 20
3.4581897938
 11
-25.9284981268
 21
3.4255153059
  0
LINE
  5
5D1
100
AcDbEntity
  8
IMPORT_IGES
100
AcDbLine
 62
253
  6
CONTINUOUS
 10
-25.7891162641
 20
3.487779067
 11
-25.8557862111
 21
3.4581897938
  0
LINE
  5
5D2
100
AcDbEntity
  8
IMPORT_IGES
100
AcDbLine
 62
253
  6
CONTINUOUS
 10
-26.0344090548
 20
4.0911646085
 11
-26.1138293922
 21
4.0812754563
  0
LINE
  5
5D3
100
AcDbEntity
  8
IMPORT_IGES
100
AcDbLine
 62
253
  6
CONTINUOUS
 10
-25.9616280034
 20
4.0998544588
 11
-26.0344090548
 21
4.0911646085
  0
LINE
  5
5D4
100
AcDbEntity
  8
IMPORT_IGES
100
AcDbLine
 62
7
  6
CONTINUOUS
 10
-44.5871273237
 20
1.9406019978
 11
-45.3371273237
 21
1.8749855001
  0
LINE
  5
5D5
100
AcDbEntity
  8
IMPORT_IGES
100
AcDbLine
 62
7
  6
CONTINUOUS
 10
-45.1871273237
 20
1.8156672794
 11
-44.0371273237
 21
1.8357406041
  0
LINE
  5
5D6
100
AcDbEntity
  8
IMPORT_IGES
100
AcDbLine
 62
7
  6
CONTINUOUS
 10
-44.5871273237
 20
1.9406019978
 11
-44.0371273237
 21
1.9406019978
  0
LINE
  5
5D7
100
AcDbEntity
  8
IMPORT_IGES
100
AcDbLine
 62
253
  6
CONTINUOUS
 10
-23.8256223662
 20
-0.5734527043
 11
-23.8628890216
 21
-0.5664621225
  0
LWPOLYLINE
  5
5D8
100
AcDbEntity
  8
IMPORT_IGES
100
AcDbPolyline
 62
253
  6
CONTINUOUS
 90
6
 70
0
 10
-26.4283316064
 20
-8.6798696519
 10
-26.4128591985
 20
-8.6947752986
 10
-26.4004664528
 20
-8.7065575021
 10
-26.3913620984
 20
-8.7150178164
 10
-26.3856994787
 20
-8.7200137458
 10
-26.3835739683
 20
-8.7214611445
  0
LINE
  5
5D9
100
AcDbEntity
  8
IMPORT_IGES
100
AcDbLine
 62
253
  6
CONTINUOUS
 10
-44.3476124038
 20
7.981474666
 11
-44.3093455448
 21
7.9441788004
  0
LINE
  5
5DA
100
AcDbEntity
  8
IMPORT_IGES
100
AcDbLine
 62
253
  6
CONTINUOUS
 10
-26.4674255308
 20
-8.641740624
 11
-26.4283316064
 21
-8.6798696519
  0
LINE
  5
5DB
100
AcDbEntity
  8
IMPORT_IGES
100
AcDbLine
 62
253
  6
CONTINUOUS
 10
-44.3093455448
 20
7.9441788004
 11
-44.2346816137
 21
7.8704646355
  0
LINE
  5
5DC
100
AcDbEntity
  8
IMPORT_IGES
100
AcDbLine
 62
253
  6
CONTINUOUS
 10
-26.541219605
 20
-8.5688589919
 11
-26.4674255308
 21
-8.641740624
  0
LINE
  5
5DD
100
AcDbEntity
  8
IMPORT_IGES
100
AcDbLine
 62
253
  6
CONTINUOUS
 10
-44.2346816137
 20
7.8704646355
 11
-44.1785469806
 21
7.8145340982
  0
LINE
  5
5DE
100
AcDbEntity
  8
IMPORT_IGES
100
AcDbLine
 62
253
  6
CONTINUOUS
 10
-26.5957059674
 20
-8.5145647968
 11
-26.541219605
 21
-8.5688589919
  0
LINE
  5
5DF
100
AcDbEntity
  8
IMPORT_IGES
100
AcDbLine
 62
7
  6
CONTINUOUS
 10
-38.8432194367
 20
9.3067293689
 11
-38.8457179577
 21
9.3165180347
  0
LINE
  5
5E0
100
AcDbEntity
  8
IMPORT_IGES
100
AcDbLine
 62
7
  6
CONTINUOUS
 10
-38.8379534668
 20
9.2848248817
 11
-38.8432194367
 21
9.3067293689
  0
LWPOLYLINE
  5
5E1
100
AcDbEntity
  8
IMPORT_IGES
100
AcDbPolyline
 62
7
  6
CONTINUOUS
 90
5
 70
0
 10
-38.8457179577
 20
9.3165180347
 10
-38.8464328815
 20
9.3199035422
 10
-38.846663415
 20
9.3223353218
 10
-38.846473641
 20
9.3239332311
 10
-38.8464253789
 20
9.3240662036
  0
LINE
  5
5E2
100
AcDbEntity
  8
IMPORT_IGES
100
AcDbLine
 62
7
  6
CONTINUOUS
 10
-35.9453995194
 20
10.5249855001
 11
-35.9453995194
 21
10.3249855001
  0
LINE
  5
5E3
100
AcDbEntity
  8
IMPORT_IGES
100
AcDbLine
 62
7
  6
CONTINUOUS
 10
-35.8999073237
 20
10.5249855001
 11
-35.8999073237
 21
10.3249855001
  0
LINE
  5
5E4
100
AcDbEntity
  8
IMPORT_IGES
100
AcDbLine
 62
7
  6
CONTINUOUS
 10
-35.3181980508
 20
-11.7750144999
 11
-35.3181980508
 21
-11.5750144999
  0
LINE
  5
5E5
100
AcDbEntity
  8
IMPORT_IGES
100
AcDbLine
 62
7
  6
CONTINUOUS
 10
-35.3004414575
 20
-11.7750144999
 11
-35.3004346426
 21
-11.5750144999
  0
LINE
  5
5E6
100
AcDbEntity
  8
IMPORT_IGES
100
AcDbLine
 62
253
  6
CONTINUOUS
 10
-34.7121411395
 20
-11.7750144999
 11
-34.7121411395
 21
-11.5750144999
  0
LWPOLYLINE
  5
5E7
100
AcDbEntity
  8
IMPORT_IGES
100
AcDbPolyline
 62
253
  6
CONTINUOUS
 90
16
 70
0
 10
-29.7144771012
 20
10.3249855001
 10
-29.7152711902
 20
10.323242877
 10
-29.7155563442
 20
10.3183143469
 10
-29.715332563
 20
10.3106654255
 10
-29.7142291236
 20
10.3008298671
 10
-29.7126167491
 20
10.2892322801
 10
-29.7116076093
 20
10.2760529099
 10
-29.7111082492
 20
10.2614732877
 10
-29.7112121237
 20
10.2459072142
 10
-29.713311767
 20
10.2297858854
 10
-29.7177954026
 20
10.213730982
 10
-29.724274807
 20
10.1976912264
 10
-29.7329778432
 20
10.1809697755
 10
-29.7439804657
 20
10.1633768594
 10
-29.7572067201
 20
10.1453420297
 10
-29.7726566063
 20
10.1270100537
  0
LWPOLYLINE
  5
5E8
100
AcDbEntity
  8
IMPORT_IGES
100
AcDbPolyline
 62
253
  6
CONTINUOUS
 90
5
 70
0
 10
-26.4056595137
 20
7.5564872642
 10
-26.4047970974
 20
7.5574042906
 10
-26.4024845985
 20
7.5602492604
 10
-26.3987650012
 20
7.5649687619
 10
-26.3874467104
 20
7.5795922584
  0
LWPOLYLINE
  5
5E9
100
AcDbEntity
  8
IMPORT_IGES
100
AcDbPolyline
 62
253
  6
CONTINUOUS
 90
5
 70
0
 10
-26.6210539723
 20
7.7187985511
 10
-26.6202015009
 20
7.7196822784
 10
-26.6178775537
 20
7.72252737
 10
-26.6141374504
 20
7.7272640885
 10
-26.6028123631
 20
7.7418949801
  0
LWPOLYLINE
  5
5EA
100
AcDbEntity
  8
IMPORT_IGES
100
AcDbPolyline
 62
253
  6
CONTINUOUS
 90
7
 70
0
 10
-24.5279891831
 20
5.6788158132
 10
-24.5269988165
 20
5.6795752926
 10
-24.5242860745
 20
5.6820616536
 10
-24.5199125286
 20
5.6862170333
 10
-24.5140010224
 20
5.6919230974
 10
-24.5066430507
 20
5.6990903496
 10
-24.4760385601
 20
5.7292235935
  0
LWPOLYLINE
  5
5EB
100
AcDbEntity
  8
IMPORT_IGES
100
AcDbPolyline
 62
253
  6
CONTINUOUS
 90
7
 70
0
 10
-44.5371273237
 20
3.1698426138
 10
-44.5345344373
 20
3.170529496
 10
-44.5268183132
 20
3.1712033567
 10
-44.5141380282
 20
3.1718526788
 10
-44.4967460857
 20
3.1724661754
 10
-44.4749585562
 20
3.1730338905
 10
-44.4491278248
 20
3.1735471225
  0
LINE
  5
5EC
100
AcDbEntity
  8
IMPORT_IGES
100
AcDbLine
 62
253
  6
CONTINUOUS
 10
-44.4491278248
 20
3.1735471225
 11
-44.3871691028
 21
3.174376461
  0
LINE
  5
5ED
100
AcDbEntity
  8
IMPORT_IGES
100
AcDbLine
 62
253
  6
CONTINUOUS
 10
-44.3871691028
 20
3.174376461
 11
-44.3148982528
 21
3.1748993468
  0
LINE
  5
5EE
100
AcDbEntity
  8
IMPORT_IGES
100
AcDbLine
 62
253
  6
CONTINUOUS
 10
-44.3148982528
 20
3.1748993468
 11
-44.2371270409
 21
3.1750783358
  0
LINE
  5
5EF
100
AcDbEntity
  8
IMPORT_IGES
100
AcDbLine
 62
253
  6
CONTINUOUS
 10
-47.8871273237
 20
4.2781145205
 11
-48.0871273237
 21
4.2781145205
  0
LWPOLYLINE
  5
5F0
100
AcDbEntity
  8
IMPORT_IGES
100
AcDbPolyline
 62
253
  6
CONTINUOUS
 90
8
 70
0
 10
-24.0871273237
 20
-0.3539327445
 10
-24.0896487381
 20
-0.3532552509
 10
-24.0971280882
 20
-0.3525919676
 10
-24.1093780408
 20
-0.351953733
 10
-24.1260340846
 20
-0.3513538852
 10
-24.1468225086
 20
-0.3507981745
 10
-24.171787649
 20
-0.350287137
 10
-24.2335009155
 20
-0.3494353762
  0
LWPOLYLINE
  5
5F1
100
AcDbEntity
  8
IMPORT_IGES
100
AcDbPolyline
 62
253
  6
CONTINUOUS
 90
6
 70
0
 10
-23.8628890216
 20
-0.5664621225
 10
-23.899248045
 20
-0.5547573324
 10
-23.933418159
 20
-0.5387778406
 10
-23.9649629741
 20
-0.5189012791
 10
-23.9941304724
 20
-0.49494841
 10
-24.0201049272
 20
-0.4674325429
  0
LWPOLYLINE
  5
5F2
100
AcDbEntity
  8
IMPORT_IGES
100
AcDbPolyline
 62
253
  6
CONTINUOUS
 90
6
 70
0
 10
-44.3906809709
 20
8.0214318529
 10
-44.3886089527
 20
8.0200286505
 10
-44.3831122374
 20
8.0151883013
 10
-44.3743037896
 20
8.0070131785
 10
-44.3624109567
 20
7.9957178629
 10
-44.3476124038
 20
7.981474666
  0
LINE
  5
5F3
100
AcDbEntity
  8
IMPORT_IGES
100
AcDbLine
 62
253
  6
CONTINUOUS
 10
-43.1904187413
 20
9.1384967934
 11
-43.1522447161
 21
9.1012919442
  0
LINE
  5
5F4
100
AcDbEntity
  8
IMPORT_IGES
100
AcDbLine
 62
253
  6
CONTINUOUS
 10
-43.1522447161
 20
9.1012919442
 11
-43.0776738276
 21
9.0276701085
  0
LINE
  5
5F5
100
AcDbEntity
  8
IMPORT_IGES
100
AcDbLine
 62
253
  6
CONTINUOUS
 10
-43.0776738276
 20
9.0276701085
 11
-43.0214401991
 21
8.9716408797
  0
LINE
  5
5F6
100
AcDbEntity
  8
IMPORT_IGES
100
AcDbLine
 62
7
  6
CONTINUOUS
 10
-40.0648951129
 20
9.3249855001
 11
-40.2156208212
 21
9.5962940739
  0
LINE
  5
5F7
100
AcDbEntity
  8
IMPORT_IGES
100
AcDbLine
 62
7
  6
CONTINUOUS
 10
-33.9002678704
 20
-11.7750144999
 11
-33.9002678704
 21
-11.5750144999
  0
LINE
  5
5F8
100
AcDbEntity
  8
IMPORT_IGES
100
AcDbLine
 62
253
  6
CONTINUOUS
 10
-26.5862078159
 20
7.3221342779
 11
-26.5187357458
 21
7.4112658817
  0
LINE
  5
5F9
100
AcDbEntity
  8
IMPORT_IGES
100
AcDbLine
 62
253
  6
CONTINUOUS
 10
-26.5767703637
 20
7.7759857302
 11
-26.5307705532
 21
7.8367692822
  0
LINE
  5
5FA
100
AcDbEntity
  8
IMPORT_IGES
100
AcDbLine
 62
253
  6
CONTINUOUS
 10
-26.3613970598
 20
7.6136915174
 11
-26.3153949032
 21
7.6744781933
  0
LINE
  5
5FB
100
AcDbEntity
  8
IMPORT_IGES
100
AcDbLine
 62
253
  6
CONTINUOUS
 10
-26.6028123631
 20
7.7418949801
 11
-26.5767703637
 21
7.7759857302
  0
LINE
  5
5FC
100
AcDbEntity
  8
IMPORT_IGES
100
AcDbLine
 62
253
  6
CONTINUOUS
 10
-26.3874467104
 20
7.5795922584
 11
-26.3613970598
 21
7.6136915174
  0
LINE
  5
5FD
100
AcDbEntity
  8
IMPORT_IGES
100
AcDbLine
 62
253
  6
CONTINUOUS
 10
-26.5187357458
 20
7.4112658817
 11
-26.4614925307
 21
7.4861367628
  0
LWPOLYLINE
  5
5FE
100
AcDbEntity
  8
IMPORT_IGES
100
AcDbPolyline
 62
253
  6
CONTINUOUS
 90
6
 70
0
 10
-26.4614925307
 20
7.4861367628
 10
-26.4320639106
 20
7.5241185586
 10
-26.4210262258
 20
7.5381494068
 10
-26.4128195618
 20
7.5483832061
 10
-26.4076435372
 20
7.5545653107
 10
-26.405662615
 20
7.5564893385
  0
LWPOLYLINE
  5
5FF
100
AcDbEntity
  8
IMPORT_IGES
100
AcDbPolyline
 62
253
  6
CONTINUOUS
 90
5
 70
0
 10
-24.6293829856
 20
6.997398729
 10
-24.6305816578
 20
6.9961232721
 10
-24.6338696291
 20
6.992071062
 10
-24.6392038773
 20
6.9852932737
 10
-24.6557789899
 20
6.9638509341
  0
LINE
  5
600
100
AcDbEntity
  8
IMPORT_IGES
100
AcDbLine
 62
253
  6
CONTINUOUS
 10
-24.464723379
 20
0.3812955994
 11
-24.5374326319
 21
0.3486223006
  0
LINE
  5
601
100
AcDbEntity
  8
IMPORT_IGES
100
AcDbLine
 62
253
  6
CONTINUOUS
 10
-24.3980530356
 20
0.4108850635
 11
-24.464723379
 21
0.3812955994
  0
LINE
  5
602
100
AcDbEntity
  8
IMPORT_IGES
100
AcDbLine
 62
253
  6
CONTINUOUS
 10
-26.4288801374
 20
7.1974670735
 11
-26.5081638826
 21
7.1875945014
  0
LINE
  5
603
100
AcDbEntity
  8
IMPORT_IGES
100
AcDbLine
 62
253
  6
CONTINUOUS
 10
-26.3560506605
 20
7.2061633614
 11
-26.4288801374
 21
7.1974670735
  0
LINE
  5
604
100
AcDbEntity
  8
IMPORT_IGES
100
AcDbLine
 62
253
  6
CONTINUOUS
 10
-24.410149373
 20
5.2388608357
 11
-24.2101965763
 21
5.2432058417
  0
LINE
  5
605
100
AcDbEntity
  8
IMPORT_IGES
100
AcDbLine
 62
253
  6
CONTINUOUS
 10
-24.3314443133
 20
6.2205539347
 11
-24.2582670323
 21
6.221152169
  0
LINE
  5
606
100
AcDbEntity
  8
IMPORT_IGES
100
AcDbLine
 62
253
  6
CONTINUOUS
 10
-44.5871273237
 20
5.1749855001
 11
-46.7520249901
 21
5.1749855001
  0
LINE
  5
607
100
AcDbEntity
  8
IMPORT_IGES
100
AcDbLine
 62
7
  6
CONTINUOUS
 10
-44.5871273237
 20
5.3749855001
 11
-46.7520249901
 21
5.3749855001
  0
LWPOLYLINE
  5
608
100
AcDbEntity
  8
IMPORT_IGES
100
AcDbPolyline
 62
253
  6
CONTINUOUS
 90
8
 70
0
 10
-25.8162177384
 20
4.1138279624
 10
-25.8187962302
 20
4.1141736914
 10
-25.8262781954
 20
4.1138836725
 10
-25.838477545
 20
4.1129707332
 10
-25.8550331087
 20
4.1114677275
 10
-25.875674056
 20
4.1094030102
 10
-25.9004438161
 20
4.1067696543
 10
-25.9616280034
 20
4.0998544588
  0
LINE
  5
609
100
AcDbEntity
  8
IMPORT_IGES
100
AcDbLine
 62
7
  6
CONTINUOUS
 10
-52.0886067528
 20
9.6088409764
 11
-51.0871273247
 21
9.2750144998
  0
LINE
  5
60A
100
AcDbEntity
  8
IMPORT_IGES
100
AcDbLine
 62
253
  6
CONTINUOUS
 10
-50.1574028005
 20
9.2750144999
 11
-51.4629624145
 21
9.7102010385
  0
LWPOLYLINE
  5
60B
100
AcDbEntity
  8
IMPORT_IGES
100
AcDbPolyline
 62
253
  6
CONTINUOUS
 90
6
 70
0
 10
-43.2335584185
 20
9.1785544053
 10
-43.2314735631
 20
9.1771280183
 10
-43.2259409048
 20
9.1722434109
 10
-43.2170942658
 20
9.1640238057
 10
-43.2051897313
 20
9.1527133884
 10
-43.1904187413
 20
9.1384967934
  0
LINE
  5
60C
100
AcDbEntity
  8
IMPORT_IGES
100
AcDbLine
 62
7
  6
CONTINUOUS
 10
-32.9002683237
 20
10.3249855001
 11
-32.9002683237
 21
10.5249855001
  0
LINE
  5
60D
100
AcDbEntity
  8
IMPORT_IGES
100
AcDbLine
 62
253
  6
CONTINUOUS
 10
-24.6783318133
 20
6.9343590725
 11
-24.7497649065
 21
6.8400461694
  0
LINE
  5
60E
100
AcDbEntity
  8
IMPORT_IGES
100
AcDbLine
 62
253
  6
CONTINUOUS
 10
-24.6557789899
 20
6.9638509341
 11
-24.6783318133
 21
6.9343590725
  0
LINE
  5
60F
100
AcDbEntity
  8
IMPORT_IGES
100
AcDbLine
 62
253
  6
CONTINUOUS
 10
-24.4394150933
 20
5.3073990109
 11
-24.2979937371
 21
5.4488203671
  0
LINE
  5
610
100
AcDbEntity
  8
IMPORT_IGES
100
AcDbLine
 62
253
  6
CONTINUOUS
 10
-24.4760385601
 20
5.7292235935
 11
-24.4219286518
 21
5.7830950574
  0
LWPOLYLINE
  5
611
100
AcDbEntity
  8
IMPORT_IGES
100
AcDbPolyline
 62
253
  6
CONTINUOUS
 90
9
 70
0
 10
-26.8729105223
 20
7.9085858917
 10
-26.8421814779
 20
7.9119513374
 10
-26.7943197032
 20
7.9139383726
 10
-26.7475254888
 20
7.9127609272
 10
-26.702446748
 20
7.9081408156
 10
-26.6583092205
 20
7.8983993837
 10
-26.6148548195
 20
7.8829770801
 10
-26.5723416317
 20
7.8624334562
 10
-26.5307696572
 20
7.8367685119
  0
LINE
  5
612
100
AcDbEntity
  8
IMPORT_IGES
100
AcDbLine
 62
7
  6
CONTINUOUS
 10
-44.8476360242
 20
7.5644767997
 11
-57.7381745191
 21
7.5194801491
  0
LINE
  5
613
100
AcDbEntity
  8
IMPORT_IGES
100
AcDbLine
 62
253
  6
CONTINUOUS
 10
-24.3796670955
 20
6.2204022582
 11
-24.3314443133
 21
6.2205539347
  0
LWPOLYLINE
  5
614
100
AcDbEntity
  8
IMPORT_IGES
100
AcDbPolyline
 62
253
  6
CONTINUOUS
 90
5
 70
0
 10
-24.2582670323
 20
6.221152169
 10
-24.2466902385
 20
6.2211652311
 10
-24.2382696458
 20
6.221043362
 10
-24.2331537366
 20
6.2208163307
 10
-24.2314330621
 20
6.2204875393
  0
LINE
  5
615
100
AcDbEntity
  8
IMPORT_IGES
100
AcDbLine
 62
253
  6
CONTINUOUS
 10
-44.7239857004
 20
7.2649102502
 11
-58.0371273237
 21
7.2194819768
  0
LINE
  5
616
100
AcDbEntity
  8
IMPORT_IGES
100
AcDbLine
 62
253
  6
CONTINUOUS
 10
-24.4314407451
 20
6.2205563168
 11
-24.3796670955
 21
6.2204022582
  0
LINE
  5
617
100
AcDbEntity
  8
IMPORT_IGES
100
AcDbLine
 62
253
  6
CONTINUOUS
 10
-52.1959461681
 20
9.8934450552
 11
-51.4629719167
 21
9.7102010385
  0
LINE
  5
618
100
AcDbEntity
  8
IMPORT_IGES
100
AcDbLine
 62
7
  6
CONTINUOUS
 10
-26.2371273237
 20
-2.7100144999
 11
-28.2771273237
 21
-0.6700144999
  0
LINE
  5
619
100
AcDbEntity
  8
IMPORT_IGES
100
AcDbLine
 62
7
  6
CONTINUOUS
 10
-28.2371273237
 20
-0.5700144999
 11
-26.2371272942
 21
-2.5700145293
  0
LWPOLYLINE
  5
61A
100
AcDbEntity
  8
IMPORT_IGES
100
AcDbPolyline
 62
253
  6
CONTINUOUS
 90
3
 70
0
 10
-30.1712934279
 20
10.135284976
 10
-30.1715803319
 20
10.1851215574
 10
-30.1725844957
 20
10.2847963669
  0
LINE
  5
61B
100
AcDbEntity
  8
IMPORT_IGES
100
AcDbLine
 62
253
  6
CONTINUOUS
 10
-30.1726075636
 20
10.2847932381
 11
-30.1726075636
 21
10.3249855001
  0
LWPOLYLINE
  5
61C
100
AcDbEntity
  8
IMPORT_IGES
100
AcDbPolyline
 62
253
  6
CONTINUOUS
 90
6
 70
0
 10
-29.9726243234
 20
10.1258677322
 10
-29.9709068474
 20
10.1261908212
 10
-29.9657871749
 20
10.1264739019
 10
-29.9573583207
 20
10.1267217316
 10
-29.945770883
 20
10.1269438902
 10
-29.9312273515
 20
10.127138995
  0
LWPOLYLINE
  5
61D
100
AcDbEntity
  8
IMPORT_IGES
100
AcDbPolyline
 62
253
  6
CONTINUOUS
 90
7
 70
0
 10
-44.4457462311
 20
7.6716413427
 10
-44.4720678431
 20
7.6711346495
 10
-44.4946108961
 20
7.6705656889
 10
-44.512783539
 20
7.6699448178
 10
-44.5261404824
 20
7.6692828177
 10
-44.5343462838
 20
7.668590182
 10
-44.5371273236
 20
7.6678791081
  0
LINE
  5
61E
100
AcDbEntity
  8
IMPORT_IGES
100
AcDbLine
 62
253
  6
CONTINUOUS
 10
-44.384513268
 20
7.6724391253
 11
-44.4457462311
 21
7.6716413427
  0
LINE
  5
61F
100
AcDbEntity
  8
IMPORT_IGES
100
AcDbLine
 62
253
  6
CONTINUOUS
 10
-44.3136334942
 20
7.6729413995
 11
-44.384513268
 21
7.6724391253
  0
LINE
  5
620
100
AcDbEntity
  8
IMPORT_IGES
100
AcDbLine
 62
253
  6
CONTINUOUS
 10
-44.2371270409
 20
7.6731144409
 11
-44.3136334942
 21
7.6729413995
  0
LINE
  5
621
100
AcDbEntity
  8
IMPORT_IGES
100
AcDbLine
 62
253
  6
CONTINUOUS
 10
-28.8529148866
 20
9.0302212185
 11
-42.8800205447
 21
9.0302199443
  0
LWPOLYLINE
  5
622
100
AcDbEntity
  8
IMPORT_IGES
100
AcDbPolyline
 62
253
  6
CONTINUOUS
 90
8
 70
0
 10
-26.210551288
 20
7.2201395965
 10
-26.2131054859
 20
7.220488517
 10
-26.2205334497
 20
7.2202059678
 10
-26.2326773022
 20
7.2193012029
 10
-26.2492152858
 20
7.2178020571
 10
-26.2698934409
 20
7.2157343566
 10
-26.2947223136
 20
7.213094907
 10
-26.3560506605
 20
7.2061633614
  0
LINE
  5
623
100
AcDbEntity
  8
IMPORT_IGES
100
AcDbLine
 62
7
  6
CONTINUOUS
 10
-25.1621662977
 20
-8.8704421955
 11
-26.0428017816
 21
-7.3132285709
  0
LWPOLYLINE
  5
624
100
AcDbEntity
  8
IMPORT_IGES
100
AcDbPolyline
 62
253
  6
CONTINUOUS
 90
4
 70
0
 10
-29.9680355629
 20
9.6661769862
 10
-29.9699575537
 20
9.6879047797
 10
-29.9751351843
 20
9.7096150215
 10
-29.9835635046
 20
9.7307382713
  0
LWPOLYLINE
  5
625
100
AcDbEntity
  8
IMPORT_IGES
100
AcDbPolyline
 62
253
  6
CONTINUOUS
 90
6
 70
0
 10
-30.1689238314
 20
9.8362743028
 10
-30.1699769854
 20
9.8861087957
 10
-30.1707668509
 20
9.9359435363
 10
-30.1712934279
 20
9.9857785247
 10
-30.1714211363
 20
10.0356136604
 10
-30.1712934279
 20
10.135284976
  0
LWPOLYLINE
  5
626
100
AcDbEntity
  8
IMPORT_IGES
100
AcDbPolyline
 62
7
  6
CONTINUOUS
 90
3
 70
0
 10
-29.7674767708
 20
9.6320780695
 10
-29.7707739743
 20
9.8747267391
 10
-29.7726566063
 20
10.1270100569
  0
LINE
  5
627
100
AcDbEntity
  8
IMPORT_IGES
100
AcDbLine
 62
253
  6
CONTINUOUS
 10
-29.7949136453
 20
-11.5750144999
 11
-29.7949356051
 21
-11.3750144999
  0
LINE
  5
628
100
AcDbEntity
  8
IMPORT_IGES
100
AcDbLine
 62
253
  6
CONTINUOUS
 10
-29.7636852638
 20
9.6053343014
 11
-29.7636853241
 21
9.632129483
  0
LINE
  5
629
100
AcDbEntity
  8
IMPORT_IGES
100
AcDbLine
 62
253
  6
CONTINUOUS
 10
-29.4442341049
 20
-11.5750144999
 11
-29.4442341049
 21
-11.3750144999
  0
LINE
  5
62A
100
AcDbEntity
  8
IMPORT_IGES
100
AcDbLine
 62
253
  6
CONTINUOUS
 10
-29.2783015343
 20
9.6321294657
 11
-29.2783015343
 21
9.6053346693
  0
LINE
  5
62B
100
AcDbEntity
  8
IMPORT_IGES
100
AcDbLine
 62
253
  6
CONTINUOUS
 10
-29.2493194343
 20
-11.2336532198
 11
-29.2493194347
 21
-11.292231864
  0
LINE
  5
62C
100
AcDbEntity
  8
IMPORT_IGES
100
AcDbLine
 62
253
  6
CONTINUOUS
 10
-28.8529148839
 20
9.2848090029
 11
-28.8529148839
 21
9.0302212221
  0
LINE
  5
62D
100
AcDbEntity
  8
IMPORT_IGES
100
AcDbLine
 62
253
  6
CONTINUOUS
 10
-29.7921578956
 20
-11.2336532199
 11
-29.7921701517
 21
-11.29223186
  0
LINE
  5
62E
100
AcDbEntity
  8
IMPORT_IGES
100
AcDbLine
 62
253
  6
CONTINUOUS
 10
-29.7726403912
 20
10.3249855001
 11
-29.7726566063
 21
10.1270100537
  0
LWPOLYLINE
  5
62F
100
AcDbEntity
  8
IMPORT_IGES
100
AcDbPolyline
 62
253
  6
CONTINUOUS
 90
10
 70
0
 10
-30.1669276687
 20
-11.4871463566
 10
-30.1695133332
 20
-11.5048694508
 10
-30.1720543732
 20
-11.5208249233
 10
-30.1745507888
 20
-11.5348943689
 10
-30.1770365834
 20
-11.5469738862
 10
-30.1794777535
 20
-11.5569756701
 10
-30.1817722885
 20
-11.564828124
 10
-30.1838861848
 20
-11.5704753819
 10
-30.185853446
 20
-11.5738781579
 10
-30.1867918391
 20
-11.574463855
  0
LINE
  5
630
100
AcDbEntity
  8
IMPORT_IGES
100
AcDbLine
 62
7
  6
CONTINUOUS
 10
-38.2277642489
 20
10.3218058605
 11
-38.21422991
 21
10.3241956665
  0
LWPOLYLINE
  5
631
100
AcDbEntity
  8
IMPORT_IGES
100
AcDbPolyline
 62
253
  6
CONTINUOUS
 90
5
 70
0
 10
-38.2439486259
 20
10.2858776783
 10
-38.2569977261
 20
10.2840321858
 10
-38.2693219496
 20
10.2806438965
 10
-38.2807518525
 20
10.2758063249
 10
-38.291313811
 20
10.2695088849
  0
LINE
  5
632
100
AcDbEntity
  8
IMPORT_IGES
100
AcDbLine
 62
7
  6
CONTINUOUS
 10
-38.21422991
 20
10.3241956665
 11
-38.2006449955
 21
10.3249855
  0
LWPOLYLINE
  5
633
100
AcDbEntity
  8
IMPORT_IGES
100
AcDbPolyline
 62
7
  6
CONTINUOUS
 90
10
 70
0
 10
-42.8800205447
 20
9.0302199443
 10
-42.8976516467
 20
9.0292066842
 10
-42.9148879753
 20
9.0267825651
 10
-42.9317295305
 20
9.0229475873
 10
-42.9482891983
 20
9.0176524285
 10
-42.9644540927
 20
9.0109464109
 10
-42.9798855561
 20
9.0029775008
 10
-42.9944707023
 20
8.9937950204
 10
-43.0083224175
 20
8.9833496474
 10
-43.0214407016
 20
8.971641382
  0
LWPOLYLINE
  5
634
100
AcDbEntity
  8
IMPORT_IGES
100
AcDbPolyline
 62
253
  6
CONTINUOUS
 90
16
 70
0
 10
-29.7726566063
 20
10.1270100569
 10
-29.7118675692
 20
10.1285160681
 10
-29.6481878764
 20
10.1271518467
 10
-29.5816175278
 20
10.1229173926
 10
-29.512206958
 20
10.1162288205
 10
-29.4399057325
 20
10.1066700158
 10
-29.364562548
 20
10.0929926341
 10
-29.2852362938
 20
10.0749079697
 10
-29.2028680807
 20
10.0527047284
 10
-29.1201299374
 20
10.0260006838
 10
-29.0375463634
 20
9.994874502
 10
-28.9545928593
 20
9.9592475169
 10
-28.8723679555
 20
9.918501503
 10
-28.7912378287
 20
9.8724303853
 10
-28.7108363023
 20
9.8212402388
 10
-28.6311633761
 20
9.7649310635
  0
LWPOLYLINE
  5
635
100
AcDbEntity
  8
IMPORT_IGES
100
AcDbPolyline
 62
253
  6
CONTINUOUS
 90
6
 70
0
 10
-29.9312273515
 20
10.127138995
 10
-29.8725807498
 20
10.127564553
 10
-29.8491357882
 20
10.127533964
 10
-29.8243762297
 20
10.1273177919
 10
-29.7987278986
 20
10.1269546894
 10
-29.7726288942
 20
10.1264441914
  0
LINE
  5
636
100
AcDbEntity
  8
IMPORT_IGES
100
AcDbLine
 62
7
  6
CONTINUOUS
 10
-43.0973318137
 20
9.2750144999
 11
-51.0871273247
 21
9.2750144998
  0
LINE
  5
637
100
AcDbEntity
  8
IMPORT_IGES
100
AcDbLine
 62
253
  6
CONTINUOUS
 10
-28.8529148839
 20
9.2847931213
 11
-38.8379534668
 21
9.2848090044
  0
LINE
  5
638
100
AcDbEntity
  8
IMPORT_IGES
100
AcDbLine
 62
7
  6
CONTINUOUS
 10
-38.841871837
 20
9.3249855001
 11
-42.8800205648
 21
9.3249855001
  0
LINE
  5
639
100
AcDbEntity
  8
IMPORT_IGES
100
AcDbLine
 62
253
  6
CONTINUOUS
 10
-29.7636852638
 20
9.6053343014
 11
-29.2782953521
 21
9.6053343014
  0
LINE
  5
63A
100
AcDbEntity
  8
IMPORT_IGES
100
AcDbLine
 62
7
  6
CONTINUOUS
 10
-29.76368532
 20
9.6321295891
 11
-29.2783015343
 21
9.6321295891
  0
LINE
  5
63B
100
AcDbEntity
  8
IMPORT_IGES
100
AcDbLine
 62
253
  6
CONTINUOUS
 10
-30.1725844957
 20
10.2847963669
 11
-38.2172545162
 21
10.2847995626
  0
LINE
  5
63C
100
AcDbEntity
  8
IMPORT_IGES
100
AcDbLine
 62
7
  6
CONTINUOUS
 10
-29.7144537608
 20
10.3249855001
 11
-38.2006449955
 21
10.3249855001
  0
LINE
  5
63D
100
AcDbEntity
  8
IMPORT_IGES
100
AcDbLine
 62
253
  6
CONTINUOUS
 10
-31.9002683237
 20
10.4249837166
 11
-31.2002683237
 21
10.4249855001
  0
LINE
  5
63E
100
AcDbEntity
  8
IMPORT_IGES
100
AcDbLine
 62
253
  6
CONTINUOUS
 10
-36.8999073243
 20
10.4249855001
 11
-37.599907323
 21
10.4249855001
  0
LINE
  5
63F
100
AcDbEntity
  8
IMPORT_IGES
100
AcDbLine
 62
7
  6
CONTINUOUS
 10
-37.4999073233
 20
10.5249855001
 11
-36.9999073241
 21
10.5249855001
  0
LINE
  5
640
100
AcDbEntity
  8
IMPORT_IGES
100
AcDbLine
 62
7
  6
CONTINUOUS
 10
-31.8002683233
 20
10.5249855001
 11
-31.3002683241
 21
10.5249855001
  0
LINE
  5
641
100
AcDbEntity
  8
IMPORT_IGES
100
AcDbLine
 62
7
  6
CONTINUOUS
 10
-32.9002683237
 20
10.5249855001
 11
-35.9430462544
 21
10.5249855001
  0
LWPOLYLINE
  5
642
100
AcDbEntity
  8
IMPORT_IGES
100
AcDbPolyline
 62
7
  6
CONTINUOUS
 90
3
 70
0
 10
-29.7636853486
 20
9.6321299637
 10
-29.7860490572
 20
9.6326439731
 10
-29.81095152
 20
9.6344131303
  0
LWPOLYLINE
  5
643
100
AcDbEntity
  8
IMPORT_IGES
100
AcDbPolyline
 62
253
  6
CONTINUOUS
 90
4
 70
0
 10
-29.2017000787
 20
9.6097281752
 10
-29.2272860774
 20
9.6105347001
 10
-29.2528763536
 20
9.6090488501
 10
-29.278295352
 20
9.6053339346
  0
LINE
  5
644
100
AcDbEntity
  8
IMPORT_IGES
100
AcDbLine
 62
253
  6
CONTINUOUS
 10
-29.7636852638
 20
9.6053343014
 11
-29.8075816809
 21
9.6071504949
  0
LINE
  5
645
100
AcDbEntity
  8
IMPORT_IGES
100
AcDbLine
 62
253
  6
CONTINUOUS
 10
-29.8075816809
 20
9.6071504949
 11
-29.8494407304
 21
9.6110927763
  0
LWPOLYLINE
  5
646
100
AcDbEntity
  8
IMPORT_IGES
100
AcDbPolyline
 62
253
  6
CONTINUOUS
 90
3
 70
0
 10
-38.2172545162
 20
10.2847995557
 10
-38.2305934609
 20
10.2861172531
 10
-38.2439486259
 20
10.2858776783
  0
LWPOLYLINE
  5
647
100
AcDbEntity
  8
IMPORT_IGES
100
AcDbPolyline
 62
253
  6
CONTINUOUS
 90
8
 70
0
 10
-24.0187511574
 20
-0.4869210867
 10
-23.9941135637
 20
-0.5117034443
 10
-23.9663535264
 20
-0.5339330064
 10
-23.9361301513
 20
-0.5529465848
 10
-23.9034696323
 20
-0.5686058505
 10
-23.8688500104
 20
-0.5805020612
 10
-23.8332720226
 20
-0.5882322532
 10
-23.7975718572
 20
-0.5917074303
  0
LINE
  5
648
100
AcDbEntity
  8
IMPORT_IGES
100
AcDbLine
 62
253
  6
CONTINUOUS
 10
-28.4250572818
 20
-10.202494755
 11
-28.4250707415
 21
-10.409391054
  0
LWPOLYLINE
  5
649
100
AcDbEntity
  8
IMPORT_IGES
100
AcDbPolyline
 62
253
  6
CONTINUOUS
 90
13
 70
0
 10
-23.7976732242
 20
-0.5918387116
 10
-23.8022096948
 20
-0.5961727648
 10
-23.8060193207
 20
-0.600921114
 10
-23.809102102
 20
-0.6060879356
 10
-23.8113851169
 20
-0.6116940223
 10
-23.8129412872
 20
-0.6177281584
 10
-23.8139893783
 20
-0.6241357292
 10
-23.8147898512
 20
-0.6308533861
 10
-23.8150822449
 20
-0.6379235547
 10
-23.8143039408
 20
-0.6454568763
 10
-23.8122673992
 20
-0.6535036744
 10
-23.8091601598
 20
-0.6620348935
 10
-23.8049822225
 20
-0.6710584473
  0
LINE
  5
64A
100
AcDbEntity
  8
0
100
AcDbLine
 62
7
  6
CONTINUOUS
 10
-41.809637694
 20
10.6250145005
 11
-41.2683372872
 21
10.6250145005
  0
LINE
  5
64B
100
AcDbEntity
  8
IMPORT_IGES
100
AcDbLine
 62
7
  6
CONTINUOUS
 10
-41.9639388673
 20
10.6250145005
 11
-49.7871273251
 21
10.6250145005
  0
LINE
  5
64C
100
AcDbEntity
  8
0
100
AcDbLine
 62
7
  6
CONTINUOUS
 10
-49.057839318
 20
10.7250145005
 11
-48.9486670395
 21
10.7250145005
  0
LINE
  5
64D
100
AcDbEntity
  8
0
100
AcDbLine
 62
7
  6
CONTINUOUS
 10
-48.9428890234
 20
10.7250145005
 11
-45.5571865309
 21
10.7250145005
  0
LINE
  5
64E
100
AcDbEntity
  8
0
100
AcDbLine
 62
7
  6
CONTINUOUS
 10
-45.5543425772
 20
10.7250145005
 11
-45.2393910798
 21
10.7250145005
  0
LINE
  5
64F
100
AcDbEntity
  8
0
100
AcDbLine
 62
7
  6
CONTINUOUS
 10
-45.2371523409
 20
10.7250145005
 11
-43.5520146702
 21
10.7250145005
  0
LINE
  5
650
100
AcDbEntity
  8
0
100
AcDbLine
 62
7
  6
CONTINUOUS
 10
-42.4871273237
 20
10.7250145005
 11
-41.2683372872
 21
10.7250145005
  0
LINE
  5
651
100
AcDbEntity
  8
IMPORT_IGES
100
AcDbLine
 62
7
  6
CONTINUOUS
 10
-50.2871273255
 20
11.7750144998
 11
-49.7871273251
 21
11.7750144998
  0
LINE
  5
652
100
AcDbEntity
  8
IMPORT_IGES
100
AcDbLine
 62
253
  6
CONTINUOUS
 10
-30.1725844959
 20
10.2847931324
 11
-30.1472399396
 21
10.2834293232
  0
LWPOLYLINE
  5
653
100
AcDbEntity
  8
IMPORT_IGES
100
AcDbPolyline
 62
7
  6
CONTINUOUS
 90
3
 70
0
 10
-29.81095152
 20
9.6344131303
 10
-29.8354876256
 20
9.6374439078
 10
-29.8592785086
 20
9.6416969015
  0
LWPOLYLINE
  5
654
100
AcDbEntity
  8
IMPORT_IGES
100
AcDbPolyline
 62
7
  6
CONTINUOUS
 90
3
 70
0
 10
-29.2056063532
 20
9.6241557468
 10
-29.250760165
 20
9.6309720029
 10
-29.2783087514
 20
9.6321365404
  0
LINE
  5
655
100
AcDbEntity
  8
IMPORT_IGES
100
AcDbLine
 62
253
  6
CONTINUOUS
 10
-29.8494407304
 20
9.6110927763
 11
-29.8892624123
 21
9.6171611456
  0
LWPOLYLINE
  5
656
100
AcDbEntity
  8
IMPORT_IGES
100
AcDbPolyline
 62
253
  6
CONTINUOUS
 90
4
 70
0
 10
-30.1472399396
 20
10.2834293232
 10
-30.1219175363
 20
10.2792081167
 10
-30.0972904837
 20
10.2721473807
 10
-30.0743206098
 20
10.2625735519
  0
LWPOLYLINE
  5
657
100
AcDbEntity
  8
IMPORT_IGES
100
AcDbPolyline
 62
253
  6
CONTINUOUS
 90
4
 70
0
 10
-29.8892624123
 20
9.6171611456
 10
-29.9270664117
 20
9.6253991333
 10
-29.9628330436
 20
9.6357632089
 10
-29.9965032524
 20
9.6481227805
  0
LWPOLYLINE
  5
658
100
AcDbEntity
  8
IMPORT_IGES
100
AcDbPolyline
 62
7
  6
CONTINUOUS
 90
8
 70
0
 10
-29.8592785086
 20
9.6416969015
 10
-29.8817909617
 20
9.6470398295
 10
-29.9027303853
 20
9.6533381329
 10
-29.921808343
 20
9.6604262011
 10
-29.9384800607
 20
9.6679609536
 10
-29.9521195031
 20
9.675393981
 10
-29.9626976679
 20
9.6823366372
 10
-29.9638099631
 20
9.6831525601
  0
LINE
  5
659
100
AcDbEntity
  8
IMPORT_IGES
100
AcDbLine
 62
253
  6
CONTINUOUS
 10
-24.0400300672
 20
-0.4600876987
 11
-24.0187511574
 21
-0.4869210867
  0
LINE
  5
65A
100
AcDbEntity
  8
IMPORT_IGES
100
AcDbLine
 62
253
  6
CONTINUOUS
 10
-24.0201049272
 20
-0.4674325429
 11
-24.0422994089
 21
-0.4369635441
  0
LWPOLYLINE
  5
65B
100
AcDbEntity
  8
IMPORT_IGES
100
AcDbPolyline
 62
253
  6
CONTINUOUS
 90
5
 70
0
 10
-24.0467971287
 20
-0.6567660366
 10
-24.0641636452
 20
-0.6327209994
 10
-24.0768285365
 20
-0.6072696956
 10
-24.0845364495
 20
-0.5808561465
 10
-24.0855938864
 20
-0.5698670227
  0
LINE
  5
65C
100
AcDbEntity
  8
IMPORT_IGES
100
AcDbLine
 62
253
  6
CONTINUOUS
 10
-26.5371273237
 20
-8.3731434406
 11
-26.5371273237
 21
-2.4100144999
  0
LINE
  5
65D
100
AcDbEntity
  8
IMPORT_IGES
100
AcDbLine
 62
7
  6
CONTINUOUS
 10
-26.2371273237
 20
-8.3679077181
 11
-26.2371273237
 21
-2.5700144999
  0
LWPOLYLINE
  5
65E
100
AcDbEntity
  8
IMPORT_IGES
100
AcDbPolyline
 62
253
  6
CONTINUOUS
 90
10
 70
0
 10
-26.5371273237
 20
-8.3731434406
 10
-26.537935531
 20
-8.3907872068
 10
-26.5402069005
 20
-8.4080402138
 10
-26.5439414323
 20
-8.4249024618
 10
-26.5491898324
 20
-8.4414963658
 10
-26.5559013948
 20
-8.4576995107
 10
-26.5639240013
 20
-8.4731446509
 10
-26.5732069459
 20
-8.487709371
 10
-26.5838009346
 20
-8.5015160863
 10
-26.5957059674
 20
-8.5145647968
  0
LINE
  5
65F
100
AcDbEntity
  8
IMPORT_IGES
100
AcDbLine
 62
253
  6
CONTINUOUS
 10
-26.2308123488
 20
-7.6146675561
 11
-26.223386064
 21
-7.4999656093
  0
LWPOLYLINE
  5
660
100
AcDbEntity
  8
IMPORT_IGES
100
AcDbPolyline
 62
253
  6
CONTINUOUS
 90
5
 70
0
 10
-26.223386064
 20
-7.4999656093
 10
-26.2131813233
 20
-7.3836940431
 10
-26.2004482075
 20
-7.2677067965
 10
-26.1862435776
 20
-7.1582767082
 10
-26.171626814
 20
-7.0599608747
  0
LINE
  5
661
100
AcDbEntity
  8
IMPORT_IGES
100
AcDbLine
 62
7
  6
CONTINUOUS
 10
-29.9812372283
 20
-11.4200094609
 11
-29.9811429451
 21
-11.4197724699
  0
LWPOLYLINE
  5
662
100
AcDbEntity
  8
IMPORT_IGES
100
AcDbPolyline
 62
7
  6
CONTINUOUS
 90
17
 70
0
 10
-29.9812538911
 20
-11.4200428452
 10
-29.9789770567
 20
-11.4145978468
 10
-29.9727724141
 20
-11.4016430833
 10
-29.9656157898
 20
-11.389096455
 10
-29.9575029127
 20
-11.3769827003
 10
-29.9484809734
 20
-11.3654062164
 10
-29.9384660852
 20
-11.354325231
 10
-29.9272508928
 20
-11.3436371733
 10
-29.9148571897
 20
-11.333509609
 10
-29.9012767232
 20
-11.3241028242
 10
-29.8863573402
 20
-11.3154959279
 10
-29.8703429231
 20
-11.3079745668
 10
-29.8534418663
 20
-11.3017694037
 10
-29.835692515
 20
-11.2970060301
 10
-29.8174817092
 20
-11.2938278234
 10
-29.7992924434
 20
-11.2923309813
 10
-29.7921683783
 20
-11.2922100367
  0
LWPOLYLINE
  5
663
100
AcDbEntity
  8
IMPORT_IGES
100
AcDbPolyline
 62
253
  6
CONTINUOUS
 90
10
 70
0
 10
-23.7976732242
 20
-0.5918387116
 10
-23.795684465
 20
-0.5894126621
 10
-23.7939340819
 20
-0.587161275
 10
-23.7924220749
 20
-0.5850786967
 10
-23.7911480548
 20
-0.5831631663
 10
-23.7901124108
 20
-0.5814042476
 10
-23.7893163108
 20
-0.5797856319
 10
-23.7887601442
 20
-0.5783008215
 10
-23.7884435217
 20
-0.5769503367
 10
-23.7883664431
 20
-0.5757308982
  0
LWPOLYLINE
  5
664
100
AcDbEntity
  8
IMPORT_IGES
100
AcDbPolyline
 62
7
  6
CONTINUOUS
 90
10
 70
0
 10
-24.0871273237
 20
-7.0174826615
 10
-24.0896959807
 20
-7.0186908294
 10
-24.0974088768
 20
-7.0198736013
 10
-24.1100917212
 20
-7.0210099909
 10
-24.1274690423
 20
-7.0220957157
 10
-24.1492159897
 20
-7.0231140187
 10
-24.1750039876
 20
-7.0240353791
 10
-24.2044043711
 20
-7.0248493012
 10
-24.2369101621
 20
-7.0255498815
 10
-24.2720342783
 20
-7.0261152716
  0
LWPOLYLINE
  5
665
100
AcDbEntity
  8
IMPORT_IGES
100
AcDbPolyline
 62
253
  6
CONTINUOUS
 90
10
 70
0
 10
-29.9965032524
 20
9.6481227805
 10
-30.028518961
 20
9.6626352823
 10
-30.0584382465
 20
9.67914328
 10
-30.0848762852
 20
9.697043879
 10
-30.1073235008
 20
9.7159958185
 10
-30.1262894696
 20
9.7363403593
 10
-30.1419180966
 20
9.7584983893
 10
-30.15425735
 20
9.7826102045
 10
-30.1632592616
 20
9.808535509
 10
-30.1689238314
 20
9.8362743028
  0
LWPOLYLINE
  5
666
100
AcDbEntity
  8
IMPORT_IGES
100
AcDbPolyline
 62
253
  6
CONTINUOUS
 90
4
 70
0
 10
-30.0743206098
 20
10.2625735519
 10
-30.0532285707
 20
10.2507246094
 10
-30.033654361
 20
10.2363660395
 10
-30.0160838137
 20
10.219643403
  0
LINE
  5
667
100
AcDbEntity
  8
IMPORT_IGES
100
AcDbLine
 62
253
  6
CONTINUOUS
 10
-28.8529148866
 20
9.0302212185
 11
-26.5862079765
 21
7.322134065
  0
LWPOLYLINE
  5
668
100
AcDbEntity
  8
IMPORT_IGES
100
AcDbPolyline
 62
253
  6
CONTINUOUS
 90
6
 70
0
 10
-30.0160838137
 20
10.219643403
 10
-30.0011398689
 20
10.2010146327
 10
-29.9889513476
 20
10.1804738817
 10
-29.9799233043
 20
10.1583752702
 10
-29.97444056
 20
10.1355064393
 10
-29.972563666
 20
10.1125339861
  0
LINE
  5
669
100
AcDbEntity
  8
IMPORT_IGES
100
AcDbLine
 62
253
  6
CONTINUOUS
 10
-24.0582969163
 20
-0.430810814
 11
-24.0400300672
 21
-0.4600876987
  0
LWPOLYLINE
  5
66A
100
AcDbEntity
  8
IMPORT_IGES
100
AcDbPolyline
 62
253
  6
CONTINUOUS
 90
10
 70
0
 10
-29.9835635046
 20
9.7307382713
 10
-29.9949198803
 20
9.7505065832
 10
-30.0089354112
 20
9.7686639381
 10
-30.025748674
 20
9.785360826
 10
-30.0449944806
 20
9.8001118738
 10
-30.0662346612
 20
9.8125664334
 10
-30.0897840746
 20
9.8227813598
 10
-30.1153804894
 20
9.8303767058
 10
-30.1420245074
 20
9.8349102337
 10
-30.1689238206
 20
9.8362725005
  0
LINE
  5
66B
100
AcDbEntity
  8
IMPORT_IGES
100
AcDbLine
 62
253
  6
CONTINUOUS
 10
-24.0422994089
 20
-0.4369635441
 11
-24.060836332
 21
-0.4030948172
  0
LINE
  5
66C
100
AcDbEntity
  8
IMPORT_IGES
100
AcDbLine
 62
253
  6
CONTINUOUS
 10
-24.0732288901
 20
-0.399304148
 11
-24.0582969163
 21
-0.430810814
  0
LINE
  5
66D
100
AcDbEntity
  8
IMPORT_IGES
100
AcDbLine
 62
253
  6
CONTINUOUS
 10
-25.9284976513
 20
3.4255155209
 11
-24.5374331074
 21
0.3486220857
  0
LWPOLYLINE
  5
66E
100
AcDbEntity
  8
IMPORT_IGES
100
AcDbPolyline
 62
253
  6
CONTINUOUS
 90
10
 70
0
 10
-25.9284976513
 20
3.4255155209
 10
-25.9587067609
 20
3.4954256008
 10
-25.9865282573
 20
3.5661339616
 10
-26.0119621406
 20
3.6376406032
 10
-26.0350305326
 20
3.7100258497
 10
-26.0557113115
 20
3.7832093769
 10
-26.0739381112
 20
3.8569502127
 10
-26.0896888099
 20
3.9311680329
 10
-26.1029855295
 20
4.0059431616
 10
-26.1138282699
 20
4.0812755987
  0
LINE
  5
66F
100
AcDbEntity
  8
IMPORT_IGES
100
AcDbLine
 62
253
  6
CONTINUOUS
 10
-26.5081650049
 20
7.1875943589
 11
-26.1138282699
 21
4.0812755987
  0
LINE
  5
670
100
AcDbEntity
  8
IMPORT_IGES
100
AcDbLine
 62
253
  6
CONTINUOUS
 10
-24.0842857936
 20
-0.327596986
 11
-24.0882039128
 21
-0.2884626688
  0
LINE
  5
671
100
AcDbEntity
  8
IMPORT_IGES
100
AcDbLine
 62
253
  6
CONTINUOUS
 10
-24.4219305121
 20
5.7830931973
 11
-24.4316368149
 21
6.220551687
  0
LINE
  5
672
100
AcDbEntity
  8
IMPORT_IGES
100
AcDbLine
 62
253
  6
CONTINUOUS
 10
-24.410149373
 20
5.2388608357
 11
-24.3085955268
 21
0.5654551056
  0
LINE
  5
673
100
AcDbEntity
  8
IMPORT_IGES
100
AcDbLine
 62
7
  6
CONTINUOUS
 10
-24.0902470352
 20
-0.2233972695
 11
-24.2314330619
 21
6.2204875307
  0
LINE
  5
674
100
AcDbEntity
  8
IMPORT_IGES
100
AcDbLine
 62
253
  6
CONTINUOUS
 10
-24.3871302975
 20
-0.3486968038
 11
-24.3871273237
 21
-8.8705166706
  0
LINE
  5
675
100
AcDbEntity
  8
IMPORT_IGES
100
AcDbLine
 62
253
  6
CONTINUOUS
 10
-26.2118097494
 20
-7.5163945611
 11
-26.2304264841
 21
-7.6770931546
  0
LINE
  5
676
100
AcDbEntity
  8
IMPORT_IGES
100
AcDbLine
 62
253
  6
CONTINUOUS
 10
-26.171626814
 20
-7.0599608747
 11
-26.1665742917
 21
-7.0293746541
  0
LWPOLYLINE
  5
677
100
AcDbEntity
  8
IMPORT_IGES
100
AcDbPolyline
 62
253
  6
CONTINUOUS
 90
4
 70
0
 10
-26.1236698487
 20
-7.1469093039
 10
-26.1477497542
 20
-7.2236919379
 10
-26.1834554627
 20
-7.3649321377
 10
-26.2118097494
 20
-7.5163945611
  0
LWPOLYLINE
  5
678
100
AcDbEntity
  8
IMPORT_IGES
100
AcDbPolyline
 62
7
  6
CONTINUOUS
 90
4
 70
0
 10
-30.0079271074
 20
-11.4724490636
 10
-29.9974778129
 20
-11.454737348
 10
-29.9879369055
 20
-11.4356327844
 10
-29.9811429451
 20
-11.4197724699
  0
LINE
  5
679
100
AcDbEntity
  8
IMPORT_IGES
100
AcDbLine
 62
253
  6
CONTINUOUS
 10
-26.5957059674
 20
-8.5145647968
 11
-28.1397021968
 21
-10.0585610261
  0
LINE
  5
67A
100
AcDbEntity
  8
IMPORT_IGES
100
AcDbLine
 62
253
  6
CONTINUOUS
 10
-28.4250725848
 20
-10.4093903576
 11
-29.2493194343
 21
-11.23365322
  0
LWPOLYLINE
  5
67B
100
AcDbEntity
  8
IMPORT_IGES
100
AcDbPolyline
 62
253
  6
CONTINUOUS
 90
10
 70
0
 10
-28.1397021968
 20
-10.0585610261
 10
-28.1682092836
 20
-10.0856761922
 10
-28.198234942
 20
-10.1104060667
 10
-28.229779172
 20
-10.1327506494
 10
-28.2638003911
 20
-10.1532370615
 10
-28.2993401818
 20
-10.171338182
 10
-28.3335232914
 20
-10.1854726478
 10
-28.3653913026
 20
-10.1951133381
 10
-28.3959026327
 20
-10.2007873738
 10
-28.4250572818
 20
-10.202494755
  0
LWPOLYLINE
  5
67C
100
AcDbEntity
  8
IMPORT_IGES
100
AcDbPolyline
 62
253
  6
CONTINUOUS
 90
6
 70
0
 10
-30.0453692663
 20
-11.3230787742
 10
-30.0752099805
 20
-11.349469741
 10
-30.1023619325
 20
-11.3790799991
 10
-30.1265726068
 20
-11.4118828268
 10
-30.1480945188
 20
-11.447904946
 10
-30.1669276687
 20
-11.4871463566
  0
LWPOLYLINE
  5
67D
100
AcDbEntity
  8
IMPORT_IGES
100
AcDbPolyline
 62
7
  6
CONTINUOUS
 90
5
 70
0
 10
-30.0716429978
 20
-11.5390211507
 10
-30.0515879272
 20
-11.5235362676
 10
-30.03442809
 20
-11.5068809532
 10
-30.0199889229
 20
-11.4896989905
 10
-30.0079271074
 20
-11.4724490636
  0
LWPOLYLINE
  5
67E
100
AcDbEntity
  8
IMPORT_IGES
100
AcDbPolyline
 62
7
  6
CONTINUOUS
 90
3
 70
0
 10
-30.1205041464
 20
-11.5636521132
 10
-30.094653273
 20
-11.5526417903
 10
-30.0716429978
 20
-11.5390211507
  0
LWPOLYLINE
  5
67F
100
AcDbEntity
  8
IMPORT_IGES
100
AcDbPolyline
 62
253
  6
CONTINUOUS
 90
7
 70
0
 10
-29.0594348958
 20
9.556250189
 10
-29.0807501272
 20
9.5707600147
 10
-29.1032402448
 20
9.5830824661
 10
-29.126747522
 20
9.5931651792
 10
-29.1511557705
 20
9.6010046058
 10
-29.176247246
 20
9.6065527195
 10
-29.2017000787
 20
9.6097281752
  0
LWPOLYLINE
  5
680
100
AcDbEntity
  8
IMPORT_IGES
100
AcDbPolyline
 62
7
  6
CONTINUOUS
 90
5
 70
0
 10
-29.0594336842
 20
9.5562513647
 10
-29.0773285557
 20
9.5689656086
 10
-29.1180714088
 20
9.5927959951
 10
-29.1609781464
 20
9.6112674641
 10
-29.2056063532
 20
9.6241557468
  0
LINE
  5
681
100
AcDbEntity
  8
IMPORT_IGES
100
AcDbLine
 62
253
  6
CONTINUOUS
 10
-29.2782953521
 20
9.6053343014
 11
-28.8529148839
 21
9.2847931213
  0
LINE
  5
682
100
AcDbEntity
  8
IMPORT_IGES
100
AcDbLine
 62
7
  6
CONTINUOUS
 10
-26.4056620899
 20
7.5564889431
 11
-29.0594348952
 21
9.5562501885
  0
LINE
  5
683
100
AcDbEntity
  8
IMPORT_IGES
100
AcDbLine
 62
253
  6
CONTINUOUS
 10
-26.3153919232
 20
7.6744821473
 11
-26.5307696572
 21
7.8367685119
  0
LINE
  5
684
100
AcDbEntity
  8
IMPORT_IGES
100
AcDbLine
 62
253
  6
CONTINUOUS
 10
-28.6311633761
 20
9.7649310635
 11
-24.7497450271
 21
6.8400725465
  0
LINE
  5
685
100
AcDbEntity
  8
IMPORT_IGES
100
AcDbLine
 62
7
  6
CONTINUOUS
 10
-24.6293829865
 20
6.9973987297
 11
-28.5108003948
 21
9.9222565379
  0
LWPOLYLINE
  5
686
100
AcDbEntity
  8
IMPORT_IGES
100
AcDbPolyline
 62
253
  6
CONTINUOUS
 90
10
 70
0
 10
-24.7497450271
 20
6.8400725465
 10
-24.6874790135
 20
6.7877580749
 10
-24.6316704548
 20
6.7307791464
 10
-24.5823193509
 20
6.669135761
 10
-24.5390620894
 20
6.6021157029
 10
-24.5022622827
 20
6.5304311879
 10
-24.4730107682
 20
6.4562188641
 10
-24.4516711582
 20
6.3801909473
 10
-24.4378798405
 20
6.3016352216
 10
-24.4316368149
 20
6.220551687
  0
LINE
  5
687
100
AcDbEntity
  8
IMPORT_IGES
100
AcDbLine
 62
253
  6
CONTINUOUS
 10
-26.1899613863
 20
7.0579453039
 11
-24.4394150933
 21
5.3073990109
  0
LINE
  5
688
100
AcDbEntity
  8
IMPORT_IGES
100
AcDbLine
 62
7
  6
CONTINUOUS
 10
-26.3072528916
 20
7.4580795217
 11
-24.2979937371
 21
5.4488203671
  0
LINE
  5
689
100
AcDbEntity
  8
IMPORT_IGES
100
AcDbLine
 62
253
  6
CONTINUOUS
 10
-24.4219305121
 20
5.7830931973
 11
-26.1942577415
 21
7.5554151719
  0
LWPOLYLINE
  5
68A
100
AcDbEntity
  8
IMPORT_IGES
100
AcDbPolyline
 62
253
  6
CONTINUOUS
 90
10
 70
0
 10
-24.4394150933
 20
5.3073990109
 10
-24.4337456638
 20
5.3011058807
 10
-24.4286544828
 20
5.2944209015
 10
-24.4241415504
 20
5.2873440736
 10
-24.4201719704
 20
5.2797936724
 10
-24.4167806389
 20
5.2718514223
 10
-24.4140722446
 20
5.2637624964
 10
-24.4120816836
 20
5.2556086188
 10
-24.4107740598
 20
5.2473080652
 10
-24.410149373
 20
5.2388608357
  0
LWPOLYLINE
  5
68B
100
AcDbEntity
  8
IMPORT_IGES
100
AcDbPolyline
 62
253
  6
CONTINUOUS
 90
10
 70
0
 10
-26.1942577415
 20
7.5554151719
 10
-26.2058590965
 20
7.5698948651
 10
-26.2179317954
 20
7.5840721892
 10
-26.2304758382
 20
7.5979471441
 10
-26.2435003505
 20
7.6115332475
 10
-26.2569962066
 20
7.6248169818
 10
-26.2709360297
 20
7.6377577942
 10
-26.285310694
 20
7.6503421671
 10
-26.3001293251
 20
7.6625836181
 10
-26.3153919232
 20
7.6744821473
  0
LWPOLYLINE
  5
68C
100
AcDbEntity
  8
IMPORT_IGES
100
AcDbPolyline
 62
253
  6
CONTINUOUS
 90
10
 70
0
 10
-24.2979789271
 20
5.4488085026
 10
-24.3033890334
 20
5.455662372
 10
-24.3073337314
 20
5.4640104052
 10
-24.3096709499
 20
5.4737288065
 10
-24.3103258578
 20
5.4845096417
 10
-24.3093266617
 20
5.496212995
 10
-24.3066276268
 20
5.5089814882
 10
-24.30215805
 20
5.5227103568
 10
-24.2960057205
 20
5.5369656114
 10
-24.2883197071
 20
5.5514146036
  0
LWPOLYLINE
  5
68D
100
AcDbEntity
  8
0
100
AcDbPolyline
 62
7
  6
CONTINUOUS
 90
10
 70
0
 43
0.3500000006
 10
-34.0478418961
 20
21.0250128937
 10
-33.9764129791
 20
20.8821595917
 10
-33.9764129791
 20
20.8107284088
 10
-34.119270813
 20
20.667870575
 10
-34.1906997299
 20
20.667870575
 10
-34.2621263809
 20
20.7393017578
 10
-34.2621263809
 20
20.8107284088
 10
-34.1906997299
 20
20.9535862427
 10
-34.119270813
 20
21.0250128937
 10
-34.0478418961
 20
21.0250128937
  0
LWPOLYLINE
  5
68E
100
AcDbEntity
  8
0
100
AcDbPolyline
 62
7
  6
CONTINUOUS
 90
10
 70
0
 43
0.3500000006
 10
-38.2799853973
 20
31.0250159454
 10
-38.2085542145
 20
30.8821581116
 10
-38.2085542145
 20
30.8107269287
 10
-38.3514120483
 20
30.6678736267
 10
-38.4228432312
 20
30.6678736267
 10
-38.4942698822
 20
30.7393002777
 10
-38.4942698822
 20
30.8107269287
 10
-38.4228432312
 20
30.9535847626
 10
-38.3514120483
 20
31.0250159454
 10
-38.2799853973
 20
31.0250159454
  0
LWPOLYLINE
  5
68F
100
AcDbEntity
  8
IMPORT_IGES
100
AcDbPolyline
 62
253
  6
CONTINUOUS
 90
13
 70
0
 10
-21.2371273237
 20
-4.3909222128
 10
-21.235416296
 20
-4.3943617367
 10
-21.2303124889
 20
-4.3977424095
 10
-21.2219032302
 20
-4.4010063867
 10
-21.2103324044
 20
-4.404097821
 10
-21.1957979917
 20
-4.4069638169
 10
-21.1785486799
 20
-4.4095553365
 10
-21.1588796095
 20
-4.4118280383
 10
-21.1371273237
 20
-4.4137430355
 10
-21.1136640102
 20
-4.4152675622
 10
-21.0888911327
 20
-4.4163755332
 10
-21.0632325621
 20
-4.4170479908
 10
-21.0371273237
 20
-4.4172734291
  0
LINE
  5
690
100
AcDbEntity
  8
IMPORT_IGES
100
AcDbLine
 62
7
  6
CONTINUOUS
 10
-24.2640716016
 20
0.4669727881
 11
-25.6551368691
 21
3.5438652905
  0
LWPOLYLINE
  5
691
100
AcDbEntity
  8
IMPORT_IGES
100
AcDbPolyline
 62
253
  6
CONTINUOUS
 90
10
 70
0
 10
-24.5374331074
 20
0.3486220857
 10
-24.5063187932
 20
0.2747842913
 10
-24.4787802374
 20
0.1999078783
 10
-24.45481744
 20
0.1239928466
 10
-24.4343934117
 20
0.0468683988
 10
-24.4175451417
 20
-0.0312946676
 10
-24.4043835985
 20
-0.1099839603
 10
-24.3949457714
 20
-0.1890286819
 10
-24.3891946711
 20
-0.2685996297
 10
-24.3871302975
 20
-0.3486968038
  0
LWPOLYLINE
  5
692
100
AcDbEntity
  8
IMPORT_IGES
100
AcDbPolyline
 62
253
  6
CONTINUOUS
 90
10
 70
0
 10
-23.8049822225
 20
-0.6710584473
 10
-23.801392341
 20
-0.6801375851
 10
-23.7981894889
 20
-0.6894413954
 10
-23.7953736663
 20
-0.698950067
 10
-23.792925578
 20
-0.7086430053
 10
-23.7908645192
 20
-0.7185025098
 10
-23.7892483757
 20
-0.7285141636
 10
-23.788096443
 20
-0.7386617645
 10
-23.7873894256
 20
-0.7489269594
 10
-23.7871273237
 20
-0.7592931778
  0
LINE
  5
693
100
AcDbEntity
  8
IMPORT_IGES
100
AcDbLine
 62
253
  6
CONTINUOUS
 10
-24.060836332
 20
-0.4030948172
 11
-24.0750894806
 21
-0.3661763816
  0
LINE
  5
694
100
AcDbEntity
  8
IMPORT_IGES
100
AcDbLine
 62
253
  6
CONTINUOUS
 10
-24.0750894806
 20
-0.3661763816
 11
-24.0842857936
 21
-0.327596986
  0
LWPOLYLINE
  5
695
100
AcDbEntity
  8
IMPORT_IGES
100
AcDbPolyline
 62
7
  6
CONTINUOUS
 90
10
 70
0
 10
-26.5081650049
 20
7.1875943589
 10
-26.5114663668
 20
7.2052401193
 10
-26.5161599682
 20
7.2222948173
 10
-26.522245809
 20
7.2387584529
 10
-26.5297901823
 20
7.2547419111
 10
-26.538726795
 20
7.2701343069
 10
-26.5488567686
 20
7.2846029857
 10
-26.5601138103
 20
7.2980370625
 10
-26.5725642129
 20
7.3105474223
 10
-26.5862079765
 20
7.322134065
  0
LINE
  5
696
100
AcDbEntity
  8
IMPORT_IGES
100
AcDbLine
 62
7
  6
CONTINUOUS
 10
-25.8162177383
 20
4.1138279616
 11
-26.2105512713
 21
7.2201394654
  0
LINE
  5
697
100
AcDbEntity
  8
IMPORT_IGES
100
AcDbLine
 62
253
  6
CONTINUOUS
 10
-23.7883664431
 20
-0.5757308982
 11
-23.7886637079
 21
-0.5700144999
  0
LWPOLYLINE
  5
698
100
AcDbEntity
  8
IMPORT_IGES
100
AcDbPolyline
 62
253
  6
CONTINUOUS
 90
4
 70
0
 10
-24.2101968682
 20
5.2432192836
 10
-24.2120114379
 20
5.2823567033
 10
-24.2156943506
 20
5.3203695249
 10
-24.2211775173
 20
5.3572435695
  0
LINE
  5
699
100
AcDbEntity
  8
IMPORT_IGES
100
AcDbLine
 62
7
  6
CONTINUOUS
 10
-24.0871273237
 20
-8.5704843507
 11
-24.0871273237
 21
-0.3539323499
  0
LINE
  5
69A
100
AcDbEntity
  8
IMPORT_IGES
100
AcDbLine
 62
253
  6
CONTINUOUS
 10
-23.7871273237
 20
-3.5700144999
 11
-23.7871273237
 21
-0.7592931778
  0
LINE
  5
69B
100
AcDbEntity
  8
IMPORT_IGES
100
AcDbLine
 62
7
  6
CONTINUOUS
 10
-29.0906807143
 20
-11.4285678905
 11
-26.3835739329
 21
-8.721461109
  0
LWPOLYLINE
  5
69C
100
AcDbEntity
  8
IMPORT_IGES
100
AcDbPolyline
 62
253
  6
CONTINUOUS
 90
10
 70
0
 10
-28.6836340789
 20
-11.0215212551
 10
-28.7430695325
 20
-11.075413574
 10
-28.8049517084
 20
-11.1212542085
 10
-28.8684679188
 20
-11.1591998626
 10
-28.9326103456
 20
-11.1895784724
 10
-28.996787184
 20
-11.2127431799
 10
-29.0610270064
 20
-11.2286606234
 10
-29.1250312244
 20
-11.2372647145
 10
-29.1879902763
 20
-11.2388473358
 10
-29.2493194343
 20
-11.23365322
  0
LWPOLYLINE
  5
69D
100
AcDbEntity
  8
IMPORT_IGES
100
AcDbPolyline
 62
253
  6
CONTINUOUS
 90
4
 70
0
 10
-24.3011267075
 20
5.5738161048
 10
-24.3430903853
 20
5.6461983895
 10
-24.3579436979
 20
5.6720680658
 10
-24.4054351882
 20
5.7541958943
  0
LINE
  5
69E
100
AcDbEntity
  8
IMPORT_IGES
100
AcDbLine
 62
253
  6
CONTINUOUS
 10
-24.2883248587
 20
5.5514145223
 11
-24.3011267075
 21
5.5738161048
  0
LINE
  5
69F
100
AcDbEntity
  8
IMPORT_IGES
100
AcDbLine
 62
253
  6
CONTINUOUS
 10
-24.4054351882
 20
5.7541958943
 11
-24.4219371498
 21
5.7830930531
  0
LINE
  5
6A0
100
AcDbEntity
  8
IMPORT_IGES
100
AcDbLine
 62
253
  6
CONTINUOUS
 10
-24.2732352121
 20
5.5227783478
 11
-24.2883248587
 21
5.5514145223
  0
LINE
  5
6A1
100
AcDbEntity
  8
IMPORT_IGES
100
AcDbLine
 62
253
  6
CONTINUOUS
 10
-24.2596058912
 20
5.4926512834
 11
-24.2732352121
 21
5.5227783478
  0
LWPOLYLINE
  5
6A2
100
AcDbEntity
  8
IMPORT_IGES
100
AcDbPolyline
 62
253
  6
CONTINUOUS
 90
5
 70
0
 10
-24.2211775173
 20
5.3572435695
 10
-24.228341862
 20
5.3930952248
 10
-24.2371081846
 20
5.4278086661
 10
-24.2475256914
 20
5.4610334584
 10
-24.2596058912
 20
5.4926512834
  0
LWPOLYLINE
  5
6A3
100
AcDbEntity
  8
IMPORT_IGES
100
AcDbPolyline
 62
253
  6
CONTINUOUS
 90
13
 70
0
 10
-21.2371273237
 20
-5.9304846471
 10
-21.2388383514
 20
-5.9087786786
 10
-21.2439421584
 20
-5.8874441052
 10
-21.2523514172
 20
-5.8668459674
 10
-21.2639222429
 20
-5.8473367051
 10
-21.2784566556
 20
-5.8292501272
 10
-21.2957059675
 20
-5.8128956999
 10
-21.3153750379
 20
-5.7985532521
 10
-21.3371273237
 20
-5.7864681871
 10
-21.3605906372
 20
-5.7768472836
 10
-21.3853635147
 20
-5.769855158
 10
-21.4110220852
 20
-5.7656114475
 10
-21.4371273237
 20
-5.7641887632
  0
LINE
  5
6A4
100
AcDbEntity
  8
IMPORT_IGES
100
AcDbLine
 62
253
  6
CONTINUOUS
 10
-21.7871273237
 20
-1.1700144999
 11
-21.7871273237
 21
-0.5700144999
  0
LINE
  5
6A5
100
AcDbEntity
  8
IMPORT_IGES
100
AcDbLine
 62
253
  6
CONTINUOUS
 10
-21.4371273237
 20
-6.7753122475
 11
-21.4371273237
 21
-3.7382197803
  0
LINE
  5
6A6
100
AcDbEntity
  8
IMPORT_IGES
100
AcDbLine
 62
7
  6
CONTINUOUS
 10
-21.2871273237
 20
0.4299855001
 11
-21.2871273237
 21
-0.2480600541
  0
LINE
  5
6A7
100
AcDbEntity
  8
IMPORT_IGES
100
AcDbLine
 62
7
  6
CONTINUOUS
 10
-21.2371273237
 20
-3.9542988133
 11
-21.2371273237
 21
-7.906058068
  0
LWPOLYLINE
  5
6A8
100
AcDbEntity
  8
IMPORT_IGES
100
AcDbPolyline
 62
7
  6
CONTINUOUS
 90
22
 70
0
 10
-21.2871273237
 20
-0.2480600541
 10
-21.2878516922
 20
-0.2836366367
 10
-21.290573163
 20
-0.3201278216
 10
-21.2952917361
 20
-0.3575336087
 10
-21.3019099398
 20
-0.3958704202
 10
-21.3105252457
 20
-0.435121834
 10
-21.3214300693
 20
-0.4752385843
 10
-21.3346379386
 20
-0.5162416683
 10
-21.3501353255
 20
-0.5581100889
 10
-21.368174061
 20
-0.6007315881
 10
-21.3887887916
 20
-0.6440943707
 10
-21.4119448709
 20
-0.688210232
 10
-21.43779019
 20
-0.7330022993
 10
-21.4663961949
 20
-0.7784370331
 10
-21.4976914397
 20
-0.824547973
 10
-21.5316094778
 20
-0.8713588648
 10
-21.5682369066
 20
-0.9187648907
 10
-21.6074871287
 20
-0.9668708685
 10
-21.6490339053
 20
-1.0160149983
 10
-21.6927684903
 20
-1.0663100135
 10
-21.7387996297
 20
-1.1176431806
 10
-21.7871273237
 20
-1.1700144998
  0
LINE
  5
6A9
100
AcDbEntity
  8
IMPORT_IGES
100
AcDbLine
 62
253
  6
CONTINUOUS
 10
-21.0371273237
 20
-8.1061140738
 11
-21.0371273385
 21
-3.7623288477
  0
LINE
  5
6AA
100
AcDbEntity
  8
IMPORT_IGES
100
AcDbLine
 62
253
  6
CONTINUOUS
 10
-20.5371273237
 20
-3.5700144999
 11
-20.5371273237
 21
0.4299855001
  0
LINE
  5
6AB
100
AcDbEntity
  8
IMPORT_IGES
100
AcDbLine
 62
253
  6
CONTINUOUS
 10
-20.4371273237
 20
-8.1061140738
 11
-20.4371273237
 21
-3.7382197803
  0
LINE
  5
6AC
100
AcDbEntity
  8
IMPORT_IGES
100
AcDbLine
 62
7
  6
CONTINUOUS
 10
-20.2371273237
 20
-7.9060579479
 11
-20.2371273237
 21
-3.9382197803
  0
LINE
  5
6AD
100
AcDbEntity
  8
IMPORT_IGES
100
AcDbLine
 62
7
  6
CONTINUOUS
 10
-20.2371273237
 20
-3.2700144999
 11
-20.2371273237
 21
0.1299855001
  0
LWPOLYLINE
  5
6AE
100
AcDbEntity
  8
IMPORT_IGES
100
AcDbPolyline
 62
253
  6
CONTINUOUS
 90
13
 70
0
 10
-21.2371273237
 20
-3.9542988133
 10
-21.235416296
 20
-3.9292400469
 10
-21.2303124889
 20
-3.9046104123
 10
-21.2219032302
 20
-3.8808314312
 10
-21.2103324044
 20
-3.8583103613
 10
-21.1957979917
 20
-3.837432403
 10
-21.1785486799
 20
-3.8185539763
 10
-21.1588796095
 20
-3.8019977979
 10
-21.1371273237
 20
-3.7880474286
 10
-21.1136640102
 20
-3.7769415114
 10
-21.0888911327
 20
-3.7688700512
 10
-21.0632325621
 20
-3.7639711674
 10
-21.0371273237
 20
-3.76232868
  0
LWPOLYLINE
  5
6AF
100
AcDbEntity
  8
IMPORT_IGES
100
AcDbPolyline
 62
253
  6
CONTINUOUS
 90
13
 70
0
 10
-20.2371273237
 20
-7.0592591923
 10
-20.2388383514
 20
-7.0810296565
 10
-20.2439421584
 20
-7.102427622
 10
-20.2523514172
 20
-7.1230869637
 10
-20.2639222429
 20
-7.1426541946
 10
-20.2784566556
 20
-7.1607945138
 10
-20.2957059674
 20
-7.1771975356
 10
-20.3153750379
 20
-7.1915825996
 10
-20.3371273237
 20
-7.2037035734
 10
-20.3605906372
 20
-7.2133530638
 10
-20.3853635147
 20
-7.2203659653
 10
-20.4110220852
 20
-7.2246222853
 10
-20.4371273237
 20
-7.2260491969
  0
LWPOLYLINE
  5
6B0
100
AcDbEntity
  8
0
100
AcDbPolyline
 62
7
  6
CONTINUOUS
 90
7
 70
0
 43
0.3500000006
 10
-37.9049852829
 20
20.5250127411
 10
-39.4049834747
 20
20.5250127411
 10
-37.9049852829
 20
22.6678711853
 10
-37.9049852829
 20
23.0964446869
 10
-38.3335565186
 20
23.5250136566
 10
-38.976414505
 20
23.5250136566
 10
-39.4049834747
 20
22.8821556702
  0
LWPOLYLINE
  5
6B1
100
AcDbEntity
  8
0
100
AcDbPolyline
 62
7
  6
CONTINUOUS
 90
6
 70
0
 43
0.3500000006
 10
-43.4228402252
 20
30.5250157928
 10
-42.351413269
 20
30.5250157928
 10
-42.1371287842
 20
30.7393002777
 10
-42.1371287842
 20
31.8107272339
 10
-42.5656977539
 20
32.2393007355
 10
-42.9942712555
 20
32.2393007355
  0
LWPOLYLINE
  5
6B2
100
AcDbEntity
  8
0
100
AcDbPolyline
 62
7
  6
CONTINUOUS
 90
13
 70
0
 43
0.3500000006
 10
-36.7799849396
 20
32.2393007355
 10
-37.0656983414
 20
32.4535852203
 10
-37.0656983414
 20
33.0964432068
 10
-36.7799849396
 20
33.5250167084
 10
-36.1371269531
 20
33.5250167084
 10
-35.8514135513
 20
33.0964432068
 10
-35.8514135513
 20
32.4535852203
 10
-36.1371269531
 20
32.2393007355
 10
-35.7085557175
 20
31.8107272339
 10
-35.7085557175
 20
30.9535847626
 10
-36.1371269531
 20
30.5250157928
 10
-36.7799849396
 20
30.5250157928
 10
-37.2085561752
 20
30.9535847626
  0
ARC
  5
6B3
100
AcDbEntity
  8
IMPORT_IGES
100
AcDbCircle
 62
7
  6
CONTINUOUS
 10
-6.9
 20
-6.9750144999
 40
0.4
100
AcDbArc
 50
180.0009948319
 51
210.0006632213
  0
ARC
  5
6B4
100
AcDbEntity
  8
IMPORT_IGES
100
AcDbCircle
 62
7
  6
CONTINUOUS
 10
-6.9
 20
-9.1750144999
 40
0.4
100
AcDbArc
 50
149.9039894776
 51
179.9990051681
  0
ARC
  5
6B5
100
AcDbEntity
  8
IMPORT_IGES
100
AcDbCircle
 62
7
  6
CONTINUOUS
 10
-7.9565514748
 20
-10.197259033
 40
0.3
100
AcDbArc
 50
181.0
 51
224.9999932483
  0
ARC
  5
6B6
100
AcDbEntity
  8
IMPORT_IGES
100
AcDbCircle
 62
7
  6
CONTINUOUS
 10
-6.8787960079
 20
-11.2750144999
 40
0.3
100
AcDbArc
 50
224.999928962
 51
270.0
  0
ARC
  5
6B7
100
AcDbEntity
  8
IMPORT_IGES
100
AcDbCircle
 62
7
  6
CONTINUOUS
 10
-8.05
 20
-6.1250144999
 40
0.2
100
AcDbArc
 50
180.0
 51
270.0
  0
ARC
  5
6B8
100
AcDbEntity
  8
IMPORT_IGES
100
AcDbCircle
 62
7
  6
CONTINUOUS
 10
-7.15
 20
-9.8017289798
 40
0.15
100
AcDbArc
 50
185.0581389377
 51
224.9999943169
  0
ARC
  5
6B9
100
AcDbEntity
  8
IMPORT_IGES
100
AcDbCircle
 62
7
  6
CONTINUOUS
 10
-6.4
 20
-11.6750144999
 40
0.1
100
AcDbArc
 50
180.0000000001
 51
270.0014633388
  0
ARC
  5
6BA
100
AcDbEntity
  8
IMPORT_IGES
100
AcDbCircle
 62
7
  6
CONTINUOUS
 10
-6.6
 20
-11.6750144999
 40
0.1
100
AcDbArc
 50
0.0
 51
89.9971105897
  0
ARC
  5
6BB
100
AcDbEntity
  8
IMPORT_IGES
100
AcDbCircle
 62
7
  6
CONTINUOUS
 10
-6.9
 20
5.9749855001
 40
0.4
100
AcDbArc
 50
149.9018626048
 51
179.9948618777
  0
ARC
  5
6BC
100
AcDbEntity
  8
IMPORT_IGES
100
AcDbCircle
 62
7
  6
CONTINUOUS
 10
-6.9
 20
8.1749855001
 40
0.4
100
AcDbArc
 50
192.0042548451
 51
210.0981086848
  0
ARC
  5
6BD
100
AcDbEntity
  8
IMPORT_IGES
100
AcDbCircle
 62
7
  6
CONTINUOUS
 10
-6.2231434405
 20
10.0249855001
 40
0.3
100
AcDbArc
 50
90.0007361134
 51
119.9976656765
  0
ARC
  5
6BE
100
AcDbEntity
  8
IMPORT_IGES
100
AcDbCircle
 62
7
  6
CONTINUOUS
 10
-6.95
 20
9.0249855001
 40
0.3
100
AcDbArc
 50
90.0
 51
180.0
  0
ARC
  5
6BF
100
AcDbEntity
  8
IMPORT_IGES
100
AcDbCircle
 62
7
  6
CONTINUOUS
 10
-7.9551964078
 20
9.0249858661
 40
0.2999990457
100
AcDbArc
 50
89.9995909185
 51
179.0000626828
  0
ARC
  5
6C0
100
AcDbEntity
  8
IMPORT_IGES
100
AcDbCircle
 62
7
  6
CONTINUOUS
 10
-6.05
 20
6.3749855001
 40
0.2
100
AcDbArc
 50
90.0
 51
180.0
  0
ARC
  5
6C1
100
AcDbEntity
  8
IMPORT_IGES
100
AcDbCircle
 62
7
  6
CONTINUOUS
 10
-6.05
 20
3.7749855001
 40
0.2
100
AcDbArc
 50
180.0
 51
270.0
  0
ARC
  5
6C2
100
AcDbEntity
  8
IMPORT_IGES
100
AcDbCircle
 62
7
  6
CONTINUOUS
 10
-8.05
 20
5.1749855001
 40
0.2
100
AcDbArc
 50
90.0
 51
180.0
  0
ARC
  5
6C3
100
AcDbEntity
  8
IMPORT_IGES
100
AcDbCircle
 62
7
  6
CONTINUOUS
 10
-5.9
 20
10.4249855001
 40
0.1
100
AcDbArc
 50
89.9987306999
 51
180.0000000001
  0
ARC
  5
6C4
100
AcDbEntity
  8
IMPORT_IGES
100
AcDbCircle
 62
7
  6
CONTINUOUS
 10
-6.1
 20
10.4249855001
 40
0.1
100
AcDbArc
 50
270.0024163444
 51
359.9999999995
  0
ARC
  5
6C5
100
AcDbEntity
  8
IMPORT_IGES
100
AcDbCircle
 62
7
  6
CONTINUOUS
 10
6.9
 20
-6.9750144999
 40
0.4
100
AcDbArc
 50
329.9039874363
 51
337.4992538761
  0
ARC
  5
6C6
100
AcDbEntity
  8
IMPORT_IGES
100
AcDbCircle
 62
7
  6
CONTINUOUS
 10
6.9
 20
-9.1750144999
 40
0.4
100
AcDbArc
 50
22.5007461239
 51
30.0006632213
  0
ARC
  5
6C7
100
AcDbEntity
  8
IMPORT_IGES
100
AcDbCircle
 62
7
  6
CONTINUOUS
 10
6.8787960079
 20
-11.2750144999
 40
0.3
100
AcDbArc
 50
270.0
 51
315.0
  0
ARC
  5
6C8
100
AcDbEntity
  8
IMPORT_IGES
100
AcDbCircle
 62
7
  6
CONTINUOUS
 10
7.9565514748
 20
-10.197259033
 40
0.3
100
AcDbArc
 50
315.0001917131
 51
359.0
  0
ARC
  5
6C9
100
AcDbEntity
  8
IMPORT_IGES
100
AcDbCircle
 62
7
  6
CONTINUOUS
 10
8.05
 20
-6.1250144999
 40
0.2
100
AcDbArc
 50
270.0
 51
360.0
  0
ARC
  5
6CA
100
AcDbEntity
  8
IMPORT_IGES
100
AcDbCircle
 62
7
  6
CONTINUOUS
 10
7.15
 20
-9.8017289798
 40
0.15
100
AcDbArc
 50
315.0005590886
 51
360.0
  0
ARC
  5
6CB
100
AcDbEntity
  8
IMPORT_IGES
100
AcDbCircle
 62
7
  6
CONTINUOUS
 10
6.4
 20
-11.6750144999
 40
0.1
100
AcDbArc
 50
269.9985366612
 51
359.9999999999
  0
ARC
  5
6CC
100
AcDbEntity
  8
IMPORT_IGES
100
AcDbCircle
 62
7
  6
CONTINUOUS
 10
6.6
 20
-11.6750144999
 40
0.1
100
AcDbArc
 50
90.0028894102
 51
180.0000000001
  0
ARC
  5
6CD
100
AcDbEntity
  8
IMPORT_IGES
100
AcDbCircle
 62
7
  6
CONTINUOUS
 10
6.9
 20
5.9749855001
 40
0.4
100
AcDbArc
 50
0.0047439178
 51
30.0980937066
  0
ARC
  5
6CE
100
AcDbEntity
  8
IMPORT_IGES
100
AcDbCircle
 62
7
  6
CONTINUOUS
 10
6.9
 20
8.1749855001
 40
0.4
100
AcDbArc
 50
329.9018735806
 51
347.9959565651
  0
ARC
  5
6CF
100
AcDbEntity
  8
IMPORT_IGES
100
AcDbCircle
 62
7
  6
CONTINUOUS
 10
6.2231434405
 20
10.0249855001
 40
0.3
100
AcDbArc
 50
60.001239731
 51
89.9985306809
  0
ARC
  5
6D0
100
AcDbEntity
  8
IMPORT_IGES
100
AcDbCircle
 62
7
  6
CONTINUOUS
 10
6.95
 20
9.0249855001
 40
0.3
100
AcDbArc
 50
0.0
 51
89.9997513476
  0
ARC
  5
6D1
100
AcDbEntity
  8
IMPORT_IGES
100
AcDbCircle
 62
7
  6
CONTINUOUS
 10
7.9551966713
 20
9.0249860558
 40
0.2999989024
100
AcDbArc
 50
0.9997406887
 51
90.0004627784
  0
ARC
  5
6D2
100
AcDbEntity
  8
IMPORT_IGES
100
AcDbCircle
 62
7
  6
CONTINUOUS
 10
6.05
 20
6.3749855001
 40
0.2
100
AcDbArc
 50
0.0
 51
90.0
  0
ARC
  5
6D3
100
AcDbEntity
  8
IMPORT_IGES
100
AcDbCircle
 62
7
  6
CONTINUOUS
 10
6.05
 20
3.7749855001
 40
0.2
100
AcDbArc
 50
270.0
 51
360.0
  0
ARC
  5
6D4
100
AcDbEntity
  8
IMPORT_IGES
100
AcDbCircle
 62
7
  6
CONTINUOUS
 10
8.05
 20
5.1749855001
 40
0.2
100
AcDbArc
 50
0.0
 51
90.0
  0
ARC
  5
6D5
100
AcDbEntity
  8
IMPORT_IGES
100
AcDbCircle
 62
7
  6
CONTINUOUS
 10
5.9
 20
10.4249855001
 40
0.1
100
AcDbArc
 50
0.0
 51
90.0015075932
  0
ARC
  5
6D6
100
AcDbEntity
  8
IMPORT_IGES
100
AcDbCircle
 62
7
  6
CONTINUOUS
 10
6.1
 20
10.4249855001
 40
0.1
100
AcDbArc
 50
180.0000000002
 51
269.9967595745
  0
ARC
  5
6D7
100
AcDbEntity
  8
IMPORT_IGES
100
AcDbCircle
 62
7
  6
CONTINUOUS
 10
-44.2371273237
 20
-9.360751712
 40
0.3
100
AcDbArc
 50
180.0
 51
237.4051679367
  0
ARC
  5
6D8
100
AcDbEntity
  8
IMPORT_IGES
100
AcDbCircle
 62
7
  6
CONTINUOUS
 10
-57.7371273237
 20
-8.1695109765
 40
0.3
100
AcDbArc
 50
180.0
 51
269.8
  0
ARC
  5
6D9
100
AcDbEntity
  8
IMPORT_IGES
100
AcDbCircle
 62
7
  6
CONTINUOUS
 10
-44.2371273237
 20
-4.0933516082
 40
0.3
100
AcDbArc
 50
119.9621840985
 51
180.0
  0
ARC
  5
6DA
100
AcDbEntity
  8
IMPORT_IGES
100
AcDbCircle
 62
7
  6
CONTINUOUS
 10
-46.7520249901
 20
-6.1250144999
 40
0.2
100
AcDbArc
 50
231.6869093262
 51
270.0
  0
ARC
  5
6DB
100
AcDbEntity
  8
IMPORT_IGES
100
AcDbCircle
 62
7
  6
CONTINUOUS
 10
-47.8871273237
 20
-5.2281435202
 40
0.2
100
AcDbArc
 50
180.0
 51
231.6869093257
  0
ARC
  5
6DC
100
AcDbEntity
  8
IMPORT_IGES
100
AcDbCircle
 62
7
  6
CONTINUOUS
 10
-24.7371273237
 20
-8.2753122475
 40
1.5
100
AcDbArc
 50
145.7316915939
 51
179.9988821068
  0
ARC
  5
6DD
100
AcDbEntity
  8
IMPORT_IGES
100
AcDbCircle
 62
7
  6
CONTINUOUS
 10
-26.7371273237
 20
-8.3679077187
 40
0.5
100
AcDbArc
 50
315.0000000296
 51
360.0
  0
ARC
  5
6DE
100
AcDbEntity
  8
IMPORT_IGES
100
AcDbCircle
 62
7
  6
CONTINUOUS
 10
-29.4442341049
 20
-11.0750144999
 40
0.5
100
AcDbArc
 50
270.0
 51
314.9999999775
  0
ARC
  5
6DF
100
AcDbEntity
  8
IMPORT_IGES
100
AcDbCircle
 62
253
  6
CONTINUOUS
 10
-29.4442341049
 20
-11.0750144999
 40
0.3
100
AcDbArc
 50
270.0
 51
313.6309534759
  0
ARC
  5
6E0
100
AcDbEntity
  8
IMPORT_IGES
100
AcDbCircle
 62
7
  6
CONTINUOUS
 10
-24.3871273237
 20
-8.5705166715
 40
0.3
100
AcDbArc
 50
270.0000000003
 51
0.0031980645
  0
ARC
  5
6E1
100
AcDbEntity
  8
IMPORT_IGES
100
AcDbCircle
 62
7
  6
CONTINUOUS
 10
-38.9871273237
 20
-11.6750144999
 40
0.1
100
AcDbArc
 50
179.9999995539
 51
269.9985367325
  0
ARC
  5
6E2
100
AcDbEntity
  8
IMPORT_IGES
100
AcDbCircle
 62
7
  6
CONTINUOUS
 10
-32.2871273237
 20
-11.6750144999
 40
0.1
100
AcDbArc
 50
179.9999995539
 51
269.9985367325
  0
ARC
  5
6E3
100
AcDbEntity
  8
IMPORT_IGES
100
AcDbCircle
 62
7
  6
CONTINUOUS
 10
-38.4871273237
 20
-11.6750144999
 40
0.1
100
AcDbArc
 50
270.001296179
 51
360.0
  0
ARC
  5
6E4
100
AcDbEntity
  8
IMPORT_IGES
100
AcDbCircle
 62
7
  6
CONTINUOUS
 10
-38.2871273237
 20
-11.6750144999
 40
0.1
100
AcDbArc
 50
90.0000007302
 51
180.0000000001
  0
ARC
  5
6E5
100
AcDbEntity
  8
IMPORT_IGES
100
AcDbCircle
 62
7
  6
CONTINUOUS
 10
-39.1871273237
 20
-11.6750144999
 40
0.1
100
AcDbArc
 50
0.0000000008
 51
90.0000489297
  0
ARC
  5
6E6
100
AcDbEntity
  8
IMPORT_IGES
100
AcDbCircle
 62
7
  6
CONTINUOUS
 10
-31.7871273237
 20
-11.6750144999
 40
0.1
100
AcDbArc
 50
270.001296179
 51
360.0
  0
ARC
  5
6E7
100
AcDbEntity
  8
IMPORT_IGES
100
AcDbCircle
 62
7
  6
CONTINUOUS
 10
-31.5871273237
 20
-11.6750144999
 40
0.1
100
AcDbArc
 50
90.0000007302
 51
180.0000000001
  0
ARC
  5
6E8
100
AcDbEntity
  8
IMPORT_IGES
100
AcDbCircle
 62
7
  6
CONTINUOUS
 10
-32.4871273237
 20
-11.6750144999
 40
0.1
100
AcDbArc
 50
0.0000000008
 51
90.0000488704
  0
ARC
  5
6E9
100
AcDbEntity
  8
IMPORT_IGES
100
AcDbCircle
 62
7
  6
CONTINUOUS
 10
-24.7371273237
 20
-6.5748423507
 40
1.5
100
AcDbArc
 50
180.0
 51
209.489067492
  0
ARC
  5
6EA
100
AcDbEntity
  8
IMPORT_IGES
100
AcDbCircle
 62
7
  6
CONTINUOUS
 10
-23.7871273237
 20
-3.8700144999
 40
0.3
100
AcDbArc
 50
89.9999999995
 51
179.9999999983
  0
ARC
  5
6EB
100
AcDbEntity
  8
IMPORT_IGES
100
AcDbCircle
 62
7
  6
CONTINUOUS
 10
-44.2371273237
 20
3.1698426138
 40
0.3
100
AcDbArc
 50
180.0
 51
239.036243468
  0
ARC
  5
6EC
100
AcDbEntity
  8
IMPORT_IGES
100
AcDbCircle
 62
7
  6
CONTINUOUS
 10
-47.8871273237
 20
4.2781145205
 40
0.2
100
AcDbArc
 50
128.3130906738
 51
180.0
  0
ARC
  5
6ED
100
AcDbEntity
  8
IMPORT_IGES
100
AcDbCircle
 62
7
  6
CONTINUOUS
 10
-41.9639388673
 20
8.6250145005
 40
2.0
100
AcDbArc
 50
29.0543979959
 51
90.0
  0
ARC
  5
6EE
100
AcDbEntity
  8
IMPORT_IGES
100
AcDbCircle
 62
7
  6
CONTINUOUS
 10
-44.0371273237
 20
7.667878719
 40
0.5
100
AcDbArc
 50
135.0026207296
 51
179.9999449478
  0
ARC
  5
6EF
100
AcDbEntity
  8
IMPORT_IGES
100
AcDbCircle
 62
7
  6
CONTINUOUS
 10
-42.8800205425
 20
8.8249855001
 40
0.5
100
AcDbArc
 50
90.0000025555
 51
134.9974856792
  0
ARC
  5
6F0
100
AcDbEntity
  8
IMPORT_IGES
100
AcDbCircle
 62
7
  6
CONTINUOUS
 10
-57.7371273237
 20
7.2194819768
 40
0.3
100
AcDbArc
 50
90.2
 51
180.0
  0
ARC
  5
6F1
100
AcDbEntity
  8
IMPORT_IGES
100
AcDbCircle
 62
7
  6
CONTINUOUS
 10
-51.9937385655
 20
9.8934460133
 40
0.3
100
AcDbArc
 50
131.0090869031
 51
251.5650798578
  0
ARC
  5
6F2
100
AcDbEntity
  8
IMPORT_IGES
100
AcDbCircle
 62
7
  6
CONTINUOUS
 10
-46.7520249901
 20
5.1749855001
 40
0.2
100
AcDbArc
 50
90.0
 51
128.3130906738
  0
ARC
  5
6F3
100
AcDbEntity
  8
IMPORT_IGES
100
AcDbCircle
 62
7
  6
CONTINUOUS
 10
-23.8393787265
 20
4.3647719391
 40
1.992703028
100
AcDbArc
 50
187.2345488903
 51
204.3277884814
  0
ARC
  5
6F4
100
AcDbEntity
  8
IMPORT_IGES
100
AcDbCircle
 62
7
  6
CONTINUOUS
 10
-26.0798303518
 20
-0.3539325167
 40
1.9927030281
100
AcDbArc
 50
0.0000047949
 51
24.3276976851
  0
ARC
  5
6F5
100
AcDbEntity
  8
IMPORT_IGES
100
AcDbCircle
 62
7
  6
CONTINUOUS
 10
-23.7886636312
 20
-0.2700144999
 40
0.3
100
AcDbArc
 50
182.0976211818
 51
269.9998766406
  0
ARC
  5
6F6
100
AcDbEntity
  8
IMPORT_IGES
100
AcDbCircle
 62
7
  6
CONTINUOUS
 10
-36.9999073241
 20
10.4249855001
 40
0.1
100
AcDbArc
 50
359.9999998326
 51
89.9934065237
  0
ARC
  5
6F7
100
AcDbEntity
  8
IMPORT_IGES
100
AcDbCircle
 62
7
  6
CONTINUOUS
 10
-37.4999073237
 20
10.4249855001
 40
0.1
100
AcDbArc
 50
90.0063659942
 51
180.0000000002
  0
ARC
  5
6F8
100
AcDbEntity
  8
IMPORT_IGES
100
AcDbCircle
 62
7
  6
CONTINUOUS
 10
-31.8002683237
 20
10.4249855001
 40
0.1
100
AcDbArc
 50
90.0065541164
 51
180.0000000002
  0
ARC
  5
6F9
100
AcDbEntity
  8
IMPORT_IGES
100
AcDbCircle
 62
7
  6
CONTINUOUS
 10
-37.6999073237
 20
10.4249855001
 40
0.1
100
AcDbArc
 50
270.0000000035
 51
359.9999998323
  0
ARC
  5
6FA
100
AcDbEntity
  8
IMPORT_IGES
100
AcDbCircle
 62
7
  6
CONTINUOUS
 10
-36.7999073237
 20
10.4249855001
 40
0.1
100
AcDbArc
 50
180.0000001679
 51
269.9989146296
  0
ARC
  5
6FB
100
AcDbEntity
  8
IMPORT_IGES
100
AcDbCircle
 62
7
  6
CONTINUOUS
 10
-32.0002683237
 20
10.4249855001
 40
0.1
100
AcDbArc
 50
270.0000000035
 51
359.9999998321
  0
ARC
  5
6FC
100
AcDbEntity
  8
IMPORT_IGES
100
AcDbCircle
 62
7
  6
CONTINUOUS
 10
-31.3002683237
 20
10.4249855001
 40
0.1
100
AcDbArc
 50
359.9999998329
 51
89.9934392114
  0
ARC
  5
6FD
100
AcDbEntity
  8
IMPORT_IGES
100
AcDbCircle
 62
7
  6
CONTINUOUS
 10
-25.2311970456
 20
6.1987624932
 40
1.0
100
AcDbArc
 50
1.2448503125
 51
53.000289763
  0
ARC
  5
6FE
100
AcDbEntity
  8
IMPORT_IGES
100
AcDbCircle
 62
7
  6
CONTINUOUS
 10
-26.7065705068
 20
7.1571718703
 40
0.5
100
AcDbArc
 50
7.2347655619
 51
52.999663288
  0
ARC
  5
6FF
100
AcDbEntity
  8
IMPORT_IGES
100
AcDbCircle
 62
7
  6
CONTINUOUS
 10
-24.5101257714
 20
5.2366883328
 40
0.3
100
AcDbArc
 50
1.2448504427
 51
45.0000000017
  0
ARC
  5
700
100
AcDbEntity
  8
IMPORT_IGES
100
AcDbCircle
 62
7
  6
CONTINUOUS
 10
-29.7144304177
 20
8.3249855001
 40
2.0
100
AcDbArc
 50
53.0000001029
 51
90.0006687305
  0
ARC
  5
701
100
AcDbEntity
  8
IMPORT_IGES
100
AcDbCircle
 62
7
  6
CONTINUOUS
 10
-30.1726226896
 20
10.1249855001
 40
0.2
100
AcDbArc
 50
0.2527618433
 51
89.9988817169
  0
ARC
  5
702
100
AcDbEntity
  8
IMPORT_IGES
100
AcDbCircle
 62
7
  6
CONTINUOUS
 10
-31.1002683237
 20
10.4249855001
 40
0.1
100
AcDbArc
 50
180.0000001669
 51
269.9989146316
  0
ARC
  5
703
100
AcDbEntity
  8
IMPORT_IGES
100
AcDbCircle
 62
253
  6
CONTINUOUS
 10
11.2588863498
 20
-11.6331123492
 40
41.0546112937
100
AcDbArc
 50
179.524200648
 51
179.6397967347
  0
ARC
  5
704
100
AcDbEntity
  8
IMPORT_IGES
100
AcDbCircle
 62
7
  6
CONTINUOUS
 10
-20.5371273237
 20
-3.2700144999
 40
0.3
100
AcDbArc
 50
270.0
 51
359.9999999999
  0
ARC
  5
705
100
AcDbEntity
  8
IMPORT_IGES
100
AcDbCircle
 62
7
  6
CONTINUOUS
 10
-21.4371273237
 20
-6.9753122475
 40
0.2
100
AcDbArc
 50
0.0005279882
 51
90.0000000006
  0
ARC
  5
706
100
AcDbEntity
  8
IMPORT_IGES
100
AcDbCircle
 62
7
  6
CONTINUOUS
 10
-21.0371273237
 20
-7.9061140738
 40
0.2
100
AcDbArc
 50
179.9839555172
 51
269.9999999999
  0
ARC
  5
707
100
AcDbEntity
  8
IMPORT_IGES
100
AcDbCircle
 62
7
  6
CONTINUOUS
 10
-20.4371273237
 20
-7.9061140738
 40
0.2
100
AcDbArc
 50
269.9999999991
 51
0.0160444831
  0
ARC
  5
708
100
AcDbEntity
  8
IMPORT_IGES
100
AcDbCircle
 62
7
  6
CONTINUOUS
 10
-20.4371273237
 20
-3.9382197803
 40
0.2
100
AcDbArc
 50
0.0
 51
90.0000000001
  0
ARC
  5
709
100
AcDbEntity
  8
IMPORT_IGES
100
AcDbCircle
 62
7
  6
CONTINUOUS
 10
11.2815853272
 20
10.3078384193
 40
41.2546112934
100
AcDbArc
 50
180.2527278577
 51
180.8911979751
  0
ARC
  5
70A
100
AcDbEntity
  8
IMPORT_IGES
100
AcDbCircle
 62
7
  6
CONTINUOUS
 10
-21.7871273237
 20
-0.0700144999
 40
0.5
100
AcDbArc
 50
270.0000000002
 51
353.9778369184
  0
ARC
  5
70B
100
AcDbEntity
  8
IMPORT_IGES
100
AcDbCircle
 62
7
  6
CONTINUOUS
 10
-20.5371273237
 20
0.1299855001
 40
0.3
100
AcDbArc
 50
0.0
 51
90.0000000003
  0
ELLIPSE
  5
70C
100
AcDbEntity
  8
IMPORT_IGES
100
AcDbEllipse
 62
7
  6
CONTINUOUS
 10
-5.4226866561
 20
8.6250145005
 30
0.0
 11
-0.0
 21
2.0
 31
0.0
 40
0.0633224816
 41
0.0
 42
1.0637014196
  0
ELLIPSE
  5
70D
100
AcDbEntity
  8
IMPORT_IGES
100
AcDbEllipse
 62
7
  6
CONTINUOUS
 10
5.4226866561
 20
8.6250145005
 30
0.0
 11
0.0
 21
2.0
 31
0.0
 40
0.0633224816
 41
-1.0637014196
 42
0.0
  0
ELLIPSE
  5
70E
100
AcDbEntity
  8
IMPORT_IGES
100
AcDbEllipse
 62
7
  6
CONTINUOUS
 10
-5.3705603201
 20
8.2750144996
 30
0.0
 11
-0.0
 21
1.0000000003
 31
0.0
 40
0.0633224816
 41
-0.0
 42
0.6426757939
  0
ELLIPSE
  5
70F
100
AcDbEntity
  8
IMPORT_IGES
100
AcDbEllipse
 62
7
  6
CONTINUOUS
 10
5.3705603202
 20
8.2750144996
 30
0.0
 11
0.0
 21
1.0000000003
 31
0.0
 40
0.0633224816
 41
-0.6426760482
 42
0.0
  0
ELLIPSE
  5
710
100
AcDbEntity
  8
IMPORT_IGES
100
AcDbEllipse
 62
7
  6
CONTINUOUS
 10
-5.6339652685
 20
8.5249855001
 30
0.0
 11
-0.0
 21
0.8
 31
0.0
 40
0.0174550649
 41
-0.7853981634
 42
-0.0
  0
ELLIPSE
  5
711
100
AcDbEntity
  8
IMPORT_IGES
100
AcDbEllipse
 62
7
  6
CONTINUOUS
 10
5.6339652685
 20
8.5249855001
 30
0.0
 11
0.0
 21
0.8
 31
0.0
 40
0.0174550649
 41
-0.0
 42
0.7853981634
  0
ELLIPSE
  5
712
100
AcDbEntity
  8
IMPORT_IGES
100
AcDbEllipse
 62
7
  6
CONTINUOUS
 10
3.55
 20
-9.7119710216
 30
0.0
 11
0.5
 21
-0.0
 31
0.0
 40
0.5652173913
 41
-0.4115168461
 42
-0.0
  0
ELLIPSE
  5
713
100
AcDbEntity
  8
IMPORT_IGES
100
AcDbEllipse
 62
7
  6
CONTINUOUS
 10
-3.55
 20
-9.7119710216
 30
0.0
 11
0.5
 21
-0.0
 31
0.0
 40
0.5652173913
 41
-3.1415926536
 42
-2.7300758075
  0
ELLIPSE
  5
714
100
AcDbEntity
  8
IMPORT_IGES
100
AcDbEllipse
 62
7
  6
CONTINUOUS
 10
-7.232843701
 20
5.1749855001
 30
0.0
 11
-0.0
 21
0.2
 31
0.0
 40
0.0034906727
 41
-0.6686895789
 42
0.0
  0
ELLIPSE
  5
715
100
AcDbEntity
  8
IMPORT_IGES
100
AcDbEllipse
 62
7
  6
CONTINUOUS
 10
-2.325
 20
-8.0537332077
 30
0.0
 11
0.3
 21
0.0
 31
0.0
 40
0.2679491924
 41
-1.5707963268
 42
-0.0
  0
ELLIPSE
  5
716
100
AcDbEntity
  8
IMPORT_IGES
100
AcDbEllipse
 62
7
  6
CONTINUOUS
 10
-7.2288814303
 20
4.2781145205
 30
0.0
 11
0.0
 21
0.2
 31
0.0
 40
0.0034906727
 41
-1.5707963268
 42
-0.6686895789
  0
ELLIPSE
  5
717
100
AcDbEntity
  8
IMPORT_IGES
100
AcDbEllipse
 62
7
  6
CONTINUOUS
 10
-7.2288814303
 20
3.0749855001
 30
0.0
 11
-0.0
 21
0.2
 31
0.0
 40
0.0034906727
 41
-3.1415926536
 42
-2.0936364968
  0
ELLIPSE
  5
718
100
AcDbEntity
  8
IMPORT_IGES
100
AcDbEllipse
 62
7
  6
CONTINUOUS
 10
-7.2288814303
 20
-4.0250144999
 30
0.0
 11
0.0
 21
0.2
 31
0.0
 40
0.0034906727
 41
-1.5707963268
 42
-1.0479562615
  0
ELLIPSE
  5
719
100
AcDbEntity
  8
IMPORT_IGES
100
AcDbEllipse
 62
7
  6
CONTINUOUS
 10
-7.2288814303
 20
-5.2281435202
 30
0.0
 11
0.0
 21
0.2
 31
0.0
 40
0.0034906727
 41
-2.4729030747
 42
-1.5707963268
  0
ELLIPSE
  5
71A
100
AcDbEntity
  8
IMPORT_IGES
100
AcDbEllipse
 62
7
  6
CONTINUOUS
 10
-7.232843701
 20
-6.1250144999
 30
0.0
 11
0.0
 21
0.2
 31
0.0
 40
0.0034906727
 41
-3.1415926536
 42
-2.4729030747
  0
ELLIPSE
  5
71B
100
AcDbEntity
  8
IMPORT_IGES
100
AcDbEllipse
 62
7
  6
CONTINUOUS
 10
2.325
 20
-8.0537332077
 30
0.0
 11
0.3
 21
0.0
 31
0.0
 40
0.2679491924
 41
-3.1415926536
 42
-1.5707963268
  0
ELLIPSE
  5
71C
100
AcDbEntity
  8
IMPORT_IGES
100
AcDbEllipse
 62
7
  6
CONTINUOUS
 10
7.232843701
 20
-6.1250144999
 30
0.0
 11
0.0
 21
0.2
 31
0.0
 40
0.0034906727
 41
-3.8102822325
 42
-3.1415926536
  0
ELLIPSE
  5
71D
100
AcDbEntity
  8
IMPORT_IGES
100
AcDbEllipse
 62
7
  6
CONTINUOUS
 10
7.2288814303
 20
4.2781145205
 30
0.0
 11
0.0
 21
0.2
 31
0.0
 40
0.0034906727
 41
0.6686895789
 42
1.5707963268
  0
ELLIPSE
  5
71E
100
AcDbEntity
  8
IMPORT_IGES
100
AcDbEllipse
 62
7
  6
CONTINUOUS
 10
7.2288814303
 20
3.0749855001
 30
0.0
 11
0.0
 21
0.2
 31
0.0
 40
0.0034906727
 41
-4.7123889804
 42
-4.1895489151
  0
ELLIPSE
  5
71F
100
AcDbEntity
  8
IMPORT_IGES
100
AcDbEllipse
 62
7
  6
CONTINUOUS
 10
7.2288814303
 20
-4.0250144999
 30
0.0
 11
-0.0
 21
0.2
 31
0.0
 40
0.0034906727
 41
0.0
 42
1.0479561568
  0
ELLIPSE
  5
720
100
AcDbEntity
  8
IMPORT_IGES
100
AcDbEllipse
 62
7
  6
CONTINUOUS
 10
7.2288814303
 20
-5.2281435202
 30
0.0
 11
0.0
 21
0.2
 31
0.0
 40
0.0034906727
 41
-4.7123889804
 42
-3.8102822325
  0
ELLIPSE
  5
721
100
AcDbEntity
  8
IMPORT_IGES
100
AcDbEllipse
 62
7
  6
CONTINUOUS
 10
7.232843701
 20
5.1749855001
 30
0.0
 11
-0.0
 21
0.2
 31
0.0
 40
0.0034906727
 41
0.0
 42
0.6686895789
  0
ENDSEC
  0
SECTION
  2
OBJECTS
  0
DICTIONARY
  5
C
100
AcDbDictionary
280
0
281
1
  3
ACAD_GROUP
350
D
  3
ACAD_MLINESTYLE
350
17
  3
ACAD_LAYOUT
350
1A
  3
ACAD_PLOTSETTINGS
350
19
  3
ACAD_PLOTSTYLENAME
350
E
  0
DICTIONARY
  5
D
102
{ACAD_REACTORS
330
C
102
}
100
AcDbDictionary
280
0
281
1
  0
ACDBDICTIONARYWDFLT
  5
E
102
{ACAD_REACTORS
330
C
102
}
100
AcDbDictionary
281
1
  3
Normal
350
F
100
AcDbDictionaryWithDefault
340
F
  0
DICTIONARY
  5
17
102
{ACAD_REACTORS
330
C
102
}
100
AcDbDictionary
280
0
281
1
  3
Standard
350
18
  0
DICTIONARY
  5
19
102
{ACAD_REACTORS
330
C
102
}
100
AcDbDictionary
281
1
  0
DICTIONARY
  5
1A
102
{ACAD_REACTORS
330
C
102
}
100
AcDbDictionary
281
1
  3
Model
350
722
  3
Layout1
350
723
  0
ACDBPLACEHOLDER
  5
F
102
{ACAD_REACTORS
330
E
102
}
  0
MLINESTYLE
  5
18
102
{ACAD_REACTORS
330
17
102
}
100
AcDbMlineStyle
  2
STANDARD
 70
0
  3

 62
256
 51
90.0
 52
90.0
 71
2
 49
0.5
 62
256
  6
BYLAYER
 49
-0.5
 62
256
  6
BYLAYER
  0
LAYOUT
  5
722
102
{ACAD_REACTORS
330
1A
102
}
100
AcDbPlotSettings
  1

  2
none_device
  4
ISO_A4_(297.00_x_210.00_MM)
  6

 40
0.0
 41
0.0
 42
0.0
 43
0.0
 44
297.0
 45
210.0
 46
0.0
 47
0.0
 48
0.0
 49
0.0
140
0.0
141
0.0
142
1.0
143
1.0
 70
1024
 72
1
 73
0
 74
0
  7

 75
0
147
1.0
148
0.0
149
0.0
100
AcDbLayout
  1
Model
 70
0
 71
0
 10
0.0
 20
0.0
 11
297.0
 21
210.0
 12
0.0
 22
0.0
 32
0.0
 14
0.0
 24
0.0
 34
0.0
 15
0.0
 25
0.0
 35
0.0
146
0.0
 13
0.0
 23
0.0
 33
0.0
 16
1.0
 26
0.0
 36
0.0
 17
0.0
 27
1.0
 37
0.0
 76
0
330
213
345
0
346
0
  0
LAYOUT
  5
723
102
{ACAD_REACTORS
330
1A
102
}
100
AcDbPlotSettings
  1

  2
none_device
  4
ISO_A4_(297.00_x_210.00_MM)
  6

 40
0.0
 41
0.0
 42
0.0
 43
0.0
 44
297.0
 45
210.0
 46
0.0
 47
0.0
 48
0.0
 49
0.0
140
0.0
141
0.0
142
1.0
143
1.0
 70
0
 72
1
 73
0
 74
0
  7

 75
0
147
1.0
148
0.0
149
0.0
100
AcDbLayout
  1
Layout1
 70
0
 71
1
 10
0.0
 20
0.0
 11
297.0
 21
210.0
 12
0.0
 22
0.0
 32
0.0
 14
0.0
 24
0.0
 34
0.0
 15
0.0
 25
0.0
 35
0.0
146
0.0
 13
0.0
 23
0.0
 33
0.0
 16
1.0
 26
0.0
 36
0.0
 17
0.0
 27
1.0
 37
0.0
 76
0
330
214
345
0
346
0
  0
ENDSEC
  0
EOF
