  0
SECTION
  2
HEADER
  9
$ACADVER
  1
AC1015
  9
$DWGCODEPAGE
  3
ANSI_1252
  9
$EXTMAX
 10
297.0
 20
210.0
 30
0.0
  9
$EXTMIN
 10
0.0
 20
0.0
 30
0.0
  9
$LIMMIN
 10
0.0
 20
0.0
  9
$LIMMAX
 10
297.0
 20
210.0
  9
$VIEWCTR
 10
148.5
 20
105.0
  9
$VIEWSIZE
 40
210.0
  9
$CLAYER
  8
0
  9
$LTSCALE
 40
16.335
  9
$CELTYPE
  6
BYLAYER
  9
$DIMSCALE
 40
1.0
  9
$DIMASZ
 40
3.0
  9
$DIMEXO
 40
1.85625
  9
$DIMDLI
 40
11.286
  9
$DIMEXE
 40
5.346
  9
$DIMCEN
 40
2.673
  9
$DIMLFAC
 40
1.0
  9
$DIMBLK
  1
_FILLED
  9
$DIMTXT
 40
3.0
  9
$DIMTOL
 70
1
  9
$DIMLIM
 70
0
  9
$DIMTFAC
 40
1.0
  9
$DIMTP
 40
0.01
  9
$DIMTM
 40
0.01
  9
$PDMODE
 70
3
  9
$PDSIZE
 40
3.0
  9
$HANDSEED
  5
720
  9
$TILEMODE
 70
1
  9
$MEASUREMENT
 70
1
  9
$INSUNITS
 70
4
  0
ENDSEC
  0
SECTION
  2
CLASSES
  0
CLASS
  1
ACDBDICTIONARYWDFLT
  2
AcDbDictionaryWithDefault
  3
AutoCAD 2000
 90
0
280
0
281
0
  0
CLASS
  1
ACDBPLACEHOLDER
  2
AcDbPlaceHolder
  3
AutoCAD 2000
 90
0
280
0
281
0
  0
CLASS
  1
LAYOUT
  2
AcDbLayout
  3
AutoCAD 2000
 90
0
280
0
281
0
  0
ENDSEC
  0
SECTION
  2
TABLES
  0
TABLE
  2
VPORT
  5
8
100
AcDbSymbolTable
 70
2
  0
VPORT
  5
1F4
100
AcDbSymbolTableRecord
100
AcDbViewportTableRecord
  2
*ACTIVE
 70
0
 10
0.0
 20
0.0
 11
1.0
 21
1.0
 12
148.5
 22
105.0
 13
0.0
 23
0.0
 14
1.0
 24
1.0
 15
0.0
 25
0.0
 16
0.0
 26
0.0
 36
1.0
 17
0.0
 27
0.0
 37
0.0
 40
210.0
 41
1.4142857143
 42
50.0
 43
0.0
 44
0.0
 50
0.0
 51
0.0
 71
0
 72
100
 73
1
 74
1
 75
0
 76
0
 77
0
 78
0
  0
ENDTAB
  0
TABLE
  2
LTYPE
  5
5
100
AcDbSymbolTable
 70
6
  0
LTYPE
  5
14
100
AcDbSymbolTableRecord
100
AcDbLinetypeTableRecord
  2
BYBLOCK
 70
0
  3

 72
65
 73
0
 40
0.0
  0
LTYPE
  5
15
100
AcDbSymbolTableRecord
100
AcDbLinetypeTableRecord
  2
BYLAYER
 70
0
  3

 72
65
 73
0
 40
0.0
  0
LTYPE
  5
16
100
AcDbSymbolTableRecord
100
AcDbLinetypeTableRecord
  2
CONTINUOUS
 70
64
  3
Solid line
 72
65
 73
0
 40
0.0
  0
LTYPE
  5
1F5
100
AcDbSymbolTableRecord
100
AcDbLinetypeTableRecord
  2
CENTER
 70
64
  3
____ _ ____ _ ____ _ ____ _ ____ _ ____ _ ____
 72
65
 73
4
 40
0.6
 49
0.375
 74
0
 49
-0.075
 74
0
 49
0.075
 74
0
 49
-0.075
 74
0
  0
LTYPE
  5
1F6
100
AcDbSymbolTableRecord
100
AcDbLinetypeTableRecord
  2
HIDDEN
 70
64
  3
- - - - - - - - - - - - - - - - - - - -
 72
65
 73
2
 40
0.2
 49
0.1
 74
0
 49
-0.1
 74
0
  0
LTYPE
  5
1F7
100
AcDbSymbolTableRecord
100
AcDbLinetypeTableRecord
  2
PHANTOM
 70
64
  3
_____ _ _ _____ _ _ _____ _ _ _____
 72
65
 73
6
 40
0.8
 49
0.45
 74
0
 49
-0.05
 74
0
 49
0.1
 74
0
 49
-0.05
 74
0
 49
0.1
 74
0
 49
-0.05
 74
0
  0
LTYPE
  5
1F8
100
AcDbSymbolTableRecord
100
AcDbLinetypeTableRecord
  2
DOT
 70
64
  3
. . . . . . . . . . . . . . . . . . . .
 72
65
 73
2
 40
0.2
 49
0.1
 74
0
 49
-0.1
 74
0
  0
LTYPE
  5
1F9
100
AcDbSymbolTableRecord
100
AcDbLinetypeTableRecord
  2
DASHED
 70
64
  3
- - - - - - - - - - - - - - - - - - - -
 72
65
 73
2
 40
0.2
 49
0.1
 74
0
 49
-0.1
 74
0
  0
ENDTAB
  0
TABLE
  2
LAYER
  5
2
100
AcDbSymbolTable
 70
36
  0
LAYER
  5
10
100
AcDbSymbolTableRecord
100
AcDbLayerTableRecord
  2
0
 70
0
 62
7
  6
CONTINUOUS
370
-3
390
F
  0
LAYER
  5
1FA
100
AcDbSymbolTableRecord
100
AcDbLayerTableRecord
  2
DEFAULT_1
 70
0
 62
7
  6
CENTER
370
-3
390
F
  0
LAYER
  5
1FB
100
AcDbSymbolTableRecord
100
AcDbLayerTableRecord
  2
DEFAULT_2
 70
0
 62
7
  6
HIDDEN
370
-3
390
F
  0
LAYER
  5
1FC
100
AcDbSymbolTableRecord
100
AcDbLayerTableRecord
  2
DEFAULT_3
 70
0
 62
7
  6
PHANTOM
370
-3
390
F
  0
LAYER
  5
1FD
100
AcDbSymbolTableRecord
100
AcDbLayerTableRecord
  2
ASSI
 70
0
 62
7
  6
CONTINUOUS
370
-3
390
F
  0
LAYER
  5
1FE
100
AcDbSymbolTableRecord
100
AcDbLayerTableRecord
  2
COLOR17
 70
0
 62
7
  6
CONTINUOUS
370
-3
390
F
  0
LAYER
  5
1FF
100
AcDbSymbolTableRecord
100
AcDbLayerTableRecord
  2
COLOR3
 70
0
 62
7
  6
CONTINUOUS
370
-3
390
F
  0
LAYER
  5
200
100
AcDbSymbolTableRecord
100
AcDbLayerTableRecord
  2
COLOR5
 70
0
 62
7
  6
CONTINUOUS
370
-3
390
F
  0
LAYER
  5
201
100
AcDbSymbolTableRecord
100
AcDbLayerTableRecord
  2
COORDINATE
 70
0
 62
7
  6
CONTINUOUS
370
-3
390
F
  0
LAYER
  5
202
100
AcDbSymbolTableRecord
100
AcDbLayerTableRecord
  2
COPY_PUBLISH
 70
0
 62
7
  6
CONTINUOUS
370
-3
390
F
  0
LAYER
  5
203
100
AcDbSymbolTableRecord
100
AcDbLayerTableRecord
  2
COSMETICI
 70
0
 62
7
  6
CONTINUOUS
370
-3
390
F
  0
LAYER
  5
204
100
AcDbSymbolTableRecord
100
AcDbLayerTableRecord
  2
CURVE
 70
0
 62
7
  6
CONTINUOUS
370
-3
390
F
  0
LAYER
  5
205
100
AcDbSymbolTableRecord
100
AcDbLayerTableRecord
  2
DRAFT
 70
0
 62
7
  6
CONTINUOUS
370
-3
390
F
  0
LAYER
  5
206
100
AcDbSymbolTableRecord
100
AcDbLayerTableRecord
  2
IMPORT_IGES
 70
0
 62
7
  6
CONTINUOUS
370
-3
390
F
  0
LAYER
  5
207
100
AcDbSymbolTableRecord
100
AcDbLayerTableRecord
  2
NOTE
 70
0
 62
7
  6
CONTINUOUS
370
-3
390
F
  0
LAYER
  5
208
100
AcDbSymbolTableRecord
100
AcDbLayerTableRecord
  2
PIANI
 70
0
 62
7
  6
CONTINUOUS
370
-3
390
F
  0
LAYER
  5
209
100
AcDbSymbolTableRecord
100
AcDbLayerTableRecord
  2
PUNTI
 70
0
 62
7
  6
CONTINUOUS
370
-3
390
F
  0
LAYER
  5
20A
100
AcDbSymbolTableRecord
100
AcDbLayerTableRecord
  2
RACCORDO
 70
0
 62
7
  6
CONTINUOUS
370
-3
390
F
  0
LAYER
  5
20B
100
AcDbSymbolTableRecord
100
AcDbLayerTableRecord
  2
SIMBOLI
 70
0
 62
7
  6
CONTINUOUS
370
-3
390
F
  0
LAYER
  5
20C
100
AcDbSymbolTableRecord
100
AcDbLayerTableRecord
  2
SMUSSO
 70
0
 62
7
  6
CONTINUOUS
370
-3
390
F
  0
LAYER
  5
20D
100
AcDbSymbolTableRecord
100
AcDbLayerTableRecord
  2
SNAPLINE
 70
0
 62
7
  6
CONTINUOUS
370
-3
390
F
  0
LAYER
  5
20E
100
AcDbSymbolTableRecord
100
AcDbLayerTableRecord
  2
SUPERFICI
 70
0
 62
7
  6
CONTINUOUS
370
-3
390
F
  0
LAYER
  5
20F
100
AcDbSymbolTableRecord
100
AcDbLayerTableRecord
  2
TRASH
 70
0
 62
7
  6
CONTINUOUS
370
-3
390
F
  0
LAYER
  5
210
100
AcDbSymbolTableRecord
100
AcDbLayerTableRecord
  2
___SHELL
 70
0
 62
7
  6
CONTINUOUS
370
-3
390
F
  0
ENDTAB
  0
TABLE
  2
STYLE
  5
3
100
AcDbSymbolTable
 70
1
  0
STYLE
  5
11
100
AcDbSymbolTableRecord
100
AcDbTextStyleTableRecord
  2
STANDARD
 70
0
 40
0.0
 41
0.8
 50
0.0
 71
0
 42
0.2
  3
txt
  4

  0
STYLE
  5
211
100
AcDbSymbolTableRecord
100
AcDbTextStyleTableRecord
  2
TEXTSTYLE_1
 70
0
 40
0.0
 41
0.8
 50
0.0
 71
0
 42
0.2
  3
gdt
  4

  0
ENDTAB
  0
TABLE
  2
VIEW
  5
6
100
AcDbSymbolTable
 70
0
  0
ENDTAB
  0
TABLE
  2
UCS
  5
7
100
AcDbSymbolTable
 70
0
  0
ENDTAB
  0
TABLE
  2
APPID
  5
9
100
AcDbSymbolTable
 70
1
  0
APPID
  5
212
100
AcDbSymbolTableRecord
100
AcDbRegAppTableRecord
  2
ACAD
 70
0
  0
ENDTAB
  0
TABLE
  2
BLOCK_RECORD
  5
1
100
AcDbSymbolTable
 70
0
  0
BLOCK_RECORD
  5
213
100
AcDbSymbolTableRecord
100
AcDbBlockTableRecord
  2
*Model_Space
  0
BLOCK_RECORD
  5
214
100
AcDbSymbolTableRecord
100
AcDbBlockTableRecord
  2
*Paper_Space
  0
BLOCK_RECORD
  5
215
100
AcDbSymbolTableRecord
100
AcDbBlockTableRecord
  2
_FILLED
  0
BLOCK_RECORD
  5
216
100
AcDbSymbolTableRecord
100
AcDbBlockTableRecord
  2
*D0
  0
BLOCK_RECORD
  5
217
100
AcDbSymbolTableRecord
100
AcDbBlockTableRecord
  2
*D1
  0
BLOCK_RECORD
  5
218
100
AcDbSymbolTableRecord
100
AcDbBlockTableRecord
  2
*D2
  0
BLOCK_RECORD
  5
219
100
AcDbSymbolTableRecord
100
AcDbBlockTableRecord
  2
*D3
  0
ENDTAB
  0
TABLE
  2
DIMSTYLE
  5
A
100
AcDbSymbolTable
 70
1
100
AcDbDimStyleTable
 71
0
  0
DIMSTYLE
105
21A
100
AcDbSymbolTableRecord
100
AcDbDimStyleTableRecord
  2
STANDARD
 70
0
  3

  4

 40
1.0
 41
3.0
 42
0.0625
 43
0.38
 44
0.18
 45
0.0
 46
0.0
 47
0.01
 48
0.01
140
3.0
141
0.09
142
0.0
143
25.4
144
1.0
145
0.0
146
1.0
147
0.09
 71
1.0
 72
0.0
 73
0
 74
0
 75
0
 76
0
 77
1
 78
8
170
0
171
2
172
0
173
0
174
0
175
0
176
0
177
0
178
0
270
2
271
2
272
2
273
2
274
2
275
0
280
0
281
0
282
0
283
1
284
8
285
0
286
0
287
3
288
0
340
11
341
215
342
215
343
215
344
215
  0
DIMSTYLE
105
21B
100
AcDbSymbolTableRecord
100
AcDbDimStyleTableRecord
  2
DIMSTYLE_1
 70
0
  3

  4

 40
1.0
 41
3.0
 42
0.0625
 43
0.38
 44
0.18
 45
0.0
 46
0.0
 47
0.0
 48
0.0
140
3.0
141
0.09
142
0.0
143
25.4
144
1.0
145
0.0
146
1.0
147
0.09
 71
0.0
 72
0.0
 73
0
 74
0
 75
0
 76
0
 77
1
 78
8
170
0
171
2
172
0
173
0
174
0
175
0
176
0
177
0
178
0
270
2
271
1
272
1
273
2
274
2
275
0
280
0
281
0
282
0
283
1
284
8
285
0
286
0
287
3
288
0
340
11
341
215
342
215
343
215
344
215
  0
ENDTAB
  0
ENDSEC
  0
SECTION
  2
BLOCKS
  0
BLOCK
  5
20
100
AcDbEntity
  8
0
100
AcDbBlockBegin
  2
*Model_Space
 70
0
 10
0.0
 20
0.0
 30
0.0
  3
*Model_Space
  1

  0
ENDBLK
  5
21
100
AcDbEntity
  8
0
100
AcDbBlockEnd
  0
BLOCK
  5
1C
100
AcDbEntity
  8
0
100
AcDbBlockBegin
  2
*Paper_Space
 70
0
 10
0.0
 20
0.0
 30
0.0
  3
*Paper_Space
  1

  0
ENDBLK
  5
1D
100
AcDbEntity
  8
0
100
AcDbBlockEnd
  0
BLOCK
  5
21C
100
AcDbEntity
  8
0
100
AcDbBlockBegin
  2
_FILLED
 70
64
 10
0.0
 20
0.0
  3
_FILLED
  1

  0
SOLID
  5
21D
100
AcDbEntity
  8
0
  6
BYBLOCK
 62
0
100
AcDbTrace
 10
0.0
 20
0.0
 11
-1.0
 21
0.3166666667
 12
-1.0
 22
-0.3166666667
 13
-1.0
 23
-0.3166666667
  0
ENDBLK
  5
21E
100
AcDbEntity
  8
0
  6
BYBLOCK
 62
0
100
AcDbBlockEnd
  0
BLOCK
  5
21F
100
AcDbEntity
  8
0
100
AcDbBlockBegin
 62
7
  6
CONTINUOUS
  2
*D0
 70
65
 10
0.0
 20
0.0
  3
*D0
  1

  0
LINE
  5
220
100
AcDbEntity
  8
0
100
AcDbLine
 62
7
  6
CONTINUOUS
 10
-8.4969712944
 20
0.4090460364
 11
-8.4969712944
 21
21.7157697531
  0
LINE
  5
221
100
AcDbEntity
  8
0
100
AcDbLine
 62
7
  6
CONTINUOUS
 10
8.3484712944
 20
0.4090460364
 11
8.3484712944
 21
21.7157697531
  0
LINE
  5
222
100
AcDbEntity
  8
0
100
AcDbLine
 62
7
  6
CONTINUOUS
 10
-8.4969712944
 20
20.2157697531
 11
-12.4969712944
 21
20.2157697531
  0
LINE
  5
223
100
AcDbEntity
  8
0
100
AcDbLine
 62
7
  6
CONTINUOUS
 10
-12.4969712944
 20
20.2157697531
 11
-0.07425
 21
20.2157697531
  0
LINE
  5
224
100
AcDbEntity
  8
0
100
AcDbLine
 62
7
  6
CONTINUOUS
 10
8.3484712944
 20
20.2157697531
 11
12.3484712944
 21
20.2157697531
  0
LINE
  5
225
100
AcDbEntity
  8
0
100
AcDbLine
 62
7
  6
CONTINUOUS
 10
12.3484712944
 20
20.2157697531
 11
-0.07425
 21
20.2157697531
  0
INSERT
  5
226
100
AcDbEntity
  8
0
100
AcDbBlockReference
 62
7
  6
CONTINUOUS
  2
_FILLED
 10
-8.4969712944
 20
20.2157697531
 41
3.0
 42
3.0
 43
3.0
  0
INSERT
  5
227
100
AcDbEntity
  8
0
100
AcDbBlockReference
 62
7
  6
CONTINUOUS
  2
_FILLED
 10
8.3484712944
 20
20.2157697531
 41
3.0
 42
3.0
 43
3.0
 50
180.0
  0
ENDBLK
  5
228
100
AcDbEntity
  8
0
  6
BYBLOCK
 62
0
100
AcDbBlockEnd
  0
BLOCK
  5
229
100
AcDbEntity
  8
0
100
AcDbBlockBegin
 62
7
  6
CONTINUOUS
  2
*D1
 70
65
 10
0.0
 20
0.0
  3
*D1
  1

  0
LINE
  5
22A
100
AcDbEntity
  8
0
100
AcDbLine
 62
7
  6
CONTINUOUS
 10
5.0332561083
 20
12.2157697531
 11
17.8486458451
 21
12.2157697531
  0
LINE
  5
22B
100
AcDbEntity
  8
0
100
AcDbLine
 62
7
  6
CONTINUOUS
 10
0.42575
 20
-11.2959539636
 11
17.8486458451
 21
-11.2959539636
  0
LINE
  5
22C
100
AcDbEntity
  8
0
100
AcDbLine
 62
7
  6
CONTINUOUS
 10
16.3486458451
 20
12.2157697531
 11
16.3486458451
 21
0.4599078947
  0
LINE
  5
22D
100
AcDbEntity
  8
0
100
AcDbLine
 62
7
  6
CONTINUOUS
 10
16.3486458451
 20
-11.2959539636
 11
16.3486458451
 21
0.4599078947
  0
INSERT
  5
22E
100
AcDbEntity
  8
0
100
AcDbBlockReference
 62
7
  6
CONTINUOUS
  2
_FILLED
 10
16.3486458451
 20
12.2157697531
 41
3.0
 42
3.0
 43
3.0
 50
90.0
  0
INSERT
  5
22F
100
AcDbEntity
  8
0
100
AcDbBlockReference
 62
7
  6
CONTINUOUS
  2
_FILLED
 10
16.3486458451
 20
-11.2959539636
 41
3.0
 42
3.0
 43
3.0
 50
270.0
  0
ENDBLK
  5
230
100
AcDbEntity
  8
0
  6
BYBLOCK
 62
0
100
AcDbBlockEnd
  0
BLOCK
  5
231
100
AcDbEntity
  8
0
100
AcDbBlockBegin
 62
7
  6
CONTINUOUS
  2
*D2
 70
65
 10
0.0
 20
0.0
  3
*D2
  1

  0
LINE
  5
232
100
AcDbEntity
  8
0
100
AcDbLine
 62
7
  6
CONTINUOUS
 10
-63.2428815789
 20
8.198542513
 11
-63.2428815789
 21
31.7157697531
  0
LINE
  5
233
100
AcDbEntity
  8
0
100
AcDbLine
 62
7
  6
CONTINUOUS
 10
-25.4428815789
 20
-1.5909539636
 11
-25.4428815789
 21
31.7157697531
  0
LINE
  5
234
100
AcDbEntity
  8
0
100
AcDbLine
 62
7
  6
CONTINUOUS
 10
-63.2428815789
 20
30.2157697531
 11
-44.3428815789
 21
30.2157697531
  0
LINE
  5
235
100
AcDbEntity
  8
0
100
AcDbLine
 62
7
  6
CONTINUOUS
 10
-25.4428815789
 20
30.2157697531
 11
-44.3428815789
 21
30.2157697531
  0
INSERT
  5
236
100
AcDbEntity
  8
0
100
AcDbBlockReference
 62
7
  6
CONTINUOUS
  2
_FILLED
 10
-63.2428815789
 20
30.2157697531
 41
3.0
 42
3.0
 43
3.0
 50
180.0
  0
INSERT
  5
237
100
AcDbEntity
  8
0
100
AcDbBlockReference
 62
7
  6
CONTINUOUS
  2
_FILLED
 10
-25.4428815789
 20
30.2157697531
 41
3.0
 42
3.0
 43
3.0
  0
ENDBLK
  5
238
100
AcDbEntity
  8
0
  6
BYBLOCK
 62
0
100
AcDbBlockEnd
  0
BLOCK
  5
239
100
AcDbEntity
  8
0
100
AcDbBlockBegin
 62
7
  6
CONTINUOUS
  2
*D3
 70
65
 10
0.0
 20
0.0
  3
*D3
  1

  0
LINE
  5
23A
100
AcDbEntity
  8
0
100
AcDbLine
 62
7
  6
CONTINUOUS
 10
-25.4428815789
 20
0.8090460364
 11
-25.4428815789
 21
21.7157697531
  0
LINE
  5
23B
100
AcDbEntity
  8
0
100
AcDbLine
 62
7
  6
CONTINUOUS
 10
-54.9928815803
 20
11.5657697538
 11
-54.9928815803
 21
21.7157697531
  0
LINE
  5
23C
100
AcDbEntity
  8
0
100
AcDbLine
 62
7
  6
CONTINUOUS
 10
-25.4428815789
 20
20.2157697531
 11
-40.2178815796
 21
20.2157697531
  0
LINE
  5
23D
100
AcDbEntity
  8
0
100
AcDbLine
 62
7
  6
CONTINUOUS
 10
-54.9928815803
 20
20.2157697531
 11
-40.2178815796
 21
20.2157697531
  0
INSERT
  5
23E
100
AcDbEntity
  8
0
100
AcDbBlockReference
 62
7
  6
CONTINUOUS
  2
_FILLED
 10
-25.4428815789
 20
20.2157697531
 41
3.0
 42
3.0
 43
3.0
  0
INSERT
  5
23F
100
AcDbEntity
  8
0
100
AcDbBlockReference
 62
7
  6
CONTINUOUS
  2
_FILLED
 10
-54.9928815803
 20
20.2157697531
 41
3.0
 42
3.0
 43
3.0
 50
180.0
  0
ENDBLK
  5
240
100
AcDbEntity
  8
0
  6
BYBLOCK
 62
0
100
AcDbBlockEnd
  0
ENDSEC
  0
SECTION
  2
ENTITIES
  0
DIMENSION
  5
241
100
AcDbEntity
  8
0
100
AcDbDimension
 62
7
  6
CONTINUOUS
  2
*D0
 10
8.3484712944
 20
20.2157697531
 11
-4.1456785714
 21
20.9657697531
 70
160
 71
2
 42
16.8454425889
  3
DIMSTYLE_1
100
AcDbAlignedDimension
 13
-8.4969712944
 23
0.4090460364
 14
8.3484712944
 24
0.4090460364
100
AcDbRotatedDimension
  0
DIMENSION
  5
242
100
AcDbEntity
  8
0
100
AcDbDimension
 62
7
  6
CONTINUOUS
  2
*D1
 10
16.3486458451
 20
-11.2959539636
 11
15.5986458451
 21
-3.7186635338
 70
160
 71
2
 42
23.5117237167
  3
DIMSTYLE_1
100
AcDbAlignedDimension
 13
5.0332561083
 23
12.2157697531
 14
0.42575
 24
-11.2959539636
 50
270.0
100
AcDbRotatedDimension
  0
DIMENSION
  5
243
100
AcDbEntity
  8
0
100
AcDbDimension
 62
7
  6
CONTINUOUS
  2
*D2
 10
-25.4428815789
 20
30.2157697531
 11
-48.6285958647
 21
30.9657697531
 70
160
 71
2
 42
37.8
  3
DIMSTYLE_1
100
AcDbAlignedDimension
 13
-63.2428815789
 23
8.198542513
 14
-25.4428815789
 24
-1.5909539636
100
AcDbRotatedDimension
  0
DIMENSION
  5
244
100
AcDbEntity
  8
0
100
AcDbDimension
 62
7
  6
CONTINUOUS
  2
*D3
 10
-54.9928815803
 20
20.2157697531
 11
-44.6107387225
 21
20.9657697531
 70
160
 71
2
 42
29.5500000014
  3
DIMSTYLE_1
100
AcDbAlignedDimension
 13
-25.4428815789
 23
0.8090460364
 14
-54.9928815803
 24
11.5657697538
 50
180.0
100
AcDbRotatedDimension
  0
LWPOLYLINE
  5
245
100
AcDbEntity
  8
0
100
AcDbPolyline
 62
7
  6
CONTINUOUS
 90
3
 70
0
 43
0.3500000006
 10
-4.1456784382
 20
23.1086263275
 10
-3.2885356836
 20
23.9657687988
 10
-3.2885356836
 20
20.9657678833
  0
LWPOLYLINE
  5
246
100
AcDbEntity
  8
0
100
AcDbPolyline
 62
7
  6
CONTINUOUS
 90
10
 70
0
 43
0.3500000006
 10
-1.3599642735
 20
23.9657687988
 10
-2.0028214102
 20
23.3229108124
 10
-2.4313929291
 20
22.4657683411
 10
-2.4313929291
 20
21.3943413849
 10
-2.0028214102
 20
20.9657678833
 10
-1.3599642735
 20
20.9657678833
 10
-0.9313928254
 20
21.3943413849
 10
-0.9313928254
 20
22.2514838562
 10
-1.3599642735
 20
22.6800573578
 10
-2.2885356617
 20
22.6800573578
  0
LWPOLYLINE
  5
247
100
AcDbEntity
  8
IMPORT_IGES
100
AcDbPolyline
 62
253
  6
CONTINUOUS
 90
7
 70
0
 10
-7.135128417
 20
-10.0737039226
 10
-7.1694979538
 20
-10.0570480004
 10
-7.2013402607
 20
-10.036259449
 10
-7.2306228266
 20
-10.0112940575
 10
-7.2569165454
 20
-9.9822218764
 10
-7.279427909
 20
-9.9495800422
 10
-7.287628807
 20
-9.9363755931
  0
LWPOLYLINE
  5
248
100
AcDbEntity
  8
IMPORT_IGES
100
AcDbPolyline
 62
253
  6
CONTINUOUS
 90
3
 70
0
 10
-7.1958975466
 20
-10.0407819283
 10
-7.2051455097
 20
-10.0339599657
 10
-7.2157072018
 20
-10.0254734976
  0
LWPOLYLINE
  5
249
100
AcDbEntity
  8
IMPORT_IGES
100
AcDbPolyline
 62
253
  6
CONTINUOUS
 90
3
 70
0
 10
-7.2239194951
 20
-10.0183022555
 10
-7.2346489357
 20
-10.008085998
 10
-7.2432517804
 20
-9.9991239414
  0
LINE
  5
24A
100
AcDbEntity
  8
IMPORT_IGES
100
AcDbLine
 62
7
  6
CONTINUOUS
 10
-8.242933516
 20
-9.9303305243
 11
-7.1651783053
 21
-11.008085735
  0
LINE
  5
24B
100
AcDbEntity
  8
IMPORT_IGES
100
AcDbLine
 62
253
  6
CONTINUOUS
 10
-7.37425
 20
-10.5131577538
 11
-8.0328240552
 21
-9.8545441072
  0
LWPOLYLINE
  5
24C
100
AcDbEntity
  8
IMPORT_IGES
100
AcDbPolyline
 62
253
  6
CONTINUOUS
 90
9
 70
0
 10
-8.2902853204
 20
9.5537633708
 10
-8.2694002252
 20
9.575814377
 10
-8.2444220043
 20
9.5960226242
 10
-8.2154234814
 20
9.6140933235
 10
-8.1829351483
 20
9.6294861597
 10
-8.1475792884
 20
9.6417874742
 10
-8.109980858
 20
9.6507054604
 10
-8.0707168666
 20
9.6560325229
 10
-8.0304667414
 20
9.6575994763
  0
LINE
  5
24D
100
AcDbEntity
  8
IMPORT_IGES
100
AcDbLine
 62
7
  6
CONTINUOUS
 10
-6.4473881409
 20
10.7638567172
 11
-8.1793920258
 21
9.763883808
  0
LINE
  5
24E
100
AcDbEntity
  8
IMPORT_IGES
100
AcDbLine
 62
7
  6
CONTINUOUS
 10
-6.7591577501
 20
10.5182042562
 11
-7.490479265
 21
10.1094300749
  0
LINE
  5
24F
100
AcDbEntity
  8
IMPORT_IGES
100
AcDbLine
 62
7
  6
CONTINUOUS
 10
-6.3905845658
 20
10.7222480307
 11
-6.7591577501
 21
10.5182042562
  0
LINE
  5
250
100
AcDbEntity
  8
IMPORT_IGES
100
AcDbLine
 62
7
  6
CONTINUOUS
 10
-7.490479265
 20
10.1094300749
 11
-8.0404239989
 21
9.8045300439
  0
LWPOLYLINE
  5
251
100
AcDbEntity
  8
IMPORT_IGES
100
AcDbPolyline
 62
253
  6
CONTINUOUS
 90
10
 70
0
 10
-6.4473483374
 20
10.7638795439
 10
-6.4433422274
 20
10.7651803888
 10
-6.4385067601
 20
10.7649353205
 10
-6.4329274789
 20
10.7630917478
 10
-6.4267810257
 20
10.7597065556
 10
-6.4201762298
 20
10.754868147
 10
-6.4131044053
 20
10.7485683426
 10
-6.4056669501
 20
10.7408692893
 10
-6.3981000698
 20
10.7320138084
 10
-6.3905845601
 20
10.7222480271
  0
LWPOLYLINE
  5
252
100
AcDbEntity
  8
IMPORT_IGES
100
AcDbPolyline
 62
253
  6
CONTINUOUS
 90
9
 70
0
 10
6.9447261402
 20
-10.0875037268
 10
6.9508946293
 20
-10.0857317114
 10
6.9880537207
 20
-10.0731178234
 10
7.0232484771
 20
-10.0557615848
 10
7.0558767067
 20
-10.0339599657
 10
7.0853801324
 20
-10.008085998
 10
7.1112539425
 20
-9.9785823923
 10
7.1330554287
 20
-9.9459539636
 10
7.1408525005
 20
-9.933072112
  0
LINE
  5
253
100
AcDbEntity
  8
IMPORT_IGES
100
AcDbLine
 62
253
  6
CONTINUOUS
 10
6.9124070056
 20
-10.0933874219
 11
6.9508317278
 21
-10.0859532897
  0
LINE
  5
254
100
AcDbEntity
  8
IMPORT_IGES
100
AcDbLine
 62
7
  6
CONTINUOUS
 10
6.3257474456
 20
-11.2959539636
 11
-6.4739778077
 21
-11.2959539636
  0
LINE
  5
255
100
AcDbEntity
  8
IMPORT_IGES
100
AcDbLine
 62
253
  6
CONTINUOUS
 10
6.42575
 20
-11.1959539636
 11
-6.57425
 21
-11.1959539636
  0
LINE
  5
256
100
AcDbEntity
  8
IMPORT_IGES
100
AcDbLine
 62
7
  6
CONTINUOUS
 10
6.8045460079
 20
-11.0959539636
 11
-6.9530460079
 21
-11.0959539636
  0
LWPOLYLINE
  5
257
100
AcDbEntity
  8
IMPORT_IGES
100
AcDbPolyline
 62
253
  6
CONTINUOUS
 90
4
 70
0
 10
-7.098561794
 20
-10.0859535891
 10
-7.137322524
 20
-10.0731178234
 10
-7.1725172798
 20
-10.0557615848
 10
-7.1838753628
 20
-10.0488669069
  0
LWPOLYLINE
  5
258
100
AcDbEntity
  8
IMPORT_IGES
100
AcDbPolyline
 62
253
  6
CONTINUOUS
 90
10
 70
0
 10
-7.3303159368
 20
-9.4287345411
 10
-7.3338285889
 20
-9.4255878858
 10
-7.3377011422
 20
-9.4228126787
 10
-7.3419269064
 20
-9.4204136981
 10
-7.3464985592
 20
-9.4183950807
 10
-7.3514082237
 20
-9.4167602876
 10
-7.3566474984
 20
-9.4155121184
 10
-7.3622073781
 20
-9.4146527326
 10
-7.3680782529
 20
-9.4141836261
 10
-7.37425
 20
-9.4141056161
  0
LINE
  5
259
100
AcDbEntity
  8
IMPORT_IGES
100
AcDbLine
 62
253
  6
CONTINUOUS
 10
-7.37425
 20
-9.6590645466
 11
-7.3231968456
 21
-9.710117701
  0
LINE
  5
25A
100
AcDbEntity
  8
IMPORT_IGES
100
AcDbLine
 62
253
  6
CONTINUOUS
 10
-6.937360583
 20
-10.0959539636
 11
-6.8105656638
 21
-10.2227488829
  0
LINE
  5
25B
100
AcDbEntity
  8
IMPORT_IGES
100
AcDbLine
 62
7
  6
CONTINUOUS
 10
-7.3303159368
 20
-9.4287345411
 11
-7.32425
 21
-9.4348004779
  0
LINE
  5
25C
100
AcDbEntity
  8
IMPORT_IGES
100
AcDbLine
 62
7
  6
CONTINUOUS
 10
-6.6630965143
 20
-10.0959539636
 11
-6.5630965143
 21
-10.1959539636
  0
LINE
  5
25D
100
AcDbEntity
  8
IMPORT_IGES
100
AcDbLine
 62
253
  6
CONTINUOUS
 10
-6.3509644841
 20
-10.1959539636
 11
-6.4509646104
 21
-10.0959539636
  0
LWPOLYLINE
  5
25E
100
AcDbEntity
  8
IMPORT_IGES
100
AcDbPolyline
 62
253
  6
CONTINUOUS
 90
5
 70
0
 10
-7.2528255195
 20
-9.9882036991
 10
-7.2605227458
 20
-9.9785823923
 10
-7.282324232
 20
-9.9459539636
 10
-7.2996803649
 20
-9.9107589933
 10
-7.3049082481
 20
-9.8972374357
  0
LINE
  5
25F
100
AcDbEntity
  8
IMPORT_IGES
100
AcDbLine
 62
7
  6
CONTINUOUS
 10
-7.32425
 20
9.1028997485
 11
-7.37425
 21
9.074032235
  0
LWPOLYLINE
  5
260
100
AcDbEntity
  8
IMPORT_IGES
100
AcDbPolyline
 62
253
  6
CONTINUOUS
 90
10
 70
0
 10
-4.5843016122
 20
10.3342074978
 10
-4.6428179971
 20
10.3167116628
 10
-4.6958572795
 20
10.298419477
 10
-4.7431463772
 20
10.2793309406
 10
-4.7844251428
 20
10.2593399256
 10
-4.8195207845
 20
10.2385525598
 10
-4.8483126321
 20
10.2172872272
 10
-4.8706497488
 20
10.1956500555
 10
-4.8863877985
 20
10.1735349168
 10
-4.8954380766
 20
10.1509418112
  0
LWPOLYLINE
  5
261
100
AcDbEntity
  8
IMPORT_IGES
100
AcDbPolyline
 62
253
  6
CONTINUOUS
 90
7
 70
0
 10
7.17575
 20
-9.3353583434
 10
7.1841423022
 20
-9.3333212887
 10
7.1977048611
 20
-9.3301624508
 10
7.2090694554
 20
-9.3269804786
 10
7.217973851
 20
-9.3240320235
 10
7.2236978485
 20
-9.3223812422
 10
7.2257188848
 20
-9.3226714519
  0
LWPOLYLINE
  5
262
100
AcDbEntity
  8
IMPORT_IGES
100
AcDbPolyline
 62
7
  6
CONTINUOUS
 90
7
 70
0
 10
7.2255323219
 20
-9.2052605059
 10
7.2242448521
 20
-9.2054352424
 10
7.2202936007
 20
-9.2054038211
 10
7.2137535806
 20
-9.2052809091
 10
7.2047519517
 20
-9.2052349293
 10
7.1934232193
 20
-9.2052836762
 10
7.1798631222
 20
-9.2052662414
  0
LINE
  5
263
100
AcDbEntity
  8
IMPORT_IGES
100
AcDbLine
 62
253
  6
CONTINUOUS
 10
6.8732493833
 20
-10.0959539636
 11
6.9124070056
 21
-10.0933874219
  0
LWPOLYLINE
  5
264
100
AcDbEntity
  8
IMPORT_IGES
100
AcDbPolyline
 62
253
  6
CONTINUOUS
 90
13
 70
0
 10
6.8729039112
 20
-10.0304401638
 10
6.9116739466
 20
-10.0281958379
 10
6.9496345433
 20
-10.0216537738
 10
6.9861666151
 20
-10.0109767757
 10
7.0205088068
 20
-9.9964811021
 10
7.0523316303
 20
-9.9784040002
 10
7.0816023429
 20
-9.9567074244
 10
7.1078932551
 20
-9.9314526569
 10
7.1304131967
 20
-9.9031056456
 10
7.1485524111
 20
-9.8722160399
 10
7.1618779129
 20
-9.8393371282
 10
7.1700797154
 20
-9.8049803108
 10
7.1729020835
 20
-9.7697484436
  0
LWPOLYLINE
  5
265
100
AcDbEntity
  8
IMPORT_IGES
100
AcDbPolyline
 62
7
  6
CONTINUOUS
 90
5
 70
0
 10
-6.8105656638
 20
-10.2227488829
 10
-6.7865467086
 20
-10.2222764693
 10
-6.7629445452
 20
-10.2203996244
 10
-6.7397591736
 20
-10.2172658965
 10
-6.7168135295
 20
-10.2130160522
  0
LINE
  5
266
100
AcDbEntity
  8
IMPORT_IGES
100
AcDbLine
 62
7
  6
CONTINUOUS
 10
-7.3752176109
 20
-10.7964373872
 11
7.2267176109
 21
-10.7964373872
  0
LINE
  5
267
100
AcDbEntity
  8
IMPORT_IGES
100
AcDbLine
 62
253
  6
CONTINUOUS
 10
-7.37425
 20
-10.3959539636
 11
7.22575
 21
-10.3959539636
  0
LINE
  5
268
100
AcDbEntity
  8
IMPORT_IGES
100
AcDbLine
 62
7
  6
CONTINUOUS
 10
-7.37425
 20
-10.2227488829
 11
-6.8105656638
 21
-10.2227488829
  0
LINE
  5
269
100
AcDbEntity
  8
IMPORT_IGES
100
AcDbLine
 62
7
  6
CONTINUOUS
 10
6.6620656638
 20
-10.2227488829
 11
7.22575
 21
-10.2227488829
  0
LINE
  5
26A
100
AcDbEntity
  8
IMPORT_IGES
100
AcDbLine
 62
7
  6
CONTINUOUS
 10
-6.6141803044
 20
-10.1959539636
 11
6.4656803044
 21
-10.1959539636
  0
LINE
  5
26B
100
AcDbEntity
  8
IMPORT_IGES
100
AcDbLine
 62
7
  6
CONTINUOUS
 10
-7.0221337891
 20
-10.0959539636
 11
6.8736337891
 21
-10.0959539636
  0
LINE
  5
26C
100
AcDbEntity
  8
IMPORT_IGES
100
AcDbLine
 62
253
  6
CONTINUOUS
 10
-7.0214039099
 20
-10.0304398697
 11
6.8729039099
 21
-10.0304398694
  0
LWPOLYLINE
  5
26D
100
AcDbEntity
  8
IMPORT_IGES
100
AcDbPolyline
 62
7
  6
CONTINUOUS
 90
10
 70
0
 10
6.6620656638
 20
-10.2227488829
 10
6.6379678485
 20
-10.2221805893
 10
6.614124377
 20
-10.2202460114
 10
6.590627397
 20
-10.2171556714
 10
6.5675966224
 20
-10.2128241671
 10
6.5452125976
 20
-10.2078760178
 10
6.5236629269
 20
-10.2034867592
 10
6.5031026803
 20
-10.2000889983
 10
6.4837115169
 20
-10.1975280761
 10
6.4656803044
 20
-10.1959539636
  0
LWPOLYLINE
  5
26E
100
AcDbEntity
  8
IMPORT_IGES
100
AcDbPolyline
 62
7
  6
CONTINUOUS
 90
28
 70
0
 10
-7.022527289
 20
-10.0959552953
 10
-7.0488513641
 20
-10.0947973895
 10
-7.0738217476
 20
-10.0915361143
 10
-7.0969669367
 20
-10.0865710361
 10
-7.1182412263
 20
-10.0802742701
 10
-7.137597153
 20
-10.0730059579
 10
-7.1549825713
 20
-10.065127147
 10
-7.1703456593
 20
-10.0570058626
 10
-7.1838753628
 20
-10.0488669069
 10
-7.1958975466
 20
-10.0407819283
 10
-7.206476649
 20
-10.0329359418
 10
-7.2157072018
 20
-10.0254734976
 10
-7.2239194951
 20
-10.0183022555
 10
-7.2305179463
 20
-10.0121422697
 10
-7.236250435
 20
-10.0064767457
 10
-7.2432517804
 20
-9.9991239414
 10
-7.2528255195
 20
-9.9882036991
 10
-7.2631159515
 20
-9.9751584138
 10
-7.271738483
 20
-9.96295953
 10
-7.2780722902
 20
-9.953096582
 10
-7.2831897357
 20
-9.9444535617
 10
-7.287628807
 20
-9.9363755931
 10
-7.2913703068
 20
-9.9290723341
 10
-7.294562998
 20
-9.9224200551
 10
-7.2978205869
 20
-9.915162804
 10
-7.3014023364
 20
-9.9065249178
 10
-7.3049082481
 20
-9.8972374357
 10
-7.3079573311
 20
-9.8882967727
  0
LWPOLYLINE
  5
26F
100
AcDbEntity
  8
IMPORT_IGES
100
AcDbPolyline
 62
253
  6
CONTINUOUS
 90
12
 70
0
 10
-8.0328286903
 20
-9.8545441307
 10
-8.0716221863
 20
-9.8526325313
 10
-8.1097638333
 20
-9.8465053472
 10
-8.1466131457
 20
-9.836265811
 10
-8.1815512538
 20
-9.8220850768
 10
-8.2139917029
 20
-9.8042025646
 10
-8.2433901787
 20
-9.7829217951
 10
-8.2692531159
 20
-9.7586011179
 10
-8.29114611
 20
-9.7316478686
 10
-8.3087015364
 20
-9.702514643
 10
-8.3216246064
 20
-9.6716906429
 10
-8.3296983172
 20
-9.6396934614
  0
LWPOLYLINE
  5
270
100
AcDbEntity
  8
IMPORT_IGES
100
AcDbPolyline
 62
253
  6
CONTINUOUS
 90
13
 70
0
 10
-7.02127527
 20
-10.0304400391
 10
-7.0604479149
 20
-10.0281641246
 10
-7.0989382229
 20
-10.0214666957
 10
-7.1360887103
 20
-10.0104670989
 10
-7.1712618559
 20
-9.9953600507
 10
-7.2038639317
 20
-9.9764068691
 10
-7.2333516744
 20
-9.9539263221
 10
-7.2592246743
 20
-9.9282988451
 10
-7.281037427
 20
-9.8999644814
 10
-7.2984175295
 20
-9.8694069759
 10
-7.3110682561
 20
-9.8371480282
 10
-7.3187736247
 20
-9.8037383863
 10
-7.3214020835
 20
-9.7697484436
  0
LWPOLYLINE
  5
271
100
AcDbEntity
  8
IMPORT_IGES
100
AcDbPolyline
 62
253
  6
CONTINUOUS
 90
3
 70
0
 10
-7.0217493904
 20
-10.0959539636
 10
-7.0605617779
 20
-10.0934326691
 10
-7.098561794
 20
-10.0859535891
  0
LWPOLYLINE
  5
272
100
AcDbEntity
  8
IMPORT_IGES
100
AcDbPolyline
 62
253
  6
CONTINUOUS
 90
6
 70
0
 10
-7.32425
 20
-9.3352937176
 10
-7.3462723088
 20
-9.329738053
 10
-7.3576279997
 20
-9.3269864707
 10
-7.366537305
 20
-9.3248987884
 10
-7.3722389742
 20
-9.3234594432
 10
-7.3742500187
 20
-9.3226684352
  0
LWPOLYLINE
  5
273
100
AcDbEntity
  8
IMPORT_IGES
100
AcDbPolyline
 62
253
  6
CONTINUOUS
 90
5
 70
0
 10
-7.2913703068
 20
-9.9290723341
 10
-7.2975457216
 20
-9.9140024997
 10
-7.3108361362
 20
-9.8761277442
 10
-7.3189886775
 20
-9.8365462003
 10
-7.3217475627
 20
-9.7959539636
  0
LWPOLYLINE
  5
274
100
AcDbEntity
  8
IMPORT_IGES
100
AcDbPolyline
 62
7
  6
CONTINUOUS
 90
11
 70
0
 10
6.8988105039
 20
-8.0277948817
 10
6.9366356131
 20
-8.0203888151
 10
6.9733544629
 20
-8.0081660525
 10
7.0083436953
 20
-7.9912079013
 10
7.0409794249
 20
-7.9697547961
 10
7.0706550299
 20
-7.9442136512
 10
7.0968241906
 20
-7.9149061243
 10
7.1190047876
 20
-7.8822632482
 10
7.1367695329
 20
-7.8469569379
 10
7.1497620053
 20
-7.8095708007
 10
7.1577040256
 20
-7.7705917065
  0
LWPOLYLINE
  5
275
100
AcDbEntity
  8
IMPORT_IGES
100
AcDbPolyline
 62
253
  6
CONTINUOUS
 90
5
 70
0
 10
7.1936785475
 20
-9.2008904358
 10
7.2050699554
 20
-9.2000307051
 10
7.2140573212
 20
-9.199103259
 10
7.2205371387
 20
-9.19808341
 10
7.2244456308
 20
-9.1970282004
  0
LINE
  5
276
100
AcDbEntity
  8
IMPORT_IGES
100
AcDbLine
 62
253
  6
CONTINUOUS
 10
7.17575
 20
-9.2020759743
 11
7.1936785475
 21
-9.2008904358
  0
LWPOLYLINE
  5
277
100
AcDbEntity
  8
IMPORT_IGES
100
AcDbPolyline
 62
253
  6
CONTINUOUS
 90
10
 70
0
 10
7.22575
 20
-9.4141054978
 10
7.2195782296
 20
-9.4141835365
 10
7.2137073425
 20
-9.4146526669
 10
7.2081474607
 20
-9.4155120707
 10
7.2029081056
 20
-9.4167603388
 10
7.1979983691
 20
-9.418395223
 10
7.1934269153
 20
-9.4204136595
 10
7.1892017082
 20
-9.4228120984
 10
7.185329981
 20
-9.4255864898
 10
7.1818184232
 20
-9.4287320547
  0
LWPOLYLINE
  5
278
100
AcDbEntity
  8
IMPORT_IGES
100
AcDbPolyline
 62
7
  6
CONTINUOUS
 90
8
 70
0
 10
-7.32425
 20
-9.2052317641
 10
-7.3284459522
 20
-9.2052660271
 10
-7.3419821103
 20
-9.2052839534
 10
-7.3532903687
 20
-9.2052356708
 10
-7.3622755041
 20
-9.2052814036
 10
-7.3688034499
 20
-9.2054033363
 10
-7.3727473709
 20
-9.2054336181
 10
-7.3740324395
 20
-9.2052579773
  0
LINE
  5
279
100
AcDbEntity
  8
IMPORT_IGES
100
AcDbLine
 62
253
  6
CONTINUOUS
 10
7.1732475627
 20
-9.7959539636
 11
7.174016366
 21
-9.7959536987
  0
LINE
  5
27A
100
AcDbEntity
  8
IMPORT_IGES
100
AcDbLine
 62
253
  6
CONTINUOUS
 10
-7.322516366
 20
-9.7959539636
 11
-7.3217475627
 21
-9.7959539636
  0
LINE
  5
27B
100
AcDbEntity
  8
IMPORT_IGES
100
AcDbLine
 62
7
  6
CONTINUOUS
 10
-4.0825075695
 20
-9.3459539636
 11
3.9340075695
 21
-9.3459539636
  0
LINE
  5
27C
100
AcDbEntity
  8
IMPORT_IGES
100
AcDbLine
 62
253
  6
CONTINUOUS
 10
-8.0454027644
 20
-9.1344414723
 11
-7.37425
 21
-9.1344414725
  0
LINE
  5
27D
100
AcDbEntity
  8
IMPORT_IGES
100
AcDbLine
 62
253
  6
CONTINUOUS
 10
7.22575
 20
-9.1344414726
 11
7.8969027644
 21
-9.1344414725
  0
LINE
  5
27E
100
AcDbEntity
  8
IMPORT_IGES
100
AcDbLine
 62
7
  6
CONTINUOUS
 10
3.17575
 20
-9.063345268
 11
-3.32425
 21
-9.063345268
  0
LINE
  5
27F
100
AcDbEntity
  8
IMPORT_IGES
100
AcDbLine
 62
7
  6
CONTINUOUS
 10
7.1798631222
 20
-9.2052662414
 11
7.17575
 21
-9.2052327873
  0
LWPOLYLINE
  5
280
100
AcDbEntity
  8
IMPORT_IGES
100
AcDbPolyline
 62
253
  6
CONTINUOUS
 90
13
 70
0
 10
-8.0454027644
 20
-9.1344414726
 10
-8.0841356414
 20
-9.132522043
 10
-8.1222387989
 20
-9.1263994183
 10
-8.1590722814
 20
-9.116170015
 10
-8.1940207203
 20
-9.1019971293
 10
-8.2264884488
 20
-9.0841143027
 10
-8.2559135302
 20
-9.062826767
 10
-8.281799665
 20
-9.0384927746
 10
-8.3037119675
 20
-9.0115202316
 10
-8.3212762
 20
-8.982371929
 10
-8.334199421
 20
-8.9515426732
 10
-8.3422702937
 20
-8.9195483878
 10
-8.3453570729
 20
-8.8869268977
  0
LWPOLYLINE
  5
281
100
AcDbEntity
  8
IMPORT_IGES
100
AcDbPolyline
 62
253
  6
CONTINUOUS
 90
6
 70
0
 10
-7.32425
 20
-9.2020752781
 10
-7.342240545
 20
-9.2008846181
 10
-7.3536108723
 20
-9.2000241658
 10
-7.3625809462
 20
-9.1991002658
 10
-7.3690478687
 20
-9.1980832927
 10
-7.3729483595
 20
-9.1970299062
  0
LWPOLYLINE
  5
282
100
AcDbEntity
  8
IMPORT_IGES
100
AcDbPolyline
 62
7
  6
CONTINUOUS
 90
11
 70
0
 10
-7.0471605784
 20
-8.0278492653
 10
-7.085062737
 20
-8.0204422605
 10
-7.1218269107
 20
-8.0081829999
 10
-7.1568232349
 20
-7.9912279995
 10
-7.1894420966
 20
-7.9698152817
 10
-7.2191045743
 20
-7.9442613433
 10
-7.2452689965
 20
-7.9149649461
 10
-7.2674505176
 20
-7.8823908516
 10
-7.2852267514
 20
-7.8470571993
 10
-7.2982368413
 20
-7.8095475102
 10
-7.3061950768
 20
-7.7705052079
  0
LINE
  5
283
100
AcDbEntity
  8
IMPORT_IGES
100
AcDbLine
 62
253
  6
CONTINUOUS
 10
-7.3079573311
 20
-9.8882967727
 11
-7.3122941762
 21
-9.8735996772
  0
LWPOLYLINE
  5
284
100
AcDbEntity
  8
IMPORT_IGES
100
AcDbPolyline
 62
7
  6
CONTINUOUS
 90
15
 70
0
 10
-7.3079573311
 20
-9.8882967727
 10
-7.3104568278
 20
-9.8801814426
 10
-7.3126034491
 20
-9.8724636555
 10
-7.3145167821
 20
-9.8648040334
 10
-7.3162385432
 20
-9.8570462575
 10
-7.3177339261
 20
-9.8493590051
 10
-7.3189902514
 20
-9.8418823286
 10
-7.3200398591
 20
-9.8345138308
 10
-7.3208813481
 20
-9.8273659513
 10
-7.3214949952
 20
-9.8208930116
 10
-7.3219234117
 20
-9.8151412964
 10
-7.3222143886
 20
-9.8100174621
 10
-7.3223946808
 20
-9.8057368452
 10
-7.3224961208
 20
-9.802504963
 10
-7.3225581295
 20
-9.7999636923
  0
LINE
  5
285
100
AcDbEntity
  8
IMPORT_IGES
100
AcDbLine
 62
253
  6
CONTINUOUS
 10
-8.3296983172
 20
-9.6396934614
 11
-8.332787096
 21
-9.6070603914
  0
LWPOLYLINE
  5
286
100
AcDbEntity
  8
IMPORT_IGES
100
AcDbPolyline
 62
253
  6
CONTINUOUS
 90
9
 70
0
 10
-8.32425
 20
-5.6459539636
 10
-8.3225400139
 20
-5.6664308319
 10
-8.3174382534
 20
-5.6865606027
 10
-8.3090304429
 20
-5.7059987132
 10
-8.2974582187
 20
-5.7244131735
 10
-8.2829186393
 20
-5.741487112
 10
-8.2656624773
 20
-5.7569250398
 10
-8.2459849807
 20
-5.7704629006
 10
-8.2242234274
 20
-5.7818687236
  0
LWPOLYLINE
  5
287
100
AcDbEntity
  8
IMPORT_IGES
100
AcDbPolyline
 62
253
  6
CONTINUOUS
 90
13
 70
0
 10
-8.32425
 20
4.7571750568
 10
-8.3225409779
 20
4.7776461768
 10
-8.3174411697
 20
4.797773153
 10
-8.3090348991
 20
4.817211363
 10
-8.2974618605
 20
4.8356293167
 10
-8.282918283
 20
4.8527085694
 10
-8.2656566312
 20
4.8681507192
 10
-8.2459721883
 20
4.8816916933
 10
-8.2242028217
 20
4.8930991467
 10
-8.2007312571
 20
4.9021746605
 10
-8.1759645325
 20
4.9087652045
 10
-8.1503244879
 20
4.9127626487
 10
-8.12425
 20
4.9141020059
  0
LWPOLYLINE
  5
288
100
AcDbEntity
  8
IMPORT_IGES
100
AcDbPolyline
 62
253
  6
CONTINUOUS
 90
5
 70
0
 10
-8.3304210505
 20
9.4507031242
 10
-8.3274636181
 20
9.4778874542
 10
-8.3196334116
 20
9.5044264977
 10
-8.3071196759
 20
9.5298925916
 10
-8.2902853204
 20
9.5537633708
  0
LWPOLYLINE
  5
289
100
AcDbEntity
  8
IMPORT_IGES
100
AcDbPolyline
 62
7
  6
CONTINUOUS
 90
5
 70
0
 10
-6.7168135295
 20
-10.2130160522
 10
-6.6727038093
 20
-10.2036077569
 10
-6.65224799
 20
-10.1997423176
 10
-6.632740155
 20
-10.1970022481
 10
-6.6141803044
 20
-10.1959539636
  0
LINE
  5
28A
100
AcDbEntity
  8
IMPORT_IGES
100
AcDbLine
 62
7
  6
CONTINUOUS
 10
6.8605154001
 20
-8.0303313973
 11
6.8988105039
 21
-8.0277948817
  0
LINE
  5
28B
100
AcDbEntity
  8
IMPORT_IGES
100
AcDbLine
 62
253
  6
CONTINUOUS
 10
-8.3453570729
 20
-8.8869268977
 11
-8.0454027644
 21
-8.881691176
  0
LINE
  5
28C
100
AcDbEntity
  8
IMPORT_IGES
100
AcDbLine
 62
253
  6
CONTINUOUS
 10
-8.0454027644
 20
-8.881691176
 11
-7.37425
 21
-8.8816911758
  0
LINE
  5
28D
100
AcDbEntity
  8
IMPORT_IGES
100
AcDbLine
 62
253
  6
CONTINUOUS
 10
7.22575
 20
-8.881691176
 11
7.8969027644
 21
-8.8816911763
  0
LINE
  5
28E
100
AcDbEntity
  8
IMPORT_IGES
100
AcDbLine
 62
253
  6
CONTINUOUS
 10
7.8969027644
 20
-8.8816911758
 11
8.1968570729
 21
-8.8869268977
  0
LINE
  5
28F
100
AcDbEntity
  8
IMPORT_IGES
100
AcDbLine
 62
7
  6
CONTINUOUS
 10
-7.0087581209
 20
-8.0303315883
 11
-7.0471605784
 21
-8.0278492653
  0
LWPOLYLINE
  5
290
100
AcDbEntity
  8
IMPORT_IGES
100
AcDbPolyline
 62
7
  6
CONTINUOUS
 90
13
 70
0
 10
-6.9687464766
 20
-7.9904486125
 10
-7.0076239892
 20
-7.9879183554
 10
-7.0459093807
 20
-7.9803542941
 10
-7.0829498288
 20
-7.9678593905
 10
-7.1181168609
 20
-7.9506166269
 10
-7.1507901792
 20
-7.9288994619
 10
-7.1803756716
 20
-7.9030789676
 10
-7.206354525
 20
-7.8735904367
 10
-7.2282738684
 20
-7.8409279622
 10
-7.2457387954
 20
-7.8056606006
 10
-7.2584405318
 20
-7.7683972653
 10
-7.2661559572
 20
-7.729772435
 10
-7.2687446489
 20
-7.6904504403
  0
LWPOLYLINE
  5
291
100
AcDbEntity
  8
IMPORT_IGES
100
AcDbPolyline
 62
253
  6
CONTINUOUS
 90
5
 70
0
 10
-8.2242234274
 20
-5.7818687236
 10
-8.2007557331
 20
-5.7909456177
 10
-8.1759863908
 20
-5.7975395195
 10
-8.1503381683
 20
-5.8015401437
 10
-8.12425
 20
-5.8028809128
  0
LINE
  5
292
100
AcDbEntity
  8
IMPORT_IGES
100
AcDbLine
 62
253
  6
CONTINUOUS
 10
-7.3122941762
 20
-9.8735996772
 11
-7.3162385432
 21
-9.8570462575
  0
LINE
  5
293
100
AcDbEntity
  8
IMPORT_IGES
100
AcDbLine
 62
253
  6
CONTINUOUS
 10
-7.3177339261
 20
-9.8493590051
 11
-7.3199498401
 21
-9.8351118213
  0
LWPOLYLINE
  5
294
100
AcDbEntity
  8
IMPORT_IGES
100
AcDbPolyline
 62
253
  6
CONTINUOUS
 90
4
 70
0
 10
-7.322516366
 20
-9.7959539636
 10
-7.322560582
 20
-9.7955450466
 10
-7.3226042811
 20
-9.794359329
 10
-7.3226474634
 20
-9.7923968108
  0
LINE
  5
295
100
AcDbEntity
  8
IMPORT_IGES
100
AcDbLine
 62
7
  6
CONTINUOUS
 10
-7.3061950768
 20
-7.7705052079
 11
-7.3089029689
 21
-7.7306087602
  0
LINE
  5
296
100
AcDbEntity
  8
IMPORT_IGES
100
AcDbLine
 62
7
  6
CONTINUOUS
 10
-8.3307557833
 20
-9.7234342187
 11
-8.4971458451
 21
-0.1909539636
  0
LINE
  5
297
100
AcDbEntity
  8
IMPORT_IGES
100
AcDbLine
 62
7
  6
CONTINUOUS
 10
-8.4969712944
 20
-0.0909539636
 11
-8.4952263728
 21
-0.1909204591
  0
LINE
  5
298
100
AcDbEntity
  8
IMPORT_IGES
100
AcDbLine
 62
253
  6
CONTINUOUS
 10
-8.0328240552
 20
-9.8545441072
 11
-8.0454027644
 21
-9.1344414723
  0
LINE
  5
299
100
AcDbEntity
  8
IMPORT_IGES
100
AcDbLine
 62
253
  6
CONTINUOUS
 10
-8.0454027644
 20
-8.881691176
 11
-8.0983996306
 21
-5.8455027437
  0
LINE
  5
29A
100
AcDbEntity
  8
IMPORT_IGES
100
AcDbLine
 62
7
  6
CONTINUOUS
 10
-8.32425
 20
-5.6459539636
 11
-8.32425
 21
5.6540460364
  0
LINE
  5
29B
100
AcDbEntity
  8
ASSI
100
AcDbLine
 62
7
  6
CONTINUOUS
 10
-8.32425
 20
-4.749082984
 11
-8.32425
 21
4.7571750568
  0
LINE
  5
29C
100
AcDbEntity
  8
IMPORT_IGES
100
AcDbLine
 62
253
  6
CONTINUOUS
 10
-8.12425
 20
-5.8459539636
 11
-8.12425
 21
-4.749082984
  0
LINE
  5
29D
100
AcDbEntity
  8
ASSI
100
AcDbLine
 62
253
  6
CONTINUOUS
 10
-8.12425
 20
-4.749082984
 11
-8.12425
 21
4.7571750568
  0
LINE
  5
29E
100
AcDbEntity
  8
IMPORT_IGES
100
AcDbLine
 62
253
  6
CONTINUOUS
 10
-8.12425
 20
4.7571750568
 11
-8.12425
 21
5.8540460364
  0
LINE
  5
29F
100
AcDbEntity
  8
IMPORT_IGES
100
AcDbLine
 62
253
  6
CONTINUOUS
 10
-8.0454027644
 20
-9.1344414726
 11
-8.0454027644
 21
-8.8816911758
  0
LINE
  5
2A0
100
AcDbEntity
  8
IMPORT_IGES
100
AcDbLine
 62
7
  6
CONTINUOUS
 10
-8.05314188
 20
8.1469393689
 11
-8.0506644147
 21
8.5004756494
  0
LINE
  5
2A1
100
AcDbEntity
  8
IMPORT_IGES
100
AcDbLine
 62
7
  6
CONTINUOUS
 10
-8.0304665252
 20
9.6576154072
 11
-8.0294442659
 21
9.8040460364
  0
LINE
  5
2A2
100
AcDbEntity
  8
IMPORT_IGES
100
AcDbLine
 62
7
  6
CONTINUOUS
 10
-8.4969712945
 20
-0.0909539636
 11
-8.3293985623
 21
9.509281431
  0
LINE
  5
2A3
100
AcDbEntity
  8
IMPORT_IGES
100
AcDbLine
 62
253
  6
CONTINUOUS
 10
-8.0506644147
 20
8.5004756498
 11
-8.0304665431
 21
9.6576154076
  0
LINE
  5
2A4
100
AcDbEntity
  8
IMPORT_IGES
100
AcDbLine
 62
253
  6
CONTINUOUS
 10
-8.0931699782
 20
5.8535035891
 11
-8.0531420754
 21
8.1469393703
  0
LWPOLYLINE
  5
2A5
100
AcDbEntity
  8
IMPORT_IGES
100
AcDbPolyline
 62
253
  6
CONTINUOUS
 90
6
 70
0
 10
-8.4372998837
 20
-3.6195267939
 10
-8.435284877
 20
-3.5852605275
 10
-8.4280769496
 20
-3.5514884707
 10
-8.4157964638
 20
-3.5188000981
 10
-8.398650037
 20
-3.4877631622
 10
-8.376933426
 20
-3.4589257565
  0
LWPOLYLINE
  5
2A6
100
AcDbEntity
  8
IMPORT_IGES
100
AcDbPolyline
 62
7
  6
CONTINUOUS
 90
5
 70
0
 10
-7.321803483
 20
6.5540360946
 10
-7.3214279888
 20
6.560289395
 10
-7.3210652977
 20
6.576902417
 10
-7.3207154097
 20
6.6038751607
 10
-7.3200469801
 20
6.6901821478
  0
LWPOLYLINE
  5
2A7
100
AcDbEntity
  8
IMPORT_IGES
100
AcDbPolyline
 62
253
  6
CONTINUOUS
 90
13
 70
0
 10
-7.3210397109
 20
9.5040460364
 10
-7.3185185481
 20
9.5428577686
 10
-7.3110398153
 20
9.5808573298
 10
-7.2987906367
 20
9.6174237172
 10
-7.2821352669
 20
9.651793234
 10
-7.2613472608
 20
9.683635725
 10
-7.236382343
 20
9.7129186601
 10
-7.2073104756
 20
9.739212914
 10
-7.1746687681
 20
9.7617248807
 10
-7.1390912324
 20
9.7798432444
 10
-7.1012163989
 20
9.7931341085
 10
-7.0616346674
 20
9.8012869787
 10
-7.0210421478
 20
9.8040460364
  0
LWPOLYLINE
  5
2A8
100
AcDbEntity
  8
IMPORT_IGES
100
AcDbPolyline
 62
7
  6
CONTINUOUS
 90
13
 70
0
 10
-7.2687446489
 20
7.698542513
 10
-7.2662143918
 20
7.7374200256
 10
-7.2586503305
 20
7.7757054171
 10
-7.2461554269
 20
7.8127458652
 10
-7.2289126633
 20
7.8479128973
 10
-7.2071954983
 20
7.8805862156
 10
-7.181375004
 20
7.910171708
 10
-7.1518810694
 20
7.9361547263
 10
-7.1192121943
 20
7.9580767488
 10
-7.083956637
 20
7.9755348318
 10
-7.0467328295
 20
7.9882259292
 10
-7.0081699221
 20
7.9959385614
 10
-6.9689306814
 20
7.9985406265
  0
LINE
  5
2A9
100
AcDbEntity
  8
IMPORT_IGES
100
AcDbLine
 62
7
  6
CONTINUOUS
 10
-7.311313008
 20
7.7851262582
 11
-7.3141729223
 21
7.7439707864
  0
LWPOLYLINE
  5
2AA
100
AcDbEntity
  8
IMPORT_IGES
100
AcDbPolyline
 62
253
  6
CONTINUOUS
 90
13
 70
0
 10
-7.3198055717
 20
9.357599427
 10
-7.3171505931
 20
9.3852450328
 10
-7.3094239436
 20
9.4124190989
 10
-7.2967574136
 20
9.4386581276
 10
-7.2793670515
 20
9.4635145699
 10
-7.2575494782
 20
9.4865644584
 10
-7.2316768276
 20
9.5074146387
 10
-7.2021904
 20
9.5257094768
 10
-7.1695931342
 20
9.5411369248
 10
-7.1344410295
 20
9.5534338427
 10
-7.0973336621
 20
9.5623904864
 10
-7.0589039584
 20
9.567854086
 10
-7.0198073994
 20
9.5697314507
  0
LWPOLYLINE
  5
2AB
100
AcDbEntity
  8
IMPORT_IGES
100
AcDbPolyline
 62
253
  6
CONTINUOUS
 90
13
 70
0
 10
-4.5842907764
 20
10.3341948755
 10
-4.5722345487
 20
10.3603173475
 10
-4.5580766591
 20
10.3850889225
 10
-4.5422646564
 20
10.4085858057
 10
-4.5248217512
 20
10.4313706714
 10
-4.5063065004
 20
10.4532155231
 10
-4.4875279375
 20
10.4731181567
 10
-4.4677156859
 20
10.4914205392
 10
-4.446813421
 20
10.5087221329
 10
-4.4261687276
 20
10.5242643908
 10
-4.405826059
 20
10.5378278577
 10
-4.3847599746
 20
10.5499301654
 10
-4.3626748568
 20
10.5605765944
  0
LWPOLYLINE
  5
2AC
100
AcDbEntity
  8
IMPORT_IGES
100
AcDbPolyline
 62
7
  6
CONTINUOUS
 90
10
 70
0
 10
-4.9226130124
 20
6.558002374
 10
-4.8687680871
 20
6.5856479166
 10
-4.8135674619
 20
6.6101246872
 10
-4.7570111368
 20
6.6314326858
 10
-4.6991299775
 20
6.6496153676
 10
-4.6398931184
 20
6.6646292774
 10
-4.5792079627
 20
6.67634405
 10
-4.517043645
 20
6.6847162302
 10
-4.4534310309
 20
6.6897892731
 10
-4.3883701202
 20
6.6915631787
  0
LINE
  5
2AD
100
AcDbEntity
  8
IMPORT_IGES
100
AcDbLine
 62
7
  6
CONTINUOUS
 10
-7.0088867602
 20
-8.0303316144
 11
-4.12425
 21
-8.0303316144
  0
LINE
  5
2AE
100
AcDbEntity
  8
IMPORT_IGES
100
AcDbLine
 62
7
  6
CONTINUOUS
 10
3.97575
 20
-8.0303316144
 11
6.8603867602
 21
-8.0303316144
  0
LINE
  5
2AF
100
AcDbEntity
  8
IMPORT_IGES
100
AcDbLine
 62
7
  6
CONTINUOUS
 10
-3.32425
 20
-8.015236044
 11
3.17575
 21
-8.015236044
  0
LINE
  5
2B0
100
AcDbEntity
  8
IMPORT_IGES
100
AcDbLine
 62
7
  6
CONTINUOUS
 10
-4.12425
 20
-8.0087229014
 11
-3.32425
 21
-8.0087229014
  0
LINE
  5
2B1
100
AcDbEntity
  8
IMPORT_IGES
100
AcDbLine
 62
7
  6
CONTINUOUS
 10
3.17575
 20
-8.0087229014
 11
3.97575
 21
-8.0087229014
  0
LINE
  5
2B2
100
AcDbEntity
  8
IMPORT_IGES
100
AcDbLine
 62
7
  6
CONTINUOUS
 10
-6.9687464766
 20
-7.9904486126
 11
6.8202464766
 21
-7.9904486126
  0
LINE
  5
2B3
100
AcDbEntity
  8
IMPORT_IGES
100
AcDbLine
 62
253
  6
CONTINUOUS
 10
7.1202446489
 20
-7.6904504403
 11
-7.2687446489
 21
-7.6904504403
  0
LINE
  5
2B4
100
AcDbEntity
  8
IMPORT_IGES
100
AcDbLine
 62
7
  6
CONTINUOUS
 10
2.25075
 20
-7.6550574292
 11
-2.39925
 21
-7.6550574292
  0
LINE
  5
2B5
100
AcDbEntity
  8
IMPORT_IGES
100
AcDbLine
 62
7
  6
CONTINUOUS
 10
-2.09925
 20
-7.1459539636
 11
1.95075
 21
-7.1459539636
  0
LWPOLYLINE
  5
2B6
100
AcDbEntity
  8
IMPORT_IGES
100
AcDbPolyline
 62
7
  6
CONTINUOUS
 90
3
 70
0
 10
-7.3210625069
 20
-6.6189086601
 10
-7.3214267837
 20
-6.6021516646
 10
-7.321803483
 20
-6.5959594804
  0
LWPOLYLINE
  5
2B7
100
AcDbEntity
  8
IMPORT_IGES
100
AcDbPolyline
 62
7
  6
CONTINUOUS
 90
3
 70
0
 10
-7.3210625069
 20
8.5310913399
 10
-7.3214267837
 20
8.5478483353
 10
-7.321803483
 20
8.5540405195
  0
LINE
  5
2B8
100
AcDbEntity
  8
IMPORT_IGES
100
AcDbLine
 62
7
  6
CONTINUOUS
 10
-7.3225581295
 20
-9.7999636923
 11
-7.3226461126
 21
-9.7950486941
  0
LINE
  5
2B9
100
AcDbEntity
  8
IMPORT_IGES
100
AcDbLine
 62
253
  6
CONTINUOUS
 10
-7.3227110134
 20
-9.7899369489
 11
-7.3227326127
 21
-9.7861134025
  0
LINE
  5
2BA
100
AcDbEntity
  8
IMPORT_IGES
100
AcDbLine
 62
7
  6
CONTINUOUS
 10
-7.3226461126
 20
-9.7950486941
 11
-7.3227417985
 21
-9.7869441742
  0
LINE
  5
2BB
100
AcDbEntity
  8
IMPORT_IGES
100
AcDbLine
 62
7
  6
CONTINUOUS
 10
-7.3203673352
 20
-6.6847915042
 11
-7.3210625069
 21
-6.6189086601
  0
LINE
  5
2BC
100
AcDbEntity
  8
IMPORT_IGES
100
AcDbLine
 62
7
  6
CONTINUOUS
 10
-7.3203673352
 20
8.4652084958
 11
-7.3210625069
 21
8.5310913399
  0
LINE
  5
2BD
100
AcDbEntity
  8
IMPORT_IGES
100
AcDbLine
 62
7
  6
CONTINUOUS
 10
-7.0207370988
 20
9.7919044059
 11
-7.0204452054
 21
9.7558343131
  0
LINE
  5
2BE
100
AcDbEntity
  8
IMPORT_IGES
100
AcDbLine
 62
253
  6
CONTINUOUS
 10
-7.3205880159
 20
9.4870097477
 11
-7.3201670196
 21
9.4370530764
  0
LINE
  5
2BF
100
AcDbEntity
  8
IMPORT_IGES
100
AcDbLine
 62
7
  6
CONTINUOUS
 10
-7.324246796
 20
-9.5187075301
 11
-7.3227417985
 21
-9.7869441742
  0
LINE
  5
2C0
100
AcDbEntity
  8
IMPORT_IGES
100
AcDbLine
 62
7
  6
CONTINUOUS
 10
-7.302698616
 20
4.9141020059
 11
-7.3066608867
 21
5.8109729855
  0
LINE
  5
2C1
100
AcDbEntity
  8
IMPORT_IGES
100
AcDbLine
 62
253
  6
CONTINUOUS
 10
-7.3201670196
 20
9.4370530764
 11
-7.3198055717
 21
9.357599427
  0
LINE
  5
2C2
100
AcDbEntity
  8
IMPORT_IGES
100
AcDbLine
 62
253
  6
CONTINUOUS
 10
-7.0198073994
 20
9.5697314608
 11
-7.0141115413
 21
8.0435373359
  0
LINE
  5
2C3
100
AcDbEntity
  8
IMPORT_IGES
100
AcDbLine
 62
7
  6
CONTINUOUS
 10
-7.3198055717
 20
9.357599427
 11
-7.3141729223
 21
7.7439707864
  0
LINE
  5
2C4
100
AcDbEntity
  8
IMPORT_IGES
100
AcDbLine
 62
7
  6
CONTINUOUS
 10
-7.3189653117
 20
-7.0138130175
 11
-7.3203673352
 21
-6.6847915042
  0
LINE
  5
2C5
100
AcDbEntity
  8
IMPORT_IGES
100
AcDbLine
 62
7
  6
CONTINUOUS
 10
-7.3189653117
 20
8.1361869825
 11
-7.3203673352
 21
8.4652084958
  0
LINE
  5
2C6
100
AcDbEntity
  8
IMPORT_IGES
100
AcDbLine
 62
7
  6
CONTINUOUS
 10
-7.0204452054
 20
9.7558343131
 11
-7.0198073994
 21
9.5697314608
  0
LINE
  5
2C7
100
AcDbEntity
  8
IMPORT_IGES
100
AcDbLine
 62
253
  6
CONTINUOUS
 10
-7.3228885267
 20
-9.7663254615
 11
-7.3228911773
 21
-9.7646862612
  0
LINE
  5
2C8
100
AcDbEntity
  8
IMPORT_IGES
100
AcDbLine
 62
7
  6
CONTINUOUS
 10
-7.37425
 20
-10.7981477252
 11
-7.37425
 21
-5.8459539636
  0
LINE
  5
2C9
100
AcDbEntity
  8
IMPORT_IGES
100
AcDbLine
 62
7
  6
CONTINUOUS
 10
-7.37425
 20
5.8540460364
 11
-7.37425
 21
9.8736611285
  0
LINE
  5
2CA
100
AcDbEntity
  8
IMPORT_IGES
100
AcDbLine
 62
7
  6
CONTINUOUS
 10
-7.3242468072
 20
-9.518705479
 11
-7.32425
 21
-8.5959639054
  0
LINE
  5
2CB
100
AcDbEntity
  8
IMPORT_IGES
100
AcDbLine
 62
7
  6
CONTINUOUS
 10
-7.32425
 20
-6.6886740324
 11
-7.32425
 21
-5.8459539636
  0
LINE
  5
2CC
100
AcDbEntity
  8
IMPORT_IGES
100
AcDbLine
 62
7
  6
CONTINUOUS
 10
-7.32425
 20
5.8540460364
 11
-7.32425
 21
6.646998994
  0
LINE
  5
2CD
100
AcDbEntity
  8
IMPORT_IGES
100
AcDbLine
 62
7
  6
CONTINUOUS
 10
-7.32425
 20
8.5540558093
 11
-7.32425
 21
9.5040460364
  0
LINE
  5
2CE
100
AcDbEntity
  8
ASSI
100
AcDbLine
 62
7
  6
CONTINUOUS
 10
-7.3094146411
 20
-3.5459539636
 11
-7.3094146411
 21
3.5540460364
  0
LINE
  5
2CF
100
AcDbEntity
  8
IMPORT_IGES
100
AcDbLine
 62
7
  6
CONTINUOUS
 10
-7.3024332957
 20
4.7571750568
 11
-7.3024332957
 21
3.5540460364
  0
LINE
  5
2D0
100
AcDbEntity
  8
IMPORT_IGES
100
AcDbLine
 62
7
  6
CONTINUOUS
 10
-7.3024332957
 20
-3.5459539635
 11
-7.3024332957
 21
-4.749082984
  0
LINE
  5
2D1
100
AcDbEntity
  8
IMPORT_IGES
100
AcDbLine
 62
7
  6
CONTINUOUS
 10
-7.2687446489
 20
-7.6904504403
 11
-7.2687446489
 21
7.698542513
  0
LINE
  5
2D2
100
AcDbEntity
  8
IMPORT_IGES
100
AcDbLine
 62
253
  6
CONTINUOUS
 10
-6.9687464766
 20
-7.9904486126
 11
-6.9687464766
 21
7.9985406853
  0
LINE
  5
2D3
100
AcDbEntity
  8
IMPORT_IGES
100
AcDbLine
 62
7
  6
CONTINUOUS
 10
-7.3187842398
 20
7.0524981373
 11
-7.3189653117
 21
8.1361869825
  0
LINE
  5
2D4
100
AcDbEntity
  8
IMPORT_IGES
100
AcDbLine
 62
7
  6
CONTINUOUS
 10
-7.3187842398
 20
-8.0975018627
 11
-7.3189653117
 21
-7.0138130175
  0
LINE
  5
2D5
100
AcDbEntity
  8
IMPORT_IGES
100
AcDbLine
 62
7
  6
CONTINUOUS
 10
-7.3066608867
 20
-5.8028809128
 11
-7.302698616
 21
-4.9060099332
  0
LINE
  5
2D6
100
AcDbEntity
  8
IMPORT_IGES
100
AcDbLine
 62
7
  6
CONTINUOUS
 10
-7.3200469801
 20
6.6901821478
 11
-7.3187842398
 21
7.0524981373
  0
LINE
  5
2D7
100
AcDbEntity
  8
IMPORT_IGES
100
AcDbLine
 62
7
  6
CONTINUOUS
 10
-7.3200469801
 20
-8.4598178522
 11
-7.3187842398
 21
-8.0975018627
  0
LINE
  5
2D8
100
AcDbEntity
  8
IMPORT_IGES
100
AcDbLine
 62
7
  6
CONTINUOUS
 10
-7.3089029689
 20
-7.7306087602
 11
-7.3214020835
 21
-9.7697484436
  0
LINE
  5
2D9
100
AcDbEntity
  8
IMPORT_IGES
100
AcDbLine
 62
253
  6
CONTINUOUS
 10
-7.0214039099
 20
-10.0304398697
 11
-7.0088867602
 21
-8.0303316144
  0
LINE
  5
2DA
100
AcDbEntity
  8
IMPORT_IGES
100
AcDbLine
 62
253
  6
CONTINUOUS
 10
-7.3214020835
 20
-9.7697484436
 11
-7.3215494973
 21
-9.787732539
  0
LWPOLYLINE
  5
2DB
100
AcDbEntity
  8
IMPORT_IGES
100
AcDbPolyline
 62
253
  6
CONTINUOUS
 90
5
 70
0
 10
-7.3215494973
 20
-9.787732539
 10
-7.3216276945
 20
-9.7929837657
 10
-7.3216672561
 20
-9.794624146
 10
-7.3217072121
 20
-9.795614212
 10
-7.3217475627
 20
-9.7959539636
  0
LWPOLYLINE
  5
2DC
100
AcDbEntity
  8
IMPORT_IGES
100
AcDbPolyline
 62
7
  6
CONTINUOUS
 90
5
 70
0
 10
-7.321803483
 20
-8.5959639054
 10
-7.3214279888
 20
-8.589710605
 10
-7.3210652977
 20
-8.573097583
 10
-7.3207154097
 20
-8.5461248393
 10
-7.3200469801
 20
-8.4598178522
  0
LWPOLYLINE
  5
2DD
100
AcDbEntity
  8
IMPORT_IGES
100
AcDbPolyline
 62
253
  6
CONTINUOUS
 90
10
 70
0
 10
-4.5960345696
 20
9.8663513026
 10
-4.5886913533
 20
9.8895131535
 10
-4.5765314868
 20
9.9120504878
 10
-4.5595549702
 20
9.9339633055
 10
-4.537534866
 20
9.9553526842
 10
-4.5106981116
 20
9.9761175463
 10
-4.4797255191
 20
9.9959546597
 10
-4.4448440258
 20
10.014762947
 10
-4.4058266945
 20
10.0326434856
 10
-4.362673525
 20
10.0495962755
  0
LWPOLYLINE
  5
2DE
100
AcDbEntity
  8
IMPORT_IGES
100
AcDbPolyline
 62
7
  6
CONTINUOUS
 90
10
 70
0
 10
-5.2962828397
 20
6.1693256919
 10
-5.2654707517
 20
6.225358387
 10
-5.2319616576
 20
6.2781518261
 10
-5.1957555574
 20
6.3277060091
 10
-5.1568253703
 20
6.3739840604
 10
-5.115198177
 20
6.4170228557
 10
-5.0709552203
 20
6.4569330221
 10
-5.0241235811
 20
6.4937514351
 10
-4.9746761784
 20
6.527441219
 10
-4.9226130124
 20
6.558002374
  0
LWPOLYLINE
  5
2DF
100
AcDbEntity
  8
IMPORT_IGES
100
AcDbPolyline
 62
7
  6
CONTINUOUS
 90
10
 70
0
 10
-4.8190658605
 20
6.3208946082
 10
-4.8554452263
 20
6.293057946
 10
-4.8892958045
 20
6.2632739519
 10
-4.9206175948
 20
6.2315426259
 10
-4.9493029791
 20
6.1980969466
 10
-4.9754595756
 20
6.1627039353
 10
-4.9994102394
 20
6.1246646562
 10
-5.021262589
 20
6.0837461308
 10
-5.0409090059
 20
6.0401813376
 10
-5.0583494901
 20
5.9939702767
  0
LWPOLYLINE
  5
2E0
100
AcDbEntity
  8
IMPORT_IGES
100
AcDbPolyline
 62
253
  6
CONTINUOUS
 90
12
 70
0
 10
8.0018394615
 20
-5.8015400102
 10
8.0274882078
 20
-5.7975391377
 10
8.0522573313
 20
-5.7909450985
 10
8.0757239045
 20
-5.7818685076
 10
8.0974839049
 20
-5.7704635482
 10
8.1171602916
 20
-5.7569267545
 10
8.1344158059
 20
-5.741490009
 10
8.148955196
 20
-5.7244172816
 10
8.1605280071
 20
-5.7060033279
 10
8.168936878
 20
-5.686564631
 10
8.1740395972
 20
-5.6664333159
 10
8.17575
 20
-5.6459539636
  0
LINE
  5
2E1
100
AcDbEntity
  8
IMPORT_IGES
100
AcDbLine
 62
253
  6
CONTINUOUS
 10
7.97575
 20
-5.8028809128
 11
8.0018394615
 21
-5.8015400102
  0
LINE
  5
2E2
100
AcDbEntity
  8
0
100
AcDbLine
 62
7
  6
CONTINUOUS
 10
-2.09925
 20
-6.9459539636
 11
1.95075
 21
-6.9459539636
  0
LINE
  5
2E3
100
AcDbEntity
  8
IMPORT_IGES
100
AcDbLine
 62
253
  6
CONTINUOUS
 10
2.25075
 20
-6.1959539636
 11
3.37575
 21
-6.1959539636
  0
LINE
  5
2E4
100
AcDbEntity
  8
IMPORT_IGES
100
AcDbLine
 62
253
  6
CONTINUOUS
 10
-2.39925
 20
-6.1959539636
 11
-3.52425
 21
-6.1959539636
  0
LWPOLYLINE
  5
2E5
100
AcDbEntity
  8
IMPORT_IGES
100
AcDbPolyline
 62
253
  6
CONTINUOUS
 90
4
 70
0
 10
-7.3210397109
 20
9.5040460364
 10
-7.3208857349
 20
9.5020250938
 10
-7.3207351699
 20
9.4963463308
 10
-7.3205880159
 20
9.4870097477
  0
LWPOLYLINE
  5
2E6
100
AcDbEntity
  8
IMPORT_IGES
100
AcDbPolyline
 62
7
  6
CONTINUOUS
 90
3
 70
0
 10
-7.0210415462
 20
9.8040460364
 10
-7.0208876206
 20
9.8010052857
 10
-7.0207370988
 20
9.7919044059
  0
LINE
  5
2E7
100
AcDbEntity
  8
IMPORT_IGES
100
AcDbLine
 62
253
  6
CONTINUOUS
 10
-6.32425
 20
-4.6459539636
 11
-6.32425
 21
3.1106020749
  0
LINE
  5
2E8
100
AcDbEntity
  8
IMPORT_IGES
100
AcDbLine
 62
7
  6
CONTINUOUS
 10
-6.32425
 20
4.2540460364
 11
-6.32425
 21
6.8540460364
  0
LINE
  5
2E9
100
AcDbEntity
  8
IMPORT_IGES
100
AcDbLine
 62
253
  6
CONTINUOUS
 10
-6.2242505304
 20
-11.0959539636
 11
-6.2242504231
 21
-11.2959539636
  0
LINE
  5
2EA
100
AcDbEntity
  8
IMPORT_IGES
100
AcDbLine
 62
7
  6
CONTINUOUS
 10
-6.02425
 20
2.6523445054
 11
-6.02425
 21
-4.3459539636
  0
LINE
  5
2EB
100
AcDbEntity
  8
IMPORT_IGES
100
AcDbLine
 62
7
  6
CONTINUOUS
 10
-6.0209565296
 20
11.0040460364
 11
-6.0209565296
 21
10.9921847995
  0
LWPOLYLINE
  5
2EC
100
AcDbEntity
  8
IMPORT_IGES
100
AcDbPolyline
 62
253
  6
CONTINUOUS
 90
8
 70
0
 10
-6.2969592937
 20
10.7672468693
 10
-6.2968286345
 20
10.7766372462
 10
-6.2967629808
 20
10.784670335
 10
-6.2967600494
 20
10.7913401959
 10
-6.2968211327
 20
10.7967560658
 10
-6.2969501521
 20
10.8007846183
 10
-6.2971449957
 20
10.8032312097
 10
-6.297401122
 20
10.8040460363
  0
LINE
  5
2ED
100
AcDbEntity
  8
IMPORT_IGES
100
AcDbLine
 62
253
  6
CONTINUOUS
 10
-6.2974024842
 20
10.7454660597
 11
-6.2969592937
 21
10.7672468693
  0
LINE
  5
2EE
100
AcDbEntity
  8
IMPORT_IGES
100
AcDbLine
 62
7
  6
CONTINUOUS
 10
-5.6076444935
 20
10.0370493271
 11
-5.6247401657
 21
9.5510849466
  0
LWPOLYLINE
  5
2EF
100
AcDbEntity
  8
IMPORT_IGES
100
AcDbPolyline
 62
7
  6
CONTINUOUS
 90
5
 70
0
 10
-7.0217493846
 20
-10.0959539636
 10
-7.0217090324
 20
-10.0951270224
 10
-7.0216690751
 20
-10.0926489647
 10
-7.0216295128
 20
-10.0885280327
 10
-7.0214039077
 20
-10.03043987
  0
LINE
  5
2F0
100
AcDbEntity
  8
IMPORT_IGES
100
AcDbLine
 62
253
  6
CONTINUOUS
 10
-4.8954380776
 20
10.1509418112
 11
-4.9781061866
 21
9.7157697531
  0
LINE
  5
2F1
100
AcDbEntity
  8
IMPORT_IGES
100
AcDbLine
 62
253
  6
CONTINUOUS
 10
-4.6246401618
 20
9.7157697531
 11
-4.5960345696
 21
9.8663513026
  0
LWPOLYLINE
  5
2F2
100
AcDbEntity
  8
IMPORT_IGES
100
AcDbPolyline
 62
7
  6
CONTINUOUS
 90
10
 70
0
 10
-5.0583494901
 20
5.9939702767
 10
-5.0726205631
 20
5.9487214143
 10
-5.0852248086
 20
5.9031030324
 10
-5.0961622268
 20
5.8571151309
 10
-5.1054356928
 20
5.8108085815
 10
-5.1130423314
 20
5.7641325126
 10
-5.1189735172
 20
5.7169343095
 10
-5.1232263751
 20
5.6691631006
 10
-5.1258037802
 20
5.6208697576
 10
-5.1267057326
 20
5.5720542804
  0
LWPOLYLINE
  5
2F3
100
AcDbEntity
  8
0
100
AcDbPolyline
 62
7
  6
CONTINUOUS
 90
3
 70
0
 43
0.3500000006
 10
0.6400356996
 20
21.251483551
 10
0.5686071367
 20
21.0371990662
 10
0.425750011
 20
20.7514833984
  0
LWPOLYLINE
  5
2F4
100
AcDbEntity
  8
IMPORT_IGES
100
AcDbPolyline
 62
7
  6
CONTINUOUS
 90
13
 70
0
 10
-4.0026312823
 20
4.80662969
 10
-3.9772753095
 20
4.8287540679
 10
-3.9529539645
 20
4.8530490996
 10
-3.9296672474
 20
4.879514785
 10
-3.9073589496
 20
4.908056756
 10
-3.8860852797
 20
4.9387693808
 10
-3.866014863
 20
4.9719357635
 10
-3.8471338134
 20
5.0075625876
 10
-3.8294560171
 20
5.0456431696
 10
-3.8131917573
 20
5.0864405629
 10
-3.7984111287
 20
5.1300424521
 10
-3.7850440367
 20
5.1763611526
 10
-3.7730904814
 20
5.2253966645
  0
LINE
  5
2F5
100
AcDbEntity
  8
IMPORT_IGES
100
AcDbLine
 62
7
  6
CONTINUOUS
 10
-3.22425
 20
-5.8959539636
 11
-2.09925
 21
-5.8959539636
  0
LINE
  5
2F6
100
AcDbEntity
  8
IMPORT_IGES
100
AcDbLine
 62
7
  6
CONTINUOUS
 10
-1.49925
 20
-5.8959539636
 11
1.35075
 21
-5.8959539636
  0
LINE
  5
2F7
100
AcDbEntity
  8
IMPORT_IGES
100
AcDbLine
 62
7
  6
CONTINUOUS
 10
1.95075
 20
-5.8959539636
 11
3.07575
 21
-5.8959539636
  0
LINE
  5
2F8
100
AcDbEntity
  8
IMPORT_IGES
100
AcDbLine
 62
7
  6
CONTINUOUS
 10
-8.12425
 20
-5.8459539636
 11
-7.307093701
 21
-5.8459539636
  0
LINE
  5
2F9
100
AcDbEntity
  8
IMPORT_IGES
100
AcDbLine
 62
7
  6
CONTINUOUS
 10
7.97575
 20
-5.8459539636
 11
7.158593701
 21
-5.8459539636
  0
LINE
  5
2FA
100
AcDbEntity
  8
IMPORT_IGES
100
AcDbLine
 62
253
  6
CONTINUOUS
 10
-8.12425
 20
-5.8028809128
 11
-7.3066608867
 21
-5.8028809128
  0
LINE
  5
2FB
100
AcDbEntity
  8
IMPORT_IGES
100
AcDbLine
 62
253
  6
CONTINUOUS
 10
7.97575
 20
-5.8028809128
 11
7.1581608867
 21
-5.8028809128
  0
LWPOLYLINE
  5
2FC
100
AcDbEntity
  8
IMPORT_IGES
100
AcDbPolyline
 62
253
  6
CONTINUOUS
 90
13
 70
0
 10
-8.12425
 20
-4.9060099332
 10
-8.1503250603
 20
-4.9046705169
 10
-8.175964615
 20
-4.9006731144
 10
-8.2007298936
 20
-4.8940830305
 10
-8.224198755
 20
-4.885008915
 10
-8.2459650599
 20
-4.8736039105
 10
-8.2656477391
 20
-4.8600656216
 10
-8.2829088681
 20
-4.8446261228
 10
-8.2974530326
 20
-4.827549242
 10
-8.3090282482
 20
-4.8091318916
 10
-8.3174375333
 20
-4.7896917323
 10
-8.3225399002
 20
-4.7695605298
 10
-8.32425
 20
-4.749082984
  0
LINE
  5
2FD
100
AcDbEntity
  8
IMPORT_IGES
100
AcDbLine
 62
7
  6
CONTINUOUS
 10
-1.656745549
 20
-6.9459539636
 11
-1.4549739609
 21
-7.1459539636
  0
LINE
  5
2FE
100
AcDbEntity
  8
IMPORT_IGES
100
AcDbLine
 62
7
  6
CONTINUOUS
 10
-1.3960589773
 20
-7.1459539636
 11
-1.5597623953
 21
-6.9836878888
  0
LWPOLYLINE
  5
2FF
100
AcDbEntity
  8
IMPORT_IGES
100
AcDbPolyline
 62
7
  6
CONTINUOUS
 90
10
 70
0
 10
-5.1267057326
 20
5.5720542804
 10
-5.1254998219
 20
5.5081217995
 10
-5.1223336883
 20
5.4467057717
 10
-5.1172073317
 20
5.3878061969
 10
-5.1101065159
 20
5.3316424488
 10
-5.1010454772
 20
5.2779951538
 10
-5.0900669245
 20
5.2262061908
 10
-5.0771850941
 20
5.1760561862
 10
-5.0623857497
 20
5.1277645137
 10
-5.0456688912
 20
5.0813311733
  0
LINE
  5
300
100
AcDbEntity
  8
IMPORT_IGES
100
AcDbLine
 62
7
  6
CONTINUOUS
 10
-5.6903986974
 20
9.1147062082
 11
-5.6983411927
 21
9.5697314613
  0
LINE
  5
301
100
AcDbEntity
  8
IMPORT_IGES
100
AcDbLine
 62
253
  6
CONTINUOUS
 10
-5.7242501769
 20
10.8040460364
 11
-5.724250141
 21
11.0040460358
  0
LINE
  5
302
100
AcDbEntity
  8
IMPORT_IGES
100
AcDbLine
 62
7
  6
CONTINUOUS
 10
-5.17425
 20
2.5540460364
 11
-5.17425
 21
2.606929996
  0
LINE
  5
303
100
AcDbEntity
  8
IMPORT_IGES
100
AcDbLine
 62
7
  6
CONTINUOUS
 10
-5.0015529486
 20
12.2157697531
 11
-5.0015529486
 21
11.0657697538
  0
LINE
  5
304
100
AcDbEntity
  8
IMPORT_IGES
100
AcDbLine
 62
253
  6
CONTINUOUS
 10
-4.8954380776
 20
10.1509418112
 11
-4.8954349118
 21
10.8122316341
  0
LWPOLYLINE
  5
305
100
AcDbEntity
  8
IMPORT_IGES
100
AcDbPolyline
 62
7
  6
CONTINUOUS
 90
10
 70
0
 10
-5.4268421497
 20
5.5705534951
 10
-5.4249695643
 20
5.6481552985
 10
-5.4198572314
 20
5.7229863731
 10
-5.4115051513
 20
5.7950467188
 10
-5.3998049955
 20
5.8643325502
 10
-5.3848650924
 20
5.9308476527
 10
-5.3670104268
 20
5.9946033825
 10
-5.346349327
 20
6.055603525
 10
-5.3227734646
 20
6.1138442948
 10
-5.2962828397
 20
6.1693256919
  0
LWPOLYLINE
  5
306
100
AcDbEntity
  8
IMPORT_IGES
100
AcDbPolyline
 62
7
  6
CONTINUOUS
 90
10
 70
0
 10
-3.8121081771
 20
4.6041142832
 10
-3.8649336231
 20
4.5653036761
 10
-3.9206691904
 20
4.5309346917
 10
-3.9793148792
 20
4.5010073301
 10
-4.0408495541
 20
4.4754544894
 10
-4.1052943504
 20
4.4543432715
 10
-4.1727126739
 20
4.4378749816
 10
-4.24312566
 20
4.4261167212
 10
-4.3165121734
 20
4.4190013888
 10
-4.392872214
 20
4.4165289842
  0
LINE
  5
307
100
AcDbEntity
  8
IMPORT_IGES
100
AcDbLine
 62
7
  6
CONTINUOUS
 10
-3.22425
 20
-5.0959539636
 11
-1.49925
 21
-5.0959539636
  0
LINE
  5
308
100
AcDbEntity
  8
IMPORT_IGES
100
AcDbLine
 62
7
  6
CONTINUOUS
 10
1.35075
 20
-5.0959539636
 11
3.07575
 21
-5.0959539636
  0
LINE
  5
309
100
AcDbEntity
  8
IMPORT_IGES
100
AcDbLine
 62
253
  6
CONTINUOUS
 10
-8.12425
 20
-4.9060099332
 11
-7.302698616
 21
-4.9060099332
  0
LINE
  5
30A
100
AcDbEntity
  8
IMPORT_IGES
100
AcDbLine
 62
253
  6
CONTINUOUS
 10
7.154198616
 20
-4.9060099332
 11
7.97575
 21
-4.9060099332
  0
LINE
  5
30B
100
AcDbEntity
  8
IMPORT_IGES
100
AcDbLine
 62
253
  6
CONTINUOUS
 10
-8.32425
 20
-4.749082984
 11
-7.3024332957
 21
-4.749082984
  0
LINE
  5
30C
100
AcDbEntity
  8
IMPORT_IGES
100
AcDbLine
 62
253
  6
CONTINUOUS
 10
7.1539332957
 20
-4.749082984
 11
8.17575
 21
-4.749082984
  0
LINE
  5
30D
100
AcDbEntity
  8
IMPORT_IGES
100
AcDbLine
 62
253
  6
CONTINUOUS
 10
6.17575
 20
-4.6459539636
 11
3.37575
 21
-4.6459539636
  0
LINE
  5
30E
100
AcDbEntity
  8
IMPORT_IGES
100
AcDbLine
 62
253
  6
CONTINUOUS
 10
-3.52425
 20
-4.6459539636
 11
-6.32425
 21
-4.6459539636
  0
LINE
  5
30F
100
AcDbEntity
  8
IMPORT_IGES
100
AcDbLine
 62
7
  6
CONTINUOUS
 10
3.07575
 20
-4.3459539636
 11
5.87575
 21
-4.3459539636
  0
LINE
  5
310
100
AcDbEntity
  8
IMPORT_IGES
100
AcDbLine
 62
7
  6
CONTINUOUS
 10
-3.22425
 20
-4.3459539636
 11
-6.02425
 21
-4.3459539636
  0
LINE
  5
311
100
AcDbEntity
  8
IMPORT_IGES
100
AcDbLine
 62
7
  6
CONTINUOUS
 10
-4.5278537012
 20
2.5540460364
 11
-4.47425
 21
2.0180090248
  0
LINE
  5
312
100
AcDbEntity
  8
IMPORT_IGES
100
AcDbLine
 62
253
  6
CONTINUOUS
 10
-4.9976417561
 20
12.2157697531
 11
-4.8954349118
 21
10.8122316341
  0
LINE
  5
313
100
AcDbEntity
  8
IMPORT_IGES
100
AcDbLine
 62
253
  6
CONTINUOUS
 10
-4.5960345696
 20
11.0386132908
 11
-4.6817561083
 21
12.2157697531
  0
LINE
  5
314
100
AcDbEntity
  8
IMPORT_IGES
100
AcDbLine
 62
7
  6
CONTINUOUS
 10
-4.47425
 20
0.7080090248
 11
-4.47425
 21
2.0180090248
  0
LINE
  5
315
100
AcDbEntity
  8
IMPORT_IGES
100
AcDbLine
 62
253
  6
CONTINUOUS
 10
-4.3626814973
 20
10.5605829231
 11
-4.362673525
 21
10.0495962296
  0
LINE
  5
316
100
AcDbEntity
  8
IMPORT_IGES
100
AcDbLine
 62
7
  6
CONTINUOUS
 10
-4.12425
 20
-8.0087229014
 11
-4.12425
 21
-9.2329104854
  0
LINE
  5
317
100
AcDbEntity
  8
IMPORT_IGES
100
AcDbLine
 62
7
  6
CONTINUOUS
 10
-3.8985782526
 20
-0.2219909752
 11
-3.8985782526
 21
0.5080090248
  0
LWPOLYLINE
  5
318
100
AcDbEntity
  8
IMPORT_IGES
100
AcDbPolyline
 62
7
  6
CONTINUOUS
 90
10
 70
0
 10
-3.4819580552
 20
5.1518632308
 10
-3.5055817576
 20
5.0706581274
 10
-3.5326058687
 20
4.9946177287
 10
-3.5630303886
 20
4.9237420346
 10
-3.5970359808
 20
4.8581359484
 10
-3.6344419816
 20
4.7976945668
 10
-3.6747064007
 20
4.7421031804
 10
-3.7176485746
 20
4.6912568861
 10
-3.7634491667
 20
4.645260587
 10
-3.8121081771
 20
4.6041142832
  0
LINE
  5
319
100
AcDbEntity
  8
IMPORT_IGES
100
AcDbLine
 62
7
  6
CONTINUOUS
 10
-2.8141546008
 20
5.1203489021
 11
-3.0557643887
 21
4.4540460364
  0
LINE
  5
31A
100
AcDbEntity
  8
IMPORT_IGES
100
AcDbLine
 62
7
  6
CONTINUOUS
 10
-2.4885066029
 20
6.0027500407
 11
-2.7301163908
 21
5.3574566618
  0
LINE
  5
31B
100
AcDbEntity
  8
IMPORT_IGES
100
AcDbLine
 62
7
  6
CONTINUOUS
 10
-3.3649049279
 20
4.4540460364
 11
-2.5200208661
 21
6.6540460364
  0
LINE
  5
31C
100
AcDbEntity
  8
IMPORT_IGES
100
AcDbLine
 62
253
  6
CONTINUOUS
 10
-8.32425
 20
-3.6175535008
 11
-8.4372998837
 21
-3.6195267939
  0
LINE
  5
31D
100
AcDbEntity
  8
ASSI
100
AcDbLine
 62
253
  6
CONTINUOUS
 10
-7.3094146411
 20
-3.5459539636
 11
-7.3024332957
 21
-3.5459539635
  0
LINE
  5
31E
100
AcDbEntity
  8
ASSI
100
AcDbLine
 62
253
  6
CONTINUOUS
 10
7.1609146411
 20
-3.5459539636
 11
7.1539332957
 21
-3.5459539636
  0
LINE
  5
31F
100
AcDbEntity
  8
IMPORT_IGES
100
AcDbLine
 62
253
  6
CONTINUOUS
 10
8.2887998837
 20
-3.6195267939
 11
8.17575
 21
-3.6175535008
  0
LINE
  5
320
100
AcDbEntity
  8
IMPORT_IGES
100
AcDbLine
 62
7
  6
CONTINUOUS
 10
0.9514541597
 20
-6.9459539636
 11
1.1496981265
 21
-7.1459539636
  0
LINE
  5
321
100
AcDbEntity
  8
IMPORT_IGES
100
AcDbLine
 62
7
  6
CONTINUOUS
 10
1.3738597803
 20
-6.9459539636
 11
1.4112623953
 21
-6.9836878888
  0
LINE
  5
322
100
AcDbEntity
  8
0
100
AcDbLine
 62
7
  6
CONTINUOUS
 10
-3.77425
 20
2.606929996
 11
-3.77425
 21
-0.4459539636
  0
LINE
  5
323
100
AcDbEntity
  8
IMPORT_IGES
100
AcDbLine
 62
253
  6
CONTINUOUS
 10
-3.52425
 20
-6.1959539636
 11
-3.52425
 21
-4.6459539636
  0
LINE
  5
324
100
AcDbEntity
  8
IMPORT_IGES
100
AcDbLine
 62
7
  6
CONTINUOUS
 10
-3.37425
 20
-10.0959539636
 11
-3.37425
 21
-10.1959539636
  0
LINE
  5
325
100
AcDbEntity
  8
IMPORT_IGES
100
AcDbLine
 62
7
  6
CONTINUOUS
 10
-3.32425
 20
-9.063345268
 11
-3.32425
 21
-8.0087229014
  0
LINE
  5
326
100
AcDbEntity
  8
0
100
AcDbLine
 62
7
  6
CONTINUOUS
 10
-3.27425
 20
2.606929996
 11
-3.27425
 21
-0.4459539636
  0
LINE
  5
327
100
AcDbEntity
  8
IMPORT_IGES
100
AcDbLine
 62
7
  6
CONTINUOUS
 10
-3.22425
 20
-5.8959539636
 11
-3.22425
 21
-2.3250827484
  0
LINE
  5
328
100
AcDbEntity
  8
IMPORT_IGES
100
AcDbLine
 62
253
  6
CONTINUOUS
 10
-3.1741182891
 20
-10.0959539636
 11
-3.1741113775
 21
-10.1959539636
  0
LINE
  5
329
100
AcDbEntity
  8
IMPORT_IGES
100
AcDbLine
 62
7
  6
CONTINUOUS
 10
-3.0291035023
 20
-0.8459539636
 11
-3.0291035023
 21
-0.2219909752
  0
LINE
  5
32A
100
AcDbEntity
  8
IMPORT_IGES
100
AcDbLine
 62
253
  6
CONTINUOUS
 10
-3.5742163986
 20
-10.0959539636
 11
-3.5742563193
 21
-10.1959539636
  0
LWPOLYLINE
  5
32B
100
AcDbEntity
  8
IMPORT_IGES
100
AcDbPolyline
 62
7
  6
CONTINUOUS
 90
10
 70
0
 10
-2.3699525591
 20
6.4229409591
 10
-2.3802574177
 20
6.3740973215
 10
-2.391286567
 20
6.3257800253
 10
-2.4030400071
 20
6.2779890703
 10
-2.4155275212
 20
6.2307076593
 10
-2.428739326
 20
6.1839525895
 10
-2.4426460715
 20
6.1377742535
 10
-2.4572379745
 20
6.0921894488
 10
-2.4725248183
 20
6.0471813778
 10
-2.4885066029
 20
6.0027500407
  0
LWPOLYLINE
  5
32C
100
AcDbEntity
  8
IMPORT_IGES
100
AcDbPolyline
 62
253
  6
CONTINUOUS
 90
3
 70
0
 10
-8.376933426
 20
-3.4589257565
 10
-8.3510321683
 20
-3.4328036054
 10
-8.32425
 20
-3.4120607835
  0
LWPOLYLINE
  5
32D
100
AcDbEntity
  8
0
100
AcDbPolyline
 62
7
  6
CONTINUOUS
 90
10
 70
0
 10
3.4718689372
 20
6.3690908321
 10
3.4938277642
 20
6.3841646754
 10
3.5165460136
 20
6.3974597785
 10
3.5400236854
 20
6.4089761415
 10
3.5641954568
 20
6.418705304
 10
3.5891266506
 20
6.4266557264
 10
3.6150132348
 20
6.4328527895
 10
3.6419205323
 20
6.4373049534
 10
3.6697832203
 20
6.440003758
 10
3.6986012987
 20
6.4409492031
  0
LWPOLYLINE
  5
32E
100
AcDbEntity
  8
0
100
AcDbPolyline
 62
7
  6
CONTINUOUS
 90
10
 70
0
 10
3.4328252272
 20
5.8094666162
 10
3.4026085809
 20
5.792914981
 10
3.3733069107
 20
5.7743928036
 10
3.3449202168
 20
5.7539000838
 10
3.3174278492
 20
5.7314738826
 10
3.2908504577
 20
5.707077139
 10
3.2652499926
 20
5.6805986711
 10
3.2406471037
 20
5.6520014181
 10
3.2170211411
 20
5.6213224408
 10
3.1943721048
 20
5.5885617391
  0
LINE
  5
32F
100
AcDbEntity
  8
IMPORT_IGES
100
AcDbLine
 62
7
  6
CONTINUOUS
 10
5.87575
 20
-3.0959539636
 11
3.07575
 21
-3.0959539636
  0
LINE
  5
330
100
AcDbEntity
  8
IMPORT_IGES
100
AcDbLine
 62
7
  6
CONTINUOUS
 10
-3.22425
 20
-3.0959539636
 11
-6.02425
 21
-3.0959539636
  0
LINE
  5
331
100
AcDbEntity
  8
IMPORT_IGES
100
AcDbLine
 62
7
  6
CONTINUOUS
 10
5.87575
 20
-2.3250827484
 11
-6.02425
 21
-2.3250827484
  0
LWPOLYLINE
  5
332
100
AcDbEntity
  8
IMPORT_IGES
100
AcDbPolyline
 62
7
  6
CONTINUOUS
 90
5
 70
0
 10
2.25075
 20
-6.1959539636
 10
2.2167131916
 20
-6.162470722
 10
2.1842112345
 20
-6.1298457426
 10
2.1532441289
 20
-6.0984512366
 10
2.1235932121
 20
-6.0686604018
  0
LWPOLYLINE
  5
333
100
AcDbEntity
  8
IMPORT_IGES
100
AcDbPolyline
 62
253
  6
CONTINUOUS
 90
7
 70
0
 10
-8.34547683
 20
3.4694652782
 10
-8.3712621577
 20
3.4952345118
 10
-8.3928898881
 20
3.5236592256
 10
-8.410012702
 20
3.554296423
 10
-8.4223193385
 20
3.5866395945
 10
-8.4295644653
 20
3.6201143812
 10
-8.4316004582
 20
3.654138735
  0
LWPOLYLINE
  5
334
100
AcDbEntity
  8
IMPORT_IGES
100
AcDbPolyline
 62
7
  6
CONTINUOUS
 90
3
 70
0
 10
2.1235932121
 20
-6.0686604018
 10
2.0695519202
 20
-6.0147535726
 10
2.0459026458
 20
-5.99102218
  0
LWPOLYLINE
  5
335
100
AcDbEntity
  8
IMPORT_IGES
100
AcDbPolyline
 62
7
  6
CONTINUOUS
 90
8
 70
0
 10
2.0459026458
 20
-5.99102218
 10
2.0055772608
 20
-5.9507814276
 10
1.9893186086
 20
-5.9344706234
 10
1.9756514428
 20
-5.920907074
 10
1.9649259775
 20
-5.9101440698
 10
1.957258951
 20
-5.9023118531
 10
1.9525336252
 20
-5.8975535209
 10
1.95075
 20
-5.8959539636
  0
LINE
  5
336
100
AcDbEntity
  8
IMPORT_IGES
100
AcDbLine
 62
7
  6
CONTINUOUS
 10
-6.32425
 20
3.1106020749
 11
-6.2472370086
 21
3.0108404454
  0
LWPOLYLINE
  5
337
100
AcDbEntity
  8
IMPORT_IGES
100
AcDbPolyline
 62
7
  6
CONTINUOUS
 90
19
 70
0
 10
-6.2472370086
 20
3.0108404454
 10
-6.2232227567
 20
2.9794579334
 10
-6.2002793442
 20
2.9490576228
 10
-6.178493596
 20
2.9199186283
 10
-6.1579320551
 20
2.8920448568
 10
-6.1387241798
 20
2.8654324014
 10
-6.1210140915
 20
2.8403486565
 10
-6.104868043
 20
2.816891521
 10
-6.0902722186
 20
2.794963096
 10
-6.0772149525
 20
2.7745370793
 10
-6.0657038002
 20
2.7556603876
 10
-6.0557022102
 20
2.7382861043
 10
-6.0471376534
 20
2.722247177
 10
-6.0399852128
 20
2.7075389395
 10
-6.0342228063
 20
2.6941660581
 10
-6.0298017382
 20
2.6819754793
 10
-6.02668856
 20
2.6709161854
 10
-6.0248520182
 20
2.6610391941
 10
-6.02425
 20
2.6523445054
  0
LINE
  5
338
100
AcDbEntity
  8
IMPORT_IGES
100
AcDbLine
 62
7
  6
CONTINUOUS
 10
-3.9985782526
 20
0.7080090248
 11
-3.8985782526
 21
0.5080090248
  0
LWPOLYLINE
  5
339
100
AcDbEntity
  8
IMPORT_IGES
100
AcDbPolyline
 62
7
  6
CONTINUOUS
 90
10
 70
0
 10
-5.3112896334
 20
4.9807854673
 10
-5.3350551229
 20
5.039993031
 10
-5.3561312983
 20
5.1007734632
 10
-5.3745181597
 20
5.1631267641
 10
-5.390272062
 20
5.2270426859
 10
-5.4033366503
 20
5.2925314763
 10
-5.4135428597
 20
5.3596238782
 10
-5.4208343353
 20
5.4283301391
 10
-5.425267432
 20
5.4986400113
 10
-5.4268421497
 20
5.5705534951
  0
LINE
  5
33A
100
AcDbEntity
  8
IMPORT_IGES
100
AcDbLine
 62
7
  6
CONTINUOUS
 10
-1.5521277456
 20
-6.9759856118
 11
-1.5597801809
 21
-6.9459539636
  0
LINE
  5
33B
100
AcDbEntity
  8
0
100
AcDbLine
 62
7
  6
CONTINUOUS
 10
-2.77425
 20
2.606929996
 11
-2.77425
 21
-0.4459539636
  0
LINE
  5
33C
100
AcDbEntity
  8
IMPORT_IGES
100
AcDbLine
 62
253
  6
CONTINUOUS
 10
-2.39925
 20
-7.6550574292
 11
-2.39925
 21
-6.1959539636
  0
LINE
  5
33D
100
AcDbEntity
  8
0
100
AcDbLine
 62
7
  6
CONTINUOUS
 10
-2.27425
 20
2.606929996
 11
-2.27425
 21
-0.4459539636
  0
LINE
  5
33E
100
AcDbEntity
  8
IMPORT_IGES
100
AcDbLine
 62
7
  6
CONTINUOUS
 10
-2.2291035023
 20
-0.2219909752
 11
-2.2291035023
 21
-0.8459539636
  0
LINE
  5
33F
100
AcDbEntity
  8
IMPORT_IGES
100
AcDbLine
 62
7
  6
CONTINUOUS
 10
-2.09925
 20
-5.8959539636
 11
-2.09925
 21
-7.5746726715
  0
LINE
  5
340
100
AcDbEntity
  8
IMPORT_IGES
100
AcDbLine
 62
253
  6
CONTINUOUS
 10
-8.32425
 20
3.4531561534
 11
-8.34547683
 21
3.4694652782
  0
LINE
  5
341
100
AcDbEntity
  8
IMPORT_IGES
100
AcDbLine
 62
7
  6
CONTINUOUS
 10
3.0761790236
 20
-5.8963490827
 11
3.07575
 21
-5.8959539636
  0
LINE
  5
342
100
AcDbEntity
  8
IMPORT_IGES
100
AcDbLine
 62
7
  6
CONTINUOUS
 10
3.2824797839
 20
-6.1027417988
 11
3.0796841129
 21
-5.8998880765
  0
LWPOLYLINE
  5
343
100
AcDbEntity
  8
IMPORT_IGES
100
AcDbPolyline
 62
7
  6
CONTINUOUS
 90
3
 70
0
 10
3.37575
 20
-6.1959539636
 10
3.3514653065
 20
-6.1714646778
 10
3.2824797839
 20
-6.1027417988
  0
LINE
  5
344
100
AcDbEntity
  8
IMPORT_IGES
100
AcDbLine
 62
7
  6
CONTINUOUS
 10
3.0796841129
 20
-5.8998880765
 11
3.0761790236
 21
-5.8963490827
  0
LWPOLYLINE
  5
345
100
AcDbEntity
  8
IMPORT_IGES
100
AcDbPolyline
 62
7
  6
CONTINUOUS
 90
10
 70
0
 10
-5.0456688912
 20
5.0813311733
 10
-5.0248996038
 20
5.0336024302
 10
-5.0023133171
 20
4.9893732384
 10
-4.9779100313
 20
4.9486435979
 10
-4.9517853616
 20
4.9117430908
 10
-4.9238436927
 20
4.8783421349
 10
-4.8937981782
 20
4.8474519843
 10
-4.8615532026
 20
4.8187430571
 10
-4.8272043813
 20
4.7925449353
 10
-4.7907517144
 20
4.7688576188
  0
LINE
  5
346
100
AcDbEntity
  8
0
100
AcDbLine
 62
7
  6
CONTINUOUS
 10
-1.77425
 20
2.606929996
 11
-1.77425
 21
-0.4459539636
  0
LINE
  5
347
100
AcDbEntity
  8
IMPORT_IGES
100
AcDbLine
 62
7
  6
CONTINUOUS
 10
-1.49925
 20
-5.0959539636
 11
-1.49925
 21
-5.8959539636
  0
LINE
  5
348
100
AcDbEntity
  8
0
100
AcDbLine
 62
7
  6
CONTINUOUS
 10
-1.27425
 20
2.606929996
 11
-1.27425
 21
-0.4459539636
  0
LINE
  5
349
100
AcDbEntity
  8
IMPORT_IGES
100
AcDbLine
 62
7
  6
CONTINUOUS
 10
-1.238438296
 20
6.6540460364
 11
-1.238438296
 21
6.3944280044
  0
LINE
  5
34A
100
AcDbEntity
  8
IMPORT_IGES
100
AcDbLine
 62
7
  6
CONTINUOUS
 10
-1.27425
 20
0.9250510961
 11
-1.2585782526
 21
0.956394591
  0
LWPOLYLINE
  5
34B
100
AcDbEntity
  8
0
100
AcDbPolyline
 62
7
  6
CONTINUOUS
 90
13
 70
0
 10
3.1612784497
 20
6.4109995765
 10
3.1211351082
 20
6.355996689
 10
3.0849140652
 20
6.2964435837
 10
3.0526153207
 20
6.2323402606
 10
3.0243397929
 20
6.1633431212
 10
2.9999865635
 20
6.089795764
 10
2.9792528779
 20
6.0127289839
 10
2.9622046944
 20
5.9323000104
 10
2.9487760547
 20
5.8483516142
 10
2.9384663284
 20
5.761442902
 10
2.9311086388
 20
5.6717602428
 10
2.9268698627
 20
5.5791172677
 10
2.92575
 20
5.4835139767
  0
LWPOLYLINE
  5
34C
100
AcDbEntity
  8
0
100
AcDbPolyline
 62
7
  6
CONTINUOUS
 90
10
 70
0
 10
3.3635633709
 20
5.510900441
 10
3.3929767743
 20
5.5386469217
 10
3.4236208073
 20
5.5630903452
 10
3.4554954698
 20
5.5842307112
 10
3.4885265505
 20
5.602035515
 10
3.5227882607
 20
5.6165372614
 10
3.5585032346
 20
5.6278334656
 10
3.5957456835
 20
5.6359566326
 10
3.6344413961
 20
5.6408742574
 10
3.6745903723
 20
5.6425863401
  0
LWPOLYLINE
  5
34D
100
AcDbEntity
  8
0
100
AcDbPolyline
 62
7
  6
CONTINUOUS
 90
10
 70
0
 10
4.0435569476
 20
4.5114037735
 10
4.0765555805
 20
4.5327182432
 10
4.1080990912
 20
4.5561816089
 10
4.1381874798
 20
4.5817938705
 10
4.1668130011
 20
4.6094772066
 10
4.1939834002
 20
4.6393094387
 10
4.2197219125
 20
4.6715240314
 10
4.244036283
 20
4.7061988063
 10
4.2669187667
 20
4.7432559418
 10
4.2883693636
 20
4.782695438
  0
LINE
  5
34E
100
AcDbEntity
  8
IMPORT_IGES
100
AcDbLine
 62
7
  6
CONTINUOUS
 10
-3.0291035023
 20
-0.8459539636
 11
-2.2291035023
 21
-0.8459539636
  0
LINE
  5
34F
100
AcDbEntity
  8
IMPORT_IGES
100
AcDbLine
 62
7
  6
CONTINUOUS
 10
-0.8385782525
 20
-0.8459539636
 11
1.7008964977
 21
-0.8459539636
  0
LINE
  5
350
100
AcDbEntity
  8
0
100
AcDbLine
 62
7
  6
CONTINUOUS
 10
-3.77425
 20
-0.4459539636
 11
-3.27425
 21
-0.4459539636
  0
LINE
  5
351
100
AcDbEntity
  8
0
100
AcDbLine
 62
7
  6
CONTINUOUS
 10
-2.77425
 20
-0.4459539636
 11
-2.27425
 21
-0.4459539636
  0
LINE
  5
352
100
AcDbEntity
  8
0
100
AcDbLine
 62
7
  6
CONTINUOUS
 10
-1.77425
 20
-0.4459539636
 11
-1.27425
 21
-0.4459539636
  0
LINE
  5
353
100
AcDbEntity
  8
0
100
AcDbLine
 62
7
  6
CONTINUOUS
 10
-0.77425
 20
-0.4459539636
 11
-0.27425
 21
-0.4459539636
  0
LINE
  5
354
100
AcDbEntity
  8
0
100
AcDbLine
 62
7
  6
CONTINUOUS
 10
0.22575
 20
-0.4459539636
 11
0.72575
 21
-0.4459539636
  0
LINE
  5
355
100
AcDbEntity
  8
0
100
AcDbLine
 62
7
  6
CONTINUOUS
 10
1.22575
 20
-0.4459539636
 11
1.72575
 21
-0.4459539636
  0
LINE
  5
356
100
AcDbEntity
  8
0
100
AcDbLine
 62
7
  6
CONTINUOUS
 10
2.22575
 20
-0.4459539636
 11
2.72575
 21
-0.4459539636
  0
LINE
  5
357
100
AcDbEntity
  8
0
100
AcDbLine
 62
7
  6
CONTINUOUS
 10
3.22575
 20
-0.4459539636
 11
3.72575
 21
-0.4459539636
  0
LWPOLYLINE
  5
358
100
AcDbEntity
  8
IMPORT_IGES
100
AcDbPolyline
 62
7
  6
CONTINUOUS
 90
9
 70
0
 10
-8.32425
 20
2.4929944372
 10
-8.3267276926
 20
2.4939176196
 10
-8.3563542363
 20
2.5083585617
 10
-8.3828428805
 20
2.5249671926
 10
-8.4056235736
 20
2.5434894577
 10
-8.4242752592
 20
2.5640932897
 10
-8.4381940754
 20
2.5865384355
 10
-8.4467393943
 20
2.6101020025
 10
-8.4494046217
 20
2.6341388951
  0
LINE
  5
359
100
AcDbEntity
  8
IMPORT_IGES
100
AcDbLine
 62
253
  6
CONTINUOUS
 10
6.8202464766
 20
-7.9904486126
 11
6.8603867602
 21
-8.0303316144
  0
LWPOLYLINE
  5
35A
100
AcDbEntity
  8
IMPORT_IGES
100
AcDbPolyline
 62
7
  6
CONTINUOUS
 90
3
 70
0
 10
3.114008607
 20
-4.3842680419
 10
3.1491637483
 20
-4.4193319674
 10
3.1704955267
 20
-4.4407870551
  0
LWPOLYLINE
  5
35B
100
AcDbEntity
  8
IMPORT_IGES
100
AcDbPolyline
 62
7
  6
CONTINUOUS
 90
7
 70
0
 10
3.1704955267
 20
-4.4407870551
 10
3.2202345019
 20
-4.4904049584
 10
3.2482251403
 20
-4.5185677741
 10
3.2780699554
 20
-4.5482707156
 10
3.3095210804
 20
-4.5792916724
 10
3.3422059013
 20
-4.6118527551
 10
3.37575
 20
-4.6459539636
  0
LWPOLYLINE
  5
35C
100
AcDbEntity
  8
IMPORT_IGES
100
AcDbPolyline
 62
7
  6
CONTINUOUS
 90
6
 70
0
 10
3.07575
 20
-4.3459539636
 10
3.0773292026
 20
-4.3476928955
 10
3.0820361475
 20
-4.3523716309
 10
3.089800665
 20
-4.3599901699
 10
3.1004975075
 20
-4.3706592041
 10
3.114008607
 20
-4.3842680419
  0
LWPOLYLINE
  5
35D
100
AcDbEntity
  8
IMPORT_IGES
100
AcDbPolyline
 62
7
  6
CONTINUOUS
 90
13
 70
0
 10
-3.8061053988
 20
5.9832411424
 10
-3.8201938863
 20
6.0242341056
 10
-3.8352197477
 20
6.0630638989
 10
-3.851182983
 20
6.0997305224
 10
-3.8681512336
 20
6.1342431298
 10
-3.8860568581
 20
6.1665925673
 10
-3.9046969321
 20
6.196751374
 10
-3.924104314
 20
6.2246949517
 10
-3.9442461454
 20
6.2504478985
 10
-3.9648209258
 20
6.2740565485
 10
-3.9857281553
 20
6.2955363466
 10
-4.0070683339
 20
6.3148718478
 10
-4.0288414616
 20
6.3320630524
  0
LINE
  5
35E
100
AcDbEntity
  8
IMPORT_IGES
100
AcDbLine
 62
7
  6
CONTINUOUS
 10
-0.8385782525
 20
-0.8459539636
 11
-0.8385782525
 21
0.756394591
  0
LINE
  5
35F
100
AcDbEntity
  8
0
100
AcDbLine
 62
7
  6
CONTINUOUS
 10
-0.77425
 20
2.606929996
 11
-0.77425
 21
-0.4459539636
  0
LINE
  5
360
100
AcDbEntity
  8
IMPORT_IGES
100
AcDbLine
 62
7
  6
CONTINUOUS
 10
-0.5136086699
 20
6.3944280044
 11
-0.5136086699
 21
4.4540460364
  0
LINE
  5
361
100
AcDbEntity
  8
0
100
AcDbLine
 62
7
  6
CONTINUOUS
 10
-0.27425
 20
2.606929996
 11
-0.27425
 21
-0.4459539636
  0
LINE
  5
362
100
AcDbEntity
  8
IMPORT_IGES
100
AcDbLine
 62
7
  6
CONTINUOUS
 10
-0.2224765059
 20
4.4540460364
 11
-0.2224765059
 21
6.3944280044
  0
LWPOLYLINE
  5
363
100
AcDbEntity
  8
0
100
AcDbPolyline
 62
7
  6
CONTINUOUS
 90
10
 70
0
 10
3.979181029
 20
4.7767351224
 10
3.9511285662
 20
4.7475262052
 10
3.9219517353
 20
4.721807751
 10
3.8916505363
 20
4.69957976
 10
3.8602670604
 20
4.6808748842
 10
3.8277592164
 20
4.6656604715
 10
3.7940007306
 20
4.6538385655
 10
3.7589495117
 20
4.6453765141
 10
3.722647651
 20
4.6403069693
 10
3.6850951485
 20
4.6386299313
  0
LINE
  5
364
100
AcDbEntity
  8
IMPORT_IGES
100
AcDbLine
 62
253
  6
CONTINUOUS
 10
7.1202446489
 20
7.698542513
 11
7.1656729223
 21
7.7439707864
  0
LWPOLYLINE
  5
365
100
AcDbEntity
  8
IMPORT_IGES
100
AcDbPolyline
 62
7
  6
CONTINUOUS
 90
3
 70
0
 10
-6.1194026458
 20
-4.44102218
 10
-6.0979442102
 20
-4.4196893923
 10
-6.0628186086
 20
-4.3844706234
  0
LWPOLYLINE
  5
366
100
AcDbEntity
  8
IMPORT_IGES
100
AcDbPolyline
 62
7
  6
CONTINUOUS
 90
6
 70
0
 10
-6.0628186086
 20
-4.3844706234
 10
-6.0491514428
 20
-4.370907074
 10
-6.0384259775
 20
-4.3601440698
 10
-6.030758951
 20
-4.3523118531
 10
-6.0260336252
 20
-4.3475535209
 10
-6.02425
 20
-4.3459539636
  0
LINE
  5
367
100
AcDbEntity
  8
IMPORT_IGES
100
AcDbLine
 62
253
  6
CONTINUOUS
 10
6.8656115413
 20
8.0435373359
 11
6.8202464766
 21
7.9985406853
  0
LWPOLYLINE
  5
368
100
AcDbEntity
  8
IMPORT_IGES
100
AcDbPolyline
 62
7
  6
CONTINUOUS
 90
7
 70
0
 10
-6.32425
 20
-4.6459539636
 10
-6.2902131916
 20
-4.612470722
 10
-6.2577112345
 20
-4.5798457426
 10
-6.2267441289
 20
-4.5484512366
 10
-6.1970932121
 20
-4.5186604018
 10
-6.1689771468
 20
-4.4907162355
 10
-6.1194026458
 20
-4.44102218
  0
LWPOLYLINE
  5
369
100
AcDbEntity
  8
IMPORT_IGES
100
AcDbPolyline
 62
7
  6
CONTINUOUS
 90
9
 70
0
 10
-8.32425
 20
-2.493763519
 10
-8.3313205505
 20
-2.4964596761
 10
-8.3611603405
 20
-2.5110818063
 10
-8.3878856234
 20
-2.5281574812
 10
-8.410875857
 20
-2.5475171348
 10
-8.4295690564
 20
-2.5684168365
 10
-8.4433951612
 20
-2.5906019288
 10
-8.4518194814
 20
-2.6143077857
 10
-8.4544058474
 20
-2.6395267939
  0
LINE
  5
36A
100
AcDbEntity
  8
IMPORT_IGES
100
AcDbLine
 62
7
  6
CONTINUOUS
 10
3.7414217474
 20
-0.2219909752
 11
3.72575
 21
-0.2219909752
  0
LINE
  5
36B
100
AcDbEntity
  8
IMPORT_IGES
100
AcDbLine
 62
7
  6
CONTINUOUS
 10
-1.77425
 20
-0.2219909752
 11
-2.2291035023
 21
-0.2219909752
  0
LINE
  5
36C
100
AcDbEntity
  8
IMPORT_IGES
100
AcDbLine
 62
7
  6
CONTINUOUS
 10
-3.0291035023
 20
-0.2219909752
 11
-3.27425
 21
-0.2219909752
  0
LINE
  5
36D
100
AcDbEntity
  8
IMPORT_IGES
100
AcDbLine
 62
7
  6
CONTINUOUS
 10
-3.77425
 20
-0.2219909752
 11
-3.8985782526
 21
-0.2219909752
  0
LINE
  5
36E
100
AcDbEntity
  8
IMPORT_IGES
100
AcDbLine
 62
7
  6
CONTINUOUS
 10
8.17575
 20
-0.1909539636
 11
8.3486458451
 21
-0.1909539636
  0
LINE
  5
36F
100
AcDbEntity
  8
IMPORT_IGES
100
AcDbLine
 62
7
  6
CONTINUOUS
 10
-8.32425
 20
-0.1909539636
 11
-8.4971458451
 21
-0.1909539636
  0
LINE
  5
370
100
AcDbEntity
  8
IMPORT_IGES
100
AcDbLine
 62
7
  6
CONTINUOUS
 10
8.17575
 20
-0.0909539636
 11
8.3484712944
 21
-0.0909539636
  0
LINE
  5
371
100
AcDbEntity
  8
IMPORT_IGES
100
AcDbLine
 62
7
  6
CONTINUOUS
 10
-8.32425
 20
-0.0909539636
 11
-8.4969712945
 21
-0.0909539636
  0
LINE
  5
372
100
AcDbEntity
  8
IMPORT_IGES
100
AcDbLine
 62
253
  6
CONTINUOUS
 10
7.1604029689
 20
-7.7306087602
 11
7.1202446489
 21
-7.6904504403
  0
LINE
  5
373
100
AcDbEntity
  8
IMPORT_IGES
100
AcDbLine
 62
253
  6
CONTINUOUS
 10
-7.3141729223
 20
7.7439707864
 11
-7.2687446489
 21
7.698542513
  0
LINE
  5
374
100
AcDbEntity
  8
IMPORT_IGES
100
AcDbLine
 62
7
  6
CONTINUOUS
 10
-0.9385782525
 20
0.956394591
 11
-0.8385782525
 21
0.756394591
  0
LINE
  5
375
100
AcDbEntity
  8
IMPORT_IGES
100
AcDbLine
 62
7
  6
CONTINUOUS
 10
-1.6376196619
 20
4.4540460364
 11
-1.8942365166
 21
5.1203489021
  0
LWPOLYLINE
  5
376
100
AcDbEntity
  8
IMPORT_IGES
100
AcDbPolyline
 62
7
  6
CONTINUOUS
 90
10
 70
0
 10
-1.9842773434
 20
5.3574566618
 10
-2.2350454235
 20
6.0229916126
 10
-2.2552792952
 20
6.0777699868
 10
-2.2745832507
 20
6.1310688065
 10
-2.2929915927
 20
6.1827714093
 10
-2.3104700184
 20
6.2329944574
 10
-2.3269156188
 20
6.2820879378
 10
-2.3422940909
 20
6.3301685127
 10
-2.3566397377
 20
6.3771195198
 10
-2.3699525591
 20
6.4229409591
  0
LINE
  5
377
100
AcDbEntity
  8
0
100
AcDbLine
 62
7
  6
CONTINUOUS
 10
0.22575
 20
2.606929996
 11
0.22575
 21
-0.4459539636
  0
LINE
  5
378
100
AcDbEntity
  8
IMPORT_IGES
100
AcDbLine
 62
7
  6
CONTINUOUS
 10
0.5053544286
 20
6.3944280044
 11
0.5053544286
 21
6.6540460364
  0
LINE
  5
379
100
AcDbEntity
  8
0
100
AcDbLine
 62
7
  6
CONTINUOUS
 10
0.72575
 20
2.606929996
 11
0.72575
 21
-0.4459539636
  0
LINE
  5
37A
100
AcDbEntity
  8
IMPORT_IGES
100
AcDbLine
 62
7
  6
CONTINUOUS
 10
0.846009231
 20
4.7616858885
 11
0.846009231
 21
4.4540460364
  0
LWPOLYLINE
  5
37B
100
AcDbEntity
  8
0
100
AcDbPolyline
 62
7
  6
CONTINUOUS
 90
10
 70
0
 10
3.2705265589
 20
6.0974477264
 10
3.2873462612
 20
6.1358141147
 10
3.3056032453
 20
6.1721695324
 10
3.3252975113
 20
6.2065139795
 10
3.3464948774
 20
6.2388941023
 10
3.3691295253
 20
6.2692632545
 10
3.3930040007
 20
6.2974814974
 10
3.4180524854
 20
6.3235021849
 10
3.4443407976
 20
6.3473719631
 10
3.4718689372
 20
6.3690908321
  0
LWPOLYLINE
  5
37C
100
AcDbEntity
  8
IMPORT_IGES
100
AcDbPolyline
 62
253
  6
CONTINUOUS
 90
13
 70
0
 10
-8.0328547416
 20
-9.8545530122
 10
-8.0537727941
 20
-9.8782347876
 10
-8.0746129046
 20
-9.8986819095
 10
-8.0951535854
 20
-9.915908634
 10
-8.1152696582
 20
-9.9300939149
 10
-8.1346649083
 20
-9.9411034801
 10
-8.1529430091
 20
-9.9486865148
 10
-8.1695574864
 20
-9.9530174731
 10
-8.1849848399
 20
-9.9545547729
 10
-8.2002433158
 20
-9.9532527052
 10
-8.2153763992
 20
-9.9488298591
 10
-8.2297122495
 20
-9.9412203644
 10
-8.2429335217
 20
-9.9303305189
  0
LINE
  5
37D
100
AcDbEntity
  8
IMPORT_IGES
100
AcDbLine
 62
253
  6
CONTINUOUS
 10
-7.2687446489
 20
-7.6904504403
 11
-7.3089029689
 21
-7.7306087602
  0
LINE
  5
37E
100
AcDbEntity
  8
IMPORT_IGES
100
AcDbLine
 62
7
  6
CONTINUOUS
 10
4.32575
 20
0.7080090248
 11
3.8414217474
 21
0.7080090248
  0
LINE
  5
37F
100
AcDbEntity
  8
IMPORT_IGES
100
AcDbLine
 62
7
  6
CONTINUOUS
 10
-3.9985782526
 20
0.7080090248
 11
-4.47425
 21
0.7080090248
  0
LINE
  5
380
100
AcDbEntity
  8
IMPORT_IGES
100
AcDbLine
 62
7
  6
CONTINUOUS
 10
3.1408964977
 20
0.956394591
 11
2.8214217474
 21
0.956394591
  0
LINE
  5
381
100
AcDbEntity
  8
IMPORT_IGES
100
AcDbLine
 62
7
  6
CONTINUOUS
 10
2.1214217474
 20
0.956394591
 11
1.8008964977
 21
0.956394591
  0
LINE
  5
382
100
AcDbEntity
  8
IMPORT_IGES
100
AcDbLine
 62
7
  6
CONTINUOUS
 10
-0.9385782525
 20
0.956394591
 11
-1.2585782526
 21
0.956394591
  0
LWPOLYLINE
  5
383
100
AcDbEntity
  8
IMPORT_IGES
100
AcDbPolyline
 62
7
  6
CONTINUOUS
 90
9
 70
0
 10
8.17575
 20
-2.4936446105
 10
8.1829587374
 20
-2.4963733307
 10
8.2126603947
 20
-2.511078709
 10
8.2393860131
 20
-2.5281351621
 10
8.2623807872
 20
-2.5472346931
 10
8.2810693161
 20
-2.5684019632
 10
8.2948829395
 20
-2.5913021171
 10
8.3033034115
 20
-2.6152284363
 10
8.3059058474
 20
-2.6395267937
  0
LWPOLYLINE
  5
384
100
AcDbEntity
  8
IMPORT_IGES
100
AcDbPolyline
 62
7
  6
CONTINUOUS
 90
10
 70
0
 10
-4.9721354864
 20
4.560594484
 10
-5.0189775929
 20
4.5931044338
 10
-5.0635768137
 20
4.6291407951
 10
-5.1059331488
 20
4.6687035678
 10
-5.1461088549
 20
4.7117686547
 10
-5.1840416753
 20
4.758360153
 10
-5.2195448403
 20
4.8085503543
 10
-5.2525560934
 20
4.8623633557
 10
-5.2831376911
 20
4.91977506
 10
-5.3112896334
 20
4.9807854673
  0
LWPOLYLINE
  5
385
100
AcDbEntity
  8
IMPORT_IGES
100
AcDbPolyline
 62
7
  6
CONTINUOUS
 90
8
 70
0
 10
5.87575
 20
-4.3459539636
 10
5.8774889319
 20
-4.3475331662
 10
5.8821676673
 20
-4.3522401111
 10
5.8897862063
 20
-4.3600046286
 10
5.9004552405
 20
-4.3707014711
 10
5.9140640783
 20
-4.3842125706
 10
5.9302806444
 20
-4.4004835115
 10
5.9705830915
 20
-4.4406994903
  0
LINE
  5
386
100
AcDbEntity
  8
IMPORT_IGES
100
AcDbLine
 62
253
  6
CONTINUOUS
 10
-6.9687464766
 20
7.9985406853
 11
-7.0141115413
 21
8.0435373359
  0
LWPOLYLINE
  5
387
100
AcDbEntity
  8
IMPORT_IGES
100
AcDbPolyline
 62
7
  6
CONTINUOUS
 90
3
 70
0
 10
5.9705830915
 20
-4.4406994903
 10
5.9942446372
 20
-4.4644457529
 10
6.0483638105
 20
-4.5184291039
  0
LWPOLYLINE
  5
388
100
AcDbEntity
  8
IMPORT_IGES
100
AcDbPolyline
 62
7
  6
CONTINUOUS
 90
5
 70
0
 10
6.0483638105
 20
-4.5184291039
 10
6.078066752
 20
-4.548273919
 10
6.1090877088
 20
-4.5797250441
 10
6.1416487914
 20
-4.6124098649
 10
6.17575
 20
-4.6459539636
  0
LINE
  5
389
100
AcDbEntity
  8
IMPORT_IGES
100
AcDbLine
 62
7
  6
CONTINUOUS
 10
-2.2063783642
 20
6.6540460364
 11
-1.3059690472
 21
4.4540460364
  0
LINE
  5
38A
100
AcDbEntity
  8
IMPORT_IGES
100
AcDbLine
 62
7
  6
CONTINUOUS
 10
1.1536491159
 20
4.4540460364
 11
1.1536491159
 21
4.7616858885
  0
LINE
  5
38B
100
AcDbEntity
  8
0
100
AcDbLine
 62
7
  6
CONTINUOUS
 10
1.22575
 20
2.606929996
 11
1.22575
 21
-0.4459539636
  0
LINE
  5
38C
100
AcDbEntity
  8
IMPORT_IGES
100
AcDbLine
 62
7
  6
CONTINUOUS
 10
1.35075
 20
-5.8959539636
 11
1.35075
 21
-5.0959539636
  0
LWPOLYLINE
  5
38D
100
AcDbEntity
  8
0
100
AcDbPolyline
 62
7
  6
CONTINUOUS
 90
4
 70
0
 43
0.3500000006
 10
1.6400356507
 20
21.3943413849
 10
1.6400356507
 20
22.2514838562
 10
2.0686071696
 20
22.6800573578
 10
2.7114641647
 20
22.6800573578
  0
LINE
  5
38E
100
AcDbEntity
  8
IMPORT_IGES
100
AcDbLine
 62
7
  6
CONTINUOUS
 10
1.7008964977
 20
-0.4459539636
 11
1.7008964977
 21
-0.8459539636
  0
LINE
  5
38F
100
AcDbEntity
  8
0
100
AcDbLine
 62
7
  6
CONTINUOUS
 10
1.72575
 20
2.606929996
 11
1.72575
 21
-0.4459539636
  0
LINE
  5
390
100
AcDbEntity
  8
IMPORT_IGES
100
AcDbLine
 62
7
  6
CONTINUOUS
 10
1.95075
 20
-7.5746726715
 11
1.95075
 21
-5.8959539636
  0
LINE
  5
391
100
AcDbEntity
  8
IMPORT_IGES
100
AcDbLine
 62
7
  6
CONTINUOUS
 10
1.72575
 20
0.8061015957
 11
1.8008964977
 21
0.956394591
  0
LWPOLYLINE
  5
392
100
AcDbEntity
  8
IMPORT_IGES
100
AcDbPolyline
 62
7
  6
CONTINUOUS
 90
5
 70
0
 10
-3.52425
 20
-4.6459539636
 10
-3.4907667584
 20
-4.6119171552
 10
-3.458141779
 20
-4.5794151982
 10
-3.4267472729
 20
-4.5484480925
 10
-3.3969564382
 20
-4.5187971758
  0
LWPOLYLINE
  5
393
100
AcDbEntity
  8
IMPORT_IGES
100
AcDbPolyline
 62
7
  6
CONTINUOUS
 90
3
 70
0
 10
-3.3969564382
 20
-4.5187971758
 10
-3.343049609
 20
-4.4647558839
 10
-3.3193182164
 20
-4.4411066094
  0
LWPOLYLINE
  5
394
100
AcDbEntity
  8
IMPORT_IGES
100
AcDbPolyline
 62
7
  6
CONTINUOUS
 90
8
 70
0
 10
-3.3193182164
 20
-4.4411066094
 10
-3.279077464
 20
-4.4007812244
 10
-3.2627666598
 20
-4.3845225723
 10
-3.2492031103
 20
-4.3708554064
 10
-3.2384401061
 20
-4.3601299411
 10
-3.2306078895
 20
-4.3524629147
 10
-3.2258495572
 20
-4.3477375888
 10
-3.22425
 20
-4.3459539636
  0
LINE
  5
395
100
AcDbEntity
  8
IMPORT_IGES
100
AcDbLine
 62
253
  6
CONTINUOUS
 10
-7.0088867602
 20
-8.0303316144
 11
-6.9687464766
 21
-7.9904486126
  0
LWPOLYLINE
  5
396
100
AcDbEntity
  8
IMPORT_IGES
100
AcDbPolyline
 62
7
  6
CONTINUOUS
 90
10
 70
0
 10
-4.7907517144
 20
4.7688576188
 10
-4.7519168908
 20
4.7471045136
 10
-4.7125467031
 20
4.7279526358
 10
-4.6726411514
 20
4.7114019853
 10
-4.6323884622
 20
4.6974926231
 10
-4.5916004088
 20
4.6861844883
 10
-4.5497123115
 20
4.6773573983
 10
-4.5065359433
 20
4.6709712924
 10
-4.4622595312
 20
4.6670662315
 10
-4.4168830749
 20
4.6656422154
  0
LWPOLYLINE
  5
397
100
AcDbEntity
  8
IMPORT_IGES
100
AcDbPolyline
 62
253
  6
CONTINUOUS
 90
3
 70
0
 10
8.17575
 20
-3.4120627976
 10
8.2025030745
 20
-3.4327778999
 10
8.2284051126
 20
-3.458893083
  0
LINE
  5
398
100
AcDbEntity
  8
0
100
AcDbLine
 62
7
  6
CONTINUOUS
 10
2.22575
 20
2.606929996
 11
2.22575
 21
-0.4459539636
  0
LINE
  5
399
100
AcDbEntity
  8
IMPORT_IGES
100
AcDbLine
 62
253
  6
CONTINUOUS
 10
2.25075
 20
-7.6550574292
 11
2.25075
 21
-6.1959539636
  0
LINE
  5
39A
100
AcDbEntity
  8
0
100
AcDbLine
 62
7
  6
CONTINUOUS
 10
2.72575
 20
2.606929996
 11
2.72575
 21
-0.4459539636
  0
LWPOLYLINE
  5
39B
100
AcDbEntity
  8
IMPORT_IGES
100
AcDbPolyline
 62
253
  6
CONTINUOUS
 90
13
 70
0
 10
4.4357974822
 20
10.3342012664
 10
4.4279200714
 20
10.2961403283
 10
4.4166155161
 20
10.2605111023
 10
4.4026904278
 20
10.2275074185
 10
4.3864450066
 20
10.1966425489
 10
4.3685652133
 20
10.1682626993
 10
4.3498811196
 20
10.1432859639
 10
4.3296142648
 20
10.1209596895
 10
4.3077234063
 20
10.1007584308
 10
4.2855498704
 20
10.0835892847
 10
4.2631093752
 20
10.0695341975
 10
4.2393972617
 20
10.0581210716
 10
4.2141814973
 20
10.0495962771
  0
LWPOLYLINE
  5
39C
100
AcDbEntity
  8
0
100
AcDbPolyline
 62
7
  6
CONTINUOUS
 90
10
 70
0
 10
4.2883693636
 20
4.782695438
 10
4.3070360615
 20
4.8220453337
 10
4.3235462784
 20
4.8621997579
 10
4.3379000145
 20
4.9031587107
 10
4.3501093467
 20
4.9448272576
 10
4.360162198
 20
4.9873003331
 10
4.368022337
 20
5.0308627403
 10
4.3736776866
 20
5.0756094135
 10
4.377140324
 20
5.1214454185
 10
4.3784102492
 20
5.1683707551
  0
LINE
  5
39D
100
AcDbEntity
  8
IMPORT_IGES
100
AcDbLine
 62
7
  6
CONTINUOUS
 10
2.72575
 20
0.7650510961
 11
2.8214217474
 21
0.956394591
  0
LWPOLYLINE
  5
39E
100
AcDbEntity
  8
IMPORT_IGES
100
AcDbPolyline
 62
7
  6
CONTINUOUS
 90
5
 70
0
 10
-2.39925
 20
-6.1959539636
 10
-2.3657667584
 20
-6.1619171552
 10
-2.333141779
 20
-6.1294151982
 10
-2.3017472729
 20
-6.0984480925
 10
-2.2719564382
 20
-6.0687971758
  0
LINE
  5
39F
100
AcDbEntity
  8
IMPORT_IGES
100
AcDbLine
 62
7
  6
CONTINUOUS
 10
-3.4999739457
 20
-6.1714733801
 11
-3.52425
 21
-6.1959539636
  0
LINE
  5
3A0
100
AcDbEntity
  8
IMPORT_IGES
100
AcDbLine
 62
7
  6
CONTINUOUS
 10
-3.2282025633
 20
-5.8999065269
 11
-3.4999739457
 21
-6.1714733801
  0
LWPOLYLINE
  5
3A1
100
AcDbEntity
  8
IMPORT_IGES
100
AcDbPolyline
 62
7
  6
CONTINUOUS
 90
3
 70
0
 10
-3.22425
 20
-5.8959539636
 10
-3.2246811943
 20
-5.8963519288
 10
-3.2282025633
 20
-5.8999065269
  0
LINE
  5
3A2
100
AcDbEntity
  8
IMPORT_IGES
100
AcDbLine
 62
253
  6
CONTINUOUS
 10
8.1969981809
 20
3.4694839859
 11
8.17575
 21
3.4531550891
  0
LINE
  5
3A3
100
AcDbEntity
  8
IMPORT_IGES
100
AcDbLine
 62
7
  6
CONTINUOUS
 10
5.87575
 20
2.5540460364
 11
4.3793537012
 21
2.5540460364
  0
LINE
  5
3A4
100
AcDbEntity
  8
IMPORT_IGES
100
AcDbLine
 62
7
  6
CONTINUOUS
 10
-4.5278537012
 20
2.5540460364
 11
-6.02425
 21
2.5540460364
  0
LINE
  5
3A5
100
AcDbEntity
  8
IMPORT_IGES
100
AcDbLine
 62
7
  6
CONTINUOUS
 10
5.87575
 20
2.6106089288
 11
-6.02425
 21
2.6106089288
  0
LINE
  5
3A6
100
AcDbEntity
  8
IMPORT_IGES
100
AcDbLine
 62
253
  6
CONTINUOUS
 10
-6.32425
 20
3.1106020749
 11
6.17575
 21
3.1106020749
  0
LWPOLYLINE
  5
3A7
100
AcDbEntity
  8
IMPORT_IGES
100
AcDbPolyline
 62
7
  6
CONTINUOUS
 90
10
 70
0
 10
-4.0288414616
 20
6.3320630524
 10
-4.0627702044
 20
6.3553414837
 10
-4.0981145695
 20
6.3758119012
 10
-4.1348745569
 20
6.3934743048
 10
-4.1727090436
 20
6.4082557529
 10
-4.2119591527
 20
6.4202291871
 10
-4.2536482528
 20
6.4296134321
 10
-4.2981174669
 20
6.4364814297
 10
-4.345025672
 20
6.4407602381
 10
-4.3943728682
 20
6.4424498574
  0
LWPOLYLINE
  5
3A8
100
AcDbEntity
  8
IMPORT_IGES
100
AcDbPolyline
 62
7
  6
CONTINUOUS
 90
10
 70
0
 10
-3.8334763894
 20
6.5230035413
 10
-3.7861897161
 20
6.4851054524
 10
-3.7419670779
 20
6.443591664
 10
-3.7008084747
 20
6.398462176
 10
-3.662666736
 20
6.3497534254
 10
-3.6275890324
 20
6.2974289752
 10
-3.5957168755
 20
6.2413795149
 10
-3.567097436
 20
6.1815686076
 10
-3.5416835433
 20
6.1180326901
 10
-3.5194751974
 20
6.0507717625
  0
LINE
  5
3A9
100
AcDbEntity
  8
IMPORT_IGES
100
AcDbLine
 62
7
  6
CONTINUOUS
 10
2.1214217474
 20
0.956394591
 11
2.2214217474
 21
0.756394591
  0
LWPOLYLINE
  5
3AA
100
AcDbEntity
  8
0
100
AcDbPolyline
 62
7
  6
CONTINUOUS
 90
13
 70
0
 10
2.92575
 20
5.4835139767
 10
2.9267127865
 20
5.3987482408
 10
2.930466003
 20
5.3166120282
 10
2.9370096495
 20
5.2371053388
 10
2.9461730529
 20
5.1600481498
 10
2.9581268862
 20
5.0856204841
 10
2.9733831686
 20
5.0143624101
 10
2.9919970795
 20
4.946108925
 10
3.0139134395
 20
4.8810250316
 10
3.0394787288
 20
4.8201458064
 10
3.0688084409
 20
4.7638162748
 10
3.1017870825
 20
4.7116914113
 10
3.1384146534
 20
4.6637712159
  0
LINE
  5
3AB
100
AcDbEntity
  8
IMPORT_IGES
100
AcDbLine
 62
253
  6
CONTINUOUS
 10
3.4257363589
 20
-10.0959539636
 11
3.4257563193
 21
-10.1959539636
  0
LINE
  5
3AC
100
AcDbEntity
  8
IMPORT_IGES
100
AcDbLine
 62
7
  6
CONTINUOUS
 10
3.07575
 20
-5.8959539636
 11
3.07575
 21
-2.3250827484
  0
LINE
  5
3AD
100
AcDbEntity
  8
IMPORT_IGES
100
AcDbLine
 62
7
  6
CONTINUOUS
 10
3.17575
 20
-8.0087229014
 11
3.17575
 21
-9.063345268
  0
LINE
  5
3AE
100
AcDbEntity
  8
0
100
AcDbLine
 62
7
  6
CONTINUOUS
 10
3.22575
 20
2.606929996
 11
3.22575
 21
-0.4459539636
  0
LINE
  5
3AF
100
AcDbEntity
  8
IMPORT_IGES
100
AcDbLine
 62
7
  6
CONTINUOUS
 10
3.22575
 20
-10.0959539636
 11
3.22575
 21
-10.1959539636
  0
LINE
  5
3B0
100
AcDbEntity
  8
IMPORT_IGES
100
AcDbLine
 62
253
  6
CONTINUOUS
 10
3.37575
 20
-4.6459539636
 11
3.37575
 21
-6.1959539636
  0
LINE
  5
3B1
100
AcDbEntity
  8
0
100
AcDbLine
 62
7
  6
CONTINUOUS
 10
3.72575
 20
2.606929996
 11
3.72575
 21
-0.4459539636
  0
LINE
  5
3B2
100
AcDbEntity
  8
IMPORT_IGES
100
AcDbLine
 62
7
  6
CONTINUOUS
 10
3.7414217474
 20
0.5080090248
 11
3.7414217474
 21
-0.2219909752
  0
LINE
  5
3B3
100
AcDbEntity
  8
IMPORT_IGES
100
AcDbLine
 62
253
  6
CONTINUOUS
 10
3.0252689114
 20
-10.0959539636
 11
3.0252242725
 21
-10.1959539636
  0
LWPOLYLINE
  5
3B4
100
AcDbEntity
  8
0
100
AcDbPolyline
 62
7
  6
CONTINUOUS
 90
10
 70
0
 10
3.1943721048
 20
5.5885617391
 10
3.1952988898
 20
5.6521490915
 10
3.1979605933
 20
5.7140631273
 10
3.2023572155
 20
5.7743038465
 10
3.2082903742
 20
5.8329883152
 10
3.2159584515
 20
5.8899994674
 10
3.225956594
 20
5.9449861044
 10
3.2384831838
 20
5.9978311602
 10
3.2533398388
 20
6.0486517008
 10
3.2705265589
 20
6.0974477264
  0
LWPOLYLINE
  5
3B5
100
AcDbEntity
  8
0
100
AcDbPolyline
 62
7
  6
CONTINUOUS
 90
10
 70
0
 10
3.2363912098
 20
5.1668700353
 10
3.2380559566
 20
5.2137456536
 10
3.2428678035
 20
5.2584642632
 10
3.2508267503
 20
5.3010258642
 10
3.2619737661
 20
5.3414377841
 10
3.2762678819
 20
5.3796926954
 10
3.2935861909
 20
5.415768615
 10
3.3138877243
 20
5.4496582153
 10
3.337213451
 20
5.481368824
 10
3.3635633709
 20
5.510900441
  0
LINE
  5
3B6
100
AcDbEntity
  8
IMPORT_IGES
100
AcDbLine
 62
253
  6
CONTINUOUS
 10
4.5332561083
 20
12.2157697531
 11
4.4475345696
 21
11.0386132908
  0
LWPOLYLINE
  5
3B7
100
AcDbEntity
  8
IMPORT_IGES
100
AcDbPolyline
 62
253
  6
CONTINUOUS
 90
13
 70
0
 10
4.7469349092
 20
10.1509563059
 10
4.7437159704
 20
10.114582754
 10
4.7356848844
 20
10.078952607
 10
4.7230317135
 20
10.0446341301
 10
4.706117791
 20
10.0123273536
 10
4.6852102464
 20
9.9823362436
 10
4.6602679478
 20
9.9546901012
 10
4.6313652744
 20
9.929780101
 10
4.5990276885
 20
9.9083340586
 10
4.5638692916
 20
9.8909151621
 10
4.5265057137
 20
9.8779260857
 10
4.4875047784
 20
9.8696571769
 10
4.4475345696
 20
9.8663513026
  0
LWPOLYLINE
  5
3B8
100
AcDbEntity
  8
IMPORT_IGES
100
AcDbPolyline
 62
253
  6
CONTINUOUS
 90
10
 70
0
 10
4.4475345696
 20
11.0386132908
 10
4.4396850344
 20
10.9762578486
 10
4.4269934684
 20
10.9159596446
 10
4.4094598715
 20
10.8577186788
 10
4.3866564378
 20
10.8011976164
 10
4.3590109733
 20
10.7467337923
 10
4.3278068957
 20
10.6953392104
 10
4.2934720107
 20
10.6473512057
 10
4.2555785125
 20
10.6024324433
 10
4.2141264011
 20
10.5605829232
  0
LWPOLYLINE
  5
3B9
100
AcDbEntity
  8
IMPORT_IGES
100
AcDbPolyline
 62
253
  6
CONTINUOUS
 90
10
 70
0
 10
4.7469337083
 20
10.8122172748
 10
4.7376356836
 20
10.7521398365
 10
4.7214548942
 20
10.6935431805
 10
4.6985546249
 20
10.6364273068
 10
4.6690906482
 20
10.580445111
 10
4.6333249061
 20
10.5259436975
 10
4.5917087424
 20
10.4739643792
 10
4.5446799063
 20
10.4248542605
 10
4.4925734948
 20
10.3782662369
 10
4.4357939642
 20
10.3342003085
  0
LINE
  5
3BA
100
AcDbEntity
  8
IMPORT_IGES
100
AcDbLine
 62
7
  6
CONTINUOUS
 10
1.4112801809
 20
-6.9459539636
 11
1.4036277456
 21
-6.9759856118
  0
LINE
  5
3BB
100
AcDbEntity
  8
IMPORT_IGES
100
AcDbLine
 62
7
  6
CONTINUOUS
 10
3.7414217474
 20
0.5080090248
 11
3.8414217474
 21
0.7080090248
  0
LINE
  5
3BC
100
AcDbEntity
  8
IMPORT_IGES
100
AcDbLine
 62
7
  6
CONTINUOUS
 10
6.0987181924
 20
3.0108159004
 11
6.17575
 21
3.1106020749
  0
LWPOLYLINE
  5
3BD
100
AcDbEntity
  8
IMPORT_IGES
100
AcDbPolyline
 62
7
  6
CONTINUOUS
 90
3
 70
0
 10
-2.2719564382
 20
-6.0687971758
 10
-2.218049609
 20
-6.0147558839
 10
-2.1943182164
 20
-5.9911066094
  0
LWPOLYLINE
  5
3BE
100
AcDbEntity
  8
IMPORT_IGES
100
AcDbPolyline
 62
7
  6
CONTINUOUS
 90
8
 70
0
 10
-2.1943182164
 20
-5.9911066094
 10
-2.154077464
 20
-5.9507812244
 10
-2.1377666598
 20
-5.9345225723
 10
-2.1242031103
 20
-5.9208554064
 10
-2.1134401061
 20
-5.9101299411
 10
-2.1056078895
 20
-5.9024629147
 10
-2.1008495572
 20
-5.8977375888
 10
-2.09925
 20
-5.8959539636
  0
LWPOLYLINE
  5
3BF
100
AcDbEntity
  8
0
100
AcDbPolyline
 62
7
  6
CONTINUOUS
 90
10
 70
0
 10
3.6895971767
 20
4.4165289842
 10
3.7338500782
 20
4.4178144406
 10
3.7767921
 20
4.4214162625
 10
3.8184232421
 20
4.4273344499
 10
3.858637011
 20
4.4355720944
 10
3.8975399002
 20
4.4461261043
 10
3.9354513904
 20
4.4589872047
 10
3.9724779751
 20
4.4741523039
 10
4.0085131609
 20
4.4916244935
 10
4.0435569476
 20
4.5114037735
  0
LINE
  5
3C0
100
AcDbEntity
  8
IMPORT_IGES
100
AcDbLine
 62
253
  6
CONTINUOUS
 10
8.17575
 20
3.6522650628
 11
8.2831004558
 21
3.654138872
  0
LINE
  5
3C1
100
AcDbEntity
  8
ASSI
100
AcDbLine
 62
253
  6
CONTINUOUS
 10
-7.3094146411
 20
3.5540460364
 11
-7.3024332957
 21
3.5540460364
  0
LINE
  5
3C2
100
AcDbEntity
  8
ASSI
100
AcDbLine
 62
253
  6
CONTINUOUS
 10
7.1609146411
 20
3.5540460364
 11
7.1539332957
 21
3.5540460363
  0
LINE
  5
3C3
100
AcDbEntity
  8
IMPORT_IGES
100
AcDbLine
 62
7
  6
CONTINUOUS
 10
5.97575
 20
4.0540460364
 11
-6.12425
 21
4.0540460364
  0
LINE
  5
3C4
100
AcDbEntity
  8
IMPORT_IGES
100
AcDbLine
 62
253
  6
CONTINUOUS
 10
-8.4316004558
 20
3.654138872
 11
-8.32425
 21
3.6522650628
  0
LWPOLYLINE
  5
3C5
100
AcDbEntity
  8
IMPORT_IGES
100
AcDbPolyline
 62
7
  6
CONTINUOUS
 90
10
 70
0
 10
-4.392872214
 20
4.4165289842
 10
-4.4710790629
 20
4.4183865148
 10
-4.5458343713
 20
4.423811
 10
-4.6171381392
 20
4.4328024397
 10
-4.6850030669
 20
4.445400191
 10
-4.7494164541
 20
4.4615648969
 10
-4.8103401998
 20
4.4811784863
 10
-4.8677616035
 20
4.504201602
 10
-4.9216933657
 20
4.5306736013
 10
-4.9721354864
 20
4.560594484
  0
LINE
  5
3C6
100
AcDbEntity
  8
IMPORT_IGES
100
AcDbLine
 62
7
  6
CONTINUOUS
 10
-3.7730904814
 20
5.2253966645
 11
-3.4819580552
 21
5.1518632308
  0
LINE
  5
3C7
100
AcDbEntity
  8
IMPORT_IGES
100
AcDbLine
 62
7
  6
CONTINUOUS
 10
3.1408964977
 20
0.956394591
 11
3.22575
 21
0.7866875864
  0
LWPOLYLINE
  5
3C8
100
AcDbEntity
  8
0
100
AcDbPolyline
 62
7
  6
CONTINUOUS
 90
10
 70
0
 10
4.3784102492
 20
5.1683707551
 10
4.3757076914
 20
5.2384273745
 10
4.3683367375
 20
5.3051410553
 10
4.3562973876
 20
5.3685117974
 10
4.3395230243
 20
5.4284259163
 10
4.318080265
 20
5.4849970965
 10
4.2921689615
 20
5.5385663917
 10
4.2618557314
 20
5.5892474865
 10
4.2270739572
 20
5.6369266963
 10
4.187823639
 20
5.6816040211
  0
LINE
  5
3C9
100
AcDbEntity
  8
IMPORT_IGES
100
AcDbLine
 62
7
  6
CONTINUOUS
 10
3.97575
 20
-9.2329104854
 11
3.97575
 21
-8.0087229014
  0
LINE
  5
3CA
100
AcDbEntity
  8
IMPORT_IGES
100
AcDbLine
 62
7
  6
CONTINUOUS
 10
4.32575
 20
2.0180090248
 11
4.32575
 21
0.7080090248
  0
LINE
  5
3CB
100
AcDbEntity
  8
IMPORT_IGES
100
AcDbLine
 62
253
  6
CONTINUOUS
 10
4.7469337085
 20
10.8122172748
 11
4.7469349119
 21
10.1509562917
  0
LINE
  5
3CC
100
AcDbEntity
  8
IMPORT_IGES
100
AcDbLine
 62
7
  6
CONTINUOUS
 10
4.8530529486
 20
11.0657697538
 11
4.8530529486
 21
12.2157697531
  0
LINE
  5
3CD
100
AcDbEntity
  8
IMPORT_IGES
100
AcDbLine
 62
253
  6
CONTINUOUS
 10
4.2141765578
 20
10.0495962296
 11
4.2141264011
 21
10.5605829231
  0
LWPOLYLINE
  5
3CE
100
AcDbEntity
  8
0
100
AcDbPolyline
 62
7
  6
CONTINUOUS
 90
10
 70
0
 10
4.1022847585
 20
5.1518632308
 10
4.1008942337
 20
5.1012093803
 10
4.0963978747
 20
5.0526771613
 10
4.0887956814
 20
5.0062665739
 10
4.0780424309
 20
4.9618154768
 10
4.0641833461
 20
4.9194860112
 10
4.0473540965
 20
4.8797646006
 10
4.0275999054
 20
4.8428133862
 10
4.0048755496
 20
4.8084702268
 10
3.979181029
 20
4.7767351224
  0
LINE
  5
3CF
100
AcDbEntity
  8
IMPORT_IGES
100
AcDbLine
 62
253
  6
CONTINUOUS
 10
4.7469337085
 20
10.8122172748
 11
4.8491417561
 21
12.2157697531
  0
LINE
  5
3D0
100
AcDbEntity
  8
IMPORT_IGES
100
AcDbLine
 62
7
  6
CONTINUOUS
 10
4.32575
 20
2.0180090248
 11
4.3793537012
 21
2.5540460364
  0
LINE
  5
3D1
100
AcDbEntity
  8
IMPORT_IGES
100
AcDbLine
 62
7
  6
CONTINUOUS
 10
-1.5597623953
 20
-6.9836878888
 11
-1.5223597803
 21
-6.9459539636
  0
LINE
  5
3D2
100
AcDbEntity
  8
IMPORT_IGES
100
AcDbLine
 62
7
  6
CONTINUOUS
 10
-1.2981981265
 20
-7.1459539636
 11
-1.0999541597
 21
-6.9459539636
  0
LWPOLYLINE
  5
3D3
100
AcDbEntity
  8
IMPORT_IGES
100
AcDbPolyline
 62
7
  6
CONTINUOUS
 90
10
 70
0
 10
-4.4168830749
 20
4.6656422154
 10
-4.3595452811
 20
4.668128841
 10
-4.3053576019
 20
4.673933691
 10
-4.2543200373
 20
4.6830567653
 10
-4.2068628013
 20
4.6955294798
 10
-4.16255568
 20
4.7113204186
 10
-4.1201080316
 20
4.7303353338
 10
-4.0790896422
 20
4.7525428095
 10
-4.0399307258
 20
4.7779742615
 10
-4.0026312823
 20
4.80662969
  0
LINE
  5
3D4
100
AcDbEntity
  8
IMPORT_IGES
100
AcDbLine
 62
7
  6
CONTINUOUS
 10
-3.3649049279
 20
4.4540460364
 11
-3.0557643887
 21
4.4540460364
  0
LINE
  5
3D5
100
AcDbEntity
  8
IMPORT_IGES
100
AcDbLine
 62
7
  6
CONTINUOUS
 10
-1.6376196619
 20
4.4540460364
 11
-1.3059690472
 21
4.4540460364
  0
LINE
  5
3D6
100
AcDbEntity
  8
IMPORT_IGES
100
AcDbLine
 62
7
  6
CONTINUOUS
 10
-0.5136086699
 20
4.4540460364
 11
-0.2224765059
 21
4.4540460364
  0
LINE
  5
3D7
100
AcDbEntity
  8
IMPORT_IGES
100
AcDbLine
 62
7
  6
CONTINUOUS
 10
0.846009231
 20
4.4540460364
 11
1.1536491159
 21
4.4540460364
  0
LINE
  5
3D8
100
AcDbEntity
  8
IMPORT_IGES
100
AcDbLine
 62
253
  6
CONTINUOUS
 10
8.17575
 20
4.7571750568
 11
7.1539332957
 21
4.7571750568
  0
LINE
  5
3D9
100
AcDbEntity
  8
IMPORT_IGES
100
AcDbLine
 62
253
  6
CONTINUOUS
 10
-7.3024332957
 20
4.7571750568
 11
-8.32425
 21
4.7571750568
  0
LINE
  5
3DA
100
AcDbEntity
  8
IMPORT_IGES
100
AcDbLine
 62
7
  6
CONTINUOUS
 10
1.1536491159
 20
4.7616858885
 11
0.846009231
 21
4.7616858885
  0
LINE
  5
3DB
100
AcDbEntity
  8
IMPORT_IGES
100
AcDbLine
 62
253
  6
CONTINUOUS
 10
7.97575
 20
4.9141020059
 11
7.154198616
 21
4.9141020059
  0
LINE
  5
3DC
100
AcDbEntity
  8
IMPORT_IGES
100
AcDbLine
 62
253
  6
CONTINUOUS
 10
-7.302698616
 20
4.9141020059
 11
-8.12425
 21
4.9141020059
  0
LINE
  5
3DD
100
AcDbEntity
  8
IMPORT_IGES
100
AcDbLine
 62
7
  6
CONTINUOUS
 10
-2.8141546008
 20
5.1203489021
 11
-1.8942365166
 21
5.1203489021
  0
LINE
  5
3DE
100
AcDbEntity
  8
IMPORT_IGES
100
AcDbLine
 62
7
  6
CONTINUOUS
 10
-1.9842773434
 20
5.3574566618
 11
-2.7301163908
 21
5.3574566618
  0
LWPOLYLINE
  5
3DF
100
AcDbEntity
  8
0
100
AcDbPolyline
 62
7
  6
CONTINUOUS
 90
10
 70
0
 10
3.6850951485
 20
4.6386299313
 10
3.65860734
 20
4.6394742879
 10
3.6325750694
 20
4.6419117801
 10
3.6069983367
 20
4.645942408
 10
3.5819446923
 20
4.6515388143
 10
3.5573465857
 20
4.6587283563
 10
3.5330013661
 20
4.6675931058
 10
3.508841483
 20
4.6781604201
 10
3.4849344869
 20
4.6904029419
 10
3.4612803777
 20
4.7043206712
  0
LWPOLYLINE
  5
3E0
100
AcDbEntity
  8
IMPORT_IGES
100
AcDbPolyline
 62
253
  6
CONTINUOUS
 90
13
 70
0
 10
7.97575
 20
4.9141020059
 10
8.0018250603
 20
4.9127625897
 10
8.027464615
 20
4.9087651872
 10
8.0522298936
 20
4.9021751032
 10
8.075698755
 20
4.8931009878
 10
8.0974650599
 20
4.8816959833
 10
8.1171477391
 20
4.8681576944
 10
8.1344088681
 20
4.8527181955
 10
8.1489530326
 20
4.8356413148
 10
8.1605282482
 20
4.8172239644
 10
8.1689375333
 20
4.797783805
 10
8.1740399002
 20
4.7776526026
 10
8.17575
 20
4.7571750568
  0
LWPOLYLINE
  5
3E1
100
AcDbEntity
  8
IMPORT_IGES
100
AcDbPolyline
 62
253
  6
CONTINUOUS
 90
10
 70
0
 10
-4.3626289626
 20
10.5605829232
 10
-4.4041772032
 20
10.6025743019
 10
-4.4421299697
 20
10.6475829746
 10
-4.4764872623
 20
10.6956089413
 10
-4.5076598768
 20
10.7469675586
 10
-4.5352370173
 20
10.8013434699
 10
-4.5579862957
 20
10.8577906057
 10
-4.5754969158
 20
10.9159936096
 10
-4.5881796738
 20
10.9762678379
 10
-4.5960345696
 20
11.0386132908
  0
LWPOLYLINE
  5
3E2
100
AcDbEntity
  8
IMPORT_IGES
100
AcDbPolyline
 62
253
  6
CONTINUOUS
 90
6
 70
0
 10
8.2284051126
 20
-3.458893083
 10
8.250125309
 20
-3.4877250702
 10
8.2672787336
 20
-3.5187617076
 10
8.2795676432
 20
-3.5514567383
 10
8.2867823251
 20
-3.5852417038
 10
8.2887998837
 20
-3.6195267936
  0
LWPOLYLINE
  5
3E3
100
AcDbEntity
  8
0
100
AcDbPolyline
 62
7
  6
CONTINUOUS
 90
10
 70
0
 10
3.2946330791
 20
4.8996170245
 10
3.2824749021
 20
4.9278169334
 10
3.2717368391
 20
4.9563773025
 10
3.2624188901
 20
4.9852981318
 10
3.2545189209
 20
5.014561745
 10
3.2480390657
 20
5.0441858185
 10
3.2429857267
 20
5.0742233814
 10
3.2393610382
 20
5.10469211
 10
3.2371628658
 20
5.135574328
 10
3.2363912098
 20
5.1668700353
  0
LINE
  5
3E4
100
AcDbEntity
  8
IMPORT_IGES
100
AcDbLine
 62
7
  6
CONTINUOUS
 10
5.4762401657
 20
9.5510849466
 11
5.4591444935
 21
10.0370493271
  0
LINE
  5
3E5
100
AcDbEntity
  8
IMPORT_IGES
100
AcDbLine
 62
7
  6
CONTINUOUS
 10
5.02575
 20
2.606929996
 11
5.02575
 21
2.5540460364
  0
LINE
  5
3E6
100
AcDbEntity
  8
IMPORT_IGES
100
AcDbLine
 62
253
  6
CONTINUOUS
 10
5.5757501413
 20
11.0040460358
 11
5.5757513476
 21
10.8040460364
  0
LINE
  5
3E7
100
AcDbEntity
  8
IMPORT_IGES
100
AcDbLine
 62
7
  6
CONTINUOUS
 10
5.5498411927
 20
9.5697314613
 11
5.5418986974
 21
9.1147062082
  0
LWPOLYLINE
  5
3E8
100
AcDbEntity
  8
IMPORT_IGES
100
AcDbPolyline
 62
7
  6
CONTINUOUS
 90
19
 70
0
 10
5.87575
 20
2.6523445054
 10
5.8763516577
 20
2.6610360331
 10
5.8781873066
 20
2.6709105744
 10
5.8812993509
 20
2.6819681292
 10
5.8857195974
 20
2.6941583373
 10
5.8914816673
 20
2.7075315589
 10
5.8986334074
 20
2.7222388745
 10
5.9071959081
 20
2.738274515
 10
5.9171943456
 20
2.7556442494
 10
5.9287020592
 20
2.7745164652
 10
5.9417559853
 20
2.794938236
 10
5.9563484453
 20
2.816862488
 10
5.9724915833
 20
2.8403163882
 10
5.9901994737
 20
2.8653979119
 10
6.0094059636
 20
2.8920090837
 10
6.0299672615
 20
2.9198831443
 10
6.051754159
 20
2.9490242327
 10
6.0747001095
 20
2.97942821
 10
6.0987181924
 20
3.0108159004
  0
LINE
  5
3E9
100
AcDbEntity
  8
0
100
AcDbLine
 62
7
  6
CONTINUOUS
 10
4.0707704954
 20
6.0942916528
 11
4.3393925838
 21
6.1153012053
  0
LINE
  5
3EA
100
AcDbEntity
  8
IMPORT_IGES
100
AcDbLine
 62
253
  6
CONTINUOUS
 10
-8.12425
 20
5.8109729855
 11
-8.1503394615
 21
5.809632083
  0
LWPOLYLINE
  5
3EB
100
AcDbEntity
  8
0
100
AcDbPolyline
 62
7
  6
CONTINUOUS
 90
10
 70
0
 10
3.7286149077
 20
5.8811946885
 10
3.694171406
 20
5.8802739467
 10
3.6601800692
 20
5.8776110273
 10
3.6266408971
 20
5.8732059301
 10
3.5936307822
 20
5.8670854329
 10
3.5610728321
 20
5.859222758
 10
3.5287363693
 20
5.8495375722
 10
3.4965445013
 20
5.8380030978
 10
3.4645741206
 20
5.8246461124
 10
3.4328252272
 20
5.8094666162
  0
LINE
  5
3EC
100
AcDbEntity
  8
IMPORT_IGES
100
AcDbLine
 62
253
  6
CONTINUOUS
 10
-8.12425
 20
5.8109729855
 11
-7.3066608867
 21
5.8109729855
  0
LINE
  5
3ED
100
AcDbEntity
  8
IMPORT_IGES
100
AcDbLine
 62
253
  6
CONTINUOUS
 10
7.97575
 20
5.8109729855
 11
7.1581608867
 21
5.8109729855
  0
LINE
  5
3EE
100
AcDbEntity
  8
IMPORT_IGES
100
AcDbLine
 62
7
  6
CONTINUOUS
 10
-8.12425
 20
5.8540460364
 11
-7.307093701
 21
5.8540460364
  0
LINE
  5
3EF
100
AcDbEntity
  8
IMPORT_IGES
100
AcDbLine
 62
7
  6
CONTINUOUS
 10
7.97575
 20
5.8540460364
 11
7.158593701
 21
5.8540460364
  0
LWPOLYLINE
  5
3F0
100
AcDbEntity
  8
0
100
AcDbPolyline
 62
7
  6
CONTINUOUS
 90
10
 70
0
 10
3.6745903723
 20
5.6425863401
 10
3.7147738988
 20
5.6408651596
 10
3.7533678204
 20
5.6359244841
 10
3.7903721371
 20
5.6277643136
 10
3.8257233982
 20
5.6164093758
 10
3.8594850544
 20
5.601834943
 10
3.8918474578
 20
5.5839668319
 10
3.9228740592
 20
5.5627803148
 10
3.9525014077
 20
5.5383001193
 10
3.9807295035
 20
5.5105262456
  0
LWPOLYLINE
  5
3F1
100
AcDbEntity
  8
0
100
AcDbPolyline
 62
7
  6
CONTINUOUS
 90
3
 70
0
 43
0.3500000006
 10
15.3129318008
 20
1.4956223602
 10
15.5272174187
 20
1.4241934433
 10
15.8129319534
 20
1.2813356094
  0
LWPOLYLINE
  5
3F2
100
AcDbEntity
  8
0
100
AcDbPolyline
 62
7
  6
CONTINUOUS
 90
10
 70
0
 10
3.4612803777
 20
4.7043206712
 10
3.438156898
 20
4.7199559444
 10
3.4161907103
 20
4.7370701722
 10
3.3953818145
 20
4.7556633546
 10
3.3757375622
 20
4.7756859904
 10
3.3572506018
 20
4.7971875808
 10
3.3398988788
 20
4.8203166291
 10
3.3236750416
 20
4.8451226364
 10
3.3085864417
 20
4.8715561015
 10
3.2946330791
 20
4.8996170245
  0
LWPOLYLINE
  5
3F3
100
AcDbEntity
  8
IMPORT_IGES
100
AcDbPolyline
 62
253
  6
CONTINUOUS
 90
10
 70
0
 10
-4.5843016122
 20
10.3342074978
 10
-4.6412043235
 20
10.3783867911
 10
-4.6933676702
 20
10.4250457775
 10
-4.7403994463
 20
10.474184457
 10
-4.7819632706
 20
10.5261309207
 10
-4.817656979
 20
10.5805570775
 10
-4.8470767773
 20
10.6364786545
 10
-4.869962488
 20
10.6935675608
 10
-4.8861390926
 20
10.7521518874
 10
-4.8954364945
 20
10.8122316341
  0
LWPOLYLINE
  5
3F4
100
AcDbEntity
  8
0
100
AcDbPolyline
 62
7
  6
CONTINUOUS
 90
10
 70
0
 10
3.1384146534
 20
4.6637712159
 10
3.1875658677
 20
4.6117372953
 10
3.2396031785
 20
4.5658949758
 10
3.2945265858
 20
4.5262442572
 10
3.3521537888
 20
4.4928530872
 10
3.4126670884
 20
4.4656535182
 10
3.4766133868
 20
4.4444417076
 10
3.5441749847
 20
4.429149708
 10
3.6151695813
 20
4.4198454669
 10
3.6895971767
 20
4.4165289842
  0
LWPOLYLINE
  5
3F5
100
AcDbEntity
  8
0
100
AcDbPolyline
 62
7
  6
CONTINUOUS
 90
10
 70
0
 10
4.3393925838
 20
6.1153012053
 10
4.330074167
 20
6.1717159388
 10
4.3175061915
 20
6.2251659188
 10
4.3016886572
 20
6.2756511451
 10
4.2825886646
 20
6.3231436861
 10
4.2602391132
 20
6.3676714735
 10
4.2347387023
 20
6.4093183027
 10
4.2061203316
 20
6.4481121054
 10
4.1743511014
 20
6.4840249498
 10
4.1394310117
 20
6.5170568359
  0
LWPOLYLINE
  5
3F6
100
AcDbEntity
  8
IMPORT_IGES
100
AcDbPolyline
 62
253
  6
CONTINUOUS
 90
9
 70
0
 10
6.1489030897
 20
10.7454405508
 10
6.1484502301
 20
10.7672261897
 10
6.1483180082
 20
10.7766552877
 10
6.1482532215
 20
10.7847594941
 10
6.1482539205
 20
10.7914890062
 10
6.1483197641
 20
10.7968961166
 10
6.1484521563
 20
10.8008663967
 10
6.148647821
 20
10.8032562027
 10
6.1489011338
 20
10.8040460362
  0
LWPOLYLINE
  5
3F7
100
AcDbEntity
  8
IMPORT_IGES
100
AcDbPolyline
 62
7
  6
CONTINUOUS
 90
3
 70
0
 10
6.8731690774
 20
-10.0926489036
 10
6.8732090347
 20
-10.0951269462
 10
6.8732493869
 20
-10.0959539636
  0
LINE
  5
3F8
100
AcDbEntity
  8
IMPORT_IGES
100
AcDbLine
 62
7
  6
CONTINUOUS
 10
6.8730902191
 20
-10.0827779624
 11
6.8731690774
 21
-10.0926489036
  0
LINE
  5
3F9
100
AcDbEntity
  8
IMPORT_IGES
100
AcDbLine
 62
7
  6
CONTINUOUS
 10
5.87575
 20
-4.3459539636
 11
5.87575
 21
2.6523445054
  0
LINE
  5
3FA
100
AcDbEntity
  8
IMPORT_IGES
100
AcDbLine
 62
253
  6
CONTINUOUS
 10
6.07575
 20
-11.2959539636
 11
6.0757505304
 21
-11.0959539636
  0
LINE
  5
3FB
100
AcDbEntity
  8
IMPORT_IGES
100
AcDbLine
 62
7
  6
CONTINUOUS
 10
6.17575
 20
6.8540460364
 11
6.17575
 21
4.2540460364
  0
LINE
  5
3FC
100
AcDbEntity
  8
IMPORT_IGES
100
AcDbLine
 62
253
  6
CONTINUOUS
 10
6.17575
 20
3.1106020749
 11
6.17575
 21
-4.6459539636
  0
LWPOLYLINE
  5
3FD
100
AcDbEntity
  8
IMPORT_IGES
100
AcDbPolyline
 62
7
  6
CONTINUOUS
 90
6
 70
0
 10
6.8725415386
 20
9.8040460364
 10
6.872387557
 20
9.8010017849
 10
6.8722369875
 20
9.791892207
 10
6.8720898301
 20
9.7767866442
 10
6.8719450162
 20
9.7558000785
 10
6.871307392
 20
9.5697314611
  0
LWPOLYLINE
  5
3FE
100
AcDbEntity
  8
IMPORT_IGES
100
AcDbPolyline
 62
7
  6
CONTINUOUS
 90
5
 70
0
 10
7.173303483
 20
8.5540558093
 10
7.1729279888
 20
8.5478030617
 10
7.1725652977
 20
8.5311904543
 10
7.1722154097
 20
8.504217987
 10
7.1715469801
 20
8.417911046
  0
LINE
  5
3FF
100
AcDbEntity
  8
IMPORT_IGES
100
AcDbLine
 62
7
  6
CONTINUOUS
 10
1.4112623953
 20
-6.9836878888
 11
1.2475589773
 21
-7.1459539636
  0
LINE
  5
400
100
AcDbEntity
  8
IMPORT_IGES
100
AcDbLine
 62
7
  6
CONTINUOUS
 10
1.3064739609
 20
-7.1459539636
 11
1.508245549
 21
-6.9459539636
  0
LWPOLYLINE
  5
401
100
AcDbEntity
  8
0
100
AcDbPolyline
 62
7
  6
CONTINUOUS
 90
10
 70
0
 43
0.3500000006
 10
15.098646183
 20
1.4241934433
 10
15.2415028839
 20
1.4956223602
 10
15.3129318008
 20
1.4956223602
 10
15.4557885017
 20
1.3527645264
 10
15.4557885017
 20
1.2813356094
 10
15.3843595848
 20
1.2099089584
 10
15.3129318008
 20
1.2099089584
 10
15.170073967
 20
1.2813356094
 10
15.098646183
 20
1.3527645264
 10
15.098646183
 20
1.4241934433
  0
LINE
  5
402
100
AcDbEntity
  8
IMPORT_IGES
100
AcDbLine
 62
7
  6
CONTINUOUS
 10
-3.5194751974
 20
6.0507717625
 11
-3.8061053988
 21
5.9832411424
  0
LWPOLYLINE
  5
403
100
AcDbEntity
  8
IMPORT_IGES
100
AcDbPolyline
 62
253
  6
CONTINUOUS
 90
12
 70
0
 10
-8.1503394615
 20
5.809632083
 10
-8.1759882078
 20
5.8056312105
 10
-8.2007573313
 20
5.7990371713
 10
-8.2242239045
 20
5.7899605803
 10
-8.245983905
 20
5.7785556209
 10
-8.2656602916
 20
5.7650188273
 10
-8.282915806
 20
5.7495820818
 10
-8.297455196
 20
5.7325093543
 10
-8.3090280071
 20
5.7140954006
 10
-8.317436878
 20
5.6946567037
 10
-8.3225395972
 20
5.6745253887
 10
-8.32425
 20
5.6540460364
  0
LWPOLYLINE
  5
404
100
AcDbEntity
  8
0
100
AcDbPolyline
 62
7
  6
CONTINUOUS
 90
10
 70
0
 10
3.715108823
 20
6.663050224
 10
3.6385607574
 20
6.6597110016
 10
3.5658906869
 20
6.6502425268
 10
3.4970986113
 20
6.6346447993
 10
3.4323514049
 20
6.6129676176
 10
3.3714821934
 20
6.5851611833
 10
3.3139903545
 20
6.5510761016
 10
3.2597090138
 20
6.510662574
 10
3.2088050455
 20
6.463970399
 10
3.1612784497
 20
6.4109995765
  0
LWPOLYLINE
  5
405
100
AcDbEntity
  8
IMPORT_IGES
100
AcDbPolyline
 62
7
  6
CONTINUOUS
 90
13
 70
0
 10
-4.3943728682
 20
6.4424498574
 10
-4.4396275495
 20
6.441294648
 10
-4.4829204399
 20
6.4384006697
 10
-4.5242515394
 20
6.4337679225
 10
-4.5635183959
 20
6.4273212153
 10
-4.6008234615
 20
6.4191357392
 10
-4.6364740925
 20
6.4094370674
 10
-4.6704684298
 20
6.39826426
 10
-4.7028083325
 20
6.3855782568
 10
-4.7338067336
 20
6.3714874507
 10
-4.7635679441
 20
6.3560279728
 10
-4.7919876531
 20
6.3391636919
 10
-4.8190658605
 20
6.3208946082
  0
LINE
  5
406
100
AcDbEntity
  8
IMPORT_IGES
100
AcDbLine
 62
7
  6
CONTINUOUS
 10
-1.238438296
 20
6.3944280044
 11
-0.5136086699
 21
6.3944280044
  0
LINE
  5
407
100
AcDbEntity
  8
IMPORT_IGES
100
AcDbLine
 62
7
  6
CONTINUOUS
 10
-0.2224765059
 20
6.3944280044
 11
0.5053544286
 21
6.3944280044
  0
LINE
  5
408
100
AcDbEntity
  8
IMPORT_IGES
100
AcDbLine
 62
7
  6
CONTINUOUS
 10
0.5053544286
 20
6.6540460364
 11
-1.238438296
 21
6.6540460364
  0
LINE
  5
409
100
AcDbEntity
  8
IMPORT_IGES
100
AcDbLine
 62
7
  6
CONTINUOUS
 10
-2.2063783642
 20
6.6540460364
 11
-2.5200208661
 21
6.6540460364
  0
LINE
  5
40A
100
AcDbEntity
  8
IMPORT_IGES
100
AcDbLine
 62
7
  6
CONTINUOUS
 10
-6.12425
 20
7.0540460364
 11
5.97575
 21
7.0540460364
  0
LWPOLYLINE
  5
40B
100
AcDbEntity
  8
IMPORT_IGES
100
AcDbPolyline
 62
7
  6
CONTINUOUS
 90
10
 70
0
 10
-4.3883701202
 20
6.6915631787
 10
-4.3128631958
 20
6.6889127489
 10
-4.2408251359
 20
6.6820748947
 10
-4.1722559405
 20
6.6710496161
 10
-4.1071634072
 20
6.6556131533
 10
-4.0455397384
 20
6.6359892661
 10
-3.9873615415
 20
6.6128492334
 10
-3.9326210189
 20
6.5864168149
 10
-3.8813259682
 20
6.5564682508
 10
-3.8334763894
 20
6.5230035413
  0
LWPOLYLINE
  5
40C
100
AcDbEntity
  8
0
100
AcDbPolyline
 62
7
  6
CONTINUOUS
 90
10
 70
0
 10
3.6986012987
 20
6.4409492031
 10
3.733658272
 20
6.4394456357
 10
3.7673948215
 20
6.4351012962
 10
3.7998109474
 20
6.4279161848
 10
3.8308591124
 20
6.4179105966
 10
3.8605868537
 20
6.4050642365
 10
3.8891367828
 20
6.3893162188
 10
3.9165564368
 20
6.3706462485
 10
3.9427982787
 20
6.3490746207
 10
3.9678623084
 20
6.3246013354
  0
LWPOLYLINE
  5
40D
100
AcDbEntity
  8
0
100
AcDbPolyline
 62
7
  6
CONTINUOUS
 90
10
 70
0
 10
4.187823639
 20
5.6816040211
 10
4.1439870862
 20
5.7237771307
 10
4.0984683107
 20
5.7608960071
 10
4.0512673126
 20
5.7929606503
 10
4.0025366748
 20
5.8198975388
 10
3.9521238143
 20
5.8417801942
 10
3.8995709822
 20
5.8588291804
 10
3.8447255956
 20
5.8711180189
 10
3.7877402374
 20
5.8785731882
 10
3.7286149077
 20
5.8811946885
  0
LWPOLYLINE
  5
40E
100
AcDbEntity
  8
0
100
AcDbPolyline
 62
7
  6
CONTINUOUS
 90
10
 70
0
 10
3.9807295035
 20
5.5105262456
 10
4.0061333804
 20
5.4805597345
 10
4.0285940158
 20
5.4479965962
 10
4.0481114094
 20
5.4128368309
 10
4.0647271519
 20
5.3749132472
 10
4.0783996526
 20
5.3343930365
 10
4.0890041408
 20
5.2917777721
 10
4.096499026
 20
5.2472346453
 10
4.1009258986
 20
5.2005964649
 10
4.1022847585
 20
5.1518632308
  0
LWPOLYLINE
  5
40F
100
AcDbEntity
  8
0
100
AcDbPolyline
 62
7
  6
CONTINUOUS
 90
10
 70
0
 10
3.9678623084
 20
6.3246013354
 10
3.9839946939
 20
6.3048797695
 10
3.9988797378
 20
6.2835794813
 10
4.0125174403
 20
6.2607004706
 10
4.0248107269
 20
6.2360939074
 10
4.035856672
 20
6.2099086218
 10
4.0459464991
 20
6.1825911044
 10
4.0551772826
 20
6.1542901856
 10
4.063451948
 20
6.1248570351
 10
4.0707704954
 20
6.0942916528
  0
LINE
  5
410
100
AcDbEntity
  8
IMPORT_IGES
100
AcDbLine
 62
253
  6
CONTINUOUS
 10
4.4475345696
 20
9.8663513026
 11
4.4761401618
 21
9.7157697531
  0
LINE
  5
411
100
AcDbEntity
  8
IMPORT_IGES
100
AcDbLine
 62
253
  6
CONTINUOUS
 10
4.8296061866
 20
9.7157697531
 11
4.7469349119
 21
10.1509562917
  0
LWPOLYLINE
  5
412
100
AcDbEntity
  8
IMPORT_IGES
100
AcDbPolyline
 62
253
  6
CONTINUOUS
 90
4
 70
0
 10
7.1732475627
 20
-9.7959539636
 10
7.1732072121
 20
-9.7956142043
 10
7.1731672561
 20
-9.7946241326
 10
7.1731276945
 20
-9.7929837486
  0
LINE
  5
413
100
AcDbEntity
  8
IMPORT_IGES
100
AcDbLine
 62
7
  6
CONTINUOUS
 10
7.162799713
 20
7.7848909306
 11
7.1656729223
 21
7.7439707864
  0
LWPOLYLINE
  5
414
100
AcDbEntity
  8
IMPORT_IGES
100
AcDbPolyline
 62
7
  6
CONTINUOUS
 90
13
 70
0
 10
7.1202446489
 20
7.698542513
 10
7.1176776856
 20
7.7376998301
 10
7.1100216707
 20
7.776187165
 10
7.0974075987
 20
7.813345999
 10
7.0800512965
 20
7.848540544
 10
7.0582497307
 20
7.8811686208
 10
7.0323759263
 20
7.9106719626
 10
7.0028671718
 20
7.9365499202
 10
6.9702326907
 20
7.9583541551
 10
6.9350499627
 20
7.9757036351
 10
6.8979306676
 20
7.9883071094
 10
6.859505252
 20
7.995960346
 10
6.8204306814
 20
7.9985406265
  0
LWPOLYLINE
  5
415
100
AcDbEntity
  8
IMPORT_IGES
100
AcDbPolyline
 62
253
  6
CONTINUOUS
 90
13
 70
0
 10
7.1725397109
 20
9.5040460364
 10
7.169973185
 20
9.543203894
 10
7.1623175211
 20
9.5816917499
 10
7.1497037098
 20
9.6188510661
 10
7.1323475769
 20
9.6540460364
 10
7.1105460907
 20
9.6866744651
 10
7.0846722806
 20
9.7161780707
 10
7.0551688547
 20
9.7420520385
 10
7.0225406248
 20
9.7638536575
 10
6.9873458689
 20
9.7812098961
 10
6.9501867791
 20
9.7938237843
 10
6.9116991577
 20
9.8014794948
 10
6.8725415386
 20
9.8040460364
  0
LWPOLYLINE
  5
416
100
AcDbEntity
  8
IMPORT_IGES
100
AcDbPolyline
 62
7
  6
CONTINUOUS
 90
3
 70
0
 10
7.1725625069
 20
-8.5729981913
 10
7.1729267837
 20
-8.5897551872
 10
7.173303483
 20
-8.5959473717
  0
LWPOLYLINE
  5
417
100
AcDbEntity
  8
IMPORT_IGES
100
AcDbPolyline
 62
7
  6
CONTINUOUS
 90
3
 70
0
 10
7.1725625069
 20
6.5770018085
 10
7.1729267837
 20
6.5602448127
 10
7.173303483
 20
6.5540526281
  0
LINE
  5
418
100
AcDbEntity
  8
IMPORT_IGES
100
AcDbLine
 62
253
  6
CONTINUOUS
 10
7.1731276945
 20
-9.7929837486
 11
7.1730494973
 21
-9.7877325204
  0
LINE
  5
419
100
AcDbEntity
  8
IMPORT_IGES
100
AcDbLine
 62
7
  6
CONTINUOUS
 10
7.1718673351
 20
-8.5071153463
 11
7.1725625069
 21
-8.5729981913
  0
LINE
  5
41A
100
AcDbEntity
  8
IMPORT_IGES
100
AcDbLine
 62
7
  6
CONTINUOUS
 10
7.1718673351
 20
6.6428846531
 11
7.1725625069
 21
6.5770018085
  0
LINE
  5
41B
100
AcDbEntity
  8
IMPORT_IGES
100
AcDbLine
 62
253
  6
CONTINUOUS
 10
7.1730494973
 20
-9.7877325204
 11
7.1729020835
 21
-9.7697484436
  0
LINE
  5
41C
100
AcDbEntity
  8
IMPORT_IGES
100
AcDbLine
 62
253
  6
CONTINUOUS
 10
6.8603867602
 20
-8.0303316144
 11
6.8729039099
 21
-10.0304398694
  0
LINE
  5
41D
100
AcDbEntity
  8
IMPORT_IGES
100
AcDbLine
 62
7
  6
CONTINUOUS
 10
7.1729020835
 20
-9.7697484436
 11
7.1604029689
 21
-7.7306087602
  0
LINE
  5
41E
100
AcDbEntity
  8
IMPORT_IGES
100
AcDbLine
 62
7
  6
CONTINUOUS
 10
7.154198616
 20
-4.9060099332
 11
7.1581608867
 21
-5.8028809128
  0
LINE
  5
41F
100
AcDbEntity
  8
IMPORT_IGES
100
AcDbLine
 62
7
  6
CONTINUOUS
 10
7.1704653117
 20
-8.178093831
 11
7.1718673351
 21
-8.5071153463
  0
LINE
  5
420
100
AcDbEntity
  8
IMPORT_IGES
100
AcDbLine
 62
7
  6
CONTINUOUS
 10
7.1704653117
 20
6.9719061669
 11
7.1718673351
 21
6.6428846531
  0
LINE
  5
421
100
AcDbEntity
  8
IMPORT_IGES
100
AcDbLine
 62
7
  6
CONTINUOUS
 10
6.8729039099
 20
-10.0304398694
 11
6.8730902191
 21
-10.0827779624
  0
LINE
  5
422
100
AcDbEntity
  8
IMPORT_IGES
100
AcDbLine
 62
253
  6
CONTINUOUS
 10
6.8202464766
 20
-7.9904486126
 11
6.8202464766
 21
7.9985406853
  0
LINE
  5
423
100
AcDbEntity
  8
IMPORT_IGES
100
AcDbLine
 62
7
  6
CONTINUOUS
 10
7.1202446489
 20
7.698542513
 11
7.1202446489
 21
-7.6904504403
  0
LINE
  5
424
100
AcDbEntity
  8
IMPORT_IGES
100
AcDbLine
 62
7
  6
CONTINUOUS
 10
7.1539332957
 20
-4.749082984
 11
7.1539332957
 21
-3.5459539636
  0
LINE
  5
425
100
AcDbEntity
  8
IMPORT_IGES
100
AcDbLine
 62
7
  6
CONTINUOUS
 10
7.1539332957
 20
3.5540460363
 11
7.1539332957
 21
4.7571750568
  0
LINE
  5
426
100
AcDbEntity
  8
ASSI
100
AcDbLine
 62
7
  6
CONTINUOUS
 10
7.1609146411
 20
3.5540460364
 11
7.1609146411
 21
-3.5459539636
  0
LINE
  5
427
100
AcDbEntity
  8
IMPORT_IGES
100
AcDbLine
 62
7
  6
CONTINUOUS
 10
7.17575
 20
-9.5173006339
 11
7.17575
 21
-8.5959539636
  0
LINE
  5
428
100
AcDbEntity
  8
IMPORT_IGES
100
AcDbLine
 62
7
  6
CONTINUOUS
 10
7.17575
 20
-6.6886740324
 11
7.17575
 21
-5.8459539636
  0
LINE
  5
429
100
AcDbEntity
  8
IMPORT_IGES
100
AcDbLine
 62
7
  6
CONTINUOUS
 10
7.17575
 20
5.8540460364
 11
7.17575
 21
6.6469990728
  0
LINE
  5
42A
100
AcDbEntity
  8
IMPORT_IGES
100
AcDbLine
 62
7
  6
CONTINUOUS
 10
7.17575
 20
8.5540460364
 11
7.17575
 21
9.5040460364
  0
LINE
  5
42B
100
AcDbEntity
  8
IMPORT_IGES
100
AcDbLine
 62
7
  6
CONTINUOUS
 10
7.22575
 20
-10.7990140403
 11
7.22575
 21
-5.8459539636
  0
LINE
  5
42C
100
AcDbEntity
  8
IMPORT_IGES
100
AcDbLine
 62
7
  6
CONTINUOUS
 10
7.22575
 20
5.8540460364
 11
7.22575
 21
9.8736612786
  0
LINE
  5
42D
100
AcDbEntity
  8
IMPORT_IGES
100
AcDbLine
 62
7
  6
CONTINUOUS
 10
7.1702842398
 20
8.0555950107
 11
7.1704653117
 21
6.9719061669
  0
LINE
  5
42E
100
AcDbEntity
  8
IMPORT_IGES
100
AcDbLine
 62
7
  6
CONTINUOUS
 10
7.1702842398
 20
-7.0944049844
 11
7.1704653117
 21
-8.178093831
  0
LINE
  5
42F
100
AcDbEntity
  8
IMPORT_IGES
100
AcDbLine
 62
7
  6
CONTINUOUS
 10
7.1656729223
 20
7.7439707864
 11
7.1713055717
 21
9.357599427
  0
LINE
  5
430
100
AcDbEntity
  8
IMPORT_IGES
100
AcDbLine
 62
253
  6
CONTINUOUS
 10
6.8656115413
 20
8.0435373359
 11
6.8713073994
 21
9.5697314611
  0
LINE
  5
431
100
AcDbEntity
  8
IMPORT_IGES
100
AcDbLine
 62
7
  6
CONTINUOUS
 10
7.1581608867
 20
5.8109729855
 11
7.154198616
 21
4.9141020059
  0
LINE
  5
432
100
AcDbEntity
  8
IMPORT_IGES
100
AcDbLine
 62
7
  6
CONTINUOUS
 10
7.1715469801
 20
8.417911046
 11
7.1702842398
 21
8.0555950107
  0
LINE
  5
433
100
AcDbEntity
  8
IMPORT_IGES
100
AcDbLine
 62
7
  6
CONTINUOUS
 10
7.1715469801
 20
-6.7320889506
 11
7.1702842398
 21
-7.0944049844
  0
LINE
  5
434
100
AcDbEntity
  8
IMPORT_IGES
100
AcDbLine
 62
253
  6
CONTINUOUS
 10
7.1713055717
 20
9.357599427
 11
7.1718018037
 21
9.4571095349
  0
LINE
  5
435
100
AcDbEntity
  8
IMPORT_IGES
100
AcDbLine
 62
7
  6
CONTINUOUS
 10
7.1757467765
 20
-9.51871108
 11
7.1742353609
 21
-9.7876320248
  0
LWPOLYLINE
  5
436
100
AcDbEntity
  8
IMPORT_IGES
100
AcDbPolyline
 62
253
  6
CONTINUOUS
 90
5
 70
0
 10
7.1718018037
 20
9.4571095349
 10
7.1720880159
 20
9.4870097476
 10
7.1722351699
 20
9.4963463308
 10
7.1723857349
 20
9.5020250937
 10
7.1725397109
 20
9.5040460364
  0
LINE
  5
437
100
AcDbEntity
  8
IMPORT_IGES
100
AcDbLine
 62
7
  6
CONTINUOUS
 10
7.1742353609
 20
-9.7876320248
 11
7.1741526413
 21
-9.7946216422
  0
LWPOLYLINE
  5
438
100
AcDbEntity
  8
IMPORT_IGES
100
AcDbPolyline
 62
253
  6
CONTINUOUS
 90
4
 70
0
 10
7.1741902968
 20
-9.7896438765
 10
7.1741474637
 20
-9.7923971199
 10
7.1741042813
 20
-9.7943595112
 10
7.1740605821
 20
-9.7955450375
  0
LWPOLYLINE
  5
439
100
AcDbEntity
  8
IMPORT_IGES
100
AcDbPolyline
 62
7
  6
CONTINUOUS
 90
12
 70
0
 10
7.1741526413
 20
-9.7946216422
 10
7.1740863788
 20
-9.7986004345
 10
7.1740402874
 20
-9.8007656897
 10
7.1739770397
 20
-9.8031920676
 10
7.1738891854
 20
-9.80589457
 10
7.1737549582
 20
-9.8091641363
 10
7.1735432592
 20
-9.8132081982
 10
7.1732309308
 20
-9.8179098545
 10
7.1728036123
 20
-9.8230780984
 10
7.1722308874
 20
-9.8287600352
 10
7.17148646
 20
-9.8349234961
 10
7.170589345
 20
-9.8412392804
  0
LWPOLYLINE
  5
43A
100
AcDbEntity
  8
IMPORT_IGES
100
AcDbPolyline
 62
7
  6
CONTINUOUS
 90
5
 70
0
 10
7.173303483
 20
-6.5959441913
 10
7.1729279888
 20
-6.6021969378
 10
7.1725652977
 20
-6.6188095444
 10
7.1722154097
 20
-6.6457820108
 10
7.1715469801
 20
-6.7320889506
  0
LWPOLYLINE
  5
43B
100
AcDbEntity
  8
IMPORT_IGES
100
AcDbPolyline
 62
7
  6
CONTINUOUS
 90
13
 70
0
 10
7.120244649
 20
-7.6904504403
 10
7.1177143919
 20
-7.7293279528
 10
7.1101503305
 20
-7.7676133444
 10
7.097655427
 20
-7.8046537924
 10
7.0804126633
 20
-7.8398208246
 10
7.0586954983
 20
-7.8724941428
 10
7.032875004
 20
-7.9020796353
 10
7.0033826995
 20
-7.9280613972
 10
6.9707157551
 20
-7.9499826116
 10
6.935456637
 20
-7.967442759
 10
6.8982209061
 20
-7.9801370663
 10
6.8596393199
 20
-7.9878505441
 10
6.8203751159
 20
-7.9904485834
  0
LINE
  5
43C
100
AcDbEntity
  8
IMPORT_IGES
100
AcDbLine
 62
7
  6
CONTINUOUS
 10
7.1577040256
 20
-7.7705917065
 11
7.1604029689
 21
-7.7306087602
  0
LINE
  5
43D
100
AcDbEntity
  8
IMPORT_IGES
100
AcDbLine
 62
253
  6
CONTINUOUS
 10
8.2045869436
 20
8.1521749771
 11
7.9046379309
 21
8.1469396444
  0
LINE
  5
43E
100
AcDbEntity
  8
IMPORT_IGES
100
AcDbLine
 62
253
  6
CONTINUOUS
 10
7.1698135838
 20
7.5540268759
 11
7.2257499971
 21
7.5540360321
  0
LINE
  5
43F
100
AcDbEntity
  8
IMPORT_IGES
100
AcDbLine
 62
253
  6
CONTINUOUS
 10
-7.3742499971
 20
7.5540360514
 11
-7.3183135789
 21
7.5540378973
  0
LINE
  5
440
100
AcDbEntity
  8
IMPORT_IGES
100
AcDbLine
 62
253
  6
CONTINUOUS
 10
7.1202446489
 20
7.698542513
 11
-7.2687446489
 21
7.698542513
  0
LINE
  5
441
100
AcDbEntity
  8
IMPORT_IGES
100
AcDbLine
 62
7
  6
CONTINUOUS
 10
6.8202464766
 20
7.9985406853
 11
-6.9687464766
 21
7.9985406853
  0
LINE
  5
442
100
AcDbEntity
  8
IMPORT_IGES
100
AcDbLine
 62
7
  6
CONTINUOUS
 10
6.8656115413
 20
8.0435373359
 11
-7.0141115413
 21
8.0435373359
  0
LINE
  5
443
100
AcDbEntity
  8
IMPORT_IGES
100
AcDbLine
 62
253
  6
CONTINUOUS
 10
7.9046432318
 20
8.1469397369
 11
7.22575
 21
8.146939313
  0
LINE
  5
444
100
AcDbEntity
  8
IMPORT_IGES
100
AcDbLine
 62
253
  6
CONTINUOUS
 10
-7.37425
 20
8.1469393244
 11
-8.0531420754
 21
8.1469393703
  0
LINE
  5
445
100
AcDbEntity
  8
IMPORT_IGES
100
AcDbLine
 62
253
  6
CONTINUOUS
 10
-8.0531326367
 20
8.1469391622
 11
-8.3530869435
 21
8.1521749805
  0
LWPOLYLINE
  5
446
100
AcDbEntity
  8
IMPORT_IGES
100
AcDbPolyline
 62
253
  6
CONTINUOUS
 90
13
 70
0
 10
-4.3626814973
 20
10.0495962771
 10
-4.3882587035
 20
10.0584124627
 10
-4.4135096582
 20
10.070746487
 10
-4.4381122717
 20
10.0864410225
 10
-4.461752724
 20
10.105295877
 10
-4.484129468
 20
10.1270705462
 10
-4.5049570761
 20
10.1514872822
 10
-4.5239703009
 20
10.1782348048
 10
-4.540926153
 20
10.2069718055
 10
-4.5556072452
 20
10.2373311115
 10
-4.5678262722
 20
10.268925119
 10
-4.5774281344
 20
10.3013509257
 10
-4.5842907764
 20
10.3341948755
  0
LWPOLYLINE
  5
447
100
AcDbEntity
  8
0
100
AcDbPolyline
 62
7
  6
CONTINUOUS
 90
10
 70
0
 10
4.1394310117
 20
6.5170568359
 10
4.101982134
 20
6.5471821678
 10
4.0621364629
 20
6.5738735223
 10
4.0198939984
 20
6.5971308996
 10
3.9752916934
 20
6.6170102779
 10
3.928292595
 20
6.6334556789
 10
3.8787858447
 20
6.6462991675
 10
3.8267344895
 20
6.6554847654
 10
3.7721754822
 20
6.6610684509
 10
3.715108823
 20
6.663050224
  0
LWPOLYLINE
  5
448
100
AcDbEntity
  8
IMPORT_IGES
100
AcDbPolyline
 62
253
  6
CONTINUOUS
 90
13
 70
0
 10
7.1713055717
 20
9.3575994263
 10
7.1686963474
 20
9.3850023703
 10
7.1611463608
 20
9.4118332378
 10
7.1488433421
 20
9.4376548714
 10
7.1321515485
 20
9.4619294588
 10
7.111343887
 20
9.4844246047
 10
7.0863761737
 20
9.5051178393
 10
7.0573241778
 20
9.52370425
 10
7.0247193557
 20
9.5396289942
 10
6.9891739085
 20
9.5524672872
 10
6.9513138315
 20
9.5619089651
 10
6.9117321203
 20
9.5677261981
 10
6.8711231928
 20
9.5697317426
  0
LWPOLYLINE
  5
449
100
AcDbEntity
  8
IMPORT_IGES
100
AcDbPolyline
 62
253
  6
CONTINUOUS
 90
13
 70
0
 10
8.17575
 20
5.6540460364
 10
8.1740400139
 20
5.6745229046
 10
8.1689382534
 20
5.6946526754
 10
8.1605304429
 20
5.7140907859
 10
8.1489582187
 20
5.7325052462
 10
8.1344186393
 20
5.7495791847
 10
8.1171624773
 20
5.7650171125
 10
8.0974849807
 20
5.7785549734
 10
8.0757234274
 20
5.7899607964
 10
8.0522557331
 20
5.7990376905
 10
8.0274863908
 20
5.8056315922
 10
8.0018381683
 20
5.8096322165
 10
7.97575
 20
5.8109729855
  0
LINE
  5
44A
100
AcDbEntity
  8
IMPORT_IGES
100
AcDbLine
 62
253
  6
CONTINUOUS
 10
7.9046432318
 20
8.1469397369
 11
7.9446699011
 21
5.8535036045
  0
LINE
  5
44B
100
AcDbEntity
  8
IMPORT_IGES
100
AcDbLine
 62
253
  6
CONTINUOUS
 10
7.8819664915
 20
9.657614942
 11
7.9021643235
 21
8.5004764742
  0
LINE
  5
44C
100
AcDbEntity
  8
IMPORT_IGES
100
AcDbLine
 62
7
  6
CONTINUOUS
 10
8.3484712945
 20
-0.0909539636
 11
8.1808985793
 21
9.5092804564
  0
LINE
  5
44D
100
AcDbEntity
  8
IMPORT_IGES
100
AcDbLine
 62
7
  6
CONTINUOUS
 10
7.8819664915
 20
9.6576149417
 11
7.8809442918
 21
9.8040460363
  0
LINE
  5
44E
100
AcDbEntity
  8
IMPORT_IGES
100
AcDbLine
 62
7
  6
CONTINUOUS
 10
7.9021643235
 20
8.5004764737
 11
7.9046430493
 21
8.1469397356
  0
LINE
  5
44F
100
AcDbEntity
  8
IMPORT_IGES
100
AcDbLine
 62
253
  6
CONTINUOUS
 10
7.8969027644
 20
-8.8816911758
 11
7.8969027644
 21
-9.1344414726
  0
LINE
  5
450
100
AcDbEntity
  8
ASSI
100
AcDbLine
 62
253
  6
CONTINUOUS
 10
7.97575
 20
4.7571750568
 11
7.97575
 21
-4.749082984
  0
LINE
  5
451
100
AcDbEntity
  8
IMPORT_IGES
100
AcDbLine
 62
253
  6
CONTINUOUS
 10
7.97575
 20
-5.8459539636
 11
7.97575
 21
-4.749082984
  0
LINE
  5
452
100
AcDbEntity
  8
IMPORT_IGES
100
AcDbLine
 62
253
  6
CONTINUOUS
 10
7.97575
 20
4.7571750568
 11
7.97575
 21
5.8540460364
  0
LINE
  5
453
100
AcDbEntity
  8
ASSI
100
AcDbLine
 62
7
  6
CONTINUOUS
 10
8.17575
 20
-4.749082984
 11
8.17575
 21
4.7571750568
  0
LINE
  5
454
100
AcDbEntity
  8
IMPORT_IGES
100
AcDbLine
 62
7
  6
CONTINUOUS
 10
8.17575
 20
-5.6459539636
 11
8.17575
 21
5.6540460364
  0
LINE
  5
455
100
AcDbEntity
  8
IMPORT_IGES
100
AcDbLine
 62
253
  6
CONTINUOUS
 10
7.9498996306
 20
-5.8455027437
 11
7.8969027644
 21
-8.8816911763
  0
LINE
  5
456
100
AcDbEntity
  8
IMPORT_IGES
100
AcDbLine
 62
253
  6
CONTINUOUS
 10
7.8969027644
 20
-9.1344414725
 11
7.8843465776
 21
-9.8546236936
  0
LINE
  5
457
100
AcDbEntity
  8
IMPORT_IGES
100
AcDbLine
 62
7
  6
CONTINUOUS
 10
8.3484712944
 20
-0.0909539636
 11
8.3467263728
 21
-0.1909204591
  0
LINE
  5
458
100
AcDbEntity
  8
IMPORT_IGES
100
AcDbLine
 62
7
  6
CONTINUOUS
 10
8.1822557833
 20
-9.7234342187
 11
8.3486458451
 21
-0.1909539636
  0
LWPOLYLINE
  5
459
100
AcDbEntity
  8
IMPORT_IGES
100
AcDbPolyline
 62
253
  6
CONTINUOUS
 90
7
 70
0
 10
8.2831004558
 20
3.654138872
 10
8.2810652643
 20
3.6201202736
 10
8.273822553
 20
3.5866504445
 10
8.2615195806
 20
3.5543111394
 10
8.2444014381
 20
3.5236768169
 10
8.2227788917
 20
3.4952536363
 10
8.1969981809
 20
3.4694839859
  0
LINE
  5
45A
100
AcDbEntity
  8
IMPORT_IGES
100
AcDbLine
 62
253
  6
CONTINUOUS
 10
7.1735432592
 20
-9.8132081982
 11
7.1732475627
 21
-9.7959539636
  0
LINE
  5
45B
100
AcDbEntity
  8
IMPORT_IGES
100
AcDbLine
 62
253
  6
CONTINUOUS
 10
7.1706810368
 20
-9.8351118213
 11
7.1732309308
 21
-9.8179098545
  0
LINE
  5
45C
100
AcDbEntity
  8
IMPORT_IGES
100
AcDbLine
 62
253
  6
CONTINUOUS
 10
7.1735432592
 20
-9.8132081982
 11
7.174016366
 21
-9.7959539636
  0
LWPOLYLINE
  5
45D
100
AcDbEntity
  8
IMPORT_IGES
100
AcDbPolyline
 62
253
  6
CONTINUOUS
 90
13
 70
0
 10
8.17575
 20
-4.749082984
 10
8.1740409779
 20
-4.7695541041
 10
8.1689411697
 20
-4.7896810802
 10
8.1605348991
 20
-4.8091192903
 10
8.1489618605
 20
-4.827537244
 10
8.134418283
 20
-4.8446164967
 10
8.1171566312
 20
-4.8600586465
 10
8.0974721883
 20
-4.8735996206
 10
8.0757028217
 20
-4.885007074
 10
8.0522312571
 20
-4.8940825877
 10
8.0274645325
 20
-4.9006731318
 10
8.0018244879
 20
-4.904670576
 10
7.97575
 20
-4.9060099332
  0
LWPOLYLINE
  5
45E
100
AcDbEntity
  8
IMPORT_IGES
100
AcDbPolyline
 62
7
  6
CONTINUOUS
 90
9
 70
0
 10
8.3009046217
 20
2.6341388917
 10
8.2984648378
 20
2.6111179603
 10
8.2904527102
 20
2.5881472064
 10
8.2771000982
 20
2.5658617794
 10
8.258699558
 20
2.5449685738
 10
8.2356821655
 20
2.5259028147
 10
8.2086745681
 20
2.5087803702
 10
8.1782160315
 20
2.4938400896
 10
8.17575
 20
2.4929252564
  0
LINE
  5
45F
100
AcDbEntity
  8
IMPORT_IGES
100
AcDbLine
 62
253
  6
CONTINUOUS
 10
7.1740605821
 20
-9.7955450375
 11
7.174016366
 21
-9.7959536987
  0
LWPOLYLINE
  5
460
100
AcDbEntity
  8
IMPORT_IGES
100
AcDbPolyline
 62
7
  6
CONTINUOUS
 90
11
 70
0
 10
-7.0515633371
 20
8.0411117717
 10
-7.0885898094
 20
8.0340278211
 10
-7.1247662851
 20
8.0222734288
 10
-7.1594789216
 20
8.0058198802
 10
-7.1920923363
 20
7.9848452359
 10
-7.2219684051
 20
7.9597439021
 10
-7.2485117467
 20
7.9306859659
 10
-7.2711841368
 20
7.8980337226
 10
-7.2894909602
 20
7.862563929
 10
-7.302991069
 20
7.8248234766
 10
-7.311313008
 20
7.7851262582
  0
LINE
  5
461
100
AcDbEntity
  8
IMPORT_IGES
100
AcDbLine
 62
7
  6
CONTINUOUS
 10
-7.0142957464
 20
8.0435369742
 11
-7.0515633371
 21
8.0411117717
  0
LWPOLYLINE
  5
462
100
AcDbEntity
  8
IMPORT_IGES
100
AcDbPolyline
 62
253
  6
CONTINUOUS
 90
13
 70
0
 10
-8.0506644537
 20
8.5004756502
 10
-8.0891780008
 20
8.4990635598
 10
-8.1268972467
 20
8.4941896796
 10
-8.1632149456
 20
8.4859772315
 10
-8.1973835326
 20
8.4746692083
 10
-8.2290789523
 20
8.4604514356
 10
-8.2582697089
 20
8.4432952395
 10
-8.2845371621
 20
8.4232454212
 10
-8.3071042305
 20
8.4006629875
 10
-8.3253706458
 20
8.3759775894
 10
-8.3389083742
 20
8.3496237487
 10
-8.3474096396
 20
8.3220041515
 10
-8.3506184244
 20
8.2935963481
  0
LINE
  5
463
100
AcDbEntity
  8
IMPORT_IGES
100
AcDbLine
 62
253
  6
CONTINUOUS
 10
7.9021643235
 20
8.5004764742
 11
7.22575
 21
8.500479828
  0
LINE
  5
464
100
AcDbEntity
  8
IMPORT_IGES
100
AcDbLine
 62
253
  6
CONTINUOUS
 10
-8.0506644147
 20
8.5004756498
 11
-7.37425
 21
8.5004852198
  0
LINE
  5
465
100
AcDbEntity
  8
IMPORT_IGES
100
AcDbLine
 62
253
  6
CONTINUOUS
 10
5.5418986974
 20
9.1147062082
 11
-5.6903986974
 21
9.1147062082
  0
LWPOLYLINE
  5
466
100
AcDbEntity
  8
IMPORT_IGES
100
AcDbPolyline
 62
7
  6
CONTINUOUS
 90
10
 70
0
 10
7.2096426844
 20
9.0056877786
 10
7.2131950472
 20
9.0056802769
 10
7.2162722583
 20
9.0057388705
 10
7.2188874832
 20
9.0058635592
 10
7.2210550245
 20
9.0061640302
 10
7.2227903436
 20
9.0065305964
 10
7.2241098088
 20
9.0066341968
 10
7.2250303731
 20
9.0063651443
 10
7.2255695456
 20
9.005833126
 10
7.2257453682
 20
9.0050381419
  0
LWPOLYLINE
  5
467
100
AcDbEntity
  8
IMPORT_IGES
100
AcDbPolyline
 62
7
  6
CONTINUOUS
 90
4
 70
0
 10
7.17575
 20
9.0069675992
 10
7.183340601
 20
9.0067811625
 10
7.1979352481
 20
9.00627559
 10
7.2096426844
 20
9.0056877786
  0
LWPOLYLINE
  5
468
100
AcDbEntity
  8
IMPORT_IGES
100
AcDbPolyline
 62
7
  6
CONTINUOUS
 90
7
 70
0
 10
-7.32425
 20
9.0061384368
 10
-7.3372592928
 20
9.0065543811
 10
-7.3510521868
 20
9.0075364484
 10
-7.3615245459
 20
9.0078879179
 10
-7.3687352658
 20
9.0072506774
 10
-7.3729068612
 20
9.0059828391
 10
-7.3742453377
 20
9.0040844031
  0
LWPOLYLINE
  5
469
100
AcDbEntity
  8
IMPORT_IGES
100
AcDbPolyline
 62
253
  6
CONTINUOUS
 90
13
 70
0
 10
7.9021641209
 20
8.5004923892
 10
7.9404805529
 20
8.4990891868
 10
7.9780837403
 20
8.4942488375
 10
8.014366905
 20
8.4860737147
 10
8.0485986463
 20
8.4747783991
 10
8.0804149717
 20
8.4605352022
 10
8.1097070662
 20
8.4433372302
 10
8.1360442342
 20
8.4232393366
 10
8.1586581378
 20
8.400600707
 10
8.1769320585
 20
8.3758791358
 10
8.1904486809
 20
8.3495251717
 10
8.1989234982
 20
8.3219380067
 10
8.2021184244
 20
8.2935963475
  0
LINE
  5
46A
100
AcDbEntity
  8
IMPORT_IGES
100
AcDbLine
 62
7
  6
CONTINUOUS
 10
6.8654273364
 20
8.0435372816
 11
6.9028536926
 21
8.0411739939
  0
LWPOLYLINE
  5
46B
100
AcDbEntity
  8
IMPORT_IGES
100
AcDbPolyline
 62
7
  6
CONTINUOUS
 90
11
 70
0
 10
6.9028536926
 20
8.0411739939
 10
6.9399941396
 20
8.0340916488
 10
6.9762375992
 20
8.0222903718
 10
7.0109602306
 20
8.0058536017
 10
7.0435473805
 20
7.9849445602
 10
7.0734020259
 20
7.9598030303
 10
7.0999355376
 20
7.930767148
 10
7.122606278
 20
7.8982483207
 10
7.1409282422
 20
7.8627089602
 10
7.1544538294
 20
7.8247055439
 10
7.162799713
 20
7.7848909306
  0
LWPOLYLINE
  5
46C
100
AcDbEntity
  8
IMPORT_IGES
100
AcDbPolyline
 62
253
  6
CONTINUOUS
 90
13
 70
0
 10
8.1968570729
 20
-8.8869268977
 10
8.1937728104
 20
-8.9195338089
 10
8.1857075308
 20
-8.9515183989
 10
8.1727909012
 20
-8.9823430007
 10
8.155231662
 20
-9.0114922282
 10
8.1333212212
 20
-9.0384696337
 10
8.1074346529
 20
-9.062809343
 10
8.0780062773
 20
-9.0841030187
 10
8.0455323848
 20
-9.1019915831
 10
8.0105787942
 20
-9.1161678012
 10
7.9737432336
 20
-9.1263984507
 10
7.9356402841
 20
-9.1325215571
 10
7.8969100841
 20
-9.1344415095
  0
LWPOLYLINE
  5
46D
100
AcDbEntity
  8
IMPORT_IGES
100
AcDbPolyline
 62
253
  6
CONTINUOUS
 90
13
 70
0
 10
8.184287096
 20
-9.6070603914
 10
8.1811983172
 20
-9.6396934619
 10
8.1731246063
 20
-9.6716906439
 10
8.1602015364
 20
-9.7025146443
 10
8.14264611
 20
-9.73164787
 10
8.1207531159
 20
-9.7586011192
 10
8.0948901787
 20
-9.7829217963
 10
8.065491586
 20
-9.8042015113
 10
8.0330509954
 20
-9.8220829376
 10
7.9981131457
 20
-9.8362658122
 10
7.9612647093
 20
-9.8465119781
 10
7.9231244409
 20
-9.8526493827
 10
7.8843327875
 20
-9.8545749676
  0
LWPOLYLINE
  5
46E
100
AcDbEntity
  8
IMPORT_IGES
100
AcDbPolyline
 62
7
  6
CONTINUOUS
 90
9
 70
0
 10
7.170589345
 20
-9.8412392804
 10
7.1695558414
 20
-9.8475496196
 10
7.1683546755
 20
-9.854007165
 10
7.1669451518
 20
-9.8607423987
 10
7.1652556411
 20
-9.8679550203
 10
7.1633058032
 20
-9.87542593
 10
7.1612193214
 20
-9.8826626387
 10
7.159142767
 20
-9.8892635495
 10
7.1569775857
 20
-9.8956361153
  0
LINE
  5
46F
100
AcDbEntity
  8
IMPORT_IGES
100
AcDbLine
 62
253
  6
CONTINUOUS
 10
7.1683546755
 20
-9.854007165
 11
7.171257812
 21
-9.8365437755
  0
LINE
  5
470
100
AcDbEntity
  8
IMPORT_IGES
100
AcDbLine
 62
7
  6
CONTINUOUS
 10
7.22575
 20
9.3040460364
 11
7.1711186344
 21
9.3040460364
  0
LINE
  5
471
100
AcDbEntity
  8
IMPORT_IGES
100
AcDbLine
 62
7
  6
CONTINUOUS
 10
-7.32425
 20
9.3040460364
 11
-7.37425
 21
9.3040460364
  0
LINE
  5
472
100
AcDbEntity
  8
IMPORT_IGES
100
AcDbLine
 62
253
  6
CONTINUOUS
 10
7.17575
 20
9.5040460364
 11
7.1725397109
 21
9.5040460364
  0
LINE
  5
473
100
AcDbEntity
  8
IMPORT_IGES
100
AcDbLine
 62
253
  6
CONTINUOUS
 10
-7.3210397109
 20
9.5040460364
 11
-7.32425
 21
9.5040460364
  0
LINE
  5
474
100
AcDbEntity
  8
IMPORT_IGES
100
AcDbLine
 62
7
  6
CONTINUOUS
 10
-5.6983411927
 20
9.5540460364
 11
5.5498411927
 21
9.5540460364
  0
LINE
  5
475
100
AcDbEntity
  8
IMPORT_IGES
100
AcDbLine
 62
253
  6
CONTINUOUS
 10
6.8713073994
 20
9.5697314611
 11
5.5498411927
 21
9.5697314613
  0
LINE
  5
476
100
AcDbEntity
  8
IMPORT_IGES
100
AcDbLine
 62
253
  6
CONTINUOUS
 10
-5.6983411927
 20
9.5697314611
 11
-7.0198073994
 21
9.5697314608
  0
LINE
  5
477
100
AcDbEntity
  8
IMPORT_IGES
100
AcDbLine
 62
253
  6
CONTINUOUS
 10
-7.37425
 20
9.6040460364
 11
-7.3064394903
 21
9.6040460364
  0
LINE
  5
478
100
AcDbEntity
  8
IMPORT_IGES
100
AcDbLine
 62
253
  6
CONTINUOUS
 10
-5.6983411927
 20
9.6040460364
 11
-5.622877055
 21
9.6040460364
  0
LINE
  5
479
100
AcDbEntity
  8
IMPORT_IGES
100
AcDbLine
 62
253
  6
CONTINUOUS
 10
5.474377055
 20
9.6040460364
 11
5.5498411927
 21
9.6040460364
  0
LINE
  5
47A
100
AcDbEntity
  8
IMPORT_IGES
100
AcDbLine
 62
253
  6
CONTINUOUS
 10
7.1579397377
 20
9.6040460364
 11
7.22575
 21
9.6040460364
  0
LINE
  5
47B
100
AcDbEntity
  8
IMPORT_IGES
100
AcDbLine
 62
253
  6
CONTINUOUS
 10
7.22575
 20
9.6576067063
 11
7.8819664915
 21
9.657614942
  0
LINE
  5
47C
100
AcDbEntity
  8
IMPORT_IGES
100
AcDbLine
 62
253
  6
CONTINUOUS
 10
-8.0304665431
 20
9.6576154076
 11
-7.37425
 21
9.6576121293
  0
LINE
  5
47D
100
AcDbEntity
  8
IMPORT_IGES
100
AcDbLine
 62
7
  6
CONTINUOUS
 10
-5.4448103202
 20
9.7157697532
 11
5.2963103201
 21
9.7157697532
  0
LINE
  5
47E
100
AcDbEntity
  8
IMPORT_IGES
100
AcDbLine
 62
253
  6
CONTINUOUS
 10
-7.37425
 20
9.7236612786
 11
-7.2278490706
 21
9.7236612786
  0
LINE
  5
47F
100
AcDbEntity
  8
IMPORT_IGES
100
AcDbLine
 62
253
  6
CONTINUOUS
 10
-5.7021336289
 20
9.7236612786
 11
-5.6186691273
 21
9.7236612786
  0
LINE
  5
480
100
AcDbEntity
  8
IMPORT_IGES
100
AcDbLine
 62
253
  6
CONTINUOUS
 10
5.4701691273
 20
9.7236612786
 11
5.5536336289
 21
9.7236612786
  0
LINE
  5
481
100
AcDbEntity
  8
IMPORT_IGES
100
AcDbLine
 62
253
  6
CONTINUOUS
 10
7.0793497532
 20
9.7236612786
 11
7.22575
 21
9.7236612786
  0
LINE
  5
482
100
AcDbEntity
  8
IMPORT_IGES
100
AcDbLine
 62
7
  6
CONTINUOUS
 10
-7.0210415462
 20
9.8040460364
 11
-5.7082152685
 21
9.8040460364
  0
LINE
  5
483
100
AcDbEntity
  8
IMPORT_IGES
100
AcDbLine
 62
7
  6
CONTINUOUS
 10
5.5597152685
 20
9.8040460364
 11
6.8725415386
 21
9.8040460364
  0
LINE
  5
484
100
AcDbEntity
  8
IMPORT_IGES
100
AcDbLine
 62
7
  6
CONTINUOUS
 10
7.22575
 20
9.8040460364
 11
7.880944272
 21
9.8040460364
  0
LINE
  5
485
100
AcDbEntity
  8
IMPORT_IGES
100
AcDbLine
 62
7
  6
CONTINUOUS
 10
-7.37425
 20
9.8040460364
 11
-8.0294442658
 21
9.8040460364
  0
LINE
  5
486
100
AcDbEntity
  8
IMPORT_IGES
100
AcDbLine
 62
253
  6
CONTINUOUS
 10
5.4648922986
 20
9.8736612786
 11
7.22575
 21
9.8736612786
  0
LINE
  5
487
100
AcDbEntity
  8
IMPORT_IGES
100
AcDbLine
 62
253
  6
CONTINUOUS
 10
-7.37425
 20
9.8736611285
 11
-5.6133922986
 21
9.8736612786
  0
LINE
  5
488
100
AcDbEntity
  8
IMPORT_IGES
100
AcDbLine
 62
253
  6
CONTINUOUS
 10
4.2141765578
 20
10.0495962296
 11
-4.362673525
 21
10.0495962755
  0
LWPOLYLINE
  5
489
100
AcDbEntity
  8
IMPORT_IGES
100
AcDbPolyline
 62
253
  6
CONTINUOUS
 90
12
 70
0
 10
7.881966444
 20
9.6576149416
 10
7.9204802727
 20
9.6561885545
 10
7.958199736
 20
9.6513039471
 10
7.9945175866
 20
9.643084342
 10
8.028686237
 20
9.6317739246
 10
8.0603816525
 20
9.6175573296
 10
8.0895724009
 20
9.6004023076
 10
8.1158398617
 20
9.5803524804
 10
8.1384069311
 20
9.557770035
 10
8.1566733404
 20
9.5330845863
 10
8.1702110553
 20
9.5067306448
 10
8.1787122991
 20
9.4791109098
  0
LWPOLYLINE
  5
48A
100
AcDbEntity
  8
IMPORT_IGES
100
AcDbPolyline
 62
253
  6
CONTINUOUS
 90
13
 70
0
 10
-4.5960345696
 20
9.8663513025
 10
-4.6342979338
 20
9.8694110183
 10
-4.6717794801
 20
9.8770448697
 10
-4.7078814309
 20
9.8890722654
 10
-4.7418673623
 20
9.905149804
 10
-4.7734175072
 20
9.9250236345
 10
-4.8025010423
 20
9.9487329422
 10
-4.828706277
 20
9.9762076801
 10
-4.8512676268
 20
10.0069478197
 10
-4.8695929322
 20
10.0403679201
 10
-4.8832585744
 20
10.0758822333
 10
-4.8919588301
 20
10.1129515717
 10
-4.8954380569
 20
10.150940828
  0
LINE
  5
48B
100
AcDbEntity
  8
IMPORT_IGES
100
AcDbLine
 62
253
  6
CONTINUOUS
 10
8.1787122991
 20
9.4791109098
 11
8.1819210503
 21
9.4507031318
  0
LWPOLYLINE
  5
48C
100
AcDbEntity
  8
IMPORT_IGES
100
AcDbPolyline
 62
253
  6
CONTINUOUS
 90
3
 70
0
 10
7.159142767
 20
-9.8892635495
 10
7.1630253729
 20
-9.8735996772
 10
7.1706810368
 20
-9.8351118213
  0
LWPOLYLINE
  5
48D
100
AcDbEntity
  8
IMPORT_IGES
100
AcDbPolyline
 62
7
  6
CONTINUOUS
 90
29
 70
0
 10
7.1569775857
 20
-9.8956361153
 10
7.154466808
 20
-9.9024949406
 10
7.1513533261
 20
-9.9103545107
 10
7.1477855376
 20
-9.9186469525
 10
7.1441407727
 20
-9.9264752647
 10
7.1408525005
 20
-9.933072112
 10
7.1375907127
 20
-9.9392417487
 10
7.1335574295
 20
-9.9464237962
 10
7.1282472817
 20
-9.9552313028
 10
7.1219319344
 20
-9.9648929836
 10
7.1149275259
 20
-9.9747393961
 10
7.1069624075
 20
-9.9850001383
 10
7.0982013792
 20
-9.9953111647
 10
7.0898689433
 20
-10.0043041312
 10
7.0830550906
 20
-10.0111396365
 10
7.0769626998
 20
-10.0168946633
 10
7.0700085477
 20
-10.0230861106
 10
7.061645504
 20
-10.0300419514
 10
7.0522884181
 20
-10.0372440024
 10
7.0416434754
 20
-10.044756861
 10
7.0296217708
 20
-10.0524468566
 10
7.0161734319
 20
-10.0601374716
 10
7.0010326912
 20
-10.0677412241
 10
6.9840360688
 20
-10.0750543476
 10
6.9652394236
 20
-10.0817504024
 10
6.9447261402
 20
-10.0875037268
 10
6.9225553459
 20
-10.0920029213
 10
6.898761512
 20
-10.0949331817
 10
6.8740375883
 20
-10.0959552497
  0
LWPOLYLINE
  5
48E
100
AcDbEntity
  8
IMPORT_IGES
100
AcDbPolyline
 62
253
  6
CONTINUOUS
 90
10
 70
0
 10
-6.2974030928
 20
10.7454409345
 10
-6.3094274468
 20
10.7451396892
 10
-6.3210507195
 20
10.7442257748
 10
-6.3322729109
 20
10.7426991912
 10
-6.3431161981
 20
10.7405016275
 10
-6.3535584039
 20
10.7376913946
 10
-6.3635329967
 20
10.7344434252
 10
-6.3730177994
 20
10.7308160302
 10
-6.3820349891
 20
10.7267508987
 10
-6.3905845658
 20
10.7222480307
  0
LINE
  5
48F
100
AcDbEntity
  8
IMPORT_IGES
100
AcDbLine
 62
253
  6
CONTINUOUS
 10
5.4179838421
 20
10.7361920809
 11
6.1489030897
 21
10.7454405541
  0
LINE
  5
490
100
AcDbEntity
  8
IMPORT_IGES
100
AcDbLine
 62
253
  6
CONTINUOUS
 10
-4.3626289626
 20
10.5605829232
 11
4.2141264011
 21
10.5605829232
  0
LINE
  5
491
100
AcDbEntity
  8
IMPORT_IGES
100
AcDbLine
 62
7
  6
CONTINUOUS
 10
6.1488972838
 20
10.8040460364
 11
5.4109310755
 21
10.8040460364
  0
LINE
  5
492
100
AcDbEntity
  8
IMPORT_IGES
100
AcDbLine
 62
7
  6
CONTINUOUS
 10
-5.5594310835
 20
10.8040460364
 11
-6.2974011741
 21
10.8040460364
  0
LINE
  5
493
100
AcDbEntity
  8
IMPORT_IGES
100
AcDbLine
 62
253
  6
CONTINUOUS
 10
5.3981495894
 20
10.9040460361
 11
5.925749714
 21
10.9040460364
  0
LINE
  5
494
100
AcDbEntity
  8
IMPORT_IGES
100
AcDbLine
 62
253
  6
CONTINUOUS
 10
-5.5466495896
 20
10.9040460361
 11
-6.0742497174
 21
10.9040460364
  0
LINE
  5
495
100
AcDbEntity
  8
IMPORT_IGES
100
AcDbLine
 62
7
  6
CONTINUOUS
 10
-5.9742477844
 20
11.0040460364
 11
-5.5278249046
 21
11.0040460364
  0
LINE
  5
496
100
AcDbEntity
  8
IMPORT_IGES
100
AcDbLine
 62
7
  6
CONTINUOUS
 10
5.3793248937
 20
11.0040460364
 11
5.8257401585
 21
11.0040460364
  0
LINE
  5
497
100
AcDbEntity
  8
IMPORT_IGES
100
AcDbLine
 62
7
  6
CONTINUOUS
 10
-5.9970908224
 20
11.0040460364
 11
-6.0209565296
 21
11.0040460364
  0
LINE
  5
498
100
AcDbEntity
  8
IMPORT_IGES
100
AcDbLine
 62
7
  6
CONTINUOUS
 10
5.3484366561
 20
11.0657697538
 11
4.8530529486
 21
11.0657697538
  0
LINE
  5
499
100
AcDbEntity
  8
IMPORT_IGES
100
AcDbLine
 62
7
  6
CONTINUOUS
 10
-5.0015529486
 20
11.0657697538
 11
-5.4969366561
 21
11.0657697538
  0
LINE
  5
49A
100
AcDbEntity
  8
IMPORT_IGES
100
AcDbLine
 62
253
  6
CONTINUOUS
 10
-6.2974030928
 20
10.7454409345
 11
-5.5664879228
 21
10.7361477916
  0
LWPOLYLINE
  5
49B
100
AcDbEntity
  8
IMPORT_IGES
100
AcDbPolyline
 62
253
  6
CONTINUOUS
 90
10
 70
0
 10
4.2141765578
 20
10.0495962296
 10
4.2577032801
 20
10.0324288111
 10
4.2969487633
 20
10.0144149445
 10
4.3319130076
 20
9.9955546299
 10
4.3627537124
 20
9.9757836461
 10
4.3893131783
 20
9.9551662141
 10
4.4111183067
 20
9.9338949975
 10
4.4280113984
 20
9.9120342173
 10
4.4401501527
 20
9.8895196523
 10
4.4475345696
 20
9.8663513026
  0
LWPOLYLINE
  5
49C
100
AcDbEntity
  8
0
100
AcDbPolyline
 62
7
  6
CONTINUOUS
 90
10
 70
0
 43
0.3500000006
 10
0.5686071367
 20
21.4657680359
 10
0.6400356996
 20
21.3229147339
 10
0.6400356996
 20
21.251483551
 10
0.4971785738
 20
21.1086257172
 10
0.425750011
 20
21.1086257172
 10
0.3543214127
 20
21.1800569
 10
0.3543214127
 20
21.251483551
 10
0.425750011
 20
21.3943413849
 10
0.4971785738
 20
21.4657680359
 10
0.5686071367
 20
21.4657680359
  0
LWPOLYLINE
  5
49D
100
AcDbEntity
  8
IMPORT_IGES
100
AcDbPolyline
 62
253
  6
CONTINUOUS
 90
3
 70
0
 10
7.1441407727
 20
-9.9264752647
 10
7.1504115616
 20
-9.9107589933
 10
7.1569775857
 20
-9.8956361153
  0
LWPOLYLINE
  5
49E
100
AcDbEntity
  8
IMPORT_IGES
100
AcDbPolyline
 62
253
  6
CONTINUOUS
 90
13
 70
0
 10
-4.5960345696
 20
11.0386132908
 10
-4.634120619
 20
11.0355831931
 10
-4.6715889217
 20
11.0289303867
 10
-4.707831751
 20
11.0187627784
 10
-4.7422612567
 20
11.0052452844
 10
-4.7743190006
 20
10.9885971552
 10
-4.8034850137
 20
10.9690884195
 10
-4.8292862303
 20
10.9470355042
 10
-4.8513041608
 20
10.9227961025
 10
-4.8691816797
 20
10.8967633716
 10
-4.8826288178
 20
10.8693595561
 10
-4.8914274658
 20
10.8410291394
 10
-4.8954349118
 20
10.8122316341
  0
LWPOLYLINE
  5
49F
100
AcDbEntity
  8
IMPORT_IGES
100
AcDbPolyline
 62
253
  6
CONTINUOUS
 90
13
 70
0
 10
4.4475345696
 20
11.0386132908
 10
4.4853083142
 20
11.0356230916
 10
4.5223299342
 20
11.0291027821
 10
4.5580244863
 20
11.0191982025
 10
4.5916823864
 20
11.0061803232
 10
4.622994079
 20
10.9902462595
 10
4.6519304059
 20
10.9713671755
 10
4.6780972058
 20
10.9496030834
 10
4.7007561652
 20
10.9253419943
 10
4.7193331005
 20
10.8990317159
 10
4.7334144302
 20
10.871120132
 10
4.7426997113
 20
10.8420203392
 10
4.7469337424
 20
10.8122166572
  0
LWPOLYLINE
  5
4A0
100
AcDbEntity
  8
IMPORT_IGES
100
AcDbPolyline
 62
253
  6
CONTINUOUS
 90
10
 70
0
 10
4.4357939642
 20
10.3342003085
 10
4.4943535832
 20
10.3166877118
 10
4.5473459763
 20
10.2984150811
 10
4.594525718
 20
10.2793824163
 10
4.6355898595
 20
10.2595256219
 10
4.6704938174
 20
10.2389087933
 10
4.6992982684
 20
10.2177242174
 10
4.7218121974
 20
10.1960359896
 10
4.7377484374
 20
10.1737800144
 10
4.7469343102
 20
10.1509562917
  0
LWPOLYLINE
  5
4A1
100
AcDbEntity
  8
IMPORT_IGES
100
AcDbPolyline
 62
253
  6
CONTINUOUS
 90
10
 70
0
 10
4.2141814973
 20
10.5605829232
 10
4.2446521375
 20
10.5450889606
 10
4.2746576499
 20
10.5263758417
 10
4.3037400065
 20
10.5047292183
 10
4.3314552713
 20
10.4804795216
 10
4.3573803766
 20
10.4539969179
 10
4.3811195811
 20
10.4256856588
 10
4.4023105108
 20
10.3959779097
 10
4.4206296906
 20
10.3653271531
 10
4.4357974822
 20
10.3342012664
  0
LINE
  5
4A2
100
AcDbEntity
  8
IMPORT_IGES
100
AcDbLine
 62
7
  6
CONTINUOUS
 10
7.22575
 20
9.074032235
 11
7.17575
 21
9.1028997485
  0
LWPOLYLINE
  5
4A3
100
AcDbEntity
  8
0
100
AcDbPolyline
 62
7
  6
CONTINUOUS
 90
5
 70
0
 43
0.3500000006
 10
13.88436026
 20
-0.5043782501
 10
13.6700746422
 20
-0.1472359314
 10
13.0272177887
 20
-0.1472359314
 10
12.5986454201
 20
-0.5043782501
 10
12.5986454201
 20
-1.3615207214
  0
LINE
  5
4A4
100
AcDbEntity
  8
IMPORT_IGES
100
AcDbLine
 62
253
  6
CONTINUOUS
 10
6.3024645042
 20
-10.0959539636
 11
6.2024644839
 21
-10.1959539636
  0
LINE
  5
4A5
100
AcDbEntity
  8
IMPORT_IGES
100
AcDbLine
 62
7
  6
CONTINUOUS
 10
7.1818170522
 20
-9.4287334257
 11
7.17575
 21
-9.4348004779
  0
LINE
  5
4A6
100
AcDbEntity
  8
IMPORT_IGES
100
AcDbLine
 62
7
  6
CONTINUOUS
 10
6.5145965143
 20
-10.0959539636
 11
6.4145965143
 21
-10.1959539636
  0
LINE
  5
4A7
100
AcDbEntity
  8
IMPORT_IGES
100
AcDbLine
 62
253
  6
CONTINUOUS
 10
6.6620656638
 20
-10.2227488829
 11
6.788860583
 21
-10.0959539636
  0
LINE
  5
4A8
100
AcDbEntity
  8
IMPORT_IGES
100
AcDbLine
 62
253
  6
CONTINUOUS
 10
7.1725497317
 20
-9.7122648149
 11
7.22575
 21
-9.6590645466
  0
LWPOLYLINE
  5
4A9
100
AcDbEntity
  8
IMPORT_IGES
100
AcDbPolyline
 62
253
  6
CONTINUOUS
 90
9
 70
0
 10
6.987399089
 20
-10.0737031598
 10
7.0217695758
 20
-10.0570464054
 10
7.053612777
 20
-10.0362566742
 10
7.0828956649
 20
-10.0112901437
 10
7.109189115
 20
-9.9822171215
 10
7.1316998359
 20
-9.949574803
 10
7.1498167008
 20
-9.9139974164
 10
7.1631060862
 20
-9.8761236098
 10
7.1669451518
 20
-9.8607423987
  0
LINE
  5
4AA
100
AcDbEntity
  8
IMPORT_IGES
100
AcDbLine
 62
7
  6
CONTINUOUS
 10
4.8530529486
 20
12.2157697531
 11
-5.0015529486
 21
12.2157697531
  0
LWPOLYLINE
  5
4AB
100
AcDbEntity
  8
IMPORT_IGES
100
AcDbPolyline
 62
253
  6
CONTINUOUS
 90
10
 70
0
 10
6.2988822798
 20
10.7638600919
 10
6.2948652376
 20
10.7651777893
 10
6.2900165701
 20
10.7649382146
 10
6.2844251381
 20
10.763092722
 10
6.278273888
 20
10.7597044327
 10
6.2716718276
 20
10.7548668612
 10
6.2646024799
 20
10.7485694211
 10
6.2571646111
 20
10.7408709248
 10
6.2495983558
 20
10.7320155454
 10
6.2420853159
 20
10.7222489714
  0
LWPOLYLINE
  5
4AC
100
AcDbEntity
  8
IMPORT_IGES
100
AcDbPolyline
 62
253
  6
CONTINUOUS
 90
10
 70
0
 10
6.2420853137
 20
10.7222489789
 10
6.2335339835
 20
10.7267517809
 10
6.2245150887
 20
10.7308168336
 10
6.2150286292
 20
10.734444137
 10
6.2050519356
 20
10.7376920122
 10
6.1946076773
 20
10.7405021381
 10
6.1837638627
 20
10.7426995516
 10
6.1725431613
 20
10.7442259316
 10
6.1609229036
 20
10.7451395991
 10
6.1489030897
 20
10.7454405541
  0
LINE
  5
4AD
100
AcDbEntity
  8
IMPORT_IGES
100
AcDbLine
 62
7
  6
CONTINUOUS
 10
6.2420853137
 20
10.7222489789
 11
6.7927058385
 21
10.4169609578
  0
LINE
  5
4AE
100
AcDbEntity
  8
IMPORT_IGES
100
AcDbLine
 62
7
  6
CONTINUOUS
 10
6.7927058385
 20
10.4169609578
 11
7.8919268769
 21
9.803855861
  0
LINE
  5
4AF
100
AcDbEntity
  8
IMPORT_IGES
100
AcDbLine
 62
7
  6
CONTINUOUS
 10
8.0309167377
 20
9.7638695406
 11
6.2988822838
 21
10.7638600988
  0
LWPOLYLINE
  5
4B0
100
AcDbEntity
  8
0
100
AcDbPolyline
 62
7
  6
CONTINUOUS
 90
7
 70
0
 43
0.3500000006
 10
15.5986463356
 20
-2.2186631927
 10
15.5986463356
 20
-3.7186636505
 10
13.4557890244
 20
-2.2186631927
 10
13.0272177887
 20
-2.2186631927
 10
12.5986454201
 20
-2.6472344284
 10
12.5986454201
 20
-3.2900924149
 10
13.2415034065
 20
-3.7186636505
  0
LWPOLYLINE
  5
4B1
100
AcDbEntity
  8
0
100
AcDbPolyline
 62
7
  6
CONTINUOUS
 90
6
 70
0
 43
0.3500000006
 10
15.5986463356
 20
-1.3615207214
 10
15.5986463356
 20
-0.2900914993
 10
15.3843595848
 20
-0.0758070145
 10
14.3129314957
 20
-0.0758070145
 10
13.88436026
 20
-0.5043782501
 10
13.88436026
 20
-0.9329494858
  0
LWPOLYLINE
  5
4B2
100
AcDbEntity
  8
0
100
AcDbPolyline
 62
7
  6
CONTINUOUS
 90
8
 70
0
 43
0.3500000006
 10
15.5986463356
 20
2.4956226654
 10
15.5986463356
 20
3.3527651367
 10
15.170073967
 20
3.7813363724
 10
14.3129314957
 20
3.7813363724
 10
13.88436026
 20
3.3527651367
 10
13.88436026
 20
2.4956226654
 10
12.5986454201
 20
2.4956226654
 10
12.5986454201
 20
3.7813363724
  0
LINE
  5
4B3
100
AcDbEntity
  8
IMPORT_IGES
100
AcDbLine
 62
7
  6
CONTINUOUS
 10
7.0166782199
 20
-11.0080858203
 11
8.0944335139
 21
-9.9303305264
  0
LINE
  5
4B4
100
AcDbEntity
  8
IMPORT_IGES
100
AcDbLine
 62
253
  6
CONTINUOUS
 10
7.8843465776
 20
-9.8546236936
 11
7.22575
 21
-10.5131577538
  0
LWPOLYLINE
  5
4B5
100
AcDbEntity
  8
IMPORT_IGES
100
AcDbPolyline
 62
253
  6
CONTINUOUS
 90
13
 70
0
 10
8.0944335137
 20
-9.9303305266
 10
8.0810213651
 20
-9.9413418473
 10
8.0664926579
 20
-9.9489740274
 10
8.0511941785
 20
-9.9533465248
 10
8.0358422343
 20
-9.9545501606
 10
8.020395513
 20
-9.9529003583
 10
8.0037854132
 20
-9.9484645304
 10
7.9855139779
 20
-9.940783419
 10
7.9661552867
 20
-9.9296972567
 10
7.9461199613
 20
-9.9154917921
 10
7.9257102535
 20
-9.8983282131
 10
7.905046622
 20
-9.8780379726
 10
7.8843465776
 20
-9.8546236911
  0
LWPOLYLINE
  5
4B6
100
AcDbEntity
  8
0
100
AcDbPolyline
 62
7
  6
CONTINUOUS
 90
13
 70
0
 43
0.3500000006
 10
2.0686071696
 20
22.6800573578
 10
1.7828929181
 20
22.8943418427
 10
1.7828929181
 20
23.5371998291
 10
2.0686071696
 20
23.9657687988
 10
2.7114641647
 20
23.9657687988
 10
2.9971786995
 20
23.5371998291
 10
2.9971786995
 20
22.8943418427
 10
2.7114641647
 20
22.6800573578
 10
3.1400356836
 20
22.2514838562
 10
3.1400356836
 20
21.3943413849
 10
2.7114641647
 20
20.9657678833
 10
2.0686071696
 20
20.9657678833
 10
1.6400356507
 20
21.3943413849
  0
LWPOLYLINE
  5
4B7
100
AcDbEntity
  8
0
100
AcDbPolyline
 62
7
  6
CONTINUOUS
 90
5
 70
0
 43
0.3500000006
 10
-47.7714548035
 20
32.6800558777
 10
-47.4143079529
 20
32.8943403625
 10
-47.4143079529
 20
33.537198349
 10
-47.7714548035
 20
33.9657718506
 10
-48.6285972748
 20
33.9657718506
  0
LWPOLYLINE
  5
4B8
100
AcDbEntity
  8
IMPORT_IGES
100
AcDbPolyline
 62
253
  6
CONTINUOUS
 90
3
 70
0
 10
-62.9441649633
 20
-7.9801370663
 10
-62.9440572129
 20
-7.9878505441
 10
-62.9439292233
 20
-7.9904485834
  0
LINE
  5
4B9
100
AcDbEntity
  8
IMPORT_IGES
100
AcDbLine
 62
253
  6
CONTINUOUS
 10
-62.9443127598
 20
-7.9499826116
 11
-62.9441649633
 21
-7.9801370663
  0
LINE
  5
4BA
100
AcDbEntity
  8
IMPORT_IGES
100
AcDbLine
 62
7
  6
CONTINUOUS
 10
-63.2428815789
 20
-7.6904504403
 11
-63.2428815789
 21
7.698542513
  0
LINE
  5
4BB
100
AcDbEntity
  8
IMPORT_IGES
100
AcDbLine
 62
253
  6
CONTINUOUS
 10
-62.9439287744
 20
-7.6904504403
 11
-62.944349854
 21
7.9365499202
  0
LINE
  5
4BC
100
AcDbEntity
  8
IMPORT_IGES
100
AcDbLine
 62
253
  6
CONTINUOUS
 10
-62.9441628889
 20
-7.7676133444
 11
-62.9443127598
 21
-7.9499826116
  0
LINE
  5
4BD
100
AcDbEntity
  8
IMPORT_IGES
100
AcDbLine
 62
253
  6
CONTINUOUS
 10
-62.9439287744
 20
-7.6904504403
 11
-62.9441628889
 21
-7.7676133444
  0
LWPOLYLINE
  5
4BE
100
AcDbEntity
  8
IMPORT_IGES
100
AcDbPolyline
 62
253
  6
CONTINUOUS
 90
5
 70
0
 10
-62.944349854
 20
7.9365499202
 10
-62.9442497991
 20
7.9757036351
 10
-62.9441642224
 20
7.9883071094
 10
-62.9440568068
 20
7.995960346
 10
-62.9439294172
 20
7.9985406265
  0
LWPOLYLINE
  5
4BF
100
AcDbEntity
  8
IMPORT_IGES
100
AcDbPolyline
 62
253
  6
CONTINUOUS
 90
10
 70
0
 10
-57.3963464352
 20
10.5605829232
 10
-57.4106750183
 20
10.5450889606
 10
-57.4217799495
 20
10.5263758417
 10
-57.4294917144
 20
10.5047292183
 10
-57.4336925945
 20
10.4804795216
 10
-57.4343184643
 20
10.4539969179
 10
-57.43135977
 20
10.4256856588
 10
-57.4248616754
 20
10.3959779097
 10
-57.4149233725
 20
10.3653271531
 10
-57.4016965676
 20
10.3342012664
  0
LINE
  5
4C0
100
AcDbEntity
  8
IMPORT_IGES
100
AcDbLine
 62
7
  6
CONTINUOUS
 10
-55.4928815808
 20
12.2157697531
 11
-57.3963464351
 21
10.5605829232
  0
LWPOLYLINE
  5
4C1
100
AcDbEntity
  8
IMPORT_IGES
100
AcDbPolyline
 62
253
  6
CONTINUOUS
 90
13
 70
0
 10
-56.6687167123
 20
10.1509563059
 10
-56.6806373984
 20
10.114582754
 10
-56.6920055658
 20
10.078952607
 10
-56.7026438279
 20
10.0446341301
 10
-56.7123417219
 20
10.0123273536
 10
-56.721014841
 20
9.9823362436
 10
-56.7286508136
 20
9.9546901012
 10
-56.7351239597
 20
9.929780101
 10
-56.740224946
 20
9.9083340586
 10
-56.7438049245
 20
9.8909151621
 10
-56.7457686518
 20
9.8779260857
 10
-56.7460553033
 20
9.8696571769
 10
-56.7446262279
 20
9.8663513026
  0
LINE
  5
4C2
100
AcDbEntity
  8
IMPORT_IGES
100
AcDbLine
 62
253
  6
CONTINUOUS
 10
-56.6687356742
 20
10.8122172748
 11
-55.0546478339
 21
12.2157697531
  0
LINE
  5
4C3
100
AcDbEntity
  8
IMPORT_IGES
100
AcDbLine
 62
253
  6
CONTINUOUS
 10
-56.6687356742
 20
10.8122172748
 11
-56.7600282885
 21
10.7521398365
  0
LINE
  5
4C4
100
AcDbEntity
  8
IMPORT_IGES
100
AcDbLine
 62
253
  6
CONTINUOUS
 10
-57.3347025779
 20
10.3782662369
 11
-57.4017004233
 21
10.3342003085
  0
LINE
  5
4C5
100
AcDbEntity
  8
IMPORT_IGES
100
AcDbLine
 62
253
  6
CONTINUOUS
 10
-56.7600282885
 20
10.7521398365
 11
-57.3347025779
 21
10.3782662369
  0
LWPOLYLINE
  5
4C6
100
AcDbEntity
  8
IMPORT_IGES
100
AcDbPolyline
 62
253
  6
CONTINUOUS
 90
13
 70
0
 10
-57.4016965676
 20
10.3342012664
 10
-57.4065367458
 20
10.2961403283
 10
-57.4082755493
 20
10.2605111023
 10
-57.4070519832
 20
10.2275074185
 10
-57.4029698037
 20
10.1966425489
 10
-57.396038134
 20
10.1682626993
 10
-57.386941373
 20
10.1432859639
 10
-57.3761373961
 20
10.1209596895
 10
-57.3630604022
 20
10.1007584308
 10
-57.348154147
 20
10.0835892847
 10
-57.3319971805
 20
10.0695341975
 10
-57.3141396315
 20
10.0581210716
 10
-57.2943611506
 20
10.0495962771
  0
LINE
  5
4C7
100
AcDbEntity
  8
IMPORT_IGES
100
AcDbLine
 62
7
  6
CONTINUOUS
 10
-35.3542845131
 20
-11.0921624613
 11
-35.3262584016
 21
-11.084591577
  0
LINE
  5
4C8
100
AcDbEntity
  8
IMPORT_IGES
100
AcDbLine
 62
7
  6
CONTINUOUS
 10
-55.3428815789
 20
-9.3459539636
 11
-57.7087519198
 21
-8.0087229014
  0
LWPOLYLINE
  5
4C9
100
AcDbEntity
  8
IMPORT_IGES
100
AcDbPolyline
 62
253
  6
CONTINUOUS
 90
13
 70
0
 10
-56.8466115124
 20
11.0386132908
 10
-56.8464032665
 20
11.0356230916
 10
-56.843077733
 20
11.0291027821
 10
-56.8367253227
 20
11.0191982025
 10
-56.8275367294
 20
11.0061803232
 10
-56.8156637559
 20
10.9902462595
 10
-56.8010794812
 20
10.9713671755
 10
-56.7838099613
 20
10.9496030834
 10
-56.7641470145
 20
10.9253419943
 10
-56.7424471875
 20
10.8990317159
 10
-56.7190749243
 20
10.871120132
 10
-56.6943692457
 20
10.8420203392
 10
-56.6687351393
 20
10.8122166572
  0
LINE
  5
4CA
100
AcDbEntity
  8
IMPORT_IGES
100
AcDbLine
 62
253
  6
CONTINUOUS
 10
-56.6687356742
 20
10.8122172748
 11
-56.6687166698
 21
10.1509562917
  0
LWPOLYLINE
  5
4CB
100
AcDbEntity
  8
0
100
AcDbPolyline
 62
7
  6
CONTINUOUS
 90
10
 70
0
 43
0.3500000006
 10
-41.8250240936
 20
20.9657678833
 10
-40.9678816223
 20
21.8229103546
 10
-40.7535971375
 20
22.6800573578
 10
-40.7535971375
 20
23.5371998291
 10
-41.1821661072
 20
23.9657687988
 10
-41.8250240936
 20
23.9657687988
 10
-42.2535975952
 20
23.5371998291
 10
-42.2535975952
 20
22.6800573578
 10
-41.8250240936
 20
22.2514838562
 10
-40.8964549713
 20
22.2514838562
  0
LWPOLYLINE
  5
4CC
100
AcDbEntity
  8
IMPORT_IGES
100
AcDbPolyline
 62
253
  6
CONTINUOUS
 90
6
 70
0
 10
-35.0757921096
 20
-10.7622768341
 10
-35.1132060538
 20
-10.7715291085
 10
-35.1499090044
 20
-10.7844906298
 10
-35.1855959059
 20
-10.8010589505
 10
-35.2193515916
 20
-10.8209267284
 10
-35.2511235216
 20
-10.844018238
  0
LWPOLYLINE
  5
4CD
100
AcDbEntity
  8
IMPORT_IGES
100
AcDbPolyline
 62
7
  6
CONTINUOUS
 90
10
 70
0
 10
-34.4281356576
 20
-10.8124905058
 10
-34.3661991609
 20
-10.8059282351
 10
-34.3037895328
 20
-10.7926960511
 10
-34.241340311
 20
-10.7730830366
 10
-34.1795375694
 20
-10.7477155508
 10
-34.1184126578
 20
-10.7166949599
 10
-34.0581137327
 20
-10.6802115979
 10
-33.9994667777
 20
-10.6387041639
 10
-33.942740645
 20
-10.5923828401
 10
-33.8893810894
 20
-10.5424678299
  0
LWPOLYLINE
  5
4CE
100
AcDbEntity
  8
IMPORT_IGES
100
AcDbPolyline
 62
253
  6
CONTINUOUS
 90
3
 70
0
 10
-34.9979160738
 20
-10.7545926836
 10
-35.0373621163
 20
-10.7566313591
 10
-35.0757921096
 20
-10.7622768341
  0
LWPOLYLINE
  5
4CF
100
AcDbEntity
  8
IMPORT_IGES
100
AcDbPolyline
 62
7
  6
CONTINUOUS
 90
3
 70
0
 10
-35.3912693331
 20
-11.0959418257
 10
-35.3836181662
 20
-11.0957171453
 10
-35.3542845131
 20
-11.0921624613
  0
LINE
  5
4D0
100
AcDbEntity
  8
IMPORT_IGES
100
AcDbLine
 62
7
  6
CONTINUOUS
 10
-44.1928812873
 20
-11.2959539636
 11
-43.692884133
 21
-11.2959539636
  0
LINE
  5
4D1
100
AcDbEntity
  8
IMPORT_IGES
100
AcDbLine
 62
7
  6
CONTINUOUS
 10
-37.4928812873
 20
-11.2959539636
 11
-36.992884133
 21
-11.2959539636
  0
LINE
  5
4D2
100
AcDbEntity
  8
IMPORT_IGES
100
AcDbLine
 62
7
  6
CONTINUOUS
 10
-39.1060202468
 20
-11.2959539636
 11
-42.1420418424
 21
-11.2959539636
  0
LINE
  5
4D3
100
AcDbEntity
  8
IMPORT_IGES
100
AcDbLine
 62
253
  6
CONTINUOUS
 10
-55.5428815789
 20
-9.2329104854
 11
-55.5428815789
 21
-8.0162832458
  0
LINE
  5
4D4
100
AcDbEntity
  8
IMPORT_IGES
100
AcDbLine
 62
7
  6
CONTINUOUS
 10
-55.0428815789
 20
-8.0180285822
 11
-55.0428815789
 21
-9.3459539636
  0
LINE
  5
4D5
100
AcDbEntity
  8
IMPORT_IGES
100
AcDbLine
 62
7
  6
CONTINUOUS
 10
-54.9928815803
 20
11.0657697538
 11
-54.9928815803
 21
12.2157697531
  0
LWPOLYLINE
  5
4D6
100
AcDbEntity
  8
0
100
AcDbPolyline
 62
7
  6
CONTINUOUS
 90
10
 70
0
 43
0.3500000006
 10
-37.1107382355
 20
23.9657687988
 10
-37.7535962219
 20
23.3229108124
 10
-38.1821651917
 20
22.4657683411
 10
-38.1821651917
 20
21.3943413849
 10
-37.7535962219
 20
20.9657678833
 10
-37.1107382355
 20
20.9657678833
 10
-36.6821669998
 20
21.3943413849
 10
-36.6821669998
 20
22.2514838562
 10
-37.1107382355
 20
22.6800573578
 10
-38.0393118896
 20
22.6800573578
  0
LINE
  5
4D7
100
AcDbEntity
  8
IMPORT_IGES
100
AcDbLine
 62
7
  6
CONTINUOUS
 10
-34.4550800626
 20
-10.8131962483
 11
-34.4281356576
 21
-10.8124905058
  0
LINE
  5
4D8
100
AcDbEntity
  8
IMPORT_IGES
100
AcDbLine
 62
253
  6
CONTINUOUS
 10
-35.0006898561
 20
-10.8959547286
 11
-35.1625094624
 21
-10.896962747
  0
LINE
  5
4D9
100
AcDbEntity
  8
IMPORT_IGES
100
AcDbLine
 62
7
  6
CONTINUOUS
 10
-35.3934286598
 20
-11.0959513728
 11
-35.391273508
 21
-11.0959393514
  0
LINE
  5
4DA
100
AcDbEntity
  8
IMPORT_IGES
100
AcDbLine
 62
7
  6
CONTINUOUS
 10
-46.3359825621
 20
-10.7976639198
 11
-46.6259296778
 21
-10.79833898
  0
LINE
  5
4DB
100
AcDbEntity
  8
IMPORT_IGES
100
AcDbLine
 62
253
  6
CONTINUOUS
 10
-44.2928815789
 20
-11.1959539636
 11
-43.592881579
 21
-11.1959539636
  0
LINE
  5
4DC
100
AcDbEntity
  8
IMPORT_IGES
100
AcDbLine
 62
253
  6
CONTINUOUS
 10
-37.5928815789
 20
-11.1959539636
 11
-36.892881579
 21
-11.1959539636
  0
LINE
  5
4DD
100
AcDbEntity
  8
IMPORT_IGES
100
AcDbLine
 62
7
  6
CONTINUOUS
 10
-34.6499883609
 20
-11.0959539636
 11
-45.6367488263
 21
-11.0959539636
  0
LINE
  5
4DE
100
AcDbEntity
  8
IMPORT_IGES
100
AcDbLine
 62
253
  6
CONTINUOUS
 10
-35.372681924
 20
-11.0080858203
 11
-45.8417740795
 21
-11.0080858203
  0
LINE
  5
4DF
100
AcDbEntity
  8
IMPORT_IGES
100
AcDbLine
 62
253
  6
CONTINUOUS
 10
-34.6499883601
 20
-10.8959539636
 11
-35.0006898604
 21
-10.8959539972
  0
LINE
  5
4E0
100
AcDbEntity
  8
IMPORT_IGES
100
AcDbLine
 62
7
  6
CONTINUOUS
 10
-34.45507369
 20
-10.8131713278
 11
-34.9979239633
 21
-10.8131713278
  0
LINE
  5
4E1
100
AcDbEntity
  8
IMPORT_IGES
100
AcDbLine
 62
253
  6
CONTINUOUS
 10
-34.4550736895
 20
-10.7545926838
 11
-34.9979160738
 21
-10.7545926836
  0
LINE
  5
4E2
100
AcDbEntity
  8
IMPORT_IGES
100
AcDbLine
 62
253
  6
CONTINUOUS
 10
-33.63082684
 20
-9.9303298213
 11
-47.9845221919
 21
-9.9303305248
  0
LWPOLYLINE
  5
4E3
100
AcDbEntity
  8
IMPORT_IGES
100
AcDbPolyline
 62
7
  6
CONTINUOUS
 90
16
 70
0
 10
-46.6259296778
 20
-10.7990140403
 10
-46.6698592626
 20
-10.7978574231
 10
-46.715350999
 20
-10.7943441999
 10
-46.7624048869
 20
-10.7884743706
 10
-46.8110158384
 20
-10.7802990684
 10
-46.8611889415
 20
-10.7697671601
 10
-46.9129394596
 20
-10.7567252466
 10
-46.9662794245
 20
-10.7412255733
 10
-47.0211968045
 20
-10.7232158947
 10
-47.0776707671
 20
-10.7023860753
 10
-47.1357291141
 20
-10.6787959283
 10
-47.1953440438
 20
-10.6523856405
 10
-47.256411319
 20
-10.6226656367
 10
-47.318896194
 20
-10.5894727251
 10
-47.3828334146
 20
-10.5529700974
 10
-47.4482229807
 20
-10.5131577538
  0
LWPOLYLINE
  5
4E4
100
AcDbEntity
  8
IMPORT_IGES
100
AcDbPolyline
 62
253
  6
CONTINUOUS
 90
10
 70
0
 10
-47.9845221901
 20
-9.7234342187
 10
-48.0218996351
 20
-9.7206816615
 10
-48.0591740176
 20
-9.7152530174
 10
-48.0963453376
 20
-9.7071482864
 10
-48.1334355406
 20
-9.6961919753
 10
-48.1704226811
 20
-9.6825595773
 10
-48.2072409228
 20
-9.666777572
 10
-48.24386832
 20
-9.6490214525
 10
-48.2803268183
 20
-9.6291157256
 10
-48.3166164177
 20
-9.6070603914
  0
LWPOLYLINE
  5
4E5
100
AcDbEntity
  8
IMPORT_IGES
100
AcDbPolyline
 62
253
  6
CONTINUOUS
 90
8
 70
0
 10
-49.7428815789
 20
-8.8816911758
 10
-49.7403222921
 20
-8.8823736122
 10
-49.7326836552
 20
-8.8830446947
 10
-49.7200895406
 20
-8.8836929406
 10
-49.702746516
 20
-8.8843073034
 10
-49.68094653
 20
-8.8848771401
 10
-49.6550672806
 20
-8.8853924534
 10
-49.5929053971
 20
-8.8862252039
  0
LINE
  5
4E6
100
AcDbEntity
  8
IMPORT_IGES
100
AcDbLine
 62
7
  6
CONTINUOUS
 10
-46.3359825621
 20
-10.7976639198
 11
-45.6367488263
 21
-11.0959539636
  0
LINE
  5
4E7
100
AcDbEntity
  8
IMPORT_IGES
100
AcDbLine
 62
7
  6
CONTINUOUS
 10
-51.518336793
 20
-8.0303316144
 11
-49.6595180373
 21
-9.088887766
  0
LINE
  5
4E8
100
AcDbEntity
  8
IMPORT_IGES
100
AcDbLine
 62
253
  6
CONTINUOUS
 10
-49.7428815789
 20
-8.6967750675
 11
-51.4394642782
 21
-7.7306087602
  0
LINE
  5
4E9
100
AcDbEntity
  8
IMPORT_IGES
100
AcDbLine
 62
253
  6
CONTINUOUS
 10
-46.6259296778
 20
-10.79833898
 11
-47.9845221919
 21
-9.9303305248
  0
LINE
  5
4EA
100
AcDbEntity
  8
IMPORT_IGES
100
AcDbLine
 62
7
  6
CONTINUOUS
 10
-49.6044900179
 20
-9.1344414725
 11
-47.4482229807
 21
-10.5131577538
  0
LINE
  5
4EB
100
AcDbEntity
  8
IMPORT_IGES
100
AcDbLine
 62
253
  6
CONTINUOUS
 10
-48.3166164177
 20
-9.6070603914
 11
-49.4428815789
 21
-8.8869268977
  0
LINE
  5
4EC
100
AcDbEntity
  8
0
100
AcDbLine
 62
7
  6
CONTINUOUS
 10
-54.2635935732
 20
11.0657697538
 11
-54.2635935732
 21
11.1657697538
  0
LINE
  5
4ED
100
AcDbEntity
  8
0
100
AcDbLine
 62
7
  6
CONTINUOUS
 10
-54.2399111314
 20
11.0657697538
 11
-54.2399111314
 21
11.1657697538
  0
LINE
  5
4EE
100
AcDbEntity
  8
0
100
AcDbLine
 62
7
  6
CONTINUOUS
 10
-54.2311104649
 20
11.0657697538
 11
-54.2311104649
 21
11.1657697538
  0
LINE
  5
4EF
100
AcDbEntity
  8
0
100
AcDbLine
 62
7
  6
CONTINUOUS
 10
-54.1781435852
 20
11.0657697538
 11
-54.1781435852
 21
11.1657697538
  0
LINE
  5
4F0
100
AcDbEntity
  8
0
100
AcDbLine
 62
7
  6
CONTINUOUS
 10
-54.1544212948
 20
11.0657697538
 11
-54.1544212948
 21
11.1657697538
  0
LINE
  5
4F1
100
AcDbEntity
  8
0
100
AcDbLine
 62
253
  6
CONTINUOUS
 10
-54.1447958328
 20
11.0657697538
 11
-54.1447958328
 21
11.1657697538
  0
LINE
  5
4F2
100
AcDbEntity
  8
0
100
AcDbLine
 62
253
  6
CONTINUOUS
 10
-54.0692067435
 20
11.0657697538
 11
-54.0692067435
 21
11.1657697538
  0
LINE
  5
4F3
100
AcDbEntity
  8
0
100
AcDbLine
 62
7
  6
CONTINUOUS
 10
-53.9408769077
 20
11.0657697538
 11
-53.9408769077
 21
11.1657697538
  0
LINE
  5
4F4
100
AcDbEntity
  8
0
100
AcDbLine
 62
7
  6
CONTINUOUS
 10
-53.7786320601
 20
11.0657697538
 11
-53.7786320601
 21
11.1657697538
  0
LINE
  5
4F5
100
AcDbEntity
  8
0
100
AcDbLine
 62
7
  6
CONTINUOUS
 10
-53.7579267058
 20
11.0657697538
 11
-53.7579267058
 21
11.1657697538
  0
LINE
  5
4F6
100
AcDbEntity
  8
0
100
AcDbLine
 62
253
  6
CONTINUOUS
 10
-53.7197282034
 20
11.0657697538
 11
-53.7197282034
 21
11.1657697538
  0
LINE
  5
4F7
100
AcDbEntity
  8
0
100
AcDbLine
 62
7
  6
CONTINUOUS
 10
-53.5819579677
 20
11.0657697538
 11
-53.5819579677
 21
11.1657697538
  0
LINE
  5
4F8
100
AcDbEntity
  8
IMPORT_IGES
100
AcDbLine
 62
7
  6
CONTINUOUS
 10
-53.2928815789
 20
4.7571750568
 11
-53.2928815789
 21
-4.749082984
  0
LINE
  5
4F9
100
AcDbEntity
  8
ASSI
100
AcDbLine
 62
7
  6
CONTINUOUS
 10
-53.2928815789
 20
4.7571750568
 11
-53.2928815789
 21
-4.749082984
  0
LINE
  5
4FA
100
AcDbEntity
  8
0
100
AcDbLine
 62
253
  6
CONTINUOUS
 10
-53.2855457837
 20
11.0657697538
 11
-53.2855457837
 21
11.1657697538
  0
LINE
  5
4FB
100
AcDbEntity
  8
0
100
AcDbLine
 62
253
  6
CONTINUOUS
 10
-53.202972684
 20
11.0657697538
 11
-53.202972684
 21
11.1657697538
  0
LINE
  5
4FC
100
AcDbEntity
  8
0
100
AcDbLine
 62
7
  6
CONTINUOUS
 10
-53.1353094323
 20
11.0657697538
 11
-53.1353094323
 21
11.1657697538
  0
LINE
  5
4FD
100
AcDbEntity
  8
0
100
AcDbLine
 62
7
  6
CONTINUOUS
 10
-53.1146040821
 20
11.0657697538
 11
-53.1146040821
 21
11.1657697538
  0
LINE
  5
4FE
100
AcDbEntity
  8
ASSI
100
AcDbLine
 62
253
  6
CONTINUOUS
 10
-53.0928815789
 20
-4.749082984
 11
-53.0928815789
 21
4.7571750568
  0
LWPOLYLINE
  5
4FF
100
AcDbEntity
  8
0
100
AcDbPolyline
 62
7
  6
CONTINUOUS
 90
3
 70
0
 43
0.3500000006
 10
-43.414311264
 20
31.2514820709
 10
-43.485737915
 20
31.0371975861
 10
-43.6285957489
 20
30.7514819183
  0
LWPOLYLINE
  5
500
100
AcDbEntity
  8
IMPORT_IGES
100
AcDbPolyline
 62
7
  6
CONTINUOUS
 90
10
 70
0
 10
-49.3843007334
 20
8.293594132
 10
-49.3960414906
 20
8.2804267537
 10
-49.4065088006
 20
8.2665372525
 10
-49.4157026634
 20
8.2519256285
 10
-49.4236690846
 20
8.2364776713
 10
-49.4303620585
 20
8.2203075913
 10
-49.4356435683
 20
8.2037580189
 10
-49.4394676084
 20
8.1869431641
 10
-49.4418801844
 20
8.1697488168
 10
-49.4428812962
 20
8.1521749771
  0
LINE
  5
501
100
AcDbEntity
  8
IMPORT_IGES
100
AcDbLine
 62
7
  6
CONTINUOUS
 10
-48.4393126733
 20
9.657614942
 11
-50.0533902794
 21
8.0435373359
  0
LINE
  5
502
100
AcDbEntity
  8
IMPORT_IGES
100
AcDbLine
 62
253
  6
CONTINUOUS
 10
-49.3843007334
 20
8.293594132
 11
-48.2271949569
 21
9.4507019183
  0
LINE
  5
503
100
AcDbEntity
  8
IMPORT_IGES
100
AcDbLine
 62
253
  6
CONTINUOUS
 10
-49.9297399556
 20
7.7439707864
 11
-49.7428815789
 21
7.9308291631
  0
LINE
  5
504
100
AcDbEntity
  8
IMPORT_IGES
100
AcDbLine
 62
7
  6
CONTINUOUS
 10
-52.0817709089
 20
5.8109729855
 11
-53.2168732425
 21
4.9141020059
  0
LINE
  5
505
100
AcDbEntity
  8
IMPORT_IGES
100
AcDbLine
 62
253
  6
CONTINUOUS
 10
-53.0928815789
 20
4.7571750568
 11
-51.9577792454
 21
5.6540460364
  0
LWPOLYLINE
  5
506
100
AcDbEntity
  8
IMPORT_IGES
100
AcDbPolyline
 62
7
  6
CONTINUOUS
 90
3
 70
0
 10
-43.4591930058
 20
10.7914890062
 10
-43.4467173679
 20
10.7968961166
 10
-43.4335185042
 20
10.8008663967
  0
LWPOLYLINE
  5
507
100
AcDbEntity
  8
IMPORT_IGES
100
AcDbPolyline
 62
253
  6
CONTINUOUS
 90
13
 70
0
 10
-47.9845221919
 20
-9.9303305249
 10
-48.026802963
 20
-9.9413418473
 10
-48.0685863043
 20
-9.9489740274
 10
-48.1097268644
 20
-9.9533465248
 10
-48.1493640231
 20
-9.9545501606
 10
-48.1881865616
 20
-9.9529003583
 10
-48.2283028995
 20
-9.9484645304
 10
-48.2706516542
 20
-9.940783419
 10
-48.3138497311
 20
-9.9296972567
 10
-48.3564577203
 20
-9.9154917921
 10
-48.3979322369
 20
-9.8983282131
 10
-48.4385416793
 20
-9.8780379726
 10
-48.4781486469
 20
-9.8546236911
  0
LINE
  5
508
100
AcDbEntity
  8
IMPORT_IGES
100
AcDbLine
 62
253
  6
CONTINUOUS
 10
-47.9845221901
 20
-9.7234342187
 11
-33.6308115371
 21
-9.7234342187
  0
LINE
  5
509
100
AcDbEntity
  8
IMPORT_IGES
100
AcDbLine
 62
7
  6
CONTINUOUS
 10
-55.3428815789
 20
-9.3459539636
 11
-55.0428815789
 21
-9.3459539636
  0
LINE
  5
50A
100
AcDbEntity
  8
IMPORT_IGES
100
AcDbLine
 62
7
  6
CONTINUOUS
 10
-29.5928815789
 20
-8.3914561352
 11
-30.3728330146
 21
-8.3914561352
  0
LINE
  5
50B
100
AcDbEntity
  8
IMPORT_IGES
100
AcDbLine
 62
253
  6
CONTINUOUS
 10
-49.52052629
 20
-8.8867484995
 11
-49.4428815789
 21
-8.8869268977
  0
LINE
  5
50C
100
AcDbEntity
  8
IMPORT_IGES
100
AcDbLine
 62
253
  6
CONTINUOUS
 10
-49.5929053971
 20
-8.8862252039
 11
-49.52052629
 21
-8.8867484995
  0
LWPOLYLINE
  5
50D
100
AcDbEntity
  8
IMPORT_IGES
100
AcDbPolyline
 62
253
  6
CONTINUOUS
 90
10
 70
0
 10
-35.3726821986
 20
-11.0080875943
 10
-35.3439639134
 20
-11.0122550727
 10
-35.3151883933
 20
-11.0131418017
 10
-35.2874585417
 20
-11.0105290294
 10
-35.2621704671
 20
-11.0045719476
 10
-35.2398313252
 20
-10.9955813383
 10
-35.2202826348
 20
-10.9835313127
 10
-35.2042486074
 20
-10.9687854294
 10
-35.1922154165
 20
-10.9518913185
 10
-35.1869914835
 20
-10.9409489247
  0
LINE
  5
50E
100
AcDbEntity
  8
IMPORT_IGES
100
AcDbLine
 62
7
  6
CONTINUOUS
 10
-53.2168732425
 20
-4.9060099332
 11
-52.0817709089
 21
-5.8028809128
  0
LINE
  5
50F
100
AcDbEntity
  8
IMPORT_IGES
100
AcDbLine
 62
253
  6
CONTINUOUS
 10
-51.9577792454
 20
-5.6459539636
 11
-53.0928815789
 21
-4.749082984
  0
LINE
  5
510
100
AcDbEntity
  8
0
100
AcDbLine
 62
253
  6
CONTINUOUS
 10
-53.0096978269
 20
11.0657697538
 11
-53.0096978269
 21
11.1657697538
  0
LINE
  5
511
100
AcDbEntity
  8
0
100
AcDbLine
 62
7
  6
CONTINUOUS
 10
-52.9866742577
 20
11.0657697538
 11
-52.9866742577
 21
11.1657697538
  0
LINE
  5
512
100
AcDbEntity
  8
0
100
AcDbLine
 62
7
  6
CONTINUOUS
 10
-52.7093898483
 20
11.0657697538
 11
-52.7093898483
 21
11.1657697538
  0
LINE
  5
513
100
AcDbEntity
  8
0
100
AcDbLine
 62
7
  6
CONTINUOUS
 10
-52.6975350186
 20
11.0657697538
 11
-52.6975350186
 21
11.1657697538
  0
LINE
  5
514
100
AcDbEntity
  8
0
100
AcDbLine
 62
7
  6
CONTINUOUS
 10
-52.5010853426
 20
11.0657697538
 11
-52.5010853426
 21
11.1657697538
  0
LINE
  5
515
100
AcDbEntity
  8
0
100
AcDbLine
 62
253
  6
CONTINUOUS
 10
-52.4508456428
 20
11.0657697538
 11
-52.4508456428
 21
11.1657697538
  0
LINE
  5
516
100
AcDbEntity
  8
0
100
AcDbLine
 62
7
  6
CONTINUOUS
 10
-52.3566487715
 20
11.0657697538
 11
-52.3566487715
 21
11.1657697538
  0
LINE
  5
517
100
AcDbEntity
  8
0
100
AcDbLine
 62
7
  6
CONTINUOUS
 10
-52.3320121139
 20
11.0657697538
 11
-52.3320121139
 21
11.1657697538
  0
LINE
  5
518
100
AcDbEntity
  8
0
100
AcDbLine
 62
7
  6
CONTINUOUS
 10
-52.2889903743
 20
11.0657697538
 11
-52.2889903743
 21
11.1657697538
  0
LINE
  5
519
100
AcDbEntity
  8
IMPORT_IGES
100
AcDbLine
 62
253
  6
CONTINUOUS
 10
-51.9577792454
 20
5.8540460364
 11
-51.9577792454
 21
5.6540460364
  0
LINE
  5
51A
100
AcDbEntity
  8
IMPORT_IGES
100
AcDbLine
 62
253
  6
CONTINUOUS
 10
-51.9577792454
 20
-5.6459539636
 11
-51.9577792454
 21
-5.8459539636
  0
LINE
  5
51B
100
AcDbEntity
  8
0
100
AcDbLine
 62
7
  6
CONTINUOUS
 10
-51.6905532702
 20
11.0657697538
 11
-51.6905532702
 21
11.1657697538
  0
LINE
  5
51C
100
AcDbEntity
  8
0
100
AcDbLine
 62
7
  6
CONTINUOUS
 10
-51.6071212544
 20
11.0657697538
 11
-51.6071212544
 21
11.1657697538
  0
LINE
  5
51D
100
AcDbEntity
  8
0
100
AcDbLine
 62
7
  6
CONTINUOUS
 10
-51.5890305897
 20
11.0657697538
 11
-51.5890305897
 21
11.1657697538
  0
LWPOLYLINE
  5
51E
100
AcDbEntity
  8
IMPORT_IGES
100
AcDbPolyline
 62
253
  6
CONTINUOUS
 90
3
 70
0
 10
-43.4970680662
 20
10.7485694211
 10
-43.5065721015
 20
10.7408709248
 10
-43.5147092211
 20
10.7320155454
  0
LWPOLYLINE
  5
51F
100
AcDbEntity
  8
IMPORT_IGES
100
AcDbPolyline
 62
253
  6
CONTINUOUS
 90
7
 70
0
 10
-31.5340105839
 20
-7.8926054471
 10
-31.5077160985
 20
-7.8920980732
 10
-31.4852038014
 20
-7.8915283938
 10
-31.467085047
 20
-7.8909074728
 10
-31.4537938114
 20
-7.8902464535
 10
-31.4456406858
 20
-7.8895556402
 10
-31.4428815789
 20
-7.8888471821
  0
LINE
  5
520
100
AcDbEntity
  8
IMPORT_IGES
100
AcDbLine
 62
253
  6
CONTINUOUS
 10
-31.5951359878
 20
-7.8934039389
 11
-31.5340105839
 21
-7.8926054471
  0
LINE
  5
521
100
AcDbEntity
  8
IMPORT_IGES
100
AcDbLine
 62
253
  6
CONTINUOUS
 10
-31.6660713157
 20
-7.8939083848
 11
-31.5951359878
 21
-7.8934039389
  0
LINE
  5
522
100
AcDbEntity
  8
IMPORT_IGES
100
AcDbLine
 62
253
  6
CONTINUOUS
 10
-31.7428815789
 20
-7.8940829034
 11
-31.6660713157
 21
-7.8939083848
  0
LINE
  5
523
100
AcDbEntity
  8
IMPORT_IGES
100
AcDbLine
 62
7
  6
CONTINUOUS
 10
-26.2428815789
 20
-7.6270535376
 11
-25.642881579
 21
-7.6270535376
  0
LINE
  5
524
100
AcDbEntity
  8
IMPORT_IGES
100
AcDbLine
 62
7
  6
CONTINUOUS
 10
-62.9439287744
 20
-7.9904486126
 11
-51.518336793
 21
-8.0303316144
  0
LINE
  5
525
100
AcDbEntity
  8
IMPORT_IGES
100
AcDbLine
 62
253
  6
CONTINUOUS
 10
-51.4394642782
 20
-7.7306087602
 11
-63.2428815789
 21
-7.6904504403
  0
LWPOLYLINE
  5
526
100
AcDbEntity
  8
IMPORT_IGES
100
AcDbPolyline
 62
253
  6
CONTINUOUS
 90
10
 70
0
 10
-33.6308212678
 20
-9.9303319039
 10
-33.5786354007
 20
-9.9404129442
 10
-33.5234604015
 20
-9.9449332832
 10
-33.4658979677
 20
-9.943228578
 10
-33.4057885278
 20
-9.9343202311
 10
-33.344865394
 20
-9.9177657858
 10
-33.2864235143
 20
-9.8943521872
 10
-33.2317829649
 20
-9.8647082665
 10
-33.1806062268
 20
-9.8286331377
 10
-33.1333210618
 20
-9.7863934465
  0
LINE
  5
527
100
AcDbEntity
  8
0
100
AcDbLine
 62
7
  6
CONTINUOUS
 10
-51.517792625
 20
11.0657697538
 11
-51.517792625
 21
11.1657697538
  0
LINE
  5
528
100
AcDbEntity
  8
0
100
AcDbLine
 62
7
  6
CONTINUOUS
 10
-51.4565826483
 20
11.0657697538
 11
-51.4565826483
 21
11.1657697538
  0
LINE
  5
529
100
AcDbEntity
  8
0
100
AcDbLine
 62
7
  6
CONTINUOUS
 10
-51.4019324804
 20
11.1657697538
 11
-51.4019324804
 21
11.0657697538
  0
LINE
  5
52A
100
AcDbEntity
  8
0
100
AcDbLine
 62
7
  6
CONTINUOUS
 10
-51.3932100551
 20
11.0657697538
 11
-51.3932100551
 21
11.1657697538
  0
LINE
  5
52B
100
AcDbEntity
  8
0
100
AcDbLine
 62
7
  6
CONTINUOUS
 10
-51.3311602452
 20
11.0657697538
 11
-51.3311602452
 21
11.1657697538
  0
LINE
  5
52C
100
AcDbEntity
  8
0
100
AcDbLine
 62
7
  6
CONTINUOUS
 10
-51.3031187996
 20
11.0657697538
 11
-51.3031187996
 21
11.1657697538
  0
LINE
  5
52D
100
AcDbEntity
  8
0
100
AcDbLine
 62
253
  6
CONTINUOUS
 10
-51.2944633838
 20
11.0657697538
 11
-51.2944633838
 21
11.1657697538
  0
LINE
  5
52E
100
AcDbEntity
  8
0
100
AcDbLine
 62
253
  6
CONTINUOUS
 10
-51.2747951919
 20
11.0657697538
 11
-51.2747951919
 21
11.1657697538
  0
LINE
  5
52F
100
AcDbEntity
  8
0
100
AcDbLine
 62
253
  6
CONTINUOUS
 10
-51.2130473316
 20
11.0657697538
 11
-51.2130473316
 21
11.1657697538
  0
LINE
  5
530
100
AcDbEntity
  8
0
100
AcDbLine
 62
253
  6
CONTINUOUS
 10
-51.1035288639
 20
11.0657697538
 11
-51.1035288639
 21
11.1657697538
  0
LINE
  5
531
100
AcDbEntity
  8
0
100
AcDbLine
 62
253
  6
CONTINUOUS
 10
-50.9357511524
 20
11.0657697538
 11
-50.9357511524
 21
11.1657697538
  0
LINE
  5
532
100
AcDbEntity
  8
0
100
AcDbLine
 62
7
  6
CONTINUOUS
 10
-50.8808876759
 20
11.0657697538
 11
-50.8808876759
 21
11.1657697538
  0
LINE
  5
533
100
AcDbEntity
  8
0
100
AcDbLine
 62
7
  6
CONTINUOUS
 10
-50.8507102352
 20
11.0657697538
 11
-50.8507102352
 21
11.1657697538
  0
LINE
  5
534
100
AcDbEntity
  8
0
100
AcDbLine
 62
7
  6
CONTINUOUS
 10
-50.7883971933
 20
11.0657697538
 11
-50.7883971933
 21
11.1657697538
  0
LINE
  5
535
100
AcDbEntity
  8
0
100
AcDbLine
 62
7
  6
CONTINUOUS
 10
-50.7629407862
 20
11.0657697538
 11
-50.7629407862
 21
11.1657697538
  0
LINE
  5
536
100
AcDbEntity
  8
0
100
AcDbLine
 62
253
  6
CONTINUOUS
 10
-50.6707604515
 20
11.0657697538
 11
-50.6707604515
 21
11.1657697538
  0
LINE
  5
537
100
AcDbEntity
  8
0
100
AcDbLine
 62
7
  6
CONTINUOUS
 10
-50.6048728866
 20
11.0657697538
 11
-50.6048728866
 21
11.1657697538
  0
LINE
  5
538
100
AcDbEntity
  8
IMPORT_IGES
100
AcDbLine
 62
7
  6
CONTINUOUS
 10
-50.5428815789
 20
-2.3459539636
 11
-50.5428815789
 21
2.3540460364
  0
LINE
  5
539
100
AcDbEntity
  8
0
100
AcDbLine
 62
7
  6
CONTINUOUS
 10
-50.4429065961
 20
11.0657697538
 11
-50.4429065961
 21
11.1657697538
  0
LINE
  5
53A
100
AcDbEntity
  8
0
100
AcDbLine
 62
7
  6
CONTINUOUS
 10
-50.4323761201
 20
11.0657697538
 11
-50.4323761201
 21
11.1657697538
  0
LINE
  5
53B
100
AcDbEntity
  8
IMPORT_IGES
100
AcDbLine
 62
7
  6
CONTINUOUS
 10
-50.3928815789
 20
2.2564225326
 11
-50.3928815789
 21
-2.3248830259
  0
LINE
  5
53C
100
AcDbEntity
  8
IMPORT_IGES
100
AcDbLine
 62
253
  6
CONTINUOUS
 10
-50.2328815789
 20
-2.3276758362
 11
-50.2328815789
 21
2.259215343
  0
LINE
  5
53D
100
AcDbEntity
  8
0
100
AcDbLine
 62
7
  6
CONTINUOUS
 10
-50.1458647994
 20
11.0657697538
 11
-50.1458647994
 21
11.1657697538
  0
LWPOLYLINE
  5
53E
100
AcDbEntity
  8
IMPORT_IGES
100
AcDbPolyline
 62
253
  6
CONTINUOUS
 90
5
 70
0
 10
-49.5772227113
 20
3.4276483847
 10
-49.5860652751
 20
3.4122928009
 10
-49.5924266523
 20
3.4010355438
 10
-49.5961753638
 20
3.3941073603
 10
-49.5972303056
 20
3.3916552724
  0
LINE
  5
53F
100
AcDbEntity
  8
IMPORT_IGES
100
AcDbLine
 62
253
  6
CONTINUOUS
 10
-49.5527727581
 20
3.4694839859
 11
-49.5772227113
 21
3.4276483847
  0
LINE
  5
540
100
AcDbEntity
  8
IMPORT_IGES
100
AcDbLine
 62
253
  6
CONTINUOUS
 10
-49.5025522011
 20
3.5543111394
 11
-49.5527727581
 21
3.4694839859
  0
LINE
  5
541
100
AcDbEntity
  8
IMPORT_IGES
100
AcDbLine
 62
253
  6
CONTINUOUS
 10
-49.4428815789
 20
3.654138872
 11
-49.5025522011
 21
3.5543111394
  0
LWPOLYLINE
  5
542
100
AcDbEntity
  8
IMPORT_IGES
100
AcDbPolyline
 62
253
  6
CONTINUOUS
 90
8
 70
0
 10
-43.4063992507
 20
10.8040460363
 10
-43.4068092362
 20
10.8035395122
 10
-43.4075802847
 20
10.8020209745
 10
-43.4087123962
 20
10.7994932088
 10
-43.4102084827
 20
10.7959601121
 10
-43.4120656323
 20
10.7914325328
 10
-43.4142751095
 20
10.7859339342
 10
-43.4230087715
 20
10.7638569031
  0
LWPOLYLINE
  5
543
100
AcDbEntity
  8
IMPORT_IGES
100
AcDbPolyline
 62
7
  6
CONTINUOUS
 90
4
 70
0
 10
-43.4917050525
 20
10.7672468693
 10
-43.4817470877
 20
10.7766372462
 10
-43.4709656516
 20
10.784670335
 10
-43.4594872403
 20
10.7913401959
  0
LWPOLYLINE
  5
544
100
AcDbEntity
  8
IMPORT_IGES
100
AcDbPolyline
 62
253
  6
CONTINUOUS
 90
10
 70
0
 10
-34.0586691391
 20
9.7638536575
 10
-34.0366472462
 20
9.7701495419
 10
-34.014632344
 20
9.7744002194
 10
-33.9928040991
 20
9.7765244908
 10
-33.9712536
 20
9.7764527701
 10
-33.9502701077
 20
9.7741203369
 10
-33.9303030597
 20
9.7695694235
 10
-33.911579425
 20
9.7629114803
 10
-33.8941393539
 20
9.7542250487
 10
-33.87809834
 20
9.7436168738
  0
LINE
  5
545
100
AcDbEntity
  8
IMPORT_IGES
100
AcDbLine
 62
7
  6
CONTINUOUS
 10
-29.4777885336
 20
-6.5470547353
 11
-29.5535506239
 21
-6.5477484366
  0
LINE
  5
546
100
AcDbEntity
  8
IMPORT_IGES
100
AcDbLine
 62
253
  6
CONTINUOUS
 10
-25.6428815789
 20
-6.7469886607
 11
-26.2428815789
 21
-6.7469886607
  0
LINE
  5
547
100
AcDbEntity
  8
IMPORT_IGES
100
AcDbLine
 62
7
  6
CONTINUOUS
 10
-31.3731397254
 20
-6.547852891
 11
-29.5535506239
 21
-6.5477484366
  0
LINE
  5
548
100
AcDbEntity
  8
IMPORT_IGES
100
AcDbLine
 62
7
  6
CONTINUOUS
 10
-29.2928815789
 20
-6.2962517113
 11
-26.6428815789
 21
-6.2962517113
  0
LINE
  5
549
100
AcDbEntity
  8
IMPORT_IGES
100
AcDbLine
 62
7
  6
CONTINUOUS
 10
-51.9577792454
 20
-5.8459539636
 11
-49.7928815789
 21
-5.8459539636
  0
LINE
  5
54A
100
AcDbEntity
  8
IMPORT_IGES
100
AcDbLine
 62
253
  6
CONTINUOUS
 10
-49.7928815789
 20
-5.6459539636
 11
-51.9577792454
 21
-5.6459539636
  0
LINE
  5
54B
100
AcDbEntity
  8
IMPORT_IGES
100
AcDbLine
 62
253
  6
CONTINUOUS
 10
-26.6428815789
 20
-5.285128227
 11
-29.2928815789
 21
-5.2851282374
  0
LWPOLYLINE
  5
54C
100
AcDbEntity
  8
IMPORT_IGES
100
AcDbPolyline
 62
253
  6
CONTINUOUS
 90
13
 70
0
 10
-26.242881579
 20
-6.7469886607
 10
-26.2689868174
 20
-6.7455617491
 10
-26.294645388
 20
-6.7413054291
 10
-26.3194182654
 20
-6.7342925275
 10
-26.3428815789
 20
-6.7246430372
 10
-26.3646338647
 20
-6.7125220633
 10
-26.3843029352
 20
-6.6981369993
 10
-26.401552247
 20
-6.6817339776
 10
-26.4160866597
 20
-6.6635936584
 10
-26.4276574854
 20
-6.6440264275
 10
-26.4360667442
 20
-6.6233670858
 10
-26.4411705512
 20
-6.6019691202
 10
-26.4428815711
 20
-6.5802453288
  0
LINE
  5
54D
100
AcDbEntity
  8
IMPORT_IGES
100
AcDbLine
 62
253
  6
CONTINUOUS
 10
-49.5184722397
 20
-3.4877250702
 11
-49.442881579
 21
-3.6195267939
  0
LWPOLYLINE
  5
54E
100
AcDbEntity
  8
IMPORT_IGES
100
AcDbPolyline
 62
253
  6
CONTINUOUS
 90
7
 70
0
 10
-49.5927100703
 20
-3.3543845053
 10
-49.5917059068
 20
-3.3568152988
 10
-49.5881122475
 20
-3.363726442
 10
-49.5819877056
 20
-3.3750044468
 10
-49.5734338259
 20
-3.3904618134
 10
-49.5625968744
 20
-3.4098338644
 10
-49.5184722397
 20
-3.4877250702
  0
LINE
  5
54F
100
AcDbEntity
  8
0
100
AcDbLine
 62
253
  6
CONTINUOUS
 10
-50.0730064094
 20
11.0657697538
 11
-50.0730064094
 21
11.1657697538
  0
LINE
  5
550
100
AcDbEntity
  8
0
100
AcDbLine
 62
7
  6
CONTINUOUS
 10
-49.8281809012
 20
11.0657697538
 11
-49.8281809012
 21
11.1657697538
  0
LINE
  5
551
100
AcDbEntity
  8
0
100
AcDbLine
 62
7
  6
CONTINUOUS
 10
-49.8124269402
 20
11.0657697538
 11
-49.8124269402
 21
11.1657697538
  0
LINE
  5
552
100
AcDbEntity
  8
IMPORT_IGES
100
AcDbLine
 62
7
  6
CONTINUOUS
 10
-49.7928815789
 20
-5.8459539636
 11
-49.7928815789
 21
-3.4219334324
  0
LINE
  5
553
100
AcDbEntity
  8
IMPORT_IGES
100
AcDbLine
 62
7
  6
CONTINUOUS
 10
-49.7928815789
 20
3.4300255051
 11
-49.7928815789
 21
5.8540460364
  0
LINE
  5
554
100
AcDbEntity
  8
IMPORT_IGES
100
AcDbLine
 62
7
  6
CONTINUOUS
 10
-49.7428815789
 20
8.1469397369
 11
-49.7428815789
 21
3.64890315
  0
LINE
  5
555
100
AcDbEntity
  8
IMPORT_IGES
100
AcDbLine
 62
7
  6
CONTINUOUS
 10
-49.7428815789
 20
-3.6142910715
 11
-49.7428815789
 21
-8.8816911758
  0
LINE
  5
556
100
AcDbEntity
  8
IMPORT_IGES
100
AcDbLine
 62
7
  6
CONTINUOUS
 10
-49.6428815789
 20
-2.3379743245
 11
-49.6428815789
 21
2.2695138313
  0
LINE
  5
557
100
AcDbEntity
  8
0
100
AcDbLine
 62
7
  6
CONTINUOUS
 10
-49.5715986246
 20
11.0657697538
 11
-49.5715986246
 21
11.1657697538
  0
LINE
  5
558
100
AcDbEntity
  8
IMPORT_IGES
100
AcDbLine
 62
253
  6
CONTINUOUS
 10
-49.4428815789
 20
-3.6195267939
 11
-49.4428815789
 21
-8.8869268977
  0
LINE
  5
559
100
AcDbEntity
  8
IMPORT_IGES
100
AcDbLine
 62
253
  6
CONTINUOUS
 10
-49.4428814897
 20
3.654138872
 11
-49.4428812962
 21
8.1521749771
  0
LINE
  5
55A
100
AcDbEntity
  8
0
100
AcDbLine
 62
253
  6
CONTINUOUS
 10
-49.4311788819
 20
11.0657697538
 11
-49.4311788819
 21
11.1657697538
  0
LINE
  5
55B
100
AcDbEntity
  8
0
100
AcDbLine
 62
7
  6
CONTINUOUS
 10
-49.3973716532
 20
11.0657697538
 11
-49.3973716532
 21
11.1657697538
  0
LINE
  5
55C
100
AcDbEntity
  8
0
100
AcDbLine
 62
7
  6
CONTINUOUS
 10
-49.3770645819
 20
11.0657697538
 11
-49.3770645819
 21
11.1657697538
  0
LINE
  5
55D
100
AcDbEntity
  8
IMPORT_IGES
100
AcDbLine
 62
7
  6
CONTINUOUS
 10
-49.2428815789
 20
2.419662534
 11
-49.2428815789
 21
-2.4115704613
  0
LINE
  5
55E
100
AcDbEntity
  8
0
100
AcDbLine
 62
7
  6
CONTINUOUS
 10
-49.240444545
 20
11.0657697538
 11
-49.240444545
 21
11.1657697538
  0
LINE
  5
55F
100
AcDbEntity
  8
0
100
AcDbLine
 62
7
  6
CONTINUOUS
 10
-49.0237982757
 20
11.0657697538
 11
-49.0237982757
 21
11.1657697538
  0
LINE
  5
560
100
AcDbEntity
  8
0
100
AcDbLine
 62
7
  6
CONTINUOUS
 10
-49.0107017998
 20
11.0657697538
 11
-49.0107017998
 21
11.1657697538
  0
LINE
  5
561
100
AcDbEntity
  8
0
100
AcDbLine
 62
253
  6
CONTINUOUS
 10
-48.8991889556
 20
11.0657697538
 11
-48.8991889556
 21
11.1657697538
  0
LINE
  5
562
100
AcDbEntity
  8
0
100
AcDbLine
 62
253
  6
CONTINUOUS
 10
-48.7676538497
 20
11.0657697538
 11
-48.7676538497
 21
11.1657697538
  0
LINE
  5
563
100
AcDbEntity
  8
0
100
AcDbLine
 62
7
  6
CONTINUOUS
 10
-48.7577236225
 20
11.0657697538
 11
-48.7577236225
 21
11.1657697538
  0
LWPOLYLINE
  5
564
100
AcDbEntity
  8
IMPORT_IGES
100
AcDbPolyline
 62
7
  6
CONTINUOUS
 90
4
 70
0
 10
-51.5183371185
 20
-8.0303313973
 10
-51.5178646244
 20
-8.0277948817
 10
-51.5160204271
 20
-8.0203888151
 10
-51.5028789984
 20
-7.9697547961
  0
LINE
  5
565
100
AcDbEntity
  8
IMPORT_IGES
100
AcDbLine
 62
7
  6
CONTINUOUS
 10
-51.4498366293
 20
-7.7705917065
 11
-51.4394642782
 21
-7.7306087602
  0
LINE
  5
566
100
AcDbEntity
  8
IMPORT_IGES
100
AcDbLine
 62
7
  6
CONTINUOUS
 10
-51.5028789984
 20
-7.9697547961
 11
-51.479827269
 21
-7.8822632482
  0
LINE
  5
567
100
AcDbEntity
  8
IMPORT_IGES
100
AcDbLine
 62
7
  6
CONTINUOUS
 10
-51.479827269
 20
-7.8822632482
 11
-51.4498366293
 21
-7.7705917065
  0
LINE
  5
568
100
AcDbEntity
  8
IMPORT_IGES
100
AcDbLine
 62
7
  6
CONTINUOUS
 10
-44.0515700205
 20
9.803855861
 11
-43.5079458445
 21
10.7454405541
  0
LINE
  5
569
100
AcDbEntity
  8
IMPORT_IGES
100
AcDbLine
 62
253
  6
CONTINUOUS
 10
-43.9775232903
 20
9.8700353597
 11
-43.5668352848
 21
10.5330932054
  0
LINE
  5
56A
100
AcDbEntity
  8
IMPORT_IGES
100
AcDbLine
 62
253
  6
CONTINUOUS
 10
-44.043707722
 20
9.7638695406
 11
-43.9775232903
 21
9.8700353597
  0
LINE
  5
56B
100
AcDbEntity
  8
IMPORT_IGES
100
AcDbLine
 62
253
  6
CONTINUOUS
 10
-43.5668352848
 20
10.5330932054
 11
-43.4230087715
 21
10.7638600988
  0
LWPOLYLINE
  5
56C
100
AcDbEntity
  8
IMPORT_IGES
100
AcDbPolyline
 62
7
  6
CONTINUOUS
 90
3
 70
0
 10
-43.5079458386
 20
10.7454405508
 10
-43.5005152238
 20
10.7567413263
 10
-43.4917245059
 20
10.7672261897
  0
LINE
  5
56D
100
AcDbEntity
  8
IMPORT_IGES
100
AcDbLine
 62
253
  6
CONTINUOUS
 10
-43.5147092211
 20
10.7320155454
 11
-43.5213354964
 21
10.7222489714
  0
LWPOLYLINE
  5
56E
100
AcDbEntity
  8
IMPORT_IGES
100
AcDbPolyline
 62
253
  6
CONTINUOUS
 90
13
 70
0
 10
-26.258954193
 20
-3.2591592441
 10
-26.2840104827
 20
-3.2608702718
 10
-26.3086380523
 20
-3.2659740788
 10
-26.3324155174
 20
-3.2743833376
 10
-26.354936039
 20
-3.2859541633
 10
-26.3758142846
 20
-3.300488576
 10
-26.3946930217
 20
-3.3177378879
 10
-26.4112492297
 20
-3.3374069583
 10
-26.4251996274
 20
-3.3591592441
 10
-26.4363055196
 20
-3.3826225576
 10
-26.4443768814
 20
-3.4073954351
 10
-26.4492756097
 20
-3.4330540056
 10
-26.4509178857
 20
-3.4591592441
  0
LWPOLYLINE
  5
56F
100
AcDbEntity
  8
IMPORT_IGES
100
AcDbPolyline
 62
253
  6
CONTINUOUS
 90
13
 70
0
 10
-25.642881579
 20
-3.9382128929
 10
-25.6167763405
 20
-3.9379874545
 10
-25.5911177699
 20
-3.9373149969
 10
-25.5663448925
 20
-3.936207026
 10
-25.5428815789
 20
-3.9346824993
 10
-25.5211292931
 20
-3.932767502
 10
-25.5014602227
 20
-3.9304948003
 10
-25.4842109109
 20
-3.9279032807
 10
-25.4696764982
 20
-3.9250372847
 10
-25.4581056725
 20
-3.9219458505
 10
-25.4496964137
 20
-3.9186818732
 10
-25.4445926067
 20
-3.9153012005
 10
-25.442881579
 20
-3.9118616766
  0
LINE
  5
570
100
AcDbEntity
  8
IMPORT_IGES
100
AcDbLine
 62
253
  6
CONTINUOUS
 10
-53.2928815789
 20
-4.749082984
 11
-53.0928815789
 21
-4.749082984
  0
LINE
  5
571
100
AcDbEntity
  8
IMPORT_IGES
100
AcDbLine
 62
253
  6
CONTINUOUS
 10
-29.2928815789
 20
-4.0379090979
 11
-26.442881579
 21
-4.037909098
  0
LINE
  5
572
100
AcDbEntity
  8
IMPORT_IGES
100
AcDbLine
 62
253
  6
CONTINUOUS
 10
-26.2428815789
 20
-3.9382128929
 11
-25.6428815789
 21
-3.938212893
  0
LINE
  5
573
100
AcDbEntity
  8
IMPORT_IGES
100
AcDbLine
 62
7
  6
CONTINUOUS
 10
-50.5428815789
 20
-1.5315473165
 11
-50.3928815789
 21
-1.6050037472
  0
LWPOLYLINE
  5
574
100
AcDbEntity
  8
IMPORT_IGES
100
AcDbPolyline
 62
7
  6
CONTINUOUS
 90
4
 70
0
 10
-47.9009613841
 20
-2.5472346931
 10
-47.8268145617
 20
-2.5913021171
 10
-47.7859165662
 20
-2.6152284363
 10
-47.7428815789
 20
-2.6395267939
  0
LWPOLYLINE
  5
575
100
AcDbEntity
  8
IMPORT_IGES
100
AcDbPolyline
 62
7
  6
CONTINUOUS
 90
4
 70
0
 10
-48.0070583933
 20
-2.4842069772
 10
-47.962353473
 20
-2.511078709
 10
-47.9336207112
 20
-2.5281351621
 10
-47.9009613841
 20
-2.5472346931
  0
LWPOLYLINE
  5
576
100
AcDbEntity
  8
IMPORT_IGES
100
AcDbPolyline
 62
7
  6
CONTINUOUS
 90
5
 70
0
 10
-48.0428815791
 20
-2.4609539634
 10
-48.0408787034
 20
-2.4625971484
 10
-48.0342084397
 20
-2.4671120228
 10
-48.0229171063
 20
-2.474407592
 10
-48.0070583933
 20
-2.4842069772
  0
LINE
  5
577
100
AcDbEntity
  8
IMPORT_IGES
100
AcDbLine
 62
253
  6
CONTINUOUS
 10
-48.0857748843
 20
9.8040460364
 11
-48.0857748
 21
9.5092809139
  0
LINE
  5
578
100
AcDbEntity
  8
IMPORT_IGES
100
AcDbLine
 62
7
  6
CONTINUOUS
 10
-48.0428815789
 20
2.4592825968
 11
-48.0428815789
 21
-2.460954375
  0
LINE
  5
579
100
AcDbEntity
  8
IMPORT_IGES
100
AcDbLine
 62
253
  6
CONTINUOUS
 10
-47.9845221919
 20
-9.9303298214
 11
-47.9845221901
 21
-9.7234342187
  0
LINE
  5
57A
100
AcDbEntity
  8
IMPORT_IGES
100
AcDbLine
 62
253
  6
CONTINUOUS
 10
-47.7428815789
 20
2.634138872
 11
-47.7428815789
 21
-0.0909539636
  0
LINE
  5
57B
100
AcDbEntity
  8
IMPORT_IGES
100
AcDbLine
 62
253
  6
CONTINUOUS
 10
-47.7428815789
 20
-0.1909539636
 11
-47.7428815789
 21
-2.6395267939
  0
LINE
  5
57C
100
AcDbEntity
  8
0
100
AcDbLine
 62
7
  6
CONTINUOUS
 10
-47.6928815789
 20
11.0657697538
 11
-47.6928815789
 21
11.1657697538
  0
LINE
  5
57D
100
AcDbEntity
  8
0
100
AcDbLine
 62
253
  6
CONTINUOUS
 10
-47.5707463589
 20
11.0657697538
 11
-47.5707463589
 21
11.1657697538
  0
LINE
  5
57E
100
AcDbEntity
  8
0
100
AcDbLine
 62
253
  6
CONTINUOUS
 10
-47.2752303071
 20
11.0657697538
 11
-47.2752303071
 21
11.1657697538
  0
LINE
  5
57F
100
AcDbEntity
  8
IMPORT_IGES
100
AcDbLine
 62
253
  6
CONTINUOUS
 10
-53.0928815789
 20
-4.749082984
 11
-53.2168732425
 21
-4.9060099332
  0
LWPOLYLINE
  5
580
100
AcDbEntity
  8
IMPORT_IGES
100
AcDbPolyline
 62
7
  6
CONTINUOUS
 90
4
 70
0
 10
-48.0233629344
 20
2.4719308271
 10
-48.034539215
 20
2.465056543
 10
-48.0410111052
 20
2.4608163065
 10
-48.042892082
 20
2.4590904235
  0
LINE
  5
581
100
AcDbEntity
  8
IMPORT_IGES
100
AcDbLine
 62
7
  6
CONTINUOUS
 10
-47.9612832478
 20
2.5087803702
 11
-48.0233629344
 21
2.4719308271
  0
LWPOLYLINE
  5
582
100
AcDbEntity
  8
IMPORT_IGES
100
AcDbPolyline
 62
7
  6
CONTINUOUS
 90
4
 70
0
 10
-47.824742033
 20
2.5881472064
 10
-47.8987278357
 20
2.5449685738
 10
-47.9319404561
 20
2.5259028147
 10
-47.9612832478
 20
2.5087803702
  0
LWPOLYLINE
  5
583
100
AcDbEntity
  8
IMPORT_IGES
100
AcDbPolyline
 62
7
  6
CONTINUOUS
 90
3
 70
0
 10
-47.7428815671
 20
2.6341388917
 10
-47.7846465437
 20
2.6111179603
 10
-47.824742033
 20
2.5881472064
  0
LINE
  5
584
100
AcDbEntity
  8
IMPORT_IGES
100
AcDbLine
 62
253
  6
CONTINUOUS
 10
-26.450917886
 20
-3.4591592441
 11
-29.2928815789
 21
-3.4591592441
  0
LINE
  5
585
100
AcDbEntity
  8
IMPORT_IGES
100
AcDbLine
 62
7
  6
CONTINUOUS
 10
-25.6428815789
 20
-3.2591592441
 11
-29.2616670509
 21
-3.2591592441
  0
LINE
  5
586
100
AcDbEntity
  8
IMPORT_IGES
100
AcDbLine
 62
7
  6
CONTINUOUS
 10
-28.9928815789
 20
-3.0909539636
 11
-25.7428815789
 21
-3.0909539636
  0
LINE
  5
587
100
AcDbEntity
  8
IMPORT_IGES
100
AcDbLine
 62
7
  6
CONTINUOUS
 10
-49.2428815789
 20
-2.4115704613
 11
-49.7928815789
 21
-2.4115704613
  0
LINE
  5
588
100
AcDbEntity
  8
IMPORT_IGES
100
AcDbLine
 62
253
  6
CONTINUOUS
 10
-49.4428815789
 20
-3.6195267939
 11
-49.5204732877
 21
-3.6193486434
  0
LINE
  5
589
100
AcDbEntity
  8
IMPORT_IGES
100
AcDbLine
 62
253
  6
CONTINUOUS
 10
-49.5204732877
 20
-3.6193486434
 11
-49.5928498499
 21
-3.6188256598
  0
LWPOLYLINE
  5
58A
100
AcDbEntity
  8
IMPORT_IGES
100
AcDbPolyline
 62
253
  6
CONTINUOUS
 90
8
 70
0
 10
-49.5928498499
 20
-3.6188256598
 10
-49.6550415967
 20
-3.617992798
 10
-49.6809349858
 20
-3.617477299
 10
-49.7027467943
 20
-3.6169071912
 10
-49.7200945604
 20
-3.616292625
 10
-49.7326877155
 20
-3.615644326
 10
-49.7403237688
 20
-3.6149733121
 10
-49.7428815789
 20
-3.6142910715
  0
LINE
  5
58B
100
AcDbEntity
  8
IMPORT_IGES
100
AcDbLine
 62
7
  6
CONTINUOUS
 10
-49.2428815789
 20
-2.3449563505
 11
-50.3928815789
 21
-2.3248830259
  0
LINE
  5
58C
100
AcDbEntity
  8
IMPORT_IGES
100
AcDbLine
 62
7
  6
CONTINUOUS
 10
-50.5428815789
 20
-2.3459539636
 11
-49.7928815789
 21
-2.4115704613
  0
LINE
  5
58D
100
AcDbEntity
  8
IMPORT_IGES
100
AcDbLine
 62
253
  6
CONTINUOUS
 10
-53.2168732425
 20
4.9141020059
 11
-53.0928815789
 21
4.7571750568
  0
LINE
  5
58E
100
AcDbEntity
  8
0
100
AcDbLine
 62
253
  6
CONTINUOUS
 10
-47.0153919493
 20
11.0657697538
 11
-47.0153919493
 21
11.1657697538
  0
LINE
  5
58F
100
AcDbEntity
  8
0
100
AcDbLine
 62
7
  6
CONTINUOUS
 10
-46.9173655815
 20
11.0657697538
 11
-46.9173655815
 21
11.1657697538
  0
LINE
  5
590
100
AcDbEntity
  8
0
100
AcDbLine
 62
253
  6
CONTINUOUS
 10
-46.6816360302
 20
11.0657697538
 11
-46.6816360302
 21
11.1657697538
  0
LINE
  5
591
100
AcDbEntity
  8
0
100
AcDbLine
 62
7
  6
CONTINUOUS
 10
-46.5125257067
 20
11.0657697538
 11
-46.5125257067
 21
11.1657697538
  0
LWPOLYLINE
  5
592
100
AcDbEntity
  8
0
100
AcDbPolyline
 62
7
  6
CONTINUOUS
 90
4
 70
0
 43
0.3500000006
 10
-46.4857388306
 20
33.3229138641
 10
-46.4857388306
 20
33.9657718506
 10
-44.9857383728
 20
33.9657718506
 10
-45.8428808441
 20
30.9657709351
  0
LINE
  5
593
100
AcDbEntity
  8
0
100
AcDbLine
 62
7
  6
CONTINUOUS
 10
-46.4740915425
 20
11.0657697538
 11
-46.4740915425
 21
11.1657697538
  0
LWPOLYLINE
  5
594
100
AcDbEntity
  8
0
100
AcDbPolyline
 62
7
  6
CONTINUOUS
 90
3
 70
0
 43
0.3500000006
 10
-39.1821654968
 20
21.251483551
 10
-39.2535966797
 20
21.0371990662
 10
-39.3964545135
 20
20.7514833984
  0
LINE
  5
595
100
AcDbEntity
  8
IMPORT_IGES
100
AcDbLine
 62
253
  6
CONTINUOUS
 10
-52.0817709089
 20
-5.8028809128
 11
-51.9577792454
 21
-5.6459539636
  0
LWPOLYLINE
  5
596
100
AcDbEntity
  8
IMPORT_IGES
100
AcDbPolyline
 62
253
  6
CONTINUOUS
 90
8
 70
0
 10
-29.4698258564
 20
0.9460333232
 10
-29.4723560302
 20
0.9455640345
 10
-29.4793588527
 20
0.9430586071
 10
-29.4906626352
 20
0.9385839632
 10
-29.5059360982
 20
0.9322766908
 10
-29.524931888
 20
0.9242429373
 10
-29.5476893387
 20
0.9144644194
 10
-29.6038072908
 20
0.8899455997
  0
LINE
  5
597
100
AcDbEntity
  8
IMPORT_IGES
100
AcDbLine
 62
253
  6
CONTINUOUS
 10
-29.2928815789
 20
-2.0909539636
 11
-25.4428815789
 21
-2.0909539636
  0
LINE
  5
598
100
AcDbEntity
  8
IMPORT_IGES
100
AcDbLine
 62
7
  6
CONTINUOUS
 10
-50.3928815789
 20
-2.033605409
 11
-50.5428815789
 21
-2.033605409
  0
LWPOLYLINE
  5
599
100
AcDbEntity
  8
IMPORT_IGES
100
AcDbPolyline
 62
253
  6
CONTINUOUS
 90
10
 70
0
 10
-26.2589541942
 20
-3.2591592441
 10
-26.2555119357
 20
-3.2594553584
 10
-26.2524899604
 20
-3.2603451372
 10
-26.2498882684
 20
-3.2618302929
 10
-26.2477150996
 20
-3.2639118743
 10
-26.2459622141
 20
-3.2665904306
 10
-26.2446048927
 20
-3.2698661749
 10
-26.2436348956
 20
-3.2737386694
 10
-26.2430604627
 20
-3.2782066502
 10
-26.2428815938
 20
-3.2832683115
  0
LWPOLYLINE
  5
59A
100
AcDbEntity
  8
IMPORT_IGES
100
AcDbPolyline
 62
253
  6
CONTINUOUS
 90
10
 70
0
 10
-26.450917886
 20
-3.4591592441
 10
-26.4492452003
 20
-3.4593376476
 10
-26.4477622683
 20
-3.4599131038
 10
-26.4464715882
 20
-3.4608856127
 10
-26.4453742288
 20
-3.4622486774
 10
-26.4444740789
 20
-3.4640087949
 10
-26.4437753439
 20
-3.466185456
 10
-26.4432780214
 20
-3.4687851577
 10
-26.4429804027
 20
-3.471801403
 10
-26.442881579
 20
-3.4752301204
  0
LINE
  5
59B
100
AcDbEntity
  8
IMPORT_IGES
100
AcDbLine
 62
253
  6
CONTINUOUS
 10
-51.9577792454
 20
5.6540460364
 11
-52.0817709089
 21
5.8109729855
  0
LINE
  5
59C
100
AcDbEntity
  8
IMPORT_IGES
100
AcDbLine
 62
7
  6
CONTINUOUS
 10
-50.0072824625
 20
7.930767148
 11
-49.9936902336
 21
7.8982483207
  0
LINE
  5
59D
100
AcDbEntity
  8
IMPORT_IGES
100
AcDbLine
 62
7
  6
CONTINUOUS
 10
-50.0449339501
 20
8.0222903718
 11
-50.0072824625
 21
7.930767148
  0
LWPOLYLINE
  5
59E
100
AcDbEntity
  8
IMPORT_IGES
100
AcDbPolyline
 62
7
  6
CONTINUOUS
 90
4
 70
0
 10
-49.9936902336
 20
7.8982483207
 10
-49.9636496089
 20
7.8247055439
 10
-49.9472025341
 20
7.7848909306
 10
-49.9297399556
 20
7.7439707864
  0
LWPOLYLINE
  5
59F
100
AcDbEntity
  8
IMPORT_IGES
100
AcDbPolyline
 62
7
  6
CONTINUOUS
 90
3
 70
0
 10
-50.0533898337
 20
8.0435371132
 10
-50.0524809125
 20
8.0411739939
 10
-50.0449339501
 20
8.0222903718
  0
LWPOLYLINE
  5
5A0
100
AcDbEntity
  8
IMPORT_IGES
100
AcDbPolyline
 62
253
  6
CONTINUOUS
 90
12
 70
0
 10
-29.0108554197
 20
-0.1920076877
 10
-29.0434609178
 20
-0.1932430652
 10
-29.0760215711
 20
-0.1914016922
 10
-29.1079069719
 20
-0.1864480414
 10
-29.1382017948
 20
-0.1785641694
 10
-29.1666781868
 20
-0.1679185588
 10
-29.1936761279
 20
-0.1543557459
 10
-29.2187248784
 20
-0.1379559914
 10
-29.2411910213
 20
-0.1190395844
 10
-29.2609612629
 20
-0.09759481
 10
-29.2776296174
 20
-0.0738668062
 10
-29.2907144547
 20
-0.0484603393
  0
LINE
  5
5A1
100
AcDbEntity
  8
IMPORT_IGES
100
AcDbLine
 62
253
  6
CONTINUOUS
 10
-29.2928815789
 20
-0.6909539636
 11
-26.9928815789
 21
-0.6909539636
  0
LINE
  5
5A2
100
AcDbEntity
  8
IMPORT_IGES
100
AcDbLine
 62
7
  6
CONTINUOUS
 10
-33.0428815789
 20
-0.4909539636
 11
-33.1828815789
 21
-0.4909539636
  0
LINE
  5
5A3
100
AcDbEntity
  8
0
100
AcDbLine
 62
7
  6
CONTINUOUS
 10
-50.5428815789
 20
-0.4459539636
 11
-50.3928815789
 21
-0.4459539636
  0
LINE
  5
5A4
100
AcDbEntity
  8
IMPORT_IGES
100
AcDbLine
 62
7
  6
CONTINUOUS
 10
-33.4828815789
 20
-0.1909539636
 11
-48.0428815789
 21
-0.1909539636
  0
LINE
  5
5A5
100
AcDbEntity
  8
IMPORT_IGES
100
AcDbLine
 62
7
  6
CONTINUOUS
 10
-26.9928815789
 20
-0.0909539636
 11
-28.9944179604
 21
-0.0909539636
  0
LINE
  5
5A6
100
AcDbEntity
  8
IMPORT_IGES
100
AcDbLine
 62
7
  6
CONTINUOUS
 10
-48.0428815789
 20
-0.0909539636
 11
-29.2928815789
 21
-0.0909593006
  0
LINE
  5
5A7
100
AcDbEntity
  8
0
100
AcDbLine
 62
7
  6
CONTINUOUS
 10
-50.3928815789
 20
0.0540460364
 11
-50.5428815789
 21
0.0540460364
  0
LINE
  5
5A8
100
AcDbEntity
  8
IMPORT_IGES
100
AcDbLine
 62
253
  6
CONTINUOUS
 10
-25.4428815789
 20
0.3090460364
 11
-26.4928815789
 21
0.3090460365
  0
LINE
  5
5A9
100
AcDbEntity
  8
IMPORT_IGES
100
AcDbLine
 62
253
  6
CONTINUOUS
 10
-29.5127069157
 20
0.1301733099
 11
-29.5928807419
 21
0.1303637414
  0
LINE
  5
5AA
100
AcDbEntity
  8
IMPORT_IGES
100
AcDbLine
 62
253
  6
CONTINUOUS
 10
-29.4392551707
 20
0.1296251601
 11
-29.5127069157
 21
0.1301733099
  0
LWPOLYLINE
  5
5AB
100
AcDbEntity
  8
IMPORT_IGES
100
AcDbPolyline
 62
253
  6
CONTINUOUS
 90
9
 70
0
 10
-28.9928815789
 20
-0.2802326416
 10
-29.0322105579
 20
-0.2784568568
 10
-29.0707929437
 20
-0.2731802345
 10
-29.1079705078
 20
-0.2645118761
 10
-29.1430944211
 20
-0.2526264979
 10
-29.1756005526
 20
-0.2377391496
 10
-29.2050018308
 20
-0.2200831265
 10
-29.2307983849
 20
-0.1999577537
 10
-29.252551384
 20
-0.1777055003
  0
LINE
  5
5AC
100
AcDbEntity
  8
IMPORT_IGES
100
AcDbLine
 62
7
  6
CONTINUOUS
 10
-49.7928815789
 20
3.4300255051
 11
-48.0428815789
 21
2.419662534
  0
LINE
  5
5AD
100
AcDbEntity
  8
IMPORT_IGES
100
AcDbLine
 62
7
  6
CONTINUOUS
 10
-49.5972303056
 20
3.3916552724
 11
-48.0428828879
 21
2.4590468218
  0
LINE
  5
5AE
100
AcDbEntity
  8
IMPORT_IGES
100
AcDbLine
 62
253
  6
CONTINUOUS
 10
-47.7428815789
 20
2.634138872
 11
-49.4428814897
 21
3.654138872
  0
LINE
  5
5AF
100
AcDbEntity
  8
IMPORT_IGES
100
AcDbLine
 62
253
  6
CONTINUOUS
 10
-34.4333161283
 20
-10.8126261955
 11
-34.2964349697
 21
-10.9495073544
  0
LINE
  5
5B0
100
AcDbEntity
  8
IMPORT_IGES
100
AcDbLine
 62
253
  6
CONTINUOUS
 10
-49.4428815789
 20
-8.8869268977
 11
-49.5229931727
 21
-9.0114922282
  0
LINE
  5
5B1
100
AcDbEntity
  8
IMPORT_IGES
100
AcDbLine
 62
253
  6
CONTINUOUS
 10
-49.5229931727
 20
-9.0114922282
 11
-49.5563387665
 21
-9.062809343
  0
LWPOLYLINE
  5
5B2
100
AcDbEntity
  8
IMPORT_IGES
100
AcDbPolyline
 62
253
  6
CONTINUOUS
 90
6
 70
0
 10
-49.5563387665
 20
-9.062809343
 10
-49.5820827515
 20
-9.1019915831
 10
-49.5915371284
 20
-9.1161678012
 10
-49.5984897146
 20
-9.1263984507
 10
-49.6028300844
 20
-9.1325215571
 10
-49.6044899598
 20
-9.1344415095
  0
LWPOLYLINE
  5
5B3
100
AcDbEntity
  8
IMPORT_IGES
100
AcDbPolyline
 62
253
  6
CONTINUOUS
 90
6
 70
0
 10
-33.8781246322
 20
9.7436366894
 10
-33.879905915
 20
9.7419377959
 10
-33.8846118774
 20
9.7363501388
 10
-33.8922079462
 20
9.7269086098
 10
-33.9026204049
 20
9.7137006222
 10
-33.9312441253
 20
9.6768027326
  0
LWPOLYLINE
  5
5B4
100
AcDbEntity
  8
IMPORT_IGES
100
AcDbPolyline
 62
7
  6
CONTINUOUS
 90
5
 70
0
 10
-31.5130070492
 20
7.9371399603
 10
-31.5119041307
 20
7.9378425478
 10
-31.5089007917
 20
7.9402280729
 10
-31.5040553584
 20
7.9442427883
 10
-31.4891967515
 20
7.9567651945
  0
LINE
  5
5B5
100
AcDbEntity
  8
IMPORT_IGES
100
AcDbLine
 62
7
  6
CONTINUOUS
 10
-48.0428815789
 20
-2.4115704613
 11
-49.7928815789
 21
-3.4219334324
  0
LINE
  5
5B6
100
AcDbEntity
  8
IMPORT_IGES
100
AcDbLine
 62
7
  6
CONTINUOUS
 10
-48.0428815791
 20
-2.4609539634
 11
-49.5927100703
 21
-3.3543845053
  0
LINE
  5
5B7
100
AcDbEntity
  8
IMPORT_IGES
100
AcDbLine
 62
253
  6
CONTINUOUS
 10
-49.4428815789
 20
-3.6195267939
 11
-47.7428815789
 21
-2.6395267939
  0
LWPOLYLINE
  5
5B8
100
AcDbEntity
  8
IMPORT_IGES
100
AcDbPolyline
 62
253
  6
CONTINUOUS
 90
8
 70
0
 10
-30.8608915412
 20
4.0229267487
 10
-30.8634219412
 20
4.0224571759
 10
-30.8704253422
 20
4.0199513422
 10
-30.8817296883
 20
4.0154763359
 10
-30.8970031822
 20
4.0091689936
 10
-30.9159982589
 20
4.00113555
 10
-30.9387547251
 20
3.9913574713
 10
-30.9948705194
 20
3.9668396032
  0
LINE
  5
5B9
100
AcDbEntity
  8
IMPORT_IGES
100
AcDbLine
 62
7
  6
CONTINUOUS
 10
-26.4928815789
 20
0.9090460364
 11
-25.7428815789
 21
0.9090460364
  0
LINE
  5
5BA
100
AcDbEntity
  8
IMPORT_IGES
100
AcDbLine
 62
253
  6
CONTINUOUS
 10
-28.9941496053
 20
-0.0966692773
 11
-29.0313766215
 21
-0.094392168
  0
LWPOLYLINE
  5
5BB
100
AcDbEntity
  8
IMPORT_IGES
100
AcDbPolyline
 62
253
  6
CONTINUOUS
 90
5
 70
0
 10
-33.1640984373
 20
-9.7582849273
 10
-33.1511799399
 20
-9.7705854484
 10
-33.1416047201
 20
-9.7795018651
 10
-33.1355906423
 20
-9.7848268063
 10
-33.1333187264
 20
-9.7863911111
  0
LINE
  5
5BC
100
AcDbEntity
  8
IMPORT_IGES
100
AcDbLine
 62
253
  6
CONTINUOUS
 10
-33.1986340461
 20
-9.7248217331
 11
-33.1640984373
 21
-9.7582849273
  0
LINE
  5
5BD
100
AcDbEntity
  8
IMPORT_IGES
100
AcDbLine
 62
253
  6
CONTINUOUS
 10
-33.2416935259
 20
-9.6825628138
 11
-33.1986340461
 21
-9.7248217331
  0
LWPOLYLINE
  5
5BE
100
AcDbEntity
  8
IMPORT_IGES
100
AcDbPolyline
 62
253
  6
CONTINUOUS
 90
3
 70
0
 10
-33.345456452
 20
-9.5795004899
 10
-33.31821869
 20
-9.6066866234
 10
-33.2416935259
 20
-9.6825628138
  0
LWPOLYLINE
  5
5BF
100
AcDbEntity
  8
0
100
AcDbPolyline
 62
7
  6
CONTINUOUS
 90
4
 70
0
 43
0.3500000006
 10
-42.4143109589
 20
31.3943399048
 10
-42.4143109589
 20
32.2514823761
 10
-41.9857374573
 20
32.6800558777
 10
-41.3428794708
 20
32.6800558777
  0
LINE
  5
5C0
100
AcDbEntity
  8
IMPORT_IGES
100
AcDbLine
 62
7
  6
CONTINUOUS
 10
-42.1413772396
 20
-11.0959539636
 11
-42.1413772396
 21
-11.2959539636
  0
LINE
  5
5C1
100
AcDbEntity
  8
IMPORT_IGES
100
AcDbLine
 62
253
  6
CONTINUOUS
 10
-42.0390513119
 20
-11.2959539636
 11
-42.039051394
 21
-11.0959539636
  0
LINE
  5
5C2
100
AcDbEntity
  8
IMPORT_IGES
100
AcDbLine
 62
253
  6
CONTINUOUS
 10
-48.3166164177
 20
-9.6070603914
 11
-48.3967423438
 21
-9.73164787
  0
LINE
  5
5C3
100
AcDbEntity
  8
IMPORT_IGES
100
AcDbLine
 62
253
  6
CONTINUOUS
 10
-48.3967423438
 20
-9.73164787
 11
-48.4300598646
 21
-9.7829217963
  0
LWPOLYLINE
  5
5C4
100
AcDbEntity
  8
IMPORT_IGES
100
AcDbPolyline
 62
253
  6
CONTINUOUS
 90
6
 70
0
 10
-48.4300598646
 20
-9.7829217963
 10
-48.455789655
 20
-9.8220829376
 10
-48.4652481124
 20
-9.8362658122
 10
-48.4722107634
 20
-9.8465119781
 10
-48.4765606919
 20
-9.8526493827
 10
-48.4782248545
 20
-9.8545749676
  0
LINE
  5
5C5
100
AcDbEntity
  8
IMPORT_IGES
100
AcDbLine
 62
253
  6
CONTINUOUS
 10
-33.8369375108
 20
10.2439652226
 11
-33.7759386771
 21
10.3245707936
  0
LINE
  5
5C6
100
AcDbEntity
  8
IMPORT_IGES
100
AcDbLine
 62
253
  6
CONTINUOUS
 10
-33.9897898384
 20
9.6002639142
 11
-34.0586692171
 21
9.5092816548
  0
LINE
  5
5C7
100
AcDbEntity
  8
IMPORT_IGES
100
AcDbLine
 62
253
  6
CONTINUOUS
 10
-33.7759386771
 20
10.3245707936
 11
-33.7407114754
 21
10.3706848171
  0
LINE
  5
5C8
100
AcDbEntity
  8
IMPORT_IGES
100
AcDbLine
 62
253
  6
CONTINUOUS
 10
-33.9312441253
 20
9.6768027326
 11
-33.9897898384
 21
9.6002639142
  0
LWPOLYLINE
  5
5C9
100
AcDbEntity
  8
IMPORT_IGES
100
AcDbPolyline
 62
253
  6
CONTINUOUS
 90
5
 70
0
 10
-33.7407114754
 20
10.3706848171
 10
-33.725677271
 20
10.3901070739
 10
-33.7207379468
 20
10.3963714816
 10
-33.7176782684
 20
10.4001313532
 10
-33.7165546504
 20
10.4013170743
  0
LINE
  5
5CA
100
AcDbEntity
  8
IMPORT_IGES
100
AcDbLine
 62
7
  6
CONTINUOUS
 10
-31.4562093433
 20
7.985193164
 11
-31.4000075089
 21
8.0344801954
  0
LWPOLYLINE
  5
5CB
100
AcDbEntity
  8
IMPORT_IGES
100
AcDbPolyline
 62
7
  6
CONTINUOUS
 90
3
 70
0
 10
-31.4891967515
 20
7.9567651945
 10
-31.4794672209
 20
7.9650972615
 10
-31.4562093433
 20
7.985193164
  0
LINE
  5
5CC
100
AcDbEntity
  8
IMPORT_IGES
100
AcDbLine
 62
253
  6
CONTINUOUS
 10
-31.0615404664
 20
3.93725033
 11
-31.134252382
 21
3.9045758422
  0
LINE
  5
5CD
100
AcDbEntity
  8
IMPORT_IGES
100
AcDbLine
 62
253
  6
CONTINUOUS
 10
-30.9948705194
 20
3.9668396032
 11
-31.0615404664
 21
3.93725033
  0
LINE
  5
5CE
100
AcDbEntity
  8
IMPORT_IGES
100
AcDbLine
 62
253
  6
CONTINUOUS
 10
-31.24016331
 20
4.5702251448
 11
-31.3195836475
 21
4.5603359925
  0
LINE
  5
5CF
100
AcDbEntity
  8
IMPORT_IGES
100
AcDbLine
 62
253
  6
CONTINUOUS
 10
-31.1673822586
 20
4.578914995
 11
-31.24016331
 21
4.5702251448
  0
LINE
  5
5D0
100
AcDbEntity
  8
IMPORT_IGES
100
AcDbLine
 62
7
  6
CONTINUOUS
 10
-49.7928815789
 20
2.419662534
 11
-50.5428815789
 21
2.3540460364
  0
LINE
  5
5D1
100
AcDbEntity
  8
IMPORT_IGES
100
AcDbLine
 62
7
  6
CONTINUOUS
 10
-50.3928815789
 20
2.2564225326
 11
-49.2428815789
 21
2.2764958573
  0
LINE
  5
5D2
100
AcDbEntity
  8
IMPORT_IGES
100
AcDbLine
 62
7
  6
CONTINUOUS
 10
-49.7928815789
 20
2.419662534
 11
-49.2428815789
 21
2.419662534
  0
LINE
  5
5D3
100
AcDbEntity
  8
IMPORT_IGES
100
AcDbLine
 62
253
  6
CONTINUOUS
 10
-29.0313766215
 20
-0.094392168
 11
-29.0686432768
 21
-0.0874015863
  0
LWPOLYLINE
  5
5D4
100
AcDbEntity
  8
IMPORT_IGES
100
AcDbPolyline
 62
253
  6
CONTINUOUS
 90
6
 70
0
 10
-31.6340858617
 20
-8.2008091157
 10
-31.6186134538
 20
-8.2157147624
 10
-31.606220708
 20
-8.2274969659
 10
-31.5971163536
 20
-8.2359572802
 10
-31.5914537339
 20
-8.2409532096
 10
-31.5893282236
 20
-8.2424006083
  0
LINE
  5
5D5
100
AcDbEntity
  8
IMPORT_IGES
100
AcDbLine
 62
253
  6
CONTINUOUS
 10
-49.5533666591
 20
8.4605352022
 11
-49.5150998
 21
8.4232393366
  0
LINE
  5
5D6
100
AcDbEntity
  8
IMPORT_IGES
100
AcDbLine
 62
253
  6
CONTINUOUS
 10
-31.6731797861
 20
-8.1626800878
 11
-31.6340858617
 21
-8.2008091157
  0
LINE
  5
5D7
100
AcDbEntity
  8
IMPORT_IGES
100
AcDbLine
 62
253
  6
CONTINUOUS
 10
-49.5150998
 20
8.4232393366
 11
-49.440435869
 21
8.3495251717
  0
LINE
  5
5D8
100
AcDbEntity
  8
IMPORT_IGES
100
AcDbLine
 62
253
  6
CONTINUOUS
 10
-31.7469738602
 20
-8.0897984557
 11
-31.6731797861
 21
-8.1626800878
  0
LINE
  5
5D9
100
AcDbEntity
  8
IMPORT_IGES
100
AcDbLine
 62
253
  6
CONTINUOUS
 10
-49.440435869
 20
8.3495251717
 11
-49.3843012359
 21
8.2935946344
  0
LINE
  5
5DA
100
AcDbEntity
  8
IMPORT_IGES
100
AcDbLine
 62
253
  6
CONTINUOUS
 10
-31.8014602227
 20
-8.0355042606
 11
-31.7469738602
 21
-8.0897984557
  0
LINE
  5
5DB
100
AcDbEntity
  8
IMPORT_IGES
100
AcDbLine
 62
7
  6
CONTINUOUS
 10
-44.048973692
 20
9.7857899051
 11
-44.0514722129
 21
9.7955785709
  0
LINE
  5
5DC
100
AcDbEntity
  8
IMPORT_IGES
100
AcDbLine
 62
7
  6
CONTINUOUS
 10
-44.043707722
 20
9.7638854179
 11
-44.048973692
 21
9.7857899051
  0
LWPOLYLINE
  5
5DD
100
AcDbEntity
  8
IMPORT_IGES
100
AcDbPolyline
 62
7
  6
CONTINUOUS
 90
5
 70
0
 10
-44.0514722129
 20
9.7955785709
 10
-44.0521871368
 20
9.7989640784
 10
-44.0524176702
 20
9.801395858
 10
-44.0522278963
 20
9.8029937673
 10
-44.0521796342
 20
9.8031267398
  0
LINE
  5
5DE
100
AcDbEntity
  8
IMPORT_IGES
100
AcDbLine
 62
7
  6
CONTINUOUS
 10
-41.1511537747
 20
11.0040460364
 11
-41.1511537747
 21
10.8040460364
  0
LINE
  5
5DF
100
AcDbEntity
  8
IMPORT_IGES
100
AcDbLine
 62
7
  6
CONTINUOUS
 10
-41.1056615789
 20
11.0040460364
 11
-41.1056615789
 21
10.8040460364
  0
LINE
  5
5E0
100
AcDbEntity
  8
IMPORT_IGES
100
AcDbLine
 62
7
  6
CONTINUOUS
 10
-40.5239523061
 20
-11.2959539636
 11
-40.5239523061
 21
-11.0959539636
  0
LINE
  5
5E1
100
AcDbEntity
  8
IMPORT_IGES
100
AcDbLine
 62
7
  6
CONTINUOUS
 10
-40.5061957128
 20
-11.2959539636
 11
-40.5061888979
 21
-11.0959539636
  0
LINE
  5
5E2
100
AcDbEntity
  8
IMPORT_IGES
100
AcDbLine
 62
253
  6
CONTINUOUS
 10
-39.9178953948
 20
-11.2959539636
 11
-39.9178953948
 21
-11.0959539636
  0
LWPOLYLINE
  5
5E3
100
AcDbEntity
  8
IMPORT_IGES
100
AcDbPolyline
 62
253
  6
CONTINUOUS
 90
16
 70
0
 10
-34.9202313564
 20
10.8040460364
 10
-34.9210254455
 20
10.8023034132
 10
-34.9213105994
 20
10.7973748831
 10
-34.9210868183
 20
10.7897259618
 10
-34.9199833789
 20
10.7798904033
 10
-34.9183710044
 20
10.7682928164
 10
-34.9173618645
 20
10.7551134461
 10
-34.9168625045
 20
10.7405338239
 10
-34.916966379
 20
10.7249677504
 10
-34.9190660222
 20
10.7088464217
 10
-34.9235496579
 20
10.6927915183
 10
-34.9300290622
 20
10.6767517626
 10
-34.9387320985
 20
10.6600303117
 10
-34.949734721
 20
10.6424373957
 10
-34.9629609753
 20
10.6244025659
 10
-34.9784108616
 20
10.60607059
  0
LWPOLYLINE
  5
5E4
100
AcDbEntity
  8
IMPORT_IGES
100
AcDbPolyline
 62
253
  6
CONTINUOUS
 90
5
 70
0
 10
-31.611413769
 20
8.0355478004
 10
-31.6105513526
 20
8.0364648268
 10
-31.6082388538
 20
8.0393097966
 10
-31.6045192565
 20
8.0440292981
 10
-31.5932009656
 20
8.0586527946
  0
LWPOLYLINE
  5
5E5
100
AcDbEntity
  8
IMPORT_IGES
100
AcDbPolyline
 62
253
  6
CONTINUOUS
 90
5
 70
0
 10
-31.8268082276
 20
8.1978590873
 10
-31.8259557562
 20
8.1987428146
 10
-31.8236318089
 20
8.2015879062
 10
-31.8198917057
 20
8.2063246248
 10
-31.8085666184
 20
8.2209555163
  0
LWPOLYLINE
  5
5E6
100
AcDbEntity
  8
IMPORT_IGES
100
AcDbPolyline
 62
253
  6
CONTINUOUS
 90
7
 70
0
 10
-29.7337434383
 20
6.1578763494
 10
-29.7327530718
 20
6.1586358289
 10
-29.7300403298
 20
6.1611221899
 10
-29.7256667838
 20
6.1652775696
 10
-29.7197552777
 20
6.1709836336
 10
-29.712397306
 20
6.1781508858
 10
-29.6817928154
 20
6.2082841297
  0
LWPOLYLINE
  5
5E7
100
AcDbEntity
  8
IMPORT_IGES
100
AcDbPolyline
 62
253
  6
CONTINUOUS
 90
7
 70
0
 10
-49.7428815789
 20
3.6489031501
 10
-49.7402886926
 20
3.6495900323
 10
-49.7325725685
 20
3.6502638929
 10
-49.7198922835
 20
3.650913215
 10
-49.7025003409
 20
3.6515267117
 10
-49.6807128115
 20
3.6520944267
 10
-49.6548820801
 20
3.6526076587
  0
LINE
  5
5E8
100
AcDbEntity
  8
IMPORT_IGES
100
AcDbLine
 62
253
  6
CONTINUOUS
 10
-49.6548820801
 20
3.6526076587
 11
-49.5929233581
 21
3.6534369972
  0
LINE
  5
5E9
100
AcDbEntity
  8
IMPORT_IGES
100
AcDbLine
 62
253
  6
CONTINUOUS
 10
-49.5929233581
 20
3.6534369972
 11
-49.520652508
 21
3.653959883
  0
LINE
  5
5EA
100
AcDbEntity
  8
IMPORT_IGES
100
AcDbLine
 62
253
  6
CONTINUOUS
 10
-49.520652508
 20
3.653959883
 11
-49.4428812962
 21
3.654138872
  0
LINE
  5
5EB
100
AcDbEntity
  8
IMPORT_IGES
100
AcDbLine
 62
253
  6
CONTINUOUS
 10
-53.0928815789
 20
4.7571750568
 11
-53.2928815789
 21
4.7571750568
  0
LWPOLYLINE
  5
5EC
100
AcDbEntity
  8
IMPORT_IGES
100
AcDbPolyline
 62
253
  6
CONTINUOUS
 90
8
 70
0
 10
-29.292881579
 20
0.1251277917
 10
-29.2954029934
 20
0.1258052853
 10
-29.3028823435
 20
0.1264685686
 10
-29.3151322961
 20
0.1271068032
 10
-29.3317883398
 20
0.127706651
 10
-29.3525767639
 20
0.1282623617
 10
-29.3775419042
 20
0.1287733993
 10
-29.4392551707
 20
0.1296251601
  0
LWPOLYLINE
  5
5ED
100
AcDbEntity
  8
IMPORT_IGES
100
AcDbPolyline
 62
253
  6
CONTINUOUS
 90
6
 70
0
 10
-29.0686432768
 20
-0.0874015863
 10
-29.1050023002
 20
-0.0756967962
 10
-29.1391724142
 20
-0.0597173044
 10
-29.1707172293
 20
-0.0398407428
 10
-29.1998847277
 20
-0.0158878738
 10
-29.2258591825
 20
0.0116279934
  0
LWPOLYLINE
  5
5EE
100
AcDbEntity
  8
IMPORT_IGES
100
AcDbPolyline
 62
253
  6
CONTINUOUS
 90
6
 70
0
 10
-49.5964352262
 20
8.5004923892
 10
-49.594363208
 20
8.4990891868
 10
-49.5888664926
 20
8.4942488375
 10
-49.5800580448
 20
8.4860737147
 10
-49.5681652119
 20
8.4747783991
 10
-49.5533666591
 20
8.4605352022
  0
LINE
  5
5EF
100
AcDbEntity
  8
IMPORT_IGES
100
AcDbLine
 62
253
  6
CONTINUOUS
 10
-48.3961729966
 20
9.6175573296
 11
-48.3579989713
 21
9.5803524804
  0
LINE
  5
5F0
100
AcDbEntity
  8
IMPORT_IGES
100
AcDbLine
 62
253
  6
CONTINUOUS
 10
-48.3579989713
 20
9.5803524804
 11
-48.2834280828
 21
9.5067306448
  0
LINE
  5
5F1
100
AcDbEntity
  8
IMPORT_IGES
100
AcDbLine
 62
253
  6
CONTINUOUS
 10
-48.2834280828
 20
9.5067306448
 11
-48.2271944544
 21
9.4507014159
  0
LINE
  5
5F2
100
AcDbEntity
  8
IMPORT_IGES
100
AcDbLine
 62
7
  6
CONTINUOUS
 10
-45.2919299006
 20
9.8040460364
 11
-45.4213750764
 21
10.0370493271
  0
LINE
  5
5F3
100
AcDbEntity
  8
IMPORT_IGES
100
AcDbLine
 62
7
  6
CONTINUOUS
 10
-39.1060221256
 20
-11.2959539636
 11
-39.1060221256
 21
-11.0959539636
  0
LINE
  5
5F4
100
AcDbEntity
  8
IMPORT_IGES
100
AcDbLine
 62
253
  6
CONTINUOUS
 10
-31.7919620712
 20
7.8011948142
 11
-31.724490001
 21
7.890326418
  0
LINE
  5
5F5
100
AcDbEntity
  8
IMPORT_IGES
100
AcDbLine
 62
253
  6
CONTINUOUS
 10
-31.7825246189
 20
8.2550462664
 11
-31.7365248084
 21
8.3158298184
  0
LINE
  5
5F6
100
AcDbEntity
  8
IMPORT_IGES
100
AcDbLine
 62
253
  6
CONTINUOUS
 10
-31.567151315
 20
8.0927520536
 11
-31.5211491585
 21
8.1535387296
  0
LINE
  5
5F7
100
AcDbEntity
  8
IMPORT_IGES
100
AcDbLine
 62
253
  6
CONTINUOUS
 10
-31.8085666184
 20
8.2209555163
 11
-31.7825246189
 21
8.2550462664
  0
LINE
  5
5F8
100
AcDbEntity
  8
IMPORT_IGES
100
AcDbLine
 62
253
  6
CONTINUOUS
 10
-31.5932009656
 20
8.0586527946
 11
-31.567151315
 21
8.0927520536
  0
LINE
  5
5F9
100
AcDbEntity
  8
IMPORT_IGES
100
AcDbLine
 62
253
  6
CONTINUOUS
 10
-31.724490001
 20
7.890326418
 11
-31.667246786
 21
7.965197299
  0
LWPOLYLINE
  5
5FA
100
AcDbEntity
  8
IMPORT_IGES
100
AcDbPolyline
 62
253
  6
CONTINUOUS
 90
6
 70
0
 10
-31.667246786
 20
7.965197299
 10
-31.6378181658
 20
8.0031790948
 10
-31.6267804811
 20
8.017209943
 10
-31.6185738171
 20
8.0274437423
 10
-31.6133977925
 20
8.0336258469
 10
-31.6114168702
 20
8.0355498747
  0
LWPOLYLINE
  5
5FB
100
AcDbEntity
  8
IMPORT_IGES
100
AcDbPolyline
 62
253
  6
CONTINUOUS
 90
5
 70
0
 10
-29.8351372409
 20
7.4764592653
 10
-29.8363359131
 20
7.4751838083
 10
-29.8396238844
 20
7.4711315982
 10
-29.8449581326
 20
7.4643538099
 10
-29.8615332451
 20
7.4429114703
  0
LINE
  5
5FC
100
AcDbEntity
  8
IMPORT_IGES
100
AcDbLine
 62
253
  6
CONTINUOUS
 10
-29.6704776343
 20
0.8603561356
 11
-29.7431868872
 21
0.8276828369
  0
LINE
  5
5FD
100
AcDbEntity
  8
IMPORT_IGES
100
AcDbLine
 62
253
  6
CONTINUOUS
 10
-29.6038072908
 20
0.8899455997
 11
-29.6704776343
 21
0.8603561356
  0
LINE
  5
5FE
100
AcDbEntity
  8
IMPORT_IGES
100
AcDbLine
 62
253
  6
CONTINUOUS
 10
-31.6346343926
 20
7.6765276097
 11
-31.7139181379
 21
7.6666550376
  0
LINE
  5
5FF
100
AcDbEntity
  8
IMPORT_IGES
100
AcDbLine
 62
253
  6
CONTINUOUS
 10
-31.5618049158
 20
7.6852238976
 11
-31.6346343926
 21
7.6765276097
  0
LINE
  5
600
100
AcDbEntity
  8
IMPORT_IGES
100
AcDbLine
 62
253
  6
CONTINUOUS
 10
-29.6159036283
 20
5.717921372
 11
-29.4159508315
 21
5.7222663779
  0
LINE
  5
601
100
AcDbEntity
  8
IMPORT_IGES
100
AcDbLine
 62
253
  6
CONTINUOUS
 10
-29.5371985686
 20
6.6996144709
 11
-29.4640212876
 21
6.7002127053
  0
LINE
  5
602
100
AcDbEntity
  8
IMPORT_IGES
100
AcDbLine
 62
253
  6
CONTINUOUS
 10
-49.7928815789
 20
5.6540460364
 11
-51.9577792454
 21
5.6540460364
  0
LINE
  5
603
100
AcDbEntity
  8
IMPORT_IGES
100
AcDbLine
 62
7
  6
CONTINUOUS
 10
-49.7928815789
 20
5.8540460364
 11
-51.9577792454
 21
5.8540460364
  0
LWPOLYLINE
  5
604
100
AcDbEntity
  8
IMPORT_IGES
100
AcDbPolyline
 62
253
  6
CONTINUOUS
 90
8
 70
0
 10
-31.0219719936
 20
4.5928884986
 10
-31.0245504855
 20
4.5932342277
 10
-31.0320324507
 20
4.5929442087
 10
-31.0442318003
 20
4.5920312694
 10
-31.060787364
 20
4.5905282637
 10
-31.0814283112
 20
4.5884635464
 10
-31.1061980714
 20
4.5858301906
 10
-31.1673822586
 20
4.578914995
  0
LINE
  5
605
100
AcDbEntity
  8
IMPORT_IGES
100
AcDbLine
 62
7
  6
CONTINUOUS
 10
-57.2943610081
 20
10.0495962296
 11
-56.2928815799
 21
9.7157697531
  0
LINE
  5
606
100
AcDbEntity
  8
IMPORT_IGES
100
AcDbLine
 62
253
  6
CONTINUOUS
 10
-55.3631570558
 20
9.7157697531
 11
-56.6687166698
 21
10.1509562917
  0
LWPOLYLINE
  5
607
100
AcDbEntity
  8
IMPORT_IGES
100
AcDbPolyline
 62
253
  6
CONTINUOUS
 90
6
 70
0
 10
-48.4393126738
 20
9.6576149416
 10
-48.4372278184
 20
9.6561885545
 10
-48.4316951601
 20
9.6513039471
 10
-48.4228485211
 20
9.643084342
 10
-48.4109439865
 20
9.6317739246
 10
-48.3961729966
 20
9.6175573296
  0
LINE
  5
608
100
AcDbEntity
  8
IMPORT_IGES
100
AcDbLine
 62
7
  6
CONTINUOUS
 10
-38.1060225789
 20
10.8040460364
 11
-38.1060225789
 21
11.0040460364
  0
LINE
  5
609
100
AcDbEntity
  8
IMPORT_IGES
100
AcDbLine
 62
253
  6
CONTINUOUS
 10
-29.8840860686
 20
7.4134196087
 11
-29.9555191618
 21
7.3191067056
  0
LINE
  5
60A
100
AcDbEntity
  8
IMPORT_IGES
100
AcDbLine
 62
253
  6
CONTINUOUS
 10
-29.8615332451
 20
7.4429114703
 11
-29.8840860686
 21
7.4134196087
  0
LINE
  5
60B
100
AcDbEntity
  8
IMPORT_IGES
100
AcDbLine
 62
253
  6
CONTINUOUS
 10
-29.6451693486
 20
5.7864595471
 11
-29.5037479923
 21
5.9278809033
  0
LINE
  5
60C
100
AcDbEntity
  8
IMPORT_IGES
100
AcDbLine
 62
253
  6
CONTINUOUS
 10
-29.6817928154
 20
6.2082841297
 11
-29.6276829071
 21
6.2621555936
  0
LWPOLYLINE
  5
60D
100
AcDbEntity
  8
IMPORT_IGES
100
AcDbPolyline
 62
253
  6
CONTINUOUS
 90
9
 70
0
 10
-32.0786647776
 20
8.387646428
 10
-32.0479357332
 20
8.3910118736
 10
-32.0000739585
 20
8.3929989088
 10
-31.953279744
 20
8.3918214634
 10
-31.9082010033
 20
8.3872013518
 10
-31.8640634757
 20
8.37745992
 10
-31.8206090747
 20
8.3620376164
 10
-31.778095887
 20
8.3414939924
 10
-31.7365239125
 20
8.3158290481
  0
LINE
  5
60E
100
AcDbEntity
  8
IMPORT_IGES
100
AcDbLine
 62
7
  6
CONTINUOUS
 10
-50.0533902794
 20
8.0435373359
 11
-62.9439287744
 21
7.9985406853
  0
LINE
  5
60F
100
AcDbEntity
  8
IMPORT_IGES
100
AcDbLine
 62
253
  6
CONTINUOUS
 10
-29.5854213507
 20
6.6994627944
 11
-29.5371985686
 21
6.6996144709
  0
LWPOLYLINE
  5
610
100
AcDbEntity
  8
IMPORT_IGES
100
AcDbPolyline
 62
253
  6
CONTINUOUS
 90
5
 70
0
 10
-29.4640212876
 20
6.7002127053
 10
-29.4524444938
 20
6.7002257673
 10
-29.444023901
 20
6.7001038982
 10
-29.4389079919
 20
6.6998768669
 10
-29.4371873173
 20
6.6995480756
  0
LINE
  5
611
100
AcDbEntity
  8
IMPORT_IGES
100
AcDbLine
 62
253
  6
CONTINUOUS
 10
-49.9297399556
 20
7.7439707864
 11
-63.2428815789
 21
7.698542513
  0
LINE
  5
612
100
AcDbEntity
  8
IMPORT_IGES
100
AcDbLine
 62
253
  6
CONTINUOUS
 10
-29.6371950004
 20
6.699616853
 11
-29.5854213507
 21
6.6994627944
  0
LINE
  5
613
100
AcDbEntity
  8
IMPORT_IGES
100
AcDbLine
 62
253
  6
CONTINUOUS
 10
-57.4017004233
 20
10.3342003085
 11
-56.668726172
 21
10.1509562917
  0
LINE
  5
614
100
AcDbEntity
  8
IMPORT_IGES
100
AcDbLine
 62
7
  6
CONTINUOUS
 10
-31.4428815789
 20
-2.2309539636
 11
-33.4828815789
 21
-0.1909539636
  0
LINE
  5
615
100
AcDbEntity
  8
IMPORT_IGES
100
AcDbLine
 62
7
  6
CONTINUOUS
 10
-33.4428815789
 20
-0.0909539636
 11
-31.4428815495
 21
-2.0909539931
  0
LWPOLYLINE
  5
616
100
AcDbEntity
  8
IMPORT_IGES
100
AcDbPolyline
 62
253
  6
CONTINUOUS
 90
3
 70
0
 10
-35.3770476832
 20
10.6143455122
 10
-35.3773345872
 20
10.6641820936
 10
-35.378338751
 20
10.7638569031
  0
LINE
  5
617
100
AcDbEntity
  8
IMPORT_IGES
100
AcDbLine
 62
253
  6
CONTINUOUS
 10
-35.3783618188
 20
10.7638537743
 11
-35.3783618188
 21
10.8040460364
  0
LWPOLYLINE
  5
618
100
AcDbEntity
  8
IMPORT_IGES
100
AcDbPolyline
 62
253
  6
CONTINUOUS
 90
6
 70
0
 10
-35.1783785786
 20
10.6049282684
 10
-35.1766611026
 20
10.6052513575
 10
-35.1715414302
 20
10.6055344381
 10
-35.163112576
 20
10.6057822679
 10
-35.1515251382
 20
10.6060044264
 10
-35.1369816068
 20
10.6061995313
  0
LWPOLYLINE
  5
619
100
AcDbEntity
  8
IMPORT_IGES
100
AcDbPolyline
 62
253
  6
CONTINUOUS
 90
7
 70
0
 10
-49.6515004863
 20
8.1507018789
 10
-49.6778220983
 20
8.1501951858
 10
-49.7003651514
 20
8.1496262251
 10
-49.7185377943
 20
8.149005354
 10
-49.7318947377
 20
8.148343354
 10
-49.740100539
 20
8.1476507182
 10
-49.7428815789
 20
8.1469396444
  0
LINE
  5
61A
100
AcDbEntity
  8
IMPORT_IGES
100
AcDbLine
 62
253
  6
CONTINUOUS
 10
-49.5902675232
 20
8.1514996616
 11
-49.6515004863
 21
8.1507018789
  0
LINE
  5
61B
100
AcDbEntity
  8
IMPORT_IGES
100
AcDbLine
 62
253
  6
CONTINUOUS
 10
-49.5193877495
 20
8.1520019357
 11
-49.5902675232
 21
8.1514996616
  0
LINE
  5
61C
100
AcDbEntity
  8
IMPORT_IGES
100
AcDbLine
 62
253
  6
CONTINUOUS
 10
-49.4428812962
 20
8.1521749771
 11
-49.5193877495
 21
8.1520019357
  0
LINE
  5
61D
100
AcDbEntity
  8
IMPORT_IGES
100
AcDbLine
 62
253
  6
CONTINUOUS
 10
-34.0586691418
 20
9.5092817547
 11
-48.0857748
 21
9.5092804806
  0
LWPOLYLINE
  5
61E
100
AcDbEntity
  8
IMPORT_IGES
100
AcDbPolyline
 62
253
  6
CONTINUOUS
 90
8
 70
0
 10
-31.4163055432
 20
7.6992001328
 10
-31.4188597412
 20
7.6995490532
 10
-31.426287705
 20
7.699266504
 10
-31.4384315575
 20
7.6983617391
 10
-31.4549695411
 20
7.6968625933
 10
-31.4756476961
 20
7.6947948928
 10
-31.5004765689
 20
7.6921554432
 10
-31.5618049158
 20
7.6852238976
  0
LINE
  5
61F
100
AcDbEntity
  8
IMPORT_IGES
100
AcDbLine
 62
7
  6
CONTINUOUS
 10
-30.3679205529
 20
-8.3913816593
 11
-31.2485560368
 21
-6.8341680346
  0
LWPOLYLINE
  5
620
100
AcDbEntity
  8
IMPORT_IGES
100
AcDbPolyline
 62
253
  6
CONTINUOUS
 90
4
 70
0
 10
-35.1737898182
 20
10.1452375225
 10
-35.175711809
 20
10.1669653159
 10
-35.1808894396
 20
10.1886755578
 10
-35.1893177599
 20
10.2097988076
  0
LWPOLYLINE
  5
621
100
AcDbEntity
  8
IMPORT_IGES
100
AcDbPolyline
 62
253
  6
CONTINUOUS
 90
6
 70
0
 10
-35.3746780867
 20
10.315334839
 10
-35.3757312407
 20
10.3651693319
 10
-35.3765211062
 20
10.4150040726
 10
-35.3770476832
 20
10.4648390609
 10
-35.3771753915
 20
10.5146741966
 10
-35.3770476832
 20
10.6143455122
  0
LWPOLYLINE
  5
622
100
AcDbEntity
  8
IMPORT_IGES
100
AcDbPolyline
 62
7
  6
CONTINUOUS
 90
3
 70
0
 10
-34.9732310261
 20
10.1111386057
 10
-34.9765282296
 20
10.3537872753
 10
-34.9784108616
 20
10.6060705931
  0
LINE
  5
623
100
AcDbEntity
  8
IMPORT_IGES
100
AcDbLine
 62
253
  6
CONTINUOUS
 10
-35.0006679006
 20
-11.0959539636
 11
-35.0006898604
 21
-10.8959539636
  0
LINE
  5
624
100
AcDbEntity
  8
IMPORT_IGES
100
AcDbLine
 62
253
  6
CONTINUOUS
 10
-34.969439519
 20
10.0843948376
 11
-34.9694395794
 21
10.1111900192
  0
LINE
  5
625
100
AcDbEntity
  8
IMPORT_IGES
100
AcDbLine
 62
253
  6
CONTINUOUS
 10
-34.6499883601
 20
-11.0959539636
 11
-34.6499883601
 21
-10.8959539636
  0
LINE
  5
626
100
AcDbEntity
  8
IMPORT_IGES
100
AcDbLine
 62
253
  6
CONTINUOUS
 10
-34.4840557896
 20
10.1111900019
 11
-34.4840557896
 21
10.0843952055
  0
LINE
  5
627
100
AcDbEntity
  8
IMPORT_IGES
100
AcDbLine
 62
253
  6
CONTINUOUS
 10
-34.4550736895
 20
-10.7545926836
 11
-34.45507369
 21
-10.8131713278
  0
LINE
  5
628
100
AcDbEntity
  8
IMPORT_IGES
100
AcDbLine
 62
253
  6
CONTINUOUS
 10
-34.0586691391
 20
9.7638695392
 11
-34.0586691391
 21
9.5092817583
  0
LINE
  5
629
100
AcDbEntity
  8
IMPORT_IGES
100
AcDbLine
 62
253
  6
CONTINUOUS
 10
-34.9979121508
 20
-10.7545926837
 11
-34.9979244069
 21
-10.8131713238
  0
LINE
  5
62A
100
AcDbEntity
  8
IMPORT_IGES
100
AcDbLine
 62
253
  6
CONTINUOUS
 10
-34.9783946464
 20
10.8040460364
 11
-34.9784108616
 21
10.60607059
  0
LWPOLYLINE
  5
62B
100
AcDbEntity
  8
IMPORT_IGES
100
AcDbPolyline
 62
253
  6
CONTINUOUS
 90
10
 70
0
 10
-35.372681924
 20
-11.0080858203
 10
-35.3752675885
 20
-11.0258089145
 10
-35.3778086285
 20
-11.0417643871
 10
-35.380305044
 20
-11.0558338327
 10
-35.3827908387
 20
-11.06791335
 10
-35.3852320088
 20
-11.0779151339
 10
-35.3875265438
 20
-11.0857675878
 10
-35.3896404401
 20
-11.0914148457
 10
-35.3916077013
 20
-11.0948176216
 10
-35.3925460944
 20
-11.0954033188
  0
LINE
  5
62C
100
AcDbEntity
  8
IMPORT_IGES
100
AcDbLine
 62
7
  6
CONTINUOUS
 10
-43.4335185042
 20
10.8008663967
 11
-43.4199841653
 21
10.8032562027
  0
LWPOLYLINE
  5
62D
100
AcDbEntity
  8
IMPORT_IGES
100
AcDbPolyline
 62
253
  6
CONTINUOUS
 90
5
 70
0
 10
-43.4497028811
 20
10.7649382146
 10
-43.4627519813
 20
10.763092722
 10
-43.4750762049
 20
10.7597044327
 10
-43.4865061078
 20
10.7548668612
 10
-43.4970680662
 20
10.7485694211
  0
LINE
  5
62E
100
AcDbEntity
  8
IMPORT_IGES
100
AcDbLine
 62
7
  6
CONTINUOUS
 10
-43.4199841653
 20
10.8032562027
 11
-43.4063992507
 21
10.8040460362
  0
LWPOLYLINE
  5
62F
100
AcDbEntity
  8
IMPORT_IGES
100
AcDbPolyline
 62
7
  6
CONTINUOUS
 90
10
 70
0
 10
-48.0857748
 20
9.5092804806
 10
-48.1034059019
 20
9.5082672204
 10
-48.1206422306
 20
9.5058431014
 10
-48.1374837858
 20
9.5020081235
 10
-48.1540434536
 20
9.4967129647
 10
-48.170208348
 20
9.4900069471
 10
-48.1856398113
 20
9.482038037
 10
-48.2002249576
 20
9.4728555566
 10
-48.2140766728
 20
9.4624101837
 10
-48.2271949569
 20
9.4507019183
  0
LWPOLYLINE
  5
630
100
AcDbEntity
  8
IMPORT_IGES
100
AcDbPolyline
 62
253
  6
CONTINUOUS
 90
16
 70
0
 10
-34.9784108616
 20
10.6060705931
 10
-34.9176218244
 20
10.6075766044
 10
-34.8539421316
 20
10.6062123829
 10
-34.7873717831
 20
10.6019779288
 10
-34.7179612133
 20
10.5952893568
 10
-34.6456599877
 20
10.585730552
 10
-34.5703168032
 20
10.5720531704
 10
-34.4909905491
 20
10.553968506
 10
-34.4086223359
 20
10.5317652647
 10
-34.3258841927
 20
10.50506122
 10
-34.2433006187
 20
10.4739350382
 10
-34.1603471146
 20
10.4383080531
 10
-34.0781222108
 20
10.3975620392
 10
-33.996992084
 20
10.3514909215
 10
-33.9165905575
 20
10.300300775
 10
-33.8369176313
 20
10.2439915998
  0
LWPOLYLINE
  5
631
100
AcDbEntity
  8
IMPORT_IGES
100
AcDbPolyline
 62
253
  6
CONTINUOUS
 90
6
 70
0
 10
-35.1369816068
 20
10.6061995313
 10
-35.0783350051
 20
10.6066250892
 10
-35.0548900435
 20
10.6065945003
 10
-35.0301304849
 20
10.6063783281
 10
-35.0044821539
 20
10.6060152256
 10
-34.9783831495
 20
10.6055047276
  0
LINE
  5
632
100
AcDbEntity
  8
IMPORT_IGES
100
AcDbLine
 62
7
  6
CONTINUOUS
 10
-48.3691931777
 20
9.7157697532
 11
-56.2928815799
 21
9.7157697531
  0
LINE
  5
633
100
AcDbEntity
  8
IMPORT_IGES
100
AcDbLine
 62
253
  6
CONTINUOUS
 10
-34.0586691391
 20
9.7638536575
 11
-44.043707722
 21
9.7638695406
  0
LINE
  5
634
100
AcDbEntity
  8
IMPORT_IGES
100
AcDbLine
 62
7
  6
CONTINUOUS
 10
-44.0476260923
 20
9.8040460364
 11
-48.0857748201
 21
9.8040460364
  0
LINE
  5
635
100
AcDbEntity
  8
IMPORT_IGES
100
AcDbLine
 62
253
  6
CONTINUOUS
 10
-34.969439519
 20
10.0843948376
 11
-34.4840496073
 21
10.0843948376
  0
LINE
  5
636
100
AcDbEntity
  8
IMPORT_IGES
100
AcDbLine
 62
7
  6
CONTINUOUS
 10
-34.9694395752
 20
10.1111901254
 11
-34.4840557896
 21
10.1111901254
  0
LINE
  5
637
100
AcDbEntity
  8
IMPORT_IGES
100
AcDbLine
 62
253
  6
CONTINUOUS
 10
-35.378338751
 20
10.7638569031
 11
-43.4230087715
 21
10.7638600988
  0
LINE
  5
638
100
AcDbEntity
  8
IMPORT_IGES
100
AcDbLine
 62
7
  6
CONTINUOUS
 10
-34.9202080161
 20
10.8040460364
 11
-43.4063992507
 21
10.8040460364
  0
LINE
  5
639
100
AcDbEntity
  8
IMPORT_IGES
100
AcDbLine
 62
253
  6
CONTINUOUS
 10
-37.106022579
 20
10.9040442528
 11
-36.406022579
 21
10.9040460364
  0
LINE
  5
63A
100
AcDbEntity
  8
IMPORT_IGES
100
AcDbLine
 62
253
  6
CONTINUOUS
 10
-42.1056615795
 20
10.9040460364
 11
-42.8056615783
 21
10.9040460364
  0
LINE
  5
63B
100
AcDbEntity
  8
IMPORT_IGES
100
AcDbLine
 62
7
  6
CONTINUOUS
 10
-42.7056615785
 20
11.0040460364
 11
-42.2056615794
 21
11.0040460364
  0
LINE
  5
63C
100
AcDbEntity
  8
IMPORT_IGES
100
AcDbLine
 62
7
  6
CONTINUOUS
 10
-37.0060225785
 20
11.0040460364
 11
-36.5060225794
 21
11.0040460364
  0
LINE
  5
63D
100
AcDbEntity
  8
IMPORT_IGES
100
AcDbLine
 62
7
  6
CONTINUOUS
 10
-38.1060225789
 20
11.0040460364
 11
-41.1488005097
 21
11.0040460364
  0
LWPOLYLINE
  5
63E
100
AcDbEntity
  8
IMPORT_IGES
100
AcDbPolyline
 62
7
  6
CONTINUOUS
 90
3
 70
0
 10
-34.9694396039
 20
10.1111904999
 10
-34.9918033124
 20
10.1117045094
 10
-35.0167057753
 20
10.1134736666
  0
LWPOLYLINE
  5
63F
100
AcDbEntity
  8
IMPORT_IGES
100
AcDbPolyline
 62
253
  6
CONTINUOUS
 90
4
 70
0
 10
-34.407454334
 20
10.0887887114
 10
-34.4330403327
 20
10.0895952364
 10
-34.4586306089
 20
10.0881093863
 10
-34.4840496073
 20
10.0843944709
  0
LINE
  5
640
100
AcDbEntity
  8
IMPORT_IGES
100
AcDbLine
 62
253
  6
CONTINUOUS
 10
-34.969439519
 20
10.0843948376
 11
-35.0133359361
 21
10.0862110311
  0
LINE
  5
641
100
AcDbEntity
  8
IMPORT_IGES
100
AcDbLine
 62
253
  6
CONTINUOUS
 10
-35.0133359361
 20
10.0862110311
 11
-35.0551949856
 21
10.0901533125
  0
LWPOLYLINE
  5
642
100
AcDbEntity
  8
IMPORT_IGES
100
AcDbPolyline
 62
253
  6
CONTINUOUS
 90
3
 70
0
 10
-43.4230087715
 20
10.7638600919
 10
-43.4363477161
 20
10.7651777893
 10
-43.4497028811
 20
10.7649382146
  0
LWPOLYLINE
  5
643
100
AcDbEntity
  8
IMPORT_IGES
100
AcDbPolyline
 62
253
  6
CONTINUOUS
 90
8
 70
0
 10
-29.2245054127
 20
-0.0078605505
 10
-29.199867819
 20
-0.032642908
 10
-29.1721077817
 20
-0.0548724702
 10
-29.1418844065
 20
-0.0738860486
 10
-29.1092238875
 20
-0.0895453143
 10
-29.0746042656
 20
-0.1014415249
 10
-29.0390262779
 20
-0.109171717
 10
-29.0033261124
 20
-0.112646894
  0
LINE
  5
644
100
AcDbEntity
  8
IMPORT_IGES
100
AcDbLine
 62
253
  6
CONTINUOUS
 10
-33.6308115371
 20
-9.7234342187
 11
-33.6308249968
 21
-9.9303305178
  0
LWPOLYLINE
  5
645
100
AcDbEntity
  8
IMPORT_IGES
100
AcDbPolyline
 62
253
  6
CONTINUOUS
 90
13
 70
0
 10
-29.0034274795
 20
-0.1127781754
 10
-29.00796395
 20
-0.1171122286
 10
-29.011773576
 20
-0.1218605777
 10
-29.0148563573
 20
-0.1270273994
 10
-29.0171393722
 20
-0.1326334861
 10
-29.0186955425
 20
-0.1386676222
 10
-29.0197436335
 20
-0.1450751929
 10
-29.0205441065
 20
-0.1517928498
 10
-29.0208365002
 20
-0.1588630185
 10
-29.020058196
 20
-0.1663963401
 10
-29.0180216545
 20
-0.1744431382
 10
-29.0149144151
 20
-0.1829743573
 10
-29.0107364778
 20
-0.1919979111
  0
LINE
  5
646
100
AcDbEntity
  8
0
100
AcDbLine
 62
7
  6
CONTINUOUS
 10
-47.0153919493
 20
11.0657697538
 11
-46.4740915425
 21
11.0657697538
  0
LINE
  5
647
100
AcDbEntity
  8
IMPORT_IGES
100
AcDbLine
 62
7
  6
CONTINUOUS
 10
-47.1696931225
 20
11.0657697538
 11
-54.9928815803
 21
11.0657697538
  0
LINE
  5
648
100
AcDbEntity
  8
0
100
AcDbLine
 62
7
  6
CONTINUOUS
 10
-54.2635935732
 20
11.1657697538
 11
-54.1544212948
 21
11.1657697538
  0
LINE
  5
649
100
AcDbEntity
  8
0
100
AcDbLine
 62
7
  6
CONTINUOUS
 10
-50.7600968325
 20
11.1657697538
 11
-50.4451453351
 21
11.1657697538
  0
LINE
  5
64A
100
AcDbEntity
  8
0
100
AcDbLine
 62
7
  6
CONTINUOUS
 10
-54.1486432786
 20
11.1657697538
 11
-50.7629407862
 21
11.1657697538
  0
LINE
  5
64B
100
AcDbEntity
  8
0
100
AcDbLine
 62
7
  6
CONTINUOUS
 10
-50.4429065961
 20
11.1657697538
 11
-48.7577689255
 21
11.1657697538
  0
LINE
  5
64C
100
AcDbEntity
  8
0
100
AcDbLine
 62
7
  6
CONTINUOUS
 10
-47.6928815789
 20
11.1657697538
 11
-46.4740915425
 21
11.1657697538
  0
LINE
  5
64D
100
AcDbEntity
  8
IMPORT_IGES
100
AcDbLine
 62
7
  6
CONTINUOUS
 10
-55.4928815808
 20
12.2157697531
 11
-54.9928815803
 21
12.2157697531
  0
LINE
  5
64E
100
AcDbEntity
  8
IMPORT_IGES
100
AcDbLine
 62
253
  6
CONTINUOUS
 10
-35.3783387512
 20
10.7638536686
 11
-35.3529941948
 21
10.7624898594
  0
LWPOLYLINE
  5
64F
100
AcDbEntity
  8
IMPORT_IGES
100
AcDbPolyline
 62
7
  6
CONTINUOUS
 90
3
 70
0
 10
-35.0167057753
 20
10.1134736666
 10
-35.0412418809
 20
10.116504444
 10
-35.0650327639
 20
10.1207574377
  0
LWPOLYLINE
  5
650
100
AcDbEntity
  8
IMPORT_IGES
100
AcDbPolyline
 62
7
  6
CONTINUOUS
 90
3
 70
0
 10
-34.4113606084
 20
10.103216283
 10
-34.4565144202
 20
10.1100325391
 10
-34.4840630066
 20
10.1111970766
  0
LINE
  5
651
100
AcDbEntity
  8
IMPORT_IGES
100
AcDbLine
 62
253
  6
CONTINUOUS
 10
-35.0551949856
 20
10.0901533125
 11
-35.0950166675
 21
10.0962216818
  0
LWPOLYLINE
  5
652
100
AcDbEntity
  8
IMPORT_IGES
100
AcDbPolyline
 62
253
  6
CONTINUOUS
 90
4
 70
0
 10
-35.3529941948
 20
10.7624898594
 10
-35.3276717916
 20
10.7582686529
 10
-35.303044739
 20
10.7512079169
 10
-35.2800748651
 20
10.7416340881
  0
LWPOLYLINE
  5
653
100
AcDbEntity
  8
IMPORT_IGES
100
AcDbPolyline
 62
253
  6
CONTINUOUS
 90
4
 70
0
 10
-35.0950166675
 20
10.0962216818
 10
-35.132820667
 20
10.1044596696
 10
-35.1685872989
 20
10.1148237452
 10
-35.2022575077
 20
10.1271833167
  0
LWPOLYLINE
  5
654
100
AcDbEntity
  8
IMPORT_IGES
100
AcDbPolyline
 62
7
  6
CONTINUOUS
 90
8
 70
0
 10
-35.0650327639
 20
10.1207574377
 10
-35.087545217
 20
10.1261003657
 10
-35.1084846405
 20
10.1323986691
 10
-35.1275625982
 20
10.1394867373
 10
-35.1442343159
 20
10.1470214899
 10
-35.1578737584
 20
10.1544545173
 10
-35.1684519231
 20
10.1613971734
 10
-35.1695642183
 20
10.1622130963
  0
LINE
  5
655
100
AcDbEntity
  8
IMPORT_IGES
100
AcDbLine
 62
253
  6
CONTINUOUS
 10
-29.2457843225
 20
0.0189728375
 11
-29.2245054127
 21
-0.0078605505
  0
LINE
  5
656
100
AcDbEntity
  8
IMPORT_IGES
100
AcDbLine
 62
253
  6
CONTINUOUS
 10
-29.2258591825
 20
0.0116279934
 11
-29.2480536642
 21
0.0420969922
  0
LWPOLYLINE
  5
657
100
AcDbEntity
  8
IMPORT_IGES
100
AcDbPolyline
 62
253
  6
CONTINUOUS
 90
5
 70
0
 10
-29.252551384
 20
-0.1777055003
 10
-29.2699179005
 20
-0.1536604631
 10
-29.2825827918
 20
-0.1282091594
 10
-29.2902907048
 20
-0.1017956102
 10
-29.2913481417
 20
-0.0908064865
  0
LINE
  5
658
100
AcDbEntity
  8
IMPORT_IGES
100
AcDbLine
 62
253
  6
CONTINUOUS
 10
-31.7428815789
 20
-7.8940829044
 11
-31.7428815789
 21
-1.9309539636
  0
LINE
  5
659
100
AcDbEntity
  8
IMPORT_IGES
100
AcDbLine
 62
7
  6
CONTINUOUS
 10
-31.4428815789
 20
-7.8888471819
 11
-31.4428815789
 21
-2.0909539636
  0
LWPOLYLINE
  5
65A
100
AcDbEntity
  8
IMPORT_IGES
100
AcDbPolyline
 62
253
  6
CONTINUOUS
 90
10
 70
0
 10
-31.7428815789
 20
-7.8940829044
 10
-31.7436897862
 20
-7.9117266705
 10
-31.7459611557
 20
-7.9289796776
 10
-31.7496956875
 20
-7.9458419255
 10
-31.7549440877
 20
-7.9624358296
 10
-31.76165565
 20
-7.9786389745
 10
-31.7696782566
 20
-7.9940841146
 10
-31.7789612011
 20
-8.0086488348
 10
-31.7895551899
 20
-8.0224555501
 10
-31.8014602227
 20
-8.0355042606
  0
LINE
  5
65B
100
AcDbEntity
  8
IMPORT_IGES
100
AcDbLine
 62
253
  6
CONTINUOUS
 10
-31.436566604
 20
-7.1356070198
 11
-31.4291403193
 21
-7.0209050731
  0
LWPOLYLINE
  5
65C
100
AcDbEntity
  8
IMPORT_IGES
100
AcDbPolyline
 62
253
  6
CONTINUOUS
 90
5
 70
0
 10
-31.4291403193
 20
-7.0209050731
 10
-31.4189355786
 20
-6.9046335069
 10
-31.4062024628
 20
-6.7886462602
 10
-31.3919978329
 20
-6.679216172
 10
-31.3773810693
 20
-6.5809003385
  0
LINE
  5
65D
100
AcDbEntity
  8
IMPORT_IGES
100
AcDbLine
 62
7
  6
CONTINUOUS
 10
-35.1869914835
 20
-10.9409489247
 11
-35.1868972004
 21
-10.9407119336
  0
LWPOLYLINE
  5
65E
100
AcDbEntity
  8
IMPORT_IGES
100
AcDbPolyline
 62
7
  6
CONTINUOUS
 90
17
 70
0
 10
-35.1870081464
 20
-10.9409823089
 10
-35.1847313119
 20
-10.9355373106
 10
-35.1785266694
 20
-10.9225825471
 10
-35.1713700451
 20
-10.9100359188
 10
-35.163257168
 20
-10.897922164
 10
-35.1542352287
 20
-10.8863456802
 10
-35.1442203404
 20
-10.8752646948
 10
-35.1330051481
 20
-10.8645766371
 10
-35.120611445
 20
-10.8544490728
 10
-35.1070309784
 20
-10.8450422879
 10
-35.0921115955
 20
-10.8364353916
 10
-35.0760971783
 20
-10.8289140305
 10
-35.0591961216
 20
-10.8227088675
 10
-35.0414467703
 20
-10.8179454938
 10
-35.0232359644
 20
-10.8147672872
 10
-35.0050466987
 20
-10.8132704451
 10
-34.9979226336
 20
-10.8131495005
  0
LWPOLYLINE
  5
65F
100
AcDbEntity
  8
IMPORT_IGES
100
AcDbPolyline
 62
253
  6
CONTINUOUS
 90
10
 70
0
 10
-29.0034274795
 20
-0.1127781754
 10
-29.0014387202
 20
-0.1103521259
 10
-28.9996883371
 20
-0.1081007388
 10
-28.9981763301
 20
-0.1060181605
 10
-28.99690231
 20
-0.10410263
 10
-28.995866666
 20
-0.1023437114
 10
-28.9950705661
 20
-0.1007250957
 10
-28.9945143995
 20
-0.0992402853
 10
-28.9941977769
 20
-0.0978898005
 10
-28.9941206984
 20
-0.096670362
  0
LWPOLYLINE
  5
660
100
AcDbEntity
  8
IMPORT_IGES
100
AcDbPolyline
 62
7
  6
CONTINUOUS
 90
10
 70
0
 10
-29.2928815789
 20
-6.5384221253
 10
-29.295450236
 20
-6.5396302932
 10
-29.303163132
 20
-6.540813065
 10
-29.3158459764
 20
-6.5419494546
 10
-29.3332232976
 20
-6.5430351795
 10
-29.354970245
 20
-6.5440534825
 10
-29.3807582429
 20
-6.5449748429
 10
-29.4101586264
 20
-6.545788765
 10
-29.4426644174
 20
-6.5464893453
 10
-29.4777885336
 20
-6.5470547353
  0
LWPOLYLINE
  5
661
100
AcDbEntity
  8
IMPORT_IGES
100
AcDbPolyline
 62
253
  6
CONTINUOUS
 90
10
 70
0
 10
-35.2022575077
 20
10.1271833167
 10
-35.2342732162
 20
10.1416958185
 10
-35.2641925017
 20
10.1582038162
 10
-35.2906305404
 20
10.1761044152
 10
-35.3130777561
 20
10.1950563547
 10
-35.3320437249
 20
10.2154008955
 10
-35.3476723518
 20
10.2375589255
 10
-35.3600116053
 20
10.2616707408
 10
-35.3690135169
 20
10.2875960453
 10
-35.3746780867
 20
10.315334839
  0
LWPOLYLINE
  5
662
100
AcDbEntity
  8
IMPORT_IGES
100
AcDbPolyline
 62
253
  6
CONTINUOUS
 90
4
 70
0
 10
-35.2800748651
 20
10.7416340881
 10
-35.2589828259
 20
10.7297851456
 10
-35.2394086163
 20
10.7154265757
 10
-35.2218380689
 20
10.6987039392
  0
LINE
  5
663
100
AcDbEntity
  8
IMPORT_IGES
100
AcDbLine
 62
253
  6
CONTINUOUS
 10
-34.0586691418
 20
9.5092817547
 11
-31.7919622317
 21
7.8011946012
  0
LWPOLYLINE
  5
664
100
AcDbEntity
  8
IMPORT_IGES
100
AcDbPolyline
 62
253
  6
CONTINUOUS
 90
6
 70
0
 10
-35.2218380689
 20
10.6987039392
 10
-35.2068941242
 20
10.6800751689
 10
-35.1947056029
 20
10.659534418
 10
-35.1856775595
 20
10.6374358065
 10
-35.1801948153
 20
10.6145669755
 10
-35.1783179213
 20
10.5915945223
  0
LINE
  5
665
100
AcDbEntity
  8
IMPORT_IGES
100
AcDbLine
 62
253
  6
CONTINUOUS
 10
-29.2640511716
 20
0.0482497223
 11
-29.2457843225
 21
0.0189728375
  0
LWPOLYLINE
  5
666
100
AcDbEntity
  8
IMPORT_IGES
100
AcDbPolyline
 62
253
  6
CONTINUOUS
 90
10
 70
0
 10
-35.1893177599
 20
10.2097988076
 10
-35.2006741356
 20
10.2295671194
 10
-35.2146896665
 20
10.2477244743
 10
-35.2315029293
 20
10.2644213622
 10
-35.2507487359
 20
10.2791724101
 10
-35.2719889165
 20
10.2916269697
 10
-35.2955383299
 20
10.301841896
 10
-35.3211347447
 20
10.309437242
 10
-35.3477787627
 20
10.31397077
 10
-35.3746780758
 20
10.3153330368
  0
LINE
  5
667
100
AcDbEntity
  8
IMPORT_IGES
100
AcDbLine
 62
253
  6
CONTINUOUS
 10
-29.2480536642
 20
0.0420969922
 11
-29.2665905872
 21
0.0759657191
  0
LINE
  5
668
100
AcDbEntity
  8
IMPORT_IGES
100
AcDbLine
 62
253
  6
CONTINUOUS
 10
-29.2789831453
 20
0.0797563882
 11
-29.2640511716
 21
0.0482497223
  0
LINE
  5
669
100
AcDbEntity
  8
IMPORT_IGES
100
AcDbLine
 62
253
  6
CONTINUOUS
 10
-31.1342519065
 20
3.9045760571
 11
-29.7431873627
 21
0.8276826219
  0
LWPOLYLINE
  5
66A
100
AcDbEntity
  8
IMPORT_IGES
100
AcDbPolyline
 62
253
  6
CONTINUOUS
 90
10
 70
0
 10
-31.1342519065
 20
3.9045760571
 10
-31.1644610161
 20
3.974486137
 10
-31.1922825126
 20
4.0451944978
 10
-31.2177163958
 20
4.1167011394
 10
-31.2407847879
 20
4.1890863859
 10
-31.2614655667
 20
4.2622699132
 10
-31.2796923665
 20
4.3360107489
 10
-31.2954430652
 20
4.4102285691
 10
-31.3087397847
 20
4.4850036978
 10
-31.3195825252
 20
4.560336135
  0
LINE
  5
66B
100
AcDbEntity
  8
IMPORT_IGES
100
AcDbLine
 62
253
  6
CONTINUOUS
 10
-31.7139192601
 20
7.6666548952
 11
-31.3195825252
 21
4.560336135
  0
LINE
  5
66C
100
AcDbEntity
  8
IMPORT_IGES
100
AcDbLine
 62
253
  6
CONTINUOUS
 10
-29.2900400489
 20
0.1514635503
 11
-29.293958168
 21
0.1905978674
  0
LINE
  5
66D
100
AcDbEntity
  8
IMPORT_IGES
100
AcDbLine
 62
253
  6
CONTINUOUS
 10
-29.6276847674
 20
6.2621537336
 11
-29.6373910701
 21
6.6996122232
  0
LINE
  5
66E
100
AcDbEntity
  8
IMPORT_IGES
100
AcDbLine
 62
253
  6
CONTINUOUS
 10
-29.6159036283
 20
5.717921372
 11
-29.514349782
 21
1.0445156419
  0
LINE
  5
66F
100
AcDbEntity
  8
IMPORT_IGES
100
AcDbLine
 62
253
  6
CONTINUOUS
 10
-29.5928845528
 20
0.1303637325
 11
-29.5928815789
 21
-8.3914561344
  0
LINE
  5
670
100
AcDbEntity
  8
IMPORT_IGES
100
AcDbLine
 62
253
  6
CONTINUOUS
 10
-31.4175640046
 20
-7.0373340248
 11
-31.4361807394
 21
-7.1980326184
  0
LINE
  5
671
100
AcDbEntity
  8
IMPORT_IGES
100
AcDbLine
 62
253
  6
CONTINUOUS
 10
-31.3773810693
 20
-6.5809003385
 11
-31.3723285469
 21
-6.5503141179
  0
LWPOLYLINE
  5
672
100
AcDbEntity
  8
IMPORT_IGES
100
AcDbPolyline
 62
253
  6
CONTINUOUS
 90
4
 70
0
 10
-31.329424104
 20
-6.6678487677
 10
-31.3535040095
 20
-6.7446314017
 10
-31.3892097179
 20
-6.8858716015
 10
-31.4175640046
 20
-7.0373340248
  0
LWPOLYLINE
  5
673
100
AcDbEntity
  8
IMPORT_IGES
100
AcDbPolyline
 62
7
  6
CONTINUOUS
 90
4
 70
0
 10
-35.2136813627
 20
-10.9933885274
 10
-35.2032320681
 20
-10.9756768118
 10
-35.1936911608
 20
-10.9565722482
 10
-35.1868972004
 20
-10.9407119336
  0
LINE
  5
674
100
AcDbEntity
  8
IMPORT_IGES
100
AcDbLine
 62
253
  6
CONTINUOUS
 10
-31.8014602227
 20
-8.0355042606
 11
-33.345456452
 21
-9.5795004899
  0
LINE
  5
675
100
AcDbEntity
  8
IMPORT_IGES
100
AcDbLine
 62
253
  6
CONTINUOUS
 10
-33.63082684
 20
-9.9303298213
 11
-34.4550736895
 21
-10.7545926838
  0
LWPOLYLINE
  5
676
100
AcDbEntity
  8
IMPORT_IGES
100
AcDbPolyline
 62
253
  6
CONTINUOUS
 90
10
 70
0
 10
-33.345456452
 20
-9.5795004899
 10
-33.3739635389
 20
-9.606615656
 10
-33.4039891973
 20
-9.6313455304
 10
-33.4355334273
 20
-9.6536901132
 10
-33.4695546464
 20
-9.6741765253
 10
-33.505094437
 20
-9.6922776457
 10
-33.5392775467
 20
-9.7064121116
 10
-33.5711455578
 20
-9.7160528019
 10
-33.601656888
 20
-9.7217268376
 10
-33.6308115371
 20
-9.7234342187
  0
LWPOLYLINE
  5
677
100
AcDbEntity
  8
IMPORT_IGES
100
AcDbPolyline
 62
253
  6
CONTINUOUS
 90
6
 70
0
 10
-35.2511235216
 20
-10.844018238
 10
-35.2809642358
 20
-10.8704092047
 10
-35.3081161878
 20
-10.9000194629
 10
-35.332326862
 20
-10.9328222906
 10
-35.3538487741
 20
-10.9688444098
 10
-35.372681924
 20
-11.0080858203
  0
LWPOLYLINE
  5
678
100
AcDbEntity
  8
IMPORT_IGES
100
AcDbPolyline
 62
7
  6
CONTINUOUS
 90
5
 70
0
 10
-35.2773972531
 20
-11.0599606145
 10
-35.2573421825
 20
-11.0444757314
 10
-35.2401823453
 20
-11.027820417
 10
-35.2257431781
 20
-11.0106384543
 10
-35.2136813627
 20
-10.9933885274
  0
LWPOLYLINE
  5
679
100
AcDbEntity
  8
IMPORT_IGES
100
AcDbPolyline
 62
7
  6
CONTINUOUS
 90
3
 70
0
 10
-35.3262584016
 20
-11.084591577
 10
-35.3004075282
 20
-11.0735812541
 10
-35.2773972531
 20
-11.0599606145
  0
LWPOLYLINE
  5
67A
100
AcDbEntity
  8
IMPORT_IGES
100
AcDbPolyline
 62
253
  6
CONTINUOUS
 90
7
 70
0
 10
-34.2651891511
 20
10.0353107252
 10
-34.2865043825
 20
10.0498205509
 10
-34.3089945001
 20
10.0621430023
 10
-34.3325017773
 20
10.0722257155
 10
-34.3569100258
 20
10.080065142
 10
-34.3820015013
 20
10.0856132557
 10
-34.407454334
 20
10.0887887114
  0
LWPOLYLINE
  5
67B
100
AcDbEntity
  8
IMPORT_IGES
100
AcDbPolyline
 62
7
  6
CONTINUOUS
 90
5
 70
0
 10
-34.2651879395
 20
10.0353119009
 10
-34.283082811
 20
10.0480261449
 10
-34.3238256641
 20
10.0718565313
 10
-34.3667324017
 20
10.0903280003
 10
-34.4113606084
 20
10.103216283
  0
LINE
  5
67C
100
AcDbEntity
  8
IMPORT_IGES
100
AcDbLine
 62
253
  6
CONTINUOUS
 10
-34.4840496073
 20
10.0843948376
 11
-34.0586691391
 21
9.7638536575
  0
LINE
  5
67D
100
AcDbEntity
  8
IMPORT_IGES
100
AcDbLine
 62
7
  6
CONTINUOUS
 10
-31.6114163452
 20
8.0355494793
 11
-34.2651891504
 21
10.0353107248
  0
LINE
  5
67E
100
AcDbEntity
  8
IMPORT_IGES
100
AcDbLine
 62
253
  6
CONTINUOUS
 10
-31.5211461785
 20
8.1535426836
 11
-31.7365239125
 21
8.3158290481
  0
LINE
  5
67F
100
AcDbEntity
  8
IMPORT_IGES
100
AcDbLine
 62
253
  6
CONTINUOUS
 10
-33.8369176313
 20
10.2439915998
 11
-29.9554992824
 21
7.3191330828
  0
LINE
  5
680
100
AcDbEntity
  8
IMPORT_IGES
100
AcDbLine
 62
7
  6
CONTINUOUS
 10
-29.8351372418
 20
7.4764592659
 11
-33.7165546501
 21
10.4013170741
  0
LWPOLYLINE
  5
681
100
AcDbEntity
  8
IMPORT_IGES
100
AcDbPolyline
 62
253
  6
CONTINUOUS
 90
10
 70
0
 10
-29.9554992824
 20
7.3191330828
 10
-29.8932332688
 20
7.2668186111
 10
-29.8374247101
 20
7.2098396826
 10
-29.7880736062
 20
7.1481962973
 10
-29.7448163446
 20
7.0811762391
 10
-29.7080165379
 20
7.0094917242
 10
-29.6787650234
 20
6.9352794003
 10
-29.6574254135
 20
6.8592514835
 10
-29.6436340957
 20
6.7806957578
 10
-29.6373910701
 20
6.6996122232
  0
LINE
  5
682
100
AcDbEntity
  8
IMPORT_IGES
100
AcDbLine
 62
253
  6
CONTINUOUS
 10
-31.3957156415
 20
7.5370058401
 11
-29.6451693486
 21
5.7864595471
  0
LINE
  5
683
100
AcDbEntity
  8
IMPORT_IGES
100
AcDbLine
 62
7
  6
CONTINUOUS
 10
-31.5130071468
 20
7.9371400579
 11
-29.5037479923
 21
5.9278809033
  0
LINE
  5
684
100
AcDbEntity
  8
IMPORT_IGES
100
AcDbLine
 62
253
  6
CONTINUOUS
 10
-29.6276847674
 20
6.2621537336
 11
-31.4000119967
 21
8.0344757082
  0
LWPOLYLINE
  5
685
100
AcDbEntity
  8
IMPORT_IGES
100
AcDbPolyline
 62
253
  6
CONTINUOUS
 90
10
 70
0
 10
-29.6451693486
 20
5.7864595471
 10
-29.639499919
 20
5.7801664169
 10
-29.634408738
 20
5.7734814378
 10
-29.6298958057
 20
5.7664046098
 10
-29.6259262256
 20
5.7588542086
 10
-29.6225348942
 20
5.7509119586
 10
-29.6198264999
 20
5.7428230326
 10
-29.6178359389
 20
5.734669155
 10
-29.616528315
 20
5.7263686014
 10
-29.6159036283
 20
5.717921372
  0
LWPOLYLINE
  5
686
100
AcDbEntity
  8
IMPORT_IGES
100
AcDbPolyline
 62
253
  6
CONTINUOUS
 90
10
 70
0
 10
-31.4000119967
 20
8.0344757082
 10
-31.4116133518
 20
8.0489554014
 10
-31.4236860507
 20
8.0631327254
 10
-31.4362300935
 20
8.0770076804
 10
-31.4492546058
 20
8.0905937838
 10
-31.4627504619
 20
8.103877518
 10
-31.4766902849
 20
8.1168183304
 10
-31.4910649492
 20
8.1294027033
 10
-31.5058835804
 20
8.1416441544
 10
-31.5211461785
 20
8.1535426836
  0
LWPOLYLINE
  5
687
100
AcDbEntity
  8
IMPORT_IGES
100
AcDbPolyline
 62
253
  6
CONTINUOUS
 90
10
 70
0
 10
-29.5037331823
 20
5.9278690388
 10
-29.5091432887
 20
5.9347229082
 10
-29.5130879867
 20
5.9430709414
 10
-29.5154252051
 20
5.9527893427
 10
-29.5160801131
 20
5.9635701779
 10
-29.5150809169
 20
5.9752735312
 10
-29.512381882
 20
5.9880420244
 10
-29.5079123053
 20
6.001770893
 10
-29.5017599758
 20
6.0160261477
 10
-29.4940739623
 20
6.0304751398
  0
LWPOLYLINE
  5
688
100
AcDbEntity
  8
0
100
AcDbPolyline
 62
7
  6
CONTINUOUS
 90
10
 70
0
 43
0.3500000006
 10
-39.2535966797
 20
21.4657680359
 10
-39.1821654968
 20
21.3229147339
 10
-39.1821654968
 20
21.251483551
 10
-39.3250233307
 20
21.1086257172
 10
-39.3964545135
 20
21.1086257172
 10
-39.4678811646
 20
21.1800569
 10
-39.4678811646
 20
21.251483551
 10
-39.3964545135
 20
21.3943413849
 10
-39.3250233307
 20
21.4657680359
 10
-39.2535966797
 20
21.4657680359
  0
LWPOLYLINE
  5
689
100
AcDbEntity
  8
0
100
AcDbPolyline
 62
7
  6
CONTINUOUS
 90
10
 70
0
 43
0.3500000006
 10
-43.485737915
 20
31.4657710876
 10
-43.414311264
 20
31.3229132538
 10
-43.414311264
 20
31.2514820709
 10
-43.5571690979
 20
31.1086287689
 10
-43.6285957489
 20
31.1086287689
 10
-43.7000223999
 20
31.1800554199
 10
-43.7000223999
 20
31.2514820709
 10
-43.6285957489
 20
31.3943399048
 10
-43.5571690979
 20
31.4657710876
 10
-43.485737915
 20
31.4657710876
  0
LWPOLYLINE
  5
68A
100
AcDbEntity
  8
IMPORT_IGES
100
AcDbPolyline
 62
253
  6
CONTINUOUS
 90
13
 70
0
 10
-26.4428815789
 20
-3.9118616766
 10
-26.4411705512
 20
-3.9153012005
 10
-26.4360667442
 20
-3.9186818732
 10
-26.4276574854
 20
-3.9219458505
 10
-26.4160866597
 20
-3.9250372847
 10
-26.401552247
 20
-3.9279032807
 10
-26.3843029352
 20
-3.9304948003
 10
-26.3646338647
 20
-3.932767502
 10
-26.3428815789
 20
-3.9346824993
 10
-26.3194182654
 20
-3.936207026
 10
-26.294645388
 20
-3.9373149969
 10
-26.2689868174
 20
-3.9379874545
 10
-26.2428815789
 20
-3.9382128929
  0
LINE
  5
68B
100
AcDbEntity
  8
IMPORT_IGES
100
AcDbLine
 62
7
  6
CONTINUOUS
 10
-29.4698258569
 20
0.9460333244
 11
-30.8608911244
 21
4.0229258268
  0
LWPOLYLINE
  5
68C
100
AcDbEntity
  8
IMPORT_IGES
100
AcDbPolyline
 62
253
  6
CONTINUOUS
 90
10
 70
0
 10
-29.7431873627
 20
0.8276826219
 10
-29.7120730485
 20
0.7538448276
 10
-29.6845344927
 20
0.6789684145
 10
-29.6605716953
 20
0.6030533829
 10
-29.6401476669
 20
0.5259289351
 10
-29.623299397
 20
0.4477658686
 10
-29.6101378538
 20
0.3690765759
 10
-29.6007000267
 20
0.2900318544
 10
-29.5949489264
 20
0.2104609066
 10
-29.5928845528
 20
0.1303637325
  0
LWPOLYLINE
  5
68D
100
AcDbEntity
  8
IMPORT_IGES
100
AcDbPolyline
 62
253
  6
CONTINUOUS
 90
10
 70
0
 10
-29.0107364778
 20
-0.1919979111
 10
-29.0071465962
 20
-0.2010770489
 10
-29.0039437442
 20
-0.2103808591
 10
-29.0011279216
 20
-0.2198895308
 10
-28.9986798333
 20
-0.2295824691
 10
-28.9966187744
 20
-0.2394419735
 10
-28.995002631
 20
-0.2494536274
 10
-28.9938506982
 20
-0.2596012282
 10
-28.9931436809
 20
-0.2698664231
 10
-28.9928815789
 20
-0.2802326416
  0
LINE
  5
68E
100
AcDbEntity
  8
IMPORT_IGES
100
AcDbLine
 62
253
  6
CONTINUOUS
 10
-29.2665905872
 20
0.0759657191
 11
-29.2808437359
 21
0.1128841546
  0
LINE
  5
68F
100
AcDbEntity
  8
IMPORT_IGES
100
AcDbLine
 62
253
  6
CONTINUOUS
 10
-29.2808437359
 20
0.1128841546
 11
-29.2900400489
 21
0.1514635503
  0
LWPOLYLINE
  5
690
100
AcDbEntity
  8
IMPORT_IGES
100
AcDbPolyline
 62
7
  6
CONTINUOUS
 90
10
 70
0
 10
-31.7139192601
 20
7.6666548952
 10
-31.717220622
 20
7.6843006555
 10
-31.7219142234
 20
7.7013553535
 10
-31.7280000643
 20
7.7178189892
 10
-31.7355444375
 20
7.7338024474
 10
-31.7444810502
 20
7.7491948432
 10
-31.7546110239
 20
7.7636635219
 10
-31.7658680656
 20
7.7770975987
 10
-31.7783184682
 20
7.7896079585
 10
-31.7919622317
 20
7.8011946012
  0
LINE
  5
691
100
AcDbEntity
  8
IMPORT_IGES
100
AcDbLine
 62
7
  6
CONTINUOUS
 10
-31.0219719935
 20
4.5928884979
 11
-31.4163055266
 21
7.6992000017
  0
LINE
  5
692
100
AcDbEntity
  8
IMPORT_IGES
100
AcDbLine
 62
253
  6
CONTINUOUS
 10
-28.9941206984
 20
-0.096670362
 11
-28.9944179632
 21
-0.0909539636
  0
LWPOLYLINE
  5
693
100
AcDbEntity
  8
IMPORT_IGES
100
AcDbPolyline
 62
253
  6
CONTINUOUS
 90
4
 70
0
 10
-29.4159511234
 20
5.7222798198
 10
-29.4177656932
 20
5.7614172395
 10
-29.4214486059
 20
5.7994300611
 10
-29.4269317726
 20
5.8363041057
  0
LINE
  5
694
100
AcDbEntity
  8
IMPORT_IGES
100
AcDbLine
 62
7
  6
CONTINUOUS
 10
-29.2960012905
 20
0.2556632668
 11
-29.4371873171
 21
6.6995480669
  0
LINE
  5
695
100
AcDbEntity
  8
IMPORT_IGES
100
AcDbLine
 62
7
  6
CONTINUOUS
 10
-29.2928815789
 20
-8.0914238145
 11
-29.2928815789
 21
0.1251281863
  0
LINE
  5
696
100
AcDbEntity
  8
IMPORT_IGES
100
AcDbLine
 62
253
  6
CONTINUOUS
 10
-28.9928815789
 20
-3.0909539636
 11
-28.9928815789
 21
-0.2802326416
  0
LINE
  5
697
100
AcDbEntity
  8
IMPORT_IGES
100
AcDbLine
 62
7
  6
CONTINUOUS
 10
-34.2964349696
 20
-10.9495073543
 11
-31.5893281881
 21
-8.2424005728
  0
LWPOLYLINE
  5
698
100
AcDbEntity
  8
IMPORT_IGES
100
AcDbPolyline
 62
253
  6
CONTINUOUS
 90
10
 70
0
 10
-33.8893883342
 20
-10.5424607189
 10
-33.9488237877
 20
-10.5963530377
 10
-34.0107059637
 20
-10.6421936722
 10
-34.0742221741
 20
-10.6801393264
 10
-34.1383646009
 20
-10.7105179362
 10
-34.2025414393
 20
-10.7336826437
 10
-34.2667812616
 20
-10.7496000872
 10
-34.3307854797
 20
-10.7582041782
 10
-34.3937445315
 20
-10.7597867996
 10
-34.4550736895
 20
-10.7545926838
  0
LWPOLYLINE
  5
699
100
AcDbEntity
  8
IMPORT_IGES
100
AcDbPolyline
 62
253
  6
CONTINUOUS
 90
4
 70
0
 10
-29.5068809628
 20
6.0528766411
 10
-29.5488446405
 20
6.1252589257
 10
-29.5636979532
 20
6.151128602
 10
-29.6111894434
 20
6.2332564305
  0
LINE
  5
69A
100
AcDbEntity
  8
IMPORT_IGES
100
AcDbLine
 62
253
  6
CONTINUOUS
 10
-29.494079114
 20
6.0304750585
 11
-29.5068809628
 21
6.0528766411
  0
LINE
  5
69B
100
AcDbEntity
  8
IMPORT_IGES
100
AcDbLine
 62
253
  6
CONTINUOUS
 10
-29.6111894434
 20
6.2332564305
 11
-29.627691405
 21
6.2621535893
  0
LINE
  5
69C
100
AcDbEntity
  8
IMPORT_IGES
100
AcDbLine
 62
253
  6
CONTINUOUS
 10
-29.4789894674
 20
6.001838884
 11
-29.494079114
 21
6.0304750585
  0
LINE
  5
69D
100
AcDbEntity
  8
IMPORT_IGES
100
AcDbLine
 62
253
  6
CONTINUOUS
 10
-29.4653601465
 20
5.9717118196
 11
-29.4789894674
 21
6.001838884
  0
LWPOLYLINE
  5
69E
100
AcDbEntity
  8
IMPORT_IGES
100
AcDbPolyline
 62
253
  6
CONTINUOUS
 90
5
 70
0
 10
-29.4269317726
 20
5.8363041057
 10
-29.4340961173
 20
5.872155761
 10
-29.4428624398
 20
5.9068692024
 10
-29.4532799467
 20
5.9400939946
 10
-29.4653601465
 20
5.9717118196
  0
LWPOLYLINE
  5
69F
100
AcDbEntity
  8
IMPORT_IGES
100
AcDbPolyline
 62
253
  6
CONTINUOUS
 90
13
 70
0
 10
-26.442881579
 20
-5.4514241108
 10
-26.4445926067
 20
-5.4297181423
 10
-26.4496964137
 20
-5.408383569
 10
-26.4581056724
 20
-5.3877854312
 10
-26.4696764982
 20
-5.3682761689
 10
-26.4842109109
 20
-5.3501895909
 10
-26.5014602227
 20
-5.3338351637
 10
-26.5211292932
 20
-5.3194927159
 10
-26.542881579
 20
-5.3074076509
 10
-26.5663448925
 20
-5.2977867474
 10
-26.5911177699
 20
-5.2907946218
 10
-26.6167763405
 20
-5.2865509113
 10
-26.6428815789
 20
-5.285128227
  0
LINE
  5
6A0
100
AcDbEntity
  8
IMPORT_IGES
100
AcDbLine
 62
253
  6
CONTINUOUS
 10
-26.9928815789
 20
-0.6909539636
 11
-26.9928815789
 21
-0.0909539636
  0
LINE
  5
6A1
100
AcDbEntity
  8
IMPORT_IGES
100
AcDbLine
 62
253
  6
CONTINUOUS
 10
-26.6428815789
 20
-6.2962517113
 11
-26.6428815789
 21
-3.2591592441
  0
LINE
  5
6A2
100
AcDbEntity
  8
IMPORT_IGES
100
AcDbLine
 62
7
  6
CONTINUOUS
 10
-26.4928815789
 20
0.9090460364
 11
-26.4928815789
 21
0.2310004821
  0
LINE
  5
6A3
100
AcDbEntity
  8
IMPORT_IGES
100
AcDbLine
 62
7
  6
CONTINUOUS
 10
-26.4428815789
 20
-3.475238277
 11
-26.4428815789
 21
-7.4269975318
  0
LWPOLYLINE
  5
6A4
100
AcDbEntity
  8
IMPORT_IGES
100
AcDbPolyline
 62
7
  6
CONTINUOUS
 90
22
 70
0
 10
-26.4928815789
 20
0.2310004821
 10
-26.4936059474
 20
0.1954238995
 10
-26.4963274182
 20
0.1589327147
 10
-26.5010459913
 20
0.1215269275
 10
-26.507664195
 20
0.083190116
 10
-26.516279501
 20
0.0439387022
 10
-26.5271843246
 20
0.003821952
 10
-26.5403921939
 20
-0.0371811321
 10
-26.5558895808
 20
-0.0790495527
 10
-26.5739283162
 20
-0.1216710519
 10
-26.5945430469
 20
-0.1650338345
 10
-26.6176991262
 20
-0.2091496958
 10
-26.6435444453
 20
-0.2539417631
 10
-26.6721504502
 20
-0.2993764969
 10
-26.703445695
 20
-0.3454874367
 10
-26.737363733
 20
-0.3922983286
 10
-26.7739911618
 20
-0.4397043544
 10
-26.813241384
 20
-0.4878103322
 10
-26.8547881606
 20
-0.5369544621
 10
-26.8985227455
 20
-0.5872494772
 10
-26.944553885
 20
-0.6385826444
 10
-26.9928815789
 20
-0.6909539636
  0
LINE
  5
6A5
100
AcDbEntity
  8
IMPORT_IGES
100
AcDbLine
 62
253
  6
CONTINUOUS
 10
-26.2428815789
 20
-7.6270535376
 11
-26.2428815938
 21
-3.2832683115
  0
LINE
  5
6A6
100
AcDbEntity
  8
IMPORT_IGES
100
AcDbLine
 62
253
  6
CONTINUOUS
 10
-25.7428815789
 20
-3.0909539636
 11
-25.7428815789
 21
0.9090460364
  0
LINE
  5
6A7
100
AcDbEntity
  8
IMPORT_IGES
100
AcDbLine
 62
253
  6
CONTINUOUS
 10
-25.642881579
 20
-7.6270535376
 11
-25.6428815789
 21
-3.2591592441
  0
LINE
  5
6A8
100
AcDbEntity
  8
IMPORT_IGES
100
AcDbLine
 62
7
  6
CONTINUOUS
 10
-25.442881579
 20
-7.4269974117
 11
-25.442881579
 21
-3.4591592441
  0
LINE
  5
6A9
100
AcDbEntity
  8
IMPORT_IGES
100
AcDbLine
 62
7
  6
CONTINUOUS
 10
-25.4428815789
 20
-2.7909539636
 11
-25.4428815789
 21
0.6090460364
  0
LWPOLYLINE
  5
6AA
100
AcDbEntity
  8
IMPORT_IGES
100
AcDbPolyline
 62
253
  6
CONTINUOUS
 90
13
 70
0
 10
-26.4428815789
 20
-3.475238277
 10
-26.4411705512
 20
-3.4501795107
 10
-26.4360667442
 20
-3.4255498761
 10
-26.4276574854
 20
-3.401770895
 10
-26.4160866597
 20
-3.3792498251
 10
-26.401552247
 20
-3.3583718668
 10
-26.3843029352
 20
-3.3394934401
 10
-26.3646338647
 20
-3.3229372617
 10
-26.3428815789
 20
-3.3089868923
 10
-26.3194182654
 20
-3.2978809752
 10
-26.294645388
 20
-3.2898095149
 10
-26.2689868174
 20
-3.2849106312
 10
-26.2428815789
 20
-3.2832681437
  0
LWPOLYLINE
  5
6AB
100
AcDbEntity
  8
IMPORT_IGES
100
AcDbPolyline
 62
253
  6
CONTINUOUS
 90
13
 70
0
 10
-25.442881579
 20
-6.580198656
 10
-25.4445926067
 20
-6.6019691202
 10
-25.4496964137
 20
-6.6233670858
 10
-25.4581056724
 20
-6.6440264275
 10
-25.4696764982
 20
-6.6635936584
 10
-25.4842109109
 20
-6.6817339776
 10
-25.5014602227
 20
-6.6981369993
 10
-25.5211292931
 20
-6.7125220633
 10
-25.5428815789
 20
-6.7246430371
 10
-25.5663448925
 20
-6.7342925275
 10
-25.5911177699
 20
-6.7413054291
 10
-25.6167763405
 20
-6.7455617491
 10
-25.6428815789
 20
-6.7469886607
  0
LWPOLYLINE
  5
6AC
100
AcDbEntity
  8
0
100
AcDbPolyline
 62
7
  6
CONTINUOUS
 90
7
 70
0
 43
0.3500000006
 10
-43.1107400665
 20
20.9657678833
 10
-44.6107405243
 20
20.9657678833
 10
-43.1107400665
 20
23.1086263275
 10
-43.1107400665
 20
23.5371998291
 10
-43.5393090363
 20
23.9657687988
 10
-44.1821670227
 20
23.9657687988
 10
-44.6107405243
 20
23.3229108124
  0
LWPOLYLINE
  5
6AD
100
AcDbEntity
  8
0
100
AcDbPolyline
 62
7
  6
CONTINUOUS
 90
6
 70
0
 43
0.3500000006
 10
-48.6285972748
 20
30.9657709351
 10
-47.5571657867
 20
30.9657709351
 10
-47.3428813019
 20
31.1800554199
 10
-47.3428813019
 20
32.2514823761
 10
-47.7714548035
 20
32.6800558777
 10
-48.2000237732
 20
32.6800558777
  0
LWPOLYLINE
  5
6AE
100
AcDbEntity
  8
0
100
AcDbPolyline
 62
7
  6
CONTINUOUS
 90
13
 70
0
 43
0.3500000006
 10
-41.9857374573
 20
32.6800558777
 10
-42.271453125
 20
32.8943403625
 10
-42.271453125
 20
33.537198349
 10
-41.9857374573
 20
33.9657718506
 10
-41.3428794708
 20
33.9657718506
 10
-41.057168335
 20
33.537198349
 10
-41.057168335
 20
32.8943403625
 10
-41.3428794708
 20
32.6800558777
 10
-40.9143105011
 20
32.2514823761
 10
-40.9143105011
 20
31.3943399048
 10
-41.3428794708
 20
30.9657709351
 10
-41.9857374573
 20
30.9657709351
 10
-42.4143109589
 20
31.3943399048
  0
ARC
  5
6AF
100
AcDbEntity
  8
IMPORT_IGES
100
AcDbCircle
 62
7
  6
CONTINUOUS
 10
-6.97425
 20
-6.4959539636
 40
0.4
100
AcDbArc
 50
180.0009948319
 51
210.0006632213
  0
ARC
  5
6B0
100
AcDbEntity
  8
IMPORT_IGES
100
AcDbCircle
 62
7
  6
CONTINUOUS
 10
-6.97425
 20
-8.6959539636
 40
0.4
100
AcDbArc
 50
149.9039894776
 51
179.9990051681
  0
ARC
  5
6B1
100
AcDbEntity
  8
IMPORT_IGES
100
AcDbCircle
 62
7
  6
CONTINUOUS
 10
-8.0308014748
 20
-9.7181984968
 40
0.3
100
AcDbArc
 50
181.0
 51
224.9999932483
  0
ARC
  5
6B2
100
AcDbEntity
  8
IMPORT_IGES
100
AcDbCircle
 62
7
  6
CONTINUOUS
 10
-6.9530460079
 20
-10.7959539636
 40
0.3
100
AcDbArc
 50
224.999928962
 51
270.0
  0
ARC
  5
6B3
100
AcDbEntity
  8
IMPORT_IGES
100
AcDbCircle
 62
7
  6
CONTINUOUS
 10
-8.12425
 20
-5.6459539636
 40
0.2
100
AcDbArc
 50
180.0
 51
270.0
  0
ARC
  5
6B4
100
AcDbEntity
  8
IMPORT_IGES
100
AcDbCircle
 62
7
  6
CONTINUOUS
 10
-7.22425
 20
-9.3226684436
 40
0.15
100
AcDbArc
 50
185.0581389377
 51
224.9999943169
  0
ARC
  5
6B5
100
AcDbEntity
  8
IMPORT_IGES
100
AcDbCircle
 62
7
  6
CONTINUOUS
 10
-6.47425
 20
-11.1959539636
 40
0.1
100
AcDbArc
 50
180.0000000001
 51
270.0014633388
  0
ARC
  5
6B6
100
AcDbEntity
  8
IMPORT_IGES
100
AcDbCircle
 62
7
  6
CONTINUOUS
 10
-6.67425
 20
-11.1959539636
 40
0.1
100
AcDbArc
 50
0.0
 51
89.9971105897
  0
ARC
  5
6B7
100
AcDbEntity
  8
IMPORT_IGES
100
AcDbCircle
 62
7
  6
CONTINUOUS
 10
-6.97425
 20
6.4540460364
 40
0.4
100
AcDbArc
 50
149.9018626048
 51
179.9948618777
  0
ARC
  5
6B8
100
AcDbEntity
  8
IMPORT_IGES
100
AcDbCircle
 62
7
  6
CONTINUOUS
 10
-6.97425
 20
8.6540460364
 40
0.4
100
AcDbArc
 50
192.0042548451
 51
210.0981086848
  0
ARC
  5
6B9
100
AcDbEntity
  8
IMPORT_IGES
100
AcDbCircle
 62
7
  6
CONTINUOUS
 10
-6.2973934405
 20
10.5040460364
 40
0.3
100
AcDbArc
 50
90.0007361134
 51
119.9976656765
  0
ARC
  5
6BA
100
AcDbEntity
  8
IMPORT_IGES
100
AcDbCircle
 62
7
  6
CONTINUOUS
 10
-7.02425
 20
9.5040460364
 40
0.3
100
AcDbArc
 50
90.0
 51
180.0
  0
ARC
  5
6BB
100
AcDbEntity
  8
IMPORT_IGES
100
AcDbCircle
 62
7
  6
CONTINUOUS
 10
-8.0294464078
 20
9.5040464023
 40
0.2999990457
100
AcDbArc
 50
89.9995909185
 51
179.0000626828
  0
ARC
  5
6BC
100
AcDbEntity
  8
IMPORT_IGES
100
AcDbCircle
 62
7
  6
CONTINUOUS
 10
-6.12425
 20
6.8540460364
 40
0.2
100
AcDbArc
 50
90.0
 51
180.0
  0
ARC
  5
6BD
100
AcDbEntity
  8
IMPORT_IGES
100
AcDbCircle
 62
7
  6
CONTINUOUS
 10
-6.12425
 20
4.2540460364
 40
0.2
100
AcDbArc
 50
180.0
 51
270.0
  0
ARC
  5
6BE
100
AcDbEntity
  8
IMPORT_IGES
100
AcDbCircle
 62
7
  6
CONTINUOUS
 10
-8.12425
 20
5.6540460364
 40
0.2
100
AcDbArc
 50
90.0
 51
180.0
  0
ARC
  5
6BF
100
AcDbEntity
  8
IMPORT_IGES
100
AcDbCircle
 62
7
  6
CONTINUOUS
 10
-5.97425
 20
10.9040460364
 40
0.1
100
AcDbArc
 50
89.9987306999
 51
180.0000000001
  0
ARC
  5
6C0
100
AcDbEntity
  8
IMPORT_IGES
100
AcDbCircle
 62
7
  6
CONTINUOUS
 10
-6.17425
 20
10.9040460364
 40
0.1
100
AcDbArc
 50
270.0024163444
 51
359.9999999995
  0
ARC
  5
6C1
100
AcDbEntity
  8
IMPORT_IGES
100
AcDbCircle
 62
7
  6
CONTINUOUS
 10
6.82575
 20
-6.4959539636
 40
0.4
100
AcDbArc
 50
329.9039874363
 51
337.4992538761
  0
ARC
  5
6C2
100
AcDbEntity
  8
IMPORT_IGES
100
AcDbCircle
 62
7
  6
CONTINUOUS
 10
6.82575
 20
-8.6959539636
 40
0.4
100
AcDbArc
 50
22.5007461239
 51
30.0006632213
  0
ARC
  5
6C3
100
AcDbEntity
  8
IMPORT_IGES
100
AcDbCircle
 62
7
  6
CONTINUOUS
 10
6.8045460079
 20
-10.7959539636
 40
0.3
100
AcDbArc
 50
270.0
 51
315.0
  0
ARC
  5
6C4
100
AcDbEntity
  8
IMPORT_IGES
100
AcDbCircle
 62
7
  6
CONTINUOUS
 10
7.8823014748
 20
-9.7181984968
 40
0.3
100
AcDbArc
 50
315.0001917131
 51
359.0
  0
ARC
  5
6C5
100
AcDbEntity
  8
IMPORT_IGES
100
AcDbCircle
 62
7
  6
CONTINUOUS
 10
7.97575
 20
-5.6459539636
 40
0.2
100
AcDbArc
 50
270.0
 51
360.0
  0
ARC
  5
6C6
100
AcDbEntity
  8
IMPORT_IGES
100
AcDbCircle
 62
7
  6
CONTINUOUS
 10
7.07575
 20
-9.3226684436
 40
0.15
100
AcDbArc
 50
315.0005590886
 51
360.0
  0
ARC
  5
6C7
100
AcDbEntity
  8
IMPORT_IGES
100
AcDbCircle
 62
7
  6
CONTINUOUS
 10
6.32575
 20
-11.1959539636
 40
0.1
100
AcDbArc
 50
269.9985366612
 51
359.9999999999
  0
ARC
  5
6C8
100
AcDbEntity
  8
IMPORT_IGES
100
AcDbCircle
 62
7
  6
CONTINUOUS
 10
6.52575
 20
-11.1959539636
 40
0.1
100
AcDbArc
 50
90.0028894102
 51
180.0000000001
  0
ARC
  5
6C9
100
AcDbEntity
  8
IMPORT_IGES
100
AcDbCircle
 62
7
  6
CONTINUOUS
 10
6.82575
 20
6.4540460364
 40
0.4
100
AcDbArc
 50
0.0047439178
 51
30.0980937066
  0
ARC
  5
6CA
100
AcDbEntity
  8
IMPORT_IGES
100
AcDbCircle
 62
7
  6
CONTINUOUS
 10
6.82575
 20
8.6540460364
 40
0.4
100
AcDbArc
 50
329.9018735806
 51
347.9959565651
  0
ARC
  5
6CB
100
AcDbEntity
  8
IMPORT_IGES
100
AcDbCircle
 62
7
  6
CONTINUOUS
 10
6.1488934405
 20
10.5040460364
 40
0.3
100
AcDbArc
 50
60.001239731
 51
89.9985306809
  0
ARC
  5
6CC
100
AcDbEntity
  8
IMPORT_IGES
100
AcDbCircle
 62
7
  6
CONTINUOUS
 10
6.87575
 20
9.5040460364
 40
0.3
100
AcDbArc
 50
0.0
 51
89.9997513476
  0
ARC
  5
6CD
100
AcDbEntity
  8
IMPORT_IGES
100
AcDbCircle
 62
7
  6
CONTINUOUS
 10
7.8809466713
 20
9.504046592
 40
0.2999989024
100
AcDbArc
 50
0.9997406887
 51
90.0004627784
  0
ARC
  5
6CE
100
AcDbEntity
  8
IMPORT_IGES
100
AcDbCircle
 62
7
  6
CONTINUOUS
 10
5.97575
 20
6.8540460364
 40
0.2
100
AcDbArc
 50
0.0
 51
90.0
  0
ARC
  5
6CF
100
AcDbEntity
  8
IMPORT_IGES
100
AcDbCircle
 62
7
  6
CONTINUOUS
 10
5.97575
 20
4.2540460364
 40
0.2
100
AcDbArc
 50
270.0
 51
360.0
  0
ARC
  5
6D0
100
AcDbEntity
  8
IMPORT_IGES
100
AcDbCircle
 62
7
  6
CONTINUOUS
 10
7.97575
 20
5.6540460364
 40
0.2
100
AcDbArc
 50
0.0
 51
90.0
  0
ARC
  5
6D1
100
AcDbEntity
  8
IMPORT_IGES
100
AcDbCircle
 62
7
  6
CONTINUOUS
 10
5.82575
 20
10.9040460364
 40
0.1
100
AcDbArc
 50
0.0
 51
90.0015075932
  0
ARC
  5
6D2
100
AcDbEntity
  8
IMPORT_IGES
100
AcDbCircle
 62
7
  6
CONTINUOUS
 10
6.02575
 20
10.9040460364
 40
0.1
100
AcDbArc
 50
180.0000000002
 51
269.9967595745
  0
ARC
  5
6D3
100
AcDbEntity
  8
IMPORT_IGES
100
AcDbCircle
 62
7
  6
CONTINUOUS
 10
-49.4428815789
 20
-8.8816911758
 40
0.3
100
AcDbArc
 50
180.0
 51
237.4051679367
  0
ARC
  5
6D4
100
AcDbEntity
  8
IMPORT_IGES
100
AcDbCircle
 62
7
  6
CONTINUOUS
 10
-62.9428815789
 20
-7.6904504403
 40
0.3
100
AcDbArc
 50
180.0
 51
269.8
  0
ARC
  5
6D5
100
AcDbEntity
  8
IMPORT_IGES
100
AcDbCircle
 62
7
  6
CONTINUOUS
 10
-49.4428815789
 20
-3.6142910719
 40
0.3
100
AcDbArc
 50
119.9621840985
 51
180.0
  0
ARC
  5
6D6
100
AcDbEntity
  8
IMPORT_IGES
100
AcDbCircle
 62
7
  6
CONTINUOUS
 10
-51.9577792454
 20
-5.6459539636
 40
0.2
100
AcDbArc
 50
231.6869093262
 51
270.0
  0
ARC
  5
6D7
100
AcDbEntity
  8
IMPORT_IGES
100
AcDbCircle
 62
7
  6
CONTINUOUS
 10
-53.0928815789
 20
-4.749082984
 40
0.2
100
AcDbArc
 50
180.0
 51
231.6869093257
  0
ARC
  5
6D8
100
AcDbEntity
  8
IMPORT_IGES
100
AcDbCircle
 62
7
  6
CONTINUOUS
 10
-29.9428815789
 20
-7.7962517113
 40
1.5
100
AcDbArc
 50
145.7316915939
 51
179.9988821068
  0
ARC
  5
6D9
100
AcDbEntity
  8
IMPORT_IGES
100
AcDbCircle
 62
7
  6
CONTINUOUS
 10
-31.9428815789
 20
-7.8888471824
 40
0.5
100
AcDbArc
 50
315.0000000296
 51
360.0
  0
ARC
  5
6DA
100
AcDbEntity
  8
IMPORT_IGES
100
AcDbCircle
 62
7
  6
CONTINUOUS
 10
-34.6499883601
 20
-10.5959539636
 40
0.5
100
AcDbArc
 50
270.0
 51
314.9999999775
  0
ARC
  5
6DB
100
AcDbEntity
  8
IMPORT_IGES
100
AcDbCircle
 62
253
  6
CONTINUOUS
 10
-34.6499883601
 20
-10.5959539636
 40
0.3
100
AcDbArc
 50
270.0
 51
313.6309534759
  0
ARC
  5
6DC
100
AcDbEntity
  8
IMPORT_IGES
100
AcDbCircle
 62
7
  6
CONTINUOUS
 10
-29.5928815789
 20
-8.0914561352
 40
0.3
100
AcDbArc
 50
270.0000000003
 51
0.0031980645
  0
ARC
  5
6DD
100
AcDbEntity
  8
IMPORT_IGES
100
AcDbCircle
 62
7
  6
CONTINUOUS
 10
-44.1928815789
 20
-11.1959539636
 40
0.1
100
AcDbArc
 50
179.9999995539
 51
269.9985367325
  0
ARC
  5
6DE
100
AcDbEntity
  8
IMPORT_IGES
100
AcDbCircle
 62
7
  6
CONTINUOUS
 10
-37.4928815789
 20
-11.1959539636
 40
0.1
100
AcDbArc
 50
179.9999995539
 51
269.9985367325
  0
ARC
  5
6DF
100
AcDbEntity
  8
IMPORT_IGES
100
AcDbCircle
 62
7
  6
CONTINUOUS
 10
-43.6928815789
 20
-11.1959539636
 40
0.1
100
AcDbArc
 50
270.001296179
 51
360.0
  0
ARC
  5
6E0
100
AcDbEntity
  8
IMPORT_IGES
100
AcDbCircle
 62
7
  6
CONTINUOUS
 10
-43.4928815789
 20
-11.1959539636
 40
0.1
100
AcDbArc
 50
90.0000007302
 51
180.0
  0
ARC
  5
6E1
100
AcDbEntity
  8
IMPORT_IGES
100
AcDbCircle
 62
7
  6
CONTINUOUS
 10
-44.3928815789
 20
-11.1959539636
 40
0.1
100
AcDbArc
 50
0.0000000008
 51
90.0000489297
  0
ARC
  5
6E2
100
AcDbEntity
  8
IMPORT_IGES
100
AcDbCircle
 62
7
  6
CONTINUOUS
 10
-36.9928815789
 20
-11.1959539636
 40
0.1
100
AcDbArc
 50
270.001296179
 51
360.0
  0
ARC
  5
6E3
100
AcDbEntity
  8
IMPORT_IGES
100
AcDbCircle
 62
7
  6
CONTINUOUS
 10
-36.7928815789
 20
-11.1959539636
 40
0.1
100
AcDbArc
 50
90.0000007302
 51
180.0000000001
  0
ARC
  5
6E4
100
AcDbEntity
  8
IMPORT_IGES
100
AcDbCircle
 62
7
  6
CONTINUOUS
 10
-37.6928815789
 20
-11.1959539636
 40
0.1
100
AcDbArc
 50
0.0000000008
 51
90.0000488704
  0
ARC
  5
6E5
100
AcDbEntity
  8
IMPORT_IGES
100
AcDbCircle
 62
7
  6
CONTINUOUS
 10
-29.942881579
 20
-6.0957818145
 40
1.5
100
AcDbArc
 50
180.0
 51
209.489067492
  0
ARC
  5
6E6
100
AcDbEntity
  8
IMPORT_IGES
100
AcDbCircle
 62
7
  6
CONTINUOUS
 10
-28.9928815789
 20
-3.3909539636
 40
0.3
100
AcDbArc
 50
89.9999999995
 51
179.9999999983
  0
ARC
  5
6E7
100
AcDbEntity
  8
IMPORT_IGES
100
AcDbCircle
 62
7
  6
CONTINUOUS
 10
-49.4428815789
 20
3.6489031501
 40
0.3
100
AcDbArc
 50
180.0
 51
239.036243468
  0
ARC
  5
6E8
100
AcDbEntity
  8
IMPORT_IGES
100
AcDbCircle
 62
7
  6
CONTINUOUS
 10
-53.0928815789
 20
4.7571750568
 40
0.2
100
AcDbArc
 50
128.3130906738
 51
180.0
  0
ARC
  5
6E9
100
AcDbEntity
  8
IMPORT_IGES
100
AcDbCircle
 62
7
  6
CONTINUOUS
 10
-47.1696931225
 20
9.0657697538
 40
2.0
100
AcDbArc
 50
29.0543979959
 51
90.0
  0
ARC
  5
6EA
100
AcDbEntity
  8
IMPORT_IGES
100
AcDbCircle
 62
7
  6
CONTINUOUS
 10
-49.2428815789
 20
8.1469392552
 40
0.5
100
AcDbArc
 50
135.0026207296
 51
179.9999449478
  0
ARC
  5
6EB
100
AcDbEntity
  8
IMPORT_IGES
100
AcDbCircle
 62
7
  6
CONTINUOUS
 10
-48.0857747978
 20
9.3040460364
 40
0.5
100
AcDbArc
 50
90.0000025555
 51
134.9974856792
  0
ARC
  5
6EC
100
AcDbEntity
  8
IMPORT_IGES
100
AcDbCircle
 62
7
  6
CONTINUOUS
 10
-62.9428815789
 20
7.698542513
 40
0.3
100
AcDbArc
 50
90.2
 51
180.0
  0
ARC
  5
6ED
100
AcDbEntity
  8
IMPORT_IGES
100
AcDbCircle
 62
7
  6
CONTINUOUS
 10
-57.1994928207
 20
10.3342012665
 40
0.3
100
AcDbArc
 50
131.0090869031
 51
251.5650798578
  0
ARC
  5
6EE
100
AcDbEntity
  8
IMPORT_IGES
100
AcDbCircle
 62
7
  6
CONTINUOUS
 10
-51.9577792454
 20
5.6540460364
 40
0.2
100
AcDbArc
 50
90.0
 51
128.3130906738
  0
ARC
  5
6EF
100
AcDbEntity
  8
IMPORT_IGES
100
AcDbCircle
 62
7
  6
CONTINUOUS
 10
-29.0451329818
 20
4.8438324754
 40
1.992703028
100
AcDbArc
 50
187.2345488903
 51
204.3277884814
  0
ARC
  5
6F0
100
AcDbEntity
  8
IMPORT_IGES
100
AcDbCircle
 62
7
  6
CONTINUOUS
 10
-31.285584607
 20
0.1251280195
 40
1.9927030281
100
AcDbArc
 50
0.0000047949
 51
24.3276976851
  0
ARC
  5
6F1
100
AcDbEntity
  8
IMPORT_IGES
100
AcDbCircle
 62
7
  6
CONTINUOUS
 10
-28.9944178865
 20
0.2090460364
 40
0.3
100
AcDbArc
 50
182.0976211818
 51
269.9998766406
  0
ARC
  5
6F2
100
AcDbEntity
  8
IMPORT_IGES
100
AcDbCircle
 62
7
  6
CONTINUOUS
 10
-42.2056615794
 20
10.9040460364
 40
0.1
100
AcDbArc
 50
359.9999998326
 51
89.9934065237
  0
ARC
  5
6F3
100
AcDbEntity
  8
IMPORT_IGES
100
AcDbCircle
 62
7
  6
CONTINUOUS
 10
-42.7056615789
 20
10.9040460364
 40
0.1
100
AcDbArc
 50
90.0063659942
 51
180.0000000002
  0
ARC
  5
6F4
100
AcDbEntity
  8
IMPORT_IGES
100
AcDbCircle
 62
7
  6
CONTINUOUS
 10
-37.0060225789
 20
10.9040460364
 40
0.1
100
AcDbArc
 50
90.0065541164
 51
180.0000000002
  0
ARC
  5
6F5
100
AcDbEntity
  8
IMPORT_IGES
100
AcDbCircle
 62
7
  6
CONTINUOUS
 10
-42.9056615789
 20
10.9040460364
 40
0.1
100
AcDbArc
 50
270.0000000035
 51
359.9999998323
  0
ARC
  5
6F6
100
AcDbEntity
  8
IMPORT_IGES
100
AcDbCircle
 62
7
  6
CONTINUOUS
 10
-42.005661579
 20
10.9040460364
 40
0.1
100
AcDbArc
 50
180.0000001679
 51
269.9989146296
  0
ARC
  5
6F7
100
AcDbEntity
  8
IMPORT_IGES
100
AcDbCircle
 62
7
  6
CONTINUOUS
 10
-37.2060225789
 20
10.9040460364
 40
0.1
100
AcDbArc
 50
270.0000000035
 51
359.9999998321
  0
ARC
  5
6F8
100
AcDbEntity
  8
IMPORT_IGES
100
AcDbCircle
 62
7
  6
CONTINUOUS
 10
-36.5060225789
 20
10.9040460364
 40
0.1
100
AcDbArc
 50
359.9999998329
 51
89.9934392114
  0
ARC
  5
6F9
100
AcDbEntity
  8
IMPORT_IGES
100
AcDbCircle
 62
7
  6
CONTINUOUS
 10
-30.4369513009
 20
6.6778230294
 40
1.0
100
AcDbArc
 50
1.2448503125
 51
53.000289763
  0
ARC
  5
6FA
100
AcDbEntity
  8
IMPORT_IGES
100
AcDbCircle
 62
7
  6
CONTINUOUS
 10
-31.912324762
 20
7.6362324065
 40
0.5
100
AcDbArc
 50
7.2347655619
 51
52.999663288
  0
ARC
  5
6FB
100
AcDbEntity
  8
IMPORT_IGES
100
AcDbCircle
 62
7
  6
CONTINUOUS
 10
-29.7158800267
 20
5.715748869
 40
0.3
100
AcDbArc
 50
1.2448504427
 51
45.0000000017
  0
ARC
  5
6FC
100
AcDbEntity
  8
IMPORT_IGES
100
AcDbCircle
 62
7
  6
CONTINUOUS
 10
-34.920184673
 20
8.8040460364
 40
2.0
100
AcDbArc
 50
53.0000001029
 51
90.0006687305
  0
ARC
  5
6FD
100
AcDbEntity
  8
IMPORT_IGES
100
AcDbCircle
 62
7
  6
CONTINUOUS
 10
-35.3783769449
 20
10.6040460364
 40
0.2
100
AcDbArc
 50
0.2527618433
 51
89.9988817169
  0
ARC
  5
6FE
100
AcDbEntity
  8
IMPORT_IGES
100
AcDbCircle
 62
7
  6
CONTINUOUS
 10
-36.3060225789
 20
10.9040460364
 40
0.1
100
AcDbArc
 50
180.0000001669
 51
269.9989146316
  0
ARC
  5
6FF
100
AcDbEntity
  8
IMPORT_IGES
100
AcDbCircle
 62
253
  6
CONTINUOUS
 10
6.0531320945
 20
-11.1540518129
 40
41.0546112937
100
AcDbArc
 50
179.524200648
 51
179.6397967347
  0
ARC
  5
700
100
AcDbEntity
  8
IMPORT_IGES
100
AcDbCircle
 62
7
  6
CONTINUOUS
 10
-25.7428815789
 20
-2.7909539636
 40
0.3
100
AcDbArc
 50
270.0
 51
359.9999999999
  0
ARC
  5
701
100
AcDbEntity
  8
IMPORT_IGES
100
AcDbCircle
 62
7
  6
CONTINUOUS
 10
-26.6428815789
 20
-6.4962517113
 40
0.2
100
AcDbArc
 50
0.0005279882
 51
90.0000000006
  0
ARC
  5
702
100
AcDbEntity
  8
IMPORT_IGES
100
AcDbCircle
 62
7
  6
CONTINUOUS
 10
-26.2428815789
 20
-7.4270535376
 40
0.2
100
AcDbArc
 50
179.9839555172
 51
269.9999999999
  0
ARC
  5
703
100
AcDbEntity
  8
IMPORT_IGES
100
AcDbCircle
 62
7
  6
CONTINUOUS
 10
-25.642881579
 20
-7.4270535376
 40
0.2
100
AcDbArc
 50
269.9999999991
 51
0.0160444831
  0
ARC
  5
704
100
AcDbEntity
  8
IMPORT_IGES
100
AcDbCircle
 62
7
  6
CONTINUOUS
 10
-25.6428815789
 20
-3.4591592441
 40
0.2
100
AcDbArc
 50
0.0
 51
90.0000000001
  0
ARC
  5
705
100
AcDbEntity
  8
IMPORT_IGES
100
AcDbCircle
 62
7
  6
CONTINUOUS
 10
6.0758310719
 20
10.7868989555
 40
41.2546112934
100
AcDbArc
 50
180.2527278577
 51
180.8911979751
  0
ARC
  5
706
100
AcDbEntity
  8
IMPORT_IGES
100
AcDbCircle
 62
7
  6
CONTINUOUS
 10
-26.9928815789
 20
0.4090460364
 40
0.5
100
AcDbArc
 50
270.0000000002
 51
353.9778369184
  0
ARC
  5
707
100
AcDbEntity
  8
IMPORT_IGES
100
AcDbCircle
 62
7
  6
CONTINUOUS
 10
-25.7428815789
 20
0.6090460364
 40
0.3
100
AcDbArc
 50
0.0
 51
90.0000000003
  0
ELLIPSE
  5
708
100
AcDbEntity
  8
IMPORT_IGES
100
AcDbEllipse
 62
7
  6
CONTINUOUS
 10
-5.4969366561
 20
9.0657697538
 30
0.0
 11
-0.0
 21
2.0
 31
0.0
 40
0.0633224816
 41
0.0
 42
1.0637014196
  0
ELLIPSE
  5
709
100
AcDbEntity
  8
IMPORT_IGES
100
AcDbEllipse
 62
7
  6
CONTINUOUS
 10
5.3484366561
 20
9.0657697538
 30
0.0
 11
0.0
 21
2.0
 31
0.0
 40
0.0633224816
 41
-1.0637014196
 42
0.0
  0
ELLIPSE
  5
70A
100
AcDbEntity
  8
IMPORT_IGES
100
AcDbEllipse
 62
7
  6
CONTINUOUS
 10
-5.4448103201
 20
8.7157697529
 30
0.0
 11
0.0
 21
1.0000000003
 31
0.0
 40
0.0633224816
 41
-0.0
 42
0.5744414569
  0
ELLIPSE
  5
70B
100
AcDbEntity
  8
IMPORT_IGES
100
AcDbEllipse
 62
7
  6
CONTINUOUS
 10
5.2963103202
 20
8.7157697529
 30
0.0
 11
0.0
 21
1.0000000003
 31
0.0
 40
0.0633224816
 41
-0.5744416185
 42
0.0
  0
ELLIPSE
  5
70C
100
AcDbEntity
  8
IMPORT_IGES
100
AcDbEllipse
 62
7
  6
CONTINUOUS
 10
-5.7082152685
 20
9.0040460364
 30
0.0
 11
-0.0
 21
0.8
 31
0.0
 40
0.0174550649
 41
-0.7853981634
 42
-0.0
  0
ELLIPSE
  5
70D
100
AcDbEntity
  8
IMPORT_IGES
100
AcDbEllipse
 62
7
  6
CONTINUOUS
 10
5.5597152685
 20
9.0040460364
 30
0.0
 11
-0.0
 21
0.8
 31
0.0
 40
0.0174550649
 41
-0.0
 42
0.7853981634
  0
ELLIPSE
  5
70E
100
AcDbEntity
  8
IMPORT_IGES
100
AcDbEllipse
 62
7
  6
CONTINUOUS
 10
3.47575
 20
-9.2329104854
 30
0.0
 11
0.5
 21
-0.0
 31
0.0
 40
0.5652173913
 41
-0.4115168461
 42
-0.0
  0
ELLIPSE
  5
70F
100
AcDbEntity
  8
IMPORT_IGES
100
AcDbEllipse
 62
7
  6
CONTINUOUS
 10
-3.62425
 20
-9.2329104854
 30
0.0
 11
0.5
 21
-0.0
 31
0.0
 40
0.5652173913
 41
-3.1415926536
 42
-2.7300758075
  0
ELLIPSE
  5
710
100
AcDbEntity
  8
IMPORT_IGES
100
AcDbEllipse
 62
7
  6
CONTINUOUS
 10
-2.39925
 20
-7.5746726715
 30
0.0
 11
0.3
 21
0.0
 31
0.0
 40
0.2679491924
 41
-1.5707963268
 42
-0.0
  0
ELLIPSE
  5
711
100
AcDbEntity
  8
IMPORT_IGES
100
AcDbEllipse
 62
7
  6
CONTINUOUS
 10
-7.3031314303
 20
4.7571750568
 30
0.0
 11
0.0
 21
0.2
 31
0.0
 40
0.0034906727
 41
-1.5707963268
 42
-0.6686895789
  0
ELLIPSE
  5
712
100
AcDbEntity
  8
IMPORT_IGES
100
AcDbEllipse
 62
7
  6
CONTINUOUS
 10
-7.3031314303
 20
3.5540460364
 30
0.0
 11
0.0
 21
0.2
 31
0.0
 40
0.0034906727
 41
-3.1415926536
 42
-2.0936364968
  0
ELLIPSE
  5
713
100
AcDbEntity
  8
IMPORT_IGES
100
AcDbEllipse
 62
7
  6
CONTINUOUS
 10
-7.3031314303
 20
-3.5459539636
 30
0.0
 11
0.0
 21
0.2
 31
0.0
 40
0.0034906727
 41
-1.5707963268
 42
-1.0479562615
  0
ELLIPSE
  5
714
100
AcDbEntity
  8
IMPORT_IGES
100
AcDbEllipse
 62
7
  6
CONTINUOUS
 10
-7.3031314303
 20
-4.749082984
 30
0.0
 11
-0.0
 21
0.2
 31
0.0
 40
0.0034906727
 41
-2.4729030747
 42
-1.5707963268
  0
ELLIPSE
  5
715
100
AcDbEntity
  8
IMPORT_IGES
100
AcDbEllipse
 62
7
  6
CONTINUOUS
 10
-7.307093701
 20
-5.6459539636
 30
0.0
 11
-0.0
 21
0.2
 31
0.0
 40
0.0034906727
 41
-3.1415926536
 42
-2.4729030747
  0
ELLIPSE
  5
716
100
AcDbEntity
  8
IMPORT_IGES
100
AcDbEllipse
 62
7
  6
CONTINUOUS
 10
-7.307093701
 20
5.6540460364
 30
0.0
 11
-0.0
 21
0.2
 31
0.0
 40
0.0034906727
 41
-0.6686895789
 42
0.0
  0
ELLIPSE
  5
717
100
AcDbEntity
  8
IMPORT_IGES
100
AcDbEllipse
 62
7
  6
CONTINUOUS
 10
7.1546314303
 20
4.7571750568
 30
0.0
 11
0.0
 21
0.2
 31
0.0
 40
0.0034906727
 41
0.6686895789
 42
1.5707963268
  0
ELLIPSE
  5
718
100
AcDbEntity
  8
IMPORT_IGES
100
AcDbEllipse
 62
7
  6
CONTINUOUS
 10
2.25075
 20
-7.5746726715
 30
0.0
 11
0.3
 21
-0.0
 31
0.0
 40
0.2679491924
 41
-3.1415926536
 42
-1.5707963268
  0
ELLIPSE
  5
719
100
AcDbEntity
  8
IMPORT_IGES
100
AcDbEllipse
 62
7
  6
CONTINUOUS
 10
7.1546314303
 20
3.5540460364
 30
0.0
 11
-0.0
 21
0.2
 31
0.0
 40
0.0034906727
 41
-4.7123889804
 42
-4.1895489151
  0
ELLIPSE
  5
71A
100
AcDbEntity
  8
IMPORT_IGES
100
AcDbEllipse
 62
7
  6
CONTINUOUS
 10
7.1546314303
 20
-3.5459539636
 30
0.0
 11
0.0
 21
0.2
 31
0.0
 40
0.0034906727
 41
0.0
 42
1.0479561568
  0
ELLIPSE
  5
71B
100
AcDbEntity
  8
IMPORT_IGES
100
AcDbEllipse
 62
7
  6
CONTINUOUS
 10
7.158593701
 20
5.6540460364
 30
0.0
 11
0.0
 21
0.2
 31
0.0
 40
0.0034906727
 41
0.0
 42
0.6686895789
  0
ELLIPSE
  5
71C
100
AcDbEntity
  8
IMPORT_IGES
100
AcDbEllipse
 62
7
  6
CONTINUOUS
 10
7.1546314303
 20
-4.749082984
 30
0.0
 11
-0.0
 21
0.2
 31
0.0
 40
0.0034906727
 41
-4.7123889804
 42
-3.8102822325
  0
ELLIPSE
  5
71D
100
AcDbEntity
  8
IMPORT_IGES
100
AcDbEllipse
 62
7
  6
CONTINUOUS
 10
7.158593701
 20
-5.6459539636
 30
0.0
 11
-0.0
 21
0.2
 31
0.0
 40
0.0034906727
 41
-3.8102822325
 42
-3.1415926536
  0
ENDSEC
  0
SECTION
  2
OBJECTS
  0
DICTIONARY
  5
C
100
AcDbDictionary
280
0
281
1
  3
ACAD_GROUP
350
D
  3
ACAD_MLINESTYLE
350
17
  3
ACAD_LAYOUT
350
1A
  3
ACAD_PLOTSETTINGS
350
19
  3
ACAD_PLOTSTYLENAME
350
E
  0
DICTIONARY
  5
D
102
{ACAD_REACTORS
330
C
102
}
100
AcDbDictionary
280
0
281
1
  0
ACDBDICTIONARYWDFLT
  5
E
102
{ACAD_REACTORS
330
C
102
}
100
AcDbDictionary
281
1
  3
Normal
350
F
100
AcDbDictionaryWithDefault
340
F
  0
DICTIONARY
  5
17
102
{ACAD_REACTORS
330
C
102
}
100
AcDbDictionary
280
0
281
1
  3
Standard
350
18
  0
DICTIONARY
  5
19
102
{ACAD_REACTORS
330
C
102
}
100
AcDbDictionary
281
1
  0
DICTIONARY
  5
1A
102
{ACAD_REACTORS
330
C
102
}
100
AcDbDictionary
281
1
  3
Model
350
71E
  3
Layout1
350
71F
  0
ACDBPLACEHOLDER
  5
F
102
{ACAD_REACTORS
330
E
102
}
  0
MLINESTYLE
  5
18
102
{ACAD_REACTORS
330
17
102
}
100
AcDbMlineStyle
  2
STANDARD
 70
0
  3

 62
256
 51
90.0
 52
90.0
 71
2
 49
0.5
 62
256
  6
BYLAYER
 49
-0.5
 62
256
  6
BYLAYER
  0
LAYOUT
  5
71E
102
{ACAD_REACTORS
330
1A
102
}
100
AcDbPlotSettings
  1

  2
none_device
  4
ISO_A4_(297.00_x_210.00_MM)
  6

 40
0.0
 41
0.0
 42
0.0
 43
0.0
 44
297.0
 45
210.0
 46
0.0
 47
0.0
 48
0.0
 49
0.0
140
0.0
141
0.0
142
1.0
143
1.0
 70
1024
 72
1
 73
0
 74
0
  7

 75
0
147
1.0
148
0.0
149
0.0
100
AcDbLayout
  1
Model
 70
0
 71
0
 10
0.0
 20
0.0
 11
297.0
 21
210.0
 12
0.0
 22
0.0
 32
0.0
 14
0.0
 24
0.0
 34
0.0
 15
0.0
 25
0.0
 35
0.0
146
0.0
 13
0.0
 23
0.0
 33
0.0
 16
1.0
 26
0.0
 36
0.0
 17
0.0
 27
1.0
 37
0.0
 76
0
330
213
345
0
346
0
  0
LAYOUT
  5
71F
102
{ACAD_REACTORS
330
1A
102
}
100
AcDbPlotSettings
  1

  2
none_device
  4
ISO_A4_(297.00_x_210.00_MM)
  6

 40
0.0
 41
0.0
 42
0.0
 43
0.0
 44
297.0
 45
210.0
 46
0.0
 47
0.0
 48
0.0
 49
0.0
140
0.0
141
0.0
142
1.0
143
1.0
 70
0
 72
1
 73
0
 74
0
  7

 75
0
147
1.0
148
0.0
149
0.0
100
AcDbLayout
  1
Layout1
 70
0
 71
1
 10
0.0
 20
0.0
 11
297.0
 21
210.0
 12
0.0
 22
0.0
 32
0.0
 14
0.0
 24
0.0
 34
0.0
 15
0.0
 25
0.0
 35
0.0
146
0.0
 13
0.0
 23
0.0
 33
0.0
 16
1.0
 26
0.0
 36
0.0
 17
0.0
 27
1.0
 37
0.0
 76
0
330
214
345
0
346
0
  0
ENDSEC
  0
EOF
