  0
SECTION
  2
HEADER
  9
$ACADVER
  1
AC1015
  9
$DWGCODEPAGE
  3
ANSI_1252
  9
$EXTMAX
 10
297.0
 20
210.0
 30
0.0
  9
$EXTMIN
 10
0.0
 20
0.0
 30
0.0
  9
$LIMMIN
 10
0.0
 20
0.0
  9
$LIMMAX
 10
297.0
 20
210.0
  9
$VIEWCTR
 10
148.5
 20
105.0
  9
$VIEWSIZE
 40
210.0
  9
$CLAYER
  8
0
  9
$LTSCALE
 40
16.335
  9
$CELTYPE
  6
BYLAYER
  9
$DIMSCALE
 40
1.0
  9
$DIMASZ
 40
3.0
  9
$DIMEXO
 40
1.85625
  9
$DIMDLI
 40
11.286
  9
$DIMEXE
 40
5.346
  9
$DIMCEN
 40
2.673
  9
$DIMLFAC
 40
1.0
  9
$DIMBLK
  1
_FILLED
  9
$DIMTXT
 40
3.0
  9
$DIMTOL
 70
1
  9
$DIMLIM
 70
0
  9
$DIMTFAC
 40
1.0
  9
$DIMTP
 40
0.01
  9
$DIMTM
 40
0.01
  9
$PDMODE
 70
3
  9
$PDSIZE
 40
3.0
  9
$HANDSEED
  5
6D2
  9
$TILEMODE
 70
1
  9
$MEASUREMENT
 70
1
  9
$INSUNITS
 70
4
  0
ENDSEC
  0
SECTION
  2
CLASSES
  0
CLASS
  1
ACDBDICTIONARYWDFLT
  2
AcDbDictionaryWithDefault
  3
AutoCAD 2000
 90
0
280
0
281
0
  0
CLASS
  1
ACDBPLACEHOLDER
  2
AcDbPlaceHolder
  3
AutoCAD 2000
 90
0
280
0
281
0
  0
CLASS
  1
LAYOUT
  2
AcDbLayout
  3
AutoCAD 2000
 90
0
280
0
281
0
  0
ENDSEC
  0
SECTION
  2
TABLES
  0
TABLE
  2
VPORT
  5
8
100
AcDbSymbolTable
 70
2
  0
VPORT
  5
1F4
100
AcDbSymbolTableRecord
100
AcDbViewportTableRecord
  2
*ACTIVE
 70
0
 10
0.0
 20
0.0
 11
1.0
 21
1.0
 12
148.5
 22
105.0
 13
0.0
 23
0.0
 14
1.0
 24
1.0
 15
0.0
 25
0.0
 16
0.0
 26
0.0
 36
1.0
 17
0.0
 27
0.0
 37
0.0
 40
210.0
 41
1.4142857143
 42
50.0
 43
0.0
 44
0.0
 50
0.0
 51
0.0
 71
0
 72
100
 73
1
 74
1
 75
0
 76
0
 77
0
 78
0
  0
ENDTAB
  0
TABLE
  2
LTYPE
  5
5
100
AcDbSymbolTable
 70
6
  0
LTYPE
  5
14
100
AcDbSymbolTableRecord
100
AcDbLinetypeTableRecord
  2
BYBLOCK
 70
0
  3

 72
65
 73
0
 40
0.0
  0
LTYPE
  5
15
100
AcDbSymbolTableRecord
100
AcDbLinetypeTableRecord
  2
BYLAYER
 70
0
  3

 72
65
 73
0
 40
0.0
  0
LTYPE
  5
16
100
AcDbSymbolTableRecord
100
AcDbLinetypeTableRecord
  2
CONTINUOUS
 70
64
  3
Solid line
 72
65
 73
0
 40
0.0
  0
LTYPE
  5
1F5
100
AcDbSymbolTableRecord
100
AcDbLinetypeTableRecord
  2
CENTER
 70
64
  3
____ _ ____ _ ____ _ ____ _ ____ _ ____ _ ____
 72
65
 73
4
 40
0.6
 49
0.375
 74
0
 49
-0.075
 74
0
 49
0.075
 74
0
 49
-0.075
 74
0
  0
LTYPE
  5
1F6
100
AcDbSymbolTableRecord
100
AcDbLinetypeTableRecord
  2
HIDDEN
 70
64
  3
- - - - - - - - - - - - - - - - - - - -
 72
65
 73
2
 40
0.2
 49
0.1
 74
0
 49
-0.1
 74
0
  0
LTYPE
  5
1F7
100
AcDbSymbolTableRecord
100
AcDbLinetypeTableRecord
  2
PHANTOM
 70
64
  3
_____ _ _ _____ _ _ _____ _ _ _____
 72
65
 73
6
 40
0.8
 49
0.45
 74
0
 49
-0.05
 74
0
 49
0.1
 74
0
 49
-0.05
 74
0
 49
0.1
 74
0
 49
-0.05
 74
0
  0
LTYPE
  5
1F8
100
AcDbSymbolTableRecord
100
AcDbLinetypeTableRecord
  2
DOT
 70
64
  3
. . . . . . . . . . . . . . . . . . . .
 72
65
 73
2
 40
0.2
 49
0.1
 74
0
 49
-0.1
 74
0
  0
LTYPE
  5
1F9
100
AcDbSymbolTableRecord
100
AcDbLinetypeTableRecord
  2
DASHED
 70
64
  3
- - - - - - - - - - - - - - - - - - - -
 72
65
 73
2
 40
0.2
 49
0.1
 74
0
 49
-0.1
 74
0
  0
ENDTAB
  0
TABLE
  2
LAYER
  5
2
100
AcDbSymbolTable
 70
36
  0
LAYER
  5
10
100
AcDbSymbolTableRecord
100
AcDbLayerTableRecord
  2
0
 70
0
 62
7
  6
CONTINUOUS
370
-3
390
F
  0
LAYER
  5
1FA
100
AcDbSymbolTableRecord
100
AcDbLayerTableRecord
  2
DEFAULT_1
 70
0
 62
7
  6
CENTER
370
-3
390
F
  0
LAYER
  5
1FB
100
AcDbSymbolTableRecord
100
AcDbLayerTableRecord
  2
DEFAULT_2
 70
0
 62
7
  6
HIDDEN
370
-3
390
F
  0
LAYER
  5
1FC
100
AcDbSymbolTableRecord
100
AcDbLayerTableRecord
  2
DEFAULT_3
 70
0
 62
7
  6
PHANTOM
370
-3
390
F
  0
LAYER
  5
1FD
100
AcDbSymbolTableRecord
100
AcDbLayerTableRecord
  2
06___PRT_ALL_SURFS
 70
0
 62
7
  6
CONTINUOUS
370
-3
390
F
  0
LAYER
  5
1FE
100
AcDbSymbolTableRecord
100
AcDbLayerTableRecord
  2
ASSI
 70
0
 62
7
  6
CONTINUOUS
370
-3
390
F
  0
LAYER
  5
1FF
100
AcDbSymbolTableRecord
100
AcDbLayerTableRecord
  2
COLOR3
 70
0
 62
7
  6
CONTINUOUS
370
-3
390
F
  0
LAYER
  5
200
100
AcDbSymbolTableRecord
100
AcDbLayerTableRecord
  2
COLOR4
 70
0
 62
7
  6
CONTINUOUS
370
-3
390
F
  0
LAYER
  5
201
100
AcDbSymbolTableRecord
100
AcDbLayerTableRecord
  2
COLOR5
 70
0
 62
7
  6
CONTINUOUS
370
-3
390
F
  0
LAYER
  5
202
100
AcDbSymbolTableRecord
100
AcDbLayerTableRecord
  2
COORDINATE
 70
0
 62
7
  6
CONTINUOUS
370
-3
390
F
  0
LAYER
  5
203
100
AcDbSymbolTableRecord
100
AcDbLayerTableRecord
  2
COPY_PUBLISH
 70
0
 62
7
  6
CONTINUOUS
370
-3
390
F
  0
LAYER
  5
204
100
AcDbSymbolTableRecord
100
AcDbLayerTableRecord
  2
COSMETICI
 70
0
 62
7
  6
CONTINUOUS
370
-3
390
F
  0
LAYER
  5
205
100
AcDbSymbolTableRecord
100
AcDbLayerTableRecord
  2
CURVE
 70
0
 62
7
  6
CONTINUOUS
370
-3
390
F
  0
LAYER
  5
206
100
AcDbSymbolTableRecord
100
AcDbLayerTableRecord
  2
DRAFT
 70
0
 62
7
  6
CONTINUOUS
370
-3
390
F
  0
LAYER
  5
207
100
AcDbSymbolTableRecord
100
AcDbLayerTableRecord
  2
IMPORT_IGES
 70
0
 62
7
  6
CONTINUOUS
370
-3
390
F
  0
LAYER
  5
208
100
AcDbSymbolTableRecord
100
AcDbLayerTableRecord
  2
INTF_BLANK
 70
0
 62
7
  6
CONTINUOUS
370
-3
390
F
  0
LAYER
  5
209
100
AcDbSymbolTableRecord
100
AcDbLayerTableRecord
  2
NOTE
 70
0
 62
7
  6
CONTINUOUS
370
-3
390
F
  0
LAYER
  5
20A
100
AcDbSymbolTableRecord
100
AcDbLayerTableRecord
  2
PIANI
 70
0
 62
7
  6
CONTINUOUS
370
-3
390
F
  0
LAYER
  5
20B
100
AcDbSymbolTableRecord
100
AcDbLayerTableRecord
  2
PUNTI
 70
0
 62
7
  6
CONTINUOUS
370
-3
390
F
  0
LAYER
  5
20C
100
AcDbSymbolTableRecord
100
AcDbLayerTableRecord
  2
RACCORDO
 70
0
 62
7
  6
CONTINUOUS
370
-3
390
F
  0
LAYER
  5
20D
100
AcDbSymbolTableRecord
100
AcDbLayerTableRecord
  2
SIMBOLI
 70
0
 62
7
  6
CONTINUOUS
370
-3
390
F
  0
LAYER
  5
20E
100
AcDbSymbolTableRecord
100
AcDbLayerTableRecord
  2
SMUSSO
 70
0
 62
7
  6
CONTINUOUS
370
-3
390
F
  0
LAYER
  5
20F
100
AcDbSymbolTableRecord
100
AcDbLayerTableRecord
  2
SNAPLINE
 70
0
 62
7
  6
CONTINUOUS
370
-3
390
F
  0
LAYER
  5
210
100
AcDbSymbolTableRecord
100
AcDbLayerTableRecord
  2
SUPERFICI
 70
0
 62
7
  6
CONTINUOUS
370
-3
390
F
  0
LAYER
  5
211
100
AcDbSymbolTableRecord
100
AcDbLayerTableRecord
  2
TRASH
 70
0
 62
7
  6
CONTINUOUS
370
-3
390
F
  0
LAYER
  5
212
100
AcDbSymbolTableRecord
100
AcDbLayerTableRecord
  2
_BLACK_HOLE
 70
0
 62
7
  6
CONTINUOUS
370
-3
390
F
  0
LAYER
  5
213
100
AcDbSymbolTableRecord
100
AcDbLayerTableRecord
  2
___SHELL
 70
0
 62
7
  6
CONTINUOUS
370
-3
390
F
  0
ENDTAB
  0
TABLE
  2
STYLE
  5
3
100
AcDbSymbolTable
 70
1
  0
STYLE
  5
11
100
AcDbSymbolTableRecord
100
AcDbTextStyleTableRecord
  2
STANDARD
 70
0
 40
0.0
 41
0.8
 50
0.0
 71
0
 42
0.2
  3
txt
  4

  0
STYLE
  5
214
100
AcDbSymbolTableRecord
100
AcDbTextStyleTableRecord
  2
TEXTSTYLE_1
 70
0
 40
0.0
 41
0.8
 50
0.0
 71
0
 42
0.2
  3
gdt
  4

  0
ENDTAB
  0
TABLE
  2
VIEW
  5
6
100
AcDbSymbolTable
 70
0
  0
ENDTAB
  0
TABLE
  2
UCS
  5
7
100
AcDbSymbolTable
 70
0
  0
ENDTAB
  0
TABLE
  2
APPID
  5
9
100
AcDbSymbolTable
 70
1
  0
APPID
  5
215
100
AcDbSymbolTableRecord
100
AcDbRegAppTableRecord
  2
ACAD
 70
0
  0
ENDTAB
  0
TABLE
  2
BLOCK_RECORD
  5
1
100
AcDbSymbolTable
 70
0
  0
BLOCK_RECORD
  5
216
100
AcDbSymbolTableRecord
100
AcDbBlockTableRecord
  2
*Model_Space
  0
BLOCK_RECORD
  5
217
100
AcDbSymbolTableRecord
100
AcDbBlockTableRecord
  2
*Paper_Space
  0
BLOCK_RECORD
  5
218
100
AcDbSymbolTableRecord
100
AcDbBlockTableRecord
  2
_FILLED
  0
BLOCK_RECORD
  5
219
100
AcDbSymbolTableRecord
100
AcDbBlockTableRecord
  2
*D0
  0
BLOCK_RECORD
  5
21A
100
AcDbSymbolTableRecord
100
AcDbBlockTableRecord
  2
*D1
  0
BLOCK_RECORD
  5
21B
100
AcDbSymbolTableRecord
100
AcDbBlockTableRecord
  2
*D2
  0
BLOCK_RECORD
  5
21C
100
AcDbSymbolTableRecord
100
AcDbBlockTableRecord
  2
*D3
  0
ENDTAB
  0
TABLE
  2
DIMSTYLE
  5
A
100
AcDbSymbolTable
 70
1
100
AcDbDimStyleTable
 71
0
  0
DIMSTYLE
105
21D
100
AcDbSymbolTableRecord
100
AcDbDimStyleTableRecord
  2
STANDARD
 70
0
  3

  4

 40
1.0
 41
3.0
 42
0.0625
 43
0.38
 44
0.18
 45
0.0
 46
0.0
 47
0.01
 48
0.01
140
3.0
141
0.09
142
0.0
143
25.4
144
1.0
145
0.0
146
1.0
147
0.09
 71
1.0
 72
0.0
 73
0
 74
0
 75
0
 76
0
 77
1
 78
8
170
0
171
2
172
0
173
0
174
0
175
0
176
0
177
0
178
0
270
2
271
2
272
2
273
2
274
2
275
0
280
0
281
0
282
0
283
1
284
8
285
0
286
0
287
3
288
0
340
11
341
218
342
218
343
218
344
218
  0
DIMSTYLE
105
21E
100
AcDbSymbolTableRecord
100
AcDbDimStyleTableRecord
  2
DIMSTYLE_1
 70
0
  3

  4

 40
1.0
 41
3.0
 42
0.0625
 43
0.38
 44
0.18
 45
0.0
 46
0.0
 47
0.0
 48
0.0
140
3.0
141
0.09
142
0.0
143
25.4
144
1.0
145
0.0
146
1.0
147
0.09
 71
0.0
 72
0.0
 73
0
 74
0
 75
0
 76
0
 77
1
 78
8
170
0
171
2
172
0
173
0
174
0
175
0
176
0
177
0
178
0
270
2
271
1
272
1
273
2
274
2
275
0
280
0
281
0
282
0
283
1
284
8
285
0
286
0
287
3
288
0
340
11
341
218
342
218
343
218
344
218
  0
ENDTAB
  0
ENDSEC
  0
SECTION
  2
BLOCKS
  0
BLOCK
  5
20
100
AcDbEntity
  8
0
100
AcDbBlockBegin
  2
*Model_Space
 70
0
 10
0.0
 20
0.0
 30
0.0
  3
*Model_Space
  1

  0
ENDBLK
  5
21
100
AcDbEntity
  8
0
100
AcDbBlockEnd
  0
BLOCK
  5
1C
100
AcDbEntity
  8
0
100
AcDbBlockBegin
  2
*Paper_Space
 70
0
 10
0.0
 20
0.0
 30
0.0
  3
*Paper_Space
  1

  0
ENDBLK
  5
1D
100
AcDbEntity
  8
0
100
AcDbBlockEnd
  0
BLOCK
  5
21F
100
AcDbEntity
  8
0
100
AcDbBlockBegin
  2
_FILLED
 70
64
 10
0.0
 20
0.0
  3
_FILLED
  1

  0
SOLID
  5
220
100
AcDbEntity
  8
0
  6
BYBLOCK
 62
0
100
AcDbTrace
 10
0.0
 20
0.0
 11
-1.0
 21
0.3166666667
 12
-1.0
 22
-0.3166666667
 13
-1.0
 23
-0.3166666667
  0
ENDBLK
  5
221
100
AcDbEntity
  8
0
  6
BYBLOCK
 62
0
100
AcDbBlockEnd
  0
BLOCK
  5
222
100
AcDbEntity
  8
0
100
AcDbBlockBegin
 62
7
  6
CONTINUOUS
  2
*D0
 70
65
 10
0.0
 20
0.0
  3
*D0
  1

  0
LINE
  5
223
100
AcDbEntity
  8
0
100
AcDbLine
 62
7
  6
CONTINUOUS
 10
5.1075061083
 20
11.7750144998
 11
17.75
 21
11.7750144998
  0
LINE
  5
224
100
AcDbEntity
  8
0
100
AcDbLine
 62
7
  6
CONTINUOUS
 10
6.65
 20
-11.7750144999
 11
17.75
 21
-11.7750144999
  0
LINE
  5
225
100
AcDbEntity
  8
0
100
AcDbLine
 62
7
  6
CONTINUOUS
 10
16.25
 20
11.7750144998
 11
16.25
 21
-0.0
  0
LINE
  5
226
100
AcDbEntity
  8
0
100
AcDbLine
 62
7
  6
CONTINUOUS
 10
16.25
 20
-11.7750144999
 11
16.25
 21
-0.0
  0
INSERT
  5
227
100
AcDbEntity
  8
0
100
AcDbBlockReference
 62
7
  6
CONTINUOUS
  2
_FILLED
 10
16.25
 20
11.7750144998
 41
3.0
 42
3.0
 43
3.0
 50
90.0
  0
INSERT
  5
228
100
AcDbEntity
  8
0
100
AcDbBlockReference
 62
7
  6
CONTINUOUS
  2
_FILLED
 10
16.25
 20
-11.7750144999
 41
3.0
 42
3.0
 43
3.0
 50
270.0
  0
ENDBLK
  5
229
100
AcDbEntity
  8
0
  6
BYBLOCK
 62
0
100
AcDbBlockEnd
  0
BLOCK
  5
22A
100
AcDbEntity
  8
0
100
AcDbBlockBegin
 62
7
  6
CONTINUOUS
  2
*D1
 70
65
 10
0.0
 20
0.0
  3
*D1
  1

  0
LINE
  5
22B
100
AcDbEntity
  8
0
100
AcDbLine
 62
7
  6
CONTINUOUS
 10
8.25
 20
3.5749855001
 11
8.25
 21
21.2750144999
  0
LINE
  5
22C
100
AcDbEntity
  8
0
100
AcDbLine
 62
7
  6
CONTINUOUS
 10
-8.25
 20
3.5749855001
 11
-8.25
 21
21.2750144999
  0
LINE
  5
22D
100
AcDbEntity
  8
0
100
AcDbLine
 62
7
  6
CONTINUOUS
 10
8.25
 20
19.7750144999
 11
-0.0
 21
19.7750144999
  0
LINE
  5
22E
100
AcDbEntity
  8
0
100
AcDbLine
 62
7
  6
CONTINUOUS
 10
-8.25
 20
19.7750144999
 11
-0.0
 21
19.7750144999
  0
INSERT
  5
22F
100
AcDbEntity
  8
0
100
AcDbBlockReference
 62
7
  6
CONTINUOUS
  2
_FILLED
 10
8.25
 20
19.7750144999
 41
3.0
 42
3.0
 43
3.0
  0
INSERT
  5
230
100
AcDbEntity
  8
0
100
AcDbBlockReference
 62
7
  6
CONTINUOUS
  2
_FILLED
 10
-8.25
 20
19.7750144999
 41
3.0
 42
3.0
 43
3.0
 50
180.0
  0
ENDBLK
  5
231
100
AcDbEntity
  8
0
  6
BYBLOCK
 62
0
100
AcDbBlockEnd
  0
BLOCK
  5
232
100
AcDbEntity
  8
0
100
AcDbBlockBegin
 62
7
  6
CONTINUOUS
  2
*D2
 70
65
 10
0.0
 20
0.0
  3
*D2
  1

  0
LINE
  5
233
100
AcDbEntity
  8
0
100
AcDbLine
 62
7
  6
CONTINUOUS
 10
-26.4472
 20
4.1222748677
 11
-26.4472
 21
31.2750144999
  0
LINE
  5
234
100
AcDbEntity
  8
0
100
AcDbLine
 62
7
  6
CONTINUOUS
 10
-64.2222
 20
7.7194819768
 11
-64.2222
 21
31.2750144999
  0
LINE
  5
235
100
AcDbEntity
  8
0
100
AcDbLine
 62
7
  6
CONTINUOUS
 10
-26.4472
 20
29.7750144999
 11
-45.3347
 21
29.7750144999
  0
LINE
  5
236
100
AcDbEntity
  8
0
100
AcDbLine
 62
7
  6
CONTINUOUS
 10
-64.2222
 20
29.7750144999
 11
-45.3347
 21
29.7750144999
  0
INSERT
  5
237
100
AcDbEntity
  8
0
100
AcDbBlockReference
 62
7
  6
CONTINUOUS
  2
_FILLED
 10
-26.4472
 20
29.7750144999
 41
3.0
 42
3.0
 43
3.0
  0
INSERT
  5
238
100
AcDbEntity
  8
0
100
AcDbBlockReference
 62
7
  6
CONTINUOUS
  2
_FILLED
 10
-64.2222
 20
29.7750144999
 41
3.0
 42
3.0
 43
3.0
 50
180.0
  0
ENDBLK
  5
239
100
AcDbEntity
  8
0
  6
BYBLOCK
 62
0
100
AcDbBlockEnd
  0
BLOCK
  5
23A
100
AcDbEntity
  8
0
100
AcDbBlockBegin
 62
7
  6
CONTINUOUS
  2
*D3
 70
65
 10
0.0
 20
0.0
  3
*D3
  1

  0
LINE
  5
23B
100
AcDbEntity
  8
0
100
AcDbLine
 62
7
  6
CONTINUOUS
 10
-26.4472
 20
4.1222748677
 11
-26.4472
 21
21.2750144999
  0
LINE
  5
23C
100
AcDbEntity
  8
0
100
AcDbLine
 62
7
  6
CONTINUOUS
 10
-55.9722000014
 20
12.2750144998
 11
-55.9722000014
 21
21.2750144999
  0
LINE
  5
23D
100
AcDbEntity
  8
0
100
AcDbLine
 62
7
  6
CONTINUOUS
 10
-26.4472
 20
19.7750144999
 11
-41.2097000007
 21
19.7750144999
  0
LINE
  5
23E
100
AcDbEntity
  8
0
100
AcDbLine
 62
7
  6
CONTINUOUS
 10
-55.9722000014
 20
19.7750144999
 11
-41.2097000007
 21
19.7750144999
  0
INSERT
  5
23F
100
AcDbEntity
  8
0
100
AcDbBlockReference
 62
7
  6
CONTINUOUS
  2
_FILLED
 10
-26.4472
 20
19.7750144999
 41
3.0
 42
3.0
 43
3.0
  0
INSERT
  5
240
100
AcDbEntity
  8
0
100
AcDbBlockReference
 62
7
  6
CONTINUOUS
  2
_FILLED
 10
-55.9722000014
 20
19.7750144999
 41
3.0
 42
3.0
 43
3.0
 50
180.0
  0
ENDBLK
  5
241
100
AcDbEntity
  8
0
  6
BYBLOCK
 62
0
100
AcDbBlockEnd
  0
ENDSEC
  0
SECTION
  2
ENTITIES
  0
DIMENSION
  5
242
100
AcDbEntity
  8
0
100
AcDbDimension
 62
7
  6
CONTINUOUS
  2
*D0
 10
16.25
 20
-11.7750144999
 11
15.5
 21
-4.2857142857
 70
160
 71
2
 42
23.5500289997
  3
DIMSTYLE_1
100
AcDbAlignedDimension
 13
5.1075061083
 23
11.7750144998
 14
6.65
 24
-11.7750144999
 50
270.0
100
AcDbRotatedDimension
  0
DIMENSION
  5
243
100
AcDbEntity
  8
0
100
AcDbDimension
 62
7
  6
CONTINUOUS
  2
*D1
 10
-8.25
 20
19.7750144999
 11
-3.9642857143
 21
20.5250144999
 70
160
 71
2
 42
16.5
  3
DIMSTYLE_1
100
AcDbAlignedDimension
 13
8.25
 23
3.5749855001
 14
-8.25
 24
3.5749855001
 50
180.0
100
AcDbRotatedDimension
  0
DIMENSION
  5
244
100
AcDbEntity
  8
0
100
AcDbDimension
 62
7
  6
CONTINUOUS
  2
*D2
 10
-64.2222
 20
29.7750144999
 11
-49.6204142857
 21
30.5250144999
 70
160
 71
2
 42
37.775
  3
DIMSTYLE_1
100
AcDbAlignedDimension
 13
-26.4472
 23
4.1222748677
 14
-64.2222
 24
7.7194819768
 50
180.0
100
AcDbRotatedDimension
  0
DIMENSION
  5
245
100
AcDbEntity
  8
0
100
AcDbDimension
 62
7
  6
CONTINUOUS
  2
*D3
 10
-55.9722000014
 20
19.7750144999
 11
-45.4954142864
 21
20.5250144999
 70
160
 71
2
 42
29.5250000014
  3
DIMSTYLE_1
100
AcDbAlignedDimension
 13
-26.4472
 23
4.1222748677
 14
-55.9722000014
 24
12.2750144998
 50
180.0
100
AcDbRotatedDimension
  0
LWPOLYLINE
  5
246
100
AcDbEntity
  8
0
100
AcDbPolyline
 62
7
  6
CONTINUOUS
 90
3
 70
0
 43
0.3500000006
 10
-3.9642856293
 20
22.6678711853
 10
-3.1071428747
 20
23.5250136566
 10
-3.1071428747
 20
20.5250127411
  0
LWPOLYLINE
  5
247
100
AcDbEntity
  8
0
100
AcDbPolyline
 62
7
  6
CONTINUOUS
 90
10
 70
0
 43
0.3500000006
 10
-1.1785713937
 20
23.5250136566
 10
-1.8214286013
 20
22.8821556702
 10
-2.2499999785
 20
22.0250131989
 10
-2.2499999785
 20
20.9535862427
 10
-1.8214286013
 20
20.5250127411
 10
-1.1785713937
 20
20.5250127411
 10
-0.7500000165
 20
20.9535862427
 10
-0.7500000165
 20
21.810728714
 10
-1.1785713937
 20
22.2393022156
 10
-2.1071428528
 20
22.2393022156
  0
LWPOLYLINE
  5
248
100
AcDbEntity
  8
IMPORT_IGES
100
AcDbPolyline
 62
253
  6
CONTINUOUS
 90
4
 70
0
 10
-7.8160694266
 20
-10.6868772384
 10
-7.7784970449
 20
-10.6977552311
 10
-7.7395792686
 20
-10.7043514931
 10
-7.7
 20
-10.7065608046
  0
LWPOLYLINE
  5
249
100
AcDbEntity
  8
IMPORT_IGES
100
AcDbPolyline
 62
253
  6
CONTINUOUS
 90
7
 70
0
 10
-7.060878417
 20
-10.5527644588
 10
-7.0952479538
 20
-10.5361085366
 10
-7.1270902607
 20
-10.5153199852
 10
-7.1563728266
 20
-10.4903545937
 10
-7.1826665454
 20
-10.4612824126
 10
-7.205177909
 20
-10.4286405784
 10
-7.213378807
 20
-10.4154361293
  0
LWPOLYLINE
  5
24A
100
AcDbEntity
  8
IMPORT_IGES
100
AcDbPolyline
 62
253
  6
CONTINUOUS
 90
3
 70
0
 10
-7.8846638491
 20
-10.6530032268
 10
-7.8516909321
 20
-10.6718699809
 10
-7.8160694266
 20
-10.6868772384
  0
LWPOLYLINE
  5
24B
100
AcDbEntity
  8
IMPORT_IGES
100
AcDbPolyline
 62
253
  6
CONTINUOUS
 90
3
 70
0
 10
-7.1216475466
 20
-10.5198424645
 10
-7.1308955097
 20
-10.513020502
 10
-7.1414572018
 20
-10.5045340338
  0
LWPOLYLINE
  5
24C
100
AcDbEntity
  8
IMPORT_IGES
100
AcDbPolyline
 62
253
  6
CONTINUOUS
 90
10
 70
0
 10
-7.9121320344
 20
-10.6659425422
 10
-7.8947187792
 20
-10.681079995
 10
-7.8752165353
 20
-10.6937792474
 10
-7.8538345273
 20
-10.7039040587
 10
-7.8308021463
 20
-10.7113458077
 10
-7.8063664892
 20
-10.7160246576
 10
-7.7807897073
 20
-10.7178904124
 10
-7.7543461946
 20
-10.716923056
 10
-7.7273196431
 20
-10.7131329664
 10
-7.7
 20
-10.7065608046
  0
LWPOLYLINE
  5
24D
100
AcDbEntity
  8
IMPORT_IGES
100
AcDbPolyline
 62
253
  6
CONTINUOUS
 90
3
 70
0
 10
-7.1496694951
 20
-10.4973627917
 10
-7.1603989357
 20
-10.4871465342
 10
-7.1690017804
 20
-10.4781844777
  0
LINE
  5
24E
100
AcDbEntity
  8
IMPORT_IGES
100
AcDbLine
 62
253
  6
CONTINUOUS
 10
-7.3
 20
-11.1065608046
 11
-7.7
 21
-10.7065608046
  0
LINE
  5
24F
100
AcDbEntity
  8
IMPORT_IGES
100
AcDbLine
 62
253
  6
CONTINUOUS
 10
-7.3
 20
-10.1467037266
 11
-7.2488995293
 21
-10.1978041974
  0
LINE
  5
250
100
AcDbEntity
  8
IMPORT_IGES
100
AcDbLine
 62
253
  6
CONTINUOUS
 10
-6.8716892268
 20
-10.5750144999
 11
-6.4716892268
 21
-10.9750144999
  0
LINE
  5
251
100
AcDbEntity
  8
IMPORT_IGES
100
AcDbLine
 62
7
  6
CONTINUOUS
 10
-7.0909280423
 20
-11.4871465342
 11
-7.9121320382
 21
-10.6659425383
  0
LWPOLYLINE
  5
252
100
AcDbEntity
  8
IMPORT_IGES
100
AcDbPolyline
 62
253
  6
CONTINUOUS
 90
4
 70
0
 10
-7.9614988775
 20
-10.5776849071
 10
-7.9400029513
 20
-10.6054573705
 10
-7.9142592215
 20
-10.6307216453
 10
-7.8846638491
 20
-10.6530032268
  0
LWPOLYLINE
  5
253
100
AcDbEntity
  8
IMPORT_IGES
100
AcDbPolyline
 62
253
  6
CONTINUOUS
 90
10
 70
0
 10
-7.8882060465
 20
9.3174748643
 10
-7.8835407417
 20
9.32361497
 10
-7.8786377297
 20
9.3297118744
 10
-7.8734970233
 20
9.3357430327
 10
-7.8681246386
 20
9.3416847244
 10
-7.8625145839
 20
9.3475175726
 10
-7.8566488599
 20
9.3532263078
 10
-7.8505214745
 20
9.3587925976
 10
-7.8441384421
 20
9.364195415
 10
-7.8374997731
 20
9.3694163315
  0
LWPOLYLINE
  5
254
100
AcDbEntity
  8
IMPORT_IGES
100
AcDbPolyline
 62
253
  6
CONTINUOUS
 90
9
 70
0
 10
-7.8370725403
 20
9.3696675218
 10
-7.8332258018
 20
9.3732515161
 10
-7.8292928636
 20
9.3767134771
 10
-7.8252745427
 20
9.3800534049
 10
-7.8211527138
 20
9.3832775688
 10
-7.8169470052
 20
9.3863796994
 10
-7.8127147593
 20
9.3893409889
 10
-7.8084754523
 20
9.392155168
 10
-7.8042107352
 20
9.394828506
  0
LINE
  5
255
100
AcDbEntity
  8
IMPORT_IGES
100
AcDbLine
 62
253
  6
CONTINUOUS
 10
-7.895661369
 20
9.3119213874
 11
-7.8882059899
 21
9.31755544
  0
LINE
  5
256
100
AcDbEntity
  8
IMPORT_IGES
100
AcDbLine
 62
253
  6
CONTINUOUS
 10
-7.8042107352
 20
9.394828506
 11
-7.7999211021
 21
9.3973610028
  0
LINE
  5
257
100
AcDbEntity
  8
IMPORT_IGES
100
AcDbLine
 62
7
  6
CONTINUOUS
 10
-6.3731214368
 20
10.2847870591
 11
-7.85
 21
9.4321295891
  0
LINE
  5
258
100
AcDbEntity
  8
IMPORT_IGES
100
AcDbLine
 62
7
  6
CONTINUOUS
 10
-6.4858923996
 20
10.1537488189
 11
-6.3214447015
 21
10.2480397337
  0
LINE
  5
259
100
AcDbEntity
  8
IMPORT_IGES
100
AcDbLine
 62
7
  6
CONTINUOUS
 10
-7.7999210803
 20
9.3973744337
 11
-6.4858923996
 21
10.1537488189
  0
LWPOLYLINE
  5
25A
100
AcDbEntity
  8
IMPORT_IGES
100
AcDbPolyline
 62
253
  6
CONTINUOUS
 90
10
 70
0
 10
-6.3214451611
 20
10.2480259739
 10
-6.3107820616
 20
10.2536599347
 10
-6.3001046661
 20
10.2586099545
 10
-6.2894164587
 20
10.2628760332
 10
-6.2788563606
 20
10.2664298915
 10
-6.2682882617
 20
10.2692998087
 10
-6.2573021532
 20
10.2715706231
 10
-6.2457607967
 20
10.273270614
 10
-6.2337985925
 20
10.2743715021
 10
-6.2214118974
 20
10.2748732875
  0
LWPOLYLINE
  5
25B
100
AcDbEntity
  8
IMPORT_IGES
100
AcDbPolyline
 62
253
  6
CONTINUOUS
 90
10
 70
0
 10
-7.9106739978
 20
9.3508479132
 10
-7.9220097265
 20
9.3450383977
 10
-7.9326474688
 20
9.3382425448
 10
-7.9424825329
 20
9.3305642131
 10
-7.9512463061
 20
9.3222901965
 10
-7.95912694
 20
9.3134216319
 10
-7.9665728128
 20
9.3034938321
 10
-7.9735234041
 20
9.2923052387
 10
-7.9796154869
 20
9.2800947583
 10
-7.9846824102
 20
9.2669603664
  0
LWPOLYLINE
  5
25C
100
AcDbEntity
  8
IMPORT_IGES
100
AcDbPolyline
 62
253
  6
CONTINUOUS
 90
10
 70
0
 10
-7.9106720428
 20
9.3508454289
 10
-7.9035576023
 20
9.3538465553
 10
-7.8961338852
 20
9.3566428553
 10
-7.8884244042
 20
9.3592162091
 10
-7.8804694303
 20
9.3615653606
 10
-7.8722909222
 20
9.3636718997
 10
-7.8638823815
 20
9.3655005293
 10
-7.8552584257
 20
9.3670472355
 10
-7.8464561817
 20
9.3683447001
 10
-7.8374997728
 20
9.3694171299
  0
LWPOLYLINE
  5
25D
100
AcDbEntity
  8
IMPORT_IGES
100
AcDbPolyline
 62
253
  6
CONTINUOUS
 90
10
 70
0
 10
-7.8499799716
 20
9.4321223865
 10
-7.8465866475
 20
9.4332422588
 10
-7.8424852181
 20
9.4330814006
 10
-7.8377420255
 20
9.4316235916
 10
-7.8324264664
 20
9.4288814013
 10
-7.8266095143
 20
9.424883633
 10
-7.8203593051
 20
9.419665709
 10
-7.813759643
 20
9.4132827663
 10
-7.8069123633
 20
9.4058190063
 10
-7.7999210803
 20
9.3973744337
  0
LWPOLYLINE
  5
25E
100
AcDbEntity
  8
IMPORT_IGES
100
AcDbPolyline
 62
253
  6
CONTINUOUS
 90
10
 70
0
 10
-6.3731214368
 20
10.2847870591
 10
-6.3696364004
 20
10.2859205349
 10
-6.3653826413
 20
10.2857070544
 10
-6.3604621489
 20
10.2841231136
 10
-6.3549587513
 20
10.2811944889
 10
-6.3489495442
 20
10.2769609359
 10
-6.3424965083
 20
10.2714557212
 10
-6.3356851571
 20
10.2647338376
 10
-6.3286304132
 20
10.2568917631
 10
-6.3214447015
 20
10.2480397337
  0
LWPOLYLINE
  5
25F
100
AcDbEntity
  8
IMPORT_IGES
100
AcDbPolyline
 62
253
  6
CONTINUOUS
 90
9
 70
0
 10
7.0189761402
 20
-10.5665642631
 10
7.0251446293
 20
-10.5647922477
 10
7.0623037207
 20
-10.5521783596
 10
7.0974984771
 20
-10.534822121
 10
7.1301267067
 20
-10.513020502
 10
7.1596301324
 20
-10.4871465342
 10
7.1855039425
 20
-10.4576429286
 10
7.2073054287
 20
-10.4250144999
 10
7.2151025005
 20
-10.4121326483
  0
LINE
  5
260
100
AcDbEntity
  8
IMPORT_IGES
100
AcDbLine
 62
253
  6
CONTINUOUS
 10
6.9866570056
 20
-10.5724479582
 11
7.0250817278
 21
-10.5650138259
  0
LINE
  5
261
100
AcDbEntity
  8
IMPORT_IGES
100
AcDbLine
 62
7
  6
CONTINUOUS
 10
6.4
 20
-11.7750144999
 11
-6.3996427215
 21
-11.7750144999
  0
LINE
  5
262
100
AcDbEntity
  8
IMPORT_IGES
100
AcDbLine
 62
253
  6
CONTINUOUS
 10
6.5
 20
-11.6750144999
 11
-6.5
 21
-11.6750144999
  0
LINE
  5
263
100
AcDbEntity
  8
IMPORT_IGES
100
AcDbLine
 62
7
  6
CONTINUOUS
 10
6.8787960079
 20
-11.5750144999
 11
-6.8787960079
 21
-11.5750144999
  0
LWPOLYLINE
  5
264
100
AcDbEntity
  8
IMPORT_IGES
100
AcDbPolyline
 62
253
  6
CONTINUOUS
 90
4
 70
0
 10
-7.024311794
 20
-10.5650141253
 10
-7.063072524
 20
-10.5521783596
 10
-7.0982672798
 20
-10.534822121
 10
-7.1096253628
 20
-10.5279274431
  0
LINE
  5
265
100
AcDbEntity
  8
IMPORT_IGES
100
AcDbLine
 62
7
  6
CONTINUOUS
 10
-7.3
 20
-9.8638610141
 11
-7.25
 21
-9.9138610141
  0
LINE
  5
266
100
AcDbEntity
  8
IMPORT_IGES
100
AcDbLine
 62
7
  6
CONTINUOUS
 10
-6.5888465143
 20
-10.5750144999
 11
-6.3888465143
 21
-10.7750144999
  0
LWPOLYLINE
  5
267
100
AcDbEntity
  8
IMPORT_IGES
100
AcDbPolyline
 62
253
  6
CONTINUOUS
 90
5
 70
0
 10
-7.1785755195
 20
-10.4672642353
 10
-7.1862727458
 20
-10.4576429286
 10
-7.208074232
 20
-10.4250144999
 10
-7.2254303649
 20
-10.3898195296
 10
-7.2306582481
 20
-10.3762979719
  0
LWPOLYLINE
  5
268
100
AcDbEntity
  8
IMPORT_IGES
100
AcDbPolyline
 62
253
  6
CONTINUOUS
 90
9
 70
0
 10
-7.9371117786
 20
9.2515558273
 10
-7.9333910006
 20
9.2610748867
 10
-7.9292804485
 20
9.2699866874
 10
-7.9247801223
 20
9.2782912294
 10
-7.9199413893
 20
9.2859074241
 10
-7.9147128821
 20
9.2929163602
 10
-7.9089404988
 20
9.2995613032
 10
-7.902572872
 20
9.3059233418
 10
-7.895661369
 20
9.3119213874
  0
LINE
  5
269
100
AcDbEntity
  8
IMPORT_IGES
100
AcDbLine
 62
7
  6
CONTINUOUS
 10
-7.25
 20
8.6238392122
 11
-7.3
 21
8.5949716988
  0
LWPOLYLINE
  5
26A
100
AcDbEntity
  8
IMPORT_IGES
100
AcDbPolyline
 62
253
  6
CONTINUOUS
 90
10
 70
0
 10
-4.5100516122
 20
9.8934522446
 10
-4.5685679971
 20
9.8759564095
 10
-4.6216072795
 20
9.8576642238
 10
-4.6688963772
 20
9.8385756873
 10
-4.7101751428
 20
9.8185846723
 10
-4.7452707845
 20
9.7977973066
 10
-4.7740626321
 20
9.7765319739
 10
-4.7963997488
 20
9.7548948022
 10
-4.8121377985
 20
9.7327796636
 10
-4.8211880766
 20
9.710186558
  0
LINE
  5
26B
100
AcDbEntity
  8
IMPORT_IGES
100
AcDbLine
 62
253
  6
CONTINUOUS
 10
6.9474993833
 20
-10.5750144999
 11
6.9866570056
 21
-10.5724479582
  0
LWPOLYLINE
  5
26C
100
AcDbEntity
  8
IMPORT_IGES
100
AcDbPolyline
 62
253
  6
CONTINUOUS
 90
13
 70
0
 10
6.9471539112
 20
-10.5095007
 10
6.9859239466
 20
-10.5072563742
 10
7.0238845433
 20
-10.5007143101
 10
7.0604166151
 20
-10.4900373119
 10
7.0947588068
 20
-10.4755416383
 10
7.1265816303
 20
-10.4574645364
 10
7.1558523429
 20
-10.4357679606
 10
7.1821432551
 20
-10.4105131932
 10
7.2046631967
 20
-10.3821661819
 10
7.2228024111
 20
-10.3512765761
 10
7.2361279129
 20
-10.3183976644
 10
7.2443297154
 20
-10.284040847
 10
7.2471520835
 20
-10.2488089798
  0
LWPOLYLINE
  5
26D
100
AcDbEntity
  8
IMPORT_IGES
100
AcDbPolyline
 62
253
  6
CONTINUOUS
 90
4
 70
0
 10
7.7
 20
-10.7065608046
 10
7.7399439941
 20
-10.7043104038
 10
7.7791090019
 20
-10.6976148728
 10
7.8168055785
 20
-10.6866160438
  0
LINE
  5
26E
100
AcDbEntity
  8
IMPORT_IGES
100
AcDbLine
 62
7
  6
CONTINUOUS
 10
-7.3009777672
 20
-11.2754778555
 11
7.3009777672
 21
-11.2754778555
  0
LINE
  5
26F
100
AcDbEntity
  8
IMPORT_IGES
100
AcDbLine
 62
253
  6
CONTINUOUS
 10
-6.4716892268
 20
-10.9750144999
 11
6.4716892268
 21
-10.9750144999
  0
LINE
  5
270
100
AcDbEntity
  8
IMPORT_IGES
100
AcDbLine
 62
7
  6
CONTINUOUS
 10
6.3888465143
 20
-10.7750144999
 11
-6.3888465143
 21
-10.7750144999
  0
LINE
  5
271
100
AcDbEntity
  8
IMPORT_IGES
100
AcDbLine
 62
253
  6
CONTINUOUS
 10
3.5
 20
-10.6285678904
 11
-3.5
 21
-10.6285678904
  0
LINE
  5
272
100
AcDbEntity
  8
IMPORT_IGES
100
AcDbLine
 62
7
  6
CONTINUOUS
 10
-6.9478837891
 20
-10.5750144999
 11
6.9478837891
 21
-10.5750144999
  0
LINE
  5
273
100
AcDbEntity
  8
IMPORT_IGES
100
AcDbLine
 62
253
  6
CONTINUOUS
 10
-6.9471539099
 20
-10.5095004059
 11
6.9471539099
 21
-10.5095004057
  0
LWPOLYLINE
  5
274
100
AcDbEntity
  8
IMPORT_IGES
100
AcDbPolyline
 62
7
  6
CONTINUOUS
 90
28
 70
0
 10
-6.948277289
 20
-10.5750158315
 10
-6.9746013641
 20
-10.5738579258
 10
-6.9995717476
 20
-10.5705966505
 10
-7.0227169367
 20
-10.5656315723
 10
-7.0439912263
 20
-10.5593348063
 10
-7.063347153
 20
-10.5520664942
 10
-7.0807325713
 20
-10.5441876832
 10
-7.0960956593
 20
-10.5360663988
 10
-7.1096253628
 20
-10.5279274431
 10
-7.1216475466
 20
-10.5198424645
 10
-7.132226649
 20
-10.511996478
 10
-7.1414572018
 20
-10.5045340338
 10
-7.1496694951
 20
-10.4973627917
 10
-7.1562679463
 20
-10.4912028059
 10
-7.162000435
 20
-10.485537282
 10
-7.1690017804
 20
-10.4781844777
 10
-7.1785755195
 20
-10.4672642353
 10
-7.1888659515
 20
-10.45421895
 10
-7.197488483
 20
-10.4420200662
 10
-7.2038222902
 20
-10.4321571182
 10
-7.2089397357
 20
-10.4235140979
 10
-7.213378807
 20
-10.4154361293
 10
-7.2171203068
 20
-10.4081328703
 10
-7.220312998
 20
-10.4014805914
 10
-7.2235705869
 20
-10.3942233402
 10
-7.2271523364
 20
-10.385585454
 10
-7.2306582481
 20
-10.3762979719
 10
-7.2337073311
 20
-10.3673573089
  0
LWPOLYLINE
  5
275
100
AcDbEntity
  8
IMPORT_IGES
100
AcDbPolyline
 62
253
  6
CONTINUOUS
 90
13
 70
0
 10
-6.94702527
 20
-10.5095005753
 10
-6.9861979149
 20
-10.5072246608
 10
-7.0246882229
 20
-10.5005272319
 10
-7.0618387103
 20
-10.4895276351
 10
-7.0970118559
 20
-10.4744205869
 10
-7.1296139317
 20
-10.4554674053
 10
-7.1591016744
 20
-10.4329868584
 10
-7.1849746743
 20
-10.4073593813
 10
-7.206787427
 20
-10.3790250177
 10
-7.2241675295
 20
-10.3484675121
 10
-7.2368182561
 20
-10.3162085644
 10
-7.2445236247
 20
-10.2827989225
 10
-7.2471520835
 20
-10.2488089798
  0
LWPOLYLINE
  5
276
100
AcDbEntity
  8
IMPORT_IGES
100
AcDbPolyline
 62
253
  6
CONTINUOUS
 90
3
 70
0
 10
-6.9474993904
 20
-10.5750144999
 10
-6.9863117779
 20
-10.5724932053
 10
-7.024311794
 20
-10.5650141253
  0
LWPOLYLINE
  5
277
100
AcDbEntity
  8
IMPORT_IGES
100
AcDbPolyline
 62
253
  6
CONTINUOUS
 90
5
 70
0
 10
-7.2171203068
 20
-10.4081328703
 10
-7.2232957216
 20
-10.393063036
 10
-7.2365861362
 20
-10.3551882804
 10
-7.2447386775
 20
-10.3156067365
 10
-7.2474975627
 20
-10.2750144999
  0
LWPOLYLINE
  5
278
100
AcDbEntity
  8
IMPORT_IGES
100
AcDbPolyline
 62
7
  6
CONTINUOUS
 90
11
 70
0
 10
6.9730605039
 20
-8.5068554179
 10
7.0108856131
 20
-8.4994493513
 10
7.0476044629
 20
-8.4872265887
 10
7.0825936953
 20
-8.4702684375
 10
7.1152294249
 20
-8.4488153323
 10
7.1449050299
 20
-8.4232741874
 10
7.1710741906
 20
-8.3939666606
 10
7.1932547876
 20
-8.3613237844
 10
7.2110195329
 20
-8.3260174742
 10
7.2240120053
 20
-8.2886313369
 10
7.2319540256
 20
-8.2496522427
  0
LINE
  5
279
100
AcDbEntity
  8
IMPORT_IGES
100
AcDbLine
 62
253
  6
CONTINUOUS
 10
7.2474975627
 20
-10.2750144999
 11
7.248266366
 21
-10.2750142349
  0
LINE
  5
27A
100
AcDbEntity
  8
IMPORT_IGES
100
AcDbLine
 62
253
  6
CONTINUOUS
 10
-7.248266366
 20
-10.2750144999
 11
-7.2474975627
 21
-10.2750144999
  0
LINE
  5
27B
100
AcDbEntity
  8
IMPORT_IGES
100
AcDbLine
 62
7
  6
CONTINUOUS
 10
-4.0082575695
 20
-9.8250144999
 11
4.0082575695
 21
-9.8250144999
  0
LINE
  5
27C
100
AcDbEntity
  8
IMPORT_IGES
100
AcDbLine
 62
253
  6
CONTINUOUS
 10
7.3
 20
-9.6135020088
 11
7.7
 21
-9.6135020086
  0
LINE
  5
27D
100
AcDbEntity
  8
IMPORT_IGES
100
AcDbLine
 62
253
  6
CONTINUOUS
 10
-7.3
 20
-9.613502009
 11
-7.7
 21
-9.6135020091
  0
LINE
  5
27E
100
AcDbEntity
  8
IMPORT_IGES
100
AcDbLine
 62
7
  6
CONTINUOUS
 10
3.25
 20
-9.5424058042
 11
-3.25
 21
-9.5424058042
  0
LWPOLYLINE
  5
27F
100
AcDbEntity
  8
IMPORT_IGES
100
AcDbPolyline
 62
253
  6
CONTINUOUS
 90
13
 70
0
 10
-7.7
 20
-9.6135020091
 10
-7.7390995448
 20
-9.6113461582
 10
-7.7775502227
 20
-9.604911294
 10
-7.8146940449
 20
-9.5943012471
 10
-7.8498984022
 20
-9.5796892865
 10
-7.8825524884
 20
-9.5613210814
 10
-7.912081641
 20
-9.5395156072
 10
-7.9379783503
 20
-9.5146466999
 10
-7.9597992603
 20
-9.4871390602
 10
-7.9771651307
 20
-9.457472478
 10
-7.989780561
 20
-9.4261594567
 10
-7.9974347325
 20
-9.3937340911
 10
-8.0
 20
-9.360751712
  0
LWPOLYLINE
  5
280
100
AcDbEntity
  8
IMPORT_IGES
100
AcDbPolyline
 62
7
  6
CONTINUOUS
 90
11
 70
0
 10
-6.9729105784
 20
-8.5069098015
 10
-7.010812737
 20
-8.4995027967
 10
-7.0475769107
 20
-8.4872435362
 10
-7.0825732349
 20
-8.4702885358
 10
-7.1151920966
 20
-8.4488758179
 10
-7.1448545743
 20
-8.4233218795
 10
-7.1710189965
 20
-8.3940254823
 10
-7.1932005176
 20
-8.3614513878
 10
-7.2109767514
 20
-8.3261177356
 10
-7.2239868413
 20
-8.2886080464
 10
-7.2319450768
 20
-8.2495657441
  0
LINE
  5
281
100
AcDbEntity
  8
IMPORT_IGES
100
AcDbLine
 62
253
  6
CONTINUOUS
 10
-7.2337073311
 20
-10.3673573089
 11
-7.2380441762
 21
-10.3526602134
  0
LWPOLYLINE
  5
282
100
AcDbEntity
  8
IMPORT_IGES
100
AcDbPolyline
 62
7
  6
CONTINUOUS
 90
15
 70
0
 10
-7.2337073311
 20
-10.3673573089
 10
-7.2362068278
 20
-10.3592419789
 10
-7.2383534491
 20
-10.3515241917
 10
-7.2402667821
 20
-10.3438645696
 10
-7.2419885432
 20
-10.3361067937
 10
-7.2434839261
 20
-10.3284195413
 10
-7.2447402514
 20
-10.3209428649
 10
-7.2457898591
 20
-10.313574367
 10
-7.2466313481
 20
-10.3064264875
 10
-7.2472449952
 20
-10.2999535479
 10
-7.2476734117
 20
-10.2942018326
 10
-7.2479643886
 20
-10.2890779984
 10
-7.2481446808
 20
-10.2847973814
 10
-7.2482461208
 20
-10.2815654992
 10
-7.2483081295
 20
-10.2790242285
  0
LWPOLYLINE
  5
283
100
AcDbEntity
  8
IMPORT_IGES
100
AcDbPolyline
 62
253
  6
CONTINUOUS
 90
9
 70
0
 10
-8.25
 20
-6.1250144999
 10
-8.2482900139
 20
-6.1454913681
 10
-8.2431882534
 20
-6.1656211389
 10
-8.2347804429
 20
-6.1850592494
 10
-8.2232082187
 20
-6.2034737097
 10
-8.2086686393
 20
-6.2205476482
 10
-8.1914124773
 20
-6.235985576
 10
-8.1717349807
 20
-6.2495234369
 10
-8.1499734274
 20
-6.2609292599
  0
LWPOLYLINE
  5
284
100
AcDbEntity
  8
IMPORT_IGES
100
AcDbPolyline
 62
253
  6
CONTINUOUS
 90
5
 70
0
 10
-8.0
 20
-10.4538105078
 10
-7.9976155464
 20
-10.4856140726
 10
-7.9904083322
 20
-10.5172111595
 10
-7.9783584002
 20
-10.5480675103
 10
-7.9614988775
 20
-10.5776849071
  0
LWPOLYLINE
  5
285
100
AcDbEntity
  8
IMPORT_IGES
100
AcDbPolyline
 62
253
  6
CONTINUOUS
 90
13
 70
0
 10
-8.25
 20
4.2781145205
 10
-8.2482909779
 20
4.2985856406
 10
-8.2431911697
 20
4.3187126167
 10
-8.2347848991
 20
4.3381508268
 10
-8.2232118605
 20
4.3565687805
 10
-8.208668283
 20
4.3736480332
 10
-8.1914066312
 20
4.389090183
 10
-8.1717221883
 20
4.4026311571
 10
-8.1499528217
 20
4.4140386105
 10
-8.1264812571
 20
4.4231141242
 10
-8.1017145325
 20
4.4297046683
 10
-8.0760744879
 20
4.4337021125
 10
-8.05
 20
4.4350414697
  0
LWPOLYLINE
  5
286
100
AcDbEntity
  8
IMPORT_IGES
100
AcDbPolyline
 62
253
  6
CONTINUOUS
 90
13
 70
0
 10
-8.0
 20
7.7507214314
 10
-7.9974357066
 20
7.7783981403
 10
-7.9897844608
 20
7.8056075239
 10
-7.9771738616
 20
7.8318837702
 10
-7.9598149958
 20
7.856778416
 10
-7.9380028646
 20
7.879862123
 10
-7.9121148102
 20
7.9007336098
 10
-7.8825937311
 20
7.9190359129
 10
-7.8499459496
 20
7.9344552228
 10
-7.8147416897
 20
7.946724422
 10
-7.7775894645
 20
7.9556358953
 10
-7.7391227801
 20
7.9610419108
 10
-7.7
 20
7.9628534658
  0
LINE
  5
287
100
AcDbEntity
  8
IMPORT_IGES
100
AcDbLine
 62
7
  6
CONTINUOUS
 10
6.9347654001
 20
-8.5093919335
 11
6.9730605039
 21
-8.5068554179
  0
LINE
  5
288
100
AcDbEntity
  8
IMPORT_IGES
100
AcDbLine
 62
253
  6
CONTINUOUS
 10
7.3
 20
-9.3607517121
 11
8.0
 21
-9.360751712
  0
LINE
  5
289
100
AcDbEntity
  8
IMPORT_IGES
100
AcDbLine
 62
253
  6
CONTINUOUS
 10
-7.3
 20
-9.360751712
 11
-8.0
 21
-9.360751712
  0
LINE
  5
28A
100
AcDbEntity
  8
IMPORT_IGES
100
AcDbLine
 62
7
  6
CONTINUOUS
 10
7.3
 20
-8.8000144999
 11
7.2451537609
 21
-8.8000144999
  0
LINE
  5
28B
100
AcDbEntity
  8
IMPORT_IGES
100
AcDbLine
 62
7
  6
CONTINUOUS
 10
-7.245154408
 20
-8.8000144999
 11
-7.3
 21
-8.8000144999
  0
LINE
  5
28C
100
AcDbEntity
  8
IMPORT_IGES
100
AcDbLine
 62
7
  6
CONTINUOUS
 10
-6.9346367602
 20
-8.5093921506
 11
-4.05
 21
-8.5093921506
  0
LINE
  5
28D
100
AcDbEntity
  8
IMPORT_IGES
100
AcDbLine
 62
7
  6
CONTINUOUS
 10
4.05
 20
-8.5093921506
 11
6.9346367602
 21
-8.5093921506
  0
LINE
  5
28E
100
AcDbEntity
  8
IMPORT_IGES
100
AcDbLine
 62
7
  6
CONTINUOUS
 10
-6.9345081209
 20
-8.5093921246
 11
-6.9729105784
 21
-8.5069098015
  0
LWPOLYLINE
  5
28F
100
AcDbEntity
  8
IMPORT_IGES
100
AcDbPolyline
 62
7
  6
CONTINUOUS
 90
13
 70
0
 10
-6.8944964766
 20
-8.4695091488
 10
-6.9333739892
 20
-8.4669788917
 10
-6.9716593807
 20
-8.4594148303
 10
-7.0086998288
 20
-8.4469199268
 10
-7.0438668609
 20
-8.4296771631
 10
-7.0765401792
 20
-8.4079599981
 10
-7.1061256716
 20
-8.3821395038
 10
-7.132104525
 20
-8.3526509729
 10
-7.1540238684
 20
-8.3199884984
 10
-7.1714887954
 20
-8.2847211368
 10
-7.1841905318
 20
-8.2474578016
 10
-7.1919059572
 20
-8.2088329712
 10
-7.1944946489
 20
-8.1695109765
  0
LWPOLYLINE
  5
290
100
AcDbEntity
  8
IMPORT_IGES
100
AcDbPolyline
 62
253
  6
CONTINUOUS
 90
5
 70
0
 10
-8.1499734274
 20
-6.2609292599
 10
-8.1265057331
 20
-6.2700061539
 10
-8.1017363908
 20
-6.2766000557
 10
-8.0760881683
 20
-6.28060068
 10
-8.05
 20
-6.281941449
  0
LINE
  5
291
100
AcDbEntity
  8
IMPORT_IGES
100
AcDbLine
 62
253
  6
CONTINUOUS
 10
-7.2380441762
 20
-10.3526602134
 11
-7.2419885432
 21
-10.3361067937
  0
LINE
  5
292
100
AcDbEntity
  8
IMPORT_IGES
100
AcDbLine
 62
253
  6
CONTINUOUS
 10
-7.2434839261
 20
-10.3284195413
 11
-7.2456998401
 21
-10.3141723575
  0
LWPOLYLINE
  5
293
100
AcDbEntity
  8
IMPORT_IGES
100
AcDbPolyline
 62
253
  6
CONTINUOUS
 90
4
 70
0
 10
-7.248266366
 20
-10.2750144999
 10
-7.248310582
 20
-10.2746055829
 10
-7.2483542811
 20
-10.2734198653
 10
-7.2483974634
 20
-10.2714573471
  0
LINE
  5
294
100
AcDbEntity
  8
IMPORT_IGES
100
AcDbLine
 62
7
  6
CONTINUOUS
 10
-7.2319450768
 20
-8.2495657441
 11
-7.2346529689
 21
-8.2096692964
  0
LINE
  5
295
100
AcDbEntity
  8
IMPORT_IGES
100
AcDbLine
 62
7
  6
CONTINUOUS
 10
-8.25
 20
-6.1250144999
 11
-8.25
 21
5.1749855001
  0
LINE
  5
296
100
AcDbEntity
  8
ASSI
100
AcDbLine
 62
7
  6
CONTINUOUS
 10
-8.25
 20
-5.2281435202
 11
-8.25
 21
4.2781145205
  0
LINE
  5
297
100
AcDbEntity
  8
IMPORT_IGES
100
AcDbLine
 62
253
  6
CONTINUOUS
 10
-8.05
 20
-6.3250144999
 11
-8.05
 21
-5.2281435202
  0
LINE
  5
298
100
AcDbEntity
  8
ASSI
100
AcDbLine
 62
253
  6
CONTINUOUS
 10
-8.05
 20
-5.2281435202
 11
-8.05
 21
4.2781145205
  0
LINE
  5
299
100
AcDbEntity
  8
IMPORT_IGES
100
AcDbLine
 62
253
  6
CONTINUOUS
 10
-8.05
 20
4.2781145205
 11
-8.05
 21
5.3749855001
  0
LINE
  5
29A
100
AcDbEntity
  8
IMPORT_IGES
100
AcDbLine
 62
7
  6
CONTINUOUS
 10
-8.0
 20
-10.4538105078
 11
-8.0
 21
-6.3250144999
  0
LINE
  5
29B
100
AcDbEntity
  8
IMPORT_IGES
100
AcDbLine
 62
7
  6
CONTINUOUS
 10
-8.0
 20
5.3749855001
 11
-8.0
 21
9.172321968
  0
LINE
  5
29C
100
AcDbEntity
  8
IMPORT_IGES
100
AcDbLine
 62
253
  6
CONTINUOUS
 10
-7.7
 20
-10.7065608046
 11
-7.7
 21
-6.3250144999
  0
LINE
  5
29D
100
AcDbEntity
  8
IMPORT_IGES
100
AcDbLine
 62
253
  6
CONTINUOUS
 10
-7.7
 20
5.3749855001
 11
-7.7
 21
9.3249855001
  0
LWPOLYLINE
  5
29E
100
AcDbEntity
  8
IMPORT_IGES
100
AcDbPolyline
 62
7
  6
CONTINUOUS
 90
5
 70
0
 10
-7.247553483
 20
6.0749755583
 10
-7.2471779888
 20
6.0812288587
 10
-7.2468152977
 20
6.0978418808
 10
-7.2464654097
 20
6.1248146245
 10
-7.2457969801
 20
6.2111216116
  0
LWPOLYLINE
  5
29F
100
AcDbEntity
  8
IMPORT_IGES
100
AcDbPolyline
 62
253
  6
CONTINUOUS
 90
13
 70
0
 10
-7.2467897109
 20
9.0249855001
 10
-7.2442685481
 20
9.0637972323
 10
-7.2367898153
 20
9.1017967936
 10
-7.2245406367
 20
9.138363181
 10
-7.2078852669
 20
9.1727326978
 10
-7.1870972608
 20
9.2045751887
 10
-7.162132343
 20
9.2338581239
 10
-7.1330604756
 20
9.2601523778
 10
-7.1004187681
 20
9.2826643444
 10
-7.0648412324
 20
9.3007827082
 10
-7.0269663989
 20
9.3140735723
 10
-6.9873846674
 20
9.3222264425
 10
-6.9467921478
 20
9.3249855001
  0
LWPOLYLINE
  5
2A0
100
AcDbEntity
  8
IMPORT_IGES
100
AcDbPolyline
 62
7
  6
CONTINUOUS
 90
13
 70
0
 10
-7.1944946489
 20
7.2194819768
 10
-7.1919643918
 20
7.2583594894
 10
-7.1844003305
 20
7.2966448809
 10
-7.1719054269
 20
7.3336853289
 10
-7.1546626633
 20
7.3688523611
 10
-7.1329454983
 20
7.4015256794
 10
-7.107125004
 20
7.4311111718
 10
-7.0776310694
 20
7.45709419
 10
-7.0449621943
 20
7.4790162126
 10
-7.009706637
 20
7.4964742956
 10
-6.9724828295
 20
7.509165393
 10
-6.9339199221
 20
7.5168780252
 10
-6.8946806814
 20
7.5194800903
  0
LINE
  5
2A1
100
AcDbEntity
  8
IMPORT_IGES
100
AcDbLine
 62
7
  6
CONTINUOUS
 10
-7.237063008
 20
7.306065722
 11
-7.2399229223
 21
7.2649102502
  0
LWPOLYLINE
  5
2A2
100
AcDbEntity
  8
IMPORT_IGES
100
AcDbPolyline
 62
253
  6
CONTINUOUS
 90
13
 70
0
 10
-7.2455555717
 20
8.8785388907
 10
-7.2429005931
 20
8.9061844965
 10
-7.2351739436
 20
8.9333585627
 10
-7.2225074136
 20
8.9595975914
 10
-7.2051170515
 20
8.9844540337
 10
-7.1832994782
 20
9.0075039222
 10
-7.1574268276
 20
9.0283541025
 10
-7.1279404
 20
9.0466489406
 10
-7.0953431342
 20
9.0620763886
 10
-7.0601910295
 20
9.0743733064
 10
-7.0230836621
 20
9.0833299502
 10
-6.9846539584
 20
9.0887935497
 10
-6.9455573994
 20
9.0906709145
  0
LWPOLYLINE
  5
2A3
100
AcDbEntity
  8
IMPORT_IGES
100
AcDbPolyline
 62
253
  6
CONTINUOUS
 90
13
 70
0
 10
-4.5100407764
 20
9.8934396222
 10
-4.4979845487
 20
9.9195620943
 10
-4.4838266591
 20
9.9443336693
 10
-4.4680146564
 20
9.9678305525
 10
-4.4505717512
 20
9.9906154182
 10
-4.4320565004
 20
10.0124602699
 10
-4.4132779375
 20
10.0323629035
 10
-4.3934656859
 20
10.050665286
 10
-4.372563421
 20
10.0679668796
 10
-4.3519187276
 20
10.0835091375
 10
-4.331576059
 20
10.0970726044
 10
-4.3105099746
 20
10.1091749121
 10
-4.2884248568
 20
10.1198213412
  0
LWPOLYLINE
  5
2A4
100
AcDbEntity
  8
IMPORT_IGES
100
AcDbPolyline
 62
7
  6
CONTINUOUS
 90
10
 70
0
 10
-4.8483630124
 20
6.0789418378
 10
-4.7945180871
 20
6.1065873803
 10
-4.7393174619
 20
6.1310641509
 10
-4.6827611368
 20
6.1523721496
 10
-4.6248799775
 20
6.1705548314
 10
-4.5656431184
 20
6.1855687412
 10
-4.5049579627
 20
6.1972835138
 10
-4.442793645
 20
6.205655694
 10
-4.3791810309
 20
6.2107287368
 10
-4.3141201202
 20
6.2125026424
  0
LINE
  5
2A5
100
AcDbEntity
  8
IMPORT_IGES
100
AcDbLine
 62
7
  6
CONTINUOUS
 10
-3.25
 20
-8.4942965803
 11
3.25
 21
-8.4942965803
  0
LINE
  5
2A6
100
AcDbEntity
  8
IMPORT_IGES
100
AcDbLine
 62
7
  6
CONTINUOUS
 10
-4.05
 20
-8.4877834376
 11
-3.25
 21
-8.4877834376
  0
LINE
  5
2A7
100
AcDbEntity
  8
IMPORT_IGES
100
AcDbLine
 62
7
  6
CONTINUOUS
 10
3.25
 20
-8.4877834376
 11
4.05
 21
-8.4877834376
  0
LINE
  5
2A8
100
AcDbEntity
  8
IMPORT_IGES
100
AcDbLine
 62
7
  6
CONTINUOUS
 10
-6.8944964766
 20
-8.4695091488
 11
6.8944964766
 21
-8.4695091488
  0
LINE
  5
2A9
100
AcDbEntity
  8
IMPORT_IGES
100
AcDbLine
 62
253
  6
CONTINUOUS
 10
-7.1944946489
 20
-8.1695109765
 11
7.1944946489
 21
-8.1695109765
  0
LINE
  5
2AA
100
AcDbEntity
  8
IMPORT_IGES
100
AcDbLine
 62
7
  6
CONTINUOUS
 10
2.325
 20
-8.1341179655
 11
-2.325
 21
-8.1341179655
  0
LINE
  5
2AB
100
AcDbEntity
  8
IMPORT_IGES
100
AcDbLine
 62
7
  6
CONTINUOUS
 10
-2.025
 20
-7.6250144999
 11
2.025
 21
-7.6250144999
  0
LWPOLYLINE
  5
2AC
100
AcDbEntity
  8
IMPORT_IGES
100
AcDbPolyline
 62
7
  6
CONTINUOUS
 90
3
 70
0
 10
-7.2468125069
 20
-7.0979691963
 10
-7.2471767837
 20
-7.0812122008
 10
-7.247553483
 20
-7.0750200166
  0
LWPOLYLINE
  5
2AD
100
AcDbEntity
  8
IMPORT_IGES
100
AcDbPolyline
 62
7
  6
CONTINUOUS
 90
3
 70
0
 10
-7.2468125069
 20
8.0520308037
 10
-7.2471767837
 20
8.0687877991
 10
-7.247553483
 20
8.0749799833
  0
LINE
  5
2AE
100
AcDbEntity
  8
IMPORT_IGES
100
AcDbLine
 62
7
  6
CONTINUOUS
 10
-7.2483081295
 20
-10.2790242285
 11
-7.2483961126
 21
-10.2741092304
  0
LINE
  5
2AF
100
AcDbEntity
  8
IMPORT_IGES
100
AcDbLine
 62
253
  6
CONTINUOUS
 10
-7.2484610134
 20
-10.2689974851
 11
-7.2484826127
 21
-10.2651739388
  0
LINE
  5
2B0
100
AcDbEntity
  8
IMPORT_IGES
100
AcDbLine
 62
7
  6
CONTINUOUS
 10
-7.2483961126
 20
-10.2741092304
 11
-7.2484917985
 21
-10.2660047104
  0
LINE
  5
2B1
100
AcDbEntity
  8
IMPORT_IGES
100
AcDbLine
 62
7
  6
CONTINUOUS
 10
-7.2461173352
 20
-7.1638520404
 11
-7.2468125069
 21
-7.0979691963
  0
LINE
  5
2B2
100
AcDbEntity
  8
IMPORT_IGES
100
AcDbLine
 62
7
  6
CONTINUOUS
 10
-7.2461173352
 20
7.9861479596
 11
-7.2468125069
 21
8.0520308037
  0
LINE
  5
2B3
100
AcDbEntity
  8
IMPORT_IGES
100
AcDbLine
 62
7
  6
CONTINUOUS
 10
-6.9464870988
 20
9.3128438697
 11
-6.9461952054
 21
9.2767737769
  0
LINE
  5
2B4
100
AcDbEntity
  8
IMPORT_IGES
100
AcDbLine
 62
253
  6
CONTINUOUS
 10
-7.2463380159
 20
9.0079492114
 11
-7.2459170196
 21
8.9579925401
  0
LINE
  5
2B5
100
AcDbEntity
  8
IMPORT_IGES
100
AcDbLine
 62
7
  6
CONTINUOUS
 10
-7.249996796
 20
-9.9977680663
 11
-7.2484917985
 21
-10.2660047104
  0
LINE
  5
2B6
100
AcDbEntity
  8
IMPORT_IGES
100
AcDbLine
 62
7
  6
CONTINUOUS
 10
-7.228448616
 20
4.4350414697
 11
-7.2324108867
 21
5.3319124493
  0
LINE
  5
2B7
100
AcDbEntity
  8
IMPORT_IGES
100
AcDbLine
 62
253
  6
CONTINUOUS
 10
-7.2459170196
 20
8.9579925401
 11
-7.2455555717
 21
8.8785388907
  0
LINE
  5
2B8
100
AcDbEntity
  8
IMPORT_IGES
100
AcDbLine
 62
253
  6
CONTINUOUS
 10
-6.9455573994
 20
9.0906709246
 11
-6.9398615413
 21
7.5644767997
  0
LINE
  5
2B9
100
AcDbEntity
  8
IMPORT_IGES
100
AcDbLine
 62
7
  6
CONTINUOUS
 10
-7.2455555717
 20
8.8785388907
 11
-7.2399229223
 21
7.2649102502
  0
LINE
  5
2BA
100
AcDbEntity
  8
IMPORT_IGES
100
AcDbLine
 62
7
  6
CONTINUOUS
 10
-7.2447153117
 20
-7.4928735537
 11
-7.2461173352
 21
-7.1638520404
  0
LINE
  5
2BB
100
AcDbEntity
  8
IMPORT_IGES
100
AcDbLine
 62
7
  6
CONTINUOUS
 10
-7.2447153117
 20
7.6571264463
 11
-7.2461173352
 21
7.9861479596
  0
LINE
  5
2BC
100
AcDbEntity
  8
IMPORT_IGES
100
AcDbLine
 62
7
  6
CONTINUOUS
 10
-6.9461952054
 20
9.2767737769
 11
-6.9455573994
 21
9.0906709246
  0
LINE
  5
2BD
100
AcDbEntity
  8
IMPORT_IGES
100
AcDbLine
 62
253
  6
CONTINUOUS
 10
-7.2486385267
 20
-10.2453859977
 11
-7.2486411773
 21
-10.2437467974
  0
LINE
  5
2BE
100
AcDbEntity
  8
IMPORT_IGES
100
AcDbLine
 62
7
  6
CONTINUOUS
 10
-7.3
 20
-11.2772031833
 11
-7.3
 21
-6.3250144999
  0
LINE
  5
2BF
100
AcDbEntity
  8
IMPORT_IGES
100
AcDbLine
 62
7
  6
CONTINUOUS
 10
-7.3
 20
5.3749855001
 11
-7.3
 21
9.3249855001
  0
LINE
  5
2C0
100
AcDbEntity
  8
IMPORT_IGES
100
AcDbLine
 62
7
  6
CONTINUOUS
 10
-7.2499968072
 20
-9.9977660153
 11
-7.25
 21
-9.0750244417
  0
LINE
  5
2C1
100
AcDbEntity
  8
IMPORT_IGES
100
AcDbLine
 62
7
  6
CONTINUOUS
 10
-7.25
 20
-7.3500144999
 11
-7.25
 21
-6.3250144999
  0
LINE
  5
2C2
100
AcDbEntity
  8
IMPORT_IGES
100
AcDbLine
 62
7
  6
CONTINUOUS
 10
-7.25
 20
5.3749855001
 11
-7.25
 21
6.3499855001
  0
LINE
  5
2C3
100
AcDbEntity
  8
IMPORT_IGES
100
AcDbLine
 62
7
  6
CONTINUOUS
 10
-7.25
 20
8.074995273
 11
-7.25
 21
9.0249855001
  0
LINE
  5
2C4
100
AcDbEntity
  8
ASSI
100
AcDbLine
 62
7
  6
CONTINUOUS
 10
-7.2351646411
 20
-4.0250144999
 11
-7.2351646411
 21
3.0749855001
  0
LINE
  5
2C5
100
AcDbEntity
  8
IMPORT_IGES
100
AcDbLine
 62
7
  6
CONTINUOUS
 10
-7.2281832957
 20
4.2781145205
 11
-7.2281832957
 21
3.0749855001
  0
LINE
  5
2C6
100
AcDbEntity
  8
IMPORT_IGES
100
AcDbLine
 62
7
  6
CONTINUOUS
 10
-7.2281832957
 20
-4.0250144997
 11
-7.2281832957
 21
-5.2281435202
  0
LINE
  5
2C7
100
AcDbEntity
  8
IMPORT_IGES
100
AcDbLine
 62
7
  6
CONTINUOUS
 10
-7.1944946489
 20
-8.1695109765
 11
-7.1944946489
 21
7.2194819768
  0
LINE
  5
2C8
100
AcDbEntity
  8
IMPORT_IGES
100
AcDbLine
 62
253
  6
CONTINUOUS
 10
-6.8944964766
 20
-8.4695091488
 11
-6.8944964766
 21
7.5194801491
  0
LINE
  5
2C9
100
AcDbEntity
  8
IMPORT_IGES
100
AcDbLine
 62
7
  6
CONTINUOUS
 10
-7.2445342398
 20
6.5734376011
 11
-7.2447153117
 21
7.6571264463
  0
LINE
  5
2CA
100
AcDbEntity
  8
IMPORT_IGES
100
AcDbLine
 62
7
  6
CONTINUOUS
 10
-7.2445342398
 20
-8.5765623989
 11
-7.2447153117
 21
-7.4928735537
  0
LINE
  5
2CB
100
AcDbEntity
  8
IMPORT_IGES
100
AcDbLine
 62
7
  6
CONTINUOUS
 10
-7.2324108867
 20
-6.281941449
 11
-7.228448616
 21
-5.3850704694
  0
LINE
  5
2CC
100
AcDbEntity
  8
IMPORT_IGES
100
AcDbLine
 62
7
  6
CONTINUOUS
 10
-7.2457969801
 20
6.2111216116
 11
-7.2445342398
 21
6.5734376011
  0
LINE
  5
2CD
100
AcDbEntity
  8
IMPORT_IGES
100
AcDbLine
 62
7
  6
CONTINUOUS
 10
-7.2457969801
 20
-8.9388783885
 11
-7.2445342398
 21
-8.5765623989
  0
LINE
  5
2CE
100
AcDbEntity
  8
IMPORT_IGES
100
AcDbLine
 62
7
  6
CONTINUOUS
 10
-7.2346529689
 20
-8.2096692964
 11
-7.2471520835
 21
-10.2488089799
  0
LINE
  5
2CF
100
AcDbEntity
  8
IMPORT_IGES
100
AcDbLine
 62
253
  6
CONTINUOUS
 10
-6.9471539099
 20
-10.5095004059
 11
-6.9346367602
 21
-8.5093921506
  0
LINE
  5
2D0
100
AcDbEntity
  8
IMPORT_IGES
100
AcDbLine
 62
253
  6
CONTINUOUS
 10
-7.2471520835
 20
-10.2488089799
 11
-7.2472994973
 21
-10.2667930752
  0
LWPOLYLINE
  5
2D1
100
AcDbEntity
  8
IMPORT_IGES
100
AcDbPolyline
 62
253
  6
CONTINUOUS
 90
5
 70
0
 10
-7.2472994973
 20
-10.2667930752
 10
-7.2473776945
 20
-10.2720443019
 10
-7.2474172561
 20
-10.2736846822
 10
-7.2474572121
 20
-10.2746747482
 10
-7.2474975627
 20
-10.2750144999
  0
LWPOLYLINE
  5
2D2
100
AcDbEntity
  8
IMPORT_IGES
100
AcDbPolyline
 62
7
  6
CONTINUOUS
 90
5
 70
0
 10
-7.247553483
 20
-9.0750244417
 10
-7.2471779888
 20
-9.0687711413
 10
-7.2468152977
 20
-9.0521581192
 10
-7.2464654097
 20
-9.0251853755
 10
-7.2457969801
 20
-8.9388783885
  0
LWPOLYLINE
  5
2D3
100
AcDbEntity
  8
IMPORT_IGES
100
AcDbPolyline
 62
253
  6
CONTINUOUS
 90
10
 70
0
 10
-4.5217845696
 20
9.4255960494
 10
-4.5144413533
 20
9.4487579002
 10
-4.5022814868
 20
9.4712952345
 10
-4.4853049702
 20
9.4932080523
 10
-4.463284866
 20
9.5145974309
 10
-4.4364481116
 20
9.535362293
 10
-4.4054755191
 20
9.5551994064
 10
-4.3705940258
 20
9.5740076937
 10
-4.3315766945
 20
9.5918882324
 10
-4.288423525
 20
9.6088410223
  0
LWPOLYLINE
  5
2D4
100
AcDbEntity
  8
IMPORT_IGES
100
AcDbPolyline
 62
7
  6
CONTINUOUS
 90
10
 70
0
 10
-5.2220328397
 20
5.6902651557
 10
-5.1912207517
 20
5.7462978508
 10
-5.1577116576
 20
5.7990912898
 10
-5.1215055574
 20
5.8486454729
 10
-5.0825753703
 20
5.8949235242
 10
-5.040948177
 20
5.9379623195
 10
-4.9967052203
 20
5.9778724858
 10
-4.9498735811
 20
6.0146908988
 10
-4.9004261784
 20
6.0483806828
 10
-4.8483630124
 20
6.0789418378
  0
LWPOLYLINE
  5
2D5
100
AcDbEntity
  8
IMPORT_IGES
100
AcDbPolyline
 62
7
  6
CONTINUOUS
 90
10
 70
0
 10
-4.7448158605
 20
5.841834072
 10
-4.7811952263
 20
5.8139974098
 10
-4.8150458045
 20
5.7842134157
 10
-4.8463675948
 20
5.7524820897
 10
-4.8750529791
 20
5.7190364103
 10
-4.9012095756
 20
5.6836433991
 10
-4.9251602394
 20
5.64560412
 10
-4.947012589
 20
5.6046855946
 10
-4.9666590059
 20
5.5611208014
 10
-4.9840994901
 20
5.5149097404
  0
LWPOLYLINE
  5
2D6
100
AcDbEntity
  8
IMPORT_IGES
100
AcDbPolyline
 62
253
  6
CONTINUOUS
 90
12
 70
0
 10
8.0760894615
 20
-6.2806005465
 10
8.1017382078
 20
-6.2765996739
 10
8.1265073313
 20
-6.2700056348
 10
8.1499739045
 20
-6.2609290438
 10
8.1717339049
 20
-6.2495240844
 10
8.1914102916
 20
-6.2359872908
 10
8.2086658059
 20
-6.2205505452
 10
8.223205196
 20
-6.2034778178
 10
8.2347780071
 20
-6.1850638641
 10
8.243186878
 20
-6.1656251672
 10
8.2482895972
 20
-6.1454938521
 10
8.25
 20
-6.1250144999
  0
LINE
  5
2D7
100
AcDbEntity
  8
IMPORT_IGES
100
AcDbLine
 62
253
  6
CONTINUOUS
 10
8.05
 20
-6.281941449
 11
8.0760894615
 21
-6.2806005465
  0
LINE
  5
2D8
100
AcDbEntity
  8
0
100
AcDbLine
 62
7
  6
CONTINUOUS
 10
-2.025
 20
-7.4250144999
 11
2.025
 21
-7.4250144999
  0
LINE
  5
2D9
100
AcDbEntity
  8
IMPORT_IGES
100
AcDbLine
 62
7
  6
CONTINUOUS
 10
7.3
 20
-7.3500144999
 11
7.2451544043
 21
-7.3500144999
  0
LINE
  5
2DA
100
AcDbEntity
  8
IMPORT_IGES
100
AcDbLine
 62
7
  6
CONTINUOUS
 10
-7.2451537572
 20
-7.3500144999
 11
-7.3
 21
-7.3500144999
  0
LINE
  5
2DB
100
AcDbEntity
  8
IMPORT_IGES
100
AcDbLine
 62
253
  6
CONTINUOUS
 10
2.325
 20
-6.6750144999
 11
3.45
 21
-6.6750144999
  0
LINE
  5
2DC
100
AcDbEntity
  8
IMPORT_IGES
100
AcDbLine
 62
253
  6
CONTINUOUS
 10
-2.325
 20
-6.6750144999
 11
-3.45
 21
-6.6750144999
  0
LWPOLYLINE
  5
2DD
100
AcDbEntity
  8
IMPORT_IGES
100
AcDbPolyline
 62
253
  6
CONTINUOUS
 90
4
 70
0
 10
-7.2467897109
 20
9.0249855001
 10
-7.2466357349
 20
9.0229645575
 10
-7.2464851699
 20
9.0172857946
 10
-7.2463380159
 20
9.0079492114
  0
LWPOLYLINE
  5
2DE
100
AcDbEntity
  8
IMPORT_IGES
100
AcDbPolyline
 62
7
  6
CONTINUOUS
 90
3
 70
0
 10
-6.9467915462
 20
9.3249855001
 10
-6.9466376206
 20
9.3219447495
 10
-6.9464870988
 20
9.3128438697
  0
LINE
  5
2DF
100
AcDbEntity
  8
IMPORT_IGES
100
AcDbLine
 62
253
  6
CONTINUOUS
 10
-6.221691818
 20
10.2936924264
 11
-6.2214120204
 21
10.2748732763
  0
LINE
  5
2E0
100
AcDbEntity
  8
IMPORT_IGES
100
AcDbLine
 62
7
  6
CONTINUOUS
 10
-6.3
 20
9.3249855001
 11
-6.3
 21
9.724986955
  0
LINE
  5
2E1
100
AcDbEntity
  8
IMPORT_IGES
100
AcDbLine
 62
253
  6
CONTINUOUS
 10
-6.25
 20
-5.1250144999
 11
-6.25
 21
2.6315415387
  0
LINE
  5
2E2
100
AcDbEntity
  8
IMPORT_IGES
100
AcDbLine
 62
7
  6
CONTINUOUS
 10
-6.25
 20
3.7749855001
 11
-6.25
 21
6.3749855001
  0
LINE
  5
2E3
100
AcDbEntity
  8
IMPORT_IGES
100
AcDbLine
 62
253
  6
CONTINUOUS
 10
-6.15
 20
-11.7750144999
 11
-6.15
 21
-11.5750144999
  0
LINE
  5
2E4
100
AcDbEntity
  8
IMPORT_IGES
100
AcDbLine
 62
7
  6
CONTINUOUS
 10
-5.95
 20
2.1732839692
 11
-5.95
 21
-4.8250144999
  0
LINE
  5
2E5
100
AcDbEntity
  8
IMPORT_IGES
100
AcDbLine
 62
7
  6
CONTINUOUS
 10
-5.9467037363
 20
10.5249855001
 11
-5.9467032667
 21
10.5131253325
  0
LINE
  5
2E6
100
AcDbEntity
  8
IMPORT_IGES
100
AcDbLine
 62
253
  6
CONTINUOUS
 10
-5.6500000003
 20
10.3249855001
 11
-5.65
 21
10.5249855001
  0
LINE
  5
2E7
100
AcDbEntity
  8
IMPORT_IGES
100
AcDbLine
 62
7
  6
CONTINUOUS
 10
-5.5333944935
 20
9.5962940739
 11
-5.5518360362
 21
9.0720717566
  0
LWPOLYLINE
  5
2E8
100
AcDbEntity
  8
IMPORT_IGES
100
AcDbPolyline
 62
7
  6
CONTINUOUS
 90
5
 70
0
 10
-6.9474993846
 20
-10.5750144999
 10
-6.9474590324
 20
-10.5741875587
 10
-6.9474190751
 20
-10.5717095009
 10
-6.9473795128
 20
-10.567588569
 10
-6.9471539077
 20
-10.5095004062
  0
LINE
  5
2E9
100
AcDbEntity
  8
IMPORT_IGES
100
AcDbLine
 62
253
  6
CONTINUOUS
 10
-4.8211880776
 20
9.710186558
 11
-4.9038561866
 21
9.2750144999
  0
LINE
  5
2EA
100
AcDbEntity
  8
IMPORT_IGES
100
AcDbLine
 62
253
  6
CONTINUOUS
 10
-4.5503901618
 20
9.2750144998
 11
-4.5217845696
 21
9.4255960494
  0
LWPOLYLINE
  5
2EB
100
AcDbEntity
  8
IMPORT_IGES
100
AcDbPolyline
 62
7
  6
CONTINUOUS
 90
10
 70
0
 10
-4.9840994901
 20
5.5149097404
 10
-4.9983705631
 20
5.469660878
 10
-5.0109748086
 20
5.4240424961
 10
-5.0219122268
 20
5.3780545947
 10
-5.0311856928
 20
5.3317480453
 10
-5.0387923314
 20
5.2850719764
 10
-5.0447235172
 20
5.2378737732
 10
-5.0489763751
 20
5.1901025644
 10
-5.0515537802
 20
5.1418092214
 10
-5.0524557326
 20
5.0929937442
  0
LWPOLYLINE
  5
2EC
100
AcDbEntity
  8
0
100
AcDbPolyline
 62
7
  6
CONTINUOUS
 90
3
 70
0
 43
0.3500000006
 10
0.8214285793
 20
20.8107284088
 10
0.7500000165
 20
20.596443924
 10
0.6071428907
 20
20.3107282562
  0
LWPOLYLINE
  5
2ED
100
AcDbEntity
  8
IMPORT_IGES
100
AcDbPolyline
 62
7
  6
CONTINUOUS
 90
13
 70
0
 10
-3.9283812823
 20
4.3275691538
 10
-3.9030253095
 20
4.3496935317
 10
-3.8787039645
 20
4.3739885634
 10
-3.8554172474
 20
4.4004542488
 10
-3.8331089496
 20
4.4289962198
 10
-3.8118352797
 20
4.4597088446
 10
-3.791764863
 20
4.4928752272
 10
-3.7728838134
 20
4.5285020514
 10
-3.7552060171
 20
4.5665826333
 10
-3.7389417573
 20
4.6073800267
 10
-3.7241611287
 20
4.6509819159
 10
-3.7107940367
 20
4.6973006164
 10
-3.6988404814
 20
4.7463361283
  0
LINE
  5
2EE
100
AcDbEntity
  8
IMPORT_IGES
100
AcDbLine
 62
253
  6
CONTINUOUS
 10
7.9372369607
 20
9.2511802235
 11
7.9846843529
 21
9.2669518746
  0
LINE
  5
2EF
100
AcDbEntity
  8
IMPORT_IGES
100
AcDbLine
 62
7
  6
CONTINUOUS
 10
-3.15
 20
-6.3750144999
 11
-2.025
 21
-6.3750144999
  0
LINE
  5
2F0
100
AcDbEntity
  8
IMPORT_IGES
100
AcDbLine
 62
7
  6
CONTINUOUS
 10
-1.425
 20
-6.3750144999
 11
1.425
 21
-6.3750144999
  0
LINE
  5
2F1
100
AcDbEntity
  8
IMPORT_IGES
100
AcDbLine
 62
7
  6
CONTINUOUS
 10
2.025
 20
-6.3750144999
 11
3.15
 21
-6.3750144999
  0
LINE
  5
2F2
100
AcDbEntity
  8
IMPORT_IGES
100
AcDbLine
 62
7
  6
CONTINUOUS
 10
-8.05
 20
-6.3250144999
 11
-7.232843701
 21
-6.3250144999
  0
LINE
  5
2F3
100
AcDbEntity
  8
IMPORT_IGES
100
AcDbLine
 62
7
  6
CONTINUOUS
 10
8.05
 20
-6.3250144999
 11
7.232843701
 21
-6.3250144999
  0
LINE
  5
2F4
100
AcDbEntity
  8
IMPORT_IGES
100
AcDbLine
 62
253
  6
CONTINUOUS
 10
-8.05
 20
-6.281941449
 11
-7.2324108867
 21
-6.281941449
  0
LINE
  5
2F5
100
AcDbEntity
  8
IMPORT_IGES
100
AcDbLine
 62
253
  6
CONTINUOUS
 10
8.05
 20
-6.281941449
 11
7.2324108867
 21
-6.281941449
  0
LWPOLYLINE
  5
2F6
100
AcDbEntity
  8
IMPORT_IGES
100
AcDbPolyline
 62
253
  6
CONTINUOUS
 90
13
 70
0
 10
-8.05
 20
-5.3850704694
 10
-8.0760750603
 20
-5.3837310531
 10
-8.101714615
 20
-5.3797336507
 10
-8.1264798936
 20
-5.3731435667
 10
-8.149948755
 20
-5.3640694513
 10
-8.1717150599
 20
-5.3526644467
 10
-8.1913977391
 20
-5.3391261578
 10
-8.2086588681
 20
-5.323686659
 10
-8.2232030326
 20
-5.3066097783
 10
-8.2347782482
 20
-5.2881924279
 10
-8.2431875333
 20
-5.2687522685
 10
-8.2482899002
 20
-5.2486210661
 10
-8.25
 20
-5.2281435202
  0
LINE
  5
2F7
100
AcDbEntity
  8
IMPORT_IGES
100
AcDbLine
 62
7
  6
CONTINUOUS
 10
-1.5438509601
 20
-7.4250144999
 11
-1.342079372
 21
-7.6250144999
  0
LINE
  5
2F8
100
AcDbEntity
  8
IMPORT_IGES
100
AcDbLine
 62
7
  6
CONTINUOUS
 10
-1.2831643884
 20
-7.6250144999
 11
-1.4855123953
 21
-7.424443142
  0
LWPOLYLINE
  5
2F9
100
AcDbEntity
  8
IMPORT_IGES
100
AcDbPolyline
 62
7
  6
CONTINUOUS
 90
10
 70
0
 10
-5.0524557326
 20
5.0929937442
 10
-5.0512498219
 20
5.0290612633
 10
-5.0480836883
 20
4.9676452354
 10
-5.0429573317
 20
4.9087456607
 10
-5.0358565159
 20
4.8525819126
 10
-5.0267954772
 20
4.7989346175
 10
-5.0158169245
 20
4.7471456546
 10
-5.0029350941
 20
4.69699565
 10
-4.9881357497
 20
4.6487039775
 10
-4.9714188912
 20
4.6022706371
  0
LINE
  5
2FA
100
AcDbEntity
  8
IMPORT_IGES
100
AcDbLine
 62
7
  6
CONTINUOUS
 10
-5.6161486974
 20
8.6356456719
 11
-5.6240911927
 21
9.0906709251
  0
LINE
  5
2FB
100
AcDbEntity
  8
IMPORT_IGES
100
AcDbLine
 62
7
  6
CONTINUOUS
 10
-5.1
 20
2.0749855001
 11
-5.1
 21
2.1278694598
  0
LINE
  5
2FC
100
AcDbEntity
  8
IMPORT_IGES
100
AcDbLine
 62
7
  6
CONTINUOUS
 10
-4.9273029486
 20
11.7750144998
 11
-4.9273029486
 21
10.6250145005
  0
LINE
  5
2FD
100
AcDbEntity
  8
IMPORT_IGES
100
AcDbLine
 62
253
  6
CONTINUOUS
 10
-4.8211880776
 20
9.710186558
 11
-4.8211849118
 21
10.3714763809
  0
LWPOLYLINE
  5
2FE
100
AcDbEntity
  8
IMPORT_IGES
100
AcDbPolyline
 62
7
  6
CONTINUOUS
 90
10
 70
0
 10
-5.3525921497
 20
5.0914929588
 10
-5.3507195643
 20
5.1690947623
 10
-5.3456072314
 20
5.2439258368
 10
-5.3372551513
 20
5.3159861825
 10
-5.3255549955
 20
5.385272014
 10
-5.3106150924
 20
5.4517871165
 10
-5.2927604268
 20
5.5155428463
 10
-5.272099327
 20
5.5765429888
 10
-5.2485234646
 20
5.6347837586
 10
-5.2220328397
 20
5.6902651557
  0
LWPOLYLINE
  5
2FF
100
AcDbEntity
  8
IMPORT_IGES
100
AcDbPolyline
 62
7
  6
CONTINUOUS
 90
10
 70
0
 10
-3.7378581771
 20
4.1250537469
 10
-3.7906836231
 20
4.0862431398
 10
-3.8464191904
 20
4.0518741555
 10
-3.9050648792
 20
4.0219467939
 10
-3.9665995541
 20
3.9963939532
 10
-4.0310443504
 20
3.9752827353
 10
-4.0984626739
 20
3.9588144453
 10
-4.16887566
 20
3.947056185
 10
-4.2422621734
 20
3.9399408525
 10
-4.318622214
 20
3.937468448
  0
LINE
  5
300
100
AcDbEntity
  8
IMPORT_IGES
100
AcDbLine
 62
7
  6
CONTINUOUS
 10
-3.15
 20
-5.5750144999
 11
-1.425
 21
-5.5750144999
  0
LINE
  5
301
100
AcDbEntity
  8
IMPORT_IGES
100
AcDbLine
 62
7
  6
CONTINUOUS
 10
1.425
 20
-5.5750144999
 11
3.15
 21
-5.5750144999
  0
LINE
  5
302
100
AcDbEntity
  8
IMPORT_IGES
100
AcDbLine
 62
253
  6
CONTINUOUS
 10
-8.05
 20
-5.3850704694
 11
-7.228448616
 21
-5.3850704694
  0
LINE
  5
303
100
AcDbEntity
  8
IMPORT_IGES
100
AcDbLine
 62
253
  6
CONTINUOUS
 10
7.228448616
 20
-5.3850704694
 11
8.05
 21
-5.3850704694
  0
LINE
  5
304
100
AcDbEntity
  8
IMPORT_IGES
100
AcDbLine
 62
253
  6
CONTINUOUS
 10
-8.25
 20
-5.2281435202
 11
-7.2281832957
 21
-5.2281435202
  0
LINE
  5
305
100
AcDbEntity
  8
IMPORT_IGES
100
AcDbLine
 62
253
  6
CONTINUOUS
 10
7.2281832957
 20
-5.2281435202
 11
8.25
 21
-5.2281435202
  0
LINE
  5
306
100
AcDbEntity
  8
IMPORT_IGES
100
AcDbLine
 62
253
  6
CONTINUOUS
 10
6.25
 20
-5.1250144999
 11
3.45
 21
-5.1250144999
  0
LINE
  5
307
100
AcDbEntity
  8
IMPORT_IGES
100
AcDbLine
 62
253
  6
CONTINUOUS
 10
-3.45
 20
-5.1250144999
 11
-6.25
 21
-5.1250144999
  0
LINE
  5
308
100
AcDbEntity
  8
IMPORT_IGES
100
AcDbLine
 62
7
  6
CONTINUOUS
 10
3.15
 20
-4.8250144999
 11
5.95
 21
-4.8250144999
  0
LINE
  5
309
100
AcDbEntity
  8
IMPORT_IGES
100
AcDbLine
 62
7
  6
CONTINUOUS
 10
-3.15
 20
-4.8250144999
 11
-5.95
 21
-4.8250144999
  0
LINE
  5
30A
100
AcDbEntity
  8
IMPORT_IGES
100
AcDbLine
 62
7
  6
CONTINUOUS
 10
-4.4536037012
 20
2.0749855001
 11
-4.4
 21
1.5389484886
  0
LINE
  5
30B
100
AcDbEntity
  8
IMPORT_IGES
100
AcDbLine
 62
253
  6
CONTINUOUS
 10
-4.9233917561
 20
11.7750144998
 11
-4.8211849118
 21
10.3714763809
  0
LINE
  5
30C
100
AcDbEntity
  8
IMPORT_IGES
100
AcDbLine
 62
253
  6
CONTINUOUS
 10
-4.5217845696
 20
10.5978580375
 11
-4.6075061083
 21
11.7750144998
  0
LINE
  5
30D
100
AcDbEntity
  8
IMPORT_IGES
100
AcDbLine
 62
7
  6
CONTINUOUS
 10
-4.4
 20
0.2289484886
 11
-4.4
 21
1.5389484886
  0
LINE
  5
30E
100
AcDbEntity
  8
IMPORT_IGES
100
AcDbLine
 62
253
  6
CONTINUOUS
 10
-4.2884314973
 20
10.1198276699
 11
-4.288423525
 21
9.6088409764
  0
LINE
  5
30F
100
AcDbEntity
  8
IMPORT_IGES
100
AcDbLine
 62
7
  6
CONTINUOUS
 10
-4.05
 20
-8.4877834376
 11
-4.05
 21
-9.7119710216
  0
LINE
  5
310
100
AcDbEntity
  8
IMPORT_IGES
100
AcDbLine
 62
7
  6
CONTINUOUS
 10
-3.8243282526
 20
-0.7010515114
 11
-3.8243282526
 21
0.0289484886
  0
LWPOLYLINE
  5
311
100
AcDbEntity
  8
IMPORT_IGES
100
AcDbPolyline
 62
7
  6
CONTINUOUS
 90
10
 70
0
 10
-3.4077080552
 20
4.6728026946
 10
-3.4313317576
 20
4.5915975912
 10
-3.4583558687
 20
4.5155571925
 10
-3.4887803886
 20
4.4446814984
 10
-3.5227859808
 20
4.3790754121
 10
-3.5601919816
 20
4.3186340305
 10
-3.6004564007
 20
4.2630426442
 10
-3.6433985746
 20
4.2121963499
 10
-3.6891991667
 20
4.1662000508
 10
-3.7378581771
 20
4.1250537469
  0
LINE
  5
312
100
AcDbEntity
  8
IMPORT_IGES
100
AcDbLine
 62
7
  6
CONTINUOUS
 10
-2.7399046008
 20
4.6412883659
 11
-2.9815143887
 21
3.9749855001
  0
LINE
  5
313
100
AcDbEntity
  8
IMPORT_IGES
100
AcDbLine
 62
7
  6
CONTINUOUS
 10
-2.4142566029
 20
5.5236895044
 11
-2.6558663908
 21
4.8783961256
  0
LINE
  5
314
100
AcDbEntity
  8
IMPORT_IGES
100
AcDbLine
 62
7
  6
CONTINUOUS
 10
-3.2906549279
 20
3.9749855001
 11
-2.4457708661
 21
6.1749855001
  0
LINE
  5
315
100
AcDbEntity
  8
ASSI
100
AcDbLine
 62
253
  6
CONTINUOUS
 10
7.2351646411
 20
-4.0250144999
 11
7.2281832957
 21
-4.0250144999
  0
LINE
  5
316
100
AcDbEntity
  8
ASSI
100
AcDbLine
 62
253
  6
CONTINUOUS
 10
-7.2351646411
 20
-4.0250144999
 11
-7.2281832957
 21
-4.0250144997
  0
LINE
  5
317
100
AcDbEntity
  8
IMPORT_IGES
100
AcDbLine
 62
7
  6
CONTINUOUS
 10
1.063673116
 20
-7.4250144999
 11
1.2619170827
 21
-7.6250144999
  0
LINE
  5
318
100
AcDbEntity
  8
0
100
AcDbLine
 62
7
  6
CONTINUOUS
 10
-3.7
 20
2.1278694598
 11
-3.7
 21
-0.9250144999
  0
LINE
  5
319
100
AcDbEntity
  8
IMPORT_IGES
100
AcDbLine
 62
253
  6
CONTINUOUS
 10
-3.7
 20
-10.7750144999
 11
-3.7
 21
-10.5750144999
  0
LINE
  5
31A
100
AcDbEntity
  8
IMPORT_IGES
100
AcDbLine
 62
7
  6
CONTINUOUS
 10
-3.5
 20
-10.7750144999
 11
-3.5
 21
-10.5750144999
  0
LINE
  5
31B
100
AcDbEntity
  8
IMPORT_IGES
100
AcDbLine
 62
253
  6
CONTINUOUS
 10
-3.45
 20
-6.6750144999
 11
-3.45
 21
-5.1250144999
  0
LINE
  5
31C
100
AcDbEntity
  8
IMPORT_IGES
100
AcDbLine
 62
7
  6
CONTINUOUS
 10
-3.25
 20
-9.5424058042
 11
-3.25
 21
-8.4877834376
  0
LINE
  5
31D
100
AcDbEntity
  8
0
100
AcDbLine
 62
7
  6
CONTINUOUS
 10
-3.2
 20
2.1278694598
 11
-3.2
 21
-0.9250144999
  0
LINE
  5
31E
100
AcDbEntity
  8
IMPORT_IGES
100
AcDbLine
 62
7
  6
CONTINUOUS
 10
-3.15
 20
-6.3750144999
 11
-3.15
 21
-2.8041432846
  0
LINE
  5
31F
100
AcDbEntity
  8
IMPORT_IGES
100
AcDbLine
 62
7
  6
CONTINUOUS
 10
-2.9548535023
 20
-1.3250144999
 11
-2.9548535023
 21
-0.7010515114
  0
LWPOLYLINE
  5
320
100
AcDbEntity
  8
IMPORT_IGES
100
AcDbPolyline
 62
7
  6
CONTINUOUS
 90
10
 70
0
 10
-2.2957025591
 20
5.9438804229
 10
-2.3060074177
 20
5.8950367853
 10
-2.317036567
 20
5.846719489
 10
-2.3287900071
 20
5.7989285341
 10
-2.3412775212
 20
5.751647123
 10
-2.354489326
 20
5.7048920533
 10
-2.3683960715
 20
5.6587137173
 10
-2.3829879745
 20
5.6131289125
 10
-2.3982748183
 20
5.5681208416
 10
-2.4142566029
 20
5.5236895044
  0
LWPOLYLINE
  5
321
100
AcDbEntity
  8
0
100
AcDbPolyline
 62
7
  6
CONTINUOUS
 90
10
 70
0
 10
3.5461189372
 20
5.8900302959
 10
3.5680777642
 20
5.9051041392
 10
3.5907960136
 20
5.9183992423
 10
3.6142736854
 20
5.9299156052
 10
3.6384454568
 20
5.9396447678
 10
3.6633766506
 20
5.9475951902
 10
3.6892632348
 20
5.9537922532
 10
3.7161705323
 20
5.9582444172
 10
3.7440332203
 20
5.9609432217
 10
3.7728512987
 20
5.9618886669
  0
LWPOLYLINE
  5
322
100
AcDbEntity
  8
0
100
AcDbPolyline
 62
7
  6
CONTINUOUS
 90
10
 70
0
 10
3.5070752272
 20
5.3304060799
 10
3.4768585809
 20
5.3138544448
 10
3.4475569107
 20
5.2953322673
 10
3.4191702168
 20
5.2748395476
 10
3.3916778492
 20
5.2524133463
 10
3.3651004577
 20
5.2280166028
 10
3.3394999926
 20
5.2015381349
 10
3.3148971037
 20
5.1729408819
 10
3.2912711411
 20
5.1422619046
 10
3.2686221048
 20
5.1095012029
  0
LINE
  5
323
100
AcDbEntity
  8
IMPORT_IGES
100
AcDbLine
 62
7
  6
CONTINUOUS
 10
5.95
 20
-3.5750144999
 11
3.15
 21
-3.5750144999
  0
LINE
  5
324
100
AcDbEntity
  8
IMPORT_IGES
100
AcDbLine
 62
7
  6
CONTINUOUS
 10
-3.15
 20
-3.5750144999
 11
-5.95
 21
-3.5750144999
  0
LINE
  5
325
100
AcDbEntity
  8
IMPORT_IGES
100
AcDbLine
 62
7
  6
CONTINUOUS
 10
5.95
 20
-2.8041432846
 11
-5.95
 21
-2.8041432846
  0
LWPOLYLINE
  5
326
100
AcDbEntity
  8
IMPORT_IGES
100
AcDbPolyline
 62
7
  6
CONTINUOUS
 90
5
 70
0
 10
2.325
 20
-6.6750144999
 10
2.2909631916
 20
-6.6415312583
 10
2.2584612345
 20
-6.6089062788
 10
2.2274941289
 20
-6.5775117728
 10
2.1978432121
 20
-6.5477209381
  0
LWPOLYLINE
  5
327
100
AcDbEntity
  8
IMPORT_IGES
100
AcDbPolyline
 62
7
  6
CONTINUOUS
 90
3
 70
0
 10
2.1978432121
 20
-6.5477209381
 10
2.1438019202
 20
-6.4938141088
 10
2.1201526458
 20
-6.4700827163
  0
LWPOLYLINE
  5
328
100
AcDbEntity
  8
IMPORT_IGES
100
AcDbPolyline
 62
7
  6
CONTINUOUS
 90
8
 70
0
 10
2.1201526458
 20
-6.4700827163
 10
2.0798272608
 20
-6.4298419638
 10
2.0635686086
 20
-6.4135311596
 10
2.0499014428
 20
-6.3999676102
 10
2.0391759775
 20
-6.389204606
 10
2.031508951
 20
-6.3813723893
 10
2.0267836252
 20
-6.3766140571
 10
2.025
 20
-6.3750144999
  0
LINE
  5
329
100
AcDbEntity
  8
IMPORT_IGES
100
AcDbLine
 62
7
  6
CONTINUOUS
 10
-6.25
 20
2.6315415387
 11
-6.1729870086
 21
2.5317799092
  0
LWPOLYLINE
  5
32A
100
AcDbEntity
  8
IMPORT_IGES
100
AcDbPolyline
 62
7
  6
CONTINUOUS
 90
19
 70
0
 10
-6.1729870086
 20
2.5317799092
 10
-6.1489727567
 20
2.5003973972
 10
-6.1260293442
 20
2.4699970865
 10
-6.104243596
 20
2.4408580921
 10
-6.0836820551
 20
2.4129843205
 10
-6.0644741798
 20
2.3863718652
 10
-6.0467640915
 20
2.3612881203
 10
-6.030618043
 20
2.3378309848
 10
-6.0160222186
 20
2.3159025598
 10
-6.0029649525
 20
2.2954765431
 10
-5.9914538002
 20
2.2765998514
 10
-5.9814522102
 20
2.259225568
 10
-5.9728876534
 20
2.2431866407
 10
-5.9657352128
 20
2.2284784033
 10
-5.9599728063
 20
2.2151055219
 10
-5.9555517382
 20
2.2029149431
 10
-5.95243856
 20
2.1918556491
 10
-5.9506020182
 20
2.1819786578
 10
-5.95
 20
2.1732839692
  0
LINE
  5
32B
100
AcDbEntity
  8
IMPORT_IGES
100
AcDbLine
 62
7
  6
CONTINUOUS
 10
-3.9243282526
 20
0.2289484886
 11
-3.8243282526
 21
0.0289484886
  0
LWPOLYLINE
  5
32C
100
AcDbEntity
  8
IMPORT_IGES
100
AcDbPolyline
 62
7
  6
CONTINUOUS
 90
10
 70
0
 10
-5.2370396334
 20
4.501724931
 10
-5.2608051229
 20
4.5609324947
 10
-5.2818812983
 20
4.621712927
 10
-5.3002681597
 20
4.6840662279
 10
-5.316022062
 20
4.7479821497
 10
-5.3290866503
 20
4.8134709401
 10
-5.3392928597
 20
4.880563342
 10
-5.3465843353
 20
4.9492696028
 10
-5.351017432
 20
5.0195794751
 10
-5.3525921497
 20
5.0914929588
  0
LINE
  5
32D
100
AcDbEntity
  8
0
100
AcDbLine
 62
7
  6
CONTINUOUS
 10
-2.7
 20
2.1278694598
 11
-2.7
 21
-0.9250144999
  0
LINE
  5
32E
100
AcDbEntity
  8
IMPORT_IGES
100
AcDbLine
 62
253
  6
CONTINUOUS
 10
-2.325
 20
-8.1341179655
 11
-2.325
 21
-6.6750144999
  0
LINE
  5
32F
100
AcDbEntity
  8
0
100
AcDbLine
 62
7
  6
CONTINUOUS
 10
-2.2
 20
2.1278694598
 11
-2.2
 21
-0.9250144999
  0
LINE
  5
330
100
AcDbEntity
  8
IMPORT_IGES
100
AcDbLine
 62
7
  6
CONTINUOUS
 10
-2.1548535023
 20
-0.7010515114
 11
-2.1548535023
 21
-1.3250144999
  0
LINE
  5
331
100
AcDbEntity
  8
IMPORT_IGES
100
AcDbLine
 62
7
  6
CONTINUOUS
 10
-2.025
 20
-6.3750144999
 11
-2.025
 21
-8.0537332077
  0
LWPOLYLINE
  5
332
100
AcDbEntity
  8
IMPORT_IGES
100
AcDbPolyline
 62
7
  6
CONTINUOUS
 90
4
 70
0
 10
-6.3947037112
 20
-10.7891500155
 10
-6.3914834369
 20
-10.7812869532
 10
-6.3895310379
 20
-10.7765758058
 10
-6.3888465143
 20
-10.7750144999
  0
LWPOLYLINE
  5
333
100
AcDbEntity
  8
IMPORT_IGES
100
AcDbPolyline
 62
7
  6
CONTINUOUS
 90
3
 70
0
 10
-6.4119717866
 20
-10.8308503135
 10
-6.405082587
 20
-10.814066509
 10
-6.3947037112
 20
-10.7891500155
  0
LINE
  5
334
100
AcDbEntity
  8
IMPORT_IGES
100
AcDbLine
 62
7
  6
CONTINUOUS
 10
3.1504290236
 20
-6.3754096189
 11
3.15
 21
-6.3750144999
  0
LINE
  5
335
100
AcDbEntity
  8
IMPORT_IGES
100
AcDbLine
 62
7
  6
CONTINUOUS
 10
3.3567297839
 20
-6.581802335
 11
3.1539341129
 21
-6.3789486127
  0
LWPOLYLINE
  5
336
100
AcDbEntity
  8
IMPORT_IGES
100
AcDbPolyline
 62
7
  6
CONTINUOUS
 90
3
 70
0
 10
3.45
 20
-6.6750144999
 10
3.4257153065
 20
-6.6505252141
 10
3.3567297839
 20
-6.581802335
  0
LINE
  5
337
100
AcDbEntity
  8
IMPORT_IGES
100
AcDbLine
 62
7
  6
CONTINUOUS
 10
3.1539341129
 20
-6.3789486127
 11
3.1504290236
 21
-6.3754096189
  0
LWPOLYLINE
  5
338
100
AcDbEntity
  8
IMPORT_IGES
100
AcDbPolyline
 62
7
  6
CONTINUOUS
 90
10
 70
0
 10
-4.9714188912
 20
4.6022706371
 10
-4.9506496038
 20
4.554541894
 10
-4.9280633171
 20
4.5103127022
 10
-4.9036600313
 20
4.4695830617
 10
-4.8775353616
 20
4.4326825545
 10
-4.8495936927
 20
4.3992815986
 10
-4.8195481782
 20
4.3683914481
 10
-4.7873032026
 20
4.3396825209
 10
-4.7529543813
 20
4.3134843991
 10
-4.7165017144
 20
4.2897970826
  0
LWPOLYLINE
  5
339
100
AcDbEntity
  8
IMPORT_IGES
100
AcDbPolyline
 62
253
  6
CONTINUOUS
 90
8
 70
0
 10
-6.2231432857
 20
10.3249847688
 10
-6.2229161779
 20
10.3243365689
 10
-6.2226885443
 20
10.3223597251
 10
-6.222465053
 20
10.3190454616
 10
-6.2222520333
 20
10.3144814185
 10
-6.2220519411
 20
10.3087437371
 10
-6.2218641789
 20
10.3017975792
 10
-6.221691818
 20
10.2936924264
  0
LINE
  5
33A
100
AcDbEntity
  8
0
100
AcDbLine
 62
7
  6
CONTINUOUS
 10
-1.7
 20
2.1278694598
 11
-1.7
 21
-0.9250144999
  0
LINE
  5
33B
100
AcDbEntity
  8
IMPORT_IGES
100
AcDbLine
 62
7
  6
CONTINUOUS
 10
-1.425
 20
-5.5750144999
 11
-1.425
 21
-6.3750144999
  0
LINE
  5
33C
100
AcDbEntity
  8
0
100
AcDbLine
 62
7
  6
CONTINUOUS
 10
-1.2
 20
2.1278694598
 11
-1.2
 21
-0.9250144999
  0
LINE
  5
33D
100
AcDbEntity
  8
IMPORT_IGES
100
AcDbLine
 62
7
  6
CONTINUOUS
 10
-1.164188296
 20
6.1749855001
 11
-1.164188296
 21
5.9153674682
  0
LWPOLYLINE
  5
33E
100
AcDbEntity
  8
IMPORT_IGES
100
AcDbPolyline
 62
7
  6
CONTINUOUS
 90
6
 70
0
 10
-6.4716892268
 20
-10.9750144999
 10
-6.4600706377
 20
-10.9476741756
 10
-6.4491183215
 20
-10.9210756803
 10
-6.4388322784
 20
-10.8956902994
 10
-6.4290793244
 20
-10.8719536337
 10
-6.4119717866
 20
-10.8308503135
  0
LINE
  5
33F
100
AcDbEntity
  8
IMPORT_IGES
100
AcDbLine
 62
7
  6
CONTINUOUS
 10
-1.2
 20
0.4459905599
 11
-1.1843282526
 21
0.4773340548
  0
LWPOLYLINE
  5
340
100
AcDbEntity
  8
0
100
AcDbPolyline
 62
7
  6
CONTINUOUS
 90
13
 70
0
 10
3.2355284497
 20
5.9319390403
 10
3.1953851082
 20
5.8769361528
 10
3.1591640652
 20
5.8173830475
 10
3.1268653207
 20
5.7532797244
 10
3.0985897929
 20
5.684282585
 10
3.0742365635
 20
5.6107352277
 10
3.0535028779
 20
5.5336684477
 10
3.0364546944
 20
5.4532394742
 10
3.0230260547
 20
5.3692910779
 10
3.0127163284
 20
5.2823823658
 10
3.0053586388
 20
5.1926997066
 10
3.0011198627
 20
5.1000567315
 10
3.0
 20
5.0044534405
  0
LWPOLYLINE
  5
341
100
AcDbEntity
  8
0
100
AcDbPolyline
 62
7
  6
CONTINUOUS
 90
10
 70
0
 10
3.4378133709
 20
5.0318399048
 10
3.4672267743
 20
5.0595863855
 10
3.4978708073
 20
5.0840298089
 10
3.5297454698
 20
5.105170175
 10
3.5627765505
 20
5.1229749787
 10
3.5970382607
 20
5.1374767251
 10
3.6327532346
 20
5.1487729293
 10
3.6699956835
 20
5.1568960964
 10
3.7086913961
 20
5.1618137212
 10
3.7488403723
 20
5.1635258039
  0
LWPOLYLINE
  5
342
100
AcDbEntity
  8
0
100
AcDbPolyline
 62
7
  6
CONTINUOUS
 90
10
 70
0
 10
4.1178069476
 20
4.0323432372
 10
4.1508055805
 20
4.053657707
 10
4.1823490912
 20
4.0771210726
 10
4.2124374798
 20
4.1027333343
 10
4.2410630011
 20
4.1304166704
 10
4.2682334002
 20
4.1602489024
 10
4.2939719125
 20
4.1924634951
 10
4.318286283
 20
4.22713827
 10
4.3411687667
 20
4.2641954056
 10
4.3626193636
 20
4.3036349018
  0
LINE
  5
343
100
AcDbEntity
  8
IMPORT_IGES
100
AcDbLine
 62
7
  6
CONTINUOUS
 10
-2.9548535023
 20
-1.3250144999
 11
-2.1548535023
 21
-1.3250144999
  0
LINE
  5
344
100
AcDbEntity
  8
IMPORT_IGES
100
AcDbLine
 62
7
  6
CONTINUOUS
 10
-0.7643282525
 20
-1.3250144999
 11
1.7751464977
 21
-1.3250144999
  0
LINE
  5
345
100
AcDbEntity
  8
0
100
AcDbLine
 62
7
  6
CONTINUOUS
 10
-3.7
 20
-0.9250144999
 11
-3.2
 21
-0.9250144999
  0
LINE
  5
346
100
AcDbEntity
  8
0
100
AcDbLine
 62
7
  6
CONTINUOUS
 10
-2.7
 20
-0.9250144999
 11
-2.2
 21
-0.9250144999
  0
LINE
  5
347
100
AcDbEntity
  8
0
100
AcDbLine
 62
7
  6
CONTINUOUS
 10
-1.7
 20
-0.9250144999
 11
-1.2
 21
-0.9250144999
  0
LINE
  5
348
100
AcDbEntity
  8
0
100
AcDbLine
 62
7
  6
CONTINUOUS
 10
-0.7
 20
-0.9250144999
 11
-0.2
 21
-0.9250144999
  0
LINE
  5
349
100
AcDbEntity
  8
0
100
AcDbLine
 62
7
  6
CONTINUOUS
 10
0.3
 20
-0.9250144999
 11
0.8
 21
-0.9250144999
  0
LINE
  5
34A
100
AcDbEntity
  8
0
100
AcDbLine
 62
7
  6
CONTINUOUS
 10
1.3
 20
-0.9250144999
 11
1.8
 21
-0.9250144999
  0
LINE
  5
34B
100
AcDbEntity
  8
0
100
AcDbLine
 62
7
  6
CONTINUOUS
 10
2.3
 20
-0.9250144999
 11
2.8
 21
-0.9250144999
  0
LINE
  5
34C
100
AcDbEntity
  8
0
100
AcDbLine
 62
7
  6
CONTINUOUS
 10
3.3
 20
-0.9250144999
 11
3.8
 21
-0.9250144999
  0
LINE
  5
34D
100
AcDbEntity
  8
IMPORT_IGES
100
AcDbLine
 62
253
  6
CONTINUOUS
 10
6.8944964766
 20
-8.4695091488
 11
6.9346367602
 21
-8.5093921506
  0
LWPOLYLINE
  5
34E
100
AcDbEntity
  8
IMPORT_IGES
100
AcDbPolyline
 62
7
  6
CONTINUOUS
 90
3
 70
0
 10
3.188258607
 20
-4.8633285781
 10
3.2234137483
 20
-4.8983925036
 10
3.2447455267
 20
-4.9198475913
  0
LWPOLYLINE
  5
34F
100
AcDbEntity
  8
IMPORT_IGES
100
AcDbPolyline
 62
7
  6
CONTINUOUS
 90
7
 70
0
 10
3.2447455267
 20
-4.9198475913
 10
3.2944845019
 20
-4.9694654947
 10
3.3224751403
 20
-4.9976283103
 10
3.3523199554
 20
-5.0273312519
 10
3.3837710804
 20
-5.0583522086
 10
3.4164559013
 20
-5.0909132913
 10
3.45
 20
-5.1250144999
  0
LWPOLYLINE
  5
350
100
AcDbEntity
  8
IMPORT_IGES
100
AcDbPolyline
 62
7
  6
CONTINUOUS
 90
6
 70
0
 10
3.15
 20
-4.8250144999
 10
3.1515792026
 20
-4.8267534317
 10
3.1562861475
 20
-4.8314321672
 10
3.164050665
 20
-4.8390507061
 10
3.1747475075
 20
-4.8497197404
 10
3.188258607
 20
-4.8633285781
  0
LINE
  5
351
100
AcDbEntity
  8
IMPORT_IGES
100
AcDbLine
 62
253
  6
CONTINUOUS
 10
-7.8882077441
 20
9.31755307
 11
-7.9106720428
 21
9.3508454289
  0
LWPOLYLINE
  5
352
100
AcDbEntity
  8
IMPORT_IGES
100
AcDbPolyline
 62
7
  6
CONTINUOUS
 90
13
 70
0
 10
-3.7318553988
 20
5.5041806062
 10
-3.7459438863
 20
5.5451735693
 10
-3.7609697477
 20
5.5840033627
 10
-3.776932983
 20
5.6206699862
 10
-3.7939012336
 20
5.6551825936
 10
-3.8118068581
 20
5.6875320311
 10
-3.8304469321
 20
5.7176908378
 10
-3.849854314
 20
5.7456344154
 10
-3.8699961454
 20
5.7713873622
 10
-3.8905709258
 20
5.7949960123
 10
-3.9114781553
 20
5.8164758103
 10
-3.9328183339
 20
5.8358113116
 10
-3.9545914616
 20
5.8530025161
  0
LINE
  5
353
100
AcDbEntity
  8
IMPORT_IGES
100
AcDbLine
 62
7
  6
CONTINUOUS
 10
-0.7643282525
 20
-1.3250144999
 11
-0.7643282525
 21
0.2773340548
  0
LINE
  5
354
100
AcDbEntity
  8
0
100
AcDbLine
 62
7
  6
CONTINUOUS
 10
-0.7
 20
2.1278694598
 11
-0.7
 21
-0.9250144999
  0
LINE
  5
355
100
AcDbEntity
  8
IMPORT_IGES
100
AcDbLine
 62
7
  6
CONTINUOUS
 10
-0.4393586699
 20
5.9153674682
 11
-0.4393586699
 21
3.9749855001
  0
LINE
  5
356
100
AcDbEntity
  8
0
100
AcDbLine
 62
7
  6
CONTINUOUS
 10
-0.2
 20
2.1278694598
 11
-0.2
 21
-0.9250144999
  0
LINE
  5
357
100
AcDbEntity
  8
IMPORT_IGES
100
AcDbLine
 62
7
  6
CONTINUOUS
 10
-0.1482265059
 20
3.9749855001
 11
-0.1482265059
 21
5.9153674682
  0
LWPOLYLINE
  5
358
100
AcDbEntity
  8
0
100
AcDbPolyline
 62
7
  6
CONTINUOUS
 90
10
 70
0
 10
4.053431029
 20
4.2976745862
 10
4.0253785662
 20
4.2684656689
 10
3.9962017353
 20
4.2427472148
 10
3.9659005363
 20
4.2205192238
 10
3.9345170604
 20
4.201814348
 10
3.9020092164
 20
4.1865999353
 10
3.8682507306
 20
4.1747780293
 10
3.8331995117
 20
4.1663159778
 10
3.796897651
 20
4.1612464331
 10
3.7593451485
 20
4.1595693951
  0
LINE
  5
359
100
AcDbEntity
  8
IMPORT_IGES
100
AcDbLine
 62
253
  6
CONTINUOUS
 10
7.1944946489
 20
7.2194819768
 11
7.2399229223
 21
7.2649102502
  0
LWPOLYLINE
  5
35A
100
AcDbEntity
  8
IMPORT_IGES
100
AcDbPolyline
 62
7
  6
CONTINUOUS
 90
3
 70
0
 10
-6.0451526458
 20
-4.9200827163
 10
-6.0236942102
 20
-4.8987499285
 10
-5.9885686086
 20
-4.8635311596
  0
LWPOLYLINE
  5
35B
100
AcDbEntity
  8
IMPORT_IGES
100
AcDbPolyline
 62
7
  6
CONTINUOUS
 90
6
 70
0
 10
-5.9885686086
 20
-4.8635311596
 10
-5.9749014428
 20
-4.8499676102
 10
-5.9641759775
 20
-4.839204606
 10
-5.956508951
 20
-4.8313723893
 10
-5.9517836252
 20
-4.8266140571
 10
-5.95
 20
-4.8250144999
  0
LINE
  5
35C
100
AcDbEntity
  8
IMPORT_IGES
100
AcDbLine
 62
253
  6
CONTINUOUS
 10
6.9398615413
 20
7.5644767997
 11
6.8944964766
 21
7.5194801491
  0
LWPOLYLINE
  5
35D
100
AcDbEntity
  8
IMPORT_IGES
100
AcDbPolyline
 62
7
  6
CONTINUOUS
 90
7
 70
0
 10
-6.25
 20
-5.1250144999
 10
-6.2159631916
 20
-5.0915312583
 10
-6.1834612345
 20
-5.0589062788
 10
-6.1524941289
 20
-5.0275117728
 10
-6.1228432121
 20
-4.9977209381
 10
-6.0947271468
 20
-4.9697767717
 10
-6.0451526458
 20
-4.9200827163
  0
LINE
  5
35E
100
AcDbEntity
  8
IMPORT_IGES
100
AcDbLine
 62
7
  6
CONTINUOUS
 10
3.8156717474
 20
-0.7010515114
 11
3.8
 21
-0.7010515114
  0
LINE
  5
35F
100
AcDbEntity
  8
IMPORT_IGES
100
AcDbLine
 62
7
  6
CONTINUOUS
 10
-1.7
 20
-0.7010515114
 11
-2.1548535023
 21
-0.7010515114
  0
LINE
  5
360
100
AcDbEntity
  8
IMPORT_IGES
100
AcDbLine
 62
7
  6
CONTINUOUS
 10
-2.9548535023
 20
-0.7010515114
 11
-3.2
 21
-0.7010515114
  0
LINE
  5
361
100
AcDbEntity
  8
IMPORT_IGES
100
AcDbLine
 62
7
  6
CONTINUOUS
 10
-3.7
 20
-0.7010515114
 11
-3.8243282526
 21
-0.7010515114
  0
LINE
  5
362
100
AcDbEntity
  8
IMPORT_IGES
100
AcDbLine
 62
253
  6
CONTINUOUS
 10
7.2346529689
 20
-8.2096692964
 11
7.1944946489
 21
-8.1695109765
  0
LINE
  5
363
100
AcDbEntity
  8
IMPORT_IGES
100
AcDbLine
 62
253
  6
CONTINUOUS
 10
-7.2399229223
 20
7.2649102502
 11
-7.1944946489
 21
7.2194819768
  0
LINE
  5
364
100
AcDbEntity
  8
IMPORT_IGES
100
AcDbLine
 62
7
  6
CONTINUOUS
 10
-0.8643282525
 20
0.4773340548
 11
-0.7643282525
 21
0.2773340548
  0
LINE
  5
365
100
AcDbEntity
  8
IMPORT_IGES
100
AcDbLine
 62
7
  6
CONTINUOUS
 10
-1.5633696619
 20
3.9749855001
 11
-1.8199865166
 21
4.6412883659
  0
LWPOLYLINE
  5
366
100
AcDbEntity
  8
IMPORT_IGES
100
AcDbPolyline
 62
7
  6
CONTINUOUS
 90
10
 70
0
 10
-1.9100273434
 20
4.8783961256
 10
-2.1607954235
 20
5.5439310764
 10
-2.1810292952
 20
5.5987094506
 10
-2.2003332507
 20
5.6520082703
 10
-2.2187415927
 20
5.703710873
 10
-2.2362200184
 20
5.7539339212
 10
-2.2526656188
 20
5.8030274016
 10
-2.2680440909
 20
5.8511079764
 10
-2.2823897377
 20
5.8980589836
 10
-2.2957025591
 20
5.9438804229
  0
LINE
  5
367
100
AcDbEntity
  8
0
100
AcDbLine
 62
7
  6
CONTINUOUS
 10
0.3
 20
2.1278694598
 11
0.3
 21
-0.9250144999
  0
LINE
  5
368
100
AcDbEntity
  8
IMPORT_IGES
100
AcDbLine
 62
7
  6
CONTINUOUS
 10
0.5796044286
 20
5.9153674682
 11
0.5796044286
 21
6.1749855001
  0
LINE
  5
369
100
AcDbEntity
  8
0
100
AcDbLine
 62
7
  6
CONTINUOUS
 10
0.8
 20
2.1278694598
 11
0.8
 21
-0.9250144999
  0
LINE
  5
36A
100
AcDbEntity
  8
IMPORT_IGES
100
AcDbLine
 62
7
  6
CONTINUOUS
 10
0.920259231
 20
4.2826253523
 11
0.920259231
 21
3.9749855001
  0
LWPOLYLINE
  5
36B
100
AcDbEntity
  8
0
100
AcDbPolyline
 62
7
  6
CONTINUOUS
 90
10
 70
0
 10
3.3447765589
 20
5.6183871901
 10
3.3615962612
 20
5.6567535784
 10
3.3798532453
 20
5.6931089961
 10
3.3995475113
 20
5.7274534433
 10
3.4207448774
 20
5.7598335661
 10
3.4433795253
 20
5.7902027183
 10
3.4672540007
 20
5.8184209612
 10
3.4923024854
 20
5.8444416487
 10
3.5185907976
 20
5.8683114269
 10
3.5461189372
 20
5.8900302959
  0
LINE
  5
36C
100
AcDbEntity
  8
IMPORT_IGES
100
AcDbLine
 62
253
  6
CONTINUOUS
 10
-7.1944946489
 20
-8.1695109765
 11
-7.2346529689
 21
-8.2096692964
  0
LINE
  5
36D
100
AcDbEntity
  8
IMPORT_IGES
100
AcDbLine
 62
7
  6
CONTINUOUS
 10
4.4
 20
0.2289484886
 11
3.9156717474
 21
0.2289484886
  0
LINE
  5
36E
100
AcDbEntity
  8
IMPORT_IGES
100
AcDbLine
 62
7
  6
CONTINUOUS
 10
-3.9243282526
 20
0.2289484886
 11
-4.4
 21
0.2289484886
  0
LINE
  5
36F
100
AcDbEntity
  8
IMPORT_IGES
100
AcDbLine
 62
7
  6
CONTINUOUS
 10
3.2151464977
 20
0.4773340548
 11
2.8956717474
 21
0.4773340548
  0
LINE
  5
370
100
AcDbEntity
  8
IMPORT_IGES
100
AcDbLine
 62
7
  6
CONTINUOUS
 10
2.1956717474
 20
0.4773340548
 11
1.8751464977
 21
0.4773340548
  0
LINE
  5
371
100
AcDbEntity
  8
IMPORT_IGES
100
AcDbLine
 62
7
  6
CONTINUOUS
 10
-0.8643282525
 20
0.4773340548
 11
-1.1843282526
 21
0.4773340548
  0
LWPOLYLINE
  5
372
100
AcDbEntity
  8
IMPORT_IGES
100
AcDbPolyline
 62
7
  6
CONTINUOUS
 90
10
 70
0
 10
-4.8978854864
 20
4.0815339477
 10
-4.9447275929
 20
4.1140438976
 10
-4.9893268137
 20
4.1500802589
 10
-5.0316831488
 20
4.1896430315
 10
-5.0718588549
 20
4.2327081185
 10
-5.1097916753
 20
4.2792996168
 10
-5.1452948403
 20
4.3294898181
 10
-5.1783060934
 20
4.3833028194
 10
-5.2088876911
 20
4.4407145238
 10
-5.2370396334
 20
4.501724931
  0
LWPOLYLINE
  5
373
100
AcDbEntity
  8
IMPORT_IGES
100
AcDbPolyline
 62
7
  6
CONTINUOUS
 90
8
 70
0
 10
5.95
 20
-4.8250144999
 10
5.9517389319
 20
-4.8265937024
 10
5.9564176673
 20
-4.8313006474
 10
5.9640362063
 20
-4.8390651648
 10
5.9747052405
 20
-4.8497620074
 10
5.9883140783
 20
-4.8632731069
 10
6.0045306444
 20
-4.8795440478
 10
6.0448330915
 20
-4.9197600265
  0
LINE
  5
374
100
AcDbEntity
  8
IMPORT_IGES
100
AcDbLine
 62
253
  6
CONTINUOUS
 10
-6.8944964766
 20
7.5194801491
 11
-6.9398615413
 21
7.5644767997
  0
LWPOLYLINE
  5
375
100
AcDbEntity
  8
IMPORT_IGES
100
AcDbPolyline
 62
7
  6
CONTINUOUS
 90
3
 70
0
 10
6.0448330915
 20
-4.9197600265
 10
6.0684946372
 20
-4.9435062891
 10
6.1226138105
 20
-4.9974896401
  0
LWPOLYLINE
  5
376
100
AcDbEntity
  8
IMPORT_IGES
100
AcDbPolyline
 62
7
  6
CONTINUOUS
 90
5
 70
0
 10
6.1226138105
 20
-4.9974896401
 10
6.152316752
 20
-5.0273344552
 10
6.1833377088
 20
-5.0587855803
 10
6.2158987914
 20
-5.0914704011
 10
6.25
 20
-5.1250144999
  0
LINE
  5
377
100
AcDbEntity
  8
IMPORT_IGES
100
AcDbLine
 62
7
  6
CONTINUOUS
 10
-2.1321283642
 20
6.1749855001
 11
-1.2317190472
 21
3.9749855001
  0
LINE
  5
378
100
AcDbEntity
  8
IMPORT_IGES
100
AcDbLine
 62
7
  6
CONTINUOUS
 10
1.2278991159
 20
3.9749855001
 11
1.2278991159
 21
4.2826253523
  0
LINE
  5
379
100
AcDbEntity
  8
0
100
AcDbLine
 62
7
  6
CONTINUOUS
 10
1.3
 20
2.1278694598
 11
1.3
 21
-0.9250144999
  0
LINE
  5
37A
100
AcDbEntity
  8
IMPORT_IGES
100
AcDbLine
 62
7
  6
CONTINUOUS
 10
1.425
 20
-6.3750144999
 11
1.425
 21
-5.5750144999
  0
LINE
  5
37B
100
AcDbEntity
  8
IMPORT_IGES
100
AcDbLine
 62
7
  6
CONTINUOUS
 10
1.7751464977
 20
-0.9250144999
 11
1.7751464977
 21
-1.3250144999
  0
LINE
  5
37C
100
AcDbEntity
  8
0
100
AcDbLine
 62
7
  6
CONTINUOUS
 10
1.8
 20
2.1278694598
 11
1.8
 21
-0.9250144999
  0
LINE
  5
37D
100
AcDbEntity
  8
IMPORT_IGES
100
AcDbLine
 62
7
  6
CONTINUOUS
 10
2.025
 20
-8.0537332077
 11
2.025
 21
-6.3750144999
  0
LINE
  5
37E
100
AcDbEntity
  8
IMPORT_IGES
100
AcDbLine
 62
7
  6
CONTINUOUS
 10
1.8
 20
0.3270410594
 11
1.8751464977
 21
0.4773340548
  0
LINE
  5
37F
100
AcDbEntity
  8
IMPORT_IGES
100
AcDbLine
 62
253
  6
CONTINUOUS
 10
7.8882078407
 20
9.3175541208
 11
7.9106731186
 21
9.3508471236
  0
LWPOLYLINE
  5
380
100
AcDbEntity
  8
IMPORT_IGES
100
AcDbPolyline
 62
7
  6
CONTINUOUS
 90
5
 70
0
 10
-3.45
 20
-5.1250144999
 10
-3.4165167584
 20
-5.0909776914
 10
-3.383891779
 20
-5.0584757344
 10
-3.3524972729
 20
-5.0275086287
 10
-3.3227064382
 20
-4.997857712
  0
LWPOLYLINE
  5
381
100
AcDbEntity
  8
IMPORT_IGES
100
AcDbPolyline
 62
7
  6
CONTINUOUS
 90
3
 70
0
 10
-3.3227064382
 20
-4.997857712
 10
-3.268799609
 20
-4.9438164201
 10
-3.2450682164
 20
-4.9201671456
  0
LWPOLYLINE
  5
382
100
AcDbEntity
  8
IMPORT_IGES
100
AcDbPolyline
 62
7
  6
CONTINUOUS
 90
8
 70
0
 10
-3.2450682164
 20
-4.9201671456
 10
-3.204827464
 20
-4.8798417606
 10
-3.1885166598
 20
-4.8635831085
 10
-3.1749531103
 20
-4.8499159426
 10
-3.1641901061
 20
-4.8391904774
 10
-3.1563578895
 20
-4.8315234509
 10
-3.1515995572
 20
-4.8267981251
 10
-3.15
 20
-4.8250144999
  0
LINE
  5
383
100
AcDbEntity
  8
IMPORT_IGES
100
AcDbLine
 62
253
  6
CONTINUOUS
 10
-6.9346367602
 20
-8.5093921506
 11
-6.8944964766
 21
-8.4695091488
  0
LWPOLYLINE
  5
384
100
AcDbEntity
  8
IMPORT_IGES
100
AcDbPolyline
 62
7
  6
CONTINUOUS
 90
10
 70
0
 10
-4.7165017144
 20
4.2897970826
 10
-4.6776668908
 20
4.2680439774
 10
-4.6382967031
 20
4.2488920996
 10
-4.5983911514
 20
4.2323414491
 10
-4.5581384622
 20
4.2184320869
 10
-4.5173504088
 20
4.207123952
 10
-4.4754623115
 20
4.1982968621
 10
-4.4322859433
 20
4.1919107562
 10
-4.3880095312
 20
4.1880056952
 10
-4.3426330749
 20
4.1865816792
  0
LWPOLYLINE
  5
385
100
AcDbEntity
  8
IMPORT_IGES
100
AcDbPolyline
 62
7
  6
CONTINUOUS
 90
3
 70
0
 10
6.3947001696
 20
-10.7891514825
 10
6.389466493
 20
-10.7766025412
 10
6.3888465143
 20
-10.7750144999
  0
LINE
  5
386
100
AcDbEntity
  8
IMPORT_IGES
100
AcDbLine
 62
7
  6
CONTINUOUS
 10
6.4049798177
 20
-10.8141090774
 11
6.3947001696
 21
-10.7891514825
  0
LWPOLYLINE
  5
387
100
AcDbEntity
  8
IMPORT_IGES
100
AcDbPolyline
 62
7
  6
CONTINUOUS
 90
7
 70
0
 10
6.4716892268
 20
-10.9750144999
 10
6.4605722812
 20
-10.947466388
 10
6.4495087619
 20
-10.9209139547
 10
6.4388319177
 20
-10.8956904488
 10
6.4289439403
 20
-10.8720097116
 10
6.4200133746
 20
-10.8502286385
 10
6.4049798177
 20
-10.8141090774
  0
LINE
  5
388
100
AcDbEntity
  8
0
100
AcDbLine
 62
7
  6
CONTINUOUS
 10
2.3
 20
2.1278694598
 11
2.3
 21
-0.9250144999
  0
LINE
  5
389
100
AcDbEntity
  8
IMPORT_IGES
100
AcDbLine
 62
253
  6
CONTINUOUS
 10
2.325
 20
-8.1341179655
 11
2.325
 21
-6.6750144999
  0
LINE
  5
38A
100
AcDbEntity
  8
0
100
AcDbLine
 62
7
  6
CONTINUOUS
 10
2.8
 20
2.1278694598
 11
2.8
 21
-0.9250144999
  0
LWPOLYLINE
  5
38B
100
AcDbEntity
  8
IMPORT_IGES
100
AcDbPolyline
 62
253
  6
CONTINUOUS
 90
13
 70
0
 10
4.5100474822
 20
9.8934460132
 10
4.5021700714
 20
9.8553850751
 10
4.4908655161
 20
9.819755849
 10
4.4769404278
 20
9.7867521653
 10
4.4606950066
 20
9.7558872957
 10
4.4428152133
 20
9.727507446
 10
4.4241311196
 20
9.7025307107
 10
4.4038642648
 20
9.6802044363
 10
4.3819734063
 20
9.6600031776
 10
4.3597998704
 20
9.6428340315
 10
4.3373593752
 20
9.6287789443
 10
4.3136472617
 20
9.6173658184
 10
4.2884314973
 20
9.6088410239
  0
LWPOLYLINE
  5
38C
100
AcDbEntity
  8
IMPORT_IGES
100
AcDbPolyline
 62
253
  6
CONTINUOUS
 90
9
 70
0
 10
6.2231435208
 20
10.3249855169
 10
6.2229148385
 20
10.3243361738
 10
6.2226856659
 20
10.3223563913
 10
6.2224607211
 20
10.3190383672
 10
6.2222464039
 20
10.3144716007
 10
6.2220451761
 20
10.3087338276
 10
6.2218563572
 20
10.3017890729
 10
6.221682985
 20
10.2936846303
 10
6.2214014383
 20
10.2748607468
  0
LWPOLYLINE
  5
38D
100
AcDbEntity
  8
0
100
AcDbPolyline
 62
7
  6
CONTINUOUS
 90
10
 70
0
 10
4.3626193636
 20
4.3036349018
 10
4.3812860615
 20
4.3429847975
 10
4.3977962784
 20
4.3831392217
 10
4.4121500145
 20
4.4240981745
 10
4.4243593467
 20
4.4657667214
 10
4.434412198
 20
4.5082397969
 10
4.442272337
 20
4.5518022041
 10
4.4479276866
 20
4.5965488773
 10
4.451390324
 20
4.6423848822
 10
4.4526602492
 20
4.6893102189
  0
LINE
  5
38E
100
AcDbEntity
  8
IMPORT_IGES
100
AcDbLine
 62
7
  6
CONTINUOUS
 10
2.8
 20
0.2859905599
 11
2.8956717474
 21
0.4773340548
  0
LINE
  5
38F
100
AcDbEntity
  8
IMPORT_IGES
100
AcDbLine
 62
7
  6
CONTINUOUS
 10
-3.4257239457
 20
-6.6505339163
 11
-3.45
 21
-6.6750144999
  0
LINE
  5
390
100
AcDbEntity
  8
IMPORT_IGES
100
AcDbLine
 62
7
  6
CONTINUOUS
 10
-3.1539525633
 20
-6.3789670631
 11
-3.4257239457
 21
-6.6505339163
  0
LWPOLYLINE
  5
391
100
AcDbEntity
  8
IMPORT_IGES
100
AcDbPolyline
 62
7
  6
CONTINUOUS
 90
3
 70
0
 10
-3.15
 20
-6.3750144999
 10
-3.1504311943
 20
-6.3754124651
 10
-3.1539525633
 20
-6.3789670631
  0
LINE
  5
392
100
AcDbEntity
  8
IMPORT_IGES
100
AcDbLine
 62
7
  6
CONTINUOUS
 10
5.95
 20
2.0749855001
 11
4.4536037012
 21
2.0749855001
  0
LINE
  5
393
100
AcDbEntity
  8
IMPORT_IGES
100
AcDbLine
 62
7
  6
CONTINUOUS
 10
-4.4536037012
 20
2.0749855001
 11
-5.95
 21
2.0749855001
  0
LINE
  5
394
100
AcDbEntity
  8
IMPORT_IGES
100
AcDbLine
 62
7
  6
CONTINUOUS
 10
5.95
 20
2.1315483925
 11
-5.95
 21
2.1315483925
  0
LINE
  5
395
100
AcDbEntity
  8
IMPORT_IGES
100
AcDbLine
 62
253
  6
CONTINUOUS
 10
-6.25
 20
2.6315415387
 11
6.25
 21
2.6315415387
  0
LWPOLYLINE
  5
396
100
AcDbEntity
  8
IMPORT_IGES
100
AcDbPolyline
 62
7
  6
CONTINUOUS
 90
10
 70
0
 10
-3.9545914616
 20
5.8530025161
 10
-3.9885202044
 20
5.8762809475
 10
-4.0238645695
 20
5.896751365
 10
-4.0606245569
 20
5.9144137685
 10
-4.0984590436
 20
5.9291952166
 10
-4.1377091527
 20
5.9411686508
 10
-4.1793982528
 20
5.9505528959
 10
-4.2238674669
 20
5.9574208935
 10
-4.270775672
 20
5.9616997019
 10
-4.3201228682
 20
5.9633893211
  0
LWPOLYLINE
  5
397
100
AcDbEntity
  8
IMPORT_IGES
100
AcDbPolyline
 62
7
  6
CONTINUOUS
 90
10
 70
0
 10
-3.7592263894
 20
6.043943005
 10
-3.7119397161
 20
6.0060449162
 10
-3.6677170779
 20
5.9645311277
 10
-3.6265584747
 20
5.9194016398
 10
-3.588416736
 20
5.8706928891
 10
-3.5533390324
 20
5.818368439
 10
-3.5214668755
 20
5.7623189786
 10
-3.492847436
 20
5.7025080713
 10
-3.4674335433
 20
5.6389721539
 10
-3.4452251974
 20
5.5717112263
  0
LINE
  5
398
100
AcDbEntity
  8
IMPORT_IGES
100
AcDbLine
 62
7
  6
CONTINUOUS
 10
2.1956717474
 20
0.4773340548
 11
2.2956717474
 21
0.2773340548
  0
LWPOLYLINE
  5
399
100
AcDbEntity
  8
0
100
AcDbPolyline
 62
7
  6
CONTINUOUS
 90
13
 70
0
 10
3.0
 20
5.0044534405
 10
3.0009627865
 20
4.9196877046
 10
3.004716003
 20
4.8375514919
 10
3.0112596495
 20
4.7580448025
 10
3.0204230529
 20
4.6809876136
 10
3.0323768862
 20
4.6065599479
 10
3.0476331686
 20
4.5353018739
 10
3.0662470795
 20
4.4670483888
 10
3.0881634395
 20
4.4019644954
 10
3.1137287288
 20
4.3410852702
 10
3.1430584409
 20
4.2847557385
 10
3.1760370825
 20
4.232630875
 10
3.2126646534
 20
4.1847106797
  0
LINE
  5
39A
100
AcDbEntity
  8
IMPORT_IGES
100
AcDbLine
 62
7
  6
CONTINUOUS
 10
3.15
 20
-6.3750144999
 11
3.15
 21
-2.8041432846
  0
LINE
  5
39B
100
AcDbEntity
  8
IMPORT_IGES
100
AcDbLine
 62
7
  6
CONTINUOUS
 10
3.25
 20
-8.4877834376
 11
3.25
 21
-9.5424058042
  0
LINE
  5
39C
100
AcDbEntity
  8
0
100
AcDbLine
 62
7
  6
CONTINUOUS
 10
3.3
 20
2.1278694598
 11
3.3
 21
-0.9250144999
  0
LINE
  5
39D
100
AcDbEntity
  8
IMPORT_IGES
100
AcDbLine
 62
253
  6
CONTINUOUS
 10
3.45
 20
-5.1250144999
 11
3.45
 21
-6.6750144999
  0
LINE
  5
39E
100
AcDbEntity
  8
IMPORT_IGES
100
AcDbLine
 62
7
  6
CONTINUOUS
 10
3.5
 20
-10.5750144999
 11
3.5
 21
-10.7750144999
  0
LINE
  5
39F
100
AcDbEntity
  8
IMPORT_IGES
100
AcDbLine
 62
253
  6
CONTINUOUS
 10
3.7
 20
-10.5750144999
 11
3.7
 21
-10.7750144999
  0
LINE
  5
3A0
100
AcDbEntity
  8
0
100
AcDbLine
 62
7
  6
CONTINUOUS
 10
3.8
 20
2.1278694598
 11
3.8
 21
-0.9250144999
  0
LINE
  5
3A1
100
AcDbEntity
  8
IMPORT_IGES
100
AcDbLine
 62
7
  6
CONTINUOUS
 10
3.8156717474
 20
0.0289484886
 11
3.8156717474
 21
-0.7010515114
  0
LWPOLYLINE
  5
3A2
100
AcDbEntity
  8
0
100
AcDbPolyline
 62
7
  6
CONTINUOUS
 90
10
 70
0
 10
3.2686221048
 20
5.1095012029
 10
3.2695488898
 20
5.1730885553
 10
3.2722105933
 20
5.2350025911
 10
3.2766072155
 20
5.2952433103
 10
3.2825403742
 20
5.353927779
 10
3.2902084515
 20
5.4109389311
 10
3.300206594
 20
5.4659255682
 10
3.3127331838
 20
5.5187706239
 10
3.3275898388
 20
5.5695911646
 10
3.3447765589
 20
5.6183871901
  0
LWPOLYLINE
  5
3A3
100
AcDbEntity
  8
0
100
AcDbPolyline
 62
7
  6
CONTINUOUS
 90
10
 70
0
 10
3.3106412098
 20
4.6878094991
 10
3.3123059566
 20
4.7346851174
 10
3.3171178035
 20
4.779403727
 10
3.3250767503
 20
4.821965328
 10
3.3362237661
 20
4.8623772479
 10
3.3505178819
 20
4.9006321591
 10
3.3678361909
 20
4.9367080788
 10
3.3881377243
 20
4.9705976791
 10
3.411463451
 20
5.0023082877
 10
3.4378133709
 20
5.0318399048
  0
LINE
  5
3A4
100
AcDbEntity
  8
IMPORT_IGES
100
AcDbLine
 62
253
  6
CONTINUOUS
 10
4.6075061083
 20
11.7750144998
 11
4.5217845696
 21
10.5978580375
  0
LWPOLYLINE
  5
3A5
100
AcDbEntity
  8
IMPORT_IGES
100
AcDbPolyline
 62
253
  6
CONTINUOUS
 90
13
 70
0
 10
4.8211849092
 20
9.7102010526
 10
4.8179659704
 20
9.6738275007
 10
4.8099348844
 20
9.6381973538
 10
4.7972817135
 20
9.6038788769
 10
4.780367791
 20
9.5715721003
 10
4.7594602464
 20
9.5415809903
 10
4.7345179478
 20
9.5139348479
 10
4.7056152744
 20
9.4890248478
 10
4.6732776885
 20
9.4675788054
 10
4.6381192916
 20
9.4501599088
 10
4.6007557137
 20
9.4371708325
 10
4.5617547784
 20
9.4289019237
 10
4.5217845696
 20
9.4255960494
  0
LWPOLYLINE
  5
3A6
100
AcDbEntity
  8
IMPORT_IGES
100
AcDbPolyline
 62
253
  6
CONTINUOUS
 90
10
 70
0
 10
4.5217845696
 20
10.5978580375
 10
4.5139350344
 20
10.5355025953
 10
4.5012434684
 20
10.4752043913
 10
4.4837098715
 20
10.4169634255
 10
4.4609064378
 20
10.3604423632
 10
4.4332609733
 20
10.305978539
 10
4.4020568957
 20
10.2545839572
 10
4.3677220107
 20
10.2065959524
 10
4.3298285125
 20
10.16167719
 10
4.2883764011
 20
10.11982767
  0
LWPOLYLINE
  5
3A7
100
AcDbEntity
  8
IMPORT_IGES
100
AcDbPolyline
 62
253
  6
CONTINUOUS
 90
10
 70
0
 10
4.8211837083
 20
10.3714620216
 10
4.8118856836
 20
10.3113845833
 10
4.7957048942
 20
10.2527879273
 10
4.7728046249
 20
10.1956720535
 10
4.7433406482
 20
10.1396898578
 10
4.7075749061
 20
10.0851884443
 10
4.6659587424
 20
10.033209126
 10
4.6189299063
 20
9.9840990072
 10
4.5668234948
 20
9.9375109836
 10
4.5100439642
 20
9.8934450552
  0
LINE
  5
3A8
100
AcDbEntity
  8
IMPORT_IGES
100
AcDbLine
 62
7
  6
CONTINUOUS
 10
3.8156717474
 20
0.0289484886
 11
3.9156717474
 21
0.2289484886
  0
LINE
  5
3A9
100
AcDbEntity
  8
IMPORT_IGES
100
AcDbLine
 62
7
  6
CONTINUOUS
 10
6.1729681924
 20
2.5317553641
 11
6.25
 21
2.6315415387
  0
LWPOLYLINE
  5
3AA
100
AcDbEntity
  8
IMPORT_IGES
100
AcDbPolyline
 62
7
  6
CONTINUOUS
 90
5
 70
0
 10
-2.325
 20
-6.6750144999
 10
-2.2915167584
 20
-6.6409776914
 10
-2.258891779
 20
-6.6084757344
 10
-2.2274972729
 20
-6.5775086287
 10
-2.1977064382
 20
-6.547857712
  0
LWPOLYLINE
  5
3AB
100
AcDbEntity
  8
IMPORT_IGES
100
AcDbPolyline
 62
7
  6
CONTINUOUS
 90
3
 70
0
 10
-2.1977064382
 20
-6.547857712
 10
-2.143799609
 20
-6.4938164201
 10
-2.1200682164
 20
-6.4701671456
  0
LWPOLYLINE
  5
3AC
100
AcDbEntity
  8
IMPORT_IGES
100
AcDbPolyline
 62
7
  6
CONTINUOUS
 90
8
 70
0
 10
-2.1200682164
 20
-6.4701671456
 10
-2.079827464
 20
-6.4298417606
 10
-2.0635166598
 20
-6.4135831085
 10
-2.0499531103
 20
-6.3999159426
 10
-2.0391901061
 20
-6.3891904774
 10
-2.0313578895
 20
-6.3815234509
 10
-2.0265995572
 20
-6.3767981251
 10
-2.025
 20
-6.3750144999
  0
LWPOLYLINE
  5
3AD
100
AcDbEntity
  8
0
100
AcDbPolyline
 62
7
  6
CONTINUOUS
 90
10
 70
0
 10
3.7638471767
 20
3.937468448
 10
3.8081000782
 20
3.9387539044
 10
3.8510421
 20
3.9423557263
 10
3.8926732421
 20
3.9482739136
 10
3.932887011
 20
3.9565115581
 10
3.9717899002
 20
3.9670655681
 10
4.0097013904
 20
3.9799266685
 10
4.0467279751
 20
3.9950917677
 10
4.0827631609
 20
4.0125639572
 10
4.1178069476
 20
4.0323432372
  0
LINE
  5
3AE
100
AcDbEntity
  8
ASSI
100
AcDbLine
 62
253
  6
CONTINUOUS
 10
-7.2351646411
 20
3.0749855001
 11
-7.2281832957
 21
3.0749855001
  0
LINE
  5
3AF
100
AcDbEntity
  8
ASSI
100
AcDbLine
 62
253
  6
CONTINUOUS
 10
7.2351646411
 20
3.0749855001
 11
7.2281832957
 21
3.0749855
  0
LINE
  5
3B0
100
AcDbEntity
  8
IMPORT_IGES
100
AcDbLine
 62
7
  6
CONTINUOUS
 10
6.05
 20
3.5749855001
 11
-6.05
 21
3.5749855001
  0
LWPOLYLINE
  5
3B1
100
AcDbEntity
  8
IMPORT_IGES
100
AcDbPolyline
 62
7
  6
CONTINUOUS
 90
10
 70
0
 10
-4.318622214
 20
3.937468448
 10
-4.3968290629
 20
3.9393259786
 10
-4.4715843713
 20
3.9447504638
 10
-4.5428881392
 20
3.9537419035
 10
-4.6107530669
 20
3.9663396548
 10
-4.6751664541
 20
3.9825043607
 10
-4.7360901998
 20
4.00211795
 10
-4.7935116035
 20
4.0251410658
 10
-4.8474433657
 20
4.051613065
 10
-4.8978854864
 20
4.0815339477
  0
LINE
  5
3B2
100
AcDbEntity
  8
IMPORT_IGES
100
AcDbLine
 62
7
  6
CONTINUOUS
 10
-3.6988404814
 20
4.7463361283
 11
-3.4077080552
 21
4.6728026946
  0
LINE
  5
3B3
100
AcDbEntity
  8
IMPORT_IGES
100
AcDbLine
 62
7
  6
CONTINUOUS
 10
3.2151464977
 20
0.4773340548
 11
3.3
 21
0.3076270502
  0
LWPOLYLINE
  5
3B4
100
AcDbEntity
  8
0
100
AcDbPolyline
 62
7
  6
CONTINUOUS
 90
10
 70
0
 10
4.4526602492
 20
4.6893102189
 10
4.4499576914
 20
4.7593668383
 10
4.4425867375
 20
4.8260805191
 10
4.4305473876
 20
4.8894512612
 10
4.4137730243
 20
4.9493653801
 10
4.392330265
 20
5.0059365603
 10
4.3664189615
 20
5.0595058555
 10
4.3361057314
 20
5.1101869503
 10
4.3013239572
 20
5.1578661601
 10
4.262073639
 20
5.2025434849
  0
LINE
  5
3B5
100
AcDbEntity
  8
IMPORT_IGES
100
AcDbLine
 62
7
  6
CONTINUOUS
 10
4.05
 20
-9.7119710216
 11
4.05
 21
-8.4877834376
  0
LINE
  5
3B6
100
AcDbEntity
  8
IMPORT_IGES
100
AcDbLine
 62
7
  6
CONTINUOUS
 10
4.4
 20
1.5389484886
 11
4.4
 21
0.2289484886
  0
LINE
  5
3B7
100
AcDbEntity
  8
IMPORT_IGES
100
AcDbLine
 62
253
  6
CONTINUOUS
 10
4.8211837085
 20
10.3714620216
 11
4.8211849119
 21
9.7102010385
  0
LINE
  5
3B8
100
AcDbEntity
  8
IMPORT_IGES
100
AcDbLine
 62
253
  6
CONTINUOUS
 10
4.2884265578
 20
9.6088409764
 11
4.2883764011
 21
10.1198276699
  0
LWPOLYLINE
  5
3B9
100
AcDbEntity
  8
0
100
AcDbPolyline
 62
7
  6
CONTINUOUS
 90
10
 70
0
 10
4.1765347585
 20
4.6728026946
 10
4.1751442337
 20
4.6221488441
 10
4.1706478747
 20
4.5736166251
 10
4.1630456814
 20
4.5272060376
 10
4.1522924309
 20
4.4827549405
 10
4.1384333461
 20
4.440425475
 10
4.1216040965
 20
4.4007040644
 10
4.1018499054
 20
4.36375285
 10
4.0791255496
 20
4.3294096906
 10
4.053431029
 20
4.2976745862
  0
LINE
  5
3BA
100
AcDbEntity
  8
IMPORT_IGES
100
AcDbLine
 62
253
  6
CONTINUOUS
 10
4.8211837085
 20
10.3714620216
 11
4.9233917561
 21
11.7750144998
  0
LINE
  5
3BB
100
AcDbEntity
  8
IMPORT_IGES
100
AcDbLine
 62
7
  6
CONTINUOUS
 10
4.4
 20
1.5389484886
 11
4.4536037012
 21
2.0749855001
  0
LINE
  5
3BC
100
AcDbEntity
  8
IMPORT_IGES
100
AcDbLine
 62
7
  6
CONTINUOUS
 10
-1.2619170827
 20
-7.6250144999
 11
-1.063673116
 21
-7.4250144999
  0
LWPOLYLINE
  5
3BD
100
AcDbEntity
  8
IMPORT_IGES
100
AcDbPolyline
 62
7
  6
CONTINUOUS
 90
10
 70
0
 10
-4.3426330749
 20
4.1865816792
 10
-4.2852952811
 20
4.1890683048
 10
-4.2311076019
 20
4.1948731548
 10
-4.1800700373
 20
4.203996229
 10
-4.1326128013
 20
4.2164689435
 10
-4.08830568
 20
4.2322598824
 10
-4.0458580316
 20
4.2512747976
 10
-4.0048396422
 20
4.2734822732
 10
-3.9656807258
 20
4.2989137253
 10
-3.9283812823
 20
4.3275691538
  0
LINE
  5
3BE
100
AcDbEntity
  8
IMPORT_IGES
100
AcDbLine
 62
7
  6
CONTINUOUS
 10
-3.2906549279
 20
3.9749855001
 11
-2.9815143887
 21
3.9749855001
  0
LINE
  5
3BF
100
AcDbEntity
  8
IMPORT_IGES
100
AcDbLine
 62
7
  6
CONTINUOUS
 10
-1.5633696619
 20
3.9749855001
 11
-1.2317190472
 21
3.9749855001
  0
LINE
  5
3C0
100
AcDbEntity
  8
IMPORT_IGES
100
AcDbLine
 62
7
  6
CONTINUOUS
 10
-0.4393586699
 20
3.9749855001
 11
-0.1482265059
 21
3.9749855001
  0
LINE
  5
3C1
100
AcDbEntity
  8
IMPORT_IGES
100
AcDbLine
 62
7
  6
CONTINUOUS
 10
0.920259231
 20
3.9749855001
 11
1.2278991159
 21
3.9749855001
  0
LINE
  5
3C2
100
AcDbEntity
  8
IMPORT_IGES
100
AcDbLine
 62
253
  6
CONTINUOUS
 10
8.25
 20
4.2781145205
 11
7.2281832957
 21
4.2781145205
  0
LINE
  5
3C3
100
AcDbEntity
  8
IMPORT_IGES
100
AcDbLine
 62
253
  6
CONTINUOUS
 10
-7.2281832957
 20
4.2781145205
 11
-8.25
 21
4.2781145205
  0
LINE
  5
3C4
100
AcDbEntity
  8
IMPORT_IGES
100
AcDbLine
 62
7
  6
CONTINUOUS
 10
1.2278991159
 20
4.2826253523
 11
0.920259231
 21
4.2826253523
  0
LINE
  5
3C5
100
AcDbEntity
  8
IMPORT_IGES
100
AcDbLine
 62
253
  6
CONTINUOUS
 10
8.05
 20
4.4350414697
 11
7.228448616
 21
4.4350414697
  0
LINE
  5
3C6
100
AcDbEntity
  8
IMPORT_IGES
100
AcDbLine
 62
253
  6
CONTINUOUS
 10
-7.228448616
 20
4.4350414697
 11
-8.05
 21
4.4350414697
  0
LINE
  5
3C7
100
AcDbEntity
  8
IMPORT_IGES
100
AcDbLine
 62
7
  6
CONTINUOUS
 10
-2.7399046008
 20
4.6412883659
 11
-1.8199865166
 21
4.6412883659
  0
LINE
  5
3C8
100
AcDbEntity
  8
IMPORT_IGES
100
AcDbLine
 62
7
  6
CONTINUOUS
 10
-1.9100273434
 20
4.8783961256
 11
-2.6558663908
 21
4.8783961256
  0
LWPOLYLINE
  5
3C9
100
AcDbEntity
  8
0
100
AcDbPolyline
 62
7
  6
CONTINUOUS
 90
10
 70
0
 10
3.7593451485
 20
4.1595693951
 10
3.73285734
 20
4.1604137516
 10
3.7068250694
 20
4.1628512439
 10
3.6812483367
 20
4.1668818718
 10
3.6561946923
 20
4.1724782781
 10
3.6315965857
 20
4.1796678201
 10
3.6072513661
 20
4.1885325696
 10
3.583091483
 20
4.1990998839
 10
3.5591844869
 20
4.2113424057
 10
3.5355303777
 20
4.225260135
  0
LWPOLYLINE
  5
3CA
100
AcDbEntity
  8
IMPORT_IGES
100
AcDbPolyline
 62
253
  6
CONTINUOUS
 90
13
 70
0
 10
8.05
 20
4.4350414697
 10
8.0760750603
 20
4.4337020534
 10
8.101714615
 20
4.429704651
 10
8.1264798936
 20
4.423114567
 10
8.149948755
 20
4.4140404516
 10
8.1717150599
 20
4.402635447
 10
8.1913977391
 20
4.3890971581
 10
8.2086588681
 20
4.3736576593
 10
8.2232030326
 20
4.3565807786
 10
8.2347782482
 20
4.3381634281
 10
8.2431875333
 20
4.3187232688
 10
8.2482899002
 20
4.2985920664
 10
8.25
 20
4.2781145205
  0
LWPOLYLINE
  5
3CB
100
AcDbEntity
  8
IMPORT_IGES
100
AcDbPolyline
 62
253
  6
CONTINUOUS
 90
10
 70
0
 10
-4.2883789626
 20
10.11982767
 10
-4.3299272032
 20
10.1618190486
 10
-4.3678799697
 20
10.2068277213
 10
-4.4022372623
 20
10.254853688
 10
-4.4334098768
 20
10.3062123053
 10
-4.4609870173
 20
10.3605882166
 10
-4.4837362957
 20
10.4170353525
 10
-4.5012469158
 20
10.4752383563
 10
-4.5139296738
 20
10.5355125847
 10
-4.5217845696
 20
10.5978580375
  0
LWPOLYLINE
  5
3CC
100
AcDbEntity
  8
0
100
AcDbPolyline
 62
7
  6
CONTINUOUS
 90
10
 70
0
 10
3.3688830791
 20
4.4205564883
 10
3.3567249021
 20
4.4487563971
 10
3.3459868391
 20
4.4773167662
 10
3.3366688901
 20
4.5062375956
 10
3.3287689209
 20
4.5355012088
 10
3.3222890657
 20
4.5651252823
 10
3.3172357267
 20
4.5951628452
 10
3.3136110382
 20
4.6256315738
 10
3.3114128658
 20
4.6565137917
 10
3.3106412098
 20
4.6878094991
  0
LINE
  5
3CD
100
AcDbEntity
  8
IMPORT_IGES
100
AcDbLine
 62
7
  6
CONTINUOUS
 10
5.5518360362
 20
9.0720717566
 11
5.5333944935
 21
9.5962940739
  0
LINE
  5
3CE
100
AcDbEntity
  8
IMPORT_IGES
100
AcDbLine
 62
7
  6
CONTINUOUS
 10
4.9273029486
 20
10.6250145005
 11
4.9273029486
 21
11.7750144998
  0
LINE
  5
3CF
100
AcDbEntity
  8
IMPORT_IGES
100
AcDbLine
 62
7
  6
CONTINUOUS
 10
5.1
 20
2.1278694598
 11
5.1
 21
2.0749855001
  0
LINE
  5
3D0
100
AcDbEntity
  8
IMPORT_IGES
100
AcDbLine
 62
253
  6
CONTINUOUS
 10
5.65
 20
10.3249855001
 11
5.65
 21
10.5249855001
  0
LINE
  5
3D1
100
AcDbEntity
  8
IMPORT_IGES
100
AcDbLine
 62
7
  6
CONTINUOUS
 10
5.6240911927
 20
9.0906709251
 11
5.6161486974
 21
8.6356456719
  0
LWPOLYLINE
  5
3D2
100
AcDbEntity
  8
IMPORT_IGES
100
AcDbPolyline
 62
7
  6
CONTINUOUS
 90
19
 70
0
 10
5.95
 20
2.1732839692
 10
5.9506016577
 20
2.1819754969
 10
5.9524373066
 20
2.1918500382
 10
5.9555493509
 20
2.2029075929
 10
5.9599695974
 20
2.2150978011
 10
5.9657316673
 20
2.2284710227
 10
5.9728834074
 20
2.2431783383
 10
5.9814459081
 20
2.2592139788
 10
5.9914443456
 20
2.2765837132
 10
6.0029520592
 20
2.295455929
 10
6.0160059853
 20
2.3158776997
 10
6.0305984453
 20
2.3378019518
 10
6.0467415833
 20
2.361255852
 10
6.0644494737
 20
2.3863373757
 10
6.0836559636
 20
2.4129485474
 10
6.1042172615
 20
2.4408226081
 10
6.126004159
 20
2.4699636965
 10
6.1489501095
 20
2.5003676737
 10
6.1729681924
 20
2.5317553641
  0
LINE
  5
3D3
100
AcDbEntity
  8
0
100
AcDbLine
 62
7
  6
CONTINUOUS
 10
4.1450204954
 20
5.6152311166
 11
4.4136425838
 21
5.6362406691
  0
LINE
  5
3D4
100
AcDbEntity
  8
IMPORT_IGES
100
AcDbLine
 62
253
  6
CONTINUOUS
 10
-8.05
 20
5.3319124493
 11
-8.0760894615
 21
5.3305715467
  0
LWPOLYLINE
  5
3D5
100
AcDbEntity
  8
0
100
AcDbPolyline
 62
7
  6
CONTINUOUS
 90
10
 70
0
 10
3.8028649077
 20
5.4021341522
 10
3.768421406
 20
5.4012134105
 10
3.7344300692
 20
5.3985504911
 10
3.7008908971
 20
5.3941453939
 10
3.6678807822
 20
5.3880248967
 10
3.6353228321
 20
5.3801622218
 10
3.6029863693
 20
5.370477036
 10
3.5707945013
 20
5.3589425615
 10
3.5388241206
 20
5.3455855762
 10
3.5070752272
 20
5.3304060799
  0
LINE
  5
3D6
100
AcDbEntity
  8
IMPORT_IGES
100
AcDbLine
 62
253
  6
CONTINUOUS
 10
-8.05
 20
5.3319124493
 11
-7.2324108867
 21
5.3319124493
  0
LINE
  5
3D7
100
AcDbEntity
  8
IMPORT_IGES
100
AcDbLine
 62
253
  6
CONTINUOUS
 10
8.05
 20
5.3319124493
 11
7.2324108867
 21
5.3319124493
  0
LINE
  5
3D8
100
AcDbEntity
  8
IMPORT_IGES
100
AcDbLine
 62
7
  6
CONTINUOUS
 10
-8.05
 20
5.3749855001
 11
-7.232843701
 21
5.3749855001
  0
LINE
  5
3D9
100
AcDbEntity
  8
IMPORT_IGES
100
AcDbLine
 62
7
  6
CONTINUOUS
 10
8.05
 20
5.3749855001
 11
7.232843701
 21
5.3749855001
  0
LWPOLYLINE
  5
3DA
100
AcDbEntity
  8
0
100
AcDbPolyline
 62
7
  6
CONTINUOUS
 90
10
 70
0
 10
3.7488403723
 20
5.1635258039
 10
3.7890238988
 20
5.1618046234
 10
3.8276178204
 20
5.1568639479
 10
3.8646221371
 20
5.1487037774
 10
3.8999733982
 20
5.1373488396
 10
3.9337350544
 20
5.1227744068
 10
3.9660974578
 20
5.1049062957
 10
3.9971240592
 20
5.0837197785
 10
4.0267514077
 20
5.0592395831
 10
4.0549795035
 20
5.0314657094
  0
LWPOLYLINE
  5
3DB
100
AcDbEntity
  8
0
100
AcDbPolyline
 62
7
  6
CONTINUOUS
 90
3
 70
0
 43
0.3500000006
 10
15.2142856636
 20
0.9285710678
 10
15.4285712814
 20
0.8571421509
 10
15.7142858162
 20
0.7142865829
  0
LWPOLYLINE
  5
3DC
100
AcDbEntity
  8
0
100
AcDbPolyline
 62
7
  6
CONTINUOUS
 90
10
 70
0
 10
3.5355303777
 20
4.225260135
 10
3.512406898
 20
4.2408954082
 10
3.4904407103
 20
4.258009636
 10
3.4696318145
 20
4.2766028183
 10
3.4499875622
 20
4.2966254542
 10
3.4315006018
 20
4.3181270446
 10
3.4141488788
 20
4.3412560929
 10
3.3979250416
 20
4.3660621002
 10
3.3828364417
 20
4.3924955653
 10
3.3688830791
 20
4.4205564883
  0
LWPOLYLINE
  5
3DD
100
AcDbEntity
  8
IMPORT_IGES
100
AcDbPolyline
 62
253
  6
CONTINUOUS
 90
10
 70
0
 10
-4.5100516122
 20
9.8934522446
 10
-4.5669543235
 20
9.9376315378
 10
-4.6191176702
 20
9.9842905242
 10
-4.6661494463
 20
10.0334292038
 10
-4.7077132706
 20
10.0853756674
 10
-4.743406979
 20
10.1398018242
 10
-4.7728267773
 20
10.1957234013
 10
-4.795712488
 20
10.2528123076
 10
-4.8118890926
 20
10.3113966341
 10
-4.8211864945
 20
10.3714763809
  0
LWPOLYLINE
  5
3DE
100
AcDbEntity
  8
0
100
AcDbPolyline
 62
7
  6
CONTINUOUS
 90
10
 70
0
 10
3.2126646534
 20
4.1847106797
 10
3.2618158677
 20
4.1326767591
 10
3.3138531785
 20
4.0868344395
 10
3.3687765858
 20
4.047183721
 10
3.4264037888
 20
4.0137925509
 10
3.4869170884
 20
3.9865929819
 10
3.5508633868
 20
3.9653811714
 10
3.6184249847
 20
3.9500891718
 10
3.6894195813
 20
3.9407849307
 10
3.7638471767
 20
3.937468448
  0
LWPOLYLINE
  5
3DF
100
AcDbEntity
  8
0
100
AcDbPolyline
 62
7
  6
CONTINUOUS
 90
10
 70
0
 10
4.4136425838
 20
5.6362406691
 10
4.404324167
 20
5.6926554026
 10
4.3917561915
 20
5.7461053825
 10
4.3759386572
 20
5.7965906089
 10
4.3568386646
 20
5.8440831499
 10
4.3344891132
 20
5.8886109373
 10
4.3089887023
 20
5.9302577665
 10
4.2803703316
 20
5.9690515691
 10
4.2486011014
 20
6.0049644136
 10
4.2136810117
 20
6.0379962997
  0
LWPOLYLINE
  5
3E0
100
AcDbEntity
  8
IMPORT_IGES
100
AcDbPolyline
 62
7
  6
CONTINUOUS
 90
3
 70
0
 10
6.9474190774
 20
-10.5717094399
 10
6.9474590347
 20
-10.5741874824
 10
6.9474993869
 20
-10.5750144998
  0
LINE
  5
3E1
100
AcDbEntity
  8
IMPORT_IGES
100
AcDbLine
 62
7
  6
CONTINUOUS
 10
5.95
 20
-4.8250144999
 11
5.95
 21
2.1732839692
  0
LINE
  5
3E2
100
AcDbEntity
  8
IMPORT_IGES
100
AcDbLine
 62
253
  6
CONTINUOUS
 10
6.1500000002
 20
-11.5750144999
 11
6.15
 21
-11.7750144999
  0
LINE
  5
3E3
100
AcDbEntity
  8
IMPORT_IGES
100
AcDbLine
 62
7
  6
CONTINUOUS
 10
6.25
 20
6.3749855001
 11
6.25
 21
3.7749855001
  0
LINE
  5
3E4
100
AcDbEntity
  8
IMPORT_IGES
100
AcDbLine
 62
253
  6
CONTINUOUS
 10
6.25
 20
2.6315415387
 11
6.25
 21
-5.1250144999
  0
LINE
  5
3E5
100
AcDbEntity
  8
IMPORT_IGES
100
AcDbLine
 62
7
  6
CONTINUOUS
 10
6.3
 20
9.7249855001
 11
6.3
 21
9.3249855001
  0
LWPOLYLINE
  5
3E6
100
AcDbEntity
  8
IMPORT_IGES
100
AcDbPolyline
 62
7
  6
CONTINUOUS
 90
4
 70
0
 10
6.9467915386
 20
9.3249855001
 10
6.946637557
 20
9.3219412486
 10
6.9464869876
 20
9.3128316708
 10
6.9461950162
 20
9.2767395423
  0
LWPOLYLINE
  5
3E7
100
AcDbEntity
  8
IMPORT_IGES
100
AcDbPolyline
 62
7
  6
CONTINUOUS
 90
5
 70
0
 10
7.247553483
 20
8.074995273
 10
7.2471779888
 20
8.0687425255
 10
7.2468152977
 20
8.0521299181
 10
7.2464654097
 20
8.0251574508
 10
7.2457969801
 20
7.9388505097
  0
LINE
  5
3E8
100
AcDbEntity
  8
IMPORT_IGES
100
AcDbLine
 62
7
  6
CONTINUOUS
 10
1.4855123953
 20
-7.424443142
 11
1.2831643884
 21
-7.6250144999
  0
LINE
  5
3E9
100
AcDbEntity
  8
IMPORT_IGES
100
AcDbLine
 62
7
  6
CONTINUOUS
 10
1.342079372
 20
-7.6250144999
 11
1.5438509601
 21
-7.4250144999
  0
LWPOLYLINE
  5
3EA
100
AcDbEntity
  8
0
100
AcDbPolyline
 62
7
  6
CONTINUOUS
 90
10
 70
0
 43
0.3500000006
 10
15.0000000458
 20
0.8571421509
 10
15.1428567467
 20
0.9285710678
 10
15.2142856636
 20
0.9285710678
 10
15.3571423645
 20
0.7857132339
 10
15.3571423645
 20
0.7142865829
 10
15.2857145805
 20
0.642857666
 10
15.2142856636
 20
0.642857666
 10
15.0714289627
 20
0.7142865829
 10
15.0000000458
 20
0.7857132339
 10
15.0000000458
 20
0.8571421509
  0
LINE
  5
3EB
100
AcDbEntity
  8
IMPORT_IGES
100
AcDbLine
 62
7
  6
CONTINUOUS
 10
-3.4452251974
 20
5.5717112263
 11
-3.7318553988
 21
5.5041806062
  0
LWPOLYLINE
  5
3EC
100
AcDbEntity
  8
IMPORT_IGES
100
AcDbPolyline
 62
253
  6
CONTINUOUS
 90
12
 70
0
 10
-8.0760894615
 20
5.3305715467
 10
-8.1017382078
 20
5.3265706742
 10
-8.1265073313
 20
5.3199766351
 10
-8.1499739045
 20
5.3109000441
 10
-8.171733905
 20
5.2994950847
 10
-8.1914102916
 20
5.2859582911
 10
-8.208665806
 20
5.2705215455
 10
-8.223205196
 20
5.2534488181
 10
-8.2347780071
 20
5.2350348644
 10
-8.243186878
 20
5.2155961675
 10
-8.2482895972
 20
5.1954648524
 10
-8.25
 20
5.1749855001
  0
LWPOLYLINE
  5
3ED
100
AcDbEntity
  8
0
100
AcDbPolyline
 62
7
  6
CONTINUOUS
 90
10
 70
0
 10
3.789358823
 20
6.1839896877
 10
3.7128107574
 20
6.1806504654
 10
3.6401406869
 20
6.1711819905
 10
3.5713486113
 20
6.1555842631
 10
3.5066014049
 20
6.1339070814
 10
3.4457321934
 20
6.1061006471
 10
3.3882403545
 20
6.0720155653
 10
3.3339590138
 20
6.0316020378
 10
3.2830550455
 20
5.9849098628
 10
3.2355284497
 20
5.9319390403
  0
LWPOLYLINE
  5
3EE
100
AcDbEntity
  8
IMPORT_IGES
100
AcDbPolyline
 62
7
  6
CONTINUOUS
 90
13
 70
0
 10
-4.3201228682
 20
5.9633893211
 10
-4.3653775495
 20
5.9622341118
 10
-4.4086704399
 20
5.9593401335
 10
-4.4500015394
 20
5.9547073863
 10
-4.4892683959
 20
5.9482606791
 10
-4.5265734615
 20
5.940075203
 10
-4.5622240925
 20
5.9303765312
 10
-4.5962184298
 20
5.9192037237
 10
-4.6285583325
 20
5.9065177206
 10
-4.6595567336
 20
5.8924269145
 10
-4.6893179441
 20
5.8769674365
 10
-4.7177376531
 20
5.8601031557
 10
-4.7448158605
 20
5.841834072
  0
LINE
  5
3EF
100
AcDbEntity
  8
IMPORT_IGES
100
AcDbLine
 62
7
  6
CONTINUOUS
 10
-1.164188296
 20
5.9153674682
 11
-0.4393586699
 21
5.9153674682
  0
LINE
  5
3F0
100
AcDbEntity
  8
IMPORT_IGES
100
AcDbLine
 62
7
  6
CONTINUOUS
 10
-0.1482265059
 20
5.9153674682
 11
0.5796044286
 21
5.9153674682
  0
LINE
  5
3F1
100
AcDbEntity
  8
IMPORT_IGES
100
AcDbLine
 62
7
  6
CONTINUOUS
 10
0.5796044286
 20
6.1749855001
 11
-1.164188296
 21
6.1749855001
  0
LINE
  5
3F2
100
AcDbEntity
  8
IMPORT_IGES
100
AcDbLine
 62
7
  6
CONTINUOUS
 10
-2.1321283642
 20
6.1749855001
 11
-2.4457708661
 21
6.1749855001
  0
LINE
  5
3F3
100
AcDbEntity
  8
IMPORT_IGES
100
AcDbLine
 62
7
  6
CONTINUOUS
 10
-7.3
 20
6.3499855001
 11
-7.245154408
 21
6.3499855001
  0
LINE
  5
3F4
100
AcDbEntity
  8
IMPORT_IGES
100
AcDbLine
 62
7
  6
CONTINUOUS
 10
7.2451537609
 20
6.3499855001
 11
7.3
 21
6.3499855001
  0
LINE
  5
3F5
100
AcDbEntity
  8
IMPORT_IGES
100
AcDbLine
 62
7
  6
CONTINUOUS
 10
-6.05
 20
6.5749855001
 11
6.05
 21
6.5749855001
  0
LWPOLYLINE
  5
3F6
100
AcDbEntity
  8
IMPORT_IGES
100
AcDbPolyline
 62
7
  6
CONTINUOUS
 90
10
 70
0
 10
-4.3141201202
 20
6.2125026424
 10
-4.2386131958
 20
6.2098522127
 10
-4.1665751359
 20
6.2030143585
 10
-4.0980059405
 20
6.1919890799
 10
-4.0329134072
 20
6.1765526171
 10
-3.9712897384
 20
6.1569287299
 10
-3.9131115415
 20
6.1337886972
 10
-3.8583710189
 20
6.1073562787
 10
-3.8070759682
 20
6.0774077146
 10
-3.7592263894
 20
6.043943005
  0
LWPOLYLINE
  5
3F7
100
AcDbEntity
  8
0
100
AcDbPolyline
 62
7
  6
CONTINUOUS
 90
10
 70
0
 10
3.7728512987
 20
5.9618886669
 10
3.807908272
 20
5.9603850995
 10
3.8416448215
 20
5.95604076
 10
3.8740609474
 20
5.9488556486
 10
3.9051091124
 20
5.9388500604
 10
3.9348368537
 20
5.9260037003
 10
3.9633867828
 20
5.9102556826
 10
3.9908064368
 20
5.8915857123
 10
4.0170482787
 20
5.8700140845
 10
4.0421123084
 20
5.8455407992
  0
LINE
  5
3F8
100
AcDbEntity
  8
IMPORT_IGES
100
AcDbLine
 62
253
  6
CONTINUOUS
 10
-7.9372369208
 20
9.2511803437
 11
-7.9846843049
 21
9.2669520188
  0
LWPOLYLINE
  5
3F9
100
AcDbEntity
  8
0
100
AcDbPolyline
 62
7
  6
CONTINUOUS
 90
10
 70
0
 10
4.262073639
 20
5.2025434849
 10
4.2182370862
 20
5.2447165945
 10
4.1727183107
 20
5.2818354709
 10
4.1255173126
 20
5.313900114
 10
4.0767866748
 20
5.3408370026
 10
4.0263738143
 20
5.3627196579
 10
3.9738209822
 20
5.3797686442
 10
3.9189755956
 20
5.3920574826
 10
3.8619902374
 20
5.399512652
 10
3.8028649077
 20
5.4021341522
  0
LWPOLYLINE
  5
3FA
100
AcDbEntity
  8
0
100
AcDbPolyline
 62
7
  6
CONTINUOUS
 90
10
 70
0
 10
4.0549795035
 20
5.0314657094
 10
4.0803833804
 20
5.0014991982
 10
4.1028440158
 20
4.96893606
 10
4.1223614094
 20
4.9337762946
 10
4.1389771519
 20
4.895852711
 10
4.1526496526
 20
4.8553325002
 10
4.1632541408
 20
4.8127172359
 10
4.170749026
 20
4.7681741091
 10
4.1751758986
 20
4.7215359286
 10
4.1765347585
 20
4.6728026946
  0
LWPOLYLINE
  5
3FB
100
AcDbEntity
  8
0
100
AcDbPolyline
 62
7
  6
CONTINUOUS
 90
10
 70
0
 10
4.0421123084
 20
5.8455407992
 10
4.0582446939
 20
5.8258192333
 10
4.0731297378
 20
5.8045189451
 10
4.0867674403
 20
5.7816399344
 10
4.0990607269
 20
5.7570333712
 10
4.110106672
 20
5.7308480855
 10
4.1201964991
 20
5.7035305682
 10
4.1294272826
 20
5.6752296494
 10
4.137701948
 20
5.6457964988
 10
4.1450204954
 20
5.6152311166
  0
LINE
  5
3FC
100
AcDbEntity
  8
IMPORT_IGES
100
AcDbLine
 62
253
  6
CONTINUOUS
 10
4.5217845696
 20
9.4255960494
 11
4.5503901618
 21
9.2750144998
  0
LINE
  5
3FD
100
AcDbEntity
  8
IMPORT_IGES
100
AcDbLine
 62
253
  6
CONTINUOUS
 10
4.9038561866
 20
9.2750144999
 11
4.8211849119
 21
9.7102010385
  0
LWPOLYLINE
  5
3FE
100
AcDbEntity
  8
IMPORT_IGES
100
AcDbPolyline
 62
253
  6
CONTINUOUS
 90
4
 70
0
 10
7.2474975627
 20
-10.2750144999
 10
7.2474572121
 20
-10.2746747405
 10
7.2474172561
 20
-10.2736846688
 10
7.2473776945
 20
-10.2720442848
  0
LINE
  5
3FF
100
AcDbEntity
  8
IMPORT_IGES
100
AcDbLine
 62
7
  6
CONTINUOUS
 10
7.237049713
 20
7.3058303944
 11
7.2399229223
 21
7.2649102502
  0
LWPOLYLINE
  5
400
100
AcDbEntity
  8
IMPORT_IGES
100
AcDbPolyline
 62
7
  6
CONTINUOUS
 90
13
 70
0
 10
7.1944946489
 20
7.2194819768
 10
7.1919276856
 20
7.2586392939
 10
7.1842716707
 20
7.2971266288
 10
7.1716575987
 20
7.3342854628
 10
7.1543012965
 20
7.3694800077
 10
7.1324997307
 20
7.4021080845
 10
7.1066259263
 20
7.4316114264
 10
7.0771171718
 20
7.457489384
 10
7.0444826907
 20
7.4792936189
 10
7.0092999627
 20
7.4966430988
 10
6.9721806676
 20
7.5092465732
 10
6.933755252
 20
7.5168998098
 10
6.8946806814
 20
7.5194800903
  0
LWPOLYLINE
  5
401
100
AcDbEntity
  8
IMPORT_IGES
100
AcDbPolyline
 62
7
  6
CONTINUOUS
 90
3
 70
0
 10
7.2468125069
 20
-9.0520587275
 10
7.2471767837
 20
-9.0688157234
 10
7.247553483
 20
-9.075007908
  0
LWPOLYLINE
  5
402
100
AcDbEntity
  8
IMPORT_IGES
100
AcDbPolyline
 62
7
  6
CONTINUOUS
 90
3
 70
0
 10
7.2468125069
 20
6.0979412722
 10
7.2471767837
 20
6.0811842764
 10
7.247553483
 20
6.0749920918
  0
LINE
  5
403
100
AcDbEntity
  8
IMPORT_IGES
100
AcDbLine
 62
253
  6
CONTINUOUS
 10
7.2473776945
 20
-10.2720442848
 11
7.2472994973
 21
-10.2667930566
  0
LINE
  5
404
100
AcDbEntity
  8
IMPORT_IGES
100
AcDbLine
 62
7
  6
CONTINUOUS
 10
7.2461173351
 20
-8.9861758826
 11
7.2468125069
 21
-9.0520587275
  0
LINE
  5
405
100
AcDbEntity
  8
IMPORT_IGES
100
AcDbLine
 62
7
  6
CONTINUOUS
 10
7.2461173351
 20
6.1638241169
 11
7.2468125069
 21
6.0979412722
  0
LINE
  5
406
100
AcDbEntity
  8
IMPORT_IGES
100
AcDbLine
 62
253
  6
CONTINUOUS
 10
7.2472994973
 20
-10.2667930566
 11
7.2471520835
 21
-10.2488089799
  0
LINE
  5
407
100
AcDbEntity
  8
IMPORT_IGES
100
AcDbLine
 62
253
  6
CONTINUOUS
 10
6.9346367602
 20
-8.5093921506
 11
6.9471539099
 21
-10.5095004057
  0
LINE
  5
408
100
AcDbEntity
  8
IMPORT_IGES
100
AcDbLine
 62
7
  6
CONTINUOUS
 10
7.2471520835
 20
-10.2488089799
 11
7.2346529689
 21
-8.2096692964
  0
LINE
  5
409
100
AcDbEntity
  8
IMPORT_IGES
100
AcDbLine
 62
7
  6
CONTINUOUS
 10
6.947301318
 20
-10.5544782487
 11
6.9474190774
 21
-10.5717094399
  0
LINE
  5
40A
100
AcDbEntity
  8
IMPORT_IGES
100
AcDbLine
 62
7
  6
CONTINUOUS
 10
7.228448616
 20
-5.3850704694
 11
7.2324108867
 21
-6.281941449
  0
LINE
  5
40B
100
AcDbEntity
  8
IMPORT_IGES
100
AcDbLine
 62
7
  6
CONTINUOUS
 10
7.2447153117
 20
-8.6571543672
 11
7.2461173351
 21
-8.9861758826
  0
LINE
  5
40C
100
AcDbEntity
  8
IMPORT_IGES
100
AcDbLine
 62
7
  6
CONTINUOUS
 10
7.2447153117
 20
6.4928456307
 11
7.2461173351
 21
6.1638241169
  0
LINE
  5
40D
100
AcDbEntity
  8
IMPORT_IGES
100
AcDbLine
 62
7
  6
CONTINUOUS
 10
6.9471539099
 20
-10.5095004057
 11
6.947301318
 21
-10.5544782487
  0
LINE
  5
40E
100
AcDbEntity
  8
IMPORT_IGES
100
AcDbLine
 62
253
  6
CONTINUOUS
 10
6.8944964766
 20
-8.4695091488
 11
6.8944964766
 21
7.5194801491
  0
LINE
  5
40F
100
AcDbEntity
  8
IMPORT_IGES
100
AcDbLine
 62
7
  6
CONTINUOUS
 10
7.1944946489
 20
7.2194819768
 11
7.1944946489
 21
-8.1695109765
  0
LINE
  5
410
100
AcDbEntity
  8
IMPORT_IGES
100
AcDbLine
 62
7
  6
CONTINUOUS
 10
7.2281832957
 20
-5.2281435202
 11
7.2281832957
 21
-4.0250144999
  0
LINE
  5
411
100
AcDbEntity
  8
IMPORT_IGES
100
AcDbLine
 62
7
  6
CONTINUOUS
 10
7.2281832957
 20
3.0749855
 11
7.2281832957
 21
4.2781145205
  0
LINE
  5
412
100
AcDbEntity
  8
ASSI
100
AcDbLine
 62
7
  6
CONTINUOUS
 10
7.2351646411
 20
3.0749855001
 11
7.2351646411
 21
-4.0250144999
  0
LINE
  5
413
100
AcDbEntity
  8
IMPORT_IGES
100
AcDbLine
 62
7
  6
CONTINUOUS
 10
7.25
 20
-9.9963611701
 11
7.25
 21
-9.0750144999
  0
LINE
  5
414
100
AcDbEntity
  8
IMPORT_IGES
100
AcDbLine
 62
7
  6
CONTINUOUS
 10
7.25
 20
-7.3500144999
 11
7.25
 21
-6.3250144999
  0
LINE
  5
415
100
AcDbEntity
  8
IMPORT_IGES
100
AcDbLine
 62
7
  6
CONTINUOUS
 10
7.25
 20
5.3749855001
 11
7.25
 21
6.3499855001
  0
LINE
  5
416
100
AcDbEntity
  8
IMPORT_IGES
100
AcDbLine
 62
7
  6
CONTINUOUS
 10
7.25
 20
8.0749855001
 11
7.25
 21
9.0249855001
  0
LINE
  5
417
100
AcDbEntity
  8
IMPORT_IGES
100
AcDbLine
 62
7
  6
CONTINUOUS
 10
7.3
 20
-11.2780745765
 11
7.3
 21
-6.3250144999
  0
LINE
  5
418
100
AcDbEntity
  8
IMPORT_IGES
100
AcDbLine
 62
7
  6
CONTINUOUS
 10
7.3
 20
5.3749855001
 11
7.3
 21
9.3249855001
  0
LINE
  5
419
100
AcDbEntity
  8
IMPORT_IGES
100
AcDbLine
 62
253
  6
CONTINUOUS
 10
7.7
 20
-10.7065608059
 11
7.7
 21
-6.3250144999
  0
LINE
  5
41A
100
AcDbEntity
  8
IMPORT_IGES
100
AcDbLine
 62
253
  6
CONTINUOUS
 10
7.7
 20
5.3749855001
 11
7.7
 21
9.3249855001
  0
LINE
  5
41B
100
AcDbEntity
  8
IMPORT_IGES
100
AcDbLine
 62
7
  6
CONTINUOUS
 10
7.2445342398
 20
7.5765344744
 11
7.2447153117
 21
6.4928456307
  0
LINE
  5
41C
100
AcDbEntity
  8
IMPORT_IGES
100
AcDbLine
 62
7
  6
CONTINUOUS
 10
7.2445342398
 20
-7.5734655206
 11
7.2447153117
 21
-8.6571543672
  0
LINE
  5
41D
100
AcDbEntity
  8
IMPORT_IGES
100
AcDbLine
 62
7
  6
CONTINUOUS
 10
7.2399229223
 20
7.2649102502
 11
7.2455555717
 21
8.8785388907
  0
LINE
  5
41E
100
AcDbEntity
  8
IMPORT_IGES
100
AcDbLine
 62
253
  6
CONTINUOUS
 10
6.9398615413
 20
7.5644767997
 11
6.9455573994
 21
9.0906709248
  0
LINE
  5
41F
100
AcDbEntity
  8
IMPORT_IGES
100
AcDbLine
 62
7
  6
CONTINUOUS
 10
7.2324108867
 20
5.3319124493
 11
7.228448616
 21
4.4350414697
  0
LINE
  5
420
100
AcDbEntity
  8
IMPORT_IGES
100
AcDbLine
 62
7
  6
CONTINUOUS
 10
6.9461950162
 20
9.2767395423
 11
6.945557392
 21
9.0906709249
  0
LINE
  5
421
100
AcDbEntity
  8
IMPORT_IGES
100
AcDbLine
 62
7
  6
CONTINUOUS
 10
7.2457969801
 20
7.9388505097
 11
7.2445342398
 21
7.5765344744
  0
LINE
  5
422
100
AcDbEntity
  8
IMPORT_IGES
100
AcDbLine
 62
7
  6
CONTINUOUS
 10
7.2457969801
 20
-7.2111494869
 11
7.2445342398
 21
-7.5734655206
  0
LINE
  5
423
100
AcDbEntity
  8
IMPORT_IGES
100
AcDbLine
 62
253
  6
CONTINUOUS
 10
7.2455555717
 20
8.8785388907
 11
7.2460518037
 21
8.9780489986
  0
LINE
  5
424
100
AcDbEntity
  8
IMPORT_IGES
100
AcDbLine
 62
7
  6
CONTINUOUS
 10
7.2499967765
 20
-9.9977716162
 11
7.2484853609
 21
-10.266692561
  0
LWPOLYLINE
  5
425
100
AcDbEntity
  8
IMPORT_IGES
100
AcDbPolyline
 62
253
  6
CONTINUOUS
 90
5
 70
0
 10
7.2460518037
 20
8.9780489986
 10
7.2463380159
 20
9.0079492114
 10
7.2464851699
 20
9.0172857946
 10
7.2466357349
 20
9.0229645575
 10
7.2467897109
 20
9.0249855001
  0
LINE
  5
426
100
AcDbEntity
  8
IMPORT_IGES
100
AcDbLine
 62
7
  6
CONTINUOUS
 10
7.2484853609
 20
-10.266692561
 11
7.2484026413
 21
-10.2736821784
  0
LWPOLYLINE
  5
427
100
AcDbEntity
  8
IMPORT_IGES
100
AcDbPolyline
 62
253
  6
CONTINUOUS
 90
4
 70
0
 10
7.2484402968
 20
-10.2687044127
 10
7.2483974637
 20
-10.2714576562
 10
7.2483542813
 20
-10.2734200474
 10
7.2483105821
 20
-10.2746055737
  0
LWPOLYLINE
  5
428
100
AcDbEntity
  8
IMPORT_IGES
100
AcDbPolyline
 62
7
  6
CONTINUOUS
 90
12
 70
0
 10
7.2484026413
 20
-10.2736821784
 10
7.2483363788
 20
-10.2776609707
 10
7.2482902874
 20
-10.2798262259
 10
7.2482270397
 20
-10.2822526038
 10
7.2481391854
 20
-10.2849551062
 10
7.2480049582
 20
-10.2882246725
 10
7.2477932592
 20
-10.2922687344
 10
7.2474809308
 20
-10.2969703907
 10
7.2470536123
 20
-10.3021386346
 10
7.2464808874
 20
-10.3078205714
 10
7.24573646
 20
-10.3139840324
 10
7.244839345
 20
-10.3202998166
  0
LWPOLYLINE
  5
429
100
AcDbEntity
  8
IMPORT_IGES
100
AcDbPolyline
 62
7
  6
CONTINUOUS
 90
5
 70
0
 10
7.247553483
 20
-7.0750047275
 10
7.2471779888
 20
-7.0812574741
 10
7.2468152977
 20
-7.0978700806
 10
7.2464654097
 20
-7.1248425471
 10
7.2457969801
 20
-7.2111494869
  0
LWPOLYLINE
  5
42A
100
AcDbEntity
  8
IMPORT_IGES
100
AcDbPolyline
 62
7
  6
CONTINUOUS
 90
13
 70
0
 10
7.194494649
 20
-8.1695109765
 10
7.1919643919
 20
-8.2083884891
 10
7.1844003305
 20
-8.2466738806
 10
7.171905427
 20
-8.2837143286
 10
7.1546626633
 20
-8.3188813608
 10
7.1329454983
 20
-8.3515546791
 10
7.107125004
 20
-8.3811401715
 10
7.0776326995
 20
-8.4071219334
 10
7.0449657551
 20
-8.4290431479
 10
7.009706637
 20
-8.4465032953
 10
6.9724709061
 20
-8.4591976025
 10
6.9338893199
 20
-8.4669110804
 10
6.8946251159
 20
-8.4695091196
  0
LINE
  5
42B
100
AcDbEntity
  8
IMPORT_IGES
100
AcDbLine
 62
7
  6
CONTINUOUS
 10
7.2319540256
 20
-8.2496522427
 11
7.2346529689
 21
-8.2096692964
  0
LINE
  5
42C
100
AcDbEntity
  8
IMPORT_IGES
100
AcDbLine
 62
253
  6
CONTINUOUS
 10
7.1944946489
 20
7.2194819768
 11
-7.1944946489
 21
7.2194819768
  0
LINE
  5
42D
100
AcDbEntity
  8
IMPORT_IGES
100
AcDbLine
 62
7
  6
CONTINUOUS
 10
6.8944964766
 20
7.5194801491
 11
-6.8944964766
 21
7.5194801491
  0
LINE
  5
42E
100
AcDbEntity
  8
IMPORT_IGES
100
AcDbLine
 62
7
  6
CONTINUOUS
 10
6.9398615413
 20
7.5644767997
 11
-6.9398615413
 21
7.5644767997
  0
LINE
  5
42F
100
AcDbEntity
  8
IMPORT_IGES
100
AcDbLine
 62
253
  6
CONTINUOUS
 10
8.0
 20
7.7507214314
 11
7.3
 21
7.7507214314
  0
LINE
  5
430
100
AcDbEntity
  8
IMPORT_IGES
100
AcDbLine
 62
253
  6
CONTINUOUS
 10
-7.3
 20
7.7507214314
 11
-8.0
 21
7.7507214314
  0
LWPOLYLINE
  5
431
100
AcDbEntity
  8
IMPORT_IGES
100
AcDbPolyline
 62
253
  6
CONTINUOUS
 90
13
 70
0
 10
-4.2884314973
 20
9.6088410239
 10
-4.3140087035
 20
9.6176572095
 10
-4.3392596582
 20
9.6299912337
 10
-4.3638622717
 20
9.6456857693
 10
-4.387502724
 20
9.6645406237
 10
-4.409879468
 20
9.6863152929
 10
-4.4307070761
 20
9.7107320289
 10
-4.4497203009
 20
9.7374795516
 10
-4.466676153
 20
9.7662165522
 10
-4.4813572452
 20
9.7965758582
 10
-4.4935762722
 20
9.8281698657
 10
-4.5031781344
 20
9.8605956724
 10
-4.5100407764
 20
9.8934396222
  0
LWPOLYLINE
  5
432
100
AcDbEntity
  8
0
100
AcDbPolyline
 62
7
  6
CONTINUOUS
 90
10
 70
0
 10
4.2136810117
 20
6.0379962997
 10
4.176232134
 20
6.0681216315
 10
4.1363864629
 20
6.0948129861
 10
4.0941439984
 20
6.1180703633
 10
4.0495416934
 20
6.1379497416
 10
4.002542595
 20
6.1543951426
 10
3.9530358447
 20
6.1672386313
 10
3.9009844895
 20
6.1764242291
 10
3.8464254822
 20
6.1820079146
 10
3.789358823
 20
6.1839896877
  0
LWPOLYLINE
  5
433
100
AcDbEntity
  8
IMPORT_IGES
100
AcDbPolyline
 62
253
  6
CONTINUOUS
 90
13
 70
0
 10
7.2455555717
 20
8.87853889
 10
7.2429463474
 20
8.905941834
 10
7.2353963608
 20
8.9327727016
 10
7.2230933421
 20
8.9585943352
 10
7.2064015485
 20
8.9828689225
 10
7.185593887
 20
9.0053640685
 10
7.1606261737
 20
9.0260573031
 10
7.1315741778
 20
9.0446437138
 10
7.0989693557
 20
9.060568458
 10
7.0634239085
 20
9.073406751
 10
7.0255638315
 20
9.0828484288
 10
6.9859821203
 20
9.0886656619
 10
6.9453731928
 20
9.0906712064
  0
LWPOLYLINE
  5
434
100
AcDbEntity
  8
IMPORT_IGES
100
AcDbPolyline
 62
253
  6
CONTINUOUS
 90
13
 70
0
 10
8.25
 20
5.1749855001
 10
8.2482900139
 20
5.1954623684
 10
8.2431882534
 20
5.2155921392
 10
8.2347804429
 20
5.2350302497
 10
8.2232082187
 20
5.25344471
 10
8.2086686393
 20
5.2705186485
 10
8.1914124773
 20
5.2859565763
 10
8.1717349807
 20
5.2994944372
 10
8.1499734274
 20
5.3109002602
 10
8.1265057331
 20
5.3199771542
 10
8.1017363908
 20
5.326571056
 10
8.0760881683
 20
5.3305716803
 10
8.05
 20
5.3319124493
  0
LWPOLYLINE
  5
435
100
AcDbEntity
  8
IMPORT_IGES
100
AcDbPolyline
 62
253
  6
CONTINUOUS
 90
13
 70
0
 10
7.2467897109
 20
9.0249855001
 10
7.244223185
 20
9.0641433578
 10
7.2365675211
 20
9.1026312137
 10
7.2239537098
 20
9.1397905299
 10
7.2065975769
 20
9.1749855001
 10
7.1847960907
 20
9.2076139289
 10
7.1589222806
 20
9.2371175345
 10
7.1294188547
 20
9.2629915022
 10
7.0967906248
 20
9.2847931213
 10
7.0615958689
 20
9.3021493599
 10
7.0244367791
 20
9.314763248
 10
6.9859491577
 20
9.3224189586
 10
6.9467915386
 20
9.3249855001
  0
LINE
  5
436
100
AcDbEntity
  8
IMPORT_IGES
100
AcDbLine
 62
7
  6
CONTINUOUS
 10
8.0
 20
-10.4538105078
 11
8.0
 21
-6.3250144999
  0
LINE
  5
437
100
AcDbEntity
  8
IMPORT_IGES
100
AcDbLine
 62
7
  6
CONTINUOUS
 10
8.0
 20
5.3749855001
 11
8.0
 21
9.172321968
  0
LINE
  5
438
100
AcDbEntity
  8
ASSI
100
AcDbLine
 62
253
  6
CONTINUOUS
 10
8.05
 20
4.2781145205
 11
8.05
 21
-5.2281435202
  0
LINE
  5
439
100
AcDbEntity
  8
IMPORT_IGES
100
AcDbLine
 62
253
  6
CONTINUOUS
 10
8.05
 20
-6.3250144999
 11
8.05
 21
-5.2281435202
  0
LINE
  5
43A
100
AcDbEntity
  8
IMPORT_IGES
100
AcDbLine
 62
253
  6
CONTINUOUS
 10
8.05
 20
4.2781145205
 11
8.05
 21
5.3749855001
  0
LINE
  5
43B
100
AcDbEntity
  8
ASSI
100
AcDbLine
 62
7
  6
CONTINUOUS
 10
8.25
 20
-5.2281435202
 11
8.25
 21
4.2781145205
  0
LINE
  5
43C
100
AcDbEntity
  8
IMPORT_IGES
100
AcDbLine
 62
7
  6
CONTINUOUS
 10
8.25
 20
-6.1250144999
 11
8.25
 21
5.1749855001
  0
LINE
  5
43D
100
AcDbEntity
  8
IMPORT_IGES
100
AcDbLine
 62
253
  6
CONTINUOUS
 10
7.2477932592
 20
-10.2922687344
 11
7.2474975627
 21
-10.2750144999
  0
LINE
  5
43E
100
AcDbEntity
  8
IMPORT_IGES
100
AcDbLine
 62
253
  6
CONTINUOUS
 10
7.2449310368
 20
-10.3141723575
 11
7.2474809308
 21
-10.2969703907
  0
LINE
  5
43F
100
AcDbEntity
  8
IMPORT_IGES
100
AcDbLine
 62
253
  6
CONTINUOUS
 10
7.2477932592
 20
-10.2922687344
 11
7.248266366
 21
-10.2750144999
  0
LWPOLYLINE
  5
440
100
AcDbEntity
  8
IMPORT_IGES
100
AcDbPolyline
 62
253
  6
CONTINUOUS
 90
13
 70
0
 10
8.0
 20
-9.360751712
 10
7.9974370867
 20
-9.3937190188
 10
7.9897885755
 20
-9.4261342482
 10
7.9771799742
 20
-9.4574422801
 10
7.9598194513
 20
-9.4871095956
 10
7.9380007907
 20
-9.5146220656
 10
7.9121039744
 20
-9.5394967982
 10
7.8825719637
 20
-9.5613084984
 10
7.849912047
 20
-9.5796826551
 10
7.8147019609
 20
-9.5942984876
 10
7.7775541894
 20
-9.6049103995
 10
7.7391007848
 20
-9.6113460206
 10
7.7
 20
-9.6135020086
  0
LWPOLYLINE
  5
441
100
AcDbEntity
  8
IMPORT_IGES
100
AcDbPolyline
 62
253
  6
CONTINUOUS
 90
13
 70
0
 10
8.25
 20
-5.2281435202
 10
8.2482909779
 20
-5.2486146403
 10
8.2431911697
 20
-5.2687416164
 10
8.2347848991
 20
-5.2881798265
 10
8.2232118605
 20
-5.3065977802
 10
8.208668283
 20
-5.3236770329
 10
8.1914066312
 20
-5.3391191827
 10
8.1717221883
 20
-5.3526601568
 10
8.1499528217
 20
-5.3640676102
 10
8.1264812571
 20
-5.3731431239
 10
8.1017145325
 20
-5.379733668
 10
8.0760744879
 20
-5.3837311122
 10
8.05
 20
-5.3850704694
  0
LINE
  5
442
100
AcDbEntity
  8
IMPORT_IGES
100
AcDbLine
 62
253
  6
CONTINUOUS
 10
7.2483105821
 20
-10.2746055737
 11
7.248266366
 21
-10.2750142349
  0
LWPOLYLINE
  5
443
100
AcDbEntity
  8
IMPORT_IGES
100
AcDbPolyline
 62
7
  6
CONTINUOUS
 90
11
 70
0
 10
-6.9773133371
 20
7.5620512354
 10
-7.0143398094
 20
7.5549672849
 10
-7.0505162851
 20
7.5432128926
 10
-7.0852289216
 20
7.526759344
 10
-7.1178423363
 20
7.5057846996
 10
-7.1477184051
 20
7.4806833658
 10
-7.1742617467
 20
7.4516254297
 10
-7.1969341368
 20
7.4189731864
 10
-7.2152409602
 20
7.3835033928
 10
-7.228741069
 20
7.3457629404
 10
-7.237063008
 20
7.306065722
  0
LINE
  5
444
100
AcDbEntity
  8
IMPORT_IGES
100
AcDbLine
 62
7
  6
CONTINUOUS
 10
-6.9400457464
 20
7.5644764379
 11
-6.9773133371
 21
7.5620512354
  0
LINE
  5
445
100
AcDbEntity
  8
IMPORT_IGES
100
AcDbLine
 62
253
  6
CONTINUOUS
 10
7.3
 20
8.0909397805
 11
7.2984803775
 21
8.0909003097
  0
LWPOLYLINE
  5
446
100
AcDbEntity
  8
IMPORT_IGES
100
AcDbPolyline
 62
253
  6
CONTINUOUS
 90
3
 70
0
 10
-7.298471288
 20
8.0909003809
 10
-7.2765739656
 20
8.0909529941
 10
-7.2500514306
 20
8.0909366261
  0
LINE
  5
447
100
AcDbEntity
  8
IMPORT_IGES
100
AcDbLine
 62
7
  6
CONTINUOUS
 10
-7.3
 20
7.7999855001
 11
-7.2451537572
 21
7.7999855001
  0
LINE
  5
448
100
AcDbEntity
  8
IMPORT_IGES
100
AcDbLine
 62
7
  6
CONTINUOUS
 10
7.2417906949
 20
7.7999855001
 11
7.3
 21
7.7999855001
  0
LINE
  5
449
100
AcDbEntity
  8
IMPORT_IGES
100
AcDbLine
 62
253
  6
CONTINUOUS
 10
7.3
 20
7.9628534658
 11
7.7
 21
7.9628534658
  0
LINE
  5
44A
100
AcDbEntity
  8
IMPORT_IGES
100
AcDbLine
 62
253
  6
CONTINUOUS
 10
-7.3
 20
7.9628534658
 11
-7.7
 21
7.9628534658
  0
LINE
  5
44B
100
AcDbEntity
  8
IMPORT_IGES
100
AcDbLine
 62
253
  6
CONTINUOUS
 10
5.6161486974
 20
8.6356456719
 11
-5.6161486974
 21
8.6356456719
  0
LWPOLYLINE
  5
44C
100
AcDbEntity
  8
IMPORT_IGES
100
AcDbPolyline
 62
253
  6
CONTINUOUS
 90
3
 70
0
 10
7.2984803775
 20
8.0909003097
 10
7.2865983258
 20
8.0909434318
 10
7.25
 20
8.0909366479
  0
LINE
  5
44D
100
AcDbEntity
  8
IMPORT_IGES
100
AcDbLine
 62
253
  6
CONTINUOUS
 10
-7.3000000056
 20
8.0909389821
 11
-7.298471288
 21
8.0909003809
  0
LWPOLYLINE
  5
44E
100
AcDbEntity
  8
IMPORT_IGES
100
AcDbPolyline
 62
253
  6
CONTINUOUS
 90
13
 70
0
 10
7.7
 20
7.9628534658
 10
7.739124631
 20
7.9610417386
 10
7.7775917227
 20
7.9556354678
 10
7.8147429951
 20
7.9467240399
 10
7.8499446039
 20
7.934455772
 10
7.8825890369
 20
7.9190384591
 10
7.912107924
 20
7.9007384781
 10
7.9379949396
 20
7.8798694255
 10
7.9598071178
 20
7.8567880651
 10
7.9771677326
 20
7.8318942348
 10
7.9897810565
 20
7.80561651
 10
7.9974346866
 20
7.7784036205
 10
8.0
 20
7.7507214314
  0
LINE
  5
44F
100
AcDbEntity
  8
IMPORT_IGES
100
AcDbLine
 62
7
  6
CONTINUOUS
 10
6.9396773364
 20
7.5644767454
 11
6.9771036926
 21
7.5621134577
  0
LWPOLYLINE
  5
450
100
AcDbEntity
  8
IMPORT_IGES
100
AcDbPolyline
 62
7
  6
CONTINUOUS
 90
11
 70
0
 10
6.9771036926
 20
7.5621134577
 10
7.0142441396
 20
7.5550311126
 10
7.0504875992
 20
7.5432298356
 10
7.0852102306
 20
7.5267930655
 10
7.1177973805
 20
7.505884024
 10
7.1476520259
 20
7.480742494
 10
7.1741855376
 20
7.4517066118
 10
7.196856278
 20
7.4191877844
 10
7.2151782422
 20
7.383648424
 10
7.2287038294
 20
7.3456450077
 10
7.237049713
 20
7.3058303944
  0
LWPOLYLINE
  5
451
100
AcDbEntity
  8
IMPORT_IGES
100
AcDbPolyline
 62
253
  6
CONTINUOUS
 90
13
 70
0
 10
8.0
 20
9.0249855001
 10
7.9974357066
 20
9.052662209
 10
7.9897844608
 20
9.0798715926
 10
7.9771738616
 20
9.1061478389
 10
7.9598149958
 20
9.1310424847
 10
7.9380028646
 20
9.1541261917
 10
7.9121148102
 20
9.1749976785
 10
7.8825937311
 20
9.1932999816
 10
7.8499459496
 20
9.2087192915
 10
7.8147416897
 20
9.2209884907
 10
7.7775894645
 20
9.229899964
 10
7.7391227801
 20
9.2353059795
 10
7.7
 20
9.2371175345
  0
LWPOLYLINE
  5
452
100
AcDbEntity
  8
IMPORT_IGES
100
AcDbPolyline
 62
7
  6
CONTINUOUS
 90
9
 70
0
 10
7.244839345
 20
-10.3202998166
 10
7.2438058414
 20
-10.3266101558
 10
7.2426046755
 20
-10.3330677013
 10
7.2411951518
 20
-10.3398029349
 10
7.2395056411
 20
-10.3470155565
 10
7.2375558032
 20
-10.3544864662
 10
7.2354693214
 20
-10.3617231749
 10
7.233392767
 20
-10.3683240857
 10
7.2312275857
 20
-10.3746966515
  0
LINE
  5
453
100
AcDbEntity
  8
IMPORT_IGES
100
AcDbLine
 62
253
  6
CONTINUOUS
 10
7.2426046755
 20
-10.3330677013
 11
7.245507812
 21
-10.3156043117
  0
LWPOLYLINE
  5
454
100
AcDbEntity
  8
IMPORT_IGES
100
AcDbPolyline
 62
253
  6
CONTINUOUS
 90
13
 70
0
 10
-7.7
 20
9.2371175345
 10
-7.739124631
 20
9.2353058074
 10
-7.7775917227
 20
9.2298995365
 10
-7.8147429951
 20
9.2209881086
 10
-7.8499446039
 20
9.2087198407
 10
-7.8825890369
 20
9.1933025278
 10
-7.912107924
 20
9.1750025468
 10
-7.9379949396
 20
9.1541334942
 10
-7.9598071178
 20
9.1310521338
 10
-7.9771677326
 20
9.1061583035
 10
-7.9897810565
 20
9.0798805787
 10
-7.9974346866
 20
9.0526676892
 10
-8.0
 20
9.0249855001
  0
LINE
  5
455
100
AcDbEntity
  8
IMPORT_IGES
100
AcDbLine
 62
7
  6
CONTINUOUS
 10
7.2999999978
 20
9.317169037
 11
7.0167316648
 21
9.316934411
  0
LINE
  5
456
100
AcDbEntity
  8
IMPORT_IGES
100
AcDbLine
 62
7
  6
CONTINUOUS
 10
7.8882074031
 20
9.317554439
 11
7.7667743081
 21
9.3174686671
  0
LINE
  5
457
100
AcDbEntity
  8
IMPORT_IGES
100
AcDbLine
 62
253
  6
CONTINUOUS
 10
-6.2999884671
 20
9.3699385782
 11
-7.8374997731
 21
9.3694163315
  0
LINE
  5
458
100
AcDbEntity
  8
IMPORT_IGES
100
AcDbLine
 62
253
  6
CONTINUOUS
 10
7.25
 20
9.0249855001
 11
7.2467897109
 21
9.0249855001
  0
LINE
  5
459
100
AcDbEntity
  8
IMPORT_IGES
100
AcDbLine
 62
253
  6
CONTINUOUS
 10
-7.2467897109
 20
9.0249855001
 11
-7.25
 21
9.0249855001
  0
LINE
  5
45A
100
AcDbEntity
  8
IMPORT_IGES
100
AcDbLine
 62
7
  6
CONTINUOUS
 10
-5.6240911927
 20
9.0749855001
 11
5.6240911927
 21
9.0749855001
  0
LINE
  5
45B
100
AcDbEntity
  8
IMPORT_IGES
100
AcDbLine
 62
253
  6
CONTINUOUS
 10
6.9455573994
 20
9.0906709248
 11
5.6240911927
 21
9.0906709251
  0
LINE
  5
45C
100
AcDbEntity
  8
IMPORT_IGES
100
AcDbLine
 62
253
  6
CONTINUOUS
 10
-5.6240911927
 20
9.0906709248
 11
-6.9455573994
 21
9.0906709246
  0
LINE
  5
45D
100
AcDbEntity
  8
IMPORT_IGES
100
AcDbLine
 62
253
  6
CONTINUOUS
 10
-7.9613273144
 20
9.172321968
 11
-8.0
 21
9.172321968
  0
LINE
  5
45E
100
AcDbEntity
  8
IMPORT_IGES
100
AcDbLine
 62
253
  6
CONTINUOUS
 10
7.9613273144
 20
9.172321968
 11
8.0
 21
9.172321968
  0
LINE
  5
45F
100
AcDbEntity
  8
IMPORT_IGES
100
AcDbLine
 62
253
  6
CONTINUOUS
 10
7.7
 20
9.2371175345
 11
7.3
 21
9.2371175345
  0
LINE
  5
460
100
AcDbEntity
  8
IMPORT_IGES
100
AcDbLine
 62
253
  6
CONTINUOUS
 10
-7.3
 20
9.2371175345
 11
-7.7
 21
9.2371175345
  0
LINE
  5
461
100
AcDbEntity
  8
IMPORT_IGES
100
AcDbLine
 62
7
  6
CONTINUOUS
 10
-5.3705603202
 20
9.2750144999
 11
5.3705603201
 21
9.2750144999
  0
LINE
  5
462
100
AcDbEntity
  8
IMPORT_IGES
100
AcDbLine
 62
7
  6
CONTINUOUS
 10
-6.9467915462
 20
9.3249855001
 11
-5.6339652685
 21
9.3249855001
  0
LINE
  5
463
100
AcDbEntity
  8
IMPORT_IGES
100
AcDbLine
 62
7
  6
CONTINUOUS
 10
5.6339652685
 20
9.3249855001
 11
6.9467915386
 21
9.3249855001
  0
LINE
  5
464
100
AcDbEntity
  8
IMPORT_IGES
100
AcDbLine
 62
7
  6
CONTINUOUS
 10
7.3
 20
9.3249855001
 11
7.7
 21
9.3249855001
  0
LINE
  5
465
100
AcDbEntity
  8
IMPORT_IGES
100
AcDbLine
 62
7
  6
CONTINUOUS
 10
-7.3
 20
9.3249855001
 11
-7.7
 21
9.3249855001
  0
LINE
  5
466
100
AcDbEntity
  8
IMPORT_IGES
100
AcDbLine
 62
7
  6
CONTINUOUS
 10
6.3
 20
9.5249855001
 11
5.5359030478
 21
9.5249855001
  0
LINE
  5
467
100
AcDbEntity
  8
IMPORT_IGES
100
AcDbLine
 62
7
  6
CONTINUOUS
 10
-5.5359030478
 20
9.5249855001
 11
-6.3
 21
9.5249855001
  0
LINE
  5
468
100
AcDbEntity
  8
IMPORT_IGES
100
AcDbLine
 62
253
  6
CONTINUOUS
 10
4.2884265578
 20
9.6088409764
 11
-4.288423525
 21
9.6088410223
  0
LINE
  5
469
100
AcDbEntity
  8
IMPORT_IGES
100
AcDbLine
 62
253
  6
CONTINUOUS
 10
6.2999885761
 20
9.3699358512
 11
7.8375205525
 21
9.3693765642
  0
LINE
  5
46A
100
AcDbEntity
  8
IMPORT_IGES
100
AcDbLine
 62
7
  6
CONTINUOUS
 10
-7.7667962826
 20
9.3174690133
 11
-7.8882059899
 21
9.31755544
  0
LINE
  5
46B
100
AcDbEntity
  8
IMPORT_IGES
100
AcDbLine
 62
7
  6
CONTINUOUS
 10
-7.0167362949
 20
9.3169332663
 11
-7.3000000001
 21
9.3171697475
  0
LWPOLYLINE
  5
46C
100
AcDbEntity
  8
IMPORT_IGES
100
AcDbPolyline
 62
253
  6
CONTINUOUS
 90
13
 70
0
 10
-4.5217845696
 20
9.4255960492
 10
-4.5600479338
 20
9.4286557651
 10
-4.5975294801
 20
9.4362896165
 10
-4.6336314309
 20
9.4483170121
 10
-4.6676173623
 20
9.4643945508
 10
-4.6991675072
 20
9.4842683813
 10
-4.7282510423
 20
9.5079776889
 10
-4.754456277
 20
9.5354524268
 10
-4.7770176268
 20
9.5661925664
 10
-4.7953429322
 20
9.5996126668
 10
-4.8090085744
 20
9.63512698
 10
-4.8177088301
 20
9.6721963185
 10
-4.8211880569
 20
9.7101855747
  0
LWPOLYLINE
  5
46D
100
AcDbEntity
  8
IMPORT_IGES
100
AcDbPolyline
 62
253
  6
CONTINUOUS
 90
3
 70
0
 10
7.233392767
 20
-10.3683240857
 10
7.2372753729
 20
-10.3526602134
 10
7.2449310368
 20
-10.3141723575
  0
LWPOLYLINE
  5
46E
100
AcDbEntity
  8
IMPORT_IGES
100
AcDbPolyline
 62
7
  6
CONTINUOUS
 90
29
 70
0
 10
7.2312275857
 20
-10.3746966515
 10
7.228716808
 20
-10.3815554769
 10
7.2256033261
 20
-10.3894150469
 10
7.2220355376
 20
-10.3977074887
 10
7.2183907727
 20
-10.405535801
 10
7.2151025005
 20
-10.4121326483
 10
7.2118407127
 20
-10.418302285
 10
7.2078074295
 20
-10.4254843324
 10
7.2024972817
 20
-10.4342918391
 10
7.1961819344
 20
-10.4439535199
 10
7.1891775259
 20
-10.4537999323
 10
7.1812124075
 20
-10.4640606745
 10
7.1724513792
 20
-10.4743717009
 10
7.1641189433
 20
-10.4833646674
 10
7.1573050906
 20
-10.4902001728
 10
7.1512126998
 20
-10.4959551995
 10
7.1442585477
 20
-10.5021466468
 10
7.135895504
 20
-10.5091024876
 10
7.1265384181
 20
-10.5163045386
 10
7.1158934754
 20
-10.5238173973
 10
7.1038717708
 20
-10.5315073929
 10
7.0904234319
 20
-10.5391980079
 10
7.0752826912
 20
-10.5468017603
 10
7.0582860688
 20
-10.5541148838
 10
7.0394894236
 20
-10.5608109386
 10
7.0189761402
 20
-10.5665642631
 10
6.9968053459
 20
-10.5710634575
 10
6.973011512
 20
-10.5739937179
 10
6.9482875883
 20
-10.5750157859
  0
LINE
  5
46F
100
AcDbEntity
  8
IMPORT_IGES
100
AcDbLine
 62
253
  6
CONTINUOUS
 10
-6.2214118974
 20
10.2748732875
 11
-5.4939975764
 21
10.2762787368
  0
LINE
  5
470
100
AcDbEntity
  8
IMPORT_IGES
100
AcDbLine
 62
7
  6
CONTINUOUS
 10
-6.3
 20
9.7249855001
 11
-5.5284287565
 21
9.7249855001
  0
LINE
  5
471
100
AcDbEntity
  8
IMPORT_IGES
100
AcDbLine
 62
7
  6
CONTINUOUS
 10
5.5284287663
 20
9.7249855001
 11
6.3
 21
9.7249855001
  0
LINE
  5
472
100
AcDbEntity
  8
IMPORT_IGES
100
AcDbLine
 62
253
  6
CONTINUOUS
 10
-4.2883789626
 20
10.11982767
 11
4.2883764011
 21
10.11982767
  0
LINE
  5
473
100
AcDbEntity
  8
IMPORT_IGES
100
AcDbLine
 62
7
  6
CONTINUOUS
 10
6.2231434648
 20
10.3249855001
 11
5.4893011036
 21
10.3249855001
  0
LINE
  5
474
100
AcDbEntity
  8
IMPORT_IGES
100
AcDbLine
 62
7
  6
CONTINUOUS
 10
-5.4893011133
 20
10.3249855001
 11
-6.2231434532
 21
10.3249855001
  0
LINE
  5
475
100
AcDbEntity
  8
IMPORT_IGES
100
AcDbLine
 62
253
  6
CONTINUOUS
 10
-6.0
 20
10.4249855001
 11
-5.4777260405
 21
10.4249855001
  0
LINE
  5
476
100
AcDbEntity
  8
IMPORT_IGES
100
AcDbLine
 62
253
  6
CONTINUOUS
 10
5.4777260347
 20
10.4249855001
 11
6.0
 21
10.4249855001
  0
LINE
  5
477
100
AcDbEntity
  8
IMPORT_IGES
100
AcDbLine
 62
7
  6
CONTINUOUS
 10
-5.9
 20
10.5249855001
 11
-5.4619670385
 21
10.5249855001
  0
LINE
  5
478
100
AcDbEntity
  8
IMPORT_IGES
100
AcDbLine
 62
7
  6
CONTINUOUS
 10
5.4619670242
 20
10.5249855001
 11
5.899730359
 21
10.5249855001
  0
LINE
  5
479
100
AcDbEntity
  8
IMPORT_IGES
100
AcDbLine
 62
7
  6
CONTINUOUS
 10
-5.9228380266
 20
10.5249855001
 11
-5.9467037363
 21
10.5249855001
  0
LINE
  5
47A
100
AcDbEntity
  8
IMPORT_IGES
100
AcDbLine
 62
7
  6
CONTINUOUS
 10
5.4226866561
 20
10.6250145005
 11
4.9273029486
 21
10.6250145005
  0
LINE
  5
47B
100
AcDbEntity
  8
IMPORT_IGES
100
AcDbLine
 62
7
  6
CONTINUOUS
 10
-4.9273029486
 20
10.6250145005
 11
-5.4226866561
 21
10.6250145005
  0
LINE
  5
47C
100
AcDbEntity
  8
IMPORT_IGES
100
AcDbLine
 62
253
  6
CONTINUOUS
 10
5.49399778
 20
10.2762764775
 11
6.221401536
 21
10.2748611996
  0
LWPOLYLINE
  5
47D
100
AcDbEntity
  8
IMPORT_IGES
100
AcDbPolyline
 62
253
  6
CONTINUOUS
 90
10
 70
0
 10
6.221401536
 20
10.2748611996
 10
6.2337005727
 20
10.2743633811
 10
6.2455913208
 20
10.2732719146
 10
6.2570773887
 20
10.2715868001
 10
6.2680169206
 20
10.2693450592
 10
6.2785546368
 20
10.2665096703
 10
6.2891230402
 20
10.2629695685
 10
6.2998658279
 20
10.2586877321
 10
6.3106366855
 20
10.2537011827
 10
6.3214321638
 20
10.2480099205
  0
LWPOLYLINE
  5
47E
100
AcDbEntity
  8
IMPORT_IGES
100
AcDbPolyline
 62
253
  6
CONTINUOUS
 90
10
 70
0
 10
4.2884265578
 20
9.6088409764
 10
4.3319532801
 20
9.5916735579
 10
4.3711987633
 20
9.5736596913
 10
4.4061630076
 20
9.5547993766
 10
4.4370037124
 20
9.5350283928
 10
4.4635631783
 20
9.5144109609
 10
4.4853683067
 20
9.4931397443
 10
4.5022613984
 20
9.471278964
 10
4.5144001527
 20
9.4487643991
 10
4.5217845696
 20
9.4255960494
  0
LWPOLYLINE
  5
47F
100
AcDbEntity
  8
0
100
AcDbPolyline
 62
7
  6
CONTINUOUS
 90
10
 70
0
 43
0.3500000006
 10
0.7500000165
 20
21.0250128937
 10
0.8214285793
 20
20.8821595917
 10
0.8214285793
 20
20.8107284088
 10
0.6785714536
 20
20.667870575
 10
0.6071428907
 20
20.667870575
 10
0.5357142924
 20
20.7393017578
 10
0.5357142924
 20
20.8107284088
 10
0.6071428907
 20
20.9535862427
 10
0.6785714536
 20
21.0250128937
 10
0.7500000165
 20
21.0250128937
  0
LWPOLYLINE
  5
480
100
AcDbEntity
  8
IMPORT_IGES
100
AcDbPolyline
 62
253
  6
CONTINUOUS
 90
3
 70
0
 10
7.2183907727
 20
-10.405535801
 10
7.2246615616
 20
-10.3898195296
 10
7.2312275857
 20
-10.3746966515
  0
LWPOLYLINE
  5
481
100
AcDbEntity
  8
IMPORT_IGES
100
AcDbPolyline
 62
253
  6
CONTINUOUS
 90
13
 70
0
 10
-4.5217845696
 20
10.5978580375
 10
-4.559870619
 20
10.5948279399
 10
-4.5973389217
 20
10.5881751335
 10
-4.633581751
 20
10.5780075252
 10
-4.6680112567
 20
10.5644900311
 10
-4.7000690006
 20
10.5478419019
 10
-4.7292350137
 20
10.5283331662
 10
-4.7550362303
 20
10.506280251
 10
-4.7770541608
 20
10.4820408493
 10
-4.7949316797
 20
10.4560081183
 10
-4.8083788178
 20
10.4286043029
 10
-4.8171774658
 20
10.4002738862
 10
-4.8211849118
 20
10.3714763809
  0
LWPOLYLINE
  5
482
100
AcDbEntity
  8
IMPORT_IGES
100
AcDbPolyline
 62
253
  6
CONTINUOUS
 90
13
 70
0
 10
4.5217845696
 20
10.5978580375
 10
4.5595583142
 20
10.5948678383
 10
4.5965799342
 20
10.5883475288
 10
4.6322744863
 20
10.5784429492
 10
4.6659323864
 20
10.5654250699
 10
4.697244079
 20
10.5494910062
 10
4.7261804059
 20
10.5306119223
 10
4.7523472058
 20
10.5088478302
 10
4.7750061652
 20
10.484586741
 10
4.7935831005
 20
10.4582764627
 10
4.8076644302
 20
10.4303648788
 10
4.8169497113
 20
10.4012650859
 10
4.8211837424
 20
10.371461404
  0
LWPOLYLINE
  5
483
100
AcDbEntity
  8
IMPORT_IGES
100
AcDbPolyline
 62
253
  6
CONTINUOUS
 90
10
 70
0
 10
4.5100439642
 20
9.8934450552
 10
4.5686035832
 20
9.8759324586
 10
4.6215959763
 20
9.8576598279
 10
4.668775718
 20
9.8386271631
 10
4.7098398595
 20
9.8187703686
 10
4.7447438174
 20
9.7981535401
 10
4.7735482684
 20
9.7769689641
 10
4.7960621974
 20
9.7552807363
 10
4.8119984374
 20
9.7330247611
 10
4.8211843102
 20
9.7102010385
  0
LWPOLYLINE
  5
484
100
AcDbEntity
  8
IMPORT_IGES
100
AcDbPolyline
 62
253
  6
CONTINUOUS
 90
10
 70
0
 10
7.8499848227
 20
9.4321193973
 10
7.8465950575
 20
9.4332397665
 10
7.8424712223
 20
9.4330778251
 10
7.837710772
 20
9.4316103415
 10
7.8323919954
 20
9.4288607616
 10
7.82658552
 20
9.4248653648
 10
7.820346297
 20
9.4196537934
 10
7.8137520259
 20
9.4132747829
 10
7.806908967
 20
9.4058150137
 10
7.7999204227
 20
9.3973735852
  0
LWPOLYLINE
  5
485
100
AcDbEntity
  8
IMPORT_IGES
100
AcDbPolyline
 62
253
  6
CONTINUOUS
 90
10
 70
0
 10
4.2884314973
 20
10.1198276699
 10
4.3189021375
 20
10.1043337074
 10
4.3489076499
 20
10.0856205885
 10
4.3779900065
 20
10.0639739651
 10
4.4057052713
 20
10.0397242683
 10
4.4316303766
 20
10.0132416647
 10
4.4553695811
 20
9.9849304056
 10
4.4765605108
 20
9.9552226565
 10
4.4948796906
 20
9.9245718999
 10
4.5100474822
 20
9.8934460132
  0
LINE
  5
486
100
AcDbEntity
  8
IMPORT_IGES
100
AcDbLine
 62
7
  6
CONTINUOUS
 10
7.2999999989
 20
8.5949716988
 11
7.25
 21
8.6238392116
  0
LWPOLYLINE
  5
487
100
AcDbEntity
  8
0
100
AcDbPolyline
 62
7
  6
CONTINUOUS
 90
10
 70
0
 43
0.3500000006
 10
12.5000004158
 20
3.0000005951
 10
13.1428572693
 20
2.3571426086
 10
13.9999997406
 20
1.928571373
 10
15.0714289627
 20
1.928571373
 10
15.5000001984
 20
2.3571426086
 10
15.5000001984
 20
3.0000005951
 10
15.0714289627
 20
3.4285718307
 10
14.2142853584
 20
3.4285718307
 10
13.7857141228
 20
3.0000005951
 10
13.7857141228
 20
2.0714292068
  0
LWPOLYLINE
  5
488
100
AcDbEntity
  8
0
100
AcDbPolyline
 62
7
  6
CONTINUOUS
 90
5
 70
0
 43
0.3500000006
 10
13.7857141228
 20
-1.0714295425
 10
13.5714285049
 20
-0.7142849579
 10
12.9285716515
 20
-0.7142849579
 10
12.5000004158
 20
-1.0714295425
 10
12.5000004158
 20
-1.9285708809
  0
LWPOLYLINE
  5
489
100
AcDbEntity
  8
IMPORT_IGES
100
AcDbPolyline
 62
253
  6
CONTINUOUS
 90
10
 70
0
 10
7.9846836142
 20
9.2669554803
 10
7.9799889509
 20
9.2792368397
 10
7.9742092815
 20
9.2910569013
 10
7.9673913216
 20
9.3022845601
 10
7.9595998013
 20
9.3128460239
 10
7.9509494206
 20
9.3225980319
 10
7.9415919818
 20
9.3313285063
 10
7.931669058
 20
9.3389373805
 10
7.9213137325
 20
9.3454433394
 10
7.9106737051
 20
9.3508481308
  0
LINE
  5
48A
100
AcDbEntity
  8
IMPORT_IGES
100
AcDbLine
 62
7
  6
CONTINUOUS
 10
7.3
 20
-9.8638610141
 11
7.25
 21
-9.9138610141
  0
LINE
  5
48B
100
AcDbEntity
  8
IMPORT_IGES
100
AcDbLine
 62
7
  6
CONTINUOUS
 10
6.5888465143
 20
-10.5750144999
 11
6.3888465143
 21
-10.7750144999
  0
LINE
  5
48C
100
AcDbEntity
  8
IMPORT_IGES
100
AcDbLine
 62
253
  6
CONTINUOUS
 10
6.4716892268
 20
-10.9750144999
 11
6.8716892268
 21
-10.5750144999
  0
LINE
  5
48D
100
AcDbEntity
  8
IMPORT_IGES
100
AcDbLine
 62
253
  6
CONTINUOUS
 10
7.246851995
 20
-10.1998517316
 11
7.3
 21
-10.1467037266
  0
LWPOLYLINE
  5
48E
100
AcDbEntity
  8
IMPORT_IGES
100
AcDbPolyline
 62
253
  6
CONTINUOUS
 90
9
 70
0
 10
7.061649089
 20
-10.5527636961
 10
7.0960195758
 20
-10.5361069416
 10
7.127862777
 20
-10.5153172104
 10
7.1571456649
 20
-10.4903506799
 10
7.183439115
 20
-10.4612776577
 10
7.2059498359
 20
-10.4286353392
 10
7.2240667008
 20
-10.3930579526
 10
7.2373560862
 20
-10.355184146
 10
7.2411951518
 20
-10.3398029349
  0
LINE
  5
48F
100
AcDbEntity
  8
IMPORT_IGES
100
AcDbLine
 62
7
  6
CONTINUOUS
 10
4.9273029486
 20
11.7750144998
 11
-4.9273029486
 21
11.7750144998
  0
LWPOLYLINE
  5
490
100
AcDbEntity
  8
IMPORT_IGES
100
AcDbPolyline
 62
253
  6
CONTINUOUS
 90
10
 70
0
 10
6.3731228088
 20
10.2847860787
 10
6.3696187472
 20
10.2859222092
 10
6.3653727928
 20
10.2857049753
 10
6.3604590277
 20
10.2841220656
 10
6.3549575375
 20
10.2811943397
 10
6.3489451657
 20
10.2769581986
 10
6.3424885882
 20
10.2714491587
 10
6.335675479
 20
10.2647245451
 10
6.3286190117
 20
10.2568794004
 10
6.3214316881
 20
10.2480240509
  0
LWPOLYLINE
  5
491
100
AcDbEntity
  8
IMPORT_IGES
100
AcDbPolyline
 62
253
  6
CONTINUOUS
 90
10
 70
0
 10
7.9106737051
 20
9.3508481308
 10
7.9036199228
 20
9.3538069426
 10
7.8962352501
 20
9.3565922436
 10
7.8885494738
 20
9.3591756506
 10
7.8806150456
 20
9.3615203504
 10
7.8724466443
 20
9.3636177508
 10
7.8640203357
 20
9.3654770084
 10
7.8553540086
 20
9.3670816761
 10
7.8465071597
 20
9.3684004733
 10
7.8375205249
 20
9.3694161771
  0
LINE
  5
492
100
AcDbEntity
  8
IMPORT_IGES
100
AcDbLine
 62
7
  6
CONTINUOUS
 10
7.8499847782
 20
9.4321194231
 11
6.3731227705
 21
10.2847861008
  0
LINE
  5
493
100
AcDbEntity
  8
IMPORT_IGES
100
AcDbLine
 62
7
  6
CONTINUOUS
 10
6.3214316881
 20
10.2480240509
 11
7.7999204227
 21
9.3973735852
  0
LWPOLYLINE
  5
494
100
AcDbEntity
  8
IMPORT_IGES
100
AcDbPolyline
 62
253
  6
CONTINUOUS
 90
6
 70
0
 10
7.7999204445
 20
9.3973602546
 10
7.8042927096
 20
9.3947717193
 10
7.8086190169
 20
9.3920556652
 10
7.8128988699
 20
9.3892120925
 10
7.8171335016
 20
9.3862430969
 10
7.821320561
 20
9.3831465825
  0
LWPOLYLINE
  5
495
100
AcDbEntity
  8
IMPORT_IGES
100
AcDbPolyline
 62
253
  6
CONTINUOUS
 90
10
 70
0
 10
7.8882074031
 20
9.317554439
 10
7.8952280406
 20
9.3124242216
 10
7.901911324
 20
9.3066733821
 10
7.9082572535
 20
9.3003019206
 10
7.914341521
 20
9.2932275578
 10
7.9200884346
 20
9.2855325729
 10
7.9252709179
 20
9.2774638038
 10
7.929813279
 20
9.2691035299
 10
7.9337912098
 20
9.2603694718
 10
7.9372047104
 20
9.2512616294
  0
LWPOLYLINE
  5
496
100
AcDbEntity
  8
IMPORT_IGES
100
AcDbPolyline
 62
253
  6
CONTINUOUS
 90
4
 70
0
 10
7.821320561
 20
9.3831465825
 10
7.8254540718
 20
9.3799162623
 10
7.8295315318
 20
9.3765500403
 10
7.8335539542
 20
9.3730500124
  0
LWPOLYLINE
  5
497
100
AcDbEntity
  8
IMPORT_IGES
100
AcDbPolyline
 62
253
  6
CONTINUOUS
 90
10
 70
0
 10
7.8375205525
 20
9.3693765642
 10
7.8441616047
 20
9.3641662207
 10
7.8505456165
 20
9.3587716396
 10
7.8566725779
 20
9.3532108808
 10
7.862536117
 20
9.3475000455
 10
7.8681425837
 20
9.3416616904
 10
7.8735110497
 20
9.3357252583
 10
7.8786478638
 20
9.3297152993
 10
7.8835466525
 20
9.3236509044
 10
7.8882074031
 20
9.3175544399
  0
LINE
  5
498
100
AcDbEntity
  8
IMPORT_IGES
100
AcDbLine
 62
253
  6
CONTINUOUS
 10
7.8335539542
 20
9.3730500124
 11
7.8375205249
 21
9.3694161785
  0
LWPOLYLINE
  5
499
100
AcDbEntity
  8
0
100
AcDbPolyline
 62
7
  6
CONTINUOUS
 90
7
 70
0
 43
0.3500000006
 10
15.5000001984
 20
-2.7857144852
 10
15.5000001984
 20
-4.28571381
 10
13.3571428871
 20
-2.7857144852
 10
12.9285716515
 20
-2.7857144852
 10
12.5000004158
 20
-3.2142857208
 10
12.5000004158
 20
-3.8571425743
 10
13.1428572693
 20
-4.28571381
  0
LWPOLYLINE
  5
49A
100
AcDbEntity
  8
0
100
AcDbPolyline
 62
7
  6
CONTINUOUS
 90
6
 70
0
 43
0.3500000006
 10
15.5000001984
 20
-1.9285708809
 10
15.5000001984
 20
-0.8571427917
 10
15.2857145805
 20
-0.642856041
 10
14.2142853584
 20
-0.642856041
 10
13.7857141228
 20
-1.0714295425
 10
13.7857141228
 20
-1.4999996452
  0
LINE
  5
49B
100
AcDbEntity
  8
IMPORT_IGES
100
AcDbLine
 62
253
  6
CONTINUOUS
 10
7.7
 20
-10.7065608059
 11
7.3
 21
-11.1065608046
  0
LINE
  5
49C
100
AcDbEntity
  8
IMPORT_IGES
100
AcDbLine
 62
7
  6
CONTINUOUS
 10
7.9121320343
 20
-10.6659425422
 11
7.0909280423
 21
-11.4871465342
  0
LWPOLYLINE
  5
49D
100
AcDbEntity
  8
IMPORT_IGES
100
AcDbPolyline
 62
253
  6
CONTINUOUS
 90
7
 70
0
 10
7.9147361028
 20
-10.6303107575
 10
7.9403303181
 20
-10.6050889171
 10
7.961681298
 20
-10.5774111696
 10
7.9784421505
 20
-10.5478917631
 10
7.9904394171
 20
-10.5171100074
 10
7.9976217196
 20
-10.4855730411
 10
8.0
 20
-10.4538105078
  0
LWPOLYLINE
  5
49E
100
AcDbEntity
  8
IMPORT_IGES
100
AcDbPolyline
 62
253
  6
CONTINUOUS
 90
10
 70
0
 10
7.9121320343
 20
-10.6659425422
 10
7.8947187792
 20
-10.681079995
 10
7.8752165353
 20
-10.6937792474
 10
7.8538345273
 20
-10.7039040587
 10
7.8308021463
 20
-10.7113458078
 10
7.8063664892
 20
-10.7160246576
 10
7.7807897073
 20
-10.7178904125
 10
7.7543461946
 20
-10.7169230561
 10
7.7273196431
 20
-10.7131329665
 10
7.7
 20
-10.7065608046
  0
LWPOLYLINE
  5
49F
100
AcDbEntity
  8
IMPORT_IGES
100
AcDbPolyline
 62
253
  6
CONTINUOUS
 90
4
 70
0
 10
7.8168055785
 20
-10.6866160438
 10
7.8524153097
 20
-10.671511155
 10
7.8852780468
 20
-10.6525979786
 10
7.9147361028
 20
-10.6303107575
  0
LWPOLYLINE
  5
4A0
100
AcDbEntity
  8
0
100
AcDbPolyline
 62
7
  6
CONTINUOUS
 90
8
 70
0
 43
0.3500000006
 10
1.8214286013
 20
20.5250127411
 10
2.6785713558
 20
20.5250127411
 10
3.1071428747
 20
20.9535862427
 10
3.1071428747
 20
21.810728714
 10
2.6785713558
 20
22.2393022156
 10
1.8214286013
 20
22.2393022156
 10
1.8214286013
 20
23.5250136566
 10
3.1071428747
 20
23.5250136566
  0
LWPOLYLINE
  5
4A1
100
AcDbEntity
  8
0
100
AcDbPolyline
 62
7
  6
CONTINUOUS
 90
5
 70
0
 43
0.3500000006
 10
-48.7632705688
 20
32.2393007355
 10
-48.4061282501
 20
32.4535852203
 10
-48.4061282501
 20
33.0964432068
 10
-48.7632705688
 20
33.5250167084
 10
-49.6204130402
 20
33.5250167084
  0
LWPOLYLINE
  5
4A2
100
AcDbEntity
  8
IMPORT_IGES
100
AcDbPolyline
 62
253
  6
CONTINUOUS
 90
3
 70
0
 10
-63.9234833844
 20
-8.4591976025
 10
-63.9233756339
 20
-8.4669110804
 10
-63.9232476444
 20
-8.4695091196
  0
LINE
  5
4A3
100
AcDbEntity
  8
IMPORT_IGES
100
AcDbLine
 62
253
  6
CONTINUOUS
 10
-63.9236311809
 20
-8.4290431479
 11
-63.9234833844
 21
-8.4591976025
  0
LINE
  5
4A4
100
AcDbEntity
  8
IMPORT_IGES
100
AcDbLine
 62
7
  6
CONTINUOUS
 10
-64.2222
 20
-8.1695109765
 11
-64.2222
 21
7.2194819768
  0
LINE
  5
4A5
100
AcDbEntity
  8
IMPORT_IGES
100
AcDbLine
 62
253
  6
CONTINUOUS
 10
-63.9232471954
 20
-8.1695109765
 11
-63.923668275
 21
7.457489384
  0
LINE
  5
4A6
100
AcDbEntity
  8
IMPORT_IGES
100
AcDbLine
 62
253
  6
CONTINUOUS
 10
-63.9234813099
 20
-8.2466738806
 11
-63.9236311809
 21
-8.4290431479
  0
LINE
  5
4A7
100
AcDbEntity
  8
IMPORT_IGES
100
AcDbLine
 62
253
  6
CONTINUOUS
 10
-63.9232471954
 20
-8.1695109765
 11
-63.9234813099
 21
-8.2466738806
  0
LWPOLYLINE
  5
4A8
100
AcDbEntity
  8
IMPORT_IGES
100
AcDbPolyline
 62
253
  6
CONTINUOUS
 90
5
 70
0
 10
-63.923668275
 20
7.457489384
 10
-63.9235682201
 20
7.4966430988
 10
-63.9234826434
 20
7.5092465732
 10
-63.9233752278
 20
7.5168998098
 10
-63.9232478382
 20
7.5194800903
  0
LWPOLYLINE
  5
4A9
100
AcDbEntity
  8
IMPORT_IGES
100
AcDbPolyline
 62
253
  6
CONTINUOUS
 90
10
 70
0
 10
-58.3756648563
 20
10.1198276699
 10
-58.3899934393
 20
10.1043337074
 10
-58.4010983705
 20
10.0856205885
 10
-58.4088101354
 20
10.0639739651
 10
-58.4130110156
 20
10.0397242683
 10
-58.4136368853
 20
10.0132416647
 10
-58.410678191
 20
9.9849304056
 10
-58.4041800964
 20
9.9552226565
 10
-58.3942417936
 20
9.9245718999
 10
-58.3810149886
 20
9.8934460132
  0
LINE
  5
4AA
100
AcDbEntity
  8
IMPORT_IGES
100
AcDbLine
 62
7
  6
CONTINUOUS
 10
-56.4722000019
 20
11.7750144998
 11
-58.3756648562
 21
10.11982767
  0
LWPOLYLINE
  5
4AB
100
AcDbEntity
  8
IMPORT_IGES
100
AcDbPolyline
 62
253
  6
CONTINUOUS
 90
13
 70
0
 10
-57.6480351334
 20
9.7102010526
 10
-57.6599558195
 20
9.6738275007
 10
-57.6713239869
 20
9.6381973538
 10
-57.681962249
 20
9.6038788769
 10
-57.691660143
 20
9.5715721003
 10
-57.7003332621
 20
9.5415809903
 10
-57.7079692346
 20
9.5139348479
 10
-57.7144423807
 20
9.4890248478
 10
-57.7195433671
 20
9.4675788054
 10
-57.7231233455
 20
9.4501599088
 10
-57.7250870729
 20
9.4371708325
 10
-57.7253737243
 20
9.4289019237
 10
-57.723944649
 20
9.4255960494
  0
LINE
  5
4AC
100
AcDbEntity
  8
IMPORT_IGES
100
AcDbLine
 62
253
  6
CONTINUOUS
 10
-57.6480540953
 20
10.3714620216
 11
-56.0339662549
 21
11.7750144998
  0
LINE
  5
4AD
100
AcDbEntity
  8
IMPORT_IGES
100
AcDbLine
 62
253
  6
CONTINUOUS
 10
-57.6480540953
 20
10.3714620216
 11
-57.7393467096
 21
10.3113845833
  0
LINE
  5
4AE
100
AcDbEntity
  8
IMPORT_IGES
100
AcDbLine
 62
253
  6
CONTINUOUS
 10
-58.314020999
 20
9.9375109836
 11
-58.3810188444
 21
9.8934450552
  0
LINE
  5
4AF
100
AcDbEntity
  8
IMPORT_IGES
100
AcDbLine
 62
253
  6
CONTINUOUS
 10
-57.7393467096
 20
10.3113845833
 11
-58.314020999
 21
9.9375109836
  0
LWPOLYLINE
  5
4B0
100
AcDbEntity
  8
IMPORT_IGES
100
AcDbPolyline
 62
253
  6
CONTINUOUS
 90
13
 70
0
 10
-58.3810149886
 20
9.8934460132
 10
-58.3858551669
 20
9.8553850751
 10
-58.3875939703
 20
9.819755849
 10
-58.3863704043
 20
9.7867521653
 10
-58.3822882247
 20
9.7558872957
 10
-58.375356555
 20
9.727507446
 10
-58.3662597941
 20
9.7025307107
 10
-58.3554558172
 20
9.6802044363
 10
-58.3423788233
 20
9.6600031776
 10
-58.327472568
 20
9.6428340315
 10
-58.3113156016
 20
9.6287789443
 10
-58.2934580525
 20
9.6173658184
 10
-58.2736795717
 20
9.6088410239
  0
LINE
  5
4B1
100
AcDbEntity
  8
IMPORT_IGES
100
AcDbLine
 62
7
  6
CONTINUOUS
 10
-56.3222
 20
-9.8250144998
 11
-58.6880703409
 21
-8.4877834376
  0
LWPOLYLINE
  5
4B2
100
AcDbEntity
  8
IMPORT_IGES
100
AcDbPolyline
 62
253
  6
CONTINUOUS
 90
13
 70
0
 10
-57.8259299335
 20
10.5978580375
 10
-57.8257216875
 20
10.5948678383
 10
-57.822396154
 20
10.5883475288
 10
-57.8160437437
 20
10.5784429492
 10
-57.8068551505
 20
10.5654250699
 10
-57.794982177
 20
10.5494910062
 10
-57.7803979023
 20
10.5306119223
 10
-57.7631283824
 20
10.5088478302
 10
-57.7434654355
 20
10.484586741
 10
-57.7217656085
 20
10.4582764627
 10
-57.6983933454
 20
10.4303648788
 10
-57.6736876668
 20
10.4012650859
 10
-57.6480535603
 20
10.371461404
  0
LINE
  5
4B3
100
AcDbEntity
  8
IMPORT_IGES
100
AcDbLine
 62
253
  6
CONTINUOUS
 10
-57.6480540953
 20
10.3714620216
 11
-57.6480350908
 21
9.7102010385
  0
LWPOLYLINE
  5
4B4
100
AcDbEntity
  8
0
100
AcDbPolyline
 62
7
  6
CONTINUOUS
 90
10
 70
0
 43
0.3500000006
 10
-42.7097021484
 20
20.5250127411
 10
-41.8525551453
 20
21.3821552124
 10
-41.6382706604
 20
22.2393022156
 10
-41.6382706604
 20
23.0964446869
 10
-42.066844162
 20
23.5250136566
 10
-42.7097021484
 20
23.5250136566
 10
-43.1382711182
 20
23.0964446869
 10
-43.1382711182
 20
22.2393022156
 10
-42.7097021484
 20
21.810728714
 10
-41.7811284943
 20
21.810728714
  0
LINE
  5
4B5
100
AcDbEntity
  8
IMPORT_IGES
100
AcDbLine
 62
7
  6
CONTINUOUS
 10
-34.965421329
 20
-10.9937295011
 11
-34.9245363043
 21
-10.9872051045
  0
LWPOLYLINE
  5
4B6
100
AcDbEntity
  8
IMPORT_IGES
100
AcDbPolyline
 62
253
  6
CONTINUOUS
 90
3
 70
0
 10
-36.0485339256
 20
-10.9436168288
 10
-36.0104474109
 20
-10.9380874296
 10
-35.9722466158
 20
-10.9366532199
  0
LWPOLYLINE
  5
4B7
100
AcDbEntity
  8
IMPORT_IGES
100
AcDbPolyline
 62
253
  6
CONTINUOUS
 90
7
 70
0
 10
-34.897688762
 20
-10.9478011652
 10
-34.8643198465
 20
-10.9439924057
 10
-34.83130917
 20
-10.9361836813
 10
-34.7992620518
 20
-10.9245183356
 10
-34.768654442
 20
-10.9089861756
 10
-34.7398130598
 20
-10.8894550592
 10
-34.7131235741
 20
-10.8659380739
  0
LINE
  5
4B8
100
AcDbEntity
  8
IMPORT_IGES
100
AcDbLine
 62
7
  6
CONTINUOUS
 10
-45.1722
 20
-11.7750144999
 11
-44.6722
 21
-11.7750144999
  0
LINE
  5
4B9
100
AcDbEntity
  8
IMPORT_IGES
100
AcDbLine
 62
7
  6
CONTINUOUS
 10
-38.4722
 20
-11.7750144999
 11
-37.9722
 21
-11.7750144999
  0
LINE
  5
4BA
100
AcDbEntity
  8
IMPORT_IGES
100
AcDbLine
 62
7
  6
CONTINUOUS
 10
-40.0853386679
 20
-11.7750144999
 11
-43.1213636995
 21
-11.7750144999
  0
LINE
  5
4BB
100
AcDbEntity
  8
IMPORT_IGES
100
AcDbLine
 62
253
  6
CONTINUOUS
 10
-56.5222
 20
-9.7119710216
 11
-56.5222
 21
-8.4953437821
  0
LINE
  5
4BC
100
AcDbEntity
  8
IMPORT_IGES
100
AcDbLine
 62
7
  6
CONTINUOUS
 10
-56.0222
 20
-8.4970891184
 11
-56.0222
 21
-9.8250144999
  0
LINE
  5
4BD
100
AcDbEntity
  8
IMPORT_IGES
100
AcDbLine
 62
7
  6
CONTINUOUS
 10
-55.9722000014
 20
10.6250145005
 11
-55.9722000014
 21
11.7750144998
  0
LINE
  5
4BE
100
AcDbEntity
  8
IMPORT_IGES
100
AcDbLine
 62
7
  6
CONTINUOUS
 10
-34.9960136095
 20
-10.9952522999
 11
-34.965421329
 21
-10.9937295011
  0
LINE
  5
4BF
100
AcDbEntity
  8
IMPORT_IGES
100
AcDbLine
 62
253
  6
CONTINUOUS
 10
-35.9800048849
 20
-11.3750145566
 11
-36.1795884583
 21
-11.3762560942
  0
LINE
  5
4C0
100
AcDbEntity
  8
IMPORT_IGES
100
AcDbLine
 62
7
  6
CONTINUOUS
 10
-47.3153517912
 20
-11.2767142998
 11
-47.755337478
 21
-11.2773944381
  0
LINE
  5
4C1
100
AcDbEntity
  8
IMPORT_IGES
100
AcDbLine
 62
253
  6
CONTINUOUS
 10
-37.8722
 20
-11.6750144999
 11
-38.5722
 21
-11.6750144999
  0
LINE
  5
4C2
100
AcDbEntity
  8
IMPORT_IGES
100
AcDbLine
 62
253
  6
CONTINUOUS
 10
-44.5722
 20
-11.6750144999
 11
-45.2722
 21
-11.6750144999
  0
LINE
  5
4C3
100
AcDbEntity
  8
IMPORT_IGES
100
AcDbLine
 62
7
  6
CONTINUOUS
 10
-35.6293067814
 20
-11.5750144999
 11
-46.6160669824
 21
-11.5750144999
  0
LINE
  5
4C4
100
AcDbEntity
  8
IMPORT_IGES
100
AcDbLine
 62
253
  6
CONTINUOUS
 10
-46.8210922356
 20
-11.4871465342
 11
-36.3798014655
 21
-11.4871465342
  0
LINE
  5
4C5
100
AcDbEntity
  8
IMPORT_IGES
100
AcDbLine
 62
253
  6
CONTINUOUS
 10
-35.6293067812
 20
-11.3750144999
 11
-35.9800048848
 21
-11.3750145282
  0
LINE
  5
4C6
100
AcDbEntity
  8
IMPORT_IGES
100
AcDbLine
 62
7
  6
CONTINUOUS
 10
-35.9722466096
 20
-10.995231864
 11
-34.9960122773
 21
-10.995231864
  0
LINE
  5
4C7
100
AcDbEntity
  8
IMPORT_IGES
100
AcDbLine
 62
253
  6
CONTINUOUS
 10
-34.9959707537
 20
-10.9366532201
 11
-35.9722466158
 21
-10.9366532199
  0
LINE
  5
4C8
100
AcDbEntity
  8
IMPORT_IGES
100
AcDbLine
 62
253
  6
CONTINUOUS
 10
-48.7126918838
 20
-10.6659425322
 11
-34.7252600712
 21
-10.6659425367
  0
LINE
  5
4C9
100
AcDbEntity
  8
IMPORT_IGES
100
AcDbLine
 62
253
  6
CONTINUOUS
 10
-48.7126918996
 20
-10.4538105078
 11
-34.7252600767
 21
-10.4538105078
  0
LINE
  5
4CA
100
AcDbEntity
  8
IMPORT_IGES
100
AcDbLine
 62
7
  6
CONTINUOUS
 10
-47.3149858192
 20
-11.2754778555
 11
-46.6160669824
 21
-11.5750144999
  0
LINE
  5
4CB
100
AcDbEntity
  8
IMPORT_IGES
100
AcDbLine
 62
7
  6
CONTINUOUS
 10
-52.4976552141
 20
-8.5093921506
 11
-50.6388364583
 21
-9.5679483022
  0
LINE
  5
4CC
100
AcDbEntity
  8
IMPORT_IGES
100
AcDbLine
 62
253
  6
CONTINUOUS
 10
-50.7222
 20
-9.1758356037
 11
-52.4187826993
 21
-8.2096692964
  0
LINE
  5
4CD
100
AcDbEntity
  8
IMPORT_IGES
100
AcDbLine
 62
253
  6
CONTINUOUS
 10
-47.755337478
 20
-11.2773944381
 11
-48.7126918838
 21
-10.6659425322
  0
LINE
  5
4CE
100
AcDbEntity
  8
IMPORT_IGES
100
AcDbLine
 62
7
  6
CONTINUOUS
 10
-48.2487134598
 20
-11.1065608046
 11
-50.583808439
 21
-9.6135020086
  0
LINE
  5
4CF
100
AcDbEntity
  8
IMPORT_IGES
100
AcDbLine
 62
253
  6
CONTINUOUS
 10
-48.7126918996
 20
-10.4538105078
 11
-50.4222
 21
-9.360751712
  0
LINE
  5
4D0
100
AcDbEntity
  8
0
100
AcDbLine
 62
7
  6
CONTINUOUS
 10
-55.2429119943
 20
10.6250145005
 11
-55.2429119943
 21
10.7250145005
  0
LINE
  5
4D1
100
AcDbEntity
  8
0
100
AcDbLine
 62
7
  6
CONTINUOUS
 10
-55.2192295525
 20
10.6250145005
 11
-55.2192295525
 21
10.7250145005
  0
LINE
  5
4D2
100
AcDbEntity
  8
0
100
AcDbLine
 62
7
  6
CONTINUOUS
 10
-55.210428886
 20
10.6250145005
 11
-55.210428886
 21
10.7250145005
  0
LINE
  5
4D3
100
AcDbEntity
  8
0
100
AcDbLine
 62
7
  6
CONTINUOUS
 10
-55.1574620063
 20
10.6250145005
 11
-55.1574620063
 21
10.7250145005
  0
LINE
  5
4D4
100
AcDbEntity
  8
0
100
AcDbLine
 62
7
  6
CONTINUOUS
 10
-55.1337397159
 20
10.6250145005
 11
-55.1337397159
 21
10.7250145005
  0
LINE
  5
4D5
100
AcDbEntity
  8
0
100
AcDbLine
 62
253
  6
CONTINUOUS
 10
-55.1241142538
 20
10.6250145005
 11
-55.1241142538
 21
10.7250145005
  0
LINE
  5
4D6
100
AcDbEntity
  8
0
100
AcDbLine
 62
253
  6
CONTINUOUS
 10
-55.0485251645
 20
10.6250145005
 11
-55.0485251645
 21
10.7250145005
  0
LINE
  5
4D7
100
AcDbEntity
  8
0
100
AcDbLine
 62
7
  6
CONTINUOUS
 10
-54.9201953288
 20
10.6250145005
 11
-54.9201953288
 21
10.7250145005
  0
LINE
  5
4D8
100
AcDbEntity
  8
0
100
AcDbLine
 62
7
  6
CONTINUOUS
 10
-54.7579504812
 20
10.6250145005
 11
-54.7579504812
 21
10.7250145005
  0
LINE
  5
4D9
100
AcDbEntity
  8
0
100
AcDbLine
 62
7
  6
CONTINUOUS
 10
-54.7372451268
 20
10.6250145005
 11
-54.7372451268
 21
10.7250145005
  0
LINE
  5
4DA
100
AcDbEntity
  8
0
100
AcDbLine
 62
253
  6
CONTINUOUS
 10
-54.6990466244
 20
10.6250145005
 11
-54.6990466244
 21
10.7250145005
  0
LINE
  5
4DB
100
AcDbEntity
  8
0
100
AcDbLine
 62
7
  6
CONTINUOUS
 10
-54.5612763888
 20
10.6250145005
 11
-54.5612763888
 21
10.7250145005
  0
LINE
  5
4DC
100
AcDbEntity
  8
IMPORT_IGES
100
AcDbLine
 62
7
  6
CONTINUOUS
 10
-54.2722
 20
4.2781145205
 11
-54.2722
 21
-5.2281435202
  0
LINE
  5
4DD
100
AcDbEntity
  8
ASSI
100
AcDbLine
 62
7
  6
CONTINUOUS
 10
-54.2722
 20
4.2781145205
 11
-54.2722
 21
-5.2281435202
  0
LINE
  5
4DE
100
AcDbEntity
  8
0
100
AcDbLine
 62
253
  6
CONTINUOUS
 10
-54.2648642048
 20
10.6250145005
 11
-54.2648642048
 21
10.7250145005
  0
LINE
  5
4DF
100
AcDbEntity
  8
0
100
AcDbLine
 62
253
  6
CONTINUOUS
 10
-54.1822911051
 20
10.6250145005
 11
-54.1822911051
 21
10.7250145005
  0
LINE
  5
4E0
100
AcDbEntity
  8
0
100
AcDbLine
 62
7
  6
CONTINUOUS
 10
-54.1146278533
 20
10.6250145005
 11
-54.1146278533
 21
10.7250145005
  0
LINE
  5
4E1
100
AcDbEntity
  8
0
100
AcDbLine
 62
7
  6
CONTINUOUS
 10
-54.0939225032
 20
10.6250145005
 11
-54.0939225032
 21
10.7250145005
  0
LINE
  5
4E2
100
AcDbEntity
  8
ASSI
100
AcDbLine
 62
253
  6
CONTINUOUS
 10
-54.0722
 20
-5.2281435202
 11
-54.0722
 21
4.2781145205
  0
LWPOLYLINE
  5
4E3
100
AcDbEntity
  8
0
100
AcDbPolyline
 62
7
  6
CONTINUOUS
 90
3
 70
0
 43
0.3500000006
 10
-44.4061270294
 20
30.8107269287
 10
-44.4775582123
 20
30.5964424438
 10
-44.6204160461
 20
30.3107267761
  0
LINE
  5
4E4
100
AcDbEntity
  8
IMPORT_IGES
100
AcDbLine
 62
7
  6
CONTINUOUS
 10
-51.0327087005
 20
7.5644767997
 11
-49.3600679656
 21
9.2371175345
  0
LINE
  5
4E5
100
AcDbEntity
  8
IMPORT_IGES
100
AcDbLine
 62
253
  6
CONTINUOUS
 10
-50.9090583767
 20
7.2649102502
 11
-50.7222
 21
7.4517686269
  0
LINE
  5
4E6
100
AcDbEntity
  8
IMPORT_IGES
100
AcDbLine
 62
253
  6
CONTINUOUS
 10
-50.4222
 20
7.7507214314
 11
-49.1479359313
 21
9.0249855001
  0
LINE
  5
4E7
100
AcDbEntity
  8
IMPORT_IGES
100
AcDbLine
 62
7
  6
CONTINUOUS
 10
-53.06108933
 20
5.3319124493
 11
-54.1961916635
 21
4.4350414697
  0
LINE
  5
4E8
100
AcDbEntity
  8
IMPORT_IGES
100
AcDbLine
 62
253
  6
CONTINUOUS
 10
-54.0722
 20
4.2781145205
 11
-52.9370976664
 21
5.1749855001
  0
LINE
  5
4E9
100
AcDbEntity
  8
IMPORT_IGES
100
AcDbLine
 62
7
  6
CONTINUOUS
 10
-56.3222
 20
-9.8250144999
 11
-56.0222
 21
-9.8250144999
  0
LINE
  5
4EA
100
AcDbEntity
  8
IMPORT_IGES
100
AcDbLine
 62
253
  6
CONTINUOUS
 10
-50.7222
 20
-9.360751712
 11
-50.4222
 21
-9.360751712
  0
LINE
  5
4EB
100
AcDbEntity
  8
IMPORT_IGES
100
AcDbLine
 62
7
  6
CONTINUOUS
 10
-31.2722
 20
-8.8705111126
 11
-30.5722
 21
-8.8705111126
  0
LWPOLYLINE
  5
4EC
100
AcDbEntity
  8
IMPORT_IGES
100
AcDbPolyline
 62
253
  6
CONTINUOUS
 90
3
 70
0
 10
-34.9638450683
 20
-10.9438798629
 10
-34.9309649854
 20
-10.9476693999
 10
-34.897688762
 20
-10.9478011652
  0
LINE
  5
4ED
100
AcDbEntity
  8
IMPORT_IGES
100
AcDbLine
 62
7
  6
CONTINUOUS
 10
-54.1961916635
 20
-5.3850704694
 11
-53.06108933
 21
-6.281941449
  0
LINE
  5
4EE
100
AcDbEntity
  8
IMPORT_IGES
100
AcDbLine
 62
253
  6
CONTINUOUS
 10
-52.9370976664
 20
-6.1250144999
 11
-54.0722
 21
-5.2281435202
  0
LINE
  5
4EF
100
AcDbEntity
  8
0
100
AcDbLine
 62
253
  6
CONTINUOUS
 10
-53.9890162479
 20
10.6250145005
 11
-53.9890162479
 21
10.7250145005
  0
LINE
  5
4F0
100
AcDbEntity
  8
0
100
AcDbLine
 62
7
  6
CONTINUOUS
 10
-53.9659926787
 20
10.6250145005
 11
-53.9659926787
 21
10.7250145005
  0
LINE
  5
4F1
100
AcDbEntity
  8
0
100
AcDbLine
 62
7
  6
CONTINUOUS
 10
-53.6887082693
 20
10.6250145005
 11
-53.6887082693
 21
10.7250145005
  0
LINE
  5
4F2
100
AcDbEntity
  8
0
100
AcDbLine
 62
7
  6
CONTINUOUS
 10
-53.6768534397
 20
10.6250145005
 11
-53.6768534397
 21
10.7250145005
  0
LINE
  5
4F3
100
AcDbEntity
  8
0
100
AcDbLine
 62
7
  6
CONTINUOUS
 10
-53.4804037636
 20
10.6250145005
 11
-53.4804037636
 21
10.7250145005
  0
LINE
  5
4F4
100
AcDbEntity
  8
0
100
AcDbLine
 62
253
  6
CONTINUOUS
 10
-53.4301640639
 20
10.6250145005
 11
-53.4301640639
 21
10.7250145005
  0
LINE
  5
4F5
100
AcDbEntity
  8
0
100
AcDbLine
 62
7
  6
CONTINUOUS
 10
-53.3359671925
 20
10.6250145005
 11
-53.3359671925
 21
10.7250145005
  0
LINE
  5
4F6
100
AcDbEntity
  8
0
100
AcDbLine
 62
7
  6
CONTINUOUS
 10
-53.3113305349
 20
10.6250145005
 11
-53.3113305349
 21
10.7250145005
  0
LINE
  5
4F7
100
AcDbEntity
  8
0
100
AcDbLine
 62
7
  6
CONTINUOUS
 10
-53.2683087953
 20
10.6250145005
 11
-53.2683087953
 21
10.7250145005
  0
LINE
  5
4F8
100
AcDbEntity
  8
IMPORT_IGES
100
AcDbLine
 62
253
  6
CONTINUOUS
 10
-52.9370976664
 20
5.3749855001
 11
-52.9370976664
 21
5.1749855001
  0
LINE
  5
4F9
100
AcDbEntity
  8
IMPORT_IGES
100
AcDbLine
 62
253
  6
CONTINUOUS
 10
-52.9370976664
 20
-6.1250144999
 11
-52.9370976664
 21
-6.3250144999
  0
LINE
  5
4FA
100
AcDbEntity
  8
0
100
AcDbLine
 62
7
  6
CONTINUOUS
 10
-52.6698716912
 20
10.6250145005
 11
-52.6698716912
 21
10.7250145005
  0
LINE
  5
4FB
100
AcDbEntity
  8
0
100
AcDbLine
 62
7
  6
CONTINUOUS
 10
-52.5864396755
 20
10.6250145005
 11
-52.5864396755
 21
10.7250145005
  0
LINE
  5
4FC
100
AcDbEntity
  8
0
100
AcDbLine
 62
7
  6
CONTINUOUS
 10
-52.5683490107
 20
10.6250145005
 11
-52.5683490107
 21
10.7250145005
  0
LWPOLYLINE
  5
4FD
100
AcDbEntity
  8
IMPORT_IGES
100
AcDbPolyline
 62
7
  6
CONTINUOUS
 90
8
 70
0
 10
-44.4267173821
 20
10.3121955349
 10
-44.4344330817
 20
10.307401513
 10
-44.441739768
 20
10.3018861818
 10
-44.4482513678
 20
10.2959983211
 10
-44.453366698
 20
10.2905807514
 10
-44.4570882697
 20
10.286112968
 10
-44.4600126191
 20
10.2822569645
 10
-44.4616915586
 20
10.2798853133
  0
LWPOLYLINE
  5
4FE
100
AcDbEntity
  8
IMPORT_IGES
100
AcDbPolyline
 62
7
  6
CONTINUOUS
 90
3
 70
0
 10
-44.4257565263
 20
10.3127205238
 10
-44.433713076
 20
10.3078826972
 10
-44.4409909429
 20
10.3024910064
  0
LINE
  5
4FF
100
AcDbEntity
  8
IMPORT_IGES
100
AcDbLine
 62
253
  6
CONTINUOUS
 10
-32.4222
 20
-8.3679077183
 11
-32.7222
 21
-8.3679077187
  0
LINE
  5
500
100
AcDbEntity
  8
IMPORT_IGES
100
AcDbLine
 62
7
  6
CONTINUOUS
 10
-27.2222
 20
-7.2753122475
 11
-26.6222
 21
-7.2753122475
  0
LWPOLYLINE
  5
501
100
AcDbEntity
  8
IMPORT_IGES
100
AcDbPolyline
 62
253
  6
CONTINUOUS
 90
3
 70
0
 10
-32.093679105
 20
-7.5105190027
 10
-30.2747665416
 20
-7.5105513058
 10
-30.2722
 20
-7.5105771482
  0
LINE
  5
502
100
AcDbEntity
  8
IMPORT_IGES
100
AcDbLine
 62
7
  6
CONTINUOUS
 10
-63.9232471954
 20
-8.4695091488
 11
-52.4976552141
 21
-8.5093921506
  0
LINE
  5
503
100
AcDbEntity
  8
IMPORT_IGES
100
AcDbLine
 62
253
  6
CONTINUOUS
 10
-52.4187826993
 20
-8.2096692964
 11
-64.2222
 21
-8.1695109765
  0
LINE
  5
504
100
AcDbEntity
  8
IMPORT_IGES
100
AcDbLine
 62
253
  6
CONTINUOUS
 10
-34.9959707543
 20
-10.9366532198
 11
-34.9638450683
 21
-10.9438798629
  0
LINE
  5
505
100
AcDbEntity
  8
0
100
AcDbLine
 62
7
  6
CONTINUOUS
 10
-52.497111046
 20
10.6250145005
 11
-52.497111046
 21
10.7250145005
  0
LINE
  5
506
100
AcDbEntity
  8
0
100
AcDbLine
 62
7
  6
CONTINUOUS
 10
-52.4359010694
 20
10.6250145005
 11
-52.4359010694
 21
10.7250145005
  0
LINE
  5
507
100
AcDbEntity
  8
0
100
AcDbLine
 62
7
  6
CONTINUOUS
 10
-52.3812509015
 20
10.7250145005
 11
-52.3812509015
 21
10.6250145005
  0
LINE
  5
508
100
AcDbEntity
  8
0
100
AcDbLine
 62
7
  6
CONTINUOUS
 10
-52.3725284761
 20
10.6250145005
 11
-52.3725284761
 21
10.7250145005
  0
LINE
  5
509
100
AcDbEntity
  8
0
100
AcDbLine
 62
7
  6
CONTINUOUS
 10
-52.3104786662
 20
10.6250145005
 11
-52.3104786662
 21
10.7250145005
  0
LINE
  5
50A
100
AcDbEntity
  8
0
100
AcDbLine
 62
7
  6
CONTINUOUS
 10
-52.2824372207
 20
10.6250145005
 11
-52.2824372207
 21
10.7250145005
  0
LINE
  5
50B
100
AcDbEntity
  8
0
100
AcDbLine
 62
253
  6
CONTINUOUS
 10
-52.2737818049
 20
10.6250145005
 11
-52.2737818049
 21
10.7250145005
  0
LINE
  5
50C
100
AcDbEntity
  8
0
100
AcDbLine
 62
253
  6
CONTINUOUS
 10
-52.254113613
 20
10.6250145005
 11
-52.254113613
 21
10.7250145005
  0
LINE
  5
50D
100
AcDbEntity
  8
0
100
AcDbLine
 62
253
  6
CONTINUOUS
 10
-52.1923657526
 20
10.6250145005
 11
-52.1923657526
 21
10.7250145005
  0
LINE
  5
50E
100
AcDbEntity
  8
0
100
AcDbLine
 62
253
  6
CONTINUOUS
 10
-52.0828472849
 20
10.6250145005
 11
-52.0828472849
 21
10.7250145005
  0
LINE
  5
50F
100
AcDbEntity
  8
0
100
AcDbLine
 62
253
  6
CONTINUOUS
 10
-51.9150695734
 20
10.6250145005
 11
-51.9150695734
 21
10.7250145005
  0
LINE
  5
510
100
AcDbEntity
  8
0
100
AcDbLine
 62
7
  6
CONTINUOUS
 10
-51.8602060969
 20
10.6250145005
 11
-51.8602060969
 21
10.7250145005
  0
LINE
  5
511
100
AcDbEntity
  8
0
100
AcDbLine
 62
7
  6
CONTINUOUS
 10
-51.8300286562
 20
10.6250145005
 11
-51.8300286562
 21
10.7250145005
  0
LINE
  5
512
100
AcDbEntity
  8
0
100
AcDbLine
 62
7
  6
CONTINUOUS
 10
-51.7677156144
 20
10.6250145005
 11
-51.7677156144
 21
10.7250145005
  0
LINE
  5
513
100
AcDbEntity
  8
0
100
AcDbLine
 62
7
  6
CONTINUOUS
 10
-51.7422592072
 20
10.6250145005
 11
-51.7422592072
 21
10.7250145005
  0
LINE
  5
514
100
AcDbEntity
  8
0
100
AcDbLine
 62
253
  6
CONTINUOUS
 10
-51.6500788726
 20
10.6250145005
 11
-51.6500788726
 21
10.7250145005
  0
LINE
  5
515
100
AcDbEntity
  8
0
100
AcDbLine
 62
7
  6
CONTINUOUS
 10
-51.5841913077
 20
10.6250145005
 11
-51.5841913077
 21
10.7250145005
  0
LINE
  5
516
100
AcDbEntity
  8
IMPORT_IGES
100
AcDbLine
 62
7
  6
CONTINUOUS
 10
-51.5222
 20
-2.8250144999
 11
-51.5222
 21
1.8749855001
  0
LINE
  5
517
100
AcDbEntity
  8
0
100
AcDbLine
 62
7
  6
CONTINUOUS
 10
-51.4222250172
 20
10.6250145005
 11
-51.4222250172
 21
10.7250145005
  0
LINE
  5
518
100
AcDbEntity
  8
0
100
AcDbLine
 62
7
  6
CONTINUOUS
 10
-51.4116945411
 20
10.6250145005
 11
-51.4116945411
 21
10.7250145005
  0
LINE
  5
519
100
AcDbEntity
  8
IMPORT_IGES
100
AcDbLine
 62
7
  6
CONTINUOUS
 10
-51.3722
 20
1.8156672794
 11
-51.3722
 21
-2.7656382791
  0
LINE
  5
51A
100
AcDbEntity
  8
IMPORT_IGES
100
AcDbLine
 62
253
  6
CONTINUOUS
 10
-51.2122
 20
-2.7684310895
 11
-51.2122
 21
1.8184600898
  0
LINE
  5
51B
100
AcDbEntity
  8
0
100
AcDbLine
 62
7
  6
CONTINUOUS
 10
-51.1251832204
 20
10.6250145005
 11
-51.1251832204
 21
10.7250145005
  0
LINE
  5
51C
100
AcDbEntity
  8
IMPORT_IGES
100
AcDbLine
 62
253
  6
CONTINUOUS
 10
-50.4222
 20
3.1290134013
 11
-50.5776255172
 21
2.8724146705
  0
LWPOLYLINE
  5
51D
100
AcDbEntity
  8
IMPORT_IGES
100
AcDbPolyline
 62
7
  6
CONTINUOUS
 90
13
 70
0
 10
-44.4409909429
 20
10.3024910064
 10
-44.4473909068
 20
10.2968253684
 10
-44.4524244188
 20
10.2916257636
 10
-44.4560841286
 20
10.2873528067
 10
-44.4588916691
 20
10.2837580703
 10
-44.4612384106
 20
10.2805384656
 10
-44.463177569
 20
10.2777434282
 10
-44.46483509
 20
10.2752756666
 10
-44.4665686563
 20
10.2726332172
 10
-44.4684782209
 20
10.2696670531
 10
-44.4705134444
 20
10.2664575427
 10
-44.4727531445
 20
10.2628820429
 10
-44.4779472594
 20
10.2544676859
  0
LINE
  5
51E
100
AcDbEntity
  8
IMPORT_IGES
100
AcDbLine
 62
7
  6
CONTINUOUS
 10
-32.4222
 20
-6.9205144999
 11
-32.3422
 21
-6.9205144999
  0
LINE
  5
51F
100
AcDbEntity
  8
IMPORT_IGES
100
AcDbLine
 62
7
  6
CONTINUOUS
 10
-52.9370976664
 20
-6.3250144999
 11
-50.7722
 21
-6.3250144999
  0
LINE
  5
520
100
AcDbEntity
  8
IMPORT_IGES
100
AcDbLine
 62
7
  6
CONTINUOUS
 10
-30.2722
 20
-6.2753122475
 11
-27.5222
 21
-6.2753122475
  0
LINE
  5
521
100
AcDbEntity
  8
IMPORT_IGES
100
AcDbLine
 62
253
  6
CONTINUOUS
 10
-50.7722
 20
-6.1250144999
 11
-52.9370976664
 21
-6.1250144999
  0
LINE
  5
522
100
AcDbEntity
  8
IMPORT_IGES
100
AcDbLine
 62
253
  6
CONTINUOUS
 10
-50.577625517
 20
-3.8224436701
 11
-50.4222
 21
-4.079042401
  0
LINE
  5
523
100
AcDbEntity
  8
0
100
AcDbLine
 62
253
  6
CONTINUOUS
 10
-51.0523248304
 20
10.6250145005
 11
-51.0523248304
 21
10.7250145005
  0
LINE
  5
524
100
AcDbEntity
  8
0
100
AcDbLine
 62
7
  6
CONTINUOUS
 10
-50.8074993223
 20
10.6250145005
 11
-50.8074993223
 21
10.7250145005
  0
LINE
  5
525
100
AcDbEntity
  8
0
100
AcDbLine
 62
7
  6
CONTINUOUS
 10
-50.7917453612
 20
10.6250145005
 11
-50.7917453612
 21
10.7250145005
  0
LINE
  5
526
100
AcDbEntity
  8
IMPORT_IGES
100
AcDbLine
 62
7
  6
CONTINUOUS
 10
-50.7722
 20
-6.3250144999
 11
-50.7722
 21
-3.9009939686
  0
LINE
  5
527
100
AcDbEntity
  8
IMPORT_IGES
100
AcDbLine
 62
7
  6
CONTINUOUS
 10
-50.7722
 20
2.9509649689
 11
-50.7722
 21
5.3749855001
  0
LINE
  5
528
100
AcDbEntity
  8
IMPORT_IGES
100
AcDbLine
 62
7
  6
CONTINUOUS
 10
-50.7222
 20
-9.3607517123
 11
-50.7222
 21
-4.0790424009
  0
LINE
  5
529
100
AcDbEntity
  8
IMPORT_IGES
100
AcDbLine
 62
7
  6
CONTINUOUS
 10
-50.7222
 20
3.1290134006
 11
-50.7222
 21
7.7507214314
  0
LINE
  5
52A
100
AcDbEntity
  8
IMPORT_IGES
100
AcDbLine
 62
7
  6
CONTINUOUS
 10
-50.6222
 20
-2.7787295778
 11
-50.6222
 21
1.8287585781
  0
LINE
  5
52B
100
AcDbEntity
  8
0
100
AcDbLine
 62
7
  6
CONTINUOUS
 10
-50.5509170457
 20
10.6250145005
 11
-50.5509170457
 21
10.7250145005
  0
LINE
  5
52C
100
AcDbEntity
  8
IMPORT_IGES
100
AcDbLine
 62
253
  6
CONTINUOUS
 10
-50.4222
 20
7.7507214314
 11
-50.4222
 21
3.1290134013
  0
LINE
  5
52D
100
AcDbEntity
  8
IMPORT_IGES
100
AcDbLine
 62
253
  6
CONTINUOUS
 10
-50.4222
 20
-4.079042401
 11
-50.4222
 21
-9.360751712
  0
LINE
  5
52E
100
AcDbEntity
  8
0
100
AcDbLine
 62
253
  6
CONTINUOUS
 10
-50.410497303
 20
10.6250145005
 11
-50.410497303
 21
10.7250145005
  0
LINE
  5
52F
100
AcDbEntity
  8
0
100
AcDbLine
 62
7
  6
CONTINUOUS
 10
-50.3766900742
 20
10.6250145005
 11
-50.3766900742
 21
10.7250145005
  0
LINE
  5
530
100
AcDbEntity
  8
0
100
AcDbLine
 62
7
  6
CONTINUOUS
 10
-50.356383003
 20
10.6250145005
 11
-50.356383003
 21
10.7250145005
  0
LINE
  5
531
100
AcDbEntity
  8
IMPORT_IGES
100
AcDbLine
 62
7
  6
CONTINUOUS
 10
-50.2222
 20
1.9406019978
 11
-50.2222
 21
-2.8906309975
  0
LINE
  5
532
100
AcDbEntity
  8
0
100
AcDbLine
 62
7
  6
CONTINUOUS
 10
-50.2197629661
 20
10.6250145005
 11
-50.2197629661
 21
10.7250145005
  0
LINE
  5
533
100
AcDbEntity
  8
0
100
AcDbLine
 62
7
  6
CONTINUOUS
 10
-50.0031166968
 20
10.6250145005
 11
-50.0031166968
 21
10.7250145005
  0
LINE
  5
534
100
AcDbEntity
  8
0
100
AcDbLine
 62
7
  6
CONTINUOUS
 10
-49.9900202209
 20
10.6250145005
 11
-49.9900202209
 21
10.7250145005
  0
LINE
  5
535
100
AcDbEntity
  8
0
100
AcDbLine
 62
253
  6
CONTINUOUS
 10
-49.8785073767
 20
10.6250145005
 11
-49.8785073767
 21
10.7250145005
  0
LINE
  5
536
100
AcDbEntity
  8
0
100
AcDbLine
 62
253
  6
CONTINUOUS
 10
-49.7469722707
 20
10.6250145005
 11
-49.7469722707
 21
10.7250145005
  0
LINE
  5
537
100
AcDbEntity
  8
0
100
AcDbLine
 62
7
  6
CONTINUOUS
 10
-49.7370420435
 20
10.6250145005
 11
-49.7370420435
 21
10.7250145005
  0
LWPOLYLINE
  5
538
100
AcDbEntity
  8
IMPORT_IGES
100
AcDbPolyline
 62
7
  6
CONTINUOUS
 90
4
 70
0
 10
-52.4976555395
 20
-8.5093919335
 10
-52.4971830455
 20
-8.5068554179
 10
-52.4953388481
 20
-8.4994493513
 10
-52.4821974195
 20
-8.4488153323
  0
LINE
  5
539
100
AcDbEntity
  8
IMPORT_IGES
100
AcDbLine
 62
7
  6
CONTINUOUS
 10
-52.4291550504
 20
-8.2496522427
 11
-52.4187826993
 21
-8.2096692964
  0
LINE
  5
53A
100
AcDbEntity
  8
IMPORT_IGES
100
AcDbLine
 62
7
  6
CONTINUOUS
 10
-52.4821974195
 20
-8.4488153323
 11
-52.45914569
 21
-8.3613237844
  0
LINE
  5
53B
100
AcDbEntity
  8
IMPORT_IGES
100
AcDbLine
 62
7
  6
CONTINUOUS
 10
-52.45914569
 20
-8.3613237844
 11
-52.4291550504
 21
-8.2496522427
  0
LINE
  5
53C
100
AcDbEntity
  8
IMPORT_IGES
100
AcDbLine
 62
253
  6
CONTINUOUS
 10
-44.9137632984
 20
9.4321281671
 11
-44.3951419632
 21
10.2847938291
  0
LINE
  5
53D
100
AcDbEntity
  8
IMPORT_IGES
100
AcDbLine
 62
7
  6
CONTINUOUS
 10
-44.4779472594
 20
10.2544676859
 11
-45.0162569547
 21
9.3694161785
  0
LINE
  5
53E
100
AcDbEntity
  8
IMPORT_IGES
100
AcDbLine
 62
253
  6
CONTINUOUS
 10
-54.2722
 20
-5.2281435202
 11
-54.0722
 21
-5.2281435202
  0
LWPOLYLINE
  5
53F
100
AcDbEntity
  8
IMPORT_IGES
100
AcDbPolyline
 62
253
  6
CONTINUOUS
 90
10
 70
0
 10
-34.7252600742
 20
-10.6659425397
 10
-34.696823235
 20
-10.6787266
 10
-34.6687709551
 20
-10.6884690557
 10
-34.6414825934
 20
-10.6950381568
 10
-34.615327178
 20
-10.6983450674
 10
-34.5906584162
 20
-10.6983450673
 10
-34.567809911
 20
-10.6950381568
 10
-34.5470906492
 20
-10.6884690562
 10
-34.5287808234
 20
-10.6787266013
 10
-34.5131280423
 20
-10.6659425422
  0
LINE
  5
540
100
AcDbEntity
  8
IMPORT_IGES
100
AcDbLine
 62
7
  6
CONTINUOUS
 10
-51.5222
 20
-2.0106078528
 11
-51.3722
 21
-2.0840642834
  0
LINE
  5
541
100
AcDbEntity
  8
IMPORT_IGES
100
AcDbLine
 62
7
  6
CONTINUOUS
 10
-48.9700199307
 20
-2.8512534304
 11
-48.9159371461
 21
-2.8816012242
  0
LWPOLYLINE
  5
542
100
AcDbEntity
  8
IMPORT_IGES
100
AcDbPolyline
 62
7
  6
CONTINUOUS
 90
3
 70
0
 10
-48.9159371461
 20
-2.8816012242
 10
-48.8913776654
 20
-2.8955514767
 10
-48.8299441108
 20
-2.9299832136
  0
LINE
  5
543
100
AcDbEntity
  8
IMPORT_IGES
100
AcDbLine
 62
7
  6
CONTINUOUS
 10
-48.9722
 20
-2.8500144998
 11
-48.9700199307
 21
-2.8512534304
  0
LWPOLYLINE
  5
544
100
AcDbEntity
  8
IMPORT_IGES
100
AcDbPolyline
 62
7
  6
CONTINUOUS
 90
5
 70
0
 10
-48.8299441108
 20
-2.9299832136
 10
-48.7942041037
 20
-2.9502927503
 10
-48.755867892
 20
-2.9723579754
 10
-48.7150715909
 20
-2.9954862864
 10
-48.6722
 20
-3.019042401
  0
LINE
  5
545
100
AcDbEntity
  8
IMPORT_IGES
100
AcDbLine
 62
253
  6
CONTINUOUS
 10
-49.1479359313
 20
9.3249855001
 11
-49.1479359313
 21
9.0249855001
  0
LINE
  5
546
100
AcDbEntity
  8
IMPORT_IGES
100
AcDbLine
 62
7
  6
CONTINUOUS
 10
-49.0222
 20
1.9406019978
 11
-49.0222
 21
-2.8906309975
  0
LINE
  5
547
100
AcDbEntity
  8
IMPORT_IGES
100
AcDbLine
 62
7
  6
CONTINUOUS
 10
-48.9722
 20
-2.8500144999
 11
-48.9722
 21
1.8999855001
  0
LINE
  5
548
100
AcDbEntity
  8
IMPORT_IGES
100
AcDbLine
 62
253
  6
CONTINUOUS
 10
-48.7126918996
 20
-10.4538105078
 11
-48.7126918838
 21
-10.6659425367
  0
LINE
  5
549
100
AcDbEntity
  8
IMPORT_IGES
100
AcDbLine
 62
253
  6
CONTINUOUS
 10
-48.6722
 20
2.0690134013
 11
-48.6722
 21
-0.5700144999
  0
LINE
  5
54A
100
AcDbEntity
  8
IMPORT_IGES
100
AcDbLine
 62
253
  6
CONTINUOUS
 10
-48.6722
 20
-0.6700144999
 11
-48.6722
 21
-3.019042401
  0
LINE
  5
54B
100
AcDbEntity
  8
0
100
AcDbLine
 62
7
  6
CONTINUOUS
 10
-48.6722
 20
10.6250145005
 11
-48.6722
 21
10.7250145005
  0
LINE
  5
54C
100
AcDbEntity
  8
0
100
AcDbLine
 62
253
  6
CONTINUOUS
 10
-48.5500647799
 20
10.6250145005
 11
-48.5500647799
 21
10.7250145005
  0
LINE
  5
54D
100
AcDbEntity
  8
0
100
AcDbLine
 62
253
  6
CONTINUOUS
 10
-48.2545487282
 20
10.6250145005
 11
-48.2545487282
 21
10.7250145005
  0
LWPOLYLINE
  5
54E
100
AcDbEntity
  8
IMPORT_IGES
100
AcDbPolyline
 62
253
  6
CONTINUOUS
 90
4
 70
0
 10
-44.3951419632
 20
10.2847931213
 10
-44.3916332332
 20
10.2934664275
 10
-44.3885374763
 20
10.3009693776
 10
-44.3858546922
 20
10.3073451775
  0
LINE
  5
54F
100
AcDbEntity
  8
IMPORT_IGES
100
AcDbLine
 62
253
  6
CONTINUOUS
 10
-44.9382514308
 20
9.3715783104
 11
-44.9807786268
 21
9.2669553426
  0
LWPOLYLINE
  5
550
100
AcDbEntity
  8
IMPORT_IGES
100
AcDbPolyline
 62
253
  6
CONTINUOUS
 90
3
 70
0
 10
-44.9137632984
 20
9.4321267452
 10
-44.9191409861
 20
9.419070551
 10
-44.9382514308
 20
9.3715783104
  0
LWPOLYLINE
  5
551
100
AcDbEntity
  8
IMPORT_IGES
100
AcDbPolyline
 62
253
  6
CONTINUOUS
 90
6
 70
0
 10
-44.3858546922
 20
10.3073451775
 10
-44.3817791944
 20
10.3167819473
 10
-44.3802841778
 20
10.3202135723
 10
-44.3790998315
 20
10.3228114734
 10
-44.378251731
 20
10.3244288223
 10
-44.3777398764
 20
10.3249855001
  0
LINE
  5
552
100
AcDbEntity
  8
IMPORT_IGES
100
AcDbLine
 62
253
  6
CONTINUOUS
 10
-54.0722
 20
-5.2281435202
 11
-54.1961916635
 21
-5.3850704694
  0
LINE
  5
553
100
AcDbEntity
  8
IMPORT_IGES
100
AcDbLine
 62
7
  6
CONTINUOUS
 10
-48.915857582
 20
1.9316202452
 11
-48.9722
 21
1.8999855001
  0
LWPOLYLINE
  5
554
100
AcDbEntity
  8
IMPORT_IGES
100
AcDbPolyline
 62
7
  6
CONTINUOUS
 90
7
 70
0
 10
-48.6722
 20
2.0690134013
 10
-48.7150960985
 20
2.0454408619
 10
-48.7559010185
 20
2.0223078799
 10
-48.7942304848
 20
2.0002488721
 10
-48.8299428816
 20
1.97995695
 10
-48.8625706697
 20
1.9617446824
 10
-48.915857582
 20
1.9316202452
  0
LWPOLYLINE
  5
555
100
AcDbEntity
  8
IMPORT_IGES
100
AcDbPolyline
 62
253
  6
CONTINUOUS
 90
9
 70
0
 10
-26.6124836417
 20
0.438134638
 10
-26.5788170154
 20
0.4466893365
 10
-26.5472231556
 20
0.4606608817
 10
-26.5186615616
 20
0.4796278693
 10
-26.4940030129
 20
0.5030152566
 10
-26.4740010924
 20
0.530109816
 10
-26.4592642132
 20
0.5600865135
 10
-26.4502391246
 20
0.592035411
 10
-26.4472
 20
0.6249855001
  0
LINE
  5
556
100
AcDbEntity
  8
IMPORT_IGES
100
AcDbLine
 62
253
  6
CONTINUOUS
 10
-50.4222
 20
-4.079042401
 11
-50.7222
 21
-4.0790424009
  0
LINE
  5
557
100
AcDbEntity
  8
IMPORT_IGES
100
AcDbLine
 62
253
  6
CONTINUOUS
 10
-26.6222
 20
-3.9697708527
 11
-27.2222
 21
-3.9697708523
  0
LINE
  5
558
100
AcDbEntity
  8
IMPORT_IGES
100
AcDbLine
 62
253
  6
CONTINUOUS
 10
-27.5222
 20
-3.867365947
 11
-30.2722
 21
-3.8673659467
  0
LINE
  5
559
100
AcDbEntity
  8
IMPORT_IGES
100
AcDbLine
 62
7
  6
CONTINUOUS
 10
-26.6222
 20
-3.5549276307
 11
-30.2722
 21
-3.5549276307
  0
LINE
  5
55A
100
AcDbEntity
  8
IMPORT_IGES
100
AcDbLine
 62
7
  6
CONTINUOUS
 10
-50.2222
 20
-2.8906309975
 11
-50.7722
 21
-2.8906309975
  0
LINE
  5
55B
100
AcDbEntity
  8
IMPORT_IGES
100
AcDbLine
 62
7
  6
CONTINUOUS
 10
-27.5222
 20
-3.7548914963
 11
-27.4468466406
 21
-3.7548841495
  0
LWPOLYLINE
  5
55C
100
AcDbEntity
  8
IMPORT_IGES
100
AcDbPolyline
 62
7
  6
CONTINUOUS
 90
5
 70
0
 10
-27.4468466406
 20
-3.7548841495
 10
-27.4366798857
 20
-3.7549276119
 10
-27.4288613319
 20
-3.7550799168
 10
-27.4239144821
 20
-3.7553335305
 10
-27.4222
 20
-3.755706112
  0
LINE
  5
55D
100
AcDbEntity
  8
IMPORT_IGES
100
AcDbLine
 62
7
  6
CONTINUOUS
 10
-50.2222
 20
-2.7857116038
 11
-51.3722
 21
-2.7656382791
  0
LWPOLYLINE
  5
55E
100
AcDbEntity
  8
IMPORT_IGES
100
AcDbPolyline
 62
253
  6
CONTINUOUS
 90
13
 70
0
 10
-27.2222
 20
-3.9697708527
 10
-27.2483052384
 20
-3.9691158529
 10
-27.273963809
 20
-3.9671620608
 10
-27.2987366865
 20
-3.9639429062
 10
-27.3222
 20
-3.9595134699
 10
-27.3439522858
 20
-3.9539495406
 10
-27.3636213562
 20
-3.9473463188
 10
-27.3808706681
 20
-3.9398167873
 10
-27.3954050808
 20
-3.9314897787
 10
-27.4069759065
 20
-3.9225077703
 10
-27.4153851653
 20
-3.9130244467
 10
-27.4204889723
 20
-3.9032020703
 10
-27.4222
 20
-3.8932087047
  0
LINE
  5
55F
100
AcDbEntity
  8
IMPORT_IGES
100
AcDbLine
 62
7
  6
CONTINUOUS
 10
-51.5222
 20
-2.8250144999
 11
-50.7722
 21
-2.8906309975
  0
LINE
  5
560
100
AcDbEntity
  8
IMPORT_IGES
100
AcDbLine
 62
253
  6
CONTINUOUS
 10
-54.1961916635
 20
4.4350414697
 11
-54.0722
 21
4.2781145205
  0
LINE
  5
561
100
AcDbEntity
  8
0
100
AcDbLine
 62
253
  6
CONTINUOUS
 10
-47.9947103703
 20
10.6250145005
 11
-47.9947103703
 21
10.7250145005
  0
LINE
  5
562
100
AcDbEntity
  8
0
100
AcDbLine
 62
7
  6
CONTINUOUS
 10
-47.8966840026
 20
10.6250145005
 11
-47.8966840026
 21
10.7250145005
  0
LINE
  5
563
100
AcDbEntity
  8
0
100
AcDbLine
 62
253
  6
CONTINUOUS
 10
-47.6609544513
 20
10.6250145005
 11
-47.6609544513
 21
10.7250145005
  0
LINE
  5
564
100
AcDbEntity
  8
0
100
AcDbLine
 62
7
  6
CONTINUOUS
 10
-47.4918441278
 20
10.6250145005
 11
-47.4918441278
 21
10.7250145005
  0
LWPOLYLINE
  5
565
100
AcDbEntity
  8
0
100
AcDbPolyline
 62
7
  6
CONTINUOUS
 90
4
 70
0
 43
0.3500000006
 10
-47.4775591278
 20
32.8821587219
 10
-47.4775591278
 20
33.5250167084
 10
-45.97755867
 20
33.5250167084
 10
-46.8347011414
 20
30.5250157928
  0
LINE
  5
566
100
AcDbEntity
  8
0
100
AcDbLine
 62
7
  6
CONTINUOUS
 10
-47.4534099636
 20
10.6250145005
 11
-47.4534099636
 21
10.7250145005
  0
LWPOLYLINE
  5
567
100
AcDbEntity
  8
IMPORT_IGES
100
AcDbPolyline
 62
253
  6
CONTINUOUS
 90
10
 70
0
 10
-45.0307786438
 20
9.2511802235
 10
-45.0300190314
 20
9.253918942
 10
-45.0277632748
 20
9.2565744459
 10
-45.024079914
 20
9.2590660491
 10
-45.0190808659
 20
9.2613180454
 10
-45.0129180242
 20
9.2632620092
 10
-45.0057786438
 20
9.264838874
 10
-44.9978796509
 20
9.2660007277
 10
-44.9894610526
 20
9.2667122678
 10
-44.9807786438
 20
9.2669518746
  0
LWPOLYLINE
  5
568
100
AcDbEntity
  8
0
100
AcDbPolyline
 62
7
  6
CONTINUOUS
 90
3
 70
0
 43
0.3500000006
 10
-40.0668435516
 20
20.8107284088
 10
-40.1382702026
 20
20.596443924
 10
-40.2811280365
 20
20.3107282562
  0
LINE
  5
569
100
AcDbEntity
  8
IMPORT_IGES
100
AcDbLine
 62
253
  6
CONTINUOUS
 10
-53.06108933
 20
-6.281941449
 11
-52.9370976664
 21
-6.1250144999
  0
LINE
  5
56A
100
AcDbEntity
  8
IMPORT_IGES
100
AcDbLine
 62
7
  6
CONTINUOUS
 10
-51.3722
 20
-2.5126659452
 11
-51.5222
 21
-2.5126659452
  0
LINE
  5
56B
100
AcDbEntity
  8
IMPORT_IGES
100
AcDbLine
 62
253
  6
CONTINUOUS
 10
-52.9370976664
 20
5.1749855001
 11
-53.06108933
 21
5.3319124493
  0
LINE
  5
56C
100
AcDbEntity
  8
IMPORT_IGES
100
AcDbLine
 62
7
  6
CONTINUOUS
 10
-50.9866008836
 20
7.4517066118
 11
-50.9730086546
 21
7.4191877844
  0
LINE
  5
56D
100
AcDbEntity
  8
IMPORT_IGES
100
AcDbLine
 62
7
  6
CONTINUOUS
 10
-51.0242523712
 20
7.5432298356
 11
-50.9866008836
 21
7.4517066118
  0
LWPOLYLINE
  5
56E
100
AcDbEntity
  8
IMPORT_IGES
100
AcDbPolyline
 62
7
  6
CONTINUOUS
 90
4
 70
0
 10
-50.9730086546
 20
7.4191877844
 10
-50.94296803
 20
7.3456450077
 10
-50.9265209551
 20
7.3058303944
 10
-50.9090583767
 20
7.2649102502
  0
LWPOLYLINE
  5
56F
100
AcDbEntity
  8
IMPORT_IGES
100
AcDbPolyline
 62
7
  6
CONTINUOUS
 90
3
 70
0
 10
-51.0327082548
 20
7.564476577
 10
-51.0317993336
 20
7.5621134577
 10
-51.0242523712
 20
7.5432298356
  0
LWPOLYLINE
  5
570
100
AcDbEntity
  8
IMPORT_IGES
100
AcDbPolyline
 62
253
  6
CONTINUOUS
 90
10
 70
0
 10
-45.0307786423
 20
9.3175541208
 10
-45.0305180089
 20
9.3217741273
 10
-45.029724271
 20
9.3260202716
 10
-45.0283860503
 20
9.3302189391
 10
-45.0265144758
 20
9.3343021388
 10
-45.0241393211
 20
9.3381912374
 10
-45.0213173862
 20
9.3418146114
 10
-45.0181278362
 20
9.3451095486
 10
-45.0145917599
 20
9.3480861711
 10
-45.0105581586
 20
9.3508471236
  0
LWPOLYLINE
  5
571
100
AcDbEntity
  8
IMPORT_IGES
100
AcDbPolyline
 62
253
  6
CONTINUOUS
 90
3
 70
0
 10
-45.0168202155
 20
9.3670816761
 10
-45.0166623885
 20
9.3684004733
 10
-45.0162569524
 20
9.3694161771
  0
LINE
  5
572
100
AcDbEntity
  8
IMPORT_IGES
100
AcDbLine
 62
253
  6
CONTINUOUS
 10
-26.6472
 20
0.435254417
 11
-26.6124836417
 21
0.438134638
  0
LINE
  5
573
100
AcDbEntity
  8
0
100
AcDbLine
 62
7
  6
CONTINUOUS
 10
-51.5222
 20
-0.9250144999
 11
-51.3722
 21
-0.9250144999
  0
LINE
  5
574
100
AcDbEntity
  8
IMPORT_IGES
100
AcDbLine
 62
7
  6
CONTINUOUS
 10
-34.1222
 20
-0.8700144999
 11
-34.2622
 21
-0.8700144999
  0
LINE
  5
575
100
AcDbEntity
  8
IMPORT_IGES
100
AcDbLine
 62
7
  6
CONTINUOUS
 10
-34.4622
 20
-0.6700144999
 11
-48.9722
 21
-0.6700144999
  0
LINE
  5
576
100
AcDbEntity
  8
IMPORT_IGES
100
AcDbLine
 62
7
  6
CONTINUOUS
 10
-34.4222
 20
-0.5700144999
 11
-48.9722
 21
-0.5700144999
  0
LINE
  5
577
100
AcDbEntity
  8
0
100
AcDbLine
 62
7
  6
CONTINUOUS
 10
-51.3722
 20
-0.4250144999
 11
-51.5222
 21
-0.4250144999
  0
LINE
  5
578
100
AcDbEntity
  8
IMPORT_IGES
100
AcDbLine
 62
253
  6
CONTINUOUS
 10
-30.5722
 20
-0.3539325167
 11
-30.2722
 21
-0.3539325167
  0
LINE
  5
579
100
AcDbEntity
  8
IMPORT_IGES
100
AcDbLine
 62
7
  6
CONTINUOUS
 10
-50.7722
 20
2.9509649689
 11
-49.0222
 21
1.9406019978
  0
LINE
  5
57A
100
AcDbEntity
  8
IMPORT_IGES
100
AcDbLine
 62
7
  6
CONTINUOUS
 10
-50.5776255172
 20
2.8724146705
 11
-49.3864214546
 21
2.1508853527
  0
LINE
  5
57B
100
AcDbEntity
  8
IMPORT_IGES
100
AcDbLine
 62
7
  6
CONTINUOUS
 10
-49.0222
 20
1.9302712144
 11
-48.9722
 21
1.8999855001
  0
LINE
  5
57C
100
AcDbEntity
  8
IMPORT_IGES
100
AcDbLine
 62
253
  6
CONTINUOUS
 10
-48.6722
 20
2.0690134013
 11
-50.4222
 21
3.1290134013
  0
LINE
  5
57D
100
AcDbEntity
  8
IMPORT_IGES
100
AcDbLine
 62
253
  6
CONTINUOUS
 10
-35.4171747468
 20
-11.2871465342
 11
-35.2757533904
 21
-11.4285678902
  0
LINE
  5
57E
100
AcDbEntity
  8
IMPORT_IGES
100
AcDbLine
 62
253
  6
CONTINUOUS
 10
-34.7252600767
 20
-10.4538105078
 11
-34.5131280425
 21
-10.6659425424
  0
LWPOLYLINE
  5
57F
100
AcDbEntity
  8
IMPORT_IGES
100
AcDbPolyline
 62
7
  6
CONTINUOUS
 90
9
 70
0
 10
-45.0307443254
 20
9.1887646652
 10
-45.0307166793
 20
9.1876877706
 10
-45.0306370769
 20
9.1855251976
 10
-45.0305250655
 20
9.183350699
 10
-45.0303806406
 20
9.1811647813
 10
-45.0302037893
 20
9.1789686625
 10
-45.0299945072
 20
9.1767628757
 10
-45.0297527987
 20
9.1745472508
 10
-45.0294786638
 20
9.172321968
  0
LINE
  5
580
100
AcDbEntity
  8
IMPORT_IGES
100
AcDbLine
 62
7
  6
CONTINUOUS
 10
-45.0307786438
 20
9.1919775405
 11
-45.0307443254
 21
9.1887646652
  0
LINE
  5
581
100
AcDbEntity
  8
IMPORT_IGES
100
AcDbLine
 62
7
  6
CONTINUOUS
 10
-45.0307786438
 20
9.317554439
 11
-45.0307786438
 21
9.1886546389
  0
LINE
  5
582
100
AcDbEntity
  8
IMPORT_IGES
100
AcDbLine
 62
253
  6
CONTINUOUS
 10
-44.9807786438
 20
9.0249855001
 11
-44.9807786268
 21
9.2669553426
  0
LINE
  5
583
100
AcDbEntity
  8
IMPORT_IGES
100
AcDbLine
 62
253
  6
CONTINUOUS
 10
-50.4222
 20
-9.360751712
 11
-50.583808439
 21
-9.6135020086
  0
LINE
  5
584
100
AcDbEntity
  8
IMPORT_IGES
100
AcDbLine
 62
253
  6
CONTINUOUS
 10
-33.3086328096
 20
9.7932285925
 11
-33.4146988268
 21
9.6871625753
  0
LINE
  5
585
100
AcDbEntity
  8
IMPORT_IGES
100
AcDbLine
 62
7
  6
CONTINUOUS
 10
-48.9722
 20
-2.8500144999
 11
-49.0222
 21
-2.8803002141
  0
LINE
  5
586
100
AcDbEntity
  8
IMPORT_IGES
100
AcDbLine
 62
7
  6
CONTINUOUS
 10
-49.3864214546
 20
-3.1009143523
 11
-50.5776255176
 21
-3.8224436705
  0
LINE
  5
587
100
AcDbEntity
  8
IMPORT_IGES
100
AcDbLine
 62
253
  6
CONTINUOUS
 10
-50.4222
 20
-4.079042401
 11
-48.6722
 21
-3.019042401
  0
LINE
  5
588
100
AcDbEntity
  8
IMPORT_IGES
100
AcDbLine
 62
7
  6
CONTINUOUS
 10
-49.0222
 20
-2.8906309975
 11
-50.7722
 21
-3.9009939686
  0
LWPOLYLINE
  5
589
100
AcDbEntity
  8
IMPORT_IGES
100
AcDbPolyline
 62
253
  6
CONTINUOUS
 90
10
 70
0
 10
-26.9472
 20
1.1959332702
 10
-26.9819296355
 20
1.1941897086
 10
-27.0156040287
 20
1.1890120011
 10
-27.0472
 20
1.1805574697
 10
-27.0757575219
 20
1.169083001
 10
-27.1004088886
 20
1.1549372409
 10
-27.1204050808
 20
1.1385500013
 10
-27.1351385242
 20
1.1204192001
 10
-27.1441615506
 20
1.1010957326
 10
-27.1472
 20
1.0811667324
  0
LWPOLYLINE
  5
58A
100
AcDbEntity
  8
IMPORT_IGES
100
AcDbPolyline
 62
253
  6
CONTINUOUS
 90
10
 70
0
 10
-27.2472
 20
0.8005670652
 10
-27.2298351822
 20
0.8009227078
 10
-27.2129979857
 20
0.8019788295
 10
-27.1972
 20
0.8037033406
 10
-27.182921239
 20
0.8060438427
 10
-27.1705955557
 20
0.8089292208
 10
-27.1605974596
 20
0.8122718043
 10
-27.1532307379
 20
0.8159700303
 10
-27.1487192247
 20
0.8199115301
 10
-27.1472
 20
0.8239765433
  0
LINE
  5
58B
100
AcDbEntity
  8
IMPORT_IGES
100
AcDbLine
 62
7
  6
CONTINUOUS
 10
-26.6472
 20
0.4249855001
 11
-30.2722
 21
0.4249855001
  0
LINE
  5
58C
100
AcDbEntity
  8
IMPORT_IGES
100
AcDbLine
 62
253
  6
CONTINUOUS
 10
-26.6472
 20
0.435254417
 11
-27.0098816338
 21
0.4352542001
  0
LINE
  5
58D
100
AcDbEntity
  8
IMPORT_IGES
100
AcDbLine
 62
253
  6
CONTINUOUS
 10
-30.2722
 20
0.6501192749
 11
-30.4222
 21
0.650119275
  0
LINE
  5
58E
100
AcDbEntity
  8
IMPORT_IGES
100
AcDbLine
 62
253
  6
CONTINUOUS
 10
-27.2471999802
 20
0.7361862858
 11
-30.2722
 21
0.7361862858
  0
LINE
  5
58F
100
AcDbEntity
  8
IMPORT_IGES
100
AcDbLine
 62
253
  6
CONTINUOUS
 10
-26.6472
 20
0.7391868387
 11
-26.9472
 21
0.7391868386
  0
LINE
  5
590
100
AcDbEntity
  8
IMPORT_IGES
100
AcDbLine
 62
253
  6
CONTINUOUS
 10
-30.2722
 20
0.8005668758
 11
-27.2472
 21
0.8005666474
  0
LINE
  5
591
100
AcDbEntity
  8
IMPORT_IGES
100
AcDbLine
 62
253
  6
CONTINUOUS
 10
-26.6472
 20
1.1959332702
 11
-26.9472
 21
1.1959332704
  0
LWPOLYLINE
  5
592
100
AcDbEntity
  8
IMPORT_IGES
100
AcDbPolyline
 62
253
  6
CONTINUOUS
 90
10
 70
0
 10
-30.383691938
 20
0.4965535767
 10
-30.3633854313
 20
0.4957153882
 10
-30.3438903009
 20
0.494508874
 10
-30.3258956233
 20
0.4929565256
 10
-30.3101894698
 20
0.4911281424
 10
-30.2970160531
 20
0.4890722224
 10
-30.2863259464
 20
0.4867810006
 10
-30.2784465741
 20
0.4842952637
 10
-30.2737366714
 20
0.4817244112
 10
-30.2721999682
 20
0.4791541649
  0
LWPOLYLINE
  5
593
100
AcDbEntity
  8
0
100
AcDbPolyline
 62
7
  6
CONTINUOUS
 90
4
 70
0
 43
0.3500000006
 10
-43.4061267242
 20
30.9535847626
 10
-43.4061267242
 20
31.8107272339
 10
-42.9775577545
 20
32.2393007355
 10
-42.3346997681
 20
32.2393007355
  0
LINE
  5
594
100
AcDbEntity
  8
IMPORT_IGES
100
AcDbLine
 62
7
  6
CONTINUOUS
 10
-43.1206956607
 20
-11.5750144999
 11
-43.1206956607
 21
-11.7750144999
  0
LINE
  5
595
100
AcDbEntity
  8
IMPORT_IGES
100
AcDbLine
 62
253
  6
CONTINUOUS
 10
-43.0184049702
 20
-11.5750144999
 11
-43.0184049404
 21
-11.7750144999
  0
LINE
  5
596
100
AcDbEntity
  8
IMPORT_IGES
100
AcDbLine
 62
253
  6
CONTINUOUS
 10
-48.8743003383
 20
-10.7065608046
 11
-48.7126918996
 21
-10.4538105078
  0
LINE
  5
597
100
AcDbEntity
  8
IMPORT_IGES
100
AcDbLine
 62
253
  6
CONTINUOUS
 10
-35.0529651501
 20
9.4119126211
 11
-35.2335096568
 21
9.172321968
  0
LINE
  5
598
100
AcDbEntity
  8
IMPORT_IGES
100
AcDbLine
 62
253
  6
CONTINUOUS
 10
-31.7490895839
 20
3.5850618028
 11
-32.1135711018
 21
3.4202794518
  0
LINE
  5
599
100
AcDbEntity
  8
IMPORT_IGES
100
AcDbLine
 62
253
  6
CONTINUOUS
 10
-31.9020856128
 20
4.1264139603
 11
-32.2989009995
 21
4.0760398709
  0
LINE
  5
59A
100
AcDbEntity
  8
IMPORT_IGES
100
AcDbLine
 62
7
  6
CONTINUOUS
 10
-50.7722
 20
1.9406019978
 11
-51.5222
 21
1.8749855001
  0
LINE
  5
59B
100
AcDbEntity
  8
IMPORT_IGES
100
AcDbLine
 62
7
  6
CONTINUOUS
 10
-51.3722
 20
1.8156672794
 11
-50.2222
 21
1.8357406041
  0
LINE
  5
59C
100
AcDbEntity
  8
IMPORT_IGES
100
AcDbLine
 62
7
  6
CONTINUOUS
 10
-50.7722
 20
1.9406019978
 11
-50.2222
 21
1.9406019978
  0
LINE
  5
59D
100
AcDbEntity
  8
IMPORT_IGES
100
AcDbLine
 62
253
  6
CONTINUOUS
 10
-27.2472
 20
1.9425000107
 11
-30.2722
 21
1.9425000107
  0
LINE
  5
59E
100
AcDbEntity
  8
IMPORT_IGES
100
AcDbLine
 62
7
  6
CONTINUOUS
 10
-30.2722
 20
2.9795741383
 11
-27.2472
 21
2.9795741383
  0
LINE
  5
59F
100
AcDbEntity
  8
IMPORT_IGES
100
AcDbLine
 62
253
  6
CONTINUOUS
 10
-50.7222
 20
3.1290134013
 11
-50.4222
 21
3.1290134013
  0
LWPOLYLINE
  5
5A0
100
AcDbEntity
  8
IMPORT_IGES
100
AcDbPolyline
 62
253
  6
CONTINUOUS
 90
10
 70
0
 10
-26.9472
 20
0.4963983496
 10
-26.9819296355
 20
0.4992807911
 10
-27.0156040287
 20
0.507840534
 10
-27.0472
 20
0.5218174948
 10
-27.0757575219
 20
0.5407869907
 10
-27.1004088886
 20
0.5641726431
 10
-27.1204050808
 20
0.5912638912
 10
-27.1351385242
 20
0.621237581
 10
-27.1441615506
 20
0.6531829773
 10
-27.1472
 20
0.6861294352
  0
LWPOLYLINE
  5
5A1
100
AcDbEntity
  8
IMPORT_IGES
100
AcDbPolyline
 62
253
  6
CONTINUOUS
 90
10
 70
0
 10
-26.9472
 20
0.7391868387
 10
-26.9819296355
 20
0.7420692802
 10
-27.0156040287
 20
0.7506290231
 10
-27.0472
 20
0.764605984
 10
-27.0757575219
 20
0.78357548
 10
-27.1004088886
 20
0.8069611325
 10
-27.1204050808
 20
0.8340523803
 10
-27.1351385242
 20
0.8640260697
 10
-27.1441615506
 20
0.8959714651
 10
-27.1472
 20
0.9289179219
  0
LWPOLYLINE
  5
5A2
100
AcDbEntity
  8
IMPORT_IGES
100
AcDbPolyline
 62
253
  6
CONTINUOUS
 90
5
 70
0
 10
-27.0098812354
 20
0.4249855002
 10
-27.0367045908
 20
0.4275691149
 10
-27.0636452093
 20
0.4353617469
 10
-27.0895600444
 20
0.4482426797
 10
-27.1130248863
 20
0.4657948651
  0
LWPOLYLINE
  5
5A3
100
AcDbEntity
  8
IMPORT_IGES
100
AcDbPolyline
 62
253
  6
CONTINUOUS
 90
13
 70
0
 10
-27.1024758476
 20
0.4249805554
 10
-27.1221576186
 20
0.4279637932
 10
-27.1419717957
 20
0.437284058
 10
-27.1608530722
 20
0.4529958097
 10
-27.1774774767
 20
0.4739909709
 10
-27.1913925513
 20
0.4991932899
 10
-27.2027332125
 20
0.5287432742
 10
-27.2108994492
 20
0.5613407363
 10
-27.2155860327
 20
0.5954028569
 10
-27.2167882555
 20
0.6312043819
 10
-27.2142294799
 20
0.6674996612
 10
-27.2080857261
 20
0.7017395786
 10
-27.1989553927
 20
0.7323809056
  0
LWPOLYLINE
  5
5A4
100
AcDbEntity
  8
IMPORT_IGES
100
AcDbPolyline
 62
253
  6
CONTINUOUS
 90
5
 70
0
 10
-27.4579212399
 20
-3.8805187311
 10
-27.4722000007
 20
-3.8748978858
 10
-27.4879979862
 20
-3.870756377
 10
-27.5048351825
 20
-3.8682200423
 10
-27.5222
 20
-3.867365947
  0
LINE
  5
5A5
100
AcDbEntity
  8
IMPORT_IGES
100
AcDbLine
 62
253
  6
CONTINUOUS
 10
-50.6343320344
 20
7.9628534658
 11
-50.4222
 21
7.7507214314
  0
LINE
  5
5A6
100
AcDbEntity
  8
IMPORT_IGES
100
AcDbLine
 62
253
  6
CONTINUOUS
 10
-32.7807786438
 20
-8.5093290749
 11
-32.5686466094
 21
-8.7214611093
  0
LWPOLYLINE
  5
5A7
100
AcDbEntity
  8
IMPORT_IGES
100
AcDbPolyline
 62
253
  6
CONTINUOUS
 90
7
 70
0
 10
-44.9876984305
 20
9.2910569013
 10
-44.9912662098
 20
9.3022845601
 10
-44.994740002
 20
9.3128460239
 10
-44.998096518
 20
9.3225980319
 10
-45.0014199516
 20
9.3313285063
 10
-45.0046799331
 20
9.3389373805
 10
-45.0077471038
 20
9.3454433394
  0
LINE
  5
5A8
100
AcDbEntity
  8
IMPORT_IGES
100
AcDbLine
 62
253
  6
CONTINUOUS
 10
-44.9841754628
 20
9.2792368397
 11
-44.9876984305
 21
9.2910569013
  0
LINE
  5
5A9
100
AcDbEntity
  8
IMPORT_IGES
100
AcDbLine
 62
253
  6
CONTINUOUS
 10
-44.9807786268
 20
9.2669554803
 11
-44.9841754628
 21
9.2792368397
  0
LINE
  5
5AA
100
AcDbEntity
  8
IMPORT_IGES
100
AcDbLine
 62
7
  6
CONTINUOUS
 10
-42.1206956607
 20
10.5249855001
 11
-42.1206956607
 21
10.3249855001
  0
LINE
  5
5AB
100
AcDbEntity
  8
IMPORT_IGES
100
AcDbLine
 62
7
  6
CONTINUOUS
 10
-42.08498
 20
10.3249855001
 11
-42.08498
 21
10.5249855001
  0
LINE
  5
5AC
100
AcDbEntity
  8
IMPORT_IGES
100
AcDbLine
 62
7
  6
CONTINUOUS
 10
-41.5032707271
 20
-11.7750144999
 11
-41.5032707271
 21
-11.5750144999
  0
LINE
  5
5AD
100
AcDbEntity
  8
IMPORT_IGES
100
AcDbLine
 62
7
  6
CONTINUOUS
 10
-41.4855073488
 20
-11.7750144999
 11
-41.485507319
 21
-11.5750144999
  0
LINE
  5
5AE
100
AcDbEntity
  8
IMPORT_IGES
100
AcDbLine
 62
253
  6
CONTINUOUS
 10
-40.8972138158
 20
-11.7750144999
 11
-40.8972138158
 21
-11.5750144999
  0
LINE
  5
5AF
100
AcDbEntity
  8
IMPORT_IGES
100
AcDbLine
 62
7
  6
CONTINUOUS
 10
-26.9472
 20
3.8222748677
 11
-26.6472
 21
3.8222748677
  0
LINE
  5
5B0
100
AcDbEntity
  8
IMPORT_IGES
100
AcDbLine
 62
253
  6
CONTINUOUS
 10
-54.0722
 20
4.2781145205
 11
-54.2722
 21
4.2781145205
  0
LWPOLYLINE
  5
5B1
100
AcDbEntity
  8
IMPORT_IGES
100
AcDbPolyline
 62
253
  6
CONTINUOUS
 90
10
 70
0
 10
-27.1989583622
 20
0.7323831313
 10
-27.2039332083
 20
0.7331802775
 10
-27.2090429261
 20
0.7339166214
 10
-27.2142714777
 20
0.7345665475
 10
-27.2196025007
 20
0.7350884599
 10
-27.2250192468
 20
0.7354821884
 10
-27.2305046292
 20
0.7357915235
 10
-27.2360414305
 20
0.7360260573
 10
-27.2416123615
 20
0.7361589399
 10
-27.2472
 20
0.7361857601
  0
LINE
  5
5B2
100
AcDbEntity
  8
IMPORT_IGES
100
AcDbLine
 62
253
  6
CONTINUOUS
 10
-49.1479359313
 20
9.0249855001
 11
-49.3600679656
 21
9.2371175345
  0
LINE
  5
5B3
100
AcDbEntity
  8
IMPORT_IGES
100
AcDbLine
 62
7
  6
CONTINUOUS
 10
-46.2499677892
 20
9.3249855001
 11
-46.4006934975
 21
9.5962940739
  0
LINE
  5
5B4
100
AcDbEntity
  8
IMPORT_IGES
100
AcDbLine
 62
253
  6
CONTINUOUS
 10
-45.0077471038
 20
9.3454433394
 11
-45.0105566902
 21
9.3508481308
  0
LWPOLYLINE
  5
5B5
100
AcDbEntity
  8
IMPORT_IGES
100
AcDbPolyline
 62
7
  6
CONTINUOUS
 90
9
 70
0
 10
-44.9807786438
 20
9.0249855001
 10
-44.9957223324
 20
9.062112064
 10
-45.0026466264
 20
9.0797236409
 10
-45.0089659217
 20
9.0966913873
 10
-45.0146194236
 20
9.1130246638
 10
-45.0196219636
 20
9.1287515519
 10
-45.0238686255
 20
9.1438814122
 10
-45.027190975
 20
9.1584048842
 10
-45.0294786638
 20
9.172321968
  0
LINE
  5
5B6
100
AcDbEntity
  8
IMPORT_IGES
100
AcDbLine
 62
7
  6
CONTINUOUS
 10
-40.0853405467
 20
-11.7750144999
 11
-40.0853405467
 21
-11.5750144999
  0
LINE
  5
5B7
100
AcDbEntity
  8
IMPORT_IGES
100
AcDbLine
 62
253
  6
CONTINUOUS
 10
-32.7712801785
 20
7.3168989723
 11
-32.5305541692
 21
7.6363531763
  0
LINE
  5
5B8
100
AcDbEntity
  8
IMPORT_IGES
100
AcDbLine
 62
253
  6
CONTINUOUS
 10
-30.565093219
 20
7.0496890019
 11
-30.671159236
 21
6.9436229845
  0
LINE
  5
5B9
100
AcDbEntity
  8
IMPORT_IGES
100
AcDbLine
 62
253
  6
CONTINUOUS
 10
-30.7225056059
 20
0.3433864442
 11
-30.3836934818
 21
0.4965594206
  0
LINE
  5
5BA
100
AcDbEntity
  8
IMPORT_IGES
100
AcDbLine
 62
253
  6
CONTINUOUS
 10
-27.1989583622
 20
0.7323831313
 11
-27.1889330466
 21
0.7362595625
  0
LINE
  5
5BB
100
AcDbEntity
  8
IMPORT_IGES
100
AcDbLine
 62
253
  6
CONTINUOUS
 10
-32.6932354898
 20
7.182358915
 11
-32.2964201031
 21
7.2327330044
  0
LINE
  5
5BC
100
AcDbEntity
  8
IMPORT_IGES
100
AcDbLine
 62
253
  6
CONTINUOUS
 10
-50.7722
 20
5.1749855001
 11
-52.9370976664
 21
5.1749855001
  0
LINE
  5
5BD
100
AcDbEntity
  8
IMPORT_IGES
100
AcDbLine
 62
7
  6
CONTINUOUS
 10
-50.7722
 20
5.3749855001
 11
-52.9370976664
 21
5.3749855001
  0
LINE
  5
5BE
100
AcDbEntity
  8
IMPORT_IGES
100
AcDbLine
 62
7
  6
CONTINUOUS
 10
-58.2736794291
 20
9.6088409764
 11
-57.272200001
 21
9.2750144998
  0
LINE
  5
5BF
100
AcDbEntity
  8
IMPORT_IGES
100
AcDbLine
 62
253
  6
CONTINUOUS
 10
-56.3424754769
 20
9.2750144999
 11
-57.6480350908
 21
9.7102010385
  0
LWPOLYLINE
  5
5C0
100
AcDbEntity
  8
IMPORT_IGES
100
AcDbPolyline
 62
253
  6
CONTINUOUS
 90
8
 70
0
 10
-45.0105566902
 20
9.3508481308
 10
-45.0122287137
 20
9.3538069426
 10
-45.0136476866
 20
9.3565922436
 10
-45.0148080471
 20
9.3591756506
 10
-45.015709946
 20
9.3615203504
 10
-45.0163498576
 20
9.3636177508
 10
-45.0167196799
 20
9.3654770084
 10
-45.0168202155
 20
9.3670816761
  0
LINE
  5
5C1
100
AcDbEntity
  8
IMPORT_IGES
100
AcDbLine
 62
7
  6
CONTINUOUS
 10
-39.085341
 20
10.5249855001
 11
-39.085341
 21
10.3249855001
  0
LWPOLYLINE
  5
5C2
100
AcDbEntity
  8
IMPORT_IGES
100
AcDbPolyline
 62
253
  6
CONTINUOUS
 90
10
 70
0
 10
-48.7126918996
 20
-10.6659425422
 10
-48.7335048092
 20
-10.681079995
 10
-48.7540944331
 20
-10.6937792474
 10
-48.7742398808
 20
-10.7039040587
 10
-48.7937250274
 20
-10.7113458078
 10
-48.8123408315
 20
-10.7160246576
 10
-48.8298875785
 20
-10.7178904125
 10
-48.8461770227
 20
-10.7169230561
 10
-48.8610344071
 20
-10.7131329665
 10
-48.8743003383
 20
-10.7065608046
  0
LWPOLYLINE
  5
5C3
100
AcDbEntity
  8
IMPORT_IGES
100
AcDbPolyline
 62
253
  6
CONTINUOUS
 90
8
 70
0
 10
-27.1889330466
 20
0.7362595625
 10
-27.1797263285
 20
0.7408359527
 10
-27.1714675541
 20
0.746048008
 10
-27.1642727514
 20
0.7518225036
 10
-27.158243001
 20
0.7580783131
 10
-27.1534630153
 20
0.7647275481
 10
-27.1499999488
 20
0.771676793
 10
-27.1479024544
 20
0.7788284172
  0
LWPOLYLINE
  5
5C4
100
AcDbEntity
  8
IMPORT_IGES
100
AcDbPolyline
 62
253
  6
CONTINUOUS
 90
6
 70
0
 10
-27.0098816338
 20
0.4352542001
 10
-26.9971680244
 20
0.4411661394
 10
-26.9858472889
 20
0.4473311428
 10
-26.9759194273
 20
0.4537492104
 10
-26.9673252771
 20
0.4604638095
 10
-26.9601240008
 20
0.4674314728
  0
LINE
  5
5C5
100
AcDbEntity
  8
IMPORT_IGES
100
AcDbLine
 62
7
  6
CONTINUOUS
 10
-51.0327087005
 20
7.5644767997
 11
-63.9232471954
 21
7.5194801491
  0
LINE
  5
5C6
100
AcDbEntity
  8
IMPORT_IGES
100
AcDbLine
 62
253
  6
CONTINUOUS
 10
-30.4222
 20
6.3425822205
 11
-30.2722
 21
6.3425822205
  0
LINE
  5
5C7
100
AcDbEntity
  8
IMPORT_IGES
100
AcDbLine
 62
253
  6
CONTINUOUS
 10
-50.9090583767
 20
7.2649102502
 11
-64.2222
 21
7.2194819768
  0
LINE
  5
5C8
100
AcDbEntity
  8
IMPORT_IGES
100
AcDbLine
 62
253
  6
CONTINUOUS
 10
-58.3810188444
 20
9.8934450552
 11
-57.6480445931
 21
9.7102010385
  0
LINE
  5
5C9
100
AcDbEntity
  8
IMPORT_IGES
100
AcDbLine
 62
253
  6
CONTINUOUS
 10
-27.0329233108
 20
0.4429182383
 11
-27.0098812354
 21
0.4352535495
  0
LINE
  5
5CA
100
AcDbEntity
  8
IMPORT_IGES
100
AcDbLine
 62
7
  6
CONTINUOUS
 10
-32.4222
 20
-2.7100144999
 11
-34.4622
 21
-0.6700144999
  0
LINE
  5
5CB
100
AcDbEntity
  8
IMPORT_IGES
100
AcDbLine
 62
7
  6
CONTINUOUS
 10
-32.3422
 20
-2.6500144999
 11
-34.4222
 21
-0.5700144999
  0
LINE
  5
5CC
100
AcDbEntity
  8
IMPORT_IGES
100
AcDbLine
 62
7
  6
CONTINUOUS
 10
-32.4222
 20
-5.5205144999
 11
-32.3422
 21
-5.6226106224
  0
LINE
  5
5CD
100
AcDbEntity
  8
IMPORT_IGES
100
AcDbLine
 62
7
  6
CONTINUOUS
 10
-31.2722
 20
-8.8705111126
 11
-32.3422
 21
-7.0990825412
  0
LINE
  5
5CE
100
AcDbEntity
  8
IMPORT_IGES
100
AcDbLine
 62
253
  6
CONTINUOUS
 10
-36.379992986
 20
-11.5750144999
 11
-36.3798014655
 21
-11.4871465342
  0
LINE
  5
5CF
100
AcDbEntity
  8
IMPORT_IGES
100
AcDbLine
 62
253
  6
CONTINUOUS
 10
-35.950047257
 20
10.3206155672
 11
-35.9599576362
 21
10.1709433107
  0
LINE
  5
5D0
100
AcDbEntity
  8
IMPORT_IGES
100
AcDbLine
 62
253
  6
CONTINUOUS
 10
-35.8635670395
 20
10.1620227262
 11
-35.8458411815
 21
10.3109716905
  0
LINE
  5
5D1
100
AcDbEntity
  8
IMPORT_IGES
100
AcDbLine
 62
253
  6
CONTINUOUS
 10
-50.4222
 20
7.7507214314
 11
-50.7222
 21
7.7507214314
  0
LINE
  5
5D2
100
AcDbEntity
  8
IMPORT_IGES
100
AcDbLine
 62
253
  6
CONTINUOUS
 10
-49.1479359313
 20
9.0249855001
 11
-44.9807786438
 21
9.0249855001
  0
LINE
  5
5D3
100
AcDbEntity
  8
IMPORT_IGES
100
AcDbLine
 62
253
  6
CONTINUOUS
 10
-36.1511200411
 20
9.7411373229
 11
-36.1494590444
 21
9.7243442191
  0
LWPOLYLINE
  5
5D4
100
AcDbEntity
  8
IMPORT_IGES
100
AcDbPolyline
 62
253
  6
CONTINUOUS
 90
5
 70
0
 10
-36.1597181615
 20
10.1584472102
 10
-36.1613234447
 20
10.1749059175
 10
-36.1653211057
 20
10.191013637
 10
-36.1716283287
 20
10.206500035
 10
-36.1800820748
 20
10.2210561273
  0
LINE
  5
5D5
100
AcDbEntity
  8
IMPORT_IGES
100
AcDbLine
 62
253
  6
CONTINUOUS
 10
-36.3096759599
 20
10.2847934752
 11
-36.2994172785
 21
9.8507085342
  0
LINE
  5
5D6
100
AcDbEntity
  8
IMPORT_IGES
100
AcDbLine
 62
7
  6
CONTINUOUS
 10
-36.1496050201
 20
9.7305210201
 11
-36.1602436919
 21
10.1785419032
  0
LINE
  5
5D7
100
AcDbEntity
  8
IMPORT_IGES
100
AcDbLine
 62
253
  6
CONTINUOUS
 10
-35.9480869465
 20
9.6686483991
 11
-35.9599576362
 21
10.1709433107
  0
LINE
  5
5D8
100
AcDbEntity
  8
IMPORT_IGES
100
AcDbLine
 62
7
  6
CONTINUOUS
 10
-36.3096759599
 20
10.2847931213
 11
-36.3101508909
 21
10.324985499
  0
LINE
  5
5D9
100
AcDbEntity
  8
IMPORT_IGES
100
AcDbLine
 62
253
  6
CONTINUOUS
 10
-35.9799863225
 20
-11.5750144999
 11
-35.9799864309
 21
-11.3750144999
  0
LINE
  5
5DA
100
AcDbEntity
  8
IMPORT_IGES
100
AcDbLine
 62
253
  6
CONTINUOUS
 10
-35.9722466158
 20
-10.9366532203
 11
-35.9722466094
 21
-10.99523186
  0
LINE
  5
5DB
100
AcDbEntity
  8
IMPORT_IGES
100
AcDbLine
 62
253
  6
CONTINUOUS
 10
-35.944543989
 20
9.64863594
 11
-35.944543989
 21
9.6687320656
  0
LINE
  5
5DC
100
AcDbEntity
  8
IMPORT_IGES
100
AcDbLine
 62
253
  6
CONTINUOUS
 10
-35.6293067812
 20
-11.3750145282
 11
-35.6293067814
 21
-11.5750144999
  0
LINE
  5
5DD
100
AcDbEntity
  8
IMPORT_IGES
100
AcDbLine
 62
253
  6
CONTINUOUS
 10
-35.520832845
 20
9.6687320635
 11
-35.5208309652
 21
9.6486359398
  0
LINE
  5
5DE
100
AcDbEntity
  8
IMPORT_IGES
100
AcDbLine
 62
253
  6
CONTINUOUS
 10
-35.2335096568
 20
9.172321968
 11
-35.2335096564
 21
9.4321295891
  0
LINE
  5
5DF
100
AcDbEntity
  8
IMPORT_IGES
100
AcDbLine
 62
253
  6
CONTINUOUS
 10
-34.9959707537
 20
-10.9366532203
 11
-34.9960145618
 21
-10.995231864
  0
LINE
  5
5E0
100
AcDbEntity
  8
IMPORT_IGES
100
AcDbLine
 62
7
  6
CONTINUOUS
 10
-36.1784960718
 20
-11.1973444419
 11
-36.1784900464
 21
-11.1967921435
  0
LWPOLYLINE
  5
5E1
100
AcDbEntity
  8
IMPORT_IGES
100
AcDbPolyline
 62
253
  6
CONTINUOUS
 90
10
 70
0
 10
-36.3798014655
 20
-11.4871465342
 10
-36.3795088985
 20
-11.4704250369
 10
-36.3792894732
 20
-11.4537035441
 10
-36.3791431897
 20
-11.4369820557
 10
-36.3791188091
 20
-11.4202605718
 10
-36.3791675703
 20
-11.4035390924
 10
-36.3791431897
 20
-11.3868176174
 10
-36.3789969062
 20
-11.3700961468
 10
-36.378777481
 20
-11.3533746808
 10
-36.378484914
 20
-11.3366532192
  0
LWPOLYLINE
  5
5E2
100
AcDbEntity
  8
IMPORT_IGES
100
AcDbPolyline
 62
7
  6
CONTINUOUS
 90
23
 70
0
 10
-36.1784916343
 20
-11.1967958652
 10
-36.1780155644
 20
-11.1855308038
 10
-36.1765417864
 20
-11.1716687178
 10
-36.174106114
 20
-11.1579839338
 10
-36.1708091183
 20
-11.1448124496
 10
-36.1667152821
 20
-11.1321407897
 10
-36.1617991256
 20
-11.119774667
 10
-36.15615041
 20
-11.1078821871
 10
-36.1498269559
 20
-11.0965077168
 10
-36.142791451
 20
-11.0855495614
 10
-36.1350223882
 20
-11.0749871964
 10
-36.1265757911
 20
-11.0649039383
 10
-36.1174200696
 20
-11.0552803174
 10
-36.1073717476
 20
-11.0460021073
 10
-36.0964827555
 20
-11.0372114712
 10
-36.0847326223
 20
-11.0289614885
 10
-36.071779306
 20
-11.02115811
 10
-36.0577250303
 20
-11.0140579084
 10
-36.0426012309
 20
-11.00782383
 10
-36.0261866803
 20
-11.0025538845
 10
-36.0085349653
 20
-10.9985249827
 10
-35.9901567731
 20
-10.996036787
 10
-35.9722468708
 20
-10.9952057645
  0
LWPOLYLINE
  5
5E3
100
AcDbEntity
  8
IMPORT_IGES
100
AcDbPolyline
 62
253
  6
CONTINUOUS
 90
5
 70
0
 10
-36.1798062455
 20
-11.3471113467
 10
-36.181537388
 20
-11.3649921811
 10
-36.1865589775
 20
-11.3828397794
 10
-36.1948494471
 20
-11.4001804082
 10
-36.2060323124
 20
-11.416340165
  0
LWPOLYLINE
  5
5E4
100
AcDbEntity
  8
IMPORT_IGES
100
AcDbPolyline
 62
253
  6
CONTINUOUS
 90
13
 70
0
 10
-36.1784976694
 20
-11.1973451182
 10
-36.1802282403
 20
-11.2148738611
 10
-36.1851836118
 20
-11.2325307349
 10
-36.1934110388
 20
-11.2498085555
 10
-36.2045712119
 20
-11.2659815877
 10
-36.2183675283
 20
-11.2808182412
 10
-36.2350369165
 20
-11.2945367002
 10
-36.2544029864
 20
-11.3068039145
 10
-36.2759161383
 20
-11.3171859046
 10
-36.2996205239
 20
-11.3256166568
 10
-36.3251761655
 20
-11.3318255372
 10
-36.3517095387
 20
-11.3355293217
 10
-36.3784849138
 20
-11.3366615062
  0
LWPOLYLINE
  5
5E5
100
AcDbEntity
  8
IMPORT_IGES
100
AcDbPolyline
 62
253
  6
CONTINUOUS
 90
14
 70
0
 10
-36.378484914
 20
-11.3366532192
 10
-36.373525914
 20
-11.2870952003
 10
-36.3647626476
 20
-11.2410536707
 10
-36.3521951148
 20
-11.1985286303
 10
-36.3357182469
 20
-11.1599103879
 10
-36.3154371125
 20
-11.1248086348
 10
-36.291666918
 20
-11.0920524442
 10
-36.2641386486
 20
-11.0608510942
 10
-36.2331213192
 20
-11.0319953068
 10
-36.1997371805
 20
-11.0066863215
 10
-36.1636094732
 20
-10.9851417556
 10
-36.1251149568
 20
-10.9671439918
 10
-36.0865061599
 20
-10.9532414176
 10
-36.0485339256
 20
-10.9436168288
  0
LINE
  5
5E6
100
AcDbEntity
  8
IMPORT_IGES
100
AcDbLine
 62
253
  6
CONTINUOUS
 10
-33.8975672044
 20
10.0791149065
 11
-33.9152930622
 21
9.9301659422
  0
LWPOLYLINE
  5
5E7
100
AcDbEntity
  8
IMPORT_IGES
100
AcDbPolyline
 62
253
  6
CONTINUOUS
 90
7
 70
0
 10
-32.3422
 20
-3.9218083892
 10
-32.3602060021
 20
-3.9333512563
 10
-32.3820076211
 20
-3.9516946843
 10
-32.3993638598
 20
-3.9714810003
 10
-32.4119777479
 20
-3.992371655
 10
-32.4196334584
 20
-4.0140092036
 10
-32.4222
 20
-4.0360234215
  0
LWPOLYLINE
  5
5E8
100
AcDbEntity
  8
IMPORT_IGES
100
AcDbPolyline
 62
7
  6
CONTINUOUS
 90
6
 70
0
 10
-44.3777395417
 20
10.324985005
 10
-44.3871371237
 20
10.3245428748
 10
-44.3975055516
 20
10.3230140422
 10
-44.4074802672
 20
10.3204650573
 10
-44.4169507215
 20
10.3169867603
 10
-44.4257565263
 20
10.3127205238
  0
LINE
  5
5E9
100
AcDbEntity
  8
IMPORT_IGES
100
AcDbLine
 62
253
  6
CONTINUOUS
 10
-45.0294786638
 20
9.172321968
 11
-35.2335096568
 21
9.172321968
  0
LINE
  5
5EA
100
AcDbEntity
  8
IMPORT_IGES
100
AcDbLine
 62
7
  6
CONTINUOUS
 10
-49.3125706723
 20
9.2750144999
 11
-57.272200001
 21
9.2750144998
  0
LINE
  5
5EB
100
AcDbEntity
  8
IMPORT_IGES
100
AcDbLine
 62
7
  6
CONTINUOUS
 10
-49.1479359313
 20
9.3249855001
 11
-45.0304825056
 21
9.3249855001
  0
LINE
  5
5EC
100
AcDbEntity
  8
IMPORT_IGES
100
AcDbLine
 62
253
  6
CONTINUOUS
 10
-35.2335096564
 20
9.4321295891
 11
-44.9137632984
 21
9.4321281671
  0
LINE
  5
5ED
100
AcDbEntity
  8
IMPORT_IGES
100
AcDbLine
 62
253
  6
CONTINUOUS
 10
-35.944543989
 20
9.64863594
 11
-35.5208232885
 21
9.64863594
  0
LINE
  5
5EE
100
AcDbEntity
  8
IMPORT_IGES
100
AcDbLine
 62
7
  6
CONTINUOUS
 10
-35.944543989
 20
9.6687321295
 11
-35.5208326206
 21
9.6687321295
  0
LINE
  5
5EF
100
AcDbEntity
  8
IMPORT_IGES
100
AcDbLine
 62
253
  6
CONTINUOUS
 10
-36.3096759599
 20
10.2847934752
 11
-44.3951419632
 21
10.2847938291
  0
LINE
  5
5F0
100
AcDbEntity
  8
IMPORT_IGES
100
AcDbLine
 62
7
  6
CONTINUOUS
 10
-36.0822401061
 20
10.3249855001
 11
-44.3777398764
 21
10.3249855001
  0
LINE
  5
5F1
100
AcDbEntity
  8
IMPORT_IGES
100
AcDbLine
 62
253
  6
CONTINUOUS
 10
-43.78498
 20
10.4249855001
 11
-43.08498
 21
10.4249855001
  0
LINE
  5
5F2
100
AcDbEntity
  8
IMPORT_IGES
100
AcDbLine
 62
253
  6
CONTINUOUS
 10
-38.085341
 20
10.4249855001
 11
-37.385341
 21
10.4249855001
  0
LINE
  5
5F3
100
AcDbEntity
  8
IMPORT_IGES
100
AcDbLine
 62
7
  6
CONTINUOUS
 10
-43.68498
 20
10.5249855001
 11
-43.18498
 21
10.5249855001
  0
LINE
  5
5F4
100
AcDbEntity
  8
IMPORT_IGES
100
AcDbLine
 62
7
  6
CONTINUOUS
 10
-37.985341
 20
10.5249855001
 11
-37.485341
 21
10.5249855001
  0
LINE
  5
5F5
100
AcDbEntity
  8
IMPORT_IGES
100
AcDbLine
 62
7
  6
CONTINUOUS
 10
-39.085341
 20
10.5249855001
 11
-42.1213538574
 21
10.5249855001
  0
LWPOLYLINE
  5
5F6
100
AcDbEntity
  8
IMPORT_IGES
100
AcDbPolyline
 62
7
  6
CONTINUOUS
 90
3
 70
0
 10
-35.944544036
 20
9.668732494
 10
-35.9510884616
 20
9.6687816859
 10
-35.9794174961
 20
9.6700733526
  0
LINE
  5
5F7
100
AcDbEntity
  8
IMPORT_IGES
100
AcDbLine
 62
253
  6
CONTINUOUS
 10
-36.1601927626
 20
10.1785295353
 11
-36.0298725486
 21
10.1762217907
  0
LWPOLYLINE
  5
5F8
100
AcDbEntity
  8
IMPORT_IGES
100
AcDbPolyline
 62
253
  6
CONTINUOUS
 90
10
 70
0
 10
-36.0298725486
 20
10.1762217907
 10
-36.0223850544
 20
10.1760461125
 10
-36.0147991512
 20
10.175769041
 10
-36.0071267962
 20
10.1753902936
 10
-35.9993801198
 20
10.1749104439
 10
-35.9915712396
 20
10.1743283452
 10
-35.9837122393
 20
10.1736411315
 10
-35.9758153727
 20
10.1728476531
 10
-35.9678930472
 20
10.171948477
 10
-35.9599576362
 20
10.1709433107
  0
LINE
  5
5F9
100
AcDbEntity
  8
IMPORT_IGES
100
AcDbLine
 62
253
  6
CONTINUOUS
 10
-35.944543989
 20
9.64863594
 11
-35.9798049278
 21
9.6496631364
  0
LWPOLYLINE
  5
5FA
100
AcDbEntity
  8
IMPORT_IGES
100
AcDbPolyline
 62
253
  6
CONTINUOUS
 90
12
 70
0
 10
-36.2994172654
 20
9.8507079833
 10
-36.2800196085
 20
9.8497316613
 10
-36.2609796911
 20
9.84659703
 10
-36.2426137598
 20
9.8413674124
 10
-36.2252344559
 20
9.8341455474
 10
-36.2091133437
 20
9.8250587158
 10
-36.1944848115
 20
9.8142451049
 10
-36.1815918272
 20
9.8018834159
 10
-36.170648336
 20
9.7881774514
 10
-36.1618218389
 20
9.7733243832
 10
-36.1552690944
 20
9.7575549245
 10
-36.1511200411
 20
9.7411373229
  0
LINE
  5
5FB
100
AcDbEntity
  8
IMPORT_IGES
100
AcDbLine
 62
253
  6
CONTINUOUS
 10
-35.9798049278
 20
9.6496631364
 11
-36.0142472221
 21
9.6526529404
  0
LWPOLYLINE
  5
5FC
100
AcDbEntity
  8
IMPORT_IGES
100
AcDbPolyline
 62
253
  6
CONTINUOUS
 90
10
 70
0
 10
-44.3951423135
 20
10.2847788962
 10
-44.4070229374
 20
10.2859222092
 10
-44.4187445429
 20
10.2857049753
 10
-44.4301230918
 20
10.2841220656
 10
-44.440964656
 20
10.2811943397
 10
-44.4511104224
 20
10.2769581986
 10
-44.4604294064
 20
10.2714491587
 10
-44.4687663535
 20
10.2647245451
 10
-44.4759550775
 20
10.2568794004
 10
-44.4805482823
 20
10.2502612601
  0
LWPOLYLINE
  5
5FD
100
AcDbEntity
  8
IMPORT_IGES
100
AcDbPolyline
 62
253
  6
CONTINUOUS
 90
10
 70
0
 10
-44.9136642789
 20
9.4320973869
 10
-44.9253044
 20
9.4332397665
 10
-44.9367843855
 20
9.4330778251
 10
-44.9479326218
 20
9.4316103415
 10
-44.9585655824
 20
9.4288607616
 10
-44.9685409224
 20
9.4248653648
 10
-44.9777482936
 20
9.4196537934
 10
-44.986045692
 20
9.4132747829
 10
-44.9932739008
 20
9.4058150137
 10
-44.9992358464
 20
9.3974820422
  0
LINE
  5
5FE
100
AcDbEntity
  8
IMPORT_IGES
100
AcDbLine
 62
253
  6
CONTINUOUS
 10
-34.7252600767
 20
-10.6659425401
 11
-34.7252600767
 21
-10.4538105078
  0
LINE
  5
5FF
100
AcDbEntity
  8
IMPORT_IGES
100
AcDbLine
 62
253
  6
CONTINUOUS
 10
-33.3221999984
 20
8.1076875313
 11
-33.3221999984
 21
8.232901097
  0
LINE
  5
600
100
AcDbEntity
  8
0
100
AcDbLine
 62
7
  6
CONTINUOUS
 10
-47.9947103703
 20
10.6250145005
 11
-47.4534099636
 21
10.6250145005
  0
LINE
  5
601
100
AcDbEntity
  8
IMPORT_IGES
100
AcDbLine
 62
7
  6
CONTINUOUS
 10
-48.1490115436
 20
10.6250145005
 11
-55.9722000014
 21
10.6250145005
  0
LINE
  5
602
100
AcDbEntity
  8
0
100
AcDbLine
 62
7
  6
CONTINUOUS
 10
-55.2429119943
 20
10.7250145005
 11
-55.1337397159
 21
10.7250145005
  0
LINE
  5
603
100
AcDbEntity
  8
0
100
AcDbLine
 62
7
  6
CONTINUOUS
 10
-55.1279616997
 20
10.7250145005
 11
-51.7422592072
 21
10.7250145005
  0
LINE
  5
604
100
AcDbEntity
  8
0
100
AcDbLine
 62
7
  6
CONTINUOUS
 10
-51.7394152535
 20
10.7250145005
 11
-51.4244637561
 21
10.7250145005
  0
LINE
  5
605
100
AcDbEntity
  8
0
100
AcDbLine
 62
7
  6
CONTINUOUS
 10
-51.4222250172
 20
10.7250145005
 11
-49.7370873465
 21
10.7250145005
  0
LINE
  5
606
100
AcDbEntity
  8
0
100
AcDbLine
 62
7
  6
CONTINUOUS
 10
-48.6722
 20
10.7250145005
 11
-47.4534099636
 21
10.7250145005
  0
LINE
  5
607
100
AcDbEntity
  8
IMPORT_IGES
100
AcDbLine
 62
7
  6
CONTINUOUS
 10
-56.4722000019
 20
11.7750144998
 11
-55.9722000014
 21
11.7750144998
  0
LINE
  5
608
100
AcDbEntity
  8
IMPORT_IGES
100
AcDbLine
 62
7
  6
CONTINUOUS
 10
-35.950047232
 20
10.3206155656
 11
-35.8458411815
 21
10.3109716905
  0
LWPOLYLINE
  5
609
100
AcDbEntity
  8
IMPORT_IGES
100
AcDbPolyline
 62
7
  6
CONTINUOUS
 90
3
 70
0
 10
-35.9794174961
 20
9.6700733526
 10
-36.0071639728
 20
9.6730846471
 10
-36.0340229667
 20
9.6777752887
  0
LINE
  5
60A
100
AcDbEntity
  8
IMPORT_IGES
100
AcDbLine
 62
253
  6
CONTINUOUS
 10
-35.8635670395
 20
10.1620227262
 11
-33.9152930622
 21
9.9301659422
  0
LINE
  5
60B
100
AcDbEntity
  8
IMPORT_IGES
100
AcDbLine
 62
7
  6
CONTINUOUS
 10
-33.8975672045
 20
10.0791149065
 11
-35.8458411815
 21
10.3109716905
  0
LWPOLYLINE
  5
60C
100
AcDbEntity
  8
IMPORT_IGES
100
AcDbPolyline
 62
253
  6
CONTINUOUS
 90
3
 70
0
 10
-36.0142472221
 20
9.6526529404
 10
-36.0478708718
 20
9.6576053519
 10
-36.0810147218
 20
9.6645762482
  0
LWPOLYLINE
  5
60D
100
AcDbEntity
  8
IMPORT_IGES
100
AcDbPolyline
 62
7
  6
CONTINUOUS
 90
3
 70
0
 10
-35.441282492
 20
9.6596498993
 10
-35.4870756892
 20
9.6670685284
 10
-35.5208328502
 20
9.6687360192
  0
LWPOLYLINE
  5
60E
100
AcDbEntity
  8
IMPORT_IGES
100
AcDbPolyline
 62
253
  6
CONTINUOUS
 90
13
 70
0
 10
-36.0821861978
 20
10.3249748718
 10
-36.0755930343
 20
10.3237816763
 10
-36.068999873
 20
10.3201373812
 10
-36.0625800501
 20
10.3140510067
 10
-36.0565806969
 20
10.3057912555
 10
-36.0510624535
 20
10.2955563971
 10
-36.0459392317
 20
10.2831544548
 10
-36.0413393673
 20
10.2687182271
 10
-36.0374225787
 20
10.2526368446
 10
-36.0342218185
 20
10.2349038185
 10
-36.0318425563
 20
10.2158226063
 10
-36.0303857481
 20
10.1960707068
 10
-36.0298680055
 20
10.1762214514
  0
LWPOLYLINE
  5
60F
100
AcDbEntity
  8
IMPORT_IGES
100
AcDbPolyline
 62
7
  6
CONTINUOUS
 90
7
 70
0
 10
-36.0340229667
 20
9.6777752887
 10
-36.0593627469
 20
9.6839960368
 10
-36.0824642222
 20
9.6914670761
 10
-36.1028492187
 20
9.6998577525
 10
-36.1202392147
 20
9.7088200671
 10
-36.134047352
 20
9.7177160146
 10
-36.1434794047
 20
9.7253460264
  0
LWPOLYLINE
  5
610
100
AcDbEntity
  8
IMPORT_IGES
100
AcDbPolyline
 62
253
  6
CONTINUOUS
 90
5
 70
0
 10
-36.0810147218
 20
9.6645762482
 10
-36.1133399273
 20
9.673509752
 10
-36.1438299538
 20
9.6842382321
 10
-36.1724596795
 20
9.6968049434
 10
-36.1992542262
 20
9.7111666311
  0
LINE
  5
611
100
AcDbEntity
  8
IMPORT_IGES
100
AcDbLine
 62
253
  6
CONTINUOUS
 10
-27.1947723846
 20
0.7291765665
 11
-27.1989583622
 21
0.7323831313
  0
LINE
  5
612
100
AcDbEntity
  8
IMPORT_IGES
100
AcDbLine
 62
253
  6
CONTINUOUS
 10
-32.7222
 20
-8.3679077187
 11
-32.7222
 21
-2.4100144999
  0
LINE
  5
613
100
AcDbEntity
  8
IMPORT_IGES
100
AcDbLine
 62
7
  6
CONTINUOUS
 10
-32.4222
 20
-2.7100144999
 11
-32.4222
 21
-8.3679077184
  0
LINE
  5
614
100
AcDbEntity
  8
IMPORT_IGES
100
AcDbLine
 62
7
  6
CONTINUOUS
 10
-32.3422
 20
-7.0990825412
 11
-32.3422
 21
-2.6500144999
  0
LWPOLYLINE
  5
615
100
AcDbEntity
  8
IMPORT_IGES
100
AcDbPolyline
 62
7
  6
CONTINUOUS
 90
7
 70
0
 10
-34.9245363043
 20
-10.9872051045
 10
-34.8841454188
 20
-10.9756236238
 10
-34.843913112
 20
-10.959117887
 10
-34.804532048
 20
-10.9378957594
 10
-34.7670158918
 20
-10.9126147328
 10
-34.7315526916
 20
-10.8834525458
 10
-34.7131253109
 20
-10.8659456685
  0
LWPOLYLINE
  5
616
100
AcDbEntity
  8
IMPORT_IGES
100
AcDbPolyline
 62
253
  6
CONTINUOUS
 90
4
 70
0
 10
-36.2513580278
 20
10.2749163961
 10
-36.2700859459
 20
10.2804201008
 10
-36.2896370625
 20
10.2837469372
 10
-36.3096759599
 20
10.2847931213
  0
LWPOLYLINE
  5
617
100
AcDbEntity
  8
IMPORT_IGES
100
AcDbPolyline
 62
253
  6
CONTINUOUS
 90
8
 70
0
 10
-35.3309684062
 20
9.6153416933
 10
-35.3568099805
 20
9.6272242122
 10
-35.383861842
 20
9.6369271313
 10
-35.4117654064
 20
9.6442679918
 10
-35.4396796341
 20
9.6490146296
 10
-35.4671743812
 20
9.6512128537
 10
-35.4942812326
 20
9.6510461484
 10
-35.5208232886
 20
9.64863594
  0
LWPOLYLINE
  5
618
100
AcDbEntity
  8
IMPORT_IGES
100
AcDbPolyline
 62
253
  6
CONTINUOUS
 90
3
 70
0
 10
-36.2175371436
 20
10.2579370529
 10
-36.233739201
 20
10.2673629713
 10
-36.2513580278
 20
10.2749163961
  0
LWPOLYLINE
  5
619
100
AcDbEntity
  8
IMPORT_IGES
100
AcDbPolyline
 62
253
  6
CONTINUOUS
 90
8
 70
0
 10
-36.1992542262
 20
9.7111666311
 10
-36.2232724258
 20
9.7270258993
 10
-36.244488656
 20
9.7443698154
 10
-36.262928539
 20
9.7632113119
 10
-36.277727773
 20
9.7832917919
 10
-36.2885982572
 20
9.804525056
 10
-36.2958280924
 20
9.8269973035
 10
-36.2994172785
 20
9.8507085342
  0
LWPOLYLINE
  5
61A
100
AcDbEntity
  8
IMPORT_IGES
100
AcDbPolyline
 62
253
  6
CONTINUOUS
 90
10
 70
0
 10
-35.05296515
 20
9.4119126211
 10
-35.0691733759
 20
9.4226171575
 10
-35.0867021326
 20
9.431310437
 10
-35.105410567
 20
9.4379226044
 10
-35.1251483467
 20
9.4424005273
 10
-35.1457568681
 20
9.4447082232
 10
-35.1670705305
 20
9.4448271485
 10
-35.1889180671
 20
9.4427563476
 10
-35.2111239212
 20
9.4385124605
 10
-35.2335096568
 20
9.4321295891
  0
LINE
  5
61B
100
AcDbEntity
  8
IMPORT_IGES
100
AcDbLine
 62
253
  6
CONTINUOUS
 10
-35.2335096568
 20
9.172321968
 11
-32.7712801785
 21
7.3168989723
  0
LINE
  5
61C
100
AcDbEntity
  8
IMPORT_IGES
100
AcDbLine
 62
7
  6
CONTINUOUS
 10
-36.1434794047
 20
9.7253460264
 11
-36.1486079522
 21
9.7305445837
  0
LWPOLYLINE
  5
61D
100
AcDbEntity
  8
IMPORT_IGES
100
AcDbPolyline
 62
253
  6
CONTINUOUS
 90
4
 70
0
 10
-36.1800820748
 20
10.2210561273
 10
-36.1905563236
 20
10.2345323026
 10
-36.2030573404
 20
10.2468875149
 10
-36.2175371436
 20
10.2579370529
  0
LINE
  5
61E
100
AcDbEntity
  8
IMPORT_IGES
100
AcDbLine
 62
253
  6
CONTINUOUS
 10
-32.1135711018
 20
3.4202794518
 11
-30.7225056059
 21
0.3433864442
  0
LINE
  5
61F
100
AcDbEntity
  8
IMPORT_IGES
100
AcDbLine
 62
253
  6
CONTINUOUS
 10
-32.6932354898
 20
7.182358915
 11
-32.2989009995
 21
4.0760398709
  0
LINE
  5
620
100
AcDbEntity
  8
IMPORT_IGES
100
AcDbLine
 62
253
  6
CONTINUOUS
 10
-30.5722
 20
-8.8705111126
 11
-30.5722
 21
-0.3539325167
  0
LINE
  5
621
100
AcDbEntity
  8
IMPORT_IGES
100
AcDbLine
 62
253
  6
CONTINUOUS
 10
-30.4222
 20
0.650119275
 11
-30.4222
 21
6.3425822205
  0
LINE
  5
622
100
AcDbEntity
  8
IMPORT_IGES
100
AcDbLine
 62
253
  6
CONTINUOUS
 10
-26.9601240008
 20
0.4674314728
 11
-26.9544930861
 21
0.4745217986
  0
LWPOLYLINE
  5
623
100
AcDbEntity
  8
IMPORT_IGES
100
AcDbPolyline
 62
253
  6
CONTINUOUS
 90
5
 70
0
 10
-36.2060323124
 20
-11.416340165
 10
-36.2198347866
 20
-11.4311620241
 10
-36.2365248569
 20
-11.4448912043
 10
-36.2559281756
 20
-11.4571838566
 10
-36.2775151264
 20
-11.4676058997
  0
LINE
  5
624
100
AcDbEntity
  8
IMPORT_IGES
100
AcDbLine
 62
253
  6
CONTINUOUS
 10
-32.7807786438
 20
-8.5093290749
 11
-34.7252600767
 21
-10.4538105078
  0
LINE
  5
625
100
AcDbEntity
  8
IMPORT_IGES
100
AcDbLine
 62
253
  6
CONTINUOUS
 10
-35.1252600765
 20
-10.995231864
 11
-35.4171747468
 21
-11.2871465342
  0
LINE
  5
626
100
AcDbEntity
  8
IMPORT_IGES
100
AcDbLine
 62
253
  6
CONTINUOUS
 10
-34.7252600712
 20
-10.6659425367
 11
-34.9959707537
 21
-10.9366532201
  0
LWPOLYLINE
  5
627
100
AcDbEntity
  8
IMPORT_IGES
100
AcDbPolyline
 62
253
  6
CONTINUOUS
 90
7
 70
0
 10
-27.3636213562
 20
-3.6153858399
 10
-27.3439522858
 20
-3.5982708211
 10
-27.3222
 20
-3.5838495649
 10
-27.2987366865
 20
-3.5723688228
 10
-27.273963809
 20
-3.5640250336
 10
-27.2483052384
 20
-3.5589609619
 10
-27.2222
 20
-3.5572632552
  0
LWPOLYLINE
  5
628
100
AcDbEntity
  8
IMPORT_IGES
100
AcDbPolyline
 62
253
  6
CONTINUOUS
 90
5
 70
0
 10
-36.2775151264
 20
-11.4676058997
 10
-36.3012922991
 20
-11.4760667625
 10
-36.3268492935
 20
-11.4822831295
 10
-36.3532753781
 20
-11.4859889874
 10
-36.3798014647
 20
-11.4871464445
  0
LINE
  5
629
100
AcDbEntity
  8
IMPORT_IGES
100
AcDbLine
 62
253
  6
CONTINUOUS
 10
-35.2828160554
 20
9.5851177018
 11
-35.3062616095
 21
9.6012734618
  0
LWPOLYLINE
  5
62A
100
AcDbEntity
  8
IMPORT_IGES
100
AcDbPolyline
 62
7
  6
CONTINUOUS
 90
5
 70
0
 10
-35.28281527
 20
9.5851187195
 10
-35.3071464498
 20
9.6021914239
 10
-35.3504982272
 20
9.6270284287
 10
-35.3953990507
 20
9.6462043508
 10
-35.441282492
 20
9.6596498993
  0
LINE
  5
62B
100
AcDbEntity
  8
IMPORT_IGES
100
AcDbLine
 62
253
  6
CONTINUOUS
 10
-35.5208232885
 20
9.64863594
 11
-35.2335096564
 21
9.4321295891
  0
LINE
  5
62C
100
AcDbEntity
  8
IMPORT_IGES
100
AcDbLine
 62
7
  6
CONTINUOUS
 10
-32.5907356717
 20
7.5564896254
 11
-35.2828160554
 21
9.5851177018
  0
LINE
  5
62D
100
AcDbEntity
  8
IMPORT_IGES
100
AcDbLine
 62
253
  6
CONTINUOUS
 10
-32.5305541692
 20
7.6363531763
 11
-33.3221999984
 21
8.232901097
  0
LWPOLYLINE
  5
62E
100
AcDbEntity
  8
IMPORT_IGES
100
AcDbPolyline
 62
253
  6
CONTINUOUS
 90
3
 70
0
 10
-32.9366176084
 20
7.8239976907
 10
-32.9516594186
 20
7.8391700229
 10
-32.9675748051
 20
7.8550477127
  0
LWPOLYLINE
  5
62F
100
AcDbEntity
  8
IMPORT_IGES
100
AcDbPolyline
 62
253
  6
CONTINUOUS
 90
3
 70
0
 10
-32.9675748051
 20
7.8550477127
 10
-32.9824857651
 20
7.870212858
 10
-33.0199019377
 20
7.9092350153
  0
LINE
  5
630
100
AcDbEntity
  8
IMPORT_IGES
100
AcDbLine
 62
253
  6
CONTINUOUS
 10
-33.0199019377
 20
7.9092350153
 11
-33.087614065
 21
7.9810584873
  0
LWPOLYLINE
  5
631
100
AcDbEntity
  8
IMPORT_IGES
100
AcDbPolyline
 62
253
  6
CONTINUOUS
 90
8
 70
0
 10
-27.1130248863
 20
0.4657948651
 10
-27.1333876453
 20
0.4874544316
 10
-27.1507618722
 20
0.5127270101
 10
-27.1645874467
 20
0.5411984563
 10
-27.1739867599
 20
0.5718221082
 10
-27.1791043697
 20
0.6033661704
 10
-27.1800711995
 20
0.6352190831
 10
-27.1765218866
 20
0.6671557267
  0
LINE
  5
632
100
AcDbEntity
  8
IMPORT_IGES
100
AcDbLine
 62
253
  6
CONTINUOUS
 10
-33.087614065
 20
7.9810584873
 11
-33.2139421405
 21
8.1162809637
  0
LINE
  5
633
100
AcDbEntity
  8
IMPORT_IGES
100
AcDbLine
 62
253
  6
CONTINUOUS
 10
-33.2139421405
 20
8.1162809637
 11
-33.3221999984
 21
8.232901097
  0
LWPOLYLINE
  5
634
100
AcDbEntity
  8
0
100
AcDbPolyline
 62
7
  6
CONTINUOUS
 90
10
 70
0
 43
0.3500000006
 10
-40.1382702026
 20
21.0250128937
 10
-40.0668435516
 20
20.8821595917
 10
-40.0668435516
 20
20.8107284088
 10
-40.2097013855
 20
20.667870575
 10
-40.2811280365
 20
20.667870575
 10
-40.3525592194
 20
20.7393017578
 10
-40.3525592194
 20
20.8107284088
 10
-40.2811280365
 20
20.9535862427
 10
-40.2097013855
 20
21.0250128937
 10
-40.1382702026
 20
21.0250128937
  0
LWPOLYLINE
  5
635
100
AcDbEntity
  8
0
100
AcDbPolyline
 62
7
  6
CONTINUOUS
 90
10
 70
0
 43
0.3500000006
 10
-44.4775582123
 20
31.0250159454
 10
-44.4061270294
 20
30.8821581116
 10
-44.4061270294
 20
30.8107269287
 10
-44.5489848633
 20
30.6678736267
 10
-44.6204160461
 20
30.6678736267
 10
-44.6918426971
 20
30.7393002777
 10
-44.6918426971
 20
30.8107269287
 10
-44.6204160461
 20
30.9535847626
 10
-44.5489848633
 20
31.0250159454
 10
-44.4775582123
 20
31.0250159454
  0
LINE
  5
636
100
AcDbEntity
  8
IMPORT_IGES
100
AcDbLine
 62
7
  6
CONTINUOUS
 10
-31.8402099634
 20
3.543866215
 11
-30.4491444675
 21
0.4669732074
  0
LINE
  5
637
100
AcDbEntity
  8
IMPORT_IGES
100
AcDbLine
 62
253
  6
CONTINUOUS
 10
-30.4222
 20
0.650119275
 11
-31.7490895839
 21
3.5850618028
  0
LINE
  5
638
100
AcDbEntity
  8
IMPORT_IGES
100
AcDbLine
 62
253
  6
CONTINUOUS
 10
-33.282562455
 20
8.1086292078
 11
-33.3221999984
 21
8.232901097
  0
LWPOLYLINE
  5
639
100
AcDbEntity
  8
IMPORT_IGES
100
AcDbPolyline
 62
253
  6
CONTINUOUS
 90
10
 70
0
 10
-30.4222
 20
0.650119275
 10
-30.3626507042
 20
0.4110846947
 10
-30.3436940404
 20
0.3245063402
 10
-30.3267585816
 20
0.2368489342
 10
-30.3120207436
 20
0.1495916824
 10
-30.2993058598
 20
0.0611745955
 10
-30.2884403746
 20
-0.0329229798
 10
-30.2798518624
 20
-0.1341983147
 10
-30.2742294339
 20
-0.2411887155
 10
-30.2722
 20
-0.3539325167
  0
LINE
  5
63A
100
AcDbEntity
  8
IMPORT_IGES
100
AcDbLine
 62
7
  6
CONTINUOUS
 10
-32.3956239497
 20
7.2201394817
 11
-32.0012894595
 21
4.1138204379
  0
LINE
  5
63B
100
AcDbEntity
  8
IMPORT_IGES
100
AcDbLine
 62
253
  6
CONTINUOUS
 10
-31.9020856128
 20
4.1264139603
 11
-32.2964201031
 21
7.2327330044
  0
LINE
  5
63C
100
AcDbEntity
  8
IMPORT_IGES
100
AcDbLine
 62
7
  6
CONTINUOUS
 10
-30.2722
 20
6.3425822201
 11
-30.2722
 21
-8.5705111126
  0
LWPOLYLINE
  5
63D
100
AcDbEntity
  8
IMPORT_IGES
100
AcDbPolyline
 62
253
  6
CONTINUOUS
 90
4
 70
0
 10
-26.9544930861
 20
0.4745217986
 10
-26.9504916958
 20
0.4816913197
 10
-26.948060667
 20
0.4889835034
 10
-26.9472
 20
0.4963983496
  0
LINE
  5
63E
100
AcDbEntity
  8
IMPORT_IGES
100
AcDbLine
 62
7
  6
CONTINUOUS
 10
-32.5686466094
 20
-8.7214611093
 11
-35.2757533904
 21
-11.4285678902
  0
LINE
  5
63F
100
AcDbEntity
  8
IMPORT_IGES
100
AcDbLine
 62
253
  6
CONTINUOUS
 10
-33.4146988268
 20
9.6871625754
 11
-30.671159236
 21
6.9436229845
  0
LINE
  5
640
100
AcDbEntity
  8
IMPORT_IGES
100
AcDbLine
 62
7
  6
CONTINUOUS
 10
-33.3086328094
 20
9.7932285923
 11
-30.565093219
 21
7.049689002
  0
LWPOLYLINE
  5
641
100
AcDbEntity
  8
IMPORT_IGES
100
AcDbPolyline
 62
253
  6
CONTINUOUS
 90
9
 70
0
 10
-27.1680937451
 20
0.6987800419
 10
-27.1708388574
 20
0.7030715939
 10
-27.1737499631
 20
0.7072126662
 10
-27.1768244182
 20
0.7112101536
 10
-27.1800443701
 20
0.7150798841
 10
-27.1834197181
 20
0.7188190325
 10
-27.186993922
 20
0.7224100589
 10
-27.1907835513
 20
0.7258560169
 10
-27.1947723846
 20
0.7291765665
  0
LWPOLYLINE
  5
642
100
AcDbEntity
  8
IMPORT_IGES
100
AcDbPolyline
 62
7
  6
CONTINUOUS
 90
13
 70
0
 10
-27.5221999999
 20
-3.7548914963
 10
-27.5223523273
 20
-3.7282414343
 10
-27.5223797432
 20
-3.7020624336
 10
-27.5222822475
 20
-3.6768219938
 10
-27.5218576371
 20
-3.6529150135
 10
-27.5213081152
 20
-3.630834487
 10
-27.5212402918
 20
-3.6111142574
 10
-27.5221585675
 20
-3.5940544047
 10
-27.5235585417
 20
-3.5798922902
 10
-27.5245336219
 20
-3.5688766179
 10
-27.5247816107
 20
-3.5610750455
 10
-27.5246047056
 20
-3.5564473813
 10
-27.5240029065
 20
-3.5549276307
  0
LINE
  5
643
100
AcDbEntity
  8
IMPORT_IGES
100
AcDbLine
 62
253
  6
CONTINUOUS
 10
-27.5222
 20
-6.2753122475
 11
-27.5221999999
 21
-3.7548914963
  0
LINE
  5
644
100
AcDbEntity
  8
IMPORT_IGES
100
AcDbLine
 62
7
  6
CONTINUOUS
 10
-27.4222
 20
-3.755706112
 11
-27.4222
 21
-7.0753122475
  0
LWPOLYLINE
  5
645
100
AcDbEntity
  8
IMPORT_IGES
100
AcDbPolyline
 62
253
  6
CONTINUOUS
 90
3
 70
0
 10
-27.1680939025
 20
0.6987800419
 10
-27.1710795778
 20
0.6707713443
 10
-27.1703833221
 20
0.6429316442
  0
LWPOLYLINE
  5
646
100
AcDbEntity
  8
IMPORT_IGES
100
AcDbPolyline
 62
253
  6
CONTINUOUS
 90
10
 70
0
 10
-27.1472
 20
2.0230061361
 10
-27.1487192247
 20
2.0090263941
 10
-27.1532307379
 20
1.9954714195
 10
-27.1605974596
 20
1.9827530734
 10
-27.1705955557
 20
1.9712577962
 10
-27.182921239
 20
1.9613348661
 10
-27.1972
 20
1.9532857863
 10
-27.2129979857
 20
1.9473551241
 10
-27.2298351822
 20
1.9437230796
 10
-27.2472
 20
1.9425000107
  0
LINE
  5
647
100
AcDbEntity
  8
IMPORT_IGES
100
AcDbLine
 62
253
  6
CONTINUOUS
 10
-27.1765218866
 20
0.6671557267
 11
-27.1680939025
 21
0.6987800419
  0
LWPOLYLINE
  5
648
100
AcDbEntity
  8
IMPORT_IGES
100
AcDbPolyline
 62
253
  6
CONTINUOUS
 90
10
 70
0
 10
-27.1472
 20
0.6861294366
 10
-27.1474781233
 20
0.6876099188
 10
-27.1483063923
 20
0.6890420138
 10
-27.1496734578
 20
0.6904503424
 10
-27.1515674348
 20
0.6918917669
 10
-27.1539703254
 20
0.6933564945
 10
-27.1568527984
 20
0.6947678214
 10
-27.1601848792
 20
0.6961133277
 10
-27.1639416005
 20
0.6974449469
 10
-27.1680937451
 20
0.6987800419
  0
LWPOLYLINE
  5
649
100
AcDbEntity
  8
IMPORT_IGES
100
AcDbPolyline
 62
253
  6
CONTINUOUS
 90
6
 70
0
 10
-27.4222
 20
-3.9235851052
 10
-27.4237192248
 20
-3.9138227504
 10
-27.4282307384
 20
-3.9043570199
 10
-27.4355974604
 20
-3.8954755253
 10
-27.4455955567
 20
-3.8874481262
 10
-27.4579212399
 20
-3.8805187311
  0
LWPOLYLINE
  5
64A
100
AcDbEntity
  8
IMPORT_IGES
100
AcDbPolyline
 62
253
  6
CONTINUOUS
 90
10
 70
0
 10
-27.2222
 20
-3.5572632621
 10
-27.222202638
 20
-3.5567737695
 10
-27.2222118303
 20
-3.5563415444
 10
-27.2222275769
 20
-3.5559667005
 10
-27.2222498798
 20
-3.5556493135
 10
-27.2222787371
 20
-3.5553895133
 10
-27.2223141424
 20
-3.5551874296
 10
-27.2223560936
 20
-3.5550430941
 10
-27.2224045929
 20
-3.5549564949
 10
-27.2224596401
 20
-3.5549276307
  0
LINE
  5
64B
100
AcDbEntity
  8
IMPORT_IGES
100
AcDbLine
 62
253
  6
CONTINUOUS
 10
-27.2471999127
 20
0.4249855001
 11
-27.2472
 21
2.9795741383
  0
LINE
  5
64C
100
AcDbEntity
  8
IMPORT_IGES
100
AcDbLine
 62
253
  6
CONTINUOUS
 10
-27.2222
 20
-3.5572632621
 11
-27.2222
 21
-7.2753122475
  0
LINE
  5
64D
100
AcDbEntity
  8
IMPORT_IGES
100
AcDbLine
 62
7
  6
CONTINUOUS
 10
-27.1472
 20
3.6219873689
 11
-27.1472
 21
0.6861294352
  0
LINE
  5
64E
100
AcDbEntity
  8
IMPORT_IGES
100
AcDbLine
 62
253
  6
CONTINUOUS
 10
-26.9472
 20
0.4963983496
 11
-26.9472
 21
3.8222748677
  0
LINE
  5
64F
100
AcDbEntity
  8
IMPORT_IGES
100
AcDbLine
 62
253
  6
CONTINUOUS
 10
-26.6472
 20
0.4249855001
 11
-26.6472
 21
3.8222748677
  0
LINE
  5
650
100
AcDbEntity
  8
IMPORT_IGES
100
AcDbLine
 62
253
  6
CONTINUOUS
 10
-26.6222
 20
-7.2753122475
 11
-26.6222
 21
-3.5549276307
  0
LINE
  5
651
100
AcDbEntity
  8
IMPORT_IGES
100
AcDbLine
 62
7
  6
CONTINUOUS
 10
-26.4472
 20
0.624984161
 11
-26.4472
 21
3.6219873689
  0
LINE
  5
652
100
AcDbEntity
  8
IMPORT_IGES
100
AcDbLine
 62
7
  6
CONTINUOUS
 10
-26.4222
 20
-7.0753122475
 11
-26.4222
 21
-3.7549276307
  0
LINE
  5
653
100
AcDbEntity
  8
IMPORT_IGES
100
AcDbLine
 62
253
  6
CONTINUOUS
 10
-27.0098812354
 20
0.4352535495
 11
-27.0098819567
 21
0.4249855001
  0
LWPOLYLINE
  5
654
100
AcDbEntity
  8
IMPORT_IGES
100
AcDbPolyline
 62
253
  6
CONTINUOUS
 90
13
 70
0
 10
-27.4222944145
 20
-3.7548921976
 10
-27.4205685489
 20
-3.7286859208
 10
-27.4154377544
 20
-3.7029734775
 10
-27.4070066948
 20
-3.6781935235
 10
-27.3954429374
 20
-3.6547776898
 10
-27.3809549843
 20
-3.633103993
 10
-27.3637723815
 20
-3.6135009293
 10
-27.3441881898
 20
-3.5963026724
 10
-27.3225344718
 20
-3.5818006591
 10
-27.2991356335
 20
-3.5702233902
 10
-27.2743674973
 20
-3.5617809658
 10
-27.2486623873
 20
-3.5566436674
 10
-27.2224590053
 20
-3.5549181952
  0
LWPOLYLINE
  5
655
100
AcDbEntity
  8
IMPORT_IGES
100
AcDbPolyline
 62
253
  6
CONTINUOUS
 90
10
 70
0
 10
-26.4472
 20
0.9289179219
 10
-26.4502384494
 20
0.8959714651
 10
-26.4592614758
 20
0.8640260697
 10
-26.4739949192
 20
0.8340523803
 10
-26.4939911114
 20
0.8069611325
 10
-26.5186424781
 20
0.78357548
 10
-26.5472
 20
0.764605984
 10
-26.5787959713
 20
0.7506290231
 10
-26.6124703645
 20
0.7420692802
 10
-26.6472
 20
0.7391868387
  0
LWPOLYLINE
  5
656
100
AcDbEntity
  8
IMPORT_IGES
100
AcDbPolyline
 62
253
  6
CONTINUOUS
 90
13
 70
0
 10
-26.4222
 20
-3.8932087047
 10
-26.4239110277
 20
-3.9032020703
 10
-26.4290148347
 20
-3.9130244467
 10
-26.4374240935
 20
-3.9225077703
 10
-26.4489949192
 20
-3.9314897787
 10
-26.4635293319
 20
-3.9398167873
 10
-26.4807786438
 20
-3.9473463188
 10
-26.5004477142
 20
-3.9539495406
 10
-26.5222
 20
-3.9595134699
 10
-26.5456633135
 20
-3.9639429062
 10
-26.570436191
 20
-3.9671620608
 10
-26.5960947616
 20
-3.9691158529
 10
-26.6222
 20
-3.9697708527
  0
LWPOLYLINE
  5
657
100
AcDbEntity
  8
IMPORT_IGES
100
AcDbPolyline
 62
253
  6
CONTINUOUS
 90
10
 70
0
 10
-26.4472
 20
1.0811667324
 10
-26.4502384494
 20
1.1010957326
 10
-26.4592614758
 20
1.1204192001
 10
-26.4739949192
 20
1.1385500013
 10
-26.4939911114
 20
1.1549372409
 10
-26.5186424781
 20
1.169083001
 10
-26.5472
 20
1.1805574697
 10
-26.5787959713
 20
1.1890120011
 10
-26.6124703645
 20
1.1941897086
 10
-26.6472
 20
1.1959332702
  0
LWPOLYLINE
  5
658
100
AcDbEntity
  8
IMPORT_IGES
100
AcDbPolyline
 62
253
  6
CONTINUOUS
 90
10
 70
0
 10
-27.1703833221
 20
0.6429316442
 10
-27.1664155596
 20
0.6153206187
 10
-27.1592130258
 20
0.5873225252
 10
-27.1484598237
 20
0.5594677673
 10
-27.1345479629
 20
0.5334403538
 10
-27.1183050188
 20
0.5096158694
 10
-27.099626147
 20
0.4879017358
 10
-27.0786658399
 20
0.4692922825
 10
-27.0561329177
 20
0.4542987668
 10
-27.0329233108
 20
0.4429182383
  0
LWPOLYLINE
  5
659
100
AcDbEntity
  8
0
100
AcDbPolyline
 62
7
  6
CONTINUOUS
 90
8
 70
0
 43
0.3500000006
 10
-39.0668432465
 20
20.5250127411
 10
-38.2097007751
 20
20.5250127411
 10
-37.7811295395
 20
20.9535862427
 10
-37.7811295395
 20
21.810728714
 10
-38.2097007751
 20
22.2393022156
 10
-39.0668432465
 20
22.2393022156
 10
-39.0668432465
 20
23.5250136566
 10
-37.7811295395
 20
23.5250136566
  0
LWPOLYLINE
  5
65A
100
AcDbEntity
  8
0
100
AcDbPolyline
 62
7
  6
CONTINUOUS
 90
7
 70
0
 43
0.3500000006
 10
-43.9954135895
 20
20.5250127411
 10
-45.4954140472
 20
20.5250127411
 10
-43.9954135895
 20
22.6678711853
 10
-43.9954135895
 20
23.0964446869
 10
-44.4239870911
 20
23.5250136566
 10
-45.0668450775
 20
23.5250136566
 10
-45.4954140472
 20
22.8821556702
  0
LWPOLYLINE
  5
65B
100
AcDbEntity
  8
0
100
AcDbPolyline
 62
7
  6
CONTINUOUS
 90
6
 70
0
 43
0.3500000006
 10
-49.6204130402
 20
30.5250157928
 10
-48.548986084
 20
30.5250157928
 10
-48.3347015991
 20
30.7393002777
 10
-48.3347015991
 20
31.8107272339
 10
-48.7632705688
 20
32.2393007355
 10
-49.1918440704
 20
32.2393007355
  0
LWPOLYLINE
  5
65C
100
AcDbEntity
  8
0
100
AcDbPolyline
 62
7
  6
CONTINUOUS
 90
13
 70
0
 43
0.3500000006
 10
-42.9775577545
 20
32.2393007355
 10
-43.2632734222
 20
32.4535852203
 10
-43.2632734222
 20
33.0964432068
 10
-42.9775577545
 20
33.5250167084
 10
-42.3346997681
 20
33.5250167084
 10
-42.0489841003
 20
33.0964432068
 10
-42.0489841003
 20
32.4535852203
 10
-42.3346997681
 20
32.2393007355
 10
-41.9061307983
 20
31.8107272339
 10
-41.9061307983
 20
30.9535847626
 10
-42.3346997681
 20
30.5250157928
 10
-42.9775577545
 20
30.5250157928
 10
-43.4061267242
 20
30.9535847626
  0
ARC
  5
65D
100
AcDbEntity
  8
IMPORT_IGES
100
AcDbCircle
 62
7
  6
CONTINUOUS
 10
-6.8787960079
 20
-11.2750144999
 40
0.3
100
AcDbArc
 50
225.0
 51
270.0
  0
ARC
  5
65E
100
AcDbEntity
  8
IMPORT_IGES
100
AcDbCircle
 62
7
  6
CONTINUOUS
 10
-7.7
 20
-10.4538105078
 40
0.3
100
AcDbArc
 50
180.0
 51
225.0
  0
ARC
  5
65F
100
AcDbEntity
  8
IMPORT_IGES
100
AcDbCircle
 62
7
  6
CONTINUOUS
 10
-8.05
 20
-6.1250144999
 40
0.2
100
AcDbArc
 50
180.0
 51
270.0
  0
ARC
  5
660
100
AcDbEntity
  8
IMPORT_IGES
100
AcDbCircle
 62
7
  6
CONTINUOUS
 10
-6.6
 20
-11.6750144999
 40
0.1
100
AcDbArc
 50
0.0
 51
89.9999999998
  0
ARC
  5
661
100
AcDbEntity
  8
IMPORT_IGES
100
AcDbCircle
 62
7
  6
CONTINUOUS
 10
-6.4
 20
-11.6750144999
 40
0.1
100
AcDbArc
 50
180.0
 51
269.9999999999
  0
ARC
  5
662
100
AcDbEntity
  8
IMPORT_IGES
100
AcDbCircle
 62
7
  6
CONTINUOUS
 10
-7.7
 20
9.172321968
 40
0.3
100
AcDbArc
 50
120.0000000615
 51
180.0
  0
ARC
  5
663
100
AcDbEntity
  8
IMPORT_IGES
100
AcDbCircle
 62
7
  6
CONTINUOUS
 10
-7.7
 20
9.0249855001
 40
0.3
100
AcDbArc
 50
90.0
 51
180.0
  0
ARC
  5
664
100
AcDbEntity
  8
IMPORT_IGES
100
AcDbCircle
 62
7
  6
CONTINUOUS
 10
-6.2231434405
 20
10.0249855001
 40
0.3
100
AcDbArc
 50
90.0000013346
 51
119.9996084994
  0
ARC
  5
665
100
AcDbEntity
  8
IMPORT_IGES
100
AcDbCircle
 62
7
  6
CONTINUOUS
 10
-6.95
 20
9.0249855001
 40
0.3
100
AcDbArc
 50
90.0
 51
180.0
  0
ARC
  5
666
100
AcDbEntity
  8
IMPORT_IGES
100
AcDbCircle
 62
253
  6
CONTINUOUS
 10
-7.7
 20
9.172321968
 40
0.25
100
AcDbArc
 50
161.5223060036
 51
175.49062068
  0
ARC
  5
667
100
AcDbEntity
  8
IMPORT_IGES
100
AcDbCircle
 62
7
  6
CONTINUOUS
 10
-6.05
 20
6.3749855001
 40
0.2
100
AcDbArc
 50
90.0
 51
180.0
  0
ARC
  5
668
100
AcDbEntity
  8
IMPORT_IGES
100
AcDbCircle
 62
7
  6
CONTINUOUS
 10
-6.05
 20
3.7749855001
 40
0.2
100
AcDbArc
 50
180.0
 51
270.0
  0
ARC
  5
669
100
AcDbEntity
  8
IMPORT_IGES
100
AcDbCircle
 62
7
  6
CONTINUOUS
 10
-8.05
 20
5.1749855001
 40
0.2
100
AcDbArc
 50
90.0
 51
180.0
  0
ARC
  5
66A
100
AcDbEntity
  8
IMPORT_IGES
100
AcDbCircle
 62
7
  6
CONTINUOUS
 10
-6.1
 20
10.4249855001
 40
0.1
100
AcDbArc
 50
269.9999999998
 51
360.0
  0
ARC
  5
66B
100
AcDbEntity
  8
IMPORT_IGES
100
AcDbCircle
 62
7
  6
CONTINUOUS
 10
-5.9
 20
10.4249855001
 40
0.1
100
AcDbArc
 50
90.0000000001
 51
180.0
  0
ARC
  5
66C
100
AcDbEntity
  8
IMPORT_IGES
100
AcDbCircle
 62
7
  6
CONTINUOUS
 10
6.8787960079
 20
-11.2750144999
 40
0.3
100
AcDbArc
 50
270.0
 51
315.0
  0
ARC
  5
66D
100
AcDbEntity
  8
IMPORT_IGES
100
AcDbCircle
 62
7
  6
CONTINUOUS
 10
7.7
 20
-10.4538105078
 40
0.3
100
AcDbArc
 50
315.0000014823
 51
360.0
  0
ARC
  5
66E
100
AcDbEntity
  8
IMPORT_IGES
100
AcDbCircle
 62
7
  6
CONTINUOUS
 10
8.05
 20
-6.1250144999
 40
0.2
100
AcDbArc
 50
270.0
 51
360.0
  0
ARC
  5
66F
100
AcDbEntity
  8
IMPORT_IGES
100
AcDbCircle
 62
7
  6
CONTINUOUS
 10
6.6
 20
-11.6750144999
 40
0.1
100
AcDbArc
 50
90.0000000001
 51
180.0
  0
ARC
  5
670
100
AcDbEntity
  8
IMPORT_IGES
100
AcDbCircle
 62
7
  6
CONTINUOUS
 10
6.4
 20
-11.6750144999
 40
0.1
100
AcDbArc
 50
270.0000000001
 51
360.0
  0
ARC
  5
671
100
AcDbEntity
  8
IMPORT_IGES
100
AcDbCircle
 62
7
  6
CONTINUOUS
 10
6.2231434405
 20
10.0249855001
 40
0.3
100
AcDbArc
 50
60.0
 51
89.9999995361
  0
ARC
  5
672
100
AcDbEntity
  8
IMPORT_IGES
100
AcDbCircle
 62
7
  6
CONTINUOUS
 10
7.7
 20
9.172321968
 40
0.3
100
AcDbArc
 50
0.0
 51
59.9989137149
  0
ARC
  5
673
100
AcDbEntity
  8
IMPORT_IGES
100
AcDbCircle
 62
7
  6
CONTINUOUS
 10
7.7
 20
9.0249855001
 40
0.3
100
AcDbArc
 50
0.0
 51
90.0
  0
ARC
  5
674
100
AcDbEntity
  8
IMPORT_IGES
100
AcDbCircle
 62
7
  6
CONTINUOUS
 10
6.95
 20
9.0249855001
 40
0.3
100
AcDbArc
 50
0.0
 51
89.9997513476
  0
ARC
  5
675
100
AcDbEntity
  8
IMPORT_IGES
100
AcDbCircle
 62
253
  6
CONTINUOUS
 10
7.7
 20
9.172321968
 40
0.25
100
AcDbArc
 50
4.5093793198
 51
18.4069931475
  0
ARC
  5
676
100
AcDbEntity
  8
IMPORT_IGES
100
AcDbCircle
 62
7
  6
CONTINUOUS
 10
6.05
 20
6.3749855001
 40
0.2
100
AcDbArc
 50
0.0
 51
90.0
  0
ARC
  5
677
100
AcDbEntity
  8
IMPORT_IGES
100
AcDbCircle
 62
7
  6
CONTINUOUS
 10
6.05
 20
3.7749855001
 40
0.2
100
AcDbArc
 50
270.0
 51
360.0
  0
ARC
  5
678
100
AcDbEntity
  8
IMPORT_IGES
100
AcDbCircle
 62
7
  6
CONTINUOUS
 10
8.05
 20
5.1749855001
 40
0.2
100
AcDbArc
 50
0.0
 51
90.0
  0
ARC
  5
679
100
AcDbEntity
  8
IMPORT_IGES
100
AcDbCircle
 62
7
  6
CONTINUOUS
 10
6.1
 20
10.4249855001
 40
0.1
100
AcDbArc
 50
180.0
 51
270.0
  0
ARC
  5
67A
100
AcDbEntity
  8
IMPORT_IGES
100
AcDbCircle
 62
7
  6
CONTINUOUS
 10
5.9
 20
10.4249855001
 40
0.1
100
AcDbArc
 50
0.0
 51
90.0
  0
ARC
  5
67B
100
AcDbEntity
  8
IMPORT_IGES
100
AcDbCircle
 62
7
  6
CONTINUOUS
 10
-50.4222
 20
-9.360751712
 40
0.3
100
AcDbArc
 50
180.0
 51
237.4051679366
  0
ARC
  5
67C
100
AcDbEntity
  8
IMPORT_IGES
100
AcDbCircle
 62
7
  6
CONTINUOUS
 10
-63.9222
 20
-8.1695109765
 40
0.3
100
AcDbArc
 50
180.0
 51
269.8
  0
ARC
  5
67D
100
AcDbEntity
  8
IMPORT_IGES
100
AcDbCircle
 62
7
  6
CONTINUOUS
 10
-50.4222
 20
-4.079042401
 40
0.3
100
AcDbArc
 50
121.2038883177
 51
180.0
  0
ARC
  5
67E
100
AcDbEntity
  8
IMPORT_IGES
100
AcDbCircle
 62
7
  6
CONTINUOUS
 10
-52.9370976664
 20
-6.1250144999
 40
0.2
100
AcDbArc
 50
231.6869093262
 51
270.0
  0
ARC
  5
67F
100
AcDbEntity
  8
IMPORT_IGES
100
AcDbCircle
 62
7
  6
CONTINUOUS
 10
-54.0722
 20
-5.2281435202
 40
0.2
100
AcDbArc
 50
180.0
 51
231.6869093257
  0
ARC
  5
680
100
AcDbEntity
  8
IMPORT_IGES
100
AcDbCircle
 62
7
  6
CONTINUOUS
 10
-32.9222
 20
-8.3679077187
 40
0.5
100
AcDbArc
 50
314.9999999914
 51
360.0
  0
ARC
  5
681
100
AcDbEntity
  8
IMPORT_IGES
100
AcDbCircle
 62
7
  6
CONTINUOUS
 10
-35.6293067812
 20
-11.0750144999
 40
0.5
100
AcDbArc
 50
270.0
 51
315.0
  0
ARC
  5
682
100
AcDbEntity
  8
IMPORT_IGES
100
AcDbCircle
 62
253
  6
CONTINUOUS
 10
-35.6293067812
 20
-11.0750144999
 40
0.3
100
AcDbArc
 50
270.0
 51
315.0
  0
ARC
  5
683
100
AcDbEntity
  8
IMPORT_IGES
100
AcDbCircle
 62
7
  6
CONTINUOUS
 10
-30.5722
 20
-8.5705111126
 40
0.3
100
AcDbArc
 50
270.0
 51
359.9999999998
  0
ARC
  5
684
100
AcDbEntity
  8
IMPORT_IGES
100
AcDbCircle
 62
7
  6
CONTINUOUS
 10
-36.3799941493
 20
-11.3750144999
 40
0.2
100
AcDbArc
 50
270.0
 51
359.6418935168
  0
ARC
  5
685
100
AcDbEntity
  8
IMPORT_IGES
100
AcDbCircle
 62
253
  6
CONTINUOUS
 10
-32.9222
 20
-8.3679077187
 40
0.2
100
AcDbArc
 50
315.0
 51
360.0
  0
ARC
  5
686
100
AcDbEntity
  8
IMPORT_IGES
100
AcDbCircle
 62
7
  6
CONTINUOUS
 10
-38.6722
 20
-11.6750144999
 40
0.1
100
AcDbArc
 50
0.0
 51
89.9999999998
  0
ARC
  5
687
100
AcDbEntity
  8
IMPORT_IGES
100
AcDbCircle
 62
7
  6
CONTINUOUS
 10
-37.7722
 20
-11.6750144999
 40
0.1
100
AcDbArc
 50
89.9999999999
 51
180.0
  0
ARC
  5
688
100
AcDbEntity
  8
IMPORT_IGES
100
AcDbCircle
 62
7
  6
CONTINUOUS
 10
-44.4722
 20
-11.6750144999
 40
0.1
100
AcDbArc
 50
90.0
 51
180.0
  0
ARC
  5
689
100
AcDbEntity
  8
IMPORT_IGES
100
AcDbCircle
 62
7
  6
CONTINUOUS
 10
-44.6722
 20
-11.6750144999
 40
0.1
100
AcDbArc
 50
270.0000000001
 51
360.0
  0
ARC
  5
68A
100
AcDbEntity
  8
IMPORT_IGES
100
AcDbCircle
 62
7
  6
CONTINUOUS
 10
-45.1722
 20
-11.6750144999
 40
0.1
100
AcDbArc
 50
180.0
 51
270.0
  0
ARC
  5
68B
100
AcDbEntity
  8
IMPORT_IGES
100
AcDbCircle
 62
7
  6
CONTINUOUS
 10
-45.3722
 20
-11.6750144999
 40
0.1
100
AcDbArc
 50
0.0
 51
90.0
  0
ARC
  5
68C
100
AcDbEntity
  8
IMPORT_IGES
100
AcDbCircle
 62
7
  6
CONTINUOUS
 10
-38.4722
 20
-11.6750144999
 40
0.1
100
AcDbArc
 50
180.0
 51
270.0
  0
ARC
  5
68D
100
AcDbEntity
  8
IMPORT_IGES
100
AcDbCircle
 62
7
  6
CONTINUOUS
 10
-37.9722
 20
-11.6750144999
 40
0.1
100
AcDbArc
 50
270.0000000005
 51
360.0
  0
ARC
  5
68E
100
AcDbEntity
  8
IMPORT_IGES
100
AcDbCircle
 62
7
  6
CONTINUOUS
 10
-32.1222
 20
-3.2549276307
 40
0.3
100
AcDbArc
 50
180.0
 51
222.7193392624
  0
ARC
  5
68F
100
AcDbEntity
  8
IMPORT_IGES
100
AcDbCircle
 62
7
  6
CONTINUOUS
 10
-50.4222
 20
3.1290134013
 40
0.3
100
AcDbArc
 50
180.0
 51
238.7961116824
  0
ARC
  5
690
100
AcDbEntity
  8
IMPORT_IGES
100
AcDbCircle
 62
7
  6
CONTINUOUS
 10
-54.0722
 20
4.2781145205
 40
0.2
100
AcDbArc
 50
128.3130906738
 51
180.0
  0
ARC
  5
691
100
AcDbEntity
  8
IMPORT_IGES
100
AcDbCircle
 62
7
  6
CONTINUOUS
 10
-63.9222
 20
7.2194819768
 40
0.3
100
AcDbArc
 50
90.2
 51
180.0
  0
ARC
  5
692
100
AcDbEntity
  8
IMPORT_IGES
100
AcDbCircle
 62
7
  6
CONTINUOUS
 10
-58.1788112418
 20
9.8934460133
 40
0.3
100
AcDbArc
 50
131.0090869031
 51
251.5650798578
  0
ARC
  5
693
100
AcDbEntity
  8
IMPORT_IGES
100
AcDbCircle
 62
7
  6
CONTINUOUS
 10
-52.9370976664
 20
5.1749855001
 40
0.2
100
AcDbArc
 50
90.0
 51
128.3130906738
  0
ARC
  5
694
100
AcDbEntity
  8
IMPORT_IGES
100
AcDbCircle
 62
7
  6
CONTINUOUS
 10
-48.1490115436
 20
8.6250145005
 40
2.0
100
AcDbArc
 50
29.0543979959
 51
90.0
  0
ARC
  5
695
100
AcDbEntity
  8
IMPORT_IGES
100
AcDbCircle
 62
7
  6
CONTINUOUS
 10
-50.4222
 20
7.7507214314
 40
0.3
100
AcDbArc
 50
135.0
 51
180.0
  0
ARC
  5
696
100
AcDbEntity
  8
IMPORT_IGES
100
AcDbCircle
 62
7
  6
CONTINUOUS
 10
-49.1479359313
 20
9.0249855001
 40
0.3
100
AcDbArc
 50
90.0
 51
135.0
  0
ARC
  5
697
100
AcDbEntity
  8
IMPORT_IGES
100
AcDbCircle
 62
253
  6
CONTINUOUS
 10
-30.0244514029
 20
4.3647719391
 40
2.292703028
100
AcDbArc
 50
187.234766955
 51
204.3277593093
  0
ARC
  5
698
100
AcDbEntity
  8
IMPORT_IGES
100
AcDbCircle
 62
7
  6
CONTINUOUS
 10
-30.0244514029
 20
4.3647719391
 40
1.992703028
100
AcDbArc
 50
187.234766955
 51
204.3277593093
  0
ARC
  5
699
100
AcDbEntity
  8
IMPORT_IGES
100
AcDbCircle
 62
7
  6
CONTINUOUS
 10
-32.264903028
 20
-0.3539325167
 40
1.992703028
100
AcDbArc
 50
0.0
 51
24.3277593093
  0
ARC
  5
69A
100
AcDbEntity
  8
IMPORT_IGES
100
AcDbCircle
 62
253
  6
CONTINUOUS
 10
-30.0244514029
 20
4.3647719391
 40
1.892703028
100
AcDbArc
 50
187.234766955
 51
204.3277593093
  0
ARC
  5
69B
100
AcDbEntity
  8
IMPORT_IGES
100
AcDbCircle
 62
253
  6
CONTINUOUS
 10
-32.264903028
 20
-0.3539325167
 40
1.692703028
100
AcDbArc
 50
0.0
 51
24.3277593094
  0
ARC
  5
69C
100
AcDbEntity
  8
IMPORT_IGES
100
AcDbCircle
 62
7
  6
CONTINUOUS
 10
-44.9307786438
 20
9.3175211136
 40
0.1000043576
100
AcDbArc
 50
148.7634778437
 51
179.9809062853
  0
ARC
  5
69D
100
AcDbEntity
  8
IMPORT_IGES
100
AcDbCircle
 62
7
  6
CONTINUOUS
 10
-43.18498
 20
10.4249855001
 40
0.1
100
AcDbArc
 50
0.0
 51
89.9999999999
  0
ARC
  5
69E
100
AcDbEntity
  8
IMPORT_IGES
100
AcDbCircle
 62
7
  6
CONTINUOUS
 10
-38.185341
 20
10.4249855001
 40
0.1
100
AcDbArc
 50
270.0
 51
360.0
  0
ARC
  5
69F
100
AcDbEntity
  8
IMPORT_IGES
100
AcDbCircle
 62
7
  6
CONTINUOUS
 10
-42.98498
 20
10.4249855001
 40
0.1
100
AcDbArc
 50
180.0
 51
270.0
  0
ARC
  5
6A0
100
AcDbEntity
  8
IMPORT_IGES
100
AcDbCircle
 62
7
  6
CONTINUOUS
 10
-43.68498
 20
10.4249855001
 40
0.1
100
AcDbArc
 50
90.0000000001
 51
180.0
  0
ARC
  5
6A1
100
AcDbEntity
  8
IMPORT_IGES
100
AcDbCircle
 62
7
  6
CONTINUOUS
 10
-43.88498
 20
10.4249855001
 40
0.1
100
AcDbArc
 50
270.0
 51
360.0
  0
ARC
  5
6A2
100
AcDbEntity
  8
IMPORT_IGES
100
AcDbCircle
 62
7
  6
CONTINUOUS
 10
-36.0821859546
 20
8.3249855001
 40
2.0
100
AcDbArc
 50
83.2133624709
 51
90.0015513311
  0
ARC
  5
6A3
100
AcDbEntity
  8
IMPORT_IGES
100
AcDbCircle
 62
253
  6
CONTINUOUS
 10
-36.0821859546
 20
8.3249855001
 40
1.85
100
AcDbArc
 50
83.2133624709
 51
86.2117449684
  0
ARC
  5
6A4
100
AcDbEntity
  8
IMPORT_IGES
100
AcDbCircle
 62
7
  6
CONTINUOUS
 10
-31.2722
 20
6.3425822205
 40
1.0
100
AcDbArc
 50
0.0
 51
44.9999999999
  0
ARC
  5
6A5
100
AcDbEntity
  8
IMPORT_IGES
100
AcDbCircle
 62
253
  6
CONTINUOUS
 10
-31.2722
 20
6.3425822205
 40
0.85
100
AcDbArc
 50
0.0
 51
44.9999999999
  0
ARC
  5
6A6
100
AcDbEntity
  8
IMPORT_IGES
100
AcDbCircle
 62
253
  6
CONTINUOUS
 10
-32.8916431831
 20
7.1571718703
 40
0.6
100
AcDbArc
 50
7.234766955
 51
53.0
  0
ARC
  5
6A7
100
AcDbEntity
  8
IMPORT_IGES
100
AcDbCircle
 62
7
  6
CONTINUOUS
 10
-32.8916431831
 20
7.1571718703
 40
0.5
100
AcDbArc
 50
7.2347669552
 51
53.0
  0
ARC
  5
6A8
100
AcDbEntity
  8
IMPORT_IGES
100
AcDbCircle
 62
253
  6
CONTINUOUS
 10
-32.8916431831
 20
7.1571718703
 40
0.2
100
AcDbArc
 50
7.234766955
 51
53.0
  0
ARC
  5
6A9
100
AcDbEntity
  8
IMPORT_IGES
100
AcDbCircle
 62
7
  6
CONTINUOUS
 10
-34.0157395908
 20
9.0861218113
 40
1.0
100
AcDbArc
 50
44.9999999868
 51
83.2133624709
  0
ARC
  5
6AA
100
AcDbEntity
  8
IMPORT_IGES
100
AcDbCircle
 62
253
  6
CONTINUOUS
 10
-34.0157395908
 20
9.0861218113
 40
0.85
100
AcDbArc
 50
45.0
 51
83.2133624708
  0
ARC
  5
6AB
100
AcDbEntity
  8
IMPORT_IGES
100
AcDbCircle
 62
7
  6
CONTINUOUS
 10
-36.3101513576
 20
10.1750320535
 40
0.1499487497
100
AcDbArc
 50
1.3412959169
 51
89.999821595
  0
ARC
  5
6AC
100
AcDbEntity
  8
IMPORT_IGES
100
AcDbCircle
 62
7
  6
CONTINUOUS
 10
-37.485341
 20
10.4249855001
 40
0.1
100
AcDbArc
 50
0.0
 51
89.9999999999
  0
ARC
  5
6AD
100
AcDbEntity
  8
IMPORT_IGES
100
AcDbCircle
 62
7
  6
CONTINUOUS
 10
-37.285341
 20
10.4249855001
 40
0.1
100
AcDbArc
 50
180.0
 51
270.0
  0
ARC
  5
6AE
100
AcDbEntity
  8
IMPORT_IGES
100
AcDbCircle
 62
7
  6
CONTINUOUS
 10
-37.985341
 20
10.4249855001
 40
0.1
100
AcDbArc
 50
90.0000000001
 51
180.0
  0
ARC
  5
6AF
100
AcDbEntity
  8
IMPORT_IGES
100
AcDbCircle
 62
7
  6
CONTINUOUS
 10
5.0738136734
 20
-11.6331123492
 40
41.2546112935
100
AcDbArc
 50
179.3947797479
 51
179.6432713594
  0
ARC
  5
6B0
100
AcDbEntity
  8
IMPORT_IGES
100
AcDbCircle
 62
253
  6
CONTINUOUS
 10
5.0738136734
 20
-11.6331123492
 40
41.0546112935
100
AcDbArc
 50
179.1096608803
 51
179.6397966976
  0
ARC
  5
6B1
100
AcDbEntity
  8
IMPORT_IGES
100
AcDbCircle
 62
7
  6
CONTINUOUS
 10
-27.2222
 20
-7.0753122475
 40
0.2
100
AcDbArc
 50
180.0000000002
 51
270.0
  0
ARC
  5
6B2
100
AcDbEntity
  8
IMPORT_IGES
100
AcDbCircle
 62
7
  6
CONTINUOUS
 10
-26.6222
 20
-7.0753122475
 40
0.2
100
AcDbArc
 50
270.0
 51
359.9999999998
  0
ARC
  5
6B3
100
AcDbEntity
  8
IMPORT_IGES
100
AcDbCircle
 62
7
  6
CONTINUOUS
 10
-26.6222
 20
-3.7549276307
 40
0.2
100
AcDbArc
 50
0.0000000038
 51
90.0
  0
ARC
  5
6B4
100
AcDbEntity
  8
IMPORT_IGES
100
AcDbCircle
 62
7
  6
CONTINUOUS
 10
-27.5222
 20
-6.3753122475
 40
0.1
100
AcDbArc
 50
0.0
 51
90.0
  0
ARC
  5
6B5
100
AcDbEntity
  8
IMPORT_IGES
100
AcDbCircle
 62
7
  6
CONTINUOUS
 10
-26.6472
 20
3.6222748677
 40
0.2
100
AcDbArc
 50
0.0000000007
 51
90.0
  0
ARC
  5
6B6
100
AcDbEntity
  8
IMPORT_IGES
100
AcDbCircle
 62
7
  6
CONTINUOUS
 10
-26.9472
 20
3.6222748677
 40
0.2
100
AcDbArc
 50
90.0
 51
179.9999999998
  0
ARC
  5
6B7
100
AcDbEntity
  8
IMPORT_IGES
100
AcDbCircle
 62
7
  6
CONTINUOUS
 10
-26.6472
 20
0.6249855001
 40
0.2
100
AcDbArc
 50
269.9999993662
 51
360.0
  0
ARC
  5
6B8
100
AcDbEntity
  8
IMPORT_IGES
100
AcDbCircle
 62
7
  6
CONTINUOUS
 10
-27.2472
 20
3.0795741383
 40
0.1
100
AcDbArc
 50
270.0
 51
359.9999999999
  0
ELLIPSE
  5
6B9
100
AcDbEntity
  8
IMPORT_IGES
100
AcDbEllipse
 62
7
  6
CONTINUOUS
 10
-5.4226866561
 20
8.6250145005
 30
0.0
 11
-0.0
 21
2.0
 31
0.0
 40
0.0633224816
 41
-0.0
 42
1.0637014196
  0
ELLIPSE
  5
6BA
100
AcDbEntity
  8
IMPORT_IGES
100
AcDbEllipse
 62
7
  6
CONTINUOUS
 10
5.4226866561
 20
8.6250145005
 30
0.0
 11
0.0
 21
2.0
 31
0.0
 40
0.0633224816
 41
-1.0637014196
 42
0.0
  0
ELLIPSE
  5
6BB
100
AcDbEntity
  8
IMPORT_IGES
100
AcDbEllipse
 62
7
  6
CONTINUOUS
 10
-5.3705603201
 20
8.2750144996
 30
0.0
 11
0.0
 21
1.0000000003
 31
0.0
 40
0.0633224816
 41
-0.0
 42
0.6426757939
  0
ELLIPSE
  5
6BC
100
AcDbEntity
  8
IMPORT_IGES
100
AcDbEllipse
 62
7
  6
CONTINUOUS
 10
5.3705603202
 20
8.2750144996
 30
0.0
 11
0.0
 21
1.0000000003
 31
0.0
 40
0.0633224816
 41
-0.6426760482
 42
0.0
  0
ELLIPSE
  5
6BD
100
AcDbEntity
  8
IMPORT_IGES
100
AcDbEllipse
 62
7
  6
CONTINUOUS
 10
-5.6339652685
 20
8.5249855001
 30
0.0
 11
-0.0
 21
0.8
 31
0.0
 40
0.0174550649
 41
-0.7853981634
 42
-0.0
  0
ELLIPSE
  5
6BE
100
AcDbEntity
  8
IMPORT_IGES
100
AcDbEllipse
 62
7
  6
CONTINUOUS
 10
5.6339652685
 20
8.5249855001
 30
0.0
 11
0.0
 21
0.8
 31
0.0
 40
0.0174550649
 41
-0.0
 42
0.7853981634
  0
ELLIPSE
  5
6BF
100
AcDbEntity
  8
IMPORT_IGES
100
AcDbEllipse
 62
7
  6
CONTINUOUS
 10
3.55
 20
-9.7119710216
 30
0.0
 11
0.5
 21
-0.0
 31
0.0
 40
0.5652173913
 41
-0.4115168461
 42
-0.0
  0
ELLIPSE
  5
6C0
100
AcDbEntity
  8
IMPORT_IGES
100
AcDbEllipse
 62
7
  6
CONTINUOUS
 10
-3.55
 20
-9.7119710216
 30
0.0
 11
0.5
 21
-0.0
 31
0.0
 40
0.5652173913
 41
-3.1415926536
 42
-2.7300758075
  0
ELLIPSE
  5
6C1
100
AcDbEntity
  8
IMPORT_IGES
100
AcDbEllipse
 62
7
  6
CONTINUOUS
 10
-2.325
 20
-8.0537332077
 30
0.0
 11
0.3
 21
0.0
 31
0.0
 40
0.2679491924
 41
-1.5707963268
 42
-0.0
  0
ELLIPSE
  5
6C2
100
AcDbEntity
  8
IMPORT_IGES
100
AcDbEllipse
 62
7
  6
CONTINUOUS
 10
-7.2288814303
 20
4.2781145205
 30
0.0
 11
0.0
 21
0.2
 31
0.0
 40
0.0034906727
 41
-1.5707963268
 42
-0.6686895789
  0
ELLIPSE
  5
6C3
100
AcDbEntity
  8
IMPORT_IGES
100
AcDbEllipse
 62
7
  6
CONTINUOUS
 10
-7.2288814303
 20
3.0749855001
 30
0.0
 11
0.0
 21
0.2
 31
0.0
 40
0.0034906727
 41
-3.1415926536
 42
-2.0936364968
  0
ELLIPSE
  5
6C4
100
AcDbEntity
  8
IMPORT_IGES
100
AcDbEllipse
 62
7
  6
CONTINUOUS
 10
-7.2288814303
 20
-4.0250144999
 30
0.0
 11
0.0
 21
0.2
 31
0.0
 40
0.0034906727
 41
-1.5707963268
 42
-1.0479562615
  0
ELLIPSE
  5
6C5
100
AcDbEntity
  8
IMPORT_IGES
100
AcDbEllipse
 62
7
  6
CONTINUOUS
 10
-7.2288814303
 20
-5.2281435202
 30
0.0
 11
-0.0
 21
0.2
 31
0.0
 40
0.0034906727
 41
-2.4729030747
 42
-1.5707963268
  0
ELLIPSE
  5
6C6
100
AcDbEntity
  8
IMPORT_IGES
100
AcDbEllipse
 62
7
  6
CONTINUOUS
 10
-7.232843701
 20
-6.1250144999
 30
0.0
 11
-0.0
 21
0.2
 31
0.0
 40
0.0034906727
 41
-3.1415926536
 42
-2.4729030747
  0
ELLIPSE
  5
6C7
100
AcDbEntity
  8
IMPORT_IGES
100
AcDbEllipse
 62
7
  6
CONTINUOUS
 10
-7.232843701
 20
5.1749855001
 30
0.0
 11
-0.0
 21
0.2
 31
0.0
 40
0.0034906727
 41
-0.6686895789
 42
0.0
  0
ELLIPSE
  5
6C8
100
AcDbEntity
  8
IMPORT_IGES
100
AcDbEllipse
 62
7
  6
CONTINUOUS
 10
7.2288814303
 20
4.2781145205
 30
0.0
 11
-0.0
 21
0.2
 31
0.0
 40
0.0034906727
 41
0.6686895789
 42
1.5707963268
  0
ELLIPSE
  5
6C9
100
AcDbEntity
  8
IMPORT_IGES
100
AcDbEllipse
 62
7
  6
CONTINUOUS
 10
2.325
 20
-8.0537332077
 30
0.0
 11
0.3
 21
-0.0
 31
0.0
 40
0.2679491924
 41
-3.1415926536
 42
-1.5707963268
  0
ELLIPSE
  5
6CA
100
AcDbEntity
  8
IMPORT_IGES
100
AcDbEllipse
 62
7
  6
CONTINUOUS
 10
7.2288814303
 20
3.0749855001
 30
0.0
 11
-0.0
 21
0.2
 31
0.0
 40
0.0034906727
 41
-4.7123889804
 42
-4.1895489151
  0
ELLIPSE
  5
6CB
100
AcDbEntity
  8
IMPORT_IGES
100
AcDbEllipse
 62
7
  6
CONTINUOUS
 10
7.2288814303
 20
-4.0250144999
 30
0.0
 11
-0.0
 21
0.2
 31
0.0
 40
0.0034906727
 41
0.0
 42
1.0479561568
  0
ELLIPSE
  5
6CC
100
AcDbEntity
  8
IMPORT_IGES
100
AcDbEllipse
 62
7
  6
CONTINUOUS
 10
7.232843701
 20
5.1749855001
 30
0.0
 11
-0.0
 21
0.2
 31
0.0
 40
0.0034906727
 41
0.0
 42
0.6686895789
  0
ELLIPSE
  5
6CD
100
AcDbEntity
  8
IMPORT_IGES
100
AcDbEllipse
 62
7
  6
CONTINUOUS
 10
7.2288814303
 20
-5.2281435202
 30
0.0
 11
0.0
 21
0.2
 31
0.0
 40
0.0034906727
 41
-4.7123889804
 42
-3.8102822325
  0
ELLIPSE
  5
6CE
100
AcDbEntity
  8
IMPORT_IGES
100
AcDbEllipse
 62
7
  6
CONTINUOUS
 10
7.232843701
 20
-6.1250144999
 30
0.0
 11
0.0
 21
0.2
 31
0.0
 40
0.0034906727
 41
-3.8102822325
 42
-3.1415926536
  0
ELLIPSE
  5
6CF
100
AcDbEntity
  8
IMPORT_IGES
100
AcDbEllipse
 62
7
  6
CONTINUOUS
 10
-48.0871050211
 20
-10.8538105078
 30
0.0
 11
0.532937255
 21
-0.3407598677
 31
0.0
 40
0.4742590135
 41
-1.5707963268
 42
-0.6381843874
  0
ENDSEC
  0
SECTION
  2
OBJECTS
  0
DICTIONARY
  5
C
100
AcDbDictionary
280
0
281
1
  3
ACAD_GROUP
350
D
  3
ACAD_MLINESTYLE
350
17
  3
ACAD_LAYOUT
350
1A
  3
ACAD_PLOTSETTINGS
350
19
  3
ACAD_PLOTSTYLENAME
350
E
  0
DICTIONARY
  5
D
102
{ACAD_REACTORS
330
C
102
}
100
AcDbDictionary
280
0
281
1
  0
ACDBDICTIONARYWDFLT
  5
E
102
{ACAD_REACTORS
330
C
102
}
100
AcDbDictionary
281
1
  3
Normal
350
F
100
AcDbDictionaryWithDefault
340
F
  0
DICTIONARY
  5
17
102
{ACAD_REACTORS
330
C
102
}
100
AcDbDictionary
280
0
281
1
  3
Standard
350
18
  0
DICTIONARY
  5
19
102
{ACAD_REACTORS
330
C
102
}
100
AcDbDictionary
281
1
  0
DICTIONARY
  5
1A
102
{ACAD_REACTORS
330
C
102
}
100
AcDbDictionary
281
1
  3
Model
350
6D0
  3
Layout1
350
6D1
  0
ACDBPLACEHOLDER
  5
F
102
{ACAD_REACTORS
330
E
102
}
  0
MLINESTYLE
  5
18
102
{ACAD_REACTORS
330
17
102
}
100
AcDbMlineStyle
  2
STANDARD
 70
0
  3

 62
256
 51
90.0
 52
90.0
 71
2
 49
0.5
 62
256
  6
BYLAYER
 49
-0.5
 62
256
  6
BYLAYER
  0
LAYOUT
  5
6D0
102
{ACAD_REACTORS
330
1A
102
}
100
AcDbPlotSettings
  1

  2
none_device
  4
ISO_A4_(297.00_x_210.00_MM)
  6

 40
0.0
 41
0.0
 42
0.0
 43
0.0
 44
297.0
 45
210.0
 46
0.0
 47
0.0
 48
0.0
 49
0.0
140
0.0
141
0.0
142
1.0
143
1.0
 70
1024
 72
1
 73
0
 74
0
  7

 75
0
147
1.0
148
0.0
149
0.0
100
AcDbLayout
  1
Model
 70
0
 71
0
 10
0.0
 20
0.0
 11
297.0
 21
210.0
 12
0.0
 22
0.0
 32
0.0
 14
0.0
 24
0.0
 34
0.0
 15
0.0
 25
0.0
 35
0.0
146
0.0
 13
0.0
 23
0.0
 33
0.0
 16
1.0
 26
0.0
 36
0.0
 17
0.0
 27
1.0
 37
0.0
 76
0
330
216
345
0
346
0
  0
LAYOUT
  5
6D1
102
{ACAD_REACTORS
330
1A
102
}
100
AcDbPlotSettings
  1

  2
none_device
  4
ISO_A4_(297.00_x_210.00_MM)
  6

 40
0.0
 41
0.0
 42
0.0
 43
0.0
 44
297.0
 45
210.0
 46
0.0
 47
0.0
 48
0.0
 49
0.0
140
0.0
141
0.0
142
1.0
143
1.0
 70
0
 72
1
 73
0
 74
0
  7

 75
0
147
1.0
148
0.0
149
0.0
100
AcDbLayout
  1
Layout1
 70
0
 71
1
 10
0.0
 20
0.0
 11
297.0
 21
210.0
 12
0.0
 22
0.0
 32
0.0
 14
0.0
 24
0.0
 34
0.0
 15
0.0
 25
0.0
 35
0.0
146
0.0
 13
0.0
 23
0.0
 33
0.0
 16
1.0
 26
0.0
 36
0.0
 17
0.0
 27
1.0
 37
0.0
 76
0
330
217
345
0
346
0
  0
ENDSEC
  0
EOF
