0
SECTION
2
HEADER
9
$ACADVER
1
AC1014
9
$HANDSEED
5
       3BB
9
$EXTMAX
10
297.0000000000
20
210.0000000000
9
$EXTMIN
10
0.0000000000
20
0.0000000000
9
$LIMMIN
10
0.0000000000
20
0.0000000000
9
$LIMMAX
10
297.0000000000
20
210.0000000000
9
$VIEWCTR
10
148.5000000000
20
105.0000000000
9
$VIEWSIZE
40
210.0000000000
9
$CLAYER
8
0
9
$LTSCALE
40
16.3350000000
9
$CELTYPE
6
BYLAYER
9
$DIMSCALE
40
1
9
$DIMASZ
40
3.0000000000
9
$DIMEXO
40
1.8562500000
9
$DIMDLI
40
11.2860000000
9
$DIMEXE
40
5.3460000000
9
$DIMCEN
40
2.6730000000
9
$DIMLFAC
40
1.0000000000
9
$DIMTXT
40
3.0000000000
9
$DIMTOL
70
1
9
$DIMLIM
70
0
9
$DIMTFAC
40
1.0000000000
9
$DIMTP
40
0.0100000000
9
$DIMTM
40
0.0100000000
9
$MEASUREMENT
70
1
0
ENDSEC
0
SECTION
2
CLASSES
0
ENDSEC
0
SECTION
2
TABLES
0
TABLE
2
VPORT
5
8
100
AcDbSymbolTable
70
2
0
VPORT
5
1F4
100
AcDbSymbolTableRecord
100
AcDbViewportTableRecord
2
*ACTIVE
70
0
10
0.0
20
0.0
11
1.0
21
1.0
12
148.5000000000
22
105.0000000000
13
0.0
23
0.0
14
1.0
24
1.0
15
0.0
25
0.0
16
0.0
26
0.0
36
1.0
17
0.0
27
0.0
37
0.0
40
210.0000000000
41
1.4142857143
42
50.0
43
0.0
44
0.0
50
0.0
51
0.0
71
0
72
100
73
1
74
1
75
0
76
0
77
0
78
0
0
ENDTAB
0
TABLE
2
LTYPE
5
5
100
AcDbSymbolTable
70
6
0
LTYPE
5
14
100
AcDbSymbolTableRecord
100
AcDbLinetypeTableRecord
2
BYBLOCK
70
0
3

72
65
73
0
40
0.0
0
LTYPE
5
15
100
AcDbSymbolTableRecord
100
AcDbLinetypeTableRecord
2
BYLAYER
70
0
3

72
65
73
0
40
0.0
0
LTYPE
5
16
100
AcDbSymbolTableRecord
100
AcDbLinetypeTableRecord
2
CONTINUOUS
70
64
3
Solid line
72
65
73
0
40
0
0
LTYPE
5
1F5
100
AcDbSymbolTableRecord
100
AcDbLinetypeTableRecord
2
CENTER
70
64
3
____ _ ____ _ ____ _ ____ _ ____ _ ____ _ ____
72
65
73
4
40
0.6
49
0.375
74
0
49
-0.075
74
0
49
0.075
74
0
49
-0.075
74
0
0
LTYPE
5
1F6
100
AcDbSymbolTableRecord
100
AcDbLinetypeTableRecord
2
HIDDEN
70
64
3
- - - - - - - - - - - - - - - - - - - -
72
65
73
2
40
0.2
49
0.1
74
0
49
-0.1
74
0
0
LTYPE
5
1F7
100
AcDbSymbolTableRecord
100
AcDbLinetypeTableRecord
2
PHANTOM
70
64
3
_____ _ _ _____ _ _ _____ _ _ _____
72
65
73
6
40
0.8
49
0.45
74
0
49
-0.05
74
0
49
0.1
74
0
49
-0.05
74
0
49
0.1
74
0
49
-0.05
74
0
0
LTYPE
5
1F8
100
AcDbSymbolTableRecord
100
AcDbLinetypeTableRecord
2
DOT
70
64
3
. . . . . . . . . . . . . . . . . . . .
72
65
73
2
40
0.2
49
0.1
74
0
49
-0.1
74
0
0
LTYPE
5
1F9
100
AcDbSymbolTableRecord
100
AcDbLinetypeTableRecord
2
DASHED
70
64
3
- - - - - - - - - - - - - - - - - - - -
72
65
73
2
40
0.2
49
0.1
74
0
49
-0.1
74
0
0
ENDTAB
0
TABLE
2
LAYER
5
2
100
AcDbSymbolTable
70
36
0
LAYER
5
10
100
AcDbSymbolTableRecord
100
AcDbLayerTableRecord
2
0
70
0
62
7
6
CONTINUOUS
0
LAYER
5
1FA
100
AcDbSymbolTableRecord
100
AcDbLayerTableRecord
2
DEFAULT_1
70
0
62
7
6
CENTER
0
LAYER
5
1FB
100
AcDbSymbolTableRecord
100
AcDbLayerTableRecord
2
DEFAULT_2
70
0
62
8
6
HIDDEN
0
LAYER
5
1FC
100
AcDbSymbolTableRecord
100
AcDbLayerTableRecord
2
DEFAULT_3
70
0
62
7
6
PHANTOM
0
LAYER
5
1FD
100
AcDbSymbolTableRecord
100
AcDbLayerTableRecord
2
ASSI
70
0
62
7
6
CONTINUOUS
0
LAYER
5
1FE
100
AcDbSymbolTableRecord
100
AcDbLayerTableRecord
2
COORDINATE
70
0
62
7
6
CONTINUOUS
0
LAYER
5
1FF
100
AcDbSymbolTableRecord
100
AcDbLayerTableRecord
2
COORD_ORIGINE
70
0
62
7
6
CONTINUOUS
0
LAYER
5
200
100
AcDbSymbolTableRecord
100
AcDbLayerTableRecord
2
PIANI
70
0
62
7
6
CONTINUOUS
0
LAYER
5
201
100
AcDbSymbolTableRecord
100
AcDbLayerTableRecord
2
PIANI_ORIGINE
70
0
62
7
6
CONTINUOUS
0
LAYER
5
202
100
AcDbSymbolTableRecord
100
AcDbLayerTableRecord
2
RACCORDO
70
0
62
7
6
CONTINUOUS
0
LAYER
5
203
100
AcDbSymbolTableRecord
100
AcDbLayerTableRecord
2
SMUSSO
70
0
62
7
6
CONTINUOUS
0
LAYER
5
204
100
AcDbSymbolTableRecord
100
AcDbLayerTableRecord
2
SNAPLINE
70
0
62
7
6
CONTINUOUS
0
LAYER
5
205
100
AcDbSymbolTableRecord
100
AcDbLayerTableRecord
2
TRASH
70
0
62
7
6
CONTINUOUS
0
ENDTAB
0
TABLE
2
STYLE
5
3
100
AcDbSymbolTable
70
1
0
STYLE
5
11
100
AcDbSymbolTableRecord
100
AcDbTextStyleTableRecord
2
STANDARD
70
0
40
0.0
41
0.8000000000
50
0.0
71
0
42
0.2
3
txt
4

0
ENDTAB
0
TABLE
2
VIEW
5
6
100
AcDbSymbolTable
70
0
0
ENDTAB
0
TABLE
2
UCS
5
7
100
AcDbSymbolTable
70
0
0
ENDTAB
0
TABLE
2
APPID
5
9
100
AcDbSymbolTable
70
1
0
APPID
5
206
100
AcDbSymbolTableRecord
100
AcDbRegAppTableRecord
2
ACAD
70
0
0
ENDTAB
0
TABLE
2
DIMSTYLE
5
A
100
AcDbSymbolTable
70
1
0
DIMSTYLE
105
207
100
AcDbSymbolTableRecord
100
AcDbDimStyleTableRecord
2
STANDARD
70
0
3

4

5

6

7

40
1.0
41
3.0000000000
42
0.0625
43
0.38
44
0.18
45
0.0
46
0.0
47
0.0100000000
48
0.0100000000
140
3.0000000000
141
0.09
142
0.0
143
25.4
144
1.0000000000
145
0.0
146
1.0000000000
147
0.09
71
1
72
0
73
0
74
0
75
0
76
0
77
1
78
8
170
0
171
2
172
0
173
0
174
0
175
0
176
0
177
0
178
0
270
2
271
2
272
2
273
2
274
2
340
11
275
0
280
0
281
0
282
0
283
1
284
8
285
0
286
0
287
3
288
0
0
DIMSTYLE
105
208
100
AcDbSymbolTableRecord
100
AcDbDimStyleTableRecord
2
DIMSTYLE_1
70
0
3

4

5

6

7

40
1.0
41
3.0000000000
42
0.0625
43
0.38
44
0.18
45
0.0
46
0.0
47
0.0000000000
48
0.0000000000
140
3.0000000000
141
0.09
142
0.0
143
25.4
144
1.0000000000
145
0.0
146
1.0000000000
147
0.09
71
0
72
0
73
0
74
0
75
0
76
0
77
1
78
8
170
0
171
2
172
0
173
0
174
0
175
0
176
0
177
0
178
0
270
2
271
2
272
2
273
2
274
2
340
11
275
0
280
0
281
0
282
0
283
1
284
8
285
0
286
0
287
3
288
0
0
ENDTAB
0
TABLE
2
BLOCK_RECORD
5
1
100
AcDbSymbolTable
70
0
0
BLOCK_RECORD
5
1B
100
AcDbSymbolTableRecord
100
AcDbBlockTableRecord
2
*MODEL_SPACE
0
BLOCK_RECORD
5
1C
100
AcDbSymbolTableRecord
100
AcDbBlockTableRecord
2
*PAPER_SPACE
0
BLOCK_RECORD
5
209
100
AcDbSymbolTableRecord
100
AcDbBlockTableRecord
2
*D0
0
BLOCK_RECORD
5
20A
100
AcDbSymbolTableRecord
100
AcDbBlockTableRecord
2
*D1
0
BLOCK_RECORD
5
20B
100
AcDbSymbolTableRecord
100
AcDbBlockTableRecord
2
*D2
0
ENDTAB
0
ENDSEC
0
SECTION
2
BLOCKS
0
BLOCK
5
1E
100
AcDbEntity
8
0
100
AcDbBlockBegin
2
*MODEL_SPACE
70
0
10
0.0
20
0.0
30
0.0
3
*MODEL_SPACE
1

0
ENDBLK
5
1F
100
AcDbEntity
8
0
100
AcDbBlockEnd
0
BLOCK
5
20
100
AcDbEntity
8
0
100
AcDbBlockBegin
2
*PAPER_SPACE
70
0
10
0.0
20
0.0
30
0.0
3
*PAPER_SPACE
1

0
ENDBLK
5
21
100
AcDbEntity
8
0
100
AcDbBlockEnd
0
BLOCK
5
20C
100
AcDbEntity
8
0
100
AcDbBlockBegin
62
7
6
CONTINUOUS
2
*D0
70
65
10
0.0000000000
20
0.0000000000
3
*D0
1

0
TEXT
5
20D
100
AcDbEntity
8
0
100
AcDbText
62
7
6
CONTINUOUS
10
26.6366885007
20
6.6080539925
7
STANDARD
40
3.0000000000
1
67,2
50
90.0000000000
41
0.7321428571
72
0
100
AcDbText
0
LINE
5
20E
100
AcDbEntity
8
0
100
AcDbLine
62
7
6
CONTINUOUS
10
2.2866885007
20
44.6009111354
11
28.8866885007
21
44.6009111354
0
LINE
5
20F
100
AcDbEntity
8
0
100
AcDbLine
62
7
6
CONTINUOUS
10
1.1366885007
20
-22.5990888646
11
28.8866885007
21
-22.5990888646
0
LINE
5
210
100
AcDbEntity
8
0
100
AcDbLine
62
7
6
CONTINUOUS
10
27.3866885007
20
44.6009111354
11
27.3866885007
21
11.0009111354
0
LINE
5
211
100
AcDbEntity
8
0
100
AcDbLine
62
7
6
CONTINUOUS
10
27.3866885007
20
-22.5990888646
11
27.3866885007
21
11.0009111354
0
SOLID
5
212
100
AcDbEntity
8
0
100
AcDbTrace
62
7
6
CONTINUOUS
10
28.3366885007
20
41.6009111354
11
27.3866885007
21
44.6009111354
12
26.4366885007
22
41.6009111354
13
26.4366885007
23
41.6009111354
0
SOLID
5
213
100
AcDbEntity
8
0
100
AcDbTrace
62
7
6
CONTINUOUS
10
26.4366885007
20
-19.5990888646
11
27.3866885007
21
-22.5990888646
12
28.3366885007
22
-19.5990888646
13
28.3366885007
23
-19.5990888646
0
ENDBLK
5
214
100
AcDbEntity
8
0
100
AcDbBlockEnd
0
BLOCK
5
215
100
AcDbEntity
8
0
100
AcDbBlockBegin
62
7
6
CONTINUOUS
2
*D1
70
65
10
0.0000000000
20
0.0000000000
3
*D1
1

0
TEXT
5
216
100
AcDbEntity
8
0
100
AcDbText
62
7
6
CONTINUOUS
10
-0.5418829278
20
53.3509111354
7
STANDARD
40
3.0000000000
1
9
41
0.7857142857
72
0
100
AcDbText
0
LINE
5
217
100
AcDbEntity
8
0
100
AcDbLine
62
7
6
CONTINUOUS
10
-3.8633114993
20
12.1009111354
11
-3.8633114993
21
54.1009111354
0
LINE
5
218
100
AcDbEntity
8
0
100
AcDbLine
62
7
6
CONTINUOUS
10
5.1366885007
20
12.1009111354
11
5.1366885007
21
54.1009111354
0
LINE
5
219
100
AcDbEntity
8
0
100
AcDbLine
62
7
6
CONTINUOUS
10
-3.8633114993
20
52.6009111354
11
0.6366885007
21
52.6009111354
0
LINE
5
21A
100
AcDbEntity
8
0
100
AcDbLine
62
7
6
CONTINUOUS
10
5.1366885007
20
52.6009111354
11
0.6366885007
21
52.6009111354
0
SOLID
5
21B
100
AcDbEntity
8
0
100
AcDbTrace
62
7
6
CONTINUOUS
10
-0.8633114993
20
53.5509111354
11
-3.8633114993
21
52.6009111354
12
-0.8633114993
22
51.6509111354
13
-0.8633114993
23
51.6509111354
0
SOLID
5
21C
100
AcDbEntity
8
0
100
AcDbTrace
62
7
6
CONTINUOUS
10
2.1366885007
20
51.6509111354
11
5.1366885007
21
52.6009111354
12
2.1366885007
22
53.5509111354
13
2.1366885007
23
53.5509111354
0
ENDBLK
5
21D
100
AcDbEntity
8
0
100
AcDbBlockEnd
0
BLOCK
5
21E
100
AcDbEntity
8
0
100
AcDbBlockBegin
62
7
6
CONTINUOUS
2
*D2
70
65
10
0.0000000000
20
0.0000000000
3
*D2
1

0
TEXT
5
21F
100
AcDbEntity
8
0
100
AcDbText
62
7
6
CONTINUOUS
10
-28.2370194901
20
53.3509111354
7
STANDARD
40
3.0000000000
1
10
41
0.6785714286
72
0
100
AcDbText
0
LINE
5
220
100
AcDbEntity
8
0
100
AcDbLine
62
7
6
CONTINUOUS
10
-21.3595849174
20
12.1009111354
11
-21.3595849174
21
54.1009111354
0
LINE
5
221
100
AcDbEntity
8
0
100
AcDbLine
62
7
6
CONTINUOUS
10
-31.3595849174
20
12.1009111354
11
-31.3595849174
21
54.1009111354
0
LINE
5
222
100
AcDbEntity
8
0
100
AcDbLine
62
7
6
CONTINUOUS
10
-21.3595849174
20
52.6009111354
11
-26.3595849174
21
52.6009111354
0
LINE
5
223
100
AcDbEntity
8
0
100
AcDbLine
62
7
6
CONTINUOUS
10
-31.3595849174
20
52.6009111354
11
-26.3595849174
21
52.6009111354
0
SOLID
5
224
100
AcDbEntity
8
0
100
AcDbTrace
62
7
6
CONTINUOUS
10
-24.3595849174
20
51.6509111354
11
-21.3595849174
21
52.6009111354
12
-24.3595849174
22
53.5509111354
13
-24.3595849174
23
53.5509111354
0
SOLID
5
225
100
AcDbEntity
8
0
100
AcDbTrace
62
7
6
CONTINUOUS
10
-28.3595849174
20
53.5509111354
11
-31.3595849174
21
52.6009111354
12
-28.3595849174
22
51.6509111354
13
-28.3595849174
23
51.6509111354
0
ENDBLK
5
226
100
AcDbEntity
8
0
100
AcDbBlockEnd
0
ENDSEC
0
SECTION
2
ENTITIES
0
DIMENSION
5
227
100
AcDbEntity
8
0
100
AcDbDimension
62
7
6
CONTINUOUS
2
*D0
10
27.3866885007
20
-22.5990888646
11
25.1366885007
21
11.0009111354
70
160
3
DIMSTYLE_1
100
AcDbAlignedDimension
13
2.2866885007
23
44.6009111354
14
1.1366885007
24
-22.5990888646
50
270.000000
100
AcDbRotatedDimension
0
DIMENSION
5
228
100
AcDbEntity
8
0
100
AcDbDimension
62
7
6
CONTINUOUS
2
*D1
10
5.1366885007
20
52.6009111354
11
0.6366885007
21
54.8509111354
70
160
3
DIMSTYLE_1
100
AcDbAlignedDimension
13
-3.8633114993
23
12.1009111354
14
5.1366885007
24
12.1009111354
100
AcDbRotatedDimension
0
DIMENSION
5
229
100
AcDbEntity
8
0
100
AcDbDimension
62
7
6
CONTINUOUS
2
*D2
10
-31.3595849174
20
52.6009111354
11
-26.2013052044
21
54.8509111354
70
160
3
DIMSTYLE_1
100
AcDbAlignedDimension
13
-21.3595849174
23
12.1009111354
14
-31.3595849174
24
12.1009111354
50
180.000000
100
AcDbRotatedDimension
0
LINE
5
22A
100
AcDbEntity
8
0
100
AcDbLine
62
7
6
CONTINUOUS
10
3.0365806633
20
-22.5990888646
11
-1.7632036619
21
-22.5990888646
0
LINE
5
22B
100
AcDbEntity
8
0
100
AcDbLine
62
7
6
CONTINUOUS
10
3.0366885007
20
-20.0990888646
11
-1.7633114993
21
-20.0990888646
0
LINE
5
22C
100
AcDbEntity
8
0
100
AcDbLine
62
7
6
CONTINUOUS
10
2.6366885007
20
-18.5990888646
11
-1.3633114993
21
-18.5990888646
0
LINE
5
22D
100
AcDbEntity
8
0
100
AcDbLine
62
7
6
CONTINUOUS
10
-2.3633114993
20
-17.5990888646
11
3.5053176508
21
-17.5990888646
0
LINE
5
22E
100
AcDbEntity
8
0
100
AcDbLine
62
7
6
CONTINUOUS
10
-2.3633114993
20
-16.7990888646
11
-1.5633114993
21
-16.7990888646
0
LINE
5
22F
100
AcDbEntity
8
0
100
AcDbLine
62
7
6
CONTINUOUS
10
2.8366885007
20
-16.7990888646
11
3.6366885007
21
-16.7990888646
0
LINE
5
230
100
AcDbEntity
8
0
100
AcDbLine
62
7
6
CONTINUOUS
10
-3.0133114993
20
-15.3990888646
11
4.2866885007
21
-15.3990888646
0
LINE
5
231
100
AcDbEntity
8
0
100
AcDbLine
62
7
6
CONTINUOUS
10
-1.5633114993
20
-16.7990888646
11
-0.4319406494
21
-17.5990888646
0
LINE
5
232
100
AcDbEntity
8
0
100
AcDbLine
62
7
6
CONTINUOUS
10
-3.0133114993
20
-13.8990888646
11
-1.3633114993
21
-13.8990888646
0
LINE
5
233
100
AcDbEntity
8
0
100
AcDbLine
62
7
6
CONTINUOUS
10
2.6366885007
20
-13.8990888646
11
4.2866885007
21
-13.8990888646
0
LINE
5
234
100
AcDbEntity
8
0
100
AcDbLine
62
7
6
CONTINUOUS
10
-1.3633114993
20
-13.3990888646
11
2.6366885007
21
-13.3990888646
0
LINE
5
235
100
AcDbEntity
8
0
100
AcDbLine
62
7
6
CONTINUOUS
10
2.6366885007
20
-12.2990888646
11
-1.3633114993
21
-12.2990888646
0
LINE
5
236
100
AcDbEntity
8
0
100
AcDbLine
62
7
6
CONTINUOUS
10
-2.1133114993
20
-11.5990888646
11
-1.3633114993
21
-11.5990888646
0
LINE
5
237
100
AcDbEntity
8
0
100
AcDbLine
62
7
6
CONTINUOUS
10
2.6366885007
20
-11.5990888646
11
3.3866885007
21
-11.5990888646
0
LINE
5
238
100
AcDbEntity
8
0
100
AcDbLine
62
7
6
CONTINUOUS
10
2.6366885007
20
-11.1990888646
11
-1.3633114993
21
-11.1990888646
0
LINE
5
239
100
AcDbEntity
8
0
100
AcDbLine
62
7
6
CONTINUOUS
10
-3.0133114993
20
-10.3990888646
11
-4.0133114993
21
-10.3990888646
0
LINE
5
23A
100
AcDbEntity
8
0
100
AcDbLine
62
9
6
CONTINUOUS
10
-3.0133114993
20
-9.5490888646
11
-4.0133114993
21
-9.5490888646
0
LINE
5
23B
100
AcDbEntity
8
0
100
AcDbLine
62
7
6
CONTINUOUS
10
3.3866885007
20
-9.3990888646
11
-2.1133114993
21
-9.3990888646
0
LINE
5
23C
100
AcDbEntity
8
0
100
AcDbLine
62
7
6
CONTINUOUS
10
-2.1133114993
20
-7.3990888646
11
3.3866885007
21
-7.3990888646
0
LINE
5
23D
100
AcDbEntity
8
0
100
AcDbLine
62
7
6
CONTINUOUS
10
-3.0133114993
20
-5.3990888646
11
-4.0133114993
21
-5.3990888646
0
LINE
5
23E
100
AcDbEntity
8
0
100
AcDbLine
62
7
6
CONTINUOUS
10
4.2866885007
20
-5.1990888646
11
4.1366885007
21
-5.1990888646
0
LINE
5
23F
100
AcDbEntity
8
0
100
AcDbLine
62
7
6
CONTINUOUS
10
-3.0133114993
20
-5.1990888646
11
-2.8633114993
21
-5.1990888646
0
LINE
5
240
100
AcDbEntity
8
0
100
AcDbLine
62
7
6
CONTINUOUS
10
-0.6133114993
20
-4.8990888646
11
1.8866885007
21
-4.8990888646
0
LINE
5
241
100
AcDbEntity
8
0
100
AcDbLine
62
7
6
CONTINUOUS
10
4.2866885007
20
-3.5990888646
11
4.1366885007
21
-3.5990888646
0
LINE
5
242
100
AcDbEntity
8
0
100
AcDbLine
62
7
6
CONTINUOUS
10
-3.0133114993
20
-3.5990888646
11
-2.8633114993
21
-3.5990888646
0
LINE
5
243
100
AcDbEntity
8
0
100
AcDbLine
62
7
6
CONTINUOUS
10
-4.0133114993
20
-10.3989572189
11
-4.0133114993
21
-5.3990888646
0
LINE
5
244
100
AcDbEntity
8
0
100
AcDbLine
62
7
6
CONTINUOUS
10
-3.8633114993
20
11.6009111354
11
-3.8633114993
21
9.6009111354
0
LINE
5
245
100
AcDbEntity
8
0
100
AcDbLine
62
7
6
CONTINUOUS
10
-2.3633114993
20
23.6009111354
11
-3.3633114993
21
16.6009111354
0
LINE
5
246
100
AcDbEntity
8
0
100
AcDbLine
62
7
6
CONTINUOUS
10
-3.0133114993
20
-2.3990888646
11
4.2866885007
21
-2.3990888646
0
LINE
5
247
100
AcDbEntity
8
0
100
AcDbLine
62
7
6
CONTINUOUS
10
2.6366885007
20
-18.5990888646
11
3.0366885007
21
-20.0990888646
0
LINE
5
248
100
AcDbEntity
8
0
100
AcDbLine
62
7
6
CONTINUOUS
10
-3.3633114993
20
16.6009111354
11
-3.3633114993
21
11.6009111354
0
LINE
5
249
100
AcDbEntity
8
0
100
AcDbLine
62
9
6
CONTINUOUS
10
-3.3633114993
20
11.6009111354
11
-3.3633114993
21
9.6009111354
0
LINE
5
24A
100
AcDbEntity
8
0
100
AcDbLine
62
7
6
CONTINUOUS
10
-3.0133114993
20
9.6009111354
11
-3.0133114993
21
5.6009111354
0
LINE
5
24B
100
AcDbEntity
8
0
100
AcDbLine
62
7
6
CONTINUOUS
10
-3.0133114993
20
5.1009111354
11
-3.0133114993
21
4.6009111354
0
LINE
5
24C
100
AcDbEntity
8
0
100
AcDbLine
62
7
6
CONTINUOUS
10
-3.0133114993
20
4.1009111354
11
-3.0133114993
21
3.6009111354
0
LINE
5
24D
100
AcDbEntity
8
0
100
AcDbLine
62
7
6
CONTINUOUS
10
-3.0133114993
20
3.1009111354
11
-3.0133114993
21
2.6009111354
0
LINE
5
24E
100
AcDbEntity
8
0
100
AcDbLine
62
7
6
CONTINUOUS
10
-3.0133114993
20
2.1009111354
11
-3.0133114993
21
1.6009111354
0
LINE
5
24F
100
AcDbEntity
8
0
100
AcDbLine
62
7
6
CONTINUOUS
10
-3.0133114993
20
1.1009111354
11
-3.0133114993
21
0.6009111354
0
LINE
5
250
100
AcDbEntity
8
0
100
AcDbLine
62
7
6
CONTINUOUS
10
-3.0133114993
20
0.1009111354
11
-3.0133114993
21
-3.5990888646
0
LINE
5
251
100
AcDbEntity
8
0
100
AcDbLine
62
7
6
CONTINUOUS
10
-3.0133114993
20
-5.1990888646
11
-3.0133114993
21
-15.3990888646
0
LINE
5
252
100
AcDbEntity
8
0
100
AcDbLine
62
7
6
CONTINUOUS
10
-2.8633114993
20
-3.5990888646
11
-2.8633114993
21
-5.1990888646
0
LINE
5
253
100
AcDbEntity
8
0
100
AcDbLine
62
7
6
CONTINUOUS
10
-2.7633114993
20
0.1009111354
11
-2.7633114993
21
0.6009111354
0
LINE
5
254
100
AcDbEntity
8
0
100
AcDbLine
62
7
6
CONTINUOUS
10
-2.7633114993
20
1.1009111354
11
-2.7633114993
21
1.6009111354
0
LINE
5
255
100
AcDbEntity
8
0
100
AcDbLine
62
7
6
CONTINUOUS
10
-2.7633114993
20
2.1009111354
11
-2.7633114993
21
2.6009111354
0
LINE
5
256
100
AcDbEntity
8
0
100
AcDbLine
62
7
6
CONTINUOUS
10
-2.7633114993
20
3.1009111354
11
-2.7633114993
21
3.6009111354
0
LINE
5
257
100
AcDbEntity
8
0
100
AcDbLine
62
7
6
CONTINUOUS
10
-2.7633114993
20
4.1009111354
11
-2.7633114993
21
4.6009111354
0
LINE
5
258
100
AcDbEntity
8
0
100
AcDbLine
62
7
6
CONTINUOUS
10
-2.7633114993
20
5.1009111354
11
-2.7633114993
21
5.6009111354
0
LINE
5
259
100
AcDbEntity
8
0
100
AcDbLine
62
7
6
CONTINUOUS
10
-2.5133114993
20
9.6009111354
11
-2.5133114993
21
6.6009111354
0
LINE
5
25A
100
AcDbEntity
8
0
100
AcDbLine
62
7
6
CONTINUOUS
10
-2.3633114993
20
-15.3990888646
11
-2.3633114993
21
-17.5990888646
0
LINE
5
25B
100
AcDbEntity
8
0
100
AcDbLine
62
7
6
CONTINUOUS
10
-2.1133114993
20
-7.3990888646
11
-2.1133114993
21
-11.5990888646
0
LINE
5
25C
100
AcDbEntity
8
0
100
AcDbLine
62
7
6
CONTINUOUS
10
-2.1049780070
20
7.3136770675
11
-2.1049780070
21
7.1009111354
0
LINE
5
25D
100
AcDbEntity
8
0
100
AcDbLine
62
7
6
CONTINUOUS
10
-1.7633114993
20
-20.0990888646
11
-1.7633114993
21
-22.5990888646
0
LINE
5
25E
100
AcDbEntity
8
0
100
AcDbLine
62
7
6
CONTINUOUS
10
-1.5633114993
20
-15.3990888646
11
-1.5633114993
21
-16.7990888646
0
LINE
5
25F
100
AcDbEntity
8
0
100
AcDbLine
62
7
6
CONTINUOUS
10
-0.5133114993
20
44.6009111354
11
-2.3633114993
21
23.6009111354
0
LINE
5
260
100
AcDbEntity
8
0
100
AcDbLine
62
7
6
CONTINUOUS
10
4.2866885007
20
0.1009111354
11
-3.0133114993
21
0.1009111354
0
LINE
5
261
100
AcDbEntity
8
0
100
AcDbLine
62
7
6
CONTINUOUS
10
-3.0133114993
20
0.6009111354
11
4.2866885007
21
0.6009111354
0
LINE
5
262
100
AcDbEntity
8
0
100
AcDbLine
62
7
6
CONTINUOUS
10
4.2866885007
20
1.1009111354
11
-3.0133114993
21
1.1009111354
0
LINE
5
263
100
AcDbEntity
8
0
100
AcDbLine
62
7
6
CONTINUOUS
10
-3.0133114993
20
1.6009111354
11
4.2866885007
21
1.6009111354
0
LINE
5
264
100
AcDbEntity
8
0
100
AcDbLine
62
7
6
CONTINUOUS
10
-1.4383114993
20
9.1009111354
11
-1.4383114993
21
7.3136770675
0
LINE
5
265
100
AcDbEntity
8
0
100
AcDbLine
62
7
6
CONTINUOUS
10
-1.3633114993
20
-9.3990888646
11
-1.3633114993
21
-15.3990888646
0
LINE
5
266
100
AcDbEntity
8
0
100
AcDbLine
62
7
6
CONTINUOUS
10
-1.3633114993
20
-17.5990888646
11
-1.3633114993
21
-18.5990888646
0
LINE
5
267
100
AcDbEntity
8
0
100
AcDbLine
62
7
6
CONTINUOUS
10
-1.1883114993
20
7.3136770675
11
-1.1883114993
21
9.1009111354
0
LINE
5
268
100
AcDbEntity
8
0
100
AcDbLine
62
7
6
CONTINUOUS
10
-0.6133114993
20
-9.3990888646
11
-0.6133114993
21
-4.8990888646
0
LINE
5
269
100
AcDbEntity
8
0
100
AcDbLine
62
7
6
CONTINUOUS
10
-0.5216447531
20
7.1009111354
11
-0.5216447531
21
7.3136770675
0
LINE
5
26A
100
AcDbEntity
8
0
100
AcDbLine
62
7
6
CONTINUOUS
10
-0.1883114993
20
8.4200600931
11
-0.1883114993
21
7.7817622373
0
LINE
5
26B
100
AcDbEntity
8
0
100
AcDbLine
62
7
6
CONTINUOUS
10
0.0616885007
20
7.7817622373
11
0.0616885007
21
8.4200600931
0
LINE
5
26C
100
AcDbEntity
8
0
100
AcDbLine
62
7
6
CONTINUOUS
10
-0.1466447531
20
8.6328260252
11
-0.1883114993
21
8.4200600931
0
LINE
5
26D
100
AcDbEntity
8
0
100
AcDbLine
62
7
6
CONTINUOUS
10
-3.0133114993
20
5.6009111354
11
-2.5133114993
21
6.6009111354
0
LINE
5
26E
100
AcDbEntity
8
0
100
AcDbLine
62
7
6
CONTINUOUS
10
4.2866885007
20
2.1009111354
11
-3.0133114993
21
2.1009111354
0
LINE
5
26F
100
AcDbEntity
8
0
100
AcDbLine
62
7
6
CONTINUOUS
10
-3.0133114993
20
2.6009111354
11
4.2866885007
21
2.6009111354
0
LINE
5
270
100
AcDbEntity
8
0
100
AcDbLine
62
7
6
CONTINUOUS
10
4.2866885007
20
3.1009111354
11
-3.0133114993
21
3.1009111354
0
LINE
5
271
100
AcDbEntity
8
0
100
AcDbLine
62
7
6
CONTINUOUS
10
-3.0133114993
20
3.6009111354
11
4.2866885007
21
3.6009111354
0
LINE
5
272
100
AcDbEntity
8
0
100
AcDbLine
62
7
6
CONTINUOUS
10
4.2866885007
20
4.1009111354
11
-3.0133114993
21
4.1009111354
0
LINE
5
273
100
AcDbEntity
8
0
100
AcDbLine
62
7
6
CONTINUOUS
10
0.1033552469
20
7.2285706946
11
0.2700217546
21
7.1434643218
0
LINE
5
274
100
AcDbEntity
8
0
100
AcDbLine
62
7
6
CONTINUOUS
10
0.3116885007
20
7.3987834403
11
0.1866885007
21
7.4838898131
0
LINE
5
275
100
AcDbEntity
8
0
100
AcDbLine
62
7
6
CONTINUOUS
10
-0.0633114993
20
7.3987834403
11
0.1033552469
21
7.2285706946
0
LINE
5
276
100
AcDbEntity
8
0
100
AcDbLine
62
7
6
CONTINUOUS
10
0.1866885007
20
7.4838898131
11
0.1033552469
21
7.6115494916
0
LINE
5
277
100
AcDbEntity
8
0
100
AcDbLine
62
7
6
CONTINUOUS
10
-0.1466447531
20
7.5689961860
11
-0.0633114993
21
7.3987834403
0
LINE
5
278
100
AcDbEntity
8
0
100
AcDbLine
62
7
6
CONTINUOUS
10
0.1033552469
20
7.6115494916
11
0.0616885007
21
7.7817622373
0
LINE
5
279
100
AcDbEntity
8
0
100
AcDbLine
62
7
6
CONTINUOUS
10
-0.1883114993
20
7.7817622373
11
-0.1466447531
21
7.5689961860
0
LINE
5
27A
100
AcDbEntity
8
0
100
AcDbLine
62
7
6
CONTINUOUS
10
1.2283552469
20
8.8455919871
11
1.2283552469
21
7.3562302539
0
LINE
5
27B
100
AcDbEntity
8
0
100
AcDbLine
62
7
6
CONTINUOUS
10
1.4783551277
20
7.1009111354
11
1.4783551277
21
9.1009111354
0
LINE
5
27C
100
AcDbEntity
8
0
100
AcDbLine
62
7
6
CONTINUOUS
10
1.8866885007
20
-9.3990888646
11
1.8866885007
21
-4.8990888646
0
LINE
5
27D
100
AcDbEntity
8
0
100
AcDbLine
62
7
6
CONTINUOUS
10
2.6366885007
20
-9.3990888646
11
2.6366885007
21
-15.3990888646
0
LINE
5
27E
100
AcDbEntity
8
0
100
AcDbLine
62
7
6
CONTINUOUS
10
2.6366885007
20
-17.5990888646
11
2.6366885007
21
-18.5990888646
0
LINE
5
27F
100
AcDbEntity
8
0
100
AcDbLine
62
7
6
CONTINUOUS
10
2.8366885007
20
-15.3990888646
11
2.8366885007
21
-16.7990888646
0
LINE
5
280
100
AcDbEntity
8
0
100
AcDbLine
62
7
6
CONTINUOUS
10
3.0366885007
20
-20.0990888646
11
3.0366885007
21
-22.5990888646
0
LINE
5
281
100
AcDbEntity
8
0
100
AcDbLine
62
7
6
CONTINUOUS
10
3.1866885007
20
8.4200600931
11
3.1866885007
21
7.7817622373
0
LINE
5
282
100
AcDbEntity
8
0
100
AcDbLine
62
7
6
CONTINUOUS
10
1.8533551277
20
8.8030388007
11
1.8116885007
21
8.5902728388
0
LINE
5
283
100
AcDbEntity
8
0
100
AcDbLine
62
7
6
CONTINUOUS
10
0.0616885007
20
8.4200600931
11
0.1033552469
21
8.5902728388
0
LINE
5
284
100
AcDbEntity
8
0
100
AcDbLine
62
7
6
CONTINUOUS
10
2.0616885007
20
8.5902728388
11
2.1033551277
21
8.7179323980
0
LINE
5
285
100
AcDbEntity
8
0
100
AcDbLine
62
7
6
CONTINUOUS
10
-0.0633114993
20
8.8030388007
11
-0.1466447531
21
8.6328260252
0
LINE
5
286
100
AcDbEntity
8
0
100
AcDbLine
62
7
6
CONTINUOUS
10
0.1033552469
20
8.5902728388
11
0.1866885007
21
8.7179323980
0
LINE
5
287
100
AcDbEntity
8
0
100
AcDbLine
62
7
6
CONTINUOUS
10
-3.0133114993
20
4.6009111354
11
4.2866885007
21
4.6009111354
0
LINE
5
288
100
AcDbEntity
8
0
100
AcDbLine
62
7
6
CONTINUOUS
10
4.2866885007
20
5.1009111354
11
-3.0133114993
21
5.1009111354
0
LINE
5
289
100
AcDbEntity
8
0
100
AcDbLine
62
7
6
CONTINUOUS
10
-3.0133114993
20
5.6009111354
11
4.2866885007
21
5.6009111354
0
LINE
5
28A
100
AcDbEntity
8
0
100
AcDbLine
62
7
6
CONTINUOUS
10
0.2700217546
20
7.1434643218
11
0.4783552469
21
7.1009111354
0
LINE
5
28B
100
AcDbEntity
8
0
100
AcDbLine
62
7
6
CONTINUOUS
10
2.1866885007
20
7.1434643218
11
2.3950218738
21
7.1009111354
0
LINE
5
28C
100
AcDbEntity
8
0
100
AcDbLine
62
7
6
CONTINUOUS
10
0.4783552469
20
7.3562302539
11
0.3116885007
21
7.3987834403
0
LINE
5
28D
100
AcDbEntity
8
0
100
AcDbLine
62
7
6
CONTINUOUS
10
2.3950218738
20
7.3562302539
11
2.2283551277
21
7.3987834403
0
LINE
5
28E
100
AcDbEntity
8
0
100
AcDbLine
62
7
6
CONTINUOUS
10
2.0200218738
20
7.2285706946
11
2.1866885007
21
7.1434643218
0
LINE
5
28F
100
AcDbEntity
8
0
100
AcDbLine
62
7
6
CONTINUOUS
10
2.2283551277
20
7.3987834403
11
2.1033551277
21
7.4838898131
0
LINE
5
290
100
AcDbEntity
8
0
100
AcDbLine
62
7
6
CONTINUOUS
10
2.9366885007
20
8.8030388007
11
3.0616885007
21
8.7179323980
0
LINE
5
291
100
AcDbEntity
8
0
100
AcDbLine
62
7
6
CONTINUOUS
10
1.8533551277
20
7.3987834403
11
2.0200218738
21
7.2285706946
0
LINE
5
292
100
AcDbEntity
8
0
100
AcDbLine
62
7
6
CONTINUOUS
10
3.3116885007
20
8.8030388007
11
3.1450218440
21
8.9732515612
0
LINE
5
293
100
AcDbEntity
8
0
100
AcDbLine
62
7
6
CONTINUOUS
10
3.0616885007
20
8.7179323980
11
3.1450218440
21
8.5902728388
0
LINE
5
294
100
AcDbEntity
8
0
100
AcDbLine
62
7
6
CONTINUOUS
10
4.2866885007
20
5.6009111354
11
3.7866885007
21
6.6009111354
0
LINE
5
295
100
AcDbEntity
8
0
100
AcDbLine
62
7
6
CONTINUOUS
10
3.3950218328
20
8.6328260252
11
3.3116885007
21
8.8030388007
0
LINE
5
296
100
AcDbEntity
8
0
100
AcDbLine
62
7
6
CONTINUOUS
10
2.1033551277
20
7.4838898131
11
2.0616885007
21
7.6115494916
0
LINE
5
297
100
AcDbEntity
8
0
100
AcDbLine
62
7
6
CONTINUOUS
10
3.1450218440
20
8.5902728388
11
3.1866885007
21
8.4200600931
0
LINE
5
298
100
AcDbEntity
8
0
100
AcDbLine
62
7
6
CONTINUOUS
10
1.8116885007
20
7.6115494916
11
1.8533551277
21
7.3987834403
0
LINE
5
299
100
AcDbEntity
8
0
100
AcDbLine
62
7
6
CONTINUOUS
10
3.4366885007
20
8.4200600931
11
3.3950218328
21
8.6328260252
0
LINE
5
29A
100
AcDbEntity
8
0
100
AcDbLine
62
7
6
CONTINUOUS
10
1.7866885007
20
44.6009111354
11
3.6366885007
21
23.6009111354
0
LINE
5
29B
100
AcDbEntity
8
0
100
AcDbLine
62
7
6
CONTINUOUS
10
3.3866885007
20
-7.3990888646
11
3.3866885007
21
-11.5990888646
0
LINE
5
29C
100
AcDbEntity
8
0
100
AcDbLine
62
7
6
CONTINUOUS
10
3.4366885007
20
7.7817622373
11
3.4366885007
21
8.4200600931
0
LINE
5
29D
100
AcDbEntity
8
0
100
AcDbLine
62
7
6
CONTINUOUS
10
3.6366885007
20
-15.3990888646
11
3.6366885007
21
-17.5061956458
0
LINE
5
29E
100
AcDbEntity
8
0
100
AcDbLine
62
7
6
CONTINUOUS
10
3.7866885007
20
9.6009111354
11
3.7866885007
21
6.6009111354
0
LINE
5
29F
100
AcDbEntity
8
0
100
AcDbLine
62
7
6
CONTINUOUS
10
4.0366885007
20
0.1009111354
11
4.0366885007
21
0.6009111354
0
LINE
5
2A0
100
AcDbEntity
8
0
100
AcDbLine
62
7
6
CONTINUOUS
10
4.0366885007
20
1.1009111354
11
4.0366885007
21
1.6009111354
0
LINE
5
2A1
100
AcDbEntity
8
0
100
AcDbLine
62
7
6
CONTINUOUS
10
4.0366885007
20
2.1009111354
11
4.0366885007
21
2.6009111354
0
LINE
5
2A2
100
AcDbEntity
8
0
100
AcDbLine
62
7
6
CONTINUOUS
10
4.0366885007
20
3.1009111354
11
4.0366885007
21
3.6009111354
0
LINE
5
2A3
100
AcDbEntity
8
0
100
AcDbLine
62
7
6
CONTINUOUS
10
4.0366885007
20
4.1009111354
11
4.0366885007
21
4.6009111354
0
LINE
5
2A4
100
AcDbEntity
8
0
100
AcDbLine
62
7
6
CONTINUOUS
10
4.0366885007
20
5.1009111354
11
4.0366885007
21
5.6009111354
0
LINE
5
2A5
100
AcDbEntity
8
0
100
AcDbLine
62
7
6
CONTINUOUS
10
4.1366885007
20
-3.5990888646
11
4.1366885007
21
-5.1990888646
0
LINE
5
2A6
100
AcDbEntity
8
0
100
AcDbLine
62
7
6
CONTINUOUS
10
4.2866885007
20
9.6009111354
11
4.2866885007
21
5.6009111354
0
LINE
5
2A7
100
AcDbEntity
8
0
100
AcDbLine
62
7
6
CONTINUOUS
10
4.2866885007
20
5.1009111354
11
4.2866885007
21
4.6009111354
0
LINE
5
2A8
100
AcDbEntity
8
0
100
AcDbLine
62
7
6
CONTINUOUS
10
4.2866885007
20
4.1009111354
11
4.2866885007
21
3.6009111354
0
LINE
5
2A9
100
AcDbEntity
8
0
100
AcDbLine
62
7
6
CONTINUOUS
10
4.2866885007
20
3.1009111354
11
4.2866885007
21
2.6009111354
0
LINE
5
2AA
100
AcDbEntity
8
0
100
AcDbLine
62
7
6
CONTINUOUS
10
4.2866885007
20
2.1009111354
11
4.2866885007
21
1.6009111354
0
LINE
5
2AB
100
AcDbEntity
8
0
100
AcDbLine
62
7
6
CONTINUOUS
10
4.2866885007
20
1.1009111354
11
4.2866885007
21
0.6009111354
0
LINE
5
2AC
100
AcDbEntity
8
0
100
AcDbLine
62
7
6
CONTINUOUS
10
4.2866885007
20
0.1009111354
11
4.2866885007
21
-3.5990888646
0
LINE
5
2AD
100
AcDbEntity
8
0
100
AcDbLine
62
7
6
CONTINUOUS
10
4.2866885007
20
-5.1990888646
11
4.2866885007
21
-15.3990888646
0
LINE
5
2AE
100
AcDbEntity
8
0
100
AcDbLine
62
7
6
CONTINUOUS
10
4.6366885007
20
16.6009111354
11
4.6366885007
21
11.6009111354
0
LINE
5
2AF
100
AcDbEntity
8
0
100
AcDbLine
62
9
6
CONTINUOUS
10
4.6366885007
20
9.6009111354
11
4.6366885007
21
11.6009111354
0
LINE
5
2B0
100
AcDbEntity
8
0
100
AcDbLine
62
7
6
CONTINUOUS
10
5.1366885007
20
9.6009111354
11
5.1366885007
21
11.6009111354
0
LINE
5
2B1
100
AcDbEntity
8
0
100
AcDbLine
62
7
6
CONTINUOUS
10
3.3950218328
20
7.5689961860
11
3.4366885007
21
7.7817622373
0
LINE
5
2B2
100
AcDbEntity
8
0
100
AcDbLine
62
7
6
CONTINUOUS
10
3.1866885007
20
7.7817622373
11
3.1450218440
21
7.6115494916
0
LINE
5
2B3
100
AcDbEntity
8
0
100
AcDbLine
62
7
6
CONTINUOUS
10
3.3116885007
20
7.3987834403
11
3.3950218328
21
7.5689961860
0
LINE
5
2B4
100
AcDbEntity
8
0
100
AcDbLine
62
7
6
CONTINUOUS
10
0.1033552469
20
8.9732515612
11
-0.0633114993
21
8.8030388007
0
LINE
5
2B5
100
AcDbEntity
8
0
100
AcDbLine
62
7
6
CONTINUOUS
10
2.0200218738
20
8.9732515612
11
1.8533551277
21
8.8030388007
0
LINE
5
2B6
100
AcDbEntity
8
0
100
AcDbLine
62
7
6
CONTINUOUS
10
0.1866885007
20
8.7179323980
11
0.3116885007
21
8.8030388007
0
LINE
5
2B7
100
AcDbEntity
8
0
100
AcDbLine
62
7
6
CONTINUOUS
10
2.9366885007
20
7.3987834403
11
2.7700218142
21
7.3562302539
0
LINE
5
2B8
100
AcDbEntity
8
0
100
AcDbLine
62
7
6
CONTINUOUS
10
2.7700218142
20
7.1009111354
11
2.9783551575
21
7.1434643218
0
LINE
5
2B9
100
AcDbEntity
8
0
100
AcDbLine
62
7
6
CONTINUOUS
10
-2.5133114993
20
6.6009111354
11
3.7866885007
21
6.6009111354
0
LINE
5
2BA
100
AcDbEntity
8
0
100
AcDbLine
62
7
6
CONTINUOUS
10
-2.1049780070
20
7.1009111354
11
-0.5216447531
21
7.1009111354
0
LINE
5
2BB
100
AcDbEntity
8
0
100
AcDbLine
62
7
6
CONTINUOUS
10
0.4783552469
20
7.1009111354
11
1.4783551277
21
7.1009111354
0
LINE
5
2BC
100
AcDbEntity
8
0
100
AcDbLine
62
7
6
CONTINUOUS
10
2.3950218738
20
7.1009111354
11
2.7700218142
21
7.1009111354
0
LINE
5
2BD
100
AcDbEntity
8
0
100
AcDbLine
62
7
6
CONTINUOUS
10
-0.5216447531
20
7.3136770675
11
-1.1883114993
21
7.3136770675
0
LINE
5
2BE
100
AcDbEntity
8
0
100
AcDbLine
62
7
6
CONTINUOUS
10
-1.4383114993
20
7.3136770675
11
-2.1049780070
21
7.3136770675
0
LINE
5
2BF
100
AcDbEntity
8
0
100
AcDbLine
62
7
6
CONTINUOUS
10
2.7700218142
20
7.3562302539
11
2.3950218738
21
7.3562302539
0
LINE
5
2C0
100
AcDbEntity
8
0
100
AcDbLine
62
7
6
CONTINUOUS
10
1.2283552469
20
7.3562302539
11
0.4783552469
21
7.3562302539
0
LINE
5
2C1
100
AcDbEntity
8
0
100
AcDbLine
62
7
6
CONTINUOUS
10
2.0616885007
20
7.6115494916
11
1.8116885007
21
7.6115494916
0
LINE
5
2C2
100
AcDbEntity
8
0
100
AcDbLine
62
7
6
CONTINUOUS
10
1.8116885007
20
8.5902728388
11
2.0616885007
21
8.5902728388
0
LINE
5
2C3
100
AcDbEntity
8
0
100
AcDbLine
62
7
6
CONTINUOUS
10
0.4783552469
20
8.8455919871
11
1.2283552469
21
8.8455919871
0
LINE
5
2C4
100
AcDbEntity
8
0
100
AcDbLine
62
7
6
CONTINUOUS
10
2.3950218738
20
8.8455919871
11
2.7700218142
21
8.8455919871
0
LINE
5
2C5
100
AcDbEntity
8
0
100
AcDbLine
62
7
6
CONTINUOUS
10
2.9783551575
20
9.0583579452
11
2.7700218142
21
9.1009111354
0
LINE
5
2C6
100
AcDbEntity
8
0
100
AcDbLine
62
7
6
CONTINUOUS
10
2.7700218142
20
8.8455919871
11
2.9366885007
21
8.8030388007
0
LINE
5
2C7
100
AcDbEntity
8
0
100
AcDbLine
62
7
6
CONTINUOUS
10
3.1450218440
20
8.9732515612
11
2.9783551575
21
9.0583579452
0
LINE
5
2C8
100
AcDbEntity
8
0
100
AcDbLine
62
7
6
CONTINUOUS
10
3.6366885007
20
23.6009111354
11
4.6366885007
21
16.6009111354
0
LINE
5
2C9
100
AcDbEntity
8
0
100
AcDbLine
62
7
6
CONTINUOUS
10
-1.3633114993
20
-18.5990888646
11
-1.7633114993
21
-20.0990888646
0
LINE
5
2CA
100
AcDbEntity
8
0
100
AcDbLine
62
7
6
CONTINUOUS
10
3.1450218440
20
7.6115494916
11
3.0616885007
21
7.4838898131
0
LINE
5
2CB
100
AcDbEntity
8
0
100
AcDbLine
62
7
6
CONTINUOUS
10
3.1450218440
20
7.2285706946
11
3.3116885007
21
7.3987834403
0
LINE
5
2CC
100
AcDbEntity
8
0
100
AcDbLine
62
7
6
CONTINUOUS
10
2.1033551277
20
8.7179323980
11
2.2283551277
21
8.8030388007
0
LINE
5
2CD
100
AcDbEntity
8
0
100
AcDbLine
62
7
6
CONTINUOUS
10
3.0616885007
20
7.4838898131
11
2.9366885007
21
7.3987834403
0
LINE
5
2CE
100
AcDbEntity
8
0
100
AcDbLine
62
7
6
CONTINUOUS
10
0.2700217546
20
9.0583579452
11
0.1033552469
21
8.9732515612
0
LINE
5
2CF
100
AcDbEntity
8
0
100
AcDbLine
62
7
6
CONTINUOUS
10
2.1866885007
20
9.0583579452
11
2.0200218738
21
8.9732515612
0
LINE
5
2D0
100
AcDbEntity
8
0
100
AcDbLine
62
7
6
CONTINUOUS
10
2.2283551277
20
8.8030388007
11
2.3950218738
21
8.8455919871
0
LINE
5
2D1
100
AcDbEntity
8
0
100
AcDbLine
62
7
6
CONTINUOUS
10
0.3116885007
20
8.8030388007
11
0.4783552469
21
8.8455919871
0
LINE
5
2D2
100
AcDbEntity
8
0
100
AcDbLine
62
7
6
CONTINUOUS
10
2.3950218738
20
9.1009111354
11
2.1866885007
21
9.0583579452
0
LINE
5
2D3
100
AcDbEntity
8
0
100
AcDbLine
62
7
6
CONTINUOUS
10
0.4783552469
20
9.1009111354
11
0.2700217546
21
9.0583579452
0
LINE
5
2D4
100
AcDbEntity
8
0
100
AcDbLine
62
7
6
CONTINUOUS
10
2.7700218142
20
9.1009111354
11
2.3950218738
21
9.1009111354
0
LINE
5
2D5
100
AcDbEntity
8
0
100
AcDbLine
62
7
6
CONTINUOUS
10
1.4783551277
20
9.1009111354
11
0.4783552469
21
9.1009111354
0
LINE
5
2D6
100
AcDbEntity
8
0
100
AcDbLine
62
7
6
CONTINUOUS
10
-1.1883114993
20
9.1009111354
11
-1.4383114993
21
9.1009111354
0
LINE
5
2D7
100
AcDbEntity
8
0
100
AcDbLine
62
7
6
CONTINUOUS
10
5.1366885007
20
9.6009111354
11
-3.8633114993
21
9.6009111354
0
LINE
5
2D8
100
AcDbEntity
8
0
100
AcDbLine
62
7
6
CONTINUOUS
10
2.9783551575
20
7.1434643218
11
3.1450218440
21
7.2285706946
0
LINE
5
2D9
100
AcDbEntity
8
0
100
AcDbLine
62
7
6
CONTINUOUS
10
-3.8633114993
20
11.6009111354
11
5.1366885007
21
11.6009111354
0
LINE
5
2DA
100
AcDbEntity
8
0
100
AcDbLine
62
7
6
CONTINUOUS
10
11.8866885007
20
11.6009111354
11
19.3866885007
21
11.6009111354
0
LINE
5
2DB
100
AcDbEntity
8
0
100
AcDbLine
62
7
6
CONTINUOUS
10
11.8866885007
20
25.6009111354
11
11.8866885007
21
24.2509111354
0
LINE
5
2DC
100
AcDbEntity
8
0
100
AcDbLine
62
7
6
CONTINUOUS
10
11.8866885007
20
23.7509111354
11
11.8866885007
21
11.6009111354
0
LINE
5
2DD
100
AcDbEntity
8
0
100
AcDbLine
62
7
6
CONTINUOUS
10
13.7366885007
20
44.6009111354
11
13.5322148165
21
42.5009111354
0
LINE
5
2DE
100
AcDbEntity
8
0
100
AcDbLine
62
7
6
CONTINUOUS
10
13.4348463955
20
41.5009111354
11
12.9480042902
21
36.5009111354
0
LINE
5
2DF
100
AcDbEntity
8
0
100
AcDbLine
62
7
6
CONTINUOUS
10
12.8506358692
20
35.5009111354
11
12.3637937639
21
30.5009111354
0
LINE
5
2E0
100
AcDbEntity
8
0
100
AcDbLine
62
7
6
CONTINUOUS
10
12.2664253428
20
29.5009111354
11
11.8866885007
21
25.6009111354
0
LINE
5
2E1
100
AcDbEntity
8
0
100
AcDbLine
62
7
6
CONTINUOUS
10
4.6366885007
20
16.6009111354
11
-3.3633114993
21
16.6009111354
0
LINE
5
2E2
100
AcDbEntity
8
0
100
AcDbLine
62
7
6
CONTINUOUS
10
19.3866885007
20
25.6009111354
11
19.3866885007
21
24.2509111354
0
LINE
5
2E3
100
AcDbEntity
8
0
100
AcDbLine
62
7
6
CONTINUOUS
10
19.3866885007
20
23.7509111354
11
19.3866885007
21
11.6009111354
0
LINE
5
2E4
100
AcDbEntity
8
0
100
AcDbLine
62
7
6
CONTINUOUS
10
17.5366885007
20
44.6009111354
11
17.7411621849
21
42.5009111354
0
LINE
5
2E5
100
AcDbEntity
8
0
100
AcDbLine
62
7
6
CONTINUOUS
10
17.8385306060
20
41.5009111354
11
18.3253727113
21
36.5009111354
0
LINE
5
2E6
100
AcDbEntity
8
0
100
AcDbLine
62
7
6
CONTINUOUS
10
18.4227411323
20
35.5009111354
11
18.9095832376
21
30.5009111354
0
LINE
5
2E7
100
AcDbEntity
8
0
100
AcDbLine
62
7
6
CONTINUOUS
10
19.0069516586
20
29.5009111354
11
19.3866885007
21
25.6009111354
0
LINE
5
2E8
100
AcDbEntity
8
0
100
AcDbLine
62
7
6
CONTINUOUS
10
3.6366885007
20
23.6009111354
11
-2.3633114993
21
23.6009111354
0
LINE
5
2E9
100
AcDbEntity
8
0
100
AcDbLine
62
7
6
CONTINUOUS
10
11.8868615776
20
23.7509111354
11
14.1366885007
21
23.7509111354
0
LINE
5
2EA
100
AcDbEntity
8
0
100
AcDbLine
62
7
6
CONTINUOUS
10
17.1366885007
20
23.7509111354
11
19.3865154238
21
23.7509111354
0
LINE
5
2EB
100
AcDbEntity
8
0
100
AcDbLine
62
7
6
CONTINUOUS
10
19.3865154238
20
24.2509111354
11
17.1366885007
21
24.2509111354
0
LINE
5
2EC
100
AcDbEntity
8
0
100
AcDbLine
62
7
6
CONTINUOUS
10
14.1366885007
20
24.2509111354
11
11.8868615776
21
24.2509111354
0
LINE
5
2ED
100
AcDbEntity
8
0
100
AcDbLine
62
7
6
CONTINUOUS
10
11.8866885007
20
25.6009111354
11
19.3866885007
21
25.6009111354
0
LINE
5
2EE
100
AcDbEntity
8
0
100
AcDbLine
62
7
6
CONTINUOUS
10
19.0397286215
20
26.7009111354
11
12.2336483799
21
26.7009111354
0
LINE
5
2EF
100
AcDbEntity
8
0
100
AcDbLine
62
7
6
CONTINUOUS
10
18.9771153586
20
27.3009111354
11
12.2962616429
21
27.3009111354
0
LINE
5
2F0
100
AcDbEntity
8
0
100
AcDbLine
62
7
6
CONTINUOUS
10
12.2665893749
20
29.5009111354
11
14.3366885007
21
29.5009111354
0
LINE
5
2F1
100
AcDbEntity
8
0
100
AcDbLine
62
7
6
CONTINUOUS
10
16.9366885007
20
29.5009111354
11
19.0067876265
21
29.5009111354
0
LINE
5
2F2
100
AcDbEntity
8
0
100
AcDbLine
62
7
6
CONTINUOUS
10
2.8366885007
20
-16.7990888646
11
1.7053176508
21
-17.5990888646
0
LINE
5
2F3
100
AcDbEntity
8
0
100
AcDbLine
62
7
6
CONTINUOUS
10
3.6366885007
20
-17.5061956458
11
3.5053176508
21
-17.5990888646
0
LINE
5
2F4
100
AcDbEntity
8
0
100
AcDbLine
62
7
6
CONTINUOUS
10
18.9094305913
20
30.5009111354
11
16.9366885007
21
30.5009111354
0
LINE
5
2F5
100
AcDbEntity
8
0
100
AcDbLine
62
7
6
CONTINUOUS
10
14.3366885007
20
30.5009111354
11
12.3639464102
21
30.5009111354
0
LINE
5
2F6
100
AcDbEntity
8
0
100
AcDbLine
62
7
6
CONTINUOUS
10
18.4268598261
20
32.5009111354
11
12.8465171754
21
32.5009111354
0
LINE
5
2F7
100
AcDbEntity
8
0
100
AcDbLine
62
7
6
CONTINUOUS
10
18.3190579545
20
33.5009111354
11
12.9543190470
21
33.5009111354
0
LINE
5
2F8
100
AcDbEntity
8
0
100
AcDbLine
62
7
6
CONTINUOUS
10
12.8506358692
20
35.5009111354
11
14.3366885007
21
35.5009111354
0
LINE
5
2F9
100
AcDbEntity
8
0
100
AcDbLine
62
7
6
CONTINUOUS
10
16.9366885007
20
35.5009111354
11
18.4227411323
21
35.5009111354
0
LINE
5
2FA
100
AcDbEntity
8
0
100
AcDbLine
62
7
6
CONTINUOUS
10
18.3251746074
20
36.5009111354
11
16.9366885007
21
36.5009111354
0
LINE
5
2FB
100
AcDbEntity
8
0
100
AcDbLine
62
7
6
CONTINUOUS
10
14.3366885007
20
36.5009111354
11
12.9482023941
21
36.5009111354
0
LINE
5
2FC
100
AcDbEntity
8
0
100
AcDbLine
62
7
6
CONTINUOUS
10
17.7650149504
20
38.5009111354
11
13.5083620510
21
38.5009111354
0
LINE
5
2FD
100
AcDbEntity
8
0
100
AcDbLine
62
7
6
CONTINUOUS
10
17.6500415872
20
39.5009111354
11
13.6233354142
21
39.5009111354
0
LINE
5
2FE
100
AcDbEntity
8
0
100
AcDbLine
62
7
6
CONTINUOUS
10
13.4348463955
20
41.5009111354
11
14.3366885007
21
41.5009111354
0
LINE
5
2FF
100
AcDbEntity
8
0
100
AcDbLine
62
7
6
CONTINUOUS
10
16.9366885007
20
41.5009111354
11
17.8385306060
21
41.5009111354
0
LINE
5
300
100
AcDbEntity
8
0
100
AcDbLine
62
7
6
CONTINUOUS
10
17.7411621849
20
42.5009111354
11
16.9366885007
21
42.5009111354
0
LINE
5
301
100
AcDbEntity
8
0
100
AcDbLine
62
7
6
CONTINUOUS
10
14.3366885007
20
42.5009111354
11
13.5322148165
21
42.5009111354
0
LINE
5
302
100
AcDbEntity
8
0
100
AcDbLine
62
7
6
CONTINUOUS
10
1.7866885007
20
44.6009111354
11
-0.5133114993
21
44.6009111354
0
LINE
5
303
100
AcDbEntity
8
0
100
AcDbLine
62
7
6
CONTINUOUS
10
13.7366885007
20
44.6009111354
11
17.5366885007
21
44.6009111354
0
LINE
5
304
100
AcDbEntity
8
0
100
AcDbLine
62
7
6
CONTINUOUS
10
-23.9595849174
20
-22.5990888646
11
-28.7595849174
21
-22.5990888646
0
LINE
5
305
100
AcDbEntity
8
0
100
AcDbLine
62
7
6
CONTINUOUS
10
-23.9595849174
20
-20.0990888646
11
-28.7595849174
21
-20.0990888646
0
LINE
5
306
100
AcDbEntity
8
0
100
AcDbLine
62
7
6
CONTINUOUS
10
-24.3595849174
20
-18.5990888646
11
-28.3595849174
21
-18.5990888646
0
LINE
5
307
100
AcDbEntity
8
0
100
AcDbLine
62
7
6
CONTINUOUS
10
-29.1595849174
20
-17.5990888646
11
-27.3595849174
21
-17.5990888646
0
LINE
5
308
100
AcDbEntity
8
0
100
AcDbLine
62
7
6
CONTINUOUS
10
-25.3595849174
20
-17.5990888646
11
-23.5595849174
21
-17.5990888646
0
LINE
5
309
100
AcDbEntity
8
0
100
AcDbLine
62
7
6
CONTINUOUS
10
-29.1595849174
20
-16.7990888646
11
-28.3595849174
21
-16.7990888646
0
LINE
5
30A
100
AcDbEntity
8
0
100
AcDbLine
62
7
6
CONTINUOUS
10
-24.3595849174
20
-16.7990888646
11
-23.5595849174
21
-16.7990888646
0
LINE
5
30B
100
AcDbEntity
8
0
100
AcDbLine
62
7
6
CONTINUOUS
10
-22.8595849174
20
-15.3990888646
11
-25.3595849174
21
-15.3990888646
0
LINE
5
30C
100
AcDbEntity
8
0
100
AcDbLine
62
7
6
CONTINUOUS
10
-27.3595849174
20
-15.3990888646
11
-29.8595849174
21
-15.3990888646
0
LINE
5
30D
100
AcDbEntity
8
0
100
AcDbLine
62
7
6
CONTINUOUS
10
-25.3595849174
20
-14.5990888646
11
-27.3595849174
21
-14.5990888646
0
LINE
5
30E
100
AcDbEntity
8
0
100
AcDbLine
62
7
6
CONTINUOUS
10
-28.3595849174
20
-16.7990888646
11
-27.3595849174
21
-17.5061956458
0
LINE
5
30F
100
AcDbEntity
8
0
100
AcDbLine
62
7
6
CONTINUOUS
10
-21.8595849174
20
-5.1990888646
11
-30.8595849174
21
-5.1990888646
0
LINE
5
310
100
AcDbEntity
8
0
100
AcDbLine
62
7
6
CONTINUOUS
10
-30.8595849174
20
-13.8990888646
11
-29.8595849174
21
-15.3990888646
0
LINE
5
311
100
AcDbEntity
8
0
100
AcDbLine
62
7
6
CONTINUOUS
10
-21.8595849174
20
-3.5990888646
11
-30.8595849174
21
-3.5990888646
0
LINE
5
312
100
AcDbEntity
8
0
100
AcDbLine
62
7
6
CONTINUOUS
10
-22.0158349174
20
0.1009111354
11
-30.7033349174
21
0.1009111354
0
LINE
5
313
100
AcDbEntity
8
0
100
AcDbLine
62
7
6
CONTINUOUS
10
-22.0470849174
20
0.6009111354
11
-30.6720849174
21
0.6009111354
0
LINE
5
314
100
AcDbEntity
8
0
100
AcDbLine
62
7
6
CONTINUOUS
10
-22.0783349174
20
1.1009111354
11
-30.6408349174
21
1.1009111354
0
LINE
5
315
100
AcDbEntity
8
0
100
AcDbLine
62
7
6
CONTINUOUS
10
-22.1095849174
20
1.6009111354
11
-30.6095849174
21
1.6009111354
0
LINE
5
316
100
AcDbEntity
8
0
100
AcDbLine
62
7
6
CONTINUOUS
10
-22.1408349174
20
2.1009111354
11
-30.5783349174
21
2.1009111354
0
LINE
5
317
100
AcDbEntity
8
0
100
AcDbLine
62
7
6
CONTINUOUS
10
-22.1720849174
20
2.6009111354
11
-30.5470849174
21
2.6009111354
0
LINE
5
318
100
AcDbEntity
8
0
100
AcDbLine
62
7
6
CONTINUOUS
10
-22.2033349174
20
3.1009111354
11
-30.5158349174
21
3.1009111354
0
LINE
5
319
100
AcDbEntity
8
0
100
AcDbLine
62
7
6
CONTINUOUS
10
-22.2345849174
20
3.6009111354
11
-30.4845849174
21
3.6009111354
0
LINE
5
31A
100
AcDbEntity
8
0
100
AcDbLine
62
7
6
CONTINUOUS
10
-22.2658349174
20
4.1009111354
11
-30.4533349174
21
4.1009111354
0
LINE
5
31B
100
AcDbEntity
8
0
100
AcDbLine
62
7
6
CONTINUOUS
10
-31.3595849174
20
9.6009111354
11
-31.3595849174
21
11.6009111354
0
LINE
5
31C
100
AcDbEntity
8
0
100
AcDbLine
62
7
6
CONTINUOUS
10
-31.0595849174
20
7.1009111354
11
-31.0595849174
21
9.1009111354
0
LINE
5
31D
100
AcDbEntity
8
0
100
AcDbLine
62
7
6
CONTINUOUS
10
-30.8595849174
20
9.6009111354
11
-30.8595849174
21
6.6009111354
0
LINE
5
31E
100
AcDbEntity
8
0
100
AcDbLine
62
7
6
CONTINUOUS
10
-30.8595849174
20
-2.3990888646
11
-30.8595849174
21
-13.8990888646
0
LINE
5
31F
100
AcDbEntity
8
0
100
AcDbLine
62
9
6
CONTINUOUS
10
-30.8595849174
20
9.6009111354
11
-30.8595849174
21
11.6009111354
0
LINE
5
320
100
AcDbEntity
8
0
100
AcDbLine
62
7
6
CONTINUOUS
10
-28.2595849174
20
44.6009111354
11
-28.7561638648
21
39.5009111354
0
LINE
5
321
100
AcDbEntity
8
0
100
AcDbLine
62
7
6
CONTINUOUS
10
-28.8535322858
20
38.5009111354
11
-29.3403743911
21
33.5009111354
0
LINE
5
322
100
AcDbEntity
8
0
100
AcDbLine
62
7
6
CONTINUOUS
10
-29.4377428121
20
32.5009111354
11
-29.9440586016
21
27.3009111354
0
LINE
5
323
100
AcDbEntity
8
0
100
AcDbLine
62
7
6
CONTINUOUS
10
-30.0024796542
20
26.7009111354
11
-30.1095849174
21
25.6009111354
0
LINE
5
324
100
AcDbEntity
8
0
100
AcDbLine
62
7
6
CONTINUOUS
10
-30.1095849174
20
18.3509111354
11
-30.3595849174
21
16.6009111354
0
LINE
5
325
100
AcDbEntity
8
0
100
AcDbLine
62
7
6
CONTINUOUS
10
-22.2970849174
20
4.6009111354
11
-30.4220849174
21
4.6009111354
0
LINE
5
326
100
AcDbEntity
8
0
100
AcDbLine
62
7
6
CONTINUOUS
10
-22.3283349174
20
5.1009111354
11
-30.3908349174
21
5.1009111354
0
LINE
5
327
100
AcDbEntity
8
0
100
AcDbLine
62
7
6
CONTINUOUS
10
-22.3595849174
20
5.6009111354
11
-30.3595849174
21
5.6009111354
0
LINE
5
328
100
AcDbEntity
8
0
100
AcDbLine
62
7
6
CONTINUOUS
10
-30.3595849174
20
5.6009111354
11
-30.8595849174
21
6.6009111354
0
LINE
5
329
100
AcDbEntity
8
0
100
AcDbLine
62
7
6
CONTINUOUS
10
-24.3595849174
20
-18.5990888646
11
-23.9595849174
21
-20.0990888646
0
LINE
5
32A
100
AcDbEntity
8
0
100
AcDbLine
62
7
6
CONTINUOUS
10
-30.3595849174
20
16.6009111354
11
-30.3595849174
21
11.6009111354
0
LINE
5
32B
100
AcDbEntity
8
0
100
AcDbLine
62
7
6
CONTINUOUS
10
-30.3595849174
20
9.6009111354
11
-30.3595849174
21
5.6009111354
0
LINE
5
32C
100
AcDbEntity
8
0
100
AcDbLine
62
7
6
CONTINUOUS
10
-30.1095849174
20
25.6009111354
11
-30.1095849174
21
11.6009111354
0
LINE
5
32D
100
AcDbEntity
8
0
100
AcDbLine
62
7
6
CONTINUOUS
10
-29.1595849174
20
-15.3990888646
11
-29.1595849174
21
-17.5990888646
0
LINE
5
32E
100
AcDbEntity
8
0
100
AcDbLine
62
7
6
CONTINUOUS
10
-28.7595849174
20
-20.0990888646
11
-28.7595849174
21
-22.5990888646
0
LINE
5
32F
100
AcDbEntity
8
0
100
AcDbLine
62
7
6
CONTINUOUS
10
-28.3595849174
20
-15.3990888646
11
-28.3595849174
21
-16.7990888646
0
LINE
5
330
100
AcDbEntity
8
0
100
AcDbLine
62
7
6
CONTINUOUS
10
-28.3595849174
20
-17.5990888646
11
-28.3595849174
21
-18.5990888646
0
LINE
5
331
100
AcDbEntity
8
0
100
AcDbLine
62
7
6
CONTINUOUS
10
-30.3908349174
20
5.1009111354
11
-30.4220849174
21
4.6009111354
0
LINE
5
332
100
AcDbEntity
8
0
100
AcDbLine
62
7
6
CONTINUOUS
10
-30.4533349174
20
4.1009111354
11
-30.4845849174
21
3.6009111354
0
LINE
5
333
100
AcDbEntity
8
0
100
AcDbLine
62
7
6
CONTINUOUS
10
-30.5158349174
20
3.1009111354
11
-30.5470849174
21
2.6009111354
0
LINE
5
334
100
AcDbEntity
8
0
100
AcDbLine
62
7
6
CONTINUOUS
10
-30.5783349174
20
2.1009111354
11
-30.6095849174
21
1.6009111354
0
LINE
5
335
100
AcDbEntity
8
0
100
AcDbLine
62
7
6
CONTINUOUS
10
-30.6408349174
20
1.1009111354
11
-30.6720849174
21
0.6009111354
0
LINE
5
336
100
AcDbEntity
8
0
100
AcDbLine
62
7
6
CONTINUOUS
10
-30.7033349174
20
0.1009111354
11
-30.8595849174
21
-2.3990888646
0
LINE
5
337
100
AcDbEntity
8
0
100
AcDbLine
62
7
6
CONTINUOUS
10
-30.3903471121
20
1.1009111354
11
-30.3590971121
21
1.6009111354
0
LINE
5
338
100
AcDbEntity
8
0
100
AcDbLine
62
7
6
CONTINUOUS
10
-30.3278471121
20
2.1009111354
11
-30.2965971121
21
2.6009111354
0
LINE
5
339
100
AcDbEntity
8
0
100
AcDbLine
62
7
6
CONTINUOUS
10
-30.2653471121
20
3.1009111354
11
-30.2340971121
21
3.6009111354
0
LINE
5
33A
100
AcDbEntity
8
0
100
AcDbLine
62
7
6
CONTINUOUS
10
-30.2028471121
20
4.1009111354
11
-30.1715971121
21
4.6009111354
0
LINE
5
33B
100
AcDbEntity
8
0
100
AcDbLine
62
7
6
CONTINUOUS
10
-30.1403471121
20
5.1009111354
11
-30.1090971121
21
5.6009111354
0
LINE
5
33C
100
AcDbEntity
8
0
100
AcDbLine
62
7
6
CONTINUOUS
10
-30.4498412584
20
0.1009111354
11
-30.4185912584
21
0.6009111354
0
LINE
5
33D
100
AcDbEntity
8
0
100
AcDbLine
62
7
6
CONTINUOUS
10
-27.7071074309
20
42.3587636846
11
-27.7611087419
21
41.7457758304
0
LINE
5
33E
100
AcDbEntity
8
0
100
AcDbLine
62
7
6
CONTINUOUS
10
-27.9588706317
20
39.5009111354
11
-28.0469658698
21
38.5009111354
0
LINE
5
33F
100
AcDbEntity
8
0
100
AcDbLine
62
7
6
CONTINUOUS
10
-28.4874420603
20
33.5009111354
11
-28.5755372984
21
32.5009111354
0
LINE
5
340
100
AcDbEntity
8
0
100
AcDbLine
62
7
6
CONTINUOUS
10
-29.0336325364
20
27.3009111354
11
-29.0864896793
21
26.7009111354
0
LINE
5
341
100
AcDbEntity
8
0
100
AcDbLine
62
7
6
CONTINUOUS
10
-30.8595849174
20
7.1009111354
11
-31.0595849174
21
7.1009111354
0
LINE
5
342
100
AcDbEntity
8
0
100
AcDbLine
62
7
6
CONTINUOUS
10
-30.8595849174
20
7.1434643218
11
-31.0595849174
21
7.1434643218
0
LINE
5
343
100
AcDbEntity
8
0
100
AcDbLine
62
7
6
CONTINUOUS
10
-30.8595849174
20
7.2285706946
11
-31.0595849174
21
7.2285706946
0
LINE
5
344
100
AcDbEntity
8
0
100
AcDbLine
62
7
6
CONTINUOUS
10
-30.8595849174
20
7.3987834403
11
-31.0595849174
21
7.3987834403
0
LINE
5
345
100
AcDbEntity
8
0
100
AcDbLine
62
7
6
CONTINUOUS
10
-30.8595849174
20
7.5689961860
11
-31.0595849174
21
7.5689961860
0
LINE
5
346
100
AcDbEntity
8
0
100
AcDbLine
62
7
6
CONTINUOUS
10
-30.8595849174
20
7.7817622373
11
-31.0595849174
21
7.7817622373
0
LINE
5
347
100
AcDbEntity
8
0
100
AcDbLine
62
7
6
CONTINUOUS
10
-30.8595849174
20
8.4200600931
11
-31.0595849174
21
8.4200600931
0
LINE
5
348
100
AcDbEntity
8
0
100
AcDbLine
62
7
6
CONTINUOUS
10
-30.8595849174
20
8.6328260252
11
-31.0595849174
21
8.6328260252
0
LINE
5
349
100
AcDbEntity
8
0
100
AcDbLine
62
7
6
CONTINUOUS
10
-30.8595849174
20
8.8030388007
11
-31.0595849174
21
8.8030388007
0
LINE
5
34A
100
AcDbEntity
8
0
100
AcDbLine
62
7
6
CONTINUOUS
10
-30.8595849174
20
8.9732515612
11
-31.0595849174
21
8.9732515612
0
LINE
5
34B
100
AcDbEntity
8
0
100
AcDbLine
62
7
6
CONTINUOUS
10
-27.3595849174
20
-17.5990888646
11
-27.3595849174
21
-14.5990888646
0
LINE
5
34C
100
AcDbEntity
8
0
100
AcDbLine
62
7
6
CONTINUOUS
10
-30.8595849174
20
9.0583579452
11
-31.0595849174
21
9.0583579452
0
LINE
5
34D
100
AcDbEntity
8
0
100
AcDbLine
62
7
6
CONTINUOUS
10
-30.8595849174
20
9.1009111354
11
-31.0595849174
21
9.1009111354
0
LINE
5
34E
100
AcDbEntity
8
0
100
AcDbLine
62
7
6
CONTINUOUS
10
-21.3595849174
20
9.6009111354
11
-31.3595849174
21
9.6009111354
0
LINE
5
34F
100
AcDbEntity
8
0
100
AcDbLine
62
7
6
CONTINUOUS
10
-25.3595849174
20
-17.5990888646
11
-25.3595849174
21
-14.5990888646
0
LINE
5
350
100
AcDbEntity
8
0
100
AcDbLine
62
7
6
CONTINUOUS
10
-24.3595849174
20
-15.3990888646
11
-24.3595849174
21
-16.7990888646
0
LINE
5
351
100
AcDbEntity
8
0
100
AcDbLine
62
7
6
CONTINUOUS
10
-24.3595849174
20
-17.5990888646
11
-24.3595849174
21
-18.5990888646
0
LINE
5
352
100
AcDbEntity
8
0
100
AcDbLine
62
7
6
CONTINUOUS
10
-23.9595849174
20
-20.0990888646
11
-23.9595849174
21
-22.5990888646
0
LINE
5
353
100
AcDbEntity
8
0
100
AcDbLine
62
7
6
CONTINUOUS
10
-21.3595849174
20
11.6009111354
11
-31.3595849174
21
11.6009111354
0
LINE
5
354
100
AcDbEntity
8
0
100
AcDbLine
62
7
6
CONTINUOUS
10
-25.0120655677
20
42.3587995986
11
-24.9580616801
21
41.7457824958
0
LINE
5
355
100
AcDbEntity
8
0
100
AcDbLine
62
7
6
CONTINUOUS
10
-24.7599086521
20
39.4964778540
11
-24.6724918359
21
38.5041788592
0
LINE
5
356
100
AcDbEntity
8
0
100
AcDbLine
62
7
6
CONTINUOUS
10
-24.2317277745
20
33.5009111354
11
-24.1436325364
21
32.5009111354
0
LINE
5
357
100
AcDbEntity
8
0
100
AcDbLine
62
7
6
CONTINUOUS
10
-23.6855372984
20
27.3009111354
11
-23.6326801555
21
26.7009111354
0
LINE
5
358
100
AcDbEntity
8
0
100
AcDbLine
62
7
6
CONTINUOUS
10
-22.3005785764
20
0.6009111354
11
-22.2693285764
21
0.1009111354
0
LINE
5
359
100
AcDbEntity
8
0
100
AcDbLine
62
7
6
CONTINUOUS
10
-22.6100727227
20
5.6009111354
11
-22.5788227227
21
5.1009111354
0
LINE
5
35A
100
AcDbEntity
8
0
100
AcDbLine
62
7
6
CONTINUOUS
10
-22.5475727227
20
4.6009111354
11
-22.5163227227
21
4.1009111354
0
LINE
5
35B
100
AcDbEntity
8
0
100
AcDbLine
62
7
6
CONTINUOUS
10
-22.4850727227
20
3.6009111354
11
-22.4538227227
21
3.1009111354
0
LINE
5
35C
100
AcDbEntity
8
0
100
AcDbLine
62
7
6
CONTINUOUS
10
-22.4225727227
20
2.6009111354
11
-22.3913227227
21
2.1009111354
0
LINE
5
35D
100
AcDbEntity
8
0
100
AcDbLine
62
7
6
CONTINUOUS
10
-22.3600727227
20
1.6009111354
11
-22.3288227227
21
1.1009111354
0
LINE
5
35E
100
AcDbEntity
8
0
100
AcDbLine
62
7
6
CONTINUOUS
10
-21.8595849174
20
-2.3990888646
11
-22.0158349174
21
0.1009111354
0
LINE
5
35F
100
AcDbEntity
8
0
100
AcDbLine
62
7
6
CONTINUOUS
10
-22.0470849174
20
0.6009111354
11
-22.0783349174
21
1.1009111354
0
LINE
5
360
100
AcDbEntity
8
0
100
AcDbLine
62
7
6
CONTINUOUS
10
-22.1095849174
20
1.6009111354
11
-22.1408349174
21
2.1009111354
0
LINE
5
361
100
AcDbEntity
8
0
100
AcDbLine
62
7
6
CONTINUOUS
10
-22.1720849174
20
2.6009111354
11
-22.2033349174
21
3.1009111354
0
LINE
5
362
100
AcDbEntity
8
0
100
AcDbLine
62
7
6
CONTINUOUS
10
-22.2345849174
20
3.6009111354
11
-22.2658349174
21
4.1009111354
0
LINE
5
363
100
AcDbEntity
8
0
100
AcDbLine
62
7
6
CONTINUOUS
10
-22.2970849174
20
4.6009111354
11
-22.3283349174
21
5.1009111354
0
LINE
5
364
100
AcDbEntity
8
0
100
AcDbLine
62
7
6
CONTINUOUS
10
-23.5595849174
20
-15.3990888646
11
-23.5595849174
21
-17.5990888646
0
LINE
5
365
100
AcDbEntity
8
0
100
AcDbLine
62
7
6
CONTINUOUS
10
-22.6095849174
20
25.6009111354
11
-22.6095849174
21
11.6009111354
0
LINE
5
366
100
AcDbEntity
8
0
100
AcDbLine
62
7
6
CONTINUOUS
10
-22.3595849174
20
16.6009111354
11
-22.3595849174
21
11.6009111354
0
LINE
5
367
100
AcDbEntity
8
0
100
AcDbLine
62
7
6
CONTINUOUS
10
-22.3595849174
20
9.6009111354
11
-22.3595849174
21
5.6009111354
0
LINE
5
368
100
AcDbEntity
8
0
100
AcDbLine
62
9
6
CONTINUOUS
10
-21.8595849174
20
11.6009111354
11
-21.8595849174
21
9.6009111354
0
LINE
5
369
100
AcDbEntity
8
0
100
AcDbLine
62
7
6
CONTINUOUS
10
-21.8595849174
20
9.6009111354
11
-21.8595849174
21
6.6009111354
0
LINE
5
36A
100
AcDbEntity
8
0
100
AcDbLine
62
7
6
CONTINUOUS
10
-21.8595849174
20
-13.8990888646
11
-21.8595849174
21
-2.3990888646
0
LINE
5
36B
100
AcDbEntity
8
0
100
AcDbLine
62
7
6
CONTINUOUS
10
-22.6095849174
20
18.3509111354
11
-22.3595849174
21
16.6009111354
0
LINE
5
36C
100
AcDbEntity
8
0
100
AcDbLine
62
7
6
CONTINUOUS
10
-24.4595849174
20
44.6009111354
11
-23.9630059700
21
39.5009111354
0
LINE
5
36D
100
AcDbEntity
8
0
100
AcDbLine
62
7
6
CONTINUOUS
10
-23.8656375490
20
38.5009111354
11
-23.3787954437
21
33.5009111354
0
LINE
5
36E
100
AcDbEntity
8
0
100
AcDbLine
62
7
6
CONTINUOUS
10
-23.2814270227
20
32.5009111354
11
-22.7751112332
21
27.3009111354
0
LINE
5
36F
100
AcDbEntity
8
0
100
AcDbLine
62
7
6
CONTINUOUS
10
-22.7166901806
20
26.7009111354
11
-22.6095849174
21
25.6009111354
0
LINE
5
370
100
AcDbEntity
8
0
100
AcDbLine
62
7
6
CONTINUOUS
10
-21.3595849174
20
11.6009111354
11
-21.3595849174
21
9.6009111354
0
LINE
5
371
100
AcDbEntity
8
0
100
AcDbLine
62
7
6
CONTINUOUS
10
-28.3595849174
20
-18.5990888646
11
-28.7595849174
21
-20.0990888646
0
LINE
5
372
100
AcDbEntity
8
0
100
AcDbLine
62
7
6
CONTINUOUS
10
-22.3595849174
20
5.6009111354
11
-21.8595849174
21
6.6009111354
0
LINE
5
373
100
AcDbEntity
8
0
100
AcDbLine
62
7
6
CONTINUOUS
10
-22.6095849174
20
16.6009111354
11
-22.3595849174
21
16.6009111354
0
LINE
5
374
100
AcDbEntity
8
0
100
AcDbLine
62
7
6
CONTINUOUS
10
-30.1095849174
20
16.6009111354
11
-30.3595849174
21
16.6009111354
0
LINE
5
375
100
AcDbEntity
8
0
100
AcDbLine
62
7
6
CONTINUOUS
10
-29.7965166886
20
23.7509111354
11
-22.9226531462
21
23.7509111354
0
LINE
5
376
100
AcDbEntity
8
0
100
AcDbLine
62
7
6
CONTINUOUS
10
-22.9226531462
20
24.2509111354
11
-29.7965166886
21
24.2509111354
0
LINE
5
377
100
AcDbEntity
8
0
100
AcDbLine
62
7
6
CONTINUOUS
10
-22.6095849174
20
25.6009111354
11
-30.1095849174
21
25.6009111354
0
LINE
5
378
100
AcDbEntity
8
0
100
AcDbLine
62
7
6
CONTINUOUS
10
-22.7166901806
20
26.7009111354
11
-25.0595849174
21
26.7009111354
0
LINE
5
379
100
AcDbEntity
8
0
100
AcDbLine
62
7
6
CONTINUOUS
10
-27.6595849174
20
26.7009111354
11
-30.0024796542
21
26.7009111354
0
LINE
5
37A
100
AcDbEntity
8
0
100
AcDbLine
62
7
6
CONTINUOUS
10
-22.8595849174
20
-15.3990888646
11
-21.8595849174
21
-13.8990888646
0
LINE
5
37B
100
AcDbEntity
8
0
100
AcDbLine
62
7
6
CONTINUOUS
10
-22.7751112332
20
27.3009111354
11
-25.0595849174
21
27.3009111354
0
LINE
5
37C
100
AcDbEntity
8
0
100
AcDbLine
62
7
6
CONTINUOUS
10
-27.6595849174
20
27.3009111354
11
-29.9440586016
21
27.3009111354
0
LINE
5
37D
100
AcDbEntity
8
0
100
AcDbLine
62
7
6
CONTINUOUS
10
-29.4690340251
20
29.5009111354
11
-23.2501358097
21
29.5009111354
0
LINE
5
37E
100
AcDbEntity
8
0
100
AcDbLine
62
7
6
CONTINUOUS
10
-23.3559471299
20
30.5009111354
11
-29.3632227049
21
30.5009111354
0
LINE
5
37F
100
AcDbEntity
8
0
100
AcDbLine
62
7
6
CONTINUOUS
10
-23.2814270227
20
32.5009111354
11
-25.0595849174
21
32.5009111354
0
LINE
5
380
100
AcDbEntity
8
0
100
AcDbLine
62
7
6
CONTINUOUS
10
-27.6595849174
20
32.5009111354
11
-29.4377428121
21
32.5009111354
0
LINE
5
381
100
AcDbEntity
8
0
100
AcDbLine
62
7
6
CONTINUOUS
10
-23.3787954437
20
33.5009111354
11
-25.0595849174
21
33.5009111354
0
LINE
5
382
100
AcDbEntity
8
0
100
AcDbLine
62
7
6
CONTINUOUS
10
-27.6595849174
20
33.5009111354
11
-29.3403743911
21
33.5009111354
0
LINE
5
383
100
AcDbEntity
8
0
100
AcDbLine
62
7
6
CONTINUOUS
10
-24.3595849174
20
-16.7990888646
11
-25.3595849174
21
-17.5061956458
0
LINE
5
384
100
AcDbEntity
8
0
100
AcDbLine
62
7
6
CONTINUOUS
10
-28.8237458833
20
35.5009111354
11
-23.8954239515
21
35.5009111354
0
LINE
5
385
100
AcDbEntity
8
0
100
AcDbLine
62
7
6
CONTINUOUS
10
-24.0060720570
20
36.5009111354
11
-28.7130977778
21
36.5009111354
0
LINE
5
386
100
AcDbEntity
8
0
100
AcDbLine
62
7
6
CONTINUOUS
10
-23.8656375490
20
38.5009111354
11
-25.0595849174
21
38.5009111354
0
LINE
5
387
100
AcDbEntity
8
0
100
AcDbLine
62
7
6
CONTINUOUS
10
-27.6595849174
20
38.5009111354
11
-28.8535322858
21
38.5009111354
0
LINE
5
388
100
AcDbEntity
8
0
100
AcDbLine
62
7
6
CONTINUOUS
10
-23.9630059700
20
39.5009111354
11
-25.0595849174
21
39.5009111354
0
LINE
5
389
100
AcDbEntity
8
0
100
AcDbLine
62
7
6
CONTINUOUS
10
-27.6595849174
20
39.5009111354
11
-28.7561638648
21
39.5009111354
0
LINE
5
38A
100
AcDbEntity
8
0
100
AcDbLine
62
7
6
CONTINUOUS
10
-28.1366917393
20
41.5009111354
11
-24.5824780955
21
41.5009111354
0
LINE
5
38B
100
AcDbEntity
8
0
100
AcDbLine
62
7
6
CONTINUOUS
10
-24.7046500282
20
42.5009111354
11
-28.0145198066
21
42.5009111354
0
LINE
5
38C
100
AcDbEntity
8
0
100
AcDbLine
62
7
6
CONTINUOUS
10
-24.4595849174
20
44.6009111354
11
-28.2595849174
21
44.6009111354
0
ARC
5
38D
100
AcDbEntity
8
0
100
AcDbCircle
62
7
6
CONTINUOUS
10
17.1366885007
20
24.0009111354
40
0.2500000000
100
AcDbArc
50
90.0000000000
51
270.0000000000
0
ARC
5
38E
100
AcDbEntity
8
0
100
AcDbCircle
62
7
6
CONTINUOUS
10
16.9366885007
20
42.0009111354
40
0.5000000000
100
AcDbArc
50
90.0000000000
51
270.0000000000
0
ARC
5
38F
100
AcDbEntity
8
0
100
AcDbCircle
62
7
6
CONTINUOUS
10
16.9366885007
20
36.0009111354
40
0.5000000000
100
AcDbArc
50
90.0000000000
51
270.0000000000
0
ARC
5
390
100
AcDbEntity
8
0
100
AcDbCircle
62
7
6
CONTINUOUS
10
16.9366885007
20
30.0009111354
40
0.5000000000
100
AcDbArc
50
90.0000000000
51
270.0000000000
0
ARC
5
391
100
AcDbEntity
8
0
100
AcDbCircle
62
7
6
CONTINUOUS
10
14.1366885007
20
24.0009111354
40
0.2500000000
100
AcDbArc
50
270.0000000000
51
90.0000000000
0
ARC
5
392
100
AcDbEntity
8
0
100
AcDbCircle
62
7
6
CONTINUOUS
10
14.3366885007
20
42.0009111354
40
0.5000000000
100
AcDbArc
50
270.0000000000
51
90.0000000000
0
ARC
5
393
100
AcDbEntity
8
0
100
AcDbCircle
62
7
6
CONTINUOUS
10
14.3366885007
20
36.0009111354
40
0.5000000000
100
AcDbArc
50
270.0000000000
51
90.0000000000
0
ARC
5
394
100
AcDbEntity
8
0
100
AcDbCircle
62
7
6
CONTINUOUS
10
14.3366885007
20
30.0009111354
40
0.5000000000
100
AcDbArc
50
270.0000000000
51
90.0000000000
0
ARC
5
395
100
AcDbEntity
8
0
100
AcDbCircle
62
7
6
CONTINUOUS
10
-25.0595849174
20
39.0009111354
40
0.5000000000
100
AcDbArc
50
90.0000000000
51
270.0000000000
0
ARC
5
396
100
AcDbEntity
8
0
100
AcDbCircle
62
7
6
CONTINUOUS
10
-25.0595849174
20
33.0009111354
40
0.5000000000
100
AcDbArc
50
90.0000000000
51
270.0000000000
0
ARC
5
397
100
AcDbEntity
8
0
100
AcDbCircle
62
7
6
CONTINUOUS
10
-25.0595849174
20
27.0009111354
40
0.3000000000
100
AcDbArc
50
90.0000000000
51
270.0000000000
0
ARC
5
398
100
AcDbEntity
8
0
100
AcDbCircle
62
7
6
CONTINUOUS
10
-27.6595849174
20
27.0009111354
40
0.3000000000
100
AcDbArc
50
270.0000000000
51
90.0000000000
0
ARC
5
399
100
AcDbEntity
8
0
100
AcDbCircle
62
7
6
CONTINUOUS
10
-27.6595849174
20
33.0009111354
40
0.5000000000
100
AcDbArc
50
270.0000000000
51
90.0000000000
0
ARC
5
39A
100
AcDbEntity
8
0
100
AcDbCircle
62
7
6
CONTINUOUS
10
-27.6595849174
20
39.0009111354
40
0.5000000000
100
AcDbArc
50
270.0000000000
51
90.0000000000
0
SPLINE
5
39B
100
AcDbEntity
8
0
100
AcDbSpline
62
7
6
CONTINUOUS
70
0
71
3
72
17
73
13
74
11
42
0.0000001000
43
0.0000001000
44
0.0000000001
12
0.9512635869
22
0.0000000000
32
0.0000000000
13
-0.9512635869
23
0.0000000000
33
0.0000000000
40
0.0000000000
40
0.0000000000
40
0.0000000000
40
0.0000000000
40
0.1114228716
40
0.2108754526
40
0.3061605734
40
0.4031170003
40
0.5011413055
40
0.5988614029
40
0.6949405753
40
0.7893216879
40
0.8880905436
40
1.0000000000
40
1.0000000000
40
1.0000000000
40
1.0000000000
10
16.6528085724
20
26.7009111354
30
0.0000000000
10
16.6881394125
20
26.7009111354
30
0.0000000000
10
16.7556526543
20
26.7079289460
30
0.0000000000
10
16.8455209046
20
26.7505715240
30
0.0000000000
10
16.9080624293
20
26.8218840442
30
0.0000000000
10
16.9421589075
20
26.9088501984
30
0.0000000000
10
16.9527505142
20
27.0019226757
30
0.0000000000
10
16.9417062483
20
27.0946617650
30
0.0000000000
10
16.9074259944
20
27.1808215143
30
0.0000000000
10
16.8452407757
20
27.2513247299
30
0.0000000000
10
16.7557583204
20
27.2938641436
30
0.0000000000
10
16.6882937027
20
27.3009111354
30
0.0000000000
10
16.6528085724
20
27.3009111354
30
0.0000000000
11
16.6528085724
21
26.7009111354
31
0.0000000000
11
16.7579175743
21
26.7145680789
31
0.0000000000
11
16.8427253891
21
26.7564948923
31
0.0000000000
11
16.9031256985
21
26.8240792226
31
0.0000000000
11
16.9381147100
21
26.9094158987
31
0.0000000000
11
16.9491274415
21
27.0020102496
31
0.0000000000
11
16.9376476281
21
27.0942562456
31
0.0000000000
11
16.9025687043
21
27.1786529927
31
0.0000000000
11
16.8425719364
21
27.2454442532
31
0.0000000000
11
16.7583673458
21
27.2871236189
31
0.0000000000
11
16.6528085724
21
27.3009111354
31
0.0000000000
0
SPLINE
5
39C
100
AcDbEntity
8
0
100
AcDbSpline
62
7
6
CONTINUOUS
70
0
71
3
72
19
73
15
74
13
42
0.0000001000
43
0.0000001000
44
0.0000000001
12
1.5004070284
22
0.0000000000
32
0.0000000000
13
-1.5004070284
23
-0.0000000000
33
0.0000000000
40
0.0000000000
40
0.0000000000
40
0.0000000000
40
0.0000000000
40
0.1070510484
40
0.1987219954
40
0.2870807993
40
0.3801123500
40
0.4797205319
40
0.5805702321
40
0.6746742950
40
0.7550892103
40
0.8198589106
40
0.8782206933
40
0.9370918562
40
1.0000000000
40
1.0000000000
40
1.0000000000
40
1.0000000000
10
16.6528085724
20
32.5009111354
30
0.0000000000
10
16.7063486209
20
32.5009111354
30
0.0000000000
10
16.8069963541
20
32.5098609670
30
0.0000000000
10
16.9390381205
20
32.5773177872
30
0.0000000000
10
17.0225274337
20
32.6901873863
30
0.0000000000
10
17.0665974557
20
32.8250531496
30
0.0000000000
10
17.0834005135
20
32.9716125016
30
0.0000000000
10
17.0761797431
20
33.1194108259
30
0.0000000000
10
17.0450311375
20
33.2545435819
30
0.0000000000
10
16.9896915391
20
33.3626447791
30
0.0000000000
10
16.9158762848
20
33.4352697297
30
0.0000000000
10
16.8336487527
20
33.4769201058
30
0.0000000000
10
16.7453120028
20
33.4974559162
30
0.0000000000
10
16.6842711794
20
33.5009111354
30
0.0000000000
10
16.6528085724
20
33.5009111354
30
0.0000000000
11
16.6528085724
21
32.5009111354
31
0.0000000000
11
16.8121027683
21
32.5215070151
31
0.0000000000
11
16.9333639769
21
32.5864223278
31
0.0000000000
11
17.0146890428
21
32.6911225872
31
0.0000000000
11
17.0610920708
21
32.8227690265
31
0.0000000000
11
17.0792823598
21
32.9711107188
31
0.0000000000
11
17.0713920296
21
33.1222204577
31
0.0000000000
11
17.0374873633
21
33.2592836964
31
0.0000000000
11
16.9802216741
21
33.3654830138
31
0.0000000000
11
16.9105152166
21
33.4331966738
31
0.0000000000
11
16.8327579133
21
33.4734667776
31
0.0000000000
11
16.7469823948
21
33.4945588172
31
0.0000000000
11
16.6528085724
21
33.5009111354
31
0.0000000000
0
SPLINE
5
39D
100
AcDbEntity
8
0
100
AcDbSpline
62
7
6
CONTINUOUS
70
0
71
3
72
19
73
15
74
13
42
0.0000001000
43
0.0000001000
44
0.0000000001
12
1.5004070284
22
0.0000000000
32
0.0000000000
13
-1.5004070284
23
-0.0000000000
33
0.0000000000
40
0.0000000000
40
0.0000000000
40
0.0000000000
40
0.0000000000
40
0.1070510484
40
0.1987219954
40
0.2870807993
40
0.3801123500
40
0.4797205319
40
0.5805702321
40
0.6746742950
40
0.7550892103
40
0.8198589106
40
0.8782206933
40
0.9370918562
40
1.0000000000
40
1.0000000000
40
1.0000000000
40
1.0000000000
10
16.6528085724
20
38.5009111354
30
0.0000000000
10
16.7063486209
20
38.5009111354
30
0.0000000000
10
16.8069963541
20
38.5098609670
30
0.0000000000
10
16.9390381205
20
38.5773177872
30
0.0000000000
10
17.0225274337
20
38.6901873863
30
0.0000000000
10
17.0665974557
20
38.8250531496
30
0.0000000000
10
17.0834005135
20
38.9716125016
30
0.0000000000
10
17.0761797431
20
39.1194108259
30
0.0000000000
10
17.0450311375
20
39.2545435819
30
0.0000000000
10
16.9896915391
20
39.3626447791
30
0.0000000000
10
16.9158762848
20
39.4352697297
30
0.0000000000
10
16.8336487527
20
39.4769201058
30
0.0000000000
10
16.7453120028
20
39.4974559162
30
0.0000000000
10
16.6842711794
20
39.5009111354
30
0.0000000000
10
16.6528085724
20
39.5009111354
30
0.0000000000
11
16.6528085724
21
38.5009111354
31
0.0000000000
11
16.8121027683
21
38.5215070151
31
0.0000000000
11
16.9333639769
21
38.5864223278
31
0.0000000000
11
17.0146890428
21
38.6911225872
31
0.0000000000
11
17.0610920708
21
38.8227690265
31
0.0000000000
11
17.0792823598
21
38.9711107188
31
0.0000000000
11
17.0713920296
21
39.1222204577
31
0.0000000000
11
17.0374873633
21
39.2592836964
31
0.0000000000
11
16.9802216741
21
39.3654830138
31
0.0000000000
11
16.9105152166
21
39.4331966738
31
0.0000000000
11
16.8327579133
21
39.4734667776
31
0.0000000000
11
16.7469823948
21
39.4945588172
31
0.0000000000
11
16.6528085724
21
39.5009111354
31
0.0000000000
0
SPLINE
5
39E
100
AcDbEntity
8
0
100
AcDbSpline
62
7
6
CONTINUOUS
70
0
71
3
72
17
73
13
74
11
42
0.0000001000
43
0.0000001000
44
0.0000000001
12
-0.9512721157
22
0.0000000000
32
0.0000000000
13
0.9512721157
23
0.0000000000
33
0.0000000000
40
0.0000000000
40
0.0000000000
40
0.0000000000
40
0.0000000000
40
0.1113895722
40
0.2098604137
40
0.3038175815
40
0.3997624402
40
0.4986325867
40
0.5972277343
40
0.6944407223
40
0.7895228922
40
0.8887872924
40
1.0000000000
40
1.0000000000
40
1.0000000000
40
1.0000000000
10
14.6205684291
20
27.3009111354
30
0.0000000000
10
14.5852478311
20
27.3009111354
30
0.0000000000
10
14.5180553819
20
27.2939224349
30
0.0000000000
10
14.4288487559
20
27.2517937804
30
0.0000000000
10
14.3665530253
20
27.1817786917
30
0.0000000000
10
14.3318446302
20
27.0955755797
30
0.0000000000
10
14.3205649604
20
27.0023255708
30
0.0000000000
10
14.3312365035
20
26.9086167159
30
0.0000000000
10
14.3655345564
20
26.8214971674
30
0.0000000000
10
14.4281920464
20
26.7503539959
30
0.0000000000
10
14.5179217235
20
26.7079037504
30
0.0000000000
10
14.5853039132
20
26.7009111354
30
0.0000000000
10
14.6205684291
20
26.7009111354
30
0.0000000000
11
14.6205684291
21
27.3009111354
31
0.0000000000
11
14.5154892891
21
27.2872628341
31
0.0000000000
11
14.4314334460
21
27.2459207875
31
0.0000000000
11
14.3714373420
21
27.1796709315
31
0.0000000000
11
14.3360590712
21
27.0955369289
31
0.0000000000
11
14.3242502307
21
27.0022287955
31
0.0000000000
11
14.3353422492
21
26.9090961802
31
0.0000000000
11
14.3705527436
21
26.8235857565
31
0.0000000000
11
14.4309566807
21
26.7562627364
31
0.0000000000
11
14.5156528128
21
26.7145121716
31
0.0000000000
11
14.6205684291
21
26.7009111354
31
0.0000000000
0
SPLINE
5
39F
100
AcDbEntity
8
0
100
AcDbSpline
62
7
6
CONTINUOUS
70
0
71
3
72
19
73
15
74
13
42
0.0000001000
43
0.0000001000
44
0.0000000001
12
-1.5003099067
22
0.0000000000
32
0.0000000000
13
1.5003099067
23
-0.0000000000
33
0.0000000000
40
0.0000000000
40
0.0000000000
40
0.0000000000
40
0.0000000000
40
0.1097194028
40
0.2043711529
40
0.2952723120
40
0.3925159640
40
0.4972298754
40
0.6005558526
40
0.6924687858
40
0.7649846595
40
0.8245275043
40
0.8802753561
40
0.9382413454
40
1.0000000000
40
1.0000000000
40
1.0000000000
40
1.0000000000
10
14.6205684291
20
33.5009111354
30
0.0000000000
10
14.5656973934
20
33.5009111354
30
0.0000000000
10
14.4620479926
20
33.4915557926
30
0.0000000000
10
14.3273177376
20
33.4192067265
30
0.0000000000
10
14.2447109121
20
33.2995323256
30
0.0000000000
10
14.2027282646
20
33.1578365670
30
0.0000000000
10
14.1892449008
20
33.0049604435
30
0.0000000000
10
14.2011748711
20
32.8547054637
30
0.0000000000
10
14.2372102183
20
32.7245508569
30
0.0000000000
10
14.2944217194
20
32.6264618759
30
0.0000000000
10
14.3648145994
20
32.5622051343
30
0.0000000000
10
14.4435621024
20
32.5238004522
30
0.0000000000
10
14.5296837131
20
32.5042466694
30
0.0000000000
10
14.5896827220
20
32.5009111354
30
0.0000000000
10
14.6205684291
20
32.5009111354
30
0.0000000000
11
14.6205684291
21
33.5009111354
31
0.0000000000
11
14.4574027684
21
33.4791294423
31
0.0000000000
11
14.3335336152
21
33.4096858744
31
0.0000000000
11
14.2530965617
21
33.2995525001
31
0.0000000000
11
14.2084434703
21
33.1606581813
31
0.0000000000
11
14.1936077376
21
33.0042569226
31
0.0000000000
11
14.2068133305
21
32.8497994242
31
0.0000000000
11
14.2460301266
21
32.7175955310
31
0.0000000000
11
14.3024890508
21
32.6245954170
31
0.0000000000
11
14.3686878372
21
32.5646116231
31
0.0000000000
11
14.4435456013
21
32.5273046991
31
0.0000000000
11
14.5281125635
21
32.5070148258
31
0.0000000000
11
14.6205684291
21
32.5009111354
31
0.0000000000
0
SPLINE
5
3A0
100
AcDbEntity
8
0
100
AcDbSpline
62
7
6
CONTINUOUS
70
0
71
3
72
19
73
15
74
13
42
0.0000001000
43
0.0000001000
44
0.0000000001
12
-1.5003099067
22
0.0000000000
32
0.0000000000
13
1.5003099067
23
-0.0000000000
33
0.0000000000
40
0.0000000000
40
0.0000000000
40
0.0000000000
40
0.0000000000
40
0.1097194028
40
0.2043711529
40
0.2952723120
40
0.3925159640
40
0.4972298754
40
0.6005558526
40
0.6924687858
40
0.7649846595
40
0.8245275043
40
0.8802753561
40
0.9382413454
40
1.0000000000
40
1.0000000000
40
1.0000000000
40
1.0000000000
10
14.6205684291
20
39.5009111354
30
0.0000000000
10
14.5656973934
20
39.5009111354
30
0.0000000000
10
14.4620479926
20
39.4915557926
30
0.0000000000
10
14.3273177376
20
39.4192067265
30
0.0000000000
10
14.2447109121
20
39.2995323256
30
0.0000000000
10
14.2027282646
20
39.1578365670
30
0.0000000000
10
14.1892449008
20
39.0049604435
30
0.0000000000
10
14.2011748711
20
38.8547054637
30
0.0000000000
10
14.2372102183
20
38.7245508569
30
0.0000000000
10
14.2944217194
20
38.6264618759
30
0.0000000000
10
14.3648145994
20
38.5622051343
30
0.0000000000
10
14.4435621024
20
38.5238004522
30
0.0000000000
10
14.5296837131
20
38.5042466694
30
0.0000000000
10
14.5896827220
20
38.5009111354
30
0.0000000000
10
14.6205684291
20
38.5009111354
30
0.0000000000
11
14.6205684291
21
39.5009111354
31
0.0000000000
11
14.4574027684
21
39.4791294423
31
0.0000000000
11
14.3335336152
21
39.4096858744
31
0.0000000000
11
14.2530965617
21
39.2995525001
31
0.0000000000
11
14.2084434703
21
39.1606581813
31
0.0000000000
11
14.1936077376
21
39.0042569226
31
0.0000000000
11
14.2068133305
21
38.8497994242
31
0.0000000000
11
14.2460301266
21
38.7175955310
31
0.0000000000
11
14.3024890508
21
38.6245954170
31
0.0000000000
11
14.3686878372
21
38.5646116231
31
0.0000000000
11
14.4435456013
21
38.5273046991
31
0.0000000000
11
14.5281125635
21
38.5070148258
31
0.0000000000
11
14.6205684291
21
38.5009111354
31
0.0000000000
0
SPLINE
5
3A1
100
AcDbEntity
8
0
100
AcDbSpline
62
7
6
CONTINUOUS
70
0
71
3
72
16
73
12
74
10
42
0.0000001000
43
0.0000001000
44
0.0000000001
12
-1.1496769736
22
0.0000000000
32
0.0000000000
13
1.1496769736
23
0.0000000000
33
0.0000000000
40
0.0000000000
40
0.0000000000
40
0.0000000000
40
0.0000000000
40
0.0669358444
40
0.1510086233
40
0.2658655343
40
0.4045617901
40
0.5548135938
40
0.6995317009
40
0.8253506586
40
0.9235781601
40
1.0000000000
40
1.0000000000
40
1.0000000000
40
1.0000000000
10
12.8465171754
20
32.5009111354
30
0.0000000000
10
12.8208656423
20
32.5009111354
30
0.0000000000
10
12.7620193235
20
32.5291132187
30
0.0000000000
10
12.7226437743
20
32.6280440444
30
0.0000000000
10
12.7046791585
20
32.7556915514
30
0.0000000000
10
12.7053637145
20
32.9111830566
30
0.0000000000
10
12.7213902311
20
33.0766156831
30
0.0000000000
10
12.7515213428
20
33.2355612245
30
0.0000000000
10
12.7967038098
20
33.3696169027
30
0.0000000000
10
12.8582304584
20
33.4704408842
30
0.0000000000
10
12.9250322371
20
33.5009111354
30
0.0000000000
10
12.9543190470
20
33.5009111354
30
0.0000000000
11
12.8465171754
21
32.5009111354
31
0.0000000000
11
12.7758651929
21
32.5314120810
31
0.0000000000
11
12.7305747340
21
32.6168009602
31
0.0000000000
11
12.7088042108
21
32.7470423128
31
0.0000000000
11
12.7076915926
21
32.9064943228
31
0.0000000000
11
12.7242467090
21
33.0784402290
31
0.0000000000
11
12.7568163730
21
33.2416003151
31
0.0000000000
11
12.8058956135
21
33.3776708329
31
0.0000000000
11
12.8725139621
21
33.4688583165
31
0.0000000000
11
12.9543190470
21
33.5009111354
31
0.0000000000
0
SPLINE
5
3A2
100
AcDbEntity
8
0
100
AcDbSpline
62
7
6
CONTINUOUS
70
0
71
3
72
16
73
12
74
10
42
0.0000001000
43
0.0000001000
44
0.0000000001
12
1.1496769736
22
0.0000000000
32
0.0000000000
13
-1.1496769736
23
-0.0000000000
33
0.0000000000
40
0.0000000000
40
0.0000000000
40
0.0000000000
40
0.0000000000
40
0.0764218399
40
0.1746493414
40
0.3004682991
40
0.4451864062
40
0.5954382099
40
0.7341344657
40
0.8489913767
40
0.9330641556
40
1.0000000000
40
1.0000000000
40
1.0000000000
40
1.0000000000
10
18.3190579545
20
33.5009111354
30
0.0000000000
10
18.3483447644
20
33.5009111354
30
0.0000000000
10
18.4151465430
20
33.4704408842
30
0.0000000000
10
18.4766731916
20
33.3696169027
30
0.0000000000
10
18.5218556587
20
33.2355612245
30
0.0000000000
10
18.5519867703
20
33.0766156831
30
0.0000000000
10
18.5680132869
20
32.9111830566
30
0.0000000000
10
18.5686978429
20
32.7556915514
30
0.0000000000
10
18.5507332271
20
32.6280440444
30
0.0000000000
10
18.5113576780
20
32.5291132187
30
0.0000000000
10
18.4525113591
20
32.5009111354
30
0.0000000000
10
18.4268598261
20
32.5009111354
30
0.0000000000
11
18.3190579545
21
33.5009111354
31
0.0000000000
11
18.4008630393
21
33.4688583165
31
0.0000000000
11
18.4674813879
21
33.3776708329
31
0.0000000000
11
18.5165606284
21
33.2416003151
31
0.0000000000
11
18.5491302925
21
33.0784402290
31
0.0000000000
11
18.5656854088
21
32.9064943228
31
0.0000000000
11
18.5645727906
21
32.7470423128
31
0.0000000000
11
18.5428022675
21
32.6168009602
31
0.0000000000
11
18.4975118086
21
32.5314120810
31
0.0000000000
11
18.4268598261
21
32.5009111354
31
0.0000000000
0
SPLINE
5
3A3
100
AcDbEntity
8
0
100
AcDbSpline
62
7
6
CONTINUOUS
70
0
71
3
72
16
73
12
74
10
42
0.0000001000
43
0.0000001000
44
0.0000000001
12
-1.2192511247
22
0.0000000000
32
0.0000000000
13
1.2192511247
23
0.0000000000
33
0.0000000000
40
0.0000000000
40
0.0000000000
40
0.0000000000
40
0.0000000000
40
0.0803751780
40
0.1659844669
40
0.2751099507
40
0.4049125747
40
0.5455918665
40
0.6822944949
40
0.8044019051
40
0.9068216979
40
1.0000000000
40
1.0000000000
40
1.0000000000
40
1.0000000000
10
13.5083620510
20
38.5009111354
30
0.0000000000
10
13.4756962090
20
38.5009111354
30
0.0000000000
10
13.4050364638
20
38.5234057155
30
0.0000000000
10
13.3450155676
20
38.6246517367
30
0.0000000000
10
13.3197211490
20
38.7545773619
30
0.0000000000
10
13.3162113777
20
38.9094677254
30
0.0000000000
10
13.3321729388
20
39.0744451709
30
0.0000000000
10
13.3664093085
20
39.2337327021
30
0.0000000000
10
13.4205864281
20
39.3709569410
30
0.0000000000
10
13.5040132050
20
39.4752260131
30
0.0000000000
10
13.5854661644
20
39.5009111354
30
0.0000000000
10
13.6233354142
20
39.5009111354
30
0.0000000000
11
13.5083620510
21
38.5009111354
31
0.0000000000
11
13.4153417792
21
38.5317452751
31
0.0000000000
11
13.3554237673
21
38.6172137125
31
0.0000000000
11
13.3247564948
21
38.7466825704
31
0.0000000000
11
13.3193296905
21
38.9048514957
31
0.0000000000
11
13.3356465450
21
39.0755970132
31
0.0000000000
11
13.3723014677
21
39.2381913451
31
0.0000000000
11
13.4310174090
21
39.3750035255
31
0.0000000000
11
13.5146902233
21
39.4677005458
31
0.0000000000
11
13.6233354142
21
39.5009111354
31
0.0000000000
0
SPLINE
5
3A4
100
AcDbEntity
8
0
100
AcDbSpline
62
7
6
CONTINUOUS
70
0
71
3
72
16
73
12
74
10
42
0.0000001000
43
0.0000001000
44
0.0000000001
12
1.2192511247
22
0.0000000000
32
0.0000000000
13
-1.2192511247
23
0.0000000000
33
0.0000000000
40
0.0000000000
40
0.0000000000
40
0.0000000000
40
0.0000000000
40
0.0931783021
40
0.1955980949
40
0.3177055051
40
0.4544081335
40
0.5950874253
40
0.7248900493
40
0.8340155331
40
0.9196248220
40
1.0000000000
40
1.0000000000
40
1.0000000000
40
1.0000000000
10
17.6500415872
20
39.5009111354
30
0.0000000000
10
17.6879108371
20
39.5009111354
30
0.0000000000
10
17.7693637964
20
39.4752260131
30
0.0000000000
10
17.8527905734
20
39.3709569410
30
0.0000000000
10
17.9069676930
20
39.2337327021
30
0.0000000000
10
17.9412040626
20
39.0744451709
30
0.0000000000
10
17.9571656237
20
38.9094677254
30
0.0000000000
10
17.9536558524
20
38.7545773619
30
0.0000000000
10
17.9283614338
20
38.6246517367
30
0.0000000000
10
17.8683405376
20
38.5234057155
30
0.0000000000
10
17.7976807925
20
38.5009111354
30
0.0000000000
10
17.7650149504
20
38.5009111354
30
0.0000000000
11
17.6500415872
21
39.5009111354
31
0.0000000000
11
17.7586867781
21
39.4677005458
31
0.0000000000
11
17.8423595924
21
39.3750035255
31
0.0000000000
11
17.9010755337
21
39.2381913451
31
0.0000000000
11
17.9377304564
21
39.0755970132
31
0.0000000000
11
17.9540473109
21
38.9048514957
31
0.0000000000
11
17.9486205066
21
38.7466825704
31
0.0000000000
11
17.9179532342
21
38.6172137125
31
0.0000000000
11
17.8580352222
21
38.5317452751
31
0.0000000000
11
17.7650149504
21
38.5009111354
31
0.0000000000
0
SPLINE
5
3A5
100
AcDbEntity
8
0
100
AcDbSpline
62
7
6
CONTINUOUS
70
0
71
3
72
15
73
11
74
9
42
0.0000001000
43
0.0000001000
44
0.0000000001
12
0.6721848792
22
0.0000000000
32
0.0000000000
13
-0.6721848792
23
0.0000000000
33
0.0000000000
40
0.0000000000
40
0.0000000000
40
0.0000000000
40
0.0000000000
40
0.0767660777
40
0.1939447235
40
0.3469630541
40
0.5185851167
40
0.6864891563
40
0.8288394176
40
0.9323852815
40
1.0000000000
40
1.0000000000
40
1.0000000000
40
1.0000000000
10
18.9771153586
20
27.3009111354
30
0.0000000000
10
18.9943156908
20
27.3009111354
30
0.0000000000
10
19.0347242311
20
27.2730732281
30
0.0000000000
10
19.0677774784
20
27.2024464444
30
0.0000000000
10
19.0954267579
20
27.1069267675
30
0.0000000000
10
19.1113838205
20
26.9975751442
30
0.0000000000
10
19.1169183375
20
26.8893087177
30
0.0000000000
10
19.1079487201
20
26.7971517592
30
0.0000000000
10
19.0906506360
20
26.7275558012
30
0.0000000000
10
19.0548784853
20
26.7009111354
30
0.0000000000
10
19.0397286215
20
26.7009111354
30
0.0000000000
11
18.9771153586
21
27.3009111354
31
0.0000000000
11
19.0228680991
21
27.2770500879
31
0.0000000000
11
19.0627023038
21
27.2090995630
31
0.0000000000
11
19.0920855594
21
27.1105292525
31
0.0000000000
11
19.1096901554
21
26.9965186705
31
0.0000000000
11
19.1141985527
21
26.8837461959
31
0.0000000000
11
19.1043470157
21
26.7885689974
31
0.0000000000
11
19.0790324759
21
26.7237337642
31
0.0000000000
11
19.0397286215
21
26.7009111354
31
0.0000000000
0
SPLINE
5
3A6
100
AcDbEntity
8
0
100
AcDbSpline
62
7
6
CONTINUOUS
70
0
71
3
72
15
73
11
74
9
42
0.0000001000
43
0.0000001000
44
0.0000000001
12
-0.6721848792
22
0.0000000000
32
0.0000000000
13
0.6721848792
23
0.0000000000
33
0.0000000000
40
0.0000000000
40
0.0000000000
40
0.0000000000
40
0.0000000000
40
0.0676147185
40
0.1711605824
40
0.3135108437
40
0.4814148833
40
0.6530369459
40
0.8060552765
40
0.9232339223
40
1.0000000000
40
1.0000000000
40
1.0000000000
40
1.0000000000
10
12.2336483799
20
26.7009111354
30
0.0000000000
10
12.2184985162
20
26.7009111354
30
0.0000000000
10
12.1827263655
20
26.7275558012
30
0.0000000000
10
12.1654282813
20
26.7971517592
30
0.0000000000
10
12.1564586639
20
26.8893087177
30
0.0000000000
10
12.1619931809
20
26.9975751442
30
0.0000000000
10
12.1779502436
20
27.1069267675
30
0.0000000000
10
12.2055995231
20
27.2024464444
30
0.0000000000
10
12.2386527704
20
27.2730732281
30
0.0000000000
10
12.2790613106
20
27.3009111354
30
0.0000000000
10
12.2962616429
20
27.3009111354
30
0.0000000000
11
12.2336483799
21
26.7009111354
31
0.0000000000
11
12.1943445255
21
26.7237337642
31
0.0000000000
11
12.1690299858
21
26.7885689974
31
0.0000000000
11
12.1591784488
21
26.8837461959
31
0.0000000000
11
12.1636868460
21
26.9965186705
31
0.0000000000
11
12.1812914421
21
27.1105292525
31
0.0000000000
11
12.2106746977
21
27.2090995630
31
0.0000000000
11
12.2505089023
21
27.2770500879
31
0.0000000000
11
12.2962616429
21
27.3009111354
31
0.0000000000
0
SPLINE
5
3A7
100
AcDbEntity
8
0
100
AcDbSpline
62
7
6
CONTINUOUS
70
0
71
3
72
19
73
15
74
13
42
0.0000001000
43
0.0000001000
44
0.0000000001
12
-1.5003138352
22
0.0000000000
32
0.0000000000
13
1.5003138352
23
-0.0000000000
33
0.0000000000
40
0.0000000000
40
0.0000000000
40
0.0000000000
40
0.0000000000
40
0.1108846198
40
0.2043458912
40
0.2956502546
40
0.3952022792
40
0.5001184225
40
0.6045687701
40
0.6929465328
40
0.7640271660
40
0.8243904528
40
0.8809372699
40
0.9388260088
40
1.0000000000
40
1.0000000000
40
1.0000000000
40
1.0000000000
10
-27.3757049890
20
42.5009111354
30
0.0000000000
10
-27.4311588988
20
42.5009111354
30
0.0000000000
10
-27.5348703469
20
42.4914293407
30
0.0000000000
10
-27.6694447531
20
42.4186312262
30
0.0000000000
10
-27.7524075864
20
42.2982247740
30
0.0000000000
10
-27.7941679196
20
42.1548619393
30
0.0000000000
10
-27.8070896413
20
42.0001381048
30
0.0000000000
10
-27.7944115604
20
41.8509992061
30
0.0000000000
10
-27.7580858817
20
41.7230148984
30
0.0000000000
10
-27.7020164030
20
41.6267782968
30
0.0000000000
10
-27.6317129252
20
41.5622291650
30
0.0000000000
10
-27.5521832616
20
41.5235829947
30
0.0000000000
10
-27.4659623720
20
41.5041987465
30
0.0000000000
10
-27.4062983842
20
41.5009111354
30
0.0000000000
10
-27.3757049890
20
41.5009111354
30
0.0000000000
11
-27.3757049890
21
42.5009111354
31
0.0000000000
11
-27.5405634555
21
42.4785972170
31
0.0000000000
11
-27.6627023303
21
42.4097198548
31
0.0000000000
11
-27.7434225935
21
42.2990438229
31
0.0000000000
11
-27.7885944728
21
42.1566791651
31
0.0000000000
11
-27.8026713226
21
41.9999027305
31
0.0000000000
11
-27.7883486057
21
41.8438503304
31
0.0000000000
11
-27.7499533718
21
41.7169366761
31
0.0000000000
11
-27.6947122635
21
41.6257160409
31
0.0000000000
11
-27.6277609895
21
41.5647296306
31
0.0000000000
11
-27.5517878314
21
41.5269730318
31
0.0000000000
11
-27.4672901600
21
41.5068910089
31
0.0000000000
11
-27.3757049890
21
41.5009111354
31
0.0000000000
0
SPLINE
5
3A8
100
AcDbEntity
8
0
100
AcDbSpline
62
7
6
CONTINUOUS
70
0
71
3
72
19
73
15
74
13
42
0.0000001000
43
0.0000001000
44
0.0000000001
12
-1.5003138352
22
0.0000000000
32
0.0000000000
13
1.5003138352
23
0.0000000000
33
0.0000000000
40
0.0000000000
40
0.0000000000
40
0.0000000000
40
0.0000000000
40
0.1108846198
40
0.2043458912
40
0.2956502546
40
0.3952022792
40
0.5001184225
40
0.6045687701
40
0.6929465328
40
0.7640271660
40
0.8243904528
40
0.8809372699
40
0.9388260088
40
1.0000000000
40
1.0000000000
40
1.0000000000
40
1.0000000000
10
-27.3757049890
20
36.5009111354
30
0.0000000000
10
-27.4311588988
20
36.5009111354
30
0.0000000000
10
-27.5348703469
20
36.4914293407
30
0.0000000000
10
-27.6694447531
20
36.4186312262
30
0.0000000000
10
-27.7524075864
20
36.2982247740
30
0.0000000000
10
-27.7941679196
20
36.1548619393
30
0.0000000000
10
-27.8070896413
20
36.0001381048
30
0.0000000000
10
-27.7944115604
20
35.8509992061
30
0.0000000000
10
-27.7580858817
20
35.7230148984
30
0.0000000000
10
-27.7020164030
20
35.6267782968
30
0.0000000000
10
-27.6317129252
20
35.5622291650
30
0.0000000000
10
-27.5521832616
20
35.5235829947
30
0.0000000000
10
-27.4659623720
20
35.5041987465
30
0.0000000000
10
-27.4062983842
20
35.5009111354
30
0.0000000000
10
-27.3757049890
20
35.5009111354
30
0.0000000000
11
-27.3757049890
21
36.5009111354
31
0.0000000000
11
-27.5405634555
21
36.4785972170
31
0.0000000000
11
-27.6627023303
21
36.4097198548
31
0.0000000000
11
-27.7434225935
21
36.2990438229
31
0.0000000000
11
-27.7885944728
21
36.1566791651
31
0.0000000000
11
-27.8026713226
21
35.9999027305
31
0.0000000000
11
-27.7883486057
21
35.8438503304
31
0.0000000000
11
-27.7499533718
21
35.7169366761
31
0.0000000000
11
-27.6947122635
21
35.6257160409
31
0.0000000000
11
-27.6277609895
21
35.5647296306
31
0.0000000000
11
-27.5517878314
21
35.5269730318
31
0.0000000000
11
-27.4672901600
21
35.5068910089
31
0.0000000000
11
-27.3757049890
21
35.5009111354
31
0.0000000000
0
SPLINE
5
3A9
100
AcDbEntity
8
0
100
AcDbSpline
62
7
6
CONTINUOUS
70
0
71
3
72
19
73
15
74
13
42
0.0000001000
43
0.0000001000
44
0.0000000001
12
-1.5003138352
22
0.0000000000
32
0.0000000000
13
1.5003138352
23
0.0000000000
33
0.0000000000
40
0.0000000000
40
0.0000000000
40
0.0000000000
40
0.0000000000
40
0.1108846198
40
0.2043458912
40
0.2956502546
40
0.3952022792
40
0.5001184225
40
0.6045687701
40
0.6929465328
40
0.7640271660
40
0.8243904528
40
0.8809372699
40
0.9388260088
40
1.0000000000
40
1.0000000000
40
1.0000000000
40
1.0000000000
10
-27.3757049890
20
30.5009111354
30
0.0000000000
10
-27.4311588988
20
30.5009111354
30
0.0000000000
10
-27.5348703469
20
30.4914293407
30
0.0000000000
10
-27.6694447531
20
30.4186312262
30
0.0000000000
10
-27.7524075864
20
30.2982247740
30
0.0000000000
10
-27.7941679196
20
30.1548619393
30
0.0000000000
10
-27.8070896413
20
30.0001381048
30
0.0000000000
10
-27.7944115604
20
29.8509992061
30
0.0000000000
10
-27.7580858817
20
29.7230148984
30
0.0000000000
10
-27.7020164030
20
29.6267782968
30
0.0000000000
10
-27.6317129252
20
29.5622291650
30
0.0000000000
10
-27.5521832616
20
29.5235829947
30
0.0000000000
10
-27.4659623720
20
29.5041987465
30
0.0000000000
10
-27.4062983842
20
29.5009111354
30
0.0000000000
10
-27.3757049890
20
29.5009111354
30
0.0000000000
11
-27.3757049890
21
30.5009111354
31
0.0000000000
11
-27.5405634555
21
30.4785972170
31
0.0000000000
11
-27.6627023303
21
30.4097198548
31
0.0000000000
11
-27.7434225935
21
30.2990438229
31
0.0000000000
11
-27.7885944728
21
30.1566791651
31
0.0000000000
11
-27.8026713226
21
29.9999027305
31
0.0000000000
11
-27.7883486057
21
29.8438503304
31
0.0000000000
11
-27.7499533718
21
29.7169366761
31
0.0000000000
11
-27.6947122635
21
29.6257160409
31
0.0000000000
11
-27.6277609895
21
29.5647296306
31
0.0000000000
11
-27.5517878314
21
29.5269730318
31
0.0000000000
11
-27.4672901600
21
29.5068910089
31
0.0000000000
11
-27.3757049890
21
29.5009111354
31
0.0000000000
0
SPLINE
5
3AA
100
AcDbEntity
8
0
100
AcDbSpline
62
7
6
CONTINUOUS
70
0
71
3
72
18
73
14
74
12
42
0.0000001000
43
0.0000001000
44
0.0000000001
12
-1.0341292972
22
0.0000000000
32
0.0000000000
13
1.0341292972
23
-0.0000000000
33
0.0000000000
40
0.0000000000
40
0.0000000000
40
0.0000000000
40
0.0000000000
40
0.1128220299
40
0.2111384787
40
0.2977747391
40
0.3796881566
40
0.4585688140
40
0.5360381031
40
0.6148930391
40
0.6958273806
40
0.7843699365
40
0.8854354987
40
1.0000000000
40
1.0000000000
40
1.0000000000
40
1.0000000000
10
-27.0469712716
20
24.2509111354
30
0.0000000000
10
-27.0858621271
20
24.2509111354
30
0.0000000000
10
-27.1587896040
20
24.2474622074
30
0.0000000000
10
-27.2598105052
20
24.2258625682
30
0.0000000000
10
-27.3436291048
20
24.1849995984
30
0.0000000000
10
-27.4051201306
20
24.1230586209
30
0.0000000000
10
-27.4373197555
20
24.0452324769
30
0.0000000000
10
-27.4383981701
20
23.9622707551
30
0.0000000000
10
-27.4084171956
20
23.8839465380
30
0.0000000000
10
-27.3484366733
20
23.8201045362
30
0.0000000000
10
-27.2640731262
20
23.7771204971
30
0.0000000000
10
-27.1609442350
20
23.7544867795
30
0.0000000000
10
-27.0864627741
20
23.7509111354
30
0.0000000000
10
-27.0469712716
20
23.7509111354
30
0.0000000000
11
-27.0469712716
21
24.2509111354
31
0.0000000000
11
-27.1634291822
21
24.2438370394
31
0.0000000000
11
-27.2624576976
21
24.2208037485
31
0.0000000000
11
-27.3421926854
21
24.1799472387
31
0.0000000000
11
-27.4011427570
21
24.1191153825
31
0.0000000000
11
-27.4323147596
21
24.0437335029
31
0.0000000000
11
-27.4333645087
21
23.9636271193
31
0.0000000000
11
-27.4041982032
21
23.8874752364
31
0.0000000000
11
-27.3475572872
21
23.8258560584
31
0.0000000000
11
-27.2668528733
21
23.7826027777
31
0.0000000000
11
-27.1652194648
21
23.7582305402
31
0.0000000000
11
-27.0469712716
21
23.7509111354
31
0.0000000000
0
SPLINE
5
3AB
100
AcDbEntity
8
0
100
AcDbSpline
62
7
6
CONTINUOUS
70
0
71
3
72
18
73
14
74
12
42
0.0000001000
43
0.0000001000
44
0.0000000001
12
1.0341202534
22
0.0000000000
32
0.0000000000
13
-1.0341202534
23
0.0000000000
33
0.0000000000
40
0.0000000000
40
0.0000000000
40
0.0000000000
40
0.0000000000
40
0.1154268472
40
0.2169401221
40
0.3051095817
40
0.3847847242
40
0.4634214301
40
0.5435275669
40
0.6226197089
40
0.7038170449
40
0.7909885086
40
0.8889227762
40
1.0000000000
40
1.0000000000
40
1.0000000000
40
1.0000000000
10
-25.6721985632
20
23.7509111354
30
0.0000000000
10
-25.6324101497
20
23.7509111354
30
0.0000000000
10
-25.5574741892
20
23.7545332454
30
0.0000000000
10
-25.4540570223
20
23.7774532121
30
0.0000000000
10
-25.3702281755
20
23.8205867345
30
0.0000000000
10
-25.3108432691
20
23.8840063314
30
0.0000000000
10
-25.2805389909
20
23.9626174758
30
0.0000000000
10
-25.2819420177
20
24.0466627892
30
0.0000000000
10
-25.3152977248
20
24.1248200915
30
0.0000000000
10
-25.3772965536
20
24.1861873018
30
0.0000000000
10
-25.4611877667
20
24.2264432180
30
0.0000000000
10
-25.5617241283
20
24.2475441077
30
0.0000000000
10
-25.6339094942
20
24.2509111354
30
0.0000000000
10
-25.6721985632
20
24.2509111354
30
0.0000000000
11
-25.6721985632
21
23.7509111354
31
0.0000000000
11
-25.5530655726
21
23.7583536610
31
0.0000000000
11
-25.4510408116
21
23.7830741938
31
0.0000000000
11
-25.3708399794
21
23.8264472507
31
0.0000000000
11
-25.3151573332
21
23.8871774835
31
0.0000000000
11
-25.2859068868
21
23.9630545085
31
0.0000000000
11
-25.2873031119
21
24.0458821197
31
0.0000000000
11
-25.3193682771
21
24.1211254441
31
0.0000000000
11
-25.3783247802
21
24.1809144379
31
0.0000000000
11
-25.4587996661
21
24.2215352909
31
0.0000000000
11
-25.5575347905
21
24.2440778027
31
0.0000000000
11
-25.6721985632
21
24.2509111354
31
0.0000000000
0
SPLINE
5
3AC
100
AcDbEntity
8
0
100
AcDbSpline
62
7
6
CONTINUOUS
70
0
71
3
72
19
73
15
74
13
42
0.0000001000
43
0.0000001000
44
0.0000000001
12
1.5003135038
22
0.0000000000
32
0.0000000000
13
-1.5003135038
23
0.0000000000
33
0.0000000000
40
0.0000000000
40
0.0000000000
40
0.0000000000
40
0.0000000000
40
0.0612276404
40
0.1191569828
40
0.1757253872
40
0.2361000733
40
0.3071879339
40
0.3955770340
40
0.5000416045
40
0.6049835096
40
0.7044880797
40
0.7956918963
40
0.8894187270
40
1.0000000000
40
1.0000000000
40
1.0000000000
40
1.0000000000
10
-25.3434648458
20
29.5009111354
30
0.0000000000
10
-25.3128446272
20
29.5009111354
30
0.0000000000
10
-25.2531331465
20
29.5042041209
30
0.0000000000
10
-25.1668586310
20
29.5236219242
30
0.0000000000
10
-25.0873128050
20
29.5623236990
30
0.0000000000
10
-25.0170339413
20
29.6269298545
30
0.0000000000
10
-24.9610067972
20
29.7232065354
30
0.0000000000
10
-24.9247204749
20
29.8512177857
30
0.0000000000
10
-24.9120785682
20
30.0003852529
30
0.0000000000
10
-24.9250433302
20
30.1551027313
30
0.0000000000
10
-24.9668474727
20
30.2983906262
30
0.0000000000
10
-25.0498894414
20
30.4188088921
30
0.0000000000
10
-25.1844900471
20
30.4914633454
30
0.0000000000
10
-25.2881626534
20
30.5009111354
30
0.0000000000
10
-25.3434648458
20
30.5009111354
30
0.0000000000
11
-25.3434648458
21
29.5009111354
31
0.0000000000
11
-25.2517997713
21
29.5069023103
31
0.0000000000
11
-25.1672480166
21
29.5270201359
31
0.0000000000
11
-25.0912638554
21
29.5648273048
31
0.0000000000
11
-25.0243354950
21
29.6258642142
31
0.0000000000
11
-24.9691348092
21
29.7171219617
31
0.0000000000
11
-24.9307801174
21
29.8440656127
31
0.0000000000
11
-24.9164982754
21
30.0001431522
31
0.0000000000
11
-24.9306273645
21
30.1569536600
31
0.0000000000
11
-24.9758377451
21
30.2992313583
31
0.0000000000
11
-25.0565083300
21
30.4097568631
31
0.0000000000
11
-25.1790468464
21
30.4787365142
31
0.0000000000
11
-25.3434648458
21
30.5009111354
31
0.0000000000
0
SPLINE
5
3AD
100
AcDbEntity
8
0
100
AcDbSpline
62
7
6
CONTINUOUS
70
0
71
3
72
19
73
15
74
13
42
0.0000001000
43
0.0000001000
44
0.0000000001
12
1.5003135038
22
0.0000000000
32
0.0000000000
13
-1.5003135038
23
0.0000000000
33
0.0000000000
40
0.0000000000
40
0.0000000000
40
0.0000000000
40
0.0000000000
40
0.0612276404
40
0.1191569828
40
0.1757253872
40
0.2361000733
40
0.3071879339
40
0.3955770340
40
0.5000416045
40
0.6049835096
40
0.7044880797
40
0.7956918963
40
0.8894187270
40
1.0000000000
40
1.0000000000
40
1.0000000000
40
1.0000000000
10
-25.3434648458
20
35.5009111354
30
0.0000000000
10
-25.3128446272
20
35.5009111354
30
0.0000000000
10
-25.2531331465
20
35.5042041209
30
0.0000000000
10
-25.1668586310
20
35.5236219242
30
0.0000000000
10
-25.0873128050
20
35.5623236990
30
0.0000000000
10
-25.0170339413
20
35.6269298545
30
0.0000000000
10
-24.9610067972
20
35.7232065354
30
0.0000000000
10
-24.9247204749
20
35.8512177857
30
0.0000000000
10
-24.9120785682
20
36.0003852529
30
0.0000000000
10
-24.9250433302
20
36.1551027313
30
0.0000000000
10
-24.9668474727
20
36.2983906262
30
0.0000000000
10
-25.0498894414
20
36.4188088921
30
0.0000000000
10
-25.1844900471
20
36.4914633454
30
0.0000000000
10
-25.2881626534
20
36.5009111354
30
0.0000000000
10
-25.3434648458
20
36.5009111354
30
0.0000000000
11
-25.3434648458
21
35.5009111354
31
0.0000000000
11
-25.2517997713
21
35.5069023103
31
0.0000000000
11
-25.1672480166
21
35.5270201359
31
0.0000000000
11
-25.0912638554
21
35.5648273048
31
0.0000000000
11
-25.0243354950
21
35.6258642142
31
0.0000000000
11
-24.9691348092
21
35.7171219617
31
0.0000000000
11
-24.9307801174
21
35.8440656127
31
0.0000000000
11
-24.9164982754
21
36.0001431522
31
0.0000000000
11
-24.9306273645
21
36.1569536600
31
0.0000000000
11
-24.9758377451
21
36.2992313583
31
0.0000000000
11
-25.0565083300
21
36.4097568631
31
0.0000000000
11
-25.1790468464
21
36.4787365142
31
0.0000000000
11
-25.3434648458
21
36.5009111354
31
0.0000000000
0
SPLINE
5
3AE
100
AcDbEntity
8
0
100
AcDbSpline
62
7
6
CONTINUOUS
70
0
71
3
72
19
73
15
74
13
42
0.0000001000
43
0.0000001000
44
0.0000000001
12
1.5003135038
22
0.0000000000
32
0.0000000000
13
-1.5003135038
23
-0.0000000000
33
0.0000000000
40
0.0000000000
40
0.0000000000
40
0.0000000000
40
0.0000000000
40
0.0612276404
40
0.1191569828
40
0.1757253872
40
0.2361000733
40
0.3071879339
40
0.3955770340
40
0.5000416045
40
0.6049835096
40
0.7044880797
40
0.7956918963
40
0.8894187270
40
1.0000000000
40
1.0000000000
40
1.0000000000
40
1.0000000000
10
-25.3434648458
20
41.5009111354
30
0.0000000000
10
-25.3128446272
20
41.5009111354
30
0.0000000000
10
-25.2531331465
20
41.5042041209
30
0.0000000000
10
-25.1668586310
20
41.5236219242
30
0.0000000000
10
-25.0873128050
20
41.5623236990
30
0.0000000000
10
-25.0170339413
20
41.6269298545
30
0.0000000000
10
-24.9610067972
20
41.7232065354
30
0.0000000000
10
-24.9247204749
20
41.8512177857
30
0.0000000000
10
-24.9120785682
20
42.0003852529
30
0.0000000000
10
-24.9250433302
20
42.1551027313
30
0.0000000000
10
-24.9668474727
20
42.2983906262
30
0.0000000000
10
-25.0498894414
20
42.4188088921
30
0.0000000000
10
-25.1844900471
20
42.4914633454
30
0.0000000000
10
-25.2881626534
20
42.5009111354
30
0.0000000000
10
-25.3434648458
20
42.5009111354
30
0.0000000000
11
-25.3434648458
21
41.5009111354
31
0.0000000000
11
-25.2517997713
21
41.5069023103
31
0.0000000000
11
-25.1672480166
21
41.5270201359
31
0.0000000000
11
-25.0912638554
21
41.5648273048
31
0.0000000000
11
-25.0243354950
21
41.6258642142
31
0.0000000000
11
-24.9691348092
21
41.7171219617
31
0.0000000000
11
-24.9307801174
21
41.8440656127
31
0.0000000000
11
-24.9164982754
21
42.0001431522
31
0.0000000000
11
-24.9306273645
21
42.1569536600
31
0.0000000000
11
-24.9758377451
21
42.2992313583
31
0.0000000000
11
-25.0565083300
21
42.4097568631
31
0.0000000000
11
-25.1790468464
21
42.4787365142
31
0.0000000000
11
-25.3434648458
21
42.5009111354
31
0.0000000000
0
SPLINE
5
3AF
100
AcDbEntity
8
0
100
AcDbSpline
62
7
6
CONTINUOUS
70
0
71
3
72
16
73
12
74
10
42
0.0000001000
43
0.0000001000
44
0.0000000001
12
-1.1787772941
22
0.0000000000
32
0.0000000000
13
1.1787772941
23
0.0000000000
33
0.0000000000
40
0.0000000000
40
0.0000000000
40
0.0000000000
40
0.0000000000
40
0.0729448980
40
0.1576662731
40
0.2700038748
40
0.4048105309
40
0.5508893569
40
0.6921202322
40
0.8163402099
40
0.9163752152
40
1.0000000000
40
1.0000000000
40
1.0000000000
40
1.0000000000
10
-28.8237458833
20
35.5009111354
30
0.0000000000
10
-28.8524078131
20
35.5009111354
30
0.0000000000
10
-28.9165347757
20
35.5264750112
30
0.0000000000
10
-28.9648298970
20
35.6268144728
30
0.0000000000
10
-28.9858276857
20
35.7553645230
30
0.0000000000
10
-28.9870066616
20
35.9105855314
30
0.0000000000
10
-28.9709907614
20
36.0757824767
30
0.0000000000
10
-28.9390261023
20
36.2348539491
30
0.0000000000
10
-28.8900288051
20
36.3702038948
30
0.0000000000
10
-28.8190742593
20
36.4727120382
30
0.0000000000
10
-28.7459561103
20
36.5009111354
30
0.0000000000
10
-28.7130977778
20
36.5009111354
30
0.0000000000
11
-28.8237458833
21
35.5009111354
31
0.0000000000
11
-28.9040551828
21
35.5316352694
31
0.0000000000
11
-28.9556797307
21
35.6171247438
31
0.0000000000
11
-28.9813283140
21
35.7470380809
31
0.0000000000
11
-28.9843241041
21
35.9059168647
31
0.0000000000
11
-28.9678559346
21
36.0773219752
31
0.0000000000
11
-28.9334677906
21
36.2402113929
31
0.0000000000
11
-28.8801533519
21
36.3765882193
31
0.0000000000
11
-28.8061573476
21
36.4684004202
31
0.0000000000
11
-28.7130977778
21
36.5009111354
31
0.0000000000
0
SPLINE
5
3B0
100
AcDbEntity
8
0
100
AcDbSpline
62
7
6
CONTINUOUS
70
0
71
3
72
17
73
13
74
11
42
0.0000001000
43
0.0000001000
44
0.0000000001
12
-1.2807375962
22
0.0000000000
32
0.0000000000
13
1.2807375962
23
-0.0000000000
33
0.0000000000
40
0.0000000000
40
0.0000000000
40
0.0000000000
40
0.0000000000
40
0.0804186329
40
0.1570993451
40
0.2467443469
40
0.3525849730
40
0.4700096334
40
0.5900943837
40
0.7055680761
40
0.8091540945
40
0.9034142485
40
1.0000000000
40
1.0000000000
40
1.0000000000
40
1.0000000000
10
-28.1366917393
20
41.5009111354
30
0.0000000000
10
-28.1710234615
20
41.5009111354
30
0.0000000000
10
-28.2408227191
20
41.5150895707
30
0.0000000000
10
-28.3163515514
20
41.5956302386
30
0.0000000000
10
-28.3538938297
20
41.7075090056
30
0.0000000000
10
-28.3681511145
20
41.8408408468
30
0.0000000000
10
-28.3628651645
20
41.9877306509
30
0.0000000000
10
-28.3400807523
20
42.1370425666
30
0.0000000000
10
-28.2990626091
20
42.2764937904
30
0.0000000000
10
-28.2359068835
20
42.3960734197
30
0.0000000000
10
-28.1393820243
20
42.4829262315
30
0.0000000000
10
-28.0557534743
20
42.5009111354
30
0.0000000000
10
-28.0145198066
20
42.5009111354
30
0.0000000000
11
-28.1366917393
21
41.5009111354
31
0.0000000000
11
-28.2367943921
21
41.5251487767
31
0.0000000000
11
-28.3064382842
21
41.5943912074
31
0.0000000000
11
-28.3478623687
21
41.7014695770
31
0.0000000000
11
-28.3645647288
21
41.8359907158
31
0.0000000000
11
-28.3600525549
21
41.9863131883
31
0.0000000000
11
-28.3363305752
21
42.1382697664
31
0.0000000000
11
-28.2927172840
21
42.2795842255
31
0.0000000000
11
-28.2271791855
21
42.3949322209
31
0.0000000000
11
-28.1350063022
21
42.4728943090
31
0.0000000000
11
-28.0145198066
21
42.5009111354
31
0.0000000000
0
SPLINE
5
3B1
100
AcDbEntity
8
0
100
AcDbSpline
62
7
6
CONTINUOUS
70
0
71
3
72
16
73
12
74
10
42
0.0000001000
43
0.0000001000
44
0.0000000001
12
1.1787772941
22
0.0000000000
32
0.0000000000
13
-1.1787772941
23
0.0000000000
33
0.0000000000
40
0.0000000000
40
0.0000000000
40
0.0000000000
40
0.0000000000
40
0.0836247848
40
0.1836597901
40
0.3078797678
40
0.4491106431
40
0.5951894691
40
0.7299961252
40
0.8423337269
40
0.9270551020
40
1.0000000000
40
1.0000000000
40
1.0000000000
40
1.0000000000
10
-24.0060720570
20
36.5009111354
30
0.0000000000
10
-23.9732137245
20
36.5009111354
30
0.0000000000
10
-23.9000955755
20
36.4727120382
30
0.0000000000
10
-23.8291410297
20
36.3702038948
30
0.0000000000
10
-23.7801437325
20
36.2348539491
30
0.0000000000
10
-23.7481790734
20
36.0757824767
30
0.0000000000
10
-23.7321631732
20
35.9105855314
30
0.0000000000
10
-23.7333421491
20
35.7553645230
30
0.0000000000
10
-23.7543399378
20
35.6268144728
30
0.0000000000
10
-23.8026350591
20
35.5264750112
30
0.0000000000
10
-23.8667620217
20
35.5009111354
30
0.0000000000
10
-23.8954239515
20
35.5009111354
30
0.0000000000
11
-24.0060720570
21
36.5009111354
31
0.0000000000
11
-23.9130124872
21
36.4684004202
31
0.0000000000
11
-23.8390164829
21
36.3765882193
31
0.0000000000
11
-23.7857020441
21
36.2402113929
31
0.0000000000
11
-23.7513139002
21
36.0773219752
31
0.0000000000
11
-23.7348457307
21
35.9059168647
31
0.0000000000
11
-23.7378415208
21
35.7470380809
31
0.0000000000
11
-23.7634901041
21
35.6171247438
31
0.0000000000
11
-23.8151146520
21
35.5316352694
31
0.0000000000
11
-23.8954239515
21
35.5009111354
31
0.0000000000
0
SPLINE
5
3B2
100
AcDbEntity
8
0
100
AcDbSpline
62
7
6
CONTINUOUS
70
0
71
3
72
17
73
13
74
11
42
0.0000001000
43
0.0000001000
44
0.0000000001
12
1.2807375962
22
0.0000000000
32
0.0000000000
13
-1.2807375962
23
0.0000000000
33
0.0000000000
40
0.0000000000
40
0.0000000000
40
0.0000000000
40
0.0000000000
40
0.0965857515
40
0.1908459055
40
0.2944319239
40
0.4099056163
40
0.5299903666
40
0.6474150270
40
0.7532556531
40
0.8429006549
40
0.9195813671
40
1.0000000000
40
1.0000000000
40
1.0000000000
40
1.0000000000
10
-24.7046500282
20
42.5009111354
30
0.0000000000
10
-24.6634163605
20
42.5009111354
30
0.0000000000
10
-24.5797878105
20
42.4829262315
30
0.0000000000
10
-24.4832629513
20
42.3960734197
30
0.0000000000
10
-24.4201072257
20
42.2764937904
30
0.0000000000
10
-24.3790890825
20
42.1370425666
30
0.0000000000
10
-24.3563046703
20
41.9877306509
30
0.0000000000
10
-24.3510187203
20
41.8408408468
30
0.0000000000
10
-24.3652760051
20
41.7075090056
30
0.0000000000
10
-24.4028182834
20
41.5956302386
30
0.0000000000
10
-24.4783471157
20
41.5150895707
30
0.0000000000
10
-24.5481463733
20
41.5009111354
30
0.0000000000
10
-24.5824780955
20
41.5009111354
30
0.0000000000
11
-24.7046500282
21
42.5009111354
31
0.0000000000
11
-24.5841635326
21
42.4728943090
31
0.0000000000
11
-24.4919906493
21
42.3949322209
31
0.0000000000
11
-24.4264525508
21
42.2795842255
31
0.0000000000
11
-24.3828392596
21
42.1382697664
31
0.0000000000
11
-24.3591172799
21
41.9863131883
31
0.0000000000
11
-24.3546051060
21
41.8359907158
31
0.0000000000
11
-24.3713074661
21
41.7014695770
31
0.0000000000
11
-24.4127315506
21
41.5943912074
31
0.0000000000
11
-24.4823754427
21
41.5251487767
31
0.0000000000
11
-24.5824780955
21
41.5009111354
31
0.0000000000
0
SPLINE
5
3B3
100
AcDbEntity
8
0
100
AcDbSpline
62
7
6
CONTINUOUS
70
0
71
3
72
16
73
12
74
10
42
0.0000001000
43
0.0000001000
44
0.0000000001
12
1.1277942197
22
0.0000000000
32
0.0000000000
13
-1.1277942197
23
0.0000000000
33
0.0000000000
40
0.0000000000
40
0.0000000000
40
0.0000000000
40
0.0000000000
40
0.0707514337
40
0.1675615370
40
0.2945985959
40
0.4420398438
40
0.5955798399
40
0.7373586744
40
0.8542434289
40
0.9378902695
40
1.0000000000
40
1.0000000000
40
1.0000000000
40
1.0000000000
10
-23.3559471299
20
30.5009111354
30
0.0000000000
10
-23.3293494439
20
30.5009111354
30
0.0000000000
10
-23.2676161613
20
30.4683846523
30
0.0000000000
10
-23.2134575402
20
30.3692417342
30
0.0000000000
10
-23.1712015771
20
30.2361080972
30
0.0000000000
10
-23.1425758330
20
30.0772978386
30
0.0000000000
10
-23.1265469827
20
29.9116607576
30
0.0000000000
10
-23.1243101256
20
29.7559909195
30
0.0000000000
10
-23.1399849410
20
29.6288791578
30
0.0000000000
10
-23.1723201895
20
29.5315190206
30
0.0000000000
10
-23.2267868113
20
29.5009111354
30
0.0000000000
10
-23.2501358097
20
29.5009111354
30
0.0000000000
11
-23.3559471299
21
30.5009111354
31
0.0000000000
11
-23.2827310007
21
30.4691884224
31
0.0000000000
11
-23.2219464785
21
30.3784915445
31
0.0000000000
11
-23.1762830437
21
30.2426916200
31
0.0000000000
11
-23.1451994619
21
30.0793393143
31
0.0000000000
11
-23.1285779339
21
29.9069773786
31
0.0000000000
11
-23.1281552691
21
29.7470805872
31
0.0000000000
11
-23.1467749901
21
29.6165802707
31
0.0000000000
11
-23.1869997580
21
29.5312495681
31
0.0000000000
11
-23.2501358097
21
29.5009111354
31
0.0000000000
0
SPLINE
5
3B4
100
AcDbEntity
8
0
100
AcDbSpline
62
7
6
CONTINUOUS
70
0
71
3
72
15
73
11
74
9
42
0.0000001000
43
0.0000001000
44
0.0000000001
12
-0.5732370318
22
0.0000000000
32
0.0000000000
13
0.5732370318
23
0.0000000000
33
0.0000000000
40
0.0000000000
40
0.0000000000
40
0.0000000000
40
0.0000000000
40
0.0788281713
40
0.1908947183
40
0.3357211265
40
0.4997339992
40
0.6636984160
40
0.8085279169
40
0.9206262534
40
1.0000000000
40
1.0000000000
40
1.0000000000
40
1.0000000000
10
-29.7965166886
20
23.7509111354
30
0.0000000000
10
-29.8115790976
20
23.7509111354
30
0.0000000000
10
-29.8467617781
20
23.7719672978
30
0.0000000000
10
-29.8736098014
20
23.8316258407
30
0.0000000000
10
-29.8914901429
20
23.9102219063
30
0.0000000000
10
-29.8970338073
20
24.0007423221
30
0.0000000000
10
-29.8915349500
20
24.0912601879
30
0.0000000000
10
-29.8737032674
20
24.1698773224
30
0.0000000000
10
-29.8469333284
20
24.2296436815
30
0.0000000000
10
-29.8116833456
20
24.2509111354
30
0.0000000000
10
-29.7965166886
20
24.2509111354
30
0.0000000000
11
-29.7965166886
21
23.7509111354
31
0.0000000000
11
-29.8372396323
21
23.7704949893
31
0.0000000000
11
-29.8691571267
21
23.8262456881
31
0.0000000000
11
-29.8885863408
21
23.9069600168
31
0.0000000000
11
-29.8951188052
21
24.0007510541
31
0.0000000000
11
-29.8886364450
21
24.0945177247
31
0.0000000000
11
-29.8692767337
21
24.1752505753
31
0.0000000000
11
-29.8374703086
21
24.2310856881
31
0.0000000000
11
-29.7965166886
21
24.2509111354
31
0.0000000000
0
SPLINE
5
3B5
100
AcDbEntity
8
0
100
AcDbSpline
62
7
6
CONTINUOUS
70
0
71
3
72
15
73
11
74
9
42
0.0000001000
43
0.0000001000
44
0.0000000001
12
0.5732370318
22
0.0000000000
32
0.0000000000
13
-0.5732370318
23
0.0000000000
33
0.0000000000
40
0.0000000000
40
0.0000000000
40
0.0000000000
40
0.0000000000
40
0.0793737466
40
0.1914720831
40
0.3363015840
40
0.5002660008
40
0.6642788735
40
0.8091052817
40
0.9211718287
40
1.0000000000
40
1.0000000000
40
1.0000000000
40
1.0000000000
10
-22.9226531462
20
24.2509111354
30
0.0000000000
10
-22.9074864892
20
24.2509111354
30
0.0000000000
10
-22.8722365064
20
24.2296436815
30
0.0000000000
10
-22.8454665674
20
24.1698773224
30
0.0000000000
10
-22.8276348848
20
24.0912601879
30
0.0000000000
10
-22.8221360275
20
24.0007423221
30
0.0000000000
10
-22.8276796919
20
23.9102219063
30
0.0000000000
10
-22.8455600334
20
23.8316258407
30
0.0000000000
10
-22.8724080567
20
23.7719672978
30
0.0000000000
10
-22.9075907372
20
23.7509111354
30
0.0000000000
10
-22.9226531462
20
23.7509111354
30
0.0000000000
11
-22.9226531462
21
24.2509111354
31
0.0000000000
11
-22.8816995262
21
24.2310856881
31
0.0000000000
11
-22.8498931011
21
24.1752505753
31
0.0000000000
11
-22.8305333898
21
24.0945177247
31
0.0000000000
11
-22.8240510296
21
24.0007510541
31
0.0000000000
11
-22.8305834940
21
23.9069600168
31
0.0000000000
11
-22.8500127081
21
23.8262456881
31
0.0000000000
11
-22.8819302025
21
23.7704949893
31
0.0000000000
11
-22.9226531462
21
23.7509111354
31
0.0000000000
0
SPLINE
5
3B6
100
AcDbEntity
8
0
100
AcDbSpline
62
7
6
CONTINUOUS
70
0
71
3
72
16
73
12
74
10
42
0.0000001000
43
0.0000001000
44
0.0000000001
12
-1.1277942197
22
0.0000000000
32
0.0000000000
13
1.1277942197
23
-0.0000000000
33
0.0000000000
40
0.0000000000
40
0.0000000000
40
0.0000000000
40
0.0000000000
40
0.0621097305
40
0.1457565711
40
0.2626413256
40
0.4044201601
40
0.5579601562
40
0.7054014041
40
0.8324384630
40
0.9292485663
40
1.0000000000
40
1.0000000000
40
1.0000000000
40
1.0000000000
10
-29.4690340251
20
29.5009111354
30
0.0000000000
10
-29.4923830235
20
29.5009111354
30
0.0000000000
10
-29.5468496453
20
29.5315190206
30
0.0000000000
10
-29.5791848938
20
29.6288791578
30
0.0000000000
10
-29.5948597092
20
29.7559909195
30
0.0000000000
10
-29.5926228521
20
29.9116607576
30
0.0000000000
10
-29.5765940018
20
30.0772978386
30
0.0000000000
10
-29.5479682577
20
30.2361080972
30
0.0000000000
10
-29.5057122946
20
30.3692417342
30
0.0000000000
10
-29.4515536735
20
30.4683846523
30
0.0000000000
10
-29.3898203909
20
30.5009111354
30
0.0000000000
10
-29.3632227049
20
30.5009111354
30
0.0000000000
11
-29.4690340251
21
29.5009111354
31
0.0000000000
11
-29.5321700768
21
29.5312495681
31
0.0000000000
11
-29.5723948447
21
29.6165802707
31
0.0000000000
11
-29.5910145657
21
29.7470805872
31
0.0000000000
11
-29.5905919009
21
29.9069773786
31
0.0000000000
11
-29.5739703729
21
30.0793393143
31
0.0000000000
11
-29.5428867911
21
30.2426916200
31
0.0000000000
11
-29.4972233563
21
30.3784915445
31
0.0000000000
11
-29.4364388341
21
30.4691884224
31
0.0000000000
11
-29.3632227049
21
30.5009111354
31
0.0000000000
0
ENDSEC
0
SECTION
2
OBJECTS
0
DICTIONARY
5
3B7
100
AcDbDictionary
3
ACAD_GROUP
350
3B8
3
ACAD_MLINESTYLE
350
3B9
0
DICTIONARY
5
3B8
102
{ACAD_REACTORS
330
3B7
102
}
100
AcDbDictionary
0
DICTIONARY
5
3B9
102
{ACAD_REACTORS
330
3B7
102
}
100
AcDbDictionary
3
STANDARD
350
3BA
0
MLINESTYLE
5
3BA
102
{ACAD_REACTORS
330
3B9
102
}
100
AcDbMlineStyle
2
STANDARD
70
0
3

62
256
51
90.0
52
90.0
71
2
49
0.5
62
256
6
BYLAYER
49
-0.5
62
256
6
BYLAYER
0
ENDSEC
0
EOF
