0
SECTION
2
HEADER
9
$ACADVER
1
AC1014
9
$HANDSEED
5
       2C5
9
$EXTMAX
10
297.0000000000
20
210.0000000000
9
$EXTMIN
10
0.0000000000
20
0.0000000000
9
$LIMMIN
10
0.0000000000
20
0.0000000000
9
$LIMMAX
10
297.0000000000
20
210.0000000000
9
$VIEWCTR
10
148.5000000000
20
105.0000000000
9
$VIEWSIZE
40
210.0000000000
9
$CLAYER
8
0
9
$LTSCALE
40
16.3350000000
9
$CELTYPE
6
BYLAYER
9
$DIMSCALE
40
1
9
$DIMASZ
40
3.0000000000
9
$DIMEXO
40
1.8562500000
9
$DIMDLI
40
11.2860000000
9
$DIMEXE
40
5.3460000000
9
$DIMCEN
40
2.6730000000
9
$DIMLFAC
40
1.0000000000
9
$DIMTXT
40
3.0000000000
9
$DIMTOL
70
1
9
$DIMLIM
70
0
9
$DIMTFAC
40
1.0000000000
9
$DIMTP
40
0.0100000000
9
$DIMTM
40
0.0100000000
9
$MEASUREMENT
70
1
0
ENDSEC
0
SECTION
2
CLASSES
0
ENDSEC
0
SECTION
2
TABLES
0
TABLE
2
VPORT
5
8
100
AcDbSymbolTable
70
2
0
VPORT
5
1F4
100
AcDbSymbolTableRecord
100
AcDbViewportTableRecord
2
*ACTIVE
70
0
10
0.0
20
0.0
11
1.0
21
1.0
12
148.5000000000
22
105.0000000000
13
0.0
23
0.0
14
1.0
24
1.0
15
0.0
25
0.0
16
0.0
26
0.0
36
1.0
17
0.0
27
0.0
37
0.0
40
210.0000000000
41
1.4142857143
42
50.0
43
0.0
44
0.0
50
0.0
51
0.0
71
0
72
100
73
1
74
1
75
0
76
0
77
0
78
0
0
ENDTAB
0
TABLE
2
LTYPE
5
5
100
AcDbSymbolTable
70
6
0
LTYPE
5
14
100
AcDbSymbolTableRecord
100
AcDbLinetypeTableRecord
2
BYBLOCK
70
0
3

72
65
73
0
40
0.0
0
LTYPE
5
15
100
AcDbSymbolTableRecord
100
AcDbLinetypeTableRecord
2
BYLAYER
70
0
3

72
65
73
0
40
0.0
0
LTYPE
5
16
100
AcDbSymbolTableRecord
100
AcDbLinetypeTableRecord
2
CONTINUOUS
70
64
3
Solid line
72
65
73
0
40
0
0
LTYPE
5
1F5
100
AcDbSymbolTableRecord
100
AcDbLinetypeTableRecord
2
CENTER
70
64
3
____ _ ____ _ ____ _ ____ _ ____ _ ____ _ ____
72
65
73
4
40
0.6
49
0.375
74
0
49
-0.075
74
0
49
0.075
74
0
49
-0.075
74
0
0
LTYPE
5
1F6
100
AcDbSymbolTableRecord
100
AcDbLinetypeTableRecord
2
HIDDEN
70
64
3
- - - - - - - - - - - - - - - - - - - -
72
65
73
2
40
0.2
49
0.1
74
0
49
-0.1
74
0
0
LTYPE
5
1F7
100
AcDbSymbolTableRecord
100
AcDbLinetypeTableRecord
2
PHANTOM
70
64
3
_____ _ _ _____ _ _ _____ _ _ _____
72
65
73
6
40
0.8
49
0.45
74
0
49
-0.05
74
0
49
0.1
74
0
49
-0.05
74
0
49
0.1
74
0
49
-0.05
74
0
0
LTYPE
5
1F8
100
AcDbSymbolTableRecord
100
AcDbLinetypeTableRecord
2
DOT
70
64
3
. . . . . . . . . . . . . . . . . . . .
72
65
73
2
40
0.2
49
0.1
74
0
49
-0.1
74
0
0
LTYPE
5
1F9
100
AcDbSymbolTableRecord
100
AcDbLinetypeTableRecord
2
DASHED
70
64
3
- - - - - - - - - - - - - - - - - - - -
72
65
73
2
40
0.2
49
0.1
74
0
49
-0.1
74
0
0
ENDTAB
0
TABLE
2
LAYER
5
2
100
AcDbSymbolTable
70
36
0
LAYER
5
10
100
AcDbSymbolTableRecord
100
AcDbLayerTableRecord
2
0
70
0
62
7
6
CONTINUOUS
0
LAYER
5
1FA
100
AcDbSymbolTableRecord
100
AcDbLayerTableRecord
2
DEFAULT_1
70
0
62
7
6
CENTER
0
LAYER
5
1FB
100
AcDbSymbolTableRecord
100
AcDbLayerTableRecord
2
DEFAULT_2
70
0
62
8
6
HIDDEN
0
LAYER
5
1FC
100
AcDbSymbolTableRecord
100
AcDbLayerTableRecord
2
DEFAULT_3
70
0
62
7
6
PHANTOM
0
LAYER
5
1FD
100
AcDbSymbolTableRecord
100
AcDbLayerTableRecord
2
ASSI
70
0
62
7
6
CONTINUOUS
0
LAYER
5
1FE
100
AcDbSymbolTableRecord
100
AcDbLayerTableRecord
2
COORDINATE
70
0
62
7
6
CONTINUOUS
0
LAYER
5
1FF
100
AcDbSymbolTableRecord
100
AcDbLayerTableRecord
2
COORD_ORIGINE
70
0
62
7
6
CONTINUOUS
0
LAYER
5
200
100
AcDbSymbolTableRecord
100
AcDbLayerTableRecord
2
CURVE
70
0
62
7
6
CONTINUOUS
0
LAYER
5
201
100
AcDbSymbolTableRecord
100
AcDbLayerTableRecord
2
NOTE
70
0
62
7
6
CONTINUOUS
0
LAYER
5
202
100
AcDbSymbolTableRecord
100
AcDbLayerTableRecord
2
PIANI
70
0
62
7
6
CONTINUOUS
0
LAYER
5
203
100
AcDbSymbolTableRecord
100
AcDbLayerTableRecord
2
PIANI_ORIGINE
70
0
62
7
6
CONTINUOUS
0
LAYER
5
204
100
AcDbSymbolTableRecord
100
AcDbLayerTableRecord
2
SMUSSO
70
0
62
7
6
CONTINUOUS
0
LAYER
5
205
100
AcDbSymbolTableRecord
100
AcDbLayerTableRecord
2
SNAPLINE
70
0
62
7
6
CONTINUOUS
0
LAYER
5
206
100
AcDbSymbolTableRecord
100
AcDbLayerTableRecord
2
TRASH
70
0
62
7
6
CONTINUOUS
0
ENDTAB
0
TABLE
2
STYLE
5
3
100
AcDbSymbolTable
70
1
0
STYLE
5
11
100
AcDbSymbolTableRecord
100
AcDbTextStyleTableRecord
2
STANDARD
70
0
40
0.0
41
0.8000000000
50
0.0
71
0
42
0.2
3
txt
4

0
ENDTAB
0
TABLE
2
VIEW
5
6
100
AcDbSymbolTable
70
0
0
ENDTAB
0
TABLE
2
UCS
5
7
100
AcDbSymbolTable
70
0
0
ENDTAB
0
TABLE
2
APPID
5
9
100
AcDbSymbolTable
70
1
0
APPID
5
207
100
AcDbSymbolTableRecord
100
AcDbRegAppTableRecord
2
ACAD
70
0
0
ENDTAB
0
TABLE
2
DIMSTYLE
5
A
100
AcDbSymbolTable
70
1
0
DIMSTYLE
105
208
100
AcDbSymbolTableRecord
100
AcDbDimStyleTableRecord
2
STANDARD
70
0
3

4

5

6

7

40
1.0
41
3.0000000000
42
0.0625
43
0.38
44
0.18
45
0.0
46
0.0
47
0.0100000000
48
0.0100000000
140
3.0000000000
141
0.09
142
0.0
143
25.4
144
1.0000000000
145
0.0
146
1.0000000000
147
0.09
71
1
72
0
73
0
74
0
75
0
76
0
77
1
78
8
170
0
171
2
172
0
173
0
174
0
175
0
176
0
177
0
178
0
270
2
271
2
272
2
273
2
274
2
340
11
275
0
280
0
281
0
282
0
283
1
284
8
285
0
286
0
287
3
288
0
0
DIMSTYLE
105
209
100
AcDbSymbolTableRecord
100
AcDbDimStyleTableRecord
2
DIMSTYLE_1
70
0
3

4

5

6

7

40
1.0
41
3.0000000000
42
0.0625
43
0.38
44
0.18
45
0.0
46
0.0
47
0.0000000000
48
0.0000000000
140
3.0000000000
141
0.09
142
0.0
143
25.4
144
1.0000000000
145
0.0
146
1.0000000000
147
0.09
71
0
72
0
73
0
74
0
75
0
76
0
77
1
78
8
170
0
171
2
172
0
173
0
174
0
175
0
176
0
177
0
178
0
270
2
271
2
272
2
273
2
274
2
340
11
275
0
280
0
281
0
282
0
283
1
284
8
285
0
286
0
287
3
288
0
0
ENDTAB
0
TABLE
2
BLOCK_RECORD
5
1
100
AcDbSymbolTable
70
0
0
BLOCK_RECORD
5
1B
100
AcDbSymbolTableRecord
100
AcDbBlockTableRecord
2
*MODEL_SPACE
0
BLOCK_RECORD
5
1C
100
AcDbSymbolTableRecord
100
AcDbBlockTableRecord
2
*PAPER_SPACE
0
BLOCK_RECORD
5
20A
100
AcDbSymbolTableRecord
100
AcDbBlockTableRecord
2
*D0
0
BLOCK_RECORD
5
20B
100
AcDbSymbolTableRecord
100
AcDbBlockTableRecord
2
*D1
0
ENDTAB
0
ENDSEC
0
SECTION
2
BLOCKS
0
BLOCK
5
1E
100
AcDbEntity
8
0
100
AcDbBlockBegin
2
*MODEL_SPACE
70
0
10
0.0
20
0.0
30
0.0
3
*MODEL_SPACE
1

0
ENDBLK
5
1F
100
AcDbEntity
8
0
100
AcDbBlockEnd
0
BLOCK
5
20
100
AcDbEntity
8
0
100
AcDbBlockBegin
2
*PAPER_SPACE
70
0
10
0.0
20
0.0
30
0.0
3
*PAPER_SPACE
1

0
ENDBLK
5
21
100
AcDbEntity
8
0
100
AcDbBlockEnd
0
BLOCK
5
20C
100
AcDbEntity
8
0
100
AcDbBlockBegin
62
7
6
CONTINUOUS
2
*D0
70
65
10
0.0000000000
20
0.0000000000
3
*D0
1

0
TEXT
5
20D
100
AcDbEntity
8
0
100
AcDbText
62
7
6
CONTINUOUS
10
16.7320393754
20
-1.1857425530
7
STANDARD
40
3.0000000000
1
68,6
50
90.0000000000
41
0.7321428571
72
0
100
AcDbText
0
LINE
5
20E
100
AcDbEntity
8
0
100
AcDbLine
62
7
6
CONTINUOUS
10
-3.0567246220
20
-34.3000000000
11
18.9820393754
21
-34.3000000000
0
LINE
5
20F
100
AcDbEntity
8
0
100
AcDbLine
62
7
6
CONTINUOUS
10
-3.6674361400
20
34.3000000000
11
18.9820393754
21
34.3000000000
0
LINE
5
210
100
AcDbEntity
8
0
100
AcDbLine
62
7
6
CONTINUOUS
10
17.4820393754
20
-34.3000000000
11
17.4820393754
21
0.0000000000
0
LINE
5
211
100
AcDbEntity
8
0
100
AcDbLine
62
7
6
CONTINUOUS
10
17.4820393754
20
34.3000000000
11
17.4820393754
21
0.0000000000
0
SOLID
5
212
100
AcDbEntity
8
0
100
AcDbTrace
62
7
6
CONTINUOUS
10
17.0820393754
20
-31.3000000000
11
17.4820393754
21
-34.3000000000
12
17.8820393754
22
-31.3000000000
13
17.8820393754
23
-31.3000000000
0
SOLID
5
213
100
AcDbEntity
8
0
100
AcDbTrace
62
7
6
CONTINUOUS
10
17.8820393754
20
31.3000000000
11
17.4820393754
21
34.3000000000
12
17.0820393754
22
31.3000000000
13
17.0820393754
23
31.3000000000
0
ENDBLK
5
214
100
AcDbEntity
8
0
100
AcDbBlockEnd
0
BLOCK
5
215
100
AcDbEntity
8
0
100
AcDbBlockBegin
62
7
6
CONTINUOUS
2
*D1
70
65
10
0.0000000000
20
0.0000000000
3
*D1
1

0
TEXT
5
216
100
AcDbEntity
8
0
100
AcDbText
62
7
6
CONTINUOUS
10
4.5439523639
20
43.0500000000
7
STANDARD
40
3.0000000000
1
%%c
41
1.3333333333
72
0
100
AcDbText
0
TEXT
5
217
100
AcDbEntity
8
0
100
AcDbText
62
7
6
CONTINUOUS
10
8.5439523639
20
43.0500000000
7
STANDARD
40
3.0000000000
1
9,6
41
0.7142857143
72
0
100
AcDbText
0
LINE
5
218
100
AcDbEntity
8
0
100
AcDbLine
62
7
6
CONTINUOUS
10
0.1179073380
20
23.8000000000
11
0.1179073380
21
43.8000000000
0
LINE
5
219
100
AcDbEntity
8
0
100
AcDbLine
62
7
6
CONTINUOUS
10
-9.4820926620
20
23.8000000000
11
-9.4820926620
21
43.8000000000
0
LINE
5
21A
100
AcDbEntity
8
0
100
AcDbLine
62
7
6
CONTINUOUS
10
0.1179073380
20
42.3000000000
11
14.9725237925
21
42.3000000000
0
LINE
5
21B
100
AcDbEntity
8
0
100
AcDbLine
62
7
6
CONTINUOUS
10
14.9725237925
20
42.3000000000
11
-4.6820926620
21
42.3000000000
0
LINE
5
21C
100
AcDbEntity
8
0
100
AcDbLine
62
7
6
CONTINUOUS
10
-9.4820926620
20
42.3000000000
11
-13.4820926620
21
42.3000000000
0
LINE
5
21D
100
AcDbEntity
8
0
100
AcDbLine
62
7
6
CONTINUOUS
10
-13.4820926620
20
42.3000000000
11
-4.6820926620
21
42.3000000000
0
SOLID
5
21E
100
AcDbEntity
8
0
100
AcDbTrace
62
7
6
CONTINUOUS
10
3.1179073380
20
42.7000000000
11
0.1179073380
21
42.3000000000
12
3.1179073380
22
41.9000000000
13
3.1179073380
23
41.9000000000
0
SOLID
5
21F
100
AcDbEntity
8
0
100
AcDbTrace
62
7
6
CONTINUOUS
10
-12.4820926620
20
41.9000000000
11
-9.4820926620
21
42.3000000000
12
-12.4820926620
22
42.7000000000
13
-12.4820926620
23
42.7000000000
0
ENDBLK
5
220
100
AcDbEntity
8
0
100
AcDbBlockEnd
0
ENDSEC
0
SECTION
2
ENTITIES
0
DIMENSION
5
221
100
AcDbEntity
8
0
100
AcDbDimension
62
7
6
CONTINUOUS
2
*D0
10
17.4820393754
20
34.3000000000
11
15.2320393754
21
3.2071145899
70
160
3
DIMSTYLE_1
100
AcDbAlignedDimension
13
-3.0567246220
23
-34.3000000000
14
-3.6674361400
24
34.3000000000
50
90.000000
100
AcDbRotatedDimension
0
DIMENSION
5
222
100
AcDbEntity
8
0
100
AcDbDimension
62
7
6
CONTINUOUS
2
*D1
10
-9.4820926620
20
42.3000000000
11
9.7582380782
21
44.5500000000
70
160
1
%%c<>
3
DIMSTYLE_1
100
AcDbAlignedDimension
13
0.1179073380
23
23.8000000000
14
-9.4820926620
24
23.8000000000
50
180.000000
100
AcDbRotatedDimension
0
LINE
5
223
100
AcDbEntity
8
0
100
AcDbLine
62
7
6
CONTINUOUS
10
-3.5321204978
20
-34.3000000000
11
-5.8320648261
21
-34.3000000000
0
LINE
5
224
100
AcDbEntity
8
0
100
AcDbLine
62
7
6
CONTINUOUS
10
3.1847116662
20
-34.3000000000
11
6.7842115290
21
-34.3000000000
0
LINE
5
225
100
AcDbEntity
8
0
100
AcDbLine
62
7
6
CONTINUOUS
10
-2.6820926620
20
30.5000000000
11
-2.1820926620
21
31.6000000000
0
LINE
5
226
100
AcDbEntity
8
0
100
AcDbLine
62
7
6
CONTINUOUS
10
-1.8820926620
20
-13.3000000000
11
-7.4820926620
21
-13.3000000000
0
LINE
5
227
100
AcDbEntity
8
0
100
AcDbLine
62
7
6
CONTINUOUS
10
-9.4820926620
20
23.3000000000
11
-9.4820926620
21
20.7000000000
0
LINE
5
228
100
AcDbEntity
8
0
100
AcDbLine
62
7
6
CONTINUOUS
10
-9.4820393754
20
5.9000000000
11
-9.4820393754
21
13.9000000000
0
LINE
5
229
100
AcDbEntity
8
0
100
AcDbLine
62
7
6
CONTINUOUS
10
-9.4364762445
20
5.9000000000
11
-9.4364762445
21
13.9000000000
0
LINE
5
22A
100
AcDbEntity
8
0
100
AcDbLine
62
7
6
CONTINUOUS
10
-9.2464535744
20
5.9000000000
11
-9.2464535744
21
13.9000000000
0
LINE
5
22B
100
AcDbEntity
8
0
100
AcDbLine
62
7
6
CONTINUOUS
10
-9.1820926620
20
20.7000000000
11
-9.1820926620
21
13.9000000000
0
LINE
5
22C
100
AcDbEntity
8
0
100
AcDbLine
62
7
6
CONTINUOUS
10
-9.1820926620
20
5.9000000000
11
-9.1820926620
21
3.3000000000
0
LINE
5
22D
100
AcDbEntity
8
0
100
AcDbLine
62
7
6
CONTINUOUS
10
-0.6820926620
20
-9.3000000000
11
-8.6820926620
21
-9.3000000000
0
LINE
5
22E
100
AcDbEntity
8
0
100
AcDbLine
62
7
6
CONTINUOUS
10
0.6844615976
20
-9.3000000000
11
9.2844615976
21
-9.3000000000
0
LINE
5
22F
100
AcDbEntity
8
0
100
AcDbLine
62
7
6
CONTINUOUS
10
-8.6820926620
20
-9.3000000000
11
-7.4820926620
21
-13.3000000000
0
LINE
5
230
100
AcDbEntity
8
0
100
AcDbLine
62
7
6
CONTINUOUS
10
-7.4820926620
20
-13.3000000000
11
-5.8320926620
21
-34.3000000000
0
LINE
5
231
100
AcDbEntity
8
0
100
AcDbLine
62
7
6
CONTINUOUS
10
-8.9320926620
20
0.7000000000
11
-8.6820926620
21
-9.3000000000
0
LINE
5
232
100
AcDbEntity
8
0
100
AcDbLine
62
7
6
CONTINUOUS
10
-8.9177451076
20
5.9000000000
11
-8.9177451076
21
13.9000000000
0
LINE
5
233
100
AcDbEntity
8
0
100
AcDbLine
62
7
6
CONTINUOUS
10
-8.4935416133
20
13.9000000000
11
-8.4935416133
21
5.9000000000
0
LINE
5
234
100
AcDbEntity
8
0
100
AcDbLine
62
7
6
CONTINUOUS
10
-8.4603384846
20
5.9000000000
11
-8.4603384846
21
13.9000000000
0
LINE
5
235
100
AcDbEntity
8
0
100
AcDbLine
62
7
6
CONTINUOUS
10
-8.2820926620
20
3.3000000000
11
-8.2820926620
21
0.7000000000
0
LINE
5
236
100
AcDbEntity
8
0
100
AcDbLine
62
7
6
CONTINUOUS
10
-8.0202274016
20
13.9000000000
11
-8.0202274016
21
5.9000000000
0
LINE
5
237
100
AcDbEntity
8
0
100
AcDbLine
62
7
6
CONTINUOUS
10
-7.9122595998
20
13.9000000000
11
-7.9122595998
21
5.9000000000
0
LINE
5
238
100
AcDbEntity
8
0
100
AcDbLine
62
7
6
CONTINUOUS
10
-7.8881317741
20
5.9000000000
11
-7.8881317741
21
13.9000000000
0
LINE
5
239
100
AcDbEntity
8
0
100
AcDbLine
62
7
6
CONTINUOUS
10
-7.4691131769
20
20.7000000000
11
-7.4691131769
21
18.2000000000
0
LINE
5
23A
100
AcDbEntity
8
0
100
AcDbLine
62
7
6
CONTINUOUS
10
-7.4454856549
20
13.9000000000
11
-7.4454856549
21
5.9000000000
0
LINE
5
23B
100
AcDbEntity
8
0
100
AcDbLine
62
7
6
CONTINUOUS
10
-7.3191371493
20
13.9000000000
11
-7.3191371493
21
5.9000000000
0
LINE
5
23C
100
AcDbEntity
8
0
100
AcDbLine
62
7
6
CONTINUOUS
10
-7.2305497969
20
18.2000000000
11
-7.2305497969
21
20.7000000000
0
LINE
5
23D
100
AcDbEntity
8
0
100
AcDbLine
62
7
6
CONTINUOUS
10
-7.2185111876
20
5.9000000000
11
-7.2185111876
21
13.9000000000
0
LINE
5
23E
100
AcDbEntity
8
0
100
AcDbLine
62
7
6
CONTINUOUS
10
-7.1820926620
20
31.6000000000
11
-7.1820926620
21
34.3000000000
0
LINE
5
23F
100
AcDbEntity
8
0
100
AcDbLine
62
7
6
CONTINUOUS
10
-6.7867796105
20
13.9000000000
11
-6.7867796105
21
5.9000000000
0
LINE
5
240
100
AcDbEntity
8
0
100
AcDbLine
62
7
6
CONTINUOUS
10
-6.6820926620
20
23.3000000000
11
-6.6820926620
21
23.3631278167
0
LINE
5
241
100
AcDbEntity
8
0
100
AcDbLine
62
7
6
CONTINUOUS
10
-6.6820926620
20
23.5091293618
11
-6.6820926620
21
28.0714251233
0
LINE
5
242
100
AcDbEntity
8
0
100
AcDbLine
62
7
6
CONTINUOUS
10
-6.6820926620
20
28.3714251233
11
-6.6820926620
21
30.5000000000
0
LINE
5
243
100
AcDbEntity
8
0
100
AcDbLine
62
7
6
CONTINUOUS
10
-6.6458894365
20
13.9000000000
11
-6.6458894365
21
5.9000000000
0
LINE
5
244
100
AcDbEntity
8
0
100
AcDbLine
62
7
6
CONTINUOUS
10
-6.4718228077
20
5.9000000000
11
-6.4718228077
21
13.9000000000
0
LINE
5
245
100
AcDbEntity
8
0
100
AcDbLine
62
7
6
CONTINUOUS
10
-6.1873515129
20
20.7000000000
11
-6.1873515129
21
19.7000000000
0
LINE
5
246
100
AcDbEntity
8
0
100
AcDbLine
62
7
6
CONTINUOUS
10
-6.0641237182
20
13.9000000000
11
-6.0641237182
21
5.9000000000
0
LINE
5
247
100
AcDbEntity
8
0
100
AcDbLine
62
7
6
CONTINUOUS
10
-5.9129727525
20
13.9000000000
11
-5.9129727525
21
5.9000000000
0
LINE
5
248
100
AcDbEntity
8
0
100
AcDbLine
62
7
6
CONTINUOUS
10
-5.6707543829
20
5.9000000000
11
-5.6707543829
21
13.9000000000
0
LINE
5
249
100
AcDbEntity
8
0
100
AcDbLine
62
7
6
CONTINUOUS
10
-5.2994755116
20
13.9000000000
11
-5.2994755116
21
5.9000000000
0
LINE
5
24A
100
AcDbEntity
8
0
100
AcDbLine
62
7
6
CONTINUOUS
10
-5.1426563997
20
13.9000000000
11
-5.1426563997
21
5.9000000000
0
LINE
5
24B
100
AcDbEntity
8
0
100
AcDbLine
62
7
6
CONTINUOUS
10
-5.0130544277
20
20.7000000000
11
-5.0130544277
21
19.7000000000
0
LINE
5
24C
100
AcDbEntity
8
0
100
AcDbLine
62
7
6
CONTINUOUS
10
-4.8396459720
20
5.9000000000
11
-4.8396459720
21
13.9000000000
0
LINE
5
24D
100
AcDbEntity
8
0
100
AcDbLine
62
7
6
CONTINUOUS
10
-4.8047970822
20
19.7000000000
11
-4.8047970822
21
20.7000000000
0
LINE
5
24E
100
AcDbEntity
8
0
100
AcDbLine
62
7
6
CONTINUOUS
10
-4.5160684395
20
13.9000000000
11
-4.5160684395
21
5.9000000000
0
LINE
5
24F
100
AcDbEntity
8
0
100
AcDbLine
62
7
6
CONTINUOUS
10
-4.3583460508
20
13.9000000000
11
-4.3583460508
21
5.9000000000
0
LINE
5
250
100
AcDbEntity
8
0
100
AcDbLine
62
7
6
CONTINUOUS
10
-4.0037503835
20
5.9000000000
11
-4.0037503835
21
13.9000000000
0
LINE
5
251
100
AcDbEntity
8
0
100
AcDbLine
62
7
6
CONTINUOUS
10
-3.7377059294
20
13.9000000000
11
-3.7377059294
21
5.9000000000
0
LINE
5
252
100
AcDbEntity
8
0
100
AcDbLine
62
7
6
CONTINUOUS
10
-3.5838725789
20
13.9000000000
11
-3.5838725789
21
5.9000000000
0
LINE
5
253
100
AcDbEntity
8
0
100
AcDbLine
62
7
6
CONTINUOUS
10
-3.5547895596
20
20.7000000000
11
-3.5547895596
21
18.2000000000
0
LINE
5
254
100
AcDbEntity
8
0
100
AcDbLine
62
7
6
CONTINUOUS
10
-3.1884658819
20
5.9000000000
11
-3.1884658819
21
13.9000000000
0
LINE
5
255
100
AcDbEntity
8
0
100
AcDbLine
62
7
6
CONTINUOUS
10
-2.9880381323
20
13.9000000000
11
-2.9880381323
21
5.9000000000
0
LINE
5
256
100
AcDbEntity
8
0
100
AcDbLine
62
7
6
CONTINUOUS
10
-2.8427679685
20
13.9000000000
11
-2.8427679685
21
5.9000000000
0
LINE
5
257
100
AcDbEntity
8
0
100
AcDbLine
62
7
6
CONTINUOUS
10
-2.6820926620
20
23.3000000000
11
-2.6820926620
21
30.5000000000
0
LINE
5
258
100
AcDbEntity
8
0
100
AcDbLine
62
7
6
CONTINUOUS
10
-2.4185644742
20
5.9000000000
11
-2.4185644742
21
13.9000000000
0
LINE
5
259
100
AcDbEntity
8
0
100
AcDbLine
62
7
6
CONTINUOUS
10
-2.2898433248
20
13.9000000000
11
-2.2898433248
21
5.9000000000
0
LINE
5
25A
100
AcDbEntity
8
0
100
AcDbLine
62
7
6
CONTINUOUS
10
-2.1820926620
20
31.6000000000
11
-2.1820926620
21
34.3000000000
0
LINE
5
25B
100
AcDbEntity
8
0
100
AcDbLine
62
7
6
CONTINUOUS
10
-2.1575503081
20
13.9000000000
11
-2.1575503081
21
5.9000000000
0
LINE
5
25C
100
AcDbEntity
8
0
100
AcDbLine
62
7
6
CONTINUOUS
10
-7.6153035701
20
28.0530933392
11
-6.9618529675
21
23.3425171955
0
LINE
5
25D
100
AcDbEntity
8
0
100
AcDbLine
62
7
6
CONTINUOUS
10
-7.3149738263
20
28.0714251233
11
-6.6646984468
21
23.3837384378
0
LINE
5
25E
100
AcDbEntity
8
0
100
AcDbLine
62
7
6
CONTINUOUS
10
-5.9124250671
20
23.3425171955
11
-6.5658756697
21
28.0530933392
0
LINE
5
25F
100
AcDbEntity
8
0
100
AcDbLine
62
7
6
CONTINUOUS
10
-5.6152705464
20
23.3837384378
11
-6.2687211489
21
28.0943145815
0
LINE
5
260
100
AcDbEntity
8
0
100
AcDbLine
62
7
6
CONTINUOUS
10
3.1844615976
20
-34.3000000000
11
0.6844615976
21
-9.3000000000
0
LINE
5
261
100
AcDbEntity
8
0
100
AcDbLine
62
7
6
CONTINUOUS
10
-1.7174392251
20
5.9000000000
11
-1.7174392251
21
13.9000000000
0
LINE
5
262
100
AcDbEntity
8
0
100
AcDbLine
62
7
6
CONTINUOUS
10
-1.6643358029
20
13.9000000000
11
-1.6643358029
21
5.9000000000
0
LINE
5
263
100
AcDbEntity
8
0
100
AcDbLine
62
7
6
CONTINUOUS
10
-1.5490395897
20
13.9000000000
11
-1.5490395897
21
5.9000000000
0
LINE
5
264
100
AcDbEntity
8
0
100
AcDbLine
62
7
6
CONTINUOUS
10
-1.1063934705
20
5.9000000000
11
-1.1063934705
21
13.9000000000
0
LINE
5
265
100
AcDbEntity
8
0
100
AcDbLine
62
7
6
CONTINUOUS
10
-1.0820926620
20
3.3000000000
11
-1.0820926620
21
0.7000000000
0
LINE
5
266
100
AcDbEntity
8
0
100
AcDbLine
62
7
6
CONTINUOUS
10
-1.0357251035
20
13.9000000000
11
-1.0357251035
21
5.9000000000
0
LINE
5
267
100
AcDbEntity
8
0
100
AcDbLine
62
7
6
CONTINUOUS
10
-0.6039935264
20
5.9000000000
11
-0.6039935264
21
13.9000000000
0
LINE
5
268
100
AcDbEntity
8
0
100
AcDbLine
62
7
6
CONTINUOUS
10
-0.2255045609
20
5.9000000000
11
-0.2255045609
21
13.9000000000
0
LINE
5
269
100
AcDbEntity
8
0
100
AcDbLine
62
7
6
CONTINUOUS
10
-0.1820926620
20
20.7000000000
11
-0.1820926620
21
13.9000000000
0
LINE
5
26A
100
AcDbEntity
8
0
100
AcDbLine
62
7
6
CONTINUOUS
10
-0.1820926620
20
5.9000000000
11
-0.1820926620
21
3.3000000000
0
LINE
5
26B
100
AcDbEntity
8
0
100
AcDbLine
62
7
6
CONTINUOUS
10
0.0175732302
20
5.9000000000
11
0.0175732302
21
13.9000000000
0
LINE
5
26C
100
AcDbEntity
8
0
100
AcDbLine
62
7
6
CONTINUOUS
10
0.1178540514
20
5.9000000000
11
0.1178540514
21
13.9000000000
0
LINE
5
26D
100
AcDbEntity
8
0
100
AcDbLine
62
7
6
CONTINUOUS
10
0.1179073380
20
23.3000000000
11
0.1179073380
21
20.7000000000
0
LINE
5
26E
100
AcDbEntity
8
0
100
AcDbLine
62
7
6
CONTINUOUS
10
-0.4320926620
20
0.7000000000
11
-0.6820926620
21
-9.3000000000
0
LINE
5
26F
100
AcDbEntity
8
0
100
AcDbLine
62
7
6
CONTINUOUS
10
-1.8820926620
20
-13.3000000000
11
-3.5320926620
21
-34.3000000000
0
LINE
5
270
100
AcDbEntity
8
0
100
AcDbLine
62
7
6
CONTINUOUS
10
0.6844615976
20
-9.3000000000
11
0.4844615976
21
0.7000000000
0
LINE
5
271
100
AcDbEntity
8
0
100
AcDbLine
62
7
6
CONTINUOUS
10
-0.6820926620
20
-9.3000000000
11
-1.8820926620
21
-13.3000000000
0
LINE
5
272
100
AcDbEntity
8
0
100
AcDbLine
62
7
6
CONTINUOUS
10
-0.4321139093
20
0.7000000000
11
-8.9320714146
21
0.7000000000
0
LINE
5
273
100
AcDbEntity
8
0
100
AcDbLine
62
7
6
CONTINUOUS
10
0.4845279289
20
0.7000000000
11
9.4843952663
21
0.7000000000
0
LINE
5
274
100
AcDbEntity
8
0
100
AcDbLine
62
7
6
CONTINUOUS
10
-0.1821359443
20
3.3000000000
11
-9.1820493797
21
3.3000000000
0
LINE
5
275
100
AcDbEntity
8
0
100
AcDbLine
62
7
6
CONTINUOUS
10
-9.4820393754
20
5.9000000000
11
-8.4935416133
21
5.9000000000
0
LINE
5
276
100
AcDbEntity
8
0
100
AcDbLine
62
7
6
CONTINUOUS
10
-8.4603384846
20
5.9000000000
11
-8.0202274016
21
5.9000000000
0
LINE
5
277
100
AcDbEntity
8
0
100
AcDbLine
62
7
6
CONTINUOUS
10
-7.9122595998
20
5.9000000000
11
-7.4454856549
21
5.9000000000
0
LINE
5
278
100
AcDbEntity
8
0
100
AcDbLine
62
7
6
CONTINUOUS
10
-7.3191371493
20
5.9000000000
11
-6.7867796105
21
5.9000000000
0
LINE
5
279
100
AcDbEntity
8
0
100
AcDbLine
62
7
6
CONTINUOUS
10
-6.6458894365
20
5.9000000000
11
-6.0641237182
21
5.9000000000
0
LINE
5
27A
100
AcDbEntity
8
0
100
AcDbLine
62
7
6
CONTINUOUS
10
-5.9129727525
20
5.9000000000
11
-5.2994755116
21
5.9000000000
0
LINE
5
27B
100
AcDbEntity
8
0
100
AcDbLine
62
7
6
CONTINUOUS
10
-5.1426563997
20
5.9000000000
11
-4.5160684395
21
5.9000000000
0
LINE
5
27C
100
AcDbEntity
8
0
100
AcDbLine
62
7
6
CONTINUOUS
10
-4.3583460508
20
5.9000000000
11
-3.7377059294
21
5.9000000000
0
LINE
5
27D
100
AcDbEntity
8
0
100
AcDbLine
62
7
6
CONTINUOUS
10
-3.5838725789
20
5.9000000000
11
-2.9880381323
21
5.9000000000
0
LINE
5
27E
100
AcDbEntity
8
0
100
AcDbLine
62
7
6
CONTINUOUS
10
-2.8427679685
20
5.9000000000
11
-2.2898433248
21
5.9000000000
0
LINE
5
27F
100
AcDbEntity
8
0
100
AcDbLine
62
7
6
CONTINUOUS
10
-1.5490395897
20
5.9000000000
11
-1.1063934705
21
5.9000000000
0
LINE
5
280
100
AcDbEntity
8
0
100
AcDbLine
62
7
6
CONTINUOUS
10
-2.1575503081
20
5.9000000000
11
-1.6643358029
21
5.9000000000
0
LINE
5
281
100
AcDbEntity
8
0
100
AcDbLine
62
7
6
CONTINUOUS
10
-1.0357251035
20
5.9000000000
11
0.1178540514
21
5.9000000000
0
LINE
5
282
100
AcDbEntity
8
0
100
AcDbLine
62
7
6
CONTINUOUS
10
-6.6820926620
20
30.5000000000
11
-7.1820926620
21
31.6000000000
0
LINE
5
283
100
AcDbEntity
8
0
100
AcDbLine
62
7
6
CONTINUOUS
10
9.2844615976
20
-9.3000000000
11
9.4844615976
21
0.7000000000
0
LINE
5
284
100
AcDbEntity
8
0
100
AcDbLine
62
7
6
CONTINUOUS
10
6.7844615976
20
-34.3000000000
11
9.2844615976
21
-9.3000000000
0
LINE
5
285
100
AcDbEntity
8
0
100
AcDbLine
62
7
6
CONTINUOUS
10
-9.4820393754
20
13.9000000000
11
-8.4935416133
21
13.9000000000
0
LINE
5
286
100
AcDbEntity
8
0
100
AcDbLine
62
7
6
CONTINUOUS
10
-8.4603384846
20
13.9000000000
11
-8.0202274016
21
13.9000000000
0
LINE
5
287
100
AcDbEntity
8
0
100
AcDbLine
62
7
6
CONTINUOUS
10
-7.9122595998
20
13.9000000000
11
-7.4454856549
21
13.9000000000
0
LINE
5
288
100
AcDbEntity
8
0
100
AcDbLine
62
7
6
CONTINUOUS
10
-7.3191371493
20
13.9000000000
11
-6.7867796105
21
13.9000000000
0
LINE
5
289
100
AcDbEntity
8
0
100
AcDbLine
62
7
6
CONTINUOUS
10
-6.6458894365
20
13.9000000000
11
-6.0641237182
21
13.9000000000
0
LINE
5
28A
100
AcDbEntity
8
0
100
AcDbLine
62
7
6
CONTINUOUS
10
-5.9129727525
20
13.9000000000
11
-5.2994755116
21
13.9000000000
0
LINE
5
28B
100
AcDbEntity
8
0
100
AcDbLine
62
7
6
CONTINUOUS
10
-5.1426563997
20
13.9000000000
11
-4.5160684395
21
13.9000000000
0
LINE
5
28C
100
AcDbEntity
8
0
100
AcDbLine
62
7
6
CONTINUOUS
10
-4.3583460508
20
13.9000000000
11
-3.7377059294
21
13.9000000000
0
LINE
5
28D
100
AcDbEntity
8
0
100
AcDbLine
62
7
6
CONTINUOUS
10
-3.5838725789
20
13.9000000000
11
-2.9880381323
21
13.9000000000
0
LINE
5
28E
100
AcDbEntity
8
0
100
AcDbLine
62
7
6
CONTINUOUS
10
-2.8427679685
20
13.9000000000
11
-2.2898433248
21
13.9000000000
0
LINE
5
28F
100
AcDbEntity
8
0
100
AcDbLine
62
7
6
CONTINUOUS
10
-1.5490395897
20
13.9000000000
11
-1.1063934705
21
13.9000000000
0
LINE
5
290
100
AcDbEntity
8
0
100
AcDbLine
62
7
6
CONTINUOUS
10
-2.1575503081
20
13.9000000000
11
-1.6643358029
21
13.9000000000
0
LINE
5
291
100
AcDbEntity
8
0
100
AcDbLine
62
7
6
CONTINUOUS
10
-1.0357251035
20
13.9000000000
11
0.1178540514
21
13.9000000000
0
LINE
5
292
100
AcDbEntity
8
0
100
AcDbLine
62
7
6
CONTINUOUS
10
-3.5547895596
20
18.2000000000
11
-7.4691131769
21
18.2000000000
0
LINE
5
293
100
AcDbEntity
8
0
100
AcDbLine
62
7
6
CONTINUOUS
10
-4.8047970822
20
19.7000000000
11
-6.1873515129
21
19.7000000000
0
LINE
5
294
100
AcDbEntity
8
0
100
AcDbLine
62
7
6
CONTINUOUS
10
0.1178611702
20
20.7000000000
11
-9.4820464942
21
20.7000000000
0
LINE
5
295
100
AcDbEntity
8
0
100
AcDbLine
62
7
6
CONTINUOUS
10
0.1178611702
20
23.3000000000
11
-9.4820464942
21
23.3000000000
0
LINE
5
296
100
AcDbEntity
8
0
100
AcDbLine
62
7
6
CONTINUOUS
10
-6.5658757363
20
28.0714251233
11
-7.3946215937
21
28.0714251233
0
LINE
5
297
100
AcDbEntity
8
0
100
AcDbLine
62
7
6
CONTINUOUS
10
-6.5303868522
20
28.3714251233
11
-7.3946215937
21
28.3714251233
0
LINE
5
298
100
AcDbEntity
8
0
100
AcDbLine
62
7
6
CONTINUOUS
10
-2.6820926620
20
30.5000000000
11
-6.6820926620
21
30.5000000000
0
LINE
5
299
100
AcDbEntity
8
0
100
AcDbLine
62
7
6
CONTINUOUS
10
-2.1820926620
20
31.6000000000
11
-7.1820926620
21
31.6000000000
0
LINE
5
29A
100
AcDbEntity
8
0
100
AcDbLine
62
7
6
CONTINUOUS
10
-2.1822049026
20
34.3000000000
11
-7.1819804213
21
34.3000000000
0
SPLINE
5
29B
100
AcDbEntity
8
0
100
AcDbSpline
62
7
6
CONTINUOUS
70
0
71
3
72
8
73
4
74
2
42
0.0000001000
43
0.0000001000
44
0.0000000001
12
0.0230931441
22
0.0050481603
32
0.0000000000
13
0.0234079629
23
0.0023973053
33
0.0000000000
40
0.0000000000
40
0.0000000000
40
0.0000000000
40
0.0000000000
40
1.0000000000
40
1.0000000000
40
1.0000000000
40
1.0000000000
10
-7.4385034225
20
28.3666369035
30
0.0000000000
10
-7.4308057078
20
28.3683196236
30
0.0000000000
10
-7.4230252140
20
28.3695671354
30
0.0000000000
10
-7.4152225597
20
28.3703662371
30
0.0000000000
11
-7.4385034225
21
28.3666369035
31
0.0000000000
11
-7.4152225597
21
28.3703662371
31
0.0000000000
0
SPLINE
5
29C
100
AcDbEntity
8
0
100
AcDbSpline
62
7
6
CONTINUOUS
70
0
71
3
72
8
73
4
74
2
42
0.0000001000
43
0.0000001000
44
0.0000000001
12
0.0205907845
22
0.0021087865
32
0.0000000000
13
0.0205698869
23
0.0000000000
33
0.0000000000
40
0.0000000000
40
0.0000000000
40
0.0000000000
40
0.0000000000
40
1.0000000000
40
1.0000000000
40
1.0000000000
40
1.0000000000
10
-7.4152225597
20
28.3703662371
30
0.0000000000
10
-7.4083589649
20
28.3710691660
30
0.0000000000
10
-7.4014782227
20
28.3714251233
30
0.0000000000
10
-7.3946215937
20
28.3714251233
30
0.0000000000
11
-7.4152225597
21
28.3703662371
31
0.0000000000
11
-7.3946215937
21
28.3714251233
31
0.0000000000
0
SPLINE
5
29D
100
AcDbEntity
8
0
100
AcDbSpline
62
7
6
CONTINUOUS
70
0
71
3
72
9
73
5
74
3
42
0.0000001000
43
0.0000001000
44
0.0000000001
12
-0.0280691595
22
0.2023441599
32
0.0000000000
13
0.0970633389
23
0.1811524074
33
0.0000000000
40
0.0000000000
40
0.0000000000
40
0.0000000000
40
0.0000000000
40
0.6203343049
40
1.0000000000
40
1.0000000000
40
1.0000000000
40
1.0000000000
10
-7.6153035701
20
28.0530933392
30
0.0000000000
10
-7.6211076576
20
28.0949336804
30
0.0000000000
10
-7.6198644638
20
28.1646258700
30
0.0000000000
10
-7.5965563091
20
28.2300228412
30
0.0000000000
10
-7.5842724358
20
28.2529486261
30
0.0000000000
11
-7.6153035701
21
28.0530933392
31
0.0000000000
11
-7.6110743459
21
28.1797457294
31
0.0000000000
11
-7.5842724358
21
28.2529486261
31
0.0000000000
0
SPLINE
5
29E
100
AcDbEntity
8
0
100
AcDbSpline
62
7
6
CONTINUOUS
70
0
71
3
72
10
73
6
74
4
42
0.0000001000
43
0.0000001000
44
0.0000000001
12
0.0898713301
22
0.1677297319
32
0.0000000000
13
0.1867910073
23
0.0408325065
33
0.0000000000
40
0.0000000000
40
0.0000000000
40
0.0000000000
40
0.0000000000
40
0.1933264375
40
0.7193672516
40
1.0000000000
40
1.0000000000
40
1.0000000000
40
1.0000000000
10
-7.5842724358
20
28.2529486261
30
0.0000000000
10
-7.5784809344
20
28.2637574899
30
0.0000000000
10
-7.5540899550
20
28.3024030633
30
0.0000000000
10
-7.5049770676
20
28.3453919209
30
0.0000000000
10
-7.4559766471
20
28.3628172574
30
0.0000000000
10
-7.4385034225
20
28.3666369035
30
0.0000000000
11
-7.5842724358
21
28.2529486261
31
0.0000000000
11
-7.5645809473
21
28.2839714820
31
0.0000000000
11
-7.4889345334
21
28.3486050672
31
0.0000000000
11
-7.4385034225
21
28.3666369035
31
0.0000000000
0
SPLINE
5
29F
100
AcDbEntity
8
0
100
AcDbSpline
62
7
6
CONTINUOUS
70
0
71
3
72
10
73
6
74
4
42
0.0000001000
43
0.0000001000
44
0.0000000001
12
0.0107283505
22
-0.0274678036
32
0.0000000000
13
-0.0590938735
23
-0.0132446738
33
0.0000000000
40
0.0000000000
40
0.0000000000
40
0.0000000000
40
0.0000000000
40
0.0079249936
40
0.2936928760
40
1.0000000000
40
1.0000000000
40
1.0000000000
40
1.0000000000
10
-6.6647472401
20
23.3837122684
30
0.0000000000
10
-6.6647188994
20
23.3836397076
30
0.0000000000
10
-6.6639104971
20
23.3809232240
30
0.0000000000
10
-6.6927845784
20
23.3681842386
30
0.0000000000
10
-6.7067663198
20
23.3662460858
30
0.0000000000
10
-6.7206791277
20
23.3631278167
30
0.0000000000
11
-6.6647472401
21
23.3837122684
31
0.0000000000
11
-6.6646820349
21
23.3834923585
31
0.0000000000
11
-6.6794252156
21
23.3744292847
31
0.0000000000
11
-6.7206791277
21
23.3631278167
31
0.0000000000
0
SPLINE
5
2A0
100
AcDbEntity
8
0
100
AcDbSpline
62
7
6
CONTINUOUS
70
0
71
3
72
9
73
5
74
3
42
0.0000001000
43
0.0000001000
44
0.0000000001
12
-0.0508925317
22
0.0002066377
32
0.0000000000
13
-0.0439004982
23
0.0252378972
33
0.0000000000
40
0.0000000000
40
0.0000000000
40
0.0000000000
40
0.0000000000
40
0.6390599361
40
1.0000000000
40
1.0000000000
40
1.0000000000
40
1.0000000000
10
-7.3946212111
20
28.0715193477
30
0.0000000000
10
-7.4054623372
20
28.0715633657
30
0.0000000000
10
-7.4225400460
20
28.0744945416
30
0.0000000000
10
-7.4378871442
20
28.0816415267
30
0.0000000000
10
-7.4431689604
20
28.0846779828
30
0.0000000000
11
-7.3946212111
21
28.0715193477
31
0.0000000000
11
-7.4265829189
21
28.0770314862
31
0.0000000000
11
-7.4431689604
21
28.0846779828
31
0.0000000000
0
SPLINE
5
2A1
100
AcDbEntity
8
0
100
AcDbSpline
62
7
6
CONTINUOUS
70
0
71
3
72
9
73
5
74
3
42
0.0000001000
43
0.0000001000
44
0.0000000001
12
-0.0690113392
22
0.0396738341
32
0.0000000000
13
-0.0343697686
23
0.0716102307
33
0.0000000000
40
0.0000000000
40
0.0000000000
40
0.0000000000
40
0.0000000000
40
0.4815384142
40
1.0000000000
40
1.0000000000
40
1.0000000000
40
1.0000000000
10
-7.4431689604
20
28.0846779828
30
0.0000000000
10
-7.4542461640
20
28.0910461412
30
0.0000000000
10
-7.4748973227
20
28.1084433890
30
0.0000000000
10
-7.4893856130
20
28.1308299381
30
0.0000000000
10
-7.4953254146
20
28.1432056560
30
0.0000000000
11
-7.4431689604
21
28.0846779828
31
0.0000000000
11
-7.4727057751
21
28.1089579428
31
0.0000000000
11
-7.4953254146
21
28.1432056560
31
0.0000000000
0
SPLINE
5
2A2
100
AcDbEntity
8
0
100
AcDbSpline
62
7
6
CONTINUOUS
70
0
71
3
72
9
73
5
74
3
42
0.0000001000
43
0.0000001000
44
0.0000000001
12
-0.0285132140
22
0.0594079599
32
0.0000000000
13
-0.0051409092
23
0.0655793499
33
0.0000000000
40
0.0000000000
40
0.0000000000
40
0.0000000000
40
0.0000000000
40
0.3266488739
40
1.0000000000
40
1.0000000000
40
1.0000000000
40
1.0000000000
10
-7.4953254146
20
28.1432056560
30
0.0000000000
10
-7.4984300177
20
28.1496741704
30
0.0000000000
10
-7.5066198332
20
28.1701201027
30
0.0000000000
10
-7.5108986258
20
28.1917699012
30
0.0000000000
10
-7.5120525048
20
28.2064892109
30
0.0000000000
11
-7.4953254146
21
28.1432056560
31
0.0000000000
11
-7.5033631016
21
28.1631599038
31
0.0000000000
11
-7.5120525048
21
28.2064892109
31
0.0000000000
0
SPLINE
5
2A3
100
AcDbEntity
8
0
100
AcDbSpline
62
7
6
CONTINUOUS
70
0
71
3
72
11
73
7
74
5
42
0.0000001000
43
0.0000001000
44
0.0000000001
12
-0.0146162755
22
0.1864506465
32
0.0000000000
13
0.1723580221
23
0.0743351995
33
0.0000000000
40
0.0000000000
40
0.0000000000
40
0.0000000000
40
0.0000000000
40
0.1199060090
40
0.4736633759
40
0.8011737531
40
1.0000000000
40
1.0000000000
40
1.0000000000
40
1.0000000000
10
-7.5120525048
20
28.2064892109
30
0.0000000000
10
-7.5126366979
20
28.2139413952
30
0.0000000000
10
-7.5131954828
20
28.2435228456
30
0.0000000000
10
-7.5026123427
20
28.2931293957
30
0.0000000000
10
-7.4717891134
20
28.3399982949
30
0.0000000000
10
-7.4436075240
20
28.3586386537
30
0.0000000000
10
-7.4321844244
20
28.3635652500
30
0.0000000000
11
-7.5120525048
21
28.2064892109
31
0.0000000000
11
-7.5124828387
21
28.2289020061
31
0.0000000000
11
-7.4982587109
21
28.2931632201
31
0.0000000000
11
-7.4635079809
21
28.3432158241
31
0.0000000000
11
-7.4321844244
21
28.3635652500
31
0.0000000000
0
SPLINE
5
2A4
100
AcDbEntity
8
0
100
AcDbSpline
62
7
6
CONTINUOUS
70
0
71
3
72
8
73
4
74
2
42
0.0000001000
43
0.0000001000
44
0.0000000001
12
0.0165938352
22
0.0071566501
32
0.0000000000
13
0.0174784300
23
0.0039174298
33
0.0000000000
40
0.0000000000
40
0.0000000000
40
0.0000000000
40
0.0000000000
40
1.0000000000
40
1.0000000000
40
1.0000000000
40
1.0000000000
10
-7.4321844244
20
28.3635652500
30
0.0000000000
10
-7.4266531460
20
28.3659508000
30
0.0000000000
10
-7.4209396005
20
28.3678404763
30
0.0000000000
10
-7.4151134571
20
28.3691462862
30
0.0000000000
11
-7.4321844244
21
28.3635652500
31
0.0000000000
11
-7.4151134571
21
28.3691462862
31
0.0000000000
0
SPLINE
5
2A5
100
AcDbEntity
8
0
100
AcDbSpline
62
7
6
CONTINUOUS
70
0
71
3
72
8
73
4
74
2
42
0.0000001000
43
0.0000001000
44
0.0000000001
12
-0.0053602254
22
0.0386406404
32
0.0000000000
13
-0.0091639812
23
0.0380426857
33
0.0000000000
40
0.0000000000
40
0.0000000000
40
0.0000000000
40
0.0000000000
40
1.0000000000
40
1.0000000000
40
1.0000000000
40
1.0000000000
10
-6.2687211489
20
28.0943145815
30
0.0000000000
10
-6.2705078907
20
28.1071947950
30
0.0000000000
10
-6.2729309206
20
28.1200124046
30
0.0000000000
10
-6.2759855810
20
28.1326932998
30
0.0000000000
11
-6.2687211489
21
28.0943145815
31
0.0000000000
11
-6.2759855810
21
28.1326932998
31
0.0000000000
0
SPLINE
5
2A6
100
AcDbEntity
8
0
100
AcDbSpline
62
7
6
CONTINUOUS
70
0
71
3
72
11
73
7
74
5
42
0.0000001000
43
0.0000001000
44
0.0000000001
12
-0.0878225736
22
0.3645802499
32
0.0000000000
13
-0.3738567257
23
-0.0000000000
33
0.0000000000
40
0.0000000000
40
0.0000000000
40
0.0000000000
40
0.0000000000
40
0.2028582171
40
0.5007640815
40
0.7634164631
40
1.0000000000
40
1.0000000000
40
1.0000000000
40
1.0000000000
10
-6.2759855810
20
28.1326932998
30
0.0000000000
10
-6.2819240912
20
28.1573459997
30
0.0000000000
10
-6.3024765057
20
28.2169267202
30
0.0000000000
10
-6.3556677605
20
28.2978989492
30
0.0000000000
10
-6.4380487133
20
28.3577020444
30
0.0000000000
10
-6.5009040700
20
28.3714251233
30
0.0000000000
10
-6.5303868522
20
28.3714251233
30
0.0000000000
11
-6.2759855810
21
28.1326932998
31
0.0000000000
11
-6.3009285471
21
28.2045567478
31
0.0000000000
11
-6.3634547330
21
28.2967232747
31
0.0000000000
11
-6.4438599149
21
28.3530893899
31
0.0000000000
11
-6.5303868522
21
28.3714251233
31
0.0000000000
0
SPLINE
5
2A7
100
AcDbEntity
8
0
100
AcDbSpline
62
7
6
CONTINUOUS
70
0
71
3
72
8
73
4
74
2
42
0.0000001000
43
0.0000001000
44
0.0000000001
12
-0.0025863459
22
0.0186434937
32
0.0000000000
13
-0.0057324608
23
0.0172325775
33
0.0000000000
40
0.0000000000
40
0.0000000000
40
0.0000000000
40
0.0000000000
40
1.0000000000
40
1.0000000000
40
1.0000000000
40
1.0000000000
10
-6.5658757363
20
28.0530938197
30
0.0000000000
10
-6.5667378516
20
28.0593083176
30
0.0000000000
10
-6.5684146418
20
28.0656843757
30
0.0000000000
10
-6.5703254620
20
28.0714285682
30
0.0000000000
11
-6.5658757363
21
28.0530938197
31
0.0000000000
11
-6.5703254620
21
28.0714285682
31
0.0000000000
0
SPLINE
5
2A8
100
AcDbEntity
8
0
100
AcDbSpline
62
7
6
CONTINUOUS
70
0
71
3
72
11
73
7
74
5
42
0.0000001000
43
0.0000001000
44
0.0000000001
12
-0.0055405404
22
0.0166556378
32
0.0000000000
13
0.0008787292
23
0.0035260432
33
0.0000000000
40
0.0000000000
40
0.0000000000
40
0.0000000000
40
0.0000000000
40
0.0570819051
40
0.8226670966
40
0.9500721665
40
1.0000000000
40
1.0000000000
40
1.0000000000
40
1.0000000000
10
-6.5703254620
20
28.0714285682
30
0.0000000000
10
-6.5704308836
20
28.0717454800
30
0.0000000000
10
-6.5719604900
20
28.0762851100
30
0.0000000000
10
-6.5738744679
20
28.0810344771
30
0.0000000000
10
-6.5778721358
20
28.0867945557
30
0.0000000000
10
-6.5779811250
20
28.0871769515
30
0.0000000000
10
-6.5779665007
20
28.0872356341
30
0.0000000000
11
-6.5703254620
21
28.0714285682
31
0.0000000000
11
-6.5706437661
21
28.0723734006
31
0.0000000000
11
-6.5766205916
21
28.0849531522
31
0.0000000000
11
-6.5778687954
21
28.0869060661
31
0.0000000000
11
-6.5779665007
21
28.0872356341
31
0.0000000000
0
SPLINE
5
2A9
100
AcDbEntity
8
0
100
AcDbSpline
62
7
6
CONTINUOUS
70
0
71
3
72
10
73
6
74
4
42
0.0000001000
43
0.0000001000
44
0.0000000001
12
0.0133563642
22
-0.0341963092
32
0.0000000000
13
0.0743970290
23
0.0059307736
33
0.0000000000
40
0.0000000000
40
0.0000000000
40
0.0000000000
40
0.0000000000
40
0.1995496776
40
0.7461312935
40
1.0000000000
40
1.0000000000
40
1.0000000000
40
1.0000000000
10
-5.9123762738
20
23.3425433650
30
0.0000000000
10
-5.9114878544
20
23.3402687441
30
0.0000000000
10
-5.8841842660
20
23.3344854721
30
0.0000000000
10
-5.8639011361
20
23.3371961657
30
0.0000000000
10
-5.8446211593
20
23.3388169673
30
0.0000000000
10
-5.8383254668
20
23.3393188466
30
0.0000000000
11
-5.9123762738
21
23.3425433650
31
0.0000000000
11
-5.8977538605
21
23.3377336484
31
0.0000000000
11
-5.8565445058
21
23.3377336484
31
0.0000000000
11
-5.8383254668
21
23.3393188466
31
0.0000000000
0
SPLINE
5
2AA
100
AcDbEntity
8
0
100
AcDbSpline
62
7
6
CONTINUOUS
70
0
71
3
72
9
73
5
74
3
42
0.0000001000
43
0.0000001000
44
0.0000000001
12
0.0615173751
22
0.0049040348
32
0.0000000000
13
0.0619850481
23
0.0078829766
33
0.0000000000
40
0.0000000000
40
0.0000000000
40
0.0000000000
40
0.0000000000
40
0.6518954197
40
1.0000000000
40
1.0000000000
40
1.0000000000
40
1.0000000000
10
-5.8383254668
20
23.3393188466
30
0.0000000000
10
-5.8249578351
20
23.3403844858
30
0.0000000000
10
-5.8032009287
20
23.3419349993
30
0.0000000000
10
-5.7823477457
20
23.3443261503
30
0.0000000000
10
-5.7751553193
20
23.3452408503
30
0.0000000000
11
-5.8383254668
21
23.3393188466
31
0.0000000000
11
-5.7969754330
21
23.3427632748
31
0.0000000000
11
-5.7751553193
21
23.3452408503
31
0.0000000000
0
SPLINE
5
2AB
100
AcDbEntity
8
0
100
AcDbSpline
62
7
6
CONTINUOUS
70
0
71
3
72
9
73
5
74
3
42
0.0000001000
43
0.0000001000
44
0.0000000001
12
0.0932074795
22
0.0118537034
32
0.0000000000
13
0.0919220734
23
0.0190939464
33
0.0000000000
40
0.0000000000
40
0.0000000000
40
0.0000000000
40
0.0000000000
40
0.4805274107
40
1.0000000000
40
1.0000000000
40
1.0000000000
40
1.0000000000
10
-5.7751553193
20
23.3452408503
30
0.0000000000
10
-5.7602257364
20
23.3471395268
30
0.0000000000
10
-5.7297543072
20
23.3518289745
30
0.0000000000
10
-5.6988671476
20
23.3572979818
30
0.0000000000
10
-5.6829501484
20
23.3606042424
30
0.0000000000
11
-5.7751553193
21
23.3452408503
31
0.0000000000
11
-5.7308450276
21
23.3518263486
31
0.0000000000
11
-5.6829501484
21
23.3606042424
31
0.0000000000
0
SPLINE
5
2AC
100
AcDbEntity
8
0
100
AcDbSpline
62
7
6
CONTINUOUS
70
0
71
3
72
8
73
4
74
2
42
0.0000001000
43
0.0000001000
44
0.0000000001
12
0.0117256388
22
0.0024356361
32
0.0000000000
13
0.0116686466
23
0.0026152866
33
0.0000000000
40
0.0000000000
40
0.0000000000
40
0.0000000000
40
0.0000000000
40
1.0000000000
40
1.0000000000
40
1.0000000000
40
1.0000000000
10
-5.6829501484
20
23.3606042424
30
0.0000000000
10
-5.6790416021
20
23.3614161211
30
0.0000000000
10
-5.6751407761
20
23.3622560544
30
0.0000000000
10
-5.6712512273
20
23.3631278167
30
0.0000000000
11
-5.6829501484
21
23.3606042424
31
0.0000000000
11
-5.6712512273
21
23.3631278167
31
0.0000000000
0
SPLINE
5
2AD
100
AcDbEntity
8
0
100
AcDbSpline
62
7
6
CONTINUOUS
70
0
71
3
72
9
73
5
74
3
42
0.0000001000
43
0.0000001000
44
0.0000000001
12
-0.1031439345
22
-0.0231175870
32
0.0000000000
13
-0.1050970855
23
-0.0133657695
33
0.0000000000
40
0.0000000000
40
0.0000000000
40
0.0000000000
40
0.0000000000
40
0.5738345308
40
1.0000000000
40
1.0000000000
40
1.0000000000
40
1.0000000000
10
-6.7206791277
20
23.3631278167
30
0.0000000000
10
-6.7404083115
20
23.3587059268
30
0.0000000000
10
-6.7752952526
20
23.3524271634
30
0.0000000000
10
-6.8096536368
20
23.3471395268
30
0.0000000000
10
-6.8245832198
20
23.3452408503
30
0.0000000000
11
-6.7206791277
21
23.3631278167
31
0.0000000000
11
-6.7802729280
21
23.3518263486
31
0.0000000000
11
-6.8245832198
21
23.3452408503
31
0.0000000000
0
SPLINE
5
2AE
100
AcDbEntity
8
0
100
AcDbSpline
62
7
6
CONTINUOUS
70
0
71
3
72
11
73
7
74
5
42
0.0000001000
43
0.0000001000
44
0.0000000001
12
-0.1369476649
22
-0.0174163814
32
0.0000000000
13
-0.0244004675
23
0.0624725349
33
0.0000000000
40
0.0000000000
40
0.0000000000
40
0.0000000000
40
0.0000000000
40
0.1575585765
40
0.5915815409
40
0.8907702001
40
1.0000000000
40
1.0000000000
40
1.0000000000
40
1.0000000000
10
-6.8245832198
20
23.3452408503
30
0.0000000000
10
-6.8317756462
20
23.3443261503
30
0.0000000000
10
-6.8590311778
20
23.3412008677
30
0.0000000000
10
-6.9023956399
20
23.3386573350
30
0.0000000000
10
-6.9336121665
20
23.3344854721
30
0.0000000000
10
-6.9609157549
20
23.3402687441
30
0.0000000000
10
-6.9618041742
20
23.3425433650
30
0.0000000000
11
-6.8245832198
21
23.3452408503
31
0.0000000000
11
-6.8464033335
21
23.3427632748
31
0.0000000000
11
-6.9059724063
21
23.3377336484
31
0.0000000000
11
-6.9471817610
21
23.3377336484
31
0.0000000000
11
-6.9618041742
21
23.3425433650
31
0.0000000000
0
SPLINE
5
2AF
100
AcDbEntity
8
0
100
AcDbSpline
62
7
6
CONTINUOUS
70
0
71
3
72
8
73
4
74
2
42
0.0000001000
43
0.0000001000
44
0.0000000001
12
-0.0199958361
22
-0.0044816545
32
0.0000000000
13
-0.0207837464
23
0.0000843877
33
0.0000000000
40
0.0000000000
40
0.0000000000
40
0.0000000000
40
0.0000000000
40
1.0000000000
40
1.0000000000
40
1.0000000000
40
1.0000000000
10
-7.3741297303
20
28.0737039603
30
0.0000000000
10
-7.3807950090
20
28.0722100755
30
0.0000000000
10
-7.3876932957
20
28.0714912185
30
0.0000000000
10
-7.3946212111
20
28.0715193477
30
0.0000000000
11
-7.3741297303
21
28.0737039603
31
0.0000000000
11
-7.3946212111
21
28.0715193477
31
0.0000000000
0
SPLINE
5
2B0
100
AcDbEntity
8
0
100
AcDbSpline
62
7
6
CONTINUOUS
70
0
71
3
72
8
73
4
74
2
42
0.0000001000
43
0.0000001000
44
0.0000000001
12
0.0323805823
22
0.0072574401
32
0.0000000000
13
0.0340419221
23
0.0110119014
33
0.0000000000
40
0.0000000000
40
0.0000000000
40
0.0000000000
40
0.0000000000
40
1.0000000000
40
1.0000000000
40
1.0000000000
40
1.0000000000
10
-5.6712512273
20
23.3631278167
30
0.0000000000
10
-5.6604576998
20
23.3655469634
30
0.0000000000
10
-5.6520466548
20
23.3669198309
30
0.0000000000
10
-5.6406993474
20
23.3705904647
30
0.0000000000
11
-5.6712512273
21
23.3631278167
31
0.0000000000
11
-5.6406993474
21
23.3705904647
31
0.0000000000
0
SPLINE
5
2B1
100
AcDbEntity
8
0
100
AcDbSpline
62
7
6
CONTINUOUS
70
0
71
3
72
10
73
6
74
4
42
0.0000001000
43
0.0000001000
44
0.0000000001
12
0.0280838611
22
0.0090845842
32
0.0000000000
13
-0.0048497337
23
0.0124167768
33
0.0000000000
40
0.0000000000
40
0.0000000000
40
0.0000000000
40
0.0000000000
40
0.3503065734
40
0.9824687057
40
1.0000000000
40
1.0000000000
40
1.0000000000
40
1.0000000000
10
-5.6406993474
20
23.3705904647
30
0.0000000000
10
-5.6374200271
20
23.3716512612
30
0.0000000000
10
-5.6275350790
20
23.3751645860
30
0.0000000000
10
-5.6144825966
20
23.3809232240
30
0.0000000000
10
-5.6152909990
20
23.3836397076
30
0.0000000000
10
-5.6153193397
20
23.3837122684
30
0.0000000000
11
-5.6406993474
21
23.3705904647
31
0.0000000000
11
-5.6299973152
21
23.3744292847
31
0.0000000000
11
-5.6152541345
21
23.3834923585
31
0.0000000000
11
-5.6153193397
21
23.3837122684
31
0.0000000000
0
SPLINE
5
2B2
100
AcDbEntity
8
0
100
AcDbSpline
62
9
6
CONTINUOUS
70
0
71
3
72
9
73
5
74
3
42
0.0000001000
43
0.0000001000
44
0.0000000001
12
-0.0471892693
22
0.0001917773
32
0.0000000000
13
-0.0414962517
23
0.0219530792
33
0.0000000000
40
0.0000000000
40
0.0000000000
40
0.0000000000
40
0.0000000000
40
0.6892037972
40
1.0000000000
40
1.0000000000
40
1.0000000000
40
1.0000000000
10
-6.5303868289
20
28.0715193492
30
0.0000000000
10
-6.5412278367
20
28.0715634070
30
0.0000000000
10
-6.5570628498
20
28.0742813193
30
0.0000000000
10
-6.5714099496
20
28.0806238242
30
0.0000000000
10
-6.5757089087
20
28.0828981354
30
0.0000000000
11
-6.5303868289
21
28.0715193492
31
0.0000000000
11
-6.5623481774
21
28.0770314862
31
0.0000000000
11
-6.5757089087
21
28.0828981354
31
0.0000000000
0
SPLINE
5
2B3
100
AcDbEntity
8
0
100
AcDbSpline
62
9
6
CONTINUOUS
70
0
71
3
72
9
73
5
74
3
42
0.0000001000
43
0.0000001000
44
0.0000000001
12
-0.0550601473
22
0.0291288905
32
0.0000000000
13
-0.0342379511
23
0.0518334011
33
0.0000000000
40
0.0000000000
40
0.0000000000
40
0.0000000000
40
0.0000000000
40
0.6744066365
40
1.0000000000
40
1.0000000000
40
1.0000000000
40
1.0000000000
10
-6.5757089087
20
28.0828981354
30
0.0000000000
10
-6.5880865516
20
28.0894463745
30
0.0000000000
10
-6.6044723931
20
28.1028815643
30
0.0000000000
10
-6.6170832417
20
28.1193728924
30
0.0000000000
10
-6.6207991249
20
28.1249984295
30
0.0000000000
11
-6.5757089087
21
28.0828981354
31
0.0000000000
11
-6.6084710336
21
28.1089579428
31
0.0000000000
11
-6.6207991249
21
28.1249984295
31
0.0000000000
0
SPLINE
5
2B4
100
AcDbEntity
8
0
100
AcDbSpline
62
9
6
CONTINUOUS
70
0
71
3
72
8
73
4
74
2
42
0.0000001000
43
0.0000001000
44
0.0000000001
12
-0.0115331167
22
0.0174601763
32
0.0000000000
13
-0.0090611257
23
0.0188790709
33
0.0000000000
40
0.0000000000
40
0.0000000000
40
0.0000000000
40
0.0000000000
40
1.0000000000
40
1.0000000000
40
1.0000000000
40
1.0000000000
10
-6.6207991249
20
28.1249984295
30
0.0000000000
10
-6.6246434972
20
28.1308184883
30
0.0000000000
10
-6.6280702978
20
28.1369126324
30
0.0000000000
10
-6.6310906730
20
28.1432056560
30
0.0000000000
11
-6.6207991249
21
28.1249984295
31
0.0000000000
11
-6.6310906730
21
28.1432056560
31
0.0000000000
0
SPLINE
5
2B5
100
AcDbEntity
8
0
100
AcDbSpline
62
9
6
CONTINUOUS
70
0
71
3
72
9
73
5
74
3
42
0.0000001000
43
0.0000001000
44
0.0000000001
12
-0.0285132140
22
0.0594079599
32
0.0000000000
13
-0.0051409092
23
0.0655793499
33
0.0000000000
40
0.0000000000
40
0.0000000000
40
0.0000000000
40
0.0000000000
40
0.3266488739
40
1.0000000000
40
1.0000000000
40
1.0000000000
40
1.0000000000
10
-6.6310906730
20
28.1432056560
30
0.0000000000
10
-6.6341952761
20
28.1496741704
30
0.0000000000
10
-6.6423850916
20
28.1701201027
30
0.0000000000
10
-6.6466638843
20
28.1917699012
30
0.0000000000
10
-6.6478177633
20
28.2064892109
30
0.0000000000
11
-6.6310906730
21
28.1432056560
31
0.0000000000
11
-6.6391283600
21
28.1631599038
31
0.0000000000
11
-6.6478177633
21
28.2064892109
31
0.0000000000
0
SPLINE
5
2B6
100
AcDbEntity
8
0
100
AcDbSpline
62
9
6
CONTINUOUS
70
0
71
3
72
11
73
7
74
5
42
0.0000001000
43
0.0000001000
44
0.0000000001
12
-0.0160234631
22
0.2044012546
32
0.0000000000
13
0.1990246235
23
0.0446072673
33
0.0000000000
40
0.0000000000
40
0.0000000000
40
0.0000000000
40
0.0000000000
40
0.1093758105
40
0.4320660499
40
0.7308143218
40
1.0000000000
40
1.0000000000
40
1.0000000000
40
1.0000000000
10
-6.6478177633
20
28.2064892109
30
0.0000000000
10
-6.6484019564
20
28.2139413952
30
0.0000000000
10
-6.6489607412
20
28.2435228456
30
0.0000000000
10
-6.6383776012
20
28.2931293957
30
0.0000000000
10
-6.6041825521
20
28.3451253852
30
0.0000000000
10
-6.5687369083
20
28.3651437404
30
0.0000000000
10
-6.5508787156
20
28.3691462862
30
0.0000000000
11
-6.6478177633
21
28.2064892109
31
0.0000000000
11
-6.6482480972
21
28.2289020061
31
0.0000000000
11
-6.6340239693
21
28.2931632201
31
0.0000000000
11
-6.5992732393
21
28.3432158241
31
0.0000000000
11
-6.5508787156
21
28.3691462862
31
0.0000000000
0
SPLINE
5
2B7
100
AcDbEntity
8
0
100
AcDbSpline
62
9
6
CONTINUOUS
70
0
71
3
72
10
73
6
74
4
42
0.0000001000
43
0.0000001000
44
0.0000000001
12
0.0170955568
22
-0.0432020141
32
0.0000000000
13
0.0976394443
23
0.0078150705
33
0.0000000000
40
0.0000000000
40
0.0000000000
40
0.0000000000
40
0.0000000000
40
0.1577267486
40
0.5901290363
40
1.0000000000
40
1.0000000000
40
1.0000000000
40
1.0000000000
10
-6.5658245390
20
28.0531135634
30
0.0000000000
10
-6.5649257302
20
28.0508421924
30
0.0000000000
10
-6.5376313413
20
28.0450620872
30
0.0000000000
10
-6.5119922866
20
28.0484885613
30
0.0000000000
10
-6.4850112217
20
28.0504033568
30
0.0000000000
10
-6.4716713640
20
28.0514710803
30
0.0000000000
11
-6.5658245390
21
28.0531135634
31
0.0000000000
11
-6.5512044631
21
28.0483097920
31
0.0000000000
11
-6.5099951084
21
28.0483097920
31
0.0000000000
11
-6.4716713640
21
28.0514710803
31
0.0000000000
0
SPLINE
5
2B8
100
AcDbEntity
8
0
100
AcDbSpline
62
9
6
CONTINUOUS
70
0
71
3
72
9
73
5
74
3
42
0.0000001000
43
0.0000001000
44
0.0000000001
12
0.0436236914
22
0.0034916445
32
0.0000000000
13
0.0423301622
23
0.0053911965
33
0.0000000000
40
0.0000000000
40
0.0000000000
40
0.0000000000
40
0.0000000000
40
0.4865903846
40
1.0000000000
40
1.0000000000
40
1.0000000000
40
1.0000000000
10
-6.4716713640
20
28.0514710803
30
0.0000000000
10
-6.4645957411
20
28.0520374138
30
0.0000000000
10
-6.4499329740
20
28.0532798913
30
0.0000000000
10
-6.4356917864
20
28.0549145191
30
0.0000000000
10
-6.4284475490
20
28.0558371498
30
0.0000000000
11
-6.4716713640
21
28.0514710803
31
0.0000000000
11
-6.4504260356
21
28.0533394185
31
0.0000000000
11
-6.4284475490
21
28.0558371498
31
0.0000000000
0
SPLINE
5
2B9
100
AcDbEntity
8
0
100
AcDbSpline
62
9
6
CONTINUOUS
70
0
71
3
72
9
73
5
74
3
42
0.0000001000
43
0.0000001000
44
0.0000000001
12
0.1049244571
22
0.0133632460
32
0.0000000000
13
0.1029884943
23
0.0230827483
33
0.0000000000
40
0.0000000000
40
0.0000000000
40
0.0000000000
40
0.0000000000
40
0.4252993827
40
1.0000000000
40
1.0000000000
40
1.0000000000
40
1.0000000000
10
-6.4284475490
20
28.0558371498
30
0.0000000000
10
-6.4135727801
20
28.0577316099
30
0.0000000000
10
-6.3792653793
20
28.0630127693
30
0.0000000000
10
-6.3444310136
20
28.0692820704
30
0.0000000000
10
-6.3247018298
20
28.0737039603
30
0.0000000000
11
-6.4284475490
21
28.0558371498
31
0.0000000000
11
-6.3842956301
21
28.0624024922
31
0.0000000000
11
-6.3247018298
21
28.0737039603
31
0.0000000000
0
SPLINE
5
2BA
100
AcDbEntity
8
0
100
AcDbSpline
62
9
6
CONTINUOUS
70
0
71
3
72
8
73
4
74
2
42
0.0000001000
43
0.0000001000
44
0.0000000001
12
-0.0075826660
22
-0.0015842964
32
0.0000000000
13
-0.0075998731
23
-0.0015161680
33
0.0000000000
40
0.0000000000
40
0.0000000000
40
0.0000000000
40
0.0000000000
40
1.0000000000
40
1.0000000000
40
1.0000000000
40
1.0000000000
10
-7.3848938872
20
28.0713751221
30
0.0000000000
10
-7.3874214425
20
28.0708470233
30
0.0000000000
10
-7.3899523471
20
28.0703307901
30
0.0000000000
10
-7.3924856381
20
28.0698254007
30
0.0000000000
11
-7.3848938872
21
28.0713751221
31
0.0000000000
11
-7.3924856381
21
28.0698254007
31
0.0000000000
0
SPLINE
5
2BB
100
AcDbEntity
8
0
100
AcDbSpline
62
9
6
CONTINUOUS
70
0
71
3
72
9
73
5
74
3
42
0.0000001000
43
0.0000001000
44
0.0000000001
12
-0.0631728560
22
-0.0126029296
32
0.0000000000
13
-0.0631095017
23
-0.0094695883
33
0.0000000000
40
0.0000000000
40
0.0000000000
40
0.0000000000
40
0.0000000000
40
0.6518759746
40
1.0000000000
40
1.0000000000
40
1.0000000000
40
1.0000000000
10
-7.3924856381
20
28.0698254007
30
0.0000000000
10
-7.4062125938
20
28.0670868851
30
0.0000000000
10
-7.4273777016
20
28.0633743352
30
0.0000000000
10
-7.4483472210
20
28.0600285441
30
0.0000000000
10
-7.4556705323
20
28.0589296804
30
0.0000000000
11
-7.3924856381
21
28.0698254007
31
0.0000000000
11
-7.4337235306
21
28.0624024922
31
0.0000000000
11
-7.4556705323
21
28.0589296804
31
0.0000000000
0
SPLINE
5
2BC
100
AcDbEntity
8
0
100
AcDbSpline
62
9
6
CONTINUOUS
70
0
71
3
72
9
73
5
74
3
42
0.0000001000
43
0.0000001000
44
0.0000000001
12
-0.1022165728
22
-0.0153376090
32
0.0000000000
13
-0.0948153760
23
-0.0092924110
33
0.0000000000
40
0.0000000000
40
0.0000000000
40
0.0000000000
40
0.0000000000
40
0.4259834693
40
1.0000000000
40
1.0000000000
40
1.0000000000
40
1.0000000000
10
-7.4556705323
20
28.0589296804
30
0.0000000000
10
-7.4701847224
20
28.0567518244
30
0.0000000000
10
-7.5044719263
20
28.0522468275
30
0.0000000000
10
-7.5412811445
20
28.0500877912
30
0.0000000000
10
-7.5594230089
20
28.0483097920
30
0.0000000000
11
-7.4556705323
21
28.0589296804
31
0.0000000000
11
-7.4998539361
21
28.0533394185
31
0.0000000000
11
-7.5594230089
21
28.0483097920
31
0.0000000000
0
SPLINE
5
2BD
100
AcDbEntity
8
0
100
AcDbSpline
62
9
6
CONTINUOUS
70
0
71
3
72
9
73
5
74
3
42
0.0000001000
43
0.0000001000
44
0.0000000001
12
-0.0512029183
22
-0.0050181583
32
0.0000000000
13
-0.0100884341
23
0.0254947876
33
0.0000000000
40
0.0000000000
40
0.0000000000
40
0.0000000000
40
0.0000000000
40
0.7327247734
40
1.0000000000
40
1.0000000000
40
1.0000000000
40
1.0000000000
10
-7.5594230089
20
28.0483097920
30
0.0000000000
10
-7.5719288911
20
28.0470841491
30
0.0000000000
10
-7.5870592460
20
28.0450620866
30
0.0000000000
10
-7.6143536462
20
28.0508421957
30
0.0000000000
10
-7.6152524424
20
28.0531135707
30
0.0000000000
11
-7.5594230089
21
28.0483097920
31
0.0000000000
11
-7.6006323635
21
28.0483097920
31
0.0000000000
11
-7.6152524424
21
28.0531135707
31
0.0000000000
0
SPLINE
5
2BE
100
AcDbEntity
8
0
100
AcDbSpline
62
9
6
CONTINUOUS
70
0
71
3
72
8
73
4
74
2
42
0.0000001000
43
0.0000001000
44
0.0000000001
12
0.0199958361
22
0.0044816545
32
0.0000000000
13
0.0207837464
23
-0.0000843877
33
0.0000000000
40
0.0000000000
40
0.0000000000
40
0.0000000000
40
0.0000000000
40
1.0000000000
40
1.0000000000
40
1.0000000000
40
1.0000000000
10
-6.5508787156
20
28.3691462862
30
0.0000000000
10
-6.5442134369
20
28.3706401711
30
0.0000000000
10
-6.5373151502
20
28.3713590281
30
0.0000000000
10
-6.5303872347
20
28.3713308989
30
0.0000000000
11
-6.5508787156
21
28.3691462862
31
0.0000000000
11
-6.5303872347
21
28.3713308989
31
0.0000000000
0
SPLINE
5
2BF
100
AcDbEntity
8
0
100
AcDbSpline
62
9
6
CONTINUOUS
70
0
71
3
72
8
73
4
74
2
42
0.0000001000
43
0.0000001000
44
0.0000000001
12
0.0199958361
22
0.0044816545
32
0.0000000000
13
0.0207837464
23
-0.0000843877
33
0.0000000000
40
0.0000000000
40
0.0000000000
40
0.0000000000
40
0.0000000000
40
1.0000000000
40
1.0000000000
40
1.0000000000
40
1.0000000000
10
-7.4151134571
20
28.3691462862
30
0.0000000000
10
-7.4084481784
20
28.3706401711
30
0.0000000000
10
-7.4015498918
20
28.3713590281
30
0.0000000000
10
-7.3946219763
20
28.3713308989
30
0.0000000000
11
-7.4151134571
21
28.3691462862
31
0.0000000000
11
-7.3946219763
21
28.3713308989
31
0.0000000000
0
SPLINE
5
2C0
100
AcDbEntity
8
0
100
AcDbSpline
62
9
6
CONTINUOUS
70
0
71
3
72
10
73
6
74
4
42
0.0000001000
43
0.0000001000
44
0.0000000001
12
0.0591066518
22
0.0132475378
32
0.0000000000
13
-0.0108654625
23
0.0274584395
33
0.0000000000
40
0.0000000000
40
0.0000000000
40
0.0000000000
40
0.0000000000
40
0.7061544271
40
0.9918605292
40
1.0000000000
40
1.0000000000
40
1.0000000000
40
1.0000000000
10
-6.3247018298
20
28.0737039603
30
0.0000000000
10
-6.3107890219
20
28.0768222295
30
0.0000000000
10
-6.2968072806
20
28.0787603822
30
0.0000000000
10
-6.2679269555
20
28.0915021223
30
0.0000000000
10
-6.2687427970
20
28.0942198509
30
0.0000000000
10
-6.2687722767
20
28.0942943499
30
0.0000000000
11
-6.3247018298
21
28.0737039603
31
0.0000000000
11
-6.2834479177
21
28.0850054284
31
0.0000000000
11
-6.2687047370
21
28.0940685022
31
0.0000000000
11
-6.2687722767
21
28.0942943499
31
0.0000000000
0
ENDSEC
0
SECTION
2
OBJECTS
0
DICTIONARY
5
2C1
100
AcDbDictionary
3
ACAD_GROUP
350
2C2
3
ACAD_MLINESTYLE
350
2C3
0
DICTIONARY
5
2C2
102
{ACAD_REACTORS
330
2C1
102
}
100
AcDbDictionary
0
DICTIONARY
5
2C3
102
{ACAD_REACTORS
330
2C1
102
}
100
AcDbDictionary
3
STANDARD
350
2C4
0
MLINESTYLE
5
2C4
102
{ACAD_REACTORS
330
2C3
102
}
100
AcDbMlineStyle
2
STANDARD
70
0
3

62
256
51
90.0
52
90.0
71
2
49
0.5
62
256
6
BYLAYER
49
-0.5
62
256
6
BYLAYER
0
ENDSEC
0
EOF
