0
SECTION
2
HEADER
9
$ACADVER
1
AC1015
9
$DWGCODEPAGE
3
ANSI_1252
9
$EXTMAX
10
431.8000000000
20
558.8000000000
30
0.0000000000
9
$EXTMIN
10
0.0000000000
20
0.0000000000
30
0.0000000000
9
$LIMMIN
10
0.0000000000
20
0.0000000000
9
$LIMMAX
10
431.8000000000
20
558.8000000000
9
$VIEWCTR
10
215.9000000000
20
279.4000000000
9
$VIEWSIZE
40
558.8000000000
9
$CLAYER
8
0
9
$LTSCALE
40
36.4254814815
9
$CELTYPE
6
BYLAYER
9
$DIMSCALE
40
1
9
$DIMASZ
40
3.0000000000
9
$DIMEXO
40
4.1392592593
9
$DIMDLI
40
25.1666962963
9
$DIMEXE
40
11.9210666667
9
$DIMCEN
40
5.9605333333
9
$DIMLFAC
40
1.0000000000
9
$DIMBLK
1
_FILLED
9
$DIMTXT
40
3.0000000000
9
$DIMTOL
70
1
9
$DIMLIM
70
0
9
$DIMTFAC
40
1.0000000000
9
$DIMTP
40
0.0100000000
9
$DIMTM
40
0.0100000000
9
$PDMODE
70
3
9
$PDSIZE
40
3.0000000000
9
$HANDSEED
5
4B1
9
$MEASUREMENT
70
1
9
$INSUNITS
70
4
0
ENDSEC
0
SECTION
2
CLASSES
0
CLASS
1
ACDBDICTIONARYWDFLT
2
AcDbDictionaryWithDefault
3
AutoCAD 2000
90
0
280
0
281
0
0
CLASS
1
ACDBPLACEHOLDER
2
AcDbPlaceHolder
3
AutoCAD 2000
90
0
280
0
281
0
0
CLASS
1
LAYOUT
2
AcDbLayout
3
AutoCAD 2000
90
0
280
0
281
0
0
ENDSEC
0
SECTION
2
TABLES
0
TABLE
2
VPORT
5
8
100
AcDbSymbolTable
70
2
0
VPORT
5
1F4
100
AcDbSymbolTableRecord
100
AcDbViewportTableRecord
2
*ACTIVE
70
0
10
0.0
20
0.0
11
1.0
21
1.0
12
215.9000000000
22
279.4000000000
13
0.0
23
0.0
14
1.0
24
1.0
15
0.0
25
0.0
16
0.0
26
0.0
36
1.0
17
0.0
27
0.0
37
0.0
40
558.8000000000
41
0.7727272727
42
50.0
43
0.0
44
0.0
50
0.0
51
0.0
71
0
72
100
73
1
74
1
75
0
76
0
77
0
78
0
0
ENDTAB
0
TABLE
2
LTYPE
5
5
100
AcDbSymbolTable
70
6
0
LTYPE
5
14
100
AcDbSymbolTableRecord
100
AcDbLinetypeTableRecord
2
BYBLOCK
70
0
3

72
65
73
0
40
0.0
0
LTYPE
5
15
100
AcDbSymbolTableRecord
100
AcDbLinetypeTableRecord
2
BYLAYER
70
0
3

72
65
73
0
40
0.0
0
LTYPE
5
16
100
AcDbSymbolTableRecord
100
AcDbLinetypeTableRecord
2
CONTINUOUS
70
64
3
Solid line
72
65
73
0
40
0
0
LTYPE
5
1F5
100
AcDbSymbolTableRecord
100
AcDbLinetypeTableRecord
2
CENTER
70
64
3
____ _ ____ _ ____ _ ____ _ ____ _ ____ _ ____
72
65
73
4
40
0.6
49
0.375
74
0
49
-0.075
74
0
49
0.075
74
0
49
-0.075
74
0
0
LTYPE
5
1F6
100
AcDbSymbolTableRecord
100
AcDbLinetypeTableRecord
2
HIDDEN
70
64
3
- - - - - - - - - - - - - - - - - - - -
72
65
73
2
40
0.2
49
0.1
74
0
49
-0.1
74
0
0
LTYPE
5
1F7
100
AcDbSymbolTableRecord
100
AcDbLinetypeTableRecord
2
PHANTOM
70
64
3
_____ _ _ _____ _ _ _____ _ _ _____
72
65
73
6
40
0.8
49
0.45
74
0
49
-0.05
74
0
49
0.1
74
0
49
-0.05
74
0
49
0.1
74
0
49
-0.05
74
0
0
LTYPE
5
1F8
100
AcDbSymbolTableRecord
100
AcDbLinetypeTableRecord
2
DOT
70
64
3
. . . . . . . . . . . . . . . . . . . .
72
65
73
2
40
0.2
49
0.1
74
0
49
-0.1
74
0
0
LTYPE
5
1F9
100
AcDbSymbolTableRecord
100
AcDbLinetypeTableRecord
2
DASHED
70
64
3
- - - - - - - - - - - - - - - - - - - -
72
65
73
2
40
0.2
49
0.1
74
0
49
-0.1
74
0
0
ENDTAB
0
TABLE
2
LAYER
5
2
100
AcDbSymbolTable
70
36
0
LAYER
5
10
100
AcDbSymbolTableRecord
100
AcDbLayerTableRecord
2
0
70
0
62
7
6
CONTINUOUS
370
-3
390
F
0
LAYER
5
1FA
100
AcDbSymbolTableRecord
100
AcDbLayerTableRecord
2
DEFAULT_1
70
0
62
7
6
CENTER
370
-3
390
F
0
LAYER
5
1FB
100
AcDbSymbolTableRecord
100
AcDbLayerTableRecord
2
DEFAULT_2
70
0
62
8
6
HIDDEN
370
-3
390
F
0
LAYER
5
1FC
100
AcDbSymbolTableRecord
100
AcDbLayerTableRecord
2
DEFAULT_3
70
0
62
7
6
PHANTOM
370
-3
390
F
0
LAYER
5
1FD
100
AcDbSymbolTableRecord
100
AcDbLayerTableRecord
2
_2D_DELETED_OBJS
70
0
62
7
6
CONTINUOUS
370
-3
390
F
0
LAYER
5
1FE
100
AcDbSymbolTableRecord
100
AcDbLayerTableRecord
2
_BLACK_HOLE
70
0
62
7
6
CONTINUOUS
370
-3
390
F
0
LAYER
5
1FF
100
AcDbSymbolTableRecord
100
AcDbLayerTableRecord
2
ASSI
70
0
62
7
6
CONTINUOUS
370
-3
390
F
0
LAYER
5
200
100
AcDbSymbolTableRecord
100
AcDbLayerTableRecord
2
COORDINATE
70
0
62
7
6
CONTINUOUS
370
-3
390
F
0
LAYER
5
201
100
AcDbSymbolTableRecord
100
AcDbLayerTableRecord
2
COORD_ORIGINE
70
0
62
7
6
CONTINUOUS
370
-3
390
F
0
LAYER
5
202
100
AcDbSymbolTableRecord
100
AcDbLayerTableRecord
2
COPY_PUBLISH
70
0
62
7
6
CONTINUOUS
370
-3
390
F
0
LAYER
5
203
100
AcDbSymbolTableRecord
100
AcDbLayerTableRecord
2
COSMETIC
70
0
62
7
6
CONTINUOUS
370
-3
390
F
0
LAYER
5
204
100
AcDbSymbolTableRecord
100
AcDbLayerTableRecord
2
CURVE
70
0
62
7
6
CONTINUOUS
370
-3
390
F
0
LAYER
5
205
100
AcDbSymbolTableRecord
100
AcDbLayerTableRecord
2
DRAFT
70
0
62
7
6
CONTINUOUS
370
-3
390
F
0
LAYER
5
206
100
AcDbSymbolTableRecord
100
AcDbLayerTableRecord
2
IMPORT_IGES
70
0
62
7
6
CONTINUOUS
370
-3
390
F
0
LAYER
5
207
100
AcDbSymbolTableRecord
100
AcDbLayerTableRecord
2
NOTE
70
0
62
7
6
CONTINUOUS
370
-3
390
F
0
LAYER
5
208
100
AcDbSymbolTableRecord
100
AcDbLayerTableRecord
2
PIANI
70
0
62
7
6
CONTINUOUS
370
-3
390
F
0
LAYER
5
209
100
AcDbSymbolTableRecord
100
AcDbLayerTableRecord
2
PIANI_ORIGINE
70
0
62
7
6
CONTINUOUS
370
-3
390
F
0
LAYER
5
20A
100
AcDbSymbolTableRecord
100
AcDbLayerTableRecord
2
RACCORDO
70
0
62
7
6
CONTINUOUS
370
-3
390
F
0
LAYER
5
20B
100
AcDbSymbolTableRecord
100
AcDbLayerTableRecord
2
SMUSSO
70
0
62
7
6
CONTINUOUS
370
-3
390
F
0
LAYER
5
20C
100
AcDbSymbolTableRecord
100
AcDbLayerTableRecord
2
SNAPLINE
70
0
62
7
6
CONTINUOUS
370
-3
390
F
0
LAYER
5
20D
100
AcDbSymbolTableRecord
100
AcDbLayerTableRecord
2
SUPERFICI
70
0
62
7
6
CONTINUOUS
370
-3
390
F
0
LAYER
5
20E
100
AcDbSymbolTableRecord
100
AcDbLayerTableRecord
2
TRASH
70
0
62
7
6
CONTINUOUS
370
-3
390
F
0
ENDTAB
0
TABLE
2
STYLE
5
3
100
AcDbSymbolTable
70
1
0
STYLE
5
11
100
AcDbSymbolTableRecord
100
AcDbTextStyleTableRecord
2
STANDARD
70
0
40
0.0
41
0.8000000000
50
0.0
71
0
42
0.2
3
txt
4

0
ENDTAB
0
TABLE
2
VIEW
5
6
100
AcDbSymbolTable
70
0
0
ENDTAB
0
TABLE
2
UCS
5
7
100
AcDbSymbolTable
70
0
0
ENDTAB
0
TABLE
2
APPID
5
9
100
AcDbSymbolTable
70
1
0
APPID
5
20F
100
AcDbSymbolTableRecord
100
AcDbRegAppTableRecord
2
ACAD
70
0
0
ENDTAB
0
TABLE
2
BLOCK_RECORD
5
1
100
AcDbSymbolTable
70
0
0
BLOCK_RECORD
5
1F
100
AcDbSymbolTableRecord
100
AcDbBlockTableRecord
2
*MODEL_SPACE
0
BLOCK_RECORD
5
1B
100
AcDbSymbolTableRecord
100
AcDbBlockTableRecord
2
*PAPER_SPACE
0
BLOCK_RECORD
5
210
100
AcDbSymbolTableRecord
100
AcDbBlockTableRecord
2
_FILLED
0
BLOCK_RECORD
5
211
100
AcDbSymbolTableRecord
100
AcDbBlockTableRecord
2
*D0
0
BLOCK_RECORD
5
212
100
AcDbSymbolTableRecord
100
AcDbBlockTableRecord
2
*D1
0
BLOCK_RECORD
5
213
100
AcDbSymbolTableRecord
100
AcDbBlockTableRecord
2
*D2
0
BLOCK_RECORD
5
214
100
AcDbSymbolTableRecord
100
AcDbBlockTableRecord
2
*D3
0
ENDTAB
0
TABLE
2
DIMSTYLE
5
A
100
AcDbSymbolTable
70
1
100
AcDbDimStyleTable
71
0
0
DIMSTYLE
105
215
100
AcDbSymbolTableRecord
100
AcDbDimStyleTableRecord
2
STANDARD
70
0
3

4

40
1.0
41
3.0000000000
42
0.0625
43
0.38
44
0.18
45
0.0
46
0.0
47
0.0100000000
48
0.0100000000
140
3.0000000000
141
0.09
142
0.0
143
25.4
144
1.0000000000
145
0.0
146
1.0000000000
147
0.09
71
1
72
0
73
0
74
0
75
0
76
0
77
1
78
8
170
0
171
2
172
0
173
0
174
0
175
0
176
0
177
0
178
0
270
2
271
2
272
2
273
2
274
2
275
0
280
0
281
0
282
0
283
1
284
8
285
0
286
0
287
3
288
0
340
11
341
210
342
210
343
210
344
210
0
DIMSTYLE
105
216
100
AcDbSymbolTableRecord
100
AcDbDimStyleTableRecord
2
DIMSTYLE_1
70
0
3

4

40
1.0
41
3.0000000000
42
0.0625
43
0.38
44
0.18
45
0.0
46
0.0
47
0.0000000000
48
0.0000000000
140
3.0000000000
141
0.09
142
0.0
143
25.4
144
1.0000000000
145
0.0
146
1.0000000000
147
0.09
71
0
72
0
73
0
74
0
75
0
76
0
77
1
78
8
170
0
171
2
172
0
173
0
174
0
175
0
176
0
177
0
178
0
270
2
271
2
272
2
273
2
274
2
275
0
280
0
281
0
282
0
283
1
284
8
285
0
286
0
287
3
288
0
340
11
341
210
342
210
343
210
344
210
0
ENDTAB
0
ENDSEC
0
SECTION
2
BLOCKS
0
BLOCK
5
20
100
AcDbEntity
8
0
100
AcDbBlockBegin
2
*MODEL_SPACE
70
0
10
0.0
20
0.0
30
0.0
3
*MODEL_SPACE
1

0
ENDBLK
5
21
100
AcDbEntity
8
0
100
AcDbBlockEnd
0
BLOCK
5
1C
100
AcDbEntity
8
0
100
AcDbBlockBegin
2
*PAPER_SPACE
70
0
10
0.0
20
0.0
30
0.0
3
*PAPER_SPACE
1

0
ENDBLK
5
1D
100
AcDbEntity
8
0
100
AcDbBlockEnd
0
BLOCK
5
217
100
AcDbEntity
8
0
100
AcDbBlockBegin
62
2
6
CONTINUOUS
2
*D0
70
65
10
0.0000000000
20
0.0000000000
3
*D0
1

0
TEXT
5
218
100
AcDbEntity
8
0
100
AcDbText
62
2
6
CONTINUOUS
10
-126.3244751504
20
65.2855919002
7
STANDARD
40
3.0000000000
1
435
41
0.7380952381
72
0
100
AcDbText
0
LINE
5
219
100
AcDbEntity
8
0
100
AcDbLine
62
2
6
CONTINUOUS
10
-341.0475018917
20
54.5355919002
11
-341.0475018917
21
66.0355919002
0
LINE
5
21A
100
AcDbEntity
8
0
100
AcDbLine
62
2
6
CONTINUOUS
10
93.9524981083
20
54.5355919002
11
93.9524981083
21
66.0355919002
0
LINE
5
21B
100
AcDbEntity
8
0
100
AcDbLine
62
2
6
CONTINUOUS
10
-341.0475018917
20
64.5355919002
11
-123.5475018917
21
64.5355919002
0
LINE
5
21C
100
AcDbEntity
8
0
100
AcDbLine
62
2
6
CONTINUOUS
10
93.9524981083
20
64.5355919002
11
-123.5475018917
21
64.5355919002
0
INSERT
5
21D
100
AcDbEntity
8
0
100
AcDbBlockReference
62
2
6
CONTINUOUS
2
_FILLED
10
-341.0475018917
20
64.5355919002
41
  3.000000
42
  3.000000
43
  3.000000
50
180.000000
0
INSERT
5
21E
100
AcDbEntity
8
0
100
AcDbBlockReference
62
2
6
CONTINUOUS
2
_FILLED
10
93.9524981083
20
64.5355919002
41
  3.000000
42
  3.000000
43
  3.000000
50
  0.000000
0
ENDBLK
5
21F
100
AcDbEntity
8
0
6
BYBLOCK
62
0
100
AcDbBlockEnd
0
BLOCK
5
220
100
AcDbEntity
8
0
100
AcDbBlockBegin
62
2
6
CONTINUOUS
2
*D1
70
65
10
0.0000000000
20
0.0000000000
3
*D1
1

0
TEXT
5
221
100
AcDbEntity
8
0
100
AcDbText
62
2
6
CONTINUOUS
10
-127.6239817499
20
-195.5144080998
7
STANDARD
40
3.0000000000
1
482
41
0.7857142857
72
0
100
AcDbText
0
LINE
5
222
100
AcDbEntity
8
0
100
AcDbLine
62
2
6
CONTINUOUS
10
117.4524981083
20
-164.4644080998
11
117.4524981083
21
-197.7644080998
0
LINE
5
223
100
AcDbEntity
8
0
100
AcDbLine
62
2
6
CONTINUOUS
10
-364.5475018917
20
-164.4644080998
11
-364.5475018917
21
-197.7644080998
0
LINE
5
224
100
AcDbEntity
8
0
100
AcDbLine
62
2
6
CONTINUOUS
10
117.4524981083
20
-196.2644080998
11
-123.5475018917
21
-196.2644080998
0
LINE
5
225
100
AcDbEntity
8
0
100
AcDbLine
62
2
6
CONTINUOUS
10
-364.5475018917
20
-196.2644080998
11
-123.5475018917
21
-196.2644080998
0
INSERT
5
226
100
AcDbEntity
8
0
100
AcDbBlockReference
62
2
6
CONTINUOUS
2
_FILLED
10
117.4524981083
20
-196.2644080998
41
  3.000000
42
  3.000000
43
  3.000000
0
INSERT
5
227
100
AcDbEntity
8
0
100
AcDbBlockReference
62
2
6
CONTINUOUS
2
_FILLED
10
-364.5475018917
20
-196.2644080998
41
  3.000000
42
  3.000000
43
  3.000000
50
180.000000
0
ENDBLK
5
228
100
AcDbEntity
8
0
6
BYBLOCK
62
0
100
AcDbBlockEnd
0
BLOCK
5
229
100
AcDbEntity
8
0
100
AcDbBlockBegin
62
2
6
CONTINUOUS
2
*D2
70
65
10
0.0000000000
20
0.0000000000
3
*D2
1

0
TEXT
5
22A
100
AcDbEntity
8
0
100
AcDbText
62
2
6
CONTINUOUS
10
-484.5845921465
20
65.2855919002
7
STANDARD
40
3.0000000000
1
44,4
41
0.7321428571
72
0
100
AcDbText
0
LINE
5
22B
100
AcDbEntity
8
0
100
AcDbLine
62
2
6
CONTINUOUS
10
-503.1919583481
20
54.5355919002
11
-503.1919583481
21
66.0355919002
0
LINE
5
22C
100
AcDbEntity
8
0
100
AcDbLine
62
2
6
CONTINUOUS
10
-458.7919583481
20
54.5355919002
11
-458.7919583481
21
66.0355919002
0
LINE
5
22D
100
AcDbEntity
8
0
100
AcDbLine
62
2
6
CONTINUOUS
10
-503.1919583481
20
64.5355919002
11
-480.9919583481
21
64.5355919002
0
LINE
5
22E
100
AcDbEntity
8
0
100
AcDbLine
62
2
6
CONTINUOUS
10
-458.7919583481
20
64.5355919002
11
-480.9919583481
21
64.5355919002
0
INSERT
5
22F
100
AcDbEntity
8
0
100
AcDbBlockReference
62
2
6
CONTINUOUS
2
_FILLED
10
-503.1919583481
20
64.5355919002
41
  3.000000
42
  3.000000
43
  3.000000
50
180.000000
0
INSERT
5
230
100
AcDbEntity
8
0
100
AcDbBlockReference
62
2
6
CONTINUOUS
2
_FILLED
10
-458.7919583481
20
64.5355919002
41
  3.000000
42
  3.000000
43
  3.000000
0
ENDBLK
5
231
100
AcDbEntity
8
0
6
BYBLOCK
62
0
100
AcDbBlockEnd
0
BLOCK
5
232
100
AcDbEntity
8
0
100
AcDbBlockBegin
62
2
6
CONTINUOUS
2
*D3
70
65
10
0.0000000000
20
0.0000000000
3
*D3
1

0
TEXT
5
233
100
AcDbEntity
8
0
100
AcDbText
62
2
6
CONTINUOUS
10
124.7024981083
20
-91.7520637273
7
STANDARD
40
3.0000000000
1
218,5
50
90.0000000000
41
0.6857142857
72
0
100
AcDbText
0
LINE
5
234
100
AcDbEntity
8
0
100
AcDbLine
62
2
6
CONTINUOUS
10
88.9190026998
20
56.5355919002
11
126.9524981083
21
56.5355919002
0
LINE
5
235
100
AcDbEntity
8
0
100
AcDbLine
62
2
6
CONTINUOUS
10
115.4524981083
20
-161.9644080998
11
126.9524981083
21
-161.9644080998
0
LINE
5
236
100
AcDbEntity
8
0
100
AcDbLine
62
2
6
CONTINUOUS
10
125.4524981083
20
56.5355919002
11
125.4524981083
21
-52.7144080998
0
LINE
5
237
100
AcDbEntity
8
0
100
AcDbLine
62
2
6
CONTINUOUS
10
125.4524981083
20
-161.9644080998
11
125.4524981083
21
-52.7144080998
0
INSERT
5
238
100
AcDbEntity
8
0
100
AcDbBlockReference
62
2
6
CONTINUOUS
2
_FILLED
10
125.4524981083
20
56.5355919002
41
  3.000000
42
  3.000000
43
  3.000000
50
 90.000000
0
INSERT
5
239
100
AcDbEntity
8
0
100
AcDbBlockReference
62
2
6
CONTINUOUS
2
_FILLED
10
125.4524981083
20
-161.9644080998
41
  3.000000
42
  3.000000
43
  3.000000
50
270.000000
0
ENDBLK
5
23A
100
AcDbEntity
8
0
6
BYBLOCK
62
0
100
AcDbBlockEnd
0
BLOCK
5
23B
100
AcDbEntity
8
0
100
AcDbBlockBegin
2
_FILLED
70
64
10
0.0000000000
20
0.0000000000
3
_FILLED
1

0
SOLID
5
23C
100
AcDbEntity
8
0
6
BYBLOCK
62
0
100
AcDbTrace
10
0.0000000000
20
0.0000000000
11
-1.0000000000
21
0.1333333333
12
-1.0000000000
22
-0.1333333333
13
-1.0000000000
23
-0.1333333333
0
ENDBLK
5
23D
100
AcDbEntity
8
0
6
BYBLOCK
62
0
100
AcDbBlockEnd
0
ENDSEC
0
SECTION
2
ENTITIES
0
DIMENSION
5
23E
100
AcDbEntity
8
0
100
AcDbDimension
62
2
6
CONTINUOUS
2
*D0
10
93.9524981083
20
64.5355919002
11
-123.0030465789
21
66.7855919002
70
160
3
DIMSTYLE_1
100
AcDbAlignedDimension
13
-341.0475018917
23
54.5355919002
14
93.9524981083
24
54.5355919002
100
AcDbRotatedDimension
0
DIMENSION
5
23F
100
AcDbEntity
8
0
100
AcDbDimension
62
2
6
CONTINUOUS
2
*D1
10
-364.5475018917
20
-196.2644080998
11
-124.0882674642
21
-194.0144080998
70
160
3
DIMSTYLE_1
100
AcDbAlignedDimension
13
117.4524981083
23
-164.4644080998
14
-364.5475018917
24
-164.4644080998
50
180.000000
100
AcDbRotatedDimension
0
DIMENSION
5
240
100
AcDbEntity
8
0
100
AcDbDimension
62
2
6
CONTINUOUS
2
*D2
10
-458.7919583481
20
64.5355919002
11
-480.1917350036
21
66.7855919002
70
160
3
DIMSTYLE_1
100
AcDbAlignedDimension
13
-503.1919583481
23
54.5355919002
14
-458.7919583481
24
54.5355919002
100
AcDbRotatedDimension
0
DIMENSION
5
241
100
AcDbEntity
8
0
100
AcDbDimension
62
2
6
CONTINUOUS
2
*D3
10
125.4524981083
20
-161.9644080998
11
123.2024981083
21
-86.6092065844
70
160
3
DIMSTYLE_1
100
AcDbAlignedDimension
13
88.9190026998
23
56.5355919002
14
115.4524981083
24
-161.9644080998
50
270.000000
100
AcDbRotatedDimension
0
LINE
5
242
100
AcDbEntity
8
0
100
AcDbLine
62
7
6
CONTINUOUS
10
-364.5475018917
20
-161.9644080998
11
-364.5475018917
21
-163.9644080998
0
LINE
5
243
100
AcDbEntity
8
0
100
AcDbLine
62
9
6
CONTINUOUS
10
-362.0475018917
20
-161.9644080998
11
-362.0475018917
21
-163.9644080998
0
LINE
5
244
100
AcDbEntity
8
0
100
AcDbLine
62
9
6
CONTINUOUS
10
-345.6908583820
20
-148.6831580998
11
-345.6908583820
21
-141.2456580998
0
LINE
5
245
100
AcDbEntity
8
0
100
AcDbLine
62
9
6
CONTINUOUS
10
-345.6908583820
20
-78.6831580998
11
-345.6908583820
21
-71.2456580998
0
LINE
5
246
100
AcDbEntity
8
0
100
AcDbLine
62
9
6
CONTINUOUS
10
-345.2412491767
20
-148.9644080998
11
-345.2412491767
21
-140.9644080998
0
LINE
5
247
100
AcDbEntity
8
0
100
AcDbLine
62
9
6
CONTINUOUS
10
-345.2412491767
20
-78.9644080998
11
-345.2412491767
21
-70.9644080998
0
LINE
5
248
100
AcDbEntity
8
0
100
AcDbLine
62
9
6
CONTINUOUS
10
-344.0475018917
20
-163.9644080998
11
-344.0475018917
21
-161.9644080998
0
LINE
5
249
100
AcDbEntity
8
0
100
AcDbLine
62
7
6
CONTINUOUS
10
-343.5475018917
20
-8.9644080998
11
-343.5475018917
21
-161.4644080998
0
LINE
5
24A
100
AcDbEntity
8
0
100
AcDbLine
62
3
6
CONTINUOUS
10
-341.5475018917
20
-8.9644080998
11
-341.5475018917
21
-161.4644080998
0
LINE
5
24B
100
AcDbEntity
8
0
100
AcDbLine
62
3
6
CONTINUOUS
10
-341.0475018917
20
-163.9644080998
11
-341.0475018917
21
54.0355919002
0
LINE
5
24C
100
AcDbEntity
8
0
100
AcDbLine
62
7
6
CONTINUOUS
10
-338.5475018917
20
54.5355919002
11
-338.5475018917
21
56.5355919002
0
LINE
5
24D
100
AcDbEntity
8
0
100
AcDbLine
62
7
6
CONTINUOUS
10
-338.5475018917
20
-163.9644080998
11
-338.5475018917
21
-168.9644080998
0
LINE
5
24E
100
AcDbEntity
8
0
100
AcDbLine
62
9
6
CONTINUOUS
10
-338.2975018917
20
-163.9644080998
11
-338.2975018917
21
54.0355919002
0
LINE
5
24F
100
AcDbEntity
8
0
100
AcDbLine
62
3
6
CONTINUOUS
10
-337.2975018917
20
-163.9644080998
11
-337.2975018917
21
-166.2144080998
0
LINE
5
250
100
AcDbEntity
8
0
100
AcDbLine
62
7
6
CONTINUOUS
10
-335.9975018917
20
-177.4310201215
11
-335.9975018917
21
-176.9310201215
0
LINE
5
251
100
AcDbEntity
8
0
100
AcDbLine
62
7
6
CONTINUOUS
10
-335.9975018917
20
-170.1644080998
11
-335.9975018917
21
-168.9644080998
0
LINE
5
252
100
AcDbEntity
8
0
100
AcDbLine
62
7
6
CONTINUOUS
10
-320.0720707048
20
-173.1541224550
11
-320.0475018917
21
-173.4349452729
0
LINE
5
253
100
AcDbEntity
8
0
100
AcDbLine
62
7
6
CONTINUOUS
10
-318.3220707048
20
-173.1541224550
11
-318.3208923582
21
-173.1675910178
0
LINE
5
254
100
AcDbEntity
8
0
100
AcDbLine
62
9
6
CONTINUOUS
10
-335.5475018917
20
-166.9644080998
11
-335.5475018917
21
-168.9644080998
0
LINE
5
255
100
AcDbEntity
8
0
100
AcDbLine
62
7
6
CONTINUOUS
10
-334.4975018917
20
-171.3857518683
11
-334.4975018917
21
-170.4644080998
0
LINE
5
256
100
AcDbEntity
8
0
100
AcDbLine
62
7
6
CONTINUOUS
10
-329.0975018917
20
-171.3857518683
11
-329.0975018917
21
-170.4644080998
0
LINE
5
257
100
AcDbEntity
8
0
100
AcDbLine
62
7
6
CONTINUOUS
10
-327.5975018917
20
-177.4310201215
11
-327.5975018917
21
-176.9310201215
0
LINE
5
258
100
AcDbEntity
8
0
100
AcDbLine
62
7
6
CONTINUOUS
10
-327.5975018917
20
-170.1644080998
11
-327.5975018917
21
-168.9644080998
0
LINE
5
259
100
AcDbEntity
8
0
100
AcDbLine
62
3
6
CONTINUOUS
10
-326.2975018917
20
-163.9644080998
11
-326.2975018917
21
-166.2144080998
0
LINE
5
25A
100
AcDbEntity
8
0
100
AcDbLine
62
7
6
CONTINUOUS
10
-324.7975018917
20
-169.9644080998
11
-324.7975018917
21
-169.4644080998
0
LINE
5
25B
100
AcDbEntity
8
0
100
AcDbLine
62
7
6
CONTINUOUS
10
-324.5475018917
20
-172.1581553848
11
-324.5475018917
21
-170.4644080998
0
LINE
5
25C
100
AcDbEntity
8
0
100
AcDbLine
62
3
6
CONTINUOUS
10
-323.2975018917
20
-163.9644080998
11
-323.2975018917
21
-166.1565349032
0
LINE
5
25D
100
AcDbEntity
8
0
100
AcDbLine
62
9
6
CONTINUOUS
10
-322.7975018917
20
-168.9644080998
11
-322.7975018917
21
-170.4644080998
0
LINE
5
25E
100
AcDbEntity
8
0
100
AcDbLine
62
7
6
CONTINUOUS
10
-322.5475018917
20
-166.9644080998
11
-322.5475018917
21
-166.2144080998
0
LINE
5
25F
100
AcDbEntity
8
0
100
AcDbLine
62
7
6
CONTINUOUS
10
-318.5475018917
20
-166.9644080998
11
-318.5475018917
21
-166.2144080998
0
LINE
5
260
100
AcDbEntity
8
0
100
AcDbLine
62
7
6
CONTINUOUS
10
-316.5475018917
20
-172.1581553848
11
-316.5475018917
21
-170.4644080998
0
LINE
5
261
100
AcDbEntity
8
0
100
AcDbLine
62
7
6
CONTINUOUS
10
-322.7741114253
20
-173.1675910178
11
-322.7729330787
21
-173.1541224550
0
LINE
5
262
100
AcDbEntity
8
0
100
AcDbLine
62
7
6
CONTINUOUS
10
-321.0475018917
20
-173.4349452729
11
-321.0229330787
21
-173.1541224550
0
LINE
5
263
100
AcDbEntity
8
0
100
AcDbLine
62
7
6
CONTINUOUS
10
-230.0720707048
20
-173.1541224550
11
-230.0475018917
21
-173.4349452729
0
LINE
5
264
100
AcDbEntity
8
0
100
AcDbLine
62
7
6
CONTINUOUS
10
-228.3220707048
20
-173.1541224550
11
-228.3208923582
21
-173.1675910178
0
LINE
5
265
100
AcDbEntity
8
0
100
AcDbLine
62
7
6
CONTINUOUS
10
-234.5475018917
20
-172.1581553848
11
-234.5475018917
21
-170.4644080998
0
LINE
5
266
100
AcDbEntity
8
0
100
AcDbLine
62
7
6
CONTINUOUS
10
-232.5475018917
20
-166.9644080998
11
-232.5475018917
21
-166.2144080998
0
LINE
5
267
100
AcDbEntity
8
0
100
AcDbLine
62
7
6
CONTINUOUS
10
-228.5475018917
20
-166.9644080998
11
-228.5475018917
21
-166.2144080998
0
LINE
5
268
100
AcDbEntity
8
0
100
AcDbLine
62
7
6
CONTINUOUS
10
-335.9975018917
20
-177.4310201215
11
-327.5975018917
21
-177.4310201215
0
LINE
5
269
100
AcDbEntity
8
0
100
AcDbLine
62
7
6
CONTINUOUS
10
88.9024981083
20
-177.4310201215
11
80.5024981083
21
-177.4310201215
0
LINE
5
26A
100
AcDbEntity
8
0
100
AcDbLine
62
7
6
CONTINUOUS
10
-335.9975018917
20
-176.9310201215
11
-327.5975018917
21
-176.9310201215
0
LINE
5
26B
100
AcDbEntity
8
0
100
AcDbLine
62
7
6
CONTINUOUS
10
88.9024981083
20
-176.9310201215
11
80.5024981083
21
-176.9310201215
0
LINE
5
26C
100
AcDbEntity
8
0
100
AcDbLine
62
9
6
CONTINUOUS
10
79.1712481083
20
-172.6077645901
11
71.7337481083
21
-172.6077645901
0
LINE
5
26D
100
AcDbEntity
8
0
100
AcDbLine
62
9
6
CONTINUOUS
10
-10.8287518917
20
-172.6077645901
11
-18.2662518917
21
-172.6077645901
0
LINE
5
26E
100
AcDbEntity
8
0
100
AcDbLine
62
9
6
CONTINUOUS
10
-22.8287518917
20
-172.6077645901
11
-30.2662518917
21
-172.6077645901
0
LINE
5
26F
100
AcDbEntity
8
0
100
AcDbLine
62
9
6
CONTINUOUS
10
-112.8287518917
20
-172.6077645901
11
-120.2662518917
21
-172.6077645901
0
LINE
5
270
100
AcDbEntity
8
0
100
AcDbLine
62
9
6
CONTINUOUS
10
-124.8287518917
20
-172.6077645901
11
-132.2662518917
21
-172.6077645901
0
LINE
5
271
100
AcDbEntity
8
0
100
AcDbLine
62
9
6
CONTINUOUS
10
-214.8287518917
20
-172.6077645901
11
-222.2662518917
21
-172.6077645901
0
LINE
5
272
100
AcDbEntity
8
0
100
AcDbLine
62
9
6
CONTINUOUS
10
-226.8287518917
20
-172.6077645901
11
-234.2662518917
21
-172.6077645901
0
LINE
5
273
100
AcDbEntity
8
0
100
AcDbLine
62
9
6
CONTINUOUS
10
-316.8287518917
20
-172.6077645901
11
-324.2662518917
21
-172.6077645901
0
LINE
5
274
100
AcDbEntity
8
0
100
AcDbLine
62
9
6
CONTINUOUS
10
79.4524981083
20
-172.1581553848
11
71.4524981083
21
-172.1581553848
0
LINE
5
275
100
AcDbEntity
8
0
100
AcDbLine
62
9
6
CONTINUOUS
10
-10.5475018917
20
-172.1581553848
11
-18.5475018917
21
-172.1581553848
0
LINE
5
276
100
AcDbEntity
8
0
100
AcDbLine
62
9
6
CONTINUOUS
10
-22.5475018917
20
-172.1581553848
11
-30.5475018917
21
-172.1581553848
0
LINE
5
277
100
AcDbEntity
8
0
100
AcDbLine
62
9
6
CONTINUOUS
10
-112.5475018917
20
-172.1581553848
11
-120.5475018917
21
-172.1581553848
0
LINE
5
278
100
AcDbEntity
8
0
100
AcDbLine
62
9
6
CONTINUOUS
10
-124.5475018917
20
-172.1581553848
11
-132.5475018917
21
-172.1581553848
0
LINE
5
279
100
AcDbEntity
8
0
100
AcDbLine
62
9
6
CONTINUOUS
10
-214.5475018917
20
-172.1581553848
11
-222.5475018917
21
-172.1581553848
0
LINE
5
27A
100
AcDbEntity
8
0
100
AcDbLine
62
9
6
CONTINUOUS
10
-226.5475018917
20
-172.1581553848
11
-234.5475018917
21
-172.1581553848
0
LINE
5
27B
100
AcDbEntity
8
0
100
AcDbLine
62
9
6
CONTINUOUS
10
-316.5475018917
20
-172.1581553848
11
-324.5475018917
21
-172.1581553848
0
LINE
5
27C
100
AcDbEntity
8
0
100
AcDbLine
62
9
6
CONTINUOUS
10
-334.4975018917
20
-171.3857518683
11
-329.0975018917
21
-171.3857518683
0
LINE
5
27D
100
AcDbEntity
8
0
100
AcDbLine
62
9
6
CONTINUOUS
10
87.4024981083
20
-171.3857518683
11
82.0024981083
21
-171.3857518683
0
LINE
5
27E
100
AcDbEntity
8
0
100
AcDbLine
62
7
6
CONTINUOUS
10
79.4524981083
20
-170.4644080998
11
-18.5475018917
21
-170.4644080998
0
LINE
5
27F
100
AcDbEntity
8
0
100
AcDbLine
62
7
6
CONTINUOUS
10
-22.5475018917
20
-170.4644080998
11
-120.5475018917
21
-170.4644080998
0
LINE
5
280
100
AcDbEntity
8
0
100
AcDbLine
62
7
6
CONTINUOUS
10
-124.5475018917
20
-170.4644080998
11
-222.5475018917
21
-170.4644080998
0
LINE
5
281
100
AcDbEntity
8
0
100
AcDbLine
62
7
6
CONTINUOUS
10
80.5024981083
20
-170.4644080998
11
88.9024981083
21
-170.4644080998
0
LINE
5
282
100
AcDbEntity
8
0
100
AcDbLine
62
7
6
CONTINUOUS
10
-226.5475018917
20
-170.4644080998
11
-324.5475018917
21
-170.4644080998
0
LINE
5
283
100
AcDbEntity
8
0
100
AcDbLine
62
7
6
CONTINUOUS
10
-327.8975018917
20
-170.4644080998
11
-335.6975018917
21
-170.4644080998
0
LINE
5
284
100
AcDbEntity
8
0
100
AcDbLine
62
9
6
CONTINUOUS
10
-335.9975018917
20
-170.1644080998
11
-327.5975018917
21
-170.1644080998
0
LINE
5
285
100
AcDbEntity
8
0
100
AcDbLine
62
9
6
CONTINUOUS
10
79.7024981083
20
-169.9644080998
11
-18.7975018917
21
-169.9644080998
0
LINE
5
286
100
AcDbEntity
8
0
100
AcDbLine
62
9
6
CONTINUOUS
10
-22.2975018917
20
-169.9644080998
11
-120.7975018917
21
-169.9644080998
0
LINE
5
287
100
AcDbEntity
8
0
100
AcDbLine
62
9
6
CONTINUOUS
10
-124.2975018917
20
-169.9644080998
11
-222.7975018917
21
-169.9644080998
0
LINE
5
288
100
AcDbEntity
8
0
100
AcDbLine
62
9
6
CONTINUOUS
10
-226.2975018917
20
-169.9644080998
11
-324.7975018917
21
-169.9644080998
0
LINE
5
289
100
AcDbEntity
8
0
100
AcDbLine
62
9
6
CONTINUOUS
10
-324.7975018917
20
-169.4644080998
11
-226.2975018917
21
-169.4644080998
0
LINE
5
28A
100
AcDbEntity
8
0
100
AcDbLine
62
9
6
CONTINUOUS
10
-222.7975018917
20
-169.4644080998
11
-124.2975018917
21
-169.4644080998
0
LINE
5
28B
100
AcDbEntity
8
0
100
AcDbLine
62
9
6
CONTINUOUS
10
-120.7975018917
20
-169.4644080998
11
-22.2975018917
21
-169.4644080998
0
LINE
5
28C
100
AcDbEntity
8
0
100
AcDbLine
62
9
6
CONTINUOUS
10
-18.7975018917
20
-169.4644080998
11
79.7024981083
21
-169.4644080998
0
LINE
5
28D
100
AcDbEntity
8
0
100
AcDbLine
62
3
6
CONTINUOUS
10
91.4524981083
20
-168.9644080998
11
-338.5475018917
21
-168.9644080998
0
LINE
5
28E
100
AcDbEntity
8
0
100
AcDbLine
62
7
6
CONTINUOUS
10
91.4524981083
20
-166.9644080998
11
-338.5475018917
21
-166.9644080998
0
LINE
5
28F
100
AcDbEntity
8
0
100
AcDbLine
62
9
6
CONTINUOUS
10
91.4524981083
20
-166.4644080998
11
77.4524981083
21
-166.4644080998
0
LINE
5
290
100
AcDbEntity
8
0
100
AcDbLine
62
9
6
CONTINUOUS
10
73.4524981083
20
-166.4644080998
11
-12.5475018917
21
-166.4644080998
0
LINE
5
291
100
AcDbEntity
8
0
100
AcDbLine
62
9
6
CONTINUOUS
10
-16.5475018917
20
-166.4644080998
11
-24.5475018917
21
-166.4644080998
0
LINE
5
292
100
AcDbEntity
8
0
100
AcDbLine
62
9
6
CONTINUOUS
10
-28.5475018917
20
-166.4644080998
11
-114.5475018917
21
-166.4644080998
0
LINE
5
293
100
AcDbEntity
8
0
100
AcDbLine
62
9
6
CONTINUOUS
10
-118.5475018917
20
-166.4644080998
11
-126.5475018917
21
-166.4644080998
0
LINE
5
294
100
AcDbEntity
8
0
100
AcDbLine
62
9
6
CONTINUOUS
10
-130.5475018917
20
-166.4644080998
11
-216.5475018917
21
-166.4644080998
0
LINE
5
295
100
AcDbEntity
8
0
100
AcDbLine
62
9
6
CONTINUOUS
10
-220.5475018917
20
-166.4644080998
11
-228.5475018917
21
-166.4644080998
0
LINE
5
296
100
AcDbEntity
8
0
100
AcDbLine
62
9
6
CONTINUOUS
10
-232.5475018917
20
-166.4644080998
11
-318.5475018917
21
-166.4644080998
0
LINE
5
297
100
AcDbEntity
8
0
100
AcDbLine
62
9
6
CONTINUOUS
10
-322.5475018917
20
-166.4644080998
11
-338.5475018917
21
-166.4644080998
0
LINE
5
298
100
AcDbEntity
8
0
100
AcDbLine
62
3
6
CONTINUOUS
10
-337.2975018917
20
-166.2144080998
11
-326.2975018917
21
-166.2144080998
0
LINE
5
299
100
AcDbEntity
8
0
100
AcDbLine
62
3
6
CONTINUOUS
10
-323.2975018917
20
-166.2144080998
11
76.2024981083
21
-166.2144080998
0
LINE
5
29A
100
AcDbEntity
8
0
100
AcDbLine
62
3
6
CONTINUOUS
10
79.2024981083
20
-166.2144080998
11
90.2024981083
21
-166.2144080998
0
LINE
5
29B
100
AcDbEntity
8
0
100
AcDbLine
62
7
6
CONTINUOUS
10
-218.0720707048
20
-173.1541224550
11
-218.0475018917
21
-173.4349452729
0
LINE
5
29C
100
AcDbEntity
8
0
100
AcDbLine
62
7
6
CONTINUOUS
10
-216.3220707048
20
-173.1541224550
11
-216.3208923582
21
-173.1675910178
0
LINE
5
29D
100
AcDbEntity
8
0
100
AcDbLine
62
9
6
CONTINUOUS
10
-228.2975018917
20
-168.9644080998
11
-228.2975018917
21
-170.4644080998
0
LINE
5
29E
100
AcDbEntity
8
0
100
AcDbLine
62
7
6
CONTINUOUS
10
-226.5475018917
20
-172.1581553848
11
-226.5475018917
21
-170.4644080998
0
LINE
5
29F
100
AcDbEntity
8
0
100
AcDbLine
62
7
6
CONTINUOUS
10
-226.2975018917
20
-169.9644080998
11
-226.2975018917
21
-169.4644080998
0
LINE
5
2A0
100
AcDbEntity
8
0
100
AcDbLine
62
7
6
CONTINUOUS
10
-222.7975018917
20
-169.9644080998
11
-222.7975018917
21
-169.4644080998
0
LINE
5
2A1
100
AcDbEntity
8
0
100
AcDbLine
62
7
6
CONTINUOUS
10
-222.5475018917
20
-172.1581553848
11
-222.5475018917
21
-170.4644080998
0
LINE
5
2A2
100
AcDbEntity
8
0
100
AcDbLine
62
9
6
CONTINUOUS
10
-220.7975018917
20
-168.9644080998
11
-220.7975018917
21
-170.4644080998
0
LINE
5
2A3
100
AcDbEntity
8
0
100
AcDbLine
62
7
6
CONTINUOUS
10
-220.5475018917
20
-166.9644080998
11
-220.5475018917
21
-166.2144080998
0
LINE
5
2A4
100
AcDbEntity
8
0
100
AcDbLine
62
7
6
CONTINUOUS
10
-216.5475018917
20
-166.9644080998
11
-216.5475018917
21
-166.2144080998
0
LINE
5
2A5
100
AcDbEntity
8
0
100
AcDbLine
62
7
6
CONTINUOUS
10
-214.5475018917
20
-172.1581553848
11
-214.5475018917
21
-170.4644080998
0
LINE
5
2A6
100
AcDbEntity
8
0
100
AcDbLine
62
7
6
CONTINUOUS
10
-232.7741114253
20
-173.1675910178
11
-232.7729330787
21
-173.1541224550
0
LINE
5
2A7
100
AcDbEntity
8
0
100
AcDbLine
62
7
6
CONTINUOUS
10
-231.0475018917
20
-173.4349452729
11
-231.0229330787
21
-173.1541224550
0
LINE
5
2A8
100
AcDbEntity
8
0
100
AcDbLine
62
7
6
CONTINUOUS
10
-220.7741114253
20
-173.1675910178
11
-220.7729330787
21
-173.1541224550
0
LINE
5
2A9
100
AcDbEntity
8
0
100
AcDbLine
62
7
6
CONTINUOUS
10
99.1422124634
20
-144.4889769129
11
99.4230352813
21
-144.4644080998
0
LINE
5
2AA
100
AcDbEntity
8
0
100
AcDbLine
62
7
6
CONTINUOUS
10
99.1422124634
20
-142.7389769129
11
99.1556810262
21
-142.7377985663
0
LINE
5
2AB
100
AcDbEntity
8
0
100
AcDbLine
62
9
6
CONTINUOUS
10
-337.2975018917
20
-163.9644080998
11
-326.2975018917
21
-163.9644080998
0
LINE
5
2AC
100
AcDbEntity
8
0
100
AcDbLine
62
9
6
CONTINUOUS
10
-323.2975018917
20
-163.9644080998
11
76.2024981083
21
-163.9644080998
0
LINE
5
2AD
100
AcDbEntity
8
0
100
AcDbLine
62
3
6
CONTINUOUS
10
93.9524981083
20
-163.9644080998
11
90.2024981083
21
-163.9644080998
0
LINE
5
2AE
100
AcDbEntity
8
0
100
AcDbLine
62
3
6
CONTINUOUS
10
79.2024981083
20
-163.9644080998
11
76.2024981083
21
-163.9644080998
0
LINE
5
2AF
100
AcDbEntity
8
0
100
AcDbLine
62
9
6
CONTINUOUS
10
79.2024981083
20
-163.9644080998
11
90.2024981083
21
-163.9644080998
0
LINE
5
2B0
100
AcDbEntity
8
0
100
AcDbLine
62
3
6
CONTINUOUS
10
-323.2975018917
20
-163.9644080998
11
-326.2975018917
21
-163.9644080998
0
LINE
5
2B1
100
AcDbEntity
8
0
100
AcDbLine
62
3
6
CONTINUOUS
10
96.9524981083
20
-163.9644080998
11
117.4524981083
21
-163.9644080998
0
LINE
5
2B2
100
AcDbEntity
8
0
100
AcDbLine
62
3
6
CONTINUOUS
10
-337.2975018917
20
-163.9644080998
11
-341.0475018917
21
-163.9644080998
0
LINE
5
2B3
100
AcDbEntity
8
0
100
AcDbLine
62
3
6
CONTINUOUS
10
-344.0475018917
20
-163.9644080998
11
-364.5475018917
21
-163.9644080998
0
LINE
5
2B4
100
AcDbEntity
8
0
100
AcDbLine
62
7
6
CONTINUOUS
10
96.9524981083
20
-161.9644080998
11
117.4524981083
21
-161.9644080998
0
LINE
5
2B5
100
AcDbEntity
8
0
100
AcDbLine
62
7
6
CONTINUOUS
10
-344.0475018917
20
-161.9644080998
11
-364.5475018917
21
-161.9644080998
0
LINE
5
2B6
100
AcDbEntity
8
0
100
AcDbLine
62
9
6
CONTINUOUS
10
94.4524981083
20
-161.4644080998
11
96.4524981083
21
-161.4644080998
0
LINE
5
2B7
100
AcDbEntity
8
0
100
AcDbLine
62
9
6
CONTINUOUS
10
-341.5475018917
20
-161.4644080998
11
-343.5475018917
21
-161.4644080998
0
LINE
5
2B8
100
AcDbEntity
8
0
100
AcDbLine
62
7
6
CONTINUOUS
10
-345.2412491767
20
-148.9644080998
11
-343.5475018917
21
-148.9644080998
0
LINE
5
2B9
100
AcDbEntity
8
0
100
AcDbLine
62
7
6
CONTINUOUS
10
98.1462453932
20
-148.9644080998
11
96.4524981083
21
-148.9644080998
0
LINE
5
2BA
100
AcDbEntity
8
0
100
AcDbLine
62
7
6
CONTINUOUS
10
-346.5180390648
20
-144.4644080998
11
-346.2372162468
21
-144.4889769129
0
LINE
5
2BB
100
AcDbEntity
8
0
100
AcDbLine
62
7
6
CONTINUOUS
10
-346.2506848097
20
-142.7377985663
11
-346.2372162468
21
-142.7389769129
0
LINE
5
2BC
100
AcDbEntity
8
0
100
AcDbLine
62
7
6
CONTINUOUS
10
-219.0475018917
20
-173.4349452729
11
-219.0229330787
21
-173.1541224550
0
LINE
5
2BD
100
AcDbEntity
8
0
100
AcDbLine
62
7
6
CONTINUOUS
10
-345.2412491767
20
-140.9644080998
11
-343.5475018917
21
-140.9644080998
0
LINE
5
2BE
100
AcDbEntity
8
0
100
AcDbLine
62
7
6
CONTINUOUS
10
98.1462453932
20
-140.9644080998
11
96.4524981083
21
-140.9644080998
0
LINE
5
2BF
100
AcDbEntity
8
0
100
AcDbLine
62
7
6
CONTINUOUS
10
-346.2372162468
20
-147.1898392868
11
-346.2506848097
21
-147.1910176334
0
LINE
5
2C0
100
AcDbEntity
8
0
100
AcDbLine
62
7
6
CONTINUOUS
10
-346.2372162468
20
-145.4398392868
11
-346.5180390648
21
-145.4644080998
0
LINE
5
2C1
100
AcDbEntity
8
0
100
AcDbLine
62
7
6
CONTINUOUS
10
99.1556810262
20
-147.1910176334
11
99.1422124634
21
-147.1898392868
0
LINE
5
2C2
100
AcDbEntity
8
0
100
AcDbLine
62
7
6
CONTINUOUS
10
99.4230352813
20
-145.4644080998
11
99.1422124634
21
-145.4398392868
0
LINE
5
2C3
100
AcDbEntity
8
0
100
AcDbLine
62
7
6
CONTINUOUS
10
99.1422124634
20
-74.4889769129
11
99.4230352813
21
-74.4644080998
0
LINE
5
2C4
100
AcDbEntity
8
0
100
AcDbLine
62
7
6
CONTINUOUS
10
99.1422124634
20
-72.7389769129
11
99.1556810262
21
-72.7377985663
0
LINE
5
2C5
100
AcDbEntity
8
0
100
AcDbLine
62
7
6
CONTINUOUS
10
-345.2412491767
20
-78.9644080998
11
-343.5475018917
21
-78.9644080998
0
LINE
5
2C6
100
AcDbEntity
8
0
100
AcDbLine
62
7
6
CONTINUOUS
10
98.1462453932
20
-78.9644080998
11
96.4524981083
21
-78.9644080998
0
LINE
5
2C7
100
AcDbEntity
8
0
100
AcDbLine
62
7
6
CONTINUOUS
10
-346.5180390648
20
-74.4644080998
11
-346.2372162468
21
-74.4889769129
0
LINE
5
2C8
100
AcDbEntity
8
0
100
AcDbLine
62
7
6
CONTINUOUS
10
-346.2506848097
20
-72.7377985663
11
-346.2372162468
21
-72.7389769129
0
LINE
5
2C9
100
AcDbEntity
8
0
100
AcDbLine
62
7
6
CONTINUOUS
10
-128.0720707048
20
-173.1541224550
11
-128.0475018917
21
-173.4349452729
0
LINE
5
2CA
100
AcDbEntity
8
0
100
AcDbLine
62
7
6
CONTINUOUS
10
-126.3220707048
20
-173.1541224550
11
-126.3208923582
21
-173.1675910178
0
LINE
5
2CB
100
AcDbEntity
8
0
100
AcDbLine
62
7
6
CONTINUOUS
10
-116.0720707048
20
-173.1541224550
11
-116.0475018917
21
-173.4349452729
0
LINE
5
2CC
100
AcDbEntity
8
0
100
AcDbLine
62
7
6
CONTINUOUS
10
-114.3220707048
20
-173.1541224550
11
-114.3208923582
21
-173.1675910178
0
LINE
5
2CD
100
AcDbEntity
8
0
100
AcDbLine
62
7
6
CONTINUOUS
10
-132.5475018917
20
-172.1581553848
11
-132.5475018917
21
-170.4644080998
0
LINE
5
2CE
100
AcDbEntity
8
0
100
AcDbLine
62
7
6
CONTINUOUS
10
-130.5475018917
20
-166.9644080998
11
-130.5475018917
21
-166.2144080998
0
LINE
5
2CF
100
AcDbEntity
8
0
100
AcDbLine
62
7
6
CONTINUOUS
10
-126.5475018917
20
-166.9644080998
11
-126.5475018917
21
-166.2144080998
0
LINE
5
2D0
100
AcDbEntity
8
0
100
AcDbLine
62
9
6
CONTINUOUS
10
-126.2975018917
20
-168.9644080998
11
-126.2975018917
21
-170.4644080998
0
LINE
5
2D1
100
AcDbEntity
8
0
100
AcDbLine
62
7
6
CONTINUOUS
10
-124.5475018917
20
-172.1581553848
11
-124.5475018917
21
-170.4644080998
0
LINE
5
2D2
100
AcDbEntity
8
0
100
AcDbLine
62
7
6
CONTINUOUS
10
-124.2975018917
20
-169.9644080998
11
-124.2975018917
21
-169.4644080998
0
LINE
5
2D3
100
AcDbEntity
8
0
100
AcDbLine
62
7
6
CONTINUOUS
10
-345.2412491767
20
-70.9644080998
11
-343.5475018917
21
-70.9644080998
0
LINE
5
2D4
100
AcDbEntity
8
0
100
AcDbLine
62
7
6
CONTINUOUS
10
98.1462453932
20
-70.9644080998
11
96.4524981083
21
-70.9644080998
0
LINE
5
2D5
100
AcDbEntity
8
0
100
AcDbLine
62
7
6
CONTINUOUS
10
-120.7975018917
20
-169.9644080998
11
-120.7975018917
21
-169.4644080998
0
LINE
5
2D6
100
AcDbEntity
8
0
100
AcDbLine
62
7
6
CONTINUOUS
10
-120.5475018917
20
-172.1581553848
11
-120.5475018917
21
-170.4644080998
0
LINE
5
2D7
100
AcDbEntity
8
0
100
AcDbLine
62
9
6
CONTINUOUS
10
-118.7975018917
20
-168.9644080998
11
-118.7975018917
21
-170.4644080998
0
LINE
5
2D8
100
AcDbEntity
8
0
100
AcDbLine
62
7
6
CONTINUOUS
10
-118.5475018917
20
-166.9644080998
11
-118.5475018917
21
-166.2144080998
0
LINE
5
2D9
100
AcDbEntity
8
0
100
AcDbLine
62
7
6
CONTINUOUS
10
-114.5475018917
20
-166.9644080998
11
-114.5475018917
21
-166.2144080998
0
LINE
5
2DA
100
AcDbEntity
8
0
100
AcDbLine
62
7
6
CONTINUOUS
10
-112.5475018917
20
-172.1581553848
11
-112.5475018917
21
-170.4644080998
0
LINE
5
2DB
100
AcDbEntity
8
0
100
AcDbLine
62
7
6
CONTINUOUS
10
-130.7741114253
20
-173.1675910178
11
-130.7729330787
21
-173.1541224550
0
LINE
5
2DC
100
AcDbEntity
8
0
100
AcDbLine
62
7
6
CONTINUOUS
10
-129.0475018917
20
-173.4349452729
11
-129.0229330787
21
-173.1541224550
0
LINE
5
2DD
100
AcDbEntity
8
0
100
AcDbLine
62
7
6
CONTINUOUS
10
-118.7741114253
20
-173.1675910178
11
-118.7729330787
21
-173.1541224550
0
LINE
5
2DE
100
AcDbEntity
8
0
100
AcDbLine
62
7
6
CONTINUOUS
10
-117.0475018917
20
-173.4349452729
11
-117.0229330787
21
-173.1541224550
0
LINE
5
2DF
100
AcDbEntity
8
0
100
AcDbLine
62
7
6
CONTINUOUS
10
-346.2372162468
20
-77.1898392868
11
-346.2506848097
21
-77.1910176334
0
LINE
5
2E0
100
AcDbEntity
8
0
100
AcDbLine
62
7
6
CONTINUOUS
10
-346.2372162468
20
-75.4398392868
11
-346.5180390648
21
-75.4644080998
0
LINE
5
2E1
100
AcDbEntity
8
0
100
AcDbLine
62
7
6
CONTINUOUS
10
99.1556810262
20
-77.1910176334
11
99.1422124634
21
-77.1898392868
0
LINE
5
2E2
100
AcDbEntity
8
0
100
AcDbLine
62
7
6
CONTINUOUS
10
99.4230352813
20
-75.4644080998
11
99.1422124634
21
-75.4398392868
0
LINE
5
2E3
100
AcDbEntity
8
0
100
AcDbLine
62
9
6
CONTINUOUS
10
-343.5475018917
20
-11.4644080998
11
-341.5475018917
21
-11.4644080998
0
LINE
5
2E4
100
AcDbEntity
8
0
100
AcDbLine
62
9
6
CONTINUOUS
10
96.4524981083
20
-11.4644080998
11
94.4524981083
21
-11.4644080998
0
LINE
5
2E5
100
AcDbEntity
8
0
100
AcDbLine
62
7
6
CONTINUOUS
10
-343.5475018917
20
-8.9644080998
11
-341.5475018917
21
-8.9644080998
0
LINE
5
2E6
100
AcDbEntity
8
0
100
AcDbLine
62
7
6
CONTINUOUS
10
96.4524981083
20
-8.9644080998
11
94.4524981083
21
-8.9644080998
0
LINE
5
2E7
100
AcDbEntity
8
0
100
AcDbLine
62
7
6
CONTINUOUS
10
-26.0720707048
20
-173.1541224550
11
-26.0475018917
21
-173.4349452729
0
LINE
5
2E8
100
AcDbEntity
8
0
100
AcDbLine
62
7
6
CONTINUOUS
10
-24.3220707048
20
-173.1541224550
11
-24.3208923582
21
-173.1675910178
0
LINE
5
2E9
100
AcDbEntity
8
0
100
AcDbLine
62
7
6
CONTINUOUS
10
-14.0720707048
20
-173.1541224550
11
-14.0475018917
21
-173.4349452729
0
LINE
5
2EA
100
AcDbEntity
8
0
100
AcDbLine
62
7
6
CONTINUOUS
10
-12.3220707048
20
-173.1541224550
11
-12.3208923582
21
-173.1675910178
0
LINE
5
2EB
100
AcDbEntity
8
0
100
AcDbLine
62
7
6
CONTINUOUS
10
-30.5475018917
20
-172.1581553848
11
-30.5475018917
21
-170.4644080998
0
LINE
5
2EC
100
AcDbEntity
8
0
100
AcDbLine
62
7
6
CONTINUOUS
10
-28.5475018917
20
-166.9644080998
11
-28.5475018917
21
-166.2144080998
0
LINE
5
2ED
100
AcDbEntity
8
0
100
AcDbLine
62
7
6
CONTINUOUS
10
-24.5475018917
20
-166.9644080998
11
-24.5475018917
21
-166.2144080998
0
LINE
5
2EE
100
AcDbEntity
8
0
100
AcDbLine
62
9
6
CONTINUOUS
10
-24.2975018917
20
-168.9644080998
11
-24.2975018917
21
-170.4644080998
0
LINE
5
2EF
100
AcDbEntity
8
0
100
AcDbLine
62
7
6
CONTINUOUS
10
-22.5475018917
20
-172.1581553848
11
-22.5475018917
21
-170.4644080998
0
LINE
5
2F0
100
AcDbEntity
8
0
100
AcDbLine
62
7
6
CONTINUOUS
10
-22.2975018917
20
-169.9644080998
11
-22.2975018917
21
-169.4644080998
0
LINE
5
2F1
100
AcDbEntity
8
0
100
AcDbLine
62
7
6
CONTINUOUS
10
-18.7975018917
20
-169.9644080998
11
-18.7975018917
21
-169.4644080998
0
LINE
5
2F2
100
AcDbEntity
8
0
100
AcDbLine
62
7
6
CONTINUOUS
10
-18.5475018917
20
-172.1581553848
11
-18.5475018917
21
-170.4644080998
0
LINE
5
2F3
100
AcDbEntity
8
0
100
AcDbLine
62
9
6
CONTINUOUS
10
-16.7975018917
20
-168.9644080998
11
-16.7975018917
21
-170.4644080998
0
LINE
5
2F4
100
AcDbEntity
8
0
100
AcDbLine
62
7
6
CONTINUOUS
10
-16.5475018917
20
-166.9644080998
11
-16.5475018917
21
-166.2144080998
0
LINE
5
2F5
100
AcDbEntity
8
0
100
AcDbLine
62
7
6
CONTINUOUS
10
-28.7741114253
20
-173.1675910178
11
-28.7729330787
21
-173.1541224550
0
LINE
5
2F6
100
AcDbEntity
8
0
100
AcDbLine
62
7
6
CONTINUOUS
10
-27.0475018917
20
-173.4349452729
11
-27.0229330787
21
-173.1541224550
0
LINE
5
2F7
100
AcDbEntity
8
0
100
AcDbLine
62
7
6
CONTINUOUS
10
-12.5475018917
20
-166.9644080998
11
-12.5475018917
21
-166.2144080998
0
LINE
5
2F8
100
AcDbEntity
8
0
100
AcDbLine
62
7
6
CONTINUOUS
10
-10.5475018917
20
-172.1581553848
11
-10.5475018917
21
-170.4644080998
0
LINE
5
2F9
100
AcDbEntity
8
0
100
AcDbLine
62
7
6
CONTINUOUS
10
-16.7741114253
20
-173.1675910178
11
-16.7729330787
21
-173.1541224550
0
LINE
5
2FA
100
AcDbEntity
8
0
100
AcDbLine
62
7
6
CONTINUOUS
10
-15.0475018917
20
-173.4349452729
11
-15.0229330787
21
-173.1541224550
0
LINE
5
2FB
100
AcDbEntity
8
0
100
AcDbLine
62
3
6
CONTINUOUS
10
93.9524981083
20
54.0355919002
11
90.2044008632
21
54.0355919002
0
LINE
5
2FC
100
AcDbEntity
8
0
100
AcDbLine
62
9
6
CONTINUOUS
10
-337.2984532692
20
54.0355919002
11
90.2034494857
21
54.0355919002
0
LINE
5
2FD
100
AcDbEntity
8
0
100
AcDbLine
62
3
6
CONTINUOUS
10
-337.2994046466
20
54.0355919002
11
-341.0475018917
21
54.0355919002
0
LINE
5
2FE
100
AcDbEntity
8
0
100
AcDbLine
62
7
6
CONTINUOUS
10
91.4524981083
20
54.5355919002
11
90.2044008632
21
54.5355919002
0
LINE
5
2FF
100
AcDbEntity
8
0
100
AcDbLine
62
7
6
CONTINUOUS
10
-337.2994046466
20
54.5355919002
11
-338.5475018917
21
54.5355919002
0
LINE
5
300
100
AcDbEntity
8
0
100
AcDbLine
62
3
6
CONTINUOUS
10
91.4524981083
20
56.5355919002
11
-338.5475018917
21
56.5355919002
0
LINE
5
301
100
AcDbEntity
8
0
100
AcDbLine
62
7
6
CONTINUOUS
10
75.9279292952
20
-173.1541224550
11
75.9524981083
21
-173.4349452729
0
LINE
5
302
100
AcDbEntity
8
0
100
AcDbLine
62
7
6
CONTINUOUS
10
77.6779292952
20
-173.1541224550
11
77.6791076418
21
-173.1675910178
0
LINE
5
303
100
AcDbEntity
8
0
100
AcDbLine
62
7
6
CONTINUOUS
10
71.4524981083
20
-172.1581553848
11
71.4524981083
21
-170.4644080998
0
LINE
5
304
100
AcDbEntity
8
0
100
AcDbLine
62
7
6
CONTINUOUS
10
73.4524981083
20
-166.9644080998
11
73.4524981083
21
-166.2144080998
0
LINE
5
305
100
AcDbEntity
8
0
100
AcDbLine
62
3
6
CONTINUOUS
10
76.2024981083
20
-163.9644080998
11
76.2024981083
21
-166.1565349032
0
LINE
5
306
100
AcDbEntity
8
0
100
AcDbLine
62
7
6
CONTINUOUS
10
77.4524981083
20
-166.9644080998
11
77.4524981083
21
-163.9644080998
0
LINE
5
307
100
AcDbEntity
8
0
100
AcDbLine
62
9
6
CONTINUOUS
10
77.7024981083
20
-168.9644080998
11
77.7024981083
21
-170.4644080998
0
LINE
5
308
100
AcDbEntity
8
0
100
AcDbLine
62
3
6
CONTINUOUS
10
79.2024981083
20
-163.9644080998
11
79.2024981083
21
-166.2144080998
0
LINE
5
309
100
AcDbEntity
8
0
100
AcDbLine
62
7
6
CONTINUOUS
10
79.4524981083
20
-172.1581553848
11
79.4524981083
21
-170.4644080998
0
LINE
5
30A
100
AcDbEntity
8
0
100
AcDbLine
62
7
6
CONTINUOUS
10
79.7024981083
20
-169.9644080998
11
79.7024981083
21
-169.4644080998
0
LINE
5
30B
100
AcDbEntity
8
0
100
AcDbLine
62
7
6
CONTINUOUS
10
80.5024981083
20
-168.9644080998
11
80.5024981083
21
-170.4644080998
0
LINE
5
30C
100
AcDbEntity
8
0
100
AcDbLine
62
7
6
CONTINUOUS
10
80.5024981083
20
-176.9310201215
11
80.5024981083
21
-177.4310201215
0
LINE
5
30D
100
AcDbEntity
8
0
100
AcDbLine
62
7
6
CONTINUOUS
10
82.0024981083
20
-170.4644080998
11
82.0024981083
21
-171.3857518683
0
LINE
5
30E
100
AcDbEntity
8
0
100
AcDbLine
62
7
6
CONTINUOUS
10
87.4024981083
20
-170.4644080998
11
87.4024981083
21
-171.3857518683
0
LINE
5
30F
100
AcDbEntity
8
0
100
AcDbLine
62
9
6
CONTINUOUS
10
88.4524981083
20
-166.9644080998
11
88.4524981083
21
-168.9644080998
0
LINE
5
310
100
AcDbEntity
8
0
100
AcDbLine
62
7
6
CONTINUOUS
10
88.9024981083
20
-168.9644080998
11
88.9024981083
21
-170.4644080998
0
LINE
5
311
100
AcDbEntity
8
0
100
AcDbLine
62
7
6
CONTINUOUS
10
88.9024981083
20
-176.9310201215
11
88.9024981083
21
-177.4310201215
0
LINE
5
312
100
AcDbEntity
8
0
100
AcDbLine
62
3
6
CONTINUOUS
10
90.2024981083
20
-163.9644080998
11
90.2024981083
21
-166.2144080998
0
LINE
5
313
100
AcDbEntity
8
0
100
AcDbLine
62
9
6
CONTINUOUS
10
91.2024981083
20
-163.9644080998
11
91.2024981083
21
54.0355919002
0
LINE
5
314
100
AcDbEntity
8
0
100
AcDbLine
62
7
6
CONTINUOUS
10
91.4524981083
20
54.5355919002
11
91.4524981083
21
56.5355919002
0
LINE
5
315
100
AcDbEntity
8
0
100
AcDbLine
62
7
6
CONTINUOUS
10
91.4524981083
20
-163.9644080998
11
91.4524981083
21
-168.9644080998
0
LINE
5
316
100
AcDbEntity
8
0
100
AcDbLine
62
7
6
CONTINUOUS
10
73.2258885747
20
-173.1675910178
11
73.2270669213
21
-173.1541224550
0
LINE
5
317
100
AcDbEntity
8
0
100
AcDbLine
62
7
6
CONTINUOUS
10
74.9524981083
20
-173.4349452729
11
74.9770669213
21
-173.1541224550
0
LINE
5
318
100
AcDbEntity
8
0
100
AcDbLine
62
3
6
CONTINUOUS
10
93.9524981083
20
-163.9644080998
11
93.9524981083
21
54.0355919002
0
LINE
5
319
100
AcDbEntity
8
0
100
AcDbLine
62
3
6
CONTINUOUS
10
94.4524981083
20
-8.9644080998
11
94.4524981083
21
-161.4644080998
0
LINE
5
31A
100
AcDbEntity
8
0
100
AcDbLine
62
7
6
CONTINUOUS
10
96.4524981083
20
-8.9644080998
11
96.4524981083
21
-161.4644080998
0
LINE
5
31B
100
AcDbEntity
8
0
100
AcDbLine
62
9
6
CONTINUOUS
10
96.9524981083
20
-163.9644080998
11
96.9524981083
21
-161.9644080998
0
LINE
5
31C
100
AcDbEntity
8
0
100
AcDbLine
62
9
6
CONTINUOUS
10
98.1462453932
20
-70.9644080998
11
98.1462453932
21
-78.9644080998
0
LINE
5
31D
100
AcDbEntity
8
0
100
AcDbLine
62
9
6
CONTINUOUS
10
98.1462453932
20
-140.9644080998
11
98.1462453932
21
-148.9644080998
0
LINE
5
31E
100
AcDbEntity
8
0
100
AcDbLine
62
9
6
CONTINUOUS
10
98.5958545986
20
-71.2456580998
11
98.5958545986
21
-78.6831580998
0
LINE
5
31F
100
AcDbEntity
8
0
100
AcDbLine
62
9
6
CONTINUOUS
10
98.5958545986
20
-141.2456580998
11
98.5958545986
21
-148.6831580998
0
LINE
5
320
100
AcDbEntity
8
0
100
AcDbLine
62
9
6
CONTINUOUS
10
114.9524981083
20
-161.9644080998
11
114.9524981083
21
-163.9644080998
0
LINE
5
321
100
AcDbEntity
8
0
100
AcDbLine
62
7
6
CONTINUOUS
10
117.4524981083
20
-161.9644080998
11
117.4524981083
21
-163.9644080998
0
LINE
5
322
100
AcDbEntity
8
0
100
AcDbLine
62
7
6
CONTINUOUS
10
-490.5419583481
20
-177.4310201215
11
-498.9419583481
21
-177.4310201215
0
LINE
5
323
100
AcDbEntity
8
0
100
AcDbLine
62
7
6
CONTINUOUS
10
-490.5419583481
20
-176.9310201215
11
-498.9419583481
21
-176.9310201215
0
LINE
5
324
100
AcDbEntity
8
0
100
AcDbLine
62
9
6
CONTINUOUS
10
-463.3232083767
20
-172.6077646040
11
-470.7607083194
21
-172.6077646040
0
LINE
5
325
100
AcDbEntity
8
0
100
AcDbLine
62
9
6
CONTINUOUS
10
-491.8232083767
20
-172.6077646040
11
-499.2607083194
21
-172.6077646040
0
LINE
5
326
100
AcDbEntity
8
0
100
AcDbLine
62
9
6
CONTINUOUS
10
-463.0419583482
20
-172.1581553885
11
-471.0419583479
21
-172.1581553885
0
LINE
5
327
100
AcDbEntity
8
0
100
AcDbLine
62
9
6
CONTINUOUS
10
-491.5419583482
20
-172.1581553885
11
-499.5419583479
21
-172.1581553885
0
LINE
5
328
100
AcDbEntity
8
0
100
AcDbLine
62
9
6
CONTINUOUS
10
-492.0419583481
20
-171.3857518683
11
-497.4419583481
21
-171.3857518683
0
LINE
5
329
100
AcDbEntity
8
0
100
AcDbLine
62
7
6
CONTINUOUS
10
-462.2919583481
20
-170.4644080998
11
-500.2919583481
21
-170.4644080998
0
LINE
5
32A
100
AcDbEntity
8
0
100
AcDbLine
62
9
6
CONTINUOUS
10
-498.9419583481
20
-170.1644080998
11
-490.5419583481
21
-170.1644080998
0
LINE
5
32B
100
AcDbEntity
8
0
100
AcDbLine
62
9
6
CONTINUOUS
10
-461.7919583481
20
-169.9644080998
11
-500.7919583481
21
-169.9644080998
0
LINE
5
32C
100
AcDbEntity
8
0
100
AcDbLine
62
9
6
CONTINUOUS
10
-500.7919583481
20
-169.4644080998
11
-461.7919583481
21
-169.4644080998
0
LINE
5
32D
100
AcDbEntity
8
0
100
AcDbLine
62
3
6
CONTINUOUS
10
-463.7919583481
20
-168.9644080998
11
-500.7919583481
21
-168.9644080998
0
LINE
5
32E
100
AcDbEntity
8
0
100
AcDbLine
62
7
6
CONTINUOUS
10
-500.7919583481
20
-166.9644080998
11
-463.7919583481
21
-166.9644080998
0
LINE
5
32F
100
AcDbEntity
8
0
100
AcDbLine
62
9
6
CONTINUOUS
10
-461.2919583481
20
-166.4644080998
11
-463.2919583481
21
-166.4644080998
0
LINE
5
330
100
AcDbEntity
8
0
100
AcDbLine
62
3
6
CONTINUOUS
10
-500.9419583481
20
-166.2144080998
11
-490.8919583481
21
-166.2144080998
0
LINE
5
331
100
AcDbEntity
8
0
100
AcDbLine
62
7
6
CONTINUOUS
10
-500.9419583481
20
-164.2144080998
11
-490.8919583481
21
-164.2144080998
0
LINE
5
332
100
AcDbEntity
8
0
100
AcDbLine
62
3
6
CONTINUOUS
10
-458.7919583481
20
-163.9644080998
11
-503.1919583481
21
-163.9644080998
0
LINE
5
333
100
AcDbEntity
8
0
100
AcDbLine
62
7
6
CONTINUOUS
10
-503.1919583481
20
-161.9644080998
11
-458.7919583481
21
-161.9644080998
0
LINE
5
334
100
AcDbEntity
8
0
100
AcDbLine
62
9
6
CONTINUOUS
10
-503.1919583481
20
-161.4644080998
11
-458.7919583481
21
-161.4644080998
0
LINE
5
335
100
AcDbEntity
8
0
100
AcDbLine
62
7
6
CONTINUOUS
10
-482.2919583481
20
-154.1644080998
11
-478.2919583481
21
-154.1644080998
0
LINE
5
336
100
AcDbEntity
8
0
100
AcDbLine
62
7
6
CONTINUOUS
10
-479.9643580118
20
-147.0420084361
11
-480.6195586844
21
-147.0420084361
0
LINE
5
337
100
AcDbEntity
8
0
100
AcDbLine
62
7
6
CONTINUOUS
10
-478.2143580118
20
-145.2920084361
11
-479.9643580118
21
-145.2920084361
0
LINE
5
338
100
AcDbEntity
8
0
100
AcDbLine
62
7
6
CONTINUOUS
10
-480.6195586844
20
-145.2920084361
11
-482.3695586844
21
-145.2920084361
0
LINE
5
339
100
AcDbEntity
8
0
100
AcDbLine
62
7
6
CONTINUOUS
10
-482.3695586844
20
-144.6368077635
11
-480.6195586844
21
-144.6368077635
0
LINE
5
33A
100
AcDbEntity
8
0
100
AcDbLine
62
7
6
CONTINUOUS
10
-479.9643580118
20
-144.6368077635
11
-478.2143580118
21
-144.6368077635
0
LINE
5
33B
100
AcDbEntity
8
0
100
AcDbLine
62
7
6
CONTINUOUS
10
-480.6195586844
20
-142.8868077635
11
-479.9643580118
21
-142.8868077635
0
LINE
5
33C
100
AcDbEntity
8
0
100
AcDbLine
62
7
6
CONTINUOUS
10
-479.9643580118
20
-147.0420084361
11
-479.8165271611
21
-147.1898392868
0
LINE
5
33D
100
AcDbEntity
8
0
100
AcDbLine
62
7
6
CONTINUOUS
10
-482.3695586844
20
-144.6368077635
11
-482.5173895350
21
-144.4889769129
0
LINE
5
33E
100
AcDbEntity
8
0
100
AcDbLine
62
7
6
CONTINUOUS
10
-479.9643580118
20
-145.2920084361
11
-479.7919583481
21
-145.4644080998
0
LINE
5
33F
100
AcDbEntity
8
0
100
AcDbLine
62
7
6
CONTINUOUS
10
-480.6195586844
20
-144.6368077635
11
-480.7919583481
21
-144.4644080998
0
LINE
5
340
100
AcDbEntity
8
0
100
AcDbLine
62
7
6
CONTINUOUS
10
-478.2143580118
20
-145.2920084361
11
-478.0665271611
21
-145.4398392868
0
LINE
5
341
100
AcDbEntity
8
0
100
AcDbLine
62
7
6
CONTINUOUS
10
-480.6195586844
20
-142.8868077635
11
-480.7673895350
21
-142.7389769129
0
LINE
5
342
100
AcDbEntity
8
0
100
AcDbLine
62
7
6
CONTINUOUS
10
-495.0665271611
20
-173.1541224550
11
-495.0419583481
21
-173.4349452729
0
LINE
5
343
100
AcDbEntity
8
0
100
AcDbLine
62
7
6
CONTINUOUS
10
-478.2919583481
20
-90.1644080998
11
-482.2919583481
21
-90.1644080998
0
LINE
5
344
100
AcDbEntity
8
0
100
AcDbLine
62
7
6
CONTINUOUS
10
-482.2919583481
20
-84.1644080998
11
-478.2919583481
21
-84.1644080998
0
LINE
5
345
100
AcDbEntity
8
0
100
AcDbLine
62
7
6
CONTINUOUS
10
-493.3165271611
20
-173.1541224550
11
-493.3153495196
21
-173.1675829592
0
LINE
5
346
100
AcDbEntity
8
0
100
AcDbLine
62
3
6
CONTINUOUS
10
-503.1919583481
20
-11.4644080998
11
-503.1919583481
21
54.0355919002
0
LINE
5
347
100
AcDbEntity
8
0
100
AcDbLine
62
7
6
CONTINUOUS
10
-503.1919583481
20
-11.4644080998
11
-503.1919583481
21
-163.9644080998
0
LINE
5
348
100
AcDbEntity
8
0
100
AcDbLine
62
9
6
CONTINUOUS
10
-500.9419583481
20
-164.2144080998
11
-500.9419583481
21
-166.2144080998
0
LINE
5
349
100
AcDbEntity
8
0
100
AcDbLine
62
7
6
CONTINUOUS
10
-500.7919583481
20
-169.9644080998
11
-500.7919583481
21
-169.4644080998
0
LINE
5
34A
100
AcDbEntity
8
0
100
AcDbLine
62
7
6
CONTINUOUS
10
-500.7919583481
20
-166.9644080998
11
-500.7919583481
21
-168.9644080998
0
LINE
5
34B
100
AcDbEntity
8
0
100
AcDbLine
62
7
6
CONTINUOUS
10
-500.6919583481
20
54.5355919002
11
-500.6919583481
21
56.5355919002
0
LINE
5
34C
100
AcDbEntity
8
0
100
AcDbLine
62
9
6
CONTINUOUS
10
-500.6919583481
20
-161.9644080998
11
-500.6919583481
21
-163.9644080998
0
LINE
5
34D
100
AcDbEntity
8
0
100
AcDbLine
62
9
6
CONTINUOUS
10
-500.4419583481
20
-8.9644080998
11
-500.4419583481
21
54.0355919002
0
LINE
5
34E
100
AcDbEntity
8
0
100
AcDbLine
62
7
6
CONTINUOUS
10
-499.5419583481
20
-172.1581553885
11
-499.5419583481
21
-170.4644080998
0
LINE
5
34F
100
AcDbEntity
8
0
100
AcDbLine
62
7
6
CONTINUOUS
10
-498.9419583481
20
-177.4310201215
11
-498.9419583481
21
-176.9310201215
0
LINE
5
350
100
AcDbEntity
8
0
100
AcDbLine
62
7
6
CONTINUOUS
10
-498.9419583481
20
-168.9644080998
11
-498.9419583481
21
-170.4644080998
0
LINE
5
351
100
AcDbEntity
8
0
100
AcDbLine
62
9
6
CONTINUOUS
10
-498.7919583481
20
-168.9644080998
11
-498.7919583481
21
-170.4644080998
0
LINE
5
352
100
AcDbEntity
8
0
100
AcDbLine
62
9
6
CONTINUOUS
10
-497.7919583481
20
-166.9644080998
11
-497.7919583481
21
-168.9644080998
0
LINE
5
353
100
AcDbEntity
8
0
100
AcDbLine
62
7
6
CONTINUOUS
10
-497.5419583481
20
-166.9644080998
11
-497.5419583481
21
-166.2144080998
0
LINE
5
354
100
AcDbEntity
8
0
100
AcDbLine
62
7
6
CONTINUOUS
10
-497.4419583481
20
-171.3857518683
11
-497.4419583481
21
-170.4644080998
0
LINE
5
355
100
AcDbEntity
8
0
100
AcDbLine
62
7
6
CONTINUOUS
10
-479.9643580118
20
-77.0420084361
11
-480.6195586844
21
-77.0420084361
0
LINE
5
356
100
AcDbEntity
8
0
100
AcDbLine
62
7
6
CONTINUOUS
10
-493.5419583481
20
-166.9644080998
11
-493.5419583481
21
-166.2144080998
0
LINE
5
357
100
AcDbEntity
8
0
100
AcDbLine
62
7
6
CONTINUOUS
10
-492.0419583481
20
-171.3857518683
11
-492.0419583481
21
-170.4644080998
0
LINE
5
358
100
AcDbEntity
8
0
100
AcDbLine
62
7
6
CONTINUOUS
10
-491.5419583481
20
-172.1581553885
11
-491.5419583481
21
-170.4644080998
0
LINE
5
359
100
AcDbEntity
8
0
100
AcDbLine
62
7
6
CONTINUOUS
10
-490.8919583481
20
-164.2144080998
11
-490.8919583481
21
-166.2144080998
0
LINE
5
35A
100
AcDbEntity
8
0
100
AcDbLine
62
7
6
CONTINUOUS
10
-490.5419583481
20
-177.4310201215
11
-490.5419583481
21
-176.9310201215
0
LINE
5
35B
100
AcDbEntity
8
0
100
AcDbLine
62
7
6
CONTINUOUS
10
-490.5419583481
20
-168.9644080998
11
-490.5419583481
21
-170.4644080998
0
LINE
5
35C
100
AcDbEntity
8
0
100
AcDbLine
62
7
6
CONTINUOUS
10
-497.7685671766
20
-173.1675829592
11
-497.7673895350
21
-173.1541224550
0
LINE
5
35D
100
AcDbEntity
8
0
100
AcDbLine
62
7
6
CONTINUOUS
10
-478.2143580118
20
-75.2920084361
11
-479.9643580118
21
-75.2920084361
0
LINE
5
35E
100
AcDbEntity
8
0
100
AcDbLine
62
7
6
CONTINUOUS
10
-480.6195586844
20
-75.2920084361
11
-482.3695586844
21
-75.2920084361
0
LINE
5
35F
100
AcDbEntity
8
0
100
AcDbLine
62
7
6
CONTINUOUS
10
-482.3695586844
20
-74.6368077635
11
-480.6195586844
21
-74.6368077635
0
LINE
5
360
100
AcDbEntity
8
0
100
AcDbLine
62
7
6
CONTINUOUS
10
-479.9643580118
20
-74.6368077635
11
-478.2143580118
21
-74.6368077635
0
LINE
5
361
100
AcDbEntity
8
0
100
AcDbLine
62
7
6
CONTINUOUS
10
-480.6195586844
20
-72.8868077635
11
-479.9643580118
21
-72.8868077635
0
LINE
5
362
100
AcDbEntity
8
0
100
AcDbLine
62
7
6
CONTINUOUS
10
-479.9643580118
20
-77.0420084361
11
-479.8165271611
21
-77.1898392868
0
LINE
5
363
100
AcDbEntity
8
0
100
AcDbLine
62
7
6
CONTINUOUS
10
-482.3695586844
20
-74.6368077635
11
-482.5173895350
21
-74.4889769129
0
LINE
5
364
100
AcDbEntity
8
0
100
AcDbLine
62
7
6
CONTINUOUS
10
-479.9643580118
20
-75.2920084361
11
-479.7919583481
21
-75.4644080998
0
LINE
5
365
100
AcDbEntity
8
0
100
AcDbLine
62
7
6
CONTINUOUS
10
-480.6195586844
20
-74.6368077635
11
-480.7919583481
21
-74.4644080998
0
LINE
5
366
100
AcDbEntity
8
0
100
AcDbLine
62
7
6
CONTINUOUS
10
-478.2143580118
20
-75.2920084361
11
-478.0665271611
21
-75.4398392868
0
LINE
5
367
100
AcDbEntity
8
0
100
AcDbLine
62
7
6
CONTINUOUS
10
-480.6195586844
20
-72.8868077635
11
-480.7673895350
21
-72.7389769129
0
LINE
5
368
100
AcDbEntity
8
0
100
AcDbLine
62
7
6
CONTINUOUS
10
-482.3695586844
20
-145.2920084361
11
-482.3695586844
21
-144.6368077635
0
LINE
5
369
100
AcDbEntity
8
0
100
AcDbLine
62
7
6
CONTINUOUS
10
-482.3695586844
20
-75.2920084361
11
-482.3695586844
21
-74.6368077635
0
LINE
5
36A
100
AcDbEntity
8
0
100
AcDbLine
62
7
6
CONTINUOUS
10
-482.2919583481
20
-20.1644080998
11
-482.2919583481
21
-71.5008337745
0
LINE
5
36B
100
AcDbEntity
8
0
100
AcDbLine
62
7
6
CONTINUOUS
10
-482.2919583481
20
-78.4274039351
11
-482.2919583481
21
-84.1644080998
0
LINE
5
36C
100
AcDbEntity
8
0
100
AcDbLine
62
7
6
CONTINUOUS
10
-482.2919583481
20
-90.1644080998
11
-482.2919583481
21
-141.5008337745
0
LINE
5
36D
100
AcDbEntity
8
0
100
AcDbLine
62
7
6
CONTINUOUS
10
-482.2919583481
20
-148.4274039351
11
-482.2919583481
21
-154.1644080998
0
LINE
5
36E
100
AcDbEntity
8
0
100
AcDbLine
62
7
6
CONTINUOUS
10
-480.6195586844
20
-147.0420084361
11
-480.6195586844
21
-145.2920084361
0
LINE
5
36F
100
AcDbEntity
8
0
100
AcDbLine
62
7
6
CONTINUOUS
10
-480.6195586844
20
-144.6368077635
11
-480.6195586844
21
-142.8868077635
0
LINE
5
370
100
AcDbEntity
8
0
100
AcDbLine
62
7
6
CONTINUOUS
10
-480.6195586844
20
-77.0420084361
11
-480.6195586844
21
-75.2920084361
0
LINE
5
371
100
AcDbEntity
8
0
100
AcDbLine
62
7
6
CONTINUOUS
10
-480.6195586844
20
-74.6368077635
11
-480.6195586844
21
-72.8868077635
0
LINE
5
372
100
AcDbEntity
8
0
100
AcDbLine
62
7
6
CONTINUOUS
10
-479.9643580118
20
-72.8868077635
11
-479.9643580118
21
-74.6368077635
0
LINE
5
373
100
AcDbEntity
8
0
100
AcDbLine
62
7
6
CONTINUOUS
10
-479.9643580118
20
-75.2920084361
11
-479.9643580118
21
-77.0420084361
0
LINE
5
374
100
AcDbEntity
8
0
100
AcDbLine
62
7
6
CONTINUOUS
10
-479.9643580118
20
-142.8868077635
11
-479.9643580118
21
-144.6368077635
0
LINE
5
375
100
AcDbEntity
8
0
100
AcDbLine
62
7
6
CONTINUOUS
10
-479.9643580118
20
-145.2920084361
11
-479.9643580118
21
-147.0420084361
0
LINE
5
376
100
AcDbEntity
8
0
100
AcDbLine
62
7
6
CONTINUOUS
10
-496.0419583481
20
-173.4349452729
11
-496.0173895350
21
-173.1541224550
0
LINE
5
377
100
AcDbEntity
8
0
100
AcDbLine
62
7
6
CONTINUOUS
10
-466.5665271611
20
-173.1541224550
11
-466.5419583481
21
-173.4349452729
0
LINE
5
378
100
AcDbEntity
8
0
100
AcDbLine
62
7
6
CONTINUOUS
10
-464.8165271611
20
-173.1541224550
11
-464.8153495196
21
-173.1675829592
0
LINE
5
379
100
AcDbEntity
8
0
100
AcDbLine
62
7
6
CONTINUOUS
10
-478.2919583481
20
-154.1644080998
11
-478.2919583481
21
-148.4279824257
0
LINE
5
37A
100
AcDbEntity
8
0
100
AcDbLine
62
7
6
CONTINUOUS
10
-478.2919583481
20
-141.5014122648
11
-478.2919583481
21
-90.1644080998
0
LINE
5
37B
100
AcDbEntity
8
0
100
AcDbLine
62
7
6
CONTINUOUS
10
-478.2919583481
20
-84.1644080998
11
-478.2919583481
21
-78.4279824257
0
LINE
5
37C
100
AcDbEntity
8
0
100
AcDbLine
62
7
6
CONTINUOUS
10
-478.2919583481
20
-71.5014122648
11
-478.2919583481
21
-20.1644080998
0
LINE
5
37D
100
AcDbEntity
8
0
100
AcDbLine
62
7
6
CONTINUOUS
10
-478.2143580118
20
-74.6368077635
11
-478.2143580118
21
-75.2920084361
0
LINE
5
37E
100
AcDbEntity
8
0
100
AcDbLine
62
7
6
CONTINUOUS
10
-478.2143580118
20
-144.6368077635
11
-478.2143580118
21
-145.2920084361
0
LINE
5
37F
100
AcDbEntity
8
0
100
AcDbLine
62
7
6
CONTINUOUS
10
-471.0419583481
20
-172.1581553885
11
-471.0419583481
21
-170.4644080998
0
LINE
5
380
100
AcDbEntity
8
0
100
AcDbLine
62
7
6
CONTINUOUS
10
-469.0419583481
20
-166.9644080998
11
-469.0419583481
21
-163.9644080998
0
LINE
5
381
100
AcDbEntity
8
0
100
AcDbLine
62
7
6
CONTINUOUS
10
-465.0419583481
20
-166.9644080998
11
-465.0419583481
21
-163.9644080998
0
LINE
5
382
100
AcDbEntity
8
0
100
AcDbLine
62
7
6
CONTINUOUS
10
-479.9643580118
20
-72.8868077635
11
-479.8165271611
21
-72.7389769129
0
LINE
5
383
100
AcDbEntity
8
0
100
AcDbLine
62
7
6
CONTINUOUS
10
-482.3695586844
20
-75.2920084361
11
-482.5173895350
21
-75.4398392868
0
LINE
5
384
100
AcDbEntity
8
0
100
AcDbLine
62
7
6
CONTINUOUS
10
-479.9643580118
20
-74.6368077635
11
-479.7919583481
21
-74.4644080998
0
LINE
5
385
100
AcDbEntity
8
0
100
AcDbLine
62
7
6
CONTINUOUS
10
-480.6195586844
20
-75.2920084361
11
-480.7919583481
21
-75.4644080998
0
LINE
5
386
100
AcDbEntity
8
0
100
AcDbLine
62
7
6
CONTINUOUS
10
-478.2143580118
20
-74.6368077635
11
-478.0665271611
21
-74.4889769129
0
LINE
5
387
100
AcDbEntity
8
0
100
AcDbLine
62
7
6
CONTINUOUS
10
-480.6195586844
20
-77.0420084361
11
-480.7673895350
21
-77.1898392868
0
LINE
5
388
100
AcDbEntity
8
0
100
AcDbLine
62
9
6
CONTINUOUS
10
-463.7919583481
20
-166.9644080998
11
-463.7919583481
21
-170.4644080998
0
LINE
5
389
100
AcDbEntity
8
0
100
AcDbLine
62
3
6
CONTINUOUS
10
-463.5419583481
20
54.0355919002
11
-463.5419583481
21
56.5355919002
0
LINE
5
38A
100
AcDbEntity
8
0
100
AcDbLine
62
7
6
CONTINUOUS
10
-463.2919583481
20
-166.4644080998
11
-463.2919583481
21
-163.9644080998
0
LINE
5
38B
100
AcDbEntity
8
0
100
AcDbLine
62
7
6
CONTINUOUS
10
-463.0419583481
20
-172.1581553885
11
-463.0419583481
21
-170.4644080998
0
LINE
5
38C
100
AcDbEntity
8
0
100
AcDbLine
62
7
6
CONTINUOUS
10
-461.7919583481
20
-169.9644080998
11
-461.7919583481
21
-169.4644080998
0
LINE
5
38D
100
AcDbEntity
8
0
100
AcDbLine
62
9
6
CONTINUOUS
10
-461.5419583481
20
-8.9644080998
11
-461.5419583481
21
54.0355919002
0
LINE
5
38E
100
AcDbEntity
8
0
100
AcDbLine
62
7
6
CONTINUOUS
10
-461.5419583481
20
54.0355919002
11
-461.5419583481
21
56.5355919002
0
LINE
5
38F
100
AcDbEntity
8
0
100
AcDbLine
62
3
6
CONTINUOUS
10
-461.2919583481
20
-166.4644080998
11
-461.2919583481
21
-163.9644080998
0
LINE
5
390
100
AcDbEntity
8
0
100
AcDbLine
62
9
6
CONTINUOUS
10
-461.2919583481
20
-161.9644080998
11
-461.2919583481
21
-163.9644080998
0
LINE
5
391
100
AcDbEntity
8
0
100
AcDbLine
62
3
6
CONTINUOUS
10
-458.7919583481
20
54.0355919002
11
-458.7919583481
21
-11.4644080998
0
LINE
5
392
100
AcDbEntity
8
0
100
AcDbLine
62
7
6
CONTINUOUS
10
-458.7919583481
20
-11.4644080998
11
-458.7919583481
21
-163.9644080998
0
LINE
5
393
100
AcDbEntity
8
0
100
AcDbLine
62
7
6
CONTINUOUS
10
-469.2685671766
20
-173.1675829592
11
-469.2673895350
21
-173.1541224550
0
LINE
5
394
100
AcDbEntity
8
0
100
AcDbLine
62
7
6
CONTINUOUS
10
-467.5419583481
20
-173.4349452729
11
-467.5173895350
21
-173.1541224550
0
LINE
5
395
100
AcDbEntity
8
0
100
AcDbLine
62
7
6
CONTINUOUS
10
-478.2919583481
20
-20.1644080998
11
-482.2919583481
21
-20.1644080998
0
LINE
5
396
100
AcDbEntity
8
0
100
AcDbLine
62
7
6
CONTINUOUS
10
-500.6919583481
20
-8.9644080998
11
-461.2919583481
21
-8.9644080998
0
LINE
5
397
100
AcDbEntity
8
0
100
AcDbLine
62
7
6
CONTINUOUS
10
-479.9643580118
20
-142.8868077635
11
-479.8165271611
21
-142.7389769129
0
LINE
5
398
100
AcDbEntity
8
0
100
AcDbLine
62
7
6
CONTINUOUS
10
-482.3695586844
20
-145.2920084361
11
-482.5173895350
21
-145.4398392868
0
LINE
5
399
100
AcDbEntity
8
0
100
AcDbLine
62
7
6
CONTINUOUS
10
-479.9643580118
20
-144.6368077635
11
-479.7919583481
21
-144.4644080998
0
LINE
5
39A
100
AcDbEntity
8
0
100
AcDbLine
62
7
6
CONTINUOUS
10
-480.6195586844
20
-145.2920084361
11
-480.7919583481
21
-145.4644080998
0
LINE
5
39B
100
AcDbEntity
8
0
100
AcDbLine
62
7
6
CONTINUOUS
10
-478.2143580118
20
-144.6368077635
11
-478.0665271611
21
-144.4889769129
0
LINE
5
39C
100
AcDbEntity
8
0
100
AcDbLine
62
7
6
CONTINUOUS
10
-480.6195586844
20
-147.0420084361
11
-480.7673895350
21
-147.1898392868
0
LINE
5
39D
100
AcDbEntity
8
0
100
AcDbLine
62
9
6
CONTINUOUS
10
-500.4419583481
20
54.0355919002
11
-463.5419583481
21
54.0355919002
0
LINE
5
39E
100
AcDbEntity
8
0
100
AcDbLine
62
3
6
CONTINUOUS
10
-458.7919583481
20
54.0355919002
11
-463.5419583481
21
54.0355919002
0
LINE
5
39F
100
AcDbEntity
8
0
100
AcDbLine
62
3
6
CONTINUOUS
10
-500.4419583481
20
54.0355919002
11
-503.1919583481
21
54.0355919002
0
LINE
5
3A0
100
AcDbEntity
8
0
100
AcDbLine
62
7
6
CONTINUOUS
10
-461.5419583481
20
54.5355919002
11
-463.5419583481
21
54.5355919002
0
LINE
5
3A1
100
AcDbEntity
8
0
100
AcDbLine
62
7
6
CONTINUOUS
10
-500.4419583481
20
54.5355919002
11
-500.6919583481
21
54.5355919002
0
LINE
5
3A2
100
AcDbEntity
8
0
100
AcDbLine
62
3
6
CONTINUOUS
10
-461.5419583481
20
56.5355919002
11
-500.6919583481
21
56.5355919002
0
ARC
5
3A3
100
AcDbEntity
8
0
100
AcDbCircle
62
7
6
CONTINUOUS
10
71.9524981083
20
-172.1581553848
40
0.5000000000
100
AcDbArc
50
180.0000000000
51
244.0555202276
0
ARC
5
3A4
100
AcDbEntity
8
0
100
AcDbCircle
62
7
6
CONTINUOUS
10
78.9524981083
20
-172.1581553848
40
0.5000000000
100
AcDbArc
50
295.9444797724
51
360.0000000000
0
ARC
5
3A5
100
AcDbEntity
8
0
100
AcDbCircle
62
7
6
CONTINUOUS
10
75.4524981083
20
-164.9644080998
40
8.5000000000
100
AcDbArc
50
244.0555202276
51
254.8139590375
0
ARC
5
3A6
100
AcDbEntity
8
0
100
AcDbCircle
62
7
6
CONTINUOUS
10
75.4524981083
20
-164.9644080998
40
8.5000000000
100
AcDbArc
50
285.1860409625
51
295.9444797724
0
ARC
5
3A7
100
AcDbEntity
8
0
100
AcDbCircle
62
7
6
CONTINUOUS
10
-132.0475018917
20
-172.1581553848
40
0.5000000000
100
AcDbArc
50
180.0000000000
51
244.0555202276
0
ARC
5
3A8
100
AcDbEntity
8
0
100
AcDbCircle
62
7
6
CONTINUOUS
10
-125.0475018917
20
-172.1581553848
40
0.5000000000
100
AcDbArc
50
295.9444797724
51
360.0000000000
0
ARC
5
3A9
100
AcDbEntity
8
0
100
AcDbCircle
62
7
6
CONTINUOUS
10
-128.5475018917
20
-164.9644080998
40
8.5000000000
100
AcDbArc
50
244.0555202276
51
254.8139590375
0
ARC
5
3AA
100
AcDbEntity
8
0
100
AcDbCircle
62
7
6
CONTINUOUS
10
-128.5475018917
20
-164.9644080998
40
8.5000000000
100
AcDbArc
50
285.1860409625
51
295.9444797724
0
ARC
5
3AB
100
AcDbEntity
8
0
100
AcDbCircle
62
7
6
CONTINUOUS
10
-234.0475018917
20
-172.1581553848
40
0.5000000000
100
AcDbArc
50
180.0000000000
51
244.0555202276
0
ARC
5
3AC
100
AcDbEntity
8
0
100
AcDbCircle
62
7
6
CONTINUOUS
10
-227.0475018917
20
-172.1581553848
40
0.5000000000
100
AcDbArc
50
295.9444797724
51
360.0000000000
0
ARC
5
3AD
100
AcDbEntity
8
0
100
AcDbCircle
62
7
6
CONTINUOUS
10
-230.5475018917
20
-164.9644080998
40
8.5000000000
100
AcDbArc
50
244.0555202276
51
254.8139590375
0
ARC
5
3AE
100
AcDbEntity
8
0
100
AcDbCircle
62
7
6
CONTINUOUS
10
-230.5475018917
20
-164.9644080998
40
8.5000000000
100
AcDbArc
50
285.1860409625
51
295.9444797724
0
ARC
5
3AF
100
AcDbEntity
8
0
100
AcDbCircle
62
7
6
CONTINUOUS
10
-30.0475018917
20
-172.1581553848
40
0.5000000000
100
AcDbArc
50
180.0000000000
51
244.0555202276
0
ARC
5
3B0
100
AcDbEntity
8
0
100
AcDbCircle
62
7
6
CONTINUOUS
10
-23.0475018917
20
-172.1581553848
40
0.5000000000
100
AcDbArc
50
295.9444797724
51
360.0000000000
0
ARC
5
3B1
100
AcDbEntity
8
0
100
AcDbCircle
62
7
6
CONTINUOUS
10
-26.5475018917
20
-164.9644080998
40
8.5000000000
100
AcDbArc
50
244.0555202276
51
254.8139590375
0
ARC
5
3B2
100
AcDbEntity
8
0
100
AcDbCircle
62
7
6
CONTINUOUS
10
-26.5475018917
20
-164.9644080998
40
8.5000000000
100
AcDbArc
50
285.1860409625
51
295.9444797724
0
ARC
5
3B3
100
AcDbEntity
8
0
100
AcDbCircle
62
7
6
CONTINUOUS
10
-345.2412491767
20
-141.4644080998
40
0.5000000000
100
AcDbArc
50
90.0000000000
51
154.0555202276
0
ARC
5
3B4
100
AcDbEntity
8
0
100
AcDbCircle
62
7
6
CONTINUOUS
10
-345.2412491767
20
-148.4644080998
40
0.5000000000
100
AcDbArc
50
205.9444797724
51
270.0000000000
0
ARC
5
3B5
100
AcDbEntity
8
0
100
AcDbCircle
62
7
6
CONTINUOUS
10
-338.0475018917
20
-144.9644080998
40
8.5000000000
100
AcDbArc
50
154.0555202276
51
164.8139590375
0
ARC
5
3B6
100
AcDbEntity
8
0
100
AcDbCircle
62
7
6
CONTINUOUS
10
-338.0475018917
20
-144.9644080998
40
8.5000000000
100
AcDbArc
50
195.1860409625
51
205.9444797724
0
ARC
5
3B7
100
AcDbEntity
8
0
100
AcDbCircle
62
7
6
CONTINUOUS
10
98.1462453932
20
-78.4644080998
40
0.5000000000
100
AcDbArc
50
270.0000000000
51
334.0555202276
0
ARC
5
3B8
100
AcDbEntity
8
0
100
AcDbCircle
62
7
6
CONTINUOUS
10
98.1462453932
20
-71.4644080998
40
0.5000000000
100
AcDbArc
50
25.9444797724
51
90.0000000000
0
ARC
5
3B9
100
AcDbEntity
8
0
100
AcDbCircle
62
7
6
CONTINUOUS
10
90.9524981083
20
-74.9644080998
40
8.5000000000
100
AcDbArc
50
334.0555202276
51
344.8139590375
0
ARC
5
3BA
100
AcDbEntity
8
0
100
AcDbCircle
62
7
6
CONTINUOUS
10
90.9524981083
20
-74.9644080998
40
8.5000000000
100
AcDbArc
50
15.1860409625
51
25.9444797724
0
ARC
5
3BB
100
AcDbEntity
8
0
100
AcDbCircle
62
7
6
CONTINUOUS
10
98.1462453932
20
-148.4644080998
40
0.5000000000
100
AcDbArc
50
270.0000000000
51
334.0555202276
0
ARC
5
3BC
100
AcDbEntity
8
0
100
AcDbCircle
62
7
6
CONTINUOUS
10
98.1462453932
20
-141.4644080998
40
0.5000000000
100
AcDbArc
50
25.9444797724
51
90.0000000000
0
ARC
5
3BD
100
AcDbEntity
8
0
100
AcDbCircle
62
7
6
CONTINUOUS
10
90.9524981083
20
-144.9644080998
40
8.5000000000
100
AcDbArc
50
334.0555202276
51
344.8139590375
0
ARC
5
3BE
100
AcDbEntity
8
0
100
AcDbCircle
62
7
6
CONTINUOUS
10
90.9524981083
20
-144.9644080998
40
8.5000000000
100
AcDbArc
50
15.1860409625
51
25.9444797724
0
ARC
5
3BF
100
AcDbEntity
8
0
100
AcDbCircle
62
7
6
CONTINUOUS
10
-345.2412491767
20
-71.4644080998
40
0.5000000000
100
AcDbArc
50
90.0000000000
51
154.0555202276
0
ARC
5
3C0
100
AcDbEntity
8
0
100
AcDbCircle
62
7
6
CONTINUOUS
10
-345.2412491767
20
-78.4644080998
40
0.5000000000
100
AcDbArc
50
205.9444797724
51
270.0000000000
0
ARC
5
3C1
100
AcDbEntity
8
0
100
AcDbCircle
62
7
6
CONTINUOUS
10
-338.0475018917
20
-74.9644080998
40
8.5000000000
100
AcDbArc
50
154.0555202276
51
164.8139590375
0
ARC
5
3C2
100
AcDbEntity
8
0
100
AcDbCircle
62
7
6
CONTINUOUS
10
-338.0475018917
20
-74.9644080998
40
8.5000000000
100
AcDbArc
50
195.1860409625
51
205.9444797724
0
ARC
5
3C3
100
AcDbEntity
8
0
100
AcDbCircle
62
7
6
CONTINUOUS
10
-324.0475018917
20
-172.1581553848
40
0.5000000000
100
AcDbArc
50
180.0000000000
51
244.0555202276
0
ARC
5
3C4
100
AcDbEntity
8
0
100
AcDbCircle
62
7
6
CONTINUOUS
10
-317.0475018917
20
-172.1581553848
40
0.5000000000
100
AcDbArc
50
295.9444797724
51
360.0000000000
0
ARC
5
3C5
100
AcDbEntity
8
0
100
AcDbCircle
62
7
6
CONTINUOUS
10
-320.5475018917
20
-164.9644080998
40
8.5000000000
100
AcDbArc
50
244.0555202276
51
254.8139590375
0
ARC
5
3C6
100
AcDbEntity
8
0
100
AcDbCircle
62
7
6
CONTINUOUS
10
-320.5475018917
20
-164.9644080998
40
8.5000000000
100
AcDbArc
50
285.1860409625
51
295.9444797724
0
ARC
5
3C7
100
AcDbEntity
8
0
100
AcDbCircle
62
7
6
CONTINUOUS
10
-120.0475018917
20
-172.1581553848
40
0.5000000000
100
AcDbArc
50
180.0000000000
51
244.0555202276
0
ARC
5
3C8
100
AcDbEntity
8
0
100
AcDbCircle
62
7
6
CONTINUOUS
10
-113.0475018917
20
-172.1581553848
40
0.5000000000
100
AcDbArc
50
295.9444797724
51
360.0000000000
0
ARC
5
3C9
100
AcDbEntity
8
0
100
AcDbCircle
62
7
6
CONTINUOUS
10
-116.5475018917
20
-164.9644080998
40
8.5000000000
100
AcDbArc
50
244.0555202276
51
254.8139590375
0
ARC
5
3CA
100
AcDbEntity
8
0
100
AcDbCircle
62
7
6
CONTINUOUS
10
-116.5475018917
20
-164.9644080998
40
8.5000000000
100
AcDbArc
50
285.1860409625
51
295.9444797724
0
ARC
5
3CB
100
AcDbEntity
8
0
100
AcDbCircle
62
7
6
CONTINUOUS
10
-222.0475018917
20
-172.1581553848
40
0.5000000000
100
AcDbArc
50
180.0000000000
51
244.0555202276
0
ARC
5
3CC
100
AcDbEntity
8
0
100
AcDbCircle
62
7
6
CONTINUOUS
10
-215.0475018917
20
-172.1581553848
40
0.5000000000
100
AcDbArc
50
295.9444797724
51
360.0000000000
0
ARC
5
3CD
100
AcDbEntity
8
0
100
AcDbCircle
62
7
6
CONTINUOUS
10
-218.5475018917
20
-164.9644080998
40
8.5000000000
100
AcDbArc
50
244.0555202276
51
254.8139590375
0
ARC
5
3CE
100
AcDbEntity
8
0
100
AcDbCircle
62
7
6
CONTINUOUS
10
-218.5475018917
20
-164.9644080998
40
8.5000000000
100
AcDbArc
50
285.1860409625
51
295.9444797724
0
ARC
5
3CF
100
AcDbEntity
8
0
100
AcDbCircle
62
7
6
CONTINUOUS
10
-18.0475018917
20
-172.1581553848
40
0.5000000000
100
AcDbArc
50
180.0000000000
51
244.0555202276
0
ARC
5
3D0
100
AcDbEntity
8
0
100
AcDbCircle
62
7
6
CONTINUOUS
10
-11.0475018917
20
-172.1581553848
40
0.5000000000
100
AcDbArc
50
295.9444797724
51
360.0000000000
0
ARC
5
3D1
100
AcDbEntity
8
0
100
AcDbCircle
62
7
6
CONTINUOUS
10
-14.5475018917
20
-164.9644080998
40
8.5000000000
100
AcDbArc
50
244.0555202276
51
254.8139590375
0
ARC
5
3D2
100
AcDbEntity
8
0
100
AcDbCircle
62
7
6
CONTINUOUS
10
-14.5475018917
20
-164.9644080998
40
8.5000000000
100
AcDbArc
50
285.1860409625
51
295.9444797724
0
ARC
5
3D3
100
AcDbEntity
8
0
100
AcDbCircle
62
7
6
CONTINUOUS
10
79.2024981083
20
-169.4644080998
40
0.5000000000
100
AcDbArc
50
0.0000000000
51
90.0000000000
0
ARC
5
3D4
100
AcDbEntity
8
0
100
AcDbCircle
62
7
6
CONTINUOUS
10
-18.2975018917
20
-169.9644080998
40
0.5000000000
100
AcDbArc
50
180.0000000000
51
270.0000000000
0
ARC
5
3D5
100
AcDbEntity
8
0
100
AcDbCircle
62
7
6
CONTINUOUS
10
79.2024981083
20
-169.9644080998
40
0.5000000000
100
AcDbArc
50
270.0000000000
51
360.0000000000
0
ARC
5
3D6
100
AcDbEntity
8
0
100
AcDbCircle
62
7
6
CONTINUOUS
10
-22.7975018917
20
-169.4644080998
40
0.5000000000
100
AcDbArc
50
0.0000000000
51
90.0000000000
0
ARC
5
3D7
100
AcDbEntity
8
0
100
AcDbCircle
62
7
6
CONTINUOUS
10
-120.2975018917
20
-169.9644080998
40
0.5000000000
100
AcDbArc
50
180.0000000000
51
270.0000000000
0
ARC
5
3D8
100
AcDbEntity
8
0
100
AcDbCircle
62
7
6
CONTINUOUS
10
-22.7975018917
20
-169.9644080998
40
0.5000000000
100
AcDbArc
50
270.0000000000
51
360.0000000000
0
ARC
5
3D9
100
AcDbEntity
8
0
100
AcDbCircle
62
7
6
CONTINUOUS
10
-124.7975018917
20
-169.4644080998
40
0.5000000000
100
AcDbArc
50
0.0000000000
51
90.0000000000
0
ARC
5
3DA
100
AcDbEntity
8
0
100
AcDbCircle
62
7
6
CONTINUOUS
10
-222.2975018917
20
-169.9644080998
40
0.5000000000
100
AcDbArc
50
180.0000000000
51
270.0000000000
0
ARC
5
3DB
100
AcDbEntity
8
0
100
AcDbCircle
62
7
6
CONTINUOUS
10
-124.7975018917
20
-169.9644080998
40
0.5000000000
100
AcDbArc
50
270.0000000000
51
360.0000000000
0
ARC
5
3DC
100
AcDbEntity
8
0
100
AcDbCircle
62
7
6
CONTINUOUS
10
-226.7975018917
20
-169.4644080998
40
0.5000000000
100
AcDbArc
50
0.0000000000
51
90.0000000000
0
ARC
5
3DD
100
AcDbEntity
8
0
100
AcDbCircle
62
7
6
CONTINUOUS
10
-324.2975018917
20
-169.9644080998
40
0.5000000000
100
AcDbArc
50
180.0000000000
51
270.0000000000
0
ARC
5
3DE
100
AcDbEntity
8
0
100
AcDbCircle
62
7
6
CONTINUOUS
10
-226.7975018917
20
-169.9644080998
40
0.5000000000
100
AcDbArc
50
270.0000000000
51
360.0000000000
0
ARC
5
3DF
100
AcDbEntity
8
0
100
AcDbCircle
62
7
6
CONTINUOUS
10
-338.5475018917
20
54.0355919002
40
0.5000000000
100
AcDbArc
50
90.0000000000
51
180.0000000000
0
ARC
5
3E0
100
AcDbEntity
8
0
100
AcDbCircle
62
7
6
CONTINUOUS
10
91.4524981083
20
54.0355919002
40
0.5000000000
100
AcDbArc
50
0.0000000000
51
90.0000000000
0
ARC
5
3E1
100
AcDbEntity
8
0
100
AcDbCircle
62
7
6
CONTINUOUS
10
96.9524981083
20
-161.4644080998
40
0.5000000000
100
AcDbArc
50
180.0000000000
51
270.0000000000
0
ARC
5
3E2
100
AcDbEntity
8
0
100
AcDbCircle
62
7
6
CONTINUOUS
10
-344.0475018917
20
-161.4644080998
40
0.5000000000
100
AcDbArc
50
270.0000000000
51
360.0000000000
0
ARC
5
3E3
100
AcDbEntity
8
0
100
AcDbCircle
62
3
6
CONTINUOUS
10
-338.5475018917
20
54.0355919002
40
2.5000000000
100
AcDbArc
50
90.0000000000
51
180.0000000000
0
ARC
5
3E4
100
AcDbEntity
8
0
100
AcDbCircle
62
3
6
CONTINUOUS
10
91.4524981083
20
54.0355919002
40
2.5000000000
100
AcDbArc
50
0.0000000000
51
90.0000000000
0
ARC
5
3E5
100
AcDbEntity
8
0
100
AcDbCircle
62
3
6
CONTINUOUS
10
96.9524981083
20
-161.4644080998
40
2.5000000000
100
AcDbArc
50
180.0000000000
51
270.0000000000
0
ARC
5
3E6
100
AcDbEntity
8
0
100
AcDbCircle
62
3
6
CONTINUOUS
10
-344.0475018917
20
-161.4644080998
40
2.5000000000
100
AcDbArc
50
270.0000000000
51
360.0000000000
0
ARC
5
3E7
100
AcDbEntity
8
0
100
AcDbCircle
62
7
6
CONTINUOUS
10
84.7024981083
20
-167.2644080998
40
11.0000000000
100
AcDbArc
50
247.5536494186
51
292.4463505814
0
ARC
5
3E8
100
AcDbEntity
8
0
100
AcDbCircle
62
7
6
CONTINUOUS
10
71.0024981083
20
-171.3857518683
40
11.0000000000
100
AcDbArc
50
329.7273586811
51
360.0000000000
0
ARC
5
3E9
100
AcDbEntity
8
0
100
AcDbCircle
62
7
6
CONTINUOUS
10
98.4024981083
20
-171.3857518683
40
11.0000000000
100
AcDbArc
50
180.0000000000
51
210.2726413189
0
ARC
5
3EA
100
AcDbEntity
8
0
100
AcDbCircle
62
7
6
CONTINUOUS
10
-331.7975018917
20
-167.2644080998
40
11.0000000000
100
AcDbArc
50
247.5536494186
51
292.4463505814
0
ARC
5
3EB
100
AcDbEntity
8
0
100
AcDbCircle
62
7
6
CONTINUOUS
10
-318.0975018917
20
-171.3857518683
40
11.0000000000
100
AcDbArc
50
180.0000000000
51
210.2726413189
0
ARC
5
3EC
100
AcDbEntity
8
0
100
AcDbCircle
62
7
6
CONTINUOUS
10
-345.4975018917
20
-171.3857518683
40
11.0000000000
100
AcDbArc
50
329.7273586811
51
360.0000000000
0
ARC
5
3ED
100
AcDbEntity
8
0
100
AcDbCircle
62
7
6
CONTINUOUS
10
-327.8975018917
20
-170.1644080998
40
0.3000000000
100
AcDbArc
50
270.0000000000
51
360.0000000000
0
ARC
5
3EE
100
AcDbEntity
8
0
100
AcDbCircle
62
7
6
CONTINUOUS
10
-335.6975018917
20
-170.1644080998
40
0.3000000000
100
AcDbArc
50
180.0000000000
51
270.0000000000
0
CIRCLE
5
3EF
100
AcDbEntity
8
0
100
AcDbCircle
62
7
6
CONTINUOUS
10
-480.2919583481
20
-144.9644080998
40
4.0000000000
0
CIRCLE
5
3F0
100
AcDbEntity
8
0
100
AcDbCircle
62
9
6
CONTINUOUS
10
-480.2919583481
20
-144.9644080998
40
3.7187498862
0
CIRCLE
5
3F1
100
AcDbEntity
8
0
100
AcDbCircle
62
7
6
CONTINUOUS
10
-480.2919583481
20
-74.9644080998
40
4.0000000000
0
CIRCLE
5
3F2
100
AcDbEntity
8
0
100
AcDbCircle
62
9
6
CONTINUOUS
10
-480.2919583481
20
-74.9644080998
40
3.7187498862
0
ARC
5
3F3
100
AcDbEntity
8
0
100
AcDbCircle
62
7
6
CONTINUOUS
10
-492.0419583481
20
-172.1581553848
40
0.5000000000
100
AcDbArc
50
295.9444762021
51
360.0000000000
0
ARC
5
3F4
100
AcDbEntity
8
0
100
AcDbCircle
62
7
6
CONTINUOUS
10
-499.0419583481
20
-172.1581553848
40
0.5000000000
100
AcDbArc
50
180.0000000000
51
244.0555237979
0
ARC
5
3F5
100
AcDbEntity
8
0
100
AcDbCircle
62
7
6
CONTINUOUS
10
-495.5419583481
20
-164.9644080998
40
8.5000000000
100
AcDbArc
50
244.0555204376
51
254.7753141612
0
ARC
5
3F6
100
AcDbEntity
8
0
100
AcDbCircle
62
7
6
CONTINUOUS
10
-495.5419583481
20
-164.9644080998
40
8.5000000000
100
AcDbArc
50
285.2246858388
51
295.9444795624
0
ARC
5
3F7
100
AcDbEntity
8
0
100
AcDbCircle
62
7
6
CONTINUOUS
10
-463.5419583481
20
-172.1581553848
40
0.5000000000
100
AcDbArc
50
295.9444762021
51
360.0000000000
0
ARC
5
3F8
100
AcDbEntity
8
0
100
AcDbCircle
62
7
6
CONTINUOUS
10
-470.5419583481
20
-172.1581553848
40
0.5000000000
100
AcDbArc
50
180.0000000000
51
244.0555237979
0
ARC
5
3F9
100
AcDbEntity
8
0
100
AcDbCircle
62
7
6
CONTINUOUS
10
-467.0419583481
20
-164.9644080998
40
8.5000000000
100
AcDbArc
50
244.0555204376
51
254.7753141612
0
ARC
5
3FA
100
AcDbEntity
8
0
100
AcDbCircle
62
7
6
CONTINUOUS
10
-467.0419583481
20
-164.9644080998
40
8.5000000000
100
AcDbArc
50
285.2246858388
51
295.9444795624
0
ARC
5
3FB
100
AcDbEntity
8
0
100
AcDbCircle
62
7
6
CONTINUOUS
10
-462.2919583481
20
-169.4644080998
40
0.5000000000
100
AcDbArc
50
0.0000000000
51
90.0000000000
0
ARC
5
3FC
100
AcDbEntity
8
0
100
AcDbCircle
62
7
6
CONTINUOUS
10
-500.2919583481
20
-169.4644080998
40
0.5000000000
100
AcDbArc
50
104.9990850996
51
180.0000000000
0
ARC
5
3FD
100
AcDbEntity
8
0
100
AcDbCircle
62
7
6
CONTINUOUS
10
-500.2919583481
20
-169.9644080998
40
0.5000000000
100
AcDbArc
50
180.0000000000
51
270.0000000000
0
ARC
5
3FE
100
AcDbEntity
8
0
100
AcDbCircle
62
7
6
CONTINUOUS
10
-462.2919583481
20
-169.9644080998
40
0.5000000000
100
AcDbArc
50
270.0000000000
51
360.0000000000
0
ARC
5
3FF
100
AcDbEntity
8
0
100
AcDbCircle
62
7
6
CONTINUOUS
10
-463.7919583481
20
-166.4644080998
40
0.5000000000
100
AcDbArc
50
270.0000000000
51
360.0000000000
0
ARC
5
400
100
AcDbEntity
8
0
100
AcDbCircle
62
7
6
CONTINUOUS
10
-500.6919583481
20
54.0355919002
40
0.5000000000
100
AcDbArc
50
90.0000000000
51
140.0853745939
0
ARC
5
401
100
AcDbEntity
8
0
100
AcDbCircle
62
7
6
CONTINUOUS
10
-461.2919583481
20
-11.4644080998
40
2.5000000000
100
AcDbArc
50
0.0000000000
51
90.0000000000
0
ARC
5
402
100
AcDbEntity
8
0
100
AcDbCircle
62
7
6
CONTINUOUS
10
-500.6919583481
20
-11.4644080998
40
2.5000000000
100
AcDbArc
50
90.0000000000
51
180.0000000000
0
ARC
5
403
100
AcDbEntity
8
0
100
AcDbCircle
62
3
6
CONTINUOUS
10
-463.7919583481
20
-166.4644080998
40
2.5000000000
100
AcDbArc
50
270.0000000000
51
360.0000000000
0
ARC
5
404
100
AcDbEntity
8
0
100
AcDbCircle
62
3
6
CONTINUOUS
10
-500.6919583481
20
54.0355919002
40
2.5000000000
100
AcDbArc
50
90.0000000000
51
169.9908188866
0
ARC
5
405
100
AcDbEntity
8
0
100
AcDbCircle
62
3
6
CONTINUOUS
10
-500.9419583481
20
-163.9644080998
40
2.2500000000
100
AcDbArc
50
180.0000000000
51
270.0000000000
0
ARC
5
406
100
AcDbEntity
8
0
100
AcDbCircle
62
7
6
CONTINUOUS
10
-508.4419583481
20
-171.3857518683
40
11.0000000000
100
AcDbArc
50
329.7273586811
51
360.0000000000
0
ARC
5
407
100
AcDbEntity
8
0
100
AcDbCircle
62
7
6
CONTINUOUS
10
-494.7419583481
20
-167.2644080998
40
11.0000000000
100
AcDbArc
50
247.5536494186
51
292.4463505814
0
ARC
5
408
100
AcDbEntity
8
0
100
AcDbCircle
62
7
6
CONTINUOUS
10
-481.0419583481
20
-171.3857518683
40
11.0000000000
100
AcDbArc
50
180.0000000000
51
210.2726413189
0
ARC
5
409
100
AcDbEntity
8
0
100
AcDbCircle
62
7
6
CONTINUOUS
10
-490.8419583481
20
-170.1644080998
40
0.3000000000
100
AcDbArc
50
270.0000000000
51
360.0000000000
0
ARC
5
40A
100
AcDbEntity
8
0
100
AcDbCircle
62
7
6
CONTINUOUS
10
-498.6419583481
20
-170.1644080998
40
0.3000000000
100
AcDbArc
50
180.0000000000
51
270.0000000000
0
SPLINE
5
40B
100
AcDbEntity
8
0
100
AcDbSpline
62
7
6
CONTINUOUS
70
0
71
3
72
8
73
4
74
2
42
0.0000001000
43
0.0000001000
44
0.0000000001
12
0.0303406205
22
0.0017817487
32
0.0000000000
13
0.0303342098
23
0.0018898680
33
0.0000000000
40
0.0000000000
40
0.0000000000
40
0.0000000000
40
0.0000000000
40
1.0000000000
40
1.0000000000
40
1.0000000000
40
1.0000000000
10
75.9524981083
20
-173.4349452729
30
0.0000000000
10
75.9626116484
20
-173.4343513566
30
0.0000000000
10
75.9727241581
20
-173.4337394182
30
0.0000000000
10
75.9828355614
20
-173.4331094622
30
0.0000000000
11
75.9524981083
21
-173.4349452729
31
0.0000000000
11
75.9828355614
21
-173.4331094622
31
0.0000000000
0
SPLINE
5
40C
100
AcDbEntity
8
0
100
AcDbSpline
62
7
6
CONTINUOUS
70
0
71
3
72
21
73
17
74
15
42
0.0000001000
43
0.0000001000
44
0.0000000001
12
1.6484890681
22
0.1027034079
32
0.0000000000
13
1.5979121537
23
0.4181373358
33
0.0000000000
40
0.0000000000
40
0.0000000000
40
0.0000000000
40
0.0000000000
40
0.0369060715
40
0.0926630134
40
0.1483481608
40
0.2034529207
40
0.2585148537
40
0.3159406183
40
0.3783435564
40
0.4481638066
40
0.5260965527
40
0.6119007426
40
0.7056043470
40
0.8079258201
40
0.9197254197
40
1.0000000000
40
1.0000000000
40
1.0000000000
40
1.0000000000
10
75.9828355614
20
-173.4331094622
30
0.0000000000
10
76.0031153132
20
-173.4318460024
30
0.0000000000
10
76.0540221275
20
-173.4284917606
30
0.0000000000
10
76.1354699239
20
-173.4223907351
30
0.0000000000
10
76.2268302371
20
-173.4145549154
30
0.0000000000
10
76.3177202815
20
-173.4057762030
30
0.0000000000
10
76.4094643541
20
-173.3959260577
30
0.0000000000
10
76.5050861275
20
-173.3846046516
30
0.0000000000
10
76.6086279754
20
-173.3711253828
30
0.0000000000
10
76.7231659721
20
-173.3547204734
30
0.0000000000
10
76.8501850189
20
-173.3346690597
30
0.0000000000
10
76.9898259540
20
-173.3103494812
30
0.0000000000
10
77.1422111039
20
-173.2810718301
30
0.0000000000
10
77.3080167752
20
-173.2459385991
30
0.0000000000
10
77.4658590559
20
-173.2090558870
30
0.0000000000
10
77.5683747146
20
-173.1830801296
30
0.0000000000
10
77.6111319571
20
-173.1718915299
30
0.0000000000
11
75.9828355614
21
-173.4331094622
31
0.0000000000
11
76.0436608540
21
-173.4291016911
31
0.0000000000
11
76.1354960865
21
-173.4222225702
31
0.0000000000
11
76.2271335901
21
-173.4143629722
31
0.0000000000
11
76.3177273273
21
-173.4056128755
31
0.0000000000
11
76.4081522297
21
-173.3959043592
31
0.0000000000
11
76.5023432181
21
-173.3847523490
31
0.0000000000
11
76.6045503539
21
-173.3714468267
31
0.0000000000
11
76.7187059849
21
-173.3550966687
31
0.0000000000
11
76.8458512945
21
-173.3350253019
31
0.0000000000
11
76.9854706116
21
-173.3107094597
31
0.0000000000
11
77.1374589910
21
-173.2815079935
31
0.0000000000
11
77.3027902587
21
-173.2464752369
31
0.0000000000
11
77.4826034491
21
-173.2044585037
31
0.0000000000
11
77.6111319571
21
-173.1718915299
31
0.0000000000
0
SPLINE
5
40D
100
AcDbEntity
8
0
100
AcDbSpline
62
7
6
CONTINUOUS
70
0
71
3
72
8
73
4
74
2
42
0.0000001000
43
0.0000001000
44
0.0000000001
12
0.0668696985
22
0.0174982821
32
0.0000000000
13
0.0667240952
23
0.0180396434
33
0.0000000000
40
0.0000000000
40
0.0000000000
40
0.0000000000
40
0.0000000000
40
1.0000000000
40
1.0000000000
40
1.0000000000
40
1.0000000000
10
77.6111319571
20
-173.1718915299
30
0.0000000000
10
77.6334218566
20
-173.1660587692
30
0.0000000000
10
77.6556879302
20
-173.1601356694
30
0.0000000000
10
77.6779292952
20
-173.1541224550
30
0.0000000000
11
77.6111319571
21
-173.1718915299
31
0.0000000000
11
77.6779292952
21
-173.1541224550
31
0.0000000000
0
SPLINE
5
40E
100
AcDbEntity
8
0
100
AcDbSpline
62
7
6
CONTINUOUS
70
0
71
3
72
10
73
6
74
4
42
0.0000001000
43
0.0000001000
44
0.0000000001
12
0.9497887726
22
-0.0538569761
32
0.0000000000
13
0.9497887726
23
0.0538569761
33
0.0000000000
40
0.0000000000
40
0.0000000000
40
0.0000000000
40
0.0000000000
40
0.3329543458
40
0.6670456297
40
1.0000000000
40
1.0000000000
40
1.0000000000
40
1.0000000000
10
74.9770669213
20
-173.1541224550
30
0.0000000000
10
75.0824790211
20
-173.1600997597
30
0.0000000000
10
75.2939115353
20
-173.1680922995
30
0.0000000000
10
75.6110846657
20
-173.1680922999
30
0.0000000000
10
75.8225171877
20
-173.1600997601
30
0.0000000000
10
75.9279292952
20
-173.1541224550
30
0.0000000000
11
74.9770669213
21
-173.1541224550
31
0.0000000000
11
75.2935851545
21
-173.1660873474
31
0.0000000000
11
75.6114110387
21
-173.1660873479
31
0.0000000000
11
75.9279292952
21
-173.1541224550
31
0.0000000000
0
SPLINE
5
40F
100
AcDbEntity
8
0
100
AcDbSpline
62
7
6
CONTINUOUS
70
0
71
3
72
8
73
4
74
2
42
0.0000001000
43
0.0000001000
44
0.0000000001
12
0.0667240999
22
-0.0180396447
32
0.0000000000
13
0.0668696937
23
-0.0174982811
33
0.0000000000
40
0.0000000000
40
0.0000000000
40
0.0000000000
40
0.0000000000
40
1.0000000000
40
1.0000000000
40
1.0000000000
40
1.0000000000
10
73.2270669213
20
-173.1541224550
30
0.0000000000
10
73.2493082879
20
-173.1601356698
30
0.0000000000
10
73.2715743615
20
-173.1660587697
30
0.0000000000
10
73.2938642594
20
-173.1718915301
30
0.0000000000
11
73.2270669213
21
-173.1541224550
31
0.0000000000
11
73.2938642594
21
-173.1718915301
31
0.0000000000
0
SPLINE
5
410
100
AcDbEntity
8
0
100
AcDbSpline
62
7
6
CONTINUOUS
70
0
71
3
72
21
73
17
74
15
42
0.0000001000
43
0.0000001000
44
0.0000000001
12
1.5979120239
22
-0.4181373087
32
0.0000000000
13
1.6484891855
23
-0.1027034154
33
0.0000000000
40
0.0000000000
40
0.0000000000
40
0.0000000000
40
0.0000000000
40
0.0796971999
40
0.1910342742
40
0.2930151638
40
0.3865137413
40
0.4722874136
40
0.5504002748
40
0.6205661690
40
0.6832924050
40
0.7409461523
40
0.7961409455
40
0.8513178978
40
0.9071057486
40
0.9629812008
40
1.0000000000
40
1.0000000000
40
1.0000000000
40
1.0000000000
10
73.2938642594
20
-173.1718915301
30
0.0000000000
10
73.3363139641
20
-173.1829996543
30
0.0000000000
10
73.4382730722
20
-173.2088404615
30
0.0000000000
10
73.5953693549
20
-173.2455748202
30
0.0000000000
10
73.7606237276
20
-173.2806317262
30
0.0000000000
10
73.9126889366
20
-173.3098932139
30
0.0000000000
10
74.0522922623
20
-173.3342508506
30
0.0000000000
10
74.1795747287
20
-173.3543824128
30
0.0000000000
10
74.2945714831
20
-173.3708817426
30
0.0000000000
10
74.3986006162
20
-173.3844434765
30
0.0000000000
10
74.4945950280
20
-173.3958213137
30
0.0000000000
10
74.5865752639
20
-173.4057053308
30
0.0000000000
10
74.6776333437
20
-173.4145068600
30
0.0000000000
10
74.7691541892
20
-173.4223614943
30
0.0000000000
10
74.8507851377
20
-173.4284789734
30
0.0000000000
10
74.9018189585
20
-173.4318421431
30
0.0000000000
10
74.9221606552
20
-173.4331094622
30
0.0000000000
11
73.2938642594
21
-173.1718915301
31
0.0000000000
11
73.4214665016
21
-173.2042314009
31
0.0000000000
11
73.6005292401
21
-173.2461023686
31
0.0000000000
11
73.7653020103
21
-173.2810571563
31
0.0000000000
11
73.9169494648
21
-173.3102383025
31
0.0000000000
11
74.0565115878
21
-173.3345887789
31
0.0000000000
11
74.1839448059
21
-173.3547442057
31
0.0000000000
11
74.2986615458
21
-173.3712033740
31
0.0000000000
11
74.4013957963
21
-173.3845963097
31
0.0000000000
11
74.4959593157
21
-173.3958045548
31
0.0000000000
11
74.5866015208
21
-173.4055447942
31
0.0000000000
11
74.6773133215
21
-173.4143128561
31
0.0000000000
11
74.7691194122
21
-173.4221919752
31
0.0000000000
11
74.8611496146
21
-173.4290887833
31
0.0000000000
11
74.9221606552
21
-173.4331094622
31
0.0000000000
0
SPLINE
5
411
100
AcDbEntity
8
0
100
AcDbSpline
62
7
6
CONTINUOUS
70
0
71
3
72
8
73
4
74
2
42
0.0000001000
43
0.0000001000
44
0.0000000001
12
0.0303342100
22
-0.0018898680
32
0.0000000000
13
0.0303406203
23
-0.0017817487
33
0.0000000000
40
0.0000000000
40
0.0000000000
40
0.0000000000
40
0.0000000000
40
1.0000000000
40
1.0000000000
40
1.0000000000
40
1.0000000000
10
74.9221606552
20
-173.4331094622
30
0.0000000000
10
74.9322720585
20
-173.4337394182
30
0.0000000000
10
74.9423845682
20
-173.4343513566
30
0.0000000000
10
74.9524981083
20
-173.4349452729
30
0.0000000000
11
74.9221606552
21
-173.4331094622
31
0.0000000000
11
74.9524981083
21
-173.4349452729
31
0.0000000000
0
SPLINE
5
412
100
AcDbEntity
8
0
100
AcDbSpline
62
7
6
CONTINUOUS
70
0
71
3
72
8
73
4
74
2
42
0.0000001000
43
0.0000001000
44
0.0000000001
12
0.0303406205
22
0.0017817487
32
0.0000000000
13
0.0303342098
23
0.0018898680
33
0.0000000000
40
0.0000000000
40
0.0000000000
40
0.0000000000
40
0.0000000000
40
1.0000000000
40
1.0000000000
40
1.0000000000
40
1.0000000000
10
-128.0475018917
20
-173.4349452729
30
0.0000000000
10
-128.0373883516
20
-173.4343513566
30
0.0000000000
10
-128.0272758419
20
-173.4337394182
30
0.0000000000
10
-128.0171644386
20
-173.4331094622
30
0.0000000000
11
-128.0475018917
21
-173.4349452729
31
0.0000000000
11
-128.0171644386
21
-173.4331094622
31
0.0000000000
0
SPLINE
5
413
100
AcDbEntity
8
0
100
AcDbSpline
62
7
6
CONTINUOUS
70
0
71
3
72
21
73
17
74
15
42
0.0000001000
43
0.0000001000
44
0.0000000001
12
1.6484890681
22
0.1027034079
32
0.0000000000
13
1.5979121537
23
0.4181373358
33
0.0000000000
40
0.0000000000
40
0.0000000000
40
0.0000000000
40
0.0000000000
40
0.0369060715
40
0.0926630134
40
0.1483481608
40
0.2034529207
40
0.2585148537
40
0.3159406183
40
0.3783435564
40
0.4481638066
40
0.5260965527
40
0.6119007426
40
0.7056043470
40
0.8079258201
40
0.9197254197
40
1.0000000000
40
1.0000000000
40
1.0000000000
40
1.0000000000
10
-128.0171644386
20
-173.4331094622
30
0.0000000000
10
-127.9968846868
20
-173.4318460024
30
0.0000000000
10
-127.9459778725
20
-173.4284917606
30
0.0000000000
10
-127.8645300761
20
-173.4223907351
30
0.0000000000
10
-127.7731697629
20
-173.4145549154
30
0.0000000000
10
-127.6822797185
20
-173.4057762030
30
0.0000000000
10
-127.5905356459
20
-173.3959260577
30
0.0000000000
10
-127.4949138725
20
-173.3846046516
30
0.0000000000
10
-127.3913720246
20
-173.3711253828
30
0.0000000000
10
-127.2768340279
20
-173.3547204734
30
0.0000000000
10
-127.1498149811
20
-173.3346690597
30
0.0000000000
10
-127.0101740460
20
-173.3103494812
30
0.0000000000
10
-126.8577888961
20
-173.2810718301
30
0.0000000000
10
-126.6919832248
20
-173.2459385991
30
0.0000000000
10
-126.5341409441
20
-173.2090558870
30
0.0000000000
10
-126.4316252854
20
-173.1830801296
30
0.0000000000
10
-126.3888680429
20
-173.1718915299
30
0.0000000000
11
-128.0171644386
21
-173.4331094622
31
0.0000000000
11
-127.9563391460
21
-173.4291016911
31
0.0000000000
11
-127.8645039135
21
-173.4222225702
31
0.0000000000
11
-127.7728664099
21
-173.4143629722
31
0.0000000000
11
-127.6822726727
21
-173.4056128755
31
0.0000000000
11
-127.5918477703
21
-173.3959043592
31
0.0000000000
11
-127.4976567819
21
-173.3847523490
31
0.0000000000
11
-127.3954496461
21
-173.3714468267
31
0.0000000000
11
-127.2812940151
21
-173.3550966687
31
0.0000000000
11
-127.1541487055
21
-173.3350253019
31
0.0000000000
11
-127.0145293884
21
-173.3107094597
31
0.0000000000
11
-126.8625410090
21
-173.2815079935
31
0.0000000000
11
-126.6972097413
21
-173.2464752369
31
0.0000000000
11
-126.5173965509
21
-173.2044585037
31
0.0000000000
11
-126.3888680429
21
-173.1718915299
31
0.0000000000
0
SPLINE
5
414
100
AcDbEntity
8
0
100
AcDbSpline
62
7
6
CONTINUOUS
70
0
71
3
72
8
73
4
74
2
42
0.0000001000
43
0.0000001000
44
0.0000000001
12
0.0668696985
22
0.0174982821
32
0.0000000000
13
0.0667240952
23
0.0180396434
33
0.0000000000
40
0.0000000000
40
0.0000000000
40
0.0000000000
40
0.0000000000
40
1.0000000000
40
1.0000000000
40
1.0000000000
40
1.0000000000
10
-126.3888680429
20
-173.1718915299
30
0.0000000000
10
-126.3665781434
20
-173.1660587692
30
0.0000000000
10
-126.3443120698
20
-173.1601356694
30
0.0000000000
10
-126.3220707048
20
-173.1541224550
30
0.0000000000
11
-126.3888680429
21
-173.1718915299
31
0.0000000000
11
-126.3220707048
21
-173.1541224550
31
0.0000000000
0
SPLINE
5
415
100
AcDbEntity
8
0
100
AcDbSpline
62
7
6
CONTINUOUS
70
0
71
3
72
10
73
6
74
4
42
0.0000001000
43
0.0000001000
44
0.0000000001
12
0.9497887726
22
-0.0538569761
32
0.0000000000
13
0.9497887726
23
0.0538569761
33
0.0000000000
40
0.0000000000
40
0.0000000000
40
0.0000000000
40
0.0000000000
40
0.3329543458
40
0.6670456297
40
1.0000000000
40
1.0000000000
40
1.0000000000
40
1.0000000000
10
-129.0229330787
20
-173.1541224550
30
0.0000000000
10
-128.9175209789
20
-173.1600997597
30
0.0000000000
10
-128.7060884647
20
-173.1680922995
30
0.0000000000
10
-128.3889153343
20
-173.1680922999
30
0.0000000000
10
-128.1774828123
20
-173.1600997601
30
0.0000000000
10
-128.0720707048
20
-173.1541224550
30
0.0000000000
11
-129.0229330787
21
-173.1541224550
31
0.0000000000
11
-128.7064148455
21
-173.1660873474
31
0.0000000000
11
-128.3885889613
21
-173.1660873479
31
0.0000000000
11
-128.0720707048
21
-173.1541224550
31
0.0000000000
0
SPLINE
5
416
100
AcDbEntity
8
0
100
AcDbSpline
62
7
6
CONTINUOUS
70
0
71
3
72
8
73
4
74
2
42
0.0000001000
43
0.0000001000
44
0.0000000001
12
0.0667240999
22
-0.0180396447
32
0.0000000000
13
0.0668696937
23
-0.0174982811
33
0.0000000000
40
0.0000000000
40
0.0000000000
40
0.0000000000
40
0.0000000000
40
1.0000000000
40
1.0000000000
40
1.0000000000
40
1.0000000000
10
-130.7729330787
20
-173.1541224550
30
0.0000000000
10
-130.7506917121
20
-173.1601356698
30
0.0000000000
10
-130.7284256385
20
-173.1660587697
30
0.0000000000
10
-130.7061357406
20
-173.1718915301
30
0.0000000000
11
-130.7729330787
21
-173.1541224550
31
0.0000000000
11
-130.7061357406
21
-173.1718915301
31
0.0000000000
0
SPLINE
5
417
100
AcDbEntity
8
0
100
AcDbSpline
62
7
6
CONTINUOUS
70
0
71
3
72
21
73
17
74
15
42
0.0000001000
43
0.0000001000
44
0.0000000001
12
1.5979120239
22
-0.4181373087
32
0.0000000000
13
1.6484891855
23
-0.1027034154
33
0.0000000000
40
0.0000000000
40
0.0000000000
40
0.0000000000
40
0.0000000000
40
0.0796971999
40
0.1910342742
40
0.2930151638
40
0.3865137413
40
0.4722874136
40
0.5504002748
40
0.6205661690
40
0.6832924050
40
0.7409461523
40
0.7961409455
40
0.8513178978
40
0.9071057486
40
0.9629812008
40
1.0000000000
40
1.0000000000
40
1.0000000000
40
1.0000000000
10
-130.7061357406
20
-173.1718915301
30
0.0000000000
10
-130.6636860359
20
-173.1829996543
30
0.0000000000
10
-130.5617269278
20
-173.2088404615
30
0.0000000000
10
-130.4046306451
20
-173.2455748202
30
0.0000000000
10
-130.2393762724
20
-173.2806317262
30
0.0000000000
10
-130.0873110634
20
-173.3098932139
30
0.0000000000
10
-129.9477077377
20
-173.3342508506
30
0.0000000000
10
-129.8204252713
20
-173.3543824128
30
0.0000000000
10
-129.7054285169
20
-173.3708817426
30
0.0000000000
10
-129.6013993838
20
-173.3844434765
30
0.0000000000
10
-129.5054049720
20
-173.3958213137
30
0.0000000000
10
-129.4134247361
20
-173.4057053308
30
0.0000000000
10
-129.3223666563
20
-173.4145068600
30
0.0000000000
10
-129.2308458108
20
-173.4223614943
30
0.0000000000
10
-129.1492148623
20
-173.4284789734
30
0.0000000000
10
-129.0981810415
20
-173.4318421431
30
0.0000000000
10
-129.0778393448
20
-173.4331094622
30
0.0000000000
11
-130.7061357406
21
-173.1718915301
31
0.0000000000
11
-130.5785334984
21
-173.2042314009
31
0.0000000000
11
-130.3994707599
21
-173.2461023686
31
0.0000000000
11
-130.2346979897
21
-173.2810571563
31
0.0000000000
11
-130.0830505352
21
-173.3102383025
31
0.0000000000
11
-129.9434884122
21
-173.3345887789
31
0.0000000000
11
-129.8160551941
21
-173.3547442057
31
0.0000000000
11
-129.7013384542
21
-173.3712033740
31
0.0000000000
11
-129.5986042037
21
-173.3845963097
31
0.0000000000
11
-129.5040406843
21
-173.3958045548
31
0.0000000000
11
-129.4133984792
21
-173.4055447942
31
0.0000000000
11
-129.3226866785
21
-173.4143128561
31
0.0000000000
11
-129.2308805878
21
-173.4221919752
31
0.0000000000
11
-129.1388503854
21
-173.4290887833
31
0.0000000000
11
-129.0778393448
21
-173.4331094622
31
0.0000000000
0
SPLINE
5
418
100
AcDbEntity
8
0
100
AcDbSpline
62
7
6
CONTINUOUS
70
0
71
3
72
8
73
4
74
2
42
0.0000001000
43
0.0000001000
44
0.0000000001
12
0.0303342100
22
-0.0018898680
32
0.0000000000
13
0.0303406203
23
-0.0017817487
33
0.0000000000
40
0.0000000000
40
0.0000000000
40
0.0000000000
40
0.0000000000
40
1.0000000000
40
1.0000000000
40
1.0000000000
40
1.0000000000
10
-129.0778393448
20
-173.4331094622
30
0.0000000000
10
-129.0677279415
20
-173.4337394182
30
0.0000000000
10
-129.0576154318
20
-173.4343513566
30
0.0000000000
10
-129.0475018917
20
-173.4349452729
30
0.0000000000
11
-129.0778393448
21
-173.4331094622
31
0.0000000000
11
-129.0475018917
21
-173.4349452729
31
0.0000000000
0
SPLINE
5
419
100
AcDbEntity
8
0
100
AcDbSpline
62
7
6
CONTINUOUS
70
0
71
3
72
8
73
4
74
2
42
0.0000001000
43
0.0000001000
44
0.0000000001
12
0.0303406205
22
0.0017817487
32
0.0000000000
13
0.0303342098
23
0.0018898680
33
0.0000000000
40
0.0000000000
40
0.0000000000
40
0.0000000000
40
0.0000000000
40
1.0000000000
40
1.0000000000
40
1.0000000000
40
1.0000000000
10
-230.0475018917
20
-173.4349452729
30
0.0000000000
10
-230.0373883516
20
-173.4343513566
30
0.0000000000
10
-230.0272758419
20
-173.4337394182
30
0.0000000000
10
-230.0171644386
20
-173.4331094622
30
0.0000000000
11
-230.0475018917
21
-173.4349452729
31
0.0000000000
11
-230.0171644386
21
-173.4331094622
31
0.0000000000
0
SPLINE
5
41A
100
AcDbEntity
8
0
100
AcDbSpline
62
7
6
CONTINUOUS
70
0
71
3
72
21
73
17
74
15
42
0.0000001000
43
0.0000001000
44
0.0000000001
12
1.6484890681
22
0.1027034079
32
0.0000000000
13
1.5979121537
23
0.4181373358
33
0.0000000000
40
0.0000000000
40
0.0000000000
40
0.0000000000
40
0.0000000000
40
0.0369060715
40
0.0926630134
40
0.1483481608
40
0.2034529207
40
0.2585148537
40
0.3159406183
40
0.3783435564
40
0.4481638066
40
0.5260965527
40
0.6119007426
40
0.7056043470
40
0.8079258201
40
0.9197254197
40
1.0000000000
40
1.0000000000
40
1.0000000000
40
1.0000000000
10
-230.0171644386
20
-173.4331094622
30
0.0000000000
10
-229.9968846868
20
-173.4318460024
30
0.0000000000
10
-229.9459778725
20
-173.4284917606
30
0.0000000000
10
-229.8645300761
20
-173.4223907351
30
0.0000000000
10
-229.7731697629
20
-173.4145549154
30
0.0000000000
10
-229.6822797185
20
-173.4057762030
30
0.0000000000
10
-229.5905356459
20
-173.3959260577
30
0.0000000000
10
-229.4949138725
20
-173.3846046516
30
0.0000000000
10
-229.3913720246
20
-173.3711253828
30
0.0000000000
10
-229.2768340279
20
-173.3547204734
30
0.0000000000
10
-229.1498149811
20
-173.3346690597
30
0.0000000000
10
-229.0101740460
20
-173.3103494812
30
0.0000000000
10
-228.8577888961
20
-173.2810718301
30
0.0000000000
10
-228.6919832248
20
-173.2459385991
30
0.0000000000
10
-228.5341409441
20
-173.2090558870
30
0.0000000000
10
-228.4316252854
20
-173.1830801296
30
0.0000000000
10
-228.3888680429
20
-173.1718915299
30
0.0000000000
11
-230.0171644386
21
-173.4331094622
31
0.0000000000
11
-229.9563391460
21
-173.4291016911
31
0.0000000000
11
-229.8645039135
21
-173.4222225702
31
0.0000000000
11
-229.7728664099
21
-173.4143629722
31
0.0000000000
11
-229.6822726727
21
-173.4056128755
31
0.0000000000
11
-229.5918477703
21
-173.3959043592
31
0.0000000000
11
-229.4976567819
21
-173.3847523490
31
0.0000000000
11
-229.3954496461
21
-173.3714468267
31
0.0000000000
11
-229.2812940151
21
-173.3550966687
31
0.0000000000
11
-229.1541487055
21
-173.3350253019
31
0.0000000000
11
-229.0145293884
21
-173.3107094597
31
0.0000000000
11
-228.8625410090
21
-173.2815079935
31
0.0000000000
11
-228.6972097413
21
-173.2464752369
31
0.0000000000
11
-228.5173965509
21
-173.2044585037
31
0.0000000000
11
-228.3888680429
21
-173.1718915299
31
0.0000000000
0
SPLINE
5
41B
100
AcDbEntity
8
0
100
AcDbSpline
62
7
6
CONTINUOUS
70
0
71
3
72
8
73
4
74
2
42
0.0000001000
43
0.0000001000
44
0.0000000001
12
0.0668696985
22
0.0174982821
32
0.0000000000
13
0.0667240952
23
0.0180396434
33
0.0000000000
40
0.0000000000
40
0.0000000000
40
0.0000000000
40
0.0000000000
40
1.0000000000
40
1.0000000000
40
1.0000000000
40
1.0000000000
10
-228.3888680429
20
-173.1718915299
30
0.0000000000
10
-228.3665781434
20
-173.1660587692
30
0.0000000000
10
-228.3443120698
20
-173.1601356694
30
0.0000000000
10
-228.3220707048
20
-173.1541224550
30
0.0000000000
11
-228.3888680429
21
-173.1718915299
31
0.0000000000
11
-228.3220707048
21
-173.1541224550
31
0.0000000000
0
SPLINE
5
41C
100
AcDbEntity
8
0
100
AcDbSpline
62
7
6
CONTINUOUS
70
0
71
3
72
10
73
6
74
4
42
0.0000001000
43
0.0000001000
44
0.0000000001
12
0.9497887726
22
-0.0538569761
32
0.0000000000
13
0.9497887726
23
0.0538569761
33
0.0000000000
40
0.0000000000
40
0.0000000000
40
0.0000000000
40
0.0000000000
40
0.3329543458
40
0.6670456297
40
1.0000000000
40
1.0000000000
40
1.0000000000
40
1.0000000000
10
-231.0229330787
20
-173.1541224550
30
0.0000000000
10
-230.9175209789
20
-173.1600997597
30
0.0000000000
10
-230.7060884647
20
-173.1680922995
30
0.0000000000
10
-230.3889153343
20
-173.1680922999
30
0.0000000000
10
-230.1774828123
20
-173.1600997601
30
0.0000000000
10
-230.0720707048
20
-173.1541224550
30
0.0000000000
11
-231.0229330787
21
-173.1541224550
31
0.0000000000
11
-230.7064148455
21
-173.1660873474
31
0.0000000000
11
-230.3885889613
21
-173.1660873479
31
0.0000000000
11
-230.0720707048
21
-173.1541224550
31
0.0000000000
0
SPLINE
5
41D
100
AcDbEntity
8
0
100
AcDbSpline
62
7
6
CONTINUOUS
70
0
71
3
72
8
73
4
74
2
42
0.0000001000
43
0.0000001000
44
0.0000000001
12
0.0667240999
22
-0.0180396447
32
0.0000000000
13
0.0668696937
23
-0.0174982811
33
0.0000000000
40
0.0000000000
40
0.0000000000
40
0.0000000000
40
0.0000000000
40
1.0000000000
40
1.0000000000
40
1.0000000000
40
1.0000000000
10
-232.7729330787
20
-173.1541224550
30
0.0000000000
10
-232.7506917121
20
-173.1601356698
30
0.0000000000
10
-232.7284256385
20
-173.1660587697
30
0.0000000000
10
-232.7061357406
20
-173.1718915301
30
0.0000000000
11
-232.7729330787
21
-173.1541224550
31
0.0000000000
11
-232.7061357406
21
-173.1718915301
31
0.0000000000
0
SPLINE
5
41E
100
AcDbEntity
8
0
100
AcDbSpline
62
7
6
CONTINUOUS
70
0
71
3
72
21
73
17
74
15
42
0.0000001000
43
0.0000001000
44
0.0000000001
12
1.5979120239
22
-0.4181373087
32
0.0000000000
13
1.6484891855
23
-0.1027034154
33
0.0000000000
40
0.0000000000
40
0.0000000000
40
0.0000000000
40
0.0000000000
40
0.0796971999
40
0.1910342742
40
0.2930151638
40
0.3865137413
40
0.4722874136
40
0.5504002748
40
0.6205661690
40
0.6832924050
40
0.7409461523
40
0.7961409455
40
0.8513178978
40
0.9071057486
40
0.9629812008
40
1.0000000000
40
1.0000000000
40
1.0000000000
40
1.0000000000
10
-232.7061357406
20
-173.1718915301
30
0.0000000000
10
-232.6636860359
20
-173.1829996543
30
0.0000000000
10
-232.5617269278
20
-173.2088404615
30
0.0000000000
10
-232.4046306451
20
-173.2455748202
30
0.0000000000
10
-232.2393762724
20
-173.2806317262
30
0.0000000000
10
-232.0873110634
20
-173.3098932139
30
0.0000000000
10
-231.9477077377
20
-173.3342508506
30
0.0000000000
10
-231.8204252713
20
-173.3543824128
30
0.0000000000
10
-231.7054285169
20
-173.3708817426
30
0.0000000000
10
-231.6013993838
20
-173.3844434765
30
0.0000000000
10
-231.5054049720
20
-173.3958213137
30
0.0000000000
10
-231.4134247361
20
-173.4057053308
30
0.0000000000
10
-231.3223666563
20
-173.4145068600
30
0.0000000000
10
-231.2308458108
20
-173.4223614943
30
0.0000000000
10
-231.1492148623
20
-173.4284789734
30
0.0000000000
10
-231.0981810415
20
-173.4318421431
30
0.0000000000
10
-231.0778393448
20
-173.4331094622
30
0.0000000000
11
-232.7061357406
21
-173.1718915301
31
0.0000000000
11
-232.5785334984
21
-173.2042314009
31
0.0000000000
11
-232.3994707599
21
-173.2461023686
31
0.0000000000
11
-232.2346979897
21
-173.2810571563
31
0.0000000000
11
-232.0830505352
21
-173.3102383025
31
0.0000000000
11
-231.9434884122
21
-173.3345887789
31
0.0000000000
11
-231.8160551941
21
-173.3547442057
31
0.0000000000
11
-231.7013384542
21
-173.3712033740
31
0.0000000000
11
-231.5986042037
21
-173.3845963097
31
0.0000000000
11
-231.5040406843
21
-173.3958045548
31
0.0000000000
11
-231.4133984792
21
-173.4055447942
31
0.0000000000
11
-231.3226866785
21
-173.4143128561
31
0.0000000000
11
-231.2308805878
21
-173.4221919752
31
0.0000000000
11
-231.1388503854
21
-173.4290887833
31
0.0000000000
11
-231.0778393448
21
-173.4331094622
31
0.0000000000
0
SPLINE
5
41F
100
AcDbEntity
8
0
100
AcDbSpline
62
7
6
CONTINUOUS
70
0
71
3
72
8
73
4
74
2
42
0.0000001000
43
0.0000001000
44
0.0000000001
12
0.0303342100
22
-0.0018898680
32
0.0000000000
13
0.0303406203
23
-0.0017817487
33
0.0000000000
40
0.0000000000
40
0.0000000000
40
0.0000000000
40
0.0000000000
40
1.0000000000
40
1.0000000000
40
1.0000000000
40
1.0000000000
10
-231.0778393448
20
-173.4331094622
30
0.0000000000
10
-231.0677279415
20
-173.4337394182
30
0.0000000000
10
-231.0576154318
20
-173.4343513566
30
0.0000000000
10
-231.0475018917
20
-173.4349452729
30
0.0000000000
11
-231.0778393448
21
-173.4331094622
31
0.0000000000
11
-231.0475018917
21
-173.4349452729
31
0.0000000000
0
SPLINE
5
420
100
AcDbEntity
8
0
100
AcDbSpline
62
7
6
CONTINUOUS
70
0
71
3
72
8
73
4
74
2
42
0.0000001000
43
0.0000001000
44
0.0000000001
12
0.0303406205
22
0.0017817487
32
0.0000000000
13
0.0303342098
23
0.0018898680
33
0.0000000000
40
0.0000000000
40
0.0000000000
40
0.0000000000
40
0.0000000000
40
1.0000000000
40
1.0000000000
40
1.0000000000
40
1.0000000000
10
-26.0475018917
20
-173.4349452729
30
0.0000000000
10
-26.0373883516
20
-173.4343513566
30
0.0000000000
10
-26.0272758419
20
-173.4337394182
30
0.0000000000
10
-26.0171644386
20
-173.4331094622
30
0.0000000000
11
-26.0475018917
21
-173.4349452729
31
0.0000000000
11
-26.0171644386
21
-173.4331094622
31
0.0000000000
0
SPLINE
5
421
100
AcDbEntity
8
0
100
AcDbSpline
62
7
6
CONTINUOUS
70
0
71
3
72
21
73
17
74
15
42
0.0000001000
43
0.0000001000
44
0.0000000001
12
1.6484890681
22
0.1027034079
32
0.0000000000
13
1.5979121537
23
0.4181373358
33
0.0000000000
40
0.0000000000
40
0.0000000000
40
0.0000000000
40
0.0000000000
40
0.0369060715
40
0.0926630134
40
0.1483481608
40
0.2034529207
40
0.2585148537
40
0.3159406183
40
0.3783435564
40
0.4481638066
40
0.5260965527
40
0.6119007426
40
0.7056043470
40
0.8079258201
40
0.9197254197
40
1.0000000000
40
1.0000000000
40
1.0000000000
40
1.0000000000
10
-26.0171644386
20
-173.4331094622
30
0.0000000000
10
-25.9968846868
20
-173.4318460024
30
0.0000000000
10
-25.9459778725
20
-173.4284917606
30
0.0000000000
10
-25.8645300761
20
-173.4223907351
30
0.0000000000
10
-25.7731697629
20
-173.4145549154
30
0.0000000000
10
-25.6822797185
20
-173.4057762030
30
0.0000000000
10
-25.5905356459
20
-173.3959260577
30
0.0000000000
10
-25.4949138725
20
-173.3846046516
30
0.0000000000
10
-25.3913720246
20
-173.3711253828
30
0.0000000000
10
-25.2768340279
20
-173.3547204734
30
0.0000000000
10
-25.1498149811
20
-173.3346690597
30
0.0000000000
10
-25.0101740460
20
-173.3103494812
30
0.0000000000
10
-24.8577888961
20
-173.2810718301
30
0.0000000000
10
-24.6919832248
20
-173.2459385991
30
0.0000000000
10
-24.5341409441
20
-173.2090558870
30
0.0000000000
10
-24.4316252854
20
-173.1830801296
30
0.0000000000
10
-24.3888680429
20
-173.1718915299
30
0.0000000000
11
-26.0171644386
21
-173.4331094622
31
0.0000000000
11
-25.9563391460
21
-173.4291016911
31
0.0000000000
11
-25.8645039135
21
-173.4222225702
31
0.0000000000
11
-25.7728664099
21
-173.4143629722
31
0.0000000000
11
-25.6822726727
21
-173.4056128755
31
0.0000000000
11
-25.5918477703
21
-173.3959043592
31
0.0000000000
11
-25.4976567819
21
-173.3847523490
31
0.0000000000
11
-25.3954496461
21
-173.3714468267
31
0.0000000000
11
-25.2812940151
21
-173.3550966687
31
0.0000000000
11
-25.1541487055
21
-173.3350253019
31
0.0000000000
11
-25.0145293884
21
-173.3107094597
31
0.0000000000
11
-24.8625410090
21
-173.2815079935
31
0.0000000000
11
-24.6972097413
21
-173.2464752369
31
0.0000000000
11
-24.5173965509
21
-173.2044585037
31
0.0000000000
11
-24.3888680429
21
-173.1718915299
31
0.0000000000
0
SPLINE
5
422
100
AcDbEntity
8
0
100
AcDbSpline
62
7
6
CONTINUOUS
70
0
71
3
72
8
73
4
74
2
42
0.0000001000
43
0.0000001000
44
0.0000000001
12
0.0668696985
22
0.0174982821
32
0.0000000000
13
0.0667240952
23
0.0180396434
33
0.0000000000
40
0.0000000000
40
0.0000000000
40
0.0000000000
40
0.0000000000
40
1.0000000000
40
1.0000000000
40
1.0000000000
40
1.0000000000
10
-24.3888680429
20
-173.1718915299
30
0.0000000000
10
-24.3665781434
20
-173.1660587692
30
0.0000000000
10
-24.3443120698
20
-173.1601356694
30
0.0000000000
10
-24.3220707048
20
-173.1541224550
30
0.0000000000
11
-24.3888680429
21
-173.1718915299
31
0.0000000000
11
-24.3220707048
21
-173.1541224550
31
0.0000000000
0
SPLINE
5
423
100
AcDbEntity
8
0
100
AcDbSpline
62
7
6
CONTINUOUS
70
0
71
3
72
10
73
6
74
4
42
0.0000001000
43
0.0000001000
44
0.0000000001
12
0.9497887726
22
-0.0538569761
32
0.0000000000
13
0.9497887726
23
0.0538569761
33
0.0000000000
40
0.0000000000
40
0.0000000000
40
0.0000000000
40
0.0000000000
40
0.3329543458
40
0.6670456297
40
1.0000000000
40
1.0000000000
40
1.0000000000
40
1.0000000000
10
-27.0229330787
20
-173.1541224550
30
0.0000000000
10
-26.9175209789
20
-173.1600997597
30
0.0000000000
10
-26.7060884647
20
-173.1680922995
30
0.0000000000
10
-26.3889153343
20
-173.1680922999
30
0.0000000000
10
-26.1774828123
20
-173.1600997601
30
0.0000000000
10
-26.0720707048
20
-173.1541224550
30
0.0000000000
11
-27.0229330787
21
-173.1541224550
31
0.0000000000
11
-26.7064148455
21
-173.1660873474
31
0.0000000000
11
-26.3885889613
21
-173.1660873479
31
0.0000000000
11
-26.0720707048
21
-173.1541224550
31
0.0000000000
0
SPLINE
5
424
100
AcDbEntity
8
0
100
AcDbSpline
62
7
6
CONTINUOUS
70
0
71
3
72
8
73
4
74
2
42
0.0000001000
43
0.0000001000
44
0.0000000001
12
0.0667240999
22
-0.0180396447
32
0.0000000000
13
0.0668696937
23
-0.0174982811
33
0.0000000000
40
0.0000000000
40
0.0000000000
40
0.0000000000
40
0.0000000000
40
1.0000000000
40
1.0000000000
40
1.0000000000
40
1.0000000000
10
-28.7729330787
20
-173.1541224550
30
0.0000000000
10
-28.7506917121
20
-173.1601356698
30
0.0000000000
10
-28.7284256385
20
-173.1660587697
30
0.0000000000
10
-28.7061357406
20
-173.1718915301
30
0.0000000000
11
-28.7729330787
21
-173.1541224550
31
0.0000000000
11
-28.7061357406
21
-173.1718915301
31
0.0000000000
0
SPLINE
5
425
100
AcDbEntity
8
0
100
AcDbSpline
62
7
6
CONTINUOUS
70
0
71
3
72
21
73
17
74
15
42
0.0000001000
43
0.0000001000
44
0.0000000001
12
1.5979120239
22
-0.4181373087
32
0.0000000000
13
1.6484891855
23
-0.1027034154
33
0.0000000000
40
0.0000000000
40
0.0000000000
40
0.0000000000
40
0.0000000000
40
0.0796971999
40
0.1910342742
40
0.2930151638
40
0.3865137413
40
0.4722874136
40
0.5504002748
40
0.6205661690
40
0.6832924050
40
0.7409461523
40
0.7961409455
40
0.8513178978
40
0.9071057486
40
0.9629812008
40
1.0000000000
40
1.0000000000
40
1.0000000000
40
1.0000000000
10
-28.7061357406
20
-173.1718915301
30
0.0000000000
10
-28.6636860359
20
-173.1829996543
30
0.0000000000
10
-28.5617269278
20
-173.2088404615
30
0.0000000000
10
-28.4046306451
20
-173.2455748202
30
0.0000000000
10
-28.2393762724
20
-173.2806317262
30
0.0000000000
10
-28.0873110634
20
-173.3098932139
30
0.0000000000
10
-27.9477077377
20
-173.3342508506
30
0.0000000000
10
-27.8204252713
20
-173.3543824128
30
0.0000000000
10
-27.7054285169
20
-173.3708817426
30
0.0000000000
10
-27.6013993838
20
-173.3844434765
30
0.0000000000
10
-27.5054049720
20
-173.3958213137
30
0.0000000000
10
-27.4134247361
20
-173.4057053308
30
0.0000000000
10
-27.3223666563
20
-173.4145068600
30
0.0000000000
10
-27.2308458108
20
-173.4223614943
30
0.0000000000
10
-27.1492148623
20
-173.4284789734
30
0.0000000000
10
-27.0981810415
20
-173.4318421431
30
0.0000000000
10
-27.0778393448
20
-173.4331094622
30
0.0000000000
11
-28.7061357406
21
-173.1718915301
31
0.0000000000
11
-28.5785334984
21
-173.2042314009
31
0.0000000000
11
-28.3994707599
21
-173.2461023686
31
0.0000000000
11
-28.2346979897
21
-173.2810571563
31
0.0000000000
11
-28.0830505352
21
-173.3102383025
31
0.0000000000
11
-27.9434884122
21
-173.3345887789
31
0.0000000000
11
-27.8160551941
21
-173.3547442057
31
0.0000000000
11
-27.7013384542
21
-173.3712033740
31
0.0000000000
11
-27.5986042037
21
-173.3845963097
31
0.0000000000
11
-27.5040406843
21
-173.3958045548
31
0.0000000000
11
-27.4133984792
21
-173.4055447942
31
0.0000000000
11
-27.3226866785
21
-173.4143128561
31
0.0000000000
11
-27.2308805878
21
-173.4221919752
31
0.0000000000
11
-27.1388503854
21
-173.4290887833
31
0.0000000000
11
-27.0778393448
21
-173.4331094622
31
0.0000000000
0
SPLINE
5
426
100
AcDbEntity
8
0
100
AcDbSpline
62
7
6
CONTINUOUS
70
0
71
3
72
8
73
4
74
2
42
0.0000001000
43
0.0000001000
44
0.0000000001
12
0.0303342100
22
-0.0018898680
32
0.0000000000
13
0.0303406203
23
-0.0017817487
33
0.0000000000
40
0.0000000000
40
0.0000000000
40
0.0000000000
40
0.0000000000
40
1.0000000000
40
1.0000000000
40
1.0000000000
40
1.0000000000
10
-27.0778393448
20
-173.4331094622
30
0.0000000000
10
-27.0677279415
20
-173.4337394182
30
0.0000000000
10
-27.0576154318
20
-173.4343513566
30
0.0000000000
10
-27.0475018917
20
-173.4349452729
30
0.0000000000
11
-27.0778393448
21
-173.4331094622
31
0.0000000000
11
-27.0475018917
21
-173.4349452729
31
0.0000000000
0
SPLINE
5
427
100
AcDbEntity
8
0
100
AcDbSpline
62
7
6
CONTINUOUS
70
0
71
3
72
8
73
4
74
2
42
0.0000001000
43
0.0000001000
44
0.0000000001
12
0.0017817487
22
-0.0303406205
32
0.0000000000
13
0.0018898680
23
-0.0303342098
33
0.0000000000
40
0.0000000000
40
0.0000000000
40
0.0000000000
40
0.0000000000
40
1.0000000000
40
1.0000000000
40
1.0000000000
40
1.0000000000
10
-346.5180390648
20
-145.4644080998
30
0.0000000000
10
-346.5174451485
20
-145.4745216400
30
0.0000000000
10
-346.5168332101
20
-145.4846341496
30
0.0000000000
10
-346.5162032541
20
-145.4947455529
30
0.0000000000
11
-346.5180390648
21
-145.4644080998
31
0.0000000000
11
-346.5162032541
21
-145.4947455529
31
0.0000000000
0
SPLINE
5
428
100
AcDbEntity
8
0
100
AcDbSpline
62
7
6
CONTINUOUS
70
0
71
3
72
21
73
17
74
15
42
0.0000001000
43
0.0000001000
44
0.0000000001
12
0.1027034079
22
-1.6484890681
32
0.0000000000
13
0.4181373358
23
-1.5979121537
33
0.0000000000
40
0.0000000000
40
0.0000000000
40
0.0000000000
40
0.0000000000
40
0.0369060715
40
0.0926630134
40
0.1483481608
40
0.2034529207
40
0.2585148537
40
0.3159406183
40
0.3783435564
40
0.4481638066
40
0.5260965527
40
0.6119007426
40
0.7056043470
40
0.8079258201
40
0.9197254197
40
1.0000000000
40
1.0000000000
40
1.0000000000
40
1.0000000000
10
-346.5162032541
20
-145.4947455529
30
0.0000000000
10
-346.5149397943
20
-145.5150253047
30
0.0000000000
10
-346.5115855525
20
-145.5659321191
30
0.0000000000
10
-346.5054845270
20
-145.6473799155
30
0.0000000000
10
-346.4976487073
20
-145.7387402287
30
0.0000000000
10
-346.4888699949
20
-145.8296302730
30
0.0000000000
10
-346.4790198496
20
-145.9213743457
30
0.0000000000
10
-346.4676984435
20
-146.0169961190
30
0.0000000000
10
-346.4542191747
20
-146.1205379670
30
0.0000000000
10
-346.4378142653
20
-146.2350759637
30
0.0000000000
10
-346.4177628515
20
-146.3620950105
30
0.0000000000
10
-346.3934432731
20
-146.5017359456
30
0.0000000000
10
-346.3641656220
20
-146.6541210954
30
0.0000000000
10
-346.3290323909
20
-146.8199267668
30
0.0000000000
10
-346.2921496789
20
-146.9777690475
30
0.0000000000
10
-346.2661739215
20
-147.0802847062
30
0.0000000000
10
-346.2549853218
20
-147.1230419487
30
0.0000000000
11
-346.5162032541
21
-145.4947455529
31
0.0000000000
11
-346.5121954830
21
-145.5555708455
31
0.0000000000
11
-346.5053163621
21
-145.6474060780
31
0.0000000000
11
-346.4974567641
21
-145.7390435816
31
0.0000000000
11
-346.4887066674
21
-145.8296373189
31
0.0000000000
11
-346.4789981510
21
-145.9200622213
31
0.0000000000
11
-346.4678461408
21
-146.0142532097
31
0.0000000000
11
-346.4545406186
21
-146.1164603454
31
0.0000000000
11
-346.4381904605
21
-146.2306159764
31
0.0000000000
11
-346.4181190938
21
-146.3577612861
31
0.0000000000
11
-346.3938032516
21
-146.4973806032
31
0.0000000000
11
-346.3646017854
21
-146.6493689825
31
0.0000000000
11
-346.3295690288
21
-146.8147002502
31
0.0000000000
11
-346.2875522956
21
-146.9945134406
31
0.0000000000
11
-346.2549853218
21
-147.1230419487
31
0.0000000000
0
SPLINE
5
429
100
AcDbEntity
8
0
100
AcDbSpline
62
7
6
CONTINUOUS
70
0
71
3
72
8
73
4
74
2
42
0.0000001000
43
0.0000001000
44
0.0000000001
12
0.0174982821
22
-0.0668696985
32
0.0000000000
13
0.0180396434
23
-0.0667240952
33
0.0000000000
40
0.0000000000
40
0.0000000000
40
0.0000000000
40
0.0000000000
40
1.0000000000
40
1.0000000000
40
1.0000000000
40
1.0000000000
10
-346.2549853218
20
-147.1230419487
30
0.0000000000
10
-346.2491525611
20
-147.1453318481
30
0.0000000000
10
-346.2432294613
20
-147.1675979217
30
0.0000000000
10
-346.2372162468
20
-147.1898392868
30
0.0000000000
11
-346.2549853218
21
-147.1230419487
31
0.0000000000
11
-346.2372162468
21
-147.1898392868
31
0.0000000000
0
SPLINE
5
42A
100
AcDbEntity
8
0
100
AcDbSpline
62
7
6
CONTINUOUS
70
0
71
3
72
10
73
6
74
4
42
0.0000001000
43
0.0000001000
44
0.0000000001
12
-0.0538569761
22
-0.9497887726
32
0.0000000000
13
0.0538569761
23
-0.9497887726
33
0.0000000000
40
0.0000000000
40
0.0000000000
40
0.0000000000
40
0.0000000000
40
0.3329543458
40
0.6670456297
40
1.0000000000
40
1.0000000000
40
1.0000000000
40
1.0000000000
10
-346.2372162468
20
-144.4889769129
30
0.0000000000
10
-346.2431935516
20
-144.5943890127
30
0.0000000000
10
-346.2511860914
20
-144.8058215269
30
0.0000000000
10
-346.2511860918
20
-145.1229946573
30
0.0000000000
10
-346.2431935520
20
-145.3344271792
30
0.0000000000
10
-346.2372162468
20
-145.4398392868
30
0.0000000000
11
-346.2372162468
21
-144.4889769129
31
0.0000000000
11
-346.2491811393
21
-144.8054951461
31
0.0000000000
11
-346.2491811398
21
-145.1233210303
31
0.0000000000
11
-346.2372162468
21
-145.4398392868
31
0.0000000000
0
SPLINE
5
42B
100
AcDbEntity
8
0
100
AcDbSpline
62
7
6
CONTINUOUS
70
0
71
3
72
8
73
4
74
2
42
0.0000001000
43
0.0000001000
44
0.0000000001
12
-0.0180396447
22
-0.0667240999
32
0.0000000000
13
-0.0174982811
23
-0.0668696937
33
0.0000000000
40
0.0000000000
40
0.0000000000
40
0.0000000000
40
0.0000000000
40
1.0000000000
40
1.0000000000
40
1.0000000000
40
1.0000000000
10
-346.2372162468
20
-142.7389769129
30
0.0000000000
10
-346.2432294617
20
-142.7612182795
30
0.0000000000
10
-346.2491525616
20
-142.7834843531
30
0.0000000000
10
-346.2549853220
20
-142.8057742510
30
0.0000000000
11
-346.2372162468
21
-142.7389769129
31
0.0000000000
11
-346.2549853220
21
-142.8057742510
31
0.0000000000
0
SPLINE
5
42C
100
AcDbEntity
8
0
100
AcDbSpline
62
7
6
CONTINUOUS
70
0
71
3
72
21
73
17
74
15
42
0.0000001000
43
0.0000001000
44
0.0000000001
12
-0.4181373087
22
-1.5979120239
32
0.0000000000
13
-0.1027034154
23
-1.6484891855
33
0.0000000000
40
0.0000000000
40
0.0000000000
40
0.0000000000
40
0.0000000000
40
0.0796971999
40
0.1910342742
40
0.2930151638
40
0.3865137413
40
0.4722874136
40
0.5504002748
40
0.6205661690
40
0.6832924050
40
0.7409461523
40
0.7961409455
40
0.8513178978
40
0.9071057486
40
0.9629812008
40
1.0000000000
40
1.0000000000
40
1.0000000000
40
1.0000000000
10
-346.2549853220
20
-142.8057742510
30
0.0000000000
10
-346.2660934462
20
-142.8482239556
30
0.0000000000
10
-346.2919342534
20
-142.9501830638
30
0.0000000000
10
-346.3286686121
20
-143.1072793465
30
0.0000000000
10
-346.3637255180
20
-143.2725337192
30
0.0000000000
10
-346.3929870058
20
-143.4245989282
30
0.0000000000
10
-346.4173446425
20
-143.5642022538
30
0.0000000000
10
-346.4374762047
20
-143.6914847203
30
0.0000000000
10
-346.4539755345
20
-143.8064814747
30
0.0000000000
10
-346.4675372684
20
-143.9105106077
30
0.0000000000
10
-346.4789151056
20
-144.0065050195
30
0.0000000000
10
-346.4887991227
20
-144.0984852555
30
0.0000000000
10
-346.4976006519
20
-144.1895433353
30
0.0000000000
10
-346.5054552862
20
-144.2810641808
30
0.0000000000
10
-346.5115727653
20
-144.3626951292
30
0.0000000000
10
-346.5149359350
20
-144.4137289501
30
0.0000000000
10
-346.5162032541
20
-144.4340706468
30
0.0000000000
11
-346.2549853220
21
-142.8057742510
31
0.0000000000
11
-346.2873251928
21
-142.9333764932
31
0.0000000000
11
-346.3291961605
21
-143.1124392317
31
0.0000000000
11
-346.3641509482
21
-143.2772120019
31
0.0000000000
11
-346.3933320944
21
-143.4288594563
31
0.0000000000
11
-346.4176825708
21
-143.5684215793
31
0.0000000000
11
-346.4378379976
21
-143.6958547975
31
0.0000000000
11
-346.4542971659
21
-143.8105715373
31
0.0000000000
11
-346.4676901016
21
-143.9133057879
31
0.0000000000
11
-346.4788983467
21
-144.0078693072
31
0.0000000000
11
-346.4886385860
21
-144.0985115124
31
0.0000000000
11
-346.4974066480
21
-144.1892233131
31
0.0000000000
11
-346.5052857671
21
-144.2810294037
31
0.0000000000
11
-346.5121825752
21
-144.3730596061
31
0.0000000000
11
-346.5162032541
21
-144.4340706468
31
0.0000000000
0
SPLINE
5
42D
100
AcDbEntity
8
0
100
AcDbSpline
62
7
6
CONTINUOUS
70
0
71
3
72
8
73
4
74
2
42
0.0000001000
43
0.0000001000
44
0.0000000001
12
-0.0018898680
22
-0.0303342100
32
0.0000000000
13
-0.0017817487
23
-0.0303406203
33
0.0000000000
40
0.0000000000
40
0.0000000000
40
0.0000000000
40
0.0000000000
40
1.0000000000
40
1.0000000000
40
1.0000000000
40
1.0000000000
10
-346.5162032541
20
-144.4340706468
30
0.0000000000
10
-346.5168332101
20
-144.4441820501
30
0.0000000000
10
-346.5174451485
20
-144.4542945597
30
0.0000000000
10
-346.5180390648
20
-144.4644080998
30
0.0000000000
11
-346.5162032541
21
-144.4340706468
31
0.0000000000
11
-346.5180390648
21
-144.4644080998
31
0.0000000000
0
SPLINE
5
42E
100
AcDbEntity
8
0
100
AcDbSpline
62
7
6
CONTINUOUS
70
0
71
3
72
8
73
4
74
2
42
0.0000001000
43
0.0000001000
44
0.0000000001
12
-0.0017817487
22
0.0303406205
32
0.0000000000
13
-0.0018898680
23
0.0303342098
33
0.0000000000
40
0.0000000000
40
0.0000000000
40
0.0000000000
40
0.0000000000
40
1.0000000000
40
1.0000000000
40
1.0000000000
40
1.0000000000
10
99.4230352813
20
-74.4644080998
30
0.0000000000
10
99.4224413651
20
-74.4542945597
30
0.0000000000
10
99.4218294266
20
-74.4441820500
30
0.0000000000
10
99.4211994706
20
-74.4340706468
30
0.0000000000
11
99.4230352813
21
-74.4644080998
31
0.0000000000
11
99.4211994706
21
-74.4340706468
31
0.0000000000
0
SPLINE
5
42F
100
AcDbEntity
8
0
100
AcDbSpline
62
7
6
CONTINUOUS
70
0
71
3
72
21
73
17
74
15
42
0.0000001000
43
0.0000001000
44
0.0000000001
12
-0.1027034079
22
1.6484890681
32
0.0000000000
13
-0.4181373358
23
1.5979121537
33
0.0000000000
40
0.0000000000
40
0.0000000000
40
0.0000000000
40
0.0000000000
40
0.0369060715
40
0.0926630134
40
0.1483481608
40
0.2034529207
40
0.2585148537
40
0.3159406183
40
0.3783435564
40
0.4481638066
40
0.5260965527
40
0.6119007426
40
0.7056043470
40
0.8079258201
40
0.9197254197
40
1.0000000000
40
1.0000000000
40
1.0000000000
40
1.0000000000
10
99.4211994706
20
-74.4340706468
30
0.0000000000
10
99.4199360108
20
-74.4137908949
30
0.0000000000
10
99.4165817691
20
-74.3628840806
30
0.0000000000
10
99.4104807435
20
-74.2814362842
30
0.0000000000
10
99.4026449238
20
-74.1900759710
30
0.0000000000
10
99.3938662114
20
-74.0991859266
30
0.0000000000
10
99.3840160662
20
-74.0074418540
30
0.0000000000
10
99.3726946600
20
-73.9118200806
30
0.0000000000
10
99.3592153912
20
-73.8082782327
30
0.0000000000
10
99.3428104819
20
-73.6937402360
30
0.0000000000
10
99.3227590681
20
-73.5667211892
30
0.0000000000
10
99.2984394897
20
-73.4270802541
30
0.0000000000
10
99.2691618385
20
-73.2746951043
30
0.0000000000
10
99.2340286075
20
-73.1088894329
30
0.0000000000
10
99.1971458954
20
-72.9510471522
30
0.0000000000
10
99.1711701380
20
-72.8485314935
30
0.0000000000
10
99.1599815383
20
-72.8057742510
30
0.0000000000
11
99.4211994706
21
-74.4340706468
31
0.0000000000
11
99.4171916995
21
-74.3732453541
31
0.0000000000
11
99.4103125786
21
-74.2814101217
31
0.0000000000
11
99.4024529807
21
-74.1897726180
31
0.0000000000
11
99.3937028840
21
-74.0991788808
31
0.0000000000
11
99.3839943676
21
-74.0087539784
31
0.0000000000
11
99.3728423574
21
-73.9145629900
31
0.0000000000
11
99.3595368351
21
-73.8123558542
31
0.0000000000
11
99.3431866771
21
-73.6982002232
31
0.0000000000
11
99.3231153103
21
-73.5710549136
31
0.0000000000
11
99.2987994681
21
-73.4314355965
31
0.0000000000
11
99.2695980020
21
-73.2794472172
31
0.0000000000
11
99.2345652453
21
-73.1141159495
31
0.0000000000
11
99.1925485121
21
-72.9343027590
31
0.0000000000
11
99.1599815383
21
-72.8057742510
31
0.0000000000
0
SPLINE
5
430
100
AcDbEntity
8
0
100
AcDbSpline
62
7
6
CONTINUOUS
70
0
71
3
72
8
73
4
74
2
42
0.0000001000
43
0.0000001000
44
0.0000000001
12
-0.0174982821
22
0.0668696985
32
0.0000000000
13
-0.0180396434
23
0.0667240952
33
0.0000000000
40
0.0000000000
40
0.0000000000
40
0.0000000000
40
0.0000000000
40
1.0000000000
40
1.0000000000
40
1.0000000000
40
1.0000000000
10
99.1599815383
20
-72.8057742510
30
0.0000000000
10
99.1541487776
20
-72.7834843515
30
0.0000000000
10
99.1482256779
20
-72.7612182779
30
0.0000000000
10
99.1422124634
20
-72.7389769129
30
0.0000000000
11
99.1599815383
21
-72.8057742510
31
0.0000000000
11
99.1422124634
21
-72.7389769129
31
0.0000000000
0
SPLINE
5
431
100
AcDbEntity
8
0
100
AcDbSpline
62
7
6
CONTINUOUS
70
0
71
3
72
10
73
6
74
4
42
0.0000001000
43
0.0000001000
44
0.0000000001
12
0.0538569761
22
0.9497887726
32
0.0000000000
13
-0.0538569761
23
0.9497887726
33
0.0000000000
40
0.0000000000
40
0.0000000000
40
0.0000000000
40
0.0000000000
40
0.3329543458
40
0.6670456297
40
1.0000000000
40
1.0000000000
40
1.0000000000
40
1.0000000000
10
99.1422124634
20
-75.4398392868
30
0.0000000000
10
99.1481897681
20
-75.3344271870
30
0.0000000000
10
99.1561823079
20
-75.1229946728
30
0.0000000000
10
99.1561823084
20
-74.8058215424
30
0.0000000000
10
99.1481897686
20
-74.5943890204
30
0.0000000000
10
99.1422124634
20
-74.4889769129
30
0.0000000000
11
99.1422124634
21
-75.4398392868
31
0.0000000000
11
99.1541773559
21
-75.1233210536
31
0.0000000000
11
99.1541773563
21
-74.8054951694
31
0.0000000000
11
99.1422124634
21
-74.4889769129
31
0.0000000000
0
SPLINE
5
432
100
AcDbEntity
8
0
100
AcDbSpline
62
7
6
CONTINUOUS
70
0
71
3
72
8
73
4
74
2
42
0.0000001000
43
0.0000001000
44
0.0000000001
12
0.0180396447
22
0.0667240999
32
0.0000000000
13
0.0174982811
23
0.0668696937
33
0.0000000000
40
0.0000000000
40
0.0000000000
40
0.0000000000
40
0.0000000000
40
1.0000000000
40
1.0000000000
40
1.0000000000
40
1.0000000000
10
99.1422124634
20
-77.1898392868
30
0.0000000000
10
99.1482256783
20
-77.1675979202
30
0.0000000000
10
99.1541487781
20
-77.1453318466
30
0.0000000000
10
99.1599815385
20
-77.1230419487
30
0.0000000000
11
99.1422124634
21
-77.1898392868
31
0.0000000000
11
99.1599815385
21
-77.1230419487
31
0.0000000000
0
SPLINE
5
433
100
AcDbEntity
8
0
100
AcDbSpline
62
7
6
CONTINUOUS
70
0
71
3
72
21
73
17
74
15
42
0.0000001000
43
0.0000001000
44
0.0000000001
12
0.4181373087
22
1.5979120239
32
0.0000000000
13
0.1027034154
23
1.6484891855
33
0.0000000000
40
0.0000000000
40
0.0000000000
40
0.0000000000
40
0.0000000000
40
0.0796971999
40
0.1910342742
40
0.2930151638
40
0.3865137413
40
0.4722874136
40
0.5504002748
40
0.6205661690
40
0.6832924050
40
0.7409461523
40
0.7961409455
40
0.8513178978
40
0.9071057486
40
0.9629812008
40
1.0000000000
40
1.0000000000
40
1.0000000000
40
1.0000000000
10
99.1599815385
20
-77.1230419487
30
0.0000000000
10
99.1710896627
20
-77.0805922440
30
0.0000000000
10
99.1969304699
20
-76.9786331359
30
0.0000000000
10
99.2336648287
20
-76.8215368532
30
0.0000000000
10
99.2687217346
20
-76.6562824805
30
0.0000000000
10
99.2979832223
20
-76.5042172715
30
0.0000000000
10
99.3223408591
20
-76.3646139458
30
0.0000000000
10
99.3424724212
20
-76.2373314794
30
0.0000000000
10
99.3589717511
20
-76.1223347250
30
0.0000000000
10
99.3725334849
20
-76.0183055920
30
0.0000000000
10
99.3839113222
20
-75.9223111801
30
0.0000000000
10
99.3937953392
20
-75.8303309442
30
0.0000000000
10
99.4025968685
20
-75.7392728644
30
0.0000000000
10
99.4104515027
20
-75.6477520189
30
0.0000000000
10
99.4165689819
20
-75.5661210705
30
0.0000000000
10
99.4199321516
20
-75.5150872496
30
0.0000000000
10
99.4211994706
20
-75.4947455529
30
0.0000000000
11
99.1599815385
21
-77.1230419487
31
0.0000000000
11
99.1923214094
21
-76.9954397065
31
0.0000000000
11
99.2341923770
21
-76.8163769680
31
0.0000000000
11
99.2691471647
21
-76.6516041978
31
0.0000000000
11
99.2983283109
21
-76.4999567433
31
0.0000000000
11
99.3226787874
21
-76.3603946203
31
0.0000000000
11
99.3428342141
21
-76.2329614022
31
0.0000000000
11
99.3592933824
21
-76.1182446623
31
0.0000000000
11
99.3726863181
21
-76.0155104118
31
0.0000000000
11
99.3838945633
21
-75.9209468925
31
0.0000000000
11
99.3936348026
21
-75.8303046873
31
0.0000000000
11
99.4024028646
21
-75.7395928866
31
0.0000000000
11
99.4102819836
21
-75.6477867960
31
0.0000000000
11
99.4171787917
21
-75.5557565936
31
0.0000000000
11
99.4211994706
21
-75.4947455529
31
0.0000000000
0
SPLINE
5
434
100
AcDbEntity
8
0
100
AcDbSpline
62
7
6
CONTINUOUS
70
0
71
3
72
8
73
4
74
2
42
0.0000001000
43
0.0000001000
44
0.0000000001
12
0.0018898680
22
0.0303342100
32
0.0000000000
13
0.0017817487
23
0.0303406203
33
0.0000000000
40
0.0000000000
40
0.0000000000
40
0.0000000000
40
0.0000000000
40
1.0000000000
40
1.0000000000
40
1.0000000000
40
1.0000000000
10
99.4211994706
20
-75.4947455529
30
0.0000000000
10
99.4218294266
20
-75.4846341496
30
0.0000000000
10
99.4224413651
20
-75.4745216399
30
0.0000000000
10
99.4230352813
20
-75.4644080998
30
0.0000000000
11
99.4211994706
21
-75.4947455529
31
0.0000000000
11
99.4230352813
21
-75.4644080998
31
0.0000000000
0
SPLINE
5
435
100
AcDbEntity
8
0
100
AcDbSpline
62
7
6
CONTINUOUS
70
0
71
3
72
8
73
4
74
2
42
0.0000001000
43
0.0000001000
44
0.0000000001
12
-0.0017817487
22
0.0303406205
32
0.0000000000
13
-0.0018898680
23
0.0303342098
33
0.0000000000
40
0.0000000000
40
0.0000000000
40
0.0000000000
40
0.0000000000
40
1.0000000000
40
1.0000000000
40
1.0000000000
40
1.0000000000
10
99.4230352813
20
-144.4644080998
30
0.0000000000
10
99.4224413651
20
-144.4542945597
30
0.0000000000
10
99.4218294266
20
-144.4441820500
30
0.0000000000
10
99.4211994706
20
-144.4340706468
30
0.0000000000
11
99.4230352813
21
-144.4644080998
31
0.0000000000
11
99.4211994706
21
-144.4340706468
31
0.0000000000
0
SPLINE
5
436
100
AcDbEntity
8
0
100
AcDbSpline
62
7
6
CONTINUOUS
70
0
71
3
72
21
73
17
74
15
42
0.0000001000
43
0.0000001000
44
0.0000000001
12
-0.1027034079
22
1.6484890681
32
0.0000000000
13
-0.4181373358
23
1.5979121537
33
0.0000000000
40
0.0000000000
40
0.0000000000
40
0.0000000000
40
0.0000000000
40
0.0369060715
40
0.0926630134
40
0.1483481608
40
0.2034529207
40
0.2585148537
40
0.3159406183
40
0.3783435564
40
0.4481638066
40
0.5260965527
40
0.6119007426
40
0.7056043470
40
0.8079258201
40
0.9197254197
40
1.0000000000
40
1.0000000000
40
1.0000000000
40
1.0000000000
10
99.4211994706
20
-144.4340706468
30
0.0000000000
10
99.4199360108
20
-144.4137908949
30
0.0000000000
10
99.4165817691
20
-144.3628840806
30
0.0000000000
10
99.4104807435
20
-144.2814362842
30
0.0000000000
10
99.4026449238
20
-144.1900759710
30
0.0000000000
10
99.3938662114
20
-144.0991859266
30
0.0000000000
10
99.3840160662
20
-144.0074418540
30
0.0000000000
10
99.3726946600
20
-143.9118200806
30
0.0000000000
10
99.3592153912
20
-143.8082782327
30
0.0000000000
10
99.3428104819
20
-143.6937402360
30
0.0000000000
10
99.3227590681
20
-143.5667211892
30
0.0000000000
10
99.2984394897
20
-143.4270802541
30
0.0000000000
10
99.2691618385
20
-143.2746951043
30
0.0000000000
10
99.2340286075
20
-143.1088894329
30
0.0000000000
10
99.1971458954
20
-142.9510471522
30
0.0000000000
10
99.1711701380
20
-142.8485314935
30
0.0000000000
10
99.1599815383
20
-142.8057742510
30
0.0000000000
11
99.4211994706
21
-144.4340706468
31
0.0000000000
11
99.4171916995
21
-144.3732453541
31
0.0000000000
11
99.4103125786
21
-144.2814101217
31
0.0000000000
11
99.4024529807
21
-144.1897726180
31
0.0000000000
11
99.3937028840
21
-144.0991788808
31
0.0000000000
11
99.3839943676
21
-144.0087539784
31
0.0000000000
11
99.3728423574
21
-143.9145629900
31
0.0000000000
11
99.3595368351
21
-143.8123558542
31
0.0000000000
11
99.3431866771
21
-143.6982002232
31
0.0000000000
11
99.3231153103
21
-143.5710549136
31
0.0000000000
11
99.2987994681
21
-143.4314355965
31
0.0000000000
11
99.2695980020
21
-143.2794472172
31
0.0000000000
11
99.2345652453
21
-143.1141159495
31
0.0000000000
11
99.1925485121
21
-142.9343027590
31
0.0000000000
11
99.1599815383
21
-142.8057742510
31
0.0000000000
0
SPLINE
5
437
100
AcDbEntity
8
0
100
AcDbSpline
62
7
6
CONTINUOUS
70
0
71
3
72
8
73
4
74
2
42
0.0000001000
43
0.0000001000
44
0.0000000001
12
-0.0174982821
22
0.0668696985
32
0.0000000000
13
-0.0180396434
23
0.0667240952
33
0.0000000000
40
0.0000000000
40
0.0000000000
40
0.0000000000
40
0.0000000000
40
1.0000000000
40
1.0000000000
40
1.0000000000
40
1.0000000000
10
99.1599815383
20
-142.8057742510
30
0.0000000000
10
99.1541487776
20
-142.7834843515
30
0.0000000000
10
99.1482256779
20
-142.7612182779
30
0.0000000000
10
99.1422124634
20
-142.7389769129
30
0.0000000000
11
99.1599815383
21
-142.8057742510
31
0.0000000000
11
99.1422124634
21
-142.7389769129
31
0.0000000000
0
SPLINE
5
438
100
AcDbEntity
8
0
100
AcDbSpline
62
7
6
CONTINUOUS
70
0
71
3
72
10
73
6
74
4
42
0.0000001000
43
0.0000001000
44
0.0000000001
12
0.0538569761
22
0.9497887726
32
0.0000000000
13
-0.0538569761
23
0.9497887726
33
0.0000000000
40
0.0000000000
40
0.0000000000
40
0.0000000000
40
0.0000000000
40
0.3329543458
40
0.6670456297
40
1.0000000000
40
1.0000000000
40
1.0000000000
40
1.0000000000
10
99.1422124634
20
-145.4398392868
30
0.0000000000
10
99.1481897681
20
-145.3344271870
30
0.0000000000
10
99.1561823079
20
-145.1229946728
30
0.0000000000
10
99.1561823084
20
-144.8058215424
30
0.0000000000
10
99.1481897686
20
-144.5943890204
30
0.0000000000
10
99.1422124634
20
-144.4889769129
30
0.0000000000
11
99.1422124634
21
-145.4398392868
31
0.0000000000
11
99.1541773559
21
-145.1233210536
31
0.0000000000
11
99.1541773563
21
-144.8054951694
31
0.0000000000
11
99.1422124634
21
-144.4889769129
31
0.0000000000
0
SPLINE
5
439
100
AcDbEntity
8
0
100
AcDbSpline
62
7
6
CONTINUOUS
70
0
71
3
72
8
73
4
74
2
42
0.0000001000
43
0.0000001000
44
0.0000000001
12
0.0180396447
22
0.0667240999
32
0.0000000000
13
0.0174982811
23
0.0668696937
33
0.0000000000
40
0.0000000000
40
0.0000000000
40
0.0000000000
40
0.0000000000
40
1.0000000000
40
1.0000000000
40
1.0000000000
40
1.0000000000
10
99.1422124634
20
-147.1898392868
30
0.0000000000
10
99.1482256783
20
-147.1675979202
30
0.0000000000
10
99.1541487781
20
-147.1453318466
30
0.0000000000
10
99.1599815385
20
-147.1230419487
30
0.0000000000
11
99.1422124634
21
-147.1898392868
31
0.0000000000
11
99.1599815385
21
-147.1230419487
31
0.0000000000
0
SPLINE
5
43A
100
AcDbEntity
8
0
100
AcDbSpline
62
7
6
CONTINUOUS
70
0
71
3
72
21
73
17
74
15
42
0.0000001000
43
0.0000001000
44
0.0000000001
12
0.4181373087
22
1.5979120239
32
0.0000000000
13
0.1027034154
23
1.6484891855
33
0.0000000000
40
0.0000000000
40
0.0000000000
40
0.0000000000
40
0.0000000000
40
0.0796971999
40
0.1910342742
40
0.2930151638
40
0.3865137413
40
0.4722874136
40
0.5504002748
40
0.6205661690
40
0.6832924050
40
0.7409461523
40
0.7961409455
40
0.8513178978
40
0.9071057486
40
0.9629812008
40
1.0000000000
40
1.0000000000
40
1.0000000000
40
1.0000000000
10
99.1599815385
20
-147.1230419487
30
0.0000000000
10
99.1710896627
20
-147.0805922440
30
0.0000000000
10
99.1969304699
20
-146.9786331359
30
0.0000000000
10
99.2336648287
20
-146.8215368532
30
0.0000000000
10
99.2687217346
20
-146.6562824805
30
0.0000000000
10
99.2979832223
20
-146.5042172715
30
0.0000000000
10
99.3223408591
20
-146.3646139458
30
0.0000000000
10
99.3424724212
20
-146.2373314794
30
0.0000000000
10
99.3589717511
20
-146.1223347250
30
0.0000000000
10
99.3725334849
20
-146.0183055920
30
0.0000000000
10
99.3839113222
20
-145.9223111801
30
0.0000000000
10
99.3937953392
20
-145.8303309442
30
0.0000000000
10
99.4025968685
20
-145.7392728644
30
0.0000000000
10
99.4104515027
20
-145.6477520189
30
0.0000000000
10
99.4165689819
20
-145.5661210705
30
0.0000000000
10
99.4199321516
20
-145.5150872496
30
0.0000000000
10
99.4211994706
20
-145.4947455529
30
0.0000000000
11
99.1599815385
21
-147.1230419487
31
0.0000000000
11
99.1923214094
21
-146.9954397065
31
0.0000000000
11
99.2341923770
21
-146.8163769680
31
0.0000000000
11
99.2691471647
21
-146.6516041978
31
0.0000000000
11
99.2983283109
21
-146.4999567433
31
0.0000000000
11
99.3226787874
21
-146.3603946203
31
0.0000000000
11
99.3428342141
21
-146.2329614022
31
0.0000000000
11
99.3592933824
21
-146.1182446623
31
0.0000000000
11
99.3726863181
21
-146.0155104118
31
0.0000000000
11
99.3838945633
21
-145.9209468925
31
0.0000000000
11
99.3936348026
21
-145.8303046873
31
0.0000000000
11
99.4024028646
21
-145.7395928866
31
0.0000000000
11
99.4102819836
21
-145.6477867960
31
0.0000000000
11
99.4171787917
21
-145.5557565936
31
0.0000000000
11
99.4211994706
21
-145.4947455529
31
0.0000000000
0
SPLINE
5
43B
100
AcDbEntity
8
0
100
AcDbSpline
62
7
6
CONTINUOUS
70
0
71
3
72
8
73
4
74
2
42
0.0000001000
43
0.0000001000
44
0.0000000001
12
0.0018898680
22
0.0303342100
32
0.0000000000
13
0.0017817487
23
0.0303406203
33
0.0000000000
40
0.0000000000
40
0.0000000000
40
0.0000000000
40
0.0000000000
40
1.0000000000
40
1.0000000000
40
1.0000000000
40
1.0000000000
10
99.4211994706
20
-145.4947455529
30
0.0000000000
10
99.4218294266
20
-145.4846341496
30
0.0000000000
10
99.4224413651
20
-145.4745216399
30
0.0000000000
10
99.4230352813
20
-145.4644080998
30
0.0000000000
11
99.4211994706
21
-145.4947455529
31
0.0000000000
11
99.4230352813
21
-145.4644080998
31
0.0000000000
0
SPLINE
5
43C
100
AcDbEntity
8
0
100
AcDbSpline
62
7
6
CONTINUOUS
70
0
71
3
72
8
73
4
74
2
42
0.0000001000
43
0.0000001000
44
0.0000000001
12
0.0017817487
22
-0.0303406205
32
0.0000000000
13
0.0018898680
23
-0.0303342098
33
0.0000000000
40
0.0000000000
40
0.0000000000
40
0.0000000000
40
0.0000000000
40
1.0000000000
40
1.0000000000
40
1.0000000000
40
1.0000000000
10
-346.5180390648
20
-75.4644080998
30
0.0000000000
10
-346.5174451485
20
-75.4745216400
30
0.0000000000
10
-346.5168332101
20
-75.4846341496
30
0.0000000000
10
-346.5162032541
20
-75.4947455529
30
0.0000000000
11
-346.5180390648
21
-75.4644080998
31
0.0000000000
11
-346.5162032541
21
-75.4947455529
31
0.0000000000
0
SPLINE
5
43D
100
AcDbEntity
8
0
100
AcDbSpline
62
7
6
CONTINUOUS
70
0
71
3
72
21
73
17
74
15
42
0.0000001000
43
0.0000001000
44
0.0000000001
12
0.1027034079
22
-1.6484890681
32
0.0000000000
13
0.4181373358
23
-1.5979121537
33
0.0000000000
40
0.0000000000
40
0.0000000000
40
0.0000000000
40
0.0000000000
40
0.0369060715
40
0.0926630134
40
0.1483481608
40
0.2034529207
40
0.2585148537
40
0.3159406183
40
0.3783435564
40
0.4481638066
40
0.5260965527
40
0.6119007426
40
0.7056043470
40
0.8079258201
40
0.9197254197
40
1.0000000000
40
1.0000000000
40
1.0000000000
40
1.0000000000
10
-346.5162032541
20
-75.4947455529
30
0.0000000000
10
-346.5149397943
20
-75.5150253047
30
0.0000000000
10
-346.5115855525
20
-75.5659321191
30
0.0000000000
10
-346.5054845270
20
-75.6473799155
30
0.0000000000
10
-346.4976487073
20
-75.7387402287
30
0.0000000000
10
-346.4888699949
20
-75.8296302730
30
0.0000000000
10
-346.4790198496
20
-75.9213743457
30
0.0000000000
10
-346.4676984435
20
-76.0169961190
30
0.0000000000
10
-346.4542191747
20
-76.1205379670
30
0.0000000000
10
-346.4378142653
20
-76.2350759637
30
0.0000000000
10
-346.4177628515
20
-76.3620950105
30
0.0000000000
10
-346.3934432731
20
-76.5017359456
30
0.0000000000
10
-346.3641656220
20
-76.6541210954
30
0.0000000000
10
-346.3290323909
20
-76.8199267668
30
0.0000000000
10
-346.2921496789
20
-76.9777690475
30
0.0000000000
10
-346.2661739215
20
-77.0802847062
30
0.0000000000
10
-346.2549853218
20
-77.1230419487
30
0.0000000000
11
-346.5162032541
21
-75.4947455529
31
0.0000000000
11
-346.5121954830
21
-75.5555708455
31
0.0000000000
11
-346.5053163621
21
-75.6474060780
31
0.0000000000
11
-346.4974567641
21
-75.7390435816
31
0.0000000000
11
-346.4887066674
21
-75.8296373189
31
0.0000000000
11
-346.4789981510
21
-75.9200622213
31
0.0000000000
11
-346.4678461408
21
-76.0142532097
31
0.0000000000
11
-346.4545406186
21
-76.1164603454
31
0.0000000000
11
-346.4381904605
21
-76.2306159764
31
0.0000000000
11
-346.4181190938
21
-76.3577612861
31
0.0000000000
11
-346.3938032516
21
-76.4973806032
31
0.0000000000
11
-346.3646017854
21
-76.6493689825
31
0.0000000000
11
-346.3295690288
21
-76.8147002502
31
0.0000000000
11
-346.2875522956
21
-76.9945134406
31
0.0000000000
11
-346.2549853218
21
-77.1230419487
31
0.0000000000
0
SPLINE
5
43E
100
AcDbEntity
8
0
100
AcDbSpline
62
7
6
CONTINUOUS
70
0
71
3
72
8
73
4
74
2
42
0.0000001000
43
0.0000001000
44
0.0000000001
12
0.0174982821
22
-0.0668696985
32
0.0000000000
13
0.0180396434
23
-0.0667240952
33
0.0000000000
40
0.0000000000
40
0.0000000000
40
0.0000000000
40
0.0000000000
40
1.0000000000
40
1.0000000000
40
1.0000000000
40
1.0000000000
10
-346.2549853218
20
-77.1230419487
30
0.0000000000
10
-346.2491525611
20
-77.1453318481
30
0.0000000000
10
-346.2432294613
20
-77.1675979217
30
0.0000000000
10
-346.2372162468
20
-77.1898392868
30
0.0000000000
11
-346.2549853218
21
-77.1230419487
31
0.0000000000
11
-346.2372162468
21
-77.1898392868
31
0.0000000000
0
SPLINE
5
43F
100
AcDbEntity
8
0
100
AcDbSpline
62
7
6
CONTINUOUS
70
0
71
3
72
10
73
6
74
4
42
0.0000001000
43
0.0000001000
44
0.0000000001
12
-0.0538569761
22
-0.9497887726
32
0.0000000000
13
0.0538569761
23
-0.9497887726
33
0.0000000000
40
0.0000000000
40
0.0000000000
40
0.0000000000
40
0.0000000000
40
0.3329543458
40
0.6670456297
40
1.0000000000
40
1.0000000000
40
1.0000000000
40
1.0000000000
10
-346.2372162468
20
-74.4889769129
30
0.0000000000
10
-346.2431935516
20
-74.5943890127
30
0.0000000000
10
-346.2511860914
20
-74.8058215269
30
0.0000000000
10
-346.2511860918
20
-75.1229946573
30
0.0000000000
10
-346.2431935520
20
-75.3344271792
30
0.0000000000
10
-346.2372162468
20
-75.4398392868
30
0.0000000000
11
-346.2372162468
21
-74.4889769129
31
0.0000000000
11
-346.2491811393
21
-74.8054951461
31
0.0000000000
11
-346.2491811398
21
-75.1233210303
31
0.0000000000
11
-346.2372162468
21
-75.4398392868
31
0.0000000000
0
SPLINE
5
440
100
AcDbEntity
8
0
100
AcDbSpline
62
7
6
CONTINUOUS
70
0
71
3
72
8
73
4
74
2
42
0.0000001000
43
0.0000001000
44
0.0000000001
12
-0.0180396447
22
-0.0667240999
32
0.0000000000
13
-0.0174982811
23
-0.0668696937
33
0.0000000000
40
0.0000000000
40
0.0000000000
40
0.0000000000
40
0.0000000000
40
1.0000000000
40
1.0000000000
40
1.0000000000
40
1.0000000000
10
-346.2372162468
20
-72.7389769129
30
0.0000000000
10
-346.2432294617
20
-72.7612182795
30
0.0000000000
10
-346.2491525616
20
-72.7834843531
30
0.0000000000
10
-346.2549853220
20
-72.8057742510
30
0.0000000000
11
-346.2372162468
21
-72.7389769129
31
0.0000000000
11
-346.2549853220
21
-72.8057742510
31
0.0000000000
0
SPLINE
5
441
100
AcDbEntity
8
0
100
AcDbSpline
62
7
6
CONTINUOUS
70
0
71
3
72
21
73
17
74
15
42
0.0000001000
43
0.0000001000
44
0.0000000001
12
-0.4181373087
22
-1.5979120239
32
0.0000000000
13
-0.1027034154
23
-1.6484891855
33
0.0000000000
40
0.0000000000
40
0.0000000000
40
0.0000000000
40
0.0000000000
40
0.0796971999
40
0.1910342742
40
0.2930151638
40
0.3865137413
40
0.4722874136
40
0.5504002748
40
0.6205661690
40
0.6832924050
40
0.7409461523
40
0.7961409455
40
0.8513178978
40
0.9071057486
40
0.9629812008
40
1.0000000000
40
1.0000000000
40
1.0000000000
40
1.0000000000
10
-346.2549853220
20
-72.8057742510
30
0.0000000000
10
-346.2660934462
20
-72.8482239556
30
0.0000000000
10
-346.2919342534
20
-72.9501830638
30
0.0000000000
10
-346.3286686121
20
-73.1072793465
30
0.0000000000
10
-346.3637255180
20
-73.2725337192
30
0.0000000000
10
-346.3929870058
20
-73.4245989282
30
0.0000000000
10
-346.4173446425
20
-73.5642022538
30
0.0000000000
10
-346.4374762047
20
-73.6914847203
30
0.0000000000
10
-346.4539755345
20
-73.8064814747
30
0.0000000000
10
-346.4675372684
20
-73.9105106077
30
0.0000000000
10
-346.4789151056
20
-74.0065050195
30
0.0000000000
10
-346.4887991227
20
-74.0984852555
30
0.0000000000
10
-346.4976006519
20
-74.1895433353
30
0.0000000000
10
-346.5054552862
20
-74.2810641808
30
0.0000000000
10
-346.5115727653
20
-74.3626951292
30
0.0000000000
10
-346.5149359350
20
-74.4137289501
30
0.0000000000
10
-346.5162032541
20
-74.4340706468
30
0.0000000000
11
-346.2549853220
21
-72.8057742510
31
0.0000000000
11
-346.2873251928
21
-72.9333764932
31
0.0000000000
11
-346.3291961605
21
-73.1124392317
31
0.0000000000
11
-346.3641509482
21
-73.2772120019
31
0.0000000000
11
-346.3933320944
21
-73.4288594563
31
0.0000000000
11
-346.4176825708
21
-73.5684215793
31
0.0000000000
11
-346.4378379976
21
-73.6958547975
31
0.0000000000
11
-346.4542971659
21
-73.8105715373
31
0.0000000000
11
-346.4676901016
21
-73.9133057879
31
0.0000000000
11
-346.4788983467
21
-74.0078693072
31
0.0000000000
11
-346.4886385860
21
-74.0985115124
31
0.0000000000
11
-346.4974066480
21
-74.1892233131
31
0.0000000000
11
-346.5052857671
21
-74.2810294037
31
0.0000000000
11
-346.5121825752
21
-74.3730596061
31
0.0000000000
11
-346.5162032541
21
-74.4340706468
31
0.0000000000
0
SPLINE
5
442
100
AcDbEntity
8
0
100
AcDbSpline
62
7
6
CONTINUOUS
70
0
71
3
72
8
73
4
74
2
42
0.0000001000
43
0.0000001000
44
0.0000000001
12
-0.0018898680
22
-0.0303342100
32
0.0000000000
13
-0.0017817487
23
-0.0303406203
33
0.0000000000
40
0.0000000000
40
0.0000000000
40
0.0000000000
40
0.0000000000
40
1.0000000000
40
1.0000000000
40
1.0000000000
40
1.0000000000
10
-346.5162032541
20
-74.4340706468
30
0.0000000000
10
-346.5168332101
20
-74.4441820501
30
0.0000000000
10
-346.5174451485
20
-74.4542945597
30
0.0000000000
10
-346.5180390648
20
-74.4644080998
30
0.0000000000
11
-346.5162032541
21
-74.4340706468
31
0.0000000000
11
-346.5180390648
21
-74.4644080998
31
0.0000000000
0
SPLINE
5
443
100
AcDbEntity
8
0
100
AcDbSpline
62
7
6
CONTINUOUS
70
0
71
3
72
8
73
4
74
2
42
0.0000001000
43
0.0000001000
44
0.0000000001
12
0.0303406205
22
0.0017817487
32
0.0000000000
13
0.0303342098
23
0.0018898680
33
0.0000000000
40
0.0000000000
40
0.0000000000
40
0.0000000000
40
0.0000000000
40
1.0000000000
40
1.0000000000
40
1.0000000000
40
1.0000000000
10
-320.0475018917
20
-173.4349452729
30
0.0000000000
10
-320.0373883516
20
-173.4343513566
30
0.0000000000
10
-320.0272758419
20
-173.4337394182
30
0.0000000000
10
-320.0171644386
20
-173.4331094622
30
0.0000000000
11
-320.0475018917
21
-173.4349452729
31
0.0000000000
11
-320.0171644386
21
-173.4331094622
31
0.0000000000
0
SPLINE
5
444
100
AcDbEntity
8
0
100
AcDbSpline
62
7
6
CONTINUOUS
70
0
71
3
72
21
73
17
74
15
42
0.0000001000
43
0.0000001000
44
0.0000000001
12
1.6484890681
22
0.1027034079
32
0.0000000000
13
1.5979121537
23
0.4181373358
33
0.0000000000
40
0.0000000000
40
0.0000000000
40
0.0000000000
40
0.0000000000
40
0.0369060715
40
0.0926630134
40
0.1483481608
40
0.2034529207
40
0.2585148537
40
0.3159406183
40
0.3783435564
40
0.4481638066
40
0.5260965527
40
0.6119007426
40
0.7056043470
40
0.8079258201
40
0.9197254197
40
1.0000000000
40
1.0000000000
40
1.0000000000
40
1.0000000000
10
-320.0171644386
20
-173.4331094622
30
0.0000000000
10
-319.9968846868
20
-173.4318460024
30
0.0000000000
10
-319.9459778725
20
-173.4284917606
30
0.0000000000
10
-319.8645300761
20
-173.4223907351
30
0.0000000000
10
-319.7731697629
20
-173.4145549154
30
0.0000000000
10
-319.6822797185
20
-173.4057762030
30
0.0000000000
10
-319.5905356459
20
-173.3959260577
30
0.0000000000
10
-319.4949138725
20
-173.3846046516
30
0.0000000000
10
-319.3913720246
20
-173.3711253828
30
0.0000000000
10
-319.2768340279
20
-173.3547204734
30
0.0000000000
10
-319.1498149811
20
-173.3346690597
30
0.0000000000
10
-319.0101740460
20
-173.3103494812
30
0.0000000000
10
-318.8577888961
20
-173.2810718301
30
0.0000000000
10
-318.6919832248
20
-173.2459385991
30
0.0000000000
10
-318.5341409441
20
-173.2090558870
30
0.0000000000
10
-318.4316252854
20
-173.1830801296
30
0.0000000000
10
-318.3888680429
20
-173.1718915299
30
0.0000000000
11
-320.0171644386
21
-173.4331094622
31
0.0000000000
11
-319.9563391460
21
-173.4291016911
31
0.0000000000
11
-319.8645039135
21
-173.4222225702
31
0.0000000000
11
-319.7728664099
21
-173.4143629722
31
0.0000000000
11
-319.6822726727
21
-173.4056128755
31
0.0000000000
11
-319.5918477703
21
-173.3959043592
31
0.0000000000
11
-319.4976567819
21
-173.3847523490
31
0.0000000000
11
-319.3954496461
21
-173.3714468267
31
0.0000000000
11
-319.2812940151
21
-173.3550966687
31
0.0000000000
11
-319.1541487055
21
-173.3350253019
31
0.0000000000
11
-319.0145293884
21
-173.3107094597
31
0.0000000000
11
-318.8625410090
21
-173.2815079935
31
0.0000000000
11
-318.6972097413
21
-173.2464752369
31
0.0000000000
11
-318.5173965509
21
-173.2044585037
31
0.0000000000
11
-318.3888680429
21
-173.1718915299
31
0.0000000000
0
SPLINE
5
445
100
AcDbEntity
8
0
100
AcDbSpline
62
7
6
CONTINUOUS
70
0
71
3
72
8
73
4
74
2
42
0.0000001000
43
0.0000001000
44
0.0000000001
12
0.0668696985
22
0.0174982821
32
0.0000000000
13
0.0667240952
23
0.0180396434
33
0.0000000000
40
0.0000000000
40
0.0000000000
40
0.0000000000
40
0.0000000000
40
1.0000000000
40
1.0000000000
40
1.0000000000
40
1.0000000000
10
-318.3888680429
20
-173.1718915299
30
0.0000000000
10
-318.3665781434
20
-173.1660587692
30
0.0000000000
10
-318.3443120698
20
-173.1601356694
30
0.0000000000
10
-318.3220707048
20
-173.1541224550
30
0.0000000000
11
-318.3888680429
21
-173.1718915299
31
0.0000000000
11
-318.3220707048
21
-173.1541224550
31
0.0000000000
0
SPLINE
5
446
100
AcDbEntity
8
0
100
AcDbSpline
62
7
6
CONTINUOUS
70
0
71
3
72
10
73
6
74
4
42
0.0000001000
43
0.0000001000
44
0.0000000001
12
0.9497887726
22
-0.0538569761
32
0.0000000000
13
0.9497887726
23
0.0538569761
33
0.0000000000
40
0.0000000000
40
0.0000000000
40
0.0000000000
40
0.0000000000
40
0.3329543458
40
0.6670456297
40
1.0000000000
40
1.0000000000
40
1.0000000000
40
1.0000000000
10
-321.0229330787
20
-173.1541224550
30
0.0000000000
10
-320.9175209789
20
-173.1600997597
30
0.0000000000
10
-320.7060884647
20
-173.1680922995
30
0.0000000000
10
-320.3889153343
20
-173.1680922999
30
0.0000000000
10
-320.1774828123
20
-173.1600997601
30
0.0000000000
10
-320.0720707048
20
-173.1541224550
30
0.0000000000
11
-321.0229330787
21
-173.1541224550
31
0.0000000000
11
-320.7064148455
21
-173.1660873474
31
0.0000000000
11
-320.3885889613
21
-173.1660873479
31
0.0000000000
11
-320.0720707048
21
-173.1541224550
31
0.0000000000
0
SPLINE
5
447
100
AcDbEntity
8
0
100
AcDbSpline
62
7
6
CONTINUOUS
70
0
71
3
72
8
73
4
74
2
42
0.0000001000
43
0.0000001000
44
0.0000000001
12
0.0667240999
22
-0.0180396447
32
0.0000000000
13
0.0668696937
23
-0.0174982811
33
0.0000000000
40
0.0000000000
40
0.0000000000
40
0.0000000000
40
0.0000000000
40
1.0000000000
40
1.0000000000
40
1.0000000000
40
1.0000000000
10
-322.7729330787
20
-173.1541224550
30
0.0000000000
10
-322.7506917121
20
-173.1601356698
30
0.0000000000
10
-322.7284256385
20
-173.1660587697
30
0.0000000000
10
-322.7061357406
20
-173.1718915301
30
0.0000000000
11
-322.7729330787
21
-173.1541224550
31
0.0000000000
11
-322.7061357406
21
-173.1718915301
31
0.0000000000
0
SPLINE
5
448
100
AcDbEntity
8
0
100
AcDbSpline
62
7
6
CONTINUOUS
70
0
71
3
72
21
73
17
74
15
42
0.0000001000
43
0.0000001000
44
0.0000000001
12
1.5979120239
22
-0.4181373087
32
0.0000000000
13
1.6484891855
23
-0.1027034154
33
0.0000000000
40
0.0000000000
40
0.0000000000
40
0.0000000000
40
0.0000000000
40
0.0796971999
40
0.1910342742
40
0.2930151638
40
0.3865137413
40
0.4722874136
40
0.5504002748
40
0.6205661690
40
0.6832924050
40
0.7409461523
40
0.7961409455
40
0.8513178978
40
0.9071057486
40
0.9629812008
40
1.0000000000
40
1.0000000000
40
1.0000000000
40
1.0000000000
10
-322.7061357406
20
-173.1718915301
30
0.0000000000
10
-322.6636860359
20
-173.1829996543
30
0.0000000000
10
-322.5617269278
20
-173.2088404615
30
0.0000000000
10
-322.4046306451
20
-173.2455748202
30
0.0000000000
10
-322.2393762724
20
-173.2806317262
30
0.0000000000
10
-322.0873110634
20
-173.3098932139
30
0.0000000000
10
-321.9477077377
20
-173.3342508506
30
0.0000000000
10
-321.8204252713
20
-173.3543824128
30
0.0000000000
10
-321.7054285169
20
-173.3708817426
30
0.0000000000
10
-321.6013993838
20
-173.3844434765
30
0.0000000000
10
-321.5054049720
20
-173.3958213137
30
0.0000000000
10
-321.4134247361
20
-173.4057053308
30
0.0000000000
10
-321.3223666563
20
-173.4145068600
30
0.0000000000
10
-321.2308458108
20
-173.4223614943
30
0.0000000000
10
-321.1492148623
20
-173.4284789734
30
0.0000000000
10
-321.0981810415
20
-173.4318421431
30
0.0000000000
10
-321.0778393448
20
-173.4331094622
30
0.0000000000
11
-322.7061357406
21
-173.1718915301
31
0.0000000000
11
-322.5785334984
21
-173.2042314009
31
0.0000000000
11
-322.3994707599
21
-173.2461023686
31
0.0000000000
11
-322.2346979897
21
-173.2810571563
31
0.0000000000
11
-322.0830505352
21
-173.3102383025
31
0.0000000000
11
-321.9434884122
21
-173.3345887789
31
0.0000000000
11
-321.8160551941
21
-173.3547442057
31
0.0000000000
11
-321.7013384542
21
-173.3712033740
31
0.0000000000
11
-321.5986042037
21
-173.3845963097
31
0.0000000000
11
-321.5040406843
21
-173.3958045548
31
0.0000000000
11
-321.4133984792
21
-173.4055447942
31
0.0000000000
11
-321.3226866785
21
-173.4143128561
31
0.0000000000
11
-321.2308805878
21
-173.4221919752
31
0.0000000000
11
-321.1388503854
21
-173.4290887833
31
0.0000000000
11
-321.0778393448
21
-173.4331094622
31
0.0000000000
0
SPLINE
5
449
100
AcDbEntity
8
0
100
AcDbSpline
62
7
6
CONTINUOUS
70
0
71
3
72
8
73
4
74
2
42
0.0000001000
43
0.0000001000
44
0.0000000001
12
0.0303342100
22
-0.0018898680
32
0.0000000000
13
0.0303406203
23
-0.0017817487
33
0.0000000000
40
0.0000000000
40
0.0000000000
40
0.0000000000
40
0.0000000000
40
1.0000000000
40
1.0000000000
40
1.0000000000
40
1.0000000000
10
-321.0778393448
20
-173.4331094622
30
0.0000000000
10
-321.0677279415
20
-173.4337394182
30
0.0000000000
10
-321.0576154318
20
-173.4343513566
30
0.0000000000
10
-321.0475018917
20
-173.4349452729
30
0.0000000000
11
-321.0778393448
21
-173.4331094622
31
0.0000000000
11
-321.0475018917
21
-173.4349452729
31
0.0000000000
0
SPLINE
5
44A
100
AcDbEntity
8
0
100
AcDbSpline
62
7
6
CONTINUOUS
70
0
71
3
72
8
73
4
74
2
42
0.0000001000
43
0.0000001000
44
0.0000000001
12
0.0303406205
22
0.0017817487
32
0.0000000000
13
0.0303342098
23
0.0018898680
33
0.0000000000
40
0.0000000000
40
0.0000000000
40
0.0000000000
40
0.0000000000
40
1.0000000000
40
1.0000000000
40
1.0000000000
40
1.0000000000
10
-116.0475018917
20
-173.4349452729
30
0.0000000000
10
-116.0373883516
20
-173.4343513566
30
0.0000000000
10
-116.0272758419
20
-173.4337394182
30
0.0000000000
10
-116.0171644386
20
-173.4331094622
30
0.0000000000
11
-116.0475018917
21
-173.4349452729
31
0.0000000000
11
-116.0171644386
21
-173.4331094622
31
0.0000000000
0
SPLINE
5
44B
100
AcDbEntity
8
0
100
AcDbSpline
62
7
6
CONTINUOUS
70
0
71
3
72
21
73
17
74
15
42
0.0000001000
43
0.0000001000
44
0.0000000001
12
1.6484890681
22
0.1027034079
32
0.0000000000
13
1.5979121537
23
0.4181373358
33
0.0000000000
40
0.0000000000
40
0.0000000000
40
0.0000000000
40
0.0000000000
40
0.0369060715
40
0.0926630134
40
0.1483481608
40
0.2034529207
40
0.2585148537
40
0.3159406183
40
0.3783435564
40
0.4481638066
40
0.5260965527
40
0.6119007426
40
0.7056043470
40
0.8079258201
40
0.9197254197
40
1.0000000000
40
1.0000000000
40
1.0000000000
40
1.0000000000
10
-116.0171644386
20
-173.4331094622
30
0.0000000000
10
-115.9968846868
20
-173.4318460024
30
0.0000000000
10
-115.9459778725
20
-173.4284917606
30
0.0000000000
10
-115.8645300761
20
-173.4223907351
30
0.0000000000
10
-115.7731697629
20
-173.4145549154
30
0.0000000000
10
-115.6822797185
20
-173.4057762030
30
0.0000000000
10
-115.5905356459
20
-173.3959260577
30
0.0000000000
10
-115.4949138725
20
-173.3846046516
30
0.0000000000
10
-115.3913720246
20
-173.3711253828
30
0.0000000000
10
-115.2768340279
20
-173.3547204734
30
0.0000000000
10
-115.1498149811
20
-173.3346690597
30
0.0000000000
10
-115.0101740460
20
-173.3103494812
30
0.0000000000
10
-114.8577888961
20
-173.2810718301
30
0.0000000000
10
-114.6919832248
20
-173.2459385991
30
0.0000000000
10
-114.5341409441
20
-173.2090558870
30
0.0000000000
10
-114.4316252854
20
-173.1830801296
30
0.0000000000
10
-114.3888680429
20
-173.1718915299
30
0.0000000000
11
-116.0171644386
21
-173.4331094622
31
0.0000000000
11
-115.9563391460
21
-173.4291016911
31
0.0000000000
11
-115.8645039135
21
-173.4222225702
31
0.0000000000
11
-115.7728664099
21
-173.4143629722
31
0.0000000000
11
-115.6822726727
21
-173.4056128755
31
0.0000000000
11
-115.5918477703
21
-173.3959043592
31
0.0000000000
11
-115.4976567819
21
-173.3847523490
31
0.0000000000
11
-115.3954496461
21
-173.3714468267
31
0.0000000000
11
-115.2812940151
21
-173.3550966687
31
0.0000000000
11
-115.1541487055
21
-173.3350253019
31
0.0000000000
11
-115.0145293884
21
-173.3107094597
31
0.0000000000
11
-114.8625410090
21
-173.2815079935
31
0.0000000000
11
-114.6972097413
21
-173.2464752369
31
0.0000000000
11
-114.5173965509
21
-173.2044585037
31
0.0000000000
11
-114.3888680429
21
-173.1718915299
31
0.0000000000
0
SPLINE
5
44C
100
AcDbEntity
8
0
100
AcDbSpline
62
7
6
CONTINUOUS
70
0
71
3
72
8
73
4
74
2
42
0.0000001000
43
0.0000001000
44
0.0000000001
12
0.0668696985
22
0.0174982821
32
0.0000000000
13
0.0667240952
23
0.0180396434
33
0.0000000000
40
0.0000000000
40
0.0000000000
40
0.0000000000
40
0.0000000000
40
1.0000000000
40
1.0000000000
40
1.0000000000
40
1.0000000000
10
-114.3888680429
20
-173.1718915299
30
0.0000000000
10
-114.3665781434
20
-173.1660587692
30
0.0000000000
10
-114.3443120698
20
-173.1601356694
30
0.0000000000
10
-114.3220707048
20
-173.1541224550
30
0.0000000000
11
-114.3888680429
21
-173.1718915299
31
0.0000000000
11
-114.3220707048
21
-173.1541224550
31
0.0000000000
0
SPLINE
5
44D
100
AcDbEntity
8
0
100
AcDbSpline
62
7
6
CONTINUOUS
70
0
71
3
72
10
73
6
74
4
42
0.0000001000
43
0.0000001000
44
0.0000000001
12
0.9497887726
22
-0.0538569761
32
0.0000000000
13
0.9497887726
23
0.0538569761
33
0.0000000000
40
0.0000000000
40
0.0000000000
40
0.0000000000
40
0.0000000000
40
0.3329543458
40
0.6670456297
40
1.0000000000
40
1.0000000000
40
1.0000000000
40
1.0000000000
10
-117.0229330787
20
-173.1541224550
30
0.0000000000
10
-116.9175209789
20
-173.1600997597
30
0.0000000000
10
-116.7060884647
20
-173.1680922995
30
0.0000000000
10
-116.3889153343
20
-173.1680922999
30
0.0000000000
10
-116.1774828123
20
-173.1600997601
30
0.0000000000
10
-116.0720707048
20
-173.1541224550
30
0.0000000000
11
-117.0229330787
21
-173.1541224550
31
0.0000000000
11
-116.7064148455
21
-173.1660873474
31
0.0000000000
11
-116.3885889613
21
-173.1660873479
31
0.0000000000
11
-116.0720707048
21
-173.1541224550
31
0.0000000000
0
SPLINE
5
44E
100
AcDbEntity
8
0
100
AcDbSpline
62
7
6
CONTINUOUS
70
0
71
3
72
8
73
4
74
2
42
0.0000001000
43
0.0000001000
44
0.0000000001
12
0.0667240999
22
-0.0180396447
32
0.0000000000
13
0.0668696937
23
-0.0174982811
33
0.0000000000
40
0.0000000000
40
0.0000000000
40
0.0000000000
40
0.0000000000
40
1.0000000000
40
1.0000000000
40
1.0000000000
40
1.0000000000
10
-118.7729330787
20
-173.1541224550
30
0.0000000000
10
-118.7506917121
20
-173.1601356698
30
0.0000000000
10
-118.7284256385
20
-173.1660587697
30
0.0000000000
10
-118.7061357406
20
-173.1718915301
30
0.0000000000
11
-118.7729330787
21
-173.1541224550
31
0.0000000000
11
-118.7061357406
21
-173.1718915301
31
0.0000000000
0
SPLINE
5
44F
100
AcDbEntity
8
0
100
AcDbSpline
62
7
6
CONTINUOUS
70
0
71
3
72
21
73
17
74
15
42
0.0000001000
43
0.0000001000
44
0.0000000001
12
1.5979120239
22
-0.4181373087
32
0.0000000000
13
1.6484891855
23
-0.1027034154
33
0.0000000000
40
0.0000000000
40
0.0000000000
40
0.0000000000
40
0.0000000000
40
0.0796971999
40
0.1910342742
40
0.2930151638
40
0.3865137413
40
0.4722874136
40
0.5504002748
40
0.6205661690
40
0.6832924050
40
0.7409461523
40
0.7961409455
40
0.8513178978
40
0.9071057486
40
0.9629812008
40
1.0000000000
40
1.0000000000
40
1.0000000000
40
1.0000000000
10
-118.7061357406
20
-173.1718915301
30
0.0000000000
10
-118.6636860359
20
-173.1829996543
30
0.0000000000
10
-118.5617269278
20
-173.2088404615
30
0.0000000000
10
-118.4046306451
20
-173.2455748202
30
0.0000000000
10
-118.2393762724
20
-173.2806317262
30
0.0000000000
10
-118.0873110634
20
-173.3098932139
30
0.0000000000
10
-117.9477077377
20
-173.3342508506
30
0.0000000000
10
-117.8204252713
20
-173.3543824128
30
0.0000000000
10
-117.7054285169
20
-173.3708817426
30
0.0000000000
10
-117.6013993838
20
-173.3844434765
30
0.0000000000
10
-117.5054049720
20
-173.3958213137
30
0.0000000000
10
-117.4134247361
20
-173.4057053308
30
0.0000000000
10
-117.3223666563
20
-173.4145068600
30
0.0000000000
10
-117.2308458108
20
-173.4223614943
30
0.0000000000
10
-117.1492148623
20
-173.4284789734
30
0.0000000000
10
-117.0981810415
20
-173.4318421431
30
0.0000000000
10
-117.0778393448
20
-173.4331094622
30
0.0000000000
11
-118.7061357406
21
-173.1718915301
31
0.0000000000
11
-118.5785334984
21
-173.2042314009
31
0.0000000000
11
-118.3994707599
21
-173.2461023686
31
0.0000000000
11
-118.2346979897
21
-173.2810571563
31
0.0000000000
11
-118.0830505352
21
-173.3102383025
31
0.0000000000
11
-117.9434884122
21
-173.3345887789
31
0.0000000000
11
-117.8160551941
21
-173.3547442057
31
0.0000000000
11
-117.7013384542
21
-173.3712033740
31
0.0000000000
11
-117.5986042037
21
-173.3845963097
31
0.0000000000
11
-117.5040406843
21
-173.3958045548
31
0.0000000000
11
-117.4133984792
21
-173.4055447942
31
0.0000000000
11
-117.3226866785
21
-173.4143128561
31
0.0000000000
11
-117.2308805878
21
-173.4221919752
31
0.0000000000
11
-117.1388503854
21
-173.4290887833
31
0.0000000000
11
-117.0778393448
21
-173.4331094622
31
0.0000000000
0
SPLINE
5
450
100
AcDbEntity
8
0
100
AcDbSpline
62
7
6
CONTINUOUS
70
0
71
3
72
8
73
4
74
2
42
0.0000001000
43
0.0000001000
44
0.0000000001
12
0.0303342100
22
-0.0018898680
32
0.0000000000
13
0.0303406203
23
-0.0017817487
33
0.0000000000
40
0.0000000000
40
0.0000000000
40
0.0000000000
40
0.0000000000
40
1.0000000000
40
1.0000000000
40
1.0000000000
40
1.0000000000
10
-117.0778393448
20
-173.4331094622
30
0.0000000000
10
-117.0677279415
20
-173.4337394182
30
0.0000000000
10
-117.0576154318
20
-173.4343513566
30
0.0000000000
10
-117.0475018917
20
-173.4349452729
30
0.0000000000
11
-117.0778393448
21
-173.4331094622
31
0.0000000000
11
-117.0475018917
21
-173.4349452729
31
0.0000000000
0
SPLINE
5
451
100
AcDbEntity
8
0
100
AcDbSpline
62
7
6
CONTINUOUS
70
0
71
3
72
8
73
4
74
2
42
0.0000001000
43
0.0000001000
44
0.0000000001
12
0.0303406205
22
0.0017817487
32
0.0000000000
13
0.0303342098
23
0.0018898680
33
0.0000000000
40
0.0000000000
40
0.0000000000
40
0.0000000000
40
0.0000000000
40
1.0000000000
40
1.0000000000
40
1.0000000000
40
1.0000000000
10
-218.0475018917
20
-173.4349452729
30
0.0000000000
10
-218.0373883516
20
-173.4343513566
30
0.0000000000
10
-218.0272758419
20
-173.4337394182
30
0.0000000000
10
-218.0171644386
20
-173.4331094622
30
0.0000000000
11
-218.0475018917
21
-173.4349452729
31
0.0000000000
11
-218.0171644386
21
-173.4331094622
31
0.0000000000
0
SPLINE
5
452
100
AcDbEntity
8
0
100
AcDbSpline
62
7
6
CONTINUOUS
70
0
71
3
72
21
73
17
74
15
42
0.0000001000
43
0.0000001000
44
0.0000000001
12
1.6484890681
22
0.1027034079
32
0.0000000000
13
1.5979121537
23
0.4181373358
33
0.0000000000
40
0.0000000000
40
0.0000000000
40
0.0000000000
40
0.0000000000
40
0.0369060715
40
0.0926630134
40
0.1483481608
40
0.2034529207
40
0.2585148537
40
0.3159406183
40
0.3783435564
40
0.4481638066
40
0.5260965527
40
0.6119007426
40
0.7056043470
40
0.8079258201
40
0.9197254197
40
1.0000000000
40
1.0000000000
40
1.0000000000
40
1.0000000000
10
-218.0171644386
20
-173.4331094622
30
0.0000000000
10
-217.9968846868
20
-173.4318460024
30
0.0000000000
10
-217.9459778725
20
-173.4284917606
30
0.0000000000
10
-217.8645300761
20
-173.4223907351
30
0.0000000000
10
-217.7731697629
20
-173.4145549154
30
0.0000000000
10
-217.6822797185
20
-173.4057762030
30
0.0000000000
10
-217.5905356459
20
-173.3959260577
30
0.0000000000
10
-217.4949138725
20
-173.3846046516
30
0.0000000000
10
-217.3913720246
20
-173.3711253828
30
0.0000000000
10
-217.2768340279
20
-173.3547204734
30
0.0000000000
10
-217.1498149811
20
-173.3346690597
30
0.0000000000
10
-217.0101740460
20
-173.3103494812
30
0.0000000000
10
-216.8577888961
20
-173.2810718301
30
0.0000000000
10
-216.6919832248
20
-173.2459385991
30
0.0000000000
10
-216.5341409441
20
-173.2090558870
30
0.0000000000
10
-216.4316252854
20
-173.1830801296
30
0.0000000000
10
-216.3888680429
20
-173.1718915299
30
0.0000000000
11
-218.0171644386
21
-173.4331094622
31
0.0000000000
11
-217.9563391460
21
-173.4291016911
31
0.0000000000
11
-217.8645039135
21
-173.4222225702
31
0.0000000000
11
-217.7728664099
21
-173.4143629722
31
0.0000000000
11
-217.6822726727
21
-173.4056128755
31
0.0000000000
11
-217.5918477703
21
-173.3959043592
31
0.0000000000
11
-217.4976567819
21
-173.3847523490
31
0.0000000000
11
-217.3954496461
21
-173.3714468267
31
0.0000000000
11
-217.2812940151
21
-173.3550966687
31
0.0000000000
11
-217.1541487055
21
-173.3350253019
31
0.0000000000
11
-217.0145293884
21
-173.3107094597
31
0.0000000000
11
-216.8625410090
21
-173.2815079935
31
0.0000000000
11
-216.6972097413
21
-173.2464752369
31
0.0000000000
11
-216.5173965509
21
-173.2044585037
31
0.0000000000
11
-216.3888680429
21
-173.1718915299
31
0.0000000000
0
SPLINE
5
453
100
AcDbEntity
8
0
100
AcDbSpline
62
7
6
CONTINUOUS
70
0
71
3
72
8
73
4
74
2
42
0.0000001000
43
0.0000001000
44
0.0000000001
12
0.0668696985
22
0.0174982821
32
0.0000000000
13
0.0667240952
23
0.0180396434
33
0.0000000000
40
0.0000000000
40
0.0000000000
40
0.0000000000
40
0.0000000000
40
1.0000000000
40
1.0000000000
40
1.0000000000
40
1.0000000000
10
-216.3888680429
20
-173.1718915299
30
0.0000000000
10
-216.3665781434
20
-173.1660587692
30
0.0000000000
10
-216.3443120698
20
-173.1601356694
30
0.0000000000
10
-216.3220707048
20
-173.1541224550
30
0.0000000000
11
-216.3888680429
21
-173.1718915299
31
0.0000000000
11
-216.3220707048
21
-173.1541224550
31
0.0000000000
0
SPLINE
5
454
100
AcDbEntity
8
0
100
AcDbSpline
62
7
6
CONTINUOUS
70
0
71
3
72
10
73
6
74
4
42
0.0000001000
43
0.0000001000
44
0.0000000001
12
0.9497887726
22
-0.0538569761
32
0.0000000000
13
0.9497887726
23
0.0538569761
33
0.0000000000
40
0.0000000000
40
0.0000000000
40
0.0000000000
40
0.0000000000
40
0.3329543458
40
0.6670456297
40
1.0000000000
40
1.0000000000
40
1.0000000000
40
1.0000000000
10
-219.0229330787
20
-173.1541224550
30
0.0000000000
10
-218.9175209789
20
-173.1600997597
30
0.0000000000
10
-218.7060884647
20
-173.1680922995
30
0.0000000000
10
-218.3889153343
20
-173.1680922999
30
0.0000000000
10
-218.1774828123
20
-173.1600997601
30
0.0000000000
10
-218.0720707048
20
-173.1541224550
30
0.0000000000
11
-219.0229330787
21
-173.1541224550
31
0.0000000000
11
-218.7064148455
21
-173.1660873474
31
0.0000000000
11
-218.3885889613
21
-173.1660873479
31
0.0000000000
11
-218.0720707048
21
-173.1541224550
31
0.0000000000
0
SPLINE
5
455
100
AcDbEntity
8
0
100
AcDbSpline
62
7
6
CONTINUOUS
70
0
71
3
72
8
73
4
74
2
42
0.0000001000
43
0.0000001000
44
0.0000000001
12
0.0667240999
22
-0.0180396447
32
0.0000000000
13
0.0668696937
23
-0.0174982811
33
0.0000000000
40
0.0000000000
40
0.0000000000
40
0.0000000000
40
0.0000000000
40
1.0000000000
40
1.0000000000
40
1.0000000000
40
1.0000000000
10
-220.7729330787
20
-173.1541224550
30
0.0000000000
10
-220.7506917121
20
-173.1601356698
30
0.0000000000
10
-220.7284256385
20
-173.1660587697
30
0.0000000000
10
-220.7061357406
20
-173.1718915301
30
0.0000000000
11
-220.7729330787
21
-173.1541224550
31
0.0000000000
11
-220.7061357406
21
-173.1718915301
31
0.0000000000
0
SPLINE
5
456
100
AcDbEntity
8
0
100
AcDbSpline
62
7
6
CONTINUOUS
70
0
71
3
72
21
73
17
74
15
42
0.0000001000
43
0.0000001000
44
0.0000000001
12
1.5979120239
22
-0.4181373087
32
0.0000000000
13
1.6484891855
23
-0.1027034154
33
0.0000000000
40
0.0000000000
40
0.0000000000
40
0.0000000000
40
0.0000000000
40
0.0796971999
40
0.1910342742
40
0.2930151638
40
0.3865137413
40
0.4722874136
40
0.5504002748
40
0.6205661690
40
0.6832924050
40
0.7409461523
40
0.7961409455
40
0.8513178978
40
0.9071057486
40
0.9629812008
40
1.0000000000
40
1.0000000000
40
1.0000000000
40
1.0000000000
10
-220.7061357406
20
-173.1718915301
30
0.0000000000
10
-220.6636860359
20
-173.1829996543
30
0.0000000000
10
-220.5617269278
20
-173.2088404615
30
0.0000000000
10
-220.4046306451
20
-173.2455748202
30
0.0000000000
10
-220.2393762724
20
-173.2806317262
30
0.0000000000
10
-220.0873110634
20
-173.3098932139
30
0.0000000000
10
-219.9477077377
20
-173.3342508506
30
0.0000000000
10
-219.8204252713
20
-173.3543824128
30
0.0000000000
10
-219.7054285169
20
-173.3708817426
30
0.0000000000
10
-219.6013993838
20
-173.3844434765
30
0.0000000000
10
-219.5054049720
20
-173.3958213137
30
0.0000000000
10
-219.4134247361
20
-173.4057053308
30
0.0000000000
10
-219.3223666563
20
-173.4145068600
30
0.0000000000
10
-219.2308458108
20
-173.4223614943
30
0.0000000000
10
-219.1492148623
20
-173.4284789734
30
0.0000000000
10
-219.0981810415
20
-173.4318421431
30
0.0000000000
10
-219.0778393448
20
-173.4331094622
30
0.0000000000
11
-220.7061357406
21
-173.1718915301
31
0.0000000000
11
-220.5785334984
21
-173.2042314009
31
0.0000000000
11
-220.3994707599
21
-173.2461023686
31
0.0000000000
11
-220.2346979897
21
-173.2810571563
31
0.0000000000
11
-220.0830505352
21
-173.3102383025
31
0.0000000000
11
-219.9434884122
21
-173.3345887789
31
0.0000000000
11
-219.8160551941
21
-173.3547442057
31
0.0000000000
11
-219.7013384542
21
-173.3712033740
31
0.0000000000
11
-219.5986042037
21
-173.3845963097
31
0.0000000000
11
-219.5040406843
21
-173.3958045548
31
0.0000000000
11
-219.4133984792
21
-173.4055447942
31
0.0000000000
11
-219.3226866785
21
-173.4143128561
31
0.0000000000
11
-219.2308805878
21
-173.4221919752
31
0.0000000000
11
-219.1388503854
21
-173.4290887833
31
0.0000000000
11
-219.0778393448
21
-173.4331094622
31
0.0000000000
0
SPLINE
5
457
100
AcDbEntity
8
0
100
AcDbSpline
62
7
6
CONTINUOUS
70
0
71
3
72
8
73
4
74
2
42
0.0000001000
43
0.0000001000
44
0.0000000001
12
0.0303342100
22
-0.0018898680
32
0.0000000000
13
0.0303406203
23
-0.0017817487
33
0.0000000000
40
0.0000000000
40
0.0000000000
40
0.0000000000
40
0.0000000000
40
1.0000000000
40
1.0000000000
40
1.0000000000
40
1.0000000000
10
-219.0778393448
20
-173.4331094622
30
0.0000000000
10
-219.0677279415
20
-173.4337394182
30
0.0000000000
10
-219.0576154318
20
-173.4343513566
30
0.0000000000
10
-219.0475018917
20
-173.4349452729
30
0.0000000000
11
-219.0778393448
21
-173.4331094622
31
0.0000000000
11
-219.0475018917
21
-173.4349452729
31
0.0000000000
0
SPLINE
5
458
100
AcDbEntity
8
0
100
AcDbSpline
62
7
6
CONTINUOUS
70
0
71
3
72
8
73
4
74
2
42
0.0000001000
43
0.0000001000
44
0.0000000001
12
0.0303406205
22
0.0017817487
32
0.0000000000
13
0.0303342098
23
0.0018898680
33
0.0000000000
40
0.0000000000
40
0.0000000000
40
0.0000000000
40
0.0000000000
40
1.0000000000
40
1.0000000000
40
1.0000000000
40
1.0000000000
10
-14.0475018917
20
-173.4349452729
30
0.0000000000
10
-14.0373883516
20
-173.4343513566
30
0.0000000000
10
-14.0272758419
20
-173.4337394182
30
0.0000000000
10
-14.0171644386
20
-173.4331094622
30
0.0000000000
11
-14.0475018917
21
-173.4349452729
31
0.0000000000
11
-14.0171644386
21
-173.4331094622
31
0.0000000000
0
SPLINE
5
459
100
AcDbEntity
8
0
100
AcDbSpline
62
7
6
CONTINUOUS
70
0
71
3
72
21
73
17
74
15
42
0.0000001000
43
0.0000001000
44
0.0000000001
12
1.6484890681
22
0.1027034079
32
0.0000000000
13
1.5979121537
23
0.4181373358
33
0.0000000000
40
0.0000000000
40
0.0000000000
40
0.0000000000
40
0.0000000000
40
0.0369060715
40
0.0926630134
40
0.1483481608
40
0.2034529207
40
0.2585148537
40
0.3159406183
40
0.3783435564
40
0.4481638066
40
0.5260965527
40
0.6119007426
40
0.7056043470
40
0.8079258201
40
0.9197254197
40
1.0000000000
40
1.0000000000
40
1.0000000000
40
1.0000000000
10
-14.0171644386
20
-173.4331094622
30
0.0000000000
10
-13.9968846868
20
-173.4318460024
30
0.0000000000
10
-13.9459778725
20
-173.4284917606
30
0.0000000000
10
-13.8645300761
20
-173.4223907351
30
0.0000000000
10
-13.7731697629
20
-173.4145549154
30
0.0000000000
10
-13.6822797185
20
-173.4057762030
30
0.0000000000
10
-13.5905356459
20
-173.3959260577
30
0.0000000000
10
-13.4949138725
20
-173.3846046516
30
0.0000000000
10
-13.3913720246
20
-173.3711253828
30
0.0000000000
10
-13.2768340279
20
-173.3547204734
30
0.0000000000
10
-13.1498149811
20
-173.3346690597
30
0.0000000000
10
-13.0101740460
20
-173.3103494812
30
0.0000000000
10
-12.8577888961
20
-173.2810718301
30
0.0000000000
10
-12.6919832248
20
-173.2459385991
30
0.0000000000
10
-12.5341409441
20
-173.2090558870
30
0.0000000000
10
-12.4316252854
20
-173.1830801296
30
0.0000000000
10
-12.3888680429
20
-173.1718915299
30
0.0000000000
11
-14.0171644386
21
-173.4331094622
31
0.0000000000
11
-13.9563391460
21
-173.4291016911
31
0.0000000000
11
-13.8645039135
21
-173.4222225702
31
0.0000000000
11
-13.7728664099
21
-173.4143629722
31
0.0000000000
11
-13.6822726727
21
-173.4056128755
31
0.0000000000
11
-13.5918477703
21
-173.3959043592
31
0.0000000000
11
-13.4976567819
21
-173.3847523490
31
0.0000000000
11
-13.3954496461
21
-173.3714468267
31
0.0000000000
11
-13.2812940151
21
-173.3550966687
31
0.0000000000
11
-13.1541487055
21
-173.3350253019
31
0.0000000000
11
-13.0145293884
21
-173.3107094597
31
0.0000000000
11
-12.8625410090
21
-173.2815079935
31
0.0000000000
11
-12.6972097413
21
-173.2464752369
31
0.0000000000
11
-12.5173965509
21
-173.2044585037
31
0.0000000000
11
-12.3888680429
21
-173.1718915299
31
0.0000000000
0
SPLINE
5
45A
100
AcDbEntity
8
0
100
AcDbSpline
62
7
6
CONTINUOUS
70
0
71
3
72
8
73
4
74
2
42
0.0000001000
43
0.0000001000
44
0.0000000001
12
0.0668696985
22
0.0174982821
32
0.0000000000
13
0.0667240952
23
0.0180396434
33
0.0000000000
40
0.0000000000
40
0.0000000000
40
0.0000000000
40
0.0000000000
40
1.0000000000
40
1.0000000000
40
1.0000000000
40
1.0000000000
10
-12.3888680429
20
-173.1718915299
30
0.0000000000
10
-12.3665781434
20
-173.1660587692
30
0.0000000000
10
-12.3443120698
20
-173.1601356694
30
0.0000000000
10
-12.3220707048
20
-173.1541224550
30
0.0000000000
11
-12.3888680429
21
-173.1718915299
31
0.0000000000
11
-12.3220707048
21
-173.1541224550
31
0.0000000000
0
SPLINE
5
45B
100
AcDbEntity
8
0
100
AcDbSpline
62
7
6
CONTINUOUS
70
0
71
3
72
10
73
6
74
4
42
0.0000001000
43
0.0000001000
44
0.0000000001
12
0.9497887726
22
-0.0538569761
32
0.0000000000
13
0.9497887726
23
0.0538569761
33
0.0000000000
40
0.0000000000
40
0.0000000000
40
0.0000000000
40
0.0000000000
40
0.3329543458
40
0.6670456297
40
1.0000000000
40
1.0000000000
40
1.0000000000
40
1.0000000000
10
-15.0229330787
20
-173.1541224550
30
0.0000000000
10
-14.9175209789
20
-173.1600997597
30
0.0000000000
10
-14.7060884647
20
-173.1680922995
30
0.0000000000
10
-14.3889153343
20
-173.1680922999
30
0.0000000000
10
-14.1774828123
20
-173.1600997601
30
0.0000000000
10
-14.0720707048
20
-173.1541224550
30
0.0000000000
11
-15.0229330787
21
-173.1541224550
31
0.0000000000
11
-14.7064148455
21
-173.1660873474
31
0.0000000000
11
-14.3885889613
21
-173.1660873479
31
0.0000000000
11
-14.0720707048
21
-173.1541224550
31
0.0000000000
0
SPLINE
5
45C
100
AcDbEntity
8
0
100
AcDbSpline
62
7
6
CONTINUOUS
70
0
71
3
72
8
73
4
74
2
42
0.0000001000
43
0.0000001000
44
0.0000000001
12
0.0667240999
22
-0.0180396447
32
0.0000000000
13
0.0668696937
23
-0.0174982811
33
0.0000000000
40
0.0000000000
40
0.0000000000
40
0.0000000000
40
0.0000000000
40
1.0000000000
40
1.0000000000
40
1.0000000000
40
1.0000000000
10
-16.7729330787
20
-173.1541224550
30
0.0000000000
10
-16.7506917121
20
-173.1601356698
30
0.0000000000
10
-16.7284256385
20
-173.1660587697
30
0.0000000000
10
-16.7061357406
20
-173.1718915301
30
0.0000000000
11
-16.7729330787
21
-173.1541224550
31
0.0000000000
11
-16.7061357406
21
-173.1718915301
31
0.0000000000
0
SPLINE
5
45D
100
AcDbEntity
8
0
100
AcDbSpline
62
7
6
CONTINUOUS
70
0
71
3
72
21
73
17
74
15
42
0.0000001000
43
0.0000001000
44
0.0000000001
12
1.5979120239
22
-0.4181373087
32
0.0000000000
13
1.6484891855
23
-0.1027034154
33
0.0000000000
40
0.0000000000
40
0.0000000000
40
0.0000000000
40
0.0000000000
40
0.0796971999
40
0.1910342742
40
0.2930151638
40
0.3865137413
40
0.4722874136
40
0.5504002748
40
0.6205661690
40
0.6832924050
40
0.7409461523
40
0.7961409455
40
0.8513178978
40
0.9071057486
40
0.9629812008
40
1.0000000000
40
1.0000000000
40
1.0000000000
40
1.0000000000
10
-16.7061357406
20
-173.1718915301
30
0.0000000000
10
-16.6636860359
20
-173.1829996543
30
0.0000000000
10
-16.5617269278
20
-173.2088404615
30
0.0000000000
10
-16.4046306451
20
-173.2455748202
30
0.0000000000
10
-16.2393762724
20
-173.2806317262
30
0.0000000000
10
-16.0873110634
20
-173.3098932139
30
0.0000000000
10
-15.9477077377
20
-173.3342508506
30
0.0000000000
10
-15.8204252713
20
-173.3543824128
30
0.0000000000
10
-15.7054285169
20
-173.3708817426
30
0.0000000000
10
-15.6013993838
20
-173.3844434765
30
0.0000000000
10
-15.5054049720
20
-173.3958213137
30
0.0000000000
10
-15.4134247361
20
-173.4057053308
30
0.0000000000
10
-15.3223666563
20
-173.4145068600
30
0.0000000000
10
-15.2308458108
20
-173.4223614943
30
0.0000000000
10
-15.1492148623
20
-173.4284789734
30
0.0000000000
10
-15.0981810415
20
-173.4318421431
30
0.0000000000
10
-15.0778393448
20
-173.4331094622
30
0.0000000000
11
-16.7061357406
21
-173.1718915301
31
0.0000000000
11
-16.5785334984
21
-173.2042314009
31
0.0000000000
11
-16.3994707599
21
-173.2461023686
31
0.0000000000
11
-16.2346979897
21
-173.2810571563
31
0.0000000000
11
-16.0830505352
21
-173.3102383025
31
0.0000000000
11
-15.9434884122
21
-173.3345887789
31
0.0000000000
11
-15.8160551941
21
-173.3547442057
31
0.0000000000
11
-15.7013384542
21
-173.3712033740
31
0.0000000000
11
-15.5986042037
21
-173.3845963097
31
0.0000000000
11
-15.5040406843
21
-173.3958045548
31
0.0000000000
11
-15.4133984792
21
-173.4055447942
31
0.0000000000
11
-15.3226866785
21
-173.4143128561
31
0.0000000000
11
-15.2308805878
21
-173.4221919752
31
0.0000000000
11
-15.1388503854
21
-173.4290887833
31
0.0000000000
11
-15.0778393448
21
-173.4331094622
31
0.0000000000
0
SPLINE
5
45E
100
AcDbEntity
8
0
100
AcDbSpline
62
7
6
CONTINUOUS
70
0
71
3
72
8
73
4
74
2
42
0.0000001000
43
0.0000001000
44
0.0000000001
12
0.0303342100
22
-0.0018898680
32
0.0000000000
13
0.0303406203
23
-0.0017817487
33
0.0000000000
40
0.0000000000
40
0.0000000000
40
0.0000000000
40
0.0000000000
40
1.0000000000
40
1.0000000000
40
1.0000000000
40
1.0000000000
10
-15.0778393448
20
-173.4331094622
30
0.0000000000
10
-15.0677279415
20
-173.4337394182
30
0.0000000000
10
-15.0576154318
20
-173.4343513566
30
0.0000000000
10
-15.0475018917
20
-173.4349452729
30
0.0000000000
11
-15.0778393448
21
-173.4331094622
31
0.0000000000
11
-15.0475018917
21
-173.4349452729
31
0.0000000000
0
SPLINE
5
45F
100
AcDbEntity
8
0
100
AcDbSpline
62
3
6
CONTINUOUS
70
0
71
3
72
10
73
6
74
4
42
0.0000001000
43
0.0000001000
44
0.0000000001
12
2.6099556135
22
0.0000000000
32
0.0000000000
13
1.1105578118
23
-2.3697955754
33
0.0000000000
40
0.0000000000
40
0.0000000000
40
0.0000000000
40
0.0000000000
40
0.2616409456
40
0.6796994615
40
1.0000000000
40
1.0000000000
40
1.0000000000
40
1.0000000000
10
88.4190026998
20
56.5355919002
30
0.0000000000
10
88.6466264513
20
56.5355919002
30
0.0000000000
10
89.1719738875
20
56.1178955731
30
0.0000000000
10
89.5759762873
20
55.3676937313
30
0.0000000000
10
89.8555920351
20
54.7880619893
30
0.0000000000
10
89.9741627901
20
54.5350463897
30
0.0000000000
11
88.4190026998
21
56.5355919002
31
0.0000000000
11
89.0139222753
21
56.2003548959
31
0.0000000000
11
89.6094812876
21
55.2861122608
31
0.0000000000
11
89.9741627901
21
54.5350463897
31
0.0000000000
0
SPLINE
5
460
100
AcDbEntity
8
0
100
AcDbSpline
62
3
6
CONTINUOUS
70
0
71
3
72
8
73
4
74
2
42
0.0000001000
43
0.0000001000
44
0.0000000001
12
0.2335407787
22
-0.4983476755
32
0.0000000000
13
0.2271586956
23
-0.4996365123
33
0.0000000000
40
0.0000000000
40
0.0000000000
40
0.0000000000
40
0.0000000000
40
1.0000000000
40
1.0000000000
40
1.0000000000
40
1.0000000000
10
89.9741627901
20
54.5350463897
30
0.0000000000
10
90.0520097163
20
54.3689304979
30
0.0000000000
10
90.1286812980
20
54.2021374043
30
0.0000000000
10
90.2044008632
20
54.0355919002
30
0.0000000000
11
89.9741627901
21
54.5350463897
31
0.0000000000
11
90.2044008632
21
54.0355919002
31
0.0000000000
0
SPLINE
5
461
100
AcDbEntity
8
0
100
AcDbSpline
62
3
6
CONTINUOUS
70
0
71
3
72
10
73
6
74
4
42
0.0000001000
43
0.0000001000
44
0.0000000001
12
-2.6099556135
22
0.0000000000
32
0.0000000000
13
-1.1105578118
23
-2.3697955754
33
0.0000000000
40
0.0000000000
40
0.0000000000
40
0.0000000000
40
0.0000000000
40
0.2616409456
40
0.6796994615
40
1.0000000000
40
1.0000000000
40
1.0000000000
40
1.0000000000
10
-335.5140064832
20
56.5355919002
30
0.0000000000
10
-335.7416302348
20
56.5355919002
30
0.0000000000
10
-336.2669776709
20
56.1178955731
30
0.0000000000
10
-336.6709800707
20
55.3676937313
30
0.0000000000
10
-336.9505958185
20
54.7880619893
30
0.0000000000
10
-337.0691665736
20
54.5350463897
30
0.0000000000
11
-335.5140064832
21
56.5355919002
31
0.0000000000
11
-336.1089260588
21
56.2003548959
31
0.0000000000
11
-336.7044850711
21
55.2861122608
31
0.0000000000
11
-337.0691665736
21
54.5350463897
31
0.0000000000
0
SPLINE
5
462
100
AcDbEntity
8
0
100
AcDbSpline
62
3
6
CONTINUOUS
70
0
71
3
72
8
73
4
74
2
42
0.0000001000
43
0.0000001000
44
0.0000000001
12
-0.2335407787
22
-0.4983476755
32
0.0000000000
13
-0.2271586956
23
-0.4996365123
33
0.0000000000
40
0.0000000000
40
0.0000000000
40
0.0000000000
40
0.0000000000
40
1.0000000000
40
1.0000000000
40
1.0000000000
40
1.0000000000
10
-337.0691665736
20
54.5350463897
30
0.0000000000
10
-337.1470134998
20
54.3689304979
30
0.0000000000
10
-337.2236850814
20
54.2021374043
30
0.0000000000
10
-337.2994046466
20
54.0355919002
30
0.0000000000
11
-337.0691665736
21
54.5350463897
31
0.0000000000
11
-337.2994046466
21
54.0355919002
31
0.0000000000
0
SPLINE
5
463
100
AcDbEntity
8
0
100
AcDbSpline
62
7
6
CONTINUOUS
70
0
71
3
72
18
73
14
74
12
42
0.0000001000
43
0.0000001000
44
0.0000000001
12
-1.7251478745
22
-0.0408059379
32
0.0000000000
13
-1.7256076356
23
-0.0088657572
33
0.0000000000
40
0.0000000000
40
0.0000000000
40
0.0000000000
40
0.0000000000
40
0.0787662396
40
0.1589613932
40
0.2393806631
40
0.3188048569
40
0.3980484518
40
0.4831813277
40
0.5809115787
40
0.6906046378
40
0.8028617799
40
0.9087989218
40
1.0000000000
40
1.0000000000
40
1.0000000000
40
1.0000000000
10
-478.0665271611
20
-145.4398392868
30
0.0000000000
10
-478.1118216314
20
-145.4409106636
30
0.0000000000
10
-478.2032339584
20
-145.4430020266
30
0.0000000000
10
-478.3408968705
20
-145.4459389221
30
0.0000000000
10
-478.4789425347
20
-145.4486711994
30
0.0000000000
10
-478.6164449240
20
-145.4511841806
30
0.0000000000
10
-478.7566618358
20
-145.4535378468
30
0.0000000000
10
-478.9074107972
20
-145.4558377909
30
0.0000000000
10
-479.0756766764
20
-145.4581213778
30
0.0000000000
10
-479.2595476999
20
-145.4602684969
30
0.0000000000
10
-479.4481431383
20
-145.4620920046
30
0.0000000000
10
-479.6261053026
20
-145.4634639885
30
0.0000000000
10
-479.7394992557
20
-145.4641385776
30
0.0000000000
10
-479.7919583481
20
-145.4644080998
30
0.0000000000
11
-478.0665271611
21
-145.4398392868
31
0.0000000000
11
-478.2024130112
21
-145.4429485812
31
0.0000000000
11
-478.3407687158
21
-145.4459006929
31
0.0000000000
11
-478.4795154716
21
-145.4486472482
31
0.0000000000
11
-478.6165493859
21
-145.4511520197
31
0.0000000000
11
-478.7532752767
21
-145.4534474031
31
0.0000000000
11
-478.9001660562
21
-145.4556888375
31
0.0000000000
11
-479.0687968144
21
-145.4579778471
31
0.0000000000
11
-479.2580735820
21
-145.4601886557
31
0.0000000000
11
-479.4517788612
21
-145.4620620645
31
0.0000000000
11
-479.6345817798
21
-145.4634716949
31
0.0000000000
11
-479.7919583481
21
-145.4644080998
31
0.0000000000
0
SPLINE
5
464
100
AcDbEntity
8
0
100
AcDbSpline
62
7
6
CONTINUOUS
70
0
71
3
72
10
73
6
74
4
42
0.0000001000
43
0.0000001000
44
0.0000000001
12
0.0047171601
22
-0.9508541351
32
0.0000000000
13
-0.0047171601
23
-0.9508541351
33
0.0000000000
40
0.0000000000
40
0.0000000000
40
0.0000000000
40
0.0000000000
40
0.3328755248
40
0.6671244506
40
1.0000000000
40
1.0000000000
40
1.0000000000
40
1.0000000000
10
-478.0665271611
20
-144.4889769129
30
0.0000000000
10
-478.0660037521
20
-144.5944822693
30
0.0000000000
10
-478.0653049475
20
-144.8059301921
30
0.0000000000
10
-478.0653049474
20
-145.1228859920
30
0.0000000000
10
-478.0660037520
20
-145.3343339226
30
0.0000000000
10
-478.0665271611
20
-145.4398392868
30
0.0000000000
11
-478.0665271611
21
-144.4889769129
31
0.0000000000
11
-478.0654803687
21
-144.8054951461
31
0.0000000000
11
-478.0654803686
21
-145.1233210303
31
0.0000000000
11
-478.0665271611
21
-145.4398392868
31
0.0000000000
0
SPLINE
5
465
100
AcDbEntity
8
0
100
AcDbSpline
62
7
6
CONTINUOUS
70
0
71
3
72
18
73
14
74
12
42
0.0000001000
43
0.0000001000
44
0.0000000001
12
1.7256076347
22
-0.0088657572
32
0.0000000000
13
1.7251478736
23
-0.0408059379
33
0.0000000000
40
0.0000000000
40
0.0000000000
40
0.0000000000
40
0.0000000000
40
0.0941019457
40
0.2003338572
40
0.3125780940
40
0.4231145869
40
0.5215177219
40
0.6066708334
40
0.6854030883
40
0.7639073883
40
0.8431682183
40
0.9221928836
40
1.0000000000
40
1.0000000000
40
1.0000000000
40
1.0000000000
10
-479.7919583481
20
-144.4644080998
30
0.0000000000
10
-479.7378306694
20
-144.4646861948
30
0.0000000000
10
-479.6225985986
20
-144.4653746921
30
0.0000000000
10
-479.4428058240
20
-144.4667706013
30
0.0000000000
10
-479.2535632382
20
-144.4686112459
30
0.0000000000
10
-479.0688276346
20
-144.4707805585
30
0.0000000000
10
-478.8996781782
20
-144.4730896713
30
0.0000000000
10
-478.7488248687
20
-144.4754043646
30
0.0000000000
10
-478.6094196597
20
-144.4777560418
30
0.0000000000
10
-478.4734068063
20
-144.4802514314
30
0.0000000000
10
-478.3372296736
20
-144.4829537745
30
0.0000000000
10
-478.2014577406
20
-144.4858543864
30
0.0000000000
10
-478.1112700883
20
-144.4879185821
30
0.0000000000
10
-478.0665271611
20
-144.4889769129
30
0.0000000000
11
-479.7919583481
21
-144.4644080998
31
0.0000000000
11
-479.6295760684
21
-144.4653784903
31
0.0000000000
11
-479.4462645789
21
-144.4668020513
31
0.0000000000
11
-479.2525816768
21
-144.4686863815
31
0.0000000000
11
-479.0618497000
21
-144.4709266899
31
0.0000000000
11
-478.8920580847
21
-144.4732450527
31
0.0000000000
11
-478.7451325864
21
-144.4754998339
31
0.0000000000
11
-478.6092891459
21
-144.4777917393
31
0.0000000000
11
-478.4738425386
21
-144.4802770817
31
0.0000000000
11
-478.3370945706
21
-144.4829911382
31
0.0000000000
11
-478.2007583234
21
-144.4859042242
31
0.0000000000
11
-478.0665271611
21
-144.4889769129
31
0.0000000000
0
SPLINE
5
466
100
AcDbEntity
8
0
100
AcDbSpline
62
7
6
CONTINUOUS
70
0
71
3
72
21
73
17
74
15
42
0.0000001000
43
0.0000001000
44
0.0000000001
12
0.0408059391
22
-1.7251479238
32
0.0000000000
13
0.0088657575
23
-1.7256076848
33
0.0000000000
40
0.0000000000
40
0.0000000000
40
0.0000000000
40
0.0000000000
40
0.1126828777
40
0.2164711509
40
0.3119731433
40
0.3998650453
40
0.4807504871
40
0.5546048962
40
0.6210882946
40
0.6806264951
40
0.7354288445
40
0.7879581739
40
0.8405273921
40
0.8937303696
40
0.9470628661
40
1.0000000000
40
1.0000000000
40
1.0000000000
40
1.0000000000
10
-479.8165271611
20
-142.7389769129
30
0.0000000000
10
-479.8149944509
20
-142.8037751237
30
0.0000000000
10
-479.8121879825
20
-142.9282600167
30
0.0000000000
10
-479.8085184859
20
-143.1076727249
30
0.0000000000
10
-479.8054537425
20
-143.2728344826
30
0.0000000000
10
-479.8028953114
20
-143.4248291772
30
0.0000000000
10
-479.8007654380
20
-143.5643772244
30
0.0000000000
10
-479.7990049780
20
-143.6916149443
30
0.0000000000
10
-479.7975620484
20
-143.8065766267
30
0.0000000000
10
-479.7963759134
20
-143.9105816544
30
0.0000000000
10
-479.7953806923
20
-144.0065617593
30
0.0000000000
10
-479.7945160745
20
-144.0985343284
30
0.0000000000
10
-479.7937461241
20
-144.1895877311
30
0.0000000000
10
-479.7930590085
20
-144.2811038001
30
0.0000000000
10
-479.7924576308
20
-144.3728321052
30
0.0000000000
10
-479.7921147907
20
-144.4339585248
30
0.0000000000
10
-479.7919583481
20
-144.4644080998
30
0.0000000000
11
-479.8165271611
21
-142.7389769129
31
0.0000000000
11
-479.8121431964
21
-142.9333764932
31
0.0000000000
11
-479.8084799614
21
-143.1124392317
31
0.0000000000
11
-479.8054218137
21
-143.2772120019
31
0.0000000000
11
-479.8028687942
21
-143.4288594563
31
0.0000000000
11
-479.8007384036
21
-143.5684215793
31
0.0000000000
11
-479.7989750323
21
-143.6958547975
31
0.0000000000
11
-479.7975350416
21
-143.8105715373
31
0.0000000000
11
-479.7963633116
21
-143.9133057879
31
0.0000000000
11
-479.7953827172
21
-144.0078693072
31
0.0000000000
11
-479.7945305567
21
-144.0985115124
31
0.0000000000
11
-479.7937634506
21
-144.1892233131
31
0.0000000000
11
-479.7930741171
21
-144.2810294037
31
0.0000000000
11
-479.7924707245
21
-144.3730596061
31
0.0000000000
11
-479.7919583481
21
-144.4644080998
31
0.0000000000
0
SPLINE
5
467
100
AcDbEntity
8
0
100
AcDbSpline
62
7
6
CONTINUOUS
70
0
71
3
72
10
73
6
74
4
42
0.0000001000
43
0.0000001000
44
0.0000000001
12
0.4754330804
22
0.0000000000
32
0.0000000000
13
0.4754272300
23
-0.0023585809
33
0.0000000000
40
0.0000000000
40
0.0000000000
40
0.0000000000
40
0.0000000000
40
0.3343840538
40
0.6679068347
40
1.0000000000
40
1.0000000000
40
1.0000000000
40
1.0000000000
10
-480.2919583481
20
-142.7377985663
30
0.0000000000
10
-480.2389659345
20
-142.7377985663
30
0.0000000000
10
-480.1331175781
20
-142.7378862113
30
0.0000000000
10
-479.9746403080
20
-142.7382796838
30
0.0000000000
10
-479.8691558723
20
-142.7387158233
30
0.0000000000
10
-479.8165271611
20
-142.7389769129
30
0.0000000000
11
-480.2919583481
21
-142.7377985663
31
0.0000000000
11
-480.1329811619
21
-142.7379302268
31
0.0000000000
11
-479.9744138876
21
-142.7383239931
31
0.0000000000
11
-479.8165271611
21
-142.7389769129
31
0.0000000000
0
SPLINE
5
468
100
AcDbEntity
8
0
100
AcDbSpline
62
7
6
CONTINUOUS
70
0
71
3
72
10
73
6
74
4
42
0.0000001000
43
0.0000001000
44
0.0000000001
12
-0.4754272300
22
-0.0023585809
32
0.0000000000
13
-0.4754330804
23
0.0000000000
33
0.0000000000
40
0.0000000000
40
0.0000000000
40
0.0000000000
40
0.0000000000
40
0.3321452322
40
0.6656578109
40
1.0000000000
40
1.0000000000
40
1.0000000000
40
1.0000000000
10
-479.8165271611
20
-147.1898392868
30
0.0000000000
10
-479.8691641237
20
-147.1901004173
30
0.0000000000
10
-479.9746551940
20
-147.1905365706
30
0.0000000000
10
-480.1331324641
20
-147.1909300062
30
0.0000000000
10
-480.2389725691
20
-147.1910176334
30
0.0000000000
10
-480.2919583481
20
-147.1910176334
30
0.0000000000
11
-479.8165271611
21
-147.1898392868
31
0.0000000000
11
-479.9744386418
21
-147.1904922885
31
0.0000000000
11
-480.1330010657
21
-147.1908860059
31
0.0000000000
11
-480.2919583481
21
-147.1910176334
31
0.0000000000
0
SPLINE
5
469
100
AcDbEntity
8
0
100
AcDbSpline
62
7
6
CONTINUOUS
70
0
71
3
72
21
73
17
74
15
42
0.0000001000
43
0.0000001000
44
0.0000000001
12
-0.0088657575
22
-1.7256076839
32
0.0000000000
13
-0.0408059390
23
-1.7251479229
33
0.0000000000
40
0.0000000000
40
0.0000000000
40
0.0000000000
40
0.0000000000
40
0.0528294913
40
0.1060489996
40
0.1591542766
40
0.2116550719
40
0.2640584652
40
0.3186449156
40
0.3778776234
40
0.4440358164
40
0.5177233401
40
0.5986418952
40
0.6867313520
40
0.7825570105
40
0.8867802295
40
1.0000000000
40
1.0000000000
40
1.0000000000
40
1.0000000000
10
-479.7919583481
20
-145.4644080998
30
0.0000000000
10
-479.7921144726
20
-145.4947957585
30
0.0000000000
10
-479.7924565425
20
-145.5557952713
30
0.0000000000
10
-479.7930564517
20
-145.6473404746
30
0.0000000000
10
-479.7937419214
20
-145.7386960034
30
0.0000000000
10
-479.7945098763
20
-145.8295814213
30
0.0000000000
10
-479.7953715330
20
-145.9213180232
30
0.0000000000
10
-479.7963618213
20
-146.0169258094
30
0.0000000000
10
-479.7975407475
20
-146.1204439161
30
0.0000000000
10
-479.7989754198
20
-146.2349468873
30
0.0000000000
10
-479.8007288635
20
-146.3619206700
30
0.0000000000
10
-479.8028553960
20
-146.5015054609
30
0.0000000000
10
-479.8054152231
20
-146.6538190361
30
0.0000000000
10
-479.8084866160
20
-146.8195307628
30
0.0000000000
10
-479.8121687402
20
-146.9996885573
30
0.0000000000
10
-479.8149871481
20
-147.1247323362
30
0.0000000000
10
-479.8165271611
20
-147.1898392868
30
0.0000000000
11
-479.7919583481
21
-145.4644080998
31
0.0000000000
11
-479.7924695952
21
-145.5555708455
31
0.0000000000
11
-479.7930714403
21
-145.6474060780
31
0.0000000000
11
-479.7937590661
21
-145.7390435816
31
0.0000000000
11
-479.7945246003
21
-145.8296373189
31
0.0000000000
11
-479.7953739854
21
-145.9200622213
31
0.0000000000
11
-479.7963496599
21
-146.0142532097
31
0.0000000000
11
-479.7975137423
21
-146.1164603454
31
0.0000000000
11
-479.7989441957
21
-146.2306159764
31
0.0000000000
11
-479.8007002128
21
-146.3577612861
31
0.0000000000
11
-479.8028275733
21
-146.4973806032
31
0.0000000000
11
-479.8053823706
21
-146.6493689825
31
0.0000000000
11
-479.8084473396
21
-146.8147002502
31
0.0000000000
11
-479.8121233275
21
-146.9945134406
31
0.0000000000
11
-479.8165271611
21
-147.1898392868
31
0.0000000000
0
SPLINE
5
46A
100
AcDbEntity
8
0
100
AcDbSpline
62
7
6
CONTINUOUS
70
0
71
3
72
10
73
6
74
4
42
0.0000001000
43
0.0000001000
44
0.0000000001
12
-0.4754330804
22
0.0000000000
32
0.0000000000
13
-0.4754272300
23
0.0023585809
33
0.0000000000
40
0.0000000000
40
0.0000000000
40
0.0000000000
40
0.0000000000
40
0.3343840538
40
0.6679068347
40
1.0000000000
40
1.0000000000
40
1.0000000000
40
1.0000000000
10
-480.2919583481
20
-147.1910176334
30
0.0000000000
10
-480.3449507617
20
-147.1910176334
30
0.0000000000
10
-480.4507991181
20
-147.1909299884
30
0.0000000000
10
-480.6092763881
20
-147.1905365159
30
0.0000000000
10
-480.7147608238
20
-147.1901003763
30
0.0000000000
10
-480.7673895350
20
-147.1898392868
30
0.0000000000
11
-480.2919583481
21
-147.1910176334
31
0.0000000000
11
-480.4509355343
21
-147.1908859729
31
0.0000000000
11
-480.6095028085
21
-147.1904922066
31
0.0000000000
11
-480.7673895350
21
-147.1898392868
31
0.0000000000
0
SPLINE
5
46B
100
AcDbEntity
8
0
100
AcDbSpline
62
7
6
CONTINUOUS
70
0
71
3
72
10
73
6
74
4
42
0.0000001000
43
0.0000001000
44
0.0000000001
12
0.4754272300
22
0.0023585809
32
0.0000000000
13
0.4754330804
23
0.0000000000
33
0.0000000000
40
0.0000000000
40
0.0000000000
40
0.0000000000
40
0.0000000000
40
0.3321452322
40
0.6656578109
40
1.0000000000
40
1.0000000000
40
1.0000000000
40
1.0000000000
10
-480.7673895350
20
-142.7389769129
30
0.0000000000
10
-480.7147525725
20
-142.7387157824
30
0.0000000000
10
-480.6092615021
20
-142.7382796291
30
0.0000000000
10
-480.4507842320
20
-142.7378861935
30
0.0000000000
10
-480.3449441270
20
-142.7377985663
30
0.0000000000
10
-480.2919583481
20
-142.7377985663
30
0.0000000000
11
-480.7673895350
21
-142.7389769129
31
0.0000000000
11
-480.6094780543
21
-142.7383239112
31
0.0000000000
11
-480.4509156305
21
-142.7379301938
31
0.0000000000
11
-480.2919583481
21
-142.7377985663
31
0.0000000000
0
SPLINE
5
46C
100
AcDbEntity
8
0
100
AcDbSpline
62
7
6
CONTINUOUS
70
0
71
3
72
21
73
17
74
15
42
0.0000001000
43
0.0000001000
44
0.0000000001
12
0.0088657575
22
1.7256076839
32
0.0000000000
13
0.0408059390
23
1.7251479229
33
0.0000000000
40
0.0000000000
40
0.0000000000
40
0.0000000000
40
0.0000000000
40
0.0528294913
40
0.1060489996
40
0.1591542766
40
0.2116550719
40
0.2640584652
40
0.3186449156
40
0.3778776234
40
0.4440358164
40
0.5177233401
40
0.5986418952
40
0.6867313520
40
0.7825570105
40
0.8867802295
40
1.0000000000
40
1.0000000000
40
1.0000000000
40
1.0000000000
10
-480.7919583481
20
-144.4644080998
30
0.0000000000
10
-480.7918022236
20
-144.4340204412
30
0.0000000000
10
-480.7914601537
20
-144.3730209284
30
0.0000000000
10
-480.7908602445
20
-144.2814757251
30
0.0000000000
10
-480.7901747748
20
-144.1901201962
30
0.0000000000
10
-480.7894068199
20
-144.0992347784
30
0.0000000000
10
-480.7885451632
20
-144.0074981765
30
0.0000000000
10
-480.7875548749
20
-143.9118903902
30
0.0000000000
10
-480.7863759487
20
-143.8083722836
30
0.0000000000
10
-480.7849412764
20
-143.6938693124
30
0.0000000000
10
-480.7831878326
20
-143.5668955296
30
0.0000000000
10
-480.7810613002
20
-143.4273107388
30
0.0000000000
10
-480.7785014730
20
-143.2749971636
30
0.0000000000
10
-480.7754300801
20
-143.1092854369
30
0.0000000000
10
-480.7717479559
20
-142.9291276424
30
0.0000000000
10
-480.7689295481
20
-142.8040838635
30
0.0000000000
10
-480.7673895350
20
-142.7389769129
30
0.0000000000
11
-480.7919583481
21
-144.4644080998
31
0.0000000000
11
-480.7914471009
21
-144.3732453541
31
0.0000000000
11
-480.7908452558
21
-144.2814101217
31
0.0000000000
11
-480.7901576301
21
-144.1897726180
31
0.0000000000
11
-480.7893920958
21
-144.0991788808
31
0.0000000000
11
-480.7885427107
21
-144.0087539784
31
0.0000000000
11
-480.7875670362
21
-143.9145629900
31
0.0000000000
11
-480.7864029539
21
-143.8123558542
31
0.0000000000
11
-480.7849725004
21
-143.6982002232
31
0.0000000000
11
-480.7832164834
21
-143.5710549136
31
0.0000000000
11
-480.7810891228
21
-143.4314355965
31
0.0000000000
11
-480.7785343256
21
-143.2794472172
31
0.0000000000
11
-480.7754693565
21
-143.1141159495
31
0.0000000000
11
-480.7717933687
21
-142.9343027590
31
0.0000000000
11
-480.7673895350
21
-142.7389769129
31
0.0000000000
0
SPLINE
5
46D
100
AcDbEntity
8
0
100
AcDbSpline
62
7
6
CONTINUOUS
70
0
71
3
72
18
73
14
74
12
42
0.0000001000
43
0.0000001000
44
0.0000000001
12
1.7251478745
22
0.0408059379
32
0.0000000000
13
1.7256076356
23
0.0088657572
33
0.0000000000
40
0.0000000000
40
0.0000000000
40
0.0000000000
40
0.0000000000
40
0.0787662396
40
0.1589613932
40
0.2393806631
40
0.3188048569
40
0.3980484518
40
0.4831813277
40
0.5809115787
40
0.6906046378
40
0.8028617799
40
0.9087989218
40
1.0000000000
40
1.0000000000
40
1.0000000000
40
1.0000000000
10
-482.5173895350
20
-144.4889769129
30
0.0000000000
10
-482.4720950648
20
-144.4879055361
30
0.0000000000
10
-482.3806827377
20
-144.4858141731
30
0.0000000000
10
-482.2430198256
20
-144.4828772776
30
0.0000000000
10
-482.1049741615
20
-144.4801450003
30
0.0000000000
10
-481.9674717721
20
-144.4776320190
30
0.0000000000
10
-481.8272548603
20
-144.4752783529
30
0.0000000000
10
-481.6765058989
20
-144.4729784088
30
0.0000000000
10
-481.5082400198
20
-144.4706948218
30
0.0000000000
10
-481.3243689963
20
-144.4685477028
30
0.0000000000
10
-481.1357735579
20
-144.4667241950
30
0.0000000000
10
-480.9578113935
20
-144.4653522112
30
0.0000000000
10
-480.8444174404
20
-144.4646776220
30
0.0000000000
10
-480.7919583481
20
-144.4644080998
30
0.0000000000
11
-482.5173895350
21
-144.4889769129
31
0.0000000000
11
-482.3815036850
21
-144.4858676185
31
0.0000000000
11
-482.2431479803
21
-144.4829155068
31
0.0000000000
11
-482.1044012246
21
-144.4801689515
31
0.0000000000
11
-481.9673673102
21
-144.4776641800
31
0.0000000000
11
-481.8306414194
21
-144.4753687966
31
0.0000000000
11
-481.6837506400
21
-144.4731273622
31
0.0000000000
11
-481.5151198817
21
-144.4708383526
31
0.0000000000
11
-481.3258431142
21
-144.4686275440
31
0.0000000000
11
-481.1321378350
21
-144.4667541352
31
0.0000000000
11
-480.9493349164
21
-144.4653445048
31
0.0000000000
11
-480.7919583481
21
-144.4644080998
31
0.0000000000
0
SPLINE
5
46E
100
AcDbEntity
8
0
100
AcDbSpline
62
7
6
CONTINUOUS
70
0
71
3
72
10
73
6
74
4
42
0.0000001000
43
0.0000001000
44
0.0000000001
12
-0.0047171601
22
0.9508541351
32
0.0000000000
13
0.0047171601
23
0.9508541351
33
0.0000000000
40
0.0000000000
40
0.0000000000
40
0.0000000000
40
0.0000000000
40
0.3328755248
40
0.6671244506
40
1.0000000000
40
1.0000000000
40
1.0000000000
40
1.0000000000
10
-482.5173895350
20
-145.4398392868
30
0.0000000000
10
-482.5179129441
20
-145.3343339304
30
0.0000000000
10
-482.5186117487
20
-145.1228860075
30
0.0000000000
10
-482.5186117487
20
-144.8059302077
30
0.0000000000
10
-482.5179129441
20
-144.5944822771
30
0.0000000000
10
-482.5173895350
20
-144.4889769129
30
0.0000000000
11
-482.5173895350
21
-145.4398392868
31
0.0000000000
11
-482.5184363275
21
-145.1233210536
31
0.0000000000
11
-482.5184363275
21
-144.8054951694
31
0.0000000000
11
-482.5173895350
21
-144.4889769129
31
0.0000000000
0
SPLINE
5
46F
100
AcDbEntity
8
0
100
AcDbSpline
62
7
6
CONTINUOUS
70
0
71
3
72
18
73
14
74
12
42
0.0000001000
43
0.0000001000
44
0.0000000001
12
-1.7256076347
22
0.0088657572
32
0.0000000000
13
-1.7251478736
23
0.0408059379
33
0.0000000000
40
0.0000000000
40
0.0000000000
40
0.0000000000
40
0.0000000000
40
0.0941019457
40
0.2003338572
40
0.3125780940
40
0.4231145869
40
0.5215177219
40
0.6066708334
40
0.6854030883
40
0.7639073883
40
0.8431682183
40
0.9221928836
40
1.0000000000
40
1.0000000000
40
1.0000000000
40
1.0000000000
10
-480.7919583481
20
-145.4644080998
30
0.0000000000
10
-480.8460860267
20
-145.4641300048
30
0.0000000000
10
-480.9613180976
20
-145.4634415076
30
0.0000000000
10
-481.1411108722
20
-145.4620455984
30
0.0000000000
10
-481.3303534580
20
-145.4602049538
30
0.0000000000
10
-481.5150890616
20
-145.4580356412
30
0.0000000000
10
-481.6842385180
20
-145.4557265284
30
0.0000000000
10
-481.8350918275
20
-145.4534118351
30
0.0000000000
10
-481.9744970364
20
-145.4510601579
30
0.0000000000
10
-482.1105098899
20
-145.4485647683
30
0.0000000000
10
-482.2466870226
20
-145.4458624252
30
0.0000000000
10
-482.3824589556
20
-145.4429618133
30
0.0000000000
10
-482.4726466079
20
-145.4408976176
30
0.0000000000
10
-482.5173895350
20
-145.4398392868
30
0.0000000000
11
-480.7919583481
21
-145.4644080998
31
0.0000000000
11
-480.9543406278
21
-145.4634377093
31
0.0000000000
11
-481.1376521173
21
-145.4620141483
31
0.0000000000
11
-481.3313350194
21
-145.4601298182
31
0.0000000000
11
-481.5220669962
21
-145.4578895098
31
0.0000000000
11
-481.6918586114
21
-145.4555711470
31
0.0000000000
11
-481.8387841097
21
-145.4533163658
31
0.0000000000
11
-481.9746275503
21
-145.4510244604
31
0.0000000000
11
-482.1100741576
21
-145.4485391180
31
0.0000000000
11
-482.2468221255
21
-145.4458250614
31
0.0000000000
11
-482.3831583727
21
-145.4429119755
31
0.0000000000
11
-482.5173895350
21
-145.4398392868
31
0.0000000000
0
SPLINE
5
470
100
AcDbEntity
8
0
100
AcDbSpline
62
7
6
CONTINUOUS
70
0
71
3
72
21
73
17
74
15
42
0.0000001000
43
0.0000001000
44
0.0000000001
12
-0.0408059391
22
1.7251479238
32
0.0000000000
13
-0.0088657575
23
1.7256076848
33
0.0000000000
40
0.0000000000
40
0.0000000000
40
0.0000000000
40
0.0000000000
40
0.1126828777
40
0.2164711509
40
0.3119731433
40
0.3998650453
40
0.4807504871
40
0.5546048962
40
0.6210882946
40
0.6806264951
40
0.7354288445
40
0.7879581739
40
0.8405273921
40
0.8937303696
40
0.9470628661
40
1.0000000000
40
1.0000000000
40
1.0000000000
40
1.0000000000
10
-480.7673895350
20
-147.1898392868
30
0.0000000000
10
-480.7689222453
20
-147.1250410760
30
0.0000000000
10
-480.7717287136
20
-147.0005561830
30
0.0000000000
10
-480.7753982103
20
-146.8211434748
30
0.0000000000
10
-480.7784629537
20
-146.6559817170
30
0.0000000000
10
-480.7810213847
20
-146.5039870224
30
0.0000000000
10
-480.7831512582
20
-146.3644389752
30
0.0000000000
10
-480.7849117182
20
-146.2372012554
30
0.0000000000
10
-480.7863546478
20
-146.1222395730
30
0.0000000000
10
-480.7875407828
20
-146.0182345453
30
0.0000000000
10
-480.7885360039
20
-145.9222544404
30
0.0000000000
10
-480.7894006217
20
-145.8302818712
30
0.0000000000
10
-480.7901705721
20
-145.7392284686
30
0.0000000000
10
-480.7908576876
20
-145.6477123996
30
0.0000000000
10
-480.7914590654
20
-145.5559840945
30
0.0000000000
10
-480.7918019055
20
-145.4948576748
30
0.0000000000
10
-480.7919583481
20
-145.4644080998
30
0.0000000000
11
-480.7673895350
21
-147.1898392868
31
0.0000000000
11
-480.7717734998
21
-146.9954397065
31
0.0000000000
11
-480.7754367348
21
-146.8163769680
31
0.0000000000
11
-480.7784948824
21
-146.6516041978
31
0.0000000000
11
-480.7810479019
21
-146.4999567433
31
0.0000000000
11
-480.7831782925
21
-146.3603946203
31
0.0000000000
11
-480.7849416639
21
-146.2329614022
31
0.0000000000
11
-480.7863816545
21
-146.1182446623
31
0.0000000000
11
-480.7875533846
21
-146.0155104118
31
0.0000000000
11
-480.7885339790
21
-145.9209468925
31
0.0000000000
11
-480.7893861395
21
-145.8303046873
31
0.0000000000
11
-480.7901532455
21
-145.7395928866
31
0.0000000000
11
-480.7908425791
21
-145.6477867960
31
0.0000000000
11
-480.7914459716
21
-145.5557565936
31
0.0000000000
11
-480.7919583481
21
-145.4644080998
31
0.0000000000
0
SPLINE
5
471
100
AcDbEntity
8
0
100
AcDbSpline
62
7
6
CONTINUOUS
70
0
71
3
72
18
73
14
74
12
42
0.0000001000
43
0.0000001000
44
0.0000000001
12
-1.7251478745
22
-0.0408059379
32
0.0000000000
13
-1.7256076356
23
-0.0088657572
33
0.0000000000
40
0.0000000000
40
0.0000000000
40
0.0000000000
40
0.0000000000
40
0.0787662396
40
0.1589613932
40
0.2393806631
40
0.3188048569
40
0.3980484518
40
0.4831813277
40
0.5809115787
40
0.6906046378
40
0.8028617799
40
0.9087989218
40
1.0000000000
40
1.0000000000
40
1.0000000000
40
1.0000000000
10
-478.0665271611
20
-75.4398392868
30
0.0000000000
10
-478.1118216314
20
-75.4409106636
30
0.0000000000
10
-478.2032339584
20
-75.4430020266
30
0.0000000000
10
-478.3408968705
20
-75.4459389221
30
0.0000000000
10
-478.4789425347
20
-75.4486711994
30
0.0000000000
10
-478.6164449240
20
-75.4511841806
30
0.0000000000
10
-478.7566618358
20
-75.4535378468
30
0.0000000000
10
-478.9074107972
20
-75.4558377909
30
0.0000000000
10
-479.0756766764
20
-75.4581213778
30
0.0000000000
10
-479.2595476999
20
-75.4602684969
30
0.0000000000
10
-479.4481431383
20
-75.4620920046
30
0.0000000000
10
-479.6261053026
20
-75.4634639885
30
0.0000000000
10
-479.7394992557
20
-75.4641385776
30
0.0000000000
10
-479.7919583481
20
-75.4644080998
30
0.0000000000
11
-478.0665271611
21
-75.4398392868
31
0.0000000000
11
-478.2024130112
21
-75.4429485812
31
0.0000000000
11
-478.3407687158
21
-75.4459006929
31
0.0000000000
11
-478.4795154716
21
-75.4486472482
31
0.0000000000
11
-478.6165493859
21
-75.4511520197
31
0.0000000000
11
-478.7532752767
21
-75.4534474031
31
0.0000000000
11
-478.9001660562
21
-75.4556888375
31
0.0000000000
11
-479.0687968144
21
-75.4579778471
31
0.0000000000
11
-479.2580735820
21
-75.4601886557
31
0.0000000000
11
-479.4517788612
21
-75.4620620645
31
0.0000000000
11
-479.6345817798
21
-75.4634716949
31
0.0000000000
11
-479.7919583481
21
-75.4644080998
31
0.0000000000
0
SPLINE
5
472
100
AcDbEntity
8
0
100
AcDbSpline
62
7
6
CONTINUOUS
70
0
71
3
72
10
73
6
74
4
42
0.0000001000
43
0.0000001000
44
0.0000000001
12
0.0047171601
22
-0.9508541351
32
0.0000000000
13
-0.0047171601
23
-0.9508541351
33
0.0000000000
40
0.0000000000
40
0.0000000000
40
0.0000000000
40
0.0000000000
40
0.3328755248
40
0.6671244506
40
1.0000000000
40
1.0000000000
40
1.0000000000
40
1.0000000000
10
-478.0665271611
20
-74.4889769129
30
0.0000000000
10
-478.0660037521
20
-74.5944822693
30
0.0000000000
10
-478.0653049475
20
-74.8059301921
30
0.0000000000
10
-478.0653049474
20
-75.1228859920
30
0.0000000000
10
-478.0660037520
20
-75.3343339226
30
0.0000000000
10
-478.0665271611
20
-75.4398392868
30
0.0000000000
11
-478.0665271611
21
-74.4889769129
31
0.0000000000
11
-478.0654803687
21
-74.8054951461
31
0.0000000000
11
-478.0654803686
21
-75.1233210303
31
0.0000000000
11
-478.0665271611
21
-75.4398392868
31
0.0000000000
0
SPLINE
5
473
100
AcDbEntity
8
0
100
AcDbSpline
62
7
6
CONTINUOUS
70
0
71
3
72
18
73
14
74
12
42
0.0000001000
43
0.0000001000
44
0.0000000001
12
1.7256076347
22
-0.0088657572
32
0.0000000000
13
1.7251478736
23
-0.0408059379
33
0.0000000000
40
0.0000000000
40
0.0000000000
40
0.0000000000
40
0.0000000000
40
0.0941019457
40
0.2003338572
40
0.3125780940
40
0.4231145869
40
0.5215177219
40
0.6066708334
40
0.6854030883
40
0.7639073883
40
0.8431682183
40
0.9221928836
40
1.0000000000
40
1.0000000000
40
1.0000000000
40
1.0000000000
10
-479.7919583481
20
-74.4644080998
30
0.0000000000
10
-479.7378306694
20
-74.4646861948
30
0.0000000000
10
-479.6225985986
20
-74.4653746921
30
0.0000000000
10
-479.4428058240
20
-74.4667706013
30
0.0000000000
10
-479.2535632382
20
-74.4686112459
30
0.0000000000
10
-479.0688276346
20
-74.4707805585
30
0.0000000000
10
-478.8996781782
20
-74.4730896713
30
0.0000000000
10
-478.7488248687
20
-74.4754043646
30
0.0000000000
10
-478.6094196597
20
-74.4777560418
30
0.0000000000
10
-478.4734068063
20
-74.4802514314
30
0.0000000000
10
-478.3372296736
20
-74.4829537745
30
0.0000000000
10
-478.2014577406
20
-74.4858543864
30
0.0000000000
10
-478.1112700883
20
-74.4879185821
30
0.0000000000
10
-478.0665271611
20
-74.4889769129
30
0.0000000000
11
-479.7919583481
21
-74.4644080998
31
0.0000000000
11
-479.6295760684
21
-74.4653784903
31
0.0000000000
11
-479.4462645789
21
-74.4668020513
31
0.0000000000
11
-479.2525816768
21
-74.4686863815
31
0.0000000000
11
-479.0618497000
21
-74.4709266899
31
0.0000000000
11
-478.8920580847
21
-74.4732450527
31
0.0000000000
11
-478.7451325864
21
-74.4754998339
31
0.0000000000
11
-478.6092891459
21
-74.4777917393
31
0.0000000000
11
-478.4738425386
21
-74.4802770817
31
0.0000000000
11
-478.3370945706
21
-74.4829911382
31
0.0000000000
11
-478.2007583234
21
-74.4859042242
31
0.0000000000
11
-478.0665271611
21
-74.4889769129
31
0.0000000000
0
SPLINE
5
474
100
AcDbEntity
8
0
100
AcDbSpline
62
7
6
CONTINUOUS
70
0
71
3
72
21
73
17
74
15
42
0.0000001000
43
0.0000001000
44
0.0000000001
12
0.0408059391
22
-1.7251479238
32
0.0000000000
13
0.0088657575
23
-1.7256076848
33
0.0000000000
40
0.0000000000
40
0.0000000000
40
0.0000000000
40
0.0000000000
40
0.1126828777
40
0.2164711509
40
0.3119731433
40
0.3998650453
40
0.4807504871
40
0.5546048962
40
0.6210882946
40
0.6806264951
40
0.7354288445
40
0.7879581739
40
0.8405273921
40
0.8937303696
40
0.9470628661
40
1.0000000000
40
1.0000000000
40
1.0000000000
40
1.0000000000
10
-479.8165271611
20
-72.7389769129
30
0.0000000000
10
-479.8149944509
20
-72.8037751237
30
0.0000000000
10
-479.8121879825
20
-72.9282600167
30
0.0000000000
10
-479.8085184859
20
-73.1076727249
30
0.0000000000
10
-479.8054537425
20
-73.2728344826
30
0.0000000000
10
-479.8028953114
20
-73.4248291772
30
0.0000000000
10
-479.8007654380
20
-73.5643772244
30
0.0000000000
10
-479.7990049780
20
-73.6916149443
30
0.0000000000
10
-479.7975620484
20
-73.8065766267
30
0.0000000000
10
-479.7963759134
20
-73.9105816544
30
0.0000000000
10
-479.7953806923
20
-74.0065617593
30
0.0000000000
10
-479.7945160745
20
-74.0985343284
30
0.0000000000
10
-479.7937461241
20
-74.1895877311
30
0.0000000000
10
-479.7930590085
20
-74.2811038001
30
0.0000000000
10
-479.7924576308
20
-74.3728321052
30
0.0000000000
10
-479.7921147907
20
-74.4339585248
30
0.0000000000
10
-479.7919583481
20
-74.4644080998
30
0.0000000000
11
-479.8165271611
21
-72.7389769129
31
0.0000000000
11
-479.8121431964
21
-72.9333764932
31
0.0000000000
11
-479.8084799614
21
-73.1124392317
31
0.0000000000
11
-479.8054218137
21
-73.2772120019
31
0.0000000000
11
-479.8028687942
21
-73.4288594563
31
0.0000000000
11
-479.8007384036
21
-73.5684215793
31
0.0000000000
11
-479.7989750323
21
-73.6958547975
31
0.0000000000
11
-479.7975350416
21
-73.8105715373
31
0.0000000000
11
-479.7963633116
21
-73.9133057879
31
0.0000000000
11
-479.7953827172
21
-74.0078693072
31
0.0000000000
11
-479.7945305567
21
-74.0985115124
31
0.0000000000
11
-479.7937634506
21
-74.1892233131
31
0.0000000000
11
-479.7930741171
21
-74.2810294037
31
0.0000000000
11
-479.7924707245
21
-74.3730596061
31
0.0000000000
11
-479.7919583481
21
-74.4644080998
31
0.0000000000
0
SPLINE
5
475
100
AcDbEntity
8
0
100
AcDbSpline
62
7
6
CONTINUOUS
70
0
71
3
72
10
73
6
74
4
42
0.0000001000
43
0.0000001000
44
0.0000000001
12
0.4754330804
22
0.0000000000
32
0.0000000000
13
0.4754272300
23
-0.0023585809
33
0.0000000000
40
0.0000000000
40
0.0000000000
40
0.0000000000
40
0.0000000000
40
0.3343840538
40
0.6679068347
40
1.0000000000
40
1.0000000000
40
1.0000000000
40
1.0000000000
10
-480.2919583481
20
-72.7377985663
30
0.0000000000
10
-480.2389659345
20
-72.7377985663
30
0.0000000000
10
-480.1331175781
20
-72.7378862113
30
0.0000000000
10
-479.9746403080
20
-72.7382796838
30
0.0000000000
10
-479.8691558723
20
-72.7387158233
30
0.0000000000
10
-479.8165271611
20
-72.7389769129
30
0.0000000000
11
-480.2919583481
21
-72.7377985663
31
0.0000000000
11
-480.1329811619
21
-72.7379302268
31
0.0000000000
11
-479.9744138876
21
-72.7383239931
31
0.0000000000
11
-479.8165271611
21
-72.7389769129
31
0.0000000000
0
SPLINE
5
476
100
AcDbEntity
8
0
100
AcDbSpline
62
7
6
CONTINUOUS
70
0
71
3
72
10
73
6
74
4
42
0.0000001000
43
0.0000001000
44
0.0000000001
12
-0.4754272300
22
-0.0023585809
32
0.0000000000
13
-0.4754330804
23
0.0000000000
33
0.0000000000
40
0.0000000000
40
0.0000000000
40
0.0000000000
40
0.0000000000
40
0.3321452322
40
0.6656578109
40
1.0000000000
40
1.0000000000
40
1.0000000000
40
1.0000000000
10
-479.8165271611
20
-77.1898392868
30
0.0000000000
10
-479.8691641237
20
-77.1901004173
30
0.0000000000
10
-479.9746551940
20
-77.1905365706
30
0.0000000000
10
-480.1331324641
20
-77.1909300062
30
0.0000000000
10
-480.2389725691
20
-77.1910176334
30
0.0000000000
10
-480.2919583481
20
-77.1910176334
30
0.0000000000
11
-479.8165271611
21
-77.1898392868
31
0.0000000000
11
-479.9744386418
21
-77.1904922885
31
0.0000000000
11
-480.1330010657
21
-77.1908860059
31
0.0000000000
11
-480.2919583481
21
-77.1910176334
31
0.0000000000
0
SPLINE
5
477
100
AcDbEntity
8
0
100
AcDbSpline
62
7
6
CONTINUOUS
70
0
71
3
72
21
73
17
74
15
42
0.0000001000
43
0.0000001000
44
0.0000000001
12
-0.0088657575
22
-1.7256076839
32
0.0000000000
13
-0.0408059390
23
-1.7251479229
33
0.0000000000
40
0.0000000000
40
0.0000000000
40
0.0000000000
40
0.0000000000
40
0.0528294913
40
0.1060489996
40
0.1591542766
40
0.2116550719
40
0.2640584652
40
0.3186449156
40
0.3778776234
40
0.4440358164
40
0.5177233401
40
0.5986418952
40
0.6867313520
40
0.7825570105
40
0.8867802295
40
1.0000000000
40
1.0000000000
40
1.0000000000
40
1.0000000000
10
-479.7919583481
20
-75.4644080998
30
0.0000000000
10
-479.7921144726
20
-75.4947957585
30
0.0000000000
10
-479.7924565425
20
-75.5557952713
30
0.0000000000
10
-479.7930564517
20
-75.6473404746
30
0.0000000000
10
-479.7937419214
20
-75.7386960034
30
0.0000000000
10
-479.7945098763
20
-75.8295814213
30
0.0000000000
10
-479.7953715330
20
-75.9213180232
30
0.0000000000
10
-479.7963618213
20
-76.0169258094
30
0.0000000000
10
-479.7975407475
20
-76.1204439161
30
0.0000000000
10
-479.7989754198
20
-76.2349468873
30
0.0000000000
10
-479.8007288635
20
-76.3619206700
30
0.0000000000
10
-479.8028553960
20
-76.5015054609
30
0.0000000000
10
-479.8054152231
20
-76.6538190361
30
0.0000000000
10
-479.8084866160
20
-76.8195307628
30
0.0000000000
10
-479.8121687402
20
-76.9996885573
30
0.0000000000
10
-479.8149871481
20
-77.1247323362
30
0.0000000000
10
-479.8165271611
20
-77.1898392868
30
0.0000000000
11
-479.7919583481
21
-75.4644080998
31
0.0000000000
11
-479.7924695952
21
-75.5555708455
31
0.0000000000
11
-479.7930714403
21
-75.6474060780
31
0.0000000000
11
-479.7937590661
21
-75.7390435816
31
0.0000000000
11
-479.7945246003
21
-75.8296373189
31
0.0000000000
11
-479.7953739854
21
-75.9200622213
31
0.0000000000
11
-479.7963496599
21
-76.0142532097
31
0.0000000000
11
-479.7975137423
21
-76.1164603454
31
0.0000000000
11
-479.7989441957
21
-76.2306159764
31
0.0000000000
11
-479.8007002128
21
-76.3577612861
31
0.0000000000
11
-479.8028275733
21
-76.4973806032
31
0.0000000000
11
-479.8053823706
21
-76.6493689825
31
0.0000000000
11
-479.8084473396
21
-76.8147002502
31
0.0000000000
11
-479.8121233275
21
-76.9945134406
31
0.0000000000
11
-479.8165271611
21
-77.1898392868
31
0.0000000000
0
SPLINE
5
478
100
AcDbEntity
8
0
100
AcDbSpline
62
7
6
CONTINUOUS
70
0
71
3
72
10
73
6
74
4
42
0.0000001000
43
0.0000001000
44
0.0000000001
12
-0.4754330804
22
0.0000000000
32
0.0000000000
13
-0.4754272300
23
0.0023585809
33
0.0000000000
40
0.0000000000
40
0.0000000000
40
0.0000000000
40
0.0000000000
40
0.3343840538
40
0.6679068347
40
1.0000000000
40
1.0000000000
40
1.0000000000
40
1.0000000000
10
-480.2919583481
20
-77.1910176334
30
0.0000000000
10
-480.3449507617
20
-77.1910176334
30
0.0000000000
10
-480.4507991181
20
-77.1909299884
30
0.0000000000
10
-480.6092763881
20
-77.1905365159
30
0.0000000000
10
-480.7147608238
20
-77.1901003763
30
0.0000000000
10
-480.7673895350
20
-77.1898392868
30
0.0000000000
11
-480.2919583481
21
-77.1910176334
31
0.0000000000
11
-480.4509355343
21
-77.1908859729
31
0.0000000000
11
-480.6095028085
21
-77.1904922066
31
0.0000000000
11
-480.7673895350
21
-77.1898392868
31
0.0000000000
0
SPLINE
5
479
100
AcDbEntity
8
0
100
AcDbSpline
62
7
6
CONTINUOUS
70
0
71
3
72
10
73
6
74
4
42
0.0000001000
43
0.0000001000
44
0.0000000001
12
0.4754272300
22
0.0023585809
32
0.0000000000
13
0.4754330804
23
0.0000000000
33
0.0000000000
40
0.0000000000
40
0.0000000000
40
0.0000000000
40
0.0000000000
40
0.3321452322
40
0.6656578109
40
1.0000000000
40
1.0000000000
40
1.0000000000
40
1.0000000000
10
-480.7673895350
20
-72.7389769129
30
0.0000000000
10
-480.7147525725
20
-72.7387157824
30
0.0000000000
10
-480.6092615021
20
-72.7382796291
30
0.0000000000
10
-480.4507842320
20
-72.7378861935
30
0.0000000000
10
-480.3449441270
20
-72.7377985663
30
0.0000000000
10
-480.2919583481
20
-72.7377985663
30
0.0000000000
11
-480.7673895350
21
-72.7389769129
31
0.0000000000
11
-480.6094780543
21
-72.7383239112
31
0.0000000000
11
-480.4509156305
21
-72.7379301938
31
0.0000000000
11
-480.2919583481
21
-72.7377985663
31
0.0000000000
0
SPLINE
5
47A
100
AcDbEntity
8
0
100
AcDbSpline
62
7
6
CONTINUOUS
70
0
71
3
72
21
73
17
74
15
42
0.0000001000
43
0.0000001000
44
0.0000000001
12
0.0088657575
22
1.7256076839
32
0.0000000000
13
0.0408059390
23
1.7251479229
33
0.0000000000
40
0.0000000000
40
0.0000000000
40
0.0000000000
40
0.0000000000
40
0.0528294913
40
0.1060489996
40
0.1591542766
40
0.2116550719
40
0.2640584652
40
0.3186449156
40
0.3778776234
40
0.4440358164
40
0.5177233401
40
0.5986418952
40
0.6867313520
40
0.7825570105
40
0.8867802295
40
1.0000000000
40
1.0000000000
40
1.0000000000
40
1.0000000000
10
-480.7919583481
20
-74.4644080998
30
0.0000000000
10
-480.7918022236
20
-74.4340204412
30
0.0000000000
10
-480.7914601537
20
-74.3730209284
30
0.0000000000
10
-480.7908602445
20
-74.2814757251
30
0.0000000000
10
-480.7901747748
20
-74.1901201962
30
0.0000000000
10
-480.7894068199
20
-74.0992347784
30
0.0000000000
10
-480.7885451632
20
-74.0074981765
30
0.0000000000
10
-480.7875548749
20
-73.9118903902
30
0.0000000000
10
-480.7863759487
20
-73.8083722836
30
0.0000000000
10
-480.7849412764
20
-73.6938693124
30
0.0000000000
10
-480.7831878326
20
-73.5668955296
30
0.0000000000
10
-480.7810613002
20
-73.4273107388
30
0.0000000000
10
-480.7785014730
20
-73.2749971636
30
0.0000000000
10
-480.7754300801
20
-73.1092854369
30
0.0000000000
10
-480.7717479559
20
-72.9291276424
30
0.0000000000
10
-480.7689295481
20
-72.8040838635
30
0.0000000000
10
-480.7673895350
20
-72.7389769129
30
0.0000000000
11
-480.7919583481
21
-74.4644080998
31
0.0000000000
11
-480.7914471009
21
-74.3732453541
31
0.0000000000
11
-480.7908452558
21
-74.2814101217
31
0.0000000000
11
-480.7901576301
21
-74.1897726180
31
0.0000000000
11
-480.7893920958
21
-74.0991788808
31
0.0000000000
11
-480.7885427107
21
-74.0087539784
31
0.0000000000
11
-480.7875670362
21
-73.9145629900
31
0.0000000000
11
-480.7864029539
21
-73.8123558542
31
0.0000000000
11
-480.7849725004
21
-73.6982002232
31
0.0000000000
11
-480.7832164834
21
-73.5710549136
31
0.0000000000
11
-480.7810891228
21
-73.4314355965
31
0.0000000000
11
-480.7785343256
21
-73.2794472172
31
0.0000000000
11
-480.7754693565
21
-73.1141159495
31
0.0000000000
11
-480.7717933687
21
-72.9343027590
31
0.0000000000
11
-480.7673895350
21
-72.7389769129
31
0.0000000000
0
SPLINE
5
47B
100
AcDbEntity
8
0
100
AcDbSpline
62
7
6
CONTINUOUS
70
0
71
3
72
18
73
14
74
12
42
0.0000001000
43
0.0000001000
44
0.0000000001
12
1.7251478745
22
0.0408059379
32
0.0000000000
13
1.7256076356
23
0.0088657572
33
0.0000000000
40
0.0000000000
40
0.0000000000
40
0.0000000000
40
0.0000000000
40
0.0787662396
40
0.1589613932
40
0.2393806631
40
0.3188048569
40
0.3980484518
40
0.4831813277
40
0.5809115787
40
0.6906046378
40
0.8028617799
40
0.9087989218
40
1.0000000000
40
1.0000000000
40
1.0000000000
40
1.0000000000
10
-482.5173895350
20
-74.4889769129
30
0.0000000000
10
-482.4720950648
20
-74.4879055361
30
0.0000000000
10
-482.3806827377
20
-74.4858141731
30
0.0000000000
10
-482.2430198256
20
-74.4828772776
30
0.0000000000
10
-482.1049741615
20
-74.4801450003
30
0.0000000000
10
-481.9674717721
20
-74.4776320190
30
0.0000000000
10
-481.8272548603
20
-74.4752783529
30
0.0000000000
10
-481.6765058989
20
-74.4729784088
30
0.0000000000
10
-481.5082400198
20
-74.4706948218
30
0.0000000000
10
-481.3243689963
20
-74.4685477028
30
0.0000000000
10
-481.1357735579
20
-74.4667241950
30
0.0000000000
10
-480.9578113935
20
-74.4653522112
30
0.0000000000
10
-480.8444174404
20
-74.4646776220
30
0.0000000000
10
-480.7919583481
20
-74.4644080998
30
0.0000000000
11
-482.5173895350
21
-74.4889769129
31
0.0000000000
11
-482.3815036850
21
-74.4858676185
31
0.0000000000
11
-482.2431479803
21
-74.4829155068
31
0.0000000000
11
-482.1044012246
21
-74.4801689515
31
0.0000000000
11
-481.9673673102
21
-74.4776641800
31
0.0000000000
11
-481.8306414194
21
-74.4753687966
31
0.0000000000
11
-481.6837506400
21
-74.4731273622
31
0.0000000000
11
-481.5151198817
21
-74.4708383526
31
0.0000000000
11
-481.3258431142
21
-74.4686275440
31
0.0000000000
11
-481.1321378350
21
-74.4667541352
31
0.0000000000
11
-480.9493349164
21
-74.4653445048
31
0.0000000000
11
-480.7919583481
21
-74.4644080998
31
0.0000000000
0
SPLINE
5
47C
100
AcDbEntity
8
0
100
AcDbSpline
62
7
6
CONTINUOUS
70
0
71
3
72
10
73
6
74
4
42
0.0000001000
43
0.0000001000
44
0.0000000001
12
-0.0047171601
22
0.9508541351
32
0.0000000000
13
0.0047171601
23
0.9508541351
33
0.0000000000
40
0.0000000000
40
0.0000000000
40
0.0000000000
40
0.0000000000
40
0.3328755248
40
0.6671244506
40
1.0000000000
40
1.0000000000
40
1.0000000000
40
1.0000000000
10
-482.5173895350
20
-75.4398392868
30
0.0000000000
10
-482.5179129441
20
-75.3343339304
30
0.0000000000
10
-482.5186117487
20
-75.1228860075
30
0.0000000000
10
-482.5186117487
20
-74.8059302077
30
0.0000000000
10
-482.5179129441
20
-74.5944822771
30
0.0000000000
10
-482.5173895350
20
-74.4889769129
30
0.0000000000
11
-482.5173895350
21
-75.4398392868
31
0.0000000000
11
-482.5184363275
21
-75.1233210536
31
0.0000000000
11
-482.5184363275
21
-74.8054951694
31
0.0000000000
11
-482.5173895350
21
-74.4889769129
31
0.0000000000
0
SPLINE
5
47D
100
AcDbEntity
8
0
100
AcDbSpline
62
7
6
CONTINUOUS
70
0
71
3
72
18
73
14
74
12
42
0.0000001000
43
0.0000001000
44
0.0000000001
12
-1.7256076347
22
0.0088657572
32
0.0000000000
13
-1.7251478736
23
0.0408059379
33
0.0000000000
40
0.0000000000
40
0.0000000000
40
0.0000000000
40
0.0000000000
40
0.0941019457
40
0.2003338572
40
0.3125780940
40
0.4231145869
40
0.5215177219
40
0.6066708334
40
0.6854030883
40
0.7639073883
40
0.8431682183
40
0.9221928836
40
1.0000000000
40
1.0000000000
40
1.0000000000
40
1.0000000000
10
-480.7919583481
20
-75.4644080998
30
0.0000000000
10
-480.8460860267
20
-75.4641300048
30
0.0000000000
10
-480.9613180976
20
-75.4634415076
30
0.0000000000
10
-481.1411108722
20
-75.4620455984
30
0.0000000000
10
-481.3303534580
20
-75.4602049538
30
0.0000000000
10
-481.5150890616
20
-75.4580356412
30
0.0000000000
10
-481.6842385180
20
-75.4557265284
30
0.0000000000
10
-481.8350918275
20
-75.4534118351
30
0.0000000000
10
-481.9744970364
20
-75.4510601579
30
0.0000000000
10
-482.1105098899
20
-75.4485647683
30
0.0000000000
10
-482.2466870226
20
-75.4458624252
30
0.0000000000
10
-482.3824589556
20
-75.4429618133
30
0.0000000000
10
-482.4726466079
20
-75.4408976176
30
0.0000000000
10
-482.5173895350
20
-75.4398392868
30
0.0000000000
11
-480.7919583481
21
-75.4644080998
31
0.0000000000
11
-480.9543406278
21
-75.4634377093
31
0.0000000000
11
-481.1376521173
21
-75.4620141483
31
0.0000000000
11
-481.3313350194
21
-75.4601298182
31
0.0000000000
11
-481.5220669962
21
-75.4578895098
31
0.0000000000
11
-481.6918586114
21
-75.4555711470
31
0.0000000000
11
-481.8387841097
21
-75.4533163658
31
0.0000000000
11
-481.9746275503
21
-75.4510244604
31
0.0000000000
11
-482.1100741576
21
-75.4485391180
31
0.0000000000
11
-482.2468221255
21
-75.4458250614
31
0.0000000000
11
-482.3831583727
21
-75.4429119755
31
0.0000000000
11
-482.5173895350
21
-75.4398392868
31
0.0000000000
0
SPLINE
5
47E
100
AcDbEntity
8
0
100
AcDbSpline
62
7
6
CONTINUOUS
70
0
71
3
72
21
73
17
74
15
42
0.0000001000
43
0.0000001000
44
0.0000000001
12
-0.0408059391
22
1.7251479238
32
0.0000000000
13
-0.0088657575
23
1.7256076848
33
0.0000000000
40
0.0000000000
40
0.0000000000
40
0.0000000000
40
0.0000000000
40
0.1126828777
40
0.2164711509
40
0.3119731433
40
0.3998650453
40
0.4807504871
40
0.5546048962
40
0.6210882946
40
0.6806264951
40
0.7354288445
40
0.7879581739
40
0.8405273921
40
0.8937303696
40
0.9470628661
40
1.0000000000
40
1.0000000000
40
1.0000000000
40
1.0000000000
10
-480.7673895350
20
-77.1898392868
30
0.0000000000
10
-480.7689222453
20
-77.1250410760
30
0.0000000000
10
-480.7717287136
20
-77.0005561830
30
0.0000000000
10
-480.7753982103
20
-76.8211434748
30
0.0000000000
10
-480.7784629537
20
-76.6559817170
30
0.0000000000
10
-480.7810213847
20
-76.5039870224
30
0.0000000000
10
-480.7831512582
20
-76.3644389752
30
0.0000000000
10
-480.7849117182
20
-76.2372012554
30
0.0000000000
10
-480.7863546478
20
-76.1222395730
30
0.0000000000
10
-480.7875407828
20
-76.0182345453
30
0.0000000000
10
-480.7885360039
20
-75.9222544404
30
0.0000000000
10
-480.7894006217
20
-75.8302818712
30
0.0000000000
10
-480.7901705721
20
-75.7392284686
30
0.0000000000
10
-480.7908576876
20
-75.6477123996
30
0.0000000000
10
-480.7914590654
20
-75.5559840945
30
0.0000000000
10
-480.7918019055
20
-75.4948576748
30
0.0000000000
10
-480.7919583481
20
-75.4644080998
30
0.0000000000
11
-480.7673895350
21
-77.1898392868
31
0.0000000000
11
-480.7717734998
21
-76.9954397065
31
0.0000000000
11
-480.7754367348
21
-76.8163769680
31
0.0000000000
11
-480.7784948824
21
-76.6516041978
31
0.0000000000
11
-480.7810479019
21
-76.4999567433
31
0.0000000000
11
-480.7831782925
21
-76.3603946203
31
0.0000000000
11
-480.7849416639
21
-76.2329614022
31
0.0000000000
11
-480.7863816545
21
-76.1182446623
31
0.0000000000
11
-480.7875533846
21
-76.0155104118
31
0.0000000000
11
-480.7885339790
21
-75.9209468925
31
0.0000000000
11
-480.7893861395
21
-75.8303046873
31
0.0000000000
11
-480.7901532455
21
-75.7395928866
31
0.0000000000
11
-480.7908425791
21
-75.6477867960
31
0.0000000000
11
-480.7914459716
21
-75.5557565936
31
0.0000000000
11
-480.7919583481
21
-75.4644080998
31
0.0000000000
0
SPLINE
5
47F
100
AcDbEntity
8
0
100
AcDbSpline
62
7
6
CONTINUOUS
70
0
71
3
72
8
73
4
74
2
42
0.0000001000
43
0.0000001000
44
0.0000000001
12
0.1052778537
22
0.0061824273
32
0.0000000000
13
0.1051954633
23
0.0074838716
33
0.0000000000
40
0.0000000000
40
0.0000000000
40
0.0000000000
40
0.0000000000
40
1.0000000000
40
1.0000000000
40
1.0000000000
40
1.0000000000
10
-495.0419583481
20
-173.4349452729
30
0.0000000000
10
-495.0068657302
20
-173.4328844638
30
0.0000000000
10
-494.9717852977
20
-173.4306066471
30
0.0000000000
10
-494.9367201432
20
-173.4281120233
30
0.0000000000
11
-495.0419583481
21
-173.4349452729
31
0.0000000000
11
-494.9367201432
21
-173.4281120233
31
0.0000000000
0
SPLINE
5
480
100
AcDbEntity
8
0
100
AcDbSpline
62
7
6
CONTINUOUS
70
0
71
3
72
18
73
14
74
12
42
0.0000001000
43
0.0000001000
44
0.0000000001
12
1.5955891498
22
0.1135142521
32
0.0000000000
13
1.5464027424
23
0.4091180320
33
0.0000000000
40
0.0000000000
40
0.0000000000
40
0.0000000000
40
0.0000000000
40
0.0358225692
40
0.1508721984
40
0.2727013998
40
0.3930092557
40
0.5004411643
40
0.5936955265
40
0.6801841397
40
0.7667022842
40
0.8543638374
40
0.9421008930
40
1.0000000000
40
1.0000000000
40
1.0000000000
40
1.0000000000
10
-494.9367201432
20
-173.4281120233
30
0.0000000000
10
-494.9176674423
20
-173.4267565659
30
0.0000000000
10
-494.8374430917
20
-173.4207782709
30
0.0000000000
10
-494.6925981521
20
-173.4079213422
30
0.0000000000
10
-494.5032974593
20
-173.3868707158
30
0.0000000000
10
-494.3185500635
20
-173.3620673737
30
0.0000000000
10
-494.1494326940
20
-173.3356736203
30
0.0000000000
10
-493.9986070489
20
-173.3092172501
30
0.0000000000
10
-493.8591998531
20
-173.2823334284
30
0.0000000000
10
-493.7231660171
20
-173.2538027050
30
0.0000000000
10
-493.5869671090
20
-173.2229054816
30
0.0000000000
10
-493.4661200022
20
-173.1933916301
30
0.0000000000
10
-493.3909408151
20
-173.1739385817
30
0.0000000000
10
-493.3610957025
20
-173.1660427255
30
0.0000000000
11
-494.9367201432
21
-173.4281120233
31
0.0000000000
11
-494.8795760684
21
-173.4238536588
31
0.0000000000
11
-494.6962645789
21
-173.4075822819
31
0.0000000000
11
-494.5025816768
21
-173.3860442896
31
0.0000000000
11
-494.3118497000
21
-173.3604374478
31
0.0000000000
11
-494.1420580847
21
-173.3339384399
31
0.0000000000
11
-493.9951325864
21
-173.3081661722
31
0.0000000000
11
-493.8592891459
21
-173.2819695738
31
0.0000000000
11
-493.7238425386
21
-173.2535619807
31
0.0000000000
11
-493.5870945706
21
-173.2225401720
31
0.0000000000
11
-493.4507583234
21
-173.1892434476
31
0.0000000000
11
-493.3610957025
21
-173.1660427255
31
0.0000000000
0
SPLINE
5
481
100
AcDbEntity
8
0
100
AcDbSpline
62
7
6
CONTINUOUS
70
0
71
3
72
8
73
4
74
2
42
0.0000001000
43
0.0000001000
44
0.0000000001
12
0.0446008999
22
0.0117996637
32
0.0000000000
13
0.0445359254
23
0.0120408109
33
0.0000000000
40
0.0000000000
40
0.0000000000
40
0.0000000000
40
0.0000000000
40
1.0000000000
40
1.0000000000
40
1.0000000000
40
1.0000000000
10
-493.3610957025
20
-173.1660427255
30
0.0000000000
10
-493.3462287359
20
-173.1621095042
30
0.0000000000
10
-493.3313724696
20
-173.1581360586
30
0.0000000000
10
-493.3165271611
20
-173.1541224550
30
0.0000000000
11
-493.3610957025
21
-173.1660427255
31
0.0000000000
11
-493.3165271611
21
-173.1541224550
31
0.0000000000
0
SPLINE
5
482
100
AcDbEntity
8
0
100
AcDbSpline
62
7
6
CONTINUOUS
70
0
71
3
72
8
73
4
74
2
42
0.0000001000
43
0.0000001000
44
0.0000000001
12
0.1060310991
22
0.0000000000
32
0.0000000000
13
0.1060247591
23
0.0013387259
33
0.0000000000
40
0.0000000000
40
0.0000000000
40
0.0000000000
40
0.0000000000
40
1.0000000000
40
1.0000000000
40
1.0000000000
40
1.0000000000
10
-495.5419583481
20
-173.1675910178
30
0.0000000000
10
-495.5066146484
20
-173.1675910178
30
0.0000000000
10
-495.4712703148
20
-173.1673678824
30
0.0000000000
10
-495.4359287284
20
-173.1669216405
30
0.0000000000
11
-495.5419583481
21
-173.1675910178
31
0.0000000000
11
-495.4359287284
21
-173.1669216405
31
0.0000000000
0
SPLINE
5
483
100
AcDbEntity
8
0
100
AcDbSpline
62
7
6
CONTINUOUS
70
0
71
3
72
8
73
4
74
2
42
0.0000001000
43
0.0000001000
44
0.0000000001
12
0.0035897139
22
0.0000453257
32
0.0000000000
13
0.0035896946
23
0.0000468602
33
0.0000000000
40
0.0000000000
40
0.0000000000
40
0.0000000000
40
0.0000000000
40
1.0000000000
40
1.0000000000
40
1.0000000000
40
1.0000000000
10
-495.4359287284
20
-173.1669216405
30
0.0000000000
10
-495.4347321571
20
-173.1669065319
30
0.0000000000
10
-495.4335355890
20
-173.1668911676
30
0.0000000000
10
-495.4323390241
20
-173.1668755476
30
0.0000000000
11
-495.4359287284
21
-173.1669216405
31
0.0000000000
11
-495.4323390241
21
-173.1668755476
31
0.0000000000
0
SPLINE
5
484
100
AcDbEntity
8
0
100
AcDbSpline
62
7
6
CONTINUOUS
70
0
71
3
72
8
73
4
74
2
42
0.0000001000
43
0.0000001000
44
0.0000000001
12
0.0493501437
22
0.0006442209
32
0.0000000000
13
0.0493454008
23
0.0009342327
33
0.0000000000
40
0.0000000000
40
0.0000000000
40
0.0000000000
40
0.0000000000
40
1.0000000000
40
1.0000000000
40
1.0000000000
40
1.0000000000
10
-495.4323390241
20
-173.1668755476
30
0.0000000000
10
-495.4158889762
20
-173.1666608073
30
0.0000000000
10
-495.3994395483
20
-173.1663977302
30
0.0000000000
10
-495.3829910814
20
-173.1660863193
30
0.0000000000
11
-495.4323390241
21
-173.1668755476
31
0.0000000000
11
-495.3829910814
21
-173.1660863193
31
0.0000000000
0
SPLINE
5
485
100
AcDbEntity
8
0
100
AcDbSpline
62
7
6
CONTINUOUS
70
0
71
3
72
8
73
4
74
2
42
0.0000001000
43
0.0000001000
44
0.0000000001
12
0.0230691048
22
0.0004367563
32
0.0000000000
13
0.0230677662
23
0.0005001368
33
0.0000000000
40
0.0000000000
40
0.0000000000
40
0.0000000000
40
0.0000000000
40
1.0000000000
40
1.0000000000
40
1.0000000000
40
1.0000000000
10
-495.3829910814
20
-173.1660863193
30
0.0000000000
10
-495.3753013798
20
-173.1659407339
30
0.0000000000
10
-495.3676118882
20
-173.1657845847
30
0.0000000000
10
-495.3599226328
20
-173.1656178724
30
0.0000000000
11
-495.3829910814
21
-173.1660863193
31
0.0000000000
11
-495.3599226328
21
-173.1656178724
31
0.0000000000
0
SPLINE
5
486
100
AcDbEntity
8
0
100
AcDbSpline
62
7
6
CONTINUOUS
70
0
71
3
72
8
73
4
74
2
42
0.0000001000
43
0.0000001000
44
0.0000000001
12
0.0298431653
22
0.0006470356
32
0.0000000000
13
0.0298406240
23
0.0007531075
33
0.0000000000
40
0.0000000000
40
0.0000000000
40
0.0000000000
40
0.0000000000
40
1.0000000000
40
1.0000000000
40
1.0000000000
40
1.0000000000
10
-495.3599226328
20
-173.1656178724
30
0.0000000000
10
-495.3499749110
20
-173.1654021939
30
0.0000000000
10
-495.3400275845
20
-173.1651688359
30
0.0000000000
10
-495.3300807099
20
-173.1649178001
30
0.0000000000
11
-495.3599226328
21
-173.1656178724
31
0.0000000000
11
-495.3300807099
21
-173.1649178001
31
0.0000000000
0
SPLINE
5
487
100
AcDbEntity
8
0
100
AcDbSpline
62
7
6
CONTINUOUS
70
0
71
3
72
8
73
4
74
2
42
0.0000001000
43
0.0000001000
44
0.0000000001
12
0.0193613329
22
0.0004886347
32
0.0000000000
13
0.0193601453
23
0.0005332849
33
0.0000000000
40
0.0000000000
40
0.0000000000
40
0.0000000000
40
0.0000000000
40
1.0000000000
40
1.0000000000
40
1.0000000000
40
1.0000000000
10
-495.3300807099
20
-173.1649178001
30
0.0000000000
10
-495.3236269322
20
-173.1647549219
30
0.0000000000
10
-495.3171733448
20
-173.1645846017
30
0.0000000000
10
-495.3107199631
20
-173.1644068401
30
0.0000000000
11
-495.3300807099
21
-173.1649178001
31
0.0000000000
11
-495.3107199631
21
-173.1644068401
31
0.0000000000
0
SPLINE
5
488
100
AcDbEntity
8
0
100
AcDbSpline
62
7
6
CONTINUOUS
70
0
71
3
72
8
73
4
74
2
42
0.0000001000
43
0.0000001000
44
0.0000000001
12
0.0335109171
22
0.0009230751
32
0.0000000000
13
0.0335069796
23
0.0010568407
33
0.0000000000
40
0.0000000000
40
0.0000000000
40
0.0000000000
40
0.0000000000
40
1.0000000000
40
1.0000000000
40
1.0000000000
40
1.0000000000
10
-495.3107199631
20
-173.1644068401
30
0.0000000000
10
-495.2995496574
20
-173.1640991484
30
0.0000000000
10
-495.2883799678
20
-173.1637691613
30
0.0000000000
10
-495.2772109746
20
-173.1634168810
30
0.0000000000
11
-495.3107199631
21
-173.1644068401
31
0.0000000000
11
-495.2772109746
21
-173.1634168810
31
0.0000000000
0
SPLINE
5
489
100
AcDbEntity
8
0
100
AcDbSpline
62
7
6
CONTINUOUS
70
0
71
3
72
8
73
4
74
2
42
0.0000001000
43
0.0000001000
44
0.0000000001
12
0.0188804621
22
0.0005955070
32
0.0000000000
13
0.0188790925
23
0.0006379754
33
0.0000000000
40
0.0000000000
40
0.0000000000
40
0.0000000000
40
0.0000000000
40
1.0000000000
40
1.0000000000
40
1.0000000000
40
1.0000000000
10
-495.2772109746
20
-173.1634168810
30
0.0000000000
10
-495.2709174873
20
-173.1632183787
30
0.0000000000
10
-495.2646242210
20
-173.1630127981
30
0.0000000000
10
-495.2583311902
20
-173.1628001396
30
0.0000000000
11
-495.2772109746
21
-173.1634168810
31
0.0000000000
11
-495.2583311902
21
-173.1628001396
31
0.0000000000
0
SPLINE
5
48A
100
AcDbEntity
8
0
100
AcDbSpline
62
7
6
CONTINUOUS
70
0
71
3
72
8
73
4
74
2
42
0.0000001000
43
0.0000001000
44
0.0000000001
12
0.0339073753
22
0.0011458215
32
0.0000000000
13
0.0339025696
23
0.0012828017
33
0.0000000000
40
0.0000000000
40
0.0000000000
40
0.0000000000
40
0.0000000000
40
1.0000000000
40
1.0000000000
40
1.0000000000
40
1.0000000000
10
-495.2583311902
20
-173.1628001396
30
0.0000000000
10
-495.2470287317
20
-173.1624181991
30
0.0000000000
10
-495.2357270327
20
-173.1620134274
30
0.0000000000
10
-495.2244261762
20
-173.1615858269
30
0.0000000000
11
-495.2583311902
21
-173.1628001396
31
0.0000000000
11
-495.2244261762
21
-173.1615858269
31
0.0000000000
0
SPLINE
5
48B
100
AcDbEntity
8
0
100
AcDbSpline
62
7
6
CONTINUOUS
70
0
71
3
72
8
73
4
74
2
42
0.0000001000
43
0.0000001000
44
0.0000000001
12
0.1579650683
22
0.0059770648
32
0.0000000000
13
0.1578217782
23
0.0089491516
33
0.0000000000
40
0.0000000000
40
0.0000000000
40
0.0000000000
40
0.0000000000
40
1.0000000000
40
1.0000000000
40
1.0000000000
40
1.0000000000
10
-495.2244261762
20
-173.1615858269
30
0.0000000000
10
-495.1717711534
20
-173.1595934719
30
0.0000000000
10
-495.1191344205
20
-173.1571055055
30
0.0000000000
10
-495.0665271611
20
-173.1541224550
30
0.0000000000
11
-495.2244261762
21
-173.1615858269
31
0.0000000000
11
-495.0665271611
21
-173.1541224550
31
0.0000000000
0
SPLINE
5
48C
100
AcDbEntity
8
0
100
AcDbSpline
62
7
6
CONTINUOUS
70
0
71
3
72
8
73
4
74
2
42
0.0000001000
43
0.0000001000
44
0.0000000001
12
0.1578217775
22
-0.0089491516
32
0.0000000000
13
0.1579650686
23
-0.0059770649
33
0.0000000000
40
0.0000000000
40
0.0000000000
40
0.0000000000
40
0.0000000000
40
1.0000000000
40
1.0000000000
40
1.0000000000
40
1.0000000000
10
-496.0173895350
20
-173.1541224550
30
0.0000000000
10
-495.9647822759
20
-173.1571055055
30
0.0000000000
10
-495.9121455429
20
-173.1595934719
30
0.0000000000
10
-495.8594905200
20
-173.1615858269
30
0.0000000000
11
-496.0173895350
21
-173.1541224550
31
0.0000000000
11
-495.8594905200
21
-173.1615858269
31
0.0000000000
0
SPLINE
5
48D
100
AcDbEntity
8
0
100
AcDbSpline
62
7
6
CONTINUOUS
70
0
71
3
72
8
73
4
74
2
42
0.0000001000
43
0.0000001000
44
0.0000000001
12
0.0339025697
22
-0.0012828017
32
0.0000000000
13
0.0339073753
23
-0.0011458215
33
0.0000000000
40
0.0000000000
40
0.0000000000
40
0.0000000000
40
0.0000000000
40
1.0000000000
40
1.0000000000
40
1.0000000000
40
1.0000000000
10
-495.8594905200
20
-173.1615858269
30
0.0000000000
10
-495.8481896634
20
-173.1620134274
30
0.0000000000
10
-495.8368879644
20
-173.1624181991
30
0.0000000000
10
-495.8255855060
20
-173.1628001396
30
0.0000000000
11
-495.8594905200
21
-173.1615858269
31
0.0000000000
11
-495.8255855060
21
-173.1628001396
31
0.0000000000
0
SPLINE
5
48E
100
AcDbEntity
8
0
100
AcDbSpline
62
7
6
CONTINUOUS
70
0
71
3
72
8
73
4
74
2
42
0.0000001000
43
0.0000001000
44
0.0000000001
12
0.0188790925
22
-0.0006379754
32
0.0000000000
13
0.0188804621
23
-0.0005955070
33
0.0000000000
40
0.0000000000
40
0.0000000000
40
0.0000000000
40
0.0000000000
40
1.0000000000
40
1.0000000000
40
1.0000000000
40
1.0000000000
10
-495.8255855060
20
-173.1628001396
30
0.0000000000
10
-495.8192924751
20
-173.1630127981
30
0.0000000000
10
-495.8129992089
20
-173.1632183787
30
0.0000000000
10
-495.8067057215
20
-173.1634168810
30
0.0000000000
11
-495.8255855060
21
-173.1628001396
31
0.0000000000
11
-495.8067057215
21
-173.1634168810
31
0.0000000000
0
SPLINE
5
48F
100
AcDbEntity
8
0
100
AcDbSpline
62
7
6
CONTINUOUS
70
0
71
3
72
8
73
4
74
2
42
0.0000001000
43
0.0000001000
44
0.0000000001
12
0.0335069796
22
-0.0010568407
32
0.0000000000
13
0.0335109171
23
-0.0009230751
33
0.0000000000
40
0.0000000000
40
0.0000000000
40
0.0000000000
40
0.0000000000
40
1.0000000000
40
1.0000000000
40
1.0000000000
40
1.0000000000
10
-495.8067057215
20
-173.1634168810
30
0.0000000000
10
-495.7955367283
20
-173.1637691613
30
0.0000000000
10
-495.7843670388
20
-173.1640991484
30
0.0000000000
10
-495.7731967331
20
-173.1644068401
30
0.0000000000
11
-495.8067057215
21
-173.1634168810
31
0.0000000000
11
-495.7731967331
21
-173.1644068401
31
0.0000000000
0
SPLINE
5
490
100
AcDbEntity
8
0
100
AcDbSpline
62
7
6
CONTINUOUS
70
0
71
3
72
8
73
4
74
2
42
0.0000001000
43
0.0000001000
44
0.0000000001
12
0.0193601453
22
-0.0005332849
32
0.0000000000
13
0.0193613329
23
-0.0004886347
33
0.0000000000
40
0.0000000000
40
0.0000000000
40
0.0000000000
40
0.0000000000
40
1.0000000000
40
1.0000000000
40
1.0000000000
40
1.0000000000
10
-495.7731967331
20
-173.1644068401
30
0.0000000000
10
-495.7667433513
20
-173.1645846017
30
0.0000000000
10
-495.7602897639
20
-173.1647549219
30
0.0000000000
10
-495.7538359863
20
-173.1649178001
30
0.0000000000
11
-495.7731967331
21
-173.1644068401
31
0.0000000000
11
-495.7538359863
21
-173.1649178001
31
0.0000000000
0
SPLINE
5
491
100
AcDbEntity
8
0
100
AcDbSpline
62
7
6
CONTINUOUS
70
0
71
3
72
8
73
4
74
2
42
0.0000001000
43
0.0000001000
44
0.0000000001
12
0.0298406162
22
-0.0007531073
32
0.0000000000
13
0.0298431574
23
-0.0006470354
33
0.0000000000
40
0.0000000000
40
0.0000000000
40
0.0000000000
40
0.0000000000
40
1.0000000000
40
1.0000000000
40
1.0000000000
40
1.0000000000
10
-495.7538359863
20
-173.1649178001
30
0.0000000000
10
-495.7438891142
20
-173.1651688359
30
0.0000000000
10
-495.7339417903
20
-173.1654021938
30
0.0000000000
10
-495.7239940712
20
-173.1656178723
30
0.0000000000
11
-495.7538359863
21
-173.1649178001
31
0.0000000000
11
-495.7239940712
21
-173.1656178723
31
0.0000000000
0
SPLINE
5
492
100
AcDbEntity
8
0
100
AcDbSpline
62
7
6
CONTINUOUS
70
0
71
3
72
8
73
4
74
2
42
0.0000001000
43
0.0000001000
44
0.0000000001
12
0.0230677740
22
-0.0005001370
32
0.0000000000
13
0.0230691126
23
-0.0004367564
33
0.0000000000
40
0.0000000000
40
0.0000000000
40
0.0000000000
40
0.0000000000
40
1.0000000000
40
1.0000000000
40
1.0000000000
40
1.0000000000
10
-495.7239940712
20
-173.1656178723
30
0.0000000000
10
-495.7163048131
20
-173.1657845846
30
0.0000000000
10
-495.7086153190
20
-173.1659407338
30
0.0000000000
10
-495.7009256148
20
-173.1660863193
30
0.0000000000
11
-495.7239940712
21
-173.1656178723
31
0.0000000000
11
-495.7009256148
21
-173.1660863193
31
0.0000000000
0
SPLINE
5
493
100
AcDbEntity
8
0
100
AcDbSpline
62
7
6
CONTINUOUS
70
0
71
3
72
8
73
4
74
2
42
0.0000001000
43
0.0000001000
44
0.0000000001
12
0.1589487498
22
-0.0030093002
32
0.0000000000
13
0.1589743882
23
0.0000000000
33
0.0000000000
40
0.0000000000
40
0.0000000000
40
0.0000000000
40
0.0000000000
40
1.0000000000
40
1.0000000000
40
1.0000000000
40
1.0000000000
10
-495.7009256148
20
-173.1660863193
30
0.0000000000
10
-495.6479426982
20
-173.1670894194
30
0.0000000000
10
-495.5949498108
20
-173.1675910178
30
0.0000000000
10
-495.5419583481
20
-173.1675910178
30
0.0000000000
11
-495.7009256148
21
-173.1660863193
31
0.0000000000
11
-495.5419583481
21
-173.1675910178
31
0.0000000000
0
SPLINE
5
494
100
AcDbEntity
8
0
100
AcDbSpline
62
7
6
CONTINUOUS
70
0
71
3
72
8
73
4
74
2
42
0.0000001000
43
0.0000001000
44
0.0000000001
12
0.0445359222
22
-0.0120408100
32
0.0000000000
13
0.0446009032
23
-0.0117996645
33
0.0000000000
40
0.0000000000
40
0.0000000000
40
0.0000000000
40
0.0000000000
40
1.0000000000
40
1.0000000000
40
1.0000000000
40
1.0000000000
10
-497.7673895350
20
-173.1541224550
30
0.0000000000
10
-497.7525442276
20
-173.1581360583
30
0.0000000000
10
-497.7376879614
20
-173.1621095039
30
0.0000000000
10
-497.7228209936
20
-173.1660427254
30
0.0000000000
11
-497.7673895350
21
-173.1541224550
31
0.0000000000
11
-497.7228209936
21
-173.1660427254
31
0.0000000000
0
SPLINE
5
495
100
AcDbEntity
8
0
100
AcDbSpline
62
7
6
CONTINUOUS
70
0
71
3
72
18
73
14
74
12
42
0.0000001000
43
0.0000001000
44
0.0000000001
12
1.5464030363
22
-0.4091181050
32
0.0000000000
13
1.5955876606
23
-0.1135141443
33
0.0000000000
40
0.0000000000
40
0.0000000000
40
0.0000000000
40
0.0000000000
40
0.0589660737
40
0.1479957291
40
0.2369272676
40
0.3244451233
40
0.4114801679
40
0.5046967137
40
0.6113792754
40
0.7307574605
40
0.8525919609
40
0.9673161129
40
1.0000000000
40
1.0000000000
40
1.0000000000
40
1.0000000000
10
-497.7228209936
20
-173.1660427254
30
0.0000000000
10
-497.6924258885
20
-173.1740840882
30
0.0000000000
10
-497.6160266062
20
-173.1938446817
30
0.0000000000
10
-497.4932896119
20
-173.2237782748
30
0.0000000000
10
-497.3552205116
20
-173.2550181868
30
0.0000000000
10
-497.2176945833
20
-173.2837506179
30
0.0000000000
10
-497.0774727742
20
-173.3106577763
30
0.0000000000
10
-496.9267480559
20
-173.3369461552
30
0.0000000000
10
-496.7585119716
20
-173.3630483929
30
0.0000000000
10
-496.5746312703
20
-173.3875976070
30
0.0000000000
10
-496.3859793731
20
-173.4084520902
30
0.0000000000
10
-496.2429637628
20
-173.4210573846
30
0.0000000000
10
-496.1645798887
20
-173.4268753298
30
0.0000000000
10
-496.1471965530
20
-173.4281120243
30
0.0000000000
11
-497.7228209936
21
-173.1660427254
31
0.0000000000
11
-497.6315036850
21
-173.1896618523
31
0.0000000000
11
-497.4931479803
21
-173.2234046431
31
0.0000000000
11
-497.3544012246
21
-173.2547979138
31
0.0000000000
11
-497.2173673102
21
-173.2834275833
31
0.0000000000
11
-497.0806414194
21
-173.3096639357
31
0.0000000000
11
-496.9337506400
21
-173.3352836486
31
0.0000000000
11
-496.7651198817
21
-173.3614471475
31
0.0000000000
11
-496.5758431142
21
-173.3867168053
31
0.0000000000
11
-496.3821378350
21
-173.4081299665
31
0.0000000000
11
-496.1993349164
21
-173.4242421157
31
0.0000000000
11
-496.1471965530
21
-173.4281120243
31
0.0000000000
0
SPLINE
5
496
100
AcDbEntity
8
0
100
AcDbSpline
62
7
6
CONTINUOUS
70
0
71
3
72
8
73
4
74
2
42
0.0000001000
43
0.0000001000
44
0.0000000001
12
0.1051954224
22
-0.0074838686
32
0.0000000000
13
0.1052779155
23
-0.0061824310
33
0.0000000000
40
0.0000000000
40
0.0000000000
40
0.0000000000
40
0.0000000000
40
1.0000000000
40
1.0000000000
40
1.0000000000
40
1.0000000000
10
-496.1471965530
20
-173.4281120243
30
0.0000000000
10
-496.1121314122
20
-173.4306066472
30
0.0000000000
10
-496.0770509866
20
-173.4328844626
30
0.0000000000
10
-496.0419583481
20
-173.4349452729
30
0.0000000000
11
-496.1471965530
21
-173.4281120243
31
0.0000000000
11
-496.0419583481
21
-173.4349452729
31
0.0000000000
0
SPLINE
5
497
100
AcDbEntity
8
0
100
AcDbSpline
62
7
6
CONTINUOUS
70
0
71
3
72
8
73
4
74
2
42
0.0000001000
43
0.0000001000
44
0.0000000001
12
0.1052778537
22
0.0061824273
32
0.0000000000
13
0.1051954633
23
0.0074838716
33
0.0000000000
40
0.0000000000
40
0.0000000000
40
0.0000000000
40
0.0000000000
40
1.0000000000
40
1.0000000000
40
1.0000000000
40
1.0000000000
10
-466.5419583481
20
-173.4349452729
30
0.0000000000
10
-466.5068657302
20
-173.4328844638
30
0.0000000000
10
-466.4717852977
20
-173.4306066471
30
0.0000000000
10
-466.4367201432
20
-173.4281120233
30
0.0000000000
11
-466.5419583481
21
-173.4349452729
31
0.0000000000
11
-466.4367201432
21
-173.4281120233
31
0.0000000000
0
SPLINE
5
498
100
AcDbEntity
8
0
100
AcDbSpline
62
7
6
CONTINUOUS
70
0
71
3
72
18
73
14
74
12
42
0.0000001000
43
0.0000001000
44
0.0000000001
12
1.5955891498
22
0.1135142521
32
0.0000000000
13
1.5464027424
23
0.4091180320
33
0.0000000000
40
0.0000000000
40
0.0000000000
40
0.0000000000
40
0.0000000000
40
0.0358225692
40
0.1508721984
40
0.2727013998
40
0.3930092557
40
0.5004411643
40
0.5936955265
40
0.6801841397
40
0.7667022842
40
0.8543638374
40
0.9421008930
40
1.0000000000
40
1.0000000000
40
1.0000000000
40
1.0000000000
10
-466.4367201432
20
-173.4281120233
30
0.0000000000
10
-466.4176674423
20
-173.4267565659
30
0.0000000000
10
-466.3374430917
20
-173.4207782709
30
0.0000000000
10
-466.1925981521
20
-173.4079213422
30
0.0000000000
10
-466.0032974593
20
-173.3868707158
30
0.0000000000
10
-465.8185500635
20
-173.3620673737
30
0.0000000000
10
-465.6494326940
20
-173.3356736203
30
0.0000000000
10
-465.4986070489
20
-173.3092172501
30
0.0000000000
10
-465.3591998531
20
-173.2823334284
30
0.0000000000
10
-465.2231660171
20
-173.2538027050
30
0.0000000000
10
-465.0869671090
20
-173.2229054816
30
0.0000000000
10
-464.9661200022
20
-173.1933916301
30
0.0000000000
10
-464.8909408151
20
-173.1739385817
30
0.0000000000
10
-464.8610957025
20
-173.1660427255
30
0.0000000000
11
-466.4367201432
21
-173.4281120233
31
0.0000000000
11
-466.3795760684
21
-173.4238536588
31
0.0000000000
11
-466.1962645789
21
-173.4075822819
31
0.0000000000
11
-466.0025816768
21
-173.3860442896
31
0.0000000000
11
-465.8118497000
21
-173.3604374478
31
0.0000000000
11
-465.6420580847
21
-173.3339384399
31
0.0000000000
11
-465.4951325864
21
-173.3081661722
31
0.0000000000
11
-465.3592891459
21
-173.2819695738
31
0.0000000000
11
-465.2238425386
21
-173.2535619807
31
0.0000000000
11
-465.0870945706
21
-173.2225401720
31
0.0000000000
11
-464.9507583234
21
-173.1892434476
31
0.0000000000
11
-464.8610957025
21
-173.1660427255
31
0.0000000000
0
SPLINE
5
499
100
AcDbEntity
8
0
100
AcDbSpline
62
7
6
CONTINUOUS
70
0
71
3
72
8
73
4
74
2
42
0.0000001000
43
0.0000001000
44
0.0000000001
12
0.0446008999
22
0.0117996637
32
0.0000000000
13
0.0445359254
23
0.0120408109
33
0.0000000000
40
0.0000000000
40
0.0000000000
40
0.0000000000
40
0.0000000000
40
1.0000000000
40
1.0000000000
40
1.0000000000
40
1.0000000000
10
-464.8610957025
20
-173.1660427255
30
0.0000000000
10
-464.8462287359
20
-173.1621095042
30
0.0000000000
10
-464.8313724696
20
-173.1581360586
30
0.0000000000
10
-464.8165271611
20
-173.1541224550
30
0.0000000000
11
-464.8610957025
21
-173.1660427255
31
0.0000000000
11
-464.8165271611
21
-173.1541224550
31
0.0000000000
0
SPLINE
5
49A
100
AcDbEntity
8
0
100
AcDbSpline
62
7
6
CONTINUOUS
70
0
71
3
72
8
73
4
74
2
42
0.0000001000
43
0.0000001000
44
0.0000000001
12
0.1060310991
22
0.0000000000
32
0.0000000000
13
0.1060247591
23
0.0013387259
33
0.0000000000
40
0.0000000000
40
0.0000000000
40
0.0000000000
40
0.0000000000
40
1.0000000000
40
1.0000000000
40
1.0000000000
40
1.0000000000
10
-467.0419583481
20
-173.1675910178
30
0.0000000000
10
-467.0066146484
20
-173.1675910178
30
0.0000000000
10
-466.9712703148
20
-173.1673678824
30
0.0000000000
10
-466.9359287284
20
-173.1669216405
30
0.0000000000
11
-467.0419583481
21
-173.1675910178
31
0.0000000000
11
-466.9359287284
21
-173.1669216405
31
0.0000000000
0
SPLINE
5
49B
100
AcDbEntity
8
0
100
AcDbSpline
62
7
6
CONTINUOUS
70
0
71
3
72
8
73
4
74
2
42
0.0000001000
43
0.0000001000
44
0.0000000001
12
0.0035897139
22
0.0000453257
32
0.0000000000
13
0.0035896946
23
0.0000468602
33
0.0000000000
40
0.0000000000
40
0.0000000000
40
0.0000000000
40
0.0000000000
40
1.0000000000
40
1.0000000000
40
1.0000000000
40
1.0000000000
10
-466.9359287284
20
-173.1669216405
30
0.0000000000
10
-466.9347321571
20
-173.1669065319
30
0.0000000000
10
-466.9335355890
20
-173.1668911676
30
0.0000000000
10
-466.9323390241
20
-173.1668755476
30
0.0000000000
11
-466.9359287284
21
-173.1669216405
31
0.0000000000
11
-466.9323390241
21
-173.1668755476
31
0.0000000000
0
SPLINE
5
49C
100
AcDbEntity
8
0
100
AcDbSpline
62
7
6
CONTINUOUS
70
0
71
3
72
8
73
4
74
2
42
0.0000001000
43
0.0000001000
44
0.0000000001
12
0.0493501437
22
0.0006442209
32
0.0000000000
13
0.0493454008
23
0.0009342327
33
0.0000000000
40
0.0000000000
40
0.0000000000
40
0.0000000000
40
0.0000000000
40
1.0000000000
40
1.0000000000
40
1.0000000000
40
1.0000000000
10
-466.9323390241
20
-173.1668755476
30
0.0000000000
10
-466.9158889762
20
-173.1666608073
30
0.0000000000
10
-466.8994395483
20
-173.1663977302
30
0.0000000000
10
-466.8829910814
20
-173.1660863193
30
0.0000000000
11
-466.9323390241
21
-173.1668755476
31
0.0000000000
11
-466.8829910814
21
-173.1660863193
31
0.0000000000
0
SPLINE
5
49D
100
AcDbEntity
8
0
100
AcDbSpline
62
7
6
CONTINUOUS
70
0
71
3
72
8
73
4
74
2
42
0.0000001000
43
0.0000001000
44
0.0000000001
12
0.0230691048
22
0.0004367563
32
0.0000000000
13
0.0230677662
23
0.0005001368
33
0.0000000000
40
0.0000000000
40
0.0000000000
40
0.0000000000
40
0.0000000000
40
1.0000000000
40
1.0000000000
40
1.0000000000
40
1.0000000000
10
-466.8829910814
20
-173.1660863193
30
0.0000000000
10
-466.8753013798
20
-173.1659407339
30
0.0000000000
10
-466.8676118882
20
-173.1657845847
30
0.0000000000
10
-466.8599226328
20
-173.1656178724
30
0.0000000000
11
-466.8829910814
21
-173.1660863193
31
0.0000000000
11
-466.8599226328
21
-173.1656178724
31
0.0000000000
0
SPLINE
5
49E
100
AcDbEntity
8
0
100
AcDbSpline
62
7
6
CONTINUOUS
70
0
71
3
72
8
73
4
74
2
42
0.0000001000
43
0.0000001000
44
0.0000000001
12
0.0298431653
22
0.0006470356
32
0.0000000000
13
0.0298406240
23
0.0007531075
33
0.0000000000
40
0.0000000000
40
0.0000000000
40
0.0000000000
40
0.0000000000
40
1.0000000000
40
1.0000000000
40
1.0000000000
40
1.0000000000
10
-466.8599226328
20
-173.1656178724
30
0.0000000000
10
-466.8499749110
20
-173.1654021939
30
0.0000000000
10
-466.8400275845
20
-173.1651688359
30
0.0000000000
10
-466.8300807099
20
-173.1649178001
30
0.0000000000
11
-466.8599226328
21
-173.1656178724
31
0.0000000000
11
-466.8300807099
21
-173.1649178001
31
0.0000000000
0
SPLINE
5
49F
100
AcDbEntity
8
0
100
AcDbSpline
62
7
6
CONTINUOUS
70
0
71
3
72
8
73
4
74
2
42
0.0000001000
43
0.0000001000
44
0.0000000001
12
0.0193613329
22
0.0004886347
32
0.0000000000
13
0.0193601453
23
0.0005332849
33
0.0000000000
40
0.0000000000
40
0.0000000000
40
0.0000000000
40
0.0000000000
40
1.0000000000
40
1.0000000000
40
1.0000000000
40
1.0000000000
10
-466.8300807099
20
-173.1649178001
30
0.0000000000
10
-466.8236269322
20
-173.1647549219
30
0.0000000000
10
-466.8171733448
20
-173.1645846017
30
0.0000000000
10
-466.8107199631
20
-173.1644068401
30
0.0000000000
11
-466.8300807099
21
-173.1649178001
31
0.0000000000
11
-466.8107199631
21
-173.1644068401
31
0.0000000000
0
SPLINE
5
4A0
100
AcDbEntity
8
0
100
AcDbSpline
62
7
6
CONTINUOUS
70
0
71
3
72
8
73
4
74
2
42
0.0000001000
43
0.0000001000
44
0.0000000001
12
0.0335109171
22
0.0009230751
32
0.0000000000
13
0.0335069796
23
0.0010568407
33
0.0000000000
40
0.0000000000
40
0.0000000000
40
0.0000000000
40
0.0000000000
40
1.0000000000
40
1.0000000000
40
1.0000000000
40
1.0000000000
10
-466.8107199631
20
-173.1644068401
30
0.0000000000
10
-466.7995496574
20
-173.1640991484
30
0.0000000000
10
-466.7883799678
20
-173.1637691613
30
0.0000000000
10
-466.7772109746
20
-173.1634168810
30
0.0000000000
11
-466.8107199631
21
-173.1644068401
31
0.0000000000
11
-466.7772109746
21
-173.1634168810
31
0.0000000000
0
SPLINE
5
4A1
100
AcDbEntity
8
0
100
AcDbSpline
62
7
6
CONTINUOUS
70
0
71
3
72
8
73
4
74
2
42
0.0000001000
43
0.0000001000
44
0.0000000001
12
0.0188804621
22
0.0005955070
32
0.0000000000
13
0.0188790925
23
0.0006379754
33
0.0000000000
40
0.0000000000
40
0.0000000000
40
0.0000000000
40
0.0000000000
40
1.0000000000
40
1.0000000000
40
1.0000000000
40
1.0000000000
10
-466.7772109746
20
-173.1634168810
30
0.0000000000
10
-466.7709174873
20
-173.1632183787
30
0.0000000000
10
-466.7646242210
20
-173.1630127981
30
0.0000000000
10
-466.7583311902
20
-173.1628001396
30
0.0000000000
11
-466.7772109746
21
-173.1634168810
31
0.0000000000
11
-466.7583311902
21
-173.1628001396
31
0.0000000000
0
SPLINE
5
4A2
100
AcDbEntity
8
0
100
AcDbSpline
62
7
6
CONTINUOUS
70
0
71
3
72
8
73
4
74
2
42
0.0000001000
43
0.0000001000
44
0.0000000001
12
0.0339073753
22
0.0011458215
32
0.0000000000
13
0.0339025696
23
0.0012828017
33
0.0000000000
40
0.0000000000
40
0.0000000000
40
0.0000000000
40
0.0000000000
40
1.0000000000
40
1.0000000000
40
1.0000000000
40
1.0000000000
10
-466.7583311902
20
-173.1628001396
30
0.0000000000
10
-466.7470287317
20
-173.1624181991
30
0.0000000000
10
-466.7357270327
20
-173.1620134274
30
0.0000000000
10
-466.7244261762
20
-173.1615858269
30
0.0000000000
11
-466.7583311902
21
-173.1628001396
31
0.0000000000
11
-466.7244261762
21
-173.1615858269
31
0.0000000000
0
SPLINE
5
4A3
100
AcDbEntity
8
0
100
AcDbSpline
62
7
6
CONTINUOUS
70
0
71
3
72
8
73
4
74
2
42
0.0000001000
43
0.0000001000
44
0.0000000001
12
0.1579650683
22
0.0059770648
32
0.0000000000
13
0.1578217782
23
0.0089491516
33
0.0000000000
40
0.0000000000
40
0.0000000000
40
0.0000000000
40
0.0000000000
40
1.0000000000
40
1.0000000000
40
1.0000000000
40
1.0000000000
10
-466.7244261762
20
-173.1615858269
30
0.0000000000
10
-466.6717711534
20
-173.1595934719
30
0.0000000000
10
-466.6191344205
20
-173.1571055055
30
0.0000000000
10
-466.5665271611
20
-173.1541224550
30
0.0000000000
11
-466.7244261762
21
-173.1615858269
31
0.0000000000
11
-466.5665271611
21
-173.1541224550
31
0.0000000000
0
SPLINE
5
4A4
100
AcDbEntity
8
0
100
AcDbSpline
62
7
6
CONTINUOUS
70
0
71
3
72
8
73
4
74
2
42
0.0000001000
43
0.0000001000
44
0.0000000001
12
0.1578217775
22
-0.0089491516
32
0.0000000000
13
0.1579650686
23
-0.0059770649
33
0.0000000000
40
0.0000000000
40
0.0000000000
40
0.0000000000
40
0.0000000000
40
1.0000000000
40
1.0000000000
40
1.0000000000
40
1.0000000000
10
-467.5173895350
20
-173.1541224550
30
0.0000000000
10
-467.4647822759
20
-173.1571055055
30
0.0000000000
10
-467.4121455429
20
-173.1595934719
30
0.0000000000
10
-467.3594905200
20
-173.1615858269
30
0.0000000000
11
-467.5173895350
21
-173.1541224550
31
0.0000000000
11
-467.3594905200
21
-173.1615858269
31
0.0000000000
0
SPLINE
5
4A5
100
AcDbEntity
8
0
100
AcDbSpline
62
7
6
CONTINUOUS
70
0
71
3
72
8
73
4
74
2
42
0.0000001000
43
0.0000001000
44
0.0000000001
12
0.0339025697
22
-0.0012828017
32
0.0000000000
13
0.0339073753
23
-0.0011458215
33
0.0000000000
40
0.0000000000
40
0.0000000000
40
0.0000000000
40
0.0000000000
40
1.0000000000
40
1.0000000000
40
1.0000000000
40
1.0000000000
10
-467.3594905200
20
-173.1615858269
30
0.0000000000
10
-467.3481896634
20
-173.1620134274
30
0.0000000000
10
-467.3368879644
20
-173.1624181991
30
0.0000000000
10
-467.3255855060
20
-173.1628001396
30
0.0000000000
11
-467.3594905200
21
-173.1615858269
31
0.0000000000
11
-467.3255855060
21
-173.1628001396
31
0.0000000000
0
SPLINE
5
4A6
100
AcDbEntity
8
0
100
AcDbSpline
62
7
6
CONTINUOUS
70
0
71
3
72
8
73
4
74
2
42
0.0000001000
43
0.0000001000
44
0.0000000001
12
0.0188790925
22
-0.0006379754
32
0.0000000000
13
0.0188804621
23
-0.0005955070
33
0.0000000000
40
0.0000000000
40
0.0000000000
40
0.0000000000
40
0.0000000000
40
1.0000000000
40
1.0000000000
40
1.0000000000
40
1.0000000000
10
-467.3255855060
20
-173.1628001396
30
0.0000000000
10
-467.3192924751
20
-173.1630127981
30
0.0000000000
10
-467.3129992089
20
-173.1632183787
30
0.0000000000
10
-467.3067057215
20
-173.1634168810
30
0.0000000000
11
-467.3255855060
21
-173.1628001396
31
0.0000000000
11
-467.3067057215
21
-173.1634168810
31
0.0000000000
0
SPLINE
5
4A7
100
AcDbEntity
8
0
100
AcDbSpline
62
7
6
CONTINUOUS
70
0
71
3
72
8
73
4
74
2
42
0.0000001000
43
0.0000001000
44
0.0000000001
12
0.0335069796
22
-0.0010568407
32
0.0000000000
13
0.0335109171
23
-0.0009230751
33
0.0000000000
40
0.0000000000
40
0.0000000000
40
0.0000000000
40
0.0000000000
40
1.0000000000
40
1.0000000000
40
1.0000000000
40
1.0000000000
10
-467.3067057215
20
-173.1634168810
30
0.0000000000
10
-467.2955367283
20
-173.1637691613
30
0.0000000000
10
-467.2843670388
20
-173.1640991484
30
0.0000000000
10
-467.2731967331
20
-173.1644068401
30
0.0000000000
11
-467.3067057215
21
-173.1634168810
31
0.0000000000
11
-467.2731967331
21
-173.1644068401
31
0.0000000000
0
SPLINE
5
4A8
100
AcDbEntity
8
0
100
AcDbSpline
62
7
6
CONTINUOUS
70
0
71
3
72
8
73
4
74
2
42
0.0000001000
43
0.0000001000
44
0.0000000001
12
0.0193601453
22
-0.0005332849
32
0.0000000000
13
0.0193613329
23
-0.0004886347
33
0.0000000000
40
0.0000000000
40
0.0000000000
40
0.0000000000
40
0.0000000000
40
1.0000000000
40
1.0000000000
40
1.0000000000
40
1.0000000000
10
-467.2731967331
20
-173.1644068401
30
0.0000000000
10
-467.2667433513
20
-173.1645846017
30
0.0000000000
10
-467.2602897639
20
-173.1647549219
30
0.0000000000
10
-467.2538359863
20
-173.1649178001
30
0.0000000000
11
-467.2731967331
21
-173.1644068401
31
0.0000000000
11
-467.2538359863
21
-173.1649178001
31
0.0000000000
0
SPLINE
5
4A9
100
AcDbEntity
8
0
100
AcDbSpline
62
7
6
CONTINUOUS
70
0
71
3
72
8
73
4
74
2
42
0.0000001000
43
0.0000001000
44
0.0000000001
12
0.0298406162
22
-0.0007531073
32
0.0000000000
13
0.0298431574
23
-0.0006470354
33
0.0000000000
40
0.0000000000
40
0.0000000000
40
0.0000000000
40
0.0000000000
40
1.0000000000
40
1.0000000000
40
1.0000000000
40
1.0000000000
10
-467.2538359863
20
-173.1649178001
30
0.0000000000
10
-467.2438891142
20
-173.1651688359
30
0.0000000000
10
-467.2339417903
20
-173.1654021938
30
0.0000000000
10
-467.2239940712
20
-173.1656178723
30
0.0000000000
11
-467.2538359863
21
-173.1649178001
31
0.0000000000
11
-467.2239940712
21
-173.1656178723
31
0.0000000000
0
SPLINE
5
4AA
100
AcDbEntity
8
0
100
AcDbSpline
62
7
6
CONTINUOUS
70
0
71
3
72
8
73
4
74
2
42
0.0000001000
43
0.0000001000
44
0.0000000001
12
0.0230677740
22
-0.0005001370
32
0.0000000000
13
0.0230691126
23
-0.0004367564
33
0.0000000000
40
0.0000000000
40
0.0000000000
40
0.0000000000
40
0.0000000000
40
1.0000000000
40
1.0000000000
40
1.0000000000
40
1.0000000000
10
-467.2239940712
20
-173.1656178723
30
0.0000000000
10
-467.2163048131
20
-173.1657845846
30
0.0000000000
10
-467.2086153190
20
-173.1659407338
30
0.0000000000
10
-467.2009256148
20
-173.1660863193
30
0.0000000000
11
-467.2239940712
21
-173.1656178723
31
0.0000000000
11
-467.2009256148
21
-173.1660863193
31
0.0000000000
0
SPLINE
5
4AB
100
AcDbEntity
8
0
100
AcDbSpline
62
7
6
CONTINUOUS
70
0
71
3
72
8
73
4
74
2
42
0.0000001000
43
0.0000001000
44
0.0000000001
12
0.1589487498
22
-0.0030093002
32
0.0000000000
13
0.1589743882
23
0.0000000000
33
0.0000000000
40
0.0000000000
40
0.0000000000
40
0.0000000000
40
0.0000000000
40
1.0000000000
40
1.0000000000
40
1.0000000000
40
1.0000000000
10
-467.2009256148
20
-173.1660863193
30
0.0000000000
10
-467.1479426982
20
-173.1670894194
30
0.0000000000
10
-467.0949498108
20
-173.1675910178
30
0.0000000000
10
-467.0419583481
20
-173.1675910178
30
0.0000000000
11
-467.2009256148
21
-173.1660863193
31
0.0000000000
11
-467.0419583481
21
-173.1675910178
31
0.0000000000
0
SPLINE
5
4AC
100
AcDbEntity
8
0
100
AcDbSpline
62
7
6
CONTINUOUS
70
0
71
3
72
8
73
4
74
2
42
0.0000001000
43
0.0000001000
44
0.0000000001
12
0.0445359222
22
-0.0120408100
32
0.0000000000
13
0.0446009032
23
-0.0117996645
33
0.0000000000
40
0.0000000000
40
0.0000000000
40
0.0000000000
40
0.0000000000
40
1.0000000000
40
1.0000000000
40
1.0000000000
40
1.0000000000
10
-469.2673895350
20
-173.1541224550
30
0.0000000000
10
-469.2525442276
20
-173.1581360583
30
0.0000000000
10
-469.2376879614
20
-173.1621095039
30
0.0000000000
10
-469.2228209936
20
-173.1660427254
30
0.0000000000
11
-469.2673895350
21
-173.1541224550
31
0.0000000000
11
-469.2228209936
21
-173.1660427254
31
0.0000000000
0
SPLINE
5
4AD
100
AcDbEntity
8
0
100
AcDbSpline
62
7
6
CONTINUOUS
70
0
71
3
72
18
73
14
74
12
42
0.0000001000
43
0.0000001000
44
0.0000000001
12
1.5464030363
22
-0.4091181050
32
0.0000000000
13
1.5955876606
23
-0.1135141443
33
0.0000000000
40
0.0000000000
40
0.0000000000
40
0.0000000000
40
0.0000000000
40
0.0589660737
40
0.1479957291
40
0.2369272676
40
0.3244451233
40
0.4114801679
40
0.5046967137
40
0.6113792754
40
0.7307574605
40
0.8525919609
40
0.9673161129
40
1.0000000000
40
1.0000000000
40
1.0000000000
40
1.0000000000
10
-469.2228209936
20
-173.1660427254
30
0.0000000000
10
-469.1924258885
20
-173.1740840882
30
0.0000000000
10
-469.1160266062
20
-173.1938446817
30
0.0000000000
10
-468.9932896119
20
-173.2237782748
30
0.0000000000
10
-468.8552205116
20
-173.2550181868
30
0.0000000000
10
-468.7176945833
20
-173.2837506179
30
0.0000000000
10
-468.5774727742
20
-173.3106577763
30
0.0000000000
10
-468.4267480559
20
-173.3369461552
30
0.0000000000
10
-468.2585119716
20
-173.3630483929
30
0.0000000000
10
-468.0746312703
20
-173.3875976070
30
0.0000000000
10
-467.8859793731
20
-173.4084520902
30
0.0000000000
10
-467.7429637628
20
-173.4210573846
30
0.0000000000
10
-467.6645798887
20
-173.4268753298
30
0.0000000000
10
-467.6471965530
20
-173.4281120243
30
0.0000000000
11
-469.2228209936
21
-173.1660427254
31
0.0000000000
11
-469.1315036850
21
-173.1896618523
31
0.0000000000
11
-468.9931479803
21
-173.2234046431
31
0.0000000000
11
-468.8544012246
21
-173.2547979138
31
0.0000000000
11
-468.7173673102
21
-173.2834275833
31
0.0000000000
11
-468.5806414194
21
-173.3096639357
31
0.0000000000
11
-468.4337506400
21
-173.3352836486
31
0.0000000000
11
-468.2651198817
21
-173.3614471475
31
0.0000000000
11
-468.0758431142
21
-173.3867168053
31
0.0000000000
11
-467.8821378350
21
-173.4081299665
31
0.0000000000
11
-467.6993349164
21
-173.4242421157
31
0.0000000000
11
-467.6471965530
21
-173.4281120243
31
0.0000000000
0
SPLINE
5
4AE
100
AcDbEntity
8
0
100
AcDbSpline
62
7
6
CONTINUOUS
70
0
71
3
72
8
73
4
74
2
42
0.0000001000
43
0.0000001000
44
0.0000000001
12
0.1051954224
22
-0.0074838686
32
0.0000000000
13
0.1052779155
23
-0.0061824310
33
0.0000000000
40
0.0000000000
40
0.0000000000
40
0.0000000000
40
0.0000000000
40
1.0000000000
40
1.0000000000
40
1.0000000000
40
1.0000000000
10
-467.6471965530
20
-173.4281120243
30
0.0000000000
10
-467.6121314122
20
-173.4306066472
30
0.0000000000
10
-467.5770509866
20
-173.4328844626
30
0.0000000000
10
-467.5419583481
20
-173.4349452729
30
0.0000000000
11
-467.6471965530
21
-173.4281120243
31
0.0000000000
11
-467.5419583481
21
-173.4349452729
31
0.0000000000
0
SPLINE
5
4AF
100
AcDbEntity
8
0
100
AcDbSpline
62
3
6
CONTINUOUS
70
0
71
3
72
10
73
6
74
4
42
0.0000001000
43
0.0000001000
44
0.0000000001
12
-2.6821336093
22
0.0000000000
32
0.0000000000
13
-1.1367947464
23
-2.4377087340
33
0.0000000000
40
0.0000000000
40
0.0000000000
40
0.0000000000
40
0.0000000000
40
0.2546000141
40
0.6614082978
40
1.0000000000
40
1.0000000000
40
1.0000000000
40
1.0000000000
10
-498.6565601847
20
56.5355919002
30
0.0000000000
10
-498.8841839362
20
56.5355919002
30
0.0000000000
10
-499.4095313724
20
56.1178955731
30
0.0000000000
10
-499.8247064080
20
55.3469469932
30
0.0000000000
10
-500.1140690509
20
54.7446062745
30
0.0000000000
10
-500.2423721403
20
54.4694769579
30
0.0000000000
11
-498.6565601847
21
56.5355919002
31
0.0000000000
11
-499.2514797602
21
56.2003548959
31
0.0000000000
11
-499.8470387725
21
55.2861122608
31
0.0000000000
11
-500.2423721403
21
54.4694769579
31
0.0000000000
0
SPLINE
5
4B0
100
AcDbEntity
8
0
100
AcDbSpline
62
3
6
CONTINUOUS
70
0
71
3
72
8
73
4
74
2
42
0.0000001000
43
0.0000001000
44
0.0000000001
12
-0.2020330653
22
-0.4332336769
32
0.0000000000
13
-0.1972856493
23
-0.4339306207
33
0.0000000000
40
0.0000000000
40
0.0000000000
40
0.0000000000
40
0.0000000000
40
1.0000000000
40
1.0000000000
40
1.0000000000
40
1.0000000000
10
-500.2423721403
20
54.4694769579
30
0.0000000000
10
-500.3097164954
20
54.3250657323
30
0.0000000000
10
-500.3761964650
20
54.1802354404
30
0.0000000000
10
-500.4419583481
20
54.0355919002
30
0.0000000000
11
-500.2423721403
21
54.4694769579
31
0.0000000000
11
-500.4419583481
21
54.0355919002
31
0.0000000000
0
ENDSEC
0
SECTION
2
OBJECTS
0
DICTIONARY
5
C
100
AcDbDictionary
280
0
281
1
3
ACAD_GROUP
350
D
3
ACAD_MLINESTYLE
350
17
3
ACAD_LAYOUT
350
1A
3
ACAD_PLOTSETTINGS
350
19
3
ACAD_PLOTSTYLENAME
350
E
0
DICTIONARY
5
D
102
{ACAD_REACTORS
330
C
102
}
100
AcDbDictionary
280
0
281
1
0
ACDBDICTIONARYWDFLT
5
E
102
{ACAD_REACTORS
330
C
102
}
100
AcDbDictionary
281
1
3
Normal
350
F
100
AcDbDictionaryWithDefault
340
F
0
DICTIONARY
5
17
102
{ACAD_REACTORS
330
C
102
}
100
AcDbDictionary
280
0
281
1
3
Standard
350
18
0
DICTIONARY
5
19
102
{ACAD_REACTORS
330
C
102
}
100
AcDbDictionary
281
1
0
DICTIONARY
5
1A
102
{ACAD_REACTORS
330
C
102
}
100
AcDbDictionary
281
1
3
Layout1
350
1E
3
Model
350
22
0
ACDBPLACEHOLDER
5
F
102
{ACAD_REACTORS
330
E
102
}
0
MLINESTYLE
5
18
102
{ACAD_REACTORS
330
17
102
}
100
AcDbMlineStyle
2
STANDARD
70
0
3

62
256
51
90.0
52
90.0
71
2
49
0.5
62
256
6
BYLAYER
49
-0.5
62
256
6
BYLAYER
0
LAYOUT
5
1E
102
{ACAD_REACTORS
330
1A
102
}
100
AcDbPlotSettings
1

2

4

6

40
0.0
41
0.0
42
0.0
43
0.0
44
0.0
45
0.0
46
0.0
47
0.0
48
0.0
49
0.0
140
0.0
141
0.0
142
1.0
143
1.0
70
0
72
0
73
0
74
0
7

75
0
147
1.0
148
0.0
149
0.0
100
AcDbLayout
1
Layout1
70
0
71
0
10
0.0
20
0.0
11
0.0
21
0.0
12
0.0
22
0.0
32
0.0
14
0.0
24
0.0
34
0.0
15
0.0
25
0.0
35
0.0
146
0.0
13
0.0
23
0.0
33
0.0
16
0.0
26
0.0
36
0.0
17
0.0
27
0.0
37
0.0
76
0
330
1B
331
0
345
0
346
0
0
LAYOUT
5
22
102
{ACAD_REACTORS
330
1A
102
}
100
AcDbPlotSettings
1

2

4

6

40
0.0
41
0.0
42
0.0
43
0.0
44
0.0
45
0.0
46
0.0
47
0.0
48
0.0
49
0.0
140
0.0
141
0.0
142
1.0
143
1.0
70
0
72
0
73
0
74
0
7

75
0
147
1.0
148
0.0
149
0.0
100
AcDbLayout
1
Model
70
0
71
0
10
0.0
20
0.0
11
0.0
21
0.0
12
0.0
22
0.0
32
0.0
14
0.0
24
0.0
34
0.0
15
0.0
25
0.0
35
0.0
146
0.0
13
0.0
23
0.0
33
0.0
16
0.0
26
0.0
36
0.0
17
0.0
27
0.0
37
0.0
76
0
330
1F
331
0
345
0
346
0
0
ENDSEC
0
EOF
