  0
SECTION
  2
HEADER
  9
$ACADVER
  1
AC1024
  9
$DWGCODEPAGE
  3
ANSI_1252
  9
$EXTMAX
 10
420.0
 20
297.0
 30
0.0
  9
$EXTMIN
 10
0.0
 20
-0.0
 30
0.0
  9
$LIMMIN
 10
0.0
 20
-0.0
  9
$LIMMAX
 10
420.0
 20
297.0
  9
$VIEWCTR
 10
210.0
 20
148.5
  9
$VIEWSIZE
 40
297.0
  9
$CLAYER
  8
0
  9
$LTSCALE
 40
23.1
  9
$CELTYPE
  6
BYLAYER
  9
$DIMSCALE
 40
1.0
  9
$DIMASZ
 40
3.0
  9
$DIMEXO
 40
0.5
  9
$DIMDLI
 40
15.96
  9
$DIMEXE
 40
1.5
  9
$DIMCEN
 40
3.78
  9
$DIMLFAC
 40
1.0
  9
$DIMBLK
  1
_FILLED
  9
$DIMALT
 70
0
  9
$DIMALTF
 40
0.0393700787
  9
$DIMTXT
 40
3.0
  9
$DIMTOL
 70
1
  9
$DIMLIM
 70
0
  9
$DIMTFAC
 40
1.0
  9
$DIMTP
 40
0.01
  9
$DIMTM
 40
0.01
  9
$DIMGAP
 40
0.625
  9
$DIMDSEP
 70
44
  9
$AUNITS
 70
0
  9
$PDMODE
 70
3
  9
$PDSIZE
 40
3.0
  9
$HANDSEED
  5
5B5
  9
$TILEMODE
 70
1
  9
$MEASUREMENT
 70
1
  9
$INSUNITS
 70
4
  0
ENDSEC
  0
SECTION
  2
CLASSES
  0
CLASS
  1
ACDBDICTIONARYWDFLT
  2
AcDbDictionaryWithDefault
  3
AutoCAD 2000
 90
0
 91
1
280
0
281
0
  0
CLASS
  1
ACDBPLACEHOLDER
  2
AcDbPlaceHolder
  3
AutoCAD 2000
 90
0
 91
1
280
0
281
0
  0
CLASS
  1
LAYOUT
  2
AcDbLayout
  3
AutoCAD 2000
 90
0
 91
0
280
0
281
0
  0
ENDSEC
  0
SECTION
  2
TABLES
  0
TABLE
  2
VPORT
  5
8
100
AcDbSymbolTable
 70
2
  0
VPORT
  5
1F4
100
AcDbSymbolTableRecord
100
AcDbViewportTableRecord
  2
*ACTIVE
 70
0
 10
0.0
 20
0.0
 11
1.0
 21
1.0
 12
210.0
 22
148.5
 13
0.0
 23
0.0
 14
1.0
 24
1.0
 15
0.0
 25
0.0
 16
0.0
 26
0.0
 36
1.0
 17
0.0
 27
0.0
 37
0.0
 40
297.0
 41
1.4141414141
 42
50.0
 43
0.0
 44
0.0
 50
0.0
 51
0.0
 71
0
 72
100
 73
1
 74
1
 75
0
 76
0
 77
0
 78
0
  0
ENDTAB
  0
TABLE
  2
LTYPE
  5
5
100
AcDbSymbolTable
 70
6
  0
LTYPE
  5
14
100
AcDbSymbolTableRecord
100
AcDbLinetypeTableRecord
  2
BYBLOCK
 70
0
  3

 72
65
 73
0
 40
0.0
  0
LTYPE
  5
15
100
AcDbSymbolTableRecord
100
AcDbLinetypeTableRecord
  2
BYLAYER
 70
0
  3

 72
65
 73
0
 40
0.0
  0
LTYPE
  5
16
100
AcDbSymbolTableRecord
100
AcDbLinetypeTableRecord
  2
CONTINUOUS
 70
64
  3
Solid line
 72
65
 73
0
 40
0.0
  0
LTYPE
  5
1F5
100
AcDbSymbolTableRecord
100
AcDbLinetypeTableRecord
  2
CENTER
 70
64
  3
____ _ ____ _ ____ _ ____ _ ____ _ ____ _ ____
 72
65
 73
4
 40
0.6
 49
0.375
 74
0
 49
-0.075
 74
0
 49
0.075
 74
0
 49
-0.075
 74
0
  0
LTYPE
  5
1F6
100
AcDbSymbolTableRecord
100
AcDbLinetypeTableRecord
  2
HIDDEN
 70
64
  3
- - - - - - - - - - - - - - - - - - - -
 72
65
 73
2
 40
0.2
 49
0.1
 74
0
 49
-0.1
 74
0
  0
LTYPE
  5
1F7
100
AcDbSymbolTableRecord
100
AcDbLinetypeTableRecord
  2
PHANTOM
 70
64
  3
_____ _ _ _____ _ _ _____ _ _ _____
 72
65
 73
6
 40
0.8
 49
0.45
 74
0
 49
-0.05
 74
0
 49
0.1
 74
0
 49
-0.05
 74
0
 49
0.1
 74
0
 49
-0.05
 74
0
  0
LTYPE
  5
1F8
100
AcDbSymbolTableRecord
100
AcDbLinetypeTableRecord
  2
DOT
 70
64
  3
. . . . . . . . . . . . . . . . . . . .
 72
65
 73
2
 40
0.2
 49
0.1
 74
0
 49
-0.1
 74
0
  0
LTYPE
  5
1F9
100
AcDbSymbolTableRecord
100
AcDbLinetypeTableRecord
  2
DASHED
 70
64
  3
- - - - - - - - - - - - - - - - - - - -
 72
65
 73
2
 40
0.2
 49
0.1
 74
0
 49
-0.1
 74
0
  0
ENDTAB
  0
TABLE
  2
LAYER
  5
2
100
AcDbSymbolTable
 70
36
  0
LAYER
  5
10
100
AcDbSymbolTableRecord
100
AcDbLayerTableRecord
  2
0
 70
0
 62
7
  6
CONTINUOUS
370
-3
390
F
  0
LAYER
  5
1FA
100
AcDbSymbolTableRecord
100
AcDbLayerTableRecord
  2
DEFAULT_1
 70
0
 62
7
  6
CENTER
370
-3
390
F
  0
LAYER
  5
1FB
100
AcDbSymbolTableRecord
100
AcDbLayerTableRecord
  2
DEFAULT_2
 70
0
 62
7
  6
HIDDEN
370
-3
390
F
  0
LAYER
  5
1FC
100
AcDbSymbolTableRecord
100
AcDbLayerTableRecord
  2
DEFAULT_3
 70
0
 62
7
  6
PHANTOM
370
-3
390
F
  0
ENDTAB
  0
TABLE
  2
STYLE
  5
3
100
AcDbSymbolTable
 70
1
  0
STYLE
  5
11
100
AcDbSymbolTableRecord
100
AcDbTextStyleTableRecord
  2
STANDARD
 70
0
 40
0.0
 41
0.8
 50
0.0
 71
0
 42
0.2
  3
txt
  4

  0
STYLE
  5
1FD
100
AcDbSymbolTableRecord
100
AcDbTextStyleTableRecord
  2
TEXTSTYLE_1
 70
0
 40
0.0
 41
0.8
 50
0.0
 71
0
 42
0.2
  3
gdt
  4

  0
STYLE
  5
1FE
100
AcDbSymbolTableRecord
100
AcDbTextStyleTableRecord
  2
TEXTSTYLE_2
 70
0
 40
0.0
 41
0.75
 50
0.0
 71
0
 42
0.2
  3
txt
  4

  0
ENDTAB
  0
TABLE
  2
VIEW
  5
6
100
AcDbSymbolTable
 70
0
  0
ENDTAB
  0
TABLE
  2
UCS
  5
7
100
AcDbSymbolTable
 70
0
  0
ENDTAB
  0
TABLE
  2
APPID
  5
9
100
AcDbSymbolTable
 70
1
  0
APPID
  5
1FF
100
AcDbSymbolTableRecord
100
AcDbRegAppTableRecord
  2
ACAD
 70
0
  0
ENDTAB
  0
TABLE
  2
BLOCK_RECORD
  5
1
100
AcDbSymbolTable
 70
0
  0
BLOCK_RECORD
  5
200
100
AcDbSymbolTableRecord
100
AcDbBlockTableRecord
  2
*Model_Space
  0
BLOCK_RECORD
  5
201
100
AcDbSymbolTableRecord
100
AcDbBlockTableRecord
  2
*Paper_Space
  0
BLOCK_RECORD
  5
202
100
AcDbSymbolTableRecord
100
AcDbBlockTableRecord
  2
_FILLED
  0
BLOCK_RECORD
  5
203
100
AcDbSymbolTableRecord
100
AcDbBlockTableRecord
  2
*D0
  0
BLOCK_RECORD
  5
204
100
AcDbSymbolTableRecord
100
AcDbBlockTableRecord
  2
*D1
  0
BLOCK_RECORD
  5
205
100
AcDbSymbolTableRecord
100
AcDbBlockTableRecord
  2
*D2
  0
BLOCK_RECORD
  5
206
100
AcDbSymbolTableRecord
100
AcDbBlockTableRecord
  2
*D3
  0
BLOCK_RECORD
  5
207
100
AcDbSymbolTableRecord
100
AcDbBlockTableRecord
  2
*D4
  0
ENDTAB
  0
TABLE
  2
DIMSTYLE
  5
A
100
AcDbSymbolTable
 70
1
100
AcDbDimStyleTable
 71
0
  0
DIMSTYLE
105
208
100
AcDbSymbolTableRecord
100
AcDbDimStyleTableRecord
  2
STANDARD
 70
0
  3

  4

 40
1.0
 41
3.0
 42
0.5
 43
0.38
 44
1.5
 45
0.0
 46
0.0
 47
0.01
 48
0.01
140
3.0
141
0.09
142
0.0
143
25.4
144
1.0
145
0.0
146
1.0
147
0.625
 71
1.0
 72
0.0
 73
0
 74
0
 75
0
 76
0
 77
1
 78
8
 79
2
170
0
171
1
172
0
173
0
174
0
175
0
176
0
177
0
178
0
270
2
179
2
271
2
272
2
273
2
274
2
275
0
280
0
281
0
282
0
283
1
284
8
285
0
286
0
287
3
288
0
340
11
278
44
341
202
342
202
343
202
344
202
  0
DIMSTYLE
105
209
100
AcDbSymbolTableRecord
100
AcDbDimStyleTableRecord
  2
DIMSTYLE_1
 70
0
  3

  4

 40
1.0
 41
3.0
 42
0.5
 43
0.38
 44
1.5
 45
0.0
 46
0.0
 47
0.0
 48
0.0
140
14.0
141
0.09
142
0.0
143
25.4
144
1.0
145
0.0
146
1.0
147
3.5
 71
0.0
 72
0.0
 73
0
 74
0
 75
0
 76
0
 77
1
 78
8
 79
2
170
0
171
1
172
0
173
0
174
0
175
0
176
0
177
0
178
0
270
2
179
2
271
2
272
0
273
2
274
2
275
0
280
0
281
0
282
0
283
1
284
8
285
0
286
0
287
3
288
0
340
1FE
278
44
341
202
342
202
343
202
344
202
  0
ENDTAB
  0
ENDSEC
  0
SECTION
  2
BLOCKS
  0
BLOCK
  5
20
100
AcDbEntity
  8
0
100
AcDbBlockBegin
  2
*Model_Space
 70
0
 10
0.0
 20
0.0
 30
0.0
  3
*Model_Space
  1

  0
ENDBLK
  5
21
100
AcDbEntity
  8
0
100
AcDbBlockEnd
  0
BLOCK
  5
1C
100
AcDbEntity
  8
0
100
AcDbBlockBegin
  2
*Paper_Space
 70
0
 10
0.0
 20
0.0
 30
0.0
  3
*Paper_Space
  1

  0
ENDBLK
  5
1D
100
AcDbEntity
  8
0
100
AcDbBlockEnd
  0
BLOCK
  5
20A
100
AcDbEntity
  8
0
100
AcDbBlockBegin
  2
_FILLED
 70
64
 10
0.0
 20
0.0
  3
_FILLED
  1

  0
SOLID
  5
20B
100
AcDbEntity
  8
0
  6
BYBLOCK
 62
0
100
AcDbTrace
 10
0.0
 20
0.0
 11
-1.0
 21
0.1333333333
 12
-1.0
 22
-0.1333333333
 13
-1.0
 23
-0.1333333333
  0
ENDBLK
  5
20C
100
AcDbEntity
  8
0
  6
BYBLOCK
 62
0
100
AcDbBlockEnd
  0
BLOCK
  5
20D
100
AcDbEntity
  8
0
100
AcDbBlockBegin
 62
7
  6
CONTINUOUS
  2
*D0
 70
65
 10
0.0
 20
0.0
  3
*D0
  1

  0
LINE
  5
20E
100
AcDbEntity
  8
0
100
AcDbLine
 62
7
  6
CONTINUOUS
 10
-223.3280029644
 20
71.6010307306
 11
-223.3280029644
 21
104.3071438276
  0
LINE
  5
20F
100
AcDbEntity
  8
0
100
AcDbLine
 62
7
  6
CONTINUOUS
 10
223.6719970356
 20
71.3081375118
 11
223.6719970356
 21
104.3071438276
  0
LINE
  5
210
100
AcDbEntity
  8
0
100
AcDbLine
 62
7
  6
CONTINUOUS
 10
-223.3280029644
 20
102.8071438276
 11
0.1719970356
 21
102.8071438276
  0
LINE
  5
211
100
AcDbEntity
  8
0
100
AcDbLine
 62
7
  6
CONTINUOUS
 10
223.6719970356
 20
102.8071438276
 11
0.1719970356
 21
102.8071438276
  0
INSERT
  5
212
100
AcDbEntity
  8
0
100
AcDbBlockReference
 62
7
  6
CONTINUOUS
  2
_FILLED
 10
-223.3280029644
 20
102.8071438276
 41
3.0
 42
3.0
 43
3.0
 50
180.0
  0
INSERT
  5
213
100
AcDbEntity
  8
0
100
AcDbBlockReference
 62
7
  6
CONTINUOUS
  2
_FILLED
 10
223.6719970356
 20
102.8071438276
 41
3.0
 42
3.0
 43
3.0
  0
ENDBLK
  5
214
100
AcDbEntity
  8
0
  6
BYBLOCK
 62
0
100
AcDbBlockEnd
  0
BLOCK
  5
215
100
AcDbEntity
  8
0
100
AcDbBlockBegin
 62
7
  6
CONTINUOUS
  2
*D1
 70
65
 10
0.0
 20
0.0
  3
*D1
  1

  0
LINE
  5
216
100
AcDbEntity
  8
0
100
AcDbLine
 62
7
  6
CONTINUOUS
 10
-224.8280029644
 20
73.8081375118
 11
-245.8064432072
 21
73.8081375118
  0
LINE
  5
217
100
AcDbEntity
  8
0
100
AcDbLine
 62
7
  6
CONTINUOUS
 10
-224.8280029644
 20
-82.1918624882
 11
-245.8064432072
 21
-82.1918624882
  0
LINE
  5
218
100
AcDbEntity
  8
0
100
AcDbLine
 62
7
  6
CONTINUOUS
 10
-244.3064432072
 20
73.8081375118
 11
-244.3064432072
 21
-4.1918624882
  0
LINE
  5
219
100
AcDbEntity
  8
0
100
AcDbLine
 62
7
  6
CONTINUOUS
 10
-244.3064432072
 20
-82.1918624882
 11
-244.3064432072
 21
-4.1918624882
  0
INSERT
  5
21A
100
AcDbEntity
  8
0
100
AcDbBlockReference
 62
7
  6
CONTINUOUS
  2
_FILLED
 10
-244.3064432072
 20
73.8081375118
 41
3.0
 42
3.0
 43
3.0
 50
90.0
  0
INSERT
  5
21B
100
AcDbEntity
  8
0
100
AcDbBlockReference
 62
7
  6
CONTINUOUS
  2
_FILLED
 10
-244.3064432072
 20
-82.1918624882
 41
3.0
 42
3.0
 43
3.0
 50
270.0
  0
ENDBLK
  5
21C
100
AcDbEntity
  8
0
  6
BYBLOCK
 62
0
100
AcDbBlockEnd
  0
BLOCK
  5
21D
100
AcDbEntity
  8
0
100
AcDbBlockBegin
 62
7
  6
CONTINUOUS
  2
*D2
 70
65
 10
0.0
 20
0.0
  3
*D2
  1

  0
LINE
  5
21E
100
AcDbEntity
  8
0
100
AcDbLine
 62
7
  6
CONTINUOUS
 10
222.1719970356
 20
0.3081375118
 11
267.3801880521
 21
0.3081375118
  0
LINE
  5
21F
100
AcDbEntity
  8
0
100
AcDbLine
 62
7
  6
CONTINUOUS
 10
267.3801880521
 20
0.3081375118
 11
272.3801880521
 21
0.3081375118
  0
LINE
  5
220
100
AcDbEntity
  8
0
100
AcDbLine
 62
7
  6
CONTINUOUS
 10
222.1719970356
 20
-81.1918624882
 11
267.3801880521
 21
-81.1918624882
  0
LINE
  5
221
100
AcDbEntity
  8
0
100
AcDbLine
 62
7
  6
CONTINUOUS
 10
267.3801880521
 20
-81.1918624882
 11
272.3801880521
 21
-81.1918624882
  0
LINE
  5
222
100
AcDbEntity
  8
0
100
AcDbLine
 62
7
  6
CONTINUOUS
 10
270.8801880521
 20
0.3081375118
 11
270.8801880521
 21
-40.4418624882
  0
LINE
  5
223
100
AcDbEntity
  8
0
100
AcDbLine
 62
7
  6
CONTINUOUS
 10
270.8801880521
 20
-81.1918624882
 11
270.8801880521
 21
-40.4418624882
  0
INSERT
  5
224
100
AcDbEntity
  8
0
100
AcDbBlockReference
 62
7
  6
CONTINUOUS
  2
_FILLED
 10
270.8801880521
 20
0.3081375118
 41
3.0
 42
3.0
 43
3.0
 50
90.0
  0
INSERT
  5
225
100
AcDbEntity
  8
0
100
AcDbBlockReference
 62
7
  6
CONTINUOUS
  2
_FILLED
 10
270.8801880521
 20
-81.1918624882
 41
3.0
 42
3.0
 43
3.0
 50
270.0
  0
ENDBLK
  5
226
100
AcDbEntity
  8
0
  6
BYBLOCK
 62
0
100
AcDbBlockEnd
  0
BLOCK
  5
227
100
AcDbEntity
  8
0
100
AcDbBlockBegin
 62
7
  6
CONTINUOUS
  2
*D3
 70
65
 10
0.0
 20
0.0
  3
*D3
  1

  0
LINE
  5
228
100
AcDbEntity
  8
0
100
AcDbLine
 62
7
  6
CONTINUOUS
 10
221.1719970356
 20
0.8081375118
 11
269.2136869995
 21
0.8081375118
  0
LINE
  5
229
100
AcDbEntity
  8
0
100
AcDbLine
 62
7
  6
CONTINUOUS
 10
269.2136869995
 20
0.8081375118
 11
274.2136869995
 21
0.8081375118
  0
LINE
  5
22A
100
AcDbEntity
  8
0
100
AcDbLine
 62
7
  6
CONTINUOUS
 10
224.1719970356
 20
72.8081375118
 11
269.2136869995
 21
72.8081375118
  0
LINE
  5
22B
100
AcDbEntity
  8
0
100
AcDbLine
 62
7
  6
CONTINUOUS
 10
269.2136869995
 20
72.8081375118
 11
274.2136869995
 21
72.8081375118
  0
LINE
  5
22C
100
AcDbEntity
  8
0
100
AcDbLine
 62
7
  6
CONTINUOUS
 10
272.7136869995
 20
0.8081375118
 11
272.7136869995
 21
36.8081375118
  0
LINE
  5
22D
100
AcDbEntity
  8
0
100
AcDbLine
 62
7
  6
CONTINUOUS
 10
272.7136869995
 20
72.8081375118
 11
272.7136869995
 21
36.8081375118
  0
INSERT
  5
22E
100
AcDbEntity
  8
0
100
AcDbBlockReference
 62
7
  6
CONTINUOUS
  2
_FILLED
 10
272.7136869995
 20
0.8081375118
 41
3.0
 42
3.0
 43
3.0
 50
270.0
  0
INSERT
  5
22F
100
AcDbEntity
  8
0
100
AcDbBlockReference
 62
7
  6
CONTINUOUS
  2
_FILLED
 10
272.7136869995
 20
72.8081375118
 41
3.0
 42
3.0
 43
3.0
 50
90.0
  0
ENDBLK
  5
230
100
AcDbEntity
  8
0
  6
BYBLOCK
 62
0
100
AcDbBlockEnd
  0
BLOCK
  5
231
100
AcDbEntity
  8
0
100
AcDbBlockBegin
 62
7
  6
CONTINUOUS
  2
*D4
 70
65
 10
0.0
 20
0.0
  3
*D4
  1

  0
LINE
  5
232
100
AcDbEntity
  8
0
100
AcDbLine
 62
7
  6
CONTINUOUS
 10
320.781883438
 20
73.3081375118
 11
320.781883438
 21
99.6622798276
  0
LINE
  5
233
100
AcDbEntity
  8
0
100
AcDbLine
 62
7
  6
CONTINUOUS
 10
472.781883438
 20
73.3081375118
 11
472.781883438
 21
99.6622798276
  0
LINE
  5
234
100
AcDbEntity
  8
0
100
AcDbLine
 62
7
  6
CONTINUOUS
 10
320.781883438
 20
98.1622798276
 11
396.781883438
 21
98.1622798276
  0
LINE
  5
235
100
AcDbEntity
  8
0
100
AcDbLine
 62
7
  6
CONTINUOUS
 10
472.781883438
 20
98.1622798276
 11
396.781883438
 21
98.1622798276
  0
INSERT
  5
236
100
AcDbEntity
  8
0
100
AcDbBlockReference
 62
7
  6
CONTINUOUS
  2
_FILLED
 10
320.781883438
 20
98.1622798276
 41
3.0
 42
3.0
 43
3.0
 50
180.0
  0
INSERT
  5
237
100
AcDbEntity
  8
0
100
AcDbBlockReference
 62
7
  6
CONTINUOUS
  2
_FILLED
 10
472.781883438
 20
98.1622798276
 41
3.0
 42
3.0
 43
3.0
  0
ENDBLK
  5
238
100
AcDbEntity
  8
0
  6
BYBLOCK
 62
0
100
AcDbBlockEnd
  0
ENDSEC
  0
SECTION
  2
ENTITIES
  0
DIMENSION
  5
239
100
AcDbEntity
  8
0
100
AcDbDimension
 62
7
  6
CONTINUOUS
  2
*D0
 10
223.6719970356
 20
102.8071438276
 11
-15.5780029644
 21
102.8071438276
 70
160
 71
2
 72
2
 41
0.9
  1
447
  3
DIMSTYLE_1
100
AcDbAlignedDimension
 13
-223.3280029644
 23
71.1010307306
 14
223.6719970356
 24
70.8081375118
100
AcDbRotatedDimension
  0
DIMENSION
  5
23A
100
AcDbEntity
  8
0
100
AcDbDimension
 62
7
  6
CONTINUOUS
  2
*D1
 10
-244.3064432072
 20
-82.1918624882
 11
-244.3064432072
 21
-19.9418624882
 70
160
 71
2
 72
2
 41
0.9
  1
156
  3
DIMSTYLE_1
100
AcDbAlignedDimension
 13
-224.3280029644
 23
73.8081375118
 14
-224.3280029644
 24
-82.1918624882
 50
270.0
100
AcDbRotatedDimension
  0
DIMENSION
  5
23B
100
AcDbEntity
  8
0
100
AcDbDimension
 62
7
  6
CONTINUOUS
  2
*D2
 10
270.8801880521
 20
-81.1918624882
 11
270.8801880521
 21
-50.9418624882
 70
160
 71
2
 72
2
 41
0.9
  1
82
  3
DIMSTYLE_1
100
AcDbAlignedDimension
 13
221.6719970356
 23
0.3081375118
 14
221.6719970356
 24
-81.1918624882
 50
270.0
100
AcDbRotatedDimension
  0
DIMENSION
  5
23C
100
AcDbEntity
  8
0
100
AcDbDimension
 62
7
  6
CONTINUOUS
  2
*D3
 10
272.7136869995
 20
72.8081375118
 11
272.7136869995
 21
26.3081375118
 70
160
 71
2
 72
2
 41
0.9
  1
72
  3
DIMSTYLE_1
100
AcDbAlignedDimension
 13
220.6719970356
 23
0.8081375118
 14
223.6719970356
 24
72.8081375118
 50
90.0
100
AcDbRotatedDimension
  0
DIMENSION
  5
23D
100
AcDbEntity
  8
0
100
AcDbDimension
 62
7
  6
CONTINUOUS
  2
*D4
 10
472.781883438
 20
98.1622798276
 11
381.031883438
 21
98.1622798276
 70
160
 71
2
 72
2
 41
0.9
  1
152
  3
DIMSTYLE_1
100
AcDbAlignedDimension
 13
320.781883438
 23
72.8081375118
 14
472.781883438
 24
72.8081375118
100
AcDbRotatedDimension
  0
LWPOLYLINE
  5
23E
100
AcDbEntity
  8
0
100
AcDbPolyline
 62
7
  6
CONTINUOUS
 90
14
 70
0
 43
0.3499999917
 10
-261.806451416
 20
-1.5668632507
 10
-261.806451416
 20
-5.5043632507
 10
-255.9731066895
 20
-6.1606132507
 10
-257.1397705078
 20
-4.8481132507
 10
-257.1397705078
 20
-3.5356132507
 10
-255.9731066895
 20
-2.2231132507
 10
-254.8064428711
 20
-1.5668632507
 10
-252.4731152344
 20
-0.9106132507
 10
-250.1397875977
 20
-1.5668632507
 10
-248.9730981445
 20
-2.2231132507
 10
-247.8064343262
 20
-3.5356132507
 10
-247.8064343262
 20
-4.8481132507
 10
-248.9730981445
 20
-6.1606132507
 10
-250.1397875977
 20
-6.8168632507
  0
LINE
  5
23F
100
AcDbEntity
  8
0
100
AcDbLine
 62
7
  6
CONTINUOUS
 10
-225.3279970036
 20
-80.1918623934
 11
-225.3279970036
 21
70.8081346506
  0
LINE
  5
240
100
AcDbEntity
  8
0
100
AcDbLine
 62
7
  6
CONTINUOUS
 10
-224.3280098784
 20
70.8081346506
 11
-224.3280098784
 21
3.8081404326
  0
LINE
  5
241
100
AcDbEntity
  8
0
100
AcDbLine
 62
7
  6
CONTINUOUS
 10
-224.3280098784
 20
-1.691863263
 11
-224.3280098784
 21
-79.1918624622
  0
LINE
  5
242
100
AcDbEntity
  8
0
100
AcDbLine
 62
7
  6
CONTINUOUS
 10
-224.3280098784
 20
72.8081387038
 11
-224.3280098784
 21
73.8081407306
  0
LINE
  5
243
100
AcDbEntity
  8
0
100
AcDbLine
 62
7
  6
CONTINUOUS
 10
-223.328007852
 20
72.8081387038
 11
-223.328007852
 21
72.4951696154
  0
LINE
  5
244
100
AcDbEntity
  8
0
100
AcDbLine
 62
7
  6
CONTINUOUS
 10
-223.328007852
 20
-82.1918624882
 11
-223.328007852
 21
-81.1918624406
  0
LINE
  5
245
100
AcDbEntity
  8
0
100
AcDbLine
 62
8
  6
CONTINUOUS
 10
-223.328007852
 20
1.5720721838
 11
-223.328007852
 21
0.0401881094
  0
LINE
  5
246
100
AcDbEntity
  8
0
100
AcDbLine
 62
7
  6
CONTINUOUS
 10
-219.9280099024
 20
66.4081346746
 11
-219.9280099024
 21
63.2081401106
  0
LINE
  5
247
100
AcDbEntity
  8
0
100
AcDbLine
 62
7
  6
CONTINUOUS
 10
-219.9280099024
 20
10.208137011
 11
-219.9280099024
 21
7.0081349966
  0
LINE
  5
248
100
AcDbEntity
  8
0
100
AcDbLine
 62
7
  6
CONTINUOUS
 10
-219.9280099024
 20
-5.7918656114
 11
-219.9280099024
 21
-8.9918601754
  0
LINE
  5
249
100
AcDbEntity
  8
0
100
AcDbLine
 62
7
  6
CONTINUOUS
 10
-219.3279997456
 20
73.8081407306
 11
-219.3279997456
 21
72.8081387038
  0
LINE
  5
24A
100
AcDbEntity
  8
0
100
AcDbLine
 62
7
  6
CONTINUOUS
 10
-216.7280004368
 20
-8.9918601754
 11
-216.7280004368
 21
-5.7918656114
  0
LINE
  5
24B
100
AcDbEntity
  8
0
100
AcDbLine
 62
7
  6
CONTINUOUS
 10
-216.7280004368
 20
7.0081349966
 11
-216.7280004368
 21
10.208137011
  0
LINE
  5
24C
100
AcDbEntity
  8
0
100
AcDbLine
 62
7
  6
CONTINUOUS
 10
-216.7280004368
 20
63.2081401106
 11
-216.7280004368
 21
66.4081346746
  0
LINE
  5
24D
100
AcDbEntity
  8
0
100
AcDbLine
 62
7
  6
CONTINUOUS
 10
-213.3280024872
 20
72.8081387038
 11
-213.3280024872
 21
72.408131933
  0
LINE
  5
24E
100
AcDbEntity
  8
0
100
AcDbLine
 62
7
  6
CONTINUOUS
 10
-213.3280024872
 20
0.3081407902
 11
-213.3280024872
 21
0.8081343526
  0
LINE
  5
24F
100
AcDbEntity
  8
0
100
AcDbLine
 62
7
  6
CONTINUOUS
 10
-212.5280038464
 20
70.408142781
 11
-212.5280038464
 21
72.8081387038
  0
LINE
  5
250
100
AcDbEntity
  8
0
100
AcDbLine
 62
7
  6
CONTINUOUS
 10
-212.3280004608
 20
70.408142781
 11
-212.3280004608
 21
72.8081387038
  0
LINE
  5
251
100
AcDbEntity
  8
0
100
AcDbLine
 62
8
  6
CONTINUOUS
 10
-207.3280052292
 20
0.6081384178
 11
-207.3280052292
 21
0.8081343526
  0
LINE
  5
252
100
AcDbEntity
  8
0
100
AcDbLine
 62
7
  6
CONTINUOUS
 10
-206.3280032028
 20
1.8081363794
 11
-206.3280032028
 21
2.8081384058
  0
LINE
  5
253
100
AcDbEntity
  8
0
100
AcDbLine
 62
7
  6
CONTINUOUS
 10
-205.328001176
 20
0.6081384178
 11
-205.328001176
 21
2.8081384058
  0
LWPOLYLINE
  5
254
100
AcDbEntity
  8
0
100
AcDbPolyline
 62
7
  6
CONTINUOUS
 90
4
 70
0
 43
0.3499999917
 10
-8.359252739
 20
106.3071496582
 10
-8.359252739
 20
120.3071411133
 10
-12.953002739
 20
109.8071411133
 10
-7.046752739
 20
109.8071411133
  0
LINE
  5
255
100
AcDbEntity
  8
0
100
AcDbLine
 62
7
  6
CONTINUOUS
 10
-225.3268740124
 20
70.8749832026
 11
-225.3280029644
 21
70.8081375118
  0
LINE
  5
256
100
AcDbEntity
  8
0
100
AcDbLine
 62
7
  6
CONTINUOUS
 10
-225.3234837896
 20
70.9419412498
 11
-225.3268740124
 21
70.8749832026
  0
LINE
  5
257
100
AcDbEntity
  8
0
100
AcDbLine
 62
7
  6
CONTINUOUS
 10
-225.31783075
 20
71.0089044242
 11
-225.3234837896
 21
70.9419412498
  0
LINE
  5
258
100
AcDbEntity
  8
0
100
AcDbLine
 62
7
  6
CONTINUOUS
 10
-225.3099182112
 20
71.0757630886
 11
-225.31783075
 21
71.0089044242
  0
LINE
  5
259
100
AcDbEntity
  8
0
100
AcDbLine
 62
7
  6
CONTINUOUS
 10
-224.3262458012
 20
-80.1792353862
 11
-224.3280098784
 21
-80.1918623934
  0
LINE
  5
25A
100
AcDbEntity
  8
0
100
AcDbLine
 62
7
  6
CONTINUOUS
 10
-224.3253284376
 20
-80.1729218838
 11
-224.3262458012
 21
-80.1792353862
  0
LINE
  5
25B
100
AcDbEntity
  8
0
100
AcDbLine
 62
7
  6
CONTINUOUS
 10
-224.3243686844
 20
-80.1666083822
 11
-224.3253284376
 21
-80.1729218838
  0
LINE
  5
25C
100
AcDbEntity
  8
0
100
AcDbLine
 62
7
  6
CONTINUOUS
 10
-225.2997545284
 20
71.1424059362
 11
-225.3099182112
 21
71.0757630886
  0
LINE
  5
25D
100
AcDbEntity
  8
0
100
AcDbLine
 62
7
  6
CONTINUOUS
 10
-224.3233524116
 20
-80.1602948826
 11
-224.3243686844
 21
-80.1666083822
  0
LINE
  5
25E
100
AcDbEntity
  8
0
100
AcDbLine
 62
7
  6
CONTINUOUS
 10
-224.3222654892
 20
-80.1539813846
 11
-224.3233524116
 21
-80.1602948826
  0
LINE
  5
25F
100
AcDbEntity
  8
0
100
AcDbLine
 62
7
  6
CONTINUOUS
 10
-224.3210937868
 20
-80.1476678894
 11
-224.3222654892
 21
-80.1539813846
  0
LINE
  5
260
100
AcDbEntity
  8
0
100
AcDbLine
 62
7
  6
CONTINUOUS
 10
-225.2873531844
 20
71.2087207734
 11
-225.2997545284
 21
71.1424059362
  0
LINE
  5
261
100
AcDbEntity
  8
0
100
AcDbLine
 62
7
  6
CONTINUOUS
 10
-224.3198231752
 20
-80.1413543966
 11
-224.3210937868
 21
-80.1476678894
  0
LINE
  5
262
100
AcDbEntity
  8
0
100
AcDbLine
 62
7
  6
CONTINUOUS
 10
-225.2775840012
 20
71.253865361
 11
-225.2873531844
 21
71.2087207734
  0
LINE
  5
263
100
AcDbEntity
  8
0
100
AcDbLine
 62
7
  6
CONTINUOUS
 10
-224.318439524
 20
-80.135040907
 11
-224.3198231752
 21
-80.1413543966
  0
LINE
  5
264
100
AcDbEntity
  8
0
100
AcDbLine
 62
7
  6
CONTINUOUS
 10
-224.3169287032
 20
-80.128727421
 11
-224.318439524
 21
-80.135040907
  0
LINE
  5
265
100
AcDbEntity
  8
0
100
AcDbLine
 62
7
  6
CONTINUOUS
 10
-225.261470756
 20
71.3193259834
 11
-225.2775840012
 21
71.253865361
  0
LINE
  5
266
100
AcDbEntity
  8
0
100
AcDbLine
 62
7
  6
CONTINUOUS
 10
-222.878456302
 20
-81.2612310802
 11
-222.8357926952
 21
-81.097153105
  0
LINE
  5
267
100
AcDbEntity
  8
0
100
AcDbLine
 62
7
  6
CONTINUOUS
 10
-224.3152765836
 20
-80.122413939
 11
-224.3169287032
 21
-80.128727421
  0
LINE
  5
268
100
AcDbEntity
  8
0
100
AcDbLine
 62
7
  6
CONTINUOUS
 10
-222.89978802
 20
-81.3418021674
 11
-222.878456302
 21
-81.2612310802
  0
LINE
  5
269
100
AcDbEntity
  8
0
100
AcDbLine
 62
7
  6
CONTINUOUS
 10
-222.9211196352
 20
-81.4206117734
 11
-222.89978802
 21
-81.3418021674
  0
LINE
  5
26A
100
AcDbEntity
  8
0
100
AcDbLine
 62
7
  6
CONTINUOUS
 10
-222.9317853936
 20
-81.4591725338
 11
-222.9211196352
 21
-81.4206117734
  0
LINE
  5
26B
100
AcDbEntity
  8
0
100
AcDbLine
 62
7
  6
CONTINUOUS
 10
-222.9424511136
 20
-81.497072739
 11
-222.9317853936
 21
-81.4591725338
  0
LINE
  5
26C
100
AcDbEntity
  8
0
100
AcDbLine
 62
7
  6
CONTINUOUS
 10
-225.24319506
 20
71.3841245366
 11
-225.261470756
 21
71.3193259834
  0
LINE
  5
26D
100
AcDbEntity
  8
0
100
AcDbLine
 62
7
  6
CONTINUOUS
 10
-224.3134690344
 20
-80.116100461
 11
-224.3152765836
 21
-80.122413939
  0
LINE
  5
26E
100
AcDbEntity
  8
0
100
AcDbLine
 62
7
  6
CONTINUOUS
 10
-222.9531167908
 20
-81.5342389938
 11
-222.9424511136
 21
-81.497072739
  0
LINE
  5
26F
100
AcDbEntity
  8
0
100
AcDbLine
 62
7
  6
CONTINUOUS
 10
-222.9637824212
 20
-81.570597903
 11
-222.9531167908
 21
-81.5342389938
  0
LINE
  5
270
100
AcDbEntity
  8
0
100
AcDbLine
 62
7
  6
CONTINUOUS
 10
-222.974448
 20
-81.6060760722
 11
-222.9637824212
 21
-81.570597903
  0
LINE
  5
271
100
AcDbEntity
  8
0
100
AcDbLine
 62
7
  6
CONTINUOUS
 10
-222.9842687208
 20
-81.6379088506
 11
-222.974448
 21
-81.6060760722
  0
LINE
  5
272
100
AcDbEntity
  8
0
100
AcDbLine
 62
7
  6
CONTINUOUS
 10
-224.311491926
 20
-80.1097869882
 11
-224.3134690344
 21
-80.116100461
  0
LINE
  5
273
100
AcDbEntity
  8
0
100
AcDbLine
 62
7
  6
CONTINUOUS
 10
-222.9940894012
 20
-81.6689164858
 11
-222.9842687208
 21
-81.6379088506
  0
LINE
  5
274
100
AcDbEntity
  8
0
100
AcDbLine
 62
7
  6
CONTINUOUS
 10
-225.2227918176
 20
71.4481548966
 11
-225.24319506
 21
71.3841245366
  0
LINE
  5
275
100
AcDbEntity
  8
0
100
AcDbLine
 62
7
  6
CONTINUOUS
 10
-223.003910048
 20
-81.699082805
 11
-222.9940894012
 21
-81.6689164858
  0
LINE
  5
276
100
AcDbEntity
  8
0
100
AcDbLine
 62
7
  6
CONTINUOUS
 10
-223.0137306688
 20
-81.7283916338
 11
-223.003910048
 21
-81.699082805
  0
LINE
  5
277
100
AcDbEntity
  8
0
100
AcDbLine
 62
7
  6
CONTINUOUS
 10
-224.3093311288
 20
-80.1034735202
 11
-224.311491926
 21
-80.1097869882
  0
LINE
  5
278
100
AcDbEntity
  8
0
100
AcDbLine
 62
7
  6
CONTINUOUS
 10
-223.0235512704
 20
-81.756826799
 11
-223.0137306688
 21
-81.7283916338
  0
LINE
  5
279
100
AcDbEntity
  8
0
100
AcDbLine
 62
7
  6
CONTINUOUS
 10
-225.2002999652
 20
71.5113143826
 11
-225.2227918176
 21
71.4481548966
  0
LINE
  5
27A
100
AcDbEntity
  8
0
100
AcDbLine
 62
7
  6
CONTINUOUS
 10
-223.0333718592
 20
-81.784372127
 11
-223.0235512704
 21
-81.756826799
  0
LINE
  5
27B
100
AcDbEntity
  8
0
100
AcDbLine
 62
7
  6
CONTINUOUS
 10
-223.041789502
 20
-81.8072619102
 11
-223.0333718592
 21
-81.784372127
  0
LINE
  5
27C
100
AcDbEntity
  8
0
100
AcDbLine
 62
7
  6
CONTINUOUS
 10
-224.3076131728
 20
-80.0988214946
 11
-224.3093311288
 21
-80.1034735202
  0
LINE
  5
27D
100
AcDbEntity
  8
0
100
AcDbLine
 62
7
  6
CONTINUOUS
 10
-223.0502071452
 20
-81.8294758678
 11
-223.041789502
 21
-81.8072619102
  0
LINE
  5
27E
100
AcDbEntity
  8
0
100
AcDbLine
 62
7
  6
CONTINUOUS
 10
-223.0586247932
 20
-81.8510038146
 11
-223.0502071452
 21
-81.8294758678
  0
LINE
  5
27F
100
AcDbEntity
  8
0
100
AcDbLine
 62
7
  6
CONTINUOUS
 10
-224.3057821612
 20
-80.0941694726
 11
-224.3076131728
 21
-80.0988214946
  0
LINE
  5
280
100
AcDbEntity
  8
0
100
AcDbLine
 62
7
  6
CONTINUOUS
 10
-225.1757620292
 20
71.5735043766
 11
-225.2002999652
 21
71.5113143826
  0
LINE
  5
281
100
AcDbEntity
  8
0
100
AcDbLine
 62
7
  6
CONTINUOUS
 10
-224.3038324408
 20
-80.0895174534
 11
-224.3057821612
 21
-80.0941694726
  0
LINE
  5
282
100
AcDbEntity
  8
0
100
AcDbLine
 62
7
  6
CONTINUOUS
 10
-225.1491421028
 20
71.634820471
 11
-225.1757620292
 21
71.5735043766
  0
LINE
  5
283
100
AcDbEntity
  8
0
100
AcDbLine
 62
7
  6
CONTINUOUS
 10
-224.3017583592
 20
-80.0848654378
 11
-224.3038324408
 21
-80.0895174534
  0
LINE
  5
284
100
AcDbEntity
  8
0
100
AcDbLine
 62
7
  6
CONTINUOUS
 10
-224.2995542628
 20
-80.0802134258
 11
-224.3017583592
 21
-80.0848654378
  0
LINE
  5
285
100
AcDbEntity
  8
0
100
AcDbLine
 62
7
  6
CONTINUOUS
 10
-225.1203878928
 20
71.6953798822
 11
-225.1491421028
 21
71.634820471
  0
LINE
  5
286
100
AcDbEntity
  8
0
100
AcDbLine
 62
7
  6
CONTINUOUS
 10
-224.2972144996
 20
-80.0755614178
 11
-224.2995542628
 21
-80.0802134258
  0
LINE
  5
287
100
AcDbEntity
  8
0
100
AcDbLine
 62
7
  6
CONTINUOUS
 10
-225.0895392728
 20
71.7550819694
 11
-225.1203878928
 21
71.6953798822
  0
LINE
  5
288
100
AcDbEntity
  8
0
100
AcDbLine
 62
7
  6
CONTINUOUS
 10
-225.3202340816
 20
-80.1771309882
 11
-225.3279970036
 21
-80.1918623934
  0
LINE
  5
289
100
AcDbEntity
  8
0
100
AcDbLine
 62
7
  6
CONTINUOUS
 10
-224.2947334164
 20
-80.0709094134
 11
-224.2972144996
 21
-80.0755614178
  0
LINE
  5
28A
100
AcDbEntity
  8
0
100
AcDbLine
 62
7
  6
CONTINUOUS
 10
-225.3122646028
 20
-80.1623995842
 11
-225.3202340816
 21
-80.1771309882
  0
LINE
  5
28B
100
AcDbEntity
  8
0
100
AcDbLine
 62
7
  6
CONTINUOUS
 10
-225.056641614
 20
71.813825721
 11
-225.0895392728
 21
71.7550819694
  0
LINE
  5
28C
100
AcDbEntity
  8
0
100
AcDbLine
 62
7
  6
CONTINUOUS
 10
-224.2921053604
 20
-80.0662574134
 11
-224.2947334164
 21
-80.0709094134
  0
LINE
  5
28D
100
AcDbEntity
  8
0
100
AcDbLine
 62
7
  6
CONTINUOUS
 10
-225.3038820108
 20
-80.1476681814
 11
-225.3122646028
 21
-80.1623995842
  0
LINE
  5
28E
100
AcDbEntity
  8
0
100
AcDbLine
 62
7
  6
CONTINUOUS
 10
-224.2893246788
 20
-80.0616054174
 11
-224.2921053604
 21
-80.0662574134
  0
LINE
  5
28F
100
AcDbEntity
  8
0
100
AcDbLine
 62
7
  6
CONTINUOUS
 10
-225.021745656
 20
71.871510517
 11
-225.056641614
 21
71.813825721
  0
LINE
  5
290
100
AcDbEntity
  8
0
100
AcDbLine
 62
7
  6
CONTINUOUS
 10
-225.2948797488
 20
-80.1329367806
 11
-225.3038820108
 21
-80.1476681814
  0
LINE
  5
291
100
AcDbEntity
  8
0
100
AcDbLine
 62
7
  6
CONTINUOUS
 10
-224.2863857192
 20
-80.0569534258
 11
-224.2893246788
 21
-80.0616054174
  0
LINE
  5
292
100
AcDbEntity
  8
0
100
AcDbLine
 62
7
  6
CONTINUOUS
 10
-224.9849072848
 20
71.9280369006
 11
-225.021745656
 21
71.871510517
  0
LINE
  5
293
100
AcDbEntity
  8
0
100
AcDbLine
 62
7
  6
CONTINUOUS
 10
-225.2884319764
 20
-80.1231158482
 11
-225.2948797488
 21
-80.1329367806
  0
LINE
  5
294
100
AcDbEntity
  8
0
100
AcDbLine
 62
7
  6
CONTINUOUS
 10
-224.2832828284
 20
-80.052301439
 11
-224.2863857192
 21
-80.0569534258
  0
LINE
  5
295
100
AcDbEntity
  8
0
100
AcDbLine
 62
7
  6
CONTINUOUS
 10
-224.958598786
 20
71.9660164866
 11
-224.9849072848
 21
71.9280369006
  0
LINE
  5
296
100
AcDbEntity
  8
0
100
AcDbLine
 62
7
  6
CONTINUOUS
 10
-225.2815557904
 20
-80.1132949174
 11
-225.2884319764
 21
-80.1231158482
  0
LINE
  5
297
100
AcDbEntity
  8
0
100
AcDbLine
 62
7
  6
CONTINUOUS
 10
-224.2800103536
 20
-80.047649457
 11
-224.2832828284
 21
-80.052301439
  0
LINE
  5
298
100
AcDbEntity
  8
0
100
AcDbLine
 62
7
  6
CONTINUOUS
 10
-224.9186590888
 20
72.0203311638
 11
-224.958598786
 21
71.9660164866
  0
LINE
  5
299
100
AcDbEntity
  8
0
100
AcDbLine
 62
7
  6
CONTINUOUS
 10
-224.876976328
 20
72.0732048978
 11
-224.9186590888
 21
72.0203311638
  0
LINE
  5
29A
100
AcDbEntity
  8
0
100
AcDbLine
 62
7
  6
CONTINUOUS
 10
-224.8336240472
 20
72.1245523058
 11
-224.876976328
 21
72.0732048978
  0
LINE
  5
29B
100
AcDbEntity
  8
0
100
AcDbLine
 62
7
  6
CONTINUOUS
 10
-224.7886782064
 20
72.1742928154
 11
-224.8336240472
 21
72.1245523058
  0
LINE
  5
29C
100
AcDbEntity
  8
0
100
AcDbLine
 62
7
  6
CONTINUOUS
 10
-224.7422165264
 20
72.2223510742
 11
-224.7886782064
 21
72.1742928154
  0
LINE
  5
29D
100
AcDbEntity
  8
0
100
AcDbLine
 62
7
  6
CONTINUOUS
 10
-224.694158268
 20
72.2688127538
 11
-224.7422165264
 21
72.2223510742
  0
LINE
  5
29E
100
AcDbEntity
  8
0
100
AcDbLine
 62
7
  6
CONTINUOUS
 10
-224.6444177584
 20
72.3137585946
 11
-224.694158268
 21
72.2688127538
  0
LINE
  5
29F
100
AcDbEntity
  8
0
100
AcDbLine
 62
7
  6
CONTINUOUS
 10
-224.5930703504
 20
72.3571108754
 11
-224.6444177584
 21
72.3137585946
  0
LINE
  5
2A0
100
AcDbEntity
  8
0
100
AcDbLine
 62
7
  6
CONTINUOUS
 10
470.3655250888
 20
-80.0585593258
 11
470.1471435964
 21
-80.1091867002
  0
LINE
  5
2A1
100
AcDbEntity
  8
0
100
AcDbLine
 62
7
  6
CONTINUOUS
 10
470.1471435964
 20
-80.1091867002
 11
469.781883438
 21
-80.1918624882
  0
LINE
  5
2A2
100
AcDbEntity
  8
0
100
AcDbLine
 62
7
  6
CONTINUOUS
 10
-222.3280058252
 20
-81.1918624406
 11
221.6719998968
 21
-81.1918624406
  0
LINE
  5
2A3
100
AcDbEntity
  8
0
100
AcDbLine
 62
7
  6
CONTINUOUS
 10
-225.3279970036
 20
-80.1918623934
 11
-224.3280098784
 21
-80.1918623934
  0
LINE
  5
2A4
100
AcDbEntity
  8
0
100
AcDbLine
 62
7
  6
CONTINUOUS
 10
224.6719910752
 20
-80.1918623934
 11
223.67200395
 21
-80.1918623934
  0
LINE
  5
2A5
100
AcDbEntity
  8
0
100
AcDbLine
 62
7
  6
CONTINUOUS
 10
323.7818845108
 20
-80.1918623934
 11
469.7818823652
 21
-80.1918623934
  0
LINE
  5
2A6
100
AcDbEntity
  8
0
100
AcDbLine
 62
7
  6
CONTINUOUS
 10
472.7818809944
 20
-79.1918624622
 11
471.7818864184
 21
-79.1918624622
  0
LINE
  5
2A7
100
AcDbEntity
  8
0
100
AcDbLine
 62
7
  6
CONTINUOUS
 10
321.781880458
 20
-79.1918624622
 11
320.781885882
 21
-79.1918624622
  0
LINE
  5
2A8
100
AcDbEntity
  8
0
100
AcDbLine
 62
7
  6
CONTINUOUS
 10
222.6593734268
 20
-81.1900993102
 11
222.6720019232
 21
-81.1918624406
  0
LINE
  5
2A9
100
AcDbEntity
  8
0
100
AcDbLine
 62
7
  6
CONTINUOUS
 10
222.6530591864
 20
-81.1891824174
 11
222.6593734268
 21
-81.1900993102
  0
LINE
  5
2AA
100
AcDbEntity
  8
0
100
AcDbLine
 62
7
  6
CONTINUOUS
 10
222.6467449556
 20
-81.1882231318
 11
222.6530591864
 21
-81.1891824174
  0
LINE
  5
2AB
100
AcDbEntity
  8
0
100
AcDbLine
 62
7
  6
CONTINUOUS
 10
222.6404307372
 20
-81.187207323
 11
222.6467449556
 21
-81.1882231318
  0
LINE
  5
2AC
100
AcDbEntity
  8
0
100
AcDbLine
 62
7
  6
CONTINUOUS
 10
222.6341165352
 20
-81.1861208594
 11
222.6404307372
 21
-81.187207323
  0
LINE
  5
2AD
100
AcDbEntity
  8
0
100
AcDbLine
 62
7
  6
CONTINUOUS
 10
222.627802352
 20
-81.1849496102
 11
222.6341165352
 21
-81.1861208594
  0
LINE
  5
2AE
100
AcDbEntity
  8
0
100
AcDbLine
 62
7
  6
CONTINUOUS
 10
222.6214881912
 20
-81.1836794446
 11
222.627802352
 21
-81.1849496102
  0
LINE
  5
2AF
100
AcDbEntity
  8
0
100
AcDbLine
 62
7
  6
CONTINUOUS
 10
222.6151740556
 20
-81.1822962314
 11
222.6214881912
 21
-81.1836794446
  0
LINE
  5
2B0
100
AcDbEntity
  8
0
100
AcDbLine
 62
7
  6
CONTINUOUS
 10
222.6088599488
 20
-81.1807858402
 11
222.6151740556
 21
-81.1822962314
  0
LINE
  5
2B1
100
AcDbEntity
  8
0
100
AcDbLine
 62
7
  6
CONTINUOUS
 10
222.602545874
 20
-81.1791341398
 11
222.6088599488
 21
-81.1807858402
  0
LWPOLYLINE
  5
2B2
100
AcDbEntity
  8
0
100
AcDbPolyline
 62
7
  6
CONTINUOUS
 90
17
 70
0
 43
0.3499999917
 10
-252.4731152344
 20
3.6831367493
 10
-254.8064428711
 20
4.3393867493
 10
-255.9731066895
 20
6.3081367493
 10
-254.8064428711
 20
8.2768867493
 10
-252.4731152344
 20
8.9331367493
 10
-250.1397875977
 20
8.2768867493
 10
-248.9730981445
 20
7.6206367493
 10
-247.8064343262
 20
6.3081367493
 10
-248.9730981445
 20
4.9956367493
 10
-250.1397875977
 20
4.3393867493
 10
-252.4731152344
 20
3.6831367493
 10
-257.1397705078
 20
3.6831367493
 10
-259.4730981445
 20
4.3393867493
 10
-260.6397875977
 20
4.9956367493
 10
-261.806451416
 20
6.3081367493
 10
-260.6397875977
 20
7.6206367493
 10
-259.4730981445
 20
8.2768867493
  0
LWPOLYLINE
  5
2B3
100
AcDbEntity
  8
0
100
AcDbPolyline
 62
7
  6
CONTINUOUS
 90
4
 70
0
 43
0.3499999917
 10
2.1407470608
 20
106.3071496582
 10
2.1407470608
 20
120.3071411133
 10
-2.4530029392
 20
109.8071411133
 10
3.4532468605
 20
109.8071411133
  0
LINE
  5
2B4
100
AcDbEntity
  8
0
100
AcDbLine
 62
7
  6
CONTINUOUS
 10
-224.276562642
 20
-80.0429974794
 11
-224.2800103536
 21
-80.047649457
  0
LINE
  5
2B5
100
AcDbEntity
  8
0
100
AcDbLine
 62
7
  6
CONTINUOUS
 10
-225.2741899888
 20
-80.1034739878
 11
-225.2815557904
 21
-80.1132949174
  0
LINE
  5
2B6
100
AcDbEntity
  8
0
100
AcDbLine
 62
7
  6
CONTINUOUS
 10
-223.0991077608
 20
-81.0533092278
 11
-223.0848954068
 21
-81.0344088554
  0
LINE
  5
2B7
100
AcDbEntity
  8
0
100
AcDbLine
 62
7
  6
CONTINUOUS
 10
-223.1038452204
 20
-81.0595358918
 11
-223.0991077608
 21
-81.0533092278
  0
LINE
  5
2B8
100
AcDbEntity
  8
0
100
AcDbLine
 62
7
  6
CONTINUOUS
 10
-223.1085826864
 20
-81.0656995898
 11
-223.1038452204
 21
-81.0595358918
  0
LINE
  5
2B9
100
AcDbEntity
  8
0
100
AcDbLine
 62
7
  6
CONTINUOUS
 10
-224.540196616
 20
72.3987936362
 11
-224.5930703504
 21
72.3571108754
  0
LINE
  5
2BA
100
AcDbEntity
  8
0
100
AcDbLine
 62
7
  6
CONTINUOUS
 10
-225.3279970036
 20
70.8081346506
 11
-225.3201783956
 21
70.8142367214
  0
LINE
  5
2BB
100
AcDbEntity
  8
0
100
AcDbLine
 62
7
  6
CONTINUOUS
 10
-136.45934919
 20
-60.6918617582
 11
-139.1966626988
 21
-60.6918617582
  0
LINE
  5
2BC
100
AcDbEntity
  8
0
100
AcDbLine
 62
7
  6
CONTINUOUS
 10
223.7413686068
 20
-79.7423173446
 11
223.5772921692
 21
-79.6996542214
  0
LINE
  5
2BD
100
AcDbEntity
  8
0
100
AcDbLine
 62
7
  6
CONTINUOUS
 10
223.8219390084
 20
-79.7636488878
 11
223.7413686068
 21
-79.7423173446
  0
LINE
  5
2BE
100
AcDbEntity
  8
0
100
AcDbLine
 62
7
  6
CONTINUOUS
 10
223.9007480304
 20
-79.7849804078
 11
223.8219390084
 21
-79.7636488878
  0
LINE
  5
2BF
100
AcDbEntity
  8
0
100
AcDbLine
 62
7
  6
CONTINUOUS
 10
223.9393085464
 20
-79.7956461574
 11
223.9007480304
 21
-79.7849804078
  0
LINE
  5
2C0
100
AcDbEntity
  8
0
100
AcDbLine
 62
7
  6
CONTINUOUS
 10
223.9772085452
 20
-79.8063118982
 11
223.9393085464
 21
-79.7956461574
  0
LINE
  5
2C1
100
AcDbEntity
  8
0
100
AcDbLine
 62
7
  6
CONTINUOUS
 10
222.5962318336
 20
-81.1773269994
 11
222.602545874
 21
-81.1791341398
  0
LINE
  5
2C2
100
AcDbEntity
  8
0
100
AcDbLine
 62
7
  6
CONTINUOUS
 10
224.0143746356
 20
-79.8169776298
 11
223.9772085452
 21
-79.8063118982
  0
LINE
  5
2C3
100
AcDbEntity
  8
0
100
AcDbLine
 62
7
  6
CONTINUOUS
 10
224.0507334264
 20
-79.827643351
 11
224.0143746356
 21
-79.8169776298
  0
LINE
  5
2C4
100
AcDbEntity
  8
0
100
AcDbLine
 62
7
  6
CONTINUOUS
 10
224.0862115276
 20
-79.838309061
 11
224.0507334264
 21
-79.827643351
  0
LINE
  5
2C5
100
AcDbEntity
  8
0
100
AcDbLine
 62
7
  6
CONTINUOUS
 10
224.1180445588
 20
-79.848130023
 11
224.0862115276
 21
-79.838309061
  0
LINE
  5
2C6
100
AcDbEntity
  8
0
100
AcDbLine
 62
7
  6
CONTINUOUS
 10
222.589917832
 20
-81.1753502882
 11
222.5962318336
 21
-81.1773269994
  0
LINE
  5
2C7
100
AcDbEntity
  8
0
100
AcDbLine
 62
7
  6
CONTINUOUS
 10
224.149052474
 20
-79.8579509754
 11
224.1180445588
 21
-79.848130023
  0
LINE
  5
2C8
100
AcDbEntity
  8
0
100
AcDbLine
 62
7
  6
CONTINUOUS
 10
224.1792190928
 20
-79.8677719198
 11
224.149052474
 21
-79.8579509754
  0
LINE
  5
2C9
100
AcDbEntity
  8
0
100
AcDbLine
 62
7
  6
CONTINUOUS
 10
224.2085282364
 20
-79.8775928566
 11
224.1792190928
 21
-79.8677719198
  0
LINE
  5
2CA
100
AcDbEntity
  8
0
100
AcDbLine
 62
7
  6
CONTINUOUS
 10
222.5836038716
 20
-81.1731898746
 11
222.589917832
 21
-81.1753502882
  0
LINE
  5
2CB
100
AcDbEntity
  8
0
100
AcDbLine
 62
7
  6
CONTINUOUS
 10
224.2369637252
 20
-79.8874137866
 11
224.2085282364
 21
-79.8775928566
  0
LINE
  5
2CC
100
AcDbEntity
  8
0
100
AcDbLine
 62
7
  6
CONTINUOUS
 10
224.2645093792
 20
-79.8972347114
 11
224.2369637252
 21
-79.8874137866
  0
LINE
  5
2CD
100
AcDbEntity
  8
0
100
AcDbLine
 62
7
  6
CONTINUOUS
 10
224.2873994404
 20
-79.9056526434
 11
224.2645093792
 21
-79.8972347114
  0
LINE
  5
2CE
100
AcDbEntity
  8
0
100
AcDbLine
 62
7
  6
CONTINUOUS
 10
222.578951508
 20
-81.171472193
 11
222.5836038716
 21
-81.1731898746
  0
LINE
  5
2CF
100
AcDbEntity
  8
0
100
AcDbLine
 62
7
  6
CONTINUOUS
 10
224.3096136696
 20
-79.9140705722
 11
224.2873994404
 21
-79.9056526434
  0
LINE
  5
2D0
100
AcDbEntity
  8
0
100
AcDbLine
 62
7
  6
CONTINUOUS
 10
224.3311418784
 20
-79.922488499
 11
224.3096136696
 21
-79.9140705722
  0
LINE
  5
2D1
100
AcDbEntity
  8
0
100
AcDbLine
 62
7
  6
CONTINUOUS
 10
222.5742991696
 20
-81.1696414478
 11
222.578951508
 21
-81.171472193
  0
LINE
  5
2D2
100
AcDbEntity
  8
0
100
AcDbLine
 62
7
  6
CONTINUOUS
 10
224.3519738776
 20
-79.9309064246
 11
224.3311418784
 21
-79.922488499
  0
LINE
  5
2D3
100
AcDbEntity
  8
0
100
AcDbLine
 62
7
  6
CONTINUOUS
 10
224.3720994788
 20
-79.939324349
 11
224.3519738776
 21
-79.9309064246
  0
LINE
  5
2D4
100
AcDbEntity
  8
0
100
AcDbLine
 62
7
  6
CONTINUOUS
 10
222.569646858
 20
-81.1676919854
 11
222.5742991696
 21
-81.1696414478
  0
LINE
  5
2D5
100
AcDbEntity
  8
0
100
AcDbLine
 62
7
  6
CONTINUOUS
 10
224.3915084932
 20
-79.947742273
 11
224.3720994788
 21
-79.939324349
  0
LINE
  5
2D6
100
AcDbEntity
  8
0
100
AcDbLine
 62
7
  6
CONTINUOUS
 10
222.5649945748
 20
-81.165618153
 11
222.569646858
 21
-81.1676919854
  0
LWPOLYLINE
  5
2D7
100
AcDbEntity
  8
0
100
AcDbPolyline
 62
7
  6
CONTINUOUS
 90
3
 70
0
 43
0.3499999917
 10
10.671997261
 20
106.3071496582
 10
11.328247261
 20
112.1404815674
 10
11.984497261
 20
115.6404730225
  0
LINE
  5
2D8
100
AcDbEntity
  8
0
100
AcDbLine
 62
7
  6
CONTINUOUS
 10
-223.1133201616
 20
-81.0717845806
 11
-223.1085826864
 21
-81.0656995898
  0
LINE
  5
2D9
100
AcDbEntity
  8
0
100
AcDbLine
 62
7
  6
CONTINUOUS
 10
-224.2729340412
 20
-80.0383455074
 11
-224.276562642
 21
-80.0429974794
  0
LINE
  5
2DA
100
AcDbEntity
  8
0
100
AcDbLine
 62
7
  6
CONTINUOUS
 10
-223.1180576464
 20
-81.077775123
 11
-223.1133201616
 21
-81.0717845806
  0
LINE
  5
2DB
100
AcDbEntity
  8
0
100
AcDbLine
 62
7
  6
CONTINUOUS
 10
-223.1227951436
 20
-81.083655475
 11
-223.1180576464
 21
-81.077775123
  0
LINE
  5
2DC
100
AcDbEntity
  8
0
100
AcDbLine
 62
7
  6
CONTINUOUS
 10
-225.2662733692
 20
-80.0936530602
 11
-225.2741899888
 21
-80.1034739878
  0
LINE
  5
2DD
100
AcDbEntity
  8
0
100
AcDbLine
 62
7
  6
CONTINUOUS
 10
-224.2691188976
 20
-80.0336935402
 11
-224.2729340412
 21
-80.0383455074
  0
LINE
  5
2DE
100
AcDbEntity
  8
0
100
AcDbLine
 62
7
  6
CONTINUOUS
 10
-225.3201783956
 20
70.8142367214
 11
-225.3121555668
 21
70.8203387898
  0
LINE
  5
2DF
100
AcDbEntity
  8
0
100
AcDbLine
 62
7
  6
CONTINUOUS
 10
-224.4858819388
 20
72.4387333334
 11
-224.540196616
 21
72.3987936362
  0
LINE
  5
2E0
100
AcDbEntity
  8
0
100
AcDbLine
 62
7
  6
CONTINUOUS
 10
-225.3121555668
 20
70.8203387898
 11
-225.303724298
 21
70.8264408546
  0
LINE
  5
2E1
100
AcDbEntity
  8
0
100
AcDbLine
 62
7
  6
CONTINUOUS
 10
323.781883438
 20
-80.1918624882
 11
323.4170951536
 21
-80.1092977654
  0
LINE
  5
2E2
100
AcDbEntity
  8
0
100
AcDbLine
 62
7
  6
CONTINUOUS
 10
323.4170951536
 20
-80.1092977654
 11
323.1988633908
 21
-80.058706605
  0
LINE
  5
2E3
100
AcDbEntity
  8
0
100
AcDbLine
 62
7
  6
CONTINUOUS
 10
323.1988633908
 20
-80.058706605
 11
323.0165660552
 21
-80.0150978478
  0
LINE
  5
2E4
100
AcDbEntity
  8
0
100
AcDbLine
 62
7
  6
CONTINUOUS
 10
323.0165660552
 20
-80.0150978478
 11
322.9509237588
 21
-79.9989834866
  0
LINE
  5
2E5
100
AcDbEntity
  8
0
100
AcDbLine
 62
7
  6
CONTINUOUS
 10
322.9509237588
 20
-79.9989834866
 11
322.802298108
 21
-79.9614490846
  0
LINE
  5
2E6
100
AcDbEntity
  8
0
100
AcDbLine
 62
7
  6
CONTINUOUS
 10
322.802298108
 20
-79.9614490846
 11
322.6715006564
 21
-79.9269025094
  0
LINE
  5
2E7
100
AcDbEntity
  8
0
100
AcDbLine
 62
7
  6
CONTINUOUS
 10
322.6715006564
 20
-79.9269025094
 11
322.5623097272
 21
-79.8966487698
  0
LINE
  5
2E8
100
AcDbEntity
  8
0
100
AcDbLine
 62
7
  6
CONTINUOUS
 10
224.4101907312
 20
-79.9561601974
 11
224.3915084932
 21
-79.947742273
  0
LINE
  5
2E9
100
AcDbEntity
  8
0
100
AcDbLine
 62
7
  6
CONTINUOUS
 10
224.4281360048
 20
-79.9645781226
 11
224.4101907312
 21
-79.9561601974
  0
LINE
  5
2EA
100
AcDbEntity
  8
0
100
AcDbLine
 62
7
  6
CONTINUOUS
 10
222.5603423204
 20
-81.163414297
 11
222.5649945748
 21
-81.165618153
  0
LINE
  5
2EB
100
AcDbEntity
  8
0
100
AcDbLine
 62
7
  6
CONTINUOUS
 10
224.4453341248
 20
-79.9729960494
 11
224.4281360048
 21
-79.9645781226
  0
LINE
  5
2EC
100
AcDbEntity
  8
0
100
AcDbLine
 62
7
  6
CONTINUOUS
 10
222.5556900968
 20
-81.1610747646
 11
222.5603423204
 21
-81.163414297
  0
LINE
  5
2ED
100
AcDbEntity
  8
0
100
AcDbLine
 62
7
  6
CONTINUOUS
 10
224.4617749024
 20
-79.9814139782
 11
224.4453341248
 21
-79.9729960494
  0
LINE
  5
2EE
100
AcDbEntity
  8
0
100
AcDbLine
 62
7
  6
CONTINUOUS
 10
222.5510379048
 20
-81.1585939022
 11
222.5556900968
 21
-81.1610747646
  0
LINE
  5
2EF
100
AcDbEntity
  8
0
100
AcDbLine
 62
7
  6
CONTINUOUS
 10
224.4774481488
 20
-79.9898319098
 11
224.4617749024
 21
-79.9814139782
  0
LINE
  5
2F0
100
AcDbEntity
  8
0
100
AcDbLine
 62
7
  6
CONTINUOUS
 10
222.546385746
 20
-81.155966057
 11
222.5510379048
 21
-81.1585939022
  0
LINE
  5
2F1
100
AcDbEntity
  8
0
100
AcDbLine
 62
7
  6
CONTINUOUS
 10
224.4923436752
 20
-79.998249845
 11
224.4774481488
 21
-79.9898319098
  0
LINE
  5
2F2
100
AcDbEntity
  8
0
100
AcDbLine
 62
7
  6
CONTINUOUS
 10
224.5064512928
 20
-80.0066677838
 11
224.4923436752
 21
-79.998249845
  0
LINE
  5
2F3
100
AcDbEntity
  8
0
100
AcDbLine
 62
7
  6
CONTINUOUS
 10
222.5417336216
 20
-81.1531855758
 11
222.546385746
 21
-81.155966057
  0
LWPOLYLINE
  5
2F4
100
AcDbEntity
  8
0
100
AcDbPolyline
 62
7
  6
CONTINUOUS
 90
3
 70
0
 43
0.3499999917
 10
11.984497261
 20
115.6404730225
 10
13.296997261
 20
120.3071411133
 10
8.046997261
 20
120.3071411133
  0
LINE
  5
2F5
100
AcDbEntity
  8
0
100
AcDbLine
 62
7
  6
CONTINUOUS
 10
-223.1275326548
 20
-81.089409895
 11
-223.1227951436
 21
-81.083655475
  0
LINE
  5
2F6
100
AcDbEntity
  8
0
100
AcDbLine
 62
7
  6
CONTINUOUS
 10
-223.1322701808
 20
-81.0950226422
 11
-223.1275326548
 21
-81.089409895
  0
LINE
  5
2F7
100
AcDbEntity
  8
0
100
AcDbLine
 62
7
  6
CONTINUOUS
 10
-224.2651115596
 20
-80.0290415786
 11
-224.2691188976
 21
-80.0336935402
  0
LINE
  5
2F8
100
AcDbEntity
  8
0
100
AcDbLine
 62
7
  6
CONTINUOUS
 10
-225.25774473
 20
-80.0838321346
 11
-225.2662733692
 21
-80.0936530602
  0
LINE
  5
2F9
100
AcDbEntity
  8
0
100
AcDbLine
 62
7
  6
CONTINUOUS
 10
-223.1370077244
 20
-81.100477975
 11
-223.1322701808
 21
-81.0950226422
  0
LINE
  5
2FA
100
AcDbEntity
  8
0
100
AcDbLine
 62
7
  6
CONTINUOUS
 10
-224.4302160112
 20
72.4768594682
 11
-224.4858819388
 21
72.4387333334
  0
LINE
  5
2FB
100
AcDbEntity
  8
0
100
AcDbLine
 62
7
  6
CONTINUOUS
 10
-225.303724298
 20
70.8264408546
 11
-225.2970099564
 21
70.8310173998
  0
LINE
  5
2FC
100
AcDbEntity
  8
0
100
AcDbLine
 62
7
  6
CONTINUOUS
 10
322.5623097272
 20
-79.8966487698
 11
322.4590976208
 21
-79.8665405502
  0
LINE
  5
2FD
100
AcDbEntity
  8
0
100
AcDbLine
 62
7
  6
CONTINUOUS
 10
322.4590976208
 20
-79.8665405502
 11
322.367841094
 21
-79.838363595
  0
LINE
  5
2FE
100
AcDbEntity
  8
0
100
AcDbLine
 62
7
  6
CONTINUOUS
 10
322.367841094
 20
-79.838363595
 11
322.3250985928
 21
-79.824546739
  0
LINE
  5
2FF
100
AcDbEntity
  8
0
100
AcDbLine
 62
7
  6
CONTINUOUS
 10
322.3250985928
 20
-79.824546739
 11
322.2483118816
 21
-79.7985097602
  0
LINE
  5
300
100
AcDbEntity
  8
0
100
AcDbLine
 62
7
  6
CONTINUOUS
 10
322.2483118816
 20
-79.7985097602
 11
322.180214928
 21
-79.7738088962
  0
LINE
  5
301
100
AcDbEntity
  8
0
100
AcDbLine
 62
7
  6
CONTINUOUS
 10
222.5370815328
 20
-81.150246805
 11
222.5417336216
 21
-81.1531855758
  0
LINE
  5
302
100
AcDbEntity
  8
0
100
AcDbLine
 62
7
  6
CONTINUOUS
 10
224.5197608124
 20
-80.015085727
 11
224.5064512928
 21
-80.0066677838
  0
LINE
  5
303
100
AcDbEntity
  8
0
100
AcDbLine
 62
7
  6
CONTINUOUS
 10
222.5324294812
 20
-81.1471440914
 11
222.5370815328
 21
-81.150246805
  0
LINE
  5
304
100
AcDbEntity
  8
0
100
AcDbLine
 62
7
  6
CONTINUOUS
 10
224.5322700936
 20
-80.0235036302
 11
224.5197608124
 21
-80.015085727
  0
LINE
  5
305
100
AcDbEntity
  8
0
100
AcDbLine
 62
7
  6
CONTINUOUS
 10
222.5277774672
 20
-81.1438717826
 11
222.5324294812
 21
-81.1471440914
  0
LINE
  5
306
100
AcDbEntity
  8
0
100
AcDbLine
 62
7
  6
CONTINUOUS
 10
224.5440095864
 20
-80.0319215382
 11
224.5322700936
 21
-80.0235036302
  0
LINE
  5
307
100
AcDbEntity
  8
0
100
AcDbLine
 62
7
  6
CONTINUOUS
 10
222.5231254932
 20
-81.1404242246
 11
222.5277774672
 21
-81.1438717826
  0
LINE
  5
308
100
AcDbEntity
  8
0
100
AcDbLine
 62
7
  6
CONTINUOUS
 10
223.5334430028
 20
-79.9629720634
 11
223.5145433796
 21
-79.9487592614
  0
LINE
  5
309
100
AcDbEntity
  8
0
100
AcDbLine
 62
7
  6
CONTINUOUS
 10
-223.1417452868
 20
-81.1057601514
 11
-223.1370077244
 21
-81.100477975
  0
LINE
  5
30A
100
AcDbEntity
  8
0
100
AcDbLine
 62
7
  6
CONTINUOUS
 10
-224.2609063732
 20
-80.0243896222
 11
-224.2651115596
 21
-80.0290415786
  0
LINE
  5
30B
100
AcDbEntity
  8
0
100
AcDbLine
 62
7
  6
CONTINUOUS
 10
-223.14648287
 20
-81.1108534306
 11
-223.1417452868
 21
-81.1057601514
  0
LINE
  5
30C
100
AcDbEntity
  8
0
100
AcDbLine
 62
7
  6
CONTINUOUS
 10
-225.2485428692
 20
-80.074011211
 11
-225.25774473
 21
-80.0838321346
  0
LINE
  5
30D
100
AcDbEntity
  8
0
100
AcDbLine
 62
7
  6
CONTINUOUS
 10
-224.3913759696
 20
72.5018802034
 11
-224.4302160112
 21
72.4768594682
  0
LINE
  5
30E
100
AcDbEntity
  8
0
100
AcDbLine
 62
7
  6
CONTINUOUS
 10
-225.2970099564
 20
70.8310173998
 11
-225.2898648376
 21
70.8355939406
  0
LINE
  5
30F
100
AcDbEntity
  8
0
100
AcDbLine
 62
7
  6
CONTINUOUS
 10
-224.3336911736
 20
72.5367761618
 11
-224.3913759696
 21
72.5018802034
  0
LINE
  5
310
100
AcDbEntity
  8
0
100
AcDbLine
 62
7
  6
CONTINUOUS
 10
-223.3076086732
 20
-81.1889013786
 11
-223.3008089556
 21
-81.1878328902
  0
LINE
  5
311
100
AcDbEntity
  8
0
100
AcDbLine
 62
7
  6
CONTINUOUS
 10
-223.314408396
 20
-81.189917495
 11
-223.3076086732
 21
-81.1889013786
  0
LINE
  5
312
100
AcDbEntity
  8
0
100
AcDbLine
 62
7
  6
CONTINUOUS
 10
-223.328007852
 20
-81.1918624406
 11
-223.314408396
 21
-81.189917495
  0
LWPOLYLINE
  5
313
100
AcDbEntity
  8
0
100
AcDbPolyline
 62
7
  6
CONTINUOUS
 90
2
 70
0
 43
0.3499999917
 10
-261.806451416
 20
-14.6918632507
 10
-247.8064343262
 20
-14.6918632507
  0
LINE
  5
314
100
AcDbEntity
  8
0
100
AcDbLine
 62
7
  6
CONTINUOUS
 10
322.180214928
 20
-79.7738088962
 11
322.1197698272
 21
-79.7502550298
  0
LINE
  5
315
100
AcDbEntity
  8
0
100
AcDbLine
 62
7
  6
CONTINUOUS
 10
322.1197698272
 20
-79.7502550298
 11
322.1043674648
 21
-79.7439550066
  0
LINE
  5
316
100
AcDbEntity
  8
0
100
AcDbLine
 62
7
  6
CONTINUOUS
 10
322.1043674648
 20
-79.7439550066
 11
322.053037164
 21
-79.721883235
  0
LINE
  5
317
100
AcDbEntity
  8
0
100
AcDbLine
 62
7
  6
CONTINUOUS
 10
322.053037164
 20
-79.721883235
 11
322.0077999788
 21
-79.700766807
  0
LINE
  5
318
100
AcDbEntity
  8
0
100
AcDbLine
 62
7
  6
CONTINUOUS
 10
223.539669426
 20
-79.9677096646
 11
223.5334430028
 21
-79.9629720634
  0
LINE
  5
319
100
AcDbEntity
  8
0
100
AcDbLine
 62
7
  6
CONTINUOUS
 10
224.5550177804
 20
-80.0403394506
 11
224.5440095864
 21
-80.0319215382
  0
LINE
  5
31A
100
AcDbEntity
  8
0
100
AcDbLine
 62
7
  6
CONTINUOUS
 10
223.5458328904
 20
-79.9724472662
 11
223.539669426
 21
-79.9677096646
  0
LINE
  5
31B
100
AcDbEntity
  8
0
100
AcDbLine
 62
7
  6
CONTINUOUS
 10
223.5519176572
 20
-79.9771848686
 11
223.5458328904
 21
-79.9724472662
  0
LINE
  5
31C
100
AcDbEntity
  8
0
100
AcDbLine
 62
7
  6
CONTINUOUS
 10
222.5184735596
 20
-81.1367957646
 11
222.5231254932
 21
-81.1404242246
  0
LINE
  5
31D
100
AcDbEntity
  8
0
100
AcDbLine
 62
7
  6
CONTINUOUS
 10
223.5579079868
 20
-79.9819224718
 11
223.5519176572
 21
-79.9771848686
  0
LINE
  5
31E
100
AcDbEntity
  8
0
100
AcDbLine
 62
7
  6
CONTINUOUS
 10
223.5637881388
 20
-79.9866600758
 11
223.5579079868
 21
-79.9819224718
  0
LINE
  5
31F
100
AcDbEntity
  8
0
100
AcDbLine
 62
7
  6
CONTINUOUS
 10
224.5653331644
 20
-80.0487573678
 11
224.5550177804
 21
-80.0403394506
  0
LINE
  5
320
100
AcDbEntity
  8
0
100
AcDbLine
 62
7
  6
CONTINUOUS
 10
222.513821668
 20
-81.132980749
 11
222.5184735596
 21
-81.1367957646
  0
LINE
  5
321
100
AcDbEntity
  8
0
100
AcDbLine
 62
7
  6
CONTINUOUS
 10
223.5695423744
 20
-79.991397681
 11
223.5637881388
 21
-79.9866600758
  0
LINE
  5
322
100
AcDbEntity
  8
0
100
AcDbLine
 62
7
  6
CONTINUOUS
 10
223.575154954
 20
-79.9961352874
 11
223.5695423744
 21
-79.991397681
  0
LINE
  5
323
100
AcDbEntity
  8
0
100
AcDbLine
 62
7
  6
CONTINUOUS
 10
222.5091698196
 20
-81.1289735254
 11
222.513821668
 21
-81.132980749
  0
LINE
  5
324
100
AcDbEntity
  8
0
100
AcDbLine
 62
7
  6
CONTINUOUS
 10
223.5806101376
 20
-80.000872895
 11
223.575154954
 21
-79.9961352874
  0
LINE
  5
325
100
AcDbEntity
  8
0
100
AcDbLine
 62
7
  6
CONTINUOUS
 10
224.5749942284
 20
-80.057175289
 11
224.5653331644
 21
-80.0487573678
  0
LINE
  5
326
100
AcDbEntity
  8
0
100
AcDbLine
 62
7
  6
CONTINUOUS
 10
223.5858921856
 20
-80.0056105038
 11
223.5806101376
 21
-80.000872895
  0
LINE
  5
327
100
AcDbEntity
  8
0
100
AcDbLine
 62
7
  6
CONTINUOUS
 10
222.504518016
 20
-81.1247684398
 11
222.5091698196
 21
-81.1289735254
  0
LINE
  5
328
100
AcDbEntity
  8
0
100
AcDbLine
 62
7
  6
CONTINUOUS
 10
-224.2564976864
 20
-80.0197376718
 11
-224.2609063732
 21
-80.0243896222
  0
LINE
  5
329
100
AcDbEntity
  8
0
100
AcDbLine
 62
7
  6
CONTINUOUS
 10
-223.1512204756
 20
-81.1157420706
 11
-223.14648287
 21
-81.1108534306
  0
LINE
  5
32A
100
AcDbEntity
  8
0
100
AcDbLine
 62
7
  6
CONTINUOUS
 10
-224.251879846
 20
-80.015085727
 11
-224.2564976864
 21
-80.0197376718
  0
LINE
  5
32B
100
AcDbEntity
  8
0
100
AcDbLine
 62
7
  6
CONTINUOUS
 10
-225.2400733384
 20
-80.0655932786
 11
-225.2485428692
 21
-80.074011211
  0
LINE
  5
32C
100
AcDbEntity
  8
0
100
AcDbLine
 62
7
  6
CONTINUOUS
 10
-225.2898648376
 20
70.8355939406
 11
-225.2822027868
 21
70.840170477
  0
LINE
  5
32D
100
AcDbEntity
  8
0
100
AcDbLine
 62
7
  6
CONTINUOUS
 10
-224.274947422
 20
72.5696738206
 11
-224.3336911736
 21
72.5367761618
  0
LINE
  5
32E
100
AcDbEntity
  8
0
100
AcDbLine
 62
7
  6
CONTINUOUS
 10
-223.294009246
 20
-81.1866945714
 11
-223.2872095456
 21
-81.1854689658
  0
LINE
  5
32F
100
AcDbEntity
  8
0
100
AcDbLine
 62
7
  6
CONTINUOUS
 10
-223.3008089556
 20
-81.1878328902
 11
-223.294009246
 21
-81.1866945714
  0
LINE
  5
330
100
AcDbEntity
  8
0
100
AcDbLine
 62
7
  6
CONTINUOUS
 10
321.781880458
 20
-1.691863263
 11
320.781885882
 21
-1.691863263
  0
LINE
  5
331
100
AcDbEntity
  8
0
100
AcDbLine
 62
7
  6
CONTINUOUS
 10
321.781880458
 20
0.3081407902
 11
320.781885882
 21
0.3081407902
  0
LINE
  5
332
100
AcDbEntity
  8
0
100
AcDbLine
 62
7
  6
CONTINUOUS
 10
221.6719998968
 20
0.3081407902
 11
-222.3280058252
 21
0.3081407902
  0
LINE
  5
333
100
AcDbEntity
  8
0
100
AcDbLine
 62
7
  6
CONTINUOUS
 10
-213.3280024872
 20
0.6081384178
 11
212.6719965588
 21
0.6081384178
  0
LINE
  5
334
100
AcDbEntity
  8
0
100
AcDbLine
 62
7
  6
CONTINUOUS
 10
-221.3280037988
 20
0.8081343526
 11
-207.3280052292
 21
0.8081343526
  0
LINE
  5
335
100
AcDbEntity
  8
0
100
AcDbLine
 62
7
  6
CONTINUOUS
 10
206.6719993008
 20
0.8081343526
 11
220.6719978704
 21
0.8081343526
  0
LINE
  5
336
100
AcDbEntity
  8
0
100
AcDbLine
 62
7
  6
CONTINUOUS
 10
320.781885882
 20
0.8081343526
 11
321.781880458
 21
0.8081343526
  0
LINE
  5
337
100
AcDbEntity
  8
0
100
AcDbLine
 62
7
  6
CONTINUOUS
 10
-206.3482091772
 20
1.6081404442
 11
-205.328001176
 21
1.6081404442
  0
LINE
  5
338
100
AcDbEntity
  8
0
100
AcDbLine
 62
7
  6
CONTINUOUS
 10
204.6719952476
 20
1.6081404442
 11
205.6922032488
 21
1.6081404442
  0
LINE
  5
339
100
AcDbEntity
  8
0
100
AcDbLine
 62
7
  6
CONTINUOUS
 10
-206.3280032028
 20
2.8081384058
 11
205.671997274
 21
2.8081384058
  0
LINE
  5
33A
100
AcDbEntity
  8
0
100
AcDbLine
 62
7
  6
CONTINUOUS
 10
320.781885882
 20
3.8081404326
 11
321.781880458
 21
3.8081404326
  0
LINE
  5
33B
100
AcDbEntity
  8
0
100
AcDbLine
 62
7
  6
CONTINUOUS
 10
322.0077999788
 20
-79.700766807
 11
321.9683528296
 21
-79.680676343
  0
LWPOLYLINE
  5
33C
100
AcDbEntity
  8
0
100
AcDbPolyline
 62
7
  6
CONTINUOUS
 90
5
 70
0
 43
0.3499999917
 10
262.7135119629
 20
-48.9731119537
 10
260.3801843262
 20
-47.6606119537
 10
259.2135205078
 20
-46.3481119537
 10
259.2135205078
 20
-45.0356119537
 10
260.3801843262
 20
-43.7231119537
  0
LINE
  5
33D
100
AcDbEntity
  8
0
100
AcDbLine
 62
7
  6
CONTINUOUS
 10
223.5909853588
 20
-80.0103481146
 11
223.5858921856
 21
-80.0056105038
  0
LINE
  5
33E
100
AcDbEntity
  8
0
100
AcDbLine
 62
7
  6
CONTINUOUS
 10
224.5840394616
 20
-80.0655932138
 11
224.5749942284
 21
-80.057175289
  0
LINE
  5
33F
100
AcDbEntity
  8
0
100
AcDbLine
 62
7
  6
CONTINUOUS
 10
222.499866258
 20
-81.120359839
 11
222.504518016
 21
-81.1247684398
  0
LINE
  5
340
100
AcDbEntity
  8
0
100
AcDbLine
 62
7
  6
CONTINUOUS
 10
223.5958739172
 20
-80.015085727
 11
223.5909853588
 21
-80.0103481146
  0
LINE
  5
341
100
AcDbEntity
  8
0
100
AcDbLine
 62
7
  6
CONTINUOUS
 10
222.4952145468
 20
-81.1157420706
 11
222.499866258
 21
-81.120359839
  0
LINE
  5
342
100
AcDbEntity
  8
0
100
AcDbLine
 62
7
  6
CONTINUOUS
 10
224.5925073532
 20
-80.0740111426
 11
224.5840394616
 21
-80.0655932138
  0
LINE
  5
343
100
AcDbEntity
  8
0
100
AcDbLine
 62
7
  6
CONTINUOUS
 10
223.6004632208
 20
-80.019737723
 11
223.5958739172
 21
-80.015085727
  0
LINE
  5
344
100
AcDbEntity
  8
0
100
AcDbLine
 62
7
  6
CONTINUOUS
 10
222.490665242
 20
-81.1110215002
 11
222.4952145468
 21
-81.1157420706
  0
LINE
  5
345
100
AcDbEntity
  8
0
100
AcDbLine
 62
7
  6
CONTINUOUS
 10
223.6048456536
 20
-80.0243897206
 11
223.6004632208
 21
-80.019737723
  0
LINE
  5
346
100
AcDbEntity
  8
0
100
AcDbLine
 62
7
  6
CONTINUOUS
 10
224.601708214
 20
-80.0838320638
 11
224.5925073532
 21
-80.0740111426
  0
LINE
  5
347
100
AcDbEntity
  8
0
100
AcDbLine
 62
7
  6
CONTINUOUS
 10
222.48611598
 20
-81.106110135
 11
222.490665242
 21
-81.1110215002
  0
LINE
  5
348
100
AcDbEntity
  8
0
100
AcDbLine
 62
7
  6
CONTINUOUS
 10
-223.1558724924
 20
-81.1203314354
 11
-223.1512204756
 21
-81.1157420706
  0
LINE
  5
349
100
AcDbEntity
  8
0
100
AcDbLine
 62
7
  6
CONTINUOUS
 10
-224.247159014
 20
-80.0105359594
 11
-224.251879846
 21
-80.015085727
  0
LINE
  5
34A
100
AcDbEntity
  8
0
100
AcDbLine
 62
7
  6
CONTINUOUS
 10
-225.2822027868
 20
70.840170477
 11
-225.2739376484
 21
70.8447470078
  0
LINE
  5
34B
100
AcDbEntity
  8
0
100
AcDbLine
 62
7
  6
CONTINUOUS
 10
-224.2152453344
 20
72.6005224402
 11
-224.274947422
 21
72.5696738206
  0
LINE
  5
34C
100
AcDbEntity
  8
0
100
AcDbLine
 62
7
  6
CONTINUOUS
 10
-225.2739376484
 20
70.8447470078
 11
-225.266833418
 21
70.8484082278
  0
LINE
  5
34D
100
AcDbEntity
  8
0
100
AcDbLine
 62
7
  6
CONTINUOUS
 10
470.4889902192
 20
70.9545841214
 11
470.52020633
 21
70.9630202842
  0
LINE
  5
34E
100
AcDbEntity
  8
0
100
AcDbLine
 62
7
  6
CONTINUOUS
 10
471.6296425032
 20
71.0278074258
 11
471.6655482536
 21
71.037126529
  0
LINE
  5
34F
100
AcDbEntity
  8
0
100
AcDbLine
 62
7
  6
CONTINUOUS
 10
470.4400856472
 20
70.9421072282
 11
470.4889902192
 21
70.9545841214
  0
LINE
  5
350
100
AcDbEntity
  8
0
100
AcDbLine
 62
7
  6
CONTINUOUS
 10
470.3841038028
 20
70.9286771478
 11
470.4400856472
 21
70.9421072282
  0
LINE
  5
351
100
AcDbEntity
  8
0
100
AcDbLine
 62
7
  6
CONTINUOUS
 10
470.0695185476
 20
71.8077221158
 11
470.0642010144
 21
71.8064628582
  0
LINE
  5
352
100
AcDbEntity
  8
0
100
AcDbLine
 62
7
  6
CONTINUOUS
 10
471.580001752
 20
71.0165360098
 11
471.6296425032
 21
71.0278074258
  0
LINE
  5
353
100
AcDbEntity
  8
0
100
AcDbLine
 62
7
  6
CONTINUOUS
 10
470.3199738016
 20
70.9141369398
 11
470.3841038028
 21
70.9286771478
  0
LINE
  5
354
100
AcDbEntity
  8
0
100
AcDbLine
 62
7
  6
CONTINUOUS
 10
470.246248466
 20
70.898257015
 11
470.3199738016
 21
70.9141369398
  0
LINE
  5
355
100
AcDbEntity
  8
0
100
AcDbLine
 62
7
  6
CONTINUOUS
 10
-223.2804098568
 20
-81.1841386154
 11
-223.2736101812
 21
-81.182686063
  0
LINE
  5
356
100
AcDbEntity
  8
0
100
AcDbLine
 62
7
  6
CONTINUOUS
 10
-223.2872095456
 20
-81.1854689658
 11
-223.2804098568
 21
-81.1841386154
  0
LINE
  5
357
100
AcDbEntity
  8
0
100
AcDbLine
 62
7
  6
CONTINUOUS
 10
321.9683528296
 20
-79.680676343
 11
321.9343312168
 21
-79.6616540202
  0
LWPOLYLINE
  5
358
100
AcDbEntity
  8
0
100
AcDbPolyline
 62
7
  6
CONTINUOUS
 90
8
 70
0
 43
0.3499999917
 10
255.7135290527
 20
-37.8168627548
 10
254.5468652344
 20
-37.1606127548
 10
253.3801757812
 20
-35.8481127548
 10
253.3801757812
 20
-34.5356123543
 10
254.5468652344
 20
-33.2231123543
 10
255.7135290527
 20
-32.5668623543
 10
258.0468566895
 20
-32.5668623543
 10
259.2135205078
 20
-33.2231123543
  0
LINE
  5
359
100
AcDbEntity
  8
0
100
AcDbLine
 62
7
  6
CONTINUOUS
 10
321.9343312168
 20
-79.6616540202
 11
321.9112889768
 21
-79.6475863618
  0
LINE
  5
35A
100
AcDbEntity
  8
0
100
AcDbLine
 62
7
  6
CONTINUOUS
 10
223.6090268072
 20
-80.0290417198
 11
223.6048456536
 21
-80.0243897206
  0
LINE
  5
35B
100
AcDbEntity
  8
0
100
AcDbLine
 62
7
  6
CONTINUOUS
 10
222.481566758
 20
-81.1010226518
 11
222.48611598
 21
-81.106110135
  0
LINE
  5
35C
100
AcDbEntity
  8
0
100
AcDbLine
 62
7
  6
CONTINUOUS
 10
224.6102367572
 20
-80.0936529894
 11
224.601708214
 21
-80.0838320638
  0
LINE
  5
35D
100
AcDbEntity
  8
0
100
AcDbLine
 62
7
  6
CONTINUOUS
 10
222.477017572
 20
-81.0957737274
 11
222.481566758
 21
-81.1010226518
  0
LINE
  5
35E
100
AcDbEntity
  8
0
100
AcDbLine
 62
7
  6
CONTINUOUS
 10
223.6130122724
 20
-80.033693721
 11
223.6090268072
 21
-80.0290417198
  0
LINE
  5
35F
100
AcDbEntity
  8
0
100
AcDbLine
 62
7
  6
CONTINUOUS
 10
222.4724684188
 20
-81.0903780374
 11
222.477017572
 21
-81.0957737274
  0
LINE
  5
360
100
AcDbEntity
  8
0
100
AcDbLine
 62
7
  6
CONTINUOUS
 10
222.4679192956
 20
-81.084850259
 11
222.4724684188
 21
-81.0903780374
  0
LINE
  5
361
100
AcDbEntity
  8
0
100
AcDbLine
 62
7
  6
CONTINUOUS
 10
223.6168076404
 20
-80.0383457234
 11
223.6130122724
 21
-80.033693721
  0
LINE
  5
362
100
AcDbEntity
  8
0
100
AcDbLine
 62
7
  6
CONTINUOUS
 10
224.6181541028
 20
-80.1034739186
 11
224.6102367572
 21
-80.0936529894
  0
LINE
  5
363
100
AcDbEntity
  8
0
100
AcDbLine
 62
7
  6
CONTINUOUS
 10
222.4633701988
 20
-81.0792050686
 11
222.4679192956
 21
-81.084850259
  0
LINE
  5
364
100
AcDbEntity
  8
0
100
AcDbLine
 62
7
  6
CONTINUOUS
 10
222.4588211252
 20
-81.073457143
 11
222.4633701988
 21
-81.0792050686
  0
LINE
  5
365
100
AcDbEntity
  8
0
100
AcDbLine
 62
7
  6
CONTINUOUS
 10
222.4542720716
 20
-81.0676211578
 11
222.4588211252
 21
-81.073457143
  0
LINE
  5
366
100
AcDbEntity
  8
0
100
AcDbLine
 62
7
  6
CONTINUOUS
 10
222.449723034
 20
-81.0617117906
 11
222.4542720716
 21
-81.0676211578
  0
LINE
  5
367
100
AcDbEntity
  8
0
100
AcDbLine
 62
7
  6
CONTINUOUS
 10
-223.1605245324
 20
-81.1247139046
 11
-223.1558724924
 21
-81.1203314354
  0
LINE
  5
368
100
AcDbEntity
  8
0
100
AcDbLine
 62
7
  6
CONTINUOUS
 10
-225.23102569
 20
-80.0571753478
 11
-225.2400733384
 21
-80.0655932786
  0
LINE
  5
369
100
AcDbEntity
  8
0
100
AcDbLine
 62
7
  6
CONTINUOUS
 10
-224.2422473848
 20
-80.0059861974
 11
-224.247159014
 21
-80.0105359594
  0
LINE
  5
36A
100
AcDbEntity
  8
0
100
AcDbLine
 62
7
  6
CONTINUOUS
 10
-223.165176594
 20
-81.1288950698
 11
-223.1605245324
 21
-81.1247139046
  0
LINE
  5
36B
100
AcDbEntity
  8
0
100
AcDbLine
 62
7
  6
CONTINUOUS
 10
-224.2371596348
 20
-80.0014364398
 11
-224.2422473848
 21
-80.0059861974
  0
LINE
  5
36C
100
AcDbEntity
  8
0
100
AcDbLine
 62
7
  6
CONTINUOUS
 10
-225.266833418
 20
70.8484082278
 11
-225.2592439608
 21
70.852069443
  0
LINE
  5
36D
100
AcDbEntity
  8
0
100
AcDbLine
 62
7
  6
CONTINUOUS
 10
-224.1546859232
 20
72.6292766506
 11
-224.2152453344
 21
72.6005224402
  0
LINE
  5
36E
100
AcDbEntity
  8
0
100
AcDbLine
 62
7
  6
CONTINUOUS
 10
-223.2736101812
 20
-81.182686063
 11
-223.2668105212
 21
-81.181093851
  0
LINE
  5
36F
100
AcDbEntity
  8
0
100
AcDbLine
 62
7
  6
CONTINUOUS
 10
470.160792908
 20
70.8806752586
 11
470.246248466
 21
70.898257015
  0
LINE
  5
370
100
AcDbEntity
  8
0
100
AcDbLine
 62
7
  6
CONTINUOUS
 10
471.5186329156
 20
71.0042941982
 11
471.580001752
 21
71.0165360098
  0
LINE
  5
371
100
AcDbEntity
  8
0
100
AcDbLine
 62
7
  6
CONTINUOUS
 10
470.0600327248
 20
70.8607533002
 11
470.160792908
 21
70.8806752586
  0
LINE
  5
372
100
AcDbEntity
  8
0
100
AcDbLine
 62
7
  6
CONTINUOUS
 10
469.9366515696
 20
70.8371375478
 11
470.0600327248
 21
70.8607533002
  0
LINE
  5
373
100
AcDbEntity
  8
0
100
AcDbLine
 62
7
  6
CONTINUOUS
 10
469.781883438
 20
70.8081375118
 11
469.9366515696
 21
70.8371375478
  0
LINE
  5
374
100
AcDbEntity
  8
0
100
AcDbLine
 62
7
  6
CONTINUOUS
 10
471.4437230688
 20
70.991028597
 11
471.5186329156
 21
71.0042941982
  0
LINE
  5
375
100
AcDbEntity
  8
0
100
AcDbLine
 62
7
  6
CONTINUOUS
 10
471.353274974
 20
70.976676135
 11
471.4437230688
 21
70.991028597
  0
LINE
  5
376
100
AcDbEntity
  8
0
100
AcDbLine
 62
7
  6
CONTINUOUS
 10
321.9112889768
 20
-79.6475863618
 11
321.8848123924
 21
-79.6298468438
  0
LINE
  5
377
100
AcDbEntity
  8
0
100
AcDbLine
 62
7
  6
CONTINUOUS
 10
223.620418502
 20
-80.0429977274
 11
223.6168076404
 21
-80.0383457234
  0
LINE
  5
378
100
AcDbEntity
  8
0
100
AcDbLine
 62
7
  6
CONTINUOUS
 10
222.440624996
 20
-81.0497316138
 11
222.449723034
 21
-81.0617117906
  0
LINE
  5
379
100
AcDbEntity
  8
0
100
AcDbLine
 62
7
  6
CONTINUOUS
 10
222.431526984
 20
-81.0376340254
 11
222.440624996
 21
-81.0497316138
  0
LINE
  5
37A
100
AcDbEntity
  8
0
100
AcDbLine
 62
7
  6
CONTINUOUS
 10
224.6255213704
 20
-80.1132948514
 11
224.6181541028
 21
-80.1034739186
  0
LINE
  5
37B
100
AcDbEntity
  8
0
100
AcDbLine
 62
7
  6
CONTINUOUS
 10
223.6238504488
 20
-80.047649733
 11
223.620418502
 21
-80.0429977274
  0
LINE
  5
37C
100
AcDbEntity
  8
0
100
AcDbLine
 62
7
  6
CONTINUOUS
 10
223.6271090716
 20
-80.0523017402
 11
223.6238504488
 21
-80.047649733
  0
LINE
  5
37D
100
AcDbEntity
  8
0
100
AcDbLine
 62
7
  6
CONTINUOUS
 10
224.6323996796
 20
-80.1231157874
 11
224.6255213704
 21
-80.1132948514
  0
LINE
  5
37E
100
AcDbEntity
  8
0
100
AcDbLine
 62
7
  6
CONTINUOUS
 10
-225.2213613828
 20
-80.048757419
 11
-225.23102569
 21
-80.0571753478
  0
LINE
  5
37F
100
AcDbEntity
  8
0
100
AcDbLine
 62
7
  6
CONTINUOUS
 10
-224.2319104408
 20
-79.996886687
 11
-224.2371596348
 21
-80.0014364398
  0
LINE
  5
380
100
AcDbEntity
  8
0
100
AcDbLine
 62
7
  6
CONTINUOUS
 10
-223.1698286772
 20
-81.1328805226
 11
-223.165176594
 21
-81.1288950698
  0
LINE
  5
381
100
AcDbEntity
  8
0
100
AcDbLine
 62
7
  6
CONTINUOUS
 10
-224.2265144796
 20
-79.9923369386
 11
-224.2319104408
 21
-79.996886687
  0
LINE
  5
382
100
AcDbEntity
  8
0
100
AcDbLine
 62
7
  6
CONTINUOUS
 10
-225.2592439608
 20
70.852069443
 11
-225.2511251648
 21
70.8557306538
  0
LINE
  5
383
100
AcDbEntity
  8
0
100
AcDbLine
 62
7
  6
CONTINUOUS
 10
-224.0933698288
 20
72.655896577
 11
-224.1546859232
 21
72.6292766506
  0
LINE
  5
384
100
AcDbEntity
  8
0
100
AcDbLine
 62
7
  6
CONTINUOUS
 10
-223.260010878
 20
-81.1793445218
 11
-223.253211254
 21
-81.1774206182
  0
LINE
  5
385
100
AcDbEntity
  8
0
100
AcDbLine
 62
7
  6
CONTINUOUS
 10
-224.5679930108
 20
-79.7880147718
 11
-224.639728634
 21
-79.808132479
  0
LINE
  5
386
100
AcDbEntity
  8
0
100
AcDbLine
 62
7
  6
CONTINUOUS
 10
-224.4940911992
 20
-79.7678970734
 11
-224.5679930108
 21
-79.7880147718
  0
LINE
  5
387
100
AcDbEntity
  8
0
100
AcDbLine
 62
7
  6
CONTINUOUS
 10
-224.4185045736
 20
-79.7477793822
 11
-224.4940911992
 21
-79.7678970734
  0
LINE
  5
388
100
AcDbEntity
  8
0
100
AcDbLine
 62
7
  6
CONTINUOUS
 10
-224.2253259764
 20
-79.6974851714
 11
-224.4185045736
 21
-79.7477793822
  0
LINE
  5
389
100
AcDbEntity
  8
0
100
AcDbLine
 62
7
  6
CONTINUOUS
 10
-223.2668105212
 20
-81.181093851
 11
-223.260010878
 21
-81.1793445218
  0
LINE
  5
38A
100
AcDbEntity
  8
0
100
AcDbLine
 62
7
  6
CONTINUOUS
 10
470.0747766568
 20
72.8081375118
 11
470.0695070924
 21
72.8073304402
  0
LINE
  5
38B
100
AcDbEntity
  8
0
100
AcDbLine
 62
7
  6
CONTINUOUS
 10
471.245072636
 20
70.9611602026
 11
471.353274974
 21
70.976676135
  0
LINE
  5
38C
100
AcDbEntity
  8
0
100
AcDbLine
 62
7
  6
CONTINUOUS
 10
471.1960970004
 20
70.9545841214
 11
471.245072636
 21
70.9611602026
  0
LINE
  5
38D
100
AcDbEntity
  8
0
100
AcDbLine
 62
7
  6
CONTINUOUS
 10
471.0585645004
 20
70.9372369174
 11
471.1960970004
 21
70.9545841214
  0
LINE
  5
38E
100
AcDbEntity
  8
0
100
AcDbLine
 62
7
  6
CONTINUOUS
 10
470.8939561072
 20
70.9180847146
 11
471.0585645004
 21
70.9372369174
  0
LINE
  5
38F
100
AcDbEntity
  8
0
100
AcDbLine
 62
7
  6
CONTINUOUS
 10
470.696664628
 20
70.896720767
 11
470.8939561072
 21
70.9180847146
  0
LINE
  5
390
100
AcDbEntity
  8
0
100
AcDbLine
 62
7
  6
CONTINUOUS
 10
470.5472503028
 20
70.8813608166
 11
470.696664628
 21
70.896720767
  0
LINE
  5
391
100
AcDbEntity
  8
0
100
AcDbLine
 62
7
  6
CONTINUOUS
 10
470.273166494
 20
70.8544158994
 11
470.5472503028
 21
70.8813608166
  0
LINE
  5
392
100
AcDbEntity
  8
0
100
AcDbLine
 62
7
  6
CONTINUOUS
 10
469.9638535972
 20
70.8251272482
 11
470.273166494
 21
70.8544158994
  0
LINE
  5
393
100
AcDbEntity
  8
0
100
AcDbLine
 62
7
  6
CONTINUOUS
 10
469.781883438
 20
70.8081375118
 11
469.9638535972
 21
70.8251272482
  0
LINE
  5
394
100
AcDbEntity
  8
0
100
AcDbLine
 62
7
  6
CONTINUOUS
 10
442.781883438
 20
40.262343003
 11
428.781883438
 21
40.262343003
  0
LINE
  5
395
100
AcDbEntity
  8
0
100
AcDbLine
 62
7
  6
CONTINUOUS
 10
445.281883438
 20
40.262343003
 11
450.281883438
 21
40.262343003
  0
LINE
  5
396
100
AcDbEntity
  8
0
100
AcDbLine
 62
7
  6
CONTINUOUS
 10
452.781883438
 20
40.262343003
 11
466.781883438
 21
40.262343003
  0
LWPOLYLINE
  5
397
100
AcDbEntity
  8
0
100
AcDbPolyline
 62
7
  6
CONTINUOUS
 90
6
 70
0
 43
0.3499999917
 10
269.2136938477
 20
31.558140564
 10
263.3803491211
 20
32.214390564
 10
259.880357666
 20
32.870640564
 10
257.5470300293
 20
33.526890564
 10
255.2136767578
 20
34.183140564
 10
255.2136767578
 20
28.933140564
  0
LINE
  5
398
100
AcDbEntity
  8
0
100
AcDbLine
 62
7
  6
CONTINUOUS
 10
321.8848123924
 20
-79.6298468438
 11
321.8623018396
 21
-79.612931719
  0
LINE
  5
399
100
AcDbEntity
  8
0
100
AcDbLine
 62
7
  6
CONTINUOUS
 10
321.8623018396
 20
-79.612931719
 11
321.843329622
 21
-79.5967665158
  0
LINE
  5
39A
100
AcDbEntity
  8
0
100
AcDbLine
 62
7
  6
CONTINUOUS
 10
223.6301999616
 20
-80.0569537486
 11
223.6271090716
 21
-80.0523017402
  0
LINE
  5
39B
100
AcDbEntity
  8
0
100
AcDbLine
 62
7
  6
CONTINUOUS
 10
224.6388501504
 20
-80.1329367262
 11
224.6323996796
 21
-80.1231157874
  0
LINE
  5
39C
100
AcDbEntity
  8
0
100
AcDbLine
 62
7
  6
CONTINUOUS
 10
223.6331287096
 20
-80.0616057586
 11
223.6301999616
 21
-80.0569537486
  0
LINE
  5
39D
100
AcDbEntity
  8
0
100
AcDbLine
 62
7
  6
CONTINUOUS
 10
224.6478573588
 20
-80.1476681382
 11
224.6388501504
 21
-80.1329367262
  0
LINE
  5
39E
100
AcDbEntity
  8
0
100
AcDbLine
 62
7
  6
CONTINUOUS
 10
223.6359009072
 20
-80.0662577694
 11
223.6331287096
 21
-80.0616057586
  0
LINE
  5
39F
100
AcDbEntity
  8
0
100
AcDbLine
 62
7
  6
CONTINUOUS
 10
-224.2209864276
 20
-79.9877871934
 11
-224.2265144796
 21
-79.9923369386
  0
LINE
  5
3A0
100
AcDbEntity
  8
0
100
AcDbLine
 62
7
  6
CONTINUOUS
 10
-223.1744807808
 20
-81.1366758554
 11
-223.1698286772
 21
-81.1328805226
  0
LINE
  5
3A1
100
AcDbEntity
  8
0
100
AcDbLine
 62
7
  6
CONTINUOUS
 10
-225.2110418752
 20
-80.0403394926
 11
-225.2213613828
 21
-80.048757419
  0
LINE
  5
3A2
100
AcDbEntity
  8
0
100
AcDbLine
 62
7
  6
CONTINUOUS
 10
-224.2153409616
 20
-79.9832374518
 11
-224.2209864276
 21
-79.9877871934
  0
LINE
  5
3A3
100
AcDbEntity
  8
0
100
AcDbLine
 62
7
  6
CONTINUOUS
 10
-224.2095927588
 20
-79.9786877126
 11
-224.2153409616
 21
-79.9832374518
  0
LINE
  5
3A4
100
AcDbEntity
  8
0
100
AcDbLine
 62
7
  6
CONTINUOUS
 10
-224.2037564956
 20
-79.9741379762
 11
-224.2095927588
 21
-79.9786877126
  0
LINE
  5
3A5
100
AcDbEntity
  8
0
100
AcDbLine
 62
7
  6
CONTINUOUS
 10
-225.2511251648
 20
70.8557306538
 11
-225.2424329188
 21
70.859391859
  0
LINE
  5
3A6
100
AcDbEntity
  8
0
100
AcDbLine
 62
7
  6
CONTINUOUS
 10
-224.0311798348
 20
72.6804345126
 11
-224.0933698288
 21
72.655896577
  0
LINE
  5
3A7
100
AcDbEntity
  8
0
100
AcDbLine
 62
7
  6
CONTINUOUS
 10
-225.2424329188
 20
70.859391859
 11
-225.2331231108
 21
70.8630530586
  0
LINE
  5
3A8
100
AcDbEntity
  8
0
100
AcDbLine
 62
7
  6
CONTINUOUS
 10
470.0747766568
 20
71.8081375118
 11
470.0695185476
 21
71.8077221158
  0
LINE
  5
3A9
100
AcDbEntity
  8
0
100
AcDbLine
 62
7
  6
CONTINUOUS
 10
224.65624573
 20
-80.1623995542
 11
224.6478573588
 21
-80.1476681382
  0
LINE
  5
3AA
100
AcDbEntity
  8
0
100
AcDbLine
 62
7
  6
CONTINUOUS
 10
223.6385221452
 20
-80.0709097818
 11
223.6359009072
 21
-80.0662577694
  0
LINE
  5
3AB
100
AcDbEntity
  8
0
100
AcDbLine
 62
7
  6
CONTINUOUS
 10
224.664221542
 20
-80.177130973
 11
224.65624573
 21
-80.1623995542
  0
LINE
  5
3AC
100
AcDbEntity
  8
0
100
AcDbLine
 62
7
  6
CONTINUOUS
 10
223.6409980148
 20
-80.0755617954
 11
223.6385221452
 21
-80.0709097818
  0
LINE
  5
3AD
100
AcDbEntity
  8
0
100
AcDbLine
 62
7
  6
CONTINUOUS
 10
224.6719910752
 20
-80.1918623934
 11
224.664221542
 21
-80.177130973
  0
LINE
  5
3AE
100
AcDbEntity
  8
0
100
AcDbLine
 62
7
  6
CONTINUOUS
 10
223.6433341068
 20
-80.0802138102
 11
223.6409980148
 21
-80.0755617954
  0
LINE
  5
3AF
100
AcDbEntity
  8
0
100
AcDbLine
 62
7
  6
CONTINUOUS
 10
136.9719966304
 20
-63.108031029
 11
136.9719966304
 21
-59.9331300202
  0
LINE
  5
3B0
100
AcDbEntity
  8
0
100
AcDbLine
 62
7
  6
CONTINUOUS
 10
-223.1791329048
 20
-81.140286659
 11
-223.1744807808
 21
-81.1366758554
  0
LINE
  5
3B1
100
AcDbEntity
  8
0
100
AcDbLine
 62
7
  6
CONTINUOUS
 10
-224.1978468484
 20
-79.9695882418
 11
-224.2037564956
 21
-79.9741379762
  0
LINE
  5
3B2
100
AcDbEntity
  8
0
100
AcDbLine
 62
7
  6
CONTINUOUS
 10
-225.2000286268
 20
-80.0319215682
 11
-225.2110418752
 21
-80.0403394926
  0
LINE
  5
3B3
100
AcDbEntity
  8
0
100
AcDbLine
 62
7
  6
CONTINUOUS
 10
-224.1858661108
 20
-79.9604887774
 11
-224.1978468484
 21
-79.9695882418
  0
LINE
  5
3B4
100
AcDbEntity
  8
0
100
AcDbLine
 62
7
  6
CONTINUOUS
 10
-224.1737679588
 20
-79.9513893166
 11
-224.1858661108
 21
-79.9604887774
  0
LINE
  5
3B5
100
AcDbEntity
  8
0
100
AcDbLine
 62
7
  6
CONTINUOUS
 10
-223.1837850484
 20
-81.1437185258
 11
-223.1791329048
 21
-81.140286659
  0
LINE
  5
3B6
100
AcDbEntity
  8
0
100
AcDbLine
 62
7
  6
CONTINUOUS
 10
-225.2331231108
 20
70.8630530586
 11
-225.2248613648
 21
70.8661040538
  0
LINE
  5
3B7
100
AcDbEntity
  8
0
100
AcDbLine
 62
7
  6
CONTINUOUS
 10
-223.9680203488
 20
72.7029263654
 11
-224.0311798348
 21
72.6804345126
  0
LINE
  5
3B8
100
AcDbEntity
  8
0
100
AcDbLine
 62
7
  6
CONTINUOUS
 10
472.7818809944
 20
69.8081326242
 11
471.7818864184
 21
69.8081326242
  0
LINE
  5
3B9
100
AcDbEntity
  8
0
100
AcDbLine
 62
7
  6
CONTINUOUS
 10
211.871997918
 20
70.408142781
 11
211.6719945324
 21
70.408142781
  0
LINE
  5
3BA
100
AcDbEntity
  8
0
100
AcDbLine
 62
7
  6
CONTINUOUS
 10
-212.3280004608
 20
70.408142781
 11
-212.5280038464
 21
70.408142781
  0
LINE
  5
3BB
100
AcDbEntity
  8
0
100
AcDbLine
 62
7
  6
CONTINUOUS
 10
211.6719945324
 20
70.6081312654
 11
-212.3280004608
 21
70.6081312654
  0
LINE
  5
3BC
100
AcDbEntity
  8
0
100
AcDbLine
 62
7
  6
CONTINUOUS
 10
469.7818823652
 20
70.8081346506
 11
323.7818845108
 21
70.8081346506
  0
LINE
  5
3BD
100
AcDbEntity
  8
0
100
AcDbLine
 62
7
  6
CONTINUOUS
 10
320.781885882
 20
70.8081346506
 11
321.781880458
 21
70.8081346506
  0
LINE
  5
3BE
100
AcDbEntity
  8
0
100
AcDbLine
 62
7
  6
CONTINUOUS
 10
471.7818864184
 20
71.101031875
 11
470.7818843916
 21
71.101031875
  0
LINE
  5
3BF
100
AcDbEntity
  8
0
100
AcDbLine
 62
7
  6
CONTINUOUS
 10
321.781880458
 20
71.101031875
 11
322.7818824844
 21
71.101031875
  0
LINE
  5
3C0
100
AcDbEntity
  8
0
100
AcDbLine
 62
7
  6
CONTINUOUS
 10
323.4889872864
 20
71.8081366774
 11
322.98188587
 21
71.8081366774
  0
LINE
  5
3C1
100
AcDbEntity
  8
0
100
AcDbLine
 62
7
  6
CONTINUOUS
 10
470.0747795896
 20
71.8081366774
 11
470.581881006
 21
71.8081366774
  0
LINE
  5
3C2
100
AcDbEntity
  8
0
100
AcDbLine
 62
7
  6
CONTINUOUS
 10
-224.3280098784
 20
72.8081387038
 11
-223.090557848
 21
72.8081387038
  0
LINE
  5
3C3
100
AcDbEntity
  8
0
100
AcDbLine
 62
7
  6
CONTINUOUS
 10
223.67200395
 20
72.8081387038
 11
222.4345519196
 21
72.8081387038
  0
LINE
  5
3C4
100
AcDbEntity
  8
0
100
AcDbLine
 62
7
  6
CONTINUOUS
 10
-222.3280058252
 20
72.8081387038
 11
221.6719998968
 21
72.8081387038
  0
LINE
  5
3C5
100
AcDbEntity
  8
0
100
AcDbLine
 62
7
  6
CONTINUOUS
 10
320.781885882
 20
72.8081387038
 11
472.7818809944
 21
72.8081387038
  0
LINE
  5
3C6
100
AcDbEntity
  8
0
100
AcDbLine
 62
7
  6
CONTINUOUS
 10
-224.3280098784
 20
73.8081407306
 11
223.67200395
 21
73.8081407306
  0
LINE
  5
3C7
100
AcDbEntity
  8
0
100
AcDbLine
 62
7
  6
CONTINUOUS
 10
321.781880458
 20
73.8081407306
 11
471.7818864184
 21
73.8081407306
  0
LINE
  5
3C8
100
AcDbEntity
  8
0
100
AcDbLine
 62
7
  6
CONTINUOUS
 10
222.7388427264
 20
72.8070085602
 11
222.6719970356
 21
72.8081375118
  0
LINE
  5
3C9
100
AcDbEntity
  8
0
100
AcDbLine
 62
7
  6
CONTINUOUS
 10
222.805800774
 20
72.8036183374
 11
222.7388427264
 21
72.8070085602
  0
LINE
  5
3CA
100
AcDbEntity
  8
0
100
AcDbLine
 62
7
  6
CONTINUOUS
 10
222.872763948
 20
72.7979652974
 11
222.805800774
 21
72.8036183374
  0
LINE
  5
3CB
100
AcDbEntity
  8
0
100
AcDbLine
 62
7
  6
CONTINUOUS
 10
223.6326797856
 20
71.0057687518
 11
223.8144889124
 21
70.9860817426
  0
LINE
  5
3CC
100
AcDbEntity
  8
0
100
AcDbLine
 62
7
  6
CONTINUOUS
 10
223.8144889124
 20
70.9860817426
 11
223.9203790572
 21
70.9742696598
  0
LINE
  5
3CD
100
AcDbEntity
  8
0
100
AcDbLine
 62
7
  6
CONTINUOUS
 10
223.9203790572
 20
70.9742696598
 11
223.9886169544
 21
70.9663950282
  0
LINE
  5
3CE
100
AcDbEntity
  8
0
100
AcDbLine
 62
7
  6
CONTINUOUS
 10
222.9396226124
 20
72.7900527586
 11
222.872763948
 21
72.7979652974
  0
LINE
  5
3CF
100
AcDbEntity
  8
0
100
AcDbLine
 62
7
  6
CONTINUOUS
 10
223.9886169544
 20
70.9663950282
 11
224.0543969044
 21
70.9585204906
  0
LINE
  5
3D0
100
AcDbEntity
  8
0
100
AcDbLine
 62
7
  6
CONTINUOUS
 10
224.0543969044
 20
70.9585204906
 11
224.1150882484
 21
70.9509219114
  0
LINE
  5
3D1
100
AcDbEntity
  8
0
100
AcDbLine
 62
7
  6
CONTINUOUS
 10
224.1150882484
 20
70.9509219114
 11
224.17073095
 21
70.9435992806
  0
LINE
  5
3D2
100
AcDbEntity
  8
0
100
AcDbLine
 62
7
  6
CONTINUOUS
 10
224.17073095
 20
70.9435992806
 11
224.2234955228
 21
70.936276735
  0
LINE
  5
3D3
100
AcDbEntity
  8
0
100
AcDbLine
 62
7
  6
CONTINUOUS
 10
224.2234955228
 20
70.936276735
 11
224.2733053988
 21
70.9289542606
  0
LINE
  5
3D4
100
AcDbEntity
  8
0
100
AcDbLine
 62
7
  6
CONTINUOUS
 10
223.0062654604
 20
72.7798890762
 11
222.9396226124
 21
72.7900527586
  0
LINE
  5
3D5
100
AcDbEntity
  8
0
100
AcDbLine
 62
7
  6
CONTINUOUS
 10
224.2733053988
 20
70.9289542606
 11
224.2970783976
 21
70.9252930458
  0
LINE
  5
3D6
100
AcDbEntity
  8
0
100
AcDbLine
 62
7
  6
CONTINUOUS
 10
224.2970783976
 20
70.9252930458
 11
224.3200840088
 21
70.9216318434
  0
LINE
  5
3D7
100
AcDbEntity
  8
0
100
AcDbLine
 62
7
  6
CONTINUOUS
 10
224.3200840088
 20
70.9216318434
 11
224.3423126612
 21
70.9179706522
  0
LINE
  5
3D8
100
AcDbEntity
  8
0
100
AcDbLine
 62
7
  6
CONTINUOUS
 10
224.3423126612
 20
70.9179706522
 11
224.363754784
 21
70.9143094698
  0
LINE
  5
3D9
100
AcDbEntity
  8
0
100
AcDbLine
 62
7
  6
CONTINUOUS
 10
224.363754784
 20
70.9143094698
 11
224.3844008056
 21
70.9106482954
  0
LINE
  5
3DA
100
AcDbEntity
  8
0
100
AcDbLine
 62
7
  6
CONTINUOUS
 10
224.3844008056
 20
70.9106482954
 11
224.4042411552
 21
70.9069871262
  0
LINE
  5
3DB
100
AcDbEntity
  8
0
100
AcDbLine
 62
7
  6
CONTINUOUS
 10
223.0725802972
 20
72.7674877318
 11
223.0062654604
 21
72.7798890762
  0
LINE
  5
3DC
100
AcDbEntity
  8
0
100
AcDbLine
 62
7
  6
CONTINUOUS
 10
224.4042411552
 20
70.9069871262
 11
224.423266262
 21
70.903325961
  0
LINE
  5
3DD
100
AcDbEntity
  8
0
100
AcDbLine
 62
7
  6
CONTINUOUS
 10
224.423266262
 20
70.903325961
 11
224.441466554
 21
70.8996647982
  0
LINE
  5
3DE
100
AcDbEntity
  8
0
100
AcDbLine
 62
7
  6
CONTINUOUS
 10
224.441466554
 20
70.8996647982
 11
224.4559964928
 21
70.8966138298
  0
LINE
  5
3DF
100
AcDbEntity
  8
0
100
AcDbLine
 62
7
  6
CONTINUOUS
 10
224.4559964928
 20
70.8966138298
 11
224.4699414584
 21
70.8935628606
  0
LINE
  5
3E0
100
AcDbEntity
  8
0
100
AcDbLine
 62
7
  6
CONTINUOUS
 10
224.4699414584
 20
70.8935628606
 11
224.483295912
 21
70.8905118894
  0
LINE
  5
3E1
100
AcDbEntity
  8
0
100
AcDbLine
 62
7
  6
CONTINUOUS
 10
224.483295912
 20
70.8905118894
 11
224.4960543148
 21
70.8874609158
  0
LINE
  5
3E2
100
AcDbEntity
  8
0
100
AcDbLine
 62
7
  6
CONTINUOUS
 10
224.4960543148
 20
70.8874609158
 11
224.508211128
 21
70.8844099386
  0
LINE
  5
3E3
100
AcDbEntity
  8
0
100
AcDbLine
 62
7
  6
CONTINUOUS
 10
224.508211128
 20
70.8844099386
 11
224.5197608124
 21
70.881358957
  0
LWPOLYLINE
  5
3E4
100
AcDbEntity
  8
0
100
AcDbPolyline
 62
7
  6
CONTINUOUS
 90
8
 70
0
 43
0.3499999917
 10
257.5470300293
 20
39.433140564
 10
256.3803662109
 20
40.089390564
 10
255.2136767578
 20
41.401890564
 10
255.2136767578
 20
42.714390564
 10
256.3803662109
 20
44.026890564
 10
257.5470300293
 20
44.683140564
 10
259.880357666
 20
44.683140564
 10
261.0470214844
 20
44.026890564
  0
LINE
  5
3E5
100
AcDbEntity
  8
0
100
AcDbLine
 62
7
  6
CONTINUOUS
 10
321.843329622
 20
-79.5967665158
 11
321.8275124732
 21
-79.5812779402
  0
LWPOLYLINE
  5
3E6
100
AcDbEntity
  8
0
100
AcDbPolyline
 62
7
  6
CONTINUOUS
 90
5
 70
0
 43
0.3499999917
 10
259.2135205078
 20
-33.2231123543
 10
261.5468481445
 20
-35.8481127548
 10
263.8801757812
 20
-37.1606127548
 10
267.3801928711
 20
-37.8168627548
 10
267.3801928711
 20
-32.5668623543
  0
LINE
  5
3E7
100
AcDbEntity
  8
0
100
AcDbLine
 62
7
  6
CONTINUOUS
 10
223.6455360124
 20
-80.0848658262
 11
223.6433341068
 21
-80.0802138102
  0
LINE
  5
3E8
100
AcDbEntity
  8
0
100
AcDbLine
 62
7
  6
CONTINUOUS
 10
223.6476093232
 20
-80.089517843
 11
223.6455360124
 21
-80.0848658262
  0
LINE
  5
3E9
100
AcDbEntity
  8
0
100
AcDbLine
 62
7
  6
CONTINUOUS
 10
223.6495596296
 20
-80.094169861
 11
223.6476093232
 21
-80.089517843
  0
LINE
  5
3EA
100
AcDbEntity
  8
0
100
AcDbLine
 62
7
  6
CONTINUOUS
 10
222.3942003128
 20
-81.829380703
 11
222.4026179892
 21
-81.8509116386
  0
LINE
  5
3EB
100
AcDbEntity
  8
0
100
AcDbLine
 62
7
  6
CONTINUOUS
 10
-225.1882830956
 20
-80.0235036466
 11
-225.2000286268
 21
-80.0319215682
  0
LINE
  5
3EC
100
AcDbEntity
  8
0
100
AcDbLine
 62
7
  6
CONTINUOUS
 10
-223.1884372104
 20
-81.1469770478
 11
-223.1837850484
 21
-81.1437185258
  0
LINE
  5
3ED
100
AcDbEntity
  8
0
100
AcDbLine
 62
7
  6
CONTINUOUS
 10
-225.2248613648
 20
70.8661040538
 11
-225.2161145956
 21
70.8691550442
  0
LINE
  5
3EE
100
AcDbEntity
  8
0
100
AcDbLine
 62
7
  6
CONTINUOUS
 10
-225.2161145956
 20
70.8691550442
 11
-225.2068572764
 21
70.8722060302
  0
LINE
  5
3EF
100
AcDbEntity
  8
0
100
AcDbLine
 62
7
  6
CONTINUOUS
 10
-223.9039899892
 20
72.7233296078
 11
-223.9680203488
 21
72.7029263654
  0
LINE
  5
3F0
100
AcDbEntity
  8
0
100
AcDbLine
 62
7
  6
CONTINUOUS
 10
-223.3280029644
 20
72.8081375118
 11
-223.3948486552
 21
72.8070085602
  0
LINE
  5
3F1
100
AcDbEntity
  8
0
100
AcDbLine
 62
7
  6
CONTINUOUS
 10
323.4942483284
 20
71.8077221158
 11
323.4889902192
 21
71.8081375118
  0
LINE
  5
3F2
100
AcDbEntity
  8
0
100
AcDbLine
 62
7
  6
CONTINUOUS
 10
323.4690156264
 20
70.8374287182
 11
323.781883438
 21
70.8081375118
  0
LINE
  5
3F3
100
AcDbEntity
  8
0
100
AcDbLine
 62
7
  6
CONTINUOUS
 10
323.290600382
 20
70.8544158994
 11
323.4690156264
 21
70.8374287182
  0
LINE
  5
3F4
100
AcDbEntity
  8
0
100
AcDbLine
 62
7
  6
CONTINUOUS
 10
323.0165165732
 20
70.8813608166
 11
323.290600382
 21
70.8544158994
  0
LINE
  5
3F5
100
AcDbEntity
  8
0
100
AcDbLine
 62
7
  6
CONTINUOUS
 10
322.867102248
 20
70.896720767
 11
323.0165165732
 21
70.8813608166
  0
LINE
  5
3F6
100
AcDbEntity
  8
0
100
AcDbLine
 62
7
  6
CONTINUOUS
 10
322.6698107688
 20
70.9180847146
 11
322.867102248
 21
70.896720767
  0
LINE
  5
3F7
100
AcDbEntity
  8
0
100
AcDbLine
 62
7
  6
CONTINUOUS
 10
322.5052023756
 20
70.9372369174
 11
322.6698107688
 21
70.9180847146
  0
LINE
  5
3F8
100
AcDbEntity
  8
0
100
AcDbLine
 62
7
  6
CONTINUOUS
 10
322.3676698756
 20
70.9545841214
 11
322.5052023756
 21
70.9372369174
  0
LINE
  5
3F9
100
AcDbEntity
  8
0
100
AcDbLine
 62
7
  6
CONTINUOUS
 10
322.31869424
 20
70.9611602026
 11
322.3676698756
 21
70.9545841214
  0
LINE
  5
3FA
100
AcDbEntity
  8
0
100
AcDbLine
 62
7
  6
CONTINUOUS
 10
322.210491902
 20
70.976676135
 11
322.31869424
 21
70.9611602026
  0
LINE
  5
3FB
100
AcDbEntity
  8
0
100
AcDbLine
 62
7
  6
CONTINUOUS
 10
323.4942597836
 20
72.8073304402
 11
323.4889902192
 21
72.8081375118
  0
LINE
  5
3FC
100
AcDbEntity
  8
0
100
AcDbLine
 62
7
  6
CONTINUOUS
 10
322.1200438076
 20
70.991028597
 11
322.210491902
 21
70.976676135
  0
LINE
  5
3FD
100
AcDbEntity
  8
0
100
AcDbLine
 62
7
  6
CONTINUOUS
 10
322.0451339604
 20
71.0042941982
 11
322.1200438076
 21
70.991028597
  0
LINE
  5
3FE
100
AcDbEntity
  8
0
100
AcDbLine
 62
7
  6
CONTINUOUS
 10
223.1177248848
 20
72.7577185486
 11
223.0725802972
 21
72.7674877318
  0
LINE
  5
3FF
100
AcDbEntity
  8
0
100
AcDbLine
 62
7
  6
CONTINUOUS
 10
223.1831855076
 20
72.7416053038
 11
223.1177248848
 21
72.7577185486
  0
LINE
  5
400
100
AcDbEntity
  8
0
100
AcDbLine
 62
7
  6
CONTINUOUS
 10
224.5197608124
 20
70.881358957
 11
224.530702948
 21
70.8783079866
  0
LINE
  5
401
100
AcDbEntity
  8
0
100
AcDbLine
 62
7
  6
CONTINUOUS
 10
223.2479840608
 20
72.7233296078
 11
223.1831855076
 21
72.7416053038
  0
LINE
  5
402
100
AcDbEntity
  8
0
100
AcDbLine
 62
7
  6
CONTINUOUS
 10
224.530702948
 20
70.8783079866
 11
224.5410579508
 21
70.875257011
  0
LINE
  5
403
100
AcDbEntity
  8
0
100
AcDbLine
 62
7
  6
CONTINUOUS
 10
224.5410579508
 20
70.875257011
 11
224.550851348
 21
70.8722060302
  0
LINE
  5
404
100
AcDbEntity
  8
0
100
AcDbLine
 62
7
  6
CONTINUOUS
 10
223.3120144204
 20
72.7029263654
 11
223.2479840608
 21
72.7233296078
  0
LINE
  5
405
100
AcDbEntity
  8
0
100
AcDbLine
 62
7
  6
CONTINUOUS
 10
224.550851348
 20
70.8722060302
 11
224.5601086672
 21
70.8691550442
  0
LINE
  5
406
100
AcDbEntity
  8
0
100
AcDbLine
 62
7
  6
CONTINUOUS
 10
224.5601086672
 20
70.8691550442
 11
224.5688554364
 21
70.8661040538
  0
LINE
  5
407
100
AcDbEntity
  8
0
100
AcDbLine
 62
7
  6
CONTINUOUS
 10
223.3751739064
 20
72.6804345126
 11
223.3120144204
 21
72.7029263654
  0
LINE
  5
408
100
AcDbEntity
  8
0
100
AcDbLine
 62
7
  6
CONTINUOUS
 10
224.5688554364
 20
70.8661040538
 11
224.5771171824
 21
70.8630530586
  0
LINE
  5
409
100
AcDbEntity
  8
0
100
AcDbLine
 62
7
  6
CONTINUOUS
 10
224.5771171824
 20
70.8630530586
 11
224.5864269904
 21
70.859391859
  0
LINE
  5
40A
100
AcDbEntity
  8
0
100
AcDbLine
 62
7
  6
CONTINUOUS
 10
223.4373639004
 20
72.655896577
 11
223.3751739064
 21
72.6804345126
  0
LINE
  5
40B
100
AcDbEntity
  8
0
100
AcDbLine
 62
7
  6
CONTINUOUS
 10
224.5864269904
 20
70.859391859
 11
224.5951192364
 21
70.8557306538
  0
LINE
  5
40C
100
AcDbEntity
  8
0
100
AcDbLine
 62
7
  6
CONTINUOUS
 10
223.4986799948
 20
72.6292766506
 11
223.4373639004
 21
72.655896577
  0
LINE
  5
40D
100
AcDbEntity
  8
0
100
AcDbLine
 62
7
  6
CONTINUOUS
 10
224.5951192364
 20
70.8557306538
 11
224.6032380324
 21
70.852069443
  0
LINE
  5
40E
100
AcDbEntity
  8
0
100
AcDbLine
 62
7
  6
CONTINUOUS
 10
223.559239406
 20
72.6005224402
 11
223.4986799948
 21
72.6292766506
  0
LINE
  5
40F
100
AcDbEntity
  8
0
100
AcDbLine
 62
7
  6
CONTINUOUS
 10
224.6032380324
 20
70.852069443
 11
224.6108274896
 21
70.8484082278
  0
LINE
  5
410
100
AcDbEntity
  8
0
100
AcDbLine
 62
7
  6
CONTINUOUS
 10
224.6108274896
 20
70.8484082278
 11
224.61793172
 21
70.8447470078
  0
LINE
  5
411
100
AcDbEntity
  8
0
100
AcDbLine
 62
7
  6
CONTINUOUS
 10
223.6189414932
 20
72.5696738206
 11
223.559239406
 21
72.6005224402
  0
LINE
  5
412
100
AcDbEntity
  8
0
100
AcDbLine
 62
7
  6
CONTINUOUS
 10
224.61793172
 20
70.8447470078
 11
224.6261968584
 21
70.840170477
  0
LINE
  5
413
100
AcDbEntity
  8
0
100
AcDbLine
 62
7
  6
CONTINUOUS
 10
223.6776852452
 20
72.5367761618
 11
223.6189414932
 21
72.5696738206
  0
LINE
  5
414
100
AcDbEntity
  8
0
100
AcDbLine
 62
7
  6
CONTINUOUS
 10
224.6261968584
 20
70.840170477
 11
224.6338589092
 21
70.8355939406
  0
LINE
  5
415
100
AcDbEntity
  8
0
100
AcDbLine
 62
7
  6
CONTINUOUS
 10
223.7353700412
 20
72.5018802034
 11
223.6776852452
 21
72.5367761618
  0
LINE
  5
416
100
AcDbEntity
  8
0
100
AcDbLine
 62
7
  6
CONTINUOUS
 10
224.6338589092
 20
70.8355939406
 11
224.641004028
 21
70.8310173998
  0
LINE
  5
417
100
AcDbEntity
  8
0
100
AcDbLine
 62
7
  6
CONTINUOUS
 10
321.8275124732
 20
-79.5812779402
 11
321.814509142
 21
-79.5663910678
  0
LINE
  5
418
100
AcDbEntity
  8
0
100
AcDbLine
 62
7
  6
CONTINUOUS
 10
223.6513925232
 20
-80.0988218798
 11
223.6495596296
 21
-80.094169861
  0
LINE
  5
419
100
AcDbEntity
  8
0
100
AcDbLine
 62
7
  6
CONTINUOUS
 10
222.3857826604
 20
-81.8071657778
 11
222.3942003128
 21
-81.829380703
  0
LINE
  5
41A
100
AcDbEntity
  8
0
100
AcDbLine
 62
7
  6
CONTINUOUS
 10
223.6531135948
 20
-80.1034738998
 11
223.6513925232
 21
-80.0988218798
  0
LINE
  5
41B
100
AcDbEntity
  8
0
100
AcDbLine
 62
7
  6
CONTINUOUS
 10
222.37736503
 20
-81.7842773074
 11
222.3857826604
 21
-81.8071657778
  0
LINE
  5
41C
100
AcDbEntity
  8
0
100
AcDbLine
 62
7
  6
CONTINUOUS
 10
222.3675444864
 20
-81.7567367398
 11
222.37736503
 21
-81.7842773074
  0
LINE
  5
41D
100
AcDbEntity
  8
0
100
AcDbLine
 62
7
  6
CONTINUOUS
 10
222.3577239672
 20
-81.7283102034
 11
222.3675444864
 21
-81.7567367398
  0
LINE
  5
41E
100
AcDbEntity
  8
0
100
AcDbLine
 62
7
  6
CONTINUOUS
 10
223.6554394648
 20
-80.1102730074
 11
223.6531135948
 21
-80.1034738998
  0
LINE
  5
41F
100
AcDbEntity
  8
0
100
AcDbLine
 62
7
  6
CONTINUOUS
 10
222.3479034688
 20
-81.699014283
 11
222.3577239672
 21
-81.7283102034
  0
LINE
  5
420
100
AcDbEntity
  8
0
100
AcDbLine
 62
7
  6
CONTINUOUS
 10
222.3380829888
 20
-81.6688655646
 11
222.3479034688
 21
-81.699014283
  0
LINE
  5
421
100
AcDbEntity
  8
0
100
AcDbLine
 62
7
  6
CONTINUOUS
 10
222.3282625244
 20
-81.6378806322
 11
222.3380829888
 21
-81.6688655646
  0
LINE
  5
422
100
AcDbEntity
  8
0
100
AcDbLine
 62
7
  6
CONTINUOUS
 10
-136.6508738148
 20
-60.6918617582
 11
-136.5261361944
 21
-60.5904593562
  0
LINE
  5
423
100
AcDbEntity
  8
0
100
AcDbLine
 62
7
  6
CONTINUOUS
 10
-225.1757667412
 20
-80.015085727
 11
-225.1882830956
 21
-80.0235036466
  0
LINE
  5
424
100
AcDbEntity
  8
0
100
AcDbLine
 62
7
  6
CONTINUOUS
 10
-223.1930893912
 20
-81.1500678162
 11
-223.1884372104
 21
-81.1469770478
  0
LINE
  5
425
100
AcDbEntity
  8
0
100
AcDbLine
 62
7
  6
CONTINUOUS
 10
-225.2068572764
 20
70.8722060302
 11
-225.1970638792
 21
70.875257011
  0
LINE
  5
426
100
AcDbEntity
  8
0
100
AcDbLine
 62
7
  6
CONTINUOUS
 10
-225.1970638792
 20
70.875257011
 11
-225.1867088764
 21
70.8783079866
  0
LINE
  5
427
100
AcDbEntity
  8
0
100
AcDbLine
 62
7
  6
CONTINUOUS
 10
-223.3948486552
 20
72.8070085602
 11
-223.4618067024
 21
72.8036183374
  0
LINE
  5
428
100
AcDbEntity
  8
0
100
AcDbLine
 62
7
  6
CONTINUOUS
 10
323.6271153064
 20
70.8371375478
 11
323.781883438
 21
70.8081375118
  0
LINE
  5
429
100
AcDbEntity
  8
0
100
AcDbLine
 62
7
  6
CONTINUOUS
 10
323.5037341512
 20
70.8607533002
 11
323.6271153064
 21
70.8371375478
  0
LINE
  5
42A
100
AcDbEntity
  8
0
100
AcDbLine
 62
7
  6
CONTINUOUS
 10
323.402973968
 20
70.8806752586
 11
323.5037341512
 21
70.8607533002
  0
LINE
  5
42B
100
AcDbEntity
  8
0
100
AcDbLine
 62
7
  6
CONTINUOUS
 10
321.9837651244
 20
71.0165360098
 11
322.0451339604
 21
71.0042941982
  0
LINE
  5
42C
100
AcDbEntity
  8
0
100
AcDbLine
 62
7
  6
CONTINUOUS
 10
323.31751841
 20
70.898257015
 11
323.402973968
 21
70.8806752586
  0
LINE
  5
42D
100
AcDbEntity
  8
0
100
AcDbLine
 62
7
  6
CONTINUOUS
 10
323.2437930748
 20
70.9141369398
 11
323.31751841
 21
70.898257015
  0
LINE
  5
42E
100
AcDbEntity
  8
0
100
AcDbLine
 62
7
  6
CONTINUOUS
 10
323.1796630732
 20
70.9286771478
 11
323.2437930748
 21
70.9141369398
  0
LINE
  5
42F
100
AcDbEntity
  8
0
100
AcDbLine
 62
7
  6
CONTINUOUS
 10
321.9341243732
 20
71.0278074258
 11
321.9837651244
 21
71.0165360098
  0
LINE
  5
430
100
AcDbEntity
  8
0
100
AcDbLine
 62
7
  6
CONTINUOUS
 10
323.4995658616
 20
71.8064628582
 11
323.4942483284
 21
71.8077221158
  0
LINE
  5
431
100
AcDbEntity
  8
0
100
AcDbLine
 62
7
  6
CONTINUOUS
 10
323.1236812288
 20
70.9421072282
 11
323.1796630732
 21
70.9286771478
  0
LINE
  5
432
100
AcDbEntity
  8
0
100
AcDbLine
 62
7
  6
CONTINUOUS
 10
323.0747766568
 20
70.9545841214
 11
323.1236812288
 21
70.9421072282
  0
LINE
  5
433
100
AcDbEntity
  8
0
100
AcDbLine
 62
7
  6
CONTINUOUS
 10
321.8982186224
 20
71.037126529
 11
321.9341243732
 21
71.0278074258
  0
LINE
  5
434
100
AcDbEntity
  8
0
100
AcDbLine
 62
7
  6
CONTINUOUS
 10
323.043560546
 20
70.9630202842
 11
323.0747766568
 21
70.9545841214
  0
LINE
  5
435
100
AcDbEntity
  8
0
100
AcDbLine
 62
7
  6
CONTINUOUS
 10
323.00417248
 20
70.9743348314
 11
323.043560546
 21
70.9630202842
  0
LINE
  5
436
100
AcDbEntity
  8
0
100
AcDbLine
 62
7
  6
CONTINUOUS
 10
321.8657459368
 20
71.0468654234
 11
321.8982186224
 21
71.037126529
  0
LINE
  5
437
100
AcDbEntity
  8
0
100
AcDbLine
 62
7
  6
CONTINUOUS
 10
223.7918964248
 20
72.4650418322
 11
223.7353700412
 21
72.5018802034
  0
LINE
  5
438
100
AcDbEntity
  8
0
100
AcDbLine
 62
7
  6
CONTINUOUS
 10
224.641004028
 20
70.8310173998
 11
224.6477183696
 21
70.8264408546
  0
LINE
  5
439
100
AcDbEntity
  8
0
100
AcDbLine
 62
7
  6
CONTINUOUS
 10
223.8298760104
 20
72.4387333334
 11
223.7918964248
 21
72.4650418322
  0
LINE
  5
43A
100
AcDbEntity
  8
0
100
AcDbLine
 62
7
  6
CONTINUOUS
 10
224.6477183696
 20
70.8264408546
 11
224.6561496384
 21
70.8203387898
  0
LINE
  5
43B
100
AcDbEntity
  8
0
100
AcDbLine
 62
7
  6
CONTINUOUS
 10
223.8841906876
 20
72.3987936362
 11
223.8298760104
 21
72.4387333334
  0
LINE
  5
43C
100
AcDbEntity
  8
0
100
AcDbLine
 62
7
  6
CONTINUOUS
 10
224.6561496384
 20
70.8203387898
 11
224.6641724668
 21
70.8142367214
  0
LINE
  5
43D
100
AcDbEntity
  8
0
100
AcDbLine
 62
7
  6
CONTINUOUS
 10
224.6641724668
 20
70.8142367214
 11
224.6719910752
 21
70.8081346506
  0
LINE
  5
43E
100
AcDbEntity
  8
0
100
AcDbLine
 62
7
  6
CONTINUOUS
 10
223.937064422
 20
72.3571108754
 11
223.8841906876
 21
72.3987936362
  0
LINE
  5
43F
100
AcDbEntity
  8
0
100
AcDbLine
 62
7
  6
CONTINUOUS
 10
223.98841183
 20
72.3137585946
 11
223.937064422
 21
72.3571108754
  0
LINE
  5
440
100
AcDbEntity
  8
0
100
AcDbLine
 62
7
  6
CONTINUOUS
 10
224.0381523396
 20
72.2688127538
 11
223.98841183
 21
72.3137585946
  0
LINE
  5
441
100
AcDbEntity
  8
0
100
AcDbLine
 62
7
  6
CONTINUOUS
 10
224.086210598
 20
72.2223510742
 11
224.0381523396
 21
72.2688127538
  0
LINE
  5
442
100
AcDbEntity
  8
0
100
AcDbLine
 62
7
  6
CONTINUOUS
 10
224.132672278
 20
72.1742928154
 11
224.086210598
 21
72.2223510742
  0
LINE
  5
443
100
AcDbEntity
  8
0
100
AcDbLine
 62
7
  6
CONTINUOUS
 10
321.814509142
 20
-79.5663910678
 11
321.80401967
 21
-79.5520267562
  0
LINE
  5
444
100
AcDbEntity
  8
0
100
AcDbLine
 62
7
  6
CONTINUOUS
 10
223.6575558708
 20
-80.1170721166
 11
223.6554394648
 21
-80.1102730074
  0
LINE
  5
445
100
AcDbEntity
  8
0
100
AcDbLine
 62
7
  6
CONTINUOUS
 10
222.3184420716
 20
-81.6060760722
 11
222.3282625244
 21
-81.6378806322
  0
LINE
  5
446
100
AcDbEntity
  8
0
100
AcDbLine
 62
7
  6
CONTINUOUS
 10
222.3083837476
 20
-81.572675849
 11
222.3184420716
 21
-81.6060760722
  0
LINE
  5
447
100
AcDbEntity
  8
0
100
AcDbLine
 62
7
  6
CONTINUOUS
 10
222.2983254328
 20
-81.5384933798
 11
222.3083837476
 21
-81.572675849
  0
LINE
  5
448
100
AcDbEntity
  8
0
100
AcDbLine
 62
7
  6
CONTINUOUS
 10
222.288267126
 20
-81.5035888378
 11
222.2983254328
 21
-81.5384933798
  0
LINE
  5
449
100
AcDbEntity
  8
0
100
AcDbLine
 62
7
  6
CONTINUOUS
 10
223.6594802684
 20
-80.1238712278
 11
223.6575558708
 21
-80.1170721166
  0
LINE
  5
44A
100
AcDbEntity
  8
0
100
AcDbLine
 62
7
  6
CONTINUOUS
 10
222.2681505344
 20
-81.4318542254
 11
222.288267126
 21
-81.5035888378
  0
LINE
  5
44B
100
AcDbEntity
  8
0
100
AcDbLine
 62
7
  6
CONTINUOUS
 10
222.2480339672
 20
-81.3579533942
 11
222.2681505344
 21
-81.4318542254
  0
LINE
  5
44C
100
AcDbEntity
  8
0
100
AcDbLine
 62
7
  6
CONTINUOUS
 10
222.2279174196
 20
-81.2823677254
 11
222.2480339672
 21
-81.3579533942
  0
LINE
  5
44D
100
AcDbEntity
  8
0
100
AcDbLine
 62
7
  6
CONTINUOUS
 10
222.1776260984
 20
-81.089191461
 11
222.2279174196
 21
-81.2823677254
  0
LINE
  5
44E
100
AcDbEntity
  8
0
100
AcDbLine
 62
7
  6
CONTINUOUS
 10
223.6612301128
 20
-80.1306703402
 11
223.6594802684
 21
-80.1238712278
  0
LINE
  5
44F
100
AcDbEntity
  8
0
100
AcDbLine
 62
7
  6
CONTINUOUS
 10
-225.1624491128
 20
-80.006667765
 11
-225.1757667412
 21
-80.015085727
  0
LINE
  5
450
100
AcDbEntity
  8
0
100
AcDbLine
 62
7
  6
CONTINUOUS
 10
-223.1977415896
 20
-81.152996423
 11
-223.1930893912
 21
-81.1500678162
  0
LINE
  5
451
100
AcDbEntity
  8
0
100
AcDbLine
 62
7
  6
CONTINUOUS
 10
-224.5763849856
 20
70.9742696598
 11
-224.4704948408
 21
70.9860817426
  0
LINE
  5
452
100
AcDbEntity
  8
0
100
AcDbLine
 62
7
  6
CONTINUOUS
 10
-224.4704948408
 20
70.9860817426
 11
-224.288685714
 21
71.0057687518
  0
LINE
  5
453
100
AcDbEntity
  8
0
100
AcDbLine
 62
7
  6
CONTINUOUS
 10
-223.4618067024
 20
72.8036183374
 11
-223.5287698764
 21
72.7979652974
  0
LWPOLYLINE
  5
454
100
AcDbEntity
  8
0
100
AcDbPolyline
 62
7
  6
CONTINUOUS
 90
14
 70
0
 43
0.3499999917
 10
399.406875
 20
115.6622753906
 10
395.469375
 20
115.6622753906
 10
394.813125
 20
109.8289434814
 10
396.125625
 20
110.9956072998
 10
397.438125
 20
110.9956072998
 10
398.750625
 20
109.8289434814
 10
399.406875
 20
108.6622796631
 10
400.063125
 20
106.3289520264
 10
399.406875
 20
103.9956115723
 10
398.750625
 20
102.8289477539
 10
397.438125
 20
101.6622839355
 10
396.125625
 20
101.6622839355
 10
394.813125
 20
102.8289477539
 10
394.156875
 20
103.9956115723
  0
LINE
  5
455
100
AcDbEntity
  8
0
100
AcDbLine
 62
7
  6
CONTINUOUS
 10
322.9693692652
 20
70.9851111154
 11
323.00417248
 21
70.9743348314
  0
LINE
  5
456
100
AcDbEntity
  8
0
100
AcDbLine
 62
7
  6
CONTINUOUS
 10
322.9387632464
 20
70.9953696462
 11
322.9693692652
 21
70.9851111154
  0
LINE
  5
457
100
AcDbEntity
  8
0
100
AcDbLine
 62
7
  6
CONTINUOUS
 10
321.8404701148
 20
71.0558281182
 11
321.8657459368
 21
71.0468654234
  0
LINE
  5
458
100
AcDbEntity
  8
0
100
AcDbLine
 62
7
  6
CONTINUOUS
 10
322.9119896752
 20
71.0051294434
 11
322.9387632464
 21
70.9953696462
  0
LINE
  5
459
100
AcDbEntity
  8
0
100
AcDbLine
 62
7
  6
CONTINUOUS
 10
323.505006032
 20
71.8043103378
 11
323.4995658616
 21
71.8064628582
  0
LINE
  5
45A
100
AcDbEntity
  8
0
100
AcDbLine
 62
7
  6
CONTINUOUS
 10
322.8887049884
 20
71.0144084962
 11
322.9119896752
 21
71.0051294434
  0
LINE
  5
45B
100
AcDbEntity
  8
0
100
AcDbLine
 62
7
  6
CONTINUOUS
 10
224.1776181188
 20
72.1245523058
 11
224.132672278
 21
72.1742928154
  0
LWPOLYLINE
  5
45C
100
AcDbEntity
  8
0
100
AcDbPolyline
 62
7
  6
CONTINUOUS
 90
5
 70
0
 43
0.3499999917
 10
261.0470214844
 20
44.026890564
 10
263.3803491211
 20
41.401890564
 10
265.7136767578
 20
40.089390564
 10
269.2136938477
 20
39.433140564
 10
269.2136938477
 20
44.683140564
  0
LINE
  5
45D
100
AcDbEntity
  8
0
100
AcDbLine
 62
7
  6
CONTINUOUS
 10
224.2209703996
 20
72.0732048978
 11
224.1776181188
 21
72.1245523058
  0
LINE
  5
45E
100
AcDbEntity
  8
0
100
AcDbLine
 62
7
  6
CONTINUOUS
 10
224.2626531604
 20
72.0203311638
 11
224.2209703996
 21
72.0732048978
  0
LINE
  5
45F
100
AcDbEntity
  8
0
100
AcDbLine
 62
7
  6
CONTINUOUS
 10
224.3025928576
 20
71.9660164866
 11
224.2626531604
 21
72.0203311638
  0
LINE
  5
460
100
AcDbEntity
  8
0
100
AcDbLine
 62
7
  6
CONTINUOUS
 10
224.340718992
 20
71.9103505586
 11
224.3025928576
 21
71.9660164866
  0
LINE
  5
461
100
AcDbEntity
  8
0
100
AcDbLine
 62
7
  6
CONTINUOUS
 10
224.3657397276
 20
71.871510517
 11
224.340718992
 21
71.9103505586
  0
LINE
  5
462
100
AcDbEntity
  8
0
100
AcDbLine
 62
7
  6
CONTINUOUS
 10
224.4006356856
 20
71.813825721
 11
224.3657397276
 21
71.871510517
  0
LINE
  5
463
100
AcDbEntity
  8
0
100
AcDbLine
 62
7
  6
CONTINUOUS
 10
223.6628228596
 20
-80.1374694538
 11
223.6612301128
 21
-80.1306703402
  0
LINE
  5
464
100
AcDbEntity
  8
0
100
AcDbLine
 62
7
  6
CONTINUOUS
 10
223.664275964
 20
-80.1442685686
 11
223.6628228596
 21
-80.1374694538
  0
LINE
  5
465
100
AcDbEntity
  8
0
100
AcDbLine
 62
7
  6
CONTINUOUS
 10
223.6656068812
 20
-80.1510676846
 11
223.664275964
 21
-80.1442685686
  0
LINE
  5
466
100
AcDbEntity
  8
0
100
AcDbLine
 62
7
  6
CONTINUOUS
 10
-225.1483325584
 20
-79.9982498054
 11
-225.1624491128
 21
-80.006667765
  0
LINE
  5
467
100
AcDbEntity
  8
0
100
AcDbLine
 62
7
  6
CONTINUOUS
 10
-223.2023938052
 20
-81.1557684602
 11
-223.1977415896
 21
-81.152996423
  0
LINE
  5
468
100
AcDbEntity
  8
0
100
AcDbLine
 62
7
  6
CONTINUOUS
 10
-225.133427526
 20
-79.9898318486
 11
-225.1483325584
 21
-79.9982498054
  0
LINE
  5
469
100
AcDbEntity
  8
0
100
AcDbLine
 62
7
  6
CONTINUOUS
 10
-224.9293113272
 20
70.9289542606
 11
-224.8795014512
 21
70.936276735
  0
LINE
  5
46A
100
AcDbEntity
  8
0
100
AcDbLine
 62
7
  6
CONTINUOUS
 10
-224.8795014512
 20
70.936276735
 11
-224.8267368784
 21
70.9435992806
  0
LINE
  5
46B
100
AcDbEntity
  8
0
100
AcDbLine
 62
7
  6
CONTINUOUS
 10
-224.8267368784
 20
70.9435992806
 11
-224.7710941772
 21
70.9509219114
  0
LINE
  5
46C
100
AcDbEntity
  8
0
100
AcDbLine
 62
7
  6
CONTINUOUS
 10
-224.7710941772
 20
70.9509219114
 11
-224.7104028328
 21
70.9585204906
  0
LINE
  5
46D
100
AcDbEntity
  8
0
100
AcDbLine
 62
7
  6
CONTINUOUS
 10
-224.7104028328
 20
70.9585204906
 11
-224.6446228828
 21
70.9663950282
  0
LINE
  5
46E
100
AcDbEntity
  8
0
100
AcDbLine
 62
7
  6
CONTINUOUS
 10
-223.5287698764
 20
72.7979652974
 11
-223.5956285408
 21
72.7900527586
  0
LINE
  5
46F
100
AcDbEntity
  8
0
100
AcDbLine
 62
7
  6
CONTINUOUS
 10
-224.6446228828
 20
70.9663950282
 11
-224.5763849856
 21
70.9742696598
  0
LINE
  5
470
100
AcDbEntity
  8
0
100
AcDbLine
 62
7
  6
CONTINUOUS
 10
321.8212238892
 20
71.0640418898
 11
321.8404701148
 21
71.0558281182
  0
LINE
  5
471
100
AcDbEntity
  8
0
100
AcDbLine
 62
7
  6
CONTINUOUS
 10
322.8685855236
 20
71.0232242126
 11
322.8887049884
 21
71.0144084962
  0
LINE
  5
472
100
AcDbEntity
  8
0
100
AcDbLine
 62
7
  6
CONTINUOUS
 10
323.4996629232
 20
72.8048328666
 11
323.4942597836
 21
72.8073304402
  0
LINE
  5
473
100
AcDbEntity
  8
0
100
AcDbLine
 62
7
  6
CONTINUOUS
 10
322.851326582
 20
71.031593879
 11
322.8685855236
 21
71.0232242126
  0
LINE
  5
474
100
AcDbEntity
  8
0
100
AcDbLine
 62
7
  6
CONTINUOUS
 10
321.8069520124
 20
71.0715417766
 11
321.8212238892
 21
71.0640418898
  0
LINE
  5
475
100
AcDbEntity
  8
0
100
AcDbLine
 62
7
  6
CONTINUOUS
 10
322.8366417972
 20
71.0395351682
 11
322.851326582
 21
71.031593879
  0
LINE
  5
476
100
AcDbEntity
  8
0
100
AcDbLine
 62
7
  6
CONTINUOUS
 10
321.80401967
 20
-79.5520267562
 11
321.7957862376
 21
-79.5380994002
  0
LINE
  5
477
100
AcDbEntity
  8
0
100
AcDbLine
 62
7
  6
CONTINUOUS
 10
224.4335333444
 20
71.7550819694
 11
224.4006356856
 21
71.813825721
  0
LINE
  5
478
100
AcDbEntity
  8
0
100
AcDbLine
 62
7
  6
CONTINUOUS
 10
224.464381964
 20
71.6953798822
 11
224.4335333444
 21
71.7550819694
  0
LINE
  5
479
100
AcDbEntity
  8
0
100
AcDbLine
 62
7
  6
CONTINUOUS
 10
224.4931361744
 20
71.634820471
 11
224.464381964
 21
71.6953798822
  0
LINE
  5
47A
100
AcDbEntity
  8
0
100
AcDbLine
 62
7
  6
CONTINUOUS
 10
224.5197561008
 20
71.5735043766
 11
224.4931361744
 21
71.634820471
  0
LINE
  5
47B
100
AcDbEntity
  8
0
100
AcDbLine
 62
7
  6
CONTINUOUS
 10
224.5442940368
 20
71.5113143826
 11
224.5197561008
 21
71.5735043766
  0
LINE
  5
47C
100
AcDbEntity
  8
0
100
AcDbLine
 62
7
  6
CONTINUOUS
 10
223.6668330664
 20
-80.1578668014
 11
223.6656068812
 21
-80.1510676846
  0
LINE
  5
47D
100
AcDbEntity
  8
0
100
AcDbLine
 62
7
  6
CONTINUOUS
 10
223.6679719748
 20
-80.164665919
 11
223.6668330664
 21
-80.1578668014
  0
LINE
  5
47E
100
AcDbEntity
  8
0
100
AcDbLine
 62
7
  6
CONTINUOUS
 10
223.669041062
 20
-80.171465037
 11
223.6679719748
 21
-80.164665919
  0
LINE
  5
47F
100
AcDbEntity
  8
0
100
AcDbLine
 62
7
  6
CONTINUOUS
 10
223.6700577836
 20
-80.1782641554
 11
223.669041062
 21
-80.171465037
  0
LINE
  5
480
100
AcDbEntity
  8
0
100
AcDbLine
 62
7
  6
CONTINUOUS
 10
223.67200395
 20
-80.1918623934
 11
223.6700577836
 21
-80.1782641554
  0
LINE
  5
481
100
AcDbEntity
  8
0
100
AcDbLine
 62
7
  6
CONTINUOUS
 10
204.6719952476
 20
2.8081384058
 11
204.6719952476
 21
0.6081384178
  0
LINE
  5
482
100
AcDbEntity
  8
0
100
AcDbLine
 62
7
  6
CONTINUOUS
 10
205.671997274
 20
1.8081363794
 11
205.671997274
 21
2.8081384058
  0
LINE
  5
483
100
AcDbEntity
  8
0
100
AcDbLine
 62
8
  6
CONTINUOUS
 10
206.6719993008
 20
0.6081384178
 11
206.6719993008
 21
0.8081343526
  0
LINE
  5
484
100
AcDbEntity
  8
0
100
AcDbLine
 62
7
  6
CONTINUOUS
 10
211.6719945324
 20
70.408142781
 11
211.6719945324
 21
72.8081387038
  0
LINE
  5
485
100
AcDbEntity
  8
0
100
AcDbLine
 62
7
  6
CONTINUOUS
 10
211.871997918
 20
70.408142781
 11
211.871997918
 21
72.8081387038
  0
LINE
  5
486
100
AcDbEntity
  8
0
100
AcDbLine
 62
7
  6
CONTINUOUS
 10
-223.2070460372
 20
-81.1583895194
 11
-223.2023938052
 21
-81.1557684602
  0
LINE
  5
487
100
AcDbEntity
  8
0
100
AcDbLine
 62
7
  6
CONTINUOUS
 10
-225.1177444632
 20
-79.9814138946
 11
-225.133427526
 21
-79.9898318486
  0
LINE
  5
488
100
AcDbEntity
  8
0
100
AcDbLine
 62
7
  6
CONTINUOUS
 10
-223.2116982848
 20
-81.1608651922
 11
-223.2070460372
 21
-81.1583895194
  0
LINE
  5
489
100
AcDbEntity
  8
0
100
AcDbLine
 62
7
  6
CONTINUOUS
 10
-225.040406734
 20
70.9106482954
 11
-225.0197607124
 21
70.9143094698
  0
LINE
  5
48A
100
AcDbEntity
  8
0
100
AcDbLine
 62
7
  6
CONTINUOUS
 10
-225.0197607124
 20
70.9143094698
 11
-224.9983185896
 21
70.9179706522
  0
LINE
  5
48B
100
AcDbEntity
  8
0
100
AcDbLine
 62
7
  6
CONTINUOUS
 10
-224.9983185896
 20
70.9179706522
 11
-224.9760899372
 21
70.9216318434
  0
LINE
  5
48C
100
AcDbEntity
  8
0
100
AcDbLine
 62
7
  6
CONTINUOUS
 10
-224.9760899372
 20
70.9216318434
 11
-224.953084326
 21
70.9252930458
  0
LINE
  5
48D
100
AcDbEntity
  8
0
100
AcDbLine
 62
7
  6
CONTINUOUS
 10
-224.953084326
 20
70.9252930458
 11
-224.9293113272
 21
70.9289542606
  0
LINE
  5
48E
100
AcDbEntity
  8
0
100
AcDbLine
 62
7
  6
CONTINUOUS
 10
-223.5956285408
 20
72.7900527586
 11
-223.6622713888
 21
72.7798890762
  0
LINE
  5
48F
100
AcDbEntity
  8
0
100
AcDbLine
 62
7
  6
CONTINUOUS
 10
323.5106264172
 20
71.8011783906
 11
323.505006032
 21
71.8043103378
  0
LINE
  5
490
100
AcDbEntity
  8
0
100
AcDbLine
 62
7
  6
CONTINUOUS
 10
322.8242627856
 20
71.0470667126
 11
322.8366417972
 21
71.0395351682
  0
LINE
  5
491
100
AcDbEntity
  8
0
100
AcDbLine
 62
7
  6
CONTINUOUS
 10
321.7967135256
 20
71.0783758378
 11
321.8069520124
 21
71.0715417766
  0
LINE
  5
492
100
AcDbEntity
  8
0
100
AcDbLine
 62
7
  6
CONTINUOUS
 10
322.8139390816
 20
71.0542087846
 11
322.8242627856
 21
71.0470667126
  0
LINE
  5
493
100
AcDbEntity
  8
0
100
AcDbLine
 62
7
  6
CONTINUOUS
 10
224.5667858892
 20
71.4481548966
 11
224.5442940368
 21
71.5113143826
  0
LINE
  5
494
100
AcDbEntity
  8
0
100
AcDbLine
 62
7
  6
CONTINUOUS
 10
224.5871891316
 20
71.3841245366
 11
224.5667858892
 21
71.4481548966
  0
LINE
  5
495
100
AcDbEntity
  8
0
100
AcDbLine
 62
7
  6
CONTINUOUS
 10
224.6054648276
 20
71.3193259834
 11
224.5871891316
 21
71.3841245366
  0
LINE
  5
496
100
AcDbEntity
  8
0
100
AcDbLine
 62
7
  6
CONTINUOUS
 10
224.6215780728
 20
71.253865361
 11
224.6054648276
 21
71.3193259834
  0
LINE
  5
497
100
AcDbEntity
  8
0
100
AcDbLine
 62
7
  6
CONTINUOUS
 10
224.631347256
 20
71.2087207734
 11
224.6215780728
 21
71.253865361
  0
LINE
  5
498
100
AcDbEntity
  8
0
100
AcDbLine
 62
7
  6
CONTINUOUS
 10
224.6437486
 20
71.1424059362
 11
224.631347256
 21
71.2087207734
  0
LINE
  5
499
100
AcDbEntity
  8
0
100
AcDbLine
 62
7
  6
CONTINUOUS
 10
224.6674778612
 20
70.9419412498
 11
224.6618248216
 21
71.0089044242
  0
LINE
  5
49A
100
AcDbEntity
  8
0
100
AcDbLine
 62
7
  6
CONTINUOUS
 10
224.670868084
 20
70.8749832026
 11
224.6674778612
 21
70.9419412498
  0
LINE
  5
49B
100
AcDbEntity
  8
0
100
AcDbLine
 62
7
  6
CONTINUOUS
 10
224.6719970356
 20
70.8081375118
 11
224.670868084
 21
70.8749832026
  0
LINE
  5
49C
100
AcDbEntity
  8
0
100
AcDbLine
 62
7
  6
CONTINUOUS
 10
212.6719965588
 20
72.8081387038
 11
212.6719965588
 21
72.408131933
  0
LINE
  5
49D
100
AcDbEntity
  8
0
100
AcDbLine
 62
7
  6
CONTINUOUS
 10
212.6719965588
 20
0.8081343526
 11
212.6719965588
 21
0.3081407902
  0
LINE
  5
49E
100
AcDbEntity
  8
0
100
AcDbLine
 62
7
  6
CONTINUOUS
 10
216.0719945084
 20
66.4081346746
 11
216.0719945084
 21
63.2081401106
  0
LINE
  5
49F
100
AcDbEntity
  8
0
100
AcDbLine
 62
7
  6
CONTINUOUS
 10
216.0719945084
 20
10.208137011
 11
216.0719945084
 21
7.0081349966
  0
LINE
  5
4A0
100
AcDbEntity
  8
0
100
AcDbLine
 62
7
  6
CONTINUOUS
 10
216.0719945084
 20
-5.7918656114
 11
216.0719945084
 21
-8.9918601754
  0
LINE
  5
4A1
100
AcDbEntity
  8
0
100
AcDbLine
 62
7
  6
CONTINUOUS
 10
218.6719938172
 20
72.8081387038
 11
218.6719938172
 21
73.8081407306
  0
LINE
  5
4A2
100
AcDbEntity
  8
0
100
AcDbLine
 62
7
  6
CONTINUOUS
 10
219.2720039736
 20
-8.9918601754
 11
219.2720039736
 21
-5.7918656114
  0
LINE
  5
4A3
100
AcDbEntity
  8
0
100
AcDbLine
 62
7
  6
CONTINUOUS
 10
219.2720039736
 20
7.0081349966
 11
219.2720039736
 21
10.208137011
  0
LINE
  5
4A4
100
AcDbEntity
  8
0
100
AcDbLine
 62
7
  6
CONTINUOUS
 10
219.2720039736
 20
63.2081401106
 11
219.2720039736
 21
66.4081346746
  0
LINE
  5
4A5
100
AcDbEntity
  8
0
100
AcDbLine
 62
7
  6
CONTINUOUS
 10
222.6720019232
 20
72.8081387038
 11
222.6720019232
 21
72.4989545102
  0
LINE
  5
4A6
100
AcDbEntity
  8
0
100
AcDbLine
 62
7
  6
CONTINUOUS
 10
222.6720019232
 20
-82.1918624882
 11
222.6720019232
 21
-81.1918624406
  0
LINE
  5
4A7
100
AcDbEntity
  8
0
100
AcDbLine
 62
8
  6
CONTINUOUS
 10
222.6720019232
 20
0.0401881094
 11
222.6720019232
 21
1.5720721838
  0
LINE
  5
4A8
100
AcDbEntity
  8
0
100
AcDbLine
 62
7
  6
CONTINUOUS
 10
223.67200395
 20
73.8081407306
 11
223.67200395
 21
72.8081387038
  0
LINE
  5
4A9
100
AcDbEntity
  8
0
100
AcDbLine
 62
7
  6
CONTINUOUS
 10
223.67200395
 20
-79.1918624622
 11
223.67200395
 21
-1.691863263
  0
LINE
  5
4AA
100
AcDbEntity
  8
0
100
AcDbLine
 62
7
  6
CONTINUOUS
 10
223.67200395
 20
3.8081404326
 11
223.67200395
 21
70.8081346506
  0
LINE
  5
4AB
100
AcDbEntity
  8
0
100
AcDbLine
 62
7
  6
CONTINUOUS
 10
224.6719910752
 20
70.8081346506
 11
224.6719910752
 21
-80.1918623934
  0
LINE
  5
4AC
100
AcDbEntity
  8
0
100
AcDbLine
 62
7
  6
CONTINUOUS
 10
-225.1012938172
 20
-79.972995943
 11
-225.1177444632
 21
-79.9814138946
  0
LINE
  5
4AD
100
AcDbEntity
  8
0
100
AcDbLine
 62
7
  6
CONTINUOUS
 10
-223.216350548
 20
-81.1632010706
 11
-223.2116982848
 21
-81.1608651922
  0
LINE
  5
4AE
100
AcDbEntity
  8
0
100
AcDbLine
 62
7
  6
CONTINUOUS
 10
-225.0840860356
 20
-79.9645779938
 11
-225.1012938172
 21
-79.972995943
  0
LINE
  5
4AF
100
AcDbEntity
  8
0
100
AcDbLine
 62
7
  6
CONTINUOUS
 10
-225.1120024212
 20
70.8966138298
 11
-225.0974724824
 21
70.8996647982
  0
LINE
  5
4B0
100
AcDbEntity
  8
0
100
AcDbLine
 62
7
  6
CONTINUOUS
 10
-225.0974724824
 20
70.8996647982
 11
-225.0792721904
 21
70.903325961
  0
LINE
  5
4B1
100
AcDbEntity
  8
0
100
AcDbLine
 62
7
  6
CONTINUOUS
 10
-225.0792721904
 20
70.903325961
 11
-225.060247084
 21
70.9069871262
  0
LINE
  5
4B2
100
AcDbEntity
  8
0
100
AcDbLine
 62
7
  6
CONTINUOUS
 10
-223.6622713888
 20
72.7798890762
 11
-223.7285862256
 21
72.7674877318
  0
LINE
  5
4B3
100
AcDbEntity
  8
0
100
AcDbLine
 62
7
  6
CONTINUOUS
 10
-225.060247084
 20
70.9069871262
 11
-225.040406734
 21
70.9106482954
  0
LINE
  5
4B4
100
AcDbEntity
  8
0
100
AcDbLine
 62
7
  6
CONTINUOUS
 10
323.5164774412
 20
71.7969484118
 11
323.5106264172
 21
71.8011783906
  0
LINE
  5
4B5
100
AcDbEntity
  8
0
100
AcDbLine
 62
7
  6
CONTINUOUS
 10
323.5054074348
 20
72.8003331942
 11
323.4996629232
 21
72.8048328666
  0
LINE
  5
4B6
100
AcDbEntity
  8
0
100
AcDbLine
 62
7
  6
CONTINUOUS
 10
322.8054384072
 20
71.0609841054
 11
322.8139390816
 21
71.0542087846
  0
LINE
  5
4B7
100
AcDbEntity
  8
0
100
AcDbLine
 62
7
  6
CONTINUOUS
 10
321.7896877556
 20
71.084613515
 11
321.7967135256
 21
71.0783758378
  0
LINE
  5
4B8
100
AcDbEntity
  8
0
100
AcDbLine
 62
7
  6
CONTINUOUS
 10
321.7957862376
 20
-79.5380994002
 11
321.7895954072
 21
-79.524515267
  0
LINE
  5
4B9
100
AcDbEntity
  8
0
100
AcDbLine
 62
7
  6
CONTINUOUS
 10
224.6539122828
 20
71.0757630886
 11
224.6437486
 21
71.1424059362
  0
LINE
  5
4BA
100
AcDbEntity
  8
0
100
AcDbLine
 62
7
  6
CONTINUOUS
 10
224.6618248216
 20
71.0089044242
 11
224.6539122828
 21
71.0757630886
  0
LINE
  5
4BB
100
AcDbEntity
  8
0
100
AcDbLine
 62
7
  6
CONTINUOUS
 10
-223.2210028256
 20
-81.1654027462
 11
-223.216350548
 21
-81.1632010706
  0
LINE
  5
4BC
100
AcDbEntity
  8
0
100
AcDbLine
 62
7
  6
CONTINUOUS
 10
-225.0661315668
 20
-79.9561600474
 11
-225.0840860356
 21
-79.9645779938
  0
LINE
  5
4BD
100
AcDbEntity
  8
0
100
AcDbLine
 62
7
  6
CONTINUOUS
 10
-225.0474408576
 20
-79.9477421034
 11
-225.0661315668
 21
-79.9561600474
  0
LINE
  5
4BE
100
AcDbEntity
  8
0
100
AcDbLine
 62
7
  6
CONTINUOUS
 10
-225.1642170564
 20
70.8844099386
 11
-225.1520602432
 21
70.8874609158
  0
LINE
  5
4BF
100
AcDbEntity
  8
0
100
AcDbLine
 62
7
  6
CONTINUOUS
 10
-223.7737308132
 20
72.7577185486
 11
-223.839191436
 21
72.7416053038
  0
LINE
  5
4C0
100
AcDbEntity
  8
0
100
AcDbLine
 62
7
  6
CONTINUOUS
 10
-225.1520602432
 20
70.8874609158
 11
-225.1393018404
 21
70.8905118894
  0
LINE
  5
4C1
100
AcDbEntity
  8
0
100
AcDbLine
 62
7
  6
CONTINUOUS
 10
-225.1393018404
 20
70.8905118894
 11
-225.1259473868
 21
70.8935628606
  0
LINE
  5
4C2
100
AcDbEntity
  8
0
100
AcDbLine
 62
7
  6
CONTINUOUS
 10
-225.1259473868
 20
70.8935628606
 11
-225.1120024212
 21
70.8966138298
  0
LINE
  5
4C3
100
AcDbEntity
  8
0
100
AcDbLine
 62
7
  6
CONTINUOUS
 10
-223.7285862256
 20
72.7674877318
 11
-223.7737308132
 21
72.7577185486
  0
LINE
  5
4C4
100
AcDbEntity
  8
0
100
AcDbLine
 62
7
  6
CONTINUOUS
 10
323.522602148
 20
71.7914736046
 11
323.5164774412
 21
71.7969484118
  0
LINE
  5
4C5
100
AcDbEntity
  8
0
100
AcDbLine
 62
7
  6
CONTINUOUS
 10
322.7985473452
 20
71.0674188022
 11
322.8054384072
 21
71.0609841054
  0
LINE
  5
4C6
100
AcDbEntity
  8
0
100
AcDbLine
 62
7
  6
CONTINUOUS
 10
323.5290368448
 20
71.7845825426
 11
323.522602148
 21
71.7914736046
  0
LINE
  5
4C7
100
AcDbEntity
  8
0
100
AcDbLine
 62
7
  6
CONTINUOUS
 10
-223.2256551176
 20
-81.167475811
 11
-223.2210028256
 21
-81.1654027462
  0
LINE
  5
4C8
100
AcDbEntity
  8
0
100
AcDbLine
 62
7
  6
CONTINUOUS
 10
-225.028024356
 20
-79.9393241618
 11
-225.0474408576
 21
-79.9477421034
  0
LINE
  5
4C9
100
AcDbEntity
  8
0
100
AcDbLine
 62
7
  6
CONTINUOUS
 10
-223.2303074224
 20
-81.169425857
 11
-223.2256551176
 21
-81.167475811
  0
LINE
  5
4CA
100
AcDbEntity
  8
0
100
AcDbLine
 62
7
  6
CONTINUOUS
 10
-225.0078925092
 20
-79.930906223
 11
-225.028024356
 21
-79.9393241618
  0
LINE
  5
4CB
100
AcDbEntity
  8
0
100
AcDbLine
 62
7
  6
CONTINUOUS
 10
-223.839191436
 20
72.7416053038
 11
-223.9039899892
 21
72.7233296078
  0
LINE
  5
4CC
100
AcDbEntity
  8
0
100
AcDbLine
 62
7
  6
CONTINUOUS
 10
-225.1867088764
 20
70.8783079866
 11
-225.1757667412
 21
70.881358957
  0
LINE
  5
4CD
100
AcDbEntity
  8
0
100
AcDbLine
 62
7
  6
CONTINUOUS
 10
-225.1757667412
 20
70.881358957
 11
-225.1642170564
 21
70.8844099386
  0
LINE
  5
4CE
100
AcDbEntity
  8
0
100
AcDbLine
 62
7
  6
CONTINUOUS
 10
322.793072538
 20
71.0735435086
 11
322.7985473452
 21
71.0674188022
  0
LINE
  5
4CF
100
AcDbEntity
  8
0
100
AcDbLine
 62
7
  6
CONTINUOUS
 10
323.511645112
 20
72.7933074242
 11
323.5054074348
 21
72.8003331942
  0
LINE
  5
4D0
100
AcDbEntity
  8
0
100
AcDbLine
 62
7
  6
CONTINUOUS
 10
323.5358121652
 20
71.7760818682
 11
323.5290368448
 21
71.7845825426
  0
LINE
  5
4D1
100
AcDbEntity
  8
0
100
AcDbLine
 62
7
  6
CONTINUOUS
 10
321.7851880832
 20
71.0903580266
 11
321.7896877556
 21
71.084613515
  0
LINE
  5
4D2
100
AcDbEntity
  8
0
100
AcDbLine
 62
7
  6
CONTINUOUS
 10
321.7895954072
 20
-79.524515267
 11
321.7852814732
 21
-79.5111717362
  0
LINE
  5
4D3
100
AcDbEntity
  8
0
100
AcDbLine
 62
7
  6
CONTINUOUS
 10
-224.9870557656
 20
-79.922488287
 11
-225.0078925092
 21
-79.930906223
  0
LINE
  5
4D4
100
AcDbEntity
  8
0
100
AcDbLine
 62
7
  6
CONTINUOUS
 10
-223.2349597404
 20
-81.1712584754
 11
-223.2303074224
 21
-81.169425857
  0
LINE
  5
4D5
100
AcDbEntity
  8
0
100
AcDbLine
 62
7
  6
CONTINUOUS
 10
-224.965524572
 20
-79.914070353
 11
-224.9870557656
 21
-79.922488287
  0
LINE
  5
4D6
100
AcDbEntity
  8
0
100
AcDbLine
 62
7
  6
CONTINUOUS
 10
-224.9433093768
 20
-79.9056524218
 11
-224.965524572
 21
-79.914070353
  0
LINE
  5
4D7
100
AcDbEntity
  8
0
100
AcDbLine
 62
7
  6
CONTINUOUS
 10
322.7888425592
 20
71.0793945326
 11
322.793072538
 21
71.0735435086
  0
LINE
  5
4D8
100
AcDbEntity
  8
0
100
AcDbLine
 62
7
  6
CONTINUOUS
 10
323.5429542372
 20
71.7657581642
 11
323.5358121652
 21
71.7760818682
  0
LINE
  5
4D9
100
AcDbEntity
  8
0
100
AcDbLine
 62
7
  6
CONTINUOUS
 10
323.5184791732
 20
72.7830689374
 11
323.511645112
 21
72.7933074242
  0
LINE
  5
4DA
100
AcDbEntity
  8
0
100
AcDbLine
 62
7
  6
CONTINUOUS
 10
323.5504857816
 20
71.7533791526
 11
323.5429542372
 21
71.7657581642
  0
LINE
  5
4DB
100
AcDbEntity
  8
0
100
AcDbLine
 62
7
  6
CONTINUOUS
 10
-223.2396120708
 20
-81.1729792582
 11
-223.2349597404
 21
-81.1712584754
  0
LINE
  5
4DC
100
AcDbEntity
  8
0
100
AcDbLine
 62
7
  6
CONTINUOUS
 10
-224.9204206268
 20
-79.897234493
 11
-224.9433093768
 21
-79.9056524218
  0
LINE
  5
4DD
100
AcDbEntity
  8
0
100
AcDbLine
 62
7
  6
CONTINUOUS
 10
-224.892879726
 20
-79.8874135794
 11
-224.9204206268
 21
-79.897234493
  0
LINE
  5
4DE
100
AcDbEntity
  8
0
100
AcDbLine
 62
7
  6
CONTINUOUS
 10
-224.8644528532
 20
-79.877592669
 11
-224.892879726
 21
-79.8874135794
  0
LINE
  5
4DF
100
AcDbEntity
  8
0
100
AcDbLine
 62
7
  6
CONTINUOUS
 10
322.785710612
 20
71.0850149178
 11
322.7888425592
 21
71.0793945326
  0
LINE
  5
4E0
100
AcDbEntity
  8
0
100
AcDbLine
 62
7
  6
CONTINUOUS
 10
323.5584270708
 20
71.7386943682
 11
323.5504857816
 21
71.7533791526
  0
LINE
  5
4E1
100
AcDbEntity
  8
0
100
AcDbLine
 62
7
  6
CONTINUOUS
 10
323.52597906
 20
72.768797061
 11
323.5184791732
 21
72.7830689374
  0
LINE
  5
4E2
100
AcDbEntity
  8
0
100
AcDbLine
 62
7
  6
CONTINUOUS
 10
323.5667967372
 20
71.7214354262
 11
323.5584270708
 21
71.7386943682
  0
LINE
  5
4E3
100
AcDbEntity
  8
0
100
AcDbLine
 62
7
  6
CONTINUOUS
 10
321.7826905096
 20
71.0957611662
 11
321.7851880832
 21
71.0903580266
  0
LINE
  5
4E4
100
AcDbEntity
  8
0
100
AcDbLine
 62
7
  6
CONTINUOUS
 10
323.5756124536
 20
71.7013159614
 11
323.5667967372
 21
71.7214354262
  0
LINE
  5
4E5
100
AcDbEntity
  8
0
100
AcDbLine
 62
7
  6
CONTINUOUS
 10
323.5341928316
 20
72.749550835
 11
323.52597906
 21
72.768797061
  0
LINE
  5
4E6
100
AcDbEntity
  8
0
100
AcDbLine
 62
7
  6
CONTINUOUS
 10
321.7852814732
 20
-79.5111717362
 11
321.7827303792
 21
-79.4979577618
  0
LINE
  5
4E7
100
AcDbEntity
  8
0
100
AcDbLine
 62
7
  6
CONTINUOUS
 10
-223.2464116508
 20
-81.175304683
 11
-223.2396120708
 21
-81.1729792582
  0
LINE
  5
4E8
100
AcDbEntity
  8
0
100
AcDbLine
 62
7
  6
CONTINUOUS
 10
-224.8351565996
 20
-79.8677717618
 11
-224.8644528532
 21
-79.877592669
  0
LINE
  5
4E9
100
AcDbEntity
  8
0
100
AcDbLine
 62
7
  6
CONTINUOUS
 10
-224.8050075552
 20
-79.8579508582
 11
-224.8351565996
 21
-79.8677717618
  0
LINE
  5
4EA
100
AcDbEntity
  8
0
100
AcDbLine
 62
7
  6
CONTINUOUS
 10
-224.7740223104
 20
-79.8481299578
 11
-224.8050075552
 21
-79.8579508582
  0
LINE
  5
4EB
100
AcDbEntity
  8
0
100
AcDbLine
 62
7
  6
CONTINUOUS
 10
323.5848915068
 20
71.6780312746
 11
323.5756124536
 21
71.7013159614
  0
LINE
  5
4EC
100
AcDbEntity
  8
0
100
AcDbLine
 62
7
  6
CONTINUOUS
 10
322.783558092
 20
71.0904550882
 11
322.785710612
 21
71.0850149178
  0
LINE
  5
4ED
100
AcDbEntity
  8
0
100
AcDbLine
 62
7
  6
CONTINUOUS
 10
323.5946513036
 20
71.6512577034
 11
323.5848915068
 21
71.6780312746
  0
LINE
  5
4EE
100
AcDbEntity
  8
0
100
AcDbLine
 62
7
  6
CONTINUOUS
 10
323.5431555264
 20
72.724275013
 11
323.5341928316
 21
72.749550835
  0
LINE
  5
4EF
100
AcDbEntity
  8
0
100
AcDbLine
 62
7
  6
CONTINUOUS
 10
323.6049098344
 20
71.620651685
 11
323.5946513036
 21
71.6512577034
  0
LINE
  5
4F0
100
AcDbEntity
  8
0
100
AcDbLine
 62
7
  6
CONTINUOUS
 10
323.6156861184
 20
71.5858484698
 11
323.6049098344
 21
71.620651685
  0
LINE
  5
4F1
100
AcDbEntity
  8
0
100
AcDbLine
 62
7
  6
CONTINUOUS
 10
323.5528944208
 20
72.6918023274
 11
323.5431555264
 21
72.724275013
  0
LINE
  5
4F2
100
AcDbEntity
  8
0
100
AcDbLine
 62
7
  6
CONTINUOUS
 10
323.6270006656
 20
71.5464604038
 11
323.6156861184
 21
71.5858484698
  0
LINE
  5
4F3
100
AcDbEntity
  8
0
100
AcDbLine
 62
7
  6
CONTINUOUS
 10
323.6354368288
 20
71.515244293
 11
323.6270006656
 21
71.5464604038
  0
LINE
  5
4F4
100
AcDbEntity
  8
0
100
AcDbLine
 62
7
  6
CONTINUOUS
 10
321.7827303792
 20
-79.4979577618
 11
321.781883438
 21
-79.484755707
  0
LINE
  5
4F5
100
AcDbEntity
  8
0
100
AcDbLine
 62
7
  6
CONTINUOUS
 10
-223.253211254
 20
-81.1774206182
 11
-223.2464116508
 21
-81.175304683
  0
LINE
  5
4F6
100
AcDbEntity
  8
0
100
AcDbLine
 62
7
  6
CONTINUOUS
 10
-224.742217456
 20
-79.838309061
 11
-224.7740223104
 21
-79.8481299578
  0
LINE
  5
4F7
100
AcDbEntity
  8
0
100
AcDbLine
 62
7
  6
CONTINUOUS
 10
-224.7088166928
 20
-79.828250197
 11
-224.742217456
 21
-79.838309061
  0
LINE
  5
4F8
100
AcDbEntity
  8
0
100
AcDbLine
 62
7
  6
CONTINUOUS
 10
-224.6746336948
 20
-79.8181913366
 11
-224.7088166928
 21
-79.828250197
  0
LINE
  5
4F9
100
AcDbEntity
  8
0
100
AcDbLine
 62
7
  6
CONTINUOUS
 10
-224.639728634
 20
-79.808132479
 11
-224.6746336948
 21
-79.8181913366
  0
LINE
  5
4FA
100
AcDbEntity
  8
0
100
AcDbLine
 62
7
  6
CONTINUOUS
 10
323.562213524
 20
72.655896577
 11
323.5528944208
 21
72.6918023274
  0
LINE
  5
4FB
100
AcDbEntity
  8
0
100
AcDbLine
 62
7
  6
CONTINUOUS
 10
323.6479137216
 20
71.466339721
 11
323.6354368288
 21
71.515244293
  0
LINE
  5
4FC
100
AcDbEntity
  8
0
100
AcDbLine
 62
7
  6
CONTINUOUS
 10
323.661343802
 20
71.4103578766
 11
323.6479137216
 21
71.466339721
  0
LINE
  5
4FD
100
AcDbEntity
  8
0
100
AcDbLine
 62
7
  6
CONTINUOUS
 10
322.782298834
 20
71.0957726214
 11
322.783558092
 21
71.0904550882
  0
LINE
  5
4FE
100
AcDbEntity
  8
0
100
AcDbLine
 62
7
  6
CONTINUOUS
 10
323.57348494
 20
72.6062558254
 11
323.562213524
 21
72.655896577
  0
LINE
  5
4FF
100
AcDbEntity
  8
0
100
AcDbLine
 62
7
  6
CONTINUOUS
 10
323.67588401
 20
71.3462278754
 11
323.661343802
 21
71.4103578766
  0
LINE
  5
500
100
AcDbEntity
  8
0
100
AcDbLine
 62
7
  6
CONTINUOUS
 10
323.6917639352
 20
71.2725025398
 11
323.67588401
 21
71.3462278754
  0
LINE
  5
501
100
AcDbEntity
  8
0
100
AcDbLine
 62
7
  6
CONTINUOUS
 10
323.7093456912
 20
71.1870469818
 11
323.6917639352
 21
71.2725025398
  0
LINE
  5
502
100
AcDbEntity
  8
0
100
AcDbLine
 62
7
  6
CONTINUOUS
 10
323.5857267516
 20
72.5448869894
 11
323.57348494
 21
72.6062558254
  0
LINE
  5
503
100
AcDbEntity
  8
0
100
AcDbLine
 62
7
  6
CONTINUOUS
 10
323.72926765
 20
71.0862867986
 11
323.7093456912
 21
71.1870469818
  0
LINE
  5
504
100
AcDbEntity
  8
0
100
AcDbLine
 62
7
  6
CONTINUOUS
 10
323.752883402
 20
70.9629056434
 11
323.72926765
 21
71.0862867986
  0
LINE
  5
505
100
AcDbEntity
  8
0
100
AcDbLine
 62
7
  6
CONTINUOUS
 10
323.781883438
 20
70.8081375118
 11
323.752883402
 21
70.9629056434
  0
LINE
  5
506
100
AcDbEntity
  8
0
100
AcDbLine
 62
7
  6
CONTINUOUS
 10
323.5989923528
 20
72.4699771426
 11
323.5857267516
 21
72.5448869894
  0
LINE
  5
507
100
AcDbEntity
  8
0
100
AcDbLine
 62
7
  6
CONTINUOUS
 10
323.6133448148
 20
72.3795290478
 11
323.5989923528
 21
72.4699771426
  0
LINE
  5
508
100
AcDbEntity
  8
0
100
AcDbLine
 62
7
  6
CONTINUOUS
 10
321.781883438
 20
71.1010307306
 11
321.7826905096
 21
71.0957611662
  0
LINE
  5
509
100
AcDbEntity
  8
0
100
AcDbLine
 62
7
  6
CONTINUOUS
 10
323.6288607472
 20
72.2713267098
 11
323.6133448148
 21
72.3795290478
  0
LINE
  5
50A
100
AcDbEntity
  8
0
100
AcDbLine
 62
7
  6
CONTINUOUS
 10
323.6354368288
 20
72.2223510742
 11
323.6288607472
 21
72.2713267098
  0
LINE
  5
50B
100
AcDbEntity
  8
0
100
AcDbLine
 62
7
  6
CONTINUOUS
 10
323.6527840324
 20
72.0848185742
 11
323.6354368288
 21
72.2223510742
  0
LINE
  5
50C
100
AcDbEntity
  8
0
100
AcDbLine
 62
7
  6
CONTINUOUS
 10
323.6719362352
 20
71.920210181
 11
323.6527840324
 21
72.0848185742
  0
LINE
  5
50D
100
AcDbEntity
  8
0
100
AcDbLine
 62
7
  6
CONTINUOUS
 10
323.6933001828
 20
71.7229187018
 11
323.6719362352
 21
71.920210181
  0
LINE
  5
50E
100
AcDbEntity
  8
0
100
AcDbLine
 62
7
  6
CONTINUOUS
 10
323.7086601332
 20
71.5735043766
 11
323.6933001828
 21
71.7229187018
  0
LINE
  5
50F
100
AcDbEntity
  8
0
100
AcDbLine
 62
7
  6
CONTINUOUS
 10
323.7356050504
 20
71.2994205678
 11
323.7086601332
 21
71.5735043766
  0
LINE
  5
510
100
AcDbEntity
  8
0
100
AcDbLine
 62
7
  6
CONTINUOUS
 10
323.7648937016
 20
70.990107671
 11
323.7356050504
 21
71.2994205678
  0
LINE
  5
511
100
AcDbEntity
  8
0
100
AcDbLine
 62
7
  6
CONTINUOUS
 10
323.781883438
 20
70.8081375118
 11
323.7648937016
 21
70.990107671
  0
LINE
  5
512
100
AcDbEntity
  8
0
100
AcDbLine
 62
7
  6
CONTINUOUS
 10
322.781883438
 20
71.1010307306
 11
322.782298834
 21
71.0957726214
  0
LINE
  5
513
100
AcDbEntity
  8
0
100
AcDbLine
 62
7
  6
CONTINUOUS
 10
320.781885882
 20
-81.1918624406
 11
320.781885882
 21
0.3081407902
  0
LINE
  5
514
100
AcDbEntity
  8
0
100
AcDbLine
 62
7
  6
CONTINUOUS
 10
320.781885882
 20
0.8081343526
 11
320.781885882
 21
72.8081387038
  0
LINE
  5
515
100
AcDbEntity
  8
0
100
AcDbLine
 62
7
  6
CONTINUOUS
 10
321.781880458
 20
-81.1918624406
 11
321.781880458
 21
73.8081407306
  0
LINE
  5
516
100
AcDbEntity
  8
0
100
AcDbLine
 62
7
  6
CONTINUOUS
 10
322.7818824844
 20
-79.951160677
 11
322.7818824844
 21
-80.1918623934
  0
LINE
  5
517
100
AcDbEntity
  8
0
100
AcDbLine
 62
7
  6
CONTINUOUS
 10
322.98188587
 20
72.8081387038
 11
322.98188587
 21
71.8081366774
  0
LINE
  5
518
100
AcDbEntity
  8
0
100
AcDbLine
 62
7
  6
CONTINUOUS
 10
323.4889872864
 20
72.8081387038
 11
323.4889872864
 21
71.8081366774
  0
LINE
  5
519
100
AcDbEntity
  8
0
100
AcDbLine
 62
7
  6
CONTINUOUS
 10
323.7818845108
 20
-82.1918624882
 11
323.7818845108
 21
70.8081346506
  0
LINE
  5
51A
100
AcDbEntity
  8
0
100
AcDbLine
 62
7
  6
CONTINUOUS
 10
326.78188314
 20
73.8081407306
 11
326.78188314
 21
72.8081387038
  0
LINE
  5
51B
100
AcDbEntity
  8
0
100
AcDbLine
 62
7
  6
CONTINUOUS
 10
470.52020633
 20
70.9630202842
 11
470.559594396
 21
70.9743348314
  0
LWPOLYLINE
  5
51C
100
AcDbEntity
  8
0
100
AcDbPolyline
 62
7
  6
CONTINUOUS
 90
5
 70
0
 43
0.3499999917
 10
409.250625
 20
109.8289434814
 10
406.625625
 20
107.4956158447
 10
405.313125
 20
105.1622753906
 10
404.656875
 20
101.6622839355
 10
409.906875
 20
101.6622839355
  0
LINE
  5
51D
100
AcDbEntity
  8
0
100
AcDbLine
 62
7
  6
CONTINUOUS
 10
470.6250036296
 20
70.9953696462
 11
470.6517772008
 21
71.0051294434
  0
LINE
  5
51E
100
AcDbEntity
  8
0
100
AcDbLine
 62
7
  6
CONTINUOUS
 10
471.6980209392
 20
71.0468654234
 11
471.7232967612
 21
71.0558281182
  0
LINE
  5
51F
100
AcDbEntity
  8
0
100
AcDbLine
 62
7
  6
CONTINUOUS
 10
470.5943976112
 20
70.9851111154
 11
470.6250036296
 21
70.9953696462
  0
LINE
  5
520
100
AcDbEntity
  8
0
100
AcDbLine
 62
7
  6
CONTINUOUS
 10
470.559594396
 20
70.9743348314
 11
470.5943976112
 21
70.9851111154
  0
LINE
  5
521
100
AcDbEntity
  8
0
100
AcDbLine
 62
7
  6
CONTINUOUS
 10
471.6655482536
 20
71.037126529
 11
471.6980209392
 21
71.0468654234
  0
LWPOLYLINE
  5
522
100
AcDbEntity
  8
0
100
AcDbPolyline
 62
7
  6
CONTINUOUS
 90
2
 70
0
 43
0.3499999917
 10
386.281875
 20
115.6622753906
 10
386.281875
 20
101.6622839355
  0
LWPOLYLINE
  5
523
100
AcDbEntity
  8
0
100
AcDbPolyline
 62
7
  6
CONTINUOUS
 90
12
 70
0
 43
0.3499999917
 10
259.2135205078
 20
-46.3481119537
 10
258.0468566895
 20
-47.6606119537
 10
256.8801928711
 20
-48.3168619537
 10
255.7135290527
 20
-48.3168619537
 10
254.5468652344
 20
-47.6606119537
 10
253.3801757812
 20
-46.3481119537
 10
253.3801757812
 20
-45.0356119537
 10
254.5468652344
 20
-43.7231119537
 10
255.7135290527
 20
-43.0668619537
 10
256.8801928711
 20
-43.0668619537
 10
258.0468566895
 20
-43.7231119537
 10
259.2135205078
 20
-45.0356119537
  0
LWPOLYLINE
  5
524
100
AcDbEntity
  8
0
100
AcDbPolyline
 62
7
  6
CONTINUOUS
 90
2
 70
0
 43
0.3499999917
 10
267.3801928711
 20
-46.3481119537
 10
266.2135290527
 20
-47.6606119537
  0
LINE
  5
525
100
AcDbEntity
  8
0
100
AcDbLine
 62
7
  6
CONTINUOUS
 10
470.6750618876
 20
71.0144084962
 11
470.6951813524
 21
71.0232242126
  0
LINE
  5
526
100
AcDbEntity
  8
0
100
AcDbLine
 62
7
  6
CONTINUOUS
 10
471.7232967612
 20
71.0558281182
 11
471.7425429872
 21
71.0640418898
  0
LINE
  5
527
100
AcDbEntity
  8
0
100
AcDbLine
 62
7
  6
CONTINUOUS
 10
470.6517772008
 20
71.0051294434
 11
470.6750618876
 21
71.0144084962
  0
LINE
  5
528
100
AcDbEntity
  8
0
100
AcDbLine
 62
7
  6
CONTINUOUS
 10
470.0642010144
 20
71.8064628582
 11
470.058760844
 21
71.8043103378
  0
LWPOLYLINE
  5
529
100
AcDbEntity
  8
0
100
AcDbPolyline
 62
7
  6
CONTINUOUS
 90
8
 70
0
 43
0.3499999917
 10
404.656875
 20
113.3289477539
 10
405.313125
 20
114.4956115723
 10
406.625625
 20
115.6622753906
 10
407.938125
 20
115.6622753906
 10
409.250625
 20
114.4956115723
 10
409.906875
 20
113.3289477539
 10
409.906875
 20
110.9956072998
 10
409.250625
 20
109.8289434814
  0
LWPOLYLINE
  5
52A
100
AcDbEntity
  8
0
100
AcDbPolyline
 62
7
  6
CONTINUOUS
 90
7
 70
0
 43
0.3499999917
 10
260.3801843262
 20
-43.7231119537
 10
262.7135119629
 20
-42.4106119537
 10
263.8801757812
 20
-42.4106119537
 10
265.0468652344
 20
-43.0668619537
 10
266.2135290527
 20
-43.7231119537
 10
267.3801928711
 20
-45.0356119537
 10
267.3801928711
 20
-46.3481119537
  0
LINE
  5
52B
100
AcDbEntity
  8
0
100
AcDbLine
 62
7
  6
CONTINUOUS
 10
470.7124402944
 20
71.031593879
 11
470.7271250788
 21
71.0395351682
  0
LINE
  5
52C
100
AcDbEntity
  8
0
100
AcDbLine
 62
7
  6
CONTINUOUS
 10
471.7425429872
 20
71.0640418898
 11
471.7568148636
 21
71.0715417766
  0
LINE
  5
52D
100
AcDbEntity
  8
0
100
AcDbLine
 62
7
  6
CONTINUOUS
 10
470.6951813524
 20
71.0232242126
 11
470.7124402944
 21
71.031593879
  0
LINE
  5
52E
100
AcDbEntity
  8
0
100
AcDbLine
 62
7
  6
CONTINUOUS
 10
470.0695070924
 20
72.8073304402
 11
470.0641039528
 21
72.8048328666
  0
LINE
  5
52F
100
AcDbEntity
  8
0
100
AcDbLine
 62
7
  6
CONTINUOUS
 10
447.2818851964
 20
58.255396461
 11
447.2818851964
 21
56.7547601218
  0
LINE
  5
530
100
AcDbEntity
  8
0
100
AcDbLine
 62
7
  6
CONTINUOUS
 10
447.2818851964
 20
23.7699222322
 11
447.2818851964
 21
22.269285893
  0
LINE
  5
531
100
AcDbEntity
  8
0
100
AcDbLine
 62
7
  6
CONTINUOUS
 10
447.781883438
 20
35.262343003
 11
447.781883438
 21
21.262343003
  0
LINE
  5
532
100
AcDbEntity
  8
0
100
AcDbLine
 62
7
  6
CONTINUOUS
 10
447.781883438
 20
37.762343003
 11
447.781883438
 21
42.762343003
  0
LINE
  5
533
100
AcDbEntity
  8
0
100
AcDbLine
 62
7
  6
CONTINUOUS
 10
447.781883438
 20
45.262343003
 11
447.781883438
 21
59.262343003
  0
LINE
  5
534
100
AcDbEntity
  8
0
100
AcDbLine
 62
7
  6
CONTINUOUS
 10
448.2818834976
 20
22.269285893
 11
448.2818834976
 21
23.7699222322
  0
LINE
  5
535
100
AcDbEntity
  8
0
100
AcDbLine
 62
7
  6
CONTINUOUS
 10
448.2818834976
 20
56.7547601218
 11
448.2818834976
 21
58.255396461
  0
LINE
  5
536
100
AcDbEntity
  8
0
100
AcDbLine
 62
7
  6
CONTINUOUS
 10
466.781883736
 20
72.8081387038
 11
466.781883736
 21
73.8081407306
  0
LINE
  5
537
100
AcDbEntity
  8
0
100
AcDbLine
 62
7
  6
CONTINUOUS
 10
469.7818823652
 20
-82.1918624882
 11
469.7818823652
 21
70.8081346506
  0
LINE
  5
538
100
AcDbEntity
  8
0
100
AcDbLine
 62
7
  6
CONTINUOUS
 10
470.0747795896
 20
72.8081387038
 11
470.0747795896
 21
71.8081366774
  0
LINE
  5
539
100
AcDbEntity
  8
0
100
AcDbLine
 62
7
  6
CONTINUOUS
 10
470.581881006
 20
72.8081387038
 11
470.581881006
 21
71.8081366774
  0
LINE
  5
53A
100
AcDbEntity
  8
0
100
AcDbLine
 62
7
  6
CONTINUOUS
 10
471.7818864184
 20
-82.1918624882
 11
471.7818864184
 21
73.8081407306
  0
LINE
  5
53B
100
AcDbEntity
  8
0
100
AcDbLine
 62
7
  6
CONTINUOUS
 10
472.7818809944
 20
-82.1918624882
 11
472.7818809944
 21
72.8081387038
  0
LINE
  5
53C
100
AcDbEntity
  8
0
100
AcDbLine
 62
7
  6
CONTINUOUS
 10
470.781468042
 20
71.0957726214
 11
470.781883438
 21
71.1010307306
  0
LINE
  5
53D
100
AcDbEntity
  8
0
100
AcDbLine
 62
7
  6
CONTINUOUS
 10
469.8111746448
 20
71.1210053234
 11
469.781883438
 21
70.8081375118
  0
LINE
  5
53E
100
AcDbEntity
  8
0
100
AcDbLine
 62
7
  6
CONTINUOUS
 10
469.8281618256
 20
71.2994205678
 11
469.8111746448
 21
71.1210053234
  0
LINE
  5
53F
100
AcDbEntity
  8
0
100
AcDbLine
 62
7
  6
CONTINUOUS
 10
469.8551067428
 20
71.5735043766
 11
469.8281618256
 21
71.2994205678
  0
LINE
  5
540
100
AcDbEntity
  8
0
100
AcDbLine
 62
7
  6
CONTINUOUS
 10
469.8704666936
 20
71.7229187018
 11
469.8551067428
 21
71.5735043766
  0
LINE
  5
541
100
AcDbEntity
  8
0
100
AcDbLine
 62
7
  6
CONTINUOUS
 10
469.8918306408
 20
71.920210181
 11
469.8704666936
 21
71.7229187018
  0
LINE
  5
542
100
AcDbEntity
  8
0
100
AcDbLine
 62
7
  6
CONTINUOUS
 10
469.9109828436
 20
72.0848185742
 11
469.8918306408
 21
71.920210181
  0
LINE
  5
543
100
AcDbEntity
  8
0
100
AcDbLine
 62
7
  6
CONTINUOUS
 10
469.9283300476
 20
72.2223510742
 11
469.9109828436
 21
72.0848185742
  0
LINE
  5
544
100
AcDbEntity
  8
0
100
AcDbLine
 62
7
  6
CONTINUOUS
 10
469.9349061288
 20
72.2713267098
 11
469.9283300476
 21
72.2223510742
  0
LINE
  5
545
100
AcDbEntity
  8
0
100
AcDbLine
 62
7
  6
CONTINUOUS
 10
469.9504220612
 20
72.3795290478
 11
469.9349061288
 21
72.2713267098
  0
LINE
  5
546
100
AcDbEntity
  8
0
100
AcDbLine
 62
7
  6
CONTINUOUS
 10
471.7810763664
 20
71.0957611662
 11
471.781883438
 21
71.1010307306
  0
LINE
  5
547
100
AcDbEntity
  8
0
100
AcDbLine
 62
7
  6
CONTINUOUS
 10
469.9647745232
 20
72.4699771426
 11
469.9504220612
 21
72.3795290478
  0
LINE
  5
548
100
AcDbEntity
  8
0
100
AcDbLine
 62
7
  6
CONTINUOUS
 10
469.9780401244
 20
72.5448869894
 11
469.9647745232
 21
72.4699771426
  0
LINE
  5
549
100
AcDbEntity
  8
0
100
AcDbLine
 62
7
  6
CONTINUOUS
 10
469.810883474
 20
70.9629056434
 11
469.781883438
 21
70.8081375118
  0
LINE
  5
54A
100
AcDbEntity
  8
0
100
AcDbLine
 62
7
  6
CONTINUOUS
 10
469.8344992264
 20
71.0862867986
 11
469.810883474
 21
70.9629056434
  0
LINE
  5
54B
100
AcDbEntity
  8
0
100
AcDbLine
 62
7
  6
CONTINUOUS
 10
469.8544211848
 20
71.1870469818
 11
469.8344992264
 21
71.0862867986
  0
LINE
  5
54C
100
AcDbEntity
  8
0
100
AcDbLine
 62
7
  6
CONTINUOUS
 10
469.990281936
 20
72.6062558254
 11
469.9780401244
 21
72.5448869894
  0
LINE
  5
54D
100
AcDbEntity
  8
0
100
AcDbLine
 62
7
  6
CONTINUOUS
 10
469.8720029412
 20
71.2725025398
 11
469.8544211848
 21
71.1870469818
  0
LINE
  5
54E
100
AcDbEntity
  8
0
100
AcDbLine
 62
7
  6
CONTINUOUS
 10
469.887882866
 20
71.3462278754
 11
469.8720029412
 21
71.2725025398
  0
LINE
  5
54F
100
AcDbEntity
  8
0
100
AcDbLine
 62
7
  6
CONTINUOUS
 10
469.902423074
 20
71.4103578766
 11
469.887882866
 21
71.3462278754
  0
LINE
  5
550
100
AcDbEntity
  8
0
100
AcDbLine
 62
7
  6
CONTINUOUS
 10
470.001553352
 20
72.655896577
 11
469.990281936
 21
72.6062558254
  0
LINE
  5
551
100
AcDbEntity
  8
0
100
AcDbLine
 62
7
  6
CONTINUOUS
 10
470.7802087844
 20
71.0904550882
 11
470.781468042
 21
71.0957726214
  0
LINE
  5
552
100
AcDbEntity
  8
0
100
AcDbLine
 62
7
  6
CONTINUOUS
 10
469.9158531544
 20
71.466339721
 11
469.902423074
 21
71.4103578766
  0
LINE
  5
553
100
AcDbEntity
  8
0
100
AcDbLine
 62
7
  6
CONTINUOUS
 10
469.9283300476
 20
71.515244293
 11
469.9158531544
 21
71.466339721
  0
LINE
  5
554
100
AcDbEntity
  8
0
100
AcDbLine
 62
7
  6
CONTINUOUS
 10
470.0108724552
 20
72.6918023274
 11
470.001553352
 21
72.655896577
  0
LINE
  5
555
100
AcDbEntity
  8
0
100
AcDbLine
 62
7
  6
CONTINUOUS
 10
469.9367662104
 20
71.5464604038
 11
469.9283300476
 21
71.515244293
  0
LINE
  5
556
100
AcDbEntity
  8
0
100
AcDbLine
 62
7
  6
CONTINUOUS
 10
469.9480807576
 20
71.5858484698
 11
469.9367662104
 21
71.5464604038
  0
LINE
  5
557
100
AcDbEntity
  8
0
100
AcDbLine
 62
7
  6
CONTINUOUS
 10
470.0206113496
 20
72.724275013
 11
470.0108724552
 21
72.6918023274
  0
LINE
  5
558
100
AcDbEntity
  8
0
100
AcDbLine
 62
7
  6
CONTINUOUS
 10
469.9588570416
 20
71.620651685
 11
469.9480807576
 21
71.5858484698
  0
LINE
  5
559
100
AcDbEntity
  8
0
100
AcDbLine
 62
7
  6
CONTINUOUS
 10
469.9691155724
 20
71.6512577034
 11
469.9588570416
 21
71.620651685
  0
LINE
  5
55A
100
AcDbEntity
  8
0
100
AcDbLine
 62
7
  6
CONTINUOUS
 10
470.0295740444
 20
72.749550835
 11
470.0206113496
 21
72.724275013
  0
LINE
  5
55B
100
AcDbEntity
  8
0
100
AcDbLine
 62
7
  6
CONTINUOUS
 10
469.9788753696
 20
71.6780312746
 11
469.9691155724
 21
71.6512577034
  0
LINE
  5
55C
100
AcDbEntity
  8
0
100
AcDbLine
 62
7
  6
CONTINUOUS
 10
470.7780562644
 20
71.0850149178
 11
470.7802087844
 21
71.0904550882
  0
LINE
  5
55D
100
AcDbEntity
  8
0
100
AcDbLine
 62
7
  6
CONTINUOUS
 10
469.9881544224
 20
71.7013159614
 11
469.9788753696
 21
71.6780312746
  0
LINE
  5
55E
100
AcDbEntity
  8
0
100
AcDbLine
 62
7
  6
CONTINUOUS
 10
470.037787816
 20
72.768797061
 11
470.0295740444
 21
72.749550835
  0
LINE
  5
55F
100
AcDbEntity
  8
0
100
AcDbLine
 62
7
  6
CONTINUOUS
 10
469.9969701388
 20
71.7214354262
 11
469.9881544224
 21
71.7013159614
  0
LINE
  5
560
100
AcDbEntity
  8
0
100
AcDbLine
 62
7
  6
CONTINUOUS
 10
471.7785787928
 20
71.0903580266
 11
471.7810763664
 21
71.0957611662
  0
LINE
  5
561
100
AcDbEntity
  8
0
100
AcDbLine
 62
7
  6
CONTINUOUS
 10
470.0053398056
 20
71.7386943682
 11
469.9969701388
 21
71.7214354262
  0
LINE
  5
562
100
AcDbEntity
  8
0
100
AcDbLine
 62
7
  6
CONTINUOUS
 10
470.0452877028
 20
72.7830689374
 11
470.037787816
 21
72.768797061
  0
LINE
  5
563
100
AcDbEntity
  8
0
100
AcDbLine
 62
7
  6
CONTINUOUS
 10
470.0132810944
 20
71.7533791526
 11
470.0053398056
 21
71.7386943682
  0
LINE
  5
564
100
AcDbEntity
  8
0
100
AcDbLine
 62
7
  6
CONTINUOUS
 10
470.7749243168
 20
71.0793945326
 11
470.7780562644
 21
71.0850149178
  0
LINE
  5
565
100
AcDbEntity
  8
0
100
AcDbLine
 62
7
  6
CONTINUOUS
 10
470.0208126388
 20
71.7657581642
 11
470.0132810944
 21
71.7533791526
  0
LINE
  5
566
100
AcDbEntity
  8
0
100
AcDbLine
 62
7
  6
CONTINUOUS
 10
470.052121764
 20
72.7933074242
 11
470.0452877028
 21
72.7830689374
  0
LINE
  5
567
100
AcDbEntity
  8
0
100
AcDbLine
 62
7
  6
CONTINUOUS
 10
470.0279547112
 20
71.7760818682
 11
470.0208126388
 21
71.7657581642
  0
LINE
  5
568
100
AcDbEntity
  8
0
100
AcDbLine
 62
7
  6
CONTINUOUS
 10
470.7706943384
 20
71.0735435086
 11
470.7749243168
 21
71.0793945326
  0
LINE
  5
569
100
AcDbEntity
  8
0
100
AcDbLine
 62
7
  6
CONTINUOUS
 10
471.7740791204
 20
71.084613515
 11
471.7785787928
 21
71.0903580266
  0
LINE
  5
56A
100
AcDbEntity
  8
0
100
AcDbLine
 62
7
  6
CONTINUOUS
 10
470.0347300316
 20
71.7845825426
 11
470.0279547112
 21
71.7760818682
  0
LINE
  5
56B
100
AcDbEntity
  8
0
100
AcDbLine
 62
7
  6
CONTINUOUS
 10
470.0583594412
 20
72.8003331942
 11
470.052121764
 21
72.7933074242
  0
LINE
  5
56C
100
AcDbEntity
  8
0
100
AcDbLine
 62
7
  6
CONTINUOUS
 10
470.7652195308
 20
71.0674188022
 11
470.7706943384
 21
71.0735435086
  0
LINE
  5
56D
100
AcDbEntity
  8
0
100
AcDbLine
 62
7
  6
CONTINUOUS
 10
470.0411647284
 20
71.7914736046
 11
470.0347300316
 21
71.7845825426
  0
LINE
  5
56E
100
AcDbEntity
  8
0
100
AcDbLine
 62
7
  6
CONTINUOUS
 10
470.7583284688
 20
71.0609841054
 11
470.7652195308
 21
71.0674188022
  0
LINE
  5
56F
100
AcDbEntity
  8
0
100
AcDbLine
 62
7
  6
CONTINUOUS
 10
470.0472894348
 20
71.7969484118
 11
470.0411647284
 21
71.7914736046
  0
LINE
  5
570
100
AcDbEntity
  8
0
100
AcDbLine
 62
7
  6
CONTINUOUS
 10
471.7670533508
 20
71.0783758378
 11
471.7740791204
 21
71.084613515
  0
LINE
  5
571
100
AcDbEntity
  8
0
100
AcDbLine
 62
7
  6
CONTINUOUS
 10
470.7498277944
 20
71.0542087846
 11
470.7583284688
 21
71.0609841054
  0
LINE
  5
572
100
AcDbEntity
  8
0
100
AcDbLine
 62
7
  6
CONTINUOUS
 10
470.0641039528
 20
72.8048328666
 11
470.0583594412
 21
72.8003331942
  0
LINE
  5
573
100
AcDbEntity
  8
0
100
AcDbLine
 62
7
  6
CONTINUOUS
 10
470.0531404588
 20
71.8011783906
 11
470.0472894348
 21
71.7969484118
  0
LINE
  5
574
100
AcDbEntity
  8
0
100
AcDbLine
 62
7
  6
CONTINUOUS
 10
470.7395040904
 20
71.0470667126
 11
470.7498277944
 21
71.0542087846
  0
LINE
  5
575
100
AcDbEntity
  8
0
100
AcDbLine
 62
7
  6
CONTINUOUS
 10
471.7568148636
 20
71.0715417766
 11
471.7670533508
 21
71.0783758378
  0
LINE
  5
576
100
AcDbEntity
  8
0
100
AcDbLine
 62
7
  6
CONTINUOUS
 10
470.7271250788
 20
71.0395351682
 11
470.7395040904
 21
71.0470667126
  0
LWPOLYLINE
  5
577
100
AcDbEntity
  8
0
100
AcDbPolyline
 62
7
  6
CONTINUOUS
 90
3
 70
0
 43
0.3499999917
 10
266.2135290527
 20
-47.6606119537
 10
263.8801757812
 20
-48.9731119537
 10
262.7135119629
 20
-48.9731119537
  0
LINE
  5
578
100
AcDbEntity
  8
0
100
AcDbLine
 62
7
  6
CONTINUOUS
 10
470.058760844
 20
71.8043103378
 11
470.0531404588
 21
71.8011783906
  0
LINE
  5
579
100
AcDbEntity
  8
0
100
AcDbLine
 62
7
  6
CONTINUOUS
 10
470.1646782952
 20
-80.0150256566
 11
470.1413945228
 21
-80.0273657126
  0
LINE
  5
57A
100
AcDbEntity
  8
0
100
AcDbLine
 62
7
  6
CONTINUOUS
 10
470.1413945228
 20
-80.0273657126
 11
470.1179767804
 21
-80.039443753
  0
LINE
  5
57B
100
AcDbEntity
  8
0
100
AcDbLine
 62
7
  6
CONTINUOUS
 10
470.1179767804
 20
-80.039443753
 11
470.094435462
 21
-80.0512791306
  0
LINE
  5
57C
100
AcDbEntity
  8
0
100
AcDbLine
 62
7
  6
CONTINUOUS
 10
470.094435462
 20
-80.0512791306
 11
470.070780962
 21
-80.062891199
  0
LINE
  5
57D
100
AcDbEntity
  8
0
100
AcDbLine
 62
7
  6
CONTINUOUS
 10
470.070780962
 20
-80.062891199
 11
470.0470236748
 21
-80.0742993106
  0
LINE
  5
57E
100
AcDbEntity
  8
0
100
AcDbLine
 62
7
  6
CONTINUOUS
 10
470.0470236748
 20
-80.0742993106
 11
470.0231739952
 21
-80.0855228186
  0
LINE
  5
57F
100
AcDbEntity
  8
0
100
AcDbLine
 62
7
  6
CONTINUOUS
 10
470.0231739952
 20
-80.0855228186
 11
469.9992423168
 21
-80.0965810766
  0
LINE
  5
580
100
AcDbEntity
  8
0
100
AcDbLine
 62
7
  6
CONTINUOUS
 10
469.9992423168
 20
-80.0965810766
 11
469.9752390348
 21
-80.1074934374
  0
LINE
  5
581
100
AcDbEntity
  8
0
100
AcDbLine
 62
7
  6
CONTINUOUS
 10
469.9752390348
 20
-80.1074934374
 11
469.9511745428
 21
-80.1182792542
  0
LINE
  5
582
100
AcDbEntity
  8
0
100
AcDbLine
 62
7
  6
CONTINUOUS
 10
469.9511745428
 20
-80.1182792542
 11
469.9029035088
 21
-80.139548667
  0
LINE
  5
583
100
AcDbEntity
  8
0
100
AcDbLine
 62
7
  6
CONTINUOUS
 10
469.9029035088
 20
-80.139548667
 11
469.7818823652
 21
-80.1918623934
  0
ARC
  5
584
100
AcDbEntity
  8
0
100
AcDbCircle
 62
7
  6
CONTINUOUS
 10
-223.3280029644
 20
-80.1918624882
 40
2.0
100
AcDbArc
 50
180.0
 51
270.0
  0
ARC
  5
585
100
AcDbEntity
  8
0
100
AcDbCircle
 62
7
  6
CONTINUOUS
 10
-222.3280029644
 20
-79.1918624882
 40
2.0
100
AcDbArc
 50
180.0
 51
270.0
  0
CIRCLE
  5
586
100
AcDbEntity
  8
0
100
AcDbCircle
 62
7
  6
CONTINUOUS
 10
-137.8280029644
 20
-61.5205806686
 40
1.6
  0
ARC
  5
587
100
AcDbEntity
  8
0
100
AcDbCircle
 62
7
  6
CONTINUOUS
 10
-218.3280029644
 20
-5.7918624882
 40
1.6
100
AcDbArc
 50
0.0
 51
180.0
  0
ARC
  5
588
100
AcDbEntity
  8
0
100
AcDbCircle
 62
7
  6
CONTINUOUS
 10
-218.3280029644
 20
-8.9918624882
 40
1.6
100
AcDbArc
 50
180.0
 51
360.0
  0
CIRCLE
  5
589
100
AcDbEntity
  8
0
100
AcDbCircle
 62
7
  6
CONTINUOUS
 10
-0.3280029644
 20
-61.5205806686
 40
1.6
  0
CIRCLE
  5
58A
100
AcDbEntity
  8
0
100
AcDbCircle
 62
7
  6
CONTINUOUS
 10
-218.3280029644
 20
-7.3918624882
 40
1.25
  0
ARC
  5
58B
100
AcDbEntity
  8
0
100
AcDbCircle
 62
7
  6
CONTINUOUS
 10
-223.3280029644
 20
-80.1918624882
 40
1.0
100
AcDbArc
 50
180.0
 51
270.0
  0
ARC
  5
58C
100
AcDbEntity
  8
0
100
AcDbCircle
 62
7
  6
CONTINUOUS
 10
-221.3280029644
 20
3.8081375118
 40
3.0
100
AcDbArc
 50
180.0
 51
270.0
  0
ARC
  5
58D
100
AcDbEntity
  8
0
100
AcDbCircle
 62
7
  6
CONTINUOUS
 10
-222.3280029644
 20
-1.6918624882
 40
2.0
100
AcDbArc
 50
90.0
 51
180.0
  0
ARC
  5
58E
100
AcDbEntity
  8
0
100
AcDbCircle
 62
7
  6
CONTINUOUS
 10
-222.3280029644
 20
70.8081375118
 40
2.0
100
AcDbArc
 50
90.0
 51
180.0
  0
ARC
  5
58F
100
AcDbEntity
  8
0
100
AcDbCircle
 62
7
  6
CONTINUOUS
 10
-214.5280029644
 20
70.8081375118
 40
2.0
100
AcDbArc
 50
0.0
 51
90.0
  0
ARC
  5
590
100
AcDbEntity
  8
0
100
AcDbCircle
 62
7
  6
CONTINUOUS
 10
-218.3280029644
 20
10.2081375118
 40
1.6
100
AcDbArc
 50
0.0
 51
180.0
  0
ARC
  5
591
100
AcDbEntity
  8
0
100
AcDbCircle
 62
7
  6
CONTINUOUS
 10
-218.3280029644
 20
7.0081375118
 40
1.6
100
AcDbArc
 50
180.0
 51
360.0
  0
CIRCLE
  5
592
100
AcDbEntity
  8
0
100
AcDbCircle
 62
7
  6
CONTINUOUS
 10
-218.3280029644
 20
8.6081375118
 40
1.6
  0
ARC
  5
593
100
AcDbEntity
  8
0
100
AcDbCircle
 62
7
  6
CONTINUOUS
 10
-218.3280029644
 20
66.4081375118
 40
1.6
100
AcDbArc
 50
0.0
 51
180.0
  0
ARC
  5
594
100
AcDbEntity
  8
0
100
AcDbCircle
 62
7
  6
CONTINUOUS
 10
-218.3280029644
 20
63.2081375118
 40
1.6
100
AcDbArc
 50
180.0
 51
360.0
  0
CIRCLE
  5
595
100
AcDbEntity
  8
0
100
AcDbCircle
 62
7
  6
CONTINUOUS
 10
-218.3280029644
 20
64.8081375118
 40
1.6
  0
ARC
  5
596
100
AcDbEntity
  8
0
100
AcDbCircle
 62
7
  6
CONTINUOUS
 10
-207.3280029644
 20
1.8081375118
 40
1.0
100
AcDbArc
 50
270.0
 51
360.0
  0
ARC
  5
597
100
AcDbEntity
  8
0
100
AcDbCircle
 62
7
  6
CONTINUOUS
 10
222.6719970356
 20
-80.1918624882
 40
2.0
100
AcDbArc
 50
270.0
 51
360.0
  0
ARC
  5
598
100
AcDbEntity
  8
0
100
AcDbCircle
 62
7
  6
CONTINUOUS
 10
221.6719970356
 20
-79.1918624882
 40
2.0
100
AcDbArc
 50
270.0
 51
360.0
  0
ARC
  5
599
100
AcDbEntity
  8
0
100
AcDbCircle
 62
7
  6
CONTINUOUS
 10
217.6719970356
 20
-5.7918624882
 40
1.6
100
AcDbArc
 50
0.0
 51
180.0
  0
ARC
  5
59A
100
AcDbEntity
  8
0
100
AcDbCircle
 62
7
  6
CONTINUOUS
 10
217.6719970356
 20
-8.9918624882
 40
1.6
100
AcDbArc
 50
180.0
 51
360.0
  0
CIRCLE
  5
59B
100
AcDbEntity
  8
0
100
AcDbCircle
 62
7
  6
CONTINUOUS
 10
137.1719970356
 20
-61.5205806686
 40
1.6
  0
CIRCLE
  5
59C
100
AcDbEntity
  8
0
100
AcDbCircle
 62
7
  6
CONTINUOUS
 10
217.6719970356
 20
-7.3918624882
 40
1.25
  0
ARC
  5
59D
100
AcDbEntity
  8
0
100
AcDbCircle
 62
7
  6
CONTINUOUS
 10
222.6719970356
 20
-80.1918624882
 40
1.0
100
AcDbArc
 50
270.0
 51
360.0
  0
ARC
  5
59E
100
AcDbEntity
  8
0
100
AcDbCircle
 62
7
  6
CONTINUOUS
 10
447.781883438
 20
40.262343003
 40
18.0
100
AcDbArc
 50
91.5917541766
 51
268.4082458234
  0
ARC
  5
59F
100
AcDbEntity
  8
0
100
AcDbCircle
 62
7
  6
CONTINUOUS
 10
447.781883438
 20
40.262343003
 40
18.0
100
AcDbArc
 50
271.5917541766
 51
88.4082458234
  0
ARC
  5
5A0
100
AcDbEntity
  8
0
100
AcDbCircle
 62
7
  6
CONTINUOUS
 10
447.781883438
 20
40.262343003
 40
16.5
100
AcDbArc
 50
91.7365015759
 51
268.2634984241
  0
ARC
  5
5A1
100
AcDbEntity
  8
0
100
AcDbCircle
 62
7
  6
CONTINUOUS
 10
447.781883438
 20
40.262343003
 40
16.5
100
AcDbArc
 50
271.7365015759
 51
88.2634984241
  0
ARC
  5
5A2
100
AcDbEntity
  8
0
100
AcDbCircle
 62
7
  6
CONTINUOUS
 10
220.6719970356
 20
3.8081375118
 40
3.0
100
AcDbArc
 50
270.0
 51
360.0
  0
ARC
  5
5A3
100
AcDbEntity
  8
0
100
AcDbCircle
 62
7
  6
CONTINUOUS
 10
322.981883438
 20
70.6081375118
 40
2.2
100
AcDbArc
 50
90.0
 51
123.0557311509
  0
ARC
  5
5A4
100
AcDbEntity
  8
0
100
AcDbCircle
 62
7
  6
CONTINUOUS
 10
470.581883438
 20
70.6081375118
 40
2.2
100
AcDbArc
 50
56.944268849
 51
90.0
  0
ARC
  5
5A5
100
AcDbEntity
  8
0
100
AcDbCircle
 62
7
  6
CONTINUOUS
 10
221.6719970356
 20
-1.6918624882
 40
2.0
100
AcDbArc
 50
0.0
 51
90.0
  0
ARC
  5
5A6
100
AcDbEntity
  8
0
100
AcDbCircle
 62
7
  6
CONTINUOUS
 10
221.6719970356
 20
70.8081375118
 40
2.0
100
AcDbArc
 50
0.0
 51
90.0
  0
ARC
  5
5A7
100
AcDbEntity
  8
0
100
AcDbCircle
 62
7
  6
CONTINUOUS
 10
213.8719970356
 20
70.8081375118
 40
2.0
100
AcDbArc
 50
90.0
 51
180.0
  0
CIRCLE
  5
5A8
100
AcDbEntity
  8
0
100
AcDbCircle
 62
7
  6
CONTINUOUS
 10
459.781883438
 20
7.6081375118
 40
1.65
  0
CIRCLE
  5
5A9
100
AcDbEntity
  8
0
100
AcDbCircle
 62
7
  6
CONTINUOUS
 10
333.781883438
 20
7.6081375118
 40
1.65
  0
ARC
  5
5AA
100
AcDbEntity
  8
0
100
AcDbCircle
 62
7
  6
CONTINUOUS
 10
217.6719970356
 20
10.2081375118
 40
1.6
100
AcDbArc
 50
0.0
 51
180.0
  0
ARC
  5
5AB
100
AcDbEntity
  8
0
100
AcDbCircle
 62
7
  6
CONTINUOUS
 10
217.6719970356
 20
7.0081375118
 40
1.6
100
AcDbArc
 50
180.0
 51
360.0
  0
CIRCLE
  5
5AC
100
AcDbEntity
  8
0
100
AcDbCircle
 62
7
  6
CONTINUOUS
 10
217.6719970356
 20
8.6081375118
 40
1.6
  0
ARC
  5
5AD
100
AcDbEntity
  8
0
100
AcDbCircle
 62
7
  6
CONTINUOUS
 10
217.6719970356
 20
66.4081375118
 40
1.6
100
AcDbArc
 50
0.0
 51
180.0
  0
ARC
  5
5AE
100
AcDbEntity
  8
0
100
AcDbCircle
 62
7
  6
CONTINUOUS
 10
217.6719970356
 20
63.2081375118
 40
1.6
100
AcDbArc
 50
180.0
 51
360.0
  0
CIRCLE
  5
5AF
100
AcDbEntity
  8
0
100
AcDbCircle
 62
7
  6
CONTINUOUS
 10
217.6719970356
 20
64.8081375118
 40
1.6
  0
ARC
  5
5B0
100
AcDbEntity
  8
0
100
AcDbCircle
 62
7
  6
CONTINUOUS
 10
322.981883438
 20
70.6081375118
 40
1.2
100
AcDbArc
 50
90.0
 51
155.4285479854
  0
ARC
  5
5B1
100
AcDbEntity
  8
0
100
AcDbCircle
 62
7
  6
CONTINUOUS
 10
470.581883438
 20
70.6081375118
 40
1.2
100
AcDbArc
 50
24.405002125
 51
90.0
  0
ARC
  5
5B2
100
AcDbEntity
  8
0
100
AcDbCircle
 62
7
  6
CONTINUOUS
 10
206.6719970356
 20
1.8081375118
 40
1.0
100
AcDbArc
 50
180.0
 51
270.0
  0
ENDSEC
  0
SECTION
  2
OBJECTS
  0
DICTIONARY
  5
C
100
AcDbDictionary
280
0
281
1
  3
ACAD_GROUP
350
D
  3
ACAD_MLINESTYLE
350
17
  3
ACAD_LAYOUT
350
1A
  3
ACAD_PLOTSETTINGS
350
19
  3
ACAD_PLOTSTYLENAME
350
E
  0
DICTIONARY
  5
D
102
{ACAD_REACTORS
330
C
102
}
100
AcDbDictionary
280
0
281
1
  0
ACDBDICTIONARYWDFLT
  5
E
102
{ACAD_REACTORS
330
C
102
}
100
AcDbDictionary
281
1
  3
Normal
350
F
100
AcDbDictionaryWithDefault
340
F
  0
DICTIONARY
  5
17
102
{ACAD_REACTORS
330
C
102
}
100
AcDbDictionary
280
0
281
1
  3
Standard
350
18
  0
DICTIONARY
  5
19
102
{ACAD_REACTORS
330
C
102
}
100
AcDbDictionary
281
1
  0
DICTIONARY
  5
1A
102
{ACAD_REACTORS
330
C
102
}
100
AcDbDictionary
281
1
  3
Model
350
5B3
  3
Layout1
350
5B4
  0
ACDBPLACEHOLDER
  5
F
102
{ACAD_REACTORS
330
E
102
}
  0
MLINESTYLE
  5
18
102
{ACAD_REACTORS
330
17
102
}
100
AcDbMlineStyle
  2
STANDARD
 70
0
  3

 62
256
 51
90.0
 52
90.0
 71
2
 49
0.5
 62
256
  6
BYLAYER
 49
-0.5
 62
256
  6
BYLAYER
  0
LAYOUT
  5
5B3
102
{ACAD_REACTORS
330
1A
102
}
100
AcDbPlotSettings
  1

  2
none_device
  4
ISO_A3_(420.00_x_297.00_MM)
  6

 40
0.0
 41
0.0
 42
0.0
 43
0.0
 44
420.0
 45
297.0
 46
0.0
 47
0.0
 48
0.0
 49
0.0
140
0.0
141
0.0
142
1.0
143
1.0
 70
1024
 72
1
 73
0
 74
0
  7

 75
0
147
1.0
148
0.0
149
0.0
100
AcDbLayout
  1
Model
 70
0
 71
0
 10
0.0
 20
0.0
 11
420.0
 21
297.0
 12
0.0
 22
0.0
 32
0.0
 14
0.0
 24
0.0
 34
0.0
 15
0.0
 25
0.0
 35
0.0
146
0.0
 13
0.0
 23
0.0
 33
0.0
 16
1.0
 26
0.0
 36
0.0
 17
0.0
 27
1.0
 37
0.0
 76
0
330
200
345
0
346
0
  0
LAYOUT
  5
5B4
102
{ACAD_REACTORS
330
1A
102
}
100
AcDbPlotSettings
  1

  2
none_device
  4
ISO_A3_(420.00_x_297.00_MM)
  6

 40
0.0
 41
0.0
 42
0.0
 43
0.0
 44
420.0
 45
297.0
 46
0.0
 47
0.0
 48
0.0
 49
0.0
140
0.0
141
0.0
142
1.0
143
1.0
 70
0
 72
1
 73
0
 74
0
  7

 75
0
147
1.0
148
0.0
149
0.0
100
AcDbLayout
  1
Layout1
 70
0
 71
1
 10
0.0
 20
0.0
 11
420.0
 21
297.0
 12
0.0
 22
0.0
 32
0.0
 14
0.0
 24
0.0
 34
0.0
 15
0.0
 25
0.0
 35
0.0
146
0.0
 13
0.0
 23
0.0
 33
0.0
 16
1.0
 26
0.0
 36
0.0
 17
0.0
 27
1.0
 37
0.0
 76
0
330
201
345
0
346
0
  0
ENDSEC
  0
EOF
